  0
SECTION
  2
HEADER
  9
$ACADVER
  1
AC1015
  9
$ACADMAINTVER
 70
     6
  9
$DWGCODEPAGE
  3
ANSI_1252
  9
$INSBASE
 10
0.0
 20
0.0
 30
0.0
  9
$EXTMIN
 10
0.0
 20
0.0
 30
0.0
  9
$EXTMAX
 10
51.0
 20
33.0
 30
0.0
  9
$LIMMIN
 10
0.0
 20
0.0
  9
$LIMMAX
 10
51.0
 20
33.0
  9
$ORTHOMODE
 70
     0
  9
$REGENMODE
 70
     1
  9
$FILLMODE
 70
     1
  9
$QTEXTMODE
 70
     0
  9
$MIRRTEXT
 70
     1
  9
$LTSCALE
 40
3.0
  9
$ATTMODE
 70
     1
  9
$TEXTSIZE
 40
0.375
  9
$TRACEWID
 40
0.05
  9
$TEXTSTYLE
  7
Standard
  9
$CLAYER
  8
0
  9
$CELTYPE
  6
ByLayer
  9
$CECOLOR
 62
   256
  9
$CELTSCALE
 40
1.0
  9
$DISPSILH
 70
     0
  9
$DIMSCALE
 40
1.0
  9
$DIMASZ
 40
0.39
  9
$DIMEXO
 40
0.15
  9
$DIMDLI
 40
0.38
  9
$DIMRND
 40
0.0
  9
$DIMDLE
 40
0.0
  9
$DIMEXE
 40
0.375
  9
$DIMTP
 40
0.0
  9
$DIMTM
 40
0.0
  9
$DIMTXT
 40
0.375
  9
$DIMCEN
 40
0.09
  9
$DIMTSZ
 40
0.0
  9
$DIMTOL
 70
     0
  9
$DIMLIM
 70
     0
  9
$DIMTIH
 70
     1
  9
$DIMTOH
 70
     1
  9
$DIMSE1
 70
     0
  9
$DIMSE2
 70
     0
  9
$DIMTAD
 70
     1
  9
$DIMZIN
 70
     0
  9
$DIMBLK
  1

  9
$DIMASO
 70
     1
  9
$DIMSHO
 70
     1
  9
$DIMPOST
  1

  9
$DIMAPOST
  1

  9
$DIMALT
 70
     0
  9
$DIMALTD
 70
     2
  9
$DIMALTF
 40
25.4
  9
$DIMLFAC
 40
1.0
  9
$DIMTOFL
 70
     0
  9
$DIMTVP
 40
0.0
  9
$DIMTIX
 70
     0
  9
$DIMSOXD
 70
     0
  9
$DIMSAH
 70
     0
  9
$DIMBLK1
  1

  9
$DIMBLK2
  1

  9
$DIMSTYLE
  2
Standard
  9
$DIMCLRD
 70
     0
  9
$DIMCLRE
 70
     0
  9
$DIMCLRT
 70
     0
  9
$DIMTFAC
 40
1.0
  9
$DIMGAP
 40
0.18
  9
$DIMJUST
 70
     0
  9
$DIMSD1
 70
     0
  9
$DIMSD2
 70
     0
  9
$DIMTOLJ
 70
     1
  9
$DIMTZIN
 70
     0
  9
$DIMALTZ
 70
     0
  9
$DIMALTTZ
 70
     0
  9
$DIMUPT
 70
     0
  9
$DIMDEC
 70
     2
  9
$DIMTDEC
 70
     2
  9
$DIMALTU
 70
     2
  9
$DIMALTTD
 70
     2
  9
$DIMTXSTY
  7
Standard
  9
$DIMAUNIT
 70
     0
  9
$DIMADEC
 70
     2
  9
$DIMALTRND
 40
0.0
  9
$DIMAZIN
 70
     0
  9
$DIMDSEP
 70
    46
  9
$DIMATFIT
 70
     3
  9
$DIMFRAC
 70
     0
  9
$DIMLDRBLK
  1

  9
$DIMLUNIT
 70
     2
  9
$DIMLWD
 70
    -2
  9
$DIMLWE
 70
    -2
  9
$DIMTMOVE
 70
     0
  9
$LUNITS
 70
     2
  9
$LUPREC
 70
     2
  9
$SKETCHINC
 40
0.1
  9
$FILLETRAD
 40
0.5
  9
$AUNITS
 70
     0
  9
$AUPREC
 70
     2
  9
$MENU
  1
.
  9
$ELEVATION
 40
0.0
  9
$PELEVATION
 40
0.0
  9
$THICKNESS
 40
0.0
  9
$LIMCHECK
 70
     0
  9
$CHAMFERA
 40
0.5
  9
$CHAMFERB
 40
0.5
  9
$CHAMFERC
 40
1.0
  9
$CHAMFERD
 40
0.0
  9
$SKPOLY
 70
     0
  9
$TDCREATE
 40
2455761.413535058
  9
$TDUCREATE
 40
2455761.580201725
  9
$TDUPDATE
 40
2455761.41353507
  9
$TDUUPDATE
 40
2455761.580201736
  9
$TDINDWG
 40
0.0000000116
  9
$TDUSRTIMER
 40
0.0000000116
  9
$USRTIMER
 70
     1
  9
$ANGBASE
 50
0.0
  9
$ANGDIR
 70
     0
  9
$PDMODE
 70
     0
  9
$PDSIZE
 40
-1.0
  9
$PLINEWID
 40
0.0
  9
$SPLFRAME
 70
     0
  9
$SPLINETYPE
 70
     6
  9
$SPLINESEGS
 70
     8
  9
$HANDSEED
  5
42C
  9
$SURFTAB1
 70
     6
  9
$SURFTAB2
 70
     6
  9
$SURFTYPE
 70
     6
  9
$SURFU
 70
     6
  9
$SURFV
 70
     6
  9
$UCSBASE
  2

  9
$UCSNAME
  2

  9
$UCSORG
 10
0.0
 20
0.0
 30
0.0
  9
$UCSXDIR
 10
1.0
 20
0.0
 30
0.0
  9
$UCSYDIR
 10
0.0
 20
1.0
 30
0.0
  9
$UCSORTHOREF
  2

  9
$UCSORTHOVIEW
 70
     0
  9
$UCSORGTOP
 10
0.0
 20
0.0
 30
0.0
  9
$UCSORGBOTTOM
 10
0.0
 20
0.0
 30
0.0
  9
$UCSORGLEFT
 10
0.0
 20
0.0
 30
0.0
  9
$UCSORGRIGHT
 10
0.0
 20
0.0
 30
0.0
  9
$UCSORGFRONT
 10
0.0
 20
0.0
 30
0.0
  9
$UCSORGBACK
 10
0.0
 20
0.0
 30
0.0
  9
$PUCSBASE
  2

  9
$PUCSNAME
  2

  9
$PUCSORG
 10
0.0
 20
0.0
 30
0.0
  9
$PUCSXDIR
 10
1.0
 20
0.0
 30
0.0
  9
$PUCSYDIR
 10
0.0
 20
1.0
 30
0.0
  9
$PUCSORTHOREF
  2

  9
$PUCSORTHOVIEW
 70
     0
  9
$PUCSORGTOP
 10
0.0
 20
0.0
 30
0.0
  9
$PUCSORGBOTTOM
 10
0.0
 20
0.0
 30
0.0
  9
$PUCSORGLEFT
 10
0.0
 20
0.0
 30
0.0
  9
$PUCSORGRIGHT
 10
0.0
 20
0.0
 30
0.0
  9
$PUCSORGFRONT
 10
0.0
 20
0.0
 30
0.0
  9
$PUCSORGBACK
 10
0.0
 20
0.0
 30
0.0
  9
$USERI1
 70
     0
  9
$USERI2
 70
     0
  9
$USERI3
 70
     0
  9
$USERI4
 70
     0
  9
$USERI5
 70
     0
  9
$USERR1
 40
0.0
  9
$USERR2
 40
0.0
  9
$USERR3
 40
0.0
  9
$USERR4
 40
0.0
  9
$USERR5
 40
0.0
  9
$WORLDVIEW
 70
     1
  9
$SHADEDGE
 70
     3
  9
$SHADEDIF
 70
    70
  9
$TILEMODE
 70
     1
  9
$MAXACTVP
 70
    64
  9
$PINSBASE
 10
0.0
 20
0.0
 30
0.0
  9
$PLIMCHECK
 70
     0
  9
$PEXTMIN
 10
1.0000000000E+20
 20
1.0000000000E+20
 30
1.0000000000E+20
  9
$PEXTMAX
 10
-1.0000000000E+20
 20
-1.0000000000E+20
 30
-1.0000000000E+20
  9
$PLIMMIN
 10
0.0
 20
0.0
  9
$PLIMMAX
 10
12.0
 20
9.0
  9
$UNITMODE
 70
     0
  9
$VISRETAIN
 70
     1
  9
$PLINEGEN
 70
     0
  9
$PSLTSCALE
 70
     1
  9
$TREEDEPTH
 70
  3020
  9
$CMLSTYLE
  2
Standard
  9
$CMLJUST
 70
     0
  9
$CMLSCALE
 40
1.0
  9
$PROXYGRAPHICS
 70
     1
  9
$MEASUREMENT
 70
     0
  9
$CELWEIGHT
370
    -1
  9
$ENDCAPS
280
     0
  9
$JOINSTYLE
280
     0
  9
$LWDISPLAY
290
     1
  9
$INSUNITS
 70
     1
  9
$HYPERLINKBASE
  1

  9
$STYLESHEET
  1

  9
$XEDIT
290
     1
  9
$CEPSNTYPE
380
     0
  9
$PSTYLEMODE
290
     1
  9
$FINGERPRINTGUID
  2
{9FE2636E-E7B2-4802-B59E-EF14CEDAC1CB}
  9
$VERSIONGUID
  2
{FAEB1C32-E019-11D5-929B-00C0DF256EC4}
  9
$EXTNAMES
290
     1
  9
$PSVPSCALE
 40
0.0
  9
$OLESTARTUP
290
     0
  0
ENDSEC
  0
SECTION
  2
CLASSES
  0
CLASS
  1
ACDBDICTIONARYWDFLT
  2
AcDbDictionaryWithDefault
  3
ObjectDBX Classes
 90
        0
280
     0
281
     0
  0
CLASS
  1
VISUALSTYLE
  2
AcDbVisualStyle
  3
ObjectDBX Classes
 90
     4095
280
     0
281
     0
  0
CLASS
  1
MATERIAL
  2
AcDbMaterial
  3
ObjectDBX Classes
 90
     1153
280
     0
281
     0
  0
CLASS
  1
SCALE
  2
AcDbScale
  3
ObjectDBX Classes
 90
     1153
280
     0
281
     0
  0
CLASS
  1
DICTIONARYVAR
  2
AcDbDictionaryVar
  3
ObjectDBX Classes
 90
        0
280
     0
281
     0
  0
CLASS
  1
ACDBPLACEHOLDER
  2
AcDbPlaceHolder
  3
ObjectDBX Classes
 90
        0
280
     0
281
     0
  0
CLASS
  1
LAYOUT
  2
AcDbLayout
  3
ObjectDBX Classes
 90
        0
280
     0
281
     0
  0
ENDSEC
  0
SECTION
  2
TABLES
  0
TABLE
  2
VPORT
  5
8
330
0
100
AcDbSymbolTable
 70
     1
  0
VPORT
  5
29
330
8
100
AcDbSymbolTableRecord
100
AcDbViewportTableRecord
  2
*Active
 70
     0
 10
0.0
 20
0.0
 11
1.0
 21
1.0
 12
25.5
 22
16.5
 13
0.0
 23
0.0
 14
0.5
 24
0.5
 15
0.5
 25
0.5
 16
0.0
 26
0.0
 36
1.0
 17
0.0
 27
0.0
 37
0.0
 40
33.0
 41
1.5454545455
 42
50.0
 43
0.0
 44
0.0
 50
0.0
 51
0.0
 71
     0
 72
  2000
 73
     1
 74
     3
 75
     0
 76
     0
 77
     0
 78
     0
281
     0
 65
     1
110
0.0
120
0.0
130
0.0
111
1.0
121
0.0
131
0.0
112
0.0
122
1.0
132
0.0
 79
     0
146
0.0
  0
ENDTAB
  0
TABLE
  2
LTYPE
  5
5
330
0
100
AcDbSymbolTable
 70
     6
  0
LTYPE
  5
14
330
5
100
AcDbSymbolTableRecord
100
AcDbLinetypeTableRecord
  2
ByBlock
 70
     0
  3

 72
    65
 73
     0
 40
0.0
  0
LTYPE
  5
15
330
5
100
AcDbSymbolTableRecord
100
AcDbLinetypeTableRecord
  2
ByLayer
 70
     0
  3

 72
    65
 73
     0
 40
0.0
  0
LTYPE
  5
16
330
5
100
AcDbSymbolTableRecord
100
AcDbLinetypeTableRecord
  2
Continuous
 70
     0
  3
Solid line
 72
    65
 73
     0
 40
0.0
  0
LTYPE
  5
3F
330
5
100
AcDbSymbolTableRecord
100
AcDbLinetypeTableRecord
  2
HIDDEN
 70
     0
  3
Hidden __ __ __ __ __ __ __ __ __ __ __ __ __ __
 72
    65
 73
     2
 40
0.075
 49
0.05
 74
     0
 49
-0.025
 74
     0
  0
LTYPE
  5
40
330
5
100
AcDbSymbolTableRecord
100
AcDbLinetypeTableRecord
  2
PHANTOM
 70
     0
  3
Phantom ______  __  __  ______  __  __  ______
 72
    65
 73
     6
 40
0.5
 49
0.25
 74
     0
 49
-0.05
 74
     0
 49
0.05
 74
     0
 49
-0.05
 74
     0
 49
0.05
 74
     0
 49
-0.05
 74
     0
  0
LTYPE
  5
41
330
5
100
AcDbSymbolTableRecord
100
AcDbLinetypeTableRecord
  2
CENTER
 70
     0
  3
Center ____ _ ____ _ ____ _ ____ _ ____ _ ____
 72
    65
 73
     4
 40
0.4
 49
0.25
 74
     0
 49
-0.05
 74
     0
 49
0.05
 74
     0
 49
-0.05
 74
     0
  0
LTYPE
  5
42
330
5
100
AcDbSymbolTableRecord
100
AcDbLinetypeTableRecord
  2
CENTERX2
 70
     0
  3
Center (2x) ________  __  ________  __  _____
 72
    65
 73
     4
 40
0.8
 49
0.5
 74
     0
 49
-0.1
 74
     0
 49
0.1
 74
     0
 49
-0.1
 74
     0
  0
LTYPE
  5
43
330
5
100
AcDbSymbolTableRecord
100
AcDbLinetypeTableRecord
  2
DOT2
 70
     0
  3
Dot (.5x) ........................................
 72
    65
 73
     2
 40
0.025
 49
0.0
 74
     0
 49
-0.025
 74
     0
  0
ENDTAB
  0
TABLE
  2
LAYER
  5
2
330
0
100
AcDbSymbolTable
 70
     1
  0
LAYER
  5
10
330
2
100
AcDbSymbolTableRecord
100
AcDbLayerTableRecord
  2
0
 70
     0
 62
     7
  6
Continuous
370
    -3
390
F
  0
ENDTAB
  0
TABLE
  2
STYLE
  5
3
330
0
100
AcDbSymbolTable
 70
     2
  0
STYLE
  5
11
330
3
100
AcDbSymbolTableRecord
100
AcDbTextStyleTableRecord
  2
Standard
 70
     0
 40
0.0
 41
1.0
 50
0.0
 71
     0
 42
0.2
  3
txt
  4

  0
STYLE
  5
57
330
3
100
AcDbSymbolTableRecord
100
AcDbTextStyleTableRecord
  2
SLDTEXTSTYLE0
 70
     0
 40
0.0
 41
0.75
 50
0.0
 71
     0
 42
0.2
  3
TXT
  4

  0
ENDTAB
  0
TABLE
  2
VIEW
  5
6
330
0
100
AcDbSymbolTable
 70
     0
  0
ENDTAB
  0
TABLE
  2
UCS
  5
7
330
0
100
AcDbSymbolTable
 70
     0
  0
ENDTAB
  0
TABLE
  2
APPID
  5
9
330
0
100
AcDbSymbolTable
 70
     1
  0
APPID
  5
12
330
9
100
AcDbSymbolTableRecord
100
AcDbRegAppTableRecord
  2
ACAD
 70
     0
  0
ENDTAB
  0
TABLE
  2
DIMSTYLE
  5
A
330
0
100
AcDbSymbolTable
 70
     5
100
AcDbDimStyleTable
  0
DIMSTYLE
105
27
330
A
100
AcDbSymbolTableRecord
100
AcDbDimStyleTableRecord
  2
Standard
 70
     0
340
11
  0
DIMSTYLE
105
D7
102
{ACAD_REACTORS
330
D6
330
E9
330
150
330
283
330
295
102
}
330
A
100
AcDbSymbolTableRecord
100
AcDbDimStyleTableRecord
  2
SLDDIMSTYLE0
 70
     0
 41
0.39
 44
0.0
 45
0.000000001
 78
     4
140
0.375
147
0.09375
148
0.000000001
170
     1
173
     1
271
     2
272
     2
284
    12
340
57
  0
DIMSTYLE
105
104
330
A
100
AcDbSymbolTableRecord
100
AcDbDimStyleTableRecord
  2
SLDDIMSTYLE1
 70
     0
 41
0.39
 44
0.0
 45
0.000000001
140
0.0
146
0.39
147
0.0
173
     1
271
     0
272
     0
340
11
  0
DIMSTYLE
105
2A8
102
{ACAD_REACTORS
330
2A7
102
}
330
A
100
AcDbSymbolTableRecord
100
AcDbDimStyleTableRecord
  2
SLDDIMSTYLE2
 70
     0
 41
0.39
 44
0.0
 45
0.000000001
 78
    12
140
0.375
147
0.09375
148
0.000000001
170
     1
172
     1
173
     1
271
     3
272
     3
284
    12
340
57
  0
DIMSTYLE
105
2B9
102
{ACAD_REACTORS
330
2B8
330
2CB
330
3E8
102
}
330
A
100
AcDbSymbolTableRecord
100
AcDbDimStyleTableRecord
  2
SLDDIMSTYLE3
 70
     0
 41
0.39
 44
0.0
 45
0.000000001
 78
     4
140
0.375
147
0.09375
148
0.000000001
170
     1
173
     1
271
     2
272
     2
284
    12
340
57
  0
ENDTAB
  0
TABLE
  2
BLOCK_RECORD
  5
1
330
0
100
AcDbSymbolTable
 70
    16
  0
BLOCK_RECORD
  5
1F
330
1
100
AcDbSymbolTableRecord
100
AcDbBlockTableRecord
  2
*Model_Space
340
22
  0
BLOCK_RECORD
  5
1B
330
1
100
AcDbSymbolTableRecord
100
AcDbBlockTableRecord
  2
*Paper_Space
340
1E
  0
BLOCK_RECORD
  5
23
330
1
100
AcDbSymbolTableRecord
100
AcDbBlockTableRecord
  2
*Paper_Space0
340
26
  0
BLOCK_RECORD
  5
54
330
1
100
AcDbSymbolTableRecord
100
AcDbBlockTableRecord
  2
SW_NOTE_0
340
0
102
{BLKREFS
331
7C
102
}
  0
BLOCK_RECORD
  5
80
330
1
100
AcDbSymbolTableRecord
100
AcDbBlockTableRecord
  2
SW_NOTE_1
340
0
102
{BLKREFS
331
85
102
}
  0
BLOCK_RECORD
  5
86
330
1
100
AcDbSymbolTableRecord
100
AcDbBlockTableRecord
  2
SW_NOTE_2
340
0
102
{BLKREFS
331
8B
102
}
  0
BLOCK_RECORD
  5
8C
330
1
100
AcDbSymbolTableRecord
100
AcDbBlockTableRecord
  2
SW_NOTE_3
340
0
102
{BLKREFS
331
91
102
}
  0
BLOCK_RECORD
  5
D8
330
1
100
AcDbSymbolTableRecord
100
AcDbBlockTableRecord
  2
*D5
340
0
  0
BLOCK_RECORD
  5
EA
330
1
100
AcDbSymbolTableRecord
100
AcDbBlockTableRecord
  2
*D6
340
0
  0
BLOCK_RECORD
  5
FB
330
1
100
AcDbSymbolTableRecord
100
AcDbBlockTableRecord
  2
SW_NOTE_4
340
0
102
{BLKREFS
331
103
102
}
  0
BLOCK_RECORD
  5
151
330
1
100
AcDbSymbolTableRecord
100
AcDbBlockTableRecord
  2
*D8
340
0
  0
BLOCK_RECORD
  5
284
330
1
100
AcDbSymbolTableRecord
100
AcDbBlockTableRecord
  2
*D9
340
0
  0
BLOCK_RECORD
  5
296
330
1
100
AcDbSymbolTableRecord
100
AcDbBlockTableRecord
  2
*D10
340
0
  0
BLOCK_RECORD
  5
2A9
330
1
100
AcDbSymbolTableRecord
100
AcDbBlockTableRecord
  2
*D11
340
0
  0
BLOCK_RECORD
  5
2BA
330
1
100
AcDbSymbolTableRecord
100
AcDbBlockTableRecord
  2
*D12
340
0
  0
BLOCK_RECORD
  5
2CC
330
1
100
AcDbSymbolTableRecord
100
AcDbBlockTableRecord
  2
*D13
340
0
  0
BLOCK_RECORD
  5
3E9
330
1
100
AcDbSymbolTableRecord
100
AcDbBlockTableRecord
  2
*D14
340
0
  0
BLOCK_RECORD
  5
3F8
330
1
100
AcDbSymbolTableRecord
100
AcDbBlockTableRecord
  2
SW_NOTE_5
340
0
102
{BLKREFS
331
3FD
102
}
  0
ENDTAB
  0
ENDSEC
  0
SECTION
  2
BLOCKS
  0
BLOCK
  5
20
330
1F
100
AcDbEntity
  8
0
100
AcDbBlockBegin
  2
*Model_Space
 70
     0
 10
0.0
 20
0.0
 30
0.0
  3
*Model_Space
  1

  0
ENDBLK
  5
21
330
1F
100
AcDbEntity
  8
0
100
AcDbBlockEnd
  0
BLOCK
  5
1C
330
1B
100
AcDbEntity
 67
     1
  8
0
100
AcDbBlockBegin
  2
*Paper_Space
 70
     0
 10
0.0
 20
0.0
 30
0.0
  3
*Paper_Space
  1

  0
ENDBLK
  5
1D
330
1B
100
AcDbEntity
 67
     1
  8
0
100
AcDbBlockEnd
  0
BLOCK
  5
24
330
23
100
AcDbEntity
  8
0
100
AcDbBlockBegin
  2
*Paper_Space0
 70
     0
 10
0.0
 20
0.0
 30
0.0
  3
*Paper_Space0
  1

  0
ENDBLK
  5
25
330
23
100
AcDbEntity
  8
0
100
AcDbBlockEnd
  0
BLOCK
  5
55
330
54
100
AcDbEntity
  8
0
100
AcDbBlockBegin
  2
SW_NOTE_0
 70
     0
 10
0.0
 20
0.0
 30
0.0
  3
SW_NOTE_0
  1

  0
MTEXT
  5
7A
330
54
100
AcDbEntity
  8
0
  6
Continuous
 62
     0
 48
3.0
370
     0
100
AcDbMText
 10
0.0
 20
0.4834004024
 30
0.0
 40
0.375
 41
0.0
 71
     1
 72
     1
  1
MATERIAL - 16 GA. [1.5mm] STEEL
  7
SLDTEXTSTYLE0
 73
     1
 44
1.0
  0
MTEXT
  5
7B
330
54
100
AcDbEntity
  8
0
  6
Continuous
 62
     0
 48
3.0
370
     0
100
AcDbMText
 10
0.0
 20
-0.5028200447
 30
0.0
 40
0.375
 41
0.0
 71
     1
 72
     1
  1
FINISH - SMOOTH GRAY POWDERCOAT
  7
SLDTEXTSTYLE0
 73
     1
 44
1.0
  0
ENDBLK
  5
56
330
54
100
AcDbEntity
  8
0
100
AcDbBlockEnd
  0
BLOCK
  5
81
330
80
100
AcDbEntity
  8
0
100
AcDbBlockBegin
  2
SW_NOTE_1
 70
     0
 10
0.0
 20
0.0
 30
0.0
  3
SW_NOTE_1
  1

  0
MTEXT
  5
83
330
80
100
AcDbEntity
  8
0
  6
Continuous
 62
     0
 48
3.0
370
     0
100
AcDbMText
 10
0.0
 20
0.4834004024
 30
0.0
 40
0.375
 41
0.0
 71
     1
 72
     1
  1
PART
  7
SLDTEXTSTYLE0
 73
     1
 44
1.0
  0
MTEXT
  5
84
330
80
100
AcDbEntity
  8
0
  6
Continuous
 62
     0
 48
3.0
370
     0
100
AcDbMText
 10
-0.1398111899
 20
-0.0097098211
 30
0.0
 40
0.375
 41
0.0
 71
     1
 72
     1
  1
NAME
  7
SLDTEXTSTYLE0
 73
     1
 44
1.0
  0
ENDBLK
  5
82
330
80
100
AcDbEntity
  8
0
100
AcDbBlockEnd
  0
BLOCK
  5
87
330
86
100
AcDbEntity
  8
0
100
AcDbBlockBegin
  2
SW_NOTE_2
 70
     0
 10
0.0
 20
0.0
 30
0.0
  3
SW_NOTE_2
  1

  0
MTEXT
  5
89
330
86
100
AcDbEntity
  8
0
  6
Continuous
 62
     0
 48
3.0
370
     0
100
AcDbMText
 10
0.0
 20
0.4834004024
 30
0.0
 40
0.375
 41
0.0
 71
     1
 72
     1
  1
PART
  7
SLDTEXTSTYLE0
 73
     1
 44
1.0
  0
MTEXT
  5
8A
330
86
100
AcDbEntity
  8
0
  6
Continuous
 62
     0
 48
3.0
370
     0
100
AcDbMText
 10
0.1751302144
 20
-0.0097098211
 30
0.0
 40
0.375
 41
0.0
 71
     1
 72
     1
  1
No.
  7
SLDTEXTSTYLE0
 73
     1
 44
1.0
  0
ENDBLK
  5
88
330
86
100
AcDbEntity
  8
0
100
AcDbBlockEnd
  0
BLOCK
  5
8D
330
8C
100
AcDbEntity
  8
0
100
AcDbBlockBegin
  2
SW_NOTE_3
 70
     0
 10
0.0
 20
0.0
 30
0.0
  3
SW_NOTE_3
  1

  0
MTEXT
  5
8F
330
8C
100
AcDbEntity
  8
0
  6
Continuous
 62
     0
 48
3.0
370
     0
100
AcDbMText
 10
0.0
 20
0.4834004024
 30
0.0
 40
0.375
 41
0.0
 71
     1
 72
     1
  1
REVISION
  7
SLDTEXTSTYLE0
 73
     1
 44
1.0
  0
MTEXT
  5
90
330
8C
100
AcDbEntity
  8
0
  6
Continuous
 62
     0
 48
3.0
370
     0
100
AcDbMText
 10
0.4686848957
 20
-0.0097098211
 30
0.0
 40
0.375
 41
0.0
 71
     1
 72
     1
  1
DATE
  7
SLDTEXTSTYLE0
 73
     1
 44
1.0
  0
ENDBLK
  5
8E
330
8C
100
AcDbEntity
  8
0
100
AcDbBlockEnd
  0
BLOCK
  5
D9
330
D8
100
AcDbEntity
  8
0
100
AcDbBlockBegin
  2
*D5
 70
     1
 10
0.0
 20
0.0
 30
0.0
  3
*D5
  1

  0
SOLID
  5
DB
330
D8
100
AcDbEntity
  8
0
  6
Continuous
 62
     7
 48
3.0
370
     0
100
AcDbTrace
 10
8.78095731
 20
20.476833888
 30
0.0
 11
9.17095731
 21
20.416833888
 31
0.0
 12
9.17095731
 22
20.536833888
 32
0.0
 13
9.17095731
 23
20.536833888
 33
0.0
  0
SOLID
  5
DC
330
D8
100
AcDbEntity
  8
0
  6
Continuous
 62
     7
 48
3.0
370
     0
100
AcDbTrace
 10
18.78095731
 20
20.476833888
 30
0.0
 11
18.39095731
 21
20.536833888
 31
0.0
 12
18.39095731
 22
20.416833888
 32
0.0
 13
18.39095731
 23
20.416833888
 33
0.0
  0
LINE
  5
DD
330
D8
100
AcDbEntity
  8
0
  6
Continuous
 62
     7
 48
3.0
370
     0
100
AcDbLine
 10
13.2132333524
 20
20.432198835
 30
0.0
 11
13.2132333524
 21
19.9263349002
 31
0.0
  0
LINE
  5
DE
330
D8
100
AcDbEntity
  8
0
  6
Continuous
 62
     7
 48
3.0
370
     0
100
AcDbLine
 10
13.2132333524
 20
19.9263349002
 30
0.0
 11
13.2893505625
 21
19.9263349002
 31
0.0
  0
LINE
  5
DF
330
D8
100
AcDbEntity
  8
0
  6
Continuous
 62
     7
 48
3.0
370
     0
100
AcDbLine
 10
13.2132333524
 20
20.432198835
 30
0.0
 11
13.2893505625
 21
20.432198835
 31
0.0
  0
LINE
  5
E0
330
D8
100
AcDbEntity
  8
0
  6
Continuous
 62
     7
 48
3.0
370
     0
100
AcDbLine
 10
14.3486812675
 20
20.432198835
 30
0.0
 11
14.3486812675
 21
19.9263349002
 31
0.0
  0
LINE
  5
E1
330
D8
100
AcDbEntity
  8
0
  6
Continuous
 62
     7
 48
3.0
370
     0
100
AcDbLine
 10
14.3486812675
 20
19.9263349002
 30
0.0
 11
14.2725640575
 21
19.9263349002
 31
0.0
  0
LINE
  5
E2
330
D8
100
AcDbEntity
  8
0
  6
Continuous
 62
     7
 48
3.0
370
     0
100
AcDbLine
 10
14.3486812675
 20
20.432198835
 30
0.0
 11
14.2725640575
 21
20.432198835
 31
0.0
  0
LINE
  5
E3
330
D8
100
AcDbEntity
  8
0
  6
Continuous
 62
     7
 48
3.0
370
     0
100
AcDbLine
 10
8.78095731
 20
19.5752098604
 30
0.0
 11
8.78095731
 21
20.851833888
 31
0.0
  0
LINE
  5
E4
330
D8
100
AcDbEntity
  8
0
  6
Continuous
 62
     7
 48
3.0
370
     0
100
AcDbLine
 10
18.78095731
 20
19.5752098604
 30
0.0
 11
18.78095731
 21
20.851833888
 31
0.0
  0
LINE
  5
E5
330
D8
100
AcDbEntity
  8
0
  6
Continuous
 62
     7
 48
3.0
370
     0
100
AcDbLine
 10
8.78095731
 20
20.476833888
 30
0.0
 11
12.7974803198
 21
20.476833888
 31
0.0
  0
LINE
  5
E6
330
D8
100
AcDbEntity
  8
0
  6
Continuous
 62
     7
 48
3.0
370
     0
100
AcDbLine
 10
18.78095731
 20
20.476833888
 30
0.0
 11
14.7644343001
 21
20.476833888
 31
0.0
  0
MTEXT
  5
E7
330
D8
100
AcDbEntity
  8
0
  6
Continuous
 62
     7
 48
3.0
370
     0
100
AcDbMText
 10
13.1576244063
 20
20.9602342698
 30
0.0
 40
0.375
 41
0.0
 71
     1
 72
     1
  1
10.00
  7
SLDTEXTSTYLE0
 73
     1
 44
1.0
  0
MTEXT
  5
E8
330
D8
100
AcDbEntity
  8
0
  6
Continuous
 62
     7
 48
3.0
370
     0
100
AcDbMText
 10
13.3654677725
 20
20.3651002289
 30
0.0
 40
0.375
 41
0.0
 71
     1
 72
     1
  1
254
  7
SLDTEXTSTYLE0
 73
     1
 44
1.0
  0
ENDBLK
  5
DA
330
D8
100
AcDbEntity
  8
0
100
AcDbBlockEnd
  0
BLOCK
  5
EB
330
EA
100
AcDbEntity
  8
0
100
AcDbBlockBegin
  2
*D6
 70
     1
 10
0.0
 20
0.0
 30
0.0
  3
*D6
  1

  0
SOLID
  5
ED
330
EA
100
AcDbEntity
  8
0
  6
Continuous
 62
     7
 48
3.0
370
     0
100
AcDbTrace
 10
19.9758030506
 20
19.4252098604
 30
0.0
 11
19.9158030506
 21
19.0352098604
 31
0.0
 12
20.0358030506
 22
19.0352098604
 32
0.0
 13
20.0358030506
 23
19.0352098604
 33
0.0
  0
SOLID
  5
EE
330
EA
100
AcDbEntity
  8
0
  6
Continuous
 62
     7
 48
3.0
370
     0
100
AcDbTrace
 10
19.9758030506
 20
9.4252098604
 30
0.0
 11
20.0358030506
 21
9.8152098604
 31
0.0
 12
19.9158030506
 22
9.8152098604
 32
0.0
 13
19.9158030506
 23
9.8152098604
 33
0.0
  0
LINE
  5
EF
330
EA
100
AcDbEntity
  8
0
  6
Continuous
 62
     7
 48
3.0
370
     0
100
AcDbLine
 10
19.4080790931
 20
14.3805748074
 30
0.0
 11
19.4080790931
 21
13.8747108726
 31
0.0
  0
LINE
  5
F0
330
EA
100
AcDbEntity
  8
0
  6
Continuous
 62
     7
 48
3.0
370
     0
100
AcDbLine
 10
19.4080790931
 20
13.8747108726
 30
0.0
 11
19.4841963031
 21
13.8747108726
 31
0.0
  0
LINE
  5
F1
330
EA
100
AcDbEntity
  8
0
  6
Continuous
 62
     7
 48
3.0
370
     0
100
AcDbLine
 10
19.4080790931
 20
14.3805748074
 30
0.0
 11
19.4841963031
 21
14.3805748074
 31
0.0
  0
LINE
  5
F2
330
EA
100
AcDbEntity
  8
0
  6
Continuous
 62
     7
 48
3.0
370
     0
100
AcDbLine
 10
20.5435270082
 20
14.3805748074
 30
0.0
 11
20.5435270082
 21
13.8747108726
 31
0.0
  0
LINE
  5
F3
330
EA
100
AcDbEntity
  8
0
  6
Continuous
 62
     7
 48
3.0
370
     0
100
AcDbLine
 10
20.5435270082
 20
13.8747108726
 30
0.0
 11
20.4674097981
 21
13.8747108726
 31
0.0
  0
LINE
  5
F4
330
EA
100
AcDbEntity
  8
0
  6
Continuous
 62
     7
 48
3.0
370
     0
100
AcDbLine
 10
20.5435270082
 20
14.3805748074
 30
0.0
 11
20.4674097981
 21
14.3805748074
 31
0.0
  0
LINE
  5
F5
330
EA
100
AcDbEntity
  8
0
  6
Continuous
 62
     7
 48
3.0
370
     0
100
AcDbLine
 10
18.93095731
 20
19.4252098604
 30
0.0
 11
20.3508030506
 21
19.4252098604
 31
0.0
  0
LINE
  5
F6
330
EA
100
AcDbEntity
  8
0
  6
Continuous
 62
     7
 48
3.0
370
     0
100
AcDbLine
 10
18.93095731
 20
9.4252098604
 30
0.0
 11
20.3508030506
 21
9.4252098604
 31
0.0
  0
LINE
  5
F7
330
EA
100
AcDbEntity
  8
0
  6
Continuous
 62
     7
 48
3.0
370
     0
100
AcDbLine
 10
19.9758030506
 20
19.4252098604
 30
0.0
 11
19.9758030506
 21
15.0203439014
 31
0.0
  0
LINE
  5
F8
330
EA
100
AcDbEntity
  8
0
  6
Continuous
 62
     7
 48
3.0
370
     0
100
AcDbLine
 10
19.9758030506
 20
9.4252098604
 30
0.0
 11
19.9758030506
 21
13.8300758195
 31
0.0
  0
MTEXT
  5
F9
330
EA
100
AcDbEntity
  8
0
  6
Continuous
 62
     7
 48
3.0
370
     0
100
AcDbMText
 10
19.3524701469
 20
14.9086102422
 30
0.0
 40
0.375
 41
0.0
 71
     1
 72
     1
  1
10.00
  7
SLDTEXTSTYLE0
 73
     1
 44
1.0
  0
MTEXT
  5
FA
330
EA
100
AcDbEntity
  8
0
  6
Continuous
 62
     7
 48
3.0
370
     0
100
AcDbMText
 10
19.5603135131
 20
14.3134762013
 30
0.0
 40
0.375
 41
0.0
 71
     1
 72
     1
  1
254
  7
SLDTEXTSTYLE0
 73
     1
 44
1.0
  0
ENDBLK
  5
EC
330
EA
100
AcDbEntity
  8
0
100
AcDbBlockEnd
  0
BLOCK
  5
FC
330
FB
100
AcDbEntity
  8
0
100
AcDbBlockBegin
  2
SW_NOTE_4
 70
     0
 10
0.0
 20
0.0
 30
0.0
  3
SW_NOTE_4
  1

  0
MTEXT
  5
FE
330
FB
100
AcDbEntity
  8
0
  6
Continuous
 62
     0
 48
3.0
370
     0
100
AcDbMText
 10
0.0591968726
 20
0.1818968749
 30
0.0
 40
0.375
 41
0.0
 71
     1
 72
     1
  1
SCREWS: #10-32 x .31"[8mm] LG.
  7
SLDTEXTSTYLE0
 73
     1
 44
1.0
  0
MTEXT
  5
FF
330
FB
100
AcDbEntity
  8
0
  6
Continuous
 62
     0
 48
3.0
370
     0
100
AcDbMText
 10
0.0591968726
 20
-0.3112133487
 30
0.0
 40
0.375
 41
0.0
 71
     1
 72
     1
  1
MACHINE, PAN HEAD, SLOTTED/SQUARE
  7
SLDTEXTSTYLE0
 73
     1
 44
1.0
  0
MTEXT
  5
100
330
FB
100
AcDbEntity
  8
0
  6
Continuous
 62
     0
 48
3.0
370
     0
100
AcDbMText
 10
0.0591968726
 20
-0.8043235722
 30
0.0
 40
0.375
 41
0.0
 71
     1
 72
     1
  1
COMBINATION STYLE DRIVE, STEEL, ZINC PLATED.
  7
SLDTEXTSTYLE0
 73
     1
 44
1.0
  0
MTEXT
  5
101
330
FB
100
AcDbEntity
  8
0
  6
Continuous
 62
     0
 48
3.0
370
     0
100
AcDbMText
 10
0.0591968726
 20
-1.2974337958
 30
0.0
 40
0.375
 41
0.0
 71
     1
 72
     1
  1
(SUPPLIED FOR COVER MOUNTING AND
  7
SLDTEXTSTYLE0
 73
     1
 44
1.0
  0
MTEXT
  5
102
330
FB
100
AcDbEntity
  8
0
  6
Continuous
 62
     0
 48
3.0
370
     0
100
AcDbMText
 10
0.0591968726
 20
-1.7905440193
 30
0.0
 40
0.375
 41
0.0
 71
     1
 72
     1
  1
FOR GROUND POINT).
  7
SLDTEXTSTYLE0
 73
     1
 44
1.0
  0
ENDBLK
  5
FD
330
FB
100
AcDbEntity
  8
0
100
AcDbBlockEnd
  0
BLOCK
  5
152
330
151
100
AcDbEntity
  8
0
100
AcDbBlockBegin
  2
*D8
 70
     1
 10
0.0
 20
0.0
 30
0.0
  3
*D8
  1

  0
SOLID
  5
154
330
151
100
AcDbEntity
  8
0
  6
Continuous
 62
     7
 48
3.0
370
     0
100
AcDbTrace
 10
19.9758030506
 20
27.482067147
 30
0.0
 11
19.9158030506
 21
27.092067147
 31
0.0
 12
20.0358030506
 22
27.092067147
 32
0.0
 13
20.0358030506
 23
27.092067147
 33
0.0
  0
SOLID
  5
155
330
151
100
AcDbEntity
  8
0
  6
Continuous
 62
     7
 48
3.0
370
     0
100
AcDbTrace
 10
19.9758030506
 20
23.482067147
 30
0.0
 11
20.0358030506
 21
23.872067147
 31
0.0
 12
19.9158030506
 22
23.872067147
 32
0.0
 13
19.9158030506
 23
23.872067147
 33
0.0
  0
LINE
  5
156
330
151
100
AcDbEntity
  8
0
  6
Continuous
 62
     7
 48
3.0
370
     0
100
AcDbLine
 10
19.2002357269
 20
25.4374320939
 30
0.0
 11
19.2002357269
 21
24.9315681591
 31
0.0
  0
LINE
  5
157
330
151
100
AcDbEntity
  8
0
  6
Continuous
 62
     7
 48
3.0
370
     0
100
AcDbLine
 10
19.2002357269
 20
24.9315681591
 30
0.0
 11
19.2763529369
 21
24.9315681591
 31
0.0
  0
LINE
  5
158
330
151
100
AcDbEntity
  8
0
  6
Continuous
 62
     7
 48
3.0
370
     0
100
AcDbLine
 10
19.2002357269
 20
25.4374320939
 30
0.0
 11
19.2763529369
 21
25.4374320939
 31
0.0
  0
LINE
  5
159
330
151
100
AcDbEntity
  8
0
  6
Continuous
 62
     7
 48
3.0
370
     0
100
AcDbLine
 10
20.7513703743
 20
25.4374320939
 30
0.0
 11
20.7513703743
 21
24.9315681591
 31
0.0
  0
LINE
  5
15A
330
151
100
AcDbEntity
  8
0
  6
Continuous
 62
     7
 48
3.0
370
     0
100
AcDbLine
 10
20.7513703743
 20
24.9315681591
 30
0.0
 11
20.6752531643
 21
24.9315681591
 31
0.0
  0
LINE
  5
15B
330
151
100
AcDbEntity
  8
0
  6
Continuous
 62
     7
 48
3.0
370
     0
100
AcDbLine
 10
20.7513703743
 20
25.4374320939
 30
0.0
 11
20.6752531643
 21
25.4374320939
 31
0.0
  0
LINE
  5
15C
330
151
100
AcDbEntity
  8
0
  6
Continuous
 62
     7
 48
3.0
370
     0
100
AcDbLine
 10
18.85395731
 20
27.482067147
 30
0.0
 11
20.3508030506
 21
27.482067147
 31
0.0
  0
LINE
  5
15D
330
151
100
AcDbEntity
  8
0
  6
Continuous
 62
     7
 48
3.0
370
     0
100
AcDbLine
 10
18.93095731
 20
23.482067147
 30
0.0
 11
20.3508030506
 21
23.482067147
 31
0.0
  0
LINE
  5
15E
330
151
100
AcDbEntity
  8
0
  6
Continuous
 62
     7
 48
3.0
370
     0
100
AcDbLine
 10
19.9758030506
 20
27.482067147
 30
0.0
 11
19.9758030506
 21
26.0772011879
 31
0.0
  0
LINE
  5
15F
330
151
100
AcDbEntity
  8
0
  6
Continuous
 62
     7
 48
3.0
370
     0
100
AcDbLine
 10
19.9758030506
 20
23.482067147
 30
0.0
 11
19.9758030506
 21
24.886933106
 31
0.0
  0
MTEXT
  5
160
330
151
100
AcDbEntity
  8
0
  6
Continuous
 62
     7
 48
3.0
370
     0
100
AcDbMText
 10
19.4910981226
 20
25.9654675288
 30
0.0
 40
0.375
 41
0.0
 71
     1
 72
     1
  1
4.00
  7
SLDTEXTSTYLE0
 73
     1
 44
1.0
  0
MTEXT
  5
161
330
151
100
AcDbEntity
  8
0
  6
Continuous
 62
     7
 48
3.0
370
     0
100
AcDbMText
 10
19.3524701469
 20
25.3703334878
 30
0.0
 40
0.375
 41
0.0
 71
     1
 72
     1
  1
101.6
  7
SLDTEXTSTYLE0
 73
     1
 44
1.0
  0
ENDBLK
  5
153
330
151
100
AcDbEntity
  8
0
100
AcDbBlockEnd
  0
BLOCK
  5
285
330
284
100
AcDbEntity
  8
0
100
AcDbBlockBegin
  2
*D9
 70
     1
 10
0.0
 20
0.0
 30
0.0
  3
*D9
  1

  0
SOLID
  5
287
330
284
100
AcDbEntity
  8
0
  6
Continuous
 62
     7
 48
3.0
370
     0
100
AcDbTrace
 10
37.445369679
 20
17.9252098604
 30
0.0
 11
37.385369679
 21
17.5352098604
 31
0.0
 12
37.505369679
 22
17.5352098604
 32
0.0
 13
37.505369679
 23
17.5352098604
 33
0.0
  0
SOLID
  5
288
330
284
100
AcDbEntity
  8
0
  6
Continuous
 62
     7
 48
3.0
370
     0
100
AcDbTrace
 10
37.445369679
 20
10.9252098604
 30
0.0
 11
37.505369679
 21
11.3152098604
 31
0.0
 12
37.385369679
 22
11.3152098604
 32
0.0
 13
37.385369679
 23
11.3152098604
 33
0.0
  0
LINE
  5
289
330
284
100
AcDbEntity
  8
0
  6
Continuous
 62
     7
 48
3.0
370
     0
100
AcDbLine
 10
36.6698023552
 20
14.3805748074
 30
0.0
 11
36.6698023552
 21
13.8747108726
 31
0.0
  0
LINE
  5
28A
330
284
100
AcDbEntity
  8
0
  6
Continuous
 62
     7
 48
3.0
370
     0
100
AcDbLine
 10
36.6698023552
 20
13.8747108726
 30
0.0
 11
36.7459195653
 21
13.8747108726
 31
0.0
  0
LINE
  5
28B
330
284
100
AcDbEntity
  8
0
  6
Continuous
 62
     7
 48
3.0
370
     0
100
AcDbLine
 10
36.6698023552
 20
14.3805748074
 30
0.0
 11
36.7459195653
 21
14.3805748074
 31
0.0
  0
LINE
  5
28C
330
284
100
AcDbEntity
  8
0
  6
Continuous
 62
     7
 48
3.0
370
     0
100
AcDbLine
 10
38.2209370027
 20
14.3805748074
 30
0.0
 11
38.2209370027
 21
13.8747108726
 31
0.0
  0
LINE
  5
28D
330
284
100
AcDbEntity
  8
0
  6
Continuous
 62
     7
 48
3.0
370
     0
100
AcDbLine
 10
38.2209370027
 20
13.8747108726
 30
0.0
 11
38.1448197927
 21
13.8747108726
 31
0.0
  0
LINE
  5
28E
330
284
100
AcDbEntity
  8
0
  6
Continuous
 62
     7
 48
3.0
370
     0
100
AcDbLine
 10
38.2209370027
 20
14.3805748074
 30
0.0
 11
38.1448197927
 21
14.3805748074
 31
0.0
  0
LINE
  5
28F
330
284
100
AcDbEntity
  8
0
  6
Continuous
 62
     7
 48
3.0
370
     0
100
AcDbLine
 10
38.7664791379
 20
17.9252098604
 30
0.0
 11
37.070369679
 21
17.9252098604
 31
0.0
  0
LINE
  5
290
330
284
100
AcDbEntity
  8
0
  6
Continuous
 62
     7
 48
3.0
370
     0
100
AcDbLine
 10
38.7664791379
 20
10.9252098604
 30
0.0
 11
37.070369679
 21
10.9252098604
 31
0.0
  0
LINE
  5
291
330
284
100
AcDbEntity
  8
0
  6
Continuous
 62
     7
 48
3.0
370
     0
100
AcDbLine
 10
37.445369679
 20
17.9252098604
 30
0.0
 11
37.445369679
 21
15.0203439014
 31
0.0
  0
LINE
  5
292
330
284
100
AcDbEntity
  8
0
  6
Continuous
 62
     7
 48
3.0
370
     0
100
AcDbLine
 10
37.445369679
 20
10.9252098604
 30
0.0
 11
37.445369679
 21
13.8300758195
 31
0.0
  0
MTEXT
  5
293
330
284
100
AcDbEntity
  8
0
  6
Continuous
 62
     7
 48
3.0
370
     0
100
AcDbMText
 10
36.960664751
 20
14.9086102422
 30
0.0
 40
0.375
 41
0.0
 71
     1
 72
     1
  1
7.00
  7
SLDTEXTSTYLE0
 73
     1
 44
1.0
  0
MTEXT
  5
294
330
284
100
AcDbEntity
  8
0
  6
Continuous
 62
     7
 48
3.0
370
     0
100
AcDbMText
 10
36.8220367753
 20
14.3134762013
 30
0.0
 40
0.375
 41
0.0
 71
     1
 72
     1
  1
177.8
  7
SLDTEXTSTYLE0
 73
     1
 44
1.0
  0
ENDBLK
  5
286
330
284
100
AcDbEntity
  8
0
100
AcDbBlockEnd
  0
BLOCK
  5
297
330
296
100
AcDbEntity
  8
0
100
AcDbBlockBegin
  2
*D10
 70
     1
 10
0.0
 20
0.0
 30
0.0
  3
*D10
  1

  0
SOLID
  5
299
330
296
100
AcDbEntity
  8
0
  6
Continuous
 62
     7
 48
3.0
370
     0
100
AcDbTrace
 10
38.9164791379
 20
8.4437649819
 30
0.0
 11
39.3064791379
 21
8.3837649819
 31
0.0
 12
39.3064791379
 22
8.5037649819
 32
0.0
 13
39.3064791379
 23
8.5037649819
 33
0.0
  0
SOLID
  5
29A
330
296
100
AcDbEntity
  8
0
  6
Continuous
 62
     7
 48
3.0
370
     0
100
AcDbTrace
 10
47.9164791379
 20
8.4437649819
 30
0.0
 11
47.5264791379
 21
8.5037649819
 31
0.0
 12
47.5264791379
 22
8.3837649819
 32
0.0
 13
47.5264791379
 23
8.3837649819
 33
0.0
  0
LINE
  5
29B
330
296
100
AcDbEntity
  8
0
  6
Continuous
 62
     7
 48
3.0
370
     0
100
AcDbLine
 10
42.6409118141
 20
8.3991299288
 30
0.0
 11
42.6409118141
 21
7.893265994
 31
0.0
  0
LINE
  5
29C
330
296
100
AcDbEntity
  8
0
  6
Continuous
 62
     7
 48
3.0
370
     0
100
AcDbLine
 10
42.6409118141
 20
7.893265994
 30
0.0
 11
42.7170290241
 21
7.893265994
 31
0.0
  0
LINE
  5
29D
330
296
100
AcDbEntity
  8
0
  6
Continuous
 62
     7
 48
3.0
370
     0
100
AcDbLine
 10
42.6409118141
 20
8.3991299288
 30
0.0
 11
42.7170290241
 21
8.3991299288
 31
0.0
  0
LINE
  5
29E
330
296
100
AcDbEntity
  8
0
  6
Continuous
 62
     7
 48
3.0
370
     0
100
AcDbLine
 10
44.1920464616
 20
8.3991299288
 30
0.0
 11
44.1920464616
 21
7.893265994
 31
0.0
  0
LINE
  5
29F
330
296
100
AcDbEntity
  8
0
  6
Continuous
 62
     7
 48
3.0
370
     0
100
AcDbLine
 10
44.1920464616
 20
7.893265994
 30
0.0
 11
44.1159292516
 21
7.893265994
 31
0.0
  0
LINE
  5
2A0
330
296
100
AcDbEntity
  8
0
  6
Continuous
 62
     7
 48
3.0
370
     0
100
AcDbLine
 10
44.1920464616
 20
8.3991299288
 30
0.0
 11
44.1159292516
 21
8.3991299288
 31
0.0
  0
LINE
  5
2A1
330
296
100
AcDbEntity
  8
0
  6
Continuous
 62
     7
 48
3.0
370
     0
100
AcDbLine
 10
38.9164791379
 20
10.7752098604
 30
0.0
 11
38.9164791379
 21
8.0687649819
 31
0.0
  0
LINE
  5
2A2
330
296
100
AcDbEntity
  8
0
  6
Continuous
 62
     7
 48
3.0
370
     0
100
AcDbLine
 10
47.9164791379
 20
10.7752098604
 30
0.0
 11
47.9164791379
 21
8.0687649819
 31
0.0
  0
LINE
  5
2A3
330
296
100
AcDbEntity
  8
0
  6
Continuous
 62
     7
 48
3.0
370
     0
100
AcDbLine
 10
38.9164791379
 20
8.4437649819
 30
0.0
 11
42.2251587815
 21
8.4437649819
 31
0.0
  0
LINE
  5
2A4
330
296
100
AcDbEntity
  8
0
  6
Continuous
 62
     7
 48
3.0
370
     0
100
AcDbLine
 10
47.9164791379
 20
8.4437649819
 30
0.0
 11
44.6077994942
 21
8.4437649819
 31
0.0
  0
MTEXT
  5
2A5
330
296
100
AcDbEntity
  8
0
  6
Continuous
 62
     7
 48
3.0
370
     0
100
AcDbMText
 10
42.9317742099
 20
8.9271653637
 30
0.0
 40
0.375
 41
0.0
 71
     1
 72
     1
  1
9.00
  7
SLDTEXTSTYLE0
 73
     1
 44
1.0
  0
MTEXT
  5
2A6
330
296
100
AcDbEntity
  8
0
  6
Continuous
 62
     7
 48
3.0
370
     0
100
AcDbMText
 10
42.7931462342
 20
8.3320313227
 30
0.0
 40
0.375
 41
0.0
 71
     1
 72
     1
  1
228.6
  7
SLDTEXTSTYLE0
 73
     1
 44
1.0
  0
ENDBLK
  5
298
330
296
100
AcDbEntity
  8
0
100
AcDbBlockEnd
  0
BLOCK
  5
2AA
330
2A9
100
AcDbEntity
  8
0
100
AcDbBlockBegin
  2
*D11
 70
     1
 10
0.0
 20
0.0
 30
0.0
  3
*D11
  1

  0
SOLID
  5
2AC
330
2A9
100
AcDbEntity
  8
0
  6
Continuous
 62
     7
 48
3.0
370
     0
100
AcDbTrace
 10
47.9627216966
 20
10.7925377995
 30
0.0
 11
48.034424716
 21
10.4045188863
 31
0.0
 12
48.1477389318
 22
10.4440143101
 32
0.0
 13
48.1477389318
 23
10.4440143101
 33
0.0
  0
LINE
  5
2AD
330
2A9
100
AcDbEntity
  8
0
  6
Continuous
 62
     7
 48
3.0
370
     0
100
AcDbLine
 10
47.2612773644
 20
7.1398195621
 30
0.0
 11
47.2612773644
 21
6.6339556273
 31
0.0
  0
LINE
  5
2AE
330
2A9
100
AcDbEntity
  8
0
  6
Continuous
 62
     7
 48
3.0
370
     0
100
AcDbLine
 10
47.2612773644
 20
6.6339556273
 30
0.0
 11
47.3373945744
 21
6.6339556273
 31
0.0
  0
LINE
  5
2AF
330
2A9
100
AcDbEntity
  8
0
  6
Continuous
 62
     7
 48
3.0
370
     0
100
AcDbLine
 10
47.2612773644
 20
7.1398195621
 30
0.0
 11
47.3373945744
 21
7.1398195621
 31
0.0
  0
LINE
  5
2B0
330
2A9
100
AcDbEntity
  8
0
  6
Continuous
 62
     7
 48
3.0
370
     0
100
AcDbLine
 10
48.5351560604
 20
7.1398195621
 30
0.0
 11
48.5351560604
 21
6.6339556273
 31
0.0
  0
LINE
  5
2B1
330
2A9
100
AcDbEntity
  8
0
  6
Continuous
 62
     7
 48
3.0
370
     0
100
AcDbLine
 10
48.5351560604
 20
6.6339556273
 30
0.0
 11
48.4590388504
 21
6.6339556273
 31
0.0
  0
LINE
  5
2B2
330
2A9
100
AcDbEntity
  8
0
  6
Continuous
 62
     7
 48
3.0
370
     0
100
AcDbLine
 10
48.5351560604
 20
7.1398195621
 30
0.0
 11
48.4590388504
 21
7.1398195621
 31
0.0
  0
LINE
  5
2B3
330
2A9
100
AcDbEntity
  8
0
  6
Continuous
 62
     7
 48
3.0
370
     0
100
AcDbLine
 10
47.9627216966
 20
10.7925377995
 30
0.0
 11
49.2203112537
 21
7.1844546152
 31
0.0
  0
LINE
  5
2B4
330
2A9
100
AcDbEntity
  8
0
  6
Continuous
 62
     7
 48
3.0
370
     0
100
AcDbLine
 10
49.2203112537
 20
7.1844546152
 30
0.0
 11
48.8453112537
 21
7.1844546152
 31
0.0
  0
MTEXT
  5
2B5
330
2A9
100
AcDbEntity
  8
0
  6
Continuous
 62
     7
 48
3.0
370
     0
100
AcDbMText
 10
47.145701466
 20
7.6678550038
 30
0.0
 40
0.375
 41
0.0
 71
     1
 72
     1
  1
%%c
  7
SLDTEXTSTYLE0
 73
     1
 44
1.0
  0
MTEXT
  5
2B6
330
2A9
100
AcDbEntity
  8
0
  6
Continuous
 62
     7
 48
3.0
370
     0
100
AcDbMText
 10
47.6813221029
 20
7.667854997
 30
0.0
 40
0.375
 41
0.0
 71
     1
 72
     1
  1
.281
  7
SLDTEXTSTYLE0
 73
     1
 44
1.0
  0
MTEXT
  5
2B7
330
2A9
100
AcDbEntity
  8
0
  6
Continuous
 62
     7
 48
3.0
370
     0
100
AcDbMText
 10
47.4135117844
 20
7.072720956
 30
0.0
 40
0.375
 41
0.0
 71
     1
 72
     1
  1
7.14
  7
SLDTEXTSTYLE0
 73
     1
 44
1.0
  0
ENDBLK
  5
2AB
330
2A9
100
AcDbEntity
  8
0
100
AcDbBlockEnd
  0
BLOCK
  5
2BB
330
2BA
100
AcDbEntity
  8
0
100
AcDbBlockBegin
  2
*D12
 70
     1
 10
0.0
 20
0.0
 30
0.0
  3
*D12
  1

  0
SOLID
  5
2BD
330
2BA
100
AcDbEntity
  8
0
  6
Continuous
 62
     7
 48
3.0
370
     0
100
AcDbTrace
 10
49.2546398051
 20
17.4252098604
 30
0.0
 11
49.1946398051
 21
17.0352098604
 31
0.0
 12
49.3146398051
 22
17.0352098604
 32
0.0
 13
49.3146398051
 23
17.0352098604
 33
0.0
  0
SOLID
  5
2BE
330
2BA
100
AcDbEntity
  8
0
  6
Continuous
 62
     7
 48
3.0
370
     0
100
AcDbTrace
 10
49.2546398051
 20
19.4252098604
 30
0.0
 11
49.3146398051
 21
19.8152098604
 31
0.0
 12
49.1946398051
 22
19.8152098604
 32
0.0
 13
49.1946398051
 23
19.8152098604
 33
0.0
  0
LINE
  5
2BF
330
2BA
100
AcDbEntity
  8
0
  6
Continuous
 62
     7
 48
3.0
370
     0
100
AcDbLine
 10
48.6177004571
 20
18.3805748074
 30
0.0
 11
48.6177004571
 21
17.8747108726
 31
0.0
  0
LINE
  5
2C0
330
2BA
100
AcDbEntity
  8
0
  6
Continuous
 62
     7
 48
3.0
370
     0
100
AcDbLine
 10
48.6177004571
 20
17.8747108726
 30
0.0
 11
48.6938176671
 21
17.8747108726
 31
0.0
  0
LINE
  5
2C1
330
2BA
100
AcDbEntity
  8
0
  6
Continuous
 62
     7
 48
3.0
370
     0
100
AcDbLine
 10
48.6177004571
 20
18.3805748074
 30
0.0
 11
48.6938176671
 21
18.3805748074
 31
0.0
  0
LINE
  5
2C2
330
2BA
100
AcDbEntity
  8
0
  6
Continuous
 62
     7
 48
3.0
370
     0
100
AcDbLine
 10
49.8915791531
 20
18.3805748074
 30
0.0
 11
49.8915791531
 21
17.8747108726
 31
0.0
  0
LINE
  5
2C3
330
2BA
100
AcDbEntity
  8
0
  6
Continuous
 62
     7
 48
3.0
370
     0
100
AcDbLine
 10
49.8915791531
 20
17.8747108726
 30
0.0
 11
49.8154619431
 21
17.8747108726
 31
0.0
  0
LINE
  5
2C4
330
2BA
100
AcDbEntity
  8
0
  6
Continuous
 62
     7
 48
3.0
370
     0
100
AcDbLine
 10
49.8915791531
 20
18.3805748074
 30
0.0
 11
49.8154619431
 21
18.3805748074
 31
0.0
  0
LINE
  5
2C5
330
2BA
100
AcDbEntity
  8
0
  6
Continuous
 62
     7
 48
3.0
370
     0
100
AcDbLine
 10
46.5664791379
 20
17.4252098604
 30
0.0
 11
49.6296398051
 21
17.4252098604
 31
0.0
  0
LINE
  5
2C6
330
2BA
100
AcDbEntity
  8
0
  6
Continuous
 62
     7
 48
3.0
370
     0
100
AcDbLine
 10
48.5664791379
 20
19.4252098604
 30
0.0
 11
49.6296398051
 21
19.4252098604
 31
0.0
  0
LINE
  5
2C7
330
2BA
100
AcDbEntity
  8
0
  6
Continuous
 62
     7
 48
3.0
370
     0
100
AcDbLine
 10
49.2546398051
 20
17.4252098604
 30
0.0
 11
49.2546398051
 21
16.6752098604
 31
0.0
  0
LINE
  5
2C8
330
2BA
100
AcDbEntity
  8
0
  6
Continuous
 62
     7
 48
3.0
370
     0
100
AcDbLine
 10
49.2546398051
 20
19.4252098604
 30
0.0
 11
49.2546398051
 21
20.1752098604
 31
0.0
  0
MTEXT
  5
2C9
330
2BA
100
AcDbEntity
  8
0
  6
Continuous
 62
     7
 48
3.0
370
     0
100
AcDbMText
 10
48.7699348771
 20
18.9086102422
 30
0.0
 40
0.375
 41
0.0
 71
     1
 72
     1
  1
2.00
  7
SLDTEXTSTYLE0
 73
     1
 44
1.0
  0
MTEXT
  5
2CA
330
2BA
100
AcDbEntity
  8
0
  6
Continuous
 62
     7
 48
3.0
370
     0
100
AcDbMText
 10
48.7699348771
 20
18.3134762013
 30
0.0
 40
0.375
 41
0.0
 71
     1
 72
     1
  1
50.8
  7
SLDTEXTSTYLE0
 73
     1
 44
1.0
  0
ENDBLK
  5
2BC
330
2BA
100
AcDbEntity
  8
0
100
AcDbBlockEnd
  0
BLOCK
  5
2CD
330
2CC
100
AcDbEntity
  8
0
100
AcDbBlockBegin
  2
*D13
 70
     1
 10
0.0
 20
0.0
 30
0.0
  3
*D13
  1

  0
SOLID
  5
2CF
330
2CC
100
AcDbEntity
  8
0
  6
Continuous
 62
     7
 48
3.0
370
     0
100
AcDbTrace
 10
46.4164791379
 20
20.3639678403
 30
0.0
 11
46.0264791379
 21
20.4239678403
 31
0.0
 12
46.0264791379
 22
20.3039678403
 32
0.0
 13
46.0264791379
 23
20.3039678403
 33
0.0
  0
SOLID
  5
2D0
330
2CC
100
AcDbEntity
  8
0
  6
Continuous
 62
     7
 48
3.0
370
     0
100
AcDbTrace
 10
48.4164791379
 20
20.3639678403
 30
0.0
 11
48.8064791379
 21
20.3039678403
 31
0.0
 12
48.8064791379
 22
20.4239678403
 32
0.0
 13
48.8064791379
 23
20.4239678403
 33
0.0
  0
LINE
  5
2D1
330
2CC
100
AcDbEntity
  8
0
  6
Continuous
 62
     7
 48
3.0
370
     0
100
AcDbLine
 10
46.7795397899
 20
20.3193327872
 30
0.0
 11
46.7795397899
 21
19.8134688524
 31
0.0
  0
LINE
  5
2D2
330
2CC
100
AcDbEntity
  8
0
  6
Continuous
 62
     7
 48
3.0
370
     0
100
AcDbLine
 10
46.7795397899
 20
19.8134688524
 30
0.0
 11
46.8556569999
 21
19.8134688524
 31
0.0
  0
LINE
  5
2D3
330
2CC
100
AcDbEntity
  8
0
  6
Continuous
 62
     7
 48
3.0
370
     0
100
AcDbLine
 10
46.7795397899
 20
20.3193327872
 30
0.0
 11
46.8556569999
 21
20.3193327872
 31
0.0
  0
LINE
  5
2D4
330
2CC
100
AcDbEntity
  8
0
  6
Continuous
 62
     7
 48
3.0
370
     0
100
AcDbLine
 10
48.0534184859
 20
20.3193327872
 30
0.0
 11
48.0534184859
 21
19.8134688524
 31
0.0
  0
LINE
  5
2D5
330
2CC
100
AcDbEntity
  8
0
  6
Continuous
 62
     7
 48
3.0
370
     0
100
AcDbLine
 10
48.0534184859
 20
19.8134688524
 30
0.0
 11
47.9773012759
 21
19.8134688524
 31
0.0
  0
LINE
  5
2D6
330
2CC
100
AcDbEntity
  8
0
  6
Continuous
 62
     7
 48
3.0
370
     0
100
AcDbLine
 10
48.0534184859
 20
20.3193327872
 30
0.0
 11
47.9773012759
 21
20.3193327872
 31
0.0
  0
LINE
  5
2D7
330
2CC
100
AcDbEntity
  8
0
  6
Continuous
 62
     7
 48
3.0
370
     0
100
AcDbLine
 10
46.4164791379
 20
17.5752098604
 30
0.0
 11
46.4164791379
 21
20.7389678403
 31
0.0
  0
LINE
  5
2D8
330
2CC
100
AcDbEntity
  8
0
  6
Continuous
 62
     7
 48
3.0
370
     0
100
AcDbLine
 10
48.4164791379
 20
19.5752098604
 30
0.0
 11
48.4164791379
 21
20.7389678403
 31
0.0
  0
LINE
  5
2D9
330
2CC
100
AcDbEntity
  8
0
  6
Continuous
 62
     7
 48
3.0
370
     0
100
AcDbLine
 10
46.4164791379
 20
20.3639678403
 30
0.0
 11
45.6664791379
 21
20.3639678403
 31
0.0
  0
LINE
  5
2DA
330
2CC
100
AcDbEntity
  8
0
  6
Continuous
 62
     7
 48
3.0
370
     0
100
AcDbLine
 10
48.4164791379
 20
20.3639678403
 30
0.0
 11
49.1664791379
 21
20.3639678403
 31
0.0
  0
MTEXT
  5
2DB
330
2CC
100
AcDbEntity
  8
0
  6
Continuous
 62
     7
 48
3.0
370
     0
100
AcDbMText
 10
46.9317742099
 20
20.847368222
 30
0.0
 40
0.375
 41
0.0
 71
     1
 72
     1
  1
2.00
  7
SLDTEXTSTYLE0
 73
     1
 44
1.0
  0
MTEXT
  5
2DC
330
2CC
100
AcDbEntity
  8
0
  6
Continuous
 62
     7
 48
3.0
370
     0
100
AcDbMText
 10
46.9317742099
 20
20.2522341811
 30
0.0
 40
0.375
 41
0.0
 71
     1
 72
     1
  1
50.8
  7
SLDTEXTSTYLE0
 73
     1
 44
1.0
  0
ENDBLK
  5
2CE
330
2CC
100
AcDbEntity
  8
0
100
AcDbBlockEnd
  0
BLOCK
  5
3EA
330
3E9
100
AcDbEntity
  8
0
100
AcDbBlockBegin
  2
*D14
 70
     1
 10
0.0
 20
0.0
 30
0.0
  3
*D14
  1

  0
SOLID
  5
3EC
330
3E9
100
AcDbEntity
  8
0
  6
Continuous
 62
     7
 48
3.0
370
     0
100
AcDbTrace
 10
30.6103780836
 20
16.6366749597
 30
0.0
 11
30.2203780836
 21
16.6966749597
 31
0.0
 12
30.2203780836
 22
16.5766749597
 32
0.0
 13
30.2203780836
 23
16.5766749597
 33
0.0
  0
SOLID
  5
3ED
330
3E9
100
AcDbEntity
  8
0
  6
Continuous
 62
     7
 48
3.0
370
     0
100
AcDbTrace
 10
31.1103780836
 20
16.6366749597
 30
0.0
 11
31.5003780836
 21
16.5766749597
 31
0.0
 12
31.5003780836
 22
16.6966749597
 32
0.0
 13
31.5003780836
 23
16.6966749597
 33
0.0
  0
LINE
  5
3EE
330
3E9
100
AcDbEntity
  8
0
  6
Continuous
 62
     7
 48
3.0
370
     0
100
AcDbLine
 10
28.1534777082
 20
16.5920399066
 30
0.0
 11
28.1534777082
 21
16.0861759718
 31
0.0
  0
LINE
  5
3EF
330
3E9
100
AcDbEntity
  8
0
  6
Continuous
 62
     7
 48
3.0
370
     0
100
AcDbLine
 10
28.1534777082
 20
16.0861759718
 30
0.0
 11
28.2295949182
 21
16.0861759718
 31
0.0
  0
LINE
  5
3F0
330
3E9
100
AcDbEntity
  8
0
  6
Continuous
 62
     7
 48
3.0
370
     0
100
AcDbLine
 10
28.1534777082
 20
16.5920399066
 30
0.0
 11
28.2295949182
 21
16.5920399066
 31
0.0
  0
LINE
  5
3F1
330
3E9
100
AcDbEntity
  8
0
  6
Continuous
 62
     7
 48
3.0
370
     0
100
AcDbLine
 10
29.4273564042
 20
16.5920399066
 30
0.0
 11
29.4273564042
 21
16.0861759718
 31
0.0
  0
LINE
  5
3F2
330
3E9
100
AcDbEntity
  8
0
  6
Continuous
 62
     7
 48
3.0
370
     0
100
AcDbLine
 10
29.4273564042
 20
16.0861759718
 30
0.0
 11
29.3512391942
 21
16.0861759718
 31
0.0
  0
LINE
  5
3F3
330
3E9
100
AcDbEntity
  8
0
  6
Continuous
 62
     7
 48
3.0
370
     0
100
AcDbLine
 10
29.4273564042
 20
16.5920399066
 30
0.0
 11
29.3512391942
 21
16.5920399066
 31
0.0
  0
LINE
  5
3F4
330
3E9
100
AcDbEntity
  8
0
  6
Continuous
 62
     7
 48
3.0
370
     0
100
AcDbLine
 10
30.6103780836
 20
16.6366749597
 30
0.0
 11
29.8431094368
 21
16.6366749597
 31
0.0
  0
LINE
  5
3F5
330
3E9
100
AcDbEntity
  8
0
  6
Continuous
 62
     7
 48
3.0
370
     0
100
AcDbLine
 10
31.1103780836
 20
16.6366749597
 30
0.0
 11
31.8603780836
 21
16.6366749597
 31
0.0
  0
MTEXT
  5
3F6
330
3E9
100
AcDbEntity
  8
0
  6
Continuous
 62
     7
 48
3.0
370
     0
100
AcDbMText
 10
28.4441429091
 20
17.1200753415
 30
0.0
 40
0.375
 41
0.0
 71
     1
 72
     1
  1
.50
  7
SLDTEXTSTYLE0
 73
     1
 44
1.0
  0
MTEXT
  5
3F7
330
3E9
100
AcDbEntity
  8
0
  6
Continuous
 62
     7
 48
3.0
370
     0
100
AcDbMText
 10
28.3057121282
 20
16.5249413005
 30
0.0
 40
0.375
 41
0.0
 71
     1
 72
     1
  1
12.7
  7
SLDTEXTSTYLE0
 73
     1
 44
1.0
  0
ENDBLK
  5
3EB
330
3E9
100
AcDbEntity
  8
0
100
AcDbBlockEnd
  0
BLOCK
  5
3F9
330
3F8
100
AcDbEntity
  8
0
100
AcDbBlockBegin
  2
SW_NOTE_5
 70
     0
 10
0.0
 20
0.0
 30
0.0
  3
SW_NOTE_5
  1

  0
MTEXT
  5
3FB
330
3F8
100
AcDbEntity
  8
0
  6
Continuous
 62
     0
 48
3.0
370
     0
100
AcDbMText
 10
0.0590708887
 20
0.1816739521
 30
0.0
 40
0.375
 41
0.0
 71
     1
 72
     1
  1
GROUNDING
  7
SLDTEXTSTYLE0
 73
     1
 44
1.0
  0
MTEXT
  5
3FC
330
3F8
100
AcDbEntity
  8
0
  6
Continuous
 62
     0
 48
3.0
370
     0
100
AcDbMText
 10
0.0590708887
 20
-0.3114362714
 30
0.0
 40
0.375
 41
0.0
 71
     1
 72
     1
  1
EMBOSS
  7
SLDTEXTSTYLE0
 73
     1
 44
1.0
  0
ENDBLK
  5
3FA
330
3F8
100
AcDbEntity
  8
0
100
AcDbBlockEnd
  0
ENDSEC
  0
SECTION
  2
ENTITIES
  0
LINE
  5
44
330
1F
100
AcDbEntity
  8
0
  6
Continuous
 62
     7
 48
3.0
370
     0
100
AcDbLine
 10
0.9397548139
 20
32.1152195122
 30
0.0
 11
50.0677548139
 21
32.1152195122
 31
0.0
  0
LINE
  5
45
330
1F
100
AcDbEntity
  8
0
  6
Continuous
 62
     7
 48
3.0
370
     0
100
AcDbLine
 10
50.0677548139
 20
0.9872195122
 30
0.0
 11
50.0677548139
 21
32.1152195122
 31
0.0
  0
LINE
  5
46
330
1F
100
AcDbEntity
  8
0
  6
Continuous
 62
     7
 48
3.0
370
     0
100
AcDbLine
 10
50.0677548139
 20
0.9872195122
 30
0.0
 11
0.9397548139
 21
0.9872195122
 31
0.0
  0
LINE
  5
47
330
1F
100
AcDbEntity
  8
0
  6
Continuous
 62
     7
 48
3.0
370
     0
100
AcDbLine
 10
0.9397548139
 20
32.1152195122
 30
0.0
 11
0.9397548139
 21
0.9872195122
 31
0.0
  0
LINE
  5
48
330
1F
100
AcDbEntity
  8
0
  6
Continuous
 62
     7
 48
3.0
370
     0
100
AcDbLine
 10
0.7537548139
 20
32.3012195122
 30
0.0
 11
50.2537548139
 21
32.3012195122
 31
0.0
  0
LINE
  5
49
330
1F
100
AcDbEntity
  8
0
  6
Continuous
 62
     7
 48
3.0
370
     0
100
AcDbLine
 10
50.2537548139
 20
0.8012195122
 30
0.0
 11
0.7537548139
 21
0.8012195122
 31
0.0
  0
LINE
  5
4A
330
1F
100
AcDbEntity
  8
0
  6
Continuous
 62
     7
 48
3.0
370
     0
100
AcDbLine
 10
0.7537548139
 20
32.3012195122
 30
0.0
 11
0.7537548139
 21
0.8012195122
 31
0.0
  0
LINE
  5
4B
330
1F
100
AcDbEntity
  8
0
  6
Continuous
 62
     7
 48
3.0
370
     0
100
AcDbLine
 10
50.2537548139
 20
0.8012195122
 30
0.0
 11
50.2537548139
 21
32.3012195122
 31
0.0
  0
LINE
  5
4C
330
1F
100
AcDbEntity
  8
0
  6
Continuous
 62
     7
 48
3.0
370
     0
100
AcDbLine
 10
0.9397548139
 20
30.8972195122
 30
0.0
 11
50.0677548139
 21
30.8972195122
 31
0.0
  0
LINE
  5
4D
330
1F
100
AcDbEntity
  8
0
  6
Continuous
 62
     7
 48
3.0
370
     0
100
AcDbLine
 10
3.1897548139
 20
32.1152195122
 30
0.0
 11
3.1897548139
 21
30.8972195122
 31
0.0
  0
LINE
  5
4E
330
1F
100
AcDbEntity
  8
0
  6
Continuous
 62
     7
 48
3.0
370
     0
100
AcDbLine
 10
22.3177548139
 20
30.8972195122
 30
0.0
 11
22.3177548139
 21
32.1152195122
 31
0.0
  0
LINE
  5
4F
330
1F
100
AcDbEntity
  8
0
  6
Continuous
 62
     7
 48
3.0
370
     0
100
AcDbLine
 10
22.5037548139
 20
30.8972195122
 30
0.0
 11
22.5037548139
 21
32.1152195122
 31
0.0
  0
LINE
  5
50
330
1F
100
AcDbEntity
  8
0
  6
Continuous
 62
     7
 48
3.0
370
     0
100
AcDbLine
 10
46.3177548139
 20
30.8972195122
 30
0.0
 11
46.3177548139
 21
32.1152195122
 31
0.0
  0
LINE
  5
51
330
1F
100
AcDbEntity
  8
0
  6
Continuous
 62
     7
 48
3.0
370
     0
100
AcDbLine
 10
24.7537548139
 20
30.8972195122
 30
0.0
 11
24.7537548139
 21
32.1152195122
 31
0.0
  0
LINE
  5
52
330
1F
100
AcDbEntity
  8
0
  6
Continuous
 62
     7
 48
3.0
370
     0
100
AcDbLine
 10
44.0677548139
 20
30.8972195122
 30
0.0
 11
44.0677548139
 21
32.1152195122
 31
0.0
  0
LINE
  5
53
330
1F
100
AcDbEntity
  8
0
  6
Continuous
 62
     7
 48
3.0
370
     0
100
AcDbLine
 10
43.8817548139
 20
30.8972195122
 30
0.0
 11
43.8817548139
 21
32.1152195122
 31
0.0
  0
INSERT
  5
7C
330
1F
100
AcDbEntity
  8
0
  6
Continuous
 62
     7
 48
3.0
370
     0
100
AcDbBlockReference
  2
SW_NOTE_0
 10
26.5600095776
 20
27.4983092718
 30
0.0
  0
MTEXT
  5
7D
330
1F
100
AcDbEntity
  8
0
  6
Continuous
 62
     7
 48
3.0
370
     0
100
AcDbMText
 10
46.9769532468
 20
31.8279490323
 30
0.0
 40
0.5625
 41
0.0
 71
     1
 72
     1
  1
7-18-11
  7
SLDTEXTSTYLE0
 73
     1
 44
1.0
  0
MTEXT
  5
7E
330
1F
100
AcDbEntity
  8
0
  6
Continuous
 62
     7
 48
3.0
370
     0
100
AcDbMText
 10
9.7556296925
 20
31.8315225889
 30
0.0
 40
0.5625
 41
0.0
 71
     1
 72
     1
  1
JUNCTION BOX
  7
SLDTEXTSTYLE0
 73
     1
 44
1.0
  0
MTEXT
  5
7F
330
1F
100
AcDbEntity
  8
0
  6
Continuous
 62
     7
 48
3.0
370
     0
100
AcDbMText
 10
33.0341408475
 20
31.808910907
 30
0.0
 40
0.5625
 41
0.0
 71
     1
 72
     1
  1
JB-3960
  7
SLDTEXTSTYLE0
 73
     1
 44
1.0
  0
INSERT
  5
85
330
1F
100
AcDbEntity
  8
0
  6
Continuous
 62
     7
 48
3.0
370
     0
100
AcDbBlockReference
  2
SW_NOTE_1
 10
1.4629175606
 20
31.5142800795
 30
0.0
  0
INSERT
  5
8B
330
1F
100
AcDbEntity
  8
0
  6
Continuous
 62
     7
 48
3.0
370
     0
100
AcDbBlockReference
  2
SW_NOTE_2
 10
23.0553446694
 20
31.5005947192
 30
0.0
  0
INSERT
  5
91
330
1F
100
AcDbEntity
  8
0
  6
Continuous
 62
     7
 48
3.0
370
     0
100
AcDbBlockReference
  2
SW_NOTE_3
 10
44.1259158823
 20
31.5101505817
 30
0.0
  0
ARC
  5
92
330
1F
100
AcDbEntity
  8
0
  6
Continuous
 62
     7
 48
9.0
370
    15
100
AcDbCircle
 10
18.53095731
 20
17.1532098604
 30
0.0
 40
0.2030000000000013
100
AcDbArc
 50
133.2687098499
 51
46.73129015
  0
LINE
  5
93
330
1F
100
AcDbEntity
  8
0
  6
Continuous
 62
     7
 48
3.0
370
    15
100
AcDbLine
 10
18.7809574696
 20
9.4252097009
 30
0.0
 11
18.7809574696
 21
19.42521002
 31
0.0
  0
LINE
  5
94
330
1F
100
AcDbEntity
  8
0
  6
Continuous
 62
     7
 48
3.0
370
    15
100
AcDbLine
 10
8.7809571504
 20
9.4252097009
 30
0.0
 11
18.7809574696
 21
9.4252097009
 31
0.0
  0
ARC
  5
95
330
1F
100
AcDbEntity
  8
0
  6
Continuous
 62
     7
 48
9.0
370
    15
100
AcDbCircle
 10
9.03095731
 20
17.1532098604
 30
0.0
 40
0.2030000000000007
100
AcDbArc
 50
133.26870985
 51
46.7312901501
  0
ARC
  5
96
330
1F
100
AcDbEntity
  8
0
  6
Continuous
 62
     7
 48
9.0
370
    15
100
AcDbCircle
 10
9.03095731
 20
11.1532098604
 30
0.0
 40
0.2029999999999995
100
AcDbArc
 50
133.2687098473
 51
46.7312901525
  0
ARC
  5
97
330
1F
100
AcDbEntity
  8
0
  6
Continuous
 62
     7
 48
9.0
370
    15
100
AcDbCircle
 10
18.53095731
 20
11.1532098604
 30
0.0
 40
0.2029999999999997
100
AcDbArc
 50
133.2687098486
 51
46.7312901514
  0
LINE
  5
98
330
1F
100
AcDbEntity
  8
0
  6
Continuous
 62
     7
 48
3.0
370
    15
100
AcDbLine
 10
8.7809571504
 20
19.42521002
 30
0.0
 11
8.7809571504
 21
9.4252097009
 31
0.0
  0
LINE
  5
99
330
1F
100
AcDbEntity
  8
0
  6
Continuous
 62
     7
 48
3.0
370
    15
100
AcDbLine
 10
18.7809574696
 20
19.42521002
 30
0.0
 11
8.7809571504
 21
19.42521002
 31
0.0
  0
LWPOLYLINE
  5
9A
330
1F
100
AcDbEntity
  8
0
  6
Continuous
 62
     7
 48
3.0
370
    15
100
AcDbPolyline
 90
        9
 70
   128
 43
0.0
 10
18.5117333797
 20
11.4659043666
 10
18.500827959
 20
11.4766472825
 10
18.4901120294
 20
11.4872030539
 10
18.4796357505
 20
11.4975232813
 10
18.4694469348
 20
11.5075595654
 10
18.4595933953
 20
11.5172661466
 10
18.4501203048
 20
11.5265978521
 10
18.441071956
 20
11.5355115625
 10
18.4324894151
 20
11.5439656248
  0
ARC
  5
9B
330
1F
100
AcDbEntity
  8
0
  6
Continuous
 62
     7
 48
9.0
370
    15
100
AcDbCircle
 10
18.53095731
 20
11.4252098604
 30
0.0
 40
0.1542687964746305
100
AcDbArc
 50
129.6642084609
 51
141.197138477
  0
LWPOLYLINE
  5
9C
330
1F
100
AcDbEntity
  8
0
  6
Continuous
 62
     7
 48
3.0
370
    15
100
AcDbPolyline
 90
        9
 70
   128
 43
0.0
 10
18.4107345997
 20
11.5218813999
 10
18.4193168473
 20
11.5134270443
 10
18.4283654894
 20
11.5045136272
 10
18.43783858
 20
11.4951819217
 10
18.4476921195
 20
11.4854753405
 10
18.4578806418
 20
11.4754387631
 10
18.4683572141
 20
11.4651185357
 10
18.4790728503
 20
11.4545627643
 10
18.4899785643
 20
11.4438198484
  0
LWPOLYLINE
  5
9D
330
1F
100
AcDbEntity
  8
0
  6
Continuous
 62
     7
 48
3.0
370
    15
100
AcDbPolyline
 90
        9
 70
   128
 43
0.0
 10
18.5501813088
 20
11.3845152801
 10
18.5610867295
 20
11.3737726576
 10
18.5718026591
 20
11.3632165929
 10
18.582278938
 20
11.3528966587
 10
18.5924674603
 20
11.3428600813
 10
18.6023212932
 20
11.3331535001
 10
18.6117940904
 20
11.3238217946
 10
18.6208427326
 20
11.3149080842
 10
18.6294249801
 20
11.3064540219
  0
ARC
  5
9E
330
1F
100
AcDbEntity
  8
0
  6
Continuous
 62
     7
 48
9.0
370
    15
100
AcDbCircle
 10
18.53095731
 20
11.4252098604
 30
0.0
 40
0.1542687964746279
100
AcDbArc
 50
309.6642084609
 51
321.197138477
  0
LWPOLYLINE
  5
9F
330
1F
100
AcDbEntity
  8
0
  6
Continuous
 62
     7
 48
3.0
370
    15
100
AcDbPolyline
 90
        9
 70
   128
 43
0.0
 10
18.6511800888
 20
11.3285385401
 10
18.6425978412
 20
11.3369926025
 10
18.6335491991
 20
11.3459063128
 10
18.6240761085
 20
11.3552380184
 10
18.614222569
 20
11.3649445996
 10
18.6040340467
 20
11.3749811769
 10
18.5935574744
 20
11.3853011111
 10
18.5828418382
 20
11.3958571758
 10
18.5719361242
 20
11.4065997984
  0
LWPOLYLINE
  5
A0
330
1F
100
AcDbEntity
  8
0
  6
Continuous
 62
     7
 48
3.0
370
    15
100
AcDbPolyline
 90
        9
 70
   128
 43
0.0
 10
18.5714870361
 20
11.4663534547
 10
18.5640883749
 20
11.466297722
 10
18.5566533407
 20
11.4662419894
 10
18.5491898536
 20
11.4661859633
 10
18.5417064201
 20
11.466129644
 10
18.5342106667
 20
11.4660733246
 10
18.5267113933
 20
11.4660170053
 10
18.5192162266
 20
11.4659606859
 10
18.5117333797
 20
11.4659043666
  0
LWPOLYLINE
  5
A1
330
1F
100
AcDbEntity
  8
0
  6
Continuous
 62
     7
 48
3.0
370
    15
100
AcDbPolyline
 90
        9
 70
   128
 43
0.0
 10
18.4899785643
 20
11.4438198484
 10
18.4900345903
 20
11.4363370015
 10
18.4900909097
 20
11.4288421281
 10
18.4901475224
 20
11.4213425614
 10
18.4902038417
 20
11.4138471013
 10
18.4902598677
 20
11.4063633744
 10
18.4903161871
 20
11.3989001806
 10
18.4903719198
 20
11.3914648532
 10
18.4904276525
 20
11.384066192
  0
LWPOLYLINE
  5
A2
330
1F
100
AcDbEntity
  8
0
  6
Continuous
 62
     7
 48
3.0
370
    15
100
AcDbPolyline
 90
        9
 70
   128
 43
0.0
 10
18.4904276525
 20
11.384066192
 10
18.4978263137
 20
11.3841219247
 10
18.5052613478
 20
11.3841776574
 10
18.5127248349
 20
11.3842339767
 10
18.5202082684
 20
11.3842900027
 10
18.5277040218
 20
11.3843463221
 10
18.5352032952
 20
11.3844029348
 10
18.542698462
 20
11.3844592541
 10
18.5501813088
 20
11.3845152801
  0
LWPOLYLINE
  5
A3
330
1F
100
AcDbEntity
  8
0
  6
Continuous
 62
     7
 48
3.0
370
    15
100
AcDbPolyline
 90
        9
 70
   128
 43
0.0
 10
18.5719361242
 20
11.4065997984
 10
18.5718798048
 20
11.4140826452
 10
18.5718234855
 20
11.421577812
 10
18.5717671661
 20
11.4290770854
 10
18.5717108468
 20
11.4365728388
 10
18.5716545274
 20
11.4440562723
 10
18.5715985014
 20
11.4515197594
 10
18.5715424754
 20
11.4589547935
 10
18.5714870361
 20
11.4663534547
  0
LINE
  5
A4
330
1F
100
AcDbEntity
  8
0
  6
Continuous
 62
     7
 48
3.0
370
    15
100
AcDbLine
 10
18.5117333797
 20
11.4659043666
 30
0.0
 11
18.4898137129
 21
11.4657395152
 31
0.0
  0
LINE
  5
A5
330
1F
100
AcDbEntity
  8
0
  6
Continuous
 62
     7
 48
3.0
370
    15
100
AcDbLine
 10
18.4898137129
 20
11.4657395152
 30
0.0
 11
18.4899785643
 21
11.4438198484
 31
0.0
  0
LINE
  5
A6
330
1F
100
AcDbEntity
  8
0
  6
Continuous
 62
     7
 48
3.0
370
    15
100
AcDbLine
 10
18.5501813088
 20
11.3845152801
 30
0.0
 11
18.5721009756
 21
11.3846801316
 31
0.0
  0
LINE
  5
A7
330
1F
100
AcDbEntity
  8
0
  6
Continuous
 62
     7
 48
3.0
370
    15
100
AcDbLine
 10
18.5721009756
 20
11.3846801316
 30
0.0
 11
18.5719361242
 21
11.4065997984
 31
0.0
  0
CIRCLE
  5
A8
330
1F
100
AcDbEntity
  8
0
  6
Continuous
 62
     7
 48
9.0
370
    15
100
AcDbCircle
 10
18.53095731
 20
11.4252098604
 30
0.0
 40
0.1864999999999979
  0
LWPOLYLINE
  5
A9
330
1F
100
AcDbEntity
  8
0
  6
Continuous
 62
     7
 48
3.0
370
    15
100
AcDbPolyline
 90
        9
 70
   128
 43
0.0
 10
8.9899784958
 20
11.4065997984
 10
8.9790727818
 20
11.3958571758
 10
8.9683571456
 20
11.3853011111
 10
8.9578805733
 20
11.3749811769
 10
8.947692051
 20
11.3649445996
 10
8.9378385114
 20
11.3552380184
 10
8.9283654209
 20
11.3459063128
 10
8.9193167787
 20
11.3369926025
 10
8.9107345312
 20
11.3285385401
  0
ARC
  5
AA
330
1F
100
AcDbEntity
  8
0
  6
Continuous
 62
     7
 48
9.0
370
    15
100
AcDbCircle
 10
9.03095731
 20
11.4252098604
 30
0.0
 40
0.1542687964746305
100
AcDbArc
 50
218.802861523
 51
230.3357915391
  0
LWPOLYLINE
  5
AB
330
1F
100
AcDbEntity
  8
0
  6
Continuous
 62
     7
 48
3.0
370
    15
100
AcDbPolyline
 90
        9
 70
   128
 43
0.0
 10
8.9324896399
 20
11.3064540219
 10
8.9410718874
 20
11.3149080842
 10
8.9501205296
 20
11.3238217946
 10
8.9595933268
 20
11.3331535001
 10
8.9694471596
 20
11.3428600813
 10
8.9796356819
 20
11.3528966587
 10
8.9901119609
 20
11.3632165929
 10
9.0008278905
 20
11.3737726576
 10
9.0117333111
 20
11.3845152801
  0
LWPOLYLINE
  5
AC
330
1F
100
AcDbEntity
  8
0
  6
Continuous
 62
     7
 48
3.0
370
    15
100
AcDbPolyline
 90
        9
 70
   128
 43
0.0
 10
9.0714869675
 20
11.384066192
 10
9.0715427002
 20
11.3914648532
 10
9.0715984329
 20
11.3989001806
 10
9.0716547523
 20
11.4063633744
 10
9.0717107783
 20
11.4138471013
 10
9.0717670976
 20
11.4213425614
 10
9.0718237103
 20
11.4288421281
 10
9.0718800297
 20
11.4363370015
 10
9.0719360557
 20
11.4438198484
  0
LWPOLYLINE
  5
AD
330
1F
100
AcDbEntity
  8
0
  6
Continuous
 62
     7
 48
3.0
370
    15
100
AcDbPolyline
 90
        9
 70
   128
 43
0.0
 10
9.0719360557
 20
11.4438198484
 10
9.0828417697
 20
11.4545627643
 10
9.0935574059
 20
11.4651185357
 10
9.1040339782
 20
11.4754387631
 10
9.1142225005
 20
11.4854753405
 10
9.12407604
 20
11.4951819217
 10
9.1335491306
 20
11.5045136272
 10
9.1425977727
 20
11.5134270443
 10
9.1511800202
 20
11.5218813999
  0
ARC
  5
AE
330
1F
100
AcDbEntity
  8
0
  6
Continuous
 62
     7
 48
9.0
370
    15
100
AcDbCircle
 10
9.03095731
 20
11.4252098604
 30
0.0
 40
0.1542687964746292
100
AcDbArc
 50
38.802861523
 51
50.3357915391
  0
LWPOLYLINE
  5
AF
330
1F
100
AcDbEntity
  8
0
  6
Continuous
 62
     7
 48
3.0
370
    15
100
AcDbPolyline
 90
        9
 70
   128
 43
0.0
 10
9.1294252049
 20
11.5439656248
 10
9.120842664
 20
11.5355115625
 10
9.1117943152
 20
11.5265978521
 10
9.1023212247
 20
11.5172661466
 10
9.0924676852
 20
11.5075595654
 10
9.0822788695
 20
11.4975232813
 10
9.0718025905
 20
11.4872030539
 10
9.061086661
 20
11.4766472825
 10
9.0501812403
 20
11.4659043666
  0
LWPOLYLINE
  5
B0
330
1F
100
AcDbEntity
  8
0
  6
Continuous
 62
     7
 48
3.0
370
    15
100
AcDbPolyline
 90
        9
 70
   128
 43
0.0
 10
9.0501812403
 20
11.4659043666
 10
9.0426983934
 20
11.4659606859
 10
9.0352032267
 20
11.4660170053
 10
9.0277039533
 20
11.4660733246
 10
9.0202081999
 20
11.466129644
 10
9.0127247664
 20
11.4661859633
 10
9.0052612792
 20
11.4662419894
 10
8.9978262451
 20
11.466297722
 10
8.9904275839
 20
11.4663534547
  0
LWPOLYLINE
  5
B1
330
1F
100
AcDbEntity
  8
0
  6
Continuous
 62
     7
 48
3.0
370
    15
100
AcDbPolyline
 90
        9
 70
   128
 43
0.0
 10
8.9904275839
 20
11.4663534547
 10
8.9903721446
 20
11.4589547935
 10
8.9903161186
 20
11.4515197594
 10
8.9902600925
 20
11.4440562723
 10
8.9902037732
 20
11.4365728388
 10
8.9901474538
 20
11.4290770854
 10
8.9900911345
 20
11.421577812
 10
8.9900348151
 20
11.4140826452
 10
8.9899784958
 20
11.4065997984
  0
LWPOLYLINE
  5
B2
330
1F
100
AcDbEntity
  8
0
  6
Continuous
 62
     7
 48
3.0
370
    15
100
AcDbPolyline
 90
        9
 70
   128
 43
0.0
 10
9.0117333111
 20
11.3845152801
 10
9.019216158
 20
11.3844592541
 10
9.0267113248
 20
11.3844029348
 10
9.0342105981
 20
11.3843463221
 10
9.0417063516
 20
11.3842900027
 10
9.0491897851
 20
11.3842339767
 10
9.0566532722
 20
11.3841776574
 10
9.0640883063
 20
11.3841219247
 10
9.0714869675
 20
11.384066192
  0
LINE
  5
B3
330
1F
100
AcDbEntity
  8
0
  6
Continuous
 62
     7
 48
3.0
370
    15
100
AcDbLine
 10
8.9899784958
 20
11.4065997984
 30
0.0
 11
8.9898136444
 21
11.3846801316
 31
0.0
  0
LINE
  5
B4
330
1F
100
AcDbEntity
  8
0
  6
Continuous
 62
     7
 48
3.0
370
    15
100
AcDbLine
 10
8.9898136444
 20
11.3846801316
 30
0.0
 11
9.0117333111
 21
11.3845152801
 31
0.0
  0
LINE
  5
B5
330
1F
100
AcDbEntity
  8
0
  6
Continuous
 62
     7
 48
3.0
370
    15
100
AcDbLine
 10
9.0721009071
 20
11.4657395152
 30
0.0
 11
9.0501812403
 21
11.4659043666
 31
0.0
  0
LINE
  5
B6
330
1F
100
AcDbEntity
  8
0
  6
Continuous
 62
     7
 48
3.0
370
    15
100
AcDbLine
 10
9.0719360557
 20
11.4438198484
 30
0.0
 11
9.0721009071
 21
11.4657395152
 31
0.0
  0
CIRCLE
  5
B7
330
1F
100
AcDbEntity
  8
0
  6
Continuous
 62
     7
 48
9.0
370
    15
100
AcDbCircle
 10
9.03095731
 20
11.4252098604
 30
0.0
 40
0.1865000000000004
  0
LWPOLYLINE
  5
B8
330
1F
100
AcDbEntity
  8
0
  6
Continuous
 62
     7
 48
3.0
370
    15
100
AcDbPolyline
 90
        9
 70
   128
 43
0.0
 10
18.5117333797
 20
17.4659044407
 10
18.500827959
 20
17.4766470633
 10
18.4901120294
 20
17.487203128
 10
18.4796357505
 20
17.4975230622
 10
18.4694469348
 20
17.5075596395
 10
18.4595933953
 20
17.5172662207
 10
18.4501203048
 20
17.5265979263
 10
18.441071956
 20
17.5355116366
 10
18.4324894151
 20
17.543965699
  0
ARC
  5
B9
330
1F
100
AcDbEntity
  8
0
  6
Continuous
 62
     7
 48
9.0
370
    15
100
AcDbCircle
 10
18.53095731
 20
17.4252098604
 30
0.0
 40
0.1542687964746294
100
AcDbArc
 50
129.6642084609
 51
141.197138477
  0
LWPOLYLINE
  5
BA
330
1F
100
AcDbEntity
  8
0
  6
Continuous
 62
     7
 48
3.0
370
    15
100
AcDbPolyline
 90
        9
 70
   128
 43
0.0
 10
18.4107345997
 20
17.5218811808
 10
18.4193168473
 20
17.5134271184
 10
18.4283654894
 20
17.5045134081
 10
18.43783858
 20
17.4951817025
 10
18.4476921195
 20
17.4854751213
 10
18.4578806418
 20
17.4754385439
 10
18.4683572141
 20
17.4651186098
 10
18.4790728503
 20
17.4545625451
 10
18.4899785643
 20
17.4438199225
  0
LWPOLYLINE
  5
BB
330
1F
100
AcDbEntity
  8
0
  6
Continuous
 62
     7
 48
3.0
370
    15
100
AcDbPolyline
 90
        9
 70
   128
 43
0.0
 10
18.5501813088
 20
17.3845153543
 10
18.5610867295
 20
17.3737724384
 10
18.5718026591
 20
17.363216667
 10
18.582278938
 20
17.3528964396
 10
18.5924674603
 20
17.3428601555
 10
18.6023212932
 20
17.3331535743
 10
18.6117940904
 20
17.3238218688
 10
18.6208427326
 20
17.3149081584
 10
18.6294249801
 20
17.3064540961
  0
ARC
  5
BC
330
1F
100
AcDbEntity
  8
0
  6
Continuous
 62
     7
 48
9.0
370
    15
100
AcDbCircle
 10
18.53095731
 20
17.4252098604
 30
0.0
 40
0.1542687964746292
100
AcDbArc
 50
309.6642084609
 51
321.197138477
  0
LWPOLYLINE
  5
BD
330
1F
100
AcDbEntity
  8
0
  6
Continuous
 62
     7
 48
3.0
370
    15
100
AcDbPolyline
 90
        9
 70
   128
 43
0.0
 10
18.6511800888
 20
17.3285383209
 10
18.6425978412
 20
17.3369926766
 10
18.6335491991
 20
17.3459060936
 10
18.6240761085
 20
17.3552377992
 10
18.614222569
 20
17.3649443804
 10
18.6040340467
 20
17.3749809578
 10
18.5935574744
 20
17.3853011852
 10
18.5828418382
 20
17.3958569566
 10
18.5719361242
 20
17.4065998725
  0
LWPOLYLINE
  5
BE
330
1F
100
AcDbEntity
  8
0
  6
Continuous
 62
     7
 48
3.0
370
    15
100
AcDbPolyline
 90
        9
 70
   128
 43
0.0
 10
18.5714870361
 20
17.4663535289
 10
18.5640883749
 20
17.4662977962
 10
18.5566533407
 20
17.4662420635
 10
18.5491898536
 20
17.4661857442
 10
18.5417064201
 20
17.4661297181
 10
18.5342106667
 20
17.4660733988
 10
18.5267113933
 20
17.4660167861
 10
18.5192162266
 20
17.4659604668
 10
18.5117333797
 20
17.4659044407
  0
LWPOLYLINE
  5
BF
330
1F
100
AcDbEntity
  8
0
  6
Continuous
 62
     7
 48
3.0
370
    15
100
AcDbPolyline
 90
        9
 70
   128
 43
0.0
 10
18.4904276525
 20
17.3840662661
 10
18.4978263137
 20
17.3841219988
 10
18.5052613478
 20
17.3841777315
 10
18.5127248349
 20
17.3842337575
 10
18.5202082684
 20
17.3842900769
 10
18.5277040218
 20
17.3843463962
 10
18.5352032952
 20
17.3844027156
 10
18.542698462
 20
17.3844590349
 10
18.5501813088
 20
17.3845153543
  0
LWPOLYLINE
  5
C0
330
1F
100
AcDbEntity
  8
0
  6
Continuous
 62
     7
 48
3.0
370
    15
100
AcDbPolyline
 90
        9
 70
   128
 43
0.0
 10
18.5719361242
 20
17.4065998725
 10
18.5718798048
 20
17.4140827194
 10
18.5718234855
 20
17.4215775928
 10
18.5717671661
 20
17.4290771595
 10
18.5717108468
 20
17.4365726196
 10
18.5716545274
 20
17.4440563465
 10
18.5715985014
 20
17.4515195403
 10
18.5715424754
 20
17.4589548677
 10
18.5714870361
 20
17.4663535289
  0
LWPOLYLINE
  5
C1
330
1F
100
AcDbEntity
  8
0
  6
Continuous
 62
     7
 48
3.0
370
    15
100
AcDbPolyline
 90
        9
 70
   128
 43
0.0
 10
18.4899785643
 20
17.4438199225
 10
18.4900345903
 20
17.4363370756
 10
18.4900909097
 20
17.4288419089
 10
18.4901475224
 20
17.4213426355
 10
18.4902038417
 20
17.4138468821
 10
18.4902598677
 20
17.4063634486
 10
18.4903161871
 20
17.3988999615
 10
18.4903719198
 20
17.3914649273
 10
18.4904276525
 20
17.3840662661
  0
LINE
  5
C2
330
1F
100
AcDbEntity
  8
0
  6
Continuous
 62
     7
 48
3.0
370
    15
100
AcDbLine
 10
18.5117333797
 20
17.4659044407
 30
0.0
 11
18.4898137129
 21
17.4657395893
 31
0.0
  0
LINE
  5
C3
330
1F
100
AcDbEntity
  8
0
  6
Continuous
 62
     7
 48
3.0
370
    15
100
AcDbLine
 10
18.4898137129
 20
17.4657395893
 30
0.0
 11
18.4899785643
 21
17.4438199225
 31
0.0
  0
LINE
  5
C4
330
1F
100
AcDbEntity
  8
0
  6
Continuous
 62
     7
 48
3.0
370
    15
100
AcDbLine
 10
18.5501813088
 20
17.3845153543
 30
0.0
 11
18.5721009756
 21
17.3846802057
 31
0.0
  0
LINE
  5
C5
330
1F
100
AcDbEntity
  8
0
  6
Continuous
 62
     7
 48
3.0
370
    15
100
AcDbLine
 10
18.5721009756
 20
17.3846802057
 30
0.0
 11
18.5719361242
 21
17.4065998725
 31
0.0
  0
CIRCLE
  5
C6
330
1F
100
AcDbEntity
  8
0
  6
Continuous
 62
     7
 48
9.0
370
    15
100
AcDbCircle
 10
18.53095731
 20
17.4252098604
 30
0.0
 40
0.1864999999999979
  0
LWPOLYLINE
  5
C7
330
1F
100
AcDbEntity
  8
0
  6
Continuous
 62
     7
 48
3.0
370
    15
100
AcDbPolyline
 90
        9
 70
   128
 43
0.0
 10
8.9899784958
 20
17.4065998725
 10
8.9790727818
 20
17.3958569566
 10
8.9683571456
 20
17.3853011852
 10
8.9578805733
 20
17.3749809578
 10
8.947692051
 20
17.3649443804
 10
8.9378385114
 20
17.3552377992
 10
8.9283654209
 20
17.3459060936
 10
8.9193167787
 20
17.3369926766
 10
8.9107345312
 20
17.3285383209
  0
ARC
  5
C8
330
1F
100
AcDbEntity
  8
0
  6
Continuous
 62
     7
 48
9.0
370
    15
100
AcDbCircle
 10
9.03095731
 20
17.4252098604
 30
0.0
 40
0.1542687964746303
100
AcDbArc
 50
218.802861523
 51
230.3357915391
  0
LWPOLYLINE
  5
C9
330
1F
100
AcDbEntity
  8
0
  6
Continuous
 62
     7
 48
3.0
370
    15
100
AcDbPolyline
 90
        9
 70
   128
 43
0.0
 10
8.9324896399
 20
17.3064540961
 10
8.9410718874
 20
17.3149081584
 10
8.9501205296
 20
17.3238218688
 10
8.9595933268
 20
17.3331535743
 10
8.9694471596
 20
17.3428601555
 10
8.9796356819
 20
17.3528964396
 10
8.9901119609
 20
17.363216667
 10
9.0008278905
 20
17.3737724384
 10
9.0117333111
 20
17.3845153543
  0
LWPOLYLINE
  5
CA
330
1F
100
AcDbEntity
  8
0
  6
Continuous
 62
     7
 48
3.0
370
    15
100
AcDbPolyline
 90
        9
 70
   128
 43
0.0
 10
9.0719360557
 20
17.4438199225
 10
9.0828417697
 20
17.4545625451
 10
9.0935574059
 20
17.4651186098
 10
9.1040339782
 20
17.4754385439
 10
9.1142225005
 20
17.4854751213
 10
9.12407604
 20
17.4951817025
 10
9.1335491306
 20
17.5045134081
 10
9.1425977727
 20
17.5134271184
 10
9.1511800202
 20
17.5218811808
  0
ARC
  5
CB
330
1F
100
AcDbEntity
  8
0
  6
Continuous
 62
     7
 48
9.0
370
    15
100
AcDbCircle
 10
9.03095731
 20
17.4252098604
 30
0.0
 40
0.154268796474628
100
AcDbArc
 50
38.802861523
 51
50.3357915391
  0
LWPOLYLINE
  5
CC
330
1F
100
AcDbEntity
  8
0
  6
Continuous
 62
     7
 48
3.0
370
    15
100
AcDbPolyline
 90
        9
 70
   128
 43
0.0
 10
9.1294252049
 20
17.543965699
 10
9.120842664
 20
17.5355116366
 10
9.1117943152
 20
17.5265979263
 10
9.1023212247
 20
17.5172662207
 10
9.0924676852
 20
17.5075596395
 10
9.0822788695
 20
17.4975230622
 10
9.0718025905
 20
17.487203128
 10
9.061086661
 20
17.4766470633
 10
9.0501812403
 20
17.4659044407
  0
LWPOLYLINE
  5
CD
330
1F
100
AcDbEntity
  8
0
  6
Continuous
 62
     7
 48
3.0
370
    15
100
AcDbPolyline
 90
        9
 70
   128
 43
0.0
 10
9.0501812403
 20
17.4659044407
 10
9.0426983934
 20
17.4659604668
 10
9.0352032267
 20
17.4660167861
 10
9.0277039533
 20
17.4660733988
 10
9.0202081999
 20
17.4661297181
 10
9.0127247664
 20
17.4661857442
 10
9.0052612792
 20
17.4662420635
 10
8.9978262451
 20
17.4662977962
 10
8.9904275839
 20
17.4663535289
  0
LWPOLYLINE
  5
CE
330
1F
100
AcDbEntity
  8
0
  6
Continuous
 62
     7
 48
3.0
370
    15
100
AcDbPolyline
 90
        9
 70
   128
 43
0.0
 10
8.9904275839
 20
17.4663535289
 10
8.9903721446
 20
17.4589548677
 10
8.9903161186
 20
17.4515195403
 10
8.9902600925
 20
17.4440563465
 10
8.9902037732
 20
17.4365726196
 10
8.9901474538
 20
17.4290771595
 10
8.9900911345
 20
17.4215775928
 10
8.9900348151
 20
17.4140827194
 10
8.9899784958
 20
17.4065998725
  0
LWPOLYLINE
  5
CF
330
1F
100
AcDbEntity
  8
0
  6
Continuous
 62
     7
 48
3.0
370
    15
100
AcDbPolyline
 90
        9
 70
   128
 43
0.0
 10
9.0714869675
 20
17.3840662661
 10
9.0715427002
 20
17.3914649273
 10
9.0715984329
 20
17.3988999615
 10
9.0716547523
 20
17.4063634486
 10
9.0717107783
 20
17.4138468821
 10
9.0717670976
 20
17.4213426355
 10
9.0718237103
 20
17.4288419089
 10
9.0718800297
 20
17.4363370756
 10
9.0719360557
 20
17.4438199225
  0
LWPOLYLINE
  5
D0
330
1F
100
AcDbEntity
  8
0
  6
Continuous
 62
     7
 48
3.0
370
    15
100
AcDbPolyline
 90
        9
 70
   128
 43
0.0
 10
9.0117333111
 20
17.3845153543
 10
9.019216158
 20
17.3844590349
 10
9.0267113248
 20
17.3844027156
 10
9.0342105981
 20
17.3843463962
 10
9.0417063516
 20
17.3842900769
 10
9.0491897851
 20
17.3842337575
 10
9.0566532722
 20
17.3841777315
 10
9.0640883063
 20
17.3841219988
 10
9.0714869675
 20
17.3840662661
  0
LINE
  5
D1
330
1F
100
AcDbEntity
  8
0
  6
Continuous
 62
     7
 48
3.0
370
    15
100
AcDbLine
 10
9.0721009071
 20
17.4657395893
 30
0.0
 11
9.0501812403
 21
17.4659044407
 31
0.0
  0
LINE
  5
D2
330
1F
100
AcDbEntity
  8
0
  6
Continuous
 62
     7
 48
3.0
370
    15
100
AcDbLine
 10
9.0719360557
 20
17.4438199225
 30
0.0
 11
9.0721009071
 21
17.4657395893
 31
0.0
  0
LINE
  5
D3
330
1F
100
AcDbEntity
  8
0
  6
Continuous
 62
     7
 48
3.0
370
    15
100
AcDbLine
 10
8.9899784958
 20
17.4065998725
 30
0.0
 11
8.9898136444
 21
17.3846802057
 31
0.0
  0
LINE
  5
D4
330
1F
100
AcDbEntity
  8
0
  6
Continuous
 62
     7
 48
3.0
370
    15
100
AcDbLine
 10
8.9898136444
 20
17.3846802057
 30
0.0
 11
9.0117333111
 21
17.3845153543
 31
0.0
  0
CIRCLE
  5
D5
330
1F
100
AcDbEntity
  8
0
  6
Continuous
 62
     7
 48
9.0
370
    15
100
AcDbCircle
 10
9.03095731
 20
17.4252098604
 30
0.0
 40
0.1865000000000004
  0
DIMENSION
  5
D6
330
1F
100
AcDbEntity
  8
0
  6
Continuous
 62
     7
 48
3.0
370
     0
100
AcDbDimension
  2
*D5
 10
18.78095731
 20
20.476833888
 30
0.0
 11
13.78095731
 21
20.476833888
 31
0.0
 70
   160
 71
     2
 42
-1.0
  3
SLDDIMSTYLE0
100
AcDbAlignedDimension
 13
8.78095731
 23
19.4252098604
 33
0.0
 14
18.78095731
 24
19.4252098604
 34
0.0
100
AcDbRotatedDimension
  0
DIMENSION
  5
E9
330
1F
100
AcDbEntity
  8
0
  6
Continuous
 62
     7
 48
3.0
370
     0
100
AcDbDimension
  2
*D6
 10
19.9758030506
 20
9.4252098604
 30
0.0
 11
19.9758030506
 21
14.4252098604
 31
0.0
 70
   160
 71
     2
 42
-1.0
  3
SLDDIMSTYLE0
100
AcDbAlignedDimension
 13
18.78095731
 23
19.4252098604
 33
0.0
 14
18.78095731
 24
9.4252098604
 34
0.0
 50
90.0
100
AcDbRotatedDimension
  0
INSERT
  5
103
102
{ACAD_REACTORS
330
105
102
}
330
1F
100
AcDbEntity
  8
0
  6
Continuous
 62
     7
 48
3.0
370
     0
100
AcDbBlockReference
  2
SW_NOTE_4
 10
20.6771118265
 20
7.1294285823
 30
0.0
  0
LEADER
  5
105
330
1F
100
AcDbEntity
  8
0
  6
Continuous
 62
     7
 48
3.0
370
     0
100
AcDbLeader
  3
SLDDIMSTYLE1
 73
     2
 76
     3
 10
18.5859275001
 20
11.2469950232
 30
0.0
 10
19.9271118265
 20
7.1294285823
 30
0.0
 10
20.6771118265
 20
7.1294285823
 30
0.0
340
103
  0
LINE
  5
106
330
1F
100
AcDbEntity
  8
0
  6
Continuous
 62
     7
 48
3.0
370
    15
100
AcDbLine
 10
18.7174574031
 20
23.3867358433
 30
0.0
 11
18.7174574031
 21
23.4200672182
 31
0.0
  0
LINE
  5
107
330
1F
100
AcDbEntity
  8
0
  6
Continuous
 62
     7
 48
3.0
370
    15
100
AcDbLine
 10
18.3444572854
 20
23.4200672182
 30
0.0
 11
18.3444572854
 21
23.3867358433
 31
0.0
  0
ARC
  5
108
330
1F
100
AcDbEntity
  8
0
  6
Continuous
 62
     7
 48
9.0
370
    15
100
AcDbCircle
 10
18.70245731
 20
23.386735835
 30
0.0
 40
0.0149999999999999
100
AcDbArc
 50
322.550643686
 51
0.0
  0
ARC
  5
109
330
1F
100
AcDbEntity
  8
0
  6
Continuous
 62
     7
 48
9.0
370
    15
100
AcDbCircle
 10
18.35945731
 20
23.386735835
 30
0.0
 40
0.0149999999999999
100
AcDbArc
 50
180.0
 51
217.449356314
  0
ARC
  5
10A
330
1F
100
AcDbEntity
  8
0
  6
Continuous
 62
     7
 48
9.0
370
    15
100
AcDbCircle
 10
18.53095731
 20
23.518091734
 30
0.0
 40
0.2310245869783038
100
AcDbArc
 50
280.1818657166
 51
322.550643686
  0
ARC
  5
10B
330
1F
100
AcDbEntity
  8
0
  6
Continuous
 62
     7
 48
9.0
370
    15
100
AcDbCircle
 10
18.53095731
 20
23.518091734
 30
0.0
 40
0.2310245869783038
100
AcDbArc
 50
217.449356314
 51
259.8181342834
  0
LINE
  5
10C
330
1F
100
AcDbEntity
  8
0
  6
Continuous
 62
     7
 48
3.0
370
    15
100
AcDbLine
 10
18.5999573472
 20
23.5440671724
 30
0.0
 11
18.5999573472
 21
23.6210671629
 31
0.0
  0
LINE
  5
10D
330
1F
100
AcDbEntity
  8
0
  6
Continuous
 62
     7
 48
3.0
370
    15
100
AcDbLine
 10
18.4619573413
 20
23.6210671629
 30
0.0
 11
18.4619573413
 21
23.5440671724
 31
0.0
  0
LINE
  5
10E
330
1F
100
AcDbEntity
  8
0
  6
Continuous
 62
     7
 48
3.0
370
    15
100
AcDbLine
 10
9.2174573346
 20
23.3867358433
 30
0.0
 11
9.2174573346
 21
23.4200672182
 31
0.0
  0
LINE
  5
10F
330
1F
100
AcDbEntity
  8
0
  6
Continuous
 62
     7
 48
3.0
370
    15
100
AcDbLine
 10
8.8444572169
 20
23.4200672182
 30
0.0
 11
8.8444572169
 21
23.3867358433
 31
0.0
  0
ARC
  5
110
330
1F
100
AcDbEntity
  8
0
  6
Continuous
 62
     7
 48
9.0
370
    15
100
AcDbCircle
 10
9.20245731
 20
23.386735835
 30
0.0
 40
0.0150000000000013
100
AcDbArc
 50
322.550643686
 51
0.0
  0
ARC
  5
111
330
1F
100
AcDbEntity
  8
0
  6
Continuous
 62
     7
 48
9.0
370
    15
100
AcDbCircle
 10
8.85945731
 20
23.386735835
 30
0.0
 40
0.0150000000000013
100
AcDbArc
 50
180.0
 51
217.449356314
  0
ARC
  5
112
330
1F
100
AcDbEntity
  8
0
  6
Continuous
 62
     7
 48
9.0
370
    15
100
AcDbCircle
 10
9.03095731
 20
23.518091734
 30
0.0
 40
0.2310245869783038
100
AcDbArc
 50
280.1818657166
 51
322.550643686
  0
ARC
  5
113
330
1F
100
AcDbEntity
  8
0
  6
Continuous
 62
     7
 48
9.0
370
    15
100
AcDbCircle
 10
9.03095731
 20
23.518091734
 30
0.0
 40
0.2310245869783052
100
AcDbArc
 50
217.449356314
 51
259.8181342834
  0
LINE
  5
114
330
1F
100
AcDbEntity
  8
0
  6
Continuous
 62
     7
 48
3.0
370
    15
100
AcDbLine
 10
9.0999572786
 20
23.5440671724
 30
0.0
 11
9.0999572786
 21
23.6210671629
 31
0.0
  0
LINE
  5
115
330
1F
100
AcDbEntity
  8
0
  6
Continuous
 62
     7
 48
3.0
370
    15
100
AcDbLine
 10
8.9619572728
 20
23.6210671629
 30
0.0
 11
8.9619572728
 21
23.5440671724
 31
0.0
  0
LINE
  5
116
330
1F
100
AcDbEntity
  8
0
  6
Continuous
 62
     7
 48
3.0
370
    15
100
AcDbLine
 10
18.7809574696
 20
23.4820671953
 30
0.0
 11
8.7809571504
 21
23.4820671953
 31
0.0
  0
LINE
  5
117
330
1F
100
AcDbEntity
  8
0
  6
Continuous
 62
     7
 48
3.0
370
    15
100
AcDbLine
 10
18.7809574696
 20
23.4200672182
 30
0.0
 11
8.7809571504
 21
23.4200672182
 31
0.0
  0
LINE
  5
118
330
1F
100
AcDbEntity
  8
0
  6
Continuous
 62
     7
 48
3.0
370
    15
100
AcDbLine
 10
18.7809574696
 20
23.4820671953
 30
0.0
 11
18.7809574696
 21
23.4200672182
 31
0.0
  0
LINE
  5
119
330
1F
100
AcDbEntity
  8
0
  6
Continuous
 62
     7
 48
3.0
370
    15
100
AcDbLine
 10
8.7809571504
 20
23.4820671953
 30
0.0
 11
8.7809571504
 21
23.4200672182
 31
0.0
  0
LINE
  5
11A
330
1F
100
AcDbEntity
  8
0
  6
Continuous
 62
     7
 48
3.0
370
    15
100
AcDbLine
 10
18.2499572304
 20
23.6210671629
 30
0.0
 11
18.6419572086
 21
23.6210671629
 31
0.0
  0
LINE
  5
11B
330
1F
100
AcDbEntity
  8
0
  6
Continuous
 62
     7
 48
3.0
370
    15
100
AcDbLine
 10
18.2499572304
 20
23.5590671858
 30
0.0
 11
18.2499572304
 21
23.6210671629
 31
0.0
  0
LINE
  5
11C
330
1F
100
AcDbEntity
  8
0
  6
Continuous
 62
     7
 48
3.0
370
    15
100
AcDbLine
 10
9.3119573896
 20
23.5590671858
 30
0.0
 11
9.3119573896
 21
23.6210671629
 31
0.0
  0
LINE
  5
11D
330
1F
100
AcDbEntity
  8
0
  6
Continuous
 62
     7
 48
3.0
370
    15
100
AcDbLine
 10
9.3119573896
 20
23.6210671629
 30
0.0
 11
8.9199574113
 21
23.6210671629
 31
0.0
  0
LINE
  5
11E
330
1F
100
AcDbEntity
  8
0
  6
Continuous
 62
     7
 48
3.0
370
    15
100
AcDbLine
 10
8.8429571275
 20
23.6210671629
 30
0.0
 11
8.9199574113
 21
23.6210671629
 31
0.0
  0
LINE
  5
11F
330
1F
100
AcDbEntity
  8
0
  6
Continuous
 62
     7
 48
3.0
370
    15
100
AcDbLine
 10
8.9199574113
 20
27.3430671427
 30
0.0
 11
8.8429571275
 21
27.3430671427
 31
0.0
  0
LINE
  5
120
330
1F
100
AcDbEntity
  8
0
  6
Continuous
 62
     7
 48
3.0
370
    15
100
AcDbLine
 10
18.7189574925
 20
23.6210671629
 30
0.0
 11
18.6419572086
 21
23.6210671629
 31
0.0
  0
LINE
  5
121
330
1F
100
AcDbEntity
  8
0
  6
Continuous
 62
     7
 48
3.0
370
    15
100
AcDbLine
 10
18.6419572086
 20
27.3430671427
 30
0.0
 11
18.7189574925
 21
27.3430671427
 31
0.0
  0
LINE
  5
122
330
1F
100
AcDbEntity
  8
0
  6
Continuous
 62
     7
 48
3.0
370
    15
100
AcDbLine
 10
8.9199574113
 20
27.420067147
 30
0.0
 11
8.9199574113
 21
27.3430671427
 31
0.0
  0
LINE
  5
123
330
1F
100
AcDbEntity
  8
0
  6
Continuous
 62
     7
 48
3.0
370
    15
100
AcDbLine
 10
18.6419572086
 20
27.420067147
 30
0.0
 11
18.6419572086
 21
27.3430671427
 31
0.0
  0
LINE
  5
124
330
1F
100
AcDbEntity
  8
0
  6
Continuous
 62
     7
 48
3.0
370
    15
100
AcDbLine
 10
9.3119573896
 20
23.5590671858
 30
0.0
 11
9.3119573896
 21
23.4820671953
 31
0.0
  0
LINE
  5
125
330
1F
100
AcDbEntity
  8
0
  6
Continuous
 62
     7
 48
3.0
370
    15
100
AcDbLine
 10
18.2499572304
 20
23.5590671858
 30
0.0
 11
18.2499572304
 21
23.4820671953
 31
0.0
  0
LINE
  5
126
330
1F
100
AcDbEntity
  8
0
  6
Continuous
 62
     7
 48
3.0
370
    15
100
AcDbLine
 10
18.7189574925
 20
23.5590671858
 30
0.0
 11
18.7189574925
 21
27.4050671473
 31
0.0
  0
LINE
  5
127
330
1F
100
AcDbEntity
  8
0
  6
Continuous
 62
     7
 48
3.0
370
    15
100
AcDbLine
 10
18.7809574696
 20
23.5590671858
 30
0.0
 11
18.7809574696
 21
27.4050671473
 31
0.0
  0
LINE
  5
128
330
1F
100
AcDbEntity
  8
0
  6
Continuous
 62
     7
 48
3.0
370
    15
100
AcDbLine
 10
8.7809571504
 20
27.4050671473
 30
0.0
 11
8.7809571504
 21
23.5590671858
 31
0.0
  0
LINE
  5
129
330
1F
100
AcDbEntity
  8
0
  6
Continuous
 62
     7
 48
3.0
370
    15
100
AcDbLine
 10
8.8429571275
 20
27.4050671473
 30
0.0
 11
8.8429571275
 21
23.5590671858
 31
0.0
  0
ARC
  5
12A
330
1F
100
AcDbEntity
  8
0
  6
Continuous
 62
     7
 48
9.0
370
    15
100
AcDbCircle
 10
8.85795731
 20
27.405067147
 30
0.0
 40
0.077
100
AcDbArc
 50
90.0
 51
180.0
  0
ARC
  5
12B
330
1F
100
AcDbEntity
  8
0
  6
Continuous
 62
     7
 48
9.0
370
    15
100
AcDbCircle
 10
8.85795731
 20
27.405067147
 30
0.0
 40
0.0150000000000006
100
AcDbArc
 50
90.0
 51
180.0
  0
LINE
  5
12C
330
1F
100
AcDbEntity
  8
0
  6
Continuous
 62
     7
 48
3.0
370
    15
100
AcDbLine
 10
18.7039571857
 20
27.482067147
 30
0.0
 11
8.8579574342
 21
27.482067147
 31
0.0
  0
LINE
  5
12D
330
1F
100
AcDbEntity
  8
0
  6
Continuous
 62
     7
 48
3.0
370
    15
100
AcDbLine
 10
18.7039571857
 20
27.420067147
 30
0.0
 11
8.8579574342
 21
27.420067147
 31
0.0
  0
ARC
  5
12E
330
1F
100
AcDbEntity
  8
0
  6
Continuous
 62
     7
 48
9.0
370
    15
100
AcDbCircle
 10
18.70395731
 20
27.405067147
 30
0.0
 40
0.0770000000000017
100
AcDbArc
 50
0.0
 51
90.0
  0
ARC
  5
12F
330
1F
100
AcDbEntity
  8
0
  6
Continuous
 62
     7
 48
9.0
370
    15
100
AcDbCircle
 10
18.70395731
 20
27.405067147
 30
0.0
 40
0.0150000000000006
100
AcDbArc
 50
0.0
 51
90.0
  0
ARC
  5
130
330
1F
100
AcDbEntity
  8
0
  6
Continuous
 62
     7
 48
9.0
370
    15
100
AcDbCircle
 10
8.85795731
 20
23.559067147
 30
0.0
 40
0.0150000000000006
100
AcDbArc
 50
180.0
 51
270.0
  0
ARC
  5
131
330
1F
100
AcDbEntity
  8
0
  6
Continuous
 62
     7
 48
9.0
370
    15
100
AcDbCircle
 10
8.85795731
 20
23.559067147
 30
0.0
 40
0.0770000000000017
100
AcDbArc
 50
180.0
 51
270.0
  0
ARC
  5
132
330
1F
100
AcDbEntity
  8
0
  6
Continuous
 62
     7
 48
9.0
370
    15
100
AcDbCircle
 10
18.70395731
 20
23.559067147
 30
0.0
 40
0.0150000000000006
100
AcDbArc
 50
270.0
 51
0.0
  0
ARC
  5
133
330
1F
100
AcDbEntity
  8
0
  6
Continuous
 62
     7
 48
9.0
370
    15
100
AcDbCircle
 10
18.70395731
 20
23.559067147
 30
0.0
 40
0.0770000000000017
100
AcDbArc
 50
270.0
 51
0.0
  0
LINE
  5
134
330
1F
100
AcDbEntity
  8
0
  6
Continuous
 62
     7
 48
3.0
370
    15
100
AcDbLine
 10
18.2809572189
 20
23.4820671953
 30
0.0
 11
18.2809572189
 21
23.5440671724
 31
0.0
  0
LINE
  5
135
330
1F
100
AcDbEntity
  8
0
  6
Continuous
 62
     7
 48
3.0
370
    15
100
AcDbLine
 10
18.2809572189
 20
23.5440671724
 30
0.0
 11
18.7039571857
 21
23.5440671724
 31
0.0
  0
LINE
  5
136
330
1F
100
AcDbEntity
  8
0
  6
Continuous
 62
     7
 48
3.0
370
    15
100
AcDbLine
 10
18.2809572189
 20
23.4820671953
 30
0.0
 11
18.7039571857
 21
23.4820671953
 31
0.0
  0
LINE
  5
137
330
1F
100
AcDbEntity
  8
0
  6
Continuous
 62
     7
 48
3.0
370
    15
100
AcDbLine
 10
8.8579574342
 20
23.5440671724
 30
0.0
 11
9.280957401
 21
23.5440671724
 31
0.0
  0
LINE
  5
138
330
1F
100
AcDbEntity
  8
0
  6
Continuous
 62
     7
 48
3.0
370
    15
100
AcDbLine
 10
8.8579574342
 20
23.4820671953
 30
0.0
 11
9.280957401
 21
23.4820671953
 31
0.0
  0
LINE
  5
139
330
1F
100
AcDbEntity
  8
0
  6
Continuous
 62
     7
 48
3.0
370
    15
100
AcDbLine
 10
9.280957401
 20
23.5440671724
 30
0.0
 11
9.280957401
 21
23.4820671953
 31
0.0
  0
ARC
  5
13A
330
1F
100
AcDbEntity
  8
0
  6
Continuous
 62
     7
 48
9.0
370
    15
100
AcDbCircle
 10
18.5543256289
 20
23.4380667228
 30
0.0
 40
0.1526363240160102
100
AcDbArc
 50
217.0402588669
 51
253.7968445176
  0
LINE
  5
13B
330
1F
100
AcDbEntity
  8
0
  6
Continuous
 62
     7
 48
3.0
370
    15
100
AcDbLine
 10
18.4107345997
 20
23.3461222591
 30
0.0
 11
18.4324894151
 21
23.3461222591
 31
0.0
  0
ARC
  5
13C
330
1F
100
AcDbEntity
  8
0
  6
Continuous
 62
     7
 48
9.0
370
    15
100
AcDbCircle
 10
18.5325708135
 20
23.4380667228
 30
0.0
 40
0.15263632401604
100
AcDbArc
 50
217.0402588669
 51
253.7968445176
  0
LWPOLYLINE
  5
13D
330
1F
100
AcDbEntity
  8
0
  6
Continuous
 62
     7
 48
3.0
370
    15
100
AcDbPolyline
 90
        9
 70
   128
 43
0.0
 10
18.4899785643
 20
23.2914933702
 10
18.4900345903
 20
23.2909929493
 10
18.4900909097
 20
23.2907392189
 10
18.4901475224
 20
23.290733059
 10
18.4902038417
 20
23.2909741762
 10
18.4902598677
 20
23.2914622772
 10
18.4903161871
 20
23.2921970687
 10
18.4903719198
 20
23.2931773774
 10
18.4904276525
 20
23.2944023232
  0
ARC
  5
13E
330
1F
100
AcDbEntity
  8
0
  6
Continuous
 62
     7
 48
9.0
370
    15
100
AcDbCircle
 10
18.5312668233
 20
23.5181151888
 30
0.0
 40
0.2274099471716109
100
AcDbArc
 50
259.6544744661
 51
264.9977143509
  0
ARC
  5
13F
330
1F
100
AcDbEntity
  8
0
  6
Continuous
 62
     7
 48
9.0
370
    15
100
AcDbCircle
 10
18.5312590296
 20
23.518207218
 30
0.0
 40
0.2275021350266329
100
AcDbArc
 50
269.9437458228
 51
274.7710351285
  0
ARC
  5
140
330
1F
100
AcDbEntity
  8
0
  6
Continuous
 62
     7
 48
9.0
370
    15
100
AcDbCircle
 10
18.5878906524
 20
23.2939128254
 30
0.0
 40
0.0164109182071941
100
AcDbArc
 50
178.290752571
 51
191.2703913397
  0
ARC
  5
141
330
1F
100
AcDbEntity
  8
0
  6
Continuous
 62
     7
 48
9.0
370
    15
100
AcDbCircle
 10
18.5306495155
 20
23.5180946375
 30
0.0
 40
0.2273894337264216
100
AcDbArc
 50
265.2281480736
 51
280.3460464293
  0
LINE
  5
142
330
1F
100
AcDbEntity
  8
0
  6
Continuous
 62
     7
 48
3.0
370
    15
100
AcDbLine
 10
18.4899785643
 20
23.2914933702
 30
0.0
 11
18.4899785643
 21
23.2993827724
 31
0.0
  0
LINE
  5
143
330
1F
100
AcDbEntity
  8
0
  6
Continuous
 62
     7
 48
3.0
370
    15
100
AcDbLine
 10
18.4904276525
 20
23.2991739214
 30
0.0
 11
18.4904276525
 21
23.2944023232
 31
0.0
  0
LINE
  5
144
330
1F
100
AcDbEntity
  8
0
  6
Continuous
 62
     7
 48
3.0
370
    15
100
AcDbLine
 10
18.5501813088
 20
23.2915455829
 30
0.0
 11
18.5501813088
 21
23.2914933702
 31
0.0
  0
ARC
  5
145
330
1F
100
AcDbEntity
  8
0
  6
Continuous
 62
     7
 48
9.0
370
    15
100
AcDbCircle
 10
9.0306460953
 20
23.5180339135
 30
0.0
 40
0.2273286413767812
100
AcDbArc
 50
265.2277167122
 51
270.0785776253
  0
ARC
  5
146
330
1F
100
AcDbEntity
  8
0
  6
Continuous
 62
     7
 48
9.0
370
    15
100
AcDbCircle
 10
9.0306477967
 20
23.5181151888
 30
0.0
 40
0.227409947171897
100
AcDbArc
 50
275.0022856491
 51
280.3455255339
  0
LWPOLYLINE
  5
147
330
1F
100
AcDbEntity
  8
0
  6
Continuous
 62
     7
 48
3.0
370
    15
100
AcDbPolyline
 90
        9
 70
   128
 43
0.0
 10
9.0714869675
 20
23.2944023232
 10
9.0715427002
 20
23.2931773774
 10
9.0715984329
 20
23.2921970687
 10
9.0716547523
 20
23.2914622772
 10
9.0717107783
 20
23.2909741762
 10
9.0717670976
 20
23.290733059
 10
9.0718237103
 20
23.2907392189
 10
9.0718800297
 20
23.2909929493
 10
9.0719360557
 20
23.2914933702
  0
ARC
  5
148
330
1F
100
AcDbEntity
  8
0
  6
Continuous
 62
     7
 48
9.0
370
    15
100
AcDbCircle
 10
9.0293438064
 20
23.4380667228
 30
0.0
 40
0.1526363240160395
100
AcDbArc
 50
286.2031554824
 51
322.9597411331
  0
LINE
  5
149
330
1F
100
AcDbEntity
  8
0
  6
Continuous
 62
     7
 48
3.0
370
    15
100
AcDbLine
 10
9.1294252049
 20
23.3461222591
 30
0.0
 11
9.1511800202
 21
23.3461222591
 31
0.0
  0
ARC
  5
14A
330
1F
100
AcDbEntity
  8
0
  6
Continuous
 62
     7
 48
9.0
370
    15
100
AcDbCircle
 10
9.0075889911
 20
23.4380667228
 30
0.0
 40
0.1526363240160346
100
AcDbArc
 50
286.2031554824
 51
322.9597411331
  0
ARC
  5
14B
330
1F
100
AcDbEntity
  8
0
  6
Continuous
 62
     7
 48
9.0
370
    15
100
AcDbCircle
 10
9.0312651045
 20
23.5180946375
 30
0.0
 40
0.2273894337264215
100
AcDbArc
 50
259.6539535707
 51
274.7718519264
  0
ARC
  5
14C
330
1F
100
AcDbEntity
  8
0
  6
Continuous
 62
     7
 48
9.0
370
    15
100
AcDbCircle
 10
8.9740239676
 20
23.2939128254
 30
0.0
 40
0.0164109182072376
100
AcDbArc
 50
348.7296086603
 51
1.7092474289
  0
LINE
  5
14D
330
1F
100
AcDbEntity
  8
0
  6
Continuous
 62
     7
 48
3.0
370
    15
100
AcDbLine
 10
9.0719360557
 20
23.2993827724
 30
0.0
 11
9.0719360557
 21
23.2914933702
 31
0.0
  0
LINE
  5
14E
330
1F
100
AcDbEntity
  8
0
  6
Continuous
 62
     7
 48
3.0
370
    15
100
AcDbLine
 10
9.0714869675
 20
23.2991739214
 30
0.0
 11
9.0714869675
 21
23.2944023232
 31
0.0
  0
LINE
  5
14F
330
1F
100
AcDbEntity
  8
0
  6
Continuous
 62
     7
 48
3.0
370
    15
100
AcDbLine
 10
9.0117333111
 20
23.2914933702
 30
0.0
 11
9.0117333111
 21
23.2915455829
 31
0.0
  0
DIMENSION
  5
150
330
1F
100
AcDbEntity
  8
0
  6
Continuous
 62
     7
 48
3.0
370
     0
100
AcDbDimension
  2
*D8
 10
19.9758030506
 20
23.482067147
 30
0.0
 11
19.9758030506
 21
25.482067147
 31
0.0
 70
   160
 71
     2
 42
-1.0
  3
SLDDIMSTYLE0
100
AcDbAlignedDimension
 13
18.70395731
 23
27.482067147
 33
0.0
 14
18.78095731
 24
23.482067147
 34
0.0
 50
90.0
100
AcDbRotatedDimension
  0
ARC
  5
162
330
1F
100
AcDbEntity
  8
0
  6
Continuous
 62
     7
 48
9.0
370
    15
100
AcDbCircle
 10
32.2966521632
 20
11.2537098604
 30
0.0
 40
0.0149999999999991
100
AcDbArc
 50
232.550643686
 51
270.0
  0
ARC
  5
163
330
1F
100
AcDbEntity
  8
0
  6
Continuous
 62
     7
 48
9.0
370
    15
100
AcDbCircle
 10
32.2966521632
 20
11.5967098604
 30
0.0
 40
0.0150000000000006
100
AcDbArc
 50
90.0
 51
127.449356314
  0
LINE
  5
164
330
1F
100
AcDbEntity
  8
0
  6
Continuous
 62
     7
 48
3.0
370
    15
100
AcDbLine
 10
32.2966521714
 20
11.2387097645
 30
0.0
 11
32.3299835464
 21
11.2387097645
 31
0.0
  0
LINE
  5
165
330
1F
100
AcDbEntity
  8
0
  6
Continuous
 62
     7
 48
3.0
370
    15
100
AcDbLine
 10
32.3299835464
 20
11.6117098822
 30
0.0
 11
32.2966521714
 21
11.6117098822
 31
0.0
  0
ARC
  5
166
330
1F
100
AcDbEntity
  8
0
  6
Continuous
 62
     7
 48
9.0
370
    15
100
AcDbCircle
 10
32.4280080621
 20
11.4252098604
 30
0.0
 40
0.2310245869783038
100
AcDbArc
 50
190.1818657166
 51
232.550643686
  0
ARC
  5
167
330
1F
100
AcDbEntity
  8
0
  6
Continuous
 62
     7
 48
9.0
370
    15
100
AcDbCircle
 10
32.4280080621
 20
11.4252098604
 30
0.0
 40
0.2310245869783038
100
AcDbArc
 50
127.449356314
 51
169.8181342834
  0
ARC
  5
168
330
1F
100
AcDbEntity
  8
0
  6
Continuous
 62
     7
 48
9.0
370
    15
100
AcDbCircle
 10
32.2966521632
 20
17.2537098604
 30
0.0
 40
0.0150000000000006
100
AcDbArc
 50
232.550643686
 51
270.0
  0
ARC
  5
169
330
1F
100
AcDbEntity
  8
0
  6
Continuous
 62
     7
 48
9.0
370
    15
100
AcDbCircle
 10
32.2966521632
 20
17.5967098604
 30
0.0
 40
0.0150000000000006
100
AcDbArc
 50
90.0
 51
127.449356314
  0
LINE
  5
16A
330
1F
100
AcDbEntity
  8
0
  6
Continuous
 62
     7
 48
3.0
370
    15
100
AcDbLine
 10
32.2966521714
 20
17.2387098387
 30
0.0
 11
32.3299835464
 21
17.2387098387
 31
0.0
  0
LINE
  5
16B
330
1F
100
AcDbEntity
  8
0
  6
Continuous
 62
     7
 48
3.0
370
    15
100
AcDbLine
 10
32.3299835464
 20
17.6117099564
 30
0.0
 11
32.2966521714
 21
17.6117099564
 31
0.0
  0
ARC
  5
16C
330
1F
100
AcDbEntity
  8
0
  6
Continuous
 62
     7
 48
9.0
370
    15
100
AcDbCircle
 10
32.4280080621
 20
17.4252098604
 30
0.0
 40
0.2310245869783066
100
AcDbArc
 50
190.1818657166
 51
232.550643686
  0
ARC
  5
16D
330
1F
100
AcDbEntity
  8
0
  6
Continuous
 62
     7
 48
9.0
370
    15
100
AcDbCircle
 10
32.4280080621
 20
17.4252098604
 30
0.0
 40
0.2310245869783038
100
AcDbArc
 50
127.449356314
 51
169.8181342834
  0
LINE
  5
16E
330
1F
100
AcDbEntity
  8
0
  6
Continuous
 62
     7
 48
3.0
370
    15
100
AcDbLine
 10
32.3919835235
 20
9.4252097009
 30
0.0
 11
32.3299835464
 21
9.4252097009
 31
0.0
  0
LINE
  5
16F
330
1F
100
AcDbEntity
  8
0
  6
Continuous
 62
     7
 48
3.0
370
    15
100
AcDbLine
 10
32.3919835235
 20
9.4252097009
 30
0.0
 11
32.3919835235
 21
19.42521002
 31
0.0
  0
LINE
  5
170
330
1F
100
AcDbEntity
  8
0
  6
Continuous
 62
     7
 48
3.0
370
    15
100
AcDbLine
 10
32.3919835235
 20
19.42521002
 30
0.0
 11
32.3299835464
 21
19.42521002
 31
0.0
  0
LINE
  5
171
330
1F
100
AcDbEntity
  8
0
  6
Continuous
 62
     7
 48
3.0
370
    15
100
AcDbLine
 10
32.3299835464
 20
9.4252097009
 30
0.0
 11
32.3299835464
 21
19.42521002
 31
0.0
  0
LINE
  5
172
330
1F
100
AcDbEntity
  8
0
  6
Continuous
 62
     7
 48
3.0
370
    15
100
AcDbLine
 10
36.3149834755
 20
19.42521002
 30
0.0
 11
36.3919834751
 21
19.42521002
 31
0.0
  0
LINE
  5
173
330
1F
100
AcDbEntity
  8
0
  6
Continuous
 62
     7
 48
3.0
370
    15
100
AcDbLine
 10
36.3919834751
 20
19.42521002
 30
0.0
 11
36.3919834751
 21
9.4252097009
 31
0.0
  0
LINE
  5
174
330
1F
100
AcDbEntity
  8
0
  6
Continuous
 62
     7
 48
3.0
370
    15
100
AcDbLine
 10
36.3149834755
 20
9.4252097009
 30
0.0
 11
36.3919834751
 21
9.4252097009
 31
0.0
  0
LINE
  5
175
330
1F
100
AcDbEntity
  8
0
  6
Continuous
 62
     7
 48
3.0
370
    15
100
AcDbLine
 10
32.468983514
 20
19.42521002
 30
0.0
 11
36.3149834755
 21
19.42521002
 31
0.0
  0
LINE
  5
176
330
1F
100
AcDbEntity
  8
0
  6
Continuous
 62
     7
 48
3.0
370
    15
100
AcDbLine
 10
32.468983514
 20
9.4252097009
 30
0.0
 11
36.3149834755
 21
9.4252097009
 31
0.0
  0
LINE
  5
177
330
1F
100
AcDbEntity
  8
0
  6
Continuous
 62
     7
 48
3.0
370
    15
100
AcDbLine
 10
32.3919835235
 20
9.4252097009
 30
0.0
 11
32.468983514
 21
9.4252097009
 31
0.0
  0
LINE
  5
178
330
1F
100
AcDbEntity
  8
0
  6
Continuous
 62
     7
 48
3.0
370
    15
100
AcDbLine
 10
32.3919835235
 20
19.42521002
 30
0.0
 11
32.468983514
 21
19.42521002
 31
0.0
  0
ARC
  5
179
330
1F
100
AcDbEntity
  8
0
  6
Continuous
 62
     7
 48
9.0
370
    15
100
AcDbCircle
 10
32.4280249381
 20
11.4249053109
 30
0.0
 40
0.2274034659737365
100
AcDbArc
 50
179.9625203829
 51
190.3458103341
  0
ARC
  5
17A
330
1F
100
AcDbEntity
  8
0
  6
Continuous
 62
     7
 48
9.0
370
    15
100
AcDbCircle
 10
32.2012585017
 20
11.3831178885
 30
0.0
 40
0.0014055475561835
100
AcDbArc
 50
83.8246677177
 51
116.9351614707
  0
ARC
  5
17B
330
1F
100
AcDbEntity
  8
0
  6
Continuous
 62
     7
 48
9.0
370
    15
100
AcDbCircle
 10
32.3455400752
 20
11.4272348654
 30
0.0
 40
0.1503280695242964
100
AcDbArc
 50
196.5095828609
 51
233.4606714127
  0
LINE
  5
17C
330
1F
100
AcDbEntity
  8
0
  6
Continuous
 62
     7
 48
3.0
370
    15
100
AcDbLine
 10
32.2560385873
 20
11.3285385401
 30
0.0
 11
32.2560385873
 21
11.3064540219
 31
0.0
  0
ARC
  5
17D
330
1F
100
AcDbEntity
  8
0
  6
Continuous
 62
     7
 48
9.0
370
    15
100
AcDbCircle
 10
32.3455400752
 20
11.4493193836
 30
0.0
 40
0.1503280695242708
100
AcDbArc
 50
196.5095828609
 51
233.4606714127
  0
ARC
  5
17E
330
1F
100
AcDbEntity
  8
0
  6
Continuous
 62
     7
 48
9.0
370
    15
100
AcDbCircle
 10
32.4280109657
 20
11.4255159342
 30
0.0
 40
0.2273894337258314
100
AcDbArc
 50
169.6539535707
 51
184.7718519265
  0
LWPOLYLINE
  5
17F
330
1F
100
AcDbEntity
  8
0
  6
Continuous
 62
     7
 48
3.0
370
    15
100
AcDbPolyline
 90
        9
 70
   128
 43
0.0
 10
32.2043186514
 20
11.4663534547
 10
32.2030937056
 20
11.466297722
 10
32.2021133969
 20
11.4662419894
 10
32.2013786054
 20
11.4661859633
 10
32.2008905043
 20
11.466129644
 10
32.2006493871
 20
11.4660733246
 10
32.2006555471
 20
11.4660170053
 10
32.2009092775
 20
11.4659606859
 10
32.2014096983
 20
11.4659043666
  0
LINE
  5
180
330
1F
100
AcDbEntity
  8
0
  6
Continuous
 62
     7
 48
3.0
370
    15
100
AcDbLine
 10
32.2096114969
 20
11.3845152801
 30
0.0
 11
32.2014096983
 21
11.3845152801
 31
0.0
  0
LINE
  5
181
330
1F
100
AcDbEntity
  8
0
  6
Continuous
 62
     7
 48
3.0
370
    15
100
AcDbLine
 10
32.2042371057
 20
11.4659043666
 30
0.0
 11
32.2014096983
 21
11.4659043666
 31
0.0
  0
ARC
  5
182
330
1F
100
AcDbEntity
  8
0
  6
Continuous
 62
     7
 48
9.0
370
    15
100
AcDbCircle
 10
32.4280433283
 20
17.4249073942
 30
0.0
 40
0.2274219180111604
100
AcDbArc
 50
179.943519907
 51
190.3454762338
  0
ARC
  5
183
330
1F
100
AcDbEntity
  8
0
  6
Continuous
 62
     7
 48
9.0
370
    15
100
AcDbCircle
 10
32.2012606511
 20
17.3831062283
 30
0.0
 40
0.0014169866542122
100
AcDbArc
 50
83.9621145011
 51
116.7977146879
  0
ARC
  5
184
330
1F
100
AcDbEntity
  8
0
  6
Continuous
 62
     7
 48
9.0
370
    15
100
AcDbCircle
 10
32.3455400752
 20
17.4272349395
 30
0.0
 40
0.1503280695242651
100
AcDbArc
 50
196.5095828609
 51
233.4606714127
  0
LINE
  5
185
330
1F
100
AcDbEntity
  8
0
  6
Continuous
 62
     7
 48
3.0
370
    15
100
AcDbLine
 10
32.2560385873
 20
17.3285383209
 30
0.0
 11
32.2560385873
 21
17.3064540961
 31
0.0
  0
ARC
  5
186
330
1F
100
AcDbEntity
  8
0
  6
Continuous
 62
     7
 48
9.0
370
    15
100
AcDbCircle
 10
32.3455401668
 20
17.449319068
 30
0.0
 40
0.1503280465821334
100
AcDbArc
 50
196.5094305135
 51
233.4606214834
  0
ARC
  5
187
330
1F
100
AcDbEntity
  8
0
  6
Continuous
 62
     7
 48
9.0
370
    15
100
AcDbCircle
 10
32.4280129669
 20
17.4255159109
 30
0.0
 40
0.2273914198970157
100
AcDbArc
 50
169.6540199807
 51
184.7717855164
  0
LWPOLYLINE
  5
188
330
1F
100
AcDbEntity
  8
0
  6
Continuous
 62
     7
 48
3.0
370
    15
100
AcDbPolyline
 90
        9
 70
   128
 43
0.0
 10
32.2043186514
 20
17.4663535289
 10
32.2030937056
 20
17.4662977962
 10
32.2021133969
 20
17.4662420635
 10
32.2013786054
 20
17.4661857442
 10
32.2008905043
 20
17.4661297181
 10
32.2006493871
 20
17.4660733988
 10
32.2006555471
 20
17.4660167861
 10
32.2009092775
 20
17.4659604668
 10
32.2014096983
 20
17.4659044407
  0
LINE
  5
189
330
1F
100
AcDbEntity
  8
0
  6
Continuous
 62
     7
 48
3.0
370
    15
100
AcDbLine
 10
32.2096114969
 20
17.3845153543
 30
0.0
 11
32.2014096983
 21
17.3845153543
 31
0.0
  0
LINE
  5
18A
330
1F
100
AcDbEntity
  8
0
  6
Continuous
 62
     7
 48
3.0
370
    15
100
AcDbLine
 10
32.2042371057
 20
17.4659044407
 30
0.0
 11
32.2014096983
 21
17.4659044407
 31
0.0
  0
LINE
  5
18B
330
1F
100
AcDbEntity
  8
0
  6
HIDDEN
 62
     7
 48
3.0
370
     0
100
AcDbLine
 10
32.3919835235
 20
17.3131599119
 30
0.0
 11
32.3299835464
 21
17.3131599119
 31
0.0
  0
LINE
  5
18C
330
1F
100
AcDbEntity
  8
0
  6
HIDDEN
 62
     7
 48
3.0
370
     0
100
AcDbLine
 10
32.3919835235
 20
11.3131598378
 30
0.0
 11
32.3299835464
 21
11.3131598378
 31
0.0
  0
LINE
  5
18D
330
1F
100
AcDbEntity
  8
0
  6
HIDDEN
 62
     7
 48
3.0
370
     0
100
AcDbLine
 10
36.2529834709
 20
18.9872097465
 30
0.0
 11
32.5309834911
 21
18.9872097465
 31
0.0
  0
LINE
  5
18E
330
1F
100
AcDbEntity
  8
0
  6
HIDDEN
 62
     7
 48
3.0
370
     0
100
AcDbLine
 10
32.5309834911
 20
18.9872097465
 30
0.0
 11
32.5309834911
 21
19.3482097362
 31
0.0
  0
LINE
  5
18F
330
1F
100
AcDbEntity
  8
0
  6
HIDDEN
 62
     7
 48
3.0
370
     0
100
AcDbLine
 10
36.2529834709
 20
19.3482097362
 30
0.0
 11
36.2529834709
 21
18.9872097465
 31
0.0
  0
LINE
  5
190
330
1F
100
AcDbEntity
  8
0
  6
HIDDEN
 62
     7
 48
3.0
370
     0
100
AcDbLine
 10
36.2529834709
 20
19.42521002
 30
0.0
 11
36.2529834709
 21
19.3482097362
 31
0.0
  0
LINE
  5
191
330
1F
100
AcDbEntity
  8
0
  6
HIDDEN
 62
     7
 48
3.0
370
     0
100
AcDbLine
 10
32.5309834911
 20
19.3482097362
 30
0.0
 11
32.5309834911
 21
19.42521002
 31
0.0
  0
LINE
  5
192
330
1F
100
AcDbEntity
  8
0
  6
HIDDEN
 62
     7
 48
3.0
370
     0
100
AcDbLine
 10
32.5309834911
 20
19.3632100429
 30
0.0
 11
36.2529834709
 21
19.3632100429
 31
0.0
  0
ARC
  5
193
330
1F
100
AcDbEntity
  8
0
  6
HIDDEN
 62
     7
 48
9.0
370
     0
100
AcDbCircle
 10
36.2529834751
 20
19.3482098604
 30
0.0
 40
0.0770000000000017
100
AcDbArc
 50
0.0
 51
90.0
  0
ARC
  5
194
330
1F
100
AcDbEntity
  8
0
  6
HIDDEN
 62
     7
 48
9.0
370
     0
100
AcDbCircle
 10
36.2529834751
 20
19.3482098604
 30
0.0
 40
0.014999999999997
100
AcDbArc
 50
0.0
 51
90.0
  0
LINE
  5
195
330
1F
100
AcDbEntity
  8
0
  6
HIDDEN
 62
     7
 48
3.0
370
     0
100
AcDbLine
 10
36.2679834751
 20
18.9872097465
 30
0.0
 11
36.2679834751
 21
19.3482097362
 31
0.0
  0
LINE
  5
196
330
1F
100
AcDbEntity
  8
0
  6
HIDDEN
 62
     7
 48
3.0
370
     0
100
AcDbLine
 10
36.3299834751
 20
18.9872097465
 30
0.0
 11
36.2679834751
 21
18.9872097465
 31
0.0
  0
LINE
  5
197
330
1F
100
AcDbEntity
  8
0
  6
HIDDEN
 62
     7
 48
3.0
370
     0
100
AcDbLine
 10
32.468983514
 20
19.3632100429
 30
0.0
 11
32.5309834911
 21
19.3632100429
 31
0.0
  0
ARC
  5
198
330
1F
100
AcDbEntity
  8
0
  6
HIDDEN
 62
     7
 48
9.0
370
     0
100
AcDbCircle
 10
32.4689834751
 20
19.3482098604
 30
0.0
 40
0.014999999999997
100
AcDbArc
 50
90.0
 51
180.0
  0
ARC
  5
199
330
1F
100
AcDbEntity
  8
0
  6
HIDDEN
 62
     7
 48
9.0
370
     0
100
AcDbCircle
 10
32.4689834751
 20
19.3482098604
 30
0.0
 40
0.0770000000000017
100
AcDbArc
 50
90.0
 51
180.0
  0
LINE
  5
19A
330
1F
100
AcDbEntity
  8
0
  6
HIDDEN
 62
     7
 48
3.0
370
     0
100
AcDbLine
 10
32.3919835235
 20
18.9252097694
 30
0.0
 11
32.4539835006
 21
18.9252097694
 31
0.0
  0
LINE
  5
19B
330
1F
100
AcDbEntity
  8
0
  6
HIDDEN
 62
     7
 48
3.0
370
     0
100
AcDbLine
 10
32.5309834911
 20
9.8632099744
 30
0.0
 11
32.5309834911
 21
9.5022099847
 31
0.0
  0
LINE
  5
19C
330
1F
100
AcDbEntity
  8
0
  6
HIDDEN
 62
     7
 48
3.0
370
     0
100
AcDbLine
 10
36.2529834709
 20
9.8632099744
 30
0.0
 11
32.5309834911
 21
9.8632099744
 31
0.0
  0
LINE
  5
19D
330
1F
100
AcDbEntity
  8
0
  6
HIDDEN
 62
     7
 48
3.0
370
     0
100
AcDbLine
 10
36.2529834709
 20
9.5022099847
 30
0.0
 11
36.2529834709
 21
9.8632099744
 31
0.0
  0
LINE
  5
19E
330
1F
100
AcDbEntity
  8
0
  6
HIDDEN
 62
     7
 48
3.0
370
     0
100
AcDbLine
 10
32.5309834911
 20
9.5022099847
 30
0.0
 11
32.5309834911
 21
9.4252097009
 31
0.0
  0
LINE
  5
19F
330
1F
100
AcDbEntity
  8
0
  6
HIDDEN
 62
     7
 48
3.0
370
     0
100
AcDbLine
 10
36.2529834709
 20
9.4252097009
 30
0.0
 11
36.2529834709
 21
9.5022099847
 31
0.0
  0
LINE
  5
1A0
330
1F
100
AcDbEntity
  8
0
  6
HIDDEN
 62
     7
 48
3.0
370
     0
100
AcDbLine
 10
32.5309834911
 20
9.487209678
 30
0.0
 11
36.2529834709
 21
9.487209678
 31
0.0
  0
ARC
  5
1A1
330
1F
100
AcDbEntity
  8
0
  6
HIDDEN
 62
     7
 48
9.0
370
     0
100
AcDbCircle
 10
36.2529834751
 20
9.5022098604
 30
0.0
 40
0.0150000000000006
100
AcDbArc
 50
270.0
 51
0.0
  0
ARC
  5
1A2
330
1F
100
AcDbEntity
  8
0
  6
HIDDEN
 62
     7
 48
9.0
370
     0
100
AcDbCircle
 10
36.2529834751
 20
9.5022098604
 30
0.0
 40
0.0770000000000053
100
AcDbArc
 50
270.0
 51
0.0
  0
LINE
  5
1A3
330
1F
100
AcDbEntity
  8
0
  6
HIDDEN
 62
     7
 48
3.0
370
     0
100
AcDbLine
 10
36.2679834751
 20
9.8632099744
 30
0.0
 11
36.2679834751
 21
9.5022099847
 31
0.0
  0
LINE
  5
1A4
330
1F
100
AcDbEntity
  8
0
  6
HIDDEN
 62
     7
 48
3.0
370
     0
100
AcDbLine
 10
36.3299834751
 20
9.8632099744
 30
0.0
 11
36.2679834751
 21
9.8632099744
 31
0.0
  0
LINE
  5
1A5
330
1F
100
AcDbEntity
  8
0
  6
HIDDEN
 62
     7
 48
3.0
370
     0
100
AcDbLine
 10
32.468983514
 20
9.487209678
 30
0.0
 11
32.5309834911
 21
9.487209678
 31
0.0
  0
LINE
  5
1A6
330
1F
100
AcDbEntity
  8
0
  6
HIDDEN
 62
     7
 48
3.0
370
     0
100
AcDbLine
 10
32.3919835235
 20
9.9252099515
 30
0.0
 11
32.4539835006
 21
9.9252099515
 31
0.0
  0
ARC
  5
1A7
330
1F
100
AcDbEntity
  8
0
  6
HIDDEN
 62
     7
 48
9.0
370
     0
100
AcDbCircle
 10
32.4689834751
 20
9.5022098604
 30
0.0
 40
0.0150000000000006
100
AcDbArc
 50
180.0
 51
270.0
  0
ARC
  5
1A8
330
1F
100
AcDbEntity
  8
0
  6
HIDDEN
 62
     7
 48
9.0
370
     0
100
AcDbCircle
 10
32.4689834751
 20
9.5022098604
 30
0.0
 40
0.0770000000000053
100
AcDbArc
 50
180.0
 51
270.0
  0
LINE
  5
1A9
330
1F
100
AcDbEntity
  8
0
  6
HIDDEN
 62
     7
 48
3.0
370
     0
100
AcDbLine
 10
36.3299834751
 20
19.42521002
 30
0.0
 11
36.3299834751
 21
9.4252097009
 31
0.0
  0
LINE
  5
1AA
330
1F
100
AcDbEntity
  8
0
  6
HIDDEN
 62
     7
 48
3.0
370
     0
100
AcDbLine
 10
32.4539835006
 20
19.42521002
 30
0.0
 11
32.4539835006
 21
9.4252097009
 31
0.0
  0
LINE
  5
1AB
330
1F
100
AcDbEntity
  8
0
  6
HIDDEN
 62
     7
 48
3.0
370
     0
100
AcDbLine
 10
36.1599834686
 20
17.4252098975
 30
0.0
 11
36.1599834686
 21
17.7222674792
 31
0.0
  0
LINE
  5
1AC
330
1F
100
AcDbEntity
  8
0
  6
HIDDEN
 62
     7
 48
3.0
370
     0
100
AcDbLine
 10
36.1599834686
 20
17.1281520225
 30
0.0
 11
36.1599834686
 21
17.4252098975
 31
0.0
  0
LINE
  5
1AD
330
1F
100
AcDbEntity
  8
0
  6
HIDDEN
 62
     7
 48
3.0
370
     0
100
AcDbLine
 10
36.2219834823
 20
17.1281520225
 30
0.0
 11
36.2219834823
 21
17.7222674792
 31
0.0
  0
LINE
  5
1AE
330
1F
100
AcDbEntity
  8
0
  6
HIDDEN
 62
     7
 48
3.0
370
     0
100
AcDbLine
 10
36.2879362271
 20
17.4252098975
 30
0.0
 11
36.2879362271
 21
17.5722098527
 31
0.0
  0
LINE
  5
1AF
330
1F
100
AcDbEntity
  8
0
  6
HIDDEN
 62
     7
 48
3.0
370
     0
100
AcDbLine
 10
36.2879362271
 20
17.2782099423
 30
0.0
 11
36.2879362271
 21
17.4252098975
 31
0.0
  0
ARC
  5
1B0
330
1F
100
AcDbEntity
  8
0
  6
HIDDEN
 62
     7
 48
9.0
370
     0
100
AcDbCircle
 10
32.3455400752
 20
11.4231847813
 30
0.0
 40
0.1503280695242949
100
AcDbArc
 50
126.5393285873
 51
163.4904171391
  0
ARC
  5
1B1
330
1F
100
AcDbEntity
  8
0
  6
HIDDEN
 62
     7
 48
9.0
370
     0
100
AcDbCircle
 10
32.3455401668
 20
11.4011006529
 30
0.0
 40
0.1503280465820894
100
AcDbArc
 50
126.5393785166
 51
163.4905694865
  0
ARC
  5
1B2
330
1F
100
AcDbEntity
  8
0
  6
HIDDEN
 62
     7
 48
9.0
370
     0
100
AcDbCircle
 10
32.4280616166
 20
11.424900847
 30
0.0
 40
0.2274401474246005
100
AcDbArc
 50
175.2284901616
 51
179.961401919
  0
ARC
  5
1B3
330
1F
100
AcDbEntity
  8
0
  6
HIDDEN
 62
     7
 48
9.0
370
     0
100
AcDbCircle
 10
32.2038742851
 20
11.4012496375
 30
0.0
 40
0.0171891902727877
100
AcDbArc
 50
259.0929615642
 51
271.4813466249
  0
LINE
  5
1B4
330
1F
100
AcDbEntity
  8
0
  6
HIDDEN
 62
     7
 48
3.0
370
     0
100
AcDbLine
 10
32.2560385873
 20
11.4065997984
 30
0.0
 11
32.2560385873
 21
11.3285385401
 31
0.0
  0
LINE
  5
1B5
330
1F
100
AcDbEntity
  8
0
  6
HIDDEN
 62
     7
 48
3.0
370
     0
100
AcDbLine
 10
32.2560385873
 20
11.3845152801
 30
0.0
 11
32.2096114969
 21
11.3845152801
 31
0.0
  0
LINE
  5
1B6
330
1F
100
AcDbEntity
  8
0
  6
HIDDEN
 62
     7
 48
3.0
370
     0
100
AcDbLine
 10
32.6045632544
 20
11.3562098205
 30
0.0
 11
32.6045632544
 21
11.4942098263
 31
0.0
  0
LINE
  5
1B7
330
1F
100
AcDbEntity
  8
0
  6
HIDDEN
 62
     7
 48
3.0
370
     0
100
AcDbLine
 10
32.6419833555
 20
11.3717099614
 30
0.0
 11
32.6419833555
 21
11.4787099787
 31
0.0
  0
LINE
  5
1B8
330
1F
100
AcDbEntity
  8
0
  6
HIDDEN
 62
     7
 48
3.0
370
     0
100
AcDbLine
 10
32.2014096983
 20
11.4065997984
 30
0.0
 11
32.2560385873
 21
11.4065997984
 31
0.0
  0
LINE
  5
1B9
330
1F
100
AcDbEntity
  8
0
  6
HIDDEN
 62
     7
 48
3.0
370
     0
100
AcDbLine
 10
32.256983403
 20
11.4663534547
 30
0.0
 11
32.256983403
 21
11.3846801316
 31
0.0
  0
LINE
  5
1BA
330
1F
100
AcDbEntity
  8
0
  6
HIDDEN
 62
     7
 48
3.0
370
     0
100
AcDbLine
 10
32.256983403
 20
11.3846801316
 30
0.0
 11
32.256983403
 21
11.384066192
 31
0.0
  0
LINE
  5
1BB
330
1F
100
AcDbEntity
  8
0
  6
HIDDEN
 62
     7
 48
3.0
370
     0
100
AcDbLine
 10
32.256983403
 20
11.3846801316
 30
0.0
 11
32.2560385873
 21
11.3846801316
 31
0.0
  0
LINE
  5
1BC
330
1F
100
AcDbEntity
  8
0
  6
HIDDEN
 62
     7
 48
3.0
370
     0
100
AcDbLine
 10
32.256983403
 20
11.4657395152
 30
0.0
 11
32.2560385873
 21
11.4657395152
 31
0.0
  0
LINE
  5
1BD
330
1F
100
AcDbEntity
  8
0
  6
HIDDEN
 62
     7
 48
3.0
370
     0
100
AcDbLine
 10
32.2560385873
 20
11.4659043666
 30
0.0
 11
32.2560385873
 21
11.4657395152
 31
0.0
  0
LINE
  5
1BE
330
1F
100
AcDbEntity
  8
0
  6
HIDDEN
 62
     7
 48
3.0
370
     0
100
AcDbLine
 10
32.2560385873
 20
11.4659043666
 30
0.0
 11
32.2042371057
 21
11.4659043666
 31
0.0
  0
LINE
  5
1BF
330
1F
100
AcDbEntity
  8
0
  6
HIDDEN
 62
     7
 48
3.0
370
     0
100
AcDbLine
 10
32.256983403
 20
11.4663534547
 30
0.0
 11
32.2043186514
 21
11.4663534547
 31
0.0
  0
LINE
  5
1C0
330
1F
100
AcDbEntity
  8
0
  6
HIDDEN
 62
     7
 48
3.0
370
     0
100
AcDbLine
 10
32.2014096983
 20
11.4438198484
 30
0.0
 11
32.2560385873
 21
11.4438198484
 31
0.0
  0
LINE
  5
1C1
330
1F
100
AcDbEntity
  8
0
  6
HIDDEN
 62
     7
 48
3.0
370
     0
100
AcDbLine
 10
32.2560385873
 20
11.4657395152
 30
0.0
 11
32.2560385873
 21
11.4438198484
 31
0.0
  0
LINE
  5
1C2
330
1F
100
AcDbEntity
  8
0
  6
HIDDEN
 62
     7
 48
3.0
370
     0
100
AcDbLine
 10
32.256983403
 20
11.384066192
 30
0.0
 11
32.2043186514
 21
11.384066192
 31
0.0
  0
LINE
  5
1C3
330
1F
100
AcDbEntity
  8
0
  6
HIDDEN
 62
     7
 48
3.0
370
     0
100
AcDbLine
 10
32.2560385873
 20
11.5439656248
 30
0.0
 11
32.2560385873
 21
11.4659043666
 31
0.0
  0
ARC
  5
1C4
330
1F
100
AcDbEntity
  8
0
  6
HIDDEN
 62
     7
 48
9.0
370
     0
100
AcDbCircle
 10
32.3455400752
 20
17.4231848555
 30
0.0
 40
0.1503280695242879
100
AcDbArc
 50
126.5393285873
 51
163.4904171391
  0
ARC
  5
1C5
330
1F
100
AcDbEntity
  8
0
  6
HIDDEN
 62
     7
 48
9.0
370
     0
100
AcDbCircle
 10
32.3455400752
 20
17.4011003373
 30
0.0
 40
0.1503280695242538
100
AcDbArc
 50
126.5393285872
 51
163.4904171391
  0
ARC
  5
1C6
330
1F
100
AcDbEntity
  8
0
  6
HIDDEN
 62
     7
 48
9.0
370
     0
100
AcDbCircle
 10
32.4281301157
 20
17.4248972369
 30
0.0
 40
0.2275087156573053
100
AcDbArc
 50
175.2290004935
 51
179.9409834381
  0
ARC
  5
1C7
330
1F
100
AcDbEntity
  8
0
  6
HIDDEN
 62
     7
 48
9.0
370
     0
100
AcDbCircle
 10
32.2038726649
 20
17.4012300583
 30
0.0
 40
0.0171695854245445
100
AcDbArc
 50
259.0858610815
 51
271.4884471077
  0
LINE
  5
1C8
330
1F
100
AcDbEntity
  8
0
  6
HIDDEN
 62
     7
 48
3.0
370
     0
100
AcDbLine
 10
32.2560385873
 20
17.4065998725
 30
0.0
 11
32.2560385873
 21
17.3285383209
 31
0.0
  0
LINE
  5
1C9
330
1F
100
AcDbEntity
  8
0
  6
HIDDEN
 62
     7
 48
3.0
370
     0
100
AcDbLine
 10
32.2560385873
 20
17.3845153543
 30
0.0
 11
32.2096114969
 21
17.3845153543
 31
0.0
  0
LINE
  5
1CA
330
1F
100
AcDbEntity
  8
0
  6
HIDDEN
 62
     7
 48
3.0
370
     0
100
AcDbLine
 10
32.6419833555
 20
17.3717097422
 30
0.0
 11
32.6419833555
 21
17.4787097595
 31
0.0
  0
LINE
  5
1CB
330
1F
100
AcDbEntity
  8
0
  6
HIDDEN
 62
     7
 48
3.0
370
     0
100
AcDbLine
 10
32.6045632544
 20
17.3562098946
 30
0.0
 11
32.6045632544
 21
17.4942099004
 31
0.0
  0
LINE
  5
1CC
330
1F
100
AcDbEntity
  8
0
  6
HIDDEN
 62
     7
 48
3.0
370
     0
100
AcDbLine
 10
32.2014096983
 20
17.4065998725
 30
0.0
 11
32.2560385873
 21
17.4065998725
 31
0.0
  0
LINE
  5
1CD
330
1F
100
AcDbEntity
  8
0
  6
HIDDEN
 62
     7
 48
3.0
370
     0
100
AcDbLine
 10
32.256983403
 20
17.4663535289
 30
0.0
 11
32.256983403
 21
17.3846802057
 31
0.0
  0
LINE
  5
1CE
330
1F
100
AcDbEntity
  8
0
  6
HIDDEN
 62
     7
 48
3.0
370
     0
100
AcDbLine
 10
32.256983403
 20
17.3846802057
 30
0.0
 11
32.256983403
 21
17.3840662661
 31
0.0
  0
LINE
  5
1CF
330
1F
100
AcDbEntity
  8
0
  6
HIDDEN
 62
     7
 48
3.0
370
     0
100
AcDbLine
 10
32.256983403
 20
17.3846802057
 30
0.0
 11
32.2560385873
 21
17.3846802057
 31
0.0
  0
LINE
  5
1D0
330
1F
100
AcDbEntity
  8
0
  6
HIDDEN
 62
     7
 48
3.0
370
     0
100
AcDbLine
 10
32.256983403
 20
17.4657395893
 30
0.0
 11
32.2560385873
 21
17.4657395893
 31
0.0
  0
LINE
  5
1D1
330
1F
100
AcDbEntity
  8
0
  6
HIDDEN
 62
     7
 48
3.0
370
     0
100
AcDbLine
 10
32.2560385873
 20
17.4659044407
 30
0.0
 11
32.2560385873
 21
17.4657395893
 31
0.0
  0
LINE
  5
1D2
330
1F
100
AcDbEntity
  8
0
  6
HIDDEN
 62
     7
 48
3.0
370
     0
100
AcDbLine
 10
32.2560385873
 20
17.4659044407
 30
0.0
 11
32.2042371057
 21
17.4659044407
 31
0.0
  0
LINE
  5
1D3
330
1F
100
AcDbEntity
  8
0
  6
HIDDEN
 62
     7
 48
3.0
370
     0
100
AcDbLine
 10
32.256983403
 20
17.4663535289
 30
0.0
 11
32.2043186514
 21
17.4663535289
 31
0.0
  0
LINE
  5
1D4
330
1F
100
AcDbEntity
  8
0
  6
HIDDEN
 62
     7
 48
3.0
370
     0
100
AcDbLine
 10
32.2014096983
 20
17.4438199225
 30
0.0
 11
32.2560385873
 21
17.4438199225
 31
0.0
  0
LINE
  5
1D5
330
1F
100
AcDbEntity
  8
0
  6
HIDDEN
 62
     7
 48
3.0
370
     0
100
AcDbLine
 10
32.2560385873
 20
17.4657395893
 30
0.0
 11
32.2560385873
 21
17.4438199225
 31
0.0
  0
LINE
  5
1D6
330
1F
100
AcDbEntity
  8
0
  6
HIDDEN
 62
     7
 48
3.0
370
     0
100
AcDbLine
 10
32.256983403
 20
17.3840662661
 30
0.0
 11
32.2043186514
 21
17.3840662661
 31
0.0
  0
LINE
  5
1D7
330
1F
100
AcDbEntity
  8
0
  6
HIDDEN
 62
     7
 48
3.0
370
     0
100
AcDbLine
 10
32.2560385873
 20
17.543965699
 30
0.0
 11
32.2560385873
 21
17.4659044407
 31
0.0
  0
LINE
  5
1D8
330
1F
100
AcDbEntity
  8
0
  6
HIDDEN
 62
     7
 48
3.0
370
     0
100
AcDbLine
 10
32.3299835464
 20
16.9502098648
 30
0.0
 11
32.3919835235
 21
16.9502098648
 31
0.0
  0
LINE
  5
1D9
330
1F
100
AcDbEntity
  8
0
  6
HIDDEN
 62
     7
 48
3.0
370
     0
100
AcDbLine
 10
32.3299835464
 20
10.9502097906
 30
0.0
 11
32.3919835235
 21
10.9502097906
 31
0.0
  0
LINE
  5
1DA
330
1F
100
AcDbEntity
  8
0
  6
HIDDEN
 62
     7
 48
3.0
370
     0
100
AcDbLine
 10
32.3919835235
 20
17.5502098135
 30
0.0
 11
32.3299835464
 21
17.5502098135
 31
0.0
  0
LINE
  5
1DB
330
1F
100
AcDbEntity
  8
0
  6
HIDDEN
 62
     7
 48
3.0
370
     0
100
AcDbLine
 10
32.3919835235
 20
11.5502097394
 30
0.0
 11
32.3299835464
 21
11.5502097394
 31
0.0
  0
LINE
  5
1DC
330
1F
100
AcDbEntity
  8
0
  6
HIDDEN
 62
     7
 48
3.0
370
     0
100
AcDbLine
 10
32.3919835235
 20
17.3402099194
 30
0.0
 11
32.4539835006
 21
17.3402099194
 31
0.0
  0
LINE
  5
1DD
330
1F
100
AcDbEntity
  8
0
  6
HIDDEN
 62
     7
 48
3.0
370
     0
100
AcDbLine
 10
32.4539835006
 20
17.5102098756
 30
0.0
 11
32.3919835235
 21
17.5102098756
 31
0.0
  0
LINE
  5
1DE
330
1F
100
AcDbEntity
  8
0
  6
HIDDEN
 62
     7
 48
3.0
370
     0
100
AcDbLine
 10
32.3919835235
 20
11.3402098453
 30
0.0
 11
32.4539835006
 21
11.3402098453
 31
0.0
  0
LINE
  5
1DF
330
1F
100
AcDbEntity
  8
0
  6
HIDDEN
 62
     7
 48
3.0
370
     0
100
AcDbLine
 10
32.4539835006
 20
11.5102098014
 30
0.0
 11
32.3919835235
 21
11.5102098014
 31
0.0
  0
LINE
  5
1E0
330
1F
100
AcDbEntity
  8
0
  6
HIDDEN
 62
     7
 48
3.0
370
     0
100
AcDbLine
 10
36.3919834751
 20
11.065709923
 30
0.0
 11
36.3299834751
 21
11.065709923
 31
0.0
  0
LINE
  5
1E1
330
1F
100
AcDbEntity
  8
0
  6
HIDDEN
 62
     7
 48
3.0
370
     0
100
AcDbLine
 10
36.3299834751
 20
10.7847098091
 30
0.0
 11
36.3919834751
 21
10.7847098091
 31
0.0
  0
LINE
  5
1E2
330
1F
100
AcDbEntity
  8
0
  6
HIDDEN
 62
     7
 48
3.0
370
     0
100
AcDbLine
 10
36.3919834751
 20
18.0657099117
 30
0.0
 11
36.3299834751
 21
18.0657099117
 31
0.0
  0
LINE
  5
1E3
330
1F
100
AcDbEntity
  8
0
  6
HIDDEN
 62
     7
 48
3.0
370
     0
100
AcDbLine
 10
36.3299834751
 20
17.7847097979
 30
0.0
 11
36.3919834751
 21
17.7847097979
 31
0.0
  0
LINE
  5
1E4
330
1F
100
AcDbEntity
  8
0
  6
HIDDEN
 62
     7
 48
3.0
370
     0
100
AcDbLine
 10
36.3299834751
 20
18.0668228056
 30
0.0
 11
36.1850367241
 21
17.8157675724
 31
0.0
  0
LINE
  5
1E5
330
1F
100
AcDbEntity
  8
0
  6
HIDDEN
 62
     7
 48
3.0
370
     0
100
AcDbLine
 10
36.1850367241
 20
17.0346522226
 30
0.0
 11
36.3299834751
 21
16.7835969895
 31
0.0
  0
LINE
  5
1E6
330
1F
100
AcDbEntity
  8
0
  6
HIDDEN
 62
     7
 48
3.0
370
     0
100
AcDbLine
 10
36.3919834751
 20
18.0502097708
 30
0.0
 11
36.238730303
 21
17.7847675839
 31
0.0
  0
LINE
  5
1E7
330
1F
100
AcDbEntity
  8
0
  6
HIDDEN
 62
     7
 48
3.0
370
     0
100
AcDbLine
 10
36.238730303
 20
17.0656522112
 30
0.0
 11
36.3919834751
 21
16.8002098776
 31
0.0
  0
ARC
  5
1E8
330
1F
100
AcDbEntity
  8
0
  6
HIDDEN
 62
     7
 48
9.0
370
     0
100
AcDbCircle
 10
36.3469834751
 20
17.1281521468
 30
0.0
 40
0.1869999999999997
100
AcDbArc
 50
180.0
 51
210.0
  0
ARC
  5
1E9
330
1F
100
AcDbEntity
  8
0
  6
HIDDEN
 62
     7
 48
9.0
370
     0
100
AcDbCircle
 10
36.3469834751
 20
17.7222675741
 30
0.0
 40
0.1869999999999997
100
AcDbArc
 50
150.0
 51
180.0
  0
ARC
  5
1EA
330
1F
100
AcDbEntity
  8
0
  6
HIDDEN
 62
     7
 48
9.0
370
     0
100
AcDbCircle
 10
36.3469834751
 20
17.1281521468
 30
0.0
 40
0.1250000000000041
100
AcDbArc
 50
180.0
 51
210.0
  0
ARC
  5
1EB
330
1F
100
AcDbEntity
  8
0
  6
HIDDEN
 62
     7
 48
9.0
370
     0
100
AcDbCircle
 10
36.3469834751
 20
17.7222675741
 30
0.0
 40
0.1250000000000041
100
AcDbArc
 50
150.0
 51
180.0
  0
ARC
  5
1EC
330
1F
100
AcDbEntity
  8
0
  6
HIDDEN
 62
     7
 48
9.0
370
     0
100
AcDbCircle
 10
36.2387236326
 20
17.5889500179
 30
0.0
 40
0.0787401574803148
100
AcDbArc
 50
180.0
 51
270.0
  0
ARC
  5
1ED
330
1F
100
AcDbEntity
  8
0
  6
HIDDEN
 62
     7
 48
9.0
370
     0
100
AcDbCircle
 10
36.2387236326
 20
17.261469703
 30
0.0
 40
0.0787401574803148
100
AcDbArc
 50
90.0
 51
180.0
  0
ARC
  5
1EE
330
1F
100
AcDbEntity
  8
0
  6
HIDDEN
 62
     7
 48
9.0
370
     0
100
AcDbCircle
 10
36.2387236326
 20
17.5889500179
 30
0.0
 40
0.0167401574803137
100
AcDbArc
 50
180.0
 51
270.0
  0
ARC
  5
1EF
330
1F
100
AcDbEntity
  8
0
  6
HIDDEN
 62
     7
 48
9.0
370
     0
100
AcDbCircle
 10
36.2387236326
 20
17.261469703
 30
0.0
 40
0.0167401574803137
100
AcDbArc
 50
90.0
 51
180.0
  0
LINE
  5
1F0
330
1F
100
AcDbEntity
  8
0
  6
HIDDEN
 62
     7
 48
3.0
370
     0
100
AcDbLine
 10
36.2387236298
 20
17.2782099423
 30
0.0
 11
36.2879362271
 21
17.2782099423
 31
0.0
  0
LINE
  5
1F1
330
1F
100
AcDbEntity
  8
0
  6
HIDDEN
 62
     7
 48
3.0
370
     0
100
AcDbLine
 10
36.2879362271
 20
17.5722098527
 30
0.0
 11
36.2387236298
 21
17.5722098527
 31
0.0
  0
LINE
  5
1F2
330
1F
100
AcDbEntity
  8
0
  6
HIDDEN
 62
     7
 48
3.0
370
     0
100
AcDbLine
 10
36.2387236298
 20
17.3402099194
 30
0.0
 11
36.2879362271
 21
17.3402099194
 31
0.0
  0
LINE
  5
1F3
330
1F
100
AcDbEntity
  8
0
  6
HIDDEN
 62
     7
 48
3.0
370
     0
100
AcDbLine
 10
36.2879362271
 20
17.5102098756
 30
0.0
 11
36.2387236298
 21
17.5102098756
 31
0.0
  0
LINE
  5
1F4
330
1F
100
AcDbEntity
  8
0
  6
HIDDEN
 62
     7
 48
3.0
370
     0
100
AcDbLine
 10
32.3299835464
 20
11.3562098205
 30
0.0
 11
32.6045632544
 21
11.3562098205
 31
0.0
  0
LINE
  5
1F5
330
1F
100
AcDbEntity
  8
0
  6
HIDDEN
 62
     7
 48
3.0
370
     0
100
AcDbLine
 10
32.6045632544
 20
11.4942098263
 30
0.0
 11
32.3299835464
 21
11.4942098263
 31
0.0
  0
LINE
  5
1F6
330
1F
100
AcDbEntity
  8
0
  6
HIDDEN
 62
     7
 48
3.0
370
     0
100
AcDbLine
 10
32.6045632544
 20
11.3562098205
 30
0.0
 11
32.6419833555
 21
11.3717099614
 31
0.0
  0
LINE
  5
1F7
330
1F
100
AcDbEntity
  8
0
  6
HIDDEN
 62
     7
 48
3.0
370
     0
100
AcDbLine
 10
32.6419833555
 20
11.4787099787
 30
0.0
 11
32.6045632544
 21
11.4942098263
 31
0.0
  0
LINE
  5
1F8
330
1F
100
AcDbEntity
  8
0
  6
HIDDEN
 62
     7
 48
3.0
370
     0
100
AcDbLine
 10
32.6045632544
 20
17.3562098946
 30
0.0
 11
32.6419833555
 21
17.3717097422
 31
0.0
  0
LINE
  5
1F9
330
1F
100
AcDbEntity
  8
0
  6
HIDDEN
 62
     7
 48
3.0
370
     0
100
AcDbLine
 10
32.6419833555
 20
17.4787097595
 30
0.0
 11
32.6045632544
 21
17.4942099004
 31
0.0
  0
LINE
  5
1FA
330
1F
100
AcDbEntity
  8
0
  6
HIDDEN
 62
     7
 48
3.0
370
     0
100
AcDbLine
 10
32.3299835464
 20
17.3562098946
 30
0.0
 11
32.6045632544
 21
17.3562098946
 31
0.0
  0
LINE
  5
1FB
330
1F
100
AcDbEntity
  8
0
  6
HIDDEN
 62
     7
 48
3.0
370
     0
100
AcDbLine
 10
32.6045632544
 20
17.4942099004
 30
0.0
 11
32.3299835464
 21
17.4942099004
 31
0.0
  0
LINE
  5
1FC
330
1F
100
AcDbEntity
  8
0
  6
Continuous
 62
     7
 48
3.0
370
    15
100
AcDbLine
 10
7.8458379378
 20
11.6117098822
 30
0.0
 11
7.8125065628
 21
11.6117098822
 31
0.0
  0
LINE
  5
1FD
330
1F
100
AcDbEntity
  8
0
  6
Continuous
 62
     7
 48
3.0
370
    15
100
AcDbLine
 10
7.8125065628
 20
11.2387097645
 30
0.0
 11
7.8458379378
 21
11.2387097645
 31
0.0
  0
ARC
  5
1FE
330
1F
100
AcDbEntity
  8
0
  6
Continuous
 62
     7
 48
9.0
370
    15
100
AcDbCircle
 10
7.845837946
 20
11.5967098604
 30
0.0
 40
0.0150000000000006
100
AcDbArc
 50
52.550643686
 51
90.0
  0
ARC
  5
1FF
330
1F
100
AcDbEntity
  8
0
  6
Continuous
 62
     7
 48
9.0
370
    15
100
AcDbCircle
 10
7.845837946
 20
11.2537098604
 30
0.0
 40
0.0149999999999997
100
AcDbArc
 50
270.0
 51
307.449356314
  0
ARC
  5
200
330
1F
100
AcDbEntity
  8
0
  6
Continuous
 62
     7
 48
9.0
370
    15
100
AcDbCircle
 10
7.7144820471
 20
11.4252098604
 30
0.0
 40
0.2310245869783032
100
AcDbArc
 50
10.1818657166
 51
52.550643686
  0
ARC
  5
201
330
1F
100
AcDbEntity
  8
0
  6
Continuous
 62
     7
 48
9.0
370
    15
100
AcDbCircle
 10
7.7144820471
 20
11.4252098604
 30
0.0
 40
0.2310245869783032
100
AcDbArc
 50
307.449356314
 51
349.8181342834
  0
LINE
  5
202
330
1F
100
AcDbEntity
  8
0
  6
Continuous
 62
     7
 48
3.0
370
    15
100
AcDbLine
 10
7.8458379378
 20
17.6117099564
 30
0.0
 11
7.8125065628
 21
17.6117099564
 31
0.0
  0
LINE
  5
203
330
1F
100
AcDbEntity
  8
0
  6
Continuous
 62
     7
 48
3.0
370
    15
100
AcDbLine
 10
7.8125065628
 20
17.2387098387
 30
0.0
 11
7.8458379378
 21
17.2387098387
 31
0.0
  0
ARC
  5
204
330
1F
100
AcDbEntity
  8
0
  6
Continuous
 62
     7
 48
9.0
370
    15
100
AcDbCircle
 10
7.845837946
 20
17.5967098604
 30
0.0
 40
0.0150000000000011
100
AcDbArc
 50
52.550643686
 51
90.0
  0
ARC
  5
205
330
1F
100
AcDbEntity
  8
0
  6
Continuous
 62
     7
 48
9.0
370
    15
100
AcDbCircle
 10
7.845837946
 20
17.2537098604
 30
0.0
 40
0.0150000000000011
100
AcDbArc
 50
270.0
 51
307.449356314
  0
ARC
  5
206
330
1F
100
AcDbEntity
  8
0
  6
Continuous
 62
     7
 48
9.0
370
    15
100
AcDbCircle
 10
7.7144820471
 20
17.4252098604
 30
0.0
 40
0.2310245869783032
100
AcDbArc
 50
10.1818657166
 51
52.550643686
  0
ARC
  5
207
330
1F
100
AcDbEntity
  8
0
  6
Continuous
 62
     7
 48
9.0
370
    15
100
AcDbCircle
 10
7.7144820471
 20
17.4252098604
 30
0.0
 40
0.2310245869783061
100
AcDbArc
 50
307.449356314
 51
349.8181342834
  0
LINE
  5
208
330
1F
100
AcDbEntity
  8
0
  6
Continuous
 62
     7
 48
3.0
370
    15
100
AcDbLine
 10
7.8125065628
 20
19.42521002
 30
0.0
 11
7.8125065628
 21
9.4252097009
 31
0.0
  0
LINE
  5
209
330
1F
100
AcDbEntity
  8
0
  6
Continuous
 62
     7
 48
3.0
370
    15
100
AcDbLine
 10
7.7505065857
 20
9.4252097009
 30
0.0
 11
7.8125065628
 21
9.4252097009
 31
0.0
  0
LINE
  5
20A
330
1F
100
AcDbEntity
  8
0
  6
Continuous
 62
     7
 48
3.0
370
    15
100
AcDbLine
 10
7.7505065857
 20
19.42521002
 30
0.0
 11
7.8125065628
 21
19.42521002
 31
0.0
  0
LINE
  5
20B
330
1F
100
AcDbEntity
  8
0
  6
Continuous
 62
     7
 48
3.0
370
    15
100
AcDbLine
 10
7.7505065857
 20
19.42521002
 30
0.0
 11
7.7505065857
 21
9.4252097009
 31
0.0
  0
LINE
  5
20C
330
1F
100
AcDbEntity
  8
0
  6
Continuous
 62
     7
 48
3.0
370
    15
100
AcDbLine
 10
3.8275066337
 20
19.42521002
 30
0.0
 11
7.6735065952
 21
19.42521002
 31
0.0
  0
LINE
  5
20D
330
1F
100
AcDbEntity
  8
0
  6
Continuous
 62
     7
 48
3.0
370
    15
100
AcDbLine
 10
3.8275066337
 20
9.4252097009
 30
0.0
 11
7.6735065952
 21
9.4252097009
 31
0.0
  0
LINE
  5
20E
330
1F
100
AcDbEntity
  8
0
  6
Continuous
 62
     7
 48
3.0
370
    15
100
AcDbLine
 10
3.7505066341
 20
19.42521002
 30
0.0
 11
3.7505066341
 21
9.4252097009
 31
0.0
  0
LINE
  5
20F
330
1F
100
AcDbEntity
  8
0
  6
Continuous
 62
     7
 48
3.0
370
    15
100
AcDbLine
 10
3.7505066341
 20
9.4252097009
 30
0.0
 11
3.8275066337
 21
9.4252097009
 31
0.0
  0
LINE
  5
210
330
1F
100
AcDbEntity
  8
0
  6
Continuous
 62
     7
 48
3.0
370
    15
100
AcDbLine
 10
3.7505066341
 20
19.42521002
 30
0.0
 11
3.8275066337
 21
19.42521002
 31
0.0
  0
LINE
  5
211
330
1F
100
AcDbEntity
  8
0
  6
Continuous
 62
     7
 48
3.0
370
    15
100
AcDbLine
 10
7.6735065952
 20
19.42521002
 30
0.0
 11
7.7505065857
 21
19.42521002
 31
0.0
  0
LINE
  5
212
330
1F
100
AcDbEntity
  8
0
  6
Continuous
 62
     7
 48
3.0
370
    15
100
AcDbLine
 10
7.6735065952
 20
9.4252097009
 30
0.0
 11
7.7505065857
 21
9.4252097009
 31
0.0
  0
ARC
  5
213
330
1F
100
AcDbEntity
  8
0
  6
Continuous
 62
     7
 48
9.0
370
    15
100
AcDbCircle
 10
7.7969500341
 20
11.4493193836
 30
0.0
 40
0.150328069524156
100
AcDbArc
 50
306.5393285872
 51
343.4904171391
  0
LINE
  5
214
330
1F
100
AcDbEntity
  8
0
  6
Continuous
 62
     7
 48
3.0
370
    15
100
AcDbLine
 10
7.886451522
 20
11.3064540219
 30
0.0
 11
7.886451522
 21
11.3285385401
 31
0.0
  0
ARC
  5
215
330
1F
100
AcDbEntity
  8
0
  6
Continuous
 62
     7
 48
9.0
370
    15
100
AcDbCircle
 10
7.7969500341
 20
11.4272348654
 30
0.0
 40
0.1503280695241631
100
AcDbArc
 50
306.5393285872
 51
343.4904171391
  0
ARC
  5
216
330
1F
100
AcDbEntity
  8
0
  6
Continuous
 62
     7
 48
9.0
370
    15
100
AcDbCircle
 10
7.9412316075
 20
11.3831178885
 30
0.0
 40
0.0014055475562594
100
AcDbArc
 50
63.0648385304
 51
96.1753322813
  0
ARC
  5
217
330
1F
100
AcDbEntity
  8
0
  6
Continuous
 62
     7
 48
9.0
370
    15
100
AcDbCircle
 10
7.7145041418
 20
11.4249010482
 30
0.0
 40
0.227364363359561
100
AcDbArc
 50
349.6534827231
 51
0.0778852356
  0
LWPOLYLINE
  5
218
330
1F
100
AcDbEntity
  8
0
  6
Continuous
 62
     7
 48
3.0
370
    15
100
AcDbPolyline
 90
        9
 70
   128
 43
0.0
 10
7.9410804109
 20
11.4659043666
 10
7.9415808318
 20
11.4659606859
 10
7.9418345622
 20
11.4660170053
 10
7.9418407221
 20
11.4660733246
 10
7.9415996049
 20
11.466129644
 10
7.9411115039
 20
11.4661859633
 10
7.9403767123
 20
11.4662419894
 10
7.9393964037
 20
11.466297722
 10
7.9381714578
 20
11.4663534547
  0
ARC
  5
219
330
1F
100
AcDbEntity
  8
0
  6
Continuous
 62
     7
 48
9.0
370
    15
100
AcDbCircle
 10
7.7144791435
 20
11.4255159342
 30
0.0
 40
0.2273894337263164
100
AcDbArc
 50
355.2281480736
 51
10.3460464293
  0
LINE
  5
21A
330
1F
100
AcDbEntity
  8
0
  6
Continuous
 62
     7
 48
3.0
370
    15
100
AcDbLine
 10
7.9410804109
 20
11.3845152801
 30
0.0
 11
7.9328786123
 21
11.3845152801
 31
0.0
  0
LINE
  5
21B
330
1F
100
AcDbEntity
  8
0
  6
Continuous
 62
     7
 48
3.0
370
    15
100
AcDbLine
 10
7.9410804109
 20
11.4659043666
 30
0.0
 11
7.9382530035
 21
11.4659043666
 31
0.0
  0
ARC
  5
21C
330
1F
100
AcDbEntity
  8
0
  6
Continuous
 62
     7
 48
9.0
370
    15
100
AcDbCircle
 10
7.7969499425
 20
17.449319068
 30
0.0
 40
0.1503280465819809
100
AcDbArc
 50
306.5393785166
 51
343.4905694865
  0
LINE
  5
21D
330
1F
100
AcDbEntity
  8
0
  6
Continuous
 62
     7
 48
3.0
370
    15
100
AcDbLine
 10
7.886451522
 20
17.3064540961
 30
0.0
 11
7.886451522
 21
17.3285383209
 31
0.0
  0
ARC
  5
21E
330
1F
100
AcDbEntity
  8
0
  6
Continuous
 62
     7
 48
9.0
370
    15
100
AcDbCircle
 10
7.7969500341
 20
17.4272349395
 30
0.0
 40
0.150328069524151
100
AcDbArc
 50
306.5393285872
 51
343.4904171391
  0
ARC
  5
21F
330
1F
100
AcDbEntity
  8
0
  6
Continuous
 62
     7
 48
9.0
370
    15
100
AcDbCircle
 10
7.9412294581
 20
17.3831062283
 30
0.0
 40
0.0014169866543865
100
AcDbArc
 50
63.2022853144
 51
96.0378854968
  0
ARC
  5
220
330
1F
100
AcDbEntity
  8
0
  6
Continuous
 62
     7
 48
9.0
370
    15
100
AcDbCircle
 10
7.7145043692
 20
17.4249010975
 30
0.0
 40
0.227364135224278
100
AcDbArc
 50
349.6534785884
 51
0.0777437332
  0
LWPOLYLINE
  5
221
330
1F
100
AcDbEntity
  8
0
  6
Continuous
 62
     7
 48
3.0
370
    15
100
AcDbPolyline
 90
        9
 70
   128
 43
0.0
 10
7.9410804109
 20
17.4659044407
 10
7.9415808318
 20
17.4659604668
 10
7.9418345622
 20
17.4660167861
 10
7.9418407221
 20
17.4660733988
 10
7.9415996049
 20
17.4661297181
 10
7.9411115039
 20
17.4661857442
 10
7.9403767123
 20
17.4662420635
 10
7.9393964037
 20
17.4662977962
 10
7.9381714578
 20
17.4663535289
  0
ARC
  5
222
330
1F
100
AcDbEntity
  8
0
  6
Continuous
 62
     7
 48
9.0
370
    15
100
AcDbCircle
 10
7.7144771423
 20
17.4255159109
 30
0.0
 40
0.2273914198975261
100
AcDbArc
 50
355.2282144836
 51
10.3459800192
  0
LINE
  5
223
330
1F
100
AcDbEntity
  8
0
  6
Continuous
 62
     7
 48
3.0
370
    15
100
AcDbLine
 10
7.9410804109
 20
17.3845153543
 30
0.0
 11
7.9328786123
 21
17.3845153543
 31
0.0
  0
LINE
  5
224
330
1F
100
AcDbEntity
  8
0
  6
Continuous
 62
     7
 48
3.0
370
    15
100
AcDbLine
 10
7.9410804109
 20
17.4659044407
 30
0.0
 11
7.9382530035
 21
17.4659044407
 31
0.0
  0
LINE
  5
225
330
1F
100
AcDbEntity
  8
0
  6
Continuous
 62
     7
 48
3.0
370
    15
100
AcDbLine
 10
18.3444572854
 20
6.4969101304
 30
0.0
 11
18.3444572854
 21
6.4635787555
 31
0.0
  0
LINE
  5
226
330
1F
100
AcDbEntity
  8
0
  6
Continuous
 62
     7
 48
3.0
370
    15
100
AcDbLine
 10
18.7174574031
 20
6.4635787555
 30
0.0
 11
18.7174574031
 21
6.4969101304
 31
0.0
  0
ARC
  5
227
330
1F
100
AcDbEntity
  8
0
  6
Continuous
 62
     7
 48
9.0
370
    15
100
AcDbCircle
 10
18.35945731
 20
6.4969101386
 30
0.0
 40
0.0149999999999977
100
AcDbArc
 50
142.550643686
 51
180.0
  0
ARC
  5
228
330
1F
100
AcDbEntity
  8
0
  6
Continuous
 62
     7
 48
9.0
370
    15
100
AcDbCircle
 10
18.70245731
 20
6.4969101386
 30
0.0
 40
0.0149999999999977
100
AcDbArc
 50
0.0
 51
37.449356314
  0
ARC
  5
229
330
1F
100
AcDbEntity
  8
0
  6
Continuous
 62
     7
 48
9.0
370
    15
100
AcDbCircle
 10
18.53095731
 20
6.3655542397
 30
0.0
 40
0.2310245869783033
100
AcDbArc
 50
100.1818657166
 51
142.550643686
  0
ARC
  5
22A
330
1F
100
AcDbEntity
  8
0
  6
Continuous
 62
     7
 48
9.0
370
    15
100
AcDbCircle
 10
18.53095731
 20
6.3655542397
 30
0.0
 40
0.2310245869783039
100
AcDbArc
 50
37.449356314
 51
79.8181342834
  0
LINE
  5
22B
330
1F
100
AcDbEntity
  8
0
  6
Continuous
 62
     7
 48
3.0
370
    15
100
AcDbLine
 10
18.4619573413
 20
6.3395788013
 30
0.0
 11
18.4619573413
 21
6.2625788108
 31
0.0
  0
LINE
  5
22C
330
1F
100
AcDbEntity
  8
0
  6
Continuous
 62
     7
 48
3.0
370
    15
100
AcDbLine
 10
18.5999573472
 20
6.2625788108
 30
0.0
 11
18.5999573472
 21
6.3395788013
 31
0.0
  0
LINE
  5
22D
330
1F
100
AcDbEntity
  8
0
  6
Continuous
 62
     7
 48
3.0
370
    15
100
AcDbLine
 10
8.8444572169
 20
6.4969101304
 30
0.0
 11
8.8444572169
 21
6.4635787555
 31
0.0
  0
LINE
  5
22E
330
1F
100
AcDbEntity
  8
0
  6
Continuous
 62
     7
 48
3.0
370
    15
100
AcDbLine
 10
9.2174573346
 20
6.4635787555
 30
0.0
 11
9.2174573346
 21
6.4969101304
 31
0.0
  0
ARC
  5
22F
330
1F
100
AcDbEntity
  8
0
  6
Continuous
 62
     7
 48
9.0
370
    15
100
AcDbCircle
 10
8.85945731
 20
6.4969101386
 30
0.0
 40
0.0149999999999991
100
AcDbArc
 50
142.550643686
 51
180.0
  0
ARC
  5
230
330
1F
100
AcDbEntity
  8
0
  6
Continuous
 62
     7
 48
9.0
370
    15
100
AcDbCircle
 10
9.20245731
 20
6.4969101386
 30
0.0
 40
0.0149999999999991
100
AcDbArc
 50
0.0
 51
37.449356314
  0
ARC
  5
231
330
1F
100
AcDbEntity
  8
0
  6
Continuous
 62
     7
 48
9.0
370
    15
100
AcDbCircle
 10
9.03095731
 20
6.3655542397
 30
0.0
 40
0.2310245869783046
100
AcDbArc
 50
100.1818657166
 51
142.550643686
  0
ARC
  5
232
330
1F
100
AcDbEntity
  8
0
  6
Continuous
 62
     7
 48
9.0
370
    15
100
AcDbCircle
 10
9.03095731
 20
6.3655542397
 30
0.0
 40
0.2310245869783036
100
AcDbArc
 50
37.449356314
 51
79.8181342834
  0
LINE
  5
233
330
1F
100
AcDbEntity
  8
0
  6
Continuous
 62
     7
 48
3.0
370
    15
100
AcDbLine
 10
8.9619572728
 20
6.3395788013
 30
0.0
 11
8.9619572728
 21
6.2625788108
 31
0.0
  0
LINE
  5
234
330
1F
100
AcDbEntity
  8
0
  6
Continuous
 62
     7
 48
3.0
370
    15
100
AcDbLine
 10
9.0999572786
 20
6.2625788108
 30
0.0
 11
9.0999572786
 21
6.3395788013
 31
0.0
  0
LINE
  5
235
330
1F
100
AcDbEntity
  8
0
  6
Continuous
 62
     7
 48
3.0
370
    15
100
AcDbLine
 10
18.7809574696
 20
6.4015787784
 30
0.0
 11
18.7809574696
 21
6.4635787555
 31
0.0
  0
LINE
  5
236
330
1F
100
AcDbEntity
  8
0
  6
Continuous
 62
     7
 48
3.0
370
    15
100
AcDbLine
 10
8.7809571504
 20
6.4015787784
 30
0.0
 11
8.7809571504
 21
6.4635787555
 31
0.0
  0
LINE
  5
237
330
1F
100
AcDbEntity
  8
0
  6
Continuous
 62
     7
 48
3.0
370
    15
100
AcDbLine
 10
8.7809571504
 20
6.4015787784
 30
0.0
 11
18.7809574696
 21
6.4015787784
 31
0.0
  0
LINE
  5
238
330
1F
100
AcDbEntity
  8
0
  6
Continuous
 62
     7
 48
3.0
370
    15
100
AcDbLine
 10
8.7809571504
 20
6.4635787555
 30
0.0
 11
18.7809574696
 21
6.4635787555
 31
0.0
  0
LINE
  5
239
330
1F
100
AcDbEntity
  8
0
  6
Continuous
 62
     7
 48
3.0
370
    15
100
AcDbLine
 10
18.2499572304
 20
6.4015787784
 30
0.0
 11
18.2499572304
 21
6.3395788013
 31
0.0
  0
LINE
  5
23A
330
1F
100
AcDbEntity
  8
0
  6
Continuous
 62
     7
 48
3.0
370
    15
100
AcDbLine
 10
9.3119573896
 20
6.2625788108
 30
0.0
 11
8.9199574113
 21
6.2625788108
 31
0.0
  0
LINE
  5
23B
330
1F
100
AcDbEntity
  8
0
  6
Continuous
 62
     7
 48
3.0
370
    15
100
AcDbLine
 10
9.3119573896
 20
6.3245787879
 30
0.0
 11
9.3119573896
 21
6.2625788108
 31
0.0
  0
LINE
  5
23C
330
1F
100
AcDbEntity
  8
0
  6
Continuous
 62
     7
 48
3.0
370
    15
100
AcDbLine
 10
18.2499572304
 20
6.3245787879
 30
0.0
 11
18.2499572304
 21
6.2625788108
 31
0.0
  0
LINE
  5
23D
330
1F
100
AcDbEntity
  8
0
  6
Continuous
 62
     7
 48
3.0
370
    15
100
AcDbLine
 10
18.2499572304
 20
6.2625788108
 30
0.0
 11
18.6419572086
 21
6.2625788108
 31
0.0
  0
LINE
  5
23E
330
1F
100
AcDbEntity
  8
0
  6
Continuous
 62
     7
 48
3.0
370
    15
100
AcDbLine
 10
8.9199574113
 20
2.540578831
 30
0.0
 11
8.8429571275
 21
2.540578831
 31
0.0
  0
LINE
  5
23F
330
1F
100
AcDbEntity
  8
0
  6
Continuous
 62
     7
 48
3.0
370
    15
100
AcDbLine
 10
8.8429571275
 20
6.2625788108
 30
0.0
 11
8.9199574113
 21
6.2625788108
 31
0.0
  0
LINE
  5
240
330
1F
100
AcDbEntity
  8
0
  6
Continuous
 62
     7
 48
3.0
370
    15
100
AcDbLine
 10
18.7189574925
 20
6.2625788108
 30
0.0
 11
18.6419572086
 21
6.2625788108
 31
0.0
  0
LINE
  5
241
330
1F
100
AcDbEntity
  8
0
  6
Continuous
 62
     7
 48
3.0
370
    15
100
AcDbLine
 10
18.6419572086
 20
2.540578831
 30
0.0
 11
18.7189574925
 21
2.540578831
 31
0.0
  0
LINE
  5
242
330
1F
100
AcDbEntity
  8
0
  6
Continuous
 62
     7
 48
3.0
370
    15
100
AcDbLine
 10
9.3119573896
 20
6.3245787879
 30
0.0
 11
9.3119573896
 21
6.4015787784
 31
0.0
  0
LINE
  5
243
330
1F
100
AcDbEntity
  8
0
  6
Continuous
 62
     7
 48
3.0
370
    15
100
AcDbLine
 10
18.2499572304
 20
6.3245787879
 30
0.0
 11
18.2499572304
 21
6.4015787784
 31
0.0
  0
LINE
  5
244
330
1F
100
AcDbEntity
  8
0
  6
Continuous
 62
     7
 48
3.0
370
    15
100
AcDbLine
 10
8.9199574113
 20
2.4635788267
 30
0.0
 11
8.9199574113
 21
2.540578831
 31
0.0
  0
LINE
  5
245
330
1F
100
AcDbEntity
  8
0
  6
Continuous
 62
     7
 48
3.0
370
    15
100
AcDbLine
 10
18.6419572086
 20
2.4635788267
 30
0.0
 11
18.6419572086
 21
2.540578831
 31
0.0
  0
LINE
  5
246
330
1F
100
AcDbEntity
  8
0
  6
Continuous
 62
     7
 48
3.0
370
    15
100
AcDbLine
 10
18.7189574925
 20
6.3245787879
 30
0.0
 11
18.7189574925
 21
2.4785788264
 31
0.0
  0
LINE
  5
247
330
1F
100
AcDbEntity
  8
0
  6
Continuous
 62
     7
 48
3.0
370
    15
100
AcDbLine
 10
18.7809574696
 20
6.3245787879
 30
0.0
 11
18.7809574696
 21
2.4785788264
 31
0.0
  0
LINE
  5
248
330
1F
100
AcDbEntity
  8
0
  6
Continuous
 62
     7
 48
3.0
370
    15
100
AcDbLine
 10
18.7039571857
 20
2.4015788267
 30
0.0
 11
8.8579574342
 21
2.4015788267
 31
0.0
  0
LINE
  5
249
330
1F
100
AcDbEntity
  8
0
  6
Continuous
 62
     7
 48
3.0
370
    15
100
AcDbLine
 10
18.7039571857
 20
2.4635788267
 30
0.0
 11
8.8579574342
 21
2.4635788267
 31
0.0
  0
ARC
  5
24A
330
1F
100
AcDbEntity
  8
0
  6
Continuous
 62
     7
 48
9.0
370
    15
100
AcDbCircle
 10
8.85795731
 20
2.4785788267
 30
0.0
 40
0.0150000000000006
100
AcDbArc
 50
180.0
 51
270.0
  0
ARC
  5
24B
330
1F
100
AcDbEntity
  8
0
  6
Continuous
 62
     7
 48
9.0
370
    15
100
AcDbCircle
 10
8.85795731
 20
2.4785788267
 30
0.0
 40
0.077
100
AcDbArc
 50
180.0
 51
270.0
  0
ARC
  5
24C
330
1F
100
AcDbEntity
  8
0
  6
Continuous
 62
     7
 48
9.0
370
    15
100
AcDbCircle
 10
18.70395731
 20
2.4785788267
 30
0.0
 40
0.0769999999999995
100
AcDbArc
 50
270.0
 51
0.0
  0
ARC
  5
24D
330
1F
100
AcDbEntity
  8
0
  6
Continuous
 62
     7
 48
9.0
370
    15
100
AcDbCircle
 10
18.70395731
 20
2.4785788267
 30
0.0
 40
0.0149999999999997
100
AcDbArc
 50
270.0
 51
0.0
  0
LINE
  5
24E
330
1F
100
AcDbEntity
  8
0
  6
Continuous
 62
     7
 48
3.0
370
    15
100
AcDbLine
 10
8.7809571504
 20
2.4785788264
 30
0.0
 11
8.7809571504
 21
6.3245787879
 31
0.0
  0
LINE
  5
24F
330
1F
100
AcDbEntity
  8
0
  6
Continuous
 62
     7
 48
3.0
370
    15
100
AcDbLine
 10
8.8429571275
 20
2.4785788264
 30
0.0
 11
8.8429571275
 21
6.3245787879
 31
0.0
  0
ARC
  5
250
330
1F
100
AcDbEntity
  8
0
  6
Continuous
 62
     7
 48
9.0
370
    15
100
AcDbCircle
 10
8.85795731
 20
6.3245788267
 30
0.0
 40
0.0150000000000006
100
AcDbArc
 50
90.0
 51
180.0
  0
ARC
  5
251
330
1F
100
AcDbEntity
  8
0
  6
Continuous
 62
     7
 48
9.0
370
    15
100
AcDbCircle
 10
8.85795731
 20
6.3245788267
 30
0.0
 40
0.0770000000000017
100
AcDbArc
 50
90.0
 51
180.0
  0
LINE
  5
252
330
1F
100
AcDbEntity
  8
0
  6
Continuous
 62
     7
 48
3.0
370
    15
100
AcDbLine
 10
9.280957401
 20
6.3395788013
 30
0.0
 11
9.280957401
 21
6.4015787784
 31
0.0
  0
LINE
  5
253
330
1F
100
AcDbEntity
  8
0
  6
Continuous
 62
     7
 48
3.0
370
    15
100
AcDbLine
 10
8.8579574342
 20
6.3395788013
 30
0.0
 11
9.280957401
 21
6.3395788013
 31
0.0
  0
LINE
  5
254
330
1F
100
AcDbEntity
  8
0
  6
Continuous
 62
     7
 48
3.0
370
    15
100
AcDbLine
 10
8.8579574342
 20
6.4015787784
 30
0.0
 11
9.280957401
 21
6.4015787784
 31
0.0
  0
LINE
  5
255
330
1F
100
AcDbEntity
  8
0
  6
Continuous
 62
     7
 48
3.0
370
    15
100
AcDbLine
 10
18.2809572189
 20
6.4015787784
 30
0.0
 11
18.2809572189
 21
6.3395788013
 31
0.0
  0
LINE
  5
256
330
1F
100
AcDbEntity
  8
0
  6
Continuous
 62
     7
 48
3.0
370
    15
100
AcDbLine
 10
18.2809572189
 20
6.3395788013
 30
0.0
 11
18.7039571857
 21
6.3395788013
 31
0.0
  0
LINE
  5
257
330
1F
100
AcDbEntity
  8
0
  6
Continuous
 62
     7
 48
3.0
370
    15
100
AcDbLine
 10
18.2809572189
 20
6.4015787784
 30
0.0
 11
18.7039571857
 21
6.4015787784
 31
0.0
  0
ARC
  5
258
330
1F
100
AcDbEntity
  8
0
  6
Continuous
 62
     7
 48
9.0
370
    15
100
AcDbCircle
 10
18.70395731
 20
6.3245788267
 30
0.0
 40
0.0150000000000006
100
AcDbArc
 50
0.0
 51
90.0
  0
ARC
  5
259
330
1F
100
AcDbEntity
  8
0
  6
Continuous
 62
     7
 48
9.0
370
    15
100
AcDbCircle
 10
18.70395731
 20
6.3245788267
 30
0.0
 40
0.077
100
AcDbArc
 50
0.0
 51
90.0
  0
ARC
  5
25A
330
1F
100
AcDbEntity
  8
0
  6
Continuous
 62
     7
 48
9.0
370
    15
100
AcDbCircle
 10
18.4739381511
 20
6.5897259656
 30
0.0
 40
0.0164965536422043
100
AcDbArc
 50
358.3245856264
 51
11.2365582845
  0
ARC
  5
25B
330
1F
100
AcDbEntity
  8
0
  6
Continuous
 62
     7
 48
9.0
370
    15
100
AcDbCircle
 10
18.531265173
 20
6.3655513361
 30
0.0
 40
0.2273894337261868
100
AcDbArc
 50
85.2281480736
 51
100.3460464293
  0
ARC
  5
25C
330
1F
100
AcDbEntity
  8
0
  6
Continuous
 62
     7
 48
9.0
370
    15
100
AcDbCircle
 10
18.507588676
 20
6.4455793486
 30
0.0
 40
0.1526363372172642
100
AcDbArc
 50
37.0402091689
 51
73.796696
  0
LINE
  5
25D
330
1F
100
AcDbEntity
  8
0
  6
Continuous
 62
     7
 48
3.0
370
    15
100
AcDbLine
 10
18.6511800888
 20
6.5375237146
 30
0.0
 11
18.6294249801
 21
6.5375237146
 31
0.0
  0
ARC
  5
25E
330
1F
100
AcDbEntity
  8
0
  6
Continuous
 62
     7
 48
9.0
370
    15
100
AcDbCircle
 10
18.529343875
 20
6.4455792508
 30
0.0
 40
0.1526363240160649
100
AcDbArc
 50
37.0402588669
 51
73.7968445176
  0
LWPOLYLINE
  5
25F
330
1F
100
AcDbEntity
  8
0
  6
Continuous
 62
     7
 48
3.0
370
    15
100
AcDbPolyline
 90
        9
 70
   128
 43
0.0
 10
18.5719361242
 20
6.5921526035
 10
18.5718798048
 20
6.5926530244
 10
18.5718234855
 20
6.5929067548
 10
18.5717671661
 20
6.5929129147
 10
18.5717108468
 20
6.5926717975
 10
18.5716545274
 20
6.5921836965
 10
18.5715985014
 20
6.591448905
 10
18.5715424754
 20
6.5904685963
 10
18.5714870361
 20
6.5892436504
  0
ARC
  5
260
330
1F
100
AcDbEntity
  8
0
  6
Continuous
 62
     7
 48
9.0
370
    15
100
AcDbCircle
 10
18.5306478652
 20
6.3655307849
 30
0.0
 40
0.2274099471718988
100
AcDbArc
 50
79.6544744661
 51
84.9977143509
  0
ARC
  5
261
330
1F
100
AcDbEntity
  8
0
  6
Continuous
 62
     7
 48
9.0
370
    15
100
AcDbCircle
 10
18.5306517445
 20
6.3655099326
 30
0.0
 40
0.2274308791470538
100
AcDbArc
 50
89.9032807695
 51
94.7715438276
  0
LINE
  5
262
330
1F
100
AcDbEntity
  8
0
  6
Continuous
 62
     7
 48
3.0
370
    15
100
AcDbLine
 10
18.5719361242
 20
6.5921526035
 30
0.0
 11
18.5719361242
 21
6.5842632013
 31
0.0
  0
LINE
  5
263
330
1F
100
AcDbEntity
  8
0
  6
Continuous
 62
     7
 48
3.0
370
    15
100
AcDbLine
 10
18.5714870361
 20
6.5844720522
 30
0.0
 11
18.5714870361
 21
6.5892436504
 31
0.0
  0
LINE
  5
264
330
1F
100
AcDbEntity
  8
0
  6
Continuous
 62
     7
 48
3.0
370
    15
100
AcDbLine
 10
18.5117333797
 20
6.5921003908
 30
0.0
 11
18.5117333797
 21
6.5921526035
 31
0.0
  0
ARC
  5
265
330
1F
100
AcDbEntity
  8
0
  6
Continuous
 62
     7
 48
9.0
370
    15
100
AcDbCircle
 10
9.032570745
 20
6.4455792508
 30
0.0
 40
0.1526363240160494
100
AcDbArc
 50
106.2031554824
 51
142.9597411331
  0
LINE
  5
266
330
1F
100
AcDbEntity
  8
0
  6
Continuous
 62
     7
 48
3.0
370
    15
100
AcDbLine
 10
8.9324896399
 20
6.5375237146
 30
0.0
 11
8.9107345312
 21
6.5375237146
 31
0.0
  0
ARC
  5
267
330
1F
100
AcDbEntity
  8
0
  6
Continuous
 62
     7
 48
9.0
370
    15
100
AcDbCircle
 10
9.054325944
 20
6.4455793486
 30
0.0
 40
0.1526363372172536
100
AcDbArc
 50
106.203304
 51
142.9597908311
  0
ARC
  5
268
330
1F
100
AcDbEntity
  8
0
  6
Continuous
 62
     7
 48
9.0
370
    15
100
AcDbCircle
 10
9.0306494469
 20
6.3655513361
 30
0.0
 40
0.2273894337262943
100
AcDbArc
 50
79.6539535707
 51
94.7718519264
  0
ARC
  5
269
330
1F
100
AcDbEntity
  8
0
  6
Continuous
 62
     7
 48
9.0
370
    15
100
AcDbCircle
 10
9.0879764689
 20
6.5897259656
 30
0.0
 40
0.0164965536421763
100
AcDbArc
 50
168.7634417156
 51
181.6754143737
  0
ARC
  5
26A
330
1F
100
AcDbEntity
  8
0
  6
Continuous
 62
     7
 48
9.0
370
    15
100
AcDbCircle
 10
9.0312684943
 20
6.3656127586
 30
0.0
 40
0.2273279421215192
100
AcDbArc
 50
85.2277116433
 51
90.0784396161
  0
ARC
  5
26B
330
1F
100
AcDbEntity
  8
0
  6
Continuous
 62
     7
 48
9.0
370
    15
100
AcDbCircle
 10
9.0312667547
 20
6.3655307849
 30
0.0
 40
0.2274099471720272
100
AcDbArc
 50
95.0022856491
 51
100.3455255339
  0
LWPOLYLINE
  5
26C
330
1F
100
AcDbEntity
  8
0
  6
Continuous
 62
     7
 48
3.0
370
    15
100
AcDbPolyline
 90
        9
 70
   128
 43
0.0
 10
8.9904275839
 20
6.5892436504
 10
8.9903721446
 20
6.5904685963
 10
8.9903161186
 20
6.591448905
 10
8.9902600925
 20
6.5921836965
 10
8.9902037732
 20
6.5926717975
 10
8.9901474538
 20
6.5929129147
 10
8.9900911345
 20
6.5929067548
 10
8.9900348151
 20
6.5926530244
 10
8.9899784958
 20
6.5921526035
  0
LINE
  5
26D
330
1F
100
AcDbEntity
  8
0
  6
Continuous
 62
     7
 48
3.0
370
    15
100
AcDbLine
 10
8.9899784958
 20
6.5842632013
 30
0.0
 11
8.9899784958
 21
6.5921526035
 31
0.0
  0
LINE
  5
26E
330
1F
100
AcDbEntity
  8
0
  6
Continuous
 62
     7
 48
3.0
370
    15
100
AcDbLine
 10
8.9904275839
 20
6.5844720522
 30
0.0
 11
8.9904275839
 21
6.5892436504
 31
0.0
  0
LINE
  5
26F
330
1F
100
AcDbEntity
  8
0
  6
Continuous
 62
     7
 48
3.0
370
    15
100
AcDbLine
 10
9.0501812403
 20
6.5921526035
 30
0.0
 11
9.0501812403
 21
6.5921003908
 31
0.0
  0
CIRCLE
  5
270
330
1F
100
AcDbEntity
  8
0
  6
Continuous
 62
     7
 48
9.0
370
    15
100
AcDbCircle
 10
38.9164791379
 20
17.9252098604
 30
0.0
 40
0.140500000000003
  0
CIRCLE
  5
271
330
1F
100
AcDbEntity
  8
0
  6
Continuous
 62
     7
 48
9.0
370
    15
100
AcDbCircle
 10
47.9164791379
 20
17.9252098604
 30
0.0
 40
0.140500000000003
  0
CIRCLE
  5
272
330
1F
100
AcDbEntity
  8
0
  6
Continuous
 62
     7
 48
9.0
370
    15
100
AcDbCircle
 10
47.9164791379
 20
10.9252098604
 30
0.0
 40
0.140500000000003
  0
CIRCLE
  5
273
330
1F
100
AcDbEntity
  8
0
  6
Continuous
 62
     7
 48
9.0
370
    15
100
AcDbCircle
 10
38.9164791379
 20
10.9252098604
 30
0.0
 40
0.140500000000003
  0
CIRCLE
  5
274
330
1F
100
AcDbEntity
  8
0
  6
Continuous
 62
     7
 48
9.0
370
    15
100
AcDbCircle
 10
46.4164791379
 20
17.4252098604
 30
0.0
 40
0.6249999999999964
  0
LINE
  5
275
330
1F
100
AcDbEntity
  8
0
  6
Continuous
 62
     7
 48
3.0
370
    15
100
AcDbLine
 10
38.4934792621
 20
9.4252097009
 30
0.0
 11
48.3394790136
 21
9.4252097009
 31
0.0
  0
LINE
  5
276
330
1F
100
AcDbEntity
  8
0
  6
Continuous
 62
     7
 48
3.0
370
    15
100
AcDbLine
 10
38.4934792621
 20
19.42521002
 30
0.0
 11
48.3394790136
 21
19.42521002
 31
0.0
  0
LINE
  5
277
330
1F
100
AcDbEntity
  8
0
  6
Continuous
 62
     7
 48
3.0
370
    15
100
AcDbLine
 10
48.3394790136
 20
19.42521002
 30
0.0
 11
48.4164792974
 21
19.42521002
 31
0.0
  0
LINE
  5
278
330
1F
100
AcDbEntity
  8
0
  6
Continuous
 62
     7
 48
3.0
370
    15
100
AcDbLine
 10
48.4164792974
 20
19.42521002
 30
0.0
 11
48.4164792974
 21
9.4252097009
 31
0.0
  0
LINE
  5
279
330
1F
100
AcDbEntity
  8
0
  6
Continuous
 62
     7
 48
3.0
370
    15
100
AcDbLine
 10
48.3394790136
 20
9.4252097009
 30
0.0
 11
48.4164792974
 21
9.4252097009
 31
0.0
  0
LINE
  5
27A
330
1F
100
AcDbEntity
  8
0
  6
Continuous
 62
     7
 48
3.0
370
    15
100
AcDbLine
 10
38.4164789783
 20
19.42521002
 30
0.0
 11
38.4164789783
 21
9.4252097009
 31
0.0
  0
LINE
  5
27B
330
1F
100
AcDbEntity
  8
0
  6
Continuous
 62
     7
 48
3.0
370
    15
100
AcDbLine
 10
38.4164789783
 20
19.42521002
 30
0.0
 11
38.4934792621
 21
19.42521002
 31
0.0
  0
LINE
  5
27C
330
1F
100
AcDbEntity
  8
0
  6
Continuous
 62
     7
 48
3.0
370
    15
100
AcDbLine
 10
38.4164789783
 20
9.4252097009
 30
0.0
 11
38.4934792621
 21
9.4252097009
 31
0.0
  0
CIRCLE
  5
27D
330
1F
100
AcDbEntity
  8
0
  6
Continuous
 62
     7
 48
9.0
370
    15
100
AcDbCircle
 10
46.4164791379
 20
17.4252098604
 30
0.0
 40
0.1470000000000056
  0
CIRCLE
  5
27E
330
1F
100
AcDbEntity
  8
0
  6
Continuous
 62
     7
 48
9.0
370
    15
100
AcDbCircle
 10
46.4164791379
 20
17.4252098604
 30
0.0
 40
0.0849999999999973
  0
LINE
  5
27F
330
1F
100
AcDbEntity
  8
0
  6
Continuous
 62
     7
 48
3.0
370
    15
100
AcDbLine
 10
47.9164790468
 20
18.0657099117
 30
0.0
 11
47.9164790468
 21
17.7847097979
 31
0.0
  0
LINE
  5
280
330
1F
100
AcDbEntity
  8
0
  6
Continuous
 62
     7
 48
3.0
370
    15
100
AcDbLine
 10
47.9164790468
 20
11.065709923
 30
0.0
 11
47.9164790468
 21
10.7847098091
 31
0.0
  0
LINE
  5
281
330
1F
100
AcDbEntity
  8
0
  6
Continuous
 62
     7
 48
3.0
370
    15
100
AcDbLine
 10
38.9164792289
 20
18.0657099117
 30
0.0
 11
38.9164792289
 21
17.7847097979
 31
0.0
  0
LINE
  5
282
330
1F
100
AcDbEntity
  8
0
  6
Continuous
 62
     7
 48
3.0
370
    15
100
AcDbLine
 10
38.9164792289
 20
11.065709923
 30
0.0
 11
38.9164792289
 21
10.7847098091
 31
0.0
  0
DIMENSION
  5
283
330
1F
100
AcDbEntity
  8
0
  6
Continuous
 62
     7
 48
3.0
370
     0
100
AcDbDimension
  2
*D9
 10
37.445369679
 20
10.9252098604
 30
0.0
 11
37.445369679
 21
14.4252098604
 31
0.0
 70
   160
 71
     2
 42
-1.0
  3
SLDDIMSTYLE0
100
AcDbAlignedDimension
 13
38.9164791379
 23
17.9252098604
 33
0.0
 14
38.9164791379
 24
10.9252098604
 34
0.0
 50
90.0
100
AcDbRotatedDimension
  0
DIMENSION
  5
295
330
1F
100
AcDbEntity
  8
0
  6
Continuous
 62
     7
 48
3.0
370
     0
100
AcDbDimension
  2
*D10
 10
47.9164791379
 20
8.4437649819
 30
0.0
 11
43.4164791379
 21
8.4437649819
 31
0.0
 70
   160
 71
     2
 42
-1.0
  3
SLDDIMSTYLE0
100
AcDbAlignedDimension
 13
38.9164791379
 23
10.9252098604
 33
0.0
 14
47.9164791379
 24
10.9252098604
 34
0.0
100
AcDbRotatedDimension
  0
DIMENSION
  5
2A7
330
1F
100
AcDbEntity
  8
0
  6
Continuous
 62
     7
 48
3.0
370
     0
100
AcDbDimension
  2
*D11
 10
47.8702365792
 20
11.0578819214
 30
0.0
 11
47.8686374857
 21
7.1844546152
 31
0.0
 70
   163
  1
<>
 71
     1
 42
-1.0
  3
SLDDIMSTYLE2
100
AcDbDiametricDimension
 15
47.9627216966
 25
10.7925377995
 35
0.0
 40
0.0
  0
DIMENSION
  5
2B8
330
1F
100
AcDbEntity
  8
0
  6
Continuous
 62
     7
 48
3.0
370
     0
100
AcDbDimension
  2
*D12
 10
49.2546398051
 20
19.4252098604
 30
0.0
 11
49.2546398051
 21
18.4252098604
 31
0.0
 70
   160
 71
     2
 42
-1.0
  3
SLDDIMSTYLE3
100
AcDbAlignedDimension
 13
46.4164791379
 23
17.4252098604
 33
0.0
 14
48.4164791379
 24
19.4252098604
 34
0.0
 50
90.0
100
AcDbRotatedDimension
  0
DIMENSION
  5
2CB
330
1F
100
AcDbEntity
  8
0
  6
Continuous
 62
     7
 48
3.0
370
     0
100
AcDbDimension
  2
*D13
 10
48.4164791379
 20
20.3639678403
 30
0.0
 11
47.4164791379
 21
20.3639678403
 31
0.0
 70
   160
 71
     2
 42
-1.0
  3
SLDDIMSTYLE3
100
AcDbAlignedDimension
 13
46.4164791379
 23
17.4252098604
 33
0.0
 14
48.4164791379
 24
19.4252098604
 34
0.0
100
AcDbRotatedDimension
  0
LINE
  5
2DD
330
1F
100
AcDbEntity
  8
0
  6
Continuous
 62
     7
 48
3.0
370
    15
100
AcDbLine
 10
44.8190609583
 20
27.5841681273
 30
0.0
 11
40.6943657682
 21
29.9653039766
 31
0.0
  0
LINE
  5
2DE
330
1F
100
AcDbEntity
  8
0
  6
Continuous
 62
     7
 48
3.0
370
    15
100
AcDbLine
 10
40.6481694712
 20
29.9653040057
 30
0.0
 11
39.069058616
 21
29.053702713
 31
0.0
  0
LINE
  5
2DF
330
1F
100
AcDbEntity
  8
0
  6
Continuous
 62
     7
 48
3.0
370
    15
100
AcDbLine
 10
44.894771612
 20
22.682635771
 30
0.0
 11
44.894771612
 21
27.5818807987
 31
0.0
  0
LINE
  5
2E0
330
1F
100
AcDbEntity
  8
0
  6
Continuous
 62
     7
 48
3.0
370
    15
100
AcDbLine
 10
38.9933479837
 20
29.0514153721
 30
0.0
 11
38.9933479837
 21
29.0403678463
 31
0.0
  0
ARC
  5
2E1
330
1F
100
AcDbEntity
  8
0
  6
Continuous
 62
     7
 48
9.0
370
    15
100
AcDbCircle
 10
43.1260699368
 20
22.7528489203
 30
0.0
 40
0.1386147521869821
100
AcDbArc
 50
168.1339525011
 51
251.8606709662
  0
LINE
  5
2E2
330
1F
100
AcDbEntity
  8
0
  6
Continuous
 62
     7
 48
3.0
370
    15
100
AcDbLine
 10
43.1262858279
 20
22.6237660175
 30
0.0
 11
43.1404271326
 21
22.631929619
 31
0.0
  0
LINE
  5
2E3
330
1F
100
AcDbEntity
  8
0
  6
Continuous
 62
     7
 48
3.0
370
    15
100
AcDbLine
 10
43.0285362102
 20
22.8257513626
 30
0.0
 11
43.0143949054
 21
22.8175877611
 31
0.0
  0
ARC
  5
2E4
330
1F
100
AcDbEntity
  8
0
  6
Continuous
 62
     7
 48
9.0
370
    15
100
AcDbCircle
 10
39.095561284
 20
25.079612039
 30
0.0
 40
0.1386147521869824
100
AcDbArc
 50
168.1339525011
 51
205.9042604596
  0
ARC
  5
2E5
330
1F
100
AcDbEntity
  8
0
  6
Continuous
 62
     7
 48
9.0
370
    15
100
AcDbCircle
 10
39.095561284
 20
25.079612039
 30
0.0
 40
0.1386147521869821
100
AcDbArc
 50
213.5984078164
 51
251.8606709662
  0
LINE
  5
2E6
330
1F
100
AcDbEntity
  8
0
  6
Continuous
 62
     7
 48
3.0
370
    15
100
AcDbLine
 10
39.095777146
 20
24.950529153
 30
0.0
 11
39.1099184508
 21
24.9586927544
 31
0.0
  0
LINE
  5
2E7
330
1F
100
AcDbEntity
  8
0
  6
Continuous
 62
     7
 48
3.0
370
    15
100
AcDbLine
 10
38.9980275284
 20
25.152514498
 30
0.0
 11
38.9838862236
 21
25.1443508966
 31
0.0
  0
ARC
  5
2E8
330
1F
100
AcDbEntity
  8
0
  6
Continuous
 62
     7
 48
9.0
370
    15
100
AcDbCircle
 10
43.1260699368
 20
25.692395843
 30
0.0
 40
0.1386147521869821
100
AcDbArc
 50
168.1339525011
 51
251.8606709662
  0
LINE
  5
2E9
330
1F
100
AcDbEntity
  8
0
  6
Continuous
 62
     7
 48
3.0
370
    15
100
AcDbLine
 10
43.1262858279
 20
25.5633129766
 30
0.0
 11
43.1404271326
 21
25.5714765781
 31
0.0
  0
LINE
  5
2EA
330
1F
100
AcDbEntity
  8
0
  6
Continuous
 62
     7
 48
3.0
370
    15
100
AcDbLine
 10
43.0285362102
 20
25.7652983217
 30
0.0
 11
43.0143949054
 21
25.7571347202
 31
0.0
  0
ARC
  5
2EB
330
1F
100
AcDbEntity
  8
0
  6
Continuous
 62
     7
 48
9.0
370
    15
100
AcDbCircle
 10
39.095561284
 20
28.0191589617
 30
0.0
 40
0.1386147521869824
100
AcDbArc
 50
168.1339525011
 51
205.9042604596
  0
ARC
  5
2EC
330
1F
100
AcDbEntity
  8
0
  6
Continuous
 62
     7
 48
9.0
370
    15
100
AcDbCircle
 10
39.095561284
 20
28.0191589617
 30
0.0
 40
0.1386147521869821
100
AcDbArc
 50
213.5984078164
 51
251.8606709662
  0
LINE
  5
2ED
330
1F
100
AcDbEntity
  8
0
  6
Continuous
 62
     7
 48
3.0
370
    15
100
AcDbLine
 10
39.095777146
 20
27.8900761121
 30
0.0
 11
39.1099184508
 21
27.8982397136
 31
0.0
  0
LINE
  5
2EE
330
1F
100
AcDbEntity
  8
0
  6
Continuous
 62
     7
 48
3.0
370
    15
100
AcDbLine
 10
38.9980275284
 20
28.0920614572
 30
0.0
 11
38.9838862236
 21
28.0838978557
 31
0.0
  0
LINE
  5
2EF
330
1F
100
AcDbEntity
  8
0
  6
Continuous
 62
     7
 48
3.0
370
    15
100
AcDbLine
 10
38.9742112818
 20
29.051415444
 30
0.0
 11
38.9479069192
 21
29.0362302587
 31
0.0
  0
LINE
  5
2F0
330
1F
100
AcDbEntity
  8
0
  6
Continuous
 62
     7
 48
3.0
370
    15
100
AcDbLine
 10
43.2168521043
 20
26.6021910303
 30
0.0
 11
38.9742112818
 21
29.051415444
 31
0.0
  0
LINE
  5
2F1
330
1F
100
AcDbEntity
  8
0
  6
Continuous
 62
     7
 48
3.0
370
    15
100
AcDbLine
 10
43.2168521043
 20
26.6021910303
 30
0.0
 11
43.1905477418
 21
26.5870058451
 31
0.0
  0
LINE
  5
2F2
330
1F
100
AcDbEntity
  8
0
  6
Continuous
 62
     7
 48
3.0
370
    15
100
AcDbLine
 10
43.1905477418
 20
26.5870058451
 30
0.0
 11
38.9479069192
 21
29.0362302587
 31
0.0
  0
LWPOLYLINE
  5
2F3
330
1F
100
AcDbEntity
  8
0
  6
Continuous
 62
     7
 48
3.0
370
    15
100
AcDbPolyline
 90
       18
 70
   128
 43
0.0
 10
43.1435139745
 20
25.5734669572
 10
43.1539677203
 20
25.5537748474
 10
43.1651854608
 20
25.5232687395
 10
43.1703222324
 20
25.4936561498
 10
43.1689916199
 20
25.4671682043
 10
43.1612936806
 20
25.4458007501
 10
43.1478080995
 20
25.4311636758
 10
43.1295512545
 20
25.424359688
 10
43.10789856
 20
25.4259016714
 10
43.0844816714
 20
25.4356733024
 10
43.0610646584
 20
25.4529383073
 10
43.0394120883
 20
25.476395921
 10
43.0211552433
 20
25.5042788133
 10
43.0076697867
 20
25.5344859363
 10
42.9999715984
 20
25.5647413858
 10
42.9986409859
 20
25.5927656238
 10
43.0037780064
 20
25.6164472795
 10
43.0064756951
 20
25.6223155518
  0
LINE
  5
2F4
330
1F
100
AcDbEntity
  8
0
  6
Continuous
 62
     7
 48
3.0
370
    15
100
AcDbLine
 10
43.1905477418
 20
21.6877608174
 30
0.0
 11
43.1905477418
 21
26.5870058451
 31
0.0
  0
LINE
  5
2F5
330
1F
100
AcDbEntity
  8
0
  6
Continuous
 62
     7
 48
3.0
370
    15
100
AcDbLine
 10
38.9479069192
 20
24.136985231
 30
0.0
 11
43.1905477418
 21
21.6877608174
 31
0.0
  0
LINE
  5
2F6
330
1F
100
AcDbEntity
  8
0
  6
Continuous
 62
     7
 48
3.0
370
    15
100
AcDbLine
 10
38.9479069192
 20
29.0362302587
 30
0.0
 11
38.9479069192
 21
24.136985231
 31
0.0
  0
LWPOLYLINE
  5
2F7
330
1F
100
AcDbEntity
  8
0
  6
Continuous
 62
     7
 48
3.0
370
    15
100
AcDbPolyline
 90
       18
 70
   128
 43
0.0
 10
38.9764834781
 20
25.0104850019
 10
38.9732692002
 20
25.0036635277
 10
38.9681324285
 20
24.979981872
 10
38.9694630411
 20
24.951957634
 10
38.9771609804
 20
24.9217021845
 10
38.9906465615
 20
24.8914949897
 10
39.0089034065
 20
24.8636122411
 10
39.030556101
 20
24.8401545555
 10
39.0539729896
 20
24.8228894788
 10
39.0773900026
 20
24.8131179196
 10
39.0990425727
 20
24.8115760081
 10
39.1172994176
 20
24.8183798521
 10
39.1307848743
 20
24.8330169983
 10
39.1384830625
 20
24.8543844525
 10
39.1398136751
 20
24.880872398
 10
39.1346766545
 20
24.9104849877
 10
39.1234590385
 20
24.9409911674
 10
39.1130052926
 20
24.9606831336
  0
LWPOLYLINE
  5
2F8
330
1F
100
AcDbEntity
  8
0
  6
Continuous
 62
     7
 48
3.0
370
    15
100
AcDbPolyline
 90
       18
 70
   128
 43
0.0
 10
38.9764834781
 20
27.9500318173
 10
38.9732692002
 20
27.9432104869
 10
38.9681324285
 20
27.9195286875
 10
38.9694630411
 20
27.8915044494
 10
38.9771609804
 20
27.8612491436
 10
38.9906465615
 20
27.8310419488
 10
39.0089034065
 20
27.8031590565
 10
39.030556101
 20
27.7797013709
 10
39.0539729896
 20
27.7624364379
 10
39.0773900026
 20
27.752664735
 10
39.0990425727
 20
27.7511228235
 10
39.1172994176
 20
27.7579268113
 10
39.1307848743
 20
27.7725639574
 10
39.1384830625
 20
27.7939312679
 10
39.1398136751
 20
27.8204192134
 10
39.1346766545
 20
27.8500319468
 10
39.1234590385
 20
27.8805379828
 10
39.1130052926
 20
27.9002300927
  0
LWPOLYLINE
  5
2F9
330
1F
100
AcDbEntity
  8
0
  6
Continuous
 62
     7
 48
3.0
370
    15
100
AcDbPolyline
 90
       18
 70
   128
 43
0.0
 10
43.1435139745
 20
22.6339199981
 10
43.1539677203
 20
22.614228032
 10
43.1651854608
 20
22.5837217804
 10
43.1703222324
 20
22.5541093344
 10
43.1689916199
 20
22.5276213889
 10
43.1612936806
 20
22.506253791
 10
43.1478080995
 20
22.4916167167
 10
43.1295512545
 20
22.4848128726
 10
43.10789856
 20
22.486354856
 10
43.0844816714
 20
22.4961263433
 10
43.0610646584
 20
22.5133914919
 10
43.0394120883
 20
22.5368491056
 10
43.0211552433
 20
22.5647318542
 10
43.0076697867
 20
22.5949389772
 10
42.9999715984
 20
22.6251945704
 10
42.9986409859
 20
22.6532188084
 10
43.0037780064
 20
22.6769003204
 10
43.0064756951
 20
22.6827685926
  0
LINE
  5
2FA
330
1F
100
AcDbEntity
  8
0
  6
Continuous
 62
     7
 48
3.0
370
    15
100
AcDbLine
 10
43.2168521043
 20
21.7029460027
 30
0.0
 11
43.2168521043
 21
26.6021910303
 31
0.0
  0
LINE
  5
2FB
330
1F
100
AcDbEntity
  8
0
  6
Continuous
 62
     7
 48
3.0
370
    15
100
AcDbLine
 10
43.2168521043
 20
21.7029460027
 30
0.0
 11
43.1905477418
 21
21.6877608174
 31
0.0
  0
LWPOLYLINE
  5
2FC
330
1F
100
AcDbEntity
  8
0
  6
Continuous
 62
     7
 48
3.0
370
    15
100
AcDbPolyline
 90
       10
 70
   128
 43
0.0
 10
43.1570920214
 20
25.439724698
 10
43.1558556171
 20
25.4395448733
 10
43.1342029225
 20
25.4410868566
 10
43.110786034
 20
25.4508584877
 10
43.0873690209
 20
25.4681234926
 10
43.0657164508
 20
25.4915811063
 10
43.0474596059
 20
25.5194639986
 10
43.0339741492
 20
25.5496711216
 10
43.026275961
 20
25.579926571
 10
43.0246805202
 20
25.5978748785
  0
LWPOLYLINE
  5
2FD
330
1F
100
AcDbEntity
  8
0
  6
Continuous
 62
     7
 48
3.0
370
    15
100
AcDbPolyline
 90
       10
 70
   128
 43
0.0
 10
43.1570920214
 20
22.5001778826
 10
43.1558556171
 20
22.4999980579
 10
43.1342029225
 20
22.5015400412
 10
43.110786034
 20
22.5113115286
 10
43.0873690209
 20
22.5285766772
 10
43.0657164508
 20
22.5520342909
 10
43.0474596059
 20
22.5799170395
 10
43.0339741492
 20
22.6101241625
 10
43.026275961
 20
22.6403797556
 10
43.0246805202
 20
22.6583279194
  0
LWPOLYLINE
  5
2FE
330
1F
100
AcDbEntity
  8
0
  6
Continuous
 62
     7
 48
3.0
370
    15
100
AcDbPolyline
 90
       10
 70
   128
 43
0.0
 10
38.994171714
 20
27.9246380858
 10
38.9957674036
 20
27.9066896347
 10
39.003465343
 20
27.8764343289
 10
39.0169509241
 20
27.8462271341
 10
39.035207769
 20
27.8183442418
 10
39.0568604635
 20
27.7948865562
 10
39.0802773521
 20
27.7776216232
 10
39.1036943652
 20
27.7678499203
 10
39.1253469352
 20
27.7663080087
 10
39.126583464
 20
27.7664877617
  0
LWPOLYLINE
  5
2FF
330
1F
100
AcDbEntity
  8
0
  6
Continuous
 62
     7
 48
3.0
370
    15
100
AcDbPolyline
 90
       10
 70
   128
 43
0.0
 10
38.994171714
 20
24.9850911267
 10
38.9957674036
 20
24.9671428193
 10
39.003465343
 20
24.9368873698
 10
39.0169509241
 20
24.906680175
 10
39.035207769
 20
24.8787974264
 10
39.0568604635
 20
24.8553397408
 10
39.0802773521
 20
24.8380746641
 10
39.1036943652
 20
24.8283031049
 10
39.1253469352
 20
24.8267611933
 10
39.126583464
 20
24.8269409463
  0
ARC
  5
300
330
1F
100
AcDbEntity
  8
0
  6
Continuous
 62
     7
 48
9.0
370
    15
100
AcDbCircle
 10
44.7577248589
 20
27.5225230712
 30
0.0
 40
0.0706079644280952
100
AcDbArc
 50
29.6875825084
 51
57.2105585492
  0
ARC
  5
301
330
1F
100
AcDbEntity
  8
0
  6
Continuous
 62
     7
 48
9.0
370
    15
100
AcDbCircle
 10
43.1815783109
 20
26.6137302725
 30
0.0
 40
0.0666487016374892
100
AcDbArc
 50
28.8565872793
 51
58.045364133
  0
ARC
  5
302
330
1F
100
AcDbEntity
  8
0
  6
Continuous
 62
     7
 48
9.0
370
    15
100
AcDbCircle
 10
43.2100225004
 20
26.6289414914
 30
0.0
 40
0.0129160023214725
100
AcDbArc
 50
29.8406746896
 51
58.0782153
  0
LINE
  5
303
330
1F
100
AcDbEntity
  8
0
  6
Continuous
 62
     7
 48
3.0
370
    15
100
AcDbLine
 10
43.0505404741
 20
26.7662891115
 30
0.0
 11
43.2168519799
 21
26.6702795228
 31
0.0
  0
LINE
  5
304
330
1F
100
AcDbEntity
  8
0
  6
Continuous
 62
     7
 48
3.0
370
    15
100
AcDbLine
 10
43.0242361116
 20
26.7511039262
 30
0.0
 11
43.0505404741
 21
26.7662891115
 31
0.0
  0
LINE
  5
305
330
1F
100
AcDbEntity
  8
0
  6
Continuous
 62
     7
 48
3.0
370
    15
100
AcDbLine
 10
39.232163933
 20
28.9402205982
 30
0.0
 11
39.2584682955
 21
28.9554057835
 31
0.0
  0
LINE
  5
306
330
1F
100
AcDbEntity
  8
0
  6
Continuous
 62
     7
 48
3.0
370
    15
100
AcDbLine
 10
39.2584682955
 20
28.9554057835
 30
0.0
 11
39.0921567898
 21
29.0514153721
 31
0.0
  0
LINE
  5
307
330
1F
100
AcDbEntity
  8
0
  6
Continuous
 62
     7
 48
3.0
370
    15
100
AcDbLine
 10
43.0505404741
 20
26.7359138045
 30
0.0
 11
43.0505404741
 21
26.7662891115
 31
0.0
  0
LINE
  5
308
330
1F
100
AcDbEntity
  8
0
  6
Continuous
 62
     7
 48
3.0
370
    15
100
AcDbLine
 10
43.0505404741
 20
26.7359138045
 30
0.0
 11
43.2168519799
 21
26.6399042159
 31
0.0
  0
ARC
  5
309
330
1F
100
AcDbEntity
  8
0
  6
Continuous
 62
     7
 48
9.0
370
    15
100
AcDbCircle
 10
43.0595097805
 20
26.6945546759
 30
0.0
 40
0.0666487016374041
100
AcDbArc
 50
121.954635867
 51
151.1434127207
  0
ARC
  5
30A
330
1F
100
AcDbEntity
  8
0
  6
Continuous
 62
     7
 48
9.0
370
    15
100
AcDbCircle
 10
39.2674376019
 20
28.8836713479
 30
0.0
 40
0.0666487016373409
100
AcDbArc
 50
121.954635867
 51
151.1434127208
  0
LINE
  5
30B
330
1F
100
AcDbEntity
  8
0
  6
Continuous
 62
     7
 48
3.0
370
    15
100
AcDbLine
 10
43.0441807387
 20
26.7322424074
 30
0.0
 11
43.0505404741
 21
26.7359138045
 31
0.0
  0
ARC
  5
30C
330
1F
100
AcDbEntity
  8
0
  6
Continuous
 62
     7
 48
9.0
370
    15
100
AcDbCircle
 10
44.8087154942
 20
27.5662462019
 30
0.0
 40
0.0201760119523579
100
AcDbArc
 50
350.7858523052
 51
129.2030356317
  0
ARC
  5
30D
330
1F
100
AcDbEntity
  8
0
  6
Continuous
 62
     7
 48
9.0
370
    15
100
AcDbCircle
 10
40.684800625
 20
29.9441259758
 30
0.0
 40
0.0232378931911382
100
AcDbArc
 50
65.6934624381
 51
125.6171911236
  0
LINE
  5
30E
330
1F
100
AcDbEntity
  8
0
  6
Continuous
 62
     7
 48
3.0
370
    15
100
AcDbLine
 10
39.2321595773
 20
28.9402181763
 30
0.0
 11
39.0921567898
 21
29.0210400652
 31
0.0
  0
ARC
  5
30F
330
1F
100
AcDbEntity
  8
0
  6
Continuous
 62
     7
 48
9.0
370
    15
100
AcDbCircle
 10
39.079404071
 20
29.0357807484
 30
0.0
 40
0.0201760575039996
100
AcDbArc
 50
50.7968509965
 51
189.2139007583
  0
ARC
  5
310
330
1F
100
AcDbEntity
  8
0
  6
Continuous
 62
     7
 48
9.0
370
    15
100
AcDbCircle
 10
40.6577346078
 20
29.9441258798
 30
0.0
 40
0.023238004589136
100
AcDbArc
 50
54.3828321291
 51
114.3063955168
  0
ARC
  5
311
330
1F
100
AcDbEntity
  8
0
  6
Continuous
 62
     7
 48
9.0
370
    15
100
AcDbCircle
 10
39.0896725157
 20
29.0179943176
 30
0.0
 40
0.0039304193808144
100
AcDbArc
 50
50.7974800054
 51
189.2152122787
  0
ARC
  5
312
330
1F
100
AcDbEntity
  8
0
  6
Continuous
 62
     7
 48
9.0
370
    15
100
AcDbCircle
 10
43.2168521114
 20
26.6840998679
 30
0.0
 40
0.0710105494586657
100
AcDbArc
 50
242.6096137618
 51
297.3902602355
  0
ARC
  5
313
330
1F
100
AcDbEntity
  8
0
  6
Continuous
 62
     7
 48
9.0
370
    15
100
AcDbCircle
 10
43.2181832071
 20
21.78064207
 30
0.0
 40
0.0666619779636813
100
AcDbArc
 50
268.8557379513
 51
298.0402335087
  0
ARC
  5
314
330
1F
100
AcDbEntity
  8
0
  6
Continuous
 62
     7
 48
9.0
370
    15
100
AcDbCircle
 10
43.2168521114
 20
26.6485181948
 30
0.0
 40
0.0138336887578877
100
AcDbArc
 50
242.6100870228
 51
297.3892661691
  0
LINE
  5
315
330
1F
100
AcDbEntity
  8
0
  6
Continuous
 62
     7
 48
3.0
370
    15
100
AcDbLine
 10
43.0047199636
 20
26.7246523085
 30
0.0
 11
43.1841836506
 21
26.6210501272
 31
0.0
  0
LINE
  5
316
330
1F
100
AcDbEntity
  8
0
  6
Continuous
 62
     7
 48
3.0
370
    15
100
AcDbLine
 10
43.0047199636
 20
26.7246523085
 30
0.0
 11
43.0310243262
 21
26.7398374938
 31
0.0
  0
LINE
  5
317
330
1F
100
AcDbEntity
  8
0
  6
Continuous
 62
     7
 48
3.0
370
    15
100
AcDbLine
 10
43.0310243262
 20
26.7398374938
 30
0.0
 11
43.2104880131
 21
26.6362353125
 31
0.0
  0
LINE
  5
318
330
1F
100
AcDbEntity
  8
0
  6
Continuous
 62
     7
 48
3.0
370
    15
100
AcDbLine
 10
43.223216071
 20
26.6362352407
 30
0.0
 11
44.8549356629
 21
27.5782069107
 31
0.0
  0
LINE
  5
319
330
1F
100
AcDbEntity
  8
0
  6
Continuous
 62
     7
 48
3.0
370
    15
100
AcDbLine
 10
43.2495204336
 20
26.6210500554
 30
0.0
 11
44.8812400255
 21
27.5630217254
 31
0.0
  0
LINE
  5
31A
330
1F
100
AcDbEntity
  8
0
  6
Continuous
 62
     7
 48
3.0
370
    15
100
AcDbLine
 10
43.2495204336
 20
21.7218050277
 30
0.0
 11
44.8812400255
 21
22.6637766977
 31
0.0
  0
ARC
  5
31B
330
1F
100
AcDbEntity
  8
0
  6
Continuous
 62
     7
 48
9.0
370
    15
100
AcDbCircle
 10
44.8535411239
 20
27.58188076
 30
0.0
 40
0.0039296192904465
100
AcDbArc
 50
290.7860236978
 51
69.2160081252
  0
ARC
  5
31C
330
1F
100
AcDbEntity
  8
0
  6
Continuous
 62
     7
 48
9.0
370
    15
100
AcDbCircle
 10
44.8740822977
 20
27.5818807646
 30
0.0
 40
0.0201716738819645
100
AcDbArc
 50
290.7836721393
 51
69.2166941354
  0
ARC
  5
31D
330
1F
100
AcDbEntity
  8
0
  6
Continuous
 62
     7
 48
9.0
370
    15
100
AcDbCircle
 10
44.8716506902
 20
22.6849412138
 30
0.0
 40
0.0232355781603219
100
AcDbArc
 50
294.3745908246
 51
354.3057220717
  0
LINE
  5
31E
330
1F
100
AcDbEntity
  8
0
  6
Continuous
 62
     7
 48
3.0
370
    15
100
AcDbLine
 10
44.8549355327
 20
27.5855546587
 30
0.0
 11
40.6776316176
 21
29.9970608785
 31
0.0
  0
LINE
  5
31F
330
1F
100
AcDbEntity
  8
0
  6
Continuous
 62
     7
 48
3.0
370
    15
100
AcDbLine
 10
44.8812399049
 20
27.6007398496
 30
0.0
 11
40.7039359898
 21
30.0122460694
 31
0.0
  0
LINE
  5
320
330
1F
100
AcDbEntity
  8
0
  6
Continuous
 62
     7
 48
3.0
370
    15
100
AcDbLine
 10
39.0068797355
 20
29.0325563471
 30
0.0
 11
39.1863434225
 21
28.9289541658
 31
0.0
  0
LINE
  5
321
330
1F
100
AcDbEntity
  8
0
  6
Continuous
 62
     7
 48
3.0
370
    15
100
AcDbLine
 10
39.212647785
 20
28.9441393511
 30
0.0
 11
39.1863434225
 21
28.9289541658
 31
0.0
  0
LINE
  5
322
330
1F
100
AcDbEntity
  8
0
  6
Continuous
 62
     7
 48
3.0
370
    15
100
AcDbLine
 10
39.212647785
 20
28.9441393511
 30
0.0
 11
39.212647785
 21
28.9214823952
 31
0.0
  0
LINE
  5
323
330
1F
100
AcDbEntity
  8
0
  6
Continuous
 62
     7
 48
3.0
370
    15
100
AcDbLine
 10
39.033184098
 20
29.0477415324
 30
0.0
 11
39.212647785
 21
28.9441393511
 31
0.0
  0
ARC
  5
324
330
1F
100
AcDbEntity
  8
0
  6
Continuous
 62
     7
 48
9.0
370
    15
100
AcDbCircle
 10
39.0345784882
 20
29.0514154317
 30
0.0
 40
0.0039296132508719
100
AcDbArc
 50
110.7856770216
 51
249.2162638233
  0
ARC
  5
325
330
1F
100
AcDbEntity
  8
0
  6
Continuous
 62
     7
 48
9.0
370
    15
100
AcDbCircle
 10
39.0140373117
 20
29.0514154317
 30
0.0
 40
0.0201716625188411
100
AcDbArc
 50
110.7836019918
 51
249.2167760983
  0
LINE
  5
326
330
1F
100
AcDbEntity
  8
0
  6
Continuous
 62
     7
 48
3.0
370
    15
100
AcDbLine
 10
40.6649035655
 20
29.9970609538
 30
0.0
 11
39.0331839736
 21
29.0550892838
 31
0.0
  0
LINE
  5
327
330
1F
100
AcDbEntity
  8
0
  6
Continuous
 62
     7
 48
3.0
370
    15
100
AcDbLine
 10
40.638599203
 20
30.012246139
 30
0.0
 11
39.006879611
 21
29.070274469
 31
0.0
  0
ARC
  5
328
330
1F
100
AcDbEntity
  8
0
  6
Continuous
 62
     7
 48
9.0
370
    15
100
AcDbCircle
 10
40.671267519
 20
29.9847778856
 30
0.0
 40
0.0138337871020111
100
AcDbArc
 50
62.6102965065
 51
117.3890263659
  0
ARC
  5
329
330
1F
100
AcDbEntity
  8
0
  6
Continuous
 62
     7
 48
9.0
370
    15
100
AcDbCircle
 10
40.6712675292
 20
29.9491962374
 30
0.0
 40
0.0710106304815435
100
AcDbArc
 50
62.6096478364
 51
117.3902300985
  0
ARC
  5
32A
330
1F
100
AcDbEntity
  8
0
  6
Continuous
 62
     7
 48
9.0
370
    15
100
AcDbCircle
 10
43.1623725268
 20
22.778950098
 30
0.0
 40
0.1516941166175061
100
AcDbArc
 50
174.674994685
 51
202.0525511019
  0
ARC
  5
32B
330
1F
100
AcDbEntity
  8
0
  6
Continuous
 62
     7
 48
9.0
370
    15
100
AcDbCircle
 10
43.0223540513
 20
22.764001908
 30
0.0
 40
0.0310480462510702
100
AcDbArc
 50
110.7913065596
 51
130.7106585911
  0
ARC
  5
32C
330
1F
100
AcDbEntity
  8
0
  6
Continuous
 62
     7
 48
9.0
370
    15
100
AcDbCircle
 10
43.1531433084
 20
22.773458706
 30
0.0
 40
0.1516946851254598
100
AcDbArc
 50
174.6750026675
 51
202.0525097558
  0
ARC
  5
32D
330
1F
100
AcDbEntity
  8
0
  6
Continuous
 62
     7
 48
9.0
370
    15
100
AcDbCircle
 10
43.1320064001
 20
22.7080682841
 30
0.0
 40
0.119757292343878
100
AcDbArc
 50
175.9607341457
 51
189.728519255
  0
ARC
  5
32E
330
1F
100
AcDbEntity
  8
0
  6
Continuous
 62
     7
 48
9.0
370
    15
100
AcDbCircle
 10
43.0885869314
 20
22.7800004545
 30
0.0
 40
0.1185857297396955
100
AcDbArc
 50
231.0079364595
 51
244.7961881589
  0
ARC
  5
32F
330
1F
100
AcDbEntity
  8
0
  6
Continuous
 62
     7
 48
9.0
370
    15
100
AcDbCircle
 10
43.1579402675
 20
22.7678924606
 30
0.0
 40
0.1530531187448049
100
AcDbArc
 50
218.4571613753
 51
245.6708546789
  0
ARC
  5
330
330
1F
100
AcDbEntity
  8
0
  6
Continuous
 62
     7
 48
9.0
370
    15
100
AcDbCircle
 10
43.0838680882
 20
22.6574521917
 30
0.0
 40
0.0310418314175668
100
AcDbArc
 50
290.7891475915
 51
310.7127976063
  0
ARC
  5
331
330
1F
100
AcDbEntity
  8
0
  6
Continuous
 62
     7
 48
9.0
370
    15
100
AcDbCircle
 10
43.1671704325
 20
22.7733844011
 30
0.0
 40
0.1530536867243521
100
AcDbArc
 50
218.4572012234
 51
245.6708464114
  0
ARC
  5
332
330
1F
100
AcDbEntity
  8
0
  6
Continuous
 62
     7
 48
9.0
370
    15
100
AcDbCircle
 10
43.1851102744
 20
22.6884844679
 30
0.0
 40
0.1381756309679681
100
AcDbArc
 50
171.7578229327
 51
184.2702660609
  0
ARC
  5
333
330
1F
100
AcDbEntity
  8
0
  6
Continuous
 62
     7
 48
9.0
370
    15
100
AcDbCircle
 10
43.0976552103
 20
22.8365731277
 30
0.0
 40
0.1374249982322869
100
AcDbArc
 50
236.4855489601
 51
248.9800667583
  0
LWPOLYLINE
  5
334
330
1F
100
AcDbEntity
  8
0
  6
Continuous
 62
     7
 48
3.0
370
    15
100
AcDbPolyline
 90
        3
 70
   128
 43
0.0
 10
43.0110361418
 20
22.8135033008
 10
42.9978970277
 20
22.8004992303
 10
42.990417248
 20
22.781351462
  0
ARC
  5
335
330
1F
100
AcDbEntity
  8
0
  6
Continuous
 62
     7
 48
9.0
370
    15
100
AcDbCircle
 10
43.0997300549
 20
22.6642481526
 30
0.0
 40
0.0462873167848808
100
AcDbArc
 50
248.6988006197
 51
303.4919479611
  0
LINE
  5
336
330
1F
100
AcDbEntity
  8
0
  6
Continuous
 62
     7
 48
3.0
370
    15
100
AcDbLine
 10
43.0139714043
 20
22.8173396069
 30
0.0
 11
43.0012728409
 21
22.8051302914
 31
0.0
  0
LWPOLYLINE
  5
337
330
1F
100
AcDbEntity
  8
0
  6
Continuous
 62
     7
 48
3.0
370
    15
100
AcDbPolyline
 90
       15
 70
   128
 43
0.0
 10
43.1089358454
 20
22.618632235
 10
43.1186232321
 20
22.6204160044
 10
43.1337453223
 20
22.6294132083
 10
43.1441650935
 20
22.6451789051
 10
43.1491094664
 20
22.6665439452
 10
43.1482119376
 20
22.691923825
 10
43.1415389632
 20
22.7194362433
 10
43.1295854781
 20
22.7470406431
 10
43.1132381841
 20
22.7726897501
 10
43.0937093422
 20
22.794481323
 10
43.0724472943
 20
22.8107990532
 10
43.0510289379
 20
22.8204329825
 10
43.0310429936
 20
22.8226683052
 10
43.0139714043
 20
22.8173396069
 10
43.0139714043
 20
22.8173396069
  0
LWPOLYLINE
  5
338
330
1F
100
AcDbEntity
  8
0
  6
Continuous
 62
     7
 48
3.0
370
    15
100
AcDbPolyline
 90
       14
 70
   128
 43
0.0
 10
43.1404271326
 20
22.631929619
 10
43.147886627
 20
22.6375768098
 10
43.1583063982
 20
22.6533425066
 10
43.1632507711
 20
22.6747075467
 10
43.1623532424
 20
22.7000874265
 10
43.1556802679
 20
22.7275998447
 10
43.1437267829
 20
22.7552042446
 10
43.1273794888
 20
22.7808533516
 10
43.107850647
 20
22.8026449245
 10
43.086588599
 20
22.8189626547
 10
43.0651702426
 20
22.828596584
 10
43.0451842983
 20
22.8308319067
 10
43.028112709
 20
22.8255032083
 10
43.028112709
 20
22.8255032083
  0
LINE
  5
339
330
1F
100
AcDbEntity
  8
0
  6
Continuous
 62
     7
 48
3.0
370
    15
100
AcDbLine
 10
43.0470765508
 20
22.6946114004
 30
0.0
 11
43.0363150416
 21
22.7007304762
 31
0.0
  0
LINE
  5
33A
330
1F
100
AcDbEntity
  8
0
  6
Continuous
 62
     7
 48
3.0
370
    15
100
AcDbLine
 10
43.0363150416
 20
22.7007304762
 30
0.0
 11
43.0362312872
 21
22.7136475833
 31
0.0
  0
LINE
  5
33B
330
1F
100
AcDbEntity
  8
0
  6
Continuous
 62
     7
 48
3.0
370
    15
100
AcDbLine
 10
43.0363150416
 20
22.7007304762
 30
0.0
 11
43.0139712798
 21
22.6878316971
 31
0.0
  0
LINE
  5
33C
330
1F
100
AcDbEntity
  8
0
  6
Continuous
 62
     7
 48
3.0
370
    15
100
AcDbLine
 10
43.0474082083
 20
22.6780844225
 30
0.0
 11
43.0380884449
 21
22.6727042376
 31
0.0
  0
LINE
  5
33D
330
1F
100
AcDbEntity
  8
0
  6
Continuous
 62
     7
 48
3.0
370
    15
100
AcDbLine
 10
43.0125465836
 20
22.7165040005
 30
0.0
 11
43.0219070419
 21
22.721907678
 31
0.0
  0
LINE
  5
33E
330
1F
100
AcDbEntity
  8
0
  6
Continuous
 62
     7
 48
3.0
370
    15
100
AcDbLine
 10
43.094885762
 20
22.6284314033
 30
0.0
 11
43.0860987663
 21
22.6434996001
 31
0.0
  0
LINE
  5
33F
330
1F
100
AcDbEntity
  8
0
  6
Continuous
 62
     7
 48
3.0
370
    15
100
AcDbLine
 10
43.0107479171
 20
22.7727126835
 30
0.0
 11
43.0021032915
 21
22.7875367312
 31
0.0
  0
ARC
  5
340
330
1F
100
AcDbEntity
  8
0
  6
Continuous
 62
     7
 48
9.0
370
    15
100
AcDbCircle
 10
38.9167894106
 20
25.1335001517
 30
0.0
 40
0.1265807215208192
100
AcDbArc
 50
295.2945537114
 51
301.0288368575
  0
ARC
  5
341
330
1F
100
AcDbEntity
  8
0
  6
Continuous
 62
     7
 48
9.0
370
    15
100
AcDbCircle
 10
39.1148634058
 20
25.0907542191
 30
0.0
 40
0.1599756875392337
100
AcDbArc
 50
206.4187688085
 51
213.0840876439
  0
LWPOLYLINE
  5
342
330
1F
100
AcDbEntity
  8
0
  6
Continuous
 62
     7
 48
3.0
370
    15
100
AcDbPolyline
 90
        9
 70
   128
 43
0.0
 10
38.9808245205
 20
25.0034284048
 10
38.9802071273
 20
25.0030098735
 10
38.9801450271
 20
25.0029086379
 10
38.9806382199
 20
25.0031249819
 10
38.9816847145
 20
25.0036577528
 10
38.983279533
 20
25.0045047916
 10
38.9854153328
 20
25.0056619996
 10
38.9880821581
 20
25.0071240565
 10
38.9912676882
 20
25.0088841335
  0
ARC
  5
343
330
1F
100
AcDbEntity
  8
0
  6
Continuous
 62
     7
 48
9.0
370
    15
100
AcDbCircle
 10
39.0690681725
 20
25.1230758879
 30
0.0
 40
0.1381762357735597
100
AcDbArc
 50
235.7328329313
 51
248.2443038868
  0
ARC
  5
344
330
1F
100
AcDbEntity
  8
0
  6
Continuous
 62
     7
 48
9.0
370
    15
100
AcDbCircle
 10
39.1349939985
 20
25.0132836014
 30
0.0
 40
0.1185992318846142
100
AcDbArc
 50
175.2067088779
 51
188.9946308454
  0
ARC
  5
345
330
1F
100
AcDbEntity
  8
0
  6
Continuous
 62
     7
 48
9.0
370
    15
100
AcDbCircle
 10
31.6304387793
 20
38.1118964959
 30
0.0
 40
15.02905882077051
100
AcDbArc
 50
299.4374180161
 51
299.6863547115
  0
ARC
  5
346
330
1F
100
AcDbEntity
  8
0
  6
Continuous
 62
     7
 48
9.0
370
    15
100
AcDbCircle
 10
38.9303099077
 20
24.9842153173
 30
0.0
 40
0.1600082735033558
100
AcDbArc
 50
26.4194895881
 51
33.0833602115
  0
ARC
  5
347
330
1F
100
AcDbEntity
  8
0
  6
Continuous
 62
     7
 48
9.0
370
    15
100
AcDbCircle
 10
31.627062323
 20
38.1177829799
 30
0.0
 40
15.01724539649505
100
AcDbArc
 50
299.4372105536
 51
299.6863428067
  0
ARC
  5
348
330
1F
100
AcDbEntity
  8
0
  6
Continuous
 62
     7
 48
9.0
370
    15
100
AcDbCircle
 10
39.05999705
 20
25.1470116335
 30
0.0
 40
0.119751191583852
100
AcDbArc
 50
230.2743468921
 51
244.0416105046
  0
ARC
  5
349
330
1F
100
AcDbEntity
  8
0
  6
Continuous
 62
     7
 48
9.0
370
    15
100
AcDbCircle
 10
39.1192119771
 20
25.0334635756
 30
0.0
 40
0.13743295217197
100
AcDbArc
 50
171.022559656
 51
183.5172805932
  0
LINE
  5
34A
330
1F
100
AcDbEntity
  8
0
  6
Continuous
 62
     7
 48
3.0
370
    15
100
AcDbLine
 10
39.0399866243
 20
25.0365737314
 30
0.0
 11
39.0168095496
 21
25.0231938909
 31
0.0
  0
LINE
  5
34B
330
1F
100
AcDbEntity
  8
0
  6
Continuous
 62
     7
 48
3.0
370
    15
100
AcDbLine
 10
39.0736069911
 20
25.0554093723
 30
0.0
 11
39.0399866243
 21
25.0365737314
 31
0.0
  0
LWPOLYLINE
  5
34C
330
1F
100
AcDbEntity
  8
0
  6
Continuous
 62
     7
 48
3.0
370
    15
100
AcDbPolyline
 90
       14
 70
   128
 43
0.0
 10
39.095777146
 20
24.950529153
 10
39.0990769207
 20
24.9526732494
 10
39.1110302813
 20
24.966476521
 10
39.1177031314
 20
24.9862845588
 10
39.1186006601
 20
25.0106281739
 10
39.1136562872
 20
25.0377020092
 10
39.1032366404
 20
25.0654979022
 10
39.0881145503
 20
25.0919546998
 10
39.0694115544
 20
25.1151100099
 10
39.0485147653
 20
25.1332464902
 10
39.0269739507
 20
25.1450190932
 10
39.0063867916
 20
25.1495547896
 10
38.9882800326
 20
25.1465170114
 10
38.9838862236
 20
25.1443508966
  0
LWPOLYLINE
  5
34D
330
1F
100
AcDbEntity
  8
0
  6
Continuous
 62
     7
 48
3.0
370
    15
100
AcDbPolyline
 90
       14
 70
   128
 43
0.0
 10
39.1099184508
 20
24.9586927544
 10
39.1132182255
 20
24.9608368509
 10
39.1251715861
 20
24.9746401225
 10
39.1318444361
 20
24.9944481603
 10
39.1327419649
 20
25.0187917754
 10
39.127797592
 20
25.0458656107
 10
39.1173779452
 20
25.0736615037
 10
39.1022558551
 20
25.1001183013
 10
39.0835528592
 20
25.1232736114
 10
39.06265607
 20
25.1414100917
 10
39.0411152555
 20
25.1531826947
 10
39.0205280963
 20
25.1577183911
 10
39.0024213373
 20
25.1546806128
 10
38.9980275284
 20
25.152514498
  0
LINE
  5
34E
330
1F
100
AcDbEntity
  8
0
  6
Continuous
 62
     7
 48
3.0
370
    15
100
AcDbLine
 10
39.0399866243
 20
25.0365737314
 30
0.0
 11
39.0400565648
 21
25.047272337
 31
0.0
  0
LINE
  5
34F
330
1F
100
AcDbEntity
  8
0
  6
Continuous
 62
     7
 48
3.0
370
    15
100
AcDbLine
 10
39.0400565648
 20
25.047272337
 30
0.0
 11
39.0309942872
 21
25.0525824877
 31
0.0
  0
LINE
  5
350
330
1F
100
AcDbEntity
  8
0
  6
Continuous
 62
     7
 48
3.0
370
    15
100
AcDbLine
 10
39.0166858469
 20
25.021417085
 30
0.0
 11
39.0055458873
 21
25.0279447633
 31
0.0
  0
LINE
  5
351
330
1F
100
AcDbEntity
  8
0
  6
Continuous
 62
     7
 48
3.0
370
    15
100
AcDbLine
 10
39.0055458873
 20
25.0279447633
 30
0.0
 11
39.0056267794
 21
25.0403298013
 31
0.0
  0
LINE
  5
352
330
1F
100
AcDbEntity
  8
0
  6
Continuous
 62
     7
 48
3.0
370
    15
100
AcDbLine
 10
39.0055458873
 20
25.0279447633
 30
0.0
 11
39.0051450359
 21
25.0277133568
 31
0.0
  0
LINE
  5
353
330
1F
100
AcDbEntity
  8
0
  6
Continuous
 62
     7
 48
3.0
370
    15
100
AcDbLine
 10
39.0052149765
 20
25.0384119624
 30
0.0
 11
39.0051450359
 21
25.0277133568
 31
0.0
  0
LINE
  5
354
330
1F
100
AcDbEntity
  8
0
  6
Continuous
 62
     7
 48
3.0
370
    15
100
AcDbLine
 10
39.0052149765
 20
25.0384119624
 30
0.0
 11
38.9820379018
 21
25.025032122
 31
0.0
  0
LINE
  5
355
330
1F
100
AcDbEntity
  8
0
  6
Continuous
 62
     7
 48
3.0
370
    15
100
AcDbLine
 10
38.9912676882
 20
25.0088841335
 30
0.0
 11
39.0144447629
 21
25.0222639739
 31
0.0
  0
LINE
  5
356
330
1F
100
AcDbEntity
  8
0
  6
Continuous
 62
     7
 48
3.0
370
    15
100
AcDbLine
 10
39.0051450359
 20
25.0277133568
 30
0.0
 11
39.0144447629
 21
25.0222639739
 31
0.0
  0
LINE
  5
357
330
1F
100
AcDbEntity
  8
0
  6
Continuous
 62
     7
 48
3.0
370
    15
100
AcDbLine
 10
39.0144447629
 20
25.0222639739
 30
0.0
 11
38.9808245205
 21
25.0034284048
 31
0.0
  0
ARC
  5
358
330
1F
100
AcDbEntity
  8
0
  6
Continuous
 62
     7
 48
9.0
370
    15
100
AcDbCircle
 10
43.1623725268
 20
25.7184970571
 30
0.0
 40
0.1516941166175065
100
AcDbArc
 50
174.674994685
 51
202.0525511019
  0
ARC
  5
359
330
1F
100
AcDbEntity
  8
0
  6
Continuous
 62
     7
 48
9.0
370
    15
100
AcDbCircle
 10
43.0223534601
 20
25.7035504768
 30
0.0
 40
0.0310463315705306
100
AcDbArc
 50
110.7913409125
 51
130.7119419847
  0
ARC
  5
35A
330
1F
100
AcDbEntity
  8
0
  6
Continuous
 62
     7
 48
9.0
370
    15
100
AcDbCircle
 10
43.1531427403
 20
25.7130055532
 30
0.0
 40
0.1516941166177225
100
AcDbArc
 50
174.6749946851
 51
202.0525511018
  0
ARC
  5
35B
330
1F
100
AcDbEntity
  8
0
  6
Continuous
 62
     7
 48
9.0
370
    15
100
AcDbCircle
 10
43.132005111
 20
25.6476151791
 30
0.0
 40
0.1197560110031653
100
AcDbArc
 50
175.9606601344
 51
189.7285932663
  0
ARC
  5
35C
330
1F
100
AcDbEntity
  8
0
  6
Continuous
 62
     7
 48
9.0
370
    15
100
AcDbCircle
 10
43.0885826745
 20
25.719540627
 30
0.0
 40
0.1185777764066762
100
AcDbArc
 50
231.007471807
 51
244.7966528114
  0
ARC
  5
35D
330
1F
100
AcDbEntity
  8
0
  6
Continuous
 62
     7
 48
9.0
370
    15
100
AcDbCircle
 10
43.1579402675
 20
25.7074394197
 30
0.0
 40
0.1530531187446856
100
AcDbArc
 50
218.4571613753
 51
245.6708546789
  0
ARC
  5
35E
330
1F
100
AcDbEntity
  8
0
  6
Continuous
 62
     7
 48
9.0
370
    15
100
AcDbCircle
 10
43.0838674971
 20
25.5970007601
 30
0.0
 40
0.0310435456476277
100
AcDbArc
 50
290.7891132686
 51
310.7115141821
  0
ARC
  5
35F
330
1F
100
AcDbEntity
  8
0
  6
Continuous
 62
     7
 48
9.0
370
    15
100
AcDbCircle
 10
43.1671704109
 20
25.7129308799
 30
0.0
 40
0.1530533710517902
100
AcDbArc
 50
218.457065427
 51
245.6708018518
  0
ARC
  5
360
330
1F
100
AcDbEntity
  8
0
  6
Continuous
 62
     7
 48
9.0
370
    15
100
AcDbCircle
 10
43.185111215
 20
25.6280313944
 30
0.0
 40
0.1381765665032717
100
AcDbArc
 50
171.7578654601
 51
184.2702235335
  0
ARC
  5
361
330
1F
100
AcDbEntity
  8
0
  6
Continuous
 62
     7
 48
9.0
370
    15
100
AcDbCircle
 10
43.0976511007
 20
25.7761121133
 30
0.0
 40
0.137416081281757
100
AcDbArc
 50
236.4851419602
 51
248.9804737582
  0
LWPOLYLINE
  5
362
330
1F
100
AcDbEntity
  8
0
  6
Continuous
 62
     7
 48
3.0
370
    15
100
AcDbPolyline
 90
        3
 70
   128
 43
0.0
 10
43.0110361418
 20
25.7530502599
 10
42.9978970277
 20
25.7400461894
 10
42.990417248
 20
25.7208984212
  0
ARC
  5
363
330
1F
100
AcDbEntity
  8
0
  6
Continuous
 62
     7
 48
9.0
370
    15
100
AcDbCircle
 10
43.0997309355
 20
25.6037868651
 30
0.0
 40
0.0462799535785779
100
AcDbArc
 50
248.6940760078
 51
303.4966725731
  0
LINE
  5
364
330
1F
100
AcDbEntity
  8
0
  6
Continuous
 62
     7
 48
3.0
370
    15
100
AcDbLine
 10
43.0139714043
 20
25.7568864223
 30
0.0
 11
43.0012728409
 21
25.7446772505
 31
0.0
  0
LWPOLYLINE
  5
365
330
1F
100
AcDbEntity
  8
0
  6
Continuous
 62
     7
 48
3.0
370
    15
100
AcDbPolyline
 90
       15
 70
   128
 43
0.0
 10
43.1089358454
 20
25.5581791941
 10
43.1186232321
 20
25.5599629635
 10
43.1337453223
 20
25.5689601674
 10
43.1441650935
 20
25.5847257205
 10
43.1491094664
 20
25.6060909044
 10
43.1482119376
 20
25.6314707841
 10
43.1415389632
 20
25.6589832024
 10
43.1295854781
 20
25.6865876023
 10
43.1132381841
 20
25.7122367092
 10
43.0937093422
 20
25.7340282822
 10
43.0724472943
 20
25.7503460123
 10
43.0510289379
 20
25.7599799417
 10
43.0310429936
 20
25.7622152643
 10
43.0139714043
 20
25.7568864223
 10
43.0139714043
 20
25.7568864223
  0
LWPOLYLINE
  5
366
330
1F
100
AcDbEntity
  8
0
  6
Continuous
 62
     7
 48
3.0
370
    15
100
AcDbPolyline
 90
       14
 70
   128
 43
0.0
 10
43.1404271326
 20
25.5714765781
 10
43.147886627
 20
25.5771237689
 10
43.1583063982
 20
25.592889322
 10
43.1632507711
 20
25.6142545058
 10
43.1623532424
 20
25.6396343856
 10
43.1556802679
 20
25.6671468039
 10
43.1437267829
 20
25.6947512037
 10
43.1273794888
 20
25.7204003107
 10
43.107850647
 20
25.7421918836
 10
43.086588599
 20
25.7585096138
 10
43.0651702426
 20
25.7681435431
 10
43.0451842983
 20
25.7703788658
 10
43.028112709
 20
25.7650500237
 10
43.028112709
 20
25.7650500237
  0
LINE
  5
367
330
1F
100
AcDbEntity
  8
0
  6
Continuous
 62
     7
 48
3.0
370
    15
100
AcDbLine
 10
43.0470765508
 20
25.6341583596
 30
0.0
 11
43.0363150416
 21
25.6402774354
 31
0.0
  0
LINE
  5
368
330
1F
100
AcDbEntity
  8
0
  6
Continuous
 62
     7
 48
3.0
370
    15
100
AcDbLine
 10
43.0363150416
 20
25.6402774354
 30
0.0
 11
43.0362312872
 21
25.6531943987
 31
0.0
  0
LINE
  5
369
330
1F
100
AcDbEntity
  8
0
  6
Continuous
 62
     7
 48
3.0
370
    15
100
AcDbLine
 10
43.0363150416
 20
25.6402774354
 30
0.0
 11
43.0139712798
 21
25.6273786562
 31
0.0
  0
LINE
  5
36A
330
1F
100
AcDbEntity
  8
0
  6
Continuous
 62
     7
 48
3.0
370
    15
100
AcDbLine
 10
43.0474082083
 20
25.6176313816
 30
0.0
 11
43.0380884449
 21
25.6122511967
 31
0.0
  0
LINE
  5
36B
330
1F
100
AcDbEntity
  8
0
  6
Continuous
 62
     7
 48
3.0
370
    15
100
AcDbLine
 10
43.0125465836
 20
25.6560509596
 30
0.0
 11
43.0219070419
 21
25.6614546372
 31
0.0
  0
LINE
  5
36C
330
1F
100
AcDbEntity
  8
0
  6
Continuous
 62
     7
 48
3.0
370
    15
100
AcDbLine
 10
43.094885762
 20
25.5679783624
 30
0.0
 11
43.0860987663
 21
25.5830464155
 31
0.0
  0
LINE
  5
36D
330
1F
100
AcDbEntity
  8
0
  6
Continuous
 62
     7
 48
3.0
370
    15
100
AcDbLine
 10
43.0107479171
 20
25.7122594989
 30
0.0
 11
43.0021032915
 21
25.7270835466
 31
0.0
  0
ARC
  5
36E
330
1F
100
AcDbEntity
  8
0
  6
Continuous
 62
     7
 48
9.0
370
    15
100
AcDbCircle
 10
38.9168334957
 20
28.0729647604
 30
0.0
 40
0.1264874303699147
100
AcDbArc
 50
295.2924372744
 51
301.0309532944
  0
ARC
  5
36F
330
1F
100
AcDbEntity
  8
0
  6
Continuous
 62
     7
 48
9.0
370
    15
100
AcDbCircle
 10
39.1148709932
 20
28.0303061486
 30
0.0
 40
0.1599847580107816
100
AcDbArc
 50
206.4192000308
 51
213.084095785
  0
LWPOLYLINE
  5
370
330
1F
100
AcDbEntity
  8
0
  6
Continuous
 62
     7
 48
3.0
370
    15
100
AcDbPolyline
 90
        9
 70
   128
 43
0.0
 10
38.9808245205
 20
27.9429753639
 10
38.9802071273
 20
27.9425568326
 10
38.9801450271
 20
27.942455597
 10
38.9806382199
 20
27.9426719411
 10
38.9816847145
 20
27.9432047119
 10
38.983279533
 20
27.944051607
 10
38.9854153328
 20
27.9452089587
 10
38.9880821581
 20
27.9466708719
 10
38.9912676882
 20
27.9484310926
  0
ARC
  5
371
330
1F
100
AcDbEntity
  8
0
  6
Continuous
 62
     7
 48
9.0
370
    15
100
AcDbCircle
 10
39.069063999
 20
28.0626150017
 30
0.0
 40
0.1381674023294235
100
AcDbArc
 50
235.7324313869
 51
248.2447054312
  0
ARC
  5
372
330
1F
100
AcDbEntity
  8
0
  6
Continuous
 62
     7
 48
9.0
370
    15
100
AcDbCircle
 10
39.1349930249
 20
27.9528305248
 30
0.0
 40
0.1185982646460505
100
AcDbArc
 50
175.2066523807
 51
188.9946873426
  0
ARC
  5
373
330
1F
100
AcDbEntity
  8
0
  6
Continuous
 62
     7
 48
9.0
370
    15
100
AcDbCircle
 10
31.6362921098
 20
41.0411819498
 30
0.0
 40
15.01724539582574
100
AcDbArc
 50
299.4372105536
 51
299.6863428067
  0
ARC
  5
374
330
1F
100
AcDbEntity
  8
0
  6
Continuous
 62
     7
 48
9.0
370
    15
100
AcDbCircle
 10
38.9303174972
 20
27.923767248
 30
0.0
 40
0.1599992006387778
100
AcDbArc
 50
26.4190583761
 51
33.0833520602
  0
ARC
  5
375
330
1F
100
AcDbEntity
  8
0
  6
Continuous
 62
     7
 48
9.0
370
    15
100
AcDbCircle
 10
31.627062323
 20
41.057329939
 30
0.0
 40
15.01724539649505
100
AcDbArc
 50
299.4372105536
 51
299.6863428067
  0
ARC
  5
376
330
1F
100
AcDbEntity
  8
0
  6
Continuous
 62
     7
 48
9.0
370
    15
100
AcDbCircle
 10
39.0599927288
 20
28.0865518982
 30
0.0
 40
0.1197432811158989
100
AcDbArc
 50
230.2738899454
 51
244.0420674513
  0
ARC
  5
377
330
1F
100
AcDbEntity
  8
0
  6
Continuous
 62
     7
 48
9.0
370
    15
100
AcDbCircle
 10
39.119213301
 20
27.9730104716
 30
0.0
 40
0.1374342696961544
100
AcDbArc
 50
171.0226197853
 51
183.5172204639
  0
LINE
  5
378
330
1F
100
AcDbEntity
  8
0
  6
Continuous
 62
     7
 48
3.0
370
    15
100
AcDbLine
 10
39.0399866243
 20
27.9761206905
 30
0.0
 11
39.0168095496
 21
27.9627408501
 31
0.0
  0
LINE
  5
379
330
1F
100
AcDbEntity
  8
0
  6
Continuous
 62
     7
 48
3.0
370
    15
100
AcDbLine
 10
39.0736069911
 20
27.9949561877
 30
0.0
 11
39.0399866243
 21
27.9761206905
 31
0.0
  0
LWPOLYLINE
  5
37A
330
1F
100
AcDbEntity
  8
0
  6
Continuous
 62
     7
 48
3.0
370
    15
100
AcDbPolyline
 90
       14
 70
   128
 43
0.0
 10
39.095777146
 20
27.8900761121
 10
39.0990769207
 20
27.8922202085
 10
39.1110302813
 20
27.9060234801
 10
39.1177031314
 20
27.9258315179
 10
39.1186006601
 20
27.950175133
 10
39.1136562872
 20
27.9772488246
 10
39.1032366404
 20
28.0050448614
 10
39.0881145503
 20
28.0315016589
 10
39.0694115544
 20
28.054656969
 10
39.0485147653
 20
28.0727934494
 10
39.0269739507
 20
28.0845660523
 10
39.0063867916
 20
28.0891017487
 10
38.9882800326
 20
28.0860639705
 10
38.9838862236
 20
28.0838978557
  0
LWPOLYLINE
  5
37B
330
1F
100
AcDbEntity
  8
0
  6
Continuous
 62
     7
 48
3.0
370
    15
100
AcDbPolyline
 90
       14
 70
   128
 43
0.0
 10
39.1099184508
 20
27.8982397136
 10
39.1132182255
 20
27.90038381
 10
39.1251715861
 20
27.9141870816
 10
39.1318444361
 20
27.9339951194
 10
39.1327419649
 20
27.9583387345
 10
39.127797592
 20
27.9854124261
 10
39.1173779452
 20
28.0132084628
 10
39.1022558551
 20
28.0396652604
 10
39.0835528592
 20
28.0628205705
 10
39.06265607
 20
28.0809570508
 10
39.0411152555
 20
28.0927296538
 10
39.0205280963
 20
28.0972653502
 10
39.0024213373
 20
28.0942275719
 10
38.9980275284
 20
28.0920614572
  0
LINE
  5
37C
330
1F
100
AcDbEntity
  8
0
  6
Continuous
 62
     7
 48
3.0
370
    15
100
AcDbLine
 10
39.0399866243
 20
27.9761206905
 30
0.0
 11
39.0400565648
 21
27.9868192962
 31
0.0
  0
LINE
  5
37D
330
1F
100
AcDbEntity
  8
0
  6
Continuous
 62
     7
 48
3.0
370
    15
100
AcDbLine
 10
39.0400565648
 20
27.9868192962
 30
0.0
 11
39.0309942872
 21
27.9921294468
 31
0.0
  0
LINE
  5
37E
330
1F
100
AcDbEntity
  8
0
  6
Continuous
 62
     7
 48
3.0
370
    15
100
AcDbLine
 10
39.0166858469
 20
27.9609640441
 30
0.0
 11
39.0055458873
 21
27.9674917224
 31
0.0
  0
LINE
  5
37F
330
1F
100
AcDbEntity
  8
0
  6
Continuous
 62
     7
 48
3.0
370
    15
100
AcDbLine
 10
39.0055458873
 20
27.9674917224
 30
0.0
 11
39.0056267794
 21
27.9798767604
 31
0.0
  0
LINE
  5
380
330
1F
100
AcDbEntity
  8
0
  6
Continuous
 62
     7
 48
3.0
370
    15
100
AcDbLine
 10
39.0055458873
 20
27.9674917224
 30
0.0
 11
39.0051450359
 21
27.9672603159
 31
0.0
  0
LINE
  5
381
330
1F
100
AcDbEntity
  8
0
  6
Continuous
 62
     7
 48
3.0
370
    15
100
AcDbLine
 10
39.0052149765
 20
27.9779589216
 30
0.0
 11
39.0051450359
 21
27.9672603159
 31
0.0
  0
LINE
  5
382
330
1F
100
AcDbEntity
  8
0
  6
Continuous
 62
     7
 48
3.0
370
    15
100
AcDbLine
 10
39.0052149765
 20
27.9779589216
 30
0.0
 11
38.9820379018
 21
27.9645790811
 31
0.0
  0
LINE
  5
383
330
1F
100
AcDbEntity
  8
0
  6
Continuous
 62
     7
 48
3.0
370
    15
100
AcDbLine
 10
38.9912676882
 20
27.9484310926
 30
0.0
 11
39.0144447629
 21
27.961810933
 31
0.0
  0
LINE
  5
384
330
1F
100
AcDbEntity
  8
0
  6
Continuous
 62
     7
 48
3.0
370
    15
100
AcDbLine
 10
39.0051450359
 20
27.9672603159
 30
0.0
 11
39.0144447629
 21
27.961810933
 31
0.0
  0
LINE
  5
385
330
1F
100
AcDbEntity
  8
0
  6
Continuous
 62
     7
 48
3.0
370
    15
100
AcDbLine
 10
39.0144447629
 20
27.961810933
 30
0.0
 11
38.9808245205
 21
27.9429753639
 31
0.0
  0
LINE
  5
386
330
1F
100
AcDbEntity
  8
0
  6
Continuous
 62
     7
 48
3.0
370
    15
100
AcDbLine
 10
21.6413781632
 20
19.3482097362
 30
0.0
 11
21.6413781632
 21
18.9252097694
 31
0.0
  0
LINE
  5
387
330
1F
100
AcDbEntity
  8
0
  6
Continuous
 62
     7
 48
3.0
370
    15
100
AcDbLine
 10
30.579378004
 20
18.9252097694
 30
0.0
 11
21.6413781632
 21
18.9252097694
 31
0.0
  0
LINE
  5
388
330
1F
100
AcDbEntity
  8
0
  6
Continuous
 62
     7
 48
3.0
370
    15
100
AcDbLine
 10
30.579378004
 20
19.3482097362
 30
0.0
 11
30.579378004
 21
18.9252097694
 31
0.0
  0
LINE
  5
389
330
1F
100
AcDbEntity
  8
0
  6
Continuous
 62
     7
 48
3.0
370
    15
100
AcDbLine
 10
30.579378004
 20
19.42521002
 30
0.0
 11
30.579378004
 21
19.3482097362
 31
0.0
  0
LINE
  5
38A
330
1F
100
AcDbEntity
  8
0
  6
Continuous
 62
     7
 48
3.0
370
    15
100
AcDbLine
 10
21.6413781632
 20
19.42521002
 30
0.0
 11
21.6413781632
 21
19.3482097362
 31
0.0
  0
LINE
  5
38B
330
1F
100
AcDbEntity
  8
0
  6
Continuous
 62
     7
 48
3.0
370
    15
100
AcDbLine
 10
21.6413781632
 20
19.42521002
 30
0.0
 11
30.579378004
 21
19.42521002
 31
0.0
  0
LINE
  5
38C
330
1F
100
AcDbEntity
  8
0
  6
Continuous
 62
     7
 48
3.0
370
    15
100
AcDbLine
 10
21.6413781632
 20
19.42521002
 30
0.0
 11
21.6103781747
 21
19.42521002
 31
0.0
  0
LINE
  5
38D
330
1F
100
AcDbEntity
  8
0
  6
Continuous
 62
     7
 48
3.0
370
    15
100
AcDbLine
 10
21.6413781632
 20
19.3632100429
 30
0.0
 11
21.6103781747
 21
19.3632100429
 31
0.0
  0
LINE
  5
38E
330
1F
100
AcDbEntity
  8
0
  6
Continuous
 62
     7
 48
3.0
370
    15
100
AcDbLine
 10
30.579378004
 20
19.42521002
 30
0.0
 11
30.6103779926
 21
19.42521002
 31
0.0
  0
LINE
  5
38F
330
1F
100
AcDbEntity
  8
0
  6
Continuous
 62
     7
 48
3.0
370
    15
100
AcDbLine
 10
30.579378004
 20
19.3632100429
 30
0.0
 11
30.6103779926
 21
19.3632100429
 31
0.0
  0
LINE
  5
390
330
1F
100
AcDbEntity
  8
0
  6
Continuous
 62
     7
 48
3.0
370
    15
100
AcDbLine
 10
21.6103781747
 20
18.9872097465
 30
0.0
 11
21.6413781632
 21
18.9872097465
 31
0.0
  0
LINE
  5
391
330
1F
100
AcDbEntity
  8
0
  6
Continuous
 62
     7
 48
3.0
370
    15
100
AcDbLine
 10
30.579378004
 20
18.9872097465
 30
0.0
 11
30.6103779926
 21
18.9872097465
 31
0.0
  0
LINE
  5
392
330
1F
100
AcDbEntity
  8
0
  6
Continuous
 62
     7
 48
3.0
370
    15
100
AcDbLine
 10
30.579378004
 20
9.5022099847
 30
0.0
 11
30.579378004
 21
9.9252099515
 31
0.0
  0
LINE
  5
393
330
1F
100
AcDbEntity
  8
0
  6
Continuous
 62
     7
 48
3.0
370
    15
100
AcDbLine
 10
21.6413781632
 20
9.5022099847
 30
0.0
 11
21.6413781632
 21
9.9252099515
 31
0.0
  0
LINE
  5
394
330
1F
100
AcDbEntity
  8
0
  6
Continuous
 62
     7
 48
3.0
370
    15
100
AcDbLine
 10
21.6413781632
 20
9.9252099515
 30
0.0
 11
30.579378004
 21
9.9252099515
 31
0.0
  0
LINE
  5
395
330
1F
100
AcDbEntity
  8
0
  6
Continuous
 62
     7
 48
3.0
370
    15
100
AcDbLine
 10
30.579378004
 20
9.4252097009
 30
0.0
 11
30.579378004
 21
9.5022099847
 31
0.0
  0
LINE
  5
396
330
1F
100
AcDbEntity
  8
0
  6
Continuous
 62
     7
 48
3.0
370
    15
100
AcDbLine
 10
30.579378004
 20
9.4252097009
 30
0.0
 11
21.6413781632
 21
9.4252097009
 31
0.0
  0
LINE
  5
397
330
1F
100
AcDbEntity
  8
0
  6
Continuous
 62
     7
 48
3.0
370
    15
100
AcDbLine
 10
21.6413781632
 20
9.4252097009
 30
0.0
 11
21.6413781632
 21
9.5022099847
 31
0.0
  0
LINE
  5
398
330
1F
100
AcDbEntity
  8
0
  6
Continuous
 62
     7
 48
3.0
370
    15
100
AcDbLine
 10
21.6413781632
 20
9.4252097009
 30
0.0
 11
21.6103781747
 21
9.4252097009
 31
0.0
  0
LINE
  5
399
330
1F
100
AcDbEntity
  8
0
  6
Continuous
 62
     7
 48
3.0
370
    15
100
AcDbLine
 10
21.6413781632
 20
9.487209678
 30
0.0
 11
21.6103781747
 21
9.487209678
 31
0.0
  0
LINE
  5
39A
330
1F
100
AcDbEntity
  8
0
  6
Continuous
 62
     7
 48
3.0
370
    15
100
AcDbLine
 10
30.579378004
 20
9.4252097009
 30
0.0
 11
30.6103779926
 21
9.4252097009
 31
0.0
  0
LINE
  5
39B
330
1F
100
AcDbEntity
  8
0
  6
Continuous
 62
     7
 48
3.0
370
    15
100
AcDbLine
 10
30.579378004
 20
9.487209678
 30
0.0
 11
30.6103779926
 21
9.487209678
 31
0.0
  0
LINE
  5
39C
330
1F
100
AcDbEntity
  8
0
  6
Continuous
 62
     7
 48
3.0
370
    15
100
AcDbLine
 10
30.6103779926
 20
9.8632099744
 30
0.0
 11
30.579378004
 21
9.8632099744
 31
0.0
  0
LINE
  5
39D
330
1F
100
AcDbEntity
  8
0
  6
Continuous
 62
     7
 48
3.0
370
    15
100
AcDbLine
 10
21.6413781632
 20
9.8632099744
 30
0.0
 11
21.6103781747
 21
9.8632099744
 31
0.0
  0
LINE
  5
39E
330
1F
100
AcDbEntity
  8
0
  6
Continuous
 62
     7
 48
3.0
370
    15
100
AcDbLine
 10
30.6103779926
 20
19.42521002
 30
0.0
 11
30.6103779926
 21
9.4252097009
 31
0.0
  0
LINE
  5
39F
330
1F
100
AcDbEntity
  8
0
  6
Continuous
 62
     7
 48
3.0
370
    15
100
AcDbLine
 10
30.6103779926
 20
19.42521002
 30
0.0
 11
31.0333779594
 21
19.42521002
 31
0.0
  0
LINE
  5
3A0
330
1F
100
AcDbEntity
  8
0
  6
Continuous
 62
     7
 48
3.0
370
    15
100
AcDbLine
 10
30.6103779926
 20
9.4252097009
 30
0.0
 11
31.0333779594
 21
9.4252097009
 31
0.0
  0
CIRCLE
  5
3A1
330
1F
100
AcDbEntity
  8
0
  6
Continuous
 62
     7
 48
9.0
370
    15
100
AcDbCircle
 10
30.8603780836
 20
17.4252098604
 30
0.0
 40
0.0850000000000009
  0
CIRCLE
  5
3A2
330
1F
100
AcDbEntity
  8
0
  6
Continuous
 62
     7
 48
9.0
370
    15
100
AcDbCircle
 10
30.8603780836
 20
11.4252098604
 30
0.0
 40
0.0850000000000009
  0
LINE
  5
3A3
330
1F
100
AcDbEntity
  8
0
  6
Continuous
 62
     7
 48
3.0
370
    15
100
AcDbLine
 10
21.1873782079
 20
19.42521002
 30
0.0
 11
21.6103781747
 21
19.42521002
 31
0.0
  0
LINE
  5
3A4
330
1F
100
AcDbEntity
  8
0
  6
Continuous
 62
     7
 48
3.0
370
    15
100
AcDbLine
 10
21.6103781747
 20
19.42521002
 30
0.0
 11
21.6103781747
 21
9.4252097009
 31
0.0
  0
LINE
  5
3A5
330
1F
100
AcDbEntity
  8
0
  6
Continuous
 62
     7
 48
3.0
370
    15
100
AcDbLine
 10
21.1873782079
 20
9.4252097009
 30
0.0
 11
21.6103781747
 21
9.4252097009
 31
0.0
  0
CIRCLE
  5
3A6
330
1F
100
AcDbEntity
  8
0
  6
Continuous
 62
     7
 48
9.0
370
    15
100
AcDbCircle
 10
21.3603780836
 20
17.4252098604
 30
0.0
 40
0.0850000000000009
  0
CIRCLE
  5
3A7
330
1F
100
AcDbEntity
  8
0
  6
Continuous
 62
     7
 48
9.0
370
    15
100
AcDbCircle
 10
21.3603780836
 20
11.4252098604
 30
0.0
 40
0.0850000000000009
  0
LINE
  5
3A8
330
1F
100
AcDbEntity
  8
0
  6
Continuous
 62
     7
 48
3.0
370
    15
100
AcDbLine
 10
21.110377924
 20
19.42521002
 30
0.0
 11
21.110377924
 21
9.4252097009
 31
0.0
  0
LINE
  5
3A9
330
1F
100
AcDbEntity
  8
0
  6
Continuous
 62
     7
 48
3.0
370
    15
100
AcDbLine
 10
21.110377924
 20
19.42521002
 30
0.0
 11
21.1873782079
 21
19.42521002
 31
0.0
  0
LINE
  5
3AA
330
1F
100
AcDbEntity
  8
0
  6
Continuous
 62
     7
 48
3.0
370
    15
100
AcDbLine
 10
21.110377924
 20
9.4252097009
 30
0.0
 11
21.1873782079
 21
9.4252097009
 31
0.0
  0
LINE
  5
3AB
330
1F
100
AcDbEntity
  8
0
  6
Continuous
 62
     7
 48
3.0
370
    15
100
AcDbLine
 10
31.1103782432
 20
19.42521002
 30
0.0
 11
31.1103782432
 21
9.4252097009
 31
0.0
  0
LINE
  5
3AC
330
1F
100
AcDbEntity
  8
0
  6
Continuous
 62
     7
 48
3.0
370
    15
100
AcDbLine
 10
31.0333779594
 20
9.4252097009
 30
0.0
 11
31.1103782432
 21
9.4252097009
 31
0.0
  0
LINE
  5
3AD
330
1F
100
AcDbEntity
  8
0
  6
Continuous
 62
     7
 48
3.0
370
    15
100
AcDbLine
 10
31.0333779594
 20
19.42521002
 30
0.0
 11
31.1103782432
 21
19.42521002
 31
0.0
  0
CIRCLE
  5
3AE
330
1F
100
AcDbEntity
  8
0
  6
Continuous
 62
     7
 48
9.0
370
    15
100
AcDbCircle
 10
23.1103780836
 20
17.4252098604
 30
0.0
 40
0.0850000000000009
  0
CIRCLE
  5
3AF
330
1F
100
AcDbEntity
  8
0
  6
Continuous
 62
     7
 48
9.0
370
    15
100
AcDbCircle
 10
23.1103780836
 20
17.4252098604
 30
0.0
 40
0.6416128499307305
  0
ARC
  5
3B0
330
1F
100
AcDbEntity
  8
0
  6
Continuous
 62
     7
 48
9.0
370
    15
100
AcDbCircle
 10
30.6103780836
 20
17.9252098604
 30
0.0
 40
0.1405000000000065
100
AcDbArc
 50
90.0
 51
180.0
  0
ARC
  5
3B1
330
1F
100
AcDbEntity
  8
0
  6
Continuous
 62
     7
 48
9.0
370
    15
100
AcDbCircle
 10
30.6103780836
 20
17.9252098604
 30
0.0
 40
0.1405000000000065
100
AcDbArc
 50
180.0
 51
270.0
  0
ARC
  5
3B2
330
1F
100
AcDbEntity
  8
0
  6
Continuous
 62
     7
 48
9.0
370
    15
100
AcDbCircle
 10
21.6103780836
 20
17.9252098604
 30
0.0
 40
0.140500000000003
100
AcDbArc
 50
270.0
 51
0.0
  0
ARC
  5
3B3
330
1F
100
AcDbEntity
  8
0
  6
Continuous
 62
     7
 48
9.0
370
    15
100
AcDbCircle
 10
21.6103780836
 20
17.9252098604
 30
0.0
 40
0.140500000000003
100
AcDbArc
 50
0.0
 51
90.0
  0
ARC
  5
3B4
330
1F
100
AcDbEntity
  8
0
  6
Continuous
 62
     7
 48
9.0
370
    15
100
AcDbCircle
 10
21.6103780836
 20
10.9252098604
 30
0.0
 40
0.1405000000000012
100
AcDbArc
 50
270.0
 51
90.0
  0
ARC
  5
3B5
330
1F
100
AcDbEntity
  8
0
  6
Continuous
 62
     7
 48
9.0
370
    15
100
AcDbCircle
 10
30.6103780836
 20
10.9252098604
 30
0.0
 40
0.1405000000000012
100
AcDbArc
 50
90.0
 51
270.0
  0
LINE
  5
3B6
330
1F
100
AcDbEntity
  8
0
  6
HIDDEN
 62
     7
 48
3.0
370
     0
100
AcDbLine
 10
21.6413781632
 20
19.3632100429
 30
0.0
 11
30.579378004
 21
19.3632100429
 31
0.0
  0
LINE
  5
3B7
330
1F
100
AcDbEntity
  8
0
  6
HIDDEN
 62
     7
 48
3.0
370
     0
100
AcDbLine
 10
21.6103781747
 20
19.3632100429
 30
0.0
 11
21.249378185
 21
19.3632100429
 31
0.0
  0
LINE
  5
3B8
330
1F
100
AcDbEntity
  8
0
  6
HIDDEN
 62
     7
 48
3.0
370
     0
100
AcDbLine
 10
30.6103779926
 20
19.3632100429
 30
0.0
 11
30.9713779823
 21
19.3632100429
 31
0.0
  0
ARC
  5
3B9
330
1F
100
AcDbEntity
  8
0
  6
HIDDEN
 62
     7
 48
9.0
370
     0
100
AcDbCircle
 10
21.2493780836
 20
19.3482098604
 30
0.0
 40
0.0770000000000017
100
AcDbArc
 50
90.0
 51
180.0
  0
ARC
  5
3BA
330
1F
100
AcDbEntity
  8
0
  6
HIDDEN
 62
     7
 48
9.0
370
     0
100
AcDbCircle
 10
21.2493780836
 20
19.3482098604
 30
0.0
 40
0.0150000000000006
100
AcDbArc
 50
90.0
 51
180.0
  0
ARC
  5
3BB
330
1F
100
AcDbEntity
  8
0
  6
HIDDEN
 62
     7
 48
9.0
370
     0
100
AcDbCircle
 10
30.9713780836
 20
19.3482098604
 30
0.0
 40
0.0770000000000088
100
AcDbArc
 50
0.0
 51
90.0
  0
ARC
  5
3BC
330
1F
100
AcDbEntity
  8
0
  6
HIDDEN
 62
     7
 48
9.0
370
     0
100
AcDbCircle
 10
30.9713780836
 20
19.3482098604
 30
0.0
 40
0.0150000000000041
100
AcDbArc
 50
0.0
 51
90.0
  0
LINE
  5
3BD
330
1F
100
AcDbEntity
  8
0
  6
HIDDEN
 62
     7
 48
3.0
370
     0
100
AcDbLine
 10
31.0483782661
 20
18.9872097465
 30
0.0
 11
30.9863779957
 21
18.9872097465
 31
0.0
  0
LINE
  5
3BE
330
1F
100
AcDbEntity
  8
0
  6
HIDDEN
 62
     7
 48
3.0
370
     0
100
AcDbLine
 10
30.9863779957
 20
18.9872097465
 30
0.0
 11
30.9863779957
 21
19.3482097362
 31
0.0
  0
LINE
  5
3BF
330
1F
100
AcDbEntity
  8
0
  6
HIDDEN
 62
     7
 48
3.0
370
     0
100
AcDbLine
 10
21.1723779012
 20
18.9872097465
 30
0.0
 11
21.2343781716
 21
18.9872097465
 31
0.0
  0
LINE
  5
3C0
330
1F
100
AcDbEntity
  8
0
  6
HIDDEN
 62
     7
 48
3.0
370
     0
100
AcDbLine
 10
21.2343781716
 20
18.9872097465
 30
0.0
 11
21.2343781716
 21
19.3482097362
 31
0.0
  0
LINE
  5
3C1
330
1F
100
AcDbEntity
  8
0
  6
HIDDEN
 62
     7
 48
3.0
370
     0
100
AcDbLine
 10
30.9713779823
 20
19.3632100429
 30
0.0
 11
30.9713779823
 21
19.42521002
 31
0.0
  0
LINE
  5
3C2
330
1F
100
AcDbEntity
  8
0
  6
HIDDEN
 62
     7
 48
3.0
370
     0
100
AcDbLine
 10
21.249378185
 20
19.3482097362
 30
0.0
 11
21.249378185
 21
19.3632100429
 31
0.0
  0
LINE
  5
3C3
330
1F
100
AcDbEntity
  8
0
  6
HIDDEN
 62
     7
 48
3.0
370
     0
100
AcDbLine
 10
30.9713779823
 20
19.3482097362
 30
0.0
 11
30.9713779823
 21
19.3632100429
 31
0.0
  0
LINE
  5
3C4
330
1F
100
AcDbEntity
  8
0
  6
HIDDEN
 62
     7
 48
3.0
370
     0
100
AcDbLine
 10
21.249378185
 20
19.3632100429
 30
0.0
 11
21.249378185
 21
19.42521002
 31
0.0
  0
LINE
  5
3C5
330
1F
100
AcDbEntity
  8
0
  6
HIDDEN
 62
     7
 48
3.0
370
     0
100
AcDbLine
 10
21.249378185
 20
18.9872097465
 30
0.0
 11
21.249378185
 21
19.3482097362
 31
0.0
  0
LINE
  5
3C6
330
1F
100
AcDbEntity
  8
0
  6
HIDDEN
 62
     7
 48
3.0
370
     0
100
AcDbLine
 10
30.9713779823
 20
18.9872097465
 30
0.0
 11
30.9713779823
 21
19.3482097362
 31
0.0
  0
LINE
  5
3C7
330
1F
100
AcDbEntity
  8
0
  6
HIDDEN
 62
     7
 48
3.0
370
     0
100
AcDbLine
 10
21.249378185
 20
18.9872097465
 30
0.0
 11
21.6103781747
 21
18.9872097465
 31
0.0
  0
LINE
  5
3C8
330
1F
100
AcDbEntity
  8
0
  6
HIDDEN
 62
     7
 48
3.0
370
     0
100
AcDbLine
 10
21.6413781632
 20
18.9872097465
 30
0.0
 11
30.579378004
 21
18.9872097465
 31
0.0
  0
LINE
  5
3C9
330
1F
100
AcDbEntity
  8
0
  6
HIDDEN
 62
     7
 48
3.0
370
     0
100
AcDbLine
 10
30.6103779926
 20
18.9872097465
 30
0.0
 11
30.9713779823
 21
18.9872097465
 31
0.0
  0
LINE
  5
3CA
330
1F
100
AcDbEntity
  8
0
  6
HIDDEN
 62
     7
 48
3.0
370
     0
100
AcDbLine
 10
30.579378004
 20
9.487209678
 30
0.0
 11
21.6413781632
 21
9.487209678
 31
0.0
  0
LINE
  5
3CB
330
1F
100
AcDbEntity
  8
0
  6
HIDDEN
 62
     7
 48
3.0
370
     0
100
AcDbLine
 10
21.6103781747
 20
9.487209678
 30
0.0
 11
21.249378185
 21
9.487209678
 31
0.0
  0
LINE
  5
3CC
330
1F
100
AcDbEntity
  8
0
  6
HIDDEN
 62
     7
 48
3.0
370
     0
100
AcDbLine
 10
30.6103779926
 20
9.487209678
 30
0.0
 11
30.9713779823
 21
9.487209678
 31
0.0
  0
LINE
  5
3CD
330
1F
100
AcDbEntity
  8
0
  6
HIDDEN
 62
     7
 48
3.0
370
     0
100
AcDbLine
 10
21.2343781716
 20
9.8632099744
 30
0.0
 11
21.2343781716
 21
9.5022099847
 31
0.0
  0
LINE
  5
3CE
330
1F
100
AcDbEntity
  8
0
  6
HIDDEN
 62
     7
 48
3.0
370
     0
100
AcDbLine
 10
21.1723779012
 20
9.8632099744
 30
0.0
 11
21.2343781716
 21
9.8632099744
 31
0.0
  0
ARC
  5
3CF
330
1F
100
AcDbEntity
  8
0
  6
HIDDEN
 62
     7
 48
9.0
370
     0
100
AcDbCircle
 10
21.2493780836
 20
9.5022098604
 30
0.0
 40
0.0150000000000006
100
AcDbArc
 50
180.0
 51
270.0
  0
ARC
  5
3D0
330
1F
100
AcDbEntity
  8
0
  6
HIDDEN
 62
     7
 48
9.0
370
     0
100
AcDbCircle
 10
21.2493780836
 20
9.5022098604
 30
0.0
 40
0.0770000000000053
100
AcDbArc
 50
180.0
 51
270.0
  0
LINE
  5
3D1
330
1F
100
AcDbEntity
  8
0
  6
HIDDEN
 62
     7
 48
3.0
370
     0
100
AcDbLine
 10
30.9863779957
 20
9.8632099744
 30
0.0
 11
30.9863779957
 21
9.5022099847
 31
0.0
  0
LINE
  5
3D2
330
1F
100
AcDbEntity
  8
0
  6
HIDDEN
 62
     7
 48
3.0
370
     0
100
AcDbLine
 10
31.0483782661
 20
9.8632099744
 30
0.0
 11
30.9863779957
 21
9.8632099744
 31
0.0
  0
ARC
  5
3D3
330
1F
100
AcDbEntity
  8
0
  6
HIDDEN
 62
     7
 48
9.0
370
     0
100
AcDbCircle
 10
30.9713780836
 20
9.5022098604
 30
0.0
 40
0.077
100
AcDbArc
 50
270.0
 51
0.0
  0
ARC
  5
3D4
330
1F
100
AcDbEntity
  8
0
  6
HIDDEN
 62
     7
 48
9.0
370
     0
100
AcDbCircle
 10
30.9713780836
 20
9.5022098604
 30
0.0
 40
0.0150000000000041
100
AcDbArc
 50
270.0
 51
0.0
  0
LINE
  5
3D5
330
1F
100
AcDbEntity
  8
0
  6
HIDDEN
 62
     7
 48
3.0
370
     0
100
AcDbLine
 10
30.9713779823
 20
9.5022099847
 30
0.0
 11
30.9713779823
 21
9.487209678
 31
0.0
  0
LINE
  5
3D6
330
1F
100
AcDbEntity
  8
0
  6
HIDDEN
 62
     7
 48
3.0
370
     0
100
AcDbLine
 10
21.249378185
 20
9.5022099847
 30
0.0
 11
21.249378185
 21
9.487209678
 31
0.0
  0
LINE
  5
3D7
330
1F
100
AcDbEntity
  8
0
  6
HIDDEN
 62
     7
 48
3.0
370
     0
100
AcDbLine
 10
21.249378185
 20
9.487209678
 30
0.0
 11
21.249378185
 21
9.4252097009
 31
0.0
  0
LINE
  5
3D8
330
1F
100
AcDbEntity
  8
0
  6
HIDDEN
 62
     7
 48
3.0
370
     0
100
AcDbLine
 10
30.9713779823
 20
9.487209678
 30
0.0
 11
30.9713779823
 21
9.4252097009
 31
0.0
  0
LINE
  5
3D9
330
1F
100
AcDbEntity
  8
0
  6
HIDDEN
 62
     7
 48
3.0
370
     0
100
AcDbLine
 10
30.9713779823
 20
9.8632099744
 30
0.0
 11
30.9713779823
 21
9.5022099847
 31
0.0
  0
LINE
  5
3DA
330
1F
100
AcDbEntity
  8
0
  6
HIDDEN
 62
     7
 48
3.0
370
     0
100
AcDbLine
 10
30.9713779823
 20
9.8632099744
 30
0.0
 11
30.6103779926
 21
9.8632099744
 31
0.0
  0
LINE
  5
3DB
330
1F
100
AcDbEntity
  8
0
  6
HIDDEN
 62
     7
 48
3.0
370
     0
100
AcDbLine
 10
30.579378004
 20
9.8632099744
 30
0.0
 11
21.6413781632
 21
9.8632099744
 31
0.0
  0
LINE
  5
3DC
330
1F
100
AcDbEntity
  8
0
  6
HIDDEN
 62
     7
 48
3.0
370
     0
100
AcDbLine
 10
21.6103781747
 20
9.8632099744
 30
0.0
 11
21.249378185
 21
9.8632099744
 31
0.0
  0
LINE
  5
3DD
330
1F
100
AcDbEntity
  8
0
  6
HIDDEN
 62
     7
 48
3.0
370
     0
100
AcDbLine
 10
21.249378185
 20
9.8632099744
 30
0.0
 11
21.249378185
 21
9.5022099847
 31
0.0
  0
LINE
  5
3DE
330
1F
100
AcDbEntity
  8
0
  6
HIDDEN
 62
     7
 48
3.0
370
     0
100
AcDbLine
 10
21.1723779012
 20
19.42521002
 30
0.0
 11
21.1723779012
 21
9.4252097009
 31
0.0
  0
LINE
  5
3DF
330
1F
100
AcDbEntity
  8
0
  6
HIDDEN
 62
     7
 48
3.0
370
     0
100
AcDbLine
 10
31.0483782661
 20
19.42521002
 30
0.0
 11
31.0483782661
 21
9.4252097009
 31
0.0
  0
CIRCLE
  5
3E0
330
1F
100
AcDbEntity
  8
0
  6
HIDDEN
 62
     7
 48
9.0
370
     0
100
AcDbCircle
 10
23.1103780836
 20
17.4252098604
 30
0.0
 40
0.1469999999999985
  0
ARC
  5
3E1
330
1F
100
AcDbEntity
  8
0
  6
HIDDEN
 62
     7
 48
9.0
370
     0
100
AcDbCircle
 10
30.6103780836
 20
17.9252098604
 30
0.0
 40
0.1404999999999994
100
AcDbArc
 50
270.0
 51
90.0
  0
ARC
  5
3E2
330
1F
100
AcDbEntity
  8
0
  6
HIDDEN
 62
     7
 48
9.0
370
     0
100
AcDbCircle
 10
21.6103780836
 20
17.9252098604
 30
0.0
 40
0.1404999999999994
100
AcDbArc
 50
90.0
 51
270.0
  0
ARC
  5
3E3
330
1F
100
AcDbEntity
  8
0
  6
HIDDEN
 62
     7
 48
9.0
370
     0
100
AcDbCircle
 10
21.6103780836
 20
10.9252098604
 30
0.0
 40
0.1405000000000012
100
AcDbArc
 50
90.0
 51
180.0
  0
ARC
  5
3E4
330
1F
100
AcDbEntity
  8
0
  6
HIDDEN
 62
     7
 48
9.0
370
     0
100
AcDbCircle
 10
21.6103780836
 20
10.9252098604
 30
0.0
 40
0.1404999999999994
100
AcDbArc
 50
180.0
 51
270.0
  0
ARC
  5
3E5
330
1F
100
AcDbEntity
  8
0
  6
HIDDEN
 62
     7
 48
9.0
370
     0
100
AcDbCircle
 10
30.6103780836
 20
10.9252098604
 30
0.0
 40
0.1404999999999994
100
AcDbArc
 50
270.0
 51
0.0
  0
ARC
  5
3E6
330
1F
100
AcDbEntity
  8
0
  6
HIDDEN
 62
     7
 48
9.0
370
     0
100
AcDbCircle
 10
30.6103780836
 20
10.9252098604
 30
0.0
 40
0.1405000000000012
100
AcDbArc
 50
0.0
 51
90.0
  0
CIRCLE
  5
3E7
330
1F
100
AcDbEntity
  8
0
  6
HIDDEN
 62
     7
 48
9.0
370
     0
100
AcDbCircle
 10
23.1103780836
 20
17.4252098604
 30
0.0
 40
0.6249999999999964
  0
DIMENSION
  5
3E8
330
1F
100
AcDbEntity
  8
0
  6
Continuous
 62
     7
 48
3.0
370
     0
100
AcDbDimension
  2
*D14
 10
31.1103780836
 20
16.6366749597
 30
0.0
 11
28.7904170562
 21
16.6366749597
 31
0.0
 70
   160
 71
     2
 42
-1.0
  3
SLDDIMSTYLE3
100
AcDbAlignedDimension
 13
30.6103780836
 23
19.4252098604
 33
0.0
 14
31.1103780836
 24
19.4252098604
 34
0.0
100
AcDbRotatedDimension
  0
INSERT
  5
3FD
102
{ACAD_REACTORS
330
3FE
102
}
330
1F
100
AcDbEntity
  8
0
  6
Continuous
 62
     7
 48
3.0
370
     0
100
AcDbBlockReference
  2
SW_NOTE_5
 10
24.8615864285
 20
20.7745230478
 30
0.0
  0
LEADER
  5
3FE
330
1F
100
AcDbEntity
  8
0
  6
Continuous
 62
     7
 48
3.0
370
     0
100
AcDbLeader
  3
SLDDIMSTYLE1
 73
     2
 76
     3
 10
23.3186115438
 20
18.0320919538
 30
0.0
 10
24.1115864285
 20
20.7745230478
 30
0.0
 10
24.8615864285
 20
20.7745230478
 30
0.0
340
3FD
  0
MTEXT
  5
3FF
330
1F
100
AcDbEntity
  8
0
  6
Continuous
 62
     7
 48
3.0
370
     0
100
AcDbMText
 10
24.1125944677
 20
8.7033214033
 30
0.0
 40
0.375
 41
0.0
 71
     1
 72
     1
  1
\LCOVER REMOVED
  7
SLDTEXTSTYLE0
 73
     1
 44
1.0
  0
ENDSEC
  0
SECTION
  2
OBJECTS
  0
DICTIONARY
  5
C
330
0
100
AcDbDictionary
281
     1
  3
ACAD_GROUP
350
D
  3
ACAD_LAYOUT
350
1A
  3
ACAD_MATERIAL
350
3B
  3
ACAD_MLEADERSTYLE
350
402
  3
ACAD_MLINESTYLE
350
17
  3
ACAD_PLOTSETTINGS
350
19
  3
ACAD_PLOTSTYLENAME
350
E
  3
ACAD_SCALELIST
350
58
  3
ACAD_VISUALSTYLE
350
2A
  3
AcDbVariableDictionary
350
400
  0
DICTIONARY
  5
D
102
{ACAD_REACTORS
330
C
102
}
330
C
100
AcDbDictionary
281
     1
  0
DICTIONARY
  5
1A
102
{ACAD_REACTORS
330
C
102
}
330
C
100
AcDbDictionary
281
     1
  3
Layout1
350
1E
  3
Layout2
350
26
  3
Model
350
22
  0
DICTIONARY
  5
3B
102
{ACAD_REACTORS
330
C
102
}
330
C
100
AcDbDictionary
281
     1
  3
ByBlock
350
3D
  3
ByLayer
350
3C
  3
Global
350
3E
  0
DICTIONARY
  5
402
102
{ACAD_REACTORS
330
C
102
}
330
C
100
AcDbDictionary
281
     1
  0
DICTIONARY
  5
17
102
{ACAD_REACTORS
330
C
102
}
330
C
100
AcDbDictionary
281
     1
  3
Standard
350
18
  0
DICTIONARY
  5
19
102
{ACAD_REACTORS
330
C
102
}
330
C
100
AcDbDictionary
281
     1
  0
ACDBDICTIONARYWDFLT
  5
E
102
{ACAD_REACTORS
330
C
102
}
330
C
100
AcDbDictionary
281
     1
  3
Normal
350
F
100
AcDbDictionaryWithDefault
340
F
  0
DICTIONARY
  5
58
102
{ACAD_REACTORS
330
C
102
}
330
C
100
AcDbDictionary
281
     1
  3
A0
350
59
  3
A1
350
5A
  3
A2
350
5B
  3
A3
350
5C
  3
A4
350
5D
  3
A5
350
5E
  3
A6
350
5F
  3
A7
350
60
  3
A8
350
61
  3
A9
350
62
  3
B0
350
63
  3
B1
350
64
  3
B2
350
65
  3
B3
350
66
  3
B4
350
67
  3
B5
350
68
  3
B6
350
69
  3
B7
350
6A
  3
B8
350
6B
  3
B9
350
6C
  3
C0
350
6D
  3
C1
350
6E
  3
C2
350
6F
  3
C3
350
70
  3
C4
350
71
  3
C5
350
72
  3
C6
350
73
  3
C7
350
74
  3
C8
350
75
  3
C9
350
76
  3
D0
350
77
  3
D1
350
78
  3
D2
350
79
  0
DICTIONARY
  5
2A
102
{ACAD_REACTORS
330
C
102
}
330
C
100
AcDbDictionary
281
     1
  3
2dWireframe
350
2F
  3
3D Hidden
350
31
  3
3dWireframe
350
30
  3
Basic
350
32
  3
Brighten
350
36
  3
ColorChange
350
3A
  3
Conceptual
350
34
  3
Dim
350
35
  3
Facepattern
350
39
  3
Flat
350
2B
  3
FlatWithEdges
350
2C
  3
Gouraud
350
2D
  3
GouraudWithEdges
350
2E
  3
Linepattern
350
38
  3
Realistic
350
33
  3
Thicken
350
37
  0
DICTIONARY
  5
400
102
{ACAD_REACTORS
330
C
102
}
330
C
100
AcDbDictionary
281
     1
  3
CANNOSCALE
350
403
  3
DIMASSOC
350
404
  3
HIDETEXT
350
405
  0
LAYOUT
  5
1E
102
{ACAD_REACTORS
330
1A
102
}
330
1A
100
AcDbPlotSettings
  1

  2
none_device
  4

  6

 40
0.0
 41
0.0
 42
0.0
 43
0.0
 44
0.0
 45
0.0
 46
0.0
 47
0.0
 48
0.0
 49
0.0
140
0.0
141
0.0
142
1.0
143
1.0
 70
   688
 72
     0
 73
     0
 74
     5
  7

 75
    16
147
1.0
148
0.0
149
0.0
100
AcDbLayout
  1
Layout1
 70
     1
 71
     1
 10
0.0
 20
0.0
 11
12.0
 21
9.0
 12
0.0
 22
0.0
 32
0.0
 14
1.0000000000E+20
 24
1.0000000000E+20
 34
1.0000000000E+20
 15
-1.0000000000E+20
 25
-1.0000000000E+20
 35
-1.0000000000E+20
146
0.0
 13
0.0
 23
0.0
 33
0.0
 16
1.0
 26
0.0
 36
0.0
 17
0.0
 27
1.0
 37
0.0
 76
     0
330
1B
  0
LAYOUT
  5
26
102
{ACAD_REACTORS
330
1A
102
}
330
1A
100
AcDbPlotSettings
  1

  2
none_device
  4

  6

 40
0.0
 41
0.0
 42
0.0
 43
0.0
 44
0.0
 45
0.0
 46
0.0
 47
0.0
 48
0.0
 49
0.0
140
0.0
141
0.0
142
1.0
143
1.0
 70
   688
 72
     0
 73
     0
 74
     5
  7

 75
    16
147
1.0
148
0.0
149
0.0
100
AcDbLayout
  1
Layout2
 70
     1
 71
     2
 10
0.0
 20
0.0
 11
0.0
 21
0.0
 12
0.0
 22
0.0
 32
0.0
 14
0.0
 24
0.0
 34
0.0
 15
0.0
 25
0.0
 35
0.0
146
0.0
 13
0.0
 23
0.0
 33
0.0
 16
1.0
 26
0.0
 36
0.0
 17
0.0
 27
1.0
 37
0.0
 76
     0
330
23
  0
LAYOUT
  5
22
102
{ACAD_REACTORS
330
1A
102
}
330
1A
100
AcDbPlotSettings
  1

  2
none_device
  4

  6

 40
0.0
 41
0.0
 42
0.0
 43
0.0
 44
0.0
 45
0.0
 46
0.0
 47
0.0
 48
0.0
 49
0.0
140
0.0
141
0.0
142
1.0
143
1.0
 70
  1712
 72
     0
 73
     0
 74
     0
  7

 75
     0
147
1.0
148
0.0
149
0.0
100
AcDbLayout
  1
Model
 70
     1
 71
     0
 10
0.0
 20
0.0
 11
51.0
 21
33.0
 12
0.0
 22
0.0
 32
0.0
 14
0.0
 24
0.0
 34
0.0
 15
51.0
 25
33.0
 35
0.0
146
0.0
 13
0.0
 23
0.0
 33
0.0
 16
1.0
 26
0.0
 36
0.0
 17
0.0
 27
1.0
 37
0.0
 76
     0
330
1F
331
29
  0
MATERIAL
  5
3D
102
{ACAD_REACTORS
330
3B
102
}
102
{ACAD_XDICTIONARY
360
428
102
}
330
3B
100
AcDbMaterial
  1
ByBlock
  0
MATERIAL
  5
3C
102
{ACAD_REACTORS
330
3B
102
}
102
{ACAD_XDICTIONARY
360
426
102
}
330
3B
100
AcDbMaterial
  1
ByLayer
  0
MATERIAL
  5
3E
102
{ACAD_REACTORS
330
3B
102
}
102
{ACAD_XDICTIONARY
360
42A
102
}
330
3B
100
AcDbMaterial
  1
Global
  0
MLINESTYLE
  5
18
102
{ACAD_REACTORS
330
17
102
}
330
17
100
AcDbMlineStyle
  2
Standard
 70
     0
  3

 62
   256
 51
90.0
 52
90.0
 71
     2
 49
0.5
 62
   256
  6
BYLAYER
 49
-0.5
 62
   256
  6
BYLAYER
  0
ACDBPLACEHOLDER
  5
F
102
{ACAD_REACTORS
330
E
102
}
330
E
  0
SCALE
  5
59
102
{ACAD_REACTORS
330
58
102
}
330
58
100
AcDbScale
 70
     0
300
1:1
140
1.0
141
1.0
290
     1
  0
SCALE
  5
5A
102
{ACAD_REACTORS
330
58
102
}
330
58
100
AcDbScale
 70
     0
300
1:2
140
1.0
141
2.0
290
     0
  0
SCALE
  5
5B
102
{ACAD_REACTORS
330
58
102
}
330
58
100
AcDbScale
 70
     0
300
1:4
140
1.0
141
4.0
290
     0
  0
SCALE
  5
5C
102
{ACAD_REACTORS
330
58
102
}
330
58
100
AcDbScale
 70
     0
300
1:5
140
1.0
141
5.0
290
     0
  0
SCALE
  5
5D
102
{ACAD_REACTORS
330
58
102
}
330
58
100
AcDbScale
 70
     0
300
1:8
140
1.0
141
8.0
290
     0
  0
SCALE
  5
5E
102
{ACAD_REACTORS
330
58
102
}
330
58
100
AcDbScale
 70
     0
300
1:10
140
1.0
141
10.0
290
     0
  0
SCALE
  5
5F
102
{ACAD_REACTORS
330
58
102
}
330
58
100
AcDbScale
 70
     0
300
1:16
140
1.0
141
16.0
290
     0
  0
SCALE
  5
60
102
{ACAD_REACTORS
330
58
102
}
330
58
100
AcDbScale
 70
     0
300
1:20
140
1.0
141
20.0
290
     0
  0
SCALE
  5
61
102
{ACAD_REACTORS
330
58
102
}
330
58
100
AcDbScale
 70
     0
300
1:30
140
1.0
141
30.0
290
     0
  0
SCALE
  5
62
102
{ACAD_REACTORS
330
58
102
}
330
58
100
AcDbScale
 70
     0
300
1:40
140
1.0
141
40.0
290
     0
  0
SCALE
  5
63
102
{ACAD_REACTORS
330
58
102
}
330
58
100
AcDbScale
 70
     0
300
1:50
140
1.0
141
50.0
290
     0
  0
SCALE
  5
64
102
{ACAD_REACTORS
330
58
102
}
330
58
100
AcDbScale
 70
     0
300
1:100
140
1.0
141
100.0
290
     0
  0
SCALE
  5
65
102
{ACAD_REACTORS
330
58
102
}
330
58
100
AcDbScale
 70
     0
300
2:1
140
2.0
141
1.0
290
     0
  0
SCALE
  5
66
102
{ACAD_REACTORS
330
58
102
}
330
58
100
AcDbScale
 70
     0
300
4:1
140
4.0
141
1.0
290
     0
  0
SCALE
  5
67
102
{ACAD_REACTORS
330
58
102
}
330
58
100
AcDbScale
 70
     0
300
8:1
140
8.0
141
1.0
290
     0
  0
SCALE
  5
68
102
{ACAD_REACTORS
330
58
102
}
330
58
100
AcDbScale
 70
     0
300
10:1
140
10.0
141
1.0
290
     0
  0
SCALE
  5
69
102
{ACAD_REACTORS
330
58
102
}
330
58
100
AcDbScale
 70
     0
300
100:1
140
100.0
141
1.0
290
     0
  0
SCALE
  5
6A
102
{ACAD_REACTORS
330
58
102
}
330
58
100
AcDbScale
 70
     0
300
1/128" = 1'-0"
140
0.0078125
141
12.0
290
     0
  0
SCALE
  5
6B
102
{ACAD_REACTORS
330
58
102
}
330
58
100
AcDbScale
 70
     0
300
1/64" = 1'-0"
140
0.015625
141
12.0
290
     0
  0
SCALE
  5
6C
102
{ACAD_REACTORS
330
58
102
}
330
58
100
AcDbScale
 70
     0
300
1/32" = 1'-0"
140
0.03125
141
12.0
290
     0
  0
SCALE
  5
6D
102
{ACAD_REACTORS
330
58
102
}
330
58
100
AcDbScale
 70
     0
300
1/16" = 1'-0"
140
0.0625
141
12.0
290
     0
  0
SCALE
  5
6E
102
{ACAD_REACTORS
330
58
102
}
330
58
100
AcDbScale
 70
     0
300
3/32" = 1'-0"
140
0.09375
141
12.0
290
     0
  0
SCALE
  5
6F
102
{ACAD_REACTORS
330
58
102
}
330
58
100
AcDbScale
 70
     0
300
1/8" = 1'-0"
140
0.125
141
12.0
290
     0
  0
SCALE
  5
70
102
{ACAD_REACTORS
330
58
102
}
330
58
100
AcDbScale
 70
     0
300
3/16" = 1'-0"
140
0.1875
141
12.0
290
     0
  0
SCALE
  5
71
102
{ACAD_REACTORS
330
58
102
}
330
58
100
AcDbScale
 70
     0
300
1/4" = 1'-0"
140
0.25
141
12.0
290
     0
  0
SCALE
  5
72
102
{ACAD_REACTORS
330
58
102
}
330
58
100
AcDbScale
 70
     0
300
3/8" = 1'-0"
140
0.375
141
12.0
290
     0
  0
SCALE
  5
73
102
{ACAD_REACTORS
330
58
102
}
330
58
100
AcDbScale
 70
     0
300
1/2" = 1'-0"
140
0.5
141
12.0
290
     0
  0
SCALE
  5
74
102
{ACAD_REACTORS
330
58
102
}
330
58
100
AcDbScale
 70
     0
300
3/4" = 1'-0"
140
0.75
141
12.0
290
     0
  0
SCALE
  5
75
102
{ACAD_REACTORS
330
58
102
}
330
58
100
AcDbScale
 70
     0
300
1" = 1'-0"
140
1.0
141
12.0
290
     0
  0
SCALE
  5
76
102
{ACAD_REACTORS
330
58
102
}
330
58
100
AcDbScale
 70
     0
300
1-1/2" = 1'-0"
140
1.5
141
12.0
290
     0
  0
SCALE
  5
77
102
{ACAD_REACTORS
330
58
102
}
330
58
100
AcDbScale
 70
     0
300
3" = 1'-0"
140
3.0
141
12.0
290
     0
  0
SCALE
  5
78
102
{ACAD_REACTORS
330
58
102
}
330
58
100
AcDbScale
 70
     0
300
6" = 1'-0"
140
6.0
141
12.0
290
     0
  0
SCALE
  5
79
102
{ACAD_REACTORS
330
58
102
}
330
58
100
AcDbScale
 70
     0
300
1'-0" = 1'-0"
140
12.0
141
12.0
290
     0
  0
VISUALSTYLE
  5
2F
102
{ACAD_REACTORS
330
2A
102
}
102
{ACAD_XDICTIONARY
360
40E
102
}
330
2A
100
AcDbVisualStyle
  2
2dWireframe
 70
     4
 71
     0
 72
     2
 73
     0
 90
        0
 40
-0.6
 41
-30.0
 62
     5
 63
     7
 74
     1
 91
        4
 64
     7
 65
   257
 75
     1
175
     1
 42
1.0
 92
        0
 66
   257
 43
1.0
 76
     1
 77
     6
 78
     2
 67
     7
 79
     5
170
     0
171
     0
290
     0
174
     0
 93
        1
 44
0.0
173
     0
291
     0
 45
0.0
1001
ACAD
1000
AcDbSavedByObjectVersion
1070
     0
  0
VISUALSTYLE
  5
31
102
{ACAD_REACTORS
330
2A
102
}
102
{ACAD_XDICTIONARY
360
412
102
}
330
2A
100
AcDbVisualStyle
  2
3D Hidden
 70
     6
 71
     1
 72
     2
 73
     2
 90
        0
 40
-0.6
 41
-30.0
 62
     5
 63
     7
 74
     2
 91
        2
 64
     7
 65
   257
 75
     2
175
     1
 42
40.0
 92
        0
 66
   257
 43
1.0
 76
     1
 77
     6
 78
     2
 67
     7
 79
     3
170
     0
171
     0
290
     0
174
     0
 93
        1
 44
0.0
173
     0
291
     0
 45
0.0
1001
ACAD
1000
AcDbSavedByObjectVersion
1070
     0
  0
VISUALSTYLE
  5
30
102
{ACAD_REACTORS
330
2A
102
}
102
{ACAD_XDICTIONARY
360
410
102
}
330
2A
100
AcDbVisualStyle
  2
3dWireframe
 70
     5
 71
     0
 72
     2
 73
     0
 90
        0
 40
-0.6
 41
-30.0
 62
     5
 63
     7
 74
     1
 91
        4
 64
     7
 65
   257
 75
     1
175
     1
 42
1.0
 92
        0
 66
   257
 43
1.0
 76
     1
 77
     6
 78
     2
 67
     7
 79
     5
170
     0
171
     0
290
     0
174
     0
 93
        1
 44
0.0
173
     0
291
     0
 45
0.0
1001
ACAD
1000
AcDbSavedByObjectVersion
1070
     0
  0
VISUALSTYLE
  5
32
102
{ACAD_REACTORS
330
2A
102
}
102
{ACAD_XDICTIONARY
360
414
102
}
330
2A
100
AcDbVisualStyle
  2
Basic
 70
     7
 71
     1
 72
     0
 73
     1
 90
        0
 40
-0.6
 41
-30.0
 62
     5
 63
     7
 74
     0
 91
        4
 64
     7
 65
   257
 75
     1
175
     1
 42
1.0
 92
        8
 66
     7
 43
1.0
 76
     1
 77
     6
 78
     2
 67
     7
 79
     5
170
     0
171
     0
290
     0
174
     0
 93
        1
 44
0.0
173
     0
291
     1
 45
0.0
1001
ACAD
1000
AcDbSavedByObjectVersion
1070
     0
  0
VISUALSTYLE
  5
36
102
{ACAD_REACTORS
330
2A
102
}
102
{ACAD_XDICTIONARY
360
41C
102
}
330
2A
100
AcDbVisualStyle
  2
Brighten
 70
    12
 71
     2
 72
     2
 73
     0
 90
        0
 40
-0.6
 41
-30.0
 62
     5
 63
     7
 74
     1
 91
        4
 64
     7
 65
   257
 75
     1
175
     1
 42
1.0
 92
        8
 66
     7
 43
1.0
 76
     1
 77
     6
 78
     2
 67
     7
 79
     5
170
     0
171
     0
290
     0
174
     0
 93
        1
 44
50.0
173
     0
291
     1
 45
0.0
1001
ACAD
1000
AcDbSavedByObjectVersion
1070
     0
  0
VISUALSTYLE
  5
3A
102
{ACAD_REACTORS
330
2A
102
}
102
{ACAD_XDICTIONARY
360
424
102
}
330
2A
100
AcDbVisualStyle
  2
ColorChange
 70
    16
 71
     2
 72
     2
 73
     3
 90
        0
 40
-0.6
 41
-30.0
 62
     5
 63
     8
 74
     1
 91
        4
 64
     7
 65
   257
 75
     1
175
     1
 42
1.0
 92
        8
 66
     8
 43
1.0
 76
     1
 77
     6
 78
     2
 67
     7
 79
     5
170
     0
171
     0
290
     0
174
     0
 93
        1
 44
0.0
173
     0
291
     1
 45
0.0
1001
ACAD
1000
AcDbSavedByObjectVersion
1070
     0
  0
VISUALSTYLE
  5
34
102
{ACAD_REACTORS
330
2A
102
}
102
{ACAD_XDICTIONARY
360
418
102
}
330
2A
100
AcDbVisualStyle
  2
Conceptual
 70
     9
 71
     3
 72
     2
 73
     0
 90
        0
 40
-0.6
 41
-30.0
 62
     5
 63
     7
 74
     2
 91
        2
 64
     7
 65
   257
 75
     1
175
     1
 42
40.0
 92
        8
 66
     7
 43
1.0
 76
     1
 77
     6
 78
     2
 67
     7
 79
     3
170
     0
171
     0
290
     0
174
     0
 93
        1
 44
0.0
173
     0
291
     0
 45
0.0
1001
ACAD
1000
AcDbSavedByObjectVersion
1070
     0
  0
VISUALSTYLE
  5
35
102
{ACAD_REACTORS
330
2A
102
}
102
{ACAD_XDICTIONARY
360
41A
102
}
330
2A
100
AcDbVisualStyle
  2
Dim
 70
    11
 71
     2
 72
     2
 73
     0
 90
        0
 40
-0.6
 41
-30.0
 62
     5
 63
     7
 74
     1
 91
        4
 64
     7
 65
   257
 75
     1
175
     1
 42
1.0
 92
        8
 66
     7
 43
1.0
 76
     1
 77
     6
 78
     2
 67
     7
 79
     5
170
     0
171
     0
290
     0
174
     0
 93
        1
 44
-50.0
173
     0
291
     1
 45
0.0
1001
ACAD
1000
AcDbSavedByObjectVersion
1070
     0
  0
VISUALSTYLE
  5
39
102
{ACAD_REACTORS
330
2A
102
}
102
{ACAD_XDICTIONARY
360
422
102
}
330
2A
100
AcDbVisualStyle
  2
Facepattern
 70
    15
 71
     2
 72
     2
 73
     0
 90
        0
 40
-0.6
 41
-30.0
 62
     5
 63
     7
 74
     1
 91
        4
 64
     7
 65
   257
 75
     1
175
     1
 42
1.0
 92
        8
 66
     7
 43
1.0
 76
     1
 77
     6
 78
     2
 67
     7
 79
     5
170
     0
171
     0
290
     0
174
     0
 93
        1
 44
0.0
173
     0
291
     1
 45
0.0
1001
ACAD
1000
AcDbSavedByObjectVersion
1070
     0
  0
VISUALSTYLE
  5
2B
102
{ACAD_REACTORS
330
2A
102
}
102
{ACAD_XDICTIONARY
360
406
102
}
330
2A
100
AcDbVisualStyle
  2
Flat
 70
     0
 71
     2
 72
     1
 73
     1
 90
        2
 40
-0.6
 41
30.0
 62
     5
 63
     7
 74
     0
 91
        4
 64
     7
 65
   257
 75
     1
175
     1
 42
1.0
 92
        8
 66
     7
 43
1.0
 76
     1
 77
     6
 78
     2
 67
     7
 79
     5
170
     0
171
     0
290
     0
174
     0
 93
       13
 44
0.0
173
     0
291
     1
 45
0.0
1001
ACAD
1000
AcDbSavedByObjectVersion
1070
     0
  0
VISUALSTYLE
  5
2C
102
{ACAD_REACTORS
330
2A
102
}
102
{ACAD_XDICTIONARY
360
408
102
}
330
2A
100
AcDbVisualStyle
  2
FlatWithEdges
 70
     1
 71
     2
 72
     1
 73
     1
 90
        2
 40
-0.6
 41
30.0
 62
     5
 63
     7
 74
     1
 91
        4
 64
     7
 65
   257
 75
     1
175
     1
 42
1.0
 92
        0
 66
   257
 43
1.0
 76
     1
 77
     6
 78
     2
 67
     7
 79
     5
170
     0
171
     0
290
     0
174
     0
 93
       13
 44
0.0
173
     0
291
     1
 45
0.0
1001
ACAD
1000
AcDbSavedByObjectVersion
1070
     0
  0
VISUALSTYLE
  5
2D
102
{ACAD_REACTORS
330
2A
102
}
102
{ACAD_XDICTIONARY
360
40A
102
}
330
2A
100
AcDbVisualStyle
  2
Gouraud
 70
     2
 71
     2
 72
     2
 73
     1
 90
        2
 40
-0.6
 41
30.0
 62
     5
 63
     7
 74
     0
 91
        4
 64
     7
 65
   257
 75
     1
175
     1
 42
1.0
 92
        0
 66
     7
 43
1.0
 76
     1
 77
     6
 78
     2
 67
     7
 79
     5
170
     0
171
     0
290
     0
174
     0
 93
       13
 44
0.0
173
     0
291
     1
 45
0.0
1001
ACAD
1000
AcDbSavedByObjectVersion
1070
     0
  0
VISUALSTYLE
  5
2E
102
{ACAD_REACTORS
330
2A
102
}
102
{ACAD_XDICTIONARY
360
40C
102
}
330
2A
100
AcDbVisualStyle
  2
GouraudWithEdges
 70
     3
 71
     2
 72
     2
 73
     1
 90
        2
 40
-0.6
 41
30.0
 62
     5
 63
     7
 74
     1
 91
        4
 64
     7
 65
   257
 75
     1
175
     1
 42
1.0
 92
        0
 66
   257
 43
1.0
 76
     1
 77
     6
 78
     2
 67
     7
 79
     5
170
     0
171
     0
290
     0
174
     0
 93
       13
 44
0.0
173
     0
291
     1
 45
0.0
1001
ACAD
1000
AcDbSavedByObjectVersion
1070
     0
  0
VISUALSTYLE
  5
38
102
{ACAD_REACTORS
330
2A
102
}
102
{ACAD_XDICTIONARY
360
420
102
}
330
2A
100
AcDbVisualStyle
  2
Linepattern
 70
    14
 71
     2
 72
     2
 73
     0
 90
        0
 40
-0.6
 41
-30.0
 62
     5
 63
     7
 74
     1
 91
        4
 64
     7
 65
   257
 75
     7
175
     7
 42
1.0
 92
        8
 66
     7
 43
1.0
 76
     1
 77
     6
 78
     2
 67
     7
 79
     5
170
     0
171
     0
290
     0
174
     0
 93
        1
 44
0.0
173
     0
291
     1
 45
0.0
1001
ACAD
1000
AcDbSavedByObjectVersion
1070
     0
  0
VISUALSTYLE
  5
33
102
{ACAD_REACTORS
330
2A
102
}
102
{ACAD_XDICTIONARY
360
416
102
}
330
2A
100
AcDbVisualStyle
  2
Realistic
 70
     8
 71
     2
 72
     2
 73
     0
 90
        0
 40
-0.6
 41
-30.0
 62
     5
 63
     7
 74
     1
 91
        0
 64
     7
 65
   257
 75
     1
175
     1
 42
1.0
 92
        8
 66
     8
 43
1.0
 76
     1
 77
     6
 78
     2
 67
     7
 79
     5
170
     0
171
     0
290
     0
174
     0
 93
       13
 44
0.0
173
     0
291
     0
 45
0.0
1001
ACAD
1000
AcDbSavedByObjectVersion
1070
     0
  0
VISUALSTYLE
  5
37
102
{ACAD_REACTORS
330
2A
102
}
102
{ACAD_XDICTIONARY
360
41E
102
}
330
2A
100
AcDbVisualStyle
  2
Thicken
 70
    13
 71
     2
 72
     2
 73
     0
 90
        0
 40
-0.6
 41
-30.0
 62
     5
 63
     7
 74
     1
 91
        4
 64
     7
 65
   257
 75
     1
175
     1
 42
1.0
 92
       12
 66
     7
 43
1.0
 76
     1
 77
     6
 78
     2
 67
     7
 79
     5
170
     0
171
     0
290
     0
174
     0
 93
        1
 44
0.0
173
     0
291
     1
 45
0.0
1001
ACAD
1000
AcDbSavedByObjectVersion
1070
     0
  0
DICTIONARYVAR
  5
403
102
{ACAD_REACTORS
330
400
102
}
330
400
100
DictionaryVariables
280
     0
  1
1:1
  0
DICTIONARYVAR
  5
404
102
{ACAD_REACTORS
330
400
102
}
330
400
100
DictionaryVariables
280
     0
  1
2
  0
DICTIONARYVAR
  5
405
102
{ACAD_REACTORS
330
400
102
}
330
400
100
DictionaryVariables
280
     0
  1
1
  0
DICTIONARY
  5
428
330
3D
100
AcDbDictionary
280
     1
281
     1
  3
ACAD_XREC_ROUNDTRIP
360
429
  0
DICTIONARY
  5
426
330
3C
100
AcDbDictionary
280
     1
281
     1
  3
ACAD_XREC_ROUNDTRIP
360
427
  0
DICTIONARY
  5
42A
330
3E
100
AcDbDictionary
280
     1
281
     1
  3
ACAD_XREC_ROUNDTRIP
360
42B
  0
DICTIONARY
  5
40E
330
2F
100
AcDbDictionary
280
     1
281
     1
  3
ACAD_XREC_ROUNDTRIP
360
40F
  0
DICTIONARY
  5
412
330
31
100
AcDbDictionary
280
     1
281
     1
  3
ACAD_XREC_ROUNDTRIP
360
413
  0
DICTIONARY
  5
410
330
30
100
AcDbDictionary
280
     1
281
     1
  3
ACAD_XREC_ROUNDTRIP
360
411
  0
DICTIONARY
  5
414
330
32
100
AcDbDictionary
280
     1
281
     1
  3
ACAD_XREC_ROUNDTRIP
360
415
  0
DICTIONARY
  5
41C
330
36
100
AcDbDictionary
280
     1
281
     1
  3
ACAD_XREC_ROUNDTRIP
360
41D
  0
DICTIONARY
  5
424
330
3A
100
AcDbDictionary
280
     1
281
     1
  3
ACAD_XREC_ROUNDTRIP
360
425
  0
DICTIONARY
  5
418
330
34
100
AcDbDictionary
280
     1
281
     1
  3
ACAD_XREC_ROUNDTRIP
360
419
  0
DICTIONARY
  5
41A
330
35
100
AcDbDictionary
280
     1
281
     1
  3
ACAD_XREC_ROUNDTRIP
360
41B
  0
DICTIONARY
  5
422
330
39
100
AcDbDictionary
280
     1
281
     1
  3
ACAD_XREC_ROUNDTRIP
360
423
  0
DICTIONARY
  5
406
330
2B
100
AcDbDictionary
280
     1
281
     1
  3
ACAD_XREC_ROUNDTRIP
360
407
  0
DICTIONARY
  5
408
330
2C
100
AcDbDictionary
280
     1
281
     1
  3
ACAD_XREC_ROUNDTRIP
360
409
  0
DICTIONARY
  5
40A
330
2D
100
AcDbDictionary
280
     1
281
     1
  3
ACAD_XREC_ROUNDTRIP
360
40B
  0
DICTIONARY
  5
40C
330
2E
100
AcDbDictionary
280
     1
281
     1
  3
ACAD_XREC_ROUNDTRIP
360
40D
  0
DICTIONARY
  5
420
330
38
100
AcDbDictionary
280
     1
281
     1
  3
ACAD_XREC_ROUNDTRIP
360
421
  0
DICTIONARY
  5
416
330
33
100
AcDbDictionary
280
     1
281
     1
  3
ACAD_XREC_ROUNDTRIP
360
417
  0
DICTIONARY
  5
41E
330
37
100
AcDbDictionary
280
     1
281
     1
  3
ACAD_XREC_ROUNDTRIP
360
41F
  0
XRECORD
  5
429
102
{ACAD_REACTORS
330
428
102
}
330
428
100
AcDbXrecord
280
     1
102
MATERIAL
148
0.0
149
0.0
149
0.0
 93
        0
 94
      127
282
     0
 72
     1
 77
     1
171
     1
175
     1
179
     1
273
     0
  0
XRECORD
  5
427
102
{ACAD_REACTORS
330
426
102
}
330
426
100
AcDbXrecord
280
     1
102
MATERIAL
148
0.0
149
0.0
149
0.0
 93
        0
 94
      127
282
     0
 72
     1
 77
     1
171
     1
175
     1
179
     1
273
     0
  0
XRECORD
  5
42B
102
{ACAD_REACTORS
330
42A
102
}
330
42A
100
AcDbXrecord
280
     1
102
MATERIAL
148
0.0
149
0.0
149
0.0
 93
        0
 94
      127
282
     0
 72
     1
 77
     1
171
     1
175
     1
179
     1
273
     0
  0
XRECORD
  5
40F
102
{ACAD_REACTORS
330
40E
102
}
330
40E
100
AcDbXrecord
280
     1
102
RTVSPropertyOp0
 70
     1
102
RTVSPropertyOp1
 70
     1
102
RTVSPropertyOp2
 70
     1
102
RTVSPropertyOp3
 70
     1
102
RTVSPropertyOp4
 70
     1
102
RTVSPropertyOp5
 70
     1
102
RTVSPropertyOp6
 70
     1
102
RTVSPropertyOp7
 70
     1
102
RTVSPropertyOp8
 70
     1
102
RTVSPropertyOp9
 70
     1
102
RTVSPropertyOp10
 70
     1
102
RTVSPropertyOp11
 70
     1
102
RTVSPropertyOp12
 70
     1
102
RTVSPropertyOp13
 70
     1
102
RTVSPropertyOp14
 70
     1
102
RTVSPropertyOp15
 70
     1
102
RTVSPropertyOp16
 70
     1
102
RTVSPropertyOp17
 70
     1
102
RTVSPropertyOp18
 70
     1
102
RTVSPropertyOp19
 70
     1
102
RTVSPropertyOp20
 70
     1
102
RTVSPropertyOp21
 70
     1
102
RTVSPropertyOp22
 70
     1
102
RTVSPropertyOp23
 70
     1
102
RTVSPropertyOp24
 70
     1
102
RTVSPropertyOp25
 70
     1
102
RTVSPropertyOp26
 70
     1
102
RTVSPropertyOp27
 70
     1
  0
XRECORD
  5
413
102
{ACAD_REACTORS
330
412
102
}
330
412
100
AcDbXrecord
280
     1
102
RTVSPropertyOp0
 70
     1
102
RTVSPropertyOp1
 70
     1
102
RTVSPropertyOp2
 70
     1
102
RTVSPropertyOp3
 70
     1
102
RTVSPropertyOp4
 70
     1
102
RTVSPropertyOp5
 70
     1
102
RTVSPropertyOp6
 70
     1
102
RTVSPropertyOp7
 70
     1
102
RTVSPropertyOp8
 70
     1
102
RTVSPropertyOp9
 70
     1
102
RTVSPropertyOp10
 70
     1
102
RTVSPropertyOp11
 70
     1
102
RTVSPropertyOp12
 70
     1
102
RTVSPropertyOp13
 70
     1
102
RTVSPropertyOp14
 70
     1
102
RTVSPropertyOp15
 70
     1
102
RTVSPropertyOp16
 70
     1
102
RTVSPropertyOp17
 70
     1
102
RTVSPropertyOp18
 70
     1
102
RTVSPropertyOp19
 70
     1
102
RTVSPropertyOp20
 70
     1
102
RTVSPropertyOp21
 70
     1
102
RTVSPropertyOp22
 70
     1
102
RTVSPropertyOp23
 70
     1
102
RTVSPropertyOp24
 70
     1
102
RTVSPropertyOp25
 70
     1
102
RTVSPropertyOp26
 70
     1
102
RTVSPropertyOp27
 70
     1
  0
XRECORD
  5
411
102
{ACAD_REACTORS
330
410
102
}
330
410
100
AcDbXrecord
280
     1
102
RTVSPropertyOp0
 70
     1
102
RTVSPropertyOp1
 70
     1
102
RTVSPropertyOp2
 70
     1
102
RTVSPropertyOp3
 70
     1
102
RTVSPropertyOp4
 70
     1
102
RTVSPropertyOp5
 70
     1
102
RTVSPropertyOp6
 70
     1
102
RTVSPropertyOp7
 70
     1
102
RTVSPropertyOp8
 70
     1
102
RTVSPropertyOp9
 70
     1
102
RTVSPropertyOp10
 70
     1
102
RTVSPropertyOp11
 70
     1
102
RTVSPropertyOp12
 70
     1
102
RTVSPropertyOp13
 70
     1
102
RTVSPropertyOp14
 70
     1
102
RTVSPropertyOp15
 70
     1
102
RTVSPropertyOp16
 70
     1
102
RTVSPropertyOp17
 70
     1
102
RTVSPropertyOp18
 70
     1
102
RTVSPropertyOp19
 70
     1
102
RTVSPropertyOp20
 70
     1
102
RTVSPropertyOp21
 70
     1
102
RTVSPropertyOp22
 70
     1
102
RTVSPropertyOp23
 70
     1
102
RTVSPropertyOp24
 70
     1
102
RTVSPropertyOp25
 70
     1
102
RTVSPropertyOp26
 70
     1
102
RTVSPropertyOp27
 70
     1
  0
XRECORD
  5
415
102
{ACAD_REACTORS
330
414
102
}
330
414
100
AcDbXrecord
280
     1
102
RTVSPropertyOp0
 70
     1
102
RTVSPropertyOp1
 70
     1
102
RTVSPropertyOp2
 70
     1
102
RTVSPropertyOp3
 70
     1
102
RTVSPropertyOp4
 70
     1
102
RTVSPropertyOp5
 70
     1
102
RTVSPropertyOp6
 70
     1
102
RTVSPropertyOp7
 70
     1
102
RTVSPropertyOp8
 70
     1
102
RTVSPropertyOp9
 70
     1
102
RTVSPropertyOp10
 70
     1
102
RTVSPropertyOp11
 70
     1
102
RTVSPropertyOp12
 70
     1
102
RTVSPropertyOp13
 70
     1
102
RTVSPropertyOp14
 70
     1
102
RTVSPropertyOp15
 70
     1
102
RTVSPropertyOp16
 70
     1
102
RTVSPropertyOp17
 70
     1
102
RTVSPropertyOp18
 70
     1
102
RTVSPropertyOp19
 70
     1
102
RTVSPropertyOp20
 70
     1
102
RTVSPropertyOp21
 70
     1
102
RTVSPropertyOp22
 70
     1
102
RTVSPropertyOp23
 70
     1
102
RTVSPropertyOp24
 70
     1
102
RTVSPropertyOp25
 70
     1
102
RTVSPropertyOp26
 70
     1
102
RTVSPropertyOp27
 70
     1
  0
XRECORD
  5
41D
102
{ACAD_REACTORS
330
41C
102
}
330
41C
100
AcDbXrecord
280
     1
102
RTVSPropertyOp0
 70
     1
102
RTVSPropertyOp1
 70
     1
102
RTVSPropertyOp2
 70
     1
102
RTVSPropertyOp3
 70
     1
102
RTVSPropertyOp4
 70
     1
102
RTVSPropertyOp5
 70
     1
102
RTVSPropertyOp6
 70
     1
102
RTVSPropertyOp7
 70
     1
102
RTVSPropertyOp8
 70
     1
102
RTVSPropertyOp9
 70
     1
102
RTVSPropertyOp10
 70
     1
102
RTVSPropertyOp11
 70
     1
102
RTVSPropertyOp12
 70
     1
102
RTVSPropertyOp13
 70
     1
102
RTVSPropertyOp14
 70
     1
102
RTVSPropertyOp15
 70
     1
102
RTVSPropertyOp16
 70
     1
102
RTVSPropertyOp17
 70
     1
102
RTVSPropertyOp18
 70
     1
102
RTVSPropertyOp19
 70
     1
102
RTVSPropertyOp20
 70
     1
102
RTVSPropertyOp21
 70
     1
102
RTVSPropertyOp22
 70
     1
102
RTVSPropertyOp23
 70
     1
102
RTVSPropertyOp24
 70
     1
102
RTVSPropertyOp25
 70
     1
102
RTVSPropertyOp26
 70
     1
102
RTVSPropertyOp27
 70
     1
  0
XRECORD
  5
425
102
{ACAD_REACTORS
330
424
102
}
330
424
100
AcDbXrecord
280
     1
102
RTVSPropertyOp0
 70
     1
102
RTVSPropertyOp1
 70
     1
102
RTVSPropertyOp2
 70
     1
102
RTVSPropertyOp3
 70
     1
102
RTVSPropertyOp4
 70
     1
102
RTVSPropertyOp5
 70
     1
102
RTVSPropertyOp6
 70
     1
102
RTVSPropertyOp7
 70
     1
102
RTVSPropertyOp8
 70
     1
102
RTVSPropertyOp9
 70
     1
102
RTVSPropertyOp10
 70
     1
102
RTVSPropertyOp11
 70
     1
102
RTVSPropertyOp12
 70
     1
102
RTVSPropertyOp13
 70
     1
102
RTVSPropertyOp14
 70
     1
102
RTVSPropertyOp15
 70
     1
102
RTVSPropertyOp16
 70
     1
102
RTVSPropertyOp17
 70
     1
102
RTVSPropertyOp18
 70
     1
102
RTVSPropertyOp19
 70
     1
102
RTVSPropertyOp20
 70
     1
102
RTVSPropertyOp21
 70
     1
102
RTVSPropertyOp22
 70
     1
102
RTVSPropertyOp23
 70
     1
102
RTVSPropertyOp24
 70
     1
102
RTVSPropertyOp25
 70
     1
102
RTVSPropertyOp26
 70
     1
102
RTVSPropertyOp27
 70
     1
  0
XRECORD
  5
419
102
{ACAD_REACTORS
330
418
102
}
330
418
100
AcDbXrecord
280
     1
102
RTVSPropertyOp0
 70
     1
102
RTVSPropertyOp1
 70
     1
102
RTVSPropertyOp2
 70
     1
102
RTVSPropertyOp3
 70
     1
102
RTVSPropertyOp4
 70
     1
102
RTVSPropertyOp5
 70
     1
102
RTVSPropertyOp6
 70
     1
102
RTVSPropertyOp7
 70
     1
102
RTVSPropertyOp8
 70
     1
102
RTVSPropertyOp9
 70
     1
102
RTVSPropertyOp10
 70
     1
102
RTVSPropertyOp11
 70
     1
102
RTVSPropertyOp12
 70
     1
102
RTVSPropertyOp13
 70
     1
102
RTVSPropertyOp14
 70
     1
102
RTVSPropertyOp15
 70
     1
102
RTVSPropertyOp16
 70
     1
102
RTVSPropertyOp17
 70
     1
102
RTVSPropertyOp18
 70
     1
102
RTVSPropertyOp19
 70
     1
102
RTVSPropertyOp20
 70
     1
102
RTVSPropertyOp21
 70
     1
102
RTVSPropertyOp22
 70
     1
102
RTVSPropertyOp23
 70
     1
102
RTVSPropertyOp24
 70
     1
102
RTVSPropertyOp25
 70
     1
102
RTVSPropertyOp26
 70
     1
102
RTVSPropertyOp27
 70
     1
  0
XRECORD
  5
41B
102
{ACAD_REACTORS
330
41A
102
}
330
41A
100
AcDbXrecord
280
     1
102
RTVSPropertyOp0
 70
     1
102
RTVSPropertyOp1
 70
     1
102
RTVSPropertyOp2
 70
     1
102
RTVSPropertyOp3
 70
     1
102
RTVSPropertyOp4
 70
     1
102
RTVSPropertyOp5
 70
     1
102
RTVSPropertyOp6
 70
     1
102
RTVSPropertyOp7
 70
     1
102
RTVSPropertyOp8
 70
     1
102
RTVSPropertyOp9
 70
     1
102
RTVSPropertyOp10
 70
     1
102
RTVSPropertyOp11
 70
     1
102
RTVSPropertyOp12
 70
     1
102
RTVSPropertyOp13
 70
     1
102
RTVSPropertyOp14
 70
     1
102
RTVSPropertyOp15
 70
     1
102
RTVSPropertyOp16
 70
     1
102
RTVSPropertyOp17
 70
     1
102
RTVSPropertyOp18
 70
     1
102
RTVSPropertyOp19
 70
     1
102
RTVSPropertyOp20
 70
     1
102
RTVSPropertyOp21
 70
     1
102
RTVSPropertyOp22
 70
     1
102
RTVSPropertyOp23
 70
     1
102
RTVSPropertyOp24
 70
     1
102
RTVSPropertyOp25
 70
     1
102
RTVSPropertyOp26
 70
     1
102
RTVSPropertyOp27
 70
     1
  0
XRECORD
  5
423
102
{ACAD_REACTORS
330
422
102
}
330
422
100
AcDbXrecord
280
     1
102
RTVSPropertyOp0
 70
     1
102
RTVSPropertyOp1
 70
     1
102
RTVSPropertyOp2
 70
     1
102
RTVSPropertyOp3
 70
     1
102
RTVSPropertyOp4
 70
     1
102
RTVSPropertyOp5
 70
     1
102
RTVSPropertyOp6
 70
     1
102
RTVSPropertyOp7
 70
     1
102
RTVSPropertyOp8
 70
     1
102
RTVSPropertyOp9
 70
     1
102
RTVSPropertyOp10
 70
     1
102
RTVSPropertyOp11
 70
     1
102
RTVSPropertyOp12
 70
     1
102
RTVSPropertyOp13
 70
     1
102
RTVSPropertyOp14
 70
     1
102
RTVSPropertyOp15
 70
     1
102
RTVSPropertyOp16
 70
     1
102
RTVSPropertyOp17
 70
     1
102
RTVSPropertyOp18
 70
     1
102
RTVSPropertyOp19
 70
     1
102
RTVSPropertyOp20
 70
     1
102
RTVSPropertyOp21
 70
     1
102
RTVSPropertyOp22
 70
     1
102
RTVSPropertyOp23
 70
     1
102
RTVSPropertyOp24
 70
     1
102
RTVSPropertyOp25
 70
     1
102
RTVSPropertyOp26
 70
     1
102
RTVSPropertyOp27
 70
     1
  0
XRECORD
  5
407
102
{ACAD_REACTORS
330
406
102
}
330
406
100
AcDbXrecord
280
     1
102
RTVSPropertyOp0
 70
     1
102
RTVSPropertyOp1
 70
     1
102
RTVSPropertyOp2
 70
     1
102
RTVSPropertyOp3
 70
     1
102
RTVSPropertyOp4
 70
     1
102
RTVSPropertyOp5
 70
     1
102
RTVSPropertyOp6
 70
     1
102
RTVSPropertyOp7
 70
     1
102
RTVSPropertyOp8
 70
     1
102
RTVSPropertyOp9
 70
     1
102
RTVSPropertyOp10
 70
     1
102
RTVSPropertyOp11
 70
     1
102
RTVSPropertyOp12
 70
     1
102
RTVSPropertyOp13
 70
     1
102
RTVSPropertyOp14
 70
     1
102
RTVSPropertyOp15
 70
     1
102
RTVSPropertyOp16
 70
     1
102
RTVSPropertyOp17
 70
     1
102
RTVSPropertyOp18
 70
     1
102
RTVSPropertyOp19
 70
     1
102
RTVSPropertyOp20
 70
     1
102
RTVSPropertyOp21
 70
     1
102
RTVSPropertyOp22
 70
     1
102
RTVSPropertyOp23
 70
     1
102
RTVSPropertyOp24
 70
     1
102
RTVSPropertyOp25
 70
     1
102
RTVSPropertyOp26
 70
     1
102
RTVSPropertyOp27
 70
     1
  0
XRECORD
  5
409
102
{ACAD_REACTORS
330
408
102
}
330
408
100
AcDbXrecord
280
     1
102
RTVSPropertyOp0
 70
     1
102
RTVSPropertyOp1
 70
     1
102
RTVSPropertyOp2
 70
     1
102
RTVSPropertyOp3
 70
     1
102
RTVSPropertyOp4
 70
     1
102
RTVSPropertyOp5
 70
     1
102
RTVSPropertyOp6
 70
     1
102
RTVSPropertyOp7
 70
     1
102
RTVSPropertyOp8
 70
     1
102
RTVSPropertyOp9
 70
     1
102
RTVSPropertyOp10
 70
     1
102
RTVSPropertyOp11
 70
     1
102
RTVSPropertyOp12
 70
     1
102
RTVSPropertyOp13
 70
     1
102
RTVSPropertyOp14
 70
     1
102
RTVSPropertyOp15
 70
     1
102
RTVSPropertyOp16
 70
     1
102
RTVSPropertyOp17
 70
     1
102
RTVSPropertyOp18
 70
     1
102
RTVSPropertyOp19
 70
     1
102
RTVSPropertyOp20
 70
     1
102
RTVSPropertyOp21
 70
     1
102
RTVSPropertyOp22
 70
     1
102
RTVSPropertyOp23
 70
     1
102
RTVSPropertyOp24
 70
     1
102
RTVSPropertyOp25
 70
     1
102
RTVSPropertyOp26
 70
     1
102
RTVSPropertyOp27
 70
     1
  0
XRECORD
  5
40B
102
{ACAD_REACTORS
330
40A
102
}
330
40A
100
AcDbXrecord
280
     1
102
RTVSPropertyOp0
 70
     1
102
RTVSPropertyOp1
 70
     1
102
RTVSPropertyOp2
 70
     1
102
RTVSPropertyOp3
 70
     1
102
RTVSPropertyOp4
 70
     1
102
RTVSPropertyOp5
 70
     1
102
RTVSPropertyOp6
 70
     1
102
RTVSPropertyOp7
 70
     1
102
RTVSPropertyOp8
 70
     1
102
RTVSPropertyOp9
 70
     1
102
RTVSPropertyOp10
 70
     1
102
RTVSPropertyOp11
 70
     1
102
RTVSPropertyOp12
 70
     1
102
RTVSPropertyOp13
 70
     1
102
RTVSPropertyOp14
 70
     1
102
RTVSPropertyOp15
 70
     1
102
RTVSPropertyOp16
 70
     1
102
RTVSPropertyOp17
 70
     1
102
RTVSPropertyOp18
 70
     1
102
RTVSPropertyOp19
 70
     1
102
RTVSPropertyOp20
 70
     1
102
RTVSPropertyOp21
 70
     1
102
RTVSPropertyOp22
 70
     1
102
RTVSPropertyOp23
 70
     1
102
RTVSPropertyOp24
 70
     1
102
RTVSPropertyOp25
 70
     1
102
RTVSPropertyOp26
 70
     1
102
RTVSPropertyOp27
 70
     1
  0
XRECORD
  5
40D
102
{ACAD_REACTORS
330
40C
102
}
330
40C
100
AcDbXrecord
280
     1
102
RTVSPropertyOp0
 70
     1
102
RTVSPropertyOp1
 70
     1
102
RTVSPropertyOp2
 70
     1
102
RTVSPropertyOp3
 70
     1
102
RTVSPropertyOp4
 70
     1
102
RTVSPropertyOp5
 70
     1
102
RTVSPropertyOp6
 70
     1
102
RTVSPropertyOp7
 70
     1
102
RTVSPropertyOp8
 70
     1
102
RTVSPropertyOp9
 70
     1
102
RTVSPropertyOp10
 70
     1
102
RTVSPropertyOp11
 70
     1
102
RTVSPropertyOp12
 70
     1
102
RTVSPropertyOp13
 70
     1
102
RTVSPropertyOp14
 70
     1
102
RTVSPropertyOp15
 70
     1
102
RTVSPropertyOp16
 70
     1
102
RTVSPropertyOp17
 70
     1
102
RTVSPropertyOp18
 70
     1
102
RTVSPropertyOp19
 70
     1
102
RTVSPropertyOp20
 70
     1
102
RTVSPropertyOp21
 70
     1
102
RTVSPropertyOp22
 70
     1
102
RTVSPropertyOp23
 70
     1
102
RTVSPropertyOp24
 70
     1
102
RTVSPropertyOp25
 70
     1
102
RTVSPropertyOp26
 70
     1
102
RTVSPropertyOp27
 70
     1
  0
XRECORD
  5
421
102
{ACAD_REACTORS
330
420
102
}
330
420
100
AcDbXrecord
280
     1
102
RTVSPropertyOp0
 70
     1
102
RTVSPropertyOp1
 70
     1
102
RTVSPropertyOp2
 70
     1
102
RTVSPropertyOp3
 70
     1
102
RTVSPropertyOp4
 70
     1
102
RTVSPropertyOp5
 70
     1
102
RTVSPropertyOp6
 70
     1
102
RTVSPropertyOp7
 70
     1
102
RTVSPropertyOp8
 70
     1
102
RTVSPropertyOp9
 70
     1
102
RTVSPropertyOp10
 70
     1
102
RTVSPropertyOp11
 70
     1
102
RTVSPropertyOp12
 70
     1
102
RTVSPropertyOp13
 70
     1
102
RTVSPropertyOp14
 70
     1
102
RTVSPropertyOp15
 70
     1
102
RTVSPropertyOp16
 70
     1
102
RTVSPropertyOp17
 70
     1
102
RTVSPropertyOp18
 70
     1
102
RTVSPropertyOp19
 70
     1
102
RTVSPropertyOp20
 70
     1
102
RTVSPropertyOp21
 70
     1
102
RTVSPropertyOp22
 70
     1
102
RTVSPropertyOp23
 70
     1
102
RTVSPropertyOp24
 70
     1
102
RTVSPropertyOp25
 70
     1
102
RTVSPropertyOp26
 70
     1
102
RTVSPropertyOp27
 70
     1
  0
XRECORD
  5
417
102
{ACAD_REACTORS
330
416
102
}
330
416
100
AcDbXrecord
280
     1
102
RTVSPropertyOp0
 70
     1
102
RTVSPropertyOp1
 70
     1
102
RTVSPropertyOp2
 70
     1
102
RTVSPropertyOp3
 70
     1
102
RTVSPropertyOp4
 70
     1
102
RTVSPropertyOp5
 70
     1
102
RTVSPropertyOp6
 70
     1
102
RTVSPropertyOp7
 70
     1
102
RTVSPropertyOp8
 70
     1
102
RTVSPropertyOp9
 70
     1
102
RTVSPropertyOp10
 70
     1
102
RTVSPropertyOp11
 70
     1
102
RTVSPropertyOp12
 70
     1
102
RTVSPropertyOp13
 70
     1
102
RTVSPropertyOp14
 70
     1
102
RTVSPropertyOp15
 70
     1
102
RTVSPropertyOp16
 70
     1
102
RTVSPropertyOp17
 70
     1
102
RTVSPropertyOp18
 70
     1
102
RTVSPropertyOp19
 70
     1
102
RTVSPropertyOp20
 70
     1
102
RTVSPropertyOp21
 70
     1
102
RTVSPropertyOp22
 70
     1
102
RTVSPropertyOp23
 70
     1
102
RTVSPropertyOp24
 70
     1
102
RTVSPropertyOp25
 70
     1
102
RTVSPropertyOp26
 70
     1
102
RTVSPropertyOp27
 70
     1
  0
XRECORD
  5
41F
102
{ACAD_REACTORS
330
41E
102
}
330
41E
100
AcDbXrecord
280
     1
102
RTVSPropertyOp0
 70
     1
102
RTVSPropertyOp1
 70
     1
102
RTVSPropertyOp2
 70
     1
102
RTVSPropertyOp3
 70
     1
102
RTVSPropertyOp4
 70
     1
102
RTVSPropertyOp5
 70
     1
102
RTVSPropertyOp6
 70
     1
102
RTVSPropertyOp7
 70
     1
102
RTVSPropertyOp8
 70
     1
102
RTVSPropertyOp9
 70
     1
102
RTVSPropertyOp10
 70
     1
102
RTVSPropertyOp11
 70
     1
102
RTVSPropertyOp12
 70
     1
102
RTVSPropertyOp13
 70
     1
102
RTVSPropertyOp14
 70
     1
102
RTVSPropertyOp15
 70
     1
102
RTVSPropertyOp16
 70
     1
102
RTVSPropertyOp17
 70
     1
102
RTVSPropertyOp18
 70
     1
102
RTVSPropertyOp19
 70
     1
102
RTVSPropertyOp20
 70
     1
102
RTVSPropertyOp21
 70
     1
102
RTVSPropertyOp22
 70
     1
102
RTVSPropertyOp23
 70
     1
102
RTVSPropertyOp24
 70
     1
102
RTVSPropertyOp25
 70
     1
102
RTVSPropertyOp26
 70
     1
102
RTVSPropertyOp27
 70
     1
  0
ENDSEC
  0
EOF
