  0
SECTION
  2
HEADER
  9
$ACADVER
  1
AC1015
  9
$ACADMAINTVER
 70
     6
  9
$DWGCODEPAGE
  3
ANSI_1252
  9
$INSBASE
 10
0.0
 20
0.0
 30
0.0
  9
$EXTMIN
 10
0.0
 20
0.0
 30
0.0
  9
$EXTMAX
 10
59.5
 20
38.5
 30
0.0
  9
$LIMMIN
 10
0.0
 20
0.0
  9
$LIMMAX
 10
59.5
 20
38.5
  9
$ORTHOMODE
 70
     0
  9
$REGENMODE
 70
     1
  9
$FILLMODE
 70
     1
  9
$QTEXTMODE
 70
     0
  9
$MIRRTEXT
 70
     1
  9
$LTSCALE
 40
3.5
  9
$ATTMODE
 70
     1
  9
$TEXTSIZE
 40
0.4375
  9
$TRACEWID
 40
0.05
  9
$TEXTSTYLE
  7
Standard
  9
$CLAYER
  8
0
  9
$CELTYPE
  6
ByLayer
  9
$CECOLOR
 62
   256
  9
$CELTSCALE
 40
1.0
  9
$DISPSILH
 70
     0
  9
$DIMSCALE
 40
1.0
  9
$DIMASZ
 40
0.455
  9
$DIMEXO
 40
0.175
  9
$DIMDLI
 40
0.38
  9
$DIMRND
 40
0.0
  9
$DIMDLE
 40
0.0
  9
$DIMEXE
 40
0.4375
  9
$DIMTP
 40
0.0
  9
$DIMTM
 40
0.0
  9
$DIMTXT
 40
0.4375
  9
$DIMCEN
 40
0.09
  9
$DIMTSZ
 40
0.0
  9
$DIMTOL
 70
     0
  9
$DIMLIM
 70
     0
  9
$DIMTIH
 70
     1
  9
$DIMTOH
 70
     1
  9
$DIMSE1
 70
     0
  9
$DIMSE2
 70
     0
  9
$DIMTAD
 70
     1
  9
$DIMZIN
 70
     0
  9
$DIMBLK
  1

  9
$DIMASO
 70
     1
  9
$DIMSHO
 70
     1
  9
$DIMPOST
  1

  9
$DIMAPOST
  1

  9
$DIMALT
 70
     0
  9
$DIMALTD
 70
     2
  9
$DIMALTF
 40
25.4
  9
$DIMLFAC
 40
1.0
  9
$DIMTOFL
 70
     0
  9
$DIMTVP
 40
0.0
  9
$DIMTIX
 70
     0
  9
$DIMSOXD
 70
     0
  9
$DIMSAH
 70
     0
  9
$DIMBLK1
  1

  9
$DIMBLK2
  1

  9
$DIMSTYLE
  2
Standard
  9
$DIMCLRD
 70
     0
  9
$DIMCLRE
 70
     0
  9
$DIMCLRT
 70
     0
  9
$DIMTFAC
 40
1.0
  9
$DIMGAP
 40
0.21
  9
$DIMJUST
 70
     0
  9
$DIMSD1
 70
     0
  9
$DIMSD2
 70
     0
  9
$DIMTOLJ
 70
     1
  9
$DIMTZIN
 70
     0
  9
$DIMALTZ
 70
     0
  9
$DIMALTTZ
 70
     0
  9
$DIMUPT
 70
     0
  9
$DIMDEC
 70
     2
  9
$DIMTDEC
 70
     2
  9
$DIMALTU
 70
     2
  9
$DIMALTTD
 70
     2
  9
$DIMTXSTY
  7
Standard
  9
$DIMAUNIT
 70
     0
  9
$DIMADEC
 70
     2
  9
$DIMALTRND
 40
0.0
  9
$DIMAZIN
 70
     0
  9
$DIMDSEP
 70
    46
  9
$DIMATFIT
 70
     3
  9
$DIMFRAC
 70
     0
  9
$DIMLDRBLK
  1

  9
$DIMLUNIT
 70
     2
  9
$DIMLWD
 70
    -2
  9
$DIMLWE
 70
    -2
  9
$DIMTMOVE
 70
     0
  9
$LUNITS
 70
     2
  9
$LUPREC
 70
     2
  9
$SKETCHINC
 40
0.1
  9
$FILLETRAD
 40
0.5
  9
$AUNITS
 70
     0
  9
$AUPREC
 70
     2
  9
$MENU
  1
.
  9
$ELEVATION
 40
0.0
  9
$PELEVATION
 40
0.0
  9
$THICKNESS
 40
0.0
  9
$LIMCHECK
 70
     0
  9
$CHAMFERA
 40
0.5
  9
$CHAMFERB
 40
0.5
  9
$CHAMFERC
 40
1.0
  9
$CHAMFERD
 40
0.0
  9
$SKPOLY
 70
     0
  9
$TDCREATE
 40
2455761.415406088
  9
$TDUCREATE
 40
2455761.582072755
  9
$TDUPDATE
 40
2455761.4154061
  9
$TDUUPDATE
 40
2455761.582072766
  9
$TDINDWG
 40
0.0000000116
  9
$TDUSRTIMER
 40
0.0000000116
  9
$USRTIMER
 70
     1
  9
$ANGBASE
 50
0.0
  9
$ANGDIR
 70
     0
  9
$PDMODE
 70
     0
  9
$PDSIZE
 40
-1.0
  9
$PLINEWID
 40
0.0
  9
$SPLFRAME
 70
     0
  9
$SPLINETYPE
 70
     6
  9
$SPLINESEGS
 70
     8
  9
$HANDSEED
  5
42C
  9
$SURFTAB1
 70
     6
  9
$SURFTAB2
 70
     6
  9
$SURFTYPE
 70
     6
  9
$SURFU
 70
     6
  9
$SURFV
 70
     6
  9
$UCSBASE
  2

  9
$UCSNAME
  2

  9
$UCSORG
 10
0.0
 20
0.0
 30
0.0
  9
$UCSXDIR
 10
1.0
 20
0.0
 30
0.0
  9
$UCSYDIR
 10
0.0
 20
1.0
 30
0.0
  9
$UCSORTHOREF
  2

  9
$UCSORTHOVIEW
 70
     0
  9
$UCSORGTOP
 10
0.0
 20
0.0
 30
0.0
  9
$UCSORGBOTTOM
 10
0.0
 20
0.0
 30
0.0
  9
$UCSORGLEFT
 10
0.0
 20
0.0
 30
0.0
  9
$UCSORGRIGHT
 10
0.0
 20
0.0
 30
0.0
  9
$UCSORGFRONT
 10
0.0
 20
0.0
 30
0.0
  9
$UCSORGBACK
 10
0.0
 20
0.0
 30
0.0
  9
$PUCSBASE
  2

  9
$PUCSNAME
  2

  9
$PUCSORG
 10
0.0
 20
0.0
 30
0.0
  9
$PUCSXDIR
 10
1.0
 20
0.0
 30
0.0
  9
$PUCSYDIR
 10
0.0
 20
1.0
 30
0.0
  9
$PUCSORTHOREF
  2

  9
$PUCSORTHOVIEW
 70
     0
  9
$PUCSORGTOP
 10
0.0
 20
0.0
 30
0.0
  9
$PUCSORGBOTTOM
 10
0.0
 20
0.0
 30
0.0
  9
$PUCSORGLEFT
 10
0.0
 20
0.0
 30
0.0
  9
$PUCSORGRIGHT
 10
0.0
 20
0.0
 30
0.0
  9
$PUCSORGFRONT
 10
0.0
 20
0.0
 30
0.0
  9
$PUCSORGBACK
 10
0.0
 20
0.0
 30
0.0
  9
$USERI1
 70
     0
  9
$USERI2
 70
     0
  9
$USERI3
 70
     0
  9
$USERI4
 70
     0
  9
$USERI5
 70
     0
  9
$USERR1
 40
0.0
  9
$USERR2
 40
0.0
  9
$USERR3
 40
0.0
  9
$USERR4
 40
0.0
  9
$USERR5
 40
0.0
  9
$WORLDVIEW
 70
     1
  9
$SHADEDGE
 70
     3
  9
$SHADEDIF
 70
    70
  9
$TILEMODE
 70
     1
  9
$MAXACTVP
 70
    64
  9
$PINSBASE
 10
0.0
 20
0.0
 30
0.0
  9
$PLIMCHECK
 70
     0
  9
$PEXTMIN
 10
1.0000000000E+20
 20
1.0000000000E+20
 30
1.0000000000E+20
  9
$PEXTMAX
 10
-1.0000000000E+20
 20
-1.0000000000E+20
 30
-1.0000000000E+20
  9
$PLIMMIN
 10
0.0
 20
0.0
  9
$PLIMMAX
 10
12.0
 20
9.0
  9
$UNITMODE
 70
     0
  9
$VISRETAIN
 70
     1
  9
$PLINEGEN
 70
     0
  9
$PSLTSCALE
 70
     1
  9
$TREEDEPTH
 70
  3020
  9
$CMLSTYLE
  2
Standard
  9
$CMLJUST
 70
     0
  9
$CMLSCALE
 40
1.0
  9
$PROXYGRAPHICS
 70
     1
  9
$MEASUREMENT
 70
     0
  9
$CELWEIGHT
370
    -1
  9
$ENDCAPS
280
     0
  9
$JOINSTYLE
280
     0
  9
$LWDISPLAY
290
     1
  9
$INSUNITS
 70
     1
  9
$HYPERLINKBASE
  1

  9
$STYLESHEET
  1

  9
$XEDIT
290
     1
  9
$CEPSNTYPE
380
     0
  9
$PSTYLEMODE
290
     1
  9
$FINGERPRINTGUID
  2
{1BF0D255-06F8-4E16-8556-55AF27C42938}
  9
$VERSIONGUID
  2
{FAEB1C32-E019-11D5-929B-00C0DF256EC4}
  9
$EXTNAMES
290
     1
  9
$PSVPSCALE
 40
0.0
  9
$OLESTARTUP
290
     0
  0
ENDSEC
  0
SECTION
  2
CLASSES
  0
CLASS
  1
ACDBDICTIONARYWDFLT
  2
AcDbDictionaryWithDefault
  3
ObjectDBX Classes
 90
        0
280
     0
281
     0
  0
CLASS
  1
VISUALSTYLE
  2
AcDbVisualStyle
  3
ObjectDBX Classes
 90
     4095
280
     0
281
     0
  0
CLASS
  1
MATERIAL
  2
AcDbMaterial
  3
ObjectDBX Classes
 90
     1153
280
     0
281
     0
  0
CLASS
  1
SCALE
  2
AcDbScale
  3
ObjectDBX Classes
 90
     1153
280
     0
281
     0
  0
CLASS
  1
DICTIONARYVAR
  2
AcDbDictionaryVar
  3
ObjectDBX Classes
 90
        0
280
     0
281
     0
  0
CLASS
  1
ACDBPLACEHOLDER
  2
AcDbPlaceHolder
  3
ObjectDBX Classes
 90
        0
280
     0
281
     0
  0
CLASS
  1
LAYOUT
  2
AcDbLayout
  3
ObjectDBX Classes
 90
        0
280
     0
281
     0
  0
ENDSEC
  0
SECTION
  2
TABLES
  0
TABLE
  2
VPORT
  5
8
330
0
100
AcDbSymbolTable
 70
     1
  0
VPORT
  5
29
330
8
100
AcDbSymbolTableRecord
100
AcDbViewportTableRecord
  2
*Active
 70
     0
 10
0.0
 20
0.0
 11
1.0
 21
1.0
 12
29.75
 22
19.25
 13
0.0
 23
0.0
 14
0.5
 24
0.5
 15
0.5
 25
0.5
 16
0.0
 26
0.0
 36
1.0
 17
0.0
 27
0.0
 37
0.0
 40
38.5
 41
1.5454545455
 42
50.0
 43
0.0
 44
0.0
 50
0.0
 51
0.0
 71
     0
 72
  2000
 73
     1
 74
     3
 75
     0
 76
     0
 77
     0
 78
     0
281
     0
 65
     1
110
0.0
120
0.0
130
0.0
111
1.0
121
0.0
131
0.0
112
0.0
122
1.0
132
0.0
 79
     0
146
0.0
  0
ENDTAB
  0
TABLE
  2
LTYPE
  5
5
330
0
100
AcDbSymbolTable
 70
     6
  0
LTYPE
  5
14
330
5
100
AcDbSymbolTableRecord
100
AcDbLinetypeTableRecord
  2
ByBlock
 70
     0
  3

 72
    65
 73
     0
 40
0.0
  0
LTYPE
  5
15
330
5
100
AcDbSymbolTableRecord
100
AcDbLinetypeTableRecord
  2
ByLayer
 70
     0
  3

 72
    65
 73
     0
 40
0.0
  0
LTYPE
  5
16
330
5
100
AcDbSymbolTableRecord
100
AcDbLinetypeTableRecord
  2
Continuous
 70
     0
  3
Solid line
 72
    65
 73
     0
 40
0.0
  0
LTYPE
  5
3F
330
5
100
AcDbSymbolTableRecord
100
AcDbLinetypeTableRecord
  2
HIDDEN
 70
     0
  3
Hidden __ __ __ __ __ __ __ __ __ __ __ __ __ __
 72
    65
 73
     2
 40
0.075
 49
0.05
 74
     0
 49
-0.025
 74
     0
  0
LTYPE
  5
40
330
5
100
AcDbSymbolTableRecord
100
AcDbLinetypeTableRecord
  2
PHANTOM
 70
     0
  3
Phantom ______  __  __  ______  __  __  ______
 72
    65
 73
     6
 40
0.5
 49
0.25
 74
     0
 49
-0.05
 74
     0
 49
0.05
 74
     0
 49
-0.05
 74
     0
 49
0.05
 74
     0
 49
-0.05
 74
     0
  0
LTYPE
  5
41
330
5
100
AcDbSymbolTableRecord
100
AcDbLinetypeTableRecord
  2
CENTER
 70
     0
  3
Center ____ _ ____ _ ____ _ ____ _ ____ _ ____
 72
    65
 73
     4
 40
0.4
 49
0.25
 74
     0
 49
-0.05
 74
     0
 49
0.05
 74
     0
 49
-0.05
 74
     0
  0
LTYPE
  5
42
330
5
100
AcDbSymbolTableRecord
100
AcDbLinetypeTableRecord
  2
CENTERX2
 70
     0
  3
Center (2x) ________  __  ________  __  _____
 72
    65
 73
     4
 40
0.8
 49
0.5
 74
     0
 49
-0.1
 74
     0
 49
0.1
 74
     0
 49
-0.1
 74
     0
  0
LTYPE
  5
43
330
5
100
AcDbSymbolTableRecord
100
AcDbLinetypeTableRecord
  2
DOT2
 70
     0
  3
Dot (.5x) ........................................
 72
    65
 73
     2
 40
0.025
 49
0.0
 74
     0
 49
-0.025
 74
     0
  0
ENDTAB
  0
TABLE
  2
LAYER
  5
2
330
0
100
AcDbSymbolTable
 70
     1
  0
LAYER
  5
10
330
2
100
AcDbSymbolTableRecord
100
AcDbLayerTableRecord
  2
0
 70
     0
 62
     7
  6
Continuous
370
    -3
390
F
  0
ENDTAB
  0
TABLE
  2
STYLE
  5
3
330
0
100
AcDbSymbolTable
 70
     2
  0
STYLE
  5
11
330
3
100
AcDbSymbolTableRecord
100
AcDbTextStyleTableRecord
  2
Standard
 70
     0
 40
0.0
 41
1.0
 50
0.0
 71
     0
 42
0.2
  3
txt
  4

  0
STYLE
  5
57
330
3
100
AcDbSymbolTableRecord
100
AcDbTextStyleTableRecord
  2
SLDTEXTSTYLE0
 70
     0
 40
0.0
 41
0.75
 50
0.0
 71
     0
 42
0.2
  3
TXT
  4

  0
ENDTAB
  0
TABLE
  2
VIEW
  5
6
330
0
100
AcDbSymbolTable
 70
     0
  0
ENDTAB
  0
TABLE
  2
UCS
  5
7
330
0
100
AcDbSymbolTable
 70
     0
  0
ENDTAB
  0
TABLE
  2
APPID
  5
9
330
0
100
AcDbSymbolTable
 70
     1
  0
APPID
  5
12
330
9
100
AcDbSymbolTableRecord
100
AcDbRegAppTableRecord
  2
ACAD
 70
     0
  0
ENDTAB
  0
TABLE
  2
DIMSTYLE
  5
A
330
0
100
AcDbSymbolTable
 70
     5
100
AcDbDimStyleTable
  0
DIMSTYLE
105
27
330
A
100
AcDbSymbolTableRecord
100
AcDbDimStyleTableRecord
  2
Standard
 70
     0
340
11
  0
DIMSTYLE
105
D7
102
{ACAD_REACTORS
330
D6
330
E9
330
150
330
283
330
295
102
}
330
A
100
AcDbSymbolTableRecord
100
AcDbDimStyleTableRecord
  2
SLDDIMSTYLE0
 70
     0
 41
0.455
 44
0.0
 45
0.000000001
 78
     4
140
0.4375
147
0.109375
148
0.000000001
170
     1
173
     1
271
     2
272
     2
284
    12
340
57
  0
DIMSTYLE
105
104
330
A
100
AcDbSymbolTableRecord
100
AcDbDimStyleTableRecord
  2
SLDDIMSTYLE1
 70
     0
 41
0.455
 44
0.0
 45
0.000000001
140
0.0
146
0.455
147
0.0
173
     1
271
     0
272
     0
340
11
  0
DIMSTYLE
105
2A8
102
{ACAD_REACTORS
330
2A7
102
}
330
A
100
AcDbSymbolTableRecord
100
AcDbDimStyleTableRecord
  2
SLDDIMSTYLE2
 70
     0
 41
0.455
 44
0.0
 45
0.000000001
 78
    12
140
0.4375
147
0.109375
148
0.000000001
170
     1
172
     1
173
     1
271
     3
272
     3
284
    12
340
57
  0
DIMSTYLE
105
2B9
102
{ACAD_REACTORS
330
2B8
330
2CB
330
3E8
102
}
330
A
100
AcDbSymbolTableRecord
100
AcDbDimStyleTableRecord
  2
SLDDIMSTYLE3
 70
     0
 41
0.455
 44
0.0
 45
0.000000001
 78
     4
140
0.4375
147
0.109375
148
0.000000001
170
     1
173
     1
271
     2
272
     2
284
    12
340
57
  0
ENDTAB
  0
TABLE
  2
BLOCK_RECORD
  5
1
330
0
100
AcDbSymbolTable
 70
    16
  0
BLOCK_RECORD
  5
1F
330
1
100
AcDbSymbolTableRecord
100
AcDbBlockTableRecord
  2
*Model_Space
340
22
  0
BLOCK_RECORD
  5
1B
330
1
100
AcDbSymbolTableRecord
100
AcDbBlockTableRecord
  2
*Paper_Space
340
1E
  0
BLOCK_RECORD
  5
23
330
1
100
AcDbSymbolTableRecord
100
AcDbBlockTableRecord
  2
*Paper_Space0
340
26
  0
BLOCK_RECORD
  5
54
330
1
100
AcDbSymbolTableRecord
100
AcDbBlockTableRecord
  2
SW_NOTE_0
340
0
102
{BLKREFS
331
7C
102
}
  0
BLOCK_RECORD
  5
80
330
1
100
AcDbSymbolTableRecord
100
AcDbBlockTableRecord
  2
SW_NOTE_1
340
0
102
{BLKREFS
331
85
102
}
  0
BLOCK_RECORD
  5
86
330
1
100
AcDbSymbolTableRecord
100
AcDbBlockTableRecord
  2
SW_NOTE_2
340
0
102
{BLKREFS
331
8B
102
}
  0
BLOCK_RECORD
  5
8C
330
1
100
AcDbSymbolTableRecord
100
AcDbBlockTableRecord
  2
SW_NOTE_3
340
0
102
{BLKREFS
331
91
102
}
  0
BLOCK_RECORD
  5
D8
330
1
100
AcDbSymbolTableRecord
100
AcDbBlockTableRecord
  2
*D5
340
0
  0
BLOCK_RECORD
  5
EA
330
1
100
AcDbSymbolTableRecord
100
AcDbBlockTableRecord
  2
*D6
340
0
  0
BLOCK_RECORD
  5
FB
330
1
100
AcDbSymbolTableRecord
100
AcDbBlockTableRecord
  2
SW_NOTE_4
340
0
102
{BLKREFS
331
103
102
}
  0
BLOCK_RECORD
  5
151
330
1
100
AcDbSymbolTableRecord
100
AcDbBlockTableRecord
  2
*D8
340
0
  0
BLOCK_RECORD
  5
284
330
1
100
AcDbSymbolTableRecord
100
AcDbBlockTableRecord
  2
*D9
340
0
  0
BLOCK_RECORD
  5
296
330
1
100
AcDbSymbolTableRecord
100
AcDbBlockTableRecord
  2
*D10
340
0
  0
BLOCK_RECORD
  5
2A9
330
1
100
AcDbSymbolTableRecord
100
AcDbBlockTableRecord
  2
*D11
340
0
  0
BLOCK_RECORD
  5
2BA
330
1
100
AcDbSymbolTableRecord
100
AcDbBlockTableRecord
  2
*D12
340
0
  0
BLOCK_RECORD
  5
2CC
330
1
100
AcDbSymbolTableRecord
100
AcDbBlockTableRecord
  2
*D13
340
0
  0
BLOCK_RECORD
  5
3E9
330
1
100
AcDbSymbolTableRecord
100
AcDbBlockTableRecord
  2
*D14
340
0
  0
BLOCK_RECORD
  5
3F8
330
1
100
AcDbSymbolTableRecord
100
AcDbBlockTableRecord
  2
SW_NOTE_5
340
0
102
{BLKREFS
331
3FD
102
}
  0
ENDTAB
  0
ENDSEC
  0
SECTION
  2
BLOCKS
  0
BLOCK
  5
20
330
1F
100
AcDbEntity
  8
0
100
AcDbBlockBegin
  2
*Model_Space
 70
     0
 10
0.0
 20
0.0
 30
0.0
  3
*Model_Space
  1

  0
ENDBLK
  5
21
330
1F
100
AcDbEntity
  8
0
100
AcDbBlockEnd
  0
BLOCK
  5
1C
330
1B
100
AcDbEntity
 67
     1
  8
0
100
AcDbBlockBegin
  2
*Paper_Space
 70
     0
 10
0.0
 20
0.0
 30
0.0
  3
*Paper_Space
  1

  0
ENDBLK
  5
1D
330
1B
100
AcDbEntity
 67
     1
  8
0
100
AcDbBlockEnd
  0
BLOCK
  5
24
330
23
100
AcDbEntity
  8
0
100
AcDbBlockBegin
  2
*Paper_Space0
 70
     0
 10
0.0
 20
0.0
 30
0.0
  3
*Paper_Space0
  1

  0
ENDBLK
  5
25
330
23
100
AcDbEntity
  8
0
100
AcDbBlockEnd
  0
BLOCK
  5
55
330
54
100
AcDbEntity
  8
0
100
AcDbBlockBegin
  2
SW_NOTE_0
 70
     0
 10
0.0
 20
0.0
 30
0.0
  3
SW_NOTE_0
  1

  0
MTEXT
  5
7A
330
54
100
AcDbEntity
  8
0
  6
Continuous
 62
     0
 48
3.5
370
     0
100
AcDbMText
 10
0.0
 20
0.5639671362
 30
0.0
 40
0.4375
 41
0.0
 71
     1
 72
     1
  1
MATERIAL - 16 GA. [1.5mm] STEEL
  7
SLDTEXTSTYLE0
 73
     1
 44
1.0
  0
MTEXT
  5
7B
330
54
100
AcDbEntity
  8
0
  6
Continuous
 62
     0
 48
3.5
370
     0
100
AcDbMText
 10
0.0
 20
-0.5866233855
 30
0.0
 40
0.4375
 41
0.0
 71
     1
 72
     1
  1
FINISH - SMOOTH GRAY POWDERCOAT
  7
SLDTEXTSTYLE0
 73
     1
 44
1.0
  0
ENDBLK
  5
56
330
54
100
AcDbEntity
  8
0
100
AcDbBlockEnd
  0
BLOCK
  5
81
330
80
100
AcDbEntity
  8
0
100
AcDbBlockBegin
  2
SW_NOTE_1
 70
     0
 10
0.0
 20
0.0
 30
0.0
  3
SW_NOTE_1
  1

  0
MTEXT
  5
83
330
80
100
AcDbEntity
  8
0
  6
Continuous
 62
     0
 48
3.5
370
     0
100
AcDbMText
 10
0.0
 20
0.5639671362
 30
0.0
 40
0.4375
 41
0.0
 71
     1
 72
     1
  1
PART
  7
SLDTEXTSTYLE0
 73
     1
 44
1.0
  0
MTEXT
  5
84
330
80
100
AcDbEntity
  8
0
  6
Continuous
 62
     0
 48
3.5
370
     0
100
AcDbMText
 10
-0.1631130549
 20
-0.0113281247
 30
0.0
 40
0.4375
 41
0.0
 71
     1
 72
     1
  1
NAME
  7
SLDTEXTSTYLE0
 73
     1
 44
1.0
  0
ENDBLK
  5
82
330
80
100
AcDbEntity
  8
0
100
AcDbBlockEnd
  0
BLOCK
  5
87
330
86
100
AcDbEntity
  8
0
100
AcDbBlockBegin
  2
SW_NOTE_2
 70
     0
 10
0.0
 20
0.0
 30
0.0
  3
SW_NOTE_2
  1

  0
MTEXT
  5
89
330
86
100
AcDbEntity
  8
0
  6
Continuous
 62
     0
 48
3.5
370
     0
100
AcDbMText
 10
0.0
 20
0.5639671362
 30
0.0
 40
0.4375
 41
0.0
 71
     1
 72
     1
  1
PART
  7
SLDTEXTSTYLE0
 73
     1
 44
1.0
  0
MTEXT
  5
8A
330
86
100
AcDbEntity
  8
0
  6
Continuous
 62
     0
 48
3.5
370
     0
100
AcDbMText
 10
0.2043185834
 20
-0.0113281247
 30
0.0
 40
0.4375
 41
0.0
 71
     1
 72
     1
  1
No.
  7
SLDTEXTSTYLE0
 73
     1
 44
1.0
  0
ENDBLK
  5
88
330
86
100
AcDbEntity
  8
0
100
AcDbBlockEnd
  0
BLOCK
  5
8D
330
8C
100
AcDbEntity
  8
0
100
AcDbBlockBegin
  2
SW_NOTE_3
 70
     0
 10
0.0
 20
0.0
 30
0.0
  3
SW_NOTE_3
  1

  0
MTEXT
  5
8F
330
8C
100
AcDbEntity
  8
0
  6
Continuous
 62
     0
 48
3.5
370
     0
100
AcDbMText
 10
0.0
 20
0.5639671362
 30
0.0
 40
0.4375
 41
0.0
 71
     1
 72
     1
  1
REVISION
  7
SLDTEXTSTYLE0
 73
     1
 44
1.0
  0
MTEXT
  5
90
330
8C
100
AcDbEntity
  8
0
  6
Continuous
 62
     0
 48
3.5
370
     0
100
AcDbMText
 10
0.546799045
 20
-0.0113281247
 30
0.0
 40
0.4375
 41
0.0
 71
     1
 72
     1
  1
DATE
  7
SLDTEXTSTYLE0
 73
     1
 44
1.0
  0
ENDBLK
  5
8E
330
8C
100
AcDbEntity
  8
0
100
AcDbBlockEnd
  0
BLOCK
  5
D9
330
D8
100
AcDbEntity
  8
0
100
AcDbBlockBegin
  2
*D5
 70
     1
 10
0.0
 20
0.0
 30
0.0
  3
*D5
  1

  0
SOLID
  5
DB
330
D8
100
AcDbEntity
  8
0
  6
Continuous
 62
     7
 48
3.5
370
     0
100
AcDbTrace
 10
12.5501717012
 20
23.0086747691
 30
0.0
 11
13.0051717012
 21
22.9386747691
 31
0.0
 12
13.0051717012
 22
23.0786747691
 32
0.0
 13
13.0051717012
 23
23.0786747691
 33
0.0
  0
SOLID
  5
DC
330
D8
100
AcDbEntity
  8
0
  6
Continuous
 62
     7
 48
3.5
370
     0
100
AcDbTrace
 10
22.5501717012
 20
23.0086747691
 30
0.0
 11
22.0951717012
 21
23.0786747691
 31
0.0
 12
22.0951717012
 22
22.9386747691
 32
0.0
 13
22.0951717012
 23
22.9386747691
 33
0.0
  0
LINE
  5
DD
330
D8
100
AcDbEntity
  8
0
  6
Continuous
 62
     7
 48
3.5
370
     0
100
AcDbLine
 10
16.887827084
 20
22.9566005405
 30
0.0
 11
16.887827084
 21
22.3664259499
 31
0.0
  0
LINE
  5
DE
330
D8
100
AcDbEntity
  8
0
  6
Continuous
 62
     7
 48
3.5
370
     0
100
AcDbLine
 10
16.887827084
 20
22.3664259499
 30
0.0
 11
16.9766304957
 21
22.3664259499
 31
0.0
  0
LINE
  5
DF
330
D8
100
AcDbEntity
  8
0
  6
Continuous
 62
     7
 48
3.5
370
     0
100
AcDbLine
 10
16.887827084
 20
22.9566005405
 30
0.0
 11
16.9766304957
 21
22.9566005405
 31
0.0
  0
LINE
  5
E0
330
D8
100
AcDbEntity
  8
0
  6
Continuous
 62
     7
 48
3.5
370
     0
100
AcDbLine
 10
18.2125163183
 20
22.9566005405
 30
0.0
 11
18.2125163183
 21
22.3664259499
 31
0.0
  0
LINE
  5
E1
330
D8
100
AcDbEntity
  8
0
  6
Continuous
 62
     7
 48
3.5
370
     0
100
AcDbLine
 10
18.2125163183
 20
22.3664259499
 30
0.0
 11
18.1237129066
 21
22.3664259499
 31
0.0
  0
LINE
  5
E2
330
D8
100
AcDbEntity
  8
0
  6
Continuous
 62
     7
 48
3.5
370
     0
100
AcDbLine
 10
18.2125163183
 20
22.9566005405
 30
0.0
 11
18.1237129066
 21
22.9566005405
 31
0.0
  0
LINE
  5
E3
330
D8
100
AcDbEntity
  8
0
  6
Continuous
 62
     7
 48
3.5
370
     0
100
AcDbLine
 10
12.5501717012
 20
22.0964357647
 30
0.0
 11
12.5501717012
 21
23.4461747691
 31
0.0
  0
LINE
  5
E4
330
D8
100
AcDbEntity
  8
0
  6
Continuous
 62
     7
 48
3.5
370
     0
100
AcDbLine
 10
22.5501717012
 20
22.0964357647
 30
0.0
 11
22.5501717012
 21
23.4461747691
 31
0.0
  0
LINE
  5
E5
330
D8
100
AcDbEntity
  8
0
  6
Continuous
 62
     7
 48
3.5
370
     0
100
AcDbLine
 10
12.5501717012
 20
23.0086747691
 30
0.0
 11
16.4027818793
 21
23.0086747691
 31
0.0
  0
LINE
  5
E6
330
D8
100
AcDbEntity
  8
0
  6
Continuous
 62
     7
 48
3.5
370
     0
100
AcDbLine
 10
22.5501717012
 20
23.0086747691
 30
0.0
 11
18.697561523
 21
23.0086747691
 31
0.0
  0
MTEXT
  5
E7
330
D8
100
AcDbEntity
  8
0
  6
Continuous
 62
     7
 48
3.5
370
     0
100
AcDbMText
 10
16.8229499802
 20
23.5726418812
 30
0.0
 40
0.4375
 41
0.0
 71
     1
 72
     1
  1
10.00
  7
SLDTEXTSTYLE0
 73
     1
 44
1.0
  0
MTEXT
  5
E8
330
D8
100
AcDbEntity
  8
0
  6
Continuous
 62
     7
 48
3.5
370
     0
100
AcDbMText
 10
17.0654339074
 20
22.8783188334
 30
0.0
 40
0.4375
 41
0.0
 71
     1
 72
     1
  1
254
  7
SLDTEXTSTYLE0
 73
     1
 44
1.0
  0
ENDBLK
  5
DA
330
D8
100
AcDbEntity
  8
0
100
AcDbBlockEnd
  0
BLOCK
  5
EB
330
EA
100
AcDbEntity
  8
0
100
AcDbBlockBegin
  2
*D6
 70
     1
 10
0.0
 20
0.0
 30
0.0
  3
*D6
  1

  0
SOLID
  5
ED
330
EA
100
AcDbEntity
  8
0
  6
Continuous
 62
     7
 48
3.5
370
     0
100
AcDbTrace
 10
23.6882070555
 20
21.9214357647
 30
0.0
 11
23.6182070555
 21
21.4664357647
 31
0.0
 12
23.7582070555
 22
21.4664357647
 32
0.0
 13
23.7582070555
 23
21.4664357647
 33
0.0
  0
SOLID
  5
EE
330
EA
100
AcDbEntity
  8
0
  6
Continuous
 62
     7
 48
3.5
370
     0
100
AcDbTrace
 10
23.6882070555
 20
11.9214357647
 30
0.0
 11
23.7582070555
 21
12.3764357647
 31
0.0
 12
23.6182070555
 22
12.3764357647
 32
0.0
 13
23.6182070555
 23
12.3764357647
 33
0.0
  0
LINE
  5
EF
330
EA
100
AcDbEntity
  8
0
  6
Continuous
 62
     7
 48
3.5
370
     0
100
AcDbLine
 10
23.0258624383
 20
16.8693615361
 30
0.0
 11
23.0258624383
 21
16.2791869455
 31
0.0
  0
LINE
  5
F0
330
EA
100
AcDbEntity
  8
0
  6
Continuous
 62
     7
 48
3.5
370
     0
100
AcDbLine
 10
23.0258624383
 20
16.2791869455
 30
0.0
 11
23.11466585
 21
16.2791869455
 31
0.0
  0
LINE
  5
F1
330
EA
100
AcDbEntity
  8
0
  6
Continuous
 62
     7
 48
3.5
370
     0
100
AcDbLine
 10
23.0258624383
 20
16.8693615361
 30
0.0
 11
23.11466585
 21
16.8693615361
 31
0.0
  0
LINE
  5
F2
330
EA
100
AcDbEntity
  8
0
  6
Continuous
 62
     7
 48
3.5
370
     0
100
AcDbLine
 10
24.3505516726
 20
16.8693615361
 30
0.0
 11
24.3505516726
 21
16.2791869455
 31
0.0
  0
LINE
  5
F3
330
EA
100
AcDbEntity
  8
0
  6
Continuous
 62
     7
 48
3.5
370
     0
100
AcDbLine
 10
24.3505516726
 20
16.2791869455
 30
0.0
 11
24.2617482609
 21
16.2791869455
 31
0.0
  0
LINE
  5
F4
330
EA
100
AcDbEntity
  8
0
  6
Continuous
 62
     7
 48
3.5
370
     0
100
AcDbLine
 10
24.3505516726
 20
16.8693615361
 30
0.0
 11
24.2617482609
 21
16.8693615361
 31
0.0
  0
LINE
  5
F5
330
EA
100
AcDbEntity
  8
0
  6
Continuous
 62
     7
 48
3.5
370
     0
100
AcDbLine
 10
22.7251717012
 20
21.9214357647
 30
0.0
 11
24.1257070555
 21
21.9214357647
 31
0.0
  0
LINE
  5
F6
330
EA
100
AcDbEntity
  8
0
  6
Continuous
 62
     7
 48
3.5
370
     0
100
AcDbLine
 10
22.7251717012
 20
11.9214357647
 30
0.0
 11
24.1257070555
 21
11.9214357647
 31
0.0
  0
LINE
  5
F7
330
EA
100
AcDbEntity
  8
0
  6
Continuous
 62
     7
 48
3.5
370
     0
100
AcDbLine
 10
23.6882070555
 20
21.9214357647
 30
0.0
 11
23.6882070555
 21
17.6157588124
 31
0.0
  0
LINE
  5
F8
330
EA
100
AcDbEntity
  8
0
  6
Continuous
 62
     7
 48
3.5
370
     0
100
AcDbLine
 10
23.6882070555
 20
11.9214357647
 30
0.0
 11
23.6882070555
 21
16.2271127169
 31
0.0
  0
MTEXT
  5
F9
330
EA
100
AcDbEntity
  8
0
  6
Continuous
 62
     7
 48
3.5
370
     0
100
AcDbMText
 10
22.9609853345
 20
17.4854028767
 30
0.0
 40
0.4375
 41
0.0
 71
     1
 72
     1
  1
10.00
  7
SLDTEXTSTYLE0
 73
     1
 44
1.0
  0
MTEXT
  5
FA
330
EA
100
AcDbEntity
  8
0
  6
Continuous
 62
     7
 48
3.5
370
     0
100
AcDbMText
 10
23.2034692617
 20
16.791079829
 30
0.0
 40
0.4375
 41
0.0
 71
     1
 72
     1
  1
254
  7
SLDTEXTSTYLE0
 73
     1
 44
1.0
  0
ENDBLK
  5
EC
330
EA
100
AcDbEntity
  8
0
100
AcDbBlockEnd
  0
BLOCK
  5
FC
330
FB
100
AcDbEntity
  8
0
100
AcDbBlockBegin
  2
SW_NOTE_4
 70
     0
 10
0.0
 20
0.0
 30
0.0
  3
SW_NOTE_4
  1

  0
MTEXT
  5
FE
330
FB
100
AcDbEntity
  8
0
  6
Continuous
 62
     0
 48
3.5
370
     0
100
AcDbMText
 10
0.0693164505
 20
0.2122156518
 30
0.0
 40
0.4375
 41
0.0
 71
     1
 72
     1
  1
SCREWS: #10-32 x .31"[8mm] LG.
  7
SLDTEXTSTYLE0
 73
     1
 44
1.0
  0
MTEXT
  5
FF
330
FB
100
AcDbEntity
  8
0
  6
Continuous
 62
     0
 48
3.5
370
     0
100
AcDbMText
 10
0.0693164505
 20
-0.363079609
 30
0.0
 40
0.4375
 41
0.0
 71
     1
 72
     1
  1
MACHINE, PAN HEAD, SLOTTED/SQUARE
  7
SLDTEXTSTYLE0
 73
     1
 44
1.0
  0
MTEXT
  5
100
330
FB
100
AcDbEntity
  8
0
  6
Continuous
 62
     0
 48
3.5
370
     0
100
AcDbMText
 10
0.0693164505
 20
-0.9383748698
 30
0.0
 40
0.4375
 41
0.0
 71
     1
 72
     1
  1
COMBINATION STYLE DRIVE, STEEL, ZINC PLATED.
  7
SLDTEXTSTYLE0
 73
     1
 44
1.0
  0
MTEXT
  5
101
330
FB
100
AcDbEntity
  8
0
  6
Continuous
 62
     0
 48
3.5
370
     0
100
AcDbMText
 10
0.0693164505
 20
-1.5136701306
 30
0.0
 40
0.4375
 41
0.0
 71
     1
 72
     1
  1
(SUPPLIED FOR COVER MOUNTING AND
  7
SLDTEXTSTYLE0
 73
     1
 44
1.0
  0
MTEXT
  5
102
330
FB
100
AcDbEntity
  8
0
  6
Continuous
 62
     0
 48
3.5
370
     0
100
AcDbMText
 10
0.0693164505
 20
-2.0889653914
 30
0.0
 40
0.4375
 41
0.0
 71
     1
 72
     1
  1
FOR GROUND POINT).
  7
SLDTEXTSTYLE0
 73
     1
 44
1.0
  0
ENDBLK
  5
FD
330
FB
100
AcDbEntity
  8
0
100
AcDbBlockEnd
  0
BLOCK
  5
152
330
151
100
AcDbEntity
  8
0
100
AcDbBlockBegin
  2
*D8
 70
     1
 10
0.0
 20
0.0
 30
0.0
  3
*D8
  1

  0
SOLID
  5
154
330
151
100
AcDbEntity
  8
0
  6
Continuous
 62
     7
 48
3.5
370
     0
100
AcDbTrace
 10
23.9418678355
 20
32.2563698325
 30
0.0
 11
23.8718678355
 21
31.8013698325
 31
0.0
 12
24.0118678355
 22
31.8013698325
 32
0.0
 13
24.0118678355
 23
31.8013698325
 33
0.0
  0
SOLID
  5
155
330
151
100
AcDbEntity
  8
0
  6
Continuous
 62
     7
 48
3.5
370
     0
100
AcDbTrace
 10
23.9418678355
 20
26.2563698325
 30
0.0
 11
24.0118678355
 21
26.7113698325
 31
0.0
 12
23.8718678355
 22
26.7113698325
 32
0.0
 13
23.8718678355
 23
26.7113698325
 33
0.0
  0
LINE
  5
156
330
151
100
AcDbEntity
  8
0
  6
Continuous
 62
     7
 48
3.5
370
     0
100
AcDbLine
 10
23.0370392911
 20
29.2042956039
 30
0.0
 11
23.0370392911
 21
28.6141210133
 31
0.0
  0
LINE
  5
157
330
151
100
AcDbEntity
  8
0
  6
Continuous
 62
     7
 48
3.5
370
     0
100
AcDbLine
 10
23.0370392911
 20
28.6141210133
 30
0.0
 11
23.1258427028
 21
28.6141210133
 31
0.0
  0
LINE
  5
158
330
151
100
AcDbEntity
  8
0
  6
Continuous
 62
     7
 48
3.5
370
     0
100
AcDbLine
 10
23.0370392911
 20
29.2042956039
 30
0.0
 11
23.1258427028
 21
29.2042956039
 31
0.0
  0
LINE
  5
159
330
151
100
AcDbEntity
  8
0
  6
Continuous
 62
     7
 48
3.5
370
     0
100
AcDbLine
 10
24.8466963799
 20
29.2042956039
 30
0.0
 11
24.8466963799
 21
28.6141210133
 31
0.0
  0
LINE
  5
15A
330
151
100
AcDbEntity
  8
0
  6
Continuous
 62
     7
 48
3.5
370
     0
100
AcDbLine
 10
24.8466963799
 20
28.6141210133
 30
0.0
 11
24.7578929682
 21
28.6141210133
 31
0.0
  0
LINE
  5
15B
330
151
100
AcDbEntity
  8
0
  6
Continuous
 62
     7
 48
3.5
370
     0
100
AcDbLine
 10
24.8466963799
 20
29.2042956039
 30
0.0
 11
24.7578929682
 21
29.2042956039
 31
0.0
  0
LINE
  5
15C
330
151
100
AcDbEntity
  8
0
  6
Continuous
 62
     7
 48
3.5
370
     0
100
AcDbLine
 10
22.6481717012
 20
32.2563698325
 30
0.0
 11
24.3793678355
 21
32.2563698325
 31
0.0
  0
LINE
  5
15D
330
151
100
AcDbEntity
  8
0
  6
Continuous
 62
     7
 48
3.5
370
     0
100
AcDbLine
 10
22.7251717012
 20
26.2563698325
 30
0.0
 11
24.3793678355
 21
26.2563698325
 31
0.0
  0
LINE
  5
15E
330
151
100
AcDbEntity
  8
0
  6
Continuous
 62
     7
 48
3.5
370
     0
100
AcDbLine
 10
23.9418678355
 20
32.2563698325
 30
0.0
 11
23.9418678355
 21
29.9506928802
 31
0.0
  0
LINE
  5
15F
330
151
100
AcDbEntity
  8
0
  6
Continuous
 62
     7
 48
3.5
370
     0
100
AcDbLine
 10
23.9418678355
 20
26.2563698325
 30
0.0
 11
23.9418678355
 21
28.5620467847
 31
0.0
  0
MTEXT
  5
160
330
151
100
AcDbEntity
  8
0
  6
Continuous
 62
     7
 48
3.5
370
     0
100
AcDbMText
 10
23.3763787529
 20
29.8203369446
 30
0.0
 40
0.4375
 41
0.0
 71
     1
 72
     1
  1
6.00
  7
SLDTEXTSTYLE0
 73
     1
 44
1.0
  0
MTEXT
  5
161
330
151
100
AcDbEntity
  8
0
  6
Continuous
 62
     7
 48
3.5
370
     0
100
AcDbMText
 10
23.2146461145
 20
29.1260138968
 30
0.0
 40
0.4375
 41
0.0
 71
     1
 72
     1
  1
152.4
  7
SLDTEXTSTYLE0
 73
     1
 44
1.0
  0
ENDBLK
  5
153
330
151
100
AcDbEntity
  8
0
100
AcDbBlockEnd
  0
BLOCK
  5
285
330
284
100
AcDbEntity
  8
0
100
AcDbBlockBegin
  2
*D9
 70
     1
 10
0.0
 20
0.0
 30
0.0
  3
*D9
  1

  0
SOLID
  5
287
330
284
100
AcDbEntity
  8
0
  6
Continuous
 62
     7
 48
3.5
370
     0
100
AcDbTrace
 10
44.9598227468
 20
20.4214357647
 30
0.0
 11
44.8898227468
 21
19.9664357647
 31
0.0
 12
45.0298227468
 22
19.9664357647
 32
0.0
 13
45.0298227468
 23
19.9664357647
 33
0.0
  0
SOLID
  5
288
330
284
100
AcDbEntity
  8
0
  6
Continuous
 62
     7
 48
3.5
370
     0
100
AcDbTrace
 10
44.9598227468
 20
13.4214357647
 30
0.0
 11
45.0298227468
 21
13.8764357647
 31
0.0
 12
44.8898227468
 22
13.8764357647
 32
0.0
 13
44.8898227468
 23
13.8764357647
 33
0.0
  0
LINE
  5
289
330
284
100
AcDbEntity
  8
0
  6
Continuous
 62
     7
 48
3.5
370
     0
100
AcDbLine
 10
44.0549942025
 20
16.8693615361
 30
0.0
 11
44.0549942025
 21
16.2791869455
 31
0.0
  0
LINE
  5
28A
330
284
100
AcDbEntity
  8
0
  6
Continuous
 62
     7
 48
3.5
370
     0
100
AcDbLine
 10
44.0549942025
 20
16.2791869455
 30
0.0
 11
44.1437976142
 21
16.2791869455
 31
0.0
  0
LINE
  5
28B
330
284
100
AcDbEntity
  8
0
  6
Continuous
 62
     7
 48
3.5
370
     0
100
AcDbLine
 10
44.0549942025
 20
16.8693615361
 30
0.0
 11
44.1437976142
 21
16.8693615361
 31
0.0
  0
LINE
  5
28C
330
284
100
AcDbEntity
  8
0
  6
Continuous
 62
     7
 48
3.5
370
     0
100
AcDbLine
 10
45.8646512912
 20
16.8693615361
 30
0.0
 11
45.8646512912
 21
16.2791869455
 31
0.0
  0
LINE
  5
28D
330
284
100
AcDbEntity
  8
0
  6
Continuous
 62
     7
 48
3.5
370
     0
100
AcDbLine
 10
45.8646512912
 20
16.2791869455
 30
0.0
 11
45.7758478795
 21
16.2791869455
 31
0.0
  0
LINE
  5
28E
330
284
100
AcDbEntity
  8
0
  6
Continuous
 62
     7
 48
3.5
370
     0
100
AcDbLine
 10
45.8646512912
 20
16.8693615361
 30
0.0
 11
45.7758478795
 21
16.8693615361
 31
0.0
  0
LINE
  5
28F
330
284
100
AcDbEntity
  8
0
  6
Continuous
 62
     7
 48
3.5
370
     0
100
AcDbLine
 10
46.4154932191
 20
20.4214357647
 30
0.0
 11
44.5223227468
 21
20.4214357647
 31
0.0
  0
LINE
  5
290
330
284
100
AcDbEntity
  8
0
  6
Continuous
 62
     7
 48
3.5
370
     0
100
AcDbLine
 10
46.4154932191
 20
13.4214357647
 30
0.0
 11
44.5223227468
 21
13.4214357647
 31
0.0
  0
LINE
  5
291
330
284
100
AcDbEntity
  8
0
  6
Continuous
 62
     7
 48
3.5
370
     0
100
AcDbLine
 10
44.9598227468
 20
20.4214357647
 30
0.0
 11
44.9598227468
 21
17.6157588124
 31
0.0
  0
LINE
  5
292
330
284
100
AcDbEntity
  8
0
  6
Continuous
 62
     7
 48
3.5
370
     0
100
AcDbLine
 10
44.9598227468
 20
13.4214357647
 30
0.0
 11
44.9598227468
 21
16.2271127169
 31
0.0
  0
MTEXT
  5
293
330
284
100
AcDbEntity
  8
0
  6
Continuous
 62
     7
 48
3.5
370
     0
100
AcDbMText
 10
44.3943336642
 20
17.4854028767
 30
0.0
 40
0.4375
 41
0.0
 71
     1
 72
     1
  1
7.00
  7
SLDTEXTSTYLE0
 73
     1
 44
1.0
  0
MTEXT
  5
294
330
284
100
AcDbEntity
  8
0
  6
Continuous
 62
     7
 48
3.5
370
     0
100
AcDbMText
 10
44.2326010258
 20
16.791079829
 30
0.0
 40
0.4375
 41
0.0
 71
     1
 72
     1
  1
177.8
  7
SLDTEXTSTYLE0
 73
     1
 44
1.0
  0
ENDBLK
  5
286
330
284
100
AcDbEntity
  8
0
100
AcDbBlockEnd
  0
BLOCK
  5
297
330
296
100
AcDbEntity
  8
0
100
AcDbBlockBegin
  2
*D10
 70
     1
 10
0.0
 20
0.0
 30
0.0
  3
*D10
  1

  0
SOLID
  5
299
330
296
100
AcDbEntity
  8
0
  6
Continuous
 62
     7
 48
3.5
370
     0
100
AcDbTrace
 10
46.5904932191
 20
10.8900128444
 30
0.0
 11
47.0454932191
 21
10.8200128444
 31
0.0
 12
47.0454932191
 22
10.9600128444
 32
0.0
 13
47.0454932191
 23
10.9600128444
 33
0.0
  0
SOLID
  5
29A
330
296
100
AcDbEntity
  8
0
  6
Continuous
 62
     7
 48
3.5
370
     0
100
AcDbTrace
 10
55.5904932191
 20
10.8900128444
 30
0.0
 11
55.1354932191
 21
10.9600128444
 31
0.0
 12
55.1354932191
 22
10.8200128444
 32
0.0
 13
55.1354932191
 23
10.8200128444
 33
0.0
  0
LINE
  5
29B
330
296
100
AcDbEntity
  8
0
  6
Continuous
 62
     7
 48
3.5
370
     0
100
AcDbLine
 10
50.1856646748
 20
10.8379386158
 30
0.0
 11
50.1856646748
 21
10.2477640252
 31
0.0
  0
LINE
  5
29C
330
296
100
AcDbEntity
  8
0
  6
Continuous
 62
     7
 48
3.5
370
     0
100
AcDbLine
 10
50.1856646748
 20
10.2477640252
 30
0.0
 11
50.2744680865
 21
10.2477640252
 31
0.0
  0
LINE
  5
29D
330
296
100
AcDbEntity
  8
0
  6
Continuous
 62
     7
 48
3.5
370
     0
100
AcDbLine
 10
50.1856646748
 20
10.8379386158
 30
0.0
 11
50.2744680865
 21
10.8379386158
 31
0.0
  0
LINE
  5
29E
330
296
100
AcDbEntity
  8
0
  6
Continuous
 62
     7
 48
3.5
370
     0
100
AcDbLine
 10
51.9953217635
 20
10.8379386158
 30
0.0
 11
51.9953217635
 21
10.2477640252
 31
0.0
  0
LINE
  5
29F
330
296
100
AcDbEntity
  8
0
  6
Continuous
 62
     7
 48
3.5
370
     0
100
AcDbLine
 10
51.9953217635
 20
10.2477640252
 30
0.0
 11
51.9065183518
 21
10.2477640252
 31
0.0
  0
LINE
  5
2A0
330
296
100
AcDbEntity
  8
0
  6
Continuous
 62
     7
 48
3.5
370
     0
100
AcDbLine
 10
51.9953217635
 20
10.8379386158
 30
0.0
 11
51.9065183518
 21
10.8379386158
 31
0.0
  0
LINE
  5
2A1
330
296
100
AcDbEntity
  8
0
  6
Continuous
 62
     7
 48
3.5
370
     0
100
AcDbLine
 10
46.5904932191
 20
13.2464357647
 30
0.0
 11
46.5904932191
 21
10.4525128444
 31
0.0
  0
LINE
  5
2A2
330
296
100
AcDbEntity
  8
0
  6
Continuous
 62
     7
 48
3.5
370
     0
100
AcDbLine
 10
55.5904932191
 20
13.2464357647
 30
0.0
 11
55.5904932191
 21
10.4525128444
 31
0.0
  0
LINE
  5
2A3
330
296
100
AcDbEntity
  8
0
  6
Continuous
 62
     7
 48
3.5
370
     0
100
AcDbLine
 10
46.5904932191
 20
10.8900128444
 30
0.0
 11
49.7006194701
 21
10.8900128444
 31
0.0
  0
LINE
  5
2A4
330
296
100
AcDbEntity
  8
0
  6
Continuous
 62
     7
 48
3.5
370
     0
100
AcDbLine
 10
55.5904932191
 20
10.8900128444
 30
0.0
 11
52.4803669682
 21
10.8900128444
 31
0.0
  0
MTEXT
  5
2A5
330
296
100
AcDbEntity
  8
0
  6
Continuous
 62
     7
 48
3.5
370
     0
100
AcDbMText
 10
50.5250041365
 20
11.4539799565
 30
0.0
 40
0.4375
 41
0.0
 71
     1
 72
     1
  1
9.00
  7
SLDTEXTSTYLE0
 73
     1
 44
1.0
  0
MTEXT
  5
2A6
330
296
100
AcDbEntity
  8
0
  6
Continuous
 62
     7
 48
3.5
370
     0
100
AcDbMText
 10
50.3632714981
 20
10.7596569087
 30
0.0
 40
0.4375
 41
0.0
 71
     1
 72
     1
  1
228.6
  7
SLDTEXTSTYLE0
 73
     1
 44
1.0
  0
ENDBLK
  5
298
330
296
100
AcDbEntity
  8
0
100
AcDbBlockEnd
  0
BLOCK
  5
2AA
330
2A9
100
AcDbEntity
  8
0
100
AcDbBlockBegin
  2
*D11
 70
     1
 10
0.0
 20
0.0
 30
0.0
  3
*D11
  1

  0
SOLID
  5
2AC
330
2A9
100
AcDbEntity
  8
0
  6
Continuous
 62
     7
 48
3.5
370
     0
100
AcDbTrace
 10
55.6436554559
 20
13.2913818274
 30
0.0
 11
55.7510223037
 21
12.8437241904
 31
0.0
 12
55.8806134155
 22
12.8966972377
 32
0.0
 13
55.8806134155
 23
12.8966972377
 33
0.0
  0
LINE
  5
2AD
330
2A9
100
AcDbEntity
  8
0
  6
Continuous
 62
     7
 48
3.5
370
     0
100
AcDbLine
 10
54.8340647588
 20
9.6286062908
 30
0.0
 11
54.8340647588
 21
9.0384317002
 31
0.0
  0
LINE
  5
2AE
330
2A9
100
AcDbEntity
  8
0
  6
Continuous
 62
     7
 48
3.5
370
     0
100
AcDbLine
 10
54.8340647588
 20
9.0384317002
 30
0.0
 11
54.9228681705
 21
9.0384317002
 31
0.0
  0
LINE
  5
2AF
330
2A9
100
AcDbEntity
  8
0
  6
Continuous
 62
     7
 48
3.5
370
     0
100
AcDbLine
 10
54.8340647588
 20
9.6286062908
 30
0.0
 11
54.9228681705
 21
9.6286062908
 31
0.0
  0
LINE
  5
2B0
330
2A9
100
AcDbEntity
  8
0
  6
Continuous
 62
     7
 48
3.5
370
     0
100
AcDbLine
 10
56.3202565708
 20
9.6286062908
 30
0.0
 11
56.3202565708
 21
9.0384317002
 31
0.0
  0
LINE
  5
2B1
330
2A9
100
AcDbEntity
  8
0
  6
Continuous
 62
     7
 48
3.5
370
     0
100
AcDbLine
 10
56.3202565708
 20
9.0384317002
 30
0.0
 11
56.2314531591
 21
9.0384317002
 31
0.0
  0
LINE
  5
2B2
330
2A9
100
AcDbEntity
  8
0
  6
Continuous
 62
     7
 48
3.5
370
     0
100
AcDbLine
 10
56.3202565708
 20
9.6286062908
 30
0.0
 11
56.2314531591
 21
9.6286062908
 31
0.0
  0
LINE
  5
2B3
330
2A9
100
AcDbEntity
  8
0
  6
Continuous
 62
     7
 48
3.5
370
     0
100
AcDbLine
 10
55.6436554559
 20
13.2913818274
 30
0.0
 11
57.1196042963
 21
9.6806805194
 31
0.0
  0
LINE
  5
2B4
330
2A9
100
AcDbEntity
  8
0
  6
Continuous
 62
     7
 48
3.5
370
     0
100
AcDbLine
 10
57.1196042963
 20
9.6806805194
 30
0.0
 11
56.6821042963
 21
9.6806805194
 31
0.0
  0
MTEXT
  5
2B5
330
2A9
100
AcDbEntity
  8
0
  6
Continuous
 62
     7
 48
3.5
370
     0
100
AcDbMText
 10
54.6992262107
 20
10.2446476395
 30
0.0
 40
0.4375
 41
0.0
 71
     1
 72
     1
  1
%%c
  7
SLDTEXTSTYLE0
 73
     1
 44
1.0
  0
MTEXT
  5
2B6
330
2A9
100
AcDbEntity
  8
0
  6
Continuous
 62
     7
 48
3.5
370
     0
100
AcDbMText
 10
55.3241169537
 20
10.2446476315
 30
0.0
 40
0.4375
 41
0.0
 71
     1
 72
     1
  1
.281
  7
SLDTEXTSTYLE0
 73
     1
 44
1.0
  0
MTEXT
  5
2B7
330
2A9
100
AcDbEntity
  8
0
  6
Continuous
 62
     7
 48
3.5
370
     0
100
AcDbMText
 10
55.0116715822
 20
9.5503245837
 30
0.0
 40
0.4375
 41
0.0
 71
     1
 72
     1
  1
7.14
  7
SLDTEXTSTYLE0
 73
     1
 44
1.0
  0
ENDBLK
  5
2AB
330
2A9
100
AcDbEntity
  8
0
100
AcDbBlockEnd
  0
BLOCK
  5
2BB
330
2BA
100
AcDbEntity
  8
0
100
AcDbBlockBegin
  2
*D12
 70
     1
 10
0.0
 20
0.0
 30
0.0
  3
*D12
  1

  0
SOLID
  5
2BD
330
2BA
100
AcDbEntity
  8
0
  6
Continuous
 62
     7
 48
3.5
370
     0
100
AcDbTrace
 10
57.2086694834
 20
19.9214357647
 30
0.0
 11
57.1386694834
 21
19.4664357647
 31
0.0
 12
57.2786694834
 22
19.4664357647
 32
0.0
 13
57.2786694834
 23
19.4664357647
 33
0.0
  0
SOLID
  5
2BE
330
2BA
100
AcDbEntity
  8
0
  6
Continuous
 62
     7
 48
3.5
370
     0
100
AcDbTrace
 10
57.2086694834
 20
21.9214357647
 30
0.0
 11
57.2786694834
 21
22.3764357647
 31
0.0
 12
57.1386694834
 22
22.3764357647
 32
0.0
 13
57.1386694834
 23
22.3764357647
 33
0.0
  0
LINE
  5
2BF
330
2BA
100
AcDbEntity
  8
0
  6
Continuous
 62
     7
 48
3.5
370
     0
100
AcDbLine
 10
56.4655735774
 20
20.8693615361
 30
0.0
 11
56.4655735774
 21
20.2791869455
 31
0.0
  0
LINE
  5
2C0
330
2BA
100
AcDbEntity
  8
0
  6
Continuous
 62
     7
 48
3.5
370
     0
100
AcDbLine
 10
56.4655735774
 20
20.2791869455
 30
0.0
 11
56.554376989
 21
20.2791869455
 31
0.0
  0
LINE
  5
2C1
330
2BA
100
AcDbEntity
  8
0
  6
Continuous
 62
     7
 48
3.5
370
     0
100
AcDbLine
 10
56.4655735774
 20
20.8693615361
 30
0.0
 11
56.554376989
 21
20.8693615361
 31
0.0
  0
LINE
  5
2C2
330
2BA
100
AcDbEntity
  8
0
  6
Continuous
 62
     7
 48
3.5
370
     0
100
AcDbLine
 10
57.9517653893
 20
20.8693615361
 30
0.0
 11
57.9517653893
 21
20.2791869455
 31
0.0
  0
LINE
  5
2C3
330
2BA
100
AcDbEntity
  8
0
  6
Continuous
 62
     7
 48
3.5
370
     0
100
AcDbLine
 10
57.9517653893
 20
20.2791869455
 30
0.0
 11
57.8629619777
 21
20.2791869455
 31
0.0
  0
LINE
  5
2C4
330
2BA
100
AcDbEntity
  8
0
  6
Continuous
 62
     7
 48
3.5
370
     0
100
AcDbLine
 10
57.9517653893
 20
20.8693615361
 30
0.0
 11
57.8629619777
 21
20.8693615361
 31
0.0
  0
LINE
  5
2C5
330
2BA
100
AcDbEntity
  8
0
  6
Continuous
 62
     7
 48
3.5
370
     0
100
AcDbLine
 10
54.2654932191
 20
19.9214357647
 30
0.0
 11
57.6461694834
 21
19.9214357647
 31
0.0
  0
LINE
  5
2C6
330
2BA
100
AcDbEntity
  8
0
  6
Continuous
 62
     7
 48
3.5
370
     0
100
AcDbLine
 10
56.2654932191
 20
21.9214357647
 30
0.0
 11
57.6461694834
 21
21.9214357647
 31
0.0
  0
LINE
  5
2C7
330
2BA
100
AcDbEntity
  8
0
  6
Continuous
 62
     7
 48
3.5
370
     0
100
AcDbLine
 10
57.2086694834
 20
19.9214357647
 30
0.0
 11
57.2086694834
 21
19.0464357647
 31
0.0
  0
LINE
  5
2C8
330
2BA
100
AcDbEntity
  8
0
  6
Continuous
 62
     7
 48
3.5
370
     0
100
AcDbLine
 10
57.2086694834
 20
21.9214357647
 30
0.0
 11
57.2086694834
 21
22.7964357647
 31
0.0
  0
MTEXT
  5
2C9
330
2BA
100
AcDbEntity
  8
0
  6
Continuous
 62
     7
 48
3.5
370
     0
100
AcDbMText
 10
56.6431804007
 20
21.4854028767
 30
0.0
 40
0.4375
 41
0.0
 71
     1
 72
     1
  1
2.00
  7
SLDTEXTSTYLE0
 73
     1
 44
1.0
  0
MTEXT
  5
2CA
330
2BA
100
AcDbEntity
  8
0
  6
Continuous
 62
     7
 48
3.5
370
     0
100
AcDbMText
 10
56.6431804007
 20
20.791079829
 30
0.0
 40
0.4375
 41
0.0
 71
     1
 72
     1
  1
50.8
  7
SLDTEXTSTYLE0
 73
     1
 44
1.0
  0
ENDBLK
  5
2BC
330
2BA
100
AcDbEntity
  8
0
100
AcDbBlockEnd
  0
BLOCK
  5
2CD
330
2CC
100
AcDbEntity
  8
0
100
AcDbBlockBegin
  2
*D13
 70
     1
 10
0.0
 20
0.0
 30
0.0
  3
*D13
  1

  0
SOLID
  5
2CF
330
2CC
100
AcDbEntity
  8
0
  6
Continuous
 62
     7
 48
3.5
370
     0
100
AcDbTrace
 10
54.0904932191
 20
23.0166530797
 30
0.0
 11
53.6354932191
 21
23.0866530797
 31
0.0
 12
53.6354932191
 22
22.9466530797
 32
0.0
 13
53.6354932191
 23
22.9466530797
 33
0.0
  0
SOLID
  5
2D0
330
2CC
100
AcDbEntity
  8
0
  6
Continuous
 62
     7
 48
3.5
370
     0
100
AcDbTrace
 10
56.0904932191
 20
23.0166530797
 30
0.0
 11
56.5454932191
 21
22.9466530797
 31
0.0
 12
56.5454932191
 22
23.0866530797
 32
0.0
 13
56.5454932191
 23
23.0866530797
 33
0.0
  0
LINE
  5
2D1
330
2CC
100
AcDbEntity
  8
0
  6
Continuous
 62
     7
 48
3.5
370
     0
100
AcDbLine
 10
54.3473973131
 20
22.9645788511
 30
0.0
 11
54.3473973131
 21
22.3744042605
 31
0.0
  0
LINE
  5
2D2
330
2CC
100
AcDbEntity
  8
0
  6
Continuous
 62
     7
 48
3.5
370
     0
100
AcDbLine
 10
54.3473973131
 20
22.3744042605
 30
0.0
 11
54.4362007248
 21
22.3744042605
 31
0.0
  0
LINE
  5
2D3
330
2CC
100
AcDbEntity
  8
0
  6
Continuous
 62
     7
 48
3.5
370
     0
100
AcDbLine
 10
54.3473973131
 20
22.9645788511
 30
0.0
 11
54.4362007248
 21
22.9645788511
 31
0.0
  0
LINE
  5
2D4
330
2CC
100
AcDbEntity
  8
0
  6
Continuous
 62
     7
 48
3.5
370
     0
100
AcDbLine
 10
55.8335891251
 20
22.9645788511
 30
0.0
 11
55.8335891251
 21
22.3744042605
 31
0.0
  0
LINE
  5
2D5
330
2CC
100
AcDbEntity
  8
0
  6
Continuous
 62
     7
 48
3.5
370
     0
100
AcDbLine
 10
55.8335891251
 20
22.3744042605
 30
0.0
 11
55.7447857134
 21
22.3744042605
 31
0.0
  0
LINE
  5
2D6
330
2CC
100
AcDbEntity
  8
0
  6
Continuous
 62
     7
 48
3.5
370
     0
100
AcDbLine
 10
55.8335891251
 20
22.9645788511
 30
0.0
 11
55.7447857134
 21
22.9645788511
 31
0.0
  0
LINE
  5
2D7
330
2CC
100
AcDbEntity
  8
0
  6
Continuous
 62
     7
 48
3.5
370
     0
100
AcDbLine
 10
54.0904932191
 20
20.0964357647
 30
0.0
 11
54.0904932191
 21
23.4541530797
 31
0.0
  0
LINE
  5
2D8
330
2CC
100
AcDbEntity
  8
0
  6
Continuous
 62
     7
 48
3.5
370
     0
100
AcDbLine
 10
56.0904932191
 20
22.0964357647
 30
0.0
 11
56.0904932191
 21
23.4541530797
 31
0.0
  0
LINE
  5
2D9
330
2CC
100
AcDbEntity
  8
0
  6
Continuous
 62
     7
 48
3.5
370
     0
100
AcDbLine
 10
54.0904932191
 20
23.0166530797
 30
0.0
 11
53.2154932191
 21
23.0166530797
 31
0.0
  0
LINE
  5
2DA
330
2CC
100
AcDbEntity
  8
0
  6
Continuous
 62
     7
 48
3.5
370
     0
100
AcDbLine
 10
56.0904932191
 20
23.0166530797
 30
0.0
 11
56.9654932191
 21
23.0166530797
 31
0.0
  0
MTEXT
  5
2DB
330
2CC
100
AcDbEntity
  8
0
  6
Continuous
 62
     7
 48
3.5
370
     0
100
AcDbMText
 10
54.5250041365
 20
23.5806201918
 30
0.0
 40
0.4375
 41
0.0
 71
     1
 72
     1
  1
2.00
  7
SLDTEXTSTYLE0
 73
     1
 44
1.0
  0
MTEXT
  5
2DC
330
2CC
100
AcDbEntity
  8
0
  6
Continuous
 62
     7
 48
3.5
370
     0
100
AcDbMText
 10
54.5250041365
 20
22.886297144
 30
0.0
 40
0.4375
 41
0.0
 71
     1
 72
     1
  1
50.8
  7
SLDTEXTSTYLE0
 73
     1
 44
1.0
  0
ENDBLK
  5
2CE
330
2CC
100
AcDbEntity
  8
0
100
AcDbBlockEnd
  0
BLOCK
  5
3EA
330
3E9
100
AcDbEntity
  8
0
100
AcDbBlockBegin
  2
*D14
 70
     1
 10
0.0
 20
0.0
 30
0.0
  3
*D14
  1

  0
SOLID
  5
3EC
330
3E9
100
AcDbEntity
  8
0
  6
Continuous
 62
     7
 48
3.5
370
     0
100
AcDbTrace
 10
34.9621077642
 20
18.6423838823
 30
0.0
 11
34.5071077642
 21
18.7123838823
 31
0.0
 12
34.5071077642
 22
18.5723838823
 32
0.0
 13
34.5071077642
 23
18.5723838823
 33
0.0
  0
SOLID
  5
3ED
330
3E9
100
AcDbEntity
  8
0
  6
Continuous
 62
     7
 48
3.5
370
     0
100
AcDbTrace
 10
35.4621077642
 20
18.6423838823
 30
0.0
 11
35.9171077642
 21
18.5723838823
 31
0.0
 12
35.9171077642
 22
18.7123838823
 32
0.0
 13
35.9171077642
 23
18.7123838823
 33
0.0
  0
LINE
  5
3EE
330
3E9
100
AcDbEntity
  8
0
  6
Continuous
 62
     7
 48
3.5
370
     0
100
AcDbLine
 10
32.1156816264
 20
18.5903096537
 30
0.0
 11
32.1156816264
 21
18.0001350631
 31
0.0
  0
LINE
  5
3EF
330
3E9
100
AcDbEntity
  8
0
  6
Continuous
 62
     7
 48
3.5
370
     0
100
AcDbLine
 10
32.1156816264
 20
18.0001350631
 30
0.0
 11
32.2044850381
 21
18.0001350631
 31
0.0
  0
LINE
  5
3F0
330
3E9
100
AcDbEntity
  8
0
  6
Continuous
 62
     7
 48
3.5
370
     0
100
AcDbLine
 10
32.1156816264
 20
18.5903096537
 30
0.0
 11
32.2044850381
 21
18.5903096537
 31
0.0
  0
LINE
  5
3F1
330
3E9
100
AcDbEntity
  8
0
  6
Continuous
 62
     7
 48
3.5
370
     0
100
AcDbLine
 10
33.6018734384
 20
18.5903096537
 30
0.0
 11
33.6018734384
 21
18.0001350631
 31
0.0
  0
LINE
  5
3F2
330
3E9
100
AcDbEntity
  8
0
  6
Continuous
 62
     7
 48
3.5
370
     0
100
AcDbLine
 10
33.6018734384
 20
18.0001350631
 30
0.0
 11
33.5130700267
 21
18.0001350631
 31
0.0
  0
LINE
  5
3F3
330
3E9
100
AcDbEntity
  8
0
  6
Continuous
 62
     7
 48
3.5
370
     0
100
AcDbLine
 10
33.6018734384
 20
18.5903096537
 30
0.0
 11
33.5130700267
 21
18.5903096537
 31
0.0
  0
LINE
  5
3F4
330
3E9
100
AcDbEntity
  8
0
  6
Continuous
 62
     7
 48
3.5
370
     0
100
AcDbLine
 10
34.9621077642
 20
18.6423838823
 30
0.0
 11
34.0869186431
 21
18.6423838823
 31
0.0
  0
LINE
  5
3F5
330
3E9
100
AcDbEntity
  8
0
  6
Continuous
 62
     7
 48
3.5
370
     0
100
AcDbLine
 10
35.4621077642
 20
18.6423838823
 30
0.0
 11
36.3371077642
 21
18.6423838823
 31
0.0
  0
MTEXT
  5
3F6
330
3E9
100
AcDbEntity
  8
0
  6
Continuous
 62
     7
 48
3.5
370
     0
100
AcDbMText
 10
32.4547910275
 20
19.2063509944
 30
0.0
 40
0.4375
 41
0.0
 71
     1
 72
     1
  1
.50
  7
SLDTEXTSTYLE0
 73
     1
 44
1.0
  0
MTEXT
  5
3F7
330
3E9
100
AcDbEntity
  8
0
  6
Continuous
 62
     7
 48
3.5
370
     0
100
AcDbMText
 10
32.2932884497
 20
18.5120279466
 30
0.0
 40
0.4375
 41
0.0
 71
     1
 72
     1
  1
12.7
  7
SLDTEXTSTYLE0
 73
     1
 44
1.0
  0
ENDBLK
  5
3EB
330
3E9
100
AcDbEntity
  8
0
100
AcDbBlockEnd
  0
BLOCK
  5
3F9
330
3F8
100
AcDbEntity
  8
0
100
AcDbBlockBegin
  2
SW_NOTE_5
 70
     0
 10
0.0
 20
0.0
 30
0.0
  3
SW_NOTE_5
  1

  0
MTEXT
  5
3FB
330
3F8
100
AcDbEntity
  8
0
  6
Continuous
 62
     0
 48
3.5
370
     0
100
AcDbMText
 10
0.0692692197
 20
0.2120484249
 30
0.0
 40
0.4375
 41
0.0
 71
     1
 72
     1
  1
GROUNDING
  7
SLDTEXTSTYLE0
 73
     1
 44
1.0
  0
MTEXT
  5
3FC
330
3F8
100
AcDbEntity
  8
0
  6
Continuous
 62
     0
 48
3.5
370
     0
100
AcDbMText
 10
0.0692692197
 20
-0.3632468359
 30
0.0
 40
0.4375
 41
0.0
 71
     1
 72
     1
  1
EMBOSS
  7
SLDTEXTSTYLE0
 73
     1
 44
1.0
  0
ENDBLK
  5
3FA
330
3F8
100
AcDbEntity
  8
0
100
AcDbBlockEnd
  0
ENDSEC
  0
SECTION
  2
ENTITIES
  0
LINE
  5
44
330
1F
100
AcDbEntity
  8
0
  6
Continuous
 62
     7
 48
3.5
370
     0
100
AcDbLine
 10
1.0963806162
 20
37.4677560976
 30
0.0
 11
58.4123806162
 21
37.4677560976
 31
0.0
  0
LINE
  5
45
330
1F
100
AcDbEntity
  8
0
  6
Continuous
 62
     7
 48
3.5
370
     0
100
AcDbLine
 10
58.4123806162
 20
1.1517560976
 30
0.0
 11
58.4123806162
 21
37.4677560976
 31
0.0
  0
LINE
  5
46
330
1F
100
AcDbEntity
  8
0
  6
Continuous
 62
     7
 48
3.5
370
     0
100
AcDbLine
 10
58.4123806162
 20
1.1517560976
 30
0.0
 11
1.0963806162
 21
1.1517560976
 31
0.0
  0
LINE
  5
47
330
1F
100
AcDbEntity
  8
0
  6
Continuous
 62
     7
 48
3.5
370
     0
100
AcDbLine
 10
1.0963806162
 20
37.4677560976
 30
0.0
 11
1.0963806162
 21
1.1517560976
 31
0.0
  0
LINE
  5
48
330
1F
100
AcDbEntity
  8
0
  6
Continuous
 62
     7
 48
3.5
370
     0
100
AcDbLine
 10
0.8793806162
 20
37.6847560976
 30
0.0
 11
58.6293806162
 21
37.6847560976
 31
0.0
  0
LINE
  5
49
330
1F
100
AcDbEntity
  8
0
  6
Continuous
 62
     7
 48
3.5
370
     0
100
AcDbLine
 10
58.6293806162
 20
0.9347560976
 30
0.0
 11
0.8793806162
 21
0.9347560976
 31
0.0
  0
LINE
  5
4A
330
1F
100
AcDbEntity
  8
0
  6
Continuous
 62
     7
 48
3.5
370
     0
100
AcDbLine
 10
0.8793806162
 20
37.6847560976
 30
0.0
 11
0.8793806162
 21
0.9347560976
 31
0.0
  0
LINE
  5
4B
330
1F
100
AcDbEntity
  8
0
  6
Continuous
 62
     7
 48
3.5
370
     0
100
AcDbLine
 10
58.6293806162
 20
0.9347560976
 30
0.0
 11
58.6293806162
 21
37.6847560976
 31
0.0
  0
LINE
  5
4C
330
1F
100
AcDbEntity
  8
0
  6
Continuous
 62
     7
 48
3.5
370
     0
100
AcDbLine
 10
1.0963806162
 20
36.0467560976
 30
0.0
 11
58.4123806162
 21
36.0467560976
 31
0.0
  0
LINE
  5
4D
330
1F
100
AcDbEntity
  8
0
  6
Continuous
 62
     7
 48
3.5
370
     0
100
AcDbLine
 10
3.7213806162
 20
37.4677560976
 30
0.0
 11
3.7213806162
 21
36.0467560976
 31
0.0
  0
LINE
  5
4E
330
1F
100
AcDbEntity
  8
0
  6
Continuous
 62
     7
 48
3.5
370
     0
100
AcDbLine
 10
26.0373806162
 20
36.0467560976
 30
0.0
 11
26.0373806162
 21
37.4677560976
 31
0.0
  0
LINE
  5
4F
330
1F
100
AcDbEntity
  8
0
  6
Continuous
 62
     7
 48
3.5
370
     0
100
AcDbLine
 10
26.2543806162
 20
36.0467560976
 30
0.0
 11
26.2543806162
 21
37.4677560976
 31
0.0
  0
LINE
  5
50
330
1F
100
AcDbEntity
  8
0
  6
Continuous
 62
     7
 48
3.5
370
     0
100
AcDbLine
 10
54.0373806162
 20
36.0467560976
 30
0.0
 11
54.0373806162
 21
37.4677560976
 31
0.0
  0
LINE
  5
51
330
1F
100
AcDbEntity
  8
0
  6
Continuous
 62
     7
 48
3.5
370
     0
100
AcDbLine
 10
28.8793806162
 20
36.0467560976
 30
0.0
 11
28.8793806162
 21
37.4677560976
 31
0.0
  0
LINE
  5
52
330
1F
100
AcDbEntity
  8
0
  6
Continuous
 62
     7
 48
3.5
370
     0
100
AcDbLine
 10
51.4123806162
 20
36.0467560976
 30
0.0
 11
51.4123806162
 21
37.4677560976
 31
0.0
  0
LINE
  5
53
330
1F
100
AcDbEntity
  8
0
  6
Continuous
 62
     7
 48
3.5
370
     0
100
AcDbLine
 10
51.1953806162
 20
36.0467560976
 30
0.0
 11
51.1953806162
 21
37.4677560976
 31
0.0
  0
INSERT
  5
7C
330
1F
100
AcDbEntity
  8
0
  6
Continuous
 62
     7
 48
3.5
370
     0
100
AcDbBlockReference
  2
SW_NOTE_0
 10
30.4345322757
 20
32.1273729476
 30
0.0
  0
MTEXT
  5
7D
330
1F
100
AcDbEntity
  8
0
  6
Continuous
 62
     7
 48
3.5
370
     0
100
AcDbMText
 10
54.8064454547
 20
37.1326072043
 30
0.0
 40
0.65625
 41
0.0
 71
     1
 72
     1
  1
7-18-11
  7
SLDTEXTSTYLE0
 73
     1
 44
1.0
  0
MTEXT
  5
7E
330
1F
100
AcDbEntity
  8
0
  6
Continuous
 62
     7
 48
3.5
370
     0
100
AcDbMText
 10
10.8355305658
 20
37.1395432925
 30
0.0
 40
0.65625
 41
0.0
 71
     1
 72
     1
  1
JUNCTION BOX
  7
SLDTEXTSTYLE0
 73
     1
 44
1.0
  0
MTEXT
  5
7F
330
1F
100
AcDbEntity
  8
0
  6
Continuous
 62
     7
 48
3.5
370
     0
100
AcDbMText
 10
38.5516491339
 20
37.1402035636
 30
0.0
 40
0.65625
 41
0.0
 71
     1
 72
     1
  1
JB-3961
  7
SLDTEXTSTYLE0
 73
     1
 44
1.0
  0
INSERT
  5
85
330
1F
100
AcDbEntity
  8
0
  6
Continuous
 62
     7
 48
3.5
370
     0
100
AcDbBlockReference
  2
SW_NOTE_1
 10
1.7067371541
 20
36.7666600928
 30
0.0
  0
INSERT
  5
8B
330
1F
100
AcDbEntity
  8
0
  6
Continuous
 62
     7
 48
3.5
370
     0
100
AcDbBlockReference
  2
SW_NOTE_2
 10
26.8979021143
 20
36.750693839
 30
0.0
  0
INSERT
  5
91
330
1F
100
AcDbEntity
  8
0
  6
Continuous
 62
     7
 48
3.5
370
     0
100
AcDbBlockReference
  2
SW_NOTE_3
 10
51.480235196
 20
36.7618423454
 30
0.0
  0
ARC
  5
92
330
1F
100
AcDbEntity
  8
0
  6
Continuous
 62
     7
 48
12.25
370
    15
100
AcDbCircle
 10
22.3001717012
 20
19.6494357647
 30
0.0
 40
0.2030000000000012
100
AcDbArc
 50
133.2687098501
 51
46.7312901498
  0
LINE
  5
93
330
1F
100
AcDbEntity
  8
0
  6
Continuous
 62
     7
 48
3.5
370
    15
100
AcDbLine
 10
22.5501718608
 20
11.9214356051
 30
0.0
 11
22.5501718608
 21
21.9214359242
 31
0.0
  0
LINE
  5
94
330
1F
100
AcDbEntity
  8
0
  6
Continuous
 62
     7
 48
3.5
370
    15
100
AcDbLine
 10
12.5501715416
 20
11.9214356051
 30
0.0
 11
22.5501718608
 21
11.9214356051
 31
0.0
  0
ARC
  5
95
330
1F
100
AcDbEntity
  8
0
  6
Continuous
 62
     7
 48
12.25
370
    15
100
AcDbCircle
 10
12.8001717012
 20
19.6494357647
 30
0.0
 40
0.202999999999999
100
AcDbArc
 50
133.2687098509
 51
46.7312901493
  0
ARC
  5
96
330
1F
100
AcDbEntity
  8
0
  6
Continuous
 62
     7
 48
12.25
370
    15
100
AcDbCircle
 10
12.8001717012
 20
13.6494357647
 30
0.0
 40
0.2029999999999991
100
AcDbArc
 50
133.2687098487
 51
46.7312901513
  0
ARC
  5
97
330
1F
100
AcDbEntity
  8
0
  6
Continuous
 62
     7
 48
12.25
370
    15
100
AcDbCircle
 10
22.3001717012
 20
13.6494357647
 30
0.0
 40
0.2029999999999992
100
AcDbArc
 50
133.2687098485
 51
46.7312901515
  0
LINE
  5
98
330
1F
100
AcDbEntity
  8
0
  6
Continuous
 62
     7
 48
3.5
370
    15
100
AcDbLine
 10
12.5501715416
 20
21.9214359242
 30
0.0
 11
12.5501715416
 21
11.9214356051
 31
0.0
  0
LINE
  5
99
330
1F
100
AcDbEntity
  8
0
  6
Continuous
 62
     7
 48
3.5
370
    15
100
AcDbLine
 10
22.5501718608
 20
21.9214359242
 30
0.0
 11
12.5501715416
 21
21.9214359242
 31
0.0
  0
LWPOLYLINE
  5
9A
330
1F
100
AcDbEntity
  8
0
  6
Continuous
 62
     7
 48
3.5
370
    15
100
AcDbPolyline
 90
        9
 70
   128
 43
0.0
 10
12.759192887
 20
13.9028257026
 10
12.748287173
 20
13.89208308
 10
12.7375715368
 20
13.8815270153
 10
12.7270949644
 20
13.8712070812
 10
12.7169064421
 20
13.8611705038
 10
12.7070529026
 20
13.8514639226
 10
12.6975798121
 20
13.842132217
 10
12.6885311699
 20
13.8332185067
 10
12.6799489224
 20
13.8247644443
  0
ARC
  5
9B
330
1F
100
AcDbEntity
  8
0
  6
Continuous
 62
     7
 48
12.25
370
    15
100
AcDbCircle
 10
12.8001717012
 20
13.9214357647
 30
0.0
 40
0.1542687964746279
100
AcDbArc
 50
218.802861523
 51
230.3357915391
  0
LWPOLYLINE
  5
9C
330
1F
100
AcDbEntity
  8
0
  6
Continuous
 62
     7
 48
3.5
370
    15
100
AcDbPolyline
 90
        9
 70
   128
 43
0.0
 10
12.7017040311
 20
13.8026799261
 10
12.7102862786
 20
13.8111339885
 10
12.7193349208
 20
13.8200476988
 10
12.728807718
 20
13.8293794044
 10
12.7386615508
 20
13.8390859856
 10
12.7488500731
 20
13.8491225629
 10
12.7593263521
 20
13.8594424971
 10
12.7700422816
 20
13.8699985618
 10
12.7809477023
 20
13.8807411844
  0
LWPOLYLINE
  5
9D
330
1F
100
AcDbEntity
  8
0
  6
Continuous
 62
     7
 48
3.5
370
    15
100
AcDbPolyline
 90
        9
 70
   128
 43
0.0
 10
12.8411504469
 20
13.9400457526
 10
12.8520561609
 20
13.9507886685
 10
12.8627717971
 20
13.9613444399
 10
12.8732483694
 20
13.9716646673
 10
12.8834368917
 20
13.9817012447
 10
12.8932904312
 20
13.9914078259
 10
12.9027635218
 20
14.0007395315
 10
12.9118121639
 20
14.0096529485
 10
12.9203944114
 20
14.0181073042
  0
ARC
  5
9E
330
1F
100
AcDbEntity
  8
0
  6
Continuous
 62
     7
 48
12.25
370
    15
100
AcDbCircle
 10
12.8001717012
 20
13.9214357647
 30
0.0
 40
0.1542687964746294
100
AcDbArc
 50
38.802861523
 51
50.3357915391
  0
LWPOLYLINE
  5
9F
330
1F
100
AcDbEntity
  8
0
  6
Continuous
 62
     7
 48
3.5
370
    15
100
AcDbPolyline
 90
        9
 70
   128
 43
0.0
 10
12.8986395961
 20
14.040191529
 10
12.8900570552
 20
14.0317374667
 10
12.8810087064
 20
14.0228237563
 10
12.8715356159
 20
14.0134920508
 10
12.8616820763
 20
14.0037854696
 10
12.8514932607
 20
13.9937491855
 10
12.8410169817
 20
13.9834289581
 10
12.8303010522
 20
13.9728731867
 10
12.8193956315
 20
13.9621302708
  0
LWPOLYLINE
  5
A0
330
1F
100
AcDbEntity
  8
0
  6
Continuous
 62
     7
 48
3.5
370
    15
100
AcDbPolyline
 90
        9
 70
   128
 43
0.0
 10
12.7809477023
 20
13.8807411844
 10
12.7884305492
 20
13.8806851583
 10
12.795925716
 20
13.880628839
 10
12.8034249893
 20
13.8805722263
 10
12.8109207427
 20
13.880515907
 10
12.8184041763
 20
13.8804598809
 10
12.8258676634
 20
13.8804035616
 10
12.8333026975
 20
13.8803478289
 10
12.8407013587
 20
13.8802920962
  0
LWPOLYLINE
  5
A1
330
1F
100
AcDbEntity
  8
0
  6
Continuous
 62
     7
 48
3.5
370
    15
100
AcDbPolyline
 90
        9
 70
   128
 43
0.0
 10
12.8407013587
 20
13.8802920962
 10
12.8407570914
 20
13.8876907574
 10
12.8408128241
 20
13.8951260848
 10
12.8408691434
 20
13.9025892786
 10
12.8409251695
 20
13.9100730055
 10
12.8409814888
 20
13.9175684656
 10
12.8410381015
 20
13.9250680323
 10
12.8410944208
 20
13.9325629057
 10
12.8411504469
 20
13.9400457526
  0
LWPOLYLINE
  5
A2
330
1F
100
AcDbEntity
  8
0
  6
Continuous
 62
     7
 48
3.5
370
    15
100
AcDbPolyline
 90
        9
 70
   128
 43
0.0
 10
12.8193956315
 20
13.9621302708
 10
12.8119127846
 20
13.9621865902
 10
12.8044176179
 20
13.9622429095
 10
12.7969183445
 20
13.9622992289
 10
12.7894225911
 20
13.9623555482
 10
12.7819391575
 20
13.9624118676
 10
12.7744756704
 20
13.9624678936
 10
12.7670406363
 20
13.9625236263
 10
12.7596419751
 20
13.9625793589
  0
LWPOLYLINE
  5
A3
330
1F
100
AcDbEntity
  8
0
  6
Continuous
 62
     7
 48
3.5
370
    15
100
AcDbPolyline
 90
        9
 70
   128
 43
0.0
 10
12.7596419751
 20
13.9625793589
 10
12.7595865358
 20
13.9551806978
 10
12.7595305097
 20
13.9477456636
 10
12.7594744837
 20
13.9402821765
 10
12.7594181644
 20
13.932798743
 10
12.759361845
 20
13.9253029896
 10
12.7593055257
 20
13.9178037162
 10
12.7592492063
 20
13.9103085495
 10
12.759192887
 20
13.9028257026
  0
LINE
  5
A4
330
1F
100
AcDbEntity
  8
0
  6
Continuous
 62
     7
 48
3.5
370
    15
100
AcDbLine
 10
12.7590280355
 20
13.8809060358
 30
0.0
 11
12.7809477023
 21
13.8807411844
 31
0.0
  0
LINE
  5
A5
330
1F
100
AcDbEntity
  8
0
  6
Continuous
 62
     7
 48
3.5
370
    15
100
AcDbLine
 10
12.759192887
 20
13.9028257026
 30
0.0
 11
12.7590280355
 21
13.8809060358
 31
0.0
  0
LINE
  5
A6
330
1F
100
AcDbEntity
  8
0
  6
Continuous
 62
     7
 48
3.5
370
    15
100
AcDbLine
 10
12.8411504469
 20
13.9400457526
 30
0.0
 11
12.8413152983
 21
13.9619654194
 31
0.0
  0
LINE
  5
A7
330
1F
100
AcDbEntity
  8
0
  6
Continuous
 62
     7
 48
3.5
370
    15
100
AcDbLine
 10
12.8413152983
 20
13.9619654194
 30
0.0
 11
12.8193956315
 21
13.9621302708
 31
0.0
  0
CIRCLE
  5
A8
330
1F
100
AcDbEntity
  8
0
  6
Continuous
 62
     7
 48
12.25
370
    15
100
AcDbCircle
 10
12.8001717012
 20
13.9214357647
 30
0.0
 40
0.1865000000000004
  0
LWPOLYLINE
  5
A9
330
1F
100
AcDbEntity
  8
0
  6
Continuous
 62
     7
 48
3.5
370
    15
100
AcDbPolyline
 90
        9
 70
   128
 43
0.0
 10
22.2809477709
 20
19.962130345
 10
22.2700423502
 20
19.9728729675
 10
22.2593264206
 20
19.9834290322
 10
22.2488501416
 20
19.9937489664
 10
22.238661326
 20
20.0037855438
 10
22.2288077865
 20
20.013492125
 10
22.2193346959
 20
20.0228238305
 10
22.2102863471
 20
20.0317375408
 10
22.2017038063
 20
20.0401916032
  0
ARC
  5
AA
330
1F
100
AcDbEntity
  8
0
  6
Continuous
 62
     7
 48
12.25
370
    15
100
AcDbCircle
 10
22.3001717012
 20
19.9214357647
 30
0.0
 40
0.1542687964746292
100
AcDbArc
 50
129.6642084609
 51
141.197138477
  0
LWPOLYLINE
  5
AB
330
1F
100
AcDbEntity
  8
0
  6
Continuous
 62
     7
 48
3.5
370
    15
100
AcDbPolyline
 90
        9
 70
   128
 43
0.0
 10
22.1799489909
 20
20.018107085
 10
22.1885312385
 20
20.0096530226
 10
22.1975798806
 20
20.0007393123
 10
22.2070529712
 20
19.9914076067
 10
22.2169065107
 20
19.9817010255
 10
22.227095033
 20
19.9716644482
 10
22.2375716053
 20
19.961344514
 10
22.2482872415
 20
19.9507884493
 10
22.2591929555
 20
19.9400458267
  0
LWPOLYLINE
  5
AC
330
1F
100
AcDbEntity
  8
0
  6
Continuous
 62
     7
 48
3.5
370
    15
100
AcDbPolyline
 90
        9
 70
   128
 43
0.0
 10
22.2591929555
 20
19.9400458267
 10
22.2592489815
 20
19.9325629799
 10
22.2593053009
 20
19.9250678131
 10
22.2593619135
 20
19.9175685397
 10
22.2594182329
 20
19.9100727863
 10
22.2594742589
 20
19.9025893528
 10
22.2595305783
 20
19.8951258657
 10
22.259586311
 20
19.8876908316
 10
22.2596420436
 20
19.8802921704
  0
LWPOLYLINE
  5
AD
330
1F
100
AcDbEntity
  8
0
  6
Continuous
 62
     7
 48
3.5
370
    15
100
AcDbPolyline
 90
        9
 70
   128
 43
0.0
 10
22.2596420436
 20
19.8802921704
 10
22.2670407048
 20
19.880347903
 10
22.274475739
 20
19.8804036357
 10
22.2819392261
 20
19.8804596618
 10
22.2894226596
 20
19.8805159811
 10
22.296918413
 20
19.8805723005
 10
22.3044176864
 20
19.8806286198
 10
22.3119128531
 20
19.8806849392
 10
22.3193957
 20
19.8807412585
  0
LWPOLYLINE
  5
AE
330
1F
100
AcDbEntity
  8
0
  6
Continuous
 62
     7
 48
3.5
370
    15
100
AcDbPolyline
 90
        9
 70
   128
 43
0.0
 10
22.3193957
 20
19.8807412585
 10
22.3303011207
 20
19.8699983426
 10
22.3410170503
 20
19.8594425712
 10
22.3514933292
 20
19.8491223438
 10
22.3616818515
 20
19.8390860597
 10
22.3715356844
 20
19.8293794785
 10
22.3810084816
 20
19.820047773
 10
22.3900571237
 20
19.8111340626
 10
22.3986393713
 20
19.8026800003
  0
ARC
  5
AF
330
1F
100
AcDbEntity
  8
0
  6
Continuous
 62
     7
 48
12.25
370
    15
100
AcDbCircle
 10
22.3001717012
 20
19.9214357647
 30
0.0
 40
0.1542687964746315
100
AcDbArc
 50
309.6642084609
 51
321.197138477
  0
LWPOLYLINE
  5
B0
330
1F
100
AcDbEntity
  8
0
  6
Continuous
 62
     7
 48
3.5
370
    15
100
AcDbPolyline
 90
        9
 70
   128
 43
0.0
 10
22.42039448
 20
19.8247642252
 10
22.4118122324
 20
19.8332185808
 10
22.4027635903
 20
19.8421319979
 10
22.3932904997
 20
19.8514637034
 10
22.3834369602
 20
19.8611702846
 10
22.3732484379
 20
19.871206862
 10
22.3627718656
 20
19.8815270894
 10
22.3520562294
 20
19.8920828608
 10
22.3411505154
 20
19.9028257767
  0
LWPOLYLINE
  5
B1
330
1F
100
AcDbEntity
  8
0
  6
Continuous
 62
     7
 48
3.5
370
    15
100
AcDbPolyline
 90
        9
 70
   128
 43
0.0
 10
22.3411505154
 20
19.9028257767
 10
22.341094196
 20
19.9103086236
 10
22.3410378767
 20
19.917803497
 10
22.3409815573
 20
19.9253030637
 10
22.340925238
 20
19.9327985238
 10
22.3408689186
 20
19.9402822507
 10
22.3408128926
 20
19.9477454445
 10
22.3407568666
 20
19.9551807719
 10
22.3407014272
 20
19.9625794331
  0
LWPOLYLINE
  5
B2
330
1F
100
AcDbEntity
  8
0
  6
Continuous
 62
     7
 48
3.5
370
    15
100
AcDbPolyline
 90
        9
 70
   128
 43
0.0
 10
22.3407014272
 20
19.9625794331
 10
22.333302766
 20
19.9625237004
 10
22.3258677319
 20
19.9624679677
 10
22.3184042448
 20
19.9624116484
 10
22.3109208113
 20
19.9623556224
 10
22.3034250579
 20
19.962299303
 10
22.2959257845
 20
19.9622426903
 10
22.2884306177
 20
19.962186371
 10
22.2809477709
 20
19.962130345
  0
LINE
  5
B3
330
1F
100
AcDbEntity
  8
0
  6
Continuous
 62
     7
 48
3.5
370
    15
100
AcDbLine
 10
22.2590281041
 20
19.9619654935
 30
0.0
 11
22.2591929555
 21
19.9400458267
 31
0.0
  0
LINE
  5
B4
330
1F
100
AcDbEntity
  8
0
  6
Continuous
 62
     7
 48
3.5
370
    15
100
AcDbLine
 10
22.2809477709
 20
19.962130345
 30
0.0
 11
22.2590281041
 21
19.9619654935
 31
0.0
  0
LINE
  5
B5
330
1F
100
AcDbEntity
  8
0
  6
Continuous
 62
     7
 48
3.5
370
    15
100
AcDbLine
 10
22.3413153668
 20
19.8809061099
 30
0.0
 11
22.3411505154
 21
19.9028257767
 31
0.0
  0
LINE
  5
B6
330
1F
100
AcDbEntity
  8
0
  6
Continuous
 62
     7
 48
3.5
370
    15
100
AcDbLine
 10
22.3193957
 20
19.8807412585
 30
0.0
 11
22.3413153668
 21
19.8809061099
 31
0.0
  0
CIRCLE
  5
B7
330
1F
100
AcDbEntity
  8
0
  6
Continuous
 62
     7
 48
12.25
370
    15
100
AcDbCircle
 10
22.3001717012
 20
19.9214357647
 30
0.0
 40
0.1865000000000004
  0
LWPOLYLINE
  5
B8
330
1F
100
AcDbEntity
  8
0
  6
Continuous
 62
     7
 48
3.5
370
    15
100
AcDbPolyline
 90
        9
 70
   128
 43
0.0
 10
22.2809477709
 20
13.9621302708
 10
22.2700423502
 20
13.9728731867
 10
22.2593264206
 20
13.9834289581
 10
22.2488501416
 20
13.9937491855
 10
22.238661326
 20
14.0037854696
 10
22.2288077865
 20
14.0134920508
 10
22.2193346959
 20
14.0228237563
 10
22.2102863471
 20
14.0317374667
 10
22.2017038063
 20
14.040191529
  0
ARC
  5
B9
330
1F
100
AcDbEntity
  8
0
  6
Continuous
 62
     7
 48
12.25
370
    15
100
AcDbCircle
 10
22.3001717012
 20
13.9214357647
 30
0.0
 40
0.1542687964746279
100
AcDbArc
 50
129.6642084609
 51
141.197138477
  0
LWPOLYLINE
  5
BA
330
1F
100
AcDbEntity
  8
0
  6
Continuous
 62
     7
 48
3.5
370
    15
100
AcDbPolyline
 90
        9
 70
   128
 43
0.0
 10
22.1799489909
 20
14.0181073042
 10
22.1885312385
 20
14.0096529485
 10
22.1975798806
 20
14.0007395315
 10
22.2070529712
 20
13.9914078259
 10
22.2169065107
 20
13.9817012447
 10
22.227095033
 20
13.9716646673
 10
22.2375716053
 20
13.9613444399
 10
22.2482872415
 20
13.9507886685
 10
22.2591929555
 20
13.9400457526
  0
LWPOLYLINE
  5
BB
330
1F
100
AcDbEntity
  8
0
  6
Continuous
 62
     7
 48
3.5
370
    15
100
AcDbPolyline
 90
        9
 70
   128
 43
0.0
 10
22.3193957
 20
13.8807411844
 10
22.3303011207
 20
13.8699985618
 10
22.3410170503
 20
13.8594424971
 10
22.3514933292
 20
13.8491225629
 10
22.3616818515
 20
13.8390859856
 10
22.3715356844
 20
13.8293794044
 10
22.3810084816
 20
13.8200476988
 10
22.3900571237
 20
13.8111339885
 10
22.3986393713
 20
13.8026799261
  0
ARC
  5
BC
330
1F
100
AcDbEntity
  8
0
  6
Continuous
 62
     7
 48
12.25
370
    15
100
AcDbCircle
 10
22.3001717012
 20
13.9214357647
 30
0.0
 40
0.1542687964746301
100
AcDbArc
 50
309.6642084609
 51
321.197138477
  0
LWPOLYLINE
  5
BD
330
1F
100
AcDbEntity
  8
0
  6
Continuous
 62
     7
 48
3.5
370
    15
100
AcDbPolyline
 90
        9
 70
   128
 43
0.0
 10
22.42039448
 20
13.8247644443
 10
22.4118122324
 20
13.8332185067
 10
22.4027635903
 20
13.842132217
 10
22.3932904997
 20
13.8514639226
 10
22.3834369602
 20
13.8611705038
 10
22.3732484379
 20
13.8712070812
 10
22.3627718656
 20
13.8815270153
 10
22.3520562294
 20
13.89208308
 10
22.3411505154
 20
13.9028257026
  0
LWPOLYLINE
  5
BE
330
1F
100
AcDbEntity
  8
0
  6
Continuous
 62
     7
 48
3.5
370
    15
100
AcDbPolyline
 90
        9
 70
   128
 43
0.0
 10
22.2591929555
 20
13.9400457526
 10
22.2592489815
 20
13.9325629057
 10
22.2593053009
 20
13.9250680323
 10
22.2593619135
 20
13.9175684656
 10
22.2594182329
 20
13.9100730055
 10
22.2594742589
 20
13.9025892786
 10
22.2595305783
 20
13.8951260848
 10
22.259586311
 20
13.8876907574
 10
22.2596420436
 20
13.8802920962
  0
LWPOLYLINE
  5
BF
330
1F
100
AcDbEntity
  8
0
  6
Continuous
 62
     7
 48
3.5
370
    15
100
AcDbPolyline
 90
        9
 70
   128
 43
0.0
 10
22.2596420436
 20
13.8802920962
 10
22.2670407048
 20
13.8803478289
 10
22.274475739
 20
13.8804035616
 10
22.2819392261
 20
13.8804598809
 10
22.2894226596
 20
13.880515907
 10
22.296918413
 20
13.8805722263
 10
22.3044176864
 20
13.880628839
 10
22.3119128531
 20
13.8806851583
 10
22.3193957
 20
13.8807411844
  0
LWPOLYLINE
  5
C0
330
1F
100
AcDbEntity
  8
0
  6
Continuous
 62
     7
 48
3.5
370
    15
100
AcDbPolyline
 90
        9
 70
   128
 43
0.0
 10
22.3411505154
 20
13.9028257026
 10
22.341094196
 20
13.9103085495
 10
22.3410378767
 20
13.9178037162
 10
22.3409815573
 20
13.9253029896
 10
22.340925238
 20
13.932798743
 10
22.3408689186
 20
13.9402821765
 10
22.3408128926
 20
13.9477456636
 10
22.3407568666
 20
13.9551806978
 10
22.3407014272
 20
13.9625793589
  0
LWPOLYLINE
  5
C1
330
1F
100
AcDbEntity
  8
0
  6
Continuous
 62
     7
 48
3.5
370
    15
100
AcDbPolyline
 90
        9
 70
   128
 43
0.0
 10
22.3407014272
 20
13.9625793589
 10
22.333302766
 20
13.9625236263
 10
22.3258677319
 20
13.9624678936
 10
22.3184042448
 20
13.9624118676
 10
22.3109208113
 20
13.9623555482
 10
22.3034250579
 20
13.9622992289
 10
22.2959257845
 20
13.9622429095
 10
22.2884306177
 20
13.9621865902
 10
22.2809477709
 20
13.9621302708
  0
LINE
  5
C2
330
1F
100
AcDbEntity
  8
0
  6
Continuous
 62
     7
 48
3.5
370
    15
100
AcDbLine
 10
22.2590281041
 20
13.9619654194
 30
0.0
 11
22.2591929555
 21
13.9400457526
 31
0.0
  0
LINE
  5
C3
330
1F
100
AcDbEntity
  8
0
  6
Continuous
 62
     7
 48
3.5
370
    15
100
AcDbLine
 10
22.2809477709
 20
13.9621302708
 30
0.0
 11
22.2590281041
 21
13.9619654194
 31
0.0
  0
LINE
  5
C4
330
1F
100
AcDbEntity
  8
0
  6
Continuous
 62
     7
 48
3.5
370
    15
100
AcDbLine
 10
22.3193957
 20
13.8807411844
 30
0.0
 11
22.3413153668
 21
13.8809060358
 31
0.0
  0
LINE
  5
C5
330
1F
100
AcDbEntity
  8
0
  6
Continuous
 62
     7
 48
3.5
370
    15
100
AcDbLine
 10
22.3413153668
 20
13.8809060358
 30
0.0
 11
22.3411505154
 21
13.9028257026
 31
0.0
  0
CIRCLE
  5
C6
330
1F
100
AcDbEntity
  8
0
  6
Continuous
 62
     7
 48
12.25
370
    15
100
AcDbCircle
 10
22.3001717012
 20
13.9214357647
 30
0.0
 40
0.1865000000000004
  0
LWPOLYLINE
  5
C7
330
1F
100
AcDbEntity
  8
0
  6
Continuous
 62
     7
 48
3.5
370
    15
100
AcDbPolyline
 90
        9
 70
   128
 43
0.0
 10
12.759192887
 20
19.9028257767
 10
12.748287173
 20
19.8920828608
 10
12.7375715368
 20
19.8815270894
 10
12.7270949644
 20
19.871206862
 10
12.7169064421
 20
19.8611702846
 10
12.7070529026
 20
19.8514637034
 10
12.6975798121
 20
19.8421319979
 10
12.6885311699
 20
19.8332185808
 10
12.6799489224
 20
19.8247642252
  0
ARC
  5
C8
330
1F
100
AcDbEntity
  8
0
  6
Continuous
 62
     7
 48
12.25
370
    15
100
AcDbCircle
 10
12.8001717012
 20
19.9214357647
 30
0.0
 40
0.1542687964746292
100
AcDbArc
 50
218.802861523
 51
230.3357915391
  0
LWPOLYLINE
  5
C9
330
1F
100
AcDbEntity
  8
0
  6
Continuous
 62
     7
 48
3.5
370
    15
100
AcDbPolyline
 90
        9
 70
   128
 43
0.0
 10
12.7017040311
 20
19.8026800003
 10
12.7102862786
 20
19.8111340626
 10
12.7193349208
 20
19.820047773
 10
12.728807718
 20
19.8293794785
 10
12.7386615508
 20
19.8390860597
 10
12.7488500731
 20
19.8491223438
 10
12.7593263521
 20
19.8594425712
 10
12.7700422816
 20
19.8699983426
 10
12.7809477023
 20
19.8807412585
  0
LWPOLYLINE
  5
CA
330
1F
100
AcDbEntity
  8
0
  6
Continuous
 62
     7
 48
3.5
370
    15
100
AcDbPolyline
 90
        9
 70
   128
 43
0.0
 10
12.8407013587
 20
19.8802921704
 10
12.8407570914
 20
19.8876908316
 10
12.8408128241
 20
19.8951258657
 10
12.8408691434
 20
19.9025893528
 10
12.8409251695
 20
19.9100727863
 10
12.8409814888
 20
19.9175685397
 10
12.8410381015
 20
19.9250678131
 10
12.8410944208
 20
19.9325629799
 10
12.8411504469
 20
19.9400458267
  0
LWPOLYLINE
  5
CB
330
1F
100
AcDbEntity
  8
0
  6
Continuous
 62
     7
 48
3.5
370
    15
100
AcDbPolyline
 90
        9
 70
   128
 43
0.0
 10
12.8411504469
 20
19.9400458267
 10
12.8520561609
 20
19.9507884493
 10
12.8627717971
 20
19.961344514
 10
12.8732483694
 20
19.9716644482
 10
12.8834368917
 20
19.9817010255
 10
12.8932904312
 20
19.9914076067
 10
12.9027635218
 20
20.0007393123
 10
12.9118121639
 20
20.0096530226
 10
12.9203944114
 20
20.018107085
  0
ARC
  5
CC
330
1F
100
AcDbEntity
  8
0
  6
Continuous
 62
     7
 48
12.25
370
    15
100
AcDbCircle
 10
12.8001717012
 20
19.9214357647
 30
0.0
 40
0.1542687964746316
100
AcDbArc
 50
38.802861523
 51
50.3357915391
  0
LWPOLYLINE
  5
CD
330
1F
100
AcDbEntity
  8
0
  6
Continuous
 62
     7
 48
3.5
370
    15
100
AcDbPolyline
 90
        9
 70
   128
 43
0.0
 10
12.8986395961
 20
20.0401916032
 10
12.8900570552
 20
20.0317375408
 10
12.8810087064
 20
20.0228238305
 10
12.8715356159
 20
20.013492125
 10
12.8616820763
 20
20.0037855438
 10
12.8514932607
 20
19.9937489664
 10
12.8410169817
 20
19.9834290322
 10
12.8303010522
 20
19.9728729675
 10
12.8193956315
 20
19.962130345
  0
LWPOLYLINE
  5
CE
330
1F
100
AcDbEntity
  8
0
  6
Continuous
 62
     7
 48
3.5
370
    15
100
AcDbPolyline
 90
        9
 70
   128
 43
0.0
 10
12.8193956315
 20
19.962130345
 10
12.8119127846
 20
19.962186371
 10
12.8044176179
 20
19.9622426903
 10
12.7969183445
 20
19.962299303
 10
12.7894225911
 20
19.9623556224
 10
12.7819391575
 20
19.9624116484
 10
12.7744756704
 20
19.9624679677
 10
12.7670406363
 20
19.9625237004
 10
12.7596419751
 20
19.9625794331
  0
LWPOLYLINE
  5
CF
330
1F
100
AcDbEntity
  8
0
  6
Continuous
 62
     7
 48
3.5
370
    15
100
AcDbPolyline
 90
        9
 70
   128
 43
0.0
 10
12.7596419751
 20
19.9625794331
 10
12.7595865358
 20
19.9551807719
 10
12.7595305097
 20
19.9477454445
 10
12.7594744837
 20
19.9402822507
 10
12.7594181644
 20
19.9327985238
 10
12.759361845
 20
19.9253030637
 10
12.7593055257
 20
19.917803497
 10
12.7592492063
 20
19.9103086236
 10
12.759192887
 20
19.9028257767
  0
LWPOLYLINE
  5
D0
330
1F
100
AcDbEntity
  8
0
  6
Continuous
 62
     7
 48
3.5
370
    15
100
AcDbPolyline
 90
        9
 70
   128
 43
0.0
 10
12.7809477023
 20
19.8807412585
 10
12.7884305492
 20
19.8806849392
 10
12.795925716
 20
19.8806286198
 10
12.8034249893
 20
19.8805723005
 10
12.8109207427
 20
19.8805159811
 10
12.8184041763
 20
19.8804596618
 10
12.8258676634
 20
19.8804036357
 10
12.8333026975
 20
19.880347903
 10
12.8407013587
 20
19.8802921704
  0
LINE
  5
D1
330
1F
100
AcDbEntity
  8
0
  6
Continuous
 62
     7
 48
3.5
370
    15
100
AcDbLine
 10
12.8413152983
 20
19.9619654935
 30
0.0
 11
12.8193956315
 21
19.962130345
 31
0.0
  0
LINE
  5
D2
330
1F
100
AcDbEntity
  8
0
  6
Continuous
 62
     7
 48
3.5
370
    15
100
AcDbLine
 10
12.8411504469
 20
19.9400458267
 30
0.0
 11
12.8413152983
 21
19.9619654935
 31
0.0
  0
LINE
  5
D3
330
1F
100
AcDbEntity
  8
0
  6
Continuous
 62
     7
 48
3.5
370
    15
100
AcDbLine
 10
12.759192887
 20
19.9028257767
 30
0.0
 11
12.7590280355
 21
19.8809061099
 31
0.0
  0
LINE
  5
D4
330
1F
100
AcDbEntity
  8
0
  6
Continuous
 62
     7
 48
3.5
370
    15
100
AcDbLine
 10
12.7590280355
 20
19.8809061099
 30
0.0
 11
12.7809477023
 21
19.8807412585
 31
0.0
  0
CIRCLE
  5
D5
330
1F
100
AcDbEntity
  8
0
  6
Continuous
 62
     7
 48
12.25
370
    15
100
AcDbCircle
 10
12.8001717012
 20
19.9214357647
 30
0.0
 40
0.1864999999999966
  0
DIMENSION
  5
D6
330
1F
100
AcDbEntity
  8
0
  6
Continuous
 62
     7
 48
3.5
370
     0
100
AcDbDimension
  2
*D5
 10
22.5501717012
 20
23.0086747691
 30
0.0
 11
17.5501717012
 21
23.0086747691
 31
0.0
 70
   160
 71
     2
 42
-1.0
  3
SLDDIMSTYLE0
100
AcDbAlignedDimension
 13
12.5501717012
 23
21.9214357647
 33
0.0
 14
22.5501717012
 24
21.9214357647
 34
0.0
100
AcDbRotatedDimension
  0
DIMENSION
  5
E9
330
1F
100
AcDbEntity
  8
0
  6
Continuous
 62
     7
 48
3.5
370
     0
100
AcDbDimension
  2
*D6
 10
23.6882070555
 20
11.9214357647
 30
0.0
 11
23.6882070555
 21
16.9214357647
 31
0.0
 70
   160
 71
     2
 42
-1.0
  3
SLDDIMSTYLE0
100
AcDbAlignedDimension
 13
22.5501717012
 23
21.9214357647
 33
0.0
 14
22.5501717012
 24
11.9214357647
 34
0.0
 50
90.0
100
AcDbRotatedDimension
  0
INSERT
  5
103
102
{ACAD_REACTORS
330
105
102
}
330
1F
100
AcDbEntity
  8
0
  6
Continuous
 62
     7
 48
3.5
370
     0
100
AcDbBlockReference
  2
SW_NOTE_4
 10
24.8410863652
 20
9.6975704701
 30
0.0
  0
LEADER
  5
105
330
1F
100
AcDbEntity
  8
0
  6
Continuous
 62
     7
 48
3.5
370
     0
100
AcDbLeader
  3
SLDDIMSTYLE1
 73
     2
 76
     3
 10
22.3551418913
 20
13.7432209275
 30
0.0
 10
23.9660863652
 20
9.6975704701
 30
0.0
 10
24.8410863652
 20
9.6975704701
 30
0.0
340
103
  0
LINE
  5
106
330
1F
100
AcDbEntity
  8
0
  6
Continuous
 62
     7
 48
3.5
370
    15
100
AcDbLine
 10
22.4866717943
 20
26.1610386996
 30
0.0
 11
22.4866717943
 21
26.1943697812
 31
0.0
  0
LINE
  5
107
330
1F
100
AcDbEntity
  8
0
  6
Continuous
 62
     7
 48
3.5
370
    15
100
AcDbLine
 10
22.1136716766
 20
26.1943697812
 30
0.0
 11
22.1136716766
 21
26.1610386996
 31
0.0
  0
ARC
  5
108
330
1F
100
AcDbEntity
  8
0
  6
Continuous
 62
     7
 48
12.25
370
    15
100
AcDbCircle
 10
22.4716717012
 20
26.1610385205
 30
0.0
 40
0.0150000000000041
100
AcDbArc
 50
322.550643686
 51
0.0
  0
ARC
  5
109
330
1F
100
AcDbEntity
  8
0
  6
Continuous
 62
     7
 48
12.25
370
    15
100
AcDbCircle
 10
22.1286717012
 20
26.1610385205
 30
0.0
 40
0.0149999999999977
100
AcDbArc
 50
180.0
 51
217.449356314
  0
ARC
  5
10A
330
1F
100
AcDbEntity
  8
0
  6
Continuous
 62
     7
 48
12.25
370
    15
100
AcDbCircle
 10
22.3001717012
 20
26.2923944194
 30
0.0
 40
0.2310245869783022
100
AcDbArc
 50
280.1818657166
 51
322.550643686
  0
ARC
  5
10B
330
1F
100
AcDbEntity
  8
0
  6
Continuous
 62
     7
 48
12.25
370
    15
100
AcDbCircle
 10
22.3001717012
 20
26.2923944194
 30
0.0
 40
0.2310245869783016
100
AcDbArc
 50
217.449356314
 51
259.8181342834
  0
LINE
  5
10C
330
1F
100
AcDbEntity
  8
0
  6
Continuous
 62
     7
 48
3.5
370
    15
100
AcDbLine
 10
22.3691717383
 20
26.3183697354
 30
0.0
 11
22.3691717383
 21
26.3953700192
 31
0.0
  0
LINE
  5
10D
330
1F
100
AcDbEntity
  8
0
  6
Continuous
 62
     7
 48
3.5
370
    15
100
AcDbLine
 10
22.2311717325
 20
26.3953700192
 30
0.0
 11
22.2311717325
 21
26.3183697354
 31
0.0
  0
LINE
  5
10E
330
1F
100
AcDbEntity
  8
0
  6
Continuous
 62
     7
 48
3.5
370
    15
100
AcDbLine
 10
12.9866717258
 20
26.1610386996
 30
0.0
 11
12.9866717258
 21
26.1943697812
 31
0.0
  0
LINE
  5
10F
330
1F
100
AcDbEntity
  8
0
  6
Continuous
 62
     7
 48
3.5
370
    15
100
AcDbLine
 10
12.6136716081
 20
26.1943697812
 30
0.0
 11
12.6136716081
 21
26.1610386996
 31
0.0
  0
ARC
  5
110
330
1F
100
AcDbEntity
  8
0
  6
Continuous
 62
     7
 48
12.25
370
    15
100
AcDbCircle
 10
12.9716717012
 20
26.1610385205
 30
0.0
 40
0.0149999999999988
100
AcDbArc
 50
322.550643686
 51
0.0
  0
ARC
  5
111
330
1F
100
AcDbEntity
  8
0
  6
Continuous
 62
     7
 48
12.25
370
    15
100
AcDbCircle
 10
12.6286717012
 20
26.1610385205
 30
0.0
 40
0.0150000000000023
100
AcDbArc
 50
180.0
 51
217.449356314
  0
ARC
  5
112
330
1F
100
AcDbEntity
  8
0
  6
Continuous
 62
     7
 48
12.25
370
    15
100
AcDbCircle
 10
12.8001717012
 20
26.2923944194
 30
0.0
 40
0.2310245869783022
100
AcDbArc
 50
280.1818657166
 51
322.550643686
  0
ARC
  5
113
330
1F
100
AcDbEntity
  8
0
  6
Continuous
 62
     7
 48
12.25
370
    15
100
AcDbCircle
 10
12.8001717012
 20
26.2923944194
 30
0.0
 40
0.2310245869783019
100
AcDbArc
 50
217.449356314
 51
259.8181342834
  0
LINE
  5
114
330
1F
100
AcDbEntity
  8
0
  6
Continuous
 62
     7
 48
3.5
370
    15
100
AcDbLine
 10
12.8691716698
 20
26.3183697354
 30
0.0
 11
12.8691716698
 21
26.3953700192
 31
0.0
  0
LINE
  5
115
330
1F
100
AcDbEntity
  8
0
  6
Continuous
 62
     7
 48
3.5
370
    15
100
AcDbLine
 10
12.731171664
 20
26.3953700192
 30
0.0
 11
12.731171664
 21
26.3183697354
 31
0.0
  0
LINE
  5
116
330
1F
100
AcDbEntity
  8
0
  6
Continuous
 62
     7
 48
3.5
370
    15
100
AcDbLine
 10
22.5501718608
 20
26.2563697583
 30
0.0
 11
12.5501715416
 21
26.2563697583
 31
0.0
  0
LINE
  5
117
330
1F
100
AcDbEntity
  8
0
  6
Continuous
 62
     7
 48
3.5
370
    15
100
AcDbLine
 10
22.5501718608
 20
26.1943697812
 30
0.0
 11
12.5501715416
 21
26.1943697812
 31
0.0
  0
LINE
  5
118
330
1F
100
AcDbEntity
  8
0
  6
Continuous
 62
     7
 48
3.5
370
    15
100
AcDbLine
 10
12.5501715416
 20
26.2563697583
 30
0.0
 11
12.5501715416
 21
26.1943697812
 31
0.0
  0
LINE
  5
119
330
1F
100
AcDbEntity
  8
0
  6
Continuous
 62
     7
 48
3.5
370
    15
100
AcDbLine
 10
22.5501718608
 20
26.2563697583
 30
0.0
 11
22.5501718608
 21
26.1943697812
 31
0.0
  0
LINE
  5
11A
330
1F
100
AcDbEntity
  8
0
  6
Continuous
 62
     7
 48
3.5
370
    15
100
AcDbLine
 10
22.0191716216
 20
26.3953700192
 30
0.0
 11
22.4111715998
 21
26.3953700192
 31
0.0
  0
LINE
  5
11B
330
1F
100
AcDbEntity
  8
0
  6
Continuous
 62
     7
 48
3.5
370
    15
100
AcDbLine
 10
22.0191716216
 20
26.3333700421
 30
0.0
 11
22.0191716216
 21
26.3953700192
 31
0.0
  0
LINE
  5
11C
330
1F
100
AcDbEntity
  8
0
  6
Continuous
 62
     7
 48
3.5
370
    15
100
AcDbLine
 10
13.0811717808
 20
26.3333700421
 30
0.0
 11
13.0811717808
 21
26.3953700192
 31
0.0
  0
LINE
  5
11D
330
1F
100
AcDbEntity
  8
0
  6
Continuous
 62
     7
 48
3.5
370
    15
100
AcDbLine
 10
13.0811717808
 20
26.3953700192
 30
0.0
 11
12.6891718025
 21
26.3953700192
 31
0.0
  0
LINE
  5
11E
330
1F
100
AcDbEntity
  8
0
  6
Continuous
 62
     7
 48
3.5
370
    15
100
AcDbLine
 10
22.4111715998
 20
32.1173698282
 30
0.0
 11
22.4881718836
 21
32.1173698282
 31
0.0
  0
LINE
  5
11F
330
1F
100
AcDbEntity
  8
0
  6
Continuous
 62
     7
 48
3.5
370
    15
100
AcDbLine
 10
22.4881718836
 20
26.3953700192
 30
0.0
 11
22.4111715998
 21
26.3953700192
 31
0.0
  0
LINE
  5
120
330
1F
100
AcDbEntity
  8
0
  6
Continuous
 62
     7
 48
3.5
370
    15
100
AcDbLine
 10
12.6121715187
 20
26.3953700192
 30
0.0
 11
12.6891718025
 21
26.3953700192
 31
0.0
  0
LINE
  5
121
330
1F
100
AcDbEntity
  8
0
  6
Continuous
 62
     7
 48
3.5
370
    15
100
AcDbLine
 10
12.6891718025
 20
32.1173698282
 30
0.0
 11
12.6121715187
 21
32.1173698282
 31
0.0
  0
LINE
  5
122
330
1F
100
AcDbEntity
  8
0
  6
Continuous
 62
     7
 48
3.5
370
    15
100
AcDbLine
 10
12.6891718025
 20
32.1943698324
 30
0.0
 11
12.6891718025
 21
32.1173698282
 31
0.0
  0
LINE
  5
123
330
1F
100
AcDbEntity
  8
0
  6
Continuous
 62
     7
 48
3.5
370
    15
100
AcDbLine
 10
22.4111715998
 20
32.1943698324
 30
0.0
 11
22.4111715998
 21
32.1173698282
 31
0.0
  0
LINE
  5
124
330
1F
100
AcDbEntity
  8
0
  6
Continuous
 62
     7
 48
3.5
370
    15
100
AcDbLine
 10
22.0191716216
 20
26.3333700421
 30
0.0
 11
22.0191716216
 21
26.2563697583
 31
0.0
  0
LINE
  5
125
330
1F
100
AcDbEntity
  8
0
  6
Continuous
 62
     7
 48
3.5
370
    15
100
AcDbLine
 10
13.0811717808
 20
26.3333700421
 30
0.0
 11
13.0811717808
 21
26.2563697583
 31
0.0
  0
LINE
  5
126
330
1F
100
AcDbEntity
  8
0
  6
Continuous
 62
     7
 48
3.5
370
    15
100
AcDbLine
 10
22.4881718836
 20
26.3333700421
 30
0.0
 11
22.4881718836
 21
32.1793698328
 31
0.0
  0
LINE
  5
127
330
1F
100
AcDbEntity
  8
0
  6
Continuous
 62
     7
 48
3.5
370
    15
100
AcDbLine
 10
22.5501718608
 20
26.3333700421
 30
0.0
 11
22.5501718608
 21
32.1793698328
 31
0.0
  0
LINE
  5
128
330
1F
100
AcDbEntity
  8
0
  6
Continuous
 62
     7
 48
3.5
370
    15
100
AcDbLine
 10
12.5501715416
 20
32.1793698328
 30
0.0
 11
12.5501715416
 21
26.3333700421
 31
0.0
  0
LINE
  5
129
330
1F
100
AcDbEntity
  8
0
  6
Continuous
 62
     7
 48
3.5
370
    15
100
AcDbLine
 10
12.6121715187
 20
32.1793698328
 30
0.0
 11
12.6121715187
 21
26.3333700421
 31
0.0
  0
ARC
  5
12A
330
1F
100
AcDbEntity
  8
0
  6
Continuous
 62
     7
 48
12.25
370
    15
100
AcDbCircle
 10
12.6271717012
 20
32.1793698325
 30
0.0
 40
0.0770000000000053
100
AcDbArc
 50
90.0
 51
180.0
  0
ARC
  5
12B
330
1F
100
AcDbEntity
  8
0
  6
Continuous
 62
     7
 48
12.25
370
    15
100
AcDbCircle
 10
12.6271717012
 20
32.1793698325
 30
0.0
 40
0.0150000000000006
100
AcDbArc
 50
90.0
 51
180.0
  0
LINE
  5
12C
330
1F
100
AcDbEntity
  8
0
  6
Continuous
 62
     7
 48
3.5
370
    15
100
AcDbLine
 10
22.4731715769
 20
32.2563698325
 30
0.0
 11
12.6271718254
 21
32.2563698325
 31
0.0
  0
LINE
  5
12D
330
1F
100
AcDbEntity
  8
0
  6
Continuous
 62
     7
 48
3.5
370
    15
100
AcDbLine
 10
22.4731715769
 20
32.1943698324
 30
0.0
 11
12.6271718254
 21
32.1943698324
 31
0.0
  0
ARC
  5
12E
330
1F
100
AcDbEntity
  8
0
  6
Continuous
 62
     7
 48
12.25
370
    15
100
AcDbCircle
 10
22.4731717012
 20
32.1793698325
 30
0.0
 40
0.0769999999999982
100
AcDbArc
 50
0.0
 51
90.0
  0
ARC
  5
12F
330
1F
100
AcDbEntity
  8
0
  6
Continuous
 62
     7
 48
12.25
370
    15
100
AcDbCircle
 10
22.4731717012
 20
32.1793698325
 30
0.0
 40
0.0150000000000006
100
AcDbArc
 50
0.0
 51
90.0
  0
ARC
  5
130
330
1F
100
AcDbEntity
  8
0
  6
Continuous
 62
     7
 48
12.25
370
    15
100
AcDbCircle
 10
12.6271717012
 20
26.3333698325
 30
0.0
 40
0.0150000000000041
100
AcDbArc
 50
180.0
 51
270.0
  0
ARC
  5
131
330
1F
100
AcDbEntity
  8
0
  6
Continuous
 62
     7
 48
12.25
370
    15
100
AcDbCircle
 10
12.6271717012
 20
26.3333698325
 30
0.0
 40
0.0770000000000053
100
AcDbArc
 50
180.0
 51
270.0
  0
ARC
  5
132
330
1F
100
AcDbEntity
  8
0
  6
Continuous
 62
     7
 48
12.25
370
    15
100
AcDbCircle
 10
22.4731717012
 20
26.3333698325
 30
0.0
 40
0.0150000000000041
100
AcDbArc
 50
270.0
 51
0.0
  0
ARC
  5
133
330
1F
100
AcDbEntity
  8
0
  6
Continuous
 62
     7
 48
12.25
370
    15
100
AcDbCircle
 10
22.4731717012
 20
26.3333698325
 30
0.0
 40
0.0770000000000053
100
AcDbArc
 50
270.0
 51
0.0
  0
LINE
  5
134
330
1F
100
AcDbEntity
  8
0
  6
Continuous
 62
     7
 48
3.5
370
    15
100
AcDbLine
 10
22.0501716101
 20
26.2563697583
 30
0.0
 11
22.0501716101
 21
26.3183697354
 31
0.0
  0
LINE
  5
135
330
1F
100
AcDbEntity
  8
0
  6
Continuous
 62
     7
 48
3.5
370
    15
100
AcDbLine
 10
22.0501716101
 20
26.3183697354
 30
0.0
 11
22.4731715769
 21
26.3183697354
 31
0.0
  0
LINE
  5
136
330
1F
100
AcDbEntity
  8
0
  6
Continuous
 62
     7
 48
3.5
370
    15
100
AcDbLine
 10
22.0501716101
 20
26.2563697583
 30
0.0
 11
22.4731715769
 21
26.2563697583
 31
0.0
  0
LINE
  5
137
330
1F
100
AcDbEntity
  8
0
  6
Continuous
 62
     7
 48
3.5
370
    15
100
AcDbLine
 10
13.0501717922
 20
26.3183697354
 30
0.0
 11
13.0501717922
 21
26.2563697583
 31
0.0
  0
LINE
  5
138
330
1F
100
AcDbEntity
  8
0
  6
Continuous
 62
     7
 48
3.5
370
    15
100
AcDbLine
 10
12.6271718254
 20
26.2563697583
 30
0.0
 11
13.0501717922
 21
26.2563697583
 31
0.0
  0
LINE
  5
139
330
1F
100
AcDbEntity
  8
0
  6
Continuous
 62
     7
 48
3.5
370
    15
100
AcDbLine
 10
12.6271718254
 20
26.3183697354
 30
0.0
 11
13.0501717922
 21
26.3183697354
 31
0.0
  0
ARC
  5
13A
330
1F
100
AcDbEntity
  8
0
  6
Continuous
 62
     7
 48
12.25
370
    15
100
AcDbCircle
 10
22.323537324
 20
26.2123661619
 30
0.0
 40
0.1526322901372174
100
AcDbArc
 50
217.0399324698
 51
253.7974584433
  0
LINE
  5
13B
330
1F
100
AcDbEntity
  8
0
  6
Continuous
 62
     7
 48
3.5
370
    15
100
AcDbLine
 10
22.1799489909
 20
26.1204248221
 30
0.0
 11
22.2017038063
 21
26.1204248221
 31
0.0
  0
ARC
  5
13C
330
1F
100
AcDbEntity
  8
0
  6
Continuous
 62
     7
 48
12.25
370
    15
100
AcDbCircle
 10
22.3017825086
 20
26.2123661619
 30
0.0
 40
0.1526322901371815
100
AcDbArc
 50
217.0399324698
 51
253.7974584433
  0
LWPOLYLINE
  5
13D
330
1F
100
AcDbEntity
  8
0
  6
Continuous
 62
     7
 48
3.5
370
    15
100
AcDbPolyline
 90
        9
 70
   128
 43
0.0
 10
22.2591929555
 20
26.0657962265
 10
22.2592489815
 20
26.0652958056
 10
22.2593053009
 20
26.0650417819
 10
22.2593619135
 20
26.0650359153
 10
22.2594182329
 20
26.0652770325
 10
22.2594742589
 20
26.0657651335
 10
22.2595305783
 20
26.0664996317
 10
22.259586311
 20
26.0674799404
 10
22.2596420436
 20
26.0687048862
  0
ARC
  5
13E
330
1F
100
AcDbEntity
  8
0
  6
Continuous
 62
     7
 48
12.25
370
    15
100
AcDbCircle
 10
22.3005066157
 20
26.2925827792
 30
0.0
 40
0.227576853364442
100
AcDbArc
 50
259.6556446666
 51
264.9949728214
  0
ARC
  5
13F
330
1F
100
AcDbEntity
  8
0
  6
Continuous
 62
     7
 48
12.25
370
    15
100
AcDbCircle
 10
22.3004747051
 20
26.2924252885
 30
0.0
 40
0.2274175362742809
100
AcDbArc
 50
270.0098390589
 51
274.7724893568
  0
ARC
  5
140
330
1F
100
AcDbEntity
  8
0
  6
Continuous
 62
     7
 48
12.25
370
    15
100
AcDbCircle
 10
22.3571016932
 20
26.0682153627
 30
0.0
 40
0.0164075700792427
100
AcDbArc
 50
178.2903138259
 51
191.2715852685
  0
ARC
  5
141
330
1F
100
AcDbEntity
  8
0
  6
Continuous
 62
     7
 48
12.25
370
    15
100
AcDbCircle
 10
22.2998654696
 20
26.2923879452
 30
0.0
 40
0.2273800481357777
100
AcDbArc
 50
265.2275554524
 51
280.3460778519
  0
LINE
  5
142
330
1F
100
AcDbEntity
  8
0
  6
Continuous
 62
     7
 48
3.5
370
    15
100
AcDbLine
 10
22.2591929555
 20
26.0657962265
 30
0.0
 11
22.2591929555
 21
26.0736856287
 31
0.0
  0
LINE
  5
143
330
1F
100
AcDbEntity
  8
0
  6
Continuous
 62
     7
 48
3.5
370
    15
100
AcDbLine
 10
22.2596420436
 20
26.0734767778
 30
0.0
 11
22.2596420436
 21
26.0687048862
 31
0.0
  0
LINE
  5
144
330
1F
100
AcDbEntity
  8
0
  6
Continuous
 62
     7
 48
3.5
370
    15
100
AcDbLine
 10
22.3193957
 20
26.0658484392
 30
0.0
 11
22.3193957
 21
26.0657962265
 31
0.0
  0
ARC
  5
145
330
1F
100
AcDbEntity
  8
0
  6
Continuous
 62
     7
 48
12.25
370
    15
100
AcDbCircle
 10
12.7998507767
 20
26.2920998495
 30
0.0
 40
0.2270917347422118
100
AcDbArc
 50
265.2251849399
 51
270.0811093977
  0
ARC
  5
146
330
1F
100
AcDbEntity
  8
0
  6
Continuous
 62
     7
 48
12.25
370
    15
100
AcDbCircle
 10
12.7998367867
 20
26.2925827792
 30
0.0
 40
0.22757685336461
100
AcDbArc
 50
275.0050271786
 51
280.3443553334
  0
LWPOLYLINE
  5
147
330
1F
100
AcDbEntity
  8
0
  6
Continuous
 62
     7
 48
3.5
370
    15
100
AcDbPolyline
 90
        9
 70
   128
 43
0.0
 10
12.8407013587
 20
26.0687048862
 10
12.8407570914
 20
26.0674799404
 10
12.8408128241
 20
26.0664996317
 10
12.8408691434
 20
26.0657651335
 10
12.8409251695
 20
26.0652770325
 10
12.8409814888
 20
26.0650359153
 10
12.8410381015
 20
26.0650417819
 10
12.8410944208
 20
26.0652958056
 10
12.8411504469
 20
26.0657962265
  0
ARC
  5
148
330
1F
100
AcDbEntity
  8
0
  6
Continuous
 62
     7
 48
12.25
370
    15
100
AcDbCircle
 10
12.7985608938
 20
26.2123661619
 30
0.0
 40
0.1526322901371918
100
AcDbArc
 50
286.2025415567
 51
322.9600675302
  0
LINE
  5
149
330
1F
100
AcDbEntity
  8
0
  6
Continuous
 62
     7
 48
3.5
370
    15
100
AcDbLine
 10
12.8986395961
 20
26.1204248221
 30
0.0
 11
12.9203944114
 21
26.1204248221
 31
0.0
  0
ARC
  5
14A
330
1F
100
AcDbEntity
  8
0
  6
Continuous
 62
     7
 48
12.25
370
    15
100
AcDbCircle
 10
12.7768060784
 20
26.2123661619
 30
0.0
 40
0.1526322901371932
100
AcDbArc
 50
286.2025415567
 51
322.9600675302
  0
ARC
  5
14B
330
1F
100
AcDbEntity
  8
0
  6
Continuous
 62
     7
 48
12.25
370
    15
100
AcDbCircle
 10
12.8004779328
 20
26.2923879452
 30
0.0
 40
0.227380048135724
100
AcDbArc
 50
259.6539221481
 51
274.7724445476
  0
ARC
  5
14C
330
1F
100
AcDbEntity
  8
0
  6
Continuous
 62
     7
 48
12.25
370
    15
100
AcDbCircle
 10
12.7432417092
 20
26.0682153627
 30
0.0
 40
0.0164075700785385
100
AcDbArc
 50
348.7284147311
 51
1.7096861742
  0
LINE
  5
14D
330
1F
100
AcDbEntity
  8
0
  6
Continuous
 62
     7
 48
3.5
370
    15
100
AcDbLine
 10
12.8411504469
 20
26.0736856287
 30
0.0
 11
12.8411504469
 21
26.0657962265
 31
0.0
  0
LINE
  5
14E
330
1F
100
AcDbEntity
  8
0
  6
Continuous
 62
     7
 48
3.5
370
    15
100
AcDbLine
 10
12.8407013587
 20
26.0734767778
 30
0.0
 11
12.8407013587
 21
26.0687048862
 31
0.0
  0
LINE
  5
14F
330
1F
100
AcDbEntity
  8
0
  6
Continuous
 62
     7
 48
3.5
370
    15
100
AcDbLine
 10
12.7809477023
 20
26.0657962265
 30
0.0
 11
12.7809477023
 21
26.0658484392
 31
0.0
  0
DIMENSION
  5
150
330
1F
100
AcDbEntity
  8
0
  6
Continuous
 62
     7
 48
3.5
370
     0
100
AcDbDimension
  2
*D8
 10
23.9418678355
 20
26.2563698325
 30
0.0
 11
23.9418678355
 21
29.2563698325
 31
0.0
 70
   160
 71
     2
 42
-1.0
  3
SLDDIMSTYLE0
100
AcDbAlignedDimension
 13
22.4731717012
 23
32.2563698325
 33
0.0
 14
22.5501717012
 24
26.2563698325
 34
0.0
 50
90.0
100
AcDbRotatedDimension
  0
ARC
  5
162
330
1F
100
AcDbEntity
  8
0
  6
Continuous
 62
     7
 48
12.25
370
    15
100
AcDbCircle
 10
37.2550572537
 20
19.7499357647
 30
0.0
 40
0.0150000000000006
100
AcDbArc
 50
232.550643686
 51
270.0
  0
ARC
  5
163
330
1F
100
AcDbEntity
  8
0
  6
Continuous
 62
     7
 48
12.25
370
    15
100
AcDbCircle
 10
37.2550572537
 20
20.0929357647
 30
0.0
 40
0.014999999999997
100
AcDbArc
 50
90.0
 51
127.449356314
  0
LINE
  5
164
330
1F
100
AcDbEntity
  8
0
  6
Continuous
 62
     7
 48
3.5
370
    15
100
AcDbLine
 10
37.2550574327
 20
19.7349357429
 30
0.0
 11
37.2883885144
 21
19.7349357429
 31
0.0
  0
LINE
  5
165
330
1F
100
AcDbEntity
  8
0
  6
Continuous
 62
     7
 48
3.5
370
    15
100
AcDbLine
 10
37.2883885144
 20
20.1079358606
 30
0.0
 11
37.2550574327
 21
20.1079358606
 31
0.0
  0
ARC
  5
166
330
1F
100
AcDbEntity
  8
0
  6
Continuous
 62
     7
 48
12.25
370
    15
100
AcDbCircle
 10
37.3864131526
 20
19.9214357647
 30
0.0
 40
0.2310245869783022
100
AcDbArc
 50
190.1818657166
 51
232.550643686
  0
ARC
  5
167
330
1F
100
AcDbEntity
  8
0
  6
Continuous
 62
     7
 48
12.25
370
    15
100
AcDbCircle
 10
37.3864131526
 20
19.9214357647
 30
0.0
 40
0.2310245869783022
100
AcDbArc
 50
127.449356314
 51
169.8181342834
  0
ARC
  5
168
330
1F
100
AcDbEntity
  8
0
  6
Continuous
 62
     7
 48
12.25
370
    15
100
AcDbCircle
 10
37.2550572537
 20
13.7499357647
 30
0.0
 40
0.0150000000000006
100
AcDbArc
 50
232.550643686
 51
270.0
  0
ARC
  5
169
330
1F
100
AcDbEntity
  8
0
  6
Continuous
 62
     7
 48
12.25
370
    15
100
AcDbCircle
 10
37.2550572537
 20
14.0929357647
 30
0.0
 40
0.0150000000000006
100
AcDbArc
 50
90.0
 51
127.449356314
  0
LINE
  5
16A
330
1F
100
AcDbEntity
  8
0
  6
Continuous
 62
     7
 48
3.5
370
    15
100
AcDbLine
 10
37.2550574327
 20
13.7349356687
 30
0.0
 11
37.2883885144
 21
13.7349356687
 31
0.0
  0
LINE
  5
16B
330
1F
100
AcDbEntity
  8
0
  6
Continuous
 62
     7
 48
3.5
370
    15
100
AcDbLine
 10
37.2883885144
 20
14.1079357864
 30
0.0
 11
37.2550574327
 21
14.1079357864
 31
0.0
  0
ARC
  5
16C
330
1F
100
AcDbEntity
  8
0
  6
Continuous
 62
     7
 48
12.25
370
    15
100
AcDbCircle
 10
37.3864131526
 20
13.9214357647
 30
0.0
 40
0.2310245869783022
100
AcDbArc
 50
190.1818657166
 51
232.550643686
  0
ARC
  5
16D
330
1F
100
AcDbEntity
  8
0
  6
Continuous
 62
     7
 48
12.25
370
    15
100
AcDbCircle
 10
37.3864131526
 20
13.9214357647
 30
0.0
 40
0.2310245869783019
100
AcDbArc
 50
127.449356314
 51
169.8181342834
  0
LINE
  5
16E
330
1F
100
AcDbEntity
  8
0
  6
Continuous
 62
     7
 48
3.5
370
    15
100
AcDbLine
 10
37.3503884915
 20
21.9214359242
 30
0.0
 11
37.2883885144
 21
21.9214359242
 31
0.0
  0
LINE
  5
16F
330
1F
100
AcDbEntity
  8
0
  6
Continuous
 62
     7
 48
3.5
370
    15
100
AcDbLine
 10
37.3503884915
 20
11.9214356051
 30
0.0
 11
37.3503884915
 21
21.9214359242
 31
0.0
  0
LINE
  5
170
330
1F
100
AcDbEntity
  8
0
  6
Continuous
 62
     7
 48
3.5
370
    15
100
AcDbLine
 10
37.3503884915
 20
11.9214356051
 30
0.0
 11
37.2883885144
 21
11.9214356051
 31
0.0
  0
LINE
  5
171
330
1F
100
AcDbEntity
  8
0
  6
Continuous
 62
     7
 48
3.5
370
    15
100
AcDbLine
 10
37.2883885144
 20
11.9214356051
 30
0.0
 11
37.2883885144
 21
21.9214359242
 31
0.0
  0
LINE
  5
172
330
1F
100
AcDbEntity
  8
0
  6
Continuous
 62
     7
 48
3.5
370
    15
100
AcDbLine
 10
43.3503885656
 20
21.9214359242
 30
0.0
 11
43.3503885656
 21
11.9214356051
 31
0.0
  0
LINE
  5
173
330
1F
100
AcDbEntity
  8
0
  6
Continuous
 62
     7
 48
3.5
370
    15
100
AcDbLine
 10
43.273388566
 20
11.9214356051
 30
0.0
 11
43.3503885656
 21
11.9214356051
 31
0.0
  0
LINE
  5
174
330
1F
100
AcDbEntity
  8
0
  6
Continuous
 62
     7
 48
3.5
370
    15
100
AcDbLine
 10
43.273388566
 20
21.9214359242
 30
0.0
 11
43.3503885656
 21
21.9214359242
 31
0.0
  0
LINE
  5
175
330
1F
100
AcDbEntity
  8
0
  6
Continuous
 62
     7
 48
3.5
370
    15
100
AcDbLine
 10
37.4273887753
 20
11.9214356051
 30
0.0
 11
43.273388566
 21
11.9214356051
 31
0.0
  0
LINE
  5
176
330
1F
100
AcDbEntity
  8
0
  6
Continuous
 62
     7
 48
3.5
370
    15
100
AcDbLine
 10
37.4273887753
 20
21.9214359242
 30
0.0
 11
43.273388566
 21
21.9214359242
 31
0.0
  0
LINE
  5
177
330
1F
100
AcDbEntity
  8
0
  6
Continuous
 62
     7
 48
3.5
370
    15
100
AcDbLine
 10
37.3503884915
 20
21.9214359242
 30
0.0
 11
37.4273887753
 21
21.9214359242
 31
0.0
  0
LINE
  5
178
330
1F
100
AcDbEntity
  8
0
  6
Continuous
 62
     7
 48
3.5
370
    15
100
AcDbLine
 10
37.3503884915
 20
11.9214356051
 30
0.0
 11
37.4273887753
 21
11.9214356051
 31
0.0
  0
ARC
  5
179
330
1F
100
AcDbEntity
  8
0
  6
Continuous
 62
     7
 48
12.25
370
    15
100
AcDbCircle
 10
37.3864016862
 20
19.9211263825
 30
0.0
 40
0.2273748236867395
100
AcDbArc
 50
179.9215864887
 51
190.3458710839
  0
ARC
  5
17A
330
1F
100
AcDbEntity
  8
0
  6
Continuous
 62
     7
 48
12.25
370
    15
100
AcDbCircle
 10
37.1596654241
 20
19.8793347986
 30
0.0
 40
0.0014143868863797
100
AcDbArc
 50
83.9310806671
 51
116.828748522
  0
ARC
  5
17B
330
1F
100
AcDbEntity
  8
0
  6
Continuous
 62
     7
 48
12.25
370
    15
100
AcDbCircle
 10
37.3039419749
 20
19.9234581549
 30
0.0
 40
0.1503240824377598
100
AcDbArc
 50
196.5089643788
 51
233.4610008528
  0
LINE
  5
17C
330
1F
100
AcDbEntity
  8
0
  6
Continuous
 62
     7
 48
3.5
370
    15
100
AcDbLine
 10
37.2144435552
 20
19.8247642252
 30
0.0
 11
37.2144435552
 21
19.8026800003
 31
0.0
  0
ARC
  5
17D
330
1F
100
AcDbEntity
  8
0
  6
Continuous
 62
     7
 48
12.25
370
    15
100
AcDbCircle
 10
37.3039420664
 20
19.9455422834
 30
0.0
 40
0.1503240594337817
100
AcDbArc
 50
196.508812022
 51
233.4609509332
  0
ARC
  5
17E
330
1F
100
AcDbEntity
  8
0
  6
Continuous
 62
     7
 48
12.25
370
    15
100
AcDbCircle
 10
37.3864086792
 20
19.921743378
 30
0.0
 40
0.2273820339978647
100
AcDbArc
 50
169.6539885534
 51
184.7723781424
  0
LWPOLYLINE
  5
17F
330
1F
100
AcDbEntity
  8
0
  6
Continuous
 62
     7
 48
3.5
370
    15
100
AcDbPolyline
 90
        9
 70
   128
 43
0.0
 10
37.1627236194
 20
19.9625794331
 10
37.1614986735
 20
19.9625237004
 10
37.1605183649
 20
19.9624679677
 10
37.1597838667
 20
19.9624116484
 10
37.1592957656
 20
19.9623556224
 10
37.1590546484
 20
19.962299303
 10
37.159060515
 20
19.9622426903
 10
37.1593145388
 20
19.962186371
 10
37.1598149596
 20
19.962130345
  0
LINE
  5
180
330
1F
100
AcDbEntity
  8
0
  6
Continuous
 62
     7
 48
3.5
370
    15
100
AcDbLine
 10
37.1680164649
 20
19.8807412585
 30
0.0
 11
37.1598149596
 21
19.8807412585
 31
0.0
  0
LINE
  5
181
330
1F
100
AcDbEntity
  8
0
  6
Continuous
 62
     7
 48
3.5
370
    15
100
AcDbLine
 10
37.1626420737
 20
19.962130345
 30
0.0
 11
37.1598149596
 21
19.962130345
 31
0.0
  0
ARC
  5
182
330
1F
100
AcDbEntity
  8
0
  6
Continuous
 62
     7
 48
12.25
370
    15
100
AcDbCircle
 10
37.3864006617
 20
13.9211261965
 30
0.0
 40
0.2273737957413955
100
AcDbArc
 50
179.9222231737
 51
190.3458897007
  0
ARC
  5
183
330
1F
100
AcDbEntity
  8
0
  6
Continuous
 62
     7
 48
12.25
370
    15
100
AcDbCircle
 10
37.1596632814
 20
13.8793464223
 30
0.0
 40
0.0014029852040372
100
AcDbArc
 50
83.793558882
 51
116.9662703063
  0
ARC
  5
184
330
1F
100
AcDbEntity
  8
0
  6
Continuous
 62
     7
 48
12.25
370
    15
100
AcDbCircle
 10
37.3039419749
 20
13.9234580808
 30
0.0
 40
0.1503240824377867
100
AcDbArc
 50
196.5089643788
 51
233.4610008528
  0
LINE
  5
185
330
1F
100
AcDbEntity
  8
0
  6
Continuous
 62
     7
 48
3.5
370
    15
100
AcDbLine
 10
37.2144435552
 20
13.8247644443
 30
0.0
 11
37.2144435552
 21
13.8026799261
 31
0.0
  0
ARC
  5
186
330
1F
100
AcDbEntity
  8
0
  6
Continuous
 62
     7
 48
12.25
370
    15
100
AcDbCircle
 10
37.3039419749
 20
13.945542599
 30
0.0
 40
0.1503240824378137
100
AcDbArc
 50
196.5089643788
 51
233.4610008528
  0
ARC
  5
187
330
1F
100
AcDbEntity
  8
0
  6
Continuous
 62
     7
 48
12.25
370
    15
100
AcDbCircle
 10
37.3864066783
 20
13.9217434013
 30
0.0
 40
0.2273800481356131
100
AcDbArc
 50
169.6539221481
 51
184.7724445476
  0
LWPOLYLINE
  5
188
330
1F
100
AcDbEntity
  8
0
  6
Continuous
 62
     7
 48
3.5
370
    15
100
AcDbPolyline
 90
        9
 70
   128
 43
0.0
 10
37.1627236194
 20
13.9625793589
 10
37.1614986735
 20
13.9625236263
 10
37.1605183649
 20
13.9624678936
 10
37.1597838667
 20
13.9624118676
 10
37.1592957656
 20
13.9623555482
 10
37.1590546484
 20
13.9622992289
 10
37.159060515
 20
13.9622429095
 10
37.1593145388
 20
13.9621865902
 10
37.1598149596
 20
13.9621302708
  0
LINE
  5
189
330
1F
100
AcDbEntity
  8
0
  6
Continuous
 62
     7
 48
3.5
370
    15
100
AcDbLine
 10
37.1680164649
 20
13.8807411844
 30
0.0
 11
37.1598149596
 21
13.8807411844
 31
0.0
  0
LINE
  5
18A
330
1F
100
AcDbEntity
  8
0
  6
Continuous
 62
     7
 48
3.5
370
    15
100
AcDbLine
 10
37.1626420737
 20
13.9621302708
 30
0.0
 11
37.1598149596
 21
13.9621302708
 31
0.0
  0
LINE
  5
18B
330
1F
100
AcDbEntity
  8
0
  6
HIDDEN
 62
     7
 48
3.5
370
     0
100
AcDbLine
 10
37.3503884915
 20
19.8093858161
 30
0.0
 11
37.2883885144
 21
19.8093858161
 31
0.0
  0
LINE
  5
18C
330
1F
100
AcDbEntity
  8
0
  6
HIDDEN
 62
     7
 48
3.5
370
     0
100
AcDbLine
 10
37.3503884915
 20
13.809385742
 30
0.0
 11
37.2883885144
 21
13.809385742
 31
0.0
  0
LINE
  5
18D
330
1F
100
AcDbEntity
  8
0
  6
HIDDEN
 62
     7
 48
3.5
370
     0
100
AcDbLine
 10
37.4893887524
 20
21.4834356507
 30
0.0
 11
37.4893887524
 21
21.8444356404
 31
0.0
  0
LINE
  5
18E
330
1F
100
AcDbEntity
  8
0
  6
HIDDEN
 62
     7
 48
3.5
370
     0
100
AcDbLine
 10
43.2113885614
 20
21.8444356404
 30
0.0
 11
43.2113885614
 21
21.4834356507
 31
0.0
  0
LINE
  5
18F
330
1F
100
AcDbEntity
  8
0
  6
HIDDEN
 62
     7
 48
3.5
370
     0
100
AcDbLine
 10
43.2113885614
 20
21.4834356507
 30
0.0
 11
37.4893887524
 21
21.4834356507
 31
0.0
  0
LINE
  5
190
330
1F
100
AcDbEntity
  8
0
  6
HIDDEN
 62
     7
 48
3.5
370
     0
100
AcDbLine
 10
43.2113885614
 20
21.9214359242
 30
0.0
 11
43.2113885614
 21
21.8444356404
 31
0.0
  0
LINE
  5
191
330
1F
100
AcDbEntity
  8
0
  6
HIDDEN
 62
     7
 48
3.5
370
     0
100
AcDbLine
 10
37.4893887524
 20
21.8444356404
 30
0.0
 11
37.4893887524
 21
21.9214359242
 31
0.0
  0
LINE
  5
192
330
1F
100
AcDbEntity
  8
0
  6
HIDDEN
 62
     7
 48
3.5
370
     0
100
AcDbLine
 10
37.4893887524
 20
21.8594359471
 30
0.0
 11
43.2113885614
 21
21.8594359471
 31
0.0
  0
ARC
  5
193
330
1F
100
AcDbEntity
  8
0
  6
HIDDEN
 62
     7
 48
12.25
370
     0
100
AcDbCircle
 10
43.2113885656
 20
21.8444357647
 30
0.0
 40
0.0770000000000017
100
AcDbArc
 50
0.0
 51
90.0
  0
ARC
  5
194
330
1F
100
AcDbEntity
  8
0
  6
HIDDEN
 62
     7
 48
12.25
370
     0
100
AcDbCircle
 10
43.2113885656
 20
21.8444357647
 30
0.0
 40
0.0150000000000006
100
AcDbArc
 50
0.0
 51
90.0
  0
LINE
  5
195
330
1F
100
AcDbEntity
  8
0
  6
HIDDEN
 62
     7
 48
3.5
370
     0
100
AcDbLine
 10
43.2263885656
 20
21.4834356507
 30
0.0
 11
43.2263885656
 21
21.8444356404
 31
0.0
  0
LINE
  5
196
330
1F
100
AcDbEntity
  8
0
  6
HIDDEN
 62
     7
 48
3.5
370
     0
100
AcDbLine
 10
43.2883885656
 20
21.4834356507
 30
0.0
 11
43.2263885656
 21
21.4834356507
 31
0.0
  0
LINE
  5
197
330
1F
100
AcDbEntity
  8
0
  6
HIDDEN
 62
     7
 48
3.5
370
     0
100
AcDbLine
 10
37.4273887753
 20
21.8594359471
 30
0.0
 11
37.4893887524
 21
21.8594359471
 31
0.0
  0
LINE
  5
198
330
1F
100
AcDbEntity
  8
0
  6
HIDDEN
 62
     7
 48
3.5
370
     0
100
AcDbLine
 10
37.3503884915
 20
21.4214356736
 30
0.0
 11
37.4123884686
 21
21.4214356736
 31
0.0
  0
ARC
  5
199
330
1F
100
AcDbEntity
  8
0
  6
HIDDEN
 62
     7
 48
12.25
370
     0
100
AcDbCircle
 10
37.4273885656
 20
21.8444357647
 30
0.0
 40
0.0150000000000077
100
AcDbArc
 50
90.0
 51
180.0
  0
ARC
  5
19A
330
1F
100
AcDbEntity
  8
0
  6
HIDDEN
 62
     7
 48
12.25
370
     0
100
AcDbCircle
 10
37.4273885656
 20
21.8444357647
 30
0.0
 40
0.0770000000000053
100
AcDbArc
 50
90.0
 51
180.0
  0
LINE
  5
19B
330
1F
100
AcDbEntity
  8
0
  6
HIDDEN
 62
     7
 48
3.5
370
     0
100
AcDbLine
 10
37.4893887524
 20
12.3594358786
 30
0.0
 11
37.4893887524
 21
11.9984358889
 31
0.0
  0
LINE
  5
19C
330
1F
100
AcDbEntity
  8
0
  6
HIDDEN
 62
     7
 48
3.5
370
     0
100
AcDbLine
 10
43.2113885614
 20
12.3594358786
 30
0.0
 11
37.4893887524
 21
12.3594358786
 31
0.0
  0
LINE
  5
19D
330
1F
100
AcDbEntity
  8
0
  6
HIDDEN
 62
     7
 48
3.5
370
     0
100
AcDbLine
 10
43.2113885614
 20
11.9984358889
 30
0.0
 11
43.2113885614
 21
12.3594358786
 31
0.0
  0
LINE
  5
19E
330
1F
100
AcDbEntity
  8
0
  6
HIDDEN
 62
     7
 48
3.5
370
     0
100
AcDbLine
 10
37.4893887524
 20
11.9984358889
 30
0.0
 11
37.4893887524
 21
11.9214356051
 31
0.0
  0
LINE
  5
19F
330
1F
100
AcDbEntity
  8
0
  6
HIDDEN
 62
     7
 48
3.5
370
     0
100
AcDbLine
 10
43.2113885614
 20
11.9214356051
 30
0.0
 11
43.2113885614
 21
11.9984358889
 31
0.0
  0
LINE
  5
1A0
330
1F
100
AcDbEntity
  8
0
  6
HIDDEN
 62
     7
 48
3.5
370
     0
100
AcDbLine
 10
37.4893887524
 20
11.9834355822
 30
0.0
 11
43.2113885614
 21
11.9834355822
 31
0.0
  0
ARC
  5
1A1
330
1F
100
AcDbEntity
  8
0
  6
HIDDEN
 62
     7
 48
12.25
370
     0
100
AcDbCircle
 10
43.2113885656
 20
11.9984357647
 30
0.0
 40
0.0770000000000053
100
AcDbArc
 50
270.0
 51
0.0
  0
ARC
  5
1A2
330
1F
100
AcDbEntity
  8
0
  6
HIDDEN
 62
     7
 48
12.25
370
     0
100
AcDbCircle
 10
43.2113885656
 20
11.9984357647
 30
0.0
 40
0.0150000000000006
100
AcDbArc
 50
270.0
 51
0.0
  0
LINE
  5
1A3
330
1F
100
AcDbEntity
  8
0
  6
HIDDEN
 62
     7
 48
3.5
370
     0
100
AcDbLine
 10
43.2263885656
 20
12.3594358786
 30
0.0
 11
43.2263885656
 21
11.9984358889
 31
0.0
  0
LINE
  5
1A4
330
1F
100
AcDbEntity
  8
0
  6
HIDDEN
 62
     7
 48
3.5
370
     0
100
AcDbLine
 10
43.2883885656
 20
12.3594358786
 30
0.0
 11
43.2263885656
 21
12.3594358786
 31
0.0
  0
LINE
  5
1A5
330
1F
100
AcDbEntity
  8
0
  6
HIDDEN
 62
     7
 48
3.5
370
     0
100
AcDbLine
 10
37.4273887753
 20
11.9834355822
 30
0.0
 11
37.4893887524
 21
11.9834355822
 31
0.0
  0
LINE
  5
1A6
330
1F
100
AcDbEntity
  8
0
  6
HIDDEN
 62
     7
 48
3.5
370
     0
100
AcDbLine
 10
37.3503884915
 20
12.4214358557
 30
0.0
 11
37.4123884686
 21
12.4214358557
 31
0.0
  0
ARC
  5
1A7
330
1F
100
AcDbEntity
  8
0
  6
HIDDEN
 62
     7
 48
12.25
370
     0
100
AcDbCircle
 10
37.4273885656
 20
11.9984357647
 30
0.0
 40
0.0150000000000023
100
AcDbArc
 50
180.0
 51
270.0
  0
ARC
  5
1A8
330
1F
100
AcDbEntity
  8
0
  6
HIDDEN
 62
     7
 48
12.25
370
     0
100
AcDbCircle
 10
37.4273885656
 20
11.9984357647
 30
0.0
 40
0.077
100
AcDbArc
 50
180.0
 51
270.0
  0
LINE
  5
1A9
330
1F
100
AcDbEntity
  8
0
  6
HIDDEN
 62
     7
 48
3.5
370
     0
100
AcDbLine
 10
43.2883885656
 20
21.9214359242
 30
0.0
 11
43.2883885656
 21
11.9214356051
 31
0.0
  0
LINE
  5
1AA
330
1F
100
AcDbEntity
  8
0
  6
HIDDEN
 62
     7
 48
3.5
370
     0
100
AcDbLine
 10
37.4123884686
 20
21.9214359242
 30
0.0
 11
37.4123884686
 21
11.9214356051
 31
0.0
  0
LINE
  5
1AB
330
1F
100
AcDbEntity
  8
0
  6
HIDDEN
 62
     7
 48
3.5
370
     0
100
AcDbLine
 10
43.118388559
 20
19.9214358017
 30
0.0
 11
43.118388559
 21
20.2184933834
 31
0.0
  0
LINE
  5
1AC
330
1F
100
AcDbEntity
  8
0
  6
HIDDEN
 62
     7
 48
3.5
370
     0
100
AcDbLine
 10
43.118388559
 20
19.6243779267
 30
0.0
 11
43.118388559
 21
19.9214358017
 31
0.0
  0
LINE
  5
1AD
330
1F
100
AcDbEntity
  8
0
  6
HIDDEN
 62
     7
 48
3.5
370
     0
100
AcDbLine
 10
43.1803885728
 20
19.6243779267
 30
0.0
 11
43.1803885728
 21
20.2184933834
 31
0.0
  0
LINE
  5
1AE
330
1F
100
AcDbEntity
  8
0
  6
HIDDEN
 62
     7
 48
3.5
370
     0
100
AcDbLine
 10
43.2463413176
 20
19.9214358017
 30
0.0
 11
43.2463413176
 21
20.0684357569
 31
0.0
  0
LINE
  5
1AF
330
1F
100
AcDbEntity
  8
0
  6
HIDDEN
 62
     7
 48
3.5
370
     0
100
AcDbLine
 10
43.2463413176
 20
19.7744358466
 30
0.0
 11
43.2463413176
 21
19.9214358017
 31
0.0
  0
ARC
  5
1B0
330
1F
100
AcDbEntity
  8
0
  6
HIDDEN
 62
     7
 48
12.25
370
     0
100
AcDbCircle
 10
37.3039419749
 20
19.9194134485
 30
0.0
 40
0.1503240824377867
100
AcDbArc
 50
126.5389991472
 51
163.4910356212
  0
ARC
  5
1B1
330
1F
100
AcDbEntity
  8
0
  6
HIDDEN
 62
     7
 48
12.25
370
     0
100
AcDbCircle
 10
37.3039419749
 20
19.8973289303
 30
0.0
 40
0.1503240824377982
100
AcDbArc
 50
126.5389991472
 51
163.4910356212
  0
ARC
  5
1B2
330
1F
100
AcDbEntity
  8
0
  6
HIDDEN
 62
     7
 48
12.25
370
     0
100
AcDbCircle
 10
37.386058595
 20
19.9211457339
 30
0.0
 40
0.2270317071695869
100
AcDbArc
 50
175.2246746004
 51
179.9263516609
  0
ARC
  5
1B3
330
1F
100
AcDbEntity
  8
0
  6
HIDDEN
 62
     7
 48
12.25
370
     0
100
AcDbCircle
 10
37.1622776003
 20
19.8974524388
 30
0.0
 40
0.0171660637413089
100
AcDbArc
 50
259.0847023249
 51
271.4888612817
  0
LINE
  5
1B4
330
1F
100
AcDbEntity
  8
0
  6
HIDDEN
 62
     7
 48
3.5
370
     0
100
AcDbLine
 10
37.2144435552
 20
19.9028257767
 30
0.0
 11
37.2144435552
 21
19.8247642252
 31
0.0
  0
LINE
  5
1B5
330
1F
100
AcDbEntity
  8
0
  6
HIDDEN
 62
     7
 48
3.5
370
     0
100
AcDbLine
 10
37.2144435552
 20
19.8807412585
 30
0.0
 11
37.1680164649
 21
19.8807412585
 31
0.0
  0
LINE
  5
1B6
330
1F
100
AcDbEntity
  8
0
  6
HIDDEN
 62
     7
 48
3.5
370
     0
100
AcDbLine
 10
37.5629682224
 20
19.8524357988
 30
0.0
 11
37.5629682224
 21
19.9904358046
 31
0.0
  0
LINE
  5
1B7
330
1F
100
AcDbEntity
  8
0
  6
HIDDEN
 62
     7
 48
3.5
370
     0
100
AcDbLine
 10
37.6003883234
 20
19.8679356464
 30
0.0
 11
37.6003883234
 21
19.9749356637
 31
0.0
  0
LINE
  5
1B8
330
1F
100
AcDbEntity
  8
0
  6
HIDDEN
 62
     7
 48
3.5
370
     0
100
AcDbLine
 10
37.1598149596
 20
19.9028257767
 30
0.0
 11
37.2144435552
 21
19.9028257767
 31
0.0
  0
LINE
  5
1B9
330
1F
100
AcDbEntity
  8
0
  6
HIDDEN
 62
     7
 48
3.5
370
     0
100
AcDbLine
 10
37.2153886643
 20
19.9625794331
 30
0.0
 11
37.2153886643
 21
19.8809061099
 31
0.0
  0
LINE
  5
1BA
330
1F
100
AcDbEntity
  8
0
  6
HIDDEN
 62
     7
 48
3.5
370
     0
100
AcDbLine
 10
37.2153886643
 20
19.8809061099
 30
0.0
 11
37.2153886643
 21
19.8802921704
 31
0.0
  0
LINE
  5
1BB
330
1F
100
AcDbEntity
  8
0
  6
HIDDEN
 62
     7
 48
3.5
370
     0
100
AcDbLine
 10
37.2153886643
 20
19.8809061099
 30
0.0
 11
37.2144435552
 21
19.8809061099
 31
0.0
  0
LINE
  5
1BC
330
1F
100
AcDbEntity
  8
0
  6
HIDDEN
 62
     7
 48
3.5
370
     0
100
AcDbLine
 10
37.2153886643
 20
19.9619654935
 30
0.0
 11
37.2144435552
 21
19.9619654935
 31
0.0
  0
LINE
  5
1BD
330
1F
100
AcDbEntity
  8
0
  6
HIDDEN
 62
     7
 48
3.5
370
     0
100
AcDbLine
 10
37.2144435552
 20
19.962130345
 30
0.0
 11
37.2144435552
 21
19.9619654935
 31
0.0
  0
LINE
  5
1BE
330
1F
100
AcDbEntity
  8
0
  6
HIDDEN
 62
     7
 48
3.5
370
     0
100
AcDbLine
 10
37.2144435552
 20
19.962130345
 30
0.0
 11
37.1626420737
 21
19.962130345
 31
0.0
  0
LINE
  5
1BF
330
1F
100
AcDbEntity
  8
0
  6
HIDDEN
 62
     7
 48
3.5
370
     0
100
AcDbLine
 10
37.2153886643
 20
19.9625794331
 30
0.0
 11
37.1627236194
 21
19.9625794331
 31
0.0
  0
LINE
  5
1C0
330
1F
100
AcDbEntity
  8
0
  6
HIDDEN
 62
     7
 48
3.5
370
     0
100
AcDbLine
 10
37.1598149596
 20
19.9400458267
 30
0.0
 11
37.2144435552
 21
19.9400458267
 31
0.0
  0
LINE
  5
1C1
330
1F
100
AcDbEntity
  8
0
  6
HIDDEN
 62
     7
 48
3.5
370
     0
100
AcDbLine
 10
37.2144435552
 20
19.9619654935
 30
0.0
 11
37.2144435552
 21
19.9400458267
 31
0.0
  0
LINE
  5
1C2
330
1F
100
AcDbEntity
  8
0
  6
HIDDEN
 62
     7
 48
3.5
370
     0
100
AcDbLine
 10
37.2153886643
 20
19.8802921704
 30
0.0
 11
37.1627236194
 21
19.8802921704
 31
0.0
  0
LINE
  5
1C3
330
1F
100
AcDbEntity
  8
0
  6
HIDDEN
 62
     7
 48
3.5
370
     0
100
AcDbLine
 10
37.2144435552
 20
20.0401916032
 30
0.0
 11
37.2144435552
 21
19.962130345
 31
0.0
  0
ARC
  5
1C4
330
1F
100
AcDbEntity
  8
0
  6
HIDDEN
 62
     7
 48
12.25
370
     0
100
AcDbCircle
 10
37.3039419749
 20
13.9194133744
 30
0.0
 40
0.1503240824377867
100
AcDbArc
 50
126.5389991472
 51
163.4910356212
  0
ARC
  5
1C5
330
1F
100
AcDbEntity
  8
0
  6
HIDDEN
 62
     7
 48
12.25
370
     0
100
AcDbCircle
 10
37.3039420664
 20
13.897329246
 30
0.0
 40
0.1503240594337405
100
AcDbArc
 50
126.5390490668
 51
163.491187978
  0
ARC
  5
1C6
330
1F
100
AcDbEntity
  8
0
  6
HIDDEN
 62
     7
 48
12.25
370
     0
100
AcDbCircle
 10
37.3860505573
 20
13.9211460412
 30
0.0
 40
0.2270236656220073
100
AcDbArc
 50
175.2246016705
 51
179.9271116004
  0
ARC
  5
1C7
330
1F
100
AcDbEntity
  8
0
  6
HIDDEN
 62
     7
 48
12.25
370
     0
100
AcDbCircle
 10
37.1622792207
 20
13.8974720187
 30
0.0
 40
0.0171856692306918
100
AcDbArc
 50
259.0918054025
 51
271.4817582042
  0
LINE
  5
1C8
330
1F
100
AcDbEntity
  8
0
  6
HIDDEN
 62
     7
 48
3.5
370
     0
100
AcDbLine
 10
37.2144435552
 20
13.9028257026
 30
0.0
 11
37.2144435552
 21
13.8247644443
 31
0.0
  0
LINE
  5
1C9
330
1F
100
AcDbEntity
  8
0
  6
HIDDEN
 62
     7
 48
3.5
370
     0
100
AcDbLine
 10
37.2144435552
 20
13.8807411844
 30
0.0
 11
37.1680164649
 21
13.8807411844
 31
0.0
  0
LINE
  5
1CA
330
1F
100
AcDbEntity
  8
0
  6
HIDDEN
 62
     7
 48
3.5
370
     0
100
AcDbLine
 10
37.5629682224
 20
13.8524357247
 30
0.0
 11
37.5629682224
 21
13.9904357305
 31
0.0
  0
LINE
  5
1CB
330
1F
100
AcDbEntity
  8
0
  6
HIDDEN
 62
     7
 48
3.5
370
     0
100
AcDbLine
 10
37.6003883234
 20
13.8679358656
 30
0.0
 11
37.6003883234
 21
13.9749358829
 31
0.0
  0
LINE
  5
1CC
330
1F
100
AcDbEntity
  8
0
  6
HIDDEN
 62
     7
 48
3.5
370
     0
100
AcDbLine
 10
37.2153886643
 20
13.9625793589
 30
0.0
 11
37.2153886643
 21
13.8809060358
 31
0.0
  0
LINE
  5
1CD
330
1F
100
AcDbEntity
  8
0
  6
HIDDEN
 62
     7
 48
3.5
370
     0
100
AcDbLine
 10
37.1598149596
 20
13.9028257026
 30
0.0
 11
37.2144435552
 21
13.9028257026
 31
0.0
  0
LINE
  5
1CE
330
1F
100
AcDbEntity
  8
0
  6
HIDDEN
 62
     7
 48
3.5
370
     0
100
AcDbLine
 10
37.2153886643
 20
13.8809060358
 30
0.0
 11
37.2144435552
 21
13.8809060358
 31
0.0
  0
LINE
  5
1CF
330
1F
100
AcDbEntity
  8
0
  6
HIDDEN
 62
     7
 48
3.5
370
     0
100
AcDbLine
 10
37.2153886643
 20
13.8809060358
 30
0.0
 11
37.2153886643
 21
13.8802920962
 31
0.0
  0
LINE
  5
1D0
330
1F
100
AcDbEntity
  8
0
  6
HIDDEN
 62
     7
 48
3.5
370
     0
100
AcDbLine
 10
37.2153886643
 20
13.9619654194
 30
0.0
 11
37.2144435552
 21
13.9619654194
 31
0.0
  0
LINE
  5
1D1
330
1F
100
AcDbEntity
  8
0
  6
HIDDEN
 62
     7
 48
3.5
370
     0
100
AcDbLine
 10
37.2144435552
 20
13.9621302708
 30
0.0
 11
37.2144435552
 21
13.9619654194
 31
0.0
  0
LINE
  5
1D2
330
1F
100
AcDbEntity
  8
0
  6
HIDDEN
 62
     7
 48
3.5
370
     0
100
AcDbLine
 10
37.2144435552
 20
13.9621302708
 30
0.0
 11
37.1626420737
 21
13.9621302708
 31
0.0
  0
LINE
  5
1D3
330
1F
100
AcDbEntity
  8
0
  6
HIDDEN
 62
     7
 48
3.5
370
     0
100
AcDbLine
 10
37.2153886643
 20
13.9625793589
 30
0.0
 11
37.1627236194
 21
13.9625793589
 31
0.0
  0
LINE
  5
1D4
330
1F
100
AcDbEntity
  8
0
  6
HIDDEN
 62
     7
 48
3.5
370
     0
100
AcDbLine
 10
37.1598149596
 20
13.9400457526
 30
0.0
 11
37.2144435552
 21
13.9400457526
 31
0.0
  0
LINE
  5
1D5
330
1F
100
AcDbEntity
  8
0
  6
HIDDEN
 62
     7
 48
3.5
370
     0
100
AcDbLine
 10
37.2144435552
 20
13.9619654194
 30
0.0
 11
37.2144435552
 21
13.9400457526
 31
0.0
  0
LINE
  5
1D6
330
1F
100
AcDbEntity
  8
0
  6
HIDDEN
 62
     7
 48
3.5
370
     0
100
AcDbLine
 10
37.2153886643
 20
13.8802920962
 30
0.0
 11
37.1627236194
 21
13.8802920962
 31
0.0
  0
LINE
  5
1D7
330
1F
100
AcDbEntity
  8
0
  6
HIDDEN
 62
     7
 48
3.5
370
     0
100
AcDbLine
 10
37.2144435552
 20
14.040191529
 30
0.0
 11
37.2144435552
 21
13.9621302708
 31
0.0
  0
LINE
  5
1D8
330
1F
100
AcDbEntity
  8
0
  6
HIDDEN
 62
     7
 48
3.5
370
     0
100
AcDbLine
 10
37.2883885144
 20
19.446435769
 30
0.0
 11
37.3503884915
 21
19.446435769
 31
0.0
  0
LINE
  5
1D9
330
1F
100
AcDbEntity
  8
0
  6
HIDDEN
 62
     7
 48
3.5
370
     0
100
AcDbLine
 10
37.2883885144
 20
13.4464356948
 30
0.0
 11
37.3503884915
 21
13.4464356948
 31
0.0
  0
LINE
  5
1DA
330
1F
100
AcDbEntity
  8
0
  6
HIDDEN
 62
     7
 48
3.5
370
     0
100
AcDbLine
 10
37.3503884915
 20
20.0464357177
 30
0.0
 11
37.2883885144
 21
20.0464357177
 31
0.0
  0
LINE
  5
1DB
330
1F
100
AcDbEntity
  8
0
  6
HIDDEN
 62
     7
 48
3.5
370
     0
100
AcDbLine
 10
37.3503884915
 20
14.0464356436
 30
0.0
 11
37.2883885144
 21
14.0464356436
 31
0.0
  0
LINE
  5
1DC
330
1F
100
AcDbEntity
  8
0
  6
HIDDEN
 62
     7
 48
3.5
370
     0
100
AcDbLine
 10
37.3503884915
 20
13.8364357495
 30
0.0
 11
37.4123884686
 21
13.8364357495
 31
0.0
  0
LINE
  5
1DD
330
1F
100
AcDbEntity
  8
0
  6
HIDDEN
 62
     7
 48
3.5
370
     0
100
AcDbLine
 10
37.4123884686
 20
14.0064357056
 30
0.0
 11
37.3503884915
 21
14.0064357056
 31
0.0
  0
LINE
  5
1DE
330
1F
100
AcDbEntity
  8
0
  6
HIDDEN
 62
     7
 48
3.5
370
     0
100
AcDbLine
 10
37.3503884915
 20
19.8364358237
 30
0.0
 11
37.4123884686
 21
19.8364358237
 31
0.0
  0
LINE
  5
1DF
330
1F
100
AcDbEntity
  8
0
  6
HIDDEN
 62
     7
 48
3.5
370
     0
100
AcDbLine
 10
37.4123884686
 20
20.0064357798
 30
0.0
 11
37.3503884915
 21
20.0064357798
 31
0.0
  0
LINE
  5
1E0
330
1F
100
AcDbEntity
  8
0
  6
HIDDEN
 62
     7
 48
3.5
370
     0
100
AcDbLine
 10
43.3503885656
 20
13.5619358272
 30
0.0
 11
43.2883885656
 21
13.5619358272
 31
0.0
  0
LINE
  5
1E1
330
1F
100
AcDbEntity
  8
0
  6
HIDDEN
 62
     7
 48
3.5
370
     0
100
AcDbLine
 10
43.2883885656
 20
13.2809357134
 30
0.0
 11
43.3503885656
 21
13.2809357134
 31
0.0
  0
LINE
  5
1E2
330
1F
100
AcDbEntity
  8
0
  6
HIDDEN
 62
     7
 48
3.5
370
     0
100
AcDbLine
 10
43.3503885656
 20
20.561935816
 30
0.0
 11
43.2883885656
 21
20.561935816
 31
0.0
  0
LINE
  5
1E3
330
1F
100
AcDbEntity
  8
0
  6
HIDDEN
 62
     7
 48
3.5
370
     0
100
AcDbLine
 10
43.2883885656
 20
20.2809357021
 30
0.0
 11
43.3503885656
 21
20.2809357021
 31
0.0
  0
LINE
  5
1E4
330
1F
100
AcDbEntity
  8
0
  6
HIDDEN
 62
     7
 48
3.5
370
     0
100
AcDbLine
 10
43.2883885656
 20
20.5630487098
 30
0.0
 11
43.1434418146
 21
20.3119934766
 31
0.0
  0
LINE
  5
1E5
330
1F
100
AcDbEntity
  8
0
  6
HIDDEN
 62
     7
 48
3.5
370
     0
100
AcDbLine
 10
43.1434418146
 20
19.5308781268
 30
0.0
 11
43.2883885656
 21
19.2798228937
 31
0.0
  0
LINE
  5
1E6
330
1F
100
AcDbEntity
  8
0
  6
HIDDEN
 62
     7
 48
3.5
370
     0
100
AcDbLine
 10
43.3503885656
 20
20.546435675
 30
0.0
 11
43.1971353935
 21
20.2809934881
 31
0.0
  0
LINE
  5
1E7
330
1F
100
AcDbEntity
  8
0
  6
HIDDEN
 62
     7
 48
3.5
370
     0
100
AcDbLine
 10
43.1971353935
 20
19.5618781154
 30
0.0
 11
43.3503885656
 21
19.2964357818
 31
0.0
  0
ARC
  5
1E8
330
1F
100
AcDbEntity
  8
0
  6
HIDDEN
 62
     7
 48
12.25
370
     0
100
AcDbCircle
 10
43.3053885656
 20
19.624378051
 30
0.0
 40
0.1869999999999997
100
AcDbArc
 50
180.0
 51
210.0
  0
ARC
  5
1E9
330
1F
100
AcDbEntity
  8
0
  6
HIDDEN
 62
     7
 48
12.25
370
     0
100
AcDbCircle
 10
43.3053885656
 20
20.2184934783
 30
0.0
 40
0.1869999999999997
100
AcDbArc
 50
150.0
 51
180.0
  0
ARC
  5
1EA
330
1F
100
AcDbEntity
  8
0
  6
HIDDEN
 62
     7
 48
12.25
370
     0
100
AcDbCircle
 10
43.3053885656
 20
19.624378051
 30
0.0
 40
0.1250000000000059
100
AcDbArc
 50
180.0
 51
210.0
  0
ARC
  5
1EB
330
1F
100
AcDbEntity
  8
0
  6
HIDDEN
 62
     7
 48
12.25
370
     0
100
AcDbCircle
 10
43.3053885656
 20
20.2184934783
 30
0.0
 40
0.1250000000000041
100
AcDbArc
 50
150.0
 51
180.0
  0
ARC
  5
1EC
330
1F
100
AcDbEntity
  8
0
  6
HIDDEN
 62
     7
 48
12.25
370
     0
100
AcDbCircle
 10
43.1971287231
 20
20.0851759221
 30
0.0
 40
0.0167401574803137
100
AcDbArc
 50
180.0
 51
270.0
  0
ARC
  5
1ED
330
1F
100
AcDbEntity
  8
0
  6
HIDDEN
 62
     7
 48
12.25
370
     0
100
AcDbCircle
 10
43.1971287231
 20
19.7576956072
 30
0.0
 40
0.0167401574803137
100
AcDbArc
 50
90.0
 51
180.0
  0
ARC
  5
1EE
330
1F
100
AcDbEntity
  8
0
  6
HIDDEN
 62
     7
 48
12.25
370
     0
100
AcDbCircle
 10
43.1971287231
 20
20.0851759221
 30
0.0
 40
0.0787401574803148
100
AcDbArc
 50
180.0
 51
270.0
  0
ARC
  5
1EF
330
1F
100
AcDbEntity
  8
0
  6
HIDDEN
 62
     7
 48
12.25
370
     0
100
AcDbCircle
 10
43.1971287231
 20
19.7576956072
 30
0.0
 40
0.0787401574803113
100
AcDbArc
 50
90.0
 51
180.0
  0
LINE
  5
1F0
330
1F
100
AcDbEntity
  8
0
  6
HIDDEN
 62
     7
 48
3.5
370
     0
100
AcDbLine
 10
43.1971287203
 20
19.7744358466
 30
0.0
 11
43.2463413176
 21
19.7744358466
 31
0.0
  0
LINE
  5
1F1
330
1F
100
AcDbEntity
  8
0
  6
HIDDEN
 62
     7
 48
3.5
370
     0
100
AcDbLine
 10
43.2463413176
 20
20.0684357569
 30
0.0
 11
43.1971287203
 21
20.0684357569
 31
0.0
  0
LINE
  5
1F2
330
1F
100
AcDbEntity
  8
0
  6
HIDDEN
 62
     7
 48
3.5
370
     0
100
AcDbLine
 10
43.1971287203
 20
19.8364358237
 30
0.0
 11
43.2463413176
 21
19.8364358237
 31
0.0
  0
LINE
  5
1F3
330
1F
100
AcDbEntity
  8
0
  6
HIDDEN
 62
     7
 48
3.5
370
     0
100
AcDbLine
 10
43.2463413176
 20
20.0064357798
 30
0.0
 11
43.1971287203
 21
20.0064357798
 31
0.0
  0
LINE
  5
1F4
330
1F
100
AcDbEntity
  8
0
  6
HIDDEN
 62
     7
 48
3.5
370
     0
100
AcDbLine
 10
37.2883885144
 20
19.8524357988
 30
0.0
 11
37.5629682224
 21
19.8524357988
 31
0.0
  0
LINE
  5
1F5
330
1F
100
AcDbEntity
  8
0
  6
HIDDEN
 62
     7
 48
3.5
370
     0
100
AcDbLine
 10
37.5629682224
 20
19.9904358046
 30
0.0
 11
37.2883885144
 21
19.9904358046
 31
0.0
  0
LINE
  5
1F6
330
1F
100
AcDbEntity
  8
0
  6
HIDDEN
 62
     7
 48
3.5
370
     0
100
AcDbLine
 10
37.5629682224
 20
19.8524357988
 30
0.0
 11
37.6003883234
 21
19.8679356464
 31
0.0
  0
LINE
  5
1F7
330
1F
100
AcDbEntity
  8
0
  6
HIDDEN
 62
     7
 48
3.5
370
     0
100
AcDbLine
 10
37.6003883234
 20
19.9749356637
 30
0.0
 11
37.5629682224
 21
19.9904358046
 31
0.0
  0
LINE
  5
1F8
330
1F
100
AcDbEntity
  8
0
  6
HIDDEN
 62
     7
 48
3.5
370
     0
100
AcDbLine
 10
37.2883885144
 20
13.8524357247
 30
0.0
 11
37.5629682224
 21
13.8524357247
 31
0.0
  0
LINE
  5
1F9
330
1F
100
AcDbEntity
  8
0
  6
HIDDEN
 62
     7
 48
3.5
370
     0
100
AcDbLine
 10
37.5629682224
 20
13.9904357305
 30
0.0
 11
37.2883885144
 21
13.9904357305
 31
0.0
  0
LINE
  5
1FA
330
1F
100
AcDbEntity
  8
0
  6
HIDDEN
 62
     7
 48
3.5
370
     0
100
AcDbLine
 10
37.5629682224
 20
13.8524357247
 30
0.0
 11
37.6003883234
 21
13.8679358656
 31
0.0
  0
LINE
  5
1FB
330
1F
100
AcDbEntity
  8
0
  6
HIDDEN
 62
     7
 48
3.5
370
     0
100
AcDbLine
 10
37.6003883234
 20
13.9749358829
 30
0.0
 11
37.5629682224
 21
13.9904357305
 31
0.0
  0
ARC
  5
1FC
330
1F
100
AcDbEntity
  8
0
  6
Continuous
 62
     7
 48
12.25
370
    15
100
AcDbCircle
 10
10.932450949
 20
14.0929357647
 30
0.0
 40
0.0150000000000006
100
AcDbArc
 50
52.550643686
 51
90.0
  0
ARC
  5
1FD
330
1F
100
AcDbEntity
  8
0
  6
Continuous
 62
     7
 48
12.25
370
    15
100
AcDbCircle
 10
10.932450949
 20
13.7499357647
 30
0.0
 40
0.0150000000000006
100
AcDbArc
 50
270.0
 51
307.449356314
  0
LINE
  5
1FE
330
1F
100
AcDbEntity
  8
0
  6
Continuous
 62
     7
 48
3.5
370
    15
100
AcDbLine
 10
10.93245077
 20
14.1079357864
 30
0.0
 11
10.8991196884
 21
14.1079357864
 31
0.0
  0
LINE
  5
1FF
330
1F
100
AcDbEntity
  8
0
  6
Continuous
 62
     7
 48
3.5
370
    15
100
AcDbLine
 10
10.8991196884
 20
13.7349356687
 30
0.0
 11
10.93245077
 21
13.7349356687
 31
0.0
  0
ARC
  5
200
330
1F
100
AcDbEntity
  8
0
  6
Continuous
 62
     7
 48
12.25
370
    15
100
AcDbCircle
 10
10.8010950501
 20
13.9214357647
 30
0.0
 40
0.2310245869783027
100
AcDbArc
 50
10.1818657166
 51
52.550643686
  0
ARC
  5
201
330
1F
100
AcDbEntity
  8
0
  6
Continuous
 62
     7
 48
12.25
370
    15
100
AcDbCircle
 10
10.8010950501
 20
13.9214357647
 30
0.0
 40
0.2310245869783027
100
AcDbArc
 50
307.449356314
 51
349.8181342834
  0
ARC
  5
202
330
1F
100
AcDbEntity
  8
0
  6
Continuous
 62
     7
 48
12.25
370
    15
100
AcDbCircle
 10
10.932450949
 20
20.0929357647
 30
0.0
 40
0.0149999999999977
100
AcDbArc
 50
52.550643686
 51
90.0
  0
ARC
  5
203
330
1F
100
AcDbEntity
  8
0
  6
Continuous
 62
     7
 48
12.25
370
    15
100
AcDbCircle
 10
10.932450949
 20
19.7499357647
 30
0.0
 40
0.0150000000000006
100
AcDbArc
 50
270.0
 51
307.449356314
  0
LINE
  5
204
330
1F
100
AcDbEntity
  8
0
  6
Continuous
 62
     7
 48
3.5
370
    15
100
AcDbLine
 10
10.93245077
 20
20.1079358606
 30
0.0
 11
10.8991196884
 21
20.1079358606
 31
0.0
  0
LINE
  5
205
330
1F
100
AcDbEntity
  8
0
  6
Continuous
 62
     7
 48
3.5
370
    15
100
AcDbLine
 10
10.8991196884
 20
19.7349357429
 30
0.0
 11
10.93245077
 21
19.7349357429
 31
0.0
  0
ARC
  5
206
330
1F
100
AcDbEntity
  8
0
  6
Continuous
 62
     7
 48
12.25
370
    15
100
AcDbCircle
 10
10.8010950501
 20
19.9214357647
 30
0.0
 40
0.2310245869783027
100
AcDbArc
 50
10.1818657166
 51
52.550643686
  0
ARC
  5
207
330
1F
100
AcDbEntity
  8
0
  6
Continuous
 62
     7
 48
12.25
370
    15
100
AcDbCircle
 10
10.8010950501
 20
19.9214357647
 30
0.0
 40
0.2310245869783027
100
AcDbArc
 50
307.449356314
 51
349.8181342834
  0
LINE
  5
208
330
1F
100
AcDbEntity
  8
0
  6
Continuous
 62
     7
 48
3.5
370
    15
100
AcDbLine
 10
10.8991196884
 20
21.9214359242
 30
0.0
 11
10.8991196884
 21
11.9214356051
 31
0.0
  0
LINE
  5
209
330
1F
100
AcDbEntity
  8
0
  6
Continuous
 62
     7
 48
3.5
370
    15
100
AcDbLine
 10
10.8371197113
 20
21.9214359242
 30
0.0
 11
10.8371197113
 21
11.9214356051
 31
0.0
  0
LINE
  5
20A
330
1F
100
AcDbEntity
  8
0
  6
Continuous
 62
     7
 48
3.5
370
    15
100
AcDbLine
 10
10.8371197113
 20
11.9214356051
 30
0.0
 11
10.8991196884
 21
11.9214356051
 31
0.0
  0
LINE
  5
20B
330
1F
100
AcDbEntity
  8
0
  6
Continuous
 62
     7
 48
3.5
370
    15
100
AcDbLine
 10
10.8371197113
 20
21.9214359242
 30
0.0
 11
10.8991196884
 21
21.9214359242
 31
0.0
  0
LINE
  5
20C
330
1F
100
AcDbEntity
  8
0
  6
Continuous
 62
     7
 48
3.5
370
    15
100
AcDbLine
 10
4.9141196368
 20
21.9214359242
 30
0.0
 11
10.7601194274
 21
21.9214359242
 31
0.0
  0
LINE
  5
20D
330
1F
100
AcDbEntity
  8
0
  6
Continuous
 62
     7
 48
3.5
370
    15
100
AcDbLine
 10
4.9141196368
 20
11.9214356051
 30
0.0
 11
10.7601194274
 21
11.9214356051
 31
0.0
  0
LINE
  5
20E
330
1F
100
AcDbEntity
  8
0
  6
Continuous
 62
     7
 48
3.5
370
    15
100
AcDbLine
 10
4.8371196371
 20
21.9214359242
 30
0.0
 11
4.8371196371
 21
11.9214356051
 31
0.0
  0
LINE
  5
20F
330
1F
100
AcDbEntity
  8
0
  6
Continuous
 62
     7
 48
3.5
370
    15
100
AcDbLine
 10
4.8371196371
 20
11.9214356051
 30
0.0
 11
4.9141196368
 21
11.9214356051
 31
0.0
  0
LINE
  5
210
330
1F
100
AcDbEntity
  8
0
  6
Continuous
 62
     7
 48
3.5
370
    15
100
AcDbLine
 10
4.8371196371
 20
21.9214359242
 30
0.0
 11
4.9141196368
 21
21.9214359242
 31
0.0
  0
LINE
  5
211
330
1F
100
AcDbEntity
  8
0
  6
Continuous
 62
     7
 48
3.5
370
    15
100
AcDbLine
 10
10.7601194274
 20
21.9214359242
 30
0.0
 11
10.8371197113
 21
21.9214359242
 31
0.0
  0
LINE
  5
212
330
1F
100
AcDbEntity
  8
0
  6
Continuous
 62
     7
 48
3.5
370
    15
100
AcDbLine
 10
10.7601194274
 20
11.9214356051
 30
0.0
 11
10.8371197113
 21
11.9214356051
 31
0.0
  0
ARC
  5
213
330
1F
100
AcDbEntity
  8
0
  6
Continuous
 62
     7
 48
12.25
370
    15
100
AcDbCircle
 10
10.8835662278
 20
13.945542599
 30
0.0
 40
0.1503240824378421
100
AcDbArc
 50
306.5389991472
 51
343.4910356212
  0
LINE
  5
214
330
1F
100
AcDbEntity
  8
0
  6
Continuous
 62
     7
 48
3.5
370
    15
100
AcDbLine
 10
10.9730646475
 20
13.8026799261
 30
0.0
 11
10.9730646475
 21
13.8247644443
 31
0.0
  0
ARC
  5
215
330
1F
100
AcDbEntity
  8
0
  6
Continuous
 62
     7
 48
12.25
370
    15
100
AcDbCircle
 10
10.8835662278
 20
13.9234580808
 30
0.0
 40
0.1503240824378265
100
AcDbArc
 50
306.5389991472
 51
343.4910356212
  0
ARC
  5
216
330
1F
100
AcDbEntity
  8
0
  6
Continuous
 62
     7
 48
12.25
370
    15
100
AcDbCircle
 10
11.0278449214
 20
13.8793464223
 30
0.0
 40
0.0014029852040984
100
AcDbArc
 50
63.0337296947
 51
96.2064411173
  0
ARC
  5
217
330
1F
100
AcDbEntity
  8
0
  6
Continuous
 62
     7
 48
12.25
370
    15
100
AcDbCircle
 10
10.801107314
 20
13.9211262213
 30
0.0
 40
0.2273740235287623
100
AcDbArc
 50
349.6541144249
 51
0.0779183305
  0
LWPOLYLINE
  5
218
330
1F
100
AcDbEntity
  8
0
  6
Continuous
 62
     7
 48
3.5
370
    15
100
AcDbPolyline
 90
        9
 70
   128
 43
0.0
 10
11.0276932431
 20
13.9621302708
 10
11.028193664
 20
13.9621865902
 10
11.0284476877
 20
13.9622429095
 10
11.0284535543
 20
13.9622992289
 10
11.0282124371
 20
13.9623555482
 10
11.027724336
 20
13.9624118676
 10
11.0269898379
 20
13.9624678936
 10
11.0260095292
 20
13.9625236263
 10
11.0247845833
 20
13.9625793589
  0
ARC
  5
219
330
1F
100
AcDbEntity
  8
0
  6
Continuous
 62
     7
 48
12.25
370
    15
100
AcDbCircle
 10
10.8011015244
 20
13.9217434013
 30
0.0
 40
0.2273800481356906
100
AcDbArc
 50
355.2275554524
 51
10.3460778519
  0
LINE
  5
21A
330
1F
100
AcDbEntity
  8
0
  6
Continuous
 62
     7
 48
3.5
370
    15
100
AcDbLine
 10
11.0276932431
 20
13.8807411844
 30
0.0
 11
11.0194917378
 21
13.8807411844
 31
0.0
  0
LINE
  5
21B
330
1F
100
AcDbEntity
  8
0
  6
Continuous
 62
     7
 48
3.5
370
    15
100
AcDbLine
 10
11.0276932431
 20
13.9621302708
 30
0.0
 11
11.0248661291
 21
13.9621302708
 31
0.0
  0
ARC
  5
21C
330
1F
100
AcDbEntity
  8
0
  6
Continuous
 62
     7
 48
12.25
370
    15
100
AcDbCircle
 10
10.8835661363
 20
19.9455422834
 30
0.0
 40
0.1503240594338052
100
AcDbArc
 50
306.5390490668
 51
343.491187978
  0
LINE
  5
21D
330
1F
100
AcDbEntity
  8
0
  6
Continuous
 62
     7
 48
3.5
370
    15
100
AcDbLine
 10
10.9730646475
 20
19.8026800003
 30
0.0
 11
10.9730646475
 21
19.8247642252
 31
0.0
  0
ARC
  5
21E
330
1F
100
AcDbEntity
  8
0
  6
Continuous
 62
     7
 48
12.25
370
    15
100
AcDbCircle
 10
10.8835662278
 20
19.9234581549
 30
0.0
 40
0.150324082437771
100
AcDbArc
 50
306.5389991472
 51
343.4910356212
  0
ARC
  5
21F
330
1F
100
AcDbEntity
  8
0
  6
Continuous
 62
     7
 48
12.25
370
    15
100
AcDbCircle
 10
11.0278427787
 20
19.8793347986
 30
0.0
 40
0.0014143868864986
100
AcDbArc
 50
63.17125148
 51
96.0689193317
  0
ARC
  5
220
330
1F
100
AcDbEntity
  8
0
  6
Continuous
 62
     7
 48
12.25
370
    15
100
AcDbCircle
 10
10.8011070866
 20
19.9211263203
 30
0.0
 40
0.2273742516848395
100
AcDbArc
 50
349.6541185571
 51
0.078059824
  0
LWPOLYLINE
  5
221
330
1F
100
AcDbEntity
  8
0
  6
Continuous
 62
     7
 48
3.5
370
    15
100
AcDbPolyline
 90
        9
 70
   128
 43
0.0
 10
11.0276932431
 20
19.962130345
 10
11.028193664
 20
19.962186371
 10
11.0284476877
 20
19.9622426903
 10
11.0284535543
 20
19.962299303
 10
11.0282124371
 20
19.9623556224
 10
11.027724336
 20
19.9624116484
 10
11.0269898379
 20
19.9624679677
 10
11.0260095292
 20
19.9625237004
 10
11.0247845833
 20
19.9625794331
  0
ARC
  5
222
330
1F
100
AcDbEntity
  8
0
  6
Continuous
 62
     7
 48
12.25
370
    15
100
AcDbCircle
 10
10.8010995235
 20
19.921743378
 30
0.0
 40
0.2273820339979017
100
AcDbArc
 50
355.2276218576
 51
10.3460114466
  0
LINE
  5
223
330
1F
100
AcDbEntity
  8
0
  6
Continuous
 62
     7
 48
3.5
370
    15
100
AcDbLine
 10
11.0276932431
 20
19.8807412585
 30
0.0
 11
11.0194917378
 21
19.8807412585
 31
0.0
  0
LINE
  5
224
330
1F
100
AcDbEntity
  8
0
  6
Continuous
 62
     7
 48
3.5
370
    15
100
AcDbLine
 10
11.0276932431
 20
19.962130345
 30
0.0
 11
11.0248661291
 21
19.962130345
 31
0.0
  0
LINE
  5
225
330
1F
100
AcDbEntity
  8
0
  6
Continuous
 62
     7
 48
3.5
370
    15
100
AcDbLine
 10
12.6136716081
 20
9.1633362404
 30
0.0
 11
12.6136716081
 21
9.1300051588
 31
0.0
  0
LINE
  5
226
330
1F
100
AcDbEntity
  8
0
  6
Continuous
 62
     7
 48
3.5
370
    15
100
AcDbLine
 10
12.9866717258
 20
9.1300051588
 30
0.0
 11
12.9866717258
 21
9.1633362404
 31
0.0
  0
ARC
  5
227
330
1F
100
AcDbEntity
  8
0
  6
Continuous
 62
     7
 48
12.25
370
    15
100
AcDbCircle
 10
12.6286717012
 20
9.1633364194
 30
0.0
 40
0.0150000000000023
100
AcDbArc
 50
142.550643686
 51
180.0
  0
ARC
  5
228
330
1F
100
AcDbEntity
  8
0
  6
Continuous
 62
     7
 48
12.25
370
    15
100
AcDbCircle
 10
12.9716717012
 20
9.1633364194
 30
0.0
 40
0.0149999999999988
100
AcDbArc
 50
0.0
 51
37.449356314
  0
ARC
  5
229
330
1F
100
AcDbEntity
  8
0
  6
Continuous
 62
     7
 48
12.25
370
    15
100
AcDbCircle
 10
12.8001717012
 20
9.0319805205
 30
0.0
 40
0.2310245869783038
100
AcDbArc
 50
100.1818657166
 51
142.550643686
  0
ARC
  5
22A
330
1F
100
AcDbEntity
  8
0
  6
Continuous
 62
     7
 48
12.25
370
    15
100
AcDbCircle
 10
12.8001717012
 20
9.0319805205
 30
0.0
 40
0.2310245869783039
100
AcDbArc
 50
37.449356314
 51
79.8181342834
  0
LINE
  5
22B
330
1F
100
AcDbEntity
  8
0
  6
Continuous
 62
     7
 48
3.5
370
    15
100
AcDbLine
 10
12.731171664
 20
9.0060052046
 30
0.0
 11
12.731171664
 21
8.9290049207
 31
0.0
  0
LINE
  5
22C
330
1F
100
AcDbEntity
  8
0
  6
Continuous
 62
     7
 48
3.5
370
    15
100
AcDbLine
 10
12.8691716698
 20
8.9290049207
 30
0.0
 11
12.8691716698
 21
9.0060052046
 31
0.0
  0
LINE
  5
22D
330
1F
100
AcDbEntity
  8
0
  6
Continuous
 62
     7
 48
3.5
370
    15
100
AcDbLine
 10
22.1136716766
 20
9.1633362404
 30
0.0
 11
22.1136716766
 21
9.1300051588
 31
0.0
  0
LINE
  5
22E
330
1F
100
AcDbEntity
  8
0
  6
Continuous
 62
     7
 48
3.5
370
    15
100
AcDbLine
 10
22.4866717943
 20
9.1300051588
 30
0.0
 11
22.4866717943
 21
9.1633362404
 31
0.0
  0
ARC
  5
22F
330
1F
100
AcDbEntity
  8
0
  6
Continuous
 62
     7
 48
12.25
370
    15
100
AcDbCircle
 10
22.1286717012
 20
9.1633364194
 30
0.0
 40
0.0149999999999988
100
AcDbArc
 50
142.550643686
 51
180.0
  0
ARC
  5
230
330
1F
100
AcDbEntity
  8
0
  6
Continuous
 62
     7
 48
12.25
370
    15
100
AcDbCircle
 10
22.4716717012
 20
9.1633364194
 30
0.0
 40
0.0150000000000041
100
AcDbArc
 50
0.0
 51
37.449356314
  0
ARC
  5
231
330
1F
100
AcDbEntity
  8
0
  6
Continuous
 62
     7
 48
12.25
370
    15
100
AcDbCircle
 10
22.3001717012
 20
9.0319805205
 30
0.0
 40
0.2310245869783038
100
AcDbArc
 50
100.1818657166
 51
142.550643686
  0
ARC
  5
232
330
1F
100
AcDbEntity
  8
0
  6
Continuous
 62
     7
 48
12.25
370
    15
100
AcDbCircle
 10
22.3001717012
 20
9.0319805205
 30
0.0
 40
0.2310245869783039
100
AcDbArc
 50
37.449356314
 51
79.8181342834
  0
LINE
  5
233
330
1F
100
AcDbEntity
  8
0
  6
Continuous
 62
     7
 48
3.5
370
    15
100
AcDbLine
 10
22.2311717325
 20
9.0060052046
 30
0.0
 11
22.2311717325
 21
8.9290049207
 31
0.0
  0
LINE
  5
234
330
1F
100
AcDbEntity
  8
0
  6
Continuous
 62
     7
 48
3.5
370
    15
100
AcDbLine
 10
22.3691717383
 20
8.9290049207
 30
0.0
 11
22.3691717383
 21
9.0060052046
 31
0.0
  0
LINE
  5
235
330
1F
100
AcDbEntity
  8
0
  6
Continuous
 62
     7
 48
3.5
370
    15
100
AcDbLine
 10
22.5501718608
 20
9.0680051817
 30
0.0
 11
22.5501718608
 21
9.1300051588
 31
0.0
  0
LINE
  5
236
330
1F
100
AcDbEntity
  8
0
  6
Continuous
 62
     7
 48
3.5
370
    15
100
AcDbLine
 10
12.5501715416
 20
9.0680051817
 30
0.0
 11
12.5501715416
 21
9.1300051588
 31
0.0
  0
LINE
  5
237
330
1F
100
AcDbEntity
  8
0
  6
Continuous
 62
     7
 48
3.5
370
    15
100
AcDbLine
 10
12.5501715416
 20
9.0680051817
 30
0.0
 11
22.5501718608
 21
9.0680051817
 31
0.0
  0
LINE
  5
238
330
1F
100
AcDbEntity
  8
0
  6
Continuous
 62
     7
 48
3.5
370
    15
100
AcDbLine
 10
12.5501715416
 20
9.1300051588
 30
0.0
 11
22.5501718608
 21
9.1300051588
 31
0.0
  0
LINE
  5
239
330
1F
100
AcDbEntity
  8
0
  6
Continuous
 62
     7
 48
3.5
370
    15
100
AcDbLine
 10
22.0191716216
 20
9.0680051817
 30
0.0
 11
22.0191716216
 21
9.0060052046
 31
0.0
  0
LINE
  5
23A
330
1F
100
AcDbEntity
  8
0
  6
Continuous
 62
     7
 48
3.5
370
    15
100
AcDbLine
 10
13.0811717808
 20
8.9910048978
 30
0.0
 11
13.0811717808
 21
8.9290049207
 31
0.0
  0
LINE
  5
23B
330
1F
100
AcDbEntity
  8
0
  6
Continuous
 62
     7
 48
3.5
370
    15
100
AcDbLine
 10
22.0191716216
 20
8.9290049207
 30
0.0
 11
22.4111715998
 21
8.9290049207
 31
0.0
  0
LINE
  5
23C
330
1F
100
AcDbEntity
  8
0
  6
Continuous
 62
     7
 48
3.5
370
    15
100
AcDbLine
 10
22.0191716216
 20
8.9910048978
 30
0.0
 11
22.0191716216
 21
8.9290049207
 31
0.0
  0
LINE
  5
23D
330
1F
100
AcDbEntity
  8
0
  6
Continuous
 62
     7
 48
3.5
370
    15
100
AcDbLine
 10
13.0811717808
 20
8.9290049207
 30
0.0
 11
12.6891718025
 21
8.9290049207
 31
0.0
  0
LINE
  5
23E
330
1F
100
AcDbEntity
  8
0
  6
Continuous
 62
     7
 48
3.5
370
    15
100
AcDbLine
 10
12.6891718025
 20
3.2070051118
 30
0.0
 11
12.6121715187
 21
3.2070051118
 31
0.0
  0
LINE
  5
23F
330
1F
100
AcDbEntity
  8
0
  6
Continuous
 62
     7
 48
3.5
370
    15
100
AcDbLine
 10
12.6121715187
 20
8.9290049207
 30
0.0
 11
12.6891718025
 21
8.9290049207
 31
0.0
  0
LINE
  5
240
330
1F
100
AcDbEntity
  8
0
  6
Continuous
 62
     7
 48
3.5
370
    15
100
AcDbLine
 10
22.4881718836
 20
8.9290049207
 30
0.0
 11
22.4111715998
 21
8.9290049207
 31
0.0
  0
LINE
  5
241
330
1F
100
AcDbEntity
  8
0
  6
Continuous
 62
     7
 48
3.5
370
    15
100
AcDbLine
 10
22.4111715998
 20
3.2070051118
 30
0.0
 11
22.4881718836
 21
3.2070051118
 31
0.0
  0
LINE
  5
242
330
1F
100
AcDbEntity
  8
0
  6
Continuous
 62
     7
 48
3.5
370
    15
100
AcDbLine
 10
13.0811717808
 20
8.9910048978
 30
0.0
 11
13.0811717808
 21
9.0680051817
 31
0.0
  0
LINE
  5
243
330
1F
100
AcDbEntity
  8
0
  6
Continuous
 62
     7
 48
3.5
370
    15
100
AcDbLine
 10
22.0191716216
 20
8.9910048978
 30
0.0
 11
22.0191716216
 21
9.0680051817
 31
0.0
  0
LINE
  5
244
330
1F
100
AcDbEntity
  8
0
  6
Continuous
 62
     7
 48
3.5
370
    15
100
AcDbLine
 10
22.4111715998
 20
3.1300051075
 30
0.0
 11
22.4111715998
 21
3.2070051118
 31
0.0
  0
LINE
  5
245
330
1F
100
AcDbEntity
  8
0
  6
Continuous
 62
     7
 48
3.5
370
    15
100
AcDbLine
 10
12.6891718025
 20
3.1300051075
 30
0.0
 11
12.6891718025
 21
3.2070051118
 31
0.0
  0
LINE
  5
246
330
1F
100
AcDbEntity
  8
0
  6
Continuous
 62
     7
 48
3.5
370
    15
100
AcDbLine
 10
22.4881718836
 20
8.9910048978
 30
0.0
 11
22.4881718836
 21
3.1450051072
 31
0.0
  0
LINE
  5
247
330
1F
100
AcDbEntity
  8
0
  6
Continuous
 62
     7
 48
3.5
370
    15
100
AcDbLine
 10
22.5501718608
 20
8.9910048978
 30
0.0
 11
22.5501718608
 21
3.1450051072
 31
0.0
  0
LINE
  5
248
330
1F
100
AcDbEntity
  8
0
  6
Continuous
 62
     7
 48
3.5
370
    15
100
AcDbLine
 10
22.4731715769
 20
3.0680051075
 30
0.0
 11
12.6271718254
 21
3.0680051075
 31
0.0
  0
LINE
  5
249
330
1F
100
AcDbEntity
  8
0
  6
Continuous
 62
     7
 48
3.5
370
    15
100
AcDbLine
 10
22.4731715769
 20
3.1300051075
 30
0.0
 11
12.6271718254
 21
3.1300051075
 31
0.0
  0
ARC
  5
24A
330
1F
100
AcDbEntity
  8
0
  6
Continuous
 62
     7
 48
12.25
370
    15
100
AcDbCircle
 10
12.6271717012
 20
3.1450051075
 30
0.0
 40
0.0150000000000006
100
AcDbArc
 50
180.0
 51
270.0
  0
ARC
  5
24B
330
1F
100
AcDbEntity
  8
0
  6
Continuous
 62
     7
 48
12.25
370
    15
100
AcDbCircle
 10
12.6271717012
 20
3.1450051075
 30
0.0
 40
0.077
100
AcDbArc
 50
180.0
 51
270.0
  0
ARC
  5
24C
330
1F
100
AcDbEntity
  8
0
  6
Continuous
 62
     7
 48
12.25
370
    15
100
AcDbCircle
 10
22.4731717012
 20
3.1450051075
 30
0.0
 40
0.077
100
AcDbArc
 50
270.0
 51
0.0
  0
ARC
  5
24D
330
1F
100
AcDbEntity
  8
0
  6
Continuous
 62
     7
 48
12.25
370
    15
100
AcDbCircle
 10
22.4731717012
 20
3.1450051075
 30
0.0
 40
0.0150000000000006
100
AcDbArc
 50
270.0
 51
0.0
  0
LINE
  5
24E
330
1F
100
AcDbEntity
  8
0
  6
Continuous
 62
     7
 48
3.5
370
    15
100
AcDbLine
 10
12.5501715416
 20
3.1450051072
 30
0.0
 11
12.5501715416
 21
8.9910048978
 31
0.0
  0
LINE
  5
24F
330
1F
100
AcDbEntity
  8
0
  6
Continuous
 62
     7
 48
3.5
370
    15
100
AcDbLine
 10
12.6121715187
 20
3.1450051072
 30
0.0
 11
12.6121715187
 21
8.9910048978
 31
0.0
  0
ARC
  5
250
330
1F
100
AcDbEntity
  8
0
  6
Continuous
 62
     7
 48
12.25
370
    15
100
AcDbCircle
 10
12.6271717012
 20
8.9910051075
 30
0.0
 40
0.0150000000000023
100
AcDbArc
 50
90.0
 51
180.0
  0
ARC
  5
251
330
1F
100
AcDbEntity
  8
0
  6
Continuous
 62
     7
 48
12.25
370
    15
100
AcDbCircle
 10
12.6271717012
 20
8.9910051075
 30
0.0
 40
0.077
100
AcDbArc
 50
90.0
 51
180.0
  0
LINE
  5
252
330
1F
100
AcDbEntity
  8
0
  6
Continuous
 62
     7
 48
3.5
370
    15
100
AcDbLine
 10
13.0501717922
 20
9.0060052046
 30
0.0
 11
13.0501717922
 21
9.0680051817
 31
0.0
  0
LINE
  5
253
330
1F
100
AcDbEntity
  8
0
  6
Continuous
 62
     7
 48
3.5
370
    15
100
AcDbLine
 10
12.6271718254
 20
9.0060052046
 30
0.0
 11
13.0501717922
 21
9.0060052046
 31
0.0
  0
LINE
  5
254
330
1F
100
AcDbEntity
  8
0
  6
Continuous
 62
     7
 48
3.5
370
    15
100
AcDbLine
 10
12.6271718254
 20
9.0680051817
 30
0.0
 11
13.0501717922
 21
9.0680051817
 31
0.0
  0
LINE
  5
255
330
1F
100
AcDbEntity
  8
0
  6
Continuous
 62
     7
 48
3.5
370
    15
100
AcDbLine
 10
22.0501716101
 20
9.0680051817
 30
0.0
 11
22.0501716101
 21
9.0060052046
 31
0.0
  0
LINE
  5
256
330
1F
100
AcDbEntity
  8
0
  6
Continuous
 62
     7
 48
3.5
370
    15
100
AcDbLine
 10
22.0501716101
 20
9.0060052046
 30
0.0
 11
22.4731715769
 21
9.0060052046
 31
0.0
  0
LINE
  5
257
330
1F
100
AcDbEntity
  8
0
  6
Continuous
 62
     7
 48
3.5
370
    15
100
AcDbLine
 10
22.0501716101
 20
9.0680051817
 30
0.0
 11
22.4731715769
 21
9.0680051817
 31
0.0
  0
ARC
  5
258
330
1F
100
AcDbEntity
  8
0
  6
Continuous
 62
     7
 48
12.25
370
    15
100
AcDbCircle
 10
22.4731717012
 20
8.9910051075
 30
0.0
 40
0.0150000000000006
100
AcDbArc
 50
360.0
 51
90.0
  0
ARC
  5
259
330
1F
100
AcDbEntity
  8
0
  6
Continuous
 62
     7
 48
12.25
370
    15
100
AcDbCircle
 10
22.4731717012
 20
8.9910051075
 30
0.0
 40
0.077
100
AcDbArc
 50
360.0
 51
90.0
  0
ARC
  5
25A
330
1F
100
AcDbEntity
  8
0
  6
Continuous
 62
     7
 48
12.25
370
    15
100
AcDbCircle
 10
12.8017824401
 20
9.1120087781
 30
0.0
 40
0.1526322901371896
100
AcDbArc
 50
106.2025415567
 51
142.9600675302
  0
LINE
  5
25B
330
1F
100
AcDbEntity
  8
0
  6
Continuous
 62
     7
 48
3.5
370
    15
100
AcDbLine
 10
12.7017040311
 20
9.2039501179
 30
0.0
 11
12.6799489224
 21
9.2039501179
 31
0.0
  0
ARC
  5
25C
330
1F
100
AcDbEntity
  8
0
  6
Continuous
 62
     7
 48
12.25
370
    15
100
AcDbCircle
 10
12.8235376391
 20
9.1120088758
 30
0.0
 40
0.152632303400683
100
AcDbArc
 50
106.2026900834
 51
142.9601172186
  0
ARC
  5
25D
330
1F
100
AcDbEntity
  8
0
  6
Continuous
 62
     7
 48
12.25
370
    15
100
AcDbCircle
 10
12.799865401
 20
9.0319869948
 30
0.0
 40
0.2273800481356543
100
AcDbArc
 50
79.6539221481
 51
94.7724445476
  0
ARC
  5
25E
330
1F
100
AcDbEntity
  8
0
  6
Continuous
 62
     7
 48
12.25
370
    15
100
AcDbCircle
 10
12.8571874787
 20
9.2561523967
 30
0.0
 40
0.0164931745135282
100
AcDbArc
 50
168.7622467597
 51
181.6758541457
  0
ARC
  5
25F
330
1F
100
AcDbEntity
  8
0
  6
Continuous
 62
     7
 48
12.25
370
    15
100
AcDbCircle
 10
12.8004926166
 20
9.0322761836
 30
0.0
 40
0.2270906405063287
100
AcDbArc
 50
85.2251769423
 51
90.0809027747
  0
ARC
  5
260
330
1F
100
AcDbEntity
  8
0
  6
Continuous
 62
     7
 48
12.25
370
    15
100
AcDbCircle
 10
12.8005065472
 20
9.0317921608
 30
0.0
 40
0.2275768533623669
100
AcDbArc
 50
95.0050271785
 51
100.3443553334
  0
LWPOLYLINE
  5
261
330
1F
100
AcDbEntity
  8
0
  6
Continuous
 62
     7
 48
3.5
370
    15
100
AcDbPolyline
 90
        9
 70
   128
 43
0.0
 10
12.7596419751
 20
9.2556700537
 10
12.7595865358
 20
9.2568949996
 10
12.7595305097
 20
9.2578753083
 10
12.7594744837
 20
9.2586098064
 10
12.7594181644
 20
9.2590979075
 10
12.759361845
 20
9.2593390247
 10
12.7593055257
 20
9.2593331581
 10
12.7592492063
 20
9.2590791344
 10
12.759192887
 20
9.2585787135
  0
LINE
  5
262
330
1F
100
AcDbEntity
  8
0
  6
Continuous
 62
     7
 48
3.5
370
    15
100
AcDbLine
 10
12.759192887
 20
9.2506893113
 30
0.0
 11
12.759192887
 21
9.2585787135
 31
0.0
  0
LINE
  5
263
330
1F
100
AcDbEntity
  8
0
  6
Continuous
 62
     7
 48
3.5
370
    15
100
AcDbLine
 10
12.7596419751
 20
9.2508981622
 30
0.0
 11
12.7596419751
 21
9.2556700537
 31
0.0
  0
LINE
  5
264
330
1F
100
AcDbEntity
  8
0
  6
Continuous
 62
     7
 48
3.5
370
    15
100
AcDbLine
 10
12.8193956315
 20
9.2585787135
 30
0.0
 11
12.8193956315
 21
9.2585265007
 31
0.0
  0
ARC
  5
265
330
1F
100
AcDbEntity
  8
0
  6
Continuous
 62
     7
 48
12.25
370
    15
100
AcDbCircle
 10
22.2431559237
 20
9.2561523967
 30
0.0
 40
0.0164931745142494
100
AcDbArc
 50
358.3241458545
 51
11.23775324
  0
ARC
  5
266
330
1F
100
AcDbEntity
  8
0
  6
Continuous
 62
     7
 48
12.25
370
    15
100
AcDbCircle
 10
22.3004780013
 20
9.0319869948
 30
0.0
 40
0.2273800481357262
100
AcDbArc
 50
85.2275554524
 51
100.3460778519
  0
ARC
  5
267
330
1F
100
AcDbEntity
  8
0
  6
Continuous
 62
     7
 48
12.25
370
    15
100
AcDbCircle
 10
22.2768057633
 20
9.1120088758
 30
0.0
 40
0.1526323034006429
100
AcDbArc
 50
37.0398827814
 51
73.7973099166
  0
LINE
  5
268
330
1F
100
AcDbEntity
  8
0
  6
Continuous
 62
     7
 48
3.5
370
    15
100
AcDbLine
 10
22.42039448
 20
9.2039501179
 30
0.0
 11
22.3986393713
 21
9.2039501179
 31
0.0
  0
ARC
  5
269
330
1F
100
AcDbEntity
  8
0
  6
Continuous
 62
     7
 48
12.25
370
    15
100
AcDbCircle
 10
22.2985609623
 20
9.1120087781
 30
0.0
 40
0.1526322901371915
100
AcDbArc
 50
37.0399324698
 51
73.7974584433
  0
LWPOLYLINE
  5
26A
330
1F
100
AcDbEntity
  8
0
  6
Continuous
 62
     7
 48
3.5
370
    15
100
AcDbPolyline
 90
        9
 70
   128
 43
0.0
 10
22.3411505154
 20
9.2585787135
 10
22.341094196
 20
9.2590791344
 10
22.3410378767
 20
9.2593331581
 10
22.3409815573
 20
9.2593390247
 10
22.340925238
 20
9.2590979075
 10
22.3408689186
 20
9.2586098064
 10
22.3408128926
 20
9.2578753083
 10
22.3407568666
 20
9.2568949996
 10
22.3407014272
 20
9.2556700537
  0
ARC
  5
26B
330
1F
100
AcDbEntity
  8
0
  6
Continuous
 62
     7
 48
12.25
370
    15
100
AcDbCircle
 10
22.2998368552
 20
9.0317921608
 30
0.0
 40
0.2275768533619918
100
AcDbArc
 50
79.6556446666
 51
84.9949728215
  0
ARC
  5
26C
330
1F
100
AcDbEntity
  8
0
  6
Continuous
 62
     7
 48
12.25
370
    15
100
AcDbCircle
 10
22.2998507659
 20
9.0322765474
 30
0.0
 40
0.2270902763070502
100
AcDbArc
 50
89.9191661078
 51
94.7748257197
  0
LINE
  5
26D
330
1F
100
AcDbEntity
  8
0
  6
Continuous
 62
     7
 48
3.5
370
    15
100
AcDbLine
 10
22.3411505154
 20
9.2585787135
 30
0.0
 11
22.3411505154
 21
9.2506893113
 31
0.0
  0
LINE
  5
26E
330
1F
100
AcDbEntity
  8
0
  6
Continuous
 62
     7
 48
3.5
370
    15
100
AcDbLine
 10
22.3407014272
 20
9.2508981622
 30
0.0
 11
22.3407014272
 21
9.2556700537
 31
0.0
  0
LINE
  5
26F
330
1F
100
AcDbEntity
  8
0
  6
Continuous
 62
     7
 48
3.5
370
    15
100
AcDbLine
 10
22.2809477709
 20
9.2585265007
 30
0.0
 11
22.2809477709
 21
9.2585787135
 31
0.0
  0
CIRCLE
  5
270
330
1F
100
AcDbEntity
  8
0
  6
Continuous
 62
     7
 48
12.25
370
    15
100
AcDbCircle
 10
46.5904932191
 20
20.4214357647
 30
0.0
 40
0.1404999999999959
  0
CIRCLE
  5
271
330
1F
100
AcDbEntity
  8
0
  6
Continuous
 62
     7
 48
12.25
370
    15
100
AcDbCircle
 10
55.5904932191
 20
20.4214357647
 30
0.0
 40
0.1404999999999959
  0
CIRCLE
  5
272
330
1F
100
AcDbEntity
  8
0
  6
Continuous
 62
     7
 48
12.25
370
    15
100
AcDbCircle
 10
55.5904932191
 20
13.4214357647
 30
0.0
 40
0.140500000000003
  0
CIRCLE
  5
273
330
1F
100
AcDbEntity
  8
0
  6
Continuous
 62
     7
 48
12.25
370
    15
100
AcDbCircle
 10
46.5904932191
 20
13.4214357647
 30
0.0
 40
0.140500000000003
  0
CIRCLE
  5
274
330
1F
100
AcDbEntity
  8
0
  6
Continuous
 62
     7
 48
12.25
370
    15
100
AcDbCircle
 10
54.0904932191
 20
19.9214357647
 30
0.0
 40
0.625
  0
LINE
  5
275
330
1F
100
AcDbEntity
  8
0
  6
Continuous
 62
     7
 48
3.5
370
    15
100
AcDbLine
 10
46.1674933434
 20
11.9214356051
 30
0.0
 11
56.0134930949
 21
11.9214356051
 31
0.0
  0
LINE
  5
276
330
1F
100
AcDbEntity
  8
0
  6
Continuous
 62
     7
 48
3.5
370
    15
100
AcDbLine
 10
46.1674933434
 20
21.9214359242
 30
0.0
 11
56.0134930949
 21
21.9214359242
 31
0.0
  0
LINE
  5
277
330
1F
100
AcDbEntity
  8
0
  6
Continuous
 62
     7
 48
3.5
370
    15
100
AcDbLine
 10
56.0134930949
 20
21.9214359242
 30
0.0
 11
56.0904933787
 21
21.9214359242
 31
0.0
  0
LINE
  5
278
330
1F
100
AcDbEntity
  8
0
  6
Continuous
 62
     7
 48
3.5
370
    15
100
AcDbLine
 10
56.0904933787
 20
21.9214359242
 30
0.0
 11
56.0904933787
 21
11.9214356051
 31
0.0
  0
LINE
  5
279
330
1F
100
AcDbEntity
  8
0
  6
Continuous
 62
     7
 48
3.5
370
    15
100
AcDbLine
 10
56.0134930949
 20
11.9214356051
 30
0.0
 11
56.0904933787
 21
11.9214356051
 31
0.0
  0
LINE
  5
27A
330
1F
100
AcDbEntity
  8
0
  6
Continuous
 62
     7
 48
3.5
370
    15
100
AcDbLine
 10
46.0904930596
 20
21.9214359242
 30
0.0
 11
46.0904930596
 21
11.9214356051
 31
0.0
  0
LINE
  5
27B
330
1F
100
AcDbEntity
  8
0
  6
Continuous
 62
     7
 48
3.5
370
    15
100
AcDbLine
 10
46.0904930596
 20
21.9214359242
 30
0.0
 11
46.1674933434
 21
21.9214359242
 31
0.0
  0
LINE
  5
27C
330
1F
100
AcDbEntity
  8
0
  6
Continuous
 62
     7
 48
3.5
370
    15
100
AcDbLine
 10
46.0904930596
 20
11.9214356051
 30
0.0
 11
46.1674933434
 21
11.9214356051
 31
0.0
  0
CIRCLE
  5
27D
330
1F
100
AcDbEntity
  8
0
  6
Continuous
 62
     7
 48
12.25
370
    15
100
AcDbCircle
 10
54.0904932191
 20
19.9214357647
 30
0.0
 40
0.1470000000000056
  0
CIRCLE
  5
27E
330
1F
100
AcDbEntity
  8
0
  6
Continuous
 62
     7
 48
12.25
370
    15
100
AcDbCircle
 10
54.0904932191
 20
19.9214357647
 30
0.0
 40
0.0850000000000009
  0
LINE
  5
27F
330
1F
100
AcDbEntity
  8
0
  6
Continuous
 62
     7
 48
3.5
370
    15
100
AcDbLine
 10
55.5904931281
 20
20.561935816
 30
0.0
 11
55.5904931281
 21
20.2809357021
 31
0.0
  0
LINE
  5
280
330
1F
100
AcDbEntity
  8
0
  6
Continuous
 62
     7
 48
3.5
370
    15
100
AcDbLine
 10
55.5904931281
 20
13.5619358272
 30
0.0
 11
55.5904931281
 21
13.2809357134
 31
0.0
  0
LINE
  5
281
330
1F
100
AcDbEntity
  8
0
  6
Continuous
 62
     7
 48
3.5
370
    15
100
AcDbLine
 10
46.5904933102
 20
20.561935816
 30
0.0
 11
46.5904933102
 21
20.2809357021
 31
0.0
  0
LINE
  5
282
330
1F
100
AcDbEntity
  8
0
  6
Continuous
 62
     7
 48
3.5
370
    15
100
AcDbLine
 10
46.5904933102
 20
13.5619358272
 30
0.0
 11
46.5904933102
 21
13.2809357134
 31
0.0
  0
DIMENSION
  5
283
330
1F
100
AcDbEntity
  8
0
  6
Continuous
 62
     7
 48
3.5
370
     0
100
AcDbDimension
  2
*D9
 10
44.9598227468
 20
13.4214357647
 30
0.0
 11
44.9598227468
 21
16.9214357647
 31
0.0
 70
   160
 71
     2
 42
-1.0
  3
SLDDIMSTYLE0
100
AcDbAlignedDimension
 13
46.5904932191
 23
20.4214357647
 33
0.0
 14
46.5904932191
 24
13.4214357647
 34
0.0
 50
90.0
100
AcDbRotatedDimension
  0
DIMENSION
  5
295
330
1F
100
AcDbEntity
  8
0
  6
Continuous
 62
     7
 48
3.5
370
     0
100
AcDbDimension
  2
*D10
 10
55.5904932191
 20
10.8900128444
 30
0.0
 11
51.0904932191
 21
10.8900128444
 31
0.0
 70
   160
 71
     2
 42
-1.0
  3
SLDDIMSTYLE0
100
AcDbAlignedDimension
 13
46.5904932191
 23
13.4214357647
 33
0.0
 14
55.5904932191
 24
13.4214357647
 34
0.0
100
AcDbRotatedDimension
  0
DIMENSION
  5
2A7
330
1F
100
AcDbEntity
  8
0
  6
Continuous
 62
     7
 48
3.5
370
     0
100
AcDbDimension
  2
*D11
 10
55.5373309824
 20
13.5514897019
 30
0.0
 11
55.542651567
 21
9.6806805194
 31
0.0
 70
   163
  1
<>
 71
     1
 42
-1.0
  3
SLDDIMSTYLE2
100
AcDbDiametricDimension
 15
55.6436554559
 25
13.2913818274
 35
0.0
 40
0.0
  0
DIMENSION
  5
2B8
330
1F
100
AcDbEntity
  8
0
  6
Continuous
 62
     7
 48
3.5
370
     0
100
AcDbDimension
  2
*D12
 10
57.2086694834
 20
21.9214357647
 30
0.0
 11
57.2086694834
 21
20.9214357647
 31
0.0
 70
   160
 71
     2
 42
-1.0
  3
SLDDIMSTYLE3
100
AcDbAlignedDimension
 13
54.0904932191
 23
19.9214357647
 33
0.0
 14
56.0904932191
 24
21.9214357647
 34
0.0
 50
90.0
100
AcDbRotatedDimension
  0
DIMENSION
  5
2CB
330
1F
100
AcDbEntity
  8
0
  6
Continuous
 62
     7
 48
3.5
370
     0
100
AcDbDimension
  2
*D13
 10
56.0904932191
 20
23.0166530797
 30
0.0
 11
55.0904932191
 21
23.0166530797
 31
0.0
 70
   160
 71
     2
 42
-1.0
  3
SLDDIMSTYLE3
100
AcDbAlignedDimension
 13
54.0904932191
 23
19.9214357647
 33
0.0
 14
56.0904932191
 24
21.9214357647
 34
0.0
100
AcDbRotatedDimension
  0
LINE
  5
2DD
330
1F
100
AcDbEntity
  8
0
  6
Continuous
 62
     7
 48
3.5
370
    15
100
AcDbLine
 10
52.3349165817
 20
32.4115901338
 30
0.0
 11
47.5227721934
 21
35.189581958
 31
0.0
  0
LINE
  5
2DE
330
1F
100
AcDbEntity
  8
0
  6
Continuous
 62
     7
 48
3.5
370
    15
100
AcDbLine
 10
47.4688765135
 20
35.189581992
 30
0.0
 11
44.6366311067
 21
33.5545615211
 31
0.0
  0
LINE
  5
2DF
330
1F
100
AcDbEntity
  8
0
  6
Continuous
 62
     7
 48
3.5
370
    15
100
AcDbLine
 10
52.4232456778
 20
26.6931357182
 30
0.0
 11
52.4232456778
 21
32.4089215838
 31
0.0
  0
LINE
  5
2E0
330
1F
100
AcDbEntity
  8
0
  6
Continuous
 62
     7
 48
3.5
370
    15
100
AcDbLine
 10
44.5483020356
 20
33.5518929567
 30
0.0
 11
44.5483020356
 21
33.5390041765
 31
0.0
  0
ARC
  5
2E1
330
1F
100
AcDbEntity
  8
0
  6
Continuous
 62
     7
 48
12.25
370
    15
100
AcDbCircle
 10
44.6675508014
 20
28.9181223525
 30
0.0
 40
0.1617172108848085
100
AcDbArc
 50
168.1339525011
 51
205.9042604596
  0
ARC
  5
2E2
330
1F
100
AcDbEntity
  8
0
  6
Continuous
 62
     7
 48
12.25
370
    15
100
AcDbCircle
 10
44.6675508014
 20
28.9181223525
 30
0.0
 40
0.1617172108848107
100
AcDbArc
 50
213.5984078164
 51
251.8606709662
  0
LINE
  5
2E3
330
1F
100
AcDbEntity
  8
0
  6
Continuous
 62
     7
 48
3.5
370
    15
100
AcDbLine
 10
44.667802725
 20
28.767525701
 30
0.0
 11
44.6843007687
 21
28.7770498189
 31
0.0
  0
LINE
  5
2E4
330
1F
100
AcDbEntity
  8
0
  6
Continuous
 62
     7
 48
3.5
370
    15
100
AcDbLine
 10
44.5537613592
 20
29.0031751864
 30
0.0
 11
44.5372633155
 21
28.9936510685
 31
0.0
  0
ARC
  5
2E5
330
1F
100
AcDbEntity
  8
0
  6
Continuous
 62
     7
 48
12.25
370
    15
100
AcDbCircle
 10
49.3698108963
 20
29.6330367906
 30
0.0
 40
0.1617172108848132
100
AcDbArc
 50
168.1339525011
 51
251.8606709662
  0
LINE
  5
2E6
330
1F
100
AcDbEntity
  8
0
  6
Continuous
 62
     7
 48
3.5
370
    15
100
AcDbLine
 10
49.3700628538
 20
29.4824401619
 30
0.0
 11
49.3865608975
 21
29.4919642798
 31
0.0
  0
LINE
  5
2E7
330
1F
100
AcDbEntity
  8
0
  6
Continuous
 62
     7
 48
3.5
370
    15
100
AcDbLine
 10
49.256021488
 20
29.7180896474
 30
0.0
 11
49.2395234443
 21
29.7085655295
 31
0.0
  0
ARC
  5
2E8
330
1F
100
AcDbEntity
  8
0
  6
Continuous
 62
     7
 48
12.25
370
    15
100
AcDbCircle
 10
49.3698108963
 20
26.2035653807
 30
0.0
 40
0.1617172108848138
100
AcDbArc
 50
168.1339525011
 51
251.8606709662
  0
LINE
  5
2E9
330
1F
100
AcDbEntity
  8
0
  6
Continuous
 62
     7
 48
3.5
370
    15
100
AcDbLine
 10
49.3700628538
 20
26.0529687096
 30
0.0
 11
49.3865608975
 21
26.0624928275
 31
0.0
  0
LINE
  5
2EA
330
1F
100
AcDbEntity
  8
0
  6
Continuous
 62
     7
 48
3.5
370
    15
100
AcDbLine
 10
49.256021488
 20
26.288618195
 30
0.0
 11
49.2395234443
 21
26.2790940772
 31
0.0
  0
ARC
  5
2EB
330
1F
100
AcDbEntity
  8
0
  6
Continuous
 62
     7
 48
12.25
370
    15
100
AcDbCircle
 10
44.6675508014
 20
32.3475937624
 30
0.0
 40
0.1617172108848116
100
AcDbArc
 50
168.1339525011
 51
205.9042604596
  0
ARC
  5
2EC
330
1F
100
AcDbEntity
  8
0
  6
Continuous
 62
     7
 48
12.25
370
    15
100
AcDbCircle
 10
44.6675508014
 20
32.3475937624
 30
0.0
 40
0.1617172108848146
100
AcDbArc
 50
213.5984078164
 51
251.8606709662
  0
LINE
  5
2ED
330
1F
100
AcDbEntity
  8
0
  6
Continuous
 62
     7
 48
3.5
370
    15
100
AcDbLine
 10
44.667802725
 20
32.1969971533
 30
0.0
 11
44.6843007687
 21
32.2065212712
 31
0.0
  0
LINE
  5
2EE
330
1F
100
AcDbEntity
  8
0
  6
Continuous
 62
     7
 48
3.5
370
    15
100
AcDbLine
 10
44.5537613592
 20
32.4326466387
 30
0.0
 11
44.5372633155
 21
32.4231225208
 31
0.0
  0
LINE
  5
2EF
330
1F
100
AcDbEntity
  8
0
  6
Continuous
 62
     7
 48
3.5
370
    15
100
AcDbLine
 10
44.5259757382
 20
33.5518929567
 30
0.0
 11
44.4952873152
 21
33.5341769072
 31
0.0
  0
LINE
  5
2F0
330
1F
100
AcDbEntity
  8
0
  6
Continuous
 62
     7
 48
3.5
370
    15
100
AcDbLine
 10
49.4757233645
 20
30.6944644741
 30
0.0
 11
44.5259757382
 21
33.5518929567
 31
0.0
  0
LINE
  5
2F1
330
1F
100
AcDbEntity
  8
0
  6
Continuous
 62
     7
 48
3.5
370
    15
100
AcDbLine
 10
49.4757233645
 20
30.6944644741
 30
0.0
 11
49.4450349415
 21
30.6767484247
 31
0.0
  0
LINE
  5
2F2
330
1F
100
AcDbEntity
  8
0
  6
Continuous
 62
     7
 48
3.5
370
    15
100
AcDbLine
 10
49.4450349415
 20
30.6767484247
 30
0.0
 11
44.4952873152
 21
33.5341769072
 31
0.0
  0
LWPOLYLINE
  5
2F3
330
1F
100
AcDbEntity
  8
0
  6
Continuous
 62
     7
 48
3.5
370
    15
100
AcDbPolyline
 90
       18
 70
   128
 43
0.0
 10
49.390162213
 20
29.4942863888
 10
49.4023582498
 20
29.4713122607
 10
49.4154456137
 20
29.4357218015
 10
49.421438514
 20
29.4011737802
 10
49.4198861327
 20
29.370271177
 10
49.4109052034
 20
29.3453424805
 10
49.3951720255
 20
29.3282658938
 10
49.3738723731
 20
29.3203279081
 10
49.3486108961
 20
29.3221268887
 10
49.3212911928
 20
29.3335271249
 10
49.2939713442
 20
29.3536696306
 10
49.2687100125
 20
29.3810368466
 10
49.24741036
 20
29.4135668876
 10
49.2316773273
 20
29.4488085311
 10
49.2226961076
 20
29.4841065555
 10
49.2211437264
 20
29.5168014999
 10
49.227136917
 20
29.5444300982
 10
49.2302842204
 20
29.5512764158
  0
LINE
  5
2F4
330
1F
100
AcDbEntity
  8
0
  6
Continuous
 62
     7
 48
3.5
370
    15
100
AcDbLine
 10
49.4450349415
 20
24.960962559
 30
0.0
 11
49.4450349415
 21
30.6767484247
 31
0.0
  0
LINE
  5
2F5
330
1F
100
AcDbEntity
  8
0
  6
Continuous
 62
     7
 48
3.5
370
    15
100
AcDbLine
 10
44.4952873152
 20
27.8183910416
 30
0.0
 11
49.4450349415
 21
24.960962559
 31
0.0
  0
LINE
  5
2F6
330
1F
100
AcDbEntity
  8
0
  6
Continuous
 62
     7
 48
3.5
370
    15
100
AcDbLine
 10
44.4952873152
 20
33.5341769072
 30
0.0
 11
44.4952873152
 21
27.8183910416
 31
0.0
  0
LWPOLYLINE
  5
2F7
330
1F
100
AcDbEntity
  8
0
  6
Continuous
 62
     7
 48
3.5
370
    15
100
AcDbPolyline
 90
       18
 70
   128
 43
0.0
 10
44.5286266339
 20
28.8374741076
 10
44.524876643
 20
28.8295157211
 10
44.5188837427
 20
28.8018871228
 10
44.520436124
 20
28.7691921784
 10
44.5294170533
 20
28.733894154
 10
44.5451502312
 20
28.6986524267
 10
44.5664498836
 20
28.6661225534
 10
44.5917113606
 20
28.6387552535
 10
44.6190310639
 20
28.618612664
 10
44.6463509125
 20
28.6072125116
 10
44.6716122442
 20
28.6054136148
 10
44.6929118967
 20
28.6133514329
 10
44.7086449294
 20
28.6304281034
 10
44.7176261491
 20
28.6553568
 10
44.7191785303
 20
28.6862594031
 10
44.7131853397
 20
28.7208074244
 10
44.700098121
 20
28.7563979674
 10
44.6879020842
 20
28.7793719279
  0
LWPOLYLINE
  5
2F8
330
1F
100
AcDbEntity
  8
0
  6
Continuous
 62
     7
 48
3.5
370
    15
100
AcDbPolyline
 90
       18
 70
   128
 43
0.0
 10
44.5286266339
 20
32.2669453922
 10
44.524876643
 20
32.2589871734
 10
44.5188837427
 20
32.2313584074
 10
44.520436124
 20
32.198663463
 10
44.5294170533
 20
32.1633656063
 10
44.5451502312
 20
32.128123879
 10
44.5664498836
 20
32.095593838
 10
44.5917113606
 20
32.0682265381
 10
44.6190310639
 20
32.0480841163
 10
44.6463509125
 20
32.0366837962
 10
44.6716122442
 20
32.0348848995
 10
44.6929118967
 20
32.0428228852
 10
44.7086449294
 20
32.0598995557
 10
44.7176261491
 20
32.0848280846
 10
44.7191785303
 20
32.1157306878
 10
44.7131853397
 20
32.1502788767
 10
44.700098121
 20
32.185869252
 10
44.6879020842
 20
32.2088433802
  0
LWPOLYLINE
  5
2F9
330
1F
100
AcDbEntity
  8
0
  6
Continuous
 62
     7
 48
3.5
370
    15
100
AcDbPolyline
 90
       18
 70
   128
 43
0.0
 10
49.390162213
 20
26.0648149365
 10
49.4023582498
 20
26.041840976
 10
49.4154456137
 20
26.0062503492
 10
49.421438514
 20
25.9717024955
 10
49.4198861327
 20
25.9407998924
 10
49.4109052034
 20
25.9158710282
 10
49.3951720255
 20
25.8987944415
 10
49.3738723731
 20
25.8908566234
 10
49.3486108961
 20
25.892655604
 10
49.3212911928
 20
25.9040556726
 10
49.2939713442
 20
25.9241983459
 10
49.2687100125
 20
25.951565562
 10
49.24741036
 20
25.9840954353
 10
49.2316773273
 20
26.0193370788
 10
49.2226961076
 20
26.0546352708
 10
49.2211437264
 20
26.0873302152
 10
49.227136917
 20
26.1149586459
 10
49.2302842204
 20
26.1218049635
  0
LINE
  5
2FA
330
1F
100
AcDbEntity
  8
0
  6
Continuous
 62
     7
 48
3.5
370
    15
100
AcDbLine
 10
49.4757233645
 20
24.9786786085
 30
0.0
 11
49.4757233645
 21
30.6944644741
 31
0.0
  0
LINE
  5
2FB
330
1F
100
AcDbEntity
  8
0
  6
Continuous
 62
     7
 48
3.5
370
    15
100
AcDbLine
 10
49.4757233645
 20
24.9786786085
 30
0.0
 11
49.4450349415
 21
24.960962559
 31
0.0
  0
LWPOLYLINE
  5
2FC
330
1F
100
AcDbEntity
  8
0
  6
Continuous
 62
     7
 48
3.5
370
    15
100
AcDbPolyline
 90
       10
 70
   128
 43
0.0
 10
49.4060032678
 20
29.3382537531
 10
49.404560796
 20
29.3380439575
 10
49.3792993191
 20
29.3398429381
 10
49.3519796157
 20
29.3512431744
 10
49.3246597672
 20
29.3713856801
 10
49.2993984354
 20
29.3987528961
 10
49.278098783
 20
29.4312829371
 10
49.2623657502
 20
29.4665245806
 10
49.2533845306
 20
29.5018226049
 10
49.2515231831
 20
29.5227622969
  0
LWPOLYLINE
  5
2FD
330
1F
100
AcDbEntity
  8
0
  6
Continuous
 62
     7
 48
3.5
370
    15
100
AcDbPolyline
 90
       10
 70
   128
 43
0.0
 10
49.4060032678
 20
25.9087824685
 10
49.404560796
 20
25.9085726729
 10
49.3792993191
 20
25.9103716535
 10
49.3519796157
 20
25.9217717221
 10
49.3246597672
 20
25.9419143954
 10
49.2993984354
 20
25.9692816115
 10
49.278098783
 20
26.0018114848
 10
49.2623657502
 20
26.0370531283
 10
49.2533845306
 20
26.0723513203
 10
49.2515231831
 20
26.0932908446
  0
LWPOLYLINE
  5
2FE
330
1F
100
AcDbEntity
  8
0
  6
Continuous
 62
     7
 48
3.5
370
    15
100
AcDbPolyline
 90
       10
 70
   128
 43
0.0
 10
44.5492629091
 20
32.2373193722
 10
44.551124547
 20
32.2163795125
 10
44.5601054762
 20
32.1810816558
 10
44.5758386542
 20
32.1458399285
 10
44.5971383066
 20
32.1133098875
 10
44.6223997836
 20
32.0859425876
 10
44.6497194869
 20
32.0658001658
 10
44.6770393355
 20
32.0543998457
 10
44.7023006672
 20
32.0526009489
 10
44.7037432842
 20
32.0528106607
  0
LWPOLYLINE
  5
2FF
330
1F
100
AcDbEntity
  8
0
  6
Continuous
 62
     7
 48
3.5
370
    15
100
AcDbPolyline
 90
       10
 70
   128
 43
0.0
 10
44.5492629091
 20
28.8078479199
 10
44.551124547
 20
28.7869082279
 10
44.5601054762
 20
28.7516102035
 10
44.5758386542
 20
28.7163684762
 10
44.5971383066
 20
28.6838386028
 10
44.6223997836
 20
28.656471303
 10
44.6497194869
 20
28.6363287135
 10
44.6770393355
 20
28.6249285611
 10
44.7023006672
 20
28.6231296643
 10
44.7037432842
 20
28.623339376
  0
ARC
  5
300
330
1F
100
AcDbEntity
  8
0
  6
Continuous
 62
     7
 48
12.25
370
    15
100
AcDbCircle
 10
49.4345707507
 20
30.7079270072
 30
0.0
 40
0.0777568185770409
100
AcDbArc
 50
28.8565872793
 51
58.045364133
  0
ARC
  5
301
330
1F
100
AcDbEntity
  8
0
  6
Continuous
 62
     7
 48
12.25
370
    15
100
AcDbCircle
 10
49.4677556384
 20
30.7256734292
 30
0.0
 40
0.015068669375098
100
AcDbArc
 50
29.8406746896
 51
58.0782152999
  0
ARC
  5
302
330
1F
100
AcDbEntity
  8
0
  6
Continuous
 62
     7
 48
12.25
370
    15
100
AcDbCircle
 10
52.2633577991
 20
32.3396709018
 30
0.0
 40
0.0823759584119433
100
AcDbArc
 50
29.6875824935
 51
57.2105585641
  0
LINE
  5
303
330
1F
100
AcDbEntity
  8
0
  6
Continuous
 62
     7
 48
3.5
370
    15
100
AcDbLine
 10
49.2816932745
 20
30.8859123193
 30
0.0
 11
49.4757233645
 21
30.7739011325
 31
0.0
  0
LINE
  5
304
330
1F
100
AcDbEntity
  8
0
  6
Continuous
 62
     7
 48
3.5
370
    15
100
AcDbLine
 10
49.2510048515
 20
30.8681962698
 30
0.0
 11
49.2816932745
 21
30.8859123193
 31
0.0
  0
LINE
  5
305
330
1F
100
AcDbEntity
  8
0
  6
Continuous
 62
     7
 48
3.5
370
    15
100
AcDbLine
 10
44.8269206431
 20
33.4221657205
 30
0.0
 11
44.8576090661
 21
33.43988177
 31
0.0
  0
LINE
  5
306
330
1F
100
AcDbEntity
  8
0
  6
Continuous
 62
     7
 48
3.5
370
    15
100
AcDbLine
 10
44.8576090661
 20
33.43988177
 30
0.0
 11
44.6635789761
 21
33.5518929567
 31
0.0
  0
LINE
  5
307
330
1F
100
AcDbEntity
  8
0
  6
Continuous
 62
     7
 48
3.5
370
    15
100
AcDbLine
 10
49.2816932745
 20
30.8504744611
 30
0.0
 11
49.2816932745
 21
30.8859123193
 31
0.0
  0
LINE
  5
308
330
1F
100
AcDbEntity
  8
0
  6
Continuous
 62
     7
 48
3.5
370
    15
100
AcDbLine
 10
49.2816932745
 20
30.8504744611
 30
0.0
 11
49.4757233645
 21
30.7384632744
 31
0.0
  0
ARC
  5
309
330
1F
100
AcDbEntity
  8
0
  6
Continuous
 62
     7
 48
12.25
370
    15
100
AcDbCircle
 10
49.2921567702
 20
30.8022228029
 30
0.0
 40
0.0777558920411063
100
AcDbArc
 50
121.9544580994
 51
151.1435904883
  0
ARC
  5
30A
330
1F
100
AcDbEntity
  8
0
  6
Continuous
 62
     7
 48
12.25
370
    15
100
AcDbCircle
 10
44.8680725618
 20
33.3561922536
 30
0.0
 40
0.0777558920411552
100
AcDbArc
 50
121.9544580994
 51
151.1435904883
  0
LINE
  5
30B
330
1F
100
AcDbEntity
  8
0
  6
Continuous
 62
     7
 48
3.5
370
    15
100
AcDbLine
 10
49.2742734379
 20
30.8461910807
 30
0.0
 11
49.2816932745
 21
30.8504744611
 31
0.0
  0
ARC
  5
30C
330
1F
100
AcDbEntity
  8
0
  6
Continuous
 62
     7
 48
12.25
370
    15
100
AcDbCircle
 10
52.3228468736
 20
32.3906812209
 30
0.0
 40
0.0235386806110817
100
AcDbArc
 50
350.7858523052
 51
129.2030356316
  0
ARC
  5
30D
330
1F
100
AcDbEntity
  8
0
  6
Continuous
 62
     7
 48
12.25
370
    15
100
AcDbCircle
 10
47.5116128596
 20
35.1648742905
 30
0.0
 40
0.0271108753897418
100
AcDbArc
 50
65.6934624382
 51
125.6171911235
  0
LINE
  5
30E
330
1F
100
AcDbEntity
  8
0
  6
Continuous
 62
     7
 48
3.5
370
    15
100
AcDbLine
 10
44.8269155614
 20
33.4221628949
 30
0.0
 11
44.6635789761
 21
33.5164550986
 31
0.0
  0
ARC
  5
30F
330
1F
100
AcDbEntity
  8
0
  6
Continuous
 62
     7
 48
12.25
370
    15
100
AcDbCircle
 10
44.6487008041
 20
33.5336525624
 30
0.0
 40
0.0235387337546596
100
AcDbArc
 50
50.7968509965
 51
189.2139007583
  0
ARC
  5
310
330
1F
100
AcDbEntity
  8
0
  6
Continuous
 62
     7
 48
12.25
370
    15
100
AcDbCircle
 10
47.4800358395
 20
35.1648741784
 30
0.0
 40
0.0271110053539712
100
AcDbArc
 50
54.3828321291
 51
114.3063955168
  0
ARC
  5
311
330
1F
100
AcDbEntity
  8
0
  6
Continuous
 62
     7
 48
12.25
370
    15
100
AcDbCircle
 10
44.6606806562
 20
33.5129017264
 30
0.0
 40
0.0045854892776139
100
AcDbArc
 50
50.7974800055
 51
189.2152122788
  0
ARC
  5
312
330
1F
100
AcDbEntity
  8
0
  6
Continuous
 62
     7
 48
12.25
370
    15
100
AcDbCircle
 10
49.4757233645
 20
30.7900251824
 30
0.0
 40
0.0828459903526415
100
AcDbArc
 50
242.6097453919
 51
297.3902546081
  0
ARC
  5
313
330
1F
100
AcDbEntity
  8
0
  6
Continuous
 62
     7
 48
12.25
370
    15
100
AcDbCircle
 10
49.4772766855
 20
25.069323173
 30
0.0
 40
0.0777713810419409
100
AcDbArc
 50
268.8555602375
 51
298.0404112226
  0
ARC
  5
314
330
1F
100
AcDbEntity
  8
0
  6
Continuous
 62
     7
 48
12.25
370
    15
100
AcDbCircle
 10
49.4757233645
 20
30.7485127907
 30
0.0
 40
0.0161392624871399
100
AcDbArc
 50
242.6100446368
 51
297.3899553632
  0
LINE
  5
315
330
1F
100
AcDbEntity
  8
0
  6
Continuous
 62
     7
 48
3.5
370
    15
100
AcDbLine
 10
49.228235867
 20
30.8373359653
 30
0.0
 11
49.4376101685
 21
30.7164667539
 31
0.0
  0
LINE
  5
316
330
1F
100
AcDbEntity
  8
0
  6
Continuous
 62
     7
 48
3.5
370
    15
100
AcDbLine
 10
49.228235867
 20
30.8373359653
 30
0.0
 11
49.25892429
 21
30.8550520148
 31
0.0
  0
LINE
  5
317
330
1F
100
AcDbEntity
  8
0
  6
Continuous
 62
     7
 48
3.5
370
    15
100
AcDbLine
 10
49.25892429
 20
30.8550520148
 30
0.0
 11
49.4682985914
 21
30.7341828033
 31
0.0
  0
LINE
  5
318
330
1F
100
AcDbEntity
  8
0
  6
Continuous
 62
     7
 48
3.5
370
    15
100
AcDbLine
 10
49.4831481375
 20
30.7341828033
 30
0.0
 11
52.3767704038
 21
32.4046353811
 31
0.0
  0
LINE
  5
319
330
1F
100
AcDbEntity
  8
0
  6
Continuous
 62
     7
 48
3.5
370
    15
100
AcDbLine
 10
49.5138365604
 20
30.7164667539
 30
0.0
 11
52.4074588268
 21
32.3869193316
 31
0.0
  0
LINE
  5
31A
330
1F
100
AcDbEntity
  8
0
  6
Continuous
 62
     7
 48
3.5
370
    15
100
AcDbLine
 10
49.5138365604
 20
25.0006808882
 30
0.0
 11
52.4074588268
 21
26.671133466
 31
0.0
  0
ARC
  5
31B
330
1F
100
AcDbEntity
  8
0
  6
Continuous
 62
     7
 48
12.25
370
    15
100
AcDbCircle
 10
52.3991081444
 20
32.4089215441
 30
0.0
 40
0.0235336195289706
100
AcDbArc
 50
290.7836721393
 51
69.2166941354
  0
ARC
  5
31C
330
1F
100
AcDbEntity
  8
0
  6
Continuous
 62
     7
 48
12.25
370
    15
100
AcDbCircle
 10
52.396271269
 20
26.6958254014
 30
0.0
 40
0.0271081745203785
100
AcDbArc
 50
294.3745908246
 51
354.3057220717
  0
ARC
  5
31D
330
1F
100
AcDbEntity
  8
0
  6
Continuous
 62
     7
 48
12.25
370
    15
100
AcDbCircle
 10
52.3751434416
 20
32.4089215386
 30
0.0
 40
0.0045845558388503
100
AcDbArc
 50
290.7860236977
 51
69.2160081251
  0
LINE
  5
31E
330
1F
100
AcDbEntity
  8
0
  6
Continuous
 62
     7
 48
3.5
370
    15
100
AcDbLine
 10
52.3767702518
 20
32.4132077538
 30
0.0
 11
47.5032490175
 21
35.226631677
 31
0.0
  0
LINE
  5
31F
330
1F
100
AcDbEntity
  8
0
  6
Continuous
 62
     7
 48
3.5
370
    15
100
AcDbLine
 10
52.4074586862
 20
32.4309238099
 30
0.0
 11
47.5339374519
 21
35.244347733
 31
0.0
  0
LINE
  5
320
330
1F
100
AcDbEntity
  8
0
  6
Continuous
 62
     7
 48
3.5
370
    15
100
AcDbLine
 10
44.5640889342
 20
33.529890677
 30
0.0
 11
44.7734632357
 21
33.4090214655
 31
0.0
  0
LINE
  5
321
330
1F
100
AcDbEntity
  8
0
  6
Continuous
 62
     7
 48
3.5
370
    15
100
AcDbLine
 10
44.8041516586
 20
33.426737515
 30
0.0
 11
44.7734632357
 21
33.4090214655
 31
0.0
  0
LINE
  5
322
330
1F
100
AcDbEntity
  8
0
  6
Continuous
 62
     7
 48
3.5
370
    15
100
AcDbLine
 10
44.8041516586
 20
33.426737515
 30
0.0
 11
44.8041516586
 21
33.4003043998
 31
0.0
  0
LINE
  5
323
330
1F
100
AcDbEntity
  8
0
  6
Continuous
 62
     7
 48
3.5
370
    15
100
AcDbLine
 10
44.5947773571
 20
33.5476067265
 30
0.0
 11
44.8041516586
 21
33.426737515
 31
0.0
  0
ARC
  5
324
330
1F
100
AcDbEntity
  8
0
  6
Continuous
 62
     7
 48
12.25
370
    15
100
AcDbCircle
 10
44.5964041699
 20
33.5518929567
 30
0.0
 40
0.0045845707979946
100
AcDbArc
 50
110.7839552136
 51
249.2160447864
  0
ARC
  5
325
330
1F
100
AcDbEntity
  8
0
  6
Continuous
 62
     7
 48
12.25
370
    15
100
AcDbCircle
 10
44.5724395916
 20
33.5518929567
 30
0.0
 40
0.0235336735593602
100
AcDbArc
 50
110.7835570368
 51
249.2164429632
  0
LINE
  5
326
330
1F
100
AcDbEntity
  8
0
  6
Continuous
 62
     7
 48
3.5
370
    15
100
AcDbLine
 10
47.4883996235
 20
35.2266317647
 30
0.0
 11
44.5947773571
 21
33.5561791869
 31
0.0
  0
LINE
  5
327
330
1F
100
AcDbEntity
  8
0
  6
Continuous
 62
     7
 48
3.5
370
    15
100
AcDbLine
 10
47.4577112005
 20
35.2443478142
 30
0.0
 11
44.5640889342
 21
33.5738952364
 31
0.0
  0
ARC
  5
328
330
1F
100
AcDbEntity
  8
0
  6
Continuous
 62
     7
 48
12.25
370
    15
100
AcDbCircle
 10
47.4958242359
 20
35.2123015186
 30
0.0
 40
0.0161394182856991
100
AcDbArc
 50
62.6102965065
 51
117.3890263659
  0
ARC
  5
329
330
1F
100
AcDbEntity
  8
0
  6
Continuous
 62
     7
 48
12.25
370
    15
100
AcDbCircle
 10
47.4958242478
 20
35.1707895956
 30
0.0
 40
0.0828457355617981
100
AcDbArc
 50
62.6096478364
 51
117.3902300986
  0
ARC
  5
32A
330
1F
100
AcDbEntity
  8
0
  6
Continuous
 62
     7
 48
12.25
370
    15
100
AcDbCircle
 10
44.4589989301
 20
28.9809634173
 30
0.0
 40
0.1476452799069713
100
AcDbArc
 50
295.2939273385
 51
301.0294632304
  0
ARC
  5
32B
330
1F
100
AcDbEntity
  8
0
  6
Continuous
 62
     7
 48
12.25
370
    15
100
AcDbCircle
 10
44.6900698828
 20
28.9311215277
 30
0.0
 40
0.1866383021310186
100
AcDbArc
 50
206.4187688085
 51
213.0840876439
  0
LWPOLYLINE
  5
32C
330
1F
100
AcDbEntity
  8
0
  6
Continuous
 62
     7
 48
3.5
370
    15
100
AcDbPolyline
 90
        9
 70
   128
 43
0.0
 10
44.5336911834
 20
28.829241411
 10
44.5329710365
 20
28.8287532083
 10
44.532898441
 20
28.8286350162
 10
44.5334739778
 20
28.8288875015
 10
44.5346948882
 20
28.8295090675
 10
44.5365553646
 20
28.8304971956
 10
44.5390469859
 20
28.8318471878
 10
44.5421584272
 20
28.8335530047
 10
44.5458750243
 20
28.8356065116
  0
ARC
  5
32D
330
1F
100
AcDbEntity
  8
0
  6
Continuous
 62
     7
 48
12.25
370
    15
100
AcDbCircle
 10
44.6366390775
 20
28.9688229642
 30
0.0
 40
0.1611978182724259
100
AcDbArc
 50
235.7323133964
 51
248.2443596439
  0
ARC
  5
32E
330
1F
100
AcDbEntity
  8
0
  6
Continuous
 62
     7
 48
12.25
370
    15
100
AcDbCircle
 10
44.7135509726
 20
28.8407383977
 30
0.0
 40
0.138361109289134
100
AcDbArc
 50
175.2062035692
 51
188.9946250107
  0
ARC
  5
32F
330
1F
100
AcDbEntity
  8
0
  6
Continuous
 62
     7
 48
12.25
370
    15
100
AcDbCircle
 10
35.9584984794
 20
44.1220012676
 30
0.0
 40
17.53338104480159
100
AcDbArc
 50
299.4374136338
 51
299.6863571773
  0
ARC
  5
330
330
1F
100
AcDbEntity
  8
0
  6
Continuous
 62
     7
 48
12.25
370
    15
100
AcDbCircle
 10
44.4747574684
 20
28.8068261422
 30
0.0
 40
0.1866763190836421
100
AcDbArc
 50
26.4194895881
 51
33.0833602116
  0
ARC
  5
331
330
1F
100
AcDbEntity
  8
0
  6
Continuous
 62
     7
 48
12.25
370
    15
100
AcDbCircle
 10
35.9545598153
 20
44.1288678868
 30
0.0
 40
17.51959763032933
100
AcDbArc
 50
299.4372061578
 51
299.6863452856
  0
ARC
  5
332
330
1F
100
AcDbEntity
  8
0
  6
Continuous
 62
     7
 48
12.25
370
    15
100
AcDbCircle
 10
44.6260560981
 20
28.9967515425
 30
0.0
 40
0.1397049870010087
100
AcDbArc
 50
230.2743517692
 51
244.0421160156
  0
ARC
  5
333
330
1F
100
AcDbEntity
  8
0
  6
Continuous
 62
     7
 48
12.25
370
    15
100
AcDbCircle
 10
44.695135506
 20
28.8642835015
 30
0.0
 40
0.1603306635827395
100
AcDbArc
 50
171.0225031265
 51
183.5178002457
  0
LINE
  5
334
330
1F
100
AcDbEntity
  8
0
  6
Continuous
 62
     7
 48
3.5
370
    15
100
AcDbLine
 10
44.6027136378
 20
28.8679109586
 30
0.0
 11
44.5756738625
 21
28.8523012286
 31
0.0
  0
LINE
  5
335
330
1F
100
AcDbEntity
  8
0
  6
Continuous
 62
     7
 48
3.5
370
    15
100
AcDbLine
 10
44.6419373991
 20
28.8898858731
 30
0.0
 11
44.6027136378
 21
28.8679109586
 31
0.0
  0
LWPOLYLINE
  5
336
330
1F
100
AcDbEntity
  8
0
  6
Continuous
 62
     7
 48
3.5
370
    15
100
AcDbPolyline
 90
       14
 70
   128
 43
0.0
 10
44.667802725
 20
28.767525701
 10
44.6716524621
 20
28.7700271469
 10
44.6855980495
 20
28.7861309637
 10
44.6933830412
 20
28.8092403412
 10
44.6944301581
 20
28.8376412255
 10
44.688661723
 20
28.8692273666
 10
44.6765054685
 20
28.9016559085
 10
44.65886303
 20
28.9325221723
 10
44.6370428681
 20
28.9595367008
 10
44.6126632808
 20
28.9806959278
 10
44.5875323305
 20
28.9944306313
 10
44.5635139782
 20
28.9997222771
 10
44.542389426
 20
28.9961782025
 10
44.5372633155
 20
28.9936510685
  0
LWPOLYLINE
  5
337
330
1F
100
AcDbEntity
  8
0
  6
Continuous
 62
     7
 48
3.5
370
    15
100
AcDbPolyline
 90
       14
 70
   128
 43
0.0
 10
44.6843007687
 20
28.7770498189
 10
44.6881505058
 20
28.7795512647
 10
44.7020960932
 20
28.7956550816
 10
44.7098810849
 20
28.8187644591
 10
44.7109282018
 20
28.8471653434
 10
44.7051597667
 20
28.8787514845
 10
44.6930035122
 20
28.9111800264
 10
44.6753610737
 20
28.9420462902
 10
44.6535409118
 20
28.9690608187
 10
44.6291613245
 20
28.9902200457
 10
44.6040303742
 20
29.0039547492
 10
44.5800120218
 20
29.009246395
 10
44.5588874696
 20
29.0057023204
 10
44.5537613592
 20
29.0031751864
  0
LINE
  5
338
330
1F
100
AcDbEntity
  8
0
  6
Continuous
 62
     7
 48
3.5
370
    15
100
AcDbLine
 10
44.6027136378
 20
28.8679109586
 30
0.0
 11
44.6027952351
 21
28.8803926653
 31
0.0
  0
LINE
  5
339
330
1F
100
AcDbEntity
  8
0
  6
Continuous
 62
     7
 48
3.5
370
    15
100
AcDbLine
 10
44.6027952351
 20
28.8803926653
 30
0.0
 11
44.5922225778
 21
28.886587841
 31
0.0
  0
LINE
  5
33A
330
1F
100
AcDbEntity
  8
0
  6
Continuous
 62
     7
 48
3.5
370
    15
100
AcDbLine
 10
44.5755295427
 20
28.8502282884
 30
0.0
 11
44.5625329231
 21
28.8578439131
 31
0.0
  0
LINE
  5
33B
330
1F
100
AcDbEntity
  8
0
  6
Continuous
 62
     7
 48
3.5
370
    15
100
AcDbLine
 10
44.5625329231
 20
28.8578439131
 30
0.0
 11
44.5626272972
 21
28.8722931241
 31
0.0
  0
LINE
  5
33C
330
1F
100
AcDbEntity
  8
0
  6
Continuous
 62
     7
 48
3.5
370
    15
100
AcDbLine
 10
44.5625329231
 20
28.8578439131
 30
0.0
 11
44.562065118
 21
28.8575738549
 31
0.0
  0
LINE
  5
33D
330
1F
100
AcDbEntity
  8
0
  6
Continuous
 62
     7
 48
3.5
370
    15
100
AcDbLine
 10
44.5621467153
 20
28.8700555616
 30
0.0
 11
44.562065118
 21
28.8575738549
 31
0.0
  0
LINE
  5
33E
330
1F
100
AcDbEntity
  8
0
  6
Continuous
 62
     7
 48
3.5
370
    15
100
AcDbLine
 10
44.5621467153
 20
28.8700555616
 30
0.0
 11
44.53510694
 21
28.8544458316
 31
0.0
  0
LINE
  5
33F
330
1F
100
AcDbEntity
  8
0
  6
Continuous
 62
     7
 48
3.5
370
    15
100
AcDbLine
 10
44.5458750243
 20
28.8356065116
 30
0.0
 11
44.5729147995
 21
28.8512162416
 31
0.0
  0
LINE
  5
340
330
1F
100
AcDbEntity
  8
0
  6
Continuous
 62
     7
 48
3.5
370
    15
100
AcDbLine
 10
44.562065118
 20
28.8575738549
 30
0.0
 11
44.5729147995
 21
28.8512162416
 31
0.0
  0
LINE
  5
341
330
1F
100
AcDbEntity
  8
0
  6
Continuous
 62
     7
 48
3.5
370
    15
100
AcDbLine
 10
44.5729147995
 20
28.8512162416
 30
0.0
 11
44.5336911834
 21
28.829241411
 31
0.0
  0
ARC
  5
342
330
1F
100
AcDbEntity
  8
0
  6
Continuous
 62
     7
 48
12.25
370
    15
100
AcDbCircle
 10
49.4121595476
 20
29.6634878929
 30
0.0
 40
0.1769722040579643
100
AcDbArc
 50
174.6747752338
 51
202.0529837494
  0
ARC
  5
343
330
1F
100
AcDbEntity
  8
0
  6
Continuous
 62
     7
 48
12.25
370
    15
100
AcDbCircle
 10
49.2488082795
 20
29.6460504949
 30
0.0
 40
0.036220720165492
100
AcDbArc
 50
110.7913409125
 51
130.7119419848
  0
ARC
  5
344
330
1F
100
AcDbEntity
  8
0
  6
Continuous
 62
     7
 48
12.25
370
    15
100
AcDbCircle
 10
49.4013914633
 20
29.6570811384
 30
0.0
 40
0.176972204058112
100
AcDbArc
 50
174.6747752338
 51
202.0529837494
  0
ARC
  5
345
330
1F
100
AcDbEntity
  8
0
  6
Continuous
 62
     7
 48
12.25
370
    15
100
AcDbCircle
 10
49.376730541
 20
29.5807918357
 30
0.0
 40
0.1397106113570083
100
AcDbArc
 50
175.9601547148
 51
189.7285883066
  0
ARC
  5
346
330
1F
100
AcDbEntity
  8
0
  6
Continuous
 62
     7
 48
12.25
370
    15
100
AcDbCircle
 10
49.3260727544
 20
29.6647020591
 30
0.0
 40
0.1383360814492502
100
AcDbArc
 50
231.0074777523
 51
244.7971580173
  0
ARC
  5
347
330
1F
100
AcDbEntity
  8
0
  6
Continuous
 62
     7
 48
12.25
370
    15
100
AcDbCircle
 10
49.4069904914
 20
29.650583947
 30
0.0
 40
0.1785576603760936
100
AcDbArc
 50
218.4567309447
 51
245.6710732015
  0
ARC
  5
348
330
1F
100
AcDbEntity
  8
0
  6
Continuous
 62
     7
 48
12.25
370
    15
100
AcDbCircle
 10
49.3205746561
 20
29.5217424922
 30
0.0
 40
0.0362174699219204
100
AcDbArc
 50
290.7891132685
 51
310.7115141822
  0
ARC
  5
349
330
1F
100
AcDbEntity
  8
0
  6
Continuous
 62
     7
 48
12.25
370
    15
100
AcDbCircle
 10
49.417758992
 20
29.6569906505
 30
0.0
 40
0.1785579546454225
100
AcDbArc
 50
218.4566349897
 51
245.6710203816
  0
ARC
  5
34A
330
1F
100
AcDbEntity
  8
0
  6
Continuous
 62
     7
 48
12.25
370
    15
100
AcDbCircle
 10
49.4386845977
 20
29.5579458603
 30
0.0
 40
0.1611982071151034
100
AcDbArc
 50
171.7578097983
 51
184.2707429796
  0
ARC
  5
34B
330
1F
100
AcDbEntity
  8
0
  6
Continuous
 62
     7
 48
12.25
370
    15
100
AcDbCircle
 10
49.3366525899
 20
29.7306985346
 30
0.0
 40
0.1603109842786268
100
AcDbArc
 50
236.4846223978
 51
248.9805302052
  0
LWPOLYLINE
  5
34C
330
1F
100
AcDbEntity
  8
0
  6
Continuous
 62
     7
 48
3.5
370
    15
100
AcDbPolyline
 90
        3
 70
   128
 43
0.0
 10
49.2356048867
 20
29.7038003258
 10
49.2202759203
 20
29.6886289102
 10
49.2115495107
 20
29.6662898472
  0
ARC
  5
34D
330
1F
100
AcDbEntity
  8
0
  6
Continuous
 62
     7
 48
12.25
370
    15
100
AcDbCircle
 10
49.3390821461
 20
29.5296596985
 30
0.0
 40
0.0539932791750331
100
AcDbArc
 50
248.6940760078
 51
303.496672573
  0
LINE
  5
34E
330
1F
100
AcDbEntity
  8
0
  6
Continuous
 62
     7
 48
3.5
370
    15
100
AcDbLine
 10
49.2390293596
 20
29.7082758485
 30
0.0
 11
49.224214369
 21
29.6940318148
 31
0.0
  0
LWPOLYLINE
  5
34F
330
1F
100
AcDbEntity
  8
0
  6
Continuous
 62
     7
 48
3.5
370
    15
100
AcDbPolyline
 90
       15
 70
   128
 43
0.0
 10
49.3498212076
 20
29.476450749
 10
49.3611231588
 20
29.4785318133
 10
49.3787655973
 20
29.4890285512
 10
49.390921997
 20
29.5074216965
 10
49.3966904321
 20
29.5323477443
 10
49.3956433152
 20
29.561957604
 10
49.3878581783
 20
29.5940554253
 10
49.3739124457
 20
29.6262605585
 10
49.3548406027
 20
29.6561845166
 10
49.3320569539
 20
29.6816080184
 10
49.3072512313
 20
29.7006453703
 10
49.2822631488
 20
29.7118849545
 10
49.2589462138
 20
29.7144928309
 10
49.2390293596
 20
29.7082758485
 10
49.2390293596
 20
29.7082758485
  0
LWPOLYLINE
  5
350
330
1F
100
AcDbEntity
  8
0
  6
Continuous
 62
     7
 48
3.5
370
    15
100
AcDbPolyline
 90
       14
 70
   128
 43
0.0
 10
49.3865608975
 20
29.4919642798
 10
49.395263641
 20
29.4985526691
 10
49.4074200407
 20
29.5169458144
 10
49.4131884758
 20
29.5418718622
 10
49.4121413589
 20
29.5714817219
 10
49.404356222
 20
29.6035795432
 10
49.3904104894
 20
29.6357846764
 10
49.3713386464
 20
29.6657086345
 10
49.3485549976
 20
29.6911321363
 10
49.3237492749
 20
29.7101694882
 10
49.2987611925
 20
29.7214090724
 10
49.2754442575
 20
29.7240169488
 10
49.2555274033
 20
29.7177999664
 10
49.2555274033
 20
29.7177999664
  0
LINE
  5
351
330
1F
100
AcDbEntity
  8
0
  6
Continuous
 62
     7
 48
3.5
370
    15
100
AcDbLine
 10
49.2776520305
 20
29.5650931087
 30
0.0
 11
49.2650969365
 21
29.5722320305
 31
0.0
  0
LINE
  5
352
330
1F
100
AcDbEntity
  8
0
  6
Continuous
 62
     7
 48
3.5
370
    15
100
AcDbLine
 10
49.2650969365
 20
29.5722320305
 30
0.0
 11
49.264999223
 21
29.587301821
 31
0.0
  0
LINE
  5
353
330
1F
100
AcDbEntity
  8
0
  6
Continuous
 62
     7
 48
3.5
370
    15
100
AcDbLine
 10
49.2650969365
 20
29.5722320305
 30
0.0
 11
49.2390290692
 21
29.557183371
 31
0.0
  0
LINE
  5
354
330
1F
100
AcDbEntity
  8
0
  6
Continuous
 62
     7
 48
3.5
370
    15
100
AcDbLine
 10
49.2780389643
 20
29.5458116344
 30
0.0
 11
49.2671659071
 21
29.5395347521
 31
0.0
  0
LINE
  5
355
330
1F
100
AcDbEntity
  8
0
  6
Continuous
 62
     7
 48
3.5
370
    15
100
AcDbLine
 10
49.2373670688
 20
29.5906344754
 30
0.0
 11
49.2482874583
 21
29.5969386821
 31
0.0
  0
LINE
  5
356
330
1F
100
AcDbEntity
  8
0
  6
Continuous
 62
     7
 48
3.5
370
    15
100
AcDbLine
 10
49.3334292985
 20
29.4878830282
 30
0.0
 11
49.3231778035
 21
29.5054624235
 31
0.0
  0
LINE
  5
357
330
1F
100
AcDbEntity
  8
0
  6
Continuous
 62
     7
 48
3.5
370
    15
100
AcDbLine
 10
49.2352684793
 20
29.6562110208
 30
0.0
 11
49.2251830828
 21
29.6735057431
 31
0.0
  0
ARC
  5
358
330
1F
100
AcDbEntity
  8
0
  6
Continuous
 62
     7
 48
12.25
370
    15
100
AcDbCircle
 10
49.4121595476
 20
26.2340164406
 30
0.0
 40
0.1769722040579933
100
AcDbArc
 50
174.6747752338
 51
202.0529837494
  0
ARC
  5
359
330
1F
100
AcDbEntity
  8
0
  6
Continuous
 62
     7
 48
12.25
370
    15
100
AcDbCircle
 10
49.2488089693
 20
26.2165771647
 30
0.0
 40
0.0362227206264185
100
AcDbArc
 50
110.7913065597
 51
130.7106585911
  0
ARC
  5
35A
330
1F
100
AcDbEntity
  8
0
  6
Continuous
 62
     7
 48
12.25
370
    15
100
AcDbCircle
 10
49.401392126
 20
26.2276098167
 30
0.0
 40
0.1769728673246914
100
AcDbArc
 50
174.6747832185
 51
202.0529424007
  0
ARC
  5
35B
330
1F
100
AcDbEntity
  8
0
  6
Continuous
 62
     7
 48
12.25
370
    15
100
AcDbCircle
 10
49.3767320447
 20
26.1513204581
 30
0.0
 40
0.1397121060571383
100
AcDbArc
 50
175.9602287216
 51
189.7285142998
  0
ARC
  5
35C
330
1F
100
AcDbEntity
  8
0
  6
Continuous
 62
     7
 48
12.25
370
    15
100
AcDbCircle
 10
49.3260777195
 20
26.2352385225
 30
0.0
 40
0.13834535778366
100
AcDbArc
 50
231.0079423096
 51
244.79669346
  0
ARC
  5
35D
330
1F
100
AcDbEntity
  8
0
  6
Continuous
 62
     7
 48
12.25
370
    15
100
AcDbCircle
 10
49.4069904914
 20
26.2211124947
 30
0.0
 40
0.1785576603760592
100
AcDbArc
 50
218.4567309447
 51
245.6710732015
  0
ARC
  5
35E
330
1F
100
AcDbEntity
  8
0
  6
Continuous
 62
     7
 48
12.25
370
    15
100
AcDbCircle
 10
49.3205753457
 20
26.0922691624
 30
0.0
 40
0.0362154699867226
100
AcDbArc
 50
290.7891475913
 51
310.7127976064
  0
ARC
  5
35F
330
1F
100
AcDbEntity
  8
0
  6
Continuous
 62
     7
 48
12.25
370
    15
100
AcDbCircle
 10
49.4177590173
 20
26.2275197587
 30
0.0
 40
0.1785583230257094
100
AcDbArc
 50
218.4567707953
 51
245.6710649319
  0
ARC
  5
360
330
1F
100
AcDbEntity
  8
0
  6
Continuous
 62
     7
 48
12.25
370
    15
100
AcDbCircle
 10
49.4386835006
 20
26.128474446
 30
0.0
 40
0.1611971158608902
100
AcDbArc
 50
171.7577672748
 51
184.2707855031
  0
ARC
  5
361
330
1F
100
AcDbEntity
  8
0
  6
Continuous
 62
     7
 48
12.25
370
    15
100
AcDbCircle
 10
49.3366573829
 20
26.3012363816
 30
0.0
 40
0.1603213840622679
100
AcDbArc
 50
236.4850293063
 51
248.9801232967
  0
LWPOLYLINE
  5
362
330
1F
100
AcDbEntity
  8
0
  6
Continuous
 62
     7
 48
3.5
370
    15
100
AcDbPolyline
 90
        3
 70
   128
 43
0.0
 10
49.2356048867
 20
26.2743288735
 10
49.2202759203
 20
26.2591574579
 10
49.2115495107
 20
26.2368183949
  0
ARC
  5
363
330
1F
100
AcDbEntity
  8
0
  6
Continuous
 62
     7
 48
12.25
370
    15
100
AcDbCircle
 10
49.3390811187
 20
26.1001978672
 30
0.0
 40
0.0540018695826187
100
AcDbArc
 50
248.6988006198
 51
303.491947961
  0
LINE
  5
364
330
1F
100
AcDbEntity
  8
0
  6
Continuous
 62
     7
 48
3.5
370
    15
100
AcDbLine
 10
49.2390293596
 20
26.2788045639
 30
0.0
 11
49.224214369
 21
26.2645603625
 31
0.0
  0
LWPOLYLINE
  5
365
330
1F
100
AcDbEntity
  8
0
  6
Continuous
 62
     7
 48
3.5
370
    15
100
AcDbPolyline
 90
       15
 70
   128
 43
0.0
 10
49.3498212076
 20
26.0469792967
 10
49.3611231588
 20
26.049060361
 10
49.3787655973
 20
26.0595570989
 10
49.390921997
 20
26.0779504118
 10
49.3966904321
 20
26.102876292
 10
49.3956433152
 20
26.1324861517
 10
49.3878581783
 20
26.164583973
 10
49.3739124457
 20
26.1967891062
 10
49.3548406027
 20
26.2267130643
 10
49.3320569539
 20
26.2521365661
 10
49.3072512313
 20
26.271173918
 10
49.2822631488
 20
26.2824135022
 10
49.2589462138
 20
26.2850213786
 10
49.2390293596
 20
26.2788045639
 10
49.2390293596
 20
26.2788045639
  0
LWPOLYLINE
  5
366
330
1F
100
AcDbEntity
  8
0
  6
Continuous
 62
     7
 48
3.5
370
    15
100
AcDbPolyline
 90
       14
 70
   128
 43
0.0
 10
49.3865608975
 20
26.0624928275
 10
49.395263641
 20
26.0690812168
 10
49.4074200407
 20
26.0874745297
 10
49.4131884758
 20
26.1124004099
 10
49.4121413589
 20
26.1420102696
 10
49.404356222
 20
26.1741080909
 10
49.3904104894
 20
26.2063132241
 10
49.3713386464
 20
26.2362371822
 10
49.3485549976
 20
26.261660684
 10
49.3237492749
 20
26.2806980359
 10
49.2987611925
 20
26.2919376201
 10
49.2754442575
 20
26.2945454965
 10
49.2555274033
 20
26.2883286818
 10
49.2555274033
 20
26.2883286818
  0
LINE
  5
367
330
1F
100
AcDbEntity
  8
0
  6
Continuous
 62
     7
 48
3.5
370
    15
100
AcDbLine
 10
49.2776520305
 20
26.1356216564
 30
0.0
 11
49.2650969365
 21
26.1427605782
 31
0.0
  0
LINE
  5
368
330
1F
100
AcDbEntity
  8
0
  6
Continuous
 62
     7
 48
3.5
370
    15
100
AcDbLine
 10
49.2650969365
 20
26.1427605782
 30
0.0
 11
49.264999223
 21
26.1578305364
 31
0.0
  0
LINE
  5
369
330
1F
100
AcDbEntity
  8
0
  6
Continuous
 62
     7
 48
3.5
370
    15
100
AcDbLine
 10
49.2650969365
 20
26.1427605782
 30
0.0
 11
49.2390290692
 21
26.1277119187
 31
0.0
  0
LINE
  5
36A
330
1F
100
AcDbEntity
  8
0
  6
Continuous
 62
     7
 48
3.5
370
    15
100
AcDbLine
 10
49.2780389643
 20
26.1163401821
 30
0.0
 11
49.2671659071
 21
26.1100632997
 31
0.0
  0
LINE
  5
36B
330
1F
100
AcDbEntity
  8
0
  6
Continuous
 62
     7
 48
3.5
370
    15
100
AcDbLine
 10
49.2373670688
 20
26.1611630231
 30
0.0
 11
49.2482874583
 21
26.1674672298
 31
0.0
  0
LINE
  5
36C
330
1F
100
AcDbEntity
  8
0
  6
Continuous
 62
     7
 48
3.5
370
    15
100
AcDbLine
 10
49.3334292985
 20
26.0584115759
 30
0.0
 11
49.3231778035
 21
26.0759911388
 31
0.0
  0
LINE
  5
36D
330
1F
100
AcDbEntity
  8
0
  6
Continuous
 62
     7
 48
3.5
370
    15
100
AcDbLine
 10
49.2352684793
 20
26.2267397361
 30
0.0
 11
49.2251830828
 21
26.2440344584
 31
0.0
  0
ARC
  5
36E
330
1F
100
AcDbEntity
  8
0
  6
Continuous
 62
     7
 48
12.25
370
    15
100
AcDbCircle
 10
44.4590502931
 20
32.410338924
 30
0.0
 40
0.1475365874781895
100
AcDbArc
 50
295.2918128426
 51
301.0315777262
  0
ARC
  5
36F
330
1F
100
AcDbEntity
  8
0
  6
Continuous
 62
     7
 48
12.25
370
    15
100
AcDbCircle
 10
44.6900787349
 20
32.3605987788
 30
0.0
 40
0.1866488843476866
100
AcDbArc
 50
206.4192000309
 51
213.084095785
  0
LWPOLYLINE
  5
370
330
1F
100
AcDbEntity
  8
0
  6
Continuous
 62
     7
 48
3.5
370
    15
100
AcDbPolyline
 90
        9
 70
   128
 43
0.0
 10
44.5336911834
 20
32.2587128633
 10
44.5329710365
 20
32.2582246606
 10
44.532898441
 20
32.2581064685
 10
44.5334739778
 20
32.2583589538
 10
44.5346948882
 20
32.2589805198
 10
44.5365553646
 20
32.2599684803
 10
44.5390469859
 20
32.2613186401
 10
44.5421584272
 20
32.2630242893
 10
44.5458750243
 20
32.2650779639
  0
ARC
  5
371
330
1F
100
AcDbEntity
  8
0
  6
Continuous
 62
     7
 48
12.25
370
    15
100
AcDbCircle
 10
44.63663421
 20
32.3982852665
 30
0.0
 40
0.1611875158790051
100
AcDbArc
 50
235.7319119423
 51
248.244761098
  0
ARC
  5
372
330
1F
100
AcDbEntity
  8
0
  6
Continuous
 62
     7
 48
12.25
370
    15
100
AcDbCircle
 10
44.7135498369
 20
32.2702098083
 30
0.0
 40
0.1383599810061337
100
AcDbArc
 50
175.2061470761
 51
188.9946815037
  0
ARC
  5
373
330
1F
100
AcDbEntity
  8
0
  6
Continuous
 62
     7
 48
12.25
370
    15
100
AcDbCircle
 10
35.9653278997
 20
47.5395000188
 30
0.0
 40
17.51959762997932
100
AcDbArc
 50
299.4372061578
 51
299.6863452856
  0
ARC
  5
374
330
1F
100
AcDbEntity
  8
0
  6
Continuous
 62
     7
 48
12.25
370
    15
100
AcDbCircle
 10
44.4747663229
 20
32.2363033947
 30
0.0
 40
0.1866657340735517
100
AcDbArc
 50
26.4190583761
 51
33.0833520603
  0
ARC
  5
375
330
1F
100
AcDbEntity
  8
0
  6
Continuous
 62
     7
 48
12.25
370
    15
100
AcDbCircle
 10
35.9545598152
 20
47.5583393393
 30
0.0
 40
17.51959763056698
100
AcDbArc
 50
299.4372061578
 51
299.6863452856
  0
ARC
  5
376
330
1F
100
AcDbEntity
  8
0
  6
Continuous
 62
     7
 48
12.25
370
    15
100
AcDbCircle
 10
44.6260510582
 20
32.4262151868
 30
0.0
 40
0.1396957606638778
100
AcDbArc
 50
230.2738949161
 51
244.0425728687
  0
ARC
  5
377
330
1F
100
AcDbEntity
  8
0
  6
Continuous
 62
     7
 48
12.25
370
    15
100
AcDbCircle
 10
44.6951370503
 20
32.2937548801
 30
0.0
 40
0.1603322004398391
100
AcDbArc
 50
171.0225632516
 51
183.5177401207
  0
LINE
  5
378
330
1F
100
AcDbEntity
  8
0
  6
Continuous
 62
     7
 48
3.5
370
    15
100
AcDbLine
 10
44.6027136378
 20
32.297382411
 30
0.0
 11
44.5756738625
 21
32.2817726809
 31
0.0
  0
LINE
  5
379
330
1F
100
AcDbEntity
  8
0
  6
Continuous
 62
     7
 48
3.5
370
    15
100
AcDbLine
 10
44.6419373991
 20
32.3193571578
 30
0.0
 11
44.6027136378
 21
32.297382411
 31
0.0
  0
LWPOLYLINE
  5
37A
330
1F
100
AcDbEntity
  8
0
  6
Continuous
 62
     7
 48
3.5
370
    15
100
AcDbPolyline
 90
       14
 70
   128
 43
0.0
 10
44.667802725
 20
32.1969971533
 10
44.6716524621
 20
32.1994985992
 10
44.6855980495
 20
32.215602416
 10
44.6933830412
 20
32.2387117935
 10
44.6944301581
 20
32.2671126778
 10
44.688661723
 20
32.2986986513
 10
44.6765054685
 20
32.3311273608
 10
44.65886303
 20
32.3619936246
 10
44.6370428681
 20
32.3890081531
 10
44.6126632808
 20
32.4101673801
 10
44.5875323305
 20
32.4239020836
 10
44.5635139782
 20
32.4291937294
 10
44.542389426
 20
32.4256496548
 10
44.5372633155
 20
32.4231225208
  0
LWPOLYLINE
  5
37B
330
1F
100
AcDbEntity
  8
0
  6
Continuous
 62
     7
 48
3.5
370
    15
100
AcDbPolyline
 90
       14
 70
   128
 43
0.0
 10
44.6843007687
 20
32.2065212712
 10
44.6881505058
 20
32.2090227171
 10
44.7020960932
 20
32.2251265339
 10
44.7098810849
 20
32.2482359114
 10
44.7109282018
 20
32.2766367957
 10
44.7051597667
 20
32.3082227692
 10
44.6930035122
 20
32.3406514787
 10
44.6753610737
 20
32.3715177425
 10
44.6535409118
 20
32.398532271
 10
44.6291613245
 20
32.419691498
 10
44.6040303742
 20
32.4334262015
 10
44.5800120218
 20
32.4387178473
 10
44.5588874696
 20
32.4351737727
 10
44.5537613592
 20
32.4326466387
  0
LINE
  5
37C
330
1F
100
AcDbEntity
  8
0
  6
Continuous
 62
     7
 48
3.5
370
    15
100
AcDbLine
 10
44.6027136378
 20
32.297382411
 30
0.0
 11
44.6027952351
 21
32.3098641176
 31
0.0
  0
LINE
  5
37D
330
1F
100
AcDbEntity
  8
0
  6
Continuous
 62
     7
 48
3.5
370
    15
100
AcDbLine
 10
44.6027952351
 20
32.3098641176
 30
0.0
 11
44.5922225778
 21
32.3160592933
 31
0.0
  0
LINE
  5
37E
330
1F
100
AcDbEntity
  8
0
  6
Continuous
 62
     7
 48
3.5
370
    15
100
AcDbLine
 10
44.5755295427
 20
32.2796997407
 30
0.0
 11
44.5625329231
 21
32.2873153654
 31
0.0
  0
LINE
  5
37F
330
1F
100
AcDbEntity
  8
0
  6
Continuous
 62
     7
 48
3.5
370
    15
100
AcDbLine
 10
44.5625329231
 20
32.2873153654
 30
0.0
 11
44.5626272972
 21
32.3017645764
 31
0.0
  0
LINE
  5
380
330
1F
100
AcDbEntity
  8
0
  6
Continuous
 62
     7
 48
3.5
370
    15
100
AcDbLine
 10
44.5625329231
 20
32.2873153654
 30
0.0
 11
44.562065118
 21
32.2870453072
 31
0.0
  0
LINE
  5
381
330
1F
100
AcDbEntity
  8
0
  6
Continuous
 62
     7
 48
3.5
370
    15
100
AcDbLine
 10
44.5621467153
 20
32.2995270139
 30
0.0
 11
44.562065118
 21
32.2870453072
 31
0.0
  0
LINE
  5
382
330
1F
100
AcDbEntity
  8
0
  6
Continuous
 62
     7
 48
3.5
370
    15
100
AcDbLine
 10
44.5621467153
 20
32.2995270139
 30
0.0
 11
44.53510694
 21
32.2839172839
 31
0.0
  0
LINE
  5
383
330
1F
100
AcDbEntity
  8
0
  6
Continuous
 62
     7
 48
3.5
370
    15
100
AcDbLine
 10
44.5458750243
 20
32.2650779639
 30
0.0
 11
44.5729147995
 21
32.2806876939
 31
0.0
  0
LINE
  5
384
330
1F
100
AcDbEntity
  8
0
  6
Continuous
 62
     7
 48
3.5
370
    15
100
AcDbLine
 10
44.562065118
 20
32.2870453072
 30
0.0
 11
44.5729147995
 21
32.2806876939
 31
0.0
  0
LINE
  5
385
330
1F
100
AcDbEntity
  8
0
  6
Continuous
 62
     7
 48
3.5
370
    15
100
AcDbLine
 10
44.5729147995
 20
32.2806876939
 30
0.0
 11
44.5336911834
 21
32.2587128633
 31
0.0
  0
LINE
  5
386
330
1F
100
AcDbEntity
  8
0
  6
Continuous
 62
     7
 48
3.5
370
    15
100
AcDbLine
 10
34.9311076846
 20
21.8444356404
 30
0.0
 11
34.9311076846
 21
21.4214356736
 31
0.0
  0
LINE
  5
387
330
1F
100
AcDbEntity
  8
0
  6
Continuous
 62
     7
 48
3.5
370
    15
100
AcDbLine
 10
34.9311076846
 20
21.4214356736
 30
0.0
 11
25.9931078438
 21
21.4214356736
 31
0.0
  0
LINE
  5
388
330
1F
100
AcDbEntity
  8
0
  6
Continuous
 62
     7
 48
3.5
370
    15
100
AcDbLine
 10
25.9931078438
 20
21.8444356404
 30
0.0
 11
25.9931078438
 21
21.4214356736
 31
0.0
  0
LINE
  5
389
330
1F
100
AcDbEntity
  8
0
  6
Continuous
 62
     7
 48
3.5
370
    15
100
AcDbLine
 10
34.9311076846
 20
21.9214359242
 30
0.0
 11
34.9311076846
 21
21.8444356404
 31
0.0
  0
LINE
  5
38A
330
1F
100
AcDbEntity
  8
0
  6
Continuous
 62
     7
 48
3.5
370
    15
100
AcDbLine
 10
25.9931078438
 20
21.9214359242
 30
0.0
 11
25.9931078438
 21
21.8444356404
 31
0.0
  0
LINE
  5
38B
330
1F
100
AcDbEntity
  8
0
  6
Continuous
 62
     7
 48
3.5
370
    15
100
AcDbLine
 10
25.9931078438
 20
21.9214359242
 30
0.0
 11
34.9311076846
 21
21.9214359242
 31
0.0
  0
LINE
  5
38C
330
1F
100
AcDbEntity
  8
0
  6
Continuous
 62
     7
 48
3.5
370
    15
100
AcDbLine
 10
25.9931078438
 20
21.9214359242
 30
0.0
 11
25.9621078553
 21
21.9214359242
 31
0.0
  0
LINE
  5
38D
330
1F
100
AcDbEntity
  8
0
  6
Continuous
 62
     7
 48
3.5
370
    15
100
AcDbLine
 10
25.9931078438
 20
21.8594359471
 30
0.0
 11
25.9621078553
 21
21.8594359471
 31
0.0
  0
LINE
  5
38E
330
1F
100
AcDbEntity
  8
0
  6
Continuous
 62
     7
 48
3.5
370
    15
100
AcDbLine
 10
34.9311076846
 20
21.9214359242
 30
0.0
 11
34.9621076732
 21
21.9214359242
 31
0.0
  0
LINE
  5
38F
330
1F
100
AcDbEntity
  8
0
  6
Continuous
 62
     7
 48
3.5
370
    15
100
AcDbLine
 10
34.9311076846
 20
21.8594359471
 30
0.0
 11
34.9621076732
 21
21.8594359471
 31
0.0
  0
LINE
  5
390
330
1F
100
AcDbEntity
  8
0
  6
Continuous
 62
     7
 48
3.5
370
    15
100
AcDbLine
 10
25.9621078553
 20
21.4834356507
 30
0.0
 11
25.9931078438
 21
21.4834356507
 31
0.0
  0
LINE
  5
391
330
1F
100
AcDbEntity
  8
0
  6
Continuous
 62
     7
 48
3.5
370
    15
100
AcDbLine
 10
34.9311076846
 20
21.4834356507
 30
0.0
 11
34.9621076732
 21
21.4834356507
 31
0.0
  0
LINE
  5
392
330
1F
100
AcDbEntity
  8
0
  6
Continuous
 62
     7
 48
3.5
370
    15
100
AcDbLine
 10
34.9311076846
 20
11.9984358889
 30
0.0
 11
34.9311076846
 21
12.4214358557
 31
0.0
  0
LINE
  5
393
330
1F
100
AcDbEntity
  8
0
  6
Continuous
 62
     7
 48
3.5
370
    15
100
AcDbLine
 10
25.9931078438
 20
11.9984358889
 30
0.0
 11
25.9931078438
 21
12.4214358557
 31
0.0
  0
LINE
  5
394
330
1F
100
AcDbEntity
  8
0
  6
Continuous
 62
     7
 48
3.5
370
    15
100
AcDbLine
 10
25.9931078438
 20
12.4214358557
 30
0.0
 11
34.9311076846
 21
12.4214358557
 31
0.0
  0
LINE
  5
395
330
1F
100
AcDbEntity
  8
0
  6
Continuous
 62
     7
 48
3.5
370
    15
100
AcDbLine
 10
34.9311076846
 20
11.9214356051
 30
0.0
 11
34.9311076846
 21
11.9984358889
 31
0.0
  0
LINE
  5
396
330
1F
100
AcDbEntity
  8
0
  6
Continuous
 62
     7
 48
3.5
370
    15
100
AcDbLine
 10
34.9311076846
 20
11.9214356051
 30
0.0
 11
25.9931078438
 21
11.9214356051
 31
0.0
  0
LINE
  5
397
330
1F
100
AcDbEntity
  8
0
  6
Continuous
 62
     7
 48
3.5
370
    15
100
AcDbLine
 10
25.9931078438
 20
11.9214356051
 30
0.0
 11
25.9931078438
 21
11.9984358889
 31
0.0
  0
LINE
  5
398
330
1F
100
AcDbEntity
  8
0
  6
Continuous
 62
     7
 48
3.5
370
    15
100
AcDbLine
 10
25.9931078438
 20
11.9214356051
 30
0.0
 11
25.9621078553
 21
11.9214356051
 31
0.0
  0
LINE
  5
399
330
1F
100
AcDbEntity
  8
0
  6
Continuous
 62
     7
 48
3.5
370
    15
100
AcDbLine
 10
25.9931078438
 20
11.9834355822
 30
0.0
 11
25.9621078553
 21
11.9834355822
 31
0.0
  0
LINE
  5
39A
330
1F
100
AcDbEntity
  8
0
  6
Continuous
 62
     7
 48
3.5
370
    15
100
AcDbLine
 10
34.9311076846
 20
11.9214356051
 30
0.0
 11
34.9621076732
 21
11.9214356051
 31
0.0
  0
LINE
  5
39B
330
1F
100
AcDbEntity
  8
0
  6
Continuous
 62
     7
 48
3.5
370
    15
100
AcDbLine
 10
34.9311076846
 20
11.9834355822
 30
0.0
 11
34.9621076732
 21
11.9834355822
 31
0.0
  0
LINE
  5
39C
330
1F
100
AcDbEntity
  8
0
  6
Continuous
 62
     7
 48
3.5
370
    15
100
AcDbLine
 10
34.9621076732
 20
12.3594358786
 30
0.0
 11
34.9311076846
 21
12.3594358786
 31
0.0
  0
LINE
  5
39D
330
1F
100
AcDbEntity
  8
0
  6
Continuous
 62
     7
 48
3.5
370
    15
100
AcDbLine
 10
25.9931078438
 20
12.3594358786
 30
0.0
 11
25.9621078553
 21
12.3594358786
 31
0.0
  0
LINE
  5
39E
330
1F
100
AcDbEntity
  8
0
  6
Continuous
 62
     7
 48
3.5
370
    15
100
AcDbLine
 10
34.9621076732
 20
21.9214359242
 30
0.0
 11
34.9621076732
 21
11.9214356051
 31
0.0
  0
LINE
  5
39F
330
1F
100
AcDbEntity
  8
0
  6
Continuous
 62
     7
 48
3.5
370
    15
100
AcDbLine
 10
34.9621076732
 20
21.9214359242
 30
0.0
 11
35.38510764
 21
21.9214359242
 31
0.0
  0
LINE
  5
3A0
330
1F
100
AcDbEntity
  8
0
  6
Continuous
 62
     7
 48
3.5
370
    15
100
AcDbLine
 10
34.9621076732
 20
11.9214356051
 30
0.0
 11
35.38510764
 21
11.9214356051
 31
0.0
  0
CIRCLE
  5
3A1
330
1F
100
AcDbEntity
  8
0
  6
Continuous
 62
     7
 48
12.25
370
    15
100
AcDbCircle
 10
35.2121077642
 20
13.9214357647
 30
0.0
 40
0.085000000000008
  0
CIRCLE
  5
3A2
330
1F
100
AcDbEntity
  8
0
  6
Continuous
 62
     7
 48
12.25
370
    15
100
AcDbCircle
 10
35.2121077642
 20
19.9214357647
 30
0.0
 40
0.085000000000008
  0
LINE
  5
3A3
330
1F
100
AcDbEntity
  8
0
  6
Continuous
 62
     7
 48
3.5
370
    15
100
AcDbLine
 10
25.5391078885
 20
21.9214359242
 30
0.0
 11
25.9621078553
 21
21.9214359242
 31
0.0
  0
LINE
  5
3A4
330
1F
100
AcDbEntity
  8
0
  6
Continuous
 62
     7
 48
3.5
370
    15
100
AcDbLine
 10
25.9621078553
 20
21.9214359242
 30
0.0
 11
25.9621078553
 21
11.9214356051
 31
0.0
  0
LINE
  5
3A5
330
1F
100
AcDbEntity
  8
0
  6
Continuous
 62
     7
 48
3.5
370
    15
100
AcDbLine
 10
25.5391078885
 20
11.9214356051
 30
0.0
 11
25.9621078553
 21
11.9214356051
 31
0.0
  0
CIRCLE
  5
3A6
330
1F
100
AcDbEntity
  8
0
  6
Continuous
 62
     7
 48
12.25
370
    15
100
AcDbCircle
 10
25.7121077642
 20
19.9214357647
 30
0.0
 40
0.0850000000000009
  0
CIRCLE
  5
3A7
330
1F
100
AcDbEntity
  8
0
  6
Continuous
 62
     7
 48
12.25
370
    15
100
AcDbCircle
 10
25.7121077642
 20
13.9214357647
 30
0.0
 40
0.0850000000000009
  0
LINE
  5
3A8
330
1F
100
AcDbEntity
  8
0
  6
Continuous
 62
     7
 48
3.5
370
    15
100
AcDbLine
 10
25.4621076046
 20
21.9214359242
 30
0.0
 11
25.4621076046
 21
11.9214356051
 31
0.0
  0
LINE
  5
3A9
330
1F
100
AcDbEntity
  8
0
  6
Continuous
 62
     7
 48
3.5
370
    15
100
AcDbLine
 10
25.4621076046
 20
21.9214359242
 30
0.0
 11
25.5391078885
 21
21.9214359242
 31
0.0
  0
LINE
  5
3AA
330
1F
100
AcDbEntity
  8
0
  6
Continuous
 62
     7
 48
3.5
370
    15
100
AcDbLine
 10
25.4621076046
 20
11.9214356051
 30
0.0
 11
25.5391078885
 21
11.9214356051
 31
0.0
  0
LINE
  5
3AB
330
1F
100
AcDbEntity
  8
0
  6
Continuous
 62
     7
 48
3.5
370
    15
100
AcDbLine
 10
35.4621079238
 20
21.9214359242
 30
0.0
 11
35.4621079238
 21
11.9214356051
 31
0.0
  0
LINE
  5
3AC
330
1F
100
AcDbEntity
  8
0
  6
Continuous
 62
     7
 48
3.5
370
    15
100
AcDbLine
 10
35.38510764
 20
11.9214356051
 30
0.0
 11
35.4621079238
 21
11.9214356051
 31
0.0
  0
LINE
  5
3AD
330
1F
100
AcDbEntity
  8
0
  6
Continuous
 62
     7
 48
3.5
370
    15
100
AcDbLine
 10
35.38510764
 20
21.9214359242
 30
0.0
 11
35.4621079238
 21
21.9214359242
 31
0.0
  0
CIRCLE
  5
3AE
330
1F
100
AcDbEntity
  8
0
  6
Continuous
 62
     7
 48
12.25
370
    15
100
AcDbCircle
 10
27.4621077642
 20
19.9214357647
 30
0.0
 40
0.0850000000000009
  0
CIRCLE
  5
3AF
330
1F
100
AcDbEntity
  8
0
  6
Continuous
 62
     7
 48
12.25
370
    15
100
AcDbCircle
 10
27.4621077642
 20
19.9214357647
 30
0.0
 40
0.6416128499307305
  0
ARC
  5
3B0
330
1F
100
AcDbEntity
  8
0
  6
Continuous
 62
     7
 48
12.25
370
    15
100
AcDbCircle
 10
34.9621077642
 20
20.4214357647
 30
0.0
 40
0.140500000000003
100
AcDbArc
 50
90.0
 51
180.0
  0
ARC
  5
3B1
330
1F
100
AcDbEntity
  8
0
  6
Continuous
 62
     7
 48
12.25
370
    15
100
AcDbCircle
 10
34.9621077642
 20
20.4214357647
 30
0.0
 40
0.1404999999999994
100
AcDbArc
 50
180.0
 51
270.0
  0
ARC
  5
3B2
330
1F
100
AcDbEntity
  8
0
  6
Continuous
 62
     7
 48
12.25
370
    15
100
AcDbCircle
 10
25.9621077642
 20
20.4214357647
 30
0.0
 40
0.1404999999999994
100
AcDbArc
 50
270.0
 51
0.0
  0
ARC
  5
3B3
330
1F
100
AcDbEntity
  8
0
  6
Continuous
 62
     7
 48
12.25
370
    15
100
AcDbCircle
 10
25.9621077642
 20
20.4214357647
 30
0.0
 40
0.140500000000003
100
AcDbArc
 50
0.0
 51
90.0
  0
ARC
  5
3B4
330
1F
100
AcDbEntity
  8
0
  6
Continuous
 62
     7
 48
12.25
370
    15
100
AcDbCircle
 10
25.9621077642
 20
13.4214357647
 30
0.0
 40
0.1405000000000012
100
AcDbArc
 50
270.0
 51
90.0
  0
ARC
  5
3B5
330
1F
100
AcDbEntity
  8
0
  6
Continuous
 62
     7
 48
12.25
370
    15
100
AcDbCircle
 10
34.9621077642
 20
13.4214357647
 30
0.0
 40
0.1405000000000012
100
AcDbArc
 50
90.0
 51
270.0
  0
LINE
  5
3B6
330
1F
100
AcDbEntity
  8
0
  6
HIDDEN
 62
     7
 48
3.5
370
     0
100
AcDbLine
 10
25.9931078438
 20
21.8594359471
 30
0.0
 11
34.9311076846
 21
21.8594359471
 31
0.0
  0
LINE
  5
3B7
330
1F
100
AcDbEntity
  8
0
  6
HIDDEN
 62
     7
 48
3.5
370
     0
100
AcDbLine
 10
25.9621078553
 20
21.8594359471
 30
0.0
 11
25.6011078656
 21
21.8594359471
 31
0.0
  0
LINE
  5
3B8
330
1F
100
AcDbEntity
  8
0
  6
HIDDEN
 62
     7
 48
3.5
370
     0
100
AcDbLine
 10
34.9621076732
 20
21.8594359471
 30
0.0
 11
35.3231076629
 21
21.8594359471
 31
0.0
  0
LINE
  5
3B9
330
1F
100
AcDbEntity
  8
0
  6
HIDDEN
 62
     7
 48
3.5
370
     0
100
AcDbLine
 10
35.4001079467
 20
21.4834356507
 30
0.0
 11
35.3381076763
 21
21.4834356507
 31
0.0
  0
LINE
  5
3BA
330
1F
100
AcDbEntity
  8
0
  6
HIDDEN
 62
     7
 48
3.5
370
     0
100
AcDbLine
 10
35.3381076763
 20
21.4834356507
 30
0.0
 11
35.3381076763
 21
21.8444356404
 31
0.0
  0
ARC
  5
3BB
330
1F
100
AcDbEntity
  8
0
  6
HIDDEN
 62
     7
 48
12.25
370
     0
100
AcDbCircle
 10
25.6011077642
 20
21.8444357647
 30
0.0
 40
0.0770000000000053
100
AcDbArc
 50
90.0
 51
180.0
  0
ARC
  5
3BC
330
1F
100
AcDbEntity
  8
0
  6
HIDDEN
 62
     7
 48
12.25
370
     0
100
AcDbCircle
 10
25.6011077642
 20
21.8444357647
 30
0.0
 40
0.0150000000000041
100
AcDbArc
 50
90.0
 51
180.0
  0
LINE
  5
3BD
330
1F
100
AcDbEntity
  8
0
  6
HIDDEN
 62
     7
 48
3.5
370
     0
100
AcDbLine
 10
25.5241075818
 20
21.4834356507
 30
0.0
 11
25.5861078522
 21
21.4834356507
 31
0.0
  0
LINE
  5
3BE
330
1F
100
AcDbEntity
  8
0
  6
HIDDEN
 62
     7
 48
3.5
370
     0
100
AcDbLine
 10
25.5861078522
 20
21.4834356507
 30
0.0
 11
25.5861078522
 21
21.8444356404
 31
0.0
  0
ARC
  5
3BF
330
1F
100
AcDbEntity
  8
0
  6
HIDDEN
 62
     7
 48
12.25
370
     0
100
AcDbCircle
 10
35.3231077642
 20
21.8444357647
 30
0.0
 40
0.0150000000000006
100
AcDbArc
 50
0.0
 51
90.0
  0
ARC
  5
3C0
330
1F
100
AcDbEntity
  8
0
  6
HIDDEN
 62
     7
 48
12.25
370
     0
100
AcDbCircle
 10
35.3231077642
 20
21.8444357647
 30
0.0
 40
0.0770000000000053
100
AcDbArc
 50
0.0
 51
90.0
  0
LINE
  5
3C1
330
1F
100
AcDbEntity
  8
0
  6
HIDDEN
 62
     7
 48
3.5
370
     0
100
AcDbLine
 10
35.3231076629
 20
21.8594359471
 30
0.0
 11
35.3231076629
 21
21.9214359242
 31
0.0
  0
LINE
  5
3C2
330
1F
100
AcDbEntity
  8
0
  6
HIDDEN
 62
     7
 48
3.5
370
     0
100
AcDbLine
 10
25.6011078656
 20
21.8444356404
 30
0.0
 11
25.6011078656
 21
21.8594359471
 31
0.0
  0
LINE
  5
3C3
330
1F
100
AcDbEntity
  8
0
  6
HIDDEN
 62
     7
 48
3.5
370
     0
100
AcDbLine
 10
35.3231076629
 20
21.8444356404
 30
0.0
 11
35.3231076629
 21
21.8594359471
 31
0.0
  0
LINE
  5
3C4
330
1F
100
AcDbEntity
  8
0
  6
HIDDEN
 62
     7
 48
3.5
370
     0
100
AcDbLine
 10
25.6011078656
 20
21.8594359471
 30
0.0
 11
25.6011078656
 21
21.9214359242
 31
0.0
  0
LINE
  5
3C5
330
1F
100
AcDbEntity
  8
0
  6
HIDDEN
 62
     7
 48
3.5
370
     0
100
AcDbLine
 10
25.6011078656
 20
21.4834356507
 30
0.0
 11
25.9621078553
 21
21.4834356507
 31
0.0
  0
LINE
  5
3C6
330
1F
100
AcDbEntity
  8
0
  6
HIDDEN
 62
     7
 48
3.5
370
     0
100
AcDbLine
 10
25.9931078438
 20
21.4834356507
 30
0.0
 11
34.9311076846
 21
21.4834356507
 31
0.0
  0
LINE
  5
3C7
330
1F
100
AcDbEntity
  8
0
  6
HIDDEN
 62
     7
 48
3.5
370
     0
100
AcDbLine
 10
34.9621076732
 20
21.4834356507
 30
0.0
 11
35.3231076629
 21
21.4834356507
 31
0.0
  0
LINE
  5
3C8
330
1F
100
AcDbEntity
  8
0
  6
HIDDEN
 62
     7
 48
3.5
370
     0
100
AcDbLine
 10
25.6011078656
 20
21.4834356507
 30
0.0
 11
25.6011078656
 21
21.8444356404
 31
0.0
  0
LINE
  5
3C9
330
1F
100
AcDbEntity
  8
0
  6
HIDDEN
 62
     7
 48
3.5
370
     0
100
AcDbLine
 10
35.3231076629
 20
21.4834356507
 30
0.0
 11
35.3231076629
 21
21.8444356404
 31
0.0
  0
LINE
  5
3CA
330
1F
100
AcDbEntity
  8
0
  6
HIDDEN
 62
     7
 48
3.5
370
     0
100
AcDbLine
 10
34.9311076846
 20
11.9834355822
 30
0.0
 11
25.9931078438
 21
11.9834355822
 31
0.0
  0
LINE
  5
3CB
330
1F
100
AcDbEntity
  8
0
  6
HIDDEN
 62
     7
 48
3.5
370
     0
100
AcDbLine
 10
25.9621078553
 20
11.9834355822
 30
0.0
 11
25.6011078656
 21
11.9834355822
 31
0.0
  0
LINE
  5
3CC
330
1F
100
AcDbEntity
  8
0
  6
HIDDEN
 62
     7
 48
3.5
370
     0
100
AcDbLine
 10
34.9621076732
 20
11.9834355822
 30
0.0
 11
35.3231076629
 21
11.9834355822
 31
0.0
  0
LINE
  5
3CD
330
1F
100
AcDbEntity
  8
0
  6
HIDDEN
 62
     7
 48
3.5
370
     0
100
AcDbLine
 10
25.5861078522
 20
12.3594358786
 30
0.0
 11
25.5861078522
 21
11.9984358889
 31
0.0
  0
LINE
  5
3CE
330
1F
100
AcDbEntity
  8
0
  6
HIDDEN
 62
     7
 48
3.5
370
     0
100
AcDbLine
 10
25.5241075818
 20
12.3594358786
 30
0.0
 11
25.5861078522
 21
12.3594358786
 31
0.0
  0
LINE
  5
3CF
330
1F
100
AcDbEntity
  8
0
  6
HIDDEN
 62
     7
 48
3.5
370
     0
100
AcDbLine
 10
35.3381076763
 20
12.3594358786
 30
0.0
 11
35.3381076763
 21
11.9984358889
 31
0.0
  0
LINE
  5
3D0
330
1F
100
AcDbEntity
  8
0
  6
HIDDEN
 62
     7
 48
3.5
370
     0
100
AcDbLine
 10
35.4001079467
 20
12.3594358786
 30
0.0
 11
35.3381076763
 21
12.3594358786
 31
0.0
  0
ARC
  5
3D1
330
1F
100
AcDbEntity
  8
0
  6
HIDDEN
 62
     7
 48
12.25
370
     0
100
AcDbCircle
 10
25.6011077642
 20
11.9984357647
 30
0.0
 40
0.0150000000000006
100
AcDbArc
 50
180.0
 51
270.0
  0
ARC
  5
3D2
330
1F
100
AcDbEntity
  8
0
  6
HIDDEN
 62
     7
 48
12.25
370
     0
100
AcDbCircle
 10
25.6011077642
 20
11.9984357647
 30
0.0
 40
0.0770000000000053
100
AcDbArc
 50
180.0
 51
270.0
  0
ARC
  5
3D3
330
1F
100
AcDbEntity
  8
0
  6
HIDDEN
 62
     7
 48
12.25
370
     0
100
AcDbCircle
 10
35.3231077642
 20
11.9984357647
 30
0.0
 40
0.077
100
AcDbArc
 50
270.0
 51
360.0
  0
ARC
  5
3D4
330
1F
100
AcDbEntity
  8
0
  6
HIDDEN
 62
     7
 48
12.25
370
     0
100
AcDbCircle
 10
35.3231077642
 20
11.9984357647
 30
0.0
 40
0.0150000000000006
100
AcDbArc
 50
270.0
 51
360.0
  0
LINE
  5
3D5
330
1F
100
AcDbEntity
  8
0
  6
HIDDEN
 62
     7
 48
3.5
370
     0
100
AcDbLine
 10
35.3231076629
 20
11.9984358889
 30
0.0
 11
35.3231076629
 21
11.9834355822
 31
0.0
  0
LINE
  5
3D6
330
1F
100
AcDbEntity
  8
0
  6
HIDDEN
 62
     7
 48
3.5
370
     0
100
AcDbLine
 10
25.6011078656
 20
11.9984358889
 30
0.0
 11
25.6011078656
 21
11.9834355822
 31
0.0
  0
LINE
  5
3D7
330
1F
100
AcDbEntity
  8
0
  6
HIDDEN
 62
     7
 48
3.5
370
     0
100
AcDbLine
 10
25.6011078656
 20
11.9834355822
 30
0.0
 11
25.6011078656
 21
11.9214356051
 31
0.0
  0
LINE
  5
3D8
330
1F
100
AcDbEntity
  8
0
  6
HIDDEN
 62
     7
 48
3.5
370
     0
100
AcDbLine
 10
35.3231076629
 20
11.9834355822
 30
0.0
 11
35.3231076629
 21
11.9214356051
 31
0.0
  0
LINE
  5
3D9
330
1F
100
AcDbEntity
  8
0
  6
HIDDEN
 62
     7
 48
3.5
370
     0
100
AcDbLine
 10
35.3231076629
 20
12.3594358786
 30
0.0
 11
34.9621076732
 21
12.3594358786
 31
0.0
  0
LINE
  5
3DA
330
1F
100
AcDbEntity
  8
0
  6
HIDDEN
 62
     7
 48
3.5
370
     0
100
AcDbLine
 10
34.9311076846
 20
12.3594358786
 30
0.0
 11
25.9931078438
 21
12.3594358786
 31
0.0
  0
LINE
  5
3DB
330
1F
100
AcDbEntity
  8
0
  6
HIDDEN
 62
     7
 48
3.5
370
     0
100
AcDbLine
 10
25.9621078553
 20
12.3594358786
 30
0.0
 11
25.6011078656
 21
12.3594358786
 31
0.0
  0
LINE
  5
3DC
330
1F
100
AcDbEntity
  8
0
  6
HIDDEN
 62
     7
 48
3.5
370
     0
100
AcDbLine
 10
35.3231076629
 20
12.3594358786
 30
0.0
 11
35.3231076629
 21
11.9984358889
 31
0.0
  0
LINE
  5
3DD
330
1F
100
AcDbEntity
  8
0
  6
HIDDEN
 62
     7
 48
3.5
370
     0
100
AcDbLine
 10
25.6011078656
 20
12.3594358786
 30
0.0
 11
25.6011078656
 21
11.9984358889
 31
0.0
  0
LINE
  5
3DE
330
1F
100
AcDbEntity
  8
0
  6
HIDDEN
 62
     7
 48
3.5
370
     0
100
AcDbLine
 10
25.5241075818
 20
21.9214359242
 30
0.0
 11
25.5241075818
 21
11.9214356051
 31
0.0
  0
LINE
  5
3DF
330
1F
100
AcDbEntity
  8
0
  6
HIDDEN
 62
     7
 48
3.5
370
     0
100
AcDbLine
 10
35.4001079467
 20
21.9214359242
 30
0.0
 11
35.4001079467
 21
11.9214356051
 31
0.0
  0
CIRCLE
  5
3E0
330
1F
100
AcDbEntity
  8
0
  6
HIDDEN
 62
     7
 48
12.25
370
     0
100
AcDbCircle
 10
27.4621077642
 20
19.9214357647
 30
0.0
 40
0.147000000000002
  0
ARC
  5
3E1
330
1F
100
AcDbEntity
  8
0
  6
HIDDEN
 62
     7
 48
12.25
370
     0
100
AcDbCircle
 10
34.9621077642
 20
20.4214357647
 30
0.0
 40
0.140500000000003
100
AcDbArc
 50
270.0
 51
90.0
  0
ARC
  5
3E2
330
1F
100
AcDbEntity
  8
0
  6
HIDDEN
 62
     7
 48
12.25
370
     0
100
AcDbCircle
 10
25.9621077642
 20
20.4214357647
 30
0.0
 40
0.140500000000003
100
AcDbArc
 50
90.0
 51
270.0
  0
ARC
  5
3E3
330
1F
100
AcDbEntity
  8
0
  6
HIDDEN
 62
     7
 48
12.25
370
     0
100
AcDbCircle
 10
25.9621077642
 20
13.4214357647
 30
0.0
 40
0.140500000000003
100
AcDbArc
 50
90.0
 51
180.0
  0
ARC
  5
3E4
330
1F
100
AcDbEntity
  8
0
  6
HIDDEN
 62
     7
 48
12.25
370
     0
100
AcDbCircle
 10
25.9621077642
 20
13.4214357647
 30
0.0
 40
0.140500000000003
100
AcDbArc
 50
180.0
 51
270.0
  0
ARC
  5
3E5
330
1F
100
AcDbEntity
  8
0
  6
HIDDEN
 62
     7
 48
12.25
370
     0
100
AcDbCircle
 10
34.9621077642
 20
13.4214357647
 30
0.0
 40
0.140500000000003
100
AcDbArc
 50
270.0
 51
0.0
  0
ARC
  5
3E6
330
1F
100
AcDbEntity
  8
0
  6
HIDDEN
 62
     7
 48
12.25
370
     0
100
AcDbCircle
 10
34.9621077642
 20
13.4214357647
 30
0.0
 40
0.140500000000003
100
AcDbArc
 50
0.0
 51
90.0
  0
CIRCLE
  5
3E7
330
1F
100
AcDbEntity
  8
0
  6
HIDDEN
 62
     7
 48
12.25
370
     0
100
AcDbCircle
 10
27.4621077642
 20
19.9214357647
 30
0.0
 40
0.625
  0
DIMENSION
  5
3E8
330
1F
100
AcDbEntity
  8
0
  6
Continuous
 62
     7
 48
3.5
370
     0
100
AcDbDimension
  2
*D14
 10
35.4621077642
 20
18.6423838823
 30
0.0
 11
32.8587775324
 21
18.6423838823
 31
0.0
 70
   160
 71
     2
 42
-1.0
  3
SLDDIMSTYLE3
100
AcDbAlignedDimension
 13
34.9621077642
 23
21.9214357647
 33
0.0
 14
35.4621077642
 24
21.9214357647
 34
0.0
100
AcDbRotatedDimension
  0
INSERT
  5
3FD
102
{ACAD_REACTORS
330
3FE
102
}
330
1F
100
AcDbEntity
  8
0
  6
Continuous
 62
     7
 48
3.5
370
     0
100
AcDbBlockReference
  2
SW_NOTE_5
 10
29.4850906867
 20
23.5481419636
 30
0.0
  0
LEADER
  5
3FE
330
1F
100
AcDbEntity
  8
0
  6
Continuous
 62
     7
 48
3.5
370
     0
100
AcDbLeader
  3
SLDDIMSTYLE1
 73
     2
 76
     3
 10
27.6703412244
 20
20.528317858
 30
0.0
 10
28.6100906867
 20
23.5481419636
 30
0.0
 10
29.4850906867
 20
23.5481419636
 30
0.0
340
3FD
  0
MTEXT
  5
3FF
330
1F
100
AcDbEntity
  8
0
  6
Continuous
 62
     7
 48
3.5
370
     0
100
AcDbMText
 10
27.9333296008
 20
11.1541618598
 30
0.0
 40
0.4375
 41
0.0
 71
     1
 72
     1
  1
\LCOVER REMOVED
  7
SLDTEXTSTYLE0
 73
     1
 44
1.0
  0
ENDSEC
  0
SECTION
  2
OBJECTS
  0
DICTIONARY
  5
C
330
0
100
AcDbDictionary
281
     1
  3
ACAD_GROUP
350
D
  3
ACAD_LAYOUT
350
1A
  3
ACAD_MATERIAL
350
3B
  3
ACAD_MLEADERSTYLE
350
402
  3
ACAD_MLINESTYLE
350
17
  3
ACAD_PLOTSETTINGS
350
19
  3
ACAD_PLOTSTYLENAME
350
E
  3
ACAD_SCALELIST
350
58
  3
ACAD_VISUALSTYLE
350
2A
  3
AcDbVariableDictionary
350
400
  0
DICTIONARY
  5
D
102
{ACAD_REACTORS
330
C
102
}
330
C
100
AcDbDictionary
281
     1
  0
DICTIONARY
  5
1A
102
{ACAD_REACTORS
330
C
102
}
330
C
100
AcDbDictionary
281
     1
  3
Layout1
350
1E
  3
Layout2
350
26
  3
Model
350
22
  0
DICTIONARY
  5
3B
102
{ACAD_REACTORS
330
C
102
}
330
C
100
AcDbDictionary
281
     1
  3
ByBlock
350
3D
  3
ByLayer
350
3C
  3
Global
350
3E
  0
DICTIONARY
  5
402
102
{ACAD_REACTORS
330
C
102
}
330
C
100
AcDbDictionary
281
     1
  0
DICTIONARY
  5
17
102
{ACAD_REACTORS
330
C
102
}
330
C
100
AcDbDictionary
281
     1
  3
Standard
350
18
  0
DICTIONARY
  5
19
102
{ACAD_REACTORS
330
C
102
}
330
C
100
AcDbDictionary
281
     1
  0
ACDBDICTIONARYWDFLT
  5
E
102
{ACAD_REACTORS
330
C
102
}
330
C
100
AcDbDictionary
281
     1
  3
Normal
350
F
100
AcDbDictionaryWithDefault
340
F
  0
DICTIONARY
  5
58
102
{ACAD_REACTORS
330
C
102
}
330
C
100
AcDbDictionary
281
     1
  3
A0
350
59
  3
A1
350
5A
  3
A2
350
5B
  3
A3
350
5C
  3
A4
350
5D
  3
A5
350
5E
  3
A6
350
5F
  3
A7
350
60
  3
A8
350
61
  3
A9
350
62
  3
B0
350
63
  3
B1
350
64
  3
B2
350
65
  3
B3
350
66
  3
B4
350
67
  3
B5
350
68
  3
B6
350
69
  3
B7
350
6A
  3
B8
350
6B
  3
B9
350
6C
  3
C0
350
6D
  3
C1
350
6E
  3
C2
350
6F
  3
C3
350
70
  3
C4
350
71
  3
C5
350
72
  3
C6
350
73
  3
C7
350
74
  3
C8
350
75
  3
C9
350
76
  3
D0
350
77
  3
D1
350
78
  3
D2
350
79
  0
DICTIONARY
  5
2A
102
{ACAD_REACTORS
330
C
102
}
330
C
100
AcDbDictionary
281
     1
  3
2dWireframe
350
2F
  3
3D Hidden
350
31
  3
3dWireframe
350
30
  3
Basic
350
32
  3
Brighten
350
36
  3
ColorChange
350
3A
  3
Conceptual
350
34
  3
Dim
350
35
  3
Facepattern
350
39
  3
Flat
350
2B
  3
FlatWithEdges
350
2C
  3
Gouraud
350
2D
  3
GouraudWithEdges
350
2E
  3
Linepattern
350
38
  3
Realistic
350
33
  3
Thicken
350
37
  0
DICTIONARY
  5
400
102
{ACAD_REACTORS
330
C
102
}
330
C
100
AcDbDictionary
281
     1
  3
CANNOSCALE
350
403
  3
DIMASSOC
350
404
  3
HIDETEXT
350
405
  0
LAYOUT
  5
1E
102
{ACAD_REACTORS
330
1A
102
}
330
1A
100
AcDbPlotSettings
  1

  2
none_device
  4

  6

 40
0.0
 41
0.0
 42
0.0
 43
0.0
 44
0.0
 45
0.0
 46
0.0
 47
0.0
 48
0.0
 49
0.0
140
0.0
141
0.0
142
1.0
143
1.0
 70
   688
 72
     0
 73
     0
 74
     5
  7

 75
    16
147
1.0
148
0.0
149
0.0
100
AcDbLayout
  1
Layout1
 70
     1
 71
     1
 10
0.0
 20
0.0
 11
12.0
 21
9.0
 12
0.0
 22
0.0
 32
0.0
 14
1.0000000000E+20
 24
1.0000000000E+20
 34
1.0000000000E+20
 15
-1.0000000000E+20
 25
-1.0000000000E+20
 35
-1.0000000000E+20
146
0.0
 13
0.0
 23
0.0
 33
0.0
 16
1.0
 26
0.0
 36
0.0
 17
0.0
 27
1.0
 37
0.0
 76
     0
330
1B
  0
LAYOUT
  5
26
102
{ACAD_REACTORS
330
1A
102
}
330
1A
100
AcDbPlotSettings
  1

  2
none_device
  4

  6

 40
0.0
 41
0.0
 42
0.0
 43
0.0
 44
0.0
 45
0.0
 46
0.0
 47
0.0
 48
0.0
 49
0.0
140
0.0
141
0.0
142
1.0
143
1.0
 70
   688
 72
     0
 73
     0
 74
     5
  7

 75
    16
147
1.0
148
0.0
149
0.0
100
AcDbLayout
  1
Layout2
 70
     1
 71
     2
 10
0.0
 20
0.0
 11
0.0
 21
0.0
 12
0.0
 22
0.0
 32
0.0
 14
0.0
 24
0.0
 34
0.0
 15
0.0
 25
0.0
 35
0.0
146
0.0
 13
0.0
 23
0.0
 33
0.0
 16
1.0
 26
0.0
 36
0.0
 17
0.0
 27
1.0
 37
0.0
 76
     0
330
23
  0
LAYOUT
  5
22
102
{ACAD_REACTORS
330
1A
102
}
330
1A
100
AcDbPlotSettings
  1

  2
none_device
  4

  6

 40
0.0
 41
0.0
 42
0.0
 43
0.0
 44
0.0
 45
0.0
 46
0.0
 47
0.0
 48
0.0
 49
0.0
140
0.0
141
0.0
142
1.0
143
1.0
 70
  1712
 72
     0
 73
     0
 74
     0
  7

 75
     0
147
1.0
148
0.0
149
0.0
100
AcDbLayout
  1
Model
 70
     1
 71
     0
 10
0.0
 20
0.0
 11
59.5
 21
38.5
 12
0.0
 22
0.0
 32
0.0
 14
0.0
 24
0.0
 34
0.0
 15
59.5
 25
38.5
 35
0.0
146
0.0
 13
0.0
 23
0.0
 33
0.0
 16
1.0
 26
0.0
 36
0.0
 17
0.0
 27
1.0
 37
0.0
 76
     0
330
1F
331
29
  0
MATERIAL
  5
3D
102
{ACAD_REACTORS
330
3B
102
}
102
{ACAD_XDICTIONARY
360
428
102
}
330
3B
100
AcDbMaterial
  1
ByBlock
  0
MATERIAL
  5
3C
102
{ACAD_REACTORS
330
3B
102
}
102
{ACAD_XDICTIONARY
360
426
102
}
330
3B
100
AcDbMaterial
  1
ByLayer
  0
MATERIAL
  5
3E
102
{ACAD_REACTORS
330
3B
102
}
102
{ACAD_XDICTIONARY
360
42A
102
}
330
3B
100
AcDbMaterial
  1
Global
  0
MLINESTYLE
  5
18
102
{ACAD_REACTORS
330
17
102
}
330
17
100
AcDbMlineStyle
  2
Standard
 70
     0
  3

 62
   256
 51
90.0
 52
90.0
 71
     2
 49
0.5
 62
   256
  6
BYLAYER
 49
-0.5
 62
   256
  6
BYLAYER
  0
ACDBPLACEHOLDER
  5
F
102
{ACAD_REACTORS
330
E
102
}
330
E
  0
SCALE
  5
59
102
{ACAD_REACTORS
330
58
102
}
330
58
100
AcDbScale
 70
     0
300
1:1
140
1.0
141
1.0
290
     1
  0
SCALE
  5
5A
102
{ACAD_REACTORS
330
58
102
}
330
58
100
AcDbScale
 70
     0
300
1:2
140
1.0
141
2.0
290
     0
  0
SCALE
  5
5B
102
{ACAD_REACTORS
330
58
102
}
330
58
100
AcDbScale
 70
     0
300
1:4
140
1.0
141
4.0
290
     0
  0
SCALE
  5
5C
102
{ACAD_REACTORS
330
58
102
}
330
58
100
AcDbScale
 70
     0
300
1:5
140
1.0
141
5.0
290
     0
  0
SCALE
  5
5D
102
{ACAD_REACTORS
330
58
102
}
330
58
100
AcDbScale
 70
     0
300
1:8
140
1.0
141
8.0
290
     0
  0
SCALE
  5
5E
102
{ACAD_REACTORS
330
58
102
}
330
58
100
AcDbScale
 70
     0
300
1:10
140
1.0
141
10.0
290
     0
  0
SCALE
  5
5F
102
{ACAD_REACTORS
330
58
102
}
330
58
100
AcDbScale
 70
     0
300
1:16
140
1.0
141
16.0
290
     0
  0
SCALE
  5
60
102
{ACAD_REACTORS
330
58
102
}
330
58
100
AcDbScale
 70
     0
300
1:20
140
1.0
141
20.0
290
     0
  0
SCALE
  5
61
102
{ACAD_REACTORS
330
58
102
}
330
58
100
AcDbScale
 70
     0
300
1:30
140
1.0
141
30.0
290
     0
  0
SCALE
  5
62
102
{ACAD_REACTORS
330
58
102
}
330
58
100
AcDbScale
 70
     0
300
1:40
140
1.0
141
40.0
290
     0
  0
SCALE
  5
63
102
{ACAD_REACTORS
330
58
102
}
330
58
100
AcDbScale
 70
     0
300
1:50
140
1.0
141
50.0
290
     0
  0
SCALE
  5
64
102
{ACAD_REACTORS
330
58
102
}
330
58
100
AcDbScale
 70
     0
300
1:100
140
1.0
141
100.0
290
     0
  0
SCALE
  5
65
102
{ACAD_REACTORS
330
58
102
}
330
58
100
AcDbScale
 70
     0
300
2:1
140
2.0
141
1.0
290
     0
  0
SCALE
  5
66
102
{ACAD_REACTORS
330
58
102
}
330
58
100
AcDbScale
 70
     0
300
4:1
140
4.0
141
1.0
290
     0
  0
SCALE
  5
67
102
{ACAD_REACTORS
330
58
102
}
330
58
100
AcDbScale
 70
     0
300
8:1
140
8.0
141
1.0
290
     0
  0
SCALE
  5
68
102
{ACAD_REACTORS
330
58
102
}
330
58
100
AcDbScale
 70
     0
300
10:1
140
10.0
141
1.0
290
     0
  0
SCALE
  5
69
102
{ACAD_REACTORS
330
58
102
}
330
58
100
AcDbScale
 70
     0
300
100:1
140
100.0
141
1.0
290
     0
  0
SCALE
  5
6A
102
{ACAD_REACTORS
330
58
102
}
330
58
100
AcDbScale
 70
     0
300
1/128" = 1'-0"
140
0.0078125
141
12.0
290
     0
  0
SCALE
  5
6B
102
{ACAD_REACTORS
330
58
102
}
330
58
100
AcDbScale
 70
     0
300
1/64" = 1'-0"
140
0.015625
141
12.0
290
     0
  0
SCALE
  5
6C
102
{ACAD_REACTORS
330
58
102
}
330
58
100
AcDbScale
 70
     0
300
1/32" = 1'-0"
140
0.03125
141
12.0
290
     0
  0
SCALE
  5
6D
102
{ACAD_REACTORS
330
58
102
}
330
58
100
AcDbScale
 70
     0
300
1/16" = 1'-0"
140
0.0625
141
12.0
290
     0
  0
SCALE
  5
6E
102
{ACAD_REACTORS
330
58
102
}
330
58
100
AcDbScale
 70
     0
300
3/32" = 1'-0"
140
0.09375
141
12.0
290
     0
  0
SCALE
  5
6F
102
{ACAD_REACTORS
330
58
102
}
330
58
100
AcDbScale
 70
     0
300
1/8" = 1'-0"
140
0.125
141
12.0
290
     0
  0
SCALE
  5
70
102
{ACAD_REACTORS
330
58
102
}
330
58
100
AcDbScale
 70
     0
300
3/16" = 1'-0"
140
0.1875
141
12.0
290
     0
  0
SCALE
  5
71
102
{ACAD_REACTORS
330
58
102
}
330
58
100
AcDbScale
 70
     0
300
1/4" = 1'-0"
140
0.25
141
12.0
290
     0
  0
SCALE
  5
72
102
{ACAD_REACTORS
330
58
102
}
330
58
100
AcDbScale
 70
     0
300
3/8" = 1'-0"
140
0.375
141
12.0
290
     0
  0
SCALE
  5
73
102
{ACAD_REACTORS
330
58
102
}
330
58
100
AcDbScale
 70
     0
300
1/2" = 1'-0"
140
0.5
141
12.0
290
     0
  0
SCALE
  5
74
102
{ACAD_REACTORS
330
58
102
}
330
58
100
AcDbScale
 70
     0
300
3/4" = 1'-0"
140
0.75
141
12.0
290
     0
  0
SCALE
  5
75
102
{ACAD_REACTORS
330
58
102
}
330
58
100
AcDbScale
 70
     0
300
1" = 1'-0"
140
1.0
141
12.0
290
     0
  0
SCALE
  5
76
102
{ACAD_REACTORS
330
58
102
}
330
58
100
AcDbScale
 70
     0
300
1-1/2" = 1'-0"
140
1.5
141
12.0
290
     0
  0
SCALE
  5
77
102
{ACAD_REACTORS
330
58
102
}
330
58
100
AcDbScale
 70
     0
300
3" = 1'-0"
140
3.0
141
12.0
290
     0
  0
SCALE
  5
78
102
{ACAD_REACTORS
330
58
102
}
330
58
100
AcDbScale
 70
     0
300
6" = 1'-0"
140
6.0
141
12.0
290
     0
  0
SCALE
  5
79
102
{ACAD_REACTORS
330
58
102
}
330
58
100
AcDbScale
 70
     0
300
1'-0" = 1'-0"
140
12.0
141
12.0
290
     0
  0
VISUALSTYLE
  5
2F
102
{ACAD_REACTORS
330
2A
102
}
102
{ACAD_XDICTIONARY
360
40E
102
}
330
2A
100
AcDbVisualStyle
  2
2dWireframe
 70
     4
 71
     0
 72
     2
 73
     0
 90
        0
 40
-0.6
 41
-30.0
 62
     5
 63
     7
 74
     1
 91
        4
 64
     7
 65
   257
 75
     1
175
     1
 42
1.0
 92
        0
 66
   257
 43
1.0
 76
     1
 77
     6
 78
     2
 67
     7
 79
     5
170
     0
171
     0
290
     0
174
     0
 93
        1
 44
0.0
173
     0
291
     0
 45
0.0
1001
ACAD
1000
AcDbSavedByObjectVersion
1070
     0
  0
VISUALSTYLE
  5
31
102
{ACAD_REACTORS
330
2A
102
}
102
{ACAD_XDICTIONARY
360
412
102
}
330
2A
100
AcDbVisualStyle
  2
3D Hidden
 70
     6
 71
     1
 72
     2
 73
     2
 90
        0
 40
-0.6
 41
-30.0
 62
     5
 63
     7
 74
     2
 91
        2
 64
     7
 65
   257
 75
     2
175
     1
 42
40.0
 92
        0
 66
   257
 43
1.0
 76
     1
 77
     6
 78
     2
 67
     7
 79
     3
170
     0
171
     0
290
     0
174
     0
 93
        1
 44
0.0
173
     0
291
     0
 45
0.0
1001
ACAD
1000
AcDbSavedByObjectVersion
1070
     0
  0
VISUALSTYLE
  5
30
102
{ACAD_REACTORS
330
2A
102
}
102
{ACAD_XDICTIONARY
360
410
102
}
330
2A
100
AcDbVisualStyle
  2
3dWireframe
 70
     5
 71
     0
 72
     2
 73
     0
 90
        0
 40
-0.6
 41
-30.0
 62
     5
 63
     7
 74
     1
 91
        4
 64
     7
 65
   257
 75
     1
175
     1
 42
1.0
 92
        0
 66
   257
 43
1.0
 76
     1
 77
     6
 78
     2
 67
     7
 79
     5
170
     0
171
     0
290
     0
174
     0
 93
        1
 44
0.0
173
     0
291
     0
 45
0.0
1001
ACAD
1000
AcDbSavedByObjectVersion
1070
     0
  0
VISUALSTYLE
  5
32
102
{ACAD_REACTORS
330
2A
102
}
102
{ACAD_XDICTIONARY
360
414
102
}
330
2A
100
AcDbVisualStyle
  2
Basic
 70
     7
 71
     1
 72
     0
 73
     1
 90
        0
 40
-0.6
 41
-30.0
 62
     5
 63
     7
 74
     0
 91
        4
 64
     7
 65
   257
 75
     1
175
     1
 42
1.0
 92
        8
 66
     7
 43
1.0
 76
     1
 77
     6
 78
     2
 67
     7
 79
     5
170
     0
171
     0
290
     0
174
     0
 93
        1
 44
0.0
173
     0
291
     1
 45
0.0
1001
ACAD
1000
AcDbSavedByObjectVersion
1070
     0
  0
VISUALSTYLE
  5
36
102
{ACAD_REACTORS
330
2A
102
}
102
{ACAD_XDICTIONARY
360
41C
102
}
330
2A
100
AcDbVisualStyle
  2
Brighten
 70
    12
 71
     2
 72
     2
 73
     0
 90
        0
 40
-0.6
 41
-30.0
 62
     5
 63
     7
 74
     1
 91
        4
 64
     7
 65
   257
 75
     1
175
     1
 42
1.0
 92
        8
 66
     7
 43
1.0
 76
     1
 77
     6
 78
     2
 67
     7
 79
     5
170
     0
171
     0
290
     0
174
     0
 93
        1
 44
50.0
173
     0
291
     1
 45
0.0
1001
ACAD
1000
AcDbSavedByObjectVersion
1070
     0
  0
VISUALSTYLE
  5
3A
102
{ACAD_REACTORS
330
2A
102
}
102
{ACAD_XDICTIONARY
360
424
102
}
330
2A
100
AcDbVisualStyle
  2
ColorChange
 70
    16
 71
     2
 72
     2
 73
     3
 90
        0
 40
-0.6
 41
-30.0
 62
     5
 63
     8
 74
     1
 91
        4
 64
     7
 65
   257
 75
     1
175
     1
 42
1.0
 92
        8
 66
     8
 43
1.0
 76
     1
 77
     6
 78
     2
 67
     7
 79
     5
170
     0
171
     0
290
     0
174
     0
 93
        1
 44
0.0
173
     0
291
     1
 45
0.0
1001
ACAD
1000
AcDbSavedByObjectVersion
1070
     0
  0
VISUALSTYLE
  5
34
102
{ACAD_REACTORS
330
2A
102
}
102
{ACAD_XDICTIONARY
360
418
102
}
330
2A
100
AcDbVisualStyle
  2
Conceptual
 70
     9
 71
     3
 72
     2
 73
     0
 90
        0
 40
-0.6
 41
-30.0
 62
     5
 63
     7
 74
     2
 91
        2
 64
     7
 65
   257
 75
     1
175
     1
 42
40.0
 92
        8
 66
     7
 43
1.0
 76
     1
 77
     6
 78
     2
 67
     7
 79
     3
170
     0
171
     0
290
     0
174
     0
 93
        1
 44
0.0
173
     0
291
     0
 45
0.0
1001
ACAD
1000
AcDbSavedByObjectVersion
1070
     0
  0
VISUALSTYLE
  5
35
102
{ACAD_REACTORS
330
2A
102
}
102
{ACAD_XDICTIONARY
360
41A
102
}
330
2A
100
AcDbVisualStyle
  2
Dim
 70
    11
 71
     2
 72
     2
 73
     0
 90
        0
 40
-0.6
 41
-30.0
 62
     5
 63
     7
 74
     1
 91
        4
 64
     7
 65
   257
 75
     1
175
     1
 42
1.0
 92
        8
 66
     7
 43
1.0
 76
     1
 77
     6
 78
     2
 67
     7
 79
     5
170
     0
171
     0
290
     0
174
     0
 93
        1
 44
-50.0
173
     0
291
     1
 45
0.0
1001
ACAD
1000
AcDbSavedByObjectVersion
1070
     0
  0
VISUALSTYLE
  5
39
102
{ACAD_REACTORS
330
2A
102
}
102
{ACAD_XDICTIONARY
360
422
102
}
330
2A
100
AcDbVisualStyle
  2
Facepattern
 70
    15
 71
     2
 72
     2
 73
     0
 90
        0
 40
-0.6
 41
-30.0
 62
     5
 63
     7
 74
     1
 91
        4
 64
     7
 65
   257
 75
     1
175
     1
 42
1.0
 92
        8
 66
     7
 43
1.0
 76
     1
 77
     6
 78
     2
 67
     7
 79
     5
170
     0
171
     0
290
     0
174
     0
 93
        1
 44
0.0
173
     0
291
     1
 45
0.0
1001
ACAD
1000
AcDbSavedByObjectVersion
1070
     0
  0
VISUALSTYLE
  5
2B
102
{ACAD_REACTORS
330
2A
102
}
102
{ACAD_XDICTIONARY
360
406
102
}
330
2A
100
AcDbVisualStyle
  2
Flat
 70
     0
 71
     2
 72
     1
 73
     1
 90
        2
 40
-0.6
 41
30.0
 62
     5
 63
     7
 74
     0
 91
        4
 64
     7
 65
   257
 75
     1
175
     1
 42
1.0
 92
        8
 66
     7
 43
1.0
 76
     1
 77
     6
 78
     2
 67
     7
 79
     5
170
     0
171
     0
290
     0
174
     0
 93
       13
 44
0.0
173
     0
291
     1
 45
0.0
1001
ACAD
1000
AcDbSavedByObjectVersion
1070
     0
  0
VISUALSTYLE
  5
2C
102
{ACAD_REACTORS
330
2A
102
}
102
{ACAD_XDICTIONARY
360
408
102
}
330
2A
100
AcDbVisualStyle
  2
FlatWithEdges
 70
     1
 71
     2
 72
     1
 73
     1
 90
        2
 40
-0.6
 41
30.0
 62
     5
 63
     7
 74
     1
 91
        4
 64
     7
 65
   257
 75
     1
175
     1
 42
1.0
 92
        0
 66
   257
 43
1.0
 76
     1
 77
     6
 78
     2
 67
     7
 79
     5
170
     0
171
     0
290
     0
174
     0
 93
       13
 44
0.0
173
     0
291
     1
 45
0.0
1001
ACAD
1000
AcDbSavedByObjectVersion
1070
     0
  0
VISUALSTYLE
  5
2D
102
{ACAD_REACTORS
330
2A
102
}
102
{ACAD_XDICTIONARY
360
40A
102
}
330
2A
100
AcDbVisualStyle
  2
Gouraud
 70
     2
 71
     2
 72
     2
 73
     1
 90
        2
 40
-0.6
 41
30.0
 62
     5
 63
     7
 74
     0
 91
        4
 64
     7
 65
   257
 75
     1
175
     1
 42
1.0
 92
        0
 66
     7
 43
1.0
 76
     1
 77
     6
 78
     2
 67
     7
 79
     5
170
     0
171
     0
290
     0
174
     0
 93
       13
 44
0.0
173
     0
291
     1
 45
0.0
1001
ACAD
1000
AcDbSavedByObjectVersion
1070
     0
  0
VISUALSTYLE
  5
2E
102
{ACAD_REACTORS
330
2A
102
}
102
{ACAD_XDICTIONARY
360
40C
102
}
330
2A
100
AcDbVisualStyle
  2
GouraudWithEdges
 70
     3
 71
     2
 72
     2
 73
     1
 90
        2
 40
-0.6
 41
30.0
 62
     5
 63
     7
 74
     1
 91
        4
 64
     7
 65
   257
 75
     1
175
     1
 42
1.0
 92
        0
 66
   257
 43
1.0
 76
     1
 77
     6
 78
     2
 67
     7
 79
     5
170
     0
171
     0
290
     0
174
     0
 93
       13
 44
0.0
173
     0
291
     1
 45
0.0
1001
ACAD
1000
AcDbSavedByObjectVersion
1070
     0
  0
VISUALSTYLE
  5
38
102
{ACAD_REACTORS
330
2A
102
}
102
{ACAD_XDICTIONARY
360
420
102
}
330
2A
100
AcDbVisualStyle
  2
Linepattern
 70
    14
 71
     2
 72
     2
 73
     0
 90
        0
 40
-0.6
 41
-30.0
 62
     5
 63
     7
 74
     1
 91
        4
 64
     7
 65
   257
 75
     7
175
     7
 42
1.0
 92
        8
 66
     7
 43
1.0
 76
     1
 77
     6
 78
     2
 67
     7
 79
     5
170
     0
171
     0
290
     0
174
     0
 93
        1
 44
0.0
173
     0
291
     1
 45
0.0
1001
ACAD
1000
AcDbSavedByObjectVersion
1070
     0
  0
VISUALSTYLE
  5
33
102
{ACAD_REACTORS
330
2A
102
}
102
{ACAD_XDICTIONARY
360
416
102
}
330
2A
100
AcDbVisualStyle
  2
Realistic
 70
     8
 71
     2
 72
     2
 73
     0
 90
        0
 40
-0.6
 41
-30.0
 62
     5
 63
     7
 74
     1
 91
        0
 64
     7
 65
   257
 75
     1
175
     1
 42
1.0
 92
        8
 66
     8
 43
1.0
 76
     1
 77
     6
 78
     2
 67
     7
 79
     5
170
     0
171
     0
290
     0
174
     0
 93
       13
 44
0.0
173
     0
291
     0
 45
0.0
1001
ACAD
1000
AcDbSavedByObjectVersion
1070
     0
  0
VISUALSTYLE
  5
37
102
{ACAD_REACTORS
330
2A
102
}
102
{ACAD_XDICTIONARY
360
41E
102
}
330
2A
100
AcDbVisualStyle
  2
Thicken
 70
    13
 71
     2
 72
     2
 73
     0
 90
        0
 40
-0.6
 41
-30.0
 62
     5
 63
     7
 74
     1
 91
        4
 64
     7
 65
   257
 75
     1
175
     1
 42
1.0
 92
       12
 66
     7
 43
1.0
 76
     1
 77
     6
 78
     2
 67
     7
 79
     5
170
     0
171
     0
290
     0
174
     0
 93
        1
 44
0.0
173
     0
291
     1
 45
0.0
1001
ACAD
1000
AcDbSavedByObjectVersion
1070
     0
  0
DICTIONARYVAR
  5
403
102
{ACAD_REACTORS
330
400
102
}
330
400
100
DictionaryVariables
280
     0
  1
1:1
  0
DICTIONARYVAR
  5
404
102
{ACAD_REACTORS
330
400
102
}
330
400
100
DictionaryVariables
280
     0
  1
2
  0
DICTIONARYVAR
  5
405
102
{ACAD_REACTORS
330
400
102
}
330
400
100
DictionaryVariables
280
     0
  1
1
  0
DICTIONARY
  5
428
330
3D
100
AcDbDictionary
280
     1
281
     1
  3
ACAD_XREC_ROUNDTRIP
360
429
  0
DICTIONARY
  5
426
330
3C
100
AcDbDictionary
280
     1
281
     1
  3
ACAD_XREC_ROUNDTRIP
360
427
  0
DICTIONARY
  5
42A
330
3E
100
AcDbDictionary
280
     1
281
     1
  3
ACAD_XREC_ROUNDTRIP
360
42B
  0
DICTIONARY
  5
40E
330
2F
100
AcDbDictionary
280
     1
281
     1
  3
ACAD_XREC_ROUNDTRIP
360
40F
  0
DICTIONARY
  5
412
330
31
100
AcDbDictionary
280
     1
281
     1
  3
ACAD_XREC_ROUNDTRIP
360
413
  0
DICTIONARY
  5
410
330
30
100
AcDbDictionary
280
     1
281
     1
  3
ACAD_XREC_ROUNDTRIP
360
411
  0
DICTIONARY
  5
414
330
32
100
AcDbDictionary
280
     1
281
     1
  3
ACAD_XREC_ROUNDTRIP
360
415
  0
DICTIONARY
  5
41C
330
36
100
AcDbDictionary
280
     1
281
     1
  3
ACAD_XREC_ROUNDTRIP
360
41D
  0
DICTIONARY
  5
424
330
3A
100
AcDbDictionary
280
     1
281
     1
  3
ACAD_XREC_ROUNDTRIP
360
425
  0
DICTIONARY
  5
418
330
34
100
AcDbDictionary
280
     1
281
     1
  3
ACAD_XREC_ROUNDTRIP
360
419
  0
DICTIONARY
  5
41A
330
35
100
AcDbDictionary
280
     1
281
     1
  3
ACAD_XREC_ROUNDTRIP
360
41B
  0
DICTIONARY
  5
422
330
39
100
AcDbDictionary
280
     1
281
     1
  3
ACAD_XREC_ROUNDTRIP
360
423
  0
DICTIONARY
  5
406
330
2B
100
AcDbDictionary
280
     1
281
     1
  3
ACAD_XREC_ROUNDTRIP
360
407
  0
DICTIONARY
  5
408
330
2C
100
AcDbDictionary
280
     1
281
     1
  3
ACAD_XREC_ROUNDTRIP
360
409
  0
DICTIONARY
  5
40A
330
2D
100
AcDbDictionary
280
     1
281
     1
  3
ACAD_XREC_ROUNDTRIP
360
40B
  0
DICTIONARY
  5
40C
330
2E
100
AcDbDictionary
280
     1
281
     1
  3
ACAD_XREC_ROUNDTRIP
360
40D
  0
DICTIONARY
  5
420
330
38
100
AcDbDictionary
280
     1
281
     1
  3
ACAD_XREC_ROUNDTRIP
360
421
  0
DICTIONARY
  5
416
330
33
100
AcDbDictionary
280
     1
281
     1
  3
ACAD_XREC_ROUNDTRIP
360
417
  0
DICTIONARY
  5
41E
330
37
100
AcDbDictionary
280
     1
281
     1
  3
ACAD_XREC_ROUNDTRIP
360
41F
  0
XRECORD
  5
429
102
{ACAD_REACTORS
330
428
102
}
330
428
100
AcDbXrecord
280
     1
102
MATERIAL
148
0.0
149
0.0
149
0.0
 93
        0
 94
      127
282
     0
 72
     1
 77
     1
171
     1
175
     1
179
     1
273
     0
  0
XRECORD
  5
427
102
{ACAD_REACTORS
330
426
102
}
330
426
100
AcDbXrecord
280
     1
102
MATERIAL
148
0.0
149
0.0
149
0.0
 93
        0
 94
      127
282
     0
 72
     1
 77
     1
171
     1
175
     1
179
     1
273
     0
  0
XRECORD
  5
42B
102
{ACAD_REACTORS
330
42A
102
}
330
42A
100
AcDbXrecord
280
     1
102
MATERIAL
148
0.0
149
0.0
149
0.0
 93
        0
 94
      127
282
     0
 72
     1
 77
     1
171
     1
175
     1
179
     1
273
     0
  0
XRECORD
  5
40F
102
{ACAD_REACTORS
330
40E
102
}
330
40E
100
AcDbXrecord
280
     1
102
RTVSPropertyOp0
 70
     1
102
RTVSPropertyOp1
 70
     1
102
RTVSPropertyOp2
 70
     1
102
RTVSPropertyOp3
 70
     1
102
RTVSPropertyOp4
 70
     1
102
RTVSPropertyOp5
 70
     1
102
RTVSPropertyOp6
 70
     1
102
RTVSPropertyOp7
 70
     1
102
RTVSPropertyOp8
 70
     1
102
RTVSPropertyOp9
 70
     1
102
RTVSPropertyOp10
 70
     1
102
RTVSPropertyOp11
 70
     1
102
RTVSPropertyOp12
 70
     1
102
RTVSPropertyOp13
 70
     1
102
RTVSPropertyOp14
 70
     1
102
RTVSPropertyOp15
 70
     1
102
RTVSPropertyOp16
 70
     1
102
RTVSPropertyOp17
 70
     1
102
RTVSPropertyOp18
 70
     1
102
RTVSPropertyOp19
 70
     1
102
RTVSPropertyOp20
 70
     1
102
RTVSPropertyOp21
 70
     1
102
RTVSPropertyOp22
 70
     1
102
RTVSPropertyOp23
 70
     1
102
RTVSPropertyOp24
 70
     1
102
RTVSPropertyOp25
 70
     1
102
RTVSPropertyOp26
 70
     1
102
RTVSPropertyOp27
 70
     1
  0
XRECORD
  5
413
102
{ACAD_REACTORS
330
412
102
}
330
412
100
AcDbXrecord
280
     1
102
RTVSPropertyOp0
 70
     1
102
RTVSPropertyOp1
 70
     1
102
RTVSPropertyOp2
 70
     1
102
RTVSPropertyOp3
 70
     1
102
RTVSPropertyOp4
 70
     1
102
RTVSPropertyOp5
 70
     1
102
RTVSPropertyOp6
 70
     1
102
RTVSPropertyOp7
 70
     1
102
RTVSPropertyOp8
 70
     1
102
RTVSPropertyOp9
 70
     1
102
RTVSPropertyOp10
 70
     1
102
RTVSPropertyOp11
 70
     1
102
RTVSPropertyOp12
 70
     1
102
RTVSPropertyOp13
 70
     1
102
RTVSPropertyOp14
 70
     1
102
RTVSPropertyOp15
 70
     1
102
RTVSPropertyOp16
 70
     1
102
RTVSPropertyOp17
 70
     1
102
RTVSPropertyOp18
 70
     1
102
RTVSPropertyOp19
 70
     1
102
RTVSPropertyOp20
 70
     1
102
RTVSPropertyOp21
 70
     1
102
RTVSPropertyOp22
 70
     1
102
RTVSPropertyOp23
 70
     1
102
RTVSPropertyOp24
 70
     1
102
RTVSPropertyOp25
 70
     1
102
RTVSPropertyOp26
 70
     1
102
RTVSPropertyOp27
 70
     1
  0
XRECORD
  5
411
102
{ACAD_REACTORS
330
410
102
}
330
410
100
AcDbXrecord
280
     1
102
RTVSPropertyOp0
 70
     1
102
RTVSPropertyOp1
 70
     1
102
RTVSPropertyOp2
 70
     1
102
RTVSPropertyOp3
 70
     1
102
RTVSPropertyOp4
 70
     1
102
RTVSPropertyOp5
 70
     1
102
RTVSPropertyOp6
 70
     1
102
RTVSPropertyOp7
 70
     1
102
RTVSPropertyOp8
 70
     1
102
RTVSPropertyOp9
 70
     1
102
RTVSPropertyOp10
 70
     1
102
RTVSPropertyOp11
 70
     1
102
RTVSPropertyOp12
 70
     1
102
RTVSPropertyOp13
 70
     1
102
RTVSPropertyOp14
 70
     1
102
RTVSPropertyOp15
 70
     1
102
RTVSPropertyOp16
 70
     1
102
RTVSPropertyOp17
 70
     1
102
RTVSPropertyOp18
 70
     1
102
RTVSPropertyOp19
 70
     1
102
RTVSPropertyOp20
 70
     1
102
RTVSPropertyOp21
 70
     1
102
RTVSPropertyOp22
 70
     1
102
RTVSPropertyOp23
 70
     1
102
RTVSPropertyOp24
 70
     1
102
RTVSPropertyOp25
 70
     1
102
RTVSPropertyOp26
 70
     1
102
RTVSPropertyOp27
 70
     1
  0
XRECORD
  5
415
102
{ACAD_REACTORS
330
414
102
}
330
414
100
AcDbXrecord
280
     1
102
RTVSPropertyOp0
 70
     1
102
RTVSPropertyOp1
 70
     1
102
RTVSPropertyOp2
 70
     1
102
RTVSPropertyOp3
 70
     1
102
RTVSPropertyOp4
 70
     1
102
RTVSPropertyOp5
 70
     1
102
RTVSPropertyOp6
 70
     1
102
RTVSPropertyOp7
 70
     1
102
RTVSPropertyOp8
 70
     1
102
RTVSPropertyOp9
 70
     1
102
RTVSPropertyOp10
 70
     1
102
RTVSPropertyOp11
 70
     1
102
RTVSPropertyOp12
 70
     1
102
RTVSPropertyOp13
 70
     1
102
RTVSPropertyOp14
 70
     1
102
RTVSPropertyOp15
 70
     1
102
RTVSPropertyOp16
 70
     1
102
RTVSPropertyOp17
 70
     1
102
RTVSPropertyOp18
 70
     1
102
RTVSPropertyOp19
 70
     1
102
RTVSPropertyOp20
 70
     1
102
RTVSPropertyOp21
 70
     1
102
RTVSPropertyOp22
 70
     1
102
RTVSPropertyOp23
 70
     1
102
RTVSPropertyOp24
 70
     1
102
RTVSPropertyOp25
 70
     1
102
RTVSPropertyOp26
 70
     1
102
RTVSPropertyOp27
 70
     1
  0
XRECORD
  5
41D
102
{ACAD_REACTORS
330
41C
102
}
330
41C
100
AcDbXrecord
280
     1
102
RTVSPropertyOp0
 70
     1
102
RTVSPropertyOp1
 70
     1
102
RTVSPropertyOp2
 70
     1
102
RTVSPropertyOp3
 70
     1
102
RTVSPropertyOp4
 70
     1
102
RTVSPropertyOp5
 70
     1
102
RTVSPropertyOp6
 70
     1
102
RTVSPropertyOp7
 70
     1
102
RTVSPropertyOp8
 70
     1
102
RTVSPropertyOp9
 70
     1
102
RTVSPropertyOp10
 70
     1
102
RTVSPropertyOp11
 70
     1
102
RTVSPropertyOp12
 70
     1
102
RTVSPropertyOp13
 70
     1
102
RTVSPropertyOp14
 70
     1
102
RTVSPropertyOp15
 70
     1
102
RTVSPropertyOp16
 70
     1
102
RTVSPropertyOp17
 70
     1
102
RTVSPropertyOp18
 70
     1
102
RTVSPropertyOp19
 70
     1
102
RTVSPropertyOp20
 70
     1
102
RTVSPropertyOp21
 70
     1
102
RTVSPropertyOp22
 70
     1
102
RTVSPropertyOp23
 70
     1
102
RTVSPropertyOp24
 70
     1
102
RTVSPropertyOp25
 70
     1
102
RTVSPropertyOp26
 70
     1
102
RTVSPropertyOp27
 70
     1
  0
XRECORD
  5
425
102
{ACAD_REACTORS
330
424
102
}
330
424
100
AcDbXrecord
280
     1
102
RTVSPropertyOp0
 70
     1
102
RTVSPropertyOp1
 70
     1
102
RTVSPropertyOp2
 70
     1
102
RTVSPropertyOp3
 70
     1
102
RTVSPropertyOp4
 70
     1
102
RTVSPropertyOp5
 70
     1
102
RTVSPropertyOp6
 70
     1
102
RTVSPropertyOp7
 70
     1
102
RTVSPropertyOp8
 70
     1
102
RTVSPropertyOp9
 70
     1
102
RTVSPropertyOp10
 70
     1
102
RTVSPropertyOp11
 70
     1
102
RTVSPropertyOp12
 70
     1
102
RTVSPropertyOp13
 70
     1
102
RTVSPropertyOp14
 70
     1
102
RTVSPropertyOp15
 70
     1
102
RTVSPropertyOp16
 70
     1
102
RTVSPropertyOp17
 70
     1
102
RTVSPropertyOp18
 70
     1
102
RTVSPropertyOp19
 70
     1
102
RTVSPropertyOp20
 70
     1
102
RTVSPropertyOp21
 70
     1
102
RTVSPropertyOp22
 70
     1
102
RTVSPropertyOp23
 70
     1
102
RTVSPropertyOp24
 70
     1
102
RTVSPropertyOp25
 70
     1
102
RTVSPropertyOp26
 70
     1
102
RTVSPropertyOp27
 70
     1
  0
XRECORD
  5
419
102
{ACAD_REACTORS
330
418
102
}
330
418
100
AcDbXrecord
280
     1
102
RTVSPropertyOp0
 70
     1
102
RTVSPropertyOp1
 70
     1
102
RTVSPropertyOp2
 70
     1
102
RTVSPropertyOp3
 70
     1
102
RTVSPropertyOp4
 70
     1
102
RTVSPropertyOp5
 70
     1
102
RTVSPropertyOp6
 70
     1
102
RTVSPropertyOp7
 70
     1
102
RTVSPropertyOp8
 70
     1
102
RTVSPropertyOp9
 70
     1
102
RTVSPropertyOp10
 70
     1
102
RTVSPropertyOp11
 70
     1
102
RTVSPropertyOp12
 70
     1
102
RTVSPropertyOp13
 70
     1
102
RTVSPropertyOp14
 70
     1
102
RTVSPropertyOp15
 70
     1
102
RTVSPropertyOp16
 70
     1
102
RTVSPropertyOp17
 70
     1
102
RTVSPropertyOp18
 70
     1
102
RTVSPropertyOp19
 70
     1
102
RTVSPropertyOp20
 70
     1
102
RTVSPropertyOp21
 70
     1
102
RTVSPropertyOp22
 70
     1
102
RTVSPropertyOp23
 70
     1
102
RTVSPropertyOp24
 70
     1
102
RTVSPropertyOp25
 70
     1
102
RTVSPropertyOp26
 70
     1
102
RTVSPropertyOp27
 70
     1
  0
XRECORD
  5
41B
102
{ACAD_REACTORS
330
41A
102
}
330
41A
100
AcDbXrecord
280
     1
102
RTVSPropertyOp0
 70
     1
102
RTVSPropertyOp1
 70
     1
102
RTVSPropertyOp2
 70
     1
102
RTVSPropertyOp3
 70
     1
102
RTVSPropertyOp4
 70
     1
102
RTVSPropertyOp5
 70
     1
102
RTVSPropertyOp6
 70
     1
102
RTVSPropertyOp7
 70
     1
102
RTVSPropertyOp8
 70
     1
102
RTVSPropertyOp9
 70
     1
102
RTVSPropertyOp10
 70
     1
102
RTVSPropertyOp11
 70
     1
102
RTVSPropertyOp12
 70
     1
102
RTVSPropertyOp13
 70
     1
102
RTVSPropertyOp14
 70
     1
102
RTVSPropertyOp15
 70
     1
102
RTVSPropertyOp16
 70
     1
102
RTVSPropertyOp17
 70
     1
102
RTVSPropertyOp18
 70
     1
102
RTVSPropertyOp19
 70
     1
102
RTVSPropertyOp20
 70
     1
102
RTVSPropertyOp21
 70
     1
102
RTVSPropertyOp22
 70
     1
102
RTVSPropertyOp23
 70
     1
102
RTVSPropertyOp24
 70
     1
102
RTVSPropertyOp25
 70
     1
102
RTVSPropertyOp26
 70
     1
102
RTVSPropertyOp27
 70
     1
  0
XRECORD
  5
423
102
{ACAD_REACTORS
330
422
102
}
330
422
100
AcDbXrecord
280
     1
102
RTVSPropertyOp0
 70
     1
102
RTVSPropertyOp1
 70
     1
102
RTVSPropertyOp2
 70
     1
102
RTVSPropertyOp3
 70
     1
102
RTVSPropertyOp4
 70
     1
102
RTVSPropertyOp5
 70
     1
102
RTVSPropertyOp6
 70
     1
102
RTVSPropertyOp7
 70
     1
102
RTVSPropertyOp8
 70
     1
102
RTVSPropertyOp9
 70
     1
102
RTVSPropertyOp10
 70
     1
102
RTVSPropertyOp11
 70
     1
102
RTVSPropertyOp12
 70
     1
102
RTVSPropertyOp13
 70
     1
102
RTVSPropertyOp14
 70
     1
102
RTVSPropertyOp15
 70
     1
102
RTVSPropertyOp16
 70
     1
102
RTVSPropertyOp17
 70
     1
102
RTVSPropertyOp18
 70
     1
102
RTVSPropertyOp19
 70
     1
102
RTVSPropertyOp20
 70
     1
102
RTVSPropertyOp21
 70
     1
102
RTVSPropertyOp22
 70
     1
102
RTVSPropertyOp23
 70
     1
102
RTVSPropertyOp24
 70
     1
102
RTVSPropertyOp25
 70
     1
102
RTVSPropertyOp26
 70
     1
102
RTVSPropertyOp27
 70
     1
  0
XRECORD
  5
407
102
{ACAD_REACTORS
330
406
102
}
330
406
100
AcDbXrecord
280
     1
102
RTVSPropertyOp0
 70
     1
102
RTVSPropertyOp1
 70
     1
102
RTVSPropertyOp2
 70
     1
102
RTVSPropertyOp3
 70
     1
102
RTVSPropertyOp4
 70
     1
102
RTVSPropertyOp5
 70
     1
102
RTVSPropertyOp6
 70
     1
102
RTVSPropertyOp7
 70
     1
102
RTVSPropertyOp8
 70
     1
102
RTVSPropertyOp9
 70
     1
102
RTVSPropertyOp10
 70
     1
102
RTVSPropertyOp11
 70
     1
102
RTVSPropertyOp12
 70
     1
102
RTVSPropertyOp13
 70
     1
102
RTVSPropertyOp14
 70
     1
102
RTVSPropertyOp15
 70
     1
102
RTVSPropertyOp16
 70
     1
102
RTVSPropertyOp17
 70
     1
102
RTVSPropertyOp18
 70
     1
102
RTVSPropertyOp19
 70
     1
102
RTVSPropertyOp20
 70
     1
102
RTVSPropertyOp21
 70
     1
102
RTVSPropertyOp22
 70
     1
102
RTVSPropertyOp23
 70
     1
102
RTVSPropertyOp24
 70
     1
102
RTVSPropertyOp25
 70
     1
102
RTVSPropertyOp26
 70
     1
102
RTVSPropertyOp27
 70
     1
  0
XRECORD
  5
409
102
{ACAD_REACTORS
330
408
102
}
330
408
100
AcDbXrecord
280
     1
102
RTVSPropertyOp0
 70
     1
102
RTVSPropertyOp1
 70
     1
102
RTVSPropertyOp2
 70
     1
102
RTVSPropertyOp3
 70
     1
102
RTVSPropertyOp4
 70
     1
102
RTVSPropertyOp5
 70
     1
102
RTVSPropertyOp6
 70
     1
102
RTVSPropertyOp7
 70
     1
102
RTVSPropertyOp8
 70
     1
102
RTVSPropertyOp9
 70
     1
102
RTVSPropertyOp10
 70
     1
102
RTVSPropertyOp11
 70
     1
102
RTVSPropertyOp12
 70
     1
102
RTVSPropertyOp13
 70
     1
102
RTVSPropertyOp14
 70
     1
102
RTVSPropertyOp15
 70
     1
102
RTVSPropertyOp16
 70
     1
102
RTVSPropertyOp17
 70
     1
102
RTVSPropertyOp18
 70
     1
102
RTVSPropertyOp19
 70
     1
102
RTVSPropertyOp20
 70
     1
102
RTVSPropertyOp21
 70
     1
102
RTVSPropertyOp22
 70
     1
102
RTVSPropertyOp23
 70
     1
102
RTVSPropertyOp24
 70
     1
102
RTVSPropertyOp25
 70
     1
102
RTVSPropertyOp26
 70
     1
102
RTVSPropertyOp27
 70
     1
  0
XRECORD
  5
40B
102
{ACAD_REACTORS
330
40A
102
}
330
40A
100
AcDbXrecord
280
     1
102
RTVSPropertyOp0
 70
     1
102
RTVSPropertyOp1
 70
     1
102
RTVSPropertyOp2
 70
     1
102
RTVSPropertyOp3
 70
     1
102
RTVSPropertyOp4
 70
     1
102
RTVSPropertyOp5
 70
     1
102
RTVSPropertyOp6
 70
     1
102
RTVSPropertyOp7
 70
     1
102
RTVSPropertyOp8
 70
     1
102
RTVSPropertyOp9
 70
     1
102
RTVSPropertyOp10
 70
     1
102
RTVSPropertyOp11
 70
     1
102
RTVSPropertyOp12
 70
     1
102
RTVSPropertyOp13
 70
     1
102
RTVSPropertyOp14
 70
     1
102
RTVSPropertyOp15
 70
     1
102
RTVSPropertyOp16
 70
     1
102
RTVSPropertyOp17
 70
     1
102
RTVSPropertyOp18
 70
     1
102
RTVSPropertyOp19
 70
     1
102
RTVSPropertyOp20
 70
     1
102
RTVSPropertyOp21
 70
     1
102
RTVSPropertyOp22
 70
     1
102
RTVSPropertyOp23
 70
     1
102
RTVSPropertyOp24
 70
     1
102
RTVSPropertyOp25
 70
     1
102
RTVSPropertyOp26
 70
     1
102
RTVSPropertyOp27
 70
     1
  0
XRECORD
  5
40D
102
{ACAD_REACTORS
330
40C
102
}
330
40C
100
AcDbXrecord
280
     1
102
RTVSPropertyOp0
 70
     1
102
RTVSPropertyOp1
 70
     1
102
RTVSPropertyOp2
 70
     1
102
RTVSPropertyOp3
 70
     1
102
RTVSPropertyOp4
 70
     1
102
RTVSPropertyOp5
 70
     1
102
RTVSPropertyOp6
 70
     1
102
RTVSPropertyOp7
 70
     1
102
RTVSPropertyOp8
 70
     1
102
RTVSPropertyOp9
 70
     1
102
RTVSPropertyOp10
 70
     1
102
RTVSPropertyOp11
 70
     1
102
RTVSPropertyOp12
 70
     1
102
RTVSPropertyOp13
 70
     1
102
RTVSPropertyOp14
 70
     1
102
RTVSPropertyOp15
 70
     1
102
RTVSPropertyOp16
 70
     1
102
RTVSPropertyOp17
 70
     1
102
RTVSPropertyOp18
 70
     1
102
RTVSPropertyOp19
 70
     1
102
RTVSPropertyOp20
 70
     1
102
RTVSPropertyOp21
 70
     1
102
RTVSPropertyOp22
 70
     1
102
RTVSPropertyOp23
 70
     1
102
RTVSPropertyOp24
 70
     1
102
RTVSPropertyOp25
 70
     1
102
RTVSPropertyOp26
 70
     1
102
RTVSPropertyOp27
 70
     1
  0
XRECORD
  5
421
102
{ACAD_REACTORS
330
420
102
}
330
420
100
AcDbXrecord
280
     1
102
RTVSPropertyOp0
 70
     1
102
RTVSPropertyOp1
 70
     1
102
RTVSPropertyOp2
 70
     1
102
RTVSPropertyOp3
 70
     1
102
RTVSPropertyOp4
 70
     1
102
RTVSPropertyOp5
 70
     1
102
RTVSPropertyOp6
 70
     1
102
RTVSPropertyOp7
 70
     1
102
RTVSPropertyOp8
 70
     1
102
RTVSPropertyOp9
 70
     1
102
RTVSPropertyOp10
 70
     1
102
RTVSPropertyOp11
 70
     1
102
RTVSPropertyOp12
 70
     1
102
RTVSPropertyOp13
 70
     1
102
RTVSPropertyOp14
 70
     1
102
RTVSPropertyOp15
 70
     1
102
RTVSPropertyOp16
 70
     1
102
RTVSPropertyOp17
 70
     1
102
RTVSPropertyOp18
 70
     1
102
RTVSPropertyOp19
 70
     1
102
RTVSPropertyOp20
 70
     1
102
RTVSPropertyOp21
 70
     1
102
RTVSPropertyOp22
 70
     1
102
RTVSPropertyOp23
 70
     1
102
RTVSPropertyOp24
 70
     1
102
RTVSPropertyOp25
 70
     1
102
RTVSPropertyOp26
 70
     1
102
RTVSPropertyOp27
 70
     1
  0
XRECORD
  5
417
102
{ACAD_REACTORS
330
416
102
}
330
416
100
AcDbXrecord
280
     1
102
RTVSPropertyOp0
 70
     1
102
RTVSPropertyOp1
 70
     1
102
RTVSPropertyOp2
 70
     1
102
RTVSPropertyOp3
 70
     1
102
RTVSPropertyOp4
 70
     1
102
RTVSPropertyOp5
 70
     1
102
RTVSPropertyOp6
 70
     1
102
RTVSPropertyOp7
 70
     1
102
RTVSPropertyOp8
 70
     1
102
RTVSPropertyOp9
 70
     1
102
RTVSPropertyOp10
 70
     1
102
RTVSPropertyOp11
 70
     1
102
RTVSPropertyOp12
 70
     1
102
RTVSPropertyOp13
 70
     1
102
RTVSPropertyOp14
 70
     1
102
RTVSPropertyOp15
 70
     1
102
RTVSPropertyOp16
 70
     1
102
RTVSPropertyOp17
 70
     1
102
RTVSPropertyOp18
 70
     1
102
RTVSPropertyOp19
 70
     1
102
RTVSPropertyOp20
 70
     1
102
RTVSPropertyOp21
 70
     1
102
RTVSPropertyOp22
 70
     1
102
RTVSPropertyOp23
 70
     1
102
RTVSPropertyOp24
 70
     1
102
RTVSPropertyOp25
 70
     1
102
RTVSPropertyOp26
 70
     1
102
RTVSPropertyOp27
 70
     1
  0
XRECORD
  5
41F
102
{ACAD_REACTORS
330
41E
102
}
330
41E
100
AcDbXrecord
280
     1
102
RTVSPropertyOp0
 70
     1
102
RTVSPropertyOp1
 70
     1
102
RTVSPropertyOp2
 70
     1
102
RTVSPropertyOp3
 70
     1
102
RTVSPropertyOp4
 70
     1
102
RTVSPropertyOp5
 70
     1
102
RTVSPropertyOp6
 70
     1
102
RTVSPropertyOp7
 70
     1
102
RTVSPropertyOp8
 70
     1
102
RTVSPropertyOp9
 70
     1
102
RTVSPropertyOp10
 70
     1
102
RTVSPropertyOp11
 70
     1
102
RTVSPropertyOp12
 70
     1
102
RTVSPropertyOp13
 70
     1
102
RTVSPropertyOp14
 70
     1
102
RTVSPropertyOp15
 70
     1
102
RTVSPropertyOp16
 70
     1
102
RTVSPropertyOp17
 70
     1
102
RTVSPropertyOp18
 70
     1
102
RTVSPropertyOp19
 70
     1
102
RTVSPropertyOp20
 70
     1
102
RTVSPropertyOp21
 70
     1
102
RTVSPropertyOp22
 70
     1
102
RTVSPropertyOp23
 70
     1
102
RTVSPropertyOp24
 70
     1
102
RTVSPropertyOp25
 70
     1
102
RTVSPropertyOp26
 70
     1
102
RTVSPropertyOp27
 70
     1
  0
ENDSEC
  0
EOF
