  0
SECTION
  2
HEADER
  9
$ACADVER
  1
AC1015
  9
$ACADMAINTVER
 70
     6
  9
$DWGCODEPAGE
  3
ANSI_1252
  9
$INSBASE
 10
0.0
 20
0.0
 30
0.0
  9
$EXTMIN
 10
0.0
 20
-0.0000000000000053
 30
-0.00000001
  9
$EXTMAX
 10
30.35999999999999
 20
46.5
 30
0.00000001
  9
$LIMMIN
 10
0.0
 20
0.0
  9
$LIMMAX
 10
11.0
 20
8.5
  9
$ORTHOMODE
 70
     1
  9
$REGENMODE
 70
     1
  9
$FILLMODE
 70
     1
  9
$QTEXTMODE
 70
     0
  9
$MIRRTEXT
 70
     0
  9
$LTSCALE
 40
1.0
  9
$ATTMODE
 70
     1
  9
$TEXTSIZE
 40
0.125
  9
$TRACEWID
 40
0.05
  9
$TEXTSTYLE
  7
TXT
  9
$CLAYER
  8
OBJECT
  9
$CELTYPE
  6
ByLayer
  9
$CECOLOR
 62
   256
  9
$CELTSCALE
 40
1.0
  9
$DISPSILH
 70
     0
  9
$DIMSCALE
 40
3.0
  9
$DIMASZ
 40
0.18
  9
$DIMEXO
 40
0.063
  9
$DIMDLI
 40
0.281
  9
$DIMRND
 40
0.0
  9
$DIMDLE
 40
0.0
  9
$DIMEXE
 40
0.093
  9
$DIMTP
 40
0.0
  9
$DIMTM
 40
0.0
  9
$DIMTXT
 40
0.125
  9
$DIMCEN
 40
0.09
  9
$DIMTSZ
 40
0.0
  9
$DIMTOL
 70
     0
  9
$DIMLIM
 70
     0
  9
$DIMTIH
 70
     1
  9
$DIMTOH
 70
     1
  9
$DIMSE1
 70
     0
  9
$DIMSE2
 70
     0
  9
$DIMTAD
 70
     0
  9
$DIMZIN
 70
     0
  9
$DIMBLK
  1

  9
$DIMASO
 70
     1
  9
$DIMSHO
 70
     1
  9
$DIMPOST
  1

  9
$DIMAPOST
  1

  9
$DIMALT
 70
     0
  9
$DIMALTD
 70
     2
  9
$DIMALTF
 40
25.4
  9
$DIMLFAC
 40
1.0
  9
$DIMTOFL
 70
     0
  9
$DIMTVP
 40
0.0
  9
$DIMTIX
 70
     0
  9
$DIMSOXD
 70
     0
  9
$DIMSAH
 70
     0
  9
$DIMBLK1
  1

  9
$DIMBLK2
  1

  9
$DIMSTYLE
  2
23NSTD
  9
$DIMCLRD
 70
     0
  9
$DIMCLRE
 70
     0
  9
$DIMCLRT
 70
     0
  9
$DIMTFAC
 40
1.0
  9
$DIMGAP
 40
0.09
  9
$DIMJUST
 70
     0
  9
$DIMSD1
 70
     0
  9
$DIMSD2
 70
     0
  9
$DIMTOLJ
 70
     1
  9
$DIMTZIN
 70
     0
  9
$DIMALTZ
 70
     0
  9
$DIMALTTZ
 70
     0
  9
$DIMUPT
 70
     0
  9
$DIMDEC
 70
     3
  9
$DIMTDEC
 70
     3
  9
$DIMALTU
 70
     2
  9
$DIMALTTD
 70
     2
  9
$DIMTXSTY
  7
TXT
  9
$DIMAUNIT
 70
     0
  9
$DIMADEC
 70
     0
  9
$DIMALTRND
 40
0.0
  9
$DIMAZIN
 70
     0
  9
$DIMDSEP
 70
    46
  9
$DIMATFIT
 70
     0
  9
$DIMFRAC
 70
     0
  9
$DIMLDRBLK
  1

  9
$DIMLUNIT
 70
     2
  9
$DIMLWD
 70
    -2
  9
$DIMLWE
 70
    -2
  9
$DIMTMOVE
 70
     0
  9
$LUNITS
 70
     2
  9
$LUPREC
 70
     3
  9
$SKETCHINC
 40
0.1
  9
$FILLETRAD
 40
0.0
  9
$AUNITS
 70
     0
  9
$AUPREC
 70
     0
  9
$MENU
  1
acad
  9
$ELEVATION
 40
0.0
  9
$PELEVATION
 40
0.0
  9
$THICKNESS
 40
0.0
  9
$LIMCHECK
 70
     0
  9
$CHAMFERA
 40
0.0
  9
$CHAMFERB
 40
0.0
  9
$CHAMFERC
 40
0.0
  9
$CHAMFERD
 40
0.0
  9
$SKPOLY
 70
     0
  9
$TDCREATE
 40
2455098.558686516
  9
$TDUCREATE
 40
2455098.725353182
  9
$TDUPDATE
 40
2455098.567413009
  9
$TDUUPDATE
 40
2455098.734079675
  9
$TDINDWG
 40
0.0083801852
  9
$TDUSRTIMER
 40
0.0083801852
  9
$USRTIMER
 70
     1
  9
$ANGBASE
 50
0.0
  9
$ANGDIR
 70
     0
  9
$PDMODE
 70
     0
  9
$PDSIZE
 40
0.0
  9
$PLINEWID
 40
0.0
  9
$SPLFRAME
 70
     0
  9
$SPLINETYPE
 70
     6
  9
$SPLINESEGS
 70
     8
  9
$HANDSEED
  5
A03
  9
$SURFTAB1
 70
     6
  9
$SURFTAB2
 70
     6
  9
$SURFTYPE
 70
     6
  9
$SURFU
 70
     6
  9
$SURFV
 70
     6
  9
$UCSBASE
  2

  9
$UCSNAME
  2

  9
$UCSORG
 10
0.0
 20
0.0
 30
0.0
  9
$UCSXDIR
 10
1.0
 20
0.0
 30
0.0
  9
$UCSYDIR
 10
0.0
 20
1.0
 30
0.0
  9
$UCSORTHOREF
  2

  9
$UCSORTHOVIEW
 70
     0
  9
$UCSORGTOP
 10
0.0
 20
0.0
 30
0.0
  9
$UCSORGBOTTOM
 10
0.0
 20
0.0
 30
0.0
  9
$UCSORGLEFT
 10
0.0
 20
0.0
 30
0.0
  9
$UCSORGRIGHT
 10
0.0
 20
0.0
 30
0.0
  9
$UCSORGFRONT
 10
0.0
 20
0.0
 30
0.0
  9
$UCSORGBACK
 10
0.0
 20
0.0
 30
0.0
  9
$PUCSBASE
  2

  9
$PUCSNAME
  2

  9
$PUCSORG
 10
0.0
 20
0.0
 30
0.0
  9
$PUCSXDIR
 10
1.0
 20
0.0
 30
0.0
  9
$PUCSYDIR
 10
0.0
 20
1.0
 30
0.0
  9
$PUCSORTHOREF
  2

  9
$PUCSORTHOVIEW
 70
     0
  9
$PUCSORGTOP
 10
0.0
 20
0.0
 30
0.0
  9
$PUCSORGBOTTOM
 10
0.0
 20
0.0
 30
0.0
  9
$PUCSORGLEFT
 10
0.0
 20
0.0
 30
0.0
  9
$PUCSORGRIGHT
 10
0.0
 20
0.0
 30
0.0
  9
$PUCSORGFRONT
 10
0.0
 20
0.0
 30
0.0
  9
$PUCSORGBACK
 10
0.0
 20
0.0
 30
0.0
  9
$USERI1
 70
     0
  9
$USERI2
 70
     0
  9
$USERI3
 70
     0
  9
$USERI4
 70
     0
  9
$USERI5
 70
     0
  9
$USERR1
 40
0.0
  9
$USERR2
 40
0.0
  9
$USERR3
 40
0.0
  9
$USERR4
 40
0.0
  9
$USERR5
 40
0.0
  9
$WORLDVIEW
 70
     1
  9
$SHADEDGE
 70
     3
  9
$SHADEDIF
 70
    70
  9
$TILEMODE
 70
     1
  9
$MAXACTVP
 70
    16
  9
$PINSBASE
 10
0.0
 20
0.0
 30
0.0
  9
$PLIMCHECK
 70
     0
  9
$PEXTMIN
 10
1.000000000000000E+20
 20
1.000000000000000E+20
 30
1.000000000000000E+20
  9
$PEXTMAX
 10
-1.000000000000000E+20
 20
-1.000000000000000E+20
 30
-1.000000000000000E+20
  9
$PLIMMIN
 10
0.0
 20
0.0
  9
$PLIMMAX
 10
12.0
 20
9.0
  9
$UNITMODE
 70
     0
  9
$VISRETAIN
 70
     0
  9
$PLINEGEN
 70
     0
  9
$PSLTSCALE
 70
     1
  9
$TREEDEPTH
 70
  3020
  9
$CMLSTYLE
  2
Standard
  9
$CMLJUST
 70
     0
  9
$CMLSCALE
 40
1.0
  9
$PROXYGRAPHICS
 70
     1
  9
$MEASUREMENT
 70
     0
  9
$CELWEIGHT
370
    -1
  9
$ENDCAPS
280
     0
  9
$JOINSTYLE
280
     0
  9
$LWDISPLAY
290
     0
  9
$INSUNITS
 70
     0
  9
$HYPERLINKBASE
  1

  9
$STYLESHEET
  1
monochrome.ctb
  9
$XEDIT
290
     1
  9
$CEPSNTYPE
380
     0
  9
$PSTYLEMODE
290
     1
  9
$FINGERPRINTGUID
  2
{5F9F434B-8232-11D3-80AD-00C04F604D1B}
  9
$VERSIONGUID
  2
{85315C60-D5E4-4565-9C2E-F474689241F2}
  9
$EXTNAMES
290
     1
  9
$PSVPSCALE
 40
0.0
  9
$OLESTARTUP
290
     0
  0
ENDSEC
  0
SECTION
  2
CLASSES
  0
CLASS
  1
ACDBDICTIONARYWDFLT
  2
AcDbDictionaryWithDefault
  3
AutoCAD 2000
 90
        0
280
     0
281
     0
  0
CLASS
  1
ACDBPLACEHOLDER
  2
AcDbPlaceHolder
  3
AutoCAD 2000
 90
        0
280
     0
281
     0
  0
CLASS
  1
LAYOUT
  2
AcDbLayout
  3
AutoCAD 2000
 90
        0
280
     0
281
     0
  0
ENDSEC
  0
SECTION
  2
TABLES
  0
TABLE
  2
VPORT
  5
8
330
0
100
AcDbSymbolTable
 70
     2
  0
VPORT
  5
A02
330
8
100
AcDbSymbolTableRecord
100
AcDbViewportTableRecord
  2
*Active
 70
     0
 10
0.0
 20
0.0
 11
1.0
 21
1.0
 12
15.17955085048833
 22
23.251076342406
 13
0.0
 23
0.0
 14
0.125
 24
0.125
 15
0.125
 25
0.125
 16
0.0
 26
0.0
 36
1.0
 17
0.0
 27
0.0
 37
0.0
 40
46.96796907449282
 41
1.824707846410684
 42
50.0
 43
0.0
 44
0.0
 50
0.0
 51
0.0
 71
     0
 72
   100
 73
     1
 74
     0
 75
     0
 76
     0
 77
     0
 78
     0
281
     0
 65
     1
110
0.0
120
0.0
130
0.0
111
1.0
121
0.0
131
0.0
112
0.0
122
1.0
132
0.0
 79
     0
146
0.0
  0
ENDTAB
  0
TABLE
  2
LTYPE
  5
5
330
0
100
AcDbSymbolTable
 70
     6
  0
LTYPE
  5
13
330
5
100
AcDbSymbolTableRecord
100
AcDbLinetypeTableRecord
  2
ByBlock
 70
     0
  3

 72
    65
 73
     0
 40
0.0
  0
LTYPE
  5
14
330
5
100
AcDbSymbolTableRecord
100
AcDbLinetypeTableRecord
  2
ByLayer
 70
     0
  3

 72
    65
 73
     0
 40
0.0
  0
LTYPE
  5
15
330
5
100
AcDbSymbolTableRecord
100
AcDbLinetypeTableRecord
  2
CONTINUOUS
 70
     0
  3
Solid line
 72
    65
 73
     0
 40
0.0
  0
LTYPE
  5
22
330
5
100
AcDbSymbolTableRecord
100
AcDbLinetypeTableRecord
  2
HIDDEN
 70
     0
  3
_ _ _ _ _ _ _ _ _ _ _ _ _ _ _ _ _ _ _ _ _ _ _
 72
    65
 73
     2
 40
0.375
 49
0.25
 74
     0
 49
-0.125
 74
     0
  0
LTYPE
  5
23
330
5
100
AcDbSymbolTableRecord
100
AcDbLinetypeTableRecord
  2
PHANTOM
 70
     0
  3
_____ _ _ _____ _ _ _____ _ _ _____ _ _ ____
 72
    65
 73
     6
 40
2.5
 49
1.25
 74
     0
 49
-0.25
 74
     0
 49
0.25
 74
     0
 49
-0.25
 74
     0
 49
0.25
 74
     0
 49
-0.25
 74
     0
  0
LTYPE
  5
24
330
5
100
AcDbSymbolTableRecord
100
AcDbLinetypeTableRecord
  2
CENTER
 70
     0
  3
____ _ ____ _ ____ _ ____ _ ____ _ ____ _ ____
 72
    65
 73
     4
 40
2.0
 49
1.25
 74
     0
 49
-0.25
 74
     0
 49
0.25
 74
     0
 49
-0.25
 74
     0
  0
LTYPE
  5
25
330
5
100
AcDbSymbolTableRecord
100
AcDbLinetypeTableRecord
  2
HIDDEN2
 70
     0
  3
_ _ _ _ _ _ _ _ _ _ _ _ _ _ _ _ _ _ _ _ _ _ _ _
 72
    65
 73
     2
 40
0.1875
 49
0.125
 74
     0
 49
-0.0625
 74
     0
  0
LTYPE
  5
26
330
5
100
AcDbSymbolTableRecord
100
AcDbLinetypeTableRecord
  2
PHANTOM2
 70
     0
  3
___ _ _ ___ _ _ ___ _ _ ___ _ _ ___ _ _ ___ _ _
 72
    65
 73
     6
 40
1.25
 49
0.625
 74
     0
 49
-0.125
 74
     0
 49
0.125
 74
     0
 49
-0.125
 74
     0
 49
0.125
 74
     0
 49
-0.125
 74
     0
  0
ENDTAB
  0
TABLE
  2
LAYER
  5
2
330
0
100
AcDbSymbolTable
 70
     9
  0
LAYER
  5
10
330
2
100
AcDbSymbolTableRecord
100
AcDbLayerTableRecord
  2
0
 70
     0
 62
     7
  6
CONTINUOUS
370
    -3
390
F
  0
LAYER
  5
29
330
2
100
AcDbSymbolTableRecord
100
AcDbLayerTableRecord
  2
OBJECT
 70
     0
 62
     7
  6
CONTINUOUS
370
    -3
390
F
  0
LAYER
  5
2A
330
2
100
AcDbSymbolTableRecord
100
AcDbLayerTableRecord
  2
DIM
 70
     0
 62
     7
  6
CONTINUOUS
370
    -3
390
F
  0
LAYER
  5
2B
330
2
100
AcDbSymbolTableRecord
100
AcDbLayerTableRecord
  2
HIDDEN
 70
     0
 62
     7
  6
HIDDEN
370
    -3
390
F
  0
LAYER
  5
2C
330
2
100
AcDbSymbolTableRecord
100
AcDbLayerTableRecord
  2
BEND
 70
     0
 62
     7
  6
PHANTOM
370
    -3
390
F
  0
LAYER
  5
2D
330
2
100
AcDbSymbolTableRecord
100
AcDbLayerTableRecord
  2
TEXT
 70
     0
 62
     7
  6
CONTINUOUS
370
    -3
390
F
  0
LAYER
  5
2E
330
2
100
AcDbSymbolTableRecord
100
AcDbLayerTableRecord
  2
TITLE
 70
     0
 62
     7
  6
CONTINUOUS
370
    -3
390
F
  0
LAYER
  5
2F
330
2
100
AcDbSymbolTableRecord
100
AcDbLayerTableRecord
  2
CENTER
 70
     0
 62
     7
  6
CENTER
370
    -3
390
F
  0
LAYER
  5
15E
330
2
100
AcDbSymbolTableRecord
100
AcDbLayerTableRecord
  2
DEFPOINTS
 70
     0
 62
     7
  6
CONTINUOUS
290
     0
370
    -3
390
F
  0
ENDTAB
  0
TABLE
  2
STYLE
  5
3
330
0
100
AcDbSymbolTable
 70
     2
  0
STYLE
  5
11
330
3
100
AcDbSymbolTableRecord
100
AcDbTextStyleTableRecord
  2
TXT
 70
     0
 40
0.0
 41
0.75
 50
0.0
 71
     0
 42
0.125
  3
TXT.shx
  4

  0
STYLE
  5
15F
330
3
100
AcDbSymbolTableRecord
100
AcDbTextStyleTableRecord
  2
STANDARD
 70
     0
 40
0.0
 41
0.75
 50
0.0
 71
     0
 42
0.2
  3
TXT.shx
  4

  0
ENDTAB
  0
TABLE
  2
VIEW
  5
6
330
0
100
AcDbSymbolTable
 70
     0
  0
ENDTAB
  0
TABLE
  2
UCS
  5
7
330
0
100
AcDbSymbolTable
 70
     0
  0
ENDTAB
  0
TABLE
  2
APPID
  5
9
330
0
100
AcDbSymbolTable
 70
     1
  0
APPID
  5
12
330
9
100
AcDbSymbolTableRecord
100
AcDbRegAppTableRecord
  2
ACAD
 70
     0
  0
ENDTAB
  0
TABLE
  2
DIMSTYLE
  5
A
330
0
100
AcDbSymbolTable
 70
     2
100
AcDbDimStyleTable
 71
     2
340
38
340
39
  0
DIMSTYLE
105
38
102
{ACAD_REACTORS
330
401
330
402
330
403
330
404
330
405
330
406
330
57A
330
57B
330
57C
330
57D
330
57E
330
57F
330
580
330
582
330
583
330
584
330
588
330
642
330
643
330
5C3
330
5C5
330
5C7
102
}
330
A
100
AcDbSymbolTableRecord
100
AcDbDimStyleTableRecord
  2
23NSTD
 70
     0
 40
3.0
 42
0.063
 43
0.281
 44
0.093
140
0.125
271
     3
272
     3
289
     0
340
11
  0
DIMSTYLE
105
39
330
A
100
AcDbSymbolTableRecord
100
AcDbDimStyleTableRecord
  2
23NSTDI
 70
     0
 40
3.0
 42
0.063
 43
0.281
 44
0.093
140
0.125
174
     1
271
     3
272
     3
289
     0
340
11
  0
ENDTAB
  0
TABLE
  2
BLOCK_RECORD
  5
1
330
0
100
AcDbSymbolTable
 70
    21
  0
BLOCK_RECORD
  5
1E
330
1
100
AcDbSymbolTableRecord
100
AcDbBlockTableRecord
  2
*Model_Space
340
21
  0
BLOCK_RECORD
  5
1A
330
1
100
AcDbSymbolTableRecord
100
AcDbBlockTableRecord
  2
*Paper_Space
340
1D
  0
BLOCK_RECORD
  5
5E
330
1
100
AcDbSymbolTableRecord
100
AcDbBlockTableRecord
  2
ACAD
340
0
102
{BLKREFS
331
3E9
331
644
331
645
331
646
331
647
331
648
331
649
331
64A
331
64B
331
8D7
102
}
  0
BLOCK_RECORD
  5
64C
330
1
100
AcDbSymbolTableRecord
100
AcDbBlockTableRecord
  2
*D1
340
0
  0
BLOCK_RECORD
  5
659
330
1
100
AcDbSymbolTableRecord
100
AcDbBlockTableRecord
  2
*D2
340
0
  0
BLOCK_RECORD
  5
666
330
1
100
AcDbSymbolTableRecord
100
AcDbBlockTableRecord
  2
*D3
340
0
  0
BLOCK_RECORD
  5
673
330
1
100
AcDbSymbolTableRecord
100
AcDbBlockTableRecord
  2
*D4
340
0
  0
BLOCK_RECORD
  5
680
330
1
100
AcDbSymbolTableRecord
100
AcDbBlockTableRecord
  2
*D5
340
0
  0
BLOCK_RECORD
  5
68D
330
1
100
AcDbSymbolTableRecord
100
AcDbBlockTableRecord
  2
*D6
340
0
  0
BLOCK_RECORD
  5
69A
330
1
100
AcDbSymbolTableRecord
100
AcDbBlockTableRecord
  2
*D7
340
0
  0
BLOCK_RECORD
  5
6A7
330
1
100
AcDbSymbolTableRecord
100
AcDbBlockTableRecord
  2
*D8
340
0
  0
BLOCK_RECORD
  5
6B5
330
1
100
AcDbSymbolTableRecord
100
AcDbBlockTableRecord
  2
*D9
340
0
  0
BLOCK_RECORD
  5
6C3
330
1
100
AcDbSymbolTableRecord
100
AcDbBlockTableRecord
  2
*D10
340
0
  0
BLOCK_RECORD
  5
6D1
330
1
100
AcDbSymbolTableRecord
100
AcDbBlockTableRecord
  2
*D11
340
0
  0
BLOCK_RECORD
  5
6DF
330
1
100
AcDbSymbolTableRecord
100
AcDbBlockTableRecord
  2
*D12
340
0
  0
BLOCK_RECORD
  5
6EC
330
1
100
AcDbSymbolTableRecord
100
AcDbBlockTableRecord
  2
*D13
340
0
  0
BLOCK_RECORD
  5
6F9
330
1
100
AcDbSymbolTableRecord
100
AcDbBlockTableRecord
  2
*D14
340
0
  0
BLOCK_RECORD
  5
706
330
1
100
AcDbSymbolTableRecord
100
AcDbBlockTableRecord
  2
*D15
340
0
  0
BLOCK_RECORD
  5
714
330
1
100
AcDbSymbolTableRecord
100
AcDbBlockTableRecord
  2
*D16
340
0
  0
BLOCK_RECORD
  5
722
330
1
100
AcDbSymbolTableRecord
100
AcDbBlockTableRecord
  2
*D17
340
0
  0
BLOCK_RECORD
  5
72F
330
1
100
AcDbSymbolTableRecord
100
AcDbBlockTableRecord
  2
*D18
340
0
  0
BLOCK_RECORD
  5
73C
330
1
100
AcDbSymbolTableRecord
100
AcDbBlockTableRecord
  2
*D19
340
0
  0
BLOCK_RECORD
  5
8DC
330
1
100
AcDbSymbolTableRecord
100
AcDbBlockTableRecord
  2
HB
340
0
102
{BLKREFS
331
8F5
102
}
  0
ENDTAB
  0
ENDSEC
  0
SECTION
  2
BLOCKS
  0
BLOCK
  5
33
330
1E
100
AcDbEntity
  8
0
100
AcDbBlockBegin
  2
*Model_Space
 70
     0
 10
0.0
 20
0.0
 30
0.0
  3
*Model_Space
  1

  0
ENDBLK
  5
34
330
1E
100
AcDbEntity
  8
0
100
AcDbBlockEnd
  0
BLOCK
  5
31
330
1A
100
AcDbEntity
 67
     1
  8
0
100
AcDbBlockBegin
  2
*Paper_Space
 70
     0
 10
0.0
 20
0.0
 30
0.0
  3
*Paper_Space
  1

  0
ENDBLK
  5
32
330
1A
100
AcDbEntity
 67
     1
  8
0
100
AcDbBlockEnd
  0
BLOCK
  5
5F
330
5E
100
AcDbEntity
  8
0
100
AcDbBlockBegin
  2
ACAD
 70
     0
 10
0.0
 20
0.0
 30
0.0
  3
ACAD
  1

  0
ENDBLK
  5
60
330
5E
100
AcDbEntity
  8
0
100
AcDbBlockEnd
  0
BLOCK
  5
657
330
64C
100
AcDbEntity
  8
0
100
AcDbBlockBegin
  2
*D1
 70
     1
 10
0.0
 20
0.0
 30
0.0
  3
*D1
  1

  0
LINE
  5
917
330
64C
100
AcDbEntity
  8
DIM
 62
     0
370
    -2
100
AcDbLine
 10
4.593648498084764
 20
17.5149700406195
 30
0.0
 11
4.593648498084764
 21
16.51140657824165
 31
0.0
  0
LINE
  5
918
330
64C
100
AcDbEntity
  8
DIM
 62
     0
370
    -2
100
AcDbLine
 10
12.59364849808476
 20
17.5149700406195
 30
0.0
 11
12.59364849808476
 21
16.51140657824165
 31
0.0
  0
LINE
  5
919
330
64C
100
AcDbEntity
  8
DIM
 62
     0
370
    -2
100
AcDbLine
 10
5.133648498084764
 20
16.79040657824165
 30
0.0
 11
8.229898498084766
 21
16.79040657824165
 31
0.0
  0
LINE
  5
91A
330
64C
100
AcDbEntity
  8
DIM
 62
     0
370
    -2
100
AcDbLine
 10
12.05364849808477
 20
16.79040657824165
 30
0.0
 11
8.957398498084765
 21
16.79040657824165
 31
0.0
  0
SOLID
  5
91B
330
64C
100
AcDbEntity
  8
DIM
 62
     0
100
AcDbTrace
 10
5.133648498084764
 20
16.88040657824165
 30
0.0
 11
5.133648498084764
 21
16.70040657824165
 31
0.0
 12
4.593648498084764
 22
16.79040657824165
 32
0.0
 13
4.593648498084764
 23
16.79040657824165
 33
0.0
  0
SOLID
  5
91C
330
64C
100
AcDbEntity
  8
DIM
 62
     0
100
AcDbTrace
 10
12.05364849808477
 20
16.88040657824165
 30
0.0
 11
12.05364849808477
 21
16.70040657824165
 31
0.0
 12
12.59364849808476
 22
16.79040657824165
 32
0.0
 13
12.59364849808476
 23
16.79040657824165
 33
0.0
  0
MTEXT
  5
91D
330
64C
100
AcDbEntity
  8
DIM
 62
     0
100
AcDbMText
 10
8.593648498084766
 20
16.79040657824165
 30
0.0
 40
0.375
 41
0.0
 71
     5
 72
     1
  1
\A1;A
 73
     1
 44
1.0
  0
POINT
  5
91E
330
64C
100
AcDbEntity
  8
DEFPOINTS
 62
     0
100
AcDbPoint
 10
4.593648498084764
 20
17.7039700406195
 30
0.0
  0
POINT
  5
91F
330
64C
100
AcDbEntity
  8
DEFPOINTS
 62
     0
100
AcDbPoint
 10
12.59364849808476
 20
17.7039700406195
 30
0.0
  0
POINT
  5
920
330
64C
100
AcDbEntity
  8
DEFPOINTS
 62
     0
100
AcDbPoint
 10
12.59364849808476
 20
16.79040657824165
 30
0.0
  0
ENDBLK
  5
658
330
64C
100
AcDbEntity
  8
0
100
AcDbBlockEnd
  0
BLOCK
  5
664
330
659
100
AcDbEntity
  8
0
100
AcDbBlockBegin
  2
*D2
 70
     1
 10
0.0
 20
0.0
 30
0.0
  3
*D2
  1

  0
LINE
  5
974
330
659
100
AcDbEntity
  8
DIM
 62
     0
370
    -2
100
AcDbLine
 10
15.0778673428406
 20
17.5149700406195
 30
0.0
 11
15.0778673428406
 21
16.51140657824165
 31
0.0
  0
LINE
  5
975
330
659
100
AcDbEntity
  8
DIM
 62
     0
370
    -2
100
AcDbLine
 10
21.07786734284061
 20
17.5149700406195
 30
0.0
 11
21.07786734284061
 21
16.51140657824165
 31
0.0
  0
LINE
  5
976
330
659
100
AcDbEntity
  8
DIM
 62
     0
370
    -2
100
AcDbLine
 10
15.6178673428406
 20
16.79040657824165
 30
0.0
 11
17.7141173428406
 21
16.79040657824165
 31
0.0
  0
LINE
  5
977
330
659
100
AcDbEntity
  8
DIM
 62
     0
370
    -2
100
AcDbLine
 10
20.53786734284061
 20
16.79040657824165
 30
0.0
 11
18.4416173428406
 21
16.79040657824165
 31
0.0
  0
SOLID
  5
978
330
659
100
AcDbEntity
  8
DIM
 62
     0
100
AcDbTrace
 10
15.6178673428406
 20
16.88040657824165
 30
0.0
 11
15.6178673428406
 21
16.70040657824165
 31
0.0
 12
15.0778673428406
 22
16.79040657824165
 32
0.0
 13
15.0778673428406
 23
16.79040657824165
 33
0.0
  0
SOLID
  5
979
330
659
100
AcDbEntity
  8
DIM
 62
     0
100
AcDbTrace
 10
20.53786734284061
 20
16.88040657824165
 30
0.0
 11
20.53786734284061
 21
16.70040657824165
 31
0.0
 12
21.07786734284061
 22
16.79040657824165
 32
0.0
 13
21.07786734284061
 23
16.79040657824165
 33
0.0
  0
MTEXT
  5
97A
330
659
100
AcDbEntity
  8
DIM
 62
     0
100
AcDbMText
 10
18.07786734284061
 20
16.79040657824165
 30
0.0
 40
0.375
 41
0.0
 71
     5
 72
     1
  1
\A1;B
 73
     1
 44
1.0
  0
POINT
  5
97B
330
659
100
AcDbEntity
  8
DEFPOINTS
 62
     0
100
AcDbPoint
 10
15.0778673428406
 20
17.7039700406195
 30
0.0
  0
POINT
  5
97C
330
659
100
AcDbEntity
  8
DEFPOINTS
 62
     0
100
AcDbPoint
 10
21.07786734284061
 20
17.7039700406195
 30
0.0
  0
POINT
  5
97D
330
659
100
AcDbEntity
  8
DEFPOINTS
 62
     0
100
AcDbPoint
 10
21.07786734284061
 20
16.79040657824165
 30
0.0
  0
ENDBLK
  5
665
330
659
100
AcDbEntity
  8
0
100
AcDbBlockEnd
  0
BLOCK
  5
671
330
666
100
AcDbEntity
  8
0
100
AcDbBlockBegin
  2
*D3
 70
     1
 10
0.0
 20
0.0
 30
0.0
  3
*D3
  1

  0
LINE
  5
97E
330
666
100
AcDbEntity
  8
DIM
 62
     0
370
    -2
100
AcDbLine
 10
12.78264849808476
 20
19.7039700406195
 30
0.0
 11
13.6562842923526
 21
19.7039700406195
 31
0.0
  0
LINE
  5
97F
330
666
100
AcDbEntity
  8
DIM
 62
     0
370
    -2
100
AcDbLine
 10
12.78264849808476
 20
17.7039700406195
 30
0.0
 11
13.6562842923526
 21
17.7039700406195
 31
0.0
  0
LINE
  5
980
330
666
100
AcDbEntity
  8
DIM
 62
     0
370
    -2
100
AcDbLine
 10
13.3772842923526
 20
20.2439700406195
 30
0.0
 11
13.3772842923526
 21
20.7839700406195
 31
0.0
  0
LINE
  5
981
330
666
100
AcDbEntity
  8
DIM
 62
     0
370
    -2
100
AcDbLine
 10
13.3772842923526
 20
17.1639700406195
 30
0.0
 11
13.3772842923526
 21
16.6239700406195
 31
0.0
  0
SOLID
  5
982
330
666
100
AcDbEntity
  8
DIM
 62
     0
100
AcDbTrace
 10
13.2872842923526
 20
20.2439700406195
 30
0.0
 11
13.4672842923526
 21
20.2439700406195
 31
0.0
 12
13.3772842923526
 22
19.7039700406195
 32
0.0
 13
13.3772842923526
 23
19.7039700406195
 33
0.0
  0
SOLID
  5
983
330
666
100
AcDbEntity
  8
DIM
 62
     0
100
AcDbTrace
 10
13.2872842923526
 20
17.1639700406195
 30
0.0
 11
13.4672842923526
 21
17.1639700406195
 31
0.0
 12
13.3772842923526
 22
17.7039700406195
 32
0.0
 13
13.3772842923526
 23
17.7039700406195
 33
0.0
  0
MTEXT
  5
984
330
666
100
AcDbEntity
  8
DIM
 62
     0
100
AcDbMText
 10
13.3772842923526
 20
18.64309596929307
 30
0.0
 40
0.375
 41
0.0
 71
     5
 72
     1
  1
\A1;C
 73
     1
 44
1.0
  0
POINT
  5
985
330
666
100
AcDbEntity
  8
DEFPOINTS
 62
     0
100
AcDbPoint
 10
12.59364849808476
 20
19.7039700406195
 30
0.0
  0
POINT
  5
986
330
666
100
AcDbEntity
  8
DEFPOINTS
 62
     0
100
AcDbPoint
 10
12.59364849808476
 20
17.7039700406195
 30
0.0
  0
POINT
  5
987
330
666
100
AcDbEntity
  8
DEFPOINTS
 62
     0
100
AcDbPoint
 10
13.3772842923526
 20
17.7039700406195
 30
0.0
  0
ENDBLK
  5
672
330
666
100
AcDbEntity
  8
0
100
AcDbBlockEnd
  0
BLOCK
  5
67E
330
673
100
AcDbEntity
  8
0
100
AcDbBlockBegin
  2
*D4
 70
     1
 10
0.0
 20
0.0
 30
0.0
  3
*D4
  1

  0
LINE
  5
988
330
673
100
AcDbEntity
  8
DIM
 62
     0
370
    -2
100
AcDbLine
 10
21.2668673428406
 20
19.7039700406195
 30
0.0
 11
22.34370807913225
 21
19.7039700406195
 31
0.0
  0
LINE
  5
989
330
673
100
AcDbEntity
  8
DIM
 62
     0
370
    -2
100
AcDbLine
 10
20.2670024907547
 20
18.7041942051012
 30
0.0
 11
22.34370807913225
 21
18.7041942051012
 31
0.0
  0
LINE
  5
98A
330
673
100
AcDbEntity
  8
DIM
 62
     0
370
    -2
100
AcDbLine
 10
22.06470807913225
 20
20.2439700406195
 30
0.0
 11
22.06470807913225
 21
20.7839700406195
 31
0.0
  0
LINE
  5
98B
330
673
100
AcDbEntity
  8
DIM
 62
     0
370
    -2
100
AcDbLine
 10
22.06470807913225
 20
18.1641942051012
 30
0.0
 11
22.06470807913225
 21
17.6241942051012
 31
0.0
  0
LINE
  5
98C
330
673
100
AcDbEntity
  8
DIM
 62
     0
370
    -2
100
AcDbLine
 10
22.06470807913225
 20
17.6241942051012
 30
0.0
 11
21.52470807913225
 21
17.6241942051012
 31
0.0
  0
SOLID
  5
98D
330
673
100
AcDbEntity
  8
DIM
 62
     0
100
AcDbTrace
 10
21.97470807913225
 20
20.2439700406195
 30
0.0
 11
22.15470807913225
 21
20.2439700406195
 31
0.0
 12
22.06470807913225
 22
19.7039700406195
 32
0.0
 13
22.06470807913225
 23
19.7039700406195
 33
0.0
  0
SOLID
  5
98E
330
673
100
AcDbEntity
  8
DIM
 62
     0
100
AcDbTrace
 10
21.97470807913225
 20
18.1641942051012
 30
0.0
 11
22.15470807913225
 21
18.1641942051012
 31
0.0
 12
22.06470807913225
 22
18.7041942051012
 32
0.0
 13
22.06470807913225
 23
18.7041942051012
 33
0.0
  0
MTEXT
  5
98F
330
673
100
AcDbEntity
  8
DIM
 62
     0
100
AcDbMText
 10
20.80939557913225
 20
17.6241942051012
 30
0.0
 40
0.375
 41
0.0
 71
     5
 72
     1
  1
\A1;1.000
 73
     1
 44
1.0
  0
POINT
  5
990
330
673
100
AcDbEntity
  8
DEFPOINTS
 62
     0
100
AcDbPoint
 10
21.07786734284061
 20
19.7039700406195
 30
0.0
  0
POINT
  5
991
330
673
100
AcDbEntity
  8
DEFPOINTS
 62
     0
100
AcDbPoint
 10
20.0780024907547
 20
18.7041942051012
 30
0.0
  0
POINT
  5
992
330
673
100
AcDbEntity
  8
DEFPOINTS
 62
     0
100
AcDbPoint
 10
22.06470807913225
 20
18.7041942051012
 30
0.0
  0
ENDBLK
  5
67F
330
673
100
AcDbEntity
  8
0
100
AcDbBlockEnd
  0
BLOCK
  5
68B
330
680
100
AcDbEntity
  8
0
100
AcDbBlockBegin
  2
*D5
 70
     1
 10
0.0
 20
0.0
 30
0.0
  3
*D5
  1

  0
LINE
  5
96A
330
680
100
AcDbEntity
  8
DIM
 62
     0
370
    -2
100
AcDbLine
 10
15.0778673428406
 20
19.8929700406195
 30
0.0
 11
15.0778673428406
 21
21.13123758066713
 31
0.0
  0
LINE
  5
96B
330
680
100
AcDbEntity
  8
DIM
 62
     0
370
    -2
100
AcDbLine
 10
16.07773219492649
 20
18.8931942051012
 30
0.0
 11
16.07773219492649
 21
21.13123758066713
 31
0.0
  0
LINE
  5
96C
330
680
100
AcDbEntity
  8
DIM
 62
     0
370
    -2
100
AcDbLine
 10
14.53786734284061
 20
20.85223758066713
 30
0.0
 11
13.9978673428406
 21
20.85223758066713
 31
0.0
  0
LINE
  5
96D
330
680
100
AcDbEntity
  8
DIM
 62
     0
370
    -2
100
AcDbLine
 10
16.61773219492649
 20
20.85223758066713
 30
0.0
 11
17.1577321949265
 21
20.85223758066713
 31
0.0
  0
SOLID
  5
96E
330
680
100
AcDbEntity
  8
DIM
 62
     0
100
AcDbTrace
 10
14.53786734284061
 20
20.94223758066713
 30
0.0
 11
14.53786734284061
 21
20.76223758066713
 31
0.0
 12
15.0778673428406
 22
20.85223758066713
 32
0.0
 13
15.0778673428406
 23
20.85223758066713
 33
0.0
  0
SOLID
  5
96F
330
680
100
AcDbEntity
  8
DIM
 62
     0
100
AcDbTrace
 10
16.61773219492649
 20
20.94223758066713
 30
0.0
 11
16.61773219492649
 21
20.76223758066713
 31
0.0
 12
16.07773219492649
 22
20.85223758066713
 32
0.0
 13
16.07773219492649
 23
20.85223758066713
 33
0.0
  0
MTEXT
  5
970
330
680
100
AcDbEntity
  8
DIM
 62
     0
100
AcDbMText
 10
17.87304469492649
 20
20.85223758066713
 30
0.0
 40
0.375
 41
0.0
 71
     5
 72
     1
  1
\A1;1.000
 73
     1
 44
1.0
  0
POINT
  5
971
330
680
100
AcDbEntity
  8
DEFPOINTS
 62
     0
100
AcDbPoint
 10
15.0778673428406
 20
19.7039700406195
 30
0.0
  0
POINT
  5
972
330
680
100
AcDbEntity
  8
DEFPOINTS
 62
     0
100
AcDbPoint
 10
16.07773219492649
 20
18.7041942051012
 30
0.0
  0
POINT
  5
973
330
680
100
AcDbEntity
  8
DEFPOINTS
 62
     0
100
AcDbPoint
 10
16.07773219492649
 20
20.85223758066713
 30
0.0
  0
ENDBLK
  5
68C
330
680
100
AcDbEntity
  8
0
100
AcDbBlockEnd
  0
BLOCK
  5
698
330
68D
100
AcDbEntity
  8
0
100
AcDbBlockBegin
  2
*D6
 70
     1
 10
0.0
 20
0.0
 30
0.0
  3
*D6
  1

  0
LINE
  5
960
330
68D
100
AcDbEntity
  8
DIM
 62
     0
370
    -2
100
AcDbLine
 10
20.0780024907547
 20
18.8931942051012
 30
0.0
 11
20.0780024907547
 21
21.13123758066713
 31
0.0
  0
LINE
  5
961
330
68D
100
AcDbEntity
  8
DIM
 62
     0
370
    -2
100
AcDbLine
 10
21.07786734284061
 20
19.8929700406195
 30
0.0
 11
21.07786734284061
 21
21.13123758066713
 31
0.0
  0
LINE
  5
962
330
68D
100
AcDbEntity
  8
DIM
 62
     0
370
    -2
100
AcDbLine
 10
19.53800249075471
 20
20.85223758066713
 30
0.0
 11
18.9980024907547
 21
20.85223758066713
 31
0.0
  0
LINE
  5
963
330
68D
100
AcDbEntity
  8
DIM
 62
     0
370
    -2
100
AcDbLine
 10
21.6178673428406
 20
20.85223758066713
 30
0.0
 11
22.15786734284061
 21
20.85223758066713
 31
0.0
  0
SOLID
  5
964
330
68D
100
AcDbEntity
  8
DIM
 62
     0
100
AcDbTrace
 10
19.53800249075471
 20
20.94223758066713
 30
0.0
 11
19.53800249075471
 21
20.76223758066713
 31
0.0
 12
20.0780024907547
 22
20.85223758066713
 32
0.0
 13
20.0780024907547
 23
20.85223758066713
 33
0.0
  0
SOLID
  5
965
330
68D
100
AcDbEntity
  8
DIM
 62
     0
100
AcDbTrace
 10
21.6178673428406
 20
20.94223758066713
 30
0.0
 11
21.6178673428406
 21
20.76223758066713
 31
0.0
 12
21.07786734284061
 22
20.85223758066713
 32
0.0
 13
21.07786734284061
 23
20.85223758066713
 33
0.0
  0
MTEXT
  5
966
330
68D
100
AcDbEntity
  8
DIM
 62
     0
100
AcDbMText
 10
22.87317984284061
 20
20.85223758066713
 30
0.0
 40
0.375
 41
0.0
 71
     5
 72
     1
  1
\A1;1.000
 73
     1
 44
1.0
  0
POINT
  5
967
330
68D
100
AcDbEntity
  8
DEFPOINTS
 62
     0
100
AcDbPoint
 10
20.0780024907547
 20
18.7041942051012
 30
0.0
  0
POINT
  5
968
330
68D
100
AcDbEntity
  8
DEFPOINTS
 62
     0
100
AcDbPoint
 10
21.07786734284061
 20
19.7039700406195
 30
0.0
  0
POINT
  5
969
330
68D
100
AcDbEntity
  8
DEFPOINTS
 62
     0
100
AcDbPoint
 10
21.07786734284061
 20
20.85223758066713
 30
0.0
  0
ENDBLK
  5
699
330
68D
100
AcDbEntity
  8
0
100
AcDbBlockEnd
  0
BLOCK
  5
6A5
330
69A
100
AcDbEntity
  8
0
100
AcDbBlockBegin
  2
*D7
 70
     1
 10
0.0
 20
0.0
 30
0.0
  3
*D7
  1

  0
LINE
  5
941
330
69A
100
AcDbEntity
  8
DIM
 62
     0
370
    -2
100
AcDbLine
 10
7.562148498084777
 20
30.04619870293623
 30
0.0
 11
7.562148498084777
 21
28.90655047081324
 31
0.0
  0
LINE
  5
942
330
69A
100
AcDbEntity
  8
DIM
 62
     0
370
    -2
100
AcDbLine
 10
4.593648498084764
 20
29.73294870293623
 30
0.0
 11
4.593648498084764
 21
28.90655047081324
 31
0.0
  0
LINE
  5
943
330
69A
100
AcDbEntity
  8
DIM
 62
     0
370
    -2
100
AcDbLine
 10
7.022148498084777
 20
29.18555047081323
 30
0.0
 11
6.910398498084767
 21
29.18555047081323
 31
0.0
  0
LINE
  5
944
330
69A
100
AcDbEntity
  8
DIM
 62
     0
370
    -2
100
AcDbLine
 10
5.133648498084764
 20
29.18555047081323
 30
0.0
 11
5.245398498084767
 21
29.18555047081323
 31
0.0
  0
SOLID
  5
945
330
69A
100
AcDbEntity
  8
DIM
 62
     0
100
AcDbTrace
 10
7.022148498084777
 20
29.27555047081323
 30
0.0
 11
7.022148498084777
 21
29.09555047081323
 31
0.0
 12
7.562148498084777
 22
29.18555047081323
 32
0.0
 13
7.562148498084777
 23
29.18555047081323
 33
0.0
  0
SOLID
  5
946
330
69A
100
AcDbEntity
  8
DIM
 62
     0
100
AcDbTrace
 10
5.133648498084764
 20
29.27555047081323
 30
0.0
 11
5.133648498084764
 21
29.09555047081323
 31
0.0
 12
4.593648498084764
 22
29.18555047081323
 32
0.0
 13
4.593648498084764
 23
29.18555047081323
 33
0.0
  0
MTEXT
  5
947
330
69A
100
AcDbEntity
  8
DIM
 62
     0
100
AcDbMText
 10
6.077898498084767
 20
29.18555047081323
 30
0.0
 40
0.375
 41
0.0
 71
     5
 72
     1
  1
\A1;2.969
 73
     1
 44
1.0
  0
POINT
  5
948
330
69A
100
AcDbEntity
  8
DEFPOINTS
 62
     0
100
AcDbPoint
 10
7.562148498084777
 20
30.23519870293623
 30
0.0
  0
POINT
  5
949
330
69A
100
AcDbEntity
  8
DEFPOINTS
 62
     0
100
AcDbPoint
 10
4.593648498084764
 20
29.92194870293623
 30
0.0
  0
POINT
  5
94A
330
69A
100
AcDbEntity
  8
DEFPOINTS
 62
     0
100
AcDbPoint
 10
4.593648498084764
 20
29.18555047081323
 30
0.0
  0
ENDBLK
  5
6A6
330
69A
100
AcDbEntity
  8
0
100
AcDbBlockEnd
  0
BLOCK
  5
6B3
330
6A7
100
AcDbEntity
  8
0
100
AcDbBlockBegin
  2
*D8
 70
     1
 10
0.0
 20
0.0
 30
0.0
  3
*D8
  1

  0
LINE
  5
90C
330
6A7
100
AcDbEntity
  8
DIM
 62
     0
370
    -2
100
AcDbLine
 10
7.751148498084777
 20
30.23519870293623
 30
0.0
 11
8.583383194787352
 21
30.23519870293623
 31
0.0
  0
LINE
  5
90D
330
6A7
100
AcDbEntity
  8
DIM
 62
     0
370
    -2
100
AcDbLine
 10
8.360363185947448
 20
30.42194870293622
 30
0.0
 11
8.583383194787352
 21
30.42194870293622
 31
0.0
  0
LINE
  5
90E
330
6A7
100
AcDbEntity
  8
DIM
 62
     0
370
    -2
100
AcDbLine
 10
8.304383194787352
 20
29.69519870293623
 30
0.0
 11
8.304383194787352
 21
29.15519870293623
 31
0.0
  0
LINE
  5
90F
330
6A7
100
AcDbEntity
  8
DIM
 62
     0
370
    -2
100
AcDbLine
 10
8.304383194787352
 20
30.96194870293622
 30
0.0
 11
8.304383194787352
 21
31.50194870293622
 31
0.0
  0
LINE
  5
910
330
6A7
100
AcDbEntity
  8
DIM
 62
     0
370
    -2
100
AcDbLine
 10
8.304383194787352
 20
31.50194870293622
 30
0.0
 11
8.844383194787351
 21
31.50194870293622
 31
0.0
  0
SOLID
  5
911
330
6A7
100
AcDbEntity
  8
DIM
 62
     0
100
AcDbTrace
 10
8.214383194787352
 20
29.69519870293623
 30
0.0
 11
8.394383194787351
 21
29.69519870293623
 31
0.0
 12
8.304383194787352
 22
30.23519870293623
 32
0.0
 13
8.304383194787352
 23
30.23519870293623
 33
0.0
  0
SOLID
  5
912
330
6A7
100
AcDbEntity
  8
DIM
 62
     0
100
AcDbTrace
 10
8.214383194787352
 20
30.96194870293622
 30
0.0
 11
8.394383194787351
 21
30.96194870293622
 31
0.0
 12
8.304383194787352
 22
30.42194870293622
 32
0.0
 13
8.304383194787352
 23
30.42194870293622
 33
0.0
  0
MTEXT
  5
913
330
6A7
100
AcDbEntity
  8
DIM
 62
     0
100
AcDbMText
 10
9.606570694787347
 20
31.50194870293623
 30
0.0
 40
0.375
 41
0.0
 71
     5
 72
     1
  1
\A1;0.187
 73
     1
 44
1.0
  0
POINT
  5
914
330
6A7
100
AcDbEntity
  8
DEFPOINTS
 62
     0
100
AcDbPoint
 10
7.562148498084777
 20
30.23519870293623
 30
0.0
  0
POINT
  5
915
330
6A7
100
AcDbEntity
  8
DEFPOINTS
 62
     0
100
AcDbPoint
 10
8.171363185947448
 20
30.42194870293622
 30
0.0
  0
POINT
  5
916
330
6A7
100
AcDbEntity
  8
DEFPOINTS
 62
     0
100
AcDbPoint
 10
8.304383194787352
 20
30.42194870293622
 30
0.0
  0
ENDBLK
  5
6B4
330
6A7
100
AcDbEntity
  8
0
100
AcDbBlockEnd
  0
BLOCK
  5
6C1
330
6B5
100
AcDbEntity
  8
0
100
AcDbBlockBegin
  2
*D9
 70
     1
 10
0.0
 20
0.0
 30
0.0
  3
*D9
  1

  0
LINE
  5
94B
330
6B5
100
AcDbEntity
  8
DIM
 62
     0
370
    -2
100
AcDbLine
 10
7.751148498084777
 20
35.60869870293622
 30
0.0
 11
8.615904875185176
 21
35.60869870293622
 31
0.0
  0
LINE
  5
94C
330
6B5
100
AcDbEntity
  8
DIM
 62
     0
370
    -2
100
AcDbLine
 10
8.360363185947448
 20
35.42194870293622
 30
0.0
 11
8.615904875185176
 21
35.42194870293622
 31
0.0
  0
LINE
  5
94D
330
6B5
100
AcDbEntity
  8
DIM
 62
     0
370
    -2
100
AcDbLine
 10
8.336904875185178
 20
36.14869870293622
 30
0.0
 11
8.336904875185178
 21
36.68869870293622
 31
0.0
  0
LINE
  5
94E
330
6B5
100
AcDbEntity
  8
DIM
 62
     0
370
    -2
100
AcDbLine
 10
8.336904875185176
 20
34.88194870293622
 30
0.0
 11
8.336904875185176
 21
34.34194870293622
 31
0.0
  0
LINE
  5
94F
330
6B5
100
AcDbEntity
  8
DIM
 62
     0
370
    -2
100
AcDbLine
 10
8.336904875185176
 20
34.34194870293622
 30
0.0
 11
7.796904875185177
 21
34.34194870293622
 31
0.0
  0
SOLID
  5
950
330
6B5
100
AcDbEntity
  8
DIM
 62
     0
100
AcDbTrace
 10
8.246904875185178
 20
36.14869870293622
 30
0.0
 11
8.426904875185178
 21
36.14869870293622
 31
0.0
 12
8.336904875185176
 22
35.60869870293622
 32
0.0
 13
8.336904875185176
 23
35.60869870293622
 33
0.0
  0
SOLID
  5
951
330
6B5
100
AcDbEntity
  8
DIM
 62
     0
100
AcDbTrace
 10
8.246904875185176
 20
34.88194870293622
 30
0.0
 11
8.426904875185176
 21
34.88194870293622
 31
0.0
 12
8.336904875185176
 22
35.42194870293622
 32
0.0
 13
8.336904875185176
 23
35.42194870293622
 33
0.0
  0
MTEXT
  5
952
330
6B5
100
AcDbEntity
  8
DIM
 62
     0
100
AcDbMText
 10
7.03471737518517
 20
34.34194870293622
 30
0.0
 40
0.375
 41
0.0
 71
     5
 72
     1
  1
\A1;0.187
 73
     1
 44
1.0
  0
POINT
  5
953
330
6B5
100
AcDbEntity
  8
DEFPOINTS
 62
     0
100
AcDbPoint
 10
7.562148498084777
 20
35.60869870293622
 30
0.0
  0
POINT
  5
954
330
6B5
100
AcDbEntity
  8
DEFPOINTS
 62
     0
100
AcDbPoint
 10
8.171363185947448
 20
35.42194870293622
 30
0.0
  0
POINT
  5
955
330
6B5
100
AcDbEntity
  8
DEFPOINTS
 62
     0
100
AcDbPoint
 10
8.336904875185176
 20
35.42194870293622
 30
0.0
  0
ENDBLK
  5
6C2
330
6B5
100
AcDbEntity
  8
0
100
AcDbBlockEnd
  0
BLOCK
  5
6CF
330
6C3
100
AcDbEntity
  8
0
100
AcDbBlockBegin
  2
*D10
 70
     1
 10
0.0
 20
0.0
 30
0.0
  3
*D10
  1

  0
LINE
  5
901
330
6C3
100
AcDbEntity
  8
DIM
 62
     0
370
    -2
100
AcDbLine
 10
8.782648498084768
 20
43.69111719169977
 30
0.0
 11
10.90416932360411
 21
43.69111719169977
 31
0.0
  0
LINE
  5
902
330
6C3
100
AcDbEntity
  8
DIM
 62
     0
370
    -2
100
AcDbLine
 10
9.291314404518598
 20
43.50411719169978
 30
0.0
 11
10.90416932360411
 21
43.50411719169978
 31
0.0
  0
LINE
  5
903
330
6C3
100
AcDbEntity
  8
DIM
 62
     0
370
    -2
100
AcDbLine
 10
10.62516932360411
 20
44.23111719169977
 30
0.0
 11
10.62516932360411
 21
44.77111719169977
 31
0.0
  0
LINE
  5
904
330
6C3
100
AcDbEntity
  8
DIM
 62
     0
370
    -2
100
AcDbLine
 10
10.62516932360411
 20
42.96411719169977
 30
0.0
 11
10.62516932360411
 21
42.42411719169978
 31
0.0
  0
LINE
  5
905
330
6C3
100
AcDbEntity
  8
DIM
 62
     0
370
    -2
100
AcDbLine
 10
10.62516932360411
 20
42.42411719169978
 30
0.0
 11
10.08516932360411
 21
42.42411719169978
 31
0.0
  0
SOLID
  5
906
330
6C3
100
AcDbEntity
  8
DIM
 62
     0
100
AcDbTrace
 10
10.53516932360411
 20
44.23111719169977
 30
0.0
 11
10.71516932360411
 21
44.23111719169977
 31
0.0
 12
10.62516932360411
 22
43.69111719169977
 32
0.0
 13
10.62516932360411
 23
43.69111719169977
 33
0.0
  0
SOLID
  5
907
330
6C3
100
AcDbEntity
  8
DIM
 62
     0
100
AcDbTrace
 10
10.53516932360411
 20
42.96411719169977
 30
0.0
 11
10.71516932360411
 21
42.96411719169977
 31
0.0
 12
10.62516932360411
 22
43.50411719169978
 32
0.0
 13
10.62516932360411
 23
43.50411719169978
 33
0.0
  0
MTEXT
  5
908
330
6C3
100
AcDbEntity
  8
DIM
 62
     0
100
AcDbMText
 10
9.322981823604107
 20
42.42411719169978
 30
0.0
 40
0.375
 41
0.0
 71
     5
 72
     1
  1
\A1;0.187
 73
     1
 44
1.0
  0
POINT
  5
909
330
6C3
100
AcDbEntity
  8
DEFPOINTS
 62
     0
100
AcDbPoint
 10
8.593648498084768
 20
43.69111719169977
 30
0.0
  0
POINT
  5
90A
330
6C3
100
AcDbEntity
  8
DEFPOINTS
 62
     0
100
AcDbPoint
 10
9.102314404518597
 20
43.50411719169978
 30
0.0
  0
POINT
  5
90B
330
6C3
100
AcDbEntity
  8
DEFPOINTS
 62
     0
100
AcDbPoint
 10
10.62516932360411
 20
43.50411719169978
 30
0.0
  0
ENDBLK
  5
6D0
330
6C3
100
AcDbEntity
  8
0
100
AcDbBlockEnd
  0
BLOCK
  5
6DD
330
6D1
100
AcDbEntity
  8
0
100
AcDbBlockBegin
  2
*D11
 70
     1
 10
0.0
 20
0.0
 30
0.0
  3
*D11
  1

  0
LINE
  5
8F6
330
6D1
100
AcDbEntity
  8
DIM
 62
     0
370
    -2
100
AcDbLine
 10
8.782648498084768
 20
38.31711719169978
 30
0.0
 11
10.27917606392539
 21
38.31711719169978
 31
0.0
  0
LINE
  5
8F7
330
6D1
100
AcDbEntity
  8
DIM
 62
     0
370
    -2
100
AcDbLine
 10
9.291314404518598
 20
38.50411719169978
 30
0.0
 11
10.27917606392539
 21
38.50411719169978
 31
0.0
  0
LINE
  5
8F8
330
6D1
100
AcDbEntity
  8
DIM
 62
     0
370
    -2
100
AcDbLine
 10
10.00017606392539
 20
37.77711719169978
 30
0.0
 11
10.00017606392539
 21
37.23711719169978
 31
0.0
  0
LINE
  5
8F9
330
6D1
100
AcDbEntity
  8
DIM
 62
     0
370
    -2
100
AcDbLine
 10
10.00017606392539
 20
39.04411719169977
 30
0.0
 11
10.00017606392539
 21
39.58411719169977
 31
0.0
  0
LINE
  5
8FA
330
6D1
100
AcDbEntity
  8
DIM
 62
     0
370
    -2
100
AcDbLine
 10
10.00017606392539
 20
39.58411719169977
 30
0.0
 11
10.54017606392539
 21
39.58411719169977
 31
0.0
  0
SOLID
  5
8FB
330
6D1
100
AcDbEntity
  8
DIM
 62
     0
100
AcDbTrace
 10
9.910176063925398
 20
37.77711719169978
 30
0.0
 11
10.09017606392539
 21
37.77711719169978
 31
0.0
 12
10.00017606392539
 22
38.31711719169978
 32
0.0
 13
10.00017606392539
 23
38.31711719169978
 33
0.0
  0
SOLID
  5
8FC
330
6D1
100
AcDbEntity
  8
DIM
 62
     0
100
AcDbTrace
 10
9.910176063925398
 20
39.04411719169977
 30
0.0
 11
10.09017606392539
 21
39.04411719169977
 31
0.0
 12
10.00017606392539
 22
38.50411719169978
 32
0.0
 13
10.00017606392539
 23
38.50411719169978
 33
0.0
  0
MTEXT
  5
8FD
330
6D1
100
AcDbEntity
  8
DIM
 62
     0
100
AcDbMText
 10
11.30236356392539
 20
39.58411719169977
 30
0.0
 40
0.375
 41
0.0
 71
     5
 72
     1
  1
\A1;0.187
 73
     1
 44
1.0
  0
POINT
  5
8FE
330
6D1
100
AcDbEntity
  8
DEFPOINTS
 62
     0
100
AcDbPoint
 10
8.593648498084768
 20
38.31711719169978
 30
0.0
  0
POINT
  5
8FF
330
6D1
100
AcDbEntity
  8
DEFPOINTS
 62
     0
100
AcDbPoint
 10
9.102314404518597
 20
38.50411719169978
 30
0.0
  0
POINT
  5
900
330
6D1
100
AcDbEntity
  8
DEFPOINTS
 62
     0
100
AcDbPoint
 10
10.00017606392539
 20
38.50411719169978
 30
0.0
  0
ENDBLK
  5
6DE
330
6D1
100
AcDbEntity
  8
0
100
AcDbBlockEnd
  0
BLOCK
  5
6EA
330
6DF
100
AcDbEntity
  8
0
100
AcDbBlockBegin
  2
*D12
 70
     1
 10
0.0
 20
0.0
 30
0.0
  3
*D12
  1

  0
LINE
  5
956
330
6DF
100
AcDbEntity
  8
DIM
 62
     0
370
    -2
100
AcDbLine
 10
4.906648498084763
 20
40.81511719169977
 30
0.0
 11
4.906648498084763
 21
40.02606674483557
 31
0.0
  0
LINE
  5
957
330
6DF
100
AcDbEntity
  8
DIM
 62
     0
370
    -2
100
AcDbLine
 10
5.093648498084764
 20
40.74350282304195
 30
0.0
 11
5.093648498084764
 21
40.02606674483557
 31
0.0
  0
LINE
  5
958
330
6DF
100
AcDbEntity
  8
DIM
 62
     0
370
    -2
100
AcDbLine
 10
4.366648498084763
 20
40.30506674483556
 30
0.0
 11
3.826648498084763
 21
40.30506674483556
 31
0.0
  0
LINE
  5
959
330
6DF
100
AcDbEntity
  8
DIM
 62
     0
370
    -2
100
AcDbLine
 10
5.633648498084764
 20
40.30506674483556
 30
0.0
 11
6.173648498084764
 21
40.30506674483556
 31
0.0
  0
SOLID
  5
95A
330
6DF
100
AcDbEntity
  8
DIM
 62
     0
100
AcDbTrace
 10
4.366648498084763
 20
40.39506674483557
 30
0.0
 11
4.366648498084763
 21
40.21506674483556
 31
0.0
 12
4.906648498084763
 22
40.30506674483556
 32
0.0
 13
4.906648498084763
 23
40.30506674483556
 33
0.0
  0
SOLID
  5
95B
330
6DF
100
AcDbEntity
  8
DIM
 62
     0
100
AcDbTrace
 10
5.633648498084764
 20
40.39506674483557
 30
0.0
 11
5.633648498084764
 21
40.21506674483556
 31
0.0
 12
5.093648498084764
 22
40.30506674483556
 32
0.0
 13
5.093648498084764
 23
40.30506674483556
 33
0.0
  0
MTEXT
  5
95C
330
6DF
100
AcDbEntity
  8
DIM
 62
     0
100
AcDbMText
 10
6.935835998084764
 20
40.30506674483556
 30
0.0
 40
0.375
 41
0.0
 71
     5
 72
     1
  1
\A1;0.187
 73
     1
 44
1.0
  0
POINT
  5
95D
330
6DF
100
AcDbEntity
  8
DEFPOINTS
 62
     0
100
AcDbPoint
 10
4.906648498084763
 20
41.00411719169978
 30
0.0
  0
POINT
  5
95E
330
6DF
100
AcDbEntity
  8
DEFPOINTS
 62
     0
100
AcDbPoint
 10
5.093648498084764
 20
40.93250282304196
 30
0.0
  0
POINT
  5
95F
330
6DF
100
AcDbEntity
  8
DEFPOINTS
 62
     0
100
AcDbPoint
 10
5.093648498084764
 20
40.30506674483556
 30
0.0
  0
ENDBLK
  5
6EB
330
6DF
100
AcDbEntity
  8
0
100
AcDbBlockEnd
  0
BLOCK
  5
6F7
330
6EC
100
AcDbEntity
  8
0
100
AcDbBlockBegin
  2
*D13
 70
     1
 10
0.0
 20
0.0
 30
0.0
  3
*D13
  1

  0
LINE
  5
9B1
330
6EC
100
AcDbEntity
  8
DIM
 62
     0
370
    -2
100
AcDbLine
 10
12.28064849808477
 20
40.81511719169977
 30
0.0
 11
12.28064849808477
 21
40.02606674483557
 31
0.0
  0
LINE
  5
9B2
330
6EC
100
AcDbEntity
  8
DIM
 62
     0
370
    -2
100
AcDbLine
 10
12.09364849808476
 20
40.74350282304195
 30
0.0
 11
12.09364849808476
 21
40.02606674483557
 31
0.0
  0
LINE
  5
9B3
330
6EC
100
AcDbEntity
  8
DIM
 62
     0
370
    -2
100
AcDbLine
 10
12.82064849808477
 20
40.30506674483556
 30
0.0
 11
13.36064849808477
 21
40.30506674483556
 31
0.0
  0
LINE
  5
9B4
330
6EC
100
AcDbEntity
  8
DIM
 62
     0
370
    -2
100
AcDbLine
 10
11.55364849808476
 20
40.30506674483556
 30
0.0
 11
11.01364849808476
 21
40.30506674483556
 31
0.0
  0
SOLID
  5
9B5
330
6EC
100
AcDbEntity
  8
DIM
 62
     0
100
AcDbTrace
 10
12.82064849808477
 20
40.39506674483557
 30
0.0
 11
12.82064849808477
 21
40.21506674483556
 31
0.0
 12
12.28064849808477
 22
40.30506674483556
 32
0.0
 13
12.28064849808477
 23
40.30506674483556
 33
0.0
  0
SOLID
  5
9B6
330
6EC
100
AcDbEntity
  8
DIM
 62
     0
100
AcDbTrace
 10
11.55364849808476
 20
40.39506674483557
 30
0.0
 11
11.55364849808476
 21
40.21506674483556
 31
0.0
 12
12.09364849808476
 22
40.30506674483556
 32
0.0
 13
12.09364849808476
 23
40.30506674483556
 33
0.0
  0
MTEXT
  5
9B7
330
6EC
100
AcDbEntity
  8
DIM
 62
     0
100
AcDbMText
 10
10.25146099808476
 20
40.30506674483556
 30
0.0
 40
0.375
 41
0.0
 71
     5
 72
     1
  1
\A1;0.187
 73
     1
 44
1.0
  0
POINT
  5
9B8
330
6EC
100
AcDbEntity
  8
DEFPOINTS
 62
     0
100
AcDbPoint
 10
12.28064849808477
 20
41.00411719169978
 30
0.0
  0
POINT
  5
9B9
330
6EC
100
AcDbEntity
  8
DEFPOINTS
 62
     0
100
AcDbPoint
 10
12.09364849808476
 20
40.93250282304196
 30
0.0
  0
POINT
  5
9BA
330
6EC
100
AcDbEntity
  8
DEFPOINTS
 62
     0
100
AcDbPoint
 10
12.09364849808476
 20
40.30506674483556
 30
0.0
  0
ENDBLK
  5
6F8
330
6EC
100
AcDbEntity
  8
0
100
AcDbBlockEnd
  0
BLOCK
  5
704
330
6F9
100
AcDbEntity
  8
0
100
AcDbBlockBegin
  2
*D14
 70
     1
 10
0.0
 20
0.0
 30
0.0
  3
*D14
  1

  0
LINE
  5
9E7
330
6F9
100
AcDbEntity
  8
DIM
 62
     0
370
    -2
100
AcDbLine
 10
5.405148498084777
 20
21.26517551138238
 30
0.0
 11
5.405148498084777
 21
20.23671978110154
 31
0.0
  0
LINE
  5
9E8
330
6F9
100
AcDbEntity
  8
DIM
 62
     0
370
    -2
100
AcDbLine
 10
4.593648498084764
 20
21.01517551138238
 30
0.0
 11
4.593648498084764
 21
20.23671978110154
 31
0.0
  0
LINE
  5
9E9
330
6F9
100
AcDbEntity
  8
DIM
 62
     0
370
    -2
100
AcDbLine
 10
5.945148498084777
 20
20.51571978110154
 30
0.0
 11
6.485148498084777
 21
20.51571978110154
 31
0.0
  0
LINE
  5
9EA
330
6F9
100
AcDbEntity
  8
DIM
 62
     0
370
    -2
100
AcDbLine
 10
4.053648498084764
 20
20.51571978110154
 30
0.0
 11
3.466773498084764
 21
20.51571978110154
 31
0.0
  0
SOLID
  5
9EB
330
6F9
100
AcDbEntity
  8
DIM
 62
     0
100
AcDbTrace
 10
5.945148498084777
 20
20.60571978110154
 30
0.0
 11
5.945148498084777
 21
20.42571978110154
 31
0.0
 12
5.405148498084777
 22
20.51571978110154
 32
0.0
 13
5.405148498084777
 23
20.51571978110154
 33
0.0
  0
SOLID
  5
9EC
330
6F9
100
AcDbEntity
  8
DIM
 62
     0
100
AcDbTrace
 10
4.053648498084764
 20
20.60571978110154
 30
0.0
 11
4.053648498084764
 21
20.42571978110154
 31
0.0
 12
4.593648498084764
 22
20.51571978110154
 32
0.0
 13
4.593648498084764
 23
20.51571978110154
 33
0.0
  0
MTEXT
  5
9ED
330
6F9
100
AcDbEntity
  8
DIM
 62
     0
100
AcDbMText
 10
2.704585998084764
 20
20.51571978110154
 30
0.0
 40
0.375
 41
0.0
 71
     5
 72
     1
  1
\A1;0.812
 73
     1
 44
1.0
  0
POINT
  5
9EE
330
6F9
100
AcDbEntity
  8
DEFPOINTS
 62
     0
100
AcDbPoint
 10
5.405148498084777
 20
21.45417551138238
 30
0.0
  0
POINT
  5
9EF
330
6F9
100
AcDbEntity
  8
DEFPOINTS
 62
     0
100
AcDbPoint
 10
4.593648498084764
 20
21.20417551138238
 30
0.0
  0
POINT
  5
9F0
330
6F9
100
AcDbEntity
  8
DEFPOINTS
 62
     0
100
AcDbPoint
 10
4.593648498084764
 20
20.51571978110154
 30
0.0
  0
ENDBLK
  5
705
330
6F9
100
AcDbEntity
  8
0
100
AcDbBlockEnd
  0
BLOCK
  5
712
330
706
100
AcDbEntity
  8
0
100
AcDbBlockBegin
  2
*D15
 70
     1
 10
0.0
 20
0.0
 30
0.0
  3
*D15
  1

  0
LINE
  5
9DC
330
706
100
AcDbEntity
  8
DIM
 62
     0
370
    -2
100
AcDbLine
 10
5.594148498084777
 20
21.45417551138238
 30
0.0
 11
6.981519332711474
 21
21.45417551138238
 31
0.0
  0
LINE
  5
9DD
330
706
100
AcDbEntity
  8
DIM
 62
     0
370
    -2
100
AcDbLine
 10
6.055319514046637
 20
21.70417551138238
 30
0.0
 11
6.981519332711474
 21
21.70417551138238
 31
0.0
  0
LINE
  5
9DE
330
706
100
AcDbEntity
  8
DIM
 62
     0
370
    -2
100
AcDbLine
 10
6.702519332711474
 20
20.91417551138238
 30
0.0
 11
6.702519332711474
 21
20.37417551138238
 31
0.0
  0
LINE
  5
9DF
330
706
100
AcDbEntity
  8
DIM
 62
     0
370
    -2
100
AcDbLine
 10
6.702519332711475
 20
22.24417551138238
 30
0.0
 11
6.702519332711475
 21
22.78417551138238
 31
0.0
  0
LINE
  5
9E0
330
706
100
AcDbEntity
  8
DIM
 62
     0
370
    -2
100
AcDbLine
 10
6.702519332711475
 20
22.78417551138238
 30
0.0
 11
7.242519332711475
 21
22.78417551138238
 31
0.0
  0
SOLID
  5
9E1
330
706
100
AcDbEntity
  8
DIM
 62
     0
100
AcDbTrace
 10
6.612519332711475
 20
20.91417551138238
 30
0.0
 11
6.792519332711474
 21
20.91417551138238
 31
0.0
 12
6.702519332711474
 22
21.45417551138238
 32
0.0
 13
6.702519332711474
 23
21.45417551138238
 33
0.0
  0
SOLID
  5
9E2
330
706
100
AcDbEntity
  8
DIM
 62
     0
100
AcDbTrace
 10
6.612519332711475
 20
22.24417551138238
 30
0.0
 11
6.792519332711475
 21
22.24417551138238
 31
0.0
 12
6.702519332711474
 22
21.70417551138238
 32
0.0
 13
6.702519332711474
 23
21.70417551138238
 33
0.0
  0
MTEXT
  5
9E3
330
706
100
AcDbEntity
  8
DIM
 62
     0
100
AcDbMText
 10
8.028144332711471
 20
22.78417551138238
 30
0.0
 40
0.375
 41
0.0
 71
     5
 72
     1
  1
\A1;0.250
 73
     1
 44
1.0
  0
POINT
  5
9E4
330
706
100
AcDbEntity
  8
DEFPOINTS
 62
     0
100
AcDbPoint
 10
5.405148498084777
 20
21.45417551138238
 30
0.0
  0
POINT
  5
9E5
330
706
100
AcDbEntity
  8
DEFPOINTS
 62
     0
100
AcDbPoint
 10
5.866319514046637
 20
21.70417551138238
 30
0.0
  0
POINT
  5
9E6
330
706
100
AcDbEntity
  8
DEFPOINTS
 62
     0
100
AcDbPoint
 10
6.702519332711474
 20
21.70417551138238
 30
0.0
  0
ENDBLK
  5
713
330
706
100
AcDbEntity
  8
0
100
AcDbBlockEnd
  0
BLOCK
  5
720
330
714
100
AcDbEntity
  8
0
100
AcDbBlockBegin
  2
*D16
 70
     1
 10
0.0
 20
0.0
 30
0.0
  3
*D16
  1

  0
LINE
  5
9F1
330
714
100
AcDbEntity
  8
DIM
 62
     0
370
    -2
100
AcDbLine
 10
5.594148498084777
 20
26.95417551138238
 30
0.0
 11
7.5215817813316
 21
26.95417551138238
 31
0.0
  0
LINE
  5
9F2
330
714
100
AcDbEntity
  8
DIM
 62
     0
370
    -2
100
AcDbLine
 10
6.055319514046637
 20
26.70417551138238
 30
0.0
 11
7.5215817813316
 21
26.70417551138238
 31
0.0
  0
LINE
  5
9F3
330
714
100
AcDbEntity
  8
DIM
 62
     0
370
    -2
100
AcDbLine
 10
7.2425817813316
 20
27.49417551138238
 30
0.0
 11
7.2425817813316
 21
28.03417551138238
 31
0.0
  0
LINE
  5
9F4
330
714
100
AcDbEntity
  8
DIM
 62
     0
370
    -2
100
AcDbLine
 10
7.2425817813316
 20
26.16417551138238
 30
0.0
 11
7.242581781331599
 21
25.62417551138238
 31
0.0
  0
LINE
  5
9F5
330
714
100
AcDbEntity
  8
DIM
 62
     0
370
    -2
100
AcDbLine
 10
7.242581781331599
 20
25.62417551138238
 30
0.0
 11
6.702581781331599
 21
25.62417551138238
 31
0.0
  0
SOLID
  5
9F6
330
714
100
AcDbEntity
  8
DIM
 62
     0
100
AcDbTrace
 10
7.1525817813316
 20
27.49417551138238
 30
0.0
 11
7.3325817813316
 21
27.49417551138238
 31
0.0
 12
7.2425817813316
 22
26.95417551138238
 32
0.0
 13
7.2425817813316
 23
26.95417551138238
 33
0.0
  0
SOLID
  5
9F7
330
714
100
AcDbEntity
  8
DIM
 62
     0
100
AcDbTrace
 10
7.1525817813316
 20
26.16417551138238
 30
0.0
 11
7.3325817813316
 21
26.16417551138238
 31
0.0
 12
7.2425817813316
 22
26.70417551138238
 32
0.0
 13
7.2425817813316
 23
26.70417551138238
 33
0.0
  0
MTEXT
  5
9F8
330
714
100
AcDbEntity
  8
DIM
 62
     0
100
AcDbMText
 10
5.916956781331595
 20
25.62417551138238
 30
0.0
 40
0.375
 41
0.0
 71
     5
 72
     1
  1
\A1;0.250
 73
     1
 44
1.0
  0
POINT
  5
9F9
330
714
100
AcDbEntity
  8
DEFPOINTS
 62
     0
100
AcDbPoint
 10
5.405148498084777
 20
26.95417551138238
 30
0.0
  0
POINT
  5
9FA
330
714
100
AcDbEntity
  8
DEFPOINTS
 62
     0
100
AcDbPoint
 10
5.866319514046637
 20
26.70417551138238
 30
0.0
  0
POINT
  5
9FB
330
714
100
AcDbEntity
  8
DEFPOINTS
 62
     0
100
AcDbPoint
 10
7.2425817813316
 20
26.70417551138238
 30
0.0
  0
ENDBLK
  5
721
330
714
100
AcDbEntity
  8
0
100
AcDbBlockEnd
  0
BLOCK
  5
72D
330
722
100
AcDbEntity
  8
0
100
AcDbBlockBegin
  2
*D17
 70
     1
 10
0.0
 20
0.0
 30
0.0
  3
*D17
  1

  0
LINE
  5
993
330
722
100
AcDbEntity
  8
DIM
 62
     0
370
    -2
100
AcDbLine
 10
12.09364849808476
 20
24.54881323618592
 30
0.0
 11
12.09364849808476
 21
24.69478047966042
 31
0.0
  0
LINE
  5
994
330
722
100
AcDbEntity
  8
DIM
 62
     0
370
    -2
100
AcDbLine
 10
12.59364849808476
 20
24.54881323618592
 30
0.0
 11
12.59364849808476
 21
24.69478047966042
 31
0.0
  0
LINE
  5
995
330
722
100
AcDbEntity
  8
DIM
 62
     0
370
    -2
100
AcDbLine
 10
11.55364849808476
 20
24.41578047966042
 30
0.0
 11
11.01364849808476
 21
24.41578047966042
 31
0.0
  0
LINE
  5
996
330
722
100
AcDbEntity
  8
DIM
 62
     0
370
    -2
100
AcDbLine
 10
13.13364849808476
 20
24.41578047966042
 30
0.0
 11
13.67364849808476
 21
24.41578047966042
 31
0.0
  0
SOLID
  5
997
330
722
100
AcDbEntity
  8
DIM
 62
     0
100
AcDbTrace
 10
11.55364849808476
 20
24.50578047966042
 30
0.0
 11
11.55364849808476
 21
24.32578047966042
 31
0.0
 12
12.09364849808476
 22
24.41578047966042
 32
0.0
 13
12.09364849808476
 23
24.41578047966042
 33
0.0
  0
SOLID
  5
998
330
722
100
AcDbEntity
  8
DIM
 62
     0
100
AcDbTrace
 10
13.13364849808476
 20
24.50578047966042
 30
0.0
 11
13.13364849808476
 21
24.32578047966042
 31
0.0
 12
12.59364849808476
 22
24.41578047966042
 32
0.0
 13
12.59364849808476
 23
24.41578047966042
 33
0.0
  0
MTEXT
  5
999
330
722
100
AcDbEntity
  8
DIM
 62
     0
100
AcDbMText
 10
14.43583599808476
 20
24.41578047966042
 30
0.0
 40
0.375
 41
0.0
 71
     5
 72
     1
  1
\A1;0.500
 73
     1
 44
1.0
  0
POINT
  5
99A
330
722
100
AcDbEntity
  8
DEFPOINTS
 62
     0
100
AcDbPoint
 10
12.09364849808476
 20
24.35981323618592
 30
0.0
  0
POINT
  5
99B
330
722
100
AcDbEntity
  8
DEFPOINTS
 62
     0
100
AcDbPoint
 10
12.59364849808476
 20
24.35981323618592
 30
0.0
  0
POINT
  5
99C
330
722
100
AcDbEntity
  8
DEFPOINTS
 62
     0
100
AcDbPoint
 10
12.59364849808476
 20
24.41578047966042
 30
0.0
  0
ENDBLK
  5
72E
330
722
100
AcDbEntity
  8
0
100
AcDbBlockEnd
  0
BLOCK
  5
73A
330
72F
100
AcDbEntity
  8
0
100
AcDbBlockBegin
  2
*D18
 70
     1
 10
0.0
 20
0.0
 30
0.0
  3
*D18
  1

  0
LINE
  5
99D
330
72F
100
AcDbEntity
  8
DIM
 62
     0
370
    -2
100
AcDbLine
 10
12.09364849808476
 20
33.05606604134026
 30
0.0
 11
12.09364849808476
 21
33.20203328481476
 31
0.0
  0
LINE
  5
99E
330
72F
100
AcDbEntity
  8
DIM
 62
     0
370
    -2
100
AcDbLine
 10
12.59364849808476
 20
33.05606604134026
 30
0.0
 11
12.59364849808476
 21
33.20203328481476
 31
0.0
  0
LINE
  5
99F
330
72F
100
AcDbEntity
  8
DIM
 62
     0
370
    -2
100
AcDbLine
 10
11.55364849808476
 20
32.92303328481476
 30
0.0
 11
11.01364849808476
 21
32.92303328481476
 31
0.0
  0
LINE
  5
9A0
330
72F
100
AcDbEntity
  8
DIM
 62
     0
370
    -2
100
AcDbLine
 10
13.13364849808476
 20
32.92303328481476
 30
0.0
 11
13.67364849808476
 21
32.92303328481476
 31
0.0
  0
SOLID
  5
9A1
330
72F
100
AcDbEntity
  8
DIM
 62
     0
100
AcDbTrace
 10
11.55364849808476
 20
33.01303328481477
 30
0.0
 11
11.55364849808476
 21
32.83303328481476
 31
0.0
 12
12.09364849808476
 22
32.92303328481476
 32
0.0
 13
12.09364849808476
 23
32.92303328481476
 33
0.0
  0
SOLID
  5
9A2
330
72F
100
AcDbEntity
  8
DIM
 62
     0
100
AcDbTrace
 10
13.13364849808476
 20
33.01303328481477
 30
0.0
 11
13.13364849808476
 21
32.83303328481476
 31
0.0
 12
12.59364849808476
 22
32.92303328481476
 32
0.0
 13
12.59364849808476
 23
32.92303328481476
 33
0.0
  0
MTEXT
  5
9A3
330
72F
100
AcDbEntity
  8
DIM
 62
     0
100
AcDbMText
 10
14.43583599808476
 20
32.92303328481476
 30
0.0
 40
0.375
 41
0.0
 71
     5
 72
     1
  1
\A1;0.500
 73
     1
 44
1.0
  0
POINT
  5
9A4
330
72F
100
AcDbEntity
  8
DEFPOINTS
 62
     0
100
AcDbPoint
 10
12.09364849808476
 20
32.86706604134026
 30
0.0
  0
POINT
  5
9A5
330
72F
100
AcDbEntity
  8
DEFPOINTS
 62
     0
100
AcDbPoint
 10
12.59364849808476
 20
32.86706604134026
 30
0.0
  0
POINT
  5
9A6
330
72F
100
AcDbEntity
  8
DEFPOINTS
 62
     0
100
AcDbPoint
 10
12.59364849808476
 20
32.92303328481476
 30
0.0
  0
ENDBLK
  5
73B
330
72F
100
AcDbEntity
  8
0
100
AcDbBlockEnd
  0
BLOCK
  5
747
330
73C
100
AcDbEntity
  8
0
100
AcDbBlockBegin
  2
*D19
 70
     1
 10
0.0
 20
0.0
 30
0.0
  3
*D19
  1

  0
LINE
  5
9A7
330
73C
100
AcDbEntity
  8
DIM
 62
     0
370
    -2
100
AcDbLine
 10
12.09364849808476
 20
42.2245042491533
 30
0.0
 11
12.09364849808476
 21
42.37047149262781
 31
0.0
  0
LINE
  5
9A8
330
73C
100
AcDbEntity
  8
DIM
 62
     0
370
    -2
100
AcDbLine
 10
12.59364849808476
 20
42.2245042491533
 30
0.0
 11
12.59364849808476
 21
42.37047149262781
 31
0.0
  0
LINE
  5
9A9
330
73C
100
AcDbEntity
  8
DIM
 62
     0
370
    -2
100
AcDbLine
 10
11.55364849808476
 20
42.0914714926278
 30
0.0
 11
11.01364849808476
 21
42.0914714926278
 31
0.0
  0
LINE
  5
9AA
330
73C
100
AcDbEntity
  8
DIM
 62
     0
370
    -2
100
AcDbLine
 10
13.13364849808476
 20
42.0914714926278
 30
0.0
 11
13.67364849808476
 21
42.0914714926278
 31
0.0
  0
SOLID
  5
9AB
330
73C
100
AcDbEntity
  8
DIM
 62
     0
100
AcDbTrace
 10
11.55364849808476
 20
42.1814714926278
 30
0.0
 11
11.55364849808476
 21
42.0014714926278
 31
0.0
 12
12.09364849808476
 22
42.0914714926278
 32
0.0
 13
12.09364849808476
 23
42.0914714926278
 33
0.0
  0
SOLID
  5
9AC
330
73C
100
AcDbEntity
  8
DIM
 62
     0
100
AcDbTrace
 10
13.13364849808476
 20
42.1814714926278
 30
0.0
 11
13.13364849808476
 21
42.0014714926278
 31
0.0
 12
12.59364849808476
 22
42.0914714926278
 32
0.0
 13
12.59364849808476
 23
42.0914714926278
 33
0.0
  0
MTEXT
  5
9AD
330
73C
100
AcDbEntity
  8
DIM
 62
     0
100
AcDbMText
 10
14.43583599808476
 20
42.0914714926278
 30
0.0
 40
0.375
 41
0.0
 71
     5
 72
     1
  1
\A1;0.500
 73
     1
 44
1.0
  0
POINT
  5
9AE
330
73C
100
AcDbEntity
  8
DEFPOINTS
 62
     0
100
AcDbPoint
 10
12.09364849808476
 20
42.0355042491533
 30
0.0
  0
POINT
  5
9AF
330
73C
100
AcDbEntity
  8
DEFPOINTS
 62
     0
100
AcDbPoint
 10
12.59364849808476
 20
42.0355042491533
 30
0.0
  0
POINT
  5
9B0
330
73C
100
AcDbEntity
  8
DEFPOINTS
 62
     0
100
AcDbPoint
 10
12.59364849808476
 20
42.0914714926278
 30
0.0
  0
ENDBLK
  5
748
330
73C
100
AcDbEntity
  8
0
100
AcDbBlockEnd
  0
BLOCK
  5
8F3
330
8DC
100
AcDbEntity
  8
0
100
AcDbBlockBegin
  2
HB
 70
     0
 10
0.0
 20
0.0
 30
0.0
  3
HB
  1

  0
LINE
  5
8DD
330
8DC
100
AcDbEntity
  8
TITLE
100
AcDbLine
 10
0.0
 20
15.5
 30
0.0
 11
10.11999999999999
 21
15.49999999999999
 31
0.0
  0
LINE
  5
8DE
330
8DC
100
AcDbEntity
  8
TITLE
100
AcDbLine
 10
10.11999999999999
 20
-0.0000000000000018
 30
0.0
 11
0.0
 21
0.0
 31
0.0
  0
LINE
  5
8DF
330
8DC
100
AcDbEntity
  8
TITLE
100
AcDbLine
 10
0.0620000000000012
 20
15.438
 30
0.0
 11
10.058
 21
15.438
 31
0.0
  0
LINE
  5
8E0
330
8DC
100
AcDbEntity
  8
TITLE
100
AcDbLine
 10
10.058
 20
0.0619999999999994
 30
0.0
 11
0.0619999999999976
 21
0.0620000000000012
 31
0.0
  0
LINE
  5
8E1
330
8DC
100
AcDbEntity
  8
TITLE
100
AcDbLine
 10
0.0620000000000012
 20
15.01999999999999
 30
0.0
 11
10.058
 21
15.01999999999999
 31
0.0
  0
LINE
  5
8E2
330
8DC
100
AcDbEntity
  8
TITLE
100
AcDbLine
 10
0.0
 20
0.0
 30
0.0
 11
0.0
 21
15.5
 31
0.0
  0
LINE
  5
8E3
330
8DC
100
AcDbEntity
  8
TITLE
100
AcDbLine
 10
0.0619999999999976
 20
0.0620000000000012
 30
0.0
 11
0.0620000000000012
 21
15.438
 31
0.0
  0
TEXT
  5
8E4
330
8DC
100
AcDbEntity
  8
TEXT
100
AcDbText
 10
0.2078333333333381
 20
15.26841252897341
 30
0.0
 40
0.125
  1
PART
 72
     1
 11
0.4370000000000048
 21
15.26841252897341
 31
0.0
100
AcDbText
  0
TEXT
  5
8E5
330
8DC
100
AcDbEntity
  8
TEXT
100
AcDbText
 10
0.2078333333333381
 20
15.06007919564008
 30
0.0
 40
0.125
  1
NAME
 72
     1
 11
0.4370000000000048
 21
15.06007919564008
 31
0.0
100
AcDbText
  0
LINE
  5
8E6
330
8DC
100
AcDbEntity
  8
TITLE
100
AcDbLine
 10
0.8120000000000047
 20
15.01999999999999
 30
0.0
 11
0.8120000000000011
 21
15.438
 31
0.0
  0
LINE
  5
8E7
330
8DC
100
AcDbEntity
  8
TITLE
100
AcDbLine
 10
10.11999999999999
 20
15.49999999999999
 30
0.0
 11
10.11999999999999
 21
-0.0000000000000018
 31
0.0
  0
LINE
  5
8E8
330
8DC
100
AcDbEntity
  8
TITLE
100
AcDbLine
 10
10.058
 20
15.438
 30
0.0
 11
10.058
 21
0.0619999999999994
 31
0.0
  0
TEXT
  5
8E9
330
8DC
100
AcDbEntity
  8
TEXT
100
AcDbText
 10
4.36183333333333
 20
15.26841252897341
 30
0.0
 40
0.125
  1
PART
 72
     1
 11
4.590999999999997
 21
15.26841252897341
 31
0.0
100
AcDbText
  0
LINE
  5
8EA
330
8DC
100
AcDbEntity
  8
TITLE
100
AcDbLine
 10
4.153999999999999
 20
15.438
 30
0.0
 11
4.153999999999999
 21
15.01999999999999
 31
0.0
  0
LINE
  5
8EB
330
8DC
100
AcDbEntity
  8
TITLE
100
AcDbLine
 10
4.215999999999997
 20
15.438
 30
0.0
 11
4.215999999999997
 21
15.01999999999999
 31
0.0
  0
TEXT
  5
8EC
330
8DC
100
AcDbEntity
  8
TEXT
100
AcDbText
 10
4.465999999999997
 20
15.06007919564008
 30
0.0
 40
0.125
  1
No.
 72
     1
 11
4.590999999999997
 21
15.06007919564008
 31
0.0
100
AcDbText
  0
LINE
  5
8ED
330
8DC
100
AcDbEntity
  8
TITLE
100
AcDbLine
 10
4.965999999999997
 20
15.438
 30
0.0
 11
4.965999999999997
 21
15.01999999999999
 31
0.0
  0
LINE
  5
8EE
330
8DC
100
AcDbEntity
  8
TITLE
100
AcDbLine
 10
8.307999999999999
 20
15.438
 30
0.0
 11
8.307999999999999
 21
15.02
 31
0.0
  0
LINE
  5
8EF
330
8DC
100
AcDbEntity
  8
TITLE
100
AcDbLine
 10
8.245999999999988
 20
15.438
 30
0.0
 11
8.245999999999988
 21
15.02
 31
0.0
  0
TEXT
  5
8F0
330
8DC
100
AcDbEntity
  8
TEXT
100
AcDbText
 10
8.453833333333333
 20
15.06007919564008
 30
0.0
 40
0.125
  1
DATE
 72
     1
 11
8.682999999999999
 21
15.06007919564008
 31
0.0
100
AcDbText
  0
TEXT
  5
8F1
330
8DC
100
AcDbEntity
  8
TEXT
100
AcDbText
 10
8.474666666666665
 20
15.26841252897341
 30
0.0
 40
0.125
  1
REV.
 72
     1
 11
8.682999999999999
 21
15.26841252897341
 31
0.0
100
AcDbText
  0
LINE
  5
8F2
330
8DC
100
AcDbEntity
  8
TITLE
100
AcDbLine
 10
9.057999999999999
 20
15.438
 30
0.0
 11
9.057999999999999
 21
15.02
 31
0.0
  0
ENDBLK
  5
8F4
330
8DC
100
AcDbEntity
  8
0
100
AcDbBlockEnd
  0
ENDSEC
  0
SECTION
  2
ENTITIES
  0
INSERT
  5
3E9
330
1E
100
AcDbEntity
  8
0
100
AcDbBlockReference
  2
ACAD
 10
5.952955380587811
 20
14.60883190360316
 30
0.0
 41
0.25
 42
0.25
 43
0.25
  0
LINE
  5
3EA
330
1E
100
AcDbEntity
  8
OBJECT
100
AcDbLine
 10
4.593648498084764
 20
19.7039700406195
 30
0.0
 11
12.59364849808476
 21
19.7039700406195
 31
0.0
  0
LINE
  5
3EB
330
1E
100
AcDbEntity
  8
OBJECT
100
AcDbLine
 10
12.59364849808476
 20
19.7039700406195
 30
0.0
 11
12.59364849808476
 21
17.7039700406195
 31
0.0
  0
LINE
  5
3EC
330
1E
100
AcDbEntity
  8
OBJECT
100
AcDbLine
 10
12.59364849808476
 20
17.7039700406195
 30
0.0
 11
4.593648498084764
 21
17.7039700406195
 31
0.0
  0
LINE
  5
3ED
330
1E
100
AcDbEntity
  8
OBJECT
100
AcDbLine
 10
4.593648498084764
 20
17.7039700406195
 30
0.0
 11
4.593648498084764
 21
19.7039700406195
 31
0.0
  0
LINE
  5
3EE
330
1E
100
AcDbEntity
  8
HIDDEN
100
AcDbLine
 10
4.643648498084765
 20
17.75397004061949
 30
0.0
 11
4.643648498084765
 21
19.6539700406195
 31
0.0
  0
LINE
  5
3EF
330
1E
100
AcDbEntity
  8
HIDDEN
100
AcDbLine
 10
4.643648498084765
 20
19.6539700406195
 30
0.0
 11
12.54364849808476
 21
19.6539700406195
 31
0.0
  0
LINE
  5
3F0
330
1E
100
AcDbEntity
  8
HIDDEN
100
AcDbLine
 10
12.54364849808476
 20
19.6539700406195
 30
0.0
 11
12.54364849808476
 21
17.75397004061949
 31
0.0
  0
LINE
  5
3F1
330
1E
100
AcDbEntity
  8
HIDDEN
100
AcDbLine
 10
12.54364849808476
 20
17.75397004061949
 30
0.0
 11
4.643648498084765
 21
17.75397004061949
 31
0.0
  0
LINE
  5
3F2
330
1E
100
AcDbEntity
  8
OBJECT
100
AcDbLine
 10
15.0778673428406
 20
17.7039700406195
 30
0.0
 11
15.0778673428406
 21
19.7039700406195
 31
0.0
  0
LINE
  5
3F3
330
1E
100
AcDbEntity
  8
OBJECT
100
AcDbLine
 10
15.0778673428406
 20
19.7039700406195
 30
0.0
 11
21.07786734284061
 21
19.7039700406195
 31
0.0
  0
LINE
  5
3F4
330
1E
100
AcDbEntity
  8
OBJECT
100
AcDbLine
 10
21.07786734284061
 20
19.7039700406195
 30
0.0
 11
21.07786734284061
 21
17.7039700406195
 31
0.0
  0
LINE
  5
3F5
330
1E
100
AcDbEntity
  8
OBJECT
100
AcDbLine
 10
21.07786734284061
 20
17.7039700406195
 30
0.0
 11
15.0778673428406
 21
17.7039700406195
 31
0.0
  0
LINE
  5
3F6
330
1E
100
AcDbEntity
  8
HIDDEN
100
AcDbLine
 10
15.12786734284059
 20
19.6539700406195
 30
0.0
 11
21.02786734284059
 21
19.6539700406195
 31
0.0
  0
LINE
  5
3F7
330
1E
100
AcDbEntity
  8
HIDDEN
100
AcDbLine
 10
15.12786734284059
 20
17.75397004061949
 30
0.0
 11
15.12786734284059
 21
19.6539700406195
 31
0.0
  0
LINE
  5
3F8
330
1E
100
AcDbEntity
  8
HIDDEN
100
AcDbLine
 10
21.02786734284059
 20
17.75397004061949
 30
0.0
 11
15.12786734284059
 21
17.75397004061949
 31
0.0
  0
LINE
  5
3F9
330
1E
100
AcDbEntity
  8
HIDDEN
100
AcDbLine
 10
21.02786734284059
 20
19.6539700406195
 30
0.0
 11
21.02786734284059
 21
17.75397004061949
 31
0.0
  0
LINE
  5
3FA
330
1E
100
AcDbEntity
  8
HIDDEN
100
AcDbLine
 10
12.49364849808476
 20
19.63097004061951
 30
0.0
 11
12.49364849808476
 21
17.8519700406195
 31
0.0
  0
LINE
  5
3FB
330
1E
100
AcDbEntity
  8
HIDDEN
100
AcDbLine
 10
15.8058673428406
 20
18.5299700406195
 30
0.0
 11
15.12786734284059
 21
17.8519700406195
 31
0.0
  0
LINE
  5
3FC
330
1E
100
AcDbEntity
  8
HIDDEN
100
AcDbLine
 10
15.8058673428406
 20
18.9529700406195
 30
0.0
 11
15.12786734284059
 21
19.63097004061951
 31
0.0
  0
CIRCLE
  5
3FD
330
1E
100
AcDbEntity
  8
OBJECT
100
AcDbCircle
 10
16.07773219492649
 20
18.7041942051012
 30
0.0
 40
0.109375
  0
CIRCLE
  5
3FE
330
1E
100
AcDbEntity
  8
OBJECT
100
AcDbCircle
 10
20.0780024907547
 20
18.7041942051012
 30
0.0
 40
0.109375
  0
LINE
  5
3FF
330
1E
100
AcDbEntity
  8
HIDDEN
100
AcDbLine
 10
12.54364849808476
 20
18.5299700406195
 30
0.0
 11
12.49364849808476
 21
18.5299700406195
 31
0.0
  0
LINE
  5
400
330
1E
100
AcDbEntity
  8
HIDDEN
100
AcDbLine
 10
12.49364849808476
 20
18.9529700406195
 30
0.0
 11
12.54364849808476
 21
18.9529700406195
 31
0.0
  0
DIMENSION
  5
401
330
1E
100
AcDbEntity
  8
DIM
100
AcDbDimension
  2
*D1
 10
12.59364849808476
 20
16.79040657824165
 30
0.0
 11
8.593648498084766
 21
16.79040657824165
 31
0.0
 70
    32
  1
A
 71
     5
 42
8.000000000000003
  3
23NSTD
100
AcDbAlignedDimension
 13
4.593648498084764
 23
17.7039700406195
 33
0.0
 14
12.59364849808476
 24
17.7039700406195
 34
0.0
100
AcDbRotatedDimension
  0
DIMENSION
  5
402
330
1E
100
AcDbEntity
  8
DIM
100
AcDbDimension
  2
*D2
 10
21.07786734284061
 20
16.79040657824165
 30
0.0
 11
18.07786734284061
 21
16.79040657824165
 31
0.0
 70
    32
  1
B
 71
     5
 42
6.0
  3
23NSTD
100
AcDbAlignedDimension
 13
15.0778673428406
 23
17.7039700406195
 33
0.0
 14
21.07786734284061
 24
17.7039700406195
 34
0.0
100
AcDbRotatedDimension
  0
DIMENSION
  5
403
330
1E
100
AcDbEntity
  8
DIM
100
AcDbDimension
  2
*D3
 10
13.3772842923526
 20
17.7039700406195
 30
0.0
 11
13.3772842923526
 21
18.64309596929307
 31
0.0
 70
   160
  1
C
 71
     5
 42
2.0
  3
23NSTD
100
AcDbAlignedDimension
 13
12.59364849808476
 23
19.7039700406195
 33
0.0
 14
12.59364849808476
 24
17.7039700406195
 34
0.0
 50
90.0
100
AcDbRotatedDimension
  0
DIMENSION
  5
404
330
1E
100
AcDbEntity
  8
DIM
100
AcDbDimension
  2
*D4
 10
22.06470807913225
 20
18.7041942051012
 30
0.0
 11
20.80939557913225
 21
17.6241942051012
 31
0.0
 70
    32
 71
     5
 42
0.9997758355182995
  3
23NSTD
100
AcDbAlignedDimension
 13
21.07786734284061
 23
19.7039700406195
 33
0.0
 14
20.0780024907547
 24
18.7041942051012
 34
0.0
 50
90.0
100
AcDbRotatedDimension
  0
DIMENSION
  5
405
330
1E
100
AcDbEntity
  8
DIM
100
AcDbDimension
  2
*D5
 10
16.07773219492649
 20
20.85223758066713
 30
0.0
 11
17.87304469492649
 21
20.85223758066713
 31
0.0
 70
    32
 71
     5
 42
0.9998648520858886
  3
23NSTD
100
AcDbAlignedDimension
 13
15.0778673428406
 23
19.7039700406195
 33
0.0
 14
16.07773219492649
 24
18.7041942051012
 34
0.0
100
AcDbRotatedDimension
  0
DIMENSION
  5
406
330
1E
100
AcDbEntity
  8
DIM
100
AcDbDimension
  2
*D6
 10
21.07786734284061
 20
20.85223758066713
 30
0.0
 11
22.87317984284061
 21
20.85223758066713
 31
0.0
 70
    32
 71
     5
 42
0.9998648520858992
  3
23NSTD
100
AcDbAlignedDimension
 13
20.0780024907547
 23
18.7041942051012
 33
0.0
 14
21.07786734284061
 24
19.7039700406195
 34
0.0
100
AcDbRotatedDimension
  0
TEXT
  5
407
330
1E
100
AcDbEntity
  8
TEXT
100
AcDbText
 10
17.63068972367977
 20
43.2127028753329
 30
0.0
 40
0.375
  1
MATERIAL:
 41
0.75
 11
17.63068972367977
 21
43.40020287533291
 31
0.0
100
AcDbText
 73
     2
  0
TEXT
  5
408
330
1E
100
AcDbEntity
  8
TEXT
100
AcDbText
 10
17.63068972367977
 20
42.5877028753329
 30
0.0
 40
0.375
  1
    ALUMINUM
 41
0.75
 11
17.63068972367977
 21
42.77520287533291
 31
0.0
100
AcDbText
 73
     2
  0
TEXT
  5
409
330
1E
100
AcDbEntity
  8
TEXT
100
AcDbText
 10
17.63068972367977
 20
41.77833508032708
 30
0.0
 40
0.375
  1
FINISH:
 41
0.75
 11
17.63068972367977
 21
41.96583508032708
 31
0.0
100
AcDbText
 73
     2
  0
TEXT
  5
40A
330
1E
100
AcDbEntity
  8
TEXT
100
AcDbText
 10
17.63068972367977
 20
41.15333508032708
 30
0.0
 40
0.375
  1
    NATURAL
 41
0.75
 11
17.63068972367977
 21
41.34083508032708
 31
0.0
100
AcDbText
 73
     2
  0
TEXT
  5
40B
330
1E
100
AcDbEntity
  8
TEXT
100
AcDbText
 10
1.048223252282626
 20
15.53532105214272
 30
0.0
 40
0.375
  1
* HOLES FOR MOUNTING BRACKET PROVIDED.
 41
0.75
 11
1.048223252282626
 21
15.72282105214272
 31
0.0
100
AcDbText
 73
     2
  0
TEXT
  5
40C
330
1E
100
AcDbEntity
  8
TEXT
100
AcDbText
 10
4.530750170992657
 20
45.43112006054424
 30
0.0
 40
0.468
  1
ALUMINUM CHASSIS
 41
0.75
100
AcDbText
  0
TEXT
  5
40D
330
1E
100
AcDbEntity
  8
TEXT
100
AcDbText
 10
16.67892375013003
 20
45.45819335156656
 30
0.0
 40
0.468
  1
AC-401 THRU AC-1431
 41
0.75
100
AcDbText
  0
LINE
  5
40E
330
1E
100
AcDbEntity
  8
TITLE
100
AcDbLine
 10
3.151527650630605
 20
0.1860000000000029
 30
0.0
 11
3.151527650630605
 21
15.16200000000001
 31
0.0
  0
LINE
  5
40F
330
1E
100
AcDbEntity
  8
TITLE
100
AcDbLine
 10
18.14599999999999
 20
0.1859999999999994
 30
0.0
 11
18.14599999999999
 21
15.16200000000001
 31
0.0
  0
LINE
  5
410
330
1E
100
AcDbEntity
  8
TITLE
100
AcDbLine
 10
30.17399999999999
 20
0.8099999999999981
 30
0.0
 11
15.27299999999998
 21
0.8100000000000017
 31
0.0
  0
LINE
  5
411
330
1E
100
AcDbEntity
  8
TITLE
100
AcDbLine
 10
30.17399999999999
 20
1.433999999999997
 30
0.0
 11
15.27299999999998
 21
1.433999999999998
 31
0.0
  0
LINE
  5
412
330
1E
100
AcDbEntity
  8
TITLE
100
AcDbLine
 10
30.17399999999999
 20
2.057999999999995
 30
0.0
 11
15.27299999999998
 21
2.057999999999999
 31
0.0
  0
LINE
  5
413
330
1E
100
AcDbEntity
  8
TITLE
100
AcDbLine
 10
30.17399999999999
 20
2.681999999999996
 30
0.0
 11
15.27299999999998
 21
2.681999999999998
 31
0.0
  0
LINE
  5
414
330
1E
100
AcDbEntity
  8
TITLE
100
AcDbLine
 10
30.17399999999999
 20
3.305999999999996
 30
0.0
 11
15.27299999999998
 21
3.305999999999998
 31
0.0
  0
LINE
  5
415
330
1E
100
AcDbEntity
  8
TITLE
100
AcDbLine
 10
30.17399999999999
 20
3.929999999999997
 30
0.0
 11
15.27299999999998
 21
3.930000000000001
 31
0.0
  0
LINE
  5
416
330
1E
100
AcDbEntity
  8
TITLE
100
AcDbLine
 10
30.17399999999999
 20
4.553999999999997
 30
0.0
 11
15.27299999999998
 21
4.554000000000001
 31
0.0
  0
LINE
  5
417
330
1E
100
AcDbEntity
  8
TITLE
100
AcDbLine
 10
30.17399999999999
 20
5.177999999999998
 30
0.0
 11
15.27299999999998
 21
5.178000000000001
 31
0.0
  0
LINE
  5
418
330
1E
100
AcDbEntity
  8
TITLE
100
AcDbLine
 10
30.17399999999999
 20
5.801999999999998
 30
0.0
 11
15.27299999999998
 21
5.802000000000004
 31
0.0
  0
LINE
  5
419
330
1E
100
AcDbEntity
  8
TITLE
100
AcDbLine
 10
30.17399999999999
 20
6.425999999999999
 30
0.0
 11
15.27299999999998
 21
6.426000000000002
 31
0.0
  0
LINE
  5
41A
330
1E
100
AcDbEntity
  8
TITLE
100
AcDbLine
 10
30.17399999999999
 20
7.050000000000001
 30
0.0
 11
15.27299999999998
 21
7.050000000000001
 31
0.0
  0
LINE
  5
41B
330
1E
100
AcDbEntity
  8
TITLE
100
AcDbLine
 10
30.17399999999999
 20
7.674000000000001
 30
0.0
 11
15.27299999999998
 21
7.674000000000003
 31
0.0
  0
LINE
  5
41C
330
1E
100
AcDbEntity
  8
TITLE
100
AcDbLine
 10
30.17399999999999
 20
8.298000000000001
 30
0.0
 11
15.27299999999998
 21
8.298000000000005
 31
0.0
  0
LINE
  5
41D
330
1E
100
AcDbEntity
  8
TITLE
100
AcDbLine
 10
30.17399999999999
 20
8.922000000000004
 30
0.0
 11
15.273
 21
8.922000000000007
 31
0.0
  0
LINE
  5
41E
330
1E
100
AcDbEntity
  8
TITLE
100
AcDbLine
 10
30.17399999999999
 20
9.546000000000001
 30
0.0
 11
15.273
 21
9.546000000000006
 31
0.0
  0
LINE
  5
41F
330
1E
100
AcDbEntity
  8
TITLE
100
AcDbLine
 10
30.17399999999999
 20
10.17
 30
0.0
 11
15.273
 21
10.17
 31
0.0
  0
LINE
  5
420
330
1E
100
AcDbEntity
  8
TITLE
100
AcDbLine
 10
30.17399999999999
 20
10.794
 30
0.0
 11
15.273
 21
10.794
 31
0.0
  0
LINE
  5
421
330
1E
100
AcDbEntity
  8
TITLE
100
AcDbLine
 10
30.17399999999999
 20
11.418
 30
0.0
 11
15.273
 21
11.418
 31
0.0
  0
LINE
  5
422
330
1E
100
AcDbEntity
  8
TITLE
100
AcDbLine
 10
30.17399999999999
 20
12.042
 30
0.0
 11
15.273
 21
12.042
 31
0.0
  0
LINE
  5
423
330
1E
100
AcDbEntity
  8
TITLE
100
AcDbLine
 10
30.17399999999999
 20
12.666
 30
0.0
 11
15.273
 21
12.666
 31
0.0
  0
LINE
  5
424
330
1E
100
AcDbEntity
  8
TITLE
100
AcDbLine
 10
30.17399999999999
 20
13.29
 30
0.0
 11
15.273
 21
13.29000000000001
 31
0.0
  0
LINE
  5
425
330
1E
100
AcDbEntity
  8
TITLE
100
AcDbLine
 10
30.17399999999999
 20
13.914
 30
0.0
 11
15.273
 21
13.91400000000001
 31
0.0
  0
LINE
  5
426
330
1E
100
AcDbEntity
  8
TITLE
100
AcDbLine
 10
30.17399999999999
 20
14.538
 30
0.0
 11
15.273
 21
14.538
 31
0.0
  0
LINE
  5
427
330
1E
100
AcDbEntity
  8
TITLE
100
AcDbLine
 10
30.17399999999999
 20
15.162
 30
0.0
 11
0.1859999999999964
 21
15.16200000000001
 31
0.0
  0
TEXT
  5
428
330
1E
100
AcDbEntity
  8
TEXT
100
AcDbText
 10
0.6180449918575271
 20
14.66150000000001
 30
0.0
 40
0.375
  1
PART No.
 41
0.75
 72
     4
 11
1.602419991857527
 21
14.84900000000001
 31
0.0
100
AcDbText
  0
TEXT
  5
429
330
1E
100
AcDbEntity
  8
TEXT
100
AcDbText
 10
0.875857491857527
 20
14.03650000000001
 30
0.0
 40
0.375
  1
AC-401
 41
0.75
 72
     4
 11
1.602419991857527
 21
14.22400000000001
 31
0.0
100
AcDbText
  0
TEXT
  5
42A
330
1E
100
AcDbEntity
  8
TEXT
100
AcDbText
 10
0.828982491857527
 20
13.41150000000001
 30
0.0
 40
0.375
  1
AC-402
 41
0.75
 72
     4
 11
1.602419991857527
 21
13.59900000000001
 31
0.0
100
AcDbText
  0
TEXT
  5
42B
330
1E
100
AcDbEntity
  8
TEXT
100
AcDbText
 10
0.828982491857527
 20
12.78650000000001
 30
0.0
 40
0.375
  1
AC-403
 41
0.75
 72
     4
 11
1.602419991857527
 21
12.97400000000001
 31
0.0
100
AcDbText
  0
TEXT
  5
42C
330
1E
100
AcDbEntity
  8
TEXT
100
AcDbText
 10
0.828982491857527
 20
12.16150000000001
 30
0.0
 40
0.375
  1
AC-404
 41
0.75
 72
     4
 11
1.602419991857527
 21
12.34900000000001
 31
0.0
100
AcDbText
  0
TEXT
  5
42D
330
1E
100
AcDbEntity
  8
TEXT
100
AcDbText
 10
0.828982491857527
 20
11.53650000000001
 30
0.0
 40
0.375
  1
AC-405
 41
0.75
 72
     4
 11
1.602419991857527
 21
11.72400000000001
 31
0.0
100
AcDbText
  0
TEXT
  5
42E
330
1E
100
AcDbEntity
  8
TEXT
100
AcDbText
 10
0.828982491857527
 20
10.91150000000002
 30
0.0
 40
0.375
  1
AC-406
 41
0.75
 72
     4
 11
1.602419991857527
 21
11.09900000000002
 31
0.0
100
AcDbText
  0
TEXT
  5
42F
330
1E
100
AcDbEntity
  8
TEXT
100
AcDbText
 10
0.828982491857527
 20
10.28650000000002
 30
0.0
 40
0.375
  1
AC-407
 41
0.75
 72
     4
 11
1.602419991857527
 21
10.47400000000002
 31
0.0
100
AcDbText
  0
TEXT
  5
430
330
1E
100
AcDbEntity
  8
TEXT
100
AcDbText
 10
0.828982491857527
 20
9.661500000000021
 30
0.0
 40
0.375
  1
AC-408
 41
0.75
 72
     4
 11
1.602419991857527
 21
9.849000000000021
 31
0.0
100
AcDbText
  0
TEXT
  5
431
330
1E
100
AcDbEntity
  8
TEXT
100
AcDbText
 10
0.828982491857527
 20
9.036500000000021
 30
0.0
 40
0.375
  1
AC-409
 41
0.75
 72
     4
 11
1.602419991857527
 21
9.224000000000021
 31
0.0
100
AcDbText
  0
TEXT
  5
432
330
1E
100
AcDbEntity
  8
TEXT
100
AcDbText
 10
0.899294991857527
 20
8.411500000000021
 30
0.0
 40
0.375
  1
AC-411
 41
0.75
 72
     4
 11
1.602419991857527
 21
8.599000000000021
 31
0.0
100
AcDbText
  0
TEXT
  5
433
330
1E
100
AcDbEntity
  8
TEXT
100
AcDbText
 10
0.7117949918575271
 20
7.786500000000017
 30
0.0
 40
0.375
  1
AC-412*
 41
0.75
 72
     4
 11
1.602419991857527
 21
7.974000000000017
 31
0.0
100
AcDbText
  0
TEXT
  5
434
330
1E
100
AcDbEntity
  8
TEXT
100
AcDbText
 10
0.852419991857527
 20
7.16150000000002
 30
0.0
 40
0.375
  1
AC-413
 41
0.75
 72
     4
 11
1.602419991857527
 21
7.34900000000002
 31
0.0
100
AcDbText
  0
TEXT
  5
435
330
1E
100
AcDbEntity
  8
TEXT
100
AcDbText
 10
0.852419991857527
 20
6.536500000000017
 30
0.0
 40
0.375
  1
AC-414
 41
0.75
 72
     4
 11
1.602419991857527
 21
6.724000000000017
 31
0.0
100
AcDbText
  0
TEXT
  5
436
330
1E
100
AcDbEntity
  8
TEXT
100
AcDbText
 10
0.7117949918575271
 20
5.911500000000017
 30
0.0
 40
0.375
  1
AC-415*
 41
0.75
 72
     4
 11
1.602419991857527
 21
6.099000000000017
 31
0.0
100
AcDbText
  0
TEXT
  5
437
330
1E
100
AcDbEntity
  8
TEXT
100
AcDbText
 10
0.7117949918575271
 20
5.286500000000015
 30
0.0
 40
0.375
  1
AC-416*
 41
0.75
 72
     4
 11
1.602419991857527
 21
5.474000000000015
 31
0.0
100
AcDbText
  0
TEXT
  5
438
330
1E
100
AcDbEntity
  8
TEXT
100
AcDbText
 10
0.7117949918575271
 20
4.661500000000015
 30
0.0
 40
0.375
  1
AC-418*
 41
0.75
 72
     4
 11
1.602419991857527
 21
4.849000000000015
 31
0.0
100
AcDbText
  0
TEXT
  5
439
330
1E
100
AcDbEntity
  8
TEXT
100
AcDbText
 10
0.7117949918575271
 20
4.036500000000015
 30
0.0
 40
0.375
  1
AC-419*
 41
0.75
 72
     4
 11
1.602419991857527
 21
4.224000000000015
 31
0.0
100
AcDbText
  0
TEXT
  5
43A
330
1E
100
AcDbEntity
  8
TEXT
100
AcDbText
 10
0.6883574918575271
 20
3.411500000000017
 30
0.0
 40
0.375
  1
AC-420*
 41
0.75
 72
     4
 11
1.602419991857527
 21
3.599000000000017
 31
0.0
100
AcDbText
  0
TEXT
  5
43B
330
1E
100
AcDbEntity
  8
TEXT
100
AcDbText
 10
0.852419991857527
 20
2.786500000000017
 30
0.0
 40
0.375
  1
AC-421
 41
0.75
 72
     4
 11
1.602419991857527
 21
2.974000000000017
 31
0.0
100
AcDbText
  0
TEXT
  5
43C
330
1E
100
AcDbEntity
  8
TEXT
100
AcDbText
 10
0.805544991857527
 20
2.161500000000015
 30
0.0
 40
0.375
  1
AC-423
 41
0.75
 72
     4
 11
1.602419991857527
 21
2.349000000000015
 31
0.0
100
AcDbText
  0
TEXT
  5
43D
330
1E
100
AcDbEntity
  8
TEXT
100
AcDbText
 10
0.805544991857527
 20
1.536500000000015
 30
0.0
 40
0.375
  1
AC-424
 41
0.75
 72
     4
 11
1.602419991857527
 21
1.724000000000015
 31
0.0
100
AcDbText
  0
TEXT
  5
43E
330
1E
100
AcDbEntity
  8
TEXT
100
AcDbText
 10
0.6649199918575271
 20
0.9115000000000176
 30
0.0
 40
0.375
  1
AC-427*
 41
0.75
 72
     4
 11
1.602419991857527
 21
1.099000000000017
 31
0.0
100
AcDbText
  0
TEXT
  5
43F
330
1E
100
AcDbEntity
  8
TEXT
100
AcDbText
 10
0.6649199918575271
 20
0.2865000000000174
 30
0.0
 40
0.375
  1
AC-428*
 41
0.75
 72
     4
 11
1.602419991857527
 21
0.4740000000000175
 31
0.0
100
AcDbText
  0
TEXT
  5
440
330
1E
100
AcDbEntity
  8
TEXT
100
AcDbText
 10
15.83979441986401
 20
14.01350000000002
 30
0.0
 40
0.375
  1
AC-429
 41
0.75
 72
     4
 11
16.63666941986401
 21
14.20100000000002
 31
0.0
100
AcDbText
  0
TEXT
  5
441
330
1E
100
AcDbEntity
  8
TEXT
100
AcDbText
 10
15.86323191986401
 20
13.38850000000002
 30
0.0
 40
0.375
  1
AC-430
 41
0.75
 72
     4
 11
16.63666941986401
 21
13.57600000000002
 31
0.0
100
AcDbText
  0
TEXT
  5
442
330
1E
100
AcDbEntity
  8
TEXT
100
AcDbText
 10
15.88666941986401
 20
12.76350000000002
 30
0.0
 40
0.375
  1
AC-431
 41
0.75
 72
     4
 11
16.63666941986401
 21
12.95100000000002
 31
0.0
100
AcDbText
  0
TEXT
  5
443
330
1E
100
AcDbEntity
  8
TEXT
100
AcDbText
 10
15.83979441986401
 20
12.13850000000002
 30
0.0
 40
0.375
  1
AC-433
 41
0.75
 72
     4
 11
16.63666941986401
 21
12.32600000000002
 31
0.0
100
AcDbText
  0
TEXT
  5
444
330
1E
100
AcDbEntity
  8
TEXT
100
AcDbText
 10
15.76948191986401
 20
11.54150000000001
 30
0.0
 40
0.375
  1
AC-1402
 41
0.75
 72
     4
 11
16.63666941986401
 21
11.72900000000001
 31
0.0
100
AcDbText
  0
TEXT
  5
445
330
1E
100
AcDbEntity
  8
TEXT
100
AcDbText
 10
15.76948191986401
 20
10.91650000000001
 30
0.0
 40
0.375
  1
AC-1404
 41
0.75
 72
     4
 11
16.63666941986401
 21
11.10400000000001
 31
0.0
100
AcDbText
  0
TEXT
  5
446
330
1E
100
AcDbEntity
  8
TEXT
100
AcDbText
 10
15.76948191986401
 20
10.29150000000001
 30
0.0
 40
0.375
  1
AC-1405
 41
0.75
 72
     4
 11
16.63666941986401
 21
10.47900000000001
 31
0.0
100
AcDbText
  0
TEXT
  5
447
330
1E
100
AcDbEntity
  8
TEXT
100
AcDbText
 10
15.76948191986401
 20
9.666500000000018
 30
0.0
 40
0.375
  1
AC-1407
 41
0.75
 72
     4
 11
16.63666941986401
 21
9.854000000000018
 31
0.0
100
AcDbText
  0
TEXT
  5
448
330
1E
100
AcDbEntity
  8
TEXT
100
AcDbText
 10
15.79291941986401
 20
9.041500000000018
 30
0.0
 40
0.375
  1
AC-1413
 41
0.75
 72
     4
 11
16.63666941986401
 21
9.229000000000018
 31
0.0
100
AcDbText
  0
TEXT
  5
449
330
1E
100
AcDbEntity
  8
TEXT
100
AcDbText
 10
15.79291941986401
 20
8.416500000000018
 30
0.0
 40
0.375
  1
AC-1414
 41
0.75
 72
     4
 11
16.63666941986401
 21
8.604000000000018
 31
0.0
100
AcDbText
  0
TEXT
  5
44A
330
1E
100
AcDbEntity
  8
TEXT
100
AcDbText
 10
15.79291941986401
 20
7.791500000000017
 30
0.0
 40
0.375
  1
AC-1416
 41
0.75
 72
     4
 11
16.63666941986401
 21
7.979000000000017
 31
0.0
100
AcDbText
  0
TEXT
  5
44B
330
1E
100
AcDbEntity
  8
TEXT
100
AcDbText
 10
15.79291941986401
 20
7.16650000000002
 30
0.0
 40
0.375
  1
AC-1418
 41
0.75
 72
     4
 11
16.63666941986401
 21
7.35400000000002
 31
0.0
100
AcDbText
  0
TEXT
  5
44C
330
1E
100
AcDbEntity
  8
TEXT
100
AcDbText
 10
15.79291941986401
 20
6.541500000000021
 30
0.0
 40
0.375
  1
AC-1419
 41
0.75
 72
     4
 11
16.63666941986401
 21
6.729000000000021
 31
0.0
100
AcDbText
  0
TEXT
  5
44D
330
1E
100
AcDbEntity
  8
TEXT
100
AcDbText
 10
15.79291941986401
 20
5.916500000000017
 30
0.0
 40
0.375
  1
AC-1421
 41
0.75
 72
     4
 11
16.63666941986401
 21
6.104000000000017
 31
0.0
100
AcDbText
  0
TEXT
  5
44E
330
1E
100
AcDbEntity
  8
TEXT
100
AcDbText
 10
15.74604441986401
 20
5.291500000000017
 30
0.0
 40
0.375
  1
AC-1422
 41
0.75
 72
     4
 11
16.63666941986401
 21
5.479000000000017
 31
0.0
100
AcDbText
  0
TEXT
  5
44F
330
1E
100
AcDbEntity
  8
TEXT
100
AcDbText
 10
15.74604441986401
 20
4.666500000000017
 30
0.0
 40
0.375
  1
AC-1424
 41
0.75
 72
     4
 11
16.63666941986401
 21
4.854000000000017
 31
0.0
100
AcDbText
  0
TEXT
  5
450
330
1E
100
AcDbEntity
  8
TEXT
100
AcDbText
 10
15.74604441986401
 20
4.041500000000017
 30
0.0
 40
0.375
  1
AC-1426
 41
0.75
 72
     4
 11
16.63666941986401
 21
4.229000000000017
 31
0.0
100
AcDbText
  0
TEXT
  5
451
330
1E
100
AcDbEntity
  8
TEXT
100
AcDbText
 10
15.74604441986401
 20
3.416500000000018
 30
0.0
 40
0.375
  1
AC-1427
 41
0.75
 72
     4
 11
16.63666941986401
 21
3.604000000000018
 31
0.0
100
AcDbText
  0
TEXT
  5
452
330
1E
100
AcDbEntity
  8
TEXT
100
AcDbText
 10
15.74604441986401
 20
2.791500000000018
 30
0.0
 40
0.375
  1
AC-1428
 41
0.75
 72
     4
 11
16.63666941986401
 21
2.979000000000018
 31
0.0
100
AcDbText
  0
TEXT
  5
453
330
1E
100
AcDbEntity
  8
TEXT
100
AcDbText
 10
15.74604441986401
 20
2.166500000000014
 30
0.0
 40
0.375
  1
AC-1429
 41
0.75
 72
     4
 11
16.63666941986401
 21
2.354000000000014
 31
0.0
100
AcDbText
  0
TEXT
  5
454
330
1E
100
AcDbEntity
  8
TEXT
100
AcDbText
 10
15.76948191986401
 20
1.541500000000018
 30
0.0
 40
0.375
  1
AC-1430
 41
0.75
 72
     4
 11
16.63666941986401
 21
1.729000000000018
 31
0.0
100
AcDbText
  0
TEXT
  5
455
330
1E
100
AcDbEntity
  8
TEXT
100
AcDbText
 10
15.79291941986401
 20
0.9165000000000166
 30
0.0
 40
0.375
  1
AC-1431
 41
0.75
 72
     4
 11
16.63666941986401
 21
1.104000000000016
 31
0.0
100
AcDbText
  0
TEXT
  5
456
330
1E
100
AcDbEntity
  8
TEXT
100
AcDbText
 10
15.65229441986401
 20
14.66150000000001
 30
0.0
 40
0.375
  1
PART No.
 41
0.75
 72
     4
 11
16.63666941986401
 21
14.84900000000001
 31
0.0
100
AcDbText
  0
TEXT
  5
457
330
1E
100
AcDbEntity
  8
TEXT
100
AcDbText
 10
4.091833986451927
 20
14.66922317717137
 30
0.0
 40
0.375
  1
A
 41
0.75
 72
     1
 11
4.185583986451927
 21
14.66922317717137
 31
0.0
100
AcDbText
  0
TEXT
  5
458
330
1E
100
AcDbEntity
  8
TEXT
100
AcDbText
 10
3.669958986451927
 20
14.04422317717137
 30
0.0
 40
0.375
  1
9.500
 41
0.75
 72
     1
 11
4.185583986451927
 21
14.04422317717137
 31
0.0
100
AcDbText
  0
TEXT
  5
459
330
1E
100
AcDbEntity
  8
TEXT
100
AcDbText
 10
3.693396486451927
 20
13.41922317717137
 30
0.0
 40
0.375
  1
7.000
 41
0.75
 72
     1
 11
4.185583986451927
 21
13.41922317717137
 31
0.0
100
AcDbText
  0
TEXT
  5
45A
330
1E
100
AcDbEntity
  8
TEXT
100
AcDbText
 10
3.669958986451927
 20
12.79422317717137
 30
0.0
 40
0.375
  1
9.500
 41
0.75
 72
     1
 11
4.185583986451927
 21
12.79422317717137
 31
0.0
100
AcDbText
  0
TEXT
  5
45B
330
1E
100
AcDbEntity
  8
TEXT
100
AcDbText
 10
3.623083986451927
 20
12.16922317717137
 30
0.0
 40
0.375
  1
10.000
 41
0.75
 72
     1
 11
4.185583986451927
 21
12.16922317717137
 31
0.0
100
AcDbText
  0
TEXT
  5
45C
330
1E
100
AcDbEntity
  8
TEXT
100
AcDbText
 10
3.693396486451927
 20
11.54422317717137
 30
0.0
 40
0.375
  1
7.000
 41
0.75
 72
     1
 11
4.185583986451927
 21
11.54422317717137
 31
0.0
100
AcDbText
  0
TEXT
  5
45D
330
1E
100
AcDbEntity
  8
TEXT
100
AcDbText
 10
3.693396486451927
 20
10.91922317717137
 30
0.0
 40
0.375
  1
9.000
 41
0.75
 72
     1
 11
4.185583986451927
 21
10.91922317717137
 31
0.0
100
AcDbText
  0
TEXT
  5
45E
330
1E
100
AcDbEntity
  8
TEXT
100
AcDbText
 10
3.646521486451927
 20
10.29422317717137
 30
0.0
 40
0.375
  1
11.000
 41
0.75
 72
     1
 11
4.185583986451927
 21
10.29422317717137
 31
0.0
100
AcDbText
  0
TEXT
  5
45F
330
1E
100
AcDbEntity
  8
TEXT
100
AcDbText
 10
3.599646486451927
 20
9.669223177171376
 30
0.0
 40
0.375
  1
12.000
 41
0.75
 72
     1
 11
4.185583986451927
 21
9.669223177171376
 31
0.0
100
AcDbText
  0
TEXT
  5
460
330
1E
100
AcDbEntity
  8
TEXT
100
AcDbText
 10
3.599646486451927
 20
9.044223177171378
 30
0.0
 40
0.375
  1
13.000
 41
0.75
 72
     1
 11
4.185583986451927
 21
9.044223177171378
 31
0.0
100
AcDbText
  0
TEXT
  5
461
330
1E
100
AcDbEntity
  8
TEXT
100
AcDbText
 10
3.599646486451927
 20
8.419223177171378
 30
0.0
 40
0.375
  1
15.000
 41
0.75
 72
     1
 11
4.185583986451927
 21
8.419223177171378
 31
0.0
100
AcDbText
  0
TEXT
  5
462
330
1E
100
AcDbEntity
  8
TEXT
100
AcDbText
 10
3.599646486451927
 20
7.794223177171375
 30
0.0
 40
0.375
  1
17.000
 41
0.75
 72
     1
 11
4.185583986451927
 21
7.794223177171375
 31
0.0
100
AcDbText
  0
TEXT
  5
463
330
1E
100
AcDbEntity
  8
TEXT
100
AcDbText
 10
3.599646486451927
 20
7.169223177171377
 30
0.0
 40
0.375
  1
12.000
 41
0.75
 72
     1
 11
4.185583986451927
 21
7.169223177171377
 31
0.0
100
AcDbText
  0
TEXT
  5
464
330
1E
100
AcDbEntity
  8
TEXT
100
AcDbText
 10
3.599646486451927
 20
6.544223177171374
 30
0.0
 40
0.375
  1
14.000
 41
0.75
 72
     1
 11
4.185583986451927
 21
6.544223177171374
 31
0.0
100
AcDbText
  0
TEXT
  5
465
330
1E
100
AcDbEntity
  8
TEXT
100
AcDbText
 10
3.599646486451927
 20
5.919223177171375
 30
0.0
 40
0.375
  1
17.000
 41
0.75
 72
     1
 11
4.185583986451927
 21
5.919223177171375
 31
0.0
100
AcDbText
  0
TEXT
  5
466
330
1E
100
AcDbEntity
  8
TEXT
100
AcDbText
 10
3.599646486451927
 20
5.294223177171374
 30
0.0
 40
0.375
  1
17.000
 41
0.75
 72
     1
 11
4.185583986451927
 21
5.294223177171374
 31
0.0
100
AcDbText
  0
TEXT
  5
467
330
1E
100
AcDbEntity
  8
TEXT
100
AcDbText
 10
3.599646486451927
 20
4.669223177171374
 30
0.0
 40
0.375
  1
17.000
 41
0.75
 72
     1
 11
4.185583986451927
 21
4.669223177171374
 31
0.0
100
AcDbText
  0
TEXT
  5
468
330
1E
100
AcDbEntity
  8
TEXT
100
AcDbText
 10
3.599646486451927
 20
4.044223177171372
 30
0.0
 40
0.375
  1
17.000
 41
0.75
 72
     1
 11
4.185583986451927
 21
4.044223177171372
 31
0.0
100
AcDbText
  0
TEXT
  5
469
330
1E
100
AcDbEntity
  8
TEXT
100
AcDbText
 10
3.599646486451927
 20
3.419223177171374
 30
0.0
 40
0.375
  1
17.000
 41
0.75
 72
     1
 11
4.185583986451927
 21
3.419223177171374
 31
0.0
100
AcDbText
  0
TEXT
  5
46A
330
1E
100
AcDbEntity
  8
TEXT
100
AcDbText
 10
3.669958986451927
 20
2.794223177171374
 30
0.0
 40
0.375
  1
9.500
 41
0.75
 72
     1
 11
4.185583986451927
 21
2.794223177171374
 31
0.0
100
AcDbText
  0
TEXT
  5
46B
330
1E
100
AcDbEntity
  8
TEXT
100
AcDbText
 10
3.599646486451927
 20
2.169223177171374
 30
0.0
 40
0.375
  1
17.000
 41
0.75
 72
     1
 11
4.185583986451927
 21
2.169223177171374
 31
0.0
100
AcDbText
  0
TEXT
  5
46C
330
1E
100
AcDbEntity
  8
TEXT
100
AcDbText
 10
3.599646486451927
 20
1.544223177171374
 30
0.0
 40
0.375
  1
12.000
 41
0.75
 72
     1
 11
4.185583986451927
 21
1.544223177171374
 31
0.0
100
AcDbText
  0
TEXT
  5
46D
330
1E
100
AcDbEntity
  8
TEXT
100
AcDbText
 10
3.599646486451927
 20
0.9192231771713744
 30
0.0
 40
0.375
  1
17.000
 41
0.75
 72
     1
 11
4.185583986451927
 21
0.9192231771713744
 31
0.0
100
AcDbText
  0
TEXT
  5
46E
330
1E
100
AcDbEntity
  8
TEXT
100
AcDbText
 10
3.599646486451927
 20
0.2942231771713745
 30
0.0
 40
0.375
  1
17.000
 41
0.75
 72
     1
 11
4.185583986451927
 21
0.2942231771713745
 31
0.0
100
AcDbText
  0
TEXT
  5
46F
330
1E
100
AcDbEntity
  8
TEXT
100
AcDbText
 10
18.70707392248504
 20
14.01350000000002
 30
0.0
 40
0.375
  1
7.000
 41
0.75
 72
     4
 11
19.19926142248504
 21
14.20100000000002
 31
0.0
100
AcDbText
  0
TEXT
  5
470
330
1E
100
AcDbEntity
  8
TEXT
100
AcDbText
 10
18.70707392248504
 20
13.38850000000002
 30
0.0
 40
0.375
  1
6.000
 41
0.75
 72
     4
 11
19.19926142248504
 21
13.57600000000002
 31
0.0
100
AcDbText
  0
TEXT
  5
471
330
1E
100
AcDbEntity
  8
TEXT
100
AcDbText
 10
18.70707392248504
 20
12.76350000000002
 30
0.0
 40
0.375
  1
6.000
 41
0.75
 72
     4
 11
19.19926142248504
 21
12.95100000000002
 31
0.0
100
AcDbText
  0
TEXT
  5
472
330
1E
100
AcDbEntity
  8
TEXT
100
AcDbText
 10
6.118380251054038
 20
14.66150000000001
 30
0.0
 40
0.375
  1
B
 41
0.75
 72
     4
 11
6.212130251054038
 21
14.84900000000001
 31
0.0
100
AcDbText
  0
TEXT
  5
473
330
1E
100
AcDbEntity
  8
TEXT
100
AcDbText
 10
5.719942751054038
 20
14.03650000000001
 30
0.0
 40
0.375
  1
5.000
 41
0.75
 72
     4
 11
6.212130251054038
 21
14.22400000000001
 31
0.0
100
AcDbText
  0
TEXT
  5
474
330
1E
100
AcDbEntity
  8
TEXT
100
AcDbText
 10
5.719942751054038
 20
13.41150000000001
 30
0.0
 40
0.375
  1
5.000
 41
0.75
 72
     4
 11
6.212130251054038
 21
13.59900000000001
 31
0.0
100
AcDbText
  0
TEXT
  5
475
330
1E
100
AcDbEntity
  8
TEXT
100
AcDbText
 10
5.719942751054038
 20
12.78650000000001
 30
0.0
 40
0.375
  1
5.000
 41
0.75
 72
     4
 11
6.212130251054038
 21
12.97400000000001
 31
0.0
100
AcDbText
  0
TEXT
  5
476
330
1E
100
AcDbEntity
  8
TEXT
100
AcDbText
 10
5.719942751054038
 20
12.16150000000001
 30
0.0
 40
0.375
  1
5.000
 41
0.75
 72
     4
 11
6.212130251054038
 21
12.34900000000001
 31
0.0
100
AcDbText
  0
TEXT
  5
477
330
1E
100
AcDbEntity
  8
TEXT
100
AcDbText
 10
5.719942751054038
 20
11.53650000000001
 30
0.0
 40
0.375
  1
7.000
 41
0.75
 72
     4
 11
6.212130251054038
 21
11.72400000000001
 31
0.0
100
AcDbText
  0
TEXT
  5
478
330
1E
100
AcDbEntity
  8
TEXT
100
AcDbText
 10
5.719942751054038
 20
10.91150000000002
 30
0.0
 40
0.375
  1
7.000
 41
0.75
 72
     4
 11
6.212130251054038
 21
11.09900000000002
 31
0.0
100
AcDbText
  0
TEXT
  5
479
330
1E
100
AcDbEntity
  8
TEXT
100
AcDbText
 10
5.719942751054038
 20
10.28650000000002
 30
0.0
 40
0.375
  1
7.000
 41
0.75
 72
     4
 11
6.212130251054038
 21
10.47400000000002
 31
0.0
100
AcDbText
  0
TEXT
  5
47A
330
1E
100
AcDbEntity
  8
TEXT
100
AcDbText
 10
5.719942751054038
 20
9.661500000000021
 30
0.0
 40
0.375
  1
7.000
 41
0.75
 72
     4
 11
6.212130251054038
 21
9.849000000000021
 31
0.0
100
AcDbText
  0
TEXT
  5
47B
330
1E
100
AcDbEntity
  8
TEXT
100
AcDbText
 10
5.719942751054038
 20
9.036500000000021
 30
0.0
 40
0.375
  1
7.000
 41
0.75
 72
     4
 11
6.212130251054038
 21
9.224000000000021
 31
0.0
100
AcDbText
  0
TEXT
  5
47C
330
1E
100
AcDbEntity
  8
TEXT
100
AcDbText
 10
5.719942751054038
 20
8.411500000000021
 30
0.0
 40
0.375
  1
7.000
 41
0.75
 72
     4
 11
6.212130251054038
 21
8.599000000000021
 31
0.0
100
AcDbText
  0
TEXT
  5
47D
330
1E
100
AcDbEntity
  8
TEXT
100
AcDbText
 10
5.719942751054038
 20
7.786500000000017
 30
0.0
 40
0.375
  1
8.000
 41
0.75
 72
     4
 11
6.212130251054038
 21
7.974000000000017
 31
0.0
100
AcDbText
  0
TEXT
  5
47E
330
1E
100
AcDbEntity
  8
TEXT
100
AcDbText
 10
5.649630251054038
 20
7.16150000000002
 30
0.0
 40
0.375
  1
10.000
 41
0.75
 72
     4
 11
6.212130251054038
 21
7.34900000000002
 31
0.0
100
AcDbText
  0
TEXT
  5
47F
330
1E
100
AcDbEntity
  8
TEXT
100
AcDbText
 10
5.649630251054038
 20
6.536500000000017
 30
0.0
 40
0.375
  1
10.000
 41
0.75
 72
     4
 11
6.212130251054038
 21
6.724000000000017
 31
0.0
100
AcDbText
  0
TEXT
  5
480
330
1E
100
AcDbEntity
  8
TEXT
100
AcDbText
 10
5.649630251054038
 20
5.911500000000017
 30
0.0
 40
0.375
  1
10.000
 41
0.75
 72
     4
 11
6.212130251054038
 21
6.099000000000017
 31
0.0
100
AcDbText
  0
TEXT
  5
481
330
1E
100
AcDbEntity
  8
TEXT
100
AcDbText
 10
5.649630251054038
 20
5.286500000000015
 30
0.0
 40
0.375
  1
10.000
 41
0.75
 72
     4
 11
6.212130251054038
 21
5.474000000000015
 31
0.0
100
AcDbText
  0
TEXT
  5
482
330
1E
100
AcDbEntity
  8
TEXT
100
AcDbText
 10
5.626192751054038
 20
4.661500000000015
 30
0.0
 40
0.375
  1
12.000
 41
0.75
 72
     4
 11
6.212130251054038
 21
4.849000000000015
 31
0.0
100
AcDbText
  0
TEXT
  5
483
330
1E
100
AcDbEntity
  8
TEXT
100
AcDbText
 10
5.626192751054038
 20
4.036500000000015
 30
0.0
 40
0.375
  1
13.000
 41
0.75
 72
     4
 11
6.212130251054038
 21
4.224000000000015
 31
0.0
100
AcDbText
  0
TEXT
  5
484
330
1E
100
AcDbEntity
  8
TEXT
100
AcDbText
 10
5.626192751054038
 20
3.411500000000017
 30
0.0
 40
0.375
  1
13.000
 41
0.75
 72
     4
 11
6.212130251054038
 21
3.599000000000017
 31
0.0
100
AcDbText
  0
TEXT
  5
485
330
1E
100
AcDbEntity
  8
TEXT
100
AcDbText
 10
5.719942751054038
 20
2.786500000000017
 30
0.0
 40
0.375
  1
5.000
 41
0.75
 72
     4
 11
6.212130251054038
 21
2.974000000000017
 31
0.0
100
AcDbText
  0
TEXT
  5
486
330
1E
100
AcDbEntity
  8
TEXT
100
AcDbText
 10
5.719942751054038
 20
2.161500000000015
 30
0.0
 40
0.375
  1
7.000
 41
0.75
 72
     4
 11
6.212130251054038
 21
2.349000000000015
 31
0.0
100
AcDbText
  0
TEXT
  5
487
330
1E
100
AcDbEntity
  8
TEXT
100
AcDbText
 10
5.719942751054038
 20
1.536500000000015
 30
0.0
 40
0.375
  1
8.000
 41
0.75
 72
     4
 11
6.212130251054038
 21
1.724000000000015
 31
0.0
100
AcDbText
  0
TEXT
  5
488
330
1E
100
AcDbEntity
  8
TEXT
100
AcDbText
 10
5.649630251054038
 20
0.9115000000000176
 30
0.0
 40
0.375
  1
10.000
 41
0.75
 72
     4
 11
6.212130251054038
 21
1.099000000000017
 31
0.0
100
AcDbText
  0
TEXT
  5
489
330
1E
100
AcDbEntity
  8
TEXT
100
AcDbText
 10
5.626192751054038
 20
0.2865000000000174
 30
0.0
 40
0.375
  1
13.000
 41
0.75
 72
     4
 11
6.212130251054038
 21
0.4740000000000175
 31
0.0
100
AcDbText
  0
TEXT
  5
48A
330
1E
100
AcDbEntity
  8
TEXT
100
AcDbText
 10
20.78617536687784
 20
14.01350000000002
 30
0.0
 40
0.375
  1
5.000
 41
0.75
 72
     4
 11
21.27836286687784
 21
14.20100000000002
 31
0.0
100
AcDbText
  0
TEXT
  5
48B
330
1E
100
AcDbEntity
  8
TEXT
100
AcDbText
 10
20.78617536687784
 20
13.38850000000002
 30
0.0
 40
0.375
  1
4.000
 41
0.75
 72
     4
 11
21.27836286687784
 21
13.57600000000002
 31
0.0
100
AcDbText
  0
TEXT
  5
48C
330
1E
100
AcDbEntity
  8
TEXT
100
AcDbText
 10
20.78617536687784
 20
12.13850000000002
 30
0.0
 40
0.375
  1
6.000
 41
0.75
 72
     4
 11
21.27836286687784
 21
12.32600000000002
 31
0.0
100
AcDbText
  0
TEXT
  5
48D
330
1E
100
AcDbEntity
  8
TEXT
100
AcDbText
 10
8.204641924017288
 20
14.66150000000001
 30
0.0
 40
0.375
  1
C
 41
0.75
 72
     4
 11
8.298391924017288
 21
14.84900000000001
 31
0.0
100
AcDbText
  0
TEXT
  5
48E
330
1E
100
AcDbEntity
  8
TEXT
100
AcDbText
 10
7.782766924017288
 20
14.03650000000001
 30
0.0
 40
0.375
  1
2.500
 41
0.75
 72
     4
 11
8.298391924017288
 21
14.22400000000001
 31
0.0
100
AcDbText
  0
TEXT
  5
48F
330
1E
100
AcDbEntity
  8
TEXT
100
AcDbText
 10
7.806204424017288
 20
13.41150000000001
 30
0.0
 40
0.375
  1
2.000
 41
0.75
 72
     4
 11
8.298391924017288
 21
13.59900000000001
 31
0.0
100
AcDbText
  0
TEXT
  5
490
330
1E
100
AcDbEntity
  8
TEXT
100
AcDbText
 10
7.806204424017288
 20
12.78650000000001
 30
0.0
 40
0.375
  1
2.000
 41
0.75
 72
     4
 11
8.298391924017288
 21
12.97400000000001
 31
0.0
100
AcDbText
  0
TEXT
  5
491
330
1E
100
AcDbEntity
  8
TEXT
100
AcDbText
 10
7.806204424017288
 20
12.16150000000001
 30
0.0
 40
0.375
  1
3.000
 41
0.75
 72
     4
 11
8.298391924017288
 21
12.34900000000001
 31
0.0
100
AcDbText
  0
TEXT
  5
492
330
1E
100
AcDbEntity
  8
TEXT
100
AcDbText
 10
7.806204424017288
 20
9.661500000000021
 30
0.0
 40
0.375
  1
3.000
 41
0.75
 72
     4
 11
8.298391924017288
 21
9.849000000000021
 31
0.0
100
AcDbText
  0
TEXT
  5
493
330
1E
100
AcDbEntity
  8
TEXT
100
AcDbText
 10
7.806204424017288
 20
9.036500000000021
 30
0.0
 40
0.375
  1
2.000
 41
0.75
 72
     4
 11
8.298391924017288
 21
9.224000000000021
 31
0.0
100
AcDbText
  0
TEXT
  5
494
330
1E
100
AcDbEntity
  8
TEXT
100
AcDbText
 10
7.806204424017288
 20
8.411500000000021
 30
0.0
 40
0.375
  1
3.000
 41
0.75
 72
     4
 11
8.298391924017288
 21
8.599000000000021
 31
0.0
100
AcDbText
  0
TEXT
  5
495
330
1E
100
AcDbEntity
  8
TEXT
100
AcDbText
 10
7.806204424017288
 20
0.9115000000000176
 30
0.0
 40
0.375
  1
4.000
 41
0.75
 72
     4
 11
8.298391924017288
 21
1.099000000000017
 31
0.0
100
AcDbText
  0
TEXT
  5
496
330
1E
100
AcDbEntity
  8
TEXT
100
AcDbText
 10
7.806204424017288
 20
0.2865000000000174
 30
0.0
 40
0.375
  1
4.000
 41
0.75
 72
     4
 11
8.298391924017288
 21
0.4740000000000175
 31
0.0
100
AcDbText
  0
TEXT
  5
497
330
1E
100
AcDbEntity
  8
TEXT
100
AcDbText
 10
22.88161551475211
 20
14.01350000000002
 30
0.0
 40
0.375
  1
3.000
 41
0.75
 72
     4
 11
23.37380301475211
 21
14.20100000000002
 31
0.0
100
AcDbText
  0
TEXT
  5
498
330
1E
100
AcDbEntity
  8
TEXT
100
AcDbText
 10
22.88161551475211
 20
12.76350000000002
 30
0.0
 40
0.375
  1
2.000
 41
0.75
 72
     4
 11
23.37380301475211
 21
12.95100000000002
 31
0.0
100
AcDbText
  0
TEXT
  5
499
330
1E
100
AcDbEntity
  8
TEXT
100
AcDbText
 10
11.25808199990094
 20
14.66150000000001
 30
0.0
 40
0.375
  1
GAUGE
 41
0.75
 72
     4
 11
11.91433199990094
 21
14.84900000000001
 31
0.0
100
AcDbText
  0
TEXT
  5
49A
330
1E
100
AcDbEntity
  8
TEXT
100
AcDbText
 10
11.42214449990094
 20
14.03650000000001
 30
0.0
 40
0.375
  1
0.040
 41
0.75
 72
     4
 11
11.91433199990094
 21
14.22400000000001
 31
0.0
100
AcDbText
  0
TEXT
  5
49B
330
1E
100
AcDbEntity
  8
TEXT
100
AcDbText
 10
11.42214449990094
 20
13.41250000000001
 30
0.0
 40
0.375
  1
0.040
 41
0.75
 72
     4
 11
11.91433199990094
 21
13.60000000000001
 31
0.0
100
AcDbText
  0
TEXT
  5
49C
330
1E
100
AcDbEntity
  8
TEXT
100
AcDbText
 10
11.42214449990094
 20
12.78850000000001
 30
0.0
 40
0.375
  1
0.040
 41
0.75
 72
     4
 11
11.91433199990094
 21
12.97600000000001
 31
0.0
100
AcDbText
  0
TEXT
  5
49D
330
1E
100
AcDbEntity
  8
TEXT
100
AcDbText
 10
11.42214449990094
 20
12.16450000000001
 30
0.0
 40
0.375
  1
0.040
 41
0.75
 72
     4
 11
11.91433199990094
 21
12.35200000000001
 31
0.0
100
AcDbText
  0
TEXT
  5
49E
330
1E
100
AcDbEntity
  8
TEXT
100
AcDbText
 10
11.42214449990094
 20
11.54050000000001
 30
0.0
 40
0.375
  1
0.040
 41
0.75
 72
     4
 11
11.91433199990094
 21
11.72800000000001
 31
0.0
100
AcDbText
  0
TEXT
  5
49F
330
1E
100
AcDbEntity
  8
TEXT
100
AcDbText
 10
11.42214449990094
 20
10.91650000000001
 30
0.0
 40
0.375
  1
0.040
 41
0.75
 72
     4
 11
11.91433199990094
 21
11.10400000000001
 31
0.0
100
AcDbText
  0
TEXT
  5
4A0
330
1E
100
AcDbEntity
  8
TEXT
100
AcDbText
 10
11.42214449990094
 20
10.29250000000001
 30
0.0
 40
0.375
  1
0.040
 41
0.75
 72
     4
 11
11.91433199990094
 21
10.48000000000001
 31
0.0
100
AcDbText
  0
TEXT
  5
4A1
330
1E
100
AcDbEntity
  8
TEXT
100
AcDbText
 10
11.42214449990094
 20
9.668500000000015
 30
0.0
 40
0.375
  1
0.040
 41
0.75
 72
     4
 11
11.91433199990094
 21
9.856000000000015
 31
0.0
100
AcDbText
  0
TEXT
  5
4A2
330
1E
100
AcDbEntity
  8
TEXT
100
AcDbText
 10
11.42214449990094
 20
9.044500000000017
 30
0.0
 40
0.375
  1
0.040
 41
0.75
 72
     4
 11
11.91433199990094
 21
9.232000000000017
 31
0.0
100
AcDbText
  0
TEXT
  5
4A3
330
1E
100
AcDbEntity
  8
TEXT
100
AcDbText
 10
11.42214449990094
 20
8.419500000000013
 30
0.0
 40
0.375
  1
0.050
 41
0.75
 72
     4
 11
11.91433199990094
 21
8.607000000000013
 31
0.0
100
AcDbText
  0
TEXT
  5
4A4
330
1E
100
AcDbEntity
  8
TEXT
100
AcDbText
 10
11.42214449990094
 20
7.795500000000012
 30
0.0
 40
0.375
  1
0.050
 41
0.75
 72
     4
 11
11.91433199990094
 21
7.983000000000012
 31
0.0
100
AcDbText
  0
TEXT
  5
4A5
330
1E
100
AcDbEntity
  8
TEXT
100
AcDbText
 10
11.42214449990094
 20
7.171500000000013
 30
0.0
 40
0.375
  1
0.050
 41
0.75
 72
     4
 11
11.91433199990094
 21
7.359000000000013
 31
0.0
100
AcDbText
  0
TEXT
  5
4A6
330
1E
100
AcDbEntity
  8
TEXT
100
AcDbText
 10
11.42214449990094
 20
6.547500000000018
 30
0.0
 40
0.375
  1
0.050
 41
0.75
 72
     4
 11
11.91433199990094
 21
6.735000000000018
 31
0.0
100
AcDbText
  0
TEXT
  5
4A7
330
1E
100
AcDbEntity
  8
TEXT
100
AcDbText
 10
11.42214449990094
 20
5.923500000000012
 30
0.0
 40
0.375
  1
0.050
 41
0.75
 72
     4
 11
11.91433199990094
 21
6.111000000000012
 31
0.0
100
AcDbText
  0
TEXT
  5
4A8
330
1E
100
AcDbEntity
  8
TEXT
100
AcDbText
 10
11.42214449990094
 20
5.299500000000015
 30
0.0
 40
0.375
  1
0.050
 41
0.75
 72
     4
 11
11.91433199990094
 21
5.487000000000015
 31
0.0
100
AcDbText
  0
TEXT
  5
4A9
330
1E
100
AcDbEntity
  8
TEXT
100
AcDbText
 10
11.42214449990094
 20
4.675500000000016
 30
0.0
 40
0.375
  1
0.050
 41
0.75
 72
     4
 11
11.91433199990094
 21
4.863000000000016
 31
0.0
100
AcDbText
  0
TEXT
  5
4AA
330
1E
100
AcDbEntity
  8
TEXT
100
AcDbText
 10
11.42214449990094
 20
4.051500000000015
 30
0.0
 40
0.375
  1
0.050
 41
0.75
 72
     4
 11
11.91433199990094
 21
4.239000000000015
 31
0.0
100
AcDbText
  0
TEXT
  5
4AB
330
1E
100
AcDbEntity
  8
TEXT
100
AcDbText
 10
11.42214449990094
 20
3.427500000000015
 30
0.0
 40
0.375
  1
0.050
 41
0.75
 72
     4
 11
11.91433199990094
 21
3.615000000000015
 31
0.0
100
AcDbText
  0
TEXT
  5
4AC
330
1E
100
AcDbEntity
  8
TEXT
100
AcDbText
 10
11.42214449990094
 20
2.802500000000015
 30
0.0
 40
0.375
  1
0.040
 41
0.75
 72
     4
 11
11.91433199990094
 21
2.990000000000015
 31
0.0
100
AcDbText
  0
TEXT
  5
4AD
330
1E
100
AcDbEntity
  8
TEXT
100
AcDbText
 10
11.42214449990094
 20
2.177500000000015
 30
0.0
 40
0.375
  1
0.050
 41
0.75
 72
     4
 11
11.91433199990094
 21
2.365000000000015
 31
0.0
100
AcDbText
  0
TEXT
  5
4AE
330
1E
100
AcDbEntity
  8
TEXT
100
AcDbText
 10
11.42214449990094
 20
1.552500000000015
 30
0.0
 40
0.375
  1
0.050
 41
0.75
 72
     4
 11
11.91433199990094
 21
1.740000000000015
 31
0.0
100
AcDbText
  0
TEXT
  5
4AF
330
1E
100
AcDbEntity
  8
TEXT
100
AcDbText
 10
11.42214449990094
 20
0.9275000000000158
 30
0.0
 40
0.375
  1
0.050
 41
0.75
 72
     4
 11
11.91433199990094
 21
1.115000000000015
 31
0.0
100
AcDbText
  0
TEXT
  5
4B0
330
1E
100
AcDbEntity
  8
TEXT
100
AcDbText
 10
11.42214449990094
 20
0.3025000000000157
 30
0.0
 40
0.375
  1
0.050
 41
0.75
 72
     4
 11
11.91433199990094
 21
0.4900000000000157
 31
0.0
100
AcDbText
  0
TEXT
  5
4B1
330
1E
100
AcDbEntity
  8
TEXT
100
AcDbText
 10
26.55872334731972
 20
14.02950000000001
 30
0.0
 40
0.375
  1
0.040
 41
0.75
 72
     4
 11
27.05091084731972
 21
14.21700000000001
 31
0.0
100
AcDbText
  0
TEXT
  5
4B2
330
1E
100
AcDbEntity
  8
TEXT
100
AcDbText
 10
26.55872334731972
 20
13.40450000000002
 30
0.0
 40
0.375
  1
0.040
 41
0.75
 72
     4
 11
27.05091084731972
 21
13.59200000000002
 31
0.0
100
AcDbText
  0
TEXT
  5
4B3
330
1E
100
AcDbEntity
  8
TEXT
100
AcDbText
 10
26.55872334731972
 20
12.77950000000002
 30
0.0
 40
0.375
  1
0.040
 41
0.75
 72
     4
 11
27.05091084731972
 21
12.96700000000002
 31
0.0
100
AcDbText
  0
TEXT
  5
4B4
330
1E
100
AcDbEntity
  8
TEXT
100
AcDbText
 10
26.55872334731972
 20
12.15450000000002
 30
0.0
 40
0.375
  1
0.050
 41
0.75
 72
     4
 11
27.05091084731972
 21
12.34200000000002
 31
0.0
100
AcDbText
  0
TEXT
  5
4B5
330
1E
100
AcDbEntity
  8
TEXT
100
AcDbText
 10
19.10551142248504
 20
14.66150000000001
 30
0.0
 40
0.375
  1
A
 41
0.75
 72
     4
 11
19.19926142248504
 21
14.84900000000001
 31
0.0
100
AcDbText
  0
TEXT
  5
4B6
330
1E
100
AcDbEntity
  8
TEXT
100
AcDbText
 10
18.68363642248504
 20
11.54050000000001
 30
0.0
 40
0.375
  1
4.500
 41
0.75
 72
     4
 11
19.19926142248504
 21
11.72800000000001
 31
0.0
100
AcDbText
  0
TEXT
  5
4B7
330
1E
100
AcDbEntity
  8
TEXT
100
AcDbText
 10
18.70707392248504
 20
10.91550000000001
 30
0.0
 40
0.375
  1
5.000
 41
0.75
 72
     4
 11
19.19926142248504
 21
11.10300000000001
 31
0.0
100
AcDbText
  0
TEXT
  5
4B8
330
1E
100
AcDbEntity
  8
TEXT
100
AcDbText
 10
18.70707392248504
 20
10.29050000000001
 30
0.0
 40
0.375
  1
6.000
 41
0.75
 72
     4
 11
19.19926142248504
 21
10.47800000000001
 31
0.0
100
AcDbText
  0
TEXT
  5
4B9
330
1E
100
AcDbEntity
  8
TEXT
100
AcDbText
 10
18.70707392248504
 20
9.665500000000019
 30
0.0
 40
0.375
  1
8.000
 41
0.75
 72
     4
 11
19.19926142248504
 21
9.853000000000019
 31
0.0
100
AcDbText
  0
TEXT
  5
4BA
330
1E
100
AcDbEntity
  8
TEXT
100
AcDbText
 10
18.70707392248504
 20
9.040500000000019
 30
0.0
 40
0.375
  1
8.000
 41
0.75
 72
     4
 11
19.19926142248504
 21
9.228000000000019
 31
0.0
100
AcDbText
  0
TEXT
  5
4BB
330
1E
100
AcDbEntity
  8
TEXT
100
AcDbText
 10
18.61332392248504
 20
8.415500000000021
 30
0.0
 40
0.375
  1
14.000
 41
0.75
 72
     4
 11
19.19926142248504
 21
8.603000000000021
 31
0.0
100
AcDbText
  0
TEXT
  5
4BC
330
1E
100
AcDbEntity
  8
TEXT
100
AcDbText
 10
18.63676142248504
 20
7.165500000000021
 30
0.0
 40
0.375
  1
10.000
 41
0.75
 72
     4
 11
19.19926142248504
 21
7.353000000000021
 31
0.0
100
AcDbText
  0
TEXT
  5
4BD
330
1E
100
AcDbEntity
  8
TEXT
100
AcDbText
 10
18.61332392248504
 20
6.54050000000002
 30
0.0
 40
0.375
  1
12.000
 41
0.75
 72
     4
 11
19.19926142248504
 21
6.72800000000002
 31
0.0
100
AcDbText
  0
TEXT
  5
4BE
330
1E
100
AcDbEntity
  8
TEXT
100
AcDbText
 10
18.61332392248504
 20
5.915500000000021
 30
0.0
 40
0.375
  1
15.000
 41
0.75
 72
     4
 11
19.19926142248504
 21
6.103000000000021
 31
0.0
100
AcDbText
  0
TEXT
  5
4BF
330
1E
100
AcDbEntity
  8
TEXT
100
AcDbText
 10
18.61332392248504
 20
4.66550000000002
 30
0.0
 40
0.375
  1
12.000
 41
0.75
 72
     4
 11
19.19926142248504
 21
4.85300000000002
 31
0.0
100
AcDbText
  0
TEXT
  5
4C0
330
1E
100
AcDbEntity
  8
TEXT
100
AcDbText
 10
18.61332392248504
 20
4.040500000000018
 30
0.0
 40
0.375
  1
17.000
 41
0.75
 72
     4
 11
19.19926142248504
 21
4.228000000000018
 31
0.0
100
AcDbText
  0
TEXT
  5
4C1
330
1E
100
AcDbEntity
  8
TEXT
100
AcDbText
 10
21.18461286687784
 20
14.66150000000001
 30
0.0
 40
0.375
  1
B
 41
0.75
 72
     4
 11
21.27836286687784
 21
14.84900000000001
 31
0.0
100
AcDbText
  0
TEXT
  5
4C2
330
1E
100
AcDbEntity
  8
TEXT
100
AcDbText
 10
20.76273786687784
 20
11.54050000000001
 30
0.0
 40
0.375
  1
3.500
 41
0.75
 72
     4
 11
21.27836286687784
 21
11.72800000000001
 31
0.0
100
AcDbText
  0
TEXT
  5
4C3
330
1E
100
AcDbEntity
  8
TEXT
100
AcDbText
 10
20.76273786687784
 20
9.665500000000019
 30
0.0
 40
0.375
  1
4.500
 41
0.75
 72
     4
 11
21.27836286687784
 21
9.853000000000019
 31
0.0
100
AcDbText
  0
TEXT
  5
4C4
330
1E
100
AcDbEntity
  8
TEXT
100
AcDbText
 10
20.78617536687784
 20
9.040500000000019
 30
0.0
 40
0.375
  1
6.000
 41
0.75
 72
     4
 11
21.27836286687784
 21
9.228000000000019
 31
0.0
100
AcDbText
  0
TEXT
  5
4C5
330
1E
100
AcDbEntity
  8
TEXT
100
AcDbText
 10
20.78617536687784
 20
8.415500000000021
 30
0.0
 40
0.375
  1
6.000
 41
0.75
 72
     4
 11
21.27836286687784
 21
8.603000000000021
 31
0.0
100
AcDbText
  0
TEXT
  5
4C6
330
1E
100
AcDbEntity
  8
TEXT
100
AcDbText
 10
20.78617536687784
 20
7.79050000000002
 30
0.0
 40
0.375
  1
7.000
 41
0.75
 72
     4
 11
21.27836286687784
 21
7.97800000000002
 31
0.0
100
AcDbText
  0
TEXT
  5
4C7
330
1E
100
AcDbEntity
  8
TEXT
100
AcDbText
 10
20.78617536687784
 20
7.165500000000021
 30
0.0
 40
0.375
  1
8.000
 41
0.75
 72
     4
 11
21.27836286687784
 21
7.353000000000021
 31
0.0
100
AcDbText
  0
TEXT
  5
4C8
330
1E
100
AcDbEntity
  8
TEXT
100
AcDbText
 10
20.78617536687784
 20
6.54050000000002
 30
0.0
 40
0.375
  1
8.000
 41
0.75
 72
     4
 11
21.27836286687784
 21
6.72800000000002
 31
0.0
100
AcDbText
  0
TEXT
  5
4C9
330
1E
100
AcDbEntity
  8
TEXT
100
AcDbText
 10
20.78617536687784
 20
5.915500000000021
 30
0.0
 40
0.375
  1
9.000
 41
0.75
 72
     4
 11
21.27836286687784
 21
6.103000000000021
 31
0.0
100
AcDbText
  0
TEXT
  5
4CA
330
1E
100
AcDbEntity
  8
TEXT
100
AcDbText
 10
20.71586286687784
 20
5.290500000000018
 30
0.0
 40
0.375
  1
10.000
 41
0.75
 72
     4
 11
21.27836286687784
 21
5.478000000000018
 31
0.0
100
AcDbText
  0
TEXT
  5
4CB
330
1E
100
AcDbEntity
  8
TEXT
100
AcDbText
 10
20.69242536687784
 20
4.66550000000002
 30
0.0
 40
0.375
  1
12.000
 41
0.75
 72
     4
 11
21.27836286687784
 21
4.85300000000002
 31
0.0
100
AcDbText
  0
TEXT
  5
4CC
330
1E
100
AcDbEntity
  8
TEXT
100
AcDbText
 10
20.69242536687784
 20
4.040500000000018
 30
0.0
 40
0.375
  1
13.000
 41
0.75
 72
     4
 11
21.27836286687784
 21
4.228000000000018
 31
0.0
100
AcDbText
  0
TEXT
  5
4CD
330
1E
100
AcDbEntity
  8
TEXT
100
AcDbText
 10
20.69242536687784
 20
3.415500000000018
 30
0.0
 40
0.375
  1
14.000
 41
0.75
 72
     4
 11
21.27836286687784
 21
3.603000000000018
 31
0.0
100
AcDbText
  0
TEXT
  5
4CE
330
1E
100
AcDbEntity
  8
TEXT
100
AcDbText
 10
20.69242536687784
 20
2.790500000000018
 30
0.0
 40
0.375
  1
15.000
 41
0.75
 72
     4
 11
21.27836286687784
 21
2.978000000000018
 31
0.0
100
AcDbText
  0
TEXT
  5
4CF
330
1E
100
AcDbEntity
  8
TEXT
100
AcDbText
 10
20.69242536687784
 20
2.165500000000018
 30
0.0
 40
0.375
  1
15.000
 41
0.75
 72
     4
 11
21.27836286687784
 21
2.353000000000018
 31
0.0
100
AcDbText
  0
TEXT
  5
4D0
330
1E
100
AcDbEntity
  8
TEXT
100
AcDbText
 10
23.2800530147521
 20
14.66150000000001
 30
0.0
 40
0.375
  1
C
 41
0.75
 72
     4
 11
23.3738030147521
 21
14.84900000000001
 31
0.0
100
AcDbText
  0
TEXT
  5
4D1
330
1E
100
AcDbEntity
  8
TEXT
100
AcDbText
 10
22.9284905147521
 20
11.54050000000001
 30
0.0
 40
0.375
  1
1.000
 41
0.75
 72
     4
 11
23.3738030147521
 21
11.72800000000001
 31
0.0
100
AcDbText
  0
TEXT
  5
4D2
330
1E
100
AcDbEntity
  8
TEXT
100
AcDbText
 10
22.9050530147521
 20
10.29050000000001
 30
0.0
 40
0.375
  1
1.500
 41
0.75
 72
     4
 11
23.3738030147521
 21
10.47800000000001
 31
0.0
100
AcDbText
  0
TEXT
  5
4D3
330
1E
100
AcDbEntity
  8
TEXT
100
AcDbText
 10
22.9050530147521
 20
9.665500000000019
 30
0.0
 40
0.375
  1
1.500
 41
0.75
 72
     4
 11
23.3738030147521
 21
9.853000000000019
 31
0.0
100
AcDbText
  0
TEXT
  5
4D4
330
1E
100
AcDbEntity
  8
TEXT
100
AcDbText
 10
22.8581780147521
 20
7.165500000000021
 30
0.0
 40
0.375
  1
2.500
 41
0.75
 72
     4
 11
23.3738030147521
 21
7.353000000000021
 31
0.0
100
AcDbText
  0
TEXT
  5
4D5
330
1E
100
AcDbEntity
  8
TEXT
100
AcDbText
 10
22.8581780147521
 20
6.54050000000002
 30
0.0
 40
0.375
  1
2.500
 41
0.75
 72
     4
 11
23.3738030147521
 21
6.72800000000002
 31
0.0
100
AcDbText
  0
TEXT
  5
4D6
330
1E
100
AcDbEntity
  8
TEXT
100
AcDbText
 10
22.8816155147521
 20
5.290500000000018
 30
0.0
 40
0.375
  1
5.000
 41
0.75
 72
     4
 11
23.3738030147521
 21
5.478000000000018
 31
0.0
100
AcDbText
  0
TEXT
  5
4D7
330
1E
100
AcDbEntity
  8
TEXT
100
AcDbText
 10
22.8816155147521
 20
4.040500000000018
 30
0.0
 40
0.375
  1
5.000
 41
0.75
 72
     4
 11
23.3738030147521
 21
4.228000000000018
 31
0.0
100
AcDbText
  0
TEXT
  5
4D8
330
1E
100
AcDbEntity
  8
TEXT
100
AcDbText
 10
22.8816155147521
 20
2.790500000000018
 30
0.0
 40
0.375
  1
4.000
 41
0.75
 72
     4
 11
23.3738030147521
 21
2.978000000000018
 31
0.0
100
AcDbText
  0
TEXT
  5
4D9
330
1E
100
AcDbEntity
  8
TEXT
100
AcDbText
 10
22.8816155147521
 20
2.165500000000018
 30
0.0
 40
0.375
  1
6.000
 41
0.75
 72
     4
 11
23.3738030147521
 21
2.353000000000018
 31
0.0
100
AcDbText
  0
TEXT
  5
4DA
330
1E
100
AcDbEntity
  8
TEXT
100
AcDbText
 10
22.8816155147521
 20
0.9155000000000189
 30
0.0
 40
0.375
  1
4.000
 41
0.75
 72
     4
 11
23.3738030147521
 21
1.103000000000018
 31
0.0
100
AcDbText
  0
TEXT
  5
4DB
330
1E
100
AcDbEntity
  8
TEXT
100
AcDbText
 10
26.39466084731972
 20
14.66150000000001
 30
0.0
 40
0.375
  1
GAUGE
 41
0.75
 72
     4
 11
27.05091084731972
 21
14.84900000000001
 31
0.0
100
AcDbText
  0
TEXT
  5
4DC
330
1E
100
AcDbEntity
  8
TEXT
100
AcDbText
 10
26.55872334731972
 20
11.54050000000001
 30
0.0
 40
0.375
  1
0.040
 41
0.75
 72
     4
 11
27.05091084731972
 21
11.72800000000001
 31
0.0
100
AcDbText
  0
TEXT
  5
4DD
330
1E
100
AcDbEntity
  8
TEXT
100
AcDbText
 10
26.55872334731972
 20
10.91550000000001
 30
0.0
 40
0.375
  1
0.040
 41
0.75
 72
     4
 11
27.05091084731972
 21
11.10300000000001
 31
0.0
100
AcDbText
  0
TEXT
  5
4DE
330
1E
100
AcDbEntity
  8
TEXT
100
AcDbText
 10
26.55872334731972
 20
10.29050000000001
 30
0.0
 40
0.375
  1
0.040
 41
0.75
 72
     4
 11
27.05091084731972
 21
10.47800000000001
 31
0.0
100
AcDbText
  0
TEXT
  5
4DF
330
1E
100
AcDbEntity
  8
TEXT
100
AcDbText
 10
26.55872334731972
 20
9.665500000000019
 30
0.0
 40
0.375
  1
0.040
 41
0.75
 72
     4
 11
27.05091084731972
 21
9.853000000000019
 31
0.0
100
AcDbText
  0
TEXT
  5
4E0
330
1E
100
AcDbEntity
  8
TEXT
100
AcDbText
 10
26.55872334731972
 20
9.040500000000019
 30
0.0
 40
0.375
  1
0.040
 41
0.75
 72
     4
 11
27.05091084731972
 21
9.228000000000019
 31
0.0
100
AcDbText
  0
TEXT
  5
4E1
330
1E
100
AcDbEntity
  8
TEXT
100
AcDbText
 10
26.55872334731972
 20
8.415500000000021
 30
0.0
 40
0.375
  1
0.050
 41
0.75
 72
     4
 11
27.05091084731972
 21
8.603000000000021
 31
0.0
100
AcDbText
  0
TEXT
  5
4E2
330
1E
100
AcDbEntity
  8
TEXT
100
AcDbText
 10
26.55872334731972
 20
7.79050000000002
 30
0.0
 40
0.375
  1
0.050
 41
0.75
 72
     4
 11
27.05091084731972
 21
7.97800000000002
 31
0.0
100
AcDbText
  0
TEXT
  5
4E3
330
1E
100
AcDbEntity
  8
TEXT
100
AcDbText
 10
26.55872334731972
 20
7.165500000000021
 30
0.0
 40
0.375
  1
0.040
 41
0.75
 72
     4
 11
27.05091084731972
 21
7.353000000000021
 31
0.0
100
AcDbText
  0
TEXT
  5
4E4
330
1E
100
AcDbEntity
  8
TEXT
100
AcDbText
 10
26.55872334731972
 20
6.54050000000002
 30
0.0
 40
0.375
  1
0.050
 41
0.75
 72
     4
 11
27.05091084731972
 21
6.72800000000002
 31
0.0
100
AcDbText
  0
TEXT
  5
4E5
330
1E
100
AcDbEntity
  8
TEXT
100
AcDbText
 10
26.55872334731972
 20
5.915500000000021
 30
0.0
 40
0.375
  1
0.050
 41
0.75
 72
     4
 11
27.05091084731972
 21
6.103000000000021
 31
0.0
100
AcDbText
  0
TEXT
  5
4E6
330
1E
100
AcDbEntity
  8
TEXT
100
AcDbText
 10
26.55872334731972
 20
5.290500000000018
 30
0.0
 40
0.375
  1
0.050
 41
0.75
 72
     4
 11
27.05091084731972
 21
5.478000000000018
 31
0.0
100
AcDbText
  0
TEXT
  5
4E7
330
1E
100
AcDbEntity
  8
TEXT
100
AcDbText
 10
26.55872334731972
 20
4.66550000000002
 30
0.0
 40
0.375
  1
0.050
 41
0.75
 72
     4
 11
27.05091084731972
 21
4.85300000000002
 31
0.0
100
AcDbText
  0
TEXT
  5
4E8
330
1E
100
AcDbEntity
  8
TEXT
100
AcDbText
 10
26.55872334731972
 20
4.041500000000017
 30
0.0
 40
0.375
  1
0.050
 41
0.75
 72
     4
 11
27.05091084731972
 21
4.229000000000017
 31
0.0
100
AcDbText
  0
TEXT
  5
4E9
330
1E
100
AcDbEntity
  8
TEXT
100
AcDbText
 10
26.55872334731972
 20
3.417500000000019
 30
0.0
 40
0.375
  1
0.050
 41
0.75
 72
     4
 11
27.05091084731972
 21
3.605000000000019
 31
0.0
100
AcDbText
  0
TEXT
  5
4EA
330
1E
100
AcDbEntity
  8
TEXT
100
AcDbText
 10
26.55872334731972
 20
2.793500000000018
 30
0.0
 40
0.375
  1
0.050
 41
0.75
 72
     4
 11
27.05091084731972
 21
2.981000000000019
 31
0.0
100
AcDbText
  0
TEXT
  5
4EB
330
1E
100
AcDbEntity
  8
TEXT
100
AcDbText
 10
26.55872334731972
 20
2.16950000000002
 30
0.0
 40
0.375
  1
0.050
 41
0.75
 72
     4
 11
27.05091084731972
 21
2.35700000000002
 31
0.0
100
AcDbText
  0
TEXT
  5
4EC
330
1E
100
AcDbEntity
  8
TEXT
100
AcDbText
 10
26.55872334731972
 20
1.545500000000019
 30
0.0
 40
0.375
  1
0.050
 41
0.75
 72
     4
 11
27.05091084731972
 21
1.733000000000019
 31
0.0
100
AcDbText
  0
TEXT
  5
4ED
330
1E
100
AcDbEntity
  8
TEXT
100
AcDbText
 10
26.55872334731972
 20
0.9215000000000191
 30
0.0
 40
0.375
  1
0.050
 41
0.75
 72
     4
 11
27.05091084731972
 21
1.109000000000019
 31
0.0
100
AcDbText
  0
TEXT
  5
4EE
330
1E
100
AcDbEntity
  8
TEXT
100
AcDbText
 10
13.21409712521594
 20
14.66150000000001
 30
0.0
 40
0.375
  1
WT. (#)
 41
0.75
 72
     4
 11
14.01097212521594
 21
14.84900000000001
 31
0.0
100
AcDbText
  0
TEXT
  5
4EF
330
1E
100
AcDbEntity
  8
TEXT
100
AcDbText
 10
13.51878462521594
 20
14.03650000000001
 30
0.0
 40
0.375
  1
0.500
 41
0.75
 72
     4
 11
14.01097212521594
 21
14.22400000000001
 31
0.0
100
AcDbText
  0
TEXT
  5
4F0
330
1E
100
AcDbEntity
  8
TEXT
100
AcDbText
 10
13.47190962521594
 20
13.41150000000001
 30
0.0
 40
0.375
  1
0.333
 41
0.75
 72
     4
 11
14.01097212521594
 21
13.59900000000001
 31
0.0
100
AcDbText
  0
TEXT
  5
4F1
330
1E
100
AcDbEntity
  8
TEXT
100
AcDbText
 10
13.51878462521594
 20
12.78650000000001
 30
0.0
 40
0.375
  1
0.500
 41
0.75
 72
     4
 11
14.01097212521594
 21
12.97400000000001
 31
0.0
100
AcDbText
  0
TEXT
  5
4F2
330
1E
100
AcDbEntity
  8
TEXT
100
AcDbText
 10
13.47190962521594
 20
12.16150000000001
 30
0.0
 40
0.375
  1
0.625
 41
0.75
 72
     4
 11
14.01097212521594
 21
12.34900000000001
 31
0.0
100
AcDbText
  0
TEXT
  5
4F3
330
1E
100
AcDbEntity
  8
TEXT
100
AcDbText
 10
13.51878462521594
 20
11.53650000000001
 30
0.0
 40
0.375
  1
0.500
 41
0.75
 72
     4
 11
14.01097212521594
 21
11.72400000000001
 31
0.0
100
AcDbText
  0
TEXT
  5
4F4
330
1E
100
AcDbEntity
  8
TEXT
100
AcDbText
 10
13.51878462521594
 20
10.91150000000002
 30
0.0
 40
0.375
  1
0.500
 41
0.75
 72
     4
 11
14.01097212521594
 21
11.09900000000002
 31
0.0
100
AcDbText
  0
TEXT
  5
4F5
330
1E
100
AcDbEntity
  8
TEXT
100
AcDbText
 10
13.47190962521594
 20
10.28650000000002
 30
0.0
 40
0.375
  1
0.625
 41
0.75
 72
     4
 11
14.01097212521594
 21
10.47400000000002
 31
0.0
100
AcDbText
  0
TEXT
  5
4F6
330
1E
100
AcDbEntity
  8
TEXT
100
AcDbText
 10
13.47190962521594
 20
9.661500000000021
 30
0.0
 40
0.375
  1
0.875
 41
0.75
 72
     4
 11
14.01097212521594
 21
9.849000000000021
 31
0.0
100
AcDbText
  0
TEXT
  5
4F7
330
1E
100
AcDbEntity
  8
TEXT
100
AcDbText
 10
13.49534712521594
 20
9.036500000000021
 30
0.0
 40
0.375
  1
0.750
 41
0.75
 72
     4
 11
14.01097212521594
 21
9.224000000000021
 31
0.0
100
AcDbText
  0
TEXT
  5
4F8
330
1E
100
AcDbEntity
  8
TEXT
100
AcDbText
 10
13.51878462521594
 20
8.411500000000021
 30
0.0
 40
0.375
  1
1.250
 41
0.75
 72
     4
 11
14.01097212521594
 21
8.599000000000021
 31
0.0
100
AcDbText
  0
TEXT
  5
4F9
330
1E
100
AcDbEntity
  8
TEXT
100
AcDbText
 10
13.51878462521594
 20
7.786500000000017
 30
0.0
 40
0.375
  1
1.750
 41
0.75
 72
     4
 11
14.01097212521594
 21
7.974000000000017
 31
0.0
100
AcDbText
  0
TEXT
  5
4FA
330
1E
100
AcDbEntity
  8
TEXT
100
AcDbText
 10
13.51878462521594
 20
7.16150000000002
 30
0.0
 40
0.375
  1
1.250
 41
0.75
 72
     4
 11
14.01097212521594
 21
7.34900000000002
 31
0.0
100
AcDbText
  0
TEXT
  5
4FB
330
1E
100
AcDbEntity
  8
TEXT
100
AcDbText
 10
13.54222212521594
 20
6.536500000000017
 30
0.0
 40
0.375
  1
1.500
 41
0.75
 72
     4
 11
14.01097212521594
 21
6.724000000000017
 31
0.0
100
AcDbText
  0
TEXT
  5
4FC
330
1E
100
AcDbEntity
  8
TEXT
100
AcDbText
 10
13.54222212521594
 20
5.911500000000017
 30
0.0
 40
0.375
  1
1.500
 41
0.75
 72
     4
 11
14.01097212521594
 21
6.099000000000017
 31
0.0
100
AcDbText
  0
TEXT
  5
4FD
330
1E
100
AcDbEntity
  8
TEXT
100
AcDbText
 10
13.51878462521594
 20
5.286500000000015
 30
0.0
 40
0.375
  1
1.750
 41
0.75
 72
     4
 11
14.01097212521594
 21
5.474000000000015
 31
0.0
100
AcDbText
  0
TEXT
  5
4FE
330
1E
100
AcDbEntity
  8
TEXT
100
AcDbText
 10
13.47190962521594
 20
4.661500000000015
 30
0.0
 40
0.375
  1
2.250
 41
0.75
 72
     4
 11
14.01097212521594
 21
4.849000000000015
 31
0.0
100
AcDbText
  0
TEXT
  5
4FF
330
1E
100
AcDbEntity
  8
TEXT
100
AcDbText
 10
13.44847212521594
 20
4.036500000000015
 30
0.0
 40
0.375
  1
2.625
 41
0.75
 72
     4
 11
14.01097212521594
 21
4.224000000000015
 31
0.0
100
AcDbText
  0
TEXT
  5
500
330
1E
100
AcDbEntity
  8
TEXT
100
AcDbText
 10
13.47190962521594
 20
3.411500000000017
 30
0.0
 40
0.375
  1
2.750
 41
0.75
 72
     4
 11
14.01097212521594
 21
3.599000000000017
 31
0.0
100
AcDbText
  0
TEXT
  5
501
330
1E
100
AcDbEntity
  8
TEXT
100
AcDbText
 10
13.47190962521594
 20
2.786500000000017
 30
0.0
 40
0.375
  1
0.625
 41
0.75
 72
     4
 11
14.01097212521594
 21
2.974000000000017
 31
0.0
100
AcDbText
  0
TEXT
  5
502
330
1E
100
AcDbEntity
  8
TEXT
100
AcDbText
 10
13.54222212521594
 20
2.161500000000015
 30
0.0
 40
0.375
  1
1.500
 41
0.75
 72
     4
 11
14.01097212521594
 21
2.349000000000015
 31
0.0
100
AcDbText
  0
TEXT
  5
503
330
1E
100
AcDbEntity
  8
TEXT
100
AcDbText
 10
13.51878462521594
 20
1.536500000000015
 30
0.0
 40
0.375
  1
1.250
 41
0.75
 72
     4
 11
14.01097212521594
 21
1.724000000000015
 31
0.0
100
AcDbText
  0
TEXT
  5
504
330
1E
100
AcDbEntity
  8
TEXT
100
AcDbText
 10
13.49534712521594
 20
0.9115000000000176
 30
0.0
 40
0.375
  1
2.500
 41
0.75
 72
     4
 11
14.01097212521594
 21
1.099000000000017
 31
0.0
100
AcDbText
  0
TEXT
  5
505
330
1E
100
AcDbEntity
  8
TEXT
100
AcDbText
 10
13.47190962521594
 20
0.2865000000000174
 30
0.0
 40
0.375
  1
3.250
 41
0.75
 72
     4
 11
14.01097212521594
 21
0.4740000000000175
 31
0.0
100
AcDbText
  0
TEXT
  5
506
330
1E
100
AcDbEntity
  8
TEXT
100
AcDbText
 10
28.65602808130493
 20
14.01350000000002
 30
0.0
 40
0.375
  1
0.500
 41
0.75
 72
     4
 11
29.14821558130492
 21
14.20100000000002
 31
0.0
100
AcDbText
  0
TEXT
  5
507
330
1E
100
AcDbEntity
  8
TEXT
100
AcDbText
 10
28.60915308130492
 20
13.38850000000002
 30
0.0
 40
0.375
  1
0.333
 41
0.75
 72
     4
 11
29.14821558130492
 21
13.57600000000002
 31
0.0
100
AcDbText
  0
TEXT
  5
508
330
1E
100
AcDbEntity
  8
TEXT
100
AcDbText
 10
28.63259058130493
 20
12.76350000000002
 30
0.0
 40
0.375
  1
0.250
 41
0.75
 72
     4
 11
29.14821558130492
 21
12.95100000000002
 31
0.0
100
AcDbText
  0
TEXT
  5
509
330
1E
100
AcDbEntity
  8
TEXT
100
AcDbText
 10
28.65602808130493
 20
12.13850000000002
 30
0.0
 40
0.375
  1
1.250
 41
0.75
 72
     4
 11
29.14821558130492
 21
12.32600000000002
 31
0.0
100
AcDbText
  0
TEXT
  5
50A
330
1E
100
AcDbEntity
  8
TEXT
100
AcDbText
 10
28.65602808130493
 20
11.54050000000001
 30
0.0
 40
0.375
  1
0.125
 41
0.75
 72
     4
 11
29.14821558130492
 21
11.72800000000001
 31
0.0
100
AcDbText
  0
TEXT
  5
50B
330
1E
100
AcDbEntity
  8
TEXT
100
AcDbText
 10
28.63259058130493
 20
10.91550000000001
 30
0.0
 40
0.375
  1
0.250
 41
0.75
 72
     4
 11
29.14821558130492
 21
11.10300000000001
 31
0.0
100
AcDbText
  0
TEXT
  5
50C
330
1E
100
AcDbEntity
  8
TEXT
100
AcDbText
 10
28.63259058130493
 20
10.29050000000001
 30
0.0
 40
0.375
  1
0.250
 41
0.75
 72
     4
 11
29.14821558130492
 21
10.47800000000001
 31
0.0
100
AcDbText
  0
TEXT
  5
50D
330
1E
100
AcDbEntity
  8
TEXT
100
AcDbText
 10
28.63259058130493
 20
9.665500000000019
 30
0.0
 40
0.375
  1
0.250
 41
0.75
 72
     4
 11
29.14821558130492
 21
9.853000000000019
 31
0.0
100
AcDbText
  0
TEXT
  5
50E
330
1E
100
AcDbEntity
  8
TEXT
100
AcDbText
 10
28.60915308130492
 20
9.040500000000019
 30
0.0
 40
0.375
  1
0.333
 41
0.75
 72
     4
 11
29.14821558130492
 21
9.228000000000019
 31
0.0
100
AcDbText
  0
TEXT
  5
50F
330
1E
100
AcDbEntity
  8
TEXT
100
AcDbText
 10
28.67946558130492
 20
8.415500000000021
 30
0.0
 40
0.375
  1
1.125
 41
0.75
 72
     4
 11
29.14821558130492
 21
8.603000000000021
 31
0.0
100
AcDbText
  0
TEXT
  5
510
330
1E
100
AcDbEntity
  8
TEXT
100
AcDbText
 10
28.67946558130492
 20
7.79050000000002
 30
0.0
 40
0.375
  1
1.125
 41
0.75
 72
     4
 11
29.14821558130492
 21
7.97800000000002
 31
0.0
100
AcDbText
  0
TEXT
  5
511
330
1E
100
AcDbEntity
  8
TEXT
100
AcDbText
 10
28.70290308130492
 20
7.165500000000021
 30
0.0
 40
0.375
  1
1.000
 41
0.75
 72
     4
 11
29.14821558130492
 21
7.353000000000021
 31
0.0
100
AcDbText
  0
TEXT
  5
512
330
1E
100
AcDbEntity
  8
TEXT
100
AcDbText
 10
28.67946558130492
 20
6.54050000000002
 30
0.0
 40
0.375
  1
1.125
 41
0.75
 72
     4
 11
29.14821558130492
 21
6.72800000000002
 31
0.0
100
AcDbText
  0
TEXT
  5
513
330
1E
100
AcDbEntity
  8
TEXT
100
AcDbText
 10
28.67946558130492
 20
5.91550000000002
 30
0.0
 40
0.375
  1
1.500
 41
0.75
 72
     4
 11
29.14821558130492
 21
6.10300000000002
 31
0.0
100
AcDbText
  0
TEXT
  5
514
330
1E
100
AcDbEntity
  8
TEXT
100
AcDbText
 10
28.60915308130492
 20
5.290500000000018
 30
0.0
 40
0.375
  1
2.250
 41
0.75
 72
     4
 11
29.14821558130492
 21
5.478000000000018
 31
0.0
100
AcDbText
  0
TEXT
  5
515
330
1E
100
AcDbEntity
  8
TEXT
100
AcDbText
 10
28.67946558130492
 20
4.66550000000002
 30
0.0
 40
0.375
  1
1.500
 41
0.75
 72
     4
 11
29.14821558130492
 21
4.85300000000002
 31
0.0
100
AcDbText
  0
TEXT
  5
516
330
1E
100
AcDbEntity
  8
TEXT
100
AcDbText
 10
28.63259058130493
 20
4.040500000000018
 30
0.0
 40
0.375
  1
3.500
 41
0.75
 72
     4
 11
29.14821558130492
 21
4.228000000000018
 31
0.0
100
AcDbText
  0
TEXT
  5
517
330
1E
100
AcDbEntity
  8
TEXT
100
AcDbText
 10
28.60915308130492
 20
3.415500000000018
 30
0.0
 40
0.375
  1
2.750
 41
0.75
 72
     4
 11
29.14821558130492
 21
3.603000000000018
 31
0.0
100
AcDbText
  0
TEXT
  5
518
330
1E
100
AcDbEntity
  8
TEXT
100
AcDbText
 10
28.60915308130492
 20
2.790500000000018
 30
0.0
 40
0.375
  1
3.250
 41
0.75
 72
     4
 11
29.14821558130492
 21
2.978000000000018
 31
0.0
100
AcDbText
  0
TEXT
  5
519
330
1E
100
AcDbEntity
  8
TEXT
100
AcDbText
 10
28.63259058130493
 20
2.165500000000018
 30
0.0
 40
0.375
  1
4.125
 41
0.75
 72
     4
 11
29.14821558130492
 21
2.353000000000018
 31
0.0
100
AcDbText
  0
TEXT
  5
51A
330
1E
100
AcDbEntity
  8
TEXT
100
AcDbText
 10
28.60915308130492
 20
1.540500000000017
 30
0.0
 40
0.375
  1
3.250
 41
0.75
 72
     4
 11
29.14821558130492
 21
1.728000000000017
 31
0.0
100
AcDbText
  0
TEXT
  5
51B
330
1E
100
AcDbEntity
  8
TEXT
100
AcDbText
 10
28.58571558130492
 20
0.9155000000000189
 30
0.0
 40
0.375
  1
3.875
 41
0.75
 72
     4
 11
29.14821558130492
 21
1.103000000000018
 31
0.0
100
AcDbText
  0
LINE
  5
51C
330
1E
100
AcDbEntity
  8
OBJECT
100
AcDbLine
 10
20.89334573984611
 20
33.8518673395319
 30
0.0
 11
26.95552356633719
 21
37.3518673395319
 31
0.0
  0
LINE
  5
51D
330
1E
100
AcDbEntity
  8
OBJECT
100
AcDbLine
 10
26.95552356633719
 20
37.3518673395319
 30
0.0
 11
22.62539654741499
 21
39.8518673395319
 31
0.0
  0
LINE
  5
51E
330
1E
100
AcDbEntity
  8
OBJECT
100
AcDbLine
 10
22.62539654741499
 20
39.8518673395319
 30
0.0
 11
16.56321872092391
 21
36.3518673395319
 31
0.0
  0
LINE
  5
51F
330
1E
100
AcDbEntity
  8
OBJECT
100
AcDbLine
 10
16.56321872092391
 20
36.3518673395319
 30
0.0
 11
20.89334573984611
 21
33.8518673395319
 31
0.0
  0
LINE
  5
520
330
1E
100
AcDbEntity
  8
OBJECT
100
AcDbLine
 10
20.89334573984611
 20
33.8518673395319
 30
0.0
 11
20.89334573984611
 21
31.8518673395319
 31
0.0
  0
LINE
  5
521
330
1E
100
AcDbEntity
  8
OBJECT
100
AcDbLine
 10
20.89334573984611
 20
31.8518673395319
 30
0.0
 11
26.95552356633719
 21
35.35186733953191
 31
0.0
  0
LINE
  5
522
330
1E
100
AcDbEntity
  8
OBJECT
100
AcDbLine
 10
26.95552356633719
 20
35.35186733953191
 30
0.0
 11
26.95552356633719
 21
37.3518673395319
 31
0.0
  0
LINE
  5
523
330
1E
100
AcDbEntity
  8
OBJECT
100
AcDbLine
 10
16.56321872092391
 20
36.3518673395319
 30
0.0
 11
16.56321872092391
 21
34.3518673395319
 31
0.0
  0
LINE
  5
524
330
1E
100
AcDbEntity
  8
OBJECT
100
AcDbLine
 10
16.56321872092391
 20
34.3518673395319
 30
0.0
 11
20.89334573984611
 21
31.8518673395319
 31
0.0
  0
LINE
  5
525
330
1E
100
AcDbEntity
  8
OBJECT
100
AcDbLine
 10
22.62539654741499
 20
39.35186733953191
 30
0.0
 11
17.42924412470836
 21
36.3518673395319
 31
0.0
  0
LINE
  5
526
330
1E
100
AcDbEntity
  8
OBJECT
100
AcDbLine
 10
17.42924412470836
 20
36.3518673395319
 30
0.0
 11
20.89334573984611
 21
34.3518673395319
 31
0.0
  0
LINE
  5
527
330
1E
100
AcDbEntity
  8
OBJECT
100
AcDbLine
 10
20.89334573984611
 20
34.3518673395319
 30
0.0
 11
26.08949816255275
 21
37.3518673395319
 31
0.0
  0
LINE
  5
528
330
1E
100
AcDbEntity
  8
OBJECT
100
AcDbLine
 10
26.08949816255275
 20
37.3518673395319
 30
0.0
 11
22.62539654741499
 21
39.35186733953191
 31
0.0
  0
LINE
  5
529
330
1E
100
AcDbEntity
  8
OBJECT
100
AcDbLine
 10
22.62539654741499
 20
37.85186733953191
 30
0.0
 11
24.79046005687608
 21
36.60186733953191
 31
0.0
  0
LINE
  5
52A
330
1E
100
AcDbEntity
  8
OBJECT
100
AcDbLine
 10
18.72828223038501
 20
35.6018673395319
 30
0.0
 11
22.62539654741499
 21
37.85186733953191
 31
0.0
  0
LINE
  5
52B
330
1E
100
AcDbEntity
  8
OBJECT
100
AcDbLine
 10
22.62539654741499
 20
39.8518673395319
 30
0.0
 11
22.62539654741499
 21
37.85186733953191
 31
0.0
  0
LINE
  5
52C
330
1E
100
AcDbEntity
  8
OBJECT
100
AcDbLine
 10
17.42924412470836
 20
36.3518673395319
 30
0.0
 11
16.56321872092391
 21
36.3518673395319
 31
0.0
  0
LINE
  5
52D
330
1E
100
AcDbEntity
  8
OBJECT
100
AcDbLine
 10
20.89334573984611
 20
34.3518673395319
 30
0.0
 11
20.89334573984611
 21
33.8518673395319
 31
0.0
  0
LINE
  5
52E
330
1E
100
AcDbEntity
  8
OBJECT
100
AcDbLine
 10
26.95552356633719
 20
37.3518673395319
 30
0.0
 11
26.08949816255275
 21
37.3518673395319
 31
0.0
  0
LINE
  5
52F
330
1E
100
AcDbEntity
  8
OBJECT
100
AcDbLine
 10
22.62539654741499
 20
39.30186733953192
 30
0.0
 11
17.47254539489758
 21
36.3268673395319
 31
0.0
  0
LINE
  5
530
330
1E
100
AcDbEntity
  8
OBJECT
100
AcDbLine
 10
26.04619689236352
 20
37.3268673395319
 30
0.0
 11
22.62539654741499
 21
39.30186733953189
 31
0.0
  0
LINE
  5
531
330
1E
100
AcDbEntity
  8
HIDDEN
100
AcDbLine
 10
18.72828223038501
 20
35.6018673395319
 30
0.0
 11
16.56321872092391
 21
34.3518673395319
 31
0.0
  0
LINE
  5
532
330
1E
100
AcDbEntity
  8
HIDDEN
100
AcDbLine
 10
24.79046005687608
 20
36.60186733953191
 30
0.0
 11
26.95552356633719
 21
35.35186733953191
 31
0.0
  0
LINE
  5
533
330
1E
100
AcDbEntity
  8
HIDDEN
100
AcDbLine
 10
20.89334573984611
 20
33.77886733953189
 30
0.0
 11
20.26287924589103
 21
33.41486733953189
 31
0.0
  0
LINE
  5
534
330
1E
100
AcDbEntity
  8
HIDDEN
100
AcDbLine
 10
20.26287924589103
 20
33.09186733953191
 30
0.0
 11
20.89334573984611
 21
31.9998673395319
 31
0.0
  0
LINE
  5
535
330
1E
100
AcDbEntity
  8
HIDDEN
100
AcDbLine
 10
16.56321872092391
 20
36.27886733953189
 30
0.0
 11
17.19368521487898
 21
35.1868673395319
 31
0.0
  0
LWPOLYLINE
  5
536
330
1E
100
AcDbEntity
  8
OBJECT
100
AcDbPolyline
 90
       16
 70
     1
 43
0.0
 10
19.96034210090745
 20
33.31319743743576
 42
0.058751867535391
 10
19.99272812768272
 20
33.26978737711474
 42
0.072341084057654
 10
20.02732033606166
 20
33.24249233953191
 42
0.1066170543910055
 10
20.0665552778312
 20
33.22987379736696
 42
0.1568512196707747
 10
20.0942985712159
 20
33.23585763324348
 42
0.1568512196707832
 10
20.11335237178939
 20
33.25689211216101
 42
0.1066170543909946
 10
20.12204186460059
 20
33.2971798395319
 42
0.0723410840576678
 10
20.11569977284607
 20
33.34078508955251
 42
0.0587518675353887
 10
20.0942985712159
 20
33.39053724162804
 42
0.0587518675353644
 10
20.06191254444063
 20
33.43394730194904
 42
0.0723410840576548
 10
20.02732033606166
 20
33.4612423395319
 42
0.1066170543910055
 10
19.98808539429214
 20
33.47386088169683
 42
0.1568512196707747
 10
19.96034210090745
 20
33.46787704582031
 42
0.1568512196707639
 10
19.94128830033394
 20
33.44684256690278
 42
0.1066170543910065
 10
19.93259880752274
 20
33.4065548395319
 42
0.0723410840576451
 10
19.93894089927727
 20
33.36294958951128
 42
0.0587518675353671
  0
LWPOLYLINE
  5
537
330
1E
100
AcDbEntity
  8
OBJECT
100
AcDbPolyline
 90
       16
 70
     1
 43
0.0
 10
17.35739370279389
 20
34.81601039577332
 42
0.058751867535391
 10
17.38977972956916
 20
34.77260033545231
 42
0.072341084057654
 10
17.42437193794813
 20
34.74530529786946
 42
0.1066170543910055
 10
17.46360687971765
 20
34.73268675570452
 42
0.1568512196707747
 10
17.49135017310234
 20
34.73867059158104
 42
0.1568512196707832
 10
17.51040397367583
 20
34.75970507049858
 42
0.1066170543909946
 10
17.51909346648703
 20
34.79999279786946
 42
0.0723410840576678
 10
17.51275137473252
 20
34.84359804789005
 42
0.0587518675353887
 10
17.49135017310234
 20
34.89335019996561
 42
0.0587518675353644
 10
17.45896414632708
 20
34.93676026028662
 42
0.0723410840576548
 10
17.42437193794813
 20
34.96405529786946
 42
0.1066170543910055
 10
17.38513699617858
 20
34.9766738400344
 42
0.1568512196707747
 10
17.35739370279389
 20
34.97069000415787
 42
0.1568512196707639
 10
17.3383399022204
 20
34.94965552524035
 42
0.1066170543910065
 10
17.32965040940919
 20
34.90936779786946
 42
0.0723410840576451
 10
17.33599250116371
 20
34.86576254784885
 42
0.0587518675353671
  0
LWPOLYLINE
  5
538
330
1E
100
AcDbEntity
  8
HIDDEN
100
AcDbPolyline
 90
       16
 70
     1
 43
0.0
 10
26.02251992739853
 20
36.81319743743577
 42
0.058751867535391
 10
26.05490595417379
 20
36.76978737711475
 42
0.072341084057654
 10
26.08949816255275
 20
36.7424923395319
 42
0.1066170543910055
 10
26.12873310432227
 20
36.72987379736698
 42
0.1568512196707747
 10
26.15647639770697
 20
36.7358576332435
 42
0.1568512196707832
 10
26.17553019828045
 20
36.75689211216102
 42
0.1066170543909946
 10
26.18421969109166
 20
36.79717983953191
 42
0.0723410840576678
 10
26.17787759933715
 20
36.84078508955252
 42
0.0587518675353887
 10
26.15647639770697
 20
36.89053724162803
 42
0.0587518675353644
 10
26.12409037093172
 20
36.93394730194905
 42
0.0723410840576548
 10
26.08949816255275
 20
36.9612423395319
 42
0.1066170543910055
 10
26.05026322078321
 20
36.97386088169685
 42
0.1568512196707747
 10
26.02251992739853
 20
36.96787704582033
 42
0.1568512196707639
 10
26.00346612682503
 20
36.94684256690278
 42
0.1066170543910065
 10
25.99477663401382
 20
36.9065548395319
 42
0.0723410840576451
 10
26.00111872576833
 20
36.86294958951128
 42
0.0587518675353671
  0
LWPOLYLINE
  5
539
330
1E
100
AcDbEntity
  8
OBJECT
100
AcDbPolyline
 90
       16
 70
     1
 43
0.0
 10
23.42444371604519
 20
38.31319743743577
 42
0.058751867535391
 10
23.45682974282046
 20
38.26978737711475
 42
0.072341084057654
 10
23.49142195119943
 20
38.24249233953191
 42
0.1066170543910055
 10
23.53065689296895
 20
38.22987379736698
 42
0.1568512196707747
 10
23.55840018635365
 20
38.23585763324349
 42
0.1568512196707832
 10
23.57745398692714
 20
38.25689211216102
 42
0.1066170543909946
 10
23.58614347973835
 20
38.29717983953191
 42
0.0723410840576678
 10
23.57980138798382
 20
38.34078508955252
 42
0.0587518675353887
 10
23.55840018635365
 20
38.39053724162804
 42
0.0587518675353644
 10
23.52601415957839
 20
38.43394730194905
 42
0.0723410840576548
 10
23.49142195119943
 20
38.4612423395319
 42
0.1066170543910055
 10
23.45218700942989
 20
38.47386088169685
 42
0.1568512196707747
 10
23.42444371604519
 20
38.46787704582033
 42
0.1568512196707639
 10
23.40538991547171
 20
38.44684256690278
 42
0.1066170543910065
 10
23.3967004226605
 20
38.4065548395319
 42
0.0723410840576451
 10
23.40304251441503
 20
38.36294958951128
 42
0.0587518675353671
  0
TEXT
  5
53A
330
1E
100
AcDbEntity
  8
DIM
100
AcDbText
 10
21.74747665082069
 20
14.56795954965026
 30
0.0
 40
0.125
  1

 41
0.75
 72
     1
 11
21.74747665082069
 21
14.56795954965026
 31
0.0
100
AcDbText
  0
LINE
  5
53B
330
1E
100
AcDbEntity
  8
OBJECT
100
AcDbLine
 10
12.09364849808476
 20
21.70417551138238
 30
0.0
 11
5.093648498084764
 21
21.70417551138238
 31
0.0
  0
LINE
  5
53C
330
1E
100
AcDbEntity
  8
HIDDEN
100
AcDbLine
 10
12.49364849808476
 20
21.25417551138238
 30
0.0
 11
4.693648498084765
 21
21.25417551138238
 31
0.0
  0
LINE
  5
53D
330
1E
100
AcDbEntity
  8
OBJECT
100
AcDbLine
 10
12.59364849808476
 20
21.20417551138238
 30
0.0
 11
4.593648498084764
 21
21.20417551138238
 31
0.0
  0
LINE
  5
53E
330
1E
100
AcDbEntity
  8
OBJECT
100
AcDbLine
 10
4.593648498084764
 20
27.20417551138238
 30
0.0
 11
12.59364849808476
 21
27.20417551138238
 31
0.0
  0
LINE
  5
53F
330
1E
100
AcDbEntity
  8
HIDDEN
100
AcDbLine
 10
4.693648498084765
 20
27.15417551138238
 30
0.0
 11
12.49364849808476
 21
27.15417551138238
 31
0.0
  0
LINE
  5
540
330
1E
100
AcDbEntity
  8
OBJECT
100
AcDbLine
 10
5.093648498084764
 20
26.70417551138238
 30
0.0
 11
12.09364849808476
 21
26.70417551138238
 31
0.0
  0
LINE
  5
541
330
1E
100
AcDbEntity
  8
OBJECT
100
AcDbLine
 10
5.093648498084764
 20
21.70417551138238
 30
0.0
 11
5.093648498084764
 21
26.70417551138238
 31
0.0
  0
LINE
  5
542
330
1E
100
AcDbEntity
  8
HIDDEN
100
AcDbLine
 10
4.643648498084765
 20
21.20417551138238
 30
0.0
 11
4.643648498084765
 21
27.20417551138238
 31
0.0
  0
LINE
  5
543
330
1E
100
AcDbEntity
  8
OBJECT
100
AcDbLine
 10
4.593648498084764
 20
21.20417551138238
 30
0.0
 11
4.593648498084764
 21
27.20417551138238
 31
0.0
  0
LINE
  5
544
330
1E
100
AcDbEntity
  8
OBJECT
100
AcDbLine
 10
4.593648498084764
 20
21.20417551138238
 30
0.0
 11
5.093648498084764
 21
21.70417551138238
 31
0.0
  0
LINE
  5
545
330
1E
100
AcDbEntity
  8
OBJECT
100
AcDbLine
 10
5.093648498084764
 20
26.70417551138238
 30
0.0
 11
4.593648498084764
 21
27.20417551138238
 31
0.0
  0
LINE
  5
546
330
1E
100
AcDbEntity
  8
OBJECT
100
AcDbLine
 10
12.59364849808476
 20
27.20417551138238
 30
0.0
 11
12.59364849808476
 21
21.20417551138238
 31
0.0
  0
LINE
  5
547
330
1E
100
AcDbEntity
  8
HIDDEN
100
AcDbLine
 10
12.54364849808476
 20
27.20417551138238
 30
0.0
 11
12.54364849808476
 21
21.20417551138238
 31
0.0
  0
LINE
  5
548
330
1E
100
AcDbEntity
  8
OBJECT
100
AcDbLine
 10
12.09364849808476
 20
26.70417551138238
 30
0.0
 11
12.09364849808476
 21
21.70417551138238
 31
0.0
  0
LINE
  5
549
330
1E
100
AcDbEntity
  8
HIDDEN
100
AcDbLine
 10
12.49364849808476
 20
21.93217551138238
 30
0.0
 11
12.49364849808476
 21
21.25417551138238
 31
0.0
  0
LINE
  5
54A
330
1E
100
AcDbEntity
  8
OBJECT
100
AcDbLine
 10
12.09364849808476
 20
21.70417551138238
 30
0.0
 11
12.59364849808476
 21
21.20417551138238
 31
0.0
  0
LINE
  5
54B
330
1E
100
AcDbEntity
  8
HIDDEN
100
AcDbLine
 10
12.49364849808476
 20
21.93217551138238
 30
0.0
 11
12.54364849808476
 21
21.93217551138238
 31
0.0
  0
LINE
  5
54C
330
1E
100
AcDbEntity
  8
OBJECT
100
AcDbLine
 10
12.09364849808476
 20
26.70417551138238
 30
0.0
 11
12.59364849808476
 21
27.20417551138238
 31
0.0
  0
LINE
  5
54D
330
1E
100
AcDbEntity
  8
OBJECT
100
AcDbLine
 10
12.09364849808476
 20
43.50411719169978
 30
0.0
 11
12.59364849808476
 21
44.00411719169977
 31
0.0
  0
LINE
  5
54E
330
1E
100
AcDbEntity
  8
OBJECT
100
AcDbLine
 10
12.09364849808476
 20
38.50411719169978
 30
0.0
 11
12.59364849808476
 21
38.00411719169977
 31
0.0
  0
LINE
  5
54F
330
1E
100
AcDbEntity
  8
OBJECT
100
AcDbLine
 10
4.593648498084764
 20
44.00411719169977
 30
0.0
 11
12.59364849808476
 21
44.00411719169977
 31
0.0
  0
LINE
  5
550
330
1E
100
AcDbEntity
  8
OBJECT
100
AcDbLine
 10
12.59364849808476
 20
38.00411719169977
 30
0.0
 11
4.593648498084764
 21
38.00411719169977
 31
0.0
  0
LINE
  5
551
330
1E
100
AcDbEntity
  8
CENTER
100
AcDbLine
 10
8.593648498084768
 20
44.00411719169977
 30
0.0
 11
8.593648498084768
 21
38.00411719169977
 31
0.0
  0
LINE
  5
552
330
1E
100
AcDbEntity
  8
OBJECT
100
AcDbLine
 10
5.093648498084764
 20
43.50411719169978
 30
0.0
 11
4.593648498084764
 21
44.00411719169977
 31
0.0
  0
LINE
  5
553
330
1E
100
AcDbEntity
  8
OBJECT
100
AcDbLine
 10
4.593648498084764
 20
38.00411719169977
 30
0.0
 11
4.593648498084764
 21
44.00411719169977
 31
0.0
  0
LINE
  5
554
330
1E
100
AcDbEntity
  8
HIDDEN
100
AcDbLine
 10
4.643648498084765
 20
38.00411719169977
 30
0.0
 11
4.643648498084765
 21
44.00411719169977
 31
0.0
  0
LINE
  5
555
330
1E
100
AcDbEntity
  8
OBJECT
100
AcDbLine
 10
5.093648498084764
 20
43.50411719169978
 30
0.0
 11
12.09364849808476
 21
43.50411719169978
 31
0.0
  0
LINE
  5
556
330
1E
100
AcDbEntity
  8
HIDDEN
100
AcDbLine
 10
12.49364849808476
 20
38.05411719169979
 30
0.0
 11
4.693648498084765
 21
38.05411719169979
 31
0.0
  0
LINE
  5
557
330
1E
100
AcDbEntity
  8
OBJECT
100
AcDbLine
 10
12.09364849808476
 20
38.50411719169978
 30
0.0
 11
5.093648498084764
 21
38.50411719169978
 31
0.0
  0
LINE
  5
558
330
1E
100
AcDbEntity
  8
OBJECT
100
AcDbLine
 10
5.093648498084764
 20
38.50411719169978
 30
0.0
 11
5.093648498084764
 21
43.50411719169978
 31
0.0
  0
LINE
  5
559
330
1E
100
AcDbEntity
  8
OBJECT
100
AcDbLine
 10
4.593648498084764
 20
38.00411719169977
 30
0.0
 11
5.093648498084764
 21
38.50411719169978
 31
0.0
  0
CIRCLE
  5
55A
330
1E
100
AcDbEntity
  8
OBJECT
100
AcDbCircle
 10
4.906648498084763
 20
41.00411719169978
 30
0.0
 40
0.068
  0
LINE
  5
55B
330
1E
100
AcDbEntity
  8
OBJECT
100
AcDbLine
 10
12.09364849808476
 20
43.50411719169978
 30
0.0
 11
12.09364849808476
 21
38.50411719169978
 31
0.0
  0
CIRCLE
  5
55C
330
1E
100
AcDbEntity
  8
OBJECT
100
AcDbCircle
 10
8.593648498084768
 20
38.31711719169978
 30
0.0
 40
0.068
  0
CIRCLE
  5
55D
330
1E
100
AcDbEntity
  8
OBJECT
100
AcDbCircle
 10
12.28064849808476
 20
41.00411719169978
 30
0.0
 40
0.068
  0
LINE
  5
55E
330
1E
100
AcDbEntity
  8
HIDDEN
100
AcDbLine
 10
4.693648498084765
 20
43.95411719169977
 30
0.0
 11
12.49364849808476
 21
43.95411719169977
 31
0.0
  0
CIRCLE
  5
55F
330
1E
100
AcDbEntity
  8
OBJECT
100
AcDbCircle
 10
8.593648498084768
 20
43.69111719169977
 30
0.0
 40
0.068
  0
LINE
  5
560
330
1E
100
AcDbEntity
  8
HIDDEN
100
AcDbLine
 10
12.54364849808476
 20
44.00411719169977
 30
0.0
 11
12.54364849808476
 21
38.00411719169977
 31
0.0
  0
LINE
  5
561
330
1E
100
AcDbEntity
  8
OBJECT
100
AcDbLine
 10
12.59364849808476
 20
44.00411719169977
 30
0.0
 11
12.59364849808476
 21
38.00411719169977
 31
0.0
  0
LINE
  5
562
330
1E
100
AcDbEntity
  8
OBJECT
100
AcDbLine
 10
12.59364849808476
 20
29.92194870293623
 30
0.0
 11
4.593648498084764
 21
29.92194870293623
 31
0.0
  0
LINE
  5
563
330
1E
100
AcDbEntity
  8
OBJECT
100
AcDbLine
 10
4.593648498084764
 20
35.92194870293623
 30
0.0
 11
12.59364849808476
 21
35.92194870293623
 31
0.0
  0
LINE
  5
564
330
1E
100
AcDbEntity
  8
OBJECT
100
AcDbLine
 10
12.09364849808476
 20
30.42194870293622
 30
0.0
 11
12.59364849808476
 21
29.92194870293623
 31
0.0
  0
LINE
  5
565
330
1E
100
AcDbEntity
  8
OBJECT
100
AcDbLine
 10
12.09364849808476
 20
35.42194870293622
 30
0.0
 11
12.59364849808476
 21
35.92194870293623
 31
0.0
  0
LINE
  5
566
330
1E
100
AcDbEntity
  8
HIDDEN
100
AcDbLine
 10
4.693648498084765
 20
35.87194870293622
 30
0.0
 11
12.49364849808476
 21
35.87194870293622
 31
0.0
  0
LINE
  5
567
330
1E
100
AcDbEntity
  8
OBJECT
100
AcDbLine
 10
12.09364849808476
 20
30.42194870293622
 30
0.0
 11
5.093648498084764
 21
30.42194870293622
 31
0.0
  0
LINE
  5
568
330
1E
100
AcDbEntity
  8
HIDDEN
100
AcDbLine
 10
12.49364849808476
 20
29.97194870293623
 30
0.0
 11
4.693648498084765
 21
29.97194870293623
 31
0.0
  0
LINE
  5
569
330
1E
100
AcDbEntity
  8
OBJECT
100
AcDbLine
 10
5.093648498084764
 20
35.42194870293622
 30
0.0
 11
12.09364849808476
 21
35.42194870293622
 31
0.0
  0
LINE
  5
56A
330
1E
100
AcDbEntity
  8
OBJECT
100
AcDbLine
 10
5.093648498084764
 20
30.42194870293622
 30
0.0
 11
5.093648498084764
 21
35.42194870293622
 31
0.0
  0
LINE
  5
56B
330
1E
100
AcDbEntity
  8
HIDDEN
100
AcDbLine
 10
4.643648498084765
 20
29.92194870293623
 30
0.0
 11
4.643648498084765
 21
35.92194870293623
 31
0.0
  0
LINE
  5
56C
330
1E
100
AcDbEntity
  8
OBJECT
100
AcDbLine
 10
4.593648498084764
 20
29.92194870293623
 30
0.0
 11
4.593648498084764
 21
35.92194870293623
 31
0.0
  0
LINE
  5
56D
330
1E
100
AcDbEntity
  8
OBJECT
100
AcDbLine
 10
4.593648498084764
 20
29.92194870293623
 30
0.0
 11
5.093648498084764
 21
30.42194870293622
 31
0.0
  0
LINE
  5
56E
330
1E
100
AcDbEntity
  8
OBJECT
100
AcDbLine
 10
5.093648498084764
 20
35.42194870293622
 30
0.0
 11
4.593648498084764
 21
35.92194870293623
 31
0.0
  0
LINE
  5
56F
330
1E
100
AcDbEntity
  8
OBJECT
100
AcDbLine
 10
12.09364849808476
 20
35.42194870293622
 30
0.0
 11
12.09364849808476
 21
30.42194870293622
 31
0.0
  0
LINE
  5
570
330
1E
100
AcDbEntity
  8
OBJECT
100
AcDbLine
 10
12.59364849808476
 20
35.92194870293623
 30
0.0
 11
12.59364849808476
 21
29.92194870293623
 31
0.0
  0
LINE
  5
571
330
1E
100
AcDbEntity
  8
HIDDEN
100
AcDbLine
 10
12.54364849808476
 20
35.92194870293623
 30
0.0
 11
12.54364849808476
 21
29.92194870293623
 31
0.0
  0
CIRCLE
  5
572
330
1E
100
AcDbEntity
  8
OBJECT
100
AcDbCircle
 10
5.405148498084777
 20
26.95417551138238
 30
0.0
 40
0.068
  0
CIRCLE
  5
573
330
1E
100
AcDbEntity
  8
OBJECT
100
AcDbCircle
 10
11.78214849808476
 20
26.92217551138238
 30
0.0
 40
0.068
  0
CIRCLE
  5
574
330
1E
100
AcDbEntity
  8
OBJECT
100
AcDbCircle
 10
11.78214849808476
 20
21.48617551138238
 30
0.0
 40
0.068
  0
CIRCLE
  5
575
330
1E
100
AcDbEntity
  8
OBJECT
100
AcDbCircle
 10
5.405148498084777
 20
21.45417551138238
 30
0.0
 40
0.068
  0
CIRCLE
  5
576
330
1E
100
AcDbEntity
  8
0
100
AcDbCircle
 10
7.562148498084777
 20
35.60819870293623
 30
0.0
 40
0.068
  0
CIRCLE
  5
577
330
1E
100
AcDbEntity
  8
0
100
AcDbCircle
 10
9.624648498084788
 20
35.60819870293623
 30
0.0
 40
0.068
  0
CIRCLE
  5
578
330
1E
100
AcDbEntity
  8
0
100
AcDbCircle
 10
7.562148498084777
 20
30.23519870293623
 30
0.0
 40
0.068
  0
CIRCLE
  5
579
330
1E
100
AcDbEntity
  8
0
100
AcDbCircle
 10
9.624648498084788
 20
30.23519870293623
 30
0.0
 40
0.068
  0
DIMENSION
  5
57A
330
1E
100
AcDbEntity
  8
DIM
100
AcDbDimension
  2
*D7
 10
4.593648498084764
 20
29.18555047081323
 30
0.0
 11
6.077898498084767
 21
29.18555047081323
 31
0.0
 70
   160
 71
     5
 42
2.968500000000013
  3
23NSTD
100
AcDbAlignedDimension
 13
7.562148498084777
 23
30.23519870293623
 33
0.0
 14
4.593648498084764
 24
29.92194870293623
 34
0.0
100
AcDbRotatedDimension
  0
DIMENSION
  5
57B
330
1E
100
AcDbEntity
  8
DIM
100
AcDbDimension
  2
*D8
 10
8.304383194787352
 20
30.42194870293622
 30
0.0
 11
9.606570694787347
 21
31.50194870293623
 31
0.0
 70
   160
 71
     5
 42
0.1867499999999929
  3
23NSTD
100
AcDbAlignedDimension
 13
7.562148498084777
 23
30.23519870293623
 33
0.0
 14
8.171363185947448
 24
30.42194870293622
 34
0.0
 50
90.0
100
AcDbRotatedDimension
  0
DIMENSION
  5
57C
330
1E
100
AcDbEntity
  8
DIM
100
AcDbDimension
  2
*D9
 10
8.336904875185176
 20
35.42194870293622
 30
0.0
 11
7.03471737518517
 21
34.34194870293622
 31
0.0
 70
    32
 71
     5
 42
0.1867500000000035
  3
23NSTD
100
AcDbAlignedDimension
 13
7.562148498084777
 23
35.60869870293622
 33
0.0
 14
8.171363185947448
 24
35.42194870293622
 34
0.0
 50
270.0
100
AcDbRotatedDimension
  0
DIMENSION
  5
57D
330
1E
100
AcDbEntity
  8
DIM
100
AcDbDimension
  2
*D10
 10
10.62516932360411
 20
43.50411719169978
 30
0.0
 11
9.322981823604107
 21
42.42411719169978
 31
0.0
 70
    32
 71
     5
 42
0.1869999999999976
  3
23NSTD
100
AcDbAlignedDimension
 13
8.593648498084768
 23
43.69111719169977
 33
0.0
 14
9.102314404518597
 24
43.50411719169978
 34
0.0
 50
90.0
100
AcDbRotatedDimension
  0
DIMENSION
  5
57E
330
1E
100
AcDbEntity
  8
DIM
100
AcDbDimension
  2
*D11
 10
10.00017606392539
 20
38.50411719169978
 30
0.0
 11
11.30236356392539
 21
39.58411719169977
 31
0.0
 70
    32
 71
     5
 42
0.1869999999999976
  3
23NSTD
100
AcDbAlignedDimension
 13
8.593648498084768
 23
38.31711719169978
 33
0.0
 14
9.102314404518597
 24
38.50411719169978
 34
0.0
 50
270.0
100
AcDbRotatedDimension
  0
DIMENSION
  5
57F
330
1E
100
AcDbEntity
  8
DIM
100
AcDbDimension
  2
*D12
 10
5.093648498084764
 20
40.30506674483556
 30
0.0
 11
6.935835998084764
 21
40.30506674483556
 31
0.0
 70
    32
 71
     5
 42
0.1870000000000012
  3
23NSTD
100
AcDbAlignedDimension
 13
4.906648498084763
 23
41.00411719169978
 33
0.0
 14
5.093648498084764
 24
40.93250282304196
 34
0.0
100
AcDbRotatedDimension
  0
DIMENSION
  5
580
330
1E
100
AcDbEntity
  8
DIM
100
AcDbDimension
  2
*D13
 10
12.09364849808476
 20
40.30506674483556
 30
0.0
 11
10.25146099808476
 21
40.30506674483556
 31
0.0
 70
    32
 71
     5
 42
0.1870000000000083
  3
23NSTD
100
AcDbAlignedDimension
 13
12.28064849808477
 23
41.00411719169978
 33
0.0
 14
12.09364849808476
 24
40.93250282304196
 34
0.0
 50
180.0
100
AcDbRotatedDimension
  0
LINE
  5
581
330
1E
100
AcDbEntity
  8
CENTER
100
AcDbLine
 10
4.593648498084764
 20
41.00411719169978
 30
0.0
 11
12.64064849808477
 21
41.00411719169978
 31
0.0
  0
DIMENSION
  5
582
330
1E
100
AcDbEntity
  8
DIM
100
AcDbDimension
  2
*D14
 10
4.593648498084764
 20
20.51571978110154
 30
0.0
 11
2.704585998084764
 21
20.51571978110154
 31
0.0
 70
   160
 71
     5
 42
0.8115000000000129
  3
23NSTD
100
AcDbAlignedDimension
 13
5.405148498084777
 23
21.45417551138238
 33
0.0
 14
4.593648498084764
 24
21.20417551138238
 34
0.0
100
AcDbRotatedDimension
  0
DIMENSION
  5
583
330
1E
100
AcDbEntity
  8
DIM
100
AcDbDimension
  2
*D15
 10
6.702519332711474
 20
21.70417551138238
 30
0.0
 11
8.028144332711471
 21
22.78417551138238
 31
0.0
 70
    32
 71
     5
 42
0.25
  3
23NSTD
100
AcDbAlignedDimension
 13
5.405148498084777
 23
21.45417551138238
 33
0.0
 14
5.866319514046637
 24
21.70417551138238
 34
0.0
 50
90.0
100
AcDbRotatedDimension
  0
DIMENSION
  5
584
330
1E
100
AcDbEntity
  8
DIM
100
AcDbDimension
  2
*D16
 10
7.2425817813316
 20
26.70417551138238
 30
0.0
 11
5.916956781331595
 21
25.62417551138238
 31
0.0
 70
   160
 71
     5
 42
0.25
  3
23NSTD
100
AcDbAlignedDimension
 13
5.405148498084777
 23
26.95417551138238
 33
0.0
 14
5.866319514046637
 24
26.70417551138238
 34
0.0
 50
270.0
100
AcDbRotatedDimension
  0
TEXT
  5
585
330
1E
100
AcDbEntity
  8
TEXT
100
AcDbText
 10
7.527864198385815
 20
36.98937636292451
 30
0.0
 40
0.5
  1
%%UTYPE A
 41
0.75
 72
     1
 11
8.596614198385815
 21
37.23937636292451
 31
0.0
100
AcDbText
 73
     2
  0
TEXT
  5
586
330
1E
100
AcDbEntity
  8
TEXT
100
AcDbText
 10
7.527864198385815
 20
28.22083865711642
 30
0.0
 40
0.5
  1
%%UTYPE B
 41
0.75
 72
     1
 11
8.596614198385815
 21
28.47083865711642
 31
0.0
100
AcDbText
 73
     2
  0
TEXT
  5
587
330
1E
100
AcDbEntity
  8
TEXT
100
AcDbText
 10
7.527864198385815
 20
20.23005662520014
 30
0.0
 40
0.5
  1
%%UTYPE C
 41
0.75
 72
     1
 11
8.596614198385815
 21
20.48005662520014
 31
0.0
100
AcDbText
 73
     2
  0
DIMENSION
  5
588
330
1E
100
AcDbEntity
  8
DIM
100
AcDbDimension
  2
*D17
 10
12.59364849808476
 20
24.41578047966042
 30
0.0
 11
14.43583599808476
 21
24.41578047966042
 31
0.0
 70
    32
 71
     5
 42
0.5
  3
23NSTD
100
AcDbAlignedDimension
 13
12.09364849808476
 23
24.35981323618592
 33
0.0
 14
12.59364849808476
 24
24.35981323618592
 34
0.0
100
AcDbRotatedDimension
  0
LWPOLYLINE
  5
589
330
1E
100
AcDbEntity
  8
OBJECT
100
AcDbPolyline
 90
        9
 70
     0
 43
0.0
 10
17.3827045602389
 20
34.97685031308022
 42
0.0131570113746116
 10
17.38164117240962
 20
34.97465552524035
 42
0.1066170543910065
 10
17.37295167959842
 20
34.93436779786946
 42
0.0723410840576451
 10
17.37929377135293
 20
34.89076254784885
 42
0.0587518675353671
 10
17.40069497298311
 20
34.84101039577332
 42
0.0587518675353914
 10
17.43308099975838
 20
34.7976003354523
 42
0.072341084057654
 10
17.46767320813734
 20
34.77030529786947
 42
0.1066170543910055
 10
17.50690814990687
 20
34.75768675570452
 42
0.0131570113727775
 10
17.50934058584642
 20
34.75751028265884
 42
0.0131570113727775
  0
LWPOLYLINE
  5
58A
330
1E
100
AcDbEntity
  8
OBJECT
100
AcDbPolyline
 90
        9
 70
     0
 43
0.0
 10
19.98565295835248
 20
33.47403735474272
 42
0.013157011374976
 10
19.98458957052318
 20
33.47184256690279
 42
0.1066170543910065
 10
19.97590007771196
 20
33.43155483953189
 42
0.0723410840576451
 10
19.98224216946649
 20
33.38794958951129
 42
0.0587518675353671
 10
20.00364337109667
 20
33.33819743743577
 42
0.058751867535391
 10
20.03602939787194
 20
33.29478737711474
 42
0.072341084057654
 10
20.0706216062509
 20
33.2674923395319
 42
0.1066170543910055
 10
20.10985654802043
 20
33.25487379736697
 42
0.013157011379178
 10
20.11228898396117
 20
33.25469732432122
 42
0.013157011379178
  0
LWPOLYLINE
  5
58B
330
1E
100
AcDbEntity
  8
OBJECT
100
AcDbPolyline
 90
        9
 70
     0
 43
0.0
 10
23.4497545734899
 20
38.47403735474206
 42
0.013157011370987
 10
23.44869118566093
 20
38.47184256690279
 42
0.1066170543910065
 10
23.44000169284972
 20
38.43155483953189
 42
0.0723410840576451
 10
23.44634378460423
 20
38.3879495895113
 42
0.0587518675353671
 10
23.46774498623442
 20
38.33819743743578
 42
0.058751867535391
 10
23.50013101300968
 20
38.29478737711475
 42
0.072341084057654
 10
23.53472322138864
 20
38.2674923395319
 42
0.1066170543910055
 10
23.57395816315817
 20
38.25487379736697
 42
0.0131570113749422
 10
23.57639059909812
 20
38.25469732432125
 42
0.0131570113749422
  0
LWPOLYLINE
  5
58C
330
1E
100
AcDbEntity
  8
HIDDEN
100
AcDbPolyline
 90
        9
 70
     0
 43
0.0
 10
26.04783078484381
 20
36.97403735474319
 42
0.0131570113778472
 10
26.04676739701424
 20
36.97184256690279
 42
0.1066170543910065
 10
26.03807790420304
 20
36.93155483953189
 42
0.0723410840576451
 10
26.04441999595755
 20
36.88794958951131
 42
0.0587518675353671
 10
26.06582119758773
 20
36.83819743743578
 42
0.058751867535391
 10
26.098207224363
 20
36.79478737711475
 42
0.072341084057654
 10
26.13279943274197
 20
36.7674923395319
 42
0.1066170543910055
 10
26.1720343745115
 20
36.75487379736697
 42
0.0131570113784955
 10
26.1744668104521
 20
36.75469732432123
 42
0.0131570113784955
  0
LINE
  5
58D
330
1E
100
AcDbEntity
  8
HIDDEN
100
AcDbLine
 10
15.8058673428406
 20
18.5299700406195
 30
0.0
 11
15.8058673428406
 21
18.9529700406195
 31
0.0
  0
LINE
  5
58E
330
1E
100
AcDbEntity
  8
HIDDEN
100
AcDbLine
 10
20.3498673428406
 20
18.5299700406195
 30
0.0
 11
20.34986734284061
 21
18.9529700406195
 31
0.0
  0
LINE
  5
58F
330
1E
100
AcDbEntity
  8
HIDDEN
100
AcDbLine
 10
20.3498673428406
 20
18.5299700406195
 30
0.0
 11
21.0278673428406
 21
17.8519700406195
 31
0.0
  0
LINE
  5
590
330
1E
100
AcDbEntity
  8
HIDDEN
100
AcDbLine
 10
20.34986734284061
 20
18.9529700406195
 30
0.0
 11
21.0278673428406
 21
19.63097004061951
 31
0.0
  0
LINE
  5
591
330
1E
100
AcDbEntity
  8
HIDDEN
100
AcDbLine
 10
12.54364849808476
 20
19.63097004061951
 30
0.0
 11
12.49364849808476
 21
19.63097004061951
 31
0.0
  0
LINE
  5
592
330
1E
100
AcDbEntity
  8
HIDDEN
100
AcDbLine
 10
12.54364849808476
 20
17.8519700406195
 30
0.0
 11
12.49364849808476
 21
17.8519700406195
 31
0.0
  0
LINE
  5
593
330
1E
100
AcDbEntity
  8
HIDDEN
100
AcDbLine
 10
4.693648498084765
 20
19.63097004061951
 30
0.0
 11
4.693648498084765
 21
17.8519700406195
 31
0.0
  0
LINE
  5
594
330
1E
100
AcDbEntity
  8
HIDDEN
100
AcDbLine
 10
4.643648498084765
 20
17.8519700406195
 30
0.0
 11
4.693648498084765
 21
17.8519700406195
 31
0.0
  0
LINE
  5
595
330
1E
100
AcDbEntity
  8
HIDDEN
100
AcDbLine
 10
4.643648498084765
 20
18.5299700406195
 30
0.0
 11
4.693648498084765
 21
18.5299700406195
 31
0.0
  0
LINE
  5
596
330
1E
100
AcDbEntity
  8
HIDDEN
100
AcDbLine
 10
4.643648498084765
 20
19.63097004061951
 30
0.0
 11
4.693648498084765
 21
19.63097004061951
 31
0.0
  0
LINE
  5
597
330
1E
100
AcDbEntity
  8
HIDDEN
100
AcDbLine
 10
4.693648498084765
 20
18.9529700406195
 30
0.0
 11
4.643648498084765
 21
18.9529700406195
 31
0.0
  0
LINE
  5
598
330
1E
100
AcDbEntity
  8
HIDDEN
100
AcDbLine
 10
12.49364849808476
 20
26.47617551138238
 30
0.0
 11
12.49364849808476
 21
27.15417551138237
 31
0.0
  0
LINE
  5
599
330
1E
100
AcDbEntity
  8
HIDDEN
100
AcDbLine
 10
12.49364849808476
 20
26.47617551138238
 30
0.0
 11
12.54364849808476
 21
26.47617551138238
 31
0.0
  0
LINE
  5
59A
330
1E
100
AcDbEntity
  8
HIDDEN
100
AcDbLine
 10
4.693648498084765
 20
26.47617551138238
 30
0.0
 11
4.643648498084765
 21
26.47617551138238
 31
0.0
  0
LINE
  5
59B
330
1E
100
AcDbEntity
  8
HIDDEN
100
AcDbLine
 10
4.693648498084765
 20
26.47617551138238
 30
0.0
 11
4.693648498084765
 21
27.15417551138237
 31
0.0
  0
LINE
  5
59C
330
1E
100
AcDbEntity
  8
HIDDEN
100
AcDbLine
 10
4.693648498084765
 20
21.93217551138238
 30
0.0
 11
4.693648498084765
 21
21.25417551138238
 31
0.0
  0
LINE
  5
59D
330
1E
100
AcDbEntity
  8
HIDDEN
100
AcDbLine
 10
4.693648498084765
 20
21.93217551138238
 30
0.0
 11
4.643648498084765
 21
21.93217551138238
 31
0.0
  0
LINE
  5
59E
330
1E
100
AcDbEntity
  8
HIDDEN
100
AcDbLine
 10
4.693648498084765
 20
30.64994870293622
 30
0.0
 11
4.643648498084765
 21
30.64994870293622
 31
0.0
  0
LINE
  5
59F
330
1E
100
AcDbEntity
  8
HIDDEN
100
AcDbLine
 10
4.693648498084765
 20
30.64994870293622
 30
0.0
 11
4.693648498084765
 21
29.97194870293623
 31
0.0
  0
LINE
  5
5A0
330
1E
100
AcDbEntity
  8
HIDDEN
100
AcDbLine
 10
4.693648498084765
 20
35.19394870293622
 30
0.0
 11
4.693648498084765
 21
35.87194870293622
 31
0.0
  0
LINE
  5
5A1
330
1E
100
AcDbEntity
  8
HIDDEN
100
AcDbLine
 10
4.693648498084765
 20
35.19394870293622
 30
0.0
 11
4.643648498084765
 21
35.19394870293622
 31
0.0
  0
LINE
  5
5A2
330
1E
100
AcDbEntity
  8
HIDDEN
100
AcDbLine
 10
12.49364849808476
 20
35.19394870293622
 30
0.0
 11
12.54364849808476
 21
35.19394870293622
 31
0.0
  0
LINE
  5
5A3
330
1E
100
AcDbEntity
  8
HIDDEN
100
AcDbLine
 10
12.49364849808476
 20
35.19394870293622
 30
0.0
 11
12.49364849808476
 21
35.87194870293622
 31
0.0
  0
LINE
  5
5A4
330
1E
100
AcDbEntity
  8
HIDDEN
100
AcDbLine
 10
12.49364849808476
 20
30.64994870293622
 30
0.0
 11
12.49364849808476
 21
29.97194870293623
 31
0.0
  0
LINE
  5
5A5
330
1E
100
AcDbEntity
  8
HIDDEN
100
AcDbLine
 10
12.49364849808476
 20
30.64994870293622
 30
0.0
 11
12.54364849808476
 21
30.64994870293622
 31
0.0
  0
LINE
  5
5A6
330
1E
100
AcDbEntity
  8
HIDDEN
100
AcDbLine
 10
4.693648498084765
 20
43.27611719169978
 30
0.0
 11
4.643648498084765
 21
43.27611719169978
 31
0.0
  0
LINE
  5
5A7
330
1E
100
AcDbEntity
  8
HIDDEN
100
AcDbLine
 10
4.693648498084765
 20
43.27611719169978
 30
0.0
 11
4.693648498084765
 21
43.95411719169977
 31
0.0
  0
LINE
  5
5A8
330
1E
100
AcDbEntity
  8
HIDDEN
100
AcDbLine
 10
4.693648498084765
 20
38.73211719169978
 30
0.0
 11
4.693648498084765
 21
38.05411719169979
 31
0.0
  0
LINE
  5
5A9
330
1E
100
AcDbEntity
  8
HIDDEN
100
AcDbLine
 10
4.693648498084765
 20
38.73211719169978
 30
0.0
 11
4.643648498084765
 21
38.73211719169978
 31
0.0
  0
LINE
  5
5AA
330
1E
100
AcDbEntity
  8
HIDDEN
100
AcDbLine
 10
12.49364849808476
 20
38.73211719169978
 30
0.0
 11
12.49364849808476
 21
38.05411719169979
 31
0.0
  0
LINE
  5
5AB
330
1E
100
AcDbEntity
  8
HIDDEN
100
AcDbLine
 10
12.49364849808476
 20
38.73211719169978
 30
0.0
 11
12.54364849808476
 21
38.73211719169978
 31
0.0
  0
LINE
  5
5AC
330
1E
100
AcDbEntity
  8
HIDDEN
100
AcDbLine
 10
12.49364849808476
 20
43.27611719169978
 30
0.0
 11
12.49364849808476
 21
43.95411719169977
 31
0.0
  0
LINE
  5
5AD
330
1E
100
AcDbEntity
  8
HIDDEN
100
AcDbLine
 10
12.49364849808476
 20
43.27611719169978
 30
0.0
 11
12.54364849808476
 21
43.27611719169978
 31
0.0
  0
ELLIPSE
  5
5AE
330
1E
100
AcDbEntity
  8
OBJECT
100
AcDbEllipse
 10
17.53663127477762
 20
36.60186733953191
 30
0.0
 11
-0.0832826512546249
 21
0.0
 31
0.0
210
0.0
220
0.0
230
1.0
 40
0.5773502691896365
 41
0.0
 42
6.283185307179585
  0
ELLIPSE
  5
5AF
330
1E
100
AcDbEntity
  8
OBJECT
100
AcDbEllipse
 10
17.53663127477762
 20
36.55186733953189
 30
0.0
 11
-0.0832826512546249
 21
0.0
 31
0.0
210
0.0
220
0.0
230
1.0
 40
0.5773502691896365
 41
3.688363360457019
 42
5.736414600312357
  0
ELLIPSE
  5
5B0
330
1E
100
AcDbEntity
  8
OBJECT
100
AcDbEllipse
 10
22.19238384552276
 20
39.23986733953189
 30
0.0
 11
-0.0832826512546249
 21
0.0
 31
0.0
210
0.0
220
0.0
230
1.0
 40
0.5773502691896365
 41
3.688363360457019
 42
5.736414600312357
  0
ELLIPSE
  5
5B1
330
1E
100
AcDbEntity
  8
OBJECT
100
AcDbEllipse
 10
22.19238384552276
 20
39.28986733953189
 30
0.0
 11
-0.0832826512546249
 21
0.0
 31
0.0
210
0.0
220
0.0
230
1.0
 40
0.5773502691896365
 41
0.0
 42
6.283185307179585
  0
ELLIPSE
  5
5B2
330
1E
100
AcDbEntity
  8
OBJECT
100
AcDbEllipse
 10
25.98211101248347
 20
37.10186733953189
 30
0.0
 11
-0.0832826512546249
 21
0.0
 31
0.0
210
0.0
220
0.0
230
1.0
 40
0.5773502691896365
 41
0.0
 42
6.283185307179585
  0
ELLIPSE
  5
5B3
330
1E
100
AcDbEntity
  8
OBJECT
100
AcDbEllipse
 10
25.98211101248347
 20
37.05186733953189
 30
0.0
 11
-0.0832826512546249
 21
0.0
 31
0.0
210
0.0
220
0.0
230
1.0
 40
0.5773502691896365
 41
3.688363360457019
 42
5.736414600312357
  0
ELLIPSE
  5
5B4
330
1E
100
AcDbEntity
  8
OBJECT
100
AcDbEllipse
 10
21.32635844173832
 20
34.3638673395319
 30
0.0
 11
-0.0832826512546249
 21
0.0
 31
0.0
210
0.0
220
0.0
230
1.0
 40
0.5773502691896365
 41
3.688363360457019
 42
5.736414600312357
  0
ELLIPSE
  5
5B5
330
1E
100
AcDbEntity
  8
OBJECT
100
AcDbEllipse
 10
21.32635844173832
 20
34.4138673395319
 30
0.0
 11
-0.0832826512546249
 21
0.0
 31
0.0
210
0.0
220
0.0
230
1.0
 40
0.5773502691896365
 41
0.0
 42
6.283185307179585
  0
LINE
  5
5B6
330
1E
100
AcDbEntity
  8
HIDDEN
100
AcDbLine
 10
17.19368521487898
 20
34.86386733953191
 30
0.0
 11
16.56321872092391
 21
34.49986733953191
 31
0.0
  0
LINE
  5
5B7
330
1E
100
AcDbEntity
  8
HIDDEN
100
AcDbLine
 10
17.19368521487898
 20
35.1868673395319
 30
0.0
 11
17.19368521487898
 21
34.86386733953191
 31
0.0
  0
LINE
  5
5B8
330
1E
100
AcDbEntity
  8
HIDDEN
100
AcDbLine
 10
20.26287924589103
 20
33.41486733953189
 30
0.0
 11
20.26287924589103
 21
33.0918673395319
 31
0.0
  0
LINE
  5
5B9
330
1E
100
AcDbEntity
  8
HIDDEN
100
AcDbLine
 10
26.32505707238211
 20
36.59186733953193
 30
0.0
 11
26.95552356633719
 21
35.49986733953192
 31
0.0
  0
LINE
  5
5BA
330
1E
100
AcDbEntity
  8
HIDDEN
100
AcDbLine
 10
26.95552356633719
 20
37.2788673395319
 30
0.0
 11
26.32505707238211
 21
36.91486733953189
 31
0.0
  0
LINE
  5
5BB
330
1E
100
AcDbEntity
  8
HIDDEN
100
AcDbLine
 10
26.32505707238211
 20
36.91486733953189
 30
0.0
 11
26.32505707238211
 21
36.59186733953191
 31
0.0
  0
LINE
  5
5BC
330
1E
100
AcDbEntity
  8
HIDDEN
100
AcDbLine
 10
22.62539654741499
 20
39.77886733953191
 30
0.0
 11
23.01250669989958
 21
39.10837288730284
 31
0.0
  0
LINE
  5
5BD
330
1E
100
AcDbEntity
  8
OBJECT
100
AcDbLine
 10
23.25586304137005
 20
38.3638673395319
 30
0.0
 11
22.62539654741499
 21
37.99986733953192
 31
0.0
  0
LINE
  5
5BE
330
1E
100
AcDbEntity
  8
OBJECT
100
AcDbLine
 10
23.25586304137005
 20
38.6868673395319
 30
0.0
 11
23.25586304137005
 21
38.3638673395319
 31
0.0
  0
LINE
  5
5BF
330
1E
100
AcDbEntity
  8
OBJECT
100
AcDbLine
 10
22.95188812464173
 20
39.1133673395319
 30
0.0
 11
23.21256177118082
 21
38.66186733953189
 31
0.0
  0
LINE
  5
5C0
330
1E
100
AcDbEntity
  8
OBJECT
100
AcDbLine
 10
23.21256177118082
 20
38.66186733953189
 30
0.0
 11
23.21256177118082
 21
38.33886733953191
 31
0.0
  0
LINE
  5
5C1
330
1E
100
AcDbEntity
  8
OBJECT
100
AcDbLine
 10
23.21256177118082
 20
38.66186733953189
 30
0.0
 11
23.25586304137005
 21
38.6868673395319
 31
0.0
  0
LINE
  5
5C2
330
1E
100
AcDbEntity
  8
OBJECT
100
AcDbLine
 10
23.03849066502015
 20
39.06336733953191
 30
0.0
 11
23.25586304137005
 21
38.6868673395319
 31
0.0
  0
LEADER
  5
5C3
330
1E
100
AcDbEntity
  8
DIM
100
AcDbLeader
  3
23NSTD
 73
     0
 74
     0
 75
     1
 40
1.0
 41
7.265625
 76
     3
 10
16.15427460286277
 20
18.77984297124797
 30
0.0
 10
17.60236859852387
 20
22.66549777281098
 30
0.0
 10
18.14236859852386
 20
22.66549777281098
 30
0.0
340
5C4
213
0.0
223
-0.1875
233
0.0
  0
MTEXT
  5
5C4
102
{ACAD_REACTORS
330
5C3
102
}
330
1E
100
AcDbEntity
  8
DIM
100
AcDbMText
 10
18.41236859852386
 20
22.85299777281099
 30
0.0
 40
0.375
 41
0.0
 71
     1
 72
     1
  1
0.219 DIA. HOLE (FOR OPTIONAL\PMOUNTING BRACKETS)
 73
     1
 44
1.0
  0
LEADER
  5
5C5
330
1E
100
AcDbEntity
  8
DIM
100
AcDbLeader
  3
23NSTD
 73
     0
 74
     0
 75
     1
 40
1.0
 41
5.859375
 76
     3
 10
11.81304323051981
 20
26.96614144302424
 30
0.0
 10
12.66628992449978
 20
28.95729645665744
 30
0.0
 10
13.20628992449977
 20
28.95729645665744
 30
0.0
340
5C6
213
0.0
223
-0.1875
233
0.0
  0
MTEXT
  5
5C6
102
{ACAD_REACTORS
330
5C5
102
}
330
1E
100
AcDbEntity
  8
DIM
100
AcDbMText
 10
13.47628992449977
 20
29.14479645665744
 30
0.0
 40
0.375
 41
0.0
 71
     1
 72
     1
  1
\A1;0.136 DIA. (FOR OPTIONAL\PBOTTOM PLATES)
 73
     1
 44
1.0
  0
LEADER
  5
5C7
330
1E
100
AcDbEntity
  8
DIM
100
AcDbLeader
  3
23NSTD
 73
     0
 74
     0
 75
     1
 40
1.0
 41
5.4375
 76
     3
 10
21.36290348221866
 20
34.38347031947975
 30
0.0
 10
22.10227085185355
 20
30.81553935554525
 30
0.0
 10
22.64227085185355
 20
30.81553935554525
 30
0.0
340
5C8
213
0.0
223
-0.1875
233
0.0
  0
MTEXT
  5
5C8
102
{ACAD_REACTORS
330
5C7
102
}
330
1E
100
AcDbEntity
  8
DIM
100
AcDbMText
 10
22.91227085185355
 20
31.00303935554525
 30
0.0
 40
0.375
 41
0.0
 71
     1
 72
     1
  1
\A1;HOLES ACCEPT SIZE #8\PSHEETMETAL SCREWS
 73
     1
 44
1.0
  0
LINE
  5
5C9
330
1E
100
AcDbEntity
  8
TITLE
100
AcDbLine
 10
15.08699999999999
 20
0.1860000000000012
 30
0.0
 11
15.087
 21
15.16200000000001
 31
0.0
  0
LINE
  5
5CA
330
1E
100
AcDbEntity
  8
TITLE
100
AcDbLine
 10
15.27299999999998
 20
0.1859999999999994
 30
0.0
 11
15.273
 21
15.16200000000001
 31
0.0
  0
LINE
  5
5CB
330
1E
100
AcDbEntity
  8
TITLE
100
AcDbLine
 10
15.087
 20
13.91400000000001
 30
0.0
 11
0.1859999999999964
 21
13.91400000000001
 31
0.0
  0
LINE
  5
5CC
330
1E
100
AcDbEntity
  8
TITLE
100
AcDbLine
 10
15.08699999999999
 20
0.8099999999999999
 30
0.0
 11
0.1859999999999964
 21
0.8100000000000035
 31
0.0
  0
LINE
  5
5CD
330
1E
100
AcDbEntity
  8
TITLE
100
AcDbLine
 10
15.08699999999999
 20
1.433999999999998
 30
0.0
 11
0.1859999999999964
 21
1.434000000000002
 31
0.0
  0
LINE
  5
5CE
330
1E
100
AcDbEntity
  8
TITLE
100
AcDbLine
 10
15.08699999999999
 20
2.057999999999999
 30
0.0
 11
0.1859999999999964
 21
2.058000000000001
 31
0.0
  0
LINE
  5
5CF
330
1E
100
AcDbEntity
  8
TITLE
100
AcDbLine
 10
15.08699999999999
 20
2.681999999999999
 30
0.0
 11
0.1859999999999964
 21
2.682000000000001
 31
0.0
  0
LINE
  5
5D0
330
1E
100
AcDbEntity
  8
TITLE
100
AcDbLine
 10
15.087
 20
3.305999999999998
 30
0.0
 11
0.1859999999999964
 21
3.306000000000002
 31
0.0
  0
LINE
  5
5D1
330
1E
100
AcDbEntity
  8
TITLE
100
AcDbLine
 10
15.087
 20
3.930000000000001
 30
0.0
 11
0.1859999999999964
 21
3.930000000000004
 31
0.0
  0
LINE
  5
5D2
330
1E
100
AcDbEntity
  8
TITLE
100
AcDbLine
 10
15.087
 20
4.554000000000001
 30
0.0
 11
0.1859999999999964
 21
4.554000000000002
 31
0.0
  0
LINE
  5
5D3
330
1E
100
AcDbEntity
  8
TITLE
100
AcDbLine
 10
15.087
 20
5.178000000000001
 30
0.0
 11
0.1859999999999964
 21
5.178000000000003
 31
0.0
  0
LINE
  5
5D4
330
1E
100
AcDbEntity
  8
TITLE
100
AcDbLine
 10
15.087
 20
5.802000000000004
 30
0.0
 11
0.1859999999999964
 21
5.802000000000004
 31
0.0
  0
LINE
  5
5D5
330
1E
100
AcDbEntity
  8
TITLE
100
AcDbLine
 10
15.087
 20
6.426000000000002
 30
0.0
 11
0.1859999999999964
 21
6.426000000000006
 31
0.0
  0
LINE
  5
5D6
330
1E
100
AcDbEntity
  8
TITLE
100
AcDbLine
 10
15.087
 20
7.050000000000005
 30
0.0
 11
0.1859999999999964
 21
7.050000000000005
 31
0.0
  0
LINE
  5
5D7
330
1E
100
AcDbEntity
  8
TITLE
100
AcDbLine
 10
15.087
 20
7.674000000000003
 30
0.0
 11
0.1859999999999964
 21
7.674000000000006
 31
0.0
  0
LINE
  5
5D8
330
1E
100
AcDbEntity
  8
TITLE
100
AcDbLine
 10
15.087
 20
8.298000000000007
 30
0.0
 11
0.1859999999999964
 21
8.298000000000008
 31
0.0
  0
LINE
  5
5D9
330
1E
100
AcDbEntity
  8
TITLE
100
AcDbLine
 10
15.087
 20
8.922000000000007
 30
0.0
 11
0.1859999999999964
 21
8.922000000000007
 31
0.0
  0
LINE
  5
5DA
330
1E
100
AcDbEntity
  8
TITLE
100
AcDbLine
 10
15.087
 20
9.546000000000006
 30
0.0
 11
0.1859999999999964
 21
9.546000000000006
 31
0.0
  0
LINE
  5
5DB
330
1E
100
AcDbEntity
  8
TITLE
100
AcDbLine
 10
15.087
 20
10.17
 30
0.0
 11
0.1859999999999964
 21
10.17
 31
0.0
  0
LINE
  5
5DC
330
1E
100
AcDbEntity
  8
TITLE
100
AcDbLine
 10
15.087
 20
10.794
 30
0.0
 11
0.1859999999999964
 21
10.79400000000001
 31
0.0
  0
LINE
  5
5DD
330
1E
100
AcDbEntity
  8
TITLE
100
AcDbLine
 10
15.087
 20
11.418
 30
0.0
 11
0.1859999999999964
 21
11.41800000000001
 31
0.0
  0
LINE
  5
5DE
330
1E
100
AcDbEntity
  8
TITLE
100
AcDbLine
 10
15.087
 20
12.042
 30
0.0
 11
0.1859999999999964
 21
12.04200000000001
 31
0.0
  0
LINE
  5
5DF
330
1E
100
AcDbEntity
  8
TITLE
100
AcDbLine
 10
15.087
 20
12.66600000000001
 30
0.0
 11
0.1859999999999964
 21
12.66600000000001
 31
0.0
  0
LINE
  5
5E0
330
1E
100
AcDbEntity
  8
TITLE
100
AcDbLine
 10
15.087
 20
13.29000000000001
 30
0.0
 11
0.1859999999999964
 21
13.29000000000001
 31
0.0
  0
LINE
  5
5E1
330
1E
100
AcDbEntity
  8
TITLE
100
AcDbLine
 10
5.218527650630608
 20
15.16200000000001
 30
0.0
 11
5.218527650630608
 21
0.1860000000000029
 31
0.0
  0
LINE
  5
5E2
330
1E
100
AcDbEntity
  8
TITLE
100
AcDbLine
 10
7.285527650630609
 20
15.16200000000001
 30
0.0
 11
7.285527650630609
 21
0.1860000000000012
 31
0.0
  0
LINE
  5
5E3
330
1E
100
AcDbEntity
  8
TITLE
100
AcDbLine
 10
9.352527650630605
 20
15.16200000000001
 30
0.0
 11
9.352527650630605
 21
0.1860000000000012
 31
0.0
  0
LINE
  5
5E4
330
1E
100
AcDbEntity
  8
TITLE
100
AcDbLine
 10
10.95299999999999
 20
15.16200000000001
 30
0.0
 11
10.95299999999999
 21
0.1860000000000012
 31
0.0
  0
LINE
  5
5E5
330
1E
100
AcDbEntity
  8
TITLE
100
AcDbLine
 10
13.02
 20
15.16200000000001
 30
0.0
 11
13.02
 21
0.1860000000000012
 31
0.0
  0
TEXT
  5
5E6
330
1E
100
AcDbEntity
  8
TEXT
100
AcDbText
 10
7.806204424017288
 20
5.916500000000017
 30
0.0
 40
0.375
  1
2.000
 41
0.75
 72
     4
 11
8.298391924017288
 21
6.104000000000017
 31
0.0
100
AcDbText
  0
TEXT
  5
5E7
330
1E
100
AcDbEntity
  8
TEXT
100
AcDbText
 10
7.806204424017288
 20
4.044500000000014
 30
0.0
 40
0.375
  1
2.000
 41
0.75
 72
     4
 11
8.298391924017288
 21
4.232000000000014
 31
0.0
100
AcDbText
  0
TEXT
  5
5E8
330
1E
100
AcDbEntity
  8
TEXT
100
AcDbText
 10
7.806204424017288
 20
10.91450000000001
 30
0.0
 40
0.375
  1
2.000
 41
0.75
 72
     4
 11
8.298391924017288
 21
11.10200000000001
 31
0.0
100
AcDbText
  0
TEXT
  5
5E9
330
1E
100
AcDbEntity
  8
TEXT
100
AcDbText
 10
7.806204424017288
 20
11.53950000000001
 30
0.0
 40
0.375
  1
2.000
 41
0.75
 72
     4
 11
8.298391924017288
 21
11.72700000000001
 31
0.0
100
AcDbText
  0
TEXT
  5
5EA
330
1E
100
AcDbEntity
  8
TEXT
100
AcDbText
 10
7.806204424017288
 20
10.29050000000001
 30
0.0
 40
0.375
  1
2.000
 41
0.75
 72
     4
 11
8.298391924017288
 21
10.47800000000001
 31
0.0
100
AcDbText
  0
TEXT
  5
5EB
330
1E
100
AcDbEntity
  8
TEXT
100
AcDbText
 10
7.806204424017288
 20
7.78950000000002
 30
0.0
 40
0.375
  1
3.000
 41
0.75
 72
     4
 11
8.298391924017288
 21
7.97700000000002
 31
0.0
100
AcDbText
  0
TEXT
  5
5EC
330
1E
100
AcDbEntity
  8
TEXT
100
AcDbText
 10
7.806204424017288
 20
7.163500000000018
 30
0.0
 40
0.375
  1
3.000
 41
0.75
 72
     4
 11
8.298391924017288
 21
7.351000000000018
 31
0.0
100
AcDbText
  0
TEXT
  5
5ED
330
1E
100
AcDbEntity
  8
TEXT
100
AcDbText
 10
7.806204424017288
 20
6.541500000000017
 30
0.0
 40
0.375
  1
3.000
 41
0.75
 72
     4
 11
8.298391924017288
 21
6.729000000000017
 31
0.0
100
AcDbText
  0
TEXT
  5
5EE
330
1E
100
AcDbEntity
  8
TEXT
100
AcDbText
 10
7.806204424017288
 20
1.549500000000013
 30
0.0
 40
0.375
  1
3.000
 41
0.75
 72
     4
 11
8.298391924017288
 21
1.737000000000013
 31
0.0
100
AcDbText
  0
TEXT
  5
5EF
330
1E
100
AcDbEntity
  8
TEXT
100
AcDbText
 10
7.806204424017288
 20
2.171500000000013
 30
0.0
 40
0.375
  1
3.000
 41
0.75
 72
     4
 11
8.298391924017288
 21
2.359000000000013
 31
0.0
100
AcDbText
  0
TEXT
  5
5F0
330
1E
100
AcDbEntity
  8
TEXT
100
AcDbText
 10
7.806204424017288
 20
2.797500000000014
 30
0.0
 40
0.375
  1
3.000
 41
0.75
 72
     4
 11
8.298391924017288
 21
2.985000000000015
 31
0.0
100
AcDbText
  0
TEXT
  5
5F1
330
1E
100
AcDbEntity
  8
TEXT
100
AcDbText
 10
7.806204424017288
 20
3.419500000000014
 30
0.0
 40
0.375
  1
3.000
 41
0.75
 72
     4
 11
8.298391924017288
 21
3.607000000000014
 31
0.0
100
AcDbText
  0
TEXT
  5
5F2
330
1E
100
AcDbEntity
  8
TEXT
100
AcDbText
 10
7.806204424017288
 20
5.293500000000016
 30
0.0
 40
0.375
  1
3.000
 41
0.75
 72
     4
 11
8.298391924017288
 21
5.481000000000016
 31
0.0
100
AcDbText
  0
TEXT
  5
5F3
330
1E
100
AcDbEntity
  8
TEXT
100
AcDbText
 10
7.806204424017288
 20
4.669500000000016
 30
0.0
 40
0.375
  1
3.000
 41
0.75
 72
     4
 11
8.298391924017288
 21
4.857000000000016
 31
0.0
100
AcDbText
  0
TEXT
  5
5F4
330
1E
100
AcDbEntity
  8
TEXT
100
AcDbText
 10
9.615762428137195
 20
14.66150000000001
 30
0.0
 40
0.375
  1
TYPE
 41
0.75
 72
     4
 11
10.13138742813719
 21
14.84900000000001
 31
0.0
100
AcDbText
  0
LINE
  5
5F5
330
1E
100
AcDbEntity
  8
TITLE
100
AcDbLine
 10
20.306
 20
15.16200000000001
 30
0.0
 11
20.306
 21
0.1860000000000012
 31
0.0
  0
LINE
  5
5F6
330
1E
100
AcDbEntity
  8
TITLE
100
AcDbLine
 10
22.373
 20
15.16200000000001
 30
0.0
 11
22.373
 21
0.1859999999999994
 31
0.0
  0
LINE
  5
5F7
330
1E
100
AcDbEntity
  8
TITLE
100
AcDbLine
 10
26.03999999999999
 20
15.16200000000001
 30
0.0
 11
26.03999999999999
 21
0.1859999999999994
 31
0.0
  0
LINE
  5
5F8
330
1E
100
AcDbEntity
  8
TITLE
100
AcDbLine
 10
28.10699999999999
 20
15.16200000000001
 30
0.0
 11
28.10699999999999
 21
0.1859999999999994
 31
0.0
  0
TEXT
  5
5F9
330
1E
100
AcDbEntity
  8
TEXT
100
AcDbText
 10
28.30109712521594
 20
14.66150000000001
 30
0.0
 40
0.375
  1
WT. (#)
 41
0.75
 72
     4
 11
29.09797212521594
 21
14.84900000000001
 31
0.0
100
AcDbText
  0
LINE
  5
5FA
330
1E
100
AcDbEntity
  8
TITLE
100
AcDbLine
 10
15.087
 20
14.53800000000001
 30
0.0
 11
0.1859999999999964
 21
14.53800000000001
 31
0.0
  0
TEXT
  5
5FB
330
1E
100
AcDbEntity
  8
TEXT
100
AcDbText
 10
24.69560422228842
 20
14.66150000000001
 30
0.0
 40
0.375
  1
TYPE
 41
0.75
 72
     4
 11
25.21122922228842
 21
14.84900000000001
 31
0.0
100
AcDbText
  0
TEXT
  5
5FC
330
1E
100
AcDbEntity
  8
TEXT
100
AcDbText
 10
22.88161551475211
 20
13.38950000000002
 30
0.0
 40
0.375
  1
3.000
 41
0.75
 72
     4
 11
23.37380301475211
 21
13.57700000000002
 31
0.0
100
AcDbText
  0
TEXT
  5
5FD
330
1E
100
AcDbEntity
  8
TEXT
100
AcDbText
 10
22.88161551475211
 20
12.14150000000002
 30
0.0
 40
0.375
  1
3.000
 41
0.75
 72
     4
 11
23.37380301475211
 21
12.32900000000002
 31
0.0
100
AcDbText
  0
TEXT
  5
5FE
330
1E
100
AcDbEntity
  8
TEXT
100
AcDbText
 10
22.88161551475211
 20
8.397500000000016
 30
0.0
 40
0.375
  1
3.000
 41
0.75
 72
     4
 11
23.37380301475211
 21
8.585000000000016
 31
0.0
100
AcDbText
  0
TEXT
  5
5FF
330
1E
100
AcDbEntity
  8
TEXT
100
AcDbText
 10
22.88161551475211
 20
5.901500000000011
 30
0.0
 40
0.375
  1
3.000
 41
0.75
 72
     4
 11
23.37380301475211
 21
6.089000000000011
 31
0.0
100
AcDbText
  0
TEXT
  5
600
330
1E
100
AcDbEntity
  8
TEXT
100
AcDbText
 10
22.88161551475211
 20
4.653500000000012
 30
0.0
 40
0.375
  1
3.000
 41
0.75
 72
     4
 11
23.37380301475211
 21
4.841000000000012
 31
0.0
100
AcDbText
  0
TEXT
  5
601
330
1E
100
AcDbEntity
  8
TEXT
100
AcDbText
 10
22.88161551475211
 20
3.405500000000011
 30
0.0
 40
0.375
  1
3.000
 41
0.75
 72
     4
 11
23.37380301475211
 21
3.593000000000011
 31
0.0
100
AcDbText
  0
TEXT
  5
602
330
1E
100
AcDbEntity
  8
TEXT
100
AcDbText
 10
22.88161551475211
 20
1.533500000000012
 30
0.0
 40
0.375
  1
3.000
 41
0.75
 72
     4
 11
23.37380301475211
 21
1.721000000000012
 31
0.0
100
AcDbText
  0
TEXT
  5
603
330
1E
100
AcDbEntity
  8
TEXT
100
AcDbText
 10
22.88161551475211
 20
10.89150000000002
 30
0.0
 40
0.375
  1
2.000
 41
0.75
 72
     4
 11
23.37380301475211
 21
11.07900000000002
 31
0.0
100
AcDbText
  0
TEXT
  5
604
330
1E
100
AcDbEntity
  8
TEXT
100
AcDbText
 10
22.88161551475211
 20
9.019500000000022
 30
0.0
 40
0.375
  1
2.000
 41
0.75
 72
     4
 11
23.37380301475211
 21
9.207000000000022
 31
0.0
100
AcDbText
  0
TEXT
  5
605
330
1E
100
AcDbEntity
  8
TEXT
100
AcDbText
 10
22.88161551475211
 20
7.771500000000018
 30
0.0
 40
0.375
  1
2.000
 41
0.75
 72
     4
 11
23.37380301475211
 21
7.959000000000018
 31
0.0
100
AcDbText
  0
TEXT
  5
606
330
1E
100
AcDbEntity
  8
TEXT
100
AcDbText
 10
18.61332392248504
 20
5.288500000000017
 30
0.0
 40
0.375
  1
17.000
 41
0.75
 72
     4
 11
19.19926142248504
 21
5.476000000000017
 31
0.0
100
AcDbText
  0
TEXT
  5
607
330
1E
100
AcDbEntity
  8
TEXT
100
AcDbText
 10
18.61332392248504
 20
7.78450000000002
 30
0.0
 40
0.375
  1
17.000
 41
0.75
 72
     4
 11
19.19926142248504
 21
7.97200000000002
 31
0.0
100
AcDbText
  0
TEXT
  5
608
330
1E
100
AcDbEntity
  8
TEXT
100
AcDbText
 10
18.61332392248504
 20
12.15250000000002
 30
0.0
 40
0.375
  1
17.000
 41
0.75
 72
     4
 11
19.19926142248504
 21
12.34000000000002
 31
0.0
100
AcDbText
  0
TEXT
  5
609
330
1E
100
AcDbEntity
  8
TEXT
100
AcDbText
 10
18.61332392248504
 20
3.416500000000018
 30
0.0
 40
0.375
  1
17.000
 41
0.75
 72
     4
 11
19.19926142248504
 21
3.604000000000018
 31
0.0
100
AcDbText
  0
TEXT
  5
60A
330
1E
100
AcDbEntity
  8
TEXT
100
AcDbText
 10
18.61332392248504
 20
2.792500000000017
 30
0.0
 40
0.375
  1
17.000
 41
0.75
 72
     4
 11
19.19926142248504
 21
2.980000000000017
 31
0.0
100
AcDbText
  0
TEXT
  5
60B
330
1E
100
AcDbEntity
  8
TEXT
100
AcDbText
 10
18.61332392248504
 20
2.168500000000017
 30
0.0
 40
0.375
  1
17.000
 41
0.75
 72
     4
 11
19.19926142248504
 21
2.356000000000017
 31
0.0
100
AcDbText
  0
TEXT
  5
60C
330
1E
100
AcDbEntity
  8
TEXT
100
AcDbText
 10
18.61332392248504
 20
1.544500000000016
 30
0.0
 40
0.375
  1
17.000
 41
0.75
 72
     4
 11
19.19926142248504
 21
1.732000000000016
 31
0.0
100
AcDbText
  0
TEXT
  5
60D
330
1E
100
AcDbEntity
  8
TEXT
100
AcDbText
 10
18.61332392248504
 20
0.9205000000000161
 30
0.0
 40
0.375
  1
17.000
 41
0.75
 72
     4
 11
19.19926142248504
 21
1.108000000000016
 31
0.0
100
AcDbText
  0
TEXT
  5
60E
330
1E
100
AcDbEntity
  8
TEXT
100
AcDbText
 10
20.68032392248506
 20
1.544500000000016
 30
0.0
 40
0.375
  1
17.000
 41
0.75
 72
     4
 11
21.26626142248506
 21
1.732000000000016
 31
0.0
100
AcDbText
  0
TEXT
  5
60F
330
1E
100
AcDbEntity
  8
TEXT
100
AcDbText
 10
20.68032392248506
 20
0.9205000000000161
 30
0.0
 40
0.375
  1
17.000
 41
0.75
 72
     4
 11
21.26626142248506
 21
1.108000000000016
 31
0.0
100
AcDbText
  0
TEXT
  5
610
330
1E
100
AcDbEntity
  8
TEXT
100
AcDbText
 10
20.78617536687784
 20
12.76450000000002
 30
0.0
 40
0.375
  1
4.000
 41
0.75
 72
     4
 11
21.27836286687784
 21
12.95200000000002
 31
0.0
100
AcDbText
  0
TEXT
  5
611
330
1E
100
AcDbEntity
  8
TEXT
100
AcDbText
 10
20.78617536687784
 20
10.26850000000001
 30
0.0
 40
0.375
  1
4.000
 41
0.75
 72
     4
 11
21.27836286687784
 21
10.45600000000001
 31
0.0
100
AcDbText
  0
TEXT
  5
612
330
1E
100
AcDbEntity
  8
TEXT
100
AcDbText
 10
20.78617536687784
 20
10.89250000000002
 30
0.0
 40
0.375
  1
4.000
 41
0.75
 72
     4
 11
21.27836286687784
 21
11.08000000000002
 31
0.0
100
AcDbText
  0
LINE
  5
613
330
1E
100
AcDbEntity
  8
TITLE
100
AcDbLine
 10
24.44
 20
15.16200000000001
 30
0.0
 11
24.44
 21
0.1859999999999994
 31
0.0
  0
TEXT
  5
614
330
1E
100
AcDbEntity
  8
TEXT
100
AcDbText
 10
10.05351198834526
 20
14.03650000000001
 30
0.0
 40
0.375
  1
C
 41
0.75
 72
     4
 11
10.14726198834525
 21
14.22400000000001
 31
0.0
100
AcDbText
  0
TEXT
  5
615
330
1E
100
AcDbEntity
  8
TEXT
100
AcDbText
 10
10.05351198834526
 20
8.419500000000013
 30
0.0
 40
0.375
  1
B
 41
0.75
 72
     4
 11
10.14726198834525
 21
8.607000000000013
 31
0.0
100
AcDbText
  0
TEXT
  5
616
330
1E
100
AcDbEntity
  8
TEXT
100
AcDbText
 10
10.05351198834526
 20
2.177500000000015
 30
0.0
 40
0.375
  1
B
 41
0.75
 72
     4
 11
10.14726198834525
 21
2.365000000000015
 31
0.0
100
AcDbText
  0
TEXT
  5
617
330
1E
100
AcDbEntity
  8
TEXT
100
AcDbText
 10
10.05351198834526
 20
2.802500000000015
 30
0.0
 40
0.375
  1
C
 41
0.75
 72
     4
 11
10.14726198834525
 21
2.990000000000015
 31
0.0
100
AcDbText
  0
TEXT
  5
618
330
1E
100
AcDbEntity
  8
TEXT
100
AcDbText
 10
10.05351198834526
 20
3.427500000000015
 30
0.0
 40
0.375
  1
B
 41
0.75
 72
     4
 11
10.14726198834525
 21
3.615000000000015
 31
0.0
100
AcDbText
  0
TEXT
  5
619
330
1E
100
AcDbEntity
  8
TEXT
100
AcDbText
 10
10.05351198834526
 20
4.051500000000015
 30
0.0
 40
0.375
  1
B
 41
0.75
 72
     4
 11
10.14726198834525
 21
4.239000000000015
 31
0.0
100
AcDbText
  0
TEXT
  5
61A
330
1E
100
AcDbEntity
  8
TEXT
100
AcDbText
 10
10.05351198834526
 20
4.675500000000016
 30
0.0
 40
0.375
  1
B
 41
0.75
 72
     4
 11
10.14726198834525
 21
4.863000000000016
 31
0.0
100
AcDbText
  0
TEXT
  5
61B
330
1E
100
AcDbEntity
  8
TEXT
100
AcDbText
 10
10.05351198834526
 20
5.299500000000015
 30
0.0
 40
0.375
  1
B
 41
0.75
 72
     4
 11
10.14726198834525
 21
5.487000000000015
 31
0.0
100
AcDbText
  0
TEXT
  5
61C
330
1E
100
AcDbEntity
  8
TEXT
100
AcDbText
 10
10.05351198834526
 20
5.923500000000012
 30
0.0
 40
0.375
  1
B
 41
0.75
 72
     4
 11
10.14726198834525
 21
6.111000000000012
 31
0.0
100
AcDbText
  0
TEXT
  5
61D
330
1E
100
AcDbEntity
  8
TEXT
100
AcDbText
 10
10.05351198834526
 20
6.547500000000018
 30
0.0
 40
0.375
  1
B
 41
0.75
 72
     4
 11
10.14726198834525
 21
6.735000000000018
 31
0.0
100
AcDbText
  0
TEXT
  5
61E
330
1E
100
AcDbEntity
  8
TEXT
100
AcDbText
 10
10.05351198834526
 20
7.171500000000013
 30
0.0
 40
0.375
  1
B
 41
0.75
 72
     4
 11
10.14726198834525
 21
7.359000000000013
 31
0.0
100
AcDbText
  0
TEXT
  5
61F
330
1E
100
AcDbEntity
  8
TEXT
100
AcDbText
 10
10.05351198834526
 20
7.795500000000012
 30
0.0
 40
0.375
  1
B
 41
0.75
 72
     4
 11
10.14726198834525
 21
7.983000000000012
 31
0.0
100
AcDbText
  0
TEXT
  5
620
330
1E
100
AcDbEntity
  8
TEXT
100
AcDbText
 10
10.05351198834526
 20
9.044500000000017
 30
0.0
 40
0.375
  1
B
 41
0.75
 72
     4
 11
10.14726198834525
 21
9.232000000000017
 31
0.0
100
AcDbText
  0
TEXT
  5
621
330
1E
100
AcDbEntity
  8
TEXT
100
AcDbText
 10
10.05351198834526
 20
9.668500000000015
 30
0.0
 40
0.375
  1
B
 41
0.75
 72
     4
 11
10.14726198834525
 21
9.856000000000015
 31
0.0
100
AcDbText
  0
TEXT
  5
622
330
1E
100
AcDbEntity
  8
TEXT
100
AcDbText
 10
10.05351198834526
 20
10.29250000000001
 30
0.0
 40
0.375
  1
B
 41
0.75
 72
     4
 11
10.14726198834525
 21
10.48000000000001
 31
0.0
100
AcDbText
  0
TEXT
  5
623
330
1E
100
AcDbEntity
  8
TEXT
100
AcDbText
 10
10.05351198834526
 20
10.91650000000001
 30
0.0
 40
0.375
  1
A
 41
0.75
 72
     4
 11
10.14726198834525
 21
11.10400000000001
 31
0.0
100
AcDbText
  0
TEXT
  5
624
330
1E
100
AcDbEntity
  8
TEXT
100
AcDbText
 10
10.05351198834526
 20
11.54050000000001
 30
0.0
 40
0.375
  1
A
 41
0.75
 72
     4
 11
10.14726198834525
 21
11.72800000000001
 31
0.0
100
AcDbText
  0
TEXT
  5
625
330
1E
100
AcDbEntity
  8
TEXT
100
AcDbText
 10
10.05351198834526
 20
12.16450000000001
 30
0.0
 40
0.375
  1
A
 41
0.75
 72
     4
 11
10.14726198834525
 21
12.35200000000001
 31
0.0
100
AcDbText
  0
TEXT
  5
626
330
1E
100
AcDbEntity
  8
TEXT
100
AcDbText
 10
10.05351198834526
 20
12.78850000000001
 30
0.0
 40
0.375
  1
C
 41
0.75
 72
     4
 11
10.14726198834525
 21
12.97600000000001
 31
0.0
100
AcDbText
  0
TEXT
  5
627
330
1E
100
AcDbEntity
  8
TEXT
100
AcDbText
 10
10.05351198834526
 20
13.41250000000001
 30
0.0
 40
0.375
  1
A
 41
0.75
 72
     4
 11
10.14726198834525
 21
13.60000000000001
 31
0.0
100
AcDbText
  0
TEXT
  5
628
330
1E
100
AcDbEntity
  8
TEXT
100
AcDbText
 10
10.05351198834526
 20
1.552500000000015
 30
0.0
 40
0.375
  1
B
 41
0.75
 72
     4
 11
10.14726198834525
 21
1.740000000000015
 31
0.0
100
AcDbText
  0
TEXT
  5
629
330
1E
100
AcDbEntity
  8
TEXT
100
AcDbText
 10
10.05351198834526
 20
0.9275000000000158
 30
0.0
 40
0.375
  1
B
 41
0.75
 72
     4
 11
10.14726198834525
 21
1.115000000000015
 31
0.0
100
AcDbText
  0
TEXT
  5
62A
330
1E
100
AcDbEntity
  8
TEXT
100
AcDbText
 10
10.05351198834526
 20
0.3025000000000157
 30
0.0
 40
0.375
  1
B
 41
0.75
 72
     4
 11
10.14726198834525
 21
0.4900000000000157
 31
0.0
100
AcDbText
  0
TEXT
  5
62B
330
1E
100
AcDbEntity
  8
TEXT
100
AcDbText
 10
25.1526574681271
 20
8.415500000000021
 30
0.0
 40
0.375
  1
B
 41
0.75
 72
     4
 11
25.24640746812711
 21
8.603000000000021
 31
0.0
100
AcDbText
  0
TEXT
  5
62C
330
1E
100
AcDbEntity
  8
TEXT
100
AcDbText
 10
25.1526574681271
 20
0.9215000000000191
 30
0.0
 40
0.375
  1
A
 41
0.75
 72
     4
 11
25.24640746812711
 21
1.109000000000019
 31
0.0
100
AcDbText
  0
TEXT
  5
62D
330
1E
100
AcDbEntity
  8
TEXT
100
AcDbText
 10
25.1526574681271
 20
1.545500000000019
 30
0.0
 40
0.375
  1
A
 41
0.75
 72
     4
 11
25.24640746812711
 21
1.733000000000019
 31
0.0
100
AcDbText
  0
TEXT
  5
62E
330
1E
100
AcDbEntity
  8
TEXT
100
AcDbText
 10
25.1526574681271
 20
2.16950000000002
 30
0.0
 40
0.375
  1
A
 41
0.75
 72
     4
 11
25.24640746812711
 21
2.35700000000002
 31
0.0
100
AcDbText
  0
TEXT
  5
62F
330
1E
100
AcDbEntity
  8
TEXT
100
AcDbText
 10
25.1526574681271
 20
2.793500000000018
 30
0.0
 40
0.375
  1
A
 41
0.75
 72
     4
 11
25.24640746812711
 21
2.981000000000019
 31
0.0
100
AcDbText
  0
TEXT
  5
630
330
1E
100
AcDbEntity
  8
TEXT
100
AcDbText
 10
25.1526574681271
 20
3.417500000000019
 30
0.0
 40
0.375
  1
B
 41
0.75
 72
     4
 11
25.24640746812711
 21
3.605000000000019
 31
0.0
100
AcDbText
  0
TEXT
  5
631
330
1E
100
AcDbEntity
  8
TEXT
100
AcDbText
 10
25.1526574681271
 20
4.041500000000017
 30
0.0
 40
0.375
  1
B
 41
0.75
 72
     4
 11
25.24640746812711
 21
4.229000000000017
 31
0.0
100
AcDbText
  0
TEXT
  5
632
330
1E
100
AcDbEntity
  8
TEXT
100
AcDbText
 10
25.1526574681271
 20
4.66550000000002
 30
0.0
 40
0.375
  1
A
 41
0.75
 72
     4
 11
25.24640746812711
 21
4.85300000000002
 31
0.0
100
AcDbText
  0
TEXT
  5
633
330
1E
100
AcDbEntity
  8
TEXT
100
AcDbText
 10
25.1526574681271
 20
5.290500000000018
 30
0.0
 40
0.375
  1
B
 41
0.75
 72
     4
 11
25.24640746812711
 21
5.478000000000018
 31
0.0
100
AcDbText
  0
TEXT
  5
634
330
1E
100
AcDbEntity
  8
TEXT
100
AcDbText
 10
25.1526574681271
 20
5.915500000000021
 30
0.0
 40
0.375
  1
B
 41
0.75
 72
     4
 11
25.24640746812711
 21
6.103000000000021
 31
0.0
100
AcDbText
  0
TEXT
  5
635
330
1E
100
AcDbEntity
  8
TEXT
100
AcDbText
 10
25.1526574681271
 20
6.54050000000002
 30
0.0
 40
0.375
  1
B
 41
0.75
 72
     4
 11
25.24640746812711
 21
6.72800000000002
 31
0.0
100
AcDbText
  0
TEXT
  5
636
330
1E
100
AcDbEntity
  8
TEXT
100
AcDbText
 10
25.1526574681271
 20
7.165500000000021
 30
0.0
 40
0.375
  1
B
 41
0.75
 72
     4
 11
25.24640746812711
 21
7.353000000000021
 31
0.0
100
AcDbText
  0
TEXT
  5
637
330
1E
100
AcDbEntity
  8
TEXT
100
AcDbText
 10
25.1526574681271
 20
7.79050000000002
 30
0.0
 40
0.375
  1
B
 41
0.75
 72
     4
 11
25.24640746812711
 21
7.97800000000002
 31
0.0
100
AcDbText
  0
TEXT
  5
638
330
1E
100
AcDbEntity
  8
TEXT
100
AcDbText
 10
25.1526574681271
 20
12.15450000000002
 30
0.0
 40
0.375
  1
B
 41
0.75
 72
     4
 11
25.24640746812711
 21
12.34200000000002
 31
0.0
100
AcDbText
  0
TEXT
  5
639
330
1E
100
AcDbEntity
  8
TEXT
100
AcDbText
 10
25.1526574681271
 20
9.040500000000019
 30
0.0
 40
0.375
  1
A
 41
0.75
 72
     4
 11
25.24640746812711
 21
9.228000000000019
 31
0.0
100
AcDbText
  0
TEXT
  5
63A
330
1E
100
AcDbEntity
  8
TEXT
100
AcDbText
 10
25.1526574681271
 20
9.665500000000019
 30
0.0
 40
0.375
  1
C
 41
0.75
 72
     4
 11
25.24640746812711
 21
9.853000000000019
 31
0.0
100
AcDbText
  0
TEXT
  5
63B
330
1E
100
AcDbEntity
  8
TEXT
100
AcDbText
 10
25.1526574681271
 20
10.29050000000001
 30
0.0
 40
0.375
  1
C
 41
0.75
 72
     4
 11
25.24640746812711
 21
10.47800000000001
 31
0.0
100
AcDbText
  0
TEXT
  5
63C
330
1E
100
AcDbEntity
  8
TEXT
100
AcDbText
 10
25.1526574681271
 20
10.91550000000001
 30
0.0
 40
0.375
  1
C
 41
0.75
 72
     4
 11
25.24640746812711
 21
11.10300000000001
 31
0.0
100
AcDbText
  0
TEXT
  5
63D
330
1E
100
AcDbEntity
  8
TEXT
100
AcDbText
 10
25.1526574681271
 20
11.54050000000001
 30
0.0
 40
0.375
  1
C
 41
0.75
 72
     4
 11
25.24640746812711
 21
11.72800000000001
 31
0.0
100
AcDbText
  0
TEXT
  5
63E
330
1E
100
AcDbEntity
  8
TEXT
100
AcDbText
 10
25.1526574681271
 20
12.77950000000002
 30
0.0
 40
0.375
  1
C
 41
0.75
 72
     4
 11
25.24640746812711
 21
12.96700000000002
 31
0.0
100
AcDbText
  0
TEXT
  5
63F
330
1E
100
AcDbEntity
  8
TEXT
100
AcDbText
 10
25.1526574681271
 20
13.40450000000002
 30
0.0
 40
0.375
  1
C
 41
0.75
 72
     4
 11
25.24640746812711
 21
13.59200000000002
 31
0.0
100
AcDbText
  0
TEXT
  5
640
330
1E
100
AcDbEntity
  8
TEXT
100
AcDbText
 10
25.1526574681271
 20
14.02950000000001
 30
0.0
 40
0.375
  1
A
 41
0.75
 72
     4
 11
25.24640746812711
 21
14.21700000000001
 31
0.0
100
AcDbText
  0
DIMENSION
  5
642
330
1E
100
AcDbEntity
  8
DIM
100
AcDbDimension
  2
*D18
 10
12.59364849808476
 20
32.92303328481476
 30
0.0
 11
14.43583599808476
 21
32.92303328481476
 31
0.0
 70
    32
 71
     5
 42
0.5
  3
23NSTD
100
AcDbAlignedDimension
 13
12.09364849808476
 23
32.86706604134026
 33
0.0
 14
12.59364849808476
 24
32.86706604134026
 34
0.0
100
AcDbRotatedDimension
  0
DIMENSION
  5
643
330
1E
100
AcDbEntity
  8
DIM
100
AcDbDimension
  2
*D19
 10
12.59364849808476
 20
42.0914714926278
 30
0.0
 11
14.43583599808476
 21
42.0914714926278
 31
0.0
 70
    32
 71
     5
 42
0.5
  3
23NSTD
100
AcDbAlignedDimension
 13
12.09364849808476
 23
42.0355042491533
 33
0.0
 14
12.59364849808476
 24
42.0355042491533
 34
0.0
100
AcDbRotatedDimension
  0
INSERT
  5
644
330
1E
100
AcDbEntity
  8
OBJECT
100
AcDbBlockReference
  2
ACAD
 10
0.0
 20
0.0
 30
0.0
  0
INSERT
  5
645
330
1E
100
AcDbEntity
  8
OBJECT
100
AcDbBlockReference
  2
ACAD
 10
-5.701180467646679
 20
23.779395869079
 30
0.0
  0
INSERT
  5
646
330
1E
100
AcDbEntity
  8
OBJECT
100
AcDbBlockReference
  2
ACAD
 10
0.0
 20
0.0
 30
0.0
  0
INSERT
  5
647
330
1E
100
AcDbEntity
  8
OBJECT
100
AcDbBlockReference
  2
ACAD
 10
6.889772194500039
 20
4.831508558831515
 30
0.0
  0
INSERT
  5
648
330
1E
100
AcDbEntity
  8
OBJECT
100
AcDbBlockReference
  2
ACAD
 10
0.0
 20
0.0
 30
0.0
  0
INSERT
  5
649
330
1E
100
AcDbEntity
  8
OBJECT
100
AcDbBlockReference
  2
ACAD
 10
-3.685392379063074
 20
6.868607419839321
 30
0.0
  0
INSERT
  5
64A
330
1E
100
AcDbEntity
  8
OBJECT
100
AcDbBlockReference
  2
ACAD
 10
0.0
 20
0.0
 30
0.0
  0
INSERT
  5
64B
330
1E
100
AcDbEntity
  8
OBJECT
100
AcDbBlockReference
  2
ACAD
 10
0.0
 20
0.0
 30
0.0
  0
INSERT
  5
8D7
330
1E
100
AcDbEntity
  8
OBJECT
100
AcDbBlockReference
  2
ACAD
 10
0.0
 20
0.0
 30
0.0
  0
INSERT
  5
8F5
330
1E
100
AcDbEntity
  8
OBJECT
100
AcDbBlockReference
  2
HB
 10
0.0
 20
0.0
 30
0.0
 41
3.0
 42
3.0
 43
3.0
  0
TEXT
  5
9BB
330
1E
100
AcDbEntity
  8
TEXT
100
AcDbText
 10
27.55511825136651
 20
45.45819335156656
 30
0.0
 40
0.468
  1
9-23-09
 41
0.75
100
AcDbText
  0
ENDSEC
  0
SECTION
  2
OBJECTS
  0
DICTIONARY
  5
C
330
0
100
AcDbDictionary
281
     1
  3
ACAD_GROUP
350
D
  3
ACAD_LAYOUT
350
19
  3
ACAD_MLINESTYLE
350
16
  3
ACAD_PLOTSETTINGS
350
18
  3
ACAD_PLOTSTYLENAME
350
E
  3
AcadDim
350
56
  0
DICTIONARY
  5
D
102
{ACAD_REACTORS
330
C
102
}
330
C
100
AcDbDictionary
281
     1
  0
DICTIONARY
  5
19
102
{ACAD_REACTORS
330
C
102
}
330
C
100
AcDbDictionary
281
     1
  3
Layout1
350
1D
  3
Model
350
21
  0
DICTIONARY
  5
16
102
{ACAD_REACTORS
330
C
102
}
330
C
100
AcDbDictionary
281
     1
  3
Standard
350
17
  0
DICTIONARY
  5
18
102
{ACAD_REACTORS
330
C
102
}
330
C
100
AcDbDictionary
281
     1
  0
ACDBDICTIONARYWDFLT
  5
E
102
{ACAD_REACTORS
330
C
102
}
330
C
100
AcDbDictionary
281
     1
  3
Normal
350
F
100
AcDbDictionaryWithDefault
340
F
  0
XRECORD
  5
56
102
{ACAD_REACTORS
330
C
102
}
330
C
100
AcDbXrecord
280
     1
 90
   990106
  3

 60
     0
 61
     0
 62
     1
 63
     1
 64
     0
 65
     0
 66
     0
 67
     3
 68
     1
 69
     0
 70
     0
 71
     0
 72
     0
 40
0.0
170
     2
  0
LAYOUT
  5
1D
102
{ACAD_REACTORS
330
19
102
}
330
19
100
AcDbPlotSettings
  1

  2
C:\Program Files\ACAD2000\plotters\DWF ePlot.pc3
  4

  6

 40
0.0
 41
0.0
 42
0.0
 43
0.0
 44
0.0
 45
0.0
 46
0.0
 47
0.0
 48
0.0
 49
0.0
140
0.0
141
0.0
142
1.0
143
1.0
 70
   688
 72
     0
 73
     0
 74
     5
  7
monochrome.ctb
 75
    16
147
1.0
148
0.0
149
0.0
100
AcDbLayout
  1
Layout1
 70
     1
 71
     1
 10
0.0
 20
0.0
 11
12.0
 21
9.0
 12
0.0
 22
0.0
 32
0.0
 14
1.000000000000000E+20
 24
1.000000000000000E+20
 34
1.000000000000000E+20
 15
-1.000000000000000E+20
 25
-1.000000000000000E+20
 35
-1.000000000000000E+20
146
0.0
 13
0.0
 23
0.0
 33
0.0
 16
1.0
 26
0.0
 36
0.0
 17
0.0
 27
1.0
 37
0.0
 76
     0
330
1A
  0
LAYOUT
  5
21
102
{ACAD_REACTORS
330
19
102
}
330
19
100
AcDbPlotSettings
  1

  2
\\HOST\HP6L
  4
Letter
  6

 40
7.143749713897705
 41
5.027085304260253
 42
7.14373779296875
 43
5.027069091796875
 44
215.8999938964843
 45
279.3999938964843
 46
0.0
 47
0.0
 48
0.0
 49
0.0
140
0.0
141
0.0
142
1.0
143
1.336891976530134
 70
 11952
 72
     0
 73
     1
 74
     0
  7
monochrome.ctb
 75
     0
147
0.7480035915807289
148
0.0
149
0.0
100
AcDbLayout
  1
Model
 70
     1
 71
     0
 10
0.0
 20
0.0
 11
12.0
 21
9.0
 12
0.0
 22
0.0
 32
0.0
 14
0.0
 24
0.0
 34
0.0
 15
0.0
 25
0.0
 35
0.0
146
0.0
 13
0.0
 23
0.0
 33
0.0
 16
1.0
 26
0.0
 36
0.0
 17
0.0
 27
1.0
 37
0.0
 76
     0
330
1E
  0
MLINESTYLE
  5
17
102
{ACAD_REACTORS
330
16
102
}
330
16
100
AcDbMlineStyle
  2
STANDARD
 70
     0
  3

 62
   256
 51
90.0
 52
90.0
 71
     2
 49
0.5
 62
   256
  6
BYLAYER
 49
-0.5
 62
   256
  6
BYLAYER
  0
ACDBPLACEHOLDER
  5
F
102
{ACAD_REACTORS
330
E
102
}
330
E
  0
ENDSEC
  0
EOF
