  0
SECTION
  2
HEADER
  9
$ACADVER
  1
AC1015
  9
$ACADMAINTVER
 70
     6
  9
$DWGCODEPAGE
  3
ANSI_1252
  9
$INSBASE
 10
0.0
 20
0.0
 30
0.0
  9
$EXTMIN
 10
0.0
 20
-0.0000000000000041
 30
0.0
  9
$EXTMAX
 10
23.84999999999999
 20
35.235
 30
0.0
  9
$LIMMIN
 10
0.0
 20
0.0
  9
$LIMMAX
 10
23.84999999999999
 20
35.23499999999999
  9
$ORTHOMODE
 70
     1
  9
$REGENMODE
 70
     1
  9
$FILLMODE
 70
     1
  9
$QTEXTMODE
 70
     0
  9
$MIRRTEXT
 70
     0
  9
$LTSCALE
 40
0.468
  9
$ATTMODE
 70
     1
  9
$TEXTSIZE
 40
0.281
  9
$TRACEWID
 40
0.05
  9
$TEXTSTYLE
  7
TXT
  9
$CLAYER
  8
OBJECT
  9
$CELTYPE
  6
ByLayer
  9
$CECOLOR
 62
   256
  9
$CELTSCALE
 40
1.0
  9
$DISPSILH
 70
     0
  9
$DIMSCALE
 40
2.25
  9
$DIMASZ
 40
0.18
  9
$DIMEXO
 40
0.063
  9
$DIMDLI
 40
0.38
  9
$DIMRND
 40
0.0
  9
$DIMDLE
 40
0.0
  9
$DIMEXE
 40
0.093
  9
$DIMTP
 40
0.0
  9
$DIMTM
 40
0.0
  9
$DIMTXT
 40
0.125
  9
$DIMCEN
 40
0.09
  9
$DIMTSZ
 40
0.0
  9
$DIMTOL
 70
     0
  9
$DIMLIM
 70
     0
  9
$DIMTIH
 70
     1
  9
$DIMTOH
 70
     1
  9
$DIMSE1
 70
     0
  9
$DIMSE2
 70
     0
  9
$DIMTAD
 70
     0
  9
$DIMZIN
 70
     0
  9
$DIMBLK
  1

  9
$DIMASO
 70
     1
  9
$DIMSHO
 70
     1
  9
$DIMPOST
  1

  9
$DIMAPOST
  1

  9
$DIMALT
 70
     0
  9
$DIMALTD
 70
     2
  9
$DIMALTF
 40
25.4
  9
$DIMLFAC
 40
1.0
  9
$DIMTOFL
 70
     0
  9
$DIMTVP
 40
0.0
  9
$DIMTIX
 70
     0
  9
$DIMSOXD
 70
     0
  9
$DIMSAH
 70
     0
  9
$DIMBLK1
  1

  9
$DIMBLK2
  1

  9
$DIMSTYLE
  2
23NSTD
  9
$DIMCLRD
 70
     0
  9
$DIMCLRE
 70
     0
  9
$DIMCLRT
 70
     0
  9
$DIMTFAC
 40
1.0
  9
$DIMGAP
 40
0.09
  9
$DIMJUST
 70
     0
  9
$DIMSD1
 70
     0
  9
$DIMSD2
 70
     0
  9
$DIMTOLJ
 70
     1
  9
$DIMTZIN
 70
     0
  9
$DIMALTZ
 70
     0
  9
$DIMALTTZ
 70
     0
  9
$DIMUPT
 70
     0
  9
$DIMDEC
 70
     3
  9
$DIMTDEC
 70
     3
  9
$DIMALTU
 70
     2
  9
$DIMALTTD
 70
     2
  9
$DIMTXSTY
  7
TXT
  9
$DIMAUNIT
 70
     0
  9
$DIMADEC
 70
     0
  9
$DIMALTRND
 40
0.0
  9
$DIMAZIN
 70
     0
  9
$DIMDSEP
 70
    46
  9
$DIMATFIT
 70
     1
  9
$DIMFRAC
 70
     0
  9
$DIMLDRBLK
  1

  9
$DIMLUNIT
 70
     2
  9
$DIMLWD
 70
    -2
  9
$DIMLWE
 70
    -2
  9
$DIMTMOVE
 70
     0
  9
$LUNITS
 70
     2
  9
$LUPREC
 70
     8
  9
$SKETCHINC
 40
0.1
  9
$FILLETRAD
 40
0.0
  9
$AUNITS
 70
     0
  9
$AUPREC
 70
     0
  9
$MENU
  1
acad
  9
$ELEVATION
 40
0.0
  9
$PELEVATION
 40
0.0
  9
$THICKNESS
 40
0.0
  9
$LIMCHECK
 70
     0
  9
$CHAMFERA
 40
0.0
  9
$CHAMFERB
 40
0.0
  9
$CHAMFERC
 40
0.0
  9
$CHAMFERD
 40
0.0
  9
$SKPOLY
 70
     0
  9
$TDCREATE
 40
2451033.475029166
  9
$TDUCREATE
 40
2451033.641695833
  9
$TDUPDATE
 40
2455119.308707673
  9
$TDUUPDATE
 40
2455119.475374340
  9
$TDINDWG
 40
0.3744902778
  9
$TDUSRTIMER
 40
0.3744901042
  9
$USRTIMER
 70
     1
  9
$ANGBASE
 50
0.0
  9
$ANGDIR
 70
     0
  9
$PDMODE
 70
     0
  9
$PDSIZE
 40
0.0
  9
$PLINEWID
 40
0.0
  9
$SPLFRAME
 70
     0
  9
$SPLINETYPE
 70
     6
  9
$SPLINESEGS
 70
     8
  9
$HANDSEED
  5
1D30
  9
$SURFTAB1
 70
     6
  9
$SURFTAB2
 70
     6
  9
$SURFTYPE
 70
     6
  9
$SURFU
 70
     6
  9
$SURFV
 70
     6
  9
$UCSBASE
  2

  9
$UCSNAME
  2

  9
$UCSORG
 10
0.0
 20
0.0
 30
0.0
  9
$UCSXDIR
 10
1.0
 20
0.0
 30
0.0
  9
$UCSYDIR
 10
0.0
 20
1.0
 30
0.0
  9
$UCSORTHOREF
  2

  9
$UCSORTHOVIEW
 70
     0
  9
$UCSORGTOP
 10
0.0
 20
0.0
 30
0.0
  9
$UCSORGBOTTOM
 10
0.0
 20
0.0
 30
0.0
  9
$UCSORGLEFT
 10
0.0
 20
0.0
 30
0.0
  9
$UCSORGRIGHT
 10
0.0
 20
0.0
 30
0.0
  9
$UCSORGFRONT
 10
0.0
 20
0.0
 30
0.0
  9
$UCSORGBACK
 10
0.0
 20
0.0
 30
0.0
  9
$PUCSBASE
  2

  9
$PUCSNAME
  2

  9
$PUCSORG
 10
0.0
 20
0.0
 30
0.0
  9
$PUCSXDIR
 10
1.0
 20
0.0
 30
0.0
  9
$PUCSYDIR
 10
0.0
 20
1.0
 30
0.0
  9
$PUCSORTHOREF
  2

  9
$PUCSORTHOVIEW
 70
     0
  9
$PUCSORGTOP
 10
0.0
 20
0.0
 30
0.0
  9
$PUCSORGBOTTOM
 10
0.0
 20
0.0
 30
0.0
  9
$PUCSORGLEFT
 10
0.0
 20
0.0
 30
0.0
  9
$PUCSORGRIGHT
 10
0.0
 20
0.0
 30
0.0
  9
$PUCSORGFRONT
 10
0.0
 20
0.0
 30
0.0
  9
$PUCSORGBACK
 10
0.0
 20
0.0
 30
0.0
  9
$USERI1
 70
     0
  9
$USERI2
 70
     0
  9
$USERI3
 70
     0
  9
$USERI4
 70
     0
  9
$USERI5
 70
     0
  9
$USERR1
 40
0.0
  9
$USERR2
 40
0.0
  9
$USERR3
 40
0.0
  9
$USERR4
 40
0.0
  9
$USERR5
 40
0.0
  9
$WORLDVIEW
 70
     1
  9
$SHADEDGE
 70
     3
  9
$SHADEDIF
 70
    70
  9
$TILEMODE
 70
     1
  9
$MAXACTVP
 70
    16
  9
$PINSBASE
 10
0.0
 20
0.0
 30
0.0
  9
$PLIMCHECK
 70
     0
  9
$PEXTMIN
 10
1.000000000000000E+20
 20
1.000000000000000E+20
 30
1.000000000000000E+20
  9
$PEXTMAX
 10
-1.000000000000000E+20
 20
-1.000000000000000E+20
 30
-1.000000000000000E+20
  9
$PLIMMIN
 10
0.0
 20
0.0
  9
$PLIMMAX
 10
12.0
 20
9.0
  9
$UNITMODE
 70
     0
  9
$VISRETAIN
 70
     0
  9
$PLINEGEN
 70
     0
  9
$PSLTSCALE
 70
     1
  9
$TREEDEPTH
 70
  3020
  9
$CMLSTYLE
  2
Standard
  9
$CMLJUST
 70
     0
  9
$CMLSCALE
 40
1.0
  9
$PROXYGRAPHICS
 70
     1
  9
$MEASUREMENT
 70
     0
  9
$CELWEIGHT
370
    -1
  9
$ENDCAPS
280
     0
  9
$JOINSTYLE
280
     0
  9
$LWDISPLAY
290
     0
  9
$INSUNITS
 70
     0
  9
$HYPERLINKBASE
  1

  9
$STYLESHEET
  1
monochrome.ctb
  9
$XEDIT
290
     1
  9
$CEPSNTYPE
380
     0
  9
$PSTYLEMODE
290
     1
  9
$FINGERPRINTGUID
  2
{9128225D-0CA2-11D4-8144-00C04F604D1B}
  9
$VERSIONGUID
  2
{F7C8B932-2A29-45F2-A2F1-C648AD57A7B3}
  9
$EXTNAMES
290
     1
  9
$PSVPSCALE
 40
0.0
  9
$OLESTARTUP
290
     0
  0
ENDSEC
  0
SECTION
  2
CLASSES
  0
CLASS
  1
ACDBDICTIONARYWDFLT
  2
AcDbDictionaryWithDefault
  3
AutoCAD 2000
 90
        0
280
     0
281
     0
  0
CLASS
  1
ACDBPLACEHOLDER
  2
AcDbPlaceHolder
  3
AutoCAD 2000
 90
        0
280
     0
281
     0
  0
CLASS
  1
LAYOUT
  2
AcDbLayout
  3
AutoCAD 2000
 90
        0
280
     0
281
     0
  0
CLASS
  1
DICTIONARYVAR
  2
AcDbDictionaryVar
  3
AutoCAD 2000
 90
        0
280
     0
281
     0
  0
ENDSEC
  0
SECTION
  2
TABLES
  0
TABLE
  2
VPORT
  5
8
330
0
100
AcDbSymbolTable
 70
     2
  0
VPORT
  5
1D2F
330
8
100
AcDbSymbolTableRecord
100
AcDbViewportTableRecord
  2
*Active
 70
     0
 10
0.0
 20
0.0
 11
1.0
 21
1.0
 12
11.9250001110636
 22
17.61750016408075
 13
0.0
 23
0.0
 14
1.0
 24
1.0
 15
0.0
 25
0.0
 16
0.0
 26
0.0
 36
1.0
 17
0.0
 27
0.0
 37
0.0
 40
35.59169429151381
 41
1.824707846410684
 42
50.0
 43
0.0
 44
0.0
 50
0.0
 51
0.0
 71
     0
 72
   100
 73
     1
 74
     0
 75
     0
 76
     0
 77
     0
 78
     0
281
     0
 65
     1
110
0.0
120
0.0
130
0.0
111
1.0
121
0.0
131
0.0
112
0.0
122
1.0
132
0.0
 79
     0
146
0.0
  0
ENDTAB
  0
TABLE
  2
LTYPE
  5
5
330
0
100
AcDbSymbolTable
 70
     5
  0
LTYPE
  5
13
330
5
100
AcDbSymbolTableRecord
100
AcDbLinetypeTableRecord
  2
ByBlock
 70
     0
  3

 72
    65
 73
     0
 40
0.0
  0
LTYPE
  5
14
330
5
100
AcDbSymbolTableRecord
100
AcDbLinetypeTableRecord
  2
ByLayer
 70
     0
  3

 72
    65
 73
     0
 40
0.0
  0
LTYPE
  5
15
330
5
100
AcDbSymbolTableRecord
100
AcDbLinetypeTableRecord
  2
CONTINUOUS
 70
     0
  3
Solid line
 72
    65
 73
     0
 40
0.0
  0
LTYPE
  5
49
330
5
100
AcDbSymbolTableRecord
100
AcDbLinetypeTableRecord
  2
HIDDEN
 70
     0
  3
_ _ _ _ _ _ _ _ _ _ _ _ _ _ _ _ _ _ _ _ _ _ _
 72
    65
 73
     2
 40
0.375
 49
0.25
 74
     0
 49
-0.125
 74
     0
  0
LTYPE
  5
4A
330
5
100
AcDbSymbolTableRecord
100
AcDbLinetypeTableRecord
  2
PHANTOM
 70
     0
  3
_____ _ _ _____ _ _ _____ _ _ _____ _ _ ____
 72
    65
 73
     6
 40
2.5
 49
1.25
 74
     0
 49
-0.25
 74
     0
 49
0.25
 74
     0
 49
-0.25
 74
     0
 49
0.25
 74
     0
 49
-0.25
 74
     0
  0
LTYPE
  5
4B
330
5
100
AcDbSymbolTableRecord
100
AcDbLinetypeTableRecord
  2
CENTER
 70
     0
  3
____ _ ____ _ ____ _ ____ _ ____ _ ____ _ ____
 72
    65
 73
     4
 40
2.0
 49
1.25
 74
     0
 49
-0.25
 74
     0
 49
0.25
 74
     0
 49
-0.25
 74
     0
  0
LTYPE
  5
FE4
330
5
100
AcDbSymbolTableRecord
100
AcDbLinetypeTableRecord
  2
HIDDEN2
 70
     0
  3
_ _ _ _ _ _ _ _ _ _ _ _ _ _ _ _ _ _ _ _ _ _ _ _
 72
    65
 73
     2
 40
0.1875
 49
0.125
 74
     0
 49
-0.0625
 74
     0
  0
ENDTAB
  0
TABLE
  2
LAYER
  5
2
330
0
100
AcDbSymbolTable
 70
    10
  0
LAYER
  5
10
330
2
100
AcDbSymbolTableRecord
100
AcDbLayerTableRecord
  2
0
 70
     0
 62
     7
  6
CONTINUOUS
370
    -3
390
F
  0
LAYER
  5
4F
330
2
100
AcDbSymbolTableRecord
100
AcDbLayerTableRecord
  2
OBJECT
 70
     0
 62
     7
  6
CONTINUOUS
370
    -3
390
F
  0
LAYER
  5
50
330
2
100
AcDbSymbolTableRecord
100
AcDbLayerTableRecord
  2
DIM
 70
     0
 62
     7
  6
CONTINUOUS
370
    -3
390
F
  0
LAYER
  5
51
330
2
100
AcDbSymbolTableRecord
100
AcDbLayerTableRecord
  2
HIDDEN
 70
     0
 62
     7
  6
HIDDEN
370
    -3
390
F
  0
LAYER
  5
52
330
2
100
AcDbSymbolTableRecord
100
AcDbLayerTableRecord
  2
BEND
 70
     0
 62
     7
  6
PHANTOM
370
    -3
390
F
  0
LAYER
  5
53
330
2
100
AcDbSymbolTableRecord
100
AcDbLayerTableRecord
  2
TEXT
 70
     0
 62
     7
  6
CONTINUOUS
370
    -3
390
F
  0
LAYER
  5
54
330
2
100
AcDbSymbolTableRecord
100
AcDbLayerTableRecord
  2
TITLE
 70
     0
 62
     7
  6
CONTINUOUS
370
    -3
390
F
  0
LAYER
  5
55
330
2
100
AcDbSymbolTableRecord
100
AcDbLayerTableRecord
  2
CENTER
 70
     0
 62
     7
  6
CENTER
370
    -3
390
F
  0
LAYER
  5
56
330
2
100
AcDbSymbolTableRecord
100
AcDbLayerTableRecord
  2
DEFPOINTS
 70
     0
 62
     7
  6
CONTINUOUS
290
     0
370
    -3
390
F
  0
LAYER
  5
FE5
330
2
100
AcDbSymbolTableRecord
100
AcDbLayerTableRecord
  2
BRACKET
 70
     0
 62
     7
  6
CONTINUOUS
370
    -3
390
F
  0
ENDTAB
  0
TABLE
  2
STYLE
  5
3
330
0
100
AcDbSymbolTable
 70
     2
  0
STYLE
  5
11
330
3
100
AcDbSymbolTableRecord
100
AcDbTextStyleTableRecord
  2
STANDARD
 70
     0
 40
0.0
 41
1.0
 50
0.0
 71
     0
 42
0.2
  3
txt
  4

  0
STYLE
  5
47
330
3
100
AcDbSymbolTableRecord
100
AcDbTextStyleTableRecord
  2
TXT
 70
     0
 40
0.0
 41
0.75
 50
0.0
 71
     0
 42
0.281
  3
TXT.shx
  4

  0
ENDTAB
  0
TABLE
  2
VIEW
  5
6
330
0
100
AcDbSymbolTable
 70
     0
  0
ENDTAB
  0
TABLE
  2
UCS
  5
7
330
0
100
AcDbSymbolTable
 70
     0
  0
ENDTAB
  0
TABLE
  2
APPID
  5
9
330
0
100
AcDbSymbolTable
 70
     2
  0
APPID
  5
12
330
9
100
AcDbSymbolTableRecord
100
AcDbRegAppTableRecord
  2
ACAD
 70
     0
  0
APPID
  5
F5D
330
9
100
AcDbSymbolTableRecord
100
AcDbRegAppTableRecord
  2
DCO15
 70
     0
  0
ENDTAB
  0
TABLE
  2
DIMSTYLE
  5
A
330
0
100
AcDbSymbolTable
 70
     2
100
AcDbDimStyleTable
 71
     1
340
4E
  0
DIMSTYLE
105
4E
102
{ACAD_REACTORS
330
35C
330
2FD
330
2FC
330
760
330
75F
330
75B
330
75A
330
75C
330
75E
330
75D
330
755
330
292
330
291
330
2DE
330
756
330
323
330
758
330
AD9
330
AD8
330
ADA
330
ADB
330
10DF
330
107C
330
107D
330
10DC
330
10C0
330
10BF
330
10CB
330
300
330
A7A
330
2FE
330
301
102
}
330
A
100
AcDbSymbolTableRecord
100
AcDbDimStyleTableRecord
  2
23NSTD
 70
     0
 40
2.25
 42
0.063
 44
0.093
140
0.125
271
     3
272
     3
289
     1
340
47
  0
DIMSTYLE
105
F78
330
A
100
AcDbSymbolTableRecord
100
AcDbDimStyleTableRecord
  2
23NSTDI
 70
     0
 40
2.25
 42
0.093
 44
0.093
140
0.125
174
     1
271
     3
272
     3
340
47
  0
ENDTAB
  0
TABLE
  2
BLOCK_RECORD
  5
1
330
0
100
AcDbSymbolTable
 70
    33
  0
BLOCK_RECORD
  5
1E
330
1
100
AcDbSymbolTableRecord
100
AcDbBlockTableRecord
  2
*Model_Space
340
21
  0
BLOCK_RECORD
  5
1A
330
1
100
AcDbSymbolTableRecord
100
AcDbBlockTableRecord
  2
*Paper_Space
340
1D
  0
BLOCK_RECORD
  5
7CD
330
1
100
AcDbSymbolTableRecord
100
AcDbBlockTableRecord
  2
*D0
340
0
  0
BLOCK_RECORD
  5
7DA
330
1
100
AcDbSymbolTableRecord
100
AcDbBlockTableRecord
  2
*D1
340
0
  0
BLOCK_RECORD
  5
80E
330
1
100
AcDbSymbolTableRecord
100
AcDbBlockTableRecord
  2
*D2
340
0
  0
BLOCK_RECORD
  5
81B
330
1
100
AcDbSymbolTableRecord
100
AcDbBlockTableRecord
  2
*D3
340
0
  0
BLOCK_RECORD
  5
828
330
1
100
AcDbSymbolTableRecord
100
AcDbBlockTableRecord
  2
*D4
340
0
  0
BLOCK_RECORD
  5
835
330
1
100
AcDbSymbolTableRecord
100
AcDbBlockTableRecord
  2
*D5
340
0
  0
BLOCK_RECORD
  5
842
330
1
100
AcDbSymbolTableRecord
100
AcDbBlockTableRecord
  2
*D6
340
0
  0
BLOCK_RECORD
  5
84F
330
1
100
AcDbSymbolTableRecord
100
AcDbBlockTableRecord
  2
*D7
340
0
  0
BLOCK_RECORD
  5
85C
330
1
100
AcDbSymbolTableRecord
100
AcDbBlockTableRecord
  2
*D8
340
0
  0
BLOCK_RECORD
  5
86A
330
1
100
AcDbSymbolTableRecord
100
AcDbBlockTableRecord
  2
*D9
340
0
  0
BLOCK_RECORD
  5
877
330
1
100
AcDbSymbolTableRecord
100
AcDbBlockTableRecord
  2
*D10
340
0
  0
BLOCK_RECORD
  5
884
330
1
100
AcDbSymbolTableRecord
100
AcDbBlockTableRecord
  2
*D11
340
0
  0
BLOCK_RECORD
  5
892
330
1
100
AcDbSymbolTableRecord
100
AcDbBlockTableRecord
  2
*D12
340
0
  0
BLOCK_RECORD
  5
89F
330
1
100
AcDbSymbolTableRecord
100
AcDbBlockTableRecord
  2
*D13
340
0
  0
BLOCK_RECORD
  5
8AC
330
1
100
AcDbSymbolTableRecord
100
AcDbBlockTableRecord
  2
*D14
340
0
  0
BLOCK_RECORD
  5
8BA
330
1
100
AcDbSymbolTableRecord
100
AcDbBlockTableRecord
  2
*D15
340
0
  0
BLOCK_RECORD
  5
8C8
330
1
100
AcDbSymbolTableRecord
100
AcDbBlockTableRecord
  2
*D16
340
0
  0
BLOCK_RECORD
  5
8D6
330
1
100
AcDbSymbolTableRecord
100
AcDbBlockTableRecord
  2
*D17
340
0
  0
BLOCK_RECORD
  5
8E3
330
1
100
AcDbSymbolTableRecord
100
AcDbBlockTableRecord
  2
*D18
340
0
  0
BLOCK_RECORD
  5
8F1
330
1
100
AcDbSymbolTableRecord
100
AcDbBlockTableRecord
  2
*D19
340
0
  0
BLOCK_RECORD
  5
A7B
330
1
100
AcDbSymbolTableRecord
100
AcDbBlockTableRecord
  2
*D20
340
0
  0
BLOCK_RECORD
  5
ADC
330
1
100
AcDbSymbolTableRecord
100
AcDbBlockTableRecord
  2
*D21
340
0
  0
BLOCK_RECORD
  5
AE9
330
1
100
AcDbSymbolTableRecord
100
AcDbBlockTableRecord
  2
*D22
340
0
  0
BLOCK_RECORD
  5
AF6
330
1
100
AcDbSymbolTableRecord
100
AcDbBlockTableRecord
  2
*D23
340
0
  0
BLOCK_RECORD
  5
B03
330
1
100
AcDbSymbolTableRecord
100
AcDbBlockTableRecord
  2
*D24
340
0
  0
BLOCK_RECORD
  5
F5E
330
1
100
AcDbSymbolTableRecord
100
AcDbBlockTableRecord
  2
Hb
340
0
102
{BLKREFS
331
F77
102
}
  0
BLOCK_RECORD
  5
110A
330
1
100
AcDbSymbolTableRecord
100
AcDbBlockTableRecord
  2
*D26
340
0
  0
BLOCK_RECORD
  5
1117
330
1
100
AcDbSymbolTableRecord
100
AcDbBlockTableRecord
  2
*D27
340
0
  0
BLOCK_RECORD
  5
1124
330
1
100
AcDbSymbolTableRecord
100
AcDbBlockTableRecord
  2
*D28
340
0
  0
BLOCK_RECORD
  5
1131
330
1
100
AcDbSymbolTableRecord
100
AcDbBlockTableRecord
  2
*D29
340
0
  0
BLOCK_RECORD
  5
113E
330
1
100
AcDbSymbolTableRecord
100
AcDbBlockTableRecord
  2
*D30
340
0
  0
BLOCK_RECORD
  5
114B
330
1
100
AcDbSymbolTableRecord
100
AcDbBlockTableRecord
  2
*D31
340
0
  0
BLOCK_RECORD
  5
1158
330
1
100
AcDbSymbolTableRecord
100
AcDbBlockTableRecord
  2
*D32
340
0
  0
ENDTAB
  0
ENDSEC
  0
SECTION
  2
BLOCKS
  0
BLOCK
  5
59
330
1E
100
AcDbEntity
  8
0
100
AcDbBlockBegin
  2
*Model_Space
 70
     0
 10
0.0
 20
0.0
 30
0.0
  3
*Model_Space
  1

  0
ENDBLK
  5
5A
330
1E
100
AcDbEntity
  8
0
100
AcDbBlockEnd
  0
BLOCK
  5
57
330
1A
100
AcDbEntity
 67
     1
  8
0
100
AcDbBlockBegin
  2
*Paper_Space
 70
     0
 10
0.0
 20
0.0
 30
0.0
  3
*Paper_Space
  1

  0
ENDBLK
  5
58
330
1A
100
AcDbEntity
 67
     1
  8
0
100
AcDbBlockEnd
  0
BLOCK
  5
7D8
330
7CD
100
AcDbEntity
  8
0
100
AcDbBlockBegin
  2
*D0
 70
     1
 10
0.0
 20
0.0
 30
0.0
  3
*D0
  1

  0
LINE
  5
1CD0
330
7CD
100
AcDbEntity
  8
DIM
 62
     0
370
    -2
100
AcDbLine
 10
7.457549782493712
 20
24.45368284933624
 30
0.0
 11
8.820787403417552
 21
24.45368284933623
 31
0.0
  0
LINE
  5
1CD1
330
7CD
100
AcDbEntity
  8
DIM
 62
     0
370
    -2
100
AcDbLine
 10
7.457549782493712
 20
20.14068284933623
 30
0.0
 11
8.820787403417552
 21
20.14068284933623
 31
0.0
  0
LINE
  5
1CD2
330
7CD
100
AcDbEntity
  8
DIM
 62
     0
370
    -2
100
AcDbLine
 10
8.611537403417552
 20
24.04868284933622
 30
0.0
 11
8.611537403417552
 21
22.64030784933622
 31
0.0
  0
LINE
  5
1CD3
330
7CD
100
AcDbEntity
  8
DIM
 62
     0
370
    -2
100
AcDbLine
 10
8.611537403417552
 20
20.54568284933623
 30
0.0
 11
8.611537403417552
 21
21.95405784933622
 31
0.0
  0
SOLID
  5
1CD4
330
7CD
100
AcDbEntity
  8
DIM
 62
     0
100
AcDbTrace
 10
8.544037403417553
 20
24.04868284933622
 30
0.0
 11
8.679037403417554
 21
24.04868284933622
 31
0.0
 12
8.611537403417552
 22
24.45368284933623
 32
0.0
 13
8.611537403417552
 23
24.45368284933623
 33
0.0
  0
SOLID
  5
1CD5
330
7CD
100
AcDbEntity
  8
DIM
 62
     0
100
AcDbTrace
 10
8.544037403417553
 20
20.54568284933623
 30
0.0
 11
8.679037403417554
 21
20.54568284933623
 31
0.0
 12
8.611537403417552
 22
20.14068284933623
 32
0.0
 13
8.611537403417552
 23
20.14068284933623
 33
0.0
  0
MTEXT
  5
1CD6
330
7CD
100
AcDbEntity
  8
DIM
 62
     0
100
AcDbMText
 10
8.61153740341755
 20
22.29718284933623
 30
0.0
 40
0.28125
 41
0.0
 71
     5
 72
     1
  1
\A1;E
  7
TXT
 73
     1
 44
1.0
  0
POINT
  5
1CD7
330
7CD
100
AcDbEntity
  8
DEFPOINTS
 62
     0
100
AcDbPoint
 10
7.315799782493712
 20
24.45368284933624
 30
0.0
  0
POINT
  5
1CD8
330
7CD
100
AcDbEntity
  8
DEFPOINTS
 62
     0
100
AcDbPoint
 10
7.315799782493712
 20
20.14068284933623
 30
0.0
  0
POINT
  5
1CD9
330
7CD
100
AcDbEntity
  8
DEFPOINTS
 62
     0
100
AcDbPoint
 10
8.611537403417552
 20
20.14068284933623
 30
0.0
  0
ENDBLK
  5
7D9
330
7CD
100
AcDbEntity
  8
0
100
AcDbBlockEnd
  0
BLOCK
  5
7E5
330
7DA
100
AcDbEntity
  8
0
100
AcDbBlockBegin
  2
*D1
 70
     1
 10
0.0
 20
0.0
 30
0.0
  3
*D1
  1

  0
LINE
  5
1CDA
330
7DA
100
AcDbEntity
  8
DIM
 62
     0
370
    -2
100
AcDbLine
 10
7.465049782493712
 20
24.64868284933624
 30
0.0
 11
9.403958422525484
 21
24.64868284933622
 31
0.0
  0
LINE
  5
1CDB
330
7DA
100
AcDbEntity
  8
DIM
 62
     0
370
    -2
100
AcDbLine
 10
7.465049782493712
 20
19.94568284933623
 30
0.0
 11
9.403958422525484
 21
19.94568284933623
 31
0.0
  0
LINE
  5
1CDC
330
7DA
100
AcDbEntity
  8
DIM
 62
     0
370
    -2
100
AcDbLine
 10
9.194708422525485
 20
24.24368284933622
 30
0.0
 11
9.194708422525485
 21
22.64030784933622
 31
0.0
  0
LINE
  5
1CDD
330
7DA
100
AcDbEntity
  8
DIM
 62
     0
370
    -2
100
AcDbLine
 10
9.194708422525485
 20
20.35068284933623
 30
0.0
 11
9.194708422525485
 21
21.95405784933622
 31
0.0
  0
SOLID
  5
1CDE
330
7DA
100
AcDbEntity
  8
DIM
 62
     0
100
AcDbTrace
 10
9.127208422525484
 20
24.24368284933622
 30
0.0
 11
9.262208422525484
 21
24.24368284933622
 31
0.0
 12
9.194708422525485
 22
24.64868284933622
 32
0.0
 13
9.194708422525485
 23
24.64868284933622
 33
0.0
  0
SOLID
  5
1CDF
330
7DA
100
AcDbEntity
  8
DIM
 62
     0
100
AcDbTrace
 10
9.127208422525484
 20
20.35068284933623
 30
0.0
 11
9.262208422525484
 21
20.35068284933623
 31
0.0
 12
9.194708422525485
 22
19.94568284933623
 32
0.0
 13
9.194708422525485
 23
19.94568284933623
 33
0.0
  0
MTEXT
  5
1CE0
330
7DA
100
AcDbEntity
  8
DIM
 62
     0
100
AcDbMText
 10
9.194708422525481
 20
22.29718284933623
 30
0.0
 40
0.28125
 41
0.0
 71
     5
 72
     1
  1
\A1;A
  7
TXT
 73
     1
 44
1.0
  0
POINT
  5
1CE1
330
7DA
100
AcDbEntity
  8
DEFPOINTS
 62
     0
100
AcDbPoint
 10
7.323299782493712
 20
24.64868284933624
 30
0.0
  0
POINT
  5
1CE2
330
7DA
100
AcDbEntity
  8
DEFPOINTS
 62
     0
100
AcDbPoint
 10
7.323299782493712
 20
19.94568284933623
 30
0.0
  0
POINT
  5
1CE3
330
7DA
100
AcDbEntity
  8
DEFPOINTS
 62
     0
100
AcDbPoint
 10
9.194708422525485
 20
19.94568284933623
 30
0.0
  0
ENDBLK
  5
7E6
330
7DA
100
AcDbEntity
  8
0
100
AcDbBlockEnd
  0
BLOCK
  5
819
330
80E
100
AcDbEntity
  8
0
100
AcDbBlockBegin
  2
*D2
 70
     1
 10
0.0
 20
0.0
 30
0.0
  3
*D2
  1

  0
LINE
  5
1CBC
330
80E
100
AcDbEntity
  8
DIM
 62
     0
370
    -2
100
AcDbLine
 10
7.457549782493712
 20
20.14068284933623
 30
0.0
 11
8.217933241158918
 21
20.14068284933623
 31
0.0
  0
LINE
  5
1CBD
330
80E
100
AcDbEntity
  8
DIM
 62
     0
370
    -2
100
AcDbLine
 10
7.457549782493712
 20
22.29718284933623
 30
0.0
 11
8.217933241158918
 21
22.29718284933623
 31
0.0
  0
LINE
  5
1CBE
330
80E
100
AcDbEntity
  8
DIM
 62
     0
370
    -2
100
AcDbLine
 10
8.008683241158918
 20
20.54568284933623
 30
0.0
 11
8.008683241158918
 21
20.87580784933622
 31
0.0
  0
LINE
  5
1CBF
330
80E
100
AcDbEntity
  8
DIM
 62
     0
370
    -2
100
AcDbLine
 10
8.008683241158918
 20
21.89218284933623
 30
0.0
 11
8.008683241158918
 21
21.56205784933622
 31
0.0
  0
SOLID
  5
1CC0
330
80E
100
AcDbEntity
  8
DIM
 62
     0
100
AcDbTrace
 10
7.941183241158918
 20
20.54568284933623
 30
0.0
 11
8.076183241158918
 21
20.54568284933623
 31
0.0
 12
8.008683241158918
 22
20.14068284933623
 32
0.0
 13
8.008683241158918
 23
20.14068284933623
 33
0.0
  0
SOLID
  5
1CC1
330
80E
100
AcDbEntity
  8
DIM
 62
     0
100
AcDbTrace
 10
7.941183241158918
 20
21.89218284933623
 30
0.0
 11
8.076183241158918
 21
21.89218284933623
 31
0.0
 12
8.008683241158918
 22
22.29718284933623
 32
0.0
 13
8.008683241158918
 23
22.29718284933623
 33
0.0
  0
MTEXT
  5
1CC2
330
80E
100
AcDbEntity
  8
DIM
 62
     0
100
AcDbMText
 10
8.008683241158914
 20
21.21893284933623
 30
0.0
 40
0.28125
 41
0.0
 71
     5
 72
     1
  1
\A1;G
  7
TXT
 73
     1
 44
1.0
  0
POINT
  5
1CC3
330
80E
100
AcDbEntity
  8
DEFPOINTS
 62
     0
100
AcDbPoint
 10
7.315799782493712
 20
20.14068284933623
 30
0.0
  0
POINT
  5
1CC4
330
80E
100
AcDbEntity
  8
DEFPOINTS
 62
     0
100
AcDbPoint
 10
7.315799782493712
 20
22.29718284933623
 30
0.0
  0
POINT
  5
1CC5
330
80E
100
AcDbEntity
  8
DEFPOINTS
 62
     0
100
AcDbPoint
 10
8.008683241158918
 20
22.29718284933623
 30
0.0
  0
ENDBLK
  5
81A
330
80E
100
AcDbEntity
  8
0
100
AcDbBlockEnd
  0
BLOCK
  5
826
330
81B
100
AcDbEntity
  8
0
100
AcDbBlockBegin
  2
*D3
 70
     1
 10
0.0
 20
0.0
 30
0.0
  3
*D3
  1

  0
LINE
  5
1C9D
330
81B
100
AcDbEntity
  8
DIM
 62
     0
370
    -2
100
AcDbLine
 10
7.457549782493715
 20
27.78631367118586
 30
0.0
 11
8.820787403417549
 21
27.78631367118586
 31
0.0
  0
LINE
  5
1C9E
330
81B
100
AcDbEntity
  8
DIM
 62
     0
370
    -2
100
AcDbLine
 10
7.457549782493715
 20
32.09931367118587
 30
0.0
 11
8.820787403417551
 21
32.09931367118587
 31
0.0
  0
LINE
  5
1C9F
330
81B
100
AcDbEntity
  8
DIM
 62
     0
370
    -2
100
AcDbLine
 10
8.611537403417552
 20
28.19131367118587
 30
0.0
 11
8.611537403417552
 21
29.59968867118586
 31
0.0
  0
LINE
  5
1CA0
330
81B
100
AcDbEntity
  8
DIM
 62
     0
370
    -2
100
AcDbLine
 10
8.611537403417552
 20
31.69431367118587
 30
0.0
 11
8.611537403417552
 21
30.28593867118587
 31
0.0
  0
SOLID
  5
1CA1
330
81B
100
AcDbEntity
  8
DIM
 62
     0
100
AcDbTrace
 10
8.544037403417549
 20
28.19131367118587
 30
0.0
 11
8.679037403417552
 21
28.19131367118587
 31
0.0
 12
8.61153740341755
 22
27.78631367118586
 32
0.0
 13
8.61153740341755
 23
27.78631367118586
 33
0.0
  0
SOLID
  5
1CA2
330
81B
100
AcDbEntity
  8
DIM
 62
     0
100
AcDbTrace
 10
8.544037403417549
 20
31.69431367118587
 30
0.0
 11
8.679037403417552
 21
31.69431367118587
 31
0.0
 12
8.611537403417552
 22
32.09931367118587
 32
0.0
 13
8.611537403417552
 23
32.09931367118587
 33
0.0
  0
MTEXT
  5
1CA3
330
81B
100
AcDbEntity
  8
DIM
 62
     0
100
AcDbMText
 10
8.611537403417544
 20
29.94281367118587
 30
0.0
 40
0.28125
 41
0.0
 71
     5
 72
     1
  1
\A1;E
  7
TXT
 73
     1
 44
1.0
  0
POINT
  5
1CA4
330
81B
100
AcDbEntity
  8
DEFPOINTS
 62
     0
100
AcDbPoint
 10
7.315799782493715
 20
27.78631367118586
 30
0.0
  0
POINT
  5
1CA5
330
81B
100
AcDbEntity
  8
DEFPOINTS
 62
     0
100
AcDbPoint
 10
7.315799782493715
 20
32.09931367118587
 30
0.0
  0
POINT
  5
1CA6
330
81B
100
AcDbEntity
  8
DEFPOINTS
 62
     0
100
AcDbPoint
 10
8.611537403417552
 20
32.09931367118587
 30
0.0
  0
ENDBLK
  5
827
330
81B
100
AcDbEntity
  8
0
100
AcDbBlockEnd
  0
BLOCK
  5
833
330
828
100
AcDbEntity
  8
0
100
AcDbBlockBegin
  2
*D4
 70
     1
 10
0.0
 20
0.0
 30
0.0
  3
*D4
  1

  0
LINE
  5
1C93
330
828
100
AcDbEntity
  8
DIM
 62
     0
370
    -2
100
AcDbLine
 10
7.465049782493715
 20
32.29431367118587
 30
0.0
 11
9.403958422525484
 21
32.29431367118587
 31
0.0
  0
LINE
  5
1C94
330
828
100
AcDbEntity
  8
DIM
 62
     0
370
    -2
100
AcDbLine
 10
7.465049782493715
 20
27.59131367118587
 30
0.0
 11
9.403958422525482
 21
27.59131367118587
 31
0.0
  0
LINE
  5
1C95
330
828
100
AcDbEntity
  8
DIM
 62
     0
370
    -2
100
AcDbLine
 10
9.194708422525485
 20
31.88931367118587
 30
0.0
 11
9.194708422525485
 21
30.28593867118587
 31
0.0
  0
LINE
  5
1C96
330
828
100
AcDbEntity
  8
DIM
 62
     0
370
    -2
100
AcDbLine
 10
9.194708422525481
 20
27.99631367118587
 30
0.0
 11
9.194708422525485
 21
29.59968867118586
 31
0.0
  0
SOLID
  5
1C97
330
828
100
AcDbEntity
  8
DIM
 62
     0
100
AcDbTrace
 10
9.127208422525482
 20
31.88931367118587
 30
0.0
 11
9.262208422525484
 21
31.88931367118587
 31
0.0
 12
9.194708422525485
 22
32.29431367118587
 32
0.0
 13
9.194708422525485
 23
32.29431367118587
 33
0.0
  0
SOLID
  5
1C98
330
828
100
AcDbEntity
  8
DIM
 62
     0
100
AcDbTrace
 10
9.12720842252548
 20
27.99631367118587
 30
0.0
 11
9.262208422525482
 21
27.99631367118587
 31
0.0
 12
9.194708422525481
 22
27.59131367118587
 32
0.0
 13
9.194708422525481
 23
27.59131367118587
 33
0.0
  0
MTEXT
  5
1C99
330
828
100
AcDbEntity
  8
DIM
 62
     0
100
AcDbMText
 10
9.194708422525476
 20
29.94281367118587
 30
0.0
 40
0.28125
 41
0.0
 71
     5
 72
     1
  1
\A1;A
  7
TXT
 73
     1
 44
1.0
  0
POINT
  5
1C9A
330
828
100
AcDbEntity
  8
DEFPOINTS
 62
     0
100
AcDbPoint
 10
7.323299782493715
 20
32.29431367118587
 30
0.0
  0
POINT
  5
1C9B
330
828
100
AcDbEntity
  8
DEFPOINTS
 62
     0
100
AcDbPoint
 10
7.323299782493715
 20
27.59131367118587
 30
0.0
  0
POINT
  5
1C9C
330
828
100
AcDbEntity
  8
DEFPOINTS
 62
     0
100
AcDbPoint
 10
9.194708422525481
 20
27.59131367118587
 30
0.0
  0
ENDBLK
  5
834
330
828
100
AcDbEntity
  8
0
100
AcDbBlockEnd
  0
BLOCK
  5
840
330
835
100
AcDbEntity
  8
0
100
AcDbBlockBegin
  2
*D5
 70
     1
 10
0.0
 20
0.0
 30
0.0
  3
*D5
  1

  0
LINE
  5
1C38
330
835
100
AcDbEntity
  8
DIM
 62
     0
370
    -2
100
AcDbLine
 10
2.80829978249371
 20
32.24856367118587
 30
0.0
 11
2.80829978249371
 21
33.97756367118585
 31
0.0
  0
LINE
  5
1C39
330
835
100
AcDbEntity
  8
DIM
 62
     0
370
    -2
100
AcDbLine
 10
7.510799782493712
 20
32.24856367118587
 30
0.0
 11
7.510799782493712
 21
33.97756367118585
 31
0.0
  0
LINE
  5
1C3A
330
835
100
AcDbEntity
  8
DIM
 62
     0
370
    -2
100
AcDbLine
 10
3.213299782493711
 20
33.76831367118585
 30
0.0
 11
4.886737282493712
 21
33.76831367118585
 31
0.0
  0
LINE
  5
1C3B
330
835
100
AcDbEntity
  8
DIM
 62
     0
370
    -2
100
AcDbLine
 10
7.10579978249371
 20
33.76831367118585
 30
0.0
 11
5.43236228249371
 21
33.76831367118585
 31
0.0
  0
SOLID
  5
1C3C
330
835
100
AcDbEntity
  8
DIM
 62
     0
100
AcDbTrace
 10
3.213299782493711
 20
33.83581367118586
 30
0.0
 11
3.213299782493711
 21
33.70081367118585
 31
0.0
 12
2.80829978249371
 22
33.76831367118585
 32
0.0
 13
2.80829978249371
 23
33.76831367118585
 33
0.0
  0
SOLID
  5
1C3D
330
835
100
AcDbEntity
  8
DIM
 62
     0
100
AcDbTrace
 10
7.10579978249371
 20
33.83581367118586
 30
0.0
 11
7.10579978249371
 21
33.70081367118585
 31
0.0
 12
7.510799782493712
 22
33.76831367118585
 32
0.0
 13
7.510799782493712
 23
33.76831367118585
 33
0.0
  0
MTEXT
  5
1C3E
330
835
100
AcDbEntity
  8
DIM
 62
     0
100
AcDbMText
 10
5.15954978249371
 20
33.76831367118585
 30
0.0
 40
0.28125
 41
0.0
 71
     5
 72
     1
  1
\A1;B
  7
TXT
 73
     1
 44
1.0
  0
POINT
  5
1C3F
330
835
100
AcDbEntity
  8
DEFPOINTS
 62
     0
100
AcDbPoint
 10
2.80829978249371
 20
32.10681367118587
 30
0.0
  0
POINT
  5
1C40
330
835
100
AcDbEntity
  8
DEFPOINTS
 62
     0
100
AcDbPoint
 10
7.510799782493712
 20
32.10681367118587
 30
0.0
  0
POINT
  5
1C41
330
835
100
AcDbEntity
  8
DEFPOINTS
 62
     0
100
AcDbPoint
 10
7.510799782493712
 20
33.76831367118585
 30
0.0
  0
ENDBLK
  5
841
330
835
100
AcDbEntity
  8
0
100
AcDbBlockEnd
  0
BLOCK
  5
84D
330
842
100
AcDbEntity
  8
0
100
AcDbBlockBegin
  2
*D6
 70
     1
 10
0.0
 20
0.0
 30
0.0
  3
*D6
  1

  0
LINE
  5
1C7F
330
842
100
AcDbEntity
  8
DIM
 62
     0
370
    -2
100
AcDbLine
 10
3.003299782493711
 20
32.24106367118587
 30
0.0
 11
3.003299782493711
 21
33.44981367118585
 31
0.0
  0
LINE
  5
1C80
330
842
100
AcDbEntity
  8
DIM
 62
     0
370
    -2
100
AcDbLine
 10
2.80829978249371
 20
32.24856367118587
 30
0.0
 11
2.80829978249371
 21
33.44981367118585
 31
0.0
  0
LINE
  5
1C81
330
842
100
AcDbEntity
  8
DIM
 62
     0
370
    -2
100
AcDbLine
 10
3.408299782493711
 20
33.24056367118586
 30
0.0
 11
3.813299782493711
 21
33.24056367118586
 31
0.0
  0
LINE
  5
1C82
330
842
100
AcDbEntity
  8
DIM
 62
     0
370
    -2
100
AcDbLine
 10
2.40329978249371
 20
33.24056367118586
 30
0.0
 11
1.99829978249371
 21
33.24056367118586
 31
0.0
  0
SOLID
  5
1C83
330
842
100
AcDbEntity
  8
DIM
 62
     0
100
AcDbTrace
 10
3.408299782493711
 20
33.30806367118587
 30
0.0
 11
3.408299782493711
 21
33.17306367118586
 31
0.0
 12
3.003299782493711
 22
33.24056367118586
 32
0.0
 13
3.003299782493711
 23
33.24056367118586
 33
0.0
  0
SOLID
  5
1C84
330
842
100
AcDbEntity
  8
DIM
 62
     0
100
AcDbTrace
 10
2.40329978249371
 20
33.30806367118587
 30
0.0
 11
2.40329978249371
 21
33.17306367118586
 31
0.0
 12
2.80829978249371
 22
33.24056367118586
 32
0.0
 13
2.80829978249371
 23
33.24056367118586
 33
0.0
  0
MTEXT
  5
1C85
330
842
100
AcDbEntity
  8
DIM
 62
     0
100
AcDbMText
 10
1.72548728249371
 20
33.24056367118586
 30
0.0
 40
0.28125
 41
0.0
 71
     5
 72
     1
  1
\A1;L
  7
TXT
 73
     1
 44
1.0
  0
POINT
  5
1C86
330
842
100
AcDbEntity
  8
DEFPOINTS
 62
     0
100
AcDbPoint
 10
3.003299782493711
 20
32.09931367118587
 30
0.0
  0
POINT
  5
1C87
330
842
100
AcDbEntity
  8
DEFPOINTS
 62
     0
100
AcDbPoint
 10
2.80829978249371
 20
32.10681367118587
 30
0.0
  0
POINT
  5
1C88
330
842
100
AcDbEntity
  8
DEFPOINTS
 62
     0
100
AcDbPoint
 10
2.80829978249371
 20
33.24056367118586
 30
0.0
  0
ENDBLK
  5
84E
330
842
100
AcDbEntity
  8
0
100
AcDbBlockEnd
  0
BLOCK
  5
85A
330
84F
100
AcDbEntity
  8
0
100
AcDbBlockBegin
  2
*D7
 70
     1
 10
0.0
 20
0.0
 30
0.0
  3
*D7
  1

  0
LINE
  5
1C2E
330
84F
100
AcDbEntity
  8
DIM
 62
     0
370
    -2
100
AcDbLine
 10
3.003299782493711
 20
32.24106367118587
 30
0.0
 11
3.003299782493711
 21
33.44981367118585
 31
0.0
  0
LINE
  5
1C2F
330
84F
100
AcDbEntity
  8
DIM
 62
     0
370
    -2
100
AcDbLine
 10
7.31579978249371
 20
32.24106367118587
 30
0.0
 11
7.31579978249371
 21
33.44981367118585
 31
0.0
  0
LINE
  5
1C30
330
84F
100
AcDbEntity
  8
DIM
 62
     0
370
    -2
100
AcDbLine
 10
3.408299782493711
 20
33.24056367118586
 30
0.0
 11
4.886737282493712
 21
33.24056367118586
 31
0.0
  0
LINE
  5
1C31
330
84F
100
AcDbEntity
  8
DIM
 62
     0
370
    -2
100
AcDbLine
 10
6.91079978249371
 20
33.24056367118586
 30
0.0
 11
5.43236228249371
 21
33.24056367118586
 31
0.0
  0
SOLID
  5
1C32
330
84F
100
AcDbEntity
  8
DIM
 62
     0
100
AcDbTrace
 10
3.408299782493711
 20
33.30806367118587
 30
0.0
 11
3.408299782493711
 21
33.17306367118586
 31
0.0
 12
3.003299782493711
 22
33.24056367118586
 32
0.0
 13
3.003299782493711
 23
33.24056367118586
 33
0.0
  0
SOLID
  5
1C33
330
84F
100
AcDbEntity
  8
DIM
 62
     0
100
AcDbTrace
 10
6.91079978249371
 20
33.30806367118587
 30
0.0
 11
6.91079978249371
 21
33.17306367118586
 31
0.0
 12
7.31579978249371
 22
33.24056367118586
 32
0.0
 13
7.31579978249371
 23
33.24056367118586
 33
0.0
  0
MTEXT
  5
1C34
330
84F
100
AcDbEntity
  8
DIM
 62
     0
100
AcDbMText
 10
5.15954978249371
 20
33.24056367118586
 30
0.0
 40
0.28125
 41
0.0
 71
     5
 72
     1
  1
\A1;F
  7
TXT
 73
     1
 44
1.0
  0
POINT
  5
1C35
330
84F
100
AcDbEntity
  8
DEFPOINTS
 62
     0
100
AcDbPoint
 10
3.003299782493711
 20
32.09931367118587
 30
0.0
  0
POINT
  5
1C36
330
84F
100
AcDbEntity
  8
DEFPOINTS
 62
     0
100
AcDbPoint
 10
7.31579978249371
 20
32.09931367118587
 30
0.0
  0
POINT
  5
1C37
330
84F
100
AcDbEntity
  8
DEFPOINTS
 62
     0
100
AcDbPoint
 10
7.31579978249371
 20
33.24056367118586
 30
0.0
  0
ENDBLK
  5
85B
330
84F
100
AcDbEntity
  8
0
100
AcDbBlockEnd
  0
BLOCK
  5
868
330
85C
100
AcDbEntity
  8
0
100
AcDbBlockBegin
  2
*D8
 70
     1
 10
0.0
 20
0.0
 30
0.0
  3
*D8
  1

  0
LINE
  5
1CF8
330
85C
100
AcDbEntity
  8
DIM
 62
     0
370
    -2
100
AcDbLine
 10
7.45754978249371
 20
32.09931367118588
 30
0.0
 11
8.820787403417551
 21
32.09931367118588
 31
0.0
  0
LINE
  5
1CF9
330
85C
100
AcDbEntity
  8
DIM
 62
     0
370
    -2
100
AcDbLine
 10
7.465049782493712
 20
32.29431367118588
 30
0.0
 11
8.820787403417551
 21
32.29431367118588
 31
0.0
  0
LINE
  5
1CFA
330
85C
100
AcDbEntity
  8
DIM
 62
     0
370
    -2
100
AcDbLine
 10
8.611537403417552
 20
31.69431367118587
 30
0.0
 11
8.611537403417552
 21
31.28931367118588
 31
0.0
  0
LINE
  5
1CFB
330
85C
100
AcDbEntity
  8
DIM
 62
     0
370
    -2
100
AcDbLine
 10
8.611537403417552
 20
32.69931367118587
 30
0.0
 11
8.611537403417552
 21
33.10431367118587
 31
0.0
  0
LINE
  5
1CFC
330
85C
100
AcDbEntity
  8
DIM
 62
     0
370
    -2
100
AcDbLine
 10
8.611537403417552
 20
33.10431367118587
 30
0.0
 11
9.016537403417553
 21
33.10431367118587
 31
0.0
  0
SOLID
  5
1CFD
330
85C
100
AcDbEntity
  8
DIM
 62
     0
100
AcDbTrace
 10
8.544037403417549
 20
31.69431367118587
 30
0.0
 11
8.679037403417552
 21
31.69431367118587
 31
0.0
 12
8.611537403417552
 22
32.09931367118588
 32
0.0
 13
8.611537403417552
 23
32.09931367118588
 33
0.0
  0
SOLID
  5
1CFE
330
85C
100
AcDbEntity
  8
DIM
 62
     0
100
AcDbTrace
 10
8.544037403417549
 20
32.69931367118587
 30
0.0
 11
8.679037403417552
 21
32.69931367118587
 31
0.0
 12
8.611537403417552
 22
32.29431367118588
 32
0.0
 13
8.611537403417552
 23
32.29431367118588
 33
0.0
  0
MTEXT
  5
1CFF
330
85C
100
AcDbEntity
  8
DIM
 62
     0
100
AcDbMText
 10
9.289349903417546
 20
33.10431367118587
 30
0.0
 40
0.28125
 41
0.0
 71
     5
 72
     1
  1
\A1;L
  7
TXT
 73
     1
 44
1.0
  0
POINT
  5
1D00
330
85C
100
AcDbEntity
  8
DEFPOINTS
 62
     0
100
AcDbPoint
 10
7.31579978249371
 20
32.09931367118588
 30
0.0
  0
POINT
  5
1D01
330
85C
100
AcDbEntity
  8
DEFPOINTS
 62
     0
100
AcDbPoint
 10
7.323299782493712
 20
32.29431367118588
 30
0.0
  0
POINT
  5
1D02
330
85C
100
AcDbEntity
  8
DEFPOINTS
 62
     0
100
AcDbPoint
 10
8.611537403417552
 20
32.29431367118588
 30
0.0
  0
ENDBLK
  5
869
330
85C
100
AcDbEntity
  8
0
100
AcDbBlockEnd
  0
BLOCK
  5
875
330
86A
100
AcDbEntity
  8
0
100
AcDbBlockBegin
  2
*D9
 70
     1
 10
0.0
 20
0.0
 30
0.0
  3
*D9
  1

  0
LINE
  5
1C89
330
86A
100
AcDbEntity
  8
DIM
 62
     0
370
    -2
100
AcDbLine
 10
7.457549782493715
 20
27.78631367118586
 30
0.0
 11
8.217933241158915
 21
27.78631367118586
 31
0.0
  0
LINE
  5
1C8A
330
86A
100
AcDbEntity
  8
DIM
 62
     0
370
    -2
100
AcDbLine
 10
7.457549782493715
 20
29.94281367118587
 30
0.0
 11
8.217933241158918
 21
29.94281367118587
 31
0.0
  0
LINE
  5
1C8B
330
86A
100
AcDbEntity
  8
DIM
 62
     0
370
    -2
100
AcDbLine
 10
8.008683241158916
 20
28.19131367118587
 30
0.0
 11
8.008683241158916
 21
28.52143867118586
 31
0.0
  0
LINE
  5
1C8C
330
86A
100
AcDbEntity
  8
DIM
 62
     0
370
    -2
100
AcDbLine
 10
8.008683241158916
 20
29.53781367118587
 30
0.0
 11
8.008683241158916
 21
29.20768867118587
 31
0.0
  0
SOLID
  5
1C8D
330
86A
100
AcDbEntity
  8
DIM
 62
     0
100
AcDbTrace
 10
7.941183241158914
 20
28.19131367118587
 30
0.0
 11
8.076183241158918
 21
28.19131367118587
 31
0.0
 12
8.008683241158914
 22
27.78631367118586
 32
0.0
 13
8.008683241158914
 23
27.78631367118586
 33
0.0
  0
SOLID
  5
1C8E
330
86A
100
AcDbEntity
  8
DIM
 62
     0
100
AcDbTrace
 10
7.941183241158914
 20
29.53781367118587
 30
0.0
 11
8.076183241158918
 21
29.53781367118587
 31
0.0
 12
8.008683241158916
 22
29.94281367118587
 32
0.0
 13
8.008683241158916
 23
29.94281367118587
 33
0.0
  0
MTEXT
  5
1C8F
330
86A
100
AcDbEntity
  8
DIM
 62
     0
100
AcDbMText
 10
8.008683241158911
 20
28.86456367118586
 30
0.0
 40
0.28125
 41
0.0
 71
     5
 72
     1
  1
\A1;G
  7
TXT
 73
     1
 44
1.0
  0
POINT
  5
1C90
330
86A
100
AcDbEntity
  8
DEFPOINTS
 62
     0
100
AcDbPoint
 10
7.315799782493715
 20
27.78631367118586
 30
0.0
  0
POINT
  5
1C91
330
86A
100
AcDbEntity
  8
DEFPOINTS
 62
     0
100
AcDbPoint
 10
7.315799782493715
 20
29.94281367118587
 30
0.0
  0
POINT
  5
1C92
330
86A
100
AcDbEntity
  8
DEFPOINTS
 62
     0
100
AcDbPoint
 10
8.008683241158916
 20
29.94281367118587
 30
0.0
  0
ENDBLK
  5
876
330
86A
100
AcDbEntity
  8
0
100
AcDbBlockEnd
  0
BLOCK
  5
882
330
877
100
AcDbEntity
  8
0
100
AcDbBlockBegin
  2
*D10
 70
     1
 10
0.0
 20
0.0
 30
0.0
  3
*D10
  1

  0
LINE
  5
1CC6
330
877
100
AcDbEntity
  8
DIM
 62
     0
370
    -2
100
AcDbLine
 10
7.457549782493712
 20
24.45368284933624
 30
0.0
 11
8.217933241158918
 21
24.45368284933623
 31
0.0
  0
LINE
  5
1CC7
330
877
100
AcDbEntity
  8
DIM
 62
     0
370
    -2
100
AcDbLine
 10
7.457549782493712
 20
22.29718284933623
 30
0.0
 11
8.217933241158918
 21
22.29718284933623
 31
0.0
  0
LINE
  5
1CC8
330
877
100
AcDbEntity
  8
DIM
 62
     0
370
    -2
100
AcDbLine
 10
8.008683241158918
 20
24.04868284933622
 30
0.0
 11
8.008683241158918
 21
23.71855784933623
 31
0.0
  0
LINE
  5
1CC9
330
877
100
AcDbEntity
  8
DIM
 62
     0
370
    -2
100
AcDbLine
 10
8.008683241158918
 20
22.70218284933622
 30
0.0
 11
8.008683241158918
 21
23.03230784933622
 31
0.0
  0
SOLID
  5
1CCA
330
877
100
AcDbEntity
  8
DIM
 62
     0
100
AcDbTrace
 10
7.941183241158918
 20
24.04868284933622
 30
0.0
 11
8.076183241158918
 21
24.04868284933622
 31
0.0
 12
8.008683241158918
 22
24.45368284933623
 32
0.0
 13
8.008683241158918
 23
24.45368284933623
 33
0.0
  0
SOLID
  5
1CCB
330
877
100
AcDbEntity
  8
DIM
 62
     0
100
AcDbTrace
 10
7.941183241158918
 20
22.70218284933624
 30
0.0
 11
8.076183241158918
 21
22.70218284933622
 31
0.0
 12
8.008683241158918
 22
22.29718284933623
 32
0.0
 13
8.008683241158918
 23
22.29718284933623
 33
0.0
  0
MTEXT
  5
1CCC
330
877
100
AcDbEntity
  8
DIM
 62
     0
100
AcDbMText
 10
8.008683241158914
 20
23.37543284933623
 30
0.0
 40
0.28125
 41
0.0
 71
     5
 72
     1
  1
\A1;G
  7
TXT
 73
     1
 44
1.0
  0
POINT
  5
1CCD
330
877
100
AcDbEntity
  8
DEFPOINTS
 62
     0
100
AcDbPoint
 10
7.315799782493712
 20
24.45368284933624
 30
0.0
  0
POINT
  5
1CCE
330
877
100
AcDbEntity
  8
DEFPOINTS
 62
     0
100
AcDbPoint
 10
7.315799782493712
 20
22.29718284933623
 30
0.0
  0
POINT
  5
1CCF
330
877
100
AcDbEntity
  8
DEFPOINTS
 62
     0
100
AcDbPoint
 10
8.008683241158918
 20
22.29718284933623
 30
0.0
  0
ENDBLK
  5
883
330
877
100
AcDbEntity
  8
0
100
AcDbBlockEnd
  0
BLOCK
  5
890
330
884
100
AcDbEntity
  8
0
100
AcDbBlockBegin
  2
*D11
 70
     1
 10
0.0
 20
0.0
 30
0.0
  3
*D11
  1

  0
LINE
  5
1CB1
330
884
100
AcDbEntity
  8
DIM
 62
     0
370
    -2
100
AcDbLine
 10
8.091006543773763
 20
24.45368284933623
 30
0.0
 11
8.820787403417554
 21
24.45368284933623
 31
0.0
  0
LINE
  5
1CB2
330
884
100
AcDbEntity
  8
DIM
 62
     0
370
    -2
100
AcDbLine
 10
8.098506543773762
 20
24.64868284933622
 30
0.0
 11
8.820787403417554
 21
24.64868284933622
 31
0.0
  0
LINE
  5
1CB3
330
884
100
AcDbEntity
  8
DIM
 62
     0
370
    -2
100
AcDbLine
 10
8.611537403417552
 20
24.04868284933622
 30
0.0
 11
8.611537403417552
 21
23.64368284933623
 31
0.0
  0
LINE
  5
1CB4
330
884
100
AcDbEntity
  8
DIM
 62
     0
370
    -2
100
AcDbLine
 10
8.611537403417552
 20
25.05368284933623
 30
0.0
 11
8.611537403417552
 21
25.45868284933622
 31
0.0
  0
LINE
  5
1CB5
330
884
100
AcDbEntity
  8
DIM
 62
     0
370
    -2
100
AcDbLine
 10
8.611537403417552
 20
25.45868284933622
 30
0.0
 11
9.016537403417553
 21
25.45868284933622
 31
0.0
  0
SOLID
  5
1CB6
330
884
100
AcDbEntity
  8
DIM
 62
     0
100
AcDbTrace
 10
8.544037403417553
 20
24.04868284933622
 30
0.0
 11
8.679037403417554
 21
24.04868284933622
 31
0.0
 12
8.611537403417552
 22
24.45368284933623
 32
0.0
 13
8.611537403417552
 23
24.45368284933623
 33
0.0
  0
SOLID
  5
1CB7
330
884
100
AcDbEntity
  8
DIM
 62
     0
100
AcDbTrace
 10
8.544037403417553
 20
25.05368284933623
 30
0.0
 11
8.679037403417554
 21
25.05368284933623
 31
0.0
 12
8.611537403417552
 22
24.64868284933622
 32
0.0
 13
8.611537403417552
 23
24.64868284933622
 33
0.0
  0
MTEXT
  5
1CB8
330
884
100
AcDbEntity
  8
DIM
 62
     0
100
AcDbMText
 10
9.28934990341755
 20
25.45868284933622
 30
0.0
 40
0.28125
 41
0.0
 71
     5
 72
     1
  1
\A1;L
  7
TXT
 73
     1
 44
1.0
  0
POINT
  5
1CB9
330
884
100
AcDbEntity
  8
DEFPOINTS
 62
     0
100
AcDbPoint
 10
7.949256543773763
 20
24.45368284933623
 30
0.0
  0
POINT
  5
1CBA
330
884
100
AcDbEntity
  8
DEFPOINTS
 62
     0
100
AcDbPoint
 10
7.956756543773764
 20
24.64868284933622
 30
0.0
  0
POINT
  5
1CBB
330
884
100
AcDbEntity
  8
DEFPOINTS
 62
     0
100
AcDbPoint
 10
8.611537403417552
 20
24.64868284933622
 30
0.0
  0
ENDBLK
  5
891
330
884
100
AcDbEntity
  8
0
100
AcDbBlockEnd
  0
BLOCK
  5
89D
330
892
100
AcDbEntity
  8
0
100
AcDbBlockBegin
  2
*D12
 70
     1
 10
0.0
 20
0.0
 30
0.0
  3
*D12
  1

  0
LINE
  5
1CEE
330
892
100
AcDbEntity
  8
DIM
 62
     0
370
    -2
100
AcDbLine
 10
7.457549782493715
 20
32.09931367118587
 30
0.0
 11
8.217933241158918
 21
32.09931367118587
 31
0.0
  0
LINE
  5
1CEF
330
892
100
AcDbEntity
  8
DIM
 62
     0
370
    -2
100
AcDbLine
 10
7.457549782493715
 20
29.94281367118587
 30
0.0
 11
8.217933241158918
 21
29.94281367118587
 31
0.0
  0
LINE
  5
1CF0
330
892
100
AcDbEntity
  8
DIM
 62
     0
370
    -2
100
AcDbLine
 10
8.008683241158916
 20
31.69431367118587
 30
0.0
 11
8.008683241158916
 21
31.36418867118587
 31
0.0
  0
LINE
  5
1CF1
330
892
100
AcDbEntity
  8
DIM
 62
     0
370
    -2
100
AcDbLine
 10
8.008683241158916
 20
30.34781367118587
 30
0.0
 11
8.008683241158916
 21
30.67793867118587
 31
0.0
  0
SOLID
  5
1CF2
330
892
100
AcDbEntity
  8
DIM
 62
     0
100
AcDbTrace
 10
7.941183241158915
 20
31.69431367118587
 30
0.0
 11
8.076183241158918
 21
31.69431367118587
 31
0.0
 12
8.008683241158916
 22
32.09931367118587
 32
0.0
 13
8.008683241158916
 23
32.09931367118587
 33
0.0
  0
SOLID
  5
1CF3
330
892
100
AcDbEntity
  8
DIM
 62
     0
100
AcDbTrace
 10
7.941183241158915
 20
30.34781367118587
 30
0.0
 11
8.076183241158918
 21
30.34781367118587
 31
0.0
 12
8.008683241158916
 22
29.94281367118587
 32
0.0
 13
8.008683241158916
 23
29.94281367118587
 33
0.0
  0
MTEXT
  5
1CF4
330
892
100
AcDbEntity
  8
DIM
 62
     0
100
AcDbMText
 10
8.008683241158911
 20
31.02106367118587
 30
0.0
 40
0.28125
 41
0.0
 71
     5
 72
     1
  1
\A1;G
  7
TXT
 73
     1
 44
1.0
  0
POINT
  5
1CF5
330
892
100
AcDbEntity
  8
DEFPOINTS
 62
     0
100
AcDbPoint
 10
7.315799782493715
 20
32.09931367118587
 30
0.0
  0
POINT
  5
1CF6
330
892
100
AcDbEntity
  8
DEFPOINTS
 62
     0
100
AcDbPoint
 10
7.315799782493715
 20
29.94281367118587
 30
0.0
  0
POINT
  5
1CF7
330
892
100
AcDbEntity
  8
DEFPOINTS
 62
     0
100
AcDbPoint
 10
8.008683241158916
 20
29.94281367118587
 30
0.0
  0
ENDBLK
  5
89E
330
892
100
AcDbEntity
  8
0
100
AcDbBlockEnd
  0
BLOCK
  5
8AA
330
89F
100
AcDbEntity
  8
0
100
AcDbBlockBegin
  2
*D13
 70
     1
 10
0.0
 20
0.0
 30
0.0
  3
*D13
  1

  0
LINE
  5
1A6D
330
89F
100
AcDbEntity
  8
DIM
 62
     0
370
    -2
100
AcDbLine
 10
3.437486448785568
 20
13.87757321023416
 30
0.0
 11
2.324554304007555
 21
13.87757321023416
 31
0.0
  0
LINE
  5
1A6E
330
89F
100
AcDbEntity
  8
DIM
 62
     0
370
    -2
100
AcDbLine
 10
2.952304304007553
 20
11.81507321023416
 30
0.0
 11
2.324554304007555
 21
11.81507321023416
 31
0.0
  0
LINE
  5
1A6F
330
89F
100
AcDbEntity
  8
DIM
 62
     0
370
    -2
100
AcDbLine
 10
2.533804304007555
 20
13.47257321023415
 30
0.0
 11
2.533804304007555
 21
13.18944821023416
 31
0.0
  0
LINE
  5
1A70
330
89F
100
AcDbEntity
  8
DIM
 62
     0
370
    -2
100
AcDbLine
 10
2.533804304007555
 20
12.22007321023416
 30
0.0
 11
2.533804304007555
 21
12.50319821023416
 31
0.0
  0
SOLID
  5
1A71
330
89F
100
AcDbEntity
  8
DIM
 62
     0
100
AcDbTrace
 10
2.466304304007555
 20
13.47257321023415
 30
0.0
 11
2.601304304007555
 21
13.47257321023415
 31
0.0
 12
2.533804304007555
 22
13.87757321023416
 32
0.0
 13
2.533804304007555
 23
13.87757321023416
 33
0.0
  0
SOLID
  5
1A72
330
89F
100
AcDbEntity
  8
DIM
 62
     0
100
AcDbTrace
 10
2.466304304007555
 20
12.22007321023416
 30
0.0
 11
2.601304304007554
 21
12.22007321023416
 31
0.0
 12
2.533804304007555
 22
11.81507321023416
 32
0.0
 13
2.533804304007555
 23
11.81507321023416
 33
0.0
  0
MTEXT
  5
1A73
330
89F
100
AcDbEntity
  8
DIM
 62
     0
100
AcDbMText
 10
2.533804304007553
 20
12.84632321023416
 30
0.0
 40
0.28125
 41
0.0
 71
     5
 72
     1
  1
\A1;D
  7
TXT
 73
     1
 44
1.0
  0
POINT
  5
1A74
330
89F
100
AcDbEntity
  8
DEFPOINTS
 62
     0
100
AcDbPoint
 10
3.579236448785569
 20
13.87757321023416
 30
0.0
  0
POINT
  5
1A75
330
89F
100
AcDbEntity
  8
DEFPOINTS
 62
     0
100
AcDbPoint
 10
3.094054304007553
 20
11.81507321023416
 30
0.0
  0
POINT
  5
1A76
330
89F
100
AcDbEntity
  8
DEFPOINTS
 62
     0
100
AcDbPoint
 10
2.533804304007555
 20
11.81507321023416
 30
0.0
  0
ENDBLK
  5
8AB
330
89F
100
AcDbEntity
  8
0
100
AcDbBlockEnd
  0
BLOCK
  5
8B8
330
8AC
100
AcDbEntity
  8
0
100
AcDbBlockBegin
  2
*D14
 70
     1
 10
0.0
 20
0.0
 30
0.0
  3
*D14
  1

  0
LINE
  5
1A8C
330
8AC
100
AcDbEntity
  8
DIM
 62
     0
370
    -2
100
AcDbLine
 10
3.452315139815018
 20
15.63018839953522
 30
0.0
 11
2.57746731597916
 21
15.63018839953522
 31
0.0
  0
LINE
  5
1A8D
330
8AC
100
AcDbEntity
  8
DIM
 62
     0
370
    -2
100
AcDbLine
 10
3.343679304007553
 20
15.86456339953521
 30
0.0
 11
2.57746731597916
 21
15.86456339953521
 31
0.0
  0
LINE
  5
1A8E
330
8AC
100
AcDbEntity
  8
DIM
 62
     0
370
    -2
100
AcDbLine
 10
2.78671731597916
 20
15.22518839953522
 30
0.0
 11
2.78671731597916
 21
14.82018839953521
 31
0.0
  0
LINE
  5
1A8F
330
8AC
100
AcDbEntity
  8
DIM
 62
     0
370
    -2
100
AcDbLine
 10
2.78671731597916
 20
16.26956339953521
 30
0.0
 11
2.78671731597916
 21
16.6745633995352
 31
0.0
  0
LINE
  5
1A90
330
8AC
100
AcDbEntity
  8
DIM
 62
     0
370
    -2
100
AcDbLine
 10
2.78671731597916
 20
16.6745633995352
 30
0.0
 11
3.191717315979159
 21
16.6745633995352
 31
0.0
  0
SOLID
  5
1A91
330
8AC
100
AcDbEntity
  8
DIM
 62
     0
100
AcDbTrace
 10
2.71921731597916
 20
15.22518839953522
 30
0.0
 11
2.854217315979159
 21
15.22518839953522
 31
0.0
 12
2.78671731597916
 22
15.63018839953522
 32
0.0
 13
2.78671731597916
 23
15.63018839953522
 33
0.0
  0
SOLID
  5
1A92
330
8AC
100
AcDbEntity
  8
DIM
 62
     0
100
AcDbTrace
 10
2.71921731597916
 20
16.26956339953521
 30
0.0
 11
2.854217315979159
 21
16.26956339953521
 31
0.0
 12
2.78671731597916
 22
15.86456339953521
 32
0.0
 13
2.78671731597916
 23
15.86456339953521
 33
0.0
  0
MTEXT
  5
1A93
330
8AC
100
AcDbEntity
  8
DIM
 62
     0
100
AcDbMText
 10
3.798514190979156
 20
16.6745633995352
 30
0.0
 40
0.28125
 41
0.0
 71
     5
 72
     1
  1
\A1;0.234
  7
TXT
 73
     1
 44
1.0
  0
POINT
  5
1A94
330
8AC
100
AcDbEntity
  8
DEFPOINTS
 62
     0
100
AcDbPoint
 10
3.594065139815018
 20
15.63018839953522
 30
0.0
  0
POINT
  5
1A95
330
8AC
100
AcDbEntity
  8
DEFPOINTS
 62
     0
100
AcDbPoint
 10
3.485429304007553
 20
15.86456339953521
 30
0.0
  0
POINT
  5
1A96
330
8AC
100
AcDbEntity
  8
DEFPOINTS
 62
     0
100
AcDbPoint
 10
2.78671731597916
 20
15.86456339953521
 30
0.0
  0
ENDBLK
  5
8B9
330
8AC
100
AcDbEntity
  8
0
100
AcDbBlockEnd
  0
BLOCK
  5
8C6
330
8BA
100
AcDbEntity
  8
0
100
AcDbBlockBegin
  2
*D15
 70
     1
 10
0.0
 20
0.0
 30
0.0
  3
*D15
  1

  0
LINE
  5
1A81
330
8BA
100
AcDbEntity
  8
DIM
 62
     0
370
    -2
100
AcDbLine
 10
4.376288851054907
 20
11.81507321023416
 30
0.0
 11
4.478587794435807
 21
11.81507321023416
 31
0.0
  0
LINE
  5
1A82
330
8BA
100
AcDbEntity
  8
DIM
 62
     0
370
    -2
100
AcDbLine
 10
4.376288851054907
 20
11.89319821023416
 30
0.0
 11
4.478587794435807
 21
11.89319821023416
 31
0.0
  0
LINE
  5
1A83
330
8BA
100
AcDbEntity
  8
DIM
 62
     0
370
    -2
100
AcDbLine
 10
4.269337794435806
 20
11.41007321023415
 30
0.0
 11
4.269337794435806
 21
11.00507321023415
 31
0.0
  0
LINE
  5
1A84
330
8BA
100
AcDbEntity
  8
DIM
 62
     0
370
    -2
100
AcDbLine
 10
4.269337794435806
 20
12.29819821023416
 30
0.0
 11
4.269337794435806
 21
12.70319821023416
 31
0.0
  0
LINE
  5
1A85
330
8BA
100
AcDbEntity
  8
DIM
 62
     0
370
    -2
100
AcDbLine
 10
4.269337794435806
 20
12.70319821023416
 30
0.0
 11
4.674337794435806
 21
12.70319821023416
 31
0.0
  0
SOLID
  5
1A86
330
8BA
100
AcDbEntity
  8
DIM
 62
     0
100
AcDbTrace
 10
4.201837794435806
 20
11.41007321023415
 30
0.0
 11
4.336837794435806
 21
11.41007321023415
 31
0.0
 12
4.269337794435806
 22
11.81507321023416
 32
0.0
 13
4.269337794435806
 23
11.81507321023416
 33
0.0
  0
SOLID
  5
1A87
330
8BA
100
AcDbEntity
  8
DIM
 62
     0
100
AcDbTrace
 10
4.201837794435806
 20
12.29819821023416
 30
0.0
 11
4.336837794435806
 21
12.29819821023416
 31
0.0
 12
4.269337794435806
 22
11.89319821023416
 32
0.0
 13
4.269337794435806
 23
11.89319821023416
 33
0.0
  0
MTEXT
  5
1A88
330
8BA
100
AcDbEntity
  8
DIM
 62
     0
100
AcDbMText
 10
4.947150294435803
 20
12.70319821023416
 30
0.0
 40
0.28125
 41
0.0
 71
     5
 72
     1
  1
\A1;K
  7
TXT
 73
     1
 44
1.0
  0
POINT
  5
1A89
330
8BA
100
AcDbEntity
  8
DEFPOINTS
 62
     0
100
AcDbPoint
 10
4.234538851054907
 20
11.81507321023416
 30
0.0
  0
POINT
  5
1A8A
330
8BA
100
AcDbEntity
  8
DEFPOINTS
 62
     0
100
AcDbPoint
 10
4.234538851054907
 20
11.89319821023416
 30
0.0
  0
POINT
  5
1A8B
330
8BA
100
AcDbEntity
  8
DEFPOINTS
 62
     0
100
AcDbPoint
 10
4.269337794435806
 20
11.89319821023416
 30
0.0
  0
ENDBLK
  5
8C7
330
8BA
100
AcDbEntity
  8
0
100
AcDbBlockEnd
  0
BLOCK
  5
8D4
330
8C8
100
AcDbEntity
  8
0
100
AcDbBlockBegin
  2
*D16
 70
     1
 10
0.0
 20
0.0
 30
0.0
  3
*D16
  1

  0
LINE
  5
1A57
330
8C8
100
AcDbEntity
  8
DIM
 62
     0
370
    -2
100
AcDbLine
 10
7.731214999274321
 20
13.78382321023416
 30
0.0
 11
7.312714999274318
 21
13.78382321023416
 31
0.0
  0
LINE
  5
1A58
330
8C8
100
AcDbEntity
  8
DIM
 62
     0
370
    -2
100
AcDbLine
 10
7.953372159229536
 20
13.87757321023416
 30
0.0
 11
7.312714999274318
 21
13.87757321023416
 31
0.0
  0
LINE
  5
1A59
330
8C8
100
AcDbEntity
  8
DIM
 62
     0
370
    -2
100
AcDbLine
 10
7.521964999274318
 20
13.37882321023416
 30
0.0
 11
7.521964999274318
 21
12.97382321023416
 31
0.0
  0
LINE
  5
1A5A
330
8C8
100
AcDbEntity
  8
DIM
 62
     0
370
    -2
100
AcDbLine
 10
7.52196499927432
 20
14.28257321023416
 30
0.0
 11
7.52196499927432
 21
14.68757321023416
 31
0.0
  0
LINE
  5
1A5B
330
8C8
100
AcDbEntity
  8
DIM
 62
     0
370
    -2
100
AcDbLine
 10
7.52196499927432
 20
14.68757321023416
 30
0.0
 11
7.92696499927432
 21
14.68757321023416
 31
0.0
  0
SOLID
  5
1A5C
330
8C8
100
AcDbEntity
  8
DIM
 62
     0
100
AcDbTrace
 10
7.454464999274318
 20
13.37882321023416
 30
0.0
 11
7.589464999274317
 21
13.37882321023416
 31
0.0
 12
7.521964999274318
 22
13.78382321023416
 32
0.0
 13
7.521964999274318
 23
13.78382321023416
 33
0.0
  0
SOLID
  5
1A5D
330
8C8
100
AcDbEntity
  8
DIM
 62
     0
100
AcDbTrace
 10
7.45446499927432
 20
14.28257321023416
 30
0.0
 11
7.58946499927432
 21
14.28257321023416
 31
0.0
 12
7.521964999274318
 22
13.87757321023416
 32
0.0
 13
7.521964999274318
 23
13.87757321023416
 33
0.0
  0
MTEXT
  5
1A5E
330
8C8
100
AcDbEntity
  8
DIM
 62
     0
100
AcDbMText
 10
8.516183749274317
 20
14.68757321023416
 30
0.0
 40
0.28125
 41
0.0
 71
     5
 72
     1
  1
\A1;0.094
  7
TXT
 73
     1
 44
1.0
  0
POINT
  5
1A5F
330
8C8
100
AcDbEntity
  8
DEFPOINTS
 62
     0
100
AcDbPoint
 10
7.872964999274321
 20
13.78382321023416
 30
0.0
  0
POINT
  5
1A60
330
8C8
100
AcDbEntity
  8
DEFPOINTS
 62
     0
100
AcDbPoint
 10
8.095122159229539
 20
13.87757321023416
 30
0.0
  0
POINT
  5
1A61
330
8C8
100
AcDbEntity
  8
DEFPOINTS
 62
     0
100
AcDbPoint
 10
7.521964999274318
 20
13.87757321023416
 30
0.0
  0
ENDBLK
  5
8D5
330
8C8
100
AcDbEntity
  8
0
100
AcDbBlockEnd
  0
BLOCK
  5
8E1
330
8D6
100
AcDbEntity
  8
0
100
AcDbBlockBegin
  2
*D17
 70
     1
 10
0.0
 20
0.0
 30
0.0
  3
*D17
  1

  0
LINE
  5
1A77
330
8D6
100
AcDbEntity
  8
DIM
 62
     0
370
    -2
100
AcDbLine
 10
3.578736448785569
 20
14.01932321023416
 30
0.0
 11
3.578736448785569
 21
14.64707321023416
 31
0.0
  0
LINE
  5
1A78
330
8D6
100
AcDbEntity
  8
DIM
 62
     0
370
    -2
100
AcDbLine
 10
3.484929304007556
 20
14.01932321023416
 30
0.0
 11
3.484929304007556
 21
14.64707321023416
 31
0.0
  0
LINE
  5
1A79
330
8D6
100
AcDbEntity
  8
DIM
 62
     0
370
    -2
100
AcDbLine
 10
3.983736448785569
 20
14.43782321023416
 30
0.0
 11
4.388736448785569
 21
14.43782321023416
 31
0.0
  0
LINE
  5
1A7A
330
8D6
100
AcDbEntity
  8
DIM
 62
     0
370
    -2
100
AcDbLine
 10
3.079929304007558
 20
14.43782321023416
 30
0.0
 11
2.674929304007556
 21
14.43782321023416
 31
0.0
  0
SOLID
  5
1A7B
330
8D6
100
AcDbEntity
  8
DIM
 62
     0
100
AcDbTrace
 10
3.983736448785569
 20
14.50532321023415
 30
0.0
 11
3.983736448785569
 21
14.37032321023416
 31
0.0
 12
3.578736448785569
 22
14.43782321023416
 32
0.0
 13
3.578736448785569
 23
14.43782321023416
 33
0.0
  0
SOLID
  5
1A7C
330
8D6
100
AcDbEntity
  8
DIM
 62
     0
100
AcDbTrace
 10
3.079929304007558
 20
14.50532321023415
 30
0.0
 11
3.079929304007558
 21
14.37032321023416
 31
0.0
 12
3.484929304007556
 22
14.43782321023416
 32
0.0
 13
3.484929304007556
 23
14.43782321023416
 33
0.0
  0
MTEXT
  5
1A7D
330
8D6
100
AcDbEntity
  8
DIM
 62
     0
100
AcDbMText
 10
2.402116804007556
 20
14.43782321023416
 30
0.0
 40
0.28125
 41
0.0
 71
     5
 72
     1
  1
\A1;J
  7
TXT
 73
     1
 44
1.0
  0
POINT
  5
1A7E
330
8D6
100
AcDbEntity
  8
DEFPOINTS
 62
     0
100
AcDbPoint
 10
3.578736448785569
 20
13.87757321023416
 30
0.0
  0
POINT
  5
1A7F
330
8D6
100
AcDbEntity
  8
DEFPOINTS
 62
     0
100
AcDbPoint
 10
3.484929304007556
 20
13.87757321023416
 30
0.0
  0
POINT
  5
1A80
330
8D6
100
AcDbEntity
  8
DEFPOINTS
 62
     0
100
AcDbPoint
 10
3.484929304007556
 20
14.43782321023416
 30
0.0
  0
ENDBLK
  5
8E2
330
8D6
100
AcDbEntity
  8
0
100
AcDbBlockEnd
  0
BLOCK
  5
8EF
330
8E3
100
AcDbEntity
  8
0
100
AcDbBlockBegin
  2
*D18
 70
     1
 10
0.0
 20
0.0
 30
0.0
  3
*D18
  1

  0
LINE
  5
1A62
330
8E3
100
AcDbEntity
  8
DIM
 62
     0
370
    -2
100
AcDbLine
 10
7.179075141522096
 20
15.78643839953522
 30
0.0
 11
7.097207816041617
 21
15.78643839953522
 31
0.0
  0
LINE
  5
1A63
330
8E3
100
AcDbEntity
  8
DIM
 62
     0
370
    -2
100
AcDbLine
 10
7.179075141522096
 20
15.86456339953522
 30
0.0
 11
7.097207816041617
 21
15.86456339953522
 31
0.0
  0
LINE
  5
1A64
330
8E3
100
AcDbEntity
  8
DIM
 62
     0
370
    -2
100
AcDbLine
 10
7.306457816041617
 20
15.38143839953522
 30
0.0
 11
7.306457816041617
 21
14.97643839953521
 31
0.0
  0
LINE
  5
1A65
330
8E3
100
AcDbEntity
  8
DIM
 62
     0
370
    -2
100
AcDbLine
 10
7.306457816041617
 20
16.26956339953522
 30
0.0
 11
7.306457816041617
 21
16.67456339953522
 31
0.0
  0
LINE
  5
1A66
330
8E3
100
AcDbEntity
  8
DIM
 62
     0
370
    -2
100
AcDbLine
 10
7.306457816041617
 20
16.67456339953522
 30
0.0
 11
7.711457816041617
 21
16.67456339953522
 31
0.0
  0
SOLID
  5
1A67
330
8E3
100
AcDbEntity
  8
DIM
 62
     0
100
AcDbTrace
 10
7.238957816041617
 20
15.38143839953522
 30
0.0
 11
7.373957816041617
 21
15.38143839953522
 31
0.0
 12
7.306457816041617
 22
15.78643839953522
 32
0.0
 13
7.306457816041617
 23
15.78643839953522
 33
0.0
  0
SOLID
  5
1A68
330
8E3
100
AcDbEntity
  8
DIM
 62
     0
100
AcDbTrace
 10
7.238957816041617
 20
16.26956339953522
 30
0.0
 11
7.373957816041617
 21
16.26956339953522
 31
0.0
 12
7.306457816041617
 22
15.86456339953522
 32
0.0
 13
7.306457816041617
 23
15.86456339953522
 33
0.0
  0
MTEXT
  5
1A69
330
8E3
100
AcDbEntity
  8
DIM
 62
     0
100
AcDbMText
 10
8.300676566041616
 20
16.67456339953522
 30
0.0
 40
0.28125
 41
0.0
 71
     5
 72
     1
  1
\A1;0.078
  7
TXT
 73
     1
 44
1.0
  0
POINT
  5
1A6A
330
8E3
100
AcDbEntity
  8
DEFPOINTS
 62
     0
100
AcDbPoint
 10
7.320825141522096
 20
15.78643839953522
 30
0.0
  0
POINT
  5
1A6B
330
8E3
100
AcDbEntity
  8
DEFPOINTS
 62
     0
100
AcDbPoint
 10
7.320825141522096
 20
15.86456339953522
 30
0.0
  0
POINT
  5
1A6C
330
8E3
100
AcDbEntity
  8
DEFPOINTS
 62
     0
100
AcDbPoint
 10
7.306457816041617
 20
15.86456339953522
 30
0.0
  0
ENDBLK
  5
8F0
330
8E3
100
AcDbEntity
  8
0
100
AcDbBlockEnd
  0
BLOCK
  5
8FD
330
8F1
100
AcDbEntity
  8
0
100
AcDbBlockBegin
  2
*D19
 70
     1
 10
0.0
 20
0.0
 30
0.0
  3
*D19
  1

  0
LINE
  5
1AA2
330
8F1
100
AcDbEntity
  8
DIM
 62
     0
370
    -2
100
AcDbLine
 10
8.330179304007549
 20
15.70831339953522
 30
0.0
 11
9.259501761599366
 21
15.70831339953522
 31
0.0
  0
LINE
  5
1AA3
330
8F1
100
AcDbEntity
  8
DIM
 62
     0
370
    -2
100
AcDbLine
 10
8.330179304007549
 20
15.86456339953522
 30
0.0
 11
9.259501761599366
 21
15.86456339953522
 31
0.0
  0
LINE
  5
1AA4
330
8F1
100
AcDbEntity
  8
DIM
 62
     0
370
    -2
100
AcDbLine
 10
9.050251761599366
 20
15.30331339953522
 30
0.0
 11
9.050251761599366
 21
14.89831339953521
 31
0.0
  0
LINE
  5
1AA5
330
8F1
100
AcDbEntity
  8
DIM
 62
     0
370
    -2
100
AcDbLine
 10
9.050251761599366
 20
16.26956339953522
 30
0.0
 11
9.050251761599366
 21
16.6745633995352
 31
0.0
  0
LINE
  5
1AA6
330
8F1
100
AcDbEntity
  8
DIM
 62
     0
370
    -2
100
AcDbLine
 10
9.050251761599366
 20
16.6745633995352
 30
0.0
 11
9.455251761599363
 21
16.6745633995352
 31
0.0
  0
SOLID
  5
1AA7
330
8F1
100
AcDbEntity
  8
DIM
 62
     0
100
AcDbTrace
 10
8.982751761599365
 20
15.30331339953522
 30
0.0
 11
9.117751761599366
 21
15.30331339953522
 31
0.0
 12
9.050251761599366
 22
15.70831339953522
 32
0.0
 13
9.050251761599366
 23
15.70831339953522
 33
0.0
  0
SOLID
  5
1AA8
330
8F1
100
AcDbEntity
  8
DIM
 62
     0
100
AcDbTrace
 10
8.982751761599365
 20
16.26956339953522
 30
0.0
 11
9.117751761599366
 21
16.26956339953522
 31
0.0
 12
9.050251761599366
 22
15.86456339953522
 32
0.0
 13
9.050251761599366
 23
15.86456339953522
 33
0.0
  0
MTEXT
  5
1AA9
330
8F1
100
AcDbEntity
  8
DIM
 62
     0
100
AcDbMText
 10
10.02689238659935
 20
16.67456339953522
 30
0.0
 40
0.28125
 41
0.0
 71
     5
 72
     1
  1
\A1;0.156
  7
TXT
 73
     1
 44
1.0
  0
POINT
  5
1AAA
330
8F1
100
AcDbEntity
  8
DEFPOINTS
 62
     0
100
AcDbPoint
 10
8.188429304007549
 20
15.70831339953522
 30
0.0
  0
POINT
  5
1AAB
330
8F1
100
AcDbEntity
  8
DEFPOINTS
 62
     0
100
AcDbPoint
 10
8.188429304007549
 20
15.86456339953522
 30
0.0
  0
POINT
  5
1AAC
330
8F1
100
AcDbEntity
  8
DEFPOINTS
 62
     0
100
AcDbPoint
 10
9.050251761599366
 20
15.86456339953522
 30
0.0
  0
ENDBLK
  5
8FE
330
8F1
100
AcDbEntity
  8
0
100
AcDbBlockEnd
  0
BLOCK
  5
A86
330
A7B
100
AcDbEntity
  8
0
100
AcDbBlockBegin
  2
*D20
 70
     1
 10
0.0
 20
0.0
 30
0.0
  3
*D20
  1

  0
LINE
  5
1D03
330
A7B
100
AcDbEntity
  8
DIM
 62
     0
370
    -2
100
AcDbLine
 10
5.159549782493712
 20
32.24231367118587
 30
0.0
 11
5.159549782493712
 21
32.92206367118586
 31
0.0
  0
LINE
  5
1D04
330
A7B
100
AcDbEntity
  8
DIM
 62
     0
370
    -2
100
AcDbLine
 10
7.31579978249371
 20
32.24106367118587
 30
0.0
 11
7.31579978249371
 21
32.92206367118586
 31
0.0
  0
LINE
  5
1D05
330
A7B
100
AcDbEntity
  8
DIM
 62
     0
370
    -2
100
AcDbLine
 10
5.564549782493712
 20
32.71281367118588
 30
0.0
 11
5.964862282493712
 21
32.71281367118588
 31
0.0
  0
LINE
  5
1D06
330
A7B
100
AcDbEntity
  8
DIM
 62
     0
370
    -2
100
AcDbLine
 10
6.91079978249371
 20
32.71281367118588
 30
0.0
 11
6.510487282493713
 21
32.71281367118588
 31
0.0
  0
SOLID
  5
1D07
330
A7B
100
AcDbEntity
  8
DIM
 62
     0
100
AcDbTrace
 10
5.564549782493712
 20
32.78031367118588
 30
0.0
 11
5.564549782493712
 21
32.64531367118586
 31
0.0
 12
5.159549782493712
 22
32.71281367118588
 32
0.0
 13
5.159549782493712
 23
32.71281367118588
 33
0.0
  0
SOLID
  5
1D08
330
A7B
100
AcDbEntity
  8
DIM
 62
     0
100
AcDbTrace
 10
6.91079978249371
 20
32.78031367118588
 30
0.0
 11
6.91079978249371
 21
32.64531367118586
 31
0.0
 12
7.31579978249371
 22
32.71281367118588
 32
0.0
 13
7.31579978249371
 23
32.71281367118588
 33
0.0
  0
MTEXT
  5
1D09
330
A7B
100
AcDbEntity
  8
DIM
 62
     0
100
AcDbMText
 10
6.237674782493712
 20
32.71281367118588
 30
0.0
 40
0.28125
 41
0.0
 71
     5
 72
     1
  1
\A1;H
  7
TXT
 73
     1
 44
1.0
  0
POINT
  5
1D0A
330
A7B
100
AcDbEntity
  8
DEFPOINTS
 62
     0
100
AcDbPoint
 10
5.159549782493712
 20
32.10056367118586
 30
0.0
  0
POINT
  5
1D0B
330
A7B
100
AcDbEntity
  8
DEFPOINTS
 62
     0
100
AcDbPoint
 10
7.31579978249371
 20
32.09931367118587
 30
0.0
  0
POINT
  5
1D0C
330
A7B
100
AcDbEntity
  8
DEFPOINTS
 62
     0
100
AcDbPoint
 10
7.31579978249371
 20
32.71281367118588
 30
0.0
  0
ENDBLK
  5
A87
330
A7B
100
AcDbEntity
  8
0
100
AcDbBlockEnd
  0
BLOCK
  5
AE7
330
ADC
100
AcDbEntity
  8
0
100
AcDbBlockBegin
  2
*D21
 70
     1
 10
0.0
 20
0.0
 30
0.0
  3
*D21
  1

  0
LINE
  5
1C4C
330
ADC
100
AcDbEntity
  8
DIM
 62
     0
370
    -2
100
AcDbLine
 10
2.80829978249371
 20
24.60168284933624
 30
0.0
 11
2.80829978249371
 21
26.66749216061921
 31
0.0
  0
LINE
  5
1C4D
330
ADC
100
AcDbEntity
  8
DIM
 62
     0
370
    -2
100
AcDbLine
 10
7.510799782493712
 20
24.60168284933624
 30
0.0
 11
7.510799782493712
 21
26.66749216061921
 31
0.0
  0
LINE
  5
1C4E
330
ADC
100
AcDbEntity
  8
DIM
 62
     0
370
    -2
100
AcDbLine
 10
3.213299782493711
 20
26.45824216061919
 30
0.0
 11
4.886737282493712
 21
26.45824216061919
 31
0.0
  0
LINE
  5
1C4F
330
ADC
100
AcDbEntity
  8
DIM
 62
     0
370
    -2
100
AcDbLine
 10
7.10579978249371
 20
26.45824216061919
 30
0.0
 11
5.43236228249371
 21
26.45824216061919
 31
0.0
  0
SOLID
  5
1C50
330
ADC
100
AcDbEntity
  8
DIM
 62
     0
100
AcDbTrace
 10
3.213299782493711
 20
26.52574216061919
 30
0.0
 11
3.213299782493711
 21
26.39074216061921
 31
0.0
 12
2.80829978249371
 22
26.45824216061919
 32
0.0
 13
2.80829978249371
 23
26.45824216061919
 33
0.0
  0
SOLID
  5
1C51
330
ADC
100
AcDbEntity
  8
DIM
 62
     0
100
AcDbTrace
 10
7.10579978249371
 20
26.52574216061919
 30
0.0
 11
7.10579978249371
 21
26.39074216061921
 31
0.0
 12
7.510799782493712
 22
26.45824216061919
 32
0.0
 13
7.510799782493712
 23
26.45824216061919
 33
0.0
  0
MTEXT
  5
1C52
330
ADC
100
AcDbEntity
  8
DIM
 62
     0
100
AcDbMText
 10
5.15954978249371
 20
26.45824216061919
 30
0.0
 40
0.28125
 41
0.0
 71
     5
 72
     1
  1
\A1;B
  7
TXT
 73
     1
 44
1.0
  0
POINT
  5
1C53
330
ADC
100
AcDbEntity
  8
DEFPOINTS
 62
     0
100
AcDbPoint
 10
2.80829978249371
 20
24.45993284933623
 30
0.0
  0
POINT
  5
1C54
330
ADC
100
AcDbEntity
  8
DEFPOINTS
 62
     0
100
AcDbPoint
 10
7.510799782493712
 20
24.45993284933623
 30
0.0
  0
POINT
  5
1C55
330
ADC
100
AcDbEntity
  8
DEFPOINTS
 62
     0
100
AcDbPoint
 10
7.510799782493712
 20
26.45824216061919
 30
0.0
  0
ENDBLK
  5
AE8
330
ADC
100
AcDbEntity
  8
0
100
AcDbBlockEnd
  0
BLOCK
  5
AF4
330
AE9
100
AcDbEntity
  8
0
100
AcDbBlockBegin
  2
*D22
 70
     1
 10
0.0
 20
0.0
 30
0.0
  3
*D22
  1

  0
LINE
  5
1C75
330
AE9
100
AcDbEntity
  8
DIM
 62
     0
370
    -2
100
AcDbLine
 10
3.003299782493711
 20
24.59418284933624
 30
0.0
 11
3.003299782493711
 21
26.13974216061921
 31
0.0
  0
LINE
  5
1C76
330
AE9
100
AcDbEntity
  8
DIM
 62
     0
370
    -2
100
AcDbLine
 10
2.80829978249371
 20
24.60168284933624
 30
0.0
 11
2.80829978249371
 21
26.13974216061921
 31
0.0
  0
LINE
  5
1C77
330
AE9
100
AcDbEntity
  8
DIM
 62
     0
370
    -2
100
AcDbLine
 10
3.408299782493711
 20
25.93049216061919
 30
0.0
 11
3.813299782493711
 21
25.93049216061919
 31
0.0
  0
LINE
  5
1C78
330
AE9
100
AcDbEntity
  8
DIM
 62
     0
370
    -2
100
AcDbLine
 10
2.40329978249371
 20
25.93049216061919
 30
0.0
 11
1.99829978249371
 21
25.93049216061919
 31
0.0
  0
SOLID
  5
1C79
330
AE9
100
AcDbEntity
  8
DIM
 62
     0
100
AcDbTrace
 10
3.408299782493711
 20
25.99799216061919
 30
0.0
 11
3.408299782493711
 21
25.86299216061919
 31
0.0
 12
3.003299782493711
 22
25.93049216061919
 32
0.0
 13
3.003299782493711
 23
25.93049216061919
 33
0.0
  0
SOLID
  5
1C7A
330
AE9
100
AcDbEntity
  8
DIM
 62
     0
100
AcDbTrace
 10
2.40329978249371
 20
25.99799216061919
 30
0.0
 11
2.40329978249371
 21
25.86299216061919
 31
0.0
 12
2.80829978249371
 22
25.93049216061919
 32
0.0
 13
2.80829978249371
 23
25.93049216061919
 33
0.0
  0
MTEXT
  5
1C7B
330
AE9
100
AcDbEntity
  8
DIM
 62
     0
100
AcDbMText
 10
1.72548728249371
 20
25.93049216061919
 30
0.0
 40
0.28125
 41
0.0
 71
     5
 72
     1
  1
\A1;L
  7
TXT
 73
     1
 44
1.0
  0
POINT
  5
1C7C
330
AE9
100
AcDbEntity
  8
DEFPOINTS
 62
     0
100
AcDbPoint
 10
3.003299782493711
 20
24.45243284933623
 30
0.0
  0
POINT
  5
1C7D
330
AE9
100
AcDbEntity
  8
DEFPOINTS
 62
     0
100
AcDbPoint
 10
2.80829978249371
 20
24.45993284933623
 30
0.0
  0
POINT
  5
1C7E
330
AE9
100
AcDbEntity
  8
DEFPOINTS
 62
     0
100
AcDbPoint
 10
2.80829978249371
 20
25.93049216061919
 30
0.0
  0
ENDBLK
  5
AF5
330
AE9
100
AcDbEntity
  8
0
100
AcDbBlockEnd
  0
BLOCK
  5
B01
330
AF6
100
AcDbEntity
  8
0
100
AcDbBlockBegin
  2
*D23
 70
     1
 10
0.0
 20
0.0
 30
0.0
  3
*D23
  1

  0
LINE
  5
1C42
330
AF6
100
AcDbEntity
  8
DIM
 62
     0
370
    -2
100
AcDbLine
 10
3.003299782493711
 20
24.59418284933624
 30
0.0
 11
3.003299782493711
 21
26.14539756602461
 31
0.0
  0
LINE
  5
1C43
330
AF6
100
AcDbEntity
  8
DIM
 62
     0
370
    -2
100
AcDbLine
 10
7.31579978249371
 20
24.59418284933624
 30
0.0
 11
7.31579978249371
 21
26.14539756602461
 31
0.0
  0
LINE
  5
1C44
330
AF6
100
AcDbEntity
  8
DIM
 62
     0
370
    -2
100
AcDbLine
 10
3.408299782493711
 20
25.93614756602461
 30
0.0
 11
4.886737282493712
 21
25.93614756602461
 31
0.0
  0
LINE
  5
1C45
330
AF6
100
AcDbEntity
  8
DIM
 62
     0
370
    -2
100
AcDbLine
 10
6.91079978249371
 20
25.93614756602461
 30
0.0
 11
5.43236228249371
 21
25.93614756602461
 31
0.0
  0
SOLID
  5
1C46
330
AF6
100
AcDbEntity
  8
DIM
 62
     0
100
AcDbTrace
 10
3.408299782493711
 20
26.00364756602461
 30
0.0
 11
3.408299782493711
 21
25.8686475660246
 31
0.0
 12
3.003299782493711
 22
25.93614756602461
 32
0.0
 13
3.003299782493711
 23
25.93614756602461
 33
0.0
  0
SOLID
  5
1C47
330
AF6
100
AcDbEntity
  8
DIM
 62
     0
100
AcDbTrace
 10
6.91079978249371
 20
26.00364756602461
 30
0.0
 11
6.91079978249371
 21
25.8686475660246
 31
0.0
 12
7.31579978249371
 22
25.93614756602461
 32
0.0
 13
7.31579978249371
 23
25.93614756602461
 33
0.0
  0
MTEXT
  5
1C48
330
AF6
100
AcDbEntity
  8
DIM
 62
     0
100
AcDbMText
 10
5.15954978249371
 20
25.93614756602461
 30
0.0
 40
0.28125
 41
0.0
 71
     5
 72
     1
  1
\A1;F
  7
TXT
 73
     1
 44
1.0
  0
POINT
  5
1C49
330
AF6
100
AcDbEntity
  8
DEFPOINTS
 62
     0
100
AcDbPoint
 10
3.003299782493711
 20
24.45243284933623
 30
0.0
  0
POINT
  5
1C4A
330
AF6
100
AcDbEntity
  8
DEFPOINTS
 62
     0
100
AcDbPoint
 10
7.31579978249371
 20
24.45243284933623
 30
0.0
  0
POINT
  5
1C4B
330
AF6
100
AcDbEntity
  8
DEFPOINTS
 62
     0
100
AcDbPoint
 10
7.31579978249371
 20
25.93614756602461
 30
0.0
  0
ENDBLK
  5
B02
330
AF6
100
AcDbEntity
  8
0
100
AcDbBlockEnd
  0
BLOCK
  5
B0E
330
B03
100
AcDbEntity
  8
0
100
AcDbBlockBegin
  2
*D24
 70
     1
 10
0.0
 20
0.0
 30
0.0
  3
*D24
  1

  0
LINE
  5
1CE4
330
B03
100
AcDbEntity
  8
DIM
 62
     0
370
    -2
100
AcDbLine
 10
5.159549782493712
 20
24.59543284933622
 30
0.0
 11
5.159549782493712
 21
25.66805784933623
 31
0.0
  0
LINE
  5
1CE5
330
B03
100
AcDbEntity
  8
DIM
 62
     0
370
    -2
100
AcDbLine
 10
7.31579978249371
 20
24.59418284933624
 30
0.0
 11
7.31579978249371
 21
25.66805784933623
 31
0.0
  0
LINE
  5
1CE6
330
B03
100
AcDbEntity
  8
DIM
 62
     0
370
    -2
100
AcDbLine
 10
5.564549782493712
 20
25.45880784933624
 30
0.0
 11
5.964862282493712
 21
25.45880784933624
 31
0.0
  0
LINE
  5
1CE7
330
B03
100
AcDbEntity
  8
DIM
 62
     0
370
    -2
100
AcDbLine
 10
6.91079978249371
 20
25.45880784933624
 30
0.0
 11
6.510487282493713
 21
25.45880784933624
 31
0.0
  0
SOLID
  5
1CE8
330
B03
100
AcDbEntity
  8
DIM
 62
     0
100
AcDbTrace
 10
5.564549782493712
 20
25.52630784933624
 30
0.0
 11
5.564549782493712
 21
25.39130784933623
 31
0.0
 12
5.159549782493712
 22
25.45880784933624
 32
0.0
 13
5.159549782493712
 23
25.45880784933624
 33
0.0
  0
SOLID
  5
1CE9
330
B03
100
AcDbEntity
  8
DIM
 62
     0
100
AcDbTrace
 10
6.91079978249371
 20
25.52630784933624
 30
0.0
 11
6.91079978249371
 21
25.39130784933623
 31
0.0
 12
7.31579978249371
 22
25.45880784933624
 32
0.0
 13
7.31579978249371
 23
25.45880784933624
 33
0.0
  0
MTEXT
  5
1CEA
330
B03
100
AcDbEntity
  8
DIM
 62
     0
100
AcDbMText
 10
6.237674782493712
 20
25.45880784933624
 30
0.0
 40
0.28125
 41
0.0
 71
     5
 72
     1
  1
\A1;H
  7
TXT
 73
     1
 44
1.0
  0
POINT
  5
1CEB
330
B03
100
AcDbEntity
  8
DEFPOINTS
 62
     0
100
AcDbPoint
 10
5.159549782493712
 20
24.45368284933624
 30
0.0
  0
POINT
  5
1CEC
330
B03
100
AcDbEntity
  8
DEFPOINTS
 62
     0
100
AcDbPoint
 10
7.31579978249371
 20
24.45243284933623
 30
0.0
  0
POINT
  5
1CED
330
B03
100
AcDbEntity
  8
DEFPOINTS
 62
     0
100
AcDbPoint
 10
7.31579978249371
 20
25.45880784933624
 30
0.0
  0
ENDBLK
  5
B0F
330
B03
100
AcDbEntity
  8
0
100
AcDbBlockEnd
  0
BLOCK
  5
F75
330
F5E
100
AcDbEntity
  8
0
100
AcDbBlockBegin
  2
Hb
 70
     0
 10
0.0
 20
0.0
 30
0.0
  3
Hb
  1

  0
TEXT
  5
F5F
330
F5E
100
AcDbEntity
  8
TEXT
100
AcDbText
 10
0.2078333333333363
 20
15.22007919564008
 30
0.0
 40
0.125
  1
NAME
  7
TXT
 72
     1
 11
0.4370000000000031
 21
15.22007919564008
 31
0.0
100
AcDbText
  0
TEXT
  5
F60
330
F5E
100
AcDbEntity
  8
TEXT
100
AcDbText
 10
0.2078333333333363
 20
15.42841252897341
 30
0.0
 40
0.125
  1
PART
  7
TXT
 72
     1
 11
0.4370000000000031
 21
15.42841252897341
 31
0.0
100
AcDbText
  0
TEXT
  5
F61
330
F5E
100
AcDbEntity
  8
TEXT
100
AcDbText
 10
4.561999999999998
 20
15.22007919564008
 30
0.0
 40
0.125
  1
No.
  7
TXT
 72
     1
 11
4.686999999999998
 21
15.22007919564008
 31
0.0
100
AcDbText
  0
TEXT
  5
F62
330
F5E
100
AcDbEntity
  8
TEXT
100
AcDbText
 10
4.457833333333331
 20
15.42841252897341
 30
0.0
 40
0.125
  1
PART
  7
TXT
 72
     1
 11
4.686999999999998
 21
15.42841252897341
 31
0.0
100
AcDbText
  0
LINE
  5
F63
330
F5E
100
AcDbEntity
  8
TITLE
100
AcDbLine
 10
5.062000000000002
 20
15.598
 30
0.0
 11
5.062000000000002
 21
15.17999999999999
 31
0.0
  0
LINE
  5
F64
330
F5E
100
AcDbEntity
  8
TITLE
100
AcDbLine
 10
4.312000000000002
 20
15.598
 30
0.0
 11
4.312000000000002
 21
15.17999999999999
 31
0.0
  0
LINE
  5
F65
330
F5E
100
AcDbEntity
  8
TITLE
100
AcDbLine
 10
4.25
 20
15.598
 30
0.0
 11
4.25
 21
15.17999999999999
 31
0.0
  0
LINE
  5
F66
330
F5E
100
AcDbEntity
  8
TITLE
100
AcDbLine
 10
0.8120000000000029
 20
15.17999999999999
 30
0.0
 11
0.8120000000000009
 21
15.598
 31
0.0
  0
LINE
  5
F67
330
F5E
100
AcDbEntity
  8
TITLE
100
AcDbLine
 10
0.0620000000000012
 20
15.17999999999999
 30
0.0
 11
10.538
 21
15.17999999999999
 31
0.0
  0
LINE
  5
F68
330
F5E
100
AcDbEntity
  8
TITLE
100
AcDbLine
 10
10.538
 20
0.0619999999999994
 30
0.0
 11
0.0619999999999976
 21
0.0620000000000012
 31
0.0
  0
LINE
  5
F69
330
F5E
100
AcDbEntity
  8
TITLE
100
AcDbLine
 10
10.538
 20
15.598
 30
0.0
 11
10.538
 21
0.0619999999999994
 31
0.0
  0
LINE
  5
F6A
330
F5E
100
AcDbEntity
  8
TITLE
100
AcDbLine
 10
0.0620000000000012
 20
15.598
 30
0.0
 11
10.538
 21
15.598
 31
0.0
  0
LINE
  5
F6B
330
F5E
100
AcDbEntity
  8
TITLE
100
AcDbLine
 10
0.0619999999999976
 20
0.0620000000000012
 30
0.0
 11
0.0620000000000012
 21
15.598
 31
0.0
  0
LINE
  5
F6C
330
F5E
100
AcDbEntity
  8
TITLE
100
AcDbLine
 10
0.0
 20
0.0
 30
0.0
 11
0.0
 21
15.66
 31
0.0
  0
LINE
  5
F6D
330
F5E
100
AcDbEntity
  8
TITLE
100
AcDbLine
 10
10.6
 20
-0.0000000000000018
 30
0.0
 11
0.0
 21
0.0
 31
0.0
  0
LINE
  5
F6E
330
F5E
100
AcDbEntity
  8
TITLE
100
AcDbLine
 10
10.6
 20
15.65999999999999
 30
0.0
 11
10.6
 21
-0.0000000000000018
 31
0.0
  0
LINE
  5
F6F
330
F5E
100
AcDbEntity
  8
TITLE
100
AcDbLine
 10
0.0
 20
15.66
 30
0.0
 11
10.6
 21
15.65999999999999
 31
0.0
  0
LINE
  5
F70
330
F5E
100
AcDbEntity
  8
TITLE
100
AcDbLine
 10
8.500025722444004
 20
15.598
 30
0.0
 11
8.500025722444004
 21
15.17999999999999
 31
0.0
  0
TEXT
  5
F71
330
F5E
100
AcDbEntity
  8
TEXT
100
AcDbText
 10
8.728692389110667
 20
15.42841252897341
 30
0.0
 40
0.125
  1
REV.
  7
TXT
 72
     1
 11
8.937025722444001
 21
15.42841252897341
 31
0.0
100
AcDbText
  0
TEXT
  5
F72
330
F5E
100
AcDbEntity
  8
TEXT
100
AcDbText
 10
8.707859055777335
 20
15.22007919564008
 30
0.0
 40
0.125
  1
DATE
  7
TXT
 72
     1
 11
8.937025722444001
 21
15.22007919564008
 31
0.0
100
AcDbText
  0
LINE
  5
F73
330
F5E
100
AcDbEntity
  8
TITLE
100
AcDbLine
 10
8.562025722444005
 20
15.598
 30
0.0
 11
8.562025722444005
 21
15.17999999999999
 31
0.0
  0
LINE
  5
F74
330
F5E
100
AcDbEntity
  8
TITLE
100
AcDbLine
 10
9.312025722444003
 20
15.598
 30
0.0
 11
9.312025722444003
 21
15.17999999999999
 31
0.0
  0
ENDBLK
  5
F76
330
F5E
100
AcDbEntity
  8
0
100
AcDbBlockEnd
  0
BLOCK
  5
1115
330
110A
100
AcDbEntity
  8
0
100
AcDbBlockBegin
  2
*D26
 70
     1
 10
0.0
 20
0.0
 30
0.0
  3
*D26
  1

  0
LINE
  5
1C60
330
110A
100
AcDbEntity
  8
DIM
 62
     0
370
    -2
100
AcDbLine
 10
2.940548782493711
 20
19.55405784933623
 30
0.0
 11
1.243427547542858
 21
19.55405784933623
 31
0.0
  0
LINE
  5
1C61
330
110A
100
AcDbEntity
  8
DIM
 62
     0
370
    -2
100
AcDbLine
 10
2.940548782493711
 20
25.04030784933624
 30
0.0
 11
1.243427547542859
 21
25.04030784933624
 31
0.0
  0
LINE
  5
1C62
330
110A
100
AcDbEntity
  8
DIM
 62
     0
370
    -2
100
AcDbLine
 10
1.452677547542858
 20
19.95905784933623
 30
0.0
 11
1.452677547542858
 21
21.95405784933623
 31
0.0
  0
LINE
  5
1C63
330
110A
100
AcDbEntity
  8
DIM
 62
     0
370
    -2
100
AcDbLine
 10
1.452677547542859
 20
24.63530784933624
 30
0.0
 11
1.452677547542858
 21
22.64030784933623
 31
0.0
  0
SOLID
  5
1C64
330
110A
100
AcDbEntity
  8
DIM
 62
     0
100
AcDbTrace
 10
1.385177547542857
 20
19.95905784933623
 30
0.0
 11
1.520177547542858
 21
19.95905784933623
 31
0.0
 12
1.452677547542858
 22
19.55405784933623
 32
0.0
 13
1.452677547542858
 23
19.55405784933623
 33
0.0
  0
SOLID
  5
1C65
330
110A
100
AcDbEntity
  8
DIM
 62
     0
100
AcDbTrace
 10
1.385177547542858
 20
24.63530784933624
 30
0.0
 11
1.520177547542858
 21
24.63530784933624
 31
0.0
 12
1.452677547542859
 22
25.04030784933624
 32
0.0
 13
1.452677547542859
 23
25.04030784933624
 33
0.0
  0
MTEXT
  5
1C66
330
110A
100
AcDbEntity
  8
DIM
 62
     0
100
AcDbMText
 10
1.452677547542854
 20
22.29718284933623
 30
0.0
 40
0.28125
 41
0.0
 71
     5
 72
     1
  1
\A1;M
  7
TXT
 73
     1
 44
1.0
  0
POINT
  5
1C67
330
110A
100
AcDbEntity
  8
DEFPOINTS
 62
     0
100
AcDbPoint
 10
3.082298782493711
 20
19.55405784933623
 30
0.0
  0
POINT
  5
1C68
330
110A
100
AcDbEntity
  8
DEFPOINTS
 62
     0
100
AcDbPoint
 10
3.082298782493711
 20
25.04030784933624
 30
0.0
  0
POINT
  5
1C69
330
110A
100
AcDbEntity
  8
DEFPOINTS
 62
     0
100
AcDbPoint
 10
1.452677547542859
 20
25.04030784933624
 30
0.0
  0
ENDBLK
  5
1116
330
110A
100
AcDbEntity
  8
0
100
AcDbBlockEnd
  0
BLOCK
  5
1122
330
1117
100
AcDbEntity
  8
0
100
AcDbBlockBegin
  2
*D27
 70
     1
 10
0.0
 20
0.0
 30
0.0
  3
*D27
  1

  0
LINE
  5
1C56
330
1117
100
AcDbEntity
  8
DIM
 62
     0
370
    -2
100
AcDbLine
 10
3.058424782493711
 20
19.74968184933623
 30
0.0
 11
2.039873052235622
 21
19.74968184933623
 31
0.0
  0
LINE
  5
1C57
330
1117
100
AcDbEntity
  8
DIM
 62
     0
370
    -2
100
AcDbLine
 10
3.058424782493711
 20
24.84468384933624
 30
0.0
 11
2.039873052235623
 21
24.84468384933624
 31
0.0
  0
LINE
  5
1C58
330
1117
100
AcDbEntity
  8
DIM
 62
     0
370
    -2
100
AcDbLine
 10
2.249123052235622
 20
20.15468184933623
 30
0.0
 11
2.249123052235623
 21
21.95405784933623
 31
0.0
  0
LINE
  5
1C59
330
1117
100
AcDbEntity
  8
DIM
 62
     0
370
    -2
100
AcDbLine
 10
2.249123052235623
 20
24.43968384933624
 30
0.0
 11
2.249123052235623
 21
22.64030784933623
 31
0.0
  0
SOLID
  5
1C5A
330
1117
100
AcDbEntity
  8
DIM
 62
     0
100
AcDbTrace
 10
2.181623052235623
 20
20.15468184933623
 30
0.0
 11
2.316623052235622
 21
20.15468184933623
 31
0.0
 12
2.249123052235622
 22
19.74968184933623
 32
0.0
 13
2.249123052235622
 23
19.74968184933623
 33
0.0
  0
SOLID
  5
1C5B
330
1117
100
AcDbEntity
  8
DIM
 62
     0
100
AcDbTrace
 10
2.181623052235623
 20
24.43968384933624
 30
0.0
 11
2.316623052235623
 21
24.43968384933624
 31
0.0
 12
2.249123052235623
 22
24.84468384933624
 32
0.0
 13
2.249123052235623
 23
24.84468384933624
 33
0.0
  0
MTEXT
  5
1C5C
330
1117
100
AcDbEntity
  8
DIM
 62
     0
100
AcDbMText
 10
2.249123052235619
 20
22.29718284933623
 30
0.0
 40
0.28125
 41
0.0
 71
     5
 72
     1
  1
\A1;P
  7
TXT
 73
     1
 44
1.0
  0
POINT
  5
1C5D
330
1117
100
AcDbEntity
  8
DEFPOINTS
 62
     0
100
AcDbPoint
 10
3.200174782493711
 20
19.74968184933623
 30
0.0
  0
POINT
  5
1C5E
330
1117
100
AcDbEntity
  8
DEFPOINTS
 62
     0
100
AcDbPoint
 10
3.200174782493711
 20
24.84468384933624
 30
0.0
  0
POINT
  5
1C5F
330
1117
100
AcDbEntity
  8
DEFPOINTS
 62
     0
100
AcDbPoint
 10
2.249123052235623
 20
24.84468384933624
 30
0.0
  0
ENDBLK
  5
1123
330
1117
100
AcDbEntity
  8
0
100
AcDbBlockEnd
  0
BLOCK
  5
112F
330
1124
100
AcDbEntity
  8
0
100
AcDbBlockBegin
  2
*D28
 70
     1
 10
0.0
 20
0.0
 30
0.0
  3
*D28
  1

  0
LINE
  5
1C6A
330
1124
100
AcDbEntity
  8
DIM
 62
     0
370
    -2
100
AcDbLine
 10
3.058424782493711
 20
19.74968184933623
 30
0.0
 11
2.045528457641029
 21
19.74968184933623
 31
0.0
  0
LINE
  5
1C6B
330
1124
100
AcDbEntity
  8
DIM
 62
     0
370
    -2
100
AcDbLine
 10
2.940548782493711
 20
19.55405784933623
 30
0.0
 11
2.045528457641029
 21
19.55405784933623
 31
0.0
  0
LINE
  5
1C6C
330
1124
100
AcDbEntity
  8
DIM
 62
     0
370
    -2
100
AcDbLine
 10
2.254778457641029
 20
20.15468184933623
 30
0.0
 11
2.254778457641029
 21
20.55968184933623
 31
0.0
  0
LINE
  5
1C6D
330
1124
100
AcDbEntity
  8
DIM
 62
     0
370
    -2
100
AcDbLine
 10
2.254778457641029
 20
19.14905784933623
 30
0.0
 11
2.254778457641028
 21
18.74405784933623
 31
0.0
  0
LINE
  5
1C6E
330
1124
100
AcDbEntity
  8
DIM
 62
     0
370
    -2
100
AcDbLine
 10
2.254778457641028
 20
18.74405784933623
 30
0.0
 11
1.849778457641028
 21
18.74405784933623
 31
0.0
  0
SOLID
  5
1C6F
330
1124
100
AcDbEntity
  8
DIM
 62
     0
100
AcDbTrace
 10
2.187278457641029
 20
20.15468184933623
 30
0.0
 11
2.322278457641028
 21
20.15468184933623
 31
0.0
 12
2.254778457641029
 22
19.74968184933623
 32
0.0
 13
2.254778457641029
 23
19.74968184933623
 33
0.0
  0
SOLID
  5
1C70
330
1124
100
AcDbEntity
  8
DIM
 62
     0
100
AcDbTrace
 10
2.187278457641029
 20
19.14905784933623
 30
0.0
 11
2.322278457641028
 21
19.14905784933623
 31
0.0
 12
2.254778457641029
 22
19.55405784933623
 32
0.0
 13
2.254778457641029
 23
19.55405784933623
 33
0.0
  0
MTEXT
  5
1C71
330
1124
100
AcDbEntity
  8
DIM
 62
     0
100
AcDbMText
 10
1.278137832641024
 20
18.74405784933623
 30
0.0
 40
0.28125
 41
0.0
 71
     5
 72
     1
  1
\A1;0.312
  7
TXT
 73
     1
 44
1.0
  0
POINT
  5
1C72
330
1124
100
AcDbEntity
  8
DEFPOINTS
 62
     0
100
AcDbPoint
 10
3.200174782493711
 20
19.74968184933623
 30
0.0
  0
POINT
  5
1C73
330
1124
100
AcDbEntity
  8
DEFPOINTS
 62
     0
100
AcDbPoint
 10
3.082298782493711
 20
19.55405784933623
 30
0.0
  0
POINT
  5
1C74
330
1124
100
AcDbEntity
  8
DEFPOINTS
 62
     0
100
AcDbPoint
 10
2.254778457641029
 20
19.55405784933623
 30
0.0
  0
ENDBLK
  5
1130
330
1124
100
AcDbEntity
  8
0
100
AcDbBlockEnd
  0
BLOCK
  5
113C
330
1131
100
AcDbEntity
  8
0
100
AcDbBlockBegin
  2
*D29
 70
     1
 10
0.0
 20
0.0
 30
0.0
  3
*D29
  1

  0
LINE
  5
1C24
330
1131
100
AcDbEntity
  8
DIM
 62
     0
370
    -2
100
AcDbLine
 10
7.11892478249371
 20
19.60793184933623
 30
0.0
 11
7.11892478249371
 21
18.14843631942407
 31
0.0
  0
LINE
  5
1C25
330
1131
100
AcDbEntity
  8
DIM
 62
     0
370
    -2
100
AcDbLine
 10
3.200174782493711
 20
19.60793184933623
 30
0.0
 11
3.200174782493711
 21
18.14843631942407
 31
0.0
  0
LINE
  5
1C26
330
1131
100
AcDbEntity
  8
DIM
 62
     0
370
    -2
100
AcDbLine
 10
6.71392478249371
 20
18.35768631942407
 30
0.0
 11
5.43236228249371
 21
18.35768631942407
 31
0.0
  0
LINE
  5
1C27
330
1131
100
AcDbEntity
  8
DIM
 62
     0
370
    -2
100
AcDbLine
 10
3.605174782493711
 20
18.35768631942407
 30
0.0
 11
4.886737282493711
 21
18.35768631942407
 31
0.0
  0
SOLID
  5
1C28
330
1131
100
AcDbEntity
  8
DIM
 62
     0
100
AcDbTrace
 10
6.71392478249371
 20
18.42518631942407
 30
0.0
 11
6.71392478249371
 21
18.29018631942407
 31
0.0
 12
7.11892478249371
 22
18.35768631942407
 32
0.0
 13
7.11892478249371
 23
18.35768631942407
 33
0.0
  0
SOLID
  5
1C29
330
1131
100
AcDbEntity
  8
DIM
 62
     0
100
AcDbTrace
 10
3.605174782493711
 20
18.42518631942407
 30
0.0
 11
3.605174782493711
 21
18.29018631942407
 31
0.0
 12
3.200174782493711
 22
18.35768631942407
 32
0.0
 13
3.200174782493711
 23
18.35768631942407
 33
0.0
  0
MTEXT
  5
1C2A
330
1131
100
AcDbEntity
  8
DIM
 62
     0
100
AcDbMText
 10
5.159549782493709
 20
18.35768631942407
 30
0.0
 40
0.28125
 41
0.0
 71
     5
 72
     1
  1
\A1;Q
  7
TXT
 73
     1
 44
1.0
  0
POINT
  5
1C2B
330
1131
100
AcDbEntity
  8
DEFPOINTS
 62
     0
100
AcDbPoint
 10
7.11892478249371
 20
19.74968184933623
 30
0.0
  0
POINT
  5
1C2C
330
1131
100
AcDbEntity
  8
DEFPOINTS
 62
     0
100
AcDbPoint
 10
3.200174782493711
 20
19.74968184933623
 30
0.0
  0
POINT
  5
1C2D
330
1131
100
AcDbEntity
  8
DEFPOINTS
 62
     0
100
AcDbPoint
 10
3.200174782493711
 20
18.35768631942407
 30
0.0
  0
ENDBLK
  5
113D
330
1131
100
AcDbEntity
  8
0
100
AcDbBlockEnd
  0
BLOCK
  5
1149
330
113E
100
AcDbEntity
  8
0
100
AcDbBlockBegin
  2
*D30
 70
     1
 10
0.0
 20
0.0
 30
0.0
  3
*D30
  1

  0
LINE
  5
1CA7
330
113E
100
AcDbEntity
  8
DIM
 62
     0
370
    -2
100
AcDbLine
 10
7.11892478249371
 20
19.60793184933623
 30
0.0
 11
7.11892478249371
 21
18.14843631942407
 31
0.0
  0
LINE
  5
1CA8
330
113E
100
AcDbEntity
  8
DIM
 62
     0
370
    -2
100
AcDbLine
 10
7.35404978249371
 20
19.52955684933623
 30
0.0
 11
7.35404978249371
 21
18.14843631942407
 31
0.0
  0
LINE
  5
1CA9
330
113E
100
AcDbEntity
  8
DIM
 62
     0
370
    -2
100
AcDbLine
 10
6.71392478249371
 20
18.35768631942407
 30
0.0
 11
6.30892478249371
 21
18.35768631942407
 31
0.0
  0
LINE
  5
1CAA
330
113E
100
AcDbEntity
  8
DIM
 62
     0
370
    -2
100
AcDbLine
 10
7.75904978249371
 20
18.35768631942407
 30
0.0
 11
8.164049782493709
 21
18.35768631942407
 31
0.0
  0
SOLID
  5
1CAB
330
113E
100
AcDbEntity
  8
DIM
 62
     0
100
AcDbTrace
 10
6.71392478249371
 20
18.42518631942407
 30
0.0
 11
6.71392478249371
 21
18.29018631942407
 31
0.0
 12
7.11892478249371
 22
18.35768631942407
 32
0.0
 13
7.11892478249371
 23
18.35768631942407
 33
0.0
  0
SOLID
  5
1CAC
330
113E
100
AcDbEntity
  8
DIM
 62
     0
100
AcDbTrace
 10
7.75904978249371
 20
18.42518631942407
 30
0.0
 11
7.75904978249371
 21
18.29018631942407
 31
0.0
 12
7.35404978249371
 22
18.35768631942407
 32
0.0
 13
7.35404978249371
 23
18.35768631942407
 33
0.0
  0
MTEXT
  5
1CAD
330
113E
100
AcDbEntity
  8
DIM
 62
     0
100
AcDbMText
 10
8.770846657493709
 20
18.35768631942407
 30
0.0
 40
0.28125
 41
0.0
 71
     5
 72
     1
  1
\A1;0.375
  7
TXT
 73
     1
 44
1.0
  0
POINT
  5
1CAE
330
113E
100
AcDbEntity
  8
DEFPOINTS
 62
     0
100
AcDbPoint
 10
7.11892478249371
 20
19.74968184933623
 30
0.0
  0
POINT
  5
1CAF
330
113E
100
AcDbEntity
  8
DEFPOINTS
 62
     0
100
AcDbPoint
 10
7.35404978249371
 20
19.67130684933623
 30
0.0
  0
POINT
  5
1CB0
330
113E
100
AcDbEntity
  8
DEFPOINTS
 62
     0
100
AcDbPoint
 10
7.35404978249371
 20
18.35768631942407
 30
0.0
  0
ENDBLK
  5
114A
330
113E
100
AcDbEntity
  8
0
100
AcDbBlockEnd
  0
BLOCK
  5
1156
330
114B
100
AcDbEntity
  8
0
100
AcDbBlockBegin
  2
*D31
 70
     1
 10
0.0
 20
0.0
 30
0.0
  3
*D31
  1

  0
LINE
  5
1C1A
330
114B
100
AcDbEntity
  8
DIM
 62
     0
370
    -2
100
AcDbLine
 10
2.965049782493711
 20
19.52955684933623
 30
0.0
 11
2.965049782493711
 21
17.60973940492936
 31
0.0
  0
LINE
  5
1C1B
330
114B
100
AcDbEntity
  8
DIM
 62
     0
370
    -2
100
AcDbLine
 10
7.35404978249371
 20
19.52955684933623
 30
0.0
 11
7.35404978249371
 21
17.60973940492936
 31
0.0
  0
LINE
  5
1C1C
330
114B
100
AcDbEntity
  8
DIM
 62
     0
370
    -2
100
AcDbLine
 10
3.370049782493711
 20
17.81898940492935
 30
0.0
 11
4.886737282493711
 21
17.81898940492935
 31
0.0
  0
LINE
  5
1C1D
330
114B
100
AcDbEntity
  8
DIM
 62
     0
370
    -2
100
AcDbLine
 10
6.94904978249371
 20
17.81898940492935
 30
0.0
 11
5.43236228249371
 21
17.81898940492935
 31
0.0
  0
SOLID
  5
1C1E
330
114B
100
AcDbEntity
  8
DIM
 62
     0
100
AcDbTrace
 10
3.370049782493711
 20
17.88648940492936
 30
0.0
 11
3.370049782493711
 21
17.75148940492937
 31
0.0
 12
2.965049782493711
 22
17.81898940492935
 32
0.0
 13
2.965049782493711
 23
17.81898940492935
 33
0.0
  0
SOLID
  5
1C1F
330
114B
100
AcDbEntity
  8
DIM
 62
     0
100
AcDbTrace
 10
6.94904978249371
 20
17.88648940492936
 30
0.0
 11
6.94904978249371
 21
17.75148940492937
 31
0.0
 12
7.35404978249371
 22
17.81898940492935
 32
0.0
 13
7.35404978249371
 23
17.81898940492935
 33
0.0
  0
MTEXT
  5
1C20
330
114B
100
AcDbEntity
  8
DIM
 62
     0
100
AcDbMText
 10
5.159549782493709
 20
17.81898940492935
 30
0.0
 40
0.28125
 41
0.0
 71
     5
 72
     1
  1
\A1;N
  7
TXT
 73
     1
 44
1.0
  0
POINT
  5
1C21
330
114B
100
AcDbEntity
  8
DEFPOINTS
 62
     0
100
AcDbPoint
 10
2.965049782493711
 20
19.67130684933622
 30
0.0
  0
POINT
  5
1C22
330
114B
100
AcDbEntity
  8
DEFPOINTS
 62
     0
100
AcDbPoint
 10
7.35404978249371
 20
19.67130684933623
 30
0.0
  0
POINT
  5
1C23
330
114B
100
AcDbEntity
  8
DEFPOINTS
 62
     0
100
AcDbPoint
 10
7.35404978249371
 20
17.81898940492935
 30
0.0
  0
ENDBLK
  5
1157
330
114B
100
AcDbEntity
  8
0
100
AcDbBlockEnd
  0
BLOCK
  5
1164
330
1158
100
AcDbEntity
  8
0
100
AcDbBlockBegin
  2
*D32
 70
     1
 10
0.0
 20
0.0
 30
0.0
  3
*D32
  1

  0
LINE
  5
1A97
330
1158
100
AcDbEntity
  8
DIM
 62
     0
370
    -2
100
AcDbLine
 10
8.722054304007555
 20
11.72507321023416
 30
0.0
 11
9.197731304007556
 21
11.72507321023416
 31
0.0
  0
LINE
  5
1A98
330
1158
100
AcDbEntity
  8
DIM
 62
     0
370
    -2
100
AcDbLine
 10
8.722054304007555
 20
11.81507321023416
 30
0.0
 11
9.197731304007556
 21
11.81507321023416
 31
0.0
  0
LINE
  5
1A99
330
1158
100
AcDbEntity
  8
DIM
 62
     0
370
    -2
100
AcDbLine
 10
8.988481304007555
 20
11.32007321023416
 30
0.0
 11
8.988481304007555
 21
10.91507321023416
 31
0.0
  0
LINE
  5
1A9A
330
1158
100
AcDbEntity
  8
DIM
 62
     0
370
    -2
100
AcDbLine
 10
8.988481304007557
 20
12.22007321023416
 30
0.0
 11
8.988481304007557
 21
12.62507321023416
 31
0.0
  0
LINE
  5
1A9B
330
1158
100
AcDbEntity
  8
DIM
 62
     0
370
    -2
100
AcDbLine
 10
8.988481304007557
 20
12.62507321023416
 30
0.0
 11
9.393481304007556
 21
12.62507321023416
 31
0.0
  0
SOLID
  5
1A9C
330
1158
100
AcDbEntity
  8
DIM
 62
     0
100
AcDbTrace
 10
8.920981304007554
 20
11.32007321023416
 30
0.0
 11
9.055981304007556
 21
11.32007321023416
 31
0.0
 12
8.988481304007555
 22
11.72507321023416
 32
0.0
 13
8.988481304007555
 23
11.72507321023416
 33
0.0
  0
SOLID
  5
1A9D
330
1158
100
AcDbEntity
  8
DIM
 62
     0
100
AcDbTrace
 10
8.920981304007556
 20
12.22007321023416
 30
0.0
 11
9.055981304007556
 21
12.22007321023416
 31
0.0
 12
8.988481304007555
 22
11.81507321023416
 32
0.0
 13
8.988481304007555
 23
11.81507321023416
 33
0.0
  0
MTEXT
  5
1A9E
330
1158
100
AcDbEntity
  8
DIM
 62
     0
100
AcDbMText
 10
9.965121929007553
 20
12.62507321023416
 30
0.0
 40
0.28125
 41
0.0
 71
     5
 72
     1
  1
\A1;0.090
  7
TXT
 73
     1
 44
1.0
  0
POINT
  5
1A9F
330
1158
100
AcDbEntity
  8
DEFPOINTS
 62
     0
100
AcDbPoint
 10
8.580304304007555
 20
11.72507321023416
 30
0.0
  0
POINT
  5
1AA0
330
1158
100
AcDbEntity
  8
DEFPOINTS
 62
     0
100
AcDbPoint
 10
8.580304304007555
 20
11.81507321023416
 30
0.0
  0
POINT
  5
1AA1
330
1158
100
AcDbEntity
  8
DEFPOINTS
 62
     0
100
AcDbPoint
 10
8.988481304007555
 20
11.81507321023416
 30
0.0
  0
ENDBLK
  5
1165
330
1158
100
AcDbEntity
  8
0
100
AcDbBlockEnd
  0
ENDSEC
  0
SECTION
  2
ENTITIES
  0
LINE
  5
278
330
1E
100
AcDbEntity
  8
OBJECT
100
AcDbLine
 10
2.995799782493707
 20
19.94568284933623
 30
0.0
 11
7.323299782493712
 21
19.94568284933623
 31
0.0
  0
LINE
  5
279
330
1E
100
AcDbEntity
  8
OBJECT
100
AcDbLine
 10
7.510799782493712
 20
20.13318284933623
 30
0.0
 11
7.510799782493712
 21
24.46118284933624
 31
0.0
  0
LINE
  5
27A
330
1E
100
AcDbEntity
  8
OBJECT
100
AcDbLine
 10
7.323299782493712
 20
24.64868284933624
 30
0.0
 11
2.995799782493707
 21
24.64868284933624
 31
0.0
  0
LINE
  5
27B
330
1E
100
AcDbEntity
  8
OBJECT
100
AcDbLine
 10
2.808299782493707
 20
24.46118284933624
 30
0.0
 11
2.808299782493707
 21
20.13318284933623
 31
0.0
  0
CIRCLE
  5
27C
330
1E
100
AcDbEntity
  8
OBJECT
100
AcDbCircle
 10
3.003299782493708
 20
24.45368284933624
 30
0.0
 40
0.065
  0
CIRCLE
  5
27D
330
1E
100
AcDbEntity
  8
OBJECT
100
AcDbCircle
 10
7.315799782493712
 20
24.45368284933624
 30
0.0
 40
0.065
  0
ARC
  5
27E
330
1E
100
AcDbEntity
  8
OBJECT
100
AcDbCircle
 10
2.995799782493707
 20
24.46118284933624
 30
0.0
 40
0.1875
100
AcDbArc
 50
90.0
 51
180.0
  0
ARC
  5
27F
330
1E
100
AcDbEntity
  8
OBJECT
100
AcDbCircle
 10
7.323299782493712
 20
24.46118284933624
 30
0.0
 40
0.1875
100
AcDbArc
 50
0.0
 51
90.0
  0
ARC
  5
280
330
1E
100
AcDbEntity
  8
OBJECT
100
AcDbCircle
 10
7.323299782493712
 20
20.13318284933623
 30
0.0
 40
0.1875
100
AcDbArc
 50
270.0
 51
0.0
  0
ARC
  5
281
330
1E
100
AcDbEntity
  8
OBJECT
100
AcDbCircle
 10
2.995799782493707
 20
20.13318284933623
 30
0.0
 40
0.1875
100
AcDbArc
 50
180.0
 51
270.0
  0
ARC
  5
282
330
1E
100
AcDbEntity
  8
OBJECT
100
AcDbCircle
 10
3.003299782493708
 20
24.45368284933624
 30
0.0
 40
0.125
100
AcDbArc
 50
270.0
 51
0.0
  0
LINE
  5
283
102
{ACAD_REACTORS
330
A46
102
}
330
1E
100
AcDbEntity
  8
OBJECT
100
AcDbLine
 10
3.485429304007556
 20
13.87757321023416
 30
0.0
 11
3.553240634557783
 21
11.93571077314635
 31
0.0
  0
LINE
  5
284
102
{ACAD_REACTORS
330
A46
102
}
330
1E
100
AcDbEntity
  8
OBJECT
100
AcDbLine
 10
3.678164487935169
 20
11.81507321023416
 30
0.0
 11
7.996194120079941
 21
11.81507321023416
 31
0.0
  0
LINE
  5
285
102
{ACAD_REACTORS
330
A46
102
}
330
1E
100
AcDbEntity
  8
OBJECT
100
AcDbLine
 10
8.12111797345733
 20
11.93571077314635
 30
0.0
 11
8.188929304007549
 21
13.87757321023416
 31
0.0
  0
LINE
  5
286
102
{ACAD_REACTORS
330
A46
102
}
330
1E
100
AcDbEntity
  8
OBJECT
100
AcDbLine
 10
8.188929304007549
 20
13.87757321023416
 30
0.0
 11
8.095122159229539
 21
13.87757321023416
 31
0.0
  0
LINE
  5
287
102
{ACAD_REACTORS
330
A46
102
}
330
1E
100
AcDbEntity
  8
OBJECT
100
AcDbLine
 10
3.579236448785568
 20
13.87757321023416
 30
0.0
 11
3.646425972482506
 21
11.95351699169024
 31
0.0
  0
LINE
  5
288
102
{ACAD_REACTORS
330
A46
102
}
330
1E
100
AcDbEntity
  8
OBJECT
100
AcDbLine
 10
8.027932635532607
 20
11.95351699169024
 30
0.0
 11
8.095122159229539
 21
13.87757321023416
 31
0.0
  0
ARC
  5
289
102
{ACAD_REACTORS
330
A46
102
}
330
1E
100
AcDbEntity
  8
OBJECT
100
AcDbCircle
 10
7.996194120079941
 20
11.94007321023416
 30
0.0
 40
0.125
100
AcDbArc
 50
270.0
 51
358.0
  0
ARC
  5
28A
102
{ACAD_REACTORS
330
A46
102
}
330
1E
100
AcDbEntity
  8
OBJECT
100
AcDbCircle
 10
3.678164487935169
 20
11.94007321023416
 30
0.0
 40
0.125
100
AcDbArc
 50
182.0
 51
270.0
  0
LINE
  5
28B
330
1E
100
AcDbEntity
  8
OBJECT
100
AcDbLine
 10
8.091848337089691
 20
13.78382321023416
 30
0.0
 11
7.872964999274321
 21
13.78382321023416
 31
0.0
  0
LINE
  5
28C
330
1E
100
AcDbEntity
  8
OBJECT
100
AcDbLine
 10
3.801393608740792
 20
13.78382321023416
 30
0.0
 11
3.865309310297873
 21
11.95351699169024
 31
0.0
  0
LINE
  5
28D
330
1E
100
AcDbEntity
  8
OBJECT
100
AcDbLine
 10
7.809049297717244
 20
11.95351699169024
 30
0.0
 11
7.872964999274321
 21
13.78382321023416
 31
0.0
  0
LINE
  5
28E
330
1E
100
AcDbEntity
  8
OBJECT
100
AcDbLine
 10
3.801393608740792
 20
13.78382321023416
 30
0.0
 11
3.582510270925421
 21
13.78382321023416
 31
0.0
  0
LINE
  5
28F
330
1E
100
AcDbEntity
  8
CENTER
100
AcDbLine
 10
3.668564207821087
 20
14.00257321023416
 30
0.0
 11
3.694754784939898
 21
13.25257321023416
 31
0.0
  0
LINE
  5
290
330
1E
100
AcDbEntity
  8
CENTER
100
AcDbLine
 10
8.005794400194027
 20
14.00257321023416
 30
0.0
 11
7.979603823075214
 21
13.25257321023416
 31
0.0
  0
DIMENSION
  5
291
330
1E
100
AcDbEntity
  8
DIM
100
AcDbDimension
  2
*D0
 10
8.611537403417552
 20
20.14068284933623
 30
0.0
 11
8.61153740341755
 21
22.29718284933623
 31
0.0
 70
    32
  1
E
 71
     5
 42
4.312999999999995
  3
23NSTD
100
AcDbAlignedDimension
 13
7.315799782493712
 23
24.45368284933624
 33
0.0
 14
7.315799782493712
 24
20.14068284933623
 34
0.0
 50
90.0
100
AcDbRotatedDimension
  0
DIMENSION
  5
292
330
1E
100
AcDbEntity
  8
DIM
100
AcDbDimension
  2
*D1
 10
9.194708422525485
 20
19.94568284933623
 30
0.0
 11
9.194708422525481
 21
22.29718284933623
 31
0.0
 70
    32
  1
A
 71
     5
 42
4.702999999999994
  3
23NSTD
100
AcDbAlignedDimension
 13
7.323299782493712
 23
24.64868284933624
 33
0.0
 14
7.323299782493712
 24
19.94568284933623
 34
0.0
 50
90.0
100
AcDbRotatedDimension
  0
LINE
  5
295
102
{ACAD_REACTORS
330
A46
102
}
330
1E
100
AcDbEntity
  8
OBJECT
100
AcDbLine
 10
3.708887899171198
 20
11.89319821023416
 30
0.0
 11
7.965470708843915
 21
11.89319821023416
 31
0.0
  0
ARC
  5
296
330
1E
100
AcDbEntity
  8
OBJECT
100
AcDbCircle
 10
3.927771236986568
 20
11.95569821023416
 30
0.0
 40
0.0625
100
AcDbArc
 50
182.0
 51
270.0
  0
ARC
  5
297
102
{ACAD_REACTORS
330
A46
102
}
330
1E
100
AcDbEntity
  8
OBJECT
100
AcDbCircle
 10
3.708887899171198
 20
11.95569821023416
 30
0.0
 40
0.0625
100
AcDbArc
 50
182.0
 51
270.0
  0
ARC
  5
298
330
1E
100
AcDbEntity
  8
OBJECT
100
AcDbCircle
 10
7.746587371028546
 20
11.95569821023416
 30
0.0
 40
0.0625
100
AcDbArc
 50
270.0
 51
358.0
  0
ARC
  5
299
102
{ACAD_REACTORS
330
A46
102
}
330
1E
100
AcDbEntity
  8
OBJECT
100
AcDbCircle
 10
7.965470708843915
 20
11.95569821023416
 30
0.0
 40
0.0625
100
AcDbArc
 50
270.0
 51
358.0
  0
LINE
  5
29A
330
1E
100
AcDbEntity
  8
OBJECT
100
AcDbLine
 10
8.095122159229539
 20
13.87757321023416
 30
0.0
 11
3.579236448785568
 21
13.87757321023416
 31
0.0
  0
LINE
  5
29B
102
{ACAD_REACTORS
330
A46
102
}
330
1E
100
AcDbEntity
  8
OBJECT
100
AcDbLine
 10
3.579236448785568
 20
13.87757321023416
 30
0.0
 11
3.485429304007556
 21
13.87757321023416
 31
0.0
  0
TEXT
  5
29C
330
1E
100
AcDbEntity
  8
BEND
100
AcDbText
 10
4.165149508862171
 20
25.20043704496116
 30
0.0
 40
0.281
  1
B
 41
0.75
 72
     4
 11
4.235399508862171
 21
25.34093704496116
 31
0.0
100
AcDbText
  0
TEXT
  5
2A3
330
1E
100
AcDbEntity
  8
BEND
100
AcDbText
 10
4.165149508862171
 20
19.11292865371132
 30
0.0
 40
0.281
  1
B
 41
0.75
 72
     4
 11
4.235399508862171
 21
19.25342865371132
 31
0.0
100
AcDbText
  0
LINE
  5
2A5
330
1E
100
AcDbEntity
  8
HIDDEN
100
AcDbLine
 10
3.741203126147406
 20
13.78382321023416
 30
0.0
 11
3.754140077973701
 21
13.41335738102753
 31
0.0
  0
LINE
  5
2A6
330
1E
100
AcDbEntity
  8
HIDDEN
100
AcDbLine
 10
3.611203126147405
 20
13.78382321023416
 30
0.0
 11
3.62429841470681
 21
13.40882321023416
 31
0.0
  0
LINE
  5
2A7
330
1E
100
AcDbEntity
  8
HIDDEN
100
AcDbLine
 10
3.62429841470681
 20
13.40882321023416
 30
0.0
 11
3.689136751533001
 21
13.37434805501043
 31
0.0
  0
LINE
  5
2A8
330
1E
100
AcDbEntity
  8
HIDDEN
100
AcDbLine
 10
3.754140077973701
 20
13.41335738102753
 30
0.0
 11
3.689136751533001
 21
13.37434805501043
 31
0.0
  0
LINE
  5
2A9
330
1E
100
AcDbEntity
  8
HIDDEN
100
AcDbLine
 10
3.62429841470681
 20
13.40882321023416
 30
0.0
 11
3.754140077973701
 21
13.41335738102753
 31
0.0
  0
LINE
  5
2AA
330
1E
100
AcDbEntity
  8
HIDDEN
100
AcDbLine
 10
8.050060193308302
 20
13.40882321023416
 30
0.0
 11
7.92021853004141
 21
13.41335738102753
 31
0.0
  0
LINE
  5
2AB
330
1E
100
AcDbEntity
  8
HIDDEN
100
AcDbLine
 10
7.92021853004141
 20
13.41335738102753
 30
0.0
 11
7.985221856482104
 21
13.37434805501043
 31
0.0
  0
LINE
  5
2AC
330
1E
100
AcDbEntity
  8
HIDDEN
100
AcDbLine
 10
8.050060193308302
 20
13.40882321023416
 30
0.0
 11
7.985221856482104
 21
13.37434805501043
 31
0.0
  0
LINE
  5
2AD
330
1E
100
AcDbEntity
  8
HIDDEN
100
AcDbLine
 10
8.063155481867701
 20
13.78382321023416
 30
0.0
 11
8.050060193308302
 21
13.40882321023416
 31
0.0
  0
LINE
  5
2AE
330
1E
100
AcDbEntity
  8
HIDDEN
100
AcDbLine
 10
7.933155481867706
 20
13.78382321023416
 30
0.0
 11
7.92021853004141
 21
13.41335738102753
 31
0.0
  0
LINE
  5
2AF
330
1E
100
AcDbEntity
  8
OBJECT
100
AcDbLine
 10
3.128299782493708
 20
24.45368284933624
 30
0.0
 11
3.128299782493708
 21
24.49293284933624
 31
0.0
  0
LINE
  5
2B0
330
1E
100
AcDbEntity
  8
OBJECT
100
AcDbLine
 10
3.003299782493708
 20
24.32868284933624
 30
0.0
 11
2.964049782493708
 21
24.32868284933624
 31
0.0
  0
ARC
  5
2B1
330
1E
100
AcDbEntity
  8
OBJECT
100
AcDbCircle
 10
3.190299782493709
 20
24.49293284933624
 30
0.0
 40
0.062
100
AcDbArc
 50
90.0
 51
180.0
  0
ARC
  5
2B2
330
1E
100
AcDbEntity
  8
OBJECT
100
AcDbCircle
 10
2.964049782493708
 20
24.26668284933624
 30
0.0
 40
0.062
100
AcDbArc
 50
90.0
 51
180.0
  0
ARC
  5
2B3
330
1E
100
AcDbEntity
  8
OBJECT
100
AcDbCircle
 10
7.35504978249371
 20
24.26668284933624
 30
0.0
 40
0.062
100
AcDbArc
 50
0.0
 51
90.0
  0
ARC
  5
2B4
330
1E
100
AcDbEntity
  8
OBJECT
100
AcDbCircle
 10
7.12879978249371
 20
24.49293284933624
 30
0.0
 40
0.062
100
AcDbArc
 50
0.0
 51
90.0
  0
LINE
  5
2B5
330
1E
100
AcDbEntity
  8
OBJECT
100
AcDbLine
 10
7.315799782493712
 20
24.32868284933624
 30
0.0
 11
7.35504978249371
 21
24.32868284933624
 31
0.0
  0
LINE
  5
2B6
330
1E
100
AcDbEntity
  8
OBJECT
100
AcDbLine
 10
7.190799782493712
 20
24.45368284933624
 30
0.0
 11
7.190799782493712
 21
24.49293284933624
 31
0.0
  0
ARC
  5
2B7
330
1E
100
AcDbEntity
  8
OBJECT
100
AcDbCircle
 10
7.315799782493712
 20
24.45368284933624
 30
0.0
 40
0.125
100
AcDbArc
 50
180.0
 51
270.0
  0
LINE
  5
2B8
330
1E
100
AcDbEntity
  8
OBJECT
100
AcDbLine
 10
2.90229978249371
 20
24.46068284933623
 30
0.0
 11
2.90229978249371
 21
20.13368284933624
 31
0.0
  0
LINE
  5
2B9
330
1E
100
AcDbEntity
  8
OBJECT
100
AcDbLine
 10
7.32279978249371
 20
24.55468284933624
 30
0.0
 11
2.996299782493711
 21
24.55468284933624
 31
0.0
  0
LINE
  5
2BA
330
1E
100
AcDbEntity
  8
OBJECT
100
AcDbLine
 10
7.41679978249371
 20
20.13368284933624
 30
0.0
 11
7.41679978249371
 21
24.46068284933623
 31
0.0
  0
LINE
  5
2BB
330
1E
100
AcDbEntity
  8
OBJECT
100
AcDbLine
 10
2.996299782493711
 20
20.03968284933623
 30
0.0
 11
7.32279978249371
 21
20.03968284933623
 31
0.0
  0
ARC
  5
2C2
330
1E
100
AcDbEntity
  8
OBJECT
100
AcDbCircle
 10
2.996299782493711
 20
24.46068284933623
 30
0.0
 40
0.094
100
AcDbArc
 50
90.0
 51
180.0
  0
ARC
  5
2C3
330
1E
100
AcDbEntity
  8
OBJECT
100
AcDbCircle
 10
7.32279978249371
 20
24.46068284933623
 30
0.0
 40
0.094
100
AcDbArc
 50
0.0
 51
90.0
  0
ARC
  5
2C4
330
1E
100
AcDbEntity
  8
OBJECT
100
AcDbCircle
 10
7.32279978249371
 20
20.13368284933624
 30
0.0
 40
0.094
100
AcDbArc
 50
270.0
 51
0.0
  0
ARC
  5
2C5
330
1E
100
AcDbEntity
  8
OBJECT
100
AcDbCircle
 10
2.996299782493711
 20
20.13368284933624
 30
0.0
 40
0.094
100
AcDbArc
 50
180.0
 51
270.0
  0
ARC
  5
2C6
330
1E
100
AcDbEntity
  8
OBJECT
100
AcDbCircle
 10
7.315799782493712
 20
20.14068284933623
 30
0.0
 40
0.125
100
AcDbArc
 50
90.0
 51
180.0
  0
LINE
  5
2C7
330
1E
100
AcDbEntity
  8
OBJECT
100
AcDbLine
 10
7.190799782493712
 20
20.14068284933623
 30
0.0
 11
7.190799782493712
 21
20.10143284933624
 31
0.0
  0
LINE
  5
2C8
330
1E
100
AcDbEntity
  8
OBJECT
100
AcDbLine
 10
7.315799782493712
 20
20.26568284933623
 30
0.0
 11
7.35504978249371
 21
20.26568284933623
 31
0.0
  0
ARC
  5
2C9
330
1E
100
AcDbEntity
  8
OBJECT
100
AcDbCircle
 10
7.12879978249371
 20
20.10143284933624
 30
0.0
 40
0.062
100
AcDbArc
 50
270.0
 51
0.0
  0
ARC
  5
2CA
330
1E
100
AcDbEntity
  8
OBJECT
100
AcDbCircle
 10
7.35504978249371
 20
20.32768284933623
 30
0.0
 40
0.062
100
AcDbArc
 50
270.0
 51
0.0
  0
ARC
  5
2CB
330
1E
100
AcDbEntity
  8
OBJECT
100
AcDbCircle
 10
2.964049782493708
 20
20.32768284933623
 30
0.0
 40
0.062
100
AcDbArc
 50
180.0
 51
270.0
  0
ARC
  5
2CC
330
1E
100
AcDbEntity
  8
OBJECT
100
AcDbCircle
 10
3.190299782493709
 20
20.10143284933624
 30
0.0
 40
0.062
100
AcDbArc
 50
180.0
 51
270.0
  0
LINE
  5
2CD
330
1E
100
AcDbEntity
  8
OBJECT
100
AcDbLine
 10
3.003299782493708
 20
20.26568284933623
 30
0.0
 11
2.964049782493708
 21
20.26568284933623
 31
0.0
  0
LINE
  5
2CE
330
1E
100
AcDbEntity
  8
OBJECT
100
AcDbLine
 10
3.128299782493708
 20
20.14068284933623
 30
0.0
 11
3.128299782493708
 21
20.10143284933624
 31
0.0
  0
ARC
  5
2CF
330
1E
100
AcDbEntity
  8
OBJECT
100
AcDbCircle
 10
3.003299782493708
 20
20.14068284933623
 30
0.0
 40
0.125
100
AcDbArc
 50
0.0
 51
90.0
  0
CIRCLE
  5
2D0
330
1E
100
AcDbEntity
  8
OBJECT
100
AcDbCircle
 10
7.315799782493712
 20
20.14068284933623
 30
0.0
 40
0.065
  0
CIRCLE
  5
2D1
330
1E
100
AcDbEntity
  8
OBJECT
100
AcDbCircle
 10
3.003299782493708
 20
20.14068284933623
 30
0.0
 40
0.065
  0
CIRCLE
  5
2D2
330
1E
100
AcDbEntity
  8
OBJECT
100
AcDbCircle
 10
3.003299782493708
 20
22.29718284933623
 30
0.0
 40
0.065
  0
ARC
  5
2D3
330
1E
100
AcDbEntity
  8
OBJECT
100
AcDbCircle
 10
3.003299782493708
 20
22.29718284933623
 30
0.0
 40
0.125
100
AcDbArc
 50
270.0
 51
90.0
  0
LINE
  5
2D4
330
1E
100
AcDbEntity
  8
OBJECT
100
AcDbLine
 10
3.003299782493708
 20
22.17218284933622
 30
0.0
 11
2.964049782493708
 21
22.17218284933622
 31
0.0
  0
LINE
  5
2D5
330
1E
100
AcDbEntity
  8
OBJECT
100
AcDbLine
 10
3.003299782493708
 20
22.42218284933624
 30
0.0
 11
2.964049782493708
 21
22.42218284933624
 31
0.0
  0
ARC
  5
2D6
330
1E
100
AcDbEntity
  8
OBJECT
100
AcDbCircle
 10
2.964049782493708
 20
22.11018284933623
 30
0.0
 40
0.062
100
AcDbArc
 50
90.0
 51
180.0
  0
ARC
  5
2D7
330
1E
100
AcDbEntity
  8
OBJECT
100
AcDbCircle
 10
2.964049782493708
 20
22.48418284933622
 30
0.0
 40
0.062
100
AcDbArc
 50
180.0
 51
270.0
  0
ARC
  5
2D8
330
1E
100
AcDbEntity
  8
OBJECT
100
AcDbCircle
 10
7.35504978249371
 20
22.48418284933622
 30
0.0
 40
0.062
100
AcDbArc
 50
270.0
 51
0.0
  0
ARC
  5
2D9
330
1E
100
AcDbEntity
  8
OBJECT
100
AcDbCircle
 10
7.35504978249371
 20
22.11018284933623
 30
0.0
 40
0.062
100
AcDbArc
 50
0.0
 51
90.0
  0
LINE
  5
2DA
330
1E
100
AcDbEntity
  8
OBJECT
100
AcDbLine
 10
7.315799782493712
 20
22.42218284933624
 30
0.0
 11
7.35504978249371
 21
22.42218284933624
 31
0.0
  0
LINE
  5
2DB
330
1E
100
AcDbEntity
  8
OBJECT
100
AcDbLine
 10
7.315799782493712
 20
22.17218284933622
 30
0.0
 11
7.35504978249371
 21
22.17218284933622
 31
0.0
  0
ARC
  5
2DC
330
1E
100
AcDbEntity
  8
OBJECT
100
AcDbCircle
 10
7.315799782493712
 20
22.29718284933623
 30
0.0
 40
0.125
100
AcDbArc
 50
90.0
 51
270.0
  0
CIRCLE
  5
2DD
330
1E
100
AcDbEntity
  8
OBJECT
100
AcDbCircle
 10
7.315799782493712
 20
22.29718284933623
 30
0.0
 40
0.065
  0
DIMENSION
  5
2DE
330
1E
100
AcDbEntity
  8
DIM
100
AcDbDimension
  2
*D2
 10
8.008683241158918
 20
22.29718284933623
 30
0.0
 11
8.008683241158914
 21
21.21893284933623
 31
0.0
 70
    32
  1
G
 71
     5
 42
2.156499999999994
  3
23NSTD
100
AcDbAlignedDimension
 13
7.315799782493712
 23
20.14068284933623
 33
0.0
 14
7.315799782493712
 24
22.29718284933623
 34
0.0
 50
270.0
100
AcDbRotatedDimension
  0
LINE
  5
2DF
330
1E
100
AcDbEntity
  8
HIDDEN
100
AcDbLine
 10
5.771968900251311
 20
13.40882321023416
 30
0.0
 11
5.901889707763793
 21
13.40882321023416
 31
0.0
  0
LINE
  5
2E0
330
1E
100
AcDbEntity
  8
HIDDEN
100
AcDbLine
 10
5.901889707763793
 20
13.40882321023416
 30
0.0
 11
5.835564573748533
 21
13.37210623102124
 31
0.0
  0
LINE
  5
2E1
330
1E
100
AcDbEntity
  8
HIDDEN
100
AcDbLine
 10
5.771968900251311
 20
13.40882321023416
 30
0.0
 11
5.835564573748533
 21
13.37210623102124
 31
0.0
  0
LINE
  5
2E2
330
1E
100
AcDbEntity
  8
HIDDEN
100
AcDbLine
 10
5.771968900251311
 20
13.78382321023416
 30
0.0
 11
5.771968900251311
 21
13.40882321023416
 31
0.0
  0
LINE
  5
2E3
330
1E
100
AcDbEntity
  8
HIDDEN
100
AcDbLine
 10
5.901889707763793
 20
13.78382321023416
 30
0.0
 11
5.901889707763793
 21
13.40882321023416
 31
0.0
  0
LINE
  5
2E4
330
1E
100
AcDbEntity
  8
CENTER
100
AcDbLine
 10
5.836929304007553
 20
14.00257321023416
 30
0.0
 11
5.836929304007553
 21
13.25211605201003
 31
0.0
  0
LINE
  5
2E5
330
1E
100
AcDbEntity
  8
OBJECT
100
AcDbLine
 10
5.961929304007553
 20
13.78382321023416
 30
0.0
 11
5.711929304007553
 21
13.78382321023416
 31
0.0
  0
LINE
  5
2E6
330
1E
100
AcDbEntity
  8
OBJECT
100
AcDbLine
 10
5.961929304007553
 20
13.78382321023416
 30
0.0
 11
6.025845005564639
 21
11.95351699169024
 31
0.0
  0
ARC
  5
2E7
330
1E
100
AcDbEntity
  8
OBJECT
100
AcDbCircle
 10
6.08830693225333
 20
11.95569821023416
 30
0.0
 40
0.0625
100
AcDbArc
 50
182.0
 51
270.0
  0
ARC
  5
2E8
330
1E
100
AcDbEntity
  8
OBJECT
100
AcDbCircle
 10
5.585551675761776
 20
11.95569821023416
 30
0.0
 40
0.0625
100
AcDbArc
 50
270.0
 51
358.0
  0
LINE
  5
2E9
330
1E
100
AcDbEntity
  8
OBJECT
100
AcDbLine
 10
5.711929304007553
 20
13.78382321023416
 30
0.0
 11
5.648013602450467
 21
11.95351699169024
 31
0.0
  0
LINE
  5
2EA
330
1E
100
AcDbEntity
  8
OBJECT
100
AcDbLine
 10
2.995799782493712
 20
27.59131367118587
 30
0.0
 11
7.323299782493712
 21
27.59131367118587
 31
0.0
  0
LINE
  5
2EB
330
1E
100
AcDbEntity
  8
OBJECT
100
AcDbLine
 10
7.510799782493712
 20
27.77881367118586
 30
0.0
 11
7.510799782493712
 21
32.10681367118587
 31
0.0
  0
LINE
  5
2EC
330
1E
100
AcDbEntity
  8
OBJECT
100
AcDbLine
 10
7.323299782493712
 20
32.29431367118587
 30
0.0
 11
2.995799782493712
 21
32.29431367118587
 31
0.0
  0
LINE
  5
2ED
330
1E
100
AcDbEntity
  8
OBJECT
100
AcDbLine
 10
2.808299782493712
 20
32.10681367118587
 30
0.0
 11
2.808299782493712
 21
27.77881367118586
 31
0.0
  0
ARC
  5
2EE
330
1E
100
AcDbEntity
  8
OBJECT
100
AcDbCircle
 10
7.323299782493712
 20
27.77881367118586
 30
0.0
 40
0.1875
100
AcDbArc
 50
270.0
 51
0.0
  0
ARC
  5
2EF
330
1E
100
AcDbEntity
  8
OBJECT
100
AcDbCircle
 10
7.323299782493712
 20
32.10681367118587
 30
0.0
 40
0.1875
100
AcDbArc
 50
0.0
 51
90.0
  0
ARC
  5
2F0
330
1E
100
AcDbEntity
  8
OBJECT
100
AcDbCircle
 10
2.995799782493712
 20
32.10681367118587
 30
0.0
 40
0.1875
100
AcDbArc
 50
90.0
 51
180.0
  0
ARC
  5
2F1
330
1E
100
AcDbEntity
  8
OBJECT
100
AcDbCircle
 10
2.995799782493712
 20
27.77881367118586
 30
0.0
 40
0.1875
100
AcDbArc
 50
180.0
 51
270.0
  0
CIRCLE
  5
2F2
330
1E
100
AcDbEntity
  8
OBJECT
100
AcDbCircle
 10
7.315799782493712
 20
32.09931367118587
 30
0.0
 40
0.078125
  0
CIRCLE
  5
2F3
330
1E
100
AcDbEntity
  8
OBJECT
100
AcDbCircle
 10
3.003299782493711
 20
32.09931367118587
 30
0.0
 40
0.078125
  0
ARC
  5
2F4
330
1E
100
AcDbEntity
  8
OBJECT
100
AcDbCircle
 10
3.003299782493711
 20
32.09931367118587
 30
0.0
 40
0.125
100
AcDbArc
 50
280.2420780715145
 51
350.1468812512676
  0
ARC
  5
2F5
330
1E
100
AcDbEntity
  8
OBJECT
100
AcDbCircle
 10
7.315799782493712
 20
32.09931367118587
 30
0.0
 40
0.125
100
AcDbArc
 50
189.8531187487348
 51
259.7579219284833
  0
LINE
  5
2F6
330
1E
100
AcDbEntity
  8
OBJECT
100
AcDbLine
 10
8.188429304007549
 20
15.86456339953521
 30
0.0
 11
8.063429304007549
 21
15.86456339953521
 31
0.0
  0
LINE
  5
2F7
330
1E
100
AcDbEntity
  8
OBJECT
100
AcDbLine
 10
7.922804304007549
 20
15.63018839953522
 30
0.0
 11
7.922804304007549
 21
15.78643839953521
 31
0.0
  0
LINE
  5
2F8
330
1E
100
AcDbEntity
  8
OBJECT
100
AcDbLine
 10
3.751054304007548
 20
15.63018839953522
 30
0.0
 11
3.751054304007553
 21
15.78643839953521
 31
0.0
  0
LINE
  5
2F9
330
1E
100
AcDbEntity
  8
OBJECT
100
AcDbLine
 10
3.649179304007548
 20
15.63018839953521
 30
0.0
 11
8.024679304007555
 21
15.63018839953521
 31
0.0
  0
LINE
  5
2FA
330
1E
100
AcDbEntity
  8
OBJECT
100
AcDbLine
 10
3.485429304007553
 20
15.73956339953521
 30
0.0
 11
3.485429304007553
 21
15.86456339953521
 31
0.0
  0
LINE
  5
2FB
330
1E
100
AcDbEntity
  8
OBJECT
100
AcDbLine
 10
8.188429304007549
 20
15.73956339953521
 30
0.0
 11
8.188429304007549
 21
15.86456339953522
 31
0.0
  0
DIMENSION
  5
2FC
330
1E
100
AcDbEntity
  8
DIM
100
AcDbDimension
  2
*D3
 10
8.611537403417552
 20
32.09931367118587
 30
0.0
 11
8.611537403417544
 21
29.94281367118587
 31
0.0
 70
    32
  1
E
 71
     5
 42
4.313000000000001
  3
23NSTD
100
AcDbAlignedDimension
 13
7.315799782493715
 23
27.78631367118586
 33
0.0
 14
7.315799782493715
 24
32.09931367118587
 34
0.0
 50
270.0
100
AcDbRotatedDimension
  0
DIMENSION
  5
2FD
330
1E
100
AcDbEntity
  8
DIM
100
AcDbDimension
  2
*D4
 10
9.194708422525481
 20
27.59131367118587
 30
0.0
 11
9.194708422525476
 21
29.94281367118587
 31
0.0
 70
    32
  1
A
 71
     5
 42
4.703000000000002
  3
23NSTD
100
AcDbAlignedDimension
 13
7.323299782493715
 23
32.29431367118587
 33
0.0
 14
7.323299782493715
 24
27.59131367118587
 34
0.0
 50
270.0
100
AcDbRotatedDimension
  0
DIMENSION
  5
2FE
330
1E
100
AcDbEntity
  8
DIM
100
AcDbDimension
  2
*D5
 10
7.510799782493712
 20
33.76831367118585
 30
0.0
 11
5.15954978249371
 21
33.76831367118585
 31
0.0
 70
    32
  1
B
 71
     5
 42
4.702499999999999
  3
23NSTD
100
AcDbAlignedDimension
 13
2.80829978249371
 23
32.10681367118587
 33
0.0
 14
7.510799782493712
 24
32.10681367118587
 34
0.0
100
AcDbRotatedDimension
  0
TEXT
  5
2FF
330
1E
100
AcDbEntity
  8
BEND
100
AcDbText
 10
4.099233430309976
 20
32.38588947553614
 30
0.0
 40
0.281
  1
A
 41
0.75
 72
     4
 11
4.169483430309976
 21
32.52638947553615
 31
0.0
100
AcDbText
  0
DIMENSION
  5
300
330
1E
100
AcDbEntity
  8
DIM
100
AcDbDimension
  2
*D6
 10
2.80829978249371
 20
33.24056367118586
 30
0.0
 11
1.72548728249371
 21
33.24056367118586
 31
0.0
 70
    32
  1
L
 71
     5
 42
0.1950000000000003
  3
23NSTD
100
AcDbAlignedDimension
 13
3.003299782493711
 23
32.09931367118587
 33
0.0
 14
2.80829978249371
 24
32.10681367118587
 34
0.0
100
AcDbRotatedDimension
  0
DIMENSION
  5
301
330
1E
100
AcDbEntity
  8
DIM
100
AcDbDimension
  2
*D7
 10
7.31579978249371
 20
33.24056367118586
 30
0.0
 11
5.15954978249371
 21
33.24056367118586
 31
0.0
 70
    32
  1
F
 71
     5
 42
4.3125
  3
23NSTD
100
AcDbAlignedDimension
 13
3.003299782493711
 23
32.09931367118587
 33
0.0
 14
7.31579978249371
 24
32.09931367118587
 34
0.0
100
AcDbRotatedDimension
  0
LWPOLYLINE
  5
302
102
{ACAD_REACTORS
330
A30
102
}
330
1E
100
AcDbEntity
  8
OBJECT
100
AcDbPolyline
 90
       17
 70
     0
 43
0.0
 10
8.188429304007549
 20
15.73956339953522
 10
8.188429304007549
 20
15.70831339953522
 10
8.084679304007558
 20
15.70831339953522
 10
8.084679304007558
 20
15.63018839953522
 10
8.024679304007555
 20
15.63018839953522
 10
8.024679304007555
 20
15.72393839953521
 42
0.4142135623730971
 10
7.962179304007555
 20
15.78643839953522
 10
3.711679304007553
 20
15.78643839953522
 42
0.4142135623730951
 10
3.649179304007553
 20
15.72393839953521
 10
3.649179304007549
 20
15.63018839953522
 10
3.589179304007551
 20
15.63018839953522
 10
3.589179304007551
 20
15.70831339953522
 10
3.485429304007553
 20
15.70831339953522
 10
3.485429304007553
 20
15.73956339953522
 42
-0.4142135623730951
 10
3.610429304007553
 20
15.86456339953522
 10
8.063429304007549
 20
15.86456339953522
 42
-0.4142135623730951
 10
8.188429304007549
 20
15.73956339953522
 42
-4.1764428448697
  0
LINE
  5
315
330
1E
100
AcDbEntity
  8
OBJECT
100
AcDbLine
 10
3.610429304007553
 20
15.86456339953521
 30
0.0
 11
3.485429304007553
 21
15.86456339953521
 31
0.0
  0
TEXT
  5
322
330
1E
100
AcDbEntity
  8
BEND
100
AcDbText
 10
4.099233430309976
 20
27.15057915675401
 30
0.0
 40
0.281
  1
A
 41
0.75
 72
     4
 11
4.169483430309976
 21
27.29107915675401
 31
0.0
100
AcDbText
  0
DIMENSION
  5
323
330
1E
100
AcDbEntity
  8
DIM
100
AcDbDimension
  2
*D8
 10
8.611537403417552
 20
32.29431367118588
 30
0.0
 11
9.289349903417546
 21
33.10431367118587
 31
0.0
 70
    32
  1
L
 71
     5
 42
0.1950000000000003
  3
23NSTD
100
AcDbAlignedDimension
 13
7.31579978249371
 23
32.09931367118588
 33
0.0
 14
7.323299782493712
 24
32.29431367118588
 34
0.0
 50
270.0
100
AcDbRotatedDimension
  0
LINE
  5
324
330
1E
100
AcDbEntity
  8
OBJECT
100
AcDbLine
 10
2.914549782493711
 20
31.95918867118587
 30
0.0
 11
2.914549782493711
 21
30.08293867118587
 31
0.0
  0
LINE
  5
325
330
1E
100
AcDbEntity
  8
OBJECT
100
AcDbLine
 10
7.404549782493712
 20
31.95918867118587
 30
0.0
 11
7.404549782493712
 21
30.08293867118587
 31
0.0
  0
LINE
  5
326
330
1E
100
AcDbEntity
  8
OBJECT
100
AcDbLine
 10
2.97454978249371
 20
31.91529346169787
 30
0.0
 11
2.97454978249371
 21
30.12683388067388
 31
0.0
  0
LINE
  5
327
330
1E
100
AcDbEntity
  8
OBJECT
100
AcDbLine
 10
7.34454978249371
 20
31.9152934616979
 30
0.0
 11
7.34454978249371
 21
30.12683388067388
 31
0.0
  0
ARC
  5
328
330
1E
100
AcDbEntity
  8
OBJECT
100
AcDbCircle
 10
3.036549782493711
 20
31.91529346169787
 30
0.0
 40
0.062
100
AcDbArc
 50
100.2420780715145
 51
180.0
  0
ARC
  5
329
330
1E
100
AcDbEntity
  8
OBJECT
100
AcDbCircle
 10
7.282549782493712
 20
31.9152934616979
 30
0.0
 40
0.062
100
AcDbArc
 50
0.0
 51
79.75792192848231
  0
LINE
  5
32A
330
1E
100
AcDbEntity
  8
OBJECT
100
AcDbLine
 10
3.003299782493711
 20
32.02118867118587
 30
0.0
 11
2.976549782493711
 21
32.02118867118587
 31
0.0
  0
LINE
  5
32B
330
1E
100
AcDbEntity
  8
OBJECT
100
AcDbLine
 10
7.315799782493712
 20
32.02118867118587
 30
0.0
 11
7.342549782493712
 21
32.02118867118587
 31
0.0
  0
ARC
  5
32C
330
1E
100
AcDbEntity
  8
OBJECT
100
AcDbCircle
 10
7.342549782493712
 20
31.95918867118587
 30
0.0
 40
0.062
100
AcDbArc
 50
0.0
 51
90.0
  0
ARC
  5
32D
330
1E
100
AcDbEntity
  8
OBJECT
100
AcDbCircle
 10
2.976549782493711
 20
31.95918867118587
 30
0.0
 40
0.062
100
AcDbArc
 50
90.0
 51
180.0
  0
ARC
  5
330
330
1E
100
AcDbEntity
  8
OBJECT
100
AcDbCircle
 10
3.187541471587166
 20
32.06731367118587
 30
0.0
 40
0.062
100
AcDbArc
 50
90.0
 51
170.1468812512669
  0
ARC
  5
331
330
1E
100
AcDbEntity
  8
OBJECT
100
AcDbCircle
 10
7.131558093400298
 20
32.06731367118587
 30
0.0
 40
0.062
100
AcDbArc
 50
9.853118748734534
 51
90.0
  0
LINE
  5
332
330
1E
100
AcDbEntity
  8
OBJECT
100
AcDbLine
 10
3.081424782493711
 20
32.09931367118587
 30
0.0
 11
3.081424782493711
 21
32.12731367118586
 31
0.0
  0
LINE
  5
333
330
1E
100
AcDbEntity
  8
OBJECT
100
AcDbLine
 10
7.237674782493712
 20
32.09931367118587
 30
0.0
 11
7.237674782493712
 21
32.12731367118586
 31
0.0
  0
ARC
  5
334
330
1E
100
AcDbEntity
  8
OBJECT
100
AcDbCircle
 10
3.143424782493709
 20
32.12731367118586
 30
0.0
 40
0.062
100
AcDbArc
 50
90.0
 51
180.0
  0
ARC
  5
335
330
1E
100
AcDbEntity
  8
OBJECT
100
AcDbCircle
 10
7.17567478249371
 20
32.12731367118586
 30
0.0
 40
0.062
100
AcDbArc
 50
0.0
 51
90.0
  0
ARC
  5
336
330
1E
100
AcDbEntity
  8
OBJECT
100
AcDbCircle
 10
7.17567478249371
 20
27.75831367118587
 30
0.0
 40
0.062
100
AcDbArc
 50
270.0
 51
0.0
  0
ARC
  5
337
330
1E
100
AcDbEntity
  8
OBJECT
100
AcDbCircle
 10
3.143424782493709
 20
27.75831367118587
 30
0.0
 40
0.062
100
AcDbArc
 50
180.0
 51
270.0
  0
LINE
  5
338
330
1E
100
AcDbEntity
  8
OBJECT
100
AcDbLine
 10
7.237674782493712
 20
27.78631367118586
 30
0.0
 11
7.237674782493712
 21
27.75831367118587
 31
0.0
  0
LINE
  5
339
330
1E
100
AcDbEntity
  8
OBJECT
100
AcDbLine
 10
3.081424782493711
 20
27.78631367118586
 30
0.0
 11
3.081424782493711
 21
27.75831367118587
 31
0.0
  0
ARC
  5
33A
330
1E
100
AcDbEntity
  8
OBJECT
100
AcDbCircle
 10
7.131558093400298
 20
27.81831367118587
 30
0.0
 40
0.062
100
AcDbArc
 50
270.0
 51
350.1468812512654
  0
ARC
  5
33B
330
1E
100
AcDbEntity
  8
OBJECT
100
AcDbCircle
 10
3.187541471587166
 20
27.81831367118587
 30
0.0
 40
0.062
100
AcDbArc
 50
189.8531187487329
 51
270.0
  0
LINE
  5
33C
330
1E
100
AcDbEntity
  8
OBJECT
100
AcDbLine
 10
7.131558093400298
 20
27.75631367118587
 30
0.0
 11
5.343569991981715
 21
27.75631367118587
 31
0.0
  0
LINE
  5
33D
330
1E
100
AcDbEntity
  8
OBJECT
100
AcDbLine
 10
7.17567478249371
 20
27.69631367118587
 30
0.0
 11
5.29967478249371
 21
27.69631367118587
 31
0.0
  0
ARC
  5
33E
330
1E
100
AcDbEntity
  8
OBJECT
100
AcDbCircle
 10
2.976549782493711
 20
27.92643867118587
 30
0.0
 40
0.062
100
AcDbArc
 50
180.0
 51
270.0
  0
ARC
  5
33F
330
1E
100
AcDbEntity
  8
OBJECT
100
AcDbCircle
 10
7.342549782493712
 20
27.92643867118587
 30
0.0
 40
0.062
100
AcDbArc
 50
270.0
 51
0.0
  0
LINE
  5
340
330
1E
100
AcDbEntity
  8
OBJECT
100
AcDbLine
 10
7.315799782493712
 20
27.86443867118586
 30
0.0
 11
7.342549782493712
 21
27.86443867118586
 31
0.0
  0
LINE
  5
341
330
1E
100
AcDbEntity
  8
OBJECT
100
AcDbLine
 10
3.003299782493711
 20
27.86443867118586
 30
0.0
 11
2.976549782493711
 21
27.86443867118586
 31
0.0
  0
ARC
  5
342
330
1E
100
AcDbEntity
  8
OBJECT
100
AcDbCircle
 10
7.282549782493712
 20
27.97033388067383
 30
0.0
 40
0.062
100
AcDbArc
 50
280.2420780715176
 51
0.0
  0
ARC
  5
343
330
1E
100
AcDbEntity
  8
OBJECT
100
AcDbCircle
 10
3.036549782493711
 20
27.97033388067388
 30
0.0
 40
0.062
100
AcDbArc
 50
180.0
 51
259.7579219284854
  0
ARC
  5
344
330
1E
100
AcDbEntity
  8
OBJECT
100
AcDbCircle
 10
7.315799782493712
 20
27.78631367118586
 30
0.0
 40
0.125
100
AcDbArc
 50
100.2420780715165
 51
170.1468812512651
  0
ARC
  5
345
330
1E
100
AcDbEntity
  8
OBJECT
100
AcDbCircle
 10
3.003299782493711
 20
27.78631367118586
 30
0.0
 40
0.125
100
AcDbArc
 50
9.853118748732351
 51
79.7579219284853
  0
CIRCLE
  5
346
330
1E
100
AcDbEntity
  8
OBJECT
100
AcDbCircle
 10
3.003299782493711
 20
27.78631367118586
 30
0.0
 40
0.078125
  0
CIRCLE
  5
347
330
1E
100
AcDbEntity
  8
OBJECT
100
AcDbCircle
 10
7.315799782493712
 20
27.78631367118586
 30
0.0
 40
0.078125
  0
CIRCLE
  5
348
330
1E
100
AcDbEntity
  8
OBJECT
100
AcDbCircle
 10
3.003299782493711
 20
29.94281367118587
 30
0.0
 40
0.078125
  0
ARC
  5
349
330
1E
100
AcDbEntity
  8
OBJECT
100
AcDbCircle
 10
3.003299782493711
 20
29.94281367118587
 30
0.0
 40
0.125
100
AcDbArc
 50
280.2420780715144
 51
79.7579219284853
  0
ARC
  5
34A
330
1E
100
AcDbEntity
  8
OBJECT
100
AcDbCircle
 10
3.036549782493711
 20
30.12683388067388
 30
0.0
 40
0.062
100
AcDbArc
 50
180.0
 51
259.7579219284854
  0
LINE
  5
34B
330
1E
100
AcDbEntity
  8
OBJECT
100
AcDbLine
 10
3.003299782493711
 20
30.02093867118587
 30
0.0
 11
2.976549782493711
 21
30.02093867118587
 31
0.0
  0
ARC
  5
34C
330
1E
100
AcDbEntity
  8
OBJECT
100
AcDbCircle
 10
2.976549782493711
 20
30.08293867118587
 30
0.0
 40
0.062
100
AcDbArc
 50
180.0
 51
270.0
  0
LINE
  5
34D
330
1E
100
AcDbEntity
  8
OBJECT
100
AcDbLine
 10
3.003299782493711
 20
29.86468867118587
 30
0.0
 11
2.976549782493711
 21
29.86468867118587
 31
0.0
  0
LINE
  5
34E
330
1E
100
AcDbEntity
  8
OBJECT
100
AcDbLine
 10
2.914549782493711
 20
29.80268867118587
 30
0.0
 11
2.914549782493711
 21
27.92643867118587
 31
0.0
  0
ARC
  5
34F
330
1E
100
AcDbEntity
  8
OBJECT
100
AcDbCircle
 10
2.976549782493711
 20
29.80268867118587
 30
0.0
 40
0.062
100
AcDbArc
 50
90.0
 51
180.0
  0
ARC
  5
350
330
1E
100
AcDbEntity
  8
OBJECT
100
AcDbCircle
 10
3.036549782493711
 20
29.75879346169786
 30
0.0
 40
0.062
100
AcDbArc
 50
100.2420780715147
 51
180.0
  0
LINE
  5
351
330
1E
100
AcDbEntity
  8
OBJECT
100
AcDbLine
 10
2.97454978249371
 20
29.75879346169786
 30
0.0
 11
2.97454978249371
 21
27.97033388067388
 31
0.0
  0
ARC
  5
352
330
1E
100
AcDbEntity
  8
OBJECT
100
AcDbCircle
 10
7.282549782493712
 20
29.75879346169786
 30
0.0
 40
0.062
100
AcDbArc
 50
0.0
 51
79.75792192848517
  0
ARC
  5
353
330
1E
100
AcDbEntity
  8
OBJECT
100
AcDbCircle
 10
7.342549782493715
 20
29.80268867118587
 30
0.0
 40
0.062
100
AcDbArc
 50
0.0
 51
90.0
  0
LINE
  5
354
330
1E
100
AcDbEntity
  8
OBJECT
100
AcDbLine
 10
7.315799782493715
 20
29.86468867118587
 30
0.0
 11
7.342549782493715
 21
29.86468867118587
 31
0.0
  0
ARC
  5
355
330
1E
100
AcDbEntity
  8
OBJECT
100
AcDbCircle
 10
7.342549782493712
 20
30.08293867118587
 30
0.0
 40
0.062
100
AcDbArc
 50
270.0
 51
0.0
  0
LINE
  5
356
330
1E
100
AcDbEntity
  8
OBJECT
100
AcDbLine
 10
7.315799782493715
 20
30.02093867118587
 30
0.0
 11
7.342549782493712
 21
30.02093867118587
 31
0.0
  0
ARC
  5
357
330
1E
100
AcDbEntity
  8
OBJECT
100
AcDbCircle
 10
7.282549782493712
 20
30.12683388067388
 30
0.0
 40
0.062
100
AcDbArc
 50
280.2420780715144
 51
0.0
  0
ARC
  5
358
330
1E
100
AcDbEntity
  8
OBJECT
100
AcDbCircle
 10
7.315799782493715
 20
29.94281367118587
 30
0.0
 40
0.125
100
AcDbArc
 50
100.2420780715145
 51
259.7579219284854
  0
CIRCLE
  5
359
330
1E
100
AcDbEntity
  8
OBJECT
100
AcDbCircle
 10
7.315799782493715
 20
29.94281367118587
 30
0.0
 40
0.078125
  0
LINE
  5
35A
330
1E
100
AcDbEntity
  8
OBJECT
100
AcDbLine
 10
7.404549782493712
 20
29.80268867118587
 30
0.0
 11
7.404549782493712
 21
27.92643867118587
 31
0.0
  0
LINE
  5
35B
330
1E
100
AcDbEntity
  8
OBJECT
100
AcDbLine
 10
7.34454978249371
 20
29.75879346169786
 30
0.0
 11
7.34454978249371
 21
27.97033388067383
 31
0.0
  0
DIMENSION
  5
35C
330
1E
100
AcDbEntity
  8
DIM
100
AcDbDimension
  2
*D9
 10
8.008683241158916
 20
29.94281367118587
 30
0.0
 11
8.008683241158911
 21
28.86456367118586
 31
0.0
 70
    32
  1
G
 71
     5
 42
2.1565
  3
23NSTD
100
AcDbAlignedDimension
 13
7.315799782493715
 23
27.78631367118586
 33
0.0
 14
7.315799782493715
 24
29.94281367118587
 34
0.0
 50
270.0
100
AcDbRotatedDimension
  0
LINE
  5
35D
330
1E
100
AcDbEntity
  8
OBJECT
100
AcDbLine
 10
20.65284071506751
 20
24.24948084658724
 30
0.0
 11
16.90374312992535
 21
26.41402334658724
 31
0.0
  0
LINE
  5
35E
330
1E
100
AcDbEntity
  8
OBJECT
100
AcDbLine
 10
12.66895251757876
 20
24.15598084658723
 30
0.0
 11
16.58526176002352
 21
26.41706304194254
 31
0.0
  0
LINE
  5
35F
330
1E
100
AcDbEntity
  8
OBJECT
100
AcDbLine
 10
12.72524416882474
 20
24.12348084658724
 30
0.0
 11
16.63621489231528
 21
26.38148084658723
 31
0.0
  0
LINE
  5
360
330
1E
100
AcDbEntity
  8
OBJECT
100
AcDbLine
 10
20.59654906382152
 20
24.21698084658723
 30
0.0
 11
16.84752509083867
 21
26.38148084658723
 31
0.0
  0
LWPOLYLINE
  5
361
330
1E
100
AcDbEntity
  8
OBJECT
100
AcDbPolyline
 90
        4
 70
     0
 43
0.0
 10
16.74179637941766
 20
26.45275231466912
 42
0.0587518675353738
 10
16.6498355866239
 20
26.4419091497951
 42
0.0723410840576607
 10
16.57984962890997
 20
26.41402334658724
 42
0.0074209161895268
 10
16.57559137979301
 20
26.41147984531329
 42
0.1568512196707919
  0
LWPOLYLINE
  5
367
330
1E
100
AcDbEntity
  8
OBJECT
100
AcDbPolyline
 90
        3
 70
     0
 43
0.0
 10
16.90374312992535
 20
26.41402334658724
 42
0.072341084057657
 10
16.83375717221143
 20
26.4419091497951
 42
0.0587518675353763
 10
16.74179637941766
 20
26.45275231466912
 42
0.0587518675353738
  0
LWPOLYLINE
  5
36C
330
1E
100
AcDbEntity
  8
OBJECT
100
AcDbPolyline
 90
        3
 70
     0
 43
0.0
 10
16.74186999157698
 20
26.40674787389198
 42
0.058751867535373
 10
16.68187418023559
 20
26.39967372354639
 42
0.0723410840576583
 10
16.63621489231528
 20
26.38148084658723
 42
0.1066170543910154
  0
LWPOLYLINE
  5
371
330
1E
100
AcDbEntity
  8
OBJECT
100
AcDbPolyline
 90
        3
 70
     0
 43
0.0
 10
16.84752509083867
 20
26.38148084658723
 42
0.0723410840576623
 10
16.80186580291837
 20
26.39967372354639
 42
0.0587518675353766
 10
16.74186999157698
 20
26.40674787389198
 42
0.058751867535373
  0
LWPOLYLINE
  5
376
330
1E
100
AcDbEntity
  8
OBJECT
100
AcDbPolyline
 90
        3
 70
     0
 43
0.0
 10
16.84752509083867
 20
26.28748084658724
 42
0.0723410840576623
 10
16.80186580291837
 20
26.30567372354639
 42
0.0587518675353766
 10
16.74186999157698
 20
26.312747873892
 42
0.058751867535373
  0
LWPOLYLINE
  5
37B
330
1E
100
AcDbEntity
  8
OBJECT
100
AcDbPolyline
 90
        3
 70
     0
 43
0.0
 10
16.74186999157698
 20
26.312747873892
 42
0.058751867535373
 10
16.68187418023559
 20
26.30567372354639
 42
0.0723410840576583
 10
16.63621489231528
 20
26.28748084658724
 42
0.1066170543910154
  0
LWPOLYLINE
  5
380
330
1E
100
AcDbEntity
  8
OBJECT
100
AcDbPolyline
 90
       16
 70
     1
 43
0.0
 10
16.74186999157698
 20
26.27123568058318
 42
0.0587518675353727
 10
16.71039677907002
 20
26.26752465089368
 42
0.0723410840576566
 10
16.68644436573478
 20
26.25798084658724
 42
0.1066170543909957
 10
16.66857091445858
 20
26.24179042050101
 42
0.1568512196707378
 10
16.66348631980792
 20
26.22598084658724
 42
0.1568512196707294
 10
16.66857091445858
 20
26.21017127267346
 42
0.1066170543909819
 10
16.68644436573478
 20
26.19398084658723
 42
0.0723410840576534
 10
16.71039677907003
 20
26.1844370422808
 42
0.0587518675353621
 10
16.74186999157698
 20
26.1807260125913
 42
0.0587518675353727
 10
16.77334320408394
 20
26.1844370422808
 42
0.072341084057657
 10
16.79729561741918
 20
26.19398084658723
 42
0.1066170543910092
 10
16.81516906869537
 20
26.21017127267347
 42
0.1568512196707462
 10
16.82025366334605
 20
26.22598084658724
 42
0.1568512196707336
 10
16.81516906869537
 20
26.24179042050101
 42
0.1066170543909893
 10
16.79729561741918
 20
26.25798084658724
 42
0.0723410840576466
 10
16.77334320408394
 20
26.26752465089368
 42
0.0587518675353801
  0
LWPOLYLINE
  5
392
330
1E
100
AcDbEntity
  8
OBJECT
100
AcDbPolyline
 90
        4
 70
     0
 43
0.0
 10
16.60815457447911
 20
26.18363110914148
 42
0.1032009272409039
 10
16.5911442011223
 20
26.19883171963405
 42
0.0723410840576526
 10
16.56775317247459
 20
26.20815184102704
 42
0.0587518675353721
 10
16.53701761338577
 20
26.2117758934582
 42
0.0587518675353793
  0
LINE
  5
398
330
1E
100
AcDbEntity
  8
OBJECT
100
AcDbLine
 10
16.48535720385594
 20
26.20020301261778
 30
0.0
 11
16.48535720385594
 21
24.2032030126178
 31
0.0
  0
LWPOLYLINE
  5
399
330
1E
100
AcDbEntity
  8
OBJECT
100
AcDbPolyline
 90
        3
 70
     0
 43
0.0
 10
16.53701761338577
 20
26.2117758934582
 42
0.0587518675353793
 10
16.50628205429693
 20
26.20815184102704
 42
0.0642382339879882
 10
16.48535720385594
 20
26.20020301261778
 42
0.010596345945674
  0
LINE
  5
39E
330
1E
100
AcDbEntity
  8
OBJECT
100
AcDbLine
 10
16.60815457447911
 20
26.18363110914148
 30
0.0
 11
16.60815457447911
 21
24.18663110914148
 31
0.0
  0
LINE
  5
39F
330
1E
100
AcDbEntity
  8
OBJECT
100
AcDbLine
 10
16.88068659167592
 20
26.18943708711987
 30
0.0
 11
16.88068659167592
 21
24.19243708711985
 31
0.0
  0
LWPOLYLINE
  5
3A0
330
1E
100
AcDbEntity
  8
OBJECT
100
AcDbPolyline
 90
        7
 70
     0
 43
0.0
 10
16.60815457447911
 20
26.18363110914148
 42
0.0730609864587327
 10
16.63361681610393
 20
26.16348084658723
 42
0.0723410840576608
 10
16.68039887339933
 20
26.14484060380123
 42
0.0587518675353809
 10
16.74186999157698
 20
26.13759249893892
 42
0.0587518675353774
 10
16.80334110975464
 20
26.14484060380123
 42
0.0723410840576568
 10
16.85012316705003
 20
26.16348084658723
 42
0.0904779399290791
 10
16.88068659167592
 20
26.18943708711987
 42
0.1568512196707811
  0
LWPOLYLINE
  5
3A9
330
1E
100
AcDbEntity
  8
OBJECT
100
AcDbPolyline
 90
        4
 70
     0
 43
0.0
 10
16.94663139819775
 20
26.2115097309067
 42
0.0587518675353793
 10
16.91589583910892
 20
26.20788567847555
 42
0.0723410840576608
 10
16.89250481046122
 20
26.19856555708254
 42
0.0671451366482417
 10
16.88068659167592
 20
26.18943708711987
 42
0.1568512196707734
  0
LWPOLYLINE
  5
3AF
330
1E
100
AcDbEntity
  8
OBJECT
100
AcDbPolyline
 90
        3
 70
     0
 43
0.0
 10
16.99783004737031
 20
26.20018216924898
 42
0.0627377818794437
 10
16.97736695728656
 20
26.20788567847555
 42
0.0587518675353721
 10
16.94663139819775
 20
26.2115097309067
 42
0.0587518675353793
  0
LINE
  5
3B4
330
1E
100
AcDbEntity
  8
OBJECT
100
AcDbLine
 10
16.99783004737031
 20
26.20018216924898
 30
0.0
 11
16.99783004737031
 21
24.20349624580757
 31
0.0
  0
LINE
  5
3B5
330
1E
100
AcDbEntity
  8
OBJECT
100
AcDbLine
 10
16.99783004737031
 20
26.20018216924898
 30
0.0
 11
16.84752509083867
 21
26.28748084658724
 31
0.0
  0
LINE
  5
3B6
330
1E
100
AcDbEntity
  8
OBJECT
100
AcDbLine
 10
16.48535720385596
 20
26.2002030126178
 30
0.0
 11
16.63621489231528
 21
26.28748084658724
 31
0.0
  0
LINE
  5
3B7
330
1E
100
AcDbEntity
  8
OBJECT
100
AcDbLine
 10
12.68223645375308
 20
29.4482010751661
 30
0.0
 11
16.56883444989408
 21
31.69212947446996
 31
0.0
  0
LINE
  5
3B8
330
1E
100
AcDbEntity
  8
OBJECT
100
AcDbLine
 10
16.91490553325989
 20
31.69212947446994
 30
0.0
 11
20.66306348083895
 21
29.52812947446995
 31
0.0
  0
LWPOLYLINE
  5
3B9
330
1E
100
AcDbEntity
  8
OBJECT
100
AcDbPolyline
 90
       16
 70
     1
 43
0.0
 10
16.74186999157698
 20
31.70388009379667
 42
0.0587518675353782
 10
16.6727764547453
 20
31.69573322393144
 42
0.072341084057657
 10
16.62019342234527
 20
31.67478159103996
 42
0.1066170543910075
 10
16.58095561134051
 20
31.63923854627255
 42
0.1568512196707839
 10
16.56979333714646
 20
31.60453159103996
 42
0.1568512196707877
 10
16.58095561134051
 20
31.56982463580737
 42
0.1066170543910138
 10
16.62019342234527
 20
31.53428159103996
 42
0.07234108405766
 10
16.6727764547453
 20
31.51332995814847
 42
0.0587518675353789
 10
16.74186999157698
 20
31.50518308828324
 42
0.058751867535374
 10
16.81096352840866
 20
31.51332995814847
 42
0.0723410840576588
 10
16.8635465608087
 20
31.53428159103996
 42
0.1066170543910072
 10
16.90278437181345
 20
31.56982463580737
 42
0.1568512196707839
 10
16.9139466460075
 20
31.60453159103996
 42
0.156851219670792
 10
16.90278437181345
 20
31.63923854627255
 42
0.1066170543910073
 10
16.8635465608087
 20
31.67478159103996
 42
0.072341084057658
 10
16.81096352840866
 20
31.69573322393144
 42
0.058751867535374
  0
LWPOLYLINE
  5
3CB
330
1E
100
AcDbEntity
  8
OBJECT
100
AcDbPolyline
 90
        4
 70
     0
 43
0.0
 10
16.74186999157698
 20
31.73746766590303
 42
0.0587518675353745
 10
16.64941742983779
 20
31.72656651619012
 42
0.0723410840576559
 10
16.57905721566551
 20
31.69853159103996
 42
0.017955231898511
 10
16.56883444989408
 20
31.69212947446996
 42
0.1568512196707801
  0
LWPOLYLINE
  5
3D1
330
1E
100
AcDbEntity
  8
OBJECT
100
AcDbPolyline
 90
        4
 70
     0
 43
0.0
 10
16.91490553325989
 20
31.69212947446994
 42
0.0179552318985223
 10
16.90468276748846
 20
31.69853159103996
 42
0.072341084057657
 10
16.83432255331617
 20
31.72656651619012
 42
0.0587518675353748
 10
16.74186999157698
 20
31.73746766590303
 42
0.0587518675353745
  0
LWPOLYLINE
  5
3D7
330
1E
100
AcDbEntity
  8
OBJECT
100
AcDbPolyline
 90
        6
 70
     0
 43
0.0
 10
16.74186999157698
 20
31.58768591997251
 42
0.0587518675353685
 10
16.70351201383413
 20
31.58316310253843
 42
0.0723410840576479
 10
16.6743200100818
 20
31.57153159103996
 42
0.1066170543910048
 10
16.65253674133893
 20
31.55179950924737
 42
0.156851219670777
 10
16.64633989160843
 20
31.53253159103996
 42
0.0907083780630995
 10
16.64848023328365
 20
31.5208307373363
 42
0.1066170543910073
  0
LWPOLYLINE
  5
3DF
330
1E
100
AcDbEntity
  8
OBJECT
100
AcDbPolyline
 90
        6
 70
     0
 43
0.0
 10
16.83525974987031
 20
31.5208307373363
 42
0.0907083780630905
 10
16.83740009154552
 20
31.53253159103996
 42
0.1568512196707755
 10
16.83120324181501
 20
31.55179950924738
 42
0.106617054390996
 10
16.80941997307217
 20
31.57153159103996
 42
0.0723410840576467
 10
16.78022796931983
 20
31.58316310253843
 42
0.0587518675353843
 10
16.74186999157698
 20
31.58768591997251
 42
0.0587518675353685
  0
LINE
  5
3E7
330
1E
100
AcDbEntity
  8
CENTER
100
AcDbLine
 10
12.83176529349025
 20
23.93998084658722
 30
0.0
 11
12.83176529349025
 21
29.00353159103996
 31
0.0
  0
LINE
  5
3E8
330
1E
100
AcDbEntity
  8
CENTER
100
AcDbLine
 10
20.49002793915603
 20
24.03348084658722
 30
0.0
 11
20.49002793915603
 21
29.09703159103996
 31
0.0
  0
LINE
  5
3E9
330
1E
100
AcDbEntity
  8
CENTER
100
AcDbLine
 10
16.57992324106928
 20
21.81171381928247
 30
0.0
 11
16.57992324106928
 21
26.89409551617689
 31
0.0
  0
LINE
  5
3EA
330
1E
100
AcDbEntity
  8
CENTER
100
AcDbLine
 10
16.74186999157698
 20
26.1807260125913
 30
0.0
 11
16.74186999157698
 21
26.92803159103995
 31
0.0
  0
LINE
  5
3EB
330
1E
100
AcDbEntity
  8
CENTER
100
AcDbLine
 10
20.49002793915603
 20
29.34118308828324
 30
0.0
 11
20.49002793915603
 21
31.25349068644238
 31
0.0
  0
LINE
  5
3EC
330
1E
100
AcDbEntity
  8
CENTER
100
AcDbLine
 10
16.57992324106928
 20
27.08368308828324
 30
0.0
 11
16.57992324106928
 21
28.99599068644238
 31
0.0
  0
LINE
  5
3ED
330
1E
100
AcDbEntity
  8
CENTER
100
AcDbLine
 10
12.83176529349025
 20
29.24768308828324
 30
0.0
 11
12.83176529349024
 21
31.15999068644238
 31
0.0
  0
LWPOLYLINE
  5
3EE
330
1E
100
AcDbEntity
  8
OBJECT
100
AcDbPolyline
 90
       16
 70
     1
 43
0.0
 10
12.83176529349024
 20
30.9622498809206
 42
0.0587518675353782
 10
12.77064411440588
 20
30.95504303763476
 42
0.072341084057657
 10
12.72412837519933
 20
30.93650890890446
 42
0.1066170543910075
 10
12.68941801901735
 20
30.90506699835755
 42
0.1568512196707839
 10
12.67954370383119
 20
30.87436470515446
 42
0.1568512196707877
 10
12.68941801901735
 20
30.84366241195139
 42
0.1066170543910138
 10
12.72412837519933
 20
30.81222050140446
 42
0.07234108405766
 10
12.77064411440589
 20
30.79368637267418
 42
0.0587518675353789
 10
12.83176529349024
 20
30.78647952938834
 42
0.058751867535374
 10
12.8928864725746
 20
30.79368637267417
 42
0.0723410840576588
 10
12.93940221178115
 20
30.81222050140446
 42
0.1066170543910072
 10
12.97411256796313
 20
30.84366241195139
 42
0.1568512196707839
 10
12.98398688314929
 20
30.87436470515446
 42
0.156851219670792
 10
12.97411256796313
 20
30.90506699835755
 42
0.1066170543910073
 10
12.93940221178115
 20
30.93650890890446
 42
0.072341084057658
 10
12.8928864725746
 20
30.95504303763477
 42
0.058751867535374
  0
LINE
  5
400
330
1E
100
AcDbEntity
  8
OBJECT
100
AcDbLine
 10
12.70509707516486
 20
30.82609109871144
 30
0.0
 11
12.76144411679924
 21
30.77556511127787
 31
0.0
  0
LINE
  5
401
330
1E
100
AcDbEntity
  8
OBJECT
100
AcDbLine
 10
12.95843351181561
 20
30.82609109871144
 30
0.0
 11
12.90208647018124
 21
30.77556511127787
 31
0.0
  0
LWPOLYLINE
  5
402
330
1E
100
AcDbEntity
  8
OBJECT
100
AcDbPolyline
 90
        7
 70
     0
 43
0.0
 10
12.76144411679926
 20
30.77556511127785
 42
0.0531578900237961
 10
12.77200954062911
 20
30.76786470515446
 42
0.072341084057661
 10
12.79783323625617
 20
30.75757529113658
 42
0.0587518675353793
 10
12.83176529349024
 20
30.7535743372526
 42
0.0587518675353684
 10
12.8656973507243
 20
30.75757529113658
 42
0.0723410840576543
 10
12.89152104635136
 20
30.76786470515446
 42
0.0531578900238873
 10
12.90208647018124
 20
30.77556511127787
 42
0.1568512196707747
  0
LWPOLYLINE
  5
40B
330
1E
100
AcDbEntity
  8
OBJECT
100
AcDbPolyline
 90
        2
 70
     0
 43
0.0
 10
12.74725789736422
 20
30.78828579233073
 10
12.74725789736422
 20
30.30236470515446
  0
LWPOLYLINE
  5
40F
330
1E
100
AcDbEntity
  8
OBJECT
100
AcDbPolyline
 90
        2
 70
     0
 43
0.0
 10
12.91627268961626
 20
30.78828579233073
 10
12.91627268961626
 20
30.30236470515446
  0
LWPOLYLINE
  5
413
330
1E
100
AcDbEntity
  8
OBJECT
100
AcDbPolyline
 90
        9
 70
     0
 43
0.0
 10
12.74725789736422
 20
30.30236470515446
 42
0.1568512196707782
 10
12.75273972597197
 20
30.28532000827868
 42
0.1066170543910084
 10
12.77200954062911
 20
30.26786470515446
 42
0.072341084057661
 10
12.79783323625617
 20
30.25757529113659
 42
0.0587518675353793
 10
12.83176529349024
 20
30.25357433725258
 42
0.0587518675353684
 10
12.8656973507243
 20
30.25757529113659
 42
0.0723410840576543
 10
12.89152104635136
 20
30.26786470515446
 42
0.1066170543910017
 10
12.91079086100851
 20
30.28532000827868
 42
0.1568512196707747
 10
12.91627268961626
 20
30.30236470515446
 42
0.1568512196707838
  0
LWPOLYLINE
  5
41E
330
1E
100
AcDbEntity
  8
OBJECT
100
AcDbPolyline
 90
       16
 70
     1
 43
0.0
 10
16.57992324106928
 20
28.7982498809206
 42
0.0587518675353782
 10
16.51880206198494
 20
28.79104303763476
 42
0.072341084057657
 10
16.47228632277838
 20
28.77250890890446
 42
0.1066170543910075
 10
16.4375759665964
 20
28.74106699835754
 42
0.1568512196707839
 10
16.42770165141024
 20
28.71036470515447
 42
0.1568512196707877
 10
16.4375759665964
 20
28.67966241195139
 42
0.1066170543910138
 10
16.47228632277838
 20
28.64822050140446
 42
0.07234108405766
 10
16.51880206198494
 20
28.62968637267417
 42
0.0587518675353789
 10
16.57992324106928
 20
28.62247952938835
 42
0.058751867535374
 10
16.64104442015364
 20
28.62968637267417
 42
0.0723410840576588
 10
16.68756015936021
 20
28.64822050140446
 42
0.1066170543910072
 10
16.72227051554217
 20
28.67966241195139
 42
0.1568512196707839
 10
16.73214483072834
 20
28.71036470515447
 42
0.156851219670792
 10
16.72227051554217
 20
28.74106699835754
 42
0.1066170543910073
 10
16.68756015936021
 20
28.77250890890446
 42
0.072341084057658
 10
16.64104442015364
 20
28.79104303763476
 42
0.058751867535374
  0
LWPOLYLINE
  5
430
330
1E
100
AcDbEntity
  8
OBJECT
100
AcDbPolyline
 90
        2
 70
     0
 43
0.0
 10
16.66443063719531
 20
28.62428579233075
 10
16.66443063719531
 20
28.13836470515446
  0
LWPOLYLINE
  5
434
330
1E
100
AcDbEntity
  8
OBJECT
100
AcDbPolyline
 90
        2
 70
     0
 43
0.0
 10
16.49541584494327
 20
28.62428579233075
 10
16.49541584494327
 20
28.13836470515446
  0
LWPOLYLINE
  5
438
330
1E
100
AcDbEntity
  8
OBJECT
100
AcDbPolyline
 90
        9
 70
     0
 43
0.0
 10
16.49541584494327
 20
28.13836470515446
 42
0.1568512196707782
 10
16.50089767355103
 20
28.12132000827867
 42
0.1066170543910084
 10
16.52016748820815
 20
28.10386470515446
 42
0.072341084057661
 10
16.54599118383523
 20
28.09357529113658
 42
0.0587518675353793
 10
16.57992324106928
 20
28.08957433725259
 42
0.0587518675353684
 10
16.61385529830335
 20
28.09357529113658
 42
0.0723410840576543
 10
16.63967899393042
 20
28.10386470515446
 42
0.1066170543910017
 10
16.65894880858756
 20
28.12132000827867
 42
0.1568512196707747
 10
16.66443063719531
 20
28.13836470515446
 42
0.1568512196707838
  0
LWPOLYLINE
  5
443
330
1E
100
AcDbEntity
  8
OBJECT
100
AcDbPolyline
 90
        7
 70
     0
 43
0.0
 10
16.5096020643783
 20
28.61156511127786
 42
0.0531578900237961
 10
16.52016748820815
 20
28.60386470515447
 42
0.072341084057661
 10
16.54599118383523
 20
28.59357529113658
 42
0.0587518675353793
 10
16.57992324106928
 20
28.5895743372526
 42
0.0587518675353684
 10
16.61385529830335
 20
28.59357529113658
 42
0.0723410840576543
 10
16.63967899393042
 20
28.60386470515447
 42
0.0531578900238873
 10
16.65024441776028
 20
28.61156511127787
 42
0.1568512196707747
  0
LINE
  5
44C
330
1E
100
AcDbEntity
  8
OBJECT
100
AcDbLine
 10
16.45325502274393
 20
28.66209109871144
 30
0.0
 11
16.50960206437829
 21
28.61156511127787
 31
0.0
  0
LINE
  5
44D
330
1E
100
AcDbEntity
  8
OBJECT
100
AcDbLine
 10
16.70659145939465
 20
28.66209109871144
 30
0.0
 11
16.65024441776028
 21
28.61156511127787
 31
0.0
  0
LWPOLYLINE
  5
44E
330
1E
100
AcDbEntity
  8
OBJECT
100
AcDbPolyline
 90
       16
 70
     1
 43
0.0
 10
16.74186999157698
 20
33.2197498809206
 42
0.0587518675353782
 10
16.68074881249263
 20
33.21254303763476
 42
0.072341084057657
 10
16.63423307328606
 20
33.19400890890446
 42
0.1066170543910075
 10
16.59952271710409
 20
33.16256699835754
 42
0.1568512196707839
 10
16.58964840191793
 20
33.13186470515447
 42
0.1568512196707877
 10
16.59952271710409
 20
33.10116241195139
 42
0.1066170543910138
 10
16.63423307328606
 20
33.06972050140446
 42
0.07234108405766
 10
16.68074881249263
 20
33.05118637267416
 42
0.0587518675353789
 10
16.74186999157698
 20
33.04397952938833
 42
0.058751867535374
 10
16.80299117066132
 20
33.05118637267415
 42
0.0723410840576588
 10
16.8495069098679
 20
33.06972050140446
 42
0.1066170543910072
 10
16.88421726604985
 20
33.10116241195139
 42
0.1568512196707839
 10
16.89409158123603
 20
33.13186470515447
 42
0.156851219670792
 10
16.88421726604985
 20
33.16256699835754
 42
0.1066170543910073
 10
16.8495069098679
 20
33.19400890890446
 42
0.072341084057658
 10
16.80299117066132
 20
33.21254303763476
 42
0.058751867535374
  0
LWPOLYLINE
  5
460
330
1E
100
AcDbEntity
  8
OBJECT
100
AcDbPolyline
 90
        2
 70
     0
 43
0.0
 10
16.82637738770299
 20
33.04578579233075
 10
16.82637738770299
 20
32.55986470515447
  0
LWPOLYLINE
  5
464
330
1E
100
AcDbEntity
  8
OBJECT
100
AcDbPolyline
 90
        2
 70
     0
 43
0.0
 10
16.65736259545096
 20
33.04578579233075
 10
16.65736259545096
 20
32.55986470515447
  0
LWPOLYLINE
  5
468
330
1E
100
AcDbEntity
  8
OBJECT
100
AcDbPolyline
 90
        9
 70
     0
 43
0.0
 10
16.65736259545096
 20
32.55986470515447
 42
0.1568512196707782
 10
16.66284442405872
 20
32.54282000827868
 42
0.1066170543910084
 10
16.68211423871584
 20
32.52536470515446
 42
0.072341084057661
 10
16.70793793434292
 20
32.51507529113659
 42
0.0587518675353793
 10
16.74186999157698
 20
32.51107433725259
 42
0.0587518675353684
 10
16.77580204881104
 20
32.51507529113659
 42
0.0723410840576543
 10
16.8016257444381
 20
32.52536470515446
 42
0.1066170543910017
 10
16.82089555909525
 20
32.54282000827868
 42
0.1568512196707747
 10
16.82637738770299
 20
32.55986470515447
 42
0.1568512196707838
  0
LWPOLYLINE
  5
473
330
1E
100
AcDbEntity
  8
OBJECT
100
AcDbPolyline
 90
        7
 70
     0
 43
0.0
 10
16.671548814886
 20
33.03306511127785
 42
0.0531578900237961
 10
16.68211423871584
 20
33.02536470515446
 42
0.072341084057661
 10
16.70793793434292
 20
33.01507529113659
 42
0.0587518675353793
 10
16.74186999157698
 20
33.01107433725258
 42
0.0587518675353684
 10
16.77580204881104
 20
33.01507529113658
 42
0.0723410840576543
 10
16.8016257444381
 20
33.02536470515446
 42
0.0531578900238873
 10
16.81219116826798
 20
33.03306511127786
 42
0.1568512196707747
  0
LINE
  5
47C
330
1E
100
AcDbEntity
  8
OBJECT
100
AcDbLine
 10
16.61520177325161
 20
33.08359109871144
 30
0.0
 11
16.67154881488598
 21
33.03306511127788
 31
0.0
  0
LINE
  5
47D
330
1E
100
AcDbEntity
  8
OBJECT
100
AcDbLine
 10
16.86853820990234
 20
33.08359109871144
 30
0.0
 11
16.81219116826798
 21
33.03306511127788
 31
0.0
  0
LWPOLYLINE
  5
47E
330
1E
100
AcDbEntity
  8
OBJECT
100
AcDbPolyline
 90
       16
 70
     1
 43
0.0
 10
20.49002793915603
 20
31.0557498809206
 42
0.0587518675353782
 10
20.42890676007167
 20
31.04854303763476
 42
0.072341084057657
 10
20.38239102086512
 20
31.03000890890446
 42
0.1066170543910075
 10
20.34768066468314
 20
30.99856699835754
 42
0.1568512196707839
 10
20.33780634949697
 20
30.96786470515446
 42
0.1568512196707877
 10
20.34768066468314
 20
30.93716241195139
 42
0.1066170543910138
 10
20.38239102086512
 20
30.90572050140446
 42
0.07234108405766
 10
20.42890676007167
 20
30.88718637267417
 42
0.0587518675353789
 10
20.49002793915603
 20
30.87997952938834
 42
0.058751867535374
 10
20.55114911824039
 20
30.88718637267417
 42
0.0723410840576588
 10
20.59766485744695
 20
30.90572050140446
 42
0.1066170543910072
 10
20.63237521362891
 20
30.93716241195139
 42
0.1568512196707839
 10
20.64224952881507
 20
30.96786470515446
 42
0.156851219670792
 10
20.63237521362891
 20
30.99856699835754
 42
0.1066170543910073
 10
20.59766485744695
 20
31.03000890890446
 42
0.072341084057658
 10
20.55114911824039
 20
31.04854303763476
 42
0.058751867535374
  0
LWPOLYLINE
  5
490
330
1E
100
AcDbEntity
  8
OBJECT
100
AcDbPolyline
 90
        2
 70
     0
 43
0.0
 10
20.57453533528204
 20
30.88178579233074
 10
20.57453533528204
 20
30.39586470515446
  0
LWPOLYLINE
  5
494
330
1E
100
AcDbEntity
  8
OBJECT
100
AcDbPolyline
 90
        2
 70
     0
 43
0.0
 10
20.40552054303001
 20
30.88178579233074
 10
20.40552054303001
 20
30.39586470515446
  0
LWPOLYLINE
  5
498
330
1E
100
AcDbEntity
  8
OBJECT
100
AcDbPolyline
 90
        9
 70
     0
 43
0.0
 10
20.40552054303001
 20
30.39586470515446
 42
0.1568512196707782
 10
20.41100237163776
 20
30.37882000827867
 42
0.1066170543910084
 10
20.43027218629489
 20
30.36136470515446
 42
0.072341084057661
 10
20.45609588192196
 20
30.35107529113659
 42
0.0587518675353793
 10
20.49002793915603
 20
30.34707433725259
 42
0.0587518675353684
 10
20.52395999639009
 20
30.35107529113659
 42
0.0723410840576543
 10
20.54978369201716
 20
30.36136470515446
 42
0.1066170543910017
 10
20.5690535066743
 20
30.37882000827867
 42
0.1568512196707747
 10
20.57453533528204
 20
30.39586470515446
 42
0.1568512196707838
  0
LWPOLYLINE
  5
4A3
330
1E
100
AcDbEntity
  8
OBJECT
100
AcDbPolyline
 90
        7
 70
     0
 43
0.0
 10
20.41970676246505
 20
30.86906511127785
 42
0.0531578900237961
 10
20.43027218629489
 20
30.86136470515446
 42
0.072341084057661
 10
20.45609588192196
 20
30.85107529113658
 42
0.0587518675353793
 10
20.49002793915603
 20
30.8470743372526
 42
0.0587518675353684
 10
20.52395999639009
 20
30.85107529113658
 42
0.0723410840576543
 10
20.54978369201716
 20
30.86136470515446
 42
0.0531578900238873
 10
20.56034911584703
 20
30.86906511127787
 42
0.1568512196707747
  0
LINE
  5
4AC
330
1E
100
AcDbEntity
  8
OBJECT
100
AcDbLine
 10
20.36335972083067
 20
30.91959109871144
 30
0.0
 11
20.41970676246503
 21
30.86906511127787
 31
0.0
  0
LINE
  5
4AD
330
1E
100
AcDbEntity
  8
OBJECT
100
AcDbLine
 10
20.6166961574814
 20
30.91959109871144
 30
0.0
 11
20.56034911584703
 21
30.86906511127787
 31
0.0
  0
LINE
  5
4AE
330
1E
100
AcDbEntity
  8
OBJECT
100
AcDbLine
 10
16.34935091946588
 20
31.56541059909455
 30
0.0
 11
16.59234115183983
 21
31.70570107516612
 31
0.0
  0
LINE
  5
4AF
330
1E
100
AcDbEntity
  8
OBJECT
100
AcDbLine
 10
16.72945208080642
 20
27.08186210691382
 30
0.0
 11
20.66306348083895
 21
29.35293370760996
 31
0.0
  0
LINE
  5
4B0
330
1E
100
AcDbEntity
  8
OBJECT
100
AcDbLine
 10
16.43039440133215
 20
27.08186210691382
 30
0.0
 11
12.68223645375309
 21
29.24586210691382
 31
0.0
  0
LINE
  5
4B1
330
1E
100
AcDbEntity
  8
OBJECT
100
AcDbLine
 10
14.43496267931557
 20
23.01437440431687
 30
0.0
 11
14.54918724200002
 21
23.0817507773076
 31
0.0
  0
LWPOLYLINE
  5
4B2
330
1E
100
AcDbEntity
  8
OBJECT
100
AcDbPolyline
 90
        7
 70
     0
 43
0.0
 10
16.60815457447911
 20
24.18663110914148
 42
0.0730609864587327
 10
16.63361681610393
 20
24.16648084658723
 42
0.0723410840576608
 10
16.68039887339933
 20
24.14784060380123
 42
0.0587518675353809
 10
16.74186999157699
 20
24.14059249893892
 42
0.0587518675353774
 10
16.80334110975464
 20
24.14784060380123
 42
0.0723410840576568
 10
16.85012316705003
 20
24.16648084658723
 42
0.0904779399290791
 10
16.88068659167592
 20
24.19243708711987
 42
0.1568512196707811
  0
LWPOLYLINE
  5
4BB
330
1E
100
AcDbEntity
  8
OBJECT
100
AcDbPolyline
 90
        3
 70
     0
 43
0.0
 10
16.53701761338577
 20
24.21477589345821
 42
0.0587518675353793
 10
16.50628205429694
 20
24.21115184102704
 42
0.0642382339879482
 10
16.48535720385597
 20
24.2032030126178
 42
0.010596345945674
  0
LWPOLYLINE
  5
4C0
330
1E
100
AcDbEntity
  8
OBJECT
100
AcDbPolyline
 90
        4
 70
     0
 43
0.0
 10
16.60815457447911
 20
24.18663110914148
 42
0.1032009272409039
 10
16.5911442011223
 20
24.20183171963405
 42
0.0723410840576526
 10
16.5677531724746
 20
24.21115184102704
 42
0.0587518675353721
 10
16.53701761338577
 20
24.21477589345821
 42
0.0587518675353793
  0
LWPOLYLINE
  5
4C6
330
1E
100
AcDbEntity
  8
OBJECT
100
AcDbPolyline
 90
        2
 70
     0
 43
0.0
 10
12.83812896820307
 20
28.99985752173146
 42
0.0990140143584546
 10
12.85471496669052
 20
28.98528159103996
 42
0.0723410840576564
  0
LWPOLYLINE
  5
4CA
330
1E
100
AcDbEntity
  8
OBJECT
100
AcDbPolyline
 90
        6
 70
     0
 43
0.0
 10
12.83176529349024
 20
29.33018591997251
 42
0.0587518675353685
 10
12.79340731574738
 20
29.32566310253843
 42
0.0723410840576479
 10
12.76421531199506
 20
29.31403159103996
 42
0.1066170543910048
 10
12.7424320432522
 20
29.29429950924737
 42
0.156851219670777
 10
12.7362351935217
 20
29.27503159103996
 42
0.0907083780630931
 10
12.73837553519691
 20
29.2633307373363
 42
0.1066170543910073
  0
LWPOLYLINE
  5
4D2
330
1E
100
AcDbEntity
  8
OBJECT
100
AcDbPolyline
 90
       16
 70
     1
 43
0.0
 10
12.83176529349024
 20
29.44638009379667
 42
0.0587518675353782
 10
12.76267175665856
 20
29.43823322393144
 42
0.072341084057657
 10
12.71008872425853
 20
29.41728159103996
 42
0.1066170543910075
 10
12.67085091325377
 20
29.38173854627255
 42
0.1568512196707839
 10
12.65968863905972
 20
29.34703159103996
 42
0.1568512196707877
 10
12.67085091325377
 20
29.31232463580737
 42
0.1066170543910138
 10
12.71008872425853
 20
29.27678159103996
 42
0.07234108405766
 10
12.76267175665856
 20
29.25582995814847
 42
0.0587518675353789
 10
12.83176529349024
 20
29.24768308828324
 42
0.058751867535374
 10
12.90085883032191
 20
29.25582995814847
 42
0.0723410840576588
 10
12.95344186272195
 20
29.27678159103996
 42
0.1066170543910072
 10
12.99267967372671
 20
29.31232463580737
 42
0.1568512196707839
 10
13.00384194792076
 20
29.34703159103996
 42
0.156851219670792
 10
12.99267967372671
 20
29.38173854627255
 42
0.1066170543910073
 10
12.95344186272195
 20
29.41728159103996
 42
0.072341084057658
 10
12.90085883032191
 20
29.43823322393144
 42
0.058751867535374
  0
LWPOLYLINE
  5
4E4
330
1E
100
AcDbEntity
  8
OBJECT
100
AcDbPolyline
 90
        7
 70
     0
 43
0.0
 10
12.68223645375309
 20
29.44820107516611
 42
0.0143456988257776
 10
12.66895251757876
 20
29.44103159103996
 42
0.1066170543910111
 10
12.61644925445497
 20
29.39347221441167
 42
0.1568512196707774
 10
12.60151325766861
 20
29.34703159103996
 42
0.1568512196707752
 10
12.61644925445496
 20
29.30059096766823
 42
0.1066170543910101
 10
12.66895251757876
 20
29.25303159103996
 42
0.0143456988257778
 10
12.68223645375309
 20
29.2458621069138
 42
0.0587518675353726
  0
LWPOLYLINE
  5
4ED
330
1E
100
AcDbEntity
  8
OBJECT
100
AcDbPolyline
 90
        3
 70
     0
 43
0.0
 10
12.60151325766861
 20
29.19103159103996
 42
0.1568512196707752
 10
12.61644925445497
 20
29.14459096766823
 42
0.0884924184527851
 10
12.65872975180734
 20
29.10343370760996
 42
0.0143456988257831
  0
LINE
  5
4F2
330
1E
100
AcDbEntity
  8
OBJECT
100
AcDbLine
 10
12.60151325766861
 20
29.34703159103996
 30
0.0
 11
12.60151325766861
 21
29.19103159103996
 31
0.0
  0
LWPOLYLINE
  5
4F3
330
1E
100
AcDbEntity
  8
OBJECT
100
AcDbPolyline
 90
        6
 70
     0
 43
0.0
 10
12.92515505178357
 20
29.2633307373363
 42
0.0907083780630971
 10
12.92729539345878
 20
29.27503159103996
 42
0.1568512196707755
 10
12.92109854372828
 20
29.29429950924737
 42
0.106617054390996
 10
12.89931527498542
 20
29.31403159103996
 42
0.0723410840576467
 10
12.87012327123309
 20
29.32566310253843
 42
0.0587518675353843
 10
12.83176529349024
 20
29.33018591997251
 42
0.0587518675353685
  0
LINE
  5
4FB
330
1E
100
AcDbEntity
  8
OBJECT
100
AcDbLine
 10
16.40688769938646
 20
26.93943370760991
 30
0.0
 11
12.65872975180734
 21
29.10343370760996
 31
0.0
  0
LINE
  5
4FC
330
1E
100
AcDbEntity
  8
OBJECT
100
AcDbLine
 10
16.35865375040236
 20
26.96228159103997
 30
0.0
 11
12.85471496669055
 21
28.98528159103994
 31
0.0
  0
LWPOLYLINE
  5
4FD
330
1E
100
AcDbEntity
  8
OBJECT
100
AcDbPolyline
 90
        6
 70
     0
 43
0.0
 10
16.57992324106928
 20
27.16618591997251
 42
0.0587518675353685
 10
16.54156526332644
 20
27.16166310253843
 42
0.0723410840576479
 10
16.51237325957411
 20
27.15003159103996
 42
0.1066170543910048
 10
16.49058999083124
 20
27.13029950924738
 42
0.156851219670777
 10
16.48439314110075
 20
27.11103159103996
 42
0.0907083780630934
 10
16.48653348277596
 20
27.0993307373363
 42
0.1066170543910073
  0
LWPOLYLINE
  5
505
330
1E
100
AcDbEntity
  8
OBJECT
100
AcDbPolyline
 90
       16
 70
     1
 43
0.0
 10
16.57992324106928
 20
27.28238009379667
 42
0.0587518675353782
 10
16.5108297042376
 20
27.27423322393144
 42
0.072341084057657
 10
16.45824667183758
 20
27.25328159103996
 42
0.1066170543910075
 10
16.41900886083281
 20
27.21773854627254
 42
0.1568512196707839
 10
16.40784658663877
 20
27.18303159103996
 42
0.1568512196707877
 10
16.41900886083281
 20
27.14832463580737
 42
0.1066170543910138
 10
16.45824667183758
 20
27.11278159103996
 42
0.07234108405766
 10
16.5108297042376
 20
27.09182995814848
 42
0.0587518675353789
 10
16.57992324106928
 20
27.08368308828324
 42
0.058751867535374
 10
16.64901677790097
 20
27.09182995814848
 42
0.0723410840576588
 10
16.70159981030101
 20
27.11278159103996
 42
0.1066170543910072
 10
16.74083762130575
 20
27.14832463580737
 42
0.1568512196707839
 10
16.75199989549981
 20
27.18303159103996
 42
0.156851219670792
 10
16.74083762130575
 20
27.21773854627254
 42
0.1066170543910073
 10
16.70159981030101
 20
27.25328159103996
 42
0.072341084057658
 10
16.64901677790097
 20
27.27423322393144
 42
0.058751867535374
  0
LWPOLYLINE
  5
517
330
1E
100
AcDbEntity
  8
OBJECT
100
AcDbPolyline
 90
        7
 70
     0
 43
0.0
 10
16.4068876993864
 20
26.93943370760995
 42
0.0179552318984878
 10
16.41711046515782
 20
26.93303159103996
 42
0.0723410840576679
 10
16.48747067933011
 20
26.90499666588978
 42
0.0587518675353775
 10
16.57992324106928
 20
26.89409551617689
 42
0.0587518675353751
 10
16.67237580280848
 20
26.90499666588978
 42
0.0723410840576587
 10
16.74273601698077
 20
26.93303159103996
 42
0.0179552318985037
 10
16.75295878275218
 20
26.93943370760996
 42
0.1568512196707785
  0
LWPOLYLINE
  5
520
330
1E
100
AcDbEntity
  8
OBJECT
100
AcDbPolyline
 90
        3
 70
     0
 43
0.0
 10
16.35865375040236
 20
26.96228159103996
 42
0.0723410840576564
 10
16.38223190727925
 20
26.95288690867581
 42
0.0043348064121034
 10
16.38448273724813
 20
26.95236921853166
 42
0.0587518675353722
  0
LWPOLYLINE
  5
525
330
1E
100
AcDbEntity
  8
OBJECT
100
AcDbPolyline
 90
        3
 70
     0
 43
0.0
 10
16.77536374489045
 20
26.95236921853166
 42
0.0043348064121357
 10
16.77761457485933
 20
26.95288690867581
 42
0.0723410840576556
 10
16.80119273173622
 20
26.96228159103996
 42
0.1066170543910102
  0
LWPOLYLINE
  5
52A
330
1E
100
AcDbEntity
  8
OBJECT
100
AcDbPolyline
 90
        6
 70
     0
 43
0.0
 10
16.67331299936263
 20
27.0993307373363
 42
0.0907083780630903
 10
16.67545334103783
 20
27.11103159103996
 42
0.1568512196707755
 10
16.66925649130733
 20
27.13029950924738
 42
0.106617054390996
 10
16.64747322256447
 20
27.15003159103996
 42
0.0723410840576467
 10
16.61828121881215
 20
27.16166310253843
 42
0.0587518675353843
 10
16.57992324106928
 20
27.16618591997251
 42
0.0587518675353685
  0
LWPOLYLINE
  5
532
330
1E
100
AcDbEntity
  8
OBJECT
100
AcDbPolyline
 90
       16
 70
     1
 43
0.0
 10
20.49002793915603
 20
29.53988009379667
 42
0.0587518675353782
 10
20.42093440232435
 20
29.53173322393144
 42
0.072341084057657
 10
20.36835136992432
 20
29.51078159103996
 42
0.1066170543910075
 10
20.32911355891955
 20
29.47523854627254
 42
0.1568512196707839
 10
20.31795128472551
 20
29.44053159103996
 42
0.1568512196707877
 10
20.32911355891955
 20
29.40582463580737
 42
0.1066170543910138
 10
20.36835136992432
 20
29.37028159103996
 42
0.07234108405766
 10
20.42093440232435
 20
29.34932995814848
 42
0.0587518675353789
 10
20.49002793915603
 20
29.34118308828324
 42
0.058751867535374
 10
20.55912147598771
 20
29.34932995814848
 42
0.0723410840576588
 10
20.61170450838774
 20
29.37028159103996
 42
0.1066170543910072
 10
20.65094231939249
 20
29.40582463580737
 42
0.1568512196707839
 10
20.66210459358654
 20
29.44053159103996
 42
0.156851219670792
 10
20.65094231939249
 20
29.47523854627254
 42
0.1066170543910073
 10
20.61170450838774
 20
29.51078159103996
 42
0.072341084057658
 10
20.55912147598771
 20
29.53173322393144
 42
0.058751867535374
  0
LWPOLYLINE
  5
544
330
1E
100
AcDbEntity
  8
OBJECT
100
AcDbPolyline
 90
        2
 70
     0
 43
0.0
 10
20.46707826595576
 20
29.07878159103995
 42
0.099014014358738
 10
20.48366426444324
 20
29.0933575217315
 42
0.1568512196707725
  0
LWPOLYLINE
  5
548
330
1E
100
AcDbEntity
  8
OBJECT
100
AcDbPolyline
 90
        6
 70
     0
 43
0.0
 10
20.49002793915603
 20
29.42368591997251
 42
0.0587518675353685
 10
20.45166996141318
 20
29.41916310253843
 42
0.0723410840576479
 10
20.42247795766085
 20
29.40753159103996
 42
0.1066170543910048
 10
20.40069468891798
 20
29.38779950924736
 42
0.156851219670777
 10
20.39449783918748
 20
29.36853159103996
 42
0.0907083780630934
 10
20.39663818086269
 20
29.3568307373363
 42
0.1066170543910073
  0
LWPOLYLINE
  5
550
330
1E
100
AcDbEntity
  8
OBJECT
100
AcDbPolyline
 90
        6
 70
     0
 43
0.0
 10
20.58341769744937
 20
29.3568307373363
 42
0.0907083780630971
 10
20.58555803912458
 20
29.36853159103996
 42
0.1568512196707755
 10
20.57936118939406
 20
29.38779950924736
 42
0.106617054390996
 10
20.55757792065122
 20
29.40753159103996
 42
0.0723410840576467
 10
20.52838591689889
 20
29.41916310253843
 42
0.0587518675353843
 10
20.49002793915603
 20
29.42368591997251
 42
0.0587518675353685
  0
LINE
  5
558
330
1E
100
AcDbEntity
  8
OBJECT
100
AcDbLine
 10
20.72027997497766
 20
29.44053159103996
 30
0.0
 11
20.72027997497766
 21
29.28453159103995
 31
0.0
  0
LWPOLYLINE
  5
559
330
1E
100
AcDbEntity
  8
OBJECT
100
AcDbPolyline
 90
        4
 70
     0
 43
0.0
 10
20.63955677889314
 20
29.1833621069138
 42
0.0143456988257949
 10
20.65284071506751
 20
29.19053159103996
 42
0.1066170543910085
 10
20.7053439781913
 20
29.23809096766824
 42
0.1568512196707798
 10
20.72027997497766
 20
29.28453159103995
 42
0.1568512196707801
  0
LINE
  5
55F
330
1E
100
AcDbEntity
  8
OBJECT
100
AcDbLine
 10
20.46707826595575
 20
29.07878159103996
 30
0.0
 11
16.80119273173622
 21
26.96228159103994
 31
0.0
  0
LINE
  5
560
330
1E
100
AcDbEntity
  8
OBJECT
100
AcDbLine
 10
20.63955677889314
 20
29.1833621069138
 30
0.0
 11
16.7529587827521
 21
26.93943370760989
 31
0.0
  0
LWPOLYLINE
  5
561
330
1E
100
AcDbEntity
  8
OBJECT
100
AcDbPolyline
 90
        6
 70
     0
 43
0.0
 10
18.53540860281454
 20
28.29518591997251
 42
0.0587518675353685
 10
18.4970506250717
 20
28.29066310253843
 42
0.0723410840576479
 10
18.46785862131937
 20
28.27903159103996
 42
0.1066170543910048
 10
18.44607535257651
 20
28.25929950924738
 42
0.156851219670777
 10
18.43987850284601
 20
28.24003159103996
 42
0.0907083780630934
 10
18.44201884452122
 20
28.2283307373363
 42
0.1066170543910073
  0
LWPOLYLINE
  5
569
330
1E
100
AcDbEntity
  8
OBJECT
100
AcDbPolyline
 90
       16
 70
     1
 43
0.0
 10
18.53540860281454
 20
28.41138009379667
 42
0.0587518675353782
 10
18.46631506598288
 20
28.40323322393144
 42
0.072341084057657
 10
18.41373203358283
 20
28.38228159103996
 42
0.1066170543910075
 10
18.37449422257807
 20
28.34673854627254
 42
0.1568512196707839
 10
18.36333194838404
 20
28.31203159103996
 42
0.1568512196707877
 10
18.37449422257807
 20
28.27732463580737
 42
0.1066170543910138
 10
18.41373203358283
 20
28.24178159103995
 42
0.07234108405766
 10
18.46631506598288
 20
28.22082995814847
 42
0.0587518675353789
 10
18.53540860281454
 20
28.21268308828324
 42
0.058751867535374
 10
18.60450213964623
 20
28.22082995814847
 42
0.0723410840576588
 10
18.65708517204627
 20
28.24178159103995
 42
0.1066170543910072
 10
18.69632298305101
 20
28.27732463580737
 42
0.1568512196707839
 10
18.70748525724508
 20
28.31203159103996
 42
0.156851219670792
 10
18.69632298305101
 20
28.34673854627254
 42
0.1066170543910073
 10
18.65708517204627
 20
28.38228159103996
 42
0.072341084057658
 10
18.60450213964623
 20
28.40323322393144
 42
0.058751867535374
  0
LWPOLYLINE
  5
57B
330
1E
100
AcDbEntity
  8
OBJECT
100
AcDbPolyline
 90
        6
 70
     0
 43
0.0
 10
18.62879836110789
 20
28.2283307373363
 42
0.0907083780630971
 10
18.6309387027831
 20
28.24003159103996
 42
0.1568512196707755
 10
18.6247418530526
 20
28.25929950924738
 42
0.106617054390996
 10
18.60295858430974
 20
28.27903159103996
 42
0.0723410840576467
 10
18.57376658055742
 20
28.29066310253843
 42
0.0587518675353843
 10
18.53540860281454
 20
28.29518591997251
 42
0.0587518675353685
  0
LWPOLYLINE
  5
583
330
1E
100
AcDbEntity
  8
OBJECT
100
AcDbPolyline
 90
        6
 70
     0
 43
0.0
 10
14.78725065523549
 20
30.45918591997251
 42
0.0587518675353685
 10
14.74889267749265
 20
30.45466310253843
 42
0.0723410840576479
 10
14.71970067374032
 20
30.44303159103996
 42
0.1066170543910048
 10
14.69791740499746
 20
30.42329950924738
 42
0.156851219670777
 10
14.69172055526696
 20
30.40403159103996
 42
0.0907083780630995
 10
14.69386089694218
 20
30.3923307373363
 42
0.1066170543910073
  0
LWPOLYLINE
  5
58B
330
1E
100
AcDbEntity
  8
OBJECT
100
AcDbPolyline
 90
       16
 70
     1
 43
0.0
 10
14.78725065523549
 20
30.57538009379667
 42
0.0587518675353782
 10
14.71815711840382
 20
30.56723322393144
 42
0.072341084057657
 10
14.66557408600379
 20
30.54628159103996
 42
0.1066170543910075
 10
14.62633627499902
 20
30.51073854627254
 42
0.1568512196707839
 10
14.61517400080498
 20
30.47603159103996
 42
0.1568512196707877
 10
14.62633627499902
 20
30.44132463580737
 42
0.1066170543910138
 10
14.66557408600379
 20
30.40578159103996
 42
0.07234108405766
 10
14.71815711840382
 20
30.38482995814848
 42
0.0587518675353789
 10
14.78725065523549
 20
30.37668308828324
 42
0.058751867535374
 10
14.85634419206718
 20
30.38482995814848
 42
0.0723410840576588
 10
14.90892722446722
 20
30.40578159103996
 42
0.1066170543910072
 10
14.94816503547197
 20
30.44132463580737
 42
0.1568512196707839
 10
14.95932730966601
 20
30.47603159103996
 42
0.156851219670792
 10
14.94816503547197
 20
30.51073854627254
 42
0.1066170543910073
 10
14.90892722446722
 20
30.54628159103996
 42
0.072341084057658
 10
14.85634419206718
 20
30.56723322393144
 42
0.058751867535374
  0
LWPOLYLINE
  5
59D
330
1E
100
AcDbEntity
  8
OBJECT
100
AcDbPolyline
 90
        6
 70
     0
 43
0.0
 10
14.88064041352884
 20
30.3923307373363
 42
0.0907083780630905
 10
14.88278075520405
 20
30.40403159103996
 42
0.1568512196707755
 10
14.87658390547355
 20
30.42329950924738
 42
0.106617054390996
 10
14.85480063673069
 20
30.44303159103996
 42
0.0723410840576467
 10
14.82560863297837
 20
30.45466310253843
 42
0.0587518675353843
 10
14.78725065523549
 20
30.45918591997251
 42
0.0587518675353685
  0
LWPOLYLINE
  5
5A5
330
1E
100
AcDbEntity
  8
OBJECT
100
AcDbPolyline
 90
        9
 70
     0
 43
0.0
 10
18.45003518128475
 20
29.26686470515447
 42
0.1568512196707782
 10
18.4555170098925
 20
29.24982000827867
 42
0.1066170543910084
 10
18.47478682454965
 20
29.23236470515446
 42
0.072341084057661
 10
18.50061052017671
 20
29.22207529113659
 42
0.0587518675353793
 10
18.53454257741076
 20
29.21807433725259
 42
0.0587518675353684
 10
18.56847463464482
 20
29.22207529113659
 42
0.0723410840576543
 10
18.59429833027189
 20
29.23236470515446
 42
0.1066170543910017
 10
18.61356814492904
 20
29.24982000827867
 42
0.1568512196707747
 10
18.61904997353678
 20
29.26686470515447
 42
0.1568512196707838
  0
LWPOLYLINE
  5
5B0
330
1E
100
AcDbEntity
  8
OBJECT
100
AcDbPolyline
 90
       16
 70
     1
 43
0.0
 10
18.53454257741076
 20
29.9267498809206
 42
0.0587518675353782
 10
18.47342139832641
 20
29.91954303763476
 42
0.072341084057657
 10
18.42690565911985
 20
29.90100890890446
 42
0.1066170543910075
 10
18.39219530293789
 20
29.86956699835753
 42
0.1568512196707839
 10
18.38232098775171
 20
29.83886470515447
 42
0.1568512196707877
 10
18.39219530293789
 20
29.80816241195139
 42
0.1066170543910138
 10
18.42690565911985
 20
29.77672050140446
 42
0.07234108405766
 10
18.47342139832641
 20
29.75818637267417
 42
0.0587518675353789
 10
18.53454257741076
 20
29.75097952938834
 42
0.058751867535374
 10
18.59566375649513
 20
29.75818637267417
 42
0.0723410840576588
 10
18.64217949570168
 20
29.77672050140446
 42
0.1066170543910072
 10
18.67688985188365
 20
29.80816241195139
 42
0.1568512196707839
 10
18.68676416706982
 20
29.83886470515447
 42
0.156851219670792
 10
18.67688985188365
 20
29.86956699835753
 42
0.1066170543910073
 10
18.64217949570168
 20
29.90100890890446
 42
0.072341084057658
 10
18.59566375649513
 20
29.91954303763476
 42
0.058751867535374
  0
LINE
  5
5C2
330
1E
100
AcDbEntity
  8
OBJECT
100
AcDbLine
 10
18.40787435908539
 20
29.79059109871144
 30
0.0
 11
18.46422140071976
 21
29.74006511127787
 31
0.0
  0
LWPOLYLINE
  5
5C3
330
1E
100
AcDbEntity
  8
OBJECT
100
AcDbPolyline
 90
        2
 70
     0
 43
0.0
 10
18.45003518128475
 20
29.75278579233073
 10
18.45003518128475
 20
29.26686470515447
  0
LWPOLYLINE
  5
5C7
330
1E
100
AcDbEntity
  8
OBJECT
100
AcDbPolyline
 90
        2
 70
     0
 43
0.0
 10
18.61904997353678
 20
29.75278579233073
 10
18.61904997353678
 20
29.26686470515447
  0
LINE
  5
5CB
330
1E
100
AcDbEntity
  8
CENTER
100
AcDbLine
 10
18.53454257741076
 20
28.21218308828324
 30
0.0
 11
18.53454257741076
 21
30.12449068644238
 31
0.0
  0
LINE
  5
5CC
330
1E
100
AcDbEntity
  8
OBJECT
100
AcDbLine
 10
18.66121079573614
 20
29.79059109871144
 30
0.0
 11
18.60486375410177
 21
29.74006511127787
 31
0.0
  0
LWPOLYLINE
  5
5CD
330
1E
100
AcDbEntity
  8
OBJECT
100
AcDbPolyline
 90
        7
 70
     0
 43
0.0
 10
18.46422140071978
 20
29.74006511127785
 42
0.0531578900237961
 10
18.47478682454965
 20
29.73236470515447
 42
0.072341084057661
 10
18.50061052017671
 20
29.72207529113659
 42
0.0587518675353793
 10
18.53454257741076
 20
29.7180743372526
 42
0.0587518675353684
 10
18.56847463464482
 20
29.72207529113659
 42
0.0723410840576543
 10
18.59429833027189
 20
29.73236470515447
 42
0.0531578900238873
 10
18.60486375410177
 20
29.74006511127787
 42
0.1568512196707747
  0
LINE
  5
5D6
330
1E
100
AcDbEntity
  8
CENTER
100
AcDbLine
 10
18.53454257741076
 20
22.90448084658723
 30
0.0
 11
18.53454257741076
 21
27.96303159103996
 31
0.0
  0
LINE
  5
5D7
330
1E
100
AcDbEntity
  8
CENTER
100
AcDbLine
 10
14.78638462983172
 20
25.05172601259129
 30
0.0
 11
14.78638462983172
 21
27.87003159103996
 31
0.0
  0
LWPOLYLINE
  5
5D8
330
1E
100
AcDbEntity
  8
OBJECT
100
AcDbPolyline
 90
        7
 70
     0
 43
0.0
 10
14.71606345314074
 20
31.90406511127786
 42
0.0531578900237961
 10
14.72662887697058
 20
31.89636470515447
 42
0.072341084057661
 10
14.75245257259765
 20
31.88607529113658
 42
0.0587518675353793
 10
14.78638462983172
 20
31.8820743372526
 42
0.0587518675353684
 10
14.82031668706578
 20
31.88607529113658
 42
0.0723410840576543
 10
14.84614038269284
 20
31.89636470515447
 42
0.0531578900238873
 10
14.85670580652272
 20
31.90406511127787
 42
0.1568512196707747
  0
LWPOLYLINE
  5
5E1
330
1E
100
AcDbEntity
  8
OBJECT
100
AcDbPolyline
 90
        9
 70
     0
 43
0.0
 10
14.70187723370569
 20
31.43086470515446
 42
0.1568512196707782
 10
14.70735906231344
 20
31.41382000827868
 42
0.1066170543910084
 10
14.72662887697058
 20
31.39636470515446
 42
0.072341084057661
 10
14.75245257259765
 20
31.38607529113659
 42
0.0587518675353793
 10
14.78638462983172
 20
31.3820743372526
 42
0.0587518675353684
 10
14.82031668706578
 20
31.38607529113659
 42
0.0723410840576543
 10
14.84614038269284
 20
31.39636470515446
 42
0.1066170543910017
 10
14.86541019734999
 20
31.41382000827868
 42
0.1568512196707747
 10
14.87089202595774
 20
31.43086470515446
 42
0.1568512196707838
  0
LWPOLYLINE
  5
5EC
330
1E
100
AcDbEntity
  8
OBJECT
100
AcDbPolyline
 90
       16
 70
     1
 43
0.0
 10
14.78638462983172
 20
32.09074988092059
 42
0.0587518675353782
 10
14.72526345074736
 20
32.08354303763476
 42
0.072341084057657
 10
14.67874771154081
 20
32.06500890890446
 42
0.1066170543910075
 10
14.64403735535882
 20
32.03356699835753
 42
0.1568512196707839
 10
14.63416304017266
 20
32.00286470515446
 42
0.1568512196707877
 10
14.64403735535882
 20
31.97216241195139
 42
0.1066170543910138
 10
14.67874771154081
 20
31.94072050140446
 42
0.07234108405766
 10
14.72526345074736
 20
31.92218637267417
 42
0.0587518675353789
 10
14.78638462983172
 20
31.91497952938834
 42
0.058751867535374
 10
14.84750580891607
 20
31.92218637267417
 42
0.0723410840576588
 10
14.89402154812263
 20
31.94072050140446
 42
0.1066170543910072
 10
14.92873190430461
 20
31.97216241195139
 42
0.1568512196707839
 10
14.93860621949076
 20
32.00286470515446
 42
0.156851219670792
 10
14.92873190430461
 20
32.03356699835753
 42
0.1066170543910073
 10
14.89402154812263
 20
32.06500890890446
 42
0.072341084057658
 10
14.84750580891607
 20
32.08354303763476
 42
0.058751867535374
  0
LWPOLYLINE
  5
5FE
330
1E
100
AcDbEntity
  8
OBJECT
100
AcDbPolyline
 90
        2
 70
     0
 43
0.0
 10
14.70187723370569
 20
31.91678579233073
 10
14.70187723370569
 20
31.43086470515446
  0
LINE
  5
602
330
1E
100
AcDbEntity
  8
OBJECT
100
AcDbLine
 10
14.65971641150635
 20
31.95459109871144
 30
0.0
 11
14.71606345314072
 21
31.90406511127787
 31
0.0
  0
LWPOLYLINE
  5
603
330
1E
100
AcDbEntity
  8
OBJECT
100
AcDbPolyline
 90
        2
 70
     0
 43
0.0
 10
14.87089202595774
 20
31.91678579233073
 10
14.87089202595774
 20
31.43086470515446
  0
LINE
  5
607
330
1E
100
AcDbEntity
  8
OBJECT
100
AcDbLine
 10
14.91305284815708
 20
31.95459109871144
 30
0.0
 11
14.85670580652272
 21
31.90406511127787
 31
0.0
  0
LWPOLYLINE
  5
608
330
1E
100
AcDbEntity
  8
OBJECT
100
AcDbPolyline
 90
        5
 70
     0
 43
0.0
 10
16.43039440133215
 20
27.08186210691382
 42
0.0579352609795065
 10
16.48747067933011
 20
27.06099666588979
 42
0.0587518675353775
 10
16.57992324106928
 20
27.05009551617689
 42
0.0587518675353751
 10
16.67237580280848
 20
27.06099666588979
 42
0.0579352609794989
 10
16.72945208080642
 20
27.08186210691382
 42
0.0179552318985063
  0
LWPOLYLINE
  5
60F
330
1E
100
AcDbEntity
  8
OBJECT
100
AcDbPolyline
 90
        5
 70
     0
 43
0.0
 10
20.66306348083894
 20
29.35293370760994
 42
0.0884924184527761
 10
20.7053439781913
 20
29.39409096766823
 42
0.1568512196707801
 10
20.72027997497766
 20
29.44053159103996
 42
0.1568512196707801
 10
20.7053439781913
 20
29.48697221441168
 42
0.088492418452781
 10
20.66306348083894
 20
29.52812947446996
 42
0.0143456988258055
  0
LINE
  5
616
330
1E
100
AcDbEntity
  8
OBJECT
100
AcDbLine
 10
16.41797649056161
 20
21.80448084658724
 30
0.0
 11
12.66895251757876
 21
23.96898084658724
 31
0.0
  0
LINE
  5
617
330
1E
100
AcDbEntity
  8
OBJECT
100
AcDbLine
 10
16.74186999157699
 20
21.80448084658724
 30
0.0
 11
20.65284071506751
 21
24.06248084658724
 31
0.0
  0
LINE
  5
618
330
1E
100
AcDbEntity
  8
OBJECT
100
AcDbLine
 10
12.60187197713623
 20
24.06248084658724
 30
0.0
 11
12.72045972840216
 21
22.08253652915152
 31
0.0
  0
LWPOLYLINE
  5
619
330
1E
100
AcDbEntity
  8
OBJECT
100
AcDbPolyline
 90
        3
 70
     0
 43
0.0
 10
12.75151631793842
 20
21.98669529849407
 42
0.0587518675353721
 10
12.78852891996729
 20
21.93708380098434
 42
0.0723410840576587
 10
12.82806287240039
 20
21.90588947231823
 42
0.1066170543910069
  0
LWPOLYLINE
  5
61E
330
1E
100
AcDbEntity
  8
OBJECT
100
AcDbPolyline
 90
        3
 70
     0
 43
0.0
 10
12.7204350375865
 20
22.08294876768092
 42
0.0576182447349186
 10
12.72738241597151
 20
22.04336748478082
 42
0.0587518675353731
 10
12.75184093212029
 20
21.98650788240879
 42
0.0587518675353721
  0
LINE
  5
623
330
1E
100
AcDbEntity
  8
OBJECT
100
AcDbLine
 10
16.47167006559625
 20
19.80225187850535
 30
0.0
 11
12.8280628724004
 21
21.90588947231823
 31
0.0
  0
LWPOLYLINE
  5
624
330
1E
100
AcDbEntity
  8
OBJECT
100
AcDbPolyline
 90
        5
 70
     0
 43
0.0
 10
12.83176529349024
 20
24.01373568058318
 42
0.0587518675353727
 10
12.80029208098327
 20
24.01002465089367
 42
0.0723410840576566
 10
12.77633966764804
 20
24.00048084658723
 42
0.1066170543909957
 10
12.75846621637183
 20
23.98429042050101
 42
0.015928584286223
 10
12.75750439155932
 20
23.98285539830732
 42
0.1568512196707294
  0
LINE
  5
62B
330
1E
100
AcDbEntity
  8
OBJECT
100
AcDbLine
 10
12.73088027542685
 20
24.02938025761268
 30
0.0
 11
12.88444701545975
 21
24.11822539753694
 31
0.0
  0
LWPOLYLINE
  5
62C
330
1E
100
AcDbEntity
  8
OBJECT
100
AcDbPolyline
 90
        2
 70
     0
 43
0.0
 10
12.73088027542685
 20
24.02938025761268
 42
0.0629145768544889
 10
12.70911278580628
 20
24.01285783988773
 42
0.1568512196707815
  0
LWPOLYLINE
  5
630
330
1E
100
AcDbEntity
  8
OBJECT
100
AcDbPolyline
 90
        5
 70
     0
 43
0.0
 10
12.66895251757876
 20
24.15598084658723
 42
0.1066170543910098
 10
12.61672852713115
 20
24.10867444536656
 42
0.156851219670778
 10
12.60187197713623
 20
24.06248084658724
 42
0.1568512196707736
 10
12.61672852713115
 20
24.01628724780792
 42
0.1066170543910057
 10
12.66895251757876
 20
23.96898084658724
 42
0.0723410840576563
  0
LWPOLYLINE
  5
637
330
1E
100
AcDbEntity
  8
OBJECT
100
AcDbPolyline
 90
        5
 70
     0
 43
0.0
 10
12.72524416882474
 20
24.12348084658724
 42
0.1066170543910082
 10
12.69117290232951
 20
24.09261784686038
 42
0.1568512196707815
 10
12.68148039377668
 20
24.06248084658724
 42
0.1568512196708033
 10
12.69117290232951
 20
24.0323438463141
 42
0.1066170543910133
 10
12.72524416882474
 20
24.00148084658724
 42
0.072341084057667
  0
LINE
  5
63E
330
1E
100
AcDbEntity
  8
OBJECT
100
AcDbLine
 10
12.88444701545975
 20
24.11822539753694
 30
0.0
 11
12.88837426889531
 21
24.05265586746437
 31
0.0
  0
LWPOLYLINE
  5
63F
330
1E
100
AcDbEntity
  8
OBJECT
100
AcDbPolyline
 90
        7
 70
     0
 43
0.0
 10
12.91274603429368
 20
23.8932265940852
 42
0.0431043958842368
 10
12.9400184689633
 20
23.90598084658723
 42
0.1066170543910163
 10
12.9749275534871
 20
23.9376027725369
 42
0.1568512196707811
 10
12.98485840241418
 20
23.96848084658723
 42
0.1568512196707789
 10
12.9749275534871
 20
23.99935892063758
 42
0.1066170543910128
 10
12.9400184689633
 20
24.03098084658723
 42
0.0614208028592784
 10
12.90059460742757
 20
24.04769135306542
 42
0.0587518675353793
  0
LWPOLYLINE
  5
648
330
1E
100
AcDbEntity
  8
OBJECT
100
AcDbPolyline
 90
        9
 70
     0
 43
0.0
 10
12.85675437539656
 20
23.92555339342182
 42
0.0122510181797349
 10
12.8632385059972
 20
23.9269370422808
 42
0.072341084057657
 10
12.88719091933244
 20
23.93648084658723
 42
0.1066170543910092
 10
12.90506437060864
 20
23.95267127267346
 42
0.1568512196707462
 10
12.9101489652593
 20
23.96848084658723
 42
0.1568512196707336
 10
12.90506437060864
 20
23.98429042050101
 42
0.1066170543909893
 10
12.88719091933244
 20
24.00048084658723
 42
0.0723410840576466
 10
12.8632385059972
 20
24.01002465089367
 42
0.0587518675353801
 10
12.83176529349024
 20
24.01373568058318
 42
0.0587518675353727
  0
LINE
  5
653
330
1E
100
AcDbEntity
  8
OBJECT
100
AcDbLine
 10
12.98485840241418
 20
23.96848084658723
 30
0.0
 11
12.99211013581333
 21
23.84740570870883
 31
0.0
  0
LWPOLYLINE
  5
654
330
1E
100
AcDbEntity
  8
OBJECT
100
AcDbPolyline
 90
        7
 70
     0
 43
0.0
 10
12.88444701545975
 20
24.11822539753694
 42
0.0028611439124897
 10
12.88357721376539
 20
24.11772983183669
 42
0.1066170543909982
 10
12.86612267150349
 20
24.10191886886186
 42
0.1568512196707734
 10
12.86115724703995
 20
24.08647983183669
 42
0.1568512196707052
 10
12.86612267150349
 20
24.07104079481152
 42
0.1066170543910106
 10
12.88357721376539
 20
24.05522983183669
 42
0.0533467249351883
 10
12.90059460742757
 20
24.04769135306542
 42
0.0587518675353688
  0
LINE
  5
65D
330
1E
100
AcDbEntity
  8
OBJECT
100
AcDbLine
 10
16.47426814180758
 20
21.83698084658723
 30
0.0
 11
12.72524416882474
 21
24.00148084658724
 31
0.0
  0
LWPOLYLINE
  5
65E
330
1E
100
AcDbEntity
  8
OBJECT
100
AcDbPolyline
 90
        4
 70
     0
 43
0.0
 10
16.57992324106929
 20
21.89286919423556
 42
0.0587518675353755
 10
16.51845212289164
 20
21.88562108937325
 42
0.0723410840576592
 10
16.47167006559625
 20
21.86698084658723
 42
0.0602741052164751
 10
16.45021135749171
 20
21.85087003748785
 42
0.1568512196707789
  0
LWPOLYLINE
  5
664
330
1E
100
AcDbEntity
  8
OBJECT
100
AcDbPolyline
 90
        5
 70
     0
 43
0.0
 10
16.47426814180758
 20
21.83698084658723
 42
0.072341084057667
 10
16.51992742972791
 20
21.81878796962809
 42
0.0587518675353803
 10
16.57992324106929
 20
21.81171381928247
 42
0.0587518675353749
 10
16.63991905241068
 20
21.81878796962809
 42
0.0723410840576561
 10
16.685578340331
 20
21.83698084658723
 42
0.1066170543910133
  0
LWPOLYLINE
  5
66B
330
1E
100
AcDbEntity
  8
OBJECT
100
AcDbPolyline
 90
        5
 70
     0
 43
0.0
 10
16.41797649056161
 20
21.80448084658724
 42
0.0723410840576563
 10
16.48796244827553
 20
21.77659504337936
 42
0.0587518675353739
 10
16.57992324106929
 20
21.76575187850536
 42
0.0587518675353751
 10
16.67188403386306
 20
21.77659504337936
 42
0.0723410840576581
 10
16.74186999157699
 20
21.80448084658724
 42
0.1066170543910071
  0
LWPOLYLINE
  5
672
330
1E
100
AcDbEntity
  8
OBJECT
100
AcDbPolyline
 90
        4
 70
     0
 43
0.0
 10
16.65186351993455
 20
21.82210718527048
 42
0.096596827243349
 10
16.6353488669115
 20
21.83648084658723
 42
0.0723410840576466
 10
16.61139645357625
 20
21.84602465089367
 42
0.0587518675353801
 10
16.57992324106929
 20
21.84973568058317
 42
0.0587518675353727
  0
LWPOLYLINE
  5
678
330
1E
100
AcDbEntity
  8
OBJECT
100
AcDbPolyline
 90
        4
 70
     0
 43
0.0
 10
16.57992324106929
 20
21.84973568058317
 42
0.0587518675353727
 10
16.54845002856234
 20
21.84602465089367
 42
0.0723410840576566
 10
16.52449761522708
 20
21.83648084658723
 42
0.0965968272433475
 10
16.50798296220403
 20
21.82210718527048
 42
0.1568512196707378
  0
LWPOLYLINE
  5
67E
330
1E
100
AcDbEntity
  8
OBJECT
100
AcDbPolyline
 90
        4
 70
     0
 43
0.0
 10
16.70963512464689
 20
21.85087003748785
 42
0.0602741052164752
 10
16.68817641654234
 20
21.86698084658723
 42
0.0723410840576543
 10
16.64139435924695
 20
21.88562108937325
 42
0.0587518675353793
 10
16.57992324106929
 20
21.89286919423556
 42
0.0587518675353755
  0
LWPOLYLINE
  5
684
330
1E
100
AcDbEntity
  8
OBJECT
100
AcDbPolyline
 90
        5
 70
     0
 43
0.0
 10
16.47167006559624
 20
19.80225187850535
 42
0.0723410840576616
 10
16.51845212289164
 20
19.78361163571934
 42
0.0587518675353754
 10
16.57992324106929
 20
19.77636353085704
 42
0.0587518675353759
 10
16.64139435924695
 20
19.78361163571934
 42
0.0723410840576575
 10
16.68817641654234
 20
19.80225187850535
 42
0.1066170543910062
  0
LWPOLYLINE
  5
68B
330
1E
100
AcDbEntity
  8
OBJECT
100
AcDbPolyline
 90
        7
 70
     0
 43
0.0
 10
20.40958716807908
 20
24.13743198634392
 42
0.0439272805455098
 10
20.38177476368298
 20
24.12448084658723
 42
0.1066170543910128
 10
20.34686567915918
 20
24.09285892063758
 42
0.1568512196707789
 10
20.33693483023208
 20
24.06198084658724
 42
0.1568512196707841
 10
20.34686567915918
 20
24.03110277253689
 42
0.1066170543909903
 10
20.38177476368298
 20
23.99948084658724
 42
0.0431043958842389
 10
20.4090471983526
 20
23.98672659408519
 42
0.0587518675353809
  0
LINE
  5
694
330
1E
100
AcDbEntity
  8
OBJECT
100
AcDbLine
 10
20.33693483023208
 20
24.06198084658724
 30
0.0
 11
20.32968662909469
 21
23.9409077480611
 31
0.0
  0
LWPOLYLINE
  5
695
330
1E
100
AcDbEntity
  8
OBJECT
100
AcDbPolyline
 90
        5
 70
     0
 43
0.0
 10
20.59654906382152
 20
24.09498084658723
 42
0.1066170543910133
 10
20.63062033031676
 20
24.1258438463141
 42
0.1568512196707847
 10
20.64031283886959
 20
24.15598084658723
 42
0.1568512196707792
 10
20.63062033031676
 20
24.18611784686037
 42
0.1066170543910057
 10
20.59654906382152
 20
24.21698084658723
 42
0.0723410840576648
  0
LINE
  5
69C
330
1E
100
AcDbEntity
  8
OBJECT
100
AcDbLine
 10
20.43607785499824
 20
24.21281009054268
 30
0.0
 11
20.43196747770457
 21
24.14415083211103
 31
0.0
  0
LWPOLYLINE
  5
69D
330
1E
100
AcDbEntity
  8
OBJECT
100
AcDbPolyline
 90
        5
 70
     0
 43
0.0
 10
20.56428884108695
 20
24.07635539830732
 42
0.015928584286222
 10
20.56332701627443
 20
24.07779042050101
 42
0.1066170543909893
 10
20.54545356499823
 20
24.09398084658723
 42
0.0723410840576466
 10
20.521501151663
 20
24.10352465089367
 42
0.0587518675353801
 10
20.49002793915603
 20
24.10723568058318
 42
0.0587518675353727
  0
LWPOLYLINE
  5
6A4
330
1E
100
AcDbEntity
  8
OBJECT
100
AcDbPolyline
 90
        9
 70
     0
 43
0.0
 10
20.49002793915603
 20
24.10723568058318
 42
0.0587518675353727
 10
20.45855472664907
 20
24.10352465089367
 42
0.0723410840576566
 10
20.43460231331382
 20
24.09398084658723
 42
0.1066170543909957
 10
20.41672886203764
 20
24.07779042050101
 42
0.1568512196707378
 10
20.41164426738697
 20
24.06198084658724
 42
0.1568512196707294
 10
20.41672886203764
 20
24.04617127267345
 42
0.1066170543909819
 10
20.43460231331382
 20
24.02998084658724
 42
0.0723410840576534
 10
20.45855472664907
 20
24.0204370422808
 42
0.0122510181797299
 10
20.46503885724971
 20
24.01905339342182
 42
0.0587518675353727
  0
LWPOLYLINE
  5
6AF
330
1E
100
AcDbEntity
  8
OBJECT
100
AcDbPolyline
 90
        2
 70
     0
 43
0.0
 10
20.59091295721942
 20
24.12288025761268
 42
-0.062914576854489
 10
20.61268044683998
 20
24.10635783988773
 42
-0.1568512196707815
  0
LWPOLYLINE
  5
6B3
330
1E
100
AcDbEntity
  8
OBJECT
100
AcDbPolyline
 90
        7
 70
     0
 43
0.0
 10
20.43084739090517
 20
24.14365810389757
 42
0.0290503911245578
 10
20.43992251238474
 20
24.14821686033723
 42
0.1066170543910291
 10
20.45737705464663
 20
24.16402782331207
 42
0.1568512196707543
 10
20.46234247911018
 20
24.17946686033724
 42
0.1568512196707906
 10
20.45737705464663
 20
24.1949058973624
 42
0.1066170543910265
 10
20.43992251238474
 20
24.21071686033724
 42
0.0125132942123061
 10
20.43607785499826
 20
24.21281009054268
 42
0.0587518675353721
  0
LINE
  5
6BC
330
1E
100
AcDbEntity
  8
OBJECT
100
AcDbLine
 10
20.40958716807907
 20
24.13743198634392
 30
0.0
 11
20.43084739090517
 21
24.14365810389757
 31
0.0
  0
LINE
  5
6BD
330
1E
100
AcDbEntity
  8
OBJECT
100
AcDbLine
 10
20.59091295721942
 20
24.12288025761268
 30
0.0
 11
20.43607785499824
 21
24.21281009054268
 31
0.0
  0
LWPOLYLINE
  5
6BE
330
1E
100
AcDbEntity
  8
OBJECT
100
AcDbPolyline
 90
        5
 70
     0
 43
0.0
 10
20.65284071506751
 20
24.06248084658724
 42
0.1066170543910071
 10
20.70506470551511
 20
24.10978724780792
 42
0.1568512196707751
 10
20.71992125551005
 20
24.15598084658723
 42
0.156851219670793
 10
20.70506470551511
 20
24.20217444536655
 42
0.1066170543910132
 10
20.65284071506751
 20
24.24948084658724
 42
0.0723410840576542
  0
LWPOLYLINE
  5
6C5
330
1E
100
AcDbEntity
  8
OBJECT
100
AcDbPolyline
 90
        3
 70
     0
 43
0.0
 10
20.60135819505978
 20
22.17644876768092
 42
-0.0576182447349186
 10
20.59441081667476
 20
22.13686748478082
 42
-0.0587518675353731
 10
20.56995230052598
 20
22.08000788240878
 42
-0.0587518675353721
  0
LWPOLYLINE
  5
6CA
330
1E
100
AcDbEntity
  8
OBJECT
100
AcDbPolyline
 90
        3
 70
     0
 43
0.0
 10
20.57027691470785
 20
22.08019529849407
 42
-0.0587518675353721
 10
20.53326431267898
 20
22.03058380098434
 42
-0.0723410840576587
 10
20.49373036024589
 20
21.99938947231822
 42
-0.1066170543910069
  0
LINE
  5
6CF
330
1E
100
AcDbEntity
  8
OBJECT
100
AcDbLine
 10
20.71992125551005
 20
24.15598084658723
 30
0.0
 11
20.60133350424409
 21
22.17603652915122
 31
0.0
  0
LINE
  5
6D0
330
1E
100
AcDbEntity
  8
OBJECT
100
AcDbLine
 10
20.49373036024589
 20
21.99938947231822
 30
0.0
 11
16.68817641654234
 21
19.80225187850535
 31
0.0
  0
LINE
  5
6D1
330
1E
100
AcDbEntity
  8
OBJECT
100
AcDbLine
 10
16.68557834033101
 20
21.83698084658723
 30
0.0
 11
20.59654906382152
 21
24.09498084658723
 31
0.0
  0
LWPOLYLINE
  5
6D2
330
1E
100
AcDbEntity
  8
OBJECT
100
AcDbPolyline
 90
        3
 70
     0
 43
0.0
 10
16.94672236976819
 20
24.21477589345821
 42
-0.0587518675353793
 10
16.97745792885701
 20
24.21115184102704
 42
-0.0642382339879482
 10
16.998382779298
 20
24.2032030126178
 42
-0.010596345945674
  0
LWPOLYLINE
  5
6D7
330
1E
100
AcDbEntity
  8
OBJECT
100
AcDbPolyline
 90
        4
 70
     0
 43
0.0
 10
16.87558540867484
 20
24.18663110914148
 42
-0.1032009272409039
 10
16.89259578203166
 20
24.20183171963405
 42
-0.0723410840576526
 10
16.91598681067936
 20
24.21115184102704
 42
-0.0587518675353721
 10
16.94672236976819
 20
24.21477589345821
 42
-0.0587518675353793
  0
LINE
  5
6DD
330
1E
100
AcDbEntity
  8
OBJECT
100
AcDbLine
 10
18.88923404764619
 20
23.10926206240691
 30
0.0
 11
18.86323639312037
 21
23.12430285348939
 31
0.0
  0
LINE
  5
6DE
330
1E
100
AcDbEntity
  8
CENTER
100
AcDbLine
 10
16.74186999157698
 20
31.50518308828324
 30
0.0
 11
16.74186999157698
 21
33.41749068644237
 31
0.0
  0
LINE
  5
6DF
330
1E
100
AcDbEntity
  8
CENTER
100
AcDbLine
 10
14.78638462983172
 20
30.37668435063892
 30
0.0
 11
14.78638462983172
 21
32.28849068644239
 31
0.0
  0
LWPOLYLINE
  5
6E0
330
1E
100
AcDbEntity
  8
OBJECT
100
AcDbPolyline
 90
        7
 70
     0
 43
0.0
 10
18.45410180633382
 20
23.00843198634392
 42
0.0439272805455098
 10
18.42628940193772
 20
22.99548084658723
 42
0.1066170543910128
 10
18.39138031741391
 20
22.96385892063758
 42
0.1568512196707789
 10
18.38144946848682
 20
22.93298084658724
 42
0.1568512196707841
 10
18.39138031741392
 20
22.90210277253689
 42
0.1066170543909903
 10
18.42628940193772
 20
22.87048084658724
 42
0.0431043958842389
 10
18.45356183660732
 20
22.85772659408519
 42
0.0587518675353809
  0
LINE
  5
6E9
330
1E
100
AcDbEntity
  8
OBJECT
100
AcDbLine
 10
18.38144946848682
 20
22.93298084658724
 30
0.0
 11
18.37420126734943
 21
22.8119077480611
 31
0.0
  0
LINE
  5
6EA
330
1E
100
AcDbEntity
  8
OBJECT
100
AcDbLine
 10
18.45410180633382
 20
23.00843198634392
 30
0.0
 11
18.47536202915992
 21
23.01465810389756
 31
0.0
  0
LWPOLYLINE
  5
6EB
330
1E
100
AcDbEntity
  8
OBJECT
100
AcDbPolyline
 90
        9
 70
     0
 43
0.0
 10
18.53454257741076
 20
22.97823568058317
 42
0.0587518675353727
 10
18.50306936490381
 20
22.97452465089367
 42
0.0723410840576566
 10
18.47911695156857
 20
22.96498084658722
 42
0.1066170543909957
 10
18.46124350029238
 20
22.94879042050101
 42
0.1568512196707378
 10
18.45615890564172
 20
22.93298084658724
 42
0.1568512196707294
 10
18.46124350029238
 20
22.91717127267346
 42
0.1066170543909819
 10
18.47911695156857
 20
22.90098084658722
 42
0.0723410840576534
 10
18.50306936490381
 20
22.8914370422808
 42
0.0122510181797299
 10
18.50955349550446
 20
22.89005339342182
 42
0.0587518675353727
  0
LWPOLYLINE
  5
6F6
330
1E
100
AcDbEntity
  8
OBJECT
100
AcDbPolyline
 90
        5
 70
     0
 43
0.0
 10
18.6088034793417
 20
22.94735539830731
 42
0.015928584286222
 10
18.60784165452917
 20
22.94879042050101
 42
0.1066170543909893
 10
18.58996820325297
 20
22.96498084658722
 42
0.0723410840576466
 10
18.56601578991774
 20
22.97452465089367
 42
0.0587518675353801
 10
18.53454257741076
 20
22.97823568058317
 42
0.0587518675353727
  0
LWPOLYLINE
  5
6FD
330
1E
100
AcDbEntity
  8
OBJECT
100
AcDbPolyline
 90
        4
 70
     0
 43
0.0
 10
18.66425446098837
 20
22.97937003748784
 42
0.0602741052164752
 10
18.64279575288382
 20
22.99548084658723
 42
0.0723410840576543
 10
18.59601369558842
 20
23.01412108937325
 42
0.1156549247320096
 10
18.47536202915993
 20
23.01465810389756
 42
0.0587518675353755
  0
LINE
  5
703
330
1E
100
AcDbEntity
  8
OBJECT
100
AcDbLine
 10
14.54833739655416
 20
25.07852585964595
 30
0.0
 11
14.83906635180122
 21
25.24672539753694
 31
0.0
  0
LWPOLYLINE
  5
704
330
1E
100
AcDbEntity
  8
OBJECT
100
AcDbPolyline
 90
        7
 70
     0
 43
0.0
 10
14.83906635180123
 20
25.24672539753694
 42
0.0028611439124897
 10
14.83819655010687
 20
25.24622983183668
 42
0.1066170543909982
 10
14.82074200784497
 20
25.23041886886186
 42
0.1568512196707734
 10
14.81577658338142
 20
25.21497983183668
 42
0.1568512196707052
 10
14.82074200784497
 20
25.19954079481152
 42
0.1066170543910106
 10
14.83819655010687
 20
25.18372983183668
 42
0.0533467249351883
 10
14.85521394376904
 20
25.17619135306542
 42
0.0587518675353688
  0
LWPOLYLINE
  5
70D
330
1E
100
AcDbEntity
  8
OBJECT
100
AcDbPolyline
 90
        7
 70
     0
 43
0.0
 10
14.86736537063515
 20
25.0217265940852
 42
0.0431043958842368
 10
14.89463780530478
 20
25.03448084658724
 42
0.1066170543910163
 10
14.92954688982857
 20
25.0661027725369
 42
0.1568512196707811
 10
14.93947773875567
 20
25.09698084658724
 42
0.1568512196707789
 10
14.92954688982857
 20
25.12785892063758
 42
0.1066170543910128
 10
14.89463780530478
 20
25.15948084658724
 42
0.0614208028592784
 10
14.85521394376904
 20
25.17619135306542
 42
0.0587518675353793
  0
LINE
  5
716
330
1E
100
AcDbEntity
  8
OBJECT
100
AcDbLine
 10
14.83906635180122
 20
25.24672539753694
 30
0.0
 11
14.84299360523677
 21
25.18115586746437
 31
0.0
  0
LWPOLYLINE
  5
717
330
1E
100
AcDbEntity
  8
OBJECT
100
AcDbPolyline
 90
       16
 70
     1
 43
0.0
 10
14.78638462983172
 20
25.14223568058318
 42
0.0587518675353727
 10
14.75491141732476
 20
25.13852465089367
 42
0.0723410840576566
 10
14.73095900398952
 20
25.12898084658724
 42
0.1066170543909957
 10
14.71308555271332
 20
25.11279042050102
 42
0.1568512196707378
 10
14.70800095806265
 20
25.09698084658724
 42
0.1568512196707294
 10
14.71308555271332
 20
25.08117127267345
 42
0.1066170543909819
 10
14.73095900398952
 20
25.06498084658724
 42
0.0723410840576534
 10
14.75491141732476
 20
25.0554370422808
 42
0.0587518675353621
 10
14.78638462983172
 20
25.05172601259129
 42
0.0587518675353727
 10
14.81785784233867
 20
25.0554370422808
 42
0.072341084057657
 10
14.84181025567393
 20
25.06498084658724
 42
0.1066170543910092
 10
14.85968370695012
 20
25.08117127267347
 42
0.1568512196707462
 10
14.86476830160078
 20
25.09698084658724
 42
0.1568512196707336
 10
14.85968370695012
 20
25.11279042050102
 42
0.1066170543909893
 10
14.84181025567393
 20
25.12898084658724
 42
0.0723410840576466
 10
14.81785784233867
 20
25.13852465089367
 42
0.0587518675353801
  0
LWPOLYLINE
  5
729
330
1E
100
AcDbEntity
  8
OBJECT
100
AcDbPolyline
 90
        7
 70
     0
 43
0.0
 10
14.65266921273385
 20
25.05463110914149
 42
0.0730609864587327
 10
14.67813145435866
 20
25.03448084658724
 42
0.0723410840576608
 10
14.72491351165406
 20
25.01584060380123
 42
0.0587518675353809
 10
14.78638462983172
 20
25.00859249893892
 42
0.0587518675353774
 10
14.84785574800937
 20
25.01584060380123
 42
0.0723410840576568
 10
14.89463780530478
 20
25.03448084658724
 42
0.0904779399290791
 10
14.92520122993066
 20
25.06043708711986
 42
0.1568512196707811
  0
LWPOLYLINE
  5
732
330
1E
100
AcDbEntity
  8
OBJECT
100
AcDbPolyline
 90
        3
 70
     0
 43
0.0
 10
14.58153225164051
 20
25.08277589345821
 42
0.0587518675353793
 10
14.55079669255169
 20
25.07915184102705
 42
0.0642382339879882
 10
14.52987184211067
 20
25.07120301261779
 42
0.010596345945674
  0
LWPOLYLINE
  5
737
330
1E
100
AcDbEntity
  8
OBJECT
100
AcDbPolyline
 90
        4
 70
     0
 43
0.0
 10
14.65266921273386
 20
25.05463110914147
 42
0.1032009272409039
 10
14.63565883937703
 20
25.06983171963405
 42
0.0723410840576526
 10
14.61226781072934
 20
25.07915184102705
 42
0.0587518675353721
 10
14.58153225164051
 20
25.08277589345821
 42
0.0587518675353793
  0
LINE
  5
73D
330
1E
100
AcDbEntity
  8
OBJECT
100
AcDbLine
 10
14.52987184211067
 20
25.07120301261779
 30
0.0
 11
14.52987184211067
 21
23.07420301261778
 31
0.0
  0
LINE
  5
73E
330
1E
100
AcDbEntity
  8
OBJECT
100
AcDbLine
 10
14.65266921273385
 20
25.05463110914149
 30
0.0
 11
14.65266921273385
 21
23.05763110914149
 31
0.0
  0
LWPOLYLINE
  5
73F
330
1E
100
AcDbEntity
  8
OBJECT
100
AcDbPolyline
 90
        7
 70
     0
 43
0.0
 10
14.65266921273386
 20
23.05763110914149
 42
0.0730609864587327
 10
14.67813145435867
 20
23.03748084658724
 42
0.0723410840576608
 10
14.72491351165406
 20
23.01884060380121
 42
0.0587518675353809
 10
14.78638462983172
 20
23.01159249893892
 42
0.0587518675353774
 10
14.84785574800938
 20
23.01884060380121
 42
0.0723410840576568
 10
14.89463780530478
 20
23.03748084658724
 42
0.1509947274348036
 10
14.93947773875567
 20
23.0858578108029
 42
0.1568512196707811
  0
LWPOLYLINE
  5
748
330
1E
100
AcDbEntity
  8
OBJECT
100
AcDbPolyline
 90
        3
 70
     0
 43
0.0
 10
14.58153225164052
 20
23.08577589345821
 42
0.0587518675353793
 10
14.55079669255169
 20
23.08215184102706
 42
0.0642382339879482
 10
14.52987184211069
 20
23.07420301261778
 42
0.010596345945674
  0
LWPOLYLINE
  5
74D
330
1E
100
AcDbEntity
  8
OBJECT
100
AcDbPolyline
 90
        4
 70
     0
 43
0.0
 10
14.65266921273386
 20
23.05763110914147
 42
0.1032009272409039
 10
14.63565883937703
 20
23.07283171963405
 42
0.0723410840576526
 10
14.61226781072934
 20
23.08215184102706
 42
0.0587518675353721
 10
14.58153225164052
 20
23.08577589345821
 42
0.0587518675353793
  0
LINE
  5
753
330
1E
100
AcDbEntity
  8
OBJECT
100
AcDbLine
 10
14.93947773875567
 20
25.09698084658724
 30
0.0
 11
14.93947773875567
 21
23.0858578108029
 31
0.0
  0
LINE
  5
754
330
1E
100
AcDbEntity
  8
OBJECT
100
AcDbLine
 10
14.93947773875567
 20
23.30755106315035
 30
0.0
 11
16.48535720385596
 21
24.2032030126178
 31
0.0
  0
DIMENSION
  5
755
330
1E
100
AcDbEntity
  8
DIM
100
AcDbDimension
  2
*D10
 10
8.008683241158918
 20
22.29718284933623
 30
0.0
 11
8.008683241158914
 21
23.37543284933623
 31
0.0
 70
    32
  1
G
 71
     5
 42
2.1565
  3
23NSTD
100
AcDbAlignedDimension
 13
7.315799782493712
 23
24.45368284933624
 33
0.0
 14
7.315799782493712
 24
22.29718284933623
 34
0.0
 50
270.0
100
AcDbRotatedDimension
  0
DIMENSION
  5
756
330
1E
100
AcDbEntity
  8
DIM
100
AcDbDimension
  2
*D11
 10
8.611537403417552
 20
24.64868284933622
 30
0.0
 11
9.28934990341755
 21
25.45868284933622
 31
0.0
 70
    32
  1
L
 71
     5
 42
0.1950000000000003
  3
23NSTD
100
AcDbAlignedDimension
 13
7.949256543773763
 23
24.45368284933623
 33
0.0
 14
7.956756543773764
 24
24.64868284933622
 34
0.0
 50
270.0
100
AcDbRotatedDimension
  0
DIMENSION
  5
758
330
1E
100
AcDbEntity
  8
DIM
100
AcDbDimension
  2
*D12
 10
8.008683241158916
 20
29.94281367118587
 30
0.0
 11
8.008683241158911
 21
31.02106367118587
 31
0.0
 70
    32
  1
G
 71
     5
 42
2.1565
  3
23NSTD
100
AcDbAlignedDimension
 13
7.315799782493715
 23
32.09931367118587
 33
0.0
 14
7.315799782493715
 24
29.94281367118587
 34
0.0
 50
270.0
100
AcDbRotatedDimension
  0
DIMENSION
  5
75A
330
1E
100
AcDbEntity
  8
DIM
100
AcDbDimension
  2
*D13
 10
2.533804304007555
 20
11.81507321023416
 30
0.0
 11
2.533804304007553
 21
12.84632321023416
 31
0.0
 70
    32
  1
D
 71
     5
 42
2.0625
  3
23NSTD
100
AcDbAlignedDimension
 13
3.579236448785569
 23
13.87757321023416
 33
0.0
 14
3.094054304007553
 24
11.81507321023416
 34
0.0
 50
90.0
100
AcDbRotatedDimension
  0
DIMENSION
  5
75B
330
1E
100
AcDbEntity
  8
DIM
100
AcDbDimension
  2
*D14
 10
2.78671731597916
 20
15.86456339953521
 30
0.0
 11
3.798514190979156
 21
16.6745633995352
 31
0.0
 70
    32
 71
     5
 42
0.2343749999999964
  3
23NSTD
100
AcDbAlignedDimension
 13
3.594065139815018
 23
15.63018839953522
 33
0.0
 14
3.485429304007553
 24
15.86456339953521
 34
0.0
 50
90.0
100
AcDbRotatedDimension
  0
DIMENSION
  5
75C
330
1E
100
AcDbEntity
  8
DIM
100
AcDbDimension
  2
*D15
 10
4.269337794435806
 20
11.89319821023416
 30
0.0
 11
4.947150294435803
 21
12.70319821023416
 31
0.0
 70
    32
  1
K
 71
     5
 42
0.078125
  3
23NSTD
100
AcDbAlignedDimension
 13
4.234538851054907
 23
11.81507321023416
 33
0.0
 14
4.234538851054907
 24
11.89319821023416
 34
0.0
 50
90.0
100
AcDbRotatedDimension
  0
DIMENSION
  5
75D
330
1E
100
AcDbEntity
  8
DIM
100
AcDbDimension
  2
*D16
 10
7.521964999274318
 20
13.87757321023416
 30
0.0
 11
8.516183749274317
 21
14.68757321023416
 31
0.0
 70
   160
 71
     5
 42
0.09375
  3
23NSTD
100
AcDbAlignedDimension
 13
7.872964999274321
 23
13.78382321023416
 33
0.0
 14
8.095122159229539
 24
13.87757321023416
 34
0.0
 50
90.0
100
AcDbRotatedDimension
  0
DIMENSION
  5
75E
330
1E
100
AcDbEntity
  8
DIM
100
AcDbDimension
  2
*D17
 10
3.484929304007556
 20
14.43782321023416
 30
0.0
 11
2.402116804007556
 21
14.43782321023416
 31
0.0
 70
   160
  1
J
 71
     5
 42
0.0938071447780118
  3
23NSTD
100
AcDbAlignedDimension
 13
3.578736448785569
 23
13.87757321023416
 33
0.0
 14
3.484929304007556
 24
13.87757321023416
 34
0.0
 50
180.0
100
AcDbRotatedDimension
  0
DIMENSION
  5
75F
330
1E
100
AcDbEntity
  8
DIM
100
AcDbDimension
  2
*D18
 10
7.306457816041617
 20
15.86456339953522
 30
0.0
 11
8.300676566041616
 21
16.67456339953522
 31
0.0
 70
    32
 71
     5
 42
0.078125
  3
23NSTD
100
AcDbAlignedDimension
 13
7.320825141522096
 23
15.78643839953522
 33
0.0
 14
7.320825141522096
 24
15.86456339953522
 34
0.0
 50
90.0
100
AcDbRotatedDimension
  0
DIMENSION
  5
760
330
1E
100
AcDbEntity
  8
DIM
100
AcDbDimension
  2
*D19
 10
9.050251761599366
 20
15.86456339953522
 30
0.0
 11
10.02689238659935
 21
16.67456339953522
 31
0.0
 70
    32
 71
     5
 42
0.15625
  3
23NSTD
100
AcDbAlignedDimension
 13
8.188429304007549
 23
15.70831339953522
 33
0.0
 14
8.188429304007549
 24
15.86456339953522
 34
0.0
 50
90.0
100
AcDbRotatedDimension
  0
TEXT
  5
762
330
1E
100
AcDbEntity
  8
TEXT
100
AcDbText
 10
4.604961590864327
 20
27.01493481084898
 30
0.0
 40
0.281
  1
%%UCOVER
 41
0.75
  7
TXT
 72
     1
 11
5.135349090864327
 21
27.01493481084898
 31
0.0
100
AcDbText
  0
TEXT
  5
763
330
1E
100
AcDbEntity
  8
TEXT
100
AcDbText
 10
4.769662282493709
 20
17.19863651329601
 30
0.0
 40
0.281
  1
%%UBODY
 41
0.75
  7
TXT
 72
     1
 11
5.159549782493709
 21
17.19863651329601
 31
0.0
100
AcDbText
  0
LWPOLYLINE
  5
764
330
1E
100
AcDbEntity
  8
DIM
100
AcDbPolyline
 90
        4
 70
     0
 10
18.69373104555489
 20
20.94517695575912
 40
0.0
 41
0.151875
 10
18.98673836000605
 20
20.66558490709155
 40
0.0
 41
0.0
 10
19.50189598696815
 20
20.17401364178422
 40
0.0
 41
0.0
 10
19.90689598696817
 20
20.17401364178422
 40
0.0
 41
0.0
  0
TEXT
  5
76A
330
1E
100
AcDbEntity
  8
DIM
100
AcDbText
 10
20.10939598696816
 20
20.03338864178422
 30
0.0
 40
0.28125
  1
BODY
 41
0.75
  7
TXT
 11
20.10939598696816
 21
20.17401364178422
 31
0.0
100
AcDbText
 73
     2
  0
LWPOLYLINE
  5
76B
330
1E
100
AcDbEntity
  8
DIM
100
AcDbPolyline
 90
        4
 70
     0
 10
17.24737977015875
 20
31.49967538429779
 40
0.0
 41
0.151875
 10
17.47208715824932
 20
31.83661987488564
 40
0.0
 41
0.0
 10
18.1435358072761
 20
32.82171349991173
 40
0.0
 41
0.0
 10
18.5485358072761
 20
32.82171349991173
 40
0.0
 41
0.0
  0
TEXT
  5
771
330
1E
100
AcDbEntity
  8
DIM
100
AcDbText
 10
18.7510358072761
 20
32.68108849991173
 30
0.0
 40
0.28125
  1
COVER
 41
0.75
  7
TXT
 11
18.7510358072761
 21
32.82171349991173
 31
0.0
100
AcDbText
 73
     2
  0
LINE
  5
772
330
1E
100
AcDbEntity
  8
TITLE
100
AcDbLine
 10
0.1394999999999946
 20
7.627500000000001
 30
0.0
 11
23.71049999999999
 21
7.627500000000001
 31
0.0
  0
LINE
  5
773
330
1E
100
AcDbEntity
  8
TITLE
100
AcDbLine
 10
0.1394999999999946
 20
8.095500000000001
 30
0.0
 11
23.71049999999999
 21
8.095500000000001
 31
0.0
  0
LINE
  5
774
330
1E
100
AcDbEntity
  8
TITLE
100
AcDbLine
 10
0.1394999999999946
 20
8.563500000000001
 30
0.0
 11
23.71049999999999
 21
8.563500000000001
 31
0.0
  0
LINE
  5
775
330
1E
100
AcDbEntity
  8
TITLE
100
AcDbLine
 10
0.1394999999999946
 20
9.031499999999999
 30
0.0
 11
23.71049999999999
 21
9.031499999999999
 31
0.0
  0
LINE
  5
776
330
1E
100
AcDbEntity
  8
TITLE
100
AcDbLine
 10
0.1394999999999946
 20
9.499499999999999
 30
0.0
 11
23.71049999999999
 21
9.499499999999999
 31
0.0
  0
LINE
  5
777
330
1E
100
AcDbEntity
  8
TITLE
100
AcDbLine
 10
0.1394999999999946
 20
9.967499999999999
 30
0.0
 11
23.71049999999999
 21
9.967499999999999
 31
0.0
  0
TEXT
  5
77A
330
1E
100
AcDbEntity
  8
TEXT
100
AcDbText
 10
11.75713690379924
 20
19.09136343964247
 30
0.0
 40
0.281
  1
%%uMATERIAL:
 41
0.75
  7
TXT
100
AcDbText
  0
TEXT
  5
77B
330
1E
100
AcDbEntity
  8
TEXT
100
AcDbText
 10
12.22771473508518
 20
18.62303010630914
 30
0.0
 40
0.281
  1
ALUMINUM ALLOY #ADC-12
 41
0.75
  7
TXT
100
AcDbText
  0
TEXT
  5
77C
330
1E
100
AcDbEntity
  8
TEXT
100
AcDbText
 10
11.75713690379924
 20
18.15261506612634
 30
0.0
 40
0.281
  1
%%uFINISH:
 41
0.75
  7
TXT
100
AcDbText
  0
TEXT
  5
77D
330
1E
100
AcDbEntity
  8
TEXT
100
AcDbText
 10
12.22771473508518
 20
17.684281732793
 30
0.0
 40
0.281
  1
NATURAL (NO SUFFIX)
 41
0.75
  7
TXT
100
AcDbText
  0
TEXT
  5
77E
330
1E
100
AcDbEntity
  8
TEXT
100
AcDbText
 10
11.75713690379924
 20
15.80886669261019
 30
0.0
 40
0.281
  1
ALL INTERNAL FILLETS 0.062 RADIUS
 41
0.75
  7
TXT
100
AcDbText
  0
TEXT
  5
77F
330
1E
100
AcDbEntity
  8
TEXT
100
AcDbText
 10
11.75713690379924
 20
15.34053335927686
 30
0.0
 40
0.281
  1
ALL INTERNAL ROUNDS 0.125 RADIUS
 41
0.75
  7
TXT
100
AcDbText
  0
TEXT
  5
780
330
1E
100
AcDbEntity
  8
TEXT
100
AcDbText
 10
11.75713690379924
 20
14.87220002594352
 30
0.0
 40
0.281
  1
ALL EXTERNAL ROUNDS 0.125 RADIUS
 41
0.75
  7
TXT
100
AcDbText
  0
TEXT
  5
781
330
1E
100
AcDbEntity
  8
TEXT
100
AcDbText
 10
11.75713690379924
 20
14.4038666926102
 30
0.0
 40
0.281
  1
ALL BOXES ASSEMBLED WITH #6-32 FLAT HD. SCREWS
 41
0.75
  7
TXT
100
AcDbText
  0
TEXT
  5
782
330
1E
100
AcDbEntity
  8
TEXT
100
AcDbText
 10
10.30888739168805
 20
10.51693797484113
 30
0.0
 40
0.281
  1
* ASSEMBLED HEIGHT
 41
0.75
  7
TXT
100
AcDbText
  0
TEXT
  5
785
330
1E
100
AcDbEntity
  8
TEXT
100
AcDbText
 10
4.594196620684266
 20
15.10954150389255
 30
0.0
 40
0.281
  1
%%USECTION "A-A"
 41
0.75
  7
TXT
 72
     1
 11
5.827084120684267
 21
15.10954150389255
 31
0.0
100
AcDbText
  0
TEXT
  5
786
330
1E
100
AcDbEntity
  8
TEXT
100
AcDbText
 10
4.594196620684266
 20
10.91779380176909
 30
0.0
 40
0.281
  1
%%USECTION "B-B"
 41
0.75
  7
TXT
 72
     1
 11
5.827084120684267
 21
10.91779380176909
 31
0.0
100
AcDbText
  0
TEXT
  5
787
330
1E
100
AcDbEntity
  8
TEXT
100
AcDbText
 10
0.4040664972473111
 20
9.592999999999999
 30
0.0
 40
0.281
  1
PART NO.
 41
0.75
  7
TXT
 72
     4
 11
1.141691497247311
 21
9.733499999999999
 31
0.0
100
AcDbText
  0
TEXT
  5
788
330
1E
100
AcDbEntity
  8
TEXT
100
AcDbText
 10
0.562128997247311
 20
9.124666666666668
 30
0.0
 40
0.281
  1
CU-470
 41
0.75
  7
TXT
 72
     4
 11
1.141691497247311
 21
9.265166666666667
 31
0.0
100
AcDbText
  0
TEXT
  5
789
330
1E
100
AcDbEntity
  8
TEXT
100
AcDbText
 10
0.5796914972473112
 20
8.656333333333332
 30
0.0
 40
0.281
  1
CU-471
 41
0.75
  7
TXT
 72
     4
 11
1.141691497247311
 21
8.796833333333331
 31
0.0
100
AcDbText
  0
TEXT
  5
78A
330
1E
100
AcDbEntity
  8
TEXT
100
AcDbText
 10
0.5445664972473111
 20
8.188
 30
0.0
 40
0.281
  1
CU-472
 41
0.75
  7
TXT
 72
     4
 11
1.141691497247311
 21
8.3285
 31
0.0
100
AcDbText
  0
TEXT
  5
78B
330
1E
100
AcDbEntity
  8
TEXT
100
AcDbText
 10
0.5445664972473111
 20
7.719666666666666
 30
0.0
 40
0.281
  1
CU-473
 41
0.75
  7
TXT
 72
     4
 11
1.141691497247311
 21
7.860166666666666
 31
0.0
100
AcDbText
  0
TEXT
  5
796
330
1E
100
AcDbEntity
  8
TEXT
100
AcDbText
 10
4.485562499999998
 20
8.188
 30
0.0
 40
0.281
  1
4.750
 41
0.75
  7
TXT
 72
     4
 11
4.889499999999998
 21
8.3285
 31
0.0
100
AcDbText
  0
TEXT
  5
797
330
1E
100
AcDbEntity
  8
TEXT
100
AcDbText
 10
4.467999999999998
 20
7.719666666666666
 30
0.0
 40
0.281
  1
4.688
 41
0.75
  7
TXT
 72
     4
 11
4.889499999999998
 21
7.860166666666666
 31
0.0
100
AcDbText
  0
TEXT
  5
798
330
1E
100
AcDbEntity
  8
TEXT
100
AcDbText
 10
4.503124999999998
 20
5.379333333333332
 30
0.0
 40
0.281
  1
7.500
 41
0.75
  7
TXT
 72
     4
 11
4.889499999999998
 21
5.519833333333332
 31
0.0
100
AcDbText
  0
TEXT
  5
799
330
1E
100
AcDbEntity
  8
TEXT
100
AcDbText
 10
4.819249999999998
 20
9.592999999999999
 30
0.0
 40
0.281
  1
A
 41
0.75
  7
TXT
 72
     4
 11
4.889499999999998
 21
9.733499999999999
 31
0.0
100
AcDbText
  0
TEXT
  5
79A
330
1E
100
AcDbEntity
  8
TEXT
100
AcDbText
 10
4.520687499999998
 20
9.124666666666668
 30
0.0
 40
0.281
  1
2.000
 41
0.75
  7
TXT
 72
     4
 11
4.889499999999998
 21
9.265166666666667
 31
0.0
100
AcDbText
  0
TEXT
  5
79B
330
1E
100
AcDbEntity
  8
TEXT
100
AcDbText
 10
4.485562499999998
 20
8.656333333333332
 30
0.0
 40
0.281
  1
4.330
 41
0.75
  7
TXT
 72
     4
 11
4.889499999999998
 21
8.796833333333331
 31
0.0
100
AcDbText
  0
TEXT
  5
79C
330
1E
100
AcDbEntity
  8
TEXT
100
AcDbText
 10
5.818687499999996
 20
8.188
 30
0.0
 40
0.281
  1
3.150
 41
0.75
  7
TXT
 72
     4
 11
6.187499999999996
 21
8.3285
 31
0.0
100
AcDbText
  0
TEXT
  5
79D
330
1E
100
AcDbEntity
  8
TEXT
100
AcDbText
 10
5.765999999999996
 20
7.719666666666666
 30
0.0
 40
0.281
  1
3.688
 41
0.75
  7
TXT
 72
     4
 11
6.187499999999996
 21
7.860166666666666
 31
0.0
100
AcDbText
  0
TEXT
  5
79E
330
1E
100
AcDbEntity
  8
TEXT
100
AcDbText
 10
5.801124999999996
 20
5.379333333333332
 30
0.0
 40
0.281
  1
7.500
 41
0.75
  7
TXT
 72
     4
 11
6.187499999999996
 21
5.519833333333332
 31
0.0
100
AcDbText
  0
TEXT
  5
79F
330
1E
100
AcDbEntity
  8
TEXT
100
AcDbText
 10
6.117249999999996
 20
9.592999999999999
 30
0.0
 40
0.281
  1
B
 41
0.75
  7
TXT
 72
     4
 11
6.187499999999996
 21
9.733499999999999
 31
0.0
100
AcDbText
  0
TEXT
  5
7A0
330
1E
100
AcDbEntity
  8
TEXT
100
AcDbText
 10
5.818687499999996
 20
9.124666666666668
 30
0.0
 40
0.281
  1
2.000
 41
0.75
  7
TXT
 72
     4
 11
6.187499999999996
 21
9.265166666666667
 31
0.0
100
AcDbText
  0
TEXT
  5
7A1
330
1E
100
AcDbEntity
  8
TEXT
100
AcDbText
 10
5.783562499999996
 20
8.656333333333332
 30
0.0
 40
0.281
  1
3.250
 41
0.75
  7
TXT
 72
     4
 11
6.187499999999996
 21
8.796833333333331
 31
0.0
100
AcDbText
  0
TEXT
  5
7A2
330
1E
100
AcDbEntity
  8
TEXT
100
AcDbText
 10
7.081562499999997
 20
8.188
 30
0.0
 40
0.281
  1
2.330
 41
0.75
  7
TXT
 72
     4
 11
7.485499999999997
 21
8.3285
 31
0.0
100
AcDbText
  0
TEXT
  5
7A3
330
1E
100
AcDbEntity
  8
TEXT
100
AcDbText
 10
7.116687499999997
 20
7.719666666666666
 30
0.0
 40
0.281
  1
1.340
 41
0.75
  7
TXT
 72
     4
 11
7.485499999999997
 21
7.860166666666666
 31
0.0
100
AcDbText
  0
TEXT
  5
7A4
330
1E
100
AcDbEntity
  8
TEXT
100
AcDbText
 10
7.081562499999997
 20
5.379333333333332
 30
0.0
 40
0.281
  1
2.620
 41
0.75
  7
TXT
 72
     4
 11
7.485499999999997
 21
5.519833333333332
 31
0.0
100
AcDbText
  0
TEXT
  5
7A5
330
1E
100
AcDbEntity
  8
TEXT
100
AcDbText
 10
7.204499999999997
 20
9.592999999999999
 30
0.0
 40
0.281
  1
* C
 41
0.75
  7
TXT
 72
     4
 11
7.485499999999997
 21
9.733499999999999
 31
0.0
100
AcDbText
  0
TEXT
  5
7A6
330
1E
100
AcDbEntity
  8
TEXT
100
AcDbText
 10
7.116687499999997
 20
9.124666666666668
 30
0.0
 40
0.281
  1
1.250
 41
0.75
  7
TXT
 72
     4
 11
7.485499999999997
 21
9.265166666666667
 31
0.0
100
AcDbText
  0
TEXT
  5
7A7
330
1E
100
AcDbEntity
  8
TEXT
100
AcDbText
 10
7.116687499999997
 20
8.656333333333332
 30
0.0
 40
0.281
  1
1.750
 41
0.75
  7
TXT
 72
     4
 11
7.485499999999997
 21
8.796833333333331
 31
0.0
100
AcDbText
  0
TEXT
  5
7A8
330
1E
100
AcDbEntity
  8
TEXT
100
AcDbText
 10
8.397124999999999
 20
8.188
 30
0.0
 40
0.281
  1
2.174
 41
0.75
  7
TXT
 72
     4
 11
8.783499999999998
 21
8.3285
 31
0.0
100
AcDbText
  0
TEXT
  5
7A9
330
1E
100
AcDbEntity
  8
TEXT
100
AcDbText
 10
8.432249999999998
 20
7.719666666666666
 30
0.0
 40
0.281
  1
1.184
 41
0.75
  7
TXT
 72
     4
 11
8.783499999999998
 21
7.860166666666666
 31
0.0
100
AcDbText
  0
TEXT
  5
7AA
330
1E
100
AcDbEntity
  8
TEXT
100
AcDbText
 10
8.361999999999998
 20
5.379333333333332
 30
0.0
 40
0.281
  1
2.464
 41
0.75
  7
TXT
 72
     4
 11
8.783499999999998
 21
5.519833333333332
 31
0.0
100
AcDbText
  0
TEXT
  5
7AB
330
1E
100
AcDbEntity
  8
TEXT
100
AcDbText
 10
8.713249999999998
 20
9.592999999999999
 30
0.0
 40
0.281
  1
D
 41
0.75
  7
TXT
 72
     4
 11
8.783499999999998
 21
9.733499999999999
 31
0.0
100
AcDbText
  0
TEXT
  5
7AC
330
1E
100
AcDbEntity
  8
TEXT
100
AcDbText
 10
8.414687499999997
 20
9.124666666666668
 30
0.0
 40
0.281
  1
1.094
 41
0.75
  7
TXT
 72
     4
 11
8.783499999999998
 21
9.265166666666667
 31
0.0
100
AcDbText
  0
TEXT
  5
7AD
330
1E
100
AcDbEntity
  8
TEXT
100
AcDbText
 10
8.397124999999999
 20
8.656333333333332
 30
0.0
 40
0.281
  1
1.594
 41
0.75
  7
TXT
 72
     4
 11
8.783499999999998
 21
8.796833333333331
 31
0.0
100
AcDbText
  0
TEXT
  5
7AE
330
1E
100
AcDbEntity
  8
TEXT
100
AcDbText
 10
9.659999999999991
 20
8.188
 30
0.0
 40
0.281
  1
4.375
 41
0.75
  7
TXT
 72
     4
 11
10.08149999999999
 21
8.3285
 31
0.0
100
AcDbText
  0
TEXT
  5
7AF
330
1E
100
AcDbEntity
  8
TEXT
100
AcDbText
 10
9.695124999999991
 20
7.719666666666666
 30
0.0
 40
0.281
  1
4.313
 41
0.75
  7
TXT
 72
     4
 11
10.08149999999999
 21
7.860166666666666
 31
0.0
100
AcDbText
  0
TEXT
  5
7B0
330
1E
100
AcDbEntity
  8
TEXT
100
AcDbText
 10
9.747812499999991
 20
5.379333333333332
 30
0.0
 40
0.281
  1
7.110
 41
0.75
  7
TXT
 72
     4
 11
10.08149999999999
 21
5.519833333333332
 31
0.0
100
AcDbText
  0
TEXT
  5
7B1
330
1E
100
AcDbEntity
  8
TEXT
100
AcDbText
 10
10.01124999999999
 20
9.592999999999999
 30
0.0
 40
0.281
  1
E
 41
0.75
  7
TXT
 72
     4
 11
10.08149999999999
 21
9.733499999999999
 31
0.0
100
AcDbText
  0
TEXT
  5
7B2
330
1E
100
AcDbEntity
  8
TEXT
100
AcDbText
 10
9.695124999999991
 20
9.124666666666668
 30
0.0
 40
0.281
  1
1.625
 41
0.75
  7
TXT
 72
     4
 11
10.08149999999999
 21
9.265166666666667
 31
0.0
100
AcDbText
  0
TEXT
  5
7B3
330
1E
100
AcDbEntity
  8
TEXT
100
AcDbText
 10
9.659999999999991
 20
8.656333333333332
 30
0.0
 40
0.281
  1
3.955
 41
0.75
  7
TXT
 72
     4
 11
10.08149999999999
 21
8.796833333333331
 31
0.0
100
AcDbText
  0
TEXT
  5
7B4
330
1E
100
AcDbEntity
  8
TEXT
100
AcDbText
 10
10.95799999999999
 20
8.188
 30
0.0
 40
0.281
  1
2.775
 41
0.75
  7
TXT
 72
     4
 11
11.37949999999999
 21
8.3285
 31
0.0
100
AcDbText
  0
TEXT
  5
7B5
330
1E
100
AcDbEntity
  8
TEXT
100
AcDbText
 10
10.99312499999999
 20
7.719666666666666
 30
0.0
 40
0.281
  1
3.313
 41
0.75
  7
TXT
 72
     4
 11
11.37949999999999
 21
7.860166666666666
 31
0.0
100
AcDbText
  0
TEXT
  5
7B6
330
1E
100
AcDbEntity
  8
TEXT
100
AcDbText
 10
11.04581249999999
 20
5.379333333333332
 30
0.0
 40
0.281
  1
7.110
 41
0.75
  7
TXT
 72
     4
 11
11.37949999999999
 21
5.519833333333332
 31
0.0
100
AcDbText
  0
TEXT
  5
7B7
330
1E
100
AcDbEntity
  8
TEXT
100
AcDbText
 10
11.30924999999999
 20
9.592999999999999
 30
0.0
 40
0.281
  1
F
 41
0.75
  7
TXT
 72
     4
 11
11.37949999999999
 21
9.733499999999999
 31
0.0
100
AcDbText
  0
TEXT
  5
7B8
330
1E
100
AcDbEntity
  8
TEXT
100
AcDbText
 10
10.99312499999999
 20
9.124666666666668
 30
0.0
 40
0.281
  1
1.625
 41
0.75
  7
TXT
 72
     4
 11
11.37949999999999
 21
9.265166666666667
 31
0.0
100
AcDbText
  0
TEXT
  5
7B9
330
1E
100
AcDbEntity
  8
TEXT
100
AcDbText
 10
10.95799999999999
 20
8.656333333333332
 30
0.0
 40
0.281
  1
2.875
 41
0.75
  7
TXT
 72
     4
 11
11.37949999999999
 21
8.796833333333331
 31
0.0
100
AcDbText
  0
TEXT
  5
7BA
330
1E
100
AcDbEntity
  8
TEXT
100
AcDbText
 10
12.39649999999999
 20
8.188
 30
0.0
 40
0.281
  1
---
 41
0.75
  7
TXT
 72
     4
 11
12.67749999999999
 21
8.3285
 31
0.0
100
AcDbText
  0
TEXT
  5
7BB
330
1E
100
AcDbEntity
  8
TEXT
100
AcDbText
 10
12.39649999999999
 20
7.719666666666666
 30
0.0
 40
0.281
  1
---
 41
0.75
  7
TXT
 72
     4
 11
12.67749999999999
 21
7.860166666666666
 31
0.0
100
AcDbText
  0
TEXT
  5
7BC
330
1E
100
AcDbEntity
  8
TEXT
100
AcDbText
 10
12.25599999999999
 20
5.379333333333332
 30
0.0
 40
0.281
  1
3.555
 41
0.75
  7
TXT
 72
     4
 11
12.67749999999999
 21
5.519833333333332
 31
0.0
100
AcDbText
  0
TEXT
  5
7BD
330
1E
100
AcDbEntity
  8
TEXT
100
AcDbText
 10
12.60724999999999
 20
9.592999999999999
 30
0.0
 40
0.281
  1
G
 41
0.75
  7
TXT
 72
     4
 11
12.67749999999999
 21
9.733499999999999
 31
0.0
100
AcDbText
  0
TEXT
  5
7BE
330
1E
100
AcDbEntity
  8
TEXT
100
AcDbText
 10
12.39649999999999
 20
9.124666666666668
 30
0.0
 40
0.281
  1
---
 41
0.75
  7
TXT
 72
     4
 11
12.67749999999999
 21
9.265166666666667
 31
0.0
100
AcDbText
  0
TEXT
  5
7BF
330
1E
100
AcDbEntity
  8
TEXT
100
AcDbText
 10
12.39649999999999
 20
8.656333333333332
 30
0.0
 40
0.281
  1
---
 41
0.75
  7
TXT
 72
     4
 11
12.67749999999999
 21
8.796833333333331
 31
0.0
100
AcDbText
  0
TEXT
  5
7C0
330
1E
100
AcDbEntity
  8
TEXT
100
AcDbText
 10
14.887125
 20
8.188
 30
0.0
 40
0.281
  1
0.094
 41
0.75
  7
TXT
 72
     4
 11
15.2735
 21
8.3285
 31
0.0
100
AcDbText
  0
TEXT
  5
7C1
330
1E
100
AcDbEntity
  8
TEXT
100
AcDbText
 10
14.887125
 20
7.719666666666666
 30
0.0
 40
0.281
  1
0.094
 41
0.75
  7
TXT
 72
     4
 11
15.2735
 21
7.860166666666666
 31
0.0
100
AcDbText
  0
TEXT
  5
7C2
330
1E
100
AcDbEntity
  8
TEXT
100
AcDbText
 10
14.887125
 20
5.379333333333332
 30
0.0
 40
0.281
  1
0.094
 41
0.75
  7
TXT
 72
     4
 11
15.2735
 21
5.519833333333332
 31
0.0
100
AcDbText
  0
TEXT
  5
7C3
330
1E
100
AcDbEntity
  8
TEXT
100
AcDbText
 10
15.20325
 20
9.592999999999999
 30
0.0
 40
0.281
  1
J
 41
0.75
  7
TXT
 72
     4
 11
15.2735
 21
9.733499999999999
 31
0.0
100
AcDbText
  0
TEXT
  5
7C4
330
1E
100
AcDbEntity
  8
TEXT
100
AcDbText
 10
14.887125
 20
9.124666666666668
 30
0.0
 40
0.281
  1
0.065
 41
0.75
  7
TXT
 72
     4
 11
15.2735
 21
9.265166666666667
 31
0.0
100
AcDbText
  0
TEXT
  5
7C5
330
1E
100
AcDbEntity
  8
TEXT
100
AcDbText
 10
14.887125
 20
8.656333333333332
 30
0.0
 40
0.281
  1
0.094
 41
0.75
  7
TXT
 72
     4
 11
15.2735
 21
8.796833333333331
 31
0.0
100
AcDbText
  0
TEXT
  5
7C6
330
1E
100
AcDbEntity
  8
TEXT
100
AcDbText
 10
16.185125
 20
8.188
 30
0.0
 40
0.281
  1
0.078
 41
0.75
  7
TXT
 72
     4
 11
16.5715
 21
8.3285
 31
0.0
100
AcDbText
  0
TEXT
  5
7C7
330
1E
100
AcDbEntity
  8
TEXT
100
AcDbText
 10
16.185125
 20
7.719666666666666
 30
0.0
 40
0.281
  1
0.078
 41
0.75
  7
TXT
 72
     4
 11
16.5715
 21
7.860166666666666
 31
0.0
100
AcDbText
  0
TEXT
  5
7C8
330
1E
100
AcDbEntity
  8
TEXT
100
AcDbText
 10
16.185125
 20
5.379333333333332
 30
0.0
 40
0.281
  1
0.078
 41
0.75
  7
TXT
 72
     4
 11
16.5715
 21
5.519833333333332
 31
0.0
100
AcDbText
  0
TEXT
  5
7C9
330
1E
100
AcDbEntity
  8
TEXT
100
AcDbText
 10
16.50125
 20
9.592999999999999
 30
0.0
 40
0.281
  1
K
 41
0.75
  7
TXT
 72
     4
 11
16.5715
 21
9.733499999999999
 31
0.0
100
AcDbText
  0
TEXT
  5
7CA
330
1E
100
AcDbEntity
  8
TEXT
100
AcDbText
 10
16.185125
 20
9.124666666666668
 30
0.0
 40
0.281
  1
0.065
 41
0.75
  7
TXT
 72
     4
 11
16.5715
 21
9.265166666666667
 31
0.0
100
AcDbText
  0
TEXT
  5
7CB
330
1E
100
AcDbEntity
  8
TEXT
100
AcDbText
 10
16.185125
 20
8.656333333333332
 30
0.0
 40
0.281
  1
0.078
 41
0.75
  7
TXT
 72
     4
 11
16.5715
 21
8.796833333333331
 31
0.0
100
AcDbText
  0
HATCH
  5
A30
330
1E
100
AcDbEntity
  8
OBJECT
100
AcDbHatch
 10
0.0
 20
0.0
 30
0.0
210
0.0
220
0.0
230
1.0
  2
ANSI31
 70
     0
 71
     1
 91
        1
 92
        7
 72
     1
 73
     1
 93
       16
 10
3.610429304007553
 20
15.86456339953522
 42
0.4142135623730951
 10
3.485429304007553
 20
15.73956339953522
 42
0.0
 10
3.485429304007553
 20
15.70831339953522
 42
0.0
 10
3.589179304007551
 20
15.70831339953521
 42
0.0
 10
3.589179304007551
 20
15.63018839953522
 42
0.0
 10
3.64917930400755
 20
15.63018839953522
 42
0.0
 10
3.649179304007553
 20
15.72393839953521
 42
-0.4142135623730866
 10
3.711679304007553
 20
15.78643839953522
 42
0.0
 10
7.962179304007555
 20
15.78643839953522
 42
-0.4142135623730971
 10
8.024679304007555
 20
15.72393839953521
 42
0.0
 10
8.024679304007555
 20
15.63018839953522
 42
0.0
 10
8.084679304007558
 20
15.63018839953522
 42
0.0
 10
8.084679304007558
 20
15.70831339953522
 42
0.0
 10
8.188429304007549
 20
15.70831339953522
 42
0.0
 10
8.188429304007549
 20
15.73956339953522
 42
0.4142135623730951
 10
8.063429304007549
 20
15.86456339953522
 42
0.0
 97
        1
330
302
 75
     0
 76
     1
 52
0.0
 41
0.75
 77
     0
 78
     1
 53
45.0
 43
-2.492747578446226
 44
6.752571941051612
 45
-0.0662912607362388
 46
0.0662912607362388
 79
     0
 47
0.0107145846819037
 98
        1
 10
5.333408996853505
 20
15.8288157406025
  0
HATCH
  5
A46
330
1E
100
AcDbEntity
  8
OBJECT
100
AcDbHatch
 10
0.0
 20
0.0
 30
0.0
210
0.0
220
0.0
230
1.0
  2
ANSI31
 70
     0
 71
     1
 91
        1
 92
        7
 72
     1
 73
     1
 93
       12
 10
3.708887899171198
 20
11.89319821023416
 42
-0.4040262258351424
 10
3.646425972482506
 20
11.95351699169024
 42
0.0
 10
3.579236448785568
 20
13.87757321023416
 42
0.0
 10
3.485429304007556
 20
13.87757321023416
 42
0.0
 10
3.553240634557783
 20
11.93571077314635
 42
0.4040262258351597
 10
3.678164487935171
 20
11.81507321023416
 42
0.0
 10
7.996194120079943
 20
11.81507321023416
 42
0.4040262258351612
 10
8.12111797345733
 20
11.93571077314635
 42
0.0
 10
8.188929304007549
 20
13.87757321023416
 42
0.0
 10
8.095122159229539
 20
13.87757321023416
 42
0.0
 10
8.027932635532607
 20
11.95351699169024
 42
-0.4040262258351569
 10
7.965470708843914
 20
11.89319821023416
 42
0.0
 97
       12
330
285
330
286
330
288
330
299
330
295
330
297
330
287
330
29B
330
283
330
28A
330
284
330
289
 75
     0
 76
     1
 52
90.0
 41
0.75
 77
     0
 78
     1
 53
135.0
 43
-2.492747578446226
 44
7.25062430474118
 45
-0.0662912607362388
 46
-0.0662912607362388
 79
     0
 47
0.0107145846819037
 98
        1
 10
5.697867311129043
 20
11.86531100601577
  0
ARC
  5
A47
330
1E
100
AcDbEntity
  8
OBJECT
100
AcDbCircle
 10
4.972549782493715
 20
20.10143284933624
 30
0.0
 40
0.062
100
AcDbArc
 50
270.0
 51
0.0
  0
ARC
  5
A48
330
1E
100
AcDbEntity
  8
OBJECT
100
AcDbCircle
 10
5.346549782493712
 20
20.10143284933624
 30
0.0
 40
0.062
100
AcDbArc
 50
180.0
 51
270.0
  0
CIRCLE
  5
A49
330
1E
100
AcDbEntity
  8
OBJECT
100
AcDbCircle
 10
5.159549782493711
 20
20.14068284933623
 30
0.0
 40
0.065
  0
LINE
  5
A4C
330
1E
100
AcDbEntity
  8
OBJECT
100
AcDbLine
 10
5.034549782493711
 20
20.14068284933623
 30
0.0
 11
5.034549782493711
 21
20.10143284933624
 31
0.0
  0
LINE
  5
A4D
330
1E
100
AcDbEntity
  8
OBJECT
100
AcDbLine
 10
5.284549782493714
 20
20.14068284933623
 30
0.0
 11
5.284549782493714
 21
20.10143284933624
 31
0.0
  0
ARC
  5
A4E
330
1E
100
AcDbEntity
  8
OBJECT
100
AcDbCircle
 10
5.159549782493711
 20
20.14068284933623
 30
0.0
 40
0.125
100
AcDbArc
 50
0.0
 51
180.0
  0
ARC
  5
A4F
330
1E
100
AcDbEntity
  8
OBJECT
100
AcDbCircle
 10
5.159549782493711
 20
24.45368284933624
 30
0.0
 40
0.125
100
AcDbArc
 50
180.0
 51
0.0
  0
CIRCLE
  5
A50
330
1E
100
AcDbEntity
  8
OBJECT
100
AcDbCircle
 10
5.159549782493711
 20
24.45368284933624
 30
0.0
 40
0.065
  0
LINE
  5
A51
330
1E
100
AcDbEntity
  8
OBJECT
100
AcDbLine
 10
5.034549782493711
 20
24.45368284933623
 30
0.0
 11
5.034549782493711
 21
24.49293284933622
 31
0.0
  0
ARC
  5
A52
330
1E
100
AcDbEntity
  8
OBJECT
100
AcDbCircle
 10
4.972549782493715
 20
24.49293284933622
 30
0.0
 40
0.062
100
AcDbArc
 50
0.0
 51
90.00000000000005
  0
ARC
  5
A53
330
1E
100
AcDbEntity
  8
OBJECT
100
AcDbCircle
 10
5.346549782493712
 20
24.49293284933622
 30
0.0
 40
0.062
100
AcDbArc
 50
90.00000000000005
 51
180.0
  0
LINE
  5
A54
330
1E
100
AcDbEntity
  8
OBJECT
100
AcDbLine
 10
5.284549782493714
 20
24.45368284933623
 30
0.0
 11
5.284549782493714
 21
24.49293284933622
 31
0.0
  0
ARC
  5
A59
330
1E
100
AcDbEntity
  8
OBJECT
100
AcDbCircle
 10
5.29967478249371
 20
27.75831367118587
 30
0.0
 40
0.062
100
AcDbArc
 50
180.0
 51
270.0
  0
ARC
  5
A5A
330
1E
100
AcDbEntity
  8
OBJECT
100
AcDbCircle
 10
5.019424782493715
 20
27.75831367118587
 30
0.0
 40
0.062
100
AcDbArc
 50
270.0
 51
0.0
  0
CIRCLE
  5
A5B
330
1E
100
AcDbEntity
  8
OBJECT
100
AcDbCircle
 10
5.159549782493711
 20
27.78506367118587
 30
0.0
 40
0.078125
  0
ARC
  5
A5E
330
1E
100
AcDbEntity
  8
OBJECT
100
AcDbCircle
 10
5.343569991981715
 20
27.81831367118587
 30
0.0
 40
0.062
100
AcDbArc
 50
190.2420780715146
 51
270.0
  0
LINE
  5
A5F
330
1E
100
AcDbEntity
  8
OBJECT
100
AcDbLine
 10
5.237674782493711
 20
27.78506367118587
 30
0.0
 11
5.237674782493711
 21
27.75831367118587
 31
0.0
  0
LINE
  5
A60
330
1E
100
AcDbEntity
  8
OBJECT
100
AcDbLine
 10
5.081424782493711
 20
27.78506367118587
 30
0.0
 11
5.081424782493711
 21
27.75831367118587
 31
0.0
  0
ARC
  5
A61
330
1E
100
AcDbEntity
  8
OBJECT
100
AcDbCircle
 10
4.975529573005701
 20
27.81831367118587
 30
0.0
 40
0.062
100
AcDbArc
 50
270.0
 51
349.7579219284854
  0
ARC
  5
A62
330
1E
100
AcDbEntity
  8
OBJECT
100
AcDbCircle
 10
5.159549782493711
 20
27.78506367118587
 30
0.0
 40
0.125
100
AcDbArc
 50
10.24207807151448
 51
169.7579219284853
  0
LINE
  5
A63
330
1E
100
AcDbEntity
  8
OBJECT
100
AcDbLine
 10
4.975529573005701
 20
27.75631367118587
 30
0.0
 11
3.187541471587166
 21
27.75631367118587
 31
0.0
  0
LINE
  5
A64
330
1E
100
AcDbEntity
  8
OBJECT
100
AcDbLine
 10
5.019424782493715
 20
27.69631367118587
 30
0.0
 11
3.143424782493709
 21
27.69631367118587
 31
0.0
  0
LINE
  5
A65
330
1E
100
AcDbEntity
  8
OBJECT
100
AcDbLine
 10
7.17567478249371
 20
32.18931367118587
 30
0.0
 11
5.29967478249371
 21
32.18931367118587
 31
0.0
  0
LINE
  5
A66
330
1E
100
AcDbEntity
  8
OBJECT
100
AcDbLine
 10
7.131558093400298
 20
32.12931367118587
 30
0.0
 11
5.343569991981715
 21
32.12931367118587
 31
0.0
  0
LINE
  5
A67
330
1E
100
AcDbEntity
  8
OBJECT
100
AcDbLine
 10
5.019424782493715
 20
32.18931367118587
 30
0.0
 11
3.143424782493709
 21
32.18931367118587
 31
0.0
  0
LINE
  5
A68
330
1E
100
AcDbEntity
  8
OBJECT
100
AcDbLine
 10
4.975529573005701
 20
32.12931367118587
 30
0.0
 11
3.187541471587166
 21
32.12931367118587
 31
0.0
  0
ARC
  5
A69
330
1E
100
AcDbEntity
  8
OBJECT
100
AcDbCircle
 10
5.159549782493711
 20
32.10056367118586
 30
0.0
 40
0.125
100
AcDbArc
 50
190.2420780715145
 51
349.7579219284854
  0
CIRCLE
  5
A6A
330
1E
100
AcDbEntity
  8
OBJECT
100
AcDbCircle
 10
5.159549782493711
 20
32.10056367118586
 30
0.0
 40
0.078125
  0
LINE
  5
A6B
330
1E
100
AcDbEntity
  8
OBJECT
100
AcDbLine
 10
5.081424782493711
 20
32.10056367118586
 30
0.0
 11
5.081424782493711
 21
32.12731367118586
 31
0.0
  0
ARC
  5
A6C
330
1E
100
AcDbEntity
  8
OBJECT
100
AcDbCircle
 10
5.019424782493715
 20
32.12731367118586
 30
0.0
 40
0.062
100
AcDbArc
 50
0.0
 51
90.00000000000005
  0
ARC
  5
A6D
330
1E
100
AcDbEntity
  8
OBJECT
100
AcDbCircle
 10
4.975529573005701
 20
32.06731367118587
 30
0.0
 40
0.062
100
AcDbArc
 50
10.24207807151449
 51
90.00000000000005
  0
LINE
  5
A6E
330
1E
100
AcDbEntity
  8
OBJECT
100
AcDbLine
 10
5.237674782493711
 20
32.10056367118586
 30
0.0
 11
5.237674782493711
 21
32.12731367118586
 31
0.0
  0
ARC
  5
A6F
330
1E
100
AcDbEntity
  8
OBJECT
100
AcDbCircle
 10
5.29967478249371
 20
32.12731367118586
 30
0.0
 40
0.062
100
AcDbArc
 50
90.00000000000005
 51
180.0
  0
ARC
  5
A70
330
1E
100
AcDbEntity
  8
OBJECT
100
AcDbCircle
 10
5.343569991981715
 20
32.06731367118587
 30
0.0
 40
0.062
100
AcDbArc
 50
90.00000000000005
 51
169.7579219284851
  0
DIMENSION
  5
A7A
330
1E
100
AcDbEntity
  8
DIM
100
AcDbDimension
  2
*D20
 10
7.31579978249371
 20
32.71281367118588
 30
0.0
 11
6.237674782493712
 21
32.71281367118588
 31
0.0
 70
    32
  1
H
 71
     5
 42
2.156249999999997
  3
23NSTD
100
AcDbAlignedDimension
 13
5.159549782493712
 23
32.10056367118586
 33
0.0
 14
7.31579978249371
 24
32.09931367118587
 34
0.0
100
AcDbRotatedDimension
  0
DIMENSION
  5
AD8
330
1E
100
AcDbEntity
  8
DIM
100
AcDbDimension
  2
*D22
 10
2.80829978249371
 20
25.93049216061919
 30
0.0
 11
1.72548728249371
 21
25.93049216061919
 31
0.0
 70
    32
  1
L
 71
     5
 42
0.1950000000000003
  3
23NSTD
100
AcDbAlignedDimension
 13
3.003299782493711
 23
24.45243284933623
 33
0.0
 14
2.80829978249371
 24
24.45993284933623
 34
0.0
100
AcDbRotatedDimension
  0
DIMENSION
  5
AD9
330
1E
100
AcDbEntity
  8
DIM
100
AcDbDimension
  2
*D21
 10
7.510799782493712
 20
26.45824216061919
 30
0.0
 11
5.15954978249371
 21
26.45824216061919
 31
0.0
 70
    32
  1
B
 71
     5
 42
4.702499999999999
  3
23NSTD
100
AcDbAlignedDimension
 13
2.80829978249371
 23
24.45993284933623
 33
0.0
 14
7.510799782493712
 24
24.45993284933623
 34
0.0
100
AcDbRotatedDimension
  0
DIMENSION
  5
ADA
330
1E
100
AcDbEntity
  8
DIM
100
AcDbDimension
  2
*D23
 10
7.31579978249371
 20
25.93614756602461
 30
0.0
 11
5.15954978249371
 21
25.93614756602461
 31
0.0
 70
    32
  1
F
 71
     5
 42
4.3125
  3
23NSTD
100
AcDbAlignedDimension
 13
3.003299782493711
 23
24.45243284933623
 33
0.0
 14
7.31579978249371
 24
24.45243284933623
 34
0.0
100
AcDbRotatedDimension
  0
DIMENSION
  5
ADB
330
1E
100
AcDbEntity
  8
DIM
100
AcDbDimension
  2
*D24
 10
7.31579978249371
 20
25.45880784933624
 30
0.0
 11
6.237674782493712
 21
25.45880784933624
 31
0.0
 70
   160
  1
H
 71
     5
 42
2.156249999999997
  3
23NSTD
100
AcDbAlignedDimension
 13
5.159549782493712
 23
24.45368284933624
 33
0.0
 14
7.31579978249371
 24
24.45243284933623
 34
0.0
100
AcDbRotatedDimension
  0
LINE
  5
D99
330
1E
100
AcDbEntity
  8
CENTER
100
AcDbLine
 10
14.70584426727977
 20
28.16685002952712
 30
0.0
 11
14.70584426727977
 21
30.07915762768626
 31
0.0
  0
LWPOLYLINE
  5
D9A
330
1E
100
AcDbEntity
  8
OBJECT
100
AcDbPolyline
 90
        7
 70
     0
 43
0.0
 10
14.63552309058878
 20
29.69473205252173
 42
0.0531578900237961
 10
14.64608851441863
 20
29.68703164639835
 42
0.072341084057661
 10
14.67191221004571
 20
29.67674223238046
 42
0.0587518675353793
 10
14.70584426727977
 20
29.67274127849647
 42
0.0587518675353684
 10
14.73977632451383
 20
29.67674223238046
 42
0.0723410840576543
 10
14.7656000201409
 20
29.68703164639835
 42
0.0531578900238873
 10
14.77616544397077
 20
29.69473205252175
 42
0.1568512196707747
  0
LWPOLYLINE
  5
D9B
330
1E
100
AcDbEntity
  8
OBJECT
100
AcDbPolyline
 90
        9
 70
     0
 43
0.0
 10
14.62133687115375
 20
29.22153164639833
 42
0.1568512196707782
 10
14.6268186997615
 20
29.20448694952256
 42
0.1066170543910084
 10
14.64608851441863
 20
29.18703164639834
 42
0.072341084057661
 10
14.67191221004571
 20
29.17674223238046
 42
0.0587518675353793
 10
14.70584426727977
 20
29.17274127849647
 42
0.0587518675353684
 10
14.73977632451383
 20
29.17674223238046
 42
0.0723410840576543
 10
14.7656000201409
 20
29.18703164639834
 42
0.1066170543910017
 10
14.78486983479802
 20
29.20448694952256
 42
0.1568512196707747
 10
14.79035166340579
 20
29.22153164639833
 42
0.1568512196707838
  0
LWPOLYLINE
  5
D9C
330
1E
100
AcDbEntity
  8
OBJECT
100
AcDbPolyline
 90
       16
 70
     1
 43
0.0
 10
14.70584426727977
 20
29.88141682216447
 42
0.0587518675353782
 10
14.64472308819542
 20
29.87420997887864
 42
0.072341084057657
 10
14.59820734898885
 20
29.85567585014834
 42
0.1066170543910075
 10
14.56349699280688
 20
29.82423393960142
 42
0.1568512196707839
 10
14.55362267762072
 20
29.79353164639833
 42
0.1568512196707877
 10
14.56349699280688
 20
29.76282935319527
 42
0.1066170543910138
 10
14.59820734898885
 20
29.73138744264835
 42
0.07234108405766
 10
14.64472308819542
 20
29.71285331391804
 42
0.0587518675353789
 10
14.70584426727977
 20
29.70564647063222
 42
0.058751867535374
 10
14.76696544636411
 20
29.71285331391804
 42
0.0723410840576588
 10
14.81348118557067
 20
29.73138744264835
 42
0.1066170543910072
 10
14.84819154175265
 20
29.76282935319527
 42
0.1568512196707839
 10
14.85806585693882
 20
29.79353164639833
 42
0.156851219670792
 10
14.84819154175265
 20
29.82423393960142
 42
0.1066170543910073
 10
14.81348118557067
 20
29.85567585014834
 42
0.072341084057658
 10
14.76696544636411
 20
29.87420997887864
 42
0.058751867535374
  0
LWPOLYLINE
  5
D9D
330
1E
100
AcDbEntity
  8
OBJECT
100
AcDbPolyline
 90
        2
 70
     0
 43
0.0
 10
14.62133687115375
 20
29.70745273357461
 10
14.62133687115375
 20
29.22153164639833
  0
LINE
  5
D9E
330
1E
100
AcDbEntity
  8
OBJECT
100
AcDbLine
 10
14.5791760489544
 20
29.74525803995531
 30
0.0
 11
14.63552309058877
 21
29.69473205252175
 31
0.0
  0
LWPOLYLINE
  5
D9F
330
1E
100
AcDbEntity
  8
OBJECT
100
AcDbPolyline
 90
        2
 70
     0
 43
0.0
 10
14.79035166340579
 20
29.70745273357461
 10
14.79035166340579
 20
29.22153164639833
  0
LINE
  5
DA0
330
1E
100
AcDbEntity
  8
OBJECT
100
AcDbLine
 10
14.83251248560514
 20
29.74525803995531
 30
0.0
 11
14.77616544397077
 21
29.69473205252175
 31
0.0
  0
LINE
  5
DA1
330
1E
100
AcDbEntity
  8
CENTER
100
AcDbLine
 10
18.61594896536651
 20
30.42435002952712
 30
0.0
 11
18.61594896536651
 21
32.33665762768625
 31
0.0
  0
LWPOLYLINE
  5
DA2
330
1E
100
AcDbEntity
  8
OBJECT
100
AcDbPolyline
 90
        7
 70
     0
 43
0.0
 10
18.54562778867553
 20
31.95223205252172
 42
0.0531578900237961
 10
18.55619321250537
 20
31.94453164639833
 42
0.072341084057661
 10
18.58201690813245
 20
31.93424223238046
 42
0.0587518675353793
 10
18.61594896536651
 20
31.93024127849646
 42
0.0587518675353684
 10
18.64988102260057
 20
31.93424223238046
 42
0.0723410840576543
 10
18.67570471822764
 20
31.94453164639833
 42
0.0531578900238873
 10
18.68627014205751
 20
31.95223205252174
 42
0.1568512196707747
  0
LWPOLYLINE
  5
DA3
330
1E
100
AcDbEntity
  8
OBJECT
100
AcDbPolyline
 90
        2
 70
     0
 43
0.0
 10
18.53144156924049
 20
31.96495273357462
 10
18.53144156924049
 20
31.47903164639834
  0
LWPOLYLINE
  5
DA4
330
1E
100
AcDbEntity
  8
OBJECT
100
AcDbPolyline
 90
        2
 70
     0
 43
0.0
 10
18.70045636149253
 20
31.96495273357462
 10
18.70045636149253
 20
31.47903164639834
  0
LWPOLYLINE
  5
DA5
330
1E
100
AcDbEntity
  8
OBJECT
100
AcDbPolyline
 90
        9
 70
     0
 43
0.0
 10
18.53144156924049
 20
31.47903164639834
 42
0.1568512196707782
 10
18.53692339784823
 20
31.46198694952255
 42
0.1066170543910084
 10
18.55619321250537
 20
31.44453164639834
 42
0.072341084057661
 10
18.58201690813245
 20
31.43424223238046
 42
0.0587518675353793
 10
18.61594896536651
 20
31.43024127849647
 42
0.0587518675353684
 10
18.64988102260057
 20
31.43424223238046
 42
0.0723410840576543
 10
18.67570471822764
 20
31.44453164639834
 42
0.1066170543910017
 10
18.69497453288477
 20
31.46198694952255
 42
0.1568512196707747
 10
18.70045636149253
 20
31.47903164639834
 42
0.1568512196707838
  0
LWPOLYLINE
  5
DA6
330
1E
100
AcDbEntity
  8
OBJECT
100
AcDbPolyline
 90
       16
 70
     1
 43
0.0
 10
18.61594896536651
 20
32.13891682216447
 42
0.0587518675353782
 10
18.55482778628216
 20
32.13170997887864
 42
0.072341084057657
 10
18.50831204707558
 20
32.11317585014834
 42
0.1066170543910075
 10
18.47360169089362
 20
32.08173393960142
 42
0.1568512196707839
 10
18.46372737570746
 20
32.05103164639833
 42
0.1568512196707877
 10
18.47360169089362
 20
32.02032935319526
 42
0.1066170543910138
 10
18.50831204707558
 20
31.98888744264833
 42
0.07234108405766
 10
18.55482778628216
 20
31.97035331391803
 42
0.0587518675353789
 10
18.61594896536651
 20
31.96314647063221
 42
0.058751867535374
 10
18.67707014445086
 20
31.97035331391803
 42
0.0723410840576588
 10
18.72358588365742
 20
31.98888744264833
 42
0.1066170543910072
 10
18.75829623983939
 20
32.02032935319526
 42
0.1568512196707839
 10
18.76817055502556
 20
32.05103164639833
 42
0.156851219670792
 10
18.75829623983939
 20
32.08173393960142
 42
0.1066170543910073
 10
18.72358588365742
 20
32.11317585014834
 42
0.072341084057658
 10
18.67707014445086
 20
32.13170997887864
 42
0.058751867535374
  0
LINE
  5
DA7
330
1E
100
AcDbEntity
  8
OBJECT
100
AcDbLine
 10
18.48928074704113
 20
32.00275803995531
 30
0.0
 11
18.54562778867551
 21
31.95223205252174
 31
0.0
  0
LINE
  5
DA8
330
1E
100
AcDbEntity
  8
OBJECT
100
AcDbLine
 10
18.74261718369186
 20
32.00275803995531
 30
0.0
 11
18.68627014205751
 21
31.95223205252174
 31
0.0
  0
LWPOLYLINE
  5
DA9
330
1E
100
AcDbEntity
  8
OBJECT
100
AcDbPolyline
 90
       16
 70
     1
 43
0.0
 10
18.61594896536651
 20
30.62304703504054
 42
0.0587518675353782
 10
18.54685542853482
 20
30.61490016517531
 42
0.072341084057657
 10
18.4942723961348
 20
30.59394853228382
 42
0.1066170543910075
 10
18.45503458513004
 20
30.55840548751642
 42
0.1568512196707839
 10
18.44387231093598
 20
30.52369853228382
 42
0.1568512196707877
 10
18.45503458513004
 20
30.48899157705124
 42
0.1066170543910138
 10
18.4942723961348
 20
30.45344853228382
 42
0.07234108405766
 10
18.54685542853482
 20
30.43249689939235
 42
0.0587518675353789
 10
18.61594896536651
 20
30.42435002952712
 42
0.058751867535374
 10
18.68504250219818
 20
30.43249689939235
 42
0.0723410840576588
 10
18.73762553459823
 20
30.45344853228382
 42
0.1066170543910072
 10
18.77686334560298
 20
30.48899157705124
 42
0.1568512196707839
 10
18.78802561979703
 20
30.52369853228382
 42
0.156851219670792
 10
18.77686334560298
 20
30.55840548751642
 42
0.1066170543910073
 10
18.73762553459823
 20
30.59394853228382
 42
0.072341084057658
 10
18.68504250219818
 20
30.61490016517531
 42
0.058751867535374
  0
LWPOLYLINE
  5
DAA
330
1E
100
AcDbEntity
  8
OBJECT
100
AcDbPolyline
 90
        6
 70
     0
 43
0.0
 10
18.70933872365984
 20
30.43999767858017
 42
0.0907083780630971
 10
18.71147906533504
 20
30.45169853228382
 42
0.1568512196707755
 10
18.70528221560455
 20
30.47096645049125
 42
0.106617054390996
 10
18.68349894686169
 20
30.49069853228382
 42
0.0723410840576467
 10
18.65430694310937
 20
30.5023300437823
 42
0.0587518675353843
 10
18.61594896536651
 20
30.50685286121638
 42
0.0587518675353685
  0
LWPOLYLINE
  5
DAB
330
1E
100
AcDbEntity
  8
OBJECT
100
AcDbPolyline
 90
        6
 70
     0
 43
0.0
 10
18.61594896536651
 20
30.50685286121638
 42
0.0587518675353685
 10
18.57759098762366
 20
30.50233004378231
 42
0.0723410840576479
 10
18.54839898387131
 20
30.49069853228382
 42
0.1066170543910048
 10
18.52661571512846
 20
30.47096645049125
 42
0.156851219670777
 10
18.52041886539796
 20
30.45169853228382
 42
0.0907083780630934
 10
18.52255920707317
 20
30.43999767858017
 42
0.1066170543910073
  0
LWPOLYLINE
  5
DAC
330
1E
100
AcDbEntity
  8
OBJECT
100
AcDbPolyline
 90
        6
 70
     0
 43
0.0
 10
14.7992340255731
 20
28.18249767858018
 42
0.0907083780630903
 10
14.80137436724831
 20
28.19419853228382
 42
0.1568512196707755
 10
14.79517751751781
 20
28.21346645049125
 42
0.106617054390996
 10
14.77339424877496
 20
28.23319853228382
 42
0.0723410840576467
 10
14.74420224502263
 20
28.2448300437823
 42
0.0587518675353843
 10
14.70584426727977
 20
28.24935286121638
 42
0.0587518675353685
  0
LWPOLYLINE
  5
DAD
330
1E
100
AcDbEntity
  8
OBJECT
100
AcDbPolyline
 90
       16
 70
     1
 43
0.0
 10
14.70584426727977
 20
28.36554703504054
 42
0.0587518675353782
 10
14.63675073044809
 20
28.35740016517531
 42
0.072341084057657
 10
14.58416769804806
 20
28.33644853228382
 42
0.1066170543910075
 10
14.5449298870433
 20
28.30090548751642
 42
0.1568512196707839
 10
14.53376761284925
 20
28.26619853228383
 42
0.1568512196707877
 10
14.5449298870433
 20
28.23149157705124
 42
0.1066170543910138
 10
14.58416769804806
 20
28.19594853228382
 42
0.07234108405766
 10
14.63675073044809
 20
28.17499689939236
 42
0.0587518675353789
 10
14.70584426727977
 20
28.16685002952712
 42
0.058751867535374
 10
14.77493780411144
 20
28.17499689939236
 42
0.0723410840576588
 10
14.82752083651148
 20
28.19594853228382
 42
0.1066170543910072
 10
14.86675864751624
 20
28.23149157705124
 42
0.1568512196707839
 10
14.87792092171028
 20
28.26619853228383
 42
0.156851219670792
 10
14.86675864751624
 20
28.30090548751642
 42
0.1066170543910073
 10
14.82752083651148
 20
28.33644853228382
 42
0.072341084057658
 10
14.77493780411144
 20
28.35740016517531
 42
0.058751867535374
  0
LWPOLYLINE
  5
DAE
330
1E
100
AcDbEntity
  8
OBJECT
100
AcDbPolyline
 90
        6
 70
     0
 43
0.0
 10
14.70584426727977
 20
28.24935286121638
 42
0.0587518675353685
 10
14.66748628953691
 20
28.24483004378231
 42
0.0723410840576479
 10
14.63829428578458
 20
28.23319853228382
 42
0.1066170543910048
 10
14.61651101704173
 20
28.21346645049125
 42
0.156851219670777
 10
14.61031416731123
 20
28.19419853228382
 42
0.0907083780630934
 10
14.61245450898644
 20
28.18249767858018
 42
0.1066170543910073
  0
LINE
  5
DAF
330
1E
100
AcDbEntity
  8
CENTER
100
AcDbLine
 10
14.70584426727977
 20
22.89488076052636
 30
0.0
 11
14.70584426727977
 21
27.97726245742076
 31
0.0
  0
LINE
  5
DB0
330
1E
100
AcDbEntity
  8
CENTER
100
AcDbLine
 10
18.61594896536651
 20
25.11664778783111
 30
0.0
 11
18.61594896536651
 21
28.01003159103995
 31
0.0
  0
LWPOLYLINE
  5
DB1
330
1E
100
AcDbEntity
  8
OBJECT
100
AcDbPolyline
 90
        9
 70
     0
 43
0.0
 10
14.76919132692894
 20
22.8216846352943
 42
0.0122510181797349
 10
14.77567545752958
 20
22.82306828415328
 42
0.072341084057657
 10
14.79962787086483
 20
22.83261208845972
 42
0.1066170543910092
 10
14.81750132214101
 20
22.84880251454596
 42
0.1568512196707462
 10
14.82258591679169
 20
22.86461208845973
 42
0.1568512196707336
 10
14.81750132214101
 20
22.88042166237351
 42
0.1066170543909893
 10
14.79962787086483
 20
22.89661208845973
 42
0.0723410840576466
 10
14.77567545752959
 20
22.90615589276617
 42
0.0587518675353801
 10
14.74420224502263
 20
22.90986692245567
 42
0.0587518675353727
  0
LWPOLYLINE
  5
DB6
330
1E
100
AcDbEntity
  8
OBJECT
100
AcDbPolyline
 90
        5
 70
     0
 43
0.0
 10
14.74420224502263
 20
22.90986692245567
 42
0.0587518675353727
 10
14.71272903251566
 20
22.90615589276617
 42
0.0723410840576566
 10
14.68877661918042
 20
22.89661208845973
 42
0.1066170543909957
 10
14.67090316790423
 20
22.88042166237351
 42
0.015928584286223
 10
14.66994134309171
 20
22.87898664017981
 42
0.1568512196707294
  0
LWPOLYLINE
  5
DB7
330
1E
100
AcDbEntity
  8
OBJECT
100
AcDbPolyline
 90
        7
 70
     0
 43
0.0
 10
14.82518298582606
 20
22.78935783595768
 42
0.0431043958842368
 10
14.85245542049568
 20
22.80211208845972
 42
0.1066170543910163
 10
14.88736450501948
 20
22.83373401440939
 42
0.1568512196707811
 10
14.89729535394658
 20
22.86461208845973
 42
0.1568512196707789
 10
14.88736450501948
 20
22.89549016251008
 42
0.1066170543910128
 10
14.85245542049568
 20
22.92711208845973
 42
0.3452402452508683
 10
14.63874386142717
 20
22.89672128396897
 42
0.0587518675353793
  0
LINE
  5
DB8
330
1E
100
AcDbEntity
  8
OBJECT
100
AcDbLine
 10
14.89729535394658
 20
22.86461208845973
 30
0.0
 11
14.90454708734573
 21
22.74353695058132
 31
0.0
  0
LINE
  5
DBD
330
1E
100
AcDbEntity
  8
OBJECT
100
AcDbLine
 10
18.75476556546544
 20
25.10627014587599
 30
0.0
 11
18.75476556546544
 21
23.10927014587597
 31
0.0
  0
LINE
  5
DBE
330
1E
100
AcDbEntity
  8
OBJECT
100
AcDbLine
 10
18.87190902115982
 20
25.11701522800512
 30
0.0
 11
18.87190902115982
 21
23.1203293045637
 31
0.0
  0
LWPOLYLINE
  5
DC1
330
1E
100
AcDbEntity
  8
OBJECT
100
AcDbPolyline
 90
        7
 70
     0
 43
0.0
 10
18.46285585644255
 20
23.13169086955901
 42
0.150994727434761
 10
18.50769578989346
 20
23.08331390534335
 42
0.0723410840576608
 10
18.55447784718886
 20
23.06467366255735
 42
0.0587518675353809
 10
18.61594896536651
 20
23.05742555769505
 42
0.0587518675353774
 10
18.67742008354415
 20
23.06467366255735
 42
0.0723410840576568
 10
18.72420214083955
 20
23.08331390534335
 42
0.0904779399290791
 10
18.75476556546545
 20
23.10927014587599
 42
0.1568512196707811
  0
LWPOLYLINE
  5
DC2
330
1E
100
AcDbEntity
  8
OBJECT
100
AcDbPolyline
 90
        4
 70
     0
 43
0.0
 10
18.74966438246436
 20
23.1034641678976
 42
-0.1032009272409039
 10
18.76667475582118
 20
23.11866477839017
 42
-0.0723410840576526
 10
18.79006578446888
 20
23.12798489978317
 42
-0.0587518675353721
 10
18.82080134355771
 20
23.13160895221432
 42
-0.0587518675353793
  0
LWPOLYLINE
  5
DC3
330
1E
100
AcDbEntity
  8
OBJECT
100
AcDbPolyline
 90
        3
 70
     0
 43
0.0
 10
18.82080134355771
 20
23.13160895221432
 42
-0.0587518675353793
 10
18.85153690264653
 20
23.12798489978317
 42
-0.0642382339879482
 10
18.87246175308752
 20
23.12003607137392
 42
-0.010596345945674
  0
LWPOLYLINE
  5
DC7
330
1E
100
AcDbEntity
  8
OBJECT
100
AcDbPolyline
 90
        7
 70
     0
 43
0.0
 10
18.48741049442157
 20
25.09531573123607
 42
0.0566482187567139
 10
18.50769578989344
 20
25.08031390534336
 42
0.0723410840576608
 10
18.55447784718885
 20
25.06167366255735
 42
0.0587518675353809
 10
18.61594896536649
 20
25.05442555769505
 42
0.0587518675353774
 10
18.67742008354415
 20
25.06167366255735
 42
0.0723410840576568
 10
18.72420214083955
 20
25.08031390534336
 42
0.0904779399290791
 10
18.75476556546544
 20
25.10627014587599
  0
LWPOLYLINE
  5
DC8
330
1E
100
AcDbEntity
  8
OBJECT
100
AcDbPolyline
 90
       16
 70
     1
 43
0.0
 10
18.61594896536649
 20
25.18806873933931
 42
0.0587518675353727
 10
18.58447575285953
 20
25.1843577096498
 42
0.0723410840576566
 10
18.5605233395243
 20
25.17481390534336
 42
0.1066170543909957
 10
18.54264988824811
 20
25.15862347925714
 42
0.1568512196707378
 10
18.53756529359744
 20
25.14281390534335
 42
0.1568512196707294
 10
18.54264988824811
 20
25.12700433142958
 42
0.1066170543909819
 10
18.5605233395243
 20
25.11081390534336
 42
0.0723410840576534
 10
18.58447575285955
 20
25.10127010103692
 42
0.0587518675353621
 10
18.61594896536649
 20
25.09755907134742
 42
0.0587518675353727
 10
18.64742217787346
 20
25.10127010103692
 42
0.072341084057657
 10
18.67137459120871
 20
25.11081390534336
 42
0.1066170543910092
 10
18.68924804248489
 20
25.12700433142959
 42
0.1568512196707462
 10
18.69433263713557
 20
25.14281390534335
 42
0.1568512196707336
 10
18.68924804248489
 20
25.15862347925714
 42
0.1066170543909893
 10
18.67137459120871
 20
25.17481390534336
 42
0.0723410840576466
 10
18.64742217787346
 20
25.1843577096498
 42
0.0587518675353801
  0
LWPOLYLINE
  5
DCB
330
1E
100
AcDbEntity
  8
OBJECT
100
AcDbPolyline
 90
        3
 70
     0
 43
0.0
 10
18.87190902115982
 20
25.11701522800512
 42
0.0627377818794437
 10
18.85144593107608
 20
25.12471873723168
 42
0.0587518675353721
 10
18.82071037198726
 20
25.12834278966282
 42
0.0587518675353793
  0
LWPOLYLINE
  5
DCC
330
1E
100
AcDbEntity
  8
OBJECT
100
AcDbPolyline
 90
        4
 70
     0
 43
0.0
 10
18.82071037198726
 20
25.12834278966282
 42
0.0587518675353793
 10
18.78997481289845
 20
25.12471873723168
 42
0.0723410840576608
 10
18.76658378425075
 20
25.11539861583867
 42
0.0671451366482417
 10
18.75476556546544
 20
25.10627014587599
 42
0.1568512196707734
  0
LINE
  5
DCD
330
1E
100
AcDbEntity
  8
OBJECT
100
AcDbLine
 10
18.87190902115984
 20
25.11701522800512
 30
0.0
 11
18.56584353859521
 21
25.29388380158112
 31
0.0
  0
LWPOLYLINE
  5
DCF
330
1E
100
AcDbEntity
  8
OBJECT
100
AcDbPolyline
 90
        7
 70
     0
 43
0.0
 10
18.55676841711565
 20
25.22682504514143
 42
0.0290503911245578
 10
18.56584353859521
 20
25.23138380158111
 42
0.1066170543910291
 10
18.5832980808571
 20
25.24719476455594
 42
0.1568512196707543
 10
18.58826350532066
 20
25.26263380158111
 42
0.1568512196707906
 10
18.5832980808571
 20
25.27807283860628
 42
0.1066170543910265
 10
18.56584353859521
 20
25.29388380158112
 42
0.0125132942123061
 10
18.56199888120872
 20
25.29597703178655
 42
0.0587518675353721
  0
LINE
  5
DD0
330
1E
100
AcDbEntity
  8
OBJECT
100
AcDbLine
 10
18.56199888120872
 20
25.29597703178655
 30
0.0
 11
18.55788850391505
 21
25.22731777335491
 31
0.0
  0
LWPOLYLINE
  5
DD3
330
1E
100
AcDbEntity
  8
OBJECT
100
AcDbPolyline
 90
        7
 70
     0
 43
0.0
 10
18.53550819428956
 20
25.22059892758781
 42
0.0439272805455098
 10
18.50769578989344
 20
25.20764778783111
 42
0.1066170543910128
 10
18.47278670536964
 20
25.17602586188144
 42
0.1568512196707789
 10
18.46285585644255
 20
25.14514778783111
 42
0.1568512196707841
 10
18.47278670536964
 20
25.11426971378076
 42
0.1366189224218357
 10
18.50666978481482
 20
25.08091356927462
 42
0.0437164296855037
 10
18.53420525752321
 20
25.0678412849749
 42
0.0587518675353809
  0
LINE
  5
DD4
330
1E
100
AcDbEntity
  8
OBJECT
100
AcDbLine
 10
18.53550819428956
 20
25.2205989275878
 30
0.0
 11
18.55676841711564
 21
25.22682504514143
 31
0.0
  0
LINE
  5
DD8
330
1E
100
AcDbEntity
  8
OBJECT
100
AcDbLine
 10
18.46285585644255
 20
25.14514778783111
 30
0.0
 11
18.46285585644255
 21
23.13169086955901
 31
0.0
  0
LINE
  5
DD9
330
1E
100
AcDbEntity
  8
OBJECT
100
AcDbLine
 10
18.46285585644255
 20
23.3559406729578
 30
0.0
 11
16.998382779298
 21
24.2032030126178
 31
0.0
  0
LINE
  5
E26
330
1E
100
AcDbEntity
  8
TITLE
100
AcDbLine
 10
0.1394999999999946
 20
5.755500000000002
 30
0.0
 11
23.71049999999999
 21
5.755500000000002
 31
0.0
  0
LINE
  5
E27
330
1E
100
AcDbEntity
  8
TITLE
100
AcDbLine
 10
0.1394999999999946
 20
6.223500000000002
 30
0.0
 11
23.71049999999999
 21
6.223500000000002
 31
0.0
  0
LINE
  5
E28
330
1E
100
AcDbEntity
  8
TITLE
100
AcDbLine
 10
0.1394999999999946
 20
6.691500000000002
 30
0.0
 11
23.71049999999999
 21
6.691500000000002
 31
0.0
  0
LINE
  5
E29
330
1E
100
AcDbEntity
  8
TITLE
100
AcDbLine
 10
0.1394999999999946
 20
7.159500000000002
 30
0.0
 11
23.71049999999999
 21
7.159500000000002
 31
0.0
  0
TEXT
  5
E2A
330
1E
100
AcDbEntity
  8
TEXT
100
AcDbText
 10
4.520687499999998
 20
6.315999999999999
 30
0.0
 40
0.281
  1
6.000
 41
0.75
  7
TXT
 72
     4
 11
4.889499999999998
 21
6.4565
 31
0.0
100
AcDbText
  0
TEXT
  5
E2B
330
1E
100
AcDbEntity
  8
TEXT
100
AcDbText
 10
4.485562499999998
 20
5.847666666666667
 30
0.0
 40
0.281
  1
7.390
 41
0.75
  7
TXT
 72
     4
 11
4.889499999999998
 21
5.988166666666667
 31
0.0
100
AcDbText
  0
TEXT
  5
E2C
330
1E
100
AcDbEntity
  8
TEXT
100
AcDbText
 10
4.485562499999998
 20
7.252666666666666
 30
0.0
 40
0.281
  1
4.750
 41
0.75
  7
TXT
 72
     4
 11
4.889499999999998
 21
7.393166666666666
 31
0.0
100
AcDbText
  0
TEXT
  5
E2D
330
1E
100
AcDbEntity
  8
TEXT
100
AcDbText
 10
4.485562499999998
 20
6.784333333333332
 30
0.0
 40
0.281
  1
4.750
 41
0.75
  7
TXT
 72
     4
 11
4.889499999999998
 21
6.924833333333332
 31
0.0
100
AcDbText
  0
TEXT
  5
E2E
330
1E
100
AcDbEntity
  8
TEXT
100
AcDbText
 10
0.5445664972473111
 20
6.316333333333332
 30
0.0
 40
0.281
  1
CU-476
 41
0.75
  7
TXT
 72
     4
 11
1.141691497247311
 21
6.456833333333332
 31
0.0
100
AcDbText
  0
TEXT
  5
E2F
330
1E
100
AcDbEntity
  8
TEXT
100
AcDbText
 10
0.5445664972473111
 20
5.847999999999999
 30
0.0
 40
0.281
  1
CU-477
 41
0.75
  7
TXT
 72
     4
 11
1.141691497247311
 21
5.9885
 31
0.0
100
AcDbText
  0
TEXT
  5
E30
330
1E
100
AcDbEntity
  8
TEXT
100
AcDbText
 10
0.5445664972473111
 20
5.379666666666667
 30
0.0
 40
0.281
  1
CU-478
 41
0.75
  7
TXT
 72
     4
 11
1.141691497247311
 21
5.520166666666667
 31
0.0
100
AcDbText
  0
TEXT
  5
E31
330
1E
100
AcDbEntity
  8
TEXT
100
AcDbText
 10
0.5445664972473111
 20
6.784666666666666
 30
0.0
 40
0.281
  1
CU-475
 41
0.75
  7
TXT
 72
     4
 11
1.141691497247311
 21
6.925166666666666
 31
0.0
100
AcDbText
  0
TEXT
  5
E32
330
1E
100
AcDbEntity
  8
TEXT
100
AcDbText
 10
5.783562499999992
 20
6.315999999999999
 30
0.0
 40
0.281
  1
3.250
 41
0.75
  7
TXT
 72
     4
 11
6.187499999999992
 21
6.4565
 31
0.0
100
AcDbText
  0
TEXT
  5
E33
330
1E
100
AcDbEntity
  8
TEXT
100
AcDbText
 10
5.783562499999992
 20
6.784333333333332
 30
0.0
 40
0.281
  1
4.750
 41
0.75
  7
TXT
 72
     4
 11
6.187499999999992
 21
6.924833333333332
 31
0.0
100
AcDbText
  0
TEXT
  5
E34
330
1E
100
AcDbEntity
  8
TEXT
100
AcDbText
 10
5.783562499999992
 20
5.847666666666667
 30
0.0
 40
0.281
  1
4.703
 41
0.75
  7
TXT
 72
     4
 11
6.187499999999992
 21
5.988166666666667
 31
0.0
100
AcDbText
  0
TEXT
  5
E35
330
1E
100
AcDbEntity
  8
TEXT
100
AcDbText
 10
5.783562499999992
 20
7.252666666666666
 30
0.0
 40
0.281
  1
4.750
 41
0.75
  7
TXT
 72
     4
 11
6.187499999999992
 21
7.393166666666666
 31
0.0
100
AcDbText
  0
TEXT
  5
E36
330
1E
100
AcDbEntity
  8
TEXT
100
AcDbText
 10
7.116687499999997
 20
6.315999999999999
 30
0.0
 40
0.281
  1
2.000
 41
0.75
  7
TXT
 72
     4
 11
7.485499999999997
 21
6.4565
 31
0.0
100
AcDbText
  0
TEXT
  5
E37
330
1E
100
AcDbEntity
  8
TEXT
100
AcDbText
 10
7.081562499999997
 20
6.784333333333332
 30
0.0
 40
0.281
  1
3.750
 41
0.75
  7
TXT
 72
     4
 11
7.485499999999997
 21
6.924833333333332
 31
0.0
100
AcDbText
  0
TEXT
  5
E38
330
1E
100
AcDbEntity
  8
TEXT
100
AcDbText
 10
7.134249999999997
 20
5.847666666666667
 30
0.0
 40
0.281
  1
1.500
 41
0.75
  7
TXT
 72
     4
 11
7.485499999999997
 21
5.988166666666667
 31
0.0
100
AcDbText
  0
TEXT
  5
E39
330
1E
100
AcDbEntity
  8
TEXT
100
AcDbText
 10
7.081562499999997
 20
7.252666666666666
 30
0.0
 40
0.281
  1
2.330
 41
0.75
  7
TXT
 72
     4
 11
7.485499999999997
 21
7.393166666666666
 31
0.0
100
AcDbText
  0
TEXT
  5
E3A
330
1E
100
AcDbEntity
  8
TEXT
100
AcDbText
 10
8.397124999999999
 20
6.315999999999999
 30
0.0
 40
0.281
  1
1.844
 41
0.75
  7
TXT
 72
     4
 11
8.783499999999998
 21
6.4565
 31
0.0
100
AcDbText
  0
TEXT
  5
E3B
330
1E
100
AcDbEntity
  8
TEXT
100
AcDbText
 10
8.361999999999998
 20
6.784333333333332
 30
0.0
 40
0.281
  1
3.594
 41
0.75
  7
TXT
 72
     4
 11
8.783499999999998
 21
6.924833333333332
 31
0.0
100
AcDbText
  0
TEXT
  5
E3C
330
1E
100
AcDbEntity
  8
TEXT
100
AcDbText
 10
8.397124999999999
 20
5.847666666666667
 30
0.0
 40
0.281
  1
1.344
 41
0.75
  7
TXT
 72
     4
 11
8.783499999999998
 21
5.988166666666667
 31
0.0
100
AcDbText
  0
TEXT
  5
E3D
330
1E
100
AcDbEntity
  8
TEXT
100
AcDbText
 10
8.397124999999999
 20
7.252666666666666
 30
0.0
 40
0.281
  1
2.174
 41
0.75
  7
TXT
 72
     4
 11
8.783499999999998
 21
7.393166666666666
 31
0.0
100
AcDbText
  0
TEXT
  5
E3E
330
1E
100
AcDbEntity
  8
TEXT
100
AcDbText
 10
10.97556249999999
 20
6.315999999999999
 30
0.0
 40
0.281
  1
2.860
 41
0.75
  7
TXT
 72
     4
 11
11.37949999999999
 21
6.4565
 31
0.0
100
AcDbText
  0
TEXT
  5
E3F
330
1E
100
AcDbEntity
  8
TEXT
100
AcDbText
 10
10.99312499999999
 20
5.847666666666667
 30
0.0
 40
0.281
  1
4.313
 41
0.75
  7
TXT
 72
     4
 11
11.37949999999999
 21
5.988166666666667
 31
0.0
100
AcDbText
  0
TEXT
  5
E40
330
1E
100
AcDbEntity
  8
TEXT
100
AcDbText
 10
10.95799999999999
 20
7.252666666666666
 30
0.0
 40
0.281
  1
4.375
 41
0.75
  7
TXT
 72
     4
 11
11.37949999999999
 21
7.393166666666666
 31
0.0
100
AcDbText
  0
TEXT
  5
E41
330
1E
100
AcDbEntity
  8
TEXT
100
AcDbText
 10
10.95799999999999
 20
6.784333333333332
 30
0.0
 40
0.281
  1
4.375
 41
0.75
  7
TXT
 72
     4
 11
11.37949999999999
 21
6.924833333333332
 31
0.0
100
AcDbText
  0
TEXT
  5
E42
330
1E
100
AcDbEntity
  8
TEXT
100
AcDbText
 10
9.71268749999999
 20
6.315999999999999
 30
0.0
 40
0.281
  1
5.610
 41
0.75
  7
TXT
 72
     4
 11
10.08149999999999
 21
6.4565
 31
0.0
100
AcDbText
  0
TEXT
  5
E43
330
1E
100
AcDbEntity
  8
TEXT
100
AcDbText
 10
9.659999999999991
 20
7.252666666666666
 30
0.0
 40
0.281
  1
4.375
 41
0.75
  7
TXT
 72
     4
 11
10.08149999999999
 21
7.393166666666666
 31
0.0
100
AcDbText
  0
TEXT
  5
E44
330
1E
100
AcDbEntity
  8
TEXT
100
AcDbText
 10
9.659999999999991
 20
6.784333333333332
 30
0.0
 40
0.281
  1
4.375
 41
0.75
  7
TXT
 72
     4
 11
10.08149999999999
 21
6.924833333333332
 31
0.0
100
AcDbText
  0
TEXT
  5
E45
330
1E
100
AcDbEntity
  8
TEXT
100
AcDbText
 10
9.71268749999999
 20
5.847666666666667
 30
0.0
 40
0.281
  1
7.000
 41
0.75
  7
TXT
 72
     4
 11
10.08149999999999
 21
5.988166666666667
 31
0.0
100
AcDbText
  0
TEXT
  5
E46
330
1E
100
AcDbEntity
  8
TEXT
100
AcDbText
 10
12.29112499999999
 20
5.847666666666667
 30
0.0
 40
0.281
  1
3.500
 41
0.75
  7
TXT
 72
     4
 11
12.67749999999999
 21
5.988166666666667
 31
0.0
100
AcDbText
  0
TEXT
  5
E47
330
1E
100
AcDbEntity
  8
TEXT
100
AcDbText
 10
12.27356249999999
 20
6.315999999999999
 30
0.0
 40
0.281
  1
2.805
 41
0.75
  7
TXT
 72
     4
 11
12.67749999999999
 21
6.4565
 31
0.0
100
AcDbText
  0
TEXT
  5
E48
330
1E
100
AcDbEntity
  8
TEXT
100
AcDbText
 10
12.39649999999999
 20
6.784333333333332
 30
0.0
 40
0.281
  1
---
 41
0.75
  7
TXT
 72
     4
 11
12.67749999999999
 21
6.924833333333332
 31
0.0
100
AcDbText
  0
TEXT
  5
E49
330
1E
100
AcDbEntity
  8
TEXT
100
AcDbText
 10
12.39649999999999
 20
7.252666666666666
 30
0.0
 40
0.281
  1
---
 41
0.75
  7
TXT
 72
     4
 11
12.67749999999999
 21
7.393166666666666
 31
0.0
100
AcDbText
  0
TEXT
  5
E4A
330
1E
100
AcDbEntity
  8
TEXT
100
AcDbText
 10
14.887125
 20
6.315999999999999
 30
0.0
 40
0.281
  1
0.094
 41
0.75
  7
TXT
 72
     4
 11
15.2735
 21
6.4565
 31
0.0
100
AcDbText
  0
TEXT
  5
E4B
330
1E
100
AcDbEntity
  8
TEXT
100
AcDbText
 10
14.887125
 20
6.784333333333332
 30
0.0
 40
0.281
  1
0.094
 41
0.75
  7
TXT
 72
     4
 11
15.2735
 21
6.924833333333332
 31
0.0
100
AcDbText
  0
TEXT
  5
E4C
330
1E
100
AcDbEntity
  8
TEXT
100
AcDbText
 10
14.887125
 20
5.847666666666667
 30
0.0
 40
0.281
  1
0.094
 41
0.75
  7
TXT
 72
     4
 11
15.2735
 21
5.988166666666667
 31
0.0
100
AcDbText
  0
TEXT
  5
E4D
330
1E
100
AcDbEntity
  8
TEXT
100
AcDbText
 10
14.887125
 20
7.252666666666666
 30
0.0
 40
0.281
  1
0.094
 41
0.75
  7
TXT
 72
     4
 11
15.2735
 21
7.393166666666666
 31
0.0
100
AcDbText
  0
TEXT
  5
E4E
330
1E
100
AcDbEntity
  8
TEXT
100
AcDbText
 10
16.185125
 20
6.315999999999999
 30
0.0
 40
0.281
  1
0.078
 41
0.75
  7
TXT
 72
     4
 11
16.5715
 21
6.4565
 31
0.0
100
AcDbText
  0
TEXT
  5
E4F
330
1E
100
AcDbEntity
  8
TEXT
100
AcDbText
 10
16.185125
 20
6.784333333333332
 30
0.0
 40
0.281
  1
0.078
 41
0.75
  7
TXT
 72
     4
 11
16.5715
 21
6.924833333333332
 31
0.0
100
AcDbText
  0
TEXT
  5
E50
330
1E
100
AcDbEntity
  8
TEXT
100
AcDbText
 10
16.185125
 20
5.847666666666667
 30
0.0
 40
0.281
  1
0.078
 41
0.75
  7
TXT
 72
     4
 11
16.5715
 21
5.988166666666667
 31
0.0
100
AcDbText
  0
TEXT
  5
E51
330
1E
100
AcDbEntity
  8
TEXT
100
AcDbText
 10
16.185125
 20
7.252666666666666
 30
0.0
 40
0.281
  1
0.078
 41
0.75
  7
TXT
 72
     4
 11
16.5715
 21
7.393166666666666
 31
0.0
100
AcDbText
  0
TEXT
  5
E54
330
1E
100
AcDbEntity
  8
TEXT
100
AcDbText
 10
0.5445664972473111
 20
7.251666666666666
 30
0.0
 40
0.281
  1
CU-474
 41
0.75
  7
TXT
 72
     4
 11
1.141691497247311
 21
7.392166666666667
 31
0.0
100
AcDbText
  0
TEXT
  5
E5D
330
1E
100
AcDbEntity
  8
TEXT
100
AcDbText
 10
13.69449999999998
 20
5.847666666666667
 30
0.0
 40
0.281
  1
---
 41
0.75
  7
TXT
 72
     4
 11
13.97549999999998
 21
5.988166666666667
 31
0.0
100
AcDbText
  0
TEXT
  5
E5E
330
1E
100
AcDbEntity
  8
TEXT
100
AcDbText
 10
13.55399999999999
 20
5.379333333333332
 30
0.0
 40
0.281
  1
3.555
 41
0.75
  7
TXT
 72
     4
 11
13.97549999999998
 21
5.519833333333332
 31
0.0
100
AcDbText
  0
TEXT
  5
E5F
330
1E
100
AcDbEntity
  8
TEXT
100
AcDbText
 10
13.69449999999998
 20
7.252666666666666
 30
0.0
 40
0.281
  1
---
 41
0.75
  7
TXT
 72
     4
 11
13.97549999999998
 21
7.393166666666666
 31
0.0
100
AcDbText
  0
TEXT
  5
E60
330
1E
100
AcDbEntity
  8
TEXT
100
AcDbText
 10
13.69449999999998
 20
6.784333333333332
 30
0.0
 40
0.281
  1
---
 41
0.75
  7
TXT
 72
     4
 11
13.97549999999998
 21
6.924833333333332
 31
0.0
100
AcDbText
  0
TEXT
  5
E61
330
1E
100
AcDbEntity
  8
TEXT
100
AcDbText
 10
13.69449999999998
 20
6.315999999999999
 30
0.0
 40
0.281
  1
---
 41
0.75
  7
TXT
 72
     4
 11
13.97549999999998
 21
6.4565
 31
0.0
100
AcDbText
  0
TEXT
  5
E62
330
1E
100
AcDbEntity
  8
TEXT
100
AcDbText
 10
13.69449999999998
 20
8.656333333333332
 30
0.0
 40
0.281
  1
---
 41
0.75
  7
TXT
 72
     4
 11
13.97549999999998
 21
8.796833333333331
 31
0.0
100
AcDbText
  0
TEXT
  5
E63
330
1E
100
AcDbEntity
  8
TEXT
100
AcDbText
 10
13.69449999999998
 20
7.719666666666666
 30
0.0
 40
0.281
  1
---
 41
0.75
  7
TXT
 72
     4
 11
13.97549999999998
 21
7.860166666666666
 31
0.0
100
AcDbText
  0
TEXT
  5
E64
330
1E
100
AcDbEntity
  8
TEXT
100
AcDbText
 10
13.69449999999998
 20
8.188
 30
0.0
 40
0.281
  1
---
 41
0.75
  7
TXT
 72
     4
 11
13.97549999999998
 21
8.3285
 31
0.0
100
AcDbText
  0
TEXT
  5
E65
330
1E
100
AcDbEntity
  8
TEXT
100
AcDbText
 10
13.69449999999998
 20
9.124666666666668
 30
0.0
 40
0.281
  1
---
 41
0.75
  7
TXT
 72
     4
 11
13.97549999999998
 21
9.265166666666667
 31
0.0
100
AcDbText
  0
TEXT
  5
E66
330
1E
100
AcDbEntity
  8
TEXT
100
AcDbText
 10
13.90524999999999
 20
9.592999999999999
 30
0.0
 40
0.281
  1
H
 41
0.75
  7
TXT
 72
     4
 11
13.97549999999998
 21
9.733499999999999
 31
0.0
100
AcDbText
  0
TEXT
  5
EA0
330
1E
100
AcDbEntity
  8
TEXT
100
AcDbText
 10
17.79924999999999
 20
9.593000000000003
 30
0.0
 40
0.281
  1
L
 41
0.75
  7
TXT
 72
     4
 11
17.8695
 21
9.733500000000002
 31
0.0
100
AcDbText
  0
TEXT
  5
EA1
330
1E
100
AcDbEntity
  8
DIM
100
AcDbText
 10
22.6277204162136
 20
4.585500000000001
 30
0.0
 40
0.281
  1
 
 41
0.75
  7
TXT
 72
     4
 11
22.7330954162136
 21
4.585500000000001
 31
0.0
100
AcDbText
  0
TEXT
  5
EA2
330
1E
100
AcDbEntity
  8
TEXT
100
AcDbText
 10
22.6277204162136
 20
4.585500000000001
 30
0.0
 40
0.281
  1
 
 41
0.75
  7
TXT
 72
     4
 11
22.7330954162136
 21
4.585500000000001
 31
0.0
100
AcDbText
  0
TEXT
  5
EA3
330
1E
100
AcDbEntity
  8
TEXT
100
AcDbText
 10
17.50068749999999
 20
9.124666666666668
 30
0.0
 40
0.281
  1
0.188
 41
0.75
  7
TXT
 72
     4
 11
17.8695
 21
9.265166666666667
 31
0.0
100
AcDbText
  0
TEXT
  5
EA4
330
1E
100
AcDbEntity
  8
TEXT
100
AcDbText
 10
17.50068749999999
 20
8.656333333333336
 30
0.0
 40
0.281
  1
0.188
 41
0.75
  7
TXT
 72
     4
 11
17.8695
 21
8.796833333333335
 31
0.0
100
AcDbText
  0
TEXT
  5
EA5
330
1E
100
AcDbEntity
  8
TEXT
100
AcDbText
 10
17.50068749999999
 20
8.188000000000002
 30
0.0
 40
0.281
  1
0.188
 41
0.75
  7
TXT
 72
     4
 11
17.8695
 21
8.328500000000001
 31
0.0
100
AcDbText
  0
TEXT
  5
EA6
330
1E
100
AcDbEntity
  8
TEXT
100
AcDbText
 10
17.50068749999999
 20
7.719666666666666
 30
0.0
 40
0.281
  1
0.188
 41
0.75
  7
TXT
 72
     4
 11
17.8695
 21
7.860166666666667
 31
0.0
100
AcDbText
  0
TEXT
  5
EA7
330
1E
100
AcDbEntity
  8
TEXT
100
AcDbText
 10
17.50068749999999
 20
7.251333333333334
 30
0.0
 40
0.281
  1
0.188
 41
0.75
  7
TXT
 72
     4
 11
17.8695
 21
7.391833333333335
 31
0.0
100
AcDbText
  0
TEXT
  5
EA8
330
1E
100
AcDbEntity
  8
TEXT
100
AcDbText
 10
17.50068749999999
 20
6.783000000000002
 30
0.0
 40
0.281
  1
0.188
 41
0.75
  7
TXT
 72
     4
 11
17.8695
 21
6.923500000000002
 31
0.0
100
AcDbText
  0
TEXT
  5
EA9
330
1E
100
AcDbEntity
  8
TEXT
100
AcDbText
 10
17.50068749999999
 20
6.314666666666667
 30
0.0
 40
0.281
  1
0.195
 41
0.75
  7
TXT
 72
     4
 11
17.8695
 21
6.455166666666667
 31
0.0
100
AcDbText
  0
TEXT
  5
EAA
330
1E
100
AcDbEntity
  8
TEXT
100
AcDbText
 10
17.50068749999999
 20
5.846333333333334
 30
0.0
 40
0.281
  1
0.195
 41
0.75
  7
TXT
 72
     4
 11
17.8695
 21
5.986833333333335
 31
0.0
100
AcDbText
  0
TEXT
  5
EAB
330
1E
100
AcDbEntity
  8
TEXT
100
AcDbText
 10
17.50068749999999
 20
5.378000000000001
 30
0.0
 40
0.281
  1
0.195
 41
0.75
  7
TXT
 72
     4
 11
17.8695
 21
5.518500000000002
 31
0.0
100
AcDbText
  0
TEXT
  5
F28
330
1E
100
AcDbEntity
  8
TEXT
100
AcDbText
 10
0.5445664972473111
 20
4.912333333333332
 30
0.0
 40
0.281
  1
CU-479
 41
0.75
  7
TXT
 72
     4
 11
1.141691497247311
 21
5.052833333333333
 31
0.0
100
AcDbText
  0
TEXT
  5
F29
330
1E
100
AcDbEntity
  8
TEXT
100
AcDbText
 10
4.467999999999998
 20
4.912333333333332
 30
0.0
 40
0.281
  1
4.375
 41
0.75
  7
TXT
 72
     4
 11
4.889499999999998
 21
5.052833333333333
 31
0.0
100
AcDbText
  0
TEXT
  5
F2A
330
1E
100
AcDbEntity
  8
TEXT
100
AcDbText
 10
5.765999999999996
 20
4.912333333333332
 30
0.0
 40
0.281
  1
2.375
 41
0.75
  7
TXT
 72
     4
 11
6.187499999999996
 21
5.052833333333333
 31
0.0
100
AcDbText
  0
TEXT
  5
F2B
330
1E
100
AcDbEntity
  8
TEXT
100
AcDbText
 10
7.099124999999997
 20
4.912333333333332
 30
0.0
 40
0.281
  1
2.136
 41
0.75
  7
TXT
 72
     4
 11
7.485499999999997
 21
5.052833333333333
 31
0.0
100
AcDbText
  0
TEXT
  5
F2C
330
1E
100
AcDbEntity
  8
TEXT
100
AcDbText
 10
8.414687499999997
 20
4.912333333333332
 30
0.0
 40
0.281
  1
1.980
 41
0.75
  7
TXT
 72
     4
 11
8.783499999999998
 21
5.052833333333333
 31
0.0
100
AcDbText
  0
TEXT
  5
F2D
330
1E
100
AcDbEntity
  8
TEXT
100
AcDbText
 10
9.71268749999999
 20
4.912333333333332
 30
0.0
 40
0.281
  1
4.000
 41
0.75
  7
TXT
 72
     4
 11
10.08149999999999
 21
5.052833333333333
 31
0.0
100
AcDbText
  0
TEXT
  5
F2E
330
1E
100
AcDbEntity
  8
TEXT
100
AcDbText
 10
11.01068749999999
 20
4.912333333333332
 30
0.0
 40
0.281
  1
2.000
 41
0.75
  7
TXT
 72
     4
 11
11.37949999999999
 21
5.052833333333333
 31
0.0
100
AcDbText
  0
TEXT
  5
F2F
330
1E
100
AcDbEntity
  8
TEXT
100
AcDbText
 10
12.39649999999999
 20
4.912333333333332
 30
0.0
 40
0.281
  1
---
 41
0.75
  7
TXT
 72
     4
 11
12.67749999999999
 21
5.052833333333333
 31
0.0
100
AcDbText
  0
TEXT
  5
F30
330
1E
100
AcDbEntity
  8
TEXT
100
AcDbText
 10
13.69449999999998
 20
4.912333333333332
 30
0.0
 40
0.281
  1
---
 41
0.75
  7
TXT
 72
     4
 11
13.97549999999998
 21
5.052833333333333
 31
0.0
100
AcDbText
  0
TEXT
  5
F31
330
1E
100
AcDbEntity
  8
TEXT
100
AcDbText
 10
14.887125
 20
4.912333333333332
 30
0.0
 40
0.281
  1
0.065
 41
0.75
  7
TXT
 72
     4
 11
15.2735
 21
5.052833333333333
 31
0.0
100
AcDbText
  0
TEXT
  5
F32
330
1E
100
AcDbEntity
  8
TEXT
100
AcDbText
 10
16.185125
 20
4.912333333333332
 30
0.0
 40
0.281
  1
0.078
 41
0.75
  7
TXT
 72
     4
 11
16.5715
 21
5.052833333333333
 31
0.0
100
AcDbText
  0
TEXT
  5
F33
330
1E
100
AcDbEntity
  8
TEXT
100
AcDbText
 10
17.50068749999999
 20
4.912333333333334
 30
0.0
 40
0.281
  1
0.188
 41
0.75
  7
TXT
 72
     4
 11
17.8695
 21
5.052833333333334
 31
0.0
100
AcDbText
  0
LINE
  5
F34
330
1E
100
AcDbEntity
  8
TITLE
100
AcDbLine
 10
0.1394999999999946
 20
5.287500000000001
 30
0.0
 11
23.71049999999999
 21
5.287500000000001
 31
0.0
  0
TEXT
  5
F41
330
1E
100
AcDbEntity
  8
TEXT
100
AcDbText
 10
2.454566497247308
 20
9.592999999999999
 30
0.0
 40
0.281
  1
PART NO.
 41
0.75
  7
TXT
 72
     4
 11
3.192191497247308
 21
9.733499999999999
 31
0.0
100
AcDbText
  0
TEXT
  5
F42
330
1E
100
AcDbEntity
  8
TEXT
100
AcDbText
 10
2.401878997247308
 20
9.124666666666668
 30
0.0
 40
0.281
  1
CU-470-G
 41
0.75
  7
TXT
 72
     4
 11
3.192191497247308
 21
9.265166666666667
 31
0.0
100
AcDbText
  0
TEXT
  5
F43
330
1E
100
AcDbEntity
  8
TEXT
100
AcDbText
 10
2.419441497247308
 20
8.656333333333332
 30
0.0
 40
0.281
  1
CU-471-G
 41
0.75
  7
TXT
 72
     4
 11
3.192191497247308
 21
8.796833333333331
 31
0.0
100
AcDbText
  0
TEXT
  5
F44
330
1E
100
AcDbEntity
  8
TEXT
100
AcDbText
 10
2.384316497247308
 20
8.188
 30
0.0
 40
0.281
  1
CU-472-G
 41
0.75
  7
TXT
 72
     4
 11
3.192191497247308
 21
8.3285
 31
0.0
100
AcDbText
  0
TEXT
  5
F45
330
1E
100
AcDbEntity
  8
TEXT
100
AcDbText
 10
2.384316497247308
 20
7.719666666666666
 30
0.0
 40
0.281
  1
CU-473-G
 41
0.75
  7
TXT
 72
     4
 11
3.192191497247308
 21
7.860166666666666
 31
0.0
100
AcDbText
  0
TEXT
  5
F46
330
1E
100
AcDbEntity
  8
TEXT
100
AcDbText
 10
2.384316497247308
 20
6.316333333333332
 30
0.0
 40
0.281
  1
CU-476-G
 41
0.75
  7
TXT
 72
     4
 11
3.192191497247308
 21
6.456833333333332
 31
0.0
100
AcDbText
  0
TEXT
  5
F47
330
1E
100
AcDbEntity
  8
TEXT
100
AcDbText
 10
2.384316497247308
 20
5.847999999999999
 30
0.0
 40
0.281
  1
CU-477-G
 41
0.75
  7
TXT
 72
     4
 11
3.192191497247308
 21
5.9885
 31
0.0
100
AcDbText
  0
TEXT
  5
F48
330
1E
100
AcDbEntity
  8
TEXT
100
AcDbText
 10
2.384316497247308
 20
5.379666666666667
 30
0.0
 40
0.281
  1
CU-478-G
 41
0.75
  7
TXT
 72
     4
 11
3.192191497247308
 21
5.520166666666667
 31
0.0
100
AcDbText
  0
TEXT
  5
F49
330
1E
100
AcDbEntity
  8
TEXT
100
AcDbText
 10
2.384316497247308
 20
6.784666666666666
 30
0.0
 40
0.281
  1
CU-475-G
 41
0.75
  7
TXT
 72
     4
 11
3.192191497247308
 21
6.925166666666666
 31
0.0
100
AcDbText
  0
TEXT
  5
F4A
330
1E
100
AcDbEntity
  8
TEXT
100
AcDbText
 10
2.384316497247308
 20
7.251666666666666
 30
0.0
 40
0.281
  1
CU-474-G
 41
0.75
  7
TXT
 72
     4
 11
3.192191497247308
 21
7.392166666666667
 31
0.0
100
AcDbText
  0
TEXT
  5
F4B
330
1E
100
AcDbEntity
  8
TEXT
100
AcDbText
 10
2.384316497247308
 20
4.912333333333332
 30
0.0
 40
0.281
  1
CU-479-G
 41
0.75
  7
TXT
 72
     4
 11
3.192191497247308
 21
5.052833333333333
 31
0.0
100
AcDbText
  0
TEXT
  5
F4C
330
1E
100
AcDbEntity
  8
TEXT
100
AcDbText
 10
12.22771473508518
 20
17.21594839945967
 30
0.0
 40
0.281
  1
GRAY (SUFFIX -G)
 41
0.75
  7
TXT
100
AcDbText
  0
INSERT
  5
F77
330
1E
100
AcDbEntity
  8
TITLE
100
AcDbBlockReference
  2
Hb
 10
0.0
 20
0.0
 30
0.0
 41
2.25
 42
2.25
 43
2.25
  0
LWPOLYLINE
  5
F7E
330
1E
100
AcDbEntity
  8
BEND
100
AcDbPolyline
 90
        6
 70
     0
 10
3.213128597764143
 20
27.29107915675401
 40
0.0
 41
0.151875
 10
3.618128597764146
 20
27.29107915675401
 40
0.0
 41
0.0
 10
3.985858647841865
 20
27.29107915675401
 40
0.0
 41
0.0
 10
3.985858647841865
 20
32.52638947553615
 40
0.0
 41
0.0
 10
3.618128597764146
 20
32.52638947553615
 40
0.15
 41
0.0
 10
3.213128597764143
 20
32.52638947553615
 40
0.0
 41
0.0
  0
LWPOLYLINE
  5
F85
330
1E
100
AcDbEntity
  8
BEND
100
AcDbPolyline
 90
        6
 70
     0
 10
3.279044676316337
 20
19.25342865371132
 40
0.0
 41
0.151875
 10
3.684044676316338
 20
19.25342865371132
 40
0.0
 41
0.0
 10
4.051774726394058
 20
19.25342865371132
 40
0.0
 41
0.0
 10
4.051774726394058
 20
25.34093704496117
 40
0.0
 41
0.0
 10
3.684044676316338
 20
25.34093704496117
 40
0.15
 41
0.0
 10
3.279044676316337
 20
25.34093704496117
 40
0.0
 41
0.0
  0
LWPOLYLINE
  5
107A
330
1E
100
AcDbEntity
  8
BRACKET
  6
HIDDEN
100
AcDbPolyline
 90
        2
 70
     0
 43
0.0
 10
2.965049782493711
 20
24.61896384933623
 10
2.965049782493711
 20
19.97540184933623
  0
LWPOLYLINE
  5
107B
330
1E
100
AcDbEntity
  8
BRACKET
  6
HIDDEN
100
AcDbPolyline
 90
        2
 70
     0
 43
0.0
 10
7.35404978249371
 20
19.97540184933623
 10
7.35404978249371
 20
24.61896384933623
  0
DIMENSION
  5
107C
330
1E
100
AcDbEntity
  8
DIM
100
AcDbDimension
  2
*D26
 10
1.452677547542859
 20
25.04030784933624
 30
0.0
 11
1.452677547542854
 21
22.29718284933623
 31
0.0
 70
   160
  1
M
 71
     5
 42
5.48625
  3
23NSTD
100
AcDbAlignedDimension
 13
3.082298782493711
 23
19.55405784933623
 33
0.0
 14
3.082298782493711
 24
25.04030784933624
 34
0.0
 50
90.0
100
AcDbRotatedDimension
  0
DIMENSION
  5
107D
330
1E
100
AcDbEntity
  8
DIM
100
AcDbDimension
  2
*D27
 10
2.249123052235623
 20
24.84468384933624
 30
0.0
 11
2.249123052235619
 21
22.29718284933623
 31
0.0
 70
    32
  1
P
 71
     5
 42
5.095002
  3
23NSTD
100
AcDbAlignedDimension
 13
3.200174782493711
 23
19.74968184933623
 33
0.0
 14
3.200174782493711
 24
24.84468384933624
 34
0.0
 50
90.0
100
AcDbRotatedDimension
  0
LWPOLYLINE
  5
1081
102
{ACAD_REACTORS
330
1BC8
102
}
330
1E
100
AcDbEntity
  8
BRACKET
100
AcDbPolyline
 90
        4
 70
     1
 43
0.0
 10
3.094054304007553
 20
11.72507321023416
 10
8.580304304007555
 20
11.72507321023416
 10
8.580304304007555
 20
11.81507321023416
 10
3.094054304007553
 20
11.81507321023416
  0
LWPOLYLINE
  5
108C
330
1E
100
AcDbEntity
  8
BRACKET
100
AcDbPolyline
 90
        6
 70
     0
 43
0.0
 10
2.965049782493711
 20
19.94593284933623
 10
2.965049782493711
 20
19.67130684933623
 42
0.4142135623730951
 10
3.082298782493711
 20
19.55405784933623
 10
7.236800782493709
 20
19.55405784933623
 42
0.4142135623730951
 10
7.35404978249371
 20
19.67130684933623
 10
7.35404978249371
 20
19.94593284933623
  0
CIRCLE
  5
108D
330
1E
100
AcDbEntity
  8
BRACKET
100
AcDbCircle
 10
7.11892478249371
 20
19.74968184933623
 30
0.0
 40
0.0605055
  0
LINE
  5
1095
330
1E
100
AcDbEntity
  8
BRACKET
  6
HIDDEN2
100
AcDbLine
 10
3.229172804007553
 20
11.81507321023416
 30
0.0
 11
3.229172804007553
 21
11.72507321023416
 31
0.0
  0
LINE
  5
1096
330
1E
100
AcDbEntity
  8
BRACKET
  6
HIDDEN2
100
AcDbLine
 10
3.350183804007555
 20
11.81507321023416
 30
0.0
 11
3.350183804007555
 21
11.72507321023416
 31
0.0
  0
DIMENSION
  5
10BF
330
1E
100
AcDbEntity
  8
DIM
100
AcDbDimension
  2
*D28
 10
2.254778457641029
 20
19.55405784933623
 30
0.0
 11
1.278137832641024
 21
18.74405784933623
 31
0.0
 70
   160
  1
0.312
 71
     5
 42
0.1956239999999987
  3
23NSTD
100
AcDbAlignedDimension
 13
3.200174782493711
 23
19.74968184933623
 33
0.0
 14
3.082298782493711
 24
19.55405784933623
 34
0.0
 50
90.0
100
AcDbRotatedDimension
  0
DIMENSION
  5
10C0
330
1E
100
AcDbEntity
  8
DIM
100
AcDbDimension
  2
*D29
 10
3.200174782493711
 20
18.35768631942407
 30
0.0
 11
5.159549782493709
 21
18.35768631942407
 31
0.0
 70
    32
  1
Q
 71
     5
 42
3.918749999999998
  3
23NSTD
100
AcDbAlignedDimension
 13
7.11892478249371
 23
19.74968184933623
 33
0.0
 14
3.200174782493711
 24
19.74968184933623
 34
0.0
 50
180.0
100
AcDbRotatedDimension
  0
DIMENSION
  5
10CB
330
1E
100
AcDbEntity
  8
DIM
100
AcDbDimension
  2
*D30
 10
7.35404978249371
 20
18.35768631942407
 30
0.0
 11
8.770846657493709
 21
18.35768631942407
 31
0.0
 70
    32
  1
0.375
 71
     5
 42
0.235125
  3
23NSTD
100
AcDbAlignedDimension
 13
7.11892478249371
 23
19.74968184933623
 33
0.0
 14
7.35404978249371
 24
19.67130684933623
 34
0.0
 50
0.0000000000000064
100
AcDbRotatedDimension
  0
CIRCLE
  5
10CD
330
1E
100
AcDbEntity
  8
BRACKET
100
AcDbCircle
 10
3.200174782493711
 20
19.74968184933623
 30
0.0
 40
0.0605055
  0
LWPOLYLINE
  5
10DA
330
1E
100
AcDbEntity
  8
BRACKET
100
AcDbPolyline
 90
        6
 70
     0
 43
0.0
 10
7.35404978249371
 20
24.64843284933623
 10
7.35404978249371
 20
24.92305884933623
 42
0.4142135623730949
 10
7.236800782493709
 20
25.04030784933624
 10
3.082298782493711
 20
25.04030784933624
 42
0.4142135623730951
 10
2.965049782493711
 20
24.92305884933623
 10
2.965049782493711
 20
24.64843284933623
  0
CIRCLE
  5
10DB
330
1E
100
AcDbEntity
  8
BRACKET
100
AcDbCircle
 10
7.11892478249371
 20
24.84468384933624
 30
0.0
 40
0.0605055
  0
DIMENSION
  5
10DC
330
1E
100
AcDbEntity
  8
DIM
100
AcDbDimension
  2
*D31
 10
7.35404978249371
 20
17.81898940492935
 30
0.0
 11
5.159549782493709
 21
17.81898940492935
 31
0.0
 70
   160
  1
N
 71
     5
 42
4.388999999999998
  3
23NSTD
100
AcDbAlignedDimension
 13
2.965049782493711
 23
19.67130684933622
 33
0.0
 14
7.35404978249371
 24
19.67130684933623
 34
0.0
 50
180.0
100
AcDbRotatedDimension
  0
DIMENSION
  5
10DF
330
1E
100
AcDbEntity
  8
DIM
100
AcDbDimension
  2
*D32
 10
8.988481304007555
 20
11.81507321023416
 30
0.0
 11
9.965121929007553
 21
12.62507321023416
 31
0.0
 70
    32
 71
     5
 42
0.0899999999999999
  3
23NSTD
100
AcDbAlignedDimension
 13
8.580304304007555
 23
11.72507321023416
 33
0.0
 14
8.580304304007555
 24
11.81507321023416
 34
0.0
 50
270.0
100
AcDbRotatedDimension
  0
LINE
  5
10E6
330
1E
100
AcDbEntity
  8
BRACKET
  6
HIDDEN2
100
AcDbLine
 10
8.445185804007554
 20
11.81507321023416
 30
0.0
 11
8.445185804007554
 21
11.72507321023416
 31
0.0
  0
LINE
  5
10E7
330
1E
100
AcDbEntity
  8
BRACKET
  6
HIDDEN2
100
AcDbLine
 10
8.324174804007554
 20
11.81507321023416
 30
0.0
 11
8.324174804007554
 21
11.72507321023416
 31
0.0
  0
CIRCLE
  5
1102
330
1E
100
AcDbEntity
  8
BRACKET
100
AcDbCircle
 10
3.200174782493711
 20
24.84468384933624
 30
0.0
 40
0.0605055
  0
LINE
  5
1981
330
1E
100
AcDbEntity
  8
TITLE
100
AcDbLine
 10
22.41249999999999
 20
9.967499999999999
 30
0.0
 11
22.41249999999999
 21
0.1395000000000017
 31
0.0
  0
TEXT
  5
1989
330
1E
100
AcDbEntity
  8
TEXT
100
AcDbText
 10
18.88649999999999
 20
9.124666666666668
 30
0.0
 40
0.281
  1
---
 41
0.75
  7
TXT
 72
     4
 11
19.16749999999998
 21
9.265166666666667
 31
0.0
100
AcDbText
  0
TEXT
  5
198A
330
1E
100
AcDbEntity
  8
TEXT
100
AcDbText
 10
18.88649999999999
 20
8.656333333333336
 30
0.0
 40
0.281
  1
---
 41
0.75
  7
TXT
 72
     4
 11
19.16749999999998
 21
8.796833333333335
 31
0.0
100
AcDbText
  0
TEXT
  5
198B
330
1E
100
AcDbEntity
  8
TEXT
100
AcDbText
 10
18.88649999999999
 20
7.719666666666666
 30
0.0
 40
0.281
  1
---
 41
0.75
  7
TXT
 72
     4
 11
19.16749999999998
 21
7.860166666666667
 31
0.0
100
AcDbText
  0
TEXT
  5
198C
330
1E
100
AcDbEntity
  8
TEXT
100
AcDbText
 10
18.88649999999999
 20
8.188000000000002
 30
0.0
 40
0.281
  1
---
 41
0.75
  7
TXT
 72
     4
 11
19.16749999999998
 21
8.328500000000001
 31
0.0
100
AcDbText
  0
TEXT
  5
198D
330
1E
100
AcDbEntity
  8
TEXT
100
AcDbText
 10
18.88649999999999
 20
7.252666666666667
 30
0.0
 40
0.281
  1
---
 41
0.75
  7
TXT
 72
     4
 11
19.16749999999998
 21
7.393166666666667
 31
0.0
100
AcDbText
  0
TEXT
  5
198E
330
1E
100
AcDbEntity
  8
TEXT
100
AcDbText
 10
18.88649999999999
 20
6.784333333333334
 30
0.0
 40
0.281
  1
---
 41
0.75
  7
TXT
 72
     4
 11
19.16749999999998
 21
6.924833333333334
 31
0.0
100
AcDbText
  0
TEXT
  5
198F
330
1E
100
AcDbEntity
  8
TEXT
100
AcDbText
 10
18.88649999999999
 20
4.912333333333334
 30
0.0
 40
0.281
  1
---
 41
0.75
  7
TXT
 72
     4
 11
19.16749999999998
 21
5.052833333333334
 31
0.0
100
AcDbText
  0
TEXT
  5
1990
330
1E
100
AcDbEntity
  8
TEXT
100
AcDbText
 10
18.88649999999999
 20
5.379333333333334
 30
0.0
 40
0.281
  1
---
 41
0.75
  7
TXT
 72
     4
 11
19.16749999999998
 21
5.519833333333334
 31
0.0
100
AcDbText
  0
TEXT
  5
1991
330
1E
100
AcDbEntity
  8
TEXT
100
AcDbText
 10
18.88649999999999
 20
6.316
 30
0.0
 40
0.281
  1
---
 41
0.75
  7
TXT
 72
     4
 11
19.16749999999998
 21
6.456500000000001
 31
0.0
100
AcDbText
  0
TEXT
  5
1992
330
1E
100
AcDbEntity
  8
TEXT
100
AcDbText
 10
18.88649999999999
 20
5.847666666666668
 30
0.0
 40
0.281
  1
---
 41
0.75
  7
TXT
 72
     4
 11
19.16749999999998
 21
5.988166666666669
 31
0.0
100
AcDbText
  0
TEXT
  5
1993
330
1E
100
AcDbEntity
  8
TEXT
100
AcDbText
 10
19.09724999999999
 20
9.593000000000003
 30
0.0
 40
0.281
  1
M
 41
0.75
  7
TXT
 72
     4
 11
19.16749999999998
 21
9.733500000000002
 31
0.0
100
AcDbText
  0
TEXT
  5
1994
330
1E
100
AcDbEntity
  8
TEXT
100
AcDbText
 10
20.18449999999999
 20
5.379333333333334
 30
0.0
 40
0.281
  1
---
 41
0.75
  7
TXT
 72
     4
 11
20.46549999999998
 21
5.519833333333334
 31
0.0
100
AcDbText
  0
TEXT
  5
1995
330
1E
100
AcDbEntity
  8
TEXT
100
AcDbText
 10
20.18449999999999
 20
4.912333333333334
 30
0.0
 40
0.281
  1
---
 41
0.75
  7
TXT
 72
     4
 11
20.46549999999998
 21
5.052833333333334
 31
0.0
100
AcDbText
  0
TEXT
  5
1996
330
1E
100
AcDbEntity
  8
TEXT
100
AcDbText
 10
20.18449999999999
 20
6.316
 30
0.0
 40
0.281
  1
---
 41
0.75
  7
TXT
 72
     4
 11
20.46549999999998
 21
6.456500000000001
 31
0.0
100
AcDbText
  0
TEXT
  5
1997
330
1E
100
AcDbEntity
  8
TEXT
100
AcDbText
 10
20.18449999999999
 20
6.784333333333334
 30
0.0
 40
0.281
  1
---
 41
0.75
  7
TXT
 72
     4
 11
20.46549999999998
 21
6.924833333333334
 31
0.0
100
AcDbText
  0
TEXT
  5
1998
330
1E
100
AcDbEntity
  8
TEXT
100
AcDbText
 10
20.18449999999999
 20
5.847666666666668
 30
0.0
 40
0.281
  1
---
 41
0.75
  7
TXT
 72
     4
 11
20.46549999999998
 21
5.988166666666669
 31
0.0
100
AcDbText
  0
TEXT
  5
1999
330
1E
100
AcDbEntity
  8
TEXT
100
AcDbText
 10
20.18449999999999
 20
8.188000000000002
 30
0.0
 40
0.281
  1
---
 41
0.75
  7
TXT
 72
     4
 11
20.46549999999998
 21
8.328500000000001
 31
0.0
100
AcDbText
  0
TEXT
  5
199A
330
1E
100
AcDbEntity
  8
TEXT
100
AcDbText
 10
20.18449999999999
 20
7.719666666666666
 30
0.0
 40
0.281
  1
---
 41
0.75
  7
TXT
 72
     4
 11
20.46549999999998
 21
7.860166666666667
 31
0.0
100
AcDbText
  0
TEXT
  5
199B
330
1E
100
AcDbEntity
  8
TEXT
100
AcDbText
 10
20.18449999999999
 20
7.252666666666667
 30
0.0
 40
0.281
  1
---
 41
0.75
  7
TXT
 72
     4
 11
20.46549999999998
 21
7.393166666666667
 31
0.0
100
AcDbText
  0
TEXT
  5
199C
330
1E
100
AcDbEntity
  8
TEXT
100
AcDbText
 10
20.18449999999999
 20
9.124666666666668
 30
0.0
 40
0.281
  1
---
 41
0.75
  7
TXT
 72
     4
 11
20.46549999999998
 21
9.265166666666667
 31
0.0
100
AcDbText
  0
TEXT
  5
199D
330
1E
100
AcDbEntity
  8
TEXT
100
AcDbText
 10
20.18449999999999
 20
8.656333333333336
 30
0.0
 40
0.281
  1
---
 41
0.75
  7
TXT
 72
     4
 11
20.46549999999998
 21
8.796833333333335
 31
0.0
100
AcDbText
  0
TEXT
  5
199E
330
1E
100
AcDbEntity
  8
TEXT
100
AcDbText
 10
20.39524999999998
 20
9.593000000000003
 30
0.0
 40
0.281
  1
N
 41
0.75
  7
TXT
 72
     4
 11
20.46549999999998
 21
9.733500000000002
 31
0.0
100
AcDbText
  0
TEXT
  5
199F
330
1E
100
AcDbEntity
  8
TEXT
100
AcDbText
 10
22.7655
 20
5.379333333333334
 30
0.0
 40
0.281
  1
---
 41
0.75
  7
TXT
 72
     4
 11
23.0465
 21
5.519833333333334
 31
0.0
100
AcDbText
  0
TEXT
  5
19A0
330
1E
100
AcDbEntity
  8
TEXT
100
AcDbText
 10
22.7655
 20
4.912333333333334
 30
0.0
 40
0.281
  1
---
 41
0.75
  7
TXT
 72
     4
 11
23.0465
 21
5.052833333333334
 31
0.0
100
AcDbText
  0
TEXT
  5
19A1
330
1E
100
AcDbEntity
  8
TEXT
100
AcDbText
 10
21.4825
 20
5.379333333333334
 30
0.0
 40
0.281
  1
---
 41
0.75
  7
TXT
 72
     4
 11
21.7635
 21
5.519833333333334
 31
0.0
100
AcDbText
  0
TEXT
  5
19A2
330
1E
100
AcDbEntity
  8
TEXT
100
AcDbText
 10
21.4825
 20
4.912333333333334
 30
0.0
 40
0.281
  1
---
 41
0.75
  7
TXT
 72
     4
 11
21.7635
 21
5.052833333333334
 31
0.0
100
AcDbText
  0
TEXT
  5
19A3
330
1E
100
AcDbEntity
  8
TEXT
100
AcDbText
 10
22.7655
 20
8.656333333333336
 30
0.0
 40
0.281
  1
---
 41
0.75
  7
TXT
 72
     4
 11
23.0465
 21
8.796833333333335
 31
0.0
100
AcDbText
  0
TEXT
  5
19A4
330
1E
100
AcDbEntity
  8
TEXT
100
AcDbText
 10
22.7655
 20
9.124666666666668
 30
0.0
 40
0.281
  1
---
 41
0.75
  7
TXT
 72
     4
 11
23.0465
 21
9.265166666666667
 31
0.0
100
AcDbText
  0
TEXT
  5
19A5
330
1E
100
AcDbEntity
  8
TEXT
100
AcDbText
 10
22.7655
 20
7.252666666666667
 30
0.0
 40
0.281
  1
---
 41
0.75
  7
TXT
 72
     4
 11
23.0465
 21
7.393166666666667
 31
0.0
100
AcDbText
  0
TEXT
  5
19A6
330
1E
100
AcDbEntity
  8
TEXT
100
AcDbText
 10
22.7655
 20
7.719666666666666
 30
0.0
 40
0.281
  1
---
 41
0.75
  7
TXT
 72
     4
 11
23.0465
 21
7.860166666666667
 31
0.0
100
AcDbText
  0
TEXT
  5
19A7
330
1E
100
AcDbEntity
  8
TEXT
100
AcDbText
 10
22.7655
 20
8.188000000000002
 30
0.0
 40
0.281
  1
---
 41
0.75
  7
TXT
 72
     4
 11
23.0465
 21
8.328500000000001
 31
0.0
100
AcDbText
  0
TEXT
  5
19A8
330
1E
100
AcDbEntity
  8
TEXT
100
AcDbText
 10
22.7655
 20
5.847666666666668
 30
0.0
 40
0.281
  1
---
 41
0.75
  7
TXT
 72
     4
 11
23.0465
 21
5.988166666666669
 31
0.0
100
AcDbText
  0
TEXT
  5
19A9
330
1E
100
AcDbEntity
  8
TEXT
100
AcDbText
 10
22.7655
 20
6.784333333333334
 30
0.0
 40
0.281
  1
---
 41
0.75
  7
TXT
 72
     4
 11
23.0465
 21
6.924833333333334
 31
0.0
100
AcDbText
  0
TEXT
  5
19AA
330
1E
100
AcDbEntity
  8
TEXT
100
AcDbText
 10
22.7655
 20
6.316
 30
0.0
 40
0.281
  1
---
 41
0.75
  7
TXT
 72
     4
 11
23.0465
 21
6.456500000000001
 31
0.0
100
AcDbText
  0
TEXT
  5
19AB
330
1E
100
AcDbEntity
  8
TEXT
100
AcDbText
 10
21.4825
 20
5.847666666666668
 30
0.0
 40
0.281
  1
---
 41
0.75
  7
TXT
 72
     4
 11
21.7635
 21
5.988166666666669
 31
0.0
100
AcDbText
  0
TEXT
  5
19AC
330
1E
100
AcDbEntity
  8
TEXT
100
AcDbText
 10
21.4825
 20
6.316
 30
0.0
 40
0.281
  1
---
 41
0.75
  7
TXT
 72
     4
 11
21.7635
 21
6.456500000000001
 31
0.0
100
AcDbText
  0
TEXT
  5
19AD
330
1E
100
AcDbEntity
  8
TEXT
100
AcDbText
 10
21.4825
 20
6.784333333333334
 30
0.0
 40
0.281
  1
---
 41
0.75
  7
TXT
 72
     4
 11
21.7635
 21
6.924833333333334
 31
0.0
100
AcDbText
  0
TEXT
  5
19AE
330
1E
100
AcDbEntity
  8
TEXT
100
AcDbText
 10
21.4825
 20
7.252666666666667
 30
0.0
 40
0.281
  1
---
 41
0.75
  7
TXT
 72
     4
 11
21.7635
 21
7.393166666666667
 31
0.0
100
AcDbText
  0
TEXT
  5
19AF
330
1E
100
AcDbEntity
  8
TEXT
100
AcDbText
 10
21.4825
 20
8.188000000000002
 30
0.0
 40
0.281
  1
---
 41
0.75
  7
TXT
 72
     4
 11
21.7635
 21
8.328500000000001
 31
0.0
100
AcDbText
  0
TEXT
  5
19B0
330
1E
100
AcDbEntity
  8
TEXT
100
AcDbText
 10
21.4825
 20
7.719666666666666
 30
0.0
 40
0.281
  1
---
 41
0.75
  7
TXT
 72
     4
 11
21.7635
 21
7.860166666666667
 31
0.0
100
AcDbText
  0
TEXT
  5
19B1
330
1E
100
AcDbEntity
  8
TEXT
100
AcDbText
 10
21.69325
 20
9.593000000000003
 30
0.0
 40
0.281
  1
P
 41
0.75
  7
TXT
 72
     4
 11
21.7635
 21
9.733500000000002
 31
0.0
100
AcDbText
  0
TEXT
  5
19B2
330
1E
100
AcDbEntity
  8
TEXT
100
AcDbText
 10
21.4825
 20
8.656333333333336
 30
0.0
 40
0.281
  1
---
 41
0.75
  7
TXT
 72
     4
 11
21.7635
 21
8.796833333333335
 31
0.0
100
AcDbText
  0
TEXT
  5
19B3
330
1E
100
AcDbEntity
  8
TEXT
100
AcDbText
 10
21.4825
 20
9.124666666666668
 30
0.0
 40
0.281
  1
---
 41
0.75
  7
TXT
 72
     4
 11
21.7635
 21
9.265166666666667
 31
0.0
100
AcDbText
  0
TEXT
  5
19B4
330
1E
100
AcDbEntity
  8
TEXT
100
AcDbText
 10
22.97625
 20
9.593000000000003
 30
0.0
 40
0.281
  1
Q
 41
0.75
  7
TXT
 72
     4
 11
23.0465
 21
9.733500000000002
 31
0.0
100
AcDbText
  0
LINE
  5
1AAD
330
1E
100
AcDbEntity
  8
TITLE
100
AcDbLine
 10
0.1394999999999946
 20
2.947500000000001
 30
0.0
 11
23.71049999999999
 21
2.947500000000001
 31
0.0
  0
LINE
  5
1AAE
330
1E
100
AcDbEntity
  8
TITLE
100
AcDbLine
 10
0.1394999999999946
 20
3.415500000000001
 30
0.0
 11
23.71049999999999
 21
3.415500000000001
 31
0.0
  0
LINE
  5
1AAF
330
1E
100
AcDbEntity
  8
TITLE
100
AcDbLine
 10
0.1394999999999946
 20
3.883500000000001
 30
0.0
 11
23.71049999999999
 21
3.883500000000001
 31
0.0
  0
LINE
  5
1AB0
330
1E
100
AcDbEntity
  8
TITLE
100
AcDbLine
 10
0.1394999999999946
 20
4.351500000000001
 30
0.0
 11
23.71049999999999
 21
4.351500000000001
 31
0.0
  0
LINE
  5
1AB1
330
1E
100
AcDbEntity
  8
TITLE
100
AcDbLine
 10
0.1394999999999946
 20
4.819500000000001
 30
0.0
 11
23.71049999999999
 21
4.819500000000001
 31
0.0
  0
LINE
  5
1AB2
330
1E
100
AcDbEntity
  8
TITLE
100
AcDbLine
 10
0.1394999999999946
 20
1.075500000000003
 30
0.0
 11
23.71049999999999
 21
1.075500000000003
 31
0.0
  0
LINE
  5
1AB3
330
1E
100
AcDbEntity
  8
TITLE
100
AcDbLine
 10
0.1394999999999946
 20
1.543500000000003
 30
0.0
 11
23.71049999999999
 21
1.543500000000003
 31
0.0
  0
LINE
  5
1AB4
330
1E
100
AcDbEntity
  8
TITLE
100
AcDbLine
 10
0.1394999999999946
 20
2.011500000000003
 30
0.0
 11
23.71049999999999
 21
2.011500000000003
 31
0.0
  0
LINE
  5
1AB5
330
1E
100
AcDbEntity
  8
TITLE
100
AcDbLine
 10
0.1394999999999946
 20
2.479500000000002
 30
0.0
 11
23.71049999999999
 21
2.479500000000002
 31
0.0
  0
LINE
  5
1AB6
330
1E
100
AcDbEntity
  8
TITLE
100
AcDbLine
 10
0.1394999999999946
 20
0.6075000000000035
 30
0.0
 11
23.71049999999999
 21
0.6075000000000035
 31
0.0
  0
TEXT
  5
1AB7
330
1E
100
AcDbEntity
  8
TEXT
100
AcDbText
 10
2.278941497247308
 20
0.2323333333333342
 30
0.0
 40
0.281
  1
CU-4479-B
 41
0.75
  7
TXT
 72
     4
 11
3.192191497247308
 21
0.3728333333333342
 31
0.0
100
AcDbText
  0
TEXT
  5
1AB8
330
1E
100
AcDbEntity
  8
TEXT
100
AcDbText
 10
2.278941497247308
 20
0.6996666666666684
 30
0.0
 40
0.281
  1
CU-4478-B
 41
0.75
  7
TXT
 72
     4
 11
3.192191497247308
 21
0.8401666666666685
 31
0.0
100
AcDbText
  0
TEXT
  5
1AB9
330
1E
100
AcDbEntity
  8
TEXT
100
AcDbText
 10
2.278941497247308
 20
1.167999999999999
 30
0.0
 40
0.281
  1
CU-4477-B
 41
0.75
  7
TXT
 72
     4
 11
3.192191497247308
 21
1.308499999999999
 31
0.0
100
AcDbText
  0
TEXT
  5
1ABA
330
1E
100
AcDbEntity
  8
TEXT
100
AcDbText
 10
0.4391914972473111
 20
1.167999999999999
 30
0.0
 40
0.281
  1
CU-4477
 41
0.75
  7
TXT
 72
     4
 11
1.141691497247311
 21
1.308499999999999
 31
0.0
100
AcDbText
  0
TEXT
  5
1ABB
330
1E
100
AcDbEntity
  8
TEXT
100
AcDbText
 10
0.4391914972473111
 20
0.2323333333333342
 30
0.0
 40
0.281
  1
CU-4479
 41
0.75
  7
TXT
 72
     4
 11
1.141691497247311
 21
0.3728333333333342
 31
0.0
100
AcDbText
  0
TEXT
  5
1ABC
330
1E
100
AcDbEntity
  8
TEXT
100
AcDbText
 10
0.4391914972473111
 20
0.6996666666666684
 30
0.0
 40
0.281
  1
CU-4478
 41
0.75
  7
TXT
 72
     4
 11
1.141691497247311
 21
0.8401666666666685
 31
0.0
100
AcDbText
  0
TEXT
  5
1ABD
330
1E
100
AcDbEntity
  8
TEXT
100
AcDbText
 10
4.485562499999994
 20
1.167666666666667
 30
0.0
 40
0.281
  1
7.390
 41
0.75
  7
TXT
 72
     4
 11
4.889499999999993
 21
1.308166666666667
 31
0.0
100
AcDbText
  0
TEXT
  5
1ABE
330
1E
100
AcDbEntity
  8
TEXT
100
AcDbText
 10
4.503124999999993
 20
0.6993333333333347
 30
0.0
 40
0.281
  1
7.500
 41
0.75
  7
TXT
 72
     4
 11
4.889499999999993
 21
0.8398333333333345
 31
0.0
100
AcDbText
  0
TEXT
  5
1ABF
330
1E
100
AcDbEntity
  8
TEXT
100
AcDbText
 10
4.467999999999993
 20
0.2323333333333342
 30
0.0
 40
0.281
  1
4.375
 41
0.75
  7
TXT
 72
     4
 11
4.889499999999993
 21
0.3728333333333342
 31
0.0
100
AcDbText
  0
TEXT
  5
1AC0
330
1E
100
AcDbEntity
  8
TEXT
100
AcDbText
 10
5.783562499999992
 20
1.167666666666667
 30
0.0
 40
0.281
  1
4.703
 41
0.75
  7
TXT
 72
     4
 11
6.187499999999992
 21
1.308166666666667
 31
0.0
100
AcDbText
  0
TEXT
  5
1AC1
330
1E
100
AcDbEntity
  8
TEXT
100
AcDbText
 10
5.801124999999996
 20
0.6993333333333347
 30
0.0
 40
0.281
  1
7.500
 41
0.75
  7
TXT
 72
     4
 11
6.187499999999996
 21
0.8398333333333345
 31
0.0
100
AcDbText
  0
TEXT
  5
1AC2
330
1E
100
AcDbEntity
  8
TEXT
100
AcDbText
 10
5.765999999999996
 20
0.2323333333333342
 30
0.0
 40
0.281
  1
2.375
 41
0.75
  7
TXT
 72
     4
 11
6.187499999999996
 21
0.3728333333333342
 31
0.0
100
AcDbText
  0
TEXT
  5
1AC3
330
1E
100
AcDbEntity
  8
TEXT
100
AcDbText
 10
7.134249999999997
 20
1.167666666666667
 30
0.0
 40
0.281
  1
1.500
 41
0.75
  7
TXT
 72
     4
 11
7.485499999999997
 21
1.308166666666667
 31
0.0
100
AcDbText
  0
TEXT
  5
1AC4
330
1E
100
AcDbEntity
  8
TEXT
100
AcDbText
 10
7.081562499999997
 20
0.6993333333333347
 30
0.0
 40
0.281
  1
2.620
 41
0.75
  7
TXT
 72
     4
 11
7.485499999999997
 21
0.8398333333333345
 31
0.0
100
AcDbText
  0
TEXT
  5
1AC5
330
1E
100
AcDbEntity
  8
TEXT
100
AcDbText
 10
7.099124999999997
 20
0.2323333333333342
 30
0.0
 40
0.281
  1
2.136
 41
0.75
  7
TXT
 72
     4
 11
7.485499999999997
 21
0.3728333333333342
 31
0.0
100
AcDbText
  0
TEXT
  5
1AC6
330
1E
100
AcDbEntity
  8
TEXT
100
AcDbText
 10
2.278941497247308
 20
2.571666666666668
 30
0.0
 40
0.281
  1
CU-4474-B
 41
0.75
  7
TXT
 72
     4
 11
3.192191497247308
 21
2.712166666666667
 31
0.0
100
AcDbText
  0
TEXT
  5
1AC7
330
1E
100
AcDbEntity
  8
TEXT
100
AcDbText
 10
2.278941497247308
 20
2.104666666666667
 30
0.0
 40
0.281
  1
CU-4475-B
 41
0.75
  7
TXT
 72
     4
 11
3.192191497247308
 21
2.245166666666666
 31
0.0
100
AcDbText
  0
TEXT
  5
1AC8
330
1E
100
AcDbEntity
  8
TEXT
100
AcDbText
 10
2.278941497247308
 20
1.636333333333333
 30
0.0
 40
0.281
  1
CU-4476-B
 41
0.75
  7
TXT
 72
     4
 11
3.192191497247308
 21
1.776833333333333
 31
0.0
100
AcDbText
  0
TEXT
  5
1AC9
330
1E
100
AcDbEntity
  8
TEXT
100
AcDbText
 10
2.278941497247308
 20
3.039666666666667
 30
0.0
 40
0.281
  1
CU-4473-B
 41
0.75
  7
TXT
 72
     4
 11
3.192191497247308
 21
3.180166666666667
 31
0.0
100
AcDbText
  0
TEXT
  5
1ACA
330
1E
100
AcDbEntity
  8
TEXT
100
AcDbText
 10
2.278941497247308
 20
3.508000000000001
 30
0.0
 40
0.281
  1
CU-4472-B
 41
0.75
  7
TXT
 72
     4
 11
3.192191497247308
 21
3.648500000000001
 31
0.0
100
AcDbText
  0
TEXT
  5
1ACB
330
1E
100
AcDbEntity
  8
TEXT
100
AcDbText
 10
2.314066497247308
 20
3.976333333333334
 30
0.0
 40
0.281
  1
CU-4471-B
 41
0.75
  7
TXT
 72
     4
 11
3.192191497247308
 21
4.116833333333334
 31
0.0
100
AcDbText
  0
TEXT
  5
1ACC
330
1E
100
AcDbEntity
  8
TEXT
100
AcDbText
 10
2.296503997247308
 20
4.444666666666667
 30
0.0
 40
0.281
  1
CU-4470-B
 41
0.75
  7
TXT
 72
     4
 11
3.192191497247308
 21
4.585166666666667
 31
0.0
100
AcDbText
  0
TEXT
  5
1ACD
330
1E
100
AcDbEntity
  8
TEXT
100
AcDbText
 10
0.4743164972473112
 20
3.976333333333334
 30
0.0
 40
0.281
  1
CU-4471
 41
0.75
  7
TXT
 72
     4
 11
1.141691497247311
 21
4.116833333333334
 31
0.0
100
AcDbText
  0
TEXT
  5
1ACE
330
1E
100
AcDbEntity
  8
TEXT
100
AcDbText
 10
0.4391914972473111
 20
2.571666666666668
 30
0.0
 40
0.281
  1
CU-4474
 41
0.75
  7
TXT
 72
     4
 11
1.141691497247311
 21
2.712166666666667
 31
0.0
100
AcDbText
  0
TEXT
  5
1ACF
330
1E
100
AcDbEntity
  8
TEXT
100
AcDbText
 10
0.4391914972473111
 20
2.104666666666667
 30
0.0
 40
0.281
  1
CU-4475
 41
0.75
  7
TXT
 72
     4
 11
1.141691497247311
 21
2.245166666666666
 31
0.0
100
AcDbText
  0
TEXT
  5
1AD0
330
1E
100
AcDbEntity
  8
TEXT
100
AcDbText
 10
0.4391914972473111
 20
1.636333333333333
 30
0.0
 40
0.281
  1
CU-4476
 41
0.75
  7
TXT
 72
     4
 11
1.141691497247311
 21
1.776833333333333
 31
0.0
100
AcDbText
  0
TEXT
  5
1AD1
330
1E
100
AcDbEntity
  8
TEXT
100
AcDbText
 10
0.4391914972473111
 20
3.039666666666667
 30
0.0
 40
0.281
  1
CU-4473
 41
0.75
  7
TXT
 72
     4
 11
1.141691497247311
 21
3.180166666666667
 31
0.0
100
AcDbText
  0
TEXT
  5
1AD2
330
1E
100
AcDbEntity
  8
TEXT
100
AcDbText
 10
0.4391914972473111
 20
3.508000000000001
 30
0.0
 40
0.281
  1
CU-4472
 41
0.75
  7
TXT
 72
     4
 11
1.141691497247311
 21
3.648500000000001
 31
0.0
100
AcDbText
  0
TEXT
  5
1AD3
330
1E
100
AcDbEntity
  8
TEXT
100
AcDbText
 10
0.456753997247311
 20
4.444666666666667
 30
0.0
 40
0.281
  1
CU-4470
 41
0.75
  7
TXT
 72
     4
 11
1.141691497247311
 21
4.585166666666667
 31
0.0
100
AcDbText
  0
TEXT
  5
1AD4
330
1E
100
AcDbEntity
  8
TEXT
100
AcDbText
 10
4.485562499999994
 20
3.976333333333334
 30
0.0
 40
0.281
  1
4.330
 41
0.75
  7
TXT
 72
     4
 11
4.889499999999993
 21
4.116833333333334
 31
0.0
100
AcDbText
  0
TEXT
  5
1AD5
330
1E
100
AcDbEntity
  8
TEXT
100
AcDbText
 10
4.485562499999994
 20
2.572666666666667
 30
0.0
 40
0.281
  1
4.750
 41
0.75
  7
TXT
 72
     4
 11
4.889499999999993
 21
2.713166666666666
 31
0.0
100
AcDbText
  0
TEXT
  5
1AD6
330
1E
100
AcDbEntity
  8
TEXT
100
AcDbText
 10
4.520687499999993
 20
1.635999999999999
 30
0.0
 40
0.281
  1
6.000
 41
0.75
  7
TXT
 72
     4
 11
4.889499999999993
 21
1.776499999999999
 31
0.0
100
AcDbText
  0
TEXT
  5
1AD7
330
1E
100
AcDbEntity
  8
TEXT
100
AcDbText
 10
4.485562499999994
 20
2.104333333333335
 30
0.0
 40
0.281
  1
4.750
 41
0.75
  7
TXT
 72
     4
 11
4.889499999999993
 21
2.244833333333335
 31
0.0
100
AcDbText
  0
TEXT
  5
1AD8
330
1E
100
AcDbEntity
  8
TEXT
100
AcDbText
 10
4.485562499999994
 20
3.508000000000001
 30
0.0
 40
0.281
  1
4.750
 41
0.75
  7
TXT
 72
     4
 11
4.889499999999993
 21
3.648500000000001
 31
0.0
100
AcDbText
  0
TEXT
  5
1AD9
330
1E
100
AcDbEntity
  8
TEXT
100
AcDbText
 10
4.467999999999993
 20
3.039666666666667
 30
0.0
 40
0.281
  1
4.688
 41
0.75
  7
TXT
 72
     4
 11
4.889499999999993
 21
3.180166666666667
 31
0.0
100
AcDbText
  0
TEXT
  5
1ADA
330
1E
100
AcDbEntity
  8
TEXT
100
AcDbText
 10
4.520687499999993
 20
4.444666666666667
 30
0.0
 40
0.281
  1
2.000
 41
0.75
  7
TXT
 72
     4
 11
4.889499999999993
 21
4.585166666666667
 31
0.0
100
AcDbText
  0
TEXT
  5
1ADB
330
1E
100
AcDbEntity
  8
TEXT
100
AcDbText
 10
7.116687499999997
 20
3.976333333333334
 30
0.0
 40
0.281
  1
1.750
 41
0.75
  7
TXT
 72
     4
 11
7.485499999999997
 21
4.116833333333334
 31
0.0
100
AcDbText
  0
TEXT
  5
1ADC
330
1E
100
AcDbEntity
  8
TEXT
100
AcDbText
 10
5.783562499999996
 20
3.976333333333334
 30
0.0
 40
0.281
  1
3.250
 41
0.75
  7
TXT
 72
     4
 11
6.187499999999996
 21
4.116833333333334
 31
0.0
100
AcDbText
  0
TEXT
  5
1ADD
330
1E
100
AcDbEntity
  8
TEXT
100
AcDbText
 10
5.783562499999992
 20
2.572666666666667
 30
0.0
 40
0.281
  1
4.750
 41
0.75
  7
TXT
 72
     4
 11
6.187499999999992
 21
2.713166666666666
 31
0.0
100
AcDbText
  0
TEXT
  5
1ADE
330
1E
100
AcDbEntity
  8
TEXT
100
AcDbText
 10
5.783562499999992
 20
1.635999999999999
 30
0.0
 40
0.281
  1
3.250
 41
0.75
  7
TXT
 72
     4
 11
6.187499999999992
 21
1.776499999999999
 31
0.0
100
AcDbText
  0
TEXT
  5
1ADF
330
1E
100
AcDbEntity
  8
TEXT
100
AcDbText
 10
5.783562499999992
 20
2.104333333333335
 30
0.0
 40
0.281
  1
4.750
 41
0.75
  7
TXT
 72
     4
 11
6.187499999999992
 21
2.244833333333335
 31
0.0
100
AcDbText
  0
TEXT
  5
1AE0
330
1E
100
AcDbEntity
  8
TEXT
100
AcDbText
 10
5.818687499999996
 20
3.508000000000001
 30
0.0
 40
0.281
  1
3.150
 41
0.75
  7
TXT
 72
     4
 11
6.187499999999996
 21
3.648500000000001
 31
0.0
100
AcDbText
  0
TEXT
  5
1AE1
330
1E
100
AcDbEntity
  8
TEXT
100
AcDbText
 10
5.765999999999996
 20
3.039666666666667
 30
0.0
 40
0.281
  1
3.688
 41
0.75
  7
TXT
 72
     4
 11
6.187499999999996
 21
3.180166666666667
 31
0.0
100
AcDbText
  0
TEXT
  5
1AE2
330
1E
100
AcDbEntity
  8
TEXT
100
AcDbText
 10
7.081562499999997
 20
2.572666666666667
 30
0.0
 40
0.281
  1
2.330
 41
0.75
  7
TXT
 72
     4
 11
7.485499999999997
 21
2.713166666666666
 31
0.0
100
AcDbText
  0
TEXT
  5
1AE3
330
1E
100
AcDbEntity
  8
TEXT
100
AcDbText
 10
7.116687499999997
 20
1.635999999999999
 30
0.0
 40
0.281
  1
2.000
 41
0.75
  7
TXT
 72
     4
 11
7.485499999999997
 21
1.776499999999999
 31
0.0
100
AcDbText
  0
TEXT
  5
1AE4
330
1E
100
AcDbEntity
  8
TEXT
100
AcDbText
 10
7.081562499999997
 20
2.104333333333335
 30
0.0
 40
0.281
  1
3.750
 41
0.75
  7
TXT
 72
     4
 11
7.485499999999997
 21
2.244833333333335
 31
0.0
100
AcDbText
  0
TEXT
  5
1AE5
330
1E
100
AcDbEntity
  8
TEXT
100
AcDbText
 10
7.081562499999997
 20
3.508000000000001
 30
0.0
 40
0.281
  1
2.330
 41
0.75
  7
TXT
 72
     4
 11
7.485499999999997
 21
3.648500000000001
 31
0.0
100
AcDbText
  0
TEXT
  5
1AE6
330
1E
100
AcDbEntity
  8
TEXT
100
AcDbText
 10
7.116687499999997
 20
3.039666666666667
 30
0.0
 40
0.281
  1
1.340
 41
0.75
  7
TXT
 72
     4
 11
7.485499999999997
 21
3.180166666666667
 31
0.0
100
AcDbText
  0
TEXT
  5
1AE7
330
1E
100
AcDbEntity
  8
TEXT
100
AcDbText
 10
5.818687499999996
 20
4.444666666666667
 30
0.0
 40
0.281
  1
2.000
 41
0.75
  7
TXT
 72
     4
 11
6.187499999999996
 21
4.585166666666667
 31
0.0
100
AcDbText
  0
TEXT
  5
1AE8
330
1E
100
AcDbEntity
  8
TEXT
100
AcDbText
 10
7.116687499999997
 20
4.444666666666667
 30
0.0
 40
0.281
  1
1.250
 41
0.75
  7
TXT
 72
     4
 11
7.485499999999997
 21
4.585166666666667
 31
0.0
100
AcDbText
  0
TEXT
  5
1AE9
330
1E
100
AcDbEntity
  8
TEXT
100
AcDbText
 10
17.50068749999999
 20
4.444666666666669
 30
0.0
 40
0.281
  1
0.188
 41
0.75
  7
TXT
 72
     4
 11
17.8695
 21
4.585166666666669
 31
0.0
100
AcDbText
  0
TEXT
  5
1AEA
330
1E
100
AcDbEntity
  8
TEXT
100
AcDbText
 10
17.50068749999999
 20
3.976333333333336
 30
0.0
 40
0.281
  1
0.188
 41
0.75
  7
TXT
 72
     4
 11
17.8695
 21
4.116833333333336
 31
0.0
100
AcDbText
  0
TEXT
  5
1AEB
330
1E
100
AcDbEntity
  8
TEXT
100
AcDbText
 10
17.50068749999999
 20
3.508000000000001
 30
0.0
 40
0.281
  1
0.188
 41
0.75
  7
TXT
 72
     4
 11
17.8695
 21
3.648500000000001
 31
0.0
100
AcDbText
  0
TEXT
  5
1AEC
330
1E
100
AcDbEntity
  8
TEXT
100
AcDbText
 10
17.50068749999999
 20
3.039666666666668
 30
0.0
 40
0.281
  1
0.188
 41
0.75
  7
TXT
 72
     4
 11
17.8695
 21
3.180166666666668
 31
0.0
100
AcDbText
  0
TEXT
  5
1AED
330
1E
100
AcDbEntity
  8
TEXT
100
AcDbText
 10
17.50068749999999
 20
2.571333333333336
 30
0.0
 40
0.281
  1
0.188
 41
0.75
  7
TXT
 72
     4
 11
17.8695
 21
2.711833333333335
 31
0.0
100
AcDbText
  0
TEXT
  5
1AEE
330
1E
100
AcDbEntity
  8
TEXT
100
AcDbText
 10
17.50068749999999
 20
2.103000000000003
 30
0.0
 40
0.281
  1
0.188
 41
0.75
  7
TXT
 72
     4
 11
17.8695
 21
2.243500000000003
 31
0.0
100
AcDbText
  0
TEXT
  5
1AEF
330
1E
100
AcDbEntity
  8
TEXT
100
AcDbText
 10
17.50068749999999
 20
1.634666666666669
 30
0.0
 40
0.281
  1
0.195
 41
0.75
  7
TXT
 72
     4
 11
17.8695
 21
1.775166666666669
 31
0.0
100
AcDbText
  0
TEXT
  5
1AF0
330
1E
100
AcDbEntity
  8
TEXT
100
AcDbText
 10
17.50068749999999
 20
1.166333333333336
 30
0.0
 40
0.281
  1
0.195
 41
0.75
  7
TXT
 72
     4
 11
17.8695
 21
1.306833333333336
 31
0.0
100
AcDbText
  0
TEXT
  5
1AF1
330
1E
100
AcDbEntity
  8
TEXT
100
AcDbText
 10
17.50068749999999
 20
0.6980000000000033
 30
0.0
 40
0.281
  1
0.195
 41
0.75
  7
TXT
 72
     4
 11
17.8695
 21
0.8385000000000033
 31
0.0
100
AcDbText
  0
TEXT
  5
1AF2
330
1E
100
AcDbEntity
  8
TEXT
100
AcDbText
 10
17.50068749999999
 20
0.2323333333333359
 30
0.0
 40
0.281
  1
0.188
 41
0.75
  7
TXT
 72
     4
 11
17.8695
 21
0.372833333333336
 31
0.0
100
AcDbText
  0
TEXT
  5
1AF3
330
1E
100
AcDbEntity
  8
TEXT
100
AcDbText
 10
12.29112499999999
 20
1.167666666666667
 30
0.0
 40
0.281
  1
3.500
 41
0.75
  7
TXT
 72
     4
 11
12.67749999999999
 21
1.308166666666667
 31
0.0
100
AcDbText
  0
TEXT
  5
1AF4
330
1E
100
AcDbEntity
  8
TEXT
100
AcDbText
 10
12.25599999999999
 20
0.6993333333333347
 30
0.0
 40
0.281
  1
3.555
 41
0.75
  7
TXT
 72
     4
 11
12.67749999999999
 21
0.8398333333333345
 31
0.0
100
AcDbText
  0
TEXT
  5
1AF5
330
1E
100
AcDbEntity
  8
TEXT
100
AcDbText
 10
12.39649999999999
 20
0.2323333333333342
 30
0.0
 40
0.281
  1
---
 41
0.75
  7
TXT
 72
     4
 11
12.67749999999999
 21
0.3728333333333342
 31
0.0
100
AcDbText
  0
TEXT
  5
1AF6
330
1E
100
AcDbEntity
  8
TEXT
100
AcDbText
 10
8.397124999999997
 20
1.167666666666667
 30
0.0
 40
0.281
  1
1.344
 41
0.75
  7
TXT
 72
     4
 11
8.783499999999996
 21
1.308166666666667
 31
0.0
100
AcDbText
  0
TEXT
  5
1AF7
330
1E
100
AcDbEntity
  8
TEXT
100
AcDbText
 10
8.361999999999996
 20
0.6993333333333347
 30
0.0
 40
0.281
  1
2.464
 41
0.75
  7
TXT
 72
     4
 11
8.783499999999996
 21
0.8398333333333345
 31
0.0
100
AcDbText
  0
TEXT
  5
1AF8
330
1E
100
AcDbEntity
  8
TEXT
100
AcDbText
 10
8.414687499999995
 20
0.2323333333333342
 30
0.0
 40
0.281
  1
1.980
 41
0.75
  7
TXT
 72
     4
 11
8.783499999999996
 21
0.3728333333333342
 31
0.0
100
AcDbText
  0
TEXT
  5
1AF9
330
1E
100
AcDbEntity
  8
TEXT
100
AcDbText
 10
9.71268749999999
 20
1.167666666666667
 30
0.0
 40
0.281
  1
7.000
 41
0.75
  7
TXT
 72
     4
 11
10.08149999999999
 21
1.308166666666667
 31
0.0
100
AcDbText
  0
TEXT
  5
1AFA
330
1E
100
AcDbEntity
  8
TEXT
100
AcDbText
 10
9.747812499999991
 20
0.6993333333333347
 30
0.0
 40
0.281
  1
7.110
 41
0.75
  7
TXT
 72
     4
 11
10.08149999999999
 21
0.8398333333333345
 31
0.0
100
AcDbText
  0
TEXT
  5
1AFB
330
1E
100
AcDbEntity
  8
TEXT
100
AcDbText
 10
9.71268749999999
 20
0.2323333333333342
 30
0.0
 40
0.281
  1
4.000
 41
0.75
  7
TXT
 72
     4
 11
10.08149999999999
 21
0.3728333333333342
 31
0.0
100
AcDbText
  0
TEXT
  5
1AFC
330
1E
100
AcDbEntity
  8
TEXT
100
AcDbText
 10
10.99312499999999
 20
1.167666666666667
 30
0.0
 40
0.281
  1
4.313
 41
0.75
  7
TXT
 72
     4
 11
11.37949999999999
 21
1.308166666666667
 31
0.0
100
AcDbText
  0
TEXT
  5
1AFD
330
1E
100
AcDbEntity
  8
TEXT
100
AcDbText
 10
11.01068749999999
 20
0.2323333333333342
 30
0.0
 40
0.281
  1
2.000
 41
0.75
  7
TXT
 72
     4
 11
11.37949999999999
 21
0.3728333333333342
 31
0.0
100
AcDbText
  0
TEXT
  5
1AFE
330
1E
100
AcDbEntity
  8
TEXT
100
AcDbText
 10
11.04581249999999
 20
0.6993333333333347
 30
0.0
 40
0.281
  1
7.110
 41
0.75
  7
TXT
 72
     4
 11
11.37949999999999
 21
0.8398333333333345
 31
0.0
100
AcDbText
  0
TEXT
  5
1AFF
330
1E
100
AcDbEntity
  8
TEXT
100
AcDbText
 10
14.88712499999999
 20
1.167666666666667
 30
0.0
 40
0.281
  1
0.094
 41
0.75
  7
TXT
 72
     4
 11
15.27349999999999
 21
1.308166666666667
 31
0.0
100
AcDbText
  0
TEXT
  5
1B00
330
1E
100
AcDbEntity
  8
TEXT
100
AcDbText
 10
14.88712499999999
 20
0.6993333333333347
 30
0.0
 40
0.281
  1
0.094
 41
0.75
  7
TXT
 72
     4
 11
15.27349999999999
 21
0.8398333333333345
 31
0.0
100
AcDbText
  0
TEXT
  5
1B01
330
1E
100
AcDbEntity
  8
TEXT
100
AcDbText
 10
14.88712499999999
 20
0.2323333333333342
 30
0.0
 40
0.281
  1
0.065
 41
0.75
  7
TXT
 72
     4
 11
15.27349999999999
 21
0.3728333333333342
 31
0.0
100
AcDbText
  0
TEXT
  5
1B02
330
1E
100
AcDbEntity
  8
TEXT
100
AcDbText
 10
13.69449999999998
 20
1.167666666666667
 30
0.0
 40
0.281
  1
---
 41
0.75
  7
TXT
 72
     4
 11
13.97549999999998
 21
1.308166666666667
 31
0.0
100
AcDbText
  0
TEXT
  5
1B03
330
1E
100
AcDbEntity
  8
TEXT
100
AcDbText
 10
13.69449999999998
 20
0.2323333333333342
 30
0.0
 40
0.281
  1
---
 41
0.75
  7
TXT
 72
     4
 11
13.97549999999998
 21
0.3728333333333342
 31
0.0
100
AcDbText
  0
TEXT
  5
1B04
330
1E
100
AcDbEntity
  8
TEXT
100
AcDbText
 10
13.55399999999999
 20
0.6993333333333347
 30
0.0
 40
0.281
  1
3.555
 41
0.75
  7
TXT
 72
     4
 11
13.97549999999998
 21
0.8398333333333345
 31
0.0
100
AcDbText
  0
TEXT
  5
1B05
330
1E
100
AcDbEntity
  8
TEXT
100
AcDbText
 10
16.185125
 20
1.167666666666667
 30
0.0
 40
0.281
  1
0.078
 41
0.75
  7
TXT
 72
     4
 11
16.5715
 21
1.308166666666667
 31
0.0
100
AcDbText
  0
TEXT
  5
1B06
330
1E
100
AcDbEntity
  8
TEXT
100
AcDbText
 10
16.185125
 20
0.6993333333333347
 30
0.0
 40
0.281
  1
0.078
 41
0.75
  7
TXT
 72
     4
 11
16.5715
 21
0.8398333333333345
 31
0.0
100
AcDbText
  0
TEXT
  5
1B07
330
1E
100
AcDbEntity
  8
TEXT
100
AcDbText
 10
16.185125
 20
0.2323333333333342
 30
0.0
 40
0.281
  1
0.078
 41
0.75
  7
TXT
 72
     4
 11
16.5715
 21
0.3728333333333342
 31
0.0
100
AcDbText
  0
TEXT
  5
1B08
330
1E
100
AcDbEntity
  8
TEXT
100
AcDbText
 10
12.27356249999999
 20
1.635999999999999
 30
0.0
 40
0.281
  1
2.805
 41
0.75
  7
TXT
 72
     4
 11
12.67749999999999
 21
1.776499999999999
 31
0.0
100
AcDbText
  0
TEXT
  5
1B09
330
1E
100
AcDbEntity
  8
TEXT
100
AcDbText
 10
12.39649999999999
 20
2.104333333333335
 30
0.0
 40
0.281
  1
---
 41
0.75
  7
TXT
 72
     4
 11
12.67749999999999
 21
2.244833333333335
 31
0.0
100
AcDbText
  0
TEXT
  5
1B0A
330
1E
100
AcDbEntity
  8
TEXT
100
AcDbText
 10
12.39649999999999
 20
2.572666666666667
 30
0.0
 40
0.281
  1
---
 41
0.75
  7
TXT
 72
     4
 11
12.67749999999999
 21
2.713166666666666
 31
0.0
100
AcDbText
  0
TEXT
  5
1B0B
330
1E
100
AcDbEntity
  8
TEXT
100
AcDbText
 10
12.39649999999999
 20
3.508000000000001
 30
0.0
 40
0.281
  1
---
 41
0.75
  7
TXT
 72
     4
 11
12.67749999999999
 21
3.648500000000001
 31
0.0
100
AcDbText
  0
TEXT
  5
1B0C
330
1E
100
AcDbEntity
  8
TEXT
100
AcDbText
 10
12.39649999999999
 20
3.039666666666667
 30
0.0
 40
0.281
  1
---
 41
0.75
  7
TXT
 72
     4
 11
12.67749999999999
 21
3.180166666666667
 31
0.0
100
AcDbText
  0
TEXT
  5
1B0D
330
1E
100
AcDbEntity
  8
TEXT
100
AcDbText
 10
12.39649999999999
 20
3.976333333333334
 30
0.0
 40
0.281
  1
---
 41
0.75
  7
TXT
 72
     4
 11
12.67749999999999
 21
4.116833333333334
 31
0.0
100
AcDbText
  0
TEXT
  5
1B0E
330
1E
100
AcDbEntity
  8
TEXT
100
AcDbText
 10
12.39649999999999
 20
4.444666666666667
 30
0.0
 40
0.281
  1
---
 41
0.75
  7
TXT
 72
     4
 11
12.67749999999999
 21
4.585166666666667
 31
0.0
100
AcDbText
  0
TEXT
  5
1B0F
330
1E
100
AcDbEntity
  8
TEXT
100
AcDbText
 10
9.659999999999991
 20
3.976333333333334
 30
0.0
 40
0.281
  1
3.955
 41
0.75
  7
TXT
 72
     4
 11
10.08149999999999
 21
4.116833333333334
 31
0.0
100
AcDbText
  0
TEXT
  5
1B10
330
1E
100
AcDbEntity
  8
TEXT
100
AcDbText
 10
9.659999999999991
 20
3.508000000000001
 30
0.0
 40
0.281
  1
4.375
 41
0.75
  7
TXT
 72
     4
 11
10.08149999999999
 21
3.648500000000001
 31
0.0
100
AcDbText
  0
TEXT
  5
1B11
330
1E
100
AcDbEntity
  8
TEXT
100
AcDbText
 10
9.659999999999991
 20
2.572666666666667
 30
0.0
 40
0.281
  1
4.375
 41
0.75
  7
TXT
 72
     4
 11
10.08149999999999
 21
2.713166666666666
 31
0.0
100
AcDbText
  0
TEXT
  5
1B12
330
1E
100
AcDbEntity
  8
TEXT
100
AcDbText
 10
9.659999999999991
 20
2.104333333333335
 30
0.0
 40
0.281
  1
4.375
 41
0.75
  7
TXT
 72
     4
 11
10.08149999999999
 21
2.244833333333335
 31
0.0
100
AcDbText
  0
TEXT
  5
1B13
330
1E
100
AcDbEntity
  8
TEXT
100
AcDbText
 10
8.397124999999997
 20
3.976333333333334
 30
0.0
 40
0.281
  1
1.594
 41
0.75
  7
TXT
 72
     4
 11
8.783499999999996
 21
4.116833333333334
 31
0.0
100
AcDbText
  0
TEXT
  5
1B14
330
1E
100
AcDbEntity
  8
TEXT
100
AcDbText
 10
8.397124999999997
 20
2.572666666666667
 30
0.0
 40
0.281
  1
2.174
 41
0.75
  7
TXT
 72
     4
 11
8.783499999999996
 21
2.713166666666666
 31
0.0
100
AcDbText
  0
TEXT
  5
1B15
330
1E
100
AcDbEntity
  8
TEXT
100
AcDbText
 10
8.397124999999997
 20
1.635999999999999
 30
0.0
 40
0.281
  1
1.844
 41
0.75
  7
TXT
 72
     4
 11
8.783499999999996
 21
1.776499999999999
 31
0.0
100
AcDbText
  0
TEXT
  5
1B16
330
1E
100
AcDbEntity
  8
TEXT
100
AcDbText
 10
8.361999999999996
 20
2.104333333333335
 30
0.0
 40
0.281
  1
3.594
 41
0.75
  7
TXT
 72
     4
 11
8.783499999999996
 21
2.244833333333335
 31
0.0
100
AcDbText
  0
TEXT
  5
1B17
330
1E
100
AcDbEntity
  8
TEXT
100
AcDbText
 10
8.397124999999997
 20
3.508000000000001
 30
0.0
 40
0.281
  1
2.174
 41
0.75
  7
TXT
 72
     4
 11
8.783499999999996
 21
3.648500000000001
 31
0.0
100
AcDbText
  0
TEXT
  5
1B18
330
1E
100
AcDbEntity
  8
TEXT
100
AcDbText
 10
8.432249999999996
 20
3.039666666666667
 30
0.0
 40
0.281
  1
1.184
 41
0.75
  7
TXT
 72
     4
 11
8.783499999999996
 21
3.180166666666667
 31
0.0
100
AcDbText
  0
TEXT
  5
1B19
330
1E
100
AcDbEntity
  8
TEXT
100
AcDbText
 10
9.71268749999999
 20
1.635999999999999
 30
0.0
 40
0.281
  1
5.610
 41
0.75
  7
TXT
 72
     4
 11
10.08149999999999
 21
1.776499999999999
 31
0.0
100
AcDbText
  0
TEXT
  5
1B1A
330
1E
100
AcDbEntity
  8
TEXT
100
AcDbText
 10
9.695124999999991
 20
3.039666666666667
 30
0.0
 40
0.281
  1
4.313
 41
0.75
  7
TXT
 72
     4
 11
10.08149999999999
 21
3.180166666666667
 31
0.0
100
AcDbText
  0
TEXT
  5
1B1B
330
1E
100
AcDbEntity
  8
TEXT
100
AcDbText
 10
8.414687499999995
 20
4.444666666666667
 30
0.0
 40
0.281
  1
1.094
 41
0.75
  7
TXT
 72
     4
 11
8.783499999999996
 21
4.585166666666667
 31
0.0
100
AcDbText
  0
TEXT
  5
1B1C
330
1E
100
AcDbEntity
  8
TEXT
100
AcDbText
 10
9.695124999999991
 20
4.444666666666667
 30
0.0
 40
0.281
  1
1.625
 41
0.75
  7
TXT
 72
     4
 11
10.08149999999999
 21
4.585166666666667
 31
0.0
100
AcDbText
  0
TEXT
  5
1B1D
330
1E
100
AcDbEntity
  8
TEXT
100
AcDbText
 10
10.95799999999999
 20
3.976333333333334
 30
0.0
 40
0.281
  1
2.875
 41
0.75
  7
TXT
 72
     4
 11
11.37949999999999
 21
4.116833333333334
 31
0.0
100
AcDbText
  0
TEXT
  5
1B1E
330
1E
100
AcDbEntity
  8
TEXT
100
AcDbText
 10
10.95799999999999
 20
3.508000000000001
 30
0.0
 40
0.281
  1
2.775
 41
0.75
  7
TXT
 72
     4
 11
11.37949999999999
 21
3.648500000000001
 31
0.0
100
AcDbText
  0
TEXT
  5
1B1F
330
1E
100
AcDbEntity
  8
TEXT
100
AcDbText
 10
10.99312499999999
 20
3.039666666666667
 30
0.0
 40
0.281
  1
3.313
 41
0.75
  7
TXT
 72
     4
 11
11.37949999999999
 21
3.180166666666667
 31
0.0
100
AcDbText
  0
TEXT
  5
1B20
330
1E
100
AcDbEntity
  8
TEXT
100
AcDbText
 10
10.97556249999999
 20
1.635999999999999
 30
0.0
 40
0.281
  1
2.860
 41
0.75
  7
TXT
 72
     4
 11
11.37949999999999
 21
1.776499999999999
 31
0.0
100
AcDbText
  0
TEXT
  5
1B21
330
1E
100
AcDbEntity
  8
TEXT
100
AcDbText
 10
10.95799999999999
 20
2.572666666666667
 30
0.0
 40
0.281
  1
4.375
 41
0.75
  7
TXT
 72
     4
 11
11.37949999999999
 21
2.713166666666666
 31
0.0
100
AcDbText
  0
TEXT
  5
1B22
330
1E
100
AcDbEntity
  8
TEXT
100
AcDbText
 10
10.95799999999999
 20
2.104333333333335
 30
0.0
 40
0.281
  1
4.375
 41
0.75
  7
TXT
 72
     4
 11
11.37949999999999
 21
2.244833333333335
 31
0.0
100
AcDbText
  0
TEXT
  5
1B23
330
1E
100
AcDbEntity
  8
TEXT
100
AcDbText
 10
10.99312499999999
 20
4.444666666666667
 30
0.0
 40
0.281
  1
1.625
 41
0.75
  7
TXT
 72
     4
 11
11.37949999999999
 21
4.585166666666667
 31
0.0
100
AcDbText
  0
TEXT
  5
1B24
330
1E
100
AcDbEntity
  8
TEXT
100
AcDbText
 10
14.88712499999999
 20
4.444666666666667
 30
0.0
 40
0.281
  1
0.065
 41
0.75
  7
TXT
 72
     4
 11
15.27349999999999
 21
4.585166666666667
 31
0.0
100
AcDbText
  0
TEXT
  5
1B25
330
1E
100
AcDbEntity
  8
TEXT
100
AcDbText
 10
14.88712499999999
 20
3.976333333333334
 30
0.0
 40
0.281
  1
0.094
 41
0.75
  7
TXT
 72
     4
 11
15.27349999999999
 21
4.116833333333334
 31
0.0
100
AcDbText
  0
TEXT
  5
1B26
330
1E
100
AcDbEntity
  8
TEXT
100
AcDbText
 10
14.88712499999999
 20
3.508000000000001
 30
0.0
 40
0.281
  1
0.094
 41
0.75
  7
TXT
 72
     4
 11
15.27349999999999
 21
3.648500000000001
 31
0.0
100
AcDbText
  0
TEXT
  5
1B27
330
1E
100
AcDbEntity
  8
TEXT
100
AcDbText
 10
14.88712499999999
 20
3.039666666666667
 30
0.0
 40
0.281
  1
0.094
 41
0.75
  7
TXT
 72
     4
 11
15.27349999999999
 21
3.180166666666667
 31
0.0
100
AcDbText
  0
TEXT
  5
1B28
330
1E
100
AcDbEntity
  8
TEXT
100
AcDbText
 10
14.88712499999999
 20
1.635999999999999
 30
0.0
 40
0.281
  1
0.094
 41
0.75
  7
TXT
 72
     4
 11
15.27349999999999
 21
1.776499999999999
 31
0.0
100
AcDbText
  0
TEXT
  5
1B29
330
1E
100
AcDbEntity
  8
TEXT
100
AcDbText
 10
14.88712499999999
 20
2.104333333333335
 30
0.0
 40
0.281
  1
0.094
 41
0.75
  7
TXT
 72
     4
 11
15.27349999999999
 21
2.244833333333335
 31
0.0
100
AcDbText
  0
TEXT
  5
1B2A
330
1E
100
AcDbEntity
  8
TEXT
100
AcDbText
 10
14.88712499999999
 20
2.572666666666667
 30
0.0
 40
0.281
  1
0.094
 41
0.75
  7
TXT
 72
     4
 11
15.27349999999999
 21
2.713166666666666
 31
0.0
100
AcDbText
  0
TEXT
  5
1B2B
330
1E
100
AcDbEntity
  8
TEXT
100
AcDbText
 10
13.69449999999998
 20
3.976333333333334
 30
0.0
 40
0.281
  1
---
 41
0.75
  7
TXT
 72
     4
 11
13.97549999999998
 21
4.116833333333334
 31
0.0
100
AcDbText
  0
TEXT
  5
1B2C
330
1E
100
AcDbEntity
  8
TEXT
100
AcDbText
 10
13.69449999999998
 20
2.572666666666667
 30
0.0
 40
0.281
  1
---
 41
0.75
  7
TXT
 72
     4
 11
13.97549999999998
 21
2.713166666666666
 31
0.0
100
AcDbText
  0
TEXT
  5
1B2D
330
1E
100
AcDbEntity
  8
TEXT
100
AcDbText
 10
13.69449999999998
 20
3.039666666666667
 30
0.0
 40
0.281
  1
---
 41
0.75
  7
TXT
 72
     4
 11
13.97549999999998
 21
3.180166666666667
 31
0.0
100
AcDbText
  0
TEXT
  5
1B2E
330
1E
100
AcDbEntity
  8
TEXT
100
AcDbText
 10
13.69449999999998
 20
3.508000000000001
 30
0.0
 40
0.281
  1
---
 41
0.75
  7
TXT
 72
     4
 11
13.97549999999998
 21
3.648500000000001
 31
0.0
100
AcDbText
  0
TEXT
  5
1B2F
330
1E
100
AcDbEntity
  8
TEXT
100
AcDbText
 10
13.69449999999998
 20
2.104333333333335
 30
0.0
 40
0.281
  1
---
 41
0.75
  7
TXT
 72
     4
 11
13.97549999999998
 21
2.244833333333335
 31
0.0
100
AcDbText
  0
TEXT
  5
1B30
330
1E
100
AcDbEntity
  8
TEXT
100
AcDbText
 10
13.69449999999998
 20
1.635999999999999
 30
0.0
 40
0.281
  1
---
 41
0.75
  7
TXT
 72
     4
 11
13.97549999999998
 21
1.776499999999999
 31
0.0
100
AcDbText
  0
TEXT
  5
1B31
330
1E
100
AcDbEntity
  8
TEXT
100
AcDbText
 10
13.69449999999998
 20
4.444666666666667
 30
0.0
 40
0.281
  1
---
 41
0.75
  7
TXT
 72
     4
 11
13.97549999999998
 21
4.585166666666667
 31
0.0
100
AcDbText
  0
TEXT
  5
1B32
330
1E
100
AcDbEntity
  8
TEXT
100
AcDbText
 10
16.185125
 20
3.976333333333334
 30
0.0
 40
0.281
  1
0.078
 41
0.75
  7
TXT
 72
     4
 11
16.5715
 21
4.116833333333334
 31
0.0
100
AcDbText
  0
TEXT
  5
1B33
330
1E
100
AcDbEntity
  8
TEXT
100
AcDbText
 10
16.185125
 20
3.508000000000001
 30
0.0
 40
0.281
  1
0.078
 41
0.75
  7
TXT
 72
     4
 11
16.5715
 21
3.648500000000001
 31
0.0
100
AcDbText
  0
TEXT
  5
1B34
330
1E
100
AcDbEntity
  8
TEXT
100
AcDbText
 10
16.185125
 20
3.039666666666667
 30
0.0
 40
0.281
  1
0.078
 41
0.75
  7
TXT
 72
     4
 11
16.5715
 21
3.180166666666667
 31
0.0
100
AcDbText
  0
TEXT
  5
1B35
330
1E
100
AcDbEntity
  8
TEXT
100
AcDbText
 10
16.185125
 20
2.572666666666667
 30
0.0
 40
0.281
  1
0.078
 41
0.75
  7
TXT
 72
     4
 11
16.5715
 21
2.713166666666666
 31
0.0
100
AcDbText
  0
TEXT
  5
1B36
330
1E
100
AcDbEntity
  8
TEXT
100
AcDbText
 10
16.185125
 20
1.635999999999999
 30
0.0
 40
0.281
  1
0.078
 41
0.75
  7
TXT
 72
     4
 11
16.5715
 21
1.776499999999999
 31
0.0
100
AcDbText
  0
TEXT
  5
1B37
330
1E
100
AcDbEntity
  8
TEXT
100
AcDbText
 10
16.185125
 20
2.104333333333335
 30
0.0
 40
0.281
  1
0.078
 41
0.75
  7
TXT
 72
     4
 11
16.5715
 21
2.244833333333335
 31
0.0
100
AcDbText
  0
TEXT
  5
1B38
330
1E
100
AcDbEntity
  8
TEXT
100
AcDbText
 10
16.185125
 20
4.444666666666667
 30
0.0
 40
0.281
  1
0.065
 41
0.75
  7
TXT
 72
     4
 11
16.5715
 21
4.585166666666667
 31
0.0
100
AcDbText
  0
TEXT
  5
1B39
330
1E
100
AcDbEntity
  8
TEXT
100
AcDbText
 10
22.6425625
 20
0.6993333333333365
 30
0.0
 40
0.281
  1
6.250
 41
0.75
  7
TXT
 72
     4
 11
23.0465
 21
0.8398333333333365
 31
0.0
100
AcDbText
  0
TEXT
  5
1B3A
330
1E
100
AcDbEntity
  8
TEXT
100
AcDbText
 10
22.6776875
 20
0.2323333333333359
 30
0.0
 40
0.281
  1
1.250
 41
0.75
  7
TXT
 72
     4
 11
23.0465
 21
0.372833333333336
 31
0.0
100
AcDbText
  0
TEXT
  5
1B3B
330
1E
100
AcDbEntity
  8
TEXT
100
AcDbText
 10
22.66012499999999
 20
1.167666666666669
 30
0.0
 40
0.281
  1
3.500
 41
0.75
  7
TXT
 72
     4
 11
23.0465
 21
1.30816666666667
 31
0.0
100
AcDbText
  0
TEXT
  5
1B3C
330
1E
100
AcDbEntity
  8
TEXT
100
AcDbText
 10
20.06156249999998
 20
1.167666666666669
 30
0.0
 40
0.281
  1
4.250
 41
0.75
  7
TXT
 72
     4
 11
20.46549999999998
 21
1.30816666666667
 31
0.0
100
AcDbText
  0
TEXT
  5
1B3D
330
1E
100
AcDbEntity
  8
TEXT
100
AcDbText
 10
20.09668749999999
 20
0.2323333333333359
 30
0.0
 40
0.281
  1
2.000
 41
0.75
  7
TXT
 72
     4
 11
20.46549999999998
 21
0.372833333333336
 31
0.0
100
AcDbText
  0
TEXT
  5
1B3E
330
1E
100
AcDbEntity
  8
TEXT
100
AcDbText
 10
20.09668749999999
 20
0.6993333333333365
 30
0.0
 40
0.281
  1
7.000
 41
0.75
  7
TXT
 72
     4
 11
20.46549999999998
 21
0.8398333333333365
 31
0.0
100
AcDbText
  0
TEXT
  5
1B3F
330
1E
100
AcDbEntity
  8
TEXT
100
AcDbText
 10
18.74599999999998
 20
1.167666666666669
 30
0.0
 40
0.281
  1
8.624
 41
0.75
  7
TXT
 72
     4
 11
19.16749999999998
 21
1.30816666666667
 31
0.0
100
AcDbText
  0
TEXT
  5
1B40
330
1E
100
AcDbEntity
  8
TEXT
100
AcDbText
 10
18.74599999999998
 20
0.2323333333333359
 30
0.0
 40
0.281
  1
5.624
 41
0.75
  7
TXT
 72
     4
 11
19.16749999999998
 21
0.372833333333336
 31
0.0
100
AcDbText
  0
TEXT
  5
1B41
330
1E
100
AcDbEntity
  8
TEXT
100
AcDbText
 10
18.76356249999998
 20
0.6993333333333365
 30
0.0
 40
0.281
  1
8.750
 41
0.75
  7
TXT
 72
     4
 11
19.16749999999998
 21
0.8398333333333365
 31
0.0
100
AcDbText
  0
TEXT
  5
1B42
330
1E
100
AcDbEntity
  8
TEXT
100
AcDbText
 10
21.3946875
 20
1.167666666666669
 30
0.0
 40
0.281
  1
8.000
 41
0.75
  7
TXT
 72
     4
 11
21.7635
 21
1.30816666666667
 31
0.0
100
AcDbText
  0
TEXT
  5
1B43
330
1E
100
AcDbEntity
  8
TEXT
100
AcDbText
 10
21.377125
 20
0.6993333333333365
 30
0.0
 40
0.281
  1
8.126
 41
0.75
  7
TXT
 72
     4
 11
21.7635
 21
0.8398333333333365
 31
0.0
100
AcDbText
  0
TEXT
  5
1B44
330
1E
100
AcDbEntity
  8
TEXT
100
AcDbText
 10
21.3946875
 20
0.2323333333333359
 30
0.0
 40
0.281
  1
5.000
 41
0.75
  7
TXT
 72
     4
 11
21.7635
 21
0.372833333333336
 31
0.0
100
AcDbText
  0
TEXT
  5
1B45
330
1E
100
AcDbEntity
  8
TEXT
100
AcDbText
 10
22.66012499999999
 20
3.976333333333336
 30
0.0
 40
0.281
  1
2.125
 41
0.75
  7
TXT
 72
     4
 11
23.0465
 21
4.116833333333336
 31
0.0
100
AcDbText
  0
TEXT
  5
1B46
330
1E
100
AcDbEntity
  8
TEXT
100
AcDbText
 10
22.6425625
 20
4.444666666666669
 30
0.0
 40
0.281
  1
0.875
 41
0.75
  7
TXT
 72
     4
 11
23.0465
 21
4.585166666666669
 31
0.0
100
AcDbText
  0
TEXT
  5
1B47
330
1E
100
AcDbEntity
  8
TEXT
100
AcDbText
 10
22.66012499999999
 20
2.572666666666668
 30
0.0
 40
0.281
  1
3.500
 41
0.75
  7
TXT
 72
     4
 11
23.0465
 21
2.713166666666668
 31
0.0
100
AcDbText
  0
TEXT
  5
1B48
330
1E
100
AcDbEntity
  8
TEXT
100
AcDbText
 10
22.625
 20
3.039666666666668
 30
0.0
 40
0.281
  1
2.562
 41
0.75
  7
TXT
 72
     4
 11
23.0465
 21
3.180166666666668
 31
0.0
100
AcDbText
  0
TEXT
  5
1B49
330
1E
100
AcDbEntity
  8
TEXT
100
AcDbText
 10
22.6776875
 20
3.508000000000001
 30
0.0
 40
0.281
  1
2.000
 41
0.75
  7
TXT
 72
     4
 11
23.0465
 21
3.648500000000001
 31
0.0
100
AcDbText
  0
TEXT
  5
1B4B
330
1E
100
AcDbEntity
  8
TEXT
100
AcDbText
 10
22.66012499999999
 20
1.636000000000002
 30
0.0
 40
0.281
  1
2.125
 41
0.75
  7
TXT
 72
     4
 11
23.0465
 21
1.776500000000002
 31
0.0
100
AcDbText
  0
TEXT
  5
1B4C
330
1E
100
AcDbEntity
  8
TEXT
100
AcDbText
 10
20.04399999999999
 20
1.636000000000002
 30
0.0
 40
0.281
  1
2.875
 41
0.75
  7
TXT
 72
     4
 11
20.46549999999998
 21
1.776500000000002
 31
0.0
100
AcDbText
  0
TEXT
  5
1B4E
330
1E
100
AcDbEntity
  8
TEXT
100
AcDbText
 10
20.06156249999998
 20
3.508000000000001
 30
0.0
 40
0.281
  1
2.750
 41
0.75
  7
TXT
 72
     4
 11
20.46549999999998
 21
3.648500000000001
 31
0.0
100
AcDbText
  0
TEXT
  5
1B4F
330
1E
100
AcDbEntity
  8
TEXT
100
AcDbText
 10
20.07912499999998
 20
3.039666666666668
 30
0.0
 40
0.281
  1
3.312
 41
0.75
  7
TXT
 72
     4
 11
20.46549999999998
 21
3.180166666666668
 31
0.0
100
AcDbText
  0
TEXT
  5
1B50
330
1E
100
AcDbEntity
  8
TEXT
100
AcDbText
 10
20.06156249999998
 20
2.572666666666668
 30
0.0
 40
0.281
  1
4.250
 41
0.75
  7
TXT
 72
     4
 11
20.46549999999998
 21
2.713166666666668
 31
0.0
100
AcDbText
  0
TEXT
  5
1B51
330
1E
100
AcDbEntity
  8
TEXT
100
AcDbText
 10
20.07912499999998
 20
4.444666666666669
 30
0.0
 40
0.281
  1
1.625
 41
0.75
  7
TXT
 72
     4
 11
20.46549999999998
 21
4.585166666666669
 31
0.0
100
AcDbText
  0
TEXT
  5
1B52
330
1E
100
AcDbEntity
  8
TEXT
100
AcDbText
 10
20.04399999999999
 20
3.976333333333336
 30
0.0
 40
0.281
  1
2.875
 41
0.75
  7
TXT
 72
     4
 11
20.46549999999998
 21
4.116833333333336
 31
0.0
100
AcDbText
  0
TEXT
  5
1B53
330
1E
100
AcDbEntity
  8
TEXT
100
AcDbText
 10
18.74599999999998
 20
3.976333333333336
 30
0.0
 40
0.281
  1
5.624
 41
0.75
  7
TXT
 72
     4
 11
19.16749999999998
 21
4.116833333333336
 31
0.0
100
AcDbText
  0
TEXT
  5
1B54
330
1E
100
AcDbEntity
  8
TEXT
100
AcDbText
 10
18.74599999999998
 20
3.039666666666668
 30
0.0
 40
0.281
  1
5.874
 41
0.75
  7
TXT
 72
     4
 11
19.16749999999998
 21
3.180166666666668
 31
0.0
100
AcDbText
  0
TEXT
  5
1B55
330
1E
100
AcDbEntity
  8
TEXT
100
AcDbText
 10
18.79868749999999
 20
3.508000000000001
 30
0.0
 40
0.281
  1
6.000
 41
0.75
  7
TXT
 72
     4
 11
19.16749999999998
 21
3.648500000000001
 31
0.0
100
AcDbText
  0
TEXT
  5
1B56
330
1E
100
AcDbEntity
  8
TEXT
100
AcDbText
 10
18.79868749999999
 20
2.572666666666668
 30
0.0
 40
0.281
  1
6.000
 41
0.75
  7
TXT
 72
     4
 11
19.16749999999998
 21
2.713166666666668
 31
0.0
100
AcDbText
  0
TEXT
  5
1B58
330
1E
100
AcDbEntity
  8
TEXT
100
AcDbText
 10
18.76356249999998
 20
1.636000000000002
 30
0.0
 40
0.281
  1
7.250
 41
0.75
  7
TXT
 72
     4
 11
19.16749999999998
 21
1.776500000000002
 31
0.0
100
AcDbText
  0
TEXT
  5
1B59
330
1E
100
AcDbEntity
  8
TEXT
100
AcDbText
 10
18.76356249999998
 20
4.444666666666669
 30
0.0
 40
0.281
  1
3.250
 41
0.75
  7
TXT
 72
     4
 11
19.16749999999998
 21
4.585166666666669
 31
0.0
100
AcDbText
  0
TEXT
  5
1B5A
330
1E
100
AcDbEntity
  8
TEXT
100
AcDbText
 10
21.3946875
 20
3.976333333333336
 30
0.0
 40
0.281
  1
5.000
 41
0.75
  7
TXT
 72
     4
 11
21.7635
 21
4.116833333333336
 31
0.0
100
AcDbText
  0
TEXT
  5
1B5B
330
1E
100
AcDbEntity
  8
TEXT
100
AcDbText
 10
21.34199999999999
 20
1.636000000000002
 30
0.0
 40
0.281
  1
6.626
 41
0.75
  7
TXT
 72
     4
 11
21.7635
 21
1.776500000000002
 31
0.0
100
AcDbText
  0
TEXT
  5
1B5D
330
1E
100
AcDbEntity
  8
TEXT
100
AcDbText
 10
21.34199999999999
 20
2.572666666666668
 30
0.0
 40
0.281
  1
5.376
 41
0.75
  7
TXT
 72
     4
 11
21.7635
 21
2.713166666666668
 31
0.0
100
AcDbText
  0
TEXT
  5
1B5E
330
1E
100
AcDbEntity
  8
TEXT
100
AcDbText
 10
21.34199999999999
 20
3.508000000000001
 30
0.0
 40
0.281
  1
5.376
 41
0.75
  7
TXT
 72
     4
 11
21.7635
 21
3.648500000000001
 31
0.0
100
AcDbText
  0
TEXT
  5
1B5F
330
1E
100
AcDbEntity
  8
TEXT
100
AcDbText
 10
21.3595625
 20
3.039666666666668
 30
0.0
 40
0.281
  1
5.250
 41
0.75
  7
TXT
 72
     4
 11
21.7635
 21
3.180166666666668
 31
0.0
100
AcDbText
  0
TEXT
  5
1B60
330
1E
100
AcDbEntity
  8
TEXT
100
AcDbText
 10
21.34199999999999
 20
4.444666666666669
 30
0.0
 40
0.281
  1
2.626
 41
0.75
  7
TXT
 72
     4
 11
21.7635
 21
4.585166666666669
 31
0.0
100
AcDbText
  0
LINE
  5
1B7E
330
1E
100
AcDbEntity
  8
TITLE
100
AcDbLine
 10
2.143882994494624
 20
9.967499999999999
 30
0.0
 11
2.143882994494624
 21
0.1395000000000017
 31
0.0
  0
LINE
  5
1B82
330
1E
100
AcDbEntity
  8
TITLE
100
AcDbLine
 10
21.11449999999999
 20
9.967499999999999
 30
0.0
 11
21.11449999999999
 21
0.1395000000000017
 31
0.0
  0
LINE
  5
1B83
330
1E
100
AcDbEntity
  8
TITLE
100
AcDbLine
 10
19.81649999999998
 20
9.967499999999999
 30
0.0
 11
19.81649999999998
 21
0.1395000000000017
 31
0.0
  0
LINE
  5
1B84
330
1E
100
AcDbEntity
  8
TITLE
100
AcDbLine
 10
18.51849999999998
 20
9.967499999999999
 30
0.0
 11
18.51849999999998
 21
0.1395000000000017
 31
0.0
  0
LINE
  5
1B85
330
1E
100
AcDbEntity
  8
TITLE
100
AcDbLine
 10
17.22049999999999
 20
9.967499999999999
 30
0.0
 11
17.22049999999999
 21
0.1395000000000017
 31
0.0
  0
LINE
  5
1B86
330
1E
100
AcDbEntity
  8
TITLE
100
AcDbLine
 10
15.92249999999999
 20
9.967499999999999
 30
0.0
 11
15.92249999999999
 21
0.1395000000000017
 31
0.0
  0
LINE
  5
1B87
330
1E
100
AcDbEntity
  8
TITLE
100
AcDbLine
 10
14.62449999999999
 20
9.967499999999999
 30
0.0
 11
14.62449999999999
 21
0.1395000000000017
 31
0.0
  0
LINE
  5
1B88
330
1E
100
AcDbEntity
  8
TITLE
100
AcDbLine
 10
13.32649999999999
 20
9.967499999999999
 30
0.0
 11
13.32649999999999
 21
0.1395000000000017
 31
0.0
  0
LINE
  5
1B89
330
1E
100
AcDbEntity
  8
TITLE
100
AcDbLine
 10
12.02849999999999
 20
9.967499999999999
 30
0.0
 11
12.02849999999999
 21
0.1395000000000017
 31
0.0
  0
LINE
  5
1B8A
330
1E
100
AcDbEntity
  8
TITLE
100
AcDbLine
 10
10.73049999999999
 20
9.967499999999999
 30
0.0
 11
10.73049999999999
 21
0.1395000000000017
 31
0.0
  0
LINE
  5
1B8B
330
1E
100
AcDbEntity
  8
TITLE
100
AcDbLine
 10
9.432499999999992
 20
9.967499999999999
 30
0.0
 11
9.432499999999992
 21
0.1395000000000017
 31
0.0
  0
LINE
  5
1B8C
330
1E
100
AcDbEntity
  8
TITLE
100
AcDbLine
 10
8.134499999999992
 20
9.967499999999999
 30
0.0
 11
8.134499999999992
 21
0.1395000000000017
 31
0.0
  0
LINE
  5
1B8D
330
1E
100
AcDbEntity
  8
TITLE
100
AcDbLine
 10
6.836499999999992
 20
9.967499999999999
 30
0.0
 11
6.836499999999992
 21
0.1395000000000017
 31
0.0
  0
LINE
  5
1B8E
330
1E
100
AcDbEntity
  8
TITLE
100
AcDbLine
 10
5.538499999999991
 20
9.967499999999999
 30
0.0
 11
5.538499999999991
 21
0.1395000000000017
 31
0.0
  0
LINE
  5
1B8F
330
1E
100
AcDbEntity
  8
TITLE
100
AcDbLine
 10
4.240499999999993
 20
9.967499999999999
 30
0.0
 11
4.240499999999993
 21
0.1395000000000017
 31
0.0
  0
TEXT
  5
1BA6
330
1E
100
AcDbEntity
  8
TEXT
100
AcDbText
 10
18.74599999999998
 20
2.104666666666669
 30
0.0
 40
0.281
  1
5.874
 41
0.75
  7
TXT
 72
     4
 11
19.16749999999998
 21
2.245166666666669
 31
0.0
100
AcDbText
  0
TEXT
  5
1BA7
330
1E
100
AcDbEntity
  8
TEXT
100
AcDbText
 10
20.06156249999998
 20
2.104666666666669
 30
0.0
 40
0.281
  1
4.250
 41
0.75
  7
TXT
 72
     4
 11
20.46549999999998
 21
2.245166666666669
 31
0.0
100
AcDbText
  0
TEXT
  5
1BA8
330
1E
100
AcDbEntity
  8
TEXT
100
AcDbText
 10
21.3595625
 20
2.104666666666669
 30
0.0
 40
0.281
  1
5.250
 41
0.75
  7
TXT
 72
     4
 11
21.7635
 21
2.245166666666669
 31
0.0
100
AcDbText
  0
TEXT
  5
1BA9
330
1E
100
AcDbEntity
  8
TEXT
100
AcDbText
 10
22.66012499999999
 20
2.104666666666669
 30
0.0
 40
0.281
  1
3.500
 41
0.75
  7
TXT
 72
     4
 11
23.0465
 21
2.245166666666669
 31
0.0
100
AcDbText
  0
TEXT
  5
1BB2
330
1E
100
AcDbEntity
  8
TEXT
100
AcDbText
 10
4.335375000000002
 20
34.43775
 30
0.0
 40
0.375
  1
ECONOBOXES
 41
0.75
  7
TXT
 72
     4
 11
5.694750000000002
 21
34.62525
 31
0.0
100
AcDbText
  0
TEXT
  5
1BB3
330
1E
100
AcDbEntity
  8
TEXT
100
AcDbText
 10
11.53424406729831
 20
34.68074999999998
 30
0.0
 40
0.351
  1
CU-470 TO CU-479 & CU-470-G TO CU-479-G
 41
0.5527029209530046
  7
TXT
 72
     5
 11
18.97086186872098
 21
34.68074999999998
 31
0.0
100
AcDbText
  0
TEXT
  5
1BB4
330
1E
100
AcDbEntity
  8
TEXT
100
AcDbText
 10
11.53424406729831
 20
34.21875
 30
0.0
 40
0.351
  1
CU-4470 TO CU-4479 & CU-4470-B TO CU-4479-B
 41
0.5004790229102011
  7
TXT
 72
     5
 11
18.97086186872098
 21
34.21875
 31
0.0
100
AcDbText
  0
TEXT
  5
1BB5
330
1E
100
AcDbEntity
  8
TEXT
100
AcDbText
 10
21.4537789377495
 20
34.44975
 30
0.0
 40
0.351
  1
10-14-09
 41
0.75
  7
TXT
 72
     4
 11
22.33127893774951
 21
34.62525
 31
0.0
100
AcDbText
  0
TEXT
  5
1BBE
330
1E
100
AcDbEntity
  8
TEXT
100
AcDbText
 10
16.2990660029853
 20
11.12924556198451
 30
0.0
 40
0.281
  1
MOUNTING BRACKET ONLY.
 41
0.75
  7
TXT
100
AcDbText
  0
TEXT
  5
1BBF
330
1E
100
AcDbEntity
  8
TEXT
100
AcDbText
 10
16.2990660029853
 20
11.59757889531785
 30
0.0
 40
0.281
  1
ARE SUPPLIED WITH A WELDED ON
 41
0.75
  7
TXT
100
AcDbText
  0
TEXT
  5
1BC0
330
1E
100
AcDbEntity
  8
TEXT
100
AcDbText
 10
16.2990660029853
 20
12.06591222865118
 30
0.0
 40
0.281
  1
AND CU-4470-B THRU CU-4479-B
 41
0.75
  7
TXT
100
AcDbText
  0
TEXT
  5
1BC1
330
1E
100
AcDbEntity
  8
TEXT
100
AcDbText
 10
16.2990660029853
 20
12.53424556198452
 30
0.0
 40
0.281
  1
PART NO. CU-4470 THRU CU-4479
 41
0.75
  7
TXT
100
AcDbText
  0
HATCH
  5
1BC8
330
1E
100
AcDbEntity
  8
BRACKET
100
AcDbHatch
 10
0.0
 20
0.0
 30
0.0
210
0.0
220
0.0
230
1.0
  2
ANSI31
 70
     0
 71
     1
 91
        1
 92
        1
 93
        4
 72
     1
 10
3.094054304007553
 20
11.72507321023416
 11
8.580304304007555
 21
11.72507321023416
 72
     1
 10
8.580304304007555
 20
11.72507321023416
 11
8.580304304007555
 21
11.81507321023416
 72
     1
 10
8.580304304007555
 20
11.81507321023416
 11
3.094054304007553
 21
11.81507321023416
 72
     1
 10
3.094054304007553
 20
11.81507321023416
 11
3.094054304007553
 21
11.72507321023416
 97
        1
330
1081
 75
     0
 76
     1
 52
0.0
 41
1.0
 77
     0
 78
     1
 53
45.0
 43
0.0
 44
0.0
 45
-0.0883883476483184
 46
0.0883883476483185
 79
     0
 98
        1
 10
0.0
 20
0.0
  0
MTEXT
  5
1BD0
102
{ACAD_REACTORS
330
1BD1
102
}
330
1E
100
AcDbEntity
  8
DIM
100
AcDbMText
 10
8.565546406907847
 20
19.49015496279574
 30
0.0
 40
0.281
 41
0.0
 71
     1
 72
     1
  1
\A1;0.193 DIA.\P(4) HOLES
  7
TXT
 73
     1
 44
1.0
  0
LEADER
  5
1BD1
330
1E
100
AcDbEntity
  8
DIM
100
AcDbLeader
  3
23NSTD
 73
     0
 74
     0
 75
     1
 40
0.7493333333333334
 41
1.685999999999999
 76
     3
 10
7.172323993595335
 20
19.72123119408941
 30
0.0
 10
7.958046406907848
 20
19.39640496279573
 30
0.0
 10
8.363046406907848
 20
19.39640496279573
 30
0.0
213
0.0
223
-0.09375
233
0.0
1001
ACAD
1000
DSTYLE
1002
{
1070
   147
1040
0.09
1070
    77
1070
     0
1002
}
  0
TEXT
  5
1D14
330
1E
100
AcDbEntity
  8
TEXT
100
AcDbText
 10
12.22771473508518
 20
16.74761506612632
 30
0.0
 40
0.281
  1
SMOOTH BLACK (SUFFIX -B)
 41
0.75
  7
TXT
100
AcDbText
  0
ENDSEC
  0
SECTION
  2
OBJECTS
  0
DICTIONARY
  5
C
330
0
100
AcDbDictionary
281
     1
  3
ACAD_GROUP
350
D
  3
ACAD_LAYOUT
350
19
  3
ACAD_MLINESTYLE
350
16
  3
ACAD_PLOTSETTINGS
350
18
  3
ACAD_PLOTSTYLENAME
350
E
  3
AcDbVariableDictionary
350
A17
  0
DICTIONARY
  5
D
102
{ACAD_REACTORS
330
C
102
}
330
C
100
AcDbDictionary
281
     1
  0
DICTIONARY
  5
19
102
{ACAD_REACTORS
330
C
102
}
330
C
100
AcDbDictionary
281
     1
  3
Layout1
350
1D
  3
Model
350
21
  0
DICTIONARY
  5
16
102
{ACAD_REACTORS
330
C
102
}
330
C
100
AcDbDictionary
281
     1
  3
Standard
350
17
  0
DICTIONARY
  5
18
102
{ACAD_REACTORS
330
C
102
}
330
C
100
AcDbDictionary
281
     1
  0
ACDBDICTIONARYWDFLT
  5
E
102
{ACAD_REACTORS
330
C
102
}
330
C
100
AcDbDictionary
281
     1
  3
Normal
350
F
100
AcDbDictionaryWithDefault
340
F
  0
DICTIONARY
  5
A17
102
{ACAD_REACTORS
330
C
102
}
330
C
100
AcDbDictionary
281
     1
  3
SORTENTS
350
A18
  0
LAYOUT
  5
1D
102
{ACAD_REACTORS
330
19
102
}
330
19
100
AcDbPlotSettings
  1

  2
None
  4

  6

 40
0.0
 41
0.0
 42
0.0
 43
0.0
 44
0.0
 45
0.0
 46
0.0
 47
0.0
 48
0.0
 49
0.0
140
0.0
141
0.0
142
1.0
143
1.0
 70
   688
 72
     0
 73
     0
 74
     5
  7
monochrome.ctb
 75
    16
147
1.0
148
0.0
149
0.0
100
AcDbLayout
  1
Layout1
 70
     1
 71
     1
 10
0.0
 20
0.0
 11
12.0
 21
9.0
 12
0.0
 22
0.0
 32
0.0
 14
1.000000000000000E+20
 24
1.000000000000000E+20
 34
1.000000000000000E+20
 15
-1.000000000000000E+20
 25
-1.000000000000000E+20
 35
-1.000000000000000E+20
146
0.0
 13
0.0
 23
0.0
 33
0.0
 16
1.0
 26
0.0
 36
0.0
 17
0.0
 27
1.0
 37
0.0
 76
     0
330
1A
  0
LAYOUT
  5
21
102
{ACAD_REACTORS
330
19
102
}
330
19
100
AcDbPlotSettings
  1

  2
RICOH Aficio 1060 PCL 5e
  4
Tabloid
  6

 40
7.143749713897705
 41
5.027085304260253
 42
7.651763916015625
 43
5.027069091796875
 44
279.3999938964843
 45
431.7999877929686
 46
0.0
 47
15.49399999999999
 48
0.0
 49
0.0
140
0.0
141
0.0
142
1.0
143
2.289605970560946
 70
 11956
 72
     0
 73
     0
 74
     1
  7
monochrome.ctb
 75
     0
147
0.4367563733051424
148
0.0248545102566851
149
0.0272966571761799
100
AcDbLayout
  1
Model
 70
     1
 71
     0
 10
0.0
 20
0.0
 11
12.0
 21
9.0
 12
0.0
 22
0.0
 32
0.0
 14
0.0
 24
0.0
 34
0.0
 15
0.0
 25
0.0
 35
0.0
146
0.0
 13
0.0
 23
0.0
 33
0.0
 16
1.0
 26
0.0
 36
0.0
 17
0.0
 27
1.0
 37
0.0
 76
     0
330
1E
  0
MLINESTYLE
  5
17
102
{ACAD_REACTORS
330
16
102
}
330
16
100
AcDbMlineStyle
  2
STANDARD
 70
     0
  3

 62
   256
 51
90.0
 52
90.0
 71
     2
 49
0.5
 62
   256
  6
BYLAYER
 49
-0.5
 62
   256
  6
BYLAYER
  0
ACDBPLACEHOLDER
  5
F
102
{ACAD_REACTORS
330
E
102
}
330
E
  0
DICTIONARYVAR
  5
A18
102
{ACAD_REACTORS
330
A17
102
}
330
A17
100
DictionaryVariables
280
     0
  1
96
  0
ENDSEC
  0
EOF
