  0
SECTION
  2
HEADER
  9
$ACADVER
  1
AC1014
  9
$ACADMAINTVER
 70
     9
  9
$DWGCODEPAGE
  3
ANSI_1252
  9
$INSBASE
 10
0.0
 20
0.0
 30
0.0
  9
$EXTMIN
 10
0.0
 20
-0.0000000000000042
 30
-0.00000001
  9
$EXTMAX
 10
24.03499999999999
 20
36.8125
 30
0.00000001
  9
$LIMMIN
 10
0.0
 20
0.0
  9
$LIMMAX
 10
23.84999999999999
 20
35.23499999999999
  9
$ORTHOMODE
 70
     1
  9
$REGENMODE
 70
     1
  9
$FILLMODE
 70
     1
  9
$QTEXTMODE
 70
     0
  9
$MIRRTEXT
 70
     0
  9
$DRAGMODE
 70
     2
  9
$LTSCALE
 40
0.468
  9
$OSMODE
 70
   229
  9
$ATTMODE
 70
     1
  9
$TEXTSIZE
 40
0.2
  9
$TRACEWID
 40
0.05
  9
$TEXTSTYLE
  7
TXT
  9
$CLAYER
  8
OBJECT
  9
$CELTYPE
  6
BYLAYER
  9
$CECOLOR
 62
   256
  9
$CELTSCALE
 40
1.0
  9
$DELOBJ
 70
     1
  9
$DISPSILH
 70
     0
  9
$DIMSCALE
 40
2.25
  9
$DIMASZ
 40
0.18
  9
$DIMEXO
 40
0.063
  9
$DIMDLI
 40
0.38
  9
$DIMRND
 40
0.0
  9
$DIMDLE
 40
0.0
  9
$DIMEXE
 40
0.093
  9
$DIMTP
 40
0.0
  9
$DIMTM
 40
0.0
  9
$DIMTXT
 40
0.125
  9
$DIMCEN
 40
0.09
  9
$DIMTSZ
 40
0.0
  9
$DIMTOL
 70
     0
  9
$DIMLIM
 70
     0
  9
$DIMTIH
 70
     1
  9
$DIMTOH
 70
     1
  9
$DIMSE1
 70
     0
  9
$DIMSE2
 70
     0
  9
$DIMTAD
 70
     0
  9
$DIMZIN
 70
     0
  9
$DIMBLK
  1

  9
$DIMASO
 70
     1
  9
$DIMSHO
 70
     1
  9
$DIMPOST
  1

  9
$DIMAPOST
  1

  9
$DIMALT
 70
     0
  9
$DIMALTD
 70
     2
  9
$DIMALTF
 40
25.4
  9
$DIMLFAC
 40
1.0
  9
$DIMTOFL
 70
     0
  9
$DIMTVP
 40
0.0
  9
$DIMTIX
 70
     0
  9
$DIMSOXD
 70
     0
  9
$DIMSAH
 70
     0
  9
$DIMBLK1
  1

  9
$DIMBLK2
  1

  9
$DIMSTYLE
  2
23NSTD
  9
$DIMCLRD
 70
     0
  9
$DIMCLRE
 70
     0
  9
$DIMCLRT
 70
     0
  9
$DIMTFAC
 40
1.0
  9
$DIMGAP
 40
0.09
  9
$DIMJUST
 70
     0
  9
$DIMSD1
 70
     0
  9
$DIMSD2
 70
     0
  9
$DIMTOLJ
 70
     1
  9
$DIMTZIN
 70
     0
  9
$DIMALTZ
 70
     0
  9
$DIMALTTZ
 70
     0
  9
$DIMFIT
 70
     1
  9
$DIMUPT
 70
     0
  9
$DIMUNIT
 70
     2
  9
$DIMDEC
 70
     3
  9
$DIMTDEC
 70
     3
  9
$DIMALTU
 70
     2
  9
$DIMALTTD
 70
     2
  9
$DIMTXSTY
  7
TXT
  9
$DIMAUNIT
 70
     0
  9
$LUNITS
 70
     2
  9
$LUPREC
 70
     8
  9
$SKETCHINC
 40
0.1
  9
$FILLETRAD
 40
0.0625
  9
$AUNITS
 70
     0
  9
$AUPREC
 70
     0
  9
$MENU
  1
acad
  9
$ELEVATION
 40
0.0
  9
$PELEVATION
 40
0.0
  9
$THICKNESS
 40
0.0
  9
$LIMCHECK
 70
     0
  9
$BLIPMODE
 70
     0
  9
$CHAMFERA
 40
0.0
  9
$CHAMFERB
 40
0.0
  9
$CHAMFERC
 40
0.0
  9
$CHAMFERD
 40
0.0
  9
$SKPOLY
 70
     0
  9
$TDCREATE
 40
2451033.475029166
  9
$TDUPDATE
 40
2455440.578118842
  9
$TDINDWG
 40
0.8981124884
  9
$TDUSRTIMER
 40
0.8981114120
  9
$USRTIMER
 70
     1
  9
$ANGBASE
 50
0.0
  9
$ANGDIR
 70
     0
  9
$PDMODE
 70
     0
  9
$PDSIZE
 40
0.0
  9
$PLINEWID
 40
0.1
  9
$COORDS
 70
     2
  9
$SPLFRAME
 70
     0
  9
$SPLINETYPE
 70
     6
  9
$SPLINESEGS
 70
     8
  9
$ATTDIA
 70
     0
  9
$ATTREQ
 70
     1
  9
$HANDLING
 70
  4097
  9
$HANDSEED
  5
39EB
  9
$SURFTAB1
 70
     6
  9
$SURFTAB2
 70
     6
  9
$SURFTYPE
 70
     6
  9
$SURFU
 70
     6
  9
$SURFV
 70
     6
  9
$UCSNAME
  2

  9
$UCSORG
 10
0.0
 20
0.0
 30
0.0
  9
$UCSXDIR
 10
1.0
 20
0.0
 30
0.0
  9
$UCSYDIR
 10
0.0
 20
1.0
 30
0.0
  9
$PUCSNAME
  2

  9
$PUCSORG
 10
0.0
 20
0.0
 30
0.0
  9
$PUCSXDIR
 10
1.0
 20
0.0
 30
0.0
  9
$PUCSYDIR
 10
0.0
 20
1.0
 30
0.0
  9
$USERI1
 70
     0
  9
$USERI2
 70
     0
  9
$USERI3
 70
     0
  9
$USERI4
 70
     0
  9
$USERI5
 70
     0
  9
$USERR1
 40
0.0
  9
$USERR2
 40
0.0
  9
$USERR3
 40
0.0
  9
$USERR4
 40
0.0
  9
$USERR5
 40
0.0
  9
$WORLDVIEW
 70
     1
  9
$SHADEDGE
 70
     3
  9
$SHADEDIF
 70
    70
  9
$TILEMODE
 70
     1
  9
$MAXACTVP
 70
    16
  9
$PINSBASE
 10
0.0
 20
0.0
 30
0.0
  9
$PLIMCHECK
 70
     0
  9
$PEXTMIN
 10
1.000000000000000E+20
 20
1.000000000000000E+20
 30
1.000000000000000E+20
  9
$PEXTMAX
 10
-1.000000000000000E+20
 20
-1.000000000000000E+20
 30
-1.000000000000000E+20
  9
$PLIMMIN
 10
0.0
 20
0.0
  9
$PLIMMAX
 10
12.0
 20
9.0
  9
$UNITMODE
 70
     0
  9
$VISRETAIN
 70
     0
  9
$PLINEGEN
 70
     0
  9
$PSLTSCALE
 70
     1
  9
$TREEDEPTH
 70
  3020
  9
$PICKSTYLE
 70
     1
  9
$CMLSTYLE
  2
STANDARD
  9
$CMLJUST
 70
     0
  9
$CMLSCALE
 40
1.0
  9
$PROXYGRAPHICS
 70
     1
  9
$MEASUREMENT
 70
     0
  0
ENDSEC
  0
SECTION
  2
CLASSES
  0
CLASS
  1
ACDBDICTIONARYWDFLT
  2
AcDbDictionaryWithDefault
  3
AutoCAD 2000
 90
        0
280
     0
281
     0
  0
CLASS
  1
ACDBPLACEHOLDER
  2
AcDbPlaceHolder
  3
AutoCAD 2000
 90
        0
280
     0
281
     0
  0
CLASS
  1
LAYOUT
  2
AcDbLayout
  3
AutoCAD 2000
 90
        0
280
     0
281
     0
  0
CLASS
  1
DICTIONARYVAR
  2
AcDbDictionaryVar
  3
AutoCAD 2000
 90
        0
280
     0
281
     0
  0
CLASS
  1
LONG_TRANSACTION
  2
AcDbLongTransaction
  3
AutoCAD 2000
 90
        0
280
     0
281
     0
  0
CLASS
  1
LWPOLYLINE
  2
AcDbPolyline
  3
AutoCAD 2000
 90
        0
280
     0
281
     1
  0
CLASS
  1
HATCH
  2
AcDbHatch
  3
AutoCAD 2000
 90
        0
280
     0
281
     1
  0
CLASS
  1
XRECORD
  2
AcDbXrecord
  3
AutoCAD 2000
 90
        0
280
     0
281
     0
  0
ENDSEC
  0
SECTION
  2
TABLES
  0
TABLE
  2
VPORT
  5
C90
330
0
100
AcDbSymbolTable
 70
     2
  0
VPORT
  5
39B1
330
C90
100
AcDbSymbolTableRecord
100
AcDbViewportTableRecord
  2
*ACTIVE
 70
     0
 10
0.0
 20
0.0
 11
1.0
 21
1.0
 12
12.017813192132
 22
18.4066005584938
 13
0.0
 23
0.0
 14
1.0
 24
1.0
 15
0.0
 25
0.0
 16
0.0
 26
0.0
 36
1.0
 17
0.0
 27
0.0
 37
0.0
 40
37.18587772301928
 41
1.836974789915966
 42
50.0
 43
0.0
 44
0.0
 50
0.0
 51
0.0
 71
     0
 72
   100
 73
     1
 74
     0
 75
     0
 76
     0
 77
     0
 78
     0
  0
ENDTAB
  0
TABLE
  2
LTYPE
  5
C8D
330
0
100
AcDbSymbolTable
 70
     4
  0
LTYPE
  5
C9B
330
C8D
100
AcDbSymbolTableRecord
100
AcDbLinetypeTableRecord
  2
BYBLOCK
 70
     0
  3

 72
    65
 73
     0
 40
0.0
  0
LTYPE
  5
C9C
330
C8D
100
AcDbSymbolTableRecord
100
AcDbLinetypeTableRecord
  2
BYLAYER
 70
     0
  3

 72
    65
 73
     0
 40
0.0
  0
LTYPE
  5
C9D
330
C8D
100
AcDbSymbolTableRecord
100
AcDbLinetypeTableRecord
  2
CONTINUOUS
 70
     0
  3
Solid line
 72
    65
 73
     0
 40
0.0
  0
LTYPE
  5
CAD
330
C8D
100
AcDbSymbolTableRecord
100
AcDbLinetypeTableRecord
  2
HIDDEN
 70
     0
  3
_ _ _ _ _ _ _ _ _ _ _ _ _ _ _ _ _ _ _ _ _ _ _
 72
    65
 73
     2
 40
0.375
 49
0.25
 74
     0
 49
-0.125
 74
     0
  0
LTYPE
  5
CAE
330
C8D
100
AcDbSymbolTableRecord
100
AcDbLinetypeTableRecord
  2
PHANTOM
 70
     0
  3
_____ _ _ _____ _ _ _____ _ _ _____ _ _ ____
 72
    65
 73
     6
 40
2.5
 49
1.25
 74
     0
 49
-0.25
 74
     0
 49
0.25
 74
     0
 49
-0.25
 74
     0
 49
0.25
 74
     0
 49
-0.25
 74
     0
  0
LTYPE
  5
CAF
330
C8D
100
AcDbSymbolTableRecord
100
AcDbLinetypeTableRecord
  2
CENTER
 70
     0
  3
____ _ ____ _ ____ _ ____ _ ____ _ ____ _ ____
 72
    65
 73
     4
 40
2.0
 49
1.25
 74
     0
 49
-0.25
 74
     0
 49
0.25
 74
     0
 49
-0.25
 74
     0
  0
ENDTAB
  0
TABLE
  2
LAYER
  5
C8A
330
0
100
AcDbSymbolTable
 70
    10
  0
LAYER
  5
C98
330
C8A
100
AcDbSymbolTableRecord
100
AcDbLayerTableRecord
  2
0
 70
     0
 62
     7
  6
CONTINUOUS
  0
LAYER
  5
CAA
330
C8A
100
AcDbSymbolTableRecord
100
AcDbLayerTableRecord
  2
OBJECT
 70
     0
 62
     7
  6
CONTINUOUS
  0
LAYER
  5
CB0
330
C8A
100
AcDbSymbolTableRecord
100
AcDbLayerTableRecord
  2
DIM
 70
     0
 62
     7
  6
CONTINUOUS
  0
LAYER
  5
CB1
330
C8A
100
AcDbSymbolTableRecord
100
AcDbLayerTableRecord
  2
HIDDEN
 70
     0
 62
     7
  6
HIDDEN
  0
LAYER
  5
CB2
330
C8A
100
AcDbSymbolTableRecord
100
AcDbLayerTableRecord
  2
BEND
 70
     0
 62
     7
  6
PHANTOM
  0
LAYER
  5
CB3
330
C8A
100
AcDbSymbolTableRecord
100
AcDbLayerTableRecord
  2
TEXT
 70
     0
 62
     7
  6
CONTINUOUS
  0
LAYER
  5
CB4
330
C8A
100
AcDbSymbolTableRecord
100
AcDbLayerTableRecord
  2
TITLE
 70
     0
 62
     7
  6
CONTINUOUS
  0
LAYER
  5
CB5
330
C8A
100
AcDbSymbolTableRecord
100
AcDbLayerTableRecord
  2
CENTER
 70
     0
 62
     7
  6
CENTER
  0
LAYER
  5
CB6
330
C8A
100
AcDbSymbolTableRecord
100
AcDbLayerTableRecord
  2
DEFPOINTS
 70
     0
 62
     7
  6
CONTINUOUS
  0
LAYER
  5
29D0
330
C8A
100
AcDbSymbolTableRecord
100
AcDbLayerTableRecord
  2
COVER
 70
     0
 62
     7
  6
CONTINUOUS
  0
ENDTAB
  0
TABLE
  2
STYLE
  5
C8B
330
0
100
AcDbSymbolTable
 70
     1
  0
STYLE
  5
C99
330
C8B
100
AcDbSymbolTableRecord
100
AcDbTextStyleTableRecord
  2
TXT
 70
     0
 40
0.0
 41
0.75
 50
0.0
 71
     0
 42
0.2
  3
txt.shx
  4

  0
ENDTAB
  0
TABLE
  2
VIEW
  5
C8E
330
0
100
AcDbSymbolTable
 70
     0
  0
ENDTAB
  0
TABLE
  2
UCS
  5
C8F
330
0
100
AcDbSymbolTable
 70
     0
  0
ENDTAB
  0
TABLE
  2
APPID
  5
C91
330
0
100
AcDbSymbolTable
 70
     2
  0
APPID
  5
C9A
330
C91
100
AcDbSymbolTableRecord
100
AcDbRegAppTableRecord
  2
ACAD
 70
     0
  0
APPID
  5
1F9C
330
C91
100
AcDbSymbolTableRecord
100
AcDbRegAppTableRecord
  2
DCO15
 70
     0
  0
ENDTAB
  0
TABLE
  2
DIMSTYLE
  5
C92
330
0
100
AcDbSymbolTable
 70
     2
  0
DIMSTYLE
105
CB8
102
{ACAD_REACTORS
330
F06
330
F14
330
F22
330
F30
330
F4D
330
F94
330
FBF
330
FCD
330
FDB
330
FEA
330
FF8
330
1027
330
106D
330
1473
330
1481
330
1490
330
149F
330
14AD
330
14BB
330
14C9
330
14D7
330
14E5
330
14F3
330
2A11
330
2A1F
330
2A2D
330
2A3B
330
2A7B
330
2ABA
330
2AC4
330
3970
102
}
330
C92
100
AcDbSymbolTableRecord
100
AcDbDimStyleTableRecord
  2
23NSTD
 70
     0
  3

  4

  5

  6

  7

 40
2.25
 41
0.18
 42
0.063
 43
0.38
 44
0.093
 45
0.0
 46
0.0
 47
0.0
 48
0.0
140
0.125
141
0.09
142
0.0
143
25.4
144
1.0
145
0.0
146
1.0
147
0.09
 71
     0
 72
     0
 73
     1
 74
     1
 75
     0
 76
     0
 77
     0
 78
     0
170
     0
171
     2
172
     0
173
     0
174
     0
175
     0
176
     0
177
     0
178
     0
270
     2
271
     3
272
     3
273
     2
274
     2
340
C99
275
     0
280
     0
281
     0
282
     0
283
     1
284
     0
285
     0
286
     0
287
     1
288
     0
  0
DIMSTYLE
105
1804
330
C92
100
AcDbSymbolTableRecord
100
AcDbDimStyleTableRecord
  2
23NSTDI
 70
     0
  3

  4

  5

  6

  7

 40
2.25
 41
0.18
 42
0.093
 43
0.38
 44
0.093
 45
0.0
 46
0.0
 47
0.0
 48
0.0
140
0.125
141
0.09
142
0.0
143
25.4
144
1.0
145
0.0
146
1.0
147
0.09
 71
     0
 72
     0
 73
     1
 74
     1
 75
     0
 76
     0
 77
     0
 78
     0
170
     0
171
     2
172
     0
173
     0
174
     1
175
     0
176
     0
177
     0
178
     0
270
     2
271
     3
272
     3
273
     2
274
     2
340
C99
275
     0
280
     0
281
     0
282
     0
283
     1
284
     0
285
     0
286
     0
287
     3
288
     0
  0
ENDTAB
  0
TABLE
  2
BLOCK_RECORD
  5
C89
330
0
100
AcDbSymbolTable
 70
    34
  0
BLOCK_RECORD
  5
CA6
102
{ACAD_XDICTIONARY
360
39D5
102
}
330
C89
100
AcDbSymbolTableRecord
100
AcDbBlockTableRecord
  2
*MODEL_SPACE
  0
BLOCK_RECORD
  5
CA2
102
{ACAD_XDICTIONARY
360
39D3
102
}
330
C89
100
AcDbSymbolTableRecord
100
AcDbBlockTableRecord
  2
*PAPER_SPACE
  0
BLOCK_RECORD
  5
D4B
330
C89
100
AcDbSymbolTableRecord
100
AcDbBlockTableRecord
  2
*X0
  0
BLOCK_RECORD
  5
D79
330
C89
100
AcDbSymbolTableRecord
100
AcDbBlockTableRecord
  2
*X1
  0
BLOCK_RECORD
  5
F07
330
C89
100
AcDbSymbolTableRecord
100
AcDbBlockTableRecord
  2
*D2
  0
BLOCK_RECORD
  5
F15
330
C89
100
AcDbSymbolTableRecord
100
AcDbBlockTableRecord
  2
*D3
  0
BLOCK_RECORD
  5
F23
330
C89
100
AcDbSymbolTableRecord
100
AcDbBlockTableRecord
  2
*D4
  0
BLOCK_RECORD
  5
F31
330
C89
100
AcDbSymbolTableRecord
100
AcDbBlockTableRecord
  2
*D5
  0
BLOCK_RECORD
  5
F4E
330
C89
100
AcDbSymbolTableRecord
100
AcDbBlockTableRecord
  2
*D6
  0
BLOCK_RECORD
  5
F95
330
C89
100
AcDbSymbolTableRecord
100
AcDbBlockTableRecord
  2
*D7
  0
BLOCK_RECORD
  5
FC0
330
C89
100
AcDbSymbolTableRecord
100
AcDbBlockTableRecord
  2
*D8
  0
BLOCK_RECORD
  5
FCE
330
C89
100
AcDbSymbolTableRecord
100
AcDbBlockTableRecord
  2
*D9
  0
BLOCK_RECORD
  5
FDC
330
C89
100
AcDbSymbolTableRecord
100
AcDbBlockTableRecord
  2
*D10
  0
BLOCK_RECORD
  5
FEB
330
C89
100
AcDbSymbolTableRecord
100
AcDbBlockTableRecord
  2
*D11
  0
BLOCK_RECORD
  5
FF9
330
C89
100
AcDbSymbolTableRecord
100
AcDbBlockTableRecord
  2
*D12
  0
BLOCK_RECORD
  5
1028
330
C89
100
AcDbSymbolTableRecord
100
AcDbBlockTableRecord
  2
*D13
  0
BLOCK_RECORD
  5
106E
330
C89
100
AcDbSymbolTableRecord
100
AcDbBlockTableRecord
  2
*D14
  0
BLOCK_RECORD
  5
1474
330
C89
100
AcDbSymbolTableRecord
100
AcDbBlockTableRecord
  2
*D15
  0
BLOCK_RECORD
  5
1482
330
C89
100
AcDbSymbolTableRecord
100
AcDbBlockTableRecord
  2
*D16
  0
BLOCK_RECORD
  5
1491
330
C89
100
AcDbSymbolTableRecord
100
AcDbBlockTableRecord
  2
*D17
  0
BLOCK_RECORD
  5
14A0
330
C89
100
AcDbSymbolTableRecord
100
AcDbBlockTableRecord
  2
*D18
  0
BLOCK_RECORD
  5
14AE
330
C89
100
AcDbSymbolTableRecord
100
AcDbBlockTableRecord
  2
*D19
  0
BLOCK_RECORD
  5
14BC
330
C89
100
AcDbSymbolTableRecord
100
AcDbBlockTableRecord
  2
*D20
  0
BLOCK_RECORD
  5
14CA
330
C89
100
AcDbSymbolTableRecord
100
AcDbBlockTableRecord
  2
*D21
  0
BLOCK_RECORD
  5
14D8
330
C89
100
AcDbSymbolTableRecord
100
AcDbBlockTableRecord
  2
*D22
  0
BLOCK_RECORD
  5
14E6
330
C89
100
AcDbSymbolTableRecord
100
AcDbBlockTableRecord
  2
*D23
  0
BLOCK_RECORD
  5
14F4
330
C89
100
AcDbSymbolTableRecord
100
AcDbBlockTableRecord
  2
*D24
  0
BLOCK_RECORD
  5
2A12
330
C89
100
AcDbSymbolTableRecord
100
AcDbBlockTableRecord
  2
*D25
  0
BLOCK_RECORD
  5
2A20
330
C89
100
AcDbSymbolTableRecord
100
AcDbBlockTableRecord
  2
*D26
  0
BLOCK_RECORD
  5
2A2E
330
C89
100
AcDbSymbolTableRecord
100
AcDbBlockTableRecord
  2
*D27
  0
BLOCK_RECORD
  5
2A3C
330
C89
100
AcDbSymbolTableRecord
100
AcDbBlockTableRecord
  2
*D28
  0
BLOCK_RECORD
  5
2A7C
330
C89
100
AcDbSymbolTableRecord
100
AcDbBlockTableRecord
  2
*D29
  0
BLOCK_RECORD
  5
2ABB
330
C89
100
AcDbSymbolTableRecord
100
AcDbBlockTableRecord
  2
*D30
  0
BLOCK_RECORD
  5
2AC5
330
C89
100
AcDbSymbolTableRecord
100
AcDbBlockTableRecord
  2
*D31
  0
BLOCK_RECORD
  5
393F
330
C89
100
AcDbSymbolTableRecord
100
AcDbBlockTableRecord
  2
HB
  0
BLOCK_RECORD
  5
3971
330
C89
100
AcDbSymbolTableRecord
100
AcDbBlockTableRecord
  2
*D33
  0
ENDTAB
  0
ENDSEC
  0
SECTION
  2
BLOCKS
  0
BLOCK
  5
CA7
330
CA6
100
AcDbEntity
  8
0
100
AcDbBlockBegin
  2
*MODEL_SPACE
 70
     0
 10
0.0
 20
0.0
 30
0.0
  3
*MODEL_SPACE
  1

  0
ENDBLK
  5
CA8
330
CA6
100
AcDbEntity
  8
0
100
AcDbBlockEnd
  0
BLOCK
  5
CA3
330
CA2
100
AcDbEntity
 67
     1
  8
0
100
AcDbBlockBegin
  2
*PAPER_SPACE
 70
     0
 10
0.0
 20
0.0
 30
0.0
  3
*PAPER_SPACE
  1

  0
ENDBLK
  5
CA4
330
CA2
100
AcDbEntity
 67
     1
  8
0
100
AcDbBlockEnd
  0
BLOCK
  5
D4C
330
D4B
100
AcDbEntity
  8
0
100
AcDbBlockBegin
  2
*X0
 70
     1
 10
0.0
 20
0.0
 30
0.0
  3
*X0
  1

  0
LINE
  5
D4D
330
D4B
100
AcDbEntity
  8
0
 62
     0
100
AcDbLine
 10
8.503536372593696
 20
9.033866458483604
 30
0.0
 11
8.581661372593696
 21
9.111991458483604
 31
0.0
  0
LINE
  5
D4E
330
D4B
100
AcDbEntity
  8
0
 62
     0
100
AcDbLine
 10
8.326759677297058
 20
9.033866458483604
 30
0.0
 11
8.404884677297058
 21
9.111991458483604
 31
0.0
  0
LINE
  5
D4F
330
D4B
100
AcDbEntity
  8
0
 62
     0
100
AcDbLine
 10
8.149982982000418
 20
9.033866458483604
 30
0.0
 11
8.228107982000418
 21
9.111991458483604
 31
0.0
  0
LINE
  5
D50
330
D4B
100
AcDbEntity
  8
0
 62
     0
100
AcDbLine
 10
7.973206286703785
 20
9.033866458483604
 30
0.0
 11
8.051331286703785
 21
9.111991458483604
 31
0.0
  0
LINE
  5
D51
330
D4B
100
AcDbEntity
  8
0
 62
     0
100
AcDbLine
 10
7.796429591407147
 20
9.033866458483604
 30
0.0
 11
7.874554591407147
 21
9.111991458483604
 31
0.0
  0
LINE
  5
D52
330
D4B
100
AcDbEntity
  8
0
 62
     0
100
AcDbLine
 10
7.619652896110513
 20
9.033866458483604
 30
0.0
 11
7.697777896110513
 21
9.111991458483604
 31
0.0
  0
LINE
  5
D53
330
D4B
100
AcDbEntity
  8
0
 62
     0
100
AcDbLine
 10
7.442876200813874
 20
9.033866458483604
 30
0.0
 11
7.521001200813874
 21
9.111991458483604
 31
0.0
  0
LINE
  5
D54
330
D4B
100
AcDbEntity
  8
0
 62
     0
100
AcDbLine
 10
7.266099505517237
 20
9.033866458483604
 30
0.0
 11
7.344224505517237
 21
9.111991458483604
 31
0.0
  0
LINE
  5
D55
330
D4B
100
AcDbEntity
  8
0
 62
     0
100
AcDbLine
 10
7.089322810220599
 20
9.033866458483604
 30
0.0
 11
7.167447810220601
 21
9.111991458483604
 31
0.0
  0
LINE
  5
D56
330
D4B
100
AcDbEntity
  8
0
 62
     0
100
AcDbLine
 10
6.912546114923963
 20
9.033866458483604
 30
0.0
 11
6.990671114923963
 21
9.111991458483604
 31
0.0
  0
LINE
  5
D57
330
D4B
100
AcDbEntity
  8
0
 62
     0
100
AcDbLine
 10
6.735769419627327
 20
9.033866458483604
 30
0.0
 11
6.813894419627327
 21
9.111991458483604
 31
0.0
  0
LINE
  5
D58
330
D4B
100
AcDbEntity
  8
0
 62
     0
100
AcDbLine
 10
6.558992724330688
 20
9.033866458483604
 30
0.0
 11
6.637117724330688
 21
9.111991458483604
 31
0.0
  0
LINE
  5
D59
330
D4B
100
AcDbEntity
  8
0
 62
     0
100
AcDbLine
 10
6.382216029034053
 20
9.033866458483604
 30
0.0
 11
6.460341029034053
 21
9.111991458483604
 31
0.0
  0
LINE
  5
D5A
330
D4B
100
AcDbEntity
  8
0
 62
     0
100
AcDbLine
 10
6.205439333737417
 20
9.033866458483604
 30
0.0
 11
6.283564333737417
 21
9.111991458483604
 31
0.0
  0
LINE
  5
D5B
330
D4B
100
AcDbEntity
  8
0
 62
     0
100
AcDbLine
 10
6.028662638440778
 20
9.033866458483604
 30
0.0
 11
6.10678763844078
 21
9.111991458483604
 31
0.0
  0
LINE
  5
D5C
330
D4B
100
AcDbEntity
  8
0
 62
     0
100
AcDbLine
 10
5.851885943144142
 20
9.033866458483604
 30
0.0
 11
5.930010943144142
 21
9.111991458483604
 31
0.0
  0
LINE
  5
D5D
330
D4B
100
AcDbEntity
  8
0
 62
     0
100
AcDbLine
 10
5.675109247847506
 20
9.033866458483604
 30
0.0
 11
5.753234247847506
 21
9.111991458483604
 31
0.0
  0
LINE
  5
D5E
330
D4B
100
AcDbEntity
  8
0
 62
     0
100
AcDbLine
 10
5.498332552550867
 20
9.033866458483604
 30
0.0
 11
5.576457552550867
 21
9.111991458483604
 31
0.0
  0
LINE
  5
D5F
330
D4B
100
AcDbEntity
  8
0
 62
     0
100
AcDbLine
 10
5.321555857254231
 20
9.033866458483604
 30
0.0
 11
5.399680857254231
 21
9.111991458483604
 31
0.0
  0
LINE
  5
D60
330
D4B
100
AcDbEntity
  8
0
 62
     0
100
AcDbLine
 10
5.144779161957593
 20
9.033866458483604
 30
0.0
 11
5.222904161957596
 21
9.111991458483604
 31
0.0
  0
LINE
  5
D61
330
D4B
100
AcDbEntity
  8
0
 62
     0
100
AcDbLine
 10
4.968002466660959
 20
9.033866458483604
 30
0.0
 11
5.046127466660959
 21
9.111991458483604
 31
0.0
  0
LINE
  5
D62
330
D4B
100
AcDbEntity
  8
0
 62
     0
100
AcDbLine
 10
4.71310077136432
 20
8.955741458483604
 30
0.0
 11
4.86935077136432
 21
9.111991458483604
 31
0.0
  0
LINE
  5
D63
330
D4B
100
AcDbEntity
  8
0
 62
     0
100
AcDbLine
 10
8.680313067890331
 20
9.033866458483604
 30
0.0
 11
8.758438067890331
 21
9.111991458483604
 31
0.0
  0
LINE
  5
D64
330
D4B
100
AcDbEntity
  8
0
 62
     0
100
AcDbLine
 10
8.857089763186968
 20
9.033866458483604
 30
0.0
 11
8.935214763186968
 21
9.111991458483604
 31
0.0
  0
LINE
  5
D65
330
D4B
100
AcDbEntity
  8
0
 62
     0
100
AcDbLine
 10
9.033866458483604
 20
9.033866458483604
 30
0.0
 11
9.111991458483604
 21
9.111991458483604
 31
0.0
  0
LINE
  5
D66
330
D4B
100
AcDbEntity
  8
0
 62
     0
100
AcDbLine
 10
9.210643153780242
 20
9.033866458483604
 30
0.0
 11
9.288768153780239
 21
9.111991458483604
 31
0.0
  0
LINE
  5
D67
330
D4B
100
AcDbEntity
  8
0
 62
     0
100
AcDbLine
 10
9.387419849076881
 20
9.033866458483604
 30
0.0
 11
9.465544849076881
 21
9.111991458483604
 31
0.0
  0
LINE
  5
D68
330
D4B
100
AcDbEntity
  8
0
 62
     0
100
AcDbLine
 10
9.564196544373515
 20
9.033866458483604
 30
0.0
 11
9.642321544373515
 21
9.111991458483604
 31
0.0
  0
LINE
  5
D69
330
D4B
100
AcDbEntity
  8
0
 62
     0
100
AcDbLine
 10
9.740973239670154
 20
9.033866458483604
 30
0.0
 11
9.819098239670154
 21
9.111991458483604
 31
0.0
  0
LINE
  5
D6A
330
D4B
100
AcDbEntity
  8
0
 62
     0
100
AcDbLine
 10
9.917749934966789
 20
9.033866458483604
 30
0.0
 11
9.995874934966789
 21
9.111991458483604
 31
0.0
  0
LINE
  5
D6B
330
D4B
100
AcDbEntity
  8
0
 62
     0
100
AcDbLine
 10
10.09452663026342
 20
9.033866458483604
 30
0.0
 11
10.17265163026342
 21
9.111991458483604
 31
0.0
  0
LINE
  5
D6C
330
D4B
100
AcDbEntity
  8
0
 62
     0
100
AcDbLine
 10
10.27130332556006
 20
9.033866458483604
 30
0.0
 11
10.34942832556006
 21
9.111991458483604
 31
0.0
  0
LINE
  5
D6D
330
D4B
100
AcDbEntity
  8
0
 62
     0
100
AcDbLine
 10
10.44808002085668
 20
9.033866458483604
 30
0.0
 11
10.52620502085668
 21
9.111991458483604
 31
0.0
  0
LINE
  5
D6E
330
D4B
100
AcDbEntity
  8
0
 62
     0
100
AcDbLine
 10
10.62485671615333
 20
9.033866458483604
 30
0.0
 11
10.70298171615333
 21
9.111991458483604
 31
0.0
  0
LINE
  5
D6F
330
D4B
100
AcDbEntity
  8
0
 62
     0
100
AcDbLine
 10
10.80163341144997
 20
9.033866458483604
 30
0.0
 11
10.87975841144997
 21
9.111991458483604
 31
0.0
  0
LINE
  5
D70
330
D4B
100
AcDbEntity
  8
0
 62
     0
100
AcDbLine
 10
10.97841010674659
 20
9.033866458483604
 30
0.0
 11
11.05653510674659
 21
9.111991458483604
 31
0.0
  0
LINE
  5
D71
330
D4B
100
AcDbEntity
  8
0
 62
     0
100
AcDbLine
 10
11.15518680204325
 20
9.033866458483604
 30
0.0
 11
11.23331180204325
 21
9.111991458483604
 31
0.0
  0
LINE
  5
D72
330
D4B
100
AcDbEntity
  8
0
 62
     0
100
AcDbLine
 10
11.33196349733988
 20
9.033866458483604
 30
0.0
 11
11.41008849733988
 21
9.111991458483604
 31
0.0
  0
LINE
  5
D73
330
D4B
100
AcDbEntity
  8
0
 62
     0
100
AcDbLine
 10
11.5087401926365
 20
9.033866458483604
 30
0.0
 11
11.5868651926365
 21
9.111991458483604
 31
0.0
  0
LINE
  5
D74
330
D4B
100
AcDbEntity
  8
0
 62
     0
100
AcDbLine
 10
11.68551688793316
 20
9.033866458483604
 30
0.0
 11
11.76364188793316
 21
9.111991458483604
 31
0.0
  0
LINE
  5
D75
330
D4B
100
AcDbEntity
  8
0
 62
     0
100
AcDbLine
 10
11.8432991232131
 20
9.014871998466915
 30
0.0
 11
11.93524995129766
 21
9.106822826551494
 31
0.0
  0
LINE
  5
D76
330
D4B
100
AcDbEntity
  8
0
 62
     0
100
AcDbLine
 10
11.88282027852642
 20
8.877616458483604
 30
0.0
 11
11.92092688245378
 21
8.915723062410959
 31
0.0
  0
LINE
  5
D77
330
D4B
100
AcDbEntity
  8
0
 62
     0
100
AcDbLine
 10
11.96094527852642
 20
8.955741458483604
 30
0.0
 11
12.02125265633521
 21
9.016048836292398
 31
0.0
  0
ENDBLK
  5
D78
330
D4B
100
AcDbEntity
  8
0
100
AcDbBlockEnd
  0
BLOCK
  5
D7A
330
D79
100
AcDbEntity
  8
0
100
AcDbBlockBegin
  2
*X1
 70
     1
 10
0.0
 20
0.0
 30
0.0
  3
*X1
  1

  0
LINE
  5
D7B
330
D79
100
AcDbEntity
  8
0
 62
     0
100
AcDbLine
 10
7.216099334942533
 20
4.564448905492983
 30
0.0
 11
7.294224334942534
 21
4.642573905492983
 31
0.0
  0
LINE
  5
D7C
330
D79
100
AcDbEntity
  8
0
 62
     0
100
AcDbLine
 10
7.039322639645898
 20
4.564448905492983
 30
0.0
 11
7.1174476396459
 21
4.642573905492983
 31
0.0
  0
LINE
  5
D7D
330
D79
100
AcDbEntity
  8
0
 62
     0
100
AcDbLine
 10
6.862545944349261
 20
4.564448905492983
 30
0.0
 11
6.940670944349262
 21
4.642573905492983
 31
0.0
  0
LINE
  5
D7E
330
D79
100
AcDbEntity
  8
0
 62
     0
100
AcDbLine
 10
6.685769249052624
 20
4.564448905492983
 30
0.0
 11
6.763894249052624
 21
4.642573905492983
 31
0.0
  0
LINE
  5
D7F
330
D79
100
AcDbEntity
  8
0
 62
     0
100
AcDbLine
 10
6.508992553755987
 20
4.564448905492983
 30
0.0
 11
6.587117553755987
 21
4.642573905492983
 31
0.0
  0
LINE
  5
D80
330
D79
100
AcDbEntity
  8
0
 62
     0
100
AcDbLine
 10
6.332215858459352
 20
4.564448905492983
 30
0.0
 11
6.410340858459352
 21
4.642573905492983
 31
0.0
  0
LINE
  5
D81
330
D79
100
AcDbEntity
  8
0
 62
     0
100
AcDbLine
 10
6.155439163162713
 20
4.564448905492983
 30
0.0
 11
6.233564163162713
 21
4.642573905492983
 31
0.0
  0
LINE
  5
D82
330
D79
100
AcDbEntity
  8
0
 62
     0
100
AcDbLine
 10
5.978662467866077
 20
4.564448905492983
 30
0.0
 11
6.056787467866078
 21
4.642573905492983
 31
0.0
  0
LINE
  5
D83
330
D79
100
AcDbEntity
  8
0
 62
     0
100
AcDbLine
 10
5.80188577256944
 20
4.564448905492983
 30
0.0
 11
5.88001077256944
 21
4.642573905492983
 31
0.0
  0
LINE
  5
D84
330
D79
100
AcDbEntity
  8
0
 62
     0
100
AcDbLine
 10
5.625109077272803
 20
4.564448905492983
 30
0.0
 11
5.703234077272805
 21
4.642573905492983
 31
0.0
  0
LINE
  5
D85
330
D79
100
AcDbEntity
  8
0
 62
     0
100
AcDbLine
 10
5.448332381976165
 20
4.564448905492983
 30
0.0
 11
5.526457381976166
 21
4.642573905492983
 31
0.0
  0
LINE
  5
D86
330
D79
100
AcDbEntity
  8
0
 62
     0
100
AcDbLine
 10
5.271555686679528
 20
4.564448905492983
 30
0.0
 11
5.349680686679531
 21
4.642573905492983
 31
0.0
  0
LINE
  5
D87
330
D79
100
AcDbEntity
  8
0
 62
     0
100
AcDbLine
 10
5.094778991382891
 20
4.564448905492983
 30
0.0
 11
5.172903991382892
 21
4.642573905492983
 31
0.0
  0
LINE
  5
D88
330
D79
100
AcDbEntity
  8
0
 62
     0
100
AcDbLine
 10
4.918002296086255
 20
4.564448905492983
 30
0.0
 11
4.996127296086255
 21
4.642573905492983
 31
0.0
  0
LINE
  5
D89
330
D79
100
AcDbEntity
  8
0
 62
     0
100
AcDbLine
 10
4.760587299987386
 20
4.583810604690752
 30
0.0
 11
4.827419300429125
 21
4.650642605132491
 31
0.0
  0
LINE
  5
D8A
330
D79
100
AcDbEntity
  8
0
 62
     0
100
AcDbLine
 10
4.701901035386358
 20
4.701901035386358
 30
0.0
 11
4.792542896621863
 21
4.792542896621863
 31
0.0
  0
LINE
  5
D8B
330
D79
100
AcDbEntity
  8
0
 62
     0
100
AcDbLine
 10
4.695936155358877
 20
4.872712850655513
 30
0.0
 11
4.786578016594384
 21
4.963354711891018
 31
0.0
  0
LINE
  5
D8C
330
D79
100
AcDbEntity
  8
0
 62
     0
100
AcDbLine
 10
4.689971275331396
 20
5.04352466592467
 30
0.0
 11
4.780613136566901
 21
5.134166527160176
 31
0.0
  0
LINE
  5
D8D
330
D79
100
AcDbEntity
  8
0
 62
     0
100
AcDbLine
 10
4.684006395303915
 20
5.214336481193824
 30
0.0
 11
4.774648256539419
 21
5.304978342429331
 31
0.0
  0
LINE
  5
D8E
330
D79
100
AcDbEntity
  8
0
 62
     0
100
AcDbLine
 10
4.678041515276434
 20
5.385148296462981
 30
0.0
 11
4.768683376511938
 21
5.475790157698487
 31
0.0
  0
LINE
  5
D8F
330
D79
100
AcDbEntity
  8
0
 62
     0
100
AcDbLine
 10
4.672076635248951
 20
5.555960111732137
 30
0.0
 11
4.762718496484455
 21
5.646601972967641
 31
0.0
  0
LINE
  5
D90
330
D79
100
AcDbEntity
  8
0
 62
     0
100
AcDbLine
 10
4.666111755221471
 20
5.726771927001292
 30
0.0
 11
4.756753616456975
 21
5.817413788236796
 31
0.0
  0
LINE
  5
D91
330
D79
100
AcDbEntity
  8
0
 62
     0
100
AcDbLine
 10
4.660146875193991
 20
5.897583742270446
 30
0.0
 11
4.750788736429495
 21
5.98822560350595
 31
0.0
  0
LINE
  5
D92
330
D79
100
AcDbEntity
  8
0
 62
     0
100
AcDbLine
 10
4.654181995166509
 20
6.068395557539603
 30
0.0
 11
4.744823856402011
 21
6.159037418775107
 31
0.0
  0
LINE
  5
D93
330
D79
100
AcDbEntity
  8
0
 62
     0
100
AcDbLine
 10
4.648217115139027
 20
6.239207372808762
 30
0.0
 11
4.738858976374531
 21
6.329849234044263
 31
0.0
  0
LINE
  5
D94
330
D79
100
AcDbEntity
  8
0
 62
     0
100
AcDbLine
 10
4.642252235111548
 20
6.410019188077916
 30
0.0
 11
4.732894096347048
 21
6.500661049313419
 31
0.0
  0
LINE
  5
D95
330
D79
100
AcDbEntity
  8
0
 62
     0
100
AcDbLine
 10
4.636287355084065
 20
6.58083100334707
 30
0.0
 11
4.682405257229977
 21
6.626948905492982
 31
0.0
  0
LINE
  5
D96
330
D79
100
AcDbEntity
  8
0
 62
     0
100
AcDbLine
 10
7.392876030239173
 20
4.564448905492983
 30
0.0
 11
7.471001030239174
 21
4.642573905492983
 31
0.0
  0
LINE
  5
D97
330
D79
100
AcDbEntity
  8
0
 62
     0
100
AcDbLine
 10
7.569652725535807
 20
4.564448905492983
 30
0.0
 11
7.647777725535808
 21
4.642573905492983
 31
0.0
  0
LINE
  5
D98
330
D79
100
AcDbEntity
  8
0
 62
     0
100
AcDbLine
 10
7.746429420832447
 20
4.564448905492983
 30
0.0
 11
7.824554420832447
 21
4.642573905492983
 31
0.0
  0
LINE
  5
D99
330
D79
100
AcDbEntity
  8
0
 62
     0
100
AcDbLine
 10
7.92320611612908
 20
4.564448905492983
 30
0.0
 11
8.001331116129081
 21
4.642573905492983
 31
0.0
  0
LINE
  5
D9A
330
D79
100
AcDbEntity
  8
0
 62
     0
100
AcDbLine
 10
8.099982811425718
 20
4.564448905492983
 30
0.0
 11
8.178107811425718
 21
4.642573905492983
 31
0.0
  0
LINE
  5
D9B
330
D79
100
AcDbEntity
  8
0
 62
     0
100
AcDbLine
 10
8.276759506722356
 20
4.564448905492983
 30
0.0
 11
8.354884506722356
 21
4.642573905492983
 31
0.0
  0
LINE
  5
D9C
330
D79
100
AcDbEntity
  8
0
 62
     0
100
AcDbLine
 10
8.453536202018995
 20
4.564448905492983
 30
0.0
 11
8.531661202018995
 21
4.642573905492983
 31
0.0
  0
LINE
  5
D9D
330
D79
100
AcDbEntity
  8
0
 62
     0
100
AcDbLine
 10
8.630312897315628
 20
4.564448905492983
 30
0.0
 11
8.708437897315628
 21
4.642573905492983
 31
0.0
  0
LINE
  5
D9E
330
D79
100
AcDbEntity
  8
0
 62
     0
100
AcDbLine
 10
8.807089592612268
 20
4.564448905492983
 30
0.0
 11
8.885214592612268
 21
4.642573905492983
 31
0.0
  0
LINE
  5
D9F
330
D79
100
AcDbEntity
  8
0
 62
     0
100
AcDbLine
 10
8.983866287908904
 20
4.564448905492983
 30
0.0
 11
9.061991287908906
 21
4.642573905492983
 31
0.0
  0
LINE
  5
DA0
330
D79
100
AcDbEntity
  8
0
 62
     0
100
AcDbLine
 10
9.160642983205539
 20
4.564448905492983
 30
0.0
 11
9.238767983205539
 21
4.642573905492983
 31
0.0
  0
LINE
  5
DA1
330
D79
100
AcDbEntity
  8
0
 62
     0
100
AcDbLine
 10
9.337419678502179
 20
4.564448905492983
 30
0.0
 11
9.415544678502179
 21
4.642573905492983
 31
0.0
  0
LINE
  5
DA2
330
D79
100
AcDbEntity
  8
0
 62
     0
100
AcDbLine
 10
9.514196373798814
 20
4.564448905492983
 30
0.0
 11
9.592321373798814
 21
4.642573905492983
 31
0.0
  0
LINE
  5
DA3
330
D79
100
AcDbEntity
  8
0
 62
     0
100
AcDbLine
 10
9.690973069095452
 20
4.564448905492983
 30
0.0
 11
9.769098069095452
 21
4.642573905492983
 31
0.0
  0
LINE
  5
DA4
330
D79
100
AcDbEntity
  8
0
 62
     0
100
AcDbLine
 10
9.867749764392087
 20
4.564448905492983
 30
0.0
 11
9.945874764392087
 21
4.642573905492983
 31
0.0
  0
LINE
  5
DA5
330
D79
100
AcDbEntity
  8
0
 62
     0
100
AcDbLine
 10
10.04452645968872
 20
4.564448905492983
 30
0.0
 11
10.12265145968872
 21
4.642573905492983
 31
0.0
  0
LINE
  5
DA6
330
D79
100
AcDbEntity
  8
0
 62
     0
100
AcDbLine
 10
11.92501371248614
 20
6.444936158290403
 30
0.0
 11
12.0222152082935
 21
6.542137654097759
 31
0.0
  0
LINE
  5
DA7
330
D79
100
AcDbEntity
  8
0
 62
     0
100
AcDbLine
 10
10.22130315498536
 20
4.564448905492983
 30
0.0
 11
10.29942815498536
 21
4.642573905492983
 31
0.0
  0
LINE
  5
DA8
330
D79
100
AcDbEntity
  8
0
 62
     0
100
AcDbLine
 10
11.9186171617856
 20
6.261762912293244
 30
0.0
 11
12.01581865759298
 21
6.358964408100598
 31
0.0
  0
LINE
  5
DA9
330
D79
100
AcDbEntity
  8
0
 62
     0
100
AcDbLine
 10
10.398079850282
 20
4.564448905492983
 30
0.0
 11
10.476204850282
 21
4.642573905492983
 31
0.0
  0
LINE
  5
DAA
330
D79
100
AcDbEntity
  8
0
 62
     0
100
AcDbLine
 10
11.9122206110851
 20
6.078589666296084
 30
0.0
 11
12.00942210689246
 21
6.175791162103442
 31
0.0
  0
LINE
  5
DAB
330
D79
100
AcDbEntity
  8
0
 62
     0
100
AcDbLine
 10
10.57485654557863
 20
4.564448905492983
 30
0.0
 11
10.65298154557863
 21
4.642573905492983
 31
0.0
  0
LINE
  5
DAC
330
D79
100
AcDbEntity
  8
0
 62
     0
100
AcDbLine
 10
11.90582406038458
 20
5.895416420298928
 30
0.0
 11
12.00302555619193
 21
5.992617916106283
 31
0.0
  0
LINE
  5
DAD
330
D79
100
AcDbEntity
  8
0
 62
     0
100
AcDbLine
 10
10.75163324087527
 20
4.564448905492983
 30
0.0
 11
10.82975824087527
 21
4.642573905492983
 31
0.0
  0
LINE
  5
DAE
330
D79
100
AcDbEntity
  8
0
 62
     0
100
AcDbLine
 10
11.89942750968405
 20
5.712243174301768
 30
0.0
 11
11.99662900549139
 21
5.809444670109123
 31
0.0
  0
LINE
  5
DAF
330
D79
100
AcDbEntity
  8
0
 62
     0
100
AcDbLine
 10
10.92840993617191
 20
4.564448905492983
 30
0.0
 11
11.00653493617191
 21
4.642573905492983
 31
0.0
  0
LINE
  5
DB0
330
D79
100
AcDbEntity
  8
0
 62
     0
100
AcDbLine
 10
11.89303095898351
 20
5.529069928304609
 30
0.0
 11
11.99023245479089
 21
5.626271424111966
 31
0.0
  0
LINE
  5
DB1
330
D79
100
AcDbEntity
  8
0
 62
     0
100
AcDbLine
 10
11.10518663146853
 20
4.564448905492983
 30
0.0
 11
11.18331163146853
 21
4.642573905492983
 31
0.0
  0
LINE
  5
DB2
330
D79
100
AcDbEntity
  8
0
 62
     0
100
AcDbLine
 10
11.88663440828299
 20
5.345896682307452
 30
0.0
 11
11.98383590409035
 21
5.443098178114809
 31
0.0
  0
LINE
  5
DB3
330
D79
100
AcDbEntity
  8
0
 62
     0
100
AcDbLine
 10
11.28196332676518
 20
4.564448905492983
 30
0.0
 11
11.36008832676518
 21
4.642573905492983
 31
0.0
  0
LINE
  5
DB4
330
D79
100
AcDbEntity
  8
0
 62
     0
100
AcDbLine
 10
11.88023785758248
 20
5.162723436310293
 30
0.0
 11
11.97743935338984
 21
5.259924932117648
 31
0.0
  0
LINE
  5
DB5
330
D79
100
AcDbEntity
  8
0
 62
     0
100
AcDbLine
 10
11.45874002206181
 20
4.564448905492983
 30
0.0
 11
11.53686502206181
 21
4.642573905492983
 31
0.0
  0
LINE
  5
DB6
330
D79
100
AcDbEntity
  8
0
 62
     0
100
AcDbLine
 10
11.87384130688196
 20
4.979550190313134
 30
0.0
 11
11.97104280268933
 21
5.07675168612049
 31
0.0
  0
LINE
  5
DB7
330
D79
100
AcDbEntity
  8
0
 62
     0
100
AcDbLine
 10
11.63551671735844
 20
4.564448905492983
 30
0.0
 11
11.71364171735844
 21
4.642573905492983
 31
0.0
  0
LINE
  5
DB8
330
D79
100
AcDbEntity
  8
0
 62
     0
100
AcDbLine
 10
11.86744475618145
 20
4.796376944315976
 30
0.0
 11
11.9646462519888
 21
4.893578440123333
 31
0.0
  0
LINE
  5
DB9
330
D79
100
AcDbEntity
  8
0
 62
     0
100
AcDbLine
 10
11.81229341265509
 20
4.564448905492983
 30
0.0
 11
11.95824970128828
 21
4.710405194126175
 31
0.0
  0
ENDBLK
  5
DBA
330
D79
100
AcDbEntity
  8
0
100
AcDbBlockEnd
  0
BLOCK
  5
F12
330
F07
100
AcDbEntity
  8
0
100
AcDbBlockBegin
  2
*D2
 70
     1
 10
0.0
 20
0.0
 30
0.0
  3
*D2
  1

  0
LINE
  5
37CD
330
F07
100
AcDbEntity
  8
DIM
 62
     0
100
AcDbLine
 10
8.613825243610504
 20
14.00186128562076
 30
0.0
 11
9.977062864534346
 21
14.00186128562076
 31
0.0
  0
LINE
  5
37CE
330
F07
100
AcDbEntity
  8
DIM
 62
     0
100
AcDbLine
 10
8.613825243610504
 20
7.001861285620773
 30
0.0
 11
9.977062864534344
 21
7.001861285620773
 31
0.0
  0
LINE
  5
37CF
330
F07
100
AcDbEntity
  8
DIM
 62
     0
100
AcDbLine
 10
9.767812864534345
 20
13.59686128562076
 30
0.0
 11
9.767812864534343
 21
10.84498628562076
 31
0.0
  0
LINE
  5
37D0
330
F07
100
AcDbEntity
  8
DIM
 62
     0
100
AcDbLine
 10
9.767812864534343
 20
7.406861285620773
 30
0.0
 11
9.767812864534343
 21
10.15873628562076
 31
0.0
  0
SOLID
  5
37D1
330
F07
100
AcDbEntity
  8
DIM
 62
     0
100
AcDbTrace
 10
9.700312864534344
 20
13.59686128562076
 30
0.0
 11
9.835312864534346
 21
13.59686128562076
 31
0.0
 12
9.767812864534345
 22
14.00186128562076
 32
0.0
 13
9.767812864534345
 23
14.00186128562076
 33
0.0
  0
SOLID
  5
37D2
330
F07
100
AcDbEntity
  8
DIM
 62
     0
100
AcDbTrace
 10
9.700312864534343
 20
7.406861285620773
 30
0.0
 11
9.835312864534344
 21
7.406861285620773
 31
0.0
 12
9.767812864534343
 22
7.001861285620773
 32
0.0
 13
9.767812864534343
 23
7.001861285620773
 33
0.0
  0
MTEXT
  5
37D3
330
F07
100
AcDbEntity
  8
DIM
 62
     0
100
AcDbMText
 10
9.767812864534342
 20
10.50186128562077
 30
0.0
 40
0.28125
 41
0.0
 71
     5
 72
     1
  1
\A1;E
1001
ACAD
1000
MTEXTBEGIN
1070
    73
1070
     1
1070
    44
1040
1.0
1070
    74
1070
     0
1000
MTEXTEND
  0
POINT
  5
37D4
330
F07
100
AcDbEntity
  8
DEFPOINTS
 62
     0
100
AcDbPoint
 10
8.472075243610504
 20
14.00186128562076
 30
0.0
  0
POINT
  5
37D5
330
F07
100
AcDbEntity
  8
DEFPOINTS
 62
     0
100
AcDbPoint
 10
8.472075243610504
 20
7.001861285620773
 30
0.0
  0
POINT
  5
37D6
330
F07
100
AcDbEntity
  8
DEFPOINTS
 62
     0
100
AcDbPoint
 10
9.767812864534343
 20
7.001861285620773
 30
0.0
  0
ENDBLK
  5
F13
330
F07
100
AcDbEntity
  8
0
100
AcDbBlockEnd
  0
BLOCK
  5
F20
330
F15
100
AcDbEntity
  8
0
100
AcDbBlockBegin
  2
*D3
 70
     1
 10
0.0
 20
0.0
 30
0.0
  3
*D3
  1

  0
LINE
  5
37D7
330
F15
100
AcDbEntity
  8
DIM
 62
     0
100
AcDbLine
 10
8.621325243610503
 20
14.19686128562076
 30
0.0
 11
10.56023388364227
 21
14.19686128562076
 31
0.0
  0
LINE
  5
37D8
330
F15
100
AcDbEntity
  8
DIM
 62
     0
100
AcDbLine
 10
8.621325243610503
 20
6.806861285620772
 30
0.0
 11
10.56023388364227
 21
6.806861285620771
 31
0.0
  0
LINE
  5
37D9
330
F15
100
AcDbEntity
  8
DIM
 62
     0
100
AcDbLine
 10
10.35098388364227
 20
13.79186128562076
 30
0.0
 11
10.35098388364227
 21
10.84498628562076
 31
0.0
  0
LINE
  5
37DA
330
F15
100
AcDbEntity
  8
DIM
 62
     0
100
AcDbLine
 10
10.35098388364227
 20
7.211861285620772
 30
0.0
 11
10.35098388364227
 21
10.15873628562076
 31
0.0
  0
SOLID
  5
37DB
330
F15
100
AcDbEntity
  8
DIM
 62
     0
100
AcDbTrace
 10
10.28348388364227
 20
13.79186128562076
 30
0.0
 11
10.41848388364227
 21
13.79186128562076
 31
0.0
 12
10.35098388364227
 22
14.19686128562076
 32
0.0
 13
10.35098388364227
 23
14.19686128562076
 33
0.0
  0
SOLID
  5
37DC
330
F15
100
AcDbEntity
  8
DIM
 62
     0
100
AcDbTrace
 10
10.28348388364227
 20
7.211861285620772
 30
0.0
 11
10.41848388364227
 21
7.211861285620772
 31
0.0
 12
10.35098388364227
 22
6.806861285620771
 32
0.0
 13
10.35098388364227
 23
6.806861285620771
 33
0.0
  0
MTEXT
  5
37DD
330
F15
100
AcDbEntity
  8
DIM
 62
     0
100
AcDbMText
 10
10.35098388364226
 20
10.50186128562077
 30
0.0
 40
0.28125
 41
0.0
 71
     5
 72
     1
  1
\A1;A
1001
ACAD
1000
MTEXTBEGIN
1070
    73
1070
     1
1070
    44
1040
1.0
1070
    74
1070
     0
1000
MTEXTEND
  0
POINT
  5
37DE
330
F15
100
AcDbEntity
  8
DEFPOINTS
 62
     0
100
AcDbPoint
 10
8.479575243610502
 20
14.19686128562076
 30
0.0
  0
POINT
  5
37DF
330
F15
100
AcDbEntity
  8
DEFPOINTS
 62
     0
100
AcDbPoint
 10
8.479575243610502
 20
6.806861285620772
 30
0.0
  0
POINT
  5
37E0
330
F15
100
AcDbEntity
  8
DEFPOINTS
 62
     0
100
AcDbPoint
 10
10.35098388364227
 20
6.806861285620771
 30
0.0
  0
ENDBLK
  5
F21
330
F15
100
AcDbEntity
  8
0
100
AcDbBlockEnd
  0
BLOCK
  5
F2E
330
F23
100
AcDbEntity
  8
0
100
AcDbBlockBegin
  2
*D4
 70
     1
 10
0.0
 20
0.0
 30
0.0
  3
*D4
  1

  0
LINE
  5
37E1
330
F23
100
AcDbEntity
  8
DIM
 62
     0
100
AcDbLine
 10
4.1595752436105
 20
14.14361128562076
 30
0.0
 11
4.1595752436105
 21
15.75840386447355
 31
0.0
  0
LINE
  5
37E2
330
F23
100
AcDbEntity
  8
DIM
 62
     0
100
AcDbLine
 10
8.472075243610504
 20
14.14361128562076
 30
0.0
 11
8.472075243610504
 21
15.75840386447355
 31
0.0
  0
LINE
  5
37E3
330
F23
100
AcDbEntity
  8
DIM
 62
     0
100
AcDbLine
 10
4.5645752436105
 20
15.54915386447355
 30
0.0
 11
6.043012743610503
 21
15.54915386447355
 31
0.0
  0
LINE
  5
37E4
330
F23
100
AcDbEntity
  8
DIM
 62
     0
100
AcDbLine
 10
8.067075243610505
 20
15.54915386447355
 30
0.0
 11
6.588637743610502
 21
15.54915386447355
 31
0.0
  0
SOLID
  5
37E5
330
F23
100
AcDbEntity
  8
DIM
 62
     0
100
AcDbTrace
 10
4.5645752436105
 20
15.61665386447355
 30
0.0
 11
4.5645752436105
 21
15.48165386447355
 31
0.0
 12
4.1595752436105
 22
15.54915386447355
 32
0.0
 13
4.1595752436105
 23
15.54915386447355
 33
0.0
  0
SOLID
  5
37E6
330
F23
100
AcDbEntity
  8
DIM
 62
     0
100
AcDbTrace
 10
8.067075243610505
 20
15.61665386447355
 30
0.0
 11
8.067075243610505
 21
15.48165386447355
 31
0.0
 12
8.472075243610504
 22
15.54915386447355
 32
0.0
 13
8.472075243610504
 23
15.54915386447355
 33
0.0
  0
MTEXT
  5
37E7
330
F23
100
AcDbEntity
  8
DIM
 62
     0
100
AcDbMText
 10
6.315825243610502
 20
15.54915386447355
 30
0.0
 40
0.28125
 41
0.0
 71
     5
 72
     1
  1
\A1;F
1001
ACAD
1000
MTEXTBEGIN
1070
    73
1070
     1
1070
    44
1040
1.0
1070
    74
1070
     0
1000
MTEXTEND
  0
POINT
  5
37E8
330
F23
100
AcDbEntity
  8
DEFPOINTS
 62
     0
100
AcDbPoint
 10
4.1595752436105
 20
14.00186128562076
 30
0.0
  0
POINT
  5
37E9
330
F23
100
AcDbEntity
  8
DEFPOINTS
 62
     0
100
AcDbPoint
 10
8.472075243610504
 20
14.00186128562076
 30
0.0
  0
POINT
  5
37EA
330
F23
100
AcDbEntity
  8
DEFPOINTS
 62
     0
100
AcDbPoint
 10
8.472075243610504
 20
15.54915386447355
 30
0.0
  0
ENDBLK
  5
F2F
330
F23
100
AcDbEntity
  8
0
100
AcDbBlockEnd
  0
BLOCK
  5
F3C
330
F31
100
AcDbEntity
  8
0
100
AcDbBlockBegin
  2
*D5
 70
     1
 10
0.0
 20
0.0
 30
0.0
  3
*D5
  1

  0
LINE
  5
37EB
330
F31
100
AcDbEntity
  8
DIM
 62
     0
100
AcDbLine
 10
3.964575243610498
 20
14.15111128562076
 30
0.0
 11
3.964575243610498
 21
16.30147257629416
 31
0.0
  0
LINE
  5
37EC
330
F31
100
AcDbEntity
  8
DIM
 62
     0
100
AcDbLine
 10
8.667075243610502
 20
14.15111128562076
 30
0.0
 11
8.667075243610502
 21
16.30147257629416
 31
0.0
  0
LINE
  5
37ED
330
F31
100
AcDbEntity
  8
DIM
 62
     0
100
AcDbLine
 10
4.369575243610498
 20
16.09222257629415
 30
0.0
 11
6.043012743610501
 21
16.09222257629415
 31
0.0
  0
LINE
  5
37EE
330
F31
100
AcDbEntity
  8
DIM
 62
     0
100
AcDbLine
 10
8.262075243610503
 20
16.09222257629415
 30
0.0
 11
6.5886377436105
 21
16.09222257629415
 31
0.0
  0
SOLID
  5
37EF
330
F31
100
AcDbEntity
  8
DIM
 62
     0
100
AcDbTrace
 10
4.369575243610498
 20
16.15972257629415
 30
0.0
 11
4.369575243610498
 21
16.02472257629416
 31
0.0
 12
3.964575243610498
 22
16.09222257629415
 32
0.0
 13
3.964575243610498
 23
16.09222257629415
 33
0.0
  0
SOLID
  5
37F0
330
F31
100
AcDbEntity
  8
DIM
 62
     0
100
AcDbTrace
 10
8.262075243610503
 20
16.15972257629415
 30
0.0
 11
8.262075243610503
 21
16.02472257629416
 31
0.0
 12
8.667075243610502
 22
16.09222257629415
 32
0.0
 13
8.667075243610502
 23
16.09222257629415
 33
0.0
  0
MTEXT
  5
37F1
330
F31
100
AcDbEntity
  8
DIM
 62
     0
100
AcDbMText
 10
6.3158252436105
 20
16.09222257629415
 30
0.0
 40
0.28125
 41
0.0
 71
     5
 72
     1
  1
\A1;B
1001
ACAD
1000
MTEXTBEGIN
1070
    73
1070
     1
1070
    44
1040
1.0
1070
    74
1070
     0
1000
MTEXTEND
  0
POINT
  5
37F2
330
F31
100
AcDbEntity
  8
DEFPOINTS
 62
     0
100
AcDbPoint
 10
3.964575243610498
 20
14.00936128562076
 30
0.0
  0
POINT
  5
37F3
330
F31
100
AcDbEntity
  8
DEFPOINTS
 62
     0
100
AcDbPoint
 10
8.667075243610502
 20
14.00936128562076
 30
0.0
  0
POINT
  5
37F4
330
F31
100
AcDbEntity
  8
DEFPOINTS
 62
     0
100
AcDbPoint
 10
8.667075243610502
 20
16.09222257629415
 30
0.0
  0
ENDBLK
  5
F3D
330
F31
100
AcDbEntity
  8
0
100
AcDbBlockEnd
  0
BLOCK
  5
F59
330
F4E
100
AcDbEntity
  8
0
100
AcDbBlockBegin
  2
*D6
 70
     1
 10
0.0
 20
0.0
 30
0.0
  3
*D6
  1

  0
LINE
  5
37F5
330
F4E
100
AcDbEntity
  8
DIM
 62
     0
100
AcDbLine
 10
4.1595752436105
 20
14.14361128562076
 30
0.0
 11
4.1595752436105
 21
15.75840386447355
 31
0.0
  0
LINE
  5
37F6
330
F4E
100
AcDbEntity
  8
DIM
 62
     0
100
AcDbLine
 10
3.964575243610498
 20
14.15111128562076
 30
0.0
 11
3.964575243610498
 21
15.75840386447355
 31
0.0
  0
LINE
  5
37F7
330
F4E
100
AcDbEntity
  8
DIM
 62
     0
100
AcDbLine
 10
4.5645752436105
 20
15.54915386447355
 30
0.0
 11
4.969575243610499
 21
15.54915386447355
 31
0.0
  0
LINE
  5
37F8
330
F4E
100
AcDbEntity
  8
DIM
 62
     0
100
AcDbLine
 10
3.559575243610498
 20
15.54915386447355
 30
0.0
 11
3.154575243610498
 21
15.54915386447355
 31
0.0
  0
SOLID
  5
37F9
330
F4E
100
AcDbEntity
  8
DIM
 62
     0
100
AcDbTrace
 10
4.5645752436105
 20
15.61665386447355
 30
0.0
 11
4.5645752436105
 21
15.48165386447355
 31
0.0
 12
4.1595752436105
 22
15.54915386447355
 32
0.0
 13
4.1595752436105
 23
15.54915386447355
 33
0.0
  0
SOLID
  5
37FA
330
F4E
100
AcDbEntity
  8
DIM
 62
     0
100
AcDbTrace
 10
3.559575243610498
 20
15.61665386447355
 30
0.0
 11
3.559575243610498
 21
15.48165386447355
 31
0.0
 12
3.964575243610498
 22
15.54915386447355
 32
0.0
 13
3.964575243610498
 23
15.54915386447355
 33
0.0
  0
MTEXT
  5
37FB
330
F4E
100
AcDbEntity
  8
DIM
 62
     0
100
AcDbMText
 10
2.582934618610498
 20
15.54915386447355
 30
0.0
 40
0.28125
 41
0.0
 71
     5
 72
     1
  1
\A1;0.188
1001
ACAD
1000
MTEXTBEGIN
1070
    73
1070
     1
1070
    44
1040
1.0
1070
    74
1070
     0
1000
MTEXTEND
  0
POINT
  5
37FC
330
F4E
100
AcDbEntity
  8
DEFPOINTS
 62
     0
100
AcDbPoint
 10
4.1595752436105
 20
14.00186128562076
 30
0.0
  0
POINT
  5
37FD
330
F4E
100
AcDbEntity
  8
DEFPOINTS
 62
     0
100
AcDbPoint
 10
3.964575243610498
 20
14.00936128562076
 30
0.0
  0
POINT
  5
37FE
330
F4E
100
AcDbEntity
  8
DEFPOINTS
 62
     0
100
AcDbPoint
 10
3.964575243610498
 20
15.54915386447355
 30
0.0
  0
ENDBLK
  5
F5A
330
F4E
100
AcDbEntity
  8
0
100
AcDbBlockEnd
  0
BLOCK
  5
FA0
330
F95
100
AcDbEntity
  8
0
100
AcDbBlockBegin
  2
*D7
 70
     1
 10
0.0
 20
0.0
 30
0.0
  3
*D7
  1

  0
LINE
  5
37FF
330
F95
100
AcDbEntity
  8
DIM
 62
     0
100
AcDbLine
 10
8.613825243610504
 20
7.001861285620773
 30
0.0
 11
9.374208702275707
 21
7.001861285620773
 31
0.0
  0
LINE
  5
3800
330
F95
100
AcDbEntity
  8
DIM
 62
     0
100
AcDbLine
 10
8.613825243610504
 20
10.50186128562077
 30
0.0
 11
9.374208702275707
 21
10.50186128562077
 31
0.0
  0
LINE
  5
3801
330
F95
100
AcDbEntity
  8
DIM
 62
     0
100
AcDbLine
 10
9.164958702275706
 20
7.406861285620773
 30
0.0
 11
9.164958702275706
 21
8.40873628562077
 31
0.0
  0
LINE
  5
3802
330
F95
100
AcDbEntity
  8
DIM
 62
     0
100
AcDbLine
 10
9.164958702275706
 20
10.09686128562077
 30
0.0
 11
9.164958702275706
 21
9.094986285620771
 31
0.0
  0
SOLID
  5
3803
330
F95
100
AcDbEntity
  8
DIM
 62
     0
100
AcDbTrace
 10
9.097458702275705
 20
7.406861285620773
 30
0.0
 11
9.232458702275707
 21
7.406861285620773
 31
0.0
 12
9.164958702275706
 22
7.001861285620773
 32
0.0
 13
9.164958702275706
 23
7.001861285620773
 33
0.0
  0
SOLID
  5
3804
330
F95
100
AcDbEntity
  8
DIM
 62
     0
100
AcDbTrace
 10
9.097458702275705
 20
10.09686128562077
 30
0.0
 11
9.232458702275707
 21
10.09686128562077
 31
0.0
 12
9.164958702275706
 22
10.50186128562077
 32
0.0
 13
9.164958702275706
 23
10.50186128562077
 33
0.0
  0
MTEXT
  5
3805
330
F95
100
AcDbEntity
  8
DIM
 62
     0
100
AcDbMText
 10
9.164958702275704
 20
8.751861285620773
 30
0.0
 40
0.28125
 41
0.0
 71
     5
 72
     1
  1
\A1;G
1001
ACAD
1000
MTEXTBEGIN
1070
    73
1070
     1
1070
    44
1040
1.0
1070
    74
1070
     0
1000
MTEXTEND
  0
POINT
  5
3806
330
F95
100
AcDbEntity
  8
DEFPOINTS
 62
     0
100
AcDbPoint
 10
8.472075243610504
 20
7.001861285620773
 30
0.0
  0
POINT
  5
3807
330
F95
100
AcDbEntity
  8
DEFPOINTS
 62
     0
100
AcDbPoint
 10
8.472075243610504
 20
10.50186128562077
 30
0.0
  0
POINT
  5
3808
330
F95
100
AcDbEntity
  8
DEFPOINTS
 62
     0
100
AcDbPoint
 10
9.164958702275706
 20
10.50186128562077
 30
0.0
  0
ENDBLK
  5
FA1
330
F95
100
AcDbEntity
  8
0
100
AcDbBlockEnd
  0
BLOCK
  5
FCB
330
FC0
100
AcDbEntity
  8
0
100
AcDbBlockBegin
  2
*D8
 70
     1
 10
0.0
 20
0.0
 30
0.0
  3
*D8
  1

  0
LINE
  5
3809
330
FC0
100
AcDbEntity
  8
DIM
 62
     0
100
AcDbLine
 10
8.613825243610508
 20
22.01295604953923
 30
0.0
 11
9.977062864534344
 21
22.01295604953923
 31
0.0
  0
LINE
  5
380A
330
FC0
100
AcDbEntity
  8
DIM
 62
     0
100
AcDbLine
 10
8.613825243610508
 20
29.01295604953924
 30
0.0
 11
9.977062864534346
 21
29.01295604953924
 31
0.0
  0
LINE
  5
380B
330
FC0
100
AcDbEntity
  8
DIM
 62
     0
100
AcDbLine
 10
9.767812864534345
 20
22.41795604953924
 30
0.0
 11
9.767812864534345
 21
25.16983104953923
 31
0.0
  0
LINE
  5
380C
330
FC0
100
AcDbEntity
  8
DIM
 62
     0
100
AcDbLine
 10
9.767812864534347
 20
28.60795604953923
 30
0.0
 11
9.767812864534345
 21
25.85608104953923
 31
0.0
  0
SOLID
  5
380D
330
FC0
100
AcDbEntity
  8
DIM
 62
     0
100
AcDbTrace
 10
9.700312864534344
 20
22.41795604953924
 30
0.0
 11
9.835312864534346
 21
22.41795604953924
 31
0.0
 12
9.767812864534345
 22
22.01295604953923
 32
0.0
 13
9.767812864534345
 23
22.01295604953923
 33
0.0
  0
SOLID
  5
380E
330
FC0
100
AcDbEntity
  8
DIM
 62
     0
100
AcDbTrace
 10
9.700312864534346
 20
28.60795604953923
 30
0.0
 11
9.835312864534348
 21
28.60795604953923
 31
0.0
 12
9.767812864534347
 22
29.01295604953924
 32
0.0
 13
9.767812864534347
 23
29.01295604953924
 33
0.0
  0
MTEXT
  5
380F
330
FC0
100
AcDbEntity
  8
DIM
 62
     0
100
AcDbMText
 10
9.767812864534342
 20
25.51295604953924
 30
0.0
 40
0.28125
 41
0.0
 71
     5
 72
     1
  1
\A1;E
1001
ACAD
1000
MTEXTBEGIN
1070
    73
1070
     1
1070
    44
1040
1.0
1070
    74
1070
     0
1000
MTEXTEND
  0
POINT
  5
3810
330
FC0
100
AcDbEntity
  8
DEFPOINTS
 62
     0
100
AcDbPoint
 10
8.472075243610508
 20
22.01295604953923
 30
0.0
  0
POINT
  5
3811
330
FC0
100
AcDbEntity
  8
DEFPOINTS
 62
     0
100
AcDbPoint
 10
8.472075243610508
 20
29.01295604953924
 30
0.0
  0
POINT
  5
3812
330
FC0
100
AcDbEntity
  8
DEFPOINTS
 62
     0
100
AcDbPoint
 10
9.767812864534347
 20
29.01295604953924
 30
0.0
  0
ENDBLK
  5
FCC
330
FC0
100
AcDbEntity
  8
0
100
AcDbBlockEnd
  0
BLOCK
  5
FD9
330
FCE
100
AcDbEntity
  8
0
100
AcDbBlockBegin
  2
*D9
 70
     1
 10
0.0
 20
0.0
 30
0.0
  3
*D9
  1

  0
LINE
  5
3813
330
FCE
100
AcDbEntity
  8
DIM
 62
     0
100
AcDbLine
 10
8.62132524361051
 20
29.20795604953925
 30
0.0
 11
10.56023388364227
 21
29.20795604953925
 31
0.0
  0
LINE
  5
3814
330
FCE
100
AcDbEntity
  8
DIM
 62
     0
100
AcDbLine
 10
8.62132524361051
 20
21.81795604953923
 30
0.0
 11
10.56023388364227
 21
21.81795604953923
 31
0.0
  0
LINE
  5
3815
330
FCE
100
AcDbEntity
  8
DIM
 62
     0
100
AcDbLine
 10
10.35098388364227
 20
28.80295604953925
 30
0.0
 11
10.35098388364227
 21
25.85608104953924
 31
0.0
  0
LINE
  5
3816
330
FCE
100
AcDbEntity
  8
DIM
 62
     0
100
AcDbLine
 10
10.35098388364227
 20
22.22295604953923
 30
0.0
 11
10.35098388364227
 21
25.16983104953924
 31
0.0
  0
SOLID
  5
3817
330
FCE
100
AcDbEntity
  8
DIM
 62
     0
100
AcDbTrace
 10
10.28348388364227
 20
28.80295604953925
 30
0.0
 11
10.41848388364227
 21
28.80295604953925
 31
0.0
 12
10.35098388364227
 22
29.20795604953925
 32
0.0
 13
10.35098388364227
 23
29.20795604953925
 33
0.0
  0
SOLID
  5
3818
330
FCE
100
AcDbEntity
  8
DIM
 62
     0
100
AcDbTrace
 10
10.28348388364227
 20
22.22295604953923
 30
0.0
 11
10.41848388364227
 21
22.22295604953923
 31
0.0
 12
10.35098388364227
 22
21.81795604953923
 32
0.0
 13
10.35098388364227
 23
21.81795604953923
 33
0.0
  0
MTEXT
  5
3819
330
FCE
100
AcDbEntity
  8
DIM
 62
     0
100
AcDbMText
 10
10.35098388364226
 20
25.51295604953924
 30
0.0
 40
0.28125
 41
0.0
 71
     5
 72
     1
  1
\A1;A
1001
ACAD
1000
MTEXTBEGIN
1070
    73
1070
     1
1070
    44
1040
1.0
1070
    74
1070
     0
1000
MTEXTEND
  0
POINT
  5
381A
330
FCE
100
AcDbEntity
  8
DEFPOINTS
 62
     0
100
AcDbPoint
 10
8.47957524361051
 20
29.20795604953925
 30
0.0
  0
POINT
  5
381B
330
FCE
100
AcDbEntity
  8
DEFPOINTS
 62
     0
100
AcDbPoint
 10
8.47957524361051
 20
21.81795604953923
 30
0.0
  0
POINT
  5
381C
330
FCE
100
AcDbEntity
  8
DEFPOINTS
 62
     0
100
AcDbPoint
 10
10.35098388364227
 20
21.81795604953923
 30
0.0
  0
ENDBLK
  5
FDA
330
FCE
100
AcDbEntity
  8
0
100
AcDbBlockEnd
  0
BLOCK
  5
FE7
330
FDC
100
AcDbEntity
  8
0
100
AcDbBlockBegin
  2
*D10
 70
     1
 10
0.0
 20
0.0
 30
0.0
  3
*D10
  1

  0
LINE
  5
381D
330
FDC
100
AcDbEntity
  8
DIM
 62
     0
100
AcDbLine
 10
3.964575243610503
 20
28.79670604953926
 30
0.0
 11
3.964575243610503
 21
30.68720752157714
 31
0.0
  0
LINE
  5
381E
330
FDC
100
AcDbEntity
  8
DIM
 62
     0
100
AcDbLine
 10
8.667075243610502
 20
29.16220604953923
 30
0.0
 11
8.667075243610502
 21
30.68720752157714
 31
0.0
  0
LINE
  5
381F
330
FDC
100
AcDbEntity
  8
DIM
 62
     0
100
AcDbLine
 10
4.369575243610503
 20
30.47795752157714
 30
0.0
 11
6.043012743610503
 21
30.47795752157714
 31
0.0
  0
LINE
  5
3820
330
FDC
100
AcDbEntity
  8
DIM
 62
     0
100
AcDbLine
 10
8.262075243610503
 20
30.47795752157714
 30
0.0
 11
6.588637743610503
 21
30.47795752157714
 31
0.0
  0
SOLID
  5
3821
330
FDC
100
AcDbEntity
  8
DIM
 62
     0
100
AcDbTrace
 10
4.369575243610503
 20
30.54545752157713
 30
0.0
 11
4.369575243610503
 21
30.41045752157714
 31
0.0
 12
3.964575243610503
 22
30.47795752157714
 32
0.0
 13
3.964575243610503
 23
30.47795752157714
 33
0.0
  0
SOLID
  5
3822
330
FDC
100
AcDbEntity
  8
DIM
 62
     0
100
AcDbTrace
 10
8.262075243610503
 20
30.54545752157713
 30
0.0
 11
8.262075243610503
 21
30.41045752157714
 31
0.0
 12
8.667075243610502
 22
30.47795752157714
 32
0.0
 13
8.667075243610502
 23
30.47795752157714
 33
0.0
  0
MTEXT
  5
3823
330
FDC
100
AcDbEntity
  8
DIM
 62
     0
100
AcDbMText
 10
6.315825243610503
 20
30.47795752157714
 30
0.0
 40
0.28125
 41
0.0
 71
     5
 72
     1
  1
\A1;B
1001
ACAD
1000
MTEXTBEGIN
1070
    73
1070
     1
1070
    44
1040
1.0
1070
    74
1070
     0
1000
MTEXTEND
  0
POINT
  5
3824
330
FDC
100
AcDbEntity
  8
DEFPOINTS
 62
     0
100
AcDbPoint
 10
3.964575243610503
 20
28.65495604953926
 30
0.0
  0
POINT
  5
3825
330
FDC
100
AcDbEntity
  8
DEFPOINTS
 62
     0
100
AcDbPoint
 10
8.667075243610502
 20
29.02045604953924
 30
0.0
  0
POINT
  5
3826
330
FDC
100
AcDbEntity
  8
DEFPOINTS
 62
     0
100
AcDbPoint
 10
8.667075243610502
 20
30.47795752157714
 30
0.0
  0
ENDBLK
  5
FE8
330
FDC
100
AcDbEntity
  8
0
100
AcDbBlockEnd
  0
BLOCK
  5
FF6
330
FEB
100
AcDbEntity
  8
0
100
AcDbBlockBegin
  2
*D11
 70
     1
 10
0.0
 20
0.0
 30
0.0
  3
*D11
  1

  0
LINE
  5
3827
330
FEB
100
AcDbEntity
  8
DIM
 62
     0
100
AcDbLine
 10
4.159575243610503
 20
29.15470604953923
 30
0.0
 11
4.159575243610503
 21
30.15363005462835
 31
0.0
  0
LINE
  5
3828
330
FEB
100
AcDbEntity
  8
DIM
 62
     0
100
AcDbLine
 10
3.964575243610503
 20
28.79670604953926
 30
0.0
 11
3.964575243610503
 21
30.15363005462835
 31
0.0
  0
LINE
  5
3829
330
FEB
100
AcDbEntity
  8
DIM
 62
     0
100
AcDbLine
 10
4.564575243610503
 20
29.94438005462835
 30
0.0
 11
4.969575243610503
 21
29.94438005462835
 31
0.0
  0
LINE
  5
382A
330
FEB
100
AcDbEntity
  8
DIM
 62
     0
100
AcDbLine
 10
3.559575243610503
 20
29.94438005462835
 30
0.0
 11
3.154575243610503
 21
29.94438005462835
 31
0.0
  0
SOLID
  5
382B
330
FEB
100
AcDbEntity
  8
DIM
 62
     0
100
AcDbTrace
 10
4.564575243610503
 20
30.01188005462835
 30
0.0
 11
4.564575243610503
 21
29.87688005462835
 31
0.0
 12
4.159575243610503
 22
29.94438005462835
 32
0.0
 13
4.159575243610503
 23
29.94438005462835
 33
0.0
  0
SOLID
  5
382C
330
FEB
100
AcDbEntity
  8
DIM
 62
     0
100
AcDbTrace
 10
3.559575243610503
 20
30.01188005462835
 30
0.0
 11
3.559575243610503
 21
29.87688005462835
 31
0.0
 12
3.964575243610503
 22
29.94438005462835
 32
0.0
 13
3.964575243610503
 23
29.94438005462835
 33
0.0
  0
MTEXT
  5
382D
330
FEB
100
AcDbEntity
  8
DIM
 62
     0
100
AcDbMText
 10
2.582934618610503
 20
29.94438005462835
 30
0.0
 40
0.28125
 41
0.0
 71
     5
 72
     1
  1
\A1;0.188
1001
ACAD
1000
MTEXTBEGIN
1070
    73
1070
     1
1070
    44
1040
1.0
1070
    74
1070
     0
1000
MTEXTEND
  0
POINT
  5
382E
330
FEB
100
AcDbEntity
  8
DEFPOINTS
 62
     0
100
AcDbPoint
 10
4.159575243610503
 20
29.01295604953924
 30
0.0
  0
POINT
  5
382F
330
FEB
100
AcDbEntity
  8
DEFPOINTS
 62
     0
100
AcDbPoint
 10
3.964575243610503
 20
28.65495604953926
 30
0.0
  0
POINT
  5
3830
330
FEB
100
AcDbEntity
  8
DEFPOINTS
 62
     0
100
AcDbPoint
 10
3.964575243610503
 20
29.94438005462835
 30
0.0
  0
ENDBLK
  5
FF7
330
FEB
100
AcDbEntity
  8
0
100
AcDbBlockEnd
  0
BLOCK
  5
1004
330
FF9
100
AcDbEntity
  8
0
100
AcDbBlockBegin
  2
*D12
 70
     1
 10
0.0
 20
0.0
 30
0.0
  3
*D12
  1

  0
LINE
  5
3831
330
FF9
100
AcDbEntity
  8
DIM
 62
     0
100
AcDbLine
 10
4.159575243610503
 20
29.15470604953923
 30
0.0
 11
4.159575243610503
 21
30.15363005462835
 31
0.0
  0
LINE
  5
3832
330
FF9
100
AcDbEntity
  8
DIM
 62
     0
100
AcDbLine
 10
8.472075243610506
 20
29.15470604953923
 30
0.0
 11
8.472075243610506
 21
30.15363005462835
 31
0.0
  0
LINE
  5
3833
330
FF9
100
AcDbEntity
  8
DIM
 62
     0
100
AcDbLine
 10
4.564575243610503
 20
29.94438005462835
 30
0.0
 11
6.043012743610505
 21
29.94438005462835
 31
0.0
  0
LINE
  5
3834
330
FF9
100
AcDbEntity
  8
DIM
 62
     0
100
AcDbLine
 10
8.067075243610506
 20
29.94438005462835
 30
0.0
 11
6.588637743610505
 21
29.94438005462835
 31
0.0
  0
SOLID
  5
3835
330
FF9
100
AcDbEntity
  8
DIM
 62
     0
100
AcDbTrace
 10
4.564575243610503
 20
30.01188005462835
 30
0.0
 11
4.564575243610503
 21
29.87688005462835
 31
0.0
 12
4.159575243610503
 22
29.94438005462835
 32
0.0
 13
4.159575243610503
 23
29.94438005462835
 33
0.0
  0
SOLID
  5
3836
330
FF9
100
AcDbEntity
  8
DIM
 62
     0
100
AcDbTrace
 10
8.067075243610506
 20
30.01188005462835
 30
0.0
 11
8.067075243610506
 21
29.87688005462835
 31
0.0
 12
8.472075243610506
 22
29.94438005462835
 32
0.0
 13
8.472075243610506
 23
29.94438005462835
 33
0.0
  0
MTEXT
  5
3837
330
FF9
100
AcDbEntity
  8
DIM
 62
     0
100
AcDbMText
 10
6.315825243610505
 20
29.94438005462835
 30
0.0
 40
0.28125
 41
0.0
 71
     5
 72
     1
  1
\A1;F
1001
ACAD
1000
MTEXTBEGIN
1070
    73
1070
     1
1070
    44
1040
1.0
1070
    74
1070
     0
1000
MTEXTEND
  0
POINT
  5
3838
330
FF9
100
AcDbEntity
  8
DEFPOINTS
 62
     0
100
AcDbPoint
 10
4.159575243610503
 20
29.01295604953924
 30
0.0
  0
POINT
  5
3839
330
FF9
100
AcDbEntity
  8
DEFPOINTS
 62
     0
100
AcDbPoint
 10
8.472075243610506
 20
29.01295604953924
 30
0.0
  0
POINT
  5
383A
330
FF9
100
AcDbEntity
  8
DEFPOINTS
 62
     0
100
AcDbPoint
 10
8.472075243610506
 20
29.94438005462835
 30
0.0
  0
ENDBLK
  5
1005
330
FF9
100
AcDbEntity
  8
0
100
AcDbBlockEnd
  0
BLOCK
  5
1033
330
1028
100
AcDbEntity
  8
0
100
AcDbBlockBegin
  2
*D13
 70
     1
 10
0.0
 20
0.0
 30
0.0
  3
*D13
  1

  0
LINE
  5
383B
330
1028
100
AcDbEntity
  8
DIM
 62
     0
100
AcDbLine
 10
8.613825243610506
 20
29.01295604953925
 30
0.0
 11
9.977062864534346
 21
29.01295604953925
 31
0.0
  0
LINE
  5
383C
330
1028
100
AcDbEntity
  8
DIM
 62
     0
100
AcDbLine
 10
8.621325243610503
 20
29.20795604953925
 30
0.0
 11
9.977062864534346
 21
29.20795604953925
 31
0.0
  0
LINE
  5
383D
330
1028
100
AcDbEntity
  8
DIM
 62
     0
100
AcDbLine
 10
9.767812864534347
 20
28.60795604953925
 30
0.0
 11
9.767812864534347
 21
28.20295604953925
 31
0.0
  0
LINE
  5
383E
330
1028
100
AcDbEntity
  8
DIM
 62
     0
100
AcDbLine
 10
9.767812864534347
 20
29.61295604953925
 30
0.0
 11
9.767812864534347
 21
30.01795604953925
 31
0.0
  0
LINE
  5
383F
330
1028
100
AcDbEntity
  8
DIM
 62
     0
100
AcDbLine
 10
9.767812864534347
 20
30.01795604953925
 30
0.0
 11
10.17281286453434
 21
30.01795604953925
 31
0.0
  0
SOLID
  5
3840
330
1028
100
AcDbEntity
  8
DIM
 62
     0
100
AcDbTrace
 10
9.700312864534346
 20
28.60795604953925
 30
0.0
 11
9.835312864534348
 21
28.60795604953925
 31
0.0
 12
9.767812864534347
 22
29.01295604953925
 32
0.0
 13
9.767812864534347
 23
29.01295604953925
 33
0.0
  0
SOLID
  5
3841
330
1028
100
AcDbEntity
  8
DIM
 62
     0
100
AcDbTrace
 10
9.700312864534346
 20
29.61295604953925
 30
0.0
 11
9.835312864534348
 21
29.61295604953925
 31
0.0
 12
9.767812864534347
 22
29.20795604953925
 32
0.0
 13
9.767812864534347
 23
29.20795604953925
 33
0.0
  0
MTEXT
  5
3842
330
1028
100
AcDbEntity
  8
DIM
 62
     0
100
AcDbMText
 10
10.74445348953434
 20
30.01795604953925
 30
0.0
 40
0.28125
 41
0.0
 71
     5
 72
     1
  1
\A1;0.188
1001
ACAD
1000
MTEXTBEGIN
1070
    73
1070
     1
1070
    44
1040
1.0
1070
    74
1070
     0
1000
MTEXTEND
  0
POINT
  5
3843
330
1028
100
AcDbEntity
  8
DEFPOINTS
 62
     0
100
AcDbPoint
 10
8.472075243610506
 20
29.01295604953925
 30
0.0
  0
POINT
  5
3844
330
1028
100
AcDbEntity
  8
DEFPOINTS
 62
     0
100
AcDbPoint
 10
8.479575243610502
 20
29.20795604953925
 30
0.0
  0
POINT
  5
3845
330
1028
100
AcDbEntity
  8
DEFPOINTS
 62
     0
100
AcDbPoint
 10
9.767812864534347
 20
29.20795604953925
 30
0.0
  0
ENDBLK
  5
1034
330
1028
100
AcDbEntity
  8
0
100
AcDbBlockEnd
  0
BLOCK
  5
1079
330
106E
100
AcDbEntity
  8
0
100
AcDbBlockBegin
  2
*D14
 70
     1
 10
0.0
 20
0.0
 30
0.0
  3
*D14
  1

  0
LINE
  5
3846
330
106E
100
AcDbEntity
  8
DIM
 62
     0
100
AcDbLine
 10
8.613825243610508
 20
22.01295604953923
 30
0.0
 11
9.374208702275707
 21
22.01295604953923
 31
0.0
  0
LINE
  5
3847
330
106E
100
AcDbEntity
  8
DIM
 62
     0
100
AcDbLine
 10
8.613825243610508
 20
25.51295604953923
 30
0.0
 11
9.374208702275707
 21
25.51295604953923
 31
0.0
  0
LINE
  5
3848
330
106E
100
AcDbEntity
  8
DIM
 62
     0
100
AcDbLine
 10
9.164958702275706
 20
22.41795604953924
 30
0.0
 11
9.164958702275706
 21
23.41983104953923
 31
0.0
  0
LINE
  5
3849
330
106E
100
AcDbEntity
  8
DIM
 62
     0
100
AcDbLine
 10
9.164958702275706
 20
25.10795604953923
 30
0.0
 11
9.164958702275706
 21
24.10608104953924
 31
0.0
  0
SOLID
  5
384A
330
106E
100
AcDbEntity
  8
DIM
 62
     0
100
AcDbTrace
 10
9.097458702275705
 20
22.41795604953924
 30
0.0
 11
9.232458702275707
 21
22.41795604953924
 31
0.0
 12
9.164958702275706
 22
22.01295604953923
 32
0.0
 13
9.164958702275706
 23
22.01295604953923
 33
0.0
  0
SOLID
  5
384B
330
106E
100
AcDbEntity
  8
DIM
 62
     0
100
AcDbTrace
 10
9.097458702275705
 20
25.10795604953923
 30
0.0
 11
9.232458702275707
 21
25.10795604953923
 31
0.0
 12
9.164958702275706
 22
25.51295604953923
 32
0.0
 13
9.164958702275706
 23
25.51295604953923
 33
0.0
  0
MTEXT
  5
384C
330
106E
100
AcDbEntity
  8
DIM
 62
     0
100
AcDbMText
 10
9.164958702275702
 20
23.76295604953924
 30
0.0
 40
0.28125
 41
0.0
 71
     5
 72
     1
  1
\A1;G
1001
ACAD
1000
MTEXTBEGIN
1070
    73
1070
     1
1070
    44
1040
1.0
1070
    74
1070
     0
1000
MTEXTEND
  0
POINT
  5
384D
330
106E
100
AcDbEntity
  8
DEFPOINTS
 62
     0
100
AcDbPoint
 10
8.472075243610508
 20
22.01295604953923
 30
0.0
  0
POINT
  5
384E
330
106E
100
AcDbEntity
  8
DEFPOINTS
 62
     0
100
AcDbPoint
 10
8.472075243610508
 20
25.51295604953923
 30
0.0
  0
POINT
  5
384F
330
106E
100
AcDbEntity
  8
DEFPOINTS
 62
     0
100
AcDbPoint
 10
9.164958702275706
 20
25.51295604953923
 30
0.0
  0
ENDBLK
  5
107A
330
106E
100
AcDbEntity
  8
0
100
AcDbBlockEnd
  0
BLOCK
  5
147F
330
1474
100
AcDbEntity
  8
0
100
AcDbBlockBegin
  2
*D15
 70
     1
 10
0.0
 20
0.0
 30
0.0
  3
*D15
  1

  0
LINE
  5
3850
330
1474
100
AcDbEntity
  8
DIM
 62
     0
100
AcDbLine
 10
8.613825243610504
 20
14.00186128562076
 30
0.0
 11
9.374208702275709
 21
14.00186128562076
 31
0.0
  0
LINE
  5
3851
330
1474
100
AcDbEntity
  8
DIM
 62
     0
100
AcDbLine
 10
8.613825243610504
 20
10.50186128562077
 30
0.0
 11
9.374208702275707
 21
10.50186128562077
 31
0.0
  0
LINE
  5
3852
330
1474
100
AcDbEntity
  8
DIM
 62
     0
100
AcDbLine
 10
9.164958702275708
 20
13.59686128562076
 30
0.0
 11
9.164958702275708
 21
12.59498628562076
 31
0.0
  0
LINE
  5
3853
330
1474
100
AcDbEntity
  8
DIM
 62
     0
100
AcDbLine
 10
9.164958702275706
 20
10.90686128562077
 30
0.0
 11
9.164958702275706
 21
11.90873628562076
 31
0.0
  0
SOLID
  5
3854
330
1474
100
AcDbEntity
  8
DIM
 62
     0
100
AcDbTrace
 10
9.097458702275707
 20
13.59686128562076
 30
0.0
 11
9.232458702275708
 21
13.59686128562076
 31
0.0
 12
9.164958702275708
 22
14.00186128562076
 32
0.0
 13
9.164958702275708
 23
14.00186128562076
 33
0.0
  0
SOLID
  5
3855
330
1474
100
AcDbEntity
  8
DIM
 62
     0
100
AcDbTrace
 10
9.097458702275705
 20
10.90686128562077
 30
0.0
 11
9.232458702275707
 21
10.90686128562077
 31
0.0
 12
9.164958702275706
 22
10.50186128562077
 32
0.0
 13
9.164958702275706
 23
10.50186128562077
 33
0.0
  0
MTEXT
  5
3856
330
1474
100
AcDbEntity
  8
DIM
 62
     0
100
AcDbMText
 10
9.164958702275704
 20
12.25186128562076
 30
0.0
 40
0.28125
 41
0.0
 71
     5
 72
     1
  1
\A1;G
1001
ACAD
1000
MTEXTBEGIN
1070
    73
1070
     1
1070
    44
1040
1.0
1070
    74
1070
     0
1000
MTEXTEND
  0
POINT
  5
3857
330
1474
100
AcDbEntity
  8
DEFPOINTS
 62
     0
100
AcDbPoint
 10
8.472075243610504
 20
14.00186128562076
 30
0.0
  0
POINT
  5
3858
330
1474
100
AcDbEntity
  8
DEFPOINTS
 62
     0
100
AcDbPoint
 10
8.472075243610504
 20
10.50186128562077
 30
0.0
  0
POINT
  5
3859
330
1474
100
AcDbEntity
  8
DEFPOINTS
 62
     0
100
AcDbPoint
 10
9.164958702275706
 20
10.50186128562077
 30
0.0
  0
ENDBLK
  5
1480
330
1474
100
AcDbEntity
  8
0
100
AcDbBlockEnd
  0
BLOCK
  5
148D
330
1482
100
AcDbEntity
  8
0
100
AcDbBlockBegin
  2
*D16
 70
     1
 10
0.0
 20
0.0
 30
0.0
  3
*D16
  1

  0
LINE
  5
385A
330
1482
100
AcDbEntity
  8
DIM
 62
     0
100
AcDbLine
 10
9.247282004890555
 20
14.00186128562076
 30
0.0
 11
9.977062864534344
 21
14.00186128562076
 31
0.0
  0
LINE
  5
385B
330
1482
100
AcDbEntity
  8
DIM
 62
     0
100
AcDbLine
 10
9.254782004890556
 20
14.19686128562076
 30
0.0
 11
9.977062864534344
 21
14.19686128562076
 31
0.0
  0
LINE
  5
385C
330
1482
100
AcDbEntity
  8
DIM
 62
     0
100
AcDbLine
 10
9.767812864534343
 20
13.59686128562076
 30
0.0
 11
9.767812864534343
 21
13.19186128562076
 31
0.0
  0
LINE
  5
385D
330
1482
100
AcDbEntity
  8
DIM
 62
     0
100
AcDbLine
 10
9.767812864534343
 20
14.60186128562076
 30
0.0
 11
9.767812864534343
 21
15.00686128562076
 31
0.0
  0
LINE
  5
385E
330
1482
100
AcDbEntity
  8
DIM
 62
     0
100
AcDbLine
 10
9.767812864534343
 20
15.00686128562076
 30
0.0
 11
10.17281286453434
 21
15.00686128562076
 31
0.0
  0
SOLID
  5
385F
330
1482
100
AcDbEntity
  8
DIM
 62
     0
100
AcDbTrace
 10
9.700312864534343
 20
13.59686128562076
 30
0.0
 11
9.835312864534344
 21
13.59686128562076
 31
0.0
 12
9.767812864534343
 22
14.00186128562076
 32
0.0
 13
9.767812864534343
 23
14.00186128562076
 33
0.0
  0
SOLID
  5
3860
330
1482
100
AcDbEntity
  8
DIM
 62
     0
100
AcDbTrace
 10
9.700312864534343
 20
14.60186128562076
 30
0.0
 11
9.835312864534344
 21
14.60186128562076
 31
0.0
 12
9.767812864534343
 22
14.19686128562076
 32
0.0
 13
9.767812864534343
 23
14.19686128562076
 33
0.0
  0
MTEXT
  5
3861
330
1482
100
AcDbEntity
  8
DIM
 62
     0
100
AcDbMText
 10
10.74445348953434
 20
15.00686128562076
 30
0.0
 40
0.28125
 41
0.0
 71
     5
 72
     1
  1
\A1;0.188
1001
ACAD
1000
MTEXTBEGIN
1070
    73
1070
     1
1070
    44
1040
1.0
1070
    74
1070
     0
1000
MTEXTEND
  0
POINT
  5
3862
330
1482
100
AcDbEntity
  8
DEFPOINTS
 62
     0
100
AcDbPoint
 10
9.105532004890555
 20
14.00186128562076
 30
0.0
  0
POINT
  5
3863
330
1482
100
AcDbEntity
  8
DEFPOINTS
 62
     0
100
AcDbPoint
 10
9.113032004890555
 20
14.19686128562076
 30
0.0
  0
POINT
  5
3864
330
1482
100
AcDbEntity
  8
DEFPOINTS
 62
     0
100
AcDbPoint
 10
9.767812864534343
 20
14.19686128562076
 30
0.0
  0
ENDBLK
  5
148E
330
1482
100
AcDbEntity
  8
0
100
AcDbBlockEnd
  0
BLOCK
  5
149C
330
1491
100
AcDbEntity
  8
0
100
AcDbBlockBegin
  2
*D17
 70
     1
 10
0.0
 20
0.0
 30
0.0
  3
*D17
  1

  0
LINE
  5
3865
330
1491
100
AcDbEntity
  8
DIM
 62
     0
100
AcDbLine
 10
8.613825243610508
 20
29.01295604953924
 30
0.0
 11
9.374208702275709
 21
29.01295604953924
 31
0.0
  0
LINE
  5
3866
330
1491
100
AcDbEntity
  8
DIM
 62
     0
100
AcDbLine
 10
8.613825243610508
 20
25.51295604953923
 30
0.0
 11
9.374208702275707
 21
25.51295604953923
 31
0.0
  0
LINE
  5
3867
330
1491
100
AcDbEntity
  8
DIM
 62
     0
100
AcDbLine
 10
9.164958702275708
 20
28.60795604953923
 30
0.0
 11
9.164958702275706
 21
27.60608104953924
 31
0.0
  0
LINE
  5
3868
330
1491
100
AcDbEntity
  8
DIM
 62
     0
100
AcDbLine
 10
9.164958702275706
 20
25.91795604953924
 30
0.0
 11
9.164958702275706
 21
26.91983104953923
 31
0.0
  0
SOLID
  5
3869
330
1491
100
AcDbEntity
  8
DIM
 62
     0
100
AcDbTrace
 10
9.097458702275707
 20
28.60795604953923
 30
0.0
 11
9.232458702275708
 21
28.60795604953923
 31
0.0
 12
9.164958702275708
 22
29.01295604953924
 32
0.0
 13
9.164958702275708
 23
29.01295604953924
 33
0.0
  0
SOLID
  5
386A
330
1491
100
AcDbEntity
  8
DIM
 62
     0
100
AcDbTrace
 10
9.097458702275705
 20
25.91795604953924
 30
0.0
 11
9.232458702275707
 21
25.91795604953924
 31
0.0
 12
9.164958702275706
 22
25.51295604953923
 32
0.0
 13
9.164958702275706
 23
25.51295604953923
 33
0.0
  0
MTEXT
  5
386B
330
1491
100
AcDbEntity
  8
DIM
 62
     0
100
AcDbMText
 10
9.164958702275702
 20
27.26295604953924
 30
0.0
 40
0.28125
 41
0.0
 71
     5
 72
     1
  1
\A1;G
1001
ACAD
1000
MTEXTBEGIN
1070
    73
1070
     1
1070
    44
1040
1.0
1070
    74
1070
     0
1000
MTEXTEND
  0
POINT
  5
386C
330
1491
100
AcDbEntity
  8
DEFPOINTS
 62
     0
100
AcDbPoint
 10
8.472075243610508
 20
29.01295604953924
 30
0.0
  0
POINT
  5
386D
330
1491
100
AcDbEntity
  8
DEFPOINTS
 62
     0
100
AcDbPoint
 10
8.472075243610508
 20
25.51295604953923
 30
0.0
  0
POINT
  5
386E
330
1491
100
AcDbEntity
  8
DEFPOINTS
 62
     0
100
AcDbPoint
 10
9.164958702275706
 20
25.51295604953923
 30
0.0
  0
ENDBLK
  5
149D
330
1491
100
AcDbEntity
  8
0
100
AcDbBlockEnd
  0
BLOCK
  5
14AB
330
14A0
100
AcDbEntity
  8
0
100
AcDbBlockBegin
  2
*D18
 70
     1
 10
0.0
 20
0.0
 30
0.0
  3
*D18
  1

  0
LINE
  5
386F
330
14A0
100
AcDbEntity
  8
DIM
 62
     0
100
AcDbLine
 10
14.25071347768643
 20
8.869361285620774
 30
0.0
 11
12.97219434488002
 21
8.869361285620774
 31
0.0
  0
LINE
  5
3870
330
14A0
100
AcDbEntity
  8
DIM
 62
     0
100
AcDbLine
 10
14.44023174654089
 20
6.806861285620771
 30
0.0
 11
12.97219434488002
 21
6.806861285620772
 31
0.0
  0
LINE
  5
3871
330
14A0
100
AcDbEntity
  8
DIM
 62
     0
100
AcDbLine
 10
13.18144434488002
 20
8.464361285620775
 30
0.0
 11
13.18144434488002
 21
8.181236285620773
 31
0.0
  0
LINE
  5
3872
330
14A0
100
AcDbEntity
  8
DIM
 62
     0
100
AcDbLine
 10
13.18144434488002
 20
7.211861285620773
 30
0.0
 11
13.18144434488002
 21
7.494986285620774
 31
0.0
  0
SOLID
  5
3873
330
14A0
100
AcDbEntity
  8
DIM
 62
     0
100
AcDbTrace
 10
13.11394434488001
 20
8.464361285620775
 30
0.0
 11
13.24894434488002
 21
8.464361285620775
 31
0.0
 12
13.18144434488002
 22
8.869361285620774
 32
0.0
 13
13.18144434488002
 23
8.869361285620774
 33
0.0
  0
SOLID
  5
3874
330
14A0
100
AcDbEntity
  8
DIM
 62
     0
100
AcDbTrace
 10
13.11394434488001
 20
7.211861285620773
 30
0.0
 11
13.24894434488002
 21
7.211861285620773
 31
0.0
 12
13.18144434488002
 22
6.806861285620772
 32
0.0
 13
13.18144434488002
 23
6.806861285620772
 33
0.0
  0
MTEXT
  5
3875
330
14A0
100
AcDbEntity
  8
DIM
 62
     0
100
AcDbMText
 10
13.18144434488002
 20
7.838111285620776
 30
0.0
 40
0.28125
 41
0.0
 71
     5
 72
     1
  1
\A1;D
1001
ACAD
1000
MTEXTBEGIN
1070
    73
1070
     1
1070
    44
1040
1.0
1070
    74
1070
     0
1000
MTEXTEND
  0
POINT
  5
3876
330
14A0
100
AcDbEntity
  8
DEFPOINTS
 62
     0
100
AcDbPoint
 10
14.39246347768643
 20
8.869361285620774
 30
0.0
  0
POINT
  5
3877
330
14A0
100
AcDbEntity
  8
DEFPOINTS
 62
     0
100
AcDbPoint
 10
14.58198174654089
 20
6.806861285620771
 30
0.0
  0
POINT
  5
3878
330
14A0
100
AcDbEntity
  8
DEFPOINTS
 62
     0
100
AcDbPoint
 10
13.18144434488002
 20
6.806861285620772
 30
0.0
  0
ENDBLK
  5
14AC
330
14A0
100
AcDbEntity
  8
0
100
AcDbBlockEnd
  0
BLOCK
  5
14B9
330
14AE
100
AcDbEntity
  8
0
100
AcDbBlockBegin
  2
*D19
 70
     1
 10
0.0
 20
0.0
 30
0.0
  3
*D19
  1

  0
LINE
  5
3879
330
14AE
100
AcDbEntity
  8
DIM
 62
     0
100
AcDbLine
 10
14.26554216871588
 20
10.97345621884007
 30
0.0
 11
13.55642816705044
 21
10.97345621884007
 31
0.0
  0
LINE
  5
387A
330
14AE
100
AcDbEntity
  8
DIM
 62
     0
100
AcDbLine
 10
14.28190633290841
 20
11.20783121884007
 30
0.0
 11
13.55642816705044
 21
11.20783121884007
 31
0.0
  0
LINE
  5
387B
330
14AE
100
AcDbEntity
  8
DIM
 62
     0
100
AcDbLine
 10
13.76567816705044
 20
10.56845621884008
 30
0.0
 11
13.76567816705044
 21
10.16345621884007
 31
0.0
  0
LINE
  5
387C
330
14AE
100
AcDbEntity
  8
DIM
 62
     0
100
AcDbLine
 10
13.76567816705044
 20
11.61283121884007
 30
0.0
 11
13.76567816705044
 21
12.01783121884008
 31
0.0
  0
LINE
  5
387D
330
14AE
100
AcDbEntity
  8
DIM
 62
     0
100
AcDbLine
 10
13.76567816705044
 20
12.01783121884008
 30
0.0
 11
14.17067816705044
 21
12.01783121884008
 31
0.0
  0
SOLID
  5
387E
330
14AE
100
AcDbEntity
  8
DIM
 62
     0
100
AcDbTrace
 10
13.69817816705044
 20
10.56845621884008
 30
0.0
 11
13.83317816705044
 21
10.56845621884008
 31
0.0
 12
13.76567816705044
 22
10.97345621884007
 32
0.0
 13
13.76567816705044
 23
10.97345621884007
 33
0.0
  0
SOLID
  5
387F
330
14AE
100
AcDbEntity
  8
DIM
 62
     0
100
AcDbTrace
 10
13.69817816705044
 20
11.61283121884007
 30
0.0
 11
13.83317816705044
 21
11.61283121884007
 31
0.0
 12
13.76567816705044
 22
11.20783121884007
 32
0.0
 13
13.76567816705044
 23
11.20783121884007
 33
0.0
  0
MTEXT
  5
3880
330
14AE
100
AcDbEntity
  8
DIM
 62
     0
100
AcDbMText
 10
14.77747504205044
 20
12.01783121884008
 30
0.0
 40
0.28125
 41
0.0
 71
     5
 72
     1
  1
\A1;0.234
1001
ACAD
1000
MTEXTBEGIN
1070
    73
1070
     1
1070
    44
1040
1.0
1070
    74
1070
     0
1000
MTEXTEND
  0
POINT
  5
3881
330
14AE
100
AcDbEntity
  8
DEFPOINTS
 62
     0
100
AcDbPoint
 10
14.40729216871588
 20
10.97345621884007
 30
0.0
  0
POINT
  5
3882
330
14AE
100
AcDbEntity
  8
DEFPOINTS
 62
     0
100
AcDbPoint
 10
14.42365633290841
 20
11.20783121884007
 30
0.0
  0
POINT
  5
3883
330
14AE
100
AcDbEntity
  8
DEFPOINTS
 62
     0
100
AcDbPoint
 10
13.76567816705044
 20
11.20783121884007
 30
0.0
  0
ENDBLK
  5
14BA
330
14AE
100
AcDbEntity
  8
0
100
AcDbBlockEnd
  0
BLOCK
  5
14C7
330
14BC
100
AcDbEntity
  8
0
100
AcDbBlockBegin
  2
*D20
 70
     1
 10
0.0
 20
0.0
 30
0.0
  3
*D20
  1

  0
LINE
  5
3884
330
14BC
100
AcDbEntity
  8
DIM
 62
     0
100
AcDbLine
 10
20.26411478506394
 20
6.806861285620772
 30
0.0
 11
20.36641372844484
 21
6.806861285620772
 31
0.0
  0
LINE
  5
3885
330
14BC
100
AcDbEntity
  8
DIM
 62
     0
100
AcDbLine
 10
20.26411478506394
 20
6.884986285620772
 30
0.0
 11
20.36641372844484
 21
6.884986285620772
 31
0.0
  0
LINE
  5
3886
330
14BC
100
AcDbEntity
  8
DIM
 62
     0
100
AcDbLine
 10
20.15716372844484
 20
6.401861285620772
 30
0.0
 11
20.15716372844484
 21
5.996861285620773
 31
0.0
  0
LINE
  5
3887
330
14BC
100
AcDbEntity
  8
DIM
 62
     0
100
AcDbLine
 10
20.15716372844484
 20
7.289986285620773
 30
0.0
 11
20.15716372844484
 21
7.694986285620772
 31
0.0
  0
LINE
  5
3888
330
14BC
100
AcDbEntity
  8
DIM
 62
     0
100
AcDbLine
 10
20.15716372844484
 20
7.694986285620772
 30
0.0
 11
20.56216372844484
 21
7.694986285620772
 31
0.0
  0
SOLID
  5
3889
330
14BC
100
AcDbEntity
  8
DIM
 62
     0
100
AcDbTrace
 10
20.08966372844484
 20
6.401861285620772
 30
0.0
 11
20.22466372844483
 21
6.401861285620772
 31
0.0
 12
20.15716372844484
 22
6.806861285620772
 32
0.0
 13
20.15716372844484
 23
6.806861285620772
 33
0.0
  0
SOLID
  5
388A
330
14BC
100
AcDbEntity
  8
DIM
 62
     0
100
AcDbTrace
 10
20.08966372844484
 20
7.289986285620773
 30
0.0
 11
20.22466372844483
 21
7.289986285620773
 31
0.0
 12
20.15716372844484
 22
6.884986285620772
 32
0.0
 13
20.15716372844484
 23
6.884986285620772
 33
0.0
  0
MTEXT
  5
388B
330
14BC
100
AcDbEntity
  8
DIM
 62
     0
100
AcDbMText
 10
20.83497622844483
 20
7.694986285620776
 30
0.0
 40
0.28125
 41
0.0
 71
     5
 72
     1
  1
\A1;J
1001
ACAD
1000
MTEXTBEGIN
1070
    73
1070
     1
1070
    44
1040
1.0
1070
    74
1070
     0
1000
MTEXTEND
  0
POINT
  5
388C
330
14BC
100
AcDbEntity
  8
DEFPOINTS
 62
     0
100
AcDbPoint
 10
20.12236478506394
 20
6.806861285620772
 30
0.0
  0
POINT
  5
388D
330
14BC
100
AcDbEntity
  8
DEFPOINTS
 62
     0
100
AcDbPoint
 10
20.12236478506394
 20
6.884986285620772
 30
0.0
  0
POINT
  5
388E
330
14BC
100
AcDbEntity
  8
DEFPOINTS
 62
     0
100
AcDbPoint
 10
20.15716372844484
 20
6.884986285620772
 30
0.0
  0
ENDBLK
  5
14C8
330
14BC
100
AcDbEntity
  8
0
100
AcDbBlockEnd
  0
BLOCK
  5
14D5
330
14CA
100
AcDbEntity
  8
0
100
AcDbBlockBegin
  2
*D21
 70
     1
 10
0.0
 20
0.0
 30
0.0
  3
*D21
  1

  0
LINE
  5
388F
330
14CA
100
AcDbEntity
  8
DIM
 62
     0
100
AcDbLine
 10
21.23144202817518
 20
8.775611285620772
 30
0.0
 11
19.12857242195423
 21
8.775611285620774
 31
0.0
  0
LINE
  5
3890
330
14CA
100
AcDbEntity
  8
DIM
 62
     0
100
AcDbLine
 10
19.20104367972658
 20
8.869361285620774
 30
0.0
 11
19.12857242195423
 21
8.869361285620774
 31
0.0
  0
LINE
  5
3891
330
14CA
100
AcDbEntity
  8
DIM
 62
     0
100
AcDbLine
 10
19.33782242195423
 20
8.370611285620775
 30
0.0
 11
19.33782242195423
 21
7.965611285620774
 31
0.0
  0
LINE
  5
3892
330
14CA
100
AcDbEntity
  8
DIM
 62
     0
100
AcDbLine
 10
19.33782242195423
 20
9.274361285620773
 30
0.0
 11
19.33782242195423
 21
9.679361285620775
 31
0.0
  0
LINE
  5
3893
330
14CA
100
AcDbEntity
  8
DIM
 62
     0
100
AcDbLine
 10
19.33782242195423
 20
9.679361285620775
 30
0.0
 11
19.74282242195424
 21
9.679361285620775
 31
0.0
  0
SOLID
  5
3894
330
14CA
100
AcDbEntity
  8
DIM
 62
     0
100
AcDbTrace
 10
19.27032242195424
 20
8.370611285620775
 30
0.0
 11
19.40532242195423
 21
8.370611285620775
 31
0.0
 12
19.33782242195423
 22
8.775611285620774
 32
0.0
 13
19.33782242195423
 23
8.775611285620774
 33
0.0
  0
SOLID
  5
3895
330
14CA
100
AcDbEntity
  8
DIM
 62
     0
100
AcDbTrace
 10
19.27032242195424
 20
9.274361285620773
 30
0.0
 11
19.40532242195423
 21
9.274361285620773
 31
0.0
 12
19.33782242195423
 22
8.869361285620774
 32
0.0
 13
19.33782242195423
 23
8.869361285620774
 33
0.0
  0
MTEXT
  5
3896
330
14CA
100
AcDbEntity
  8
DIM
 62
     0
100
AcDbMText
 10
20.33204117195424
 20
9.679361285620776
 30
0.0
 40
0.28125
 41
0.0
 71
     5
 72
     1
  1
\A1;0.094
1001
ACAD
1000
MTEXTBEGIN
1070
    73
1070
     1
1070
    44
1040
1.0
1070
    74
1070
     0
1000
MTEXTEND
  0
POINT
  5
3897
330
14CA
100
AcDbEntity
  8
DEFPOINTS
 62
     0
100
AcDbPoint
 10
21.37319202817518
 20
8.775611285620772
 30
0.0
  0
POINT
  5
3898
330
14CA
100
AcDbEntity
  8
DEFPOINTS
 62
     0
100
AcDbPoint
 10
19.34279367972657
 20
8.869361285620774
 30
0.0
  0
POINT
  5
3899
330
14CA
100
AcDbEntity
  8
DEFPOINTS
 62
     0
100
AcDbPoint
 10
19.33782242195423
 20
8.869361285620774
 30
0.0
  0
ENDBLK
  5
14D6
330
14CA
100
AcDbEntity
  8
0
100
AcDbBlockEnd
  0
BLOCK
  5
14E3
330
14D8
100
AcDbEntity
  8
0
100
AcDbBlockBegin
  2
*D22
 70
     1
 10
0.0
 20
0.0
 30
0.0
  3
*D22
  1

  0
LINE
  5
389A
330
14D8
100
AcDbEntity
  8
DIM
 62
     0
100
AcDbLine
 10
21.59534918813038
 20
9.011111285620774
 30
0.0
 11
21.59534918813038
 21
9.648747566903077
 31
0.0
  0
LINE
  5
389B
330
14D8
100
AcDbEntity
  8
DIM
 62
     0
100
AcDbLine
 10
21.68915633290841
 20
9.011111285620774
 30
0.0
 11
21.68915633290841
 21
9.648747566903077
 31
0.0
  0
LINE
  5
389C
330
14D8
100
AcDbEntity
  8
DIM
 62
     0
100
AcDbLine
 10
21.19034918813038
 20
9.439497566903076
 30
0.0
 11
20.78534918813038
 21
9.439497566903076
 31
0.0
  0
LINE
  5
389D
330
14D8
100
AcDbEntity
  8
DIM
 62
     0
100
AcDbLine
 10
22.09415633290841
 20
9.439497566903076
 30
0.0
 11
22.49915633290841
 21
9.439497566903076
 31
0.0
  0
SOLID
  5
389E
330
14D8
100
AcDbEntity
  8
DIM
 62
     0
100
AcDbTrace
 10
21.19034918813038
 20
9.506997566903077
 30
0.0
 11
21.19034918813038
 21
9.371997566903075
 31
0.0
 12
21.59534918813038
 22
9.439497566903076
 32
0.0
 13
21.59534918813038
 23
9.439497566903076
 33
0.0
  0
SOLID
  5
389F
330
14D8
100
AcDbEntity
  8
DIM
 62
     0
100
AcDbTrace
 10
22.09415633290841
 20
9.506997566903077
 30
0.0
 11
22.09415633290841
 21
9.371997566903075
 31
0.0
 12
21.68915633290841
 22
9.439497566903076
 32
0.0
 13
21.68915633290841
 23
9.439497566903076
 33
0.0
  0
MTEXT
  5
38A0
330
14D8
100
AcDbEntity
  8
DIM
 62
     0
100
AcDbMText
 10
22.7719688329084
 20
9.439497566903076
 30
0.0
 40
0.28125
 41
0.0
 71
     5
 72
     1
  1
\A1;H
1001
ACAD
1000
MTEXTBEGIN
1070
    73
1070
     1
1070
    44
1040
1.0
1070
    74
1070
     0
1000
MTEXTEND
  0
POINT
  5
38A1
330
14D8
100
AcDbEntity
  8
DEFPOINTS
 62
     0
100
AcDbPoint
 10
21.59534918813038
 20
8.869361285620774
 30
0.0
  0
POINT
  5
38A2
330
14D8
100
AcDbEntity
  8
DEFPOINTS
 62
     0
100
AcDbPoint
 10
21.68915633290841
 20
8.869361285620774
 30
0.0
  0
POINT
  5
38A3
330
14D8
100
AcDbEntity
  8
DEFPOINTS
 62
     0
100
AcDbPoint
 10
21.68915633290841
 20
9.439497566903076
 30
0.0
  0
ENDBLK
  5
14E4
330
14D8
100
AcDbEntity
  8
0
100
AcDbBlockEnd
  0
BLOCK
  5
14F1
330
14E6
100
AcDbEntity
  8
0
100
AcDbBlockBegin
  2
*D23
 70
     1
 10
0.0
 20
0.0
 30
0.0
  3
*D23
  1

  0
LINE
  5
38A4
330
14E6
100
AcDbEntity
  8
DIM
 62
     0
100
AcDbLine
 10
19.65604549680516
 20
11.12970621884007
 30
0.0
 11
19.57417817132467
 21
11.12970621884007
 31
0.0
  0
LINE
  5
38A5
330
14E6
100
AcDbEntity
  8
DIM
 62
     0
100
AcDbLine
 10
19.65604549680516
 20
11.20783121884007
 30
0.0
 11
19.57417817132467
 21
11.20783121884007
 31
0.0
  0
LINE
  5
38A6
330
14E6
100
AcDbEntity
  8
DIM
 62
     0
100
AcDbLine
 10
19.78342817132467
 20
10.72470621884008
 30
0.0
 11
19.78342817132467
 21
10.31970621884007
 31
0.0
  0
LINE
  5
38A7
330
14E6
100
AcDbEntity
  8
DIM
 62
     0
100
AcDbLine
 10
19.78342817132467
 20
11.61283121884007
 30
0.0
 11
19.78342817132467
 21
12.01783121884008
 31
0.0
  0
LINE
  5
38A8
330
14E6
100
AcDbEntity
  8
DIM
 62
     0
100
AcDbLine
 10
19.78342817132467
 20
12.01783121884008
 30
0.0
 11
20.18842817132468
 21
12.01783121884007
 31
0.0
  0
SOLID
  5
38A9
330
14E6
100
AcDbEntity
  8
DIM
 62
     0
100
AcDbTrace
 10
19.71592817132468
 20
10.72470621884008
 30
0.0
 11
19.85092817132468
 21
10.72470621884008
 31
0.0
 12
19.78342817132467
 22
11.12970621884007
 32
0.0
 13
19.78342817132467
 23
11.12970621884007
 33
0.0
  0
SOLID
  5
38AA
330
14E6
100
AcDbEntity
  8
DIM
 62
     0
100
AcDbTrace
 10
19.71592817132468
 20
11.61283121884007
 30
0.0
 11
19.85092817132468
 21
11.61283121884007
 31
0.0
 12
19.78342817132467
 22
11.20783121884007
 32
0.0
 13
19.78342817132467
 23
11.20783121884007
 33
0.0
  0
MTEXT
  5
38AB
330
14E6
100
AcDbEntity
  8
DIM
 62
     0
100
AcDbMText
 10
20.77764692132467
 20
12.01783121884008
 30
0.0
 40
0.28125
 41
0.0
 71
     5
 72
     1
  1
\A1;0.078
1001
ACAD
1000
MTEXTBEGIN
1070
    73
1070
     1
1070
    44
1040
1.0
1070
    74
1070
     0
1000
MTEXTEND
  0
POINT
  5
38AC
330
14E6
100
AcDbEntity
  8
DEFPOINTS
 62
     0
100
AcDbPoint
 10
19.79779549680516
 20
11.12970621884007
 30
0.0
  0
POINT
  5
38AD
330
14E6
100
AcDbEntity
  8
DEFPOINTS
 62
     0
100
AcDbPoint
 10
19.79779549680516
 20
11.20783121884007
 30
0.0
  0
POINT
  5
38AE
330
14E6
100
AcDbEntity
  8
DEFPOINTS
 62
     0
100
AcDbPoint
 10
19.78342817132467
 20
11.20783121884007
 30
0.0
  0
ENDBLK
  5
14F2
330
14E6
100
AcDbEntity
  8
0
100
AcDbBlockEnd
  0
BLOCK
  5
14FF
330
14F4
100
AcDbEntity
  8
0
100
AcDbBlockBegin
  2
*D24
 70
     1
 10
0.0
 20
0.0
 30
0.0
  3
*D24
  1

  0
LINE
  5
38AF
330
14F4
100
AcDbEntity
  8
DIM
 62
     0
100
AcDbLine
 10
21.83040633290839
 20
11.05158121884007
 30
0.0
 11
22.40564226869584
 21
11.05158121884007
 31
0.0
  0
LINE
  5
38B0
330
14F4
100
AcDbEntity
  8
DIM
 62
     0
100
AcDbLine
 10
21.70540633290839
 20
11.20783121884007
 30
0.0
 11
22.40564226869584
 21
11.20783121884007
 31
0.0
  0
LINE
  5
38B1
330
14F4
100
AcDbEntity
  8
DIM
 62
     0
100
AcDbLine
 10
22.19639226869584
 20
10.64658121884008
 30
0.0
 11
22.19639226869584
 21
10.24158121884007
 31
0.0
  0
LINE
  5
38B2
330
14F4
100
AcDbEntity
  8
DIM
 62
     0
100
AcDbLine
 10
22.19639226869584
 20
11.61283121884007
 30
0.0
 11
22.19639226869584
 21
12.01783121884008
 31
0.0
  0
LINE
  5
38B3
330
14F4
100
AcDbEntity
  8
DIM
 62
     0
100
AcDbLine
 10
22.19639226869584
 20
12.01783121884008
 30
0.0
 11
22.60139226869584
 21
12.01783121884008
 31
0.0
  0
SOLID
  5
38B4
330
14F4
100
AcDbEntity
  8
DIM
 62
     0
100
AcDbTrace
 10
22.12889226869584
 20
10.64658121884008
 30
0.0
 11
22.26389226869584
 21
10.64658121884008
 31
0.0
 12
22.19639226869584
 22
11.05158121884007
 32
0.0
 13
22.19639226869584
 23
11.05158121884007
 33
0.0
  0
SOLID
  5
38B5
330
14F4
100
AcDbEntity
  8
DIM
 62
     0
100
AcDbTrace
 10
22.12889226869584
 20
11.61283121884007
 30
0.0
 11
22.26389226869584
 21
11.61283121884007
 31
0.0
 12
22.19639226869584
 22
11.20783121884007
 32
0.0
 13
22.19639226869584
 23
11.20783121884007
 33
0.0
  0
MTEXT
  5
38B6
330
14F4
100
AcDbEntity
  8
DIM
 62
     0
100
AcDbMText
 10
23.17303289369584
 20
12.01783121884008
 30
0.0
 40
0.28125
 41
0.0
 71
     5
 72
     1
  1
\A1;0.156
1001
ACAD
1000
MTEXTBEGIN
1070
    73
1070
     1
1070
    44
1040
1.0
1070
    74
1070
     0
1000
MTEXTEND
  0
POINT
  5
38B7
330
14F4
100
AcDbEntity
  8
DEFPOINTS
 62
     0
100
AcDbPoint
 10
21.6886563329084
 20
11.05158121884007
 30
0.0
  0
POINT
  5
38B8
330
14F4
100
AcDbEntity
  8
DEFPOINTS
 62
     0
100
AcDbPoint
 10
21.56365633290839
 20
11.20783121884007
 30
0.0
  0
POINT
  5
38B9
330
14F4
100
AcDbEntity
  8
DEFPOINTS
 62
     0
100
AcDbPoint
 10
22.19639226869584
 20
11.20783121884007
 30
0.0
  0
ENDBLK
  5
1500
330
14F4
100
AcDbEntity
  8
0
100
AcDbBlockEnd
  0
BLOCK
  5
2A1D
330
2A12
100
AcDbEntity
  8
0
100
AcDbBlockBegin
  2
*D25
 70
     1
 10
0.0
 20
0.0
 30
0.0
  3
*D25
  1

  0
LINE
  5
38BA
330
2A12
100
AcDbEntity
  8
DIM
 62
     0
100
AcDbLine
 10
3.752325243610501
 20
21.86370604953923
 30
0.0
 11
3.752325243610501
 21
20.82839933341314
 31
0.0
  0
LINE
  5
38BB
330
2A12
100
AcDbEntity
  8
DIM
 62
     0
100
AcDbLine
 10
8.879325243610551
 20
21.86370604953923
 30
0.0
 11
8.879325243610551
 21
20.82839933341314
 31
0.0
  0
LINE
  5
38BC
330
2A12
100
AcDbEntity
  8
DIM
 62
     0
100
AcDbLine
 10
4.157325243610501
 20
21.03764933341314
 30
0.0
 11
6.043012743610527
 21
21.03764933341314
 31
0.0
  0
LINE
  5
38BD
330
2A12
100
AcDbEntity
  8
DIM
 62
     0
100
AcDbLine
 10
8.474325243610552
 20
21.03764933341314
 30
0.0
 11
6.588637743610527
 21
21.03764933341314
 31
0.0
  0
SOLID
  5
38BE
330
2A12
100
AcDbEntity
  8
DIM
 62
     0
100
AcDbTrace
 10
4.157325243610501
 20
21.10514933341314
 30
0.0
 11
4.157325243610501
 21
20.97014933341314
 31
0.0
 12
3.752325243610501
 22
21.03764933341314
 32
0.0
 13
3.752325243610501
 23
21.03764933341314
 33
0.0
  0
SOLID
  5
38BF
330
2A12
100
AcDbEntity
  8
DIM
 62
     0
100
AcDbTrace
 10
8.474325243610552
 20
21.10514933341314
 30
0.0
 11
8.474325243610552
 21
20.97014933341314
 31
0.0
 12
8.879325243610551
 22
21.03764933341314
 32
0.0
 13
8.879325243610551
 23
21.03764933341314
 33
0.0
  0
MTEXT
  5
38C0
330
2A12
100
AcDbEntity
  8
DIM
 62
     0
100
AcDbMText
 10
6.315825243610527
 20
21.03764933341314
 30
0.0
 40
0.28125
 41
0.0
 71
     5
 72
     1
  1
\A1;K
1001
ACAD
1000
MTEXTBEGIN
1070
    73
1070
     1
1070
    44
1040
1.0
1070
    74
1070
     0
1000
MTEXTEND
  0
POINT
  5
38C1
330
2A12
100
AcDbEntity
  8
DEFPOINTS
 62
     0
100
AcDbPoint
 10
3.752325243610501
 20
22.00545604953923
 30
0.0
  0
POINT
  5
38C2
330
2A12
100
AcDbEntity
  8
DEFPOINTS
 62
     0
100
AcDbPoint
 10
8.879325243610551
 20
22.00545604953923
 30
0.0
  0
POINT
  5
38C3
330
2A12
100
AcDbEntity
  8
DEFPOINTS
 62
     0
100
AcDbPoint
 10
8.879325243610551
 20
21.03764933341314
 30
0.0
  0
ENDBLK
  5
2A1E
330
2A12
100
AcDbEntity
  8
0
100
AcDbBlockEnd
  0
BLOCK
  5
2A2B
330
2A20
100
AcDbEntity
  8
0
100
AcDbBlockBegin
  2
*D26
 70
     1
 10
0.0
 20
0.0
 30
0.0
  3
*D26
  1

  0
LINE
  5
38C4
330
2A20
100
AcDbEntity
  8
DIM
 62
     0
100
AcDbLine
 10
3.610575243610501
 20
29.02045604953925
 30
0.0
 11
0.4420420547368752
 21
29.02045604953925
 31
0.0
  0
LINE
  5
38C5
330
2A20
100
AcDbEntity
  8
DIM
 62
     0
100
AcDbLine
 10
3.610575243610501
 20
22.00545604953923
 30
0.0
 11
0.4420420547368736
 21
22.00545604953923
 31
0.0
  0
LINE
  5
38C6
330
2A20
100
AcDbEntity
  8
DIM
 62
     0
100
AcDbLine
 10
0.6512920547368752
 20
28.61545604953925
 30
0.0
 11
0.6512920547368746
 21
25.87001922356745
 31
0.0
  0
LINE
  5
38C7
330
2A20
100
AcDbEntity
  8
DIM
 62
     0
100
AcDbLine
 10
0.6512920547368739
 20
22.41045604953924
 30
0.0
 11
0.6512920547368744
 21
25.18376922356745
 31
0.0
  0
SOLID
  5
38C8
330
2A20
100
AcDbEntity
  8
DIM
 62
     0
100
AcDbTrace
 10
0.5837920547368752
 20
28.61545604953925
 30
0.0
 11
0.7187920547368752
 21
28.61545604953925
 31
0.0
 12
0.6512920547368753
 22
29.02045604953925
 32
0.0
 13
0.6512920547368753
 23
29.02045604953925
 33
0.0
  0
SOLID
  5
38C9
330
2A20
100
AcDbEntity
  8
DIM
 62
     0
100
AcDbTrace
 10
0.5837920547368738
 20
22.41045604953924
 30
0.0
 11
0.7187920547368738
 21
22.41045604953924
 31
0.0
 12
0.6512920547368737
 22
22.00545604953923
 32
0.0
 13
0.6512920547368737
 23
22.00545604953923
 33
0.0
  0
MTEXT
  5
38CA
330
2A20
100
AcDbEntity
  8
DIM
 62
     0
100
AcDbMText
 10
0.6512920547368704
 20
25.52689422356745
 30
0.0
 40
0.28125
 41
0.0
 71
     5
 72
     1
  1
\A1;L
1001
ACAD
1000
MTEXTBEGIN
1070
    73
1070
     1
1070
    44
1040
1.0
1070
    74
1070
     0
1000
MTEXTEND
  0
POINT
  5
38CB
330
2A20
100
AcDbEntity
  8
DEFPOINTS
 62
     0
100
AcDbPoint
 10
3.752325243610501
 20
29.02045604953925
 30
0.0
  0
POINT
  5
38CC
330
2A20
100
AcDbEntity
  8
DEFPOINTS
 62
     0
100
AcDbPoint
 10
3.752325243610501
 20
22.00545604953923
 30
0.0
  0
POINT
  5
38CD
330
2A20
100
AcDbEntity
  8
DEFPOINTS
 62
     0
100
AcDbPoint
 10
0.6512920547368737
 20
22.00545604953923
 30
0.0
  0
ENDBLK
  5
2A2C
330
2A20
100
AcDbEntity
  8
0
100
AcDbBlockEnd
  0
BLOCK
  5
2A39
330
2A2E
100
AcDbEntity
  8
0
100
AcDbBlockBegin
  2
*D27
 70
     1
 10
0.0
 20
0.0
 30
0.0
  3
*D27
  1

  0
LINE
  5
38CE
330
2A2E
100
AcDbEntity
  8
DIM
 62
     0
100
AcDbLine
 10
8.667075243610502
 20
28.79670604953925
 30
0.0
 11
8.667075243610502
 21
31.99773096783494
 31
0.0
  0
LINE
  5
38CF
330
2A2E
100
AcDbEntity
  8
DIM
 62
     0
100
AcDbLine
 10
3.500325243610499
 20
29.28720604953925
 30
0.0
 11
3.500325243610499
 21
31.99773096783494
 31
0.0
  0
LINE
  5
38D0
330
2A2E
100
AcDbEntity
  8
DIM
 62
     0
100
AcDbLine
 10
8.262075243610503
 20
31.78848096783494
 30
0.0
 11
6.356512743610499
 21
31.78848096783494
 31
0.0
  0
LINE
  5
38D1
330
2A2E
100
AcDbEntity
  8
DIM
 62
     0
100
AcDbLine
 10
3.905325243610499
 20
31.78848096783494
 30
0.0
 11
5.8108877436105
 21
31.78848096783494
 31
0.0
  0
SOLID
  5
38D2
330
2A2E
100
AcDbEntity
  8
DIM
 62
     0
100
AcDbTrace
 10
8.262075243610503
 20
31.85598096783493
 30
0.0
 11
8.262075243610503
 21
31.72098096783494
 31
0.0
 12
8.667075243610502
 22
31.78848096783494
 32
0.0
 13
8.667075243610502
 23
31.78848096783494
 33
0.0
  0
SOLID
  5
38D3
330
2A2E
100
AcDbEntity
  8
DIM
 62
     0
100
AcDbTrace
 10
3.905325243610499
 20
31.85598096783493
 30
0.0
 11
3.905325243610499
 21
31.72098096783494
 31
0.0
 12
3.500325243610499
 22
31.78848096783494
 32
0.0
 13
3.500325243610499
 23
31.78848096783494
 33
0.0
  0
MTEXT
  5
38D4
330
2A2E
100
AcDbEntity
  8
DIM
 62
     0
100
AcDbMText
 10
6.0837002436105
 20
31.78848096783494
 30
0.0
 40
0.28125
 41
0.0
 71
     5
 72
     1
  1
\A1;M
1001
ACAD
1000
MTEXTBEGIN
1070
    73
1070
     1
1070
    44
1040
1.0
1070
    74
1070
     0
1000
MTEXTEND
  0
POINT
  5
38D5
330
2A2E
100
AcDbEntity
  8
DEFPOINTS
 62
     0
100
AcDbPoint
 10
8.667075243610502
 20
28.65495604953925
 30
0.0
  0
POINT
  5
38D6
330
2A2E
100
AcDbEntity
  8
DEFPOINTS
 62
     0
100
AcDbPoint
 10
3.500325243610499
 20
29.14545604953925
 30
0.0
  0
POINT
  5
38D7
330
2A2E
100
AcDbEntity
  8
DEFPOINTS
 62
     0
100
AcDbPoint
 10
3.500325243610499
 20
31.78848096783494
 30
0.0
  0
ENDBLK
  5
2A3A
330
2A2E
100
AcDbEntity
  8
0
100
AcDbBlockEnd
  0
BLOCK
  5
2A47
330
2A3C
100
AcDbEntity
  8
0
100
AcDbBlockBegin
  2
*D28
 70
     1
 10
0.0
 20
0.0
 30
0.0
  3
*D28
  1

  0
LINE
  5
38D8
330
2A3C
100
AcDbEntity
  8
DIM
 62
     0
100
AcDbLine
 10
3.752325243610501
 20
29.16220604953925
 30
0.0
 11
3.752325243610501
 21
31.29279221723576
 31
0.0
  0
LINE
  5
38D9
330
2A3C
100
AcDbEntity
  8
DIM
 62
     0
100
AcDbLine
 10
3.500325243610499
 20
29.28720604953925
 30
0.0
 11
3.500325243610499
 21
31.29279221723576
 31
0.0
  0
LINE
  5
38DA
330
2A3C
100
AcDbEntity
  8
DIM
 62
     0
100
AcDbLine
 10
4.157325243610501
 20
31.08354221723576
 30
0.0
 11
4.562325243610501
 21
31.08354221723576
 31
0.0
  0
LINE
  5
38DB
330
2A3C
100
AcDbEntity
  8
DIM
 62
     0
100
AcDbLine
 10
3.0953252436105
 20
31.08354221723576
 30
0.0
 11
2.690325243610499
 21
31.08354221723576
 31
0.0
  0
SOLID
  5
38DC
330
2A3C
100
AcDbEntity
  8
DIM
 62
     0
100
AcDbTrace
 10
4.157325243610501
 20
31.15104221723576
 30
0.0
 11
4.157325243610501
 21
31.01604221723576
 31
0.0
 12
3.752325243610501
 22
31.08354221723576
 32
0.0
 13
3.752325243610501
 23
31.08354221723576
 33
0.0
  0
SOLID
  5
38DD
330
2A3C
100
AcDbEntity
  8
DIM
 62
     0
100
AcDbTrace
 10
3.0953252436105
 20
31.15104221723576
 30
0.0
 11
3.0953252436105
 21
31.01604221723576
 31
0.0
 12
3.500325243610499
 22
31.08354221723576
 32
0.0
 13
3.500325243610499
 23
31.08354221723576
 33
0.0
  0
MTEXT
  5
38DE
330
2A3C
100
AcDbEntity
  8
DIM
 62
     0
100
AcDbMText
 10
2.083528368610499
 20
31.08354221723576
 30
0.0
 40
0.28125
 41
0.0
 71
     5
 72
     1
  1
\A1;0.252
1001
ACAD
1000
MTEXTBEGIN
1070
    73
1070
     1
1070
    44
1040
1.0
1070
    74
1070
     0
1000
MTEXTEND
  0
POINT
  5
38DF
330
2A3C
100
AcDbEntity
  8
DEFPOINTS
 62
     0
100
AcDbPoint
 10
3.752325243610501
 20
29.02045604953925
 30
0.0
  0
POINT
  5
38E0
330
2A3C
100
AcDbEntity
  8
DEFPOINTS
 62
     0
100
AcDbPoint
 10
3.500325243610499
 20
29.14545604953925
 30
0.0
  0
POINT
  5
38E1
330
2A3C
100
AcDbEntity
  8
DEFPOINTS
 62
     0
100
AcDbPoint
 10
3.500325243610499
 20
31.08354221723576
 30
0.0
  0
ENDBLK
  5
2A48
330
2A3C
100
AcDbEntity
  8
0
100
AcDbBlockEnd
  0
BLOCK
  5
2A85
330
2A7C
100
AcDbEntity
  8
0
100
AcDbBlockBegin
  2
*D29
 70
     1
 10
0.0
 20
0.0
 30
0.0
  3
*D29
  1

  0
LINE
  5
38E2
330
2A7C
100
AcDbEntity
  8
DIM
 62
     0
100
AcDbLine
 10
3.66425491795811
 20
28.54860478299495
 30
0.0
 11
3.589945580688907
 21
28.15048027684818
 31
0.0
  0
LINE
  5
38E3
330
2A7C
100
AcDbEntity
  8
DIM
 62
     0
100
AcDbLine
 10
3.589945580688907
 20
28.15048027684818
 30
0.0
 11
3.184945580688907
 21
28.15048027684818
 31
0.0
  0
SOLID
  5
38E4
330
2A7C
100
AcDbEntity
  8
DIM
 62
     0
100
AcDbTrace
 10
3.597900833600315
 20
28.56098967253982
 30
0.0
 11
3.730609002315905
 21
28.53621989345008
 31
0.0
 12
3.738564255227315
 22
28.94672928914173
 32
0.0
 13
3.738564255227315
 23
28.94672928914173
 33
0.0
  0
MTEXT
  5
38E5
330
2A7C
100
AcDbEntity
  8
DIM
 62
     0
100
AcDbMText
 10
1.998070580688906
 20
28.15048027684818
 30
0.0
 40
0.28125
 41
0.0
 71
     5
 72
     1
  1
\A1;\U+22050.150 THRU
1001
ACAD
1000
MTEXTBEGIN
1070
    73
1070
     1
1070
    44
1040
1.0
1070
    74
1070
     0
1000
MTEXTEND
  0
POINT
  5
38E6
330
2A7C
100
AcDbEntity
  8
DEFPOINTS
 62
     0
100
AcDbPoint
 10
3.738564255227315
 20
28.94672928914173
 30
0.0
  0
POINT
  5
38E7
330
2A7C
100
AcDbEntity
  8
DEFPOINTS
 62
     0
100
AcDbPoint
 10
3.766086231993687
 20
29.09418280993683
 30
0.0
  0
ENDBLK
  5
2A86
330
2A7C
100
AcDbEntity
  8
0
100
AcDbBlockEnd
  0
BLOCK
  5
2AC2
330
2ABB
100
AcDbEntity
  8
0
100
AcDbBlockBegin
  2
*D30
 70
     1
 10
0.0
 20
0.0
 30
0.0
  3
*D30
  1

  0
LINE
  5
39D7
330
2ABB
100
AcDbEntity
  8
DIM
 62
     0
100
AcDbLine
 10
2.466349929812366
 20
23.39512069205068
 30
0.0
 11
2.871349929812369
 21
23.39512069205068
 31
0.0
  0
LINE
  5
39D8
330
2ABB
100
AcDbEntity
  8
DIM
 62
     0
100
AcDbLine
 10
2.871349929812369
 20
23.39512069205068
 30
0.0
 11
3.632864988301051
 21
22.53354867704397
 31
0.0
  0
MTEXT
  5
39D9
330
2ABB
100
AcDbEntity
  8
DIM
 62
     0
100
AcDbMText
 10
1.789240554812369
 20
23.39512069205068
 30
0.0
 40
0.28125
 41
0.0
 71
     5
 72
     1
  1
\A1;R0.188
  0
SOLID
  5
39DA
330
2ABB
100
AcDbEntity
  8
DIM
 62
     0
100
AcDbTrace
 10
3.683441036027176
 20
22.57825117581534
 30
0.0
 11
3.582288940574924
 21
22.48884617827259
 31
0.0
 12
3.90107998092929
 22
22.23009239068721
 32
0.0
 13
3.90107998092929
 23
22.23009239068721
 33
0.0
  0
POINT
  5
39DB
330
2ABB
100
AcDbEntity
  8
DEFPOINTS
 62
     0
100
AcDbPoint
 10
3.90107998092929
 20
22.23009239068721
 30
0.0
  0
POINT
  5
39DC
330
2ABB
100
AcDbEntity
  8
DEFPOINTS
 62
     0
100
AcDbPoint
 10
3.776575243610482
 20
22.37095604953926
 30
0.0
  0
ENDBLK
  5
2AC3
330
2ABB
100
AcDbEntity
  8
0
100
AcDbBlockEnd
  0
BLOCK
  5
2AD1
330
2AC5
100
AcDbEntity
  8
0
100
AcDbBlockBegin
  2
*D31
 70
     1
 10
0.0
 20
0.0
 30
0.0
  3
*D31
  1

  0
LINE
  5
38EE
330
2AC5
100
AcDbEntity
  8
DIM
 62
     0
100
AcDbLine
 10
3.421075243610498
 20
22.18295604953923
 30
0.0
 11
2.367429128094211
 21
22.18295604953923
 31
0.0
  0
LINE
  5
38EF
330
2AC5
100
AcDbEntity
  8
DIM
 62
     0
100
AcDbLine
 10
3.421075243610499
 20
21.81795604953923
 30
0.0
 11
2.367429128094211
 21
21.81795604953923
 31
0.0
  0
LINE
  5
38F0
330
2AC5
100
AcDbEntity
  8
DIM
 62
     0
100
AcDbLine
 10
2.576679128094211
 20
22.58795604953923
 30
0.0
 11
2.576679128094211
 21
22.99295604953923
 31
0.0
  0
LINE
  5
38F1
330
2AC5
100
AcDbEntity
  8
DIM
 62
     0
100
AcDbLine
 10
2.576679128094211
 20
21.41295604953923
 30
0.0
 11
2.576679128094211
 21
21.00795604953924
 31
0.0
  0
LINE
  5
38F2
330
2AC5
100
AcDbEntity
  8
DIM
 62
     0
100
AcDbLine
 10
2.576679128094211
 20
21.00795604953924
 30
0.0
 11
2.171679128094211
 21
21.00795604953924
 31
0.0
  0
SOLID
  5
38F3
330
2AC5
100
AcDbEntity
  8
DIM
 62
     0
100
AcDbTrace
 10
2.509179128094211
 20
22.58795604953923
 30
0.0
 11
2.644179128094211
 21
22.58795604953923
 31
0.0
 12
2.576679128094211
 22
22.18295604953923
 32
0.0
 13
2.576679128094211
 23
22.18295604953923
 33
0.0
  0
SOLID
  5
38F4
330
2AC5
100
AcDbEntity
  8
DIM
 62
     0
100
AcDbTrace
 10
2.509179128094211
 20
21.41295604953923
 30
0.0
 11
2.644179128094211
 21
21.41295604953923
 31
0.0
 12
2.576679128094211
 22
21.81795604953923
 32
0.0
 13
2.576679128094211
 23
21.81795604953923
 33
0.0
  0
MTEXT
  5
38F5
330
2AC5
100
AcDbEntity
  8
DIM
 62
     0
100
AcDbMText
 10
1.564882253094208
 20
21.00795604953924
 30
0.0
 40
0.28125
 41
0.0
 71
     5
 72
     1
  1
\A1;0.365
1001
ACAD
1000
MTEXTBEGIN
1070
    73
1070
     1
1070
    44
1040
1.0
1070
    74
1070
     0
1000
MTEXTEND
  0
POINT
  5
38F6
330
2AC5
100
AcDbEntity
  8
DEFPOINTS
 62
     0
100
AcDbPoint
 10
3.562825243610498
 20
22.18295604953923
 30
0.0
  0
POINT
  5
38F7
330
2AC5
100
AcDbEntity
  8
DEFPOINTS
 62
     0
100
AcDbPoint
 10
3.562825243610499
 20
21.81795604953923
 30
0.0
  0
POINT
  5
38F8
330
2AC5
100
AcDbEntity
  8
DEFPOINTS
 62
     0
100
AcDbPoint
 10
2.576679128094211
 20
21.81795604953923
 30
0.0
  0
ENDBLK
  5
2AD2
330
2AC5
100
AcDbEntity
  8
0
100
AcDbBlockEnd
  0
BLOCK
  5
3956
330
393F
100
AcDbEntity
  8
0
100
AcDbBlockBegin
  2
HB
 70
     0
 10
0.0
 20
0.0
 30
0.0
  3
HB
  1

  0
LINE
  5
3940
330
393F
100
AcDbEntity
  8
TITLE
100
AcDbLine
 10
0.0
 20
15.5
 30
0.0
 11
10.11999999999999
 21
15.49999999999999
 31
0.0
  0
LINE
  5
3941
330
393F
100
AcDbEntity
  8
TITLE
100
AcDbLine
 10
10.11999999999999
 20
-0.0000000000000018
 30
0.0
 11
0.0
 21
0.0
 31
0.0
  0
LINE
  5
3942
330
393F
100
AcDbEntity
  8
TITLE
100
AcDbLine
 10
0.0620000000000012
 20
15.438
 30
0.0
 11
10.058
 21
15.438
 31
0.0
  0
LINE
  5
3943
330
393F
100
AcDbEntity
  8
TITLE
100
AcDbLine
 10
10.058
 20
0.0619999999999994
 30
0.0
 11
0.0619999999999976
 21
0.0620000000000012
 31
0.0
  0
LINE
  5
3944
330
393F
100
AcDbEntity
  8
TITLE
100
AcDbLine
 10
0.0620000000000012
 20
15.01999999999999
 30
0.0
 11
10.058
 21
15.01999999999999
 31
0.0
  0
LINE
  5
3945
330
393F
100
AcDbEntity
  8
TITLE
100
AcDbLine
 10
0.0
 20
0.0
 30
0.0
 11
0.0
 21
15.5
 31
0.0
  0
LINE
  5
3946
330
393F
100
AcDbEntity
  8
TITLE
100
AcDbLine
 10
0.0619999999999976
 20
0.0620000000000012
 30
0.0
 11
0.0620000000000012
 21
15.438
 31
0.0
  0
TEXT
  5
3947
330
393F
100
AcDbEntity
  8
TEXT
100
AcDbText
 10
0.2078333333333381
 20
15.26841252897341
 30
0.0
 40
0.125
  1
PART
 72
     1
 11
0.4370000000000048
 21
15.26841252897341
 31
0.0
100
AcDbText
  0
TEXT
  5
3948
330
393F
100
AcDbEntity
  8
TEXT
100
AcDbText
 10
0.2078333333333381
 20
15.06007919564008
 30
0.0
 40
0.125
  1
NAME
 72
     1
 11
0.4370000000000048
 21
15.06007919564008
 31
0.0
100
AcDbText
  0
LINE
  5
3949
330
393F
100
AcDbEntity
  8
TITLE
100
AcDbLine
 10
0.8120000000000047
 20
15.01999999999999
 30
0.0
 11
0.8120000000000011
 21
15.438
 31
0.0
  0
LINE
  5
394A
330
393F
100
AcDbEntity
  8
TITLE
100
AcDbLine
 10
10.11999999999999
 20
15.49999999999999
 30
0.0
 11
10.11999999999999
 21
-0.0000000000000018
 31
0.0
  0
LINE
  5
394B
330
393F
100
AcDbEntity
  8
TITLE
100
AcDbLine
 10
10.058
 20
15.438
 30
0.0
 11
10.058
 21
0.0619999999999994
 31
0.0
  0
TEXT
  5
394C
330
393F
100
AcDbEntity
  8
TEXT
100
AcDbText
 10
4.36183333333333
 20
15.26841252897341
 30
0.0
 40
0.125
  1
PART
 72
     1
 11
4.590999999999997
 21
15.26841252897341
 31
0.0
100
AcDbText
  0
LINE
  5
394D
330
393F
100
AcDbEntity
  8
TITLE
100
AcDbLine
 10
4.153999999999999
 20
15.438
 30
0.0
 11
4.153999999999999
 21
15.01999999999999
 31
0.0
  0
LINE
  5
394E
330
393F
100
AcDbEntity
  8
TITLE
100
AcDbLine
 10
4.215999999999997
 20
15.438
 30
0.0
 11
4.215999999999997
 21
15.01999999999999
 31
0.0
  0
TEXT
  5
394F
330
393F
100
AcDbEntity
  8
TEXT
100
AcDbText
 10
4.465999999999997
 20
15.06007919564008
 30
0.0
 40
0.125
  1
No.
 72
     1
 11
4.590999999999997
 21
15.06007919564008
 31
0.0
100
AcDbText
  0
LINE
  5
3950
330
393F
100
AcDbEntity
  8
TITLE
100
AcDbLine
 10
4.965999999999997
 20
15.438
 30
0.0
 11
4.965999999999997
 21
15.01999999999999
 31
0.0
  0
LINE
  5
3951
330
393F
100
AcDbEntity
  8
TITLE
100
AcDbLine
 10
8.307999999999999
 20
15.438
 30
0.0
 11
8.307999999999999
 21
15.02
 31
0.0
  0
LINE
  5
3952
330
393F
100
AcDbEntity
  8
TITLE
100
AcDbLine
 10
8.245999999999988
 20
15.438
 30
0.0
 11
8.245999999999988
 21
15.02
 31
0.0
  0
TEXT
  5
3953
330
393F
100
AcDbEntity
  8
TEXT
100
AcDbText
 10
8.453833333333333
 20
15.06007919564008
 30
0.0
 40
0.125
  1
DATE
 72
     1
 11
8.682999999999999
 21
15.06007919564008
 31
0.0
100
AcDbText
  0
TEXT
  5
3954
330
393F
100
AcDbEntity
  8
TEXT
100
AcDbText
 10
8.474666666666665
 20
15.26841252897341
 30
0.0
 40
0.125
  1
REV.
 72
     1
 11
8.682999999999999
 21
15.26841252897341
 31
0.0
100
AcDbText
  0
LINE
  5
3955
330
393F
100
AcDbEntity
  8
TITLE
100
AcDbLine
 10
9.057999999999999
 20
15.438
 30
0.0
 11
9.057999999999999
 21
15.02
 31
0.0
  0
ENDBLK
  5
3957
330
393F
100
AcDbEntity
  8
0
100
AcDbBlockEnd
  0
BLOCK
  5
3980
330
3971
100
AcDbEntity
  8
0
100
AcDbBlockBegin
  2
*D33
 70
     1
 10
0.0
 20
0.0
 30
0.0
  3
*D33
  1

  0
LINE
  5
39DD
330
3971
100
AcDbEntity
  8
DIM
 62
     0
100
AcDbLine
 10
14.29865633290841
 20
7.438341543648962
 30
0.0
 11
14.29865633290841
 21
5.701130726723872
 31
0.0
  0
LINE
  5
39DE
330
3971
100
AcDbEntity
  8
DIM
 62
     0
100
AcDbLine
 10
14.37141466711622
 20
6.785835198803
 30
0.0
 11
14.4092259848514
 21
5.703060727177628
 31
0.0
  0
ARC
  5
39DF
330
3971
100
AcDbEntity
  8
DIM
 62
     0
100
AcDbCircle
 10
14.29865633290841
 20
8.86936128562089
 30
0.0
 40
2.958980558897017
100
AcDbArc
 50
254.2662969660457
 51
270.0000000000002
  0
LINE
  5
39E0
330
3971
100
AcDbEntity
  8
DIM
 62
     0
100
AcDbLine
 10
13.49627939192602
 20
6.021246612278143
 30
0.0
 11
13.09127939192602
 21
6.021246612278145
 31
0.0
  0
ARC
  5
39E1
330
3971
100
AcDbEntity
  8
DIM
 62
     0
100
AcDbCircle
 10
14.29865633290841
 20
8.86936128562089
 30
0.0
 40
2.958980558897017
100
AcDbArc
 50
254.3034169378818
 51
262.151708468941
  0
ARC
  5
39E2
330
3971
100
AcDbEntity
  8
DIM
 62
     0
100
AcDbCircle
 10
14.29865633290841
 20
8.86936128562089
 30
0.0
 40
2.958980558897017
100
AcDbArc
 50
279.8482915310592
 51
287.6965830621184
  0
SOLID
  5
39E3
330
3971
100
AcDbEntity
  8
DIM
 62
     0
100
AcDbTrace
 10
13.89922525636012
 20
6.005438946186838
 30
0.0
 11
13.88998643256393
 21
5.870755450038041
 31
0.0
 12
14.29865633290842
 22
5.910380726723872
 32
0.0
 13
14.29865633290842
 23
5.910380726723872
 33
0.0
  0
SOLID
  5
39E4
330
3971
100
AcDbEntity
  8
DIM
 62
     0
100
AcDbTrace
 10
14.81172711706252
 20
5.886844493532946
 30
0.0
 11
14.79779353507843
 21
6.021123513834306
 31
0.0
 12
14.4019232651664
 22
5.912183257731374
 32
0.0
 13
14.4019232651664
 23
5.912183257731374
 33
0.0
  0
MTEXT
  5
39E5
330
3971
100
AcDbEntity
  8
DIM
 62
     0
100
AcDbMText
 10
11.76377939192602
 20
6.021246612278144
 30
0.0
 40
0.28125
 41
0.0
 71
     5
 72
     1
  1
\A1;2° DRAFT\P(TYP. INSIDE)
  0
POINT
  5
39E6
330
3971
100
AcDbEntity
  8
DEFPOINTS
 62
     0
100
AcDbPoint
 10
14.36750872244507
 20
5.911181896809996
 30
0.0
  0
POINT
  5
39E7
330
3971
100
AcDbEntity
  8
DEFPOINTS
 62
     0
100
AcDbPoint
 10
14.29865633290841
 20
8.869361285620774
 30
0.0
  0
POINT
  5
39E8
330
3971
100
AcDbEntity
  8
DEFPOINTS
 62
     0
100
AcDbPoint
 10
14.29865633290841
 20
7.826898400547379
 30
0.0
  0
POINT
  5
39E9
330
3971
100
AcDbEntity
  8
DEFPOINTS
 62
     0
100
AcDbPoint
 10
14.29865633290841
 20
7.580091543648962
 30
0.0
  0
POINT
  5
39EA
330
3971
100
AcDbEntity
  8
DEFPOINTS
 62
     0
100
AcDbPoint
 10
14.36646766345864
 20
6.927498848532956
 30
0.0
  0
ENDBLK
  5
3981
330
3971
100
AcDbEntity
  8
0
100
AcDbBlockEnd
  0
ENDSEC
  0
SECTION
  2
ENTITIES
  0
LINE
  5
EED
330
CA6
100
AcDbEntity
  8
OBJECT
100
AcDbLine
 10
4.152075243610497
 20
6.806861285620772
 30
0.0
 11
8.479575243610502
 21
6.806861285620772
 31
0.0
  0
LINE
  5
EEE
330
CA6
100
AcDbEntity
  8
OBJECT
100
AcDbLine
 10
8.667075243610502
 20
6.994361285620772
 30
0.0
 11
8.667075243610502
 21
14.00936128562076
 31
0.0
  0
LINE
  5
EEF
330
CA6
100
AcDbEntity
  8
OBJECT
100
AcDbLine
 10
8.479575243610502
 20
14.19686128562076
 30
0.0
 11
4.152075243610497
 21
14.19686128562076
 31
0.0
  0
LINE
  5
EF0
330
CA6
100
AcDbEntity
  8
OBJECT
100
AcDbLine
 10
3.964575243610498
 20
14.00936128562076
 30
0.0
 11
3.964575243610498
 21
6.994361285620772
 31
0.0
  0
CIRCLE
  5
EF1
330
CA6
100
AcDbEntity
  8
OBJECT
100
AcDbCircle
 10
4.1595752436105
 20
14.00186128562076
 30
0.0
 40
0.065
  0
CIRCLE
  5
EF2
330
CA6
100
AcDbEntity
  8
OBJECT
100
AcDbCircle
 10
8.472075243610504
 20
14.00186128562076
 30
0.0
 40
0.065
  0
ARC
  5
EF3
330
CA6
100
AcDbEntity
  8
OBJECT
100
AcDbCircle
 10
4.152075243610497
 20
14.00936128562076
 30
0.0
 40
0.1875
100
AcDbArc
 50
90.0
 51
180.0
  0
ARC
  5
EF4
330
CA6
100
AcDbEntity
  8
OBJECT
100
AcDbCircle
 10
8.479575243610502
 20
14.00936128562076
 30
0.0
 40
0.1875
100
AcDbArc
 50
0.0
 51
90.0
  0
ARC
  5
EF5
330
CA6
100
AcDbEntity
  8
OBJECT
100
AcDbCircle
 10
8.479575243610502
 20
6.994361285620772
 30
0.0
 40
0.1875
100
AcDbArc
 50
270.0
 51
0.0
  0
ARC
  5
EF6
330
CA6
100
AcDbEntity
  8
OBJECT
100
AcDbCircle
 10
4.152075243610497
 20
6.994361285620772
 30
0.0
 40
0.1875
100
AcDbArc
 50
180.0
 51
270.0
  0
ARC
  5
EF7
330
CA6
100
AcDbEntity
  8
OBJECT
100
AcDbCircle
 10
4.1595752436105
 20
14.00186128562076
 30
0.0
 40
0.125
100
AcDbArc
 50
270.0
 51
0.0
  0
LINE
  5
EF8
330
CA6
100
AcDbEntity
  8
OBJECT
100
AcDbLine
 10
14.29865633290841
 20
8.869361285620774
 30
0.0
 11
14.36646766345864
 21
6.927498848532955
 31
0.0
  0
LINE
  5
EF9
330
CA6
100
AcDbEntity
  8
OBJECT
100
AcDbLine
 10
14.49139151683603
 20
6.806861285620772
 30
0.0
 11
21.49642114898079
 21
6.806861285620772
 31
0.0
  0
LINE
  5
EFA
330
CA6
100
AcDbEntity
  8
OBJECT
100
AcDbLine
 10
21.62134500235818
 20
6.927498848532955
 30
0.0
 11
21.68915633290841
 21
8.869361285620774
 31
0.0
  0
LINE
  5
EFB
330
CA6
100
AcDbEntity
  8
OBJECT
100
AcDbLine
 10
21.68915633290841
 20
8.869361285620774
 30
0.0
 11
21.59534918813038
 21
8.869361285620774
 31
0.0
  0
LINE
  5
EFC
330
CA6
100
AcDbEntity
  8
OBJECT
100
AcDbLine
 10
14.39246347768643
 20
8.869361285620774
 30
0.0
 11
14.45965300138337
 21
6.945305067076867
 31
0.0
  0
LINE
  5
EFD
330
CA6
100
AcDbEntity
  8
OBJECT
100
AcDbLine
 10
21.52815966443346
 20
6.945305067076867
 30
0.0
 11
21.59534918813038
 21
8.869361285620774
 31
0.0
  0
ARC
  5
EFE
330
CA6
100
AcDbEntity
  8
OBJECT
100
AcDbCircle
 10
21.49642114898079
 20
6.931861285620772
 30
0.0
 40
0.125
100
AcDbArc
 50
270.0
 51
358.0
  0
ARC
  5
EFF
330
CA6
100
AcDbEntity
  8
OBJECT
100
AcDbCircle
 10
14.49139151683603
 20
6.931861285620772
 30
0.0
 40
0.125
100
AcDbArc
 50
182.0
 51
270.0
  0
LINE
  5
F00
330
CA6
100
AcDbEntity
  8
OBJECT
100
AcDbLine
 10
21.59207536599055
 20
8.775611285620772
 30
0.0
 11
21.37319202817518
 21
8.775611285620772
 31
0.0
  0
LINE
  5
F01
330
CA6
100
AcDbEntity
  8
OBJECT
100
AcDbLine
 10
14.61462063764165
 20
8.775611285620772
 30
0.0
 11
14.67853633919873
 21
6.945305067076867
 31
0.0
  0
LINE
  5
F02
330
CA6
100
AcDbEntity
  8
OBJECT
100
AcDbLine
 10
21.3092763266181
 20
6.945305067076867
 30
0.0
 11
21.37319202817518
 21
8.775611285620772
 31
0.0
  0
LINE
  5
F03
330
CA6
100
AcDbEntity
  8
OBJECT
100
AcDbLine
 10
14.61462063764165
 20
8.775611285620772
 30
0.0
 11
14.39573729982627
 21
8.775611285620772
 31
0.0
  0
LINE
  5
F04
330
CA6
100
AcDbEntity
  8
CENTER
100
AcDbLine
 10
14.48179123672193
 20
8.994361285620774
 30
0.0
 11
14.50798181384076
 21
8.244361285620772
 31
0.0
  0
LINE
  5
F05
330
CA6
100
AcDbEntity
  8
CENTER
100
AcDbLine
 10
21.50602142909487
 20
8.994361285620774
 30
0.0
 11
21.47983085197607
 21
8.244361285620772
 31
0.0
  0
DIMENSION
  5
F06
330
CA6
100
AcDbEntity
  8
DIM
100
AcDbDimension
  2
*D2
 10
9.767812864534343
 20
7.001861285620773
 30
0.0
 11
9.767812864534342
 21
10.50186128562077
 31
0.0
 70
    32
  1
E
  3
23NSTD
100
AcDbAlignedDimension
 13
8.472075243610504
 23
14.00186128562076
 33
0.0
 14
8.472075243610504
 24
7.001861285620773
 34
0.0
 50
90.0
100
AcDbRotatedDimension
  0
DIMENSION
  5
F14
330
CA6
100
AcDbEntity
  8
DIM
100
AcDbDimension
  2
*D3
 10
10.35098388364227
 20
6.806861285620771
 30
0.0
 11
10.35098388364226
 21
10.50186128562077
 31
0.0
 70
    32
  1
A
  3
23NSTD
100
AcDbAlignedDimension
 13
8.479575243610502
 23
14.19686128562076
 33
0.0
 14
8.479575243610502
 24
6.806861285620772
 34
0.0
 50
90.0
100
AcDbRotatedDimension
  0
DIMENSION
  5
F22
330
CA6
100
AcDbEntity
  8
DIM
100
AcDbDimension
  2
*D4
 10
8.472075243610504
 20
15.54915386447355
 30
0.0
 11
6.315825243610502
 21
15.54915386447355
 31
0.0
 70
    32
  1
F
  3
23NSTD
100
AcDbAlignedDimension
 13
4.1595752436105
 23
14.00186128562076
 33
0.0
 14
8.472075243610504
 24
14.00186128562076
 34
0.0
 50
180.0
100
AcDbRotatedDimension
  0
DIMENSION
  5
F30
330
CA6
100
AcDbEntity
  8
DIM
100
AcDbDimension
  2
*D5
 10
8.667075243610502
 20
16.09222257629415
 30
0.0
 11
6.3158252436105
 21
16.09222257629415
 31
0.0
 70
    32
  1
B
  3
23NSTD
100
AcDbAlignedDimension
 13
3.964575243610498
 23
14.00936128562076
 33
0.0
 14
8.667075243610502
 24
14.00936128562076
 34
0.0
 50
180.0
100
AcDbRotatedDimension
  0
LINE
  5
F3E
330
CA6
100
AcDbEntity
  8
OBJECT
100
AcDbLine
 10
14.52211492807206
 20
6.884986285620772
 30
0.0
 11
21.46569773774476
 21
6.884986285620772
 31
0.0
  0
ARC
  5
F3F
330
CA6
100
AcDbEntity
  8
OBJECT
100
AcDbCircle
 10
14.74099826588743
 20
6.947486285620772
 30
0.0
 40
0.0625
100
AcDbArc
 50
182.0
 51
270.0
  0
ARC
  5
F40
330
CA6
100
AcDbEntity
  8
OBJECT
100
AcDbCircle
 10
14.52211492807206
 20
6.947486285620772
 30
0.0
 40
0.0625
100
AcDbArc
 50
182.0
 51
270.0
  0
ARC
  5
F41
330
CA6
100
AcDbEntity
  8
OBJECT
100
AcDbCircle
 10
21.2468143999294
 20
6.947486285620772
 30
0.0
 40
0.0625
100
AcDbArc
 50
270.0
 51
358.0
  0
ARC
  5
F42
330
CA6
100
AcDbEntity
  8
OBJECT
100
AcDbCircle
 10
21.46569773774476
 20
6.947486285620772
 30
0.0
 40
0.0625
100
AcDbArc
 50
270.0
 51
358.0
  0
LINE
  5
F43
330
CA6
100
AcDbEntity
  8
OBJECT
100
AcDbLine
 10
21.59534918813038
 20
8.869361285620774
 30
0.0
 11
14.39246347768643
 21
8.869361285620774
 31
0.0
  0
LINE
  5
F44
330
CA6
100
AcDbEntity
  8
OBJECT
100
AcDbLine
 10
14.39246347768643
 20
8.869361285620774
 30
0.0
 11
14.29865633290841
 21
8.869361285620774
 31
0.0
  0
TEXT
  5
F45
330
CA6
100
AcDbEntity
  8
BEND
100
AcDbText
 10
5.508615766513271
 20
14.93198670681749
 30
0.0
 40
0.281
  1
B
 41
0.75
 72
     4
 11
5.578865766513271
 21
15.07248670681749
 31
0.0
100
AcDbText
  0
LWPOLYLINE
  5
F46
330
CA6
100
AcDbEntity
  8
BEND
100
AcDbPolyline
 90
        6
 70
     0
 10
4.622510933967438
 20
5.931235864424058
 40
0.0
 41
0.151875
 10
5.027510933967441
 20
5.931235864424058
 40
0.0
 41
0.0
 10
5.395240984045159
 20
5.931235864424058
 40
0.0
 41
0.0
 10
5.395240984045159
 20
15.06386128562076
 40
0.0
 41
0.0
 10
5.027510933967441
 20
15.06386128562076
 40
0.15
 41
0.0
 10
4.622510933967438
 20
15.06386128562076
 40
0.0
 41
0.0
  0
TEXT
  5
F4C
330
CA6
100
AcDbEntity
  8
BEND
100
AcDbText
 10
5.508615766513271
 20
5.790735864424058
 30
0.0
 40
0.281
  1
B
 41
0.75
 72
     4
 11
5.578865766513271
 21
5.931235864424058
 31
0.0
100
AcDbText
  0
DIMENSION
  5
F4D
330
CA6
100
AcDbEntity
  8
DIM
100
AcDbDimension
  2
*D6
 10
3.964575243610498
 20
15.54915386447355
 30
0.0
 11
2.582934618610498
 21
15.54915386447355
 31
0.0
 70
    32
  1
0.188
  3
23NSTD
100
AcDbAlignedDimension
 13
4.1595752436105
 23
14.00186128562076
 33
0.0
 14
3.964575243610498
 24
14.00936128562076
 34
0.0
100
AcDbRotatedDimension
  0
LINE
  5
F5B
330
CA6
100
AcDbEntity
  8
HIDDEN
100
AcDbLine
 10
14.55443015504827
 20
8.775611285620772
 30
0.0
 11
14.56736710687456
 21
8.405145456414137
 31
0.0
  0
LINE
  5
F5C
330
CA6
100
AcDbEntity
  8
HIDDEN
100
AcDbLine
 10
14.42443015504826
 20
8.775611285620776
 30
0.0
 11
14.43752544360767
 21
8.400611285620776
 31
0.0
  0
LINE
  5
F5D
330
CA6
100
AcDbEntity
  8
HIDDEN
100
AcDbLine
 10
14.43752544360767
 20
8.400611285620776
 30
0.0
 11
14.50236378043386
 21
8.366136130397045
 31
0.0
  0
LINE
  5
F5E
330
CA6
100
AcDbEntity
  8
HIDDEN
100
AcDbLine
 10
14.56736710687456
 20
8.405145456414137
 30
0.0
 11
14.50236378043386
 21
8.366136130397045
 31
0.0
  0
LINE
  5
F5F
330
CA6
100
AcDbEntity
  8
HIDDEN
100
AcDbLine
 10
14.43752544360767
 20
8.400611285620776
 30
0.0
 11
14.56736710687456
 21
8.405145456414137
 31
0.0
  0
LINE
  5
F60
330
CA6
100
AcDbEntity
  8
HIDDEN
100
AcDbLine
 10
21.55028722220915
 20
8.400611285620776
 30
0.0
 11
21.42044555894226
 21
8.405145456414137
 31
0.0
  0
LINE
  5
F61
330
CA6
100
AcDbEntity
  8
HIDDEN
100
AcDbLine
 10
21.42044555894226
 20
8.405145456414137
 30
0.0
 11
21.48544888538296
 21
8.366136130397045
 31
0.0
  0
LINE
  5
F62
330
CA6
100
AcDbEntity
  8
HIDDEN
100
AcDbLine
 10
21.55028722220915
 20
8.400611285620776
 30
0.0
 11
21.48544888538296
 21
8.366136130397045
 31
0.0
  0
LINE
  5
F63
330
CA6
100
AcDbEntity
  8
HIDDEN
100
AcDbLine
 10
21.56338251076855
 20
8.775611285620776
 30
0.0
 11
21.55028722220915
 21
8.400611285620776
 31
0.0
  0
LINE
  5
F64
330
CA6
100
AcDbEntity
  8
HIDDEN
100
AcDbLine
 10
21.43338251076856
 20
8.775611285620772
 30
0.0
 11
21.42044555894226
 21
8.405145456414137
 31
0.0
  0
LINE
  5
F65
330
CA6
100
AcDbEntity
  8
OBJECT
100
AcDbLine
 10
4.2845752436105
 20
14.00186128562076
 30
0.0
 11
4.2845752436105
 21
14.04111128562076
 31
0.0
  0
LINE
  5
F66
330
CA6
100
AcDbEntity
  8
OBJECT
100
AcDbLine
 10
4.1595752436105
 20
13.87686128562076
 30
0.0
 11
4.1203252436105
 21
13.87686128562076
 31
0.0
  0
ARC
  5
F67
330
CA6
100
AcDbEntity
  8
OBJECT
100
AcDbCircle
 10
4.346575243610501
 20
14.04111128562076
 30
0.0
 40
0.062
100
AcDbArc
 50
90.0
 51
180.0
  0
ARC
  5
F68
330
CA6
100
AcDbEntity
  8
OBJECT
100
AcDbCircle
 10
4.1203252436105
 20
13.81486128562076
 30
0.0
 40
0.062
100
AcDbArc
 50
90.0
 51
180.0
  0
ARC
  5
F69
330
CA6
100
AcDbEntity
  8
OBJECT
100
AcDbCircle
 10
8.511325243610501
 20
13.81486128562076
 30
0.0
 40
0.062
100
AcDbArc
 50
0.0
 51
90.0
  0
ARC
  5
F6A
330
CA6
100
AcDbEntity
  8
OBJECT
100
AcDbCircle
 10
8.285075243610503
 20
14.04111128562076
 30
0.0
 40
0.062
100
AcDbArc
 50
0.0
 51
90.0
  0
LINE
  5
F6B
330
CA6
100
AcDbEntity
  8
OBJECT
100
AcDbLine
 10
8.472075243610504
 20
13.87686128562076
 30
0.0
 11
8.511325243610501
 21
13.87686128562076
 31
0.0
  0
LINE
  5
F6C
330
CA6
100
AcDbEntity
  8
OBJECT
100
AcDbLine
 10
8.347075243610504
 20
14.00186128562076
 30
0.0
 11
8.347075243610504
 21
14.04111128562076
 31
0.0
  0
ARC
  5
F6D
330
CA6
100
AcDbEntity
  8
OBJECT
100
AcDbCircle
 10
8.472075243610504
 20
14.00186128562076
 30
0.0
 40
0.125
100
AcDbArc
 50
180.0
 51
270.0
  0
LINE
  5
F6E
330
CA6
100
AcDbEntity
  8
OBJECT
100
AcDbLine
 10
4.0585752436105
 20
14.00886128562076
 30
0.0
 11
4.0585752436105
 21
6.994861285620764
 31
0.0
  0
LINE
  5
F6F
330
CA6
100
AcDbEntity
  8
OBJECT
100
AcDbLine
 10
8.479075243610502
 20
14.10286128562076
 30
0.0
 11
4.152575243610502
 21
14.10286128562076
 31
0.0
  0
LINE
  5
F70
330
CA6
100
AcDbEntity
  8
OBJECT
100
AcDbLine
 10
8.573075243610501
 20
6.994861285620764
 30
0.0
 11
8.573075243610501
 21
14.00886128562076
 31
0.0
  0
LINE
  5
F71
330
CA6
100
AcDbEntity
  8
OBJECT
100
AcDbLine
 10
4.152575243610502
 20
6.900861285620767
 30
0.0
 11
8.479075243610502
 21
6.900861285620767
 31
0.0
  0
ARC
  5
F78
330
CA6
100
AcDbEntity
  8
OBJECT
100
AcDbCircle
 10
4.152575243610502
 20
14.00886128562076
 30
0.0
 40
0.094
100
AcDbArc
 50
90.0
 51
180.0
  0
ARC
  5
F79
330
CA6
100
AcDbEntity
  8
OBJECT
100
AcDbCircle
 10
8.479075243610502
 20
14.00886128562076
 30
0.0
 40
0.094
100
AcDbArc
 50
0.0
 51
90.0
  0
ARC
  5
F7A
330
CA6
100
AcDbEntity
  8
OBJECT
100
AcDbCircle
 10
8.479075243610502
 20
6.994861285620764
 30
0.0
 40
0.094
100
AcDbArc
 50
270.0
 51
0.0
  0
ARC
  5
F7B
330
CA6
100
AcDbEntity
  8
OBJECT
100
AcDbCircle
 10
4.152575243610502
 20
6.994861285620764
 30
0.0
 40
0.094
100
AcDbArc
 50
180.0
 51
270.0
  0
ARC
  5
F7C
330
CA6
100
AcDbEntity
  8
OBJECT
100
AcDbCircle
 10
8.472075243610504
 20
7.001861285620773
 30
0.0
 40
0.125
100
AcDbArc
 50
90.0
 51
180.0
  0
LINE
  5
F7D
330
CA6
100
AcDbEntity
  8
OBJECT
100
AcDbLine
 10
8.347075243610504
 20
7.001861285620773
 30
0.0
 11
8.347075243610504
 21
6.962611285620767
 31
0.0
  0
LINE
  5
F7E
330
CA6
100
AcDbEntity
  8
OBJECT
100
AcDbLine
 10
8.472075243610504
 20
7.126861285620773
 30
0.0
 11
8.511325243610501
 21
7.126861285620773
 31
0.0
  0
ARC
  5
F7F
330
CA6
100
AcDbEntity
  8
OBJECT
100
AcDbCircle
 10
8.285075243610503
 20
6.962611285620767
 30
0.0
 40
0.062
100
AcDbArc
 50
270.0
 51
0.0
  0
ARC
  5
F80
330
CA6
100
AcDbEntity
  8
OBJECT
100
AcDbCircle
 10
8.511325243610501
 20
7.188861285620768
 30
0.0
 40
0.062
100
AcDbArc
 50
270.0
 51
0.0
  0
ARC
  5
F81
330
CA6
100
AcDbEntity
  8
OBJECT
100
AcDbCircle
 10
4.1203252436105
 20
7.188861285620768
 30
0.0
 40
0.062
100
AcDbArc
 50
180.0
 51
270.0
  0
ARC
  5
F82
330
CA6
100
AcDbEntity
  8
OBJECT
100
AcDbCircle
 10
4.346575243610501
 20
6.962611285620767
 30
0.0
 40
0.062
100
AcDbArc
 50
180.0
 51
270.0
  0
LINE
  5
F83
330
CA6
100
AcDbEntity
  8
OBJECT
100
AcDbLine
 10
4.1595752436105
 20
7.126861285620773
 30
0.0
 11
4.1203252436105
 21
7.126861285620773
 31
0.0
  0
LINE
  5
F84
330
CA6
100
AcDbEntity
  8
OBJECT
100
AcDbLine
 10
4.2845752436105
 20
7.001861285620773
 30
0.0
 11
4.2845752436105
 21
6.962611285620767
 31
0.0
  0
ARC
  5
F85
330
CA6
100
AcDbEntity
  8
OBJECT
100
AcDbCircle
 10
4.1595752436105
 20
7.001861285620773
 30
0.0
 40
0.125
100
AcDbArc
 50
0.0
 51
90.0
  0
CIRCLE
  5
F86
330
CA6
100
AcDbEntity
  8
OBJECT
100
AcDbCircle
 10
8.472075243610504
 20
7.001861285620773
 30
0.0
 40
0.065
  0
CIRCLE
  5
F87
330
CA6
100
AcDbEntity
  8
OBJECT
100
AcDbCircle
 10
4.1595752436105
 20
7.001861285620773
 30
0.0
 40
0.065
  0
CIRCLE
  5
F88
330
CA6
100
AcDbEntity
  8
OBJECT
100
AcDbCircle
 10
4.1595752436105
 20
10.50186128562077
 30
0.0
 40
0.065
  0
ARC
  5
F89
330
CA6
100
AcDbEntity
  8
OBJECT
100
AcDbCircle
 10
4.1595752436105
 20
10.50186128562077
 30
0.0
 40
0.125
100
AcDbArc
 50
270.0
 51
90.0
  0
LINE
  5
F8A
330
CA6
100
AcDbEntity
  8
OBJECT
100
AcDbLine
 10
4.1595752436105
 20
10.37686128562075
 30
0.0
 11
4.1203252436105
 21
10.37686128562075
 31
0.0
  0
LINE
  5
F8B
330
CA6
100
AcDbEntity
  8
OBJECT
100
AcDbLine
 10
4.1595752436105
 20
10.62686128562077
 30
0.0
 11
4.1203252436105
 21
10.62686128562077
 31
0.0
  0
ARC
  5
F8C
330
CA6
100
AcDbEntity
  8
OBJECT
100
AcDbCircle
 10
4.1203252436105
 20
10.31486128562075
 30
0.0
 40
0.062
100
AcDbArc
 50
90.0
 51
180.0
  0
ARC
  5
F8D
330
CA6
100
AcDbEntity
  8
OBJECT
100
AcDbCircle
 10
4.1203252436105
 20
10.68886128562076
 30
0.0
 40
0.062
100
AcDbArc
 50
180.0
 51
270.0
  0
ARC
  5
F8E
330
CA6
100
AcDbEntity
  8
OBJECT
100
AcDbCircle
 10
8.511325243610501
 20
10.68886128562076
 30
0.0
 40
0.062
100
AcDbArc
 50
270.0
 51
0.0
  0
ARC
  5
F8F
330
CA6
100
AcDbEntity
  8
OBJECT
100
AcDbCircle
 10
8.511325243610501
 20
10.31486128562075
 30
0.0
 40
0.062
100
AcDbArc
 50
0.0
 51
90.0
  0
LINE
  5
F90
330
CA6
100
AcDbEntity
  8
OBJECT
100
AcDbLine
 10
8.472075243610504
 20
10.62686128562077
 30
0.0
 11
8.511325243610501
 21
10.62686128562077
 31
0.0
  0
LINE
  5
F91
330
CA6
100
AcDbEntity
  8
OBJECT
100
AcDbLine
 10
8.472075243610504
 20
10.37686128562075
 30
0.0
 11
8.511325243610501
 21
10.37686128562075
 31
0.0
  0
ARC
  5
F92
330
CA6
100
AcDbEntity
  8
OBJECT
100
AcDbCircle
 10
8.472075243610504
 20
10.50186128562077
 30
0.0
 40
0.125
100
AcDbArc
 50
90.0
 51
270.0
  0
CIRCLE
  5
F93
330
CA6
100
AcDbEntity
  8
OBJECT
100
AcDbCircle
 10
8.472075243610504
 20
10.50186128562077
 30
0.0
 40
0.065
  0
DIMENSION
  5
F94
330
CA6
100
AcDbEntity
  8
DIM
100
AcDbDimension
  2
*D7
 10
9.164958702275706
 20
10.50186128562077
 30
0.0
 11
9.164958702275704
 21
8.751861285620773
 31
0.0
 70
    32
  1
G
  3
23NSTD
100
AcDbAlignedDimension
 13
8.472075243610504
 23
7.001861285620773
 33
0.0
 14
8.472075243610504
 24
10.50186128562077
 34
0.0
 50
270.0
100
AcDbRotatedDimension
  0
LINE
  5
FA2
330
CA6
100
AcDbEntity
  8
HIDDEN
100
AcDbLine
 10
17.92869592915216
 20
8.400611285620772
 30
0.0
 11
18.05861673666464
 21
8.400611285620763
 31
0.0
  0
LINE
  5
FA3
330
CA6
100
AcDbEntity
  8
HIDDEN
100
AcDbLine
 10
18.05861673666464
 20
8.400611285620763
 30
0.0
 11
17.99229160264939
 21
8.363894306407852
 31
0.0
  0
LINE
  5
FA4
330
CA6
100
AcDbEntity
  8
HIDDEN
100
AcDbLine
 10
17.92869592915216
 20
8.400611285620772
 30
0.0
 11
17.99229160264939
 21
8.363894306407852
 31
0.0
  0
LINE
  5
FA5
330
CA6
100
AcDbEntity
  8
HIDDEN
100
AcDbLine
 10
17.92869592915216
 20
8.775611285620772
 30
0.0
 11
17.92869592915216
 21
8.400611285620772
 31
0.0
  0
LINE
  5
FA6
330
CA6
100
AcDbEntity
  8
HIDDEN
100
AcDbLine
 10
18.05861673666464
 20
8.775611285620772
 30
0.0
 11
18.05861673666464
 21
8.400611285620763
 31
0.0
  0
LINE
  5
FA7
330
CA6
100
AcDbEntity
  8
CENTER
100
AcDbLine
 10
17.99365633290841
 20
8.994361285620774
 30
0.0
 11
17.99365633290841
 21
8.243904127396652
 31
0.0
  0
LINE
  5
FA8
330
CA6
100
AcDbEntity
  8
OBJECT
100
AcDbLine
 10
18.11865633290841
 20
8.775611285620763
 30
0.0
 11
17.86865633290841
 21
8.775611285620772
 31
0.0
  0
LINE
  5
FA9
330
CA6
100
AcDbEntity
  8
OBJECT
100
AcDbLine
 10
18.11865633290841
 20
8.775611285620763
 30
0.0
 11
18.18257203446549
 21
6.945305067076861
 31
0.0
  0
ARC
  5
FAA
330
CA6
100
AcDbEntity
  8
OBJECT
100
AcDbCircle
 10
18.24503396115419
 20
6.947486285620764
 30
0.0
 40
0.0625
100
AcDbArc
 50
182.0
 51
270.0
  0
ARC
  5
FAB
330
CA6
100
AcDbEntity
  8
OBJECT
100
AcDbCircle
 10
17.74227870466264
 20
6.947486285620764
 30
0.0
 40
0.0625
100
AcDbArc
 50
270.0
 51
358.0
  0
LINE
  5
FAC
330
CA6
100
AcDbEntity
  8
OBJECT
100
AcDbLine
 10
17.86865633290841
 20
8.775611285620763
 30
0.0
 11
17.80474063135133
 21
6.945305067076861
 31
0.0
  0
LINE
  5
FAE
330
CA6
100
AcDbEntity
  8
COVER
100
AcDbLine
 10
8.667075243610502
 20
22.37095604953923
 30
0.0
 11
8.667075243610502
 21
28.65495604953925
 31
0.0
  0
LINE
  5
FB0
330
CA6
100
AcDbEntity
  8
COVER
100
AcDbLine
 10
3.964575243610503
 20
28.65495604953926
 30
0.0
 11
3.964575243610503
 21
22.37095604953923
 31
0.0
  0
CIRCLE
  5
FB5
330
CA6
100
AcDbEntity
  8
COVER
100
AcDbCircle
 10
8.472075243610504
 20
29.01295604953924
 30
0.0
 40
0.078125
  0
CIRCLE
  5
FB6
330
CA6
100
AcDbEntity
  8
COVER
100
AcDbCircle
 10
4.159575243610503
 20
29.01295604953924
 30
0.0
 40
0.078125
  0
ARC
  5
FB7
330
CA6
100
AcDbEntity
  8
COVER
100
AcDbCircle
 10
4.159575243610503
 20
29.01295604953924
 30
0.0
 40
0.125
100
AcDbArc
 50
280.2420780715145
 51
350.1468812512676
  0
ARC
  5
FB8
330
CA6
100
AcDbEntity
  8
COVER
100
AcDbCircle
 10
8.472075243610504
 20
29.01295604953924
 30
0.0
 40
0.125
100
AcDbArc
 50
189.8531187487348
 51
259.7579219284832
  0
LINE
  5
FBA
330
CA6
100
AcDbEntity
  8
COVER
100
AcDbLine
 10
21.42303133290839
 20
10.97345621884008
 30
0.0
 11
21.42303133290839
 21
11.12970621884008
 31
0.0
  0
LINE
  5
FBB
330
CA6
100
AcDbEntity
  8
COVER
100
AcDbLine
 10
14.56428133290841
 20
10.97345621884008
 30
0.0
 11
14.56428133290841
 21
11.12970621884008
 31
0.0
  0
LINE
  5
FBC
330
CA6
100
AcDbEntity
  8
COVER
100
AcDbLine
 10
14.46240633290841
 20
10.97345621884008
 30
0.0
 11
21.52490633290841
 21
10.97345621884008
 31
0.0
  0
DIMENSION
  5
FBF
330
CA6
100
AcDbEntity
  8
DIM
100
AcDbDimension
  2
*D8
 10
9.767812864534347
 20
29.01295604953924
 30
0.0
 11
9.767812864534342
 21
25.51295604953924
 31
0.0
 70
    32
  1
E
  3
23NSTD
100
AcDbAlignedDimension
 13
8.472075243610508
 23
22.01295604953923
 33
0.0
 14
8.472075243610508
 24
29.01295604953924
 34
0.0
 50
270.0
100
AcDbRotatedDimension
  0
DIMENSION
  5
FCD
330
CA6
100
AcDbEntity
  8
DIM
100
AcDbDimension
  2
*D9
 10
10.35098388364227
 20
21.81795604953923
 30
0.0
 11
10.35098388364226
 21
25.51295604953924
 31
0.0
 70
    32
  1
A
  3
23NSTD
100
AcDbAlignedDimension
 13
8.47957524361051
 23
29.20795604953925
 33
0.0
 14
8.47957524361051
 24
21.81795604953923
 34
0.0
 50
270.0
100
AcDbRotatedDimension
  0
DIMENSION
  5
FDB
330
CA6
100
AcDbEntity
  8
DIM
100
AcDbDimension
  2
*D10
 10
8.667075243610502
 20
30.47795752157714
 30
0.0
 11
6.315825243610503
 21
30.47795752157714
 31
0.0
 70
    32
  1
B
  3
23NSTD
100
AcDbAlignedDimension
 13
3.964575243610503
 23
28.65495604953926
 33
0.0
 14
8.667075243610502
 24
29.02045604953924
 34
0.0
100
AcDbRotatedDimension
  0
TEXT
  5
FE9
330
CA6
100
AcDbEntity
  8
BEND
100
AcDbText
 10
5.255508891426771
 20
29.29953185388951
 30
0.0
 40
0.281
  1
A
 41
0.75
 72
     4
 11
5.325758891426771
 21
29.44003185388952
 31
0.0
100
AcDbText
  0
DIMENSION
  5
FEA
330
CA6
100
AcDbEntity
  8
DIM
100
AcDbDimension
  2
*D11
 10
3.964575243610503
 20
29.94438005462835
 30
0.0
 11
2.582934618610503
 21
29.94438005462835
 31
0.0
 70
    32
  1
0.188
  3
23NSTD
100
AcDbAlignedDimension
 13
4.159575243610503
 23
29.01295604953924
 33
0.0
 14
3.964575243610503
 24
28.65495604953926
 34
0.0
100
AcDbRotatedDimension
  0
DIMENSION
  5
FF8
330
CA6
100
AcDbEntity
  8
DIM
100
AcDbDimension
  2
*D12
 10
8.472075243610506
 20
29.94438005462835
 30
0.0
 11
6.315825243610505
 21
29.94438005462835
 31
0.0
 70
    32
  1
F
  3
23NSTD
100
AcDbAlignedDimension
 13
4.159575243610503
 23
29.01295604953924
 33
0.0
 14
8.472075243610506
 24
29.01295604953924
 34
0.0
100
AcDbRotatedDimension
  0
LWPOLYLINE
  5
1006
330
CA6
100
AcDbEntity
  8
COVER
100
AcDbPolyline
 90
       17
 70
     0
 43
0.0
 10
21.6886563329084
 20
11.08283121884009
 10
21.6886563329084
 20
11.05158121884007
 10
21.58490633290842
 20
11.05158121884007
 10
21.58490633290842
 20
10.97345621884007
 10
21.52490633290841
 20
10.97345621884007
 10
21.52490633290841
 20
11.06720621884009
 42
0.4142135623730971
 10
21.46240633290841
 20
11.12970621884007
 10
14.52490633290841
 20
11.12970621884007
 42
0.4142135623730951
 10
14.46240633290841
 20
11.06720621884009
 10
14.46240633290841
 20
10.97345621884007
 10
14.40240633290841
 20
10.97345621884007
 10
14.40240633290841
 20
11.05158121884007
 10
14.29865633290841
 20
11.05158121884007
 10
14.29865633290841
 20
11.08283121884009
 42
-0.4142135623730951
 10
14.42365633290841
 20
11.20783121884007
 10
21.56365633290839
 20
11.20783121884007
 42
-0.4142135623730951
 10
21.6886563329084
 20
11.08283121884009
 42
-4.1764428448697
  0
DIMENSION
  5
1027
330
CA6
100
AcDbEntity
  8
DIM
100
AcDbDimension
  2
*D13
 10
9.767812864534347
 20
29.20795604953925
 30
0.0
 11
10.74445348953434
 21
30.01795604953925
 31
0.0
 70
    32
  1
0.188
  3
23NSTD
100
AcDbAlignedDimension
 13
8.472075243610506
 23
29.01295604953925
 33
0.0
 14
8.479575243610502
 24
29.20795604953925
 34
0.0
 50
270.0
100
AcDbRotatedDimension
  0
LINE
  5
1035
330
CA6
100
AcDbEntity
  8
COVER
100
AcDbLine
 10
4.070825243610503
 20
28.87283104953926
 30
0.0
 11
4.070825243610503
 21
25.65308104953924
 31
0.0
  0
LINE
  5
1036
330
CA6
100
AcDbEntity
  8
COVER
100
AcDbLine
 10
8.560825243610509
 20
28.87283104953926
 30
0.0
 11
8.560825243610509
 21
25.65308104953924
 31
0.0
  0
LINE
  5
1037
330
CA6
100
AcDbEntity
  8
COVER
100
AcDbLine
 10
4.130825243610502
 20
28.82893584005125
 30
0.0
 11
4.130825243610502
 21
25.69697625902726
 31
0.0
  0
LINE
  5
1038
330
CA6
100
AcDbEntity
  8
COVER
100
AcDbLine
 10
8.500825243610499
 20
28.82893584005127
 30
0.0
 11
8.500825243610499
 21
25.69697625902726
 31
0.0
  0
ARC
  5
1039
330
CA6
100
AcDbEntity
  8
COVER
100
AcDbCircle
 10
4.192825243610503
 20
28.82893584005125
 30
0.0
 40
0.062
100
AcDbArc
 50
100.2420780715145
 51
180.0
  0
ARC
  5
103A
330
CA6
100
AcDbEntity
  8
COVER
100
AcDbCircle
 10
8.438825243610509
 20
28.82893584005127
 30
0.0
 40
0.062
100
AcDbArc
 50
0.0
 51
79.75792192848229
  0
LINE
  5
103B
330
CA6
100
AcDbEntity
  8
COVER
100
AcDbLine
 10
4.159575243610503
 20
28.93483104953924
 30
0.0
 11
4.132825243610503
 21
28.93483104953924
 31
0.0
  0
LINE
  5
103C
330
CA6
100
AcDbEntity
  8
COVER
100
AcDbLine
 10
8.472075243610504
 20
28.93483104953924
 30
0.0
 11
8.498825243610504
 21
28.93483104953924
 31
0.0
  0
ARC
  5
103D
330
CA6
100
AcDbEntity
  8
COVER
100
AcDbCircle
 10
8.498825243610504
 20
28.87283104953926
 30
0.0
 40
0.062
100
AcDbArc
 50
0.0
 51
90.0
  0
ARC
  5
103E
330
CA6
100
AcDbEntity
  8
COVER
100
AcDbCircle
 10
4.132825243610503
 20
28.87283104953926
 30
0.0
 40
0.062
100
AcDbArc
 50
90.0
 51
180.0
  0
LINE
  5
103F
330
CA6
100
AcDbEntity
  8
COVER
100
AcDbLine
 10
8.331950243610506
 20
29.10295604953926
 30
0.0
 11
4.299700243610502
 21
29.10295604953926
 31
0.0
  0
LINE
  5
1040
330
CA6
100
AcDbEntity
  8
COVER
100
AcDbLine
 10
8.287833554517092
 20
29.04295604953924
 30
0.0
 11
4.343816932703959
 21
29.04295604953924
 31
0.0
  0
ARC
  5
1041
330
CA6
100
AcDbEntity
  8
COVER
100
AcDbCircle
 10
4.343816932703959
 20
28.98095604953926
 30
0.0
 40
0.062
100
AcDbArc
 50
90.0
 51
170.1468812512669
  0
ARC
  5
1042
330
CA6
100
AcDbEntity
  8
COVER
100
AcDbCircle
 10
8.287833554517092
 20
28.98095604953926
 30
0.0
 40
0.062
100
AcDbArc
 50
9.853118748734528
 51
90.0
  0
LINE
  5
1043
330
CA6
100
AcDbEntity
  8
COVER
100
AcDbLine
 10
4.237700243610503
 20
29.01295604953924
 30
0.0
 11
4.237700243610503
 21
29.04095604953925
 31
0.0
  0
LINE
  5
1044
330
CA6
100
AcDbEntity
  8
COVER
100
AcDbLine
 10
8.393950243610504
 20
29.01295604953924
 30
0.0
 11
8.393950243610504
 21
29.04095604953925
 31
0.0
  0
ARC
  5
1045
330
CA6
100
AcDbEntity
  8
COVER
100
AcDbCircle
 10
4.299700243610502
 20
29.04095604953925
 30
0.0
 40
0.062
100
AcDbArc
 50
90.0
 51
180.0
  0
ARC
  5
1046
330
CA6
100
AcDbEntity
  8
COVER
100
AcDbCircle
 10
8.331950243610506
 20
29.04095604953925
 30
0.0
 40
0.062
100
AcDbArc
 50
0.0
 51
90.0
  0
ARC
  5
1047
330
CA6
100
AcDbEntity
  8
COVER
100
AcDbCircle
 10
8.331950243610506
 20
21.98495604953925
 30
0.0
 40
0.062
100
AcDbArc
 50
270.0
 51
0.0
  0
ARC
  5
1048
330
CA6
100
AcDbEntity
  8
COVER
100
AcDbCircle
 10
4.299700243610502
 20
21.98495604953925
 30
0.0
 40
0.062
100
AcDbArc
 50
180.0
 51
270.0
  0
LINE
  5
1049
330
CA6
100
AcDbEntity
  8
COVER
100
AcDbLine
 10
8.393950243610504
 20
22.01295604953923
 30
0.0
 11
8.393950243610504
 21
21.98495604953925
 31
0.0
  0
LINE
  5
104A
330
CA6
100
AcDbEntity
  8
COVER
100
AcDbLine
 10
4.237700243610503
 20
22.01295604953923
 30
0.0
 11
4.237700243610503
 21
21.98495604953925
 31
0.0
  0
ARC
  5
104B
330
CA6
100
AcDbEntity
  8
COVER
100
AcDbCircle
 10
8.287833554517092
 20
22.04495604953925
 30
0.0
 40
0.062
100
AcDbArc
 50
270.0
 51
350.1468812512654
  0
ARC
  5
104C
330
CA6
100
AcDbEntity
  8
COVER
100
AcDbCircle
 10
4.343816932703959
 20
22.04495604953925
 30
0.0
 40
0.062
100
AcDbArc
 50
189.8531187487329
 51
270.0
  0
LINE
  5
104D
330
CA6
100
AcDbEntity
  8
COVER
100
AcDbLine
 10
8.287833554517092
 20
21.98295604953923
 30
0.0
 11
4.343816932703959
 21
21.98295604953923
 31
0.0
  0
LINE
  5
104E
330
CA6
100
AcDbEntity
  8
COVER
100
AcDbLine
 10
8.331950243610506
 20
21.92295604953925
 30
0.0
 11
4.299700243610502
 21
21.92295604953925
 31
0.0
  0
ARC
  5
104F
330
CA6
100
AcDbEntity
  8
COVER
100
AcDbCircle
 10
4.132825243610503
 20
22.15308104953924
 30
0.0
 40
0.062
100
AcDbArc
 50
180.0
 51
270.0
  0
ARC
  5
1050
330
CA6
100
AcDbEntity
  8
COVER
100
AcDbCircle
 10
8.498825243610504
 20
22.15308104953924
 30
0.0
 40
0.062
100
AcDbArc
 50
270.0
 51
0.0
  0
LINE
  5
1051
330
CA6
100
AcDbEntity
  8
COVER
100
AcDbLine
 10
8.472075243610504
 20
22.09108104953923
 30
0.0
 11
8.498825243610504
 21
22.09108104953923
 31
0.0
  0
LINE
  5
1052
330
CA6
100
AcDbEntity
  8
COVER
100
AcDbLine
 10
4.159575243610503
 20
22.09108104953923
 30
0.0
 11
4.132825243610503
 21
22.09108104953923
 31
0.0
  0
ARC
  5
1053
330
CA6
100
AcDbEntity
  8
COVER
100
AcDbCircle
 10
8.438825243610509
 20
22.19697625902721
 30
0.0
 40
0.062
100
AcDbArc
 50
280.2420780715176
 51
0.0
  0
ARC
  5
1054
330
CA6
100
AcDbEntity
  8
COVER
100
AcDbCircle
 10
4.192825243610503
 20
22.19697625902726
 30
0.0
 40
0.062
100
AcDbArc
 50
180.0
 51
259.7579219284854
  0
ARC
  5
1055
330
CA6
100
AcDbEntity
  8
COVER
100
AcDbCircle
 10
8.472075243610504
 20
22.01295604953923
 30
0.0
 40
0.125
100
AcDbArc
 50
100.2420780715164
 51
170.1468812512651
  0
ARC
  5
1056
330
CA6
100
AcDbEntity
  8
COVER
100
AcDbCircle
 10
4.159575243610503
 20
22.01295604953923
 30
0.0
 40
0.125
100
AcDbArc
 50
9.853118748732351
 51
79.7579219284853
  0
CIRCLE
  5
1057
330
CA6
100
AcDbEntity
  8
COVER
100
AcDbCircle
 10
4.159575243610503
 20
22.01295604953923
 30
0.0
 40
0.078125
  0
CIRCLE
  5
1058
330
CA6
100
AcDbEntity
  8
COVER
100
AcDbCircle
 10
8.472075243610504
 20
22.01295604953923
 30
0.0
 40
0.078125
  0
CIRCLE
  5
1059
330
CA6
100
AcDbEntity
  8
COVER
100
AcDbCircle
 10
4.159575243610503
 20
25.51295604953923
 30
0.0
 40
0.078125
  0
ARC
  5
105A
330
CA6
100
AcDbEntity
  8
COVER
100
AcDbCircle
 10
4.159575243610503
 20
25.51295604953923
 30
0.0
 40
0.125
100
AcDbArc
 50
280.2420780715144
 51
79.7579219284853
  0
ARC
  5
105B
330
CA6
100
AcDbEntity
  8
COVER
100
AcDbCircle
 10
4.192825243610503
 20
25.69697625902726
 30
0.0
 40
0.062
100
AcDbArc
 50
180.0
 51
259.7579219284854
  0
LINE
  5
105C
330
CA6
100
AcDbEntity
  8
COVER
100
AcDbLine
 10
4.159575243610503
 20
25.59108104953923
 30
0.0
 11
4.132825243610503
 21
25.59108104953923
 31
0.0
  0
ARC
  5
105D
330
CA6
100
AcDbEntity
  8
COVER
100
AcDbCircle
 10
4.132825243610503
 20
25.65308104953924
 30
0.0
 40
0.062
100
AcDbArc
 50
180.0
 51
270.0
  0
LINE
  5
105E
330
CA6
100
AcDbEntity
  8
COVER
100
AcDbLine
 10
4.159575243610503
 20
25.43483104953923
 30
0.0
 11
4.132825243610503
 21
25.43483104953923
 31
0.0
  0
LINE
  5
105F
330
CA6
100
AcDbEntity
  8
COVER
100
AcDbLine
 10
4.070825243610503
 20
25.37283104953925
 30
0.0
 11
4.070825243610503
 21
22.15308104953924
 31
0.0
  0
ARC
  5
1060
330
CA6
100
AcDbEntity
  8
COVER
100
AcDbCircle
 10
4.132825243610503
 20
25.37283104953925
 30
0.0
 40
0.062
100
AcDbArc
 50
90.0
 51
180.0
  0
ARC
  5
1061
330
CA6
100
AcDbEntity
  8
COVER
100
AcDbCircle
 10
4.192825243610503
 20
25.32893584005125
 30
0.0
 40
0.062
100
AcDbArc
 50
100.2420780715147
 51
180.0
  0
LINE
  5
1062
330
CA6
100
AcDbEntity
  8
COVER
100
AcDbLine
 10
4.130825243610502
 20
25.32893584005125
 30
0.0
 11
4.130825243610502
 21
22.19697625902726
 31
0.0
  0
ARC
  5
1063
330
CA6
100
AcDbEntity
  8
COVER
100
AcDbCircle
 10
8.438825243610509
 20
25.32893584005125
 30
0.0
 40
0.062
100
AcDbArc
 50
0.0
 51
79.75792192848517
  0
ARC
  5
1064
330
CA6
100
AcDbEntity
  8
COVER
100
AcDbCircle
 10
8.498825243610511
 20
25.37283104953925
 30
0.0
 40
0.062
100
AcDbArc
 50
0.0
 51
90.0
  0
LINE
  5
1065
330
CA6
100
AcDbEntity
  8
COVER
100
AcDbLine
 10
8.472075243610511
 20
25.43483104953923
 30
0.0
 11
8.498825243610511
 21
25.43483104953923
 31
0.0
  0
ARC
  5
1066
330
CA6
100
AcDbEntity
  8
COVER
100
AcDbCircle
 10
8.498825243610504
 20
25.65308104953924
 30
0.0
 40
0.062
100
AcDbArc
 50
270.0
 51
0.0
  0
LINE
  5
1067
330
CA6
100
AcDbEntity
  8
COVER
100
AcDbLine
 10
8.472075243610511
 20
25.59108104953923
 30
0.0
 11
8.498825243610504
 21
25.59108104953923
 31
0.0
  0
ARC
  5
1068
330
CA6
100
AcDbEntity
  8
COVER
100
AcDbCircle
 10
8.438825243610509
 20
25.69697625902726
 30
0.0
 40
0.062
100
AcDbArc
 50
280.2420780715144
 51
0.0
  0
ARC
  5
1069
330
CA6
100
AcDbEntity
  8
COVER
100
AcDbCircle
 10
8.472075243610511
 20
25.51295604953923
 30
0.0
 40
0.125
100
AcDbArc
 50
100.2420780715145
 51
259.7579219284854
  0
CIRCLE
  5
106A
330
CA6
100
AcDbEntity
  8
COVER
100
AcDbCircle
 10
8.472075243610511
 20
25.51295604953923
 30
0.0
 40
0.078125
  0
LINE
  5
106B
330
CA6
100
AcDbEntity
  8
COVER
100
AcDbLine
 10
8.560825243610509
 20
25.37283104953925
 30
0.0
 11
8.560825243610509
 21
22.15308104953924
 31
0.0
  0
LINE
  5
106C
330
CA6
100
AcDbEntity
  8
COVER
100
AcDbLine
 10
8.500825243610499
 20
25.32893584005125
 30
0.0
 11
8.500825243610499
 21
22.19697625902721
 31
0.0
  0
DIMENSION
  5
106D
330
CA6
100
AcDbEntity
  8
DIM
100
AcDbDimension
  2
*D14
 10
9.164958702275706
 20
25.51295604953923
 30
0.0
 11
9.164958702275702
 21
23.76295604953924
 31
0.0
 70
    32
  1
G
  3
23NSTD
100
AcDbAlignedDimension
 13
8.472075243610508
 23
22.01295604953923
 33
0.0
 14
8.472075243610508
 24
25.51295604953923
 34
0.0
 50
270.0
100
AcDbRotatedDimension
  0
LINE
  5
107B
330
CA6
100
AcDbEntity
  8
OBJECT
100
AcDbLine
 10
22.3515287222658
 20
24.60536826595127
 30
0.0
 11
18.60243113712363
 21
26.76991076595127
 31
0.0
  0
LINE
  5
107C
330
CA6
100
AcDbEntity
  8
OBJECT
100
AcDbLine
 10
12.20257701531596
 20
23.26186826595127
 30
0.0
 11
18.2839497672218
 21
26.77295046130657
 31
0.0
  0
LINE
  5
107D
330
CA6
100
AcDbEntity
  8
OBJECT
100
AcDbLine
 10
12.25886866656193
 20
23.22936826595127
 30
0.0
 11
18.33490289951357
 21
26.73736826595126
 31
0.0
  0
LINE
  5
107E
330
CA6
100
AcDbEntity
  8
OBJECT
100
AcDbLine
 10
22.2952370710198
 20
24.57286826595126
 30
0.0
 11
18.54621309803696
 21
26.73736826595126
 31
0.0
  0
LWPOLYLINE
  5
107F
330
CA6
100
AcDbEntity
  8
OBJECT
100
AcDbPolyline
 90
        4
 70
     0
 43
0.0
 10
18.44048438661594
 20
26.80863973403316
 42
0.0587518675353738
 10
18.34852359382217
 20
26.79779656915915
 42
0.0723410840576607
 10
18.27853763610825
 20
26.76991076595127
 42
0.0074209161895268
 10
18.2742793869913
 20
26.76736726467732
 42
0.1568512196707919
  0
LWPOLYLINE
  5
1085
330
CA6
100
AcDbEntity
  8
OBJECT
100
AcDbPolyline
 90
        3
 70
     0
 43
0.0
 10
18.60243113712363
 20
26.76991076595127
 42
0.072341084057657
 10
18.53244517940972
 20
26.79779656915915
 42
0.0587518675353763
 10
18.44048438661594
 20
26.80863973403316
 42
0.0587518675353738
  0
LWPOLYLINE
  5
108A
330
CA6
100
AcDbEntity
  8
OBJECT
100
AcDbPolyline
 90
        3
 70
     0
 43
0.0
 10
18.44055799877526
 20
26.76263529325602
 42
0.058751867535373
 10
18.38056218743387
 20
26.75556114291042
 42
0.0723410840576583
 10
18.33490289951357
 20
26.73736826595126
 42
0.1066170543910154
  0
LWPOLYLINE
  5
108F
330
CA6
100
AcDbEntity
  8
OBJECT
100
AcDbPolyline
 90
        3
 70
     0
 43
0.0
 10
18.54621309803696
 20
26.73736826595126
 42
0.0723410840576623
 10
18.50055381011666
 20
26.75556114291042
 42
0.0587518675353766
 10
18.44055799877526
 20
26.76263529325602
 42
0.058751867535373
  0
LWPOLYLINE
  5
1094
330
CA6
100
AcDbEntity
  8
OBJECT
100
AcDbPolyline
 90
        3
 70
     0
 43
0.0
 10
18.54621309803696
 20
26.64336826595127
 42
0.0723410840576623
 10
18.50055381011666
 20
26.66156114291042
 42
0.0587518675353766
 10
18.44055799877526
 20
26.66863529325603
 42
0.058751867535373
  0
LWPOLYLINE
  5
1099
330
CA6
100
AcDbEntity
  8
OBJECT
100
AcDbPolyline
 90
        3
 70
     0
 43
0.0
 10
18.44055799877526
 20
26.66863529325603
 42
0.058751867535373
 10
18.38056218743387
 20
26.66156114291042
 42
0.0723410840576583
 10
18.33490289951357
 20
26.64336826595127
 42
0.1066170543910154
  0
LWPOLYLINE
  5
109E
330
CA6
100
AcDbEntity
  8
OBJECT
100
AcDbPolyline
 90
       16
 70
     1
 43
0.0
 10
18.44055799877526
 20
26.6271230999472
 42
0.0587518675353727
 10
18.40908478626831
 20
26.62341207025772
 42
0.0723410840576566
 10
18.38513237293305
 20
26.61386826595126
 42
0.1066170543909957
 10
18.36725892165686
 20
26.59767783986505
 42
0.1568512196707378
 10
18.36217432700619
 20
26.58186826595127
 42
0.1568512196707294
 10
18.36725892165686
 20
26.5660586920375
 42
0.1066170543909819
 10
18.38513237293305
 20
26.54986826595127
 42
0.0723410840576534
 10
18.40908478626831
 20
26.54032446164482
 42
0.0587518675353621
 10
18.44055799877526
 20
26.53661343195532
 42
0.0587518675353727
 10
18.47203121128222
 20
26.54032446164482
 42
0.072341084057657
 10
18.49598362461747
 20
26.54986826595127
 42
0.1066170543910092
 10
18.51385707589366
 20
26.5660586920375
 42
0.1568512196707462
 10
18.51894167054433
 20
26.58186826595127
 42
0.1568512196707336
 10
18.51385707589366
 20
26.59767783986505
 42
0.1066170543909893
 10
18.49598362461747
 20
26.61386826595126
 42
0.0723410840576466
 10
18.47203121128222
 20
26.62341207025772
 42
0.0587518675353801
  0
LWPOLYLINE
  5
10B0
330
CA6
100
AcDbEntity
  8
OBJECT
100
AcDbPolyline
 90
        4
 70
     0
 43
0.0
 10
18.30684258167739
 20
26.53951852850551
 42
0.1032009272409039
 10
18.28983220832059
 20
26.55471913899808
 42
0.0723410840576526
 10
18.26644117967289
 20
26.56403926039109
 42
0.0587518675353721
 10
18.23570562058406
 20
26.56766331282224
 42
0.0587518675353793
  0
LINE
  5
10B6
330
CA6
100
AcDbEntity
  8
OBJECT
100
AcDbLine
 10
18.18404521105422
 20
26.55609043198182
 30
0.0
 11
18.18404521105422
 21
24.55909043198182
 31
0.0
  0
LWPOLYLINE
  5
10B7
330
CA6
100
AcDbEntity
  8
OBJECT
100
AcDbPolyline
 90
        3
 70
     0
 43
0.0
 10
18.23570562058406
 20
26.56766331282224
 42
0.0587518675353793
 10
18.20497006149521
 20
26.56403926039107
 42
0.0642382339879882
 10
18.18404521105422
 20
26.55609043198182
 42
0.010596345945674
  0
LINE
  5
10BC
330
CA6
100
AcDbEntity
  8
OBJECT
100
AcDbLine
 10
18.30684258167739
 20
26.53951852850552
 30
0.0
 11
18.30684258167739
 21
24.54251852850553
 31
0.0
  0
LINE
  5
10BD
330
CA6
100
AcDbEntity
  8
OBJECT
100
AcDbLine
 10
18.57937459887421
 20
26.54532450648391
 30
0.0
 11
18.57937459887421
 21
24.54832450648388
 31
0.0
  0
LWPOLYLINE
  5
10BE
330
CA6
100
AcDbEntity
  8
OBJECT
100
AcDbPolyline
 90
        7
 70
     0
 43
0.0
 10
18.30684258167739
 20
26.53951852850552
 42
0.0730609864587327
 10
18.33230482330221
 20
26.51936826595127
 42
0.0723410840576608
 10
18.37908688059761
 20
26.50072802316525
 42
0.0587518675353809
 10
18.44055799877526
 20
26.49347991830295
 42
0.0587518675353774
 10
18.50202911695292
 20
26.50072802316525
 42
0.0723410840576568
 10
18.54881117424832
 20
26.51936826595127
 42
0.0904779399290791
 10
18.57937459887421
 20
26.54532450648389
 42
0.1568512196707811
  0
LWPOLYLINE
  5
10C7
330
CA6
100
AcDbEntity
  8
OBJECT
100
AcDbPolyline
 90
        4
 70
     0
 43
0.0
 10
18.64531940539604
 20
26.56739715027073
 42
0.0587518675353793
 10
18.61458384630719
 20
26.56377309783959
 42
0.0723410840576608
 10
18.5911928176595
 20
26.55445297644657
 42
0.0671451366482417
 10
18.57937459887421
 20
26.54532450648389
 42
0.1568512196707734
  0
LWPOLYLINE
  5
10CD
330
CA6
100
AcDbEntity
  8
OBJECT
100
AcDbPolyline
 90
        3
 70
     0
 43
0.0
 10
18.69651805456858
 20
26.55606958861302
 42
0.0627377818794437
 10
18.67605496448486
 20
26.56377309783959
 42
0.0587518675353721
 10
18.64531940539604
 20
26.56739715027073
 42
0.0587518675353793
  0
LINE
  5
10D2
330
CA6
100
AcDbEntity
  8
OBJECT
100
AcDbLine
 10
18.69651805456858
 20
26.55606958861302
 30
0.0
 11
18.69651805456858
 21
24.55938366517161
 31
0.0
  0
LINE
  5
10D3
330
CA6
100
AcDbEntity
  8
OBJECT
100
AcDbLine
 10
18.69651805456859
 20
26.55606958861302
 30
0.0
 11
18.54621309803696
 21
26.64336826595127
 31
0.0
  0
LINE
  5
10D4
330
CA6
100
AcDbEntity
  8
OBJECT
100
AcDbLine
 10
18.18404521105424
 20
26.55609043198182
 30
0.0
 11
18.33490289951357
 21
26.64336826595127
 31
0.0
  0
LINE
  5
10D5
330
CA6
100
AcDbEntity
  8
OBJECT
100
AcDbLine
 10
12.5576491975031
 20
28.75142003037149
 30
0.0
 11
17.92217237335766
 21
31.84862893002511
 31
0.0
  0
LINE
  5
10D6
330
CA6
100
AcDbEntity
  8
OBJECT
100
AcDbLine
 10
18.179180399279
 20
32.29882543783328
 30
0.0
 11
22.79583163613907
 21
29.63340060347751
 31
0.0
  0
LWPOLYLINE
  5
10D7
330
CA6
100
AcDbEntity
  8
OBJECT
100
AcDbPolyline
 90
       16
 70
     1
 43
0.0
 10
18.44055799877526
 20
32.0597675131607
 42
0.0587518675353782
 10
18.37146446194357
 20
32.05162064329545
 42
0.072341084057657
 10
18.31888142954356
 20
32.03066901040398
 42
0.1066170543910075
 10
18.27964361853879
 20
31.99512596563657
 42
0.1568512196707839
 10
18.26848134434475
 20
31.96041901040398
 42
0.1568512196707877
 10
18.27964361853879
 20
31.92571205517141
 42
0.1066170543910138
 10
18.31888142954356
 20
31.890169010404
 42
0.07234108405766
 10
18.37146446194357
 20
31.86921737751251
 42
0.0587518675353789
 10
18.44055799877526
 20
31.86107050764728
 42
0.058751867535374
 10
18.50965153560695
 20
31.86921737751251
 42
0.0723410840576588
 10
18.56223456800698
 20
31.890169010404
 42
0.1066170543910072
 10
18.60147237901173
 20
31.92571205517141
 42
0.1568512196707839
 10
18.61263465320578
 20
31.96041901040398
 42
0.156851219670792
 10
18.60147237901173
 20
31.99512596563657
 42
0.1066170543910073
 10
18.56223456800698
 20
32.03066901040398
 42
0.072341084057658
 10
18.50965153560695
 20
32.05162064329545
 42
0.058751867535374
  0
LWPOLYLINE
  5
10F5
330
CA6
100
AcDbEntity
  8
OBJECT
100
AcDbPolyline
 90
        6
 70
     0
 43
0.0
 10
18.44055799877526
 20
31.94357333933654
 42
0.0587518675353685
 10
18.40220002103239
 20
31.93905052190247
 42
0.0723410840576479
 10
18.37300801728009
 20
31.92741901040399
 42
0.1066170543910048
 10
18.35122474853723
 20
31.90768692861141
 42
0.156851219670777
 10
18.34502789880671
 20
31.888419010404
 42
0.0907083780630995
 10
18.34716824048194
 20
31.87671815670034
 42
0.1066170543910073
  0
LWPOLYLINE
  5
10FD
330
CA6
100
AcDbEntity
  8
OBJECT
100
AcDbPolyline
 90
        6
 70
     0
 43
0.0
 10
18.53394775706858
 20
31.87671815670034
 42
0.0907083780630905
 10
18.5360880987438
 20
31.888419010404
 42
0.1568512196707755
 10
18.52989124901331
 20
31.90768692861141
 42
0.106617054390996
 10
18.50810798027046
 20
31.92741901040399
 42
0.0723410840576467
 10
18.47891597651812
 20
31.93905052190246
 42
0.0587518675353843
 10
18.44055799877526
 20
31.94357333933654
 42
0.0587518675353685
  0
LINE
  5
1105
330
CA6
100
AcDbEntity
  8
CENTER
100
AcDbLine
 10
12.36538979122743
 20
23.04586826595127
 30
0.0
 11
12.36538979122743
 21
28.10941901040398
 31
0.0
  0
LINE
  5
1106
330
CA6
100
AcDbEntity
  8
CENTER
100
AcDbLine
 10
22.1887159463543
 20
24.38936826595127
 30
0.0
 11
22.1887159463543
 21
29.37625707854812
 31
0.0
  0
LINE
  5
1107
330
CA6
100
AcDbEntity
  8
CENTER
100
AcDbLine
 10
16.11354773880648
 20
20.9176012386465
 30
0.0
 11
16.11354773880648
 21
25.94541901040398
 31
0.0
  0
LINE
  5
1108
330
CA6
100
AcDbEntity
  8
CENTER
100
AcDbLine
 10
18.44055799877526
 20
26.53661343195532
 30
0.0
 11
18.44055799877526
 21
27.28391901040398
 31
0.0
  0
LINE
  5
1109
330
CA6
100
AcDbEntity
  8
CENTER
100
AcDbLine
 10
22.1887159463543
 20
29.69707050764728
 30
0.0
 11
22.1887159463543
 21
30.94592230020476
 31
0.0
  0
LINE
  5
110A
330
CA6
100
AcDbEntity
  8
CENTER
100
AcDbLine
 10
16.11354773880648
 20
26.18957050764728
 30
0.0
 11
16.11354773880648
 21
27.43842230020476
 31
0.0
  0
LINE
  5
110B
330
CA6
100
AcDbEntity
  8
CENTER
100
AcDbLine
 10
12.36538979122743
 20
28.35357050764728
 30
0.0
 11
12.36538979122743
 21
29.60242230020476
 31
0.0
  0
LWPOLYLINE
  5
110C
330
CA6
100
AcDbEntity
  8
OBJECT
100
AcDbPolyline
 90
       16
 70
     1
 43
0.0
 10
12.36538979122742
 20
30.31109784387277
 42
0.0587518675353782
 10
12.30426861214308
 20
30.30389100058694
 42
0.072341084057657
 10
12.2577528729365
 20
30.28535687185664
 42
0.1066170543910075
 10
12.22304251675455
 20
30.25391496130971
 42
0.1568512196707839
 10
12.21316820156837
 20
30.22321266810664
 42
0.1568512196707877
 10
12.22304251675455
 20
30.19251037490356
 42
0.1066170543910138
 10
12.2577528729365
 20
30.16106846435663
 42
0.07234108405766
 10
12.30426861214308
 20
30.14253433562635
 42
0.0587518675353789
 10
12.36538979122742
 20
30.13532749234052
 42
0.058751867535374
 10
12.42651097031178
 20
30.14253433562635
 42
0.0723410840576588
 10
12.47302670951834
 20
30.16106846435663
 42
0.1066170543910072
 10
12.50773706570031
 20
30.19251037490356
 42
0.1568512196707839
 10
12.51761138088647
 20
30.22321266810664
 42
0.156851219670792
 10
12.50773706570031
 20
30.25391496130971
 42
0.1066170543910073
 10
12.47302670951834
 20
30.28535687185664
 42
0.072341084057658
 10
12.42651097031178
 20
30.30389100058694
 42
0.058751867535374
  0
LINE
  5
111E
330
CA6
100
AcDbEntity
  8
OBJECT
100
AcDbLine
 10
12.23872157290207
 20
30.1749390616636
 30
0.0
 11
12.29506861453641
 21
30.12441307423003
 31
0.0
  0
LINE
  5
111F
330
CA6
100
AcDbEntity
  8
OBJECT
100
AcDbLine
 10
12.49205800955278
 20
30.1749390616636
 30
0.0
 11
12.43571096791843
 21
30.12441307423003
 31
0.0
  0
LWPOLYLINE
  5
1120
330
CA6
100
AcDbEntity
  8
OBJECT
100
AcDbPolyline
 90
        7
 70
     0
 43
0.0
 10
12.29506861453644
 20
30.12441307423001
 42
0.0531578900237961
 10
12.3056340383663
 20
30.11671266810662
 42
0.072341084057661
 10
12.33145773399336
 20
30.10642325408876
 42
0.0587518675353793
 10
12.36538979122742
 20
30.10242230020476
 42
0.0587518675353684
 10
12.39932184846149
 20
30.10642325408876
 42
0.0723410840576543
 10
12.42514554408854
 20
30.11671266810662
 42
0.0531578900238873
 10
12.43571096791843
 20
30.12441307423003
 42
0.1568512196707747
  0
LWPOLYLINE
  5
1129
330
CA6
100
AcDbEntity
  8
OBJECT
100
AcDbPolyline
 90
        2
 70
     0
 43
0.0
 10
12.2808823951014
 20
30.13713375528292
 10
12.2808823951014
 20
29.65121266810664
  0
LWPOLYLINE
  5
112D
330
CA6
100
AcDbEntity
  8
OBJECT
100
AcDbPolyline
 90
        2
 70
     0
 43
0.0
 10
12.44989718735344
 20
30.13713375528292
 10
12.44989718735344
 20
29.65121266810664
  0
LWPOLYLINE
  5
1131
330
CA6
100
AcDbEntity
  8
OBJECT
100
AcDbPolyline
 90
        9
 70
     0
 43
0.0
 10
12.2808823951014
 20
29.65121266810664
 42
0.1568512196707782
 10
12.28636422370916
 20
29.63416797123084
 42
0.1066170543910084
 10
12.3056340383663
 20
29.61671266810662
 42
0.072341084057661
 10
12.33145773399336
 20
29.60642325408876
 42
0.0587518675353793
 10
12.36538979122742
 20
29.60242230020476
 42
0.0587518675353684
 10
12.39932184846149
 20
29.60642325408876
 42
0.0723410840576543
 10
12.42514554408854
 20
29.61671266810662
 42
0.1066170543910017
 10
12.44441535874569
 20
29.63416797123084
 42
0.1568512196707747
 10
12.44989718735344
 20
29.65121266810664
 42
0.1568512196707838
  0
LWPOLYLINE
  5
113C
330
CA6
100
AcDbEntity
  8
OBJECT
100
AcDbPolyline
 90
       16
 70
     1
 43
0.0
 10
16.11354773880648
 20
28.14709784387276
 42
0.0587518675353782
 10
16.05242655972213
 20
28.13989100058694
 42
0.072341084057657
 10
16.00591082051556
 20
28.12135687185664
 42
0.1066170543910075
 10
15.97120046433358
 20
28.08991496130972
 42
0.1568512196707839
 10
15.96132614914743
 20
28.05921266810663
 42
0.1568512196707877
 10
15.97120046433358
 20
28.02851037490356
 42
0.1066170543910138
 10
16.00591082051556
 20
27.99706846435665
 42
0.07234108405766
 10
16.05242655972213
 20
27.97853433562635
 42
0.0587518675353789
 10
16.11354773880648
 20
27.97132749234052
 42
0.058751867535374
 10
16.17466891789081
 20
27.97853433562635
 42
0.0723410840576588
 10
16.2211846570974
 20
27.99706846435665
 42
0.1066170543910072
 10
16.25589501327936
 20
28.02851037490356
 42
0.1568512196707839
 10
16.26576932846552
 20
28.05921266810663
 42
0.156851219670792
 10
16.25589501327936
 20
28.08991496130972
 42
0.1066170543910073
 10
16.2211846570974
 20
28.12135687185664
 42
0.072341084057658
 10
16.17466891789081
 20
28.13989100058694
 42
0.058751867535374
  0
LWPOLYLINE
  5
114E
330
CA6
100
AcDbEntity
  8
OBJECT
100
AcDbPolyline
 90
        2
 70
     0
 43
0.0
 10
16.19805513493249
 20
27.97313375528291
 10
16.19805513493249
 20
27.48721266810663
  0
LWPOLYLINE
  5
1152
330
CA6
100
AcDbEntity
  8
OBJECT
100
AcDbPolyline
 90
        2
 70
     0
 43
0.0
 10
16.02904034268046
 20
27.97313375528291
 10
16.02904034268046
 20
27.48721266810663
  0
LWPOLYLINE
  5
1156
330
CA6
100
AcDbEntity
  8
OBJECT
100
AcDbPolyline
 90
        9
 70
     0
 43
0.0
 10
16.02904034268046
 20
27.48721266810663
 42
0.1568512196707782
 10
16.03452217128822
 20
27.47016797123086
 42
0.1066170543910084
 10
16.05379198594533
 20
27.45271266810664
 42
0.072341084057661
 10
16.07961568157242
 20
27.44242325408876
 42
0.0587518675353793
 10
16.11354773880648
 20
27.43842230020476
 42
0.0587518675353684
 10
16.14747979604053
 20
27.44242325408876
 42
0.0723410840576543
 10
16.1733034916676
 20
27.45271266810664
 42
0.1066170543910017
 10
16.19257330632475
 20
27.47016797123086
 42
0.1568512196707747
 10
16.19805513493249
 20
27.48721266810663
 42
0.1568512196707838
  0
LWPOLYLINE
  5
1161
330
CA6
100
AcDbEntity
  8
OBJECT
100
AcDbPolyline
 90
        7
 70
     0
 43
0.0
 10
16.04322656211548
 20
27.96041307423003
 42
0.0531578900237961
 10
16.05379198594533
 20
27.95271266810664
 42
0.072341084057661
 10
16.07961568157242
 20
27.94242325408875
 42
0.0587518675353793
 10
16.11354773880648
 20
27.93842230020477
 42
0.0587518675353684
 10
16.14747979604053
 20
27.94242325408875
 42
0.0723410840576543
 10
16.1733034916676
 20
27.95271266810664
 42
0.0531578900238873
 10
16.18386891549747
 20
27.96041307423003
 42
0.1568512196707747
  0
LINE
  5
116A
330
CA6
100
AcDbEntity
  8
OBJECT
100
AcDbLine
 10
15.9868795204811
 20
28.01093906166361
 30
0.0
 11
16.04322656211548
 21
27.96041307423005
 31
0.0
  0
LINE
  5
116B
330
CA6
100
AcDbEntity
  8
OBJECT
100
AcDbLine
 10
16.24021595713183
 20
28.01093906166361
 30
0.0
 11
16.18386891549747
 21
27.96041307423005
 31
0.0
  0
LWPOLYLINE
  5
116C
330
CA6
100
AcDbEntity
  8
OBJECT
100
AcDbPolyline
 90
       16
 70
     1
 43
0.0
 10
18.44055799877526
 20
33.81859784387278
 42
0.0587518675353782
 10
18.37943681969091
 20
33.81139100058692
 42
0.072341084057657
 10
18.33292108048435
 20
33.79285687185664
 42
0.1066170543910075
 10
18.29821072430237
 20
33.76141496130971
 42
0.1568512196707839
 10
18.28833640911621
 20
33.73071266810662
 42
0.1568512196707877
 10
18.29821072430237
 20
33.70001037490355
 42
0.1066170543910138
 10
18.33292108048435
 20
33.66856846435664
 42
0.07234108405766
 10
18.37943681969091
 20
33.65003433562633
 42
0.0587518675353789
 10
18.44055799877526
 20
33.64282749234051
 42
0.058751867535374
 10
18.50167917785962
 20
33.65003433562633
 42
0.0723410840576588
 10
18.54819491706617
 20
33.66856846435664
 42
0.1066170543910072
 10
18.58290527324814
 20
33.70001037490355
 42
0.1568512196707839
 10
18.59277958843432
 20
33.73071266810662
 42
0.156851219670792
 10
18.58290527324814
 20
33.76141496130971
 42
0.1066170543910073
 10
18.54819491706617
 20
33.79285687185664
 42
0.072341084057658
 10
18.50167917785962
 20
33.81139100058695
 42
0.058751867535374
  0
LWPOLYLINE
  5
117E
330
CA6
100
AcDbEntity
  8
OBJECT
100
AcDbPolyline
 90
        2
 70
     0
 43
0.0
 10
18.52506539490129
 20
33.64463375528291
 10
18.52506539490129
 20
33.15871266810664
  0
LWPOLYLINE
  5
1182
330
CA6
100
AcDbEntity
  8
OBJECT
100
AcDbPolyline
 90
        2
 70
     0
 43
0.0
 10
18.35605060264923
 20
33.64463375528291
 10
18.35605060264923
 20
33.15871266810664
  0
LWPOLYLINE
  5
1186
330
CA6
100
AcDbEntity
  8
OBJECT
100
AcDbPolyline
 90
        9
 70
     0
 43
0.0
 10
18.35605060264923
 20
33.15871266810664
 42
0.1568512196707782
 10
18.361532431257
 20
33.14166797123084
 42
0.1066170543910084
 10
18.38080224591412
 20
33.12421266810662
 42
0.072341084057661
 10
18.4066259415412
 20
33.11392325408876
 42
0.0587518675353793
 10
18.44055799877526
 20
33.10992230020476
 42
0.0587518675353684
 10
18.47449005600933
 20
33.11392325408876
 42
0.0723410840576543
 10
18.50031375163639
 20
33.12421266810662
 42
0.1066170543910017
 10
18.51958356629353
 20
33.14166797123084
 42
0.1568512196707747
 10
18.52506539490129
 20
33.15871266810664
 42
0.1568512196707838
  0
LWPOLYLINE
  5
1191
330
CA6
100
AcDbEntity
  8
OBJECT
100
AcDbPolyline
 90
        7
 70
     0
 43
0.0
 10
18.37023682208427
 20
33.63191307423001
 42
0.0531578900237961
 10
18.38080224591412
 20
33.62421266810663
 42
0.072341084057661
 10
18.4066259415412
 20
33.61392325408876
 42
0.0587518675353793
 10
18.44055799877526
 20
33.60992230020476
 42
0.0587518675353684
 10
18.47449005600933
 20
33.61392325408876
 42
0.0723410840576543
 10
18.50031375163639
 20
33.62421266810663
 42
0.0531578900238873
 10
18.51087917546625
 20
33.63191307423003
 42
0.1568512196707747
  0
LINE
  5
119A
330
CA6
100
AcDbEntity
  8
OBJECT
100
AcDbLine
 10
18.31388978044989
 20
33.68243906166361
 30
0.0
 11
18.37023682208426
 21
33.63191307423004
 31
0.0
  0
LINE
  5
119B
330
CA6
100
AcDbEntity
  8
OBJECT
100
AcDbLine
 10
18.56722621710062
 20
33.68243906166361
 30
0.0
 11
18.51087917546626
 21
33.63191307423004
 31
0.0
  0
LWPOLYLINE
  5
119C
330
CA6
100
AcDbEntity
  8
OBJECT
100
AcDbPolyline
 90
       16
 70
     1
 43
0.0
 10
22.1887159463543
 20
31.65459784387276
 42
0.0587518675353782
 10
22.12759476726995
 20
31.64739100058694
 42
0.072341084057657
 10
22.08107902806339
 20
31.62885687185664
 42
0.1066170543910075
 10
22.04636867188142
 20
31.59741496130972
 42
0.1568512196707839
 10
22.03649435669526
 20
31.56671266810664
 42
0.1568512196707877
 10
22.04636867188142
 20
31.53601037490355
 42
0.1066170543910138
 10
22.08107902806339
 20
31.50456846435663
 42
0.07234108405766
 10
22.12759476726995
 20
31.48603433562635
 42
0.0587518675353789
 10
22.1887159463543
 20
31.47882749234049
 42
0.058751867535374
 10
22.24983712543866
 20
31.48603433562635
 42
0.0723410840576588
 10
22.29635286464522
 20
31.50456846435663
 42
0.1066170543910072
 10
22.33106322082721
 20
31.53601037490355
 42
0.1568512196707839
 10
22.34093753601336
 20
31.56671266810664
 42
0.156851219670792
 10
22.33106322082721
 20
31.59741496130972
 42
0.1066170543910073
 10
22.29635286464522
 20
31.62885687185664
 42
0.072341084057658
 10
22.24983712543866
 20
31.64739100058694
 42
0.058751867535374
  0
LWPOLYLINE
  5
11AE
330
CA6
100
AcDbEntity
  8
OBJECT
100
AcDbPolyline
 90
        2
 70
     0
 43
0.0
 10
22.27322334248034
 20
31.48063375528291
 10
22.27322334248034
 20
30.99471266810662
  0
LWPOLYLINE
  5
11B2
330
CA6
100
AcDbEntity
  8
OBJECT
100
AcDbPolyline
 90
        2
 70
     0
 43
0.0
 10
22.10420855022829
 20
31.48063375528291
 10
22.10420855022829
 20
30.99471266810662
  0
LWPOLYLINE
  5
11B6
330
CA6
100
AcDbEntity
  8
OBJECT
100
AcDbPolyline
 90
        9
 70
     0
 43
0.0
 10
22.10420855022829
 20
30.99471266810662
 42
0.1568512196707782
 10
22.10969037883605
 20
30.97766797123085
 42
0.1066170543910084
 10
22.12896019349318
 20
30.96021266810664
 42
0.072341084057661
 10
22.15478388912026
 20
30.94992325408876
 42
0.0587518675353793
 10
22.1887159463543
 20
30.94592230020476
 42
0.0587518675353684
 10
22.22264800358838
 20
30.94992325408876
 42
0.0723410840576543
 10
22.24847169921545
 20
30.96021266810664
 42
0.1066170543910017
 10
22.26774151387257
 20
30.97766797123085
 42
0.1568512196707747
 10
22.27322334248034
 20
30.99471266810662
 42
0.1568512196707838
  0
LWPOLYLINE
  5
11C1
330
CA6
100
AcDbEntity
  8
OBJECT
100
AcDbPolyline
 90
        7
 70
     0
 43
0.0
 10
22.11839476966332
 20
31.46791307423002
 42
0.0531578900237961
 10
22.12896019349318
 20
31.46021266810663
 42
0.072341084057661
 10
22.15478388912026
 20
31.44992325408876
 42
0.0587518675353793
 10
22.1887159463543
 20
31.44592230020476
 42
0.0587518675353684
 10
22.22264800358838
 20
31.44992325408876
 42
0.0723410840576543
 10
22.24847169921545
 20
31.46021266810663
 42
0.0531578900238873
 10
22.25903712304531
 20
31.46791307423003
 42
0.1568512196707747
  0
LINE
  5
11CA
330
CA6
100
AcDbEntity
  8
OBJECT
100
AcDbLine
 10
22.06204772802895
 20
31.51843906166361
 30
0.0
 11
22.11839476966331
 21
31.46791307423006
 31
0.0
  0
LINE
  5
11CB
330
CA6
100
AcDbEntity
  8
OBJECT
100
AcDbLine
 10
22.31538416467967
 20
31.51843906166361
 30
0.0
 11
22.25903712304531
 21
31.46791307423006
 31
0.0
  0
LINE
  5
11CC
330
CA6
100
AcDbEntity
  8
OBJECT
100
AcDbLine
 10
16.9655071719336
 20
31.29629801845859
 30
0.0
 11
17.92217237335765
 21
31.84862893002511
 31
0.0
  0
LINE
  5
11CD
330
CA6
100
AcDbEntity
  8
OBJECT
100
AcDbLine
 10
16.63193336422408
 20
26.40070909078288
 30
0.0
 11
21.99508984735588
 21
29.4971289300251
 31
0.0
  0
LINE
  5
11CE
330
CA6
100
AcDbEntity
  8
OBJECT
100
AcDbLine
 10
16.37492533830282
 20
25.95051258297464
 30
0.0
 11
11.78359187433094
 21
28.60132019433814
 31
0.0
  0
LINE
  5
11CF
330
CA6
100
AcDbEntity
  8
OBJECT
100
AcDbLine
 10
13.96858717705276
 20
22.12026182368091
 30
0.0
 11
15.16534349446775
 21
22.81263819667162
 31
0.0
  0
LWPOLYLINE
  5
11D0
330
CA6
100
AcDbEntity
  8
OBJECT
100
AcDbPolyline
 90
        7
 70
     0
 43
0.0
 10
18.30684258167739
 20
24.54251852850552
 42
0.0730609864587327
 10
18.33230482330221
 20
24.52236826595127
 42
0.0723410840576608
 10
18.37908688059762
 20
24.50372802316525
 42
0.0587518675353809
 10
18.44055799877528
 20
24.49647991830296
 42
0.0587518675353774
 10
18.50202911695292
 20
24.50372802316525
 42
0.0723410840576568
 10
18.54881117424832
 20
24.52236826595127
 42
0.0904779399290791
 10
18.57937459887421
 20
24.54832450648391
 42
0.1568512196707811
  0
LWPOLYLINE
  5
11D9
330
CA6
100
AcDbEntity
  8
OBJECT
100
AcDbPolyline
 90
        3
 70
     0
 43
0.0
 10
18.23570562058406
 20
24.57066331282224
 42
0.0587518675353793
 10
18.20497006149524
 20
24.56703926039109
 42
0.0642382339879482
 10
18.18404521105424
 20
24.55909043198182
 42
0.010596345945674
  0
LWPOLYLINE
  5
11DE
330
CA6
100
AcDbEntity
  8
OBJECT
100
AcDbPolyline
 90
        4
 70
     0
 43
0.0
 10
18.30684258167739
 20
24.54251852850552
 42
0.1032009272409039
 10
18.28983220832059
 20
24.55771913899807
 42
0.0723410840576526
 10
18.26644117967289
 20
24.56703926039109
 42
0.0587518675353721
 10
18.23570562058406
 20
24.57066331282224
 42
0.0587518675353793
  0
LWPOLYLINE
  5
11E4
330
CA6
100
AcDbEntity
  8
OBJECT
100
AcDbPolyline
 90
        2
 70
     0
 43
0.0
 10
12.37175346594028
 20
28.1057449410955
 42
0.0990140143584546
 10
12.38833946442772
 20
28.09116901040399
 42
0.0723410840576564
  0
LWPOLYLINE
  5
11E8
330
CA6
100
AcDbEntity
  8
OBJECT
100
AcDbPolyline
 90
        6
 70
     0
 43
0.0
 10
12.36538979122743
 20
28.43607333933654
 42
0.0587518675353685
 10
12.32703181348458
 20
28.43155052190247
 42
0.0723410840576479
 10
12.29783980973224
 20
28.419919010404
 42
0.1066170543910048
 10
12.27605654098938
 20
28.40018692861141
 42
0.156851219670777
 10
12.26985969125888
 20
28.38091901040398
 42
0.0907083780630931
 10
12.27200003293408
 20
28.36921815670033
 42
0.1066170543910073
  0
LWPOLYLINE
  5
11F0
330
CA6
100
AcDbEntity
  8
OBJECT
100
AcDbPolyline
 90
       16
 70
     1
 43
0.0
 10
12.36538979122743
 20
28.5522675131607
 42
0.0587518675353782
 10
12.29629625439575
 20
28.54412064329546
 42
0.072341084057657
 10
12.24371322199572
 20
28.52316901040398
 42
0.1066170543910075
 10
12.20447541099097
 20
28.48762596563657
 42
0.1568512196707839
 10
12.19331313679692
 20
28.45291901040398
 42
0.1568512196707877
 10
12.20447541099097
 20
28.4182120551714
 42
0.1066170543910138
 10
12.24371322199572
 20
28.38266901040398
 42
0.07234108405766
 10
12.29629625439575
 20
28.36171737751251
 42
0.0587518675353789
 10
12.36538979122743
 20
28.35357050764728
 42
0.058751867535374
 10
12.43448332805909
 20
28.36171737751251
 42
0.0723410840576588
 10
12.48706636045914
 20
28.38266901040398
 42
0.1066170543910072
 10
12.5263041714639
 20
28.4182120551714
 42
0.1568512196707839
 10
12.53746644565794
 20
28.45291901040398
 42
0.156851219670792
 10
12.5263041714639
 20
28.48762596563657
 42
0.1066170543910073
 10
12.48706636045914
 20
28.52316901040398
 42
0.072341084057658
 10
12.43448332805909
 20
28.54412064329546
 42
0.058751867535374
  0
LWPOLYLINE
  5
1202
330
CA6
100
AcDbEntity
  8
OBJECT
100
AcDbPolyline
 90
        3
 70
     0
 43
0.0
 10
12.19235424954458
 20
28.36532112697396
 42
0.0179552318984198
 10
12.20257701531596
 20
28.358919010404
 42
0.0143456988257778
 10
12.21586095149027
 20
28.35174952627784
  0
LWPOLYLINE
  5
1211
330
CA6
100
AcDbEntity
  8
OBJECT
100
AcDbPolyline
 90
        6
 70
     0
 43
0.0
 10
12.45877954952076
 20
28.36921815670033
 42
0.0907083780630971
 10
12.46091989119596
 20
28.38091901040398
 42
0.1568512196707755
 10
12.45472304146547
 20
28.40018692861141
 42
0.106617054390996
 10
12.4329397727226
 20
28.419919010404
 42
0.0723410840576467
 10
12.40374776897029
 20
28.43155052190247
 42
0.0587518675353843
 10
12.36538979122743
 20
28.43607333933654
 42
0.0587518675353685
  0
LINE
  5
1219
330
CA6
100
AcDbEntity
  8
OBJECT
100
AcDbLine
 10
16.37281440138108
 20
25.79573133297464
 30
0.0
 11
11.78359187433094
 21
28.44532019433814
 31
0.0
  0
LINE
  5
121A
330
CA6
100
AcDbEntity
  8
OBJECT
100
AcDbLine
 10
15.89227824813955
 20
26.06816901040399
 30
0.0
 11
12.38833946442773
 21
28.09116901040398
 31
0.0
  0
LWPOLYLINE
  5
121B
330
CA6
100
AcDbEntity
  8
OBJECT
100
AcDbPolyline
 90
        6
 70
     0
 43
0.0
 10
16.11354773880648
 20
26.27207333933655
 42
0.0587518675353685
 10
16.07518976106363
 20
26.26755052190246
 42
0.0723410840576479
 10
16.0459977573113
 20
26.25591901040398
 42
0.1066170543910048
 10
16.02421448856842
 20
26.23618692861141
 42
0.156851219670777
 10
16.01801763883794
 20
26.216919010404
 42
0.0907083780630934
 10
16.02015798051316
 20
26.20521815670034
 42
0.1066170543910073
  0
LWPOLYLINE
  5
1223
330
CA6
100
AcDbEntity
  8
OBJECT
100
AcDbPolyline
 90
       16
 70
     1
 43
0.0
 10
16.11354773880648
 20
26.38826751316071
 42
0.0587518675353782
 10
16.0444542019748
 20
26.38012064329547
 42
0.072341084057657
 10
15.99187116957476
 20
26.35916901040399
 42
0.1066170543910075
 10
15.95263335857
 20
26.32362596563657
 42
0.1568512196707839
 10
15.94147108437596
 20
26.28891901040399
 42
0.1568512196707877
 10
15.95263335857
 20
26.2542120551714
 42
0.1066170543910138
 10
15.99187116957476
 20
26.21866901040398
 42
0.07234108405766
 10
16.0444542019748
 20
26.19771737751252
 42
0.0587518675353789
 10
16.11354773880648
 20
26.18957050764728
 42
0.058751867535374
 10
16.18264127563815
 20
26.19771737751252
 42
0.0723410840576588
 10
16.23522430803819
 20
26.21866901040398
 42
0.1066170543910072
 10
16.27446211904295
 20
26.2542120551714
 42
0.1568512196707839
 10
16.285624393237
 20
26.28891901040399
 42
0.156851219670792
 10
16.27446211904295
 20
26.32362596563657
 42
0.1066170543910073
 10
16.23522430803819
 20
26.35916901040399
 42
0.072341084057658
 10
16.18264127563815
 20
26.38012064329547
 42
0.058751867535374
  0
LWPOLYLINE
  5
123E
330
CA6
100
AcDbEntity
  8
OBJECT
100
AcDbPolyline
 90
        3
 70
     0
 43
0.0
 10
15.89227824813955
 20
26.06816901040399
 42
0.0723410840576564
 10
15.91585640501643
 20
26.05877432803984
 42
0.0043348064121034
 10
15.91810723498532
 20
26.0582566378957
 42
0.0587518675353722
  0
LWPOLYLINE
  5
1248
330
CA6
100
AcDbEntity
  8
OBJECT
100
AcDbPolyline
 90
        6
 70
     0
 43
0.0
 10
16.20693749709982
 20
26.20521815670034
 42
0.0907083780630903
 10
16.20907783877502
 20
26.216919010404
 42
0.1568512196707755
 10
16.20288098904451
 20
26.23618692861141
 42
0.106617054390996
 10
16.18109772030167
 20
26.25591901040398
 42
0.0723410840576467
 10
16.15190571654933
 20
26.26755052190246
 42
0.0587518675353843
 10
16.11354773880648
 20
26.27207333933655
 42
0.0587518675353685
  0
LWPOLYLINE
  5
1250
330
CA6
100
AcDbEntity
  8
OBJECT
100
AcDbPolyline
 90
       16
 70
     1
 43
0.0
 10
22.1887159463543
 20
29.8957675131607
 42
0.0587518675353782
 10
22.11962240952262
 20
29.88762064329547
 42
0.072341084057657
 10
22.0670393771226
 20
29.86666901040398
 42
0.1066170543910075
 10
22.02780156611785
 20
29.83112596563657
 42
0.1568512196707839
 10
22.01663929192379
 20
29.796419010404
 42
0.1568512196707877
 10
22.02780156611785
 20
29.7617120551714
 42
0.1066170543910138
 10
22.0670393771226
 20
29.72616901040398
 42
0.07234108405766
 10
22.11962240952262
 20
29.7052173775125
 42
0.0587518675353789
 10
22.1887159463543
 20
29.69707050764728
 42
0.058751867535374
 10
22.25780948318598
 20
29.7052173775125
 42
0.0723410840576588
 10
22.31039251558603
 20
29.72616901040398
 42
0.1066170543910072
 10
22.34963032659079
 20
29.7617120551714
 42
0.1568512196707839
 10
22.36079260078484
 20
29.796419010404
 42
0.156851219670792
 10
22.34963032659079
 20
29.83112596563657
 42
0.1066170543910073
 10
22.31039251558603
 20
29.86666901040398
 42
0.072341084057658
 10
22.25780948318598
 20
29.88762064329547
 42
0.058751867535374
  0
LWPOLYLINE
  5
1266
330
CA6
100
AcDbEntity
  8
OBJECT
100
AcDbPolyline
 90
        6
 70
     0
 43
0.0
 10
22.1887159463543
 20
29.77957333933654
 42
0.0587518675353685
 10
22.15035796861145
 20
29.77505052190246
 42
0.0723410840576479
 10
22.12116596485912
 20
29.76341901040398
 42
0.1066170543910048
 10
22.09938269611627
 20
29.74368692861139
 42
0.156851219670777
 10
22.09318584638576
 20
29.72441901040398
 42
0.0907083780630934
 10
22.09532618806098
 20
29.71271815670032
 42
0.1066170543910073
  0
LWPOLYLINE
  5
126E
330
CA6
100
AcDbEntity
  8
OBJECT
100
AcDbPolyline
 90
        6
 70
     0
 43
0.0
 10
22.28210570464765
 20
29.71271815670032
 42
0.0907083780630971
 10
22.28424604632285
 20
29.72441901040398
 42
0.1568512196707755
 10
22.27804919659236
 20
29.74368692861141
 42
0.106617054390996
 10
22.25626592784949
 20
29.76341901040398
 42
0.0723410840576467
 10
22.22707392409719
 20
29.77505052190246
 42
0.0587518675353843
 10
22.1887159463543
 20
29.77957333933654
 42
0.0587518675353685
  0
LINE
  5
127D
330
CA6
100
AcDbEntity
  8
OBJECT
100
AcDbLine
 10
22.03744524669251
 20
29.36058283123374
 30
0.0
 11
16.62071209685731
 21
26.23323048904802
 31
0.0
  0
LINE
  5
127E
330
CA6
100
AcDbEntity
  8
OBJECT
100
AcDbLine
 10
21.99720078427762
 20
29.34234768002511
 30
0.0
 11
16.61678023409383
 21
26.2359604270231
 31
0.0
  0
LWPOLYLINE
  5
127F
330
CA6
100
AcDbEntity
  8
OBJECT
100
AcDbPolyline
 90
        6
 70
     0
 43
0.0
 10
19.15156485528228
 20
28.02607333933654
 42
0.0587518675353685
 10
19.11320687753944
 20
28.02155052190247
 42
0.0723410840576479
 10
19.0840148737871
 20
28.00991901040399
 42
0.1066170543910048
 10
19.06223160504424
 20
27.99018692861141
 42
0.156851219670777
 10
19.05603475531375
 20
27.97091901040398
 42
0.0907083780630934
 10
19.05817509698895
 20
27.95921815670033
 42
0.1066170543910073
  0
LWPOLYLINE
  5
1287
330
CA6
100
AcDbEntity
  8
OBJECT
100
AcDbPolyline
 90
       16
 70
     1
 43
0.0
 10
19.15156485528228
 20
28.14226751316071
 42
0.0587518675353782
 10
19.08247131845062
 20
28.13412064329547
 42
0.072341084057657
 10
19.02988828605058
 20
28.113169010404
 42
0.1066170543910075
 10
18.99065047504581
 20
28.07762596563657
 42
0.1568512196707839
 10
18.97948820085178
 20
28.04291901040398
 42
0.1568512196707877
 10
18.99065047504581
 20
28.0082120551714
 42
0.1066170543910138
 10
19.02988828605058
 20
27.97266901040398
 42
0.07234108405766
 10
19.08247131845062
 20
27.95171737751251
 42
0.0587518675353789
 10
19.15156485528228
 20
27.94357050764728
 42
0.058751867535374
 10
19.22065839211396
 20
27.95171737751251
 42
0.0723410840576588
 10
19.273241424514
 20
27.97266901040398
 42
0.1066170543910072
 10
19.31247923551875
 20
28.0082120551714
 42
0.1568512196707839
 10
19.32364150971282
 20
28.04291901040398
 42
0.156851219670792
 10
19.31247923551875
 20
28.07762596563657
 42
0.1066170543910073
 10
19.273241424514
 20
28.113169010404
 42
0.072341084057658
 10
19.22065839211396
 20
28.13412064329547
 42
0.058751867535374
  0
LWPOLYLINE
  5
1299
330
CA6
100
AcDbEntity
  8
OBJECT
100
AcDbPolyline
 90
        6
 70
     0
 43
0.0
 10
19.24495461357563
 20
27.95921815670033
 42
0.0907083780630971
 10
19.24709495525082
 20
27.97091901040398
 42
0.1568512196707755
 10
19.24089810552032
 20
27.99018692861141
 42
0.106617054390996
 10
19.21911483677746
 20
28.00991901040399
 42
0.0723410840576467
 10
19.18992283302516
 20
28.02155052190246
 42
0.0587518675353843
 10
19.15156485528228
 20
28.02607333933654
 42
0.0587518675353685
  0
LWPOLYLINE
  5
12A1
330
CA6
100
AcDbEntity
  8
OBJECT
100
AcDbPolyline
 90
        6
 70
     0
 43
0.0
 10
15.40340690770323
 20
30.19007333933655
 42
0.0587518675353685
 10
15.36504892996038
 20
30.18555052190246
 42
0.0723410840576479
 10
15.33585692620806
 20
30.17391901040398
 42
0.1066170543910048
 10
15.31407365746519
 20
30.15418692861141
 42
0.156851219670777
 10
15.30787680773469
 20
30.13491901040398
 42
0.0907083780630995
 10
15.31001714940992
 20
30.12321815670034
 42
0.1066170543910073
  0
LWPOLYLINE
  5
12A9
330
CA6
100
AcDbEntity
  8
OBJECT
100
AcDbPolyline
 90
       16
 70
     1
 43
0.0
 10
15.40340690770323
 20
30.3062675131607
 42
0.0587518675353782
 10
15.33431337087156
 20
30.29812064329548
 42
0.072341084057657
 10
15.28173033847152
 20
30.277169010404
 42
0.1066170543910075
 10
15.24249252746677
 20
30.24162596563657
 42
0.1568512196707839
 10
15.23133025327272
 20
30.20691901040398
 42
0.1568512196707877
 10
15.24249252746677
 20
30.1722120551714
 42
0.1066170543910138
 10
15.28173033847152
 20
30.13666901040398
 42
0.07234108405766
 10
15.33431337087156
 20
30.11571737751251
 42
0.0587518675353789
 10
15.40340690770323
 20
30.10757050764728
 42
0.058751867535374
 10
15.47250044453492
 20
30.11571737751251
 42
0.0723410840576588
 10
15.52508347693495
 20
30.13666901040398
 42
0.1066170543910072
 10
15.56432128793971
 20
30.1722120551714
 42
0.1568512196707839
 10
15.57548356213376
 20
30.20691901040398
 42
0.156851219670792
 10
15.56432128793971
 20
30.24162596563657
 42
0.1066170543910073
 10
15.52508347693495
 20
30.277169010404
 42
0.072341084057658
 10
15.47250044453492
 20
30.29812064329548
 42
0.058751867535374
  0
LWPOLYLINE
  5
12BB
330
CA6
100
AcDbEntity
  8
OBJECT
100
AcDbPolyline
 90
        6
 70
     0
 43
0.0
 10
15.49679666599657
 20
30.12321815670034
 42
0.0907083780630905
 10
15.49893700767179
 20
30.13491901040398
 42
0.1568512196707755
 10
15.49274015794129
 20
30.15418692861141
 42
0.106617054390996
 10
15.47095688919842
 20
30.17391901040398
 42
0.0723410840576467
 10
15.4417648854461
 20
30.18555052190246
 42
0.0587518675353843
 10
15.40340690770323
 20
30.19007333933655
 42
0.0587518675353685
  0
LWPOLYLINE
  5
12C3
330
CA6
100
AcDbEntity
  8
OBJECT
100
AcDbPolyline
 90
        9
 70
     0
 43
0.0
 10
19.06619143375248
 20
29.24071266810662
 42
0.1568512196707782
 10
19.07167326236024
 20
29.22366797123085
 42
0.1066170543910084
 10
19.09094307701739
 20
29.20621266810663
 42
0.072341084057661
 10
19.11676677264444
 20
29.19592325408876
 42
0.0587518675353793
 10
19.1506988298785
 20
29.19192230020477
 42
0.0587518675353684
 10
19.18463088711257
 20
29.19592325408876
 42
0.0723410840576543
 10
19.21045458273963
 20
29.20621266810663
 42
0.1066170543910017
 10
19.22972439739678
 20
29.22366797123085
 42
0.1568512196707747
 10
19.23520622600451
 20
29.24071266810662
 42
0.1568512196707838
  0
LWPOLYLINE
  5
12CE
330
CA6
100
AcDbEntity
  8
OBJECT
100
AcDbPolyline
 90
       16
 70
     1
 43
0.0
 10
19.1506988298785
 20
29.90059784387277
 42
0.0587518675353782
 10
19.08957765079414
 20
29.89339100058693
 42
0.072341084057657
 10
19.04306191158759
 20
29.87485687185662
 42
0.1066170543910075
 10
19.00835155540562
 20
29.84341496130971
 42
0.1568512196707839
 10
18.99847724021945
 20
29.81271266810662
 42
0.1568512196707877
 10
19.00835155540562
 20
29.78201037490356
 42
0.1066170543910138
 10
19.04306191158759
 20
29.75056846435663
 42
0.07234108405766
 10
19.08957765079414
 20
29.73203433562634
 42
0.0587518675353789
 10
19.1506988298785
 20
29.72482749234051
 42
0.058751867535374
 10
19.21182000896286
 20
29.73203433562634
 42
0.0723410840576588
 10
19.25833574816942
 20
29.75056846435663
 42
0.1066170543910072
 10
19.29304610435139
 20
29.78201037490356
 42
0.1568512196707839
 10
19.30292041953755
 20
29.81271266810662
 42
0.156851219670792
 10
19.29304610435139
 20
29.84341496130971
 42
0.1066170543910073
 10
19.25833574816942
 20
29.87485687185662
 42
0.072341084057658
 10
19.21182000896286
 20
29.89339100058693
 42
0.058751867535374
  0
LINE
  5
12E0
330
CA6
100
AcDbEntity
  8
OBJECT
100
AcDbLine
 10
19.02403061155312
 20
29.76443906166362
 30
0.0
 11
19.08037765318749
 21
29.71391307423003
 31
0.0
  0
LWPOLYLINE
  5
12E1
330
CA6
100
AcDbEntity
  8
OBJECT
100
AcDbPolyline
 90
        2
 70
     0
 43
0.0
 10
19.06619143375248
 20
29.72663375528291
 10
19.06619143375248
 20
29.24071266810662
  0
LWPOLYLINE
  5
12E5
330
CA6
100
AcDbEntity
  8
OBJECT
100
AcDbPolyline
 90
        2
 70
     0
 43
0.0
 10
19.23520622600451
 20
29.72663375528291
 10
19.23520622600451
 20
29.24071266810662
  0
LINE
  5
12E9
330
CA6
100
AcDbEntity
  8
CENTER
100
AcDbLine
 10
19.1506988298785
 20
27.94307050764729
 30
0.0
 11
19.1506988298785
 21
29.19192230020477
 31
0.0
  0
LINE
  5
12EA
330
CA6
100
AcDbEntity
  8
OBJECT
100
AcDbLine
 10
19.27736704820387
 20
29.76443906166362
 30
0.0
 11
19.22102000656949
 21
29.71391307423003
 31
0.0
  0
LWPOLYLINE
  5
12EB
330
CA6
100
AcDbEntity
  8
OBJECT
100
AcDbPolyline
 90
        7
 70
     0
 43
0.0
 10
19.08037765318752
 20
29.71391307423003
 42
0.0531578900237961
 10
19.09094307701739
 20
29.70621266810662
 42
0.072341084057661
 10
19.11676677264444
 20
29.69592325408875
 42
0.0587518675353793
 10
19.1506988298785
 20
29.69192230020476
 42
0.0587518675353684
 10
19.18463088711257
 20
29.69592325408875
 42
0.0723410840576543
 10
19.21045458273963
 20
29.70621266810662
 42
0.0531578900238873
 10
19.22102000656949
 20
29.71391307423003
 42
0.1568512196707747
  0
LINE
  5
12F4
330
CA6
100
AcDbEntity
  8
CENTER
100
AcDbLine
 10
19.1506988298785
 20
22.63536826595126
 30
0.0
 11
19.1506988298785
 21
27.69391901040398
 31
0.0
  0
LINE
  5
12F5
330
CA6
100
AcDbEntity
  8
CENTER
100
AcDbLine
 10
15.40254088229946
 20
24.78261343195533
 30
0.0
 11
15.40254088229946
 21
26.350919010404
 31
0.0
  0
LWPOLYLINE
  5
12F6
330
CA6
100
AcDbEntity
  8
OBJECT
100
AcDbPolyline
 90
        7
 70
     0
 43
0.0
 10
15.33221970560846
 20
31.87791307423001
 42
0.0531578900237961
 10
15.34278512943831
 20
31.87021266810663
 42
0.072341084057661
 10
15.36860882506538
 20
31.85992325408876
 42
0.0587518675353793
 10
15.40254088229946
 20
31.85592230020477
 42
0.0587518675353684
 10
15.43647293953352
 20
31.85992325408876
 42
0.0723410840576543
 10
15.46229663516057
 20
31.87021266810663
 42
0.0531578900238873
 10
15.47286205899045
 20
31.87791307423003
 42
0.1568512196707747
  0
LWPOLYLINE
  5
12FF
330
CA6
100
AcDbEntity
  8
OBJECT
100
AcDbPolyline
 90
        9
 70
     0
 43
0.0
 10
15.31803348617343
 20
31.40471266810664
 42
0.1568512196707782
 10
15.32351531478118
 20
31.38766797123085
 42
0.1066170543910084
 10
15.34278512943831
 20
31.37021266810664
 42
0.072341084057661
 10
15.36860882506538
 20
31.35992325408877
 42
0.0587518675353793
 10
15.40254088229946
 20
31.35592230020476
 42
0.0587518675353684
 10
15.43647293953352
 20
31.35992325408877
 42
0.0723410840576543
 10
15.46229663516057
 20
31.37021266810664
 42
0.1066170543910017
 10
15.48156644981772
 20
31.38766797123085
 42
0.1568512196707747
 10
15.48704827842547
 20
31.40471266810664
 42
0.1568512196707838
  0
LWPOLYLINE
  5
130A
330
CA6
100
AcDbEntity
  8
OBJECT
100
AcDbPolyline
 90
       16
 70
     1
 43
0.0
 10
15.40254088229946
 20
32.06459784387276
 42
0.0587518675353782
 10
15.3414197032151
 20
32.05739100058695
 42
0.072341084057657
 10
15.29490396400853
 20
32.03885687185664
 42
0.1066170543910075
 10
15.26019360782655
 20
32.00741496130972
 42
0.1568512196707839
 10
15.25031929264039
 20
31.97671266810663
 42
0.1568512196707877
 10
15.26019360782655
 20
31.94601037490356
 42
0.1066170543910138
 10
15.29490396400853
 20
31.91456846435662
 42
0.07234108405766
 10
15.3414197032151
 20
31.89603433562635
 42
0.0587518675353789
 10
15.40254088229946
 20
31.88882749234052
 42
0.058751867535374
 10
15.4636620613838
 20
31.89603433562635
 42
0.0723410840576588
 10
15.51017780059036
 20
31.91456846435662
 42
0.1066170543910072
 10
15.54488815677235
 20
31.94601037490356
 42
0.1568512196707839
 10
15.5547624719585
 20
31.97671266810663
 42
0.156851219670792
 10
15.54488815677235
 20
32.00741496130972
 42
0.1066170543910073
 10
15.51017780059036
 20
32.03885687185664
 42
0.072341084057658
 10
15.4636620613838
 20
32.05739100058695
 42
0.058751867535374
  0
LWPOLYLINE
  5
131C
330
CA6
100
AcDbEntity
  8
OBJECT
100
AcDbPolyline
 90
        2
 70
     0
 43
0.0
 10
15.31803348617343
 20
31.89063375528291
 10
15.31803348617343
 20
31.40471266810664
  0
LINE
  5
1320
330
CA6
100
AcDbEntity
  8
OBJECT
100
AcDbLine
 10
15.27587266397409
 20
31.92843906166361
 30
0.0
 11
15.33221970560845
 21
31.87791307423003
 31
0.0
  0
LWPOLYLINE
  5
1321
330
CA6
100
AcDbEntity
  8
OBJECT
100
AcDbPolyline
 90
        2
 70
     0
 43
0.0
 10
15.48704827842547
 20
31.89063375528291
 10
15.48704827842547
 20
31.40471266810664
  0
LINE
  5
1325
330
CA6
100
AcDbEntity
  8
OBJECT
100
AcDbLine
 10
15.52920910062482
 20
31.92843906166361
 30
0.0
 11
15.47286205899045
 21
31.87791307423003
 31
0.0
  0
LINE
  5
1334
330
CA6
100
AcDbEntity
  8
OBJECT
100
AcDbLine
 10
15.9516009882988
 20
20.91036826595126
 30
0.0
 11
12.20257701531596
 21
23.07486826595126
 31
0.0
  0
LINE
  5
1335
330
CA6
100
AcDbEntity
  8
OBJECT
100
AcDbLine
 10
16.27549448931417
 20
20.91036826595126
 30
0.0
 11
22.3515287222658
 21
24.41836826595127
 31
0.0
  0
LINE
  5
1336
330
CA6
100
AcDbEntity
  8
OBJECT
100
AcDbLine
 10
12.13549647487341
 20
23.16836826595127
 30
0.0
 11
12.25408422613937
 21
21.18842394851555
 31
0.0
  0
LWPOLYLINE
  5
1337
330
CA6
100
AcDbEntity
  8
OBJECT
100
AcDbPolyline
 90
        3
 70
     0
 43
0.0
 10
12.28514081567561
 20
21.09258271785811
 42
0.0587518675353721
 10
12.32215341770447
 20
21.04297122034837
 42
0.0723410840576587
 10
12.36168737013757
 20
21.01177689168227
 42
0.1066170543910069
  0
LWPOLYLINE
  5
133C
330
CA6
100
AcDbEntity
  8
OBJECT
100
AcDbPolyline
 90
        3
 70
     0
 43
0.0
 10
12.25405953532368
 20
21.18883618704496
 42
0.0576182447349186
 10
12.26100691370869
 20
21.14925490414485
 42
0.0587518675353731
 10
12.28546542985748
 20
21.09239530177282
 42
0.0587518675353721
  0
LINE
  5
1341
330
CA6
100
AcDbEntity
  8
OBJECT
100
AcDbLine
 10
16.00529456333344
 20
18.90813929786937
 30
0.0
 11
12.36168737013757
 21
21.01177689168225
 31
0.0
  0
LWPOLYLINE
  5
1342
330
CA6
100
AcDbEntity
  8
OBJECT
100
AcDbPolyline
 90
        5
 70
     0
 43
0.0
 10
12.36538979122743
 20
23.1196230999472
 42
0.0587518675353727
 10
12.33391657872047
 20
23.11591207025771
 42
0.0723410840576566
 10
12.30996416538522
 20
23.10636826595126
 42
0.1066170543909957
 10
12.29209071410902
 20
23.09017783986504
 42
0.015928584286223
 10
12.2911288892965
 20
23.08874281767136
 42
0.1568512196707294
  0
LINE
  5
1349
330
CA6
100
AcDbEntity
  8
OBJECT
100
AcDbLine
 10
12.26450477316403
 20
23.13526767697671
 30
0.0
 11
12.41807151319691
 21
23.22411281690097
 31
0.0
  0
LWPOLYLINE
  5
134A
330
CA6
100
AcDbEntity
  8
OBJECT
100
AcDbPolyline
 90
        2
 70
     0
 43
0.0
 10
12.26450477316403
 20
23.13526767697671
 42
0.0629145768544889
 10
12.24273728354347
 20
23.11874525925177
 42
0.1568512196707815
  0
LWPOLYLINE
  5
134E
330
CA6
100
AcDbEntity
  8
OBJECT
100
AcDbPolyline
 90
        5
 70
     0
 43
0.0
 10
12.20257701531596
 20
23.26186826595127
 42
0.1066170543910098
 10
12.15035302486833
 20
23.2145618647306
 42
0.156851219670778
 10
12.13549647487341
 20
23.16836826595127
 42
0.1568512196707736
 10
12.15035302486833
 20
23.12217466717196
 42
0.1066170543910057
 10
12.20257701531596
 20
23.07486826595126
 42
0.0723410840576563
  0
LWPOLYLINE
  5
1355
330
CA6
100
AcDbEntity
  8
OBJECT
100
AcDbPolyline
 90
        5
 70
     0
 43
0.0
 10
12.25886866656193
 20
23.22936826595127
 42
0.1066170543910082
 10
12.22479740006671
 20
23.1985052662244
 42
0.1568512196707815
 10
12.21510489151386
 20
23.16836826595127
 42
0.1568512196708033
 10
12.22479740006672
 20
23.13823126567814
 42
0.1066170543910133
 10
12.25886866656193
 20
23.10736826595127
 42
0.072341084057667
  0
LINE
  5
135C
330
CA6
100
AcDbEntity
  8
OBJECT
100
AcDbLine
 10
12.41807151319691
 20
23.22411281690097
 30
0.0
 11
12.42199876663248
 21
23.1585432868284
 31
0.0
  0
LWPOLYLINE
  5
135D
330
CA6
100
AcDbEntity
  8
OBJECT
100
AcDbPolyline
 90
        7
 70
     0
 43
0.0
 10
12.44637053203087
 20
22.99911401344922
 42
0.0431043958842368
 10
12.47364296670048
 20
23.01186826595127
 42
0.1066170543910163
 10
12.50855205122427
 20
23.04349019190092
 42
0.1568512196707811
 10
12.51848290015137
 20
23.07436826595127
 42
0.1568512196707789
 10
12.50855205122427
 20
23.10524634000161
 42
0.1066170543910128
 10
12.47364296670048
 20
23.13686826595126
 42
0.0614208028592784
 10
12.43421910516475
 20
23.15357877242946
 42
0.0587518675353793
  0
LWPOLYLINE
  5
1366
330
CA6
100
AcDbEntity
  8
OBJECT
100
AcDbPolyline
 90
        9
 70
     0
 43
0.0
 10
12.39037887313374
 20
23.03144081278586
 42
0.0122510181797349
 10
12.39686300373438
 20
23.03282446164483
 42
0.072341084057657
 10
12.42081541706964
 20
23.04236826595127
 42
0.1066170543910092
 10
12.43868886834582
 20
23.0585586920375
 42
0.1568512196707462
 10
12.44377346299649
 20
23.07436826595127
 42
0.1568512196707336
 10
12.43868886834582
 20
23.09017783986504
 42
0.1066170543909893
 10
12.42081541706964
 20
23.10636826595126
 42
0.0723410840576466
 10
12.3968630037344
 20
23.11591207025771
 42
0.0587518675353801
 10
12.36538979122743
 20
23.1196230999472
 42
0.0587518675353727
  0
LINE
  5
1371
330
CA6
100
AcDbEntity
  8
OBJECT
100
AcDbLine
 10
12.51848290015137
 20
23.07436826595127
 30
0.0
 11
12.52573463355053
 21
22.95329312807286
 31
0.0
  0
LWPOLYLINE
  5
1372
330
CA6
100
AcDbEntity
  8
OBJECT
100
AcDbPolyline
 90
        7
 70
     0
 43
0.0
 10
12.41807151319694
 20
23.22411281690097
 42
0.0028611439124897
 10
12.41720171150257
 20
23.22361725120071
 42
0.1066170543909982
 10
12.39974716924067
 20
23.20780628822589
 42
0.1568512196707734
 10
12.39478174477714
 20
23.19236725120072
 42
0.1568512196707052
 10
12.39974716924067
 20
23.17692821417554
 42
0.1066170543910106
 10
12.41720171150257
 20
23.16111725120071
 42
0.0533467249351883
 10
12.43421910516475
 20
23.15357877242946
 42
0.0587518675353688
  0
LINE
  5
137B
330
CA6
100
AcDbEntity
  8
OBJECT
100
AcDbLine
 10
16.00789263954477
 20
20.94286826595126
 30
0.0
 11
12.25886866656193
 21
23.10736826595127
 31
0.0
  0
LWPOLYLINE
  5
137C
330
CA6
100
AcDbEntity
  8
OBJECT
100
AcDbPolyline
 90
        4
 70
     0
 43
0.0
 10
16.11354773880648
 20
20.99875661359959
 42
0.0587518675353755
 10
16.05207662062882
 20
20.99150850873729
 42
0.0723410840576592
 10
16.00529456333344
 20
20.97286826595126
 42
0.0602741052164751
 10
15.98383585522889
 20
20.95675745685189
 42
0.1568512196707789
  0
LWPOLYLINE
  5
1382
330
CA6
100
AcDbEntity
  8
OBJECT
100
AcDbPolyline
 90
        5
 70
     0
 43
0.0
 10
16.00789263954478
 20
20.94286826595126
 42
0.072341084057667
 10
16.0535519274651
 20
20.92467538899212
 42
0.0587518675353803
 10
16.11354773880648
 20
20.9176012386465
 42
0.0587518675353749
 10
16.17354355014787
 20
20.92467538899212
 42
0.0723410840576561
 10
16.21920283806819
 20
20.94286826595126
 42
0.1066170543910133
  0
LWPOLYLINE
  5
1389
330
CA6
100
AcDbEntity
  8
OBJECT
100
AcDbPolyline
 90
        5
 70
     0
 43
0.0
 10
15.9516009882988
 20
20.91036826595126
 42
0.0723410840576563
 10
16.02158694601272
 20
20.8824824627434
 42
0.0587518675353739
 10
16.11354773880648
 20
20.87163929786937
 42
0.0587518675353751
 10
16.20550853160025
 20
20.8824824627434
 42
0.0723410840576581
 10
16.27549448931417
 20
20.91036826595126
 42
0.1066170543910071
  0
LWPOLYLINE
  5
1390
330
CA6
100
AcDbEntity
  8
OBJECT
100
AcDbPolyline
 90
        4
 70
     0
 43
0.0
 10
16.18548801767173
 20
20.92799460463452
 42
0.096596827243349
 10
16.16897336464868
 20
20.94236826595126
 42
0.0723410840576466
 10
16.14502095131343
 20
20.95191207025771
 42
0.0587518675353801
 10
16.11354773880648
 20
20.95562309994721
 42
0.0587518675353727
  0
LWPOLYLINE
  5
1396
330
CA6
100
AcDbEntity
  8
OBJECT
100
AcDbPolyline
 90
        4
 70
     0
 43
0.0
 10
16.11354773880648
 20
20.95562309994721
 42
0.0587518675353727
 10
16.08207452629953
 20
20.95191207025771
 42
0.0723410840576566
 10
16.05812211296426
 20
20.94236826595126
 42
0.0965968272433475
 10
16.04160745994122
 20
20.92799460463452
 42
0.1568512196707378
  0
LWPOLYLINE
  5
139C
330
CA6
100
AcDbEntity
  8
OBJECT
100
AcDbPolyline
 90
        4
 70
     0
 43
0.0
 10
16.24325962238408
 20
20.95675745685189
 42
0.0602741052164752
 10
16.22180091427954
 20
20.97286826595126
 42
0.0723410840576543
 10
16.17501885698414
 20
20.99150850873729
 42
0.0587518675353793
 10
16.11354773880648
 20
20.99875661359959
 42
0.0587518675353755
  0
LWPOLYLINE
  5
13A2
330
CA6
100
AcDbEntity
  8
OBJECT
100
AcDbPolyline
 90
        5
 70
     0
 43
0.0
 10
16.00529456333342
 20
18.90813929786937
 42
0.0723410840576616
 10
16.05207662062882
 20
18.88949905508336
 42
0.0587518675353754
 10
16.11354773880648
 20
18.88225095022107
 42
0.0587518675353759
 10
16.17501885698414
 20
18.88949905508336
 42
0.0723410840576575
 10
16.22180091427954
 20
18.90813929786937
 42
0.1066170543910062
  0
LWPOLYLINE
  5
13A9
330
CA6
100
AcDbEntity
  8
OBJECT
100
AcDbPolyline
 90
        7
 70
     0
 43
0.0
 10
22.10827517527737
 20
24.49331940570797
 42
0.0439272805455098
 10
22.08046277088127
 20
24.48036826595127
 42
0.1066170543910128
 10
22.04555368635746
 20
24.44874634000161
 42
0.1568512196707789
 10
22.03562283743037
 20
24.41786826595127
 42
0.1568512196707841
 10
22.04555368635746
 20
24.38699019190093
 42
0.1066170543909903
 10
22.08046277088127
 20
24.35536826595127
 42
0.0431043958842389
 10
22.10773520555088
 20
24.34261401344922
 42
0.0587518675353809
  0
LINE
  5
13B2
330
CA6
100
AcDbEntity
  8
OBJECT
100
AcDbLine
 10
22.03562283743037
 20
24.41786826595127
 30
0.0
 11
22.02837463629296
 21
24.29679516742514
 31
0.0
  0
LWPOLYLINE
  5
13B3
330
CA6
100
AcDbEntity
  8
OBJECT
100
AcDbPolyline
 90
        5
 70
     0
 43
0.0
 10
22.2952370710198
 20
24.45086826595126
 42
0.1066170543910133
 10
22.32930833751504
 20
24.48173126567814
 42
0.1568512196707847
 10
22.33900084606787
 20
24.51186826595126
 42
0.1568512196707792
 10
22.32930833751504
 20
24.5420052662244
 42
0.1066170543910057
 10
22.2952370710198
 20
24.57286826595126
 42
0.0723410840576648
  0
LINE
  5
13BA
330
CA6
100
AcDbEntity
  8
OBJECT
100
AcDbLine
 10
22.13476586219653
 20
24.56869750990671
 30
0.0
 11
22.13065548490285
 21
24.50003825147506
 31
0.0
  0
LWPOLYLINE
  5
13BB
330
CA6
100
AcDbEntity
  8
OBJECT
100
AcDbPolyline
 90
        5
 70
     0
 43
0.0
 10
22.26297684828522
 20
24.43224281767134
 42
0.015928584286222
 10
22.26201502347272
 20
24.43367783986505
 42
0.1066170543909893
 10
22.24414157219653
 20
24.44986826595127
 42
0.0723410840576466
 10
22.22018915886128
 20
24.45941207025771
 42
0.0587518675353801
 10
22.1887159463543
 20
24.46312309994721
 42
0.0587518675353727
  0
LWPOLYLINE
  5
13C2
330
CA6
100
AcDbEntity
  8
OBJECT
100
AcDbPolyline
 90
        9
 70
     0
 43
0.0
 10
22.1887159463543
 20
24.46312309994721
 42
0.0587518675353727
 10
22.15724273384736
 20
24.45941207025771
 42
0.0723410840576566
 10
22.13329032051212
 20
24.44986826595127
 42
0.1066170543909957
 10
22.11541686923593
 20
24.43367783986505
 42
0.1568512196707378
 10
22.11033227458524
 20
24.41786826595127
 42
0.1568512196707294
 10
22.11541686923593
 20
24.40205869203748
 42
0.1066170543909819
 10
22.13329032051212
 20
24.38586826595127
 42
0.0723410840576534
 10
22.15724273384736
 20
24.37632446164482
 42
0.0122510181797299
 10
22.16372686444799
 20
24.37494081278586
 42
0.0587518675353727
  0
LWPOLYLINE
  5
13CD
330
CA6
100
AcDbEntity
  8
OBJECT
100
AcDbPolyline
 90
        2
 70
     0
 43
0.0
 10
22.2896009644177
 20
24.47876767697671
 42
-0.062914576854489
 10
22.31136845403828
 20
24.46224525925176
 42
-0.1568512196707815
  0
LWPOLYLINE
  5
13D1
330
CA6
100
AcDbEntity
  8
OBJECT
100
AcDbPolyline
 90
        7
 70
     0
 43
0.0
 10
22.12953539810345
 20
24.49954552326159
 42
0.0290503911245578
 10
22.13861051958301
 20
24.50410427970127
 42
0.1066170543910291
 10
22.15606506184493
 20
24.5199152426761
 42
0.1568512196707543
 10
22.16103048630845
 20
24.53535427970127
 42
0.1568512196707906
 10
22.15606506184493
 20
24.55079331672644
 42
0.1066170543910265
 10
22.13861051958301
 20
24.56660427970127
 42
0.0125132942123061
 10
22.13476586219653
 20
24.56869750990671
 42
0.0587518675353721
  0
LINE
  5
13DA
330
CA6
100
AcDbEntity
  8
OBJECT
100
AcDbLine
 10
22.10827517527737
 20
24.49331940570796
 30
0.0
 11
22.12953539810345
 21
24.49954552326159
 31
0.0
  0
LINE
  5
13DB
330
CA6
100
AcDbEntity
  8
OBJECT
100
AcDbLine
 10
22.2896009644177
 20
24.47876767697671
 30
0.0
 11
22.13476586219653
 21
24.56869750990671
 31
0.0
  0
LWPOLYLINE
  5
13DC
330
CA6
100
AcDbEntity
  8
OBJECT
100
AcDbPolyline
 90
        5
 70
     0
 43
0.0
 10
22.3515287222658
 20
24.41836826595127
 42
0.1066170543910071
 10
22.40375271271339
 20
24.46567466717196
 42
0.1568512196707751
 10
22.41860926270832
 20
24.51186826595126
 42
0.156851219670793
 10
22.40375271271339
 20
24.55806186473059
 42
0.1066170543910132
 10
22.3515287222658
 20
24.60536826595127
 42
0.0723410840576542
  0
LWPOLYLINE
  5
13E3
330
CA6
100
AcDbEntity
  8
OBJECT
100
AcDbPolyline
 90
        3
 70
     0
 43
0.0
 10
22.30004620225805
 20
22.53233618704495
 42
-0.0576182447349186
 10
22.29309882387303
 20
22.49275490414486
 42
-0.0587518675353731
 10
22.26864030772427
 20
22.43589530177281
 42
-0.0587518675353721
  0
LWPOLYLINE
  5
13E8
330
CA6
100
AcDbEntity
  8
OBJECT
100
AcDbPolyline
 90
        3
 70
     0
 43
0.0
 10
22.26896492190614
 20
22.43608271785811
 42
-0.0587518675353721
 10
22.23195231987727
 20
22.38647122034837
 42
-0.0723410840576587
 10
22.19241836744417
 20
22.35527689168226
 42
-0.1066170543910069
  0
LINE
  5
13ED
330
CA6
100
AcDbEntity
  8
OBJECT
100
AcDbLine
 10
22.41860926270832
 20
24.51186826595126
 30
0.0
 11
22.30002151144236
 21
22.53192394851526
 31
0.0
  0
LINE
  5
13EE
330
CA6
100
AcDbEntity
  8
OBJECT
100
AcDbLine
 10
22.19241836744417
 20
22.35527689168226
 30
0.0
 11
16.22180091427952
 21
18.90813929786937
 31
0.0
  0
LINE
  5
13EF
330
CA6
100
AcDbEntity
  8
OBJECT
100
AcDbLine
 10
16.2192028380682
 20
20.94286826595126
 30
0.0
 11
22.2952370710198
 21
24.45086826595126
 31
0.0
  0
LWPOLYLINE
  5
13F0
330
CA6
100
AcDbEntity
  8
OBJECT
100
AcDbPolyline
 90
        3
 70
     0
 43
0.0
 10
18.64541037696645
 20
24.57066331282224
 42
-0.0587518675353793
 10
18.67614593605528
 20
24.56703926039109
 42
-0.0642382339879482
 10
18.69707078649629
 20
24.55909043198182
 42
-0.010596345945674
  0
LWPOLYLINE
  5
13F5
330
CA6
100
AcDbEntity
  8
OBJECT
100
AcDbPolyline
 90
        4
 70
     0
 43
0.0
 10
18.57427341587312
 20
24.54251852850552
 42
-0.1032009272409039
 10
18.59128378922994
 20
24.55771913899807
 42
-0.0723410840576526
 10
18.61467481787764
 20
24.56703926039109
 42
-0.0587518675353721
 10
18.64541037696645
 20
24.57066331282224
 42
-0.0587518675353793
  0
LINE
  5
13FB
330
CA6
100
AcDbEntity
  8
OBJECT
100
AcDbLine
 10
20.58792205484447
 20
23.46514948177095
 30
0.0
 11
18.69707078649629
 21
24.55909043198182
 31
0.0
  0
LINE
  5
13FC
330
CA6
100
AcDbEntity
  8
CENTER
100
AcDbLine
 10
18.44055799877526
 20
31.86107050764728
 30
0.0
 11
18.44055799877526
 21
33.10992230020476
 31
0.0
  0
LINE
  5
13FD
330
CA6
100
AcDbEntity
  8
CENTER
100
AcDbLine
 10
15.40254088229946
 20
30.10757177000295
 30
0.0
 11
15.40254088229946
 21
31.35592230020476
 31
0.0
  0
LWPOLYLINE
  5
13FE
330
CA6
100
AcDbEntity
  8
OBJECT
100
AcDbPolyline
 90
        7
 70
     0
 43
0.0
 10
19.07025805880157
 20
22.73931940570796
 42
0.0439272805455098
 10
19.04244565440546
 20
22.72636826595127
 42
0.1066170543910128
 10
19.00753656988164
 20
22.69474634000161
 42
0.1568512196707789
 10
18.99760572095457
 20
22.66386826595127
 42
0.1568512196707841
 10
19.00753656988166
 20
22.63299019190092
 42
0.1066170543909903
 10
19.04244565440546
 20
22.60136826595127
 42
0.0431043958842389
 10
19.06971808907505
 20
22.58861401344923
 42
0.0587518675353809
  0
LINE
  5
1407
330
CA6
100
AcDbEntity
  8
OBJECT
100
AcDbLine
 10
18.99760572095457
 20
22.66386826595127
 30
0.0
 11
18.99035751981717
 21
22.54279516742514
 31
0.0
  0
LINE
  5
1408
330
CA6
100
AcDbEntity
  8
OBJECT
100
AcDbLine
 10
19.07025805880155
 20
22.73931940570796
 30
0.0
 11
19.09151828162766
 21
22.74554552326159
 31
0.0
  0
LWPOLYLINE
  5
1409
330
CA6
100
AcDbEntity
  8
OBJECT
100
AcDbPolyline
 90
        9
 70
     0
 43
0.0
 10
19.1506988298785
 20
22.70912309994721
 42
0.0587518675353727
 10
19.11922561737154
 20
22.7054120702577
 42
0.0723410840576566
 10
19.09527320403629
 20
22.69586826595127
 42
0.1066170543909957
 10
19.07739975276012
 20
22.67967783986505
 42
0.1568512196707378
 10
19.07231515810945
 20
22.66386826595127
 42
0.1568512196707294
 10
19.07739975276012
 20
22.6480586920375
 42
0.1066170543909819
 10
19.09527320403629
 20
22.63186826595127
 42
0.0723410840576534
 10
19.11922561737154
 20
22.62232446164482
 42
0.0122510181797299
 10
19.12570974797218
 20
22.62094081278585
 42
0.0587518675353727
  0
LWPOLYLINE
  5
1414
330
CA6
100
AcDbEntity
  8
OBJECT
100
AcDbPolyline
 90
        5
 70
     0
 43
0.0
 10
19.22495973180943
 20
22.67824281767135
 42
0.015928584286222
 10
19.2239979069969
 20
22.67967783986505
 42
0.1066170543909893
 10
19.20612445572071
 20
22.69586826595127
 42
0.0723410840576466
 10
19.18217204238546
 20
22.7054120702577
 42
0.0587518675353801
 10
19.1506988298785
 20
22.70912309994721
 42
0.0587518675353727
  0
LWPOLYLINE
  5
141B
330
CA6
100
AcDbEntity
  8
OBJECT
100
AcDbPolyline
 90
        4
 70
     0
 43
0.0
 10
19.2804107134561
 20
22.71025745685189
 42
0.0602741052164752
 10
19.25895200535155
 20
22.72636826595127
 42
0.0723410840576543
 10
19.21216994805615
 20
22.74500850873728
 42
0.1156549247320096
 10
19.09151828162766
 20
22.74554552326159
 42
0.0587518675353755
  0
LINE
  5
1421
330
CA6
100
AcDbEntity
  8
OBJECT
100
AcDbLine
 10
15.16449364902189
 20
24.80941327900998
 30
0.0
 11
15.45522260426896
 21
24.97761281690097
 31
0.0
  0
LWPOLYLINE
  5
1422
330
CA6
100
AcDbEntity
  8
OBJECT
100
AcDbPolyline
 90
        7
 70
     0
 43
0.0
 10
15.45522260426896
 20
24.97761281690098
 42
0.0028611439124897
 10
15.4543528025746
 20
24.97711725120072
 42
0.1066170543909982
 10
15.43689826031271
 20
24.96130628822589
 42
0.1568512196707734
 10
15.43193283584916
 20
24.94586725120072
 42
0.1568512196707052
 10
15.43689826031271
 20
24.93042821417555
 42
0.1066170543910106
 10
15.4543528025746
 20
24.91461725120072
 42
0.0533467249351883
 10
15.47137019623678
 20
24.90707877242946
 42
0.0587518675353688
  0
LWPOLYLINE
  5
142B
330
CA6
100
AcDbEntity
  8
OBJECT
100
AcDbPolyline
 90
        7
 70
     0
 43
0.0
 10
15.48352162310289
 20
24.75261401344923
 42
0.0431043958842368
 10
15.51079405777252
 20
24.76536826595128
 42
0.1066170543910163
 10
15.5457031422963
 20
24.79699019190093
 42
0.1568512196707811
 10
15.5556339912234
 20
24.82786826595127
 42
0.1568512196707789
 10
15.5457031422963
 20
24.85874634000161
 42
0.1066170543910128
 10
15.51079405777252
 20
24.89036826595127
 42
0.0614208028592784
 10
15.47137019623678
 20
24.90707877242946
 42
0.0587518675353793
  0
LINE
  5
1434
330
CA6
100
AcDbEntity
  8
OBJECT
100
AcDbLine
 10
15.45522260426896
 20
24.97761281690097
 30
0.0
 11
15.45914985770451
 21
24.9120432868284
 31
0.0
  0
LWPOLYLINE
  5
1435
330
CA6
100
AcDbEntity
  8
OBJECT
100
AcDbPolyline
 90
       16
 70
     1
 43
0.0
 10
15.40254088229946
 20
24.87312309994721
 42
0.0587518675353727
 10
15.37106766979249
 20
24.86941207025771
 42
0.0723410840576566
 10
15.34711525645725
 20
24.85986826595127
 42
0.1066170543909957
 10
15.32924180518105
 20
24.84367783986505
 42
0.1568512196707378
 10
15.32415721053039
 20
24.82786826595127
 42
0.1568512196707294
 10
15.32924180518105
 20
24.81205869203749
 42
0.1066170543909819
 10
15.34711525645725
 20
24.79586826595128
 42
0.0723410840576534
 10
15.37106766979249
 20
24.78632446164482
 42
0.0587518675353621
 10
15.40254088229946
 20
24.78261343195533
 42
0.0587518675353727
 10
15.43401409480639
 20
24.78632446164484
 42
0.072341084057657
 10
15.45796650814167
 20
24.79586826595128
 42
0.1066170543910092
 10
15.47583995941786
 20
24.81205869203749
 42
0.1568512196707462
 10
15.48092455406851
 20
24.82786826595127
 42
0.1568512196707336
 10
15.47583995941786
 20
24.84367783986505
 42
0.1066170543909893
 10
15.45796650814167
 20
24.85986826595127
 42
0.0723410840576466
 10
15.43401409480642
 20
24.86941207025771
 42
0.0587518675353801
  0
LWPOLYLINE
  5
1447
330
CA6
100
AcDbEntity
  8
OBJECT
100
AcDbPolyline
 90
        7
 70
     0
 43
0.0
 10
15.26882546520159
 20
24.78551852850552
 42
0.0730609864587327
 10
15.2942877068264
 20
24.76536826595128
 42
0.0723410840576608
 10
15.34106976412179
 20
24.74672802316526
 42
0.0587518675353809
 10
15.40254088229946
 20
24.73947991830295
 42
0.0587518675353774
 10
15.4640120004771
 20
24.74672802316526
 42
0.0723410840576568
 10
15.51079405777252
 20
24.76536826595128
 42
0.0904779399290791
 10
15.5413574823984
 20
24.7913245064839
 42
0.1568512196707811
  0
LWPOLYLINE
  5
1450
330
CA6
100
AcDbEntity
  8
OBJECT
100
AcDbPolyline
 90
        3
 70
     0
 43
0.0
 10
15.19768850410825
 20
24.81366331282223
 42
0.0587518675353793
 10
15.16695294501943
 20
24.81003926039108
 42
0.0642382339879882
 10
15.14602809457842
 20
24.80209043198182
 42
0.010596345945674
  0
LWPOLYLINE
  5
1455
330
CA6
100
AcDbEntity
  8
OBJECT
100
AcDbPolyline
 90
        4
 70
     0
 43
0.0
 10
15.2688254652016
 20
24.78551852850551
 42
0.1032009272409039
 10
15.25181509184476
 20
24.80071913899807
 42
0.0723410840576526
 10
15.22842406319707
 20
24.81003926039108
 42
0.0587518675353721
 10
15.19768850410825
 20
24.81366331282223
 42
0.0587518675353793
  0
LINE
  5
145B
330
CA6
100
AcDbEntity
  8
OBJECT
100
AcDbLine
 10
15.14602809457842
 20
24.80209043198182
 30
0.0
 11
15.14602809457842
 21
22.80509043198182
 31
0.0
  0
LINE
  5
145C
330
CA6
100
AcDbEntity
  8
OBJECT
100
AcDbLine
 10
15.26882546520159
 20
24.78551852850552
 30
0.0
 11
15.26882546520159
 21
22.78851852850553
 31
0.0
  0
LWPOLYLINE
  5
145D
330
CA6
100
AcDbEntity
  8
OBJECT
100
AcDbPolyline
 90
        7
 70
     0
 43
0.0
 10
15.2688254652016
 20
22.78851852850551
 42
0.0730609864587327
 10
15.29428770682641
 20
22.76836826595127
 42
0.0723410840576608
 10
15.3410697641218
 20
22.74972802316525
 42
0.0587518675353809
 10
15.40254088229946
 20
22.74247991830296
 42
0.0587518675353774
 10
15.46401200047712
 20
22.74972802316525
 42
0.0723410840576568
 10
15.51079405777252
 20
22.76836826595127
 42
0.1509947274348036
 10
15.5556339912234
 20
22.81674523016693
 42
0.1568512196707811
  0
LWPOLYLINE
  5
1466
330
CA6
100
AcDbEntity
  8
OBJECT
100
AcDbPolyline
 90
        3
 70
     0
 43
0.0
 10
15.19768850410825
 20
22.81666331282223
 42
0.0587518675353793
 10
15.16695294501943
 20
22.81303926039108
 42
0.0642382339879482
 10
15.14602809457842
 20
22.80509043198182
 42
0.010596345945674
  0
LWPOLYLINE
  5
146B
330
CA6
100
AcDbEntity
  8
OBJECT
100
AcDbPolyline
 90
        4
 70
     0
 43
0.0
 10
15.2688254652016
 20
22.78851852850551
 42
0.1032009272409039
 10
15.25181509184476
 20
22.80371913899807
 42
0.0723410840576526
 10
15.22842406319707
 20
22.81303926039108
 42
0.0587518675353721
 10
15.19768850410825
 20
22.81666331282223
 42
0.0587518675353793
  0
LINE
  5
1471
330
CA6
100
AcDbEntity
  8
OBJECT
100
AcDbLine
 10
15.5556339912234
 20
24.82786826595127
 30
0.0
 11
15.5556339912234
 21
22.81674523016693
 31
0.0
  0
LINE
  5
1472
330
CA6
100
AcDbEntity
  8
OBJECT
100
AcDbLine
 10
15.5556339912234
 20
23.03843848251437
 30
0.0
 11
18.18404521105424
 21
24.55909043198182
 31
0.0
  0
DIMENSION
  5
1473
330
CA6
100
AcDbEntity
  8
DIM
100
AcDbDimension
  2
*D15
 10
9.164958702275706
 20
10.50186128562077
 30
0.0
 11
9.164958702275704
 21
12.25186128562076
 31
0.0
 70
    32
  1
G
  3
23NSTD
100
AcDbAlignedDimension
 13
8.472075243610504
 23
14.00186128562076
 33
0.0
 14
8.472075243610504
 24
10.50186128562077
 34
0.0
 50
270.0
100
AcDbRotatedDimension
  0
DIMENSION
  5
1481
330
CA6
100
AcDbEntity
  8
DIM
100
AcDbDimension
  2
*D16
 10
9.767812864534343
 20
14.19686128562076
 30
0.0
 11
10.74445348953434
 21
15.00686128562076
 31
0.0
 70
    32
  1
0.188
  3
23NSTD
100
AcDbAlignedDimension
 13
9.105532004890555
 23
14.00186128562076
 33
0.0
 14
9.113032004890555
 24
14.19686128562076
 34
0.0
 50
270.0
100
AcDbRotatedDimension
  0
DIMENSION
  5
1490
330
CA6
100
AcDbEntity
  8
DIM
100
AcDbDimension
  2
*D17
 10
9.164958702275706
 20
25.51295604953923
 30
0.0
 11
9.164958702275702
 21
27.26295604953924
 31
0.0
 70
    32
  1
G
  3
23NSTD
100
AcDbAlignedDimension
 13
8.472075243610508
 23
29.01295604953924
 33
0.0
 14
8.472075243610508
 24
25.51295604953923
 34
0.0
 50
270.0
100
AcDbRotatedDimension
  0
DIMENSION
  5
149F
330
CA6
100
AcDbEntity
  8
DIM
100
AcDbDimension
  2
*D18
 10
13.18144434488002
 20
6.806861285620772
 30
0.0
 11
13.18144434488002
 21
7.838111285620776
 31
0.0
 70
    32
  1
D
  3
23NSTD
100
AcDbAlignedDimension
 13
14.39246347768643
 23
8.869361285620774
 33
0.0
 14
14.58198174654089
 24
6.806861285620771
 34
0.0
 50
90.0
100
AcDbRotatedDimension
  0
DIMENSION
  5
14AD
330
CA6
100
AcDbEntity
  8
DIM
100
AcDbDimension
  2
*D19
 10
13.76567816705044
 20
11.20783121884007
 30
0.0
 11
14.77747504205044
 21
12.01783121884008
 31
0.0
 70
   160
  3
23NSTD
100
AcDbAlignedDimension
 13
14.40729216871588
 23
10.97345621884007
 33
0.0
 14
14.42365633290841
 24
11.20783121884007
 34
0.0
 50
90.0
100
AcDbRotatedDimension
  0
DIMENSION
  5
14BB
330
CA6
100
AcDbEntity
  8
DIM
100
AcDbDimension
  2
*D20
 10
20.15716372844484
 20
6.884986285620772
 30
0.0
 11
20.83497622844483
 21
7.694986285620776
 31
0.0
 70
    32
  1
J
  3
23NSTD
100
AcDbAlignedDimension
 13
20.12236478506394
 23
6.806861285620772
 33
0.0
 14
20.12236478506394
 24
6.884986285620772
 34
0.0
 50
90.0
100
AcDbRotatedDimension
  0
DIMENSION
  5
14C9
330
CA6
100
AcDbEntity
  8
DIM
100
AcDbDimension
  2
*D21
 10
19.33782242195423
 20
8.869361285620774
 30
0.0
 11
20.33204117195424
 21
9.679361285620776
 31
0.0
 70
    32
  3
23NSTD
100
AcDbAlignedDimension
 13
21.37319202817518
 23
8.775611285620772
 33
0.0
 14
19.34279367972657
 24
8.869361285620774
 34
0.0
 50
90.0
100
AcDbRotatedDimension
  0
DIMENSION
  5
14D7
330
CA6
100
AcDbEntity
  8
DIM
100
AcDbDimension
  2
*D22
 10
21.68915633290841
 20
9.439497566903076
 30
0.0
 11
22.7719688329084
 21
9.439497566903076
 31
0.0
 70
    32
  1
H
  3
23NSTD
100
AcDbAlignedDimension
 13
21.59534918813038
 23
8.869361285620774
 33
0.0
 14
21.68915633290841
 24
8.869361285620774
 34
0.0
100
AcDbRotatedDimension
  0
DIMENSION
  5
14E5
330
CA6
100
AcDbEntity
  8
DIM
100
AcDbDimension
  2
*D23
 10
19.78342817132467
 20
11.20783121884007
 30
0.0
 11
20.77764692132467
 21
12.01783121884008
 31
0.0
 70
    32
  3
23NSTD
100
AcDbAlignedDimension
 13
19.79779549680516
 23
11.12970621884007
 33
0.0
 14
19.79779549680516
 24
11.20783121884007
 34
0.0
 50
90.0
100
AcDbRotatedDimension
  0
DIMENSION
  5
14F3
330
CA6
100
AcDbEntity
  8
DIM
100
AcDbDimension
  2
*D24
 10
22.19639226869584
 20
11.20783121884007
 30
0.0
 11
23.17303289369584
 21
12.01783121884008
 31
0.0
 70
   160
  3
23NSTD
100
AcDbAlignedDimension
 13
21.6886563329084
 23
11.05158121884007
 33
0.0
 14
21.56365633290839
 24
11.20783121884007
 34
0.0
 50
90.0
100
AcDbRotatedDimension
  0
TEXT
  5
1502
330
CA6
100
AcDbEntity
  8
TEXT
100
AcDbText
 10
5.76123705198112
 20
20.30755575782789
 30
0.0
 40
0.281
  1
%%UCOVER
 41
0.75
 72
     1
 11
6.29162455198112
 21
20.30755575782789
 31
0.0
100
AcDbText
  0
TEXT
  5
1503
330
CA6
100
AcDbEntity
  8
TEXT
100
AcDbText
 10
5.9259377436105
 20
5.088767497041088
 30
0.0
 40
0.281
  1
%%UBODY
 41
0.75
 72
     1
 11
6.3158252436105
 21
5.088767497041088
 31
0.0
100
AcDbText
  0
LWPOLYLINE
  5
1504
330
CA6
100
AcDbEntity
  8
DIM
100
AcDbPolyline
 90
        4
 70
     0
 10
19.30988729802262
 20
20.67606437512316
 40
0.0
 41
0.151875
 10
19.60289461247378
 20
20.3964723264556
 40
0.0
 41
0.0
 10
20.11805223943589
 20
19.90490106114825
 40
0.0
 41
0.0
 10
20.52305223943589
 20
19.90490106114825
 40
0.0
 41
0.0
  0
TEXT
  5
150A
330
CA6
100
AcDbEntity
  8
DIM
100
AcDbText
 10
20.72555223943588
 20
19.76427606114825
 30
0.0
 40
0.28125
  1
BODY
 41
0.75
 11
20.72555223943588
 21
19.90490106114825
 31
0.0
100
AcDbText
 73
     2
  0
LWPOLYLINE
  5
150B
330
CA6
100
AcDbEntity
  8
DIM
100
AcDbPolyline
 90
        4
 70
     0
 10
19.53897893200521
 20
31.48037492384597
 40
0.0
 41
0.151875
 10
19.7636863200958
 20
31.81731941443382
 40
0.0
 41
0.0
 10
20.20020481526057
 20
32.47187066544205
 40
0.0
 41
0.0
 10
20.60520481526058
 20
32.47187066544205
 40
0.0
 41
0.0
  0
TEXT
  5
1511
330
CA6
100
AcDbEntity
  8
DIM
100
AcDbText
 10
20.80770481526058
 20
32.33124566544205
 30
0.0
 40
0.28125
  1
COVER
 41
0.75
 11
20.80770481526058
 21
32.47187066544205
 31
0.0
100
AcDbText
 73
     2
  0
LINE
  5
1512
330
CA6
100
AcDbEntity
  8
TITLE
100
AcDbLine
 10
0.1394999999999953
 20
0.6075000000000026
 30
0.0
 11
23.88775
 21
0.6075000000000057
 31
0.0
  0
LINE
  5
1513
330
CA6
100
AcDbEntity
  8
TITLE
100
AcDbLine
 10
0.1394999999999953
 20
1.075500000000002
 30
0.0
 11
23.88775
 21
1.075500000000004
 31
0.0
  0
LINE
  5
1514
330
CA6
100
AcDbEntity
  8
TITLE
100
AcDbLine
 10
0.1394999999999953
 20
1.543500000000002
 30
0.0
 11
23.88775
 21
1.543500000000004
 31
0.0
  0
LINE
  5
1515
330
CA6
100
AcDbEntity
  8
TITLE
100
AcDbLine
 10
0.1394999999999953
 20
2.011500000000002
 30
0.0
 11
23.88775
 21
2.011500000000004
 31
0.0
  0
LINE
  5
1516
330
CA6
100
AcDbEntity
  8
TITLE
100
AcDbLine
 10
0.1394999999999953
 20
2.479500000000002
 30
0.0
 11
23.88775
 21
2.479500000000004
 31
0.0
  0
LINE
  5
1517
330
CA6
100
AcDbEntity
  8
TITLE
100
AcDbLine
 10
0.1394999999999953
 20
2.947500000000001
 30
0.0
 11
23.88775
 21
2.947500000000004
 31
0.0
  0
TEXT
  5
1518
330
CA6
100
AcDbEntity
  8
TEXT
100
AcDbText
 10
4.537750000000006
 20
35.98137499999999
 30
0.0
 40
0.375
  1
ECONOBOXES
 41
0.75
 72
     4
 11
5.897125000000006
 21
36.168875
 31
0.0
100
AcDbText
  0
TEXT
  5
1519
330
CA6
100
AcDbEntity
  8
TEXT
100
AcDbText
 10
11.93942797901533
 20
35.980875
 30
0.0
 40
0.375
  1
CU-5123 TO CU-5347 & CU-5123-B TO CU-5347-B
 41
0.4721662096141381
 72
     5
 11
19.376045780438
 21
35.980875
 31
0.0
100
AcDbText
  0
TEXT
  5
151A
330
CA6
100
AcDbEntity
  8
TEXT
100
AcDbText
 10
12.00380581528007
 20
17.67343985566114
 30
0.0
 40
0.281
  1
%%uMATERIAL:
 41
0.75
100
AcDbText
  0
TEXT
  5
151B
330
CA6
100
AcDbEntity
  8
TEXT
100
AcDbText
 10
12.474383646566
 20
17.20510652232782
 30
0.0
 40
0.281
  1
ALUMINUM ALLOY #ADC-12
 41
0.75
100
AcDbText
  0
TEXT
  5
151C
330
CA6
100
AcDbEntity
  8
TEXT
100
AcDbText
 10
12.00380581528007
 20
16.734691482145
 30
0.0
 40
0.281
  1
%%uFINISH:
 41
0.75
100
AcDbText
  0
TEXT
  5
151D
330
CA6
100
AcDbEntity
  8
TEXT
100
AcDbText
 10
12.474383646566
 20
16.26635814881168
 30
0.0
 40
0.281
  1
NATURAL (NO SUFFIX)
 41
0.75
100
AcDbText
  0
TEXT
  5
151E
330
CA6
100
AcDbEntity
  8
TEXT
100
AcDbText
 10
12.00380581528007
 20
14.84819637757762
 30
0.0
 40
0.281
  1
ALL INTERNAL FILLETS 0.062 RADIUS
 41
0.75
100
AcDbText
  0
TEXT
  5
151F
330
CA6
100
AcDbEntity
  8
TEXT
100
AcDbText
 10
12.00380581528007
 20
14.3798630442443
 30
0.0
 40
0.281
  1
ALL INTERNAL ROUNDS 0.125 RADIUS
 41
0.75
100
AcDbText
  0
TEXT
  5
1520
330
CA6
100
AcDbEntity
  8
TEXT
100
AcDbText
 10
12.00380581528007
 20
13.91152971091096
 30
0.0
 40
0.281
  1
ALL EXTERNAL ROUNDS 0.125 RADIUS
 41
0.75
100
AcDbText
  0
TEXT
  5
1521
330
CA6
100
AcDbEntity
  8
TEXT
100
AcDbText
 10
12.00380581528007
 20
13.44319637757763
 30
0.0
 40
0.281
  1
ALL BOXES ASSEMBLED WITH #6-32 FLAT HD. SCREWS
 41
0.75
100
AcDbText
  0
TEXT
  5
1522
330
CA6
100
AcDbEntity
  8
TEXT
100
AcDbText
 10
9.875825391273592
 20
3.413061461446923
 30
0.0
 40
0.281
  1
* ASSEMBLED HEIGHT
 41
0.75
100
AcDbText
  0
INSERT
  5
1523
330
CA6
100
AcDbEntity
  8
COVER
100
AcDbBlockReference
  2
*X0
 10
9.663979450454633
 20
2.095839760356483
 30
0.0
1001
ACAD
1000
HATCH
1002
{
1070
    16
1000
ANSI31
1040
1.0
1040
0.0
1002
}
  0
INSERT
  5
1524
330
CA6
100
AcDbEntity
  8
OBJECT
100
AcDbBlockReference
  2
*X1
 10
9.663979450454633
 20
2.242412380127788
 30
0.0
1001
ACAD
1000
HATCH
1002
{
1070
    16
1000
ANSI31
1040
1.0
1040
0.0
1002
}
  0
TEXT
  5
1525
330
CA6
100
AcDbEntity
  8
TEXT
100
AcDbText
 10
16.75092364958512
 20
10.14991224783677
 30
0.0
 40
0.281
  1
%%USECTION "A-A"
 41
0.75
 72
     1
 11
17.98381114958512
 21
10.14991224783677
 31
0.0
100
AcDbText
  0
TEXT
  5
1526
330
CA6
100
AcDbEntity
  8
TEXT
100
AcDbText
 10
16.75092364958512
 20
5.909581877155702
 30
0.0
 40
0.281
  1
%%USECTION "B-B"
 41
0.75
 72
     1
 11
17.98381114958512
 21
5.909581877155702
 31
0.0
100
AcDbText
  0
TEXT
  5
1527
330
CA6
100
AcDbEntity
  8
TEXT
100
AcDbText
 10
0.3573750000000039
 20
2.573000000000001
 30
0.0
 40
0.281
  1
PART NO.
 41
0.75
 72
     4
 11
1.095000000000003
 21
2.713500000000001
 31
0.0
100
AcDbText
  0
TEXT
  5
1528
330
CA6
100
AcDbEntity
  8
TEXT
100
AcDbText
 10
0.427625
 20
2.105000000000002
 30
0.0
 40
0.281
  1
CU-5123
 41
0.75
 72
     4
 11
1.094999999999999
 21
2.245500000000002
 31
0.0
100
AcDbText
  0
TEXT
  5
1529
330
CA6
100
AcDbEntity
  8
TEXT
100
AcDbText
 10
0.427625
 20
1.637000000000002
 30
0.0
 40
0.281
  1
CU-5124
 41
0.75
 72
     4
 11
1.094999999999999
 21
1.777500000000002
 31
0.0
100
AcDbText
  0
TEXT
  5
152A
330
CA6
100
AcDbEntity
  8
TEXT
100
AcDbText
 10
0.3925
 20
1.169000000000001
 30
0.0
 40
0.281
  1
CU-5234
 41
0.75
 72
     4
 11
1.094999999999999
 21
1.309500000000001
 31
0.0
100
AcDbText
  0
TEXT
  5
152B
330
CA6
100
AcDbEntity
  8
TEXT
100
AcDbText
 10
0.3925
 20
0.7010000000000021
 30
0.0
 40
0.281
  1
CU-5247
 41
0.75
 72
     4
 11
1.094999999999999
 21
0.841500000000002
 31
0.0
100
AcDbText
  0
TEXT
  5
152C
330
CA6
100
AcDbEntity
  8
TEXT
100
AcDbText
 10
0.392500000000005
 20
0.2330000000000026
 30
0.0
 40
0.281
  1
CU-5347
 41
0.75
 72
     4
 11
1.095000000000005
 21
0.3735000000000026
 31
0.0
100
AcDbText
  0
TEXT
  5
1536
330
CA6
100
AcDbEntity
  8
TEXT
100
AcDbText
 10
4.586150000000002
 20
1.169000000000007
 30
0.0
 40
0.281
  1
4.688
 41
0.75
 72
     4
 11
5.007650000000002
 21
1.309500000000007
 31
0.0
100
AcDbText
  0
TEXT
  5
1537
330
CA6
100
AcDbEntity
  8
TEXT
100
AcDbText
 10
4.603712500000002
 20
0.7010000000000072
 30
0.0
 40
0.281
  1
7.390
 41
0.75
 72
     4
 11
5.007650000000002
 21
0.8415000000000071
 31
0.0
100
AcDbText
  0
TEXT
  5
1538
330
CA6
100
AcDbEntity
  8
TEXT
100
AcDbText
 10
4.603712500000006
 20
0.2330000000000088
 30
0.0
 40
0.281
  1
7.390
 41
0.75
 72
     4
 11
5.007650000000006
 21
0.3735000000000088
 31
0.0
100
AcDbText
  0
TEXT
  5
1539
330
CA6
100
AcDbEntity
  8
TEXT
100
AcDbText
 10
4.937400000000006
 20
2.573000000000006
 30
0.0
 40
0.281
  1
A
 41
0.75
 72
     4
 11
5.007650000000006
 21
2.713500000000006
 31
0.0
100
AcDbText
  0
TEXT
  5
153A
330
CA6
100
AcDbEntity
  8
TEXT
100
AcDbText
 10
4.586150000000002
 20
2.105000000000007
 30
0.0
 40
0.281
  1
3.625
 41
0.75
 72
     4
 11
5.007650000000002
 21
2.245500000000006
 31
0.0
100
AcDbText
  0
TEXT
  5
153B
330
CA6
100
AcDbEntity
  8
TEXT
100
AcDbText
 10
4.586150000000002
 20
1.637000000000006
 30
0.0
 40
0.281
  1
4.375
 41
0.75
 72
     4
 11
5.007650000000002
 21
1.777500000000006
 31
0.0
100
AcDbText
  0
TEXT
  5
153C
330
CA6
100
AcDbEntity
  8
TEXT
100
AcDbText
 10
6.212450000000016
 20
1.169000000000005
 30
0.0
 40
0.281
  1
3.688
 41
0.75
 72
     4
 11
6.633950000000016
 21
1.309500000000005
 31
0.0
100
AcDbText
  0
TEXT
  5
153D
330
CA6
100
AcDbEntity
  8
TEXT
100
AcDbText
 10
6.230012500000016
 20
0.7010000000000072
 30
0.0
 40
0.281
  1
4.703
 41
0.75
 72
     4
 11
6.633950000000016
 21
0.8415000000000071
 31
0.0
100
AcDbText
  0
TEXT
  5
153E
330
CA6
100
AcDbEntity
  8
TEXT
100
AcDbText
 10
6.230012500000023
 20
0.233000000000007
 30
0.0
 40
0.281
  1
4.703
 41
0.75
 72
     4
 11
6.633950000000022
 21
0.373500000000007
 31
0.0
100
AcDbText
  0
TEXT
  5
153F
330
CA6
100
AcDbEntity
  8
TEXT
100
AcDbText
 10
6.563700000000019
 20
2.573000000000006
 30
0.0
 40
0.281
  1
B
 41
0.75
 72
     4
 11
6.633950000000019
 21
2.713500000000006
 31
0.0
100
AcDbText
  0
TEXT
  5
1540
330
CA6
100
AcDbEntity
  8
TEXT
100
AcDbText
 10
6.282700000000016
 20
2.105000000000006
 30
0.0
 40
0.281
  1
1.500
 41
0.75
 72
     4
 11
6.633950000000016
 21
2.245500000000006
 31
0.0
100
AcDbText
  0
TEXT
  5
1541
330
CA6
100
AcDbEntity
  8
TEXT
100
AcDbText
 10
6.212450000000016
 20
1.637000000000005
 30
0.0
 40
0.281
  1
2.375
 41
0.75
 72
     4
 11
6.633950000000016
 21
1.777500000000005
 31
0.0
100
AcDbText
  0
TEXT
  5
1542
330
CA6
100
AcDbEntity
  8
TEXT
100
AcDbText
 10
7.873874999999999
 20
1.169000000000008
 30
0.0
 40
0.281
  1
2.218
 41
0.75
 72
     4
 11
8.260249999999999
 21
1.309500000000008
 31
0.0
100
AcDbText
  0
TEXT
  5
1543
330
CA6
100
AcDbEntity
  8
TEXT
100
AcDbText
 10
7.873874999999999
 20
0.7010000000000078
 30
0.0
 40
0.281
  1
2.218
 41
0.75
 72
     4
 11
8.260249999999999
 21
0.8415000000000079
 31
0.0
100
AcDbText
  0
TEXT
  5
1544
330
CA6
100
AcDbEntity
  8
TEXT
100
AcDbText
 10
7.873875000000006
 20
0.2330000000000097
 30
0.0
 40
0.281
  1
3.218
 41
0.75
 72
     4
 11
8.260250000000006
 21
0.3735000000000097
 31
0.0
100
AcDbText
  0
TEXT
  5
1545
330
CA6
100
AcDbEntity
  8
TEXT
100
AcDbText
 10
7.979250000000003
 20
2.573000000000008
 30
0.0
 40
0.281
  1
* C
 41
0.75
 72
     4
 11
8.260250000000002
 21
2.713500000000008
 31
0.0
100
AcDbText
  0
TEXT
  5
1546
330
CA6
100
AcDbEntity
  8
TEXT
100
AcDbText
 10
7.908999999999998
 20
2.105000000000008
 30
0.0
 40
0.281
  1
1.218
 41
0.75
 72
     4
 11
8.260249999999999
 21
2.245500000000008
 31
0.0
100
AcDbText
  0
TEXT
  5
1547
330
CA6
100
AcDbEntity
  8
TEXT
100
AcDbText
 10
7.908999999999998
 20
1.637000000000008
 30
0.0
 40
0.281
  1
1.218
 41
0.75
 72
     4
 11
8.260249999999999
 21
1.777500000000008
 31
0.0
100
AcDbText
  0
TEXT
  5
1548
330
CA6
100
AcDbEntity
  8
TEXT
100
AcDbText
 10
9.482612500000007
 20
1.169000000000009
 30
0.0
 40
0.281
  1
2.062
 41
0.75
 72
     4
 11
9.886550000000006
 21
1.309500000000009
 31
0.0
100
AcDbText
  0
TEXT
  5
1549
330
CA6
100
AcDbEntity
  8
TEXT
100
AcDbText
 10
9.482612500000007
 20
0.7010000000000103
 30
0.0
 40
0.281
  1
2.062
 41
0.75
 72
     4
 11
9.886550000000006
 21
0.8415000000000102
 31
0.0
100
AcDbText
  0
TEXT
  5
154A
330
CA6
100
AcDbEntity
  8
TEXT
100
AcDbText
 10
9.482612500000012
 20
0.2330000000000109
 30
0.0
 40
0.281
  1
3.062
 41
0.75
 72
     4
 11
9.886550000000012
 21
0.373500000000011
 31
0.0
100
AcDbText
  0
TEXT
  5
154B
330
CA6
100
AcDbEntity
  8
TEXT
100
AcDbText
 10
9.816300000000012
 20
2.573000000000009
 30
0.0
 40
0.281
  1
D
 41
0.75
 72
     4
 11
9.886550000000012
 21
2.713500000000009
 31
0.0
100
AcDbText
  0
TEXT
  5
154C
330
CA6
100
AcDbEntity
  8
TEXT
100
AcDbText
 10
9.517737500000006
 20
2.105000000000009
 30
0.0
 40
0.281
  1
1.062
 41
0.75
 72
     4
 11
9.886550000000006
 21
2.245500000000009
 31
0.0
100
AcDbText
  0
TEXT
  5
154D
330
CA6
100
AcDbEntity
  8
TEXT
100
AcDbText
 10
9.517737500000006
 20
1.637000000000008
 30
0.0
 40
0.281
  1
1.062
 41
0.75
 72
     4
 11
9.886550000000006
 21
1.777500000000008
 31
0.0
100
AcDbText
  0
TEXT
  5
154E
330
CA6
100
AcDbEntity
  8
TEXT
100
AcDbText
 10
11.12647499999999
 20
1.169000000000008
 30
0.0
 40
0.281
  1
4.312
 41
0.75
 72
     4
 11
11.51284999999999
 21
1.309500000000008
 31
0.0
100
AcDbText
  0
TEXT
  5
154F
330
CA6
100
AcDbEntity
  8
TEXT
100
AcDbText
 10
11.14403749999999
 20
0.7010000000000105
 30
0.0
 40
0.281
  1
7.000
 41
0.75
 72
     4
 11
11.51284999999999
 21
0.8415000000000103
 31
0.0
100
AcDbText
  0
TEXT
  5
1550
330
CA6
100
AcDbEntity
  8
TEXT
100
AcDbText
 10
11.14403749999999
 20
0.2330000000000115
 30
0.0
 40
0.281
  1
7.000
 41
0.75
 72
     4
 11
11.51285
 21
0.3735000000000115
 31
0.0
100
AcDbText
  0
TEXT
  5
1551
330
CA6
100
AcDbEntity
  8
TEXT
100
AcDbText
 10
11.4426
 20
2.573000000000009
 30
0.0
 40
0.281
  1
E
 41
0.75
 72
     4
 11
11.51285
 21
2.713500000000009
 31
0.0
100
AcDbText
  0
TEXT
  5
1552
330
CA6
100
AcDbEntity
  8
TEXT
100
AcDbText
 10
11.10891249999998
 20
2.10500000000001
 30
0.0
 40
0.281
  1
3.250
 41
0.75
 72
     4
 11
11.51284999999999
 21
2.24550000000001
 31
0.0
100
AcDbText
  0
TEXT
  5
1553
330
CA6
100
AcDbEntity
  8
TEXT
100
AcDbText
 10
11.14403749999999
 20
1.63700000000001
 30
0.0
 40
0.281
  1
4.000
 41
0.75
 72
     4
 11
11.51284999999999
 21
1.77750000000001
 31
0.0
100
AcDbText
  0
TEXT
  5
1554
330
CA6
100
AcDbEntity
  8
TEXT
100
AcDbText
 10
12.75277499999999
 20
1.169000000000005
 30
0.0
 40
0.281
  1
3.312
 41
0.75
 72
     4
 11
13.13914999999999
 21
1.309500000000005
 31
0.0
100
AcDbText
  0
TEXT
  5
1555
330
CA6
100
AcDbEntity
  8
TEXT
100
AcDbText
 10
12.75277499999999
 20
0.7010000000000061
 30
0.0
 40
0.281
  1
4.312
 41
0.75
 72
     4
 11
13.13914999999999
 21
0.8415000000000061
 31
0.0
100
AcDbText
  0
TEXT
  5
1556
330
CA6
100
AcDbEntity
  8
TEXT
100
AcDbText
 10
12.752775
 20
0.233000000000007
 30
0.0
 40
0.281
  1
4.312
 41
0.75
 72
     4
 11
13.13915
 21
0.373500000000007
 31
0.0
100
AcDbText
  0
TEXT
  5
1557
330
CA6
100
AcDbEntity
  8
TEXT
100
AcDbText
 10
13.0689
 20
2.573000000000004
 30
0.0
 40
0.281
  1
F
 41
0.75
 72
     4
 11
13.13915
 21
2.713500000000004
 31
0.0
100
AcDbText
  0
TEXT
  5
1558
330
CA6
100
AcDbEntity
  8
TEXT
100
AcDbText
 10
12.78789999999998
 20
2.105000000000004
 30
0.0
 40
0.281
  1
1.125
 41
0.75
 72
     4
 11
13.13914999999999
 21
2.245500000000004
 31
0.0
100
AcDbText
  0
TEXT
  5
1559
330
CA6
100
AcDbEntity
  8
TEXT
100
AcDbText
 10
12.77033749999999
 20
1.637000000000004
 30
0.0
 40
0.281
  1
2.000
 41
0.75
 72
     4
 11
13.13914999999999
 21
1.777500000000004
 31
0.0
100
AcDbText
  0
TEXT
  5
155A
330
CA6
100
AcDbEntity
  8
TEXT
100
AcDbText
 10
14.48444999999999
 20
1.169000000000007
 30
0.0
 40
0.281
  1
---
 41
0.75
 72
     4
 11
14.76544999999999
 21
1.309500000000007
 31
0.0
100
AcDbText
  0
TEXT
  5
155B
330
CA6
100
AcDbEntity
  8
TEXT
100
AcDbText
 10
14.379075
 20
0.7010000000000078
 30
0.0
 40
0.281
  1
3.500
 41
0.75
 72
     4
 11
14.76544999999999
 21
0.8415000000000079
 31
0.0
100
AcDbText
  0
TEXT
  5
155C
330
CA6
100
AcDbEntity
  8
TEXT
100
AcDbText
 10
14.379075
 20
0.2330000000000088
 30
0.0
 40
0.281
  1
3.500
 41
0.75
 72
     4
 11
14.76544999999999
 21
0.3735000000000088
 31
0.0
100
AcDbText
  0
TEXT
  5
155D
330
CA6
100
AcDbEntity
  8
TEXT
100
AcDbText
 10
14.6952
 20
2.573000000000006
 30
0.0
 40
0.281
  1
G
 41
0.75
 72
     4
 11
14.76544999999999
 21
2.713500000000006
 31
0.0
100
AcDbText
  0
TEXT
  5
155E
330
CA6
100
AcDbEntity
  8
TEXT
100
AcDbText
 10
14.48444999999999
 20
2.105000000000007
 30
0.0
 40
0.281
  1
---
 41
0.75
 72
     4
 11
14.76544999999999
 21
2.245500000000006
 31
0.0
100
AcDbText
  0
TEXT
  5
155F
330
CA6
100
AcDbEntity
  8
TEXT
100
AcDbText
 10
14.48444999999999
 20
1.637000000000006
 30
0.0
 40
0.281
  1
---
 41
0.75
 72
     4
 11
14.76544999999999
 21
1.777500000000006
 31
0.0
100
AcDbText
  0
TEXT
  5
1560
330
CA6
100
AcDbEntity
  8
TEXT
100
AcDbText
 10
16.00537499999999
 20
1.169000000000009
 30
0.0
 40
0.281
  1
0.094
 41
0.75
 72
     4
 11
16.39174999999999
 21
1.309500000000009
 31
0.0
100
AcDbText
  0
TEXT
  5
1561
330
CA6
100
AcDbEntity
  8
TEXT
100
AcDbText
 10
16.00537499999999
 20
0.701000000000011
 30
0.0
 40
0.281
  1
0.094
 41
0.75
 72
     4
 11
16.39174999999999
 21
0.8415000000000109
 31
0.0
100
AcDbText
  0
TEXT
  5
1562
330
CA6
100
AcDbEntity
  8
TEXT
100
AcDbText
 10
16.00537499999999
 20
0.2330000000000119
 30
0.0
 40
0.281
  1
0.094
 41
0.75
 72
     4
 11
16.39174999999999
 21
0.3735000000000119
 31
0.0
100
AcDbText
  0
TEXT
  5
1563
330
CA6
100
AcDbEntity
  8
TEXT
100
AcDbText
 10
16.32149999999999
 20
2.573000000000009
 30
0.0
 40
0.281
  1
H
 41
0.75
 72
     4
 11
16.39174999999999
 21
2.713500000000009
 31
0.0
100
AcDbText
  0
TEXT
  5
1564
330
CA6
100
AcDbEntity
  8
TEXT
100
AcDbText
 10
16.00537499999999
 20
2.10500000000001
 30
0.0
 40
0.281
  1
0.062
 41
0.75
 72
     4
 11
16.39174999999999
 21
2.24550000000001
 31
0.0
100
AcDbText
  0
TEXT
  5
1565
330
CA6
100
AcDbEntity
  8
TEXT
100
AcDbText
 10
16.00537499999999
 20
1.63700000000001
 30
0.0
 40
0.281
  1
0.062
 41
0.75
 72
     4
 11
16.39174999999999
 21
1.77750000000001
 31
0.0
100
AcDbText
  0
TEXT
  5
1566
330
CA6
100
AcDbEntity
  8
TEXT
100
AcDbText
 10
17.63167500000001
 20
1.169000000000014
 30
0.0
 40
0.281
  1
0.078
 41
0.75
 72
     4
 11
18.01805000000001
 21
1.309500000000014
 31
0.0
100
AcDbText
  0
TEXT
  5
1567
330
CA6
100
AcDbEntity
  8
TEXT
100
AcDbText
 10
17.63167500000001
 20
0.7010000000000149
 30
0.0
 40
0.281
  1
0.078
 41
0.75
 72
     4
 11
18.01805000000001
 21
0.841500000000015
 31
0.0
100
AcDbText
  0
TEXT
  5
1568
330
CA6
100
AcDbEntity
  8
TEXT
100
AcDbText
 10
17.63167500000001
 20
0.2330000000000159
 30
0.0
 40
0.281
  1
0.078
 41
0.75
 72
     4
 11
18.01805000000002
 21
0.3735000000000159
 31
0.0
100
AcDbText
  0
TEXT
  5
1569
330
CA6
100
AcDbEntity
  8
TEXT
100
AcDbText
 10
17.94780000000002
 20
2.573000000000015
 30
0.0
 40
0.281
  1
J
 41
0.75
 72
     4
 11
18.01805000000002
 21
2.713500000000014
 31
0.0
100
AcDbText
  0
TEXT
  5
156A
330
CA6
100
AcDbEntity
  8
TEXT
100
AcDbText
 10
17.63167500000001
 20
2.105000000000015
 30
0.0
 40
0.281
  1
0.062
 41
0.75
 72
     4
 11
18.01805000000001
 21
2.245500000000015
 31
0.0
100
AcDbText
  0
TEXT
  5
156B
330
CA6
100
AcDbEntity
  8
TEXT
100
AcDbText
 10
17.63167500000001
 20
1.637000000000014
 30
0.0
 40
0.281
  1
0.078
 41
0.75
 72
     4
 11
18.01805000000001
 21
1.777500000000014
 31
0.0
100
AcDbText
  0
TEXT
  5
1681
330
CA6
100
AcDbEntity
  8
TEXT
100
AcDbText
 10
2.217250000000006
 20
0.2330000000000022
 30
0.0
 40
0.281
  1
CU-5347-B
 41
0.75
 72
     4
 11
3.130500000000006
 21
0.3735000000000022
 31
0.0
100
AcDbText
  0
TEXT
  5
1682
330
CA6
100
AcDbEntity
  8
TEXT
100
AcDbText
 10
2.217250000000001
 20
0.7010000000000021
 30
0.0
 40
0.281
  1
CU-5247-B
 41
0.75
 72
     4
 11
3.130500000000001
 21
0.841500000000002
 31
0.0
100
AcDbText
  0
TEXT
  5
1683
330
CA6
100
AcDbEntity
  8
TEXT
100
AcDbText
 10
2.217250000000001
 20
1.169000000000001
 30
0.0
 40
0.281
  1
CU-5234-B
 41
0.75
 72
     4
 11
3.130500000000001
 21
1.309500000000001
 31
0.0
100
AcDbText
  0
TEXT
  5
1684
330
CA6
100
AcDbEntity
  8
TEXT
100
AcDbText
 10
2.252375000000001
 20
1.637000000000002
 30
0.0
 40
0.281
  1
CU-5124-B
 41
0.75
 72
     4
 11
3.130500000000001
 21
1.777500000000002
 31
0.0
100
AcDbText
  0
TEXT
  5
1685
330
CA6
100
AcDbEntity
  8
TEXT
100
AcDbText
 10
2.252375000000001
 20
2.105000000000002
 30
0.0
 40
0.281
  1
CU-5123-B
 41
0.75
 72
     4
 11
3.130500000000001
 21
2.245500000000002
 31
0.0
100
AcDbText
  0
TEXT
  5
1686
330
CA6
100
AcDbEntity
  8
TEXT
100
AcDbText
 10
2.392875000000004
 20
2.573000000000001
 30
0.0
 40
0.281
  1
PART NO.
 41
0.75
 72
     4
 11
3.130500000000004
 21
2.713500000000001
 31
0.0
100
AcDbText
  0
LWPOLYLINE
  5
1C9E
330
CA6
100
AcDbEntity
  8
BEND
100
AcDbPolyline
 90
        6
 70
     0
 10
4.369404058880935
 20
21.51772153510739
 40
0.0
 41
0.151875
 10
4.774404058880937
 20
21.51772153510739
 40
0.0
 41
0.0
 10
5.142134108958659
 20
21.51772153510739
 40
0.0
 41
0.0
 10
5.142134108958659
 20
29.44003185388953
 40
0.0
 41
0.0
 10
4.774404058880937
 20
29.44003185388953
 40
0.15
 41
0.0
 10
4.369404058880935
 20
29.44003185388953
 40
0.0
 41
0.0
  0
LINE
  5
1D45
330
CA6
100
AcDbEntity
  8
TITLE
100
AcDbLine
 10
2.050500000000004
 20
2.947500000000001
 30
0.0
 11
2.050500000000004
 21
0.1395000000000026
 31
0.0
  0
TEXT
  5
2518
330
CA6
100
AcDbEntity
  8
TEXT
100
AcDbText
 10
21.9324375
 20
35.993375
 30
0.0
 40
0.351
  1
8-31-10
 41
0.75
 72
     4
 11
22.70024999999999
 21
36.168875
 31
0.0
100
AcDbText
  0
TEXT
  5
2801
330
CA6
100
AcDbEntity
  8
TEXT
100
AcDbText
 10
12.474383646566
 20
15.80357204177008
 30
0.0
 40
0.281
  1
SMOOTH BLACK (SUFFIX -B)
 41
0.75
100
AcDbText
  0
LINE
  5
2868
330
CA6
100
AcDbEntity
  8
TITLE
100
AcDbLine
 10
17.20489999999999
 20
2.947500000000004
 30
0.0
 11
17.20489999999999
 21
0.1395000000000044
 31
0.0
  0
LINE
  5
286A
330
CA6
100
AcDbEntity
  8
TITLE
100
AcDbLine
 10
13.95229999999999
 20
2.947500000000001
 30
0.0
 11
13.95229999999999
 21
0.1395000000000031
 31
0.0
  0
LINE
  5
286B
330
CA6
100
AcDbEntity
  8
TITLE
100
AcDbLine
 10
12.32599999999999
 20
2.947500000000002
 30
0.0
 11
12.32599999999999
 21
0.1395000000000044
 31
0.0
  0
LINE
  5
286C
330
CA6
100
AcDbEntity
  8
TITLE
100
AcDbLine
 10
10.6997
 20
2.947500000000001
 30
0.0
 11
10.6997
 21
0.1395000000000026
 31
0.0
  0
LINE
  5
286D
330
CA6
100
AcDbEntity
  8
TITLE
100
AcDbLine
 10
9.073400000000003
 20
2.947500000000001
 30
0.0
 11
9.073400000000003
 21
0.1395000000000026
 31
0.0
  0
LINE
  5
286E
330
CA6
100
AcDbEntity
  8
TITLE
100
AcDbLine
 10
7.447100000000002
 20
2.947500000000001
 30
0.0
 11
7.447100000000002
 21
0.1395000000000035
 31
0.0
  0
LINE
  5
286F
330
CA6
100
AcDbEntity
  8
TITLE
100
AcDbLine
 10
5.820800000000003
 20
2.947500000000001
 30
0.0
 11
5.820800000000004
 21
0.1395000000000031
 31
0.0
  0
LINE
  5
2870
330
CA6
100
AcDbEntity
  8
TITLE
100
AcDbLine
 10
4.194500000000005
 20
2.947500000000001
 30
0.0
 11
4.194500000000005
 21
0.1394999999999986
 31
0.0
  0
LINE
  5
29E0
330
CA6
100
AcDbEntity
  8
COVER
100
AcDbLine
 10
9.068825243610502
 20
29.20795604953925
 30
0.0
 11
3.562825243610499
 21
29.20795604953925
 31
0.0
  0
LINE
  5
29E1
330
CA6
100
AcDbEntity
  8
COVER
100
AcDbLine
 10
3.500325243610499
 20
29.14545604953925
 30
0.0
 11
3.500325243610499
 21
28.90545604953925
 31
0.0
  0
LINE
  5
29E3
330
CA6
100
AcDbEntity
  8
COVER
100
AcDbLine
 10
9.131325243610502
 20
29.14545604953925
 30
0.0
 11
9.131325243610502
 21
28.90545604953925
 31
0.0
  0
LINE
  5
29E4
330
CA6
100
AcDbEntity
  8
COVER
100
AcDbLine
 10
9.068825243610502
 20
21.81795604953923
 30
0.0
 11
3.562825243610499
 21
21.81795604953923
 31
0.0
  0
LINE
  5
29E5
330
CA6
100
AcDbEntity
  8
COVER
100
AcDbLine
 10
3.500325243610499
 20
21.88045604953923
 30
0.0
 11
3.500325243610499
 21
22.12045604953923
 31
0.0
  0
LINE
  5
29E6
330
CA6
100
AcDbEntity
  8
COVER
100
AcDbLine
 10
9.131325243610502
 20
21.88045604953923
 30
0.0
 11
9.131325243610502
 21
22.12045604953923
 31
0.0
  0
LINE
  5
29E7
330
CA6
100
AcDbEntity
  8
COVER
100
AcDbLine
 10
3.562825243610501
 20
28.84295604953925
 30
0.0
 11
3.776575243610503
 21
28.84295604953926
 31
0.0
  0
LINE
  5
29E8
330
CA6
100
AcDbEntity
  8
COVER
100
AcDbLine
 10
9.068825243610502
 20
22.18295604953923
 30
0.0
 11
8.855075243610501
 21
22.18295604953923
 31
0.0
  0
LINE
  5
29E9
330
CA6
100
AcDbEntity
  8
COVER
100
AcDbLine
 10
3.776575243610503
 20
22.18295604953923
 30
0.0
 11
3.562825243610499
 21
22.18295604953923
 31
0.0
  0
LINE
  5
29EA
330
CA6
100
AcDbEntity
  8
COVER
100
AcDbLine
 10
8.855075243610501
 20
28.84295604953925
 30
0.0
 11
9.068825243610502
 21
28.84295604953925
 31
0.0
  0
ARC
  5
29EB
330
CA6
100
AcDbEntity
  8
COVER
100
AcDbCircle
 10
3.776575243610503
 20
28.65495604953926
 30
0.0
 40
0.188
100
AcDbArc
 50
0.0
 51
90.0
  0
ARC
  5
29EC
330
CA6
100
AcDbEntity
  8
COVER
100
AcDbCircle
 10
3.776575243610503
 20
22.37095604953923
 30
0.0
 40
0.188
100
AcDbArc
 50
270.0
 51
0.0
  0
ARC
  5
29ED
330
CA6
100
AcDbEntity
  8
COVER
100
AcDbCircle
 10
8.855075243610501
 20
22.37095604953923
 30
0.0
 40
0.188
100
AcDbArc
 50
180.0
 51
270.0
  0
ARC
  5
29EE
330
CA6
100
AcDbEntity
  8
COVER
100
AcDbCircle
 10
8.855075243610501
 20
28.65495604953925
 30
0.0
 40
0.188
100
AcDbArc
 50
90.0
 51
180.0
  0
ARC
  5
29EF
330
CA6
100
AcDbEntity
  8
COVER
100
AcDbCircle
 10
3.562825243610499
 20
29.14545604953925
 30
0.0
 40
0.0625
100
AcDbArc
 50
90.0
 51
180.0
  0
ARC
  5
29F0
330
CA6
100
AcDbEntity
  8
COVER
100
AcDbCircle
 10
3.562825243610499
 20
28.90545604953925
 30
0.0
 40
0.0625
100
AcDbArc
 50
180.0
 51
270.0000000000014
  0
ARC
  5
29F1
330
CA6
100
AcDbEntity
  8
COVER
100
AcDbCircle
 10
3.562825243610499
 20
22.12045604953923
 30
0.0
 40
0.0625
100
AcDbArc
 50
90.00000000000074
 51
180.0
  0
ARC
  5
29F2
330
CA6
100
AcDbEntity
  8
COVER
100
AcDbCircle
 10
3.562825243610499
 20
21.88045604953923
 30
0.0
 40
0.0625
100
AcDbArc
 50
180.0
 51
270.0
  0
ARC
  5
29F3
330
CA6
100
AcDbEntity
  8
COVER
100
AcDbCircle
 10
9.068825243610502
 20
21.88045604953923
 30
0.0
 40
0.0625
100
AcDbArc
 50
270.0
 51
0.0
  0
ARC
  5
29F4
330
CA6
100
AcDbEntity
  8
COVER
100
AcDbCircle
 10
9.068825243610502
 20
22.12045604953923
 30
0.0
 40
0.0625
100
AcDbArc
 50
0.0
 51
89.99999999999927
  0
ARC
  5
29F5
330
CA6
100
AcDbEntity
  8
COVER
100
AcDbCircle
 10
9.068825243610502
 20
28.90545604953925
 30
0.0
 40
0.0625
100
AcDbArc
 50
270.0
 51
0.0
  0
ARC
  5
29F6
330
CA6
100
AcDbEntity
  8
COVER
100
AcDbCircle
 10
9.068825243610502
 20
29.14545604953925
 30
0.0
 40
0.0625
100
AcDbArc
 50
0.0
 51
90.0
  0
CIRCLE
  5
2A08
330
CA6
100
AcDbEntity
  8
COVER
100
AcDbCircle
 10
3.752325243610501
 20
29.02045604953925
 30
0.0
 40
0.1325
  0
CIRCLE
  5
2A09
330
CA6
100
AcDbEntity
  8
COVER
100
AcDbCircle
 10
3.752325243610501
 20
29.02045604953925
 30
0.0
 40
0.075
  0
CIRCLE
  5
2A0B
330
CA6
100
AcDbEntity
  8
COVER
100
AcDbCircle
 10
3.752325243610501
 20
22.00545604953923
 30
0.0
 40
0.1325
  0
CIRCLE
  5
2A0C
330
CA6
100
AcDbEntity
  8
COVER
100
AcDbCircle
 10
3.752325243610501
 20
22.00545604953923
 30
0.0
 40
0.075
  0
CIRCLE
  5
2A0D
330
CA6
100
AcDbEntity
  8
COVER
100
AcDbCircle
 10
8.879325243610551
 20
29.02045604953925
 30
0.0
 40
0.075
  0
CIRCLE
  5
2A0E
330
CA6
100
AcDbEntity
  8
COVER
100
AcDbCircle
 10
8.879325243610551
 20
29.02045604953925
 30
0.0
 40
0.1325
  0
CIRCLE
  5
2A0F
330
CA6
100
AcDbEntity
  8
COVER
100
AcDbCircle
 10
8.879325243610551
 20
22.00545604953923
 30
0.0
 40
0.075
  0
CIRCLE
  5
2A10
330
CA6
100
AcDbEntity
  8
COVER
100
AcDbCircle
 10
8.879325243610551
 20
22.00545604953923
 30
0.0
 40
0.1325
  0
DIMENSION
  5
2A11
330
CA6
100
AcDbEntity
  8
DIM
100
AcDbDimension
  2
*D25
 10
8.879325243610551
 20
21.03764933341314
 30
0.0
 11
6.315825243610527
 21
21.03764933341314
 31
0.0
 70
    32
  1
K
  3
23NSTD
100
AcDbAlignedDimension
 13
3.752325243610501
 23
22.00545604953923
 33
0.0
 14
8.879325243610551
 24
22.00545604953923
 34
0.0
100
AcDbRotatedDimension
  0
DIMENSION
  5
2A1F
330
CA6
100
AcDbEntity
  8
DIM
100
AcDbDimension
  2
*D26
 10
0.6512920547368737
 20
22.00545604953923
 30
0.0
 11
0.6512920547368704
 21
25.52689422356745
 31
0.0
 70
   160
  1
L
  3
23NSTD
100
AcDbAlignedDimension
 13
3.752325243610501
 23
29.02045604953925
 33
0.0
 14
3.752325243610501
 24
22.00545604953923
 34
0.0
 50
90.0
100
AcDbRotatedDimension
  0
DIMENSION
  5
2A2D
330
CA6
100
AcDbEntity
  8
DIM
100
AcDbDimension
  2
*D27
 10
3.500325243610499
 20
31.78848096783494
 30
0.0
 11
6.0837002436105
 21
31.78848096783494
 31
0.0
 70
   160
  1
M
  3
23NSTD
100
AcDbAlignedDimension
 13
8.667075243610502
 23
28.65495604953925
 33
0.0
 14
3.500325243610499
 24
29.14545604953925
 34
0.0
100
AcDbRotatedDimension
  0
DIMENSION
  5
2A3B
330
CA6
100
AcDbEntity
  8
DIM
100
AcDbDimension
  2
*D28
 10
3.500325243610499
 20
31.08354221723576
 30
0.0
 11
2.083528368610499
 21
31.08354221723576
 31
0.0
 70
    32
  3
23NSTD
100
AcDbAlignedDimension
 13
3.752325243610501
 23
29.02045604953925
 33
0.0
 14
3.500325243610499
 24
29.14545604953925
 34
0.0
100
AcDbRotatedDimension
  0
DIMENSION
  5
2A7B
330
CA6
100
AcDbEntity
  8
DIM
100
AcDbDimension
  2
*D29
 10
3.766086231993687
 20
29.09418280993683
 30
0.0
 11
1.998070580688906
 21
28.15048027684818
 31
0.0
 70
    35
  1
<> THRU
  3
23NSTD
100
AcDbDiametricDimension
 15
3.738564255227315
 25
28.94672928914173
 35
0.0
 40
0.0
1001
ACAD
1000
DSTYLE
1002
{
1070
   141
1040
0.0
1002
}
  0
TEXT
  5
2AAF
330
CA6
100
AcDbEntity
  8
DIM
100
AcDbText
 10
0.7244627457661747
 20
27.53244434367745
 30
0.0
 40
0.28125
  1
(4) C-SINK HOLES
 41
0.75
 11
0.7244627457661747
 21
27.67306934367745
 31
0.0
100
AcDbText
 73
     2
  0
DIMENSION
  5
2ABA
330
CA6
100
AcDbEntity
  8
DIM
100
AcDbDimension
  2
*D30
 10
3.776575243610482
 20
22.37095604953926
 30
0.0
 11
2.871349929812371
 21
23.39512069205068
 31
0.0
 70
   164
  3
23NSTD
100
AcDbRadialDimension
 15
3.90107998092929
 25
22.23009239068721
 35
0.0
 40
0.0
1001
ACAD
1000
DSTYLE
1002
{
1070
   287
1070
     4
1070
   279
1070
     1
1002
}
  0
DIMENSION
  5
2AC4
330
CA6
100
AcDbEntity
  8
DIM
100
AcDbDimension
  2
*D31
 10
2.576679128094211
 20
21.81795604953923
 30
0.0
 11
1.564882253094208
 21
21.00795604953924
 31
0.0
 70
    32
  3
23NSTD
100
AcDbAlignedDimension
 13
3.562825243610498
 23
22.18295604953923
 33
0.0
 14
3.562825243610499
 24
21.81795604953923
 34
0.0
 50
90.0
100
AcDbRotatedDimension
  0
LINE
  5
2F39
330
CA6
100
AcDbEntity
  8
TITLE
100
AcDbLine
 10
22.0838
 20
2.947500000000001
 30
0.0
 11
22.08380000000001
 21
0.1395000000000044
 31
0.0
  0
LINE
  5
2F3A
330
CA6
100
AcDbEntity
  8
TITLE
100
AcDbLine
 10
20.45750000000001
 20
2.947500000000004
 30
0.0
 11
20.45750000000001
 21
0.1395000000000062
 31
0.0
  0
LINE
  5
2F3B
330
CA6
100
AcDbEntity
  8
TITLE
100
AcDbLine
 10
18.83119999999999
 20
2.947500000000001
 30
0.0
 11
18.83119999999999
 21
0.1395000000000044
 31
0.0
  0
TEXT
  5
2F3C
330
CA6
100
AcDbEntity
  8
TEXT
100
AcDbText
 10
19.25797499999998
 20
0.2330000000000115
 30
0.0
 40
0.281
  1
5.172
 41
0.75
 72
     4
 11
19.64434999999999
 21
0.3735000000000115
 31
0.0
100
AcDbText
  0
TEXT
  5
2F3D
330
CA6
100
AcDbEntity
  8
TEXT
100
AcDbText
 10
19.25797499999998
 20
0.7010000000000114
 30
0.0
 40
0.281
  1
5.172
 41
0.75
 72
     4
 11
19.64434999999999
 21
0.8415000000000112
 31
0.0
100
AcDbText
  0
TEXT
  5
2F3E
330
CA6
100
AcDbEntity
  8
TEXT
100
AcDbText
 10
20.88427499999999
 20
0.2330000000000133
 30
0.0
 40
0.281
  1
7.020
 41
0.75
 72
     4
 11
21.27064999999999
 21
0.3735000000000133
 31
0.0
100
AcDbText
  0
TEXT
  5
2F3F
330
CA6
100
AcDbEntity
  8
TEXT
100
AcDbText
 10
20.88427499999999
 20
0.7010000000000132
 30
0.0
 40
0.281
  1
7.020
 41
0.75
 72
     4
 11
21.27064999999999
 21
0.8415000000000132
 31
0.0
100
AcDbText
  0
TEXT
  5
2F43
330
CA6
100
AcDbEntity
  8
TEXT
100
AcDbText
 10
19.22284999999998
 20
1.63700000000001
 30
0.0
 40
0.281
  1
2.844
 41
0.75
 72
     4
 11
19.64434999999999
 21
1.77750000000001
 31
0.0
100
AcDbText
  0
TEXT
  5
2F44
330
CA6
100
AcDbEntity
  8
TEXT
100
AcDbText
 10
19.25797499999998
 20
2.105000000000011
 30
0.0
 40
0.281
  1
1.968
 41
0.75
 72
     4
 11
19.64434999999999
 21
2.24550000000001
 31
0.0
100
AcDbText
  0
TEXT
  5
2F45
330
CA6
100
AcDbEntity
  8
TEXT
100
AcDbText
 10
19.25797499999998
 20
1.169000000000011
 30
0.0
 40
0.281
  1
4.156
 41
0.75
 72
     4
 11
19.64434999999999
 21
1.309500000000011
 31
0.0
100
AcDbText
  0
TEXT
  5
2F48
330
CA6
100
AcDbEntity
  8
TEXT
100
AcDbText
 10
19.57409999999999
 20
2.573000000000011
 30
0.0
 40
0.281
  1
K
 41
0.75
 72
     4
 11
19.64434999999999
 21
2.71350000000001
 31
0.0
100
AcDbText
  0
TEXT
  5
2F4C
330
CA6
100
AcDbEntity
  8
TEXT
100
AcDbText
 10
20.9018375
 20
1.637000000000013
 30
0.0
 40
0.281
  1
4.000
 41
0.75
 72
     4
 11
21.27064999999999
 21
1.777500000000013
 31
0.0
100
AcDbText
  0
TEXT
  5
2F4D
330
CA6
100
AcDbEntity
  8
TEXT
100
AcDbText
 10
20.86671249999999
 20
2.105000000000013
 30
0.0
 40
0.281
  1
3.250
 41
0.75
 72
     4
 11
21.27064999999999
 21
2.245500000000013
 31
0.0
100
AcDbText
  0
TEXT
  5
2F4E
330
CA6
100
AcDbEntity
  8
TEXT
100
AcDbText
 10
20.9018375
 20
1.169000000000014
 30
0.0
 40
0.281
  1
4.310
 41
0.75
 72
     4
 11
21.27064999999999
 21
1.309500000000014
 31
0.0
100
AcDbText
  0
TEXT
  5
2F51
330
CA6
100
AcDbEntity
  8
TEXT
100
AcDbText
 10
21.2004
 20
2.573000000000013
 30
0.0
 40
0.281
  1
L
 41
0.75
 72
     4
 11
21.27065000000001
 21
2.713500000000013
 31
0.0
100
AcDbText
  0
TEXT
  5
2F52
330
CA6
100
AcDbEntity
  8
TEXT
100
AcDbText
 10
22.5281375
 20
0.7010000000000043
 30
0.0
 40
0.281
  1
5.190
 41
0.75
 72
     4
 11
22.89695
 21
0.8415000000000041
 31
0.0
100
AcDbText
  0
TEXT
  5
2F53
330
CA6
100
AcDbEntity
  8
TEXT
100
AcDbText
 10
22.5281375
 20
0.2330000000000044
 30
0.0
 40
0.281
  1
5.190
 41
0.75
 72
     4
 11
22.89695
 21
0.3735000000000044
 31
0.0
100
AcDbText
  0
TEXT
  5
2F54
330
CA6
100
AcDbEntity
  8
TEXT
100
AcDbText
 10
22.51057499999999
 20
2.105000000000003
 30
0.0
 40
0.281
  1
1.986
 41
0.75
 72
     4
 11
22.89695
 21
2.245500000000003
 31
0.0
100
AcDbText
  0
TEXT
  5
2F55
330
CA6
100
AcDbEntity
  8
TEXT
100
AcDbText
 10
22.47545
 20
1.637000000000004
 30
0.0
 40
0.281
  1
2.862
 41
0.75
 72
     4
 11
22.89695
 21
1.777500000000004
 31
0.0
100
AcDbText
  0
TEXT
  5
2F56
330
CA6
100
AcDbEntity
  8
TEXT
100
AcDbText
 10
22.51057499999999
 20
1.169000000000004
 30
0.0
 40
0.281
  1
4.174
 41
0.75
 72
     4
 11
22.89695
 21
1.309500000000004
 31
0.0
100
AcDbText
  0
TEXT
  5
2F5B
330
CA6
100
AcDbEntity
  8
TEXT
100
AcDbText
 10
22.8267
 20
2.573000000000004
 30
0.0
 40
0.281
  1
M
 41
0.75
 72
     4
 11
22.89695000000001
 21
2.713500000000004
 31
0.0
100
AcDbText
  0
ELLIPSE
  5
338D
330
CA6
100
AcDbEntity
  8
OBJECT
100
AcDbEllipse
 10
16.4251590146685
 20
25.97951500954676
 30
0.0
 11
-0.0710411464041907
 21
0.0
 31
0.0
210
0.0
220
0.0
230
1.0
 40
0.5773502691896386
 41
0.7853981633974226
 42
2.356194490192371
  0
ELLIPSE
  5
338E
330
CA6
100
AcDbEntity
  8
OBJECT
100
AcDbEllipse
 10
16.43830162675324
 20
26.12597304702755
 30
0.0
 11
-0.0852493756850326
 21
0.0
 31
0.0
210
0.0
220
0.0
230
1.0
 40
0.5773502691895805
 41
0.0
 42
6.283185307179585
  0
ELLIPSE
  5
338F
330
CA6
100
AcDbEntity
  8
OBJECT
100
AcDbEllipse
 10
16.42304807774674
 20
25.82473375954675
 30
0.0
 11
-0.0710411464041907
 21
0.0
 31
0.0
210
0.0
220
0.0
230
1.0
 40
0.5773502691896386
 41
0.7853981633974226
 42
2.356194490192371
  0
ELLIPSE
  5
33A4
330
CA6
100
AcDbEntity
  8
OBJECT
100
AcDbEllipse
 10
16.69197438884681
 20
26.13356093765255
 30
0.0
 11
-0.0710411464041907
 21
0.0000000000000029
 31
0.0
210
0.0
220
0.0
230
1.0
 40
0.577350269189651
 41
2.356194490192426
 42
3.926990816987296
  0
ELLIPSE
  5
33A5
330
CA6
100
AcDbEntity
  8
OBJECT
100
AcDbEllipse
 10
16.69197438884681
 20
25.97999843765254
 30
0.0
 11
0.0710411464041907
 21
0.000000000000002
 31
0.0
210
0.0
220
0.0
230
1.0
 40
0.5773502691896965
 41
-0.7853981633974053
 42
-0.0000000000000484
  0
ELLIPSE
  5
33A6
330
CA6
100
AcDbEntity
  8
OBJECT
100
AcDbEllipse
 10
16.78303626273201
 20
26.313469791654
 30
0.0
 11
-0.2136917683838124
 21
0.0
 31
0.0
210
0.0
220
0.0
230
1.0
 40
0.5773502691896066
 41
-0.7853981633974473
 42
0.7853981633974471
  0
LINE
  5
33A7
330
CA6
100
AcDbEntity
  8
OBJECT
100
AcDbLine
 10
16.74220806521247
 20
26.16256336422464
 30
0.0
 11
16.63193336422408
 21
26.2262304925251
 31
0.0
  0
LINE
  5
33A8
330
CA6
100
AcDbEntity
  8
OBJECT
100
AcDbLine
 10
16.47328175411242
 20
25.79573133297464
 30
0.0
 11
16.74220806521246
 21
25.95099601108044
 31
0.0
  0
LINE
  5
33A9
330
CA6
100
AcDbEntity
  8
OBJECT
100
AcDbLine
 10
16.47539269103415
 20
25.95051258297465
 30
0.0
 11
16.74220806521247
 21
26.10455851108044
 31
0.0
  0
LINE
  5
33AA
330
CA6
100
AcDbEntity
  8
OBJECT
100
AcDbLine
 10
16.76301553525099
 20
26.13356093765287
 30
0.0
 11
16.76301553525099
 21
25.97999843765288
 31
0.0
  0
ELLIPSE
  5
33C0
330
CA6
100
AcDbEntity
  8
OBJECT
100
AcDbEllipse
 10
17.77106947484971
 20
31.93586822915401
 30
0.0
 11
-0.2136917683838124
 21
0.0
 31
0.0
210
0.0
220
0.0
230
1.0
 40
0.5773502691896272
 41
2.356194490192363
 42
3.926990816987221
  0
LINE
  5
33C1
330
CA6
100
AcDbEntity
  8
OBJECT
100
AcDbLine
 10
18.07871304654766
 20
32.29882543783328
 30
0.0
 11
17.81189767236935
 21
32.14477950972751
 31
0.0
  0
LINE
  5
33D8
330
CA6
100
AcDbEntity
  8
OBJECT
100
AcDbLine
 10
17.79109020233082
 20
32.11577708315508
 30
0.0
 11
17.79109020233082
 21
31.96221458315509
 31
0.0
  0
ELLIPSE
  5
33D9
330
CA6
100
AcDbEntity
  8
OBJECT
100
AcDbEllipse
 10
17.86213134873503
 20
31.96221458315541
 30
0.0
 11
-0.0710411464041907
 21
0.0
 31
0.0
210
0.0
220
0.0
230
1.0
 40
0.5773502691896386
 41
6.283185307179585
 42
7.068583470577007
  0
ELLIPSE
  5
33DA
330
CA6
100
AcDbEntity
  8
OBJECT
100
AcDbEllipse
 10
17.86213134873503
 20
32.11577708315541
 30
0.0
 11
-0.0710411464041907
 21
0.0
 31
0.0
210
0.0
220
0.0
230
1.0
 40
0.5773502691896386
 41
5.497787143782117
 42
7.068583470577007
  0
LINE
  5
33DB
330
CA6
100
AcDbEntity
  8
OBJECT
100
AcDbLine
 10
17.81189767236935
 20
32.0867746565833
 30
0.0
 11
17.92217237335766
 21
32.0231075282829
 31
0.0
  0
LINE
  5
33DC
330
CA6
100
AcDbEntity
  8
OBJECT
100
AcDbLine
 10
17.81189767236935
 20
31.93321215658331
 30
0.0
 11
17.92217237335766
 21
31.86954502828291
 31
0.0
  0
ELLIPSE
  5
33F4
330
CA6
100
AcDbEntity
  8
OBJECT
100
AcDbEllipse
 10
18.11580411082857
 20
32.12336497378041
 30
0.0
 11
-0.0852493756850326
 21
0.0
 31
0.0
210
0.0
220
0.0
230
1.0
 40
0.5773502691895805
 41
0.0
 42
6.283185307179585
  0
ELLIPSE
  5
33F5
330
CA6
100
AcDbEntity
  8
OBJECT
100
AcDbEllipse
 10
18.12894672291332
 20
32.26982301126118
 30
0.0
 11
-0.0710411464041907
 21
0.0
 31
0.0
210
0.0
220
0.0
230
1.0
 40
0.5773502691896386
 41
3.926990816987214
 42
5.497787143782117
  0
LINE
  5
3406
330
CA6
100
AcDbEntity
  8
OBJECT
100
AcDbLine
 10
22.42854890922945
 20
29.26778732222752
 30
0.0
 11
22.2994065812935
 21
29.34234768002511
 31
0.0
  0
LINE
  5
3407
330
CA6
100
AcDbEntity
  8
OBJECT
100
AcDbLine
 10
22.42854890922945
 20
29.42134982222751
 30
0.0
 11
22.29729564437177
 21
29.4971289300251
 31
0.0
  0
ELLIPSE
  5
3408
330
CA6
100
AcDbEntity
  8
OBJECT
100
AcDbEllipse
 10
22.14830368278556
 20
29.25510838089622
 30
0.0
 11
-0.2136917683838124
 21
0.0
 31
0.0
210
0.0
220
0.0
230
1.0
 40
0.5773502691896272
 41
3.926990816987221
 42
5.497787143782156
  0
ELLIPSE
  5
3409
330
CA6
100
AcDbEntity
  8
OBJECT
100
AcDbEllipse
 10
22.14619274586382
 20
29.40988963089622
 30
0.0
 11
-0.2136917683838124
 21
0.0
 31
0.0
210
0.0
220
0.0
230
1.0
 40
0.5773502691896272
 41
3.926990816987221
 42
5.497787143782156
  0
LINE
  5
340A
330
CA6
100
AcDbEntity
  8
OBJECT
100
AcDbLine
 10
22.52901626196079
 20
29.26778732222752
 30
0.0
 11
22.7958316361391
 21
29.42183325033331
 31
0.0
  0
LINE
  5
340B
330
CA6
100
AcDbEntity
  8
OBJECT
100
AcDbLine
 10
22.52901626196078
 20
29.4213498222275
 30
0.0
 11
22.7958316361391
 21
29.57539575033329
 31
0.0
  0
ELLIPSE
  5
340C
330
CA6
100
AcDbEntity
  8
OBJECT
100
AcDbEllipse
 10
22.49192519767987
 20
29.59681028628041
 30
0.0
 11
-0.0852493756850326
 21
0.0
 31
0.0
210
0.0
220
0.0
230
1.0
 40
0.5773502691895805
 41
0.0
 42
6.283185307179585
  0
ELLIPSE
  5
340D
330
CA6
100
AcDbEntity
  8
OBJECT
100
AcDbEllipse
 10
22.47878258559512
 20
29.29678974879962
 30
0.0
 11
-0.0710411464041907
 21
0.0
 31
0.0
210
0.0
220
0.0
230
1.0
 40
0.5773502691896386
 41
0.7853981633974226
 42
2.356194490192371
  0
ELLIPSE
  5
340E
330
CA6
100
AcDbEntity
  8
OBJECT
100
AcDbEllipse
 10
22.47878258559512
 20
29.45035224879962
 30
0.0
 11
-0.0710411464041907
 21
0.0
 31
0.0
210
0.0
220
0.0
230
1.0
 40
0.5773502691896386
 41
0.7853981633974226
 42
2.356194490192371
  0
LINE
  5
340F
330
CA6
100
AcDbEntity
  8
OBJECT
100
AcDbLine
 10
22.81663910617762
 20
29.60439817690573
 30
0.0
 11
22.81663910617762
 21
29.45083567690574
 31
0.0
  0
ELLIPSE
  5
3410
330
CA6
100
AcDbEntity
  8
OBJECT
100
AcDbEllipse
 10
22.74559795977342
 20
29.45083567690541
 30
0.0
 11
-0.0710411464041907
 21
0.0
 31
0.0
210
0.0
220
0.0
230
1.0
 40
0.5773502691896386
 41
2.356194490192371
 42
3.141592653589792
  0
ELLIPSE
  5
3411
330
CA6
100
AcDbEntity
  8
OBJECT
100
AcDbEllipse
 10
22.74559795977342
 20
29.6043981769054
 30
0.0
 11
-0.0710411464041907
 21
0.0
 31
0.0
210
0.0
220
0.0
230
1.0
 40
0.5773502691896386
 41
2.356194490192371
 42
3.926990816987214
  0
ELLIPSE
  5
341B
330
CA6
100
AcDbEntity
  8
OBJECT
100
AcDbEllipse
 10
12.07668984470942
 20
28.79977483241976
 30
0.0
 11
-0.0710411464041907
 21
0.0
 31
0.0
210
0.0
220
0.0
230
1.0
 40
0.5773502691896386
 41
3.926990816987214
 42
5.497787143782117
  0
ELLIPSE
  5
341C
330
CA6
100
AcDbEntity
  8
OBJECT
100
AcDbEllipse
 10
12.07552277270742
 20
28.66023087622945
 30
0.0
 11
-0.0852493756850326
 21
0.0
 31
0.0
210
0.0
220
0.0
230
1.0
 40
0.5773502691895805
 41
0.0
 42
6.283185307179585
  0
LINE
  5
341D
330
CA6
100
AcDbEntity
  8
OBJECT
100
AcDbLine
 10
11.78359187433094
 20
28.68855949346702
 30
0.0
 11
12.02645616834377
 21
28.82877725899188
 31
0.0
  0
ELLIPSE
  5
341E
330
CA6
100
AcDbEntity
  8
OBJECT
100
AcDbEllipse
 10
11.85914332358491
 20
28.64493984390259
 30
0.0
 11
-0.1068458841919062
 21
0.0
 31
0.0
210
0.0
220
0.0
230
1.0
 40
0.5773502691896272
 41
5.497787143782156
 42
7.068583470577014
  0
ELLIPSE
  5
341F
330
CA6
100
AcDbEntity
  8
OBJECT
100
AcDbEllipse
 10
11.85914332358491
 20
28.48893984390258
 30
0.0
 11
-0.1068458841919062
 21
0.0
 31
0.0
210
0.0
220
0.0
230
1.0
 40
0.5773502691896272
 41
6.283185307179585
 42
7.068583470577014
  0
LINE
  5
3420
330
CA6
100
AcDbEntity
  8
OBJECT
100
AcDbLine
 10
11.752297439393
 20
28.64493984390207
 30
0.0
 11
11.752297439393
 21
28.48893984390258
 31
0.0
  0
LINE
  5
3421
330
CA6
100
AcDbEntity
  8
OBJECT
100
AcDbLine
 10
12.1139189526503
 20
28.83470732924984
 30
0.0
 11
12.25681627405503
 21
28.75220552227034
 31
0.0
  0
ELLIPSE
  5
3422
330
CA6
100
AcDbEntity
  8
OBJECT
100
AcDbEllipse
 10
12.40791917256297
 20
28.83944482139924
 30
0.0
 11
-0.2136917683838124
 21
0.0
 31
0.0
210
0.0
220
0.0
230
1.0
 40
0.5773502691896272
 41
0.7853981633974292
 42
2.356194490192363
  0
LINE
  5
3450
330
CA6
100
AcDbEntity
  8
TITLE
100
AcDbLine
 10
15.57859999999999
 20
2.947500000000001
 30
0.0
 11
15.57859999999999
 21
0.1395000000000022
 31
0.0
  0
TEXT
  5
3552
330
CA6
100
AcDbEntity
  8
BEND
100
AcDbText
 10
5.255508891426771
 20
21.37722153510738
 30
0.0
 40
0.281
  1
A
 41
0.75
 72
     4
 11
5.325758891426771
 21
21.51772153510739
 31
0.0
100
AcDbText
  0
ELLIPSE
  5
355E
330
CA6
100
AcDbEntity
  8
OBJECT
100
AcDbEllipse
 10
17.77106947484971
 20
31.78230572915401
 30
0.0
 11
-0.2136917683838124
 21
0.0
 31
0.0
210
0.0
220
0.0
230
1.0
 40
0.5773502691896272
 41
3.813321832077268
 42
3.926990816987221
  0
INSERT
  5
3958
330
CA6
100
AcDbEntity
  8
DIM
100
AcDbBlockReference
  2
HB
 10
0.0
 20
0.0
 30
0.0
 41
2.375
 42
2.375
 43
2.375
  0
LINE
  5
396F
330
CA6
100
AcDbEntity
  8
DIM
100
AcDbLine
 10
14.29865633290841
 20
7.826898400547378
 30
0.0
 11
14.29865633290841
 21
7.169798802385898
 31
0.0
  0
DIMENSION
  5
3970
330
CA6
100
AcDbEntity
  8
DIM
100
AcDbDimension
  2
*D33
 10
14.36646766345864
 20
6.927498848532955
 30
0.0
 11
11.76377939192602
 21
6.021246612278144
 31
0.0
 70
    34
  1
<> DRAFT\P(TYP. INSIDE)
  3
23NSTD
100
AcDb2LineAngularDimension
 13
14.29865633290841
 23
7.826898400547378
 33
0.0
 14
14.29865633290841
 24
7.580091543648961
 34
0.0
 15
14.29865633290841
 25
8.869361285620774
 35
0.0
 16
14.36750872244507
 26
5.911181896809996
 36
0.0
1001
ACAD
1000
DSTYLE
1002
{
1070
   271
1070
     0
1002
}
  0
ENDSEC
  0
SECTION
  2
OBJECTS
  0
DICTIONARY
  5
C94
330
0
100
AcDbDictionary
  3
ACAD_GROUP
350
C95
  3
ACAD_LAYOUT
350
CA1
  3
ACAD_MLINESTYLE
350
C9E
  3
ACAD_PLOTSETTINGS
350
CA0
  3
ACAD_PLOTSTYLENAME
350
C96
  3
ACDBVARIABLEDICTIONARY
350
279B
  3
ACDBHEADERROUNDTRIPXREC
350
39B2
  0
DICTIONARY
  5
39D5
330
CA6
100
AcDbDictionary
280
     1
  3
ACAD_LAYOUTSELFREF
360
39D6
  0
DICTIONARY
  5
39D3
330
CA2
100
AcDbDictionary
280
     1
  3
ACAD_LAYOUTSELFREF
360
39D4
  0
DICTIONARY
  5
C95
102
{ACAD_REACTORS
330
C94
102
}
330
C94
100
AcDbDictionary
  0
DICTIONARY
  5
CA1
102
{ACAD_REACTORS
330
C94
102
}
330
C94
100
AcDbDictionary
  0
DICTIONARY
  5
C9E
102
{ACAD_REACTORS
330
C94
102
}
330
C94
100
AcDbDictionary
  3
STANDARD
350
C9F
  0
DICTIONARY
  5
CA0
102
{ACAD_REACTORS
330
C94
102
}
330
C94
100
AcDbDictionary
  0
ACDBDICTIONARYWDFLT
  5
C96
102
{ACAD_REACTORS
330
C94
102
}
330
C94
100
AcDbDictionary
281
     1
  3
Normal
350
C97
100
AcDbDictionaryWithDefault
340
C97
  0
DICTIONARY
  5
279B
102
{ACAD_REACTORS
330
C94
102
}
330
C94
100
AcDbDictionary
  3
SORTENTS
350
279C
  0
DICTIONARY
  5
39B2
102
{ACAD_REACTORS
330
C94
102
}
330
C94
100
AcDbDictionary
  3
TSTACKALIGN
350
39B3
  3
TSTACKSIZE
350
39B4
  3
HYPERLINKBASE
350
39B5
  3
STYLESHEET
350
39B6
  3
LAYOUTDICT
350
39B7
  3
PLOTSETDICT
350
39B8
  3
PLOTSTYLNAMDICT
350
39B9
  3
LWETCUNION
350
39BA
  3
INSUNITS
350
39BB
  3
CEPSNTYPE
350
39BC
  3
FINGERPRINTGUID
350
39BD
  3
VERSIONGUID
350
39BE
  3
PSVPSCALE
350
39BF
  3
DIMSTYLEDATA
350
39C0
  3
PUCSORTHOREF
350
39C1
  3
PUCSORTHOVIEW
350
39C2
  3
PUCSBASE
350
39C3
  3
PUCSORGTOP
350
39C4
  3
PUCSORGBOTTOM
350
39C5
  3
PUCSORGLEFT
350
39C6
  3
PUCSORGRIGHT
350
39C7
  3
PUCSORGFRONT
350
39C8
  3
PUCSORGBACK
350
39C9
  3
UCSORTHOREF
350
39CA
  3
UCSORTHOVIEW
350
39CB
  3
UCSBASE
350
39CC
  3
UCSORGTOP
350
39CD
  3
UCSORGBOTTOM
350
39CE
  3
UCSORGLEFT
350
39CF
  3
UCSORGRIGHT
350
39D0
  3
UCSORGFRONT
350
39D1
  3
UCSORGBACK
350
39D2
  0
XRECORD
  5
39D6
102
{ACAD_REACTORS
330
39D5
102
}
330
39D5
100
AcDbXrecord
340
CA6
  0
XRECORD
  5
39D4
102
{ACAD_REACTORS
330
39D3
102
}
330
39D3
100
AcDbXrecord
340
CA2
  0
MLINESTYLE
  5
C9F
102
{ACAD_REACTORS
330
C9E
102
}
330
C9E
100
AcDbMlineStyle
  2
STANDARD
 70
     0
  3

 62
   256
 51
90.0
 52
90.0
 71
     2
 49
0.5
 62
   256
  6
BYLAYER
 49
-0.5
 62
   256
  6
BYLAYER
  0
ACDBPLACEHOLDER
  5
C97
102
{ACAD_REACTORS
330
C96
102
}
330
C96
100
AcDbPlaceHolder
280
     0
  0
DICTIONARYVAR
  5
279C
102
{ACAD_REACTORS
330
279B
102
}
330
279B
100
DictionaryVariables
280
     0
  1
96
  0
XRECORD
  5
39B3
102
{ACAD_REACTORS
330
39B2
102
}
330
39B2
100
AcDbXrecord
 90
        1
  0
XRECORD
  5
39B4
102
{ACAD_REACTORS
330
39B2
102
}
330
39B2
100
AcDbXrecord
 90
       70
  0
XRECORD
  5
39B5
102
{ACAD_REACTORS
330
39B2
102
}
330
39B2
100
AcDbXrecord
  1

  0
XRECORD
  5
39B6
102
{ACAD_REACTORS
330
39B2
102
}
330
39B2
100
AcDbXrecord
  1
monochrome.ctb
  0
XRECORD
  5
39B7
102
{ACAD_REACTORS
330
39B2
102
}
330
39B2
100
AcDbXrecord
340
CA1
  0
XRECORD
  5
39B8
102
{ACAD_REACTORS
330
39B2
102
}
330
39B2
100
AcDbXrecord
340
CA0
  0
XRECORD
  5
39B9
102
{ACAD_REACTORS
330
39B2
102
}
330
39B2
100
AcDbXrecord
340
C96
  0
XRECORD
  5
39BA
102
{ACAD_REACTORS
330
39B2
102
}
330
39B2
100
AcDbXrecord
 90
    10781
  0
XRECORD
  5
39BB
102
{ACAD_REACTORS
330
39B2
102
}
330
39B2
100
AcDbXrecord
 90
        0
  0
XRECORD
  5
39BC
102
{ACAD_REACTORS
330
39B2
102
}
330
39B2
100
AcDbXrecord
 90
        0
  0
XRECORD
  5
39BD
102
{ACAD_REACTORS
330
39B2
102
}
330
39B2
100
AcDbXrecord
  1
{937CD6F6-D5A8-11D4-81F0-00C04F604D21}
  0
XRECORD
  5
39BE
102
{ACAD_REACTORS
330
39B2
102
}
330
39B2
100
AcDbXrecord
  1
{DD2F06F4-5959-474D-98B8-B75C964A0316}
  0
XRECORD
  5
39BF
102
{ACAD_REACTORS
330
39B2
102
}
330
39B2
100
AcDbXrecord
 40
0.0
  0
XRECORD
  5
39C0
102
{ACAD_REACTORS
330
39B2
102
}
330
39B2
100
AcDbXrecord
1000
DSTYLE
1002
{
1070
   289
 70
     1
1002
}
  0
XRECORD
  5
39C1
102
{ACAD_REACTORS
330
39B2
102
}
330
39B2
100
AcDbXrecord
340
0
  0
XRECORD
  5
39C2
102
{ACAD_REACTORS
330
39B2
102
}
330
39B2
100
AcDbXrecord
 70
     0
  0
XRECORD
  5
39C3
102
{ACAD_REACTORS
330
39B2
102
}
330
39B2
100
AcDbXrecord
340
0
  0
XRECORD
  5
39C4
102
{ACAD_REACTORS
330
39B2
102
}
330
39B2
100
AcDbXrecord
 10
0.0
 20
0.0
 30
0.0
  0
XRECORD
  5
39C5
102
{ACAD_REACTORS
330
39B2
102
}
330
39B2
100
AcDbXrecord
 10
0.0
 20
0.0
 30
0.0
  0
XRECORD
  5
39C6
102
{ACAD_REACTORS
330
39B2
102
}
330
39B2
100
AcDbXrecord
 10
0.0
 20
0.0
 30
0.0
  0
XRECORD
  5
39C7
102
{ACAD_REACTORS
330
39B2
102
}
330
39B2
100
AcDbXrecord
 10
0.0
 20
0.0
 30
0.0
  0
XRECORD
  5
39C8
102
{ACAD_REACTORS
330
39B2
102
}
330
39B2
100
AcDbXrecord
 10
0.0
 20
0.0
 30
0.0
  0
XRECORD
  5
39C9
102
{ACAD_REACTORS
330
39B2
102
}
330
39B2
100
AcDbXrecord
 10
0.0
 20
0.0
 30
0.0
  0
XRECORD
  5
39CA
102
{ACAD_REACTORS
330
39B2
102
}
330
39B2
100
AcDbXrecord
340
0
  0
XRECORD
  5
39CB
102
{ACAD_REACTORS
330
39B2
102
}
330
39B2
100
AcDbXrecord
 70
     0
  0
XRECORD
  5
39CC
102
{ACAD_REACTORS
330
39B2
102
}
330
39B2
100
AcDbXrecord
340
0
  0
XRECORD
  5
39CD
102
{ACAD_REACTORS
330
39B2
102
}
330
39B2
100
AcDbXrecord
 10
0.0
 20
0.0
 30
0.0
  0
XRECORD
  5
39CE
102
{ACAD_REACTORS
330
39B2
102
}
330
39B2
100
AcDbXrecord
 10
0.0
 20
0.0
 30
0.0
  0
XRECORD
  5
39CF
102
{ACAD_REACTORS
330
39B2
102
}
330
39B2
100
AcDbXrecord
 10
0.0
 20
0.0
 30
0.0
  0
XRECORD
  5
39D0
102
{ACAD_REACTORS
330
39B2
102
}
330
39B2
100
AcDbXrecord
 10
0.0
 20
0.0
 30
0.0
  0
XRECORD
  5
39D1
102
{ACAD_REACTORS
330
39B2
102
}
330
39B2
100
AcDbXrecord
 10
0.0
 20
0.0
 30
0.0
  0
XRECORD
  5
39D2
102
{ACAD_REACTORS
330
39B2
102
}
330
39B2
100
AcDbXrecord
 10
0.0
 20
0.0
 30
0.0
  0
ENDSEC
  0
EOF
