  0
SECTION
  2
HEADER
  9
$ACADVER
  1
AC1009
  9
$INSBASE
 10
0.0
 20
0.0
 30
0.0
  9
$EXTMIN
 10
0.0
 20
-0.0000000000000075
 30
0.0
  9
$EXTMAX
 10
43.009999999999998
 20
65.875
 30
0.0
  9
$LIMMIN
 10
0.0
 20
0.0
  9
$LIMMAX
 10
75.0
 20
50.0
  9
$ORTHOMODE
 70
     1
  9
$REGENMODE
 70
     1
  9
$FILLMODE
 70
     1
  9
$QTEXTMODE
 70
     0
  9
$MIRRTEXT
 70
     0
  9
$DRAGMODE
 70
     2
  9
$LTSCALE
 40
3.1875
  9
$OSMODE
 70
    37
  9
$ATTMODE
 70
     1
  9
$TEXTSIZE
 40
0.53125
  9
$TRACEWID
 40
0.05
  9
$TEXTSTYLE
  7
TXT
  9
$CLAYER
  8
TEXT
  9
$CELTYPE
  6
BYLAYER
  9
$CECOLOR
 62
   256
  9
$DIMSCALE
 40
4.25
  9
$DIMASZ
 40
0.18
  9
$DIMEXO
 40
0.063
  9
$DIMDLI
 40
0.281
  9
$DIMRND
 40
0.0
  9
$DIMDLE
 40
0.0
  9
$DIMEXE
 40
0.093
  9
$DIMTP
 40
0.0
  9
$DIMTM
 40
0.0
  9
$DIMTXT
 40
0.125
  9
$DIMCEN
 40
0.09
  9
$DIMTSZ
 40
0.0
  9
$DIMTOL
 70
     0
  9
$DIMLIM
 70
     0
  9
$DIMTIH
 70
     1
  9
$DIMTOH
 70
     1
  9
$DIMSE1
 70
     0
  9
$DIMSE2
 70
     0
  9
$DIMTAD
 70
     0
  9
$DIMZIN
 70
     0
  9
$DIMBLK
  1

  9
$DIMASO
 70
     1
  9
$DIMSHO
 70
     1
  9
$DIMPOST
  1

  9
$DIMAPOST
  1

  9
$DIMALT
 70
     0
  9
$DIMALTD
 70
     2
  9
$DIMALTF
 40
25.399999999999999
  9
$DIMLFAC
 40
1.0
  9
$DIMTOFL
 70
     0
  9
$DIMTVP
 40
0.0
  9
$DIMTIX
 70
     0
  9
$DIMSOXD
 70
     0
  9
$DIMSAH
 70
     0
  9
$DIMBLK1
  1

  9
$DIMBLK2
  1

  9
$DIMSTYLE
  2
23NSTD
  9
$DIMCLRD
 70
     0
  9
$DIMCLRE
 70
     0
  9
$DIMCLRT
 70
     0
  9
$DIMTFAC
 40
1.0
  9
$DIMGAP
 40
0.09
  9
$LUNITS
 70
     2
  9
$LUPREC
 70
     3
  9
$SKETCHINC
 40
0.1
  9
$FILLETRAD
 40
0.0
  9
$AUNITS
 70
     0
  9
$AUPREC
 70
     0
  9
$MENU
  1
acad
  9
$ELEVATION
 40
0.0
  9
$PELEVATION
 40
0.0
  9
$THICKNESS
 40
0.0
  9
$LIMCHECK
 70
     0
  9
$BLIPMODE
 70
     0
  9
$CHAMFERA
 40
0.0
  9
$CHAMFERB
 40
0.0
  9
$SKPOLY
 70
     0
  9
$TDCREATE
 40
2450023.3678807868
  9
$TDUPDATE
 40
2451668.443246759
  9
$TDINDWG
 40
0.1250570718
  9
$TDUSRTIMER
 40
0.1250570718
  9
$USRTIMER
 70
     1
  9
$ANGBASE
 50
0.0
  9
$ANGDIR
 70
     0
  9
$PDMODE
 70
     2
  9
$PDSIZE
 40
0.0
  9
$PLINEWID
 40
0.0
  9
$COORDS
 70
     1
  9
$SPLFRAME
 70
     0
  9
$SPLINETYPE
 70
     6
  9
$SPLINESEGS
 70
     8
  9
$ATTDIA
 70
     0
  9
$ATTREQ
 70
     1
  9
$HANDLING
 70
  4097
  9
$HANDSEED
  5
4F0
  9
$SURFTAB1
 70
     6
  9
$SURFTAB2
 70
     6
  9
$SURFTYPE
 70
     6
  9
$SURFU
 70
     6
  9
$SURFV
 70
     6
  9
$UCSNAME
  2

  9
$UCSORG
 10
0.0
 20
0.0
 30
0.0
  9
$UCSXDIR
 10
1.0
 20
0.0
 30
0.0
  9
$UCSYDIR
 10
0.0
 20
1.0
 30
0.0
  9
$PUCSNAME
  2

  9
$PUCSORG
 10
0.0
 20
0.0
 30
0.0
  9
$PUCSXDIR
 10
1.0
 20
0.0
 30
0.0
  9
$PUCSYDIR
 10
0.0
 20
1.0
 30
0.0
  9
$USERI1
 70
     0
  9
$USERI2
 70
     0
  9
$USERI3
 70
     0
  9
$USERI4
 70
     0
  9
$USERI5
 70
     0
  9
$USERR1
 40
0.0
  9
$USERR2
 40
0.0
  9
$USERR3
 40
0.0
  9
$USERR4
 40
0.0
  9
$USERR5
 40
0.0
  9
$WORLDVIEW
 70
     1
  9
$SHADEDGE
 70
     3
  9
$SHADEDIF
 70
    70
  9
$TILEMODE
 70
     1
  9
$MAXACTVP
 70
    16
  9
$PLIMCHECK
 70
     0
  9
$PEXTMIN
 10
1.0000000000000000E+020
 20
1.0000000000000000E+020
 30
1.0000000000000000E+020
  9
$PEXTMAX
 10
-1.0000000000000000E+020
 20
-1.0000000000000000E+020
 30
-1.0000000000000000E+020
  9
$PLIMMIN
 10
0.0
 20
0.0
  9
$PLIMMAX
 10
12.0
 20
9.0
  9
$UNITMODE
 70
     0
  9
$VISRETAIN
 70
     0
  9
$PLINEGEN
 70
     0
  9
$PSLTSCALE
 70
     1
  0
ENDSEC
  0
SECTION
  2
TABLES
  0
TABLE
  2
VPORT
 70
     2
  0
VPORT
  2
*ACTIVE
 70
     0
 10
0.0
 20
0.0
 11
1.0
 21
1.0
 12
22.477597328158542
 22
32.937500153377172
 13
0.0
 23
0.0
 14
1.0
 24
1.0
 15
0.0
 25
0.0
 16
0.0
 26
0.0
 36
1.0
 17
0.0
 27
0.0
 37
0.0
 40
66.620623175248255
 41
1.84313725490196
 42
50.0
 43
0.0
 44
0.0
 50
0.0
 51
0.0
 71
     0
 72
   100
 73
     1
 74
     0
 75
     0
 76
     0
 77
     0
 78
     0
  0
ENDTAB
  0
TABLE
  2
LTYPE
 70
     6
  0
LTYPE
  2
CONTINUOUS
 70
     0
  3
Solid line
 72
    65
 73
     0
 40
0.0
  0
LTYPE
  2
HIDDEN
 70
     0
  3
_ _ _ _ _ _ _ _ _ _ _ _ _ _ _ _ _ _ _ _ _ _ _
 72
    65
 73
     2
 40
0.375
 49
0.25
 49
-0.125
  0
LTYPE
  2
PHANTOM
 70
     0
  3
_____ _ _ _____ _ _ _____ _ _ _____ _ _ ____
 72
    65
 73
     6
 40
2.5
 49
1.25
 49
-0.25
 49
0.25
 49
-0.25
 49
0.25
 49
-0.25
  0
LTYPE
  2
CENTER
 70
     0
  3
____ _ ____ _ ____ _ ____ _ ____ _ ____ _ ____
 72
    65
 73
     4
 40
2.0
 49
1.25
 49
-0.25
 49
0.25
 49
-0.25
  0
LTYPE
  2
HIDDEN2
 70
     0
  3
_ _ _ _ _ _ _ _ _ _ _ _ _ _ _ _ _ _ _ _ _ _ _ _
 72
    65
 73
     2
 40
0.1875
 49
0.125
 49
-0.0625
  0
LTYPE
  2
PHANTOM2
 70
     0
  3
___ _ _ ___ _ _ ___ _ _ ___ _ _ ___ _ _ ___ _ _
 72
    65
 73
     6
 40
1.25
 49
0.625
 49
-0.125
 49
0.125
 49
-0.125
 49
0.125
 49
-0.125
  0
ENDTAB
  0
TABLE
  2
LAYER
 70
     9
  0
LAYER
  2
0
 70
     0
 62
     7
  6
CONTINUOUS
  0
LAYER
  2
OBJECT
 70
     0
 62
     7
  6
CONTINUOUS
  0
LAYER
  2
DIM
 70
     0
 62
     7
  6
CONTINUOUS
  0
LAYER
  2
HIDDEN
 70
     0
 62
     7
  6
HIDDEN
  0
LAYER
  2
BEND
 70
     0
 62
     7
  6
PHANTOM
  0
LAYER
  2
TEXT
 70
     0
 62
     7
  6
CONTINUOUS
  0
LAYER
  2
TITLE
 70
     0
 62
     7
  6
CONTINUOUS
  0
LAYER
  2
CENTER
 70
     0
 62
     7
  6
CENTER
  0
LAYER
  2
DEFPOINTS
 70
     0
 62
     7
  6
CONTINUOUS
  0
ENDTAB
  0
TABLE
  2
STYLE
 70
     2
  0
STYLE
  2
STANDARD
 70
     0
 40
0.0
 41
1.0
 50
0.0
 71
     0
 42
0.2
  3
txt
  4

  0
STYLE
  2
TXT
 70
     0
 40
0.0
 41
0.75
 50
0.0
 71
     0
 42
0.53125
  3
txt
  4

  0
ENDTAB
  0
TABLE
  2
VIEW
 70
     0
  0
ENDTAB
  0
TABLE
  2
UCS
 70
     0
  0
ENDTAB
  0
TABLE
  2
APPID
 70
     1
  0
APPID
  2
ACAD
 70
     0
  0
ENDTAB
  0
TABLE
  2
DIMSTYLE
 70
     2
  0
DIMSTYLE
  2
23NSTD
 70
     0
  3

  4

  5

  6

  7

 40
4.25
 41
0.18
 42
0.063
 43
0.281
 44
0.093
 45
0.0
 46
0.0
 47
0.0
 48
0.0
140
0.125
141
0.09
142
0.0
143
25.399999999999999
144
1.0
145
0.0
146
1.0
147
0.09
 71
     0
 72
     0
 73
     1
 74
     1
 75
     0
 76
     0
 77
     0
 78
     0
170
     0
171
     2
172
     0
173
     0
174
     0
175
     0
176
     0
177
     0
178
     0
  0
DIMSTYLE
  2
23NSTDI
 70
     0
  3

  4

  5

  6

  7

 40
4.25
 41
0.18
 42
0.063
 43
0.281
 44
0.093
 45
0.0
 46
0.0
 47
0.0
 48
0.0
140
0.125
141
0.09
142
0.0
143
25.399999999999999
144
1.0
145
0.0
146
1.0
147
0.09
 71
     0
 72
     0
 73
     1
 74
     1
 75
     0
 76
     0
 77
     0
 78
     0
170
     0
171
     2
172
     0
173
     0
174
     1
175
     0
176
     0
177
     0
178
     0
  0
ENDTAB
  0
ENDSEC
  0
SECTION
  2
BLOCKS
  0
BLOCK
  8
0
  2
$MODEL_SPACE
 70
     0
 10
0.0
 20
0.0
 30
0.0
  3
$MODEL_SPACE
  1

  0
ENDBLK
  5
104
  8
0
  0
BLOCK
 67
     1
  8
0
  2
$PAPER_SPACE
 70
     0
 10
0.0
 20
0.0
 30
0.0
  3
$PAPER_SPACE
  1

  0
ENDBLK
  5
102
 67
     1
  8
0
  0
BLOCK
  8
0
  2
*D0
 70
     1
 10
0.0
 20
0.0
 30
0.0
  3
*D0
  1

  0
LINE
  5
106
  8
0
  6
BYBLOCK
 62
     0
 10
24.494249750172401
 20
29.12593693787036
 30
0.0
 11
21.17098065733002
 21
29.12593693787036
 31
0.0
  0
LINE
  5
107
  8
0
  6
BYBLOCK
 62
     0
 10
22.494249750172411
 20
33.12593693787035
 30
0.0
 11
21.17098065733002
 21
33.12593693787035
 31
0.0
  0
LINE
  5
108
  8
0
  6
BYBLOCK
 62
     0
 10
21.566230657330021
 20
29.89093693787035
 30
0.0
 11
21.566230657330021
 21
30.477811937870349
 31
0.0
  0
LINE
  5
109
  8
0
  6
BYBLOCK
 62
     0
 10
21.566230657330021
 20
32.360936937870349
 30
0.0
 11
21.566230657330021
 21
31.77406193787035
 31
0.0
  0
SOLID
  5
10A
  8
0
  6
BYBLOCK
 62
     0
 10
21.438730657330019
 20
29.89093693787035
 30
0.0
 11
21.693730657330018
 21
29.89093693787035
 31
0.0
 12
21.566230657330021
 22
29.12593693787036
 32
0.0
 13
21.566230657330021
 23
29.12593693787036
 33
0.0
  0
SOLID
  5
10B
  8
0
  6
BYBLOCK
 62
     0
 10
21.438730657330019
 20
32.360936937870349
 30
0.0
 11
21.693730657330018
 21
32.360936937870349
 31
0.0
 12
21.566230657330021
 22
33.12593693787035
 32
0.0
 13
21.566230657330021
 23
33.12593693787035
 33
0.0
  0
TEXT
  5
10C
  8
0
  6
BYBLOCK
 62
     0
 10
21.433418157330021
 20
30.86031193787035
 30
0.0
 40
0.53125
  1
D
 41
0.75
  7
TXT
 72
     1
 11
21.566230657330021
 21
31.12593693787035
 31
0.0
 73
     2
  0
POINT
  5
10E
  8
DEFPOINTS
  6
BYBLOCK
 62
     0
 10
24.7619997501724
 20
29.12593693787036
 30
0.0
  0
POINT
  5
10F
  8
DEFPOINTS
  6
BYBLOCK
 62
     0
 10
22.7619997501724
 20
33.12593693787035
 30
0.0
  0
POINT
  5
110
  8
DEFPOINTS
  6
BYBLOCK
 62
     0
 10
21.566230657330021
 20
33.12593693787035
 30
0.0
  0
ENDBLK
  5
111
  8
0
  0
BLOCK
  8
0
  2
*D1
 70
     1
 10
0.0
 20
0.0
 30
0.0
  3
*D1
  1

  0
LINE
  5
113
  8
0
  6
BYBLOCK
 62
     0
 10
25.136999750172411
 20
24.108265357722519
 30
0.0
 11
25.136999750172411
 21
24.82523241561573
 31
0.0
  0
LINE
  5
114
  8
0
  6
BYBLOCK
 62
     0
 10
24.3869997501724
 20
24.182291453364918
 30
0.0
 11
24.3869997501724
 21
24.82523241561573
 31
0.0
  0
LINE
  5
115
  8
0
  6
BYBLOCK
 62
     0
 10
25.901999750172411
 20
24.429982415615719
 30
0.0
 11
26.666999750172408
 21
24.429982415615719
 31
0.0
  0
LINE
  5
116
  8
0
  6
BYBLOCK
 62
     0
 10
23.6219997501724
 20
24.429982415615719
 30
0.0
 11
22.856999750172399
 21
24.429982415615719
 31
0.0
  0
SOLID
  5
117
  8
0
  6
BYBLOCK
 62
     0
 10
25.901999750172411
 20
24.55748241561572
 30
0.0
 11
25.901999750172411
 21
24.302482415615721
 31
0.0
 12
25.136999750172411
 22
24.429982415615719
 32
0.0
 13
25.136999750172411
 23
24.429982415615719
 33
0.0
  0
SOLID
  5
118
  8
0
  6
BYBLOCK
 62
     0
 10
23.6219997501724
 20
24.55748241561572
 30
0.0
 11
23.6219997501724
 21
24.302482415615721
 31
0.0
 12
24.3869997501724
 22
24.429982415615719
 32
0.0
 13
24.3869997501724
 23
24.429982415615719
 33
0.0
  0
TEXT
  5
119
  8
0
  6
BYBLOCK
 62
     0
 10
21.013562250172399
 20
24.164357415615719
 30
0.0
 40
0.53125
  1
0.750
 41
0.75
  7
TXT
 72
     1
 11
21.744031000172399
 21
24.429982415615719
 31
0.0
 73
     2
  0
POINT
  5
11A
  8
DEFPOINTS
  6
BYBLOCK
 62
     0
 10
25.136999750172411
 20
23.84051535772252
 30
0.0
  0
POINT
  5
11B
  8
DEFPOINTS
  6
BYBLOCK
 62
     0
 10
24.3869997501724
 20
23.914541453364919
 30
0.0
  0
POINT
  5
11C
  8
DEFPOINTS
  6
BYBLOCK
 62
     0
 10
24.3869997501724
 20
24.429982415615719
 30
0.0
  0
ENDBLK
  5
11D
  8
0
  0
BLOCK
  8
0
  2
*D2
 70
     1
 10
0.0
 20
0.0
 30
0.0
  3
*D2
  1

  0
LINE
  5
11F
  8
0
  6
BYBLOCK
 62
     0
 10
17.87249495442363
 20
27.402850949279689
 30
0.0
 11
17.87249495442363
 21
28.91037621217794
 31
0.0
  0
LINE
  5
120
  8
0
  6
BYBLOCK
 62
     0
 10
16.99749495442363
 20
27.177773590386241
 30
0.0
 11
16.99749495442363
 21
28.91037621217794
 31
0.0
  0
LINE
  5
121
  8
0
  6
BYBLOCK
 62
     0
 10
18.63749495442363
 20
28.515126212177929
 30
0.0
 11
19.402494954423631
 21
28.515126212177929
 31
0.0
  0
LINE
  5
122
  8
0
  6
BYBLOCK
 62
     0
 10
16.232494954423629
 20
28.515126212177929
 30
0.0
 11
15.46749495442363
 21
28.515126212177929
 31
0.0
  0
SOLID
  5
123
  8
0
  6
BYBLOCK
 62
     0
 10
18.63749495442363
 20
28.64262621217793
 30
0.0
 11
18.63749495442363
 21
28.387626212177931
 31
0.0
 12
17.87249495442363
 22
28.515126212177929
 32
0.0
 13
17.87249495442363
 23
28.515126212177929
 33
0.0
  0
SOLID
  5
124
  8
0
  6
BYBLOCK
 62
     0
 10
16.232494954423629
 20
28.64262621217793
 30
0.0
 11
16.232494954423629
 21
28.387626212177931
 31
0.0
 12
16.99749495442363
 22
28.515126212177929
 32
0.0
 13
16.99749495442363
 23
28.515126212177929
 33
0.0
  0
TEXT
  5
125
  8
0
  6
BYBLOCK
 62
     0
 10
13.55765120442363
 20
28.249501212177929
 30
0.0
 40
0.53125
  1
0.875
 41
0.75
  7
TXT
 72
     1
 11
14.32132307942363
 21
28.515126212177929
 31
0.0
 73
     2
  0
POINT
  5
126
  8
DEFPOINTS
  6
BYBLOCK
 62
     0
 10
17.87249495442363
 20
27.135100949279689
 30
0.0
  0
POINT
  5
127
  8
DEFPOINTS
  6
BYBLOCK
 62
     0
 10
16.99749495442363
 20
26.910023590386238
 30
0.0
  0
POINT
  5
128
  8
DEFPOINTS
  6
BYBLOCK
 62
     0
 10
16.99749495442363
 20
28.515126212177929
 30
0.0
  0
ENDBLK
  5
129
  8
0
  0
BLOCK
  8
0
  2
*D3
 70
     1
 10
0.0
 20
0.0
 30
0.0
  3
*D3
  1

  0
LINE
  5
12B
  8
0
  6
BYBLOCK
 62
     0
 10
22.7619997501724
 20
30.802773590386241
 30
0.0
 11
22.7619997501724
 21
32.249775637824087
 31
0.0
  0
LINE
  5
12C
  8
0
  6
BYBLOCK
 62
     0
 10
23.7619997501724
 20
30.802773590386241
 30
0.0
 11
23.7619997501724
 21
32.249775637824087
 31
0.0
  0
LINE
  5
12D
  8
0
  6
BYBLOCK
 62
     0
 10
21.9969997501724
 20
31.854525637824089
 30
0.0
 11
21.231999750172399
 21
31.854525637824089
 31
0.0
  0
LINE
  5
12E
  8
0
  6
BYBLOCK
 62
     0
 10
24.526999750172411
 20
31.854525637824089
 30
0.0
 11
25.291999750172401
 21
31.854525637824089
 31
0.0
  0
SOLID
  5
12F
  8
0
  6
BYBLOCK
 62
     0
 10
21.9969997501724
 20
31.982025637824091
 30
0.0
 11
21.9969997501724
 21
31.727025637824092
 31
0.0
 12
22.7619997501724
 22
31.854525637824089
 32
0.0
 13
22.7619997501724
 23
31.854525637824089
 33
0.0
  0
SOLID
  5
130
  8
0
  6
BYBLOCK
 62
     0
 10
24.526999750172411
 20
31.982025637824091
 30
0.0
 11
24.526999750172411
 21
31.727025637824092
 31
0.0
 12
23.7619997501724
 22
31.854525637824089
 32
0.0
 13
23.7619997501724
 23
31.854525637824089
 33
0.0
  0
TEXT
  5
131
  8
0
  6
BYBLOCK
 62
     0
 10
25.674499750172409
 20
31.588900637824089
 30
0.0
 40
0.53125
  1
1.000
 41
0.75
  7
TXT
 72
     1
 11
26.305359125172401
 21
31.854525637824089
 31
0.0
 73
     2
  0
POINT
  5
132
  8
DEFPOINTS
  6
BYBLOCK
 62
     0
 10
22.7619997501724
 20
30.535023590386238
 30
0.0
  0
POINT
  5
133
  8
DEFPOINTS
  6
BYBLOCK
 62
     0
 10
23.7619997501724
 20
30.535023590386238
 30
0.0
  0
POINT
  5
134
  8
DEFPOINTS
  6
BYBLOCK
 62
     0
 10
23.7619997501724
 20
31.854525637824089
 30
0.0
  0
ENDBLK
  5
135
  8
0
  0
BLOCK
  8
0
  2
*D4
 70
     1
 10
0.0
 20
0.0
 30
0.0
  3
*D4
  1

  0
LINE
  5
137
  8
0
  6
BYBLOCK
 62
     0
 10
24.7619997501724
 20
26.802773590386241
 30
0.0
 11
24.7619997501724
 21
33.44402563782409
 31
0.0
  0
LINE
  5
138
  8
0
  6
BYBLOCK
 62
     0
 10
22.7619997501724
 20
30.802773590386241
 30
0.0
 11
22.7619997501724
 21
33.44402563782409
 31
0.0
  0
LINE
  5
139
  8
0
  6
BYBLOCK
 62
     0
 10
25.526999750172401
 20
33.048775637824093
 30
0.0
 11
26.291999750172408
 21
33.048775637824093
 31
0.0
  0
LINE
  5
13A
  8
0
  6
BYBLOCK
 62
     0
 10
21.9969997501724
 20
33.048775637824093
 30
0.0
 11
21.231999750172399
 21
33.048775637824093
 31
0.0
  0
SOLID
  5
13B
  8
0
  6
BYBLOCK
 62
     0
 10
25.526999750172401
 20
33.176275637824091
 30
0.0
 11
25.526999750172401
 21
32.921275637824088
 31
0.0
 12
24.7619997501724
 22
33.048775637824093
 32
0.0
 13
24.7619997501724
 23
33.048775637824093
 33
0.0
  0
SOLID
  5
13C
  8
0
  6
BYBLOCK
 62
     0
 10
21.9969997501724
 20
33.176275637824091
 30
0.0
 11
21.9969997501724
 21
32.921275637824088
 31
0.0
 12
22.7619997501724
 22
33.048775637824093
 32
0.0
 13
22.7619997501724
 23
33.048775637824093
 33
0.0
  0
TEXT
  5
13D
  8
0
  6
BYBLOCK
 62
     0
 10
23.0647341251724
 20
32.783150637824093
 30
0.0
 40
0.53125
  1
2.000
 41
0.75
  7
TXT
 72
     1
 11
23.7619997501724
 21
33.048775637824093
 31
0.0
 73
     2
  0
POINT
  5
13E
  8
DEFPOINTS
  6
BYBLOCK
 62
     0
 10
24.7619997501724
 20
26.535023590386249
 30
0.0
  0
POINT
  5
13F
  8
DEFPOINTS
  6
BYBLOCK
 62
     0
 10
22.7619997501724
 20
30.535023590386238
 30
0.0
  0
POINT
  5
140
  8
DEFPOINTS
  6
BYBLOCK
 62
     0
 10
22.7619997501724
 20
33.048775637824093
 30
0.0
  0
ENDBLK
  5
141
  8
0
  0
BLOCK
  8
0
  2
*D5
 70
     1
 10
0.0
 20
0.0
 30
0.0
  3
*D5
  1

  0
LINE
  5
143
  8
0
  6
BYBLOCK
 62
     0
 10
22.7619997501724
 20
30.802773590386241
 30
0.0
 11
22.7619997501724
 21
34.63827563782408
 31
0.0
  0
LINE
  5
144
  8
0
  6
BYBLOCK
 62
     0
 10
41.511999750172407
 20
27.302773590386249
 30
0.0
 11
41.511999750172407
 21
34.63827563782408
 31
0.0
  0
LINE
  5
145
  8
0
  6
BYBLOCK
 62
     0
 10
23.526999750172411
 20
34.24302563782409
 30
0.0
 11
31.6216872501724
 21
34.24302563782409
 31
0.0
  0
LINE
  5
146
  8
0
  6
BYBLOCK
 62
     0
 10
40.746999750172407
 20
34.24302563782409
 30
0.0
 11
32.6523122501724
 21
34.24302563782409
 31
0.0
  0
SOLID
  5
147
  8
0
  6
BYBLOCK
 62
     0
 10
23.526999750172411
 20
34.37052563782408
 30
0.0
 11
23.526999750172411
 21
34.115525637824092
 31
0.0
 12
22.7619997501724
 22
34.24302563782409
 32
0.0
 13
22.7619997501724
 23
34.24302563782409
 33
0.0
  0
SOLID
  5
148
  8
0
  6
BYBLOCK
 62
     0
 10
40.746999750172407
 20
34.37052563782408
 30
0.0
 11
40.746999750172407
 21
34.115525637824092
 31
0.0
 12
41.511999750172407
 22
34.24302563782409
 32
0.0
 13
41.511999750172407
 23
34.24302563782409
 33
0.0
  0
TEXT
  5
149
  8
0
  6
BYBLOCK
 62
     0
 10
32.0041872501724
 20
33.97740063782409
 30
0.0
 40
0.53125
  1
C
 41
0.75
  7
TXT
 72
     1
 11
32.1369997501724
 21
34.24302563782409
 31
0.0
 73
     2
  0
POINT
  5
14A
  8
DEFPOINTS
  6
BYBLOCK
 62
     0
 10
22.7619997501724
 20
30.535023590386238
 30
0.0
  0
POINT
  5
14B
  8
DEFPOINTS
  6
BYBLOCK
 62
     0
 10
41.511999750172407
 20
27.035023590386238
 30
0.0
  0
POINT
  5
14C
  8
DEFPOINTS
  6
BYBLOCK
 62
     0
 10
41.511999750172407
 20
34.24302563782409
 30
0.0
  0
ENDBLK
  5
14D
  8
0
  0
BLOCK
  8
0
  2
*D6
 70
     1
 10
0.0
 20
0.0
 30
0.0
  3
*D6
  1

  0
LINE
  5
14F
  8
0
  6
BYBLOCK
 62
     0
 10
5.8010265617032024
 20
30.410023590386238
 30
0.0
 11
5.1046694462306226
 21
30.410023590386238
 31
0.0
  0
LINE
  5
150
  8
0
  6
BYBLOCK
 62
     0
 10
6.1760265617032024
 20
30.035023590386221
 30
0.0
 11
5.1046694462306226
 21
30.035023590386221
 31
0.0
  0
LINE
  5
151
  8
0
  6
BYBLOCK
 62
     0
 10
5.4999194462306233
 20
31.175023590386239
 30
0.0
 11
5.4999194462306233
 21
31.94002359038624
 31
0.0
  0
LINE
  5
152
  8
0
  6
BYBLOCK
 62
     0
 10
5.4999194462306233
 20
29.27002359038622
 30
0.0
 11
5.4999194462306233
 21
28.50502359038623
 31
0.0
  0
LINE
  5
153
  8
0
  6
BYBLOCK
 62
     0
 10
5.4999194462306233
 20
28.50502359038623
 30
0.0
 11
4.7349194462306228
 21
28.50502359038623
 31
0.0
  0
SOLID
  5
154
  8
0
  6
BYBLOCK
 62
     0
 10
5.3724194462306221
 20
31.175023590386239
 30
0.0
 11
5.6274194462306228
 21
31.175023590386239
 31
0.0
 12
5.4999194462306233
 22
30.410023590386238
 32
0.0
 13
5.4999194462306233
 23
30.410023590386238
 33
0.0
  0
SOLID
  5
155
  8
0
  6
BYBLOCK
 62
     0
 10
5.3724194462306221
 20
29.27002359038622
 30
0.0
 11
5.6274194462306228
 21
29.27002359038622
 31
0.0
 12
5.4999194462306233
 22
30.035023590386221
 32
0.0
 13
5.4999194462306233
 23
30.035023590386221
 33
0.0
  0
TEXT
  5
156
  8
0
  6
BYBLOCK
 62
     0
 10
2.8250756962306229
 20
28.239398590386219
 30
0.0
 40
0.53125
  1
0.375
 41
0.75
  7
TXT
 72
     1
 11
3.5887475712306229
 21
28.50502359038623
 31
0.0
 73
     2
  0
POINT
  5
157
  8
DEFPOINTS
  6
BYBLOCK
 62
     0
 10
6.0687765617032019
 20
30.410023590386238
 30
0.0
  0
POINT
  5
158
  8
DEFPOINTS
  6
BYBLOCK
 62
     0
 10
6.4437765617032019
 20
30.035023590386221
 30
0.0
  0
POINT
  5
159
  8
DEFPOINTS
  6
BYBLOCK
 62
     0
 10
5.4999194462306233
 20
30.035023590386221
 30
0.0
  0
ENDBLK
  5
15A
  8
0
  0
BLOCK
  8
0
  2
*D7
 70
     1
 10
0.0
 20
0.0
 30
0.0
  3
*D7
  1

  0
LINE
  5
15C
  8
0
  6
BYBLOCK
 62
     0
 10
5.8010265617032024
 20
22.660023590386238
 30
0.0
 11
2.0168987186691112
 21
22.660023590386238
 31
0.0
  0
LINE
  5
15D
  8
0
  6
BYBLOCK
 62
     0
 10
5.8010265617032024
 20
30.410023590386238
 30
0.0
 11
2.0168987186691112
 21
30.410023590386238
 31
0.0
  0
LINE
  5
15E
  8
0
  6
BYBLOCK
 62
     0
 10
2.4121487186691111
 20
23.42502359038625
 30
0.0
 11
2.4121487186691111
 21
25.886898590386242
 31
0.0
  0
LINE
  5
15F
  8
0
  6
BYBLOCK
 62
     0
 10
2.4121487186691111
 20
29.645023590386241
 30
0.0
 11
2.4121487186691111
 21
27.183148590386239
 31
0.0
  0
SOLID
  5
160
  8
0
  6
BYBLOCK
 62
     0
 10
2.2846487186691111
 20
23.42502359038625
 30
0.0
 11
2.539648718669111
 21
23.42502359038625
 31
0.0
 12
2.4121487186691111
 22
22.660023590386238
 32
0.0
 13
2.4121487186691111
 23
22.660023590386238
 33
0.0
  0
SOLID
  5
161
  8
0
  6
BYBLOCK
 62
     0
 10
2.2846487186691111
 20
29.645023590386241
 30
0.0
 11
2.539648718669111
 21
29.645023590386241
 31
0.0
 12
2.4121487186691111
 22
30.410023590386238
 32
0.0
 13
2.4121487186691111
 23
30.410023590386238
 33
0.0
  0
TEXT
  5
162
  8
0
  6
BYBLOCK
 62
     0
 10
2.2793362186691111
 20
26.269398590386238
 30
0.0
 40
0.53125
  1
E
 41
0.75
  7
TXT
 72
     1
 11
2.4121487186691111
 21
26.535023590386238
 31
0.0
 73
     2
  0
POINT
  5
163
  8
DEFPOINTS
  6
BYBLOCK
 62
     0
 10
6.0687765617032019
 20
22.660023590386238
 30
0.0
  0
POINT
  5
164
  8
DEFPOINTS
  6
BYBLOCK
 62
     0
 10
6.0687765617032019
 20
30.410023590386238
 30
0.0
  0
POINT
  5
165
  8
DEFPOINTS
  6
BYBLOCK
 62
     0
 10
2.4121487186691111
 20
30.410023590386238
 30
0.0
  0
ENDBLK
  5
166
  8
0
  0
BLOCK
  8
0
  2
*D8
 70
     1
 10
0.0
 20
0.0
 30
0.0
  3
*D8
  1

  0
LINE
  5
168
  8
0
  6
BYBLOCK
 62
     0
 10
5.8010265617032024
 20
30.410023590386238
 30
0.0
 11
2.0168987186691112
 21
30.410023590386238
 31
0.0
  0
LINE
  5
169
  8
0
  6
BYBLOCK
 62
     0
 10
5.7380265617032071
 20
30.535023590386238
 30
0.0
 11
2.0168987186691112
 21
30.535023590386238
 31
0.0
  0
LINE
  5
16A
  8
0
  6
BYBLOCK
 62
     0
 10
2.4121487186691111
 20
29.645023590386241
 30
0.0
 11
2.4121487186691111
 21
28.880023590386241
 31
0.0
  0
LINE
  5
16B
  8
0
  6
BYBLOCK
 62
     0
 10
2.4121487186691111
 20
31.300023590386239
 30
0.0
 11
2.4121487186691111
 21
32.06502359038624
 31
0.0
  0
LINE
  5
16C
  8
0
  6
BYBLOCK
 62
     0
 10
2.4121487186691111
 20
32.06502359038624
 30
0.0
 11
3.1771487186691112
 21
32.06502359038624
 31
0.0
  0
SOLID
  5
16D
  8
0
  6
BYBLOCK
 62
     0
 10
2.2846487186691111
 20
29.645023590386241
 30
0.0
 11
2.539648718669111
 21
29.645023590386241
 31
0.0
 12
2.4121487186691111
 22
30.410023590386238
 32
0.0
 13
2.4121487186691111
 23
30.410023590386238
 33
0.0
  0
SOLID
  5
16E
  8
0
  6
BYBLOCK
 62
     0
 10
2.2846487186691111
 20
31.300023590386239
 30
0.0
 11
2.539648718669111
 21
31.300023590386239
 31
0.0
 12
2.4121487186691111
 22
30.535023590386238
 32
0.0
 13
2.4121487186691111
 23
30.535023590386238
 33
0.0
  0
TEXT
  5
16F
  8
0
  6
BYBLOCK
 62
     0
 10
3.559648718669111
 20
31.79939859038624
 30
0.0
 40
0.53125
  1
0.125
 41
0.75
  7
TXT
 72
     1
 11
4.256914343669111
 21
32.06502359038624
 31
0.0
 73
     2
  0
POINT
  5
170
  8
DEFPOINTS
  6
BYBLOCK
 62
     0
 10
6.0687765617032019
 20
30.410023590386238
 30
0.0
  0
POINT
  5
171
  8
DEFPOINTS
  6
BYBLOCK
 62
     0
 10
6.0057765617032066
 20
30.535023590386238
 30
0.0
  0
POINT
  5
172
  8
DEFPOINTS
  6
BYBLOCK
 62
     0
 10
2.4121487186691111
 20
30.535023590386238
 30
0.0
  0
ENDBLK
  5
173
  8
0
  0
BLOCK
  8
0
  2
*D9
 70
     1
 10
0.0
 20
0.0
 30
0.0
  3
*D9
  1

  0
LINE
  5
175
  8
0
  6
BYBLOCK
 62
     0
 10
5.7380265617032071
 20
22.535023590386249
 30
0.0
 11
0.8226487186691118
 21
22.535023590386249
 31
0.0
  0
LINE
  5
176
  8
0
  6
BYBLOCK
 62
     0
 10
5.7380265617032071
 20
30.535023590386238
 30
0.0
 11
0.8226487186691118
 21
30.535023590386238
 31
0.0
  0
LINE
  5
177
  8
0
  6
BYBLOCK
 62
     0
 10
1.217898718669111
 20
23.300023590386239
 30
0.0
 11
1.217898718669111
 21
25.886898590386242
 31
0.0
  0
LINE
  5
178
  8
0
  6
BYBLOCK
 62
     0
 10
1.217898718669111
 20
29.770023590386241
 30
0.0
 11
1.217898718669111
 21
27.183148590386239
 31
0.0
  0
SOLID
  5
179
  8
0
  6
BYBLOCK
 62
     0
 10
1.0903987186691111
 20
23.300023590386239
 30
0.0
 11
1.345398718669111
 21
23.300023590386239
 31
0.0
 12
1.217898718669111
 22
22.535023590386249
 32
0.0
 13
1.217898718669111
 23
22.535023590386249
 33
0.0
  0
SOLID
  5
17A
  8
0
  6
BYBLOCK
 62
     0
 10
1.0903987186691111
 20
29.770023590386241
 30
0.0
 11
1.345398718669111
 21
29.770023590386241
 31
0.0
 12
1.217898718669111
 22
30.535023590386238
 32
0.0
 13
1.217898718669111
 23
30.535023590386238
 33
0.0
  0
TEXT
  5
17B
  8
0
  6
BYBLOCK
 62
     0
 10
1.085086218669111
 20
26.269398590386238
 30
0.0
 40
0.53125
  1
A
 41
0.75
  7
TXT
 72
     1
 11
1.217898718669111
 21
26.535023590386238
 31
0.0
 73
     2
  0
POINT
  5
17C
  8
DEFPOINTS
  6
BYBLOCK
 62
     0
 10
6.0057765617032066
 20
22.535023590386249
 30
0.0
  0
POINT
  5
17D
  8
DEFPOINTS
  6
BYBLOCK
 62
     0
 10
6.0057765617032066
 20
30.535023590386238
 30
0.0
  0
POINT
  5
17E
  8
DEFPOINTS
  6
BYBLOCK
 62
     0
 10
1.217898718669111
 20
30.535023590386238
 30
0.0
  0
ENDBLK
  5
17F
  8
0
  0
BLOCK
  8
0
  2
*D10
 70
     1
 10
0.0
 20
0.0
 30
0.0
  3
*D10
  1

  0
LINE
  5
181
  8
0
  6
BYBLOCK
 62
     0
 10
5.7380265617032071
 20
22.535023590386249
 30
0.0
 11
0.8226487186691118
 21
22.535023590386249
 31
0.0
  0
LINE
  5
182
  8
0
  6
BYBLOCK
 62
     0
 10
6.0510265617032024
 20
20.035023590386238
 30
0.0
 11
0.8226487186691118
 21
20.035023590386238
 31
0.0
  0
LINE
  5
183
  8
0
  6
BYBLOCK
 62
     0
 10
1.217898718669111
 20
23.300023590386239
 30
0.0
 11
1.217898718669111
 21
24.06502359038625
 31
0.0
  0
LINE
  5
184
  8
0
  6
BYBLOCK
 62
     0
 10
1.217898718669111
 20
19.270023590386241
 30
0.0
 11
1.217898718669111
 21
18.505023590386241
 31
0.0
  0
SOLID
  5
185
  8
0
  6
BYBLOCK
 62
     0
 10
1.0903987186691111
 20
23.300023590386239
 30
0.0
 11
1.345398718669111
 21
23.300023590386239
 31
0.0
 12
1.217898718669111
 22
22.535023590386249
 32
0.0
 13
1.217898718669111
 23
22.535023590386249
 33
0.0
  0
SOLID
  5
186
  8
0
  6
BYBLOCK
 62
     0
 10
1.0903987186691111
 20
19.270023590386241
 30
0.0
 11
1.345398718669111
 21
19.270023590386241
 31
0.0
 12
1.217898718669111
 22
20.035023590386238
 32
0.0
 13
1.217898718669111
 23
20.035023590386238
 33
0.0
  0
TEXT
  5
187
  8
0
  6
BYBLOCK
 62
     0
 10
0.4874299686691116
 20
21.019398590386238
 30
0.0
 40
0.53125
  1
2.500
 41
0.75
  7
TXT
 72
     1
 11
1.217898718669111
 21
21.285023590386238
 31
0.0
 73
     2
  0
POINT
  5
188
  8
DEFPOINTS
  6
BYBLOCK
 62
     0
 10
6.0057765617032066
 20
22.535023590386249
 30
0.0
  0
POINT
  5
189
  8
DEFPOINTS
  6
BYBLOCK
 62
     0
 10
6.3187765617032019
 20
20.035023590386238
 30
0.0
  0
POINT
  5
18A
  8
DEFPOINTS
  6
BYBLOCK
 62
     0
 10
1.217898718669111
 20
20.035023590386238
 30
0.0
  0
ENDBLK
  5
18B
  8
0
  0
BLOCK
  8
0
  2
*D11
 70
     1
 10
0.0
 20
0.0
 30
0.0
  3
*D11
  1

  0
LINE
  5
18D
  8
0
  6
BYBLOCK
 62
     0
 10
6.0687765617032019
 20
30.677773590386241
 30
0.0
 11
6.0687765617032019
 21
33.44402563782409
 31
0.0
  0
LINE
  5
18E
  8
0
  6
BYBLOCK
 62
     0
 10
6.4437765617032019
 20
30.30277359038622
 30
0.0
 11
6.4437765617032019
 21
33.44402563782409
 31
0.0
  0
LINE
  5
18F
  8
0
  6
BYBLOCK
 62
     0
 10
5.3037765617032031
 20
33.048775637824093
 30
0.0
 11
4.5387765617032017
 21
33.048775637824093
 31
0.0
  0
LINE
  5
190
  8
0
  6
BYBLOCK
 62
     0
 10
7.2087765617032016
 20
33.048775637824093
 30
0.0
 11
7.973776561703203
 21
33.048775637824093
 31
0.0
  0
SOLID
  5
191
  8
0
  6
BYBLOCK
 62
     0
 10
5.3037765617032031
 20
33.176275637824091
 30
0.0
 11
5.3037765617032031
 21
32.921275637824088
 31
0.0
 12
6.0687765617032019
 22
33.048775637824093
 32
0.0
 13
6.0687765617032019
 23
33.048775637824093
 33
0.0
  0
SOLID
  5
192
  8
0
  6
BYBLOCK
 62
     0
 10
7.2087765617032016
 20
33.176275637824091
 30
0.0
 11
7.2087765617032016
 21
32.921275637824088
 31
0.0
 12
6.4437765617032019
 22
33.048775637824093
 32
0.0
 13
6.4437765617032019
 23
33.048775637824093
 33
0.0
  0
TEXT
  5
193
  8
0
  6
BYBLOCK
 62
     0
 10
8.3562765617032024
 20
32.783150637824093
 30
0.0
 40
0.53125
  1
0.375
 41
0.75
  7
TXT
 72
     1
 11
9.1199484367032024
 21
33.048775637824093
 31
0.0
 73
     2
  0
POINT
  5
194
  8
DEFPOINTS
  6
BYBLOCK
 62
     0
 10
6.0687765617032019
 20
30.410023590386238
 30
0.0
  0
POINT
  5
195
  8
DEFPOINTS
  6
BYBLOCK
 62
     0
 10
6.4437765617032019
 20
30.035023590386221
 30
0.0
  0
POINT
  5
196
  8
DEFPOINTS
  6
BYBLOCK
 62
     0
 10
6.4437765617032019
 20
33.048775637824093
 30
0.0
  0
ENDBLK
  5
197
  8
0
  0
BLOCK
  8
0
  2
*D12
 70
     1
 10
0.0
 20
0.0
 30
0.0
  3
*D12
  1

  0
LINE
  5
199
  8
0
  6
BYBLOCK
 62
     0
 10
6.0687765617032019
 20
30.677773590386241
 30
0.0
 11
6.0687765617032019
 21
34.63827563782408
 31
0.0
  0
LINE
  5
19A
  8
0
  6
BYBLOCK
 62
     0
 10
17.81877656170321
 20
30.677773590386241
 30
0.0
 11
17.81877656170321
 21
34.63827563782408
 31
0.0
  0
LINE
  5
19B
  8
0
  6
BYBLOCK
 62
     0
 10
6.8337765617032016
 20
34.24302563782409
 30
0.0
 11
11.428464061703201
 21
34.24302563782409
 31
0.0
  0
LINE
  5
19C
  8
0
  6
BYBLOCK
 62
     0
 10
17.053776561703209
 20
34.24302563782409
 30
0.0
 11
12.4590890617032
 21
34.24302563782409
 31
0.0
  0
SOLID
  5
19D
  8
0
  6
BYBLOCK
 62
     0
 10
6.8337765617032016
 20
34.37052563782408
 30
0.0
 11
6.8337765617032016
 21
34.115525637824092
 31
0.0
 12
6.0687765617032019
 22
34.24302563782409
 32
0.0
 13
6.0687765617032019
 23
34.24302563782409
 33
0.0
  0
SOLID
  5
19E
  8
0
  6
BYBLOCK
 62
     0
 10
17.053776561703209
 20
34.37052563782408
 30
0.0
 11
17.053776561703209
 21
34.115525637824092
 31
0.0
 12
17.81877656170321
 22
34.24302563782409
 32
0.0
 13
17.81877656170321
 23
34.24302563782409
 33
0.0
  0
TEXT
  5
19F
  8
0
  6
BYBLOCK
 62
     0
 10
11.810964061703199
 20
33.97740063782409
 30
0.0
 40
0.53125
  1
F
 41
0.75
  7
TXT
 72
     1
 11
11.943776561703199
 21
34.24302563782409
 31
0.0
 73
     2
  0
POINT
  5
1A0
  8
DEFPOINTS
  6
BYBLOCK
 62
     0
 10
6.0687765617032019
 20
30.410023590386238
 30
0.0
  0
POINT
  5
1A1
  8
DEFPOINTS
  6
BYBLOCK
 62
     0
 10
17.81877656170321
 20
30.410023590386238
 30
0.0
  0
POINT
  5
1A2
  8
DEFPOINTS
  6
BYBLOCK
 62
     0
 10
17.81877656170321
 20
34.24302563782409
 30
0.0
  0
ENDBLK
  5
1A3
  8
0
  0
BLOCK
  8
0
  2
*D13
 70
     1
 10
0.0
 20
0.0
 30
0.0
  3
*D13
  1

  0
LINE
  5
1A5
  8
0
  6
BYBLOCK
 62
     0
 10
5.9437765617032019
 20
30.74077359038624
 30
0.0
 11
5.9437765617032019
 21
35.832525637824077
 31
0.0
  0
LINE
  5
1A6
  8
0
  6
BYBLOCK
 62
     0
 10
17.943776561703199
 20
30.74077359038624
 30
0.0
 11
17.943776561703199
 21
35.832525637824077
 31
0.0
  0
LINE
  5
1A7
  8
0
  6
BYBLOCK
 62
     0
 10
6.7087765617032016
 20
35.437275637824079
 30
0.0
 11
11.428464061703201
 21
35.437275637824079
 31
0.0
  0
LINE
  5
1A8
  8
0
  6
BYBLOCK
 62
     0
 10
17.178776561703199
 20
35.437275637824079
 30
0.0
 11
12.4590890617032
 21
35.437275637824079
 31
0.0
  0
SOLID
  5
1A9
  8
0
  6
BYBLOCK
 62
     0
 10
6.7087765617032016
 20
35.564775637824077
 30
0.0
 11
6.7087765617032016
 21
35.309775637824089
 31
0.0
 12
5.9437765617032019
 22
35.437275637824079
 32
0.0
 13
5.9437765617032019
 23
35.437275637824079
 33
0.0
  0
SOLID
  5
1AA
  8
0
  6
BYBLOCK
 62
     0
 10
17.178776561703199
 20
35.564775637824077
 30
0.0
 11
17.178776561703199
 21
35.309775637824089
 31
0.0
 12
17.943776561703199
 22
35.437275637824079
 32
0.0
 13
17.943776561703199
 23
35.437275637824079
 33
0.0
  0
TEXT
  5
1AB
  8
0
  6
BYBLOCK
 62
     0
 10
11.810964061703199
 20
35.171650637824087
 30
0.0
 40
0.53125
  1
B
 41
0.75
  7
TXT
 72
     1
 11
11.943776561703199
 21
35.437275637824079
 31
0.0
 73
     2
  0
POINT
  5
1AC
  8
DEFPOINTS
  6
BYBLOCK
 62
     0
 10
5.9437765617032019
 20
30.473023590386241
 30
0.0
  0
POINT
  5
1AD
  8
DEFPOINTS
  6
BYBLOCK
 62
     0
 10
17.943776561703199
 20
30.473023590386241
 30
0.0
  0
POINT
  5
1AE
  8
DEFPOINTS
  6
BYBLOCK
 62
     0
 10
17.943776561703199
 20
35.437275637824079
 30
0.0
  0
ENDBLK
  5
1AF
  8
0
  0
BLOCK
  8
0
  2
*D14
 70
     1
 10
0.0
 20
0.0
 30
0.0
  3
*D14
  1

  0
LINE
  5
1B1
  8
0
  6
BYBLOCK
 62
     0
 10
17.81877656170321
 20
30.677773590386241
 30
0.0
 11
17.81877656170321
 21
34.63827563782408
 31
0.0
  0
LINE
  5
1B2
  8
0
  6
BYBLOCK
 62
     0
 10
17.943776561703199
 20
30.74077359038624
 30
0.0
 11
17.943776561703199
 21
34.63827563782408
 31
0.0
  0
LINE
  5
1B3
  8
0
  6
BYBLOCK
 62
     0
 10
17.053776561703209
 20
34.24302563782409
 30
0.0
 11
16.288776561703202
 21
34.24302563782409
 31
0.0
  0
LINE
  5
1B4
  8
0
  6
BYBLOCK
 62
     0
 10
18.7087765617032
 20
34.24302563782409
 30
0.0
 11
19.4737765617032
 21
34.24302563782409
 31
0.0
  0
SOLID
  5
1B5
  8
0
  6
BYBLOCK
 62
     0
 10
17.053776561703209
 20
34.37052563782408
 30
0.0
 11
17.053776561703209
 21
34.115525637824092
 31
0.0
 12
17.81877656170321
 22
34.24302563782409
 32
0.0
 13
17.81877656170321
 23
34.24302563782409
 33
0.0
  0
SOLID
  5
1B6
  8
0
  6
BYBLOCK
 62
     0
 10
18.7087765617032
 20
34.37052563782408
 30
0.0
 11
18.7087765617032
 21
34.115525637824092
 31
0.0
 12
17.943776561703199
 22
34.24302563782409
 32
0.0
 13
17.943776561703199
 23
34.24302563782409
 33
0.0
  0
TEXT
  5
1B7
  8
0
  6
BYBLOCK
 62
     0
 10
19.856276561703201
 20
33.97740063782409
 30
0.0
 40
0.53125
  1
0.125
 41
0.75
  7
TXT
 72
     1
 11
20.553542186703201
 21
34.24302563782409
 31
0.0
 73
     2
  0
POINT
  5
1B8
  8
DEFPOINTS
  6
BYBLOCK
 62
     0
 10
17.81877656170321
 20
30.410023590386238
 30
0.0
  0
POINT
  5
1B9
  8
DEFPOINTS
  6
BYBLOCK
 62
     0
 10
17.943776561703199
 20
30.473023590386241
 30
0.0
  0
POINT
  5
1BA
  8
DEFPOINTS
  6
BYBLOCK
 62
     0
 10
17.943776561703199
 20
34.24302563782409
 30
0.0
  0
ENDBLK
  5
1BB
  8
0
  0
BLOCK
  8
0
  2
*D15
 70
     1
 10
0.0
 20
0.0
 30
0.0
  3
*D15
  1

  0
LINE
  5
1BD
  8
0
  6
BYBLOCK
 62
     0
 10
18.561056002534649
 20
21.037553242185808
 30
0.0
 11
18.561056002534649
 21
21.225370801598089
 31
0.0
  0
LINE
  5
1BE
  8
0
  6
BYBLOCK
 62
     0
 10
18.436056002534642
 20
20.570595923336182
 30
0.0
 11
18.436056002534642
 21
20.434870801598091
 31
0.0
  0
LINE
  5
1BF
  8
0
  6
BYBLOCK
 62
     0
 10
19.326056002534649
 20
20.830120801598088
 30
0.0
 11
20.09105600253465
 21
20.830120801598088
 31
0.0
  0
LINE
  5
1C0
  8
0
  6
BYBLOCK
 62
     0
 10
17.671056002534641
 20
20.830120801598088
 30
0.0
 11
16.90605600253464
 21
20.830120801598088
 31
0.0
  0
SOLID
  5
1C1
  8
0
  6
BYBLOCK
 62
     0
 10
19.326056002534649
 20
20.95762080159809
 30
0.0
 11
19.326056002534649
 21
20.702620801598091
 31
0.0
 12
18.561056002534649
 22
20.830120801598088
 32
0.0
 13
18.561056002534649
 23
20.830120801598088
 33
0.0
  0
SOLID
  5
1C2
  8
0
  6
BYBLOCK
 62
     0
 10
17.671056002534641
 20
20.95762080159809
 30
0.0
 11
17.671056002534641
 21
20.702620801598091
 31
0.0
 12
18.436056002534642
 22
20.830120801598088
 32
0.0
 13
18.436056002534642
 23
20.830120801598088
 33
0.0
  0
TEXT
  5
1C3
  8
0
  6
BYBLOCK
 62
     0
 10
15.12902475253464
 20
20.564495801598088
 30
0.0
 40
0.53125
  1
0.125
 41
0.75
  7
TXT
 72
     1
 11
15.82629037753464
 21
20.830120801598088
 31
0.0
 73
     2
  0
POINT
  5
1C4
  8
DEFPOINTS
  6
BYBLOCK
 62
     0
 10
18.561056002534649
 20
20.769803242185809
 30
0.0
  0
POINT
  5
1C5
  8
DEFPOINTS
  6
BYBLOCK
 62
     0
 10
18.436056002534642
 20
20.838345923336188
 30
0.0
  0
POINT
  5
1C6
  8
DEFPOINTS
  6
BYBLOCK
 62
     0
 10
18.436056002534642
 20
20.830120801598088
 30
0.0
  0
ENDBLK
  5
1C7
  8
0
  0
ENDSEC
  0
SECTION
  2
ENTITIES
  0
LINE
  5
1C8
  8
OBJECT
 10
6.3110560025346478
 20
20.76037727310397
 30
0.0
 11
6.3110560025346478
 21
28.63637727310396
 31
0.0
  0
LINE
  5
1C9
  8
OBJECT
 10
6.3730560025346534
 20
28.698377273103951
 30
0.0
 11
18.24905600253464
 21
28.698377273103951
 31
0.0
  0
LINE
  5
1CA
  8
OBJECT
 10
18.311056002534642
 20
28.63637727310396
 30
0.0
 11
18.311056002534642
 21
20.76037727310397
 31
0.0
  0
LINE
  5
1CB
  8
OBJECT
 10
18.24905600253464
 20
20.698377273103961
 30
0.0
 11
6.3730560025346534
 21
20.698377273103961
 31
0.0
  0
ARC
  5
1CC
  8
OBJECT
 10
18.24905600253464
 20
20.76037727310397
 30
0.0
 40
0.062
 50
270.0
 51
0.0
  0
ARC
  5
1CD
  8
OBJECT
 10
18.24905600253464
 20
28.63637727310396
 30
0.0
 40
0.062
 50
0.0
 51
90.0
  0
ARC
  5
1CE
  8
OBJECT
 10
6.3730560025346534
 20
28.63637727310396
 30
0.0
 40
0.062
 50
90.0
 51
180.0
  0
ARC
  5
1CF
  8
OBJECT
 10
6.3730560025346534
 20
20.76037727310397
 30
0.0
 40
0.062
 50
180.0
 51
270.0
  0
LINE
  5
1D0
  8
OBJECT
 10
6.4360560025346478
 20
28.573377273103961
 30
0.0
 11
18.186056002534649
 21
28.573377273103961
 31
0.0
  0
LINE
  5
1D1
  8
OBJECT
 10
6.4360560025346478
 20
20.823377273103961
 30
0.0
 11
6.4360560025346478
 21
28.573377273103961
 31
0.0
  0
LINE
  5
1D2
  8
OBJECT
 10
18.186056002534642
 20
20.823377273103961
 30
0.0
 11
6.4360560025346478
 21
20.823377273103961
 31
0.0
  0
LINE
  5
1D3
  8
OBJECT
 10
18.186056002534649
 20
28.573377273103961
 30
0.0
 11
18.186056002534642
 21
20.823377273103961
 31
0.0
  0
LINE
  5
1D4
  8
OBJECT
 10
18.061056002534649
 20
28.448377273103951
 30
0.0
 11
18.061056002534649
 21
20.948377273103961
 31
0.0
  0
LINE
  5
1D5
  8
OBJECT
 10
18.061056002534649
 20
20.948377273103961
 30
0.0
 11
6.5610560025346478
 21
20.948377273103961
 31
0.0
  0
LINE
  5
1D6
  8
OBJECT
 10
6.5610560025346478
 20
28.448377273103951
 30
0.0
 11
18.061056002534649
 21
28.448377273103951
 31
0.0
  0
LINE
  5
1D7
  8
OBJECT
 10
6.5610560025346478
 20
20.948377273103961
 30
0.0
 11
6.5610560025346478
 21
28.448377273103951
 31
0.0
  0
LINE
  5
1D8
  8
OBJECT
 10
6.6235560025346478
 20
28.573377273103961
 30
0.0
 11
6.9673060025346478
 21
28.573377273103961
 31
0.0
  0
LINE
  5
1D9
  8
OBJECT
 10
23.12927919100385
 20
28.698377273103951
 30
0.0
 11
24.12927919100385
 21
28.698377273103951
 31
0.0
  0
LINE
  5
1DA
  8
OBJECT
 10
23.12927919100385
 20
20.698377273103969
 30
0.0
 11
24.12927919100385
 21
20.698377273103969
 31
0.0
  0
LINE
  5
1DB
  8
OBJECT
 10
23.12927919100385
 20
28.698377273103951
 30
0.0
 11
23.12927919100385
 21
20.698377273103969
 31
0.0
  0
LINE
  5
1DC
  8
OBJECT
 10
41.879279191003839
 20
25.198377273103961
 30
0.0
 11
41.879279191003839
 21
24.198377273103961
 31
0.0
  0
LINE
  5
1DD
  8
OBJECT
 10
41.879279191003839
 20
25.198377273103961
 30
0.0
 11
24.12927919100385
 21
25.198377273103961
 31
0.0
  0
LINE
  5
1DE
  8
OBJECT
 10
41.879279191003839
 20
24.198377273103961
 30
0.0
 11
25.50427919100386
 21
24.198377273103961
 31
0.0
  0
LINE
  5
1DF
  8
OBJECT
 10
12.31105600253465
 20
20.948377273103961
 30
0.0
 11
12.31105600253465
 21
20.823377273103961
 31
0.0
  0
LINE
  5
1E0
  8
OBJECT
 10
6.5610560025346478
 20
20.948377273103961
 30
0.0
 11
6.4360560025346478
 21
20.823377273103961
 31
0.0
  0
LINE
  5
1E1
  8
OBJECT
 10
6.5610560025346478
 20
28.448377273103951
 30
0.0
 11
6.4360560025346478
 21
28.573377273103961
 31
0.0
  0
LINE
  5
1E2
  8
OBJECT
 10
18.061056002534649
 20
28.448377273103951
 30
0.0
 11
18.186056002534649
 21
28.573377273103961
 31
0.0
  0
LINE
  5
1E3
  8
OBJECT
 10
18.061056002534649
 20
20.948377273103961
 30
0.0
 11
18.186056002534642
 21
20.823377273103961
 31
0.0
  0
LINE
  5
1E4
  8
OBJECT
 10
24.12927919100385
 20
28.698377273103951
 30
0.0
 11
24.12927919100385
 21
20.698377273103969
 31
0.0
  0
LINE
  5
1E5
  8
OBJECT
 10
41.81677919100386
 20
20.760877273103969
 30
0.0
 11
41.816779191003832
 21
24.198377273103961
 31
0.0
  0
LINE
  5
1E6
  8
OBJECT
 10
41.816779191003832
 20
25.198377273103961
 30
0.0
 11
41.816779191003839
 21
28.635877273103951
 31
0.0
  0
LINE
  5
1E7
  8
OBJECT
 10
24.12927919100385
 20
28.635877273103951
 30
0.0
 11
41.816779191003839
 21
28.635877273103951
 31
0.0
  0
LINE
  5
1E8
  8
OBJECT
 10
24.12927919100385
 20
20.760877273103969
 30
0.0
 11
24.75427919100385
 21
20.760877273103969
 31
0.0
  0
LINE
  5
1E9
  8
OBJECT
 10
24.381008675350511
 20
45.454957091226291
 30
0.0
 11
24.381008675350511
 21
37.454957091226291
 31
0.0
  0
LINE
  5
1EA
  8
OBJECT
 10
24.381008675350511
 20
37.454957091226291
 30
0.0
 11
34.773313520763779
 21
43.454957091226291
 31
0.0
  0
LINE
  5
1EB
  8
OBJECT
 10
34.773313520763779
 20
43.454957091226291
 30
0.0
 11
34.773313520763779
 21
51.454957091226298
 31
0.0
  0
LINE
  5
1EC
  8
OBJECT
 10
34.773313520763779
 20
51.454957091226298
 30
0.0
 11
24.381008675350511
 21
45.454957091226291
 31
0.0
  0
LINE
  5
1ED
  8
OBJECT
 10
23.51498327156607
 20
38.0789570912263
 30
0.0
 11
22.865464218727741
 21
38.4539570912263
 31
0.0
  0
LINE
  5
1EE
  8
OBJECT
 10
8.1430323543922825
 20
50.329957091226298
 30
0.0
 11
8.1430323543922825
 21
51.329957091226298
 31
0.0
  0
LINE
  5
1EF
  8
OBJECT
 10
8.2504195044615543
 20
54.7679570912263
 30
0.0
 11
24.381008675350511
 21
45.454957091226291
 31
0.0
  0
LINE
  5
1F0
  8
OBJECT
 10
33.799900966910059
 20
51.8929570912263
 30
0.0
 11
18.53533719980555
 21
60.705957091226288
 31
0.0
  0
LINE
  5
1F1
  8
OBJECT
 10
18.53533719980555
 20
60.705957091226288
 30
0.0
 11
8.2504195044615543
 21
54.7679570912263
 31
0.0
  0
LINE
  5
1F2
  8
OBJECT
 10
34.665060345290712
 20
43.517457091226298
 30
0.0
 11
34.286607243836912
 21
43.73595709122629
 31
0.0
  0
LINE
  5
1F3
  8
OBJECT
 10
24.48926185082356
 20
45.392457091226298
 30
0.0
 11
24.48926185082356
 21
37.642457091226291
 31
0.0
  0
LINE
  5
1F4
  8
OBJECT
 10
34.665060345290712
 20
51.267457091226298
 30
0.0
 11
24.48926185082356
 21
45.392457091226298
 31
0.0
  0
LINE
  5
1F5
  8
OBJECT
 10
24.48926185082356
 20
37.642457091226291
 30
0.0
 11
34.665060345290712
 21
43.517457091226298
 31
0.0
  0
LINE
  5
1F6
  8
OBJECT
 10
34.665060345290712
 20
43.517457091226298
 30
0.0
 11
34.665060345290712
 21
51.267457091226298
 31
0.0
  0
LINE
  5
1F7
  8
OBJECT
 10
33.907288116979331
 20
51.954957091226298
 30
0.0
 11
23.51498327156607
 21
45.954957091226291
 31
0.0
  0
LINE
  5
1F8
  8
OBJECT
 10
23.51498327156607
 20
45.954957091226291
 30
0.0
 11
23.51498327156607
 21
37.954957091226291
 31
0.0
  0
LINE
  5
1F9
  8
OBJECT
 10
23.51498327156607
 20
42.454957091226291
 30
0.0
 11
8.1430323543922825
 21
51.329957091226298
 31
0.0
  0
LINE
  5
1FA
  8
OBJECT
 10
23.51498327156607
 20
41.454957091226298
 30
0.0
 11
22.865464218727741
 21
41.829957091226291
 31
0.0
  0
LINE
  5
1FB
  8
OBJECT
 10
8.1430323543922825
 20
51.329957091226298
 30
0.0
 11
8.2504195044615543
 21
51.391957091226288
 31
0.0
  0
LINE
  5
1FC
  8
OBJECT
 10
23.51498327156607
 20
42.516957091226288
 30
0.0
 11
8.2504195044615543
 21
51.329957091226298
 31
0.0
  0
LINE
  5
1FD
  8
OBJECT
 10
8.2504195044615543
 20
51.329957091226298
 30
0.0
 11
8.2504195044615543
 21
54.7679570912263
 31
0.0
  0
LINE
  5
1FE
  8
OBJECT
 10
8.2504195044615543
 20
50.2679570912263
 30
0.0
 11
8.2504195044615543
 21
46.891957091226288
 31
0.0
  0
LINE
  5
1FF
  8
OBJECT
 10
23.51498327156607
 20
37.954957091226291
 30
0.0
 11
24.381008675350511
 21
37.454957091226291
 31
0.0
  0
LINE
  5
200
  8
OBJECT
 10
33.907288116979331
 20
51.954957091226298
 30
0.0
 11
34.773313520763779
 21
51.454957091226298
 31
0.0
  0
LINE
  5
201
  8
OBJECT
 10
34.286607243836912
 20
43.73595709122629
 30
0.0
 11
34.286607243836912
 21
51.048957091226292
 31
0.0
  0
LINE
  5
202
  8
OBJECT
 10
24.48926185082356
 20
38.079457091226303
 30
0.0
 11
34.286607243836912
 21
43.73595709122629
 31
0.0
  0
LINE
  5
203
  8
OBJECT
 10
22.311065028922648
 20
42.790204655643741
 30
0.0
 11
22.419318204395712
 21
42.852704655643741
 31
0.0
  0
LINE
  5
204
  8
OBJECT
 10
22.865464218727741
 20
42.049627005336397
 30
0.0
 11
22.87859753116755
 21
42.057209526808869
 31
0.0
  0
POLYLINE
  5
205
  8
OBJECT
 66
     1
 10
0.0
 20
0.0
 30
0.0
  0
VERTEX
  5
428
  8
OBJECT
 10
22.87859753116755
 20
42.057209526808869
 30
0.0
 42
0.1568512196707774
  0
VERTEX
  5
429
  8
OBJECT
 10
22.94392484741952
 20
42.129327740240399
 30
0.0
 42
0.1066170543910085
  0
VERTEX
  5
42A
  8
OBJECT
 10
22.973717394200779
 20
42.267457091226312
 30
0.0
 42
0.0723410840576617
  0
VERTEX
  5
42B
  8
OBJECT
 10
22.951973079613872
 20
42.416960805582683
 30
0.0
 42
0.0587518675353748
  0
VERTEX
  5
42C
  8
OBJECT
 10
22.87859753116755
 20
42.587539612698777
 30
0.0
 42
0.0587518675353754
  0
VERTEX
  5
42D
  8
OBJECT
 10
22.767559725080918
 20
42.736374105227959
 30
0.0
 42
0.072341084057657
  0
VERTEX
  5
42E
  8
OBJECT
 10
22.648957867781629
 20
42.829957091226298
 30
0.0
 42
0.1066170543910058
  0
VERTEX
  5
42F
  8
OBJECT
 10
22.514438067428941
 20
42.873220664363231
 30
0.0
 42
0.1568512196707745
  0
VERTEX
  5
430
  8
OBJECT
 10
22.419318204395712
 20
42.852704655643741
 30
0.0
 42
0.1568512196707766
  0
SEQEND
  5
431
  8
OBJECT
  0
LINE
  5
210
  8
OBJECT
 10
23.623236447039119
 20
36.267457091226298
 30
0.0
 11
23.623236447039108
 21
35.892457091226298
 31
0.0
  0
LINE
  5
211
  8
OBJECT
 10
23.514983271566049
 20
36.079957091226291
 30
0.0
 11
23.514983271566049
 21
36.204957091226291
 31
0.0
  0
LINE
  5
212
  8
OBJECT
 10
23.298476920619962
 20
36.079957091226298
 30
0.0
 11
23.514983271566049
 21
36.204957091226291
 31
0.0
  0
LINE
  5
213
  8
OBJECT
 10
22.865464218727741
 20
36.579957091226298
 30
0.0
 11
22.865464218727741
 21
36.579957091226298
 31
0.0
  0
LINE
  5
214
  8
OBJECT
 10
22.865464218727741
 20
36.329957091226298
 30
0.0
 11
22.865464218727741
 21
42.204957091226298
 31
0.0
  0
LINE
  5
215
  8
OBJECT
 10
22.757211043254681
 20
42.142457091226291
 30
0.0
 11
22.757211043254681
 21
41.783530437229821
 31
0.0
  0
LINE
  5
216
  8
OBJECT
 10
22.107691990416349
 20
41.321004915540598
 30
0.0
 11
22.107691990416349
 21
36.642457091226298
 31
0.0
  0
LINE
  5
217
  8
OBJECT
 10
22.26622509547175
 20
36.292044483863911
 30
0.0
 11
22.915744148310079
 21
35.917044483863911
 31
0.0
  0
POLYLINE
  5
218
  8
OBJECT
 66
     1
 10
0.0
 20
0.0
 30
0.0
  0
VERTEX
  5
432
  8
OBJECT
 10
22.757211043254681
 20
36.267457091226298
 30
0.0
 42
0.106617054391006
  0
VERTEX
  5
433
  8
OBJECT
 10
22.80686528789013
 20
36.037241506249799
 30
0.0
 42
0.156851219670777
  0
VERTEX
  5
434
  8
OBJECT
 10
22.915744148310079
 20
35.917044483863911
 30
0.0
 42
0.156851219670778
  0
VERTEX
  5
435
  8
OBJECT
 10
23.07427725336548
 20
35.882851135998067
 30
0.0
 42
0.1066170543910099
  0
VERTEX
  5
436
  8
OBJECT
 10
23.298476920619962
 20
35.954957091226298
 30
0.0
 42
0.0723410840576632
  0
SEQEND
  5
437
  8
OBJECT
  0
POLYLINE
  5
21F
  8
OBJECT
 66
     1
 10
0.0
 20
0.0
 30
0.0
  0
VERTEX
  5
438
  8
OBJECT
 10
22.865464218727741
 20
36.329957091226298
 30
0.0
 42
0.1066170543910094
  0
VERTEX
  5
439
  8
OBJECT
 10
22.905187614436102
 20
36.145784623245099
 30
0.0
 42
0.1568512196707716
  0
VERTEX
  5
43A
  8
OBJECT
 10
22.992290702772049
 20
36.04962700533639
 30
0.0
 42
0.1568512196707756
  0
VERTEX
  5
43B
  8
OBJECT
 10
23.119117186816379
 20
36.022272327043723
 30
0.0
 42
0.1066170543910092
  0
VERTEX
  5
43C
  8
OBJECT
 10
23.298476920619962
 20
36.079957091226298
 30
0.0
 42
0.0723410840576553
  0
SEQEND
  5
43D
  8
OBJECT
  0
POLYLINE
  5
226
  8
OBJECT
 66
     1
 10
0.0
 20
0.0
 30
0.0
  0
VERTEX
  5
43E
  8
OBJECT
 10
22.107691990416349
 20
36.642457091226298
 30
0.0
 42
0.106617054391006
  0
VERTEX
  5
43F
  8
OBJECT
 10
22.157346235051801
 20
36.412241506249799
 30
0.0
 42
0.1568512196707774
  0
VERTEX
  5
440
  8
OBJECT
 10
22.26622509547175
 20
36.292044483863911
 30
0.0
 42
0.156851219670778
  0
SEQEND
  5
441
  8
OBJECT
  0
LINE
  5
22B
  8
OBJECT
 10
23.298476920619962
 20
35.954957091226298
 30
0.0
 11
23.514983271566049
 21
36.079957091226291
 31
0.0
  0
LINE
  5
22C
  8
OBJECT
 10
23.406730096093
 20
36.017457091226298
 30
0.0
 11
23.623236447039108
 21
35.892457091226298
 31
0.0
  0
LINE
  5
22D
  8
OBJECT
 10
22.865464218727741
 20
36.579957091226298
 30
0.0
 11
23.514983271566049
 21
36.204957091226291
 31
0.0
  0
LINE
  5
22E
  8
OBJECT
 10
22.865464218727741
 20
36.704957091226291
 30
0.0
 11
23.623236447039119
 21
36.267457091226298
 31
0.0
  0
LINE
  5
22F
  8
OBJECT
 10
22.757211043254681
 20
36.767457091226291
 30
0.0
 11
22.757211043254671
 21
36.517457091226291
 31
0.0
  0
POLYLINE
  5
230
  8
OBJECT
 66
     1
 10
0.0
 20
0.0
 30
0.0
  0
VERTEX
  5
442
  8
OBJECT
 10
22.865464218727741
 20
42.204957091226291
 30
0.0
 42
0.072341084057662
  0
VERTEX
  5
443
  8
OBJECT
 10
22.843719904140819
 20
42.354460805582683
 30
0.0
 42
0.0587518675353754
  0
VERTEX
  5
444
  8
OBJECT
 10
22.77034435569448
 20
42.525039612698777
 30
0.0
 42
0.0587518675353685
  0
VERTEX
  5
445
  8
OBJECT
 10
22.659306549607869
 20
42.673874105227959
 30
0.0
 42
0.0723410840576506
  0
VERTEX
  5
446
  8
OBJECT
 10
22.540704692308559
 20
42.767457091226291
 30
0.0
 42
0.1066170543910108
  0
VERTEX
  5
447
  8
OBJECT
 10
22.406184891955881
 20
42.810720664363231
 30
0.0
 42
0.1568512196707764
  0
VERTEX
  5
448
  8
OBJECT
 10
22.311065028922648
 20
42.790204655643727
 30
0.0
 42
0.15685121967077
  0
SEQEND
  5
449
  8
OBJECT
  0
LINE
  5
239
  8
OBJECT
 10
22.202811853449582
 20
42.727704655643727
 30
0.0
 11
22.311065028922648
 21
42.790204655643727
 31
0.0
  0
LINE
  5
23A
  8
OBJECT
 10
33.474275415087099
 20
42.454957091226291
 30
0.0
 11
33.474275415087099
 21
42.704957091226298
 31
0.0
  0
LINE
  5
23B
  8
OBJECT
 10
33.582528590560152
 20
42.517457091226291
 30
0.0
 11
33.582528590560152
 21
42.767457091226291
 31
0.0
  0
LINE
  5
23C
  8
OBJECT
 10
23.623236447039119
 20
36.267457091226298
 30
0.0
 11
32.93300953772183
 21
41.642457091226298
 31
0.0
  0
LINE
  5
23D
  8
OBJECT
 10
23.623236447039108
 20
35.892457091226298
 30
0.0
 11
32.933009537721809
 21
41.267457091226291
 31
0.0
  0
LINE
  5
23E
  8
OBJECT
 10
22.865464218727741
 20
36.829957091226291
 30
0.0
 11
24.164502324404388
 21
37.579957091226298
 31
0.0
  0
LINE
  5
23F
  8
OBJECT
 10
33.041262713194882
 20
41.704957091226291
 30
0.0
 11
32.93300953772183
 21
41.642457091226298
 31
0.0
  0
LINE
  5
240
  8
OBJECT
 10
32.93300953772183
 20
41.517457091226291
 30
0.0
 11
33.041262713194882
 21
41.579957091226291
 31
0.0
  0
LINE
  5
241
  8
OBJECT
 10
32.283490484883501
 20
42.017457091226291
 30
0.0
 11
32.93300953772183
 21
41.642457091226298
 31
0.0
  0
LINE
  5
242
  8
OBJECT
 10
32.93300953772183
 20
41.642457091226298
 30
0.0
 11
32.933009537721809
 21
41.267457091226291
 31
0.0
  0
POLYLINE
  5
243
  8
OBJECT
 66
     1
 10
0.0
 20
0.0
 30
0.0
  0
VERTEX
  5
44A
  8
OBJECT
 10
33.041262713194882
 20
41.704957091226291
 30
0.0
 42
0.0723410840576592
  0
VERTEX
  5
44B
  8
OBJECT
 10
33.199398522927289
 20
41.829734405890747
 30
0.0
 42
0.058751867535372
  0
VERTEX
  5
44C
  8
OBJECT
 10
33.347448931042791
 20
42.028180395929652
 30
0.0
 42
0.0587518675353782
  0
VERTEX
  5
44D
  8
OBJECT
 10
33.445282995637889
 20
42.255618805417811
 30
0.0
 42
0.0723410840576481
  0
VERTEX
  5
44E
  8
OBJECT
 10
33.474275415087099
 20
42.454957091226291
 30
0.0
 42
0.1066170543910031
  0
SEQEND
  5
44F
  8
OBJECT
  0
POLYLINE
  5
24A
  8
OBJECT
 66
     1
 10
0.0
 20
0.0
 30
0.0
  0
VERTEX
  5
450
  8
OBJECT
 10
33.041262713194882
 20
41.579957091226291
 30
0.0
 42
0.0723410840576583
  0
VERTEX
  5
451
  8
OBJECT
 10
33.238932475360379
 20
41.73592873455685
 30
0.0
 42
0.0587518675353753
  0
VERTEX
  5
452
  8
OBJECT
 10
33.423995485504761
 20
41.983986222105493
 30
0.0
 42
0.0587518675353787
  0
VERTEX
  5
453
  8
OBJECT
 10
33.546288066248628
 20
42.268284233965673
 30
0.0
 42
0.0723410840576625
  0
VERTEX
  5
454
  8
OBJECT
 10
33.582528590560152
 20
42.517457091226291
 30
0.0
 42
0.1066170543910042
  0
SEQEND
  5
455
  8
OBJECT
  0
LINE
  5
251
  8
OBJECT
 10
22.107691990416349
 20
38.8914570912263
 30
0.0
 11
8.2504195044615543
 21
46.891957091226288
 31
0.0
  0
LINE
  5
252
  8
OBJECT
 10
21.415352308593281
 20
42.667179592897519
 30
0.0
 11
8.1430323543922825
 21
50.329957091226298
 31
0.0
  0
LINE
  5
253
  8
OBJECT
 10
22.189123606453499
 20
42.63141339490749
 30
0.0
 11
22.24108513068057
 21
42.661413394907491
 31
0.0
  0
LINE
  5
254
  8
OBJECT
 10
22.571856378763378
 20
41.968500787545103
 30
0.0
 11
22.623817902990449
 21
41.998500787545098
 31
0.0
  0
POLYLINE
  5
255
  8
OBJECT
 66
     1
 10
0.0
 20
0.0
 30
0.0
  0
VERTEX
  5
456
  8
OBJECT
 10
22.623817902990449
 20
41.998500787545098
 30
0.0
 42
0.1568512196707786
  0
VERTEX
  5
457
  8
OBJECT
 10
22.678257333200431
 20
42.058599298738052
 30
0.0
 42
0.1066170543910083
  0
VERTEX
  5
458
  8
OBJECT
 10
22.703084455518152
 20
42.173707091226291
 30
0.0
 42
0.0723410840576592
  0
VERTEX
  5
459
  8
OBJECT
 10
22.684964193362379
 20
42.298293519856607
 30
0.0
 42
0.0587518675353776
  0
VERTEX
  5
45A
  8
OBJECT
 10
22.623817902990449
 20
42.4404425257867
 30
0.0
 42
0.0587518675353761
  0
VERTEX
  5
45B
  8
OBJECT
 10
22.531286397918262
 20
42.564471269561018
 30
0.0
 42
0.0723410840576606
  0
VERTEX
  5
45C
  8
OBJECT
 10
22.43245151683551
 20
42.642457091226291
 30
0.0
 42
0.106617054391008
  0
VERTEX
  5
45D
  8
OBJECT
 10
22.32035168320828
 20
42.678510068840417
 30
0.0
 42
0.1568512196707773
  0
VERTEX
  5
45E
  8
OBJECT
 10
22.24108513068057
 20
42.661413394907491
 30
0.0
 42
0.1568512196707767
  0
SEQEND
  5
45F
  8
OBJECT
  0
POLYLINE
  5
260
  8
OBJECT
 66
     1
 10
0.0
 20
0.0
 30
0.0
 70
     1
  0
VERTEX
  5
460
  8
OBJECT
 10
33.966274538209632
 20
43.92090126505046
 30
0.0
 42
0.0587518675353828
  0
VERTEX
  5
461
  8
OBJECT
 10
33.941816022060848
 20
43.86404166267841
 30
0.0
 42
0.0723410840576496
  0
VERTEX
  5
462
  8
OBJECT
 10
33.934567917198549
 20
43.814207091226301
 30
0.0
 42
0.1066170543910237
  0
VERTEX
  5
463
  8
OBJECT
 10
33.944498766125633
 20
43.768163974231001
 30
0.0
 42
0.1568512196708087
  0
VERTEX
  5
464
  8
OBJECT
 10
33.966274538209632
 20
43.744124569753822
 30
0.0
 42
0.1568512196707601
  0
VERTEX
  5
465
  8
OBJECT
 10
33.9979811592207
 20
43.737285900180652
 30
0.0
 42
0.1066170543910041
  0
VERTEX
  5
466
  8
OBJECT
 10
34.042821092671602
 20
43.751707091226301
 30
0.0
 42
0.0723410840576665
  0
VERTEX
  5
467
  8
OBJECT
 10
34.082355045104691
 20
43.782901419892411
 30
0.0
 42
0.0587518675353875
  0
VERTEX
  5
468
  8
OBJECT
 10
34.119367647133572
 20
43.832512917402141
 30
0.0
 42
0.0587518675353685
  0
VERTEX
  5
469
  8
OBJECT
 10
34.143826163282348
 20
43.88937251977417
 30
0.0
 42
0.0723410840576432
  0
VERTEX
  5
46A
  8
OBJECT
 10
34.151074268144647
 20
43.939207091226301
 30
0.0
 42
0.1066170543910117
  0
VERTEX
  5
46B
  8
OBJECT
 10
34.141143419217549
 20
43.985250208221601
 30
0.0
 42
0.1568512196707522
  0
VERTEX
  5
46C
  8
OBJECT
 10
34.119367647133572
 20
44.00928961269878
 30
0.0
 42
0.1568512196707797
  0
VERTEX
  5
46D
  8
OBJECT
 10
34.08766102612249
 20
44.016128282271943
 30
0.0
 42
0.1066170543910074
  0
VERTEX
  5
46E
  8
OBJECT
 10
34.042821092671602
 20
44.001707091226301
 30
0.0
 42
0.0723410840576625
  0
VERTEX
  5
46F
  8
OBJECT
 10
34.003287140238491
 20
43.97051276256019
 30
0.0
 42
0.0587518675353803
  0
SEQEND
  5
470
  8
OBJECT
  0
LINE
  5
272
  8
OBJECT
 10
34.042821092671602
 20
43.798495717774379
 30
0.0
 11
34.042821092671602
 21
43.954918464678201
 31
0.0
  0
LINE
  5
273
  8
OBJECT
 10
33.975088056397361
 20
43.83760140450034
 30
0.0
 11
34.110554128945822
 21
43.915812777952247
 31
0.0
  0
LINE
  5
274
  8
OBJECT
 10
33.912147950473091
 20
43.775374569753822
 30
0.0
 11
33.966274538209632
 21
43.744124569753822
 31
0.0
  0
LINE
  5
275
  8
OBJECT
 10
34.065241059397053
 20
44.040539612698772
 30
0.0
 11
34.119367647133572
 21
44.009289612698772
 31
0.0
  0
POLYLINE
  5
276
  8
OBJECT
 66
     1
 10
0.0
 20
0.0
 30
0.0
  0
VERTEX
  5
471
  8
OBJECT
 10
33.912147950473091
 20
43.952151265050453
 30
0.0
 42
0.0587518675353828
  0
VERTEX
  5
472
  8
OBJECT
 10
33.887689434324308
 20
43.89529166267841
 30
0.0
 42
0.0723410840576496
  0
VERTEX
  5
473
  8
OBJECT
 10
33.880441329462009
 20
43.845457091226301
 30
0.0
 42
0.1066170543910237
  0
VERTEX
  5
474
  8
OBJECT
 10
33.890372178389107
 20
43.799413974231001
 30
0.0
 42
0.1568512196708055
  0
VERTEX
  5
475
  8
OBJECT
 10
33.912147950473091
 20
43.775374569753822
 30
0.0
 42
0.1568512196707601
  0
SEQEND
  5
476
  8
OBJECT
  0
POLYLINE
  5
27D
  8
OBJECT
 66
     1
 10
0.0
 20
0.0
 30
0.0
  0
VERTEX
  5
477
  8
OBJECT
 10
34.065241059397039
 20
44.04053961269878
 30
0.0
 42
0.1568512196707797
  0
VERTEX
  5
478
  8
OBJECT
 10
34.033534438385971
 20
44.047378282271943
 30
0.0
 42
0.1066170543910074
  0
VERTEX
  5
479
  8
OBJECT
 10
33.988694504935062
 20
44.032957091226287
 30
0.0
 42
0.0723410840576625
  0
VERTEX
  5
47A
  8
OBJECT
 10
33.949160552501979
 20
44.00176276256019
 30
0.0
 42
0.0587518675353803
  0
VERTEX
  5
47B
  8
OBJECT
 10
33.912147950473091
 20
43.952151265050453
 30
0.0
 42
0.0587518675353828
  0
SEQEND
  5
47C
  8
OBJECT
  0
LINE
  5
284
  8
OBJECT
 10
24.48926185082356
 20
38.36095709122629
 30
0.0
 11
24.584274687316999
 21
38.415812777952247
 31
0.0
  0
LINE
  5
285
  8
OBJECT
 10
24.516541651042768
 20
38.298495717774379
 30
0.0
 11
24.516541651042768
 21
38.454918464678208
 31
0.0
  0
LINE
  5
286
  8
OBJECT
 10
24.538961617768219
 20
38.540539612698772
 30
0.0
 11
24.593088205504749
 21
38.509289612698772
 31
0.0
  0
LINE
  5
287
  8
OBJECT
 10
33.975088056397361
 20
50.837601404500347
 30
0.0
 11
34.110554128945822
 21
50.915812777952247
 31
0.0
  0
LINE
  5
288
  8
OBJECT
 10
34.042821092671602
 20
50.798495717774387
 30
0.0
 11
34.042821092671602
 21
50.908207091226288
 31
0.0
  0
LINE
  5
289
  8
OBJECT
 10
33.912147950473091
 20
50.775374569753822
 30
0.0
 11
33.966274538209632
 21
50.744124569753822
 31
0.0
  0
LINE
  5
28A
  8
OBJECT
 10
24.516541651042768
 20
45.298495717774387
 30
0.0
 11
24.516541651042768
 21
45.408207091226302
 31
0.0
  0
LINE
  5
28B
  8
OBJECT
 10
24.48926185082356
 20
45.36095709122629
 30
0.0
 11
24.584274687316999
 21
45.415812777952247
 31
0.0
  0
POLYLINE
  5
28C
  8
OBJECT
 66
     1
 10
0.0
 20
0.0
 30
0.0
  0
VERTEX
  5
47D
  8
OBJECT
 10
24.48926185082356
 20
45.240457644359921
 30
0.0
 42
0.0663329977023229
  0
VERTEX
  5
47E
  8
OBJECT
 10
24.516541651042768
 20
45.251707091226301
 30
0.0
 42
0.0723410840576665
  0
VERTEX
  5
47F
  8
OBJECT
 10
24.556075603475868
 20
45.282901419892397
 30
0.0
 42
0.0587518675353875
  0
VERTEX
  5
480
  8
OBJECT
 10
24.593088205504749
 20
45.332512917402127
 30
0.0
 42
0.0587518675353685
  0
VERTEX
  5
481
  8
OBJECT
 10
24.617546721653529
 20
45.38937251977417
 30
0.0
 42
0.0723410840576432
  0
VERTEX
  5
482
  8
OBJECT
 10
24.624794826515821
 20
45.439207091226287
 30
0.0
 42
0.0663329977023245
  0
VERTEX
  5
483
  8
OBJECT
 10
24.620897233171011
 20
45.468456814659483
 30
0.0
 42
0.1568512196707522
  0
SEQEND
  5
484
  8
OBJECT
  0
POLYLINE
  5
295
  8
OBJECT
 66
     1
 10
0.0
 20
0.0
 30
0.0
  0
VERTEX
  5
485
  8
OBJECT
 10
33.884222439971239
 20
50.816640116396627
 30
0.0
 42
0.0410058124870178
  0
VERTEX
  5
486
  8
OBJECT
 10
33.890372178389107
 20
50.799413974231001
 30
0.0
 42
0.1568512196708055
  0
VERTEX
  5
487
  8
OBJECT
 10
33.912147950473091
 20
50.775374569753822
 30
0.0
 42
0.1568512196707601
  0
SEQEND
  5
488
  8
OBJECT
  0
POLYLINE
  5
29A
  8
OBJECT
 66
     1
 10
0.0
 20
0.0
 30
0.0
  0
VERTEX
  5
489
  8
OBJECT
 10
33.937776632576039
 20
50.84755964391325
 30
0.0
 42
0.0479922021134889
  0
VERTEX
  5
48A
  8
OBJECT
 10
33.934567917198549
 20
50.814207091226301
 30
0.0
 42
0.1066170543910237
  0
VERTEX
  5
48B
  8
OBJECT
 10
33.944498766125633
 20
50.768163974231001
 30
0.0
 42
0.1568512196708087
  0
VERTEX
  5
48C
  8
OBJECT
 10
33.966274538209632
 20
50.744124569753822
 30
0.0
 42
0.1568512196707601
  0
VERTEX
  5
48D
  8
OBJECT
 10
33.9979811592207
 20
50.737285900180652
 30
0.0
 42
0.1066170543910041
  0
VERTEX
  5
48E
  8
OBJECT
 10
34.042821092671602
 20
50.751707091226301
 30
0.0
 42
0.0723410840576665
  0
VERTEX
  5
48F
  8
OBJECT
 10
34.082355045104691
 20
50.782901419892411
 30
0.0
 42
0.0587518675353875
  0
VERTEX
  5
490
  8
OBJECT
 10
34.119367647133572
 20
50.832512917402141
 30
0.0
 42
0.0587518675353685
  0
VERTEX
  5
491
  8
OBJECT
 10
34.143826163282348
 20
50.889372519774177
 30
0.0
 42
0.0723410840576432
  0
VERTEX
  5
492
  8
OBJECT
 10
34.151074268144647
 20
50.939207091226301
 30
0.0
 42
0.0663329977023129
  0
VERTEX
  5
493
  8
OBJECT
 10
34.147176674799852
 20
50.968456814659483
 30
0.0
 42
0.1568512196707522
  0
SEQEND
  5
494
  8
OBJECT
  0
POLYLINE
  5
2A7
  8
OBJECT
 66
     1
 10
0.0
 20
0.0
 30
0.0
  0
VERTEX
  5
495
  8
OBJECT
 10
24.48926185082356
 20
38.240457644359928
 30
0.0
 42
0.0663329977023254
  0
VERTEX
  5
496
  8
OBJECT
 10
24.516541651042768
 20
38.251707091226301
 30
0.0
 42
0.0723410840576665
  0
VERTEX
  5
497
  8
OBJECT
 10
24.556075603475868
 20
38.282901419892397
 30
0.0
 42
0.0587518675353875
  0
VERTEX
  5
498
  8
OBJECT
 10
24.593088205504749
 20
38.332512917402127
 30
0.0
 42
0.0587518675353685
  0
VERTEX
  5
499
  8
OBJECT
 10
24.617546721653529
 20
38.38937251977417
 30
0.0
 42
0.0723410840576432
  0
VERTEX
  5
49A
  8
OBJECT
 10
24.624794826515821
 20
38.439207091226301
 30
0.0
 42
0.1066170543910117
  0
VERTEX
  5
49B
  8
OBJECT
 10
24.61486397758873
 20
38.485250208221601
 30
0.0
 42
0.1568512196707522
  0
VERTEX
  5
49C
  8
OBJECT
 10
24.593088205504749
 20
38.509289612698772
 30
0.0
 42
0.1568512196707797
  0
VERTEX
  5
49D
  8
OBJECT
 10
24.56138158449367
 20
38.516128282271943
 30
0.0
 42
0.1066170543910074
  0
VERTEX
  5
49E
  8
OBJECT
 10
24.516541651042768
 20
38.501707091226301
 30
0.0
 42
0.0479922021135018
  0
VERTEX
  5
49F
  8
OBJECT
 10
24.48926185082356
 20
38.482251985852393
 30
0.0
 42
0.0587518675353803
  0
SEQEND
  5
4A0
  8
OBJECT
  0
POLYLINE
  5
2B4
  8
OBJECT
 66
     1
 10
0.0
 20
0.0
 30
0.0
  0
VERTEX
  5
4A1
  8
OBJECT
 10
24.538961617768219
 20
38.540539612698772
 30
0.0
 42
0.1568512196707797
  0
VERTEX
  5
4A2
  8
OBJECT
 10
24.50725499675714
 20
38.547378282271943
 30
0.0
 42
0.041005812487024
  0
VERTEX
  5
4A3
  8
OBJECT
 10
24.48926185082356
 20
38.544091040885618
 30
0.0
 42
0.0723410840576625
  0
SEQEND
  5
4A4
  8
OBJECT
  0
LINE
  5
2B9
  8
OBJECT
 10
9.1701384832806312
 20
46.173957091226299
 30
0.0
 11
9.3320852337883196
 21
46.267457091226291
 31
0.0
  0
LINE
  5
2BA
  8
OBJECT
 10
8.4669258554076663
 20
46.579957091226291
 30
0.0
 11
9.1701384832806312
 21
46.173957091226299
 31
0.0
  0
LINE
  5
2BB
  8
OBJECT
 10
9.1701384832806312
 20
46.360957091226297
 30
0.0
 11
9.1701384832806312
 21
46.173957091226299
 31
0.0
  0
LINE
  5
2BC
  8
OBJECT
 10
8.4669258554076663
 20
46.766957091226288
 30
0.0
 11
8.4669258554076663
 21
46.579957091226291
 31
0.0
  0
LINE
  5
2BD
  8
OBJECT
 10
21.830197119827162
 20
41.804793519856617
 30
0.0
 11
22.37146299719242
 21
42.117293519856617
 31
0.0
  0
LINE
  5
2BE
  8
OBJECT
 10
21.676519324383019
 20
42.070971269561028
 30
0.0
 11
22.217785201748288
 21
42.383471269561028
 31
0.0
  0
LINE
  5
2BF
  8
OBJECT
 10
21.57764381988768
 20
42.586480543269097
 30
0.0
 11
22.118909697252949
 21
42.898980543269097
 31
0.0
  0
POLYLINE
  5
2C0
  8
OBJECT
 66
     1
 10
0.0
 20
0.0
 30
0.0
  0
VERTEX
  5
4A5
  8
OBJECT
 10
22.118909697252949
 20
42.898980543269097
 30
0.0
 42
0.0721156532689082
  0
VERTEX
  5
4A6
  8
OBJECT
 10
21.940266595493881
 20
42.970238997741063
 30
0.0
 42
0.1568512196707697
  0
SEQEND
  5
4A7
  8
OBJECT
  0
LINE
  5
2C4
  8
OBJECT
 10
22.22720349449714
 20
41.46141018429762
 30
0.0
 11
21.831794031013601
 21
41.79928796198854
 31
0.0
  0
LINE
  5
2C5
  8
OBJECT
 10
21.76905082945521
 20
41.5050007875451
 30
0.0
 11
22.199593575424739
 21
41.271071492727437
 31
0.0
  0
POLYLINE
  5
2C6
  8
OBJECT
 66
     1
 10
0.0
 20
0.0
 30
0.0
 70
     1
  0
VERTEX
  5
4A8
  8
OBJECT
 10
21.44388106610074
 20
41.759205675381672
 30
0.0
 42
0.058751867535381
  0
VERTEX
  5
4A9
  8
OBJECT
 10
21.508579094447221
 20
41.672484777734653
 30
0.0
 42
0.0723410840576458
  0
VERTEX
  5
4AA
  8
OBJECT
 10
21.577684443300271
 20
41.617957091226302
 30
0.0
 42
0.1066170543909836
  0
VERTEX
  5
4AB
  8
OBJECT
 10
21.656064646972439
 20
41.592748849278507
 30
0.0
 42
0.1568512196707554
  0
VERTEX
  5
4AC
  8
OBJECT
 10
21.711487820499809
 20
41.604702843692408
 30
0.0
 42
0.1568512196707747
  0
VERTEX
  5
4AD
  8
OBJECT
 10
21.749551870102621
 20
41.646723722718512
 30
0.0
 42
0.1066170543910035
  0
VERTEX
  5
4AE
  8
OBJECT
 10
21.766910994027171
 20
41.727207091226298
 30
0.0
 42
0.0723410840576653
  0
VERTEX
  5
4AF
  8
OBJECT
 10
21.754241306727859
 20
41.81431792212463
 30
0.0
 42
0.0587518675353661
  0
VERTEX
  5
4B0
  8
OBJECT
 10
21.711487820499809
 20
41.913708507070943
 30
0.0
 42
0.0587518675353711
  0
VERTEX
  5
4B1
  8
OBJECT
 10
21.646789792153321
 20
42.000429404717949
 30
0.0
 42
0.0723410840576299
  0
VERTEX
  5
4B2
  8
OBJECT
 10
21.577684443300271
 20
42.054957091226292
 30
0.0
 42
0.106617054390991
  0
VERTEX
  5
4B3
  8
OBJECT
 10
21.49930423962811
 20
42.080165333174079
 30
0.0
 42
0.1568512196708003
  0
VERTEX
  5
4B4
  8
OBJECT
 10
21.44388106610074
 20
42.068211338760193
 30
0.0
 42
0.1568512196707985
  0
VERTEX
  5
4B5
  8
OBJECT
 10
21.405817016497931
 20
42.026190459734089
 30
0.0
 42
0.1066170543910248
  0
VERTEX
  5
4B6
  8
OBJECT
 10
21.388457892573371
 20
41.945707091226303
 30
0.0
 42
0.0723410840576657
  0
VERTEX
  5
4B7
  8
OBJECT
 10
21.401127579872671
 20
41.858596260327992
 30
0.0
 42
0.0587518675353966
  0
SEQEND
  5
4B8
  8
OBJECT
  0
POLYLINE
  5
2D8
  8
OBJECT
 66
     1
 10
0.0
 20
0.0
 30
0.0
  0
VERTEX
  5
4B9
  8
OBJECT
 10
21.831794031013601
 20
41.79928796198854
 30
0.0
 42
0.003276791846508
  0
VERTEX
  5
4BA
  8
OBJECT
 10
21.830197119827162
 20
41.804793519856617
 30
0.0
 42
0.0587518675353777
  0
VERTEX
  5
4BB
  8
OBJECT
 10
21.76905082945521
 20
41.946942525786703
 30
0.0
 42
0.0587518675353672
  0
VERTEX
  5
4BC
  8
OBJECT
 10
21.676519324383019
 20
42.070971269561028
 30
0.0
 42
0.0723410840576335
  0
SEQEND
  5
4BD
  8
OBJECT
  0
POLYLINE
  5
2DE
  8
OBJECT
 66
     1
 10
0.0
 20
0.0
 30
0.0
  0
VERTEX
  5
4BE
  8
OBJECT
 10
21.386318057145338
 20
42.167913394907487
 30
0.0
 42
0.1568512196707718
  0
VERTEX
  5
4BF
  8
OBJECT
 10
21.33187862693536
 20
42.107814883714553
 30
0.0
 42
0.1066170543910068
  0
VERTEX
  5
4C0
  8
OBJECT
 10
21.30705150461764
 20
41.992707091226301
 30
0.0
 42
0.0690479246302176
  0
VERTEX
  5
4C1
  8
OBJECT
 10
21.323574855586951
 20
41.873626220464061
 30
0.0
 42
0.0587518675353535
  0
SEQEND
  5
4C2
  8
OBJECT
  0
LINE
  5
2E4
  8
OBJECT
 10
21.16916654956713
 20
41.489241115932529
 30
0.0
 11
21.478849562217551
 21
41.601942912891559
 31
0.0
  0
LINE
  5
2E5
  8
OBJECT
 10
21.07272764122952
 20
41.656278204999772
 30
0.0
 11
21.323574855586951
 21
41.873626220464061
 31
0.0
  0
POLYLINE
  5
2E6
  8
OBJECT
 66
     1
 10
0.0
 20
0.0
 30
0.0
  0
VERTEX
  5
4C3
  8
OBJECT
 10
21.07272764122952
 20
41.656278204999772
 30
0.0
 42
0.0152145278757514
  0
VERTEX
  5
4C4
  8
OBJECT
 10
21.118405116528429
 20
41.57129204828135
 30
0.0
 42
0.0587518675353782
  0
SEQEND
  5
4C5
  8
OBJECT
  0
POLYLINE
  5
2EA
  8
OBJECT
 66
     1
 10
0.0
 20
0.0
 30
0.0
  0
VERTEX
  5
4C6
  8
OBJECT
 10
21.118405116528429
 20
41.57129204828135
 30
0.0
 42
0.0152145278757518
  0
VERTEX
  5
4C7
  8
OBJECT
 10
21.16916654956713
 20
41.489241115932529
 30
0.0
 42
0.0723410840576626
  0
SEQEND
  5
4C8
  8
OBJECT
  0
POLYLINE
  5
2EE
  8
OBJECT
 66
     1
 10
0.0
 20
0.0
 30
0.0
  0
VERTEX
  5
4C9
  8
OBJECT
 10
21.478849562217551
 20
41.601942912891559
 30
0.0
 42
0.0723410840576576
  0
VERTEX
  5
4CA
  8
OBJECT
 10
21.577684443300281
 20
41.523957091226301
 30
0.0
 42
0.1066170543910255
  0
VERTEX
  5
4CB
  8
OBJECT
 10
21.689784276927512
 20
41.487904113612188
 30
0.0
 42
0.1568512196707794
  0
VERTEX
  5
4CC
  8
OBJECT
 10
21.76905082945521
 20
41.5050007875451
 30
0.0
 42
0.1568512196707718
  0
SEQEND
  5
4CD
  8
OBJECT
  0
LINE
  5
2F4
  8
OBJECT
 10
21.399000718128601
 20
42.657738997741063
 30
0.0
 11
21.940266595493881
 21
42.970238997741063
 31
0.0
  0
POLYLINE
  5
2F5
  8
OBJECT
 66
     1
 10
0.0
 20
0.0
 30
0.0
  0
VERTEX
  5
4CE
  8
OBJECT
 10
21.57764381988768
 20
42.586480543269097
 30
0.0
 42
0.0721156532689082
  0
VERTEX
  5
4CF
  8
OBJECT
 10
21.399000718128601
 20
42.657738997741063
 30
0.0
 42
0.1568512196707697
  0
SEQEND
  5
4D0
  8
OBJECT
  0
LINE
  5
2F9
  8
OBJECT
 10
21.57764381988768
 20
42.586480543269097
 30
0.0
 11
21.676519324383019
 21
42.070971269561028
 31
0.0
  0
LINE
  5
2FA
  8
OBJECT
 10
21.399000718128601
 20
42.657738997741063
 30
0.0
 11
21.386318057145338
 21
42.167913394907487
 31
0.0
  0
LINE
  5
2FB
  8
OBJECT
 10
22.768469371862398
 20
41.77391018429762
 30
0.0
 11
22.37305990837886
 21
42.11178796198854
 31
0.0
  0
LINE
  5
2FC
  8
OBJECT
 10
22.199593575424739
 20
41.271071492727437
 30
0.0
 11
22.740859452790019
 21
41.583571492727437
 31
0.0
  0
LINE
  5
2FD
  8
OBJECT
 10
22.22720349449714
 20
41.46141018429762
 30
0.0
 11
22.768469371862398
 21
41.77391018429762
 31
0.0
  0
POLYLINE
  5
2FE
  8
OBJECT
 66
     1
 10
0.0
 20
0.0
 30
0.0
  0
VERTEX
  5
4D1
  8
OBJECT
 10
22.199593575424739
 20
41.271071492727437
 30
0.0
 42
0.0721156532689077
  0
VERTEX
  5
4D2
  8
OBJECT
 10
22.22720349449714
 20
41.46141018429762
 30
0.0
 42
0.0723410840576634
  0
SEQEND
  5
4D3
  8
OBJECT
  0
POLYLINE
  5
302
  8
OBJECT
 66
     1
 10
0.0
 20
0.0
 30
0.0
  0
VERTEX
  5
4D4
  8
OBJECT
 10
22.740859452790019
 20
41.583571492727437
 30
0.0
 42
0.0721156532689077
  0
VERTEX
  5
4D5
  8
OBJECT
 10
22.768469371862398
 20
41.77391018429762
 30
0.0
 42
0.0723410840576634
  0
SEQEND
  5
4D6
  8
OBJECT
  0
LINE
  5
306
  8
OBJECT
 10
22.118909697252949
 20
42.898980543269097
 30
0.0
 11
22.217785201748288
 21
42.383471269561028
 31
0.0
  0
POLYLINE
  5
307
  8
OBJECT
 66
     1
 10
0.0
 20
0.0
 30
0.0
  0
VERTEX
  5
4D7
  8
OBJECT
 10
22.551792711626739
 20
41.959060604808393
 30
0.0
 42
0.0419341319133677
  0
VERTEX
  5
4D8
  8
OBJECT
 10
22.571856378763378
 20
41.968500787545103
 30
0.0
 42
0.1568512196708
  0
VERTEX
  5
4D9
  8
OBJECT
 10
22.62629580897336
 20
42.028599298738051
 30
0.0
 42
0.1066170543910103
  0
VERTEX
  5
4DA
  8
OBJECT
 10
22.651122931291081
 20
42.143707091226297
 30
0.0
 42
0.0723410840576433
  0
VERTEX
  5
4DB
  8
OBJECT
 10
22.63300266913533
 20
42.268293519856591
 30
0.0
 42
0.058751867535383
  0
VERTEX
  5
4DC
  8
OBJECT
 10
22.571856378763378
 20
42.410442525786699
 30
0.0
 42
0.0587518675353667
  0
VERTEX
  5
4DD
  8
OBJECT
 10
22.479324873691208
 20
42.534471269561017
 30
0.0
 42
0.0723410840576453
  0
VERTEX
  5
4DE
  8
OBJECT
 10
22.380489992608439
 20
42.612457091226297
 30
0.0
 42
0.1066170543910063
  0
VERTEX
  5
4DF
  8
OBJECT
 10
22.268390158981209
 20
42.648510068840409
 30
0.0
 42
0.1568512196707908
  0
VERTEX
  5
4E0
  8
OBJECT
 10
22.189123606453499
 20
42.631413394907497
 30
0.0
 42
0.0382621575095198
  0
SEQEND
  5
4E1
  8
OBJECT
  0
LINE
  5
313
  8
OBJECT
 10
22.189123606453521
 20
42.631413394907497
 30
0.0
 11
22.172113183176279
 21
42.621592422449353
 31
0.0
  0
POLYLINE
  5
314
  8
OBJECT
 66
     1
 10
0.0
 20
0.0
 30
0.0
  0
VERTEX
  5
4E2
  8
OBJECT
 10
22.37305990837886
 20
42.11178796198854
 30
0.0
 42
0.003276791846508
  0
VERTEX
  5
4E3
  8
OBJECT
 10
22.37146299719242
 20
42.117293519856617
 30
0.0
 42
0.0587518675353777
  0
VERTEX
  5
4E4
  8
OBJECT
 10
22.31031670682048
 20
42.259442525786703
 30
0.0
 42
0.0587518675353672
  0
VERTEX
  5
4E5
  8
OBJECT
 10
22.217785201748288
 20
42.383471269561028
 30
0.0
 42
0.0723410840576335
  0
SEQEND
  5
4E6
  8
OBJECT
  0
POLYLINE
  5
31A
  8
OBJECT
 66
     1
 10
0.0
 20
0.0
 30
0.0
  0
VERTEX
  5
4E7
  8
OBJECT
 10
22.757211043254681
 20
42.142457091226291
 30
0.0
 42
0.072341084057662
  0
VERTEX
  5
4E8
  8
OBJECT
 10
22.73546672866776
 20
42.291960805582683
 30
0.0
 42
0.0587518675353754
  0
VERTEX
  5
4E9
  8
OBJECT
 10
22.662091180221431
 20
42.462539612698777
 30
0.0
 42
0.0587518675353685
  0
VERTEX
  5
4EA
  8
OBJECT
 10
22.55105337413482
 20
42.611374105227959
 30
0.0
 42
0.0723410840576506
  0
VERTEX
  5
4EB
  8
OBJECT
 10
22.43245151683551
 20
42.704957091226298
 30
0.0
 42
0.1066170543910108
  0
VERTEX
  5
4EC
  8
OBJECT
 10
22.297931716482829
 20
42.748220664363238
 30
0.0
 42
0.156851219670776
  0
VERTEX
  5
4ED
  8
OBJECT
 10
22.202811853449582
 20
42.727704655643727
 30
0.0
 42
0.0914699206828216
  0
VERTEX
  5
4EE
  8
OBJECT
 10
22.158936115522788
 20
42.690293974065419
 30
0.0
 42
0.1066170543910074
  0
SEQEND
  5
4EF
  8
OBJECT
  0
LINE
  5
324
  8
OBJECT
 10
22.757211043254681
 20
41.651628928779928
 30
0.0
 11
22.757211043254681
 21
36.267457091226298
 31
0.0
  0
LINE
  5
325
  8
OBJECT
 10
23.206127028920331
 20
38.070275326058713
 30
0.0
 11
23.36807377942802
 21
38.163775326058712
 31
0.0
  0
LINE
  5
326
  8
OBJECT
 10
22.865464218727741
 20
38.266957091226303
 30
0.0
 11
23.206127028920331
 21
38.070275326058713
 31
0.0
  0
LINE
  5
327
  8
OBJECT
 10
23.206127028920331
 20
38.257275326058711
 30
0.0
 11
23.206127028920331
 21
38.070275326058713
 31
0.0
  0
LINE
  5
328
  8
OBJECT
 10
6.0610560025346478
 20
18.823377273103951
 30
0.0
 11
6.0610560025346478
 21
25.073377273103961
 31
0.0
  0
LINE
  5
329
  8
OBJECT
 10
6.6860560025346478
 20
18.198377273103951
 30
0.0
 11
6.9360560025346478
 21
18.198377273103951
 31
0.0
  0
LINE
  5
32A
  8
OBJECT
 10
18.561056002534649
 20
18.823377273103951
 30
0.0
 11
18.561056002534649
 21
25.073377273103961
 31
0.0
  0
LINE
  5
32B
  8
OBJECT
 10
6.1860560025346478
 20
18.823377273103951
 30
0.0
 11
6.1860560025346478
 21
25.073377273103961
 31
0.0
  0
LINE
  5
32C
  8
OBJECT
 10
6.6860560025346478
 20
18.323377273103951
 30
0.0
 11
6.9360560025346478
 21
18.323377273103951
 31
0.0
  0
LINE
  5
32D
  8
OBJECT
 10
18.436056002534642
 20
18.823377273103951
 30
0.0
 11
18.436056002534642
 21
25.073377273103961
 31
0.0
  0
ARC
  5
32E
  8
OBJECT
 10
6.6860560025346478
 20
18.823377273103951
 30
0.0
 40
0.5
 50
180.0
 51
270.0
  0
ARC
  5
32F
  8
OBJECT
 10
17.936056002534649
 20
18.823377273103951
 30
0.0
 40
0.5
 50
270.0
 51
0.0
  0
ARC
  5
330
  8
OBJECT
 10
6.6860560025346478
 20
18.823377273103951
 30
0.0
 40
0.625
 50
180.0
 51
270.0
  0
ARC
  5
331
  8
OBJECT
 10
17.936056002534649
 20
18.823377273103951
 30
0.0
 40
0.625
 50
270.0
 51
0.0
  0
LINE
  5
332
  8
OBJECT
 10
6.0610560025346478
 20
25.073377273103961
 30
0.0
 11
6.1860560025346478
 21
25.073377273103961
 31
0.0
  0
LINE
  5
333
  8
OBJECT
 10
18.436056002534642
 20
25.073377273103961
 30
0.0
 11
18.561056002534649
 21
25.073377273103961
 31
0.0
  0
LINE
  5
334
  8
OBJECT
 10
6.9360560025346478
 20
18.135377273103948
 30
0.0
 11
6.9360560025346478
 21
18.38637727310396
 31
0.0
  0
LINE
  5
335
  8
OBJECT
 10
17.686056002534642
 20
18.135377273103948
 30
0.0
 11
17.686056002534642
 21
18.38637727310395
 31
0.0
  0
LINE
  5
336
  8
OBJECT
 10
6.9360560025346478
 20
18.135377273103959
 30
0.0
 11
17.686056002534642
 21
18.135377273103948
 31
0.0
  0
LINE
  5
337
  8
OBJECT
 10
6.9360560025346478
 20
18.38637727310396
 30
0.0
 11
17.686056002534642
 21
18.38637727310395
 31
0.0
  0
LINE
  5
338
  8
OBJECT
 10
17.686056002534649
 20
18.198377273103951
 30
0.0
 11
17.936056002534649
 21
18.198377273103951
 31
0.0
  0
LINE
  5
339
  8
OBJECT
 10
17.686056002534649
 20
18.323377273103951
 30
0.0
 11
17.936056002534649
 21
18.323377273103951
 31
0.0
  0
LINE
  5
33A
  8
OBJECT
 10
24.75427919100385
 20
24.698377273103961
 30
0.0
 11
24.75427919100385
 21
18.198377273103961
 31
0.0
  0
LINE
  5
33B
  8
OBJECT
 10
25.50427919100385
 20
24.698377273103961
 30
0.0
 11
25.50427919100386
 21
18.198377273103961
 31
0.0
  0
LINE
  5
33C
  8
OBJECT
 10
24.691279191003851
 20
18.135377273103948
 30
0.0
 11
25.567279191003859
 21
18.135377273103948
 31
0.0
  0
LINE
  5
33D
  8
HIDDEN
 10
41.581413380800797
 20
21.51407505740368
 30
0.0
 11
24.06194459480179
 21
24.365515650578629
 31
0.0
  0
LINE
  5
33E
  8
HIDDEN
 10
23.509728986968611
 20
20.97266078005066
 30
0.0
 11
40.96750950259441
 21
18.131260470654482
 31
0.0
  0
LINE
  5
33F
  8
HIDDEN
 10
24.77480474309553
 20
28.745382847078378
 30
0.0
 11
42.232585258721322
 21
25.903982537682211
 31
0.0
  0
LINE
  5
340
  8
HIDDEN
 10
41.742057921261363
 20
22.501087383375449
 30
0.0
 11
24.22258913526235
 21
25.352527976550409
 31
0.0
  0
LINE
  5
341
  8
HIDDEN
 10
23.797832700902539
 20
28.967715657912169
 30
0.0
 11
22.51267637721805
 21
21.071617050137981
 31
0.0
  0
LINE
  5
342
  8
HIDDEN
 10
24.784845026874319
 20
28.807071117451621
 30
0.0
 11
23.499688703189829
 21
20.910972509677428
 31
0.0
  0
LINE
  5
343
  8
HIDDEN
 10
22.51267637721805
 20
21.071617050137981
 30
0.0
 11
23.499688703189829
 21
20.910972509677428
 31
0.0
  0
LINE
  5
344
  8
HIDDEN
 10
23.797832700902539
 20
28.967715657912169
 30
0.0
 11
24.784845026874319
 21
28.807071117451621
 31
0.0
  0
LINE
  5
345
  8
HIDDEN
 10
40.96750950259441
 20
18.131260470654482
 30
0.0
 11
41.519725110427558
 21
21.524115341182451
 31
0.0
  0
LINE
  5
346
  8
HIDDEN
 10
41.680369650888117
 20
22.511127667154231
 30
0.0
 11
42.232585258721322
 21
25.903982537682211
 31
0.0
  0
LINE
  5
347
  8
HIDDEN
 10
41.742057921261363
 20
22.501087383375449
 30
0.0
 11
41.581413380800797
 21
21.51407505740368
 31
0.0
  0
LINE
  5
348
  8
OBJECT
 10
25.50427919100385
 20
20.760877273103969
 30
0.0
 11
41.81677919100386
 21
20.760877273103969
 31
0.0
  0
LINE
  5
349
  8
OBJECT
 10
24.75427919100385
 20
24.198377273103961
 30
0.0
 11
24.12927919100385
 21
24.198377273103961
 31
0.0
  0
LINE
  5
34A
  8
OBJECT
 10
24.75427919100385
 20
18.198377273103961
 30
0.0
 11
25.50427919100386
 21
18.198377273103961
 31
0.0
  0
ARC
  5
34B
  8
OBJECT
 10
25.12927919100385
 20
24.698377273103961
 30
0.0
 40
0.375
 50
0.0
 51
6.9077129567422393
  0
LINE
  5
34C
  8
OBJECT
 10
24.691279191003851
 20
18.38637727310395
 30
0.0
 11
24.691279191003851
 21
18.135377273103948
 31
0.0
  0
LINE
  5
34D
  8
OBJECT
 10
25.567279191003859
 20
18.38637727310395
 30
0.0
 11
25.567279191003859
 21
18.135377273103948
 31
0.0
  0
LINE
  5
34E
  8
OBJECT
 10
24.691279191003851
 20
18.38637727310395
 30
0.0
 11
24.75427919100385
 21
18.38637727310395
 31
0.0
  0
LINE
  5
34F
  8
OBJECT
 10
25.50427919100386
 20
18.38637727310395
 30
0.0
 11
25.567279191003859
 21
18.38637727310395
 31
0.0
  0
ARC
  5
350
  8
OBJECT
 10
25.12927919100385
 20
24.698377273103961
 30
0.0
 40
0.75
 50
22.499999999999591
 51
37.499999999999801
  0
ARC
  5
351
  8
OBJECT
 10
25.12927919100385
 20
24.698377273103961
 30
0.0
 40
0.3125
 50
299.99999999999989
 51
0.0
  0
CIRCLE
  5
352
  8
OBJECT
 10
25.12927919100385
 20
24.698377273103961
 30
0.0
 40
0.203
  0
LINE
  5
353
  8
OBJECT
 10
24.97302919100385
 20
24.42774433442132
 30
0.0
 11
25.031384546838812
 21
23.954793627073599
 31
0.0
  0
LINE
  5
354
  8
OBJECT
 10
25.28552919100385
 20
24.42774433442132
 30
0.0
 11
25.227173835168891
 21
23.954793627073599
 31
0.0
  0
LINE
  5
355
  8
OBJECT
 10
24.534264185785428
 20
25.1549483448605
 30
0.0
 11
24.97302919100385
 21
24.9690102117866
 31
0.0
  0
LINE
  5
356
  8
OBJECT
 10
24.43636954162038
 20
24.985389847377778
 30
0.0
 11
24.81677919100385
 21
24.698377273103961
 31
0.0
  0
LINE
  5
357
  8
OBJECT
 10
25.44177919100385
 20
24.698377273103961
 30
0.0
 11
25.822188840387319
 21
24.985389847377778
 31
0.0
  0
LINE
  5
358
  8
OBJECT
 10
25.724294196222282
 20
25.1549483448605
 30
0.0
 11
25.28552919100385
 21
24.9690102117866
 31
0.0
  0
ARC
  5
359
  8
OBJECT
 10
25.12927919100385
 20
24.698377273103961
 30
0.0
 40
0.75
 50
142.4999999999998
 51
157.50000000000031
  0
ARC
  5
35A
  8
OBJECT
 10
25.12927919100385
 20
24.698377273103961
 30
0.0
 40
0.75
 50
262.5
 51
277.49999999999989
  0
ARC
  5
35B
  8
OBJECT
 10
25.12927919100385
 20
24.698377273103961
 30
0.0
 40
0.3125
 50
60.000000000000099
 51
119.9999999999998
  0
ARC
  5
35C
  8
OBJECT
 10
25.12927919100385
 20
24.698377273103961
 30
0.0
 40
0.3125
 50
180.0
 51
240.00000000000011
  0
ARC
  5
35D
  8
OBJECT
 10
25.12927919100385
 20
24.698377273103961
 30
0.0
 40
0.375
 50
173.09228704325719
 51
180.0
  0
ARC
  5
35E
  8
OBJECT
 10
25.12927919100385
 20
24.698377273103961
 30
0.0
 40
0.375
 50
53.092287043257699
 51
126.9077129567423
  0
ARC
  5
35F
  8
DIM
 10
25.12927919100385
 20
24.698377273103961
 30
0.0
 40
6.5000000000000027
 50
232.2154317821259
 51
265.57943323085198
  0
ARC
  5
360
  8
DIM
 10
25.12927919100385
 20
24.698377273103961
 30
0.0
 40
6.5000000000000027
 50
274.42056676914802
 51
307.78456821787398
  0
LINE
  5
361
  8
OBJECT
 10
19.436056002534642
 20
25.128896134514662
 30
0.0
 11
18.811056002534642
 21
25.128896134514662
 31
0.0
  0
LINE
  5
362
  8
OBJECT
 10
19.436056002534642
 20
25.298454631997409
 30
0.0
 11
18.811056002534642
 21
25.298454631997409
 31
0.0
  0
LINE
  5
363
  8
OBJECT
 10
19.436056002534642
 20
24.841883560240859
 30
0.0
 11
18.811056002534642
 21
24.841883560240859
 31
0.0
  0
LINE
  5
364
  8
OBJECT
 10
19.436056002534642
 20
24.571250621558232
 30
0.0
 11
18.811056002534642
 21
24.571250621558232
 31
0.0
  0
LINE
  5
365
  8
OBJECT
 10
19.436056002534642
 20
24.098299914210489
 30
0.0
 11
18.811056002534642
 21
24.098299914210489
 31
0.0
  0
LINE
  5
366
  8
OBJECT
 10
19.436056002534642
 20
25.298454631997409
 30
0.0
 11
19.436056002534649
 21
24.0982999142105
 31
0.0
  0
LINE
  5
367
  8
OBJECT
 10
18.811056002534642
 20
25.298454631997409
 30
0.0
 11
18.811056002534642
 21
24.098299914210489
 31
0.0
  0
LINE
  5
368
  8
OBJECT
 10
18.811056002534642
 20
25.010877273103951
 30
0.0
 11
18.621056002534651
 21
25.010877273103951
 31
0.0
  0
LINE
  5
369
  8
OBJECT
 10
18.811056002534642
 20
24.385877273103951
 30
0.0
 11
18.621056002534651
 21
24.385877273103951
 31
0.0
  0
LINE
  5
36A
  8
OBJECT
 10
18.311056002534642
 20
25.073377273103961
 30
0.0
 11
18.436056002534642
 21
25.073377273103961
 31
0.0
  0
LINE
  5
36B
  8
OBJECT
 10
18.311056002534642
 20
24.323377273103951
 30
0.0
 11
18.436056002534642
 21
24.323377273103951
 31
0.0
  0
LINE
  5
36C
  8
OBJECT
 10
18.561056002534649
 20
25.01137727310395
 30
0.0
 11
18.621056002534651
 21
25.01137727310395
 31
0.0
  0
LINE
  5
36D
  8
OBJECT
 10
18.561056002534649
 20
24.385377273103959
 30
0.0
 11
18.621056002534651
 21
24.385377273103959
 31
0.0
  0
LINE
  5
36E
  8
OBJECT
 10
18.621056002534651
 20
24.385377273103959
 30
0.0
 11
18.621056002534651
 21
25.01137727310395
 31
0.0
  0
LINE
  5
36F
  8
OBJECT
 10
6.3110560025346549
 20
25.073377273103961
 30
0.0
 11
6.1860560025346549
 21
25.073377273103961
 31
0.0
  0
LINE
  5
370
  8
OBJECT
 10
6.3110560025346549
 20
24.323377273103951
 30
0.0
 11
6.1860560025346549
 21
24.323377273103951
 31
0.0
  0
LINE
  5
371
  8
OBJECT
 10
6.0010560025346527
 20
24.385377273103959
 30
0.0
 11
6.0010560025346527
 21
25.01137727310395
 31
0.0
  0
LINE
  5
372
  8
OBJECT
 10
5.1860560025346549
 20
25.298454631997409
 30
0.0
 11
5.1860560025346549
 21
24.0982999142105
 31
0.0
  0
LINE
  5
373
  8
OBJECT
 10
5.8110560025346549
 20
25.298454631997409
 30
0.0
 11
5.8110560025346549
 21
24.098299914210489
 31
0.0
  0
LINE
  5
374
  8
OBJECT
 10
5.1860560025346549
 20
24.098299914210489
 30
0.0
 11
5.8110560025346549
 21
24.098299914210489
 31
0.0
  0
LINE
  5
375
  8
OBJECT
 10
5.1860560025346549
 20
24.571250621558232
 30
0.0
 11
5.8110560025346549
 21
24.571250621558232
 31
0.0
  0
LINE
  5
376
  8
OBJECT
 10
6.0610560025346549
 20
24.385377273103959
 30
0.0
 11
6.0010560025346527
 21
24.385377273103959
 31
0.0
  0
LINE
  5
377
  8
OBJECT
 10
5.8110560025346549
 20
24.385877273103951
 30
0.0
 11
6.0010560025346527
 21
24.385877273103951
 31
0.0
  0
LINE
  5
378
  8
OBJECT
 10
5.1860560025346549
 20
25.298454631997409
 30
0.0
 11
5.8110560025346549
 21
25.298454631997409
 31
0.0
  0
LINE
  5
379
  8
OBJECT
 10
5.186056002534662
 20
25.128896134514662
 30
0.0
 11
5.8110560025346549
 21
25.128896134514662
 31
0.0
  0
LINE
  5
37A
  8
OBJECT
 10
5.1860560025346549
 20
24.841883560240859
 30
0.0
 11
5.8110560025346549
 21
24.841883560240859
 31
0.0
  0
LINE
  5
37B
  8
OBJECT
 10
6.1860560025346549
 20
25.073377273103961
 30
0.0
 11
6.0610560025346549
 21
25.073377273103961
 31
0.0
  0
LINE
  5
37C
  8
OBJECT
 10
6.0610560025346549
 20
25.01137727310395
 30
0.0
 11
6.0010560025346527
 21
25.01137727310395
 31
0.0
  0
LINE
  5
37D
  8
OBJECT
 10
5.8110560025346549
 20
25.010877273103951
 30
0.0
 11
6.0010560025346527
 21
25.010877273103951
 31
0.0
  0
CIRCLE
  5
37E
  8
OBJECT
 10
6.8110560025346478
 20
21.198377273103979
 30
0.0
 40
0.078
  0
LINE
  5
37F
  8
OBJECT
 10
6.8110560025346478
 20
21.258377273103971
 30
0.0
 11
6.8110560025346478
 21
21.139802512769041
 31
0.0
  0
LINE
  5
380
  8
OBJECT
 10
6.7510560025346464
 20
21.198377273103979
 30
0.0
 11
6.870896655072201
 21
21.198377273103979
 31
0.0
  0
LINE
  5
381
  8
OBJECT
 10
6.7510560025346464
 20
28.19837727310394
 30
0.0
 11
6.870896655072201
 21
28.19837727310394
 31
0.0
  0
LINE
  5
382
  8
OBJECT
 10
6.8110560025346478
 20
28.138377273103941
 30
0.0
 11
6.8110560025346478
 21
28.256952033438861
 31
0.0
  0
CIRCLE
  5
383
  8
OBJECT
 10
6.8110560025346478
 20
28.19837727310394
 30
0.0
 40
0.078
  0
LINE
  5
384
  8
OBJECT
 10
17.811056002534649
 20
28.138377273103941
 30
0.0
 11
17.811056002534649
 21
28.256952033438861
 31
0.0
  0
CIRCLE
  5
385
  8
OBJECT
 10
17.811056002534649
 20
28.19837727310394
 30
0.0
 40
0.078
  0
LINE
  5
386
  8
OBJECT
 10
17.871056002534651
 20
28.19837727310394
 30
0.0
 11
17.751215349997089
 21
28.19837727310394
 31
0.0
  0
LINE
  5
387
  8
OBJECT
 10
17.871056002534651
 20
21.198377273103979
 30
0.0
 11
17.751215349997089
 21
21.198377273103979
 31
0.0
  0
LINE
  5
388
  8
OBJECT
 10
17.811056002534649
 20
21.258377273103971
 30
0.0
 11
17.811056002534649
 21
21.139802512769041
 31
0.0
  0
CIRCLE
  5
389
  8
OBJECT
 10
17.811056002534649
 20
21.198377273103979
 30
0.0
 40
0.078
  0
TEXT
  5
38A
  8
TEXT
 10
0.8832916666666794
 20
64.005336581470345
 30
0.0
 40
0.53125
  1
NAME
 72
     1
 11
1.8572500000000121
 21
64.005336581470345
 31
0.0
  0
TEXT
  5
38B
  8
TEXT
 10
0.8832916666666791
 20
64.890753248137003
 30
0.0
 40
0.53125
  1
PART
 72
     1
 11
1.8572500000000121
 21
64.890753248137003
 31
0.0
  0
TEXT
  5
38C
  8
TEXT
 10
22.830999999999989
 20
64.005336581470345
 30
0.0
 40
0.53125
  1
No.
 72
     1
 11
23.362249999999989
 21
64.005336581470345
 31
0.0
  0
TEXT
  5
38D
  8
TEXT
 10
22.38829166666666
 20
64.890753248137003
 30
0.0
 40
0.53125
  1
PART
 72
     1
 11
23.362249999999989
 21
64.890753248137003
 31
0.0
  0
LINE
  5
38E
  8
TITLE
 10
24.956
 20
65.611499999999992
 30
0.0
 11
24.956
 21
63.835000000000001
 31
0.0
  0
LINE
  5
38F
  8
TITLE
 10
21.7685
 20
65.611499999999992
 30
0.0
 11
21.7685
 21
63.835000000000001
 31
0.0
  0
LINE
  5
390
  8
TITLE
 10
21.504999999999999
 20
65.611499999999992
 30
0.0
 11
21.504999999999999
 21
63.835000000000001
 31
0.0
  0
LINE
  5
391
  8
TITLE
 10
3.4510000000000121
 20
63.835000000000001
 30
0.0
 11
3.4510000000000041
 21
65.611499999999992
 31
0.0
  0
LINE
  5
392
  8
TITLE
 10
0.2635000000000049
 20
63.835000000000001
 30
0.0
 11
42.746499999999997
 21
63.835000000000001
 31
0.0
  0
LINE
  5
393
  8
TITLE
 10
42.746499999999997
 20
0.2634999999999974
 30
0.0
 11
0.2634999999999898
 21
0.2635000000000049
 31
0.0
  0
LINE
  5
394
  8
TITLE
 10
42.746499999999997
 20
65.611499999999992
 30
0.0
 11
42.746499999999997
 21
0.2634999999999974
 31
0.0
  0
LINE
  5
395
  8
TITLE
 10
0.2635000000000049
 20
65.611499999999992
 30
0.0
 11
42.746499999999997
 21
65.611499999999992
 31
0.0
  0
LINE
  5
396
  8
TITLE
 10
0.2634999999999898
 20
0.2635000000000049
 30
0.0
 11
0.2635000000000049
 21
65.611499999999992
 31
0.0
  0
LINE
  5
397
  8
TITLE
 10
0.0
 20
0.0
 30
0.0
 11
0.0
 21
65.875
 31
0.0
  0
LINE
  5
398
  8
TITLE
 10
43.009999999999998
 20
-0.0000000000000075
 30
0.0
 11
0.0
 21
0.0
 31
0.0
  0
LINE
  5
399
  8
TITLE
 10
43.009999999999998
 20
65.874999999999986
 30
0.0
 11
43.009999999999998
 21
-0.0000000000000075
 31
0.0
  0
LINE
  5
39A
  8
TITLE
 10
0.0
 20
65.875
 30
0.0
 11
43.009999999999998
 21
65.874999999999986
 31
0.0
  0
SOLID
  5
39B
  8
DIM
 10
21.70710370244548
 20
19.02510306590484
 30
0.0
 11
21.85071591574609
 21
19.23581740379122
 31
0.0
 12
21.146766795436641
 22
19.561296874749889
 32
0.0
 13
21.146766795436641
 23
19.561296874749889
 33
0.0
  0
SOLID
  5
39C
  8
DIM
 10
28.551454679562241
 20
19.02510306590484
 30
0.0
 11
28.407842466261609
 21
19.23581740379122
 31
0.0
 12
29.111791586571069
 22
19.561296874749889
 32
0.0
 13
29.111791586571069
 23
19.561296874749889
 33
0.0
  0
DIMENSION
  5
39D
  8
DIM
  2
*D10
 10
1.585178159500557
 20
18.198377273103951
 30
0.0
 11
1.585178159500557
 21
19.448377273103961
 31
0.0
 12
0.3672794408314459
 22
-1.836646317282284
 32
0.0
 13
6.3730560025346534
 23
20.698377273103961
 33
0.0
 14
6.6860560025346478
 24
18.198377273103951
 34
0.0
 50
90.0
  0
DIMENSION
  5
39E
  8
DIM
  2
*D9
 10
1.585178159500557
 20
28.698377273103951
 30
0.0
 11
1.585178159500557
 21
24.698377273103961
 31
0.0
 12
0.3672794408314459
 22
-1.836646317282284
 32
0.0
  1
A
 13
6.3730560025346534
 23
20.698377273103961
 33
0.0
 14
6.3730560025346534
 24
28.698377273103951
 34
0.0
 50
90.0
  0
DIMENSION
  5
39F
  8
DIM
  2
*D8
 10
2.7794281595005539
 20
28.698377273103951
 30
0.0
 11
4.6241937845005552
 21
30.228377273103948
 31
0.0
 12
0.3672794408314459
 22
-1.836646317282284
 32
0.0
 13
6.4360560025346478
 23
28.573377273103961
 33
0.0
 14
6.3730560025346534
 24
28.698377273103951
 34
0.0
 50
90.0
  0
DIMENSION
  5
3A0
  8
DIM
  2
*D7
 10
2.7794281595005539
 20
28.573377273103961
 30
0.0
 11
2.7794281595005539
 21
24.698377273103961
 31
0.0
 12
0.3672794408314459
 22
-1.836646317282284
 32
0.0
  1
E
 13
6.4360560025346478
 23
20.823377273103961
 33
0.0
 14
6.4360560025346478
 24
28.573377273103961
 34
0.0
 50
90.0
  0
DIMENSION
  5
3A1
  8
DIM
  2
*D6
 10
5.8671988870620657
 20
28.19837727310394
 30
0.0
 11
3.9560270120620649
 21
26.668377273103939
 31
0.0
 12
0.3672794408314459
 22
-1.836646317282284
 32
0.0
 13
6.4360560025346478
 23
28.573377273103961
 33
0.0
 14
6.8110560025346478
 24
28.19837727310394
 34
0.0
 50
90.0
  0
DIMENSION
  5
3A2
  8
DIM
  2
*D11
 10
6.8110560025346478
 20
31.212129320541809
 30
0.0
 11
9.4872278775346501
 21
31.212129320541809
 31
0.0
 12
0.3672794408314459
 22
-1.836646317282284
 32
0.0
 13
6.4360560025346478
 23
28.573377273103961
 33
0.0
 14
6.8110560025346478
 24
28.19837727310394
 34
0.0
  0
DIMENSION
  5
3A3
  8
DIM
  2
*D12
 10
18.186056002534649
 20
32.406379320541802
 30
0.0
 11
12.31105600253465
 21
32.406379320541802
 31
0.0
 12
0.3672794408314459
 22
-1.836646317282284
 32
0.0
  1
F
 13
6.4360560025346478
 23
28.573377273103961
 33
0.0
 14
18.186056002534649
 24
28.573377273103961
 34
0.0
  0
DIMENSION
  5
3A4
  8
DIM
  2
*D14
 10
18.311056002534642
 20
32.406379320541802
 30
0.0
 11
20.920821627534639
 21
32.406379320541802
 31
0.0
 12
0.3672794408314459
 22
-1.836646317282284
 32
0.0
 13
18.186056002534649
 23
28.573377273103961
 33
0.0
 14
18.311056002534642
 24
28.63637727310396
 34
0.0
  0
DIMENSION
  5
3A5
  8
DIM
  2
*D13
 10
18.311056002534642
 20
33.600629320541799
 30
0.0
 11
12.31105600253465
 21
33.600629320541799
 31
0.0
 12
0.3672794408314459
 22
-1.836646317282284
 32
0.0
  1
B
 13
6.3110560025346478
 23
28.63637727310396
 33
0.0
 14
18.311056002534642
 24
28.63637727310396
 34
0.0
  0
DIMENSION
  5
3A6
  8
DIM
  2
*D15
 10
18.436056002534642
 20
19.999681043603282
 30
0.0
 11
15.82629037753464
 21
19.999681043603282
 31
0.0
 12
0.0
 22
-0.8304397579948066
 32
0.0
 13
18.561056002534649
 23
19.939363484191009
 33
0.0
 14
18.436056002534642
 24
20.007906165341382
 34
0.0
  0
DIMENSION
  5
3A7
  8
DIM
  2
*D2
 10
18.561056002534649
 20
26.678479894895649
 30
0.0
 11
15.88488412753464
 21
26.678479894895649
 31
0.0
 12
1.563561048111012
 22
-1.836646317282284
 32
0.0
 13
19.436056002534642
 23
25.298454631997409
 33
0.0
 14
18.561056002534649
 24
25.073377273103961
 34
0.0
  0
DIMENSION
  5
3A8
  8
DIM
  2
*D0
 10
21.93351009816147
 20
28.698377273103951
 30
0.0
 11
21.93351009816147
 21
26.698377273103961
 31
0.0
 12
0.3672794408314459
 22
-4.4275596647663882
 32
0.0
  1
D
 13
25.12927919100385
 23
24.698377273103961
 33
0.0
 14
23.12927919100385
 24
28.698377273103951
 34
0.0
 50
90.0
  0
DIMENSION
  5
3A9
  8
DIM
  2
*D3
 10
24.12927919100385
 20
30.017879320541802
 30
0.0
 11
26.672638566003851
 21
30.017879320541802
 31
0.0
 12
0.3672794408314459
 22
-1.836646317282284
 32
0.0
 13
23.12927919100385
 23
28.698377273103951
 33
0.0
 14
24.12927919100385
 24
28.698377273103951
 34
0.0
  0
DIMENSION
  5
3AA
  8
DIM
  2
*D4
 10
23.12927919100385
 20
31.212129320541809
 30
0.0
 11
24.12927919100385
 21
31.212129320541809
 31
0.0
 12
0.3672794408314459
 22
-1.836646317282284
 32
0.0
 13
25.12927919100385
 23
24.698377273103961
 33
0.0
 14
23.12927919100385
 24
28.698377273103951
 34
0.0
  0
DIMENSION
  5
3AB
  8
DIM
  2
*D5
 10
41.879279191003839
 20
32.406379320541802
 30
0.0
 11
32.504279191003839
 21
32.406379320541802
 31
0.0
 12
0.3672794408314459
 22
-1.836646317282284
 32
0.0
  1
C
 13
23.12927919100385
 23
28.698377273103951
 33
0.0
 14
41.879279191003839
 24
25.198377273103961
 34
0.0
  0
DIMENSION
  5
3AC
  8
DIM
  2
*D1
 10
24.75427919100385
 20
20.00242275084933
 30
0.0
 11
22.111310441003852
 21
20.00242275084933
 31
0.0
 12
0.3672794408314459
 22
-4.4275596647663882
 32
0.0
 13
25.50427919100386
 23
19.412955692956121
 33
0.0
 14
24.75427919100385
 24
19.486981788598531
 34
0.0
  0
TEXT
  5
3AD
  8
TEXT
 10
10.406124999999999
 20
64.391749999999973
 30
0.0
 40
0.6630000000000001
  1
TR SERIES
 41
0.75
  7
TXT
 72
     4
 11
12.478
 21
64.723249999999993
 31
0.0
  0
TEXT
  5
3AE
  8
TEXT
 10
29.251687499999999
 20
64.391749999999973
 30
0.0
 40
0.6630000000000001
  1
TR-6100 THRU TR-6103
 41
0.75
  7
TXT
 72
     4
 11
33.85125
 21
64.723249999999993
 31
0.0
  0
LINE
  5
3AF
  8
TITLE
 10
42.746499999999997
 20
1.1474999999999971
 30
0.0
 11
0.2634999999999898
 21
1.147500000000004
 31
0.0
  0
LINE
  5
3B0
  8
TITLE
 10
42.746499999999997
 20
2.0314999999999972
 30
0.0
 11
0.2634999999999898
 21
2.0315000000000039
 31
0.0
  0
LINE
  5
3B1
  8
TITLE
 10
42.746499999999997
 20
2.9154999999999971
 30
0.0
 11
0.2634999999999898
 21
2.9155000000000051
 31
0.0
  0
LINE
  5
3B2
  8
TITLE
 10
42.746499999999997
 20
3.799499999999997
 30
0.0
 11
0.2634999999999898
 21
3.7995000000000041
 31
0.0
  0
LINE
  5
3B3
  8
TITLE
 10
42.746499999999997
 20
4.683499999999996
 30
0.0
 11
4.3104999999999958
 21
4.6835000000000031
 31
0.0
  0
LINE
  5
3B4
  8
TITLE
 10
42.746499999999997
 20
5.5674999999999972
 30
0.0
 11
0.2634999999999898
 21
5.5675000000000052
 31
0.0
  0
TEXT
  5
3B5
  8
TEXT
 10
0.9154687499999978
 20
4.417875000000004
 30
0.0
 40
0.53125
  1
PART No.
 41
0.75
  7
TXT
 72
     4
 11
2.3099999999999969
 21
4.683500000000004
 31
0.0
  0
LINE
  5
3B6
  8
TITLE
 10
39.256500000000003
 20
4.6834999999999969
 30
0.0
 11
39.256500000000003
 21
0.2634999999999974
 31
0.0
  0
LINE
  5
3B7
  8
TITLE
 10
35.766500000000001
 20
4.6834999999999978
 30
0.0
 11
35.766500000000001
 21
0.2634999999999974
 31
0.0
  0
LINE
  5
3B8
  8
TITLE
 10
32.276499999999999
 20
5.567499999999999
 30
0.0
 11
32.276499999999999
 21
0.2634999999999974
 31
0.0
  0
LINE
  5
3B9
  8
TITLE
 10
28.7865
 20
4.6834999999999987
 30
0.0
 11
28.7865
 21
0.2634999999999974
 31
0.0
  0
LINE
  5
3BA
  8
TITLE
 10
25.296500000000002
 20
5.5674999999999999
 30
0.0
 11
25.296500000000002
 21
0.2634999999999974
 31
0.0
  0
LINE
  5
3BB
  8
TITLE
 10
21.8065
 20
4.6835000000000004
 30
0.0
 11
21.8065
 21
0.2634999999999974
 31
0.0
  0
LINE
  5
3BC
  8
TITLE
 10
18.316500000000001
 20
5.5675000000000008
 30
0.0
 11
18.316500000000001
 21
0.2634999999999974
 31
0.0
  0
LINE
  5
3BD
  8
TITLE
 10
14.826499999999999
 20
4.6835000000000022
 30
0.0
 11
14.826499999999999
 21
0.2634999999999974
 31
0.0
  0
LINE
  5
3BE
  8
TITLE
 10
11.336499999999999
 20
4.6835000000000031
 30
0.0
 11
11.336499999999999
 21
0.2634999999999974
 31
0.0
  0
LINE
  5
3BF
  8
TITLE
 10
7.8464999999999989
 20
4.6835000000000031
 30
0.0
 11
7.846499999999998
 21
0.2634999999999974
 31
0.0
  0
LINE
  5
3C0
  8
TITLE
 10
4.356500000000004
 20
5.5675000000000043
 30
0.0
 11
4.356500000000004
 21
0.2634999999999974
 31
0.0
  0
TEXT
  5
3C1
  8
TEXT
 10
1.1146874999999969
 20
3.0918750000000039
 30
0.0
 40
0.53125
  1
TR-6100
 41
0.75
  7
TXT
 72
     4
 11
2.3099999999999969
 21
3.3575000000000039
 31
0.0
  0
TEXT
  5
3C2
  8
TEXT
 10
1.1478906249999969
 20
2.206458333333337
 30
0.0
 40
0.53125
  1
TR-6101
 41
0.75
  7
TXT
 72
     4
 11
2.3099999999999969
 21
2.472083333333337
 31
0.0
  0
TEXT
  5
3C3
  8
TEXT
 10
1.0814843749999969
 20
1.3210416666666711
 30
0.0
 40
0.53125
  1
TR-6102
 41
0.75
  7
TXT
 72
     4
 11
2.3099999999999969
 21
1.5866666666666711
 31
0.0
  0
TEXT
  5
3C4
  8
TEXT
 10
1.0814843749999969
 20
0.4356250000000047
 30
0.0
 40
0.53125
  1
TR-6103
 41
0.75
  7
TXT
 72
     4
 11
2.3099999999999969
 21
0.7012500000000048
 31
0.0
  0
TEXT
  5
3C5
  8
TEXT
 10
9.9189687500000012
 20
4.8598750000000024
 30
0.0
 40
0.53125
  1
OVERALL
 41
0.75
  7
TXT
 72
     4
 11
11.313499999999999
 21
5.1255000000000024
 31
0.0
  0
TEXT
  5
3C6
  8
TEXT
 10
19.6815
 20
4.8598749999999997
 30
0.0
 40
0.53125
  1
PANEL SPACE
 41
0.75
  7
TXT
 72
     4
 11
21.8065
 21
5.1254999999999997
 31
0.0
  0
TEXT
  5
3C7
  8
TEXT
 10
27.8568125
 20
4.8598749999999988
 30
0.0
 40
0.53125
  1
PANEL
 41
0.75
  7
TXT
 72
     4
 11
28.7865
 21
5.1254999999999988
 31
0.0
  0
TEXT
  5
3C8
  8
TEXT
 10
34.523218749999998
 20
4.8598749999999971
 30
0.0
 40
0.53125
  1
INSIDE CLEARANCE
 41
0.75
  7
TXT
 72
     4
 11
37.511499999999998
 21
5.1254999999999971
 31
0.0
  0
TEXT
  5
3C9
  8
TEXT
 10
5.9686875000000033
 20
3.9758750000000029
 30
0.0
 40
0.53125
  1
A
 41
0.75
  7
TXT
 72
     4
 11
6.1015000000000033
 21
4.2415000000000029
 31
0.0
  0
TEXT
  5
3CA
  8
TEXT
 10
5.3710312500000033
 20
3.0904583333333369
 30
0.0
 40
0.53125
  1
3.500
 41
0.75
  7
TXT
 72
     4
 11
6.1015000000000033
 21
3.3560833333333369
 31
0.0
  0
TEXT
  5
3CB
  8
TEXT
 10
5.3378281250000033
 20
2.2050416666666699
 30
0.0
 40
0.53125
  1
5.250
 41
0.75
  7
TXT
 72
     4
 11
6.1015000000000033
 21
2.4706666666666699
 31
0.0
  0
TEXT
  5
3CC
  8
TEXT
 10
5.4042343750000033
 20
1.319625000000004
 30
0.0
 40
0.53125
  1
7.000
 41
0.75
  7
TXT
 72
     4
 11
6.1015000000000033
 21
1.585250000000004
 31
0.0
  0
TEXT
  5
3CD
  8
TEXT
 10
5.4042343750000033
 20
0.4342083333333377
 30
0.0
 40
0.53125
  1
8.000
 41
0.75
  7
TXT
 72
     4
 11
6.1015000000000033
 21
0.6998333333333378
 31
0.0
  0
TEXT
  5
3CE
  8
TEXT
 10
9.4586874999999981
 20
3.9758750000000029
 30
0.0
 40
0.53125
  1
B
 41
0.75
  7
TXT
 72
     4
 11
9.5914999999999981
 21
4.2415000000000029
 31
0.0
  0
TEXT
  5
3CF
  8
TEXT
 10
8.8610312499999981
 20
3.0904583333333369
 30
0.0
 40
0.53125
  1
8.312
 41
0.75
  7
TXT
 72
     4
 11
9.5914999999999981
 21
3.3560833333333369
 31
0.0
  0
TEXT
  5
3D0
  8
TEXT
 10
8.8610312499999981
 20
2.2050416666666699
 30
0.0
 40
0.53125
  1
8.312
 41
0.75
  7
TXT
 72
     4
 11
9.5914999999999981
 21
2.4706666666666699
 31
0.0
  0
TEXT
  5
3D1
  8
TEXT
 10
8.7614218749999981
 20
1.319625000000004
 30
0.0
 40
0.53125
  1
11.062
 41
0.75
  7
TXT
 72
     4
 11
9.5914999999999981
 21
1.585250000000004
 31
0.0
  0
TEXT
  5
3D2
  8
TEXT
 10
8.7614218749999981
 20
0.4342083333333376
 30
0.0
 40
0.53125
  1
12.000
 41
0.75
  7
TXT
 72
     4
 11
9.5914999999999981
 21
0.6998333333333378
 31
0.0
  0
TEXT
  5
3D3
  8
TEXT
 10
12.9486875
 20
3.975875000000002
 30
0.0
 40
0.53125
  1
C
 41
0.75
  7
TXT
 72
     4
 11
13.0815
 21
4.241500000000002
 31
0.0
  0
TEXT
  5
3D4
  8
TEXT
 10
12.21821875
 20
3.090458333333336
 30
0.0
 40
0.53125
  1
10.750
 41
0.75
  7
TXT
 72
     4
 11
13.0815
 21
3.356083333333336
 31
0.0
  0
TEXT
  5
3D5
  8
TEXT
 10
12.185015625
 20
2.205041666666669
 30
0.0
 40
0.53125
  1
13.250
 41
0.75
  7
TXT
 72
     4
 11
13.0815
 21
2.470666666666669
 31
0.0
  0
TEXT
  5
3D6
  8
TEXT
 10
12.185015625
 20
1.3196250000000029
 30
0.0
 40
0.53125
  1
13.250
 41
0.75
  7
TXT
 72
     4
 11
13.0815
 21
1.5852500000000029
 31
0.0
  0
TEXT
  5
3D7
  8
TEXT
 10
12.185015625
 20
0.4342083333333368
 30
0.0
 40
0.53125
  1
18.750
 41
0.75
  7
TXT
 72
     4
 11
13.0815
 21
0.6998333333333368
 31
0.0
  0
TEXT
  5
3D8
  8
TEXT
 10
16.4386875
 20
3.975875000000002
 30
0.0
 40
0.53125
  1
D
 41
0.75
  7
TXT
 72
     4
 11
16.5715
 21
4.241500000000002
 31
0.0
  0
TEXT
  5
3D9
  8
TEXT
 10
15.874234375
 20
3.0904583333333351
 30
0.0
 40
0.53125
  1
1.750
 41
0.75
  7
TXT
 72
     4
 11
16.5715
 21
3.3560833333333351
 31
0.0
  0
TEXT
  5
3DA
  8
TEXT
 10
15.774625
 20
2.205041666666669
 30
0.0
 40
0.53125
  1
2.625
 41
0.75
  7
TXT
 72
     4
 11
16.5715
 21
2.470666666666669
 31
0.0
  0
TEXT
  5
3DB
  8
TEXT
 10
15.84103125
 20
1.319625000000002
 30
0.0
 40
0.53125
  1
3.500
 41
0.75
  7
TXT
 72
     4
 11
16.5715
 21
1.585250000000002
 31
0.0
  0
TEXT
  5
3DC
  8
TEXT
 10
15.874234375
 20
0.4342083333333359
 30
0.0
 40
0.53125
  1
4.000
 41
0.75
  7
TXT
 72
     4
 11
16.5715
 21
0.6998333333333359
 31
0.0
  0
TEXT
  5
3DD
  8
TEXT
 10
19.928687499999999
 20
3.9758750000000012
 30
0.0
 40
0.53125
  1
E
 41
0.75
  7
TXT
 72
     4
 11
20.061499999999999
 21
4.2415000000000012
 31
0.0
  0
TEXT
  5
3DE
  8
TEXT
 10
19.297828124999999
 20
3.0904583333333342
 30
0.0
 40
0.53125
  1
3.250
 41
0.75
  7
TXT
 72
     4
 11
20.061499999999999
 21
3.3560833333333342
 31
0.0
  0
TEXT
  5
3DF
  8
TEXT
 10
19.364234374999999
 20
2.2050416666666681
 30
0.0
 40
0.53125
  1
5.000
 41
0.75
  7
TXT
 72
     4
 11
20.061499999999999
 21
2.4706666666666681
 31
0.0
  0
TEXT
  5
3E0
  8
TEXT
 10
19.297828124999999
 20
1.3196250000000009
 30
0.0
 40
0.53125
  1
6.750
 41
0.75
  7
TXT
 72
     4
 11
20.061499999999999
 21
1.5852500000000009
 31
0.0
  0
TEXT
  5
3E1
  8
TEXT
 10
19.297828124999999
 20
0.434208333333335
 30
0.0
 40
0.53125
  1
7.750
 41
0.75
  7
TXT
 72
     4
 11
20.061499999999999
 21
0.699833333333335
 31
0.0
  0
TEXT
  5
3E2
  8
TEXT
 10
23.418687500000001
 20
3.9758749999999998
 30
0.0
 40
0.53125
  1
F
 41
0.75
  7
TXT
 72
     4
 11
23.551500000000001
 21
4.2415000000000003
 31
0.0
  0
TEXT
  5
3E3
  8
TEXT
 10
22.787828125000001
 20
3.0904583333333329
 30
0.0
 40
0.53125
  1
8.046
 41
0.75
  7
TXT
 72
     4
 11
23.551500000000001
 21
3.3560833333333329
 31
0.0
  0
TEXT
  5
3E4
  8
TEXT
 10
22.787828125000001
 20
2.2050416666666668
 30
0.0
 40
0.53125
  1
8.046
 41
0.75
  7
TXT
 72
     4
 11
23.551500000000001
 21
2.4706666666666668
 31
0.0
  0
TEXT
  5
3E5
  8
TEXT
 10
22.655015625000001
 20
1.319625
 30
0.0
 40
0.53125
  1
10.828
 41
0.75
  7
TXT
 72
     4
 11
23.551500000000001
 21
1.58525
 31
0.0
  0
TEXT
  5
3E6
  8
TEXT
 10
22.721421875000001
 20
0.4342083333333341
 30
0.0
 40
0.53125
  1
11.750
 41
0.75
  7
TXT
 72
     4
 11
23.551500000000001
 21
0.6998333333333341
 31
0.0
  0
TEXT
  5
3E7
  8
TEXT
 10
26.908687499999999
 20
3.9758749999999998
 30
0.0
 40
0.53125
  1
G
 41
0.75
  7
TXT
 72
     4
 11
27.041499999999999
 21
4.2415000000000003
 31
0.0
  0
TEXT
  5
3E8
  8
TEXT
 10
26.311031249999999
 20
3.0904583333333329
 30
0.0
 40
0.53125
  1
3.187
 41
0.75
  7
TXT
 72
     4
 11
27.041499999999999
 21
3.3560833333333329
 31
0.0
  0
TEXT
  5
3E9
  8
TEXT
 10
26.244624999999999
 20
2.2050416666666668
 30
0.0
 40
0.53125
  1
4.937
 41
0.75
  7
TXT
 72
     4
 11
27.041499999999999
 21
2.4706666666666668
 31
0.0
  0
TEXT
  5
3EA
  8
TEXT
 10
26.244624999999999
 20
1.319625
 30
0.0
 40
0.53125
  1
6.687
 41
0.75
  7
TXT
 72
     4
 11
27.041499999999999
 21
1.58525
 31
0.0
  0
TEXT
  5
3EB
  8
TEXT
 10
26.244624999999999
 20
0.4342083333333341
 30
0.0
 40
0.53125
  1
7.687
 41
0.75
  7
TXT
 72
     4
 11
27.041499999999999
 21
0.6998333333333341
 31
0.0
  0
TEXT
  5
3EC
  8
TEXT
 10
30.398687500000001
 20
3.9758749999999989
 30
0.0
 40
0.53125
  1
H
 41
0.75
  7
TXT
 72
     4
 11
30.531500000000001
 21
4.2414999999999994
 31
0.0
  0
TEXT
  5
3ED
  8
TEXT
 10
29.734625000000001
 20
3.090458333333332
 30
0.0
 40
0.53125
  1
7.984
 41
0.75
  7
TXT
 72
     4
 11
30.531500000000001
 21
3.356083333333332
 31
0.0
  0
TEXT
  5
3EE
  8
TEXT
 10
29.734625000000001
 20
2.2050416666666659
 30
0.0
 40
0.53125
  1
7.984
 41
0.75
  7
TXT
 72
     4
 11
30.531500000000001
 21
2.4706666666666659
 31
0.0
  0
TEXT
  5
3EF
  8
TEXT
 10
29.635015625000001
 20
1.3196249999999989
 30
0.0
 40
0.53125
  1
10.765
 41
0.75
  7
TXT
 72
     4
 11
30.531500000000001
 21
1.5852499999999989
 31
0.0
  0
TEXT
  5
3F0
  8
TEXT
 10
29.668218750000001
 20
0.4342083333333333
 30
0.0
 40
0.53125
  1
11.687
 41
0.75
  7
TXT
 72
     4
 11
30.531500000000001
 21
0.6998333333333333
 31
0.0
  0
TEXT
  5
3F1
  8
TEXT
 10
32.959000000000003
 20
3.975874999999998
 30
0.0
 40
0.53125
  1
HEIGHT
 41
0.75
  7
TXT
 72
     4
 11
34.021500000000003
 21
4.2414999999999976
 31
0.0
  0
TEXT
  5
3F2
  8
TEXT
 10
33.324234375000003
 20
3.0904583333333311
 30
0.0
 40
0.53125
  1
3.000
 41
0.75
  7
TXT
 72
     4
 11
34.021500000000003
 21
3.3560833333333311
 31
0.0
  0
TEXT
  5
3F3
  8
TEXT
 10
33.257828125000003
 20
2.205041666666665
 30
0.0
 40
0.53125
  1
4.750
 41
0.75
  7
TXT
 72
     4
 11
34.021500000000003
 21
2.470666666666665
 31
0.0
  0
TEXT
  5
3F4
  8
TEXT
 10
33.291031250000003
 20
1.319624999999998
 30
0.0
 40
0.53125
  1
6.500
 41
0.75
  7
TXT
 72
     4
 11
34.021500000000003
 21
1.585249999999998
 31
0.0
  0
TEXT
  5
3F5
  8
TEXT
 10
33.291031250000003
 20
0.4342083333333324
 30
0.0
 40
0.53125
  1
7.500
 41
0.75
  7
TXT
 72
     4
 11
34.021500000000003
 21
0.6998333333333324
 31
0.0
  0
TEXT
  5
3F6
  8
TEXT
 10
36.581812499999998
 20
3.975874999999998
 30
0.0
 40
0.53125
  1
WIDTH
 41
0.75
  7
TXT
 72
     4
 11
37.511499999999991
 21
4.2414999999999976
 31
0.0
  0
TEXT
  5
3F7
  8
TEXT
 10
36.714624999999998
 20
3.0904583333333311
 30
0.0
 40
0.53125
  1
7.796
 41
0.75
  7
TXT
 72
     4
 11
37.511499999999991
 21
3.3560833333333311
 31
0.0
  0
TEXT
  5
3F8
  8
TEXT
 10
36.714624999999998
 20
2.205041666666665
 30
0.0
 40
0.53125
  1
7.796
 41
0.75
  7
TXT
 72
     4
 11
37.511499999999991
 21
2.470666666666665
 31
0.0
  0
TEXT
  5
3F9
  8
TEXT
 10
36.615015624999991
 20
1.319624999999998
 30
0.0
 40
0.53125
  1
10.578
 41
0.75
  7
TXT
 72
     4
 11
37.511499999999991
 21
1.585249999999998
 31
0.0
  0
TEXT
  5
3FA
  8
TEXT
 10
36.714624999999998
 20
0.4342083333333324
 30
0.0
 40
0.53125
  1
11.500
 41
0.75
  7
TXT
 72
     4
 11
37.511499999999991
 21
0.6998333333333324
 31
0.0
  0
TEXT
  5
3FB
  8
TEXT
 10
40.071812500000007
 20
3.9758749999999972
 30
0.0
 40
0.53125
  1
DEPTH
 41
0.75
  7
TXT
 72
     4
 11
41.001500000000007
 21
4.2414999999999967
 31
0.0
  0
TEXT
  5
3FC
  8
TEXT
 10
40.204625
 20
3.0904583333333311
 30
0.0
 40
0.53125
  1
10.000
 41
0.75
  7
TXT
 72
     4
 11
41.001500000000007
 21
3.3560833333333311
 31
0.0
  0
TEXT
  5
3FD
  8
TEXT
 10
40.13821875
 20
2.2050416666666641
 30
0.0
 40
0.53125
  1
12.500
 41
0.75
  7
TXT
 72
     4
 11
41.001500000000007
 21
2.4706666666666641
 31
0.0
  0
TEXT
  5
3FE
  8
TEXT
 10
40.13821875
 20
1.319624999999998
 30
0.0
 40
0.53125
  1
12.500
 41
0.75
  7
TXT
 72
     4
 11
41.001500000000007
 21
1.585249999999998
 31
0.0
  0
TEXT
  5
3FF
  8
TEXT
 10
40.171421875000007
 20
0.4342083333333315
 30
0.0
 40
0.53125
  1
18.000
 41
0.75
  7
TXT
 72
     4
 11
41.001500000000007
 21
0.6998333333333315
 31
0.0
  0
TEXT
  5
400
  8
TEXT
 10
1.263499999999993
 20
13.89229525874309
 30
0.0
 40
0.53125
  1
%%UFINISH%%U:
 41
0.75
  7
TXT
  0
TEXT
  5
401
  8
TEXT
 10
1.263499999999993
 20
13.00687859207642
 30
0.0
 40
0.53125
  1
  FRAME AND BAIL
 41
0.75
  7
TXT
  0
TEXT
  5
402
  8
TEXT
 10
7.5909374999999946
 20
13.00687859207642
 30
0.0
 40
0.53125
  1
____________________WHITE TEXTURED
 41
0.75
  7
TXT
 72
     2
 11
21.004999999999988
 21
13.00687859207642
 31
0.0
  0
TEXT
  5
403
  8
TEXT
 10
1.263499999999993
 20
12.12146192540976
 30
0.0
 40
0.53125
  1
  FRONT PANEL AND COVERS
 41
0.75
  7
TXT
  0
TEXT
  5
404
  8
TEXT
 10
1.263499999999993
 20
11.23604525874309
 30
0.0
 40
0.53125
  1
  BAIL, TUBING, FEET AND KNOBS
 41
0.75
  7
TXT
  0
TEXT
  5
405
  8
TEXT
 10
1.263499999999993
 20
10.35062859207642
 30
0.0
 40
0.53125
  1
  BAIL WASHERS
 41
0.75
  7
TXT
  0
TEXT
  5
406
  8
TEXT
 10
1.263499999999993
 20
7.6972119254097624
 30
0.0
 40
0.53125
  1
FRONT PANEL RECESSED 0.375.
 41
0.75
  7
TXT
  0
TEXT
  5
408
  8
TEXT
 10
11.17687499999999
 20
12.121461925409751
 30
0.0
 40
0.53125
  1
______ROYAL BLUE TEXTURED
 41
0.75
  7
TXT
 72
     2
 11
21.004999999999988
 21
12.121461925409751
 31
0.0
  0
TEXT
  5
409
  8
TEXT
 10
12.37218749999999
 20
11.236045258743079
 30
0.0
 40
0.53125
  1
_________________BLACK
 41
0.75
  7
TXT
 72
     2
 11
21.004999999999988
 21
11.236045258743079
 31
0.0
  0
TEXT
  5
40A
  8
TEXT
 10
6.7940624999999946
 20
10.35062859207642
 30
0.0
 40
0.53125
  1
________________________WHITE TEFLON
 41
0.75
  7
TXT
 72
     2
 11
21.004999999999988
 21
10.35062859207642
 31
0.0
  0
TEXT
  5
40B
  8
TEXT
 10
22.004999999999988
 20
13.892295258743079
 30
0.0
 40
0.53125
  1
%%UMATERIAL%%U:
 41
0.75
  7
TXT
  0
TEXT
  5
40C
  8
TEXT
 10
22.004999999999988
 20
13.00687859207642
 30
0.0
 40
0.53125
  1
  FRONT PANEL
 41
0.75
  7
TXT
  0
TEXT
  5
40D
  8
TEXT
 10
22.004999999999988
 20
12.121461925409751
 30
0.0
 40
0.53125
  1
  CORNER GUSSETS
 41
0.75
  7
TXT
  0
TEXT
  5
40E
  8
TEXT
 10
22.004999999999988
 20
11.236045258743079
 30
0.0
 40
0.53125
  1
  COVERS
 41
0.75
  7
TXT
  0
TEXT
  5
40F
  8
TEXT
 10
22.004999999999988
 20
10.35062859207642
 30
0.0
 40
0.53125
  1
  FRAME
 41
0.75
  7
TXT
  0
TEXT
  5
410
  8
TEXT
 10
22.004999999999988
 20
9.4652119254097542
 30
0.0
 40
0.53125
  1
  BAIL
 41
0.75
  7
TXT
  0
TEXT
  5
411
  8
TEXT
 10
22.004999999999988
 20
8.5797952587430881
 30
0.0
 40
0.53125
  1
  BAIL TUBING
 41
0.75
  7
TXT
  0
TEXT
  5
412
  8
TEXT
 10
22.004999999999988
 20
7.6943785920764229
 30
0.0
 40
0.53125
  1
  FEET
 41
0.75
  7
TXT
  0
TEXT
  5
413
  8
TEXT
 10
22.004999999999988
 20
6.8089619254097569
 30
0.0
 40
0.53125
  1
  KNOBS
 41
0.75
  7
TXT
  0
TEXT
  5
414
  8
TEXT
 10
27.33634374999999
 20
13.00687859207641
 30
0.0
 40
0.53125
  1
________________________0.090 ALUMINUM
 41
0.75
  7
TXT
 72
     2
 11
41.74649999999999
 21
13.00687859207641
 31
0.0
  0
TEXT
  5
415
  8
TEXT
 10
28.53165624999999
 20
12.12146192540974
 30
0.0
 40
0.53125
  1
_____________________0.060 ALUMINUM
 41
0.75
  7
TXT
 72
     2
 11
41.74649999999999
 21
12.12146192540974
 31
0.0
  0
TEXT
  5
416
  8
TEXT
 10
25.34415624999999
 20
11.236045258743079
 30
0.0
 40
0.53125
  1
_____________________________0.050 ALUMINUM
 41
0.75
  7
TXT
 72
     2
 11
41.74649999999999
 21
11.236045258743079
 31
0.0
  0
TEXT
  5
417
  8
TEXT
 10
24.87931249999999
 20
10.35062859207641
 30
0.0
 40
0.53125
  1
__________________________EXTRUDED ALUMINUM
 41
0.75
  7
TXT
 72
     2
 11
41.74649999999999
 21
10.35062859207641
 31
0.0
  0
TEXT
  5
418
  8
TEXT
 10
24.48087499999999
 20
9.4652119254097489
 30
0.0
 40
0.53125
  1
___________________________EXTRUDED ALUMINUM
 41
0.75
  7
TXT
 72
     2
 11
41.74649999999999
 21
9.4652119254097489
 31
0.0
  0
TEXT
  5
419
  8
TEXT
 10
27.13712499999999
 20
8.5797952587430828
 30
0.0
 40
0.53125
  1
_____________________________NEOPRENE
 41
0.75
  7
TXT
 72
     2
 11
41.74649999999999
 21
8.5797952587430828
 31
0.0
  0
TEXT
  5
41A
  8
TEXT
 10
24.34806249999999
 20
7.6943785920764158
 30
0.0
 40
0.53125
  1
________________________SELF-ADHESIVE RUBBER
 41
0.75
  7
TXT
 72
     2
 11
41.74649999999999
 21
7.6943785920764158
 31
0.0
  0
TEXT
  5
41B
  8
TEXT
 10
24.87931249999999
 20
6.8089619254097498
 30
0.0
 40
0.53125
  1
____________________________________PLASTIC
 41
0.75
  7
TXT
 72
     2
 11
41.74649999999999
 21
6.8089619254097498
 31
0.0
  0
TEXT
  5
41C
  8
TEXT
 10
1.263499999999993
 20
8.579795258743097
 30
0.0
 40
0.53125
  1
%%UNOTES%%U:
 41
0.75
  7
TXT
  0
ENDSEC
  0
EOF
