  0
SECTION
  2
HEADER
  9
$ACADVER
  1
AC1015
  9
$ACADMAINTVER
 70
     6
  9
$DWGCODEPAGE
  3
ANSI_1252
  9
$INSBASE
 10
0.0
 20
0.0
 30
0.0
  9
$EXTMIN
 10
-0.0009264429855662
 20
-0.0014189591182259
 30
-0.0015258207003583
  9
$EXTMAX
 10
30.36092658436034
 20
46.50141917565072
 30
0.0000000349246037
  9
$LIMMIN
 10
0.0
 20
0.0
  9
$LIMMAX
 10
30.36
 20
46.49999999999997
  9
$ORTHOMODE
 70
     1
  9
$REGENMODE
 70
     1
  9
$FILLMODE
 70
     1
  9
$QTEXTMODE
 70
     0
  9
$MIRRTEXT
 70
     0
  9
$LTSCALE
 40
1.0
  9
$ATTMODE
 70
     1
  9
$TEXTSIZE
 40
0.375
  9
$TRACEWID
 40
0.05
  9
$TEXTSTYLE
  7
TXT
  9
$CLAYER
  8
OBJECT
  9
$CELTYPE
  6
ByLayer
  9
$CECOLOR
 62
   256
  9
$CELTSCALE
 40
1.0
  9
$DISPSILH
 70
     0
  9
$DIMSCALE
 40
3.0
  9
$DIMASZ
 40
0.18
  9
$DIMEXO
 40
0.063
  9
$DIMDLI
 40
0.281
  9
$DIMRND
 40
0.0
  9
$DIMDLE
 40
0.0
  9
$DIMEXE
 40
0.093
  9
$DIMTP
 40
0.0
  9
$DIMTM
 40
0.0
  9
$DIMTXT
 40
0.125
  9
$DIMCEN
 40
0.09
  9
$DIMTSZ
 40
0.0
  9
$DIMTOL
 70
     0
  9
$DIMLIM
 70
     0
  9
$DIMTIH
 70
     1
  9
$DIMTOH
 70
     1
  9
$DIMSE1
 70
     0
  9
$DIMSE2
 70
     0
  9
$DIMTAD
 70
     0
  9
$DIMZIN
 70
     0
  9
$DIMBLK
  1

  9
$DIMASO
 70
     1
  9
$DIMSHO
 70
     1
  9
$DIMPOST
  1

  9
$DIMAPOST
  1

  9
$DIMALT
 70
     0
  9
$DIMALTD
 70
     2
  9
$DIMALTF
 40
25.4
  9
$DIMLFAC
 40
1.0
  9
$DIMTOFL
 70
     0
  9
$DIMTVP
 40
0.0
  9
$DIMTIX
 70
     0
  9
$DIMSOXD
 70
     0
  9
$DIMSAH
 70
     0
  9
$DIMBLK1
  1

  9
$DIMBLK2
  1

  9
$DIMSTYLE
  2
STD
  9
$DIMCLRD
 70
     0
  9
$DIMCLRE
 70
     0
  9
$DIMCLRT
 70
     0
  9
$DIMTFAC
 40
1.0
  9
$DIMGAP
 40
0.09
  9
$DIMJUST
 70
     0
  9
$DIMSD1
 70
     0
  9
$DIMSD2
 70
     0
  9
$DIMTOLJ
 70
     1
  9
$DIMTZIN
 70
     0
  9
$DIMALTZ
 70
     0
  9
$DIMALTTZ
 70
     0
  9
$DIMUPT
 70
     0
  9
$DIMDEC
 70
     4
  9
$DIMTDEC
 70
     4
  9
$DIMALTU
 70
     2
  9
$DIMALTTD
 70
     2
  9
$DIMTXSTY
  7
STANDARD
  9
$DIMAUNIT
 70
     0
  9
$DIMADEC
 70
     0
  9
$DIMALTRND
 40
0.0
  9
$DIMAZIN
 70
     0
  9
$DIMDSEP
 70
    46
  9
$DIMATFIT
 70
     1
  9
$DIMFRAC
 70
     0
  9
$DIMLDRBLK
  1

  9
$DIMLUNIT
 70
     2
  9
$DIMLWD
 70
    -2
  9
$DIMLWE
 70
    -2
  9
$DIMTMOVE
 70
     0
  9
$LUNITS
 70
     2
  9
$LUPREC
 70
     3
  9
$SKETCHINC
 40
0.1
  9
$FILLETRAD
 40
0.0
  9
$AUNITS
 70
     0
  9
$AUPREC
 70
     0
  9
$MENU
  1
acad
  9
$ELEVATION
 40
0.0
  9
$PELEVATION
 40
0.0
  9
$THICKNESS
 40
0.0
  9
$LIMCHECK
 70
     0
  9
$CHAMFERA
 40
0.0
  9
$CHAMFERB
 40
0.0
  9
$CHAMFERC
 40
0.0
  9
$CHAMFERD
 40
0.0
  9
$SKPOLY
 70
     0
  9
$TDCREATE
 40
2450301.395479398
  9
$TDUCREATE
 40
2450301.562146065
  9
$TDUPDATE
 40
2454925.443822153
  9
$TDUUPDATE
 40
2454925.610488819
  9
$TDINDWG
 40
0.1505351736
  9
$TDUSRTIMER
 40
0.1505335532
  9
$USRTIMER
 70
     1
  9
$ANGBASE
 50
0.0
  9
$ANGDIR
 70
     0
  9
$PDMODE
 70
     0
  9
$PDSIZE
 40
0.0
  9
$PLINEWID
 40
0.0
  9
$SPLFRAME
 70
     0
  9
$SPLINETYPE
 70
     6
  9
$SPLINESEGS
 70
     8
  9
$HANDSEED
  5
BE9
  9
$SURFTAB1
 70
     6
  9
$SURFTAB2
 70
     6
  9
$SURFTYPE
 70
     6
  9
$SURFU
 70
     6
  9
$SURFV
 70
     6
  9
$UCSBASE
  2

  9
$UCSNAME
  2

  9
$UCSORG
 10
0.0
 20
0.0
 30
0.0
  9
$UCSXDIR
 10
1.0
 20
0.0
 30
0.0
  9
$UCSYDIR
 10
0.0
 20
1.0
 30
0.0
  9
$UCSORTHOREF
  2

  9
$UCSORTHOVIEW
 70
     0
  9
$UCSORGTOP
 10
0.0
 20
0.0
 30
0.0
  9
$UCSORGBOTTOM
 10
0.0
 20
0.0
 30
0.0
  9
$UCSORGLEFT
 10
0.0
 20
0.0
 30
0.0
  9
$UCSORGRIGHT
 10
0.0
 20
0.0
 30
0.0
  9
$UCSORGFRONT
 10
0.0
 20
0.0
 30
0.0
  9
$UCSORGBACK
 10
0.0
 20
0.0
 30
0.0
  9
$PUCSBASE
  2

  9
$PUCSNAME
  2

  9
$PUCSORG
 10
0.0
 20
0.0
 30
0.0
  9
$PUCSXDIR
 10
1.0
 20
0.0
 30
0.0
  9
$PUCSYDIR
 10
0.0
 20
1.0
 30
0.0
  9
$PUCSORTHOREF
  2

  9
$PUCSORTHOVIEW
 70
     0
  9
$PUCSORGTOP
 10
0.0
 20
0.0
 30
0.0
  9
$PUCSORGBOTTOM
 10
0.0
 20
0.0
 30
0.0
  9
$PUCSORGLEFT
 10
0.0
 20
0.0
 30
0.0
  9
$PUCSORGRIGHT
 10
0.0
 20
0.0
 30
0.0
  9
$PUCSORGFRONT
 10
0.0
 20
0.0
 30
0.0
  9
$PUCSORGBACK
 10
0.0
 20
0.0
 30
0.0
  9
$USERI1
 70
     0
  9
$USERI2
 70
     0
  9
$USERI3
 70
     0
  9
$USERI4
 70
     0
  9
$USERI5
 70
     0
  9
$USERR1
 40
0.0
  9
$USERR2
 40
0.0
  9
$USERR3
 40
0.0
  9
$USERR4
 40
0.0
  9
$USERR5
 40
0.0
  9
$WORLDVIEW
 70
     1
  9
$SHADEDGE
 70
     3
  9
$SHADEDIF
 70
    70
  9
$TILEMODE
 70
     1
  9
$MAXACTVP
 70
    16
  9
$PINSBASE
 10
0.0
 20
0.0
 30
0.0
  9
$PLIMCHECK
 70
     0
  9
$PEXTMIN
 10
1.000000000000000E+20
 20
1.000000000000000E+20
 30
1.000000000000000E+20
  9
$PEXTMAX
 10
-1.000000000000000E+20
 20
-1.000000000000000E+20
 30
-1.000000000000000E+20
  9
$PLIMMIN
 10
0.0
 20
0.0
  9
$PLIMMAX
 10
12.0
 20
9.0
  9
$UNITMODE
 70
     0
  9
$VISRETAIN
 70
     0
  9
$PLINEGEN
 70
     0
  9
$PSLTSCALE
 70
     1
  9
$TREEDEPTH
 70
  3020
  9
$CMLSTYLE
  2
Standard
  9
$CMLJUST
 70
     0
  9
$CMLSCALE
 40
1.0
  9
$PROXYGRAPHICS
 70
     1
  9
$MEASUREMENT
 70
     0
  9
$CELWEIGHT
370
    -1
  9
$ENDCAPS
280
     0
  9
$JOINSTYLE
280
     0
  9
$LWDISPLAY
290
     0
  9
$INSUNITS
 70
     0
  9
$HYPERLINKBASE
  1

  9
$STYLESHEET
  1

  9
$XEDIT
290
     1
  9
$CEPSNTYPE
380
     0
  9
$PSTYLEMODE
290
     1
  9
$FINGERPRINTGUID
  2
{51DE5311-52AE-4D8C-BE8C-66E5302383F2}
  9
$VERSIONGUID
  2
{E6F75EED-C5EC-40C8-B387-23A2C2C463A1}
  9
$EXTNAMES
290
     1
  9
$PSVPSCALE
 40
0.0
  9
$OLESTARTUP
290
     0
  0
ENDSEC
  0
SECTION
  2
CLASSES
  0
CLASS
  1
ACDBDICTIONARYWDFLT
  2
AcDbDictionaryWithDefault
  3
AutoCAD 2000
 90
        0
280
     0
281
     0
  0
CLASS
  1
ACDBPLACEHOLDER
  2
AcDbPlaceHolder
  3
AutoCAD 2000
 90
        0
280
     0
281
     0
  0
CLASS
  1
LAYOUT
  2
AcDbLayout
  3
AutoCAD 2000
 90
        0
280
     0
281
     0
  0
ENDSEC
  0
SECTION
  2
TABLES
  0
TABLE
  2
VPORT
  5
6CF
330
0
100
AcDbSymbolTable
 70
     2
  0
VPORT
  5
BE8
330
6CF
100
AcDbSymbolTableRecord
100
AcDbViewportTableRecord
  2
*Active
 70
     0
 10
0.0
 20
0.0
 11
1.0
 21
1.0
 12
15.18000007068738
 22
23.25000010826625
 13
0.0
 23
0.0
 14
2.0
 24
2.0
 15
1.0
 25
1.0
 16
0.0
 26
0.0
 36
1.0
 17
0.0
 27
0.0
 37
0.0
 40
46.96786651611664
 41
1.824707846410684
 42
50.0
 43
0.0
 44
0.0
 50
0.0
 51
0.0
 71
     0
 72
   500
 73
     1
 74
     0
 75
     0
 76
     0
 77
     0
 78
     0
281
     0
 65
     0
110
0.0
120
0.0
130
0.0
111
1.0
121
0.0
131
0.0
112
0.0
122
1.0
132
0.0
 79
     0
146
0.0
  0
ENDTAB
  0
TABLE
  2
LTYPE
  5
6CC
330
0
100
AcDbSymbolTable
 70
     4
  0
LTYPE
  5
6DA
330
6CC
100
AcDbSymbolTableRecord
100
AcDbLinetypeTableRecord
  2
ByBlock
 70
     0
  3

 72
    65
 73
     0
 40
0.0
  0
LTYPE
  5
6DB
330
6CC
100
AcDbSymbolTableRecord
100
AcDbLinetypeTableRecord
  2
ByLayer
 70
     0
  3

 72
    65
 73
     0
 40
0.0
  0
LTYPE
  5
6DC
330
6CC
100
AcDbSymbolTableRecord
100
AcDbLinetypeTableRecord
  2
CONTINUOUS
 70
     0
  3
Solid line
 72
    65
 73
     0
 40
0.0
  0
LTYPE
  5
6EC
330
6CC
100
AcDbSymbolTableRecord
100
AcDbLinetypeTableRecord
  2
HIDDEN
 70
     0
  3
_ _ _ _ _ _ _ _ _ _ _ _ _ _ _ _ _ _ _ _ _ _ _
 72
    65
 73
     2
 40
0.375
 49
0.25
 74
     0
 49
-0.125
 74
     0
  0
LTYPE
  5
6ED
330
6CC
100
AcDbSymbolTableRecord
100
AcDbLinetypeTableRecord
  2
PHANTOM
 70
     0
  3
_____ _ _ _____ _ _ _____ _ _ _____ _ _ ____
 72
    65
 73
     6
 40
2.5
 49
1.25
 74
     0
 49
-0.25
 74
     0
 49
0.25
 74
     0
 49
-0.25
 74
     0
 49
0.25
 74
     0
 49
-0.25
 74
     0
  0
LTYPE
  5
6EE
330
6CC
100
AcDbSymbolTableRecord
100
AcDbLinetypeTableRecord
  2
CENTER
 70
     0
  3
____ _ ____ _ ____ _ ____ _ ____ _ ____ _ ____
 72
    65
 73
     4
 40
2.0
 49
1.25
 74
     0
 49
-0.25
 74
     0
 49
0.25
 74
     0
 49
-0.25
 74
     0
  0
ENDTAB
  0
TABLE
  2
LAYER
  5
6C9
330
0
100
AcDbSymbolTable
 70
     9
  0
LAYER
  5
6D7
330
6C9
100
AcDbSymbolTableRecord
100
AcDbLayerTableRecord
  2
0
 70
     0
 62
     7
  6
CONTINUOUS
370
    -3
390
6D6
  0
LAYER
  5
6E9
330
6C9
100
AcDbSymbolTableRecord
100
AcDbLayerTableRecord
  2
OBJECT
 70
     0
 62
     7
  6
CONTINUOUS
370
    -3
390
6D6
  0
LAYER
  5
6EF
330
6C9
100
AcDbSymbolTableRecord
100
AcDbLayerTableRecord
  2
DIM
 70
     0
 62
     7
  6
CONTINUOUS
370
    -3
390
6D6
  0
LAYER
  5
6F0
330
6C9
100
AcDbSymbolTableRecord
100
AcDbLayerTableRecord
  2
HIDDEN
 70
     0
 62
     7
  6
HIDDEN
370
    -3
390
6D6
  0
LAYER
  5
6F1
330
6C9
100
AcDbSymbolTableRecord
100
AcDbLayerTableRecord
  2
BEND
 70
     0
 62
     7
  6
PHANTOM
370
    -3
390
6D6
  0
LAYER
  5
6F2
330
6C9
100
AcDbSymbolTableRecord
100
AcDbLayerTableRecord
  2
TEXT
 70
     0
 62
     7
  6
CONTINUOUS
370
    -3
390
6D6
  0
LAYER
  5
6F3
330
6C9
100
AcDbSymbolTableRecord
100
AcDbLayerTableRecord
  2
TITLE
 70
     0
 62
     7
  6
CONTINUOUS
370
    -3
390
6D6
  0
LAYER
  5
6F4
330
6C9
100
AcDbSymbolTableRecord
100
AcDbLayerTableRecord
  2
CENTER
 70
     0
 62
     7
  6
CENTER
370
    -3
390
6D6
  0
LAYER
  5
6F5
330
6C9
100
AcDbSymbolTableRecord
100
AcDbLayerTableRecord
  2
DEFPOINTS
 70
     0
 62
     7
  6
CONTINUOUS
290
     0
370
    -3
390
6D6
  0
ENDTAB
  0
TABLE
  2
STYLE
  5
6CA
330
0
100
AcDbSymbolTable
 70
     2
  0
STYLE
  5
6D8
330
6CA
100
AcDbSymbolTableRecord
100
AcDbTextStyleTableRecord
  2
STANDARD
 70
     0
 40
0.0
 41
1.0
 50
0.0
 71
     0
 42
0.2
  3
txt
  4

  0
STYLE
  5
6EA
330
6CA
100
AcDbSymbolTableRecord
100
AcDbTextStyleTableRecord
  2
TXT
 70
     0
 40
0.0
 41
0.75
 50
0.0
 71
     0
 42
0.375
  3
TXT.shx
  4

  0
ENDTAB
  0
TABLE
  2
VIEW
  5
6CD
330
0
100
AcDbSymbolTable
 70
     0
  0
ENDTAB
  0
TABLE
  2
UCS
  5
6CE
330
0
100
AcDbSymbolTable
 70
     0
  0
ENDTAB
  0
TABLE
  2
APPID
  5
6D0
330
0
100
AcDbSymbolTable
 70
     1
  0
APPID
  5
6D9
330
6D0
100
AcDbSymbolTableRecord
100
AcDbRegAppTableRecord
  2
ACAD
 70
     0
  0
ENDTAB
  0
TABLE
  2
DIMSTYLE
  5
6D1
330
0
100
AcDbSymbolTable
 70
     1
100
AcDbDimStyleTable
 71
     1
340
6F6
  0
DIMSTYLE
105
6F6
102
{ACAD_REACTORS
330
7D0
330
7DE
330
7EC
330
806
330
81C
330
832
330
846
330
937
330
945
330
953
330
B4A
330
B58
102
}
330
6D1
100
AcDbSymbolTableRecord
100
AcDbDimStyleTableRecord
  2
STD
 70
     0
 40
3.0
 42
0.063
 43
0.281
 44
0.093
140
0.125
271
     3
272
     3
289
     1
340
6EA
  0
ENDTAB
  0
TABLE
  2
BLOCK_RECORD
  5
6C8
330
0
100
AcDbSymbolTable
 70
    17
  0
BLOCK_RECORD
  5
6E5
330
6C8
100
AcDbSymbolTableRecord
100
AcDbBlockTableRecord
  2
*Model_Space
340
6E8
  0
BLOCK_RECORD
  5
6E1
330
6C8
100
AcDbSymbolTableRecord
100
AcDbBlockTableRecord
  2
*Paper_Space
340
6E4
  0
BLOCK_RECORD
  5
6F8
330
6C8
100
AcDbSymbolTableRecord
100
AcDbBlockTableRecord
  2
$MODEL_SPACE
340
0
  0
BLOCK_RECORD
  5
6FB
330
6C8
100
AcDbSymbolTableRecord
100
AcDbBlockTableRecord
  2
$PAPER_SPACE
340
0
  0
BLOCK_RECORD
  5
6FE
330
6C8
100
AcDbSymbolTableRecord
100
AcDbBlockTableRecord
  2
HB
340
0
102
{BLKREFS
331
857
102
}
  0
BLOCK_RECORD
  5
7D1
330
6C8
100
AcDbSymbolTableRecord
100
AcDbBlockTableRecord
  2
*D5
340
0
  0
BLOCK_RECORD
  5
7DF
330
6C8
100
AcDbSymbolTableRecord
100
AcDbBlockTableRecord
  2
*D6
340
0
  0
BLOCK_RECORD
  5
7ED
330
6C8
100
AcDbSymbolTableRecord
100
AcDbBlockTableRecord
  2
*D7
340
0
  0
BLOCK_RECORD
  5
807
330
6C8
100
AcDbSymbolTableRecord
100
AcDbBlockTableRecord
  2
*D8
340
0
  0
BLOCK_RECORD
  5
81D
330
6C8
100
AcDbSymbolTableRecord
100
AcDbBlockTableRecord
  2
*D9
340
0
  0
BLOCK_RECORD
  5
833
330
6C8
100
AcDbSymbolTableRecord
100
AcDbBlockTableRecord
  2
*D10
340
0
  0
BLOCK_RECORD
  5
847
330
6C8
100
AcDbSymbolTableRecord
100
AcDbBlockTableRecord
  2
*D11
340
0
  0
BLOCK_RECORD
  5
938
330
6C8
100
AcDbSymbolTableRecord
100
AcDbBlockTableRecord
  2
*D12
340
0
  0
BLOCK_RECORD
  5
946
330
6C8
100
AcDbSymbolTableRecord
100
AcDbBlockTableRecord
  2
*D13
340
0
  0
BLOCK_RECORD
  5
954
330
6C8
100
AcDbSymbolTableRecord
100
AcDbBlockTableRecord
  2
*D14
340
0
  0
BLOCK_RECORD
  5
B4B
330
6C8
100
AcDbSymbolTableRecord
100
AcDbBlockTableRecord
  2
*D15
340
0
  0
BLOCK_RECORD
  5
B59
330
6C8
100
AcDbSymbolTableRecord
100
AcDbBlockTableRecord
  2
*D16
340
0
  0
ENDTAB
  0
ENDSEC
  0
SECTION
  2
BLOCKS
  0
BLOCK
  5
6E6
330
6E5
100
AcDbEntity
  8
0
100
AcDbBlockBegin
  2
*Model_Space
 70
     0
 10
0.0
 20
0.0
 30
0.0
  3
*Model_Space
  1

  0
ENDBLK
  5
6E7
330
6E5
100
AcDbEntity
  8
0
100
AcDbBlockEnd
  0
BLOCK
  5
6E2
330
6E1
100
AcDbEntity
 67
     1
  8
0
100
AcDbBlockBegin
  2
*Paper_Space
 70
     0
 10
0.0
 20
0.0
 30
0.0
  3
*Paper_Space
  1

  0
ENDBLK
  5
6E3
330
6E1
100
AcDbEntity
 67
     1
  8
0
100
AcDbBlockEnd
  0
BLOCK
  5
6F9
330
6F8
100
AcDbEntity
  8
0
100
AcDbBlockBegin
  2
$MODEL_SPACE
 70
     0
 10
0.0
 20
0.0
 30
0.0
  3
$MODEL_SPACE
  1

  0
ENDBLK
  5
6FA
330
6F8
100
AcDbEntity
  8
0
100
AcDbBlockEnd
  0
BLOCK
  5
6FC
330
6FB
100
AcDbEntity
  8
0
100
AcDbBlockBegin
  2
$PAPER_SPACE
 70
     0
 10
0.0
 20
0.0
 30
0.0
  3
$PAPER_SPACE
  1

  0
ENDBLK
  5
6FD
330
6FB
100
AcDbEntity
  8
0
100
AcDbBlockEnd
  0
BLOCK
  5
6FF
330
6FE
100
AcDbEntity
  8
0
100
AcDbBlockBegin
  2
HB
 70
     0
 10
0.0
 20
0.0
 30
0.0
  3
HB
  1

  0
TEXT
  5
700
330
6FE
100
AcDbEntity
  8
TEXT
100
AcDbText
 10
0.2078333333333363
 20
15.06007919564008
 30
0.0
 40
0.125
  1
NAME
 72
     1
 11
0.4370000000000031
 21
15.06007919564008
 31
0.0
100
AcDbText
  0
TEXT
  5
701
330
6FE
100
AcDbEntity
  8
TEXT
100
AcDbText
 10
0.2078333333333363
 20
15.26841252897341
 30
0.0
 40
0.125
  1
PART
 72
     1
 11
0.4370000000000031
 21
15.26841252897341
 31
0.0
100
AcDbText
  0
TEXT
  5
702
330
6FE
100
AcDbEntity
  8
TEXT
100
AcDbText
 10
5.371999999999998
 20
15.06007919564008
 30
0.0
 40
0.125
  1
No.
 72
     1
 11
5.496999999999998
 21
15.06007919564008
 31
0.0
100
AcDbText
  0
TEXT
  5
703
330
6FE
100
AcDbEntity
  8
TEXT
100
AcDbText
 10
5.267833333333331
 20
15.26841252897341
 30
0.0
 40
0.125
  1
PART
 72
     1
 11
5.496999999999998
 21
15.26841252897341
 31
0.0
100
AcDbText
  0
LINE
  5
704
330
6FE
100
AcDbEntity
  8
TITLE
100
AcDbLine
 10
5.872
 20
15.438
 30
0.0
 11
5.872
 21
15.01999999999999
 31
0.0
  0
LINE
  5
705
330
6FE
100
AcDbEntity
  8
TITLE
100
AcDbLine
 10
5.122
 20
15.438
 30
0.0
 11
5.122
 21
15.01999999999999
 31
0.0
  0
LINE
  5
706
330
6FE
100
AcDbEntity
  8
TITLE
100
AcDbLine
 10
5.059999999999999
 20
15.438
 30
0.0
 11
5.059999999999999
 21
15.01999999999999
 31
0.0
  0
LINE
  5
707
330
6FE
100
AcDbEntity
  8
TITLE
100
AcDbLine
 10
0.8120000000000029
 20
15.01999999999999
 30
0.0
 11
0.8120000000000009
 21
15.438
 31
0.0
  0
LINE
  5
708
330
6FE
100
AcDbEntity
  8
TITLE
100
AcDbLine
 10
0.0620000000000012
 20
15.01999999999999
 30
0.0
 11
10.058
 21
15.01999999999999
 31
0.0
  0
LINE
  5
709
330
6FE
100
AcDbEntity
  8
TITLE
100
AcDbLine
 10
10.058
 20
0.0619999999999994
 30
0.0
 11
0.0619999999999976
 21
0.0620000000000012
 31
0.0
  0
LINE
  5
70A
330
6FE
100
AcDbEntity
  8
TITLE
100
AcDbLine
 10
10.058
 20
15.438
 30
0.0
 11
10.058
 21
0.0619999999999994
 31
0.0
  0
LINE
  5
70B
330
6FE
100
AcDbEntity
  8
TITLE
100
AcDbLine
 10
0.0620000000000012
 20
15.438
 30
0.0
 11
10.058
 21
15.438
 31
0.0
  0
LINE
  5
70C
330
6FE
100
AcDbEntity
  8
TITLE
100
AcDbLine
 10
0.0619999999999976
 20
0.0620000000000012
 30
0.0
 11
0.0620000000000012
 21
15.438
 31
0.0
  0
LINE
  5
70D
330
6FE
100
AcDbEntity
  8
TITLE
100
AcDbLine
 10
0.0
 20
0.0
 30
0.0
 11
0.0
 21
15.5
 31
0.0
  0
LINE
  5
70E
330
6FE
100
AcDbEntity
  8
TITLE
100
AcDbLine
 10
10.12
 20
-0.0000000000000018
 30
0.0
 11
0.0
 21
0.0
 31
0.0
  0
LINE
  5
70F
330
6FE
100
AcDbEntity
  8
TITLE
100
AcDbLine
 10
10.12
 20
15.49999999999998
 30
0.0
 11
10.12
 21
-0.0000000000000018
 31
0.0
  0
LINE
  5
710
330
6FE
100
AcDbEntity
  8
TITLE
100
AcDbLine
 10
0.0
 20
15.5
 30
0.0
 11
10.12
 21
15.49999999999998
 31
0.0
  0
ENDBLK
  5
711
330
6FE
100
AcDbEntity
  8
0
100
AcDbBlockEnd
  0
BLOCK
  5
7DC
330
7D1
100
AcDbEntity
  8
0
100
AcDbBlockBegin
  2
*D5
 70
     1
 10
0.0
 20
0.0
 30
0.0
  3
*D5
  1

  0
LINE
  5
B6B
330
7D1
100
AcDbEntity
  8
DIM
 62
     0
370
    -2
100
AcDbLine
 10
9.50665739825615
 20
37.33733989824264
 30
0.0
 11
9.50665739825615
 21
38.2126968686443
 31
0.0
  0
LINE
  5
B6C
330
7D1
100
AcDbEntity
  8
DIM
 62
     0
370
    -2
100
AcDbLine
 10
3.506657398256149
 20
37.33733989824264
 30
0.0
 11
3.506657398256149
 21
38.2126968686443
 31
0.0
  0
LINE
  5
B6D
330
7D1
100
AcDbEntity
  8
DIM
 62
     0
370
    -2
100
AcDbLine
 10
8.966657398256149
 20
37.93369686864429
 30
0.0
 11
6.870407398256149
 21
37.93369686864429
 31
0.0
  0
LINE
  5
B6E
330
7D1
100
AcDbEntity
  8
DIM
 62
     0
370
    -2
100
AcDbLine
 10
4.046657398256149
 20
37.93369686864429
 30
0.0
 11
6.142907398256149
 21
37.93369686864429
 31
0.0
  0
SOLID
  5
B6F
330
7D1
100
AcDbEntity
  8
DIM
 62
     0
100
AcDbTrace
 10
8.966657398256149
 20
38.0236968686443
 30
0.0
 11
8.966657398256149
 21
37.84369686864429
 31
0.0
 12
9.50665739825615
 22
37.93369686864429
 32
0.0
 13
9.50665739825615
 23
37.93369686864429
 33
0.0
  0
SOLID
  5
B70
330
7D1
100
AcDbEntity
  8
DIM
 62
     0
100
AcDbTrace
 10
4.046657398256149
 20
38.0236968686443
 30
0.0
 11
4.046657398256149
 21
37.84369686864429
 31
0.0
 12
3.506657398256149
 22
37.93369686864429
 32
0.0
 13
3.506657398256149
 23
37.93369686864429
 33
0.0
  0
MTEXT
  5
B71
330
7D1
100
AcDbEntity
  8
DIM
 62
     0
100
AcDbMText
 10
6.506657398256149
 20
37.93369686864429
 30
0.0
 40
0.375
 41
0.0
 71
     5
 72
     1
  1
\A1;B
  7
TXT
 73
     1
 44
1.0
  0
POINT
  5
B72
330
7D1
100
AcDbEntity
  8
DEFPOINTS
 62
     0
100
AcDbPoint
 10
9.50665739825615
 20
37.14833989824264
 30
0.0
  0
POINT
  5
B73
330
7D1
100
AcDbEntity
  8
DEFPOINTS
 62
     0
100
AcDbPoint
 10
3.506657398256149
 20
37.14833989824264
 30
0.0
  0
POINT
  5
B74
330
7D1
100
AcDbEntity
  8
DEFPOINTS
 62
     0
100
AcDbPoint
 10
3.506657398256149
 20
37.93369686864429
 30
0.0
  0
ENDBLK
  5
7DD
330
7D1
100
AcDbEntity
  8
0
100
AcDbBlockEnd
  0
BLOCK
  5
7EA
330
7DF
100
AcDbEntity
  8
0
100
AcDbBlockBegin
  2
*D6
 70
     1
 10
0.0
 20
0.0
 30
0.0
  3
*D6
  1

  0
LINE
  5
B75
330
7DF
100
AcDbEntity
  8
DIM
 62
     0
370
    -2
100
AcDbLine
 10
3.317657398256149
 20
37.14833989824264
 30
0.0
 11
1.715985459602548
 21
37.14833989824264
 31
0.0
  0
LINE
  5
B76
330
7DF
100
AcDbEntity
  8
DIM
 62
     0
370
    -2
100
AcDbLine
 10
3.317657398256149
 20
28.14833989824265
 30
0.0
 11
1.715985459602546
 21
28.14833989824265
 31
0.0
  0
LINE
  5
B77
330
7DF
100
AcDbEntity
  8
DIM
 62
     0
370
    -2
100
AcDbLine
 10
1.994985459602548
 20
36.60833989824265
 30
0.0
 11
1.994985459602547
 21
33.10583989824265
 31
0.0
  0
LINE
  5
B78
330
7DF
100
AcDbEntity
  8
DIM
 62
     0
370
    -2
100
AcDbLine
 10
1.994985459602546
 20
28.68833989824265
 30
0.0
 11
1.994985459602547
 21
32.19083989824264
 31
0.0
  0
SOLID
  5
B79
330
7DF
100
AcDbEntity
  8
DIM
 62
     0
100
AcDbTrace
 10
1.904985459602548
 20
36.60833989824265
 30
0.0
 11
2.084985459602548
 21
36.60833989824265
 31
0.0
 12
1.994985459602548
 22
37.14833989824264
 32
0.0
 13
1.994985459602548
 23
37.14833989824264
 33
0.0
  0
SOLID
  5
B7A
330
7DF
100
AcDbEntity
  8
DIM
 62
     0
100
AcDbTrace
 10
1.904985459602546
 20
28.68833989824265
 30
0.0
 11
2.084985459602546
 21
28.68833989824265
 31
0.0
 12
1.994985459602546
 22
28.14833989824265
 32
0.0
 13
1.994985459602546
 23
28.14833989824265
 33
0.0
  0
MTEXT
  5
B7B
330
7DF
100
AcDbEntity
  8
DIM
 62
     0
100
AcDbMText
 10
1.994985459602542
 20
32.64833989824264
 30
0.0
 40
0.375
 41
0.0
 71
     5
 72
     1
  1
\A1;A
  7
TXT
 73
     1
 44
1.0
  0
POINT
  5
B7C
330
7DF
100
AcDbEntity
  8
DEFPOINTS
 62
     0
100
AcDbPoint
 10
3.506657398256149
 20
37.14833989824264
 30
0.0
  0
POINT
  5
B7D
330
7DF
100
AcDbEntity
  8
DEFPOINTS
 62
     0
100
AcDbPoint
 10
3.506657398256149
 20
28.14833989824265
 30
0.0
  0
POINT
  5
B7E
330
7DF
100
AcDbEntity
  8
DEFPOINTS
 62
     0
100
AcDbPoint
 10
1.994985459602546
 20
28.14833989824265
 30
0.0
  0
ENDBLK
  5
7EB
330
7DF
100
AcDbEntity
  8
0
100
AcDbBlockEnd
  0
BLOCK
  5
7F8
330
7ED
100
AcDbEntity
  8
0
100
AcDbBlockBegin
  2
*D7
 70
     1
 10
0.0
 20
0.0
 30
0.0
  3
*D7
  1

  0
LINE
  5
B7F
330
7ED
100
AcDbEntity
  8
DIM
 62
     0
370
    -2
100
AcDbLine
 10
12.21595460997122
 20
37.33733989824264
 30
0.0
 11
12.21595460997122
 21
38.2126968686443
 31
0.0
  0
LINE
  5
B80
330
7ED
100
AcDbEntity
  8
DIM
 62
     0
370
    -2
100
AcDbLine
 10
17.18695460997122
 20
37.33733989824264
 30
0.0
 11
17.18695460997122
 21
38.2126968686443
 31
0.0
  0
LINE
  5
B81
330
7ED
100
AcDbEntity
  8
DIM
 62
     0
370
    -2
100
AcDbLine
 10
12.75595460997122
 20
37.93369686864429
 30
0.0
 11
14.05645460997122
 21
37.93369686864429
 31
0.0
  0
LINE
  5
B82
330
7ED
100
AcDbEntity
  8
DIM
 62
     0
370
    -2
100
AcDbLine
 10
16.64695460997122
 20
37.93369686864429
 30
0.0
 11
15.34645460997122
 21
37.93369686864429
 31
0.0
  0
SOLID
  5
B83
330
7ED
100
AcDbEntity
  8
DIM
 62
     0
100
AcDbTrace
 10
12.75595460997122
 20
38.0236968686443
 30
0.0
 11
12.75595460997122
 21
37.84369686864429
 31
0.0
 12
12.21595460997122
 22
37.93369686864429
 32
0.0
 13
12.21595460997122
 23
37.93369686864429
 33
0.0
  0
SOLID
  5
B84
330
7ED
100
AcDbEntity
  8
DIM
 62
     0
100
AcDbTrace
 10
16.64695460997122
 20
38.0236968686443
 30
0.0
 11
16.64695460997122
 21
37.84369686864429
 31
0.0
 12
17.18695460997122
 22
37.93369686864429
 32
0.0
 13
17.18695460997122
 23
37.93369686864429
 33
0.0
  0
MTEXT
  5
B85
330
7ED
100
AcDbEntity
  8
DIM
 62
     0
100
AcDbMText
 10
14.70145460997122
 20
37.93369686864429
 30
0.0
 40
0.375
 41
0.0
 71
     5
 72
     1
  1
\A1;* C
  7
TXT
 73
     1
 44
1.0
  0
POINT
  5
B86
330
7ED
100
AcDbEntity
  8
DEFPOINTS
 62
     0
100
AcDbPoint
 10
12.21595460997122
 20
37.14833989824264
 30
0.0
  0
POINT
  5
B87
330
7ED
100
AcDbEntity
  8
DEFPOINTS
 62
     0
100
AcDbPoint
 10
17.18695460997122
 20
37.14833989824264
 30
0.0
  0
POINT
  5
B88
330
7ED
100
AcDbEntity
  8
DEFPOINTS
 62
     0
100
AcDbPoint
 10
17.18695460997122
 20
37.93369686864429
 30
0.0
  0
ENDBLK
  5
7F9
330
7ED
100
AcDbEntity
  8
0
100
AcDbBlockEnd
  0
BLOCK
  5
812
330
807
100
AcDbEntity
  8
0
100
AcDbBlockBegin
  2
*D8
 70
     1
 10
0.0
 20
0.0
 30
0.0
  3
*D8
  1

  0
LINE
  5
B89
330
807
100
AcDbEntity
  8
DIM
 62
     0
370
    -2
100
AcDbLine
 10
3.506657398256149
 20
35.89116245980456
 30
0.0
 11
3.506657398256149
 21
35.98116245980456
 31
0.0
  0
LINE
  5
B8A
330
807
100
AcDbEntity
  8
DIM
 62
     0
370
    -2
100
AcDbLine
 10
4.00665739825615
 20
35.89116245980456
 30
0.0
 11
4.00665739825615
 21
35.98116245980456
 31
0.0
  0
LINE
  5
B8B
330
807
100
AcDbEntity
  8
DIM
 62
     0
370
    -2
100
AcDbLine
 10
2.966657398256149
 20
35.70216245980456
 30
0.0
 11
2.426657398256149
 21
35.70216245980456
 31
0.0
  0
LINE
  5
B8C
330
807
100
AcDbEntity
  8
DIM
 62
     0
370
    -2
100
AcDbLine
 10
4.54665739825615
 20
35.70216245980456
 30
0.0
 11
5.08665739825615
 21
35.70216245980456
 31
0.0
  0
SOLID
  5
B8D
330
807
100
AcDbEntity
  8
DIM
 62
     0
100
AcDbTrace
 10
2.966657398256149
 20
35.79216245980456
 30
0.0
 11
2.966657398256149
 21
35.61216245980455
 31
0.0
 12
3.506657398256149
 22
35.70216245980456
 32
0.0
 13
3.506657398256149
 23
35.70216245980456
 33
0.0
  0
SOLID
  5
B8E
330
807
100
AcDbEntity
  8
DIM
 62
     0
100
AcDbTrace
 10
4.54665739825615
 20
35.79216245980456
 30
0.0
 11
4.54665739825615
 21
35.61216245980455
 31
0.0
 12
4.00665739825615
 22
35.70216245980456
 32
0.0
 13
4.00665739825615
 23
35.70216245980456
 33
0.0
  0
MTEXT
  5
B8F
330
807
100
AcDbEntity
  8
DIM
 62
     0
100
AcDbMText
 10
5.45040739825615
 20
35.70216245980456
 30
0.0
 40
0.375
 41
0.0
 71
     5
 72
     1
  1
\A1;F
  7
TXT
 73
     1
 44
1.0
  0
POINT
  5
B90
330
807
100
AcDbEntity
  8
DEFPOINTS
 62
     0
100
AcDbPoint
 10
3.506657398256149
 20
35.70216245980456
 30
0.0
  0
POINT
  5
B91
330
807
100
AcDbEntity
  8
DEFPOINTS
 62
     0
100
AcDbPoint
 10
4.00665739825615
 20
35.70216245980456
 30
0.0
  0
POINT
  5
B92
330
807
100
AcDbEntity
  8
DEFPOINTS
 62
     0
100
AcDbPoint
 10
4.00665739825615
 20
35.70216245980456
 30
0.0
  0
ENDBLK
  5
813
330
807
100
AcDbEntity
  8
0
100
AcDbBlockEnd
  0
BLOCK
  5
828
330
81D
100
AcDbEntity
  8
0
100
AcDbBlockBegin
  2
*D9
 70
     1
 10
0.0
 20
0.0
 30
0.0
  3
*D9
  1

  0
LINE
  5
B93
330
81D
100
AcDbEntity
  8
DIM
 62
     0
370
    -2
100
AcDbLine
 10
9.475157398256143
 20
23.45948720909717
 30
0.0
 11
9.475157398256143
 21
24.20602360602971
 31
0.0
  0
LINE
  5
B94
330
81D
100
AcDbEntity
  8
DIM
 62
     0
370
    -2
100
AcDbLine
 10
3.538157398256148
 20
23.45948720909717
 30
0.0
 11
3.538157398256148
 21
24.20602360602971
 31
0.0
  0
LINE
  5
B95
330
81D
100
AcDbEntity
  8
DIM
 62
     0
370
    -2
100
AcDbLine
 10
8.935157398256144
 20
23.9270236060297
 30
0.0
 11
6.870407398256146
 21
23.9270236060297
 31
0.0
  0
LINE
  5
B96
330
81D
100
AcDbEntity
  8
DIM
 62
     0
370
    -2
100
AcDbLine
 10
4.078157398256148
 20
23.9270236060297
 30
0.0
 11
6.142907398256147
 21
23.9270236060297
 31
0.0
  0
SOLID
  5
B97
330
81D
100
AcDbEntity
  8
DIM
 62
     0
100
AcDbTrace
 10
8.935157398256144
 20
24.01702360602971
 30
0.0
 11
8.935157398256144
 21
23.83702360602971
 31
0.0
 12
9.475157398256143
 22
23.9270236060297
 32
0.0
 13
9.475157398256143
 23
23.9270236060297
 33
0.0
  0
SOLID
  5
B98
330
81D
100
AcDbEntity
  8
DIM
 62
     0
100
AcDbTrace
 10
4.078157398256148
 20
24.01702360602971
 30
0.0
 11
4.078157398256148
 21
23.83702360602971
 31
0.0
 12
3.538157398256148
 22
23.9270236060297
 32
0.0
 13
3.538157398256148
 23
23.9270236060297
 33
0.0
  0
MTEXT
  5
B99
330
81D
100
AcDbEntity
  8
DIM
 62
     0
100
AcDbMText
 10
6.506657398256146
 20
23.9270236060297
 30
0.0
 40
0.375
 41
0.0
 71
     5
 72
     1
  1
\A1;H
  7
TXT
 73
     1
 44
1.0
  0
POINT
  5
B9A
330
81D
100
AcDbEntity
  8
DEFPOINTS
 62
     0
100
AcDbPoint
 10
9.475157398256143
 20
23.27048720909716
 30
0.0
  0
POINT
  5
B9B
330
81D
100
AcDbEntity
  8
DEFPOINTS
 62
     0
100
AcDbPoint
 10
3.538157398256148
 20
23.27048720909716
 30
0.0
  0
POINT
  5
B9C
330
81D
100
AcDbEntity
  8
DEFPOINTS
 62
     0
100
AcDbPoint
 10
3.538157398256148
 20
23.9270236060297
 30
0.0
  0
ENDBLK
  5
829
330
81D
100
AcDbEntity
  8
0
100
AcDbBlockEnd
  0
BLOCK
  5
83E
330
833
100
AcDbEntity
  8
0
100
AcDbBlockBegin
  2
*D10
 70
     1
 10
0.0
 20
0.0
 30
0.0
  3
*D10
  1

  0
LINE
  5
B9D
330
833
100
AcDbEntity
  8
DIM
 62
     0
370
    -2
100
AcDbLine
 10
4.506157398256143
 20
14.33048720909717
 30
0.0
 11
4.506157398256143
 21
13.39795081216464
 31
0.0
  0
LINE
  5
B9E
330
833
100
AcDbEntity
  8
DIM
 62
     0
370
    -2
100
AcDbLine
 10
8.506157398256144
 20
14.33148720909717
 30
0.0
 11
8.506157398256144
 21
13.39795081216464
 31
0.0
  0
LINE
  5
B9F
330
833
100
AcDbEntity
  8
DIM
 62
     0
370
    -2
100
AcDbLine
 10
5.046157398256143
 20
13.67695081216464
 30
0.0
 11
6.142407398256144
 21
13.67695081216464
 31
0.0
  0
LINE
  5
BA0
330
833
100
AcDbEntity
  8
DIM
 62
     0
370
    -2
100
AcDbLine
 10
7.966157398256144
 20
13.67695081216464
 30
0.0
 11
6.869907398256144
 21
13.67695081216464
 31
0.0
  0
SOLID
  5
BA1
330
833
100
AcDbEntity
  8
DIM
 62
     0
100
AcDbTrace
 10
5.046157398256143
 20
13.76695081216464
 30
0.0
 11
5.046157398256143
 21
13.58695081216464
 31
0.0
 12
4.506157398256143
 22
13.67695081216464
 32
0.0
 13
4.506157398256143
 23
13.67695081216464
 33
0.0
  0
SOLID
  5
BA2
330
833
100
AcDbEntity
  8
DIM
 62
     0
100
AcDbTrace
 10
7.966157398256144
 20
13.76695081216464
 30
0.0
 11
7.966157398256144
 21
13.58695081216464
 31
0.0
 12
8.506157398256144
 22
13.67695081216464
 32
0.0
 13
8.506157398256144
 23
13.67695081216464
 33
0.0
  0
MTEXT
  5
BA3
330
833
100
AcDbEntity
  8
DIM
 62
     0
100
AcDbMText
 10
6.506157398256144
 20
13.67695081216464
 30
0.0
 40
0.375
 41
0.0
 71
     5
 72
     1
  1
\A1;J
  7
TXT
 73
     1
 44
1.0
  0
POINT
  5
BA4
330
833
100
AcDbEntity
  8
DEFPOINTS
 62
     0
100
AcDbPoint
 10
4.506157398256143
 20
14.51948720909717
 30
0.0
  0
POINT
  5
BA5
330
833
100
AcDbEntity
  8
DEFPOINTS
 62
     0
100
AcDbPoint
 10
8.506157398256144
 20
14.52048720909718
 30
0.0
  0
POINT
  5
BA6
330
833
100
AcDbEntity
  8
DEFPOINTS
 62
     0
100
AcDbPoint
 10
8.506157398256144
 20
13.67695081216464
 30
0.0
  0
ENDBLK
  5
83F
330
833
100
AcDbEntity
  8
0
100
AcDbBlockEnd
  0
BLOCK
  5
852
330
847
100
AcDbEntity
  8
0
100
AcDbBlockBegin
  2
*D11
 70
     1
 10
0.0
 20
0.0
 30
0.0
  3
*D11
  1

  0
LINE
  5
BA7
330
847
100
AcDbEntity
  8
DIM
 62
     0
370
    -2
100
AcDbLine
 10
3.349157398256147
 20
14.33348720909717
 30
0.0
 11
2.558985459602546
 21
14.33348720909717
 31
0.0
  0
LINE
  5
BA8
330
847
100
AcDbEntity
  8
DIM
 62
     0
370
    -2
100
AcDbLine
 10
3.536157398256144
 20
18.80198720909717
 30
0.0
 11
2.558985459602546
 21
18.80198720909717
 31
0.0
  0
LINE
  5
BA9
330
847
100
AcDbEntity
  8
DIM
 62
     0
370
    -2
100
AcDbLine
 10
2.837985459602546
 20
14.87348720909717
 30
0.0
 11
2.837985459602546
 21
16.11023720909717
 31
0.0
  0
LINE
  5
BAA
330
847
100
AcDbEntity
  8
DIM
 62
     0
370
    -2
100
AcDbLine
 10
2.837985459602546
 20
18.26198720909717
 30
0.0
 11
2.837985459602546
 21
17.02523720909717
 31
0.0
  0
SOLID
  5
BAB
330
847
100
AcDbEntity
  8
DIM
 62
     0
100
AcDbTrace
 10
2.747985459602546
 20
14.87348720909717
 30
0.0
 11
2.927985459602545
 21
14.87348720909717
 31
0.0
 12
2.837985459602546
 22
14.33348720909717
 32
0.0
 13
2.837985459602546
 23
14.33348720909717
 33
0.0
  0
SOLID
  5
BAC
330
847
100
AcDbEntity
  8
DIM
 62
     0
100
AcDbTrace
 10
2.747985459602547
 20
18.26198720909717
 30
0.0
 11
2.927985459602546
 21
18.26198720909717
 31
0.0
 12
2.837985459602546
 22
18.80198720909717
 32
0.0
 13
2.837985459602546
 23
18.80198720909717
 33
0.0
  0
MTEXT
  5
BAD
330
847
100
AcDbEntity
  8
DIM
 62
     0
100
AcDbMText
 10
2.837985459602543
 20
16.56773720909717
 30
0.0
 40
0.375
 41
0.0
 71
     5
 72
     1
  1
\A1;K
  7
TXT
 73
     1
 44
1.0
  0
POINT
  5
BAE
330
847
100
AcDbEntity
  8
DEFPOINTS
 62
     0
100
AcDbPoint
 10
3.538157398256148
 20
14.33348720909717
 30
0.0
  0
POINT
  5
BAF
330
847
100
AcDbEntity
  8
DEFPOINTS
 62
     0
100
AcDbPoint
 10
3.725157398256144
 20
18.80198720909717
 30
0.0
  0
POINT
  5
BB0
330
847
100
AcDbEntity
  8
DEFPOINTS
 62
     0
100
AcDbPoint
 10
2.837985459602546
 20
18.80198720909717
 30
0.0
  0
ENDBLK
  5
853
330
847
100
AcDbEntity
  8
0
100
AcDbBlockEnd
  0
BLOCK
  5
943
330
938
100
AcDbEntity
  8
0
100
AcDbBlockBegin
  2
*D12
 70
     1
 10
0.0
 20
0.0
 30
0.0
  3
*D12
  1

  0
LINE
  5
BB1
330
938
100
AcDbEntity
  8
DIM
 62
     0
370
    -2
100
AcDbLine
 10
3.349157398256147
 20
23.27048720909716
 30
0.0
 11
1.715985459602548
 21
23.27048720909716
 31
0.0
  0
LINE
  5
BB2
330
938
100
AcDbEntity
  8
DIM
 62
     0
370
    -2
100
AcDbLine
 10
3.349157398256147
 20
14.33348720909717
 30
0.0
 11
1.715985459602546
 21
14.33348720909717
 31
0.0
  0
LINE
  5
BB3
330
938
100
AcDbEntity
  8
DIM
 62
     0
370
    -2
100
AcDbLine
 10
1.994985459602548
 20
22.73048720909716
 30
0.0
 11
1.994985459602547
 21
19.25948720909716
 31
0.0
  0
LINE
  5
BB4
330
938
100
AcDbEntity
  8
DIM
 62
     0
370
    -2
100
AcDbLine
 10
1.994985459602546
 20
14.87348720909717
 30
0.0
 11
1.994985459602547
 21
18.34448720909717
 31
0.0
  0
SOLID
  5
BB5
330
938
100
AcDbEntity
  8
DIM
 62
     0
100
AcDbTrace
 10
1.904985459602548
 20
22.73048720909716
 30
0.0
 11
2.084985459602548
 21
22.73048720909716
 31
0.0
 12
1.994985459602548
 22
23.27048720909716
 32
0.0
 13
1.994985459602548
 23
23.27048720909716
 33
0.0
  0
SOLID
  5
BB6
330
938
100
AcDbEntity
  8
DIM
 62
     0
100
AcDbTrace
 10
1.904985459602546
 20
14.87348720909717
 30
0.0
 11
2.084985459602546
 21
14.87348720909717
 31
0.0
 12
1.994985459602546
 22
14.33348720909717
 32
0.0
 13
1.994985459602546
 23
14.33348720909717
 33
0.0
  0
MTEXT
  5
BB7
330
938
100
AcDbEntity
  8
DIM
 62
     0
100
AcDbMText
 10
1.994985459602544
 20
18.80198720909717
 30
0.0
 40
0.375
 41
0.0
 71
     5
 72
     1
  1
\A1;G
  7
TXT
 73
     1
 44
1.0
  0
POINT
  5
BB8
330
938
100
AcDbEntity
  8
DEFPOINTS
 62
     0
100
AcDbPoint
 10
3.538157398256148
 20
23.27048720909716
 30
0.0
  0
POINT
  5
BB9
330
938
100
AcDbEntity
  8
DEFPOINTS
 62
     0
100
AcDbPoint
 10
3.538157398256148
 20
14.33348720909717
 30
0.0
  0
POINT
  5
BBA
330
938
100
AcDbEntity
  8
DEFPOINTS
 62
     0
100
AcDbPoint
 10
1.994985459602546
 20
14.33348720909717
 30
0.0
  0
ENDBLK
  5
944
330
938
100
AcDbEntity
  8
0
100
AcDbBlockEnd
  0
BLOCK
  5
951
330
946
100
AcDbEntity
  8
0
100
AcDbBlockBegin
  2
*D13
 70
     1
 10
0.0
 20
0.0
 30
0.0
  3
*D13
  1

  0
LINE
  5
BBB
330
946
100
AcDbEntity
  8
DIM
 62
     0
370
    -2
100
AcDbLine
 10
3.536657398256144
 20
32.64833989824264
 30
0.0
 11
2.558985459602547
 21
32.64833989824264
 31
0.0
  0
LINE
  5
BBC
330
946
100
AcDbEntity
  8
DIM
 62
     0
370
    -2
100
AcDbLine
 10
3.317657398256149
 20
28.14833989824265
 30
0.0
 11
2.558985459602546
 21
28.14833989824265
 31
0.0
  0
LINE
  5
BBD
330
946
100
AcDbEntity
  8
DIM
 62
     0
370
    -2
100
AcDbLine
 10
2.837985459602547
 20
32.10833989824264
 30
0.0
 11
2.837985459602547
 21
30.85583989824264
 31
0.0
  0
LINE
  5
BBE
330
946
100
AcDbEntity
  8
DIM
 62
     0
370
    -2
100
AcDbLine
 10
2.837985459602546
 20
28.68833989824265
 30
0.0
 11
2.837985459602547
 21
29.94083989824265
 31
0.0
  0
SOLID
  5
BBF
330
946
100
AcDbEntity
  8
DIM
 62
     0
100
AcDbTrace
 10
2.747985459602547
 20
32.10833989824264
 30
0.0
 11
2.927985459602547
 21
32.10833989824264
 31
0.0
 12
2.837985459602547
 22
32.64833989824264
 32
0.0
 13
2.837985459602547
 23
32.64833989824264
 33
0.0
  0
SOLID
  5
BC0
330
946
100
AcDbEntity
  8
DIM
 62
     0
100
AcDbTrace
 10
2.747985459602547
 20
28.68833989824265
 30
0.0
 11
2.927985459602546
 21
28.68833989824265
 31
0.0
 12
2.837985459602546
 22
28.14833989824265
 32
0.0
 13
2.837985459602546
 23
28.14833989824265
 33
0.0
  0
MTEXT
  5
BC1
330
946
100
AcDbEntity
  8
DIM
 62
     0
100
AcDbMText
 10
2.837985459602542
 20
30.39833989824265
 30
0.0
 40
0.375
 41
0.0
 71
     5
 72
     1
  1
\A1;E
  7
TXT
 73
     1
 44
1.0
  0
POINT
  5
BC2
330
946
100
AcDbEntity
  8
DEFPOINTS
 62
     0
100
AcDbPoint
 10
3.725657398256144
 20
32.64833989824264
 30
0.0
  0
POINT
  5
BC3
330
946
100
AcDbEntity
  8
DEFPOINTS
 62
     0
100
AcDbPoint
 10
3.506657398256149
 20
28.14833989824265
 30
0.0
  0
POINT
  5
BC4
330
946
100
AcDbEntity
  8
DEFPOINTS
 62
     0
100
AcDbPoint
 10
2.837985459602546
 20
28.14833989824265
 30
0.0
  0
ENDBLK
  5
952
330
946
100
AcDbEntity
  8
0
100
AcDbBlockEnd
  0
BLOCK
  5
95F
330
954
100
AcDbEntity
  8
0
100
AcDbBlockBegin
  2
*D14
 70
     1
 10
0.0
 20
0.0
 30
0.0
  3
*D14
  1

  0
LINE
  5
BC5
330
954
100
AcDbEntity
  8
DIM
 62
     0
370
    -2
100
AcDbLine
 10
4.50665739825615
 20
28.17833989824265
 30
0.0
 11
4.50665739825615
 21
27.18628866034028
 31
0.0
  0
LINE
  5
BC6
330
954
100
AcDbEntity
  8
DIM
 62
     0
370
    -2
100
AcDbLine
 10
8.50665739825615
 20
28.17833989824265
 30
0.0
 11
8.50665739825615
 21
27.18628866034028
 31
0.0
  0
LINE
  5
BC7
330
954
100
AcDbEntity
  8
DIM
 62
     0
370
    -2
100
AcDbLine
 10
5.04665739825615
 20
27.46528866034028
 30
0.0
 11
6.14290739825615
 21
27.46528866034028
 31
0.0
  0
LINE
  5
BC8
330
954
100
AcDbEntity
  8
DIM
 62
     0
370
    -2
100
AcDbLine
 10
7.96665739825615
 20
27.46528866034028
 30
0.0
 11
6.870407398256149
 21
27.46528866034028
 31
0.0
  0
SOLID
  5
BC9
330
954
100
AcDbEntity
  8
DIM
 62
     0
100
AcDbTrace
 10
5.04665739825615
 20
27.55528866034028
 30
0.0
 11
5.04665739825615
 21
27.37528866034028
 31
0.0
 12
4.50665739825615
 22
27.46528866034028
 32
0.0
 13
4.50665739825615
 23
27.46528866034028
 33
0.0
  0
SOLID
  5
BCA
330
954
100
AcDbEntity
  8
DIM
 62
     0
100
AcDbTrace
 10
7.96665739825615
 20
27.55528866034028
 30
0.0
 11
7.96665739825615
 21
27.37528866034028
 31
0.0
 12
8.50665739825615
 22
27.46528866034028
 32
0.0
 13
8.50665739825615
 23
27.46528866034028
 33
0.0
  0
MTEXT
  5
BCB
330
954
100
AcDbEntity
  8
DIM
 62
     0
100
AcDbMText
 10
6.50665739825615
 20
27.46528866034028
 30
0.0
 40
0.375
 41
0.0
 71
     5
 72
     1
  1
\A1;D
  7
TXT
 73
     1
 44
1.0
  0
POINT
  5
BCC
330
954
100
AcDbEntity
  8
DEFPOINTS
 62
     0
100
AcDbPoint
 10
4.50665739825615
 20
28.36733989824265
 30
0.0
  0
POINT
  5
BCD
330
954
100
AcDbEntity
  8
DEFPOINTS
 62
     0
100
AcDbPoint
 10
8.50665739825615
 20
28.36733989824265
 30
0.0
  0
POINT
  5
BCE
330
954
100
AcDbEntity
  8
DEFPOINTS
 62
     0
100
AcDbPoint
 10
8.50665739825615
 20
27.46528866034028
 30
0.0
  0
ENDBLK
  5
960
330
954
100
AcDbEntity
  8
0
100
AcDbBlockEnd
  0
BLOCK
  5
B56
330
B4B
100
AcDbEntity
  8
0
100
AcDbBlockBegin
  2
*D15
 70
     1
 10
0.0
 20
0.0
 30
0.0
  3
*D15
  1

  0
LINE
  5
BCF
330
B4B
100
AcDbEntity
  8
DIM
 62
     0
370
    -2
100
AcDbLine
 10
9.287657398256147
 20
32.83733989824265
 30
0.0
 11
9.287657398256147
 21
34.12733405135391
 31
0.0
  0
LINE
  5
BD0
330
B4B
100
AcDbEntity
  8
DIM
 62
     0
370
    -2
100
AcDbLine
 10
9.506657398256146
 20
33.4946186593961
 30
0.0
 11
9.506657398256146
 21
34.12733405135391
 31
0.0
  0
LINE
  5
BD1
330
B4B
100
AcDbEntity
  8
DIM
 62
     0
370
    -2
100
AcDbLine
 10
8.747657398256148
 20
33.8483340513539
 30
0.0
 11
8.207657398256147
 21
33.8483340513539
 31
0.0
  0
LINE
  5
BD2
330
B4B
100
AcDbEntity
  8
DIM
 62
     0
370
    -2
100
AcDbLine
 10
10.04665739825614
 20
33.8483340513539
 30
0.0
 11
10.58665739825614
 21
33.8483340513539
 31
0.0
  0
SOLID
  5
BD3
330
B4B
100
AcDbEntity
  8
DIM
 62
     0
100
AcDbTrace
 10
8.747657398256148
 20
33.93833405135391
 30
0.0
 11
8.747657398256148
 21
33.7583340513539
 31
0.0
 12
9.287657398256147
 22
33.8483340513539
 32
0.0
 13
9.287657398256147
 23
33.8483340513539
 33
0.0
  0
SOLID
  5
BD4
330
B4B
100
AcDbEntity
  8
DIM
 62
     0
100
AcDbTrace
 10
10.04665739825614
 20
33.93833405135391
 30
0.0
 11
10.04665739825614
 21
33.7583340513539
 31
0.0
 12
9.506657398256146
 22
33.8483340513539
 32
0.0
 13
9.506657398256146
 23
33.8483340513539
 33
0.0
  0
MTEXT
  5
BD5
330
B4B
100
AcDbEntity
  8
DIM
 62
     0
100
AcDbMText
 10
11.34884489825614
 20
33.8483340513539
 30
0.0
 40
0.375
 41
0.0
 71
     5
 72
     1
  1
\A1;0.219\PTYP.
  7
TXT
 73
     1
 44
1.0
  0
POINT
  5
BD6
330
B4B
100
AcDbEntity
  8
DEFPOINTS
 62
     0
100
AcDbPoint
 10
9.287657398256147
 20
32.64833989824264
 30
0.0
  0
POINT
  5
BD7
330
B4B
100
AcDbEntity
  8
DEFPOINTS
 62
     0
100
AcDbPoint
 10
9.506657398256146
 20
33.3056186593961
 30
0.0
  0
POINT
  5
BD8
330
B4B
100
AcDbEntity
  8
DEFPOINTS
 62
     0
100
AcDbPoint
 10
9.506657398256146
 20
33.8483340513539
 30
0.0
  0
ENDBLK
  5
B57
330
B4B
100
AcDbEntity
  8
0
100
AcDbBlockEnd
  0
BLOCK
  5
B64
330
B59
100
AcDbEntity
  8
0
100
AcDbBlockBegin
  2
*D16
 70
     1
 10
0.0
 20
0.0
 30
0.0
  3
*D16
  1

  0
LINE
  5
BD9
330
B59
100
AcDbEntity
  8
DIM
 62
     0
370
    -2
100
AcDbLine
 10
9.288157398256148
 20
18.99098720909717
 30
0.0
 11
9.288157398256148
 21
20.18670639470346
 31
0.0
  0
LINE
  5
BDA
330
B59
100
AcDbEntity
  8
DIM
 62
     0
370
    -2
100
AcDbLine
 10
9.475157398256143
 20
19.77860155146269
 30
0.0
 11
9.475157398256143
 21
20.18670639470346
 31
0.0
  0
LINE
  5
BDB
330
B59
100
AcDbEntity
  8
DIM
 62
     0
370
    -2
100
AcDbLine
 10
8.748157398256147
 20
19.90770639470346
 30
0.0
 11
8.208157398256147
 21
19.90770639470346
 31
0.0
  0
LINE
  5
BDC
330
B59
100
AcDbEntity
  8
DIM
 62
     0
370
    -2
100
AcDbLine
 10
10.01515739825614
 20
19.90770639470346
 30
0.0
 11
10.55515739825614
 21
19.90770639470346
 31
0.0
  0
SOLID
  5
BDD
330
B59
100
AcDbEntity
  8
DIM
 62
     0
100
AcDbTrace
 10
8.748157398256147
 20
19.99770639470346
 30
0.0
 11
8.748157398256147
 21
19.81770639470346
 31
0.0
 12
9.288157398256148
 22
19.90770639470346
 32
0.0
 13
9.288157398256148
 23
19.90770639470346
 33
0.0
  0
SOLID
  5
BDE
330
B59
100
AcDbEntity
  8
DIM
 62
     0
100
AcDbTrace
 10
10.01515739825614
 20
19.99770639470346
 30
0.0
 11
10.01515739825614
 21
19.81770639470346
 31
0.0
 12
9.475157398256143
 22
19.90770639470346
 32
0.0
 13
9.475157398256143
 23
19.90770639470346
 33
0.0
  0
MTEXT
  5
BDF
330
B59
100
AcDbEntity
  8
DIM
 62
     0
100
AcDbMText
 10
11.31734489825614
 20
19.90770639470346
 30
0.0
 40
0.375
 41
0.0
 71
     5
 72
     1
  1
\A1;0.187\PTYP.
  7
TXT
 73
     1
 44
1.0
  0
POINT
  5
BE0
330
B59
100
AcDbEntity
  8
DEFPOINTS
 62
     0
100
AcDbPoint
 10
9.288157398256148
 20
18.80198720909717
 30
0.0
  0
POINT
  5
BE1
330
B59
100
AcDbEntity
  8
DEFPOINTS
 62
     0
100
AcDbPoint
 10
9.475157398256143
 20
19.5896015514627
 30
0.0
  0
POINT
  5
BE2
330
B59
100
AcDbEntity
  8
DEFPOINTS
 62
     0
100
AcDbPoint
 10
9.475157398256143
 20
19.90770639470346
 30
0.0
  0
ENDBLK
  5
B65
330
B59
100
AcDbEntity
  8
0
100
AcDbBlockEnd
  0
ENDSEC
  0
SECTION
  2
ENTITIES
  0
TEXT
  5
7B8
330
6E5
100
AcDbEntity
  8
TEXT
100
AcDbText
 10
26.9234424327921
 20
1.712059813876788
 30
0.0
 40
0.375
  1

 41
0.75
 72
     1
 11
26.9234424327921
 21
1.712059813876788
 31
0.0
100
AcDbText
  0
TEXT
  5
7B9
330
6E5
100
AcDbEntity
  8
TEXT
100
AcDbText
 10
2.69269302731129
 20
4.664660871375468
 30
0.0
 40
0.375
  1

 41
0.75
100
AcDbText
  0
LINE
  5
7BA
330
6E5
100
AcDbEntity
  8
OBJECT
100
AcDbLine
 10
9.474657398256146
 20
28.14833989824265
 30
0.0
 11
3.506657398256149
 21
28.14833989824265
 31
0.0
  0
LINE
  5
7BB
330
6E5
100
AcDbEntity
  8
OBJECT
100
AcDbLine
 10
3.506657398256149
 20
28.14833989824265
 30
0.0
 11
3.506657398256149
 21
37.14833989824264
 31
0.0
  0
LINE
  5
7BC
330
6E5
100
AcDbEntity
  8
OBJECT
100
AcDbLine
 10
3.506657398256149
 20
37.14833989824264
 30
0.0
 11
9.50665739825615
 21
37.14833989824264
 31
0.0
  0
LINE
  5
7BD
330
6E5
100
AcDbEntity
  8
OBJECT
100
AcDbLine
 10
9.50665739825615
 20
37.14833989824264
 30
0.0
 11
9.506657398256143
 21
28.17933989824265
 31
0.0
  0
LINE
  5
7BE
330
6E5
100
AcDbEntity
  8
HIDDEN
100
AcDbLine
 10
3.537657398256148
 20
28.17933989824265
 30
0.0
 11
3.537657398256148
 21
37.11733989824264
 31
0.0
  0
LINE
  5
7BF
330
6E5
100
AcDbEntity
  8
HIDDEN
100
AcDbLine
 10
3.537657398256148
 20
37.11733989824264
 30
0.0
 11
9.475657398256144
 21
37.11733989824264
 31
0.0
  0
LINE
  5
7C0
330
6E5
100
AcDbEntity
  8
HIDDEN
100
AcDbLine
 10
9.475657398256144
 20
37.11733989824264
 30
0.0
 11
9.475657398256144
 21
28.14833989824265
 31
0.0
  0
LINE
  5
7C1
330
6E5
100
AcDbEntity
  8
HIDDEN
100
AcDbLine
 10
9.506657398256143
 20
28.17933989824265
 30
0.0
 11
3.537657398256148
 21
28.17933989824265
 31
0.0
  0
LINE
  5
7C2
330
6E5
100
AcDbEntity
  8
HIDDEN
100
AcDbLine
 10
9.474657398256146
 20
28.14833989824265
 30
0.0
 11
9.474657398256146
 21
28.80433989824265
 31
0.0
  0
LINE
  5
7C3
330
6E5
100
AcDbEntity
  8
HIDDEN
100
AcDbLine
 10
9.474657398256146
 20
28.80433989824265
 30
0.0
 11
9.443657398256148
 21
28.80433989824265
 31
0.0
  0
LINE
  5
7C4
330
6E5
100
AcDbEntity
  8
HIDDEN
100
AcDbLine
 10
9.443657398256148
 20
28.14833989824265
 30
0.0
 11
9.443657398256148
 21
28.80433989824265
 31
0.0
  0
LINE
  5
7C5
330
6E5
100
AcDbEntity
  8
OBJECT
100
AcDbLine
 10
12.25595460997122
 20
37.14833989824264
 30
0.0
 11
12.25595460997122
 21
28.14833989824265
 31
0.0
  0
LINE
  5
7C6
330
6E5
100
AcDbEntity
  8
OBJECT
100
AcDbLine
 10
17.14695460997122
 20
37.14833989824264
 30
0.0
 11
17.14695460997122
 21
28.14833989824265
 31
0.0
  0
LINE
  5
7C7
330
6E5
100
AcDbEntity
  8
OBJECT
100
AcDbLine
 10
17.14695460997122
 20
37.14833989824264
 30
0.0
 11
12.25595460997122
 21
37.14833989824264
 31
0.0
  0
LINE
  5
7C8
330
6E5
100
AcDbEntity
  8
OBJECT
100
AcDbLine
 10
17.14695460997122
 20
28.14833989824265
 30
0.0
 11
12.25595460997122
 21
28.14833989824265
 31
0.0
  0
LINE
  5
7C9
330
6E5
100
AcDbEntity
  8
OBJECT
100
AcDbLine
 10
17.14695460997122
 20
28.17933989824265
 30
0.0
 11
12.25595460997122
 21
28.17933989824265
 31
0.0
  0
LINE
  5
7CA
330
6E5
100
AcDbEntity
  8
HIDDEN
100
AcDbLine
 10
16.53745460997122
 20
28.80433989824265
 30
0.0
 11
12.86545460997122
 21
28.80433989824265
 31
0.0
  0
LINE
  5
7CB
330
6E5
100
AcDbEntity
  8
HIDDEN
100
AcDbLine
 10
12.86545460997122
 20
28.80433989824265
 30
0.0
 11
12.25595460997122
 21
28.19483989824265
 31
0.0
  0
LINE
  5
7CC
330
6E5
100
AcDbEntity
  8
HIDDEN
100
AcDbLine
 10
16.53745460997122
 20
28.80433989824265
 30
0.0
 11
17.14695460997122
 21
28.19483989824265
 31
0.0
  0
LINE
  5
7CD
330
6E5
100
AcDbEntity
  8
HIDDEN
100
AcDbLine
 10
17.11595460997122
 20
37.11733989824264
 30
0.0
 11
17.11595460997122
 21
28.17933989824265
 31
0.0
  0
LINE
  5
7CE
330
6E5
100
AcDbEntity
  8
HIDDEN
100
AcDbLine
 10
12.28695460997122
 20
37.11733989824264
 30
0.0
 11
12.28695460997122
 21
28.17933989824265
 31
0.0
  0
LINE
  5
7CF
330
6E5
100
AcDbEntity
  8
HIDDEN
100
AcDbLine
 10
17.11595460997122
 20
37.11733989824264
 30
0.0
 11
12.28695460997122
 21
37.11733989824264
 31
0.0
  0
DIMENSION
  5
7D0
330
6E5
100
AcDbEntity
  8
DIM
100
AcDbDimension
  2
*D5
 10
3.506657398256149
 20
37.93369686864429
 30
0.0
 11
6.506657398256149
 21
37.93369686864429
 31
0.0
 70
    32
  1
B
 71
     5
 42
6.0
  3
STD
100
AcDbAlignedDimension
 13
9.50665739825615
 23
37.14833989824264
 33
0.0
 14
3.506657398256149
 24
37.14833989824264
 34
0.0
100
AcDbRotatedDimension
  0
DIMENSION
  5
7DE
330
6E5
100
AcDbEntity
  8
DIM
100
AcDbDimension
  2
*D6
 10
1.994985459602546
 20
28.14833989824265
 30
0.0
 11
1.994985459602542
 21
32.64833989824264
 31
0.0
 70
    32
  1
A
 71
     5
 42
8.999999999999996
  3
STD
100
AcDbAlignedDimension
 13
3.506657398256149
 23
37.14833989824264
 33
0.0
 14
3.506657398256149
 24
28.14833989824265
 34
0.0
 50
270.0
100
AcDbRotatedDimension
  0
DIMENSION
  5
7EC
330
6E5
100
AcDbEntity
  8
DIM
100
AcDbDimension
  2
*D7
 10
17.18695460997122
 20
37.93369686864429
 30
0.0
 11
14.70145460997122
 21
37.93369686864429
 31
0.0
 70
    32
  1
* C
 71
     5
 42
4.971
  3
STD
100
AcDbAlignedDimension
 13
12.21595460997122
 23
37.14833989824264
 33
0.0
 14
17.18695460997122
 24
37.14833989824264
 34
0.0
100
AcDbRotatedDimension
  0
LINE
  5
7FA
330
6E5
100
AcDbEntity
  8
OBJECT
100
AcDbLine
 10
4.02165739825615
 20
36.64833989824265
 30
0.0
 11
8.991657398256149
 21
36.64833989824265
 31
0.0
  0
LINE
  5
7FB
330
6E5
100
AcDbEntity
  8
OBJECT
100
AcDbLine
 10
4.00665739825615
 20
28.66333989824265
 30
0.0
 11
4.00665739825615
 21
36.63333989824265
 31
0.0
  0
LINE
  5
7FC
330
6E5
100
AcDbEntity
  8
OBJECT
100
AcDbLine
 10
4.02165739825615
 20
36.64833989824265
 30
0.0
 11
3.52165739825615
 21
37.14833989824264
 31
0.0
  0
LINE
  5
7FD
330
6E5
100
AcDbEntity
  8
OBJECT
100
AcDbLine
 10
9.491657398256148
 20
37.14833989824264
 30
0.0
 11
8.991657398256149
 21
36.64833989824265
 31
0.0
  0
LINE
  5
7FE
330
6E5
100
AcDbEntity
  8
OBJECT
100
AcDbLine
 10
4.00665739825615
 20
36.63333989824265
 30
0.0
 11
3.506657398256149
 21
37.13333989824265
 31
0.0
  0
LINE
  5
7FF
330
6E5
100
AcDbEntity
  8
OBJECT
100
AcDbLine
 10
4.00665739825615
 20
28.66333989824265
 30
0.0
 11
3.506657398256149
 21
28.16333989824266
 31
0.0
  0
LINE
  5
800
330
6E5
100
AcDbEntity
  8
OBJECT
100
AcDbLine
 10
9.474657398256146
 20
28.16533989824264
 30
0.0
 11
8.991657398256149
 21
28.64833989824266
 31
0.0
  0
LINE
  5
801
330
6E5
100
AcDbEntity
  8
OBJECT
100
AcDbLine
 10
4.02165739825615
 20
28.64833989824265
 30
0.0
 11
8.991657398256149
 21
28.64833989824266
 31
0.0
  0
LINE
  5
802
330
6E5
100
AcDbEntity
  8
OBJECT
100
AcDbLine
 10
4.02165739825615
 20
28.64833989824265
 30
0.0
 11
3.52165739825615
 21
28.14833989824266
 31
0.0
  0
LINE
  5
803
330
6E5
100
AcDbEntity
  8
OBJECT
100
AcDbLine
 10
9.00665739825615
 20
36.63333989824265
 30
0.0
 11
9.50665739825615
 21
37.13333989824265
 31
0.0
  0
LINE
  5
804
330
6E5
100
AcDbEntity
  8
OBJECT
100
AcDbLine
 10
9.00665739825615
 20
28.66333989824265
 30
0.0
 11
9.00665739825615
 21
36.63333989824265
 31
0.0
  0
LINE
  5
805
330
6E5
100
AcDbEntity
  8
OBJECT
100
AcDbLine
 10
9.00665739825615
 20
28.66333989824265
 30
0.0
 11
9.490657398256152
 21
28.17933989824265
 31
0.0
  0
DIMENSION
  5
806
330
6E5
100
AcDbEntity
  8
DIM
100
AcDbDimension
  2
*D8
 10
4.00665739825615
 20
35.70216245980456
 30
0.0
 11
5.45040739825615
 21
35.70216245980456
 31
0.0
 70
    32
  1
F
 71
     5
 42
0.5000000000000005
  3
STD
100
AcDbAlignedDimension
 13
3.506657398256149
 23
35.70216245980456
 33
0.0
 14
4.00665739825615
 24
35.70216245980456
 34
0.0
100
AcDbRotatedDimension
  0
LINE
  5
814
330
6E5
100
AcDbEntity
  8
OBJECT
100
AcDbLine
 10
3.538157398256148
 20
23.27048720909716
 30
0.0
 11
3.538157398256148
 21
14.33348720909717
 31
0.0
  0
LINE
  5
815
330
6E5
100
AcDbEntity
  8
OBJECT
100
AcDbLine
 10
3.538157398256148
 20
14.33348720909717
 30
0.0
 11
9.475157398256143
 21
14.33348720909717
 31
0.0
  0
LINE
  5
816
330
6E5
100
AcDbEntity
  8
OBJECT
100
AcDbLine
 10
9.475157398256143
 20
14.33348720909717
 30
0.0
 11
9.475157398256143
 21
23.27048720909716
 31
0.0
  0
LINE
  5
817
330
6E5
100
AcDbEntity
  8
OBJECT
100
AcDbLine
 10
9.475157398256143
 20
23.27048720909716
 30
0.0
 11
3.538157398256148
 21
23.27048720909716
 31
0.0
  0
CIRCLE
  5
818
330
6E5
100
AcDbEntity
  8
OBJECT
100
AcDbCircle
 10
8.506157398256144
 20
23.08348720909717
 30
0.0
 40
0.109
  0
CIRCLE
  5
819
330
6E5
100
AcDbEntity
  8
OBJECT
100
AcDbCircle
 10
9.288157398256148
 20
18.80198720909717
 30
0.0
 40
0.109
  0
CIRCLE
  5
81A
330
6E5
100
AcDbEntity
  8
OBJECT
100
AcDbCircle
 10
4.506157398256143
 20
23.08448720909717
 30
0.0
 40
0.109
  0
CIRCLE
  5
81B
330
6E5
100
AcDbEntity
  8
OBJECT
100
AcDbCircle
 10
3.725157398256144
 20
18.80198720909717
 30
0.0
 40
0.109
  0
DIMENSION
  5
81C
330
6E5
100
AcDbEntity
  8
DIM
100
AcDbDimension
  2
*D9
 10
3.538157398256148
 20
23.9270236060297
 30
0.0
 11
6.506657398256146
 21
23.9270236060297
 31
0.0
 70
    32
  1
H
 71
     5
 42
5.936999999999995
  3
STD
100
AcDbAlignedDimension
 13
9.475157398256143
 23
23.27048720909716
 33
0.0
 14
3.538157398256148
 24
23.27048720909716
 34
0.0
 50
180.0
100
AcDbRotatedDimension
  0
LINE
  5
82A
330
6E5
100
AcDbEntity
  8
HIDDEN
100
AcDbLine
 10
3.537657398256148
 20
44.09530344781598
 30
0.0
 11
3.537657398256148
 21
39.26630344781598
 31
0.0
  0
LINE
  5
82B
330
6E5
100
AcDbEntity
  8
HIDDEN
100
AcDbLine
 10
3.537657398256148
 20
39.26630344781598
 30
0.0
 11
9.475657398256151
 21
39.26630344781598
 31
0.0
  0
LINE
  5
82C
330
6E5
100
AcDbEntity
  8
HIDDEN
100
AcDbLine
 10
3.537657398256148
 20
44.09530344781598
 30
0.0
 11
9.475657398256151
 21
44.09530344781597
 31
0.0
  0
LINE
  5
82D
330
6E5
100
AcDbEntity
  8
HIDDEN
100
AcDbLine
 10
9.475657398256151
 20
44.09530344781597
 30
0.0
 11
9.475657398256151
 21
39.26630344781598
 31
0.0
  0
LINE
  5
82E
330
6E5
100
AcDbEntity
  8
OBJECT
100
AcDbLine
 10
9.50665739825615
 20
44.12630344781597
 30
0.0
 11
9.50665739825615
 21
39.23530344781596
 31
0.0
  0
LINE
  5
82F
330
6E5
100
AcDbEntity
  8
OBJECT
100
AcDbLine
 10
3.506657398256149
 20
44.12630344781597
 30
0.0
 11
3.506657398256149
 21
39.23530344781597
 31
0.0
  0
LINE
  5
830
330
6E5
100
AcDbEntity
  8
OBJECT
100
AcDbLine
 10
3.506657398256149
 20
44.12630344781597
 30
0.0
 11
9.50665739825615
 21
44.12630344781597
 31
0.0
  0
LINE
  5
831
330
6E5
100
AcDbEntity
  8
OBJECT
100
AcDbLine
 10
3.506657398256149
 20
39.23530344781597
 30
0.0
 11
9.50665739825615
 21
39.23530344781596
 31
0.0
  0
DIMENSION
  5
832
330
6E5
100
AcDbEntity
  8
DIM
100
AcDbDimension
  2
*D10
 10
8.506157398256144
 20
13.67695081216464
 30
0.0
 11
6.506157398256144
 21
13.67695081216464
 31
0.0
 70
    32
  1
J
 71
     5
 42
4.0
  3
STD
100
AcDbAlignedDimension
 13
4.506157398256143
 23
14.51948720909717
 33
0.0
 14
8.506157398256144
 24
14.52048720909718
 34
0.0
100
AcDbRotatedDimension
  0
TEXT
  5
840
330
6E5
100
AcDbEntity
  8
TEXT
100
AcDbText
 10
18.15472866777152
 20
42.80159636814622
 30
0.0
 40
0.375
  1
%%uMATERIAL:
 41
0.75
100
AcDbText
  0
CIRCLE
  5
841
330
6E5
100
AcDbEntity
  8
OBJECT
100
AcDbCircle
 10
3.725657398256144
 20
32.64833989824264
 30
0.0
 40
0.0545
  0
CIRCLE
  5
842
330
6E5
100
AcDbEntity
  8
OBJECT
100
AcDbCircle
 10
8.50665739825615
 20
36.92933989824265
 30
0.0
 40
0.0545
  0
CIRCLE
  5
843
330
6E5
100
AcDbEntity
  8
OBJECT
100
AcDbCircle
 10
9.287657398256147
 20
32.64833989824264
 30
0.0
 40
0.0545
  0
CIRCLE
  5
844
330
6E5
100
AcDbEntity
  8
OBJECT
100
AcDbCircle
 10
4.506157398256143
 20
14.51948720909717
 30
0.0
 40
0.109
  0
CIRCLE
  5
845
330
6E5
100
AcDbEntity
  8
OBJECT
100
AcDbCircle
 10
8.506157398256144
 20
14.52048720909717
 30
0.0
 40
0.109
  0
DIMENSION
  5
846
330
6E5
100
AcDbEntity
  8
DIM
100
AcDbDimension
  2
*D11
 10
2.837985459602546
 20
18.80198720909717
 30
0.0
 11
2.837985459602543
 21
16.56773720909717
 31
0.0
 70
    32
  1
K
 71
     5
 42
4.468499999999998
  3
STD
100
AcDbAlignedDimension
 13
3.538157398256148
 23
14.33348720909717
 33
0.0
 14
3.725157398256144
 24
18.80198720909717
 34
0.0
 50
90.0
100
AcDbRotatedDimension
  0
CIRCLE
  5
854
330
6E5
100
AcDbEntity
  8
OBJECT
100
AcDbCircle
 10
4.50665739825615
 20
36.92933989824265
 30
0.0
 40
0.0545
  0
CIRCLE
  5
855
330
6E5
100
AcDbEntity
  8
OBJECT
100
AcDbCircle
 10
8.50665739825615
 20
28.36733989824265
 30
0.0
 40
0.0545
  0
CIRCLE
  5
856
330
6E5
100
AcDbEntity
  8
OBJECT
100
AcDbCircle
 10
4.50665739825615
 20
28.36733989824265
 30
0.0
 40
0.0545
  0
INSERT
  5
857
330
6E5
100
AcDbEntity
  8
TITLE
100
AcDbBlockReference
  2
HB
 10
0.0
 20
0.0
 30
0.0
 41
3.0
 42
3.0
 43
3.0
  0
LINE
  5
858
330
6E5
100
AcDbEntity
  8
TITLE
100
AcDbLine
 10
0.1859999999999928
 20
1.436000000000003
 30
0.0
 11
30.174
 21
1.436000000000003
 31
0.0
  0
LINE
  5
859
330
6E5
100
AcDbEntity
  8
TITLE
100
AcDbLine
 10
0.1859999999999928
 20
0.8110000000000033
 30
0.0
 11
30.174
 21
0.8110000000000033
 31
0.0
  0
LINE
  5
85A
330
6E5
100
AcDbEntity
  8
TITLE
100
AcDbLine
 10
0.1859999999999928
 20
2.061000000000003
 30
0.0
 11
30.174
 21
2.061000000000003
 31
0.0
  0
LINE
  5
85B
330
6E5
100
AcDbEntity
  8
TITLE
100
AcDbLine
 10
0.1859999999999928
 20
2.686000000000003
 30
0.0
 11
30.174
 21
2.686000000000003
 31
0.0
  0
LINE
  5
85C
330
6E5
100
AcDbEntity
  8
TITLE
100
AcDbLine
 10
0.1859999999999928
 20
3.270329096914068
 30
0.0
 11
30.174
 21
3.270329096914068
 31
0.0
  0
LINE
  5
85D
330
6E5
100
AcDbEntity
  8
TITLE
100
AcDbLine
 10
0.1859999999999928
 20
3.936000000000003
 30
0.0
 11
30.174
 21
3.936000000000003
 31
0.0
  0
LINE
  5
85E
330
6E5
100
AcDbEntity
  8
TITLE
100
AcDbLine
 10
0.1859999999999928
 20
4.561000000000002
 30
0.0
 11
30.174
 21
4.561000000000002
 31
0.0
  0
LINE
  5
85F
330
6E5
100
AcDbEntity
  8
TITLE
100
AcDbLine
 10
0.1859999999999928
 20
5.145329096914068
 30
0.0
 11
30.174
 21
5.145329096914068
 31
0.0
  0
LINE
  5
860
330
6E5
100
AcDbEntity
  8
TITLE
100
AcDbLine
 10
0.1859999999999928
 20
5.811000000000002
 30
0.0
 11
30.174
 21
5.811000000000002
 31
0.0
  0
LINE
  5
861
330
6E5
100
AcDbEntity
  8
TITLE
100
AcDbLine
 10
0.1859999999999928
 20
6.436000000000002
 30
0.0
 11
30.174
 21
6.436000000000002
 31
0.0
  0
LINE
  5
862
330
6E5
100
AcDbEntity
  8
TITLE
100
AcDbLine
 10
0.1859999999999928
 20
7.020329096914068
 30
0.0
 11
30.174
 21
7.020329096914068
 31
0.0
  0
LINE
  5
863
330
6E5
100
AcDbEntity
  8
TITLE
100
AcDbLine
 10
0.1859999999999928
 20
7.686000000000001
 30
0.0
 11
30.174
 21
7.686000000000001
 31
0.0
  0
LINE
  5
864
330
6E5
100
AcDbEntity
  8
TITLE
100
AcDbLine
 10
0.1859999999999928
 20
8.311000000000003
 30
0.0
 11
30.174
 21
8.311000000000003
 31
0.0
  0
LINE
  5
865
330
6E5
100
AcDbEntity
  8
TITLE
100
AcDbLine
 10
0.1859999999999928
 20
8.895329096914066
 30
0.0
 11
30.174
 21
8.895329096914066
 31
0.0
  0
LINE
  5
866
330
6E5
100
AcDbEntity
  8
TITLE
100
AcDbLine
 10
0.1859999999999928
 20
9.561000000000003
 30
0.0
 11
30.174
 21
9.561000000000003
 31
0.0
  0
LINE
  5
867
330
6E5
100
AcDbEntity
  8
TITLE
100
AcDbLine
 10
2.574000000000007
 20
10.18599999999999
 30
0.0
 11
30.174
 21
10.18599999999999
 31
0.0
  0
LINE
  5
868
330
6E5
100
AcDbEntity
  8
TITLE
100
AcDbLine
 10
0.1859999999999928
 20
10.77032909691405
 30
0.0
 11
30.174
 21
10.77032909691405
 31
0.0
  0
LINE
  5
869
330
6E5
100
AcDbEntity
  8
TITLE
100
AcDbLine
 10
27.87399999999999
 20
10.18599999999999
 30
0.0
 11
27.87399999999999
 21
0.1859999999999985
 31
0.0
  0
LINE
  5
86A
330
6E5
100
AcDbEntity
  8
TITLE
100
AcDbLine
 10
25.574
 20
10.18599999999999
 30
0.0
 11
25.574
 21
0.1859999999999985
 31
0.0
  0
LINE
  5
86B
330
6E5
100
AcDbEntity
  8
TITLE
100
AcDbLine
 10
23.274
 20
10.18599999999999
 30
0.0
 11
23.274
 21
0.1859999999999985
 31
0.0
  0
LINE
  5
86C
330
6E5
100
AcDbEntity
  8
TITLE
100
AcDbLine
 10
20.97399999999999
 20
10.18599999999999
 30
0.0
 11
20.97399999999999
 21
0.1859999999999985
 31
0.0
  0
LINE
  5
86D
330
6E5
100
AcDbEntity
  8
TITLE
100
AcDbLine
 10
18.67399999999999
 20
10.77032909691405
 30
0.0
 11
18.67399999999999
 21
0.1859999999999985
 31
0.0
  0
LINE
  5
86E
330
6E5
100
AcDbEntity
  8
TITLE
100
AcDbLine
 10
16.37399999999999
 20
10.18599999999999
 30
0.0
 11
16.37399999999999
 21
0.1859999999999985
 31
0.0
  0
LINE
  5
86F
330
6E5
100
AcDbEntity
  8
TITLE
100
AcDbLine
 10
14.074
 20
10.18599999999999
 30
0.0
 11
14.074
 21
0.1859999999999985
 31
0.0
  0
LINE
  5
870
330
6E5
100
AcDbEntity
  8
TITLE
100
AcDbLine
 10
11.774
 20
10.18599999999999
 30
0.0
 11
11.774
 21
0.1859999999999985
 31
0.0
  0
LINE
  5
871
330
6E5
100
AcDbEntity
  8
TITLE
100
AcDbLine
 10
9.474000000000007
 20
10.18599999999999
 30
0.0
 11
9.474000000000007
 21
0.1859999999999985
 31
0.0
  0
LINE
  5
872
330
6E5
100
AcDbEntity
  8
TITLE
100
AcDbLine
 10
7.174000000000005
 20
10.18599999999999
 30
0.0
 11
7.174000000000005
 21
0.1859999999999985
 31
0.0
  0
LINE
  5
873
330
6E5
100
AcDbEntity
  8
TITLE
100
AcDbLine
 10
4.874000000000004
 20
10.18599999999999
 30
0.0
 11
4.874000000000004
 21
0.1859999999999985
 31
0.0
  0
LINE
  5
874
330
6E5
100
AcDbEntity
  8
TITLE
100
AcDbLine
 10
2.574000000000007
 20
10.77032909691405
 30
0.0
 11
2.574000000000007
 21
0.1859999999999985
 31
0.0
  0
TEXT
  5
875
330
6E5
100
AcDbEntity
  8
TEXT
100
AcDbText
 10
0.3956249999999999
 20
9.978164548457028
 30
0.0
 40
0.375
  1
PART No.
 41
0.75
  7
TXT
 72
     4
 11
1.379999999999999
 21
10.16566454845702
 31
0.0
100
AcDbText
  0
TEXT
  5
876
330
6E5
100
AcDbEntity
  8
TEXT
100
AcDbText
 10
0.5831249999999999
 20
9.040664548457037
 30
0.0
 40
0.375
  1
CU-728
 41
0.75
  7
TXT
 72
     4
 11
1.379999999999999
 21
9.228164548457037
 31
0.0
100
AcDbText
  0
TEXT
  5
877
330
6E5
100
AcDbEntity
  8
TEXT
100
AcDbText
 10
0.5831249999999999
 20
8.415664548457037
 30
0.0
 40
0.375
  1
CU-729
 41
0.75
  7
TXT
 72
     4
 11
1.379999999999999
 21
8.603164548457037
 31
0.0
100
AcDbText
  0
TEXT
  5
878
330
6E5
100
AcDbEntity
  8
TEXT
100
AcDbText
 10
0.5831249999999999
 20
7.790664548457034
 30
0.0
 40
0.375
  1
CU-879
 41
0.75
  7
TXT
 72
     4
 11
1.379999999999999
 21
7.978164548457034
 31
0.0
100
AcDbText
  0
TEXT
  5
879
330
6E5
100
AcDbEntity
  8
TEXT
100
AcDbText
 10
0.6065624999999999
 20
7.165664548457034
 30
0.0
 40
0.375
  1
CU-880
 41
0.75
  7
TXT
 72
     4
 11
1.379999999999999
 21
7.353164548457034
 31
0.0
100
AcDbText
  0
TEXT
  5
87A
330
6E5
100
AcDbEntity
  8
TEXT
100
AcDbText
 10
0.6299999999999999
 20
6.540664548457034
 30
0.0
 40
0.375
  1
CU-881
 41
0.75
  7
TXT
 72
     4
 11
1.379999999999999
 21
6.728164548457034
 31
0.0
100
AcDbText
  0
TEXT
  5
87B
330
6E5
100
AcDbEntity
  8
TEXT
100
AcDbText
 10
0.5831249999999999
 20
5.915664548457034
 30
0.0
 40
0.375
  1
CU-882
 41
0.75
  7
TXT
 72
     4
 11
1.379999999999999
 21
6.103164548457034
 31
0.0
100
AcDbText
  0
TEXT
  5
87C
330
6E5
100
AcDbEntity
  8
TEXT
100
AcDbText
 10
0.5831249999999999
 20
5.290664548457034
 30
0.0
 40
0.375
  1
CU-883
 41
0.75
  7
TXT
 72
     4
 11
1.379999999999999
 21
5.478164548457034
 31
0.0
100
AcDbText
  0
TEXT
  5
87D
330
6E5
100
AcDbEntity
  8
TEXT
100
AcDbText
 10
0.5128124999999999
 20
4.665664548457034
 30
0.0
 40
0.375
  1
AU-1028
 41
0.75
  7
TXT
 72
     4
 11
1.379999999999999
 21
4.853164548457034
 31
0.0
100
AcDbText
  0
TEXT
  5
87E
330
6E5
100
AcDbEntity
  8
TEXT
100
AcDbText
 10
0.5128124999999999
 20
4.040664548457034
 30
0.0
 40
0.375
  1
AU-1029
 41
0.75
  7
TXT
 72
     4
 11
1.379999999999999
 21
4.228164548457034
 31
0.0
100
AcDbText
  0
TEXT
  5
87F
330
6E5
100
AcDbEntity
  8
TEXT
100
AcDbText
 10
0.5128124999999999
 20
3.415664548457034
 30
0.0
 40
0.375
  1
AU-1039
 41
0.75
  7
TXT
 72
     4
 11
1.379999999999999
 21
3.603164548457034
 31
0.0
100
AcDbText
  0
TEXT
  5
880
330
6E5
100
AcDbEntity
  8
TEXT
100
AcDbText
 10
0.5362499999999999
 20
2.790664548457034
 30
0.0
 40
0.375
  1
AU-1040
 41
0.75
  7
TXT
 72
     4
 11
1.379999999999999
 21
2.978164548457034
 31
0.0
100
AcDbText
  0
TEXT
  5
881
330
6E5
100
AcDbEntity
  8
TEXT
100
AcDbText
 10
0.5128124999999999
 20
2.165664548457034
 30
0.0
 40
0.375
  1
AU-1083
 41
0.75
  7
TXT
 72
     4
 11
1.379999999999999
 21
2.353164548457034
 31
0.0
100
AcDbText
  0
TEXT
  5
882
330
6E5
100
AcDbEntity
  8
TEXT
100
AcDbText
 10
0.5128124999999999
 20
1.540664548457034
 30
0.0
 40
0.375
  1
CU-1098
 41
0.75
  7
TXT
 72
     4
 11
1.379999999999999
 21
1.728164548457034
 31
0.0
100
AcDbText
  0
TEXT
  5
883
330
6E5
100
AcDbEntity
  8
TEXT
100
AcDbText
 10
0.5128124999999999
 20
0.9156645484570347
 30
0.0
 40
0.375
  1
CU-1099
 41
0.75
  7
TXT
 72
     4
 11
1.379999999999999
 21
1.103164548457034
 31
0.0
100
AcDbText
  0
TEXT
  5
884
330
6E5
100
AcDbEntity
  8
TEXT
100
AcDbText
 10
0.5362499999999999
 20
0.2906645484570359
 30
0.0
 40
0.375
  1
CU-1124
 41
0.75
  7
TXT
 72
     4
 11
1.379999999999999
 21
0.4781645484570359
 31
0.0
100
AcDbText
  0
TEXT
  5
885
330
6E5
100
AcDbEntity
  8
TEXT
100
AcDbText
 10
3.630250000000007
 20
9.665664548457037
 30
0.0
 40
0.375
  1
A
 41
0.75
  7
TXT
 72
     4
 11
3.724000000000007
 21
9.853164548457037
 31
0.0
100
AcDbText
  0
TEXT
  5
886
330
6E5
100
AcDbEntity
  8
TEXT
100
AcDbText
 10
3.231812500000007
 20
9.040664548457037
 30
0.0
 40
0.375
  1
4.000
 41
0.75
  7
TXT
 72
     4
 11
3.724000000000007
 21
9.228164548457037
 31
0.0
100
AcDbText
  0
TEXT
  5
887
330
6E5
100
AcDbEntity
  8
TEXT
100
AcDbText
 10
3.231812500000007
 20
8.415664548457037
 30
0.0
 40
0.375
  1
5.000
 41
0.75
  7
TXT
 72
     4
 11
3.724000000000007
 21
8.603164548457037
 31
0.0
100
AcDbText
  0
TEXT
  5
888
330
6E5
100
AcDbEntity
  8
TEXT
100
AcDbText
 10
3.161500000000007
 20
7.790664548457034
 30
0.0
 40
0.375
  1
10.000
 41
0.75
  7
TXT
 72
     4
 11
3.724000000000007
 21
7.978164548457034
 31
0.0
100
AcDbText
  0
TEXT
  5
889
330
6E5
100
AcDbEntity
  8
TEXT
100
AcDbText
 10
3.161500000000007
 20
7.165664548457034
 30
0.0
 40
0.375
  1
10.000
 41
0.75
  7
TXT
 72
     4
 11
3.724000000000007
 21
7.353164548457034
 31
0.0
100
AcDbText
  0
TEXT
  5
88A
330
6E5
100
AcDbEntity
  8
TEXT
100
AcDbText
 10
3.138062500000007
 20
6.540664548457034
 30
0.0
 40
0.375
  1
12.000
 41
0.75
  7
TXT
 72
     4
 11
3.724000000000007
 21
6.728164548457034
 31
0.0
100
AcDbText
  0
TEXT
  5
88B
330
6E5
100
AcDbEntity
  8
TEXT
100
AcDbText
 10
3.138062500000007
 20
5.915664548457034
 30
0.0
 40
0.375
  1
15.000
 41
0.75
  7
TXT
 72
     4
 11
3.724000000000007
 21
6.103164548457034
 31
0.0
100
AcDbText
  0
TEXT
  5
88C
330
6E5
100
AcDbEntity
  8
TEXT
100
AcDbText
 10
3.231812500000007
 20
5.290664548457034
 30
0.0
 40
0.375
  1
4.000
 41
0.75
  7
TXT
 72
     4
 11
3.724000000000007
 21
5.478164548457034
 31
0.0
100
AcDbText
  0
TEXT
  5
88D
330
6E5
100
AcDbEntity
  8
TEXT
100
AcDbText
 10
3.231812500000007
 20
4.665664548457034
 30
0.0
 40
0.375
  1
4.000
 41
0.75
  7
TXT
 72
     4
 11
3.724000000000007
 21
4.853164548457034
 31
0.0
100
AcDbText
  0
TEXT
  5
88E
330
6E5
100
AcDbEntity
  8
TEXT
100
AcDbText
 10
3.231812500000007
 20
4.040664548457034
 30
0.0
 40
0.375
  1
5.000
 41
0.75
  7
TXT
 72
     4
 11
3.724000000000007
 21
4.228164548457034
 31
0.0
100
AcDbText
  0
TEXT
  5
88F
330
6E5
100
AcDbEntity
  8
TEXT
100
AcDbText
 10
3.231812500000007
 20
3.415664548457034
 30
0.0
 40
0.375
  1
6.000
 41
0.75
  7
TXT
 72
     4
 11
3.724000000000007
 21
3.603164548457034
 31
0.0
100
AcDbText
  0
TEXT
  5
890
330
6E5
100
AcDbEntity
  8
TEXT
100
AcDbText
 10
3.231812500000007
 20
2.790664548457034
 30
0.0
 40
0.375
  1
9.000
 41
0.75
  7
TXT
 72
     4
 11
3.724000000000007
 21
2.978164548457034
 31
0.0
100
AcDbText
  0
TEXT
  5
891
330
6E5
100
AcDbEntity
  8
TEXT
100
AcDbText
 10
3.231812500000007
 20
2.165664548457034
 30
0.0
 40
0.375
  1
4.000
 41
0.75
  7
TXT
 72
     4
 11
3.724000000000007
 21
2.353164548457034
 31
0.0
100
AcDbText
  0
TEXT
  5
892
330
6E5
100
AcDbEntity
  8
TEXT
100
AcDbText
 10
3.231812500000007
 20
1.540664548457034
 30
0.0
 40
0.375
  1
6.000
 41
0.75
  7
TXT
 72
     4
 11
3.724000000000007
 21
1.728164548457034
 31
0.0
100
AcDbText
  0
TEXT
  5
893
330
6E5
100
AcDbEntity
  8
TEXT
100
AcDbText
 10
3.231812500000007
 20
0.9156645484570347
 30
0.0
 40
0.375
  1
9.000
 41
0.75
  7
TXT
 72
     4
 11
3.724000000000007
 21
1.103164548457034
 31
0.0
100
AcDbText
  0
TEXT
  5
894
330
6E5
100
AcDbEntity
  8
TEXT
100
AcDbText
 10
3.138062500000007
 20
0.2906645484570359
 30
0.0
 40
0.375
  1
12.000
 41
0.75
  7
TXT
 72
     4
 11
3.724000000000007
 21
0.4781645484570359
 31
0.0
100
AcDbText
  0
TEXT
  5
895
330
6E5
100
AcDbEntity
  8
TEXT
100
AcDbText
 10
5.930250000000003
 20
9.665664548457037
 30
0.0
 40
0.375
  1
B
 41
0.75
  7
TXT
 72
     4
 11
6.024000000000003
 21
9.853164548457037
 31
0.0
100
AcDbText
  0
TEXT
  5
896
330
6E5
100
AcDbEntity
  8
TEXT
100
AcDbText
 10
8.230250000000005
 20
9.665664548457037
 30
0.0
 40
0.375
  1
C
 41
0.75
  7
TXT
 72
     4
 11
8.324000000000005
 21
9.853164548457037
 31
0.0
100
AcDbText
  0
TEXT
  5
897
330
6E5
100
AcDbEntity
  8
TEXT
100
AcDbText
 10
10.53025
 20
9.665664548457037
 30
0.0
 40
0.375
  1
D
 41
0.75
  7
TXT
 72
     4
 11
10.624
 21
9.853164548457037
 31
0.0
100
AcDbText
  0
TEXT
  5
898
330
6E5
100
AcDbEntity
  8
TEXT
100
AcDbText
 10
12.83025
 20
9.665664548457037
 30
0.0
 40
0.375
  1
E
 41
0.75
  7
TXT
 72
     4
 11
12.92399999999999
 21
9.853164548457037
 31
0.0
100
AcDbText
  0
TEXT
  5
899
330
6E5
100
AcDbEntity
  8
TEXT
100
AcDbText
 10
15.13025
 20
9.665664548457037
 30
0.0
 40
0.375
  1
F
 41
0.75
  7
TXT
 72
     4
 11
15.224
 21
9.853164548457037
 31
0.0
100
AcDbText
  0
TEXT
  5
89A
330
6E5
100
AcDbEntity
  8
TEXT
100
AcDbText
 10
16.86775
 20
9.665664548457037
 30
0.0
 40
0.375
  1
GAUGE
 41
0.75
  7
TXT
 72
     4
 11
17.524
 21
9.853164548457037
 31
0.0
100
AcDbText
  0
TEXT
  5
89B
330
6E5
100
AcDbEntity
  8
TEXT
100
AcDbText
 10
19.73025
 20
9.665664548457037
 30
0.0
 40
0.375
  1
G
 41
0.75
  7
TXT
 72
     4
 11
19.824
 21
9.853164548457037
 31
0.0
100
AcDbText
  0
TEXT
  5
89C
330
6E5
100
AcDbEntity
  8
TEXT
100
AcDbText
 10
22.03024999999999
 20
9.665664548457037
 30
0.0
 40
0.375
  1
H
 41
0.75
  7
TXT
 72
     4
 11
22.124
 21
9.853164548457037
 31
0.0
100
AcDbText
  0
TEXT
  5
89D
330
6E5
100
AcDbEntity
  8
TEXT
100
AcDbText
 10
24.33025000000001
 20
9.665664548457037
 30
0.0
 40
0.375
  1
J
 41
0.75
  7
TXT
 72
     4
 11
24.42400000000001
 21
9.853164548457037
 31
0.0
100
AcDbText
  0
TEXT
  5
89E
330
6E5
100
AcDbEntity
  8
TEXT
100
AcDbText
 10
26.63025
 20
9.665664548457037
 30
0.0
 40
0.375
  1
K
 41
0.75
  7
TXT
 72
     4
 11
26.724
 21
9.853164548457037
 31
0.0
100
AcDbText
  0
TEXT
  5
89F
330
6E5
100
AcDbEntity
  8
TEXT
100
AcDbText
 10
28.36775
 20
9.665664548457037
 30
0.0
 40
0.375
  1
GAUGE
 41
0.75
  7
TXT
 72
     4
 11
29.024
 21
9.853164548457037
 31
0.0
100
AcDbText
  0
TEXT
  5
8A0
330
6E5
100
AcDbEntity
  8
TEXT
100
AcDbText
 10
10.108375
 20
10.29066454845702
 30
0.0
 40
0.375
  1
BODY
 41
0.75
  7
TXT
 72
     4
 11
10.624
 21
10.47816454845702
 31
0.0
100
AcDbText
  0
TEXT
  5
8A1
330
6E5
100
AcDbEntity
  8
TEXT
100
AcDbText
 10
23.76775000000001
 20
10.29066454845702
 30
0.0
 40
0.375
  1
PANEL
 41
0.75
  7
TXT
 72
     4
 11
24.42400000000001
 21
10.47816454845702
 31
0.0
100
AcDbText
  0
TEXT
  5
8A2
330
6E5
100
AcDbEntity
  8
TEXT
100
AcDbText
 10
5.531812500000003
 20
9.040664548457037
 30
0.0
 40
0.375
  1
5.000
 41
0.75
  7
TXT
 72
     4
 11
6.024000000000003
 21
9.228164548457037
 31
0.0
100
AcDbText
  0
TEXT
  5
8A3
330
6E5
100
AcDbEntity
  8
TEXT
100
AcDbText
 10
5.531812500000003
 20
8.415664548457037
 30
0.0
 40
0.375
  1
6.000
 41
0.75
  7
TXT
 72
     4
 11
6.024000000000003
 21
8.603164548457037
 31
0.0
100
AcDbText
  0
TEXT
  5
8A4
330
6E5
100
AcDbEntity
  8
TEXT
100
AcDbText
 10
5.531812500000003
 20
7.790664548457034
 30
0.0
 40
0.375
  1
8.000
 41
0.75
  7
TXT
 72
     4
 11
6.024000000000003
 21
7.978164548457034
 31
0.0
100
AcDbText
  0
TEXT
  5
8A5
330
6E5
100
AcDbEntity
  8
TEXT
100
AcDbText
 10
5.461500000000003
 20
7.165664548457034
 30
0.0
 40
0.375
  1
10.000
 41
0.75
  7
TXT
 72
     4
 11
6.024000000000003
 21
7.353164548457034
 31
0.0
100
AcDbText
  0
TEXT
  5
8A6
330
6E5
100
AcDbEntity
  8
TEXT
100
AcDbText
 10
5.484937500000003
 20
6.540664548457034
 30
0.0
 40
0.375
  1
11.000
 41
0.75
  7
TXT
 72
     4
 11
6.024000000000003
 21
6.728164548457034
 31
0.0
100
AcDbText
  0
TEXT
  5
8A7
330
6E5
100
AcDbEntity
  8
TEXT
100
AcDbText
 10
5.531812500000003
 20
5.915664548457034
 30
0.0
 40
0.375
  1
9.000
 41
0.75
  7
TXT
 72
     4
 11
6.024000000000003
 21
6.103164548457034
 31
0.0
100
AcDbText
  0
TEXT
  5
8A8
330
6E5
100
AcDbEntity
  8
TEXT
100
AcDbText
 10
5.531812500000003
 20
5.290664548457034
 30
0.0
 40
0.375
  1
4.000
 41
0.75
  7
TXT
 72
     4
 11
6.024000000000003
 21
5.478164548457034
 31
0.0
100
AcDbText
  0
TEXT
  5
8A9
330
6E5
100
AcDbEntity
  8
TEXT
100
AcDbText
 10
5.531812500000003
 20
4.665664548457034
 30
0.0
 40
0.375
  1
5.000
 41
0.75
  7
TXT
 72
     4
 11
6.024000000000003
 21
4.853164548457034
 31
0.0
100
AcDbText
  0
TEXT
  5
8AA
330
6E5
100
AcDbEntity
  8
TEXT
100
AcDbText
 10
5.531812500000003
 20
4.040664548457034
 30
0.0
 40
0.375
  1
6.000
 41
0.75
  7
TXT
 72
     4
 11
6.024000000000003
 21
4.228164548457034
 31
0.0
100
AcDbText
  0
TEXT
  5
8AB
330
6E5
100
AcDbEntity
  8
TEXT
100
AcDbText
 10
5.531812500000003
 20
3.415664548457034
 30
0.0
 40
0.375
  1
6.000
 41
0.75
  7
TXT
 72
     4
 11
6.024000000000003
 21
3.603164548457034
 31
0.0
100
AcDbText
  0
TEXT
  5
8AC
330
6E5
100
AcDbEntity
  8
TEXT
100
AcDbText
 10
5.531812500000003
 20
2.790664548457034
 30
0.0
 40
0.375
  1
6.000
 41
0.75
  7
TXT
 72
     4
 11
6.024000000000003
 21
2.978164548457034
 31
0.0
100
AcDbText
  0
TEXT
  5
8AD
330
6E5
100
AcDbEntity
  8
TEXT
100
AcDbText
 10
5.531812500000003
 20
2.165664548457034
 30
0.0
 40
0.375
  1
4.000
 41
0.75
  7
TXT
 72
     4
 11
6.024000000000003
 21
2.353164548457034
 31
0.0
100
AcDbText
  0
TEXT
  5
8AE
330
6E5
100
AcDbEntity
  8
TEXT
100
AcDbText
 10
5.531812500000003
 20
1.540664548457034
 30
0.0
 40
0.375
  1
6.000
 41
0.75
  7
TXT
 72
     4
 11
6.024000000000003
 21
1.728164548457034
 31
0.0
100
AcDbText
  0
TEXT
  5
8AF
330
6E5
100
AcDbEntity
  8
TEXT
100
AcDbText
 10
5.531812500000003
 20
0.9156645484570347
 30
0.0
 40
0.375
  1
6.000
 41
0.75
  7
TXT
 72
     4
 11
6.024000000000003
 21
1.103164548457034
 31
0.0
100
AcDbText
  0
TEXT
  5
8B0
330
6E5
100
AcDbEntity
  8
TEXT
100
AcDbText
 10
5.531812500000003
 20
0.2906645484570359
 30
0.0
 40
0.375
  1
7.000
 41
0.75
  7
TXT
 72
     4
 11
6.024000000000003
 21
0.4781645484570359
 31
0.0
100
AcDbText
  0
TEXT
  5
8B1
330
6E5
100
AcDbEntity
  8
TEXT
100
AcDbText
 10
7.831812500000005
 20
9.040664548457037
 30
0.0
 40
0.375
  1
3.000
 41
0.75
  7
TXT
 72
     4
 11
8.324000000000005
 21
9.228164548457037
 31
0.0
100
AcDbText
  0
TEXT
  5
8B2
330
6E5
100
AcDbEntity
  8
TEXT
100
AcDbText
 10
7.831812500000005
 20
8.415664548457037
 30
0.0
 40
0.375
  1
4.000
 41
0.75
  7
TXT
 72
     4
 11
8.324000000000005
 21
8.603164548457037
 31
0.0
100
AcDbText
  0
TEXT
  5
8B3
330
6E5
100
AcDbEntity
  8
TEXT
100
AcDbText
 10
7.831812500000005
 20
7.790664548457034
 30
0.0
 40
0.375
  1
7.000
 41
0.75
  7
TXT
 72
     4
 11
8.324000000000005
 21
7.978164548457034
 31
0.0
100
AcDbText
  0
TEXT
  5
8B4
330
6E5
100
AcDbEntity
  8
TEXT
100
AcDbText
 10
7.831812500000005
 20
7.165664548457034
 30
0.0
 40
0.375
  1
8.000
 41
0.75
  7
TXT
 72
     4
 11
8.324000000000005
 21
7.353164548457034
 31
0.0
100
AcDbText
  0
TEXT
  5
8B5
330
6E5
100
AcDbEntity
  8
TEXT
100
AcDbText
 10
7.831812500000005
 20
6.540664548457034
 30
0.0
 40
0.375
  1
8.000
 41
0.75
  7
TXT
 72
     4
 11
8.324000000000005
 21
6.728164548457034
 31
0.0
100
AcDbText
  0
TEXT
  5
8B6
330
6E5
100
AcDbEntity
  8
TEXT
100
AcDbText
 10
7.831812500000005
 20
5.915664548457034
 30
0.0
 40
0.375
  1
7.000
 41
0.75
  7
TXT
 72
     4
 11
8.324000000000005
 21
6.103164548457034
 31
0.0
100
AcDbText
  0
TEXT
  5
8B7
330
6E5
100
AcDbEntity
  8
TEXT
100
AcDbText
 10
7.831812500000005
 20
5.290664548457034
 30
0.0
 40
0.375
  1
2.000
 41
0.75
  7
TXT
 72
     4
 11
8.324000000000005
 21
5.478164548457034
 31
0.0
100
AcDbText
  0
TEXT
  5
8B8
330
6E5
100
AcDbEntity
  8
TEXT
100
AcDbText
 10
7.831812500000005
 20
4.665664548457034
 30
0.0
 40
0.375
  1
3.000
 41
0.75
  7
TXT
 72
     4
 11
8.324000000000005
 21
4.853164548457034
 31
0.0
100
AcDbText
  0
TEXT
  5
8B9
330
6E5
100
AcDbEntity
  8
TEXT
100
AcDbText
 10
7.831812500000005
 20
4.040664548457034
 30
0.0
 40
0.375
  1
4.000
 41
0.75
  7
TXT
 72
     4
 11
8.324000000000005
 21
4.228164548457034
 31
0.0
100
AcDbText
  0
TEXT
  5
8BA
330
6E5
100
AcDbEntity
  8
TEXT
100
AcDbText
 10
7.831812500000005
 20
3.415664548457034
 30
0.0
 40
0.375
  1
6.000
 41
0.75
  7
TXT
 72
     4
 11
8.324000000000005
 21
3.603164548457034
 31
0.0
100
AcDbText
  0
TEXT
  5
8BB
330
6E5
100
AcDbEntity
  8
TEXT
100
AcDbText
 10
7.831812500000005
 20
2.790664548457034
 30
0.0
 40
0.375
  1
5.000
 41
0.75
  7
TXT
 72
     4
 11
8.324000000000005
 21
2.978164548457034
 31
0.0
100
AcDbText
  0
TEXT
  5
8BC
330
6E5
100
AcDbEntity
  8
TEXT
100
AcDbText
 10
7.831812500000005
 20
2.165664548457034
 30
0.0
 40
0.375
  1
2.000
 41
0.75
  7
TXT
 72
     4
 11
8.324000000000005
 21
2.353164548457034
 31
0.0
100
AcDbText
  0
TEXT
  5
8BD
330
6E5
100
AcDbEntity
  8
TEXT
100
AcDbText
 10
7.831812500000005
 20
1.540664548457034
 30
0.0
 40
0.375
  1
6.000
 41
0.75
  7
TXT
 72
     4
 11
8.324000000000005
 21
1.728164548457034
 31
0.0
100
AcDbText
  0
TEXT
  5
8BE
330
6E5
100
AcDbEntity
  8
TEXT
100
AcDbText
 10
7.831812500000005
 20
0.9156645484570347
 30
0.0
 40
0.375
  1
5.000
 41
0.75
  7
TXT
 72
     4
 11
8.324000000000005
 21
1.103164548457034
 31
0.0
100
AcDbText
  0
TEXT
  5
8BF
330
6E5
100
AcDbEntity
  8
TEXT
100
AcDbText
 10
7.831812500000005
 20
0.2906645484570359
 30
0.0
 40
0.375
  1
6.000
 41
0.75
  7
TXT
 72
     4
 11
8.324000000000005
 21
0.4781645484570359
 31
0.0
100
AcDbText
  0
TEXT
  5
8C0
330
6E5
100
AcDbEntity
  8
TEXT
100
AcDbText
 10
10.0615
 20
9.040664548457037
 30
0.0
 40
0.375
  1
3.937
 41
0.75
  7
TXT
 72
     4
 11
10.624
 21
9.228164548457037
 31
0.0
100
AcDbText
  0
TEXT
  5
8C1
330
6E5
100
AcDbEntity
  8
TEXT
100
AcDbText
 10
10.0615
 20
8.415664548457037
 30
0.0
 40
0.375
  1
4.937
 41
0.75
  7
TXT
 72
     4
 11
10.624
 21
8.603164548457037
 31
0.0
100
AcDbText
  0
TEXT
  5
8C2
330
6E5
100
AcDbEntity
  8
TEXT
100
AcDbText
 10
10.1318125
 20
7.790664548457034
 30
0.0
 40
0.375
  1
6.000
 41
0.75
  7
TXT
 72
     4
 11
10.624
 21
7.978164548457034
 31
0.0
100
AcDbText
  0
TEXT
  5
8C3
330
6E5
100
AcDbEntity
  8
TEXT
100
AcDbText
 10
10.1318125
 20
7.165664548457034
 30
0.0
 40
0.375
  1
8.000
 41
0.75
  7
TXT
 72
     4
 11
10.624
 21
7.353164548457034
 31
0.0
100
AcDbText
  0
TEXT
  5
8C4
330
6E5
100
AcDbEntity
  8
TEXT
100
AcDbText
 10
10.1318125
 20
6.540664548457034
 30
0.0
 40
0.375
  1
9.000
 41
0.75
  7
TXT
 72
     4
 11
10.624
 21
6.728164548457034
 31
0.0
100
AcDbText
  0
TEXT
  5
8C5
330
6E5
100
AcDbEntity
  8
TEXT
100
AcDbText
 10
10.1318125
 20
5.915664548457034
 30
0.0
 40
0.375
  1
7.000
 41
0.75
  7
TXT
 72
     4
 11
10.624
 21
6.103164548457034
 31
0.0
100
AcDbText
  0
TEXT
  5
8C6
330
6E5
100
AcDbEntity
  8
TEXT
100
AcDbText
 10
10.0615
 20
5.290664548457034
 30
0.0
 40
0.375
  1
2.937
 41
0.75
  7
TXT
 72
     4
 11
10.624
 21
5.478164548457034
 31
0.0
100
AcDbText
  0
TEXT
  5
8C7
330
6E5
100
AcDbEntity
  8
TEXT
100
AcDbText
 10
10.0615
 20
4.665664548457034
 30
0.0
 40
0.375
  1
3.937
 41
0.75
  7
TXT
 72
     4
 11
10.624
 21
4.853164548457034
 31
0.0
100
AcDbText
  0
TEXT
  5
8C8
330
6E5
100
AcDbEntity
  8
TEXT
100
AcDbText
 10
10.0615
 20
4.040664548457034
 30
0.0
 40
0.375
  1
4.937
 41
0.75
  7
TXT
 72
     4
 11
10.624
 21
4.228164548457034
 31
0.0
100
AcDbText
  0
TEXT
  5
8C9
330
6E5
100
AcDbEntity
  8
TEXT
100
AcDbText
 10
10.0615
 20
3.415664548457034
 30
0.0
 40
0.375
  1
4.937
 41
0.75
  7
TXT
 72
     4
 11
10.624
 21
3.603164548457034
 31
0.0
100
AcDbText
  0
TEXT
  5
8CA
330
6E5
100
AcDbEntity
  8
TEXT
100
AcDbText
 10
10.1318125
 20
2.790664548457034
 30
0.0
 40
0.375
  1
4.000
 41
0.75
  7
TXT
 72
     4
 11
10.624
 21
2.978164548457034
 31
0.0
100
AcDbText
  0
TEXT
  5
8CB
330
6E5
100
AcDbEntity
  8
TEXT
100
AcDbText
 10
10.0615
 20
2.165664548457034
 30
0.0
 40
0.375
  1
2.937
 41
0.75
  7
TXT
 72
     4
 11
10.624
 21
2.353164548457034
 31
0.0
100
AcDbText
  0
TEXT
  5
8CC
330
6E5
100
AcDbEntity
  8
TEXT
100
AcDbText
 10
10.0615
 20
1.540664548457034
 30
0.0
 40
0.375
  1
4.937
 41
0.75
  7
TXT
 72
     4
 11
10.624
 21
1.728164548457034
 31
0.0
100
AcDbText
  0
TEXT
  5
8CD
330
6E5
100
AcDbEntity
  8
TEXT
100
AcDbText
 10
10.1318125
 20
0.9156645484570347
 30
0.0
 40
0.375
  1
4.000
 41
0.75
  7
TXT
 72
     4
 11
10.624
 21
1.103164548457034
 31
0.0
100
AcDbText
  0
TEXT
  5
8CE
330
6E5
100
AcDbEntity
  8
TEXT
100
AcDbText
 10
10.1318125
 20
0.2906645484570359
 30
0.0
 40
0.375
  1
5.000
 41
0.75
  7
TXT
 72
     4
 11
10.624
 21
0.4781645484570359
 31
0.0
100
AcDbText
  0
TEXT
  5
8CF
330
6E5
100
AcDbEntity
  8
TEXT
100
AcDbText
 10
12.4318125
 20
7.790664548457034
 30
0.0
 40
0.375
  1
5.000
 41
0.75
  7
TXT
 72
     4
 11
12.92399999999999
 21
7.978164548457034
 31
0.0
100
AcDbText
  0
TEXT
  5
8D0
330
6E5
100
AcDbEntity
  8
TEXT
100
AcDbText
 10
12.4318125
 20
7.165664548457034
 30
0.0
 40
0.375
  1
5.000
 41
0.75
  7
TXT
 72
     4
 11
12.92399999999999
 21
7.353164548457034
 31
0.0
100
AcDbText
  0
TEXT
  5
8D1
330
6E5
100
AcDbEntity
  8
TEXT
100
AcDbText
 10
12.4318125
 20
6.540664548457034
 30
0.0
 40
0.375
  1
6.000
 41
0.75
  7
TXT
 72
     4
 11
12.92399999999999
 21
6.728164548457034
 31
0.0
100
AcDbText
  0
TEXT
  5
8D2
330
6E5
100
AcDbEntity
  8
TEXT
100
AcDbText
 10
12.408375
 20
5.915664548457034
 30
0.0
 40
0.375
  1
7.500
 41
0.75
  7
TXT
 72
     4
 11
12.92399999999999
 21
6.103164548457034
 31
0.0
100
AcDbText
  0
TEXT
  5
8D3
330
6E5
100
AcDbEntity
  8
TEXT
100
AcDbText
 10
12.408375
 20
2.790664548457034
 30
0.0
 40
0.375
  1
4.500
 41
0.75
  7
TXT
 72
     4
 11
12.92399999999999
 21
2.978164548457034
 31
0.0
100
AcDbText
  0
TEXT
  5
8D4
330
6E5
100
AcDbEntity
  8
TEXT
100
AcDbText
 10
12.408375
 20
0.9156645484570347
 30
0.0
 40
0.375
  1
4.500
 41
0.75
  7
TXT
 72
     4
 11
12.92399999999999
 21
1.103164548457034
 31
0.0
100
AcDbText
  0
TEXT
  5
8D5
330
6E5
100
AcDbEntity
  8
TEXT
100
AcDbText
 10
12.4318125
 20
0.2906645484570359
 30
0.0
 40
0.375
  1
6.000
 41
0.75
  7
TXT
 72
     4
 11
12.92399999999999
 21
0.4781645484570359
 31
0.0
100
AcDbText
  0
TEXT
  5
8D6
330
6E5
100
AcDbEntity
  8
TEXT
100
AcDbText
 10
14.6849375
 20
9.040664548457037
 30
0.0
 40
0.375
  1
0.375
 41
0.75
  7
TXT
 72
     4
 11
15.224
 21
9.228164548457037
 31
0.0
100
AcDbText
  0
TEXT
  5
8D7
330
6E5
100
AcDbEntity
  8
TEXT
100
AcDbText
 10
14.6849375
 20
8.415664548457037
 30
0.0
 40
0.375
  1
0.375
 41
0.75
  7
TXT
 72
     4
 11
15.224
 21
8.603164548457037
 31
0.0
100
AcDbText
  0
TEXT
  5
8D8
330
6E5
100
AcDbEntity
  8
TEXT
100
AcDbText
 10
14.7318125
 20
7.790664548457034
 30
0.0
 40
0.375
  1
0.500
 41
0.75
  7
TXT
 72
     4
 11
15.224
 21
7.978164548457034
 31
0.0
100
AcDbText
  0
TEXT
  5
8D9
330
6E5
100
AcDbEntity
  8
TEXT
100
AcDbText
 10
14.6849375
 20
5.249993645371099
 30
0.0
 40
0.375
  1
0.375
 41
0.75
  7
TXT
 72
     4
 11
15.224
 21
5.437493645371099
 31
0.0
100
AcDbText
  0
TEXT
  5
8DA
330
6E5
100
AcDbEntity
  8
TEXT
100
AcDbText
 10
14.6849375
 20
4.665664548457034
 30
0.0
 40
0.375
  1
0.375
 41
0.75
  7
TXT
 72
     4
 11
15.224
 21
4.853164548457034
 31
0.0
100
AcDbText
  0
TEXT
  5
8DB
330
6E5
100
AcDbEntity
  8
TEXT
100
AcDbText
 10
14.6849375
 20
4.040664548457034
 30
0.0
 40
0.375
  1
0.375
 41
0.75
  7
TXT
 72
     4
 11
15.224
 21
4.228164548457034
 31
0.0
100
AcDbText
  0
TEXT
  5
8DC
330
6E5
100
AcDbEntity
  8
TEXT
100
AcDbText
 10
14.6849375
 20
2.165664548457034
 30
0.0
 40
0.375
  1
0.375
 41
0.75
  7
TXT
 72
     4
 11
15.224
 21
2.353164548457034
 31
0.0
100
AcDbText
  0
TEXT
  5
8DD
330
6E5
100
AcDbEntity
  8
TEXT
100
AcDbText
 10
14.7318125
 20
7.124993645371099
 30
0.0
 40
0.375
  1
0.500
 41
0.75
  7
TXT
 72
     4
 11
15.224
 21
7.312493645371099
 31
0.0
100
AcDbText
  0
TEXT
  5
8DE
330
6E5
100
AcDbEntity
  8
TEXT
100
AcDbText
 10
14.7318125
 20
6.540664548457034
 30
0.0
 40
0.375
  1
0.500
 41
0.75
  7
TXT
 72
     4
 11
15.224
 21
6.728164548457034
 31
0.0
100
AcDbText
  0
TEXT
  5
8DF
330
6E5
100
AcDbEntity
  8
TEXT
100
AcDbText
 10
14.7318125
 20
5.915664548457034
 30
0.0
 40
0.375
  1
0.500
 41
0.75
  7
TXT
 72
     4
 11
15.224
 21
6.103164548457034
 31
0.0
100
AcDbText
  0
TEXT
  5
8E0
330
6E5
100
AcDbEntity
  8
TEXT
100
AcDbText
 10
14.7318125
 20
3.3749936453711
 30
0.0
 40
0.375
  1
0.500
 41
0.75
  7
TXT
 72
     4
 11
15.224
 21
3.5624936453711
 31
0.0
100
AcDbText
  0
TEXT
  5
8E1
330
6E5
100
AcDbEntity
  8
TEXT
100
AcDbText
 10
14.7318125
 20
2.790664548457034
 30
0.0
 40
0.375
  1
0.500
 41
0.75
  7
TXT
 72
     4
 11
15.224
 21
2.978164548457034
 31
0.0
100
AcDbText
  0
TEXT
  5
8E2
330
6E5
100
AcDbEntity
  8
TEXT
100
AcDbText
 10
14.7318125
 20
1.540664548457034
 30
0.0
 40
0.375
  1
0.500
 41
0.75
  7
TXT
 72
     4
 11
15.224
 21
1.728164548457034
 31
0.0
100
AcDbText
  0
TEXT
  5
8E3
330
6E5
100
AcDbEntity
  8
TEXT
100
AcDbText
 10
14.7318125
 20
0.9156645484570347
 30
0.0
 40
0.375
  1
0.500
 41
0.75
  7
TXT
 72
     4
 11
15.224
 21
1.103164548457034
 31
0.0
100
AcDbText
  0
TEXT
  5
8E4
330
6E5
100
AcDbEntity
  8
TEXT
100
AcDbText
 10
14.7318125
 20
0.2906645484570359
 30
0.0
 40
0.375
  1
0.500
 41
0.75
  7
TXT
 72
     4
 11
15.224
 21
0.4781645484570359
 31
0.0
100
AcDbText
  0
TEXT
  5
8E5
330
6E5
100
AcDbEntity
  8
TEXT
100
AcDbText
 10
17.3130625
 20
9.040664548457037
 30
0.0
 40
0.375
  1
20
 41
0.75
  7
TXT
 72
     4
 11
17.524
 21
9.228164548457037
 31
0.0
100
AcDbText
  0
TEXT
  5
8E6
330
6E5
100
AcDbEntity
  8
TEXT
100
AcDbText
 10
17.3130625
 20
8.415664548457037
 30
0.0
 40
0.375
  1
20
 41
0.75
  7
TXT
 72
     4
 11
17.524
 21
8.603164548457037
 31
0.0
100
AcDbText
  0
TEXT
  5
8E7
330
6E5
100
AcDbEntity
  8
TEXT
100
AcDbText
 10
17.3130625
 20
7.790664548457034
 30
0.0
 40
0.375
  1
20
 41
0.75
  7
TXT
 72
     4
 11
17.524
 21
7.978164548457034
 31
0.0
100
AcDbText
  0
TEXT
  5
8E8
330
6E5
100
AcDbEntity
  8
TEXT
100
AcDbText
 10
17.3130625
 20
7.165664548457034
 30
0.0
 40
0.375
  1
20
 41
0.75
  7
TXT
 72
     4
 11
17.524
 21
7.353164548457034
 31
0.0
100
AcDbText
  0
TEXT
  5
8E9
330
6E5
100
AcDbEntity
  8
TEXT
100
AcDbText
 10
17.3130625
 20
6.540664548457034
 30
0.0
 40
0.375
  1
20
 41
0.75
  7
TXT
 72
     4
 11
17.524
 21
6.728164548457034
 31
0.0
100
AcDbText
  0
TEXT
  5
8EA
330
6E5
100
AcDbEntity
  8
TEXT
100
AcDbText
 10
17.3130625
 20
5.915664548457034
 30
0.0
 40
0.375
  1
20
 41
0.75
  7
TXT
 72
     4
 11
17.524
 21
6.103164548457034
 31
0.0
100
AcDbText
  0
TEXT
  5
8EB
330
6E5
100
AcDbEntity
  8
TEXT
100
AcDbText
 10
17.3130625
 20
5.290664548457034
 30
0.0
 40
0.375
  1
20
 41
0.75
  7
TXT
 72
     4
 11
17.524
 21
5.478164548457034
 31
0.0
100
AcDbText
  0
TEXT
  5
8EC
330
6E5
100
AcDbEntity
  8
TEXT
100
AcDbText
 10
17.0318125
 20
4.665664548457034
 30
0.0
 40
0.375
  1
0.040
 41
0.75
  7
TXT
 72
     4
 11
17.524
 21
4.853164548457034
 31
0.0
100
AcDbText
  0
TEXT
  5
8ED
330
6E5
100
AcDbEntity
  8
TEXT
100
AcDbText
 10
17.3130625
 20
1.540664548457034
 30
0.0
 40
0.375
  1
20
 41
0.75
  7
TXT
 72
     4
 11
17.524
 21
1.728164548457034
 31
0.0
100
AcDbText
  0
TEXT
  5
8EE
330
6E5
100
AcDbEntity
  8
TEXT
100
AcDbText
 10
17.3130625
 20
0.9156645484570347
 30
0.0
 40
0.375
  1
20
 41
0.75
  7
TXT
 72
     4
 11
17.524
 21
1.103164548457034
 31
0.0
100
AcDbText
  0
TEXT
  5
8EF
330
6E5
100
AcDbEntity
  8
TEXT
100
AcDbText
 10
17.3130625
 20
0.2906645484570359
 30
0.0
 40
0.375
  1
20
 41
0.75
  7
TXT
 72
     4
 11
17.524
 21
0.4781645484570359
 31
0.0
100
AcDbText
  0
TEXT
  5
8F0
330
6E5
100
AcDbEntity
  8
TEXT
100
AcDbText
 10
17.0318125
 20
4.040664548457034
 30
0.0
 40
0.375
  1
0.040
 41
0.75
  7
TXT
 72
     4
 11
17.524
 21
4.228164548457034
 31
0.0
100
AcDbText
  0
TEXT
  5
8F1
330
6E5
100
AcDbEntity
  8
TEXT
100
AcDbText
 10
17.0318125
 20
3.3749936453711
 30
0.0
 40
0.375
  1
0.040
 41
0.75
  7
TXT
 72
     4
 11
17.524
 21
3.5624936453711
 31
0.0
100
AcDbText
  0
TEXT
  5
8F2
330
6E5
100
AcDbEntity
  8
TEXT
100
AcDbText
 10
17.0318125
 20
2.790664548457034
 30
0.0
 40
0.375
  1
0.040
 41
0.75
  7
TXT
 72
     4
 11
17.524
 21
2.978164548457034
 31
0.0
100
AcDbText
  0
TEXT
  5
8F3
330
6E5
100
AcDbEntity
  8
TEXT
100
AcDbText
 10
17.0318125
 20
2.165664548457034
 30
0.0
 40
0.375
  1
0.040
 41
0.75
  7
TXT
 72
     4
 11
17.524
 21
2.353164548457034
 31
0.0
100
AcDbText
  0
TEXT
  5
8F4
330
6E5
100
AcDbEntity
  8
TEXT
100
AcDbText
 10
28.5318125
 20
2.165664548457034
 30
0.0
 40
0.375
  1
0.040
 41
0.75
  7
TXT
 72
     4
 11
29.024
 21
2.353164548457034
 31
0.0
100
AcDbText
  0
TEXT
  5
8F5
330
6E5
100
AcDbEntity
  8
TEXT
100
AcDbText
 10
28.8130625
 20
0.2906645484570355
 30
0.0
 40
0.375
  1
20
 41
0.75
  7
TXT
 72
     4
 11
29.024
 21
0.4781645484570355
 31
0.0
100
AcDbText
  0
TEXT
  5
8F6
330
6E5
100
AcDbEntity
  8
TEXT
100
AcDbText
 10
28.8130625
 20
0.9156645484570347
 30
0.0
 40
0.375
  1
20
 41
0.75
  7
TXT
 72
     4
 11
29.024
 21
1.103164548457034
 31
0.0
100
AcDbText
  0
TEXT
  5
8F7
330
6E5
100
AcDbEntity
  8
TEXT
100
AcDbText
 10
28.8130625
 20
1.540664548457034
 30
0.0
 40
0.375
  1
20
 41
0.75
  7
TXT
 72
     4
 11
29.024
 21
1.728164548457034
 31
0.0
100
AcDbText
  0
TEXT
  5
8F8
330
6E5
100
AcDbEntity
  8
TEXT
100
AcDbText
 10
28.5318125
 20
4.665664548457034
 30
0.0
 40
0.375
  1
0.040
 41
0.75
  7
TXT
 72
     4
 11
29.024
 21
4.853164548457034
 31
0.0
100
AcDbText
  0
TEXT
  5
8F9
330
6E5
100
AcDbEntity
  8
TEXT
100
AcDbText
 10
28.5318125
 20
3.3749936453711
 30
0.0
 40
0.375
  1
0.040
 41
0.75
  7
TXT
 72
     4
 11
29.024
 21
3.5624936453711
 31
0.0
100
AcDbText
  0
TEXT
  5
8FA
330
6E5
100
AcDbEntity
  8
TEXT
100
AcDbText
 10
28.5318125
 20
2.790664548457034
 30
0.0
 40
0.375
  1
0.040
 41
0.75
  7
TXT
 72
     4
 11
29.024
 21
2.978164548457034
 31
0.0
100
AcDbText
  0
TEXT
  5
8FB
330
6E5
100
AcDbEntity
  8
TEXT
100
AcDbText
 10
28.5318125
 20
4.040664548457034
 30
0.0
 40
0.375
  1
0.040
 41
0.75
  7
TXT
 72
     4
 11
29.024
 21
4.228164548457034
 31
0.0
100
AcDbText
  0
TEXT
  5
8FC
330
6E5
100
AcDbEntity
  8
TEXT
100
AcDbText
 10
28.8130625
 20
5.290664548457034
 30
0.0
 40
0.375
  1
20
 41
0.75
  7
TXT
 72
     4
 11
29.024
 21
5.478164548457034
 31
0.0
100
AcDbText
  0
TEXT
  5
8FD
330
6E5
100
AcDbEntity
  8
TEXT
100
AcDbText
 10
28.8130625
 20
5.915664548457034
 30
0.0
 40
0.375
  1
20
 41
0.75
  7
TXT
 72
     4
 11
29.024
 21
6.103164548457034
 31
0.0
100
AcDbText
  0
TEXT
  5
8FE
330
6E5
100
AcDbEntity
  8
TEXT
100
AcDbText
 10
28.8130625
 20
6.540664548457034
 30
0.0
 40
0.375
  1
20
 41
0.75
  7
TXT
 72
     4
 11
29.024
 21
6.728164548457034
 31
0.0
100
AcDbText
  0
TEXT
  5
8FF
330
6E5
100
AcDbEntity
  8
TEXT
100
AcDbText
 10
28.8130625
 20
7.165664548457034
 30
0.0
 40
0.375
  1
20
 41
0.75
  7
TXT
 72
     4
 11
29.024
 21
7.353164548457034
 31
0.0
100
AcDbText
  0
TEXT
  5
900
330
6E5
100
AcDbEntity
  8
TEXT
100
AcDbText
 10
28.8130625
 20
9.040664548457037
 30
0.0
 40
0.375
  1
20
 41
0.75
  7
TXT
 72
     4
 11
29.024
 21
9.228164548457037
 31
0.0
100
AcDbText
  0
TEXT
  5
901
330
6E5
100
AcDbEntity
  8
TEXT
100
AcDbText
 10
28.8130625
 20
7.790664548457034
 30
0.0
 40
0.375
  1
20
 41
0.75
  7
TXT
 72
     4
 11
29.024
 21
7.978164548457034
 31
0.0
100
AcDbText
  0
TEXT
  5
902
330
6E5
100
AcDbEntity
  8
TEXT
100
AcDbText
 10
28.8130625
 20
8.415664548457037
 30
0.0
 40
0.375
  1
20
 41
0.75
  7
TXT
 72
     4
 11
29.024
 21
8.603164548457037
 31
0.0
100
AcDbText
  0
TEXT
  5
903
330
6E5
100
AcDbEntity
  8
TEXT
100
AcDbText
 10
19.2615
 20
9.040664548457037
 30
0.0
 40
0.375
  1
3.937
 41
0.75
  7
TXT
 72
     4
 11
19.824
 21
9.228164548457037
 31
0.0
100
AcDbText
  0
TEXT
  5
904
330
6E5
100
AcDbEntity
  8
TEXT
100
AcDbText
 10
19.2615
 20
8.415664548457037
 30
0.0
 40
0.375
  1
4.937
 41
0.75
  7
TXT
 72
     4
 11
19.824
 21
8.603164548457037
 31
0.0
100
AcDbText
  0
TEXT
  5
905
330
6E5
100
AcDbEntity
  8
TEXT
100
AcDbText
 10
19.2615
 20
7.790664548457034
 30
0.0
 40
0.375
  1
9.937
 41
0.75
  7
TXT
 72
     4
 11
19.824
 21
7.978164548457034
 31
0.0
100
AcDbText
  0
TEXT
  5
906
330
6E5
100
AcDbEntity
  8
TEXT
100
AcDbText
 10
19.2615
 20
7.165664548457034
 30
0.0
 40
0.375
  1
9.937
 41
0.75
  7
TXT
 72
     4
 11
19.824
 21
7.353164548457034
 31
0.0
100
AcDbText
  0
TEXT
  5
907
330
6E5
100
AcDbEntity
  8
TEXT
100
AcDbText
 10
19.214625
 20
6.540664548457034
 30
0.0
 40
0.375
  1
11.937
 41
0.75
  7
TXT
 72
     4
 11
19.824
 21
6.728164548457034
 31
0.0
100
AcDbText
  0
TEXT
  5
908
330
6E5
100
AcDbEntity
  8
TEXT
100
AcDbText
 10
19.16775
 20
5.915664548457034
 30
0.0
 40
0.375
  1
14.937
 41
0.75
  7
TXT
 72
     4
 11
19.824
 21
6.103164548457034
 31
0.0
100
AcDbText
  0
TEXT
  5
909
330
6E5
100
AcDbEntity
  8
TEXT
100
AcDbText
 10
19.2615
 20
5.290664548457034
 30
0.0
 40
0.375
  1
3.937
 41
0.75
  7
TXT
 72
     4
 11
19.824
 21
5.478164548457034
 31
0.0
100
AcDbText
  0
TEXT
  5
90A
330
6E5
100
AcDbEntity
  8
TEXT
100
AcDbText
 10
19.2615
 20
4.665664548457034
 30
0.0
 40
0.375
  1
3.937
 41
0.75
  7
TXT
 72
     4
 11
19.824
 21
4.853164548457034
 31
0.0
100
AcDbText
  0
TEXT
  5
90B
330
6E5
100
AcDbEntity
  8
TEXT
100
AcDbText
 10
19.2615
 20
4.040664548457034
 30
0.0
 40
0.375
  1
4.937
 41
0.75
  7
TXT
 72
     4
 11
19.824
 21
4.228164548457034
 31
0.0
100
AcDbText
  0
TEXT
  5
90C
330
6E5
100
AcDbEntity
  8
TEXT
100
AcDbText
 10
19.2615
 20
3.415664548457034
 30
0.0
 40
0.375
  1
5.937
 41
0.75
  7
TXT
 72
     4
 11
19.824
 21
3.603164548457034
 31
0.0
100
AcDbText
  0
TEXT
  5
90D
330
6E5
100
AcDbEntity
  8
TEXT
100
AcDbText
 10
19.2615
 20
2.790664548457034
 30
0.0
 40
0.375
  1
8.937
 41
0.75
  7
TXT
 72
     4
 11
19.824
 21
2.978164548457034
 31
0.0
100
AcDbText
  0
TEXT
  5
90E
330
6E5
100
AcDbEntity
  8
TEXT
100
AcDbText
 10
19.2615
 20
2.165664548457034
 30
0.0
 40
0.375
  1
3.937
 41
0.75
  7
TXT
 72
     4
 11
19.824
 21
2.353164548457034
 31
0.0
100
AcDbText
  0
TEXT
  5
90F
330
6E5
100
AcDbEntity
  8
TEXT
100
AcDbText
 10
19.2615
 20
1.540664548457034
 30
0.0
 40
0.375
  1
5.937
 41
0.75
  7
TXT
 72
     4
 11
19.824
 21
1.728164548457034
 31
0.0
100
AcDbText
  0
TEXT
  5
910
330
6E5
100
AcDbEntity
  8
TEXT
100
AcDbText
 10
19.2615
 20
0.9156645484570347
 30
0.0
 40
0.375
  1
8.937
 41
0.75
  7
TXT
 72
     4
 11
19.824
 21
1.103164548457034
 31
0.0
100
AcDbText
  0
TEXT
  5
911
330
6E5
100
AcDbEntity
  8
TEXT
100
AcDbText
 10
19.214625
 20
0.2906645484570359
 30
0.0
 40
0.375
  1
11.937
 41
0.75
  7
TXT
 72
     4
 11
19.824
 21
0.4781645484570359
 31
0.0
100
AcDbText
  0
TEXT
  5
912
330
6E5
100
AcDbEntity
  8
TEXT
100
AcDbText
 10
21.56149999999999
 20
9.040664548457037
 30
0.0
 40
0.375
  1
4.937
 41
0.75
  7
TXT
 72
     4
 11
22.124
 21
9.228164548457037
 31
0.0
100
AcDbText
  0
TEXT
  5
913
330
6E5
100
AcDbEntity
  8
TEXT
100
AcDbText
 10
21.56149999999999
 20
8.415664548457037
 30
0.0
 40
0.375
  1
5.937
 41
0.75
  7
TXT
 72
     4
 11
22.124
 21
8.603164548457037
 31
0.0
100
AcDbText
  0
TEXT
  5
914
330
6E5
100
AcDbEntity
  8
TEXT
100
AcDbText
 10
21.56149999999999
 20
7.790664548457034
 30
0.0
 40
0.375
  1
7.937
 41
0.75
  7
TXT
 72
     4
 11
22.124
 21
7.978164548457034
 31
0.0
100
AcDbText
  0
TEXT
  5
915
330
6E5
100
AcDbEntity
  8
TEXT
100
AcDbText
 10
21.56149999999999
 20
7.165664548457034
 30
0.0
 40
0.375
  1
9.937
 41
0.75
  7
TXT
 72
     4
 11
22.124
 21
7.353164548457034
 31
0.0
100
AcDbText
  0
TEXT
  5
916
330
6E5
100
AcDbEntity
  8
TEXT
100
AcDbText
 10
21.49118749999999
 20
6.540664548457034
 30
0.0
 40
0.375
  1
10.937
 41
0.75
  7
TXT
 72
     4
 11
22.124
 21
6.728164548457034
 31
0.0
100
AcDbText
  0
TEXT
  5
917
330
6E5
100
AcDbEntity
  8
TEXT
100
AcDbText
 10
21.56149999999999
 20
5.915664548457034
 30
0.0
 40
0.375
  1
8.937
 41
0.75
  7
TXT
 72
     4
 11
22.124
 21
6.103164548457034
 31
0.0
100
AcDbText
  0
TEXT
  5
918
330
6E5
100
AcDbEntity
  8
TEXT
100
AcDbText
 10
21.56149999999999
 20
5.290664548457034
 30
0.0
 40
0.375
  1
3.937
 41
0.75
  7
TXT
 72
     4
 11
22.124
 21
5.478164548457034
 31
0.0
100
AcDbText
  0
TEXT
  5
919
330
6E5
100
AcDbEntity
  8
TEXT
100
AcDbText
 10
21.56149999999999
 20
4.665664548457034
 30
0.0
 40
0.375
  1
4.937
 41
0.75
  7
TXT
 72
     4
 11
22.124
 21
4.853164548457034
 31
0.0
100
AcDbText
  0
TEXT
  5
91A
330
6E5
100
AcDbEntity
  8
TEXT
100
AcDbText
 10
21.56149999999999
 20
4.040664548457034
 30
0.0
 40
0.375
  1
5.937
 41
0.75
  7
TXT
 72
     4
 11
22.124
 21
4.228164548457034
 31
0.0
100
AcDbText
  0
TEXT
  5
91B
330
6E5
100
AcDbEntity
  8
TEXT
100
AcDbText
 10
21.56149999999999
 20
3.415664548457034
 30
0.0
 40
0.375
  1
5.937
 41
0.75
  7
TXT
 72
     4
 11
22.124
 21
3.603164548457034
 31
0.0
100
AcDbText
  0
TEXT
  5
91C
330
6E5
100
AcDbEntity
  8
TEXT
100
AcDbText
 10
21.56149999999999
 20
2.790664548457034
 30
0.0
 40
0.375
  1
5.937
 41
0.75
  7
TXT
 72
     4
 11
22.124
 21
2.978164548457034
 31
0.0
100
AcDbText
  0
TEXT
  5
91D
330
6E5
100
AcDbEntity
  8
TEXT
100
AcDbText
 10
21.56149999999999
 20
2.165664548457034
 30
0.0
 40
0.375
  1
3.937
 41
0.75
  7
TXT
 72
     4
 11
22.124
 21
2.353164548457034
 31
0.0
100
AcDbText
  0
TEXT
  5
91E
330
6E5
100
AcDbEntity
  8
TEXT
100
AcDbText
 10
21.56149999999999
 20
1.540664548457034
 30
0.0
 40
0.375
  1
5.937
 41
0.75
  7
TXT
 72
     4
 11
22.124
 21
1.728164548457034
 31
0.0
100
AcDbText
  0
TEXT
  5
91F
330
6E5
100
AcDbEntity
  8
TEXT
100
AcDbText
 10
21.56149999999999
 20
0.9156645484570347
 30
0.0
 40
0.375
  1
5.937
 41
0.75
  7
TXT
 72
     4
 11
22.124
 21
1.103164548457034
 31
0.0
100
AcDbText
  0
TEXT
  5
920
330
6E5
100
AcDbEntity
  8
TEXT
100
AcDbText
 10
21.56149999999999
 20
0.2906645484570359
 30
0.0
 40
0.375
  1
6.937
 41
0.75
  7
TXT
 72
     4
 11
22.124
 21
0.4781645484570359
 31
0.0
100
AcDbText
  0
TEXT
  5
921
330
6E5
100
AcDbEntity
  8
TEXT
100
AcDbText
 10
23.86150000000001
 20
9.040664548457037
 30
0.0
 40
0.375
  1
3.937
 41
0.75
  7
TXT
 72
     4
 11
24.42400000000001
 21
9.228164548457037
 31
0.0
100
AcDbText
  0
TEXT
  5
922
330
6E5
100
AcDbEntity
  8
TEXT
100
AcDbText
 10
23.86150000000001
 20
8.415664548457037
 30
0.0
 40
0.375
  1
4.937
 41
0.75
  7
TXT
 72
     4
 11
24.42400000000001
 21
8.603164548457037
 31
0.0
100
AcDbText
  0
TEXT
  5
923
330
6E5
100
AcDbEntity
  8
TEXT
100
AcDbText
 10
23.9318125
 20
7.790664548457034
 30
0.0
 40
0.375
  1
6.000
 41
0.75
  7
TXT
 72
     4
 11
24.42400000000001
 21
7.978164548457034
 31
0.0
100
AcDbText
  0
TEXT
  5
924
330
6E5
100
AcDbEntity
  8
TEXT
100
AcDbText
 10
23.9318125
 20
7.165664548457034
 30
0.0
 40
0.375
  1
8.000
 41
0.75
  7
TXT
 72
     4
 11
24.42400000000001
 21
7.353164548457034
 31
0.0
100
AcDbText
  0
TEXT
  5
925
330
6E5
100
AcDbEntity
  8
TEXT
100
AcDbText
 10
23.9318125
 20
6.540664548457034
 30
0.0
 40
0.375
  1
9.000
 41
0.75
  7
TXT
 72
     4
 11
24.42400000000001
 21
6.728164548457034
 31
0.0
100
AcDbText
  0
TEXT
  5
926
330
6E5
100
AcDbEntity
  8
TEXT
100
AcDbText
 10
23.9318125
 20
5.915664548457034
 30
0.0
 40
0.375
  1
7.000
 41
0.75
  7
TXT
 72
     4
 11
24.42400000000001
 21
6.103164548457034
 31
0.0
100
AcDbText
  0
TEXT
  5
927
330
6E5
100
AcDbEntity
  8
TEXT
100
AcDbText
 10
23.86150000000001
 20
5.290664548457034
 30
0.0
 40
0.375
  1
2.937
 41
0.75
  7
TXT
 72
     4
 11
24.42400000000001
 21
5.478164548457034
 31
0.0
100
AcDbText
  0
TEXT
  5
928
330
6E5
100
AcDbEntity
  8
TEXT
100
AcDbText
 10
23.86150000000001
 20
4.665664548457034
 30
0.0
 40
0.375
  1
3.937
 41
0.75
  7
TXT
 72
     4
 11
24.42400000000001
 21
4.853164548457034
 31
0.0
100
AcDbText
  0
TEXT
  5
929
330
6E5
100
AcDbEntity
  8
TEXT
100
AcDbText
 10
23.86150000000001
 20
4.040664548457034
 30
0.0
 40
0.375
  1
4.937
 41
0.75
  7
TXT
 72
     4
 11
24.42400000000001
 21
4.228164548457034
 31
0.0
100
AcDbText
  0
TEXT
  5
92A
330
6E5
100
AcDbEntity
  8
TEXT
100
AcDbText
 10
23.86150000000001
 20
3.415664548457034
 30
0.0
 40
0.375
  1
4.937
 41
0.75
  7
TXT
 72
     4
 11
24.42400000000001
 21
3.603164548457034
 31
0.0
100
AcDbText
  0
TEXT
  5
92B
330
6E5
100
AcDbEntity
  8
TEXT
100
AcDbText
 10
23.9318125
 20
2.790664548457034
 30
0.0
 40
0.375
  1
4.000
 41
0.75
  7
TXT
 72
     4
 11
24.42400000000001
 21
2.978164548457034
 31
0.0
100
AcDbText
  0
TEXT
  5
92C
330
6E5
100
AcDbEntity
  8
TEXT
100
AcDbText
 10
23.86150000000001
 20
2.165664548457034
 30
0.0
 40
0.375
  1
2.937
 41
0.75
  7
TXT
 72
     4
 11
24.42400000000001
 21
2.353164548457034
 31
0.0
100
AcDbText
  0
TEXT
  5
92D
330
6E5
100
AcDbEntity
  8
TEXT
100
AcDbText
 10
23.86150000000001
 20
1.540664548457034
 30
0.0
 40
0.375
  1
4.937
 41
0.75
  7
TXT
 72
     4
 11
24.42400000000001
 21
1.728164548457034
 31
0.0
100
AcDbText
  0
TEXT
  5
92E
330
6E5
100
AcDbEntity
  8
TEXT
100
AcDbText
 10
23.9318125
 20
0.9156645484570347
 30
0.0
 40
0.375
  1
4.000
 41
0.75
  7
TXT
 72
     4
 11
24.42400000000001
 21
1.103164548457034
 31
0.0
100
AcDbText
  0
TEXT
  5
92F
330
6E5
100
AcDbEntity
  8
TEXT
100
AcDbText
 10
23.9318125
 20
0.2906645484570359
 30
0.0
 40
0.375
  1
5.000
 41
0.75
  7
TXT
 72
     4
 11
24.42400000000001
 21
0.4781645484570359
 31
0.0
100
AcDbText
  0
TEXT
  5
930
330
6E5
100
AcDbEntity
  8
TEXT
100
AcDbText
 10
26.1615
 20
7.790664548457034
 30
0.0
 40
0.375
  1
4.968
 41
0.75
  7
TXT
 72
     4
 11
26.724
 21
7.978164548457034
 31
0.0
100
AcDbText
  0
TEXT
  5
931
330
6E5
100
AcDbEntity
  8
TEXT
100
AcDbText
 10
26.1615
 20
7.165664548457034
 30
0.0
 40
0.375
  1
4.968
 41
0.75
  7
TXT
 72
     4
 11
26.724
 21
7.353164548457034
 31
0.0
100
AcDbText
  0
TEXT
  5
932
330
6E5
100
AcDbEntity
  8
TEXT
100
AcDbText
 10
26.1615
 20
6.540664548457034
 30
0.0
 40
0.375
  1
5.968
 41
0.75
  7
TXT
 72
     4
 11
26.724
 21
6.728164548457034
 31
0.0
100
AcDbText
  0
TEXT
  5
933
330
6E5
100
AcDbEntity
  8
TEXT
100
AcDbText
 10
26.1615
 20
5.915664548457034
 30
0.0
 40
0.375
  1
7.468
 41
0.75
  7
TXT
 72
     4
 11
26.724
 21
6.103164548457034
 31
0.0
100
AcDbText
  0
TEXT
  5
934
330
6E5
100
AcDbEntity
  8
TEXT
100
AcDbText
 10
26.1615
 20
2.790664548457034
 30
0.0
 40
0.375
  1
4.468
 41
0.75
  7
TXT
 72
     4
 11
26.724
 21
2.978164548457034
 31
0.0
100
AcDbText
  0
TEXT
  5
935
330
6E5
100
AcDbEntity
  8
TEXT
100
AcDbText
 10
26.1615
 20
0.9156645484570347
 30
0.0
 40
0.375
  1
4.468
 41
0.75
  7
TXT
 72
     4
 11
26.724
 21
1.103164548457034
 31
0.0
100
AcDbText
  0
TEXT
  5
936
330
6E5
100
AcDbEntity
  8
TEXT
100
AcDbText
 10
26.1615
 20
0.2906645484570359
 30
0.0
 40
0.375
  1
5.968
 41
0.75
  7
TXT
 72
     4
 11
26.724
 21
0.4781645484570359
 31
0.0
100
AcDbText
  0
DIMENSION
  5
937
330
6E5
100
AcDbEntity
  8
DIM
100
AcDbDimension
  2
*D12
 10
1.994985459602546
 20
14.33348720909717
 30
0.0
 11
1.994985459602544
 21
18.80198720909717
 31
0.0
 70
    32
  1
G
 71
     5
 42
8.936999999999997
  3
STD
100
AcDbAlignedDimension
 13
3.538157398256148
 23
23.27048720909716
 33
0.0
 14
3.538157398256148
 24
14.33348720909717
 34
0.0
 50
90.0
100
AcDbRotatedDimension
  0
DIMENSION
  5
945
330
6E5
100
AcDbEntity
  8
DIM
100
AcDbDimension
  2
*D13
 10
2.837985459602546
 20
28.14833989824265
 30
0.0
 11
2.837985459602542
 21
30.39833989824265
 31
0.0
 70
    32
  1
E
 71
     5
 42
4.499999999999996
  3
STD
100
AcDbAlignedDimension
 13
3.725657398256144
 23
32.64833989824264
 33
0.0
 14
3.506657398256149
 24
28.14833989824265
 34
0.0
 50
90.0
100
AcDbRotatedDimension
  0
DIMENSION
  5
953
330
6E5
100
AcDbEntity
  8
DIM
100
AcDbDimension
  2
*D14
 10
8.50665739825615
 20
27.46528866034028
 30
0.0
 11
6.50665739825615
 21
27.46528866034028
 31
0.0
 70
    32
  1
D
 71
     5
 42
4.0
  3
STD
100
AcDbAlignedDimension
 13
4.50665739825615
 23
28.36733989824265
 33
0.0
 14
8.50665739825615
 24
28.36733989824265
 34
0.0
100
AcDbRotatedDimension
  0
TEXT
  5
961
330
6E5
100
AcDbEntity
  8
TEXT
100
AcDbText
 10
5.681807398256147
 20
12.4762388140144
 30
0.0
 40
0.468
  1
%%uPANEL
 41
0.75
  7
TXT
 72
     1
 11
6.506657398256146
 21
12.4762388140144
 31
0.0
100
AcDbText
  0
TEXT
  5
962
330
6E5
100
AcDbEntity
  8
TEXT
100
AcDbText
 10
5.857307398256146
 20
26.37120927075335
 30
0.0
 40
0.468
  1
%%uBODY
 41
0.75
  7
TXT
 72
     1
 11
6.506657398256146
 21
26.37120927075335
 31
0.0
100
AcDbText
  0
LINE
  5
963
330
6E5
100
AcDbEntity
  8
OBJECT
100
AcDbLine
 10
21.57376456415631
 20
23.42196756628989
 30
0.0
 11
25.90389158307849
 21
25.9219675662899
 31
0.0
  0
LINE
  5
964
330
6E5
100
AcDbEntity
  8
OBJECT
100
AcDbLine
 10
25.90389158307849
 20
25.9219675662899
 30
0.0
 11
20.70773916037186
 21
28.92196756628989
 31
0.0
  0
LINE
  5
965
330
6E5
100
AcDbEntity
  8
OBJECT
100
AcDbLine
 10
20.70773916037186
 20
28.92196756628989
 30
0.0
 11
16.37761214144968
 21
26.42196756628989
 31
0.0
  0
LINE
  5
966
330
6E5
100
AcDbEntity
  8
OBJECT
100
AcDbLine
 10
16.37761214144968
 20
26.42196756628989
 30
0.0
 11
21.57376456415631
 21
23.42196756628989
 31
0.0
  0
LINE
  5
967
330
6E5
100
AcDbEntity
  8
OBJECT
100
AcDbLine
 10
21.57376456415631
 20
23.42196756628989
 30
0.0
 11
21.57376456415631
 21
14.42196756628989
 31
0.0
  0
LINE
  5
968
330
6E5
100
AcDbEntity
  8
OBJECT
100
AcDbLine
 10
21.57376456415631
 20
14.42196756628989
 30
0.0
 11
25.90389158307849
 21
16.9219675662899
 31
0.0
  0
LINE
  5
969
330
6E5
100
AcDbEntity
  8
OBJECT
100
AcDbLine
 10
25.90389158307849
 20
16.9219675662899
 30
0.0
 11
25.90389158307849
 21
25.9219675662899
 31
0.0
  0
LINE
  5
96A
330
6E5
100
AcDbEntity
  8
OBJECT
100
AcDbLine
 10
16.37761214144968
 20
26.42196756628989
 30
0.0
 11
16.37761214144968
 21
23.02838099548293
 31
0.0
  0
LINE
  5
96B
330
6E5
100
AcDbEntity
  8
OBJECT
100
AcDbLine
 10
18.63483238389576
 20
16.11876085169339
 30
0.0
 11
21.57376456415631
 21
14.42196756628989
 31
0.0
  0
LINE
  5
96C
330
6E5
100
AcDbEntity
  8
OBJECT
100
AcDbLine
 10
21.14075186226408
 20
23.17196756628989
 30
0.0
 11
21.14075186226408
 21
15.17196756628989
 31
0.0
  0
LINE
  5
96D
330
6E5
100
AcDbEntity
  8
OBJECT
100
AcDbLine
 10
16.81062484334189
 20
25.67196756628991
 30
0.0
 11
16.81062484334189
 21
22.77838099548293
 31
0.0
  0
LINE
  5
96E
330
6E5
100
AcDbEntity
  8
OBJECT
100
AcDbLine
 10
16.81062484334189
 20
25.67196756628991
 30
0.0
 11
21.14075186226408
 21
23.17196756628989
 31
0.0
  0
LINE
  5
96F
330
6E5
100
AcDbEntity
  8
OBJECT
100
AcDbLine
 10
18.63483238389576
 20
16.61876085169339
 30
0.0
 11
21.14075186226408
 21
15.17196756628989
 31
0.0
  0
LINE
  5
970
330
6E5
100
AcDbEntity
  8
OBJECT
100
AcDbLine
 10
20.70773916037186
 20
19.9219675662899
 30
0.0
 11
20.70773916037186
 21
23.42196756628989
 31
0.0
  0
LINE
  5
971
330
6E5
100
AcDbEntity
  8
OBJECT
100
AcDbLine
 10
18.63483238389576
 20
18.72517428088642
 30
0.0
 11
21.14075186226408
 21
20.1719675662899
 31
0.0
  0
LINE
  5
972
330
6E5
100
AcDbEntity
  8
OBJECT
100
AcDbLine
 10
21.14075186226408
 20
19.6719675662899
 30
0.0
 11
20.70773916037186
 21
19.9219675662899
 31
0.0
  0
LINE
  5
973
330
6E5
100
AcDbEntity
  8
OBJECT
100
AcDbLine
 10
18.63483238389576
 20
16.65876085169339
 30
0.0
 11
21.14075186226408
 21
15.2119675662899
 31
0.0
  0
LINE
  5
974
330
6E5
100
AcDbEntity
  8
OBJECT
100
AcDbLine
 10
16.84526585949327
 20
25.65196756628989
 30
0.0
 11
16.84526585949327
 21
22.75838099548292
 31
0.0
  0
LINE
  5
975
330
6E5
100
AcDbEntity
  8
OBJECT
100
AcDbLine
 10
16.37761214144968
 20
26.42196756628989
 30
0.0
 11
16.81062484334189
 21
25.67196756628991
 31
0.0
  0
LINE
  5
976
330
6E5
100
AcDbEntity
  8
OBJECT
100
AcDbLine
 10
21.14075186226408
 20
23.17196756628989
 30
0.0
 11
21.57376456415631
 21
23.42196756628989
 31
0.0
  0
LINE
  5
977
330
6E5
100
AcDbEntity
  8
OBJECT
100
AcDbLine
 10
21.14075186226408
 20
15.17196756628989
 30
0.0
 11
21.57376456415631
 21
14.42196756628989
 31
0.0
  0
LWPOLYLINE
  5
978
330
6E5
100
AcDbEntity
  8
OBJECT
100
AcDbPolyline
 90
        5
 70
     0
 43
0.0
 10
21.33695415721834
 20
19.15313522286753
 42
0.043658266497367
 10
21.33300894813082
 20
19.1461171643098
 42
0.1066170543910372
 10
21.32434924786639
 20
19.10596756628989
 42
0.0723410840576837
 10
21.33066959530633
 20
19.06251181998364
 42
0.0587518675353974
 10
21.35199742138805
 20
19.01293024671524
 42
0.0587518675354286
  0
LWPOLYLINE
  5
97F
330
6E5
100
AcDbEntity
  8
OBJECT
100
AcDbPolyline
 90
       16
 70
     1
 43
0.0
 10
21.31735640523668
 20
18.99293024671523
 42
0.0587518675353819
 10
21.34963139420585
 20
18.94966902088676
 42
0.072341084057668
 10
21.38410500072752
 20
18.92246756628991
 42
0.1066170543909946
 10
21.4232054226967
 20
18.90989228769809
 42
0.1568512196707562
 10
21.45085359621836
 20
18.91585560756589
 42
0.1568512196707333
 10
21.4698420694756
 20
18.93681796826999
 42
0.106617054391019
 10
21.47850176974003
 20
18.9769675662899
 42
0.0723410840577069
 10
21.4721814223001
 20
19.02042331259614
 42
0.0587518675354496
 10
21.45085359621836
 20
19.07000488586457
 42
0.0587518675353891
 10
21.41857860724917
 20
19.11326611169307
 42
0.0723410840576091
 10
21.38410500072752
 20
19.14046756628989
 42
0.1066170543909946
 10
21.34500457875833
 20
19.15304284488171
 42
0.1568512196707562
 10
21.31735640523668
 20
19.14707952501389
 42
0.1568512196708196
 10
21.29836793197944
 20
19.1261171643098
 42
0.1066170543910372
 10
21.28970823171501
 20
19.08596756628989
 42
0.0723410840576603
 10
21.29602857915494
 20
19.04251181998364
 42
0.0587518675353452
  0
LWPOLYLINE
  5
991
330
6E5
100
AcDbEntity
  8
OBJECT
100
AcDbPolyline
 90
        5
 70
     0
 43
0.0
 10
21.35199742138805
 20
19.01293024671524
 42
0.0587518675354286
 10
21.38427241035724
 20
18.96966902088675
 42
0.072341084057673
 10
21.41874601687889
 20
18.94246756628991
 42
0.1066170543909678
 10
21.45784643884806
 20
18.92989228769809
 42
0.0436582664973572
 10
21.46589686038808
 20
18.92979990971228
 42
0.1568512196707675
  0
LWPOLYLINE
  5
998
330
6E5
100
AcDbEntity
  8
OBJECT
100
AcDbPolyline
 90
        5
 70
     0
 43
0.0
 10
20.70247836854973
 20
15.10693024671524
 42
0.0587518675354286
 10
20.73475335751892
 20
15.06366902088674
 42
0.072341084057673
 10
20.76922696404057
 20
15.03646756628989
 42
0.1066170543909678
 10
20.80832738600974
 20
15.0238922876981
 42
0.0436582664973572
 10
20.81637780754974
 20
15.02379990971227
 42
0.1568512196707675
  0
LWPOLYLINE
  5
99F
330
6E5
100
AcDbEntity
  8
OBJECT
100
AcDbPolyline
 90
       16
 70
     1
 43
0.0
 10
20.66783735239835
 20
15.08693024671524
 42
0.0587518675353819
 10
20.70011234136753
 20
15.04366902088676
 42
0.072341084057668
 10
20.73458594788919
 20
15.01646756628989
 42
0.1066170543909946
 10
20.77368636985836
 20
15.0038922876981
 42
0.1568512196707562
 10
20.80133454338004
 20
15.0098556075659
 42
0.1568512196707333
 10
20.82032301663728
 20
15.03081796827
 42
0.106617054391019
 10
20.82898271690169
 20
15.0709675662899
 42
0.0723410840577069
 10
20.82266236946176
 20
15.11442331259614
 42
0.0587518675354496
 10
20.80133454338004
 20
15.16400488586457
 42
0.0587518675353891
 10
20.76905955441084
 20
15.20726611169306
 42
0.0723410840576091
 10
20.73458594788919
 20
15.23446756628989
 42
0.1066170543909946
 10
20.69548552592
 20
15.24704284488169
 42
0.1568512196707562
 10
20.66783735239835
 20
15.2410795250139
 42
0.1568512196708196
 10
20.6488488791411
 20
15.2201171643098
 42
0.1066170543910372
 10
20.64018917887668
 20
15.17996756628989
 42
0.0723410840576603
 10
20.64650952631662
 20
15.13651181998364
 42
0.0587518675353452
  0
LWPOLYLINE
  5
9B1
330
6E5
100
AcDbEntity
  8
OBJECT
100
AcDbPolyline
 90
        5
 70
     0
 43
0.0
 10
20.68743510438002
 20
15.24713522286753
 42
0.043658266497367
 10
20.68348989529249
 20
15.2401171643098
 42
0.1066170543910372
 10
20.67483019502807
 20
15.1999675662899
 42
0.0723410840576837
 10
20.681150542468
 20
15.15651181998365
 42
0.0587518675353974
 10
20.70247836854973
 20
15.10693024671524
 42
0.0587518675354286
  0
LWPOLYLINE
  5
9B8
330
6E5
100
AcDbEntity
  8
OBJECT
100
AcDbPolyline
 90
       16
 70
     1
 43
0.0
 10
17.15004216222596
 20
25.67993024671523
 42
0.0587518675353819
 10
17.18231715119514
 20
25.63666902088675
 42
0.072341084057668
 10
17.2167907577168
 20
25.6094675662899
 42
0.1066170543909946
 10
17.25589117968598
 20
25.5968922876981
 42
0.1568512196707562
 10
17.28353935320764
 20
25.60285560756589
 42
0.1568512196707333
 10
17.30252782646488
 20
25.62381796826998
 42
0.106617054391019
 10
17.3111875267293
 20
25.6639675662899
 42
0.0723410840577069
 10
17.30486717928937
 20
25.70742331259614
 42
0.0587518675354496
 10
17.28353935320764
 20
25.75700488586456
 42
0.0587518675353891
 10
17.25126436423845
 20
25.80026611169305
 42
0.0723410840576091
 10
17.2167907577168
 20
25.82746756628989
 42
0.1066170543909946
 10
17.17769033574762
 20
25.8400428448817
 42
0.1568512196707562
 10
17.15004216222596
 20
25.8340795250139
 42
0.1568512196708196
 10
17.13105368896871
 20
25.8131171643098
 42
0.1066170543910372
 10
17.1223939887043
 20
25.77296756628989
 42
0.0723410840576603
 10
17.12871433614423
 20
25.72951181998363
 42
0.0587518675353452
  0
LWPOLYLINE
  5
9CA
330
6E5
100
AcDbEntity
  8
OBJECT
100
AcDbPolyline
 90
        5
 70
     0
 43
0.0
 10
17.18468317837733
 20
25.69993024671523
 42
0.0587518675354286
 10
17.21695816734651
 20
25.65666902088673
 42
0.072341084057673
 10
17.25143177386818
 20
25.62946756628989
 42
0.1066170543909678
 10
17.29053219583735
 20
25.6168922876981
 42
0.0436582664973572
 10
17.29858261737736
 20
25.61679990971227
 42
0.1568512196707675
  0
LWPOLYLINE
  5
9D1
330
6E5
100
AcDbEntity
  8
OBJECT
100
AcDbPolyline
 90
        5
 70
     0
 43
0.0
 10
17.16963991420762
 20
25.84013522286753
 42
0.043658266497367
 10
17.1656947051201
 20
25.8331171643098
 42
0.1066170543910372
 10
17.15703500485567
 20
25.79296756628989
 42
0.0723410840576837
 10
17.1633553522956
 20
25.74951181998365
 42
0.0587518675353974
 10
17.18468317837733
 20
25.69993024671523
 42
0.0587518675354286
  0
LWPOLYLINE
  5
9D8
330
6E5
100
AcDbEntity
  8
OBJECT
100
AcDbPolyline
 90
        5
 70
     0
 43
0.0
 10
20.68743510438002
 20
23.80913522286753
 42
0.043658266497367
 10
20.68348989529249
 20
23.80211716430979
 42
0.1066170543910372
 10
20.67483019502807
 20
23.76196756628989
 42
0.0723410840576837
 10
20.681150542468
 20
23.71851181998363
 42
0.0587518675353974
 10
20.70247836854973
 20
23.66893024671523
 42
0.0587518675354286
  0
LWPOLYLINE
  5
9DF
330
6E5
100
AcDbEntity
  8
OBJECT
100
AcDbPolyline
 90
       16
 70
     1
 43
0.0
 10
20.66783735239835
 20
23.64893024671523
 42
0.0587518675353819
 10
20.70011234136753
 20
23.60566902088675
 42
0.072341084057668
 10
20.73458594788919
 20
23.57846756628989
 42
0.1066170543909946
 10
20.77368636985836
 20
23.56589228769808
 42
0.1568512196707562
 10
20.80133454338004
 20
23.57185560756589
 42
0.1568512196707333
 10
20.82032301663728
 20
23.59281796826998
 42
0.106617054391019
 10
20.82898271690169
 20
23.63296756628989
 42
0.0723410840577069
 10
20.82266236946176
 20
23.67642331259613
 42
0.0587518675354496
 10
20.80133454338004
 20
23.72600488586456
 42
0.0587518675353891
 10
20.76905955441084
 20
23.76926611169305
 42
0.0723410840576091
 10
20.73458594788919
 20
23.79646756628989
 42
0.1066170543909946
 10
20.69548552592
 20
23.80904284488169
 42
0.1568512196707562
 10
20.66783735239835
 20
23.80307952501389
 42
0.1568512196708196
 10
20.6488488791411
 20
23.7821171643098
 42
0.1066170543910372
 10
20.64018917887668
 20
23.74196756628989
 42
0.0723410840576603
 10
20.64650952631662
 20
23.69851181998363
 42
0.0587518675353452
  0
LWPOLYLINE
  5
9F1
330
6E5
100
AcDbEntity
  8
OBJECT
100
AcDbPolyline
 90
        5
 70
     0
 43
0.0
 10
20.70247836854973
 20
23.66893024671523
 42
0.0587518675354286
 10
20.73475335751892
 20
23.62566902088673
 42
0.072341084057673
 10
20.76922696404057
 20
23.59846756628989
 42
0.1066170543909678
 10
20.80832738600974
 20
23.5858922876981
 42
0.0436582664973572
 10
20.81637780754974
 20
23.58579990971227
 42
0.1568512196707675
  0
LINE
  5
9F8
330
6E5
100
AcDbEntity
  8
OBJECT
100
AcDbLine
 10
13.43867996118912
 20
24.72517428088642
 30
0.0
 11
13.43867996118912
 21
15.72517428088642
 31
0.0
  0
LINE
  5
9F9
330
6E5
100
AcDbEntity
  8
OBJECT
100
AcDbLine
 10
18.63483238389576
 20
21.72517428088642
 30
0.0
 11
18.63483238389576
 21
12.72517428088641
 31
0.0
  0
LINE
  5
9FA
330
6E5
100
AcDbEntity
  8
OBJECT
100
AcDbLine
 10
13.43867996118912
 20
15.72517428088642
 30
0.0
 11
18.63483238389576
 21
12.72517428088641
 31
0.0
  0
LWPOLYLINE
  5
9FB
330
6E5
100
AcDbEntity
  8
OBJECT
100
AcDbPolyline
 90
       16
 70
     1
 43
0.0
 10
14.2111099819654
 20
15.42113696131175
 42
0.0587518675353819
 10
14.24338497093458
 20
15.37787573548327
 42
0.072341084057668
 10
14.27785857745624
 20
15.35067428088642
 42
0.1066170543909946
 10
14.31695899942542
 20
15.33809900229462
 42
0.1568512196707562
 10
14.34460717294708
 20
15.34406232216242
 42
0.1568512196707333
 10
14.36359564620432
 20
15.3650246828665
 42
0.106617054391019
 10
14.37225534646874
 20
15.40517428088642
 42
0.0723410840577069
 10
14.3659349990288
 20
15.44863002719266
 42
0.0587518675354496
 10
14.34460717294708
 20
15.49821160046108
 42
0.0587518675353891
 10
14.31233218397789
 20
15.54147282628957
 42
0.0723410840576091
 10
14.27785857745624
 20
15.56867428088642
 42
0.1066170543909946
 10
14.23875815548706
 20
15.58124955947822
 42
0.1568512196707562
 10
14.2111099819654
 20
15.57528623961041
 42
0.1568512196708196
 10
14.19212150870816
 20
15.55432387890632
 42
0.1066170543910372
 10
14.18346180844373
 20
15.51417428088641
 42
0.0723410840576603
 10
14.18978215588366
 20
15.47071853458015
 42
0.0587518675353452
  0
LWPOLYLINE
  5
A0D
330
6E5
100
AcDbEntity
  8
OBJECT
100
AcDbPolyline
 90
        5
 70
     0
 43
0.0
 10
14.24575099811677
 20
15.44113696131175
 42
0.0587518675354286
 10
14.27802598708597
 20
15.39787573548326
 42
0.072341084057673
 10
14.31249959360761
 20
15.37067428088642
 42
0.1066170543909678
 10
14.35160001557679
 20
15.35809900229462
 42
0.0436582664973572
 10
14.3596504371168
 20
15.35800662430878
 42
0.1568512196707675
  0
LWPOLYLINE
  5
A14
330
6E5
100
AcDbEntity
  8
OBJECT
100
AcDbPolyline
 90
        5
 70
     0
 43
0.0
 10
14.23070773394706
 20
15.58134193746405
 42
0.043658266497367
 10
14.22676252485953
 20
15.5743238789063
 42
0.1066170543910372
 10
14.21810282459511
 20
15.53417428088641
 42
0.0723410840576837
 10
14.22442317203504
 20
15.49071853458015
 42
0.0587518675353974
 10
14.24575099811677
 20
15.44113696131175
 42
0.0587518675354286
  0
LWPOLYLINE
  5
A1B
330
6E5
100
AcDbEntity
  8
OBJECT
100
AcDbPolyline
 90
        5
 70
     0
 43
0.0
 10
17.74850292411946
 20
13.55034193746404
 42
0.043658266497367
 10
17.74455771503193
 20
13.54332387890631
 42
0.1066170543910372
 10
17.73589801476751
 20
13.50317428088642
 42
0.0723410840576837
 10
17.74221836220744
 20
13.45971853458015
 42
0.0587518675353974
 10
17.76354618828916
 20
13.41013696131175
 42
0.0587518675354286
  0
LWPOLYLINE
  5
A22
330
6E5
100
AcDbEntity
  8
OBJECT
100
AcDbPolyline
 90
       16
 70
     1
 43
0.0
 10
17.72890517213778
 20
13.39013696131175
 42
0.0587518675353819
 10
17.76118016110697
 20
13.34687573548327
 42
0.072341084057668
 10
17.79565376762864
 20
13.31967428088641
 42
0.1066170543909946
 10
17.83475418959782
 20
13.30709900229461
 42
0.1568512196707562
 10
17.86240236311948
 20
13.31306232216242
 42
0.1568512196707333
 10
17.88139083637672
 20
13.3340246828665
 42
0.106617054391019
 10
17.89005053664114
 20
13.37417428088641
 42
0.0723410840577069
 10
17.8837301892012
 20
13.41763002719265
 42
0.0587518675354496
 10
17.86240236311948
 20
13.46721160046108
 42
0.0587518675353891
 10
17.83012737415028
 20
13.51047282628957
 42
0.0723410840576091
 10
17.79565376762864
 20
13.53767428088641
 42
0.1066170543909946
 10
17.75655334565946
 20
13.55024955947822
 42
0.1568512196707562
 10
17.72890517213778
 20
13.5442862396104
 42
0.1568512196708196
 10
17.70991669888055
 20
13.52332387890631
 42
0.1066170543910372
 10
17.70125699861613
 20
13.48317428088641
 42
0.0723410840576603
 10
17.70757734605606
 20
13.43971853458015
 42
0.0587518675353452
  0
LWPOLYLINE
  5
A34
330
6E5
100
AcDbEntity
  8
OBJECT
100
AcDbPolyline
 90
        5
 70
     0
 43
0.0
 10
17.76354618828916
 20
13.41013696131175
 42
0.0587518675354286
 10
17.79582117725836
 20
13.36687573548326
 42
0.072341084057673
 10
17.83029478378001
 20
13.33967428088641
 42
0.1066170543909678
 10
17.86939520574919
 20
13.3270990022946
 42
0.0436582664973572
 10
17.87744562728919
 20
13.32700662430879
 42
0.1568512196707675
  0
LWPOLYLINE
  5
A3B
330
6E5
100
AcDbEntity
  8
OBJECT
100
AcDbPolyline
 90
       16
 70
     1
 43
0.0
 10
18.37842422497612
 20
17.29613696131174
 42
0.0587518675353819
 10
18.41069921394529
 20
17.25287573548326
 42
0.072341084057668
 10
18.44517282046696
 20
17.22567428088642
 42
0.1066170543909946
 10
18.48427324243615
 20
17.21309900229462
 42
0.1568512196707562
 10
18.5119214159578
 20
17.21906232216242
 42
0.1568512196707333
 10
18.53090988921503
 20
17.2400246828665
 42
0.106617054391019
 10
18.53956958947946
 20
17.28017428088642
 42
0.0723410840577069
 10
18.53324924203953
 20
17.32363002719266
 42
0.0587518675354496
 10
18.5119214159578
 20
17.37321160046108
 42
0.0587518675353891
 10
18.47964642698861
 20
17.41647282628958
 42
0.0723410840576091
 10
18.44517282046696
 20
17.44367428088642
 42
0.1066170543909946
 10
18.40607239849778
 20
17.45624955947822
 42
0.1568512196707562
 10
18.37842422497612
 20
17.45028623961042
 42
0.1568512196708196
 10
18.35943575171888
 20
17.42932387890632
 42
0.1066170543910372
 10
18.35077605145446
 20
17.38917428088641
 42
0.0723410840576603
 10
18.35709639889439
 20
17.34571853458015
 42
0.0587518675353452
  0
LWPOLYLINE
  5
A4D
330
6E5
100
AcDbEntity
  8
OBJECT
100
AcDbPolyline
 90
        5
 70
     0
 43
0.0
 10
18.4130652411275
 20
17.31613696131175
 42
0.0587518675354286
 10
18.44534023009669
 20
17.27287573548326
 42
0.072341084057673
 10
18.47981383661834
 20
17.24567428088642
 42
0.1066170543909678
 10
18.51891425858751
 20
17.23309900229462
 42
0.0436582664973572
 10
18.52696468012752
 20
17.23300662430878
 42
0.1568512196707675
  0
LWPOLYLINE
  5
A54
330
6E5
100
AcDbEntity
  8
OBJECT
100
AcDbPolyline
 90
        5
 70
     0
 43
0.0
 10
18.39802197695777
 20
17.45634193746405
 42
0.043658266497367
 10
18.39407676787025
 20
17.4493238789063
 42
0.1066170543910372
 10
18.38541706760582
 20
17.40917428088641
 42
0.0723410840576837
 10
18.39173741504576
 20
17.36571853458016
 42
0.0587518675353974
 10
18.4130652411275
 20
17.31613696131175
 42
0.0587518675354286
  0
LWPOLYLINE
  5
A5B
330
6E5
100
AcDbEntity
  8
OBJECT
100
AcDbPolyline
 90
       16
 70
     1
 43
0.0
 10
13.56159092912706
 20
20.07713696131175
 42
0.0587518675353819
 10
13.59386591809625
 20
20.03387573548327
 42
0.072341084057668
 10
13.62833952461791
 20
20.00667428088641
 42
0.1066170543909946
 10
13.66743994658708
 20
19.99409900229461
 42
0.1568512196707562
 10
13.69508812010876
 20
20.00006232216242
 42
0.1568512196707333
 10
13.714076593366
 20
20.02102468286651
 42
0.106617054391019
 10
13.72273629363041
 20
20.06117428088641
 42
0.0723410840577069
 10
13.71641594619049
 20
20.10463002719264
 42
0.0587518675354496
 10
13.69508812010876
 20
20.15421160046107
 42
0.0587518675353891
 10
13.66281313113955
 20
20.19747282628957
 42
0.0723410840576091
 10
13.62833952461791
 20
20.22467428088641
 42
0.1066170543909946
 10
13.58923910264873
 20
20.23724955947821
 42
0.1568512196707562
 10
13.56159092912706
 20
20.23128623961041
 42
0.1568512196708196
 10
13.54260245586982
 20
20.21032387890631
 42
0.1066170543910372
 10
13.53394275560541
 20
20.17017428088642
 42
0.0723410840576603
 10
13.54026310304534
 20
20.12671853458014
 42
0.0587518675353452
  0
LINE
  5
A6D
330
6E5
100
AcDbEntity
  8
OBJECT
100
AcDbLine
 10
13.43867996118912
 20
24.72517428088642
 30
0.0
 11
18.63483238389576
 21
21.72517428088642
 31
0.0
  0
LWPOLYLINE
  5
A6E
330
6E5
100
AcDbEntity
  8
OBJECT
100
AcDbPolyline
 90
        5
 70
     0
 43
0.0
 10
13.59623194527845
 20
20.09713696131175
 42
0.0587518675354286
 10
13.62850693424764
 20
20.05387573548326
 42
0.072341084057673
 10
13.66298054076928
 20
20.02667428088642
 42
0.1066170543909678
 10
13.70208096273846
 20
20.0140990022946
 42
0.0436582664973572
 10
13.71013138427846
 20
20.01400662430879
 42
0.1568512196707675
  0
LWPOLYLINE
  5
A75
330
6E5
100
AcDbEntity
  8
OBJECT
100
AcDbPolyline
 90
        5
 70
     0
 43
0.0
 10
13.58118868110874
 20
20.23734193746403
 42
0.043658266497367
 10
13.57724347202121
 20
20.23032387890631
 42
0.1066170543910372
 10
13.56858377175679
 20
20.19017428088642
 42
0.0723410840576837
 10
13.57490411919672
 20
20.14671853458016
 42
0.0587518675353974
 10
13.59623194527845
 20
20.09713696131175
 42
0.0587518675354286
  0
LWPOLYLINE
  5
A7C
330
6E5
100
AcDbEntity
  8
OBJECT
100
AcDbPolyline
 90
       16
 70
     1
 43
0.0
 10
14.2111099819654
 20
23.98313696131175
 42
0.0587518675353819
 10
14.24338497093458
 20
23.93987573548327
 42
0.072341084057668
 10
14.27785857745624
 20
23.91267428088641
 42
0.1066170543909946
 10
14.31695899942542
 20
23.9000990022946
 42
0.1568512196707562
 10
14.34460717294708
 20
23.9060623221624
 42
0.1568512196707333
 10
14.36359564620432
 20
23.92702468286651
 42
0.106617054391019
 10
14.37225534646874
 20
23.96717428088641
 42
0.0723410840577069
 10
14.3659349990288
 20
24.01063002719265
 42
0.0587518675354496
 10
14.34460717294708
 20
24.06021160046107
 42
0.0587518675353891
 10
14.31233218397789
 20
24.10347282628957
 42
0.0723410840576091
 10
14.27785857745624
 20
24.13067428088641
 42
0.1066170543909946
 10
14.23875815548706
 20
24.14324955947821
 42
0.1568512196707562
 10
14.2111099819654
 20
24.13728623961041
 42
0.1568512196708196
 10
14.19212150870816
 20
24.1163238789063
 42
0.1066170543910372
 10
14.18346180844373
 20
24.07617428088641
 42
0.0723410840576603
 10
14.18978215588366
 20
24.03271853458015
 42
0.0587518675353452
  0
LWPOLYLINE
  5
A8E
330
6E5
100
AcDbEntity
  8
OBJECT
100
AcDbPolyline
 90
        5
 70
     0
 43
0.0
 10
14.23070773394706
 20
24.14334193746404
 42
0.043658266497367
 10
14.22676252485953
 20
24.1363238789063
 42
0.1066170543910372
 10
14.21810282459511
 20
24.09617428088641
 42
0.0723410840576837
 10
14.22442317203504
 20
24.05271853458016
 42
0.0587518675353974
 10
14.24575099811677
 20
24.00313696131175
 42
0.0587518675354286
  0
LWPOLYLINE
  5
A95
330
6E5
100
AcDbEntity
  8
OBJECT
100
AcDbPolyline
 90
        5
 70
     0
 43
0.0
 10
14.24575099811677
 20
24.00313696131175
 42
0.0587518675354286
 10
14.27802598708597
 20
23.95987573548325
 42
0.072341084057673
 10
14.31249959360761
 20
23.93267428088641
 42
0.1066170543909678
 10
14.35160001557679
 20
23.9200990022946
 42
0.0436582664973572
 10
14.3596504371168
 20
23.92000662430878
 42
0.1568512196707675
  0
LWPOLYLINE
  5
A9C
330
6E5
100
AcDbEntity
  8
OBJECT
100
AcDbPolyline
 90
        5
 70
     0
 43
0.0
 10
17.76354618828916
 20
21.97213696131175
 42
0.0587518675354286
 10
17.79582117725836
 20
21.92887573548324
 42
0.072341084057673
 10
17.83029478378001
 20
21.9016742808864
 42
0.1066170543909678
 10
17.86939520574919
 20
21.8890990022946
 42
0.0436582664973572
 10
17.87744562728919
 20
21.88900662430877
 42
0.1568512196707675
  0
LWPOLYLINE
  5
AA3
330
6E5
100
AcDbEntity
  8
OBJECT
100
AcDbPolyline
 90
       16
 70
     1
 43
0.0
 10
17.72890517213778
 20
21.95213696131173
 42
0.0587518675353819
 10
17.76118016110697
 20
21.90887573548326
 42
0.072341084057668
 10
17.79565376762864
 20
21.8816742808864
 42
0.1066170543909946
 10
17.83475418959782
 20
21.8690990022946
 42
0.1568512196707562
 10
17.86240236311948
 20
21.87506232216241
 42
0.1568512196707333
 10
17.88139083637672
 20
21.8960246828665
 42
0.106617054391019
 10
17.89005053664114
 20
21.93617428088641
 42
0.0723410840577069
 10
17.8837301892012
 20
21.97963002719264
 42
0.0587518675354496
 10
17.86240236311948
 20
22.02921160046107
 42
0.0587518675353891
 10
17.83012737415028
 20
22.07247282628956
 42
0.0723410840576091
 10
17.79565376762864
 20
22.0996742808864
 42
0.1066170543909946
 10
17.75655334565946
 20
22.1122495594782
 42
0.1568512196707562
 10
17.72890517213778
 20
22.1062862396104
 42
0.1568512196708196
 10
17.70991669888055
 20
22.08532387890631
 42
0.1066170543910372
 10
17.70125699861613
 20
22.04517428088641
 42
0.0723410840576603
 10
17.70757734605606
 20
22.00171853458013
 42
0.0587518675353452
  0
LWPOLYLINE
  5
AB5
330
6E5
100
AcDbEntity
  8
OBJECT
100
AcDbPolyline
 90
        5
 70
     0
 43
0.0
 10
17.74850292411946
 20
22.11234193746403
 42
0.043658266497367
 10
17.74455771503193
 20
22.10532387890631
 42
0.1066170543910372
 10
17.73589801476751
 20
22.06517428088641
 42
0.0723410840576837
 10
17.74221836220744
 20
22.02171853458016
 42
0.0587518675353974
 10
17.76354618828916
 20
21.97213696131175
 42
0.0587518675354286
  0
LINE
  5
ABC
330
6E5
100
AcDbEntity
  8
OBJECT
100
AcDbLine
 10
23.30581537172518
 20
30.42196756628991
 30
0.0
 11
23.30581537172518
 21
27.42196756628989
 31
0.0
  0
LINE
  5
ABD
330
6E5
100
AcDbEntity
  8
OBJECT
100
AcDbLine
 10
23.30581537172518
 20
30.42196756628991
 30
0.0
 11
28.50196779443182
 21
27.42196756628989
 31
0.0
  0
LINE
  5
ABE
330
6E5
100
AcDbEntity
  8
OBJECT
100
AcDbLine
 10
28.50196779443182
 20
27.42196756628989
 30
0.0
 11
28.50196779443182
 21
18.4219675662899
 31
0.0
  0
LINE
  5
ABF
330
6E5
100
AcDbEntity
  8
OBJECT
100
AcDbLine
 10
25.90389158307849
 20
19.9219675662899
 30
0.0
 11
28.50196779443182
 21
18.4219675662899
 31
0.0
  0
LWPOLYLINE
  5
AC0
330
6E5
100
AcDbEntity
  8
OBJECT
100
AcDbPolyline
 90
        5
 70
     0
 43
0.0
 10
27.61563833465551
 20
19.24713522286752
 42
0.043658266497367
 10
27.61169312556798
 20
19.2401171643098
 42
0.1066170543910372
 10
27.60303342530356
 20
19.19996756628989
 42
0.0723410840576837
 10
27.6093537727435
 20
19.15651181998365
 42
0.0587518675353974
 10
27.63068159882523
 20
19.10693024671523
 42
0.0587518675354286
  0
LWPOLYLINE
  5
AC7
330
6E5
100
AcDbEntity
  8
OBJECT
100
AcDbPolyline
 90
       16
 70
     1
 43
0.0
 10
27.59604058267385
 20
19.08693024671523
 42
0.0587518675353819
 10
27.62831557164303
 20
19.04366902088676
 42
0.072341084057668
 10
27.66278917816469
 20
19.0164675662899
 42
0.1066170543909946
 10
27.70188960013387
 20
19.0038922876981
 42
0.1568512196707562
 10
27.72953777365554
 20
19.00985560756589
 42
0.1568512196707333
 10
27.74852624691277
 20
19.03081796827
 42
0.106617054391019
 10
27.75718594717719
 20
19.0709675662899
 42
0.0723410840577069
 10
27.75086559973726
 20
19.11442331259614
 42
0.0587518675354496
 10
27.72953777365554
 20
19.16400488586456
 42
0.0587518675353891
 10
27.69726278468635
 20
19.20726611169307
 42
0.0723410840576091
 10
27.66278917816469
 20
19.2344675662899
 42
0.1066170543909946
 10
27.62368875619551
 20
19.24704284488169
 42
0.1568512196707562
 10
27.59604058267385
 20
19.2410795250139
 42
0.1568512196708196
 10
27.57705210941661
 20
19.2201171643098
 42
0.1066170543910372
 10
27.56839240915219
 20
19.1799675662899
 42
0.0723410840576603
 10
27.57471275659212
 20
19.13651181998363
 42
0.0587518675353452
  0
LWPOLYLINE
  5
AD9
330
6E5
100
AcDbEntity
  8
OBJECT
100
AcDbPolyline
 90
        5
 70
     0
 43
0.0
 10
27.63068159882523
 20
19.10693024671523
 42
0.0587518675354286
 10
27.66295658779441
 20
19.06366902088674
 42
0.072341084057673
 10
27.69743019431607
 20
19.0364675662899
 42
0.1066170543909678
 10
27.73653061628523
 20
19.0238922876981
 42
0.0436582664973572
 10
27.74458103782524
 20
19.02379990971227
 42
0.1568512196707675
  0
LWPOLYLINE
  5
AE0
330
6E5
100
AcDbEntity
  8
OBJECT
100
AcDbPolyline
 90
        5
 70
     0
 43
0.0
 10
28.28020065166356
 20
23.01293024671524
 42
0.0587518675354286
 10
28.31247564063275
 20
22.96966902088675
 42
0.072341084057673
 10
28.3469492471544
 20
22.94246756628991
 42
0.1066170543909678
 10
28.38604966912356
 20
22.92989228769809
 42
0.0436582664973572
 10
28.39410009066357
 20
22.92979990971228
 42
0.1568512196707675
  0
LWPOLYLINE
  5
AE7
330
6E5
100
AcDbEntity
  8
OBJECT
100
AcDbPolyline
 90
        5
 70
     0
 43
0.0
 10
28.26515738749383
 20
23.15313522286753
 42
0.043658266497367
 10
28.26121217840632
 20
23.1461171643098
 42
0.1066170543910372
 10
28.25255247814189
 20
23.10596756628989
 42
0.0723410840576837
 10
28.25887282558182
 20
23.06251181998364
 42
0.0587518675353974
 10
28.28020065166356
 20
23.01293024671524
 42
0.0587518675354286
  0
LWPOLYLINE
  5
AEE
330
6E5
100
AcDbEntity
  8
OBJECT
100
AcDbPolyline
 90
       16
 70
     1
 43
0.0
 10
28.24555963551217
 20
22.99293024671523
 42
0.0587518675353819
 10
28.27783462448135
 20
22.94966902088675
 42
0.072341084057668
 10
28.31230823100302
 20
22.92246756628991
 42
0.1066170543909946
 10
28.35140865297221
 20
22.90989228769809
 42
0.1568512196707562
 10
28.37905682649385
 20
22.91585560756589
 42
0.1568512196707333
 10
28.3980452997511
 20
22.93681796827
 42
0.106617054391019
 10
28.40670500001553
 20
22.97696756628989
 42
0.0723410840577069
 10
28.4003846525756
 20
23.02042331259614
 42
0.0587518675354496
 10
28.37905682649385
 20
23.07000488586457
 42
0.0587518675353891
 10
28.34678183752467
 20
23.11326611169307
 42
0.0723410840576091
 10
28.31230823100302
 20
23.14046756628989
 42
0.1066170543909946
 10
28.27320780903384
 20
23.15304284488171
 42
0.1568512196707562
 10
28.24555963551217
 20
23.1470795250139
 42
0.1568512196708196
 10
28.22657116225493
 20
23.1261171643098
 42
0.1066170543910372
 10
28.21791146199052
 20
23.08596756628991
 42
0.0723410840576603
 10
28.22423180943045
 20
23.04251181998364
 42
0.0587518675353452
  0
LWPOLYLINE
  5
B00
330
6E5
100
AcDbEntity
  8
OBJECT
100
AcDbPolyline
 90
       16
 70
     1
 43
0.0
 10
27.59604058267385
 20
27.64893024671523
 42
0.0587518675353819
 10
27.62831557164303
 20
27.60566902088675
 42
0.072341084057668
 10
27.66278917816469
 20
27.57846756628989
 42
0.1066170543909946
 10
27.70188960013387
 20
27.5658922876981
 42
0.1568512196707562
 10
27.72953777365554
 20
27.57185560756589
 42
0.1568512196707333
 10
27.74852624691277
 20
27.59281796826998
 42
0.106617054391019
 10
27.75718594717719
 20
27.63296756628989
 42
0.0723410840577069
 10
27.75086559973726
 20
27.67642331259613
 42
0.0587518675354496
 10
27.72953777365554
 20
27.72600488586455
 42
0.0587518675353891
 10
27.69726278468635
 20
27.76926611169305
 42
0.0723410840576091
 10
27.66278917816469
 20
27.79646756628989
 42
0.1066170543909946
 10
27.62368875619551
 20
27.80904284488169
 42
0.1568512196707562
 10
27.59604058267385
 20
27.80307952501389
 42
0.1568512196708196
 10
27.57705210941661
 20
27.7821171643098
 42
0.1066170543910372
 10
27.56839240915219
 20
27.7419675662899
 42
0.0723410840576603
 10
27.57471275659212
 20
27.69851181998363
 42
0.0587518675353452
  0
LWPOLYLINE
  5
B12
330
6E5
100
AcDbEntity
  8
OBJECT
100
AcDbPolyline
 90
        5
 70
     0
 43
0.0
 10
27.61563833465551
 20
27.80913522286752
 42
0.043658266497367
 10
27.61169312556798
 20
27.80211716430978
 42
0.1066170543910372
 10
27.60303342530356
 20
27.76196756628989
 42
0.0723410840576837
 10
27.6093537727435
 20
27.71851181998364
 42
0.0587518675353974
 10
27.63068159882523
 20
27.66893024671523
 42
0.0587518675354286
  0
LWPOLYLINE
  5
B19
330
6E5
100
AcDbEntity
  8
OBJECT
100
AcDbPolyline
 90
        5
 70
     0
 43
0.0
 10
27.63068159882523
 20
27.66893024671523
 42
0.0587518675354286
 10
27.66295658779441
 20
27.62566902088673
 42
0.072341084057673
 10
27.69743019431607
 20
27.5984675662899
 42
0.1066170543909678
 10
27.73653061628523
 20
27.58589228769809
 42
0.0436582664973572
 10
27.74458103782524
 20
27.58579990971227
 42
0.1568512196707675
  0
LWPOLYLINE
  5
B20
330
6E5
100
AcDbEntity
  8
OBJECT
100
AcDbPolyline
 90
        5
 70
     0
 43
0.0
 10
24.11288640865283
 20
29.69993024671524
 42
0.0587518675354286
 10
24.14516139762203
 20
29.65666902088673
 42
0.072341084057673
 10
24.17963500414368
 20
29.62946756628991
 42
0.1066170543909678
 10
24.21873542611285
 20
29.6168922876981
 42
0.0436582664973572
 10
24.22678584765285
 20
29.61679990971227
 42
0.1568512196707675
  0
LWPOLYLINE
  5
B27
330
6E5
100
AcDbEntity
  8
OBJECT
100
AcDbPolyline
 90
       16
 70
     1
 43
0.0
 10
24.07824539250146
 20
29.67993024671523
 42
0.0587518675353819
 10
24.11052038147063
 20
29.63666902088676
 42
0.072341084057668
 10
24.1449939879923
 20
29.6094675662899
 42
0.1066170543909946
 10
24.18409440996148
 20
29.5968922876981
 42
0.1568512196707562
 10
24.21174258348314
 20
29.6028556075659
 42
0.1568512196707333
 10
24.23073105674038
 20
29.62381796826998
 42
0.106617054391019
 10
24.23939075700481
 20
29.6639675662899
 42
0.0723410840577069
 10
24.23307040956487
 20
29.70742331259613
 42
0.0587518675354496
 10
24.21174258348314
 20
29.75700488586456
 42
0.0587518675353891
 10
24.17946759451395
 20
29.80026611169305
 42
0.0723410840576091
 10
24.1449939879923
 20
29.82746756628989
 42
0.1066170543909946
 10
24.10589356602311
 20
29.8400428448817
 42
0.1568512196707562
 10
24.07824539250146
 20
29.8340795250139
 42
0.1568512196708196
 10
24.05925691924421
 20
29.8131171643098
 42
0.1066170543910372
 10
24.0505972189798
 20
29.77296756628989
 42
0.0723410840576603
 10
24.05691756641973
 20
29.72951181998363
 42
0.0587518675353452
  0
LWPOLYLINE
  5
B39
330
6E5
100
AcDbEntity
  8
OBJECT
100
AcDbPolyline
 90
        5
 70
     0
 43
0.0
 10
24.09784314448312
 20
29.84013522286753
 42
0.043658266497367
 10
24.0938979353956
 20
29.8331171643098
 42
0.1066170543910372
 10
24.08523823513117
 20
29.79296756628989
 42
0.0723410840576837
 10
24.09155858257109
 20
29.74951181998365
 42
0.0587518675353974
 10
24.11288640865283
 20
29.69993024671524
 42
0.0587518675354286
  0
TEXT
  5
B40
330
6E5
100
AcDbEntity
  8
TEXT
100
AcDbText
 10
6.409500000000003
 20
45.45299999999999
 30
0.0
 40
0.468
  1
UTILITY CABINET
 41
0.75
  7
TXT
 72
     4
 11
8.808000000000003
 21
45.68699999999998
 31
0.0
100
AcDbText
  0
TEXT
  5
B41
330
6E5
100
AcDbEntity
  8
TEXT
100
AcDbText
 10
17.92799999999999
 20
45.45299999999999
 30
0.0
 40
0.468
  1
CU-728 TO CU-1124/AU-1028 TO AU-1099
 41
0.75
  7
TXT
 72
     4
 11
23.89499999999999
 21
45.68699999999998
 31
0.0
100
AcDbText
  0
TEXT
  5
B42
330
6E5
100
AcDbEntity
  8
TEXT
100
AcDbText
 10
18.51017746895569
 20
42.17659636814622
 30
0.0
 40
0.375
  1
"CU" PREFIX - STEEL
 41
0.75
  7
TXT
100
AcDbText
  0
TEXT
  5
B43
330
6E5
100
AcDbEntity
  8
TEXT
100
AcDbText
 10
18.51017746895569
 20
41.55159636814622
 30
0.0
 40
0.375
  1
"AU" PREFIX - ALUMINUM
 41
0.75
  7
TXT
100
AcDbText
  0
TEXT
  5
B44
330
6E5
100
AcDbEntity
  8
TEXT
100
AcDbText
 10
18.15472866777152
 20
40.30159636814622
 30
0.0
 40
0.375
  1
%%uFINISH:
 41
0.75
  7
TXT
100
AcDbText
  0
TEXT
  5
B45
330
6E5
100
AcDbEntity
  8
TEXT
100
AcDbText
 10
18.51017746895569
 20
39.67659636814623
 30
0.0
 40
0.375
  1
"CU" PREFIX - METALLIC GRAY
 41
0.75
  7
TXT
100
AcDbText
  0
TEXT
  5
B46
330
6E5
100
AcDbEntity
  8
TEXT
100
AcDbText
 10
18.51017746895569
 20
39.05159636814623
 30
0.0
 40
0.375
  1
"AU" PREFIX - NATURAL OR
 41
0.75
  7
TXT
100
AcDbText
  0
TEXT
  5
B47
330
6E5
100
AcDbEntity
  8
TEXT
100
AcDbText
 10
22.16160567834193
 20
38.42659636814623
 30
0.0
 40
0.375
  1
METALLIC GRAY
 41
0.75
  7
TXT
100
AcDbText
  0
TEXT
  5
B48
330
6E5
100
AcDbEntity
  8
TEXT
100
AcDbText
 10
18.15472866777152
 20
37.17659636814623
 30
0.0
 40
0.375
  1
PANELS AFFIXED WITH #6 SHEET METAL SCREWS.
 41
0.75
  7
TXT
100
AcDbText
  0
TEXT
  5
B49
330
6E5
100
AcDbEntity
  8
TEXT
100
AcDbText
 10
18.15472866777152
 20
35.92659636814623
 30
0.0
 40
0.375
  1
* - DIMENSION WITH PANELS ASSEMBLED.
 41
0.75
  7
TXT
100
AcDbText
  0
DIMENSION
  5
B4A
330
6E5
100
AcDbEntity
  8
DIM
100
AcDbDimension
  2
*D15
 10
9.506657398256146
 20
33.8483340513539
 30
0.0
 11
11.34884489825614
 21
33.8483340513539
 31
0.0
 70
    32
  1
<>\PTYP.
 71
     5
 42
0.2189999999999994
  3
STD
100
AcDbAlignedDimension
 13
9.287657398256147
 23
32.64833989824264
 33
0.0
 14
9.506657398256146
 24
33.3056186593961
 34
0.0
100
AcDbRotatedDimension
  0
DIMENSION
  5
B58
330
6E5
100
AcDbEntity
  8
DIM
100
AcDbDimension
  2
*D16
 10
9.475157398256143
 20
19.90770639470346
 30
0.0
 11
11.31734489825614
 21
19.90770639470346
 31
0.0
 70
    32
  1
<>\PTYP.
 71
     5
 42
0.1869999999999958
  3
STD
100
AcDbAlignedDimension
 13
9.288157398256148
 23
18.80198720909717
 33
0.0
 14
9.475157398256143
 24
19.5896015514627
 34
0.0
100
AcDbRotatedDimension
  0
ENDSEC
  0
SECTION
  2
OBJECTS
  0
DICTIONARY
  5
6D3
330
0
100
AcDbDictionary
281
     1
  3
ACAD_GROUP
350
6D4
  3
ACAD_LAYOUT
350
6E0
  3
ACAD_MLINESTYLE
350
6DD
  3
ACAD_PLOTSETTINGS
350
6DF
  3
ACAD_PLOTSTYLENAME
350
6D5
  0
DICTIONARY
  5
6D4
102
{ACAD_REACTORS
330
6D3
102
}
330
6D3
100
AcDbDictionary
281
     1
  0
DICTIONARY
  5
6E0
102
{ACAD_REACTORS
330
6D3
102
}
330
6D3
100
AcDbDictionary
281
     1
  3
Layout1
350
6E4
  3
Model
350
6E8
  0
DICTIONARY
  5
6DD
102
{ACAD_REACTORS
330
6D3
102
}
330
6D3
100
AcDbDictionary
281
     1
  3
Standard
350
6DE
  0
DICTIONARY
  5
6DF
102
{ACAD_REACTORS
330
6D3
102
}
330
6D3
100
AcDbDictionary
281
     1
  0
ACDBDICTIONARYWDFLT
  5
6D5
102
{ACAD_REACTORS
330
6D3
102
}
330
6D3
100
AcDbDictionary
281
     1
  3
Normal
350
6D6
100
AcDbDictionaryWithDefault
340
6D6
  0
LAYOUT
  5
6E4
102
{ACAD_REACTORS
330
6E0
102
}
330
6E0
100
AcDbPlotSettings
  1

  2
None
  4

  6

 40
0.0
 41
0.0
 42
0.0
 43
0.0
 44
0.0
 45
0.0
 46
0.0
 47
0.0
 48
0.0
 49
0.0
140
0.0
141
0.0
142
1.0
143
1.0
 70
   688
 72
     0
 73
     0
 74
     5
  7

 75
    16
147
1.0
148
0.0
149
0.0
100
AcDbLayout
  1
Layout1
 70
     1
 71
     1
 10
0.0
 20
0.0
 11
12.0
 21
9.0
 12
0.0
 22
0.0
 32
0.0
 14
1.000000000000000E+20
 24
1.000000000000000E+20
 34
1.000000000000000E+20
 15
-1.000000000000000E+20
 25
-1.000000000000000E+20
 35
-1.000000000000000E+20
146
0.0
 13
0.0
 23
0.0
 33
0.0
 16
1.0
 26
0.0
 36
0.0
 17
0.0
 27
1.0
 37
0.0
 76
     0
330
6E1
  0
LAYOUT
  5
6E8
102
{ACAD_REACTORS
330
6E0
102
}
330
6E0
100
AcDbPlotSettings
  1

  2
None
  4

  6

 40
0.0
 41
0.0
 42
0.0
 43
0.0
 44
0.0
 45
0.0
 46
0.0
 47
0.0
 48
0.0
 49
0.0
140
0.0
141
0.0
142
1.0
143
1.0
 70
  1712
 72
     0
 73
     0
 74
     0
  7

 75
     0
147
1.0
148
0.0
149
0.0
100
AcDbLayout
  1
Model
 70
     1
 71
     0
 10
0.0
 20
0.0
 11
12.0
 21
9.0
 12
0.0
 22
0.0
 32
0.0
 14
0.0
 24
0.0
 34
0.0
 15
0.0
 25
0.0
 35
0.0
146
0.0
 13
0.0
 23
0.0
 33
0.0
 16
1.0
 26
0.0
 36
0.0
 17
0.0
 27
1.0
 37
0.0
 76
     0
330
6E5
  0
MLINESTYLE
  5
6DE
102
{ACAD_REACTORS
330
6DD
102
}
330
6DD
100
AcDbMlineStyle
  2
STANDARD
 70
     0
  3

 62
   256
 51
90.0
 52
90.0
 71
     2
 49
0.5
 62
   256
  6
BYLAYER
 49
-0.5
 62
   256
  6
BYLAYER
  0
ACDBPLACEHOLDER
  5
6D6
102
{ACAD_REACTORS
330
6D5
102
}
330
6D5
  0
ENDSEC
  0
EOF
