  0
SECTION
  2
HEADER
  9
$ACADVER
  1
AC1009
  9
$INSBASE
 10
0.0
 20
0.0
 30
0.0
  9
$EXTMIN
 10
0.0
 20
0.0
 30
0.0
  9
$EXTMAX
 10
17.71
 20
27.125
 30
0.0
  9
$LIMMIN
 10
0.0
 20
0.0
  9
$LIMMAX
 10
35.0
 20
28.0
  9
$ORTHOMODE
 70
     1
  9
$REGENMODE
 70
     1
  9
$FILLMODE
 70
     1
  9
$QTEXTMODE
 70
     0
  9
$MIRRTEXT
 70
     0
  9
$DRAGMODE
 70
     2
  9
$LTSCALE
 40
0.5
  9
$OSMODE
 70
     0
  9
$ATTMODE
 70
     1
  9
$TEXTSIZE
 40
0.281
  9
$TRACEWID
 40
0.05
  9
$TEXTSTYLE
  7
TXT
  9
$CLAYER
  8
OBJECT
  9
$CELTYPE
  6
BYLAYER
  9
$CECOLOR
 62
   256
  9
$DIMSCALE
 40
1.5
  9
$DIMASZ
 40
0.18
  9
$DIMEXO
 40
0.063
  9
$DIMDLI
 40
0.281
  9
$DIMRND
 40
0.0
  9
$DIMDLE
 40
0.0
  9
$DIMEXE
 40
0.093
  9
$DIMTP
 40
0.0
  9
$DIMTM
 40
0.0
  9
$DIMTXT
 40
0.125
  9
$DIMCEN
 40
0.09
  9
$DIMTSZ
 40
0.0
  9
$DIMTOL
 70
     0
  9
$DIMLIM
 70
     0
  9
$DIMTIH
 70
     1
  9
$DIMTOH
 70
     1
  9
$DIMSE1
 70
     0
  9
$DIMSE2
 70
     0
  9
$DIMTAD
 70
     0
  9
$DIMZIN
 70
     0
  9
$DIMBLK
  1

  9
$DIMASO
 70
     1
  9
$DIMSHO
 70
     1
  9
$DIMPOST
  1

  9
$DIMAPOST
  1

  9
$DIMALT
 70
     0
  9
$DIMALTD
 70
     2
  9
$DIMALTF
 40
25.4
  9
$DIMLFAC
 40
1.0
  9
$DIMTOFL
 70
     0
  9
$DIMTVP
 40
0.0
  9
$DIMTIX
 70
     0
  9
$DIMSOXD
 70
     0
  9
$DIMSAH
 70
     0
  9
$DIMBLK1
  1

  9
$DIMBLK2
  1

  9
$DIMSTYLE
  2
STD
  9
$DIMCLRD
 70
     0
  9
$DIMCLRE
 70
     0
  9
$DIMCLRT
 70
     0
  9
$DIMTFAC
 40
1.0
  9
$DIMGAP
 40
0.09
  9
$LUNITS
 70
     2
  9
$LUPREC
 70
     3
  9
$SKETCHINC
 40
0.1
  9
$FILLETRAD
 40
0.0
  9
$AUNITS
 70
     0
  9
$AUPREC
 70
     0
  9
$MENU
  1
acad
  9
$ELEVATION
 40
0.0
  9
$PELEVATION
 40
0.0
  9
$THICKNESS
 40
0.0
  9
$LIMCHECK
 70
     0
  9
$BLIPMODE
 70
     1
  9
$CHAMFERA
 40
0.0
  9
$CHAMFERB
 40
0.0
  9
$SKPOLY
 70
     0
  9
$TDCREATE
 40
2449646.523015856
  9
$TDUPDATE
 40
2450604.464989352
  9
$TDINDWG
 40
0.0635824074
  9
$TDUSRTIMER
 40
0.0635824074
  9
$USRTIMER
 70
     1
  9
$ANGBASE
 50
0.0
  9
$ANGDIR
 70
     0
  9
$PDMODE
 70
     0
  9
$PDSIZE
 40
0.0
  9
$PLINEWID
 40
0.0
  9
$COORDS
 70
     0
  9
$SPLFRAME
 70
     0
  9
$SPLINETYPE
 70
     6
  9
$SPLINESEGS
 70
     8
  9
$ATTDIA
 70
     1
  9
$ATTREQ
 70
     1
  9
$HANDLING
 70
     0
  9
$HANDSEED
  5
0
  9
$SURFTAB1
 70
     6
  9
$SURFTAB2
 70
     6
  9
$SURFTYPE
 70
     6
  9
$SURFU
 70
     6
  9
$SURFV
 70
     6
  9
$UCSNAME
  2

  9
$UCSORG
 10
0.0
 20
0.0
 30
0.0
  9
$UCSXDIR
 10
1.0
 20
0.0
 30
0.0
  9
$UCSYDIR
 10
0.0
 20
1.0
 30
0.0
  9
$PUCSNAME
  2

  9
$PUCSORG
 10
0.0
 20
0.0
 30
0.0
  9
$PUCSXDIR
 10
1.0
 20
0.0
 30
0.0
  9
$PUCSYDIR
 10
0.0
 20
1.0
 30
0.0
  9
$USERI1
 70
     0
  9
$USERI2
 70
     0
  9
$USERI3
 70
     0
  9
$USERI4
 70
     0
  9
$USERI5
 70
     0
  9
$USERR1
 40
0.0
  9
$USERR2
 40
0.0
  9
$USERR3
 40
0.0
  9
$USERR4
 40
0.0
  9
$USERR5
 40
0.0
  9
$WORLDVIEW
 70
     1
  9
$SHADEDGE
 70
     3
  9
$SHADEDIF
 70
    70
  9
$TILEMODE
 70
     1
  9
$MAXACTVP
 70
    16
  9
$PINSBASE
 10
0.0
 20
0.0
 30
0.0
  9
$PLIMCHECK
 70
     0
  9
$PEXTMIN
 10
1.000000E+20
 20
1.000000E+20
 30
1.000000E+20
  9
$PEXTMAX
 10
-1.000000E+20
 20
-1.000000E+20
 30
-1.000000E+20
  9
$PLIMMIN
 10
0.0
 20
0.0
  9
$PLIMMAX
 10
12.0
 20
9.0
  9
$UNITMODE
 70
     0
  9
$VISRETAIN
 70
     0
  9
$PLINEGEN
 70
     0
  9
$PSLTSCALE
 70
     1
  9
$TREEDEPTH
 70
  3020
  9
$DWGCODEPAGE
  3
ascii
  0
ENDSEC
  0
SECTION
  2
TABLES
  0
TABLE
  2
VPORT
 70
     2
  0
VPORT
  2
*ACTIVE
 70
     0
 10
0.0
 20
0.0
 11
1.0
 21
1.0
 12
18.47673
 22
13.5625
 13
0.0
 23
0.0
 14
1.0
 24
1.0
 15
0.0
 25
0.0
 16
0.0
 26
0.0
 36
1.0
 17
0.0
 27
0.0
 37
0.0
 40
27.125
 41
1.36234
 42
50.0
 43
0.0
 44
0.0
 50
0.0
 51
0.0
 71
     0
 72
   100
 73
     1
 74
     0
 75
     0
 76
     0
 77
     0
 78
     0
  0
ENDTAB
  0
TABLE
  2
LTYPE
 70
     4
  0
LTYPE
  2
CONTINUOUS
 70
    64
  3
Solid line
 72
    65
 73
     0
 40
0.0
  0
LTYPE
  2
HIDDEN
 70
    64
  3
_ _ _ _ _ _ _ _ _ _ _ _ _ _ _ _ _ _ _ _ _ _ _
 72
    65
 73
     2
 40
0.375
 49
0.25
 49
-0.125
  0
LTYPE
  2
PHANTOM
 70
    64
  3
_____ _ _ _____ _ _ _____ _ _ _____ _ _ ____
 72
    65
 73
     6
 40
2.5
 49
1.25
 49
-0.25
 49
0.25
 49
-0.25
 49
0.25
 49
-0.25
  0
LTYPE
  2
CENTER
 70
    64
  3
____ _ ____ _ ____ _ ____ _ ____ _ ____ _ ____
 72
    65
 73
     4
 40
2.0
 49
1.25
 49
-0.25
 49
0.25
 49
-0.25
  0
ENDTAB
  0
TABLE
  2
LAYER
 70
     9
  0
LAYER
  2
0
 70
    64
 62
     7
  6
CONTINUOUS
  0
LAYER
  2
OBJECT
 70
    64
 62
     7
  6
CONTINUOUS
  0
LAYER
  2
DIM
 70
    64
 62
     7
  6
CONTINUOUS
  0
LAYER
  2
HIDDEN
 70
    64
 62
     7
  6
HIDDEN
  0
LAYER
  2
BEND
 70
    64
 62
     7
  6
PHANTOM
  0
LAYER
  2
TEXT
 70
    64
 62
     7
  6
CONTINUOUS
  0
LAYER
  2
TITLE
 70
    64
 62
     7
  6
CONTINUOUS
  0
LAYER
  2
CENTER
 70
    64
 62
     7
  6
CENTER
  0
LAYER
  2
DEFPOINTS
 70
    64
 62
     7
  6
CONTINUOUS
  0
ENDTAB
  0
TABLE
  2
STYLE
 70
     2
  0
STYLE
  2
STANDARD
 70
    64
 40
0.0
 41
0.75
 50
0.0
 71
     0
 42
0.2
  3
TXT.shx
  4

  0
STYLE
  2
TXT
 70
    64
 40
0.0
 41
0.75
 50
0.0
 71
     0
 42
0.281
  3
TXT.shx
  4

  0
ENDTAB
  0
TABLE
  2
VIEW
 70
     0
  0
ENDTAB
  0
TABLE
  2
UCS
 70
     0
  0
ENDTAB
  0
TABLE
  2
APPID
 70
     1
  0
APPID
  2
ACAD
 70
    64
  0
ENDTAB
  0
TABLE
  2
DIMSTYLE
 70
     2
  0
DIMSTYLE
  2
STD
 70
    64
  3

  4

  5

  6

  7

 40
1.5
 41
0.18
 42
0.063
 43
0.281
 44
0.093
 45
0.0
 46
0.0
 47
0.0
 48
0.0
140
0.125
141
0.09
142
0.0
143
25.4
144
1.0
145
0.0
146
1.0
147
0.09
 71
     0
 72
     0
 73
     1
 74
     1
 75
     0
 76
     0
 77
     0
 78
     0
170
     0
171
     2
172
     0
173
     0
174
     0
175
     0
176
     0
177
     0
178
     0
  0
DIMSTYLE
  2
DIM
 70
    64
  3

  4

  5

  6

  7

 40
1.5
 41
0.18
 42
0.063
 43
0.281
 44
0.093
 45
0.0
 46
0.0
 47
0.0
 48
0.0
140
0.125
141
0.09
142
0.0
143
25.4
144
1.0
145
0.0
146
1.0
147
0.09
 71
     0
 72
     0
 73
     1
 74
     1
 75
     0
 76
     0
 77
     0
 78
     0
170
     0
171
     2
172
     0
173
     0
174
     1
175
     0
176
     0
177
     0
178
     0
  0
ENDTAB
  0
ENDSEC
  0
SECTION
  2
BLOCKS
  0
BLOCK
  8
0
  2
ACAD
 70
    64
 10
0.0
 20
0.0
 30
0.0
  3
ACAD
  0
ENDBLK
  8
0
  0
BLOCK
  8
0
  2
*D1
 70
    65
 10
0.0
 20
0.0
 30
0.0
  3
*D
  0
LINE
  8
0
  6
BYBLOCK
 62
     0
 10
3.130403
 20
9.891108
 30
0.0
 11
3.130403
 21
9.841075
 31
0.0
  0
LINE
  8
0
  6
BYBLOCK
 62
     0
 10
3.170403
 20
9.891108
 30
0.0
 11
3.170403
 21
9.841075
 31
0.0
  0
LINE
  8
0
  6
BYBLOCK
 62
     0
 10
2.860403
 20
9.980575
 30
0.0
 11
2.590403
 21
9.980575
 31
0.0
  0
LINE
  8
0
  6
BYBLOCK
 62
     0
 10
3.440403
 20
9.980575
 30
0.0
 11
3.710403
 21
9.980575
 31
0.0
  0
SOLID
  8
0
  6
BYBLOCK
 62
     0
 10
2.860403
 20
10.025575
 30
0.0
 11
2.860403
 21
9.935575
 31
0.0
 12
3.130403
 22
9.980575
 32
0.0
 13
3.130403
 23
9.980575
 33
0.0
  0
SOLID
  8
0
  6
BYBLOCK
 62
     0
 10
3.440403
 20
10.025575
 30
0.0
 11
3.440403
 21
9.935575
 31
0.0
 12
3.170403
 22
9.980575
 32
0.0
 13
3.170403
 23
9.980575
 33
0.0
  0
TEXT
  8
0
  6
BYBLOCK
 62
     0
 10
3.845403
 20
9.886825
 30
0.0
 40
0.1875
  1
0.040
 41
0.75
  7
TXT
 72
     1
 11
4.091496
 21
9.980575
 31
0.0
 73
     2
  0
POINT
  8
DEFPOINTS
  6
BYBLOCK
 62
     0
 10
3.130403
 20
9.985608
 30
0.0
  0
POINT
  8
DEFPOINTS
  6
BYBLOCK
 62
     0
 10
3.170403
 20
9.985608
 30
0.0
  0
POINT
  8
DEFPOINTS
  6
BYBLOCK
 62
     0
 10
3.170403
 20
9.980575
 30
0.0
  0
ENDBLK
  8
0
  0
BLOCK
  8
0
  2
*D2
 70
    65
 10
0.0
 20
0.0
 30
0.0
  3
*D
  0
LINE
  8
0
  6
BYBLOCK
 62
     0
 10
4.295378
 20
9.551438
 30
0.0
 11
4.295378
 21
9.596438
 31
0.0
  0
LINE
  8
0
  6
BYBLOCK
 62
     0
 10
4.225378
 20
9.551438
 30
0.0
 11
4.225378
 21
9.596438
 31
0.0
  0
LINE
  8
0
  6
BYBLOCK
 62
     0
 10
4.565378
 20
9.456938
 30
0.0
 11
4.835378
 21
9.456938
 31
0.0
  0
LINE
  8
0
  6
BYBLOCK
 62
     0
 10
3.955378
 20
9.456938
 30
0.0
 11
3.685378
 21
9.456938
 31
0.0
  0
SOLID
  8
0
  6
BYBLOCK
 62
     0
 10
4.565378
 20
9.501938
 30
0.0
 11
4.565378
 21
9.411938
 31
0.0
 12
4.295378
 22
9.456938
 32
0.0
 13
4.295378
 23
9.456938
 33
0.0
  0
SOLID
  8
0
  6
BYBLOCK
 62
     0
 10
3.955378
 20
9.501938
 30
0.0
 11
3.955378
 21
9.411938
 31
0.0
 12
4.225378
 22
9.456938
 32
0.0
 13
4.225378
 23
9.456938
 33
0.0
  0
TEXT
  8
0
  6
BYBLOCK
 62
     0
 10
3.05819
 20
9.363188
 30
0.0
 40
0.1875
  1
0.070
 41
0.75
  7
TXT
 72
     1
 11
3.304284
 21
9.456938
 31
0.0
 73
     2
  0
POINT
  8
DEFPOINTS
  6
BYBLOCK
 62
     0
 10
4.295378
 20
9.456938
 30
0.0
  0
POINT
  8
DEFPOINTS
  6
BYBLOCK
 62
     0
 10
4.225378
 20
9.456938
 30
0.0
  0
POINT
  8
DEFPOINTS
  6
BYBLOCK
 62
     0
 10
4.225378
 20
9.456938
 30
0.0
  0
ENDBLK
  8
0
  0
BLOCK
  8
0
  2
*D3
 70
    65
 10
0.0
 20
0.0
 30
0.0
  3
*D
  0
LINE
  8
0
  6
BYBLOCK
 62
     0
 10
1.881903
 20
8.929586
 30
0.0
 11
1.178898
 21
8.929586
 31
0.0
  0
LINE
  8
0
  6
BYBLOCK
 62
     0
 10
1.738903
 20
8.849586
 30
0.0
 11
1.178898
 21
8.849586
 31
0.0
  0
LINE
  8
0
  6
BYBLOCK
 62
     0
 10
1.318398
 20
9.199586
 30
0.0
 11
1.318398
 21
9.469586
 31
0.0
  0
LINE
  8
0
  6
BYBLOCK
 62
     0
 10
1.318398
 20
8.579586
 30
0.0
 11
1.318398
 21
8.309586
 31
0.0
  0
LINE
  8
0
  6
BYBLOCK
 62
     0
 10
1.318398
 20
8.309586
 30
0.0
 11
1.048398
 21
8.309586
 31
0.0
  0
SOLID
  8
0
  6
BYBLOCK
 62
     0
 10
1.273398
 20
9.199586
 30
0.0
 11
1.363398
 21
9.199586
 31
0.0
 12
1.318398
 22
8.929586
 32
0.0
 13
1.318398
 23
8.929586
 33
0.0
  0
SOLID
  8
0
  6
BYBLOCK
 62
     0
 10
1.273398
 20
8.579586
 30
0.0
 11
1.363398
 21
8.579586
 31
0.0
 12
1.318398
 22
8.849586
 32
0.0
 13
1.318398
 23
8.849586
 33
0.0
  0
TEXT
  8
0
  6
BYBLOCK
 62
     0
 10
0.421211
 20
8.215836
 30
0.0
 40
0.1875
  1
0.080
 41
0.75
  7
TXT
 72
     1
 11
0.667304
 21
8.309586
 31
0.0
 73
     2
  0
POINT
  8
DEFPOINTS
  6
BYBLOCK
 62
     0
 10
1.976403
 20
8.929586
 30
0.0
  0
POINT
  8
DEFPOINTS
  6
BYBLOCK
 62
     0
 10
1.833403
 20
8.849586
 30
0.0
  0
POINT
  8
DEFPOINTS
  6
BYBLOCK
 62
     0
 10
1.318398
 20
8.849586
 30
0.0
  0
ENDBLK
  8
0
  0
BLOCK
  8
0
  2
*D4
 70
    65
 10
0.0
 20
0.0
 30
0.0
  3
*D
  0
LINE
  8
0
  6
BYBLOCK
 62
     0
 10
1.881903
 20
11.029586
 30
0.0
 11
1.178898
 21
11.029586
 31
0.0
  0
LINE
  8
0
  6
BYBLOCK
 62
     0
 10
1.881903
 20
8.929586
 30
0.0
 11
1.178898
 21
8.929586
 31
0.0
  0
LINE
  8
0
  6
BYBLOCK
 62
     0
 10
1.318398
 20
10.759586
 30
0.0
 11
1.318398
 21
10.208336
 31
0.0
  0
LINE
  8
0
  6
BYBLOCK
 62
     0
 10
1.318398
 20
9.199586
 30
0.0
 11
1.318398
 21
9.750836
 31
0.0
  0
SOLID
  8
0
  6
BYBLOCK
 62
     0
 10
1.273398
 20
10.759586
 30
0.0
 11
1.363398
 21
10.759586
 31
0.0
 12
1.318398
 22
11.029586
 32
0.0
 13
1.318398
 23
11.029586
 33
0.0
  0
SOLID
  8
0
  6
BYBLOCK
 62
     0
 10
1.273398
 20
9.199586
 30
0.0
 11
1.363398
 21
9.199586
 31
0.0
 12
1.318398
 22
8.929586
 32
0.0
 13
1.318398
 23
8.929586
 33
0.0
  0
TEXT
  8
0
  6
BYBLOCK
 62
     0
 10
1.084023
 20
9.885836
 30
0.0
 40
0.1875
  1
2.100
 41
0.75
  7
TXT
 72
     1
 11
1.318398
 21
9.979586
 31
0.0
 73
     2
  0
POINT
  8
DEFPOINTS
  6
BYBLOCK
 62
     0
 10
1.976403
 20
11.029586
 30
0.0
  0
POINT
  8
DEFPOINTS
  6
BYBLOCK
 62
     0
 10
1.976403
 20
8.929586
 30
0.0
  0
POINT
  8
DEFPOINTS
  6
BYBLOCK
 62
     0
 10
1.318398
 20
8.929586
 30
0.0
  0
ENDBLK
  8
0
  0
BLOCK
  8
0
  2
*D5
 70
    65
 10
0.0
 20
0.0
 30
0.0
  3
*D
  0
LINE
  8
0
  6
BYBLOCK
 62
     0
 10
3.692982
 20
2.642968
 30
0.0
 11
4.141601
 21
2.642968
 31
0.0
  0
LINE
  8
0
  6
BYBLOCK
 62
     0
 10
3.692982
 20
4.902968
 30
0.0
 11
4.141601
 21
4.902968
 31
0.0
  0
LINE
  8
0
  6
BYBLOCK
 62
     0
 10
4.002101
 20
2.912968
 30
0.0
 11
4.002101
 21
3.544218
 31
0.0
  0
LINE
  8
0
  6
BYBLOCK
 62
     0
 10
4.002101
 20
4.632968
 30
0.0
 11
4.002101
 21
4.001718
 31
0.0
  0
SOLID
  8
0
  6
BYBLOCK
 62
     0
 10
3.957101
 20
2.912968
 30
0.0
 11
4.047101
 21
2.912968
 31
0.0
 12
4.002101
 22
2.642968
 32
0.0
 13
4.002101
 23
2.642968
 33
0.0
  0
SOLID
  8
0
  6
BYBLOCK
 62
     0
 10
3.957101
 20
4.632968
 30
0.0
 11
4.047101
 21
4.632968
 31
0.0
 12
4.002101
 22
4.902968
 32
0.0
 13
4.002101
 23
4.902968
 33
0.0
  0
TEXT
  8
0
  6
BYBLOCK
 62
     0
 10
3.73257
 20
3.679218
 30
0.0
 40
0.1875
  1
2.260
 41
0.75
  7
TXT
 72
     1
 11
4.002101
 21
3.772968
 31
0.0
 73
     2
  0
POINT
  8
DEFPOINTS
  6
BYBLOCK
 62
     0
 10
3.598482
 20
2.642968
 30
0.0
  0
POINT
  8
DEFPOINTS
  6
BYBLOCK
 62
     0
 10
3.598482
 20
4.902968
 30
0.0
  0
POINT
  8
DEFPOINTS
  6
BYBLOCK
 62
     0
 10
4.002101
 20
4.902968
 30
0.0
  0
ENDBLK
  8
0
  0
BLOCK
  8
0
  2
*D6
 70
    65
 10
0.0
 20
0.0
 30
0.0
  3
*D
  0
LINE
  8
0
  6
BYBLOCK
 62
     0
 10
2.918482
 20
4.894207
 30
0.0
 11
2.918482
 21
5.861629
 31
0.0
  0
LINE
  8
0
  6
BYBLOCK
 62
     0
 10
3.598482
 20
4.997468
 30
0.0
 11
3.598482
 21
5.861629
 31
0.0
  0
LINE
  8
0
  6
BYBLOCK
 62
     0
 10
2.648482
 20
5.722129
 30
0.0
 11
2.378482
 21
5.722129
 31
0.0
  0
LINE
  8
0
  6
BYBLOCK
 62
     0
 10
3.868482
 20
5.722129
 30
0.0
 11
4.138482
 21
5.722129
 31
0.0
  0
SOLID
  8
0
  6
BYBLOCK
 62
     0
 10
2.648482
 20
5.767129
 30
0.0
 11
2.648482
 21
5.677129
 31
0.0
 12
2.918482
 22
5.722129
 32
0.0
 13
2.918482
 23
5.722129
 33
0.0
  0
SOLID
  8
0
  6
BYBLOCK
 62
     0
 10
3.868482
 20
5.767129
 30
0.0
 11
3.868482
 21
5.677129
 31
0.0
 12
3.598482
 22
5.722129
 32
0.0
 13
3.598482
 23
5.722129
 33
0.0
  0
TEXT
  8
0
  6
BYBLOCK
 62
     0
 10
3.00067
 20
5.628379
 30
0.0
 40
0.1875
  1
0.680
 41
0.75
  7
TXT
 72
     1
 11
3.258482
 21
5.722129
 31
0.0
 73
     2
  0
POINT
  8
DEFPOINTS
  6
BYBLOCK
 62
     0
 10
2.918482
 20
4.799707
 30
0.0
  0
POINT
  8
DEFPOINTS
  6
BYBLOCK
 62
     0
 10
3.598482
 20
4.902968
 30
0.0
  0
POINT
  8
DEFPOINTS
  6
BYBLOCK
 62
     0
 10
3.598482
 20
5.722129
 30
0.0
  0
ENDBLK
  8
0
  0
BLOCK
  8
0
  2
*D7
 70
    65
 10
0.0
 20
0.0
 30
0.0
  3
*D
  0
LINE
  8
0
  6
BYBLOCK
 62
     0
 10
3.378482
 20
4.874468
 30
0.0
 11
3.378482
 21
5.422805
 31
0.0
  0
LINE
  8
0
  6
BYBLOCK
 62
     0
 10
2.993482
 20
4.894207
 30
0.0
 11
2.993482
 21
5.422805
 31
0.0
  0
LINE
  8
0
  6
BYBLOCK
 62
     0
 10
3.648482
 20
5.283305
 30
0.0
 11
3.918482
 21
5.283305
 31
0.0
  0
LINE
  8
0
  6
BYBLOCK
 62
     0
 10
2.723482
 20
5.283305
 30
0.0
 11
2.453482
 21
5.283305
 31
0.0
  0
SOLID
  8
0
  6
BYBLOCK
 62
     0
 10
3.648482
 20
5.328305
 30
0.0
 11
3.648482
 21
5.238305
 31
0.0
 12
3.378482
 22
5.283305
 32
0.0
 13
3.378482
 23
5.283305
 33
0.0
  0
SOLID
  8
0
  6
BYBLOCK
 62
     0
 10
2.723482
 20
5.328305
 30
0.0
 11
2.723482
 21
5.238305
 31
0.0
 12
2.993482
 22
5.283305
 32
0.0
 13
2.993482
 23
5.283305
 33
0.0
  0
TEXT
  8
0
  6
BYBLOCK
 62
     0
 10
1.77942
 20
5.189555
 30
0.0
 40
0.1875
  1
0.385
 41
0.75
  7
TXT
 72
     1
 11
2.048951
 21
5.283305
 31
0.0
 73
     2
  0
POINT
  8
DEFPOINTS
  6
BYBLOCK
 62
     0
 10
3.378482
 20
4.779968
 30
0.0
  0
POINT
  8
DEFPOINTS
  6
BYBLOCK
 62
     0
 10
2.993482
 20
4.799707
 30
0.0
  0
POINT
  8
DEFPOINTS
  6
BYBLOCK
 62
     0
 10
2.993482
 20
5.283305
 30
0.0
  0
ENDBLK
  8
0
  0
BLOCK
  8
0
  2
*D8
 70
    65
 10
0.0
 20
0.0
 30
0.0
  3
*D
  0
LINE
  8
0
  6
BYBLOCK
 62
     0
 10
5.078312
 20
4.904468
 30
0.0
 11
5.078312
 21
5.861629
 31
0.0
  0
LINE
  8
0
  6
BYBLOCK
 62
     0
 10
6.588312
 20
4.904468
 30
0.0
 11
6.588312
 21
5.861629
 31
0.0
  0
LINE
  8
0
  6
BYBLOCK
 62
     0
 10
4.808312
 20
5.722129
 30
0.0
 11
4.538312
 21
5.722129
 31
0.0
  0
LINE
  8
0
  6
BYBLOCK
 62
     0
 10
6.858312
 20
5.722129
 30
0.0
 11
7.128312
 21
5.722129
 31
0.0
  0
SOLID
  8
0
  6
BYBLOCK
 62
     0
 10
4.808312
 20
5.767129
 30
0.0
 11
4.808312
 21
5.677129
 31
0.0
 12
5.078312
 22
5.722129
 32
0.0
 13
5.078312
 23
5.722129
 33
0.0
  0
SOLID
  8
0
  6
BYBLOCK
 62
     0
 10
6.858312
 20
5.767129
 30
0.0
 11
6.858312
 21
5.677129
 31
0.0
 12
6.588312
 22
5.722129
 32
0.0
 13
6.588312
 23
5.722129
 33
0.0
  0
TEXT
  8
0
  6
BYBLOCK
 62
     0
 10
5.610656
 20
5.628379
 30
0.0
 40
0.1875
  1
1.510
 41
0.75
  7
TXT
 72
     1
 11
5.833312
 21
5.722129
 31
0.0
 73
     2
  0
POINT
  8
DEFPOINTS
  6
BYBLOCK
 62
     0
 10
5.078312
 20
4.809968
 30
0.0
  0
POINT
  8
DEFPOINTS
  6
BYBLOCK
 62
     0
 10
6.588312
 20
4.809968
 30
0.0
  0
POINT
  8
DEFPOINTS
  6
BYBLOCK
 62
     0
 10
6.588312
 20
5.722129
 30
0.0
  0
ENDBLK
  8
0
  0
BLOCK
  8
0
  2
*D9
 70
    65
 10
0.0
 20
0.0
 30
0.0
  3
*D
  0
LINE
  8
0
  6
BYBLOCK
 62
     0
 10
5.078312
 20
4.904468
 30
0.0
 11
5.078312
 21
5.422805
 31
0.0
  0
LINE
  8
0
  6
BYBLOCK
 62
     0
 10
5.833312
 20
4.763468
 30
0.0
 11
5.833312
 21
5.422805
 31
0.0
  0
LINE
  8
0
  6
BYBLOCK
 62
     0
 10
4.808312
 20
5.283305
 30
0.0
 11
4.538312
 21
5.283305
 31
0.0
  0
LINE
  8
0
  6
BYBLOCK
 62
     0
 10
6.103312
 20
5.283305
 30
0.0
 11
6.373312
 21
5.283305
 31
0.0
  0
SOLID
  8
0
  6
BYBLOCK
 62
     0
 10
4.808312
 20
5.328305
 30
0.0
 11
4.808312
 21
5.238305
 31
0.0
 12
5.078312
 22
5.283305
 32
0.0
 13
5.078312
 23
5.283305
 33
0.0
  0
SOLID
  8
0
  6
BYBLOCK
 62
     0
 10
6.103312
 20
5.328305
 30
0.0
 11
6.103312
 21
5.238305
 31
0.0
 12
5.833312
 22
5.283305
 32
0.0
 13
5.833312
 23
5.283305
 33
0.0
  0
TEXT
  8
0
  6
BYBLOCK
 62
     0
 10
5.186281
 20
5.189555
 30
0.0
 40
0.1875
  1
0.755
 41
0.75
  7
TXT
 72
     1
 11
5.455812
 21
5.283305
 31
0.0
 73
     2
  0
POINT
  8
DEFPOINTS
  6
BYBLOCK
 62
     0
 10
5.078312
 20
4.809968
 30
0.0
  0
POINT
  8
DEFPOINTS
  6
BYBLOCK
 62
     0
 10
5.833312
 20
4.668968
 30
0.0
  0
POINT
  8
DEFPOINTS
  6
BYBLOCK
 62
     0
 10
5.833312
 20
5.283305
 30
0.0
  0
ENDBLK
  8
0
  0
BLOCK
  8
0
  2
*D10
 70
    65
 10
0.0
 20
0.0
 30
0.0
  3
*D
  0
LINE
  8
0
  6
BYBLOCK
 62
     0
 10
9.085114
 20
11.111086
 30
0.0
 11
9.085114
 21
12.091726
 31
0.0
  0
LINE
  8
0
  6
BYBLOCK
 62
     0
 10
7.575114
 20
11.111086
 30
0.0
 11
7.575114
 21
12.091726
 31
0.0
  0
LINE
  8
0
  6
BYBLOCK
 62
     0
 10
9.355114
 20
11.952226
 30
0.0
 11
9.625114
 21
11.952226
 31
0.0
  0
LINE
  8
0
  6
BYBLOCK
 62
     0
 10
7.305114
 20
11.952226
 30
0.0
 11
7.035114
 21
11.952226
 31
0.0
  0
SOLID
  8
0
  6
BYBLOCK
 62
     0
 10
9.355114
 20
11.997226
 30
0.0
 11
9.355114
 21
11.907226
 31
0.0
 12
9.085114
 22
11.952226
 32
0.0
 13
9.085114
 23
11.952226
 33
0.0
  0
SOLID
  8
0
  6
BYBLOCK
 62
     0
 10
7.305114
 20
11.997226
 30
0.0
 11
7.305114
 21
11.907226
 31
0.0
 12
7.575114
 22
11.952226
 32
0.0
 13
7.575114
 23
11.952226
 33
0.0
  0
TEXT
  8
0
  6
BYBLOCK
 62
     0
 10
8.107457
 20
11.858476
 30
0.0
 40
0.1875
  1
1.510
 41
0.75
  7
TXT
 72
     1
 11
8.330114
 21
11.952226
 31
0.0
 73
     2
  0
POINT
  8
DEFPOINTS
  6
BYBLOCK
 62
     0
 10
9.085114
 20
11.016586
 30
0.0
  0
POINT
  8
DEFPOINTS
  6
BYBLOCK
 62
     0
 10
7.575114
 20
11.016586
 30
0.0
  0
POINT
  8
DEFPOINTS
  6
BYBLOCK
 62
     0
 10
7.575114
 20
11.952226
 30
0.0
  0
ENDBLK
  8
0
  0
BLOCK
  8
0
  2
*D11
 70
    65
 10
0.0
 20
0.0
 30
0.0
  3
*D
  0
LINE
  8
0
  6
BYBLOCK
 62
     0
 10
8.330114
 20
10.970086
 30
0.0
 11
8.330114
 21
11.682586
 31
0.0
  0
LINE
  8
0
  6
BYBLOCK
 62
     0
 10
7.575114
 20
11.111086
 30
0.0
 11
7.575114
 21
11.682586
 31
0.0
  0
LINE
  8
0
  6
BYBLOCK
 62
     0
 10
8.600114
 20
11.543086
 30
0.0
 11
8.870114
 21
11.543086
 31
0.0
  0
LINE
  8
0
  6
BYBLOCK
 62
     0
 10
7.305114
 20
11.543086
 30
0.0
 11
7.035114
 21
11.543086
 31
0.0
  0
SOLID
  8
0
  6
BYBLOCK
 62
     0
 10
8.600114
 20
11.588086
 30
0.0
 11
8.600114
 21
11.498086
 31
0.0
 12
8.330114
 22
11.543086
 32
0.0
 13
8.330114
 23
11.543086
 33
0.0
  0
SOLID
  8
0
  6
BYBLOCK
 62
     0
 10
7.305114
 20
11.588086
 30
0.0
 11
7.305114
 21
11.498086
 31
0.0
 12
7.575114
 22
11.543086
 32
0.0
 13
7.575114
 23
11.543086
 33
0.0
  0
TEXT
  8
0
  6
BYBLOCK
 62
     0
 10
7.683082
 20
11.449336
 30
0.0
 40
0.1875
  1
0.755
 41
0.75
  7
TXT
 72
     1
 11
7.952614
 21
11.543086
 31
0.0
 73
     2
  0
POINT
  8
DEFPOINTS
  6
BYBLOCK
 62
     0
 10
8.330114
 20
10.875586
 30
0.0
  0
POINT
  8
DEFPOINTS
  6
BYBLOCK
 62
     0
 10
7.575114
 20
11.016586
 30
0.0
  0
POINT
  8
DEFPOINTS
  6
BYBLOCK
 62
     0
 10
7.575114
 20
11.543086
 30
0.0
  0
ENDBLK
  8
0
  0
BLOCK
  8
0
  2
*D12
 70
    65
 10
0.0
 20
0.0
 30
0.0
  3
*D
  0
LINE
  8
0
  6
BYBLOCK
 62
     0
 10
3.170403
 20
10.968086
 30
0.0
 11
3.170403
 21
12.091726
 31
0.0
  0
LINE
  8
0
  6
BYBLOCK
 62
     0
 10
1.820403
 20
10.968086
 30
0.0
 11
1.820403
 21
12.091726
 31
0.0
  0
LINE
  8
0
  6
BYBLOCK
 62
     0
 10
3.440403
 20
11.952226
 30
0.0
 11
3.710403
 21
11.952226
 31
0.0
  0
LINE
  8
0
  6
BYBLOCK
 62
     0
 10
1.550403
 20
11.952226
 30
0.0
 11
1.280403
 21
11.952226
 31
0.0
  0
SOLID
  8
0
  6
BYBLOCK
 62
     0
 10
3.440403
 20
11.997226
 30
0.0
 11
3.440403
 21
11.907226
 31
0.0
 12
3.170403
 22
11.952226
 32
0.0
 13
3.170403
 23
11.952226
 33
0.0
  0
SOLID
  8
0
  6
BYBLOCK
 62
     0
 10
1.550403
 20
11.997226
 30
0.0
 11
1.550403
 21
11.907226
 31
0.0
 12
1.820403
 22
11.952226
 32
0.0
 13
1.820403
 23
11.952226
 33
0.0
  0
TEXT
  8
0
  6
BYBLOCK
 62
     0
 10
2.249309
 20
11.858476
 30
0.0
 40
0.1875
  1
1.350
 41
0.75
  7
TXT
 72
     1
 11
2.495403
 21
11.952226
 31
0.0
 73
     2
  0
POINT
  8
DEFPOINTS
  6
BYBLOCK
 62
     0
 10
3.170403
 20
10.873586
 30
0.0
  0
POINT
  8
DEFPOINTS
  6
BYBLOCK
 62
     0
 10
1.820403
 20
10.873586
 30
0.0
  0
POINT
  8
DEFPOINTS
  6
BYBLOCK
 62
     0
 10
1.820403
 20
11.952226
 30
0.0
  0
ENDBLK
  8
0
  0
BLOCK
  8
0
  2
*D13
 70
    65
 10
0.0
 20
0.0
 30
0.0
  3
*D
  0
LINE
  8
0
  6
BYBLOCK
 62
     0
 10
1.820403
 20
10.968086
 30
0.0
 11
1.820403
 21
11.682586
 31
0.0
  0
LINE
  8
0
  6
BYBLOCK
 62
     0
 10
1.740403
 20
11.111086
 30
0.0
 11
1.740403
 21
11.682586
 31
0.0
  0
LINE
  8
0
  6
BYBLOCK
 62
     0
 10
2.090403
 20
11.543086
 30
0.0
 11
2.360403
 21
11.543086
 31
0.0
  0
LINE
  8
0
  6
BYBLOCK
 62
     0
 10
1.470403
 20
11.543086
 30
0.0
 11
1.200403
 21
11.543086
 31
0.0
  0
SOLID
  8
0
  6
BYBLOCK
 62
     0
 10
2.090403
 20
11.588086
 30
0.0
 11
2.090403
 21
11.498086
 31
0.0
 12
1.820403
 22
11.543086
 32
0.0
 13
1.820403
 23
11.543086
 33
0.0
  0
SOLID
  8
0
  6
BYBLOCK
 62
     0
 10
1.470403
 20
11.588086
 30
0.0
 11
1.470403
 21
11.498086
 31
0.0
 12
1.740403
 22
11.543086
 32
0.0
 13
1.740403
 23
11.543086
 33
0.0
  0
TEXT
  8
0
  6
BYBLOCK
 62
     0
 10
0.573215
 20
11.449336
 30
0.0
 40
0.1875
  1
0.080
 41
0.75
  7
TXT
 72
     1
 11
0.819309
 21
11.543086
 31
0.0
 73
     2
  0
POINT
  8
DEFPOINTS
  6
BYBLOCK
 62
     0
 10
1.820403
 20
10.873586
 30
0.0
  0
POINT
  8
DEFPOINTS
  6
BYBLOCK
 62
     0
 10
1.740403
 20
11.016586
 30
0.0
  0
POINT
  8
DEFPOINTS
  6
BYBLOCK
 62
     0
 10
1.740403
 20
11.543086
 30
0.0
  0
ENDBLK
  8
0
  0
BLOCK
  8
0
  2
*D14
 70
    65
 10
0.0
 20
0.0
 30
0.0
  3
*D
  0
LINE
  8
0
  6
BYBLOCK
 62
     0
 10
14.121855
 20
8.848086
 30
0.0
 11
14.121855
 21
8.326348
 31
0.0
  0
LINE
  8
0
  6
BYBLOCK
 62
     0
 10
13.336855
 20
8.858346
 30
0.0
 11
13.336855
 21
8.326348
 31
0.0
  0
LINE
  8
0
  6
BYBLOCK
 62
     0
 10
14.391855
 20
8.465848
 30
0.0
 11
14.661855
 21
8.465848
 31
0.0
  0
LINE
  8
0
  6
BYBLOCK
 62
     0
 10
13.066855
 20
8.465848
 30
0.0
 11
12.796855
 21
8.465848
 31
0.0
  0
SOLID
  8
0
  6
BYBLOCK
 62
     0
 10
14.391855
 20
8.510848
 30
0.0
 11
14.391855
 21
8.420848
 31
0.0
 12
14.121855
 22
8.465848
 32
0.0
 13
14.121855
 23
8.465848
 33
0.0
  0
SOLID
  8
0
  6
BYBLOCK
 62
     0
 10
13.066855
 20
8.510848
 30
0.0
 11
13.066855
 21
8.420848
 31
0.0
 12
13.336855
 22
8.465848
 32
0.0
 13
13.336855
 23
8.465848
 33
0.0
  0
TEXT
  8
0
  6
BYBLOCK
 62
     0
 10
13.459823
 20
8.372098
 30
0.0
 40
0.1875
  1
0.785
 41
0.75
  7
TXT
 72
     1
 11
13.729355
 21
8.465848
 31
0.0
 73
     2
  0
POINT
  8
DEFPOINTS
  6
BYBLOCK
 62
     0
 10
14.121855
 20
8.942586
 30
0.0
  0
POINT
  8
DEFPOINTS
  6
BYBLOCK
 62
     0
 10
13.336855
 20
8.952846
 30
0.0
  0
POINT
  8
DEFPOINTS
  6
BYBLOCK
 62
     0
 10
13.336855
 20
8.465848
 30
0.0
  0
ENDBLK
  8
0
  0
BLOCK
  8
0
  2
*D15
 70
    65
 10
0.0
 20
0.0
 30
0.0
  3
*D
  0
LINE
  8
0
  6
BYBLOCK
 62
     0
 10
4.366675
 20
8.859086
 30
0.0
 11
4.366675
 21
8.294572
 31
0.0
  0
LINE
  8
0
  6
BYBLOCK
 62
     0
 10
4.626675
 20
8.848086
 30
0.0
 11
4.626675
 21
8.294572
 31
0.0
  0
LINE
  8
0
  6
BYBLOCK
 62
     0
 10
4.096675
 20
8.434072
 30
0.0
 11
3.826675
 21
8.434072
 31
0.0
  0
LINE
  8
0
  6
BYBLOCK
 62
     0
 10
4.896675
 20
8.434072
 30
0.0
 11
5.166675
 21
8.434072
 31
0.0
  0
SOLID
  8
0
  6
BYBLOCK
 62
     0
 10
4.096675
 20
8.479072
 30
0.0
 11
4.096675
 21
8.389072
 31
0.0
 12
4.366675
 22
8.434072
 32
0.0
 13
4.366675
 23
8.434072
 33
0.0
  0
SOLID
  8
0
  6
BYBLOCK
 62
     0
 10
4.896675
 20
8.479072
 30
0.0
 11
4.896675
 21
8.389072
 31
0.0
 12
4.626675
 22
8.434072
 32
0.0
 13
4.626675
 23
8.434072
 33
0.0
  0
TEXT
  8
0
  6
BYBLOCK
 62
     0
 10
5.301675
 20
8.340322
 30
0.0
 40
0.1875
  1
0.260
 41
0.75
  7
TXT
 72
     1
 11
5.559488
 21
8.434072
 31
0.0
 73
     2
  0
POINT
  8
DEFPOINTS
  6
BYBLOCK
 62
     0
 10
4.366675
 20
8.953586
 30
0.0
  0
POINT
  8
DEFPOINTS
  6
BYBLOCK
 62
     0
 10
4.626675
 20
8.942586
 30
0.0
  0
POINT
  8
DEFPOINTS
  6
BYBLOCK
 62
     0
 10
4.626675
 20
8.434072
 30
0.0
  0
ENDBLK
  8
0
  0
BLOCK
  8
0
  2
*D16
 70
    65
 10
0.0
 20
0.0
 30
0.0
  3
*D
  0
LINE
  8
0
  6
BYBLOCK
 62
     0
 10
4.521675
 20
11.204086
 30
0.0
 11
4.521675
 21
11.543086
 31
0.0
  0
LINE
  8
0
  6
BYBLOCK
 62
     0
 10
4.481675
 20
11.124086
 30
0.0
 11
4.481675
 21
11.543086
 31
0.0
  0
LINE
  8
0
  6
BYBLOCK
 62
     0
 10
4.791675
 20
11.403586
 30
0.0
 11
5.061675
 21
11.403586
 31
0.0
  0
LINE
  8
0
  6
BYBLOCK
 62
     0
 10
4.211675
 20
11.403586
 30
0.0
 11
3.941675
 21
11.403586
 31
0.0
  0
SOLID
  8
0
  6
BYBLOCK
 62
     0
 10
4.791675
 20
11.448586
 30
0.0
 11
4.791675
 21
11.358586
 31
0.0
 12
4.521675
 22
11.403586
 32
0.0
 13
4.521675
 23
11.403586
 33
0.0
  0
SOLID
  8
0
  6
BYBLOCK
 62
     0
 10
4.211675
 20
11.448586
 30
0.0
 11
4.211675
 21
11.358586
 31
0.0
 12
4.481675
 22
11.403586
 32
0.0
 13
4.481675
 23
11.403586
 33
0.0
  0
TEXT
  8
0
  6
BYBLOCK
 62
     0
 10
3.314488
 20
11.309836
 30
0.0
 40
0.1875
  1
0.040
 41
0.75
  7
TXT
 72
     1
 11
3.560582
 21
11.403586
 31
0.0
 73
     2
  0
POINT
  8
DEFPOINTS
  6
BYBLOCK
 62
     0
 10
4.521675
 20
11.109586
 30
0.0
  0
POINT
  8
DEFPOINTS
  6
BYBLOCK
 62
     0
 10
4.481675
 20
11.029586
 30
0.0
  0
POINT
  8
DEFPOINTS
  6
BYBLOCK
 62
     0
 10
4.481675
 20
11.403586
 30
0.0
  0
ENDBLK
  8
0
  0
BLOCK
  8
0
  2
*D17
 70
    65
 10
0.0
 20
0.0
 30
0.0
  3
*D
  0
LINE
  8
0
  6
BYBLOCK
 62
     0
 10
4.521675
 20
11.204086
 30
0.0
 11
4.521675
 21
11.873414
 31
0.0
  0
LINE
  8
0
  6
BYBLOCK
 62
     0
 10
4.626675
 20
11.111086
 30
0.0
 11
4.626675
 21
11.873414
 31
0.0
  0
LINE
  8
0
  6
BYBLOCK
 62
     0
 10
4.251675
 20
11.733914
 30
0.0
 11
3.981675
 21
11.733914
 31
0.0
  0
LINE
  8
0
  6
BYBLOCK
 62
     0
 10
4.896675
 20
11.733914
 30
0.0
 11
5.166675
 21
11.733914
 31
0.0
  0
SOLID
  8
0
  6
BYBLOCK
 62
     0
 10
4.251675
 20
11.778914
 30
0.0
 11
4.251675
 21
11.688914
 31
0.0
 12
4.521675
 22
11.733914
 32
0.0
 13
4.521675
 23
11.733914
 33
0.0
  0
SOLID
  8
0
  6
BYBLOCK
 62
     0
 10
4.896675
 20
11.778914
 30
0.0
 11
4.896675
 21
11.688914
 31
0.0
 12
4.626675
 22
11.733914
 32
0.0
 13
4.626675
 23
11.733914
 33
0.0
  0
TEXT
  8
0
  6
BYBLOCK
 62
     0
 10
5.301675
 20
11.640164
 30
0.0
 40
0.1875
  1
0.105
 41
0.75
  7
TXT
 72
     1
 11
5.53605
 21
11.733914
 31
0.0
 73
     2
  0
POINT
  8
DEFPOINTS
  6
BYBLOCK
 62
     0
 10
4.521675
 20
11.109586
 30
0.0
  0
POINT
  8
DEFPOINTS
  6
BYBLOCK
 62
     0
 10
4.626675
 20
11.016586
 30
0.0
  0
POINT
  8
DEFPOINTS
  6
BYBLOCK
 62
     0
 10
4.626675
 20
11.733914
 30
0.0
  0
ENDBLK
  8
0
  0
BLOCK
  8
0
  2
*D18
 70
    65
 10
0.0
 20
0.0
 30
0.0
  3
*D
  0
LINE
  8
0
  6
BYBLOCK
 62
     0
 10
6.641262
 20
8.849586
 30
0.0
 11
5.432494
 21
8.849586
 31
0.0
  0
LINE
  8
0
  6
BYBLOCK
 62
     0
 10
6.641262
 20
11.109586
 30
0.0
 11
5.432494
 21
11.109586
 31
0.0
  0
LINE
  8
0
  6
BYBLOCK
 62
     0
 10
5.571994
 20
9.119586
 30
0.0
 11
5.571994
 21
9.979586
 31
0.0
  0
LINE
  8
0
  6
BYBLOCK
 62
     0
 10
5.571994
 20
10.839586
 30
0.0
 11
5.571994
 21
10.437086
 31
0.0
  0
SOLID
  8
0
  6
BYBLOCK
 62
     0
 10
5.526994
 20
9.119586
 30
0.0
 11
5.616994
 21
9.119586
 31
0.0
 12
5.571994
 22
8.849586
 32
0.0
 13
5.571994
 23
8.849586
 33
0.0
  0
SOLID
  8
0
  6
BYBLOCK
 62
     0
 10
5.526994
 20
10.839586
 30
0.0
 11
5.616994
 21
10.839586
 31
0.0
 12
5.571994
 22
11.109586
 32
0.0
 13
5.571994
 23
11.109586
 33
0.0
  0
TEXT
  8
0
  6
BYBLOCK
 62
     0
 10
5.302463
 20
10.114586
 30
0.0
 40
0.1875
  1
2.260
 41
0.75
  7
TXT
 72
     1
 11
5.571994
 21
10.208336
 31
0.0
 73
     2
  0
POINT
  8
DEFPOINTS
  6
BYBLOCK
 62
     0
 10
6.735762
 20
8.849586
 30
0.0
  0
POINT
  8
DEFPOINTS
  6
BYBLOCK
 62
     0
 10
6.735762
 20
11.109586
 30
0.0
  0
POINT
  8
DEFPOINTS
  6
BYBLOCK
 62
     0
 10
5.571994
 20
11.109586
 30
0.0
  0
ENDBLK
  8
0
  0
BLOCK
  8
0
  2
*D19
 70
    65
 10
0.0
 20
0.0
 30
0.0
  3
*D
  0
LINE
  8
0
  6
BYBLOCK
 62
     0
 10
7.303262
 20
9.083586
 30
0.0
 11
6.033326
 21
9.083586
 31
0.0
  0
LINE
  8
0
  6
BYBLOCK
 62
     0
 10
6.641262
 20
8.849586
 30
0.0
 11
6.033326
 21
8.849586
 31
0.0
  0
LINE
  8
0
  6
BYBLOCK
 62
     0
 10
6.172826
 20
9.353586
 30
0.0
 11
6.172826
 21
9.623586
 31
0.0
  0
LINE
  8
0
  6
BYBLOCK
 62
     0
 10
6.172826
 20
8.579586
 30
0.0
 11
6.172826
 21
8.309586
 31
0.0
  0
SOLID
  8
0
  6
BYBLOCK
 62
     0
 10
6.127826
 20
9.353586
 30
0.0
 11
6.217826
 21
9.353586
 31
0.0
 12
6.172826
 22
9.083586
 32
0.0
 13
6.172826
 23
9.083586
 33
0.0
  0
SOLID
  8
0
  6
BYBLOCK
 62
     0
 10
6.127826
 20
8.579586
 30
0.0
 11
6.217826
 21
8.579586
 31
0.0
 12
6.172826
 22
8.849586
 32
0.0
 13
6.172826
 23
8.849586
 33
0.0
  0
TEXT
  8
0
  6
BYBLOCK
 62
     0
 10
5.903295
 20
8.872836
 30
0.0
 40
0.1875
  1
0.234
 41
0.75
  7
TXT
 72
     1
 11
6.172826
 21
8.966586
 31
0.0
 73
     2
  0
POINT
  8
DEFPOINTS
  6
BYBLOCK
 62
     0
 10
7.397762
 20
9.083586
 30
0.0
  0
POINT
  8
DEFPOINTS
  6
BYBLOCK
 62
     0
 10
6.735762
 20
8.849586
 30
0.0
  0
POINT
  8
DEFPOINTS
  6
BYBLOCK
 62
     0
 10
6.172826
 20
8.849586
 30
0.0
  0
ENDBLK
  8
0
  0
BLOCK
  8
0
  2
*D20
 70
    65
 10
0.0
 20
0.0
 30
0.0
  3
*D
  0
LINE
  8
0
  6
BYBLOCK
 62
     0
 10
7.303262
 20
10.875586
 30
0.0
 11
6.033326
 21
10.875586
 31
0.0
  0
LINE
  8
0
  6
BYBLOCK
 62
     0
 10
7.303262
 20
9.083586
 30
0.0
 11
6.033326
 21
9.083586
 31
0.0
  0
LINE
  8
0
  6
BYBLOCK
 62
     0
 10
6.172826
 20
10.605586
 30
0.0
 11
6.172826
 21
10.208336
 31
0.0
  0
LINE
  8
0
  6
BYBLOCK
 62
     0
 10
6.172826
 20
9.353586
 30
0.0
 11
6.172826
 21
9.750836
 31
0.0
  0
SOLID
  8
0
  6
BYBLOCK
 62
     0
 10
6.127826
 20
10.605586
 30
0.0
 11
6.217826
 21
10.605586
 31
0.0
 12
6.172826
 22
10.875586
 32
0.0
 13
6.172826
 23
10.875586
 33
0.0
  0
SOLID
  8
0
  6
BYBLOCK
 62
     0
 10
6.127826
 20
9.353586
 30
0.0
 11
6.217826
 21
9.353586
 31
0.0
 12
6.172826
 22
9.083586
 32
0.0
 13
6.172826
 23
9.083586
 33
0.0
  0
TEXT
  8
0
  6
BYBLOCK
 62
     0
 10
5.915014
 20
9.885836
 30
0.0
 40
0.1875
  1
1.792
 41
0.75
  7
TXT
 72
     1
 11
6.172826
 21
9.979586
 31
0.0
 73
     2
  0
POINT
  8
DEFPOINTS
  6
BYBLOCK
 62
     0
 10
7.397762
 20
10.875586
 30
0.0
  0
POINT
  8
DEFPOINTS
  6
BYBLOCK
 62
     0
 10
7.397762
 20
9.083586
 30
0.0
  0
POINT
  8
DEFPOINTS
  6
BYBLOCK
 62
     0
 10
6.172826
 20
9.083586
 30
0.0
  0
ENDBLK
  8
0
  0
BLOCK
  8
0
  2
*D21
 70
    65
 10
0.0
 20
0.0
 30
0.0
  3
*D
  0
LINE
  8
0
  6
BYBLOCK
 62
     0
 10
6.730794
 20
10.056637
 30
0.0
 11
6.730794
 21
10.856819
 31
0.0
  0
LINE
  8
0
  6
BYBLOCK
 62
     0
 10
5.975794
 20
10.197637
 30
0.0
 11
5.975794
 21
10.856819
 31
0.0
  0
LINE
  8
0
  6
BYBLOCK
 62
     0
 10
7.000794
 20
10.717319
 30
0.0
 11
7.270794
 21
10.717319
 31
0.0
  0
LINE
  8
0
  6
BYBLOCK
 62
     0
 10
5.705794
 20
10.717319
 30
0.0
 11
5.435794
 21
10.717319
 31
0.0
  0
SOLID
  8
0
  6
BYBLOCK
 62
     0
 10
7.000794
 20
10.762319
 30
0.0
 11
7.000794
 21
10.672319
 31
0.0
 12
6.730794
 22
10.717319
 32
0.0
 13
6.730794
 23
10.717319
 33
0.0
  0
SOLID
  8
0
  6
BYBLOCK
 62
     0
 10
5.705794
 20
10.762319
 30
0.0
 11
5.705794
 21
10.672319
 31
0.0
 12
5.975794
 22
10.717319
 32
0.0
 13
5.975794
 23
10.717319
 33
0.0
  0
TEXT
  8
0
  6
BYBLOCK
 62
     0
 10
6.083763
 20
10.623569
 30
0.0
 40
0.1875
  1
0.755
 41
0.75
  7
TXT
 72
     1
 11
6.353294
 21
10.717319
 31
0.0
 73
     2
  0
POINT
  8
DEFPOINTS
  6
BYBLOCK
 62
     0
 10
6.730794
 20
9.962137
 30
0.0
  0
POINT
  8
DEFPOINTS
  6
BYBLOCK
 62
     0
 10
5.975794
 20
10.103137
 30
0.0
  0
POINT
  8
DEFPOINTS
  6
BYBLOCK
 62
     0
 10
5.975794
 20
10.717319
 30
0.0
  0
ENDBLK
  8
0
  0
BLOCK
  8
0
  2
*D22
 70
    65
 10
0.0
 20
0.0
 30
0.0
  3
*D
  0
LINE
  8
0
  6
BYBLOCK
 62
     0
 10
1.98763
 20
9.329148
 30
0.0
 11
1.98763
 21
9.279115
 31
0.0
  0
LINE
  8
0
  6
BYBLOCK
 62
     0
 10
2.02763
 20
9.329148
 30
0.0
 11
2.02763
 21
9.279115
 31
0.0
  0
LINE
  8
0
  6
BYBLOCK
 62
     0
 10
1.71763
 20
9.418615
 30
0.0
 11
1.44763
 21
9.418615
 31
0.0
  0
LINE
  8
0
  6
BYBLOCK
 62
     0
 10
2.29763
 20
9.418615
 30
0.0
 11
2.56763
 21
9.418615
 31
0.0
  0
SOLID
  8
0
  6
BYBLOCK
 62
     0
 10
1.71763
 20
9.463615
 30
0.0
 11
1.71763
 21
9.373615
 31
0.0
 12
1.98763
 22
9.418615
 32
0.0
 13
1.98763
 23
9.418615
 33
0.0
  0
SOLID
  8
0
  6
BYBLOCK
 62
     0
 10
2.29763
 20
9.463615
 30
0.0
 11
2.29763
 21
9.373615
 31
0.0
 12
2.02763
 22
9.418615
 32
0.0
 13
2.02763
 23
9.418615
 33
0.0
  0
TEXT
  8
0
  6
BYBLOCK
 62
     0
 10
2.70263
 20
9.324865
 30
0.0
 40
0.1875
  1
0.040
 41
0.75
  7
TXT
 72
     1
 11
2.948724
 21
9.418615
 31
0.0
 73
     2
  0
POINT
  8
DEFPOINTS
  6
BYBLOCK
 62
     0
 10
1.98763
 20
9.423648
 30
0.0
  0
POINT
  8
DEFPOINTS
  6
BYBLOCK
 62
     0
 10
2.02763
 20
9.423648
 30
0.0
  0
POINT
  8
DEFPOINTS
  6
BYBLOCK
 62
     0
 10
2.02763
 20
9.418615
 30
0.0
  0
ENDBLK
  8
0
  0
BLOCK
  8
0
  2
*D23
 70
    65
 10
0.0
 20
0.0
 30
0.0
  3
*D
  0
LINE
  8
0
  6
BYBLOCK
 62
     0
 10
7.485794
 20
10.197637
 30
0.0
 11
7.485794
 21
11.26596
 31
0.0
  0
LINE
  8
0
  6
BYBLOCK
 62
     0
 10
5.975794
 20
10.197637
 30
0.0
 11
5.975794
 21
11.26596
 31
0.0
  0
LINE
  8
0
  6
BYBLOCK
 62
     0
 10
7.755794
 20
11.12646
 30
0.0
 11
8.025794
 21
11.12646
 31
0.0
  0
LINE
  8
0
  6
BYBLOCK
 62
     0
 10
5.705794
 20
11.12646
 30
0.0
 11
5.435794
 21
11.12646
 31
0.0
  0
SOLID
  8
0
  6
BYBLOCK
 62
     0
 10
7.755794
 20
11.17146
 30
0.0
 11
7.755794
 21
11.08146
 31
0.0
 12
7.485794
 22
11.12646
 32
0.0
 13
7.485794
 23
11.12646
 33
0.0
  0
SOLID
  8
0
  6
BYBLOCK
 62
     0
 10
5.705794
 20
11.17146
 30
0.0
 11
5.705794
 21
11.08146
 31
0.0
 12
5.975794
 22
11.12646
 32
0.0
 13
5.975794
 23
11.12646
 33
0.0
  0
TEXT
  8
0
  6
BYBLOCK
 62
     0
 10
6.508138
 20
11.03271
 30
0.0
 40
0.1875
  1
1.510
 41
0.75
  7
TXT
 72
     1
 11
6.730794
 21
11.12646
 31
0.0
 73
     2
  0
POINT
  8
DEFPOINTS
  6
BYBLOCK
 62
     0
 10
7.485794
 20
10.103137
 30
0.0
  0
POINT
  8
DEFPOINTS
  6
BYBLOCK
 62
     0
 10
5.975794
 20
10.103137
 30
0.0
  0
POINT
  8
DEFPOINTS
  6
BYBLOCK
 62
     0
 10
5.975794
 20
11.12646
 30
0.0
  0
ENDBLK
  8
0
  0
BLOCK
  8
0
  2
*D24
 70
    65
 10
0.0
 20
0.0
 30
0.0
  3
*D
  0
LINE
  8
0
  6
BYBLOCK
 62
     0
 10
4.304328
 20
10.598637
 30
0.0
 11
4.304328
 21
10.856819
 31
0.0
  0
LINE
  8
0
  6
BYBLOCK
 62
     0
 10
4.264328
 20
10.210637
 30
0.0
 11
4.264328
 21
10.856819
 31
0.0
  0
LINE
  8
0
  6
BYBLOCK
 62
     0
 10
4.574328
 20
10.717319
 30
0.0
 11
4.844328
 21
10.717319
 31
0.0
  0
LINE
  8
0
  6
BYBLOCK
 62
     0
 10
3.994328
 20
10.717319
 30
0.0
 11
3.724328
 21
10.717319
 31
0.0
  0
SOLID
  8
0
  6
BYBLOCK
 62
     0
 10
4.574328
 20
10.762319
 30
0.0
 11
4.574328
 21
10.672319
 31
0.0
 12
4.304328
 22
10.717319
 32
0.0
 13
4.304328
 23
10.717319
 33
0.0
  0
SOLID
  8
0
  6
BYBLOCK
 62
     0
 10
3.994328
 20
10.762319
 30
0.0
 11
3.994328
 21
10.672319
 31
0.0
 12
4.264328
 22
10.717319
 32
0.0
 13
4.264328
 23
10.717319
 33
0.0
  0
TEXT
  8
0
  6
BYBLOCK
 62
     0
 10
3.09714
 20
10.623569
 30
0.0
 40
0.1875
  1
0.040
 41
0.75
  7
TXT
 72
     1
 11
3.343234
 21
10.717319
 31
0.0
 73
     2
  0
POINT
  8
DEFPOINTS
  6
BYBLOCK
 62
     0
 10
4.304328
 20
10.504137
 30
0.0
  0
POINT
  8
DEFPOINTS
  6
BYBLOCK
 62
     0
 10
4.264328
 20
10.116137
 30
0.0
  0
POINT
  8
DEFPOINTS
  6
BYBLOCK
 62
     0
 10
4.264328
 20
10.717319
 30
0.0
  0
ENDBLK
  8
0
  0
BLOCK
  8
0
  2
*D25
 70
    65
 10
0.0
 20
0.0
 30
0.0
  3
*D
  0
LINE
  8
0
  6
BYBLOCK
 62
     0
 10
3.33763
 20
10.054637
 30
0.0
 11
3.33763
 21
11.26596
 31
0.0
  0
LINE
  8
0
  6
BYBLOCK
 62
     0
 10
1.98763
 20
10.054637
 30
0.0
 11
1.98763
 21
11.26596
 31
0.0
  0
LINE
  8
0
  6
BYBLOCK
 62
     0
 10
3.60763
 20
11.12646
 30
0.0
 11
3.87763
 21
11.12646
 31
0.0
  0
LINE
  8
0
  6
BYBLOCK
 62
     0
 10
1.71763
 20
11.12646
 30
0.0
 11
1.44763
 21
11.12646
 31
0.0
  0
SOLID
  8
0
  6
BYBLOCK
 62
     0
 10
3.60763
 20
11.17146
 30
0.0
 11
3.60763
 21
11.08146
 31
0.0
 12
3.33763
 22
11.12646
 32
0.0
 13
3.33763
 23
11.12646
 33
0.0
  0
SOLID
  8
0
  6
BYBLOCK
 62
     0
 10
1.71763
 20
11.17146
 30
0.0
 11
1.71763
 21
11.08146
 31
0.0
 12
1.98763
 22
11.12646
 32
0.0
 13
1.98763
 23
11.12646
 33
0.0
  0
TEXT
  8
0
  6
BYBLOCK
 62
     0
 10
2.416536
 20
11.03271
 30
0.0
 40
0.1875
  1
1.350
 41
0.75
  7
TXT
 72
     1
 11
2.66263
 21
11.12646
 31
0.0
 73
     2
  0
POINT
  8
DEFPOINTS
  6
BYBLOCK
 62
     0
 10
3.33763
 20
9.960137
 30
0.0
  0
POINT
  8
DEFPOINTS
  6
BYBLOCK
 62
     0
 10
1.98763
 20
9.960137
 30
0.0
  0
POINT
  8
DEFPOINTS
  6
BYBLOCK
 62
     0
 10
1.98763
 20
11.12646
 30
0.0
  0
ENDBLK
  8
0
  0
BLOCK
  8
0
  2
*D26
 70
    65
 10
0.0
 20
0.0
 30
0.0
  3
*D
  0
LINE
  8
0
  6
BYBLOCK
 62
     0
 10
1.98763
 20
10.054637
 30
0.0
 11
1.98763
 21
10.856819
 31
0.0
  0
LINE
  8
0
  6
BYBLOCK
 62
     0
 10
1.90763
 20
10.197637
 30
0.0
 11
1.90763
 21
10.856819
 31
0.0
  0
LINE
  8
0
  6
BYBLOCK
 62
     0
 10
2.25763
 20
10.717319
 30
0.0
 11
2.52763
 21
10.717319
 31
0.0
  0
LINE
  8
0
  6
BYBLOCK
 62
     0
 10
1.63763
 20
10.717319
 30
0.0
 11
1.36763
 21
10.717319
 31
0.0
  0
SOLID
  8
0
  6
BYBLOCK
 62
     0
 10
2.25763
 20
10.762319
 30
0.0
 11
2.25763
 21
10.672319
 31
0.0
 12
1.98763
 22
10.717319
 32
0.0
 13
1.98763
 23
10.717319
 33
0.0
  0
SOLID
  8
0
  6
BYBLOCK
 62
     0
 10
1.63763
 20
10.762319
 30
0.0
 11
1.63763
 21
10.672319
 31
0.0
 12
1.90763
 22
10.717319
 32
0.0
 13
1.90763
 23
10.717319
 33
0.0
  0
TEXT
  8
0
  6
BYBLOCK
 62
     0
 10
0.740442
 20
10.623569
 30
0.0
 40
0.1875
  1
0.080
 41
0.75
  7
TXT
 72
     1
 11
0.986536
 21
10.717319
 31
0.0
 73
     2
  0
POINT
  8
DEFPOINTS
  6
BYBLOCK
 62
     0
 10
1.98763
 20
9.960137
 30
0.0
  0
POINT
  8
DEFPOINTS
  6
BYBLOCK
 62
     0
 10
1.90763
 20
10.103137
 30
0.0
  0
POINT
  8
DEFPOINTS
  6
BYBLOCK
 62
     0
 10
1.90763
 20
10.717319
 30
0.0
  0
ENDBLK
  8
0
  0
BLOCK
  8
0
  2
*D27
 70
    65
 10
0.0
 20
0.0
 30
0.0
  3
*D
  0
LINE
  8
0
  6
BYBLOCK
 62
     0
 10
3.615481
 20
10.116137
 30
0.0
 11
2.755625
 21
10.116137
 31
0.0
  0
LINE
  8
0
  6
BYBLOCK
 62
     0
 10
3.615481
 20
8.016137
 30
0.0
 11
2.755625
 21
8.016137
 31
0.0
  0
LINE
  8
0
  6
BYBLOCK
 62
     0
 10
2.895125
 20
9.846137
 30
0.0
 11
2.895125
 21
9.294887
 31
0.0
  0
LINE
  8
0
  6
BYBLOCK
 62
     0
 10
2.895125
 20
8.286137
 30
0.0
 11
2.895125
 21
8.837387
 31
0.0
  0
SOLID
  8
0
  6
BYBLOCK
 62
     0
 10
2.850125
 20
9.846137
 30
0.0
 11
2.940125
 21
9.846137
 31
0.0
 12
2.895125
 22
10.116137
 32
0.0
 13
2.895125
 23
10.116137
 33
0.0
  0
SOLID
  8
0
  6
BYBLOCK
 62
     0
 10
2.850125
 20
8.286137
 30
0.0
 11
2.940125
 21
8.286137
 31
0.0
 12
2.895125
 22
8.016137
 32
0.0
 13
2.895125
 23
8.016137
 33
0.0
  0
TEXT
  8
0
  6
BYBLOCK
 62
     0
 10
2.66075
 20
8.972387
 30
0.0
 40
0.1875
  1
2.100
 41
0.75
  7
TXT
 72
     1
 11
2.895125
 21
9.066137
 31
0.0
 73
     2
  0
POINT
  8
DEFPOINTS
  6
BYBLOCK
 62
     0
 10
3.709981
 20
10.116137
 30
0.0
  0
POINT
  8
DEFPOINTS
  6
BYBLOCK
 62
     0
 10
3.709981
 20
8.016137
 30
0.0
  0
POINT
  8
DEFPOINTS
  6
BYBLOCK
 62
     0
 10
2.895125
 20
8.016137
 30
0.0
  0
ENDBLK
  8
0
  0
BLOCK
  8
0
  2
*D28
 70
    65
 10
0.0
 20
0.0
 30
0.0
  3
*D
  0
LINE
  8
0
  6
BYBLOCK
 62
     0
 10
3.615481
 20
8.016137
 30
0.0
 11
2.755625
 21
8.016137
 31
0.0
  0
LINE
  8
0
  6
BYBLOCK
 62
     0
 10
3.472481
 20
7.936137
 30
0.0
 11
2.755625
 21
7.936137
 31
0.0
  0
LINE
  8
0
  6
BYBLOCK
 62
     0
 10
2.895125
 20
8.286137
 30
0.0
 11
2.895125
 21
8.556137
 31
0.0
  0
LINE
  8
0
  6
BYBLOCK
 62
     0
 10
2.895125
 20
7.666137
 30
0.0
 11
2.895125
 21
7.396137
 31
0.0
  0
LINE
  8
0
  6
BYBLOCK
 62
     0
 10
2.895125
 20
7.396137
 30
0.0
 11
2.625125
 21
7.396137
 31
0.0
  0
SOLID
  8
0
  6
BYBLOCK
 62
     0
 10
2.850125
 20
8.286137
 30
0.0
 11
2.940125
 21
8.286137
 31
0.0
 12
2.895125
 22
8.016137
 32
0.0
 13
2.895125
 23
8.016137
 33
0.0
  0
SOLID
  8
0
  6
BYBLOCK
 62
     0
 10
2.850125
 20
7.666137
 30
0.0
 11
2.940125
 21
7.666137
 31
0.0
 12
2.895125
 22
7.936137
 32
0.0
 13
2.895125
 23
7.936137
 33
0.0
  0
TEXT
  8
0
  6
BYBLOCK
 62
     0
 10
1.997938
 20
7.302387
 30
0.0
 40
0.1875
  1
0.080
 41
0.75
  7
TXT
 72
     1
 11
2.244031
 21
7.396137
 31
0.0
 73
     2
  0
POINT
  8
DEFPOINTS
  6
BYBLOCK
 62
     0
 10
3.709981
 20
8.016137
 30
0.0
  0
POINT
  8
DEFPOINTS
  6
BYBLOCK
 62
     0
 10
3.566981
 20
7.936137
 30
0.0
  0
POINT
  8
DEFPOINTS
  6
BYBLOCK
 62
     0
 10
2.895125
 20
7.936137
 30
0.0
  0
ENDBLK
  8
0
  0
BLOCK
  8
0
  2
*D29
 70
    65
 10
0.0
 20
0.0
 30
0.0
  3
*D
  0
LINE
  8
0
  6
BYBLOCK
 62
     0
 10
3.812815
 20
10.316137
 30
0.0
 11
5.058889
 21
10.316137
 31
0.0
  0
LINE
  8
0
  6
BYBLOCK
 62
     0
 10
3.812815
 20
7.816137
 30
0.0
 11
5.058889
 21
7.816137
 31
0.0
  0
LINE
  8
0
  6
BYBLOCK
 62
     0
 10
4.919389
 20
10.046137
 30
0.0
 11
4.919389
 21
9.294887
 31
0.0
  0
LINE
  8
0
  6
BYBLOCK
 62
     0
 10
4.919389
 20
8.086137
 30
0.0
 11
4.919389
 21
8.837387
 31
0.0
  0
SOLID
  8
0
  6
BYBLOCK
 62
     0
 10
4.874389
 20
10.046137
 30
0.0
 11
4.964389
 21
10.046137
 31
0.0
 12
4.919389
 22
10.316137
 32
0.0
 13
4.919389
 23
10.316137
 33
0.0
  0
SOLID
  8
0
  6
BYBLOCK
 62
     0
 10
4.874389
 20
8.086137
 30
0.0
 11
4.964389
 21
8.086137
 31
0.0
 12
4.919389
 22
7.816137
 32
0.0
 13
4.919389
 23
7.816137
 33
0.0
  0
TEXT
  8
0
  6
BYBLOCK
 62
     0
 10
4.661577
 20
8.972387
 30
0.0
 40
0.1875
  1
2.500
 41
0.75
  7
TXT
 72
     1
 11
4.919389
 21
9.066137
 31
0.0
 73
     2
  0
POINT
  8
DEFPOINTS
  6
BYBLOCK
 62
     0
 10
3.718315
 20
10.316137
 30
0.0
  0
POINT
  8
DEFPOINTS
  6
BYBLOCK
 62
     0
 10
3.718315
 20
7.816137
 30
0.0
  0
POINT
  8
DEFPOINTS
  6
BYBLOCK
 62
     0
 10
4.919389
 20
7.816137
 30
0.0
  0
ENDBLK
  8
0
  0
BLOCK
  8
0
  2
*D30
 70
    65
 10
0.0
 20
0.0
 30
0.0
  3
*D
  0
LINE
  8
0
  6
BYBLOCK
 62
     0
 10
5.870679
 20
10.598637
 30
0.0
 11
5.870679
 21
11.206134
 31
0.0
  0
LINE
  8
0
  6
BYBLOCK
 62
     0
 10
5.975679
 20
10.598637
 30
0.0
 11
5.975679
 21
11.206134
 31
0.0
  0
LINE
  8
0
  6
BYBLOCK
 62
     0
 10
5.600679
 20
11.066634
 30
0.0
 11
5.330679
 21
11.066634
 31
0.0
  0
LINE
  8
0
  6
BYBLOCK
 62
     0
 10
6.245679
 20
11.066634
 30
0.0
 11
6.515679
 21
11.066634
 31
0.0
  0
SOLID
  8
0
  6
BYBLOCK
 62
     0
 10
5.600679
 20
11.111634
 30
0.0
 11
5.600679
 21
11.021634
 31
0.0
 12
5.870679
 22
11.066634
 32
0.0
 13
5.870679
 23
11.066634
 33
0.0
  0
SOLID
  8
0
  6
BYBLOCK
 62
     0
 10
6.245679
 20
11.111634
 30
0.0
 11
6.245679
 21
11.021634
 31
0.0
 12
5.975679
 22
11.066634
 32
0.0
 13
5.975679
 23
11.066634
 33
0.0
  0
TEXT
  8
0
  6
BYBLOCK
 62
     0
 10
6.650679
 20
10.972884
 30
0.0
 40
0.1875
  1
0.105
 41
0.75
  7
TXT
 72
     1
 11
6.885054
 21
11.066634
 31
0.0
 73
     2
  0
POINT
  8
DEFPOINTS
  6
BYBLOCK
 62
     0
 10
5.870679
 20
10.504137
 30
0.0
  0
POINT
  8
DEFPOINTS
  6
BYBLOCK
 62
     0
 10
5.975679
 20
10.504137
 30
0.0
  0
POINT
  8
DEFPOINTS
  6
BYBLOCK
 62
     0
 10
5.975679
 20
11.066634
 30
0.0
  0
ENDBLK
  8
0
  0
BLOCK
  8
0
  2
*D31
 70
    65
 10
0.0
 20
0.0
 30
0.0
  3
*D
  0
LINE
  8
0
  6
BYBLOCK
 62
     0
 10
9.299075
 20
9.962137
 30
0.0
 11
8.098766
 21
9.962137
 31
0.0
  0
LINE
  8
0
  6
BYBLOCK
 62
     0
 10
9.299075
 20
8.170137
 30
0.0
 11
8.098766
 21
8.170137
 31
0.0
  0
LINE
  8
0
  6
BYBLOCK
 62
     0
 10
8.238266
 20
9.692137
 30
0.0
 11
8.238266
 21
9.294887
 31
0.0
  0
LINE
  8
0
  6
BYBLOCK
 62
     0
 10
8.238266
 20
8.440137
 30
0.0
 11
8.238266
 21
8.837387
 31
0.0
  0
SOLID
  8
0
  6
BYBLOCK
 62
     0
 10
8.193266
 20
9.692137
 30
0.0
 11
8.283266
 21
9.692137
 31
0.0
 12
8.238266
 22
9.962137
 32
0.0
 13
8.238266
 23
9.962137
 33
0.0
  0
SOLID
  8
0
  6
BYBLOCK
 62
     0
 10
8.193266
 20
8.440137
 30
0.0
 11
8.283266
 21
8.440137
 31
0.0
 12
8.238266
 22
8.170137
 32
0.0
 13
8.238266
 23
8.170137
 33
0.0
  0
TEXT
  8
0
  6
BYBLOCK
 62
     0
 10
7.980453
 20
8.972387
 30
0.0
 40
0.1875
  1
1.792
 41
0.75
  7
TXT
 72
     1
 11
8.238266
 21
9.066137
 31
0.0
 73
     2
  0
POINT
  8
DEFPOINTS
  6
BYBLOCK
 62
     0
 10
9.393575
 20
9.962137
 30
0.0
  0
POINT
  8
DEFPOINTS
  6
BYBLOCK
 62
     0
 10
9.393575
 20
8.170137
 30
0.0
  0
POINT
  8
DEFPOINTS
  6
BYBLOCK
 62
     0
 10
8.238266
 20
8.170137
 30
0.0
  0
ENDBLK
  8
0
  0
BLOCK
  8
0
  2
*D32
 70
    65
 10
0.0
 20
0.0
 30
0.0
  3
*D
  0
LINE
  8
0
  6
BYBLOCK
 62
     0
 10
9.299075
 20
8.170137
 30
0.0
 11
8.098766
 21
8.170137
 31
0.0
  0
LINE
  8
0
  6
BYBLOCK
 62
     0
 10
8.637075
 20
7.936137
 30
0.0
 11
8.098766
 21
7.936137
 31
0.0
  0
LINE
  8
0
  6
BYBLOCK
 62
     0
 10
8.238266
 20
8.440137
 30
0.0
 11
8.238266
 21
8.710137
 31
0.0
  0
LINE
  8
0
  6
BYBLOCK
 62
     0
 10
8.238266
 20
7.666137
 30
0.0
 11
8.238266
 21
7.396137
 31
0.0
  0
SOLID
  8
0
  6
BYBLOCK
 62
     0
 10
8.193266
 20
8.440137
 30
0.0
 11
8.283266
 21
8.440137
 31
0.0
 12
8.238266
 22
8.170137
 32
0.0
 13
8.238266
 23
8.170137
 33
0.0
  0
SOLID
  8
0
  6
BYBLOCK
 62
     0
 10
8.193266
 20
7.666137
 30
0.0
 11
8.283266
 21
7.666137
 31
0.0
 12
8.238266
 22
7.936137
 32
0.0
 13
8.238266
 23
7.936137
 33
0.0
  0
TEXT
  8
0
  6
BYBLOCK
 62
     0
 10
7.968734
 20
7.959387
 30
0.0
 40
0.1875
  1
0.234
 41
0.75
  7
TXT
 72
     1
 11
8.238266
 21
8.053137
 31
0.0
 73
     2
  0
POINT
  8
DEFPOINTS
  6
BYBLOCK
 62
     0
 10
9.393575
 20
8.170137
 30
0.0
  0
POINT
  8
DEFPOINTS
  6
BYBLOCK
 62
     0
 10
8.731575
 20
7.936137
 30
0.0
  0
POINT
  8
DEFPOINTS
  6
BYBLOCK
 62
     0
 10
8.238266
 20
7.936137
 30
0.0
  0
ENDBLK
  8
0
  0
BLOCK
  8
0
  2
*D33
 70
    65
 10
0.0
 20
0.0
 30
0.0
  3
*D
  0
LINE
  8
0
  6
BYBLOCK
 62
     0
 10
8.637075
 20
7.936137
 30
0.0
 11
7.492907
 21
7.936137
 31
0.0
  0
LINE
  8
0
  6
BYBLOCK
 62
     0
 10
9.212447
 20
7.628137
 30
0.0
 11
7.492907
 21
7.628137
 31
0.0
  0
LINE
  8
0
  6
BYBLOCK
 62
     0
 10
7.632407
 20
8.206137
 30
0.0
 11
7.632407
 21
8.476137
 31
0.0
  0
LINE
  8
0
  6
BYBLOCK
 62
     0
 10
7.632407
 20
7.358137
 30
0.0
 11
7.632407
 21
7.088137
 31
0.0
  0
SOLID
  8
0
  6
BYBLOCK
 62
     0
 10
7.587407
 20
8.206137
 30
0.0
 11
7.677407
 21
8.206137
 31
0.0
 12
7.632407
 22
7.936137
 32
0.0
 13
7.632407
 23
7.936137
 33
0.0
  0
SOLID
  8
0
  6
BYBLOCK
 62
     0
 10
7.587407
 20
7.358137
 30
0.0
 11
7.677407
 21
7.358137
 31
0.0
 12
7.632407
 22
7.628137
 32
0.0
 13
7.632407
 23
7.628137
 33
0.0
  0
TEXT
  8
0
  6
BYBLOCK
 62
     0
 10
7.374594
 20
7.688387
 30
0.0
 40
0.1875
  1
0.308
 41
0.75
  7
TXT
 72
     1
 11
7.632407
 21
7.782137
 31
0.0
 73
     2
  0
POINT
  8
DEFPOINTS
  6
BYBLOCK
 62
     0
 10
8.731575
 20
7.936137
 30
0.0
  0
POINT
  8
DEFPOINTS
  6
BYBLOCK
 62
     0
 10
9.306947
 20
7.628137
 30
0.0
  0
POINT
  8
DEFPOINTS
  6
BYBLOCK
 62
     0
 10
7.632407
 20
7.628137
 30
0.0
  0
ENDBLK
  8
0
  0
BLOCK
  8
0
  2
*D34
 70
    65
 10
0.0
 20
0.0
 30
0.0
  3
*D
  0
LINE
  8
0
  6
BYBLOCK
 62
     0
 10
8.637075
 20
7.936137
 30
0.0
 11
7.492907
 21
7.936137
 31
0.0
  0
LINE
  8
0
  6
BYBLOCK
 62
     0
 10
8.637075
 20
10.196137
 30
0.0
 11
7.492907
 21
10.196137
 31
0.0
  0
LINE
  8
0
  6
BYBLOCK
 62
     0
 10
7.632407
 20
8.206137
 30
0.0
 11
7.632407
 21
9.222729
 31
0.0
  0
LINE
  8
0
  6
BYBLOCK
 62
     0
 10
7.632407
 20
9.926137
 30
0.0
 11
7.632407
 21
9.680229
 31
0.0
  0
SOLID
  8
0
  6
BYBLOCK
 62
     0
 10
7.587407
 20
8.206137
 30
0.0
 11
7.677407
 21
8.206137
 31
0.0
 12
7.632407
 22
7.936137
 32
0.0
 13
7.632407
 23
7.936137
 33
0.0
  0
SOLID
  8
0
  6
BYBLOCK
 62
     0
 10
7.587407
 20
9.926137
 30
0.0
 11
7.677407
 21
9.926137
 31
0.0
 12
7.632407
 22
10.196137
 32
0.0
 13
7.632407
 23
10.196137
 33
0.0
  0
TEXT
  8
0
  6
BYBLOCK
 62
     0
 10
7.362876
 20
9.357729
 30
0.0
 40
0.1875
  1
2.260
 41
0.75
  7
TXT
 72
     1
 11
7.632407
 21
9.451479
 31
0.0
 73
     2
  0
POINT
  8
DEFPOINTS
  6
BYBLOCK
 62
     0
 10
8.731575
 20
7.936137
 30
0.0
  0
POINT
  8
DEFPOINTS
  6
BYBLOCK
 62
     0
 10
8.731575
 20
10.196137
 30
0.0
  0
POINT
  8
DEFPOINTS
  6
BYBLOCK
 62
     0
 10
7.632407
 20
10.196137
 30
0.0
  0
ENDBLK
  8
0
  0
BLOCK
  8
0
  2
*D35
 70
    65
 10
0.0
 20
0.0
 30
0.0
  3
*D
  0
LINE
  8
0
  6
BYBLOCK
 62
     0
 10
3.812815
 20
7.816137
 30
0.0
 11
5.058889
 21
7.816137
 31
0.0
  0
LINE
  8
0
  6
BYBLOCK
 62
     0
 10
3.899443
 20
7.628137
 30
0.0
 11
5.058889
 21
7.628137
 31
0.0
  0
LINE
  8
0
  6
BYBLOCK
 62
     0
 10
4.919389
 20
8.086137
 30
0.0
 11
4.919389
 21
8.356137
 31
0.0
  0
LINE
  8
0
  6
BYBLOCK
 62
     0
 10
4.919389
 20
7.358137
 30
0.0
 11
4.919389
 21
7.088137
 31
0.0
  0
LINE
  8
0
  6
BYBLOCK
 62
     0
 10
4.919389
 20
7.088137
 30
0.0
 11
4.649389
 21
7.088137
 31
0.0
  0
SOLID
  8
0
  6
BYBLOCK
 62
     0
 10
4.874389
 20
8.086137
 30
0.0
 11
4.964389
 21
8.086137
 31
0.0
 12
4.919389
 22
7.816137
 32
0.0
 13
4.919389
 23
7.816137
 33
0.0
  0
SOLID
  8
0
  6
BYBLOCK
 62
     0
 10
4.874389
 20
7.358137
 30
0.0
 11
4.964389
 21
7.358137
 31
0.0
 12
4.919389
 22
7.628137
 32
0.0
 13
4.919389
 23
7.628137
 33
0.0
  0
TEXT
  8
0
  6
BYBLOCK
 62
     0
 10
4.022202
 20
6.994387
 30
0.0
 40
0.1875
  1
0.188
 41
0.75
  7
TXT
 72
     1
 11
4.268296
 21
7.088137
 31
0.0
 73
     2
  0
POINT
  8
DEFPOINTS
  6
BYBLOCK
 62
     0
 10
3.718315
 20
7.816137
 30
0.0
  0
POINT
  8
DEFPOINTS
  6
BYBLOCK
 62
     0
 10
3.804943
 20
7.628137
 30
0.0
  0
POINT
  8
DEFPOINTS
  6
BYBLOCK
 62
     0
 10
4.919389
 20
7.628137
 30
0.0
  0
ENDBLK
  8
0
  0
BLOCK
  8
0
  2
*D36
 70
    65
 10
0.0
 20
0.0
 30
0.0
  3
*D
  0
LINE
  8
0
  6
BYBLOCK
 62
     0
 10
5.715679
 20
7.945637
 30
0.0
 11
5.715679
 21
7.076537
 31
0.0
  0
LINE
  8
0
  6
BYBLOCK
 62
     0
 10
5.975679
 20
7.533637
 30
0.0
 11
5.975679
 21
7.076537
 31
0.0
  0
LINE
  8
0
  6
BYBLOCK
 62
     0
 10
5.445679
 20
7.216037
 30
0.0
 11
5.175679
 21
7.216037
 31
0.0
  0
LINE
  8
0
  6
BYBLOCK
 62
     0
 10
6.245679
 20
7.216037
 30
0.0
 11
6.515679
 21
7.216037
 31
0.0
  0
SOLID
  8
0
  6
BYBLOCK
 62
     0
 10
5.445679
 20
7.261037
 30
0.0
 11
5.445679
 21
7.171037
 31
0.0
 12
5.715679
 22
7.216037
 32
0.0
 13
5.715679
 23
7.216037
 33
0.0
  0
SOLID
  8
0
  6
BYBLOCK
 62
     0
 10
6.245679
 20
7.261037
 30
0.0
 11
6.245679
 21
7.171037
 31
0.0
 12
5.975679
 22
7.216037
 32
0.0
 13
5.975679
 23
7.216037
 33
0.0
  0
TEXT
  8
0
  6
BYBLOCK
 62
     0
 10
6.650679
 20
7.122287
 30
0.0
 40
0.1875
  1
0.260
 41
0.75
  7
TXT
 72
     1
 11
6.908491
 21
7.216037
 31
0.0
 73
     2
  0
POINT
  8
DEFPOINTS
  6
BYBLOCK
 62
     0
 10
5.715679
 20
8.040137
 30
0.0
  0
POINT
  8
DEFPOINTS
  6
BYBLOCK
 62
     0
 10
5.975679
 20
7.628137
 30
0.0
  0
POINT
  8
DEFPOINTS
  6
BYBLOCK
 62
     0
 10
5.975679
 20
7.216037
 30
0.0
  0
ENDBLK
  8
0
  0
BLOCK
  8
0
  2
*D37
 70
    65
 10
0.0
 20
0.0
 30
0.0
  3
*D
  0
LINE
  8
0
  6
BYBLOCK
 62
     0
 10
5.905679
 20
8.649925
 30
0.0
 11
5.905679
 21
8.704162
 31
0.0
  0
LINE
  8
0
  6
BYBLOCK
 62
     0
 10
5.975679
 20
8.649925
 30
0.0
 11
5.975679
 21
8.704162
 31
0.0
  0
LINE
  8
0
  6
BYBLOCK
 62
     0
 10
5.635679
 20
8.564662
 30
0.0
 11
5.365679
 21
8.564662
 31
0.0
  0
LINE
  8
0
  6
BYBLOCK
 62
     0
 10
6.245679
 20
8.564662
 30
0.0
 11
6.515679
 21
8.564662
 31
0.0
  0
SOLID
  8
0
  6
BYBLOCK
 62
     0
 10
5.635679
 20
8.609662
 30
0.0
 11
5.635679
 21
8.519662
 31
0.0
 12
5.905679
 22
8.564662
 32
0.0
 13
5.905679
 23
8.564662
 33
0.0
  0
SOLID
  8
0
  6
BYBLOCK
 62
     0
 10
6.245679
 20
8.609662
 30
0.0
 11
6.245679
 21
8.519662
 31
0.0
 12
5.975679
 22
8.564662
 32
0.0
 13
5.975679
 23
8.564662
 33
0.0
  0
TEXT
  8
0
  6
BYBLOCK
 62
     0
 10
6.650679
 20
8.470912
 30
0.0
 40
0.1875
  1
0.070
 41
0.75
  7
TXT
 72
     1
 11
6.896773
 21
8.564662
 31
0.0
 73
     2
  0
POINT
  8
DEFPOINTS
  6
BYBLOCK
 62
     0
 10
5.905679
 20
8.555425
 30
0.0
  0
POINT
  8
DEFPOINTS
  6
BYBLOCK
 62
     0
 10
5.975679
 20
8.555425
 30
0.0
  0
POINT
  8
DEFPOINTS
  6
BYBLOCK
 62
     0
 10
5.975679
 20
8.564662
 30
0.0
  0
ENDBLK
  8
0
  0
BLOCK
  8
0
  2
*D38
 70
    65
 10
0.0
 20
0.0
 30
0.0
  3
*D
  0
LINE
  8
0
  6
BYBLOCK
 62
     0
 10
9.574703
 20
10.504137
 30
0.0
 11
10.800488
 21
10.504137
 31
0.0
  0
LINE
  8
0
  6
BYBLOCK
 62
     0
 10
9.574703
 20
7.628137
 30
0.0
 11
10.800488
 21
7.628137
 31
0.0
  0
LINE
  8
0
  6
BYBLOCK
 62
     0
 10
10.660988
 20
10.234137
 30
0.0
 11
10.660988
 21
9.294887
 31
0.0
  0
LINE
  8
0
  6
BYBLOCK
 62
     0
 10
10.660988
 20
7.898137
 30
0.0
 11
10.660988
 21
8.837387
 31
0.0
  0
SOLID
  8
0
  6
BYBLOCK
 62
     0
 10
10.615988
 20
10.234137
 30
0.0
 11
10.705988
 21
10.234137
 31
0.0
 12
10.660988
 22
10.504137
 32
0.0
 13
10.660988
 23
10.504137
 33
0.0
  0
SOLID
  8
0
  6
BYBLOCK
 62
     0
 10
10.615988
 20
7.898137
 30
0.0
 11
10.705988
 21
7.898137
 31
0.0
 12
10.660988
 22
7.628137
 32
0.0
 13
10.660988
 23
7.628137
 33
0.0
  0
TEXT
  8
0
  6
BYBLOCK
 62
     0
 10
10.379738
 20
8.972387
 30
0.0
 40
0.1875
  1
2.876
 41
0.75
  7
TXT
 72
     1
 11
10.660988
 21
9.066137
 31
0.0
 73
     2
  0
POINT
  8
DEFPOINTS
  6
BYBLOCK
 62
     0
 10
9.480203
 20
10.504137
 30
0.0
  0
POINT
  8
DEFPOINTS
  6
BYBLOCK
 62
     0
 10
9.480203
 20
7.628137
 30
0.0
  0
POINT
  8
DEFPOINTS
  6
BYBLOCK
 62
     0
 10
10.660988
 20
7.628137
 30
0.0
  0
ENDBLK
  8
0
  0
BLOCK
  8
0
  2
*D39
 70
    65
 10
0.0
 20
0.0
 30
0.0
  3
*D
  0
LINE
  8
0
  6
BYBLOCK
 62
     0
 10
16.824627
 20
7.533637
 30
0.0
 11
16.824627
 21
7.033113
 31
0.0
  0
LINE
  8
0
  6
BYBLOCK
 62
     0
 10
16.039627
 20
7.944897
 30
0.0
 11
16.039627
 21
7.033113
 31
0.0
  0
LINE
  8
0
  6
BYBLOCK
 62
     0
 10
17.094627
 20
7.172613
 30
0.0
 11
17.364627
 21
7.172613
 31
0.0
  0
LINE
  8
0
  6
BYBLOCK
 62
     0
 10
15.769627
 20
7.172613
 30
0.0
 11
15.499627
 21
7.172613
 31
0.0
  0
SOLID
  8
0
  6
BYBLOCK
 62
     0
 10
17.094627
 20
7.217613
 30
0.0
 11
17.094627
 21
7.127613
 31
0.0
 12
16.824627
 22
7.172613
 32
0.0
 13
16.824627
 23
7.172613
 33
0.0
  0
SOLID
  8
0
  6
BYBLOCK
 62
     0
 10
15.769627
 20
7.217613
 30
0.0
 11
15.769627
 21
7.127613
 31
0.0
 12
16.039627
 22
7.172613
 32
0.0
 13
16.039627
 23
7.172613
 33
0.0
  0
TEXT
  8
0
  6
BYBLOCK
 62
     0
 10
16.162596
 20
7.078863
 30
0.0
 40
0.1875
  1
0.785
 41
0.75
  7
TXT
 72
     1
 11
16.432127
 21
7.172613
 31
0.0
 73
     2
  0
POINT
  8
DEFPOINTS
  6
BYBLOCK
 62
     0
 10
16.824627
 20
7.628137
 30
0.0
  0
POINT
  8
DEFPOINTS
  6
BYBLOCK
 62
     0
 10
16.039627
 20
8.039397
 30
0.0
  0
POINT
  8
DEFPOINTS
  6
BYBLOCK
 62
     0
 10
16.039627
 20
7.172613
 30
0.0
  0
ENDBLK
  8
0
  0
BLOCK
  8
0
  2
*D40
 70
    65
 10
0.0
 20
0.0
 30
0.0
  3
*D
  0
LINE
  8
0
  6
BYBLOCK
 62
     0
 10
4.695776
 20
20.135849
 30
0.0
 11
5.912329
 21
20.135849
 31
0.0
  0
LINE
  8
0
  6
BYBLOCK
 62
     0
 10
5.357776
 20
19.901849
 30
0.0
 11
5.912329
 21
19.901849
 31
0.0
  0
LINE
  8
0
  6
BYBLOCK
 62
     0
 10
5.772829
 20
20.405849
 30
0.0
 11
5.772829
 21
20.675849
 31
0.0
  0
LINE
  8
0
  6
BYBLOCK
 62
     0
 10
5.772829
 20
19.631849
 30
0.0
 11
5.772829
 21
19.361849
 31
0.0
  0
SOLID
  8
0
  6
BYBLOCK
 62
     0
 10
5.727829
 20
20.405849
 30
0.0
 11
5.817829
 21
20.405849
 31
0.0
 12
5.772829
 22
20.135849
 32
0.0
 13
5.772829
 23
20.135849
 33
0.0
  0
SOLID
  8
0
  6
BYBLOCK
 62
     0
 10
5.727829
 20
19.631849
 30
0.0
 11
5.817829
 21
19.631849
 31
0.0
 12
5.772829
 22
19.901849
 32
0.0
 13
5.772829
 23
19.901849
 33
0.0
  0
TEXT
  8
0
  6
BYBLOCK
 62
     0
 10
5.503297
 20
19.925099
 30
0.0
 40
0.1875
  1
0.234
 41
0.75
  7
TXT
 72
     1
 11
5.772829
 21
20.018849
 31
0.0
 73
     2
  0
POINT
  8
DEFPOINTS
  6
BYBLOCK
 62
     0
 10
4.601276
 20
20.135849
 30
0.0
  0
POINT
  8
DEFPOINTS
  6
BYBLOCK
 62
     0
 10
5.263276
 20
19.901849
 30
0.0
  0
POINT
  8
DEFPOINTS
  6
BYBLOCK
 62
     0
 10
5.772829
 20
19.901849
 30
0.0
  0
ENDBLK
  8
0
  0
BLOCK
  8
0
  2
*D41
 70
    65
 10
0.0
 20
0.0
 30
0.0
  3
*D
  0
LINE
  8
0
  6
BYBLOCK
 62
     0
 10
4.695776
 20
21.927849
 30
0.0
 11
5.912329
 21
21.927849
 31
0.0
  0
LINE
  8
0
  6
BYBLOCK
 62
     0
 10
4.695776
 20
20.135849
 30
0.0
 11
5.912329
 21
20.135849
 31
0.0
  0
LINE
  8
0
  6
BYBLOCK
 62
     0
 10
5.772829
 20
21.657849
 30
0.0
 11
5.772829
 21
21.260599
 31
0.0
  0
LINE
  8
0
  6
BYBLOCK
 62
     0
 10
5.772829
 20
20.405849
 30
0.0
 11
5.772829
 21
20.803099
 31
0.0
  0
SOLID
  8
0
  6
BYBLOCK
 62
     0
 10
5.727829
 20
21.657849
 30
0.0
 11
5.817829
 21
21.657849
 31
0.0
 12
5.772829
 22
21.927849
 32
0.0
 13
5.772829
 23
21.927849
 33
0.0
  0
SOLID
  8
0
  6
BYBLOCK
 62
     0
 10
5.727829
 20
20.405849
 30
0.0
 11
5.817829
 21
20.405849
 31
0.0
 12
5.772829
 22
20.135849
 32
0.0
 13
5.772829
 23
20.135849
 33
0.0
  0
TEXT
  8
0
  6
BYBLOCK
 62
     0
 10
5.515016
 20
20.938099
 30
0.0
 40
0.1875
  1
1.792
 41
0.75
  7
TXT
 72
     1
 11
5.772829
 21
21.031849
 31
0.0
 73
     2
  0
POINT
  8
DEFPOINTS
  6
BYBLOCK
 62
     0
 10
4.601276
 20
21.927849
 30
0.0
  0
POINT
  8
DEFPOINTS
  6
BYBLOCK
 62
     0
 10
4.601276
 20
20.135849
 30
0.0
  0
POINT
  8
DEFPOINTS
  6
BYBLOCK
 62
     0
 10
5.772829
 20
20.135849
 30
0.0
  0
ENDBLK
  8
0
  0
BLOCK
  8
0
  2
*D42
 70
    65
 10
0.0
 20
0.0
 30
0.0
  3
*D
  0
LINE
  8
0
  6
BYBLOCK
 62
     0
 10
4.244326
 20
19.976849
 30
0.0
 11
4.178857
 21
19.976849
 31
0.0
  0
LINE
  8
0
  6
BYBLOCK
 62
     0
 10
4.244326
 20
19.901849
 30
0.0
 11
4.178857
 21
19.901849
 31
0.0
  0
LINE
  8
0
  6
BYBLOCK
 62
     0
 10
4.318357
 20
20.246849
 30
0.0
 11
4.318357
 21
20.516849
 31
0.0
  0
LINE
  8
0
  6
BYBLOCK
 62
     0
 10
4.318357
 20
19.631849
 30
0.0
 11
4.318357
 21
19.361849
 31
0.0
  0
LINE
  8
0
  6
BYBLOCK
 62
     0
 10
4.318357
 20
19.361849
 30
0.0
 11
4.048357
 21
19.361849
 31
0.0
  0
SOLID
  8
0
  6
BYBLOCK
 62
     0
 10
4.273357
 20
20.246849
 30
0.0
 11
4.363357
 21
20.246849
 31
0.0
 12
4.318357
 22
19.976849
 32
0.0
 13
4.318357
 23
19.976849
 33
0.0
  0
SOLID
  8
0
  6
BYBLOCK
 62
     0
 10
4.273357
 20
19.631849
 30
0.0
 11
4.363357
 21
19.631849
 31
0.0
 12
4.318357
 22
19.901849
 32
0.0
 13
4.318357
 23
19.901849
 33
0.0
  0
TEXT
  8
0
  6
BYBLOCK
 62
     0
 10
3.350857
 20
19.268099
 30
0.0
 40
0.1875
  1
 TYP.
 41
0.75
  7
TXT
 72
     1
 11
3.632107
 21
19.361849
 31
0.0
 73
     2
  0
TEXT
  8
0
  6
BYBLOCK
 62
     0
 10
2.788357
 20
19.268099
 30
0.0
 40
0.1875
  1
0.075
 41
0.75
  7
TXT
 72
     1
 11
3.04617
 21
19.361849
 31
0.0
 73
     2
  0
POINT
  8
DEFPOINTS
  6
BYBLOCK
 62
     0
 10
4.338826
 20
19.976849
 30
0.0
  0
POINT
  8
DEFPOINTS
  6
BYBLOCK
 62
     0
 10
4.338826
 20
19.901849
 30
0.0
  0
POINT
  8
DEFPOINTS
  6
BYBLOCK
 62
     0
 10
4.318357
 20
19.901849
 30
0.0
  0
ENDBLK
  8
0
  0
BLOCK
  8
0
  2
*D43
 70
    65
 10
0.0
 20
0.0
 30
0.0
  3
*D
  0
LINE
  8
0
  6
BYBLOCK
 62
     0
 10
4.695776
 20
9.962137
 30
0.0
 11
5.912329
 21
9.962137
 31
0.0
  0
LINE
  8
0
  6
BYBLOCK
 62
     0
 10
4.695776
 20
8.170137
 30
0.0
 11
5.912329
 21
8.170137
 31
0.0
  0
LINE
  8
0
  6
BYBLOCK
 62
     0
 10
5.772829
 20
9.692137
 30
0.0
 11
5.772829
 21
9.294887
 31
0.0
  0
LINE
  8
0
  6
BYBLOCK
 62
     0
 10
5.772829
 20
8.440137
 30
0.0
 11
5.772829
 21
8.837387
 31
0.0
  0
SOLID
  8
0
  6
BYBLOCK
 62
     0
 10
5.727829
 20
9.692137
 30
0.0
 11
5.817829
 21
9.692137
 31
0.0
 12
5.772829
 22
9.962137
 32
0.0
 13
5.772829
 23
9.962137
 33
0.0
  0
SOLID
  8
0
  6
BYBLOCK
 62
     0
 10
5.727829
 20
8.440137
 30
0.0
 11
5.817829
 21
8.440137
 31
0.0
 12
5.772829
 22
8.170137
 32
0.0
 13
5.772829
 23
8.170137
 33
0.0
  0
TEXT
  8
0
  6
BYBLOCK
 62
     0
 10
5.515016
 20
8.972387
 30
0.0
 40
0.1875
  1
1.792
 41
0.75
  7
TXT
 72
     1
 11
5.772829
 21
9.066137
 31
0.0
 73
     2
  0
POINT
  8
DEFPOINTS
  6
BYBLOCK
 62
     0
 10
4.601276
 20
9.962137
 30
0.0
  0
POINT
  8
DEFPOINTS
  6
BYBLOCK
 62
     0
 10
4.601276
 20
8.170137
 30
0.0
  0
POINT
  8
DEFPOINTS
  6
BYBLOCK
 62
     0
 10
5.772829
 20
8.170137
 30
0.0
  0
ENDBLK
  8
0
  0
BLOCK
  8
0
  2
*D44
 70
    65
 10
0.0
 20
0.0
 30
0.0
  3
*D
  0
LINE
  8
0
  6
BYBLOCK
 62
     0
 10
4.695776
 20
8.170137
 30
0.0
 11
5.912329
 21
8.170137
 31
0.0
  0
LINE
  8
0
  6
BYBLOCK
 62
     0
 10
5.357776
 20
7.936137
 30
0.0
 11
5.912329
 21
7.936137
 31
0.0
  0
LINE
  8
0
  6
BYBLOCK
 62
     0
 10
5.772829
 20
8.440137
 30
0.0
 11
5.772829
 21
8.710137
 31
0.0
  0
LINE
  8
0
  6
BYBLOCK
 62
     0
 10
5.772829
 20
7.666137
 30
0.0
 11
5.772829
 21
7.396137
 31
0.0
  0
SOLID
  8
0
  6
BYBLOCK
 62
     0
 10
5.727829
 20
8.440137
 30
0.0
 11
5.817829
 21
8.440137
 31
0.0
 12
5.772829
 22
8.170137
 32
0.0
 13
5.772829
 23
8.170137
 33
0.0
  0
SOLID
  8
0
  6
BYBLOCK
 62
     0
 10
5.727829
 20
7.666137
 30
0.0
 11
5.817829
 21
7.666137
 31
0.0
 12
5.772829
 22
7.936137
 32
0.0
 13
5.772829
 23
7.936137
 33
0.0
  0
TEXT
  8
0
  6
BYBLOCK
 62
     0
 10
5.503297
 20
7.959387
 30
0.0
 40
0.1875
  1
0.234
 41
0.75
  7
TXT
 72
     1
 11
5.772829
 21
8.053137
 31
0.0
 73
     2
  0
POINT
  8
DEFPOINTS
  6
BYBLOCK
 62
     0
 10
4.601276
 20
8.170137
 30
0.0
  0
POINT
  8
DEFPOINTS
  6
BYBLOCK
 62
     0
 10
5.263276
 20
7.936137
 30
0.0
  0
POINT
  8
DEFPOINTS
  6
BYBLOCK
 62
     0
 10
5.772829
 20
7.936137
 30
0.0
  0
ENDBLK
  8
0
  0
BLOCK
  8
0
  2
*D45
 70
    65
 10
0.0
 20
0.0
 30
0.0
  3
*D
  0
LINE
  8
0
  6
BYBLOCK
 62
     0
 10
1.516846
 20
7.948061
 30
0.0
 11
0.635496
 21
7.963445
 31
0.0
  0
LINE
  8
0
  6
BYBLOCK
 62
     0
 10
2.105454
 20
7.936137
 30
0.0
 11
0.635258
 21
7.936137
 31
0.0
  0
ARC
  8
0
  6
BYBLOCK
 62
     0
 10
2.199954
 20
7.936137
 30
0.0
 40
1.425197
 50
157.258313
 51
168.129156
  0
ARC
  8
0
  6
BYBLOCK
 62
     0
 10
2.199954
 20
7.936137
 30
0.0
 40
1.425197
 50
190.870844
 51
201.741687
  0
SOLID
  8
0
  6
BYBLOCK
 62
     0
 10
0.849954
 20
8.224265
 30
0.0
 11
0.760521
 21
8.234352
 31
0.0
 12
0.774975
 22
7.96101
 32
0.0
 13
0.774975
 23
7.96101
 33
0.0
  0
SOLID
  8
0
  6
BYBLOCK
 62
     0
 10
0.755536
 20
7.663088
 30
0.0
 11
0.845131
 21
7.671613
 31
0.0
 12
0.774758
 22
7.936137
 32
0.0
 13
0.774758
 23
7.936137
 33
0.0
  0
TEXT
  8
0
  6
BYBLOCK
 62
     0
 10
1.221173
 20
7.285796
 30
0.0
 40
0.1875
  1
 REF.
 41
0.75
  7
TXT
 72
     1
 11
1.502423
 21
7.379546
 31
0.0
 73
     2
  0
TEXT
  8
0
  6
BYBLOCK
 62
     0
 10
1.033673
 20
7.285796
 30
0.0
 40
0.1875
  1
1%%d
 41
0.75
  7
TXT
 72
     1
 11
1.103985
 21
7.379546
 31
0.0
 73
     2
  0
POINT
  8
DEFPOINTS
  6
BYBLOCK
 62
     0
 10
0.774769
 20
7.941863
 30
0.0
  0
POINT
  8
DEFPOINTS
  6
BYBLOCK
 62
     0
 10
2.199954
 20
7.936137
 30
0.0
  0
POINT
  8
DEFPOINTS
  6
BYBLOCK
 62
     0
 10
1.611331
 20
7.946411
 30
0.0
  0
POINT
  8
DEFPOINTS
  6
BYBLOCK
 62
     0
 10
2.199954
 20
7.936137
 30
0.0
  0
POINT
  8
DEFPOINTS
  6
BYBLOCK
 62
     0
 10
2.262954
 20
7.936137
 30
0.0
  0
ENDBLK
  8
0
  0
BLOCK
  8
0
  2
*D46
 70
    65
 10
0.0
 20
0.0
 30
0.0
  3
*D
  0
LINE
  8
0
  6
BYBLOCK
 62
     0
 10
1.516846
 20
19.913773
 30
0.0
 11
0.635496
 21
19.929157
 31
0.0
  0
LINE
  8
0
  6
BYBLOCK
 62
     0
 10
2.105454
 20
19.901849
 30
0.0
 11
0.635258
 21
19.901849
 31
0.0
  0
ARC
  8
0
  6
BYBLOCK
 62
     0
 10
2.199954
 20
19.901849
 30
0.0
 40
1.425197
 50
157.258313
 51
168.129156
  0
ARC
  8
0
  6
BYBLOCK
 62
     0
 10
2.199954
 20
19.901849
 30
0.0
 40
1.425197
 50
190.870844
 51
201.741687
  0
SOLID
  8
0
  6
BYBLOCK
 62
     0
 10
0.849954
 20
20.189977
 30
0.0
 11
0.760521
 21
20.200065
 31
0.0
 12
0.774975
 22
19.926722
 32
0.0
 13
0.774975
 23
19.926722
 33
0.0
  0
SOLID
  8
0
  6
BYBLOCK
 62
     0
 10
0.755536
 20
19.628801
 30
0.0
 11
0.845131
 21
19.637326
 31
0.0
 12
0.774758
 22
19.901849
 32
0.0
 13
0.774758
 23
19.901849
 33
0.0
  0
TEXT
  8
0
  6
BYBLOCK
 62
     0
 10
1.220885
 20
19.286287
 30
0.0
 40
0.1875
  1
 REF.
 41
0.75
  7
TXT
 72
     1
 11
1.502135
 21
19.380037
 31
0.0
 73
     2
  0
TEXT
  8
0
  6
BYBLOCK
 62
     0
 10
1.033385
 20
19.286287
 30
0.0
 40
0.1875
  1
1%%d
 41
0.75
  7
TXT
 72
     1
 11
1.103698
 21
19.380037
 31
0.0
 73
     2
  0
POINT
  8
DEFPOINTS
  6
BYBLOCK
 62
     0
 10
0.774769
 20
19.907576
 30
0.0
  0
POINT
  8
DEFPOINTS
  6
BYBLOCK
 62
     0
 10
2.199954
 20
19.901849
 30
0.0
  0
POINT
  8
DEFPOINTS
  6
BYBLOCK
 62
     0
 10
1.611331
 20
19.912124
 30
0.0
  0
POINT
  8
DEFPOINTS
  6
BYBLOCK
 62
     0
 10
2.199954
 20
19.901849
 30
0.0
  0
POINT
  8
DEFPOINTS
  6
BYBLOCK
 62
     0
 10
2.262954
 20
19.901849
 30
0.0
  0
ENDBLK
  8
0
  0
ENDSEC
  0
SECTION
  2
ENTITIES
  0
INSERT
  8
0
  2
ACAD
 10
0.0
 20
0.0
 30
0.0
  0
INSERT
  8
0
  2
ACAD
 10
0.905713
 20
1.608522
 30
0.0
  0
POLYLINE
  8
OBJECT
 66
     1
 10
0.0
 20
0.0
 30
0.0
 70
     1
  0
VERTEX
  8
OBJECT
 10
5.281276
 20
18.087445
 30
0.0
  0
VERTEX
  8
OBJECT
 10
5.281276
 20
20.161445
 30
0.0
 42
0.414214
  0
VERTEX
  8
OBJECT
 10
5.263276
 20
20.179445
 30
0.0
  0
VERTEX
  8
OBJECT
 10
3.939276
 20
20.179445
 30
0.0
 42
0.414214
  0
VERTEX
  8
OBJECT
 10
3.921276
 20
20.161445
 30
0.0
  0
VERTEX
  8
OBJECT
 10
3.921276
 20
18.087445
 30
0.0
 42
0.414214
  0
VERTEX
  8
OBJECT
 10
3.939276
 20
18.069445
 30
0.0
  0
VERTEX
  8
OBJECT
 10
5.263276
 20
18.069445
 30
0.0
 42
0.414214
  0
SEQEND
  8
OBJECT
  0
POLYLINE
  8
OBJECT
 66
     1
 10
0.0
 20
0.0
 30
0.0
 70
     1
  0
VERTEX
  8
OBJECT
 10
5.356276
 20
18.087445
 30
0.0
  0
VERTEX
  8
OBJECT
 10
5.356276
 20
20.161445
 30
0.0
 42
0.414214
  0
VERTEX
  8
OBJECT
 10
5.263276
 20
20.254445
 30
0.0
  0
VERTEX
  8
OBJECT
 10
3.939276
 20
20.254445
 30
0.0
 42
0.414214
  0
VERTEX
  8
OBJECT
 10
3.846276
 20
20.161445
 30
0.0
  0
VERTEX
  8
OBJECT
 10
3.846276
 20
18.087445
 30
0.0
 42
0.414214
  0
VERTEX
  8
OBJECT
 10
3.939276
 20
17.994445
 30
0.0
  0
VERTEX
  8
OBJECT
 10
5.263276
 20
17.994445
 30
0.0
 42
0.414214
  0
SEQEND
  8
OBJECT
  0
LINE
  8
OBJECT
 10
1.519954
 20
18.097706
 30
0.0
 11
1.519954
 21
20.151185
 31
0.0
  0
LINE
  8
HIDDEN
 10
1.594954
 20
18.097706
 30
0.0
 11
1.594954
 21
20.151185
 31
0.0
  0
LINE
  8
OBJECT
 10
2.199954
 20
17.994445
 30
0.0
 11
2.199954
 21
20.254445
 31
0.0
  0
ARC
  8
OBJECT
 10
1.612954
 20
18.097706
 30
0.0
 40
0.093
 50
180.0
 51
269.0
  0
LINE
  8
OBJECT
 10
1.611331
 20
18.00472
 30
0.0
 11
2.199954
 21
17.994445
 31
0.0
  0
LINE
  8
HIDDEN
 10
1.61264
 20
18.079708
 30
0.0
 11
2.201263
 21
18.069434
 31
0.0
  0
ARC
  8
HIDDEN
 10
1.612954
 20
18.097706
 30
0.0
 40
0.018
 50
180.0
 51
269.0
  0
LINE
  8
HIDDEN
 10
1.979954
 20
18.339445
 30
0.0
 11
1.979954
 21
18.117445
 31
0.0
  0
LINE
  8
HIDDEN
 10
1.979954
 20
18.117445
 30
0.0
 11
1.594954
 21
18.117445
 31
0.0
  0
LINE
  8
HIDDEN
 10
1.979954
 20
18.271445
 30
0.0
 11
1.574954
 21
18.271445
 31
0.0
  0
LINE
  8
HIDDEN
 10
1.979954
 20
18.185445
 30
0.0
 11
1.574954
 21
18.185445
 31
0.0
  0
LINE
  8
HIDDEN
 10
1.979954
 20
18.339445
 30
0.0
 11
1.594954
 21
18.339445
 31
0.0
  0
LINE
  8
HIDDEN
 10
1.574954
 20
18.271445
 30
0.0
 11
1.574954
 21
18.185445
 31
0.0
  0
CIRCLE
  8
OBJECT
 10
4.601276
 20
18.228445
 30
0.0
 40
0.111
  0
CIRCLE
  8
OBJECT
 10
4.601276
 20
18.228445
 30
0.0
 40
0.043
  0
ARC
  8
OBJECT
 10
1.612954
 20
20.151185
 30
0.0
 40
0.093
 50
91.0
 51
180.0
  0
LINE
  8
HIDDEN
 10
1.979954
 20
19.909445
 30
0.0
 11
1.594954
 21
19.909445
 31
0.0
  0
ARC
  8
HIDDEN
 10
1.612954
 20
20.151185
 30
0.0
 40
0.018
 50
91.0
 51
180.0
  0
LINE
  8
HIDDEN
 10
2.201263
 20
20.179457
 30
0.0
 11
1.61264
 21
20.169182
 31
0.0
  0
LINE
  8
OBJECT
 10
2.199954
 20
20.254445
 30
0.0
 11
1.611331
 21
20.244171
 31
0.0
  0
LINE
  8
HIDDEN
 10
1.979954
 20
20.063445
 30
0.0
 11
1.574954
 21
20.063445
 31
0.0
  0
LINE
  8
HIDDEN
 10
1.979954
 20
19.977445
 30
0.0
 11
1.574954
 21
19.977445
 31
0.0
  0
LINE
  8
HIDDEN
 10
1.979954
 20
20.131445
 30
0.0
 11
1.594954
 21
20.131445
 31
0.0
  0
LINE
  8
HIDDEN
 10
1.574954
 20
19.977445
 30
0.0
 11
1.574954
 21
20.063445
 31
0.0
  0
LINE
  8
HIDDEN
 10
1.979954
 20
19.909445
 30
0.0
 11
1.979954
 21
20.131445
 31
0.0
  0
CIRCLE
  8
OBJECT
 10
4.601276
 20
20.020445
 30
0.0
 40
0.043
  0
CIRCLE
  8
OBJECT
 10
4.601276
 20
20.020445
 30
0.0
 40
0.111
  0
DIMENSION
  8
DIM
  2
*D5
 10
2.603573
 20
20.254445
 30
0.0
 11
2.603573
 21
19.124445
 31
0.0
 12
-1.398528
 22
15.351478
 32
0.0
 13
2.199954
 23
17.994445
 33
0.0
 14
2.199954
 24
20.254445
 34
0.0
 50
90.0
  3
STD
  0
DIMENSION
  8
DIM
  2
*D41
 10
5.772829
 20
18.228445
 30
0.0
 11
5.772829
 21
19.124445
 31
0.0
 12
0.0
 22
-1.907404
 32
0.0
 13
4.601276
 23
20.020445
 33
0.0
 14
4.601276
 24
18.228445
 34
0.0
 50
270.0
  3
STD
  0
DIMENSION
  8
DIM
  2
*D40
 10
5.772829
 20
17.994445
 30
0.0
 11
5.772829
 21
18.111445
 31
0.0
 12
0.0
 22
-1.907404
 32
0.0
 13
4.601276
 23
18.228445
 33
0.0
 14
5.263276
 24
17.994445
 34
0.0
 50
270.0
  3
DIM
  0
DIMENSION
  8
DIM
  2
*D9
 10
4.601276
 20
20.634783
 30
0.0
 11
4.223776
 21
20.634783
 31
0.0
 12
-1.232036
 22
15.351478
 32
0.0
 13
3.846276
 23
20.161445
 33
0.0
 14
4.601276
 24
20.020445
 34
0.0
 50
180.0
  3
DIM
  0
DIMENSION
  8
DIM
  2
*D46
 10
2.262954
 20
17.994445
 30
0.0
 11
1.408385
 21
17.472633
 31
0.0
 12
0.0
 22
-1.907404
 32
0.0
 70
   130
  1
<> REF.
 13
1.611331
 23
18.00472
 33
0.0
 14
2.199954
 24
17.994445
 34
0.0
 15
2.199954
 25
17.994445
 35
0.0
 16
0.774769
 26
18.000172
 36
0.0
  3
STD
  0
INSERT
  8
0
  2
ACAD
 10
0.543428
 20
5.443409
 30
0.0
  0
POLYLINE
  8
OBJECT
 66
     1
 10
0.0
 20
0.0
 30
0.0
  0
VERTEX
  8
OBJECT
 10
8.597612
 20
20.134445
 30
0.0
  0
VERTEX
  8
OBJECT
 10
8.141094
 20
20.134445
 30
0.0
 42
0.414214
  0
VERTEX
  8
OBJECT
 10
8.025094
 20
20.018445
 30
0.0
  0
VERTEX
  8
OBJECT
 10
8.025094
 20
18.230445
 30
0.0
 42
0.414214
  0
VERTEX
  8
OBJECT
 10
8.141094
 20
18.114445
 30
0.0
  0
VERTEX
  8
OBJECT
 10
8.597612
 20
18.114445
 30
0.0
 42
0.414214
  0
SEQEND
  8
OBJECT
  0
POLYLINE
  8
OBJECT
 66
     1
 10
0.0
 20
0.0
 30
0.0
 70
     1
  0
VERTEX
  8
OBJECT
 10
9.415094
 20
18.087445
 30
0.0
  0
VERTEX
  8
OBJECT
 10
9.415094
 20
20.161445
 30
0.0
 42
0.414214
  0
VERTEX
  8
OBJECT
 10
9.322094
 20
20.254445
 30
0.0
  0
VERTEX
  8
OBJECT
 10
7.998094
 20
20.254445
 30
0.0
 42
0.414214
  0
VERTEX
  8
OBJECT
 10
7.905094
 20
20.161445
 30
0.0
  0
VERTEX
  8
OBJECT
 10
7.905094
 20
18.087445
 30
0.0
 42
0.414214
  0
VERTEX
  8
OBJECT
 10
7.998094
 20
17.994445
 30
0.0
  0
VERTEX
  8
OBJECT
 10
9.322094
 20
17.994445
 30
0.0
 42
0.414214
  0
SEQEND
  8
OBJECT
  0
POLYLINE
  8
OBJECT
 66
     1
 10
0.0
 20
0.0
 30
0.0
 70
     1
  0
VERTEX
  8
OBJECT
 10
9.335094
 20
18.230445
 30
0.0
  0
VERTEX
  8
OBJECT
 10
9.335094
 20
20.018445
 30
0.0
 42
0.414214
  0
VERTEX
  8
OBJECT
 10
9.179094
 20
20.174445
 30
0.0
  0
VERTEX
  8
OBJECT
 10
8.141094
 20
20.174445
 30
0.0
 42
0.414214
  0
VERTEX
  8
OBJECT
 10
7.985094
 20
20.018445
 30
0.0
  0
VERTEX
  8
OBJECT
 10
7.985094
 20
18.230445
 30
0.0
 42
0.414214
  0
VERTEX
  8
OBJECT
 10
8.141094
 20
18.074445
 30
0.0
  0
VERTEX
  8
OBJECT
 10
9.179094
 20
18.074445
 30
0.0
 42
0.414214
  0
SEQEND
  8
OBJECT
  0
POLYLINE
  8
OBJECT
 66
     1
 10
0.0
 20
0.0
 30
0.0
  0
VERTEX
  8
OBJECT
 10
9.295094
 20
18.230445
 30
0.0
  0
VERTEX
  8
OBJECT
 10
9.295094
 20
20.018445
 30
0.0
 42
0.414214
  0
VERTEX
  8
OBJECT
 10
9.179094
 20
20.134445
 30
0.0
  0
VERTEX
  8
OBJECT
 10
8.722576
 20
20.134445
 30
0.0
 42
0.414214
  0
SEQEND
  8
OBJECT
  0
POLYLINE
  8
OBJECT
 66
     1
 10
0.0
 20
0.0
 30
0.0
  0
VERTEX
  8
OBJECT
 10
8.722576
 20
18.114445
 30
0.0
  0
VERTEX
  8
OBJECT
 10
9.179094
 20
18.114445
 30
0.0
 42
0.414214
  0
VERTEX
  8
OBJECT
 10
9.295094
 20
18.230445
 30
0.0
  0
SEQEND
  8
OBJECT
  0
CIRCLE
  8
OBJECT
 10
8.660094
 20
18.228445
 30
0.0
 40
0.13
  0
CIRCLE
  8
OBJECT
 10
8.660094
 20
18.228445
 30
0.0
 40
0.059
  0
CIRCLE
  8
OBJECT
 10
8.660094
 20
20.020445
 30
0.0
 40
0.059
  0
CIRCLE
  8
OBJECT
 10
8.660094
 20
20.020445
 30
0.0
 40
0.13
  0
LINE
  8
OBJECT
 10
10.812458
 20
17.994445
 30
0.0
 11
10.812458
 21
20.254445
 31
0.0
  0
LINE
  8
OBJECT
 10
10.917458
 20
18.087445
 30
0.0
 11
10.917458
 21
20.161445
 31
0.0
  0
LINE
  8
OBJECT
 10
10.772458
 20
18.074445
 30
0.0
 11
10.772458
 21
20.174445
 31
0.0
  0
LINE
  8
HIDDEN
 10
10.847458
 20
18.114445
 30
0.0
 11
10.847458
 21
20.134445
 31
0.0
  0
POLYLINE
  8
OBJECT
 66
     1
 10
0.0
 20
0.0
 30
0.0
 70
     1
  0
VERTEX
  8
OBJECT
 10
14.880272
 20
18.087445
 30
0.0
  0
VERTEX
  8
OBJECT
 10
14.880272
 20
20.161445
 30
0.0
 42
0.414214
  0
VERTEX
  8
OBJECT
 10
14.787272
 20
20.254445
 30
0.0
  0
VERTEX
  8
OBJECT
 10
13.463272
 20
20.254445
 30
0.0
 42
0.414214
  0
VERTEX
  8
OBJECT
 10
13.370272
 20
20.161445
 30
0.0
  0
VERTEX
  8
OBJECT
 10
13.370272
 20
18.087445
 30
0.0
 42
0.414214
  0
VERTEX
  8
OBJECT
 10
13.463272
 20
17.994445
 30
0.0
  0
VERTEX
  8
OBJECT
 10
14.787272
 20
17.994445
 30
0.0
 42
0.414214
  0
SEQEND
  8
OBJECT
  0
POLYLINE
  8
HIDDEN
 66
     1
 10
0.0
 20
0.0
 30
0.0
 70
     1
  0
VERTEX
  8
HIDDEN
 10
14.760272
 20
18.230445
 30
0.0
  0
VERTEX
  8
HIDDEN
 10
14.760272
 20
20.018445
 30
0.0
 42
0.414214
  0
VERTEX
  8
HIDDEN
 10
14.644272
 20
20.134445
 30
0.0
  0
VERTEX
  8
HIDDEN
 10
13.606272
 20
20.134445
 30
0.0
 42
0.414214
  0
VERTEX
  8
HIDDEN
 10
13.490272
 20
20.018445
 30
0.0
  0
VERTEX
  8
HIDDEN
 10
13.490272
 20
18.230445
 30
0.0
 42
0.414214
  0
VERTEX
  8
HIDDEN
 10
13.606272
 20
18.114445
 30
0.0
  0
VERTEX
  8
HIDDEN
 10
14.644272
 20
18.114445
 30
0.0
 42
0.414214
  0
SEQEND
  8
HIDDEN
  0
POLYLINE
  8
HIDDEN
 66
     1
 10
0.0
 20
0.0
 30
0.0
 70
     1
  0
VERTEX
  8
HIDDEN
 10
14.800272
 20
18.230445
 30
0.0
  0
VERTEX
  8
HIDDEN
 10
14.800272
 20
20.018445
 30
0.0
 42
0.414214
  0
VERTEX
  8
HIDDEN
 10
14.644272
 20
20.174445
 30
0.0
  0
VERTEX
  8
HIDDEN
 10
13.606272
 20
20.174445
 30
0.0
 42
0.414214
  0
VERTEX
  8
HIDDEN
 10
13.450272
 20
20.018445
 30
0.0
  0
VERTEX
  8
HIDDEN
 10
13.450272
 20
18.230445
 30
0.0
 42
0.414214
  0
VERTEX
  8
HIDDEN
 10
13.606272
 20
18.074445
 30
0.0
  0
VERTEX
  8
HIDDEN
 10
14.644272
 20
18.074445
 30
0.0
 42
0.414214
  0
SEQEND
  8
HIDDEN
  0
CIRCLE
  8
OBJECT
 10
14.125272
 20
18.228445
 30
0.0
 40
0.117
  0
CIRCLE
  8
HIDDEN
 10
14.125272
 20
18.228445
 30
0.0
 40
0.13
  0
LINE
  8
OBJECT
 10
10.812458
 20
17.994445
 30
0.0
 11
10.824458
 21
17.994445
 31
0.0
  0
ARC
  8
OBJECT
 10
10.824458
 20
18.087445
 30
0.0
 40
0.093
 50
270.0
 51
0.0
  0
LINE
  8
OBJECT
 10
10.657458
 20
18.358445
 30
0.0
 11
10.657458
 21
18.098445
 31
0.0
  0
LINE
  8
OBJECT
 10
10.657458
 20
18.098445
 30
0.0
 11
10.772458
 21
18.098445
 31
0.0
  0
LINE
  8
OBJECT
 10
10.772458
 20
18.074445
 30
0.0
 11
10.812458
 21
18.074445
 31
0.0
  0
LINE
  8
HIDDEN
 10
10.917458
 20
18.345445
 30
0.0
 11
10.832458
 21
18.345445
 31
0.0
  0
LINE
  8
HIDDEN
 10
10.917458
 20
18.111445
 30
0.0
 11
10.832458
 21
18.111445
 31
0.0
  0
LINE
  8
HIDDEN
 10
10.832458
 20
18.345445
 30
0.0
 11
10.832458
 21
18.111445
 31
0.0
  0
LINE
  8
HIDDEN
 10
10.832458
 20
18.169445
 30
0.0
 11
10.657458
 21
18.169445
 31
0.0
  0
LINE
  8
HIDDEN
 10
10.832458
 20
18.287445
 30
0.0
 11
10.657458
 21
18.287445
 31
0.0
  0
LINE
  8
HIDDEN
 10
10.772458
 20
18.114445
 30
0.0
 11
10.847458
 21
18.114445
 31
0.0
  0
LINE
  8
OBJECT
 10
10.657458
 20
18.358445
 30
0.0
 11
10.772458
 21
18.358445
 31
0.0
  0
CIRCLE
  8
OBJECT
 10
14.125272
 20
18.228445
 30
0.0
 40
0.059
  0
CIRCLE
  8
OBJECT
 10
14.125272
 20
20.020445
 30
0.0
 40
0.117
  0
CIRCLE
  8
HIDDEN
 10
14.125272
 20
20.020445
 30
0.0
 40
0.13
  0
LINE
  8
HIDDEN
 10
10.917458
 20
19.903445
 30
0.0
 11
10.832458
 21
19.903445
 31
0.0
  0
LINE
  8
OBJECT
 10
10.657458
 20
19.890445
 30
0.0
 11
10.772458
 21
19.890445
 31
0.0
  0
LINE
  8
OBJECT
 10
10.812458
 20
20.254445
 30
0.0
 11
10.824458
 21
20.254445
 31
0.0
  0
ARC
  8
OBJECT
 10
10.824458
 20
20.161445
 30
0.0
 40
0.093
 50
0.0
 51
90.0
  0
LINE
  8
OBJECT
 10
10.772458
 20
20.174445
 30
0.0
 11
10.812458
 21
20.174445
 31
0.0
  0
LINE
  8
OBJECT
 10
10.657458
 20
20.150445
 30
0.0
 11
10.772458
 21
20.150445
 31
0.0
  0
LINE
  8
HIDDEN
 10
10.917458
 20
20.137445
 30
0.0
 11
10.832458
 21
20.137445
 31
0.0
  0
LINE
  8
HIDDEN
 10
10.772458
 20
20.134445
 30
0.0
 11
10.847458
 21
20.134445
 31
0.0
  0
LINE
  8
HIDDEN
 10
10.832458
 20
19.961445
 30
0.0
 11
10.657458
 21
19.961445
 31
0.0
  0
LINE
  8
HIDDEN
 10
10.832458
 20
20.079445
 30
0.0
 11
10.657458
 21
20.079445
 31
0.0
  0
LINE
  8
OBJECT
 10
10.657458
 20
19.890445
 30
0.0
 11
10.657458
 21
20.150445
 31
0.0
  0
LINE
  8
HIDDEN
 10
10.832458
 20
19.903445
 30
0.0
 11
10.832458
 21
20.137445
 31
0.0
  0
CIRCLE
  8
OBJECT
 10
14.125272
 20
20.020445
 30
0.0
 40
0.059
  0
DIMENSION
  8
DIM
  2
*D11
 10
13.370272
 20
20.687946
 30
0.0
 11
13.747772
 21
20.687946
 31
0.0
 12
5.795158
 22
9.14486
 32
0.0
 13
14.125272
 23
20.020445
 33
0.0
 14
13.370272
 24
20.161445
 34
0.0
  3
DIM
  0
DIMENSION
  8
DIM
  2
*D10
 10
13.370272
 20
21.097086
 30
0.0
 11
14.125272
 21
21.097086
 31
0.0
 12
5.795158
 22
9.14486
 32
0.0
 13
14.880272
 23
20.161445
 33
0.0
 14
13.370272
 24
20.161445
 34
0.0
  3
DIM
  0
DIMENSION
  8
DIM
  2
*D20
 10
12.900336
 20
18.228445
 30
0.0
 11
12.900336
 21
19.124445
 31
0.0
 12
6.72751
 22
9.14486
 32
0.0
 13
14.125272
 23
20.020445
 33
0.0
 14
14.125272
 24
18.228445
 34
0.0
 50
90.0
  3
STD
  0
DIMENSION
  8
DIM
  2
*D19
 10
12.900336
 20
17.994445
 30
0.0
 11
12.900336
 21
18.111445
 31
0.0
 12
6.72751
 22
9.14486
 32
0.0
 13
14.125272
 23
18.228445
 33
0.0
 14
13.463272
 24
17.994445
 34
0.0
 50
90.0
  3
DIM
  0
DIMENSION
  8
DIM
  2
*D18
 10
12.299504
 20
20.254445
 30
0.0
 11
12.299504
 21
19.353195
 31
0.0
 12
6.72751
 22
9.14486
 32
0.0
 70
   128
 13
13.463272
 23
17.994445
 33
0.0
 14
13.463272
 24
20.254445
 34
0.0
 50
90.0
  3
STD
  0
DIMENSION
  8
DIM
  2
*D4
 10
7.48309
 20
18.074445
 30
0.0
 11
7.48309
 21
19.124445
 31
0.0
 12
6.164692
 22
9.14486
 32
0.0
 13
8.141094
 23
20.174445
 33
0.0
 14
8.141094
 24
18.074445
 34
0.0
 50
90.0
  3
STD
  0
DIMENSION
  8
DIM
  2
*D3
 10
7.48309
 20
17.994445
 30
0.0
 11
6.831996
 21
17.454445
 31
0.0
 12
6.164692
 22
9.14486
 32
0.0
 13
8.141094
 23
18.074445
 33
0.0
 14
7.998094
 24
17.994445
 34
0.0
 50
90.0
  3
STD
  0
DIMENSION
  8
DIM
  2
*D12
 10
7.985094
 20
21.097086
 30
0.0
 11
8.660094
 21
21.097086
 31
0.0
 12
6.164692
 22
9.14486
 32
0.0
 13
9.335094
 23
20.018445
 33
0.0
 14
7.985094
 24
20.018445
 34
0.0
  3
DIM
  0
DIMENSION
  8
DIM
  2
*D13
 10
7.905094
 20
20.687946
 30
0.0
 11
6.984001
 21
20.687946
 31
0.0
 12
6.164692
 22
9.14486
 32
0.0
 13
7.985094
 23
20.018445
 33
0.0
 14
7.905094
 24
20.161445
 34
0.0
  3
STD
  0
DIMENSION
  8
DIM
  2
*D17
 10
10.917458
 20
20.878774
 30
0.0
 11
11.826833
 21
20.878774
 31
0.0
 12
6.290783
 22
9.14486
 32
0.0
 13
10.812458
 23
20.254445
 33
0.0
 14
10.917458
 24
20.161445
 34
0.0
 50
180.0
  3
STD
  0
DIMENSION
  8
DIM
  2
*D16
 10
10.772458
 20
20.548446
 30
0.0
 11
9.851364
 21
20.548446
 31
0.0
 12
6.290783
 22
9.14486
 32
0.0
 13
10.812458
 23
20.254445
 33
0.0
 14
10.772458
 24
20.174445
 34
0.0
 50
180.0
  3
STD
  0
DIMENSION
  8
DIM
  2
*D15
 10
10.917458
 20
17.578932
 30
0.0
 11
11.850271
 21
17.578932
 31
0.0
 12
6.290783
 22
9.14486
 32
0.0
 13
10.657458
 23
18.098445
 33
0.0
 14
10.917458
 24
18.087445
 34
0.0
 50
180.0
  3
STD
  0
POLYLINE
  8
DIM
 66
     1
 10
0.0
 20
0.0
 30
0.0
 41
0.10125
  0
VERTEX
  8
DIM
 10
8.542997
 20
18.171981
 30
0.0
  0
VERTEX
  8
DIM
 10
8.392376
 20
17.947898
 30
0.0
 41
0.0
  0
VERTEX
  8
DIM
 10
7.940752
 20
17.276008
 30
0.0
 41
0.0
  0
VERTEX
  8
DIM
 10
7.940752
 20
17.276008
 30
0.0
 41
0.0
  0
VERTEX
  8
DIM
 10
8.210752
 20
17.276008
 30
0.0
 41
0.0
  0
SEQEND
  8
DIM
  0
TEXT
  8
DIM
 10
8.345752
 20
17.182258
 30
0.0
 40
0.1875
  1
0.260 DIA. BOSS
 41
0.75
  7
TXT
 11
8.345752
 21
17.276008
 31
0.0
 73
     2
  0
TEXT
  8
DIM
 10
8.345752
 20
16.869758
 30
0.0
 40
0.1875
  1
(2) PLACES
 41
0.75
  7
TXT
 11
8.345752
 21
16.963508
 31
0.0
 73
     2
  0
DIMENSION
  8
DIM
  2
*D1
 10
9.335094
 20
19.125435
 30
0.0
 11
10.256188
 21
19.125435
 31
0.0
 12
6.164692
 22
9.14486
 32
0.0
 13
9.295094
 23
19.130468
 33
0.0
 14
9.335094
 24
19.130468
 34
0.0
  3
STD
  0
INSERT
  8
0
  2
ACAD
 10
10.687417
 20
1.395473
 30
0.0
  0
LINE
  8
OBJECT
 10
16.039627
 20
18.097706
 30
0.0
 11
16.039627
 21
20.151185
 31
0.0
  0
LINE
  8
HIDDEN
 10
16.114627
 20
18.097706
 30
0.0
 11
16.114627
 21
20.151185
 31
0.0
  0
ARC
  8
OBJECT
 10
16.132627
 20
18.097706
 30
0.0
 40
0.093
 50
180.0
 51
269.0
  0
LINE
  8
OBJECT
 10
16.131004
 20
18.00472
 30
0.0
 11
16.719627
 21
17.994445
 31
0.0
  0
LINE
  8
HIDDEN
 10
16.132313
 20
18.079708
 30
0.0
 11
16.720936
 21
18.069434
 31
0.0
  0
ARC
  8
HIDDEN
 10
16.132627
 20
18.097706
 30
0.0
 40
0.018
 50
180.0
 51
269.0
  0
LINE
  8
HIDDEN
 10
16.499627
 20
18.339445
 30
0.0
 11
16.499627
 21
18.117445
 31
0.0
  0
LINE
  8
HIDDEN
 10
16.499627
 20
18.117445
 30
0.0
 11
16.114627
 21
18.117445
 31
0.0
  0
LINE
  8
HIDDEN
 10
16.499627
 20
18.271445
 30
0.0
 11
16.094627
 21
18.271445
 31
0.0
  0
LINE
  8
HIDDEN
 10
16.499627
 20
18.185445
 30
0.0
 11
16.094627
 21
18.185445
 31
0.0
  0
LINE
  8
HIDDEN
 10
16.499627
 20
18.339445
 30
0.0
 11
16.114627
 21
18.339445
 31
0.0
  0
LINE
  8
HIDDEN
 10
16.094627
 20
18.271445
 30
0.0
 11
16.094627
 21
18.185445
 31
0.0
  0
ARC
  8
OBJECT
 10
16.132627
 20
20.151185
 30
0.0
 40
0.093
 50
91.0
 51
180.0
  0
LINE
  8
HIDDEN
 10
16.499627
 20
19.909445
 30
0.0
 11
16.114627
 21
19.909445
 31
0.0
  0
ARC
  8
HIDDEN
 10
16.132627
 20
20.151185
 30
0.0
 40
0.018
 50
91.0
 51
180.0
  0
LINE
  8
HIDDEN
 10
16.720936
 20
20.179457
 30
0.0
 11
16.132313
 21
20.169182
 31
0.0
  0
LINE
  8
OBJECT
 10
16.719627
 20
20.254445
 30
0.0
 11
16.131004
 21
20.244171
 31
0.0
  0
LINE
  8
HIDDEN
 10
16.499627
 20
20.063445
 30
0.0
 11
16.094627
 21
20.063445
 31
0.0
  0
LINE
  8
HIDDEN
 10
16.499627
 20
19.977445
 30
0.0
 11
16.094627
 21
19.977445
 31
0.0
  0
LINE
  8
HIDDEN
 10
16.499627
 20
20.131445
 30
0.0
 11
16.114627
 21
20.131445
 31
0.0
  0
LINE
  8
HIDDEN
 10
16.094627
 20
19.977445
 30
0.0
 11
16.094627
 21
20.063445
 31
0.0
  0
LINE
  8
HIDDEN
 10
16.499627
 20
19.909445
 30
0.0
 11
16.499627
 21
20.131445
 31
0.0
  0
INSERT
  8
0
  2
ACAD
 10
10.687417
 20
8.895473
 30
0.0
  0
LINE
  8
OBJECT
 10
16.719627
 20
17.994445
 30
0.0
 11
16.719627
 21
20.254445
 31
0.0
  0
LINE
  8
OBJECT
 10
16.824627
 20
18.087445
 30
0.0
 11
16.824627
 21
20.161445
 31
0.0
  0
LINE
  8
HIDDEN
 10
16.679627
 20
18.074445
 30
0.0
 11
16.679627
 21
20.174445
 31
0.0
  0
LINE
  8
HIDDEN
 10
16.754627
 20
18.114445
 30
0.0
 11
16.754627
 21
20.134445
 31
0.0
  0
LINE
  8
OBJECT
 10
16.719627
 20
17.994445
 30
0.0
 11
16.731627
 21
17.994445
 31
0.0
  0
ARC
  8
OBJECT
 10
16.731627
 20
18.087445
 30
0.0
 40
0.093
 50
270.0
 51
0.0
  0
LINE
  8
HIDDEN
 10
16.564627
 20
18.358445
 30
0.0
 11
16.564627
 21
18.098445
 31
0.0
  0
LINE
  8
HIDDEN
 10
16.564627
 20
18.098445
 30
0.0
 11
16.679627
 21
18.098445
 31
0.0
  0
LINE
  8
HIDDEN
 10
16.679627
 20
18.074445
 30
0.0
 11
16.719627
 21
18.074445
 31
0.0
  0
LINE
  8
HIDDEN
 10
16.824627
 20
18.345445
 30
0.0
 11
16.739627
 21
18.345445
 31
0.0
  0
LINE
  8
HIDDEN
 10
16.824627
 20
18.111445
 30
0.0
 11
16.739627
 21
18.111445
 31
0.0
  0
LINE
  8
HIDDEN
 10
16.739627
 20
18.345445
 30
0.0
 11
16.739627
 21
18.111445
 31
0.0
  0
LINE
  8
HIDDEN
 10
16.739627
 20
18.169445
 30
0.0
 11
16.564627
 21
18.169445
 31
0.0
  0
LINE
  8
HIDDEN
 10
16.739627
 20
18.287445
 30
0.0
 11
16.564627
 21
18.287445
 31
0.0
  0
LINE
  8
HIDDEN
 10
16.679627
 20
18.114445
 30
0.0
 11
16.754627
 21
18.114445
 31
0.0
  0
LINE
  8
HIDDEN
 10
16.564627
 20
18.358445
 30
0.0
 11
16.679627
 21
18.358445
 31
0.0
  0
LINE
  8
HIDDEN
 10
16.824627
 20
19.903445
 30
0.0
 11
16.739627
 21
19.903445
 31
0.0
  0
LINE
  8
HIDDEN
 10
16.564627
 20
19.890445
 30
0.0
 11
16.679627
 21
19.890445
 31
0.0
  0
LINE
  8
OBJECT
 10
16.719627
 20
20.254445
 30
0.0
 11
16.731627
 21
20.254445
 31
0.0
  0
ARC
  8
OBJECT
 10
16.731627
 20
20.161445
 30
0.0
 40
0.093
 50
0.0
 51
90.0
  0
LINE
  8
HIDDEN
 10
16.679627
 20
20.174445
 30
0.0
 11
16.719627
 21
20.174445
 31
0.0
  0
LINE
  8
HIDDEN
 10
16.564627
 20
20.150445
 30
0.0
 11
16.679627
 21
20.150445
 31
0.0
  0
LINE
  8
HIDDEN
 10
16.824627
 20
20.137445
 30
0.0
 11
16.739627
 21
20.137445
 31
0.0
  0
LINE
  8
HIDDEN
 10
16.679627
 20
20.134445
 30
0.0
 11
16.754627
 21
20.134445
 31
0.0
  0
LINE
  8
HIDDEN
 10
16.739627
 20
19.961445
 30
0.0
 11
16.564627
 21
19.961445
 31
0.0
  0
LINE
  8
HIDDEN
 10
16.739627
 20
20.079445
 30
0.0
 11
16.564627
 21
20.079445
 31
0.0
  0
LINE
  8
HIDDEN
 10
16.564627
 20
19.890445
 30
0.0
 11
16.564627
 21
20.150445
 31
0.0
  0
LINE
  8
HIDDEN
 10
16.739627
 20
19.903445
 30
0.0
 11
16.739627
 21
20.137445
 31
0.0
  0
DIMENSION
  8
DIM
  2
*D8
 10
5.356276
 20
21.073606
 30
0.0
 11
4.601276
 21
21.073606
 31
0.0
 12
-1.232036
 22
15.351478
 32
0.0
 13
3.846276
 23
20.161445
 33
0.0
 14
5.356276
 24
20.161445
 34
0.0
  3
DIM
  0
DIMENSION
  8
DIM
  2
*D6
 10
2.199954
 20
21.073606
 30
0.0
 11
1.859954
 21
21.073606
 31
0.0
 12
-1.398528
 22
15.351478
 32
0.0
 13
1.519954
 23
20.151185
 33
0.0
 14
2.199954
 24
20.254445
 34
0.0
  3
DIM
  0
DIMENSION
  8
DIM
  2
*D7
 10
1.594954
 20
20.634783
 30
0.0
 11
0.650423
 21
20.634783
 31
0.0
 12
-1.398528
 22
15.351478
 32
0.0
 13
1.979954
 23
20.131445
 33
0.0
 14
1.594954
 24
20.151185
 34
0.0
  3
STD
  0
DIMENSION
  8
DIM
  2
*D2
 10
10.847458
 20
18.601798
 30
0.0
 11
9.926364
 21
18.601798
 31
0.0
 12
6.622081
 22
9.14486
 32
0.0
 13
10.917458
 23
18.601798
 33
0.0
 14
10.847458
 24
18.601798
 34
0.0
  3
STD
  0
TEXT
  8
TEXT
 10
0.363708
 20
26.355139
 30
0.0
 40
0.21875
  1
NAME
 72
     1
 11
0.76475
 21
26.355139
 31
0.0
  0
TEXT
  8
TEXT
 10
0.363708
 20
26.719722
 30
0.0
 40
0.21875
  1
PART
 72
     1
 11
0.76475
 21
26.719722
 31
0.0
  0
TEXT
  8
TEXT
 10
9.401
 20
26.355139
 30
0.0
 40
0.21875
  1
No.
 72
     1
 11
9.61975
 21
26.355139
 31
0.0
  0
TEXT
  8
TEXT
 10
9.218708
 20
26.719722
 30
0.0
 40
0.21875
  1
PART
 72
     1
 11
9.61975
 21
26.719722
 31
0.0
  0
LINE
  8
TITLE
 10
10.276
 20
27.0165
 30
0.0
 11
10.276
 21
26.285
 31
0.0
  0
LINE
  8
TITLE
 10
8.9635
 20
27.0165
 30
0.0
 11
8.9635
 21
26.285
 31
0.0
  0
LINE
  8
TITLE
 10
8.855
 20
27.0165
 30
0.0
 11
8.855
 21
26.285
 31
0.0
  0
LINE
  8
TITLE
 10
1.421
 20
26.285
 30
0.0
 11
1.421
 21
27.0165
 31
0.0
  0
LINE
  8
TITLE
 10
0.1085
 20
26.285
 30
0.0
 11
17.6015
 21
26.285
 31
0.0
  0
LINE
  8
TITLE
 10
17.6015
 20
0.1085
 30
0.0
 11
0.1085
 21
0.1085
 31
0.0
  0
LINE
  8
TITLE
 10
17.6015
 20
27.0165
 30
0.0
 11
17.6015
 21
13.6715
 31
0.0
  0
LINE
  8
TITLE
 10
0.1085
 20
27.0165
 30
0.0
 11
17.6015
 21
27.0165
 31
0.0
  0
LINE
  8
TITLE
 10
0.1085
 20
0.1085
 30
0.0
 11
0.1085
 21
13.5625
 31
0.0
  0
LINE
  8
TITLE
 10
0.0
 20
0.0
 30
0.0
 11
0.0
 21
27.125
 31
0.0
  0
LINE
  8
TITLE
 10
17.71
 20
0.0
 30
0.0
 11
0.0
 21
0.0
 31
0.0
  0
LINE
  8
TITLE
 10
17.71
 20
27.125
 30
0.0
 11
17.71
 21
0.0
 31
0.0
  0
LINE
  8
TITLE
 10
0.0
 20
27.125
 30
0.0
 11
17.71
 21
27.125
 31
0.0
  0
DIMENSION
  8
DIM
  2
*D14
 10
16.039627
 20
17.610708
 30
0.0
 11
16.432127
 21
17.610708
 31
0.0
 12
2.702773
 22
9.14486
 32
0.0
 13
16.824627
 23
18.087445
 33
0.0
 14
16.039627
 24
18.097706
 34
0.0
  3
DIM
  0
TEXT
  8
TEXT
 10
0.31428
 20
25.480637
 30
0.0
 40
0.21875
  1
%%uMATERIAL:
 41
0.75
  7
TXT
  0
TEXT
  8
TEXT
 10
3.22814
 20
24.022887
 30
0.0
 40
0.21875
  1
BLACK TEXTURED
 41
0.75
  7
TXT
  0
TEXT
  8
TEXT
 10
3.22814
 20
25.116054
 30
0.0
 40
0.21875
  1
HIGH-IMPACT POLYSTYRENE
 41
0.75
  7
TXT
  0
TEXT
  8
TEXT
 10
0.512849
 20
24.022887
 30
0.0
 40
0.21875
  1
BODY & COVER
 41
0.75
  7
TXT
  0
TEXT
  8
TEXT
 10
0.512849
 20
25.116054
 30
0.0
 40
0.21875
  1
BODY & COVER
 41
0.75
  7
TXT
  0
TEXT
  8
TEXT
 10
0.31428
 20
24.38747
 30
0.0
 40
0.21875
  1
%%uFINISH:
 41
0.75
  7
TXT
  0
LINE
  8
TEXT
 10
3.116375
 20
24.022887
 30
0.0
 11
2.591327
 21
24.022887
 31
0.0
  0
LINE
  8
TEXT
 10
3.116375
 20
25.116054
 30
0.0
 11
2.591327
 21
25.116054
 31
0.0
  0
POLYLINE
  8
DIM
 66
     1
 10
0.0
 20
0.0
 30
0.0
 41
0.10125
  0
VERTEX
  8
DIM
 10
4.655426
 20
18.13155
 30
0.0
  0
VERTEX
  8
DIM
 10
4.787098
 20
17.895833
 30
0.0
 41
0.0
  0
VERTEX
  8
DIM
 10
5.265769
 20
17.038926
 30
0.0
 41
0.0
  0
VERTEX
  8
DIM
 10
4.995769
 20
17.038926
 30
0.0
 41
0.0
  0
SEQEND
  8
DIM
  0
TEXT
  8
DIM
 10
2.352956
 20
16.945176
 30
0.0
 40
0.1875
  1
0.222 DIA. BOSS WITH
 41
0.75
  7
TXT
 72
     2
 11
4.860769
 21
17.038926
 31
0.0
 73
     2
  0
TEXT
  8
DIM
 10
1.392019
 20
16.632676
 30
0.0
 40
0.1875
  1
0.086 DIA. HOLE x 0.405 DEEP
 41
0.75
  7
TXT
 72
     2
 11
4.860769
 21
16.726426
 31
0.0
 73
     2
  0
TEXT
  8
DIM
 10
3.595144
 20
16.320176
 30
0.0
 40
0.1875
  1
(2) PLACES
 41
0.75
  7
TXT
 72
     2
 11
4.860769
 21
16.413926
 31
0.0
 73
     2
  0
INSERT
  8
0
  2
ACAD
 10
0.68994
 20
4.52996
 30
0.0
  0
POLYLINE
  8
OBJECT
 66
     1
 10
0.0
 20
0.0
 30
0.0
  0
VERTEX
  8
OBJECT
 10
8.597612
 20
6.744531
 30
0.0
  0
VERTEX
  8
OBJECT
 10
8.141094
 20
6.744531
 30
0.0
 42
0.414214
  0
VERTEX
  8
OBJECT
 10
8.025094
 20
6.628531
 30
0.0
  0
VERTEX
  8
OBJECT
 10
8.025094
 20
4.840531
 30
0.0
 42
0.414214
  0
VERTEX
  8
OBJECT
 10
8.141094
 20
4.724531
 30
0.0
  0
VERTEX
  8
OBJECT
 10
8.597612
 20
4.724531
 30
0.0
 42
0.414214
  0
SEQEND
  8
OBJECT
  0
POLYLINE
  8
OBJECT
 66
     1
 10
0.0
 20
0.0
 30
0.0
 70
     1
  0
VERTEX
  8
OBJECT
 10
9.335094
 20
4.840531
 30
0.0
  0
VERTEX
  8
OBJECT
 10
9.335094
 20
6.628531
 30
0.0
 42
0.414214
  0
VERTEX
  8
OBJECT
 10
9.179094
 20
6.784531
 30
0.0
  0
VERTEX
  8
OBJECT
 10
8.141094
 20
6.784531
 30
0.0
 42
0.414214
  0
VERTEX
  8
OBJECT
 10
7.985094
 20
6.628531
 30
0.0
  0
VERTEX
  8
OBJECT
 10
7.985094
 20
4.840531
 30
0.0
 42
0.414214
  0
VERTEX
  8
OBJECT
 10
8.141094
 20
4.684531
 30
0.0
  0
VERTEX
  8
OBJECT
 10
9.179094
 20
4.684531
 30
0.0
 42
0.414214
  0
SEQEND
  8
OBJECT
  0
POLYLINE
  8
OBJECT
 66
     1
 10
0.0
 20
0.0
 30
0.0
  0
VERTEX
  8
OBJECT
 10
9.295094
 20
4.840531
 30
0.0
  0
VERTEX
  8
OBJECT
 10
9.295094
 20
6.628531
 30
0.0
 42
0.414214
  0
VERTEX
  8
OBJECT
 10
9.179094
 20
6.744531
 30
0.0
  0
VERTEX
  8
OBJECT
 10
8.722576
 20
6.744531
 30
0.0
 42
0.414214
  0
SEQEND
  8
OBJECT
  0
POLYLINE
  8
OBJECT
 66
     1
 10
0.0
 20
0.0
 30
0.0
  0
VERTEX
  8
OBJECT
 10
8.722576
 20
4.724531
 30
0.0
  0
VERTEX
  8
OBJECT
 10
9.179094
 20
4.724531
 30
0.0
 42
0.414214
  0
VERTEX
  8
OBJECT
 10
9.295094
 20
4.840531
 30
0.0
  0
SEQEND
  8
OBJECT
  0
CIRCLE
  8
OBJECT
 10
8.660094
 20
4.838531
 30
0.0
 40
0.13
  0
CIRCLE
  8
OBJECT
 10
8.660094
 20
4.838531
 30
0.0
 40
0.059
  0
CIRCLE
  8
OBJECT
 10
8.660094
 20
6.630531
 30
0.0
 40
0.059
  0
CIRCLE
  8
OBJECT
 10
8.660094
 20
6.630531
 30
0.0
 40
0.13
  0
LINE
  8
OBJECT
 10
10.812458
 20
4.296531
 30
0.0
 11
10.812458
 21
7.172531
 31
0.0
  0
LINE
  8
OBJECT
 10
10.917458
 20
4.296531
 30
0.0
 11
10.917458
 21
7.172531
 31
0.0
  0
LINE
  8
OBJECT
 10
10.772458
 20
4.684531
 30
0.0
 11
10.772458
 21
6.784531
 31
0.0
  0
LINE
  8
HIDDEN
 10
10.847458
 20
4.724531
 30
0.0
 11
10.847458
 21
6.744531
 31
0.0
  0
POLYLINE
  8
HIDDEN
 66
     1
 10
0.0
 20
0.0
 30
0.0
 70
     1
  0
VERTEX
  8
HIDDEN
 10
14.760272
 20
4.840531
 30
0.0
  0
VERTEX
  8
HIDDEN
 10
14.760272
 20
6.628531
 30
0.0
 42
0.414214
  0
VERTEX
  8
HIDDEN
 10
14.644272
 20
6.744531
 30
0.0
  0
VERTEX
  8
HIDDEN
 10
13.606272
 20
6.744531
 30
0.0
 42
0.414214
  0
VERTEX
  8
HIDDEN
 10
13.490272
 20
6.628531
 30
0.0
  0
VERTEX
  8
HIDDEN
 10
13.490272
 20
4.840531
 30
0.0
 42
0.414214
  0
VERTEX
  8
HIDDEN
 10
13.606272
 20
4.724531
 30
0.0
  0
VERTEX
  8
HIDDEN
 10
14.644272
 20
4.724531
 30
0.0
 42
0.414214
  0
SEQEND
  8
HIDDEN
  0
POLYLINE
  8
HIDDEN
 66
     1
 10
0.0
 20
0.0
 30
0.0
 70
     1
  0
VERTEX
  8
HIDDEN
 10
14.800272
 20
4.840531
 30
0.0
  0
VERTEX
  8
HIDDEN
 10
14.800272
 20
6.628531
 30
0.0
 42
0.414214
  0
VERTEX
  8
HIDDEN
 10
14.644272
 20
6.784531
 30
0.0
  0
VERTEX
  8
HIDDEN
 10
13.606272
 20
6.784531
 30
0.0
 42
0.414214
  0
VERTEX
  8
HIDDEN
 10
13.450272
 20
6.628531
 30
0.0
  0
VERTEX
  8
HIDDEN
 10
13.450272
 20
4.840531
 30
0.0
 42
0.414214
  0
VERTEX
  8
HIDDEN
 10
13.606272
 20
4.684531
 30
0.0
  0
VERTEX
  8
HIDDEN
 10
14.644272
 20
4.684531
 30
0.0
 42
0.414214
  0
SEQEND
  8
HIDDEN
  0
CIRCLE
  8
OBJECT
 10
14.125272
 20
4.838531
 30
0.0
 40
0.117
  0
CIRCLE
  8
HIDDEN
 10
14.125272
 20
4.838531
 30
0.0
 40
0.13
  0
LINE
  8
OBJECT
 10
10.812458
 20
4.604531
 30
0.0
 11
10.824458
 21
4.604531
 31
0.0
  0
ARC
  8
OBJECT
 10
10.824458
 20
4.697531
 30
0.0
 40
0.093
 50
270.0
 51
0.0
  0
LINE
  8
OBJECT
 10
10.657458
 20
4.968531
 30
0.0
 11
10.657458
 21
4.708531
 31
0.0
  0
LINE
  8
OBJECT
 10
10.657458
 20
4.708531
 30
0.0
 11
10.772458
 21
4.708531
 31
0.0
  0
LINE
  8
OBJECT
 10
10.772458
 20
4.684531
 30
0.0
 11
10.812458
 21
4.684531
 31
0.0
  0
LINE
  8
HIDDEN
 10
10.917458
 20
4.955531
 30
0.0
 11
10.832458
 21
4.955531
 31
0.0
  0
LINE
  8
HIDDEN
 10
10.917458
 20
4.721531
 30
0.0
 11
10.832458
 21
4.721531
 31
0.0
  0
LINE
  8
HIDDEN
 10
10.832458
 20
4.955531
 30
0.0
 11
10.832458
 21
4.721531
 31
0.0
  0
LINE
  8
HIDDEN
 10
10.832458
 20
4.779531
 30
0.0
 11
10.657458
 21
4.779531
 31
0.0
  0
LINE
  8
HIDDEN
 10
10.832458
 20
4.897531
 30
0.0
 11
10.657458
 21
4.897531
 31
0.0
  0
LINE
  8
HIDDEN
 10
10.772458
 20
4.724531
 30
0.0
 11
10.847458
 21
4.724531
 31
0.0
  0
LINE
  8
OBJECT
 10
10.657458
 20
4.968531
 30
0.0
 11
10.772458
 21
4.968531
 31
0.0
  0
CIRCLE
  8
OBJECT
 10
14.125272
 20
4.838531
 30
0.0
 40
0.059
  0
CIRCLE
  8
OBJECT
 10
14.125272
 20
6.630531
 30
0.0
 40
0.117
  0
CIRCLE
  8
HIDDEN
 10
14.125272
 20
6.630531
 30
0.0
 40
0.13
  0
LINE
  8
HIDDEN
 10
10.917458
 20
6.513531
 30
0.0
 11
10.832458
 21
6.513531
 31
0.0
  0
LINE
  8
OBJECT
 10
10.657458
 20
6.500531
 30
0.0
 11
10.772458
 21
6.500531
 31
0.0
  0
LINE
  8
OBJECT
 10
10.812458
 20
6.864531
 30
0.0
 11
10.824458
 21
6.864531
 31
0.0
  0
ARC
  8
OBJECT
 10
10.824458
 20
6.771531
 30
0.0
 40
0.093
 50
0.0
 51
90.0
  0
LINE
  8
OBJECT
 10
10.772458
 20
6.784531
 30
0.0
 11
10.812458
 21
6.784531
 31
0.0
  0
LINE
  8
OBJECT
 10
10.657458
 20
6.760531
 30
0.0
 11
10.772458
 21
6.760531
 31
0.0
  0
LINE
  8
HIDDEN
 10
10.917458
 20
6.747531
 30
0.0
 11
10.832458
 21
6.747531
 31
0.0
  0
LINE
  8
HIDDEN
 10
10.772458
 20
6.744531
 30
0.0
 11
10.847458
 21
6.744531
 31
0.0
  0
LINE
  8
HIDDEN
 10
10.832458
 20
6.571531
 30
0.0
 11
10.657458
 21
6.571531
 31
0.0
  0
LINE
  8
HIDDEN
 10
10.832458
 20
6.689531
 30
0.0
 11
10.657458
 21
6.689531
 31
0.0
  0
LINE
  8
OBJECT
 10
10.657458
 20
6.500531
 30
0.0
 11
10.657458
 21
6.760531
 31
0.0
  0
LINE
  8
HIDDEN
 10
10.832458
 20
6.513531
 30
0.0
 11
10.832458
 21
6.747531
 31
0.0
  0
CIRCLE
  8
OBJECT
 10
14.125272
 20
6.630531
 30
0.0
 40
0.059
  0
DIMENSION
  8
DIM
  2
*D21
 10
13.370272
 20
7.385714
 30
0.0
 11
13.747772
 21
7.385714
 31
0.0
 12
7.394478
 22
-3.331605
 32
0.0
 13
14.125272
 23
6.630531
 33
0.0
 14
13.370272
 24
6.771531
 34
0.0
  3
DIM
  0
DIMENSION
  8
DIM
  2
*D23
 10
13.370272
 20
7.794854
 30
0.0
 11
14.125272
 21
7.794854
 31
0.0
 12
7.394478
 22
-3.331605
 32
0.0
 13
14.880272
 23
6.771531
 33
0.0
 14
13.370272
 24
6.771531
 34
0.0
  3
DIM
  0
DIMENSION
  8
DIM
  2
*D31
 10
12.969962
 20
4.838531
 30
0.0
 11
12.969962
 21
5.734531
 31
0.0
 12
4.731696
 22
-3.331605
 32
0.0
 13
14.125272
 23
6.630531
 33
0.0
 14
14.125272
 24
4.838531
 34
0.0
 50
90.0
  3
STD
  0
DIMENSION
  8
DIM
  2
*D32
 10
12.969962
 20
4.604531
 30
0.0
 11
12.969962
 21
4.721531
 31
0.0
 12
4.731696
 22
-3.331605
 32
0.0
 13
14.125272
 23
4.838531
 33
0.0
 14
13.463272
 24
4.604531
 34
0.0
 50
90.0
  3
DIM
  0
DIMENSION
  8
DIM
  2
*D34
 10
12.364103
 20
6.864531
 30
0.0
 11
12.364103
 21
6.119873
 31
0.0
 12
4.731696
 22
-3.331605
 32
0.0
 70
   128
 13
13.463272
 23
4.604531
 33
0.0
 14
13.463272
 24
6.864531
 34
0.0
 50
90.0
  3
STD
  0
DIMENSION
  8
DIM
  2
*D27
 10
7.326238
 20
4.684531
 30
0.0
 11
7.326238
 21
5.734531
 31
0.0
 12
4.431113
 22
-3.331605
 32
0.0
 13
8.141094
 23
6.784531
 33
0.0
 14
8.141094
 24
4.684531
 34
0.0
 50
90.0
  3
STD
  0
DIMENSION
  8
DIM
  2
*D28
 10
7.326238
 20
4.604531
 30
0.0
 11
6.675145
 21
4.064531
 31
0.0
 12
4.431113
 22
-3.331605
 32
0.0
 13
8.141094
 23
4.684531
 33
0.0
 14
7.998094
 24
4.604531
 34
0.0
 50
90.0
  3
STD
  0
DIMENSION
  8
DIM
  2
*D25
 10
7.985094
 20
7.794854
 30
0.0
 11
8.660094
 21
7.794854
 31
0.0
 12
5.997464
 22
-3.331605
 32
0.0
 13
9.335094
 23
6.628531
 33
0.0
 14
7.985094
 24
6.628531
 34
0.0
  3
DIM
  0
DIMENSION
  8
DIM
  2
*D26
 10
7.905094
 20
7.385714
 30
0.0
 11
6.984001
 21
7.385714
 31
0.0
 12
5.997464
 22
-3.331605
 32
0.0
 13
7.985094
 23
6.628531
 33
0.0
 14
7.905094
 24
6.771531
 34
0.0
  3
STD
  0
DIMENSION
  8
DIM
  2
*D30
 10
10.917458
 20
7.735029
 30
0.0
 11
11.826833
 21
7.735029
 31
0.0
 12
4.941779
 22
-3.331605
 32
0.0
 13
10.812458
 23
7.172531
 33
0.0
 14
10.917458
 24
7.172531
 34
0.0
 50
180.0
  3
STD
  0
DIMENSION
  8
DIM
  2
*D24
 10
10.772458
 20
7.385714
 30
0.0
 11
9.851364
 21
7.385714
 31
0.0
 12
6.50813
 22
-3.331605
 32
0.0
 13
10.812458
 23
7.172531
 33
0.0
 14
10.772458
 24
6.784531
 34
0.0
 50
180.0
  3
STD
  0
DIMENSION
  8
DIM
  2
*D22
 10
8.025094
 20
6.08701
 30
0.0
 11
8.946188
 21
6.08701
 31
0.0
 12
5.997464
 22
-3.331605
 32
0.0
 13
7.985094
 23
6.092043
 33
0.0
 14
8.025094
 24
6.092043
 34
0.0
  3
STD
  0
CIRCLE
  8
OBJECT
 10
8.660094
 20
6.984531
 30
0.0
 40
0.059
  0
LINE
  8
OBJECT
 10
8.573466
 20
7.172531
 30
0.0
 11
8.746722
 21
7.172531
 31
0.0
  0
LINE
  8
OBJECT
 10
8.410094
 20
6.864531
 30
0.0
 11
8.545371
 21
7.154633
 31
0.0
  0
ARC
  8
OBJECT
 10
8.573466
 20
7.141531
 30
0.0
 40
0.031
 50
90.0
 51
155.0
  0
LINE
  8
OBJECT
 10
8.910094
 20
6.864531
 30
0.0
 11
8.774818
 21
7.154633
 31
0.0
  0
ARC
  8
OBJECT
 10
8.746722
 20
7.141531
 30
0.0
 40
0.031
 50
25.0
 51
90.0
  0
POLYLINE
  8
OBJECT
 66
     1
 10
0.0
 20
0.0
 30
0.0
  0
VERTEX
  8
OBJECT
 10
9.415094
 20
4.697531
 30
0.0
  0
VERTEX
  8
OBJECT
 10
9.415094
 20
6.771531
 30
0.0
 42
0.414214
  0
VERTEX
  8
OBJECT
 10
9.322094
 20
6.864531
 30
0.0
  0
VERTEX
  8
OBJECT
 10
8.910094
 20
6.864531
 30
0.0
 42
0.414214
  0
SEQEND
  8
OBJECT
  0
LINE
  8
OBJECT
 10
8.573466
 20
4.296531
 30
0.0
 11
8.746722
 21
4.296531
 31
0.0
  0
LINE
  8
OBJECT
 10
8.410094
 20
4.604531
 30
0.0
 11
8.545371
 21
4.31443
 31
0.0
  0
ARC
  8
OBJECT
 10
8.573466
 20
4.327531
 30
0.0
 40
0.031
 50
205.0
 51
270.0
  0
LINE
  8
OBJECT
 10
8.910094
 20
4.604531
 30
0.0
 11
8.774818
 21
4.31443
 31
0.0
  0
CIRCLE
  8
OBJECT
 10
8.660094
 20
4.484531
 30
0.0
 40
0.059
  0
ARC
  8
OBJECT
 10
8.746722
 20
4.327531
 30
0.0
 40
0.031
 50
270.0
 51
335.0
  0
POLYLINE
  8
OBJECT
 66
     1
 10
0.0
 20
0.0
 30
0.0
  0
VERTEX
  8
OBJECT
 10
8.410094
 20
6.864531
 30
0.0
  0
VERTEX
  8
OBJECT
 10
7.998094
 20
6.864531
 30
0.0
 42
0.414214
  0
VERTEX
  8
OBJECT
 10
7.905094
 20
6.771531
 30
0.0
  0
VERTEX
  8
OBJECT
 10
7.905094
 20
4.697531
 30
0.0
 42
0.414214
  0
VERTEX
  8
OBJECT
 10
7.998094
 20
4.604531
 30
0.0
  0
VERTEX
  8
OBJECT
 10
8.410094
 20
4.604531
 30
0.0
 42
0.414214
  0
SEQEND
  8
OBJECT
  0
POLYLINE
  8
OBJECT
 66
     1
 10
0.0
 20
0.0
 30
0.0
  0
VERTEX
  8
OBJECT
 10
8.910094
 20
4.604531
 30
0.0
  0
VERTEX
  8
OBJECT
 10
9.322094
 20
4.604531
 30
0.0
 42
0.414214
  0
VERTEX
  8
OBJECT
 10
9.415094
 20
4.697531
 30
0.0
  0
SEQEND
  8
OBJECT
  0
LINE
  8
OBJECT
 10
14.038644
 20
4.296531
 30
0.0
 11
14.2119
 21
4.296531
 31
0.0
  0
LINE
  8
OBJECT
 10
13.875272
 20
4.604531
 30
0.0
 11
14.010548
 21
4.31443
 31
0.0
  0
ARC
  8
OBJECT
 10
14.038644
 20
4.327531
 30
0.0
 40
0.031
 50
205.0
 51
270.0
  0
LINE
  8
OBJECT
 10
14.375272
 20
4.604531
 30
0.0
 11
14.239995
 21
4.31443
 31
0.0
  0
ARC
  8
OBJECT
 10
14.2119
 20
4.327531
 30
0.0
 40
0.031
 50
270.0
 51
335.0
  0
CIRCLE
  8
OBJECT
 10
14.125272
 20
4.484531
 30
0.0
 40
0.059
  0
LINE
  8
OBJECT
 10
14.038644
 20
7.172531
 30
0.0
 11
14.2119
 21
7.172531
 31
0.0
  0
LINE
  8
OBJECT
 10
13.875272
 20
6.864531
 30
0.0
 11
14.010548
 21
7.154633
 31
0.0
  0
ARC
  8
OBJECT
 10
14.038644
 20
7.141531
 30
0.0
 40
0.031
 50
90.0
 51
155.0
  0
LINE
  8
OBJECT
 10
14.375272
 20
6.864531
 30
0.0
 11
14.239995
 21
7.154633
 31
0.0
  0
CIRCLE
  8
OBJECT
 10
14.125272
 20
6.984531
 30
0.0
 40
0.059
  0
ARC
  8
OBJECT
 10
14.2119
 20
7.141531
 30
0.0
 40
0.031
 50
25.0
 51
90.0
  0
LINE
  8
OBJECT
 10
10.812458
 20
7.172531
 30
0.0
 11
10.917458
 21
7.172531
 31
0.0
  0
LINE
  8
OBJECT
 10
10.812458
 20
4.296531
 30
0.0
 11
10.917458
 21
4.296531
 31
0.0
  0
DIMENSION
  8
DIM
  2
*D29
 10
9.861169
 20
4.484531
 30
0.0
 11
9.861169
 21
5.734531
 31
0.0
 12
4.941779
 22
-3.331605
 32
0.0
 13
8.660094
 23
6.984531
 33
0.0
 14
8.660094
 24
4.484531
 34
0.0
 50
90.0
  3
STD
  0
DIMENSION
  8
DIM
  2
*D35
 10
9.861169
 20
4.296531
 30
0.0
 11
9.210075
 21
3.756531
 31
0.0
 12
4.941779
 22
-3.331605
 32
0.0
 13
8.660094
 23
4.484531
 33
0.0
 14
8.746722
 24
4.296531
 34
0.0
 50
90.0
  3
STD
  0
DIMENSION
  8
DIM
  2
*D33
 10
12.364103
 20
4.296531
 30
0.0
 11
12.364103
 21
4.450531
 31
0.0
 12
4.731696
 22
-3.331605
 32
0.0
 13
13.463272
 23
4.604531
 33
0.0
 14
14.038644
 24
4.296531
 34
0.0
 50
90.0
  3
DIM
  0
DIMENSION
  8
DIM
  2
*D38
 10
15.392684
 20
4.296531
 30
0.0
 11
15.392684
 21
5.734531
 31
0.0
 12
4.731696
 22
-3.331605
 32
0.0
 13
14.2119
 23
7.172531
 33
0.0
 14
14.2119
 24
4.296531
 34
0.0
 50
270.0
  3
STD
  0
POLYLINE
  8
DIM
 66
     1
 10
0.0
 20
0.0
 30
0.0
 41
0.10125
  0
VERTEX
  8
DIM
 10
8.549226
 20
4.770648
 30
0.0
  0
VERTEX
  8
DIM
 10
8.438206
 20
4.524529
 30
0.0
 41
0.0
  0
VERTEX
  8
DIM
 10
8.028414
 20
3.616062
 30
0.0
 41
0.0
  0
VERTEX
  8
DIM
 10
7.758414
 20
3.616062
 30
0.0
 41
0.0
  0
SEQEND
  8
DIM
  0
TEXT
  8
DIM
 10
5.842164
 20
3.522312
 30
0.0
 40
0.1875
  1
0.260 DIA. BOSS
 41
0.75
  7
TXT
 72
     2
 11
7.623414
 21
3.616062
 31
0.0
 73
     2
  0
TEXT
  8
DIM
 10
6.357789
 20
3.209812
 30
0.0
 40
0.1875
  1
(2) PLACES
 41
0.75
  7
TXT
 72
     2
 11
7.623414
 21
3.303562
 31
0.0
 73
     2
  0
POLYLINE
  8
DIM
 66
     1
 10
0.0
 20
0.0
 30
0.0
 41
0.10125
  0
VERTEX
  8
DIM
 10
8.6335
 20
4.431865
 30
0.0
  0
VERTEX
  8
DIM
 10
8.510897
 20
4.191306
 30
0.0
 41
0.0
  0
VERTEX
  8
DIM
 10
8.036129
 20
3.259762
 30
0.0
 41
0.0
  0
VERTEX
  8
DIM
 10
8.306129
 20
3.259762
 30
0.0
 41
0.0
  0
SEQEND
  8
DIM
  0
TEXT
  8
DIM
 10
8.441129
 20
3.166012
 30
0.0
 40
0.1875
  1
0.118 DIA.
 41
0.75
  7
TXT
 11
8.441129
 21
3.259762
 31
0.0
 73
     2
  0
TEXT
  8
DIM
 10
8.441129
 20
2.853512
 30
0.0
 40
0.1875
  1
(2) HOLES
 41
0.75
  7
TXT
 11
8.441129
 21
2.947262
 31
0.0
 73
     2
  0
DIMENSION
  8
DIM
  2
*D36
 10
10.917458
 20
3.884431
 30
0.0
 11
11.850271
 21
3.884431
 31
0.0
 12
4.941779
 22
-3.331605
 32
0.0
 13
10.657458
 23
4.708531
 33
0.0
 14
10.917458
 24
4.296531
 34
0.0
  3
STD
  0
DIMENSION
  8
DIM
  2
*D37
 10
10.917458
 20
5.233056
 30
0.0
 11
11.838552
 21
5.233056
 31
0.0
 12
4.941779
 22
-3.331605
 32
0.0
 13
10.847458
 23
5.223819
 33
0.0
 14
10.917458
 24
5.223819
 34
0.0
  3
STD
  0
POLYLINE
  8
OBJECT
 66
     1
 10
0.0
 20
0.0
 30
0.0
  0
VERTEX
  8
OBJECT
 10
14.375272
 20
4.604531
 30
0.0
  0
VERTEX
  8
OBJECT
 10
14.787272
 20
4.604531
 30
0.0
 42
0.414214
  0
VERTEX
  8
OBJECT
 10
14.880272
 20
4.697531
 30
0.0
  0
SEQEND
  8
OBJECT
  0
POLYLINE
  8
OBJECT
 66
     1
 10
0.0
 20
0.0
 30
0.0
  0
VERTEX
  8
OBJECT
 10
14.880272
 20
4.697531
 30
0.0
  0
VERTEX
  8
OBJECT
 10
14.880272
 20
6.771531
 30
0.0
 42
0.414214
  0
VERTEX
  8
OBJECT
 10
14.787272
 20
6.864531
 30
0.0
  0
VERTEX
  8
OBJECT
 10
14.375272
 20
6.864531
 30
0.0
 42
0.414214
  0
SEQEND
  8
OBJECT
  0
POLYLINE
  8
OBJECT
 66
     1
 10
0.0
 20
0.0
 30
0.0
  0
VERTEX
  8
OBJECT
 10
13.875272
 20
6.864531
 30
0.0
  0
VERTEX
  8
OBJECT
 10
13.463272
 20
6.864531
 30
0.0
 42
0.414214
  0
VERTEX
  8
OBJECT
 10
13.370272
 20
6.771531
 30
0.0
  0
VERTEX
  8
OBJECT
 10
13.370272
 20
4.697531
 30
0.0
 42
0.414214
  0
VERTEX
  8
OBJECT
 10
13.463272
 20
4.604531
 30
0.0
  0
VERTEX
  8
OBJECT
 10
13.875272
 20
4.604531
 30
0.0
 42
0.414214
  0
SEQEND
  8
OBJECT
  0
TEXT
  8
DIM
 10
10.991263
 20
3.031339
 30
0.0
 40
0.1875
  1
C'BORE 0.234 DIA. x 0.085 DEEP
 41
0.75
  7
TXT
 72
     2
 11
14.694388
 21
3.125089
 31
0.0
 73
     2
  0
TEXT
  8
DIM
 10
12.561575
 20
3.343839
 30
0.0
 40
0.1875
  1
0.118 DIA. HOLES &
 41
0.75
  7
TXT
 72
     2
 11
14.694388
 21
3.437589
 31
0.0
 73
     2
  0
TEXT
  8
DIM
 10
13.428763
 20
2.718839
 30
0.0
 40
0.1875
  1
(2) PLACES
 41
0.75
  7
TXT
 72
     2
 11
14.694388
 21
2.812589
 31
0.0
 73
     2
  0
POLYLINE
  8
DIM
 66
     1
 10
0.0
 20
0.0
 30
0.0
 41
0.10125
  0
VERTEX
  8
DIM
 10
14.23483
 20
4.797471
 30
0.0
  0
VERTEX
  8
DIM
 10
14.379689
 20
4.56962
 30
0.0
 41
0.0
  0
VERTEX
  8
DIM
 10
15.099388
 20
3.437589
 30
0.0
 41
0.0
  0
VERTEX
  8
DIM
 10
14.829388
 20
3.437589
 30
0.0
 41
0.0
  0
SEQEND
  8
DIM
  0
LINE
  8
HIDDEN
 10
16.564627
 20
6.500531
 30
0.0
 11
16.564627
 21
6.760531
 31
0.0
  0
LINE
  8
HIDDEN
 10
16.739627
 20
6.513531
 30
0.0
 11
16.739627
 21
6.747531
 31
0.0
  0
LINE
  8
OBJECT
 10
16.039627
 20
4.707792
 30
0.0
 11
16.039627
 21
6.761271
 31
0.0
  0
LINE
  8
HIDDEN
 10
16.114627
 20
4.707792
 30
0.0
 11
16.114627
 21
6.761271
 31
0.0
  0
LINE
  8
HIDDEN
 10
16.754627
 20
4.724531
 30
0.0
 11
16.754627
 21
6.744531
 31
0.0
  0
LINE
  8
OBJECT
 10
16.719627
 20
4.296531
 30
0.0
 11
16.719627
 21
7.172531
 31
0.0
  0
LINE
  8
OBJECT
 10
16.824627
 20
4.296531
 30
0.0
 11
16.824627
 21
7.172531
 31
0.0
  0
LINE
  8
HIDDEN
 10
16.679627
 20
4.684531
 30
0.0
 11
16.679627
 21
6.784531
 31
0.0
  0
DIMENSION
  8
DIM
  2
*D39
 10
16.039627
 20
3.841008
 30
0.0
 11
16.432127
 21
3.841008
 31
0.0
 12
0.0
 22
-3.331605
 32
0.0
 13
16.824627
 23
4.296531
 33
0.0
 14
16.039627
 24
4.707792
 34
0.0
  3
DIM
  0
ARC
  8
OBJECT
 10
16.731627
 20
4.697531
 30
0.0
 40
0.093
 50
270.0
 51
0.0
  0
ARC
  8
OBJECT
 10
16.132627
 20
4.707792
 30
0.0
 40
0.093
 50
180.0
 51
269.0
  0
LINE
  8
OBJECT
 10
16.131004
 20
4.614806
 30
0.0
 11
16.719627
 21
4.604531
 31
0.0
  0
LINE
  8
OBJECT
 10
16.719627
 20
4.604531
 30
0.0
 11
16.731627
 21
4.604531
 31
0.0
  0
LINE
  8
HIDDEN
 10
16.499627
 20
6.519531
 30
0.0
 11
16.114627
 21
6.519531
 31
0.0
  0
LINE
  8
HIDDEN
 10
16.499627
 20
6.587531
 30
0.0
 11
16.094627
 21
6.587531
 31
0.0
  0
LINE
  8
HIDDEN
 10
16.499627
 20
6.673531
 30
0.0
 11
16.094627
 21
6.673531
 31
0.0
  0
LINE
  8
HIDDEN
 10
16.499627
 20
6.741531
 30
0.0
 11
16.114627
 21
6.741531
 31
0.0
  0
LINE
  8
HIDDEN
 10
16.132313
 20
4.689794
 30
0.0
 11
16.720936
 21
4.67952
 31
0.0
  0
LINE
  8
HIDDEN
 10
16.499627
 20
4.727531
 30
0.0
 11
16.114627
 21
4.727531
 31
0.0
  0
LINE
  8
HIDDEN
 10
16.499627
 20
4.881531
 30
0.0
 11
16.094627
 21
4.881531
 31
0.0
  0
LINE
  8
HIDDEN
 10
16.499627
 20
4.795531
 30
0.0
 11
16.094627
 21
4.795531
 31
0.0
  0
LINE
  8
HIDDEN
 10
16.499627
 20
4.949531
 30
0.0
 11
16.114627
 21
4.949531
 31
0.0
  0
ARC
  8
HIDDEN
 10
16.132627
 20
4.707792
 30
0.0
 40
0.018
 50
180.0
 51
269.0
  0
LINE
  8
HIDDEN
 10
16.094627
 20
4.881531
 30
0.0
 11
16.094627
 21
4.795531
 31
0.0
  0
LINE
  8
HIDDEN
 10
16.094627
 20
6.587531
 30
0.0
 11
16.094627
 21
6.673531
 31
0.0
  0
LINE
  8
HIDDEN
 10
16.824627
 20
4.955531
 30
0.0
 11
16.739627
 21
4.955531
 31
0.0
  0
LINE
  8
HIDDEN
 10
16.824627
 20
4.721531
 30
0.0
 11
16.739627
 21
4.721531
 31
0.0
  0
LINE
  8
HIDDEN
 10
16.739627
 20
4.779531
 30
0.0
 11
16.564627
 21
4.779531
 31
0.0
  0
LINE
  8
HIDDEN
 10
16.739627
 20
4.897531
 30
0.0
 11
16.564627
 21
4.897531
 31
0.0
  0
LINE
  8
HIDDEN
 10
16.564627
 20
4.708531
 30
0.0
 11
16.679627
 21
4.708531
 31
0.0
  0
LINE
  8
HIDDEN
 10
16.564627
 20
4.968531
 30
0.0
 11
16.679627
 21
4.968531
 31
0.0
  0
LINE
  8
HIDDEN
 10
16.499627
 20
4.949531
 30
0.0
 11
16.499627
 21
4.727531
 31
0.0
  0
LINE
  8
HIDDEN
 10
16.564627
 20
4.968531
 30
0.0
 11
16.564627
 21
4.708531
 31
0.0
  0
LINE
  8
HIDDEN
 10
16.679627
 20
4.724531
 30
0.0
 11
16.754627
 21
4.724531
 31
0.0
  0
LINE
  8
HIDDEN
 10
16.679627
 20
4.684531
 30
0.0
 11
16.719627
 21
4.684531
 31
0.0
  0
LINE
  8
HIDDEN
 10
16.739627
 20
4.955531
 30
0.0
 11
16.739627
 21
4.721531
 31
0.0
  0
LINE
  8
HIDDEN
 10
16.824627
 20
6.513531
 30
0.0
 11
16.739627
 21
6.513531
 31
0.0
  0
LINE
  8
HIDDEN
 10
16.739627
 20
6.689531
 30
0.0
 11
16.564627
 21
6.689531
 31
0.0
  0
LINE
  8
HIDDEN
 10
16.739627
 20
6.571531
 30
0.0
 11
16.564627
 21
6.571531
 31
0.0
  0
LINE
  8
HIDDEN
 10
16.564627
 20
6.500531
 30
0.0
 11
16.679627
 21
6.500531
 31
0.0
  0
LINE
  8
HIDDEN
 10
16.499627
 20
6.519531
 30
0.0
 11
16.499627
 21
6.741531
 31
0.0
  0
LINE
  8
HIDDEN
 10
16.720936
 20
6.789543
 30
0.0
 11
16.132313
 21
6.779268
 31
0.0
  0
LINE
  8
OBJECT
 10
16.719627
 20
6.864531
 30
0.0
 11
16.131004
 21
6.854257
 31
0.0
  0
ARC
  8
OBJECT
 10
16.132627
 20
6.761271
 30
0.0
 40
0.093
 50
91.0
 51
180.0
  0
ARC
  8
HIDDEN
 10
16.132627
 20
6.761271
 30
0.0
 40
0.018
 50
91.0
 51
180.0
  0
ARC
  8
OBJECT
 10
16.731627
 20
6.771531
 30
0.0
 40
0.093
 50
0.0
 51
90.0
  0
LINE
  8
HIDDEN
 10
16.824627
 20
6.747531
 30
0.0
 11
16.739627
 21
6.747531
 31
0.0
  0
LINE
  8
HIDDEN
 10
16.564627
 20
6.760531
 30
0.0
 11
16.679627
 21
6.760531
 31
0.0
  0
LINE
  8
HIDDEN
 10
16.679627
 20
6.784531
 30
0.0
 11
16.719627
 21
6.784531
 31
0.0
  0
LINE
  8
HIDDEN
 10
16.679627
 20
6.744531
 30
0.0
 11
16.754627
 21
6.744531
 31
0.0
  0
LINE
  8
OBJECT
 10
16.719627
 20
6.864531
 30
0.0
 11
16.731627
 21
6.864531
 31
0.0
  0
DIMENSION
  8
DIM
  2
*D8
 10
5.356276
 20
7.683692
 30
0.0
 11
4.601276
 21
7.683692
 31
0.0
 12
-1.232036
 22
1.961564
 32
0.0
 13
3.846276
 23
6.771531
 33
0.0
 14
5.356276
 24
6.771531
 34
0.0
  3
DIM
  0
DIMENSION
  8
DIM
  2
*D9
 10
4.601276
 20
7.244869
 30
0.0
 11
4.223776
 21
7.244869
 31
0.0
 12
-1.232036
 22
1.961564
 32
0.0
 13
3.846276
 23
6.771531
 33
0.0
 14
4.601276
 24
6.630531
 34
0.0
 50
180.0
  3
DIM
  0
DIMENSION
  8
DIM
  2
*D5
 10
2.603573
 20
6.864531
 30
0.0
 11
2.603573
 21
5.734531
 31
0.0
 12
-1.398528
 22
1.961564
 32
0.0
 13
2.199954
 23
4.604531
 33
0.0
 14
2.199954
 24
6.864531
 34
0.0
 50
90.0
  3
STD
  0
LINE
  8
OBJECT
 10
2.199954
 20
4.604531
 30
0.0
 11
2.199954
 21
6.864531
 31
0.0
  0
LINE
  8
HIDDEN
 10
1.594954
 20
4.707792
 30
0.0
 11
1.594954
 21
6.761271
 31
0.0
  0
LINE
  8
OBJECT
 10
1.519954
 20
4.707792
 30
0.0
 11
1.519954
 21
6.761271
 31
0.0
  0
POLYLINE
  8
OBJECT
 66
     1
 10
0.0
 20
0.0
 30
0.0
 70
     1
  0
VERTEX
  8
OBJECT
 10
5.281276
 20
4.697531
 30
0.0
  0
VERTEX
  8
OBJECT
 10
5.281276
 20
6.771531
 30
0.0
 42
0.414214
  0
VERTEX
  8
OBJECT
 10
5.263276
 20
6.789531
 30
0.0
  0
VERTEX
  8
OBJECT
 10
3.939276
 20
6.789531
 30
0.0
 42
0.414214
  0
VERTEX
  8
OBJECT
 10
3.921276
 20
6.771531
 30
0.0
  0
VERTEX
  8
OBJECT
 10
3.921276
 20
4.697531
 30
0.0
 42
0.414214
  0
VERTEX
  8
OBJECT
 10
3.939276
 20
4.679531
 30
0.0
  0
VERTEX
  8
OBJECT
 10
5.263276
 20
4.679531
 30
0.0
 42
0.414214
  0
SEQEND
  8
OBJECT
  0
POLYLINE
  8
OBJECT
 66
     1
 10
0.0
 20
0.0
 30
0.0
 70
     1
  0
VERTEX
  8
OBJECT
 10
5.356276
 20
4.697531
 30
0.0
  0
VERTEX
  8
OBJECT
 10
5.356276
 20
6.771531
 30
0.0
 42
0.414214
  0
VERTEX
  8
OBJECT
 10
5.263276
 20
6.864531
 30
0.0
  0
VERTEX
  8
OBJECT
 10
3.939276
 20
6.864531
 30
0.0
 42
0.414214
  0
VERTEX
  8
OBJECT
 10
3.846276
 20
6.771531
 30
0.0
  0
VERTEX
  8
OBJECT
 10
3.846276
 20
4.697531
 30
0.0
 42
0.414214
  0
VERTEX
  8
OBJECT
 10
3.939276
 20
4.604531
 30
0.0
  0
VERTEX
  8
OBJECT
 10
5.263276
 20
4.604531
 30
0.0
 42
0.414214
  0
SEQEND
  8
OBJECT
  0
DIMENSION
  8
DIM
  2
*D7
 10
1.594954
 20
7.244869
 30
0.0
 11
0.650423
 21
7.244869
 31
0.0
 12
-1.398528
 22
1.961564
 32
0.0
 13
1.979954
 23
6.741531
 33
0.0
 14
1.594954
 24
6.761271
 34
0.0
  3
STD
  0
DIMENSION
  8
DIM
  2
*D44
 10
5.772829
 20
4.604531
 30
0.0
 11
5.772829
 21
4.721531
 31
0.0
 12
0.0
 22
-3.331605
 32
0.0
 13
4.601276
 23
4.838531
 33
0.0
 14
5.263276
 24
4.604531
 34
0.0
 50
270.0
  3
DIM
  0
DIMENSION
  8
DIM
  2
*D43
 10
5.772829
 20
4.838531
 30
0.0
 11
5.772829
 21
5.734531
 31
0.0
 12
0.0
 22
-3.331605
 32
0.0
 13
4.601276
 23
6.630531
 33
0.0
 14
4.601276
 24
4.838531
 34
0.0
 50
270.0
  3
STD
  0
ARC
  8
OBJECT
 10
1.612954
 20
4.707792
 30
0.0
 40
0.093
 50
180.0
 51
269.0
  0
DIMENSION
  8
DIM
  2
*D45
 10
2.262954
 20
4.604531
 30
0.0
 11
1.408673
 21
4.047941
 31
0.0
 12
0.0
 22
-3.331605
 32
0.0
 70
   130
  1
<> REF.
 13
1.611331
 23
4.614806
 33
0.0
 14
2.199954
 24
4.604531
 34
0.0
 15
2.199954
 25
4.604531
 35
0.0
 16
0.774769
 26
4.610258
 36
0.0
  3
STD
  0
LINE
  8
OBJECT
 10
1.611331
 20
4.614806
 30
0.0
 11
2.199954
 21
4.604531
 31
0.0
  0
LINE
  8
HIDDEN
 10
1.61264
 20
4.689794
 30
0.0
 11
2.201263
 21
4.67952
 31
0.0
  0
LINE
  8
HIDDEN
 10
1.979954
 20
4.949531
 30
0.0
 11
1.594954
 21
4.949531
 31
0.0
  0
LINE
  8
HIDDEN
 10
1.979954
 20
4.795531
 30
0.0
 11
1.574954
 21
4.795531
 31
0.0
  0
LINE
  8
HIDDEN
 10
1.979954
 20
4.881531
 30
0.0
 11
1.574954
 21
4.881531
 31
0.0
  0
LINE
  8
HIDDEN
 10
1.979954
 20
4.727531
 30
0.0
 11
1.594954
 21
4.727531
 31
0.0
  0
ARC
  8
HIDDEN
 10
1.612954
 20
4.707792
 30
0.0
 40
0.018
 50
180.0
 51
269.0
  0
LINE
  8
HIDDEN
 10
1.574954
 20
4.881531
 30
0.0
 11
1.574954
 21
4.795531
 31
0.0
  0
LINE
  8
HIDDEN
 10
1.979954
 20
4.949531
 30
0.0
 11
1.979954
 21
4.727531
 31
0.0
  0
LINE
  8
HIDDEN
 10
1.979954
 20
6.741531
 30
0.0
 11
1.594954
 21
6.741531
 31
0.0
  0
LINE
  8
HIDDEN
 10
1.979954
 20
6.673531
 30
0.0
 11
1.574954
 21
6.673531
 31
0.0
  0
LINE
  8
HIDDEN
 10
1.979954
 20
6.519531
 30
0.0
 11
1.594954
 21
6.519531
 31
0.0
  0
LINE
  8
HIDDEN
 10
1.979954
 20
6.587531
 30
0.0
 11
1.574954
 21
6.587531
 31
0.0
  0
LINE
  8
HIDDEN
 10
1.574954
 20
6.587531
 30
0.0
 11
1.574954
 21
6.673531
 31
0.0
  0
LINE
  8
HIDDEN
 10
1.979954
 20
6.519531
 30
0.0
 11
1.979954
 21
6.741531
 31
0.0
  0
CIRCLE
  8
OBJECT
 10
4.601276
 20
4.838531
 30
0.0
 40
0.043
  0
CIRCLE
  8
OBJECT
 10
4.601276
 20
4.838531
 30
0.0
 40
0.111
  0
CIRCLE
  8
OBJECT
 10
4.601276
 20
6.630531
 30
0.0
 40
0.111
  0
CIRCLE
  8
OBJECT
 10
4.601276
 20
6.630531
 30
0.0
 40
0.043
  0
LINE
  8
OBJECT
 10
2.199954
 20
6.864531
 30
0.0
 11
1.611331
 21
6.854257
 31
0.0
  0
LINE
  8
HIDDEN
 10
2.201263
 20
6.789543
 30
0.0
 11
1.61264
 21
6.779268
 31
0.0
  0
DIMENSION
  8
DIM
  2
*D6
 10
2.199954
 20
7.683692
 30
0.0
 11
1.859954
 21
7.683692
 31
0.0
 12
-1.398528
 22
1.961564
 32
0.0
 13
1.519954
 23
6.761271
 33
0.0
 14
2.199954
 24
6.864531
 34
0.0
  3
DIM
  0
ARC
  8
OBJECT
 10
1.612954
 20
6.761271
 30
0.0
 40
0.093
 50
91.0
 51
180.0
  0
ARC
  8
HIDDEN
 10
1.612954
 20
6.761271
 30
0.0
 40
0.018
 50
91.0
 51
180.0
  0
LINE
  8
OBJECT
 10
16.719627
 20
4.296531
 30
0.0
 11
16.824627
 21
4.296531
 31
0.0
  0
LINE
  8
OBJECT
 10
16.719627
 20
7.172531
 30
0.0
 11
16.824627
 21
7.172531
 31
0.0
  0
POLYLINE
  8
DIM
 66
     1
 10
0.0
 20
0.0
 30
0.0
 41
0.10125
  0
VERTEX
  8
DIM
 10
14.23483
 20
18.187385
 30
0.0
  0
VERTEX
  8
DIM
 10
14.379689
 20
17.959534
 30
0.0
 41
0.0
  0
VERTEX
  8
DIM
 10
15.099388
 20
16.827503
 30
0.0
 41
0.0
  0
VERTEX
  8
DIM
 10
14.829388
 20
16.827503
 30
0.0
 41
0.0
  0
SEQEND
  8
DIM
  0
TEXT
  8
DIM
 10
10.991263
 20
16.421253
 30
0.0
 40
0.1875
  1
C'BORE 0.234 DIA. x 0.085 DEEP
 41
0.75
  7
TXT
 72
     2
 11
14.694388
 21
16.515003
 31
0.0
 73
     2
  0
TEXT
  8
DIM
 10
12.561575
 20
16.733753
 30
0.0
 40
0.1875
  1
0.118 DIA. HOLES &
 41
0.75
  7
TXT
 72
     2
 11
14.694388
 21
16.827503
 31
0.0
 73
     2
  0
TEXT
  8
DIM
 10
13.428763
 20
16.108753
 30
0.0
 40
0.1875
  1
(2) PLACES
 41
0.75
  7
TXT
 72
     2
 11
14.694388
 21
16.202503
 31
0.0
 73
     2
  0
DIMENSION
  8
DIM
  2
*D42
 10
4.318357
 20
17.994445
 30
0.0
 11
3.350857
 21
17.454445
 31
0.0
 12
0.0
 22
-1.907404
 32
0.0
  1
<> TYP.
 13
4.338826
 23
18.069445
 33
0.0
 14
4.338826
 24
17.994445
 34
0.0
 50
90.0
  3
STD
  0
DIMENSION
  8
DIM
  2
*D42
 10
4.318357
 20
4.604531
 30
0.0
 11
3.350857
 21
4.064531
 31
0.0
 12
0.0
 22
-15.297318
 32
0.0
  1
<> TYP.
 13
4.338826
 23
4.679531
 33
0.0
 14
4.338826
 24
4.604531
 34
0.0
 50
90.0
  3
STD
  0
TEXT
  8
DIM
 10
1.392019
 20
3.242762
 30
0.0
 40
0.1875
  1
0.086 DIA. HOLE x 0.405 DEEP
 41
0.75
  7
TXT
 72
     2
 11
4.860769
 21
3.336512
 31
0.0
 73
     2
  0
TEXT
  8
DIM
 10
2.352956
 20
3.555262
 30
0.0
 40
0.1875
  1
0.222 DIA. BOSS WITH
 41
0.75
  7
TXT
 72
     2
 11
4.860769
 21
3.649012
 31
0.0
 73
     2
  0
POLYLINE
  8
DIM
 66
     1
 10
0.0
 20
0.0
 30
0.0
 41
0.10125
  0
VERTEX
  8
DIM
 10
4.655426
 20
4.741636
 30
0.0
  0
VERTEX
  8
DIM
 10
4.787098
 20
4.505919
 30
0.0
 41
0.0
  0
VERTEX
  8
DIM
 10
5.265769
 20
3.649012
 30
0.0
 41
0.0
  0
VERTEX
  8
DIM
 10
4.995769
 20
3.649012
 30
0.0
 41
0.0
  0
SEQEND
  8
DIM
  0
TEXT
  8
DIM
 10
3.595144
 20
2.930262
 30
0.0
 40
0.1875
  1
(2) PLACES
 41
0.75
  7
TXT
 72
     2
 11
4.860769
 21
3.024012
 31
0.0
 73
     2
  0
TEXT
  8
TEXT
 10
9.488623
 20
25.480637
 30
0.0
 40
0.21875
  1
TWO (2) #4 x 0.562" LG SCREWS
 41
0.75
  7
TXT
  0
TEXT
  8
TEXT
 10
9.488623
 20
25.117304
 30
0.0
 40
0.218
  1
SUPPLIED FOR ASSEMBLY.
 41
0.75
  7
TXT
  0
TEXT
  8
TEXT
 10
3.3115
 20
26.51025
 30
0.0
 40
0.281
  1
UTILIBOX  (STYLE D)
 41
0.75
  7
TXT
 72
     4
 11
5.138
 21
26.65075
 31
0.0
  0
TEXT
  8
TEXT
 10
13.37675
 20
26.51025
 30
0.0
 40
0.281
  1
CU-741
 41
0.75
  7
TXT
 72
     4
 11
13.93875
 21
26.65075
 31
0.0
  0
LINE
  8
TITLE
 10
0.1085
 20
12.831
 30
0.0
 11
17.6015
 21
12.831
 31
0.0
  0
LINE
  8
TITLE
 10
0.1085
 20
13.5625
 30
0.0
 11
17.6015
 21
13.5625
 31
0.0
  0
TEXT
  8
TEXT
 10
3.3115
 20
13.05625
 30
0.0
 40
0.281
  1
UTILIBOX  (STYLE D)
 41
0.75
  7
TXT
 72
     4
 11
5.138
 21
13.19675
 31
0.0
  0
TEXT
  8
TEXT
 10
3.22814
 20
11.662054
 30
0.0
 40
0.21875
  1
HIGH-IMPACT POLYSTYRENE
 41
0.75
  7
TXT
  0
TEXT
  8
TEXT
 10
0.363708
 20
12.901139
 30
0.0
 40
0.21875
  1
NAME
 72
     1
 11
0.76475
 21
12.901139
 31
0.0
  0
TEXT
  8
TEXT
 10
0.363708
 20
13.265722
 30
0.0
 40
0.21875
  1
PART
 72
     1
 11
0.76475
 21
13.265722
 31
0.0
  0
TEXT
  8
TEXT
 10
0.31428
 20
12.026637
 30
0.0
 40
0.21875
  1
%%uMATERIAL:
 41
0.75
  7
TXT
  0
TEXT
  8
TEXT
 10
0.512849
 20
10.568887
 30
0.0
 40
0.21875
  1
BODY & COVER
 41
0.75
  7
TXT
  0
TEXT
  8
TEXT
 10
0.31428
 20
10.93347
 30
0.0
 40
0.21875
  1
%%uFINISH:
 41
0.75
  7
TXT
  0
TEXT
  8
TEXT
 10
0.512849
 20
11.662054
 30
0.0
 40
0.21875
  1
BODY & COVER
 41
0.75
  7
TXT
  0
TEXT
  8
TEXT
 10
3.22814
 20
10.568887
 30
0.0
 40
0.21875
  1
BLACK TEXTURED
 41
0.75
  7
TXT
  0
LINE
  8
TEXT
 10
3.116375
 20
10.568887
 30
0.0
 11
2.591327
 21
10.568887
 31
0.0
  0
LINE
  8
TITLE
 10
1.421
 20
12.831
 30
0.0
 11
1.421
 21
13.5625
 31
0.0
  0
LINE
  8
TEXT
 10
3.116375
 20
11.662054
 30
0.0
 11
2.591327
 21
11.662054
 31
0.0
  0
TEXT
  8
TEXT
 10
9.488623
 20
11.663304
 30
0.0
 40
0.218
  1
SUPPLIED FOR ASSEMBLY.
 41
0.75
  7
TXT
  0
TEXT
  8
TEXT
 10
9.488623
 20
12.026637
 30
0.0
 40
0.21875
  1
TWO (2) #4 x 0.562" LG SCREWS
 41
0.75
  7
TXT
  0
TEXT
  8
TEXT
 10
9.218708
 20
13.265722
 30
0.0
 40
0.21875
  1
PART
 72
     1
 11
9.61975
 21
13.265722
 31
0.0
  0
LINE
  8
TITLE
 10
8.9635
 20
13.5625
 30
0.0
 11
8.9635
 21
12.831
 31
0.0
  0
LINE
  8
TITLE
 10
8.855
 20
13.5625
 30
0.0
 11
8.855
 21
12.831
 31
0.0
  0
TEXT
  8
TEXT
 10
9.401
 20
12.901139
 30
0.0
 40
0.21875
  1
No.
 72
     1
 11
9.61975
 21
12.901139
 31
0.0
  0
LINE
  8
TITLE
 10
10.276
 20
13.5625
 30
0.0
 11
10.276
 21
12.831
 31
0.0
  0
TEXT
  8
TEXT
 10
13.060625
 20
13.05625
 30
0.0
 40
0.281
  1
CU-741-MB
 41
0.75
  7
TXT
 72
     4
 11
13.93875
 21
13.19675
 31
0.0
  0
LINE
  8
TITLE
 10
0.1085
 20
13.6715
 30
0.0
 11
17.6015
 21
13.6715
 31
0.0
  0
LINE
  8
TITLE
 10
17.6015
 20
13.5625
 30
0.0
 11
17.6015
 21
0.1085
 31
0.0
  0
LINE
  8
TITLE
 10
0.1085
 20
13.6715
 30
0.0
 11
0.1085
 21
27.0165
 31
0.0
  0
TEXT
  8
TEXT
 10
0.31428
 20
23.178557
 30
0.0
 40
0.21875
  1
%%UNOTE:%%U ALL DIMENSIONS HAVE %%P0.010 TOLERANCE
 41
0.75
  7
TXT
  0
TEXT
  8
TEXT
 10
0.31428
 20
22.8244
 30
0.0
 40
0.21875
  1
UNLESS OTHERWISE SPECIFIED.
 41
0.75
  7
TXT
  0
TEXT
  8
TEXT
 10
0.31428
 20
9.413015
 30
0.0
 40
0.21875
  1
UNLESS OTHERWISE SPECIFIED.
 41
0.75
  7
TXT
  0
TEXT
  8
TEXT
 10
0.31428
 20
9.767171
 30
0.0
 40
0.21875
  1
%%UNOTE:%%U ALL DIMENSIONS HAVE %%P0.010 TOLERANCE
 41
0.75
  7
TXT
  0
ENDSEC
  0
EOF
