  0
SECTION
  2
HEADER
  9
$ACADVER
  1
AC1009
  9
$INSBASE
 10
0.0
 20
0.0
 30
0.0
  9
$EXTMIN
 10
0.0
 20
0.0
 30
0.0
  9
$EXTMAX
 10
25.3
 20
38.75
 30
0.0
  9
$LIMMIN
 10
0.0
 20
0.0
  9
$LIMMAX
 10
12.0
 20
9.0
  9
$ORTHOMODE
 70
     1
  9
$REGENMODE
 70
     1
  9
$FILLMODE
 70
     1
  9
$QTEXTMODE
 70
     0
  9
$MIRRTEXT
 70
     0
  9
$DRAGMODE
 70
     2
  9
$LTSCALE
 40
0.75
  9
$OSMODE
 70
     0
  9
$ATTMODE
 70
     1
  9
$TEXTSIZE
 40
0.3125
  9
$TRACEWID
 40
0.05
  9
$TEXTSTYLE
  7
TXT
  9
$CLAYER
  8
OBJECT
  9
$CELTYPE
  6
BYLAYER
  9
$CECOLOR
 62
   256
  9
$DIMSCALE
 40
2.5
  9
$DIMASZ
 40
0.18
  9
$DIMEXO
 40
0.0625
  9
$DIMDLI
 40
0.38
  9
$DIMRND
 40
0.0
  9
$DIMDLE
 40
0.0
  9
$DIMEXE
 40
0.093
  9
$DIMTP
 40
0.0
  9
$DIMTM
 40
0.0
  9
$DIMTXT
 40
0.125
  9
$DIMCEN
 40
0.09
  9
$DIMTSZ
 40
0.0
  9
$DIMTOL
 70
     0
  9
$DIMLIM
 70
     0
  9
$DIMTIH
 70
     1
  9
$DIMTOH
 70
     1
  9
$DIMSE1
 70
     0
  9
$DIMSE2
 70
     0
  9
$DIMTAD
 70
     0
  9
$DIMZIN
 70
     0
  9
$DIMBLK
  1

  9
$DIMASO
 70
     1
  9
$DIMSHO
 70
     1
  9
$DIMPOST
  1

  9
$DIMAPOST
  1

  9
$DIMALT
 70
     0
  9
$DIMALTD
 70
     2
  9
$DIMALTF
 40
25.4
  9
$DIMLFAC
 40
1.0
  9
$DIMTOFL
 70
     0
  9
$DIMTVP
 40
0.0
  9
$DIMTIX
 70
     0
  9
$DIMSOXD
 70
     0
  9
$DIMSAH
 70
     0
  9
$DIMBLK1
  1

  9
$DIMBLK2
  1

  9
$DIMSTYLE
  2
STD
  9
$DIMCLRD
 70
     0
  9
$DIMCLRE
 70
     0
  9
$DIMCLRT
 70
     0
  9
$DIMTFAC
 40
1.0
  9
$DIMGAP
 40
0.09
  9
$LUNITS
 70
     2
  9
$LUPREC
 70
     3
  9
$SKETCHINC
 40
0.1
  9
$FILLETRAD
 40
0.0
  9
$AUNITS
 70
     1
  9
$AUPREC
 70
     1
  9
$MENU
  1
acad
  9
$ELEVATION
 40
0.0
  9
$PELEVATION
 40
0.0
  9
$THICKNESS
 40
0.0
  9
$LIMCHECK
 70
     0
  9
$BLIPMODE
 70
     0
  9
$CHAMFERA
 40
0.08
  9
$CHAMFERB
 40
0.08
  9
$SKPOLY
 70
     0
  9
$TDCREATE
 40
2449104.571000000
  9
$TDUPDATE
 40
2450604.465500462
  9
$TDINDWG
 40
0.2925681713
  9
$TDUSRTIMER
 40
0.2925681713
  9
$USRTIMER
 70
     1
  9
$ANGBASE
 50
0.0
  9
$ANGDIR
 70
     0
  9
$PDMODE
 70
     0
  9
$PDSIZE
 40
0.0
  9
$PLINEWID
 40
0.0
  9
$COORDS
 70
     0
  9
$SPLFRAME
 70
     0
  9
$SPLINETYPE
 70
     6
  9
$SPLINESEGS
 70
     8
  9
$ATTDIA
 70
     0
  9
$ATTREQ
 70
     1
  9
$HANDLING
 70
     0
  9
$HANDSEED
  5
0
  9
$SURFTAB1
 70
     6
  9
$SURFTAB2
 70
     6
  9
$SURFTYPE
 70
     6
  9
$SURFU
 70
     6
  9
$SURFV
 70
     6
  9
$UCSNAME
  2

  9
$UCSORG
 10
0.0
 20
0.0
 30
0.0
  9
$UCSXDIR
 10
1.0
 20
0.0
 30
0.0
  9
$UCSYDIR
 10
0.0
 20
1.0
 30
0.0
  9
$PUCSNAME
  2

  9
$PUCSORG
 10
0.0
 20
0.0
 30
0.0
  9
$PUCSXDIR
 10
1.0
 20
0.0
 30
0.0
  9
$PUCSYDIR
 10
0.0
 20
1.0
 30
0.0
  9
$USERI1
 70
     0
  9
$USERI2
 70
     0
  9
$USERI3
 70
     0
  9
$USERI4
 70
     0
  9
$USERI5
 70
     0
  9
$USERR1
 40
0.0
  9
$USERR2
 40
0.0
  9
$USERR3
 40
0.0
  9
$USERR4
 40
0.0
  9
$USERR5
 40
0.0
  9
$WORLDVIEW
 70
     1
  9
$SHADEDGE
 70
     3
  9
$SHADEDIF
 70
    70
  9
$TILEMODE
 70
     1
  9
$MAXACTVP
 70
    16
  9
$PINSBASE
 10
0.0
 20
0.0
 30
0.0
  9
$PLIMCHECK
 70
     0
  9
$PEXTMIN
 10
1.000000E+20
 20
1.000000E+20
 30
1.000000E+20
  9
$PEXTMAX
 10
-1.000000E+20
 20
-1.000000E+20
 30
-1.000000E+20
  9
$PLIMMIN
 10
0.0
 20
0.0
  9
$PLIMMAX
 10
12.0
 20
9.0
  9
$UNITMODE
 70
     0
  9
$VISRETAIN
 70
     0
  9
$PLINEGEN
 70
     0
  9
$PSLTSCALE
 70
     0
  9
$TREEDEPTH
 70
  3020
  9
$DWGCODEPAGE
  3
undefined
  0
ENDSEC
  0
SECTION
  2
TABLES
  0
TABLE
  2
VPORT
 70
     2
  0
VPORT
  2
*ACTIVE
 70
     0
 10
0.0
 20
0.0
 11
1.0
 21
1.0
 12
26.395328
 22
19.375
 13
0.0
 23
0.0
 14
1.0
 24
1.0
 15
0.5
 25
0.5
 16
0.0
 26
0.0
 36
1.0
 17
0.0
 27
0.0
 37
0.0
 40
38.75
 41
1.36234
 42
50.0
 43
0.0
 44
0.0
 50
0.0
 51
0.0
 71
     0
 72
 10000
 73
     1
 74
     0
 75
     0
 76
     0
 77
     0
 78
     0
  0
ENDTAB
  0
TABLE
  2
LTYPE
 70
     4
  0
LTYPE
  2
CONTINUOUS
 70
    64
  3
Solid line
 72
    65
 73
     0
 40
0.0
  0
LTYPE
  2
HIDDEN
 70
    64
  3
_ _ _ _ _ _ _ _ _ _ _ _ _ _ _ _ _ _ _ _ _ _ _
 72
    65
 73
     2
 40
0.375
 49
0.25
 49
-0.125
  0
LTYPE
  2
CENTER
 70
    64
  3
____ _ ____ _ ____ _ ____ _ ____ _ ____ _ ____
 72
    65
 73
     4
 40
2.0
 49
1.25
 49
-0.25
 49
0.25
 49
-0.25
  0
LTYPE
  2
PHANTOM
 70
    64
  3
______  __  __  ______  __  __  ______  __  __ 
 72
    65
 73
     6
 40
2.5
 49
1.25
 49
-0.25
 49
0.25
 49
-0.25
 49
0.25
 49
-0.25
  0
ENDTAB
  0
TABLE
  2
LAYER
 70
     8
  0
LAYER
  2
0
 70
    64
 62
     7
  6
CONTINUOUS
  0
LAYER
  2
OBJECT
 70
    64
 62
     7
  6
CONTINUOUS
  0
LAYER
  2
DIM
 70
    64
 62
     7
  6
CONTINUOUS
  0
LAYER
  2
HIDDEN
 70
    64
 62
     7
  6
HIDDEN
  0
LAYER
  2
TEXT
 70
    64
 62
     7
  6
CONTINUOUS
  0
LAYER
  2
TITLE
 70
    64
 62
     7
  6
CONTINUOUS
  0
LAYER
  2
CENTER
 70
    64
 62
     7
  6
CENTER
  0
LAYER
  2
DEFPOINTS
 70
    64
 62
     7
  6
CONTINUOUS
  0
ENDTAB
  0
TABLE
  2
STYLE
 70
     2
  0
STYLE
  2
STANDARD
 70
    64
 40
0.0
 41
1.0
 50
0.0
 71
     0
 42
0.25
  3
txt
  4

  0
STYLE
  2
TXT
 70
    64
 40
0.0
 41
0.75
 50
0.0
 71
     0
 42
0.3125
  3
txt
  4

  0
ENDTAB
  0
TABLE
  2
VIEW
 70
     0
  0
ENDTAB
  0
TABLE
  2
UCS
 70
     0
  0
ENDTAB
  0
TABLE
  2
APPID
 70
     1
  0
APPID
  2
ACAD
 70
    64
  0
ENDTAB
  0
TABLE
  2
DIMSTYLE
 70
     2
  0
DIMSTYLE
  2
STD
 70
    64
  3

  4

  5

  6

  7

 40
2.5
 41
0.18
 42
0.0625
 43
0.38
 44
0.093
 45
0.0
 46
0.0
 47
0.0
 48
0.0
140
0.125
141
0.09
142
0.0
143
25.4
144
1.0
145
0.0
146
1.0
147
0.09
 71
     0
 72
     0
 73
     1
 74
     1
 75
     0
 76
     0
 77
     0
 78
     0
170
     0
171
     2
172
     0
173
     0
174
     0
175
     0
176
     0
177
     0
178
     0
  0
DIMSTYLE
  2
DIM
 70
    64
  3

  4

  5

  6

  7

 40
2.5
 41
0.18
 42
0.0625
 43
0.38
 44
0.093
 45
0.0
 46
0.0
 47
0.0
 48
0.0
140
0.125
141
0.09
142
0.0
143
25.4
144
1.0
145
0.0
146
1.0
147
0.09
 71
     0
 72
     0
 73
     1
 74
     1
 75
     0
 76
     0
 77
     0
 78
     0
170
     0
171
     2
172
     0
173
     0
174
     1
175
     0
176
     0
177
     0
178
     0
  0
ENDTAB
  0
ENDSEC
  0
SECTION
  2
BLOCKS
  0
BLOCK
  8
0
  2
*D0
 70
    65
 10
0.0
 20
0.0
 30
0.0
  3
*D
  0
LINE
  8
0
  6
BYBLOCK
 62
     0
 10
3.633287
 20
10.603384
 30
0.0
 11
3.498956
 21
10.603384
 31
0.0
  0
LINE
  8
0
  6
BYBLOCK
 62
     0
 10
3.633287
 20
10.503384
 30
0.0
 11
3.498956
 21
10.503384
 31
0.0
  0
LINE
  8
0
  6
BYBLOCK
 62
     0
 10
3.731456
 20
11.053384
 30
0.0
 11
3.731456
 21
11.503384
 31
0.0
  0
LINE
  8
0
  6
BYBLOCK
 62
     0
 10
3.731456
 20
10.053384
 30
0.0
 11
3.731456
 21
9.603384
 31
0.0
  0
LINE
  8
0
  6
BYBLOCK
 62
     0
 10
3.731456
 20
9.603384
 30
0.0
 11
3.281456
 21
9.603384
 31
0.0
  0
SOLID
  8
0
  6
BYBLOCK
 62
     0
 10
3.656456
 20
11.053384
 30
0.0
 11
3.806456
 21
11.053384
 31
0.0
 12
3.731456
 22
10.603384
 32
0.0
 13
3.731456
 23
10.603384
 33
0.0
  0
SOLID
  8
0
  6
BYBLOCK
 62
     0
 10
3.656456
 20
10.053384
 30
0.0
 11
3.806456
 21
10.053384
 31
0.0
 12
3.731456
 22
10.503384
 32
0.0
 13
3.731456
 23
10.503384
 33
0.0
  0
TEXT
  8
0
  6
BYBLOCK
 62
     0
 10
2.314269
 20
9.447134
 30
0.0
 40
0.3125
  1
0.100
 41
0.75
  7
TXT
 72
     1
 11
2.685363
 21
9.603384
 31
0.0
 73
     2
  0
POINT
  8
DEFPOINTS
  6
BYBLOCK
 62
     0
 10
3.789537
 20
10.603384
 30
0.0
  0
POINT
  8
DEFPOINTS
  6
BYBLOCK
 62
     0
 10
3.789537
 20
10.503384
 30
0.0
  0
POINT
  8
DEFPOINTS
  6
BYBLOCK
 62
     0
 10
3.731456
 20
10.503384
 30
0.0
  0
ENDBLK
  8
0
  0
BLOCK
  8
0
  2
*D1
 70
    65
 10
0.0
 20
0.0
 30
0.0
  3
*D
  0
LINE
  8
0
  6
BYBLOCK
 62
     0
 10
4.35194
 20
10.803384
 30
0.0
 11
5.616013
 21
10.803384
 31
0.0
  0
LINE
  8
0
  6
BYBLOCK
 62
     0
 10
4.46494
 20
10.503384
 30
0.0
 11
5.616013
 21
10.503384
 31
0.0
  0
LINE
  8
0
  6
BYBLOCK
 62
     0
 10
5.383513
 20
11.253384
 30
0.0
 11
5.383513
 21
11.703384
 31
0.0
  0
LINE
  8
0
  6
BYBLOCK
 62
     0
 10
5.383513
 20
10.053384
 30
0.0
 11
5.383513
 21
9.603384
 31
0.0
  0
SOLID
  8
0
  6
BYBLOCK
 62
     0
 10
5.308513
 20
11.253384
 30
0.0
 11
5.458513
 21
11.253384
 31
0.0
 12
5.383513
 22
10.803384
 32
0.0
 13
5.383513
 23
10.803384
 33
0.0
  0
SOLID
  8
0
  6
BYBLOCK
 62
     0
 10
5.308513
 20
10.053384
 30
0.0
 11
5.458513
 21
10.053384
 31
0.0
 12
5.383513
 22
10.503384
 32
0.0
 13
5.383513
 23
10.503384
 33
0.0
  0
TEXT
  8
0
  6
BYBLOCK
 62
     0
 10
5.869377
 20
9.447134
 30
0.0
 40
0.3125
  1
0.300
 41
0.75
  7
TXT
 72
     1
 11
6.279533
 21
9.603384
 31
0.0
 73
     2
  0
POINT
  8
DEFPOINTS
  6
BYBLOCK
 62
     0
 10
4.19569
 20
10.803384
 30
0.0
  0
POINT
  8
DEFPOINTS
  6
BYBLOCK
 62
     0
 10
4.30869
 20
10.503384
 30
0.0
  0
POINT
  8
DEFPOINTS
  6
BYBLOCK
 62
     0
 10
5.383513
 20
10.503384
 30
0.0
  0
ENDBLK
  8
0
  0
BLOCK
  8
0
  2
*D2
 70
    65
 10
0.0
 20
0.0
 30
0.0
  3
*D
  0
LINE
  8
0
  6
BYBLOCK
 62
     0
 10
8.12738
 20
14.967134
 30
0.0
 11
8.12738
 21
14.131627
 31
0.0
  0
LINE
  8
0
  6
BYBLOCK
 62
     0
 10
7.90938
 20
14.520377
 30
0.0
 11
7.90938
 21
14.596627
 31
0.0
  0
LINE
  8
0
  6
BYBLOCK
 62
     0
 10
8.57738
 20
14.364127
 30
0.0
 11
9.02738
 21
14.364127
 31
0.0
  0
LINE
  8
0
  6
BYBLOCK
 62
     0
 10
7.45938
 20
14.364127
 30
0.0
 11
7.00938
 21
14.364127
 31
0.0
  0
SOLID
  8
0
  6
BYBLOCK
 62
     0
 10
8.57738
 20
14.439127
 30
0.0
 11
8.57738
 21
14.289127
 31
0.0
 12
8.12738
 22
14.364127
 32
0.0
 13
8.12738
 23
14.364127
 33
0.0
  0
SOLID
  8
0
  6
BYBLOCK
 62
     0
 10
7.45938
 20
14.439127
 30
0.0
 11
7.45938
 21
14.289127
 31
0.0
 12
7.90938
 22
14.364127
 32
0.0
 13
7.90938
 23
14.364127
 33
0.0
  0
TEXT
  8
0
  6
BYBLOCK
 62
     0
 10
5.964067
 20
14.207877
 30
0.0
 40
0.3125
  1
0.218
 41
0.75
  7
TXT
 72
     1
 11
6.374223
 21
14.364127
 31
0.0
 73
     2
  0
POINT
  8
DEFPOINTS
  6
BYBLOCK
 62
     0
 10
8.12738
 20
15.123384
 30
0.0
  0
POINT
  8
DEFPOINTS
  6
BYBLOCK
 62
     0
 10
7.90938
 20
14.364127
 30
0.0
  0
POINT
  8
DEFPOINTS
  6
BYBLOCK
 62
     0
 10
7.90938
 20
14.364127
 30
0.0
  0
ENDBLK
  8
0
  0
BLOCK
  8
0
  2
*D3
 70
    65
 10
0.0
 20
0.0
 30
0.0
  3
*D
  0
LINE
  8
0
  6
BYBLOCK
 62
     0
 10
7.96938
 20
13.375311
 30
0.0
 11
7.96938
 21
13.464463
 31
0.0
  0
LINE
  8
0
  6
BYBLOCK
 62
     0
 10
7.90938
 20
13.375311
 30
0.0
 11
7.90938
 21
13.464463
 31
0.0
  0
LINE
  8
0
  6
BYBLOCK
 62
     0
 10
8.41938
 20
13.231963
 30
0.0
 11
8.86938
 21
13.231963
 31
0.0
  0
LINE
  8
0
  6
BYBLOCK
 62
     0
 10
7.45938
 20
13.231963
 30
0.0
 11
7.00938
 21
13.231963
 31
0.0
  0
SOLID
  8
0
  6
BYBLOCK
 62
     0
 10
8.41938
 20
13.306963
 30
0.0
 11
8.41938
 21
13.156963
 31
0.0
 12
7.96938
 22
13.231963
 32
0.0
 13
7.96938
 23
13.231963
 33
0.0
  0
SOLID
  8
0
  6
BYBLOCK
 62
     0
 10
7.45938
 20
13.306963
 30
0.0
 11
7.45938
 21
13.156963
 31
0.0
 12
7.90938
 22
13.231963
 32
0.0
 13
7.90938
 23
13.231963
 33
0.0
  0
TEXT
  8
0
  6
BYBLOCK
 62
     0
 10
5.964067
 20
13.075713
 30
0.0
 40
0.3125
  1
0.060
 41
0.75
  7
TXT
 72
     1
 11
6.374223
 21
13.231963
 31
0.0
 73
     2
  0
POINT
  8
DEFPOINTS
  6
BYBLOCK
 62
     0
 10
7.96938
 20
13.219061
 30
0.0
  0
POINT
  8
DEFPOINTS
  6
BYBLOCK
 62
     0
 10
7.90938
 20
13.219061
 30
0.0
  0
POINT
  8
DEFPOINTS
  6
BYBLOCK
 62
     0
 10
7.90938
 20
13.231963
 30
0.0
  0
ENDBLK
  8
0
  0
BLOCK
  8
0
  2
*D4
 70
    65
 10
0.0
 20
0.0
 30
0.0
  3
*D
  0
LINE
  8
0
  6
BYBLOCK
 62
     0
 10
13.798022
 20
10.803384
 30
0.0
 11
15.066935
 21
10.803384
 31
0.0
  0
LINE
  8
0
  6
BYBLOCK
 62
     0
 10
13.911022
 20
10.503384
 30
0.0
 11
15.066935
 21
10.503384
 31
0.0
  0
LINE
  8
0
  6
BYBLOCK
 62
     0
 10
14.834435
 20
11.253384
 30
0.0
 11
14.834435
 21
11.703384
 31
0.0
  0
LINE
  8
0
  6
BYBLOCK
 62
     0
 10
14.834435
 20
10.053384
 30
0.0
 11
14.834435
 21
9.603384
 31
0.0
  0
LINE
  8
0
  6
BYBLOCK
 62
     0
 10
14.834435
 20
9.603384
 30
0.0
 11
14.384435
 21
9.603384
 31
0.0
  0
SOLID
  8
0
  6
BYBLOCK
 62
     0
 10
14.759435
 20
11.253384
 30
0.0
 11
14.909435
 21
11.253384
 31
0.0
 12
14.834435
 22
10.803384
 32
0.0
 13
14.834435
 23
10.803384
 33
0.0
  0
SOLID
  8
0
  6
BYBLOCK
 62
     0
 10
14.759435
 20
10.053384
 30
0.0
 11
14.909435
 21
10.053384
 31
0.0
 12
14.834435
 22
10.503384
 32
0.0
 13
14.834435
 23
10.503384
 33
0.0
  0
TEXT
  8
0
  6
BYBLOCK
 62
     0
 10
13.339122
 20
9.447134
 30
0.0
 40
0.3125
  1
0.300
 41
0.75
  7
TXT
 72
     1
 11
13.749278
 21
9.603384
 31
0.0
 73
     2
  0
POINT
  8
DEFPOINTS
  6
BYBLOCK
 62
     0
 10
13.641772
 20
10.803384
 30
0.0
  0
POINT
  8
DEFPOINTS
  6
BYBLOCK
 62
     0
 10
13.754772
 20
10.503384
 30
0.0
  0
POINT
  8
DEFPOINTS
  6
BYBLOCK
 62
     0
 10
14.834435
 20
10.503384
 30
0.0
  0
ENDBLK
  8
0
  0
BLOCK
  8
0
  2
*D5
 70
    65
 10
0.0
 20
0.0
 30
0.0
  3
*D
  0
LINE
  8
0
  6
BYBLOCK
 62
     0
 10
18.795587
 20
15.533384
 30
0.0
 11
17.609193
 21
15.533384
 31
0.0
  0
LINE
  8
0
  6
BYBLOCK
 62
     0
 10
18.740587
 20
15.478384
 30
0.0
 11
17.609193
 21
15.478384
 31
0.0
  0
LINE
  8
0
  6
BYBLOCK
 62
     0
 10
17.841693
 20
15.983384
 30
0.0
 11
17.841693
 21
16.433384
 31
0.0
  0
LINE
  8
0
  6
BYBLOCK
 62
     0
 10
17.841693
 20
15.028384
 30
0.0
 11
17.841693
 21
14.578384
 31
0.0
  0
LINE
  8
0
  6
BYBLOCK
 62
     0
 10
17.841693
 20
14.578384
 30
0.0
 11
17.391693
 21
14.578384
 31
0.0
  0
SOLID
  8
0
  6
BYBLOCK
 62
     0
 10
17.766693
 20
15.983384
 30
0.0
 11
17.916693
 21
15.983384
 31
0.0
 12
17.841693
 22
15.533384
 32
0.0
 13
17.841693
 23
15.533384
 33
0.0
  0
SOLID
  8
0
  6
BYBLOCK
 62
     0
 10
17.766693
 20
15.028384
 30
0.0
 11
17.916693
 21
15.028384
 31
0.0
 12
17.841693
 22
15.478384
 32
0.0
 13
17.841693
 23
15.478384
 33
0.0
  0
TEXT
  8
0
  6
BYBLOCK
 62
     0
 10
16.307318
 20
14.422134
 30
0.0
 40
0.3125
  1
0.055
 41
0.75
  7
TXT
 72
     1
 11
16.737005
 21
14.578384
 31
0.0
 73
     2
  0
POINT
  8
DEFPOINTS
  6
BYBLOCK
 62
     0
 10
18.951837
 20
15.533384
 30
0.0
  0
POINT
  8
DEFPOINTS
  6
BYBLOCK
 62
     0
 10
18.896837
 20
15.478384
 30
0.0
  0
POINT
  8
DEFPOINTS
  6
BYBLOCK
 62
     0
 10
17.841693
 20
15.478384
 30
0.0
  0
ENDBLK
  8
0
  0
BLOCK
  8
0
  2
*D6
 70
    65
 10
0.0
 20
0.0
 30
0.0
  3
*D
  0
LINE
  8
0
  6
BYBLOCK
 62
     0
 10
14.101573
 20
10.959634
 30
0.0
 11
14.101573
 21
12.453257
 31
0.0
  0
LINE
  8
0
  6
BYBLOCK
 62
     0
 10
14.401573
 20
11.823827
 30
0.0
 11
14.401573
 21
12.453257
 31
0.0
  0
LINE
  8
0
  6
BYBLOCK
 62
     0
 10
13.651573
 20
12.220757
 30
0.0
 11
13.201573
 21
12.220757
 31
0.0
  0
LINE
  8
0
  6
BYBLOCK
 62
     0
 10
14.851573
 20
12.220757
 30
0.0
 11
15.301573
 21
12.220757
 31
0.0
  0
SOLID
  8
0
  6
BYBLOCK
 62
     0
 10
13.651573
 20
12.295757
 30
0.0
 11
13.651573
 21
12.145757
 31
0.0
 12
14.101573
 22
12.220757
 32
0.0
 13
14.101573
 23
12.220757
 33
0.0
  0
SOLID
  8
0
  6
BYBLOCK
 62
     0
 10
14.851573
 20
12.295757
 30
0.0
 11
14.851573
 21
12.145757
 31
0.0
 12
14.401573
 22
12.220757
 32
0.0
 13
14.401573
 23
12.220757
 33
0.0
  0
TEXT
  8
0
  6
BYBLOCK
 62
     0
 10
15.526573
 20
12.064507
 30
0.0
 40
0.3125
  1
0.300
 41
0.75
  7
TXT
 72
     1
 11
15.936729
 21
12.220757
 31
0.0
 73
     2
  0
POINT
  8
DEFPOINTS
  6
BYBLOCK
 62
     0
 10
14.101573
 20
10.803384
 30
0.0
  0
POINT
  8
DEFPOINTS
  6
BYBLOCK
 62
     0
 10
14.401573
 20
11.667577
 30
0.0
  0
POINT
  8
DEFPOINTS
  6
BYBLOCK
 62
     0
 10
14.401573
 20
12.220757
 30
0.0
  0
ENDBLK
  8
0
  0
BLOCK
  8
0
  2
*D7
 70
    65
 10
0.0
 20
0.0
 30
0.0
  3
*D
  0
LINE
  8
0
  6
BYBLOCK
 62
     0
 10
4.19569
 20
10.959634
 30
0.0
 11
4.19569
 21
12.586716
 31
0.0
  0
LINE
  8
0
  6
BYBLOCK
 62
     0
 10
4.49569
 20
12.210868
 30
0.0
 11
4.49569
 21
12.121716
 31
0.0
  0
LINE
  8
0
  6
BYBLOCK
 62
     0
 10
3.74569
 20
12.354216
 30
0.0
 11
3.29569
 21
12.354216
 31
0.0
  0
LINE
  8
0
  6
BYBLOCK
 62
     0
 10
4.94569
 20
12.354216
 30
0.0
 11
5.39569
 21
12.354216
 31
0.0
  0
SOLID
  8
0
  6
BYBLOCK
 62
     0
 10
3.74569
 20
12.429216
 30
0.0
 11
3.74569
 21
12.279216
 31
0.0
 12
4.19569
 22
12.354216
 32
0.0
 13
4.19569
 23
12.354216
 33
0.0
  0
SOLID
  8
0
  6
BYBLOCK
 62
     0
 10
4.94569
 20
12.429216
 30
0.0
 11
4.94569
 21
12.279216
 31
0.0
 12
4.49569
 22
12.354216
 32
0.0
 13
4.49569
 23
12.354216
 33
0.0
  0
TEXT
  8
0
  6
BYBLOCK
 62
     0
 10
5.62069
 20
12.197966
 30
0.0
 40
0.3125
  1
0.300
 41
0.75
  7
TXT
 72
     1
 11
6.030846
 21
12.354216
 31
0.0
 73
     2
  0
POINT
  8
DEFPOINTS
  6
BYBLOCK
 62
     0
 10
4.19569
 20
10.803384
 30
0.0
  0
POINT
  8
DEFPOINTS
  6
BYBLOCK
 62
     0
 10
4.49569
 20
12.367118
 30
0.0
  0
POINT
  8
DEFPOINTS
  6
BYBLOCK
 62
     0
 10
4.49569
 20
12.354216
 30
0.0
  0
ENDBLK
  8
0
  0
BLOCK
  8
0
  2
*D8
 70
    65
 10
0.0
 20
0.0
 30
0.0
  3
*D
  0
LINE
  8
0
  6
BYBLOCK
 62
     0
 10
18.951837
 20
10.347134
 30
0.0
 11
18.951837
 21
9.36149
 31
0.0
  0
LINE
  8
0
  6
BYBLOCK
 62
     0
 10
18.896837
 20
10.402134
 30
0.0
 11
18.896837
 21
9.36149
 31
0.0
  0
LINE
  8
0
  6
BYBLOCK
 62
     0
 10
19.401837
 20
9.59399
 30
0.0
 11
19.851837
 21
9.59399
 31
0.0
  0
LINE
  8
0
  6
BYBLOCK
 62
     0
 10
18.446837
 20
9.59399
 30
0.0
 11
17.996837
 21
9.59399
 31
0.0
  0
SOLID
  8
0
  6
BYBLOCK
 62
     0
 10
19.401837
 20
9.66899
 30
0.0
 11
19.401837
 21
9.51899
 31
0.0
 12
18.951837
 22
9.59399
 32
0.0
 13
18.951837
 23
9.59399
 33
0.0
  0
SOLID
  8
0
  6
BYBLOCK
 62
     0
 10
18.446837
 20
9.66899
 30
0.0
 11
18.446837
 21
9.51899
 31
0.0
 12
18.896837
 22
9.59399
 32
0.0
 13
18.896837
 23
9.59399
 33
0.0
  0
TEXT
  8
0
  6
BYBLOCK
 62
     0
 10
16.912462
 20
9.43774
 30
0.0
 40
0.3125
  1
0.055
 41
0.75
  7
TXT
 72
     1
 11
17.342149
 21
9.59399
 31
0.0
 73
     2
  0
POINT
  8
DEFPOINTS
  6
BYBLOCK
 62
     0
 10
18.951837
 20
10.503384
 30
0.0
  0
POINT
  8
DEFPOINTS
  6
BYBLOCK
 62
     0
 10
18.896837
 20
10.558384
 30
0.0
  0
POINT
  8
DEFPOINTS
  6
BYBLOCK
 62
     0
 10
18.896837
 20
9.59399
 30
0.0
  0
ENDBLK
  8
0
  0
BLOCK
  8
0
  2
*D9
 70
    65
 10
0.0
 20
0.0
 30
0.0
  3
*D
  0
LINE
  8
0
  6
BYBLOCK
 62
     0
 10
9.982715
 20
15.506623
 30
0.0
 11
10.815433
 21
15.492087
 31
0.0
  0
LINE
  8
0
  6
BYBLOCK
 62
     0
 10
8.622241
 20
15.533384
 30
0.0
 11
10.815793
 21
15.533384
 31
0.0
  0
ARC
  8
0
  6
BYBLOCK
 62
     0
 10
8.449536
 20
15.533384
 30
0.0
 40
2.133757
 50
334.788136
 51
346.894068
  0
ARC
  8
0
  6
BYBLOCK
 62
     0
 10
8.449536
 20
15.533384
 30
0.0
 40
2.133757
 50
12.105932
 51
24.211864
  0
SOLID
  8
0
  6
BYBLOCK
 62
     0
 10
10.453281
 20
15.058759
 30
0.0
 11
10.602146
 21
15.040341
 31
0.0
 12
10.582968
 22
15.496145
 32
0.0
 13
10.582968
 23
15.496145
 33
0.0
  0
SOLID
  8
0
  6
BYBLOCK
 62
     0
 10
10.610423
 20
15.988784
 30
0.0
 11
10.46126
 21
15.972967
 31
0.0
 12
10.583293
 22
15.533384
 32
0.0
 13
10.583293
 23
15.533384
 33
0.0
  0
TEXT
  8
0
  6
BYBLOCK
 62
     0
 10
10.243795
 20
16.366007
 30
0.0
 40
0.3125
  1
1%%D
 41
0.75
  7
TXT
 72
     1
 11
10.360982
 21
16.522257
 31
0.0
 73
     2
  0
POINT
  8
DEFPOINTS
  6
BYBLOCK
 62
     0
 10
10.583133
 20
15.50728
 30
0.0
  0
POINT
  8
DEFPOINTS
  6
BYBLOCK
 62
     0
 10
8.449536
 20
15.533384
 30
0.0
  0
POINT
  8
DEFPOINTS
  6
BYBLOCK
 62
     0
 10
8.449536
 20
15.533384
 30
0.0
  0
POINT
  8
DEFPOINTS
  6
BYBLOCK
 62
     0
 10
9.826489
 20
15.50935
 30
0.0
  0
POINT
  8
DEFPOINTS
  6
BYBLOCK
 62
     0
 10
8.465991
 20
15.533384
 30
0.0
  0
ENDBLK
  8
0
  0
BLOCK
  8
0
  2
*D10
 70
    65
 10
0.0
 20
0.0
 30
0.0
  3
*D
  0
LINE
  8
0
  6
BYBLOCK
 62
     0
 10
2.00144
 20
13.0415
 30
0.0
 11
0.964406
 21
13.0415
 31
0.0
  0
LINE
  8
0
  6
BYBLOCK
 62
     0
 10
2.00144
 20
8.0115
 30
0.0
 11
0.964406
 21
8.0115
 31
0.0
  0
LINE
  8
0
  6
BYBLOCK
 62
     0
 10
1.196906
 20
12.5915
 30
0.0
 11
1.196906
 21
10.90775
 31
0.0
  0
LINE
  8
0
  6
BYBLOCK
 62
     0
 10
1.196906
 20
8.4615
 30
0.0
 11
1.196906
 21
10.14525
 31
0.0
  0
SOLID
  8
0
  6
BYBLOCK
 62
     0
 10
1.121906
 20
12.5915
 30
0.0
 11
1.271906
 21
12.5915
 31
0.0
 12
1.196906
 22
13.0415
 32
0.0
 13
1.196906
 23
13.0415
 33
0.0
  0
SOLID
  8
0
  6
BYBLOCK
 62
     0
 10
1.121906
 20
8.4615
 30
0.0
 11
1.271906
 21
8.4615
 31
0.0
 12
1.196906
 22
8.0115
 32
0.0
 13
1.196906
 23
8.0115
 33
0.0
  0
TEXT
  8
0
  6
BYBLOCK
 62
     0
 10
0.767218
 20
10.37025
 30
0.0
 40
0.3125
  1
5.030
 41
0.75
  7
TXT
 72
     1
 11
1.196906
 21
10.5265
 31
0.0
 73
     2
  0
POINT
  8
DEFPOINTS
  6
BYBLOCK
 62
     0
 10
2.15769
 20
13.0415
 30
0.0
  0
POINT
  8
DEFPOINTS
  6
BYBLOCK
 62
     0
 10
2.15769
 20
8.0115
 30
0.0
  0
POINT
  8
DEFPOINTS
  6
BYBLOCK
 62
     0
 10
1.196906
 20
8.0115
 30
0.0
  0
ENDBLK
  8
0
  0
BLOCK
  8
0
  2
*D11
 70
    65
 10
0.0
 20
0.0
 30
0.0
  3
*D
  0
LINE
  8
0
  6
BYBLOCK
 62
     0
 10
8.449536
 20
7.85525
 30
0.0
 11
8.449536
 21
6.86548
 31
0.0
  0
LINE
  8
0
  6
BYBLOCK
 62
     0
 10
9.949307
 20
8.004266
 30
0.0
 11
9.949307
 21
6.86548
 31
0.0
  0
LINE
  8
0
  6
BYBLOCK
 62
     0
 10
7.999536
 20
7.09798
 30
0.0
 11
7.549536
 21
7.09798
 31
0.0
  0
LINE
  8
0
  6
BYBLOCK
 62
     0
 10
10.399307
 20
7.09798
 30
0.0
 11
10.849307
 21
7.09798
 31
0.0
  0
SOLID
  8
0
  6
BYBLOCK
 62
     0
 10
7.999536
 20
7.17298
 30
0.0
 11
7.999536
 21
7.02298
 31
0.0
 12
8.449536
 22
7.09798
 32
0.0
 13
8.449536
 23
7.09798
 33
0.0
  0
SOLID
  8
0
  6
BYBLOCK
 62
     0
 10
10.399307
 20
7.17298
 30
0.0
 11
10.399307
 21
7.02298
 31
0.0
 12
9.949307
 22
7.09798
 32
0.0
 13
9.949307
 23
7.09798
 33
0.0
  0
TEXT
  8
0
  6
BYBLOCK
 62
     0
 10
9.121296
 20
6.94173
 30
0.0
 40
0.3125
  1
B
 41
0.75
  7
TXT
 72
     1
 11
9.199421
 21
7.09798
 31
0.0
 73
     2
  0
POINT
  8
DEFPOINTS
  6
BYBLOCK
 62
     0
 10
8.449536
 20
8.0115
 30
0.0
  0
POINT
  8
DEFPOINTS
  6
BYBLOCK
 62
     0
 10
9.949307
 20
8.160516
 30
0.0
  0
POINT
  8
DEFPOINTS
  6
BYBLOCK
 62
     0
 10
9.949307
 20
7.09798
 30
0.0
  0
ENDBLK
  8
0
  0
BLOCK
  8
0
  2
*D12
 70
    65
 10
0.0
 20
0.0
 30
0.0
  3
*D
  0
LINE
  8
0
  6
BYBLOCK
 62
     0
 10
19.995665
 20
13.19775
 30
0.0
 11
19.995665
 21
14.881931
 31
0.0
  0
LINE
  8
0
  6
BYBLOCK
 62
     0
 10
20.110665
 20
13.10275
 30
0.0
 11
20.110665
 21
14.881931
 31
0.0
  0
LINE
  8
0
  6
BYBLOCK
 62
     0
 10
19.545665
 20
14.649431
 30
0.0
 11
19.095665
 21
14.649431
 31
0.0
  0
LINE
  8
0
  6
BYBLOCK
 62
     0
 10
20.560665
 20
14.649431
 30
0.0
 11
21.010665
 21
14.649431
 31
0.0
  0
SOLID
  8
0
  6
BYBLOCK
 62
     0
 10
19.545665
 20
14.724431
 30
0.0
 11
19.545665
 21
14.574431
 31
0.0
 12
19.995665
 22
14.649431
 32
0.0
 13
19.995665
 23
14.649431
 33
0.0
  0
SOLID
  8
0
  6
BYBLOCK
 62
     0
 10
20.560665
 20
14.724431
 30
0.0
 11
20.560665
 21
14.574431
 31
0.0
 12
20.110665
 22
14.649431
 32
0.0
 13
20.110665
 23
14.649431
 33
0.0
  0
TEXT
  8
0
  6
BYBLOCK
 62
     0
 10
21.235665
 20
14.493181
 30
0.0
 40
0.3125
  1
0.115
 41
0.75
  7
TXT
 72
     1
 11
21.606759
 21
14.649431
 31
0.0
 73
     2
  0
POINT
  8
DEFPOINTS
  6
BYBLOCK
 62
     0
 10
19.995665
 20
13.0415
 30
0.0
  0
POINT
  8
DEFPOINTS
  6
BYBLOCK
 62
     0
 10
20.110665
 20
12.9465
 30
0.0
  0
POINT
  8
DEFPOINTS
  6
BYBLOCK
 62
     0
 10
20.110665
 20
14.649431
 30
0.0
  0
ENDBLK
  8
0
  0
BLOCK
  8
0
  2
*D13
 70
    65
 10
0.0
 20
0.0
 30
0.0
  3
*D
  0
LINE
  8
0
  6
BYBLOCK
 62
     0
 10
4.35194
 20
12.7415
 30
0.0
 11
6.027413
 21
12.7415
 31
0.0
  0
LINE
  8
0
  6
BYBLOCK
 62
     0
 10
4.46494
 20
13.0415
 30
0.0
 11
6.027413
 21
13.0415
 31
0.0
  0
LINE
  8
0
  6
BYBLOCK
 62
     0
 10
5.794913
 20
12.2915
 30
0.0
 11
5.794913
 21
11.8415
 31
0.0
  0
LINE
  8
0
  6
BYBLOCK
 62
     0
 10
5.794913
 20
13.4915
 30
0.0
 11
5.794913
 21
13.9415
 31
0.0
  0
SOLID
  8
0
  6
BYBLOCK
 62
     0
 10
5.719913
 20
12.2915
 30
0.0
 11
5.869913
 21
12.2915
 31
0.0
 12
5.794913
 22
12.7415
 32
0.0
 13
5.794913
 23
12.7415
 33
0.0
  0
SOLID
  8
0
  6
BYBLOCK
 62
     0
 10
5.719913
 20
13.4915
 30
0.0
 11
5.869913
 21
13.4915
 31
0.0
 12
5.794913
 22
13.0415
 32
0.0
 13
5.794913
 23
13.0415
 33
0.0
  0
TEXT
  8
0
  6
BYBLOCK
 62
     0
 10
6.280777
 20
13.78525
 30
0.0
 40
0.3125
  1
0.300
 41
0.75
  7
TXT
 72
     1
 11
6.690934
 21
13.9415
 31
0.0
 73
     2
  0
POINT
  8
DEFPOINTS
  6
BYBLOCK
 62
     0
 10
4.19569
 20
12.7415
 30
0.0
  0
POINT
  8
DEFPOINTS
  6
BYBLOCK
 62
     0
 10
4.30869
 20
13.0415
 30
0.0
  0
POINT
  8
DEFPOINTS
  6
BYBLOCK
 62
     0
 10
5.794913
 20
13.0415
 30
0.0
  0
ENDBLK
  8
0
  0
BLOCK
  8
0
  2
*D14
 70
    65
 10
0.0
 20
0.0
 30
0.0
  3
*D
  0
LINE
  8
0
  6
BYBLOCK
 62
     0
 10
4.49569
 20
13.01075
 30
0.0
 11
4.49569
 21
14.381973
 31
0.0
  0
LINE
  8
0
  6
BYBLOCK
 62
     0
 10
1.97069
 20
13.01075
 30
0.0
 11
1.97069
 21
14.381973
 31
0.0
  0
LINE
  8
0
  6
BYBLOCK
 62
     0
 10
4.94569
 20
14.149473
 30
0.0
 11
5.39569
 21
14.149473
 31
0.0
  0
LINE
  8
0
  6
BYBLOCK
 62
     0
 10
1.52069
 20
14.149473
 30
0.0
 11
1.07069
 21
14.149473
 31
0.0
  0
SOLID
  8
0
  6
BYBLOCK
 62
     0
 10
4.94569
 20
14.224473
 30
0.0
 11
4.94569
 21
14.074473
 31
0.0
 12
4.49569
 22
14.149473
 32
0.0
 13
4.49569
 23
14.149473
 33
0.0
  0
SOLID
  8
0
  6
BYBLOCK
 62
     0
 10
1.52069
 20
14.224473
 30
0.0
 11
1.52069
 21
14.074473
 31
0.0
 12
1.97069
 22
14.149473
 32
0.0
 13
1.97069
 23
14.149473
 33
0.0
  0
TEXT
  8
0
  6
BYBLOCK
 62
     0
 10
2.76444
 20
13.993223
 30
0.0
 40
0.3125
  1
2.525
 41
0.75
  7
TXT
 72
     1
 11
3.23319
 21
14.149473
 31
0.0
 73
     2
  0
POINT
  8
DEFPOINTS
  6
BYBLOCK
 62
     0
 10
4.49569
 20
12.8545
 30
0.0
  0
POINT
  8
DEFPOINTS
  6
BYBLOCK
 62
     0
 10
1.97069
 20
12.8545
 30
0.0
  0
POINT
  8
DEFPOINTS
  6
BYBLOCK
 62
     0
 10
1.97069
 20
14.149473
 30
0.0
  0
ENDBLK
  8
0
  0
BLOCK
  8
0
  2
*D15
 70
    65
 10
0.0
 20
0.0
 30
0.0
  3
*D
  0
LINE
  8
0
  6
BYBLOCK
 62
     0
 10
24.000507
 20
2.020893
 30
0.0
 11
24.000507
 21
1.30394
 31
0.0
  0
LINE
  8
0
  6
BYBLOCK
 62
     0
 10
22.400735
 20
1.966878
 30
0.0
 11
22.400735
 21
1.30394
 31
0.0
  0
LINE
  8
0
  6
BYBLOCK
 62
     0
 10
24.450507
 20
1.53644
 30
0.0
 11
24.900507
 21
1.53644
 31
0.0
  0
LINE
  8
0
  6
BYBLOCK
 62
     0
 10
21.950735
 20
1.53644
 30
0.0
 11
21.500735
 21
1.53644
 31
0.0
  0
SOLID
  8
0
  6
BYBLOCK
 62
     0
 10
24.450507
 20
1.61144
 30
0.0
 11
24.450507
 21
1.46144
 31
0.0
 12
24.000507
 22
1.53644
 32
0.0
 13
24.000507
 23
1.53644
 33
0.0
  0
SOLID
  8
0
  6
BYBLOCK
 62
     0
 10
21.950735
 20
1.61144
 30
0.0
 11
21.950735
 21
1.46144
 31
0.0
 12
22.400735
 22
1.53644
 32
0.0
 13
22.400735
 23
1.53644
 33
0.0
  0
TEXT
  8
0
  6
BYBLOCK
 62
     0
 10
23.122496
 20
1.38019
 30
0.0
 40
0.3125
  1
A
 41
0.75
  7
TXT
 72
     1
 11
23.200621
 21
1.53644
 31
0.0
 73
     2
  0
POINT
  8
DEFPOINTS
  6
BYBLOCK
 62
     0
 10
24.000507
 20
2.177143
 30
0.0
  0
POINT
  8
DEFPOINTS
  6
BYBLOCK
 62
     0
 10
22.400735
 20
2.123128
 30
0.0
  0
POINT
  8
DEFPOINTS
  6
BYBLOCK
 62
     0
 10
22.400735
 20
1.53644
 30
0.0
  0
ENDBLK
  8
0
  0
BLOCK
  8
0
  2
*D16
 70
    65
 10
0.0
 20
0.0
 30
0.0
  3
*D
  0
LINE
  8
0
  6
BYBLOCK
 62
     0
 10
15.767905
 20
12.7415
 30
0.0
 11
17.036818
 21
12.7415
 31
0.0
  0
LINE
  8
0
  6
BYBLOCK
 62
     0
 10
15.880905
 20
13.0415
 30
0.0
 11
17.036818
 21
13.0415
 31
0.0
  0
LINE
  8
0
  6
BYBLOCK
 62
     0
 10
16.804318
 20
12.2915
 30
0.0
 11
16.804318
 21
11.8415
 31
0.0
  0
LINE
  8
0
  6
BYBLOCK
 62
     0
 10
16.804318
 20
13.4915
 30
0.0
 11
16.804318
 21
13.9415
 31
0.0
  0
SOLID
  8
0
  6
BYBLOCK
 62
     0
 10
16.729318
 20
12.2915
 30
0.0
 11
16.879318
 21
12.2915
 31
0.0
 12
16.804318
 22
12.7415
 32
0.0
 13
16.804318
 23
12.7415
 33
0.0
  0
SOLID
  8
0
  6
BYBLOCK
 62
     0
 10
16.729318
 20
13.4915
 30
0.0
 11
16.879318
 21
13.4915
 31
0.0
 12
16.804318
 22
13.0415
 32
0.0
 13
16.804318
 23
13.0415
 33
0.0
  0
TEXT
  8
0
  6
BYBLOCK
 62
     0
 10
17.479318
 20
14.448098
 30
0.0
 40
0.3125
  1
0.300
 41
0.75
  7
TXT
 72
     1
 11
17.889474
 21
14.604348
 31
0.0
 73
     2
  0
POINT
  8
DEFPOINTS
  6
BYBLOCK
 62
     0
 10
15.611655
 20
12.7415
 30
0.0
  0
POINT
  8
DEFPOINTS
  6
BYBLOCK
 62
     0
 10
15.724655
 20
13.0415
 30
0.0
  0
POINT
  8
DEFPOINTS
  6
BYBLOCK
 62
     0
 10
16.804318
 20
13.0415
 30
0.0
  0
ENDBLK
  8
0
  0
BLOCK
  8
0
  2
*D17
 70
    65
 10
0.0
 20
0.0
 30
0.0
  3
*D
  0
LINE
  8
0
  6
BYBLOCK
 62
     0
 10
8.448122
 20
8.57775
 30
0.0
 11
8.448122
 21
9.166504
 31
0.0
  0
LINE
  8
0
  6
BYBLOCK
 62
     0
 10
8.230122
 20
9.090254
 30
0.0
 11
8.230122
 21
9.166504
 31
0.0
  0
LINE
  8
0
  6
BYBLOCK
 62
     0
 10
8.898122
 20
8.934004
 30
0.0
 11
9.348122
 21
8.934004
 31
0.0
  0
LINE
  8
0
  6
BYBLOCK
 62
     0
 10
7.780122
 20
8.934004
 30
0.0
 11
7.330122
 21
8.934004
 31
0.0
  0
SOLID
  8
0
  6
BYBLOCK
 62
     0
 10
8.898122
 20
9.009004
 30
0.0
 11
8.898122
 21
8.859004
 31
0.0
 12
8.448122
 22
8.934004
 32
0.0
 13
8.448122
 23
8.934004
 33
0.0
  0
SOLID
  8
0
  6
BYBLOCK
 62
     0
 10
7.780122
 20
9.009004
 30
0.0
 11
7.780122
 21
8.859004
 31
0.0
 12
8.230122
 22
8.934004
 32
0.0
 13
8.230122
 23
8.934004
 33
0.0
  0
TEXT
  8
0
  6
BYBLOCK
 62
     0
 10
6.284809
 20
8.777754
 30
0.0
 40
0.3125
  1
0.218
 41
0.75
  7
TXT
 72
     1
 11
6.694966
 21
8.934004
 31
0.0
 73
     2
  0
POINT
  8
DEFPOINTS
  6
BYBLOCK
 62
     0
 10
8.448122
 20
8.4215
 30
0.0
  0
POINT
  8
DEFPOINTS
  6
BYBLOCK
 62
     0
 10
8.230122
 20
8.934004
 30
0.0
  0
POINT
  8
DEFPOINTS
  6
BYBLOCK
 62
     0
 10
8.230122
 20
8.934004
 30
0.0
  0
ENDBLK
  8
0
  0
BLOCK
  8
0
  2
*D18
 70
    65
 10
0.0
 20
0.0
 30
0.0
  3
*D
  0
LINE
  8
0
  6
BYBLOCK
 62
     0
 10
12.471867
 20
11.231941
 30
0.0
 11
12.471867
 21
11.31948
 31
0.0
  0
LINE
  8
0
  6
BYBLOCK
 62
     0
 10
12.426867
 20
11.231941
 30
0.0
 11
12.426867
 21
11.31948
 31
0.0
  0
LINE
  8
0
  6
BYBLOCK
 62
     0
 10
12.921867
 20
11.08698
 30
0.0
 11
13.371867
 21
11.08698
 31
0.0
  0
LINE
  8
0
  6
BYBLOCK
 62
     0
 10
11.976867
 20
11.08698
 30
0.0
 11
11.526867
 21
11.08698
 31
0.0
  0
SOLID
  8
0
  6
BYBLOCK
 62
     0
 10
12.921867
 20
11.16198
 30
0.0
 11
12.921867
 21
11.01198
 31
0.0
 12
12.471867
 22
11.08698
 32
0.0
 13
12.471867
 23
11.08698
 33
0.0
  0
SOLID
  8
0
  6
BYBLOCK
 62
     0
 10
11.976867
 20
11.16198
 30
0.0
 11
11.976867
 21
11.01198
 31
0.0
 12
12.426867
 22
11.08698
 32
0.0
 13
12.426867
 23
11.08698
 33
0.0
  0
TEXT
  8
0
  6
BYBLOCK
 62
     0
 10
10.442492
 20
10.93073
 30
0.0
 40
0.3125
  1
0.045
 41
0.75
  7
TXT
 72
     1
 11
10.872179
 21
11.08698
 31
0.0
 73
     2
  0
POINT
  8
DEFPOINTS
  6
BYBLOCK
 62
     0
 10
12.471867
 20
11.075691
 30
0.0
  0
POINT
  8
DEFPOINTS
  6
BYBLOCK
 62
     0
 10
12.426867
 20
11.075691
 30
0.0
  0
POINT
  8
DEFPOINTS
  6
BYBLOCK
 62
     0
 10
12.426867
 20
11.08698
 30
0.0
  0
ENDBLK
  8
0
  0
BLOCK
  8
0
  2
*D19
 70
    65
 10
0.0
 20
0.0
 30
0.0
  3
*D
  0
LINE
  8
0
  6
BYBLOCK
 62
     0
 10
12.471867
 20
11.954461
 30
0.0
 11
12.471867
 21
12.03555
 31
0.0
  0
LINE
  8
0
  6
BYBLOCK
 62
     0
 10
12.371867
 20
11.954461
 30
0.0
 11
12.371867
 21
12.03555
 31
0.0
  0
LINE
  8
0
  6
BYBLOCK
 62
     0
 10
12.921867
 20
11.80305
 30
0.0
 11
13.371867
 21
11.80305
 31
0.0
  0
LINE
  8
0
  6
BYBLOCK
 62
     0
 10
11.921867
 20
11.80305
 30
0.0
 11
11.471867
 21
11.80305
 31
0.0
  0
SOLID
  8
0
  6
BYBLOCK
 62
     0
 10
12.921867
 20
11.87805
 30
0.0
 11
12.921867
 21
11.72805
 31
0.0
 12
12.471867
 22
11.80305
 32
0.0
 13
12.471867
 23
11.80305
 33
0.0
  0
SOLID
  8
0
  6
BYBLOCK
 62
     0
 10
11.921867
 20
11.87805
 30
0.0
 11
11.921867
 21
11.72805
 31
0.0
 12
12.371867
 22
11.80305
 32
0.0
 13
12.371867
 23
11.80305
 33
0.0
  0
TEXT
  8
0
  6
BYBLOCK
 62
     0
 10
10.504679
 20
11.6468
 30
0.0
 40
0.3125
  1
0.100
 41
0.75
  7
TXT
 72
     1
 11
10.875773
 21
11.80305
 31
0.0
 73
     2
  0
POINT
  8
DEFPOINTS
  6
BYBLOCK
 62
     0
 10
12.471867
 20
11.798211
 30
0.0
  0
POINT
  8
DEFPOINTS
  6
BYBLOCK
 62
     0
 10
12.371867
 20
11.798211
 30
0.0
  0
POINT
  8
DEFPOINTS
  6
BYBLOCK
 62
     0
 10
12.371867
 20
11.80305
 30
0.0
  0
ENDBLK
  8
0
  0
BLOCK
  8
0
  2
*D20
 70
    65
 10
0.0
 20
0.0
 30
0.0
  3
*D
  0
LINE
  8
0
  6
BYBLOCK
 62
     0
 10
17.327302
 20
28.539533
 30
0.0
 11
17.327302
 21
30.223714
 31
0.0
  0
LINE
  8
0
  6
BYBLOCK
 62
     0
 10
17.427302
 20
28.444533
 30
0.0
 11
17.427302
 21
30.223714
 31
0.0
  0
LINE
  8
0
  6
BYBLOCK
 62
     0
 10
16.877302
 20
29.991214
 30
0.0
 11
16.427302
 21
29.991214
 31
0.0
  0
LINE
  8
0
  6
BYBLOCK
 62
     0
 10
17.877302
 20
29.991214
 30
0.0
 11
18.327302
 21
29.991214
 31
0.0
  0
SOLID
  8
0
  6
BYBLOCK
 62
     0
 10
16.877302
 20
30.066214
 30
0.0
 11
16.877302
 21
29.916214
 31
0.0
 12
17.327302
 22
29.991214
 32
0.0
 13
17.327302
 23
29.991214
 33
0.0
  0
SOLID
  8
0
  6
BYBLOCK
 62
     0
 10
17.877302
 20
30.066214
 30
0.0
 11
17.877302
 21
29.916214
 31
0.0
 12
17.427302
 22
29.991214
 32
0.0
 13
17.427302
 23
29.991214
 33
0.0
  0
TEXT
  8
0
  6
BYBLOCK
 62
     0
 10
18.552302
 20
29.834964
 30
0.0
 40
0.3125
  1
0.100
 41
0.75
  7
TXT
 72
     1
 11
18.923395
 21
29.991214
 31
0.0
 73
     2
  0
POINT
  8
DEFPOINTS
  6
BYBLOCK
 62
     0
 10
17.327302
 20
28.383283
 30
0.0
  0
POINT
  8
DEFPOINTS
  6
BYBLOCK
 62
     0
 10
17.427302
 20
28.288283
 30
0.0
  0
POINT
  8
DEFPOINTS
  6
BYBLOCK
 62
     0
 10
17.427302
 20
29.991214
 30
0.0
  0
ENDBLK
  8
0
  0
BLOCK
  8
0
  2
*D21
 70
    65
 10
0.0
 20
0.0
 30
0.0
  3
*D
  0
LINE
  8
0
  6
BYBLOCK
 62
     0
 10
6.423709
 20
25.227033
 30
0.0
 11
6.423709
 21
24.237262
 31
0.0
  0
LINE
  8
0
  6
BYBLOCK
 62
     0
 10
7.923709
 20
25.376053
 30
0.0
 11
7.923709
 21
24.237262
 31
0.0
  0
LINE
  8
0
  6
BYBLOCK
 62
     0
 10
5.973709
 20
24.469762
 30
0.0
 11
5.523709
 21
24.469762
 31
0.0
  0
LINE
  8
0
  6
BYBLOCK
 62
     0
 10
8.373709
 20
24.469762
 30
0.0
 11
8.823709
 21
24.469762
 31
0.0
  0
SOLID
  8
0
  6
BYBLOCK
 62
     0
 10
5.973709
 20
24.544762
 30
0.0
 11
5.973709
 21
24.394762
 31
0.0
 12
6.423709
 22
24.469762
 32
0.0
 13
6.423709
 23
24.469762
 33
0.0
  0
SOLID
  8
0
  6
BYBLOCK
 62
     0
 10
8.373709
 20
24.544762
 30
0.0
 11
8.373709
 21
24.394762
 31
0.0
 12
7.923709
 22
24.469762
 32
0.0
 13
7.923709
 23
24.469762
 33
0.0
  0
TEXT
  8
0
  6
BYBLOCK
 62
     0
 10
7.095584
 20
24.313512
 30
0.0
 40
0.3125
  1
B
 41
0.75
  7
TXT
 72
     1
 11
7.173709
 21
24.469762
 31
0.0
 73
     2
  0
POINT
  8
DEFPOINTS
  6
BYBLOCK
 62
     0
 10
6.423709
 20
25.383283
 30
0.0
  0
POINT
  8
DEFPOINTS
  6
BYBLOCK
 62
     0
 10
7.923709
 20
25.532303
 30
0.0
  0
POINT
  8
DEFPOINTS
  6
BYBLOCK
 62
     0
 10
7.923709
 20
24.469762
 30
0.0
  0
ENDBLK
  8
0
  0
BLOCK
  8
0
  2
*D22
 70
    65
 10
0.0
 20
0.0
 30
0.0
  3
*D
  0
LINE
  8
0
  6
BYBLOCK
 62
     0
 10
2.119825
 20
28.383283
 30
0.0
 11
1.082791
 21
28.383283
 31
0.0
  0
LINE
  8
0
  6
BYBLOCK
 62
     0
 10
2.119825
 20
25.383283
 30
0.0
 11
1.082791
 21
25.383283
 31
0.0
  0
LINE
  8
0
  6
BYBLOCK
 62
     0
 10
1.315291
 20
27.933283
 30
0.0
 11
1.315291
 21
27.264533
 31
0.0
  0
LINE
  8
0
  6
BYBLOCK
 62
     0
 10
1.315291
 20
25.833283
 30
0.0
 11
1.315291
 21
26.502033
 31
0.0
  0
SOLID
  8
0
  6
BYBLOCK
 62
     0
 10
1.240291
 20
27.933283
 30
0.0
 11
1.390291
 21
27.933283
 31
0.0
 12
1.315291
 22
28.383283
 32
0.0
 13
1.315291
 23
28.383283
 33
0.0
  0
SOLID
  8
0
  6
BYBLOCK
 62
     0
 10
1.240291
 20
25.833283
 30
0.0
 11
1.390291
 21
25.833283
 31
0.0
 12
1.315291
 22
25.383283
 32
0.0
 13
1.315291
 23
25.383283
 33
0.0
  0
TEXT
  8
0
  6
BYBLOCK
 62
     0
 10
0.905135
 20
26.727033
 30
0.0
 40
0.3125
  1
3.000
 41
0.75
  7
TXT
 72
     1
 11
1.315291
 21
26.883283
 31
0.0
 73
     2
  0
POINT
  8
DEFPOINTS
  6
BYBLOCK
 62
     0
 10
2.276075
 20
28.383283
 30
0.0
  0
POINT
  8
DEFPOINTS
  6
BYBLOCK
 62
     0
 10
2.276075
 20
25.383283
 30
0.0
  0
POINT
  8
DEFPOINTS
  6
BYBLOCK
 62
     0
 10
1.315291
 20
25.383283
 30
0.0
  0
ENDBLK
  8
0
  0
BLOCK
  8
0
  2
*D23
 70
    65
 10
0.0
 20
0.0
 30
0.0
  3
*D
  0
LINE
  8
0
  6
BYBLOCK
 62
     0
 10
4.589075
 20
28.352533
 30
0.0
 11
4.589075
 21
29.723756
 31
0.0
  0
LINE
  8
0
  6
BYBLOCK
 62
     0
 10
2.089075
 20
28.352533
 30
0.0
 11
2.089075
 21
29.723756
 31
0.0
  0
LINE
  8
0
  6
BYBLOCK
 62
     0
 10
5.039075
 20
29.491256
 30
0.0
 11
5.489075
 21
29.491256
 31
0.0
  0
LINE
  8
0
  6
BYBLOCK
 62
     0
 10
1.639075
 20
29.491256
 30
0.0
 11
1.189075
 21
29.491256
 31
0.0
  0
SOLID
  8
0
  6
BYBLOCK
 62
     0
 10
5.039075
 20
29.566256
 30
0.0
 11
5.039075
 21
29.416256
 31
0.0
 12
4.589075
 22
29.491256
 32
0.0
 13
4.589075
 23
29.491256
 33
0.0
  0
SOLID
  8
0
  6
BYBLOCK
 62
     0
 10
1.639075
 20
29.566256
 30
0.0
 11
1.639075
 21
29.416256
 31
0.0
 12
2.089075
 22
29.491256
 32
0.0
 13
2.089075
 23
29.491256
 33
0.0
  0
TEXT
  8
0
  6
BYBLOCK
 62
     0
 10
2.909388
 20
29.335006
 30
0.0
 40
0.3125
  1
2.500
 41
0.75
  7
TXT
 72
     1
 11
3.339075
 21
29.491256
 31
0.0
 73
     2
  0
POINT
  8
DEFPOINTS
  6
BYBLOCK
 62
     0
 10
4.589075
 20
28.196283
 30
0.0
  0
POINT
  8
DEFPOINTS
  6
BYBLOCK
 62
     0
 10
2.089075
 20
28.196283
 30
0.0
  0
POINT
  8
DEFPOINTS
  6
BYBLOCK
 62
     0
 10
2.089075
 20
29.491256
 30
0.0
  0
ENDBLK
  8
0
  0
BLOCK
  8
0
  2
*D24
 70
    65
 10
0.0
 20
0.0
 30
0.0
  3
*D
  0
LINE
  8
0
  6
BYBLOCK
 62
     0
 10
4.445325
 20
28.083283
 30
0.0
 11
5.736824
 21
28.083283
 31
0.0
  0
LINE
  8
0
  6
BYBLOCK
 62
     0
 10
4.558325
 20
28.383283
 30
0.0
 11
5.736824
 21
28.383283
 31
0.0
  0
LINE
  8
0
  6
BYBLOCK
 62
     0
 10
5.504324
 20
27.633283
 30
0.0
 11
5.504324
 21
27.183283
 31
0.0
  0
LINE
  8
0
  6
BYBLOCK
 62
     0
 10
5.504324
 20
28.833283
 30
0.0
 11
5.504324
 21
29.283283
 31
0.0
  0
SOLID
  8
0
  6
BYBLOCK
 62
     0
 10
5.429324
 20
27.633283
 30
0.0
 11
5.579324
 21
27.633283
 31
0.0
 12
5.504324
 22
28.083283
 32
0.0
 13
5.504324
 23
28.083283
 33
0.0
  0
SOLID
  8
0
  6
BYBLOCK
 62
     0
 10
5.429324
 20
28.833283
 30
0.0
 11
5.579324
 21
28.833283
 31
0.0
 12
5.504324
 22
28.383283
 32
0.0
 13
5.504324
 23
28.383283
 33
0.0
  0
TEXT
  8
0
  6
BYBLOCK
 62
     0
 10
6.069242
 20
29.127033
 30
0.0
 40
0.3125
  1
0.300
 41
0.75
  7
TXT
 72
     1
 11
6.479398
 21
29.283283
 31
0.0
 73
     2
  0
POINT
  8
DEFPOINTS
  6
BYBLOCK
 62
     0
 10
4.289075
 20
28.083283
 30
0.0
  0
POINT
  8
DEFPOINTS
  6
BYBLOCK
 62
     0
 10
4.402075
 20
28.383283
 30
0.0
  0
POINT
  8
DEFPOINTS
  6
BYBLOCK
 62
     0
 10
5.504324
 20
28.383283
 30
0.0
  0
ENDBLK
  8
0
  0
BLOCK
  8
0
  2
*D25
 70
    65
 10
0.0
 20
0.0
 30
0.0
  3
*D
  0
LINE
  8
0
  6
BYBLOCK
 62
     0
 10
3.776034
 20
25.839533
 30
0.0
 11
3.776034
 21
27.100517
 31
0.0
  0
LINE
  8
0
  6
BYBLOCK
 62
     0
 10
4.076034
 20
26.724669
 30
0.0
 11
4.076034
 21
26.635517
 31
0.0
  0
LINE
  8
0
  6
BYBLOCK
 62
     0
 10
3.326034
 20
26.868017
 30
0.0
 11
2.876034
 21
26.868017
 31
0.0
  0
LINE
  8
0
  6
BYBLOCK
 62
     0
 10
4.526034
 20
26.868017
 30
0.0
 11
4.976034
 21
26.868017
 31
0.0
  0
SOLID
  8
0
  6
BYBLOCK
 62
     0
 10
3.326034
 20
26.943017
 30
0.0
 11
3.326034
 21
26.793017
 31
0.0
 12
3.776034
 22
26.868017
 32
0.0
 13
3.776034
 23
26.868017
 33
0.0
  0
SOLID
  8
0
  6
BYBLOCK
 62
     0
 10
4.526034
 20
26.943017
 30
0.0
 11
4.526034
 21
26.793017
 31
0.0
 12
4.076034
 22
26.868017
 32
0.0
 13
4.076034
 23
26.868017
 33
0.0
  0
TEXT
  8
0
  6
BYBLOCK
 62
     0
 10
5.201034
 20
26.711767
 30
0.0
 40
0.3125
  1
0.300
 41
0.75
  7
TXT
 72
     1
 11
5.611191
 21
26.868017
 31
0.0
 73
     2
  0
POINT
  8
DEFPOINTS
  6
BYBLOCK
 62
     0
 10
3.776034
 20
25.683283
 30
0.0
  0
POINT
  8
DEFPOINTS
  6
BYBLOCK
 62
     0
 10
4.076034
 20
26.880919
 30
0.0
  0
POINT
  8
DEFPOINTS
  6
BYBLOCK
 62
     0
 10
4.076034
 20
26.868017
 30
0.0
  0
ENDBLK
  8
0
  0
BLOCK
  8
0
  2
*D26
 70
    65
 10
0.0
 20
0.0
 30
0.0
  3
*D
  0
LINE
  8
0
  6
BYBLOCK
 62
     0
 10
15.044669
 20
25.839533
 30
0.0
 11
15.044669
 21
26.638052
 31
0.0
  0
LINE
  8
0
  6
BYBLOCK
 62
     0
 10
15.344669
 20
26.286396
 30
0.0
 11
15.344669
 21
26.173052
 31
0.0
  0
LINE
  8
0
  6
BYBLOCK
 62
     0
 10
14.594669
 20
26.405552
 30
0.0
 11
14.144669
 21
26.405552
 31
0.0
  0
LINE
  8
0
  6
BYBLOCK
 62
     0
 10
15.794669
 20
26.405552
 30
0.0
 11
16.244669
 21
26.405552
 31
0.0
  0
SOLID
  8
0
  6
BYBLOCK
 62
     0
 10
14.594669
 20
26.480552
 30
0.0
 11
14.594669
 21
26.330552
 31
0.0
 12
15.044669
 22
26.405552
 32
0.0
 13
15.044669
 23
26.405552
 33
0.0
  0
SOLID
  8
0
  6
BYBLOCK
 62
     0
 10
15.794669
 20
26.480552
 30
0.0
 11
15.794669
 21
26.330552
 31
0.0
 12
15.344669
 22
26.405552
 32
0.0
 13
15.344669
 23
26.405552
 33
0.0
  0
TEXT
  8
0
  6
BYBLOCK
 62
     0
 10
16.469669
 20
26.249302
 30
0.0
 40
0.3125
  1
0.300
 41
0.75
  7
TXT
 72
     1
 11
16.879825
 21
26.405552
 31
0.0
 73
     2
  0
POINT
  8
DEFPOINTS
  6
BYBLOCK
 62
     0
 10
15.044669
 20
25.683283
 30
0.0
  0
POINT
  8
DEFPOINTS
  6
BYBLOCK
 62
     0
 10
15.344669
 20
26.442646
 30
0.0
  0
POINT
  8
DEFPOINTS
  6
BYBLOCK
 62
     0
 10
15.344669
 20
26.405552
 30
0.0
  0
ENDBLK
  8
0
  0
BLOCK
  8
0
  2
*D27
 70
    65
 10
0.0
 20
0.0
 30
0.0
  3
*D
  0
LINE
  8
0
  6
BYBLOCK
 62
     0
 10
3.932284
 20
25.683283
 30
0.0
 11
5.196357
 21
25.683283
 31
0.0
  0
LINE
  8
0
  6
BYBLOCK
 62
     0
 10
4.045284
 20
25.383283
 30
0.0
 11
5.196357
 21
25.383283
 31
0.0
  0
LINE
  8
0
  6
BYBLOCK
 62
     0
 10
4.963857
 20
26.133283
 30
0.0
 11
4.963857
 21
26.583283
 31
0.0
  0
LINE
  8
0
  6
BYBLOCK
 62
     0
 10
4.963857
 20
24.933283
 30
0.0
 11
4.963857
 21
24.483283
 31
0.0
  0
LINE
  8
0
  6
BYBLOCK
 62
     0
 10
4.963857
 20
24.483283
 30
0.0
 11
4.513857
 21
24.483283
 31
0.0
  0
SOLID
  8
0
  6
BYBLOCK
 62
     0
 10
4.888857
 20
26.133283
 30
0.0
 11
5.038857
 21
26.133283
 31
0.0
 12
4.963857
 22
25.683283
 32
0.0
 13
4.963857
 23
25.683283
 33
0.0
  0
SOLID
  8
0
  6
BYBLOCK
 62
     0
 10
4.888857
 20
24.933283
 30
0.0
 11
5.038857
 21
24.933283
 31
0.0
 12
4.963857
 22
25.383283
 32
0.0
 13
4.963857
 23
25.383283
 33
0.0
  0
TEXT
  8
0
  6
BYBLOCK
 62
     0
 10
3.468544
 20
24.327033
 30
0.0
 40
0.3125
  1
0.300
 41
0.75
  7
TXT
 72
     1
 11
3.878701
 21
24.483283
 31
0.0
 73
     2
  0
POINT
  8
DEFPOINTS
  6
BYBLOCK
 62
     0
 10
3.776034
 20
25.683283
 30
0.0
  0
POINT
  8
DEFPOINTS
  6
BYBLOCK
 62
     0
 10
3.889034
 20
25.383283
 30
0.0
  0
POINT
  8
DEFPOINTS
  6
BYBLOCK
 62
     0
 10
4.963857
 20
25.383283
 30
0.0
  0
ENDBLK
  8
0
  0
BLOCK
  8
0
  2
*D28
 70
    65
 10
0.0
 20
0.0
 30
0.0
  3
*D
  0
LINE
  8
0
  6
BYBLOCK
 62
     0
 10
20.099307
 20
21.909549
 30
0.0
 11
17.605349
 21
21.909549
 31
0.0
  0
LINE
  8
0
  6
BYBLOCK
 62
     0
 10
20.099307
 20
23.003066
 30
0.0
 11
17.605349
 21
23.003066
 31
0.0
  0
LINE
  8
0
  6
BYBLOCK
 62
     0
 10
17.837849
 20
21.459549
 30
0.0
 11
17.837849
 21
21.009549
 31
0.0
  0
LINE
  8
0
  6
BYBLOCK
 62
     0
 10
17.837849
 20
23.453066
 30
0.0
 11
17.837849
 21
23.903066
 31
0.0
  0
SOLID
  8
0
  6
BYBLOCK
 62
     0
 10
17.762849
 20
21.459549
 30
0.0
 11
17.912849
 21
21.459549
 31
0.0
 12
17.837849
 22
21.909549
 32
0.0
 13
17.837849
 23
21.909549
 33
0.0
  0
SOLID
  8
0
  6
BYBLOCK
 62
     0
 10
17.762849
 20
23.453066
 30
0.0
 11
17.912849
 21
23.453066
 31
0.0
 12
17.837849
 22
23.003066
 32
0.0
 13
17.837849
 23
23.003066
 33
0.0
  0
TEXT
  8
0
  6
BYBLOCK
 62
     0
 10
17.38863
 20
22.300057
 30
0.0
 40
0.3125
  1
0.365
 41
0.75
  7
TXT
 72
     1
 11
17.837849
 21
22.456307
 31
0.0
 73
     2
  0
POINT
  8
DEFPOINTS
  6
BYBLOCK
 62
     0
 10
20.255557
 20
21.909549
 30
0.0
  0
POINT
  8
DEFPOINTS
  6
BYBLOCK
 62
     0
 10
20.255557
 20
23.003066
 30
0.0
  0
POINT
  8
DEFPOINTS
  6
BYBLOCK
 62
     0
 10
17.837849
 20
23.003066
 30
0.0
  0
ENDBLK
  8
0
  0
BLOCK
  8
0
  2
*D29
 70
    65
 10
0.0
 20
0.0
 30
0.0
  3
*D
  0
LINE
  8
0
  6
BYBLOCK
 62
     0
 10
21.240578
 20
21.312566
 30
0.0
 11
15.740333
 21
21.312566
 31
0.0
  0
LINE
  8
0
  6
BYBLOCK
 62
     0
 10
21.240578
 20
23.600049
 30
0.0
 11
15.740333
 21
23.600049
 31
0.0
  0
LINE
  8
0
  6
BYBLOCK
 62
     0
 10
15.972833
 20
21.762566
 30
0.0
 11
15.972833
 21
22.075057
 31
0.0
  0
LINE
  8
0
  6
BYBLOCK
 62
     0
 10
15.972833
 20
23.150049
 30
0.0
 11
15.972833
 21
22.837557
 31
0.0
  0
SOLID
  8
0
  6
BYBLOCK
 62
     0
 10
15.897833
 20
21.762566
 30
0.0
 11
16.047833
 21
21.762566
 31
0.0
 12
15.972833
 22
21.312566
 32
0.0
 13
15.972833
 23
21.312566
 33
0.0
  0
SOLID
  8
0
  6
BYBLOCK
 62
     0
 10
15.897833
 20
23.150049
 30
0.0
 11
16.047833
 21
23.150049
 31
0.0
 12
15.972833
 22
23.600049
 32
0.0
 13
15.972833
 23
23.600049
 33
0.0
  0
TEXT
  8
0
  6
BYBLOCK
 62
     0
 10
15.523614
 20
22.300057
 30
0.0
 40
0.3125
  1
0.762
 41
0.75
  7
TXT
 72
     1
 11
15.972833
 21
22.456307
 31
0.0
 73
     2
  0
POINT
  8
DEFPOINTS
  6
BYBLOCK
 62
     0
 10
21.396828
 20
21.312566
 30
0.0
  0
POINT
  8
DEFPOINTS
  6
BYBLOCK
 62
     0
 10
21.396828
 20
23.600049
 30
0.0
  0
POINT
  8
DEFPOINTS
  6
BYBLOCK
 62
     0
 10
15.972833
 20
23.600049
 30
0.0
  0
ENDBLK
  8
0
  0
BLOCK
  8
0
  2
*D30
 70
    65
 10
0.0
 20
0.0
 30
0.0
  3
*D
  0
LINE
  8
0
  6
BYBLOCK
 62
     0
 10
17.231701
 20
22.456307
 30
0.0
 11
16.637348
 21
22.456307
 31
0.0
  0
LINE
  8
0
  6
BYBLOCK
 62
     0
 10
21.240578
 20
21.312566
 30
0.0
 11
16.637348
 21
21.312566
 31
0.0
  0
LINE
  8
0
  6
BYBLOCK
 62
     0
 10
16.869848
 20
22.906307
 30
0.0
 11
16.869848
 21
23.356307
 31
0.0
  0
LINE
  8
0
  6
BYBLOCK
 62
     0
 10
16.869848
 20
20.862566
 30
0.0
 11
16.869848
 21
20.412566
 31
0.0
  0
SOLID
  8
0
  6
BYBLOCK
 62
     0
 10
16.794848
 20
22.906307
 30
0.0
 11
16.944848
 21
22.906307
 31
0.0
 12
16.869848
 22
22.456307
 32
0.0
 13
16.869848
 23
22.456307
 33
0.0
  0
SOLID
  8
0
  6
BYBLOCK
 62
     0
 10
16.794848
 20
20.862566
 30
0.0
 11
16.944848
 21
20.862566
 31
0.0
 12
16.869848
 22
21.312566
 32
0.0
 13
16.869848
 23
21.312566
 33
0.0
  0
TEXT
  8
0
  6
BYBLOCK
 62
     0
 10
16.459691
 20
21.728186
 30
0.0
 40
0.3125
  1
0.381
 41
0.75
  7
TXT
 72
     1
 11
16.869848
 21
21.884436
 31
0.0
 73
     2
  0
POINT
  8
DEFPOINTS
  6
BYBLOCK
 62
     0
 10
17.387951
 20
22.456307
 30
0.0
  0
POINT
  8
DEFPOINTS
  6
BYBLOCK
 62
     0
 10
21.396828
 20
21.312566
 30
0.0
  0
POINT
  8
DEFPOINTS
  6
BYBLOCK
 62
     0
 10
16.869848
 20
21.312566
 30
0.0
  0
ENDBLK
  8
0
  0
BLOCK
  8
0
  2
*D31
 70
    65
 10
0.0
 20
0.0
 30
0.0
  3
*D
  0
LINE
  8
0
  6
BYBLOCK
 62
     0
 10
12.516867
 20
11.954461
 30
0.0
 11
12.516867
 21
12.03555
 31
0.0
  0
LINE
  8
0
  6
BYBLOCK
 62
     0
 10
12.371867
 20
11.954461
 30
0.0
 11
12.371867
 21
12.03555
 31
0.0
  0
LINE
  8
0
  6
BYBLOCK
 62
     0
 10
12.966867
 20
11.80305
 30
0.0
 11
13.416867
 21
11.80305
 31
0.0
  0
LINE
  8
0
  6
BYBLOCK
 62
     0
 10
11.921867
 20
11.80305
 30
0.0
 11
11.471867
 21
11.80305
 31
0.0
  0
SOLID
  8
0
  6
BYBLOCK
 62
     0
 10
12.966867
 20
11.87805
 30
0.0
 11
12.966867
 21
11.72805
 31
0.0
 12
12.516867
 22
11.80305
 32
0.0
 13
12.516867
 23
11.80305
 33
0.0
  0
SOLID
  8
0
  6
BYBLOCK
 62
     0
 10
11.921867
 20
11.87805
 30
0.0
 11
11.921867
 21
11.72805
 31
0.0
 12
12.371867
 22
11.80305
 32
0.0
 13
12.371867
 23
11.80305
 33
0.0
  0
TEXT
  8
0
  6
BYBLOCK
 62
     0
 10
10.426554
 20
11.6468
 30
0.0
 40
0.3125
  1
0.145
 41
0.75
  7
TXT
 72
     1
 11
10.836711
 21
11.80305
 31
0.0
 73
     2
  0
POINT
  8
DEFPOINTS
  6
BYBLOCK
 62
     0
 10
12.516867
 20
11.798211
 30
0.0
  0
POINT
  8
DEFPOINTS
  6
BYBLOCK
 62
     0
 10
12.371867
 20
11.798211
 30
0.0
  0
POINT
  8
DEFPOINTS
  6
BYBLOCK
 62
     0
 10
12.371867
 20
11.80305
 30
0.0
  0
ENDBLK
  8
0
  0
BLOCK
  8
0
  2
*D32
 70
    65
 10
0.0
 20
0.0
 30
0.0
  3
*D
  0
LINE
  8
0
  6
BYBLOCK
 62
     0
 10
15.248117
 20
11.79125
 30
0.0
 11
16.795776
 21
11.79125
 31
0.0
  0
LINE
  8
0
  6
BYBLOCK
 62
     0
 10
14.866117
 20
13.0415
 30
0.0
 11
16.795776
 21
13.0415
 31
0.0
  0
LINE
  8
0
  6
BYBLOCK
 62
     0
 10
16.563276
 20
11.34125
 30
0.0
 11
16.563276
 21
10.89125
 31
0.0
  0
LINE
  8
0
  6
BYBLOCK
 62
     0
 10
16.563276
 20
13.4915
 30
0.0
 11
16.563276
 21
13.9415
 31
0.0
  0
SOLID
  8
0
  6
BYBLOCK
 62
     0
 10
16.488276
 20
11.34125
 30
0.0
 11
16.638276
 21
11.34125
 31
0.0
 12
16.563276
 22
11.79125
 32
0.0
 13
16.563276
 23
11.79125
 33
0.0
  0
SOLID
  8
0
  6
BYBLOCK
 62
     0
 10
16.488276
 20
13.4915
 30
0.0
 11
16.638276
 21
13.4915
 31
0.0
 12
16.563276
 22
13.0415
 32
0.0
 13
16.563276
 23
13.0415
 33
0.0
  0
TEXT
  8
0
  6
BYBLOCK
 62
     0
 10
16.15312
 20
12.260125
 30
0.0
 40
0.3125
  1
1.250
 41
0.75
  7
TXT
 72
     1
 11
16.563276
 21
12.416375
 31
0.0
 73
     2
  0
POINT
  8
DEFPOINTS
  6
BYBLOCK
 62
     0
 10
15.091867
 20
11.79125
 30
0.0
  0
POINT
  8
DEFPOINTS
  6
BYBLOCK
 62
     0
 10
14.709867
 20
13.0415
 30
0.0
  0
POINT
  8
DEFPOINTS
  6
BYBLOCK
 62
     0
 10
16.563276
 20
13.0415
 30
0.0
  0
ENDBLK
  8
0
  0
BLOCK
  8
0
  2
*D33
 70
    65
 10
0.0
 20
0.0
 30
0.0
  3
*D
  0
LINE
  8
0
  6
BYBLOCK
 62
     0
 10
12.176867
 20
9.418
 30
0.0
 11
12.176867
 21
15.193351
 31
0.0
  0
LINE
  8
0
  6
BYBLOCK
 62
     0
 10
15.091867
 20
11.9475
 30
0.0
 11
15.091867
 21
15.193351
 31
0.0
  0
LINE
  8
0
  6
BYBLOCK
 62
     0
 10
12.626867
 20
14.960851
 30
0.0
 11
12.979679
 21
14.960851
 31
0.0
  0
LINE
  8
0
  6
BYBLOCK
 62
     0
 10
14.641867
 20
14.960851
 30
0.0
 11
14.289054
 21
14.960851
 31
0.0
  0
SOLID
  8
0
  6
BYBLOCK
 62
     0
 10
12.626867
 20
15.035851
 30
0.0
 11
12.626867
 21
14.885851
 31
0.0
 12
12.176867
 22
14.960851
 32
0.0
 13
12.176867
 23
14.960851
 33
0.0
  0
SOLID
  8
0
  6
BYBLOCK
 62
     0
 10
14.641867
 20
15.035851
 30
0.0
 11
14.641867
 21
14.885851
 31
0.0
 12
15.091867
 22
14.960851
 32
0.0
 13
15.091867
 23
14.960851
 33
0.0
  0
TEXT
  8
0
  6
BYBLOCK
 62
     0
 10
13.204679
 20
14.804601
 30
0.0
 40
0.3125
  1
2.915
 41
0.75
  7
TXT
 72
     1
 11
13.634367
 21
14.960851
 31
0.0
 73
     2
  0
POINT
  8
DEFPOINTS
  6
BYBLOCK
 62
     0
 10
12.176867
 20
9.26175
 30
0.0
  0
POINT
  8
DEFPOINTS
  6
BYBLOCK
 62
     0
 10
15.091867
 20
11.79125
 30
0.0
  0
POINT
  8
DEFPOINTS
  6
BYBLOCK
 62
     0
 10
15.091867
 20
14.960851
 30
0.0
  0
ENDBLK
  8
0
  0
BLOCK
  8
0
  2
*D34
 70
    65
 10
0.0
 20
0.0
 30
0.0
  3
*D
  0
LINE
  8
0
  6
BYBLOCK
 62
     0
 10
12.402617
 20
8.0115
 30
0.0
 11
11.127768
 21
8.0115
 31
0.0
  0
LINE
  8
0
  6
BYBLOCK
 62
     0
 10
12.020617
 20
9.26175
 30
0.0
 11
11.127768
 21
9.26175
 31
0.0
  0
LINE
  8
0
  6
BYBLOCK
 62
     0
 10
11.360268
 20
7.5615
 30
0.0
 11
11.360268
 21
7.1115
 31
0.0
  0
LINE
  8
0
  6
BYBLOCK
 62
     0
 10
11.360268
 20
9.71175
 30
0.0
 11
11.360268
 21
10.16175
 31
0.0
  0
SOLID
  8
0
  6
BYBLOCK
 62
     0
 10
11.285268
 20
7.5615
 30
0.0
 11
11.435268
 21
7.5615
 31
0.0
 12
11.360268
 22
8.0115
 32
0.0
 13
11.360268
 23
8.0115
 33
0.0
  0
SOLID
  8
0
  6
BYBLOCK
 62
     0
 10
11.285268
 20
9.71175
 30
0.0
 11
11.435268
 21
9.71175
 31
0.0
 12
11.360268
 22
9.26175
 32
0.0
 13
11.360268
 23
9.26175
 33
0.0
  0
TEXT
  8
0
  6
BYBLOCK
 62
     0
 10
10.950111
 20
8.480375
 30
0.0
 40
0.3125
  1
1.250
 41
0.75
  7
TXT
 72
     1
 11
11.360268
 21
8.636625
 31
0.0
 73
     2
  0
POINT
  8
DEFPOINTS
  6
BYBLOCK
 62
     0
 10
12.558867
 20
8.0115
 30
0.0
  0
POINT
  8
DEFPOINTS
  6
BYBLOCK
 62
     0
 10
12.176867
 20
9.26175
 30
0.0
  0
POINT
  8
DEFPOINTS
  6
BYBLOCK
 62
     0
 10
11.360268
 20
9.26175
 30
0.0
  0
ENDBLK
  8
0
  0
BLOCK
  8
0
  2
*D35
 70
    65
 10
0.0
 20
0.0
 30
0.0
  3
*D
  0
LINE
  8
0
  6
BYBLOCK
 62
     0
 10
20.221191
 20
21.729137
 30
0.0
 11
20.221191
 21
19.844055
 31
0.0
  0
LINE
  8
0
  6
BYBLOCK
 62
     0
 10
20.986191
 20
20.756976
 30
0.0
 11
20.986191
 21
19.844055
 31
0.0
  0
LINE
  8
0
  6
BYBLOCK
 62
     0
 10
19.771191
 20
20.076555
 30
0.0
 11
19.321191
 21
20.076555
 31
0.0
  0
LINE
  8
0
  6
BYBLOCK
 62
     0
 10
21.436191
 20
20.076555
 30
0.0
 11
21.886191
 21
20.076555
 31
0.0
  0
SOLID
  8
0
  6
BYBLOCK
 62
     0
 10
19.771191
 20
20.151555
 30
0.0
 11
19.771191
 21
20.001555
 31
0.0
 12
20.221191
 22
20.076555
 32
0.0
 13
20.221191
 23
20.076555
 33
0.0
  0
SOLID
  8
0
  6
BYBLOCK
 62
     0
 10
21.436191
 20
20.151555
 30
0.0
 11
21.436191
 21
20.001555
 31
0.0
 12
20.986191
 22
20.076555
 32
0.0
 13
20.986191
 23
20.076555
 33
0.0
  0
TEXT
  8
0
  6
BYBLOCK
 62
     0
 10
22.111191
 20
19.920305
 30
0.0
 40
0.3125
  1
0.255
 41
0.75
  7
TXT
 72
     1
 11
22.56041
 21
20.076555
 31
0.0
 73
     2
  0
POINT
  8
DEFPOINTS
  6
BYBLOCK
 62
     0
 10
20.221191
 20
21.885387
 30
0.0
  0
POINT
  8
DEFPOINTS
  6
BYBLOCK
 62
     0
 10
20.986191
 20
20.913226
 30
0.0
  0
POINT
  8
DEFPOINTS
  6
BYBLOCK
 62
     0
 10
20.986191
 20
20.076555
 30
0.0
  0
ENDBLK
  8
0
  0
BLOCK
  8
0
  2
*D36
 70
    65
 10
0.0
 20
0.0
 30
0.0
  3
*D
  0
LINE
  8
0
  6
BYBLOCK
 62
     0
 10
15.668853
 20
31.628174
 30
0.0
 11
18.180898
 21
31.628174
 31
0.0
  0
LINE
  8
0
  6
BYBLOCK
 62
     0
 10
16.055853
 20
30.128174
 30
0.0
 11
18.180898
 21
30.128174
 31
0.0
  0
LINE
  8
0
  6
BYBLOCK
 62
     0
 10
17.948398
 20
32.078174
 30
0.0
 11
17.948398
 21
32.528174
 31
0.0
  0
LINE
  8
0
  6
BYBLOCK
 62
     0
 10
17.948398
 20
29.678174
 30
0.0
 11
17.948398
 21
29.228174
 31
0.0
  0
SOLID
  8
0
  6
BYBLOCK
 62
     0
 10
17.873398
 20
32.078174
 30
0.0
 11
18.023398
 21
32.078174
 31
0.0
 12
17.948398
 22
31.628174
 32
0.0
 13
17.948398
 23
31.628174
 33
0.0
  0
SOLID
  8
0
  6
BYBLOCK
 62
     0
 10
17.873398
 20
29.678174
 30
0.0
 11
18.023398
 21
29.678174
 31
0.0
 12
17.948398
 22
30.128174
 32
0.0
 13
17.948398
 23
30.128174
 33
0.0
  0
TEXT
  8
0
  6
BYBLOCK
 62
     0
 10
17.557773
 20
30.721924
 30
0.0
 40
0.3125
  1
1.500
 41
0.75
  7
TXT
 72
     1
 11
17.948398
 21
30.878174
 31
0.0
 73
     2
  0
POINT
  8
DEFPOINTS
  6
BYBLOCK
 62
     0
 10
15.512603
 20
31.628174
 30
0.0
  0
POINT
  8
DEFPOINTS
  6
BYBLOCK
 62
     0
 10
15.899603
 20
30.128174
 30
0.0
  0
POINT
  8
DEFPOINTS
  6
BYBLOCK
 62
     0
 10
17.948398
 20
30.128174
 30
0.0
  0
ENDBLK
  8
0
  0
BLOCK
  8
0
  2
*D37
 70
    65
 10
0.0
 20
0.0
 30
0.0
  3
*D
  0
LINE
  8
0
  6
BYBLOCK
 62
     0
 10
15.899603
 20
29.971924
 30
0.0
 11
15.899603
 21
27.824035
 31
0.0
  0
LINE
  8
0
  6
BYBLOCK
 62
     0
 10
12.999603
 20
29.971924
 30
0.0
 11
12.999603
 21
27.824035
 31
0.0
  0
LINE
  8
0
  6
BYBLOCK
 62
     0
 10
15.449603
 20
28.056535
 30
0.0
 11
15.10429
 21
28.056535
 31
0.0
  0
LINE
  8
0
  6
BYBLOCK
 62
     0
 10
13.449603
 20
28.056535
 30
0.0
 11
13.794915
 21
28.056535
 31
0.0
  0
SOLID
  8
0
  6
BYBLOCK
 62
     0
 10
15.449603
 20
28.131535
 30
0.0
 11
15.449603
 21
27.981535
 31
0.0
 12
15.899603
 22
28.056535
 32
0.0
 13
15.899603
 23
28.056535
 33
0.0
  0
SOLID
  8
0
  6
BYBLOCK
 62
     0
 10
13.449603
 20
28.131535
 30
0.0
 11
13.449603
 21
27.981535
 31
0.0
 12
12.999603
 22
28.056535
 32
0.0
 13
12.999603
 23
28.056535
 33
0.0
  0
TEXT
  8
0
  6
BYBLOCK
 62
     0
 10
14.019915
 20
27.900285
 30
0.0
 40
0.3125
  1
2.900
 41
0.75
  7
TXT
 72
     1
 11
14.449603
 21
28.056535
 31
0.0
 73
     2
  0
POINT
  8
DEFPOINTS
  6
BYBLOCK
 62
     0
 10
15.899603
 20
30.128174
 30
0.0
  0
POINT
  8
DEFPOINTS
  6
BYBLOCK
 62
     0
 10
12.999603
 20
30.128174
 30
0.0
  0
POINT
  8
DEFPOINTS
  6
BYBLOCK
 62
     0
 10
12.999603
 20
28.056535
 30
0.0
  0
ENDBLK
  8
0
  0
BLOCK
  8
0
  2
*D38
 70
    65
 10
0.0
 20
0.0
 30
0.0
  3
*D
  0
LINE
  8
0
  6
BYBLOCK
 62
     0
 10
19.548612
 20
22.456307
 30
0.0
 11
17.979643
 21
22.456307
 31
0.0
  0
LINE
  8
0
  6
BYBLOCK
 62
     0
 10
19.494306
 20
21.909549
 30
0.0
 11
17.979643
 21
21.909549
 31
0.0
  0
LINE
  8
0
  6
BYBLOCK
 62
     0
 10
18.212143
 20
22.906307
 30
0.0
 11
18.212143
 21
23.356307
 31
0.0
  0
LINE
  8
0
  6
BYBLOCK
 62
     0
 10
18.212143
 20
21.459549
 30
0.0
 11
18.212143
 21
21.009549
 31
0.0
  0
SOLID
  8
0
  6
BYBLOCK
 62
     0
 10
18.137143
 20
22.906307
 30
0.0
 11
18.287143
 21
22.906307
 31
0.0
 12
18.212143
 22
22.456307
 32
0.0
 13
18.212143
 23
22.456307
 33
0.0
  0
SOLID
  8
0
  6
BYBLOCK
 62
     0
 10
18.137143
 20
21.459549
 30
0.0
 11
18.287143
 21
21.459549
 31
0.0
 12
18.212143
 22
21.909549
 32
0.0
 13
18.212143
 23
21.909549
 33
0.0
  0
TEXT
  8
0
  6
BYBLOCK
 62
     0
 10
17.801987
 20
22.026678
 30
0.0
 40
0.3125
  1
0.182
 41
0.75
  7
TXT
 72
     1
 11
18.212143
 21
22.182928
 31
0.0
 73
     2
  0
POINT
  8
DEFPOINTS
  6
BYBLOCK
 62
     0
 10
19.704862
 20
22.456307
 30
0.0
  0
POINT
  8
DEFPOINTS
  6
BYBLOCK
 62
     0
 10
19.650556
 20
21.909549
 30
0.0
  0
POINT
  8
DEFPOINTS
  6
BYBLOCK
 62
     0
 10
18.212143
 20
21.909549
 30
0.0
  0
ENDBLK
  8
0
  0
BLOCK
  8
0
  2
*D39
 70
    65
 10
0.0
 20
0.0
 30
0.0
  3
*D
  0
LINE
  8
0
  6
BYBLOCK
 62
     0
 10
18.649076
 20
3.228132
 30
0.0
 11
22.434431
 21
3.228132
 31
0.0
  0
LINE
  8
0
  6
BYBLOCK
 62
     0
 10
17.621742
 20
4.211451
 30
0.0
 11
22.434431
 21
4.211451
 31
0.0
  0
LINE
  8
0
  6
BYBLOCK
 62
     0
 10
22.201931
 20
2.778132
 30
0.0
 11
22.201931
 21
2.328132
 31
0.0
  0
LINE
  8
0
  6
BYBLOCK
 62
     0
 10
22.201931
 20
4.661451
 30
0.0
 11
22.201931
 21
5.111451
 31
0.0
  0
SOLID
  8
0
  6
BYBLOCK
 62
     0
 10
22.126931
 20
2.778132
 30
0.0
 11
22.276931
 21
2.778132
 31
0.0
 12
22.201931
 22
3.228132
 32
0.0
 13
22.201931
 23
3.228132
 33
0.0
  0
SOLID
  8
0
  6
BYBLOCK
 62
     0
 10
22.126931
 20
4.661451
 30
0.0
 11
22.276931
 21
4.661451
 31
0.0
 12
22.201931
 22
4.211451
 32
0.0
 13
22.201931
 23
4.211451
 33
0.0
  0
TEXT
  8
0
  6
BYBLOCK
 62
     0
 10
21.791775
 20
3.563541
 30
0.0
 40
0.3125
  1
0.351
 41
0.75
  7
TXT
 72
     1
 11
22.201931
 21
3.719791
 31
0.0
 73
     2
  0
POINT
  8
DEFPOINTS
  6
BYBLOCK
 62
     0
 10
18.492826
 20
3.228132
 30
0.0
  0
POINT
  8
DEFPOINTS
  6
BYBLOCK
 62
     0
 10
17.465492
 20
4.211451
 30
0.0
  0
POINT
  8
DEFPOINTS
  6
BYBLOCK
 62
     0
 10
22.201931
 20
4.211451
 30
0.0
  0
ENDBLK
  8
0
  0
BLOCK
  8
0
  2
*D40
 70
    65
 10
0.0
 20
0.0
 30
0.0
  3
*D
  0
LINE
  8
0
  6
BYBLOCK
 62
     0
 10
8.621272
 20
29.194424
 30
0.0
 11
8.621272
 21
29.523523
 31
0.0
  0
LINE
  8
0
  6
BYBLOCK
 62
     0
 10
8.403272
 20
29.447273
 30
0.0
 11
8.403272
 21
29.523523
 31
0.0
  0
LINE
  8
0
  6
BYBLOCK
 62
     0
 10
9.071272
 20
29.291023
 30
0.0
 11
9.521272
 21
29.291023
 31
0.0
  0
LINE
  8
0
  6
BYBLOCK
 62
     0
 10
7.953272
 20
29.291023
 30
0.0
 11
7.503272
 21
29.291023
 31
0.0
  0
SOLID
  8
0
  6
BYBLOCK
 62
     0
 10
9.071272
 20
29.366023
 30
0.0
 11
9.071272
 21
29.216023
 31
0.0
 12
8.621272
 22
29.291023
 32
0.0
 13
8.621272
 23
29.291023
 33
0.0
  0
SOLID
  8
0
  6
BYBLOCK
 62
     0
 10
7.953272
 20
29.366023
 30
0.0
 11
7.953272
 21
29.216023
 31
0.0
 12
8.403272
 22
29.291023
 32
0.0
 13
8.403272
 23
29.291023
 33
0.0
  0
TEXT
  8
0
  6
BYBLOCK
 62
     0
 10
6.457959
 20
29.134773
 30
0.0
 40
0.3125
  1
0.218
 41
0.75
  7
TXT
 72
     1
 11
6.868116
 21
29.291023
 31
0.0
 73
     2
  0
POINT
  8
DEFPOINTS
  6
BYBLOCK
 62
     0
 10
8.621272
 20
29.038174
 30
0.0
  0
POINT
  8
DEFPOINTS
  6
BYBLOCK
 62
     0
 10
8.403272
 20
29.291023
 30
0.0
  0
POINT
  8
DEFPOINTS
  6
BYBLOCK
 62
     0
 10
8.403272
 20
29.291023
 30
0.0
  0
ENDBLK
  8
0
  0
BLOCK
  8
0
  2
*D41
 70
    65
 10
0.0
 20
0.0
 30
0.0
  3
*D
  0
LINE
  8
0
  6
BYBLOCK
 62
     0
 10
8.621272
 20
31.061924
 30
0.0
 11
8.621272
 21
30.708635
 31
0.0
  0
LINE
  8
0
  6
BYBLOCK
 62
     0
 10
8.403272
 20
31.097385
 30
0.0
 11
8.403272
 21
31.173635
 31
0.0
  0
LINE
  8
0
  6
BYBLOCK
 62
     0
 10
9.071272
 20
30.941135
 30
0.0
 11
9.521272
 21
30.941135
 31
0.0
  0
LINE
  8
0
  6
BYBLOCK
 62
     0
 10
7.953272
 20
30.941135
 30
0.0
 11
7.503272
 21
30.941135
 31
0.0
  0
SOLID
  8
0
  6
BYBLOCK
 62
     0
 10
9.071272
 20
31.016135
 30
0.0
 11
9.071272
 21
30.866135
 31
0.0
 12
8.621272
 22
30.941135
 32
0.0
 13
8.621272
 23
30.941135
 33
0.0
  0
SOLID
  8
0
  6
BYBLOCK
 62
     0
 10
7.953272
 20
31.016135
 30
0.0
 11
7.953272
 21
30.866135
 31
0.0
 12
8.403272
 22
30.941135
 32
0.0
 13
8.403272
 23
30.941135
 33
0.0
  0
TEXT
  8
0
  6
BYBLOCK
 62
     0
 10
6.457959
 20
30.784885
 30
0.0
 40
0.3125
  1
0.218
 41
0.75
  7
TXT
 72
     1
 11
6.868116
 21
30.941135
 31
0.0
 73
     2
  0
POINT
  8
DEFPOINTS
  6
BYBLOCK
 62
     0
 10
8.621272
 20
31.218174
 30
0.0
  0
POINT
  8
DEFPOINTS
  6
BYBLOCK
 62
     0
 10
8.403272
 20
30.941135
 30
0.0
  0
POINT
  8
DEFPOINTS
  6
BYBLOCK
 62
     0
 10
8.403272
 20
30.941135
 30
0.0
  0
ENDBLK
  8
0
  0
BLOCK
  8
0
  2
*D42
 70
    65
 10
0.0
 20
0.0
 30
0.0
  3
*D
  0
LINE
  8
0
  6
BYBLOCK
 62
     0
 10
21.433095
 20
29.31473
 30
0.0
 11
21.433095
 21
29.662496
 31
0.0
  0
LINE
  8
0
  6
BYBLOCK
 62
     0
 10
21.333095
 20
29.214424
 30
0.0
 11
21.333095
 21
29.662496
 31
0.0
  0
LINE
  8
0
  6
BYBLOCK
 62
     0
 10
21.883095
 20
29.429996
 30
0.0
 11
22.333095
 21
29.429996
 31
0.0
  0
LINE
  8
0
  6
BYBLOCK
 62
     0
 10
20.883095
 20
29.429996
 30
0.0
 11
20.433095
 21
29.429996
 31
0.0
  0
SOLID
  8
0
  6
BYBLOCK
 62
     0
 10
21.883095
 20
29.504996
 30
0.0
 11
21.883095
 21
29.354996
 31
0.0
 12
21.433095
 22
29.429996
 32
0.0
 13
21.433095
 23
29.429996
 33
0.0
  0
SOLID
  8
0
  6
BYBLOCK
 62
     0
 10
20.883095
 20
29.504996
 30
0.0
 11
20.883095
 21
29.354996
 31
0.0
 12
21.333095
 22
29.429996
 32
0.0
 13
21.333095
 23
29.429996
 33
0.0
  0
TEXT
  8
0
  6
BYBLOCK
 62
     0
 10
19.465908
 20
29.273746
 30
0.0
 40
0.3125
  1
0.100
 41
0.75
  7
TXT
 72
     1
 11
19.837001
 21
29.429996
 31
0.0
 73
     2
  0
POINT
  8
DEFPOINTS
  6
BYBLOCK
 62
     0
 10
21.433095
 20
29.15848
 30
0.0
  0
POINT
  8
DEFPOINTS
  6
BYBLOCK
 62
     0
 10
21.333095
 20
29.058174
 30
0.0
  0
POINT
  8
DEFPOINTS
  6
BYBLOCK
 62
     0
 10
21.333095
 20
29.429996
 30
0.0
  0
ENDBLK
  8
0
  0
BLOCK
  8
0
  2
*D43
 70
    65
 10
0.0
 20
0.0
 30
0.0
  3
*D
  0
LINE
  8
0
  6
BYBLOCK
 62
     0
 10
18.15235
 20
2.575149
 30
0.0
 11
18.15235
 21
1.022789
 31
0.0
  0
LINE
  8
0
  6
BYBLOCK
 62
     0
 10
17.311299
 20
1.584389
 30
0.0
 11
17.311299
 21
1.022789
 31
0.0
  0
LINE
  8
0
  6
BYBLOCK
 62
     0
 10
18.60235
 20
1.255289
 30
0.0
 11
19.05235
 21
1.255289
 31
0.0
  0
LINE
  8
0
  6
BYBLOCK
 62
     0
 10
16.861299
 20
1.255289
 30
0.0
 11
16.411299
 21
1.255289
 31
0.0
  0
SOLID
  8
0
  6
BYBLOCK
 62
     0
 10
18.60235
 20
1.330289
 30
0.0
 11
18.60235
 21
1.180289
 31
0.0
 12
18.15235
 22
1.255289
 32
0.0
 13
18.15235
 23
1.255289
 33
0.0
  0
SOLID
  8
0
  6
BYBLOCK
 62
     0
 10
16.861299
 20
1.330289
 30
0.0
 11
16.861299
 21
1.180289
 31
0.0
 12
17.311299
 22
1.255289
 32
0.0
 13
17.311299
 23
1.255289
 33
0.0
  0
TEXT
  8
0
  6
BYBLOCK
 62
     0
 10
15.287861
 20
1.099039
 30
0.0
 40
0.3125
  1
0.295
 41
0.75
  7
TXT
 72
     1
 11
15.73708
 21
1.255289
 31
0.0
 73
     2
  0
POINT
  8
DEFPOINTS
  6
BYBLOCK
 62
     0
 10
18.15235
 20
2.731399
 30
0.0
  0
POINT
  8
DEFPOINTS
  6
BYBLOCK
 62
     0
 10
17.311299
 20
1.740639
 30
0.0
  0
POINT
  8
DEFPOINTS
  6
BYBLOCK
 62
     0
 10
17.311299
 20
1.255289
 30
0.0
  0
ENDBLK
  8
0
  0
BLOCK
  8
0
  2
*D44
 70
    65
 10
0.0
 20
0.0
 30
0.0
  3
*D
  0
LINE
  8
0
  6
BYBLOCK
 62
     0
 10
17.621742
 20
4.211451
 30
0.0
 11
23.430563
 21
4.211451
 31
0.0
  0
LINE
  8
0
  6
BYBLOCK
 62
     0
 10
17.621742
 20
2.244813
 30
0.0
 11
23.430563
 21
2.244813
 31
0.0
  0
LINE
  8
0
  6
BYBLOCK
 62
     0
 10
23.198063
 20
4.661451
 30
0.0
 11
23.198063
 21
5.111451
 31
0.0
  0
LINE
  8
0
  6
BYBLOCK
 62
     0
 10
23.198063
 20
1.794813
 30
0.0
 11
23.198063
 21
1.344813
 31
0.0
  0
SOLID
  8
0
  6
BYBLOCK
 62
     0
 10
23.123063
 20
4.661451
 30
0.0
 11
23.273063
 21
4.661451
 31
0.0
 12
23.198063
 22
4.211451
 32
0.0
 13
23.198063
 23
4.211451
 33
0.0
  0
SOLID
  8
0
  6
BYBLOCK
 62
     0
 10
23.123063
 20
1.794813
 30
0.0
 11
23.273063
 21
1.794813
 31
0.0
 12
23.198063
 22
2.244813
 32
0.0
 13
23.198063
 23
2.244813
 33
0.0
  0
TEXT
  8
0
  6
BYBLOCK
 62
     0
 10
22.768376
 20
3.071882
 30
0.0
 40
0.3125
  1
0.702
 41
0.75
  7
TXT
 72
     1
 11
23.198063
 21
3.228132
 31
0.0
 73
     2
  0
POINT
  8
DEFPOINTS
  6
BYBLOCK
 62
     0
 10
17.465492
 20
4.211451
 30
0.0
  0
POINT
  8
DEFPOINTS
  6
BYBLOCK
 62
     0
 10
17.465492
 20
2.244813
 30
0.0
  0
POINT
  8
DEFPOINTS
  6
BYBLOCK
 62
     0
 10
23.198063
 20
2.244813
 30
0.0
  0
ENDBLK
  8
0
  0
BLOCK
  8
0
  2
*D45
 70
    65
 10
0.0
 20
0.0
 30
0.0
  3
*D
  0
LINE
  8
0
  6
BYBLOCK
 62
     0
 10
18.73123
 20
2.71048
 30
0.0
 11
20.641069
 21
2.71048
 31
0.0
  0
LINE
  8
0
  6
BYBLOCK
 62
     0
 10
18.73123
 20
3.745783
 30
0.0
 11
20.641069
 21
3.745783
 31
0.0
  0
LINE
  8
0
  6
BYBLOCK
 62
     0
 10
20.408569
 20
2.26048
 30
0.0
 11
20.408569
 21
1.81048
 31
0.0
  0
LINE
  8
0
  6
BYBLOCK
 62
     0
 10
20.408569
 20
4.195783
 30
0.0
 11
20.408569
 21
4.645783
 31
0.0
  0
LINE
  8
0
  6
BYBLOCK
 62
     0
 10
20.408569
 20
4.645783
 30
0.0
 11
20.858569
 21
4.645783
 31
0.0
  0
SOLID
  8
0
  6
BYBLOCK
 62
     0
 10
20.333569
 20
2.26048
 30
0.0
 11
20.483569
 21
2.26048
 31
0.0
 12
20.408569
 22
2.71048
 32
0.0
 13
20.408569
 23
2.71048
 33
0.0
  0
SOLID
  8
0
  6
BYBLOCK
 62
     0
 10
20.333569
 20
4.195783
 30
0.0
 11
20.483569
 21
4.195783
 31
0.0
 12
20.408569
 22
3.745783
 32
0.0
 13
20.408569
 23
3.745783
 33
0.0
  0
TEXT
  8
0
  6
BYBLOCK
 62
     0
 10
21.083569
 20
4.489533
 30
0.0
 40
0.3125
  1
0.376
 41
0.75
  7
TXT
 72
     1
 11
21.532788
 21
4.645783
 31
0.0
 73
     2
  0
POINT
  8
DEFPOINTS
  6
BYBLOCK
 62
     0
 10
18.57498
 20
2.71048
 30
0.0
  0
POINT
  8
DEFPOINTS
  6
BYBLOCK
 62
     0
 10
18.57498
 20
3.745783
 30
0.0
  0
POINT
  8
DEFPOINTS
  6
BYBLOCK
 62
     0
 10
20.408569
 20
3.745783
 30
0.0
  0
ENDBLK
  8
0
  0
BLOCK
  8
0
  2
*D46
 70
    65
 10
0.0
 20
0.0
 30
0.0
  3
*D
  0
LINE
  8
0
  6
BYBLOCK
 62
     0
 10
18.649076
 20
3.228132
 30
0.0
 11
20.014381
 21
3.228132
 31
0.0
  0
LINE
  8
0
  6
BYBLOCK
 62
     0
 10
18.73123
 20
3.745783
 30
0.0
 11
20.014381
 21
3.745783
 31
0.0
  0
LINE
  8
0
  6
BYBLOCK
 62
     0
 10
19.781881
 20
2.778132
 30
0.0
 11
19.781881
 21
2.328132
 31
0.0
  0
LINE
  8
0
  6
BYBLOCK
 62
     0
 10
19.781881
 20
4.195783
 30
0.0
 11
19.781881
 21
4.645783
 31
0.0
  0
SOLID
  8
0
  6
BYBLOCK
 62
     0
 10
19.706881
 20
2.778132
 30
0.0
 11
19.856881
 21
2.778132
 31
0.0
 12
19.781881
 22
3.228132
 32
0.0
 13
19.781881
 23
3.228132
 33
0.0
  0
SOLID
  8
0
  6
BYBLOCK
 62
     0
 10
19.706881
 20
4.195783
 30
0.0
 11
19.856881
 21
4.195783
 31
0.0
 12
19.781881
 22
3.745783
 32
0.0
 13
19.781881
 23
3.745783
 33
0.0
  0
TEXT
  8
0
  6
BYBLOCK
 62
     0
 10
20.456881
 20
5.150671
 30
0.0
 40
0.3125
  1
0.188
 41
0.75
  7
TXT
 72
     1
 11
20.867038
 21
5.306921
 31
0.0
 73
     2
  0
POINT
  8
DEFPOINTS
  6
BYBLOCK
 62
     0
 10
18.492826
 20
3.228132
 30
0.0
  0
POINT
  8
DEFPOINTS
  6
BYBLOCK
 62
     0
 10
18.57498
 20
3.745783
 30
0.0
  0
POINT
  8
DEFPOINTS
  6
BYBLOCK
 62
     0
 10
19.781881
 20
3.745783
 30
0.0
  0
ENDBLK
  8
0
  0
BLOCK
  8
0
  2
*D47
 70
    65
 10
0.0
 20
0.0
 30
0.0
  3
*D
  0
LINE
  8
0
  6
BYBLOCK
 62
     0
 10
19.703825
 20
8.903272
 30
0.0
 11
19.703825
 21
9.337531
 31
0.0
  0
LINE
  8
0
  6
BYBLOCK
 62
     0
 10
19.593825
 20
8.59775
 30
0.0
 11
19.593825
 21
9.337531
 31
0.0
  0
LINE
  8
0
  6
BYBLOCK
 62
     0
 10
20.153825
 20
9.105031
 30
0.0
 11
20.603825
 21
9.105031
 31
0.0
  0
LINE
  8
0
  6
BYBLOCK
 62
     0
 10
19.143825
 20
9.105031
 30
0.0
 11
18.693825
 21
9.105031
 31
0.0
  0
SOLID
  8
0
  6
BYBLOCK
 62
     0
 10
20.153825
 20
9.180031
 30
0.0
 11
20.153825
 21
9.030031
 31
0.0
 12
19.703825
 22
9.105031
 32
0.0
 13
19.703825
 23
9.105031
 33
0.0
  0
SOLID
  8
0
  6
BYBLOCK
 62
     0
 10
19.143825
 20
9.180031
 30
0.0
 11
19.143825
 21
9.030031
 31
0.0
 12
19.593825
 22
9.105031
 32
0.0
 13
19.593825
 23
9.105031
 33
0.0
  0
TEXT
  8
0
  6
BYBLOCK
 62
     0
 10
17.7657
 20
8.948781
 30
0.0
 40
0.3125
  1
0.110
 41
0.75
  7
TXT
 72
     1
 11
18.117262
 21
9.105031
 31
0.0
 73
     2
  0
POINT
  8
DEFPOINTS
  6
BYBLOCK
 62
     0
 10
19.703825
 20
8.747022
 30
0.0
  0
POINT
  8
DEFPOINTS
  6
BYBLOCK
 62
     0
 10
19.593825
 20
8.4415
 30
0.0
  0
POINT
  8
DEFPOINTS
  6
BYBLOCK
 62
     0
 10
19.593825
 20
9.105031
 30
0.0
  0
ENDBLK
  8
0
  0
BLOCK
  8
0
  2
*D48
 70
    65
 10
0.0
 20
0.0
 30
0.0
  3
*D
  0
LINE
  8
0
  6
BYBLOCK
 62
     0
 10
19.748825
 20
7.85525
 30
0.0
 11
19.748825
 21
6.869606
 31
0.0
  0
LINE
  8
0
  6
BYBLOCK
 62
     0
 10
19.703825
 20
7.95525
 30
0.0
 11
19.703825
 21
6.869606
 31
0.0
  0
LINE
  8
0
  6
BYBLOCK
 62
     0
 10
20.198825
 20
7.102106
 30
0.0
 11
20.648825
 21
7.102106
 31
0.0
  0
LINE
  8
0
  6
BYBLOCK
 62
     0
 10
19.253825
 20
7.102106
 30
0.0
 11
18.803825
 21
7.102106
 31
0.0
  0
SOLID
  8
0
  6
BYBLOCK
 62
     0
 10
20.198825
 20
7.177106
 30
0.0
 11
20.198825
 21
7.027106
 31
0.0
 12
19.748825
 22
7.102106
 32
0.0
 13
19.748825
 23
7.102106
 33
0.0
  0
SOLID
  8
0
  6
BYBLOCK
 62
     0
 10
19.253825
 20
7.177106
 30
0.0
 11
19.253825
 21
7.027106
 31
0.0
 12
19.703825
 22
7.102106
 32
0.0
 13
19.703825
 23
7.102106
 33
0.0
  0
TEXT
  8
0
  6
BYBLOCK
 62
     0
 10
17.71945
 20
6.945856
 30
0.0
 40
0.3125
  1
0.045
 41
0.75
  7
TXT
 72
     1
 11
18.149137
 21
7.102106
 31
0.0
 73
     2
  0
POINT
  8
DEFPOINTS
  6
BYBLOCK
 62
     0
 10
19.748825
 20
8.0115
 30
0.0
  0
POINT
  8
DEFPOINTS
  6
BYBLOCK
 62
     0
 10
19.703825
 20
8.1115
 30
0.0
  0
POINT
  8
DEFPOINTS
  6
BYBLOCK
 62
     0
 10
19.703825
 20
7.102106
 30
0.0
  0
ENDBLK
  8
0
  0
BLOCK
  8
0
  2
*D49
 70
    65
 10
0.0
 20
0.0
 30
0.0
  3
*D
  0
LINE
  8
0
  6
BYBLOCK
 62
     0
 10
19.592575
 20
13.0415
 30
0.0
 11
18.406181
 21
13.0415
 31
0.0
  0
LINE
  8
0
  6
BYBLOCK
 62
     0
 10
19.547575
 20
12.9415
 30
0.0
 11
18.406181
 21
12.9415
 31
0.0
  0
LINE
  8
0
  6
BYBLOCK
 62
     0
 10
18.638681
 20
13.4915
 30
0.0
 11
18.638681
 21
13.9415
 31
0.0
  0
LINE
  8
0
  6
BYBLOCK
 62
     0
 10
18.638681
 20
12.4915
 30
0.0
 11
18.638681
 21
12.0415
 31
0.0
  0
LINE
  8
0
  6
BYBLOCK
 62
     0
 10
18.638681
 20
12.0415
 30
0.0
 11
18.188681
 21
12.0415
 31
0.0
  0
SOLID
  8
0
  6
BYBLOCK
 62
     0
 10
18.563681
 20
13.4915
 30
0.0
 11
18.713681
 21
13.4915
 31
0.0
 12
18.638681
 22
13.0415
 32
0.0
 13
18.638681
 23
13.0415
 33
0.0
  0
SOLID
  8
0
  6
BYBLOCK
 62
     0
 10
18.563681
 20
12.4915
 30
0.0
 11
18.713681
 21
12.4915
 31
0.0
 12
18.638681
 22
12.9415
 32
0.0
 13
18.638681
 23
12.9415
 33
0.0
  0
TEXT
  8
0
  6
BYBLOCK
 62
     0
 10
17.221493
 20
11.88525
 30
0.0
 40
0.3125
  1
0.100
 41
0.75
  7
TXT
 72
     1
 11
17.592587
 21
12.0415
 31
0.0
 73
     2
  0
POINT
  8
DEFPOINTS
  6
BYBLOCK
 62
     0
 10
19.748825
 20
13.0415
 30
0.0
  0
POINT
  8
DEFPOINTS
  6
BYBLOCK
 62
     0
 10
19.703825
 20
12.9415
 30
0.0
  0
POINT
  8
DEFPOINTS
  6
BYBLOCK
 62
     0
 10
18.638681
 20
12.9415
 30
0.0
  0
ENDBLK
  8
0
  0
BLOCK
  8
0
  2
*D50
 70
    65
 10
0.0
 20
0.0
 30
0.0
  3
*D
  0
LINE
  8
0
  6
BYBLOCK
 62
     0
 10
15.555853
 20
28.928174
 30
0.0
 11
18.98894
 21
28.928174
 31
0.0
  0
LINE
  8
0
  6
BYBLOCK
 62
     0
 10
15.668853
 20
28.628174
 30
0.0
 11
18.98894
 21
28.628174
 31
0.0
  0
LINE
  8
0
  6
BYBLOCK
 62
     0
 10
18.75644
 20
29.378174
 30
0.0
 11
18.75644
 21
29.828174
 31
0.0
  0
LINE
  8
0
  6
BYBLOCK
 62
     0
 10
18.75644
 20
28.178174
 30
0.0
 11
18.75644
 21
27.728174
 31
0.0
  0
LINE
  8
0
  6
BYBLOCK
 62
     0
 10
18.75644
 20
27.728174
 30
0.0
 11
18.30644
 21
27.728174
 31
0.0
  0
SOLID
  8
0
  6
BYBLOCK
 62
     0
 10
18.68144
 20
29.378174
 30
0.0
 11
18.83144
 21
29.378174
 31
0.0
 12
18.75644
 22
28.928174
 32
0.0
 13
18.75644
 23
28.928174
 33
0.0
  0
SOLID
  8
0
  6
BYBLOCK
 62
     0
 10
18.68144
 20
28.178174
 30
0.0
 11
18.83144
 21
28.178174
 31
0.0
 12
18.75644
 22
28.628174
 32
0.0
 13
18.75644
 23
28.628174
 33
0.0
  0
TEXT
  8
0
  6
BYBLOCK
 62
     0
 10
17.261128
 20
27.571924
 30
0.0
 40
0.3125
  1
0.300
 41
0.75
  7
TXT
 72
     1
 11
17.671284
 21
27.728174
 31
0.0
 73
     2
  0
POINT
  8
DEFPOINTS
  6
BYBLOCK
 62
     0
 10
15.399603
 20
28.928174
 30
0.0
  0
POINT
  8
DEFPOINTS
  6
BYBLOCK
 62
     0
 10
15.512603
 20
28.628174
 30
0.0
  0
POINT
  8
DEFPOINTS
  6
BYBLOCK
 62
     0
 10
18.75644
 20
28.628174
 30
0.0
  0
ENDBLK
  8
0
  0
BLOCK
  8
0
  2
*D51
 70
    65
 10
0.0
 20
0.0
 30
0.0
  3
*D
  0
LINE
  8
0
  6
BYBLOCK
 62
     0
 10
9.936451
 20
31.601413
 30
0.0
 11
10.769169
 21
31.586878
 31
0.0
  0
LINE
  8
0
  6
BYBLOCK
 62
     0
 10
8.575978
 20
31.628174
 30
0.0
 11
10.769529
 21
31.628174
 31
0.0
  0
ARC
  8
0
  6
BYBLOCK
 62
     0
 10
8.403272
 20
31.628174
 30
0.0
 40
2.133757
 50
334.788136
 51
346.894068
  0
ARC
  8
0
  6
BYBLOCK
 62
     0
 10
8.403272
 20
31.628174
 30
0.0
 40
2.133757
 50
12.105932
 51
24.211864
  0
SOLID
  8
0
  6
BYBLOCK
 62
     0
 10
10.407018
 20
31.153549
 30
0.0
 11
10.555883
 21
31.135131
 31
0.0
 12
10.536704
 22
31.590935
 32
0.0
 13
10.536704
 23
31.590935
 33
0.0
  0
SOLID
  8
0
  6
BYBLOCK
 62
     0
 10
10.56416
 20
32.083574
 30
0.0
 11
10.414996
 21
32.067757
 31
0.0
 12
10.537029
 22
31.628174
 32
0.0
 13
10.537029
 23
31.628174
 33
0.0
  0
TEXT
  8
0
  6
BYBLOCK
 62
     0
 10
10.065164
 20
32.401988
 30
0.0
 40
0.3125
  1
1%%D
 41
0.75
  7
TXT
 72
     1
 11
10.182352
 21
32.558238
 31
0.0
 73
     2
  0
POINT
  8
DEFPOINTS
  6
BYBLOCK
 62
     0
 10
10.53687
 20
31.60207
 30
0.0
  0
POINT
  8
DEFPOINTS
  6
BYBLOCK
 62
     0
 10
8.403272
 20
31.628174
 30
0.0
  0
POINT
  8
DEFPOINTS
  6
BYBLOCK
 62
     0
 10
8.403272
 20
31.628174
 30
0.0
  0
POINT
  8
DEFPOINTS
  6
BYBLOCK
 62
     0
 10
9.780225
 20
31.60414
 30
0.0
  0
POINT
  8
DEFPOINTS
  6
BYBLOCK
 62
     0
 10
8.419728
 20
31.628174
 30
0.0
  0
ENDBLK
  8
0
  0
ENDSEC
  0
SECTION
  2
ENTITIES
  0
TEXT
  8
DIM
 10
0.294865
 20
14.485987
 30
0.0
 40
0.166625
  1

  0
TEXT
  8
DIM
 10
4.888364
 20
14.120198
 30
0.0
 40
0.166625
  1

  0
TEXT
  8
DIM
 10
14.188417
 20
14.485987
 30
0.0
 40
0.166625
  1

  0
TEXT
  8
DIM
 10
18.781916
 20
14.120198
 30
0.0
 40
0.166625
  1

  0
TEXT
  8
DIM
 10
19.106916
 20
2.560623
 30
0.0
 40
0.166625
  1

  0
TEXT
  8
DIM
 10
16.334882
 20
2.980739
 30
0.0
 40
0.166625
  1

  0
TEXT
  8
DIM
 10
17.914786
 20
12.963561
 30
0.0
 40
0.166625
  1

  0
LINE
  8
TITLE
 10
0.155
 20
19.733954
 30
0.0
 11
25.145
 21
19.733954
 31
0.0
  0
LINE
  8
TITLE
 10
0.154879
 20
19.579076
 30
0.0
 11
25.145
 21
19.579076
 31
0.0
  0
LINE
  8
TITLE
 10
0.154879
 20
18.534894
 30
0.0
 11
25.125306
 21
18.534894
 31
0.0
  0
LINE
  8
TITLE
 10
2.02841
 20
18.534894
 30
0.0
 11
2.02841
 21
19.579076
 31
0.0
  0
LINE
  8
TITLE
 10
12.640093
 20
19.579076
 30
0.0
 11
12.640093
 21
18.534894
 31
0.0
  0
LINE
  8
TITLE
 10
12.794971
 20
19.579076
 30
0.0
 11
12.794971
 21
18.534894
 31
0.0
  0
LINE
  8
TITLE
 10
14.668503
 20
19.579076
 30
0.0
 11
14.668503
 21
18.534894
 31
0.0
  0
TEXT
  8
TEXT
 10
13.302049
 20
19.155439
 30
0.0
 40
0.3125
  1
PART
 41
0.75
  7
TXT
 72
     1
 11
13.731737
 21
19.155439
 31
0.0
  0
TEXT
  8
TEXT
 10
13.497362
 20
18.635014
 30
0.0
 40
0.3125
  1
No.
 41
0.75
  7
TXT
 72
     1
 11
13.731737
 21
18.635014
 31
0.0
  0
TEXT
  8
TEXT
 10
0.661957
 20
19.155439
 30
0.0
 40
0.3125
  1
PART
 41
0.75
  7
TXT
 72
     1
 11
1.091644
 21
19.155439
 31
0.0
  0
TEXT
  8
TEXT
 10
0.661957
 20
18.635014
 30
0.0
 40
0.3125
  1
NAME
 41
0.75
  7
TXT
 72
     1
 11
1.091644
 21
18.635014
 31
0.0
  0
TEXT
  8
TEXT
 10
4.800603
 20
37.847604
 30
0.0
 40
0.389792
  1
UTILIBOX  (STYLE D)
 41
0.75
  7
TXT
 72
     1
 11
7.334251
 21
37.847604
 31
0.0
  0
TEXT
  8
TEXT
 10
16.583673
 20
37.847604
 30
0.0
 40
0.389792
  1
CU-742-MB  &  CU-744-MB
 41
0.75
  7
TXT
 72
     1
 11
19.896905
 21
37.847604
 31
0.0
  0
TEXT
  8
TEXT
 10
0.662813
 20
37.650198
 30
0.0
 40
0.3125
  1
NAME
 41
0.75
  7
TXT
 72
     1
 11
1.0925
 21
37.650198
 31
0.0
  0
TEXT
  8
TEXT
 10
0.662813
 20
38.171031
 30
0.0
 40
0.3125
  1
PART
 41
0.75
  7
TXT
 72
     1
 11
1.0925
 21
38.171031
 31
0.0
  0
TEXT
  8
TEXT
 10
13.508125
 20
37.650198
 30
0.0
 40
0.3125
  1
No.
 41
0.75
  7
TXT
 72
     1
 11
13.7425
 21
37.650198
 31
0.0
  0
TEXT
  8
TEXT
 10
13.312813
 20
38.171031
 30
0.0
 40
0.3125
  1
PART
 41
0.75
  7
TXT
 72
     1
 11
13.7425
 21
38.171031
 31
0.0
  0
LINE
  8
TITLE
 10
14.68
 20
38.595
 30
0.0
 11
14.68
 21
37.55
 31
0.0
  0
LINE
  8
TITLE
 10
12.805
 20
38.595
 30
0.0
 11
12.805
 21
37.55
 31
0.0
  0
LINE
  8
TITLE
 10
12.65
 20
38.595
 30
0.0
 11
12.65
 21
37.55
 31
0.0
  0
LINE
  8
TITLE
 10
2.03
 20
37.55
 30
0.0
 11
2.03
 21
38.595
 31
0.0
  0
LINE
  8
TITLE
 10
0.155
 20
37.55
 30
0.0
 11
25.145
 21
37.55
 31
0.0
  0
LINE
  8
TITLE
 10
25.145
 20
0.155
 30
0.0
 11
0.155
 21
0.155
 31
0.0
  0
LINE
  8
TITLE
 10
0.155
 20
38.595
 30
0.0
 11
25.145
 21
38.595
 31
0.0
  0
LINE
  8
TITLE
 10
0.155
 20
0.155
 30
0.0
 11
0.155
 21
19.579076
 31
0.0
  0
LINE
  8
TITLE
 10
0.0
 20
0.0
 30
0.0
 11
0.0
 21
38.75
 31
0.0
  0
LINE
  8
TITLE
 10
25.3
 20
0.0
 30
0.0
 11
0.0
 21
0.0
 31
0.0
  0
LINE
  8
TITLE
 10
25.3
 20
38.75
 30
0.0
 11
25.3
 21
0.0
 31
0.0
  0
LINE
  8
TITLE
 10
0.0
 20
38.75
 30
0.0
 11
25.3
 21
38.75
 31
0.0
  0
LINE
  8
TITLE
 10
25.145
 20
38.595
 30
0.0
 11
25.145
 21
19.733954
 31
0.0
  0
LINE
  8
TITLE
 10
0.155
 20
19.733954
 30
0.0
 11
0.155
 21
38.595
 31
0.0
  0
LINE
  8
TITLE
 10
25.145
 20
19.579076
 30
0.0
 11
25.145
 21
0.155
 31
0.0
  0
TEXT
  8
TEXT
 10
4.790696
 20
18.832498
 30
0.0
 40
0.389792
  1
UTILIBOX  (STYLE D)
 41
0.75
  7
TXT
 72
     1
 11
7.324344
 21
18.832498
 31
0.0
  0
TEXT
  8
TEXT
 10
16.573765
 20
18.832498
 30
0.0
 40
0.389792
  1
CU-743-MB  &  CU-745-MB
 41
0.75
  7
TXT
 72
     1
 11
19.886997
 21
18.832498
 31
0.0
  0
LINE
  8
OBJECT
 10
1.746289
 20
13.0415
 30
0.0
 11
3.897289
 21
13.0415
 31
0.0
  0
LINE
  8
OBJECT
 10
4.084289
 20
12.8545
 30
0.0
 11
4.084289
 21
8.1985
 31
0.0
  0
LINE
  8
OBJECT
 10
3.897289
 20
8.0115
 30
0.0
 11
1.746289
 21
8.0115
 31
0.0
  0
LINE
  8
OBJECT
 10
1.559289
 20
8.1985
 30
0.0
 11
1.559289
 21
12.8545
 31
0.0
  0
LINE
  8
OBJECT
 10
1.659289
 20
8.1985
 30
0.0
 11
1.659289
 21
12.8545
 31
0.0
  0
LINE
  8
OBJECT
 10
3.897289
 20
8.1115
 30
0.0
 11
1.746289
 21
8.1115
 31
0.0
  0
LINE
  8
OBJECT
 10
3.984289
 20
12.8545
 30
0.0
 11
3.984289
 21
8.1985
 31
0.0
  0
LINE
  8
OBJECT
 10
1.746289
 20
12.9415
 30
0.0
 11
3.897289
 21
12.9415
 31
0.0
  0
ARC
  8
OBJECT
 10
1.746289
 20
8.1985
 30
0.0
 40
0.187
 50
180.0
 51
270.0
  0
ARC
  8
OBJECT
 10
3.897289
 20
8.1985
 30
0.0
 40
0.187
 50
270.0
 51
0.0
  0
ARC
  8
OBJECT
 10
3.897289
 20
12.8545
 30
0.0
 40
0.187
 50
0.0
 51
90.0
  0
ARC
  8
OBJECT
 10
1.746289
 20
12.8545
 30
0.0
 40
0.187
 50
90.0
 51
180.0
  0
ARC
  8
OBJECT
 10
1.746289
 20
8.1985
 30
0.0
 40
0.087
 50
180.0
 51
270.0
  0
ARC
  8
OBJECT
 10
3.897289
 20
8.1985
 30
0.0
 40
0.087
 50
270.0
 51
0.0
  0
ARC
  8
OBJECT
 10
3.897289
 20
12.8545
 30
0.0
 40
0.087
 50
0.0
 51
90.0
  0
ARC
  8
OBJECT
 10
1.746289
 20
12.8545
 30
0.0
 40
0.087
 50
90.0
 51
180.0
  0
CIRCLE
  8
OBJECT
 10
3.784289
 20
8.3115
 30
0.0
 40
0.045
  0
CIRCLE
  8
OBJECT
 10
3.784289
 20
8.3115
 30
0.0
 40
0.11
  0
LINE
  8
OBJECT
 10
3.880963
 20
8.259021
 30
0.0
 11
3.976799
 21
8.163185
 31
0.0
  0
LINE
  8
OBJECT
 10
3.836769
 20
8.214826
 30
0.0
 11
3.932605
 21
8.118991
 31
0.0
  0
LINE
  8
OBJECT
 10
1.806809
 20
8.214826
 30
0.0
 11
1.710974
 21
8.118991
 31
0.0
  0
LINE
  8
OBJECT
 10
1.762615
 20
8.259021
 30
0.0
 11
1.666779
 21
8.163185
 31
0.0
  0
CIRCLE
  8
OBJECT
 10
1.859289
 20
8.3115
 30
0.0
 40
0.11
  0
CIRCLE
  8
OBJECT
 10
1.859289
 20
8.3115
 30
0.0
 40
0.045
  0
LINE
  8
OBJECT
 10
3.836769
 20
12.838174
 30
0.0
 11
3.932605
 21
12.93401
 31
0.0
  0
LINE
  8
OBJECT
 10
3.880963
 20
12.79398
 30
0.0
 11
3.976799
 21
12.889816
 31
0.0
  0
CIRCLE
  8
OBJECT
 10
3.784289
 20
12.7415
 30
0.0
 40
0.11
  0
CIRCLE
  8
OBJECT
 10
3.784289
 20
12.7415
 30
0.0
 40
0.045
  0
CIRCLE
  8
OBJECT
 10
1.859289
 20
12.7415
 30
0.0
 40
0.045
  0
CIRCLE
  8
OBJECT
 10
1.859289
 20
12.7415
 30
0.0
 40
0.11
  0
LINE
  8
OBJECT
 10
1.762615
 20
12.79398
 30
0.0
 11
1.666779
 21
12.889816
 31
0.0
  0
LINE
  8
OBJECT
 10
1.806809
 20
12.838174
 30
0.0
 11
1.710974
 21
12.93401
 31
0.0
  0
LINE
  8
OBJECT
 10
8.230122
 20
8.0115
 30
0.0
 11
8.230122
 21
13.0415
 31
0.0
  0
LINE
  8
OBJECT
 10
9.729893
 20
8.160516
 30
0.0
 11
9.729893
 21
12.892485
 31
0.0
  0
LINE
  8
OBJECT
 10
8.230122
 20
13.0415
 30
0.0
 11
9.607075
 21
13.017466
 31
0.0
  0
LINE
  8
HIDDEN
 10
9.629893
 20
8.160516
 30
0.0
 11
9.629893
 21
12.892485
 31
0.0
  0
LINE
  8
HIDDEN
 10
8.230122
 20
12.941485
 30
0.0
 11
9.60533
 21
12.917481
 31
0.0
  0
LINE
  8
HIDDEN
 10
8.230122
 20
8.111516
 30
0.0
 11
9.60533
 21
8.13552
 31
0.0
  0
LINE
  8
OBJECT
 10
8.230122
 20
8.0115
 30
0.0
 11
9.607075
 21
8.035535
 31
0.0
  0
LINE
  8
HIDDEN
 10
8.448122
 20
12.6315
 30
0.0
 11
8.448122
 21
12.8515
 31
0.0
  0
LINE
  8
HIDDEN
 10
8.448122
 20
12.8515
 30
0.0
 11
9.629893
 21
12.8515
 31
0.0
  0
LINE
  8
HIDDEN
 10
8.448122
 20
12.6315
 30
0.0
 11
9.629893
 21
12.6315
 31
0.0
  0
LINE
  8
HIDDEN
 10
8.448122
 20
8.4215
 30
0.0
 11
8.448122
 21
8.2015
 31
0.0
  0
LINE
  8
HIDDEN
 10
8.448122
 20
8.2015
 30
0.0
 11
9.629893
 21
8.2015
 31
0.0
  0
LINE
  8
HIDDEN
 10
8.448122
 20
8.4215
 30
0.0
 11
9.629893
 21
8.4215
 31
0.0
  0
ARC
  8
OBJECT
 10
9.604893
 20
8.160516
 30
0.0
 40
0.125
 50
271.0
 51
0.0
  0
ARC
  8
OBJECT
 10
9.604893
 20
12.892485
 30
0.0
 40
0.125
 50
0.0
 51
89.0
  0
ARC
  8
HIDDEN
 10
9.604893
 20
8.160516
 30
0.0
 40
0.025
 50
271.0
 51
0.0
  0
ARC
  8
HIDDEN
 10
9.604893
 20
12.892485
 30
0.0
 40
0.025
 50
0.0
 51
89.0
  0
ARC
  8
OBJECT
 10
12.558867
 20
12.8545
 30
0.0
 40
0.087
 50
90.0
 51
180.0
  0
ARC
  8
OBJECT
 10
14.709867
 20
12.8545
 30
0.0
 40
0.087
 50
0.0
 51
90.0
  0
ARC
  8
OBJECT
 10
14.709867
 20
8.1985
 30
0.0
 40
0.087
 50
270.0
 51
0.0
  0
ARC
  8
OBJECT
 10
12.558867
 20
8.1985
 30
0.0
 40
0.087
 50
180.0
 51
270.0
  0
ARC
  8
OBJECT
 10
12.558867
 20
12.8545
 30
0.0
 40
0.187
 50
90.0
 51
180.0
  0
ARC
  8
OBJECT
 10
14.709867
 20
12.8545
 30
0.0
 40
0.187
 50
0.0
 51
90.0
  0
ARC
  8
OBJECT
 10
14.709867
 20
8.1985
 30
0.0
 40
0.187
 50
270.0
 51
0.0
  0
ARC
  8
OBJECT
 10
12.558867
 20
8.1985
 30
0.0
 40
0.187
 50
180.0
 51
270.0
  0
LINE
  8
OBJECT
 10
12.558867
 20
12.9415
 30
0.0
 11
14.709867
 21
12.9415
 31
0.0
  0
LINE
  8
OBJECT
 10
14.796867
 20
12.8545
 30
0.0
 11
14.796867
 21
8.1985
 31
0.0
  0
LINE
  8
OBJECT
 10
14.709867
 20
8.1115
 30
0.0
 11
12.558867
 21
8.1115
 31
0.0
  0
LINE
  8
OBJECT
 10
12.471867
 20
8.1985
 30
0.0
 11
12.471867
 21
12.8545
 31
0.0
  0
LINE
  8
OBJECT
 10
12.371867
 20
8.1985
 30
0.0
 11
12.371867
 21
8.911004
 31
0.0
  0
LINE
  8
OBJECT
 10
14.709867
 20
8.0115
 30
0.0
 11
12.558867
 21
8.0115
 31
0.0
  0
LINE
  8
OBJECT
 10
12.558867
 20
13.0415
 30
0.0
 11
14.709867
 21
13.0415
 31
0.0
  0
CIRCLE
  8
OBJECT
 10
12.671867
 20
8.3115
 30
0.0
 40
0.0625
  0
CIRCLE
  8
OBJECT
 10
12.671867
 20
8.3115
 30
0.0
 40
0.13
  0
CIRCLE
  8
OBJECT
 10
14.596867
 20
8.3115
 30
0.0
 40
0.13
  0
CIRCLE
  8
OBJECT
 10
14.596867
 20
8.3115
 30
0.0
 40
0.0625
  0
CIRCLE
  8
OBJECT
 10
14.596867
 20
12.7415
 30
0.0
 40
0.0625
  0
CIRCLE
  8
OBJECT
 10
14.596867
 20
12.7415
 30
0.0
 40
0.13
  0
CIRCLE
  8
OBJECT
 10
12.671867
 20
12.7415
 30
0.0
 40
0.13
  0
CIRCLE
  8
OBJECT
 10
12.671867
 20
12.7415
 30
0.0
 40
0.0625
  0
LINE
  8
OBJECT
 10
14.896867
 20
12.8545
 30
0.0
 11
14.896867
 21
12.141997
 31
0.0
  0
LINE
  8
OBJECT
 10
19.703825
 20
12.9415
 30
0.0
 11
19.748825
 21
12.9415
 31
0.0
  0
LINE
  8
OBJECT
 10
19.748825
 20
8.1115
 30
0.0
 11
19.703825
 21
8.1115
 31
0.0
  0
LINE
  8
OBJECT
 10
19.748825
 20
13.0415
 30
0.0
 11
19.768825
 21
13.0415
 31
0.0
  0
LINE
  8
OBJECT
 10
19.768825
 20
8.0115
 30
0.0
 11
19.748825
 21
8.0115
 31
0.0
  0
LINE
  8
OBJECT
 10
19.748825
 20
12.060198
 30
0.0
 11
19.863825
 21
12.060198
 31
0.0
  0
LINE
  8
OBJECT
 10
19.748825
 20
11.660198
 30
0.0
 11
19.863825
 21
11.660198
 31
0.0
  0
LINE
  8
OBJECT
 10
19.748825
 20
11.479504
 30
0.0
 11
19.863825
 21
11.479504
 31
0.0
  0
LINE
  8
OBJECT
 10
19.748825
 20
12.240893
 30
0.0
 11
19.863825
 21
12.240893
 31
0.0
  0
LINE
  8
OBJECT
 10
19.703825
 20
12.9415
 30
0.0
 11
19.703825
 21
8.1115
 31
0.0
  0
LINE
  8
OBJECT
 10
19.748825
 20
13.0415
 30
0.0
 11
19.748825
 21
8.0115
 31
0.0
  0
LINE
  8
OBJECT
 10
19.863825
 20
12.9465
 30
0.0
 11
19.863825
 21
8.1065
 31
0.0
  0
LINE
  8
OBJECT
 10
19.593825
 20
8.4415
 30
0.0
 11
19.593825
 21
8.1815
 31
0.0
  0
LINE
  8
OBJECT
 10
19.593825
 20
8.4415
 30
0.0
 11
19.703825
 21
8.4415
 31
0.0
  0
LINE
  8
OBJECT
 10
19.593825
 20
8.1815
 30
0.0
 11
19.703825
 21
8.1815
 31
0.0
  0
LINE
  8
HIDDEN
 10
19.593825
 20
8.374
 30
0.0
 11
19.754825
 21
8.374
 31
0.0
  0
LINE
  8
HIDDEN
 10
19.593825
 20
8.249
 30
0.0
 11
19.754825
 21
8.249
 31
0.0
  0
LINE
  8
HIDDEN
 10
19.754825
 20
8.424
 30
0.0
 11
19.863825
 21
8.424
 31
0.0
  0
LINE
  8
HIDDEN
 10
19.754825
 20
8.199
 30
0.0
 11
19.863825
 21
8.199
 31
0.0
  0
LINE
  8
HIDDEN
 10
19.754825
 20
12.854
 30
0.0
 11
19.863825
 21
12.854
 31
0.0
  0
LINE
  8
HIDDEN
 10
19.754825
 20
12.629
 30
0.0
 11
19.863825
 21
12.629
 31
0.0
  0
LINE
  8
HIDDEN
 10
19.593825
 20
12.804
 30
0.0
 11
19.754825
 21
12.804
 31
0.0
  0
LINE
  8
HIDDEN
 10
19.593825
 20
12.679
 30
0.0
 11
19.754825
 21
12.679
 31
0.0
  0
LINE
  8
OBJECT
 10
19.593825
 20
12.8715
 30
0.0
 11
19.703825
 21
12.8715
 31
0.0
  0
LINE
  8
OBJECT
 10
19.593825
 20
12.6115
 30
0.0
 11
19.703825
 21
12.6115
 31
0.0
  0
LINE
  8
OBJECT
 10
19.593825
 20
12.6115
 30
0.0
 11
19.593825
 21
12.8715
 31
0.0
  0
ARC
  8
OBJECT
 10
23.985213
 20
12.892485
 30
0.0
 40
0.125
 50
0.0
 51
89.0
  0
ARC
  8
OBJECT
 10
23.985213
 20
8.160516
 30
0.0
 40
0.125
 50
271.0
 51
0.0
  0
LINE
  8
OBJECT
 10
22.610442
 20
8.0115
 30
0.0
 11
23.987395
 21
8.035535
 31
0.0
  0
LINE
  8
OBJECT
 10
22.610442
 20
13.0415
 30
0.0
 11
23.987395
 21
13.017466
 31
0.0
  0
LINE
  8
OBJECT
 10
24.110213
 20
8.160516
 30
0.0
 11
24.110213
 21
12.892485
 31
0.0
  0
LINE
  8
OBJECT
 10
22.610442
 20
8.0115
 30
0.0
 11
22.610442
 21
13.0415
 31
0.0
  0
ARC
  8
OBJECT
 10
22.605442
 20
12.9465
 30
0.0
 40
0.095
 50
90.0
 51
180.0
  0
ARC
  8
OBJECT
 10
22.605442
 20
8.1065
 30
0.0
 40
0.095
 50
180.0
 51
270.0
  0
LINE
  8
OBJECT
 10
22.510442
 20
12.9465
 30
0.0
 11
22.510442
 21
8.1065
 31
0.0
  0
LINE
  8
OBJECT
 10
22.610442
 20
12.240893
 30
0.0
 11
22.510442
 21
12.240893
 31
0.0
  0
LINE
  8
OBJECT
 10
22.610442
 20
11.479504
 30
0.0
 11
22.510442
 21
11.479504
 31
0.0
  0
LINE
  8
OBJECT
 10
22.610442
 20
11.660198
 30
0.0
 11
22.510442
 21
11.660198
 31
0.0
  0
LINE
  8
OBJECT
 10
22.610442
 20
12.060198
 30
0.0
 11
22.510442
 21
12.060198
 31
0.0
  0
LINE
  8
OBJECT
 10
22.605442
 20
8.0115
 30
0.0
 11
22.610442
 21
8.0115
 31
0.0
  0
LINE
  8
OBJECT
 10
22.610442
 20
13.0415
 30
0.0
 11
22.605442
 21
13.0415
 31
0.0
  0
DIMENSION
  8
DIM
  2
*D14
 10
1.559289
 20
14.149473
 30
0.0
 11
2.821789
 21
14.149473
 31
0.0
 12
-0.411401
 22
0.0
 32
0.0
  1
<>
 13
4.084289
 23
12.8545
 33
0.0
 14
1.559289
 24
12.8545
 34
0.0
  3
DIM
  0
DIMENSION
  8
DIM
  2
*D10
 10
0.785505
 20
8.0115
 30
0.0
 11
0.785505
 21
10.5265
 31
0.0
 12
-0.411401
 22
0.0
 32
0.0
  1
<>
 13
1.746289
 23
13.0415
 33
0.0
 14
1.746289
 24
8.0115
 34
0.0
 50
90.0
  3
STD
  0
DIMENSION
  8
DIM
  2
*D0
 10
2.819157
 20
8.0115
 30
0.0
 11
1.773064
 21
7.1115
 31
0.0
 12
-0.912299
 22
-2.491884
 32
0.0
 13
2.877237
 23
8.1115
 33
0.0
 14
2.877237
 24
8.0115
 34
0.0
 50
90.0
  3
STD
  0
DIMENSION
  8
DIM
  2
*D15
 10
22.510442
 20
7.519813
 30
0.0
 11
23.310328
 21
7.519813
 31
0.0
 12
0.109707
 22
5.983373
 32
0.0
  1
A
 13
24.110213
 23
8.160516
 33
0.0
 14
22.510442
 24
8.1065
 34
0.0
  3
DIM
  0
DIMENSION
  8
DIM
  2
*D7
 10
4.084289
 20
9.862332
 30
0.0
 11
5.619445
 21
9.862332
 31
0.0
 12
-0.411401
 22
-2.491884
 32
0.0
 13
3.784289
 23
8.3115
 33
0.0
 14
4.084289
 24
9.875235
 34
0.0
  3
STD
  0
DIMENSION
  8
DIM
  2
*D1
 10
4.972112
 20
8.0115
 30
0.0
 11
5.868132
 21
7.1115
 31
0.0
 12
-0.411401
 22
-2.491884
 32
0.0
 70
   128
 13
3.784289
 23
8.3115
 33
0.0
 14
3.897289
 24
8.0115
 34
0.0
 50
90.0
  3
STD
  0
LINE
  8
DIM
 10
4.972112
 20
7.1115
 30
0.0
 11
5.309299
 21
7.1115
 31
0.0
  0
DIMENSION
  8
DIM
  2
*D2
 10
8.230122
 20
11.872243
 30
0.0
 11
6.694966
 21
11.872243
 31
0.0
 12
0.320742
 22
-2.491884
 32
0.0
 13
8.448122
 23
12.6315
 33
0.0
 14
8.230122
 24
11.872243
 34
0.0
  3
STD
  0
DIMENSION
  8
DIM
  2
*D13
 10
5.383513
 20
13.0415
 30
0.0
 11
6.279533
 21
13.9415
 31
0.0
 12
-0.411401
 22
0.0
 32
0.0
 70
   128
 13
3.784289
 23
12.7415
 33
0.0
 14
3.897289
 24
13.0415
 34
0.0
 50
90.0
  3
STD
  0
LINE
  8
DIM
 10
5.383513
 20
13.9415
 30
0.0
 11
5.751353
 21
13.9415
 31
0.0
  0
DIMENSION
  8
DIM
  2
*D6
 10
14.896867
 20
9.728873
 30
0.0
 11
16.432023
 21
9.728873
 31
0.0
 12
0.495294
 22
-2.491884
 32
0.0
 13
14.596867
 23
8.3115
 33
0.0
 14
14.896867
 24
9.175693
 34
0.0
  3
STD
  0
DIMENSION
  8
DIM
  2
*D4
 10
15.78953
 20
8.0115
 30
0.0
 11
14.704373
 21
7.1115
 31
0.0
 12
0.955095
 22
-2.491884
 32
0.0
 13
14.596867
 23
8.3115
 33
0.0
 14
14.709867
 24
8.0115
 34
0.0
 50
90.0
  3
STD
  0
DIMENSION
  8
DIM
  2
*D16
 10
15.78953
 20
13.0415
 30
0.0
 11
16.874686
 21
14.604348
 31
0.0
 12
-1.014788
 22
0.0
 32
0.0
 70
   128
 13
14.596867
 23
12.7415
 33
0.0
 14
14.709867
 24
13.0415
 34
0.0
 50
90.0
  3
STD
  0
DIMENSION
  8
DIM
  2
*D12
 10
19.863825
 20
14.649431
 30
0.0
 11
21.359919
 21
14.649431
 31
0.0
 12
-0.24684
 22
0.0
 32
0.0
  1
<>
 13
19.748825
 23
13.0415
 33
0.0
 14
19.863825
 24
12.9465
 34
0.0
  3
STD
  0
DIMENSION
  8
DIM
  2
*D49
 10
18.638681
 20
12.9415
 30
0.0
 11
17.592587
 21
12.0415
 31
0.0
 13
19.748825
 23
13.0415
 33
0.0
 14
19.703825
 24
12.9415
 34
0.0
 50
90.0
  3
STD
  0
DIMENSION
  8
DIM
  2
*D48
 10
19.703825
 20
7.102106
 30
0.0
 11
18.149137
 21
7.102106
 31
0.0
 13
19.748825
 23
8.0115
 33
0.0
 14
19.703825
 24
8.1115
 34
0.0
  3
STD
  0
DIMENSION
  8
DIM
  2
*D11
 10
9.729893
 20
7.09798
 30
0.0
 11
8.980008
 21
7.09798
 31
0.0
 12
-0.219414
 22
0.0
 32
0.0
  1
B
 13
8.230122
 23
8.0115
 33
0.0
 14
9.729893
 24
8.160516
 34
0.0
  3
DIM
  0
ARC
  8
OBJECT
 10
19.768825
 20
8.1065
 30
0.0
 40
0.095
 50
270.0
 51
0.0
  0
ARC
  8
OBJECT
 10
19.768825
 20
12.9465
 30
0.0
 40
0.095
 50
0.0
 51
90.0
  0
TEXT
  8
DIM
 10
17.731644
 20
8.52736
 30
0.0
 40
0.3125
  1
TYP.
 41
0.75
  7
TXT
  0
TEXT
  8
DIM
 10
21.368874
 20
13.52953
 30
0.0
 40
0.3125
  1
0.095 R.
 41
0.75
  7
TXT
  0
TEXT
  8
DIM
 10
21.368874
 20
13.008697
 30
0.0
 40
0.3125
  1
TYP.
 41
0.75
  7
TXT
  0
POLYLINE
  8
DIM
 66
     1
 10
0.0
 20
0.0
 30
0.0
 41
0.16875
  0
VERTEX
  8
DIM
 10
12.701728
 20
8.256595
 30
0.0
  0
VERTEX
  8
DIM
 10
12.874591
 20
7.841122
 30
0.0
 41
0.0
  0
VERTEX
  8
DIM
 10
13.446624
 20
6.466241
 30
0.0
 41
0.0
  0
VERTEX
  8
DIM
 10
13.759124
 20
6.466241
 30
0.0
 41
0.0
  0
SEQEND
  8
DIM
  0
TEXT
  8
DIM
 10
14.071624
 20
6.309991
 30
0.0
 40
0.3125
  1
0.125 DIA.
 41
0.75
  7
TXT
  0
TEXT
  8
DIM
 10
14.071624
 20
5.869796
 30
0.0
 40
0.3125
  1
(4) HOLES
 41
0.75
  7
TXT
  0
TEXT
  8
DIM
 10
8.126588
 20
15.052812
 30
0.0
 40
0.3125
  1
0.260 DIA. BOSS
 50
0.0
 41
0.75
  7
TXT
 11
8.126588
 21
15.209062
 31
0.0
 73
     2
  0
TEXT
  8
DIM
 10
8.365362
 20
14.593173
 30
0.0
 40
0.3125
  1
(4) PLACES
 50
0.0
 41
0.75
  7
TXT
 11
8.365362
 21
14.749423
 31
0.0
 73
     2
  0
DIMENSION
  8
DIM
  2
*D17
 10
8.230122
 20
8.934004
 30
0.0
 11
6.694966
 21
8.934004
 31
0.0
 13
8.448122
 23
8.4215
 33
0.0
 14
8.230122
 24
8.934004
 34
0.0
 50
180.0
  3
STD
  0
SOLID
  8
DIM
 10
1.382145
 20
13.379591
 30
0.0
 11
1.267267
 21
13.28314
 31
0.0
 12
1.61406
 22
12.986729
 32
0.0
 13
1.61406
 23
12.986729
 33
0.0
  0
LINE
  8
DIM
 10
1.324706
 20
13.331366
 30
0.0
 11
0.786776
 21
13.972068
 31
0.0
  0
LINE
  8
DIM
 10
0.786776
 20
13.972068
 30
0.0
 11
0.786776
 21
15.063913
 31
0.0
  0
LINE
  8
DIM
 10
0.786776
 20
15.063913
 30
0.0
 11
1.138484
 21
15.063913
 31
0.0
  0
TEXT
  8
DIM
 10
1.363484
 20
14.907663
 30
0.0
 40
0.3125
  1
0.187 R. - TYP.
 41
0.75
  7
TXT
 11
1.363484
 21
15.063913
 31
0.0
 73
     2
  0
LINE
  8
DIM
 10
3.555551
 20
6.08913
 30
0.0
 11
3.787872
 21
6.08913
 31
0.0
  0
TEXT
  8
DIM
 10
0.840462
 20
6.268148
 30
0.0
 40
0.3125
  1
0.220 DIA.
 41
0.75
  7
TXT
 11
0.840462
 21
6.424398
 31
0.0
 73
     2
  0
TEXT
  8
DIM
 10
0.648631
 20
5.783883
 30
0.0
 40
0.3125
  1
(4) PLACES
 41
0.75
  7
TXT
 11
0.648631
 21
5.940133
 31
0.0
 73
     2
  0
TEXT
  8
DIM
 10
3.914469
 20
5.956371
 30
0.0
 40
0.3125
  1
0.090 DIA.
 50
360.0
 41
0.75
  7
TXT
 11
3.914469
 21
6.112621
 31
0.0
 73
     2
  0
TEXT
  8
DIM
 10
3.793903
 20
5.537051
 30
0.0
 40
0.3125
  1
(4) HOLES
 50
360.0
 41
0.75
  7
TXT
 11
3.793903
 21
5.693301
 31
0.0
 73
     2
  0
SOLID
  8
DIM
 10
1.379525
 20
8.025244
 30
0.0
 11
1.467148
 21
7.903498
 31
0.0
 12
1.788575
 22
8.227242
 32
0.0
 13
1.788575
 23
8.227242
 33
0.0
  0
LINE
  8
DIM
 10
1.423337
 20
7.964371
 30
0.0
 11
0.282293
 21
7.143137
 31
0.0
  0
LINE
  8
DIM
 10
0.282293
 20
7.143137
 30
0.0
 11
0.282293
 21
6.423263
 31
0.0
  0
LINE
  8
DIM
 10
0.282293
 20
6.423263
 30
0.0
 11
0.677394
 21
6.423263
 31
0.0
  0
SOLID
  8
DIM
 10
3.652892
 20
7.827897
 30
0.0
 11
3.802059
 21
7.812113
 31
0.0
 12
3.774826
 22
8.267507
 32
0.0
 13
3.774826
 23
8.267507
 33
0.0
  0
LINE
  8
DIM
 10
3.727476
 20
7.820005
 30
0.0
 11
3.555551
 21
6.08913
 31
0.0
  0
DIMENSION
  8
DIM
  2
*D9
 10
8.246578
 20
13.0415
 30
0.0
 11
10.141569
 21
14.030373
 31
0.0
 12
-0.219414
 22
-2.491884
 32
0.0
 70
   130
  1
1%%D
 13
8.230122
 23
13.0415
 33
0.0
 14
9.607075
 24
13.017466
 34
0.0
 15
8.230122
 25
13.0415
 35
0.0
 16
10.36372
 26
13.015396
 36
0.0
  3
DIM
  0
SOLID
  8
DIM
 10
10.042201
 20
7.778088
 30
0.0
 11
10.118998
 21
7.906938
 31
0.0
 12
9.69405
 22
8.072903
 32
0.0
 13
9.69405
 23
8.072903
 33
0.0
  0
LINE
  8
DIM
 10
10.0806
 20
7.842513
 30
0.0
 11
10.983953
 21
7.304102
 31
0.0
  0
LINE
  8
DIM
 10
10.983953
 20
7.304102
 30
0.0
 11
10.983953
 21
6.087919
 31
0.0
  0
LINE
  8
DIM
 10
10.983953
 20
6.087919
 30
0.0
 11
10.527724
 21
6.087919
 31
0.0
  0
TEXT
  8
DIM
 10
8.935536
 20
5.931669
 30
0.0
 40
0.3125
  1
0.125 R.
 41
0.75
  7
TXT
 72
     2
 11
10.302724
 21
6.087919
 31
0.0
 73
     2
  0
TEXT
  8
DIM
 10
9.274573
 20
5.471128
 30
0.0
 40
0.3125
  1
TYP.
 41
0.75
  7
TXT
 72
     2
 11
9.977698
 21
5.627378
 31
0.0
 73
     2
  0
LINE
  8
TITLE
 10
4.32
 20
0.155
 30
0.0
 11
4.32
 21
3.560787
 31
0.0
  0
LINE
  8
TITLE
 10
8.485
 20
0.155
 30
0.0
 11
8.485
 21
3.560787
 31
0.0
  0
LINE
  8
TITLE
 10
12.65
 20
0.155
 30
0.0
 11
12.65
 21
3.560787
 31
0.0
  0
TEXT
  8
TEXT
 10
1.417187
 20
2.880468
 30
0.0
 40
0.3125
  1
PART No.
 41
0.75
  7
TXT
 72
     4
 11
2.2375
 21
3.036718
 31
0.0
  0
TEXT
  8
TEXT
 10
1.221875
 20
1.689052
 30
0.0
 40
0.3125
  1
CU-743-MB
 41
0.75
  7
TXT
 72
     4
 11
2.2375
 21
1.845302
 31
0.0
  0
TEXT
  8
TEXT
 10
1.221875
 20
0.561966
 30
0.0
 40
0.3125
  1
CU-745-MB
 41
0.75
  7
TXT
 72
     4
 11
2.2375
 21
0.718216
 31
0.0
  0
TEXT
  8
TEXT
 10
6.324375
 20
2.880468
 30
0.0
 40
0.3125
  1
A
 41
0.75
  7
TXT
 72
     4
 11
6.4025
 21
3.036718
 31
0.0
  0
TEXT
  8
TEXT
 10
5.992344
 20
1.689052
 30
0.0
 40
0.3125
  1
1.025
 41
0.75
  7
TXT
 72
     4
 11
6.4025
 21
1.845302
 31
0.0
  0
TEXT
  8
TEXT
 10
6.011875
 20
0.561966
 30
0.0
 40
0.3125
  1
1.615
 41
0.75
  7
TXT
 72
     4
 11
6.4025
 21
0.718216
 31
0.0
  0
TEXT
  8
TEXT
 10
10.489375
 20
2.880468
 30
0.0
 40
0.3125
  1
B
 41
0.75
  7
TXT
 72
     4
 11
10.5675
 21
3.036718
 31
0.0
  0
TEXT
  8
TEXT
 10
10.176875
 20
1.689052
 30
0.0
 40
0.3125
  1
0.910
 41
0.75
  7
TXT
 72
     4
 11
10.5675
 21
1.845302
 31
0.0
  0
TEXT
  8
TEXT
 10
10.176875
 20
0.561966
 30
0.0
 40
0.3125
  1
1.500
 41
0.75
  7
TXT
 72
     4
 11
10.5675
 21
0.718216
 31
0.0
  0
TEXT
  8
TEXT
 10
1.180155
 20
17.866803
 30
0.0
 40
0.3125
  1
%%UMATERIAL:%%u HIGH-IMPACT POLYSTYRENE
 41
0.75
  7
TXT
  0
TEXT
  8
TEXT
 10
1.180155
 20
17.34597
 30
0.0
 40
0.3125
  1
%%UCOLOR:%%U BLACK
 41
0.75
  7
TXT
  0
TEXT
  8
TEXT
 10
1.180155
 20
16.825137
 30
0.0
 40
0.3125
  1
%%UFINISH:%%u SMOOTH, MATTE
 41
0.75
  7
TXT
  0
TEXT
  8
TEXT
 10
13.964229
 20
17.876417
 30
0.0
 40
0.3125
  1
FOUR (4) #4 x 0.562" LG. SCREWS
 41
0.75
  7
TXT
  0
TEXT
  8
TEXT
 10
14.376584
 20
17.436222
 30
0.0
 40
0.3125
  1
SUPPLIED FOR ASSEMBLY.
 41
0.75
  7
TXT
  0
LINE
  8
OBJECT
 10
15.296867
 20
11.961951
 30
0.0
 11
15.296867
 21
11.620549
 31
0.0
  0
LINE
  8
OBJECT
 10
14.896867
 20
11.440504
 30
0.0
 11
15.281313
 21
11.597403
 31
0.0
  0
LINE
  8
OBJECT
 10
14.896867
 20
12.141997
 30
0.0
 11
15.281313
 21
11.985098
 31
0.0
  0
CIRCLE
  8
OBJECT
 10
15.091867
 20
11.79125
 30
0.0
 40
0.09375
  0
ARC
  8
OBJECT
 10
15.271867
 20
11.961951
 30
0.0
 40
0.025
 50
0.0
 51
67.798859
  0
ARC
  8
OBJECT
 10
15.271867
 20
11.620549
 30
0.0
 40
0.025
 50
292.201141
 51
0.0
  0
LINE
  8
OBJECT
 10
14.896867
 20
11.440504
 30
0.0
 11
14.896867
 21
8.1985
 31
0.0
  0
ARC
  8
OBJECT
 10
11.996867
 20
9.432451
 30
0.0
 40
0.025
 50
112.201141
 51
180.0
  0
ARC
  8
OBJECT
 10
11.996867
 20
9.091049
 30
0.0
 40
0.025
 50
180.0
 51
247.798859
  0
CIRCLE
  8
OBJECT
 10
12.176867
 20
9.26175
 30
0.0
 40
0.09375
  0
LINE
  8
OBJECT
 10
12.371867
 20
8.911004
 30
0.0
 11
11.98742
 21
9.067903
 31
0.0
  0
LINE
  8
OBJECT
 10
12.371867
 20
9.612497
 30
0.0
 11
11.98742
 21
9.455598
 31
0.0
  0
LINE
  8
OBJECT
 10
11.971867
 20
9.091049
 30
0.0
 11
11.971867
 21
9.432451
 31
0.0
  0
LINE
  8
OBJECT
 10
12.371867
 20
9.612497
 30
0.0
 11
12.371867
 21
12.8545
 31
0.0
  0
SOLID
  8
DIM
 10
20.23009
 20
13.243498
 30
0.0
 11
20.13425
 21
13.358888
 31
0.0
 12
19.836
 22
13.013676
 32
0.0
 13
19.836
 23
13.013676
 33
0.0
  0
LINE
  8
DIM
 10
20.18217
 20
13.301193
 30
0.0
 11
20.682292
 21
13.716579
 31
0.0
  0
LINE
  8
DIM
 10
20.682292
 20
13.716579
 30
0.0
 11
21.132292
 21
13.716579
 31
0.0
  0
DIMENSION
  8
DIM
  2
*D34
 10
11.360268
 20
9.26175
 30
0.0
 11
11.360268
 21
8.636625
 31
0.0
 13
12.558867
 23
8.0115
 33
0.0
 14
12.176867
 24
9.26175
 34
0.0
 50
90.0
  3
DIM
  0
DIMENSION
  8
DIM
  2
*D32
 10
16.563276
 20
13.0415
 30
0.0
 11
16.563276
 21
12.416375
 31
0.0
 13
15.091867
 23
11.79125
 33
0.0
 14
14.709867
 24
13.0415
 34
0.0
 50
90.0
  3
DIM
  0
LINE
  8
DIM
 10
15.78953
 20
13.9415
 30
0.0
 11
15.78953
 21
14.615719
 31
0.0
  0
LINE
  8
DIM
 10
15.78953
 20
14.615719
 30
0.0
 11
16.321276
 21
14.615719
 31
0.0
  0
TEXT
  8
DIM
 10
16.086041
 20
9.075702
 30
0.0
 40
0.3125
  1
TYP.
 41
0.75
  7
TXT
  0
TEXT
  8
DIM
 10
5.323477
 20
9.240204
 30
0.0
 40
0.3125
  1
TYP.
 41
0.75
  7
TXT
  0
CIRCLE
  8
OBJECT
  6
PHANTOM
 62
     7
 10
15.019313
 20
11.844688
 30
0.0
 40
0.537241
  0
DIMENSION
  8
DIM
  2
*D18
 10
12.471867
 20
11.08698
 30
0.0
 11
10.917179
 21
11.08698
 31
0.0
 12
0.045
 22
0.0
 32
0.0
 13
12.516867
 23
11.075691
 33
0.0
 14
12.471867
 24
11.075691
 34
0.0
  3
STD
  0
DIMENSION
  8
DIM
  2
*D31
 10
12.371867
 20
11.80305
 30
0.0
 11
10.836711
 21
11.80305
 31
0.0
 13
12.516867
 23
11.798211
 33
0.0
 14
12.371867
 24
11.798211
 34
0.0
  3
STD
  0
POLYLINE
  8
OBJECT
 62
     7
 66
     1
 10
0.0
 20
0.0
 30
0.0
 41
0.16875
  0
VERTEX
  8
OBJECT
 62
     7
 10
15.273215
 20
11.371231
 30
0.0
  0
VERTEX
  8
OBJECT
 62
     7
 10
15.493895
 20
10.979057
 30
0.0
 41
0.0
  0
VERTEX
  8
OBJECT
 62
     7
 10
15.729181
 20
10.560924
 30
0.0
 41
0.0
  0
VERTEX
  8
OBJECT
 62
     7
 10
16.041681
 20
10.560924
 30
0.0
 41
0.0
  0
SEQEND
  8
OBJECT
 62
     7
  0
TEXT
  8
OBJECT
 62
     7
 10
16.354181
 20
10.404674
 30
0.0
 40
0.3125
  1
SEE DETAIL 
 41
0.75
  7
TXT
  0
TEXT
  8
OBJECT
 62
     7
 10
16.467115
 20
9.984126
 30
0.0
 40
0.3125
  1
     "A"
 41
0.75
  7
TXT
  0
LINE
  8
OBJECT
 10
17.465492
 20
2.244813
 30
0.0
 11
17.465492
 21
1.911429
 31
0.0
  0
ARC
  8
OBJECT
 10
18.516806
 20
2.74957
 30
0.0
 40
0.070088
 50
292.201141
 51
0.0
  0
ARC
  8
OBJECT
 10
18.516806
 20
3.706693
 30
0.0
 40
0.070088
 50
0.0
 51
67.798859
  0
CIRCLE
  8
OBJECT
 10
18.15235
 20
3.228132
 30
0.0
 40
0.262829
  0
LINE
  8
OBJECT
 10
17.465492
 20
4.211451
 30
0.0
 11
18.543289
 21
3.771584
 31
0.0
  0
LINE
  8
OBJECT
 10
17.465492
 20
2.244813
 30
0.0
 11
18.543289
 21
2.684679
 31
0.0
  0
LINE
  8
OBJECT
 10
18.586894
 20
3.706693
 30
0.0
 11
18.586894
 21
2.74957
 31
0.0
  0
LINE
  8
OBJECT
 10
17.465492
 20
4.844461
 30
0.0
 11
17.465492
 21
4.211451
 31
0.0
  0
LINE
  8
OBJECT
 10
17.311299
 20
4.882873
 30
0.0
 11
17.311299
 21
1.740639
 31
0.0
  0
LINE
  8
OBJECT
 10
17.185141
 20
4.902325
 30
0.0
 11
17.185141
 21
1.792566
 31
0.0
  0
POLYLINE
  8
OBJECT
 66
     1
 10
0.0
 20
0.0
 30
0.0
 70
     4
 75
     6
  0
VERTEX
  8
OBJECT
 10
17.465492
 20
4.844461
 30
0.0
 70
    16
  0
VERTEX
  8
OBJECT
 10
17.465492
 20
4.844461
 30
0.0
 70
     8
  0
VERTEX
  8
OBJECT
 10
17.312541
 20
4.882681
 30
0.0
 70
     8
  0
VERTEX
  8
OBJECT
 10
17.182653
 20
4.902709
 30
0.0
 70
     8
  0
VERTEX
  8
OBJECT
 10
17.07337
 20
4.907168
 30
0.0
 70
     8
  0
VERTEX
  8
OBJECT
 10
16.982234
 20
4.898681
 30
0.0
 70
     8
  0
VERTEX
  8
OBJECT
 10
16.906788
 20
4.879875
 30
0.0
 70
     8
  0
VERTEX
  8
OBJECT
 10
16.844576
 20
4.853372
 30
0.0
 70
     8
  0
VERTEX
  8
OBJECT
 10
16.793138
 20
4.821796
 30
0.0
 70
     8
  0
VERTEX
  8
OBJECT
 10
16.75002
 20
4.787773
 30
0.0
 70
     8
  0
VERTEX
  8
OBJECT
 10
16.713025
 20
4.753541
 30
0.0
 70
     8
  0
VERTEX
  8
OBJECT
 10
16.68101
 20
4.719794
 30
0.0
 70
     8
  0
VERTEX
  8
OBJECT
 10
16.653094
 20
4.68684
 30
0.0
 70
     8
  0
VERTEX
  8
OBJECT
 10
16.628398
 20
4.654989
 30
0.0
 70
     8
  0
VERTEX
  8
OBJECT
 10
16.606039
 20
4.624549
 30
0.0
 70
     8
  0
VERTEX
  8
OBJECT
 10
16.585138
 20
4.595829
 30
0.0
 70
     8
  0
VERTEX
  8
OBJECT
 10
16.564813
 20
4.569137
 30
0.0
 70
     8
  0
VERTEX
  8
OBJECT
 10
16.544185
 20
4.544783
 30
0.0
 70
     8
  0
VERTEX
  8
OBJECT
 10
16.522704
 20
4.522895
 30
0.0
 70
     8
  0
VERTEX
  8
OBJECT
 10
16.50115
 20
4.502885
 30
0.0
 70
     8
  0
VERTEX
  8
OBJECT
 10
16.480636
 20
4.483983
 30
0.0
 70
     8
  0
VERTEX
  8
OBJECT
 10
16.462274
 20
4.465421
 30
0.0
 70
     8
  0
VERTEX
  8
OBJECT
 10
16.447177
 20
4.446431
 30
0.0
 70
     8
  0
VERTEX
  8
OBJECT
 10
16.436457
 20
4.426244
 30
0.0
 70
     8
  0
VERTEX
  8
OBJECT
 10
16.431226
 20
4.404092
 30
0.0
 70
     8
  0
VERTEX
  8
OBJECT
 10
16.432596
 20
4.379205
 30
0.0
 70
     8
  0
VERTEX
  8
OBJECT
 10
16.441084
 20
4.351072
 30
0.0
 70
     8
  0
VERTEX
  8
OBJECT
 10
16.454821
 20
4.320201
 30
0.0
 70
     8
  0
VERTEX
  8
OBJECT
 10
16.471344
 20
4.287358
 30
0.0
 70
     8
  0
VERTEX
  8
OBJECT
 10
16.488189
 20
4.253309
 30
0.0
 70
     8
  0
VERTEX
  8
OBJECT
 10
16.50289
 20
4.218818
 30
0.0
 70
     8
  0
VERTEX
  8
OBJECT
 10
16.512985
 20
4.184652
 30
0.0
 70
     8
  0
VERTEX
  8
OBJECT
 10
16.516009
 20
4.151577
 30
0.0
 70
     8
  0
VERTEX
  8
OBJECT
 10
16.509498
 20
4.120356
 30
0.0
 70
     8
  0
VERTEX
  8
OBJECT
 10
16.491913
 20
4.091556
 30
0.0
 70
     8
  0
VERTEX
  8
OBJECT
 10
16.465413
 20
4.064942
 30
0.0
 70
     8
  0
VERTEX
  8
OBJECT
 10
16.433084
 20
4.04008
 30
0.0
 70
     8
  0
VERTEX
  8
OBJECT
 10
16.39801
 20
4.016534
 30
0.0
 70
     8
  0
VERTEX
  8
OBJECT
 10
16.363276
 20
3.99387
 30
0.0
 70
     8
  0
VERTEX
  8
OBJECT
 10
16.331968
 20
3.971654
 30
0.0
 70
     8
  0
VERTEX
  8
OBJECT
 10
16.30717
 20
3.94945
 30
0.0
 70
     8
  0
VERTEX
  8
OBJECT
 10
16.291967
 20
3.926824
 30
0.0
 70
     8
  0
VERTEX
  8
OBJECT
 10
16.288491
 20
3.903376
 30
0.0
 70
     8
  0
VERTEX
  8
OBJECT
 10
16.295063
 20
3.878848
 30
0.0
 70
     8
  0
VERTEX
  8
OBJECT
 10
16.309053
 20
3.853016
 30
0.0
 70
     8
  0
VERTEX
  8
OBJECT
 10
16.32783
 20
3.825656
 30
0.0
 70
     8
  0
VERTEX
  8
OBJECT
 10
16.348762
 20
3.796545
 30
0.0
 70
     8
  0
VERTEX
  8
OBJECT
 10
16.369218
 20
3.765459
 30
0.0
 70
     8
  0
VERTEX
  8
OBJECT
 10
16.386567
 20
3.732174
 30
0.0
 70
     8
  0
VERTEX
  8
OBJECT
 10
16.398178
 20
3.696466
 30
0.0
 70
     8
  0
VERTEX
  8
OBJECT
 10
16.402215
 20
3.658291
 30
0.0
 70
     8
  0
VERTEX
  8
OBJECT
 10
16.400022
 20
3.61831
 30
0.0
 70
     8
  0
VERTEX
  8
OBJECT
 10
16.39374
 20
3.577366
 30
0.0
 70
     8
  0
VERTEX
  8
OBJECT
 10
16.385507
 20
3.536298
 30
0.0
 70
     8
  0
VERTEX
  8
OBJECT
 10
16.377462
 20
3.495949
 30
0.0
 70
     8
  0
VERTEX
  8
OBJECT
 10
16.371747
 20
3.457159
 30
0.0
 70
     8
  0
VERTEX
  8
OBJECT
 10
16.3705
 20
3.42077
 30
0.0
 70
     8
  0
VERTEX
  8
OBJECT
 10
16.37586
 20
3.387621
 30
0.0
 70
     8
  0
VERTEX
  8
OBJECT
 10
16.389171
 20
3.358221
 30
0.0
 70
     8
  0
VERTEX
  8
OBJECT
 10
16.408589
 20
3.331737
 30
0.0
 70
     8
  0
VERTEX
  8
OBJECT
 10
16.431473
 20
3.307005
 30
0.0
 70
     8
  0
VERTEX
  8
OBJECT
 10
16.455183
 20
3.282858
 30
0.0
 70
     8
  0
VERTEX
  8
OBJECT
 10
16.477077
 20
3.258132
 30
0.0
 70
     8
  0
VERTEX
  8
OBJECT
 10
16.494516
 20
3.231661
 30
0.0
 70
     8
  0
VERTEX
  8
OBJECT
 10
16.504859
 20
3.20228
 30
0.0
 70
     8
  0
VERTEX
  8
OBJECT
 10
16.505465
 20
3.168822
 30
0.0
 70
     8
  0
VERTEX
  8
OBJECT
 10
16.494644
 20
3.130516
 30
0.0
 70
     8
  0
VERTEX
  8
OBJECT
 10
16.474505
 20
3.088159
 30
0.0
 70
     8
  0
VERTEX
  8
OBJECT
 10
16.448108
 20
3.042941
 30
0.0
 70
     8
  0
VERTEX
  8
OBJECT
 10
16.418513
 20
2.996054
 30
0.0
 70
     8
  0
VERTEX
  8
OBJECT
 10
16.388779
 20
2.948689
 30
0.0
 70
     8
  0
VERTEX
  8
OBJECT
 10
16.361966
 20
2.902035
 30
0.0
 70
     8
  0
VERTEX
  8
OBJECT
 10
16.341134
 20
2.857284
 30
0.0
 70
     8
  0
VERTEX
  8
OBJECT
 10
16.329342
 20
2.815626
 30
0.0
 70
     8
  0
VERTEX
  8
OBJECT
 10
16.328671
 20
2.777883
 30
0.0
 70
     8
  0
VERTEX
  8
OBJECT
 10
16.337283
 20
2.7434
 30
0.0
 70
     8
  0
VERTEX
  8
OBJECT
 10
16.352361
 20
2.711153
 30
0.0
 70
     8
  0
VERTEX
  8
OBJECT
 10
16.371087
 20
2.68012
 30
0.0
 70
     8
  0
VERTEX
  8
OBJECT
 10
16.390646
 20
2.649275
 30
0.0
 70
     8
  0
VERTEX
  8
OBJECT
 10
16.408219
 20
2.617595
 30
0.0
 70
     8
  0
VERTEX
  8
OBJECT
 10
16.42099
 20
2.584058
 30
0.0
 70
     8
  0
VERTEX
  8
OBJECT
 10
16.426142
 20
2.547637
 30
0.0
 70
     8
  0
VERTEX
  8
OBJECT
 10
16.421866
 20
2.507732
 30
0.0
 70
     8
  0
VERTEX
  8
OBJECT
 10
16.410383
 20
2.46542
 30
0.0
 70
     8
  0
VERTEX
  8
OBJECT
 10
16.394923
 20
2.4222
 30
0.0
 70
     8
  0
VERTEX
  8
OBJECT
 10
16.378717
 20
2.379573
 30
0.0
 70
     8
  0
VERTEX
  8
OBJECT
 10
16.364994
 20
2.339038
 30
0.0
 70
     8
  0
VERTEX
  8
OBJECT
 10
16.356983
 20
2.302093
 30
0.0
 70
     8
  0
VERTEX
  8
OBJECT
 10
16.357915
 20
2.270239
 30
0.0
 70
     8
  0
VERTEX
  8
OBJECT
 10
16.37102
 20
2.244974
 30
0.0
 70
     8
  0
VERTEX
  8
OBJECT
 10
16.398412
 20
2.227161
 30
0.0
 70
     8
  0
VERTEX
  8
OBJECT
 10
16.437747
 20
2.215109
 30
0.0
 70
     8
  0
VERTEX
  8
OBJECT
 10
16.485564
 20
2.20649
 30
0.0
 70
     8
  0
VERTEX
  8
OBJECT
 10
16.538404
 20
2.198977
 30
0.0
 70
     8
  0
VERTEX
  8
OBJECT
 10
16.592807
 20
2.190242
 30
0.0
 70
     8
  0
VERTEX
  8
OBJECT
 10
16.645312
 20
2.177956
 30
0.0
 70
     8
  0
VERTEX
  8
OBJECT
 10
16.692462
 20
2.159793
 30
0.0
 70
     8
  0
VERTEX
  8
OBJECT
 10
16.730794
 20
2.133425
 30
0.0
 70
     8
  0
VERTEX
  8
OBJECT
 10
16.757872
 20
2.097407
 30
0.0
 70
     8
  0
VERTEX
  8
OBJECT
 10
16.775341
 20
2.053832
 30
0.0
 70
     8
  0
VERTEX
  8
OBJECT
 10
16.785873
 20
2.005677
 30
0.0
 70
     8
  0
VERTEX
  8
OBJECT
 10
16.792134
 20
1.955919
 30
0.0
 70
     8
  0
VERTEX
  8
OBJECT
 10
16.796795
 20
1.907535
 30
0.0
 70
     8
  0
VERTEX
  8
OBJECT
 10
16.802524
 20
1.8635
 30
0.0
 70
     8
  0
VERTEX
  8
OBJECT
 10
16.811991
 20
1.826792
 30
0.0
 70
     8
  0
VERTEX
  8
OBJECT
 10
16.827863
 20
1.800388
 30
0.0
 70
     8
  0
VERTEX
  8
OBJECT
 10
16.852128
 20
1.786259
 30
0.0
 70
     8
  0
VERTEX
  8
OBJECT
 10
16.88404
 20
1.782358
 30
0.0
 70
     8
  0
VERTEX
  8
OBJECT
 10
16.922172
 20
1.785632
 30
0.0
 70
     8
  0
VERTEX
  8
OBJECT
 10
16.965098
 20
1.793029
 30
0.0
 70
     8
  0
VERTEX
  8
OBJECT
 10
17.011388
 20
1.801498
 30
0.0
 70
     8
  0
VERTEX
  8
OBJECT
 10
17.059616
 20
1.807985
 30
0.0
 70
     8
  0
VERTEX
  8
OBJECT
 10
17.108355
 20
1.809439
 30
0.0
 70
     8
  0
VERTEX
  8
OBJECT
 10
17.156177
 20
1.802807
 30
0.0
 70
     8
  0
VERTEX
  8
OBJECT
 10
17.20191
 20
1.786636
 30
0.0
 70
     8
  0
VERTEX
  8
OBJECT
 10
17.245408
 20
1.765873
 30
0.0
 70
     8
  0
VERTEX
  8
OBJECT
 10
17.286777
 20
1.747064
 30
0.0
 70
     8
  0
VERTEX
  8
OBJECT
 10
17.326127
 20
1.736754
 30
0.0
 70
     8
  0
VERTEX
  8
OBJECT
 10
17.363565
 20
1.74149
 30
0.0
 70
     8
  0
VERTEX
  8
OBJECT
 10
17.399199
 20
1.767817
 30
0.0
 70
     8
  0
VERTEX
  8
OBJECT
 10
17.433139
 20
1.822281
 30
0.0
 70
     8
  0
VERTEX
  8
OBJECT
 10
17.465492
 20
1.911429
 30
0.0
 70
     8
  0
VERTEX
  8
OBJECT
 10
17.02469
 20
4.972973
 30
0.0
 70
    16
  0
VERTEX
  8
OBJECT
 10
16.687503
 20
4.785892
 30
0.0
 70
    16
  0
VERTEX
  8
OBJECT
 10
16.556823
 20
4.516559
 30
0.0
 70
    16
  0
VERTEX
  8
OBJECT
 10
16.350316
 20
4.416568
 30
0.0
 70
    16
  0
VERTEX
  8
OBJECT
 10
16.637489
 20
4.092401
 30
0.0
 70
    16
  0
VERTEX
  8
OBJECT
 10
16.156715
 20
3.935963
 30
0.0
 70
    16
  0
VERTEX
  8
OBJECT
 10
16.487449
 20
3.72469
 30
0.0
 70
    16
  0
VERTEX
  8
OBJECT
 10
16.282556
 20
3.344076
 30
0.0
 70
    16
  0
VERTEX
  8
OBJECT
 10
16.637489
 20
3.224732
 30
0.0
 70
    16
  0
VERTEX
  8
OBJECT
 10
16.200275
 20
2.769931
 30
0.0
 70
    16
  0
VERTEX
  8
OBJECT
 10
16.537463
 20
2.589301
 30
0.0
 70
    16
  0
VERTEX
  8
OBJECT
 10
16.206729
 20
2.158691
 30
0.0
 70
    16
  0
VERTEX
  8
OBJECT
 10
16.861743
 20
2.245781
 30
0.0
 70
    16
  0
VERTEX
  8
OBJECT
 10
16.731063
 20
1.658733
 30
0.0
 70
    16
  0
VERTEX
  8
OBJECT
 10
17.181184
 20
1.921614
 30
0.0
 70
    16
  0
VERTEX
  8
OBJECT
 10
17.381237
 20
1.621639
 30
0.0
 70
    16
  0
VERTEX
  8
OBJECT
 10
17.465492
 20
1.911429
 30
0.0
 70
    16
  0
SEQEND
  8
OBJECT
  0
LINE
  8
CENTER
 10
17.810468
 20
3.228132
 30
0.0
 11
18.492826
 21
3.228132
 31
0.0
  0
DIMENSION
  8
DIM
  2
*D46
 10
19.781881
 20
3.745783
 30
0.0
 11
20.867038
 21
5.306921
 31
0.0
 70
   128
  1
0.188
 13
18.492826
 23
3.228132
 33
0.0
 14
18.57498
 24
3.745783
 34
0.0
 50
90.0
  3
STD
  0
DIMENSION
  8
DIM
  2
*D39
 10
22.201931
 20
4.211451
 30
0.0
 11
22.201931
 21
3.719791
 31
0.0
  1
0.351
 13
18.492826
 23
3.228132
 33
0.0
 14
17.465492
 24
4.211451
 34
0.0
 50
90.0
  3
DIM
  0
POLYLINE
  8
DIM
 66
     1
 10
0.0
 20
0.0
 30
0.0
 41
0.16875
  0
VERTEX
  8
DIM
 10
17.976444
 20
3.423416
 30
0.0
  0
VERTEX
  8
DIM
 10
17.643452
 20
3.726097
 30
0.0
 41
0.0
  0
VERTEX
  8
DIM
 10
16.853676
 20
4.443985
 30
0.0
 41
0.0
  0
VERTEX
  8
DIM
 10
16.145
 20
4.443985
 30
0.0
 41
0.0
  0
SEQEND
  8
DIM
  0
TEXT
  8
DIM
 10
14.274037
 20
4.287735
 30
0.0
 40
0.3125
  1
0.188 DIA.
 41
0.75
  7
TXT
 72
     2
 11
16.03185
 21
4.287735
 31
0.0
  0
TEXT
  8
DIM
 10
14.15685
 20
3.766902
 30
0.0
 40
0.3125
  1
(2) HOLES
 41
0.75
  7
TXT
 72
     2
 11
16.03185
 21
3.766902
 31
0.0
  0
DIMENSION
  8
DIM
  2
*D45
 10
20.408569
 20
3.745783
 30
0.0
 11
21.532788
 21
4.645783
 31
0.0
  1
0.376
 13
18.57498
 23
2.71048
 33
0.0
 14
18.57498
 24
3.745783
 34
0.0
 50
90.0
  3
STD
  0
LINE
  8
DIM
 10
19.781881
 20
4.645783
 30
0.0
 11
19.781881
 21
5.306522
 31
0.0
  0
LINE
  8
DIM
 10
19.781881
 20
5.306522
 30
0.0
 11
20.298341
 21
5.306522
 31
0.0
  0
DIMENSION
  8
DIM
  2
*D44
 10
23.198063
 20
2.244813
 30
0.0
 11
23.198063
 21
3.228132
 31
0.0
  1
0.702
 13
17.465492
 23
4.211451
 33
0.0
 14
17.465492
 24
2.244813
 34
0.0
 50
90.0
  3
DIM
  0
LINE
  8
OBJECT
 10
1.763034
 20
28.898021
 30
0.0
 11
3.889034
 21
28.898021
 31
0.0
  0
LINE
  8
OBJECT
 10
4.076034
 20
29.085021
 30
0.0
 11
4.076034
 21
31.711021
 31
0.0
  0
LINE
  8
OBJECT
 10
3.889034
 20
31.898021
 30
0.0
 11
1.763034
 21
31.898021
 31
0.0
  0
LINE
  8
OBJECT
 10
1.576034
 20
31.711021
 30
0.0
 11
1.576034
 21
29.085021
 31
0.0
  0
LINE
  8
OBJECT
 10
8.403272
 20
31.898021
 30
0.0
 11
8.403272
 21
28.898021
 31
0.0
  0
LINE
  8
OBJECT
 10
8.403272
 20
28.898021
 30
0.0
 11
9.780453
 21
28.92206
 31
0.0
  0
LINE
  8
OBJECT
 10
8.403272
 20
31.898021
 30
0.0
 11
9.780453
 21
31.873982
 31
0.0
  0
LINE
  8
OBJECT
 10
9.903272
 20
31.749001
 30
0.0
 11
9.903272
 21
29.047041
 31
0.0
  0
ARC
  8
OBJECT
 10
3.889034
 20
29.085021
 30
0.0
 40
0.187
 50
270.0
 51
0.0
  0
ARC
  8
OBJECT
 10
3.889034
 20
31.711021
 30
0.0
 40
0.187
 50
0.0
 51
90.0
  0
ARC
  8
OBJECT
 10
1.763034
 20
31.711021
 30
0.0
 40
0.187
 50
90.0
 51
180.0
  0
ARC
  8
OBJECT
 10
1.763034
 20
29.085021
 30
0.0
 40
0.187
 50
180.0
 51
270.0
  0
ARC
  8
OBJECT
 10
3.889034
 20
29.085021
 30
0.0
 40
0.137
 50
270.0
 51
0.0
  0
LINE
  8
OBJECT
 10
1.763034
 20
28.948021
 30
0.0
 11
3.889034
 21
28.948021
 31
0.0
  0
ARC
  8
OBJECT
 10
1.763034
 20
29.085021
 30
0.0
 40
0.137
 50
180.0
 51
270.0
  0
LINE
  8
OBJECT
 10
1.626034
 20
31.711021
 30
0.0
 11
1.626034
 21
29.085021
 31
0.0
  0
ARC
  8
OBJECT
 10
1.763034
 20
31.711021
 30
0.0
 40
0.137
 50
90.0
 51
180.0
  0
LINE
  8
OBJECT
 10
3.889034
 20
31.848021
 30
0.0
 11
1.763034
 21
31.848021
 31
0.0
  0
ARC
  8
OBJECT
 10
3.889034
 20
31.711021
 30
0.0
 40
0.137
 50
0.0
 51
90.0
  0
LINE
  8
OBJECT
 10
4.026034
 20
29.085021
 30
0.0
 11
4.026034
 21
31.711021
 31
0.0
  0
LINE
  8
OBJECT
 10
1.756034
 20
28.998021
 30
0.0
 11
3.896034
 21
28.998021
 31
0.0
  0
LINE
  8
OBJECT
 10
1.676034
 20
31.718021
 30
0.0
 11
1.676034
 21
29.078021
 31
0.0
  0
LINE
  8
OBJECT
 10
3.896034
 20
31.798021
 30
0.0
 11
1.756034
 21
31.798021
 31
0.0
  0
LINE
  8
OBJECT
 10
3.976034
 20
29.078021
 30
0.0
 11
3.976034
 21
31.718021
 31
0.0
  0
CIRCLE
  8
OBJECT
 10
3.776034
 20
29.198021
 30
0.0
 40
0.045
  0
CIRCLE
  8
OBJECT
 10
3.776034
 20
29.198021
 30
0.0
 40
0.11
  0
LINE
  8
OBJECT
 10
1.756034
 20
28.998021
 30
0.0
 11
1.676034
 21
29.078021
 31
0.0
  0
LINE
  8
OBJECT
 10
3.896034
 20
28.998021
 30
0.0
 11
3.976034
 21
29.078021
 31
0.0
  0
LINE
  8
OBJECT
 10
3.976034
 20
31.718021
 30
0.0
 11
3.896034
 21
31.798021
 31
0.0
  0
LINE
  8
OBJECT
 10
1.756034
 20
31.798021
 30
0.0
 11
1.676034
 21
31.718021
 31
0.0
  0
LINE
  8
OBJECT
 10
3.976034
 20
29.078021
 30
0.0
 11
3.882743
 21
29.171313
 31
0.0
  0
LINE
  8
OBJECT
 10
3.896034
 20
28.998021
 30
0.0
 11
3.802743
 21
29.091313
 31
0.0
  0
LINE
  8
OBJECT
 10
1.756034
 20
28.998021
 30
0.0
 11
1.849326
 21
29.091313
 31
0.0
  0
LINE
  8
OBJECT
 10
1.676034
 20
29.078021
 30
0.0
 11
1.769326
 21
29.171313
 31
0.0
  0
CIRCLE
  8
OBJECT
 10
1.876034
 20
29.198021
 30
0.0
 40
0.11
  0
CIRCLE
  8
OBJECT
 10
1.876034
 20
29.198021
 30
0.0
 40
0.045
  0
LINE
  8
OBJECT
 10
3.896034
 20
31.798021
 30
0.0
 11
3.802743
 21
31.70473
 31
0.0
  0
LINE
  8
OBJECT
 10
3.976034
 20
31.718021
 30
0.0
 11
3.882743
 21
31.62473
 31
0.0
  0
CIRCLE
  8
OBJECT
 10
3.776034
 20
31.598021
 30
0.0
 40
0.11
  0
CIRCLE
  8
OBJECT
 10
3.776034
 20
31.598021
 30
0.0
 40
0.045
  0
CIRCLE
  8
OBJECT
 10
1.876034
 20
31.598021
 30
0.0
 40
0.045
  0
CIRCLE
  8
OBJECT
 10
1.876034
 20
31.598021
 30
0.0
 40
0.11
  0
LINE
  8
OBJECT
 10
1.676034
 20
31.718021
 30
0.0
 11
1.769326
 21
31.62473
 31
0.0
  0
LINE
  8
OBJECT
 10
1.756034
 20
31.798021
 30
0.0
 11
1.849326
 21
31.70473
 31
0.0
  0
LINE
  8
HIDDEN
 10
8.463272
 20
31.796959
 30
0.0
 11
9.803272
 21
31.773569
 31
0.0
  0
LINE
  8
HIDDEN
 10
9.803272
 20
31.773569
 30
0.0
 11
9.803272
 21
29.022474
 31
0.0
  0
LINE
  8
HIDDEN
 10
8.463272
 20
28.999084
 30
0.0
 11
9.803272
 21
29.022474
 31
0.0
  0
LINE
  8
HIDDEN
 10
8.463272
 20
31.848021
 30
0.0
 11
8.463272
 21
28.948021
 31
0.0
  0
LINE
  8
HIDDEN
 10
8.403272
 20
31.848021
 30
0.0
 11
8.463272
 21
31.848021
 31
0.0
  0
LINE
  8
HIDDEN
 10
8.403272
 20
28.948021
 30
0.0
 11
8.463272
 21
28.948021
 31
0.0
  0
LINE
  8
HIDDEN
 10
8.621272
 20
31.488021
 30
0.0
 11
9.803272
 21
31.488021
 31
0.0
  0
LINE
  8
HIDDEN
 10
8.621272
 20
31.708021
 30
0.0
 11
9.803272
 21
31.708021
 31
0.0
  0
LINE
  8
HIDDEN
 10
8.621272
 20
31.708021
 30
0.0
 11
8.621272
 21
31.488021
 31
0.0
  0
LINE
  8
HIDDEN
 10
8.480122
 20
12.8515
 30
0.0
 11
8.480122
 21
12.937121
 31
0.0
  0
LINE
  8
HIDDEN
 10
8.480122
 20
8.2015
 30
0.0
 11
8.480122
 21
8.115879
 31
0.0
  0
LINE
  8
HIDDEN
 10
8.653272
 20
31.793642
 30
0.0
 11
8.653272
 21
31.708021
 31
0.0
  0
LINE
  8
HIDDEN
 10
8.653272
 20
29.0024
 30
0.0
 11
8.653272
 21
29.088021
 31
0.0
  0
LINE
  8
HIDDEN
 10
8.621272
 20
29.088021
 30
0.0
 11
8.621272
 21
29.308021
 31
0.0
  0
LINE
  8
HIDDEN
 10
8.621272
 20
29.088021
 30
0.0
 11
9.803272
 21
29.088021
 31
0.0
  0
LINE
  8
HIDDEN
 10
8.621272
 20
29.308021
 30
0.0
 11
9.803272
 21
29.308021
 31
0.0
  0
LINE
  8
HIDDEN
 10
9.821272
 20
31.643021
 30
0.0
 11
9.821272
 21
31.553021
 31
0.0
  0
LINE
  8
HIDDEN
 10
8.621272
 20
31.643021
 30
0.0
 11
9.821272
 21
31.643021
 31
0.0
  0
LINE
  8
HIDDEN
 10
8.621272
 20
31.553021
 30
0.0
 11
9.821272
 21
31.553021
 31
0.0
  0
LINE
  8
HIDDEN
 10
8.621272
 20
29.153021
 30
0.0
 11
9.821272
 21
29.153021
 31
0.0
  0
LINE
  8
HIDDEN
 10
8.621272
 20
29.243021
 30
0.0
 11
9.821272
 21
29.243021
 31
0.0
  0
LINE
  8
HIDDEN
 10
9.821272
 20
29.153021
 30
0.0
 11
9.821272
 21
29.243021
 31
0.0
  0
LINE
  8
OBJECT
 10
13.379603
 20
31.798021
 30
0.0
 11
13.299603
 21
31.718021
 31
0.0
  0
LINE
  8
OBJECT
 10
15.599603
 20
31.718021
 30
0.0
 11
15.519603
 21
31.798021
 31
0.0
  0
LINE
  8
OBJECT
 10
15.519603
 20
28.998021
 30
0.0
 11
15.599603
 21
29.078021
 31
0.0
  0
LINE
  8
OBJECT
 10
13.379603
 20
28.998021
 30
0.0
 11
13.299603
 21
29.078021
 31
0.0
  0
LINE
  8
OBJECT
 10
15.599603
 20
29.078021
 30
0.0
 11
15.599603
 21
31.718021
 31
0.0
  0
LINE
  8
OBJECT
 10
15.519603
 20
31.798021
 30
0.0
 11
13.379603
 21
31.798021
 31
0.0
  0
LINE
  8
OBJECT
 10
13.299603
 20
31.718021
 30
0.0
 11
13.299603
 21
29.078021
 31
0.0
  0
LINE
  8
OBJECT
 10
13.379603
 20
28.998021
 30
0.0
 11
15.519603
 21
28.998021
 31
0.0
  0
ARC
  8
OBJECT
 10
13.386603
 20
29.085021
 30
0.0
 40
0.187
 50
180.0
 51
270.0
  0
ARC
  8
OBJECT
 10
13.386603
 20
31.711021
 30
0.0
 40
0.187
 50
90.0
 51
180.0
  0
ARC
  8
OBJECT
 10
15.512603
 20
31.711021
 30
0.0
 40
0.187
 50
0.0
 51
90.0
  0
ARC
  8
OBJECT
 10
15.512603
 20
29.085021
 30
0.0
 40
0.187
 50
270.0
 51
0.0
  0
LINE
  8
OBJECT
 10
13.199603
 20
31.711021
 30
0.0
 11
13.199603
 21
30.81285
 31
0.0
  0
LINE
  8
OBJECT
 10
15.512603
 20
31.898021
 30
0.0
 11
13.386603
 21
31.898021
 31
0.0
  0
LINE
  8
OBJECT
 10
15.699603
 20
29.085021
 30
0.0
 11
15.699603
 21
29.983193
 31
0.0
  0
LINE
  8
OBJECT
 10
13.386603
 20
28.898021
 30
0.0
 11
15.512603
 21
28.898021
 31
0.0
  0
ARC
  8
OBJECT
 10
15.512603
 20
29.085021
 30
0.0
 40
0.132
 50
270.0
 51
0.0
  0
LINE
  8
OBJECT
 10
15.644603
 20
29.085021
 30
0.0
 11
15.644603
 21
31.711021
 31
0.0
  0
LINE
  8
OBJECT
 10
13.386603
 20
28.953021
 30
0.0
 11
15.512603
 21
28.953021
 31
0.0
  0
ARC
  8
OBJECT
 10
13.386603
 20
29.085021
 30
0.0
 40
0.132
 50
180.0
 51
270.0
  0
LINE
  8
OBJECT
 10
13.254603
 20
31.711021
 30
0.0
 11
13.254603
 21
29.085021
 31
0.0
  0
LINE
  8
OBJECT
 10
15.512603
 20
31.843021
 30
0.0
 11
13.386603
 21
31.843021
 31
0.0
  0
ARC
  8
OBJECT
 10
15.512603
 20
31.711021
 30
0.0
 40
0.132
 50
0.0
 51
90.0
  0
ARC
  8
OBJECT
 10
13.386603
 20
31.711021
 30
0.0
 40
0.132
 50
90.0
 51
180.0
  0
CIRCLE
  8
OBJECT
 10
15.399603
 20
29.198021
 30
0.0
 40
0.0625
  0
CIRCLE
  8
OBJECT
 10
15.399603
 20
29.198021
 30
0.0
 40
0.13
  0
CIRCLE
  8
OBJECT
 10
13.499603
 20
29.198021
 30
0.0
 40
0.13
  0
CIRCLE
  8
OBJECT
 10
13.499603
 20
29.198021
 30
0.0
 40
0.0625
  0
CIRCLE
  8
OBJECT
 10
15.399603
 20
31.598021
 30
0.0
 40
0.13
  0
CIRCLE
  8
OBJECT
 10
15.399603
 20
31.598021
 30
0.0
 40
0.0625
  0
CIRCLE
  8
OBJECT
 10
13.499603
 20
31.598021
 30
0.0
 40
0.0625
  0
CIRCLE
  8
OBJECT
 10
13.499603
 20
31.598021
 30
0.0
 40
0.13
  0
LINE
  8
OBJECT
 10
16.099603
 20
30.24935
 30
0.0
 11
16.099603
 21
30.546693
 31
0.0
  0
LINE
  8
OBJECT
 10
15.735689
 20
30.039837
 30
0.0
 11
16.063517
 21
30.192705
 31
0.0
  0
CIRCLE
  8
OBJECT
 10
15.899603
 20
30.398021
 30
0.0
 40
0.09375
  0
LINE
  8
OBJECT
 10
15.735689
 20
30.756205
 30
0.0
 11
16.063517
 21
30.603337
 31
0.0
  0
LINE
  8
OBJECT
 10
15.699603
 20
30.81285
 30
0.0
 11
15.699603
 21
31.711021
 31
0.0
  0
ARC
  8
OBJECT
 10
15.762103
 20
29.983193
 30
0.0
 40
0.0625
 50
115.0
 51
180.0
  0
ARC
  8
OBJECT
 10
15.762103
 20
30.81285
 30
0.0
 40
0.0625
 50
180.0
 51
245.0
  0
ARC
  8
OBJECT
 10
16.037103
 20
30.546693
 30
0.0
 40
0.0625
 50
0.0
 51
65.0
  0
ARC
  8
OBJECT
 10
16.037103
 20
30.24935
 30
0.0
 40
0.0625
 50
295.0
 51
0.0
  0
ARC
  8
OBJECT
 10
12.862103
 20
30.24935
 30
0.0
 40
0.0625
 50
180.0
 51
245.0
  0
ARC
  8
OBJECT
 10
12.862103
 20
30.546693
 30
0.0
 40
0.0625
 50
115.0
 51
180.0
  0
ARC
  8
OBJECT
 10
13.137103
 20
30.81285
 30
0.0
 40
0.0625
 50
295.0
 51
0.0
  0
ARC
  8
OBJECT
 10
13.137103
 20
29.983193
 30
0.0
 40
0.0625
 50
360.0
 51
65.0
  0
LINE
  8
OBJECT
 10
13.163517
 20
30.756205
 30
0.0
 11
12.835689
 21
30.603337
 31
0.0
  0
CIRCLE
  8
OBJECT
 10
12.999603
 20
30.398021
 30
0.0
 40
0.09375
  0
LINE
  8
OBJECT
 10
13.163517
 20
30.039837
 30
0.0
 11
12.835689
 21
30.192705
 31
0.0
  0
LINE
  8
OBJECT
 10
12.799603
 20
30.24935
 30
0.0
 11
12.799603
 21
30.546693
 31
0.0
  0
LINE
  8
OBJECT
 10
13.199603
 20
29.983193
 30
0.0
 11
13.199603
 21
29.085021
 31
0.0
  0
LINE
  8
OBJECT
 10
21.493095
 20
31.898021
 30
0.0
 11
21.488095
 21
31.898021
 31
0.0
  0
LINE
  8
OBJECT
 10
21.488095
 20
28.898021
 30
0.0
 11
21.493095
 21
28.898021
 31
0.0
  0
LINE
  8
OBJECT
 10
21.433095
 20
31.843021
 30
0.0
 11
21.433095
 21
28.953021
 31
0.0
  0
LINE
  8
OBJECT
 10
21.588095
 20
31.803021
 30
0.0
 11
21.588095
 21
28.993021
 31
0.0
  0
LINE
  8
OBJECT
 10
21.488095
 20
31.898021
 30
0.0
 11
21.488095
 21
28.898021
 31
0.0
  0
ARC
  8
OBJECT
 10
21.493095
 20
28.993021
 30
0.0
 40
0.095
 50
270.0
 51
0.0
  0
ARC
  8
OBJECT
 10
21.493095
 20
31.803021
 30
0.0
 40
0.095
 50
0.0
 51
90.0
  0
LINE
  8
OBJECT
 10
21.433095
 20
28.953021
 30
0.0
 11
21.488095
 21
28.953021
 31
0.0
  0
LINE
  8
OBJECT
 10
21.488095
 20
31.843021
 30
0.0
 11
21.433095
 21
31.843021
 31
0.0
  0
LINE
  8
OBJECT
 10
21.333095
 20
29.328021
 30
0.0
 11
21.433095
 21
29.328021
 31
0.0
  0
LINE
  8
OBJECT
 10
21.333095
 20
29.068021
 30
0.0
 11
21.433095
 21
29.068021
 31
0.0
  0
LINE
  8
OBJECT
 10
21.333095
 20
29.328021
 30
0.0
 11
21.333095
 21
29.068021
 31
0.0
  0
LINE
  8
HIDDEN
 10
21.490095
 20
29.085521
 30
0.0
 11
21.588095
 21
29.085521
 31
0.0
  0
LINE
  8
HIDDEN
 10
21.490095
 20
29.310521
 30
0.0
 11
21.588095
 21
29.310521
 31
0.0
  0
LINE
  8
HIDDEN
 10
21.333095
 20
29.135521
 30
0.0
 11
21.490095
 21
29.135521
 31
0.0
  0
LINE
  8
HIDDEN
 10
21.333095
 20
29.260521
 30
0.0
 11
21.490095
 21
29.260521
 31
0.0
  0
LINE
  8
HIDDEN
 10
21.333095
 20
31.535521
 30
0.0
 11
21.490095
 21
31.535521
 31
0.0
  0
LINE
  8
HIDDEN
 10
21.333095
 20
31.660521
 30
0.0
 11
21.490095
 21
31.660521
 31
0.0
  0
LINE
  8
HIDDEN
 10
21.490095
 20
31.485521
 30
0.0
 11
21.588095
 21
31.485521
 31
0.0
  0
LINE
  8
HIDDEN
 10
21.490095
 20
31.710521
 30
0.0
 11
21.588095
 21
31.710521
 31
0.0
  0
LINE
  8
OBJECT
 10
21.333095
 20
31.468021
 30
0.0
 11
21.333095
 21
31.728021
 31
0.0
  0
LINE
  8
OBJECT
 10
21.333095
 20
31.728021
 30
0.0
 11
21.433095
 21
31.728021
 31
0.0
  0
LINE
  8
OBJECT
 10
21.333095
 20
31.468021
 30
0.0
 11
21.433095
 21
31.468021
 31
0.0
  0
LINE
  8
OBJECT
 10
21.488095
 20
30.779268
 30
0.0
 11
21.588095
 21
30.779268
 31
0.0
  0
LINE
  8
OBJECT
 10
21.488095
 20
30.580274
 30
0.0
 11
21.588095
 21
30.580274
 31
0.0
  0
LINE
  8
OBJECT
 10
21.488095
 20
30.215768
 30
0.0
 11
21.588095
 21
30.215768
 31
0.0
  0
LINE
  8
OBJECT
 10
21.488095
 20
30.016774
 30
0.0
 11
21.588095
 21
30.016774
 31
0.0
  0
LINE
  8
OBJECT
 10
24.616896
 20
31.749001
 30
0.0
 11
24.616896
 21
29.047041
 31
0.0
  0
LINE
  8
OBJECT
 10
23.116896
 20
31.898021
 30
0.0
 11
24.494078
 21
31.873982
 31
0.0
  0
LINE
  8
OBJECT
 10
23.116896
 20
28.898021
 30
0.0
 11
24.494078
 21
28.92206
 31
0.0
  0
LINE
  8
OBJECT
 10
23.116896
 20
31.898021
 30
0.0
 11
23.116896
 21
28.898021
 31
0.0
  0
LINE
  8
OBJECT
 10
23.116896
 20
30.016774
 30
0.0
 11
23.016896
 21
30.016774
 31
0.0
  0
LINE
  8
OBJECT
 10
23.116896
 20
30.215768
 30
0.0
 11
23.016896
 21
30.215768
 31
0.0
  0
LINE
  8
OBJECT
 10
23.116896
 20
30.580274
 30
0.0
 11
23.016896
 21
30.580274
 31
0.0
  0
LINE
  8
OBJECT
 10
23.116896
 20
30.779268
 30
0.0
 11
23.016896
 21
30.779268
 31
0.0
  0
ARC
  8
OBJECT
 10
23.111896
 20
31.803021
 30
0.0
 40
0.095
 50
90.0
 51
180.0
  0
ARC
  8
OBJECT
 10
23.111896
 20
28.993021
 30
0.0
 40
0.095
 50
180.0
 51
270.0
  0
LINE
  8
OBJECT
 10
23.016896
 20
31.803021
 30
0.0
 11
23.016896
 21
28.993021
 31
0.0
  0
LINE
  8
OBJECT
 10
23.116896
 20
28.898021
 30
0.0
 11
23.111896
 21
28.898021
 31
0.0
  0
LINE
  8
OBJECT
 10
23.111896
 20
31.898021
 30
0.0
 11
23.116896
 21
31.898021
 31
0.0
  0
DIMENSION
  8
DIM
  2
*D8
 10
21.433095
 20
27.988627
 30
0.0
 11
19.878408
 21
27.988627
 31
0.0
 12
2.536258
 22
18.394637
 32
0.0
 13
21.488095
 23
28.898021
 33
0.0
 14
21.433095
 24
28.953021
 34
0.0
  3
STD
  0
TEXT
  8
DIM
 10
19.512715
 20
29.118744
 30
0.0
 40
0.3125
  1
TYP.
 41
0.75
  7
TXT
  0
DIMENSION
  8
DIM
  2
*D5
 10
20.377951
 20
31.843021
 30
0.0
 11
19.273264
 21
30.943021
 31
0.0
 12
2.536258
 22
16.364637
 32
0.0
 13
21.488095
 23
31.898021
 33
0.0
 14
21.433095
 24
31.843021
 34
0.0
 50
90.0
  3
STD
  0
DIMENSION
  8
DIM
  2
*D20
 10
21.588095
 20
33.505952
 30
0.0
 11
23.084189
 21
33.505952
 31
0.0
 12
4.160793
 22
3.514738
 32
0.0
  1
<>
 13
21.488095
 23
31.898021
 33
0.0
 14
21.588095
 24
31.803021
 34
0.0
  3
STD
  0
SOLID
  8
DIM
 10
21.95436
 20
32.100019
 30
0.0
 11
21.858521
 21
32.215409
 31
0.0
 12
21.56027
 22
31.870196
 32
0.0
 13
21.56027
 23
31.870196
 33
0.0
  0
LINE
  8
DIM
 10
21.90644
 20
32.157714
 30
0.0
 11
22.766425
 21
32.871989
 31
0.0
  0
LINE
  8
DIM
 10
22.766425
 20
32.871989
 30
0.0
 11
23.216425
 21
32.871989
 31
0.0
  0
TEXT
  8
DIM
 10
23.453007
 20
32.684941
 30
0.0
 40
0.3125
  1
0.095 R.
 41
0.75
  7
TXT
  0
TEXT
  8
DIM
 10
23.453007
 20
32.288291
 30
0.0
 40
0.3125
  1
TYP.
 41
0.75
  7
TXT
  0
DIMENSION
  8
DIM
  2
*D50
 10
18.75644
 20
28.898021
 30
0.0
 11
17.671284
 21
27.998021
 31
0.0
 12
0.0
 22
0.269847
 32
0.0
 13
15.399603
 23
29.198021
 33
0.0
 14
15.512603
 24
28.898021
 34
0.0
 50
90.0
  3
STD
  0
LINE
  8
DIM
 10
16.592266
 20
32.798021
 30
0.0
 11
16.592266
 21
33.47224
 31
0.0
  0
LINE
  8
DIM
 10
16.592266
 20
33.47224
 30
0.0
 11
17.124012
 21
33.47224
 31
0.0
  0
DIMENSION
  8
DIM
  2
*D16
 10
16.592266
 20
31.898021
 30
0.0
 11
17.677422
 21
33.460869
 31
0.0
 12
-0.212052
 22
18.856521
 32
0.0
 70
   128
 13
15.399603
 23
31.598021
 33
0.0
 14
15.512603
 24
31.898021
 34
0.0
 50
90.0
  3
STD
  0
DIMENSION
  8
DIM
  2
*D26
 10
15.699603
 20
29.92029
 30
0.0
 11
17.234759
 21
29.92029
 31
0.0
 12
0.354934
 22
3.514738
 32
0.0
 13
15.399603
 23
29.198021
 33
0.0
 14
15.699603
 24
29.957384
 34
0.0
  3
STD
  0
TEXT
  8
DIM
 10
16.939496
 20
29.321305
 30
0.0
 40
0.3125
  1
TYP.
 41
0.75
  7
TXT
  0
DIMENSION
  8
DIM
  2
*D18
 10
13.254603
 20
29.485626
 30
0.0
 11
11.699915
 21
29.485626
 31
0.0
 12
0.827736
 22
18.398646
 32
0.0
 13
13.299603
 23
29.474337
 33
0.0
 14
13.254603
 24
29.474337
 34
0.0
  3
STD
  0
DIMENSION
  8
DIM
  2
*D19
 10
13.199603
 20
31.110021
 30
0.0
 11
11.703509
 21
31.110021
 31
0.0
 12
0.827736
 22
19.306972
 32
0.0
 13
13.299603
 23
31.105183
 33
0.0
 14
13.199603
 24
31.105183
 34
0.0
  3
STD
  0
DIMENSION
  8
DIM
  2
*D51
 10
8.419728
 20
31.898021
 30
0.0
 11
10.182352
 21
32.828084
 31
0.0
 12
0.0
 22
0.269847
 32
0.0
 70
   130
  1
1%%D
 13
8.403272
 23
31.898021
 33
0.0
 14
9.780225
 24
31.873986
 34
0.0
 15
8.403272
 25
31.898021
 35
0.0
 16
10.53687
 26
31.871917
 36
0.0
  3
DIM
  0
DIMENSION
  8
DIM
  2
*D41
 10
8.403272
 20
31.210982
 30
0.0
 11
6.868116
 21
31.210982
 31
0.0
 12
0.0
 22
0.269847
 32
0.0
 13
8.621272
 23
31.488021
 33
0.0
 14
8.403272
 24
31.210982
 34
0.0
  3
STD
  0
DIMENSION
  8
DIM
  2
*D3
 10
8.403272
 20
30.606837
 30
0.0
 11
6.868116
 21
30.606837
 31
0.0
 12
0.493892
 22
17.374874
 32
0.0
 13
8.463272
 23
30.593935
 33
0.0
 14
8.403272
 24
30.593935
 34
0.0
  3
STD
  0
DIMENSION
  8
DIM
  2
*D21
 10
9.903272
 20
27.9845
 30
0.0
 11
9.153272
 21
27.9845
 31
0.0
 12
1.979563
 22
3.514738
 32
0.0
  1
B
 13
8.403272
 23
28.898021
 33
0.0
 14
9.903272
 24
29.047041
 34
0.0
  3
DIM
  0
LINE
  8
DIM
 10
10.253978
 20
28.729038
 30
0.0
 11
11.157331
 21
28.190627
 31
0.0
  0
SOLID
  8
DIM
 10
10.21558
 20
28.664613
 30
0.0
 11
10.292376
 21
28.793463
 31
0.0
 12
9.867428
 22
28.959427
 32
0.0
 13
9.867428
 23
28.959427
 33
0.0
  0
LINE
  8
DIM
 10
11.157331
 20
28.190627
 30
0.0
 11
11.157331
 21
26.974443
 31
0.0
  0
LINE
  8
DIM
 10
11.157331
 20
26.974443
 30
0.0
 11
10.701102
 21
26.974443
 31
0.0
  0
TEXT
  8
DIM
 10
9.108915
 20
26.818193
 30
0.0
 40
0.3125
  1
0.125 R.
 41
0.75
  7
TXT
 72
     2
 11
10.476102
 21
26.974443
 31
0.0
 73
     2
  0
TEXT
  8
DIM
 10
9.447951
 20
26.357653
 30
0.0
 40
0.3125
  1
TYP.
 41
0.75
  7
TXT
 72
     2
 11
10.151076
 21
26.513903
 31
0.0
 73
     2
  0
DIMENSION
  8
DIM
  2
*D40
 10
8.403272
 20
29.560869
 30
0.0
 11
6.868116
 21
29.560869
 31
0.0
 12
0.0
 22
0.269847
 32
0.0
 13
8.621272
 23
29.308021
 33
0.0
 14
8.403272
 24
29.560869
 34
0.0
 50
180.0
  3
STD
  0
ARC
  8
OBJECT
 10
9.778272
 20
29.047041
 30
0.0
 40
0.125
 50
271.0
 51
0.0
  0
ARC
  8
OBJECT
 10
9.778272
 20
31.749001
 30
0.0
 40
0.125
 50
0.0
 51
89.0
  0
DIMENSION
  8
DIM
  2
*D24
 10
4.991284
 20
31.898021
 30
0.0
 11
5.966357
 21
32.798021
 31
0.0
 12
-0.513041
 22
3.514738
 32
0.0
 70
   128
 13
3.776034
 23
31.598021
 33
0.0
 14
3.889034
 24
31.898021
 34
0.0
 50
90.0
  3
STD
  0
DIMENSION
  8
DIM
  2
*D23
 10
1.576034
 20
33.005994
 30
0.0
 11
2.826034
 21
33.005994
 31
0.0
 12
-0.513041
 22
3.514738
 32
0.0
  1
<>
 13
4.076034
 23
31.711021
 33
0.0
 14
1.576034
 24
31.711021
 34
0.0
  3
DIM
  0
DIMENSION
  8
DIM
  2
*D22
 10
0.80225
 20
28.898021
 30
0.0
 11
0.80225
 21
30.398021
 31
0.0
 12
-0.513041
 22
3.514738
 32
0.0
  1
<>
 13
1.763034
 23
31.898021
 33
0.0
 14
1.763034
 24
28.898021
 34
0.0
 50
90.0
  3
STD
  0
DIMENSION
  8
DIM
  2
*D0
 10
2.808651
 20
28.898021
 30
0.0
 11
1.762557
 21
27.998021
 31
0.0
 12
-0.922806
 22
18.394637
 32
0.0
 13
2.866731
 23
28.998021
 33
0.0
 14
2.866731
 24
28.898021
 34
0.0
 50
90.0
  3
STD
  0
DIMENSION
  8
DIM
  2
*D25
 10
4.076034
 20
30.382755
 30
0.0
 11
5.611191
 21
30.382755
 31
0.0
 12
0.0
 22
3.514738
 32
0.0
 13
3.776034
 23
29.198021
 33
0.0
 14
4.076034
 24
30.395657
 34
0.0
  3
STD
  0
TEXT
  8
DIM
 10
5.202289
 20
29.810622
 30
0.0
 40
0.3125
  1
TYP.
 41
0.75
  7
TXT
  0
DIMENSION
  8
DIM
  2
*D27
 10
4.963857
 20
28.898021
 30
0.0
 11
3.878701
 21
27.998021
 31
0.0
 12
0.0
 22
3.514738
 32
0.0
 13
3.776034
 23
29.198021
 33
0.0
 14
3.889034
 24
28.898021
 34
0.0
 50
90.0
  3
STD
  0
LINE
  8
DIM
 10
4.991284
 20
32.798021
 30
0.0
 11
5.428708
 21
32.798021
 31
0.0
  0
POLYLINE
  8
DIM
 66
     1
 10
0.0
 20
0.0
 30
0.0
 41
0.16875
  0
VERTEX
  8
DIM
 10
13.529464
 20
29.143116
 30
0.0
  0
VERTEX
  8
DIM
 10
13.702327
 20
28.727642
 30
0.0
 41
0.0
  0
VERTEX
  8
DIM
 10
14.27436
 20
27.352762
 30
0.0
 41
0.0
  0
VERTEX
  8
DIM
 10
14.58686
 20
27.352762
 30
0.0
 41
0.0
  0
SEQEND
  8
DIM
  0
TEXT
  8
DIM
 10
14.89936
 20
27.196512
 30
0.0
 40
0.3125
  1
0.125 DIA.
 41
0.75
  7
TXT
  0
TEXT
  8
DIM
 10
14.89936
 20
26.675679
 30
0.0
 40
0.3125
  1
(4) HOLES
 41
0.75
  7
TXT
  0
TEXT
  8
DIM
 10
12.990891
 20
32.902965
 30
0.0
 40
0.3125
  1
0.260 DIA. BOSS
 50
0.0
 41
0.75
  7
TXT
 11
12.990891
 21
33.059215
 31
0.0
 73
     2
  0
TEXT
  8
DIM
 10
13.102211
 20
32.443326
 30
0.0
 40
0.3125
  1
(4) PLACES
 50
0.0
 41
0.75
  7
TXT
 11
13.102211
 21
32.599576
 31
0.0
 73
     2
  0
LINE
  8
DIM
 10
12.438384
 20
33.059215
 30
0.0
 11
12.765891
 21
33.059215
 31
0.0
  0
LINE
  8
DIM
 10
13.138965
 20
32.045099
 30
0.0
 11
12.438384
 21
33.059215
 31
0.0
  0
SOLID
  8
DIM
 10
13.200672
 20
32.087728
 30
0.0
 11
13.077258
 21
32.00247
 31
0.0
 12
13.394739
 22
31.674856
 32
0.0
 13
13.394739
 23
31.674856
 33
0.0
  0
DIMENSION
  8
DIM
  2
*D36
 10
17.948398
 20
30.398021
 30
0.0
 11
17.948398
 21
31.148021
 31
0.0
 12
0.0
 22
0.269847
 32
0.0
 13
15.512603
 23
31.898021
 33
0.0
 14
15.899603
 24
30.398021
 34
0.0
 50
90.0
  3
DIM
  0
TEXT
  8
DIM
 10
1.380229
 20
33.764184
 30
0.0
 40
0.3125
  1
0.187 R. - TYP.
 41
0.75
  7
TXT
 11
1.380229
 21
33.920434
 31
0.0
 73
     2
  0
LINE
  8
DIM
 10
0.803522
 20
33.920434
 30
0.0
 11
1.155229
 21
33.920434
 31
0.0
  0
LINE
  8
DIM
 10
0.803522
 20
32.828589
 30
0.0
 11
0.803522
 21
33.920434
 31
0.0
  0
LINE
  8
DIM
 10
1.341451
 20
32.187886
 30
0.0
 11
0.803522
 21
32.828589
 31
0.0
  0
SOLID
  8
DIM
 10
1.39889
 20
32.236112
 30
0.0
 11
1.284012
 21
32.139661
 31
0.0
 12
1.630805
 22
31.84325
 32
0.0
 13
1.630805
 23
31.84325
 33
0.0
  0
TEXT
  8
DIM
 10
3.4206
 20
27.054164
 30
0.0
 40
0.3125
  1
0.090 DIA.
 50
360.0
 41
0.75
  7
TXT
 11
3.4206
 21
27.210414
 31
0.0
 73
     2
  0
TEXT
  8
DIM
 10
3.799064
 20
26.541503
 30
0.0
 40
0.3125
  1
(4) HOLES
 50
360.0
 41
0.75
  7
TXT
 11
3.799064
 21
26.697753
 31
0.0
 73
     2
  0
LINE
  8
DIM
 10
2.863242
 20
27.186923
 30
0.0
 11
3.294003
 21
27.186923
 31
0.0
  0
TEXT
  8
DIM
 10
1.39061
 20
26.534717
 30
0.0
 40
0.3125
  1
0.220 DIA.
 41
0.75
  7
TXT
 11
1.39061
 21
26.690967
 31
0.0
 73
     2
  0
TEXT
  8
DIM
 10
1.198779
 20
26.050452
 30
0.0
 40
0.3125
  1
(4) PLACES
 41
0.75
  7
TXT
 11
1.198779
 21
26.206702
 31
0.0
 73
     2
  0
SOLID
  8
DIM
 10
3.498191
 20
28.780874
 30
0.0
 11
3.634982
 21
28.719326
 31
0.0
 12
3.751233
 22
29.160473
 32
0.0
 13
3.751233
 23
29.160473
 33
0.0
  0
LINE
  8
DIM
 10
3.566587
 20
28.7501
 30
0.0
 11
2.863242
 21
27.186923
 31
0.0
  0
SOLID
  8
DIM
 10
1.427448
 20
28.852637
 30
0.0
 11
1.536503
 21
28.749647
 31
0.0
 12
1.790946
 22
29.128308
 32
0.0
 13
1.790946
 23
29.128308
 33
0.0
  0
LINE
  8
DIM
 10
1.481976
 20
28.801142
 30
0.0
 11
0.75185
 21
28.02802
 31
0.0
  0
LINE
  8
DIM
 10
0.75185
 20
28.02802
 30
0.0
 11
0.75185
 21
26.713613
 31
0.0
  0
LINE
  8
DIM
 10
0.75185
 20
26.713613
 30
0.0
 11
1.164864
 21
26.713613
 31
0.0
  0
LINE
  8
DIM
  6
BYBLOCK
 10
23.016896
 20
28.836771
 30
0.0
 11
23.016896
 21
27.739073
 31
0.0
  0
LINE
  8
DIM
  6
BYBLOCK
 10
24.616896
 20
28.767954
 30
0.0
 11
24.616896
 21
27.739073
 31
0.0
  0
TEXT
  8
DIM
  6
BYBLOCK
 10
23.738771
 20
27.815323
 30
0.0
 40
0.3125
  1
A
 41
0.75
  7
TXT
 72
     1
 11
23.816896
 21
27.971573
 31
0.0
 73
     2
  0
POINT
  8
DIM
  6
BYBLOCK
 10
24.616896
 20
27.971573
 30
0.0
  0
SOLID
  8
DIM
  6
BYBLOCK
 10
23.466896
 20
28.046573
 30
0.0
 11
23.466896
 21
27.896573
 31
0.0
 12
23.016896
 22
27.971573
 32
0.0
 13
23.016896
 23
27.971573
 33
0.0
  0
LINE
  8
DIM
  6
BYBLOCK
 10
23.466896
 20
27.971573
 30
0.0
 11
23.672514
 21
27.971573
 31
0.0
  0
SOLID
  8
DIM
  6
BYBLOCK
 10
24.166896
 20
28.046573
 30
0.0
 11
24.166896
 21
27.896573
 31
0.0
 12
24.616896
 22
27.971573
 32
0.0
 13
24.616896
 23
27.971573
 33
0.0
  0
LINE
  8
DIM
  6
BYBLOCK
 10
24.166896
 20
27.971573
 30
0.0
 11
23.974208
 21
27.971573
 31
0.0
  0
ARC
  8
OBJECT
 10
24.491896
 20
29.047041
 30
0.0
 40
0.125
 50
271.0
 51
0.0
  0
ARC
  8
OBJECT
 10
24.491896
 20
31.749001
 30
0.0
 40
0.125
 50
0.0
 51
89.0
  0
CIRCLE
  8
OBJECT
  6
PHANTOM
 62
     7
 10
13.020875
 20
30.398508
 30
0.0
 40
0.537241
  0
TEXT
  8
OBJECT
 62
     7
 10
10.45147
 20
30.308382
 30
0.0
 40
0.3125
  1
SEE
 41
0.75
  7
TXT
  0
TEXT
  8
OBJECT
 62
     7
 10
9.406028
 20
29.456931
 30
0.0
 40
0.3125
  1
     "A"
 41
0.75
  7
TXT
  0
SOLID
  8
DIM
 62
     7
 10
12.048877
 20
30.193623
 30
0.0
 11
12.105577
 21
30.054752
 31
0.0
 12
12.49384
 22
30.294286
 32
0.0
 13
12.49384
 23
30.294286
 33
0.0
  0
LINE
  8
DIM
 62
     7
 10
12.077227
 20
30.124188
 30
0.0
 11
11.828399
 21
30.022594
 31
0.0
  0
LINE
  8
DIM
 62
     7
 10
11.828399
 20
30.022594
 30
0.0
 11
11.548576
 21
30.022594
 31
0.0
  0
TEXT
  8
OBJECT
 62
     7
 10
10.198176
 20
29.882611
 30
0.0
 40
0.3125
  1
DETAIL 
 41
0.75
  7
TXT
  0
LINE
  8
OBJECT
 10
20.821191
 20
21.481669
 30
0.0
 11
20.821191
 21
21.200337
 31
0.0
  0
LINE
  8
OBJECT
 10
19.621191
 20
22.280139
 30
0.0
 11
19.621191
 21
23.172169
 31
0.0
  0
LINE
  8
OBJECT
 10
20.712932
 20
21.651601
 30
0.0
 11
19.729451
 21
22.110207
 31
0.0
  0
CIRCLE
  8
OBJECT
 10
20.221191
 20
22.726154
 30
0.0
 40
0.28125
  0
LINE
  8
OBJECT
 10
20.712932
 20
23.800707
 30
0.0
 11
19.729451
 21
23.342101
 31
0.0
  0
ARC
  8
OBJECT
 10
20.633691
 20
21.481669
 30
0.0
 40
0.1875
 50
360.0
 51
65.0
  0
ARC
  8
OBJECT
 10
20.633691
 20
23.970639
 30
0.0
 40
0.1875
 50
295.0
 51
0.0
  0
ARC
  8
OBJECT
 10
19.808691
 20
23.172169
 30
0.0
 40
0.1875
 50
115.0
 51
180.0
  0
ARC
  8
OBJECT
 10
19.808691
 20
22.280139
 30
0.0
 40
0.1875
 50
180.0
 51
245.0
  0
LINE
  8
OBJECT
 10
20.986191
 20
24.41467
 30
0.0
 11
20.986191
 21
21.183073
 31
0.0
  0
LINE
  8
OBJECT
 10
20.821191
 20
24.324322
 30
0.0
 11
20.821191
 21
23.970639
 31
0.0
  0
LINE
  8
OBJECT
 10
21.121191
 20
24.451962
 30
0.0
 11
21.121191
 21
21.183675
 31
0.0
  0
TEXT
  8
TEXT
 10
14.386491
 20
36.451327
 30
0.0
 40
0.3125
  1
SUPPLIED FOR ASSEMBLY.
 41
0.75
  7
TXT
  0
TEXT
  8
TEXT
 10
13.974137
 20
36.891522
 30
0.0
 40
0.3125
  1
FOUR (4) #4 x 0.562" LG. SCREWS
 41
0.75
  7
TXT
  0
TEXT
  8
TEXT
 10
1.190063
 20
35.840242
 30
0.0
 40
0.3125
  1
%%UFINISH:%%u SMOOTH, MATTE
 41
0.75
  7
TXT
  0
TEXT
  8
TEXT
 10
1.190063
 20
36.361076
 30
0.0
 40
0.3125
  1
%%UCOLOR:%%U BLACK
 41
0.75
  7
TXT
  0
TEXT
  8
TEXT
 10
1.190063
 20
36.881909
 30
0.0
 40
0.3125
  1
%%UMATERIAL:%%u HIGH-IMPACT POLYSTYRENE
 41
0.75
  7
TXT
  0
LINE
  8
TITLE
 10
12.65
 20
20.869217
 30
0.0
 11
0.155
 21
20.869217
 31
0.0
  0
TEXT
  8
TEXT
 10
10.176875
 20
20.113004
 30
0.0
 40
0.3125
  1
1.500
 41
0.75
  7
TXT
 72
     4
 11
10.5675
 21
20.269254
 31
0.0
  0
TEXT
  8
TEXT
 10
10.157344
 20
21.337745
 30
0.0
 40
0.3125
  1
0.900
 41
0.75
  7
TXT
 72
     4
 11
10.5675
 21
21.493995
 31
0.0
  0
TEXT
  8
TEXT
 10
10.489375
 20
22.428663
 30
0.0
 40
0.3125
  1
B
 41
0.75
  7
TXT
 72
     4
 11
10.5675
 21
22.584913
 31
0.0
  0
TEXT
  8
TEXT
 10
6.011875
 20
20.113004
 30
0.0
 40
0.3125
  1
1.600
 41
0.75
  7
TXT
 72
     4
 11
6.4025
 21
20.269254
 31
0.0
  0
TEXT
  8
TEXT
 10
6.031406
 20
21.337745
 30
0.0
 40
0.3125
  1
1.000
 41
0.75
  7
TXT
 72
     4
 11
6.4025
 21
21.493995
 31
0.0
  0
TEXT
  8
TEXT
 10
6.324375
 20
22.428663
 30
0.0
 40
0.3125
  1
A
 41
0.75
  7
TXT
 72
     4
 11
6.4025
 21
22.584913
 31
0.0
  0
TEXT
  8
TEXT
 10
1.221875
 20
20.113004
 30
0.0
 40
0.3125
  1
CU-744-MB
 41
0.75
  7
TXT
 72
     4
 11
2.2375
 21
20.269254
 31
0.0
  0
TEXT
  8
TEXT
 10
1.221875
 20
21.337745
 30
0.0
 40
0.3125
  1
CU-742-MB
 41
0.75
  7
TXT
 72
     4
 11
2.2375
 21
21.493995
 31
0.0
  0
TEXT
  8
TEXT
 10
1.417187
 20
22.428663
 30
0.0
 40
0.3125
  1
PART No.
 41
0.75
  7
TXT
 72
     4
 11
2.2375
 21
22.584913
 31
0.0
  0
LINE
  8
TITLE
 10
12.65
 20
19.733954
 30
0.0
 11
12.65
 21
23.139742
 31
0.0
  0
LINE
  8
TITLE
 10
8.485
 20
19.733954
 30
0.0
 11
8.485
 21
23.139742
 31
0.0
  0
LINE
  8
TITLE
 10
4.32
 20
19.733954
 30
0.0
 11
4.32
 21
23.139742
 31
0.0
  0
POLYLINE
  8
OBJECT
 66
     1
 10
0.0
 20
0.0
 30
0.0
 70
     4
 75
     6
  0
VERTEX
  8
OBJECT
 10
20.821191
 20
24.324322
 30
0.0
 70
    16
  0
VERTEX
  8
OBJECT
 10
20.821191
 20
24.324322
 30
0.0
 70
     8
  0
VERTEX
  8
OBJECT
 10
20.93474
 20
24.393819
 30
0.0
 70
     8
  0
VERTEX
  8
OBJECT
 10
21.037288
 20
24.435378
 30
0.0
 70
     8
  0
VERTEX
  8
OBJECT
 10
21.128925
 20
24.453491
 30
0.0
 70
     8
  0
VERTEX
  8
OBJECT
 10
21.20974
 20
24.452649
 30
0.0
 70
     8
  0
VERTEX
  8
OBJECT
 10
21.279824
 20
24.437343
 30
0.0
 70
     8
  0
VERTEX
  8
OBJECT
 10
21.339265
 20
24.412066
 30
0.0
 70
     8
  0
VERTEX
  8
OBJECT
 10
21.388154
 20
24.381309
 30
0.0
 70
     8
  0
VERTEX
  8
OBJECT
 10
21.426581
 20
24.349563
 30
0.0
 70
     8
  0
VERTEX
  8
OBJECT
 10
21.454917
 20
24.32052
 30
0.0
 70
     8
  0
VERTEX
  8
OBJECT
 10
21.474668
 20
24.294674
 30
0.0
 70
     8
  0
VERTEX
  8
OBJECT
 10
21.487622
 20
24.27172
 30
0.0
 70
     8
  0
VERTEX
  8
OBJECT
 10
21.495567
 20
24.251352
 30
0.0
 70
     8
  0
VERTEX
  8
OBJECT
 10
21.500293
 20
24.233264
 30
0.0
 70
     8
  0
VERTEX
  8
OBJECT
 10
21.503586
 20
24.217152
 30
0.0
 70
     8
  0
VERTEX
  8
OBJECT
 10
21.507235
 20
24.202709
 30
0.0
 70
     8
  0
VERTEX
  8
OBJECT
 10
21.513028
 20
24.18963
 30
0.0
 70
     8
  0
VERTEX
  8
OBJECT
 10
21.522241
 20
24.177607
 30
0.0
 70
     8
  0
VERTEX
  8
OBJECT
 10
21.53409
 20
24.166329
 30
0.0
 70
     8
  0
VERTEX
  8
OBJECT
 10
21.547282
 20
24.155478
 30
0.0
 70
     8
  0
VERTEX
  8
OBJECT
 10
21.560521
 20
24.144741
 30
0.0
 70
     8
  0
VERTEX
  8
OBJECT
 10
21.572512
 20
24.133802
 30
0.0
 70
     8
  0
VERTEX
  8
OBJECT
 10
21.581961
 20
24.122347
 30
0.0
 70
     8
  0
VERTEX
  8
OBJECT
 10
21.587571
 20
24.11006
 30
0.0
 70
     8
  0
VERTEX
  8
OBJECT
 10
21.588049
 20
24.096627
 30
0.0
 70
     8
  0
VERTEX
  8
OBJECT
 10
21.582629
 20
24.081797
 30
0.0
 70
     8
  0
VERTEX
  8
OBJECT
 10
21.572676
 20
24.065585
 30
0.0
 70
     8
  0
VERTEX
  8
OBJECT
 10
21.560081
 20
24.048069
 30
0.0
 70
     8
  0
VERTEX
  8
OBJECT
 10
21.54674
 20
24.029327
 30
0.0
 70
     8
  0
VERTEX
  8
OBJECT
 10
21.534546
 20
24.009439
 30
0.0
 70
     8
  0
VERTEX
  8
OBJECT
 10
21.525393
 20
23.988483
 30
0.0
 70
     8
  0
VERTEX
  8
OBJECT
 10
21.521174
 20
23.966538
 30
0.0
 70
     8
  0
VERTEX
  8
OBJECT
 10
21.523784
 20
23.943682
 30
0.0
 70
     8
  0
VERTEX
  8
OBJECT
 10
21.534441
 20
23.920017
 30
0.0
 70
     8
  0
VERTEX
  8
OBJECT
 10
21.551665
 20
23.895728
 30
0.0
 70
     8
  0
VERTEX
  8
OBJECT
 10
21.5733
 20
23.871023
 30
0.0
 70
     8
  0
VERTEX
  8
OBJECT
 10
21.597191
 20
23.84611
 30
0.0
 70
     8
  0
VERTEX
  8
OBJECT
 10
21.621183
 20
23.821197
 30
0.0
 70
     8
  0
VERTEX
  8
OBJECT
 10
21.643121
 20
23.796492
 30
0.0
 70
     8
  0
VERTEX
  8
OBJECT
 10
21.660848
 20
23.772203
 30
0.0
 70
     8
  0
VERTEX
  8
OBJECT
 10
21.672211
 20
23.748537
 30
0.0
 70
     8
  0
VERTEX
  8
OBJECT
 10
21.675724
 20
23.72566
 30
0.0
 70
     8
  0
VERTEX
  8
OBJECT
 10
21.672589
 20
23.703565
 30
0.0
 70
     8
  0
VERTEX
  8
OBJECT
 10
21.664677
 20
23.6822
 30
0.0
 70
     8
  0
VERTEX
  8
OBJECT
 10
21.653859
 20
23.661515
 30
0.0
 70
     8
  0
VERTEX
  8
OBJECT
 10
21.642008
 20
23.64146
 30
0.0
 70
     8
  0
VERTEX
  8
OBJECT
 10
21.630995
 20
23.621985
 30
0.0
 70
     8
  0
VERTEX
  8
OBJECT
 10
21.622692
 20
23.60304
 30
0.0
 70
     8
  0
VERTEX
  8
OBJECT
 10
21.618971
 20
23.584573
 30
0.0
 70
     8
  0
VERTEX
  8
OBJECT
 10
21.6211
 20
23.566503
 30
0.0
 70
     8
  0
VERTEX
  8
OBJECT
 10
21.627941
 20
23.548625
 30
0.0
 70
     8
  0
VERTEX
  8
OBJECT
 10
21.63775
 20
23.530704
 30
0.0
 70
     8
  0
VERTEX
  8
OBJECT
 10
21.648784
 20
23.512502
 30
0.0
 70
     8
  0
VERTEX
  8
OBJECT
 10
21.659302
 20
23.493783
 30
0.0
 70
     8
  0
VERTEX
  8
OBJECT
 10
21.66756
 20
23.474312
 30
0.0
 70
     8
  0
VERTEX
  8
OBJECT
 10
21.671817
 20
23.453852
 30
0.0
 70
     8
  0
VERTEX
  8
OBJECT
 10
21.670329
 20
23.432166
 30
0.0
 70
     8
  0
VERTEX
  8
OBJECT
 10
21.661961
 20
23.409093
 30
0.0
 70
     8
  0
VERTEX
  8
OBJECT
 10
21.648003
 20
23.384766
 30
0.0
 70
     8
  0
VERTEX
  8
OBJECT
 10
21.630351
 20
23.359393
 30
0.0
 70
     8
  0
VERTEX
  8
OBJECT
 10
21.610904
 20
23.333182
 30
0.0
 70
     8
  0
VERTEX
  8
OBJECT
 10
21.591558
 20
23.306342
 30
0.0
 70
     8
  0
VERTEX
  8
OBJECT
 10
21.574209
 20
23.279079
 30
0.0
 70
     8
  0
VERTEX
  8
OBJECT
 10
21.560755
 20
23.251602
 30
0.0
 70
     8
  0
VERTEX
  8
OBJECT
 10
21.553093
 20
23.224119
 30
0.0
 70
     8
  0
VERTEX
  8
OBJECT
 10
21.552526
 20
23.196781
 30
0.0
 70
     8
  0
VERTEX
  8
OBJECT
 10
21.557983
 20
23.169516
 30
0.0
 70
     8
  0
VERTEX
  8
OBJECT
 10
21.567802
 20
23.142194
 30
0.0
 70
     8
  0
VERTEX
  8
OBJECT
 10
21.580318
 20
23.114686
 30
0.0
 70
     8
  0
VERTEX
  8
OBJECT
 10
21.593868
 20
23.086863
 30
0.0
 70
     8
  0
VERTEX
  8
OBJECT
 10
21.606787
 20
23.058596
 30
0.0
 70
     8
  0
VERTEX
  8
OBJECT
 10
21.617412
 20
23.029755
 30
0.0
 70
     8
  0
VERTEX
  8
OBJECT
 10
21.62408
 20
23.000213
 30
0.0
 70
     8
  0
VERTEX
  8
OBJECT
 10
21.625711
 20
22.969921
 30
0.0
 70
     8
  0
VERTEX
  8
OBJECT
 10
21.623567
 20
22.939163
 30
0.0
 70
     8
  0
VERTEX
  8
OBJECT
 10
21.619495
 20
22.908304
 30
0.0
 70
     8
  0
VERTEX
  8
OBJECT
 10
21.615341
 20
22.877709
 30
0.0
 70
     8
  0
VERTEX
  8
OBJECT
 10
21.612951
 20
22.847745
 30
0.0
 70
     8
  0
VERTEX
  8
OBJECT
 10
21.614173
 20
22.818776
 30
0.0
 70
     8
  0
VERTEX
  8
OBJECT
 10
21.620852
 20
22.791168
 30
0.0
 70
     8
  0
VERTEX
  8
OBJECT
 10
21.634835
 20
22.765286
 30
0.0
 70
     8
  0
VERTEX
  8
OBJECT
 10
21.657241
 20
22.741377
 30
0.0
 70
     8
  0
VERTEX
  8
OBJECT
 10
21.686277
 20
22.719217
 30
0.0
 70
     8
  0
VERTEX
  8
OBJECT
 10
21.719422
 20
22.698462
 30
0.0
 70
     8
  0
VERTEX
  8
OBJECT
 10
21.754155
 20
22.678768
 30
0.0
 70
     8
  0
VERTEX
  8
OBJECT
 10
21.787955
 20
22.659792
 30
0.0
 70
     8
  0
VERTEX
  8
OBJECT
 10
21.818302
 20
22.641191
 30
0.0
 70
     8
  0
VERTEX
  8
OBJECT
 10
21.842674
 20
22.622621
 30
0.0
 70
     8
  0
VERTEX
  8
OBJECT
 10
21.858551
 20
22.60374
 30
0.0
 70
     8
  0
VERTEX
  8
OBJECT
 10
21.864227
 20
22.584284
 30
0.0
 70
     8
  0
VERTEX
  8
OBJECT
 10
21.861253
 20
22.564311
 30
0.0
 70
     8
  0
VERTEX
  8
OBJECT
 10
21.851996
 20
22.543961
 30
0.0
 70
     8
  0
VERTEX
  8
OBJECT
 10
21.838822
 20
22.523371
 30
0.0
 70
     8
  0
VERTEX
  8
OBJECT
 10
21.824097
 20
22.50268
 30
0.0
 70
     8
  0
VERTEX
  8
OBJECT
 10
21.810189
 20
22.482027
 30
0.0
 70
     8
  0
VERTEX
  8
OBJECT
 10
21.799463
 20
22.46155
 30
0.0
 70
     8
  0
VERTEX
  8
OBJECT
 10
21.794287
 20
22.441388
 30
0.0
 70
     8
  0
VERTEX
  8
OBJECT
 10
21.796232
 20
22.42156
 30
0.0
 70
     8
  0
VERTEX
  8
OBJECT
 10
21.803698
 20
22.401607
 30
0.0
 70
     8
  0
VERTEX
  8
OBJECT
 10
21.81429
 20
22.380947
 30
0.0
 70
     8
  0
VERTEX
  8
OBJECT
 10
21.825612
 20
22.359003
 30
0.0
 70
     8
  0
VERTEX
  8
OBJECT
 10
21.835271
 20
22.335193
 30
0.0
 70
     8
  0
VERTEX
  8
OBJECT
 10
21.840872
 20
22.30894
 30
0.0
 70
     8
  0
VERTEX
  8
OBJECT
 10
21.840019
 20
22.279662
 30
0.0
 70
     8
  0
VERTEX
  8
OBJECT
 10
21.830318
 20
22.246781
 30
0.0
 70
     8
  0
VERTEX
  8
OBJECT
 10
21.810341
 20
22.20994
 30
0.0
 70
     8
  0
VERTEX
  8
OBJECT
 10
21.782527
 20
22.169674
 30
0.0
 70
     8
  0
VERTEX
  8
OBJECT
 10
21.750283
 20
22.126744
 30
0.0
 70
     8
  0
VERTEX
  8
OBJECT
 10
21.717015
 20
22.081909
 30
0.0
 70
     8
  0
VERTEX
  8
OBJECT
 10
21.686129
 20
22.035926
 30
0.0
 70
     8
  0
VERTEX
  8
OBJECT
 10
21.661031
 20
21.989557
 30
0.0
 70
     8
  0
VERTEX
  8
OBJECT
 10
21.645128
 20
21.943559
 30
0.0
 70
     8
  0
VERTEX
  8
OBJECT
 10
21.641826
 20
21.898691
 30
0.0
 70
     8
  0
VERTEX
  8
OBJECT
 10
21.653254
 20
21.855565
 30
0.0
 70
     8
  0
VERTEX
  8
OBJECT
 10
21.676429
 20
21.814193
 30
0.0
 70
     8
  0
VERTEX
  8
OBJECT
 10
21.707091
 20
21.77444
 30
0.0
 70
     8
  0
VERTEX
  8
OBJECT
 10
21.740979
 20
21.736171
 30
0.0
 70
     8
  0
VERTEX
  8
OBJECT
 10
21.773834
 20
21.69925
 30
0.0
 70
     8
  0
VERTEX
  8
OBJECT
 10
21.801395
 20
21.663542
 30
0.0
 70
     8
  0
VERTEX
  8
OBJECT
 10
21.819403
 20
21.628911
 30
0.0
 70
     8
  0
VERTEX
  8
OBJECT
 10
21.823596
 20
21.595222
 30
0.0
 70
     8
  0
VERTEX
  8
OBJECT
 10
21.810928
 20
21.56232
 30
0.0
 70
     8
  0
VERTEX
  8
OBJECT
 10
21.78321
 20
21.529974
 30
0.0
 70
     8
  0
VERTEX
  8
OBJECT
 10
21.743464
 20
21.497934
 30
0.0
 70
     8
  0
VERTEX
  8
OBJECT
 10
21.694714
 20
21.465949
 30
0.0
 70
     8
  0
VERTEX
  8
OBJECT
 10
21.639983
 20
21.433768
 30
0.0
 70
     8
  0
VERTEX
  8
OBJECT
 10
21.582295
 20
21.401142
 30
0.0
 70
     8
  0
VERTEX
  8
OBJECT
 10
21.524673
 20
21.367819
 30
0.0
 70
     8
  0
VERTEX
  8
OBJECT
 10
21.470141
 20
21.33355
 30
0.0
 70
     8
  0
VERTEX
  8
OBJECT
 10
21.42038
 20
21.298485
 30
0.0
 70
     8
  0
VERTEX
  8
OBJECT
 10
21.371708
 20
21.264375
 30
0.0
 70
     8
  0
VERTEX
  8
OBJECT
 10
21.319102
 20
21.233374
 30
0.0
 70
     8
  0
VERTEX
  8
OBJECT
 10
21.257535
 20
21.207633
 30
0.0
 70
     8
  0
VERTEX
  8
OBJECT
 10
21.181985
 20
21.189307
 30
0.0
 70
     8
  0
VERTEX
  8
OBJECT
 10
21.087427
 20
21.180547
 30
0.0
 70
     8
  0
VERTEX
  8
OBJECT
 10
20.968837
 20
21.183506
 30
0.0
 70
     8
  0
VERTEX
  8
OBJECT
 10
20.821191
 20
21.200337
 30
0.0
 70
     8
  0
VERTEX
  8
OBJECT
 10
21.138735
 20
24.55089
 30
0.0
 70
    16
  0
VERTEX
  8
OBJECT
 10
21.537229
 20
24.3122
 30
0.0
 70
    16
  0
VERTEX
  8
OBJECT
 10
21.471082
 20
24.17834
 30
0.0
 70
    16
  0
VERTEX
  8
OBJECT
 10
21.656615
 20
24.112217
 30
0.0
 70
    16
  0
VERTEX
  8
OBJECT
 10
21.430748
 20
23.952553
 30
0.0
 70
    16
  0
VERTEX
  8
OBJECT
 10
21.763096
 20
23.739667
 30
0.0
 70
    16
  0
VERTEX
  8
OBJECT
 10
21.550135
 20
23.580003
 30
0.0
 70
    16
  0
VERTEX
  8
OBJECT
 10
21.750189
 20
23.447756
 30
0.0
 70
    16
  0
VERTEX
  8
OBJECT
 10
21.471082
 20
23.221968
 30
0.0
 70
    16
  0
VERTEX
  8
OBJECT
 10
21.684042
 20
23.009083
 30
0.0
 70
    16
  0
VERTEX
  8
OBJECT
 10
21.537229
 20
22.742976
 30
0.0
 70
    16
  0
VERTEX
  8
OBJECT
 10
21.976056
 20
22.610729
 30
0.0
 70
    16
  0
VERTEX
  8
OBJECT
 10
21.709855
 20
22.43655
 30
0.0
 70
    16
  0
VERTEX
  8
OBJECT
 10
21.950243
 20
22.291401
 30
0.0
 70
    16
  0
VERTEX
  8
OBJECT
 10
21.471082
 20
21.878532
 30
0.0
 70
    16
  0
VERTEX
  8
OBJECT
 10
22.016389
 20
21.586621
 30
0.0
 70
    16
  0
VERTEX
  8
OBJECT
 10
21.404935
 20
21.346318
 30
0.0
 70
    16
  0
VERTEX
  8
OBJECT
 10
21.258121
 20
21.135045
 30
0.0
 70
    16
  0
VERTEX
  8
OBJECT
 10
20.821191
 20
21.200337
 30
0.0
 70
    16
  0
SEQEND
  8
OBJECT
  0
TEXT
  8
DIM
 10
22.336695
 20
23.225862
 30
0.0
 40
0.3125
  1
(2) HOLES
 41
0.75
  7
TXT
 72
     2
 11
24.211695
 21
23.225862
 31
0.0
  0
TEXT
  8
DIM
 10
22.453882
 20
23.746695
 30
0.0
 40
0.3125
  1
0.188 DIA.
 41
0.75
  7
TXT
 72
     2
 11
24.211695
 21
23.746695
 31
0.0
  0
LINE
  8
CENTER
 10
20.742154
 20
22.726154
 30
0.0
 11
19.704862
 21
22.726154
 31
0.0
  0
POLYLINE
  8
DIM
 66
     1
 10
0.0
 20
0.0
 30
0.0
 41
0.16875
  0
VERTEX
  8
DIM
 10
20.455064
 20
22.882376
 30
0.0
  0
VERTEX
  8
DIM
 10
20.788056
 20
23.185058
 30
0.0
 41
0.0
  0
VERTEX
  8
DIM
 10
21.577831
 20
23.902945
 30
0.0
 41
0.0
  0
VERTEX
  8
DIM
 10
22.286508
 20
23.902945
 30
0.0
 41
0.0
  0
SEQEND
  8
DIM
  0
DIMENSION
  8
DIM
  2
*D38
 10
18.212143
 20
22.179396
 30
0.0
 11
18.212143
 21
22.452775
 31
0.0
 12
0.0
 22
0.269847
 32
0.0
  1
0.182
 13
19.704862
 23
22.726154
 33
0.0
 14
19.650556
 24
22.179396
 34
0.0
 50
90.0
  3
DIM
  0
DIMENSION
  8
DIM
  2
*D28
 10
17.232848
 20
23.272912
 30
0.0
 11
17.232848
 21
22.726154
 31
0.0
 12
-0.605001
 22
0.269847
 32
0.0
  1
0.365
 13
19.650556
 23
22.179396
 33
0.0
 14
19.650556
 24
23.272912
 34
0.0
 50
90.0
  3
DIM
  0
DIMENSION
  8
DIM
  2
*D30
 10
16.264847
 20
21.582412
 30
0.0
 11
16.264847
 21
22.154283
 31
0.0
 12
-0.605001
 22
0.269847
 32
0.0
  1
0.381
 13
16.78295
 23
22.726154
 33
0.0
 14
20.791827
 24
21.582412
 34
0.0
 50
90.0
  3
DIM
  0
DIMENSION
  8
DIM
  2
*D29
 10
15.367832
 20
23.869896
 30
0.0
 11
15.367832
 21
22.726154
 31
0.0
 12
-0.605001
 22
0.269847
 32
0.0
  1
0.762
 13
20.791827
 23
21.582412
 33
0.0
 14
20.791827
 24
23.869896
 34
0.0
 50
90.0
  3
DIM
  0
TEXT
  8
DIM
 10
20.458103
 20
0.879954
 30
0.0
 40
0.3125
  1
0.025 R. 
 41
0.75
  7
TXT
 11
20.458103
 21
1.036204
 31
0.0
 73
     2
  0
TEXT
  8
DIM
 10
20.063948
 20
0.42354
 30
0.0
 40
0.3125
  1
(2) PLACES
 41
0.75
  7
TXT
 11
20.063948
 21
0.57979
 31
0.0
 73
     2
  0
SOLID
  8
DIM
 10
20.569904
 20
24.268487
 30
0.0
 11
20.452627
 21
24.174967
 31
0.0
 12
20.791827
 22
23.869896
 32
0.0
 13
20.791827
 23
23.869896
 33
0.0
  0
LINE
  8
DIM
 10
20.511266
 20
24.221727
 30
0.0
 11
19.685604
 21
25.257128
 31
0.0
  0
LINE
  8
DIM
 10
19.685604
 20
25.257128
 30
0.0
 11
19.235604
 21
25.257128
 31
0.0
  0
TEXT
  8
DIM
 10
17.604354
 20
25.100878
 30
0.0
 40
0.3125
  1
0.063 R.
 41
0.75
  7
TXT
 72
     2
 11
19.010604
 21
25.257128
 31
0.0
 73
     2
  0
TEXT
  8
DIM
 10
17.193243
 20
24.670268
 30
0.0
 40
0.3125
  1
(4) PLACES
 41
0.75
  7
TXT
 72
     2
 11
19.302618
 21
24.826518
 31
0.0
 73
     2
  0
DIMENSION
  8
DIM
  2
*D33
 10
15.091867
 20
14.960851
 30
0.0
 11
13.634367
 21
14.960851
 31
0.0
 13
12.176867
 23
9.26175
 33
0.0
 14
15.091867
 24
11.79125
 34
0.0
  3
DIM
  0
DIMENSION
  8
DIM
  2
*D43
 10
17.311299
 20
1.255289
 30
0.0
 11
15.73708
 21
1.255289
 31
0.0
  1
0.295
 13
18.15235
 23
2.731399
 33
0.0
 14
17.311299
 24
1.740639
 34
0.0
  3
STD
  0
SOLID
  8
DIM
 10
18.789538
 20
2.307876
 30
0.0
 11
18.908515
 21
2.399225
 31
0.0
 12
18.57498
 22
2.71048
 32
0.0
 13
18.57498
 23
2.71048
 33
0.0
  0
LINE
  8
DIM
 10
18.849026
 20
2.353551
 30
0.0
 11
19.862428
 21
1.033656
 31
0.0
  0
LINE
  8
DIM
 10
19.862428
 20
1.033656
 30
0.0
 11
20.312428
 21
1.033656
 31
0.0
  0
DIMENSION
  8
DIM
  2
*D35
 10
20.986191
 20
20.346401
 30
0.0
 11
22.56041
 21
20.346401
 31
0.0
 12
0.0
 22
0.269847
 32
0.0
  1
0.255
 13
20.221191
 23
22.155234
 33
0.0
 14
20.986191
 24
21.183073
 34
0.0
  3
STD
  0
DIMENSION
  8
DIM
  2
*D37
 10
12.999603
 20
28.326382
 30
0.0
 11
14.449603
 21
28.326382
 31
0.0
 12
0.0
 22
0.269847
 32
0.0
 13
15.899603
 23
30.398021
 33
0.0
 14
12.999603
 24
30.398021
 34
0.0
  3
STD
  0
LINE
  8
CENTER
 10
18.15235
 20
2.731399
 30
0.0
 11
18.15235
 21
3.732754
 31
0.0
  0
SOLID
  8
DIM
 10
20.126675
 20
7.826126
 30
0.0
 11
20.233399
 21
7.93153
 31
0.0
 12
19.863825
 22
8.199
 32
0.0
 13
19.863825
 23
8.199
 33
0.0
  0
LINE
  8
DIM
 10
20.180037
 20
7.878828
 30
0.0
 11
21.375895
 21
6.667993
 31
0.0
  0
LINE
  8
DIM
 10
21.375895
 20
6.667993
 30
0.0
 11
21.825895
 21
6.667993
 31
0.0
  0
TEXT
  8
DIM
 10
22.050895
 20
6.511743
 30
0.0
 40
0.3125
  1
0.225 DIA.
 41
0.75
  7
TXT
 11
22.050895
 21
6.667993
 31
0.0
 73
     2
  0
TEXT
  8
DIM
 10
21.30392
 20
6.047266
 30
0.0
 40
0.3125
  1
C'BORE x 0.109 DP.
 41
0.75
  7
TXT
 11
21.30392
 21
6.203516
 31
0.0
 73
     2
  0
ARC
  8
OBJECT
 10
12.558867
 20
12.8545
 30
0.0
 40
0.042
 50
90.0
 51
180.0
  0
LINE
  8
OBJECT
 10
12.558867
 20
12.8965
 30
0.0
 11
14.709867
 21
12.8965
 31
0.0
  0
LINE
  8
OBJECT
 10
12.516867
 20
8.1985
 30
0.0
 11
12.516867
 21
12.8545
 31
0.0
  0
ARC
  8
OBJECT
 10
12.558867
 20
8.1985
 30
0.0
 40
0.042
 50
180.0
 51
270.0
  0
LINE
  8
OBJECT
 10
14.709867
 20
8.1565
 30
0.0
 11
12.558867
 21
8.1565
 31
0.0
  0
ARC
  8
OBJECT
 10
14.709867
 20
8.1985
 30
0.0
 40
0.042
 50
270.0
 51
0.0
  0
LINE
  8
OBJECT
 10
14.751867
 20
12.8545
 30
0.0
 11
14.751867
 21
8.1985
 31
0.0
  0
ARC
  8
OBJECT
 10
14.709867
 20
12.8545
 30
0.0
 40
0.042
 50
0.0
 51
90.0
  0
LINE
  8
CENTER
 10
20.221191
 20
22.155234
 30
0.0
 11
20.221191
 21
23.286479
 31
0.0
  0
TEXT
  8
DIM
 10
20.908362
 20
25.776603
 30
0.0
 40
0.3125
  1
C'BORE x 0.098 DEEP
 41
0.75
  7
TXT
 11
20.908362
 21
25.932853
 31
0.0
 73
     2
  0
TEXT
  8
DIM
 10
21.78763
 20
26.241081
 30
0.0
 40
0.3125
  1
0.225 DIA.
 41
0.75
  7
TXT
 11
21.78763
 21
26.397331
 31
0.0
 73
     2
  0
SOLID
  8
DIM
 10
21.864015
 20
28.722213
 30
0.0
 11
21.966931
 21
28.831339
 31
0.0
 12
21.588095
 22
29.085521
 32
0.0
 13
21.588095
 23
29.085521
 33
0.0
  0
LINE
  8
DIM
 10
21.915473
 20
28.776776
 30
0.0
 11
22.750457
 21
27.989313
 31
0.0
  0
LINE
  8
DIM
 10
22.750457
 20
27.989313
 30
0.0
 11
21.172323
 21
26.374752
 31
0.0
  0
LINE
  8
DIM
 10
21.172323
 20
26.374752
 30
0.0
 11
21.615991
 21
26.374752
 31
0.0
  0
TEXT
  8
DIM
 10
21.629523
 20
25.318577
 30
0.0
 40
0.3125
  1
(4) PLACES
 41
0.75
  7
TXT
 11
21.629523
 21
25.474827
 31
0.0
 73
     2
  0
TEXT
  8
DIM
 10
21.923441
 20
5.597303
 30
0.0
 40
0.3125
  1
(4) PLACES
 41
0.75
  7
TXT
 11
21.923441
 21
5.753553
 31
0.0
 73
     2
  0
SOLID
  8
DIM
 10
12.47253
 20
13.28253
 30
0.0
 11
12.335715
 21
13.221037
 31
0.0
 12
12.588603
 22
12.841336
 32
0.0
 13
12.588603
 23
12.841336
 33
0.0
  0
LINE
  8
DIM
 10
12.404123
 20
13.251783
 30
0.0
 11
11.616826
 21
15.218894
 31
0.0
  0
LINE
  8
DIM
 10
11.616826
 20
15.218894
 30
0.0
 11
11.247372
 21
15.218894
 31
0.0
  0
TEXT
  8
DIM
 10
6.457464
 20
30.071891
 30
0.0
 40
0.3125
  1
RECESS
 41
0.75
  7
TXT
  0
LINE
  8
HIDDEN
 10
8.448122
 20
8.3565
 30
0.0
 11
9.648122
 21
8.3565
 31
0.0
  0
LINE
  8
HIDDEN
 10
8.448122
 20
8.2665
 30
0.0
 11
9.648122
 21
8.2665
 31
0.0
  0
LINE
  8
HIDDEN
 10
9.648122
 20
8.2665
 30
0.0
 11
9.648122
 21
8.3565
 31
0.0
  0
LINE
  8
HIDDEN
 10
8.448122
 20
12.6965
 30
0.0
 11
9.648122
 21
12.6965
 31
0.0
  0
LINE
  8
HIDDEN
 10
8.448122
 20
12.7865
 30
0.0
 11
9.648122
 21
12.7865
 31
0.0
  0
LINE
  8
HIDDEN
 10
9.648122
 20
12.6965
 30
0.0
 11
9.648122
 21
12.7865
 31
0.0
  0
DIMENSION
  8
DIM
  2
*D42
 10
21.333095
 20
29.699842
 30
0.0
 11
19.837001
 21
29.699842
 31
0.0
 12
0.0
 22
0.269847
 32
0.0
 13
21.433095
 23
29.428327
 33
0.0
 14
21.333095
 24
29.328021
 34
0.0
  3
STD
  0
DIMENSION
  8
DIM
  2
*D47
 10
19.593825
 20
9.105031
 30
0.0
 11
18.117262
 21
9.105031
 31
0.0
 13
19.703825
 23
8.747022
 33
0.0
 14
19.593825
 24
8.4415
 34
0.0
  3
STD
  0
LINE
  8
HIDDEN
 10
21.490095
 20
31.710521
 30
0.0
 11
21.490095
 21
31.485521
 31
0.0
  0
LINE
  8
HIDDEN
 10
21.490095
 20
29.310521
 30
0.0
 11
21.490095
 21
29.085521
 31
0.0
  0
LINE
  8
HIDDEN
 10
19.754825
 20
12.854
 30
0.0
 11
19.754825
 21
12.629
 31
0.0
  0
LINE
  8
HIDDEN
 10
19.754825
 20
8.424
 30
0.0
 11
19.754825
 21
8.199
 31
0.0
  0
LINE
  8
TITLE
 10
0.155
 20
22.004479
 30
0.0
 11
12.65
 21
22.004479
 31
0.0
  0
LINE
  8
TITLE
 10
12.65
 20
23.139742
 30
0.0
 11
0.155
 21
23.139742
 31
0.0
  0
LINE
  8
TITLE
 10
0.155
 20
2.425525
 30
0.0
 11
12.65
 21
2.425525
 31
0.0
  0
LINE
  8
TITLE
 10
12.65
 20
3.560787
 30
0.0
 11
0.155
 21
3.560787
 31
0.0
  0
LINE
  8
TITLE
 10
12.65
 20
1.290262
 30
0.0
 11
0.155
 21
1.290262
 31
0.0
  0
TEXT
  8
TEXT
 10
14.009896
 20
35.322946
 30
0.0
 40
0.3125
  1
%%UNOTE:%%U ALL DIMENSIONS HAVE %%P0.010 TOLERANCE
 41
0.75
  7
TXT
  0
TEXT
  8
TEXT
 10
15.089657
 20
34.802112
 30
0.0
 40
0.3125
  1
UNLESS OTHERWISE SPECIFIED.
 41
0.75
  7
TXT
  0
TEXT
  8
TEXT
 10
15.089657
 20
16.105713
 30
0.0
 40
0.3125
  1
UNLESS OTHERWISE SPECIFIED.
 41
0.75
  7
TXT
  0
TEXT
  8
TEXT
 10
14.009896
 20
16.626547
 30
0.0
 40
0.3125
  1
%%UNOTE:%%U ALL DIMENSIONS HAVE %%P0.010 TOLERANCE
 41
0.75
  7
TXT
  0
ENDSEC
  0
EOF
