  0
SECTION
  2
HEADER
  9
$ACADVER
  1
AC1009
  9
$INSBASE
 10
0.0
 20
0.0
 30
0.0
  9
$EXTMIN
 10
0.0
 20
0.0
 30
0.0
  9
$EXTMAX
 10
23.25
 20
15.18
 30
0.0
  9
$LIMMIN
 10
0.0
 20
0.0
  9
$LIMMAX
 10
23.25
 20
15.18
  9
$ORTHOMODE
 70
     1
  9
$REGENMODE
 70
     1
  9
$FILLMODE
 70
     1
  9
$QTEXTMODE
 70
     0
  9
$MIRRTEXT
 70
     0
  9
$DRAGMODE
 70
     2
  9
$LTSCALE
 40
0.375
  9
$OSMODE
 70
     0
  9
$ATTMODE
 70
     1
  9
$TEXTSIZE
 40
0.156
  9
$TRACEWID
 40
0.05
  9
$TEXTSTYLE
  7
TXT
  9
$CLAYER
  8
OBJECT
  9
$CELTYPE
  6
BYLAYER
  9
$CECOLOR
 62
   256
  9
$DIMSCALE
 40
1.5
  9
$DIMASZ
 40
0.18
  9
$DIMEXO
 40
0.063
  9
$DIMDLI
 40
0.281
  9
$DIMRND
 40
0.0
  9
$DIMDLE
 40
0.0
  9
$DIMEXE
 40
0.093
  9
$DIMTP
 40
0.0
  9
$DIMTM
 40
0.0
  9
$DIMTXT
 40
0.125
  9
$DIMCEN
 40
0.09
  9
$DIMTSZ
 40
0.0
  9
$DIMTOL
 70
     0
  9
$DIMLIM
 70
     0
  9
$DIMTIH
 70
     1
  9
$DIMTOH
 70
     1
  9
$DIMSE1
 70
     0
  9
$DIMSE2
 70
     0
  9
$DIMTAD
 70
     0
  9
$DIMZIN
 70
     0
  9
$DIMBLK
  1

  9
$DIMASO
 70
     1
  9
$DIMSHO
 70
     1
  9
$DIMPOST
  1

  9
$DIMAPOST
  1

  9
$DIMALT
 70
     0
  9
$DIMALTD
 70
     2
  9
$DIMALTF
 40
25.4
  9
$DIMLFAC
 40
1.0
  9
$DIMTOFL
 70
     0
  9
$DIMTVP
 40
0.0
  9
$DIMTIX
 70
     0
  9
$DIMSOXD
 70
     0
  9
$DIMSAH
 70
     0
  9
$DIMBLK1
  1

  9
$DIMBLK2
  1

  9
$DIMSTYLE
  2
23NSTD
  9
$DIMCLRD
 70
     0
  9
$DIMCLRE
 70
     0
  9
$DIMCLRT
 70
     0
  9
$DIMTFAC
 40
1.0
  9
$DIMGAP
 40
0.09
  9
$LUNITS
 70
     2
  9
$LUPREC
 70
     3
  9
$SKETCHINC
 40
0.1
  9
$FILLETRAD
 40
0.0
  9
$AUNITS
 70
     1
  9
$AUPREC
 70
     1
  9
$MENU
  1
acad
  9
$ELEVATION
 40
0.0
  9
$PELEVATION
 40
0.0
  9
$THICKNESS
 40
0.0
  9
$LIMCHECK
 70
     0
  9
$BLIPMODE
 70
     1
  9
$CHAMFERA
 40
0.0
  9
$CHAMFERB
 40
0.0
  9
$SKPOLY
 70
     0
  9
$TDCREATE
 40
2450435.356461921
  9
$TDUPDATE
 40
2450604.465929629
  9
$TDINDWG
 40
0.0349425926
  9
$TDUSRTIMER
 40
0.0349425926
  9
$USRTIMER
 70
     1
  9
$ANGBASE
 50
0.0
  9
$ANGDIR
 70
     0
  9
$PDMODE
 70
     0
  9
$PDSIZE
 40
0.0
  9
$PLINEWID
 40
0.0
  9
$COORDS
 70
     0
  9
$SPLFRAME
 70
     0
  9
$SPLINETYPE
 70
     6
  9
$SPLINESEGS
 70
     8
  9
$ATTDIA
 70
     0
  9
$ATTREQ
 70
     1
  9
$HANDLING
 70
     0
  9
$HANDSEED
  5
0
  9
$SURFTAB1
 70
     6
  9
$SURFTAB2
 70
     6
  9
$SURFTYPE
 70
     6
  9
$SURFU
 70
     6
  9
$SURFV
 70
     6
  9
$UCSNAME
  2

  9
$UCSORG
 10
0.0
 20
0.0
 30
0.0
  9
$UCSXDIR
 10
1.0
 20
0.0
 30
0.0
  9
$UCSYDIR
 10
0.0
 20
1.0
 30
0.0
  9
$PUCSNAME
  2

  9
$PUCSORG
 10
0.0
 20
0.0
 30
0.0
  9
$PUCSXDIR
 10
1.0
 20
0.0
 30
0.0
  9
$PUCSYDIR
 10
0.0
 20
1.0
 30
0.0
  9
$USERI1
 70
     0
  9
$USERI2
 70
     0
  9
$USERI3
 70
     0
  9
$USERI4
 70
     0
  9
$USERI5
 70
     0
  9
$USERR1
 40
0.0
  9
$USERR2
 40
0.0
  9
$USERR3
 40
0.0
  9
$USERR4
 40
0.0
  9
$USERR5
 40
0.0
  9
$WORLDVIEW
 70
     1
  9
$SHADEDGE
 70
     3
  9
$SHADEDIF
 70
    70
  9
$TILEMODE
 70
     1
  9
$MAXACTVP
 70
    16
  9
$PINSBASE
 10
-3.100979
 20
50.0
 30
10.277186
  9
$PLIMCHECK
 70
     0
  9
$PEXTMIN
 10
1.000000E+20
 20
1.000000E+20
 30
1.000000E+20
  9
$PEXTMAX
 10
-1.000000E+20
 20
-1.000000E+20
 30
-1.000000E+20
  9
$PLIMMIN
 10
0.0
 20
0.0
  9
$PLIMMAX
 10
12.0
 20
9.0
  9
$UNITMODE
 70
     0
  9
$VISRETAIN
 70
     0
  9
$PLINEGEN
 70
     0
  9
$PSLTSCALE
 70
     0
  9
$TREEDEPTH
 70
  3020
  9
$DWGCODEPAGE
  3
undefined
  0
ENDSEC
  0
SECTION
  2
TABLES
  0
TABLE
  2
VPORT
 70
     2
  0
VPORT
  2
*ACTIVE
 70
     0
 10
0.0
 20
0.0
 11
1.0
 21
1.0
 12
11.625
 22
8.533115
 13
0.0
 23
0.0
 14
1.0
 24
1.0
 15
0.5
 25
0.5
 16
0.0
 26
0.0
 36
1.0
 17
0.0
 27
0.0
 37
0.0
 40
17.06623
 41
1.36234
 42
50.0
 43
0.0
 44
0.0
 50
0.0
 51
0.0
 71
     0
 72
   100
 73
     1
 74
     0
 75
     0
 76
     0
 77
     0
 78
     0
  0
ENDTAB
  0
TABLE
  2
LTYPE
 70
     4
  0
LTYPE
  2
CONTINUOUS
 70
    64
  3
Solid line
 72
    65
 73
     0
 40
0.0
  0
LTYPE
  2
HIDDEN
 70
    64
  3
_ _ _ _ _ _ _ _ _ _ _ _ _ _ _ _ _ _ _ _ _ _ _
 72
    65
 73
     2
 40
0.375
 49
0.25
 49
-0.125
  0
LTYPE
  2
CENTER
 70
    64
  3
____ _ ____ _ ____ _ ____ _ ____ _ ____ _ ____
 72
    65
 73
     4
 40
2.0
 49
1.25
 49
-0.25
 49
0.25
 49
-0.25
  0
LTYPE
  2
HIDDEN2
 70
    64
  3
_ _ _ _ _ _ _ _ _ _ _ _ _ _ _ _ _ _ _ _ _ _ _ _
 72
    65
 73
     2
 40
0.1875
 49
0.125
 49
-0.0625
  0
ENDTAB
  0
TABLE
  2
LAYER
 70
     8
  0
LAYER
  2
0
 70
    64
 62
     7
  6
CONTINUOUS
  0
LAYER
  2
OBJECT
 70
    64
 62
     7
  6
CONTINUOUS
  0
LAYER
  2
DIM
 70
    64
 62
     7
  6
CONTINUOUS
  0
LAYER
  2
HIDDEN
 70
    64
 62
     7
  6
HIDDEN
  0
LAYER
  2
TEXT
 70
    64
 62
     7
  6
CONTINUOUS
  0
LAYER
  2
TITLE
 70
    64
 62
     7
  6
CONTINUOUS
  0
LAYER
  2
CENTER
 70
    64
 62
     7
  6
CENTER
  0
LAYER
  2
DEFPOINTS
 70
    64
 62
     7
  6
CONTINUOUS
  0
ENDTAB
  0
TABLE
  2
STYLE
 70
     2
  0
STYLE
  2
STANDARD
 70
    64
 40
0.0
 41
0.75
 50
0.0
 71
     0
 42
0.188
  3
TXT.shx
  4

  0
STYLE
  2
TXT
 70
    64
 40
0.0
 41
0.75
 50
0.0
 71
     0
 42
0.156
  3
txt
  4

  0
ENDTAB
  0
TABLE
  2
VIEW
 70
     0
  0
ENDTAB
  0
TABLE
  2
UCS
 70
     0
  0
ENDTAB
  0
TABLE
  2
APPID
 70
     1
  0
APPID
  2
ACAD
 70
    64
  0
ENDTAB
  0
TABLE
  2
DIMSTYLE
 70
     2
  0
DIMSTYLE
  2
23NSTD
 70
    64
  3

  4

  5

  6

  7

 40
1.5
 41
0.18
 42
0.063
 43
0.281
 44
0.093
 45
0.0
 46
0.0
 47
0.0
 48
0.0
140
0.125
141
0.09
142
0.0
143
25.4
144
1.0
145
0.0
146
1.0
147
0.09
 71
     0
 72
     0
 73
     1
 74
     1
 75
     0
 76
     0
 77
     0
 78
     0
170
     0
171
     2
172
     0
173
     0
174
     0
175
     0
176
     0
177
     0
178
     0
  0
DIMSTYLE
  2
23NSTDI
 70
    64
  3

  4

  5

  6

  7

 40
1.5
 41
0.18
 42
0.063
 43
0.281
 44
0.093
 45
0.0
 46
0.0
 47
0.0
 48
0.0
140
0.125
141
0.09
142
0.0
143
25.4
144
1.0
145
0.0
146
1.0
147
0.09
 71
     0
 72
     0
 73
     1
 74
     1
 75
     0
 76
     0
 77
     0
 78
     0
170
     0
171
     2
172
     0
173
     0
174
     1
175
     0
176
     0
177
     0
178
     0
  0
ENDTAB
  0
ENDSEC
  0
SECTION
  2
BLOCKS
  0
BLOCK
  8
0
  2
*D0
 70
    65
 10
0.0
 20
0.0
 30
0.0
  3
*D
  0
LINE
  8
0
  6
BYBLOCK
 62
     0
 10
25.756236
 20
47.864751
 30
0.0
 11
25.756236
 21
48.593609
 31
0.0
  0
LINE
  8
0
  6
BYBLOCK
 62
     0
 10
26.990236
 20
47.243251
 30
0.0
 11
26.990236
 21
48.593609
 31
0.0
  0
LINE
  8
0
  6
BYBLOCK
 62
     0
 10
26.026236
 20
48.454109
 30
0.0
 11
26.191361
 21
48.454109
 31
0.0
  0
LINE
  8
0
  6
BYBLOCK
 62
     0
 10
26.720236
 20
48.454109
 30
0.0
 11
26.555111
 21
48.454109
 31
0.0
  0
SOLID
  8
0
  6
BYBLOCK
 62
     0
 10
26.026236
 20
48.499109
 30
0.0
 11
26.026236
 21
48.409109
 31
0.0
 12
25.756236
 22
48.454109
 32
0.0
 13
25.756236
 23
48.454109
 33
0.0
  0
SOLID
  8
0
  6
BYBLOCK
 62
     0
 10
26.720236
 20
48.499109
 30
0.0
 11
26.720236
 21
48.409109
 31
0.0
 12
26.990236
 22
48.454109
 32
0.0
 13
26.990236
 23
48.454109
 33
0.0
  0
TEXT
  8
0
  6
BYBLOCK
 62
     0
 10
26.326361
 20
48.360359
 30
0.0
 40
0.1875
  1
G
 41
0.75
 72
     1
 11
26.373236
 21
48.454109
 31
0.0
 73
     2
  0
POINT
  8
DEFPOINTS
  6
BYBLOCK
 62
     0
 10
25.756236
 20
47.770251
 30
0.0
  0
POINT
  8
DEFPOINTS
  6
BYBLOCK
 62
     0
 10
26.990236
 20
47.148751
 30
0.0
  0
POINT
  8
DEFPOINTS
  6
BYBLOCK
 62
     0
 10
26.990236
 20
48.454109
 30
0.0
  0
ENDBLK
  8
0
  0
BLOCK
  8
0
  2
*D1
 70
    65
 10
0.0
 20
0.0
 30
0.0
  3
*D
  0
LINE
  8
0
  6
BYBLOCK
 62
     0
 10
28.530014
 20
11.075001
 30
0.0
 11
29.55125
 21
11.075001
 31
0.0
  0
LINE
  8
0
  6
BYBLOCK
 62
     0
 10
28.834736
 20
12.114279
 30
0.0
 11
29.55125
 21
12.114279
 31
0.0
  0
LINE
  8
0
  6
BYBLOCK
 62
     0
 10
29.41175
 20
10.805001
 30
0.0
 11
29.41175
 21
10.535001
 31
0.0
  0
LINE
  8
0
  6
BYBLOCK
 62
     0
 10
29.41175
 20
12.384279
 30
0.0
 11
29.41175
 21
12.654279
 31
0.0
  0
SOLID
  8
0
  6
BYBLOCK
 62
     0
 10
29.36675
 20
10.805001
 30
0.0
 11
29.45675
 21
10.805001
 31
0.0
 12
29.41175
 22
11.075001
 32
0.0
 13
29.41175
 23
11.075001
 33
0.0
  0
SOLID
  8
0
  6
BYBLOCK
 62
     0
 10
29.36675
 20
12.384279
 30
0.0
 11
29.45675
 21
12.384279
 31
0.0
 12
29.41175
 22
12.114279
 32
0.0
 13
29.41175
 23
12.114279
 33
0.0
  0
TEXT
  8
0
  6
BYBLOCK
 62
     0
 10
29.364875
 20
11.50089
 30
0.0
 40
0.1875
  1
N
 41
0.75
 72
     1
 11
29.41175
 21
11.59464
 31
0.0
 73
     2
  0
POINT
  8
DEFPOINTS
  6
BYBLOCK
 62
     0
 10
28.435514
 20
11.075001
 30
0.0
  0
POINT
  8
DEFPOINTS
  6
BYBLOCK
 62
     0
 10
28.740236
 20
12.114279
 30
0.0
  0
POINT
  8
DEFPOINTS
  6
BYBLOCK
 62
     0
 10
29.41175
 20
12.114279
 30
0.0
  0
ENDBLK
  8
0
  0
BLOCK
  8
0
  2
*D2
 70
    65
 10
0.0
 20
0.0
 30
0.0
  3
*D
  0
LINE
  8
0
  6
BYBLOCK
 62
     0
 10
25.756236
 20
12.942779
 30
0.0
 11
25.756236
 21
13.671638
 31
0.0
  0
LINE
  8
0
  6
BYBLOCK
 62
     0
 10
26.990236
 20
12.321279
 30
0.0
 11
26.990236
 21
13.671638
 31
0.0
  0
LINE
  8
0
  6
BYBLOCK
 62
     0
 10
26.026236
 20
13.532138
 30
0.0
 11
26.191361
 21
13.532138
 31
0.0
  0
LINE
  8
0
  6
BYBLOCK
 62
     0
 10
26.720236
 20
13.532138
 30
0.0
 11
26.555111
 21
13.532138
 31
0.0
  0
SOLID
  8
0
  6
BYBLOCK
 62
     0
 10
26.026236
 20
13.577138
 30
0.0
 11
26.026236
 21
13.487138
 31
0.0
 12
25.756236
 22
13.532138
 32
0.0
 13
25.756236
 23
13.532138
 33
0.0
  0
SOLID
  8
0
  6
BYBLOCK
 62
     0
 10
26.720236
 20
13.577138
 30
0.0
 11
26.720236
 21
13.487138
 31
0.0
 12
26.990236
 22
13.532138
 32
0.0
 13
26.990236
 23
13.532138
 33
0.0
  0
TEXT
  8
0
  6
BYBLOCK
 62
     0
 10
26.326361
 20
13.438388
 30
0.0
 40
0.1875
  1
G
 41
0.75
 72
     1
 11
26.373236
 21
13.532138
 31
0.0
 73
     2
  0
POINT
  8
DEFPOINTS
  6
BYBLOCK
 62
     0
 10
25.756236
 20
12.848279
 30
0.0
  0
POINT
  8
DEFPOINTS
  6
BYBLOCK
 62
     0
 10
26.990236
 20
12.226779
 30
0.0
  0
POINT
  8
DEFPOINTS
  6
BYBLOCK
 62
     0
 10
26.990236
 20
13.532138
 30
0.0
  0
ENDBLK
  8
0
  0
BLOCK
  8
0
  2
*D3
 70
    65
 10
0.0
 20
0.0
 30
0.0
  3
*D
  0
LINE
  8
0
  6
BYBLOCK
 62
     0
 10
25.661736
 20
47.770251
 30
0.0
 11
24.970053
 21
47.770251
 31
0.0
  0
LINE
  8
0
  6
BYBLOCK
 62
     0
 10
26.783236
 20
47.036251
 30
0.0
 11
24.970053
 21
47.036251
 31
0.0
  0
LINE
  8
0
  6
BYBLOCK
 62
     0
 10
25.109553
 20
48.040251
 30
0.0
 11
25.109553
 21
48.310251
 31
0.0
  0
LINE
  8
0
  6
BYBLOCK
 62
     0
 10
25.109553
 20
46.766251
 30
0.0
 11
25.109553
 21
46.496251
 31
0.0
  0
SOLID
  8
0
  6
BYBLOCK
 62
     0
 10
25.064553
 20
48.040251
 30
0.0
 11
25.154553
 21
48.040251
 31
0.0
 12
25.109553
 22
47.770251
 32
0.0
 13
25.109553
 23
47.770251
 33
0.0
  0
SOLID
  8
0
  6
BYBLOCK
 62
     0
 10
25.064553
 20
46.766251
 30
0.0
 11
25.154553
 21
46.766251
 31
0.0
 12
25.109553
 22
47.036251
 32
0.0
 13
25.109553
 23
47.036251
 33
0.0
  0
TEXT
  8
0
  6
BYBLOCK
 62
     0
 10
25.062678
 20
47.309501
 30
0.0
 40
0.1875
  1
J
 41
0.75
 72
     1
 11
25.109553
 21
47.403251
 31
0.0
 73
     2
  0
POINT
  8
DEFPOINTS
  6
BYBLOCK
 62
     0
 10
25.756236
 20
47.770251
 30
0.0
  0
POINT
  8
DEFPOINTS
  6
BYBLOCK
 62
     0
 10
26.877736
 20
47.036251
 30
0.0
  0
POINT
  8
DEFPOINTS
  6
BYBLOCK
 62
     0
 10
25.109553
 20
47.036251
 30
0.0
  0
ENDBLK
  8
0
  0
BLOCK
  8
0
  2
*D4
 70
    65
 10
0.0
 20
0.0
 30
0.0
  3
*D
  0
LINE
  8
0
  6
BYBLOCK
 62
     0
 10
25.661736
 20
46.302251
 30
0.0
 11
24.548553
 21
46.302251
 31
0.0
  0
LINE
  8
0
  6
BYBLOCK
 62
     0
 10
25.661736
 20
47.770251
 30
0.0
 11
24.548553
 21
47.770251
 31
0.0
  0
LINE
  8
0
  6
BYBLOCK
 62
     0
 10
24.688053
 20
46.572251
 30
0.0
 11
24.688053
 21
46.807501
 31
0.0
  0
LINE
  8
0
  6
BYBLOCK
 62
     0
 10
24.688053
 20
47.500251
 30
0.0
 11
24.688053
 21
47.265001
 31
0.0
  0
SOLID
  8
0
  6
BYBLOCK
 62
     0
 10
24.643053
 20
46.572251
 30
0.0
 11
24.733053
 21
46.572251
 31
0.0
 12
24.688053
 22
46.302251
 32
0.0
 13
24.688053
 23
46.302251
 33
0.0
  0
SOLID
  8
0
  6
BYBLOCK
 62
     0
 10
24.643053
 20
47.500251
 30
0.0
 11
24.733053
 21
47.500251
 31
0.0
 12
24.688053
 22
47.770251
 32
0.0
 13
24.688053
 23
47.770251
 33
0.0
  0
TEXT
  8
0
  6
BYBLOCK
 62
     0
 10
24.641178
 20
46.942501
 30
0.0
 40
0.1875
  1
H
 41
0.75
 72
     1
 11
24.688053
 21
47.036251
 31
0.0
 73
     2
  0
POINT
  8
DEFPOINTS
  6
BYBLOCK
 62
     0
 10
25.756236
 20
46.302251
 30
0.0
  0
POINT
  8
DEFPOINTS
  6
BYBLOCK
 62
     0
 10
25.756236
 20
47.770251
 30
0.0
  0
POINT
  8
DEFPOINTS
  6
BYBLOCK
 62
     0
 10
24.688053
 20
47.770251
 30
0.0
  0
ENDBLK
  8
0
  0
BLOCK
  8
0
  2
*D5
 70
    65
 10
0.0
 20
0.0
 30
0.0
  3
*D
  0
LINE
  8
0
  6
BYBLOCK
 62
     0
 10
23.270695
 20
7.000995
 30
0.0
 11
24.175117
 21
7.000995
 31
0.0
  0
LINE
  8
0
  6
BYBLOCK
 62
     0
 10
23.309974
 20
8.500995
 30
0.0
 11
24.175117
 21
8.500995
 31
0.0
  0
LINE
  8
0
  6
BYBLOCK
 62
     0
 10
24.035617
 20
7.270995
 30
0.0
 11
24.035617
 21
7.522245
 31
0.0
  0
LINE
  8
0
  6
BYBLOCK
 62
     0
 10
24.035617
 20
8.230995
 30
0.0
 11
24.035617
 21
7.979745
 31
0.0
  0
SOLID
  8
0
  6
BYBLOCK
 62
     0
 10
23.990617
 20
7.270995
 30
0.0
 11
24.080617
 21
7.270995
 31
0.0
 12
24.035617
 22
7.000995
 32
0.0
 13
24.035617
 23
7.000995
 33
0.0
  0
SOLID
  8
0
  6
BYBLOCK
 62
     0
 10
23.990617
 20
8.230995
 30
0.0
 11
24.080617
 21
8.230995
 31
0.0
 12
24.035617
 22
8.500995
 32
0.0
 13
24.035617
 23
8.500995
 33
0.0
  0
TEXT
  8
0
  6
BYBLOCK
 62
     0
 10
23.988742
 20
7.657245
 30
0.0
 40
0.1875
  1
C
 41
0.75
 72
     1
 11
24.035617
 21
7.750995
 31
0.0
 73
     2
  0
POINT
  8
DEFPOINTS
  6
BYBLOCK
 62
     0
 10
23.176195
 20
7.000995
 30
0.0
  0
POINT
  8
DEFPOINTS
  6
BYBLOCK
 62
     0
 10
23.215474
 20
8.500995
 30
0.0
  0
POINT
  8
DEFPOINTS
  6
BYBLOCK
 62
     0
 10
24.035617
 20
8.500995
 30
0.0
  0
ENDBLK
  8
0
  0
BLOCK
  8
0
  2
*D6
 70
    65
 10
0.0
 20
0.0
 30
0.0
  3
*D
  0
LINE
  8
0
  6
BYBLOCK
 62
     0
 10
25.661736
 20
12.848279
 30
0.0
 11
24.669485
 21
12.848279
 31
0.0
  0
LINE
  8
0
  6
BYBLOCK
 62
     0
 10
26.783236
 20
12.114279
 30
0.0
 11
24.669485
 21
12.114279
 31
0.0
  0
LINE
  8
0
  6
BYBLOCK
 62
     0
 10
24.808985
 20
13.118279
 30
0.0
 11
24.808985
 21
13.388279
 31
0.0
  0
LINE
  8
0
  6
BYBLOCK
 62
     0
 10
24.808985
 20
11.844279
 30
0.0
 11
24.808985
 21
11.574279
 31
0.0
  0
SOLID
  8
0
  6
BYBLOCK
 62
     0
 10
24.763985
 20
13.118279
 30
0.0
 11
24.853985
 21
13.118279
 31
0.0
 12
24.808985
 22
12.848279
 32
0.0
 13
24.808985
 23
12.848279
 33
0.0
  0
SOLID
  8
0
  6
BYBLOCK
 62
     0
 10
24.763985
 20
11.844279
 30
0.0
 11
24.853985
 21
11.844279
 31
0.0
 12
24.808985
 22
12.114279
 32
0.0
 13
24.808985
 23
12.114279
 33
0.0
  0
TEXT
  8
0
  6
BYBLOCK
 62
     0
 10
24.76211
 20
12.387529
 30
0.0
 40
0.1875
  1
J
 41
0.75
 72
     1
 11
24.808985
 21
12.481279
 31
0.0
 73
     2
  0
POINT
  8
DEFPOINTS
  6
BYBLOCK
 62
     0
 10
25.756236
 20
12.848279
 30
0.0
  0
POINT
  8
DEFPOINTS
  6
BYBLOCK
 62
     0
 10
26.877736
 20
12.114279
 30
0.0
  0
POINT
  8
DEFPOINTS
  6
BYBLOCK
 62
     0
 10
24.808985
 20
12.114279
 30
0.0
  0
ENDBLK
  8
0
  0
BLOCK
  8
0
  2
*D7
 70
    65
 10
0.0
 20
0.0
 30
0.0
  3
*D
  0
LINE
  8
0
  6
BYBLOCK
 62
     0
 10
25.661736
 20
11.380279
 30
0.0
 11
24.247985
 21
11.380279
 31
0.0
  0
LINE
  8
0
  6
BYBLOCK
 62
     0
 10
25.661736
 20
12.848279
 30
0.0
 11
24.247985
 21
12.848279
 31
0.0
  0
LINE
  8
0
  6
BYBLOCK
 62
     0
 10
24.387485
 20
11.650279
 30
0.0
 11
24.387485
 21
11.885529
 31
0.0
  0
LINE
  8
0
  6
BYBLOCK
 62
     0
 10
24.387485
 20
12.578279
 30
0.0
 11
24.387485
 21
12.343029
 31
0.0
  0
SOLID
  8
0
  6
BYBLOCK
 62
     0
 10
24.342485
 20
11.650279
 30
0.0
 11
24.432485
 21
11.650279
 31
0.0
 12
24.387485
 22
11.380279
 32
0.0
 13
24.387485
 23
11.380279
 33
0.0
  0
SOLID
  8
0
  6
BYBLOCK
 62
     0
 10
24.342485
 20
12.578279
 30
0.0
 11
24.432485
 21
12.578279
 31
0.0
 12
24.387485
 22
12.848279
 32
0.0
 13
24.387485
 23
12.848279
 33
0.0
  0
TEXT
  8
0
  6
BYBLOCK
 62
     0
 10
24.34061
 20
12.020529
 30
0.0
 40
0.1875
  1
H
 41
0.75
 72
     1
 11
24.387485
 21
12.114279
 31
0.0
 73
     2
  0
POINT
  8
DEFPOINTS
  6
BYBLOCK
 62
     0
 10
25.756236
 20
11.380279
 30
0.0
  0
POINT
  8
DEFPOINTS
  6
BYBLOCK
 62
     0
 10
25.756236
 20
12.848279
 30
0.0
  0
POINT
  8
DEFPOINTS
  6
BYBLOCK
 62
     0
 10
24.387485
 20
12.848279
 30
0.0
  0
ENDBLK
  8
0
  0
BLOCK
  8
0
  2
HBS
 70
    64
 10
0.0
 20
0.0
 30
0.0
  3
HBS
  0
LINE
  8
TITLE
 10
0.062
 20
9.64
 30
0.0
 11
15.438
 21
9.64
 31
0.0
  0
POLYLINE
  8
TITLE
 66
     1
 10
0.0
 20
0.0
 30
0.0
 70
     1
  0
VERTEX
  8
TITLE
 10
15.5
 20
10.12
 30
0.0
  0
VERTEX
  8
TITLE
 10
15.5
 20
0.0
 30
0.0
  0
VERTEX
  8
TITLE
 10
0.0
 20
0.0
 30
0.0
  0
VERTEX
  8
TITLE
 10
0.0
 20
10.12
 30
0.0
  0
SEQEND
  8
TITLE
  0
POLYLINE
  8
TITLE
 66
     1
 10
0.0
 20
0.0
 30
0.0
 70
     1
  0
VERTEX
  8
TITLE
 10
15.438
 20
10.058
 30
0.0
  0
VERTEX
  8
TITLE
 10
15.438
 20
0.062
 30
0.0
  0
VERTEX
  8
TITLE
 10
0.062
 20
0.062
 30
0.0
  0
VERTEX
  8
TITLE
 10
0.062
 20
10.058
 30
0.0
  0
SEQEND
  8
TITLE
  0
TEXT
  8
TEXT
 10
0.207833
 20
9.680079
 30
0.0
 40
0.125
  1
NAME
 72
     1
 11
0.437
 21
9.680079
 31
0.0
  0
TEXT
  8
TEXT
 10
0.207833
 20
9.888413
 30
0.0
 40
0.125
  1
PART
 72
     1
 11
0.437
 21
9.888413
 31
0.0
  0
LINE
  8
TITLE
 10
0.812
 20
9.64
 30
0.0
 11
0.812
 21
10.058
 31
0.0
  0
TEXT
  8
TEXT
 10
7.926833
 20
9.888413
 30
0.0
 40
0.125
  1
PART
 72
     1
 11
8.156
 21
9.888413
 31
0.0
  0
TEXT
  8
TEXT
 10
8.031
 20
9.680079
 30
0.0
 40
0.125
  1
No.
 72
     1
 11
8.156
 21
9.680079
 31
0.0
  0
LINE
  8
TITLE
 10
7.781
 20
10.058
 30
0.0
 11
7.781
 21
9.64
 31
0.0
  0
LINE
  8
TITLE
 10
7.719
 20
10.058
 30
0.0
 11
7.719
 21
9.64
 31
0.0
  0
LINE
  8
TITLE
 10
8.531
 20
10.058
 30
0.0
 11
8.531
 21
9.64
 31
0.0
  0
ENDBLK
  8
0
  0
BLOCK
  8
0
  2
*D9
 70
    65
 10
0.0
 20
0.0
 30
0.0
  3
*D
  0
LINE
  8
0
  6
BYBLOCK
 62
     0
 10
7.349502
 20
19.601809
 30
0.0
 11
7.349502
 21
20.752167
 31
0.0
  0
LINE
  8
0
  6
BYBLOCK
 62
     0
 10
9.817502
 20
19.601809
 30
0.0
 11
9.817502
 21
20.752167
 31
0.0
  0
LINE
  8
0
  6
BYBLOCK
 62
     0
 10
7.619502
 20
20.612667
 30
0.0
 11
8.401627
 21
20.612667
 31
0.0
  0
LINE
  8
0
  6
BYBLOCK
 62
     0
 10
9.547502
 20
20.612667
 30
0.0
 11
8.765377
 21
20.612667
 31
0.0
  0
SOLID
  8
0
  6
BYBLOCK
 62
     0
 10
7.619502
 20
20.657667
 30
0.0
 11
7.619502
 21
20.567667
 31
0.0
 12
7.349502
 22
20.612667
 32
0.0
 13
7.349502
 23
20.612667
 33
0.0
  0
SOLID
  8
0
  6
BYBLOCK
 62
     0
 10
9.547502
 20
20.657667
 30
0.0
 11
9.547502
 21
20.567667
 31
0.0
 12
9.817502
 22
20.612667
 32
0.0
 13
9.817502
 23
20.612667
 33
0.0
  0
TEXT
  8
0
  6
BYBLOCK
 62
     0
 10
8.536627
 20
20.518917
 30
0.0
 40
0.1875
  1
F
 41
0.75
 72
     1
 11
8.583502
 21
20.612667
 31
0.0
 73
     2
  0
POINT
  8
DEFPOINTS
  6
BYBLOCK
 62
     0
 10
7.349502
 20
19.507309
 30
0.0
  0
POINT
  8
DEFPOINTS
  6
BYBLOCK
 62
     0
 10
9.817502
 20
19.507309
 30
0.0
  0
POINT
  8
DEFPOINTS
  6
BYBLOCK
 62
     0
 10
9.817502
 20
20.612667
 30
0.0
  0
ENDBLK
  8
0
  0
BLOCK
  8
0
  2
*D10
 70
    65
 10
0.0
 20
0.0
 30
0.0
  3
*D
  0
LINE
  8
0
  6
BYBLOCK
 62
     0
 10
8.722502
 20
16.735999
 30
0.0
 11
8.722502
 21
16.331811
 31
0.0
  0
LINE
  8
0
  6
BYBLOCK
 62
     0
 10
8.444502
 20
16.735999
 30
0.0
 11
8.444502
 21
16.331811
 31
0.0
  0
LINE
  8
0
  6
BYBLOCK
 62
     0
 10
8.992502
 20
16.471311
 30
0.0
 11
9.262502
 21
16.471311
 31
0.0
  0
LINE
  8
0
  6
BYBLOCK
 62
     0
 10
8.174502
 20
16.471311
 30
0.0
 11
7.904502
 21
16.471311
 31
0.0
  0
SOLID
  8
0
  6
BYBLOCK
 62
     0
 10
8.992502
 20
16.516311
 30
0.0
 11
8.992502
 21
16.426311
 31
0.0
 12
8.722502
 22
16.471311
 32
0.0
 13
8.722502
 23
16.471311
 33
0.0
  0
SOLID
  8
0
  6
BYBLOCK
 62
     0
 10
8.174502
 20
16.516311
 30
0.0
 11
8.174502
 21
16.426311
 31
0.0
 12
8.444502
 22
16.471311
 32
0.0
 13
8.444502
 23
16.471311
 33
0.0
  0
TEXT
  8
0
  6
BYBLOCK
 62
     0
 10
7.23044
 20
16.377561
 30
0.0
 40
0.1875
  1
0.278
 41
0.75
 72
     1
 11
7.499971
 21
16.471311
 31
0.0
 73
     2
  0
POINT
  8
DEFPOINTS
  6
BYBLOCK
 62
     0
 10
8.722502
 20
16.830499
 30
0.0
  0
POINT
  8
DEFPOINTS
  6
BYBLOCK
 62
     0
 10
8.444502
 20
16.830499
 30
0.0
  0
POINT
  8
DEFPOINTS
  6
BYBLOCK
 62
     0
 10
8.444502
 20
16.471311
 30
0.0
  0
ENDBLK
  8
0
  0
BLOCK
  8
0
  2
*D11
 70
    65
 10
0.0
 20
0.0
 30
0.0
  3
*D
  0
LINE
  8
0
  6
BYBLOCK
 62
     0
 10
7.933006
 20
15.180204
 30
0.0
 11
7.991014
 21
15.180204
 31
0.0
  0
LINE
  8
0
  6
BYBLOCK
 62
     0
 10
7.933006
 20
15.217204
 30
0.0
 11
7.991014
 21
15.217204
 31
0.0
  0
LINE
  8
0
  6
BYBLOCK
 62
     0
 10
7.851514
 20
14.910204
 30
0.0
 11
7.851514
 21
14.640204
 31
0.0
  0
LINE
  8
0
  6
BYBLOCK
 62
     0
 10
7.851514
 20
15.487204
 30
0.0
 11
7.851514
 21
15.757204
 31
0.0
  0
LINE
  8
0
  6
BYBLOCK
 62
     0
 10
7.851514
 20
15.757204
 30
0.0
 11
8.121514
 21
15.757204
 31
0.0
  0
SOLID
  8
0
  6
BYBLOCK
 62
     0
 10
7.806514
 20
14.910204
 30
0.0
 11
7.896514
 21
14.910204
 31
0.0
 12
7.851514
 22
15.180204
 32
0.0
 13
7.851514
 23
15.180204
 33
0.0
  0
SOLID
  8
0
  6
BYBLOCK
 62
     0
 10
7.806514
 20
15.487204
 30
0.0
 11
7.896514
 21
15.487204
 31
0.0
 12
7.851514
 22
15.217204
 32
0.0
 13
7.851514
 23
15.217204
 33
0.0
  0
TEXT
  8
0
  6
BYBLOCK
 62
     0
 10
8.819014
 20
15.663454
 30
0.0
 40
0.1875
  1
 TYP.
 41
0.75
 72
     1
 11
9.100264
 21
15.757204
 31
0.0
 73
     2
  0
TEXT
  8
0
  6
BYBLOCK
 62
     0
 10
8.256514
 20
15.663454
 30
0.0
 40
0.1875
  1
0.037
 41
0.75
 72
     1
 11
8.514327
 21
15.757204
 31
0.0
 73
     2
  0
POINT
  8
DEFPOINTS
  6
BYBLOCK
 62
     0
 10
7.838506
 20
15.180204
 30
0.0
  0
POINT
  8
DEFPOINTS
  6
BYBLOCK
 62
     0
 10
7.838506
 20
15.217204
 30
0.0
  0
POINT
  8
DEFPOINTS
  6
BYBLOCK
 62
     0
 10
7.851514
 20
15.217204
 30
0.0
  0
ENDBLK
  8
0
  0
BLOCK
  8
0
  2
*D12
 70
    65
 10
0.0
 20
0.0
 30
0.0
  3
*D
  0
LINE
  8
0
  6
BYBLOCK
 62
     0
 10
31.798699
 20
6.133761
 30
0.0
 11
31.79707
 21
6.071551
 31
0.0
  0
LINE
  8
0
  6
BYBLOCK
 62
     0
 10
31.868675
 20
6.131929
 30
0.0
 11
31.867046
 21
6.069718
 31
0.0
  0
LINE
  8
0
  6
BYBLOCK
 62
     0
 10
31.530814
 20
6.218071
 30
0.0
 11
31.260907
 21
6.225138
 31
0.0
  0
LINE
  8
0
  6
BYBLOCK
 62
     0
 10
32.140605
 20
6.202103
 30
0.0
 11
32.410512
 21
6.195035
 31
0.0
  0
SOLID
  8
0
  6
BYBLOCK
 62
     0
 10
31.531992
 20
6.263055
 30
0.0
 11
31.529636
 21
6.173086
 31
0.0
 12
31.800722
 22
6.211003
 32
0.0
 13
31.800722
 23
6.211003
 33
0.0
  0
SOLID
  8
0
  6
BYBLOCK
 62
     0
 10
32.141783
 20
6.247087
 30
0.0
 11
32.139427
 21
6.157118
 31
0.0
 12
31.870698
 22
6.209171
 32
0.0
 13
31.870698
 23
6.209171
 33
0.0
  0
TEXT
  8
0
  6
BYBLOCK
 62
     0
 10
33.084575
 20
6.101285
 30
0.0
 40
0.1875
  1
 TYP.
 41
0.75
 72
     1
 11
33.365825
 21
6.195035
 31
0.0
 73
     2
  0
TEXT
  8
0
  6
BYBLOCK
 62
     0
 10
32.545512
 20
6.101285
 30
0.0
 40
0.1875
  1
0.070
 41
0.75
 72
     1
 11
32.791606
 21
6.195035
 31
0.0
 73
     2
  0
POINT
  8
DEFPOINTS
  6
BYBLOCK
 62
     0
 10
31.801173
 20
6.228229
 30
0.0
  0
POINT
  8
DEFPOINTS
  6
BYBLOCK
 62
     0
 10
31.871149
 20
6.226396
 30
0.0
  0
POINT
  8
DEFPOINTS
  6
BYBLOCK
 62
     0
 10
31.870698
 20
6.209171
 30
0.0
  0
ENDBLK
  8
0
  0
BLOCK
  8
0
  2
*D13
 70
    65
 10
0.0
 20
0.0
 30
0.0
  3
*D
  0
LINE
  8
0
  6
BYBLOCK
 62
     0
 10
24.54357
 20
5.614914
 30
0.0
 11
24.54357
 21
5.247974
 31
0.0
  0
LINE
  8
0
  6
BYBLOCK
 62
     0
 10
26.54357
 20
5.614914
 30
0.0
 11
26.54357
 21
5.247974
 31
0.0
  0
LINE
  8
0
  6
BYBLOCK
 62
     0
 10
24.81357
 20
5.387474
 30
0.0
 11
25.361695
 21
5.387474
 31
0.0
  0
LINE
  8
0
  6
BYBLOCK
 62
     0
 10
26.27357
 20
5.387474
 30
0.0
 11
25.725445
 21
5.387474
 31
0.0
  0
SOLID
  8
0
  6
BYBLOCK
 62
     0
 10
24.81357
 20
5.432474
 30
0.0
 11
24.81357
 21
5.342474
 31
0.0
 12
24.54357
 22
5.387474
 32
0.0
 13
24.54357
 23
5.387474
 33
0.0
  0
SOLID
  8
0
  6
BYBLOCK
 62
     0
 10
26.27357
 20
5.432474
 30
0.0
 11
26.27357
 21
5.342474
 31
0.0
 12
26.54357
 22
5.387474
 32
0.0
 13
26.54357
 23
5.387474
 33
0.0
  0
TEXT
  8
0
  6
BYBLOCK
 62
     0
 10
25.496695
 20
5.293724
 30
0.0
 40
0.1875
  1
B
 41
0.75
 72
     1
 11
25.54357
 21
5.387474
 31
0.0
 73
     2
  0
POINT
  8
DEFPOINTS
  6
BYBLOCK
 62
     0
 10
24.54357
 20
5.709414
 30
0.0
  0
POINT
  8
DEFPOINTS
  6
BYBLOCK
 62
     0
 10
26.54357
 20
5.709414
 30
0.0
  0
POINT
  8
DEFPOINTS
  6
BYBLOCK
 62
     0
 10
26.54357
 20
5.387474
 30
0.0
  0
ENDBLK
  8
0
  0
BLOCK
  8
0
  2
*D14
 70
    65
 10
0.0
 20
0.0
 30
0.0
  3
*D
  0
LINE
  8
0
  6
BYBLOCK
 62
     0
 10
26.582849
 20
7.303914
 30
0.0
 11
26.582849
 21
8.310414
 31
0.0
  0
LINE
  8
0
  6
BYBLOCK
 62
     0
 10
24.504291
 20
7.303914
 30
0.0
 11
24.504291
 21
8.310414
 31
0.0
  0
LINE
  8
0
  6
BYBLOCK
 62
     0
 10
26.312849
 20
8.170914
 30
0.0
 11
25.725445
 21
8.170914
 31
0.0
  0
LINE
  8
0
  6
BYBLOCK
 62
     0
 10
24.774291
 20
8.170914
 30
0.0
 11
25.361695
 21
8.170914
 31
0.0
  0
SOLID
  8
0
  6
BYBLOCK
 62
     0
 10
26.312849
 20
8.215914
 30
0.0
 11
26.312849
 21
8.125914
 31
0.0
 12
26.582849
 22
8.170914
 32
0.0
 13
26.582849
 23
8.170914
 33
0.0
  0
SOLID
  8
0
  6
BYBLOCK
 62
     0
 10
24.774291
 20
8.215914
 30
0.0
 11
24.774291
 21
8.125914
 31
0.0
 12
24.504291
 22
8.170914
 32
0.0
 13
24.504291
 23
8.170914
 33
0.0
  0
TEXT
  8
0
  6
BYBLOCK
 62
     0
 10
25.496695
 20
8.077164
 30
0.0
 40
0.1875
  1
D
 41
0.75
 72
     1
 11
25.54357
 21
8.170914
 31
0.0
 73
     2
  0
POINT
  8
DEFPOINTS
  6
BYBLOCK
 62
     0
 10
26.582849
 20
7.209414
 30
0.0
  0
POINT
  8
DEFPOINTS
  6
BYBLOCK
 62
     0
 10
24.504291
 20
7.209414
 30
0.0
  0
POINT
  8
DEFPOINTS
  6
BYBLOCK
 62
     0
 10
24.504291
 20
8.170914
 30
0.0
  0
ENDBLK
  8
0
  0
BLOCK
  8
0
  2
*D15
 70
    65
 10
0.0
 20
0.0
 30
0.0
  3
*D
  0
LINE
  8
0
  6
BYBLOCK
 62
     0
 10
28.857611
 20
5.614914
 30
0.0
 11
28.857611
 21
5.247974
 31
0.0
  0
LINE
  8
0
  6
BYBLOCK
 62
     0
 10
31.857611
 20
5.614914
 30
0.0
 11
31.857611
 21
5.247974
 31
0.0
  0
LINE
  8
0
  6
BYBLOCK
 62
     0
 10
29.127611
 20
5.387474
 30
0.0
 11
30.175736
 21
5.387474
 31
0.0
  0
LINE
  8
0
  6
BYBLOCK
 62
     0
 10
31.587611
 20
5.387474
 30
0.0
 11
30.539486
 21
5.387474
 31
0.0
  0
SOLID
  8
0
  6
BYBLOCK
 62
     0
 10
29.127611
 20
5.432474
 30
0.0
 11
29.127611
 21
5.342474
 31
0.0
 12
28.857611
 22
5.387474
 32
0.0
 13
28.857611
 23
5.387474
 33
0.0
  0
SOLID
  8
0
  6
BYBLOCK
 62
     0
 10
31.587611
 20
5.432474
 30
0.0
 11
31.587611
 21
5.342474
 31
0.0
 12
31.857611
 22
5.387474
 32
0.0
 13
31.857611
 23
5.387474
 33
0.0
  0
TEXT
  8
0
  6
BYBLOCK
 62
     0
 10
30.310736
 20
5.293724
 30
0.0
 40
0.1875
  1
A
 41
0.75
 72
     1
 11
30.357611
 21
5.387474
 31
0.0
 73
     2
  0
POINT
  8
DEFPOINTS
  6
BYBLOCK
 62
     0
 10
28.857611
 20
5.709414
 30
0.0
  0
POINT
  8
DEFPOINTS
  6
BYBLOCK
 62
     0
 10
31.857611
 20
5.709414
 30
0.0
  0
POINT
  8
DEFPOINTS
  6
BYBLOCK
 62
     0
 10
31.857611
 20
5.387474
 30
0.0
  0
ENDBLK
  8
0
  0
BLOCK
  8
0
  2
*D16
 70
    65
 10
0.0
 20
0.0
 30
0.0
  3
*D
  0
LINE
  8
0
  6
BYBLOCK
 62
     0
 10
26.642349
 20
7.149414
 30
0.0
 11
27.120993
 21
7.149414
 31
0.0
  0
LINE
  8
0
  6
BYBLOCK
 62
     0
 10
26.677349
 20
7.209414
 30
0.0
 11
27.120993
 21
7.209414
 31
0.0
  0
LINE
  8
0
  6
BYBLOCK
 62
     0
 10
26.981493
 20
6.879414
 30
0.0
 11
26.981493
 21
6.609414
 31
0.0
  0
LINE
  8
0
  6
BYBLOCK
 62
     0
 10
26.981493
 20
7.479414
 30
0.0
 11
26.981493
 21
7.749414
 31
0.0
  0
LINE
  8
0
  6
BYBLOCK
 62
     0
 10
26.981493
 20
7.749414
 30
0.0
 11
27.251493
 21
7.749414
 31
0.0
  0
SOLID
  8
0
  6
BYBLOCK
 62
     0
 10
26.936493
 20
6.879414
 30
0.0
 11
27.026493
 21
6.879414
 31
0.0
 12
26.981493
 22
7.149414
 32
0.0
 13
26.981493
 23
7.149414
 33
0.0
  0
SOLID
  8
0
  6
BYBLOCK
 62
     0
 10
26.936493
 20
7.479414
 30
0.0
 11
27.026493
 21
7.479414
 31
0.0
 12
26.981493
 22
7.209414
 32
0.0
 13
26.981493
 23
7.209414
 33
0.0
  0
TEXT
  8
0
  6
BYBLOCK
 62
     0
 10
27.386493
 20
7.655664
 30
0.0
 40
0.1875
  1
0.060
 41
0.75
 72
     1
 11
27.632587
 21
7.749414
 31
0.0
 73
     2
  0
POINT
  8
DEFPOINTS
  6
BYBLOCK
 62
     0
 10
26.547849
 20
7.149414
 30
0.0
  0
POINT
  8
DEFPOINTS
  6
BYBLOCK
 62
     0
 10
26.582849
 20
7.209414
 30
0.0
  0
POINT
  8
DEFPOINTS
  6
BYBLOCK
 62
     0
 10
26.981493
 20
7.209414
 30
0.0
  0
ENDBLK
  8
0
  0
BLOCK
  8
0
  2
*D17
 70
    65
 10
0.0
 20
0.0
 30
0.0
  3
*D
  0
LINE
  8
0
  6
BYBLOCK
 62
     0
 10
24.539291
 20
7.303914
 30
0.0
 11
24.539291
 21
7.888914
 31
0.0
  0
LINE
  8
0
  6
BYBLOCK
 62
     0
 10
24.504291
 20
7.303914
 30
0.0
 11
24.504291
 21
7.888914
 31
0.0
  0
LINE
  8
0
  6
BYBLOCK
 62
     0
 10
24.809291
 20
7.749414
 30
0.0
 11
25.079291
 21
7.749414
 31
0.0
  0
LINE
  8
0
  6
BYBLOCK
 62
     0
 10
24.234291
 20
7.749414
 30
0.0
 11
23.964291
 21
7.749414
 31
0.0
  0
SOLID
  8
0
  6
BYBLOCK
 62
     0
 10
24.809291
 20
7.794414
 30
0.0
 11
24.809291
 21
7.704414
 31
0.0
 12
24.539291
 22
7.749414
 32
0.0
 13
24.539291
 23
7.749414
 33
0.0
  0
SOLID
  8
0
  6
BYBLOCK
 62
     0
 10
24.234291
 20
7.794414
 30
0.0
 11
24.234291
 21
7.704414
 31
0.0
 12
24.504291
 22
7.749414
 32
0.0
 13
24.504291
 23
7.749414
 33
0.0
  0
TEXT
  8
0
  6
BYBLOCK
 62
     0
 10
23.266791
 20
7.655664
 30
0.0
 40
0.1875
  1
 TYP.
 41
0.75
 72
     1
 11
23.548041
 21
7.749414
 31
0.0
 73
     2
  0
TEXT
  8
0
  6
BYBLOCK
 62
     0
 10
22.704291
 20
7.655664
 30
0.0
 40
0.1875
  1
0.035
 41
0.75
 72
     1
 11
22.962104
 21
7.749414
 31
0.0
 73
     2
  0
POINT
  8
DEFPOINTS
  6
BYBLOCK
 62
     0
 10
24.539291
 20
7.209414
 30
0.0
  0
POINT
  8
DEFPOINTS
  6
BYBLOCK
 62
     0
 10
24.504291
 20
7.209414
 30
0.0
  0
POINT
  8
DEFPOINTS
  6
BYBLOCK
 62
     0
 10
24.504291
 20
7.749414
 30
0.0
  0
ENDBLK
  8
0
  0
BLOCK
  8
0
  2
*D18
 70
    65
 10
0.0
 20
0.0
 30
0.0
  3
*D
  0
LINE
  8
0
  6
BYBLOCK
 62
     0
 10
29.327111
 20
7.069414
 30
0.0
 11
29.611199
 21
7.069414
 31
0.0
  0
LINE
  8
0
  6
BYBLOCK
 62
     0
 10
29.327111
 20
7.209414
 30
0.0
 11
29.611199
 21
7.209414
 31
0.0
  0
LINE
  8
0
  6
BYBLOCK
 62
     0
 10
29.471699
 20
6.799414
 30
0.0
 11
29.471699
 21
6.529414
 31
0.0
  0
LINE
  8
0
  6
BYBLOCK
 62
     0
 10
29.471699
 20
7.479414
 30
0.0
 11
29.471699
 21
7.749414
 31
0.0
  0
LINE
  8
0
  6
BYBLOCK
 62
     0
 10
29.471699
 20
7.749414
 30
0.0
 11
29.741699
 21
7.749414
 31
0.0
  0
SOLID
  8
0
  6
BYBLOCK
 62
     0
 10
29.426699
 20
6.799414
 30
0.0
 11
29.516699
 21
6.799414
 31
0.0
 12
29.471699
 22
7.069414
 32
0.0
 13
29.471699
 23
7.069414
 33
0.0
  0
SOLID
  8
0
  6
BYBLOCK
 62
     0
 10
29.426699
 20
7.479414
 30
0.0
 11
29.516699
 21
7.479414
 31
0.0
 12
29.471699
 22
7.209414
 32
0.0
 13
29.471699
 23
7.209414
 33
0.0
  0
TEXT
  8
0
  6
BYBLOCK
 62
     0
 10
29.876699
 20
7.655664
 30
0.0
 40
0.1875
  1
0.140
 41
0.75
 72
     1
 11
30.111074
 21
7.749414
 31
0.0
 73
     2
  0
POINT
  8
DEFPOINTS
  6
BYBLOCK
 62
     0
 10
29.232611
 20
7.069414
 30
0.0
  0
POINT
  8
DEFPOINTS
  6
BYBLOCK
 62
     0
 10
29.232611
 20
7.209414
 30
0.0
  0
POINT
  8
DEFPOINTS
  6
BYBLOCK
 62
     0
 10
29.471699
 20
7.209414
 30
0.0
  0
ENDBLK
  8
0
  0
BLOCK
  8
0
  2
*D19
 70
    65
 10
0.0
 20
0.0
 30
0.0
  3
*D
  0
LINE
  8
0
  6
BYBLOCK
 62
     0
 10
32.389611
 20
7.084414
 30
0.0
 11
32.921219
 21
7.084414
 31
0.0
  0
LINE
  8
0
  6
BYBLOCK
 62
     0
 10
32.389611
 20
7.209414
 30
0.0
 11
32.921219
 21
7.209414
 31
0.0
  0
LINE
  8
0
  6
BYBLOCK
 62
     0
 10
32.781719
 20
6.814414
 30
0.0
 11
32.781719
 21
6.544414
 31
0.0
  0
LINE
  8
0
  6
BYBLOCK
 62
     0
 10
32.781719
 20
7.479414
 30
0.0
 11
32.781719
 21
7.749414
 31
0.0
  0
LINE
  8
0
  6
BYBLOCK
 62
     0
 10
32.781719
 20
7.749414
 30
0.0
 11
33.051719
 21
7.749414
 31
0.0
  0
SOLID
  8
0
  6
BYBLOCK
 62
     0
 10
32.736719
 20
6.814414
 30
0.0
 11
32.826719
 21
6.814414
 31
0.0
 12
32.781719
 22
7.084414
 32
0.0
 13
32.781719
 23
7.084414
 33
0.0
  0
SOLID
  8
0
  6
BYBLOCK
 62
     0
 10
32.736719
 20
7.479414
 30
0.0
 11
32.826719
 21
7.479414
 31
0.0
 12
32.781719
 22
7.209414
 32
0.0
 13
32.781719
 23
7.209414
 33
0.0
  0
TEXT
  8
0
  6
BYBLOCK
 62
     0
 10
33.186719
 20
7.655664
 30
0.0
 40
0.1875
  1
0.125
 41
0.75
 72
     1
 11
33.432813
 21
7.749414
 31
0.0
 73
     2
  0
POINT
  8
DEFPOINTS
  6
BYBLOCK
 62
     0
 10
32.295111
 20
7.084414
 30
0.0
  0
POINT
  8
DEFPOINTS
  6
BYBLOCK
 62
     0
 10
32.295111
 20
7.209414
 30
0.0
  0
POINT
  8
DEFPOINTS
  6
BYBLOCK
 62
     0
 10
32.781719
 20
7.209414
 30
0.0
  0
ENDBLK
  8
0
  0
BLOCK
  8
0
  2
*D20
 70
    65
 10
0.0
 20
0.0
 30
0.0
  3
*D
  0
LINE
  8
0
  6
BYBLOCK
 62
     0
 10
28.607611
 20
9.893983
 30
0.0
 11
28.607611
 21
8.40471
 31
0.0
  0
LINE
  8
0
  6
BYBLOCK
 62
     0
 10
28.420111
 20
9.893983
 30
0.0
 11
28.420111
 21
8.40471
 31
0.0
  0
LINE
  8
0
  6
BYBLOCK
 62
     0
 10
28.877611
 20
8.54421
 30
0.0
 11
29.147611
 21
8.54421
 31
0.0
  0
LINE
  8
0
  6
BYBLOCK
 62
     0
 10
28.150111
 20
8.54421
 30
0.0
 11
27.880111
 21
8.54421
 31
0.0
  0
SOLID
  8
0
  6
BYBLOCK
 62
     0
 10
28.877611
 20
8.58921
 30
0.0
 11
28.877611
 21
8.49921
 31
0.0
 12
28.607611
 22
8.54421
 32
0.0
 13
28.607611
 23
8.54421
 33
0.0
  0
SOLID
  8
0
  6
BYBLOCK
 62
     0
 10
28.150111
 20
8.58921
 30
0.0
 11
28.150111
 21
8.49921
 31
0.0
 12
28.420111
 22
8.54421
 32
0.0
 13
28.420111
 23
8.54421
 33
0.0
  0
TEXT
  8
0
  6
BYBLOCK
 62
     0
 10
27.252923
 20
8.45046
 30
0.0
 40
0.1875
  1
0.188
 41
0.75
 72
     1
 11
27.499017
 21
8.54421
 31
0.0
 73
     2
  0
POINT
  8
DEFPOINTS
  6
BYBLOCK
 62
     0
 10
28.607611
 20
9.988483
 30
0.0
  0
POINT
  8
DEFPOINTS
  6
BYBLOCK
 62
     0
 10
28.420111
 20
9.988483
 30
0.0
  0
POINT
  8
DEFPOINTS
  6
BYBLOCK
 62
     0
 10
28.420111
 20
8.54421
 30
0.0
  0
ENDBLK
  8
0
  0
BLOCK
  8
0
  2
*D21
 70
    65
 10
0.0
 20
0.0
 30
0.0
  3
*D
  0
LINE
  8
0
  6
BYBLOCK
 62
     0
 10
32.107611
 20
9.893983
 30
0.0
 11
32.107611
 21
8.40471
 31
0.0
  0
LINE
  8
0
  6
BYBLOCK
 62
     0
 10
28.607611
 20
9.893983
 30
0.0
 11
28.607611
 21
8.40471
 31
0.0
  0
LINE
  8
0
  6
BYBLOCK
 62
     0
 10
31.837611
 20
8.54421
 30
0.0
 11
30.539486
 21
8.54421
 31
0.0
  0
LINE
  8
0
  6
BYBLOCK
 62
     0
 10
28.877611
 20
8.54421
 30
0.0
 11
30.175736
 21
8.54421
 31
0.0
  0
SOLID
  8
0
  6
BYBLOCK
 62
     0
 10
31.837611
 20
8.58921
 30
0.0
 11
31.837611
 21
8.49921
 31
0.0
 12
32.107611
 22
8.54421
 32
0.0
 13
32.107611
 23
8.54421
 33
0.0
  0
SOLID
  8
0
  6
BYBLOCK
 62
     0
 10
28.877611
 20
8.58921
 30
0.0
 11
28.877611
 21
8.49921
 31
0.0
 12
28.607611
 22
8.54421
 32
0.0
 13
28.607611
 23
8.54421
 33
0.0
  0
TEXT
  8
0
  6
BYBLOCK
 62
     0
 10
30.310736
 20
8.45046
 30
0.0
 40
0.1875
  1
M
 41
0.75
 72
     1
 11
30.357611
 21
8.54421
 31
0.0
 73
     2
  0
POINT
  8
DEFPOINTS
  6
BYBLOCK
 62
     0
 10
32.107611
 20
9.988483
 30
0.0
  0
POINT
  8
DEFPOINTS
  6
BYBLOCK
 62
     0
 10
28.607611
 20
9.988483
 30
0.0
  0
POINT
  8
DEFPOINTS
  6
BYBLOCK
 62
     0
 10
28.607611
 20
8.54421
 30
0.0
  0
ENDBLK
  8
0
  0
BLOCK
  8
0
  2
*D22
 70
    65
 10
0.0
 20
0.0
 30
0.0
  3
*D
  0
LINE
  8
0
  6
BYBLOCK
 62
     0
 10
28.868111
 20
4.690518
 30
0.0
 11
28.036861
 21
4.690518
 31
0.0
  0
LINE
  8
0
  6
BYBLOCK
 62
     0
 10
28.868111
 20
2.909518
 30
0.0
 11
28.036861
 21
2.909518
 31
0.0
  0
LINE
  8
0
  6
BYBLOCK
 62
     0
 10
28.176361
 20
4.420518
 30
0.0
 11
28.176361
 21
4.028768
 31
0.0
  0
LINE
  8
0
  6
BYBLOCK
 62
     0
 10
28.176361
 20
3.179518
 30
0.0
 11
28.176361
 21
3.571268
 31
0.0
  0
SOLID
  8
0
  6
BYBLOCK
 62
     0
 10
28.131361
 20
4.420518
 30
0.0
 11
28.221361
 21
4.420518
 31
0.0
 12
28.176361
 22
4.690518
 32
0.0
 13
28.176361
 23
4.690518
 33
0.0
  0
SOLID
  8
0
  6
BYBLOCK
 62
     0
 10
28.131361
 20
3.179518
 30
0.0
 11
28.221361
 21
3.179518
 31
0.0
 12
28.176361
 22
2.909518
 32
0.0
 13
28.176361
 23
2.909518
 33
0.0
  0
TEXT
  8
0
  6
BYBLOCK
 62
     0
 10
28.129486
 20
3.706268
 30
0.0
 40
0.1875
  1
L
 41
0.75
 72
     1
 11
28.176361
 21
3.800018
 31
0.0
 73
     2
  0
POINT
  8
DEFPOINTS
  6
BYBLOCK
 62
     0
 10
28.962611
 20
4.690518
 30
0.0
  0
POINT
  8
DEFPOINTS
  6
BYBLOCK
 62
     0
 10
28.962611
 20
2.909518
 30
0.0
  0
POINT
  8
DEFPOINTS
  6
BYBLOCK
 62
     0
 10
28.176361
 20
2.909518
 30
0.0
  0
ENDBLK
  8
0
  0
BLOCK
  8
0
  2
*D23
 70
    65
 10
0.0
 20
0.0
 30
0.0
  3
*D
  0
LINE
  8
0
  6
BYBLOCK
 62
     0
 10
28.962611
 20
2.815018
 30
0.0
 11
28.962611
 21
2.165693
 31
0.0
  0
LINE
  8
0
  6
BYBLOCK
 62
     0
 10
31.752611
 20
2.815018
 30
0.0
 11
31.752611
 21
2.165693
 31
0.0
  0
LINE
  8
0
  6
BYBLOCK
 62
     0
 10
29.232611
 20
2.305193
 30
0.0
 11
30.175736
 21
2.305193
 31
0.0
  0
LINE
  8
0
  6
BYBLOCK
 62
     0
 10
31.482611
 20
2.305193
 30
0.0
 11
30.539486
 21
2.305193
 31
0.0
  0
SOLID
  8
0
  6
BYBLOCK
 62
     0
 10
29.232611
 20
2.350193
 30
0.0
 11
29.232611
 21
2.260193
 31
0.0
 12
28.962611
 22
2.305193
 32
0.0
 13
28.962611
 23
2.305193
 33
0.0
  0
SOLID
  8
0
  6
BYBLOCK
 62
     0
 10
31.482611
 20
2.350193
 30
0.0
 11
31.482611
 21
2.260193
 31
0.0
 12
31.752611
 22
2.305193
 32
0.0
 13
31.752611
 23
2.305193
 33
0.0
  0
TEXT
  8
0
  6
BYBLOCK
 62
     0
 10
30.310736
 20
2.211443
 30
0.0
 40
0.1875
  1
K
 41
0.75
 72
     1
 11
30.357611
 21
2.305193
 31
0.0
 73
     2
  0
POINT
  8
DEFPOINTS
  6
BYBLOCK
 62
     0
 10
28.962611
 20
2.909518
 30
0.0
  0
POINT
  8
DEFPOINTS
  6
BYBLOCK
 62
     0
 10
31.752611
 20
2.909518
 30
0.0
  0
POINT
  8
DEFPOINTS
  6
BYBLOCK
 62
     0
 10
31.752611
 20
2.305193
 30
0.0
  0
ENDBLK
  8
0
  0
BLOCK
  8
0
  2
*D24
 70
    65
 10
0.0
 20
0.0
 30
0.0
  3
*D
  0
LINE
  8
0
  6
BYBLOCK
 62
     0
 10
24.517384
 20
6.188358
 30
0.0
 11
24.517384
 21
4.61532
 31
0.0
  0
LINE
  8
0
  6
BYBLOCK
 62
     0
 10
24.546044
 20
5.614946
 30
0.0
 11
24.572201
 21
4.616038
 31
0.0
  0
ARC
  8
0
  6
BYBLOCK
 62
     0
 10
24.517384
 20
6.709414
 30
0.0
 40
1.954594
 50
254.158155
 51
262.079077
  0
ARC
  8
0
  6
BYBLOCK
 62
     0
 10
24.517384
 20
6.709414
 30
0.0
 40
1.954594
 50
279.420923
 51
287.341845
  0
SOLID
  8
0
  6
BYBLOCK
 62
     0
 10
24.251137
 20
4.818361
 30
0.0
 11
24.244921
 21
4.728576
 31
0.0
 12
24.517384
 22
4.75482
 32
0.0
 13
24.517384
 23
4.75482
 33
0.0
  0
SOLID
  8
0
  6
BYBLOCK
 62
     0
 10
24.841607
 20
4.736387
 30
0.0
 11
24.833042
 21
4.825979
 31
0.0
 12
24.56855
 22
4.75549
 32
0.0
 13
24.56855
 23
4.75549
 33
0.0
  0
TEXT
  8
0
  6
BYBLOCK
 62
     0
 10
25.890076
 20
4.757915
 30
0.0
 40
0.1875
  1
 REF.
 41
0.75
 72
     1
 11
26.171326
 21
4.851665
 31
0.0
 73
     2
  0
TEXT
  8
0
  6
BYBLOCK
 62
     0
 10
25.374451
 20
4.757915
 30
0.0
 40
0.1875
  1
1%%d30'
 41
0.75
 72
     1
 11
25.608826
 21
4.851665
 31
0.0
 73
     2
  0
POINT
  8
DEFPOINTS
  6
BYBLOCK
 62
     0
 10
24.541806
 20
4.754973
 30
0.0
  0
POINT
  8
DEFPOINTS
  6
BYBLOCK
 62
     0
 10
24.54357
 20
5.709414
 30
0.0
  0
POINT
  8
DEFPOINTS
  6
BYBLOCK
 62
     0
 10
24.517384
 20
6.709414
 30
0.0
  0
POINT
  8
DEFPOINTS
  6
BYBLOCK
 62
     0
 10
24.517384
 20
6.282858
 30
0.0
  0
POINT
  8
DEFPOINTS
  6
BYBLOCK
 62
     0
 10
24.517384
 20
6.709414
 30
0.0
  0
ENDBLK
  8
0
  0
BLOCK
  8
0
  2
*D25
 70
    65
 10
0.0
 20
0.0
 30
0.0
  3
*D
  0
LINE
  8
0
  6
BYBLOCK
 62
     0
 10
29.123611
 20
10.816983
 30
0.0
 11
29.123611
 21
11.967342
 31
0.0
  0
LINE
  8
0
  6
BYBLOCK
 62
     0
 10
31.591611
 20
10.816983
 30
0.0
 11
31.591611
 21
11.967342
 31
0.0
  0
LINE
  8
0
  6
BYBLOCK
 62
     0
 10
29.393611
 20
11.827842
 30
0.0
 11
30.175736
 21
11.827842
 31
0.0
  0
LINE
  8
0
  6
BYBLOCK
 62
     0
 10
31.321611
 20
11.827842
 30
0.0
 11
30.539486
 21
11.827842
 31
0.0
  0
SOLID
  8
0
  6
BYBLOCK
 62
     0
 10
29.393611
 20
11.872842
 30
0.0
 11
29.393611
 21
11.782842
 31
0.0
 12
29.123611
 22
11.827842
 32
0.0
 13
29.123611
 23
11.827842
 33
0.0
  0
SOLID
  8
0
  6
BYBLOCK
 62
     0
 10
31.321611
 20
11.872842
 30
0.0
 11
31.321611
 21
11.782842
 31
0.0
 12
31.591611
 22
11.827842
 32
0.0
 13
31.591611
 23
11.827842
 33
0.0
  0
TEXT
  8
0
  6
BYBLOCK
 62
     0
 10
30.310736
 20
11.734092
 30
0.0
 40
0.1875
  1
F
 41
0.75
 72
     1
 11
30.357611
 21
11.827842
 31
0.0
 73
     2
  0
POINT
  8
DEFPOINTS
  6
BYBLOCK
 62
     0
 10
29.123611
 20
10.722483
 30
0.0
  0
POINT
  8
DEFPOINTS
  6
BYBLOCK
 62
     0
 10
31.591611
 20
10.722483
 30
0.0
  0
POINT
  8
DEFPOINTS
  6
BYBLOCK
 62
     0
 10
31.591611
 20
11.827842
 30
0.0
  0
ENDBLK
  8
0
  0
BLOCK
  8
0
  2
*D26
 70
    65
 10
0.0
 20
0.0
 30
0.0
  3
*D
  0
LINE
  8
0
  6
BYBLOCK
 62
     0
 10
10.141002
 20
17.032499
 30
0.0
 11
10.643999
 21
17.032499
 31
0.0
  0
LINE
  8
0
  6
BYBLOCK
 62
     0
 10
10.178002
 20
17.107499
 30
0.0
 11
10.643999
 21
17.107499
 31
0.0
  0
LINE
  8
0
  6
BYBLOCK
 62
     0
 10
10.504499
 20
16.762499
 30
0.0
 11
10.504499
 21
16.492499
 31
0.0
  0
LINE
  8
0
  6
BYBLOCK
 62
     0
 10
10.504499
 20
17.377499
 30
0.0
 11
10.504499
 21
17.647499
 31
0.0
  0
LINE
  8
0
  6
BYBLOCK
 62
     0
 10
10.504499
 20
17.647499
 30
0.0
 11
10.774499
 21
17.647499
 31
0.0
  0
SOLID
  8
0
  6
BYBLOCK
 62
     0
 10
10.459499
 20
16.762499
 30
0.0
 11
10.549499
 21
16.762499
 31
0.0
 12
10.504499
 22
17.032499
 32
0.0
 13
10.504499
 23
17.032499
 33
0.0
  0
SOLID
  8
0
  6
BYBLOCK
 62
     0
 10
10.459499
 20
17.377499
 30
0.0
 11
10.549499
 21
17.377499
 31
0.0
 12
10.504499
 22
17.107499
 32
0.0
 13
10.504499
 23
17.107499
 33
0.0
  0
TEXT
  8
0
  6
BYBLOCK
 62
     0
 10
10.909499
 20
17.553749
 30
0.0
 40
0.1875
  1
0.075
 41
0.75
 72
     1
 11
11.167311
 21
17.647499
 31
0.0
 73
     2
  0
POINT
  8
DEFPOINTS
  6
BYBLOCK
 62
     0
 10
10.046502
 20
17.032499
 30
0.0
  0
POINT
  8
DEFPOINTS
  6
BYBLOCK
 62
     0
 10
10.083502
 20
17.107499
 30
0.0
  0
POINT
  8
DEFPOINTS
  6
BYBLOCK
 62
     0
 10
10.504499
 20
17.107499
 30
0.0
  0
ENDBLK
  8
0
  0
BLOCK
  8
0
  2
*D27
 70
    65
 10
0.0
 20
0.0
 30
0.0
  3
*D
  0
LINE
  8
0
  6
BYBLOCK
 62
     0
 10
29.658423
 20
9.893983
 30
0.0
 11
29.658423
 21
7.98321
 31
0.0
  0
LINE
  8
0
  6
BYBLOCK
 62
     0
 10
33.533423
 20
9.893983
 30
0.0
 11
33.533423
 21
7.98321
 31
0.0
  0
LINE
  8
0
  6
BYBLOCK
 62
     0
 10
29.928423
 20
8.12271
 30
0.0
 11
31.414048
 21
8.12271
 31
0.0
  0
LINE
  8
0
  6
BYBLOCK
 62
     0
 10
33.263423
 20
8.12271
 30
0.0
 11
31.777798
 21
8.12271
 31
0.0
  0
SOLID
  8
0
  6
BYBLOCK
 62
     0
 10
29.928423
 20
8.16771
 30
0.0
 11
29.928423
 21
8.07771
 31
0.0
 12
29.658423
 22
8.12271
 32
0.0
 13
29.658423
 23
8.12271
 33
0.0
  0
SOLID
  8
0
  6
BYBLOCK
 62
     0
 10
33.263423
 20
8.16771
 30
0.0
 11
33.263423
 21
8.07771
 31
0.0
 12
33.533423
 22
8.12271
 32
0.0
 13
33.533423
 23
8.12271
 33
0.0
  0
TEXT
  8
0
  6
BYBLOCK
 62
     0
 10
31.549048
 20
8.02896
 30
0.0
 40
0.1875
  1
E
 41
0.75
 72
     1
 11
31.595923
 21
8.12271
 31
0.0
 73
     2
  0
POINT
  8
DEFPOINTS
  6
BYBLOCK
 62
     0
 10
29.658423
 20
9.988483
 30
0.0
  0
POINT
  8
DEFPOINTS
  6
BYBLOCK
 62
     0
 10
33.533423
 20
9.988483
 30
0.0
  0
POINT
  8
DEFPOINTS
  6
BYBLOCK
 62
     0
 10
33.533423
 20
8.12271
 30
0.0
  0
ENDBLK
  8
0
  0
BLOCK
  8
0
  2
*D28
 70
    65
 10
0.0
 20
0.0
 30
0.0
  3
*D
  0
LINE
  8
0
  6
BYBLOCK
 62
     0
 10
38.792709
 20
4.396879
 30
0.0
 11
38.792709
 21
3.497741
 31
0.0
  0
LINE
  8
0
  6
BYBLOCK
 62
     0
 10
41.792709
 20
4.396879
 30
0.0
 11
41.792709
 21
3.497741
 31
0.0
  0
LINE
  8
0
  6
BYBLOCK
 62
     0
 10
39.062709
 20
3.637241
 30
0.0
 11
40.110834
 21
3.637241
 31
0.0
  0
LINE
  8
0
  6
BYBLOCK
 62
     0
 10
41.522709
 20
3.637241
 30
0.0
 11
40.474584
 21
3.637241
 31
0.0
  0
SOLID
  8
0
  6
BYBLOCK
 62
     0
 10
39.062709
 20
3.682241
 30
0.0
 11
39.062709
 21
3.592241
 31
0.0
 12
38.792709
 22
3.637241
 32
0.0
 13
38.792709
 23
3.637241
 33
0.0
  0
SOLID
  8
0
  6
BYBLOCK
 62
     0
 10
41.522709
 20
3.682241
 30
0.0
 11
41.522709
 21
3.592241
 31
0.0
 12
41.792709
 22
3.637241
 32
0.0
 13
41.792709
 23
3.637241
 33
0.0
  0
TEXT
  8
0
  6
BYBLOCK
 62
     0
 10
40.245834
 20
3.543491
 30
0.0
 40
0.1875
  1
P
 41
0.75
 72
     1
 11
40.292709
 21
3.637241
 31
0.0
 73
     2
  0
POINT
  8
DEFPOINTS
  6
BYBLOCK
 62
     0
 10
38.792709
 20
4.491379
 30
0.0
  0
POINT
  8
DEFPOINTS
  6
BYBLOCK
 62
     0
 10
41.792709
 20
4.491379
 30
0.0
  0
POINT
  8
DEFPOINTS
  6
BYBLOCK
 62
     0
 10
41.792709
 20
3.637241
 30
0.0
  0
ENDBLK
  8
0
  0
BLOCK
  8
0
  2
*D29
 70
    65
 10
0.0
 20
0.0
 30
0.0
  3
*D
  0
LINE
  8
0
  6
BYBLOCK
 62
     0
 10
38.757209
 20
6.432379
 30
0.0
 11
37.867546
 21
6.432379
 31
0.0
  0
LINE
  8
0
  6
BYBLOCK
 62
     0
 10
38.757209
 20
4.432379
 30
0.0
 11
37.867546
 21
4.432379
 31
0.0
  0
LINE
  8
0
  6
BYBLOCK
 62
     0
 10
38.007046
 20
6.162379
 30
0.0
 11
38.007046
 21
5.661129
 31
0.0
  0
LINE
  8
0
  6
BYBLOCK
 62
     0
 10
38.007046
 20
4.702379
 30
0.0
 11
38.007046
 21
5.203629
 31
0.0
  0
SOLID
  8
0
  6
BYBLOCK
 62
     0
 10
37.962046
 20
6.162379
 30
0.0
 11
38.052046
 21
6.162379
 31
0.0
 12
38.007046
 22
6.432379
 32
0.0
 13
38.007046
 23
6.432379
 33
0.0
  0
SOLID
  8
0
  6
BYBLOCK
 62
     0
 10
37.962046
 20
4.702379
 30
0.0
 11
38.052046
 21
4.702379
 31
0.0
 12
38.007046
 22
4.432379
 32
0.0
 13
38.007046
 23
4.432379
 33
0.0
  0
TEXT
  8
0
  6
BYBLOCK
 62
     0
 10
37.960171
 20
5.338629
 30
0.0
 40
0.1875
  1
Q
 41
0.75
 72
     1
 11
38.007046
 21
5.432379
 31
0.0
 73
     2
  0
POINT
  8
DEFPOINTS
  6
BYBLOCK
 62
     0
 10
38.851709
 20
6.432379
 30
0.0
  0
POINT
  8
DEFPOINTS
  6
BYBLOCK
 62
     0
 10
38.851709
 20
4.432379
 30
0.0
  0
POINT
  8
DEFPOINTS
  6
BYBLOCK
 62
     0
 10
38.007046
 20
4.432379
 30
0.0
  0
ENDBLK
  8
0
  0
BLOCK
  8
0
  2
*D30
 70
    65
 10
0.0
 20
0.0
 30
0.0
  3
*D
  0
LINE
  8
0
  6
BYBLOCK
 62
     0
 10
39.417709
 20
5.337879
 30
0.0
 11
39.417709
 21
3.919241
 31
0.0
  0
LINE
  8
0
  6
BYBLOCK
 62
     0
 10
41.167709
 20
5.337879
 30
0.0
 11
41.167709
 21
3.919241
 31
0.0
  0
LINE
  8
0
  6
BYBLOCK
 62
     0
 10
39.687709
 20
4.058741
 30
0.0
 11
40.110834
 21
4.058741
 31
0.0
  0
LINE
  8
0
  6
BYBLOCK
 62
     0
 10
40.897709
 20
4.058741
 30
0.0
 11
40.474584
 21
4.058741
 31
0.0
  0
SOLID
  8
0
  6
BYBLOCK
 62
     0
 10
39.687709
 20
4.103741
 30
0.0
 11
39.687709
 21
4.013741
 31
0.0
 12
39.417709
 22
4.058741
 32
0.0
 13
39.417709
 23
4.058741
 33
0.0
  0
SOLID
  8
0
  6
BYBLOCK
 62
     0
 10
40.897709
 20
4.103741
 30
0.0
 11
40.897709
 21
4.013741
 31
0.0
 12
41.167709
 22
4.058741
 32
0.0
 13
41.167709
 23
4.058741
 33
0.0
  0
TEXT
  8
0
  6
BYBLOCK
 62
     0
 10
40.245834
 20
3.964991
 30
0.0
 40
0.1875
  1
R
 41
0.75
 72
     1
 11
40.292709
 21
4.058741
 31
0.0
 73
     2
  0
POINT
  8
DEFPOINTS
  6
BYBLOCK
 62
     0
 10
39.417709
 20
5.432379
 30
0.0
  0
POINT
  8
DEFPOINTS
  6
BYBLOCK
 62
     0
 10
41.167709
 20
5.432379
 30
0.0
  0
POINT
  8
DEFPOINTS
  6
BYBLOCK
 62
     0
 10
41.167709
 20
4.058741
 30
0.0
  0
ENDBLK
  8
0
  0
BLOCK
  8
0
  2
*D31
 70
    65
 10
0.0
 20
0.0
 30
0.0
  3
*D
  0
LINE
  8
0
  6
BYBLOCK
 62
     0
 10
39.323209
 20
5.432379
 30
0.0
 11
38.289046
 21
5.432379
 31
0.0
  0
LINE
  8
0
  6
BYBLOCK
 62
     0
 10
38.757209
 20
6.432379
 30
0.0
 11
38.289046
 21
6.432379
 31
0.0
  0
LINE
  8
0
  6
BYBLOCK
 62
     0
 10
38.428546
 20
5.162379
 30
0.0
 11
38.428546
 21
4.892379
 31
0.0
  0
LINE
  8
0
  6
BYBLOCK
 62
     0
 10
38.428546
 20
6.702379
 30
0.0
 11
38.428546
 21
6.972379
 31
0.0
  0
SOLID
  8
0
  6
BYBLOCK
 62
     0
 10
38.383546
 20
5.162379
 30
0.0
 11
38.473546
 21
5.162379
 31
0.0
 12
38.428546
 22
5.432379
 32
0.0
 13
38.428546
 23
5.432379
 33
0.0
  0
SOLID
  8
0
  6
BYBLOCK
 62
     0
 10
38.383546
 20
6.702379
 30
0.0
 11
38.473546
 21
6.702379
 31
0.0
 12
38.428546
 22
6.432379
 32
0.0
 13
38.428546
 23
6.432379
 33
0.0
  0
TEXT
  8
0
  6
BYBLOCK
 62
     0
 10
38.381671
 20
5.838629
 30
0.0
 40
0.1875
  1
S
 41
0.75
 72
     1
 11
38.428546
 21
5.932379
 31
0.0
 73
     2
  0
POINT
  8
DEFPOINTS
  6
BYBLOCK
 62
     0
 10
39.417709
 20
5.432379
 30
0.0
  0
POINT
  8
DEFPOINTS
  6
BYBLOCK
 62
     0
 10
38.851709
 20
6.432379
 30
0.0
  0
POINT
  8
DEFPOINTS
  6
BYBLOCK
 62
     0
 10
38.428546
 20
6.432379
 30
0.0
  0
ENDBLK
  8
0
  0
BLOCK
  8
0
  2
*D32
 70
    65
 10
0.0
 20
0.0
 30
0.0
  3
*D
  0
LINE
  8
0
  6
BYBLOCK
 62
     0
 10
39.417709
 20
5.337879
 30
0.0
 11
39.417709
 21
3.919241
 31
0.0
  0
LINE
  8
0
  6
BYBLOCK
 62
     0
 10
38.792709
 20
4.396879
 30
0.0
 11
38.792709
 21
3.919241
 31
0.0
  0
LINE
  8
0
  6
BYBLOCK
 62
     0
 10
39.687709
 20
4.058741
 30
0.0
 11
39.957709
 21
4.058741
 31
0.0
  0
LINE
  8
0
  6
BYBLOCK
 62
     0
 10
38.522709
 20
4.058741
 30
0.0
 11
38.252709
 21
4.058741
 31
0.0
  0
SOLID
  8
0
  6
BYBLOCK
 62
     0
 10
39.687709
 20
4.103741
 30
0.0
 11
39.687709
 21
4.013741
 31
0.0
 12
39.417709
 22
4.058741
 32
0.0
 13
39.417709
 23
4.058741
 33
0.0
  0
SOLID
  8
0
  6
BYBLOCK
 62
     0
 10
38.522709
 20
4.103741
 30
0.0
 11
38.522709
 21
4.013741
 31
0.0
 12
38.792709
 22
4.058741
 32
0.0
 13
38.792709
 23
4.058741
 33
0.0
  0
TEXT
  8
0
  6
BYBLOCK
 62
     0
 10
39.058334
 20
3.964991
 30
0.0
 40
0.1875
  1
T
 41
0.75
 72
     1
 11
39.105209
 21
4.058741
 31
0.0
 73
     2
  0
POINT
  8
DEFPOINTS
  6
BYBLOCK
 62
     0
 10
39.417709
 20
5.432379
 30
0.0
  0
POINT
  8
DEFPOINTS
  6
BYBLOCK
 62
     0
 10
38.792709
 20
4.491379
 30
0.0
  0
POINT
  8
DEFPOINTS
  6
BYBLOCK
 62
     0
 10
38.792709
 20
4.058741
 30
0.0
  0
ENDBLK
  8
0
  0
BLOCK
  8
0
  2
*D33
 70
    65
 10
0.0
 20
0.0
 30
0.0
  3
*D
  0
LINE
  8
0
  6
BYBLOCK
 62
     0
 10
13.586827
 20
8.045674
 30
0.0
 11
14.311327
 21
8.045674
 31
0.0
  0
LINE
  8
0
  6
BYBLOCK
 62
     0
 10
13.623827
 20
8.322674
 30
0.0
 11
14.311327
 21
8.322674
 31
0.0
  0
LINE
  8
0
  6
BYBLOCK
 62
     0
 10
14.171827
 20
7.775674
 30
0.0
 11
14.171827
 21
7.505674
 31
0.0
  0
LINE
  8
0
  6
BYBLOCK
 62
     0
 10
14.171827
 20
8.592674
 30
0.0
 11
14.171827
 21
8.862674
 31
0.0
  0
SOLID
  8
0
  6
BYBLOCK
 62
     0
 10
14.126827
 20
7.775674
 30
0.0
 11
14.216827
 21
7.775674
 31
0.0
 12
14.171827
 22
8.045674
 32
0.0
 13
14.171827
 23
8.045674
 33
0.0
  0
SOLID
  8
0
  6
BYBLOCK
 62
     0
 10
14.126827
 20
8.592674
 30
0.0
 11
14.216827
 21
8.592674
 31
0.0
 12
14.171827
 22
8.322674
 32
0.0
 13
14.171827
 23
8.322674
 33
0.0
  0
TEXT
  8
0
  6
BYBLOCK
 62
     0
 10
13.902296
 20
8.090424
 30
0.0
 40
0.1875
  1
0.277
 41
0.75
 72
     1
 11
14.171827
 21
8.184174
 31
0.0
 73
     2
  0
POINT
  8
DEFPOINTS
  6
BYBLOCK
 62
     0
 10
13.492327
 20
8.045674
 30
0.0
  0
POINT
  8
DEFPOINTS
  6
BYBLOCK
 62
     0
 10
13.529327
 20
8.322674
 30
0.0
  0
POINT
  8
DEFPOINTS
  6
BYBLOCK
 62
     0
 10
14.171827
 20
8.322674
 30
0.0
  0
ENDBLK
  8
0
  0
BLOCK
  8
0
  2
*D34
 70
    65
 10
0.0
 20
0.0
 30
0.0
  3
*D
  0
LINE
  8
0
  6
BYBLOCK
 62
     0
 10
14.327091
 20
7.951174
 30
0.0
 11
14.327091
 21
7.546986
 31
0.0
  0
LINE
  8
0
  6
BYBLOCK
 62
     0
 10
14.218091
 20
7.951174
 30
0.0
 11
14.218091
 21
7.546986
 31
0.0
  0
LINE
  8
0
  6
BYBLOCK
 62
     0
 10
14.597091
 20
7.686486
 30
0.0
 11
14.867091
 21
7.686486
 31
0.0
  0
LINE
  8
0
  6
BYBLOCK
 62
     0
 10
13.948091
 20
7.686486
 30
0.0
 11
13.678091
 21
7.686486
 31
0.0
  0
SOLID
  8
0
  6
BYBLOCK
 62
     0
 10
14.597091
 20
7.731486
 30
0.0
 11
14.597091
 21
7.641486
 31
0.0
 12
14.327091
 22
7.686486
 32
0.0
 13
14.327091
 23
7.686486
 33
0.0
  0
SOLID
  8
0
  6
BYBLOCK
 62
     0
 10
13.948091
 20
7.731486
 30
0.0
 11
13.948091
 21
7.641486
 31
0.0
 12
14.218091
 22
7.686486
 32
0.0
 13
14.218091
 23
7.686486
 33
0.0
  0
TEXT
  8
0
  6
BYBLOCK
 62
     0
 10
13.074341
 20
7.592736
 30
0.0
 40
0.1875
  1
0.109
 41
0.75
 72
     1
 11
13.308716
 21
7.686486
 31
0.0
 73
     2
  0
POINT
  8
DEFPOINTS
  6
BYBLOCK
 62
     0
 10
14.327091
 20
8.045674
 30
0.0
  0
POINT
  8
DEFPOINTS
  6
BYBLOCK
 62
     0
 10
14.218091
 20
8.045674
 30
0.0
  0
POINT
  8
DEFPOINTS
  6
BYBLOCK
 62
     0
 10
14.218091
 20
7.686486
 30
0.0
  0
ENDBLK
  8
0
  0
ENDSEC
  0
SECTION
  2
ENTITIES
  0
TEXT
  8
DIM
 10
19.522321
 20
9.887454
 30
0.0
 40
0.187469
  1
& C'SINK. TO 0.250 DIA. x 82%%d
 41
0.75
  7
TXT
 11
19.522321
 21
9.981188
 31
0.0
 73
     2
  0
INSERT
  8
TITLE
  2
HBS
 10
0.0
 20
0.0
 30
0.0
 41
1.5
 42
1.5
 43
1.5
  0
LINE
  8
TITLE
 10
0.093
 20
0.407
 30
0.0
 11
23.157
 21
0.407
 31
0.0
  0
LINE
  8
TITLE
 10
0.093
 20
0.721
 30
0.0
 11
23.157
 21
0.721
 31
0.0
  0
LINE
  8
TITLE
 10
0.093
 20
1.035
 30
0.0
 11
23.157
 21
1.035
 31
0.0
  0
LINE
  8
TITLE
 10
0.093
 20
1.349
 30
0.0
 11
23.157
 21
1.349
 31
0.0
  0
LINE
  8
TITLE
 10
0.093
 20
1.663
 30
0.0
 11
23.157
 21
1.663
 31
0.0
  0
DIMENSION
  8
DIM
  2
*D9
 10
18.514288
 20
11.657482
 30
0.0
 11
17.280288
 21
11.657482
 31
0.0
 12
8.696786
 22
-8.955185
 32
0.0
  1
F
 13
16.046288
 23
10.552123
 33
0.0
 14
18.514288
 24
10.552123
 34
0.0
  3
23NSTD
  0
TEXT
  8
TEXT
 10
0.353291
 20
11.552618
 30
0.0
 40
0.1875
  1
COVER REDUCES INSIDE HEIGHT BY 0.075.
 41
0.75
  7
TXT
  0
TEXT
  8
TEXT
 10
0.27125
 20
0.165833
 30
0.0
 40
0.187
  1
CU-792-MB
 41
0.75
  7
TXT
 72
     4
 11
0.879
 21
0.259333
 31
0.0
  0
TEXT
  8
TEXT
 10
0.294625
 20
0.4775
 30
0.0
 40
0.187
  1
CU-791-MB
 41
0.75
  7
TXT
 72
     4
 11
0.879
 21
0.571
 31
0.0
  0
TEXT
  8
TEXT
 10
0.282937
 20
0.789167
 30
0.0
 40
0.187
  1
CU-790-MB
 41
0.75
  7
TXT
 72
     4
 11
0.879
 21
0.882667
 31
0.0
  0
TEXT
  8
TEXT
 10
0.27125
 20
1.100833
 30
0.0
 40
0.187
  1
CU-789-MB
 41
0.75
  7
TXT
 72
     4
 11
0.879
 21
1.194333
 31
0.0
  0
TEXT
  8
TEXT
 10
0.388125
 20
1.4125
 30
0.0
 40
0.187
  1
PART No.
 41
0.75
  7
TXT
 72
     4
 11
0.879
 21
1.506
 31
0.0
  0
TEXT
  8
TEXT
 10
4.42675
 20
0.158667
 30
0.0
 40
0.188
  1
1.000
 41
0.75
  7
TXT
 72
     4
 11
4.65
 21
0.252667
 31
0.0
  0
TEXT
  8
TEXT
 10
4.415
 20
0.472
 30
0.0
 40
0.188
  1
1.500
 41
0.75
  7
TXT
 72
     4
 11
4.65
 21
0.566
 31
0.0
  0
TEXT
  8
TEXT
 10
2.01525
 20
0.158667
 30
0.0
 40
0.188
  1
4.000
 41
0.75
  7
TXT
 72
     4
 11
2.262
 21
0.252667
 31
0.0
  0
TEXT
  8
TEXT
 10
2.01525
 20
0.472
 30
0.0
 40
0.188
  1
3.000
 41
0.75
  7
TXT
 72
     4
 11
2.262
 21
0.566
 31
0.0
  0
TEXT
  8
TEXT
 10
3.20925
 20
0.158667
 30
0.0
 40
0.188
  1
1.750
 41
0.75
  7
TXT
 72
     4
 11
3.456
 21
0.252667
 31
0.0
  0
TEXT
  8
TEXT
 10
3.20925
 20
0.472
 30
0.0
 40
0.188
  1
3.000
 41
0.75
  7
TXT
 72
     4
 11
3.456
 21
0.566
 31
0.0
  0
TEXT
  8
TEXT
 10
5.59725
 20
0.158667
 30
0.0
 40
0.188
  1
1.802
 41
0.75
  7
TXT
 72
     4
 11
5.844
 21
0.252667
 31
0.0
  0
TEXT
  8
TEXT
 10
5.57375
 20
0.472
 30
0.0
 40
0.188
  1
3.079
 41
0.75
  7
TXT
 72
     4
 11
5.844
 21
0.566
 31
0.0
  0
TEXT
  8
TEXT
 10
6.756
 20
0.158667
 30
0.0
 40
0.188
  1
4.875
 41
0.75
  7
TXT
 72
     4
 11
7.038
 21
0.252667
 31
0.0
  0
TEXT
  8
TEXT
 10
6.756
 20
0.472
 30
0.0
 40
0.188
  1
3.875
 41
0.75
  7
TXT
 72
     4
 11
7.038
 21
0.566
 31
0.0
  0
TEXT
  8
TEXT
 10
4.415
 20
0.785333
 30
0.0
 40
0.188
  1
1.500
 41
0.75
  7
TXT
 72
     4
 11
4.65
 21
0.879333
 31
0.0
  0
TEXT
  8
TEXT
 10
4.40325
 20
1.098667
 30
0.0
 40
0.188
  1
0.900
 41
0.75
  7
TXT
 72
     4
 11
4.65
 21
1.192667
 31
0.0
  0
TEXT
  8
TEXT
 10
4.60325
 20
1.4125
 30
0.0
 40
0.187
  1
C
 41
0.75
  7
TXT
 72
     4
 11
4.65
 21
1.506
 31
0.0
  0
TEXT
  8
TEXT
 10
2.01525
 20
0.785333
 30
0.0
 40
0.188
  1
3.000
 41
0.75
  7
TXT
 72
     4
 11
2.262
 21
0.879333
 31
0.0
  0
TEXT
  8
TEXT
 10
2.01525
 20
1.098667
 30
0.0
 40
0.188
  1
3.000
 41
0.75
  7
TXT
 72
     4
 11
2.262
 21
1.192667
 31
0.0
  0
TEXT
  8
TEXT
 10
2.21525
 20
1.4125
 30
0.0
 40
0.187
  1
A
 41
0.75
  7
TXT
 72
     4
 11
2.262
 21
1.506
 31
0.0
  0
TEXT
  8
TEXT
 10
3.20925
 20
1.098667
 30
0.0
 40
0.188
  1
2.000
 41
0.75
  7
TXT
 72
     4
 11
3.456
 21
1.192667
 31
0.0
  0
TEXT
  8
TEXT
 10
3.20925
 20
0.785333
 30
0.0
 40
0.188
  1
2.000
 41
0.75
  7
TXT
 72
     4
 11
3.456
 21
0.879333
 31
0.0
  0
TEXT
  8
TEXT
 10
3.40925
 20
1.4125
 30
0.0
 40
0.187
  1
B
 41
0.75
  7
TXT
 72
     4
 11
3.456
 21
1.506
 31
0.0
  0
TEXT
  8
TEXT
 10
5.352279
 20
2.19924
 30
0.0
 40
0.234
  1
%%uBODY
 41
0.75
  7
TXT
 72
     4
 11
5.676954
 21
2.29284
 31
0.0
  0
TEXT
  8
TEXT
 10
5.57375
 20
1.098667
 30
0.0
 40
0.188
  1
2.047
 41
0.75
  7
TXT
 72
     4
 11
5.844
 21
1.192667
 31
0.0
  0
TEXT
  8
TEXT
 10
5.57375
 20
0.785333
 30
0.0
 40
0.188
  1
2.079
 41
0.75
  7
TXT
 72
     4
 11
5.844
 21
0.879333
 31
0.0
  0
TEXT
  8
TEXT
 10
5.79725
 20
1.4125
 30
0.0
 40
0.187
  1
D
 41
0.75
  7
TXT
 72
     4
 11
5.844
 21
1.506
 31
0.0
  0
TEXT
  8
TEXT
 10
6.756
 20
0.785333
 30
0.0
 40
0.188
  1
3.875
 41
0.75
  7
TXT
 72
     4
 11
7.038
 21
0.879333
 31
0.0
  0
TEXT
  8
TEXT
 10
6.756
 20
1.098667
 30
0.0
 40
0.188
  1
3.875
 41
0.75
  7
TXT
 72
     4
 11
7.038
 21
1.192667
 31
0.0
  0
TEXT
  8
TEXT
 10
6.99125
 20
1.4125
 30
0.0
 40
0.187
  1
E
 41
0.75
  7
TXT
 72
     4
 11
7.038
 21
1.506
 31
0.0
  0
TEXT
  8
TEXT
 10
0.353291
 20
8.73969
 30
0.0
 40
0.187714
  1
ARE SUPPLIED FOR MOUNTING COVER.
 41
0.75
  7
TXT
  0
TEXT
  8
TEXT
 10
0.353291
 20
9.052547
 30
0.0
 40
0.187714
  1
SCREWS WITH HI/LOW THREADS
 41
0.75
  7
TXT
  0
TEXT
  8
TEXT
 10
0.353291
 20
9.365404
 30
0.0
 40
0.187714
  1
FOUR (4) #4 x 0.500" LG. SELF THREADING
 41
0.75
  7
TXT
  0
TEXT
  8
TEXT
 10
0.353291
 20
9.991118
 30
0.0
 40
0.1875
  1
OPEN END DUE TO TAPER.
 41
0.75
  7
TXT
  0
TEXT
  8
TEXT
 10
0.353291
 20
10.303618
 30
0.0
 40
0.1875
  1
DIMENSIONS INCREASE SLIGHTLY AT
 41
0.75
  7
TXT
  0
TEXT
  8
TEXT
 10
0.353291
 20
10.616118
 30
0.0
 40
0.1875
  1
TAKEN FROM CLOSED END OF THE BOX.
 41
0.75
  7
TXT
  0
TEXT
  8
TEXT
 10
0.353291
 20
10.928618
 30
0.0
 40
0.1875
  1
LENGTH AND WIDTH DIMENSIONS ARE
 41
0.75
  7
TXT
  0
TEXT
  8
DIM
 10
19.521032
 20
4.058807
 30
0.0
 40
0.187469
  1
WITH 0.090 DIA. HOLE
 41
0.75
  7
TXT
 11
19.521032
 21
4.152542
 31
0.0
 73
     2
  0
TEXT
  8
TEXT
 10
13.967
 20
0.158667
 30
0.0
 40
0.188
  1
1.531
 41
0.75
  7
TXT
 72
     4
 11
14.202
 21
0.252667
 31
0.0
  0
TEXT
  8
TEXT
 10
13.9435
 20
0.472
 30
0.0
 40
0.188
  1
2.781
 41
0.75
  7
TXT
 72
     4
 11
14.202
 21
0.566
 31
0.0
  0
TEXT
  8
TEXT
 10
13.967
 20
0.785333
 30
0.0
 40
0.188
  1
1.781
 41
0.75
  7
TXT
 72
     4
 11
14.202
 21
0.879333
 31
0.0
  0
TEXT
  8
TEXT
 10
13.967
 20
1.098667
 30
0.0
 40
0.188
  1
1.781
 41
0.75
  7
TXT
 72
     4
 11
14.202
 21
1.192667
 31
0.0
  0
TEXT
  8
TEXT
 10
9.1675
 20
0.158667
 30
0.0
 40
0.188
  1
1.734
 41
0.75
  7
TXT
 72
     4
 11
9.426
 21
0.252667
 31
0.0
  0
TEXT
  8
TEXT
 10
9.1675
 20
0.472
 30
0.0
 40
0.188
  1
1.234
 41
0.75
  7
TXT
 72
     4
 11
9.426
 21
0.566
 31
0.0
  0
TEXT
  8
TEXT
 10
7.95
 20
0.158667
 30
0.0
 40
0.188
  1
3.468
 41
0.75
  7
TXT
 72
     4
 11
8.232
 21
0.252667
 31
0.0
  0
TEXT
  8
TEXT
 10
7.95
 20
0.472
 30
0.0
 40
0.188
  1
2.468
 41
0.75
  7
TXT
 72
     4
 11
8.232
 21
0.566
 31
0.0
  0
TEXT
  8
TEXT
 10
10.385
 20
0.158667
 30
0.0
 40
0.188
  1
1.218
 41
0.75
  7
TXT
 72
     4
 11
10.62
 21
0.252667
 31
0.0
  0
TEXT
  8
TEXT
 10
10.338
 20
0.472
 30
0.0
 40
0.188
  1
2.468
 41
0.75
  7
TXT
 72
     4
 11
10.62
 21
0.566
 31
0.0
  0
TEXT
  8
TEXT
 10
11.5555
 20
0.158667
 30
0.0
 40
0.188
  1
0.609
 41
0.75
  7
TXT
 72
     4
 11
11.814
 21
0.252667
 31
0.0
  0
TEXT
  8
TEXT
 10
11.5555
 20
0.472
 30
0.0
 40
0.188
  1
1.234
 41
0.75
  7
TXT
 72
     4
 11
11.814
 21
0.566
 31
0.0
  0
TEXT
  8
TEXT
 10
12.73775
 20
0.158667
 30
0.0
 40
0.188
  1
3.790
 41
0.75
  7
TXT
 72
     4
 11
13.008
 21
0.252667
 31
0.0
  0
TEXT
  8
TEXT
 10
12.73775
 20
0.472
 30
0.0
 40
0.188
  1
2.790
 41
0.75
  7
TXT
 72
     4
 11
13.008
 21
0.566
 31
0.0
  0
TEXT
  8
TEXT
 10
9.1675
 20
0.785333
 30
0.0
 40
0.188
  1
1.234
 41
0.75
  7
TXT
 72
     4
 11
9.426
 21
0.879333
 31
0.0
  0
TEXT
  8
TEXT
 10
9.1675
 20
1.098667
 30
0.0
 40
0.188
  1
1.234
 41
0.75
  7
TXT
 72
     4
 11
9.426
 21
1.192667
 31
0.0
  0
TEXT
  8
TEXT
 10
9.37925
 20
1.4125
 30
0.0
 40
0.187
  1
G
 41
0.75
  7
TXT
 72
     4
 11
9.426
 21
1.506
 31
0.0
  0
TEXT
  8
TEXT
 10
7.95
 20
1.098667
 30
0.0
 40
0.188
  1
2.468
 41
0.75
  7
TXT
 72
     4
 11
8.232
 21
1.192667
 31
0.0
  0
TEXT
  8
TEXT
 10
7.95
 20
0.785333
 30
0.0
 40
0.188
  1
2.468
 41
0.75
  7
TXT
 72
     4
 11
8.232
 21
0.879333
 31
0.0
  0
TEXT
  8
TEXT
 10
8.18525
 20
1.4125
 30
0.0
 40
0.187
  1
F
 41
0.75
  7
TXT
 72
     4
 11
8.232
 21
1.506
 31
0.0
  0
TEXT
  8
TEXT
 10
10.3615
 20
1.098667
 30
0.0
 40
0.188
  1
1.468
 41
0.75
  7
TXT
 72
     4
 11
10.62
 21
1.192667
 31
0.0
  0
TEXT
  8
TEXT
 10
10.3615
 20
0.785333
 30
0.0
 40
0.188
  1
1.468
 41
0.75
  7
TXT
 72
     4
 11
10.62
 21
0.879333
 31
0.0
  0
TEXT
  8
TEXT
 10
10.57325
 20
1.4125
 30
0.0
 40
0.187
  1
H
 41
0.75
  7
TXT
 72
     4
 11
10.62
 21
1.506
 31
0.0
  0
TEXT
  8
TEXT
 10
11.54375
 20
0.785333
 30
0.0
 40
0.188
  1
0.734
 41
0.75
  7
TXT
 72
     4
 11
11.814
 21
0.879333
 31
0.0
  0
TEXT
  8
TEXT
 10
11.54375
 20
1.098667
 30
0.0
 40
0.188
  1
0.734
 41
0.75
  7
TXT
 72
     4
 11
11.814
 21
1.192667
 31
0.0
  0
TEXT
  8
TEXT
 10
11.76725
 20
1.4125
 30
0.0
 40
0.187
  1
J
 41
0.75
  7
TXT
 72
     4
 11
11.814
 21
1.506
 31
0.0
  0
TEXT
  8
TEXT
 10
12.73775
 20
1.098667
 30
0.0
 40
0.188
  1
2.790
 41
0.75
  7
TXT
 72
     4
 11
13.008
 21
1.192667
 31
0.0
  0
TEXT
  8
TEXT
 10
12.73775
 20
0.785333
 30
0.0
 40
0.188
  1
2.790
 41
0.75
  7
TXT
 72
     4
 11
13.008
 21
0.879333
 31
0.0
  0
TEXT
  8
TEXT
 10
12.96125
 20
1.4125
 30
0.0
 40
0.187
  1
K
 41
0.75
  7
TXT
 72
     4
 11
13.008
 21
1.506
 31
0.0
  0
TEXT
  8
TEXT
 10
14.15525
 20
1.4125
 30
0.0
 40
0.187
  1
L
 41
0.75
  7
TXT
 72
     4
 11
14.202
 21
1.506
 31
0.0
  0
LINE
  8
TITLE
 10
21.963
 20
1.663
 30
0.0
 11
21.963
 21
0.093
 31
0.0
  0
TEXT
  8
TEXT
 10
17.502
 20
0.158667
 30
0.0
 40
0.188
  1
3.978
 41
0.75
  7
TXT
 72
     4
 11
17.784
 21
0.252667
 31
0.0
  0
TEXT
  8
TEXT
 10
17.53725
 20
0.472
 30
0.0
 40
0.188
  1
3.000
 41
0.75
  7
TXT
 72
     4
 11
17.784
 21
0.566
 31
0.0
  0
TEXT
  8
TEXT
 10
18.7195
 20
0.158667
 30
0.0
 40
0.188
  1
1.733
 41
0.75
  7
TXT
 72
     4
 11
18.978
 21
0.252667
 31
0.0
  0
TEXT
  8
TEXT
 10
18.73125
 20
0.472
 30
0.0
 40
0.188
  1
3.000
 41
0.75
  7
TXT
 72
     4
 11
18.978
 21
0.566
 31
0.0
  0
TEXT
  8
TEXT
 10
21.09575
 20
0.158667
 30
0.0
 40
0.188
  1
0.866
 41
0.75
  7
TXT
 72
     4
 11
21.366
 21
0.252667
 31
0.0
  0
TEXT
  8
TEXT
 10
21.131
 20
0.472
 30
0.0
 40
0.188
  1
1.500
 41
0.75
  7
TXT
 72
     4
 11
21.366
 21
0.566
 31
0.0
  0
TEXT
  8
TEXT
 10
19.92525
 20
0.158667
 30
0.0
 40
0.188
  1
3.000
 41
0.75
  7
TXT
 72
     4
 11
20.172
 21
0.252667
 31
0.0
  0
TEXT
  8
TEXT
 10
19.92525
 20
0.472
 30
0.0
 40
0.188
  1
1.750
 41
0.75
  7
TXT
 72
     4
 11
20.172
 21
0.566
 31
0.0
  0
TEXT
  8
TEXT
 10
22.28975
 20
0.158667
 30
0.0
 40
0.188
  1
0.489
 41
0.75
  7
TXT
 72
     4
 11
22.56
 21
0.252667
 31
0.0
  0
TEXT
  8
TEXT
 10
22.28975
 20
0.472
 30
0.0
 40
0.188
  1
0.625
 41
0.75
  7
TXT
 72
     4
 11
22.56
 21
0.566
 31
0.0
  0
TEXT
  8
TEXT
 10
17.096593
 20
2.19924
 30
0.0
 40
0.234
  1
%%uCOVER
 41
0.75
  7
TXT
 72
     4
 11
17.538268
 21
2.29284
 31
0.0
  0
TEXT
  8
TEXT
 10
17.502
 20
1.098667
 30
0.0
 40
0.188
  1
2.968
 41
0.75
  7
TXT
 72
     4
 11
17.784
 21
1.192667
 31
0.0
  0
TEXT
  8
TEXT
 10
17.53725
 20
0.785333
 30
0.0
 40
0.188
  1
3.000
 41
0.75
  7
TXT
 72
     4
 11
17.784
 21
0.879333
 31
0.0
  0
TEXT
  8
TEXT
 10
15.34925
 20
1.4125
 30
0.0
 40
0.187
  1
M
 41
0.75
  7
TXT
 72
     4
 11
15.396
 21
1.506
 31
0.0
  0
TEXT
  8
TEXT
 10
18.73125
 20
0.785333
 30
0.0
 40
0.188
  1
2.000
 41
0.75
  7
TXT
 72
     4
 11
18.978
 21
0.879333
 31
0.0
  0
TEXT
  8
TEXT
 10
18.7195
 20
1.098667
 30
0.0
 40
0.188
  1
1.968
 41
0.75
  7
TXT
 72
     4
 11
18.978
 21
1.192667
 31
0.0
  0
TEXT
  8
TEXT
 10
16.54325
 20
1.4125
 30
0.0
 40
0.187
  1
N
 41
0.75
  7
TXT
 72
     4
 11
16.59
 21
1.506
 31
0.0
  0
TEXT
  8
TEXT
 10
21.14275
 20
0.785333
 30
0.0
 40
0.188
  1
1.000
 41
0.75
  7
TXT
 72
     4
 11
21.366
 21
0.879333
 31
0.0
  0
TEXT
  8
TEXT
 10
21.09575
 20
1.098667
 30
0.0
 40
0.188
  1
0.984
 41
0.75
  7
TXT
 72
     4
 11
21.366
 21
1.192667
 31
0.0
  0
TEXT
  8
TEXT
 10
19.92525
 20
1.098667
 30
0.0
 40
0.188
  1
1.750
 41
0.75
  7
TXT
 72
     4
 11
20.172
 21
1.192667
 31
0.0
  0
TEXT
  8
TEXT
 10
19.92525
 20
0.785333
 30
0.0
 40
0.188
  1
1.750
 41
0.75
  7
TXT
 72
     4
 11
20.172
 21
0.879333
 31
0.0
  0
TEXT
  8
TEXT
 10
17.73725
 20
1.4125
 30
0.0
 40
0.187
  1
P
 41
0.75
  7
TXT
 72
     4
 11
17.784
 21
1.506
 31
0.0
  0
TEXT
  8
TEXT
 10
18.93125
 20
1.4125
 30
0.0
 40
0.187
  1
Q
 41
0.75
  7
TXT
 72
     4
 11
18.978
 21
1.506
 31
0.0
  0
TEXT
  8
TEXT
 10
22.3015
 20
1.098667
 30
0.0
 40
0.188
  1
0.609
 41
0.75
  7
TXT
 72
     4
 11
22.56
 21
1.192667
 31
0.0
  0
TEXT
  8
TEXT
 10
22.28975
 20
0.785333
 30
0.0
 40
0.188
  1
0.625
 41
0.75
  7
TXT
 72
     4
 11
22.56
 21
0.879333
 31
0.0
  0
TEXT
  8
TEXT
 10
20.12525
 20
1.4125
 30
0.0
 40
0.187
  1
R
 41
0.75
  7
TXT
 72
     4
 11
20.172
 21
1.506
 31
0.0
  0
TEXT
  8
DIM
 10
19.521032
 20
3.755295
 30
0.0
 40
0.187469
  1
(2) PLACES
 41
0.75
  7
TXT
 11
19.521032
 21
3.84903
 31
0.0
 73
     2
  0
POLYLINE
  8
OBJECT
 66
     1
 10
0.0
 20
0.0
 30
0.0
 70
     1
  0
VERTEX
  8
OBJECT
 10
15.839288
 20
4.299019
 30
0.0
  0
VERTEX
  8
OBJECT
 10
18.721288
 20
4.299019
 30
0.0
 42
0.414214
  0
VERTEX
  8
OBJECT
 10
18.743288
 20
4.321019
 30
0.0
  0
VERTEX
  8
OBJECT
 10
18.743288
 20
6.203019
 30
0.0
 42
0.414214
  0
VERTEX
  8
OBJECT
 10
18.721288
 20
6.225019
 30
0.0
  0
VERTEX
  8
OBJECT
 10
15.839288
 20
6.225019
 30
0.0
 42
0.414214
  0
VERTEX
  8
OBJECT
 10
15.817288
 20
6.203019
 30
0.0
  0
VERTEX
  8
OBJECT
 10
15.817288
 20
4.321019
 30
0.0
 42
0.414214
  0
SEQEND
  8
OBJECT
  0
POLYLINE
  8
OBJECT
 66
     1
 10
0.0
 20
0.0
 30
0.0
 70
     1
  0
VERTEX
  8
OBJECT
 10
15.839288
 20
4.262019
 30
0.0
  0
VERTEX
  8
OBJECT
 10
18.721288
 20
4.262019
 30
0.0
 42
0.414214
  0
VERTEX
  8
OBJECT
 10
18.780288
 20
4.321019
 30
0.0
  0
VERTEX
  8
OBJECT
 10
18.780288
 20
6.203019
 30
0.0
 42
0.414214
  0
VERTEX
  8
OBJECT
 10
18.721288
 20
6.262019
 30
0.0
  0
VERTEX
  8
OBJECT
 10
15.839288
 20
6.262019
 30
0.0
 42
0.414214
  0
VERTEX
  8
OBJECT
 10
15.780288
 20
6.203019
 30
0.0
  0
VERTEX
  8
OBJECT
 10
15.780288
 20
4.321019
 30
0.0
 42
0.414214
  0
SEQEND
  8
OBJECT
  0
POLYLINE
  8
OBJECT
 66
     1
 10
0.0
 20
0.0
 30
0.0
 70
     1
  0
VERTEX
  8
OBJECT
 10
15.839288
 20
10.818123
 30
0.0
  0
VERTEX
  8
OBJECT
 10
18.721288
 20
10.818123
 30
0.0
 42
-0.414214
  0
VERTEX
  8
OBJECT
 10
18.780288
 20
10.759123
 30
0.0
  0
VERTEX
  8
OBJECT
 10
18.780288
 20
8.877123
 30
0.0
 42
-0.414214
  0
VERTEX
  8
OBJECT
 10
18.721288
 20
8.818123
 30
0.0
  0
VERTEX
  8
OBJECT
 10
15.839288
 20
8.818123
 30
0.0
 42
-0.414214
  0
VERTEX
  8
OBJECT
 10
15.780288
 20
8.877123
 30
0.0
  0
VERTEX
  8
OBJECT
 10
15.780288
 20
10.759123
 30
0.0
 42
-0.414214
  0
SEQEND
  8
OBJECT
  0
LINE
  8
OBJECT
 10
15.817288
 20
8.077314
 30
0.0
 11
17.141288
 21
8.077314
 31
0.0
  0
LINE
  8
OBJECT
 10
15.780288
 20
8.092314
 30
0.0
 11
18.780288
 21
8.092314
 31
0.0
  0
LINE
  8
OBJECT
 10
15.780288
 20
8.152314
 30
0.0
 11
18.780288
 21
8.152314
 31
0.0
  0
DIMENSION
  8
DIM
  2
*D4
 10
14.978106
 20
10.552123
 30
0.0
 11
14.978106
 21
9.818123
 31
0.0
 12
-9.709948
 22
-37.218127
 32
0.0
  1
H
 13
16.046288
 23
9.084123
 33
0.0
 14
16.046288
 24
10.552123
 34
0.0
 50
90.0
  3
23NSTDI
  0
DIMENSION
  8
DIM
  2
*D3
 10
15.399606
 20
9.818123
 30
0.0
 11
15.399606
 21
10.185123
 31
0.0
 12
-9.709948
 22
-37.218127
 32
0.0
  1
J
 13
16.046288
 23
10.552123
 33
0.0
 14
17.167788
 24
9.818123
 34
0.0
 50
90.0
  3
23NSTDI
  0
DIMENSION
  8
DIM
  2
*D33
 10
15.006591
 20
8.152314
 30
0.0
 11
15.006591
 21
8.013814
 31
0.0
 12
0.834764
 22
-0.17036
 32
0.0
 13
14.327091
 23
7.875314
 33
0.0
 14
14.364091
 24
8.152314
 34
0.0
 50
270.0
  3
23NSTDI
  0
DIMENSION
  8
DIM
  2
*D34
 10
14.218091
 20
7.516126
 30
0.0
 11
13.308716
 21
7.516126
 31
0.0
 12
0.0
 22
-0.17036
 32
0.0
 13
14.327091
 23
7.875314
 33
0.0
 14
14.218091
 24
7.875314
 34
0.0
  3
23NSTD
  0
LINE
  8
HIDDEN
  6
HIDDEN2
 10
14.043091
 20
8.071789
 30
0.0
 11
13.973091
 21
8.152314
 31
0.0
  0
LINE
  8
OBJECT
 10
12.364091
 20
8.092314
 30
0.0
 11
14.364091
 21
8.092314
 31
0.0
  0
LINE
  8
OBJECT
 10
12.364091
 20
8.152314
 30
0.0
 11
14.364091
 21
8.152314
 31
0.0
  0
LINE
  8
OBJECT
 10
12.401091
 20
8.077314
 30
0.0
 11
14.327091
 21
8.077314
 31
0.0
  0
LINE
  8
OBJECT
 10
14.223091
 20
8.012314
 30
0.0
 11
13.973091
 21
8.012314
 31
0.0
  0
LINE
  8
HIDDEN
  6
HIDDEN2
 10
12.575091
 20
8.071789
 30
0.0
 11
12.685091
 21
8.071789
 31
0.0
  0
LINE
  8
OBJECT
 10
12.505091
 20
8.012314
 30
0.0
 11
12.755091
 21
8.012314
 31
0.0
  0
LINE
  8
HIDDEN
  6
HIDDEN2
 10
12.575091
 20
8.071789
 30
0.0
 11
12.505091
 21
8.152314
 31
0.0
  0
LINE
  8
OBJECT
 10
12.364091
 20
8.152314
 30
0.0
 11
12.364091
 21
8.092314
 31
0.0
  0
LINE
  8
OBJECT
 10
12.401091
 20
8.092314
 30
0.0
 11
12.401091
 21
8.077314
 31
0.0
  0
LINE
  8
HIDDEN
  6
HIDDEN2
 10
12.575091
 20
8.012314
 30
0.0
 11
12.575091
 21
8.071789
 31
0.0
  0
LINE
  8
OBJECT
 10
12.505091
 20
8.012314
 30
0.0
 11
12.505091
 21
8.077314
 31
0.0
  0
LINE
  8
OBJECT
 10
12.755091
 20
8.012314
 30
0.0
 11
12.755091
 21
8.077314
 31
0.0
  0
LINE
  8
HIDDEN
  6
HIDDEN2
 10
12.685091
 20
8.012314
 30
0.0
 11
12.685091
 21
8.071789
 31
0.0
  0
LINE
  8
HIDDEN
  6
HIDDEN2
 10
12.685091
 20
8.071789
 30
0.0
 11
12.755091
 21
8.152314
 31
0.0
  0
POLYLINE
  8
OBJECT
 66
     1
 10
0.0
 20
0.0
 30
0.0
  0
VERTEX
  8
OBJECT
 10
13.454091
 20
8.077314
 30
0.0
  0
VERTEX
  8
OBJECT
 10
13.454091
 20
7.827314
 30
0.0
  0
VERTEX
  8
OBJECT
 10
13.274091
 20
7.827314
 30
0.0
  0
VERTEX
  8
OBJECT
 10
13.274091
 20
8.077314
 30
0.0
  0
SEQEND
  8
OBJECT
  0
LINE
  8
HIDDEN
 10
13.322091
 20
8.077314
 30
0.0
 11
13.322091
 21
7.827314
 31
0.0
  0
LINE
  8
HIDDEN
 10
13.406091
 20
8.077314
 30
0.0
 11
13.406091
 21
7.827314
 31
0.0
  0
LINE
  8
OBJECT
 10
13.973091
 20
8.012314
 30
0.0
 11
13.973091
 21
8.077314
 31
0.0
  0
LINE
  8
OBJECT
 10
14.218091
 20
7.875314
 30
0.0
 11
14.327091
 21
7.875314
 31
0.0
  0
LINE
  8
HIDDEN
  6
HIDDEN2
 10
14.153091
 20
8.071789
 30
0.0
 11
14.223091
 21
8.152314
 31
0.0
  0
LINE
  8
OBJECT
 10
14.218091
 20
8.077314
 30
0.0
 11
14.218091
 21
7.875314
 31
0.0
  0
LINE
  8
OBJECT
 10
14.223091
 20
8.012314
 30
0.0
 11
14.223091
 21
8.077314
 31
0.0
  0
LINE
  8
HIDDEN
  6
HIDDEN2
 10
14.153091
 20
8.012314
 30
0.0
 11
14.153091
 21
8.071789
 31
0.0
  0
LINE
  8
OBJECT
 10
14.364091
 20
8.152314
 30
0.0
 11
14.364091
 21
8.092314
 31
0.0
  0
LINE
  8
OBJECT
 10
14.327091
 20
8.092314
 30
0.0
 11
14.327091
 21
7.875314
 31
0.0
  0
LINE
  8
HIDDEN
  6
HIDDEN2
 10
14.043091
 20
8.012314
 30
0.0
 11
14.043091
 21
8.071789
 31
0.0
  0
LINE
  8
HIDDEN
  6
HIDDEN2
 10
14.153091
 20
8.071789
 30
0.0
 11
14.043091
 21
8.071789
 31
0.0
  0
LINE
  8
OBJECT
 10
15.817288
 20
8.092314
 30
0.0
 11
15.817288
 21
8.077314
 31
0.0
  0
LINE
  8
OBJECT
 10
15.780288
 20
8.152314
 30
0.0
 11
15.780288
 21
8.092314
 31
0.0
  0
DIMENSION
  8
DIM
  2
*D26
 10
19.201284
 20
8.152314
 30
0.0
 11
19.864097
 21
8.692314
 31
0.0
 12
8.696786
 22
-8.955185
 32
0.0
 13
18.743288
 23
8.077314
 33
0.0
 14
18.780288
 24
8.152314
 34
0.0
 50
270.0
  3
23NSTD
  0
DIMENSION
  8
DIM
  2
*D10
 10
17.141288
 20
7.516126
 30
0.0
 11
16.196757
 21
7.516126
 31
0.0
 12
8.696786
 22
-8.955185
 32
0.0
 13
17.419288
 23
7.875314
 33
0.0
 14
17.141288
 24
7.875314
 34
0.0
  3
23NSTD
  0
DIMENSION
  8
DIM
  2
*D11
 10
16.5483
 20
6.262019
 30
0.0
 11
17.5158
 21
6.802019
 31
0.0
 12
8.696786
 22
-8.955185
 32
0.0
  1
<> TYP.
 13
16.535292
 23
6.225019
 33
0.0
 14
16.535292
 24
6.262019
 34
0.0
 50
90.0
  3
23NSTD
  0
CIRCLE
  8
OBJECT
 10
18.514288
 20
5.996019
 30
0.0
 40
0.125
  0
CIRCLE
  8
OBJECT
 10
18.514288
 20
5.996019
 30
0.0
 40
0.055
  0
CIRCLE
  8
OBJECT
 10
16.046288
 20
5.996019
 30
0.0
 40
0.055
  0
CIRCLE
  8
OBJECT
 10
16.046288
 20
5.996019
 30
0.0
 40
0.125
  0
CIRCLE
  8
OBJECT
 10
16.046288
 20
4.528019
 30
0.0
 40
0.125
  0
CIRCLE
  8
OBJECT
 10
16.046288
 20
4.528019
 30
0.0
 40
0.055
  0
CIRCLE
  8
OBJECT
 10
16.405288
 20
5.262019
 30
0.0
 40
0.042
  0
CIRCLE
  8
OBJECT
 10
16.405288
 20
5.262019
 30
0.0
 40
0.09
  0
POLYLINE
  8
DIM
 66
     1
 10
0.0
 20
0.0
 30
0.0
 41
0.101233
  0
VERTEX
  8
DIM
 10
18.243538
 20
5.244359
 30
0.0
  0
VERTEX
  8
DIM
 10
18.444874
 20
5.064526
 30
0.0
 41
0.0
  0
VERTEX
  8
DIM
 10
19.116099
 20
4.46499
 30
0.0
 41
0.0
  0
VERTEX
  8
DIM
 10
19.386054
 20
4.46499
 30
0.0
 41
0.0
  0
SEQEND
  8
DIM
  0
CIRCLE
  8
OBJECT
 10
18.514288
 20
4.528019
 30
0.0
 40
0.125
  0
CIRCLE
  8
OBJECT
 10
18.514288
 20
4.528019
 30
0.0
 40
0.055
  0
CIRCLE
  8
OBJECT
 10
18.155288
 20
5.262019
 30
0.0
 40
0.09
  0
CIRCLE
  8
OBJECT
 10
18.155288
 20
5.262019
 30
0.0
 40
0.042
  0
LINE
  8
OBJECT
 10
17.141288
 20
6.116019
 30
0.0
 11
17.419288
 21
6.116019
 31
0.0
  0
LINE
  8
OBJECT
 10
17.141288
 20
6.225019
 30
0.0
 11
17.141288
 21
6.116019
 31
0.0
  0
LINE
  8
OBJECT
 10
17.419288
 20
6.225019
 30
0.0
 11
17.419288
 21
6.116019
 31
0.0
  0
POLYLINE
  8
DIM
 66
     1
 10
0.0
 20
0.0
 30
0.0
 41
0.101233
  0
VERTEX
  8
DIM
 10
18.556573
 20
6.11365
 30
0.0
  0
VERTEX
  8
DIM
 10
18.716046
 20
6.331467
 30
0.0
 41
0.0
  0
VERTEX
  8
DIM
 10
19.041455
 20
6.775928
 30
0.0
 41
0.0
  0
VERTEX
  8
DIM
 10
19.31141
 20
6.775928
 30
0.0
 41
0.0
  0
SEQEND
  8
DIM
  0
TEXT
  8
DIM
 10
19.521032
 20
4.371255
 30
0.0
 40
0.187469
  1
0.180 DIA. BOSS x 0.250 HIGH
 41
0.75
  7
TXT
 11
19.521032
 21
4.46499
 31
0.0
 73
     2
  0
TEXT
  8
DIM
 10
19.446388
 20
6.682194
 30
0.0
 40
0.187469
  1
0.250 DIA. BOSS x 0.065 HIGH
 41
0.75
  7
TXT
 11
19.446388
 21
6.775928
 31
0.0
 73
     2
  0
TEXT
  8
DIM
 10
19.446388
 20
6.369746
 30
0.0
 40
0.187469
  1
(4) PLACES
 41
0.75
  7
TXT
 11
19.446388
 21
6.46348
 31
0.0
 73
     2
  0
LINE
  8
OBJECT
 10
17.419288
 20
8.077314
 30
0.0
 11
18.743288
 21
8.077314
 31
0.0
  0
LINE
  8
OBJECT
 10
15.921288
 20
8.012314
 30
0.0
 11
15.921288
 21
8.077314
 31
0.0
  0
LINE
  8
HIDDEN
  6
HIDDEN2
 10
15.991288
 20
8.012314
 30
0.0
 11
15.991288
 21
8.071789
 31
0.0
  0
LINE
  8
HIDDEN
  6
HIDDEN2
 10
15.991288
 20
8.071789
 30
0.0
 11
15.921288
 21
8.152314
 31
0.0
  0
LINE
  8
HIDDEN
  6
HIDDEN2
 10
16.101288
 20
8.012314
 30
0.0
 11
16.101288
 21
8.071789
 31
0.0
  0
LINE
  8
OBJECT
 10
16.171288
 20
8.012314
 30
0.0
 11
16.171288
 21
8.077314
 31
0.0
  0
LINE
  8
HIDDEN
  6
HIDDEN2
 10
16.101288
 20
8.071789
 30
0.0
 11
16.171288
 21
8.152314
 31
0.0
  0
LINE
  8
OBJECT
 10
15.921288
 20
8.012314
 30
0.0
 11
16.171288
 21
8.012314
 31
0.0
  0
LINE
  8
HIDDEN
  6
HIDDEN2
 10
15.991288
 20
8.071789
 30
0.0
 11
16.101288
 21
8.071789
 31
0.0
  0
LINE
  8
HIDDEN
 10
16.447288
 20
8.077314
 30
0.0
 11
16.447288
 21
7.827314
 31
0.0
  0
LINE
  8
HIDDEN
 10
16.363288
 20
8.077314
 30
0.0
 11
16.363288
 21
7.827314
 31
0.0
  0
POLYLINE
  8
OBJECT
 66
     1
 10
0.0
 20
0.0
 30
0.0
  0
VERTEX
  8
OBJECT
 10
16.495288
 20
8.077314
 30
0.0
  0
VERTEX
  8
OBJECT
 10
16.495288
 20
7.827314
 30
0.0
  0
VERTEX
  8
OBJECT
 10
16.315288
 20
7.827314
 30
0.0
  0
VERTEX
  8
OBJECT
 10
16.315288
 20
8.077314
 30
0.0
  0
SEQEND
  8
OBJECT
  0
LINE
  8
OBJECT
 10
17.141288
 20
7.875314
 30
0.0
 11
17.419288
 21
7.875314
 31
0.0
  0
LINE
  8
OBJECT
 10
17.141288
 20
8.077314
 30
0.0
 11
17.141288
 21
7.875314
 31
0.0
  0
LINE
  8
OBJECT
 10
17.419288
 20
8.077314
 30
0.0
 11
17.419288
 21
7.875314
 31
0.0
  0
CIRCLE
  8
OBJECT
 10
16.046288
 20
9.084123
 30
0.0
 40
0.125
  0
CIRCLE
  8
OBJECT
 10
16.046288
 20
9.084123
 30
0.0
 40
0.055
  0
LINE
  8
OBJECT
 10
18.639288
 20
8.012314
 30
0.0
 11
18.389288
 21
8.012314
 31
0.0
  0
LINE
  8
HIDDEN
  6
HIDDEN2
 10
18.569288
 20
8.071789
 30
0.0
 11
18.459288
 21
8.071789
 31
0.0
  0
POLYLINE
  8
OBJECT
 66
     1
 10
0.0
 20
0.0
 30
0.0
  0
VERTEX
  8
OBJECT
 10
18.065288
 20
8.077314
 30
0.0
  0
VERTEX
  8
OBJECT
 10
18.065288
 20
7.827314
 30
0.0
  0
VERTEX
  8
OBJECT
 10
18.245288
 20
7.827314
 30
0.0
  0
VERTEX
  8
OBJECT
 10
18.245288
 20
8.077314
 30
0.0
  0
SEQEND
  8
OBJECT
  0
LINE
  8
OBJECT
 10
18.389288
 20
8.012314
 30
0.0
 11
18.389288
 21
8.077314
 31
0.0
  0
LINE
  8
HIDDEN
  6
HIDDEN2
 10
18.459288
 20
8.012314
 30
0.0
 11
18.459288
 21
8.071789
 31
0.0
  0
LINE
  8
HIDDEN
  6
HIDDEN2
 10
18.459288
 20
8.071789
 30
0.0
 11
18.389288
 21
8.152314
 31
0.0
  0
LINE
  8
HIDDEN
 10
18.113288
 20
8.077314
 30
0.0
 11
18.113288
 21
7.827314
 31
0.0
  0
LINE
  8
HIDDEN
 10
18.197288
 20
8.077314
 30
0.0
 11
18.197288
 21
7.827314
 31
0.0
  0
LINE
  8
OBJECT
 10
18.743288
 20
8.092314
 30
0.0
 11
18.743288
 21
8.077314
 31
0.0
  0
LINE
  8
OBJECT
 10
18.780288
 20
8.152314
 30
0.0
 11
18.780288
 21
8.092314
 31
0.0
  0
LINE
  8
HIDDEN
  6
HIDDEN2
 10
18.569288
 20
8.012314
 30
0.0
 11
18.569288
 21
8.071789
 31
0.0
  0
LINE
  8
OBJECT
 10
18.639288
 20
8.012314
 30
0.0
 11
18.639288
 21
8.077314
 31
0.0
  0
LINE
  8
HIDDEN
  6
HIDDEN2
 10
18.569288
 20
8.071789
 30
0.0
 11
18.639288
 21
8.152314
 31
0.0
  0
CIRCLE
  8
OBJECT
 10
18.514288
 20
9.084123
 30
0.0
 40
0.125
  0
CIRCLE
  8
OBJECT
 10
18.514288
 20
9.084123
 30
0.0
 40
0.055
  0
CIRCLE
  8
OBJECT
 10
16.046288
 20
10.552123
 30
0.0
 40
0.055
  0
CIRCLE
  8
OBJECT
 10
16.046288
 20
10.552123
 30
0.0
 40
0.125
  0
DIMENSION
  8
DIM
  2
*D0
 10
17.280288
 20
11.235982
 30
0.0
 11
16.663288
 21
11.235982
 31
0.0
 12
-9.709948
 22
-37.218127
 32
0.0
  1
G
 13
16.046288
 23
10.552123
 33
0.0
 14
17.280288
 24
9.930623
 34
0.0
  3
23NSTDI
  0
CIRCLE
  8
HIDDEN
 10
16.405288
 20
9.818123
 30
0.0
 40
0.09
  0
CIRCLE
  8
HIDDEN
 10
16.405288
 20
9.818123
 30
0.0
 40
0.042
  0
LINE
  8
CENTER
 10
17.167788
 20
9.818123
 30
0.0
 11
17.392788
 21
9.818123
 31
0.0
  0
LINE
  8
CENTER
 10
17.280288
 20
9.705623
 30
0.0
 11
17.280288
 21
9.930623
 31
0.0
  0
CIRCLE
  8
OBJECT
 10
18.514288
 20
10.552123
 30
0.0
 40
0.055
  0
CIRCLE
  8
OBJECT
 10
18.514288
 20
10.552123
 30
0.0
 40
0.125
  0
CIRCLE
  8
HIDDEN
 10
18.155288
 20
9.818123
 30
0.0
 40
0.09
  0
CIRCLE
  8
HIDDEN
 10
18.155288
 20
9.818123
 30
0.0
 40
0.042
  0
POLYLINE
  8
DIM
 66
     1
 10
0.0
 20
0.0
 30
0.0
 41
0.101233
  0
VERTEX
  8
DIM
 10
18.568677
 20
10.543946
 30
0.0
  0
VERTEX
  8
DIM
 10
18.81422
 20
10.432142
 30
0.0
 41
0.0
  0
VERTEX
  8
DIM
 10
19.117388
 20
10.293636
 30
0.0
 41
0.0
  0
VERTEX
  8
DIM
 10
19.387343
 20
10.293636
 30
0.0
 41
0.0
  0
SEQEND
  8
DIM
  0
TEXT
  8
DIM
 10
19.522321
 20
9.575006
 30
0.0
 40
0.187469
  1
(4) PLACES
 41
0.75
  7
TXT
 11
19.522321
 21
9.66874
 31
0.0
 73
     2
  0
TEXT
  8
DIM
 10
19.522321
 20
10.199902
 30
0.0
 40
0.187469
  1
0.110 DIA. HOLE
 41
0.75
  7
TXT
 11
19.522321
 21
10.293636
 31
0.0
 73
     2
  0
TEXT
  8
TEXT
 10
6.291681
 20
13.104681
 30
0.0
 40
0.1872
  1
COVER - SURFACES ARE SMOOTH.
 41
0.75
  7
TXT
  0
TEXT
  8
TEXT
 10
7.29101
 20
13.416681
 30
0.0
 40
0.1872
  1
WITH TEXTURED INSERT AREA.
 41
0.75
  7
TXT
  0
TEXT
  8
TEXT
 10
6.291681
 20
13.728681
 30
0.0
 40
0.1875
  1
BODY - OUTSIDE SURFACES ARE TEXTURED FINISH
 41
0.75
  7
TXT
  0
TEXT
  8
TEXT
 10
0.353291
 20
14.041181
 30
0.0
 40
0.1875
  1
%%uMATERIAL:
 41
0.75
  7
TXT
  0
TEXT
  8
TEXT
 10
0.353291
 20
12.166181
 30
0.0
 40
0.1875
  1
%%uCOLOR:%%u BLACK
 41
0.75
  7
TXT
  0
TEXT
  8
TEXT
 10
0.760068
 20
13.416181
 30
0.0
 40
0.1875
  1
(FLAMMABILITY RATING OF 94V-O AT
 41
0.75
  7
TXT
  0
TEXT
  8
TEXT
 10
0.813626
 20
12.791181
 30
0.0
 40
0.1875
  1
USE TEMPERATURE OF 70%%D C.)
 41
0.75
  7
TXT
  0
TEXT
  8
TEXT
 10
0.813626
 20
13.103681
 30
0.0
 40
0.1875
  1
0.070" THICKNESS AND CONTINUOUS
 41
0.75
  7
TXT
  0
TEXT
  8
TEXT
 10
0.503386
 20
13.728681
 30
0.0
 40
0.1875
  1
ABS THERMOPLASTIC
 41
0.75
  7
TXT
  0
TEXT
  8
TEXT
 10
4.87725
 20
14.6565
 30
0.0
 40
0.234
  1
UTILIBOX  (STYLE E)
 41
0.75
  7
TXT
 72
     4
 11
6.39825
 21
14.7735
 31
0.0
  0
TEXT
  8
TEXT
 10
6.141586
 20
14.041181
 30
0.0
 40
0.1875
  1
%%uFINISH:
 41
0.75
  7
TXT
  0
TEXT
  8
TEXT
 10
15.9
 20
14.6565
 30
0.0
 40
0.234
  1
CU-789-MB  TO  CU-792-MB
 41
0.75
  7
TXT
 72
     4
 11
17.97675
 21
14.7735
 31
0.0
  0
POLYLINE
  8
DIM
 66
     1
 10
0.0
 20
0.0
 30
0.0
 41
0.101233
  0
VERTEX
  8
DIM
 10
9.865266
 20
10.650071
 30
0.0
  0
VERTEX
  8
DIM
 10
10.020587
 20
10.870868
 30
0.0
 41
0.0
  0
VERTEX
  8
DIM
 10
10.562795
 20
11.641643
 30
0.0
 41
0.0
  0
VERTEX
  8
DIM
 10
10.83275
 20
11.641643
 30
0.0
 41
0.0
  0
SEQEND
  8
DIM
  0
DIMENSION
  8
DIM
  2
*D25
 10
9.817502
 20
11.657482
 30
0.0
 11
8.583502
 21
11.657482
 31
0.0
 12
-21.774109
 22
-0.17036
 32
0.0
  1
F
 13
7.349502
 23
10.552123
 33
0.0
 14
9.817502
 24
10.552123
 34
0.0
  3
23NSTD
  0
TEXT
  8
DIM
 10
10.967728
 20
11.235461
 30
0.0
 40
0.187469
  1
0.090 DIA. HOLE x 0.500 DEEP
 41
0.75
  7
TXT
 11
10.967728
 21
11.329195
 31
0.0
 73
     2
  0
POLYLINE
  8
OBJECT
 66
     1
 10
0.0
 20
0.0
 30
0.0
 70
     1
  0
VERTEX
  8
OBJECT
 10
7.188502
 20
4.520158
 30
0.0
  0
VERTEX
  8
OBJECT
 10
7.188502
 20
2.739158
 30
0.0
  0
VERTEX
  8
OBJECT
 10
9.978502
 20
2.739158
 30
0.0
  0
VERTEX
  8
OBJECT
 10
9.978502
 20
4.520158
 30
0.0
  0
SEQEND
  8
OBJECT
  0
POLYLINE
  8
OBJECT
 66
     1
 10
0.0
 20
0.0
 30
0.0
 70
     1
  0
VERTEX
  8
OBJECT
 10
7.219502
 20
4.489158
 30
0.0
  0
VERTEX
  8
OBJECT
 10
7.219502
 20
2.770158
 30
0.0
  0
VERTEX
  8
OBJECT
 10
9.947502
 20
2.770158
 30
0.0
  0
VERTEX
  8
OBJECT
 10
9.947502
 20
4.489158
 30
0.0
  0
SEQEND
  8
OBJECT
  0
POLYLINE
  8
DIM
 66
     1
 10
0.0
 20
0.0
 30
0.0
 41
0.101233
  0
VERTEX
  8
DIM
 10
9.659949
 20
3.780656
 30
0.0
  0
VERTEX
  8
DIM
 10
9.867217
 20
3.953617
 30
0.0
 41
0.0
  0
VERTEX
  8
DIM
 10
10.541654
 20
4.516424
 30
0.0
 41
0.0
  0
VERTEX
  8
DIM
 10
10.811609
 20
4.516424
 30
0.0
 41
0.0
  0
SEQEND
  8
DIM
  0
POLYLINE
  8
OBJECT
 66
     1
 10
0.0
 20
0.0
 30
0.0
 70
     1
  0
VERTEX
  8
OBJECT
 10
9.989502
 20
2.629658
 30
0.0
  0
VERTEX
  8
OBJECT
 10
7.177502
 20
2.629658
 30
0.0
 42
-0.414214
  0
VERTEX
  8
OBJECT
 10
7.083502
 20
2.723658
 30
0.0
  0
VERTEX
  8
OBJECT
 10
7.083502
 20
4.535658
 30
0.0
 42
-0.414214
  0
VERTEX
  8
OBJECT
 10
7.177502
 20
4.629658
 30
0.0
  0
VERTEX
  8
OBJECT
 10
9.989502
 20
4.629658
 30
0.0
 42
-0.414214
  0
VERTEX
  8
OBJECT
 10
10.083502
 20
4.535658
 30
0.0
  0
VERTEX
  8
OBJECT
 10
10.083502
 20
2.723658
 30
0.0
 42
-0.414214
  0
SEQEND
  8
OBJECT
  0
POLYLINE
  8
OBJECT
 66
     1
 10
0.0
 20
0.0
 30
0.0
 70
     1
  0
VERTEX
  8
OBJECT
 10
10.028781
 20
2.590379
 30
0.0
 42
0.414214
  0
VERTEX
  8
OBJECT
 10
10.122781
 20
2.684379
 30
0.0
  0
VERTEX
  8
OBJECT
 10
10.122781
 20
4.574937
 30
0.0
 42
0.414214
  0
VERTEX
  8
OBJECT
 10
10.028781
 20
4.668937
 30
0.0
  0
VERTEX
  8
OBJECT
 10
7.138223
 20
4.668937
 30
0.0
 42
0.414214
  0
VERTEX
  8
OBJECT
 10
7.044223
 20
4.574937
 30
0.0
  0
VERTEX
  8
OBJECT
 10
7.044223
 20
2.684379
 30
0.0
 42
0.414214
  0
VERTEX
  8
OBJECT
 10
7.138223
 20
2.590379
 30
0.0
  0
SEQEND
  8
OBJECT
  0
POLYLINE
  8
OBJECT
 66
     1
 10
0.0
 20
0.0
 30
0.0
  0
VERTEX
  8
OBJECT
 10
10.115494
 20
2.648092
 30
0.0
  0
VERTEX
  8
OBJECT
 10
10.516157
 20
3.605531
 30
0.0
 42
0.2008
  0
VERTEX
  8
OBJECT
 10
10.516157
 20
3.653785
 30
0.0
  0
VERTEX
  8
OBJECT
 10
10.115494
 20
4.611224
 30
0.0
  0
SEQEND
  8
OBJECT
  0
POLYLINE
  8
OBJECT
 66
     1
 10
0.0
 20
0.0
 30
0.0
  0
VERTEX
  8
OBJECT
 10
7.05151
 20
2.648092
 30
0.0
  0
VERTEX
  8
OBJECT
 10
6.650847
 20
3.605531
 30
0.0
 42
-0.2008
  0
VERTEX
  8
OBJECT
 10
6.650847
 20
3.653785
 30
0.0
  0
VERTEX
  8
OBJECT
 10
7.05151
 20
4.611224
 30
0.0
  0
SEQEND
  8
OBJECT
  0
DIMENSION
  8
DIM
  2
*D22
 10
6.402252
 20
2.739158
 30
0.0
 11
6.402252
 21
3.629658
 31
0.0
 12
-21.774109
 22
-0.17036
 32
0.0
  1
L
 13
7.188502
 23
4.520158
 33
0.0
 14
7.188502
 24
2.739158
 34
0.0
 50
90.0
  3
23NSTD
  0
DIMENSION
  8
DIM
  2
*D23
 10
9.978502
 20
2.134833
 30
0.0
 11
8.583502
 21
2.134833
 31
0.0
 12
-21.774109
 22
-0.17036
 32
0.0
  1
K
 13
7.188502
 23
2.739158
 33
0.0
 14
9.978502
 24
2.739158
 34
0.0
  3
23NSTD
  0
CIRCLE
  8
OBJECT
 10
6.833502
 20
3.629658
 30
0.0
 40
0.0935
  0
CIRCLE
  8
OBJECT
 10
10.333502
 20
3.629658
 30
0.0
 40
0.0935
  0
LINE
  8
OBJECT
 10
6.646002
 20
7.039054
 30
0.0
 11
10.521002
 21
7.039054
 31
0.0
  0
LINE
  8
OBJECT
 10
9.991931
 20
5.539054
 30
0.0
 11
7.175073
 21
5.539054
 31
0.0
  0
LINE
  8
HIDDEN
 10
10.015311
 20
5.609054
 30
0.0
 11
7.151693
 21
5.609054
 31
0.0
  0
LINE
  8
HIDDEN
 10
7.079595
 20
6.979054
 30
0.0
 11
10.087409
 21
6.979054
 31
0.0
  0
DIMENSION
  8
DIM
  2
*D15
 10
10.083502
 20
5.217114
 30
0.0
 11
8.583502
 21
5.217114
 31
0.0
 12
-21.774109
 22
-0.17036
 32
0.0
  1
A
 13
7.083502
 23
5.539054
 33
0.0
 14
10.083502
 24
5.539054
 34
0.0
  3
23NSTD
  0
LINE
  8
HIDDEN
 10
7.132316
 20
6.849054
 30
0.0
 11
7.240502
 21
6.849054
 31
0.0
  0
DIMENSION
  8
DIM
  2
*D6
 10
6.402252
 20
9.818123
 30
0.0
 11
6.402252
 21
10.185123
 31
0.0
 12
-18.406733
 22
-2.296156
 32
0.0
  1
J
 13
7.349502
 23
10.552123
 33
0.0
 14
8.471002
 24
9.818123
 34
0.0
 50
90.0
  3
23NSTDI
  0
DIMENSION
  8
DIM
  2
*D7
 10
5.980752
 20
10.552123
 30
0.0
 11
5.980752
 21
9.818123
 31
0.0
 12
-18.406733
 22
-2.296156
 32
0.0
  1
H
 13
7.349502
 23
9.084123
 33
0.0
 14
7.349502
 24
10.552123
 34
0.0
 50
90.0
  3
23NSTDI
  0
LINE
  8
OBJECT
 10
7.297409
 20
8.988627
 30
0.0
 11
7.159337
 21
8.85044
 31
0.0
  0
LINE
  8
OBJECT
 10
7.253624
 20
9.032523
 30
0.0
 11
7.115818
 21
8.894602
 31
0.0
  0
LINE
  8
OBJECT
 10
7.297409
 20
10.64812
 30
0.0
 11
7.157017
 21
10.785807
 31
0.0
  0
LINE
  8
OBJECT
 10
7.253624
 20
10.604224
 30
0.0
 11
7.115818
 21
10.739374
 31
0.0
  0
POLYLINE
  8
OBJECT
 66
     1
 10
0.0
 20
0.0
 30
0.0
 70
     1
  0
VERTEX
  8
OBJECT
 10
10.028781
 20
8.814216
 30
0.0
 42
0.414214
  0
VERTEX
  8
OBJECT
 10
10.087409
 20
8.872845
 30
0.0
  0
VERTEX
  8
OBJECT
 10
10.087409
 20
10.763402
 30
0.0
 42
0.414214
  0
VERTEX
  8
OBJECT
 10
10.028781
 20
10.822031
 30
0.0
  0
VERTEX
  8
OBJECT
 10
7.138223
 20
10.822031
 30
0.0
 42
0.414214
  0
VERTEX
  8
OBJECT
 10
7.079595
 20
10.763402
 30
0.0
  0
VERTEX
  8
OBJECT
 10
7.079595
 20
8.872845
 30
0.0
 42
0.414214
  0
VERTEX
  8
OBJECT
 10
7.138223
 20
8.814216
 30
0.0
  0
SEQEND
  8
OBJECT
  0
POLYLINE
  8
OBJECT
 66
     1
 10
0.0
 20
0.0
 30
0.0
 70
     1
  0
VERTEX
  8
OBJECT
 10
10.028781
 20
8.85044
 30
0.0
 42
0.414214
  0
VERTEX
  8
OBJECT
 10
10.051186
 20
8.872845
 30
0.0
  0
VERTEX
  8
OBJECT
 10
10.051186
 20
10.763402
 30
0.0
 42
0.414214
  0
VERTEX
  8
OBJECT
 10
10.028781
 20
10.785807
 30
0.0
  0
VERTEX
  8
OBJECT
 10
7.138223
 20
10.785807
 30
0.0
 42
0.414214
  0
VERTEX
  8
OBJECT
 10
7.115818
 20
10.763402
 30
0.0
  0
VERTEX
  8
OBJECT
 10
7.115818
 20
8.872845
 30
0.0
 42
0.414214
  0
VERTEX
  8
OBJECT
 10
7.138223
 20
8.85044
 30
0.0
  0
SEQEND
  8
OBJECT
  0
DIMENSION
  8
DIM
  2
*D20
 10
6.646002
 20
8.37385
 30
0.0
 11
5.724908
 21
8.37385
 31
0.0
 12
-21.774109
 22
-0.17036
 32
0.0
 13
6.833502
 23
9.818123
 33
0.0
 14
6.646002
 24
9.818123
 34
0.0
  3
23NSTD
  0
DIMENSION
  8
DIM
  2
*D27
 10
10.521002
 20
7.95235
 30
0.0
 11
8.583502
 21
7.95235
 31
0.0
 12
-23.012421
 22
-0.17036
 32
0.0
  1
E
 13
6.646002
 23
9.818123
 33
0.0
 14
10.521002
 24
9.818123
 34
0.0
  3
23NSTD
  0
DIMENSION
  8
DIM
  2
*D21
 10
6.833502
 20
8.37385
 30
0.0
 11
8.583502
 21
8.37385
 31
0.0
 12
-21.774109
 22
-0.17036
 32
0.0
  1
M
 13
10.333502
 23
9.818123
 33
0.0
 14
6.833502
 24
9.818123
 34
0.0
  3
23NSTD
  0
LINE
  8
OBJECT
 10
10.028781
 20
10.857402
 30
0.0
 11
7.138223
 21
10.857402
 31
0.0
  0
LINE
  8
OBJECT
 10
7.138223
 20
8.778845
 30
0.0
 11
10.028781
 21
8.778845
 31
0.0
  0
DIMENSION
  8
DIM
  2
*D14
 10
2.730183
 20
8.000554
 30
0.0
 11
3.769461
 21
8.000554
 31
0.0
 12
-21.774109
 22
-0.17036
 32
0.0
  1
D
 13
4.80874
 23
7.039054
 33
0.0
 14
2.730183
 24
7.039054
 34
0.0
  3
23NSTD
  0
LINE
  8
OBJECT
 10
4.677891
 20
5.539054
 30
0.0
 11
2.861032
 21
5.539054
 31
0.0
  0
LINE
  8
HIDDEN
 10
4.70136
 20
5.609054
 30
0.0
 11
2.837652
 21
5.609054
 31
0.0
  0
DIMENSION
  8
DIM
  2
*D13
 10
4.769461
 20
5.217114
 30
0.0
 11
3.769461
 21
5.217114
 31
0.0
 12
-21.774109
 22
-0.17036
 32
0.0
  1
B
 13
2.769461
 23
5.539054
 33
0.0
 14
4.769461
 24
5.539054
 34
0.0
  3
23NSTD
  0
LINE
  8
HIDDEN
 10
2.765183
 20
6.979054
 30
0.0
 11
4.77374
 21
6.979054
 31
0.0
  0
LINE
  8
OBJECT
 10
2.730183
 20
7.039054
 30
0.0
 11
4.80874
 21
7.039054
 31
0.0
  0
LINE
  8
OBJECT
 10
2.733456
 20
6.914054
 30
0.0
 11
4.805467
 21
6.914054
 31
0.0
  0
DIMENSION
  8
DIM
  2
*D24
 10
2.743276
 20
6.539054
 30
0.0
 11
4.139404
 21
4.681305
 31
0.0
 12
-21.774109
 22
-0.17036
 32
0.0
 70
   130
  1
<> REF.
 13
2.743276
 23
6.539054
 33
0.0
 14
2.743276
 24
6.112499
 34
0.0
 15
2.769461
 25
5.539054
 35
0.0
 16
2.767697
 26
4.584613
 36
0.0
  3
23NSTD
  0
LINE
  8
HIDDEN
 10
3.144461
 20
6.899054
 30
0.0
 11
3.144461
 21
5.609054
 31
0.0
  0
LINE
  8
HIDDEN
 10
2.926461
 20
6.899054
 30
0.0
 11
2.926461
 21
5.609054
 31
0.0
  0
LINE
  8
OBJECT
 10
2.767064
 20
5.630593
 30
0.0
 11
2.730183
 21
7.039054
 31
0.0
  0
LINE
  8
HIDDEN
 10
2.837652
 20
5.609054
 30
0.0
 11
2.801778
 21
6.979054
 31
0.0
  0
ARC
  8
OBJECT
 10
2.861032
 20
5.633054
 30
0.0
 40
0.094
 50
181.5
 51
270.0
  0
POLYLINE
  8
DIM
 66
     1
 10
0.0
 20
0.0
 30
0.0
  0
VERTEX
  8
DIM
 10
2.805731
 20
5.539054
 30
0.0
  0
VERTEX
  8
DIM
 10
2.769461
 20
5.539054
 30
0.0
  0
VERTEX
  8
DIM
 10
2.768464
 20
5.575309
 30
0.0
  0
SEQEND
  8
DIM
  0
DIMENSION
  8
DIM
  2
*D17
 10
2.730183
 20
7.579054
 30
0.0
 11
1.492683
 21
7.579054
 31
0.0
 12
-21.774109
 22
-0.17036
 32
0.0
  1
<> TYP.
 13
2.765183
 23
7.039054
 33
0.0
 14
2.730183
 24
7.039054
 34
0.0
  3
23NSTD
  0
LINE
  8
HIDDEN
 10
3.077461
 20
6.899054
 30
0.0
 11
3.077461
 21
6.399054
 31
0.0
  0
LINE
  8
HIDDEN
 10
2.993461
 20
6.899054
 30
0.0
 11
2.993461
 21
6.399054
 31
0.0
  0
LINE
  8
HIDDEN
 10
2.993461
 20
6.399054
 30
0.0
 11
3.077461
 21
6.399054
 31
0.0
  0
LINE
  8
HIDDEN
 10
2.926461
 20
6.899054
 30
0.0
 11
3.144461
 21
6.899054
 31
0.0
  0
LINE
  8
HIDDEN
 10
2.818275
 20
6.849054
 30
0.0
 11
2.926461
 21
6.849054
 31
0.0
  0
LINE
  8
HIDDEN
 10
2.765183
 20
6.979054
 30
0.0
 11
2.765183
 21
7.039054
 31
0.0
  0
DIMENSION
  8
DIM
  2
*D5
 10
5.628884
 20
7.039054
 30
0.0
 11
5.628884
 21
6.289054
 31
0.0
 12
-18.406733
 22
-1.461941
 32
0.0
  1
C
 13
4.769461
 23
5.539054
 33
0.0
 14
4.80874
 24
7.039054
 34
0.0
 50
90.0
  3
23NSTDI
  0
LINE
  8
HIDDEN
 10
4.612461
 20
6.899054
 30
0.0
 11
4.612461
 21
5.609054
 31
0.0
  0
LINE
  8
HIDDEN
 10
4.394461
 20
6.899054
 30
0.0
 11
4.394461
 21
5.609054
 31
0.0
  0
LINE
  8
OBJECT
 10
4.771859
 20
5.630593
 30
0.0
 11
4.80874
 21
7.039054
 31
0.0
  0
LINE
  8
HIDDEN
 10
4.701271
 20
5.609054
 30
0.0
 11
4.737145
 21
6.979054
 31
0.0
  0
LINE
  8
OBJECT
 10
7.081105
 20
5.630593
 30
0.0
 11
7.044223
 21
7.039054
 31
0.0
  0
LINE
  8
HIDDEN
 10
7.151693
 20
5.609054
 30
0.0
 11
7.115818
 21
6.979054
 31
0.0
  0
POLYLINE
  8
DIM
 66
     1
 10
0.0
 20
0.0
 30
0.0
  0
VERTEX
  8
DIM
 10
4.733192
 20
5.539054
 30
0.0
  0
VERTEX
  8
DIM
 10
4.769461
 20
5.539054
 30
0.0
  0
VERTEX
  8
DIM
 10
4.770459
 20
5.575309
 30
0.0
  0
SEQEND
  8
DIM
  0
ARC
  8
OBJECT
 10
4.677891
 20
5.633054
 30
0.0
 40
0.094
 50
270.0
 51
358.5
  0
POLYLINE
  8
DIM
 66
     1
 10
0.0
 20
0.0
 30
0.0
  0
VERTEX
  8
DIM
 10
7.119771
 20
5.539054
 30
0.0
  0
VERTEX
  8
DIM
 10
7.083502
 20
5.539054
 30
0.0
  0
VERTEX
  8
DIM
 10
7.082505
 20
5.575309
 30
0.0
  0
SEQEND
  8
DIM
  0
ARC
  8
OBJECT
 10
7.175073
 20
5.633054
 30
0.0
 40
0.094
 50
181.5
 51
270.0
  0
DIMENSION
  8
DIM
  2
*D16
 10
5.207384
 20
7.039054
 30
0.0
 11
5.858478
 21
7.579054
 31
0.0
 12
-21.774109
 22
-0.17036
 32
0.0
 13
4.77374
 23
6.979054
 33
0.0
 14
4.80874
 24
7.039054
 34
0.0
 50
90.0
  3
23NSTD
  0
LINE
  8
HIDDEN
 10
4.461461
 20
6.399054
 30
0.0
 11
4.545461
 21
6.399054
 31
0.0
  0
LINE
  8
HIDDEN
 10
4.612461
 20
6.899054
 30
0.0
 11
4.394461
 21
6.899054
 31
0.0
  0
LINE
  8
HIDDEN
 10
4.461461
 20
6.899054
 30
0.0
 11
4.461461
 21
6.399054
 31
0.0
  0
LINE
  8
HIDDEN
 10
4.545461
 20
6.899054
 30
0.0
 11
4.545461
 21
6.399054
 31
0.0
  0
LINE
  8
HIDDEN
 10
4.720648
 20
6.849054
 30
0.0
 11
4.612461
 21
6.849054
 31
0.0
  0
LINE
  8
HIDDEN
  6
HIDDEN2
 10
3.675961
 20
7.039054
 30
0.0
 11
3.675961
 21
6.914054
 31
0.0
  0
LINE
  8
HIDDEN
  6
HIDDEN2
 10
3.862961
 20
7.039054
 30
0.0
 11
3.862961
 21
6.914054
 31
0.0
  0
LINE
  8
HIDDEN
 10
4.77374
 20
6.979054
 30
0.0
 11
4.77374
 21
7.039054
 31
0.0
  0
LINE
  8
OBJECT
 10
6.646002
 20
6.914054
 30
0.0
 11
7.047496
 21
6.914054
 31
0.0
  0
LINE
  8
HIDDEN
  6
HIDDEN2
 10
6.740002
 20
7.039054
 30
0.0
 11
6.740002
 21
6.914054
 31
0.0
  0
LINE
  8
OBJECT
 10
6.646002
 20
7.039054
 30
0.0
 11
6.646002
 21
6.914054
 31
0.0
  0
LINE
  8
HIDDEN
 10
7.079595
 20
6.979054
 30
0.0
 11
7.079595
 21
7.039054
 31
0.0
  0
LINE
  8
HIDDEN
  6
HIDDEN2
 10
6.927002
 20
7.039054
 30
0.0
 11
6.927002
 21
6.914054
 31
0.0
  0
LINE
  8
OBJECT
 10
7.151693
 20
8.930507
 30
0.0
 11
7.151693
 21
10.704191
 31
0.0
  0
LINE
  8
HIDDEN
 10
7.044223
 20
10.763402
 30
0.0
 11
7.044223
 21
8.872845
 31
0.0
  0
POLYLINE
  8
OBJECT
 66
     1
 10
0.0
 20
0.0
 30
0.0
  0
VERTEX
  8
OBJECT
 10
7.05151
 20
8.836557
 30
0.0
  0
VERTEX
  8
OBJECT
 10
6.650847
 20
9.793996
 30
0.0
 42
-0.2008
  0
VERTEX
  8
OBJECT
 10
6.650847
 20
9.842251
 30
0.0
  0
VERTEX
  8
OBJECT
 10
7.05151
 20
10.79969
 30
0.0
  0
SEQEND
  8
OBJECT
  0
ARC
  8
OBJECT
 10
7.138223
 20
8.872845
 30
0.0
 40
0.094
 50
180.0
 51
270.0
  0
CIRCLE
  8
OBJECT
 10
6.833502
 20
9.818123
 30
0.0
 40
0.0935
  0
ARC
  8
OBJECT
 10
7.138223
 20
10.763402
 30
0.0
 40
0.094
 50
90.0
 51
180.0
  0
DIMENSION
  8
DIM
  2
*D12
 10
10.096589
 20
6.038811
 30
0.0
 11
11.322185
 21
6.024675
 31
0.0
 12
-21.774109
 22
-0.17036
 32
0.0
 70
     1
  1
<> TYP.
 13
10.027064
 23
6.057869
 33
0.0
 14
10.09704
 24
6.056037
 34
0.0
  3
23NSTD
  0
DIMENSION
  8
DIM
  2
*D19
 10
11.007611
 20
7.039054
 30
0.0
 11
11.658704
 21
7.579054
 31
0.0
 12
-21.774109
 22
-0.17036
 32
0.0
 13
10.521002
 23
6.914054
 33
0.0
 14
10.521002
 24
7.039054
 34
0.0
 50
90.0
  3
23NSTD
  0
LINE
  8
HIDDEN
 10
7.458502
 20
6.899054
 30
0.0
 11
7.458502
 21
5.609054
 31
0.0
  0
LINE
  8
HIDDEN
 10
7.240502
 20
6.899054
 30
0.0
 11
7.240502
 21
5.609054
 31
0.0
  0
LINE
  8
HIDDEN
 10
9.708502
 20
6.899054
 30
0.0
 11
9.708502
 21
5.609054
 31
0.0
  0
LINE
  8
HIDDEN
 10
9.926502
 20
6.899054
 30
0.0
 11
9.926502
 21
5.609054
 31
0.0
  0
LINE
  8
HIDDEN
 10
10.015311
 20
5.609054
 30
0.0
 11
10.051186
 21
6.979054
 31
0.0
  0
LINE
  8
OBJECT
 10
10.085899
 20
5.630593
 30
0.0
 11
10.122781
 21
7.039054
 31
0.0
  0
ARC
  8
OBJECT
 10
9.991931
 20
5.633054
 30
0.0
 40
0.094
 50
270.0
 51
358.5
  0
POLYLINE
  8
DIM
 66
     1
 10
0.0
 20
0.0
 30
0.0
  0
VERTEX
  8
DIM
 10
10.047233
 20
5.539054
 30
0.0
  0
VERTEX
  8
DIM
 10
10.083502
 20
5.539054
 30
0.0
  0
VERTEX
  8
DIM
 10
10.084499
 20
5.575309
 30
0.0
  0
SEQEND
  8
DIM
  0
DIMENSION
  8
DIM
  2
*D18
 10
7.69759
 20
7.039054
 30
0.0
 11
8.336965
 21
7.579054
 31
0.0
 12
-21.774109
 22
-0.17036
 32
0.0
 13
7.458502
 23
6.899054
 33
0.0
 14
7.458502
 24
7.039054
 34
0.0
 50
90.0
  3
23NSTD
  0
LINE
  8
HIDDEN
 10
7.391502
 20
6.899054
 30
0.0
 11
7.391502
 21
6.399054
 31
0.0
  0
LINE
  8
HIDDEN
 10
7.307502
 20
6.899054
 30
0.0
 11
7.307502
 21
6.399054
 31
0.0
  0
LINE
  8
HIDDEN
 10
7.307502
 20
6.399054
 30
0.0
 11
7.391502
 21
6.399054
 31
0.0
  0
LINE
  8
HIDDEN
 10
7.240502
 20
6.899054
 30
0.0
 11
7.458502
 21
6.899054
 31
0.0
  0
LINE
  8
HIDDEN
 10
9.926502
 20
6.899054
 30
0.0
 11
9.708502
 21
6.899054
 31
0.0
  0
LINE
  8
HIDDEN
 10
9.775502
 20
6.899054
 30
0.0
 11
9.775502
 21
6.399054
 31
0.0
  0
LINE
  8
HIDDEN
 10
9.859502
 20
6.899054
 30
0.0
 11
9.859502
 21
6.399054
 31
0.0
  0
LINE
  8
HIDDEN
 10
9.859502
 20
6.399054
 30
0.0
 11
9.775502
 21
6.399054
 31
0.0
  0
LINE
  8
HIDDEN
 10
10.034689
 20
6.849054
 30
0.0
 11
9.926502
 21
6.849054
 31
0.0
  0
LINE
  8
OBJECT
 10
10.521002
 20
6.914054
 30
0.0
 11
10.119508
 21
6.914054
 31
0.0
  0
LINE
  8
HIDDEN
 10
10.087409
 20
6.979054
 30
0.0
 11
10.087409
 21
7.039054
 31
0.0
  0
LINE
  8
HIDDEN
  6
HIDDEN2
 10
10.240002
 20
7.039054
 30
0.0
 11
10.240002
 21
6.914054
 31
0.0
  0
LINE
  8
OBJECT
 10
10.521002
 20
7.039054
 30
0.0
 11
10.521002
 21
6.914054
 31
0.0
  0
LINE
  8
HIDDEN
  6
HIDDEN2
 10
10.427002
 20
7.039054
 30
0.0
 11
10.427002
 21
6.914054
 31
0.0
  0
TEXT
  8
DIM
 10
10.946587
 20
4.42269
 30
0.0
 40
0.187469
  1
INSERT AREA
 41
0.75
  7
TXT
 11
10.946587
 21
4.516424
 31
0.0
 73
     2
  0
DIMENSION
  8
DIM
  2
*D1
 10
11.005017
 20
9.818123
 30
0.0
 11
11.005017
 21
9.298484
 31
0.0
 12
-18.406733
 22
-2.296156
 32
0.0
  1
N
 13
10.028781
 23
8.778845
 33
0.0
 14
10.333502
 24
9.818123
 34
0.0
 50
90.0
  3
23NSTDI
  0
POLYLINE
  8
DIM
 66
     1
 10
0.0
 20
0.0
 30
0.0
 41
0.101233
  0
VERTEX
  8
DIM
 10
10.377005
 20
9.900887
 30
0.0
  0
VERTEX
  8
DIM
 10
10.584272
 20
10.073849
 30
0.0
 41
0.0
  0
VERTEX
  8
DIM
 10
11.09982
 20
10.504064
 30
0.0
 41
0.0
  0
VERTEX
  8
DIM
 10
11.369775
 20
10.504064
 30
0.0
 41
0.0
  0
SEQEND
  8
DIM
  0
LINE
  8
OBJECT
 10
10.015311
 20
8.933867
 30
0.0
 11
10.015311
 21
10.704191
 31
0.0
  0
LINE
  8
HIDDEN
 10
10.122781
 20
8.872845
 30
0.0
 11
10.122781
 21
10.763402
 31
0.0
  0
POLYLINE
  8
OBJECT
 66
     1
 10
0.0
 20
0.0
 30
0.0
  0
VERTEX
  8
OBJECT
 10
10.115494
 20
8.836557
 30
0.0
  0
VERTEX
  8
OBJECT
 10
10.516157
 20
9.793996
 30
0.0
 42
0.2008
  0
VERTEX
  8
OBJECT
 10
10.516157
 20
9.842251
 30
0.0
  0
VERTEX
  8
OBJECT
 10
10.115494
 20
10.79969
 30
0.0
  0
SEQEND
  8
OBJECT
  0
LINE
  8
OBJECT
 10
9.975303
 20
8.886314
 30
0.0
 11
7.195182
 21
8.886314
 31
0.0
  0
CIRCLE
  8
OBJECT
 10
7.349502
 20
9.084123
 30
0.0
 40
0.109
  0
CIRCLE
  8
OBJECT
 10
7.349502
 20
9.084123
 30
0.0
 40
0.045
  0
CIRCLE
  8
OBJECT
 10
9.817502
 20
9.084123
 30
0.0
 40
0.109
  0
LINE
  8
OBJECT
 10
9.869595
 20
8.988627
 30
0.0
 11
10.012369
 21
8.85044
 31
0.0
  0
CIRCLE
  8
OBJECT
 10
9.817502
 20
9.084123
 30
0.0
 40
0.045
  0
LINE
  8
OBJECT
 10
9.91338
 20
9.032523
 30
0.0
 11
10.051186
 21
8.899144
 31
0.0
  0
ARC
  8
OBJECT
 10
10.028781
 20
8.872845
 30
0.0
 40
0.094
 50
270.0
 51
0.0
  0
LINE
  8
OBJECT
 10
9.973408
 20
10.749933
 30
0.0
 11
7.193596
 21
10.749933
 31
0.0
  0
CIRCLE
  8
OBJECT
 10
7.349502
 20
10.552123
 30
0.0
 40
0.109
  0
CIRCLE
  8
OBJECT
 10
7.349502
 20
10.552123
 30
0.0
 40
0.045
  0
DIMENSION
  8
DIM
  2
*D2
 10
8.583502
 20
11.235982
 30
0.0
 11
7.966502
 21
11.235982
 31
0.0
 12
-18.406733
 22
-2.296156
 32
0.0
  1
G
 13
7.349502
 23
10.552123
 33
0.0
 14
8.583502
 24
9.930623
 34
0.0
  3
23NSTDI
  0
LINE
  8
CENTER
 10
8.471002
 20
9.818123
 30
0.0
 11
8.696002
 21
9.818123
 31
0.0
  0
LINE
  8
CENTER
 10
8.583502
 20
9.705623
 30
0.0
 11
8.583502
 21
9.930623
 31
0.0
  0
CIRCLE
  8
OBJECT
 10
9.817502
 20
10.552123
 30
0.0
 40
0.109
  0
CIRCLE
  8
OBJECT
 10
9.817502
 20
10.552123
 30
0.0
 40
0.045
  0
CIRCLE
  8
OBJECT
 10
10.333502
 20
9.818123
 30
0.0
 40
0.0935
  0
LINE
  8
OBJECT
 10
9.869595
 20
10.64812
 30
0.0
 11
10.009987
 21
10.785807
 31
0.0
  0
LINE
  8
OBJECT
 10
9.91338
 20
10.604224
 30
0.0
 11
10.051186
 21
10.739374
 31
0.0
  0
ARC
  8
OBJECT
 10
10.028781
 20
10.763402
 30
0.0
 40
0.094
 50
0.0
 51
90.0
  0
TEXT
  8
DIM
 10
11.504752
 20
10.106818
 30
0.0
 40
0.187469
  1
(2) HOLES
 41
0.75
  7
TXT
 11
11.504752
 21
10.200552
 31
0.0
 73
     2
  0
TEXT
  8
DIM
 10
11.504752
 20
10.41033
 30
0.0
 40
0.187469
  1
0.187 DIA.
 41
0.75
  7
TXT
 11
11.504752
 21
10.504064
 31
0.0
 73
     2
  0
TEXT
  8
DIM
 10
10.967728
 20
10.923013
 30
0.0
 40
0.187469
  1
(4) PLACES
 41
0.75
  7
TXT
 11
10.967728
 21
11.016747
 31
0.0
 73
     2
  0
TEXT
  8
DIM
 10
10.967728
 20
11.547908
 30
0.0
 40
0.187469
  1
0.218 DIA. BOSS WITH
 41
0.75
  7
TXT
 11
10.967728
 21
11.641643
 31
0.0
 73
     2
  0
DIMENSION
  8
DIM
  2
*D32
 10
15.780288
 20
3.888381
 30
0.0
 11
16.092788
 21
3.888381
 31
0.0
 12
-23.012421
 22
-0.17036
 32
0.0
  1
T
 13
16.405288
 23
5.262019
 33
0.0
 14
15.780288
 24
4.321019
 34
0.0
  3
23NSTDI
  0
DIMENSION
  8
DIM
  2
*D30
 10
18.155288
 20
3.888381
 30
0.0
 11
17.280288
 21
3.888381
 31
0.0
 12
-23.012421
 22
-0.17036
 32
0.0
  1
R
 13
16.405288
 23
5.262019
 33
0.0
 14
18.155288
 24
5.262019
 34
0.0
  3
23NSTDI
  0
DIMENSION
  8
DIM
  2
*D28
 10
18.780288
 20
3.466881
 30
0.0
 11
17.280288
 21
3.466881
 31
0.0
 12
-23.012421
 22
-0.17036
 32
0.0
  1
P
 13
15.780288
 23
4.321019
 33
0.0
 14
18.780288
 24
4.321019
 34
0.0
  3
23NSTD
  0
DIMENSION
  8
DIM
  2
*D31
 10
15.416125
 20
6.262019
 30
0.0
 11
15.416125
 21
5.762019
 31
0.0
 12
-23.012421
 22
-0.17036
 32
0.0
  1
S
 13
16.405288
 23
5.262019
 33
0.0
 14
15.839288
 24
6.262019
 34
0.0
 50
90.0
  3
23NSTDI
  0
DIMENSION
  8
DIM
  2
*D29
 10
14.994625
 20
4.262019
 30
0.0
 11
14.994625
 21
5.262019
 31
0.0
 12
-23.012421
 22
-0.17036
 32
0.0
  1
Q
 13
15.839288
 23
6.262019
 33
0.0
 14
15.839288
 24
4.262019
 34
0.0
 50
90.0
  3
23NSTD
  0
LINE
  8
TITLE
 10
20.769
 20
1.663
 30
0.0
 11
20.769
 21
0.093
 31
0.0
  0
LINE
  8
TITLE
 10
19.575
 20
1.663
 30
0.0
 11
19.575
 21
0.093
 31
0.0
  0
LINE
  8
TITLE
 10
18.381
 20
1.663
 30
0.0
 11
18.381
 21
0.093
 31
0.0
  0
LINE
  8
TITLE
 10
17.187
 20
1.663
 30
0.0
 11
17.187
 21
0.093
 31
0.0
  0
LINE
  8
TITLE
 10
15.993
 20
1.663
 30
0.0
 11
15.993
 21
0.093
 31
0.0
  0
LINE
  8
TITLE
 10
14.799
 20
1.663
 30
0.0
 11
14.799
 21
0.093
 31
0.0
  0
LINE
  8
TITLE
 10
13.605
 20
1.663
 30
0.0
 11
13.605
 21
0.093
 31
0.0
  0
LINE
  8
TITLE
 10
12.411
 20
1.663
 30
0.0
 11
12.411
 21
0.093
 31
0.0
  0
LINE
  8
TITLE
 10
11.217
 20
1.663
 30
0.0
 11
11.217
 21
0.093
 31
0.0
  0
LINE
  8
TITLE
 10
10.023
 20
1.663
 30
0.0
 11
10.023
 21
0.093
 31
0.0
  0
LINE
  8
TITLE
 10
8.829
 20
1.663
 30
0.0
 11
8.829
 21
0.093
 31
0.0
  0
LINE
  8
TITLE
 10
7.635
 20
1.663
 30
0.0
 11
7.635
 21
0.093
 31
0.0
  0
LINE
  8
TITLE
 10
6.441
 20
1.663
 30
0.0
 11
6.441
 21
0.093
 31
0.0
  0
LINE
  8
TITLE
 10
5.247
 20
1.663
 30
0.0
 11
5.247
 21
0.093
 31
0.0
  0
LINE
  8
TITLE
 10
4.053
 20
1.663
 30
0.0
 11
4.053
 21
0.093
 31
0.0
  0
LINE
  8
TITLE
 10
2.859
 20
1.663
 30
0.0
 11
2.859
 21
0.093
 31
0.0
  0
LINE
  8
TITLE
 10
1.665
 20
1.663
 30
0.0
 11
1.665
 21
0.093
 31
0.0
  0
TEXT
  8
TEXT
 10
21.31925
 20
1.4125
 30
0.0
 40
0.187
  1
S
 41
0.75
  7
TXT
 72
     4
 11
21.366
 21
1.506
 31
0.0
  0
TEXT
  8
TEXT
 10
22.51325
 20
1.4125
 30
0.0
 40
0.187
  1
T
 41
0.75
  7
TXT
 72
     4
 11
22.56
 21
1.506
 31
0.0
  0
TEXT
  8
TEXT
 10
15.1375
 20
1.098667
 30
0.0
 40
0.188
  1
3.500
 41
0.75
  7
TXT
 72
     4
 11
15.396
 21
1.192667
 31
0.0
  0
TEXT
  8
TEXT
 10
16.34325
 20
1.098667
 30
0.0
 40
0.188
  1
1.039
 41
0.75
  7
TXT
 72
     4
 11
16.59
 21
1.192667
 31
0.0
  0
TEXT
  8
TEXT
 10
15.1375
 20
0.158667
 30
0.0
 40
0.188
  1
4.500
 41
0.75
  7
TXT
 72
     4
 11
15.396
 21
0.252667
 31
0.0
  0
TEXT
  8
TEXT
 10
16.355
 20
0.158667
 30
0.0
 40
0.188
  1
0.901
 41
0.75
  7
TXT
 72
     4
 11
16.59
 21
0.252667
 31
0.0
  0
TEXT
  8
TEXT
 10
15.1375
 20
0.784667
 30
0.0
 40
0.188
  1
3.500
 41
0.75
  7
TXT
 72
     4
 11
15.396
 21
0.878667
 31
0.0
  0
TEXT
  8
TEXT
 10
15.1375
 20
0.470667
 30
0.0
 40
0.188
  1
3.500
 41
0.75
  7
TXT
 72
     4
 11
15.396
 21
0.564667
 31
0.0
  0
TEXT
  8
TEXT
 10
16.34325
 20
0.784667
 30
0.0
 40
0.188
  1
1.039
 41
0.75
  7
TXT
 72
     4
 11
16.59
 21
0.878667
 31
0.0
  0
TEXT
  8
TEXT
 10
16.3315
 20
0.470667
 30
0.0
 40
0.188
  1
1.539
 41
0.75
  7
TXT
 72
     4
 11
16.59
 21
0.564667
 31
0.0
  0
TEXT
  8
TEXT
 10
6.141586
 20
12.483605
 30
0.0
 40
0.1875
  1
%%uNOTE:%%U ALL DIMENSIONS HAVE %%P0.010 TOLERANCE
 41
0.75
  7
TXT
  0
TEXT
  8
TEXT
 10
6.774571
 20
12.180042
 30
0.0
 40
0.1875
  1
UNLESS OTHERWISE SPECIFIED.
 41
0.75
  7
TXT
  0
TEXT
  8
TEXT
 10
16.464099
 20
14.041181
 30
0.0
 40
0.1875
  1
MOUNTING BOSSES USE EITHER M2.5 METRIC 
 41
0.75
  7
TXT
  0
TEXT
  8
TEXT
 10
16.464099
 20
13.737618
 30
0.0
 40
0.1875
  1
OR #4 STD. SHEET METAL SCREWS x 0.250" LG.
 41
0.75
  7
TXT
  0
TEXT
  8
TEXT
 10
16.464099
 20
13.425118
 30
0.0
 40
0.1875
  1
(NOT SUPPLIED)
 41
0.75
  7
TXT
  0
ENDSEC
  0
EOF
