  0
SECTION
  2
HEADER
  9
$ACADVER
  1
AC1009
  9
$INSBASE
 10
0.0
 20
0.0
 30
0.0
  9
$EXTMIN
 10
0.0
 20
0.0
 30
0.0
  9
$EXTMAX
 10
17.71
 20
27.125
 30
0.0
  9
$LIMMIN
 10
0.0
 20
0.0
  9
$LIMMAX
 10
17.71
 20
27.125
  9
$ORTHOMODE
 70
     1
  9
$REGENMODE
 70
     1
  9
$FILLMODE
 70
     1
  9
$QTEXTMODE
 70
     0
  9
$MIRRTEXT
 70
     0
  9
$DRAGMODE
 70
     2
  9
$LTSCALE
 40
0.75
  9
$OSMODE
 70
     0
  9
$ATTMODE
 70
     1
  9
$TEXTSIZE
 40
0.125
  9
$TRACEWID
 40
0.05
  9
$TEXTSTYLE
  7
TXT
  9
$CLAYER
  8
OBJECT
  9
$CELTYPE
  6
BYLAYER
  9
$CECOLOR
 62
   256
  9
$DIMSCALE
 40
1.75
  9
$DIMASZ
 40
0.18
  9
$DIMEXO
 40
0.063
  9
$DIMDLI
 40
0.281
  9
$DIMRND
 40
0.0
  9
$DIMDLE
 40
0.0
  9
$DIMEXE
 40
0.093
  9
$DIMTP
 40
0.0
  9
$DIMTM
 40
0.0
  9
$DIMTXT
 40
0.125
  9
$DIMCEN
 40
0.09
  9
$DIMTSZ
 40
0.0
  9
$DIMTOL
 70
     0
  9
$DIMLIM
 70
     0
  9
$DIMTIH
 70
     1
  9
$DIMTOH
 70
     1
  9
$DIMSE1
 70
     0
  9
$DIMSE2
 70
     0
  9
$DIMTAD
 70
     0
  9
$DIMZIN
 70
     0
  9
$DIMBLK
  1

  9
$DIMASO
 70
     1
  9
$DIMSHO
 70
     1
  9
$DIMPOST
  1

  9
$DIMAPOST
  1

  9
$DIMALT
 70
     0
  9
$DIMALTD
 70
     2
  9
$DIMALTF
 40
25.4
  9
$DIMLFAC
 40
1.0
  9
$DIMTOFL
 70
     0
  9
$DIMTVP
 40
0.0
  9
$DIMTIX
 70
     0
  9
$DIMSOXD
 70
     0
  9
$DIMSAH
 70
     0
  9
$DIMBLK1
  1

  9
$DIMBLK2
  1

  9
$DIMSTYLE
  2
23NSTD
  9
$DIMCLRD
 70
     0
  9
$DIMCLRE
 70
     0
  9
$DIMCLRT
 70
     0
  9
$DIMTFAC
 40
1.0
  9
$DIMGAP
 40
0.09
  9
$LUNITS
 70
     2
  9
$LUPREC
 70
     3
  9
$SKETCHINC
 40
0.1
  9
$FILLETRAD
 40
0.0
  9
$AUNITS
 70
     0
  9
$AUPREC
 70
     0
  9
$MENU
  1
acad
  9
$ELEVATION
 40
0.0
  9
$PELEVATION
 40
0.0
  9
$THICKNESS
 40
0.0
  9
$LIMCHECK
 70
     0
  9
$BLIPMODE
 70
     1
  9
$CHAMFERA
 40
0.0
  9
$CHAMFERB
 40
0.0
  9
$SKPOLY
 70
     0
  9
$TDCREATE
 40
2449596.650385764
  9
$TDUPDATE
 40
2450757.340662615
  9
$TDINDWG
 40
0.0807274306
  9
$TDUSRTIMER
 40
0.0807274306
  9
$USRTIMER
 70
     1
  9
$ANGBASE
 50
0.0
  9
$ANGDIR
 70
     0
  9
$PDMODE
 70
     0
  9
$PDSIZE
 40
0.0
  9
$PLINEWID
 40
0.0
  9
$COORDS
 70
     0
  9
$SPLFRAME
 70
     0
  9
$SPLINETYPE
 70
     6
  9
$SPLINESEGS
 70
     8
  9
$ATTDIA
 70
     0
  9
$ATTREQ
 70
     1
  9
$HANDLING
 70
     0
  9
$HANDSEED
  5
0
  9
$SURFTAB1
 70
     6
  9
$SURFTAB2
 70
     6
  9
$SURFTYPE
 70
     6
  9
$SURFU
 70
     6
  9
$SURFV
 70
     6
  9
$UCSNAME
  2

  9
$UCSORG
 10
0.0
 20
0.0
 30
0.0
  9
$UCSXDIR
 10
1.0
 20
0.0
 30
0.0
  9
$UCSYDIR
 10
0.0
 20
1.0
 30
0.0
  9
$PUCSNAME
  2

  9
$PUCSORG
 10
0.0
 20
0.0
 30
0.0
  9
$PUCSXDIR
 10
1.0
 20
0.0
 30
0.0
  9
$PUCSYDIR
 10
0.0
 20
1.0
 30
0.0
  9
$USERI1
 70
     0
  9
$USERI2
 70
     0
  9
$USERI3
 70
     0
  9
$USERI4
 70
     0
  9
$USERI5
 70
     0
  9
$USERR1
 40
0.0
  9
$USERR2
 40
0.0
  9
$USERR3
 40
0.0
  9
$USERR4
 40
0.0
  9
$USERR5
 40
0.0
  9
$WORLDVIEW
 70
     1
  9
$SHADEDGE
 70
     3
  9
$SHADEDIF
 70
    70
  9
$TILEMODE
 70
     1
  9
$MAXACTVP
 70
    16
  9
$PINSBASE
 10
0.0
 20
0.0
 30
0.0
  9
$PLIMCHECK
 70
     0
  9
$PEXTMIN
 10
1.000000E+20
 20
1.000000E+20
 30
1.000000E+20
  9
$PEXTMAX
 10
-1.000000E+20
 20
-1.000000E+20
 30
-1.000000E+20
  9
$PLIMMIN
 10
0.0
 20
0.0
  9
$PLIMMAX
 10
12.0
 20
9.0
  9
$UNITMODE
 70
     0
  9
$VISRETAIN
 70
     0
  9
$PLINEGEN
 70
     0
  9
$PSLTSCALE
 70
     0
  9
$TREEDEPTH
 70
  3020
  9
$DWGCODEPAGE
  3
undefined
  0
ENDSEC
  0
SECTION
  2
TABLES
  0
TABLE
  2
VPORT
 70
     2
  0
VPORT
  2
*ACTIVE
 70
     0
 10
0.0
 20
0.0
 11
1.0
 21
1.0
 12
18.47673
 22
13.5625
 13
0.0
 23
0.0
 14
1.0
 24
1.0
 15
0.25
 25
0.25
 16
0.0
 26
0.0
 36
1.0
 17
0.0
 27
0.0
 37
0.0
 40
27.125
 41
1.36234
 42
50.0
 43
0.0
 44
0.0
 50
0.0
 51
0.0
 71
     0
 72
   100
 73
     1
 74
     0
 75
     0
 76
     0
 77
     0
 78
     0
  0
ENDTAB
  0
TABLE
  2
LTYPE
 70
     5
  0
LTYPE
  2
CONTINUOUS
 70
    64
  3
Solid line
 72
    65
 73
     0
 40
0.0
  0
LTYPE
  2
HIDDEN
 70
    64
  3
_ _ _ _ _ _ _ _ _ _ _ _ _ _ _ _ _ _ _ _ _ _ _
 72
    65
 73
     2
 40
0.375
 49
0.25
 49
-0.125
  0
LTYPE
  2
PHANTOM
 70
    64
  3
_____ _ _ _____ _ _ _____ _ _ _____ _ _ ____
 72
    65
 73
     6
 40
2.5
 49
1.25
 49
-0.25
 49
0.25
 49
-0.25
 49
0.25
 49
-0.25
  0
LTYPE
  2
CENTER
 70
    64
  3
____ _ ____ _ ____ _ ____ _ ____ _ ____ _ ____
 72
    65
 73
     4
 40
2.0
 49
1.25
 49
-0.25
 49
0.25
 49
-0.25
  0
LTYPE
  2
HIDDEN2
 70
    64
  3
_ _ _ _ _ _ _ _ _ _ _ _ _ _ _ _ _ _ _ _ _ _ _ _
 72
    65
 73
     2
 40
0.1875
 49
0.125
 49
-0.0625
  0
ENDTAB
  0
TABLE
  2
LAYER
 70
     9
  0
LAYER
  2
0
 70
    64
 62
     7
  6
CONTINUOUS
  0
LAYER
  2
OBJECT
 70
    64
 62
     7
  6
CONTINUOUS
  0
LAYER
  2
DIM
 70
    64
 62
     7
  6
CONTINUOUS
  0
LAYER
  2
HIDDEN
 70
    64
 62
     7
  6
HIDDEN
  0
LAYER
  2
BEND
 70
    64
 62
     7
  6
PHANTOM
  0
LAYER
  2
TEXT
 70
    64
 62
     7
  6
CONTINUOUS
  0
LAYER
  2
TITLE
 70
    64
 62
     7
  6
CONTINUOUS
  0
LAYER
  2
CENTER
 70
    64
 62
     7
  6
CENTER
  0
LAYER
  2
DEFPOINTS
 70
    64
 62
     7
  6
CONTINUOUS
  0
ENDTAB
  0
TABLE
  2
STYLE
 70
     1
  0
STYLE
  2
TXT
 70
    64
 40
0.0
 41
0.75
 50
0.0
 71
     0
 42
0.125
  3
TXT.shx
  4

  0
ENDTAB
  0
TABLE
  2
VIEW
 70
     0
  0
ENDTAB
  0
TABLE
  2
UCS
 70
     0
  0
ENDTAB
  0
TABLE
  2
APPID
 70
     1
  0
APPID
  2
ACAD
 70
    64
  0
ENDTAB
  0
TABLE
  2
DIMSTYLE
 70
     2
  0
DIMSTYLE
  2
23NSTD
 70
    64
  3

  4

  5

  6

  7

 40
1.75
 41
0.18
 42
0.063
 43
0.281
 44
0.093
 45
0.0
 46
0.0
 47
0.0
 48
0.0
140
0.125
141
0.09
142
0.0
143
25.4
144
1.0
145
0.0
146
1.0
147
0.09
 71
     0
 72
     0
 73
     1
 74
     1
 75
     0
 76
     0
 77
     0
 78
     0
170
     0
171
     2
172
     0
173
     0
174
     0
175
     0
176
     0
177
     0
178
     0
  0
DIMSTYLE
  2
23NSTDI
 70
    64
  3

  4

  5

  6

  7

 40
1.75
 41
0.18
 42
0.063
 43
0.281
 44
0.093
 45
0.0
 46
0.0
 47
0.0
 48
0.0
140
0.125
141
0.09
142
0.0
143
25.4
144
1.0
145
0.0
146
1.0
147
0.09
 71
     0
 72
     0
 73
     1
 74
     1
 75
     0
 76
     0
 77
     0
 78
     0
170
     0
171
     2
172
     0
173
     0
174
     1
175
     0
176
     0
177
     0
178
     0
  0
ENDTAB
  0
ENDSEC
  0
SECTION
  2
BLOCKS
  0
BLOCK
  8
0
  2
*D0
 70
    65
 10
0.0
 20
0.0
 30
0.0
  3
*D
  0
LINE
  8
0
  6
BYBLOCK
 62
     0
 10
11.322468
 20
18.244354
 30
0.0
 11
11.322468
 21
17.707165
 31
0.0
  0
LINE
  8
0
  6
BYBLOCK
 62
     0
 10
15.322468
 20
18.244354
 30
0.0
 11
15.322468
 21
17.707165
 31
0.0
  0
LINE
  8
0
  6
BYBLOCK
 62
     0
 10
11.637468
 20
17.869915
 30
0.0
 11
12.877858
 21
17.869915
 31
0.0
  0
LINE
  8
0
  6
BYBLOCK
 62
     0
 10
15.007468
 20
17.869915
 30
0.0
 11
13.767077
 21
17.869915
 31
0.0
  0
SOLID
  8
0
  6
BYBLOCK
 62
     0
 10
11.637468
 20
17.922415
 30
0.0
 11
11.637468
 21
17.817415
 31
0.0
 12
11.322468
 22
17.869915
 32
0.0
 13
11.322468
 23
17.869915
 33
0.0
  0
SOLID
  8
0
  6
BYBLOCK
 62
     0
 10
15.007468
 20
17.922415
 30
0.0
 11
15.007468
 21
17.817415
 31
0.0
 12
15.322468
 22
17.869915
 32
0.0
 13
15.322468
 23
17.869915
 33
0.0
  0
TEXT
  8
0
  6
BYBLOCK
 62
     0
 10
13.035358
 20
17.76054
 30
0.0
 40
0.21875
  1
4.000
 41
0.75
 72
     1
 11
13.322468
 21
17.869915
 31
0.0
 73
     2
  0
POINT
  8
DEFPOINTS
  6
BYBLOCK
 62
     0
 10
11.322468
 20
18.354604
 30
0.0
  0
POINT
  8
DEFPOINTS
  6
BYBLOCK
 62
     0
 10
15.322468
 20
18.354604
 30
0.0
  0
POINT
  8
DEFPOINTS
  6
BYBLOCK
 62
     0
 10
15.322468
 20
17.869915
 30
0.0
  0
ENDBLK
  8
0
  0
BLOCK
  8
0
  2
*D1
 70
    65
 10
0.0
 20
0.0
 30
0.0
  3
*D
  0
LINE
  8
0
  6
BYBLOCK
 62
     0
 10
7.362116
 20
18.244354
 30
0.0
 11
7.362116
 21
17.707165
 31
0.0
  0
LINE
  8
0
  6
BYBLOCK
 62
     0
 10
9.487116
 20
18.244354
 30
0.0
 11
9.487116
 21
17.707165
 31
0.0
  0
LINE
  8
0
  6
BYBLOCK
 62
     0
 10
7.677116
 20
17.869915
 30
0.0
 11
7.966335
 21
17.869915
 31
0.0
  0
LINE
  8
0
  6
BYBLOCK
 62
     0
 10
9.172116
 20
17.869915
 30
0.0
 11
8.882897
 21
17.869915
 31
0.0
  0
SOLID
  8
0
  6
BYBLOCK
 62
     0
 10
7.677116
 20
17.922415
 30
0.0
 11
7.677116
 21
17.817415
 31
0.0
 12
7.362116
 22
17.869915
 32
0.0
 13
7.362116
 23
17.869915
 33
0.0
  0
SOLID
  8
0
  6
BYBLOCK
 62
     0
 10
9.172116
 20
17.922415
 30
0.0
 11
9.172116
 21
17.817415
 31
0.0
 12
9.487116
 22
17.869915
 32
0.0
 13
9.487116
 23
17.869915
 33
0.0
  0
TEXT
  8
0
  6
BYBLOCK
 62
     0
 10
8.123835
 20
17.76054
 30
0.0
 40
0.21875
  1
2.125
 41
0.75
 72
     1
 11
8.424616
 21
17.869915
 31
0.0
 73
     2
  0
POINT
  8
DEFPOINTS
  6
BYBLOCK
 62
     0
 10
7.362116
 20
18.354604
 30
0.0
  0
POINT
  8
DEFPOINTS
  6
BYBLOCK
 62
     0
 10
9.487116
 20
18.354604
 30
0.0
  0
POINT
  8
DEFPOINTS
  6
BYBLOCK
 62
     0
 10
9.487116
 20
17.869915
 30
0.0
  0
ENDBLK
  8
0
  0
BLOCK
  8
0
  2
*D2
 70
    65
 10
0.0
 20
0.0
 30
0.0
  3
*D
  0
LINE
  8
0
  6
BYBLOCK
 62
     0
 10
9.597366
 20
18.354604
 30
0.0
 11
10.574111
 21
18.354604
 31
0.0
  0
LINE
  8
0
  6
BYBLOCK
 62
     0
 10
9.652366
 20
20.354604
 30
0.0
 11
10.574111
 21
20.354604
 31
0.0
  0
LINE
  8
0
  6
BYBLOCK
 62
     0
 10
10.411361
 20
18.669604
 30
0.0
 11
10.411361
 21
19.087729
 31
0.0
  0
LINE
  8
0
  6
BYBLOCK
 62
     0
 10
10.411361
 20
20.039604
 30
0.0
 11
10.411361
 21
19.621479
 31
0.0
  0
SOLID
  8
0
  6
BYBLOCK
 62
     0
 10
10.358861
 20
18.669604
 30
0.0
 11
10.463861
 21
18.669604
 31
0.0
 12
10.411361
 22
18.354604
 32
0.0
 13
10.411361
 23
18.354604
 33
0.0
  0
SOLID
  8
0
  6
BYBLOCK
 62
     0
 10
10.358861
 20
20.039604
 30
0.0
 11
10.463861
 21
20.039604
 31
0.0
 12
10.411361
 22
20.354604
 32
0.0
 13
10.411361
 23
20.354604
 33
0.0
  0
TEXT
  8
0
  6
BYBLOCK
 62
     0
 10
10.124251
 20
19.245229
 30
0.0
 40
0.21875
  1
2.000
 41
0.75
 72
     1
 11
10.411361
 21
19.354604
 31
0.0
 73
     2
  0
POINT
  8
DEFPOINTS
  6
BYBLOCK
 62
     0
 10
9.487116
 20
18.354604
 30
0.0
  0
POINT
  8
DEFPOINTS
  6
BYBLOCK
 62
     0
 10
9.542116
 20
20.354604
 30
0.0
  0
POINT
  8
DEFPOINTS
  6
BYBLOCK
 62
     0
 10
10.411361
 20
20.354604
 30
0.0
  0
ENDBLK
  8
0
  0
BLOCK
  8
0
  2
*D3
 70
    65
 10
0.0
 20
0.0
 30
0.0
  3
*D
  0
LINE
  8
0
  6
BYBLOCK
 62
     0
 10
9.612366
 20
20.284604
 30
0.0
 11
10.043258
 21
20.284604
 31
0.0
  0
LINE
  8
0
  6
BYBLOCK
 62
     0
 10
9.652366
 20
20.354604
 30
0.0
 11
10.043258
 21
20.354604
 31
0.0
  0
LINE
  8
0
  6
BYBLOCK
 62
     0
 10
9.880508
 20
19.969604
 30
0.0
 11
9.880508
 21
19.654604
 31
0.0
  0
LINE
  8
0
  6
BYBLOCK
 62
     0
 10
9.880508
 20
20.669604
 30
0.0
 11
9.880508
 21
20.984604
 31
0.0
  0
LINE
  8
0
  6
BYBLOCK
 62
     0
 10
9.880508
 20
20.984604
 30
0.0
 11
10.195508
 21
20.984604
 31
0.0
  0
SOLID
  8
0
  6
BYBLOCK
 62
     0
 10
9.828008
 20
19.969604
 30
0.0
 11
9.933008
 21
19.969604
 31
0.0
 12
9.880508
 22
20.284604
 32
0.0
 13
9.880508
 23
20.284604
 33
0.0
  0
SOLID
  8
0
  6
BYBLOCK
 62
     0
 10
9.828008
 20
20.669604
 30
0.0
 11
9.933008
 21
20.669604
 31
0.0
 12
9.880508
 22
20.354604
 32
0.0
 13
9.880508
 23
20.354604
 33
0.0
  0
TEXT
  8
0
  6
BYBLOCK
 62
     0
 10
10.353008
 20
20.875229
 30
0.0
 40
0.21875
  1
0.070
 41
0.75
 72
     1
 11
10.640117
 21
20.984604
 31
0.0
 73
     2
  0
POINT
  8
DEFPOINTS
  6
BYBLOCK
 62
     0
 10
9.502116
 20
20.284604
 30
0.0
  0
POINT
  8
DEFPOINTS
  6
BYBLOCK
 62
     0
 10
9.542116
 20
20.354604
 30
0.0
  0
POINT
  8
DEFPOINTS
  6
BYBLOCK
 62
     0
 10
9.880508
 20
20.354604
 30
0.0
  0
ENDBLK
  8
0
  0
BLOCK
  8
0
  2
*D4
 70
    65
 10
0.0
 20
0.0
 30
0.0
  3
*D
  0
LINE
  8
0
  6
BYBLOCK
 62
     0
 10
15.282113
 20
19.433602
 30
0.0
 11
15.283829
 21
19.495972
 31
0.0
  0
LINE
  8
0
  6
BYBLOCK
 62
     0
 10
15.352087
 20
19.431678
 30
0.0
 11
15.353802
 21
19.494048
 31
0.0
  0
LINE
  8
0
  6
BYBLOCK
 62
     0
 10
14.964474
 20
19.341943
 30
0.0
 11
14.649593
 21
19.350602
 31
0.0
  0
LINE
  8
0
  6
BYBLOCK
 62
     0
 10
15.664209
 20
19.3227
 30
0.0
 11
15.97909
 21
19.314041
 31
0.0
  0
SOLID
  8
0
  6
BYBLOCK
 62
     0
 10
14.965917
 20
19.394423
 30
0.0
 11
14.963031
 21
19.289463
 31
0.0
 12
15.279355
 22
19.333284
 32
0.0
 13
15.279355
 23
19.333284
 33
0.0
  0
SOLID
  8
0
  6
BYBLOCK
 62
     0
 10
15.665652
 20
19.37518
 30
0.0
 11
15.662766
 21
19.27022
 31
0.0
 12
15.349328
 22
19.331359
 32
0.0
 13
15.349328
 23
19.331359
 33
0.0
  0
TEXT
  8
0
  6
BYBLOCK
 62
     0
 10
16.765496
 20
19.204666
 30
0.0
 40
0.21875
  1
 TYP.
 41
0.75
 72
     1
 11
17.093621
 21
19.314041
 31
0.0
 73
     2
  0
TEXT
  8
0
  6
BYBLOCK
 62
     0
 10
16.13659
 20
19.204666
 30
0.0
 40
0.21875
  1
0.070
 41
0.75
 72
     1
 11
16.4237
 21
19.314041
 31
0.0
 73
     2
  0
POINT
  8
DEFPOINTS
  6
BYBLOCK
 62
     0
 10
15.279083
 20
19.323394
 30
0.0
  0
POINT
  8
DEFPOINTS
  6
BYBLOCK
 62
     0
 10
15.349056
 20
19.321469
 30
0.0
  0
POINT
  8
DEFPOINTS
  6
BYBLOCK
 62
     0
 10
15.349328
 20
19.331359
 30
0.0
  0
ENDBLK
  8
0
  0
BLOCK
  8
0
  2
*D5
 70
    65
 10
0.0
 20
0.0
 30
0.0
  3
*D
  0
LINE
  8
0
  6
BYBLOCK
 62
     0
 10
11.588468
 20
24.589608
 30
0.0
 11
11.588468
 21
25.974734
 31
0.0
  0
LINE
  8
0
  6
BYBLOCK
 62
     0
 10
15.056468
 20
24.589608
 30
0.0
 11
15.056468
 21
25.974734
 31
0.0
  0
LINE
  8
0
  6
BYBLOCK
 62
     0
 10
11.903468
 20
25.811984
 30
0.0
 11
12.836843
 21
25.811984
 31
0.0
  0
LINE
  8
0
  6
BYBLOCK
 62
     0
 10
14.741468
 20
25.811984
 30
0.0
 11
13.808093
 21
25.811984
 31
0.0
  0
SOLID
  8
0
  6
BYBLOCK
 62
     0
 10
11.903468
 20
25.864484
 30
0.0
 11
11.903468
 21
25.759484
 31
0.0
 12
11.588468
 22
25.811984
 32
0.0
 13
11.588468
 23
25.811984
 33
0.0
  0
SOLID
  8
0
  6
BYBLOCK
 62
     0
 10
14.741468
 20
25.864484
 30
0.0
 11
14.741468
 21
25.759484
 31
0.0
 12
15.056468
 22
25.811984
 32
0.0
 13
15.056468
 23
25.811984
 33
0.0
  0
TEXT
  8
0
  6
BYBLOCK
 62
     0
 10
12.994343
 20
25.702609
 30
0.0
 40
0.21875
  1
3.468
 41
0.75
 72
     1
 11
13.322468
 21
25.811984
 31
0.0
 73
     2
  0
POINT
  8
DEFPOINTS
  6
BYBLOCK
 62
     0
 10
11.588468
 20
24.479358
 30
0.0
  0
POINT
  8
DEFPOINTS
  6
BYBLOCK
 62
     0
 10
15.056468
 20
24.479358
 30
0.0
  0
POINT
  8
DEFPOINTS
  6
BYBLOCK
 62
     0
 10
15.056468
 20
25.811984
 30
0.0
  0
ENDBLK
  8
0
  0
BLOCK
  8
0
  2
*D7
 70
    65
 10
0.0
 20
0.0
 30
0.0
  3
*D
  0
LINE
  8
0
  6
BYBLOCK
 62
     0
 10
9.577866
 20
22.007228
 30
0.0
 11
10.083804
 21
22.007228
 31
0.0
  0
LINE
  8
0
  6
BYBLOCK
 62
     0
 10
9.614866
 20
22.092228
 30
0.0
 11
10.083804
 21
22.092228
 31
0.0
  0
LINE
  8
0
  6
BYBLOCK
 62
     0
 10
9.921054
 20
21.692228
 30
0.0
 11
9.921054
 21
21.377228
 31
0.0
  0
LINE
  8
0
  6
BYBLOCK
 62
     0
 10
9.921054
 20
22.407228
 30
0.0
 11
9.921054
 21
22.722228
 31
0.0
  0
LINE
  8
0
  6
BYBLOCK
 62
     0
 10
9.921054
 20
22.722228
 30
0.0
 11
10.236054
 21
22.722228
 31
0.0
  0
SOLID
  8
0
  6
BYBLOCK
 62
     0
 10
9.868554
 20
21.692228
 30
0.0
 11
9.973554
 21
21.692228
 31
0.0
 12
9.921054
 22
22.007228
 32
0.0
 13
9.921054
 23
22.007228
 33
0.0
  0
SOLID
  8
0
  6
BYBLOCK
 62
     0
 10
9.868554
 20
22.407228
 30
0.0
 11
9.973554
 21
22.407228
 31
0.0
 12
9.921054
 22
22.092228
 32
0.0
 13
9.921054
 23
22.092228
 33
0.0
  0
TEXT
  8
0
  6
BYBLOCK
 62
     0
 10
10.393554
 20
22.612853
 30
0.0
 40
0.21875
  1
0.085
 41
0.75
 72
     1
 11
10.694335
 21
22.722228
 31
0.0
 73
     2
  0
POINT
  8
DEFPOINTS
  6
BYBLOCK
 62
     0
 10
9.467616
 20
22.007228
 30
0.0
  0
POINT
  8
DEFPOINTS
  6
BYBLOCK
 62
     0
 10
9.504616
 20
22.092228
 30
0.0
  0
POINT
  8
DEFPOINTS
  6
BYBLOCK
 62
     0
 10
9.921054
 20
22.092228
 30
0.0
  0
ENDBLK
  8
0
  0
BLOCK
  8
0
  2
*D8
 70
    65
 10
0.0
 20
0.0
 30
0.0
  3
*D
  0
LINE
  8
0
  6
BYBLOCK
 62
     0
 10
11.322468
 20
4.118413
 30
0.0
 11
11.322468
 21
3.581224
 31
0.0
  0
LINE
  8
0
  6
BYBLOCK
 62
     0
 10
15.322468
 20
4.118413
 30
0.0
 11
15.322468
 21
3.581224
 31
0.0
  0
LINE
  8
0
  6
BYBLOCK
 62
     0
 10
11.637468
 20
3.743974
 30
0.0
 11
12.877858
 21
3.743974
 31
0.0
  0
LINE
  8
0
  6
BYBLOCK
 62
     0
 10
15.007468
 20
3.743974
 30
0.0
 11
13.767077
 21
3.743974
 31
0.0
  0
SOLID
  8
0
  6
BYBLOCK
 62
     0
 10
11.637468
 20
3.796474
 30
0.0
 11
11.637468
 21
3.691474
 31
0.0
 12
11.322468
 22
3.743974
 32
0.0
 13
11.322468
 23
3.743974
 33
0.0
  0
SOLID
  8
0
  6
BYBLOCK
 62
     0
 10
15.007468
 20
3.796474
 30
0.0
 11
15.007468
 21
3.691474
 31
0.0
 12
15.322468
 22
3.743974
 32
0.0
 13
15.322468
 23
3.743974
 33
0.0
  0
TEXT
  8
0
  6
BYBLOCK
 62
     0
 10
13.035358
 20
3.634599
 30
0.0
 40
0.21875
  1
4.000
 41
0.75
 72
     1
 11
13.322468
 21
3.743974
 31
0.0
 73
     2
  0
POINT
  8
DEFPOINTS
  6
BYBLOCK
 62
     0
 10
11.322468
 20
4.228663
 30
0.0
  0
POINT
  8
DEFPOINTS
  6
BYBLOCK
 62
     0
 10
15.322468
 20
4.228663
 30
0.0
  0
POINT
  8
DEFPOINTS
  6
BYBLOCK
 62
     0
 10
15.322468
 20
3.743974
 30
0.0
  0
ENDBLK
  8
0
  0
BLOCK
  8
0
  2
*D9
 70
    65
 10
0.0
 20
0.0
 30
0.0
  3
*D
  0
LINE
  8
0
  6
BYBLOCK
 62
     0
 10
7.362116
 20
4.118413
 30
0.0
 11
7.362116
 21
3.581224
 31
0.0
  0
LINE
  8
0
  6
BYBLOCK
 62
     0
 10
9.487116
 20
4.118413
 30
0.0
 11
9.487116
 21
3.581224
 31
0.0
  0
LINE
  8
0
  6
BYBLOCK
 62
     0
 10
7.677116
 20
3.743974
 30
0.0
 11
7.966335
 21
3.743974
 31
0.0
  0
LINE
  8
0
  6
BYBLOCK
 62
     0
 10
9.172116
 20
3.743974
 30
0.0
 11
8.882897
 21
3.743974
 31
0.0
  0
SOLID
  8
0
  6
BYBLOCK
 62
     0
 10
7.677116
 20
3.796474
 30
0.0
 11
7.677116
 21
3.691474
 31
0.0
 12
7.362116
 22
3.743974
 32
0.0
 13
7.362116
 23
3.743974
 33
0.0
  0
SOLID
  8
0
  6
BYBLOCK
 62
     0
 10
9.172116
 20
3.796474
 30
0.0
 11
9.172116
 21
3.691474
 31
0.0
 12
9.487116
 22
3.743974
 32
0.0
 13
9.487116
 23
3.743974
 33
0.0
  0
TEXT
  8
0
  6
BYBLOCK
 62
     0
 10
8.123835
 20
3.634599
 30
0.0
 40
0.21875
  1
2.125
 41
0.75
 72
     1
 11
8.424616
 21
3.743974
 31
0.0
 73
     2
  0
POINT
  8
DEFPOINTS
  6
BYBLOCK
 62
     0
 10
7.362116
 20
4.228663
 30
0.0
  0
POINT
  8
DEFPOINTS
  6
BYBLOCK
 62
     0
 10
9.487116
 20
4.228663
 30
0.0
  0
POINT
  8
DEFPOINTS
  6
BYBLOCK
 62
     0
 10
9.487116
 20
3.743974
 30
0.0
  0
ENDBLK
  8
0
  0
BLOCK
  8
0
  2
*D10
 70
    65
 10
0.0
 20
0.0
 30
0.0
  3
*D
  0
LINE
  8
0
  6
BYBLOCK
 62
     0
 10
9.597366
 20
4.228663
 30
0.0
 11
10.574111
 21
4.228663
 31
0.0
  0
LINE
  8
0
  6
BYBLOCK
 62
     0
 10
9.652366
 20
6.228663
 30
0.0
 11
10.574111
 21
6.228663
 31
0.0
  0
LINE
  8
0
  6
BYBLOCK
 62
     0
 10
10.411361
 20
4.543663
 30
0.0
 11
10.411361
 21
4.961788
 31
0.0
  0
LINE
  8
0
  6
BYBLOCK
 62
     0
 10
10.411361
 20
5.913663
 30
0.0
 11
10.411361
 21
5.495538
 31
0.0
  0
SOLID
  8
0
  6
BYBLOCK
 62
     0
 10
10.358861
 20
4.543663
 30
0.0
 11
10.463861
 21
4.543663
 31
0.0
 12
10.411361
 22
4.228663
 32
0.0
 13
10.411361
 23
4.228663
 33
0.0
  0
SOLID
  8
0
  6
BYBLOCK
 62
     0
 10
10.358861
 20
5.913663
 30
0.0
 11
10.463861
 21
5.913663
 31
0.0
 12
10.411361
 22
6.228663
 32
0.0
 13
10.411361
 23
6.228663
 33
0.0
  0
TEXT
  8
0
  6
BYBLOCK
 62
     0
 10
10.124251
 20
5.119288
 30
0.0
 40
0.21875
  1
2.000
 41
0.75
 72
     1
 11
10.411361
 21
5.228663
 31
0.0
 73
     2
  0
POINT
  8
DEFPOINTS
  6
BYBLOCK
 62
     0
 10
9.487116
 20
4.228663
 30
0.0
  0
POINT
  8
DEFPOINTS
  6
BYBLOCK
 62
     0
 10
9.542116
 20
6.228663
 30
0.0
  0
POINT
  8
DEFPOINTS
  6
BYBLOCK
 62
     0
 10
10.411361
 20
6.228663
 30
0.0
  0
ENDBLK
  8
0
  0
BLOCK
  8
0
  2
*D11
 70
    65
 10
0.0
 20
0.0
 30
0.0
  3
*D
  0
LINE
  8
0
  6
BYBLOCK
 62
     0
 10
9.612366
 20
6.158663
 30
0.0
 11
10.043258
 21
6.158663
 31
0.0
  0
LINE
  8
0
  6
BYBLOCK
 62
     0
 10
9.652366
 20
6.228663
 30
0.0
 11
10.043258
 21
6.228663
 31
0.0
  0
LINE
  8
0
  6
BYBLOCK
 62
     0
 10
9.880508
 20
5.843663
 30
0.0
 11
9.880508
 21
5.528663
 31
0.0
  0
LINE
  8
0
  6
BYBLOCK
 62
     0
 10
9.880508
 20
6.543663
 30
0.0
 11
9.880508
 21
6.858663
 31
0.0
  0
LINE
  8
0
  6
BYBLOCK
 62
     0
 10
9.880508
 20
6.858663
 30
0.0
 11
10.195508
 21
6.858663
 31
0.0
  0
SOLID
  8
0
  6
BYBLOCK
 62
     0
 10
9.828008
 20
5.843663
 30
0.0
 11
9.933008
 21
5.843663
 31
0.0
 12
9.880508
 22
6.158663
 32
0.0
 13
9.880508
 23
6.158663
 33
0.0
  0
SOLID
  8
0
  6
BYBLOCK
 62
     0
 10
9.828008
 20
6.543663
 30
0.0
 11
9.933008
 21
6.543663
 31
0.0
 12
9.880508
 22
6.228663
 32
0.0
 13
9.880508
 23
6.228663
 33
0.0
  0
TEXT
  8
0
  6
BYBLOCK
 62
     0
 10
10.353008
 20
6.749288
 30
0.0
 40
0.21875
  1
0.070
 41
0.75
 72
     1
 11
10.640117
 21
6.858663
 31
0.0
 73
     2
  0
POINT
  8
DEFPOINTS
  6
BYBLOCK
 62
     0
 10
9.502116
 20
6.158663
 30
0.0
  0
POINT
  8
DEFPOINTS
  6
BYBLOCK
 62
     0
 10
9.542116
 20
6.228663
 30
0.0
  0
POINT
  8
DEFPOINTS
  6
BYBLOCK
 62
     0
 10
9.880508
 20
6.228663
 30
0.0
  0
ENDBLK
  8
0
  0
BLOCK
  8
0
  2
*D12
 70
    65
 10
0.0
 20
0.0
 30
0.0
  3
*D
  0
LINE
  8
0
  6
BYBLOCK
 62
     0
 10
15.282113
 20
5.307661
 30
0.0
 11
15.283829
 21
5.370031
 31
0.0
  0
LINE
  8
0
  6
BYBLOCK
 62
     0
 10
15.352087
 20
5.305737
 30
0.0
 11
15.353802
 21
5.368107
 31
0.0
  0
LINE
  8
0
  6
BYBLOCK
 62
     0
 10
14.964474
 20
5.216002
 30
0.0
 11
14.649593
 21
5.224661
 31
0.0
  0
LINE
  8
0
  6
BYBLOCK
 62
     0
 10
15.664209
 20
5.196759
 30
0.0
 11
15.97909
 21
5.1881
 31
0.0
  0
SOLID
  8
0
  6
BYBLOCK
 62
     0
 10
14.965917
 20
5.268482
 30
0.0
 11
14.963031
 21
5.163522
 31
0.0
 12
15.279355
 22
5.207343
 32
0.0
 13
15.279355
 23
5.207343
 33
0.0
  0
SOLID
  8
0
  6
BYBLOCK
 62
     0
 10
15.665652
 20
5.249239
 30
0.0
 11
15.662766
 21
5.144279
 31
0.0
 12
15.349328
 22
5.205418
 32
0.0
 13
15.349328
 23
5.205418
 33
0.0
  0
TEXT
  8
0
  6
BYBLOCK
 62
     0
 10
16.765496
 20
5.078725
 30
0.0
 40
0.21875
  1
 TYP.
 41
0.75
 72
     1
 11
17.093621
 21
5.1881
 31
0.0
 73
     2
  0
TEXT
  8
0
  6
BYBLOCK
 62
     0
 10
16.13659
 20
5.078725
 30
0.0
 40
0.21875
  1
0.070
 41
0.75
 72
     1
 11
16.4237
 21
5.1881
 31
0.0
 73
     2
  0
POINT
  8
DEFPOINTS
  6
BYBLOCK
 62
     0
 10
15.279083
 20
5.197453
 30
0.0
  0
POINT
  8
DEFPOINTS
  6
BYBLOCK
 62
     0
 10
15.349056
 20
5.195528
 30
0.0
  0
POINT
  8
DEFPOINTS
  6
BYBLOCK
 62
     0
 10
15.349328
 20
5.205418
 30
0.0
  0
ENDBLK
  8
0
  0
BLOCK
  8
0
  2
*D13
 70
    65
 10
0.0
 20
0.0
 30
0.0
  3
*D
  0
LINE
  8
0
  6
BYBLOCK
 62
     0
 10
15.572468
 20
10.561076
 30
0.0
 11
15.572468
 21
8.93081
 31
0.0
  0
LINE
  8
0
  6
BYBLOCK
 62
     0
 10
11.072468
 20
10.561076
 30
0.0
 11
11.072468
 21
8.93081
 31
0.0
  0
LINE
  8
0
  6
BYBLOCK
 62
     0
 10
15.257468
 20
9.09356
 30
0.0
 11
13.780749
 21
9.09356
 31
0.0
  0
LINE
  8
0
  6
BYBLOCK
 62
     0
 10
11.387468
 20
9.09356
 30
0.0
 11
12.864186
 21
9.09356
 31
0.0
  0
SOLID
  8
0
  6
BYBLOCK
 62
     0
 10
15.257468
 20
9.14606
 30
0.0
 11
15.257468
 21
9.04106
 31
0.0
 12
15.572468
 22
9.09356
 32
0.0
 13
15.572468
 23
9.09356
 33
0.0
  0
SOLID
  8
0
  6
BYBLOCK
 62
     0
 10
11.387468
 20
9.14606
 30
0.0
 11
11.387468
 21
9.04106
 31
0.0
 12
11.072468
 22
9.09356
 32
0.0
 13
11.072468
 23
9.09356
 33
0.0
  0
TEXT
  8
0
  6
BYBLOCK
 62
     0
 10
13.021686
 20
8.984185
 30
0.0
 40
0.21875
  1
4.500
 41
0.75
 72
     1
 11
13.322468
 21
9.09356
 31
0.0
 73
     2
  0
POINT
  8
DEFPOINTS
  6
BYBLOCK
 62
     0
 10
15.572468
 20
10.671326
 30
0.0
  0
POINT
  8
DEFPOINTS
  6
BYBLOCK
 62
     0
 10
11.072468
 20
10.671326
 30
0.0
  0
POINT
  8
DEFPOINTS
  6
BYBLOCK
 62
     0
 10
11.072468
 20
9.09356
 30
0.0
  0
ENDBLK
  8
0
  0
BLOCK
  8
0
  2
*D14
 70
    65
 10
0.0
 20
0.0
 30
0.0
  3
*D
  0
LINE
  8
0
  6
BYBLOCK
 62
     0
 10
15.572468
 20
10.561076
 30
0.0
 11
15.572468
 21
8.93081
 31
0.0
  0
LINE
  8
0
  6
BYBLOCK
 62
     0
 10
15.759968
 20
10.561076
 30
0.0
 11
15.759968
 21
8.93081
 31
0.0
  0
LINE
  8
0
  6
BYBLOCK
 62
     0
 10
15.257468
 20
9.09356
 30
0.0
 11
14.942468
 21
9.09356
 31
0.0
  0
LINE
  8
0
  6
BYBLOCK
 62
     0
 10
16.074968
 20
9.09356
 30
0.0
 11
16.389968
 21
9.09356
 31
0.0
  0
SOLID
  8
0
  6
BYBLOCK
 62
     0
 10
15.257468
 20
9.14606
 30
0.0
 11
15.257468
 21
9.04106
 31
0.0
 12
15.572468
 22
9.09356
 32
0.0
 13
15.572468
 23
9.09356
 33
0.0
  0
SOLID
  8
0
  6
BYBLOCK
 62
     0
 10
16.074968
 20
9.14606
 30
0.0
 11
16.074968
 21
9.04106
 31
0.0
 12
15.759968
 22
9.09356
 32
0.0
 13
15.759968
 23
9.09356
 33
0.0
  0
TEXT
  8
0
  6
BYBLOCK
 62
     0
 10
16.547468
 20
8.984185
 30
0.0
 40
0.21875
  1
0.188
 41
0.75
 72
     1
 11
16.834577
 21
9.09356
 31
0.0
 73
     2
  0
POINT
  8
DEFPOINTS
  6
BYBLOCK
 62
     0
 10
15.572468
 20
10.671326
 30
0.0
  0
POINT
  8
DEFPOINTS
  6
BYBLOCK
 62
     0
 10
15.759968
 20
10.671326
 30
0.0
  0
POINT
  8
DEFPOINTS
  6
BYBLOCK
 62
     0
 10
15.759968
 20
9.09356
 30
0.0
  0
ENDBLK
  8
0
  0
BLOCK
  8
0
  2
*D15
 70
    65
 10
0.0
 20
0.0
 30
0.0
  3
*D
  0
LINE
  8
0
  6
BYBLOCK
 62
     0
 10
10.884968
 20
10.561076
 30
0.0
 11
10.884968
 21
8.388979
 31
0.0
  0
LINE
  8
0
  6
BYBLOCK
 62
     0
 10
15.759968
 20
10.561076
 30
0.0
 11
15.759968
 21
8.388979
 31
0.0
  0
LINE
  8
0
  6
BYBLOCK
 62
     0
 10
11.199968
 20
8.551729
 30
0.0
 11
12.836843
 21
8.551729
 31
0.0
  0
LINE
  8
0
  6
BYBLOCK
 62
     0
 10
15.444968
 20
8.551729
 30
0.0
 11
13.808093
 21
8.551729
 31
0.0
  0
SOLID
  8
0
  6
BYBLOCK
 62
     0
 10
11.199968
 20
8.604229
 30
0.0
 11
11.199968
 21
8.499229
 31
0.0
 12
10.884968
 22
8.551729
 32
0.0
 13
10.884968
 23
8.551729
 33
0.0
  0
SOLID
  8
0
  6
BYBLOCK
 62
     0
 10
15.444968
 20
8.604229
 30
0.0
 11
15.444968
 21
8.499229
 31
0.0
 12
15.759968
 22
8.551729
 32
0.0
 13
15.759968
 23
8.551729
 33
0.0
  0
TEXT
  8
0
  6
BYBLOCK
 62
     0
 10
12.994343
 20
8.442354
 30
0.0
 40
0.21875
  1
4.875
 41
0.75
 72
     1
 11
13.322468
 21
8.551729
 31
0.0
 73
     2
  0
POINT
  8
DEFPOINTS
  6
BYBLOCK
 62
     0
 10
10.884968
 20
10.671326
 30
0.0
  0
POINT
  8
DEFPOINTS
  6
BYBLOCK
 62
     0
 10
15.759968
 20
10.671326
 30
0.0
  0
POINT
  8
DEFPOINTS
  6
BYBLOCK
 62
     0
 10
15.759968
 20
8.551729
 30
0.0
  0
ENDBLK
  8
0
  0
BLOCK
  8
0
  2
*D16
 70
    65
 10
0.0
 20
0.0
 30
0.0
  3
*D
  0
LINE
  8
0
  6
BYBLOCK
 62
     0
 10
15.870218
 20
6.103663
 30
0.0
 11
16.293076
 21
6.103663
 31
0.0
  0
LINE
  8
0
  6
BYBLOCK
 62
     0
 10
15.870218
 20
6.228663
 30
0.0
 11
16.293076
 21
6.228663
 31
0.0
  0
LINE
  8
0
  6
BYBLOCK
 62
     0
 10
16.130326
 20
5.788663
 30
0.0
 11
16.130326
 21
5.473663
 31
0.0
  0
LINE
  8
0
  6
BYBLOCK
 62
     0
 10
16.130326
 20
6.543663
 30
0.0
 11
16.130326
 21
6.858663
 31
0.0
  0
LINE
  8
0
  6
BYBLOCK
 62
     0
 10
16.130326
 20
6.858663
 30
0.0
 11
16.445326
 21
6.858663
 31
0.0
  0
SOLID
  8
0
  6
BYBLOCK
 62
     0
 10
16.077826
 20
5.788663
 30
0.0
 11
16.182826
 21
5.788663
 31
0.0
 12
16.130326
 22
6.103663
 32
0.0
 13
16.130326
 23
6.103663
 33
0.0
  0
SOLID
  8
0
  6
BYBLOCK
 62
     0
 10
16.077826
 20
6.543663
 30
0.0
 11
16.182826
 21
6.543663
 31
0.0
 12
16.130326
 22
6.228663
 32
0.0
 13
16.130326
 23
6.228663
 33
0.0
  0
TEXT
  8
0
  6
BYBLOCK
 62
     0
 10
16.602826
 20
6.749288
 30
0.0
 40
0.21875
  1
0.125
 41
0.75
 72
     1
 11
16.889935
 21
6.858663
 31
0.0
 73
     2
  0
POINT
  8
DEFPOINTS
  6
BYBLOCK
 62
     0
 10
15.759968
 20
6.103663
 30
0.0
  0
POINT
  8
DEFPOINTS
  6
BYBLOCK
 62
     0
 10
15.759968
 20
6.228663
 30
0.0
  0
POINT
  8
DEFPOINTS
  6
BYBLOCK
 62
     0
 10
16.130326
 20
6.228663
 30
0.0
  0
ENDBLK
  8
0
  0
BLOCK
  8
0
  2
*D17
 70
    65
 10
0.0
 20
0.0
 30
0.0
  3
*D
  0
LINE
  8
0
  6
BYBLOCK
 62
     0
 10
11.588468
 20
11.578576
 30
0.0
 11
11.588468
 21
12.963702
 31
0.0
  0
LINE
  8
0
  6
BYBLOCK
 62
     0
 10
15.056468
 20
11.578576
 30
0.0
 11
15.056468
 21
12.963702
 31
0.0
  0
LINE
  8
0
  6
BYBLOCK
 62
     0
 10
11.903468
 20
12.800952
 30
0.0
 11
12.836843
 21
12.800952
 31
0.0
  0
LINE
  8
0
  6
BYBLOCK
 62
     0
 10
14.741468
 20
12.800952
 30
0.0
 11
13.808093
 21
12.800952
 31
0.0
  0
SOLID
  8
0
  6
BYBLOCK
 62
     0
 10
11.903468
 20
12.853452
 30
0.0
 11
11.903468
 21
12.748452
 31
0.0
 12
11.588468
 22
12.800952
 32
0.0
 13
11.588468
 23
12.800952
 33
0.0
  0
SOLID
  8
0
  6
BYBLOCK
 62
     0
 10
14.741468
 20
12.853452
 30
0.0
 11
14.741468
 21
12.748452
 31
0.0
 12
15.056468
 22
12.800952
 32
0.0
 13
15.056468
 23
12.800952
 33
0.0
  0
TEXT
  8
0
  6
BYBLOCK
 62
     0
 10
12.994343
 20
12.691577
 30
0.0
 40
0.21875
  1
3.468
 41
0.75
 72
     1
 11
13.322468
 21
12.800952
 31
0.0
 73
     2
  0
POINT
  8
DEFPOINTS
  6
BYBLOCK
 62
     0
 10
11.588468
 20
11.468326
 30
0.0
  0
POINT
  8
DEFPOINTS
  6
BYBLOCK
 62
     0
 10
15.056468
 20
11.468326
 30
0.0
  0
POINT
  8
DEFPOINTS
  6
BYBLOCK
 62
     0
 10
15.056468
 20
12.800952
 30
0.0
  0
ENDBLK
  8
0
  0
BLOCK
  8
0
  2
*D19
 70
    65
 10
0.0
 20
0.0
 30
0.0
  3
*D
  0
LINE
  8
0
  6
BYBLOCK
 62
     0
 10
7.271366
 20
7.885939
 30
0.0
 11
6.765428
 21
7.885939
 31
0.0
  0
LINE
  8
0
  6
BYBLOCK
 62
     0
 10
7.234366
 20
7.970939
 30
0.0
 11
6.765428
 21
7.970939
 31
0.0
  0
LINE
  8
0
  6
BYBLOCK
 62
     0
 10
6.928178
 20
7.570939
 30
0.0
 11
6.928178
 21
7.255939
 31
0.0
  0
LINE
  8
0
  6
BYBLOCK
 62
     0
 10
6.928178
 20
8.285939
 30
0.0
 11
6.928178
 21
8.600939
 31
0.0
  0
LINE
  8
0
  6
BYBLOCK
 62
     0
 10
6.928178
 20
8.600939
 30
0.0
 11
7.243178
 21
8.600939
 31
0.0
  0
SOLID
  8
0
  6
BYBLOCK
 62
     0
 10
6.875678
 20
7.570939
 30
0.0
 11
6.980678
 21
7.570939
 31
0.0
 12
6.928178
 22
7.885939
 32
0.0
 13
6.928178
 23
7.885939
 33
0.0
  0
SOLID
  8
0
  6
BYBLOCK
 62
     0
 10
6.875678
 20
8.285939
 30
0.0
 11
6.980678
 21
8.285939
 31
0.0
 12
6.928178
 22
7.970939
 32
0.0
 13
6.928178
 23
7.970939
 33
0.0
  0
TEXT
  8
0
  6
BYBLOCK
 62
     0
 10
7.400678
 20
8.491564
 30
0.0
 40
0.21875
  1
0.085
 41
0.75
 72
     1
 11
7.70146
 21
8.600939
 31
0.0
 73
     2
  0
POINT
  8
DEFPOINTS
  6
BYBLOCK
 62
     0
 10
7.381616
 20
7.885939
 30
0.0
  0
POINT
  8
DEFPOINTS
  6
BYBLOCK
 62
     0
 10
7.344616
 20
7.970939
 30
0.0
  0
POINT
  8
DEFPOINTS
  6
BYBLOCK
 62
     0
 10
6.928178
 20
7.970939
 30
0.0
  0
ENDBLK
  8
0
  0
BLOCK
  8
0
  2
*D21
 70
    65
 10
0.0
 20
0.0
 30
0.0
  3
*D
  0
LINE
  8
0
  6
BYBLOCK
 62
     0
 10
15.056468
 20
24.589608
 30
0.0
 11
15.056468
 21
25.441467
 31
0.0
  0
LINE
  8
0
  6
BYBLOCK
 62
     0
 10
13.322468
 20
23.905108
 30
0.0
 11
13.322468
 21
25.441467
 31
0.0
  0
LINE
  8
0
  6
BYBLOCK
 62
     0
 10
15.371468
 20
25.278717
 30
0.0
 11
15.686468
 21
25.278717
 31
0.0
  0
LINE
  8
0
  6
BYBLOCK
 62
     0
 10
13.007468
 20
25.278717
 30
0.0
 11
12.692468
 21
25.278717
 31
0.0
  0
SOLID
  8
0
  6
BYBLOCK
 62
     0
 10
15.371468
 20
25.331217
 30
0.0
 11
15.371468
 21
25.226217
 31
0.0
 12
15.056468
 22
25.278717
 32
0.0
 13
15.056468
 23
25.278717
 33
0.0
  0
SOLID
  8
0
  6
BYBLOCK
 62
     0
 10
13.007468
 20
25.331217
 30
0.0
 11
13.007468
 21
25.226217
 31
0.0
 12
13.322468
 22
25.278717
 32
0.0
 13
13.322468
 23
25.278717
 33
0.0
  0
TEXT
  8
0
  6
BYBLOCK
 62
     0
 10
13.888686
 20
25.169342
 30
0.0
 40
0.21875
  1
1.734
 41
0.75
 72
     1
 11
14.189468
 21
25.278717
 31
0.0
 73
     2
  0
POINT
  8
DEFPOINTS
  6
BYBLOCK
 62
     0
 10
15.056468
 20
24.479358
 30
0.0
  0
POINT
  8
DEFPOINTS
  6
BYBLOCK
 62
     0
 10
13.322468
 20
23.794858
 30
0.0
  0
POINT
  8
DEFPOINTS
  6
BYBLOCK
 62
     0
 10
13.322468
 20
25.278717
 30
0.0
  0
ENDBLK
  8
0
  0
BLOCK
  8
0
  2
*D23
 70
    65
 10
0.0
 20
0.0
 30
0.0
  3
*D
  0
LINE
  8
0
  6
BYBLOCK
 62
     0
 10
15.056468
 20
11.578576
 30
0.0
 11
15.056468
 21
12.430435
 31
0.0
  0
LINE
  8
0
  6
BYBLOCK
 62
     0
 10
13.322468
 20
10.894076
 30
0.0
 11
13.322468
 21
12.430435
 31
0.0
  0
LINE
  8
0
  6
BYBLOCK
 62
     0
 10
15.371468
 20
12.267685
 30
0.0
 11
15.686468
 21
12.267685
 31
0.0
  0
LINE
  8
0
  6
BYBLOCK
 62
     0
 10
13.007468
 20
12.267685
 30
0.0
 11
12.692468
 21
12.267685
 31
0.0
  0
SOLID
  8
0
  6
BYBLOCK
 62
     0
 10
15.371468
 20
12.320185
 30
0.0
 11
15.371468
 21
12.215185
 31
0.0
 12
15.056468
 22
12.267685
 32
0.0
 13
15.056468
 23
12.267685
 33
0.0
  0
SOLID
  8
0
  6
BYBLOCK
 62
     0
 10
13.007468
 20
12.320185
 30
0.0
 11
13.007468
 21
12.215185
 31
0.0
 12
13.322468
 22
12.267685
 32
0.0
 13
13.322468
 23
12.267685
 33
0.0
  0
TEXT
  8
0
  6
BYBLOCK
 62
     0
 10
13.888686
 20
12.15831
 30
0.0
 40
0.21875
  1
1.734
 41
0.75
 72
     1
 11
14.189468
 21
12.267685
 31
0.0
 73
     2
  0
POINT
  8
DEFPOINTS
  6
BYBLOCK
 62
     0
 10
15.056468
 20
11.468326
 30
0.0
  0
POINT
  8
DEFPOINTS
  6
BYBLOCK
 62
     0
 10
13.322468
 20
10.783826
 30
0.0
  0
POINT
  8
DEFPOINTS
  6
BYBLOCK
 62
     0
 10
13.322468
 20
12.267685
 30
0.0
  0
ENDBLK
  8
0
  0
ENDSEC
  0
SECTION
  2
ENTITIES
  0
TEXT
  8
TEXT
 10
0.463969
 20
26.355139
 30
0.0
 40
0.21875
  1
NAME
 41
0.75
 72
     1
 11
0.76475
 21
26.355139
 31
0.0
  0
TEXT
  8
TEXT
 10
0.463969
 20
26.719722
 30
0.0
 40
0.21875
  1
PART
 41
0.75
 72
     1
 11
0.76475
 21
26.719722
 31
0.0
  0
TEXT
  8
TEXT
 10
9.455687
 20
26.355139
 30
0.0
 40
0.21875
  1
No.
 41
0.75
 72
     1
 11
9.61975
 21
26.355139
 31
0.0
  0
TEXT
  8
TEXT
 10
9.318969
 20
26.719722
 30
0.0
 40
0.21875
  1
PART
 41
0.75
 72
     1
 11
9.61975
 21
26.719722
 31
0.0
  0
LINE
  8
TITLE
 10
10.276
 20
27.0165
 30
0.0
 11
10.276
 21
26.285
 31
0.0
  0
LINE
  8
TITLE
 10
8.9635
 20
27.0165
 30
0.0
 11
8.9635
 21
26.285
 31
0.0
  0
LINE
  8
TITLE
 10
8.855
 20
27.0165
 30
0.0
 11
8.855
 21
26.285
 31
0.0
  0
LINE
  8
TITLE
 10
1.421
 20
26.285
 30
0.0
 11
1.421
 21
27.0165
 31
0.0
  0
LINE
  8
TITLE
 10
0.1085
 20
26.285
 30
0.0
 11
17.6015
 21
26.285
 31
0.0
  0
LINE
  8
TITLE
 10
17.6015
 20
0.1085
 30
0.0
 11
0.1085
 21
0.1085
 31
0.0
  0
LINE
  8
TITLE
 10
17.6015
 20
27.0165
 30
0.0
 11
17.6015
 21
14.221907
 31
0.0
  0
LINE
  8
TITLE
 10
0.1085
 20
27.0165
 30
0.0
 11
17.6015
 21
27.0165
 31
0.0
  0
LINE
  8
TITLE
 10
0.1085
 20
0.1085
 30
0.0
 11
0.1085
 21
14.113407
 31
0.0
  0
LINE
  8
TITLE
 10
0.0
 20
0.0
 30
0.0
 11
0.0
 21
27.125
 31
0.0
  0
LINE
  8
TITLE
 10
17.71
 20
0.0
 30
0.0
 11
0.0
 21
0.0
 31
0.0
  0
LINE
  8
TITLE
 10
17.71
 20
27.125
 30
0.0
 11
17.71
 21
0.0
 31
0.0
  0
LINE
  8
TITLE
 10
0.0
 20
27.125
 30
0.0
 11
17.71
 21
27.125
 31
0.0
  0
LINE
  8
TITLE
 10
0.1085
 20
14.221907
 30
0.0
 11
17.6015
 21
14.221907
 31
0.0
  0
LINE
  8
TITLE
 10
0.1085
 20
14.113407
 30
0.0
 11
17.6015
 21
14.113407
 31
0.0
  0
LINE
  8
TITLE
 10
0.1085
 20
13.381907
 30
0.0
 11
17.6015
 21
13.381907
 31
0.0
  0
LINE
  8
TITLE
 10
1.421
 20
13.381907
 30
0.0
 11
1.421
 21
14.113407
 31
0.0
  0
LINE
  8
TITLE
 10
8.855
 20
14.113407
 30
0.0
 11
8.855
 21
13.381907
 31
0.0
  0
LINE
  8
TITLE
 10
8.9635
 20
14.113407
 30
0.0
 11
8.9635
 21
13.381907
 31
0.0
  0
LINE
  8
TITLE
 10
10.276
 20
14.113407
 30
0.0
 11
10.276
 21
13.381907
 31
0.0
  0
TEXT
  8
TEXT
 10
9.318969
 20
13.816629
 30
0.0
 40
0.21875
  1
PART
 41
0.75
 72
     1
 11
9.61975
 21
13.816629
 31
0.0
  0
TEXT
  8
TEXT
 10
9.455687
 20
13.452046
 30
0.0
 40
0.21875
  1
No.
 41
0.75
 72
     1
 11
9.61975
 21
13.452046
 31
0.0
  0
TEXT
  8
TEXT
 10
0.463969
 20
13.816629
 30
0.0
 40
0.21875
  1
PART
 41
0.75
 72
     1
 11
0.76475
 21
13.816629
 31
0.0
  0
TEXT
  8
TEXT
 10
0.463969
 20
13.452046
 30
0.0
 40
0.21875
  1
NAME
 41
0.75
 72
     1
 11
0.76475
 21
13.452046
 31
0.0
  0
LINE
  8
TITLE
 10
0.1085
 20
14.221907
 30
0.0
 11
0.1085
 21
27.0165
 31
0.0
  0
LINE
  8
TITLE
 10
17.6015
 20
14.113407
 30
0.0
 11
17.6015
 21
0.1085
 31
0.0
  0
TEXT
  8
TEXT
 10
3.010875
 20
26.487125
 30
0.0
 40
0.32725
  1
UTILIBOX  (STYLE E)
 41
0.75
 72
     1
 11
5.138
 21
26.487125
 31
0.0
  0
TEXT
  8
DIM
 10
7.370726
 20
12.563731
 30
0.0
 40
0.125
  1

  0
TEXT
  8
TEXT
 10
0.503443
 20
25.318365
 30
0.0
 40
0.21875
  1
ABS THERMOPLASTIC
 41
0.75
  0
TEXT
  8
TEXT
 10
0.865391
 20
24.589199
 30
0.0
 40
0.21875
  1
0.070" THICKNESS AND CONTINUOUS
 41
0.75
  0
TEXT
  8
TEXT
 10
0.865391
 20
24.224615
 30
0.0
 40
0.21875
  1
USE TEMPERATURE OF 70%%D C.)
 41
0.75
  0
TEXT
  8
DIM
 10
7.568744
 20
4.97796
 30
0.0
 40
0.125
  1

  0
TEXT
  8
DIM
 10
2.627484
 20
1.084484
 30
0.0
 40
0.125
  1

  0
TEXT
  8
TEXT
 10
0.328333
 20
20.592709
 30
0.0
 40
0.21875
  1
COVER REDUCES INSIDE HEIGHT BY 0.085.
 41
0.75
  0
TEXT
  8
TEXT
 10
0.328333
 20
19.864709
 30
0.0
 40
0.21875
  1
LENGTH AND WIDTH DIMENSIONS ARE
 41
0.75
  0
TEXT
  8
TEXT
 10
0.328333
 20
19.500126
 30
0.0
 40
0.21875
  1
TAKEN FROM CLOSED END OF THE BOX.
 41
0.75
  0
TEXT
  8
TEXT
 10
0.328333
 20
19.135542
 30
0.0
 40
0.21875
  1
DIMENSIONS INCREASE SLIGHTLY AT
 41
0.75
  0
TEXT
  8
TEXT
 10
0.328333
 20
18.770959
 30
0.0
 40
0.21875
  1
OPEN END DUE TO TAPER.
 41
0.75
  0
LINE
  8
OBJECT
 10
11.267468
 20
20.354604
 30
0.0
 11
15.377468
 21
20.354604
 31
0.0
  0
LINE
  8
OBJECT
 10
15.231017
 20
18.354604
 30
0.0
 11
11.413918
 21
18.354604
 31
0.0
  0
LINE
  8
OBJECT
 10
15.324981
 20
18.44602
 30
0.0
 11
15.377468
 21
20.354604
 31
0.0
  0
LINE
  8
HIDDEN
 10
11.390569
 20
18.424604
 30
0.0
 11
11.339419
 21
20.284604
 31
0.0
  0
LINE
  8
HIDDEN
 10
15.254366
 20
18.424604
 30
0.0
 11
11.390569
 21
18.424604
 31
0.0
  0
LINE
  8
HIDDEN
 10
15.254366
 20
18.424604
 30
0.0
 11
15.305516
 21
20.284604
 31
0.0
  0
ARC
  8
OBJECT
 10
11.413918
 20
18.448604
 30
0.0
 40
0.094
 50
181.575237
 51
270.0
  0
ARC
  8
OBJECT
 10
15.231017
 20
18.448604
 30
0.0
 40
0.094
 50
270.0
 51
358.424763
  0
LINE
  8
OBJECT
 10
11.319954
 20
18.44602
 30
0.0
 11
11.267468
 21
20.354604
 31
0.0
  0
POLYLINE
  8
DIM
 66
     1
 10
0.0
 20
0.0
 30
0.0
  0
VERTEX
  8
DIM
 10
11.358737
 20
18.354604
 30
0.0
  0
VERTEX
  8
DIM
 10
11.322468
 20
18.354604
 30
0.0
  0
VERTEX
  8
DIM
 10
11.32147
 20
18.39086
 30
0.0
  0
SEQEND
  8
DIM
  0
POLYLINE
  8
DIM
 66
     1
 10
0.0
 20
0.0
 30
0.0
  0
VERTEX
  8
DIM
 10
15.286198
 20
18.354604
 30
0.0
  0
VERTEX
  8
DIM
 10
15.322468
 20
18.354604
 30
0.0
  0
VERTEX
  8
DIM
 10
15.323465
 20
18.39086
 30
0.0
  0
SEQEND
  8
DIM
  0
LINE
  8
HIDDEN
 10
11.307468
 20
20.284604
 30
0.0
 11
15.337468
 21
20.284604
 31
0.0
  0
LINE
  8
HIDDEN
 10
7.347116
 20
20.284604
 30
0.0
 11
9.502116
 21
20.284604
 31
0.0
  0
LINE
  8
HIDDEN
 10
7.430217
 20
18.424604
 30
0.0
 11
7.379067
 21
20.284604
 31
0.0
  0
ARC
  8
OBJECT
 10
7.453567
 20
18.448604
 30
0.0
 40
0.094
 50
181.575237
 51
270.0
  0
LINE
  8
OBJECT
 10
7.307116
 20
20.354604
 30
0.0
 11
9.542116
 21
20.354604
 31
0.0
  0
LINE
  8
OBJECT
 10
7.359602
 20
18.44602
 30
0.0
 11
7.307116
 21
20.354604
 31
0.0
  0
POLYLINE
  8
DIM
 66
     1
 10
0.0
 20
0.0
 30
0.0
  0
VERTEX
  8
DIM
 10
7.398385
 20
18.354604
 30
0.0
  0
VERTEX
  8
DIM
 10
7.362116
 20
18.354604
 30
0.0
  0
VERTEX
  8
DIM
 10
7.361119
 20
18.39086
 30
0.0
  0
SEQEND
  8
DIM
  0
LINE
  8
HIDDEN
 10
9.419015
 20
18.424604
 30
0.0
 11
9.470165
 21
20.284604
 31
0.0
  0
LINE
  8
OBJECT
 10
9.48963
 20
18.44602
 30
0.0
 11
9.542116
 21
20.354604
 31
0.0
  0
LINE
  8
OBJECT
 10
9.395665
 20
18.354604
 30
0.0
 11
7.453567
 21
18.354604
 31
0.0
  0
LINE
  8
HIDDEN
 10
9.419015
 20
18.424604
 30
0.0
 11
7.430217
 21
18.424604
 31
0.0
  0
POLYLINE
  8
DIM
 66
     1
 10
0.0
 20
0.0
 30
0.0
  0
VERTEX
  8
DIM
 10
9.450847
 20
18.354604
 30
0.0
  0
VERTEX
  8
DIM
 10
9.487116
 20
18.354604
 30
0.0
  0
VERTEX
  8
DIM
 10
9.488113
 20
18.39086
 30
0.0
  0
SEQEND
  8
DIM
  0
ARC
  8
OBJECT
 10
9.395665
 20
18.448604
 30
0.0
 40
0.094
 50
270.0
 51
358.424763
  0
LINE
  8
HIDDEN
 10
7.347116
 20
20.284604
 30
0.0
 11
7.347116
 21
20.354604
 31
0.0
  0
LINE
  8
HIDDEN
 10
9.502116
 20
20.284604
 30
0.0
 11
9.502116
 21
20.354604
 31
0.0
  0
LINE
  8
HIDDEN
 10
11.307468
 20
20.284604
 30
0.0
 11
11.307468
 21
20.354604
 31
0.0
  0
LINE
  8
HIDDEN
 10
15.337468
 20
20.284604
 30
0.0
 11
15.337468
 21
20.354604
 31
0.0
  0
POLYLINE
  8
OBJECT
 66
     1
 10
0.0
 20
0.0
 30
0.0
 70
     1
  0
VERTEX
  8
OBJECT
 10
15.283468
 20
24.759858
 30
0.0
  0
VERTEX
  8
OBJECT
 10
11.361468
 20
24.759858
 30
0.0
 42
0.414214
  0
VERTEX
  8
OBJECT
 10
11.307468
 20
24.705858
 30
0.0
  0
VERTEX
  8
OBJECT
 10
11.307468
 20
22.658858
 30
0.0
 42
0.414214
  0
VERTEX
  8
OBJECT
 10
11.361468
 20
22.604858
 30
0.0
  0
VERTEX
  8
OBJECT
 10
15.283468
 20
22.604858
 30
0.0
 42
0.414214
  0
VERTEX
  8
OBJECT
 10
15.337468
 20
22.658858
 30
0.0
  0
VERTEX
  8
OBJECT
 10
15.337468
 20
24.705858
 30
0.0
 42
0.414214
  0
SEQEND
  8
OBJECT
  0
POLYLINE
  8
OBJECT
 66
     1
 10
0.0
 20
0.0
 30
0.0
 70
     1
  0
VERTEX
  8
OBJECT
 10
15.283468
 20
24.727858
 30
0.0
  0
VERTEX
  8
OBJECT
 10
11.361468
 20
24.727858
 30
0.0
 42
0.414214
  0
VERTEX
  8
OBJECT
 10
11.339468
 20
24.705858
 30
0.0
  0
VERTEX
  8
OBJECT
 10
11.339468
 20
22.658858
 30
0.0
 42
0.414214
  0
VERTEX
  8
OBJECT
 10
11.361468
 20
22.636858
 30
0.0
  0
VERTEX
  8
OBJECT
 10
15.283468
 20
22.636858
 30
0.0
 42
0.414214
  0
VERTEX
  8
OBJECT
 10
15.305468
 20
22.658858
 30
0.0
  0
VERTEX
  8
OBJECT
 10
15.305468
 20
24.705858
 30
0.0
 42
0.414214
  0
SEQEND
  8
OBJECT
  0
POLYLINE
  8
OBJECT
 66
     1
 10
0.0
 20
0.0
 30
0.0
 70
     1
  0
VERTEX
  8
OBJECT
 10
15.283468
 20
16.964472
 30
0.0
  0
VERTEX
  8
OBJECT
 10
11.361468
 20
16.964472
 30
0.0
 42
0.414214
  0
VERTEX
  8
OBJECT
 10
11.267468
 20
16.870472
 30
0.0
  0
VERTEX
  8
OBJECT
 10
11.267468
 20
14.823472
 30
0.0
 42
0.414214
  0
VERTEX
  8
OBJECT
 10
11.361468
 20
14.729472
 30
0.0
  0
VERTEX
  8
OBJECT
 10
15.283468
 20
14.729472
 30
0.0
 42
0.414214
  0
VERTEX
  8
OBJECT
 10
15.377468
 20
14.823472
 30
0.0
  0
VERTEX
  8
OBJECT
 10
15.377468
 20
16.870472
 30
0.0
 42
0.414214
  0
SEQEND
  8
OBJECT
  0
POLYLINE
  8
OBJECT
 66
     1
 10
0.0
 20
0.0
 30
0.0
 70
     1
  0
VERTEX
  8
OBJECT
 10
15.228468
 20
14.784472
 30
0.0
  0
VERTEX
  8
OBJECT
 10
11.416468
 20
14.784472
 30
0.0
 42
-0.414214
  0
VERTEX
  8
OBJECT
 10
11.322468
 20
14.878472
 30
0.0
  0
VERTEX
  8
OBJECT
 10
11.322468
 20
16.815472
 30
0.0
 42
-0.414214
  0
VERTEX
  8
OBJECT
 10
11.416468
 20
16.909472
 30
0.0
  0
VERTEX
  8
OBJECT
 10
15.228468
 20
16.909472
 30
0.0
 42
-0.414214
  0
VERTEX
  8
OBJECT
 10
15.322468
 20
16.815472
 30
0.0
  0
VERTEX
  8
OBJECT
 10
15.322468
 20
14.878472
 30
0.0
 42
-0.414214
  0
SEQEND
  8
OBJECT
  0
DIMENSION
  8
DIM
  2
*D0
 10
15.322468
 20
17.869915
 30
0.0
 11
13.322468
 21
17.869915
 31
0.0
 13
11.322468
 23
18.354604
 33
0.0
 14
15.322468
 24
18.354604
 34
0.0
  3
23NSTD
  0
DIMENSION
  8
DIM
  2
*D1
 10
9.487116
 20
17.869915
 30
0.0
 11
8.424616
 21
17.869915
 31
0.0
 13
7.362116
 23
18.354604
 33
0.0
 14
9.487116
 24
18.354604
 34
0.0
  3
23NSTD
  0
DIMENSION
  8
DIM
  2
*D2
 10
10.411361
 20
20.354604
 30
0.0
 11
10.411361
 21
19.354604
 31
0.0
 13
9.487116
 23
18.354604
 33
0.0
 14
9.542116
 24
20.354604
 34
0.0
 50
90.0
  3
23NSTD
  0
DIMENSION
  8
DIM
  2
*D3
 10
9.880508
 20
20.354604
 30
0.0
 11
10.640117
 21
20.984604
 31
0.0
 13
9.502116
 23
20.284604
 33
0.0
 14
9.542116
 24
20.354604
 34
0.0
 50
90.0
  3
23NSTD
  0
DIMENSION
  8
DIM
  2
*D4
 10
15.349328
 20
19.331359
 30
0.0
 11
16.779168
 21
19.314041
 31
0.0
 70
     1
  1
<> TYP.
 13
15.279083
 23
19.323394
 33
0.0
 14
15.349056
 24
19.321469
 34
0.0
  3
23NSTD
  0
CIRCLE
  8
OBJECT
 10
11.588468
 20
24.479358
 30
0.0
 40
0.109
  0
CIRCLE
  8
OBJECT
 10
11.588468
 20
24.479358
 30
0.0
 40
0.042
  0
LINE
  8
OBJECT
 10
11.536375
 20
24.575104
 30
0.0
 11
11.387045
 21
24.724057
 31
0.0
  0
LINE
  8
OBJECT
 10
11.49259
 20
24.531208
 30
0.0
 11
11.343269
 21
24.680152
 31
0.0
  0
LINE
  8
HIDDEN
 10
11.479468
 20
20.194604
 30
0.0
 11
11.697468
 21
20.194604
 31
0.0
  0
LINE
  8
HIDDEN
 10
11.343269
 20
20.144604
 30
0.0
 11
11.479468
 21
20.144604
 31
0.0
  0
LINE
  8
HIDDEN
 10
11.697468
 20
20.194604
 30
0.0
 11
11.697468
 21
18.424604
 31
0.0
  0
LINE
  8
HIDDEN
 10
11.479468
 20
20.194604
 30
0.0
 11
11.479468
 21
18.424604
 31
0.0
  0
LINE
  8
OBJECT
 10
11.536375
 20
22.789612
 30
0.0
 11
11.387045
 21
22.64066
 31
0.0
  0
LINE
  8
OBJECT
 10
11.49259
 20
22.833508
 30
0.0
 11
11.343269
 21
22.684564
 31
0.0
  0
CIRCLE
  8
OBJECT
 10
11.588468
 20
22.885358
 30
0.0
 40
0.109
  0
CIRCLE
  8
OBJECT
 10
11.588468
 20
22.885358
 30
0.0
 40
0.042
  0
POLYLINE
  8
OBJECT
 66
     1
 10
0.0
 20
0.0
 30
0.0
  0
VERTEX
  8
OBJECT
 10
11.390569
 20
24.632971
 30
0.0
  0
VERTEX
  8
OBJECT
 10
11.390569
 20
22.731745
 30
0.0
  0
SEQEND
  8
OBJECT
  0
LINE
  8
HIDDEN
 10
14.947468
 20
20.194604
 30
0.0
 11
14.947468
 21
18.424604
 31
0.0
  0
LINE
  8
HIDDEN
 10
15.165468
 20
20.194604
 30
0.0
 11
15.165468
 21
18.424604
 31
0.0
  0
LINE
  8
HIDDEN
 10
15.165468
 20
20.194604
 30
0.0
 11
14.947468
 21
20.194604
 31
0.0
  0
LINE
  8
HIDDEN
 10
15.301666
 20
20.144604
 30
0.0
 11
15.165468
 21
20.144604
 31
0.0
  0
LINE
  8
OBJECT
 10
15.152345
 20
22.833508
 30
0.0
 11
15.301666
 21
22.684564
 31
0.0
  0
LINE
  8
OBJECT
 10
15.10856
 20
22.789612
 30
0.0
 11
15.25789
 21
22.64066
 31
0.0
  0
CIRCLE
  8
OBJECT
 10
15.056468
 20
22.885358
 30
0.0
 40
0.109
  0
CIRCLE
  8
OBJECT
 10
15.056468
 20
22.885358
 30
0.0
 40
0.042
  0
LINE
  8
OBJECT
 10
15.10856
 20
24.575104
 30
0.0
 11
15.25789
 21
24.724057
 31
0.0
  0
LINE
  8
OBJECT
 10
15.152345
 20
24.531208
 30
0.0
 11
15.301666
 21
24.680152
 31
0.0
  0
CIRCLE
  8
OBJECT
 10
15.056468
 20
24.479358
 30
0.0
 40
0.109
  0
CIRCLE
  8
OBJECT
 10
15.056468
 20
24.479358
 30
0.0
 40
0.042
  0
POLYLINE
  8
OBJECT
 66
     1
 10
0.0
 20
0.0
 30
0.0
  0
VERTEX
  8
OBJECT
 10
11.434465
 20
22.68796
 30
0.0
  0
VERTEX
  8
OBJECT
 10
15.21047
 20
22.68796
 30
0.0
  0
SEQEND
  8
OBJECT
  0
POLYLINE
  8
OBJECT
 66
     1
 10
0.0
 20
0.0
 30
0.0
  0
VERTEX
  8
OBJECT
 10
15.254366
 20
22.731745
 30
0.0
  0
VERTEX
  8
OBJECT
 10
15.254366
 20
24.632971
 30
0.0
  0
SEQEND
  8
OBJECT
  0
POLYLINE
  8
OBJECT
 66
     1
 10
0.0
 20
0.0
 30
0.0
  0
VERTEX
  8
OBJECT
 10
15.21047
 20
24.676757
 30
0.0
  0
VERTEX
  8
OBJECT
 10
11.434465
 20
24.676757
 30
0.0
  0
SEQEND
  8
OBJECT
  0
LINE
  8
HIDDEN
 10
7.736616
 20
20.194604
 30
0.0
 11
7.736616
 21
18.424604
 31
0.0
  0
LINE
  8
HIDDEN
 10
7.518616
 20
20.194604
 30
0.0
 11
7.518616
 21
18.424604
 31
0.0
  0
LINE
  8
HIDDEN
 10
7.518616
 20
20.194604
 30
0.0
 11
7.736616
 21
20.194604
 31
0.0
  0
LINE
  8
HIDDEN
 10
7.382417
 20
20.144604
 30
0.0
 11
7.518616
 21
20.144604
 31
0.0
  0
LINE
  8
HIDDEN
 10
9.330616
 20
20.194604
 30
0.0
 11
9.330616
 21
18.424604
 31
0.0
  0
LINE
  8
HIDDEN
 10
9.112616
 20
20.194604
 30
0.0
 11
9.112616
 21
18.424604
 31
0.0
  0
LINE
  8
HIDDEN
 10
9.466815
 20
20.144604
 30
0.0
 11
9.330616
 21
20.144604
 31
0.0
  0
LINE
  8
HIDDEN
 10
9.330616
 20
20.194604
 30
0.0
 11
9.112616
 21
20.194604
 31
0.0
  0
LINE
  8
CENTER
 10
13.209968
 20
23.682358
 30
0.0
 11
13.434968
 21
23.682358
 31
0.0
  0
LINE
  8
CENTER
 10
13.322468
 20
23.569858
 30
0.0
 11
13.322468
 21
23.794858
 31
0.0
  0
DIMENSION
  8
DIM
  2
*D5
 10
15.056468
 20
25.811984
 30
0.0
 11
13.322468
 21
25.811984
 31
0.0
 13
11.588468
 23
24.479358
 33
0.0
 14
15.056468
 24
24.479358
 34
0.0
  3
23NSTD
  0
DIMENSION
  8
DIM
  2
*D21
 10
13.322468
 20
25.278717
 30
0.0
 11
14.189468
 21
25.278717
 31
0.0
 13
15.056468
 23
24.479358
 33
0.0
 14
13.322468
 24
23.794858
 34
0.0
  3
23NSTDI
  0
LINE
  8
HIDDEN
 10
11.546468
 20
19.694604
 30
0.0
 11
11.630468
 21
19.694604
 31
0.0
  0
LINE
  8
HIDDEN
 10
11.630468
 20
20.194604
 30
0.0
 11
11.630468
 21
19.694604
 31
0.0
  0
LINE
  8
HIDDEN
 10
11.546468
 20
20.194604
 30
0.0
 11
11.546468
 21
19.694604
 31
0.0
  0
LINE
  8
HIDDEN
 10
15.014468
 20
20.194604
 30
0.0
 11
15.014468
 21
19.694604
 31
0.0
  0
LINE
  8
HIDDEN
 10
15.098468
 20
20.194604
 30
0.0
 11
15.098468
 21
19.694604
 31
0.0
  0
LINE
  8
HIDDEN
 10
15.098468
 20
19.694604
 30
0.0
 11
15.014468
 21
19.694604
 31
0.0
  0
LINE
  8
HIDDEN
 10
9.179616
 20
19.694604
 30
0.0
 11
9.263616
 21
19.694604
 31
0.0
  0
LINE
  8
HIDDEN
 10
9.263616
 20
20.194604
 30
0.0
 11
9.263616
 21
19.694604
 31
0.0
  0
LINE
  8
HIDDEN
 10
9.179616
 20
20.194604
 30
0.0
 11
9.179616
 21
19.694604
 31
0.0
  0
LINE
  8
HIDDEN
 10
7.585616
 20
19.694604
 30
0.0
 11
7.669616
 21
19.694604
 31
0.0
  0
LINE
  8
HIDDEN
 10
7.669616
 20
20.194604
 30
0.0
 11
7.669616
 21
19.694604
 31
0.0
  0
LINE
  8
HIDDEN
 10
7.585616
 20
20.194604
 30
0.0
 11
7.585616
 21
19.694604
 31
0.0
  0
POLYLINE
  8
OBJECT
 66
     1
 10
0.0
 20
0.0
 30
0.0
 70
     1
  0
VERTEX
  8
OBJECT
 10
15.283468
 20
24.799858
 30
0.0
  0
VERTEX
  8
OBJECT
 10
11.361468
 20
24.799858
 30
0.0
 42
0.414214
  0
VERTEX
  8
OBJECT
 10
11.267468
 20
24.705858
 30
0.0
  0
VERTEX
  8
OBJECT
 10
11.267468
 20
22.658858
 30
0.0
 42
0.414214
  0
VERTEX
  8
OBJECT
 10
11.361468
 20
22.564858
 30
0.0
  0
VERTEX
  8
OBJECT
 10
15.283468
 20
22.564858
 30
0.0
 42
0.414214
  0
VERTEX
  8
OBJECT
 10
15.377468
 20
22.658858
 30
0.0
  0
VERTEX
  8
OBJECT
 10
15.377468
 20
24.705858
 30
0.0
 42
0.414214
  0
SEQEND
  8
OBJECT
  0
POLYLINE
  8
OBJECT
 66
     1
 10
0.0
 20
0.0
 30
0.0
 70
     1
  0
VERTEX
  8
OBJECT
 10
11.427468
 20
14.893972
 30
0.0
  0
VERTEX
  8
OBJECT
 10
15.217468
 20
14.893972
 30
0.0
  0
VERTEX
  8
OBJECT
 10
15.217468
 20
16.799972
 30
0.0
  0
VERTEX
  8
OBJECT
 10
11.427468
 20
16.799972
 30
0.0
  0
SEQEND
  8
OBJECT
  0
LINE
  8
OBJECT
 10
7.344616
 20
22.022228
 30
0.0
 11
9.504616
 21
22.022228
 31
0.0
  0
LINE
  8
OBJECT
 10
7.344616
 20
22.092228
 30
0.0
 11
9.504616
 21
22.092228
 31
0.0
  0
LINE
  8
OBJECT
 10
7.381616
 20
22.007228
 30
0.0
 11
9.467616
 21
22.007228
 31
0.0
  0
DIMENSION
  8
DIM
  2
*D7
 10
9.921054
 20
22.092228
 30
0.0
 11
10.694335
 21
22.722228
 31
0.0
 13
9.467616
 23
22.007228
 33
0.0
 14
9.504616
 24
22.092228
 34
0.0
 50
90.0
  3
23NSTD
  0
LINE
  8
HIDDEN
  6
HIDDEN2
 10
7.572616
 20
22.011702
 30
0.0
 11
7.502616
 21
22.092228
 31
0.0
  0
LINE
  8
OBJECT
 10
7.502616
 20
21.942228
 30
0.0
 11
7.752616
 21
21.942228
 31
0.0
  0
LINE
  8
OBJECT
 10
7.502616
 20
21.942228
 30
0.0
 11
7.502616
 21
22.007228
 31
0.0
  0
LINE
  8
OBJECT
 10
7.344616
 20
22.092228
 30
0.0
 11
7.344616
 21
22.022228
 31
0.0
  0
LINE
  8
OBJECT
 10
7.381616
 20
22.022228
 30
0.0
 11
7.381616
 21
22.007228
 31
0.0
  0
LINE
  8
OBJECT
 10
7.752616
 20
21.942228
 30
0.0
 11
7.752616
 21
22.007228
 31
0.0
  0
LINE
  8
HIDDEN
  6
HIDDEN2
 10
7.682616
 20
21.942228
 30
0.0
 11
7.682616
 21
22.011702
 31
0.0
  0
LINE
  8
HIDDEN
  6
HIDDEN2
 10
7.682616
 20
22.011702
 30
0.0
 11
7.752616
 21
22.092228
 31
0.0
  0
LINE
  8
HIDDEN
  6
HIDDEN2
 10
7.572616
 20
21.942228
 30
0.0
 11
7.572616
 21
22.011702
 31
0.0
  0
LINE
  8
HIDDEN
  6
HIDDEN2
 10
7.572616
 20
22.011702
 30
0.0
 11
7.682616
 21
22.011702
 31
0.0
  0
LINE
  8
OBJECT
 10
11.344468
 20
22.007228
 30
0.0
 11
13.183468
 21
22.007228
 31
0.0
  0
LINE
  8
OBJECT
 10
11.307468
 20
22.022228
 30
0.0
 11
15.337468
 21
22.022228
 31
0.0
  0
LINE
  8
OBJECT
 10
11.307468
 20
22.092228
 30
0.0
 11
15.337468
 21
22.092228
 31
0.0
  0
LINE
  8
HIDDEN
  6
HIDDEN2
 10
9.276616
 20
22.011702
 30
0.0
 11
9.166616
 21
22.011702
 31
0.0
  0
LINE
  8
OBJECT
 10
9.346616
 20
21.942228
 30
0.0
 11
9.096616
 21
21.942228
 31
0.0
  0
LINE
  8
HIDDEN
  6
HIDDEN2
 10
9.166616
 20
21.942228
 30
0.0
 11
9.166616
 21
22.011702
 31
0.0
  0
LINE
  8
OBJECT
 10
9.096616
 20
21.942228
 30
0.0
 11
9.096616
 21
22.007228
 31
0.0
  0
LINE
  8
HIDDEN
  6
HIDDEN2
 10
9.166616
 20
22.011702
 30
0.0
 11
9.096616
 21
22.092228
 31
0.0
  0
LINE
  8
OBJECT
 10
9.504616
 20
22.092228
 30
0.0
 11
9.504616
 21
22.022228
 31
0.0
  0
LINE
  8
OBJECT
 10
9.467616
 20
22.022228
 30
0.0
 11
9.467616
 21
21.805228
 31
0.0
  0
LINE
  8
OBJECT
 10
9.346616
 20
21.942228
 30
0.0
 11
9.346616
 21
22.007228
 31
0.0
  0
LINE
  8
HIDDEN
  6
HIDDEN2
 10
9.276616
 20
21.942228
 30
0.0
 11
9.276616
 21
22.011702
 31
0.0
  0
LINE
  8
HIDDEN
  6
HIDDEN2
 10
9.276616
 20
22.011702
 30
0.0
 11
9.346616
 21
22.092228
 31
0.0
  0
LINE
  8
OBJECT
 10
9.358616
 20
22.007228
 30
0.0
 11
9.358616
 21
21.805228
 31
0.0
  0
LINE
  8
OBJECT
 10
9.358616
 20
21.805228
 30
0.0
 11
9.467616
 21
21.805228
 31
0.0
  0
LINE
  8
HIDDEN
  6
HIDDEN2
 10
11.533468
 20
22.011702
 30
0.0
 11
11.643468
 21
22.011702
 31
0.0
  0
LINE
  8
OBJECT
 10
11.463468
 20
21.942228
 30
0.0
 11
11.713468
 21
21.942228
 31
0.0
  0
LINE
  8
OBJECT
 10
11.344468
 20
22.022228
 30
0.0
 11
11.344468
 21
22.007228
 31
0.0
  0
LINE
  8
HIDDEN
  6
HIDDEN2
 10
11.533468
 20
22.011702
 30
0.0
 11
11.463468
 21
22.092228
 31
0.0
  0
LINE
  8
HIDDEN
  6
HIDDEN2
 10
11.533468
 20
21.942228
 30
0.0
 11
11.533468
 21
22.011702
 31
0.0
  0
LINE
  8
OBJECT
 10
11.463468
 20
21.942228
 30
0.0
 11
11.463468
 21
22.007228
 31
0.0
  0
LINE
  8
OBJECT
 10
11.307468
 20
22.092228
 30
0.0
 11
11.307468
 21
22.022228
 31
0.0
  0
LINE
  8
HIDDEN
  6
HIDDEN2
 10
11.643468
 20
22.011702
 30
0.0
 11
11.713468
 21
22.092228
 31
0.0
  0
LINE
  8
HIDDEN
  6
HIDDEN2
 10
11.643468
 20
21.942228
 30
0.0
 11
11.643468
 21
22.011702
 31
0.0
  0
LINE
  8
OBJECT
 10
11.713468
 20
21.942228
 30
0.0
 11
11.713468
 21
22.007228
 31
0.0
  0
LINE
  8
OBJECT
 10
13.461468
 20
22.007228
 30
0.0
 11
15.300468
 21
22.007228
 31
0.0
  0
LINE
  8
OBJECT
 10
13.183468
 20
21.805228
 30
0.0
 11
13.461468
 21
21.805228
 31
0.0
  0
LINE
  8
OBJECT
 10
13.183468
 20
22.007228
 30
0.0
 11
13.183468
 21
21.805228
 31
0.0
  0
LINE
  8
OBJECT
 10
13.461468
 20
22.007228
 30
0.0
 11
13.461468
 21
21.805228
 31
0.0
  0
LINE
  8
OBJECT
 10
15.181468
 20
21.942228
 30
0.0
 11
14.931468
 21
21.942228
 31
0.0
  0
LINE
  8
HIDDEN
  6
HIDDEN2
 10
15.111468
 20
22.011702
 30
0.0
 11
15.001468
 21
22.011702
 31
0.0
  0
LINE
  8
HIDDEN
  6
HIDDEN2
 10
15.001468
 20
22.011702
 30
0.0
 11
14.931468
 21
22.092228
 31
0.0
  0
LINE
  8
OBJECT
 10
14.931468
 20
21.942228
 30
0.0
 11
14.931468
 21
22.007228
 31
0.0
  0
LINE
  8
HIDDEN
  6
HIDDEN2
 10
15.001468
 20
21.942228
 30
0.0
 11
15.001468
 21
22.011702
 31
0.0
  0
LINE
  8
HIDDEN
  6
HIDDEN2
 10
15.111468
 20
22.011702
 30
0.0
 11
15.181468
 21
22.092228
 31
0.0
  0
LINE
  8
HIDDEN
  6
HIDDEN2
 10
15.111468
 20
21.942228
 30
0.0
 11
15.111468
 21
22.011702
 31
0.0
  0
LINE
  8
OBJECT
 10
15.181468
 20
21.942228
 30
0.0
 11
15.181468
 21
22.007228
 31
0.0
  0
LINE
  8
OBJECT
 10
15.300468
 20
22.022228
 30
0.0
 11
15.300468
 21
22.007228
 31
0.0
  0
LINE
  8
OBJECT
 10
15.337468
 20
22.092228
 30
0.0
 11
15.337468
 21
22.022228
 31
0.0
  0
LINE
  8
OBJECT
 10
10.884968
 20
6.228663
 30
0.0
 11
15.759968
 21
6.228663
 31
0.0
  0
LINE
  8
OBJECT
 10
15.231017
 20
4.228663
 30
0.0
 11
11.413918
 21
4.228663
 31
0.0
  0
LINE
  8
OBJECT
 10
15.324981
 20
4.320079
 30
0.0
 11
15.377468
 21
6.228663
 31
0.0
  0
LINE
  8
HIDDEN
 10
11.390569
 20
4.298663
 30
0.0
 11
11.339419
 21
6.158663
 31
0.0
  0
LINE
  8
HIDDEN
 10
15.254366
 20
4.298663
 30
0.0
 11
11.390569
 21
4.298663
 31
0.0
  0
LINE
  8
HIDDEN
 10
15.254366
 20
4.298663
 30
0.0
 11
15.305516
 21
6.158663
 31
0.0
  0
ARC
  8
OBJECT
 10
11.413918
 20
4.322663
 30
0.0
 40
0.094
 50
181.575237
 51
270.0
  0
ARC
  8
OBJECT
 10
15.231017
 20
4.322663
 30
0.0
 40
0.094
 50
270.0
 51
358.424763
  0
LINE
  8
OBJECT
 10
11.319954
 20
4.320079
 30
0.0
 11
11.267468
 21
6.228663
 31
0.0
  0
POLYLINE
  8
DIM
 66
     1
 10
0.0
 20
0.0
 30
0.0
  0
VERTEX
  8
DIM
 10
11.358737
 20
4.228663
 30
0.0
  0
VERTEX
  8
DIM
 10
11.322468
 20
4.228663
 30
0.0
  0
VERTEX
  8
DIM
 10
11.32147
 20
4.264919
 30
0.0
  0
SEQEND
  8
DIM
  0
POLYLINE
  8
DIM
 66
     1
 10
0.0
 20
0.0
 30
0.0
  0
VERTEX
  8
DIM
 10
15.286198
 20
4.228663
 30
0.0
  0
VERTEX
  8
DIM
 10
15.322468
 20
4.228663
 30
0.0
  0
VERTEX
  8
DIM
 10
15.323465
 20
4.264919
 30
0.0
  0
SEQEND
  8
DIM
  0
LINE
  8
HIDDEN
 10
11.307468
 20
6.158663
 30
0.0
 11
15.337468
 21
6.158663
 31
0.0
  0
LINE
  8
HIDDEN
 10
7.347116
 20
6.158663
 30
0.0
 11
9.502116
 21
6.158663
 31
0.0
  0
LINE
  8
HIDDEN
 10
7.430217
 20
4.298663
 30
0.0
 11
7.379067
 21
6.158663
 31
0.0
  0
ARC
  8
OBJECT
 10
7.453567
 20
4.322663
 30
0.0
 40
0.094
 50
181.575237
 51
270.0
  0
LINE
  8
OBJECT
 10
7.307116
 20
6.228663
 30
0.0
 11
9.542116
 21
6.228663
 31
0.0
  0
LINE
  8
OBJECT
 10
7.359602
 20
4.320079
 30
0.0
 11
7.307116
 21
6.228663
 31
0.0
  0
POLYLINE
  8
DIM
 66
     1
 10
0.0
 20
0.0
 30
0.0
  0
VERTEX
  8
DIM
 10
7.398385
 20
4.228663
 30
0.0
  0
VERTEX
  8
DIM
 10
7.362116
 20
4.228663
 30
0.0
  0
VERTEX
  8
DIM
 10
7.361119
 20
4.264919
 30
0.0
  0
SEQEND
  8
DIM
  0
LINE
  8
HIDDEN
 10
9.419015
 20
4.298663
 30
0.0
 11
9.470165
 21
6.158663
 31
0.0
  0
LINE
  8
OBJECT
 10
9.48963
 20
4.320079
 30
0.0
 11
9.542116
 21
6.228663
 31
0.0
  0
LINE
  8
OBJECT
 10
9.395665
 20
4.228663
 30
0.0
 11
7.453567
 21
4.228663
 31
0.0
  0
LINE
  8
HIDDEN
 10
9.419015
 20
4.298663
 30
0.0
 11
7.430217
 21
4.298663
 31
0.0
  0
POLYLINE
  8
DIM
 66
     1
 10
0.0
 20
0.0
 30
0.0
  0
VERTEX
  8
DIM
 10
9.450847
 20
4.228663
 30
0.0
  0
VERTEX
  8
DIM
 10
9.487116
 20
4.228663
 30
0.0
  0
VERTEX
  8
DIM
 10
9.488113
 20
4.264919
 30
0.0
  0
SEQEND
  8
DIM
  0
ARC
  8
OBJECT
 10
9.395665
 20
4.322663
 30
0.0
 40
0.094
 50
270.0
 51
358.424763
  0
LINE
  8
HIDDEN
 10
7.347116
 20
6.158663
 30
0.0
 11
7.347116
 21
6.228663
 31
0.0
  0
LINE
  8
HIDDEN
 10
9.502116
 20
6.158663
 30
0.0
 11
9.502116
 21
6.228663
 31
0.0
  0
LINE
  8
HIDDEN
 10
11.307468
 20
6.158663
 30
0.0
 11
11.307468
 21
6.228663
 31
0.0
  0
LINE
  8
HIDDEN
 10
15.337468
 20
6.158663
 30
0.0
 11
15.337468
 21
6.228663
 31
0.0
  0
POLYLINE
  8
OBJECT
 66
     1
 10
0.0
 20
0.0
 30
0.0
 70
     1
  0
VERTEX
  8
OBJECT
 10
15.283468
 20
11.748826
 30
0.0
  0
VERTEX
  8
OBJECT
 10
11.361468
 20
11.748826
 30
0.0
 42
0.414214
  0
VERTEX
  8
OBJECT
 10
11.307468
 20
11.694826
 30
0.0
  0
VERTEX
  8
OBJECT
 10
11.307468
 20
9.647826
 30
0.0
 42
0.414214
  0
VERTEX
  8
OBJECT
 10
11.361468
 20
9.593826
 30
0.0
  0
VERTEX
  8
OBJECT
 10
15.283468
 20
9.593826
 30
0.0
 42
0.414214
  0
VERTEX
  8
OBJECT
 10
15.337468
 20
9.647826
 30
0.0
  0
VERTEX
  8
OBJECT
 10
15.337468
 20
11.694826
 30
0.0
 42
0.414214
  0
SEQEND
  8
OBJECT
  0
POLYLINE
  8
OBJECT
 66
     1
 10
0.0
 20
0.0
 30
0.0
 70
     1
  0
VERTEX
  8
OBJECT
 10
15.283468
 20
11.716826
 30
0.0
  0
VERTEX
  8
OBJECT
 10
11.361468
 20
11.716826
 30
0.0
 42
0.414214
  0
VERTEX
  8
OBJECT
 10
11.339468
 20
11.694826
 30
0.0
  0
VERTEX
  8
OBJECT
 10
11.339468
 20
9.647826
 30
0.0
 42
0.414214
  0
VERTEX
  8
OBJECT
 10
11.361468
 20
9.625826
 30
0.0
  0
VERTEX
  8
OBJECT
 10
15.283468
 20
9.625826
 30
0.0
 42
0.414214
  0
VERTEX
  8
OBJECT
 10
15.305468
 20
9.647826
 30
0.0
  0
VERTEX
  8
OBJECT
 10
15.305468
 20
11.694826
 30
0.0
 42
0.414214
  0
SEQEND
  8
OBJECT
  0
POLYLINE
  8
OBJECT
 66
     1
 10
0.0
 20
0.0
 30
0.0
 70
     1
  0
VERTEX
  8
OBJECT
 10
15.283468
 20
2.761958
 30
0.0
  0
VERTEX
  8
OBJECT
 10
11.361468
 20
2.761958
 30
0.0
 42
0.414214
  0
VERTEX
  8
OBJECT
 10
11.267468
 20
2.667958
 30
0.0
  0
VERTEX
  8
OBJECT
 10
11.267468
 20
0.620958
 30
0.0
 42
0.414214
  0
VERTEX
  8
OBJECT
 10
11.361468
 20
0.526958
 30
0.0
  0
VERTEX
  8
OBJECT
 10
15.283468
 20
0.526958
 30
0.0
 42
0.414214
  0
VERTEX
  8
OBJECT
 10
15.377468
 20
0.620958
 30
0.0
  0
VERTEX
  8
OBJECT
 10
15.377468
 20
2.667958
 30
0.0
 42
0.414214
  0
SEQEND
  8
OBJECT
  0
POLYLINE
  8
OBJECT
 66
     1
 10
0.0
 20
0.0
 30
0.0
 70
     1
  0
VERTEX
  8
OBJECT
 10
15.228468
 20
0.581958
 30
0.0
  0
VERTEX
  8
OBJECT
 10
11.416468
 20
0.581958
 30
0.0
 42
-0.414214
  0
VERTEX
  8
OBJECT
 10
11.322468
 20
0.675958
 30
0.0
  0
VERTEX
  8
OBJECT
 10
11.322468
 20
2.612958
 30
0.0
 42
-0.414214
  0
VERTEX
  8
OBJECT
 10
11.416468
 20
2.706958
 30
0.0
  0
VERTEX
  8
OBJECT
 10
15.228468
 20
2.706958
 30
0.0
 42
-0.414214
  0
VERTEX
  8
OBJECT
 10
15.322468
 20
2.612958
 30
0.0
  0
VERTEX
  8
OBJECT
 10
15.322468
 20
0.675958
 30
0.0
 42
-0.414214
  0
SEQEND
  8
OBJECT
  0
DIMENSION
  8
DIM
  2
*D8
 10
15.322468
 20
3.743974
 30
0.0
 11
13.322468
 21
3.743974
 31
0.0
 13
11.322468
 23
4.228663
 33
0.0
 14
15.322468
 24
4.228663
 34
0.0
  3
23NSTD
  0
DIMENSION
  8
DIM
  2
*D9
 10
9.487116
 20
3.743974
 30
0.0
 11
8.424616
 21
3.743974
 31
0.0
 13
7.362116
 23
4.228663
 33
0.0
 14
9.487116
 24
4.228663
 34
0.0
  3
23NSTD
  0
DIMENSION
  8
DIM
  2
*D10
 10
10.411361
 20
6.228663
 30
0.0
 11
10.411361
 21
5.228663
 31
0.0
 13
9.487116
 23
4.228663
 33
0.0
 14
9.542116
 24
6.228663
 34
0.0
 50
90.0
  3
23NSTD
  0
DIMENSION
  8
DIM
  2
*D11
 10
9.880508
 20
6.228663
 30
0.0
 11
10.640117
 21
6.858663
 31
0.0
 13
9.502116
 23
6.158663
 33
0.0
 14
9.542116
 24
6.228663
 34
0.0
 50
90.0
  3
23NSTD
  0
DIMENSION
  8
DIM
  2
*D12
 10
15.349328
 20
5.205418
 30
0.0
 11
16.779168
 21
5.1881
 31
0.0
 70
     1
  1
<> TYP.
 13
15.279083
 23
5.197453
 33
0.0
 14
15.349056
 24
5.195528
 34
0.0
  3
23NSTD
  0
CIRCLE
  8
OBJECT
 10
11.072468
 20
10.671326
 30
0.0
 40
0.0935
  0
POLYLINE
  8
OBJECT
 66
     1
 10
0.0
 20
0.0
 30
0.0
  0
VERTEX
  8
OBJECT
 10
11.267468
 20
9.647826
 30
0.0
  0
VERTEX
  8
OBJECT
 10
10.889004
 20
10.649231
 30
0.0
 42
-0.182662
  0
VERTEX
  8
OBJECT
 10
10.889004
 20
10.693422
 30
0.0
  0
VERTEX
  8
OBJECT
 10
11.267468
 20
11.694826
 30
0.0
  0
SEQEND
  8
OBJECT
  0
POLYLINE
  8
OBJECT
 66
     1
 10
0.0
 20
0.0
 30
0.0
  0
VERTEX
  8
OBJECT
 10
15.377468
 20
9.647826
 30
0.0
  0
VERTEX
  8
OBJECT
 10
15.755932
 20
10.649231
 30
0.0
 42
0.182662
  0
VERTEX
  8
OBJECT
 10
15.755932
 20
10.693422
 30
0.0
  0
VERTEX
  8
OBJECT
 10
15.377468
 20
11.694826
 30
0.0
  0
SEQEND
  8
OBJECT
  0
CIRCLE
  8
OBJECT
 10
15.572468
 20
10.671326
 30
0.0
 40
0.0935
  0
LINE
  8
OBJECT
 10
15.283468
 20
11.788826
 30
0.0
 11
11.361468
 21
11.788826
 31
0.0
  0
ARC
  8
OBJECT
 10
11.361468
 20
11.694826
 30
0.0
 40
0.094
 50
90.0
 51
180.0
  0
LINE
  8
HIDDEN
 10
11.267468
 20
11.694826
 30
0.0
 11
11.267468
 21
9.647826
 31
0.0
  0
ARC
  8
OBJECT
 10
11.361468
 20
9.647826
 30
0.0
 40
0.094
 50
180.0
 51
270.0
  0
LINE
  8
OBJECT
 10
11.361468
 20
9.553826
 30
0.0
 11
15.283468
 21
9.553826
 31
0.0
  0
ARC
  8
OBJECT
 10
15.283468
 20
9.647826
 30
0.0
 40
0.094
 50
270.0
 51
0.0
  0
LINE
  8
HIDDEN
 10
15.377468
 20
9.647826
 30
0.0
 11
15.377468
 21
11.694826
 31
0.0
  0
ARC
  8
OBJECT
 10
15.283468
 20
11.694826
 30
0.0
 40
0.094
 50
360.0
 51
90.0
  0
POLYLINE
  8
OBJECT
 66
     1
 10
0.0
 20
0.0
 30
0.0
  0
VERTEX
  8
OBJECT
 10
11.267468
 20
0.620958
 30
0.0
  0
VERTEX
  8
OBJECT
 10
10.889004
 20
1.622362
 30
0.0
 42
-0.182662
  0
VERTEX
  8
OBJECT
 10
10.889004
 20
1.666553
 30
0.0
  0
VERTEX
  8
OBJECT
 10
11.267468
 20
2.667958
 30
0.0
  0
SEQEND
  8
OBJECT
  0
CIRCLE
  8
OBJECT
 10
11.072468
 20
1.644458
 30
0.0
 40
0.0935
  0
POLYLINE
  8
OBJECT
 66
     1
 10
0.0
 20
0.0
 30
0.0
  0
VERTEX
  8
OBJECT
 10
15.377468
 20
0.620958
 30
0.0
  0
VERTEX
  8
OBJECT
 10
15.755932
 20
1.622362
 30
0.0
 42
0.182662
  0
VERTEX
  8
OBJECT
 10
15.755932
 20
1.666553
 30
0.0
  0
VERTEX
  8
OBJECT
 10
15.377468
 20
2.667958
 30
0.0
  0
SEQEND
  8
OBJECT
  0
CIRCLE
  8
OBJECT
 10
15.572468
 20
1.644458
 30
0.0
 40
0.0935
  0
LINE
  8
OBJECT
 10
10.884968
 20
6.228663
 30
0.0
 11
10.884968
 21
6.103663
 31
0.0
  0
LINE
  8
OBJECT
 10
10.884968
 20
6.103663
 30
0.0
 11
11.270905
 21
6.103663
 31
0.0
  0
LINE
  8
OBJECT
 10
7.310553
 20
6.103663
 30
0.0
 11
9.538678
 21
6.103663
 31
0.0
  0
LINE
  8
HIDDEN
  6
HIDDEN2
 10
10.978968
 20
6.228663
 30
0.0
 11
10.978968
 21
6.103663
 31
0.0
  0
LINE
  8
HIDDEN
  6
HIDDEN2
 10
11.165968
 20
6.228663
 30
0.0
 11
11.165968
 21
6.103663
 31
0.0
  0
LINE
  8
OBJECT
 10
15.759968
 20
6.103663
 30
0.0
 11
15.37403
 21
6.103663
 31
0.0
  0
LINE
  8
HIDDEN
  6
HIDDEN2
 10
15.665968
 20
6.228663
 30
0.0
 11
15.665968
 21
6.103663
 31
0.0
  0
LINE
  8
OBJECT
 10
15.759968
 20
6.228663
 30
0.0
 11
15.759968
 21
6.103663
 31
0.0
  0
LINE
  8
HIDDEN
  6
HIDDEN2
 10
15.478968
 20
6.228663
 30
0.0
 11
15.478968
 21
6.103663
 31
0.0
  0
DIMENSION
  8
DIM
  2
*D13
 10
11.072468
 20
9.09356
 30
0.0
 11
13.322468
 21
9.09356
 31
0.0
 13
15.572468
 23
10.671326
 33
0.0
 14
11.072468
 24
10.671326
 34
0.0
  3
23NSTD
  0
DIMENSION
  8
DIM
  2
*D14
 10
15.759968
 20
9.09356
 30
0.0
 11
16.834577
 21
9.09356
 31
0.0
 13
15.572468
 23
10.671326
 33
0.0
 14
15.759968
 24
10.671326
 34
0.0
  3
23NSTD
  0
DIMENSION
  8
DIM
  2
*D15
 10
15.759968
 20
8.551729
 30
0.0
 11
13.322468
 21
8.551729
 31
0.0
 13
10.884968
 23
10.671326
 33
0.0
 14
15.759968
 24
10.671326
 34
0.0
  3
23NSTD
  0
LINE
  8
HIDDEN
  6
HIDDEN2
 10
8.331116
 20
6.228663
 30
0.0
 11
8.331116
 21
6.103663
 31
0.0
  0
LINE
  8
HIDDEN
  6
HIDDEN2
 10
8.518116
 20
6.228663
 30
0.0
 11
8.518116
 21
6.103663
 31
0.0
  0
POLYLINE
  8
DIM
 66
     1
 10
0.0
 20
0.0
 30
0.0
 41
0.118125
  0
VERTEX
  8
DIM
 10
11.078041
 20
10.76466
 30
0.0
  0
VERTEX
  8
DIM
 10
10.87508
 20
11.005557
 30
0.0
 41
0.0
  0
VERTEX
  8
DIM
 10
10.354138
 20
11.623869
 30
0.0
 41
0.0
  0
VERTEX
  8
DIM
 10
10.039138
 20
11.623869
 30
0.0
 41
0.0
  0
SEQEND
  8
DIM
  0
TEXT
  8
DIM
 10
8.65117
 20
11.514494
 30
0.0
 40
0.21875
  1
0.187 DIA.
 41
0.75
 72
     2
 11
9.881638
 21
11.623869
 31
0.0
 73
     2
  0
TEXT
  8
DIM
 10
8.569138
 20
11.149911
 30
0.0
 40
0.21875
  1
(2) HOLES
 41
0.75
 72
     2
 11
9.881638
 21
11.259286
 31
0.0
 73
     2
  0
CIRCLE
  8
OBJECT
 10
11.588468
 20
11.468326
 30
0.0
 40
0.109
  0
CIRCLE
  8
OBJECT
 10
11.588468
 20
11.468326
 30
0.0
 40
0.042
  0
LINE
  8
OBJECT
 10
11.536375
 20
11.564072
 30
0.0
 11
11.387045
 21
11.713025
 31
0.0
  0
LINE
  8
OBJECT
 10
11.49259
 20
11.520176
 30
0.0
 11
11.343269
 21
11.66912
 31
0.0
  0
LINE
  8
HIDDEN
 10
11.479468
 20
6.068663
 30
0.0
 11
11.697468
 21
6.068663
 31
0.0
  0
LINE
  8
HIDDEN
 10
11.343269
 20
6.018663
 30
0.0
 11
11.479468
 21
6.018663
 31
0.0
  0
LINE
  8
HIDDEN
 10
11.697468
 20
6.068663
 30
0.0
 11
11.697468
 21
4.298663
 31
0.0
  0
LINE
  8
HIDDEN
 10
11.479468
 20
6.068663
 30
0.0
 11
11.479468
 21
4.298663
 31
0.0
  0
LINE
  8
OBJECT
 10
11.536375
 20
9.77858
 30
0.0
 11
11.387045
 21
9.629627
 31
0.0
  0
LINE
  8
OBJECT
 10
11.49259
 20
9.822476
 30
0.0
 11
11.343269
 21
9.673532
 31
0.0
  0
CIRCLE
  8
OBJECT
 10
11.588468
 20
9.874326
 30
0.0
 40
0.109
  0
CIRCLE
  8
OBJECT
 10
11.588468
 20
9.874326
 30
0.0
 40
0.042
  0
POLYLINE
  8
OBJECT
 66
     1
 10
0.0
 20
0.0
 30
0.0
  0
VERTEX
  8
OBJECT
 10
11.390569
 20
11.621939
 30
0.0
  0
VERTEX
  8
OBJECT
 10
11.390569
 20
9.720713
 30
0.0
  0
SEQEND
  8
OBJECT
  0
LINE
  8
HIDDEN
 10
14.947468
 20
6.068663
 30
0.0
 11
14.947468
 21
4.298663
 31
0.0
  0
LINE
  8
HIDDEN
 10
15.165468
 20
6.068663
 30
0.0
 11
15.165468
 21
4.298663
 31
0.0
  0
LINE
  8
HIDDEN
 10
15.165468
 20
6.068663
 30
0.0
 11
14.947468
 21
6.068663
 31
0.0
  0
LINE
  8
HIDDEN
 10
15.301666
 20
6.018663
 30
0.0
 11
15.165468
 21
6.018663
 31
0.0
  0
LINE
  8
OBJECT
 10
15.152345
 20
9.822476
 30
0.0
 11
15.301666
 21
9.673532
 31
0.0
  0
LINE
  8
OBJECT
 10
15.10856
 20
9.77858
 30
0.0
 11
15.25789
 21
9.629627
 31
0.0
  0
CIRCLE
  8
OBJECT
 10
15.056468
 20
9.874326
 30
0.0
 40
0.109
  0
CIRCLE
  8
OBJECT
 10
15.056468
 20
9.874326
 30
0.0
 40
0.042
  0
LINE
  8
OBJECT
 10
15.10856
 20
11.564072
 30
0.0
 11
15.25789
 21
11.713025
 31
0.0
  0
LINE
  8
OBJECT
 10
15.152345
 20
11.520176
 30
0.0
 11
15.301666
 21
11.66912
 31
0.0
  0
CIRCLE
  8
OBJECT
 10
15.056468
 20
11.468326
 30
0.0
 40
0.109
  0
CIRCLE
  8
OBJECT
 10
15.056468
 20
11.468326
 30
0.0
 40
0.042
  0
POLYLINE
  8
OBJECT
 66
     1
 10
0.0
 20
0.0
 30
0.0
  0
VERTEX
  8
OBJECT
 10
11.434465
 20
9.676927
 30
0.0
  0
VERTEX
  8
OBJECT
 10
15.21047
 20
9.676927
 30
0.0
  0
SEQEND
  8
OBJECT
  0
POLYLINE
  8
OBJECT
 66
     1
 10
0.0
 20
0.0
 30
0.0
  0
VERTEX
  8
OBJECT
 10
15.254366
 20
9.720713
 30
0.0
  0
VERTEX
  8
OBJECT
 10
15.254366
 20
11.621939
 30
0.0
  0
SEQEND
  8
OBJECT
  0
POLYLINE
  8
OBJECT
 66
     1
 10
0.0
 20
0.0
 30
0.0
  0
VERTEX
  8
OBJECT
 10
15.21047
 20
11.665725
 30
0.0
  0
VERTEX
  8
OBJECT
 10
11.434465
 20
11.665725
 30
0.0
  0
SEQEND
  8
OBJECT
  0
LINE
  8
HIDDEN
 10
7.736616
 20
6.068663
 30
0.0
 11
7.736616
 21
4.298663
 31
0.0
  0
LINE
  8
HIDDEN
 10
7.518616
 20
6.068663
 30
0.0
 11
7.518616
 21
4.298663
 31
0.0
  0
LINE
  8
HIDDEN
 10
7.518616
 20
6.068663
 30
0.0
 11
7.736616
 21
6.068663
 31
0.0
  0
LINE
  8
HIDDEN
 10
7.382417
 20
6.018663
 30
0.0
 11
7.518616
 21
6.018663
 31
0.0
  0
LINE
  8
HIDDEN
 10
9.330616
 20
6.068663
 30
0.0
 11
9.330616
 21
4.298663
 31
0.0
  0
LINE
  8
HIDDEN
 10
9.112616
 20
6.068663
 30
0.0
 11
9.112616
 21
4.298663
 31
0.0
  0
LINE
  8
HIDDEN
 10
9.466815
 20
6.018663
 30
0.0
 11
9.330616
 21
6.018663
 31
0.0
  0
LINE
  8
HIDDEN
 10
9.330616
 20
6.068663
 30
0.0
 11
9.112616
 21
6.068663
 31
0.0
  0
DIMENSION
  8
DIM
  2
*D16
 10
16.130326
 20
6.228663
 30
0.0
 11
16.889935
 21
6.858663
 31
0.0
 13
15.759968
 23
6.103663
 33
0.0
 14
15.759968
 24
6.228663
 34
0.0
 50
90.0
  3
23NSTD
  0
LINE
  8
CENTER
 10
13.209968
 20
10.671326
 30
0.0
 11
13.434968
 21
10.671326
 31
0.0
  0
LINE
  8
CENTER
 10
13.322468
 20
10.558826
 30
0.0
 11
13.322468
 21
10.783826
 31
0.0
  0
DIMENSION
  8
DIM
  2
*D17
 10
15.056468
 20
12.800952
 30
0.0
 11
13.322468
 21
12.800952
 31
0.0
 13
11.588468
 23
11.468326
 33
0.0
 14
15.056468
 24
11.468326
 34
0.0
  3
23NSTD
  0
DIMENSION
  8
DIM
  2
*D23
 10
13.322468
 20
12.267685
 30
0.0
 11
14.189468
 21
12.267685
 31
0.0
 13
15.056468
 23
11.468326
 33
0.0
 14
13.322468
 24
10.783826
 34
0.0
  3
23NSTDI
  0
LINE
  8
HIDDEN
 10
11.546468
 20
5.568663
 30
0.0
 11
11.630468
 21
5.568663
 31
0.0
  0
LINE
  8
HIDDEN
 10
11.630468
 20
6.068663
 30
0.0
 11
11.630468
 21
5.568663
 31
0.0
  0
LINE
  8
HIDDEN
 10
11.546468
 20
6.068663
 30
0.0
 11
11.546468
 21
5.568663
 31
0.0
  0
LINE
  8
HIDDEN
 10
15.014468
 20
6.068663
 30
0.0
 11
15.014468
 21
5.568663
 31
0.0
  0
LINE
  8
HIDDEN
 10
15.098468
 20
6.068663
 30
0.0
 11
15.098468
 21
5.568663
 31
0.0
  0
LINE
  8
HIDDEN
 10
15.098468
 20
5.568663
 30
0.0
 11
15.014468
 21
5.568663
 31
0.0
  0
LINE
  8
HIDDEN
 10
9.179616
 20
5.568663
 30
0.0
 11
9.263616
 21
5.568663
 31
0.0
  0
LINE
  8
HIDDEN
 10
9.263616
 20
6.068663
 30
0.0
 11
9.263616
 21
5.568663
 31
0.0
  0
LINE
  8
HIDDEN
 10
9.179616
 20
6.068663
 30
0.0
 11
9.179616
 21
5.568663
 31
0.0
  0
LINE
  8
HIDDEN
 10
7.585616
 20
5.568663
 30
0.0
 11
7.669616
 21
5.568663
 31
0.0
  0
LINE
  8
HIDDEN
 10
7.669616
 20
6.068663
 30
0.0
 11
7.669616
 21
5.568663
 31
0.0
  0
LINE
  8
HIDDEN
 10
7.585616
 20
6.068663
 30
0.0
 11
7.585616
 21
5.568663
 31
0.0
  0
POLYLINE
  8
OBJECT
 66
     1
 10
0.0
 20
0.0
 30
0.0
 70
     1
  0
VERTEX
  8
OBJECT
 10
11.427468
 20
2.597458
 30
0.0
  0
VERTEX
  8
OBJECT
 10
11.427468
 20
0.691458
 30
0.0
  0
VERTEX
  8
OBJECT
 10
15.217468
 20
0.691458
 30
0.0
  0
VERTEX
  8
OBJECT
 10
15.217468
 20
2.597458
 30
0.0
  0
SEQEND
  8
OBJECT
  0
LINE
  8
OBJECT
 10
7.344616
 20
7.900939
 30
0.0
 11
9.504616
 21
7.900939
 31
0.0
  0
LINE
  8
OBJECT
 10
7.344616
 20
7.970939
 30
0.0
 11
9.504616
 21
7.970939
 31
0.0
  0
LINE
  8
OBJECT
 10
7.381616
 20
7.885939
 30
0.0
 11
9.467616
 21
7.885939
 31
0.0
  0
DIMENSION
  8
DIM
  2
*D19
 10
6.928178
 20
7.970939
 30
0.0
 11
7.70146
 21
8.600939
 31
0.0
 13
7.381616
 23
7.885939
 33
0.0
 14
7.344616
 24
7.970939
 34
0.0
 50
270.0
  3
23NSTD
  0
LINE
  8
HIDDEN
  6
HIDDEN2
 10
7.682616
 20
7.890413
 30
0.0
 11
7.752616
 21
7.970939
 31
0.0
  0
LINE
  8
OBJECT
 10
7.502616
 20
7.820939
 30
0.0
 11
7.752616
 21
7.820939
 31
0.0
  0
LINE
  8
OBJECT
 10
7.344616
 20
7.970939
 30
0.0
 11
7.344616
 21
7.900939
 31
0.0
  0
LINE
  8
OBJECT
 10
7.381616
 20
7.900939
 30
0.0
 11
7.381616
 21
7.885939
 31
0.0
  0
LINE
  8
HIDDEN
  6
HIDDEN2
 10
7.572616
 20
7.890413
 30
0.0
 11
7.682616
 21
7.890413
 31
0.0
  0
LINE
  8
HIDDEN
  6
HIDDEN2
 10
7.682616
 20
7.820939
 30
0.0
 11
7.682616
 21
7.890413
 31
0.0
  0
LINE
  8
HIDDEN
  6
HIDDEN2
 10
7.572616
 20
7.820939
 30
0.0
 11
7.572616
 21
7.890413
 31
0.0
  0
LINE
  8
OBJECT
 10
7.502616
 20
7.820939
 30
0.0
 11
7.502616
 21
7.885939
 31
0.0
  0
LINE
  8
HIDDEN
  6
HIDDEN2
 10
7.572616
 20
7.890413
 30
0.0
 11
7.502616
 21
7.970939
 31
0.0
  0
LINE
  8
OBJECT
 10
7.752616
 20
7.820939
 30
0.0
 11
7.752616
 21
7.885939
 31
0.0
  0
LINE
  8
OBJECT
 10
11.344468
 20
7.885939
 30
0.0
 11
13.183468
 21
7.885939
 31
0.0
  0
LINE
  8
OBJECT
 10
11.307468
 20
7.900939
 30
0.0
 11
15.337468
 21
7.900939
 31
0.0
  0
LINE
  8
OBJECT
 10
11.307468
 20
7.970939
 30
0.0
 11
15.337468
 21
7.970939
 31
0.0
  0
LINE
  8
HIDDEN
  6
HIDDEN2
 10
9.276616
 20
7.890413
 30
0.0
 11
9.166616
 21
7.890413
 31
0.0
  0
LINE
  8
OBJECT
 10
9.346616
 20
7.820939
 30
0.0
 11
9.096616
 21
7.820939
 31
0.0
  0
LINE
  8
HIDDEN
  6
HIDDEN2
 10
9.166616
 20
7.890413
 30
0.0
 11
9.096616
 21
7.970939
 31
0.0
  0
LINE
  8
HIDDEN
  6
HIDDEN2
 10
9.166616
 20
7.820939
 30
0.0
 11
9.166616
 21
7.890413
 31
0.0
  0
LINE
  8
OBJECT
 10
9.096616
 20
7.820939
 30
0.0
 11
9.096616
 21
7.885939
 31
0.0
  0
LINE
  8
OBJECT
 10
9.504616
 20
7.970939
 30
0.0
 11
9.504616
 21
7.900939
 31
0.0
  0
LINE
  8
HIDDEN
  6
HIDDEN2
 10
9.276616
 20
7.890413
 30
0.0
 11
9.346616
 21
7.970939
 31
0.0
  0
LINE
  8
OBJECT
 10
9.346616
 20
7.820939
 30
0.0
 11
9.346616
 21
7.885939
 31
0.0
  0
LINE
  8
HIDDEN
  6
HIDDEN2
 10
9.276616
 20
7.820939
 30
0.0
 11
9.276616
 21
7.890413
 31
0.0
  0
LINE
  8
OBJECT
 10
9.358616
 20
7.683939
 30
0.0
 11
9.467616
 21
7.683939
 31
0.0
  0
LINE
  8
OBJECT
 10
9.467616
 20
7.900939
 30
0.0
 11
9.467616
 21
7.683939
 31
0.0
  0
LINE
  8
OBJECT
 10
9.358616
 20
7.885939
 30
0.0
 11
9.358616
 21
7.683939
 31
0.0
  0
LINE
  8
OBJECT
 10
11.307468
 20
7.970939
 30
0.0
 11
11.307468
 21
7.900939
 31
0.0
  0
LINE
  8
HIDDEN
  6
HIDDEN2
 10
11.533468
 20
7.890413
 30
0.0
 11
11.643468
 21
7.890413
 31
0.0
  0
LINE
  8
OBJECT
 10
11.463468
 20
7.820939
 30
0.0
 11
11.713468
 21
7.820939
 31
0.0
  0
LINE
  8
OBJECT
 10
11.344468
 20
7.900939
 30
0.0
 11
11.344468
 21
7.885939
 31
0.0
  0
LINE
  8
HIDDEN
  6
HIDDEN2
 10
11.533468
 20
7.890413
 30
0.0
 11
11.463468
 21
7.970939
 31
0.0
  0
LINE
  8
HIDDEN
  6
HIDDEN2
 10
11.533468
 20
7.820939
 30
0.0
 11
11.533468
 21
7.890413
 31
0.0
  0
LINE
  8
OBJECT
 10
11.463468
 20
7.820939
 30
0.0
 11
11.463468
 21
7.885939
 31
0.0
  0
LINE
  8
HIDDEN
  6
HIDDEN2
 10
11.643468
 20
7.890413
 30
0.0
 11
11.713468
 21
7.970939
 31
0.0
  0
LINE
  8
HIDDEN
  6
HIDDEN2
 10
11.643468
 20
7.820939
 30
0.0
 11
11.643468
 21
7.890413
 31
0.0
  0
LINE
  8
OBJECT
 10
11.713468
 20
7.820939
 30
0.0
 11
11.713468
 21
7.885939
 31
0.0
  0
LINE
  8
OBJECT
 10
13.461468
 20
7.885939
 30
0.0
 11
15.300468
 21
7.885939
 31
0.0
  0
LINE
  8
OBJECT
 10
13.183468
 20
7.683939
 30
0.0
 11
13.461468
 21
7.683939
 31
0.0
  0
LINE
  8
OBJECT
 10
13.183468
 20
7.885939
 30
0.0
 11
13.183468
 21
7.683939
 31
0.0
  0
LINE
  8
OBJECT
 10
13.461468
 20
7.885939
 30
0.0
 11
13.461468
 21
7.683939
 31
0.0
  0
LINE
  8
HIDDEN
  6
HIDDEN2
 10
15.111468
 20
7.890413
 30
0.0
 11
15.181468
 21
7.970939
 31
0.0
  0
LINE
  8
HIDDEN
  6
HIDDEN2
 10
15.111468
 20
7.820939
 30
0.0
 11
15.111468
 21
7.890413
 31
0.0
  0
LINE
  8
OBJECT
 10
15.181468
 20
7.820939
 30
0.0
 11
15.181468
 21
7.885939
 31
0.0
  0
LINE
  8
HIDDEN
  6
HIDDEN2
 10
15.001468
 20
7.890413
 30
0.0
 11
14.931468
 21
7.970939
 31
0.0
  0
LINE
  8
OBJECT
 10
14.931468
 20
7.820939
 30
0.0
 11
14.931468
 21
7.885939
 31
0.0
  0
LINE
  8
HIDDEN
  6
HIDDEN2
 10
15.001468
 20
7.820939
 30
0.0
 11
15.001468
 21
7.890413
 31
0.0
  0
LINE
  8
HIDDEN
  6
HIDDEN2
 10
15.111468
 20
7.890413
 30
0.0
 11
15.001468
 21
7.890413
 31
0.0
  0
LINE
  8
OBJECT
 10
15.181468
 20
7.820939
 30
0.0
 11
14.931468
 21
7.820939
 31
0.0
  0
LINE
  8
OBJECT
 10
15.300468
 20
7.900939
 30
0.0
 11
15.300468
 21
7.885939
 31
0.0
  0
LINE
  8
OBJECT
 10
15.337468
 20
7.970939
 30
0.0
 11
15.337468
 21
7.900939
 31
0.0
  0
TEXT
  8
TEXT
 10
11.802353
 20
26.487125
 30
0.0
 40
0.32725
  1
CU-793  &  CUR-793
 50
360.0
 41
0.75
 72
     1
 11
13.970384
 21
26.487125
 31
0.0
  0
TEXT
  8
TEXT
 10
0.802905
 20
24.953782
 30
0.0
 40
0.21875
  1
(FLAMMABILITY RATING OF 94V-O AT
 41
0.75
  0
TEXT
  8
TEXT
 10
3.469791
 20
22.403449
 30
0.0
 40
0.2184
  1
WITH SMOOTH RECESSED INSERT AREA.
 41
0.75
  0
TEXT
  8
TEXT
 10
3.469791
 20
23.131449
 30
0.0
 40
0.2184
  1
WITH TEXTURED INSERT AREA.
 41
0.75
  0
TEXT
  8
TEXT
 10
0.503443
 20
22.767449
 30
0.0
 40
0.21875
  1
BODY (SUFFIX -R) - OUTSIDE SURFACES ARE TEXTURED FINISH
 41
0.75
  0
TEXT
  8
TEXT
 10
0.503443
 20
23.495449
 30
0.0
 40
0.21875
  1
BODY (NO SUFFIX) - OUTSIDE SURFACES ARE TEXTURED FINISH
 41
0.75
  0
TEXT
  8
TEXT
 10
0.503443
 20
22.037699
 30
0.0
 40
0.2184
  1
COVER - SURFACES ARE SMOOTH.
 41
0.75
  0
TEXT
  8
TEXT
 10
0.328333
 20
21.308532
 30
0.0
 40
0.21875
  1
%%uCOLOR:%%u BLACK
 41
0.75
  0
POLYLINE
  8
DIM
 66
     1
 10
0.0
 20
0.0
 30
0.0
 41
0.118125
  0
VERTEX
  8
DIM
 10
11.511127
 20
11.545134
 30
0.0
  0
VERTEX
  8
DIM
 10
11.388979
 20
11.835487
 30
0.0
 41
0.0
  0
VERTEX
  8
DIM
 10
10.980022
 20
12.807605
 30
0.0
 41
0.0
  0
VERTEX
  8
DIM
 10
10.665022
 20
12.807605
 30
0.0
 41
0.0
  0
SEQEND
  8
DIM
  0
TEXT
  8
DIM
 10
7.636428
 20
12.69823
 30
0.0
 40
0.21875
  1
0.218 DIA. BOSS WITH
 41
0.75
 72
     2
 11
10.507522
 21
12.807605
 31
0.0
 73
     2
  0
TEXT
  8
DIM
 10
6.515334
 20
12.333646
 30
0.0
 40
0.21875
  1
0.090 DIA. HOLE x 0.500 DEEP
 41
0.75
 72
     2
 11
10.507522
 21
12.443021
 31
0.0
 73
     2
  0
TEXT
  8
DIM
 10
9.030959
 20
11.969063
 30
0.0
 40
0.21875
  1
(4) PLACES
 41
0.75
 72
     2
 11
10.507522
 21
12.078438
 31
0.0
 73
     2
  0
TEXT
  8
DIM
 10
6.563489
 20
24.866208
 30
0.0
 40
0.21875
  1
0.090 DIA. HOLE x 0.500 DEEP
 41
0.75
 72
     2
 11
10.555676
 21
24.975583
 31
0.0
 73
     2
  0
TEXT
  8
DIM
 10
9.079114
 20
24.501625
 30
0.0
 40
0.21875
  1
(4) PLACES
 41
0.75
 72
     2
 11
10.555676
 21
24.611
 31
0.0
 73
     2
  0
TEXT
  8
DIM
 10
7.684583
 20
25.230792
 30
0.0
 40
0.21875
  1
0.218 DIA. BOSS WITH
 41
0.75
 72
     2
 11
10.555676
 21
25.340167
 31
0.0
 73
     2
  0
POLYLINE
  8
DIM
 66
     1
 10
0.0
 20
0.0
 30
0.0
 41
0.118125
  0
VERTEX
  8
DIM
 10
11.510079
 20
24.555096
 30
0.0
  0
VERTEX
  8
DIM
 10
11.345291
 20
24.823554
 30
0.0
 41
0.0
  0
VERTEX
  8
DIM
 10
11.028176
 20
25.340167
 30
0.0
 41
0.0
  0
VERTEX
  8
DIM
 10
10.713176
 20
25.340167
 30
0.0
 41
0.0
  0
SEQEND
  8
DIM
  0
TEXT
  8
TEXT
 10
0.328333
 20
23.860032
 30
0.0
 40
0.21875
  1
%%uFINISH:
 41
0.75
  0
TEXT
  8
TEXT
 10
0.328333
 20
25.682949
 30
0.0
 40
0.21875
  1
%%uMATERIAL:
 41
0.75
  0
TEXT
  8
TEXT
 10
3.010875
 20
13.584032
 30
0.0
 40
0.32725
  1
UTILIBOX  (STYLE E)
 41
0.75
 72
     1
 11
5.138
 21
13.584032
 31
0.0
  0
TEXT
  8
TEXT
 10
11.06604
 20
13.584032
 30
0.0
 40
0.32725
  1
CU-793-MB  &  CUR-793-MB
 50
360.0
 41
0.75
 72
     1
 11
13.970384
 21
13.584032
 31
0.0
  0
TEXT
  8
TEXT
 10
0.328333
 20
18.040959
 30
0.0
 40
0.219
  1
FOUR (4) #4 x 0.500" LG. SELF THREADING
 41
0.75
  0
TEXT
  8
TEXT
 10
0.328333
 20
17.675959
 30
0.0
 40
0.219
  1
SCREWS WITH HI/LOW THREADS
 41
0.75
  0
TEXT
  8
TEXT
 10
0.328333
 20
17.310959
 30
0.0
 40
0.219
  1
ARE SUPPLIED FOR MOUNTING COVER.
 41
0.75
  0
TEXT
  8
TEXT
 10
0.503443
 20
9.17655
 30
0.0
 40
0.2184
  1
COVER - SURFACES ARE SMOOTH.
 41
0.75
  0
TEXT
  8
TEXT
 10
0.503443
 20
10.6343
 30
0.0
 40
0.21875
  1
BODY (SUFFIX -MB) - OUTSIDE SURFACES ARE TEXTURED FINISH
 41
0.75
  0
TEXT
  8
TEXT
 10
0.503443
 20
9.9063
 30
0.0
 40
0.21875
  1
BODY (SUFFIX -RMB) - OUTSIDE SURFACES ARE TEXTURED FINISH
 41
0.75
  0
TEXT
  8
TEXT
 10
3.628331
 20
10.2703
 30
0.0
 40
0.2184
  1
WITH TEXTURED INSERT AREA.
 41
0.75
  0
TEXT
  8
TEXT
 10
3.857335
 20
9.5423
 30
0.0
 40
0.2184
  1
WITH SMOOTH RECESSED INSERT AREA.
 41
0.75
  0
TEXT
  8
TEXT
 10
0.802905
 20
12.092633
 30
0.0
 40
0.21875
  1
(FLAMMABILITY RATING OF 94V-O AT
 41
0.75
  0
TEXT
  8
TEXT
 10
0.865391
 20
11.363467
 30
0.0
 40
0.21875
  1
USE TEMPERATURE OF 70%%D C.)
 41
0.75
  0
TEXT
  8
TEXT
 10
0.865391
 20
11.72805
 30
0.0
 40
0.21875
  1
0.070" THICKNESS AND CONTINUOUS
 41
0.75
  0
TEXT
  8
TEXT
 10
0.503443
 20
12.457217
 30
0.0
 40
0.21875
  1
ABS THERMOPLASTIC
 41
0.75
  0
TEXT
  8
TEXT
 10
0.328333
 20
4.44981
 30
0.0
 40
0.219
  1
ARE SUPPLIED FOR MOUNTING COVER.
 41
0.75
  0
TEXT
  8
TEXT
 10
0.328333
 20
4.81481
 30
0.0
 40
0.219
  1
SCREWS WITH HI/LOW THREADS
 41
0.75
  0
TEXT
  8
TEXT
 10
0.328333
 20
5.90981
 30
0.0
 40
0.21875
  1
OPEN END DUE TO TAPER.
 41
0.75
  0
TEXT
  8
TEXT
 10
0.328333
 20
6.274394
 30
0.0
 40
0.21875
  1
DIMENSIONS INCREASE SLIGHTLY AT
 41
0.75
  0
TEXT
  8
TEXT
 10
0.328333
 20
6.638977
 30
0.0
 40
0.21875
  1
TAKEN FROM CLOSED END OF THE BOX.
 41
0.75
  0
TEXT
  8
TEXT
 10
0.328333
 20
7.00356
 30
0.0
 40
0.21875
  1
LENGTH AND WIDTH DIMENSIONS ARE
 41
0.75
  0
TEXT
  8
TEXT
 10
0.328333
 20
7.73156
 30
0.0
 40
0.21875
  1
COVER REDUCES INSIDE HEIGHT BY 0.085.
 41
0.75
  0
TEXT
  8
TEXT
 10
0.328333
 20
5.17981
 30
0.0
 40
0.219
  1
FOUR (4) #4 x 0.500" LG. SELF THREADING
 41
0.75
  0
TEXT
  8
TEXT
 10
0.328333
 20
8.447383
 30
0.0
 40
0.21875
  1
%%uCOLOR:%%u BLACK
 41
0.75
  0
TEXT
  8
TEXT
 10
0.328333
 20
12.8218
 30
0.0
 40
0.21875
  1
%%uMATERIAL:
 41
0.75
  0
TEXT
  8
TEXT
 10
0.328333
 20
10.998883
 30
0.0
 40
0.21875
  1
%%uFINISH:
 41
0.75
  0
POLYLINE
  8
DIM
 66
     1
 10
0.0
 20
0.0
 30
0.0
 41
0.118125
  0
VERTEX
  8
DIM
 10
11.997177
 20
15.633467
 30
0.0
  0
VERTEX
  8
DIM
 10
11.699978
 20
15.737859
 30
0.0
 41
0.0
  0
VERTEX
  8
DIM
 10
10.99297
 20
15.986197
 30
0.0
 41
0.0
  0
VERTEX
  8
DIM
 10
10.67797
 20
15.986197
 30
0.0
 41
0.0
  0
SEQEND
  8
DIM
  0
TEXT
  8
DIM
 10
6.856408
 20
15.876822
 30
0.0
 40
0.21875
  1
INSERT AREA TEXTURED OR
 41
0.75
 72
     2
 11
10.52047
 21
15.986197
 31
0.0
 73
     2
  0
TEXT
  8
DIM
 10
7.704064
 20
15.512239
 30
0.0
 40
0.21875
  1
RECESSED 0.010 DEEP
 41
0.75
 72
     2
 11
10.52047
 21
15.621614
 31
0.0
 73
     2
  0
TEXT
  8
DIM
 10
7.704064
 20
1.792027
 30
0.0
 40
0.21875
  1
RECESSED 0.010 DEEP
 41
0.75
 72
     2
 11
10.52047
 21
1.901402
 31
0.0
 73
     2
  0
TEXT
  8
DIM
 10
6.856408
 20
2.156611
 30
0.0
 40
0.21875
  1
INSERT AREA TEXTURED OR
 41
0.75
 72
     2
 11
10.52047
 21
2.265986
 31
0.0
 73
     2
  0
POLYLINE
  8
DIM
 66
     1
 10
0.0
 20
0.0
 30
0.0
 41
0.118125
  0
VERTEX
  8
DIM
 10
11.997177
 20
1.913255
 30
0.0
  0
VERTEX
  8
DIM
 10
11.699978
 20
2.017647
 30
0.0
 41
0.0
  0
VERTEX
  8
DIM
 10
10.99297
 20
2.265986
 30
0.0
 41
0.0
  0
VERTEX
  8
DIM
 10
10.67797
 20
2.265986
 30
0.0
 41
0.0
  0
SEQEND
  8
DIM
  0
TEXT
  8
TEXT
 10
14.014856
 20
23.547044
 30
0.0
 40
0.219
  1
C
 41
0.75
 72
     1
 11
14.069606
 21
23.547044
 31
0.0
  0
TEXT
  8
TEXT
 10
14.095322
 20
23.394973
 30
0.0
 40
0.219
  1
L
 41
0.75
 72
     1
 11
14.150072
 21
23.394973
 31
0.0
  0
TEXT
  8
TEXT
 10
13.365007
 20
24.010947
 30
0.0
 40
0.219
  1
L
 41
0.75
 72
     1
 11
13.419757
 21
24.010947
 31
0.0
  0
TEXT
  8
TEXT
 10
13.28454
 20
24.163018
 30
0.0
 40
0.219
  1
C
 41
0.75
 72
     1
 11
13.33929
 21
24.163018
 31
0.0
  0
TEXT
  8
TEXT
 10
13.365007
 20
10.999915
 30
0.0
 40
0.219
  1
L
 41
0.75
 72
     1
 11
13.419757
 21
10.999915
 31
0.0
  0
TEXT
  8
TEXT
 10
13.28454
 20
11.151986
 30
0.0
 40
0.219
  1
C
 41
0.75
 72
     1
 11
13.33929
 21
11.151986
 31
0.0
  0
TEXT
  8
TEXT
 10
14.014856
 20
10.536012
 30
0.0
 40
0.219
  1
C
 41
0.75
 72
     1
 11
14.069606
 21
10.536012
 31
0.0
  0
TEXT
  8
TEXT
 10
14.095322
 20
10.383941
 30
0.0
 40
0.219
  1
L
 41
0.75
 72
     1
 11
14.150072
 21
10.383941
 31
0.0
  0
LINE
  8
0
  6
BYBLOCK
 62
     0
 10
7.307116
 20
20.464854
 30
0.0
 11
7.307116
 21
21.356303
 31
0.0
  0
LINE
  8
0
  6
BYBLOCK
 62
     0
 10
9.542116
 20
20.464854
 30
0.0
 11
9.542116
 21
21.356303
 31
0.0
  0
LINE
  8
0
  6
BYBLOCK
 62
     0
 10
7.622116
 20
21.193553
 30
0.0
 11
7.952663
 21
21.193553
 31
0.0
  0
LINE
  8
0
  6
BYBLOCK
 62
     0
 10
9.227116
 20
21.193553
 30
0.0
 11
8.896569
 21
21.193553
 31
0.0
  0
SOLID
  8
0
  6
BYBLOCK
 62
     0
 10
7.622116
 20
21.246053
 30
0.0
 11
7.622116
 21
21.141053
 31
0.0
 12
7.307116
 22
21.193553
 32
0.0
 13
7.307116
 23
21.193553
 33
0.0
  0
SOLID
  8
0
  6
BYBLOCK
 62
     0
 10
9.227116
 20
21.246053
 30
0.0
 11
9.227116
 21
21.141053
 31
0.0
 12
9.542116
 22
21.193553
 32
0.0
 13
9.542116
 23
21.193553
 33
0.0
  0
TEXT
  8
0
  6
BYBLOCK
 62
     0
 10
8.110163
 20
21.084178
 30
0.0
 40
0.21875
  1
2.230
 41
0.75
 72
     4
 11
8.424616
 21
21.193553
 31
0.0
  0
POINT
  8
DEFPOINTS
  6
BYBLOCK
 62
     0
 10
7.307116
 20
20.354604
 30
0.0
  0
POINT
  8
DEFPOINTS
  6
BYBLOCK
 62
     0
 10
9.542116
 20
20.354604
 30
0.0
  0
POINT
  8
DEFPOINTS
  6
BYBLOCK
 62
     0
 10
9.542116
 20
21.193553
 30
0.0
  0
LINE
  8
0
  6
BYBLOCK
 62
     0
 10
7.307116
 20
20.464854
 30
0.0
 11
7.307116
 21
20.836573
 31
0.0
  0
LINE
  8
0
  6
BYBLOCK
 62
     0
 10
7.347116
 20
20.464854
 30
0.0
 11
7.347116
 21
20.836573
 31
0.0
  0
LINE
  8
0
  6
BYBLOCK
 62
     0
 10
6.992116
 20
20.673823
 30
0.0
 11
6.677116
 21
20.673823
 31
0.0
  0
LINE
  8
0
  6
BYBLOCK
 62
     0
 10
7.662116
 20
20.673823
 30
0.0
 11
7.977116
 21
20.673823
 31
0.0
  0
SOLID
  8
0
  6
BYBLOCK
 62
     0
 10
6.992116
 20
20.726323
 30
0.0
 11
6.992116
 21
20.621323
 31
0.0
 12
7.307116
 22
20.673823
 32
0.0
 13
7.307116
 23
20.673823
 33
0.0
  0
SOLID
  8
0
  6
BYBLOCK
 62
     0
 10
7.662116
 20
20.726323
 30
0.0
 11
7.662116
 21
20.621323
 31
0.0
 12
7.347116
 22
20.673823
 32
0.0
 13
7.347116
 23
20.673823
 33
0.0
  0
TEXT
  8
0
  6
BYBLOCK
 62
     0
 10
8.763522
 20
20.564448
 30
0.0
 40
0.21875
  1
 TYP.
 41
0.75
 72
     1
 11
9.091647
 21
20.673823
 31
0.0
 73
     2
  0
TEXT
  8
0
  6
BYBLOCK
 62
     0
 10
8.120944
 20
20.564448
 30
0.0
 40
0.21875
  1
0.035
 41
0.75
 72
     4
 11
8.421725
 21
20.673823
 31
0.0
  0
POINT
  8
DEFPOINTS
  6
BYBLOCK
 62
     0
 10
7.307116
 20
20.354604
 30
0.0
  0
POINT
  8
DEFPOINTS
  6
BYBLOCK
 62
     0
 10
7.347116
 20
20.354604
 30
0.0
  0
POINT
  8
DEFPOINTS
  6
BYBLOCK
 62
     0
 10
7.347116
 20
20.673823
 30
0.0
  0
LINE
  8
0
  6
BYBLOCK
 62
     0
 10
7.307116
 20
19.903113
 30
0.0
 11
7.307116
 21
17.057053
 31
0.0
  0
LINE
  8
0
  6
BYBLOCK
 62
     0
 10
7.365147
 20
18.244396
 30
0.0
 11
7.397764
 21
17.058299
 31
0.0
  0
ARC
  8
0
  6
BYBLOCK
 62
     0
 10
7.307116
 20
20.354604
 30
0.0
 40
3.134802
 50
258.480438
 51
264.240219
  0
ARC
  8
0
  6
BYBLOCK
 62
     0
 10
7.307116
 20
20.354604
 30
0.0
 40
3.134802
 50
277.335018
 51
283.094799
  0
SOLID
  8
0
  6
BYBLOCK
 62
     0
 10
6.995152
 20
17.288063
 30
0.0
 11
6.989876
 21
17.183195
 31
0.0
 12
7.307116
 22
17.219803
 32
0.0
 13
7.307116
 23
17.219803
 33
0.0
  0
SOLID
  8
0
  6
BYBLOCK
 62
     0
 10
7.711417
 20
17.193114
 30
0.0
 11
7.703261
 21
17.297797
 31
0.0
 12
7.39329
 22
17.220987
 32
0.0
 13
7.39329
 23
17.220987
 33
0.0
  0
TEXT
  8
0
  6
BYBLOCK
 62
     0
 10
8.468004
 20
17.186174
 30
0.0
 40
0.21875
  1
 REF.
 41
0.75
 72
     1
 11
8.796129
 21
17.295549
 31
0.0
 73
     2
  0
TEXT
  8
0
  6
BYBLOCK
 62
     0
 10
8.030504
 20
17.186174
 30
0.0
 40
0.21875
  1
1%%d30'
 41
0.75
 72
     4
 11
8.303942
 21
17.295549
 31
0.0
  0
POINT
  8
DEFPOINTS
  6
BYBLOCK
 62
     0
 10
7.330803
 20
17.219892
 30
0.0
  0
POINT
  8
DEFPOINTS
  6
BYBLOCK
 62
     0
 10
7.362116
 20
18.354604
 30
0.0
  0
POINT
  8
DEFPOINTS
  6
BYBLOCK
 62
     0
 10
7.307116
 20
20.054142
 30
0.0
  0
POINT
  8
DEFPOINTS
  6
BYBLOCK
 62
     0
 10
7.307116
 20
20.013363
 30
0.0
  0
POINT
  8
DEFPOINTS
  6
BYBLOCK
 62
     0
 10
7.361119
 20
18.39086
 30
0.0
  0
LINE
  8
0
  6
BYBLOCK
 62
     0
 10
11.427468
 20
16.910222
 30
0.0
 11
11.427468
 21
17.50537
 31
0.0
  0
LINE
  8
0
  6
BYBLOCK
 62
     0
 10
15.217468
 20
16.910222
 30
0.0
 11
15.217468
 21
17.50537
 31
0.0
  0
LINE
  8
0
  6
BYBLOCK
 62
     0
 10
11.742468
 20
17.34262
 30
0.0
 11
12.850514
 21
17.34262
 31
0.0
  0
LINE
  8
0
  6
BYBLOCK
 62
     0
 10
14.902468
 20
17.34262
 30
0.0
 11
13.794421
 21
17.34262
 31
0.0
  0
SOLID
  8
0
  6
BYBLOCK
 62
     0
 10
11.742468
 20
17.39512
 30
0.0
 11
11.742468
 21
17.29012
 31
0.0
 12
11.427468
 22
17.34262
 32
0.0
 13
11.427468
 23
17.34262
 33
0.0
  0
SOLID
  8
0
  6
BYBLOCK
 62
     0
 10
14.902468
 20
17.39512
 30
0.0
 11
14.902468
 21
17.29012
 31
0.0
 12
15.217468
 22
17.34262
 32
0.0
 13
15.217468
 23
17.34262
 33
0.0
  0
TEXT
  8
0
  6
BYBLOCK
 62
     0
 10
12.994343
 20
17.233245
 30
0.0
 40
0.21875
  1
3.785
 41
0.75
 72
     4
 11
13.322468
 21
17.34262
 31
0.0
  0
POINT
  8
DEFPOINTS
  6
BYBLOCK
 62
     0
 10
11.427468
 20
16.799972
 30
0.0
  0
POINT
  8
DEFPOINTS
  6
BYBLOCK
 62
     0
 10
15.217468
 20
16.799972
 30
0.0
  0
POINT
  8
DEFPOINTS
  6
BYBLOCK
 62
     0
 10
15.217468
 20
17.34262
 30
0.0
  0
LINE
  8
0
  6
BYBLOCK
 62
     0
 10
15.327718
 20
16.799972
 30
0.0
 11
16.094631
 21
16.799972
 31
0.0
  0
LINE
  8
0
  6
BYBLOCK
 62
     0
 10
15.327718
 20
14.893972
 30
0.0
 11
16.094631
 21
14.893972
 31
0.0
  0
LINE
  8
0
  6
BYBLOCK
 62
     0
 10
15.931881
 20
16.484972
 30
0.0
 11
15.931881
 21
16.113847
 31
0.0
  0
LINE
  8
0
  6
BYBLOCK
 62
     0
 10
15.931881
 20
15.208972
 30
0.0
 11
15.931881
 21
15.580097
 31
0.0
  0
SOLID
  8
0
  6
BYBLOCK
 62
     0
 10
15.879381
 20
16.484972
 30
0.0
 11
15.984381
 21
16.484972
 31
0.0
 12
15.931881
 22
16.799972
 32
0.0
 13
15.931881
 23
16.799972
 33
0.0
  0
SOLID
  8
0
  6
BYBLOCK
 62
     0
 10
15.879381
 20
15.208972
 30
0.0
 11
15.984381
 21
15.208972
 31
0.0
 12
15.931881
 22
14.893972
 32
0.0
 13
15.931881
 23
14.893972
 33
0.0
  0
TEXT
  8
0
  6
BYBLOCK
 62
     0
 10
15.672116
 20
15.737597
 30
0.0
 40
0.21875
  1
1.910
 41
0.75
 72
     4
 11
15.931881
 21
15.846972
 31
0.0
  0
POINT
  8
DEFPOINTS
  6
BYBLOCK
 62
     0
 10
15.217468
 20
16.799972
 30
0.0
  0
POINT
  8
DEFPOINTS
  6
BYBLOCK
 62
     0
 10
15.217468
 20
14.893972
 30
0.0
  0
POINT
  8
DEFPOINTS
  6
BYBLOCK
 62
     0
 10
15.931881
 20
14.893972
 30
0.0
  0
LINE
  8
0
  6
BYBLOCK
 62
     0
 10
11.807718
 20
20.194604
 30
0.0
 11
12.178071
 21
20.194604
 31
0.0
  0
LINE
  8
0
  6
BYBLOCK
 62
     0
 10
11.933927
 20
20.354604
 30
0.0
 11
11.852571
 21
20.354604
 31
0.0
  0
LINE
  8
0
  6
BYBLOCK
 62
     0
 10
12.015321
 20
19.879604
 30
0.0
 11
12.015321
 21
19.564604
 31
0.0
  0
LINE
  8
0
  6
BYBLOCK
 62
     0
 10
12.015321
 20
20.669604
 30
0.0
 11
12.015321
 21
20.984604
 31
0.0
  0
LINE
  8
0
  6
BYBLOCK
 62
     0
 10
12.015321
 20
20.984604
 30
0.0
 11
12.330321
 21
20.984604
 31
0.0
  0
SOLID
  8
0
  6
BYBLOCK
 62
     0
 10
11.962821
 20
19.879604
 30
0.0
 11
12.067821
 21
19.879604
 31
0.0
 12
12.015321
 22
20.194604
 32
0.0
 13
12.015321
 23
20.194604
 33
0.0
  0
SOLID
  8
0
  6
BYBLOCK
 62
     0
 10
11.962821
 20
20.669604
 30
0.0
 11
12.067821
 21
20.669604
 31
0.0
 12
12.015321
 22
20.354604
 32
0.0
 13
12.015321
 23
20.354604
 33
0.0
  0
TEXT
  8
0
  6
BYBLOCK
 62
     0
 10
12.487821
 20
20.875229
 30
0.0
 40
0.21875
  1
0.150
 41
0.75
 72
     4
 11
12.761258
 21
20.984604
 31
0.0
  0
POINT
  8
DEFPOINTS
  6
BYBLOCK
 62
     0
 10
11.697468
 20
20.194604
 30
0.0
  0
POINT
  8
DEFPOINTS
  6
BYBLOCK
 62
     0
 10
12.044177
 20
20.354604
 30
0.0
  0
POINT
  8
DEFPOINTS
  6
BYBLOCK
 62
     0
 10
12.015321
 20
20.354604
 30
0.0
  0
LINE
  8
0
  6
BYBLOCK
 62
     0
 10
15.377468
 20
20.464854
 30
0.0
 11
15.377468
 21
21.519053
 31
0.0
  0
LINE
  8
0
  6
BYBLOCK
 62
     0
 10
11.267468
 20
20.464854
 30
0.0
 11
11.267468
 21
21.519053
 31
0.0
  0
LINE
  8
0
  6
BYBLOCK
 62
     0
 10
15.062468
 20
21.356303
 30
0.0
 11
13.739733
 21
21.356303
 31
0.0
  0
LINE
  8
0
  6
BYBLOCK
 62
     0
 10
11.582468
 20
21.356303
 30
0.0
 11
12.905202
 21
21.356303
 31
0.0
  0
SOLID
  8
0
  6
BYBLOCK
 62
     0
 10
15.062468
 20
21.408803
 30
0.0
 11
15.062468
 21
21.303803
 31
0.0
 12
15.377468
 22
21.356303
 32
0.0
 13
15.377468
 23
21.356303
 33
0.0
  0
SOLID
  8
0
  6
BYBLOCK
 62
     0
 10
11.582468
 20
21.408803
 30
0.0
 11
11.582468
 21
21.303803
 31
0.0
 12
11.267468
 22
21.356303
 32
0.0
 13
11.267468
 23
21.356303
 33
0.0
  0
TEXT
  8
0
  6
BYBLOCK
 62
     0
 10
13.035358
 20
21.246928
 30
0.0
 40
0.21875
  1
4.105
 41
0.75
 72
     4
 11
13.322468
 21
21.356303
 31
0.0
  0
POINT
  8
DEFPOINTS
  6
BYBLOCK
 62
     0
 10
15.377468
 20
20.354604
 30
0.0
  0
POINT
  8
DEFPOINTS
  6
BYBLOCK
 62
     0
 10
11.267468
 20
20.354604
 30
0.0
  0
POINT
  8
DEFPOINTS
  6
BYBLOCK
 62
     0
 10
11.267468
 20
21.356303
 30
0.0
  0
LINE
  8
0
  6
BYBLOCK
 62
     0
 10
15.166718
 20
24.479358
 30
0.0
 11
16.078353
 21
24.479358
 31
0.0
  0
LINE
  8
0
  6
BYBLOCK
 62
     0
 10
13.545218
 20
23.682358
 30
0.0
 11
16.078353
 21
23.682358
 31
0.0
  0
LINE
  8
0
  6
BYBLOCK
 62
     0
 10
15.915603
 20
24.794358
 30
0.0
 11
15.915603
 21
25.109358
 31
0.0
  0
LINE
  8
0
  6
BYBLOCK
 62
     0
 10
15.915603
 20
23.367358
 30
0.0
 11
15.915603
 21
23.052358
 31
0.0
  0
SOLID
  8
0
  6
BYBLOCK
 62
     0
 10
15.863103
 20
24.794358
 30
0.0
 11
15.968103
 21
24.794358
 31
0.0
 12
15.915603
 22
24.479358
 32
0.0
 13
15.915603
 23
24.479358
 33
0.0
  0
SOLID
  8
0
  6
BYBLOCK
 62
     0
 10
15.863103
 20
23.367358
 30
0.0
 11
15.968103
 21
23.367358
 31
0.0
 12
15.915603
 22
23.682358
 32
0.0
 13
15.915603
 23
23.682358
 33
0.0
  0
TEXT
  8
0
  6
BYBLOCK
 62
     0
 10
15.60115
 20
23.971483
 30
0.0
 40
0.21875
  1
0.796
 41
0.75
 72
     4
 11
15.915603
 21
24.080858
 31
0.0
  0
POINT
  8
DEFPOINTS
  6
BYBLOCK
 62
     0
 10
15.056468
 20
24.479358
 30
0.0
  0
POINT
  8
DEFPOINTS
  6
BYBLOCK
 62
     0
 10
13.434968
 20
23.682358
 30
0.0
  0
POINT
  8
DEFPOINTS
  6
BYBLOCK
 62
     0
 10
15.915603
 20
23.682358
 30
0.0
  0
LINE
  8
0
  6
BYBLOCK
 62
     0
 10
15.166718
 20
22.885358
 30
0.0
 11
16.822077
 21
22.885358
 31
0.0
  0
LINE
  8
0
  6
BYBLOCK
 62
     0
 10
15.166718
 20
24.479358
 30
0.0
 11
16.822077
 21
24.479358
 31
0.0
  0
LINE
  8
0
  6
BYBLOCK
 62
     0
 10
16.659327
 20
23.200358
 30
0.0
 11
16.659327
 21
23.415483
 31
0.0
  0
LINE
  8
0
  6
BYBLOCK
 62
     0
 10
16.659327
 20
24.164358
 30
0.0
 11
16.659327
 21
23.949233
 31
0.0
  0
SOLID
  8
0
  6
BYBLOCK
 62
     0
 10
16.606827
 20
23.200358
 30
0.0
 11
16.711827
 21
23.200358
 31
0.0
 12
16.659327
 22
22.885358
 32
0.0
 13
16.659327
 23
22.885358
 33
0.0
  0
SOLID
  8
0
  6
BYBLOCK
 62
     0
 10
16.606827
 20
24.164358
 30
0.0
 11
16.711827
 21
24.164358
 31
0.0
 12
16.659327
 22
24.479358
 32
0.0
 13
16.659327
 23
24.479358
 33
0.0
  0
TEXT
  8
0
  6
BYBLOCK
 62
     0
 10
16.358546
 20
23.572983
 30
0.0
 40
0.21875
  1
1.594
 41
0.75
 72
     4
 11
16.659327
 21
23.682358
 31
0.0
  0
POINT
  8
DEFPOINTS
  6
BYBLOCK
 62
     0
 10
15.056468
 20
22.885358
 30
0.0
  0
POINT
  8
DEFPOINTS
  6
BYBLOCK
 62
     0
 10
15.056468
 20
24.479358
 30
0.0
  0
POINT
  8
DEFPOINTS
  6
BYBLOCK
 62
     0
 10
16.659327
 20
24.479358
 30
0.0
  0
LINE
  8
0
  6
BYBLOCK
 62
     0
 10
7.307116
 20
5.777172
 30
0.0
 11
7.307116
 21
3.026242
 31
0.0
  0
LINE
  8
0
  6
BYBLOCK
 62
     0
 10
7.365147
 20
4.118455
 30
0.0
 11
7.395149
 21
3.027452
 31
0.0
  0
ARC
  8
0
  6
BYBLOCK
 62
     0
 10
7.307116
 20
6.228663
 30
0.0
 40
3.039672
 50
258.119602
 51
264.059801
  0
ARC
  8
0
  6
BYBLOCK
 62
     0
 10
7.307116
 20
6.228663
 30
0.0
 40
3.039672
 50
277.515436
 51
283.455635
  0
SOLID
  8
0
  6
BYBLOCK
 62
     0
 10
6.995259
 20
3.257743
 30
0.0
 11
6.989819
 21
3.152884
 31
0.0
 12
7.307116
 22
3.188992
 32
0.0
 13
7.307116
 23
3.188992
 33
0.0
  0
SOLID
  8
0
  6
BYBLOCK
 62
     0
 10
7.708845
 20
3.162768
 30
0.0
 11
7.700524
 21
3.267438
 31
0.0
 12
7.390675
 22
3.19014
 32
0.0
 13
7.390675
 23
3.19014
 33
0.0
  0
TEXT
  8
0
  6
BYBLOCK
 62
     0
 10
8.59151
 20
3.155366
 30
0.0
 40
0.21875
  1
 REF.
 41
0.75
 72
     1
 11
8.919635
 21
3.264741
 31
0.0
 73
     2
  0
TEXT
  8
0
  6
BYBLOCK
 62
     0
 10
8.075557
 20
3.155366
 30
0.0
 40
0.21875
  1
1%%d30'
 41
0.75
 72
     4
 11
8.348995
 21
3.264741
 31
0.0
  0
POINT
  8
DEFPOINTS
  6
BYBLOCK
 62
     0
 10
7.330803
 20
3.189084
 30
0.0
  0
POINT
  8
DEFPOINTS
  6
BYBLOCK
 62
     0
 10
7.362116
 20
4.228663
 30
0.0
  0
POINT
  8
DEFPOINTS
  6
BYBLOCK
 62
     0
 10
7.307116
 20
5.928201
 30
0.0
  0
POINT
  8
DEFPOINTS
  6
BYBLOCK
 62
     0
 10
7.307116
 20
5.887422
 30
0.0
  0
POINT
  8
DEFPOINTS
  6
BYBLOCK
 62
     0
 10
7.361119
 20
4.264919
 30
0.0
  0
LINE
  8
0
  6
BYBLOCK
 62
     0
 10
7.307116
 20
6.338913
 30
0.0
 11
7.307116
 21
7.230362
 31
0.0
  0
LINE
  8
0
  6
BYBLOCK
 62
     0
 10
9.542116
 20
6.338913
 30
0.0
 11
9.542116
 21
7.230362
 31
0.0
  0
LINE
  8
0
  6
BYBLOCK
 62
     0
 10
7.622116
 20
7.067612
 30
0.0
 11
7.952663
 21
7.067612
 31
0.0
  0
LINE
  8
0
  6
BYBLOCK
 62
     0
 10
9.227116
 20
7.067612
 30
0.0
 11
8.896569
 21
7.067612
 31
0.0
  0
SOLID
  8
0
  6
BYBLOCK
 62
     0
 10
7.622116
 20
7.120112
 30
0.0
 11
7.622116
 21
7.015112
 31
0.0
 12
7.307116
 22
7.067612
 32
0.0
 13
7.307116
 23
7.067612
 33
0.0
  0
SOLID
  8
0
  6
BYBLOCK
 62
     0
 10
9.227116
 20
7.120112
 30
0.0
 11
9.227116
 21
7.015112
 31
0.0
 12
9.542116
 22
7.067612
 32
0.0
 13
9.542116
 23
7.067612
 33
0.0
  0
TEXT
  8
0
  6
BYBLOCK
 62
     0
 10
8.110163
 20
6.958237
 30
0.0
 40
0.21875
  1
2.230
 41
0.75
 72
     4
 11
8.424616
 21
7.067612
 31
0.0
  0
POINT
  8
DEFPOINTS
  6
BYBLOCK
 62
     0
 10
7.307116
 20
6.228663
 30
0.0
  0
POINT
  8
DEFPOINTS
  6
BYBLOCK
 62
     0
 10
9.542116
 20
6.228663
 30
0.0
  0
POINT
  8
DEFPOINTS
  6
BYBLOCK
 62
     0
 10
9.542116
 20
7.067612
 30
0.0
  0
LINE
  8
0
  6
BYBLOCK
 62
     0
 10
7.307116
 20
6.338913
 30
0.0
 11
7.307116
 21
6.710632
 31
0.0
  0
LINE
  8
0
  6
BYBLOCK
 62
     0
 10
7.347116
 20
6.338913
 30
0.0
 11
7.347116
 21
6.710632
 31
0.0
  0
LINE
  8
0
  6
BYBLOCK
 62
     0
 10
6.992116
 20
6.547882
 30
0.0
 11
6.677116
 21
6.547882
 31
0.0
  0
LINE
  8
0
  6
BYBLOCK
 62
     0
 10
7.662116
 20
6.547882
 30
0.0
 11
7.977116
 21
6.547882
 31
0.0
  0
SOLID
  8
0
  6
BYBLOCK
 62
     0
 10
6.992116
 20
6.600382
 30
0.0
 11
6.992116
 21
6.495382
 31
0.0
 12
7.307116
 22
6.547882
 32
0.0
 13
7.307116
 23
6.547882
 33
0.0
  0
SOLID
  8
0
  6
BYBLOCK
 62
     0
 10
7.662116
 20
6.600382
 30
0.0
 11
7.662116
 21
6.495382
 31
0.0
 12
7.347116
 22
6.547882
 32
0.0
 13
7.347116
 23
6.547882
 33
0.0
  0
TEXT
  8
0
  6
BYBLOCK
 62
     0
 10
8.763522
 20
6.438507
 30
0.0
 40
0.21875
  1
 TYP.
 41
0.75
 72
     1
 11
9.091647
 21
6.547882
 31
0.0
 73
     2
  0
TEXT
  8
0
  6
BYBLOCK
 62
     0
 10
8.120944
 20
6.438507
 30
0.0
 40
0.21875
  1
0.035
 41
0.75
 72
     4
 11
8.421725
 21
6.547882
 31
0.0
  0
POINT
  8
DEFPOINTS
  6
BYBLOCK
 62
     0
 10
7.307116
 20
6.228663
 30
0.0
  0
POINT
  8
DEFPOINTS
  6
BYBLOCK
 62
     0
 10
7.347116
 20
6.228663
 30
0.0
  0
POINT
  8
DEFPOINTS
  6
BYBLOCK
 62
     0
 10
7.347116
 20
6.547882
 30
0.0
  0
LINE
  8
0
  6
BYBLOCK
 62
     0
 10
15.327718
 20
2.597458
 30
0.0
 11
16.504758
 21
2.597458
 31
0.0
  0
LINE
  8
0
  6
BYBLOCK
 62
     0
 10
15.327718
 20
0.691458
 30
0.0
 11
16.504758
 21
0.691458
 31
0.0
  0
LINE
  8
0
  6
BYBLOCK
 62
     0
 10
16.342008
 20
2.282458
 30
0.0
 11
16.342008
 21
1.911333
 31
0.0
  0
LINE
  8
0
  6
BYBLOCK
 62
     0
 10
16.342008
 20
1.006458
 30
0.0
 11
16.342008
 21
1.377583
 31
0.0
  0
SOLID
  8
0
  6
BYBLOCK
 62
     0
 10
16.289508
 20
2.282458
 30
0.0
 11
16.394508
 21
2.282458
 31
0.0
 12
16.342008
 22
2.597458
 32
0.0
 13
16.342008
 23
2.597458
 33
0.0
  0
SOLID
  8
0
  6
BYBLOCK
 62
     0
 10
16.289508
 20
1.006458
 30
0.0
 11
16.394508
 21
1.006458
 31
0.0
 12
16.342008
 22
0.691458
 32
0.0
 13
16.342008
 23
0.691458
 33
0.0
  0
TEXT
  8
0
  6
BYBLOCK
 62
     0
 10
16.082243
 20
1.535083
 30
0.0
 40
0.21875
  1
1.910
 41
0.75
 72
     4
 11
16.342008
 21
1.644458
 31
0.0
  0
POINT
  8
DEFPOINTS
  6
BYBLOCK
 62
     0
 10
15.217468
 20
2.597458
 30
0.0
  0
POINT
  8
DEFPOINTS
  6
BYBLOCK
 62
     0
 10
15.217468
 20
0.691458
 30
0.0
  0
POINT
  8
DEFPOINTS
  6
BYBLOCK
 62
     0
 10
16.342008
 20
0.691458
 30
0.0
  0
LINE
  8
0
  6
BYBLOCK
 62
     0
 10
11.427468
 20
2.707708
 30
0.0
 11
11.427468
 21
3.37852
 31
0.0
  0
LINE
  8
0
  6
BYBLOCK
 62
     0
 10
15.217468
 20
2.707708
 30
0.0
 11
15.217468
 21
3.37852
 31
0.0
  0
LINE
  8
0
  6
BYBLOCK
 62
     0
 10
11.742468
 20
3.21577
 30
0.0
 11
12.850514
 21
3.21577
 31
0.0
  0
LINE
  8
0
  6
BYBLOCK
 62
     0
 10
14.902468
 20
3.21577
 30
0.0
 11
13.794421
 21
3.21577
 31
0.0
  0
SOLID
  8
0
  6
BYBLOCK
 62
     0
 10
11.742468
 20
3.26827
 30
0.0
 11
11.742468
 21
3.16327
 31
0.0
 12
11.427468
 22
3.21577
 32
0.0
 13
11.427468
 23
3.21577
 33
0.0
  0
SOLID
  8
0
  6
BYBLOCK
 62
     0
 10
14.902468
 20
3.26827
 30
0.0
 11
14.902468
 21
3.16327
 31
0.0
 12
15.217468
 22
3.21577
 32
0.0
 13
15.217468
 23
3.21577
 33
0.0
  0
TEXT
  8
0
  6
BYBLOCK
 62
     0
 10
12.994343
 20
3.106395
 30
0.0
 40
0.21875
  1
3.785
 41
0.75
 72
     4
 11
13.322468
 21
3.21577
 31
0.0
  0
POINT
  8
DEFPOINTS
  6
BYBLOCK
 62
     0
 10
11.427468
 20
2.597458
 30
0.0
  0
POINT
  8
DEFPOINTS
  6
BYBLOCK
 62
     0
 10
15.217468
 20
2.597458
 30
0.0
  0
POINT
  8
DEFPOINTS
  6
BYBLOCK
 62
     0
 10
15.217468
 20
3.21577
 30
0.0
  0
LINE
  8
0
  6
BYBLOCK
 62
     0
 10
11.807718
 20
6.068663
 30
0.0
 11
12.178071
 21
6.068663
 31
0.0
  0
LINE
  8
0
  6
BYBLOCK
 62
     0
 10
11.933927
 20
6.228663
 30
0.0
 11
11.852571
 21
6.228663
 31
0.0
  0
LINE
  8
0
  6
BYBLOCK
 62
     0
 10
12.015321
 20
5.753663
 30
0.0
 11
12.015321
 21
5.438663
 31
0.0
  0
LINE
  8
0
  6
BYBLOCK
 62
     0
 10
12.015321
 20
6.543663
 30
0.0
 11
12.015321
 21
6.858663
 31
0.0
  0
LINE
  8
0
  6
BYBLOCK
 62
     0
 10
12.015321
 20
6.858663
 30
0.0
 11
12.330321
 21
6.858663
 31
0.0
  0
SOLID
  8
0
  6
BYBLOCK
 62
     0
 10
11.962821
 20
5.753663
 30
0.0
 11
12.067821
 21
5.753663
 31
0.0
 12
12.015321
 22
6.068663
 32
0.0
 13
12.015321
 23
6.068663
 33
0.0
  0
SOLID
  8
0
  6
BYBLOCK
 62
     0
 10
11.962821
 20
6.543663
 30
0.0
 11
12.067821
 21
6.543663
 31
0.0
 12
12.015321
 22
6.228663
 32
0.0
 13
12.015321
 23
6.228663
 33
0.0
  0
TEXT
  8
0
  6
BYBLOCK
 62
     0
 10
12.487821
 20
6.749288
 30
0.0
 40
0.21875
  1
0.150
 41
0.75
 72
     4
 11
12.761258
 21
6.858663
 31
0.0
  0
POINT
  8
DEFPOINTS
  6
BYBLOCK
 62
     0
 10
11.697468
 20
6.068663
 30
0.0
  0
POINT
  8
DEFPOINTS
  6
BYBLOCK
 62
     0
 10
12.044177
 20
6.228663
 30
0.0
  0
POINT
  8
DEFPOINTS
  6
BYBLOCK
 62
     0
 10
12.015321
 20
6.228663
 30
0.0
  0
LINE
  8
0
  6
BYBLOCK
 62
     0
 10
15.166718
 20
9.874326
 30
0.0
 11
17.147577
 21
9.874326
 31
0.0
  0
LINE
  8
0
  6
BYBLOCK
 62
     0
 10
15.166718
 20
11.468326
 30
0.0
 11
17.147577
 21
11.468326
 31
0.0
  0
LINE
  8
0
  6
BYBLOCK
 62
     0
 10
16.984827
 20
10.189326
 30
0.0
 11
16.984827
 21
10.404451
 31
0.0
  0
LINE
  8
0
  6
BYBLOCK
 62
     0
 10
16.984827
 20
11.153326
 30
0.0
 11
16.984827
 21
10.938201
 31
0.0
  0
SOLID
  8
0
  6
BYBLOCK
 62
     0
 10
16.932327
 20
10.189326
 30
0.0
 11
17.037327
 21
10.189326
 31
0.0
 12
16.984827
 22
9.874326
 32
0.0
 13
16.984827
 23
9.874326
 33
0.0
  0
SOLID
  8
0
  6
BYBLOCK
 62
     0
 10
16.932327
 20
11.153326
 30
0.0
 11
17.037327
 21
11.153326
 31
0.0
 12
16.984827
 22
11.468326
 32
0.0
 13
16.984827
 23
11.468326
 33
0.0
  0
TEXT
  8
0
  6
BYBLOCK
 62
     0
 10
16.684046
 20
10.561951
 30
0.0
 40
0.21875
  1
1.593
 41
0.75
 72
     4
 11
16.984827
 21
10.671326
 31
0.0
  0
POINT
  8
DEFPOINTS
  6
BYBLOCK
 62
     0
 10
15.056468
 20
9.874326
 30
0.0
  0
POINT
  8
DEFPOINTS
  6
BYBLOCK
 62
     0
 10
15.056468
 20
11.468326
 30
0.0
  0
POINT
  8
DEFPOINTS
  6
BYBLOCK
 62
     0
 10
16.984827
 20
11.468326
 30
0.0
  0
LINE
  8
0
  6
BYBLOCK
 62
     0
 10
15.166718
 20
11.468326
 30
0.0
 11
16.403853
 21
11.468326
 31
0.0
  0
LINE
  8
0
  6
BYBLOCK
 62
     0
 10
13.545218
 20
10.671326
 30
0.0
 11
16.403853
 21
10.671326
 31
0.0
  0
LINE
  8
0
  6
BYBLOCK
 62
     0
 10
16.241103
 20
11.783326
 30
0.0
 11
16.241103
 21
12.098326
 31
0.0
  0
LINE
  8
0
  6
BYBLOCK
 62
     0
 10
16.241103
 20
10.356326
 30
0.0
 11
16.241103
 21
10.041326
 31
0.0
  0
SOLID
  8
0
  6
BYBLOCK
 62
     0
 10
16.188603
 20
11.783326
 30
0.0
 11
16.293603
 21
11.783326
 31
0.0
 12
16.241103
 22
11.468326
 32
0.0
 13
16.241103
 23
11.468326
 33
0.0
  0
SOLID
  8
0
  6
BYBLOCK
 62
     0
 10
16.188603
 20
10.356326
 30
0.0
 11
16.293603
 21
10.356326
 31
0.0
 12
16.241103
 22
10.671326
 32
0.0
 13
16.241103
 23
10.671326
 33
0.0
  0
TEXT
  8
0
  6
BYBLOCK
 62
     0
 10
15.92665
 20
10.960451
 30
0.0
 40
0.21875
  1
0.796
 41
0.75
 72
     4
 11
16.241103
 21
11.069826
 31
0.0
  0
POINT
  8
DEFPOINTS
  6
BYBLOCK
 62
     0
 10
15.056468
 20
11.468326
 30
0.0
  0
POINT
  8
DEFPOINTS
  6
BYBLOCK
 62
     0
 10
13.434968
 20
10.671326
 30
0.0
  0
POINT
  8
DEFPOINTS
  6
BYBLOCK
 62
     0
 10
16.241103
 20
10.671326
 30
0.0
  0
LINE
  8
0
  6
BYBLOCK
 62
     0
 10
11.251218
 20
9.553826
 30
0.0
 11
10.246289
 21
9.553826
 31
0.0
  0
LINE
  8
0
  6
BYBLOCK
 62
     0
 10
10.962218
 20
10.671326
 30
0.0
 11
10.246289
 21
10.671326
 31
0.0
  0
LINE
  8
0
  6
BYBLOCK
 62
     0
 10
10.409039
 20
9.238826
 30
0.0
 11
10.409039
 21
8.923826
 31
0.0
  0
LINE
  8
0
  6
BYBLOCK
 62
     0
 10
10.409039
 20
10.986326
 30
0.0
 11
10.409039
 21
11.301326
 31
0.0
  0
SOLID
  8
0
  6
BYBLOCK
 62
     0
 10
10.356539
 20
9.238826
 30
0.0
 11
10.461539
 21
9.238826
 31
0.0
 12
10.409039
 22
9.553826
 32
0.0
 13
10.409039
 23
9.553826
 33
0.0
  0
SOLID
  8
0
  6
BYBLOCK
 62
     0
 10
10.356539
 20
10.986326
 30
0.0
 11
10.461539
 21
10.986326
 31
0.0
 12
10.409039
 22
10.671326
 32
0.0
 13
10.409039
 23
10.671326
 33
0.0
  0
TEXT
  8
0
  6
BYBLOCK
 62
     0
 10
10.162945
 20
10.003201
 30
0.0
 40
0.21875
  1
1.115
 41
0.75
 72
     4
 11
10.409039
 21
10.112576
 31
0.0
  0
POINT
  8
DEFPOINTS
  6
BYBLOCK
 62
     0
 10
11.361468
 20
9.553826
 30
0.0
  0
POINT
  8
DEFPOINTS
  6
BYBLOCK
 62
     0
 10
11.072468
 20
10.671326
 30
0.0
  0
POINT
  8
DEFPOINTS
  6
BYBLOCK
 62
     0
 10
10.409039
 20
10.671326
 30
0.0
  0
TEXT
  8
TEXT
 10
0.328333
 20
16.507613
 30
0.0
 40
0.219
  1
%%UNOTE:%%U ALL DIMENSIONS HAVE %%P0.010 TOLERANCE
 41
0.75
  0
TEXT
  8
TEXT
 10
1.084165
 20
16.153052
 30
0.0
 40
0.219
  1
UNLESS OTHERWISE SPECIFIED.
 41
0.75
  0
TEXT
  8
TEXT
 10
0.328333
 20
3.722888
 30
0.0
 40
0.219
  1
%%UNOTE:%%U ALL DIMENSIONS HAVE %%P0.010 TOLERANCE
 41
0.75
  0
TEXT
  8
TEXT
 10
1.084165
 20
3.368327
 30
0.0
 40
0.219
  1
UNLESS OTHERWISE SPECIFIED.
 41
0.75
  0
ENDSEC
  0
EOF
