  0
SECTION
  2
HEADER
  9
$ACADVER
  1
AC1009
  9
$INSBASE
 10
0.0
 20
0.0
 30
0.0
  9
$EXTMIN
 10
0.0
 20
0.0
 30
0.0
  9
$EXTMAX
 10
23.25
 20
15.18
 30
0.125
  9
$LIMMIN
 10
0.0
 20
0.0
  9
$LIMMAX
 10
23.25
 20
15.18
  9
$ORTHOMODE
 70
     1
  9
$REGENMODE
 70
     1
  9
$FILLMODE
 70
     1
  9
$QTEXTMODE
 70
     0
  9
$MIRRTEXT
 70
     0
  9
$DRAGMODE
 70
     2
  9
$LTSCALE
 40
0.375
  9
$OSMODE
 70
     1
  9
$ATTMODE
 70
     1
  9
$TEXTSIZE
 40
0.188
  9
$TRACEWID
 40
0.05
  9
$TEXTSTYLE
  7
TXT
  9
$CLAYER
  8
DIM
  9
$CELTYPE
  6
BYLAYER
  9
$CECOLOR
 62
   256
  9
$DIMSCALE
 40
1.5
  9
$DIMASZ
 40
0.18
  9
$DIMEXO
 40
0.063
  9
$DIMDLI
 40
0.281
  9
$DIMRND
 40
0.0
  9
$DIMDLE
 40
0.0
  9
$DIMEXE
 40
0.093
  9
$DIMTP
 40
0.0
  9
$DIMTM
 40
0.0
  9
$DIMTXT
 40
0.125
  9
$DIMCEN
 40
0.09
  9
$DIMTSZ
 40
0.0
  9
$DIMTOL
 70
     0
  9
$DIMLIM
 70
     0
  9
$DIMTIH
 70
     1
  9
$DIMTOH
 70
     1
  9
$DIMSE1
 70
     0
  9
$DIMSE2
 70
     0
  9
$DIMTAD
 70
     0
  9
$DIMZIN
 70
     0
  9
$DIMBLK
  1

  9
$DIMASO
 70
     1
  9
$DIMSHO
 70
     1
  9
$DIMPOST
  1

  9
$DIMAPOST
  1

  9
$DIMALT
 70
     0
  9
$DIMALTD
 70
     2
  9
$DIMALTF
 40
25.4
  9
$DIMLFAC
 40
1.0
  9
$DIMTOFL
 70
     0
  9
$DIMTVP
 40
0.0
  9
$DIMTIX
 70
     0
  9
$DIMSOXD
 70
     0
  9
$DIMSAH
 70
     0
  9
$DIMBLK1
  1

  9
$DIMBLK2
  1

  9
$DIMSTYLE
  2
23NSTD
  9
$DIMCLRD
 70
     0
  9
$DIMCLRE
 70
     0
  9
$DIMCLRT
 70
     0
  9
$DIMTFAC
 40
1.0
  9
$DIMGAP
 40
0.09
  9
$LUNITS
 70
     2
  9
$LUPREC
 70
     3
  9
$SKETCHINC
 40
0.1
  9
$FILLETRAD
 40
0.0
  9
$AUNITS
 70
     1
  9
$AUPREC
 70
     1
  9
$MENU
  1
acad
  9
$ELEVATION
 40
0.0
  9
$PELEVATION
 40
0.0
  9
$THICKNESS
 40
0.0
  9
$LIMCHECK
 70
     0
  9
$BLIPMODE
 70
     1
  9
$CHAMFERA
 40
0.0
  9
$CHAMFERB
 40
0.0
  9
$SKPOLY
 70
     0
  9
$TDCREATE
 40
2450757.358536921
  9
$TDUPDATE
 40
2450882.329031597
  9
$TDINDWG
 40
0.0750348380
  9
$TDUSRTIMER
 40
0.0750348380
  9
$USRTIMER
 70
     1
  9
$ANGBASE
 50
0.0
  9
$ANGDIR
 70
     0
  9
$PDMODE
 70
     0
  9
$PDSIZE
 40
0.0
  9
$PLINEWID
 40
0.0
  9
$COORDS
 70
     0
  9
$SPLFRAME
 70
     0
  9
$SPLINETYPE
 70
     6
  9
$SPLINESEGS
 70
     8
  9
$ATTDIA
 70
     0
  9
$ATTREQ
 70
     1
  9
$HANDLING
 70
     0
  9
$HANDSEED
  5
0
  9
$SURFTAB1
 70
     6
  9
$SURFTAB2
 70
     6
  9
$SURFTYPE
 70
     6
  9
$SURFU
 70
     6
  9
$SURFV
 70
     6
  9
$UCSNAME
  2

  9
$UCSORG
 10
0.0
 20
0.0
 30
0.0
  9
$UCSXDIR
 10
1.0
 20
0.0
 30
0.0
  9
$UCSYDIR
 10
0.0
 20
1.0
 30
0.0
  9
$PUCSNAME
  2

  9
$PUCSORG
 10
0.0
 20
0.0
 30
0.0
  9
$PUCSXDIR
 10
1.0
 20
0.0
 30
0.0
  9
$PUCSYDIR
 10
0.0
 20
1.0
 30
0.0
  9
$USERI1
 70
     0
  9
$USERI2
 70
     0
  9
$USERI3
 70
     0
  9
$USERI4
 70
     0
  9
$USERI5
 70
     0
  9
$USERR1
 40
0.0
  9
$USERR2
 40
0.0
  9
$USERR3
 40
0.0
  9
$USERR4
 40
0.0
  9
$USERR5
 40
0.0
  9
$WORLDVIEW
 70
     1
  9
$SHADEDGE
 70
     3
  9
$SHADEDIF
 70
    70
  9
$TILEMODE
 70
     1
  9
$MAXACTVP
 70
    16
  9
$PINSBASE
 10
-3.100979
 20
50.0
 30
10.277186
  9
$PLIMCHECK
 70
     0
  9
$PEXTMIN
 10
1.000000E+20
 20
1.000000E+20
 30
1.000000E+20
  9
$PEXTMAX
 10
-1.000000E+20
 20
-1.000000E+20
 30
-1.000000E+20
  9
$PLIMMIN
 10
0.0
 20
0.0
  9
$PLIMMAX
 10
12.0
 20
9.0
  9
$UNITMODE
 70
     0
  9
$VISRETAIN
 70
     0
  9
$PLINEGEN
 70
     0
  9
$PSLTSCALE
 70
     0
  9
$TREEDEPTH
 70
  3020
  9
$DWGCODEPAGE
  3
undefined
  0
ENDSEC
  0
SECTION
  2
TABLES
  0
TABLE
  2
VPORT
 70
     2
  0
VPORT
  2
*ACTIVE
 70
     0
 10
0.0
 20
0.0
 11
1.0
 21
1.0
 12
11.625
 22
8.533115
 13
0.0
 23
0.0
 14
1.0
 24
1.0
 15
0.5
 25
0.5
 16
0.0
 26
0.0
 36
1.0
 17
0.0
 27
0.0
 37
0.0
 40
17.06623
 41
1.36234
 42
50.0
 43
0.0
 44
0.0
 50
0.0
 51
0.0
 71
     0
 72
   100
 73
     1
 74
     0
 75
     0
 76
     0
 77
     0
 78
     0
  0
ENDTAB
  0
TABLE
  2
LTYPE
 70
     5
  0
LTYPE
  2
CONTINUOUS
 70
    64
  3
Solid line
 72
    65
 73
     0
 40
0.0
  0
LTYPE
  2
HIDDEN
 70
    64
  3
_ _ _ _ _ _ _ _ _ _ _ _ _ _ _ _ _ _ _ _ _ _ _
 72
    65
 73
     2
 40
0.375
 49
0.25
 49
-0.125
  0
LTYPE
  2
CENTER
 70
    64
  3
____ _ ____ _ ____ _ ____ _ ____ _ ____ _ ____
 72
    65
 73
     4
 40
2.0
 49
1.25
 49
-0.25
 49
0.25
 49
-0.25
  0
LTYPE
  2
HIDDEN2
 70
    64
  3
_ _ _ _ _ _ _ _ _ _ _ _ _ _ _ _ _ _ _ _ _ _ _ _
 72
    65
 73
     2
 40
0.1875
 49
0.125
 49
-0.0625
  0
LTYPE
  2
PHANTOM
 70
    64
  3
_____ _ _ _____ _ _ _____ _ _ _____ _ _ ____
 72
    65
 73
     6
 40
2.5
 49
1.25
 49
-0.25
 49
0.25
 49
-0.25
 49
0.25
 49
-0.25
  0
ENDTAB
  0
TABLE
  2
LAYER
 70
     9
  0
LAYER
  2
0
 70
    64
 62
     7
  6
CONTINUOUS
  0
LAYER
  2
OBJECT
 70
    64
 62
     7
  6
CONTINUOUS
  0
LAYER
  2
DIM
 70
    64
 62
     7
  6
CONTINUOUS
  0
LAYER
  2
HIDDEN
 70
    64
 62
     7
  6
HIDDEN
  0
LAYER
  2
TEXT
 70
    64
 62
     7
  6
CONTINUOUS
  0
LAYER
  2
TITLE
 70
    64
 62
     7
  6
CONTINUOUS
  0
LAYER
  2
CENTER
 70
    64
 62
     7
  6
CENTER
  0
LAYER
  2
DEFPOINTS
 70
    64
 62
     7
  6
CONTINUOUS
  0
LAYER
  2
BEND
 70
    64
 62
     7
  6
PHANTOM
  0
ENDTAB
  0
TABLE
  2
STYLE
 70
     1
  0
STYLE
  2
TXT
 70
    64
 40
0.0
 41
0.75
 50
0.0
 71
     0
 42
0.188
  3
TXT.shx
  4

  0
ENDTAB
  0
TABLE
  2
VIEW
 70
     0
  0
ENDTAB
  0
TABLE
  2
UCS
 70
     0
  0
ENDTAB
  0
TABLE
  2
APPID
 70
     1
  0
APPID
  2
ACAD
 70
    64
  0
ENDTAB
  0
TABLE
  2
DIMSTYLE
 70
     2
  0
DIMSTYLE
  2
23NSTD
 70
    64
  3

  4

  5

  6

  7

 40
1.5
 41
0.18
 42
0.063
 43
0.281
 44
0.093
 45
0.0
 46
0.0
 47
0.0
 48
0.0
140
0.125
141
0.09
142
0.0
143
25.4
144
1.0
145
0.0
146
1.0
147
0.09
 71
     0
 72
     0
 73
     1
 74
     1
 75
     0
 76
     0
 77
     0
 78
     0
170
     0
171
     2
172
     0
173
     0
174
     0
175
     0
176
     0
177
     0
178
     0
  0
DIMSTYLE
  2
23NSTDI
 70
    64
  3

  4

  5

  6

  7

 40
1.5
 41
0.18
 42
0.063
 43
0.281
 44
0.093
 45
0.0
 46
0.0
 47
0.0
 48
0.0
140
0.125
141
0.09
142
0.0
143
25.4
144
1.0
145
0.0
146
1.0
147
0.09
 71
     0
 72
     0
 73
     1
 74
     1
 75
     0
 76
     0
 77
     0
 78
     0
170
     0
171
     2
172
     0
173
     0
174
     1
175
     0
176
     0
177
     0
178
     0
  0
ENDTAB
  0
ENDSEC
  0
SECTION
  2
BLOCKS
  0
BLOCK
  8
0
  2
HBS
 70
    64
 10
0.0
 20
0.0
 30
0.0
  3
HBS
  0
LINE
  8
TITLE
 10
0.062
 20
9.64
 30
0.0
 11
15.438
 21
9.64
 31
0.0
  0
POLYLINE
  8
TITLE
 66
     1
 10
0.0
 20
0.0
 30
0.0
 70
     1
  0
VERTEX
  8
TITLE
 10
15.5
 20
10.12
 30
0.0
  0
VERTEX
  8
TITLE
 10
15.5
 20
0.0
 30
0.0
  0
VERTEX
  8
TITLE
 10
0.0
 20
0.0
 30
0.0
  0
VERTEX
  8
TITLE
 10
0.0
 20
10.12
 30
0.0
  0
SEQEND
  8
TITLE
  0
POLYLINE
  8
TITLE
 66
     1
 10
0.0
 20
0.0
 30
0.0
 70
     1
  0
VERTEX
  8
TITLE
 10
15.438
 20
10.058
 30
0.0
  0
VERTEX
  8
TITLE
 10
15.438
 20
0.062
 30
0.0
  0
VERTEX
  8
TITLE
 10
0.062
 20
0.062
 30
0.0
  0
VERTEX
  8
TITLE
 10
0.062
 20
10.058
 30
0.0
  0
SEQEND
  8
TITLE
  0
TEXT
  8
TEXT
 10
0.207833
 20
9.680079
 30
0.0
 40
0.125
  1
NAME
 72
     1
 11
0.437
 21
9.680079
 31
0.0
  0
TEXT
  8
TEXT
 10
0.207833
 20
9.888413
 30
0.0
 40
0.125
  1
PART
 72
     1
 11
0.437
 21
9.888413
 31
0.0
  0
LINE
  8
TITLE
 10
0.812
 20
9.64
 30
0.0
 11
0.812
 21
10.058
 31
0.0
  0
TEXT
  8
TEXT
 10
7.926833
 20
9.888413
 30
0.0
 40
0.125
  1
PART
 72
     1
 11
8.156
 21
9.888413
 31
0.0
  0
TEXT
  8
TEXT
 10
8.031
 20
9.680079
 30
0.0
 40
0.125
  1
No.
 72
     1
 11
8.156
 21
9.680079
 31
0.0
  0
LINE
  8
TITLE
 10
7.781
 20
10.058
 30
0.0
 11
7.781
 21
9.64
 31
0.0
  0
LINE
  8
TITLE
 10
7.719
 20
10.058
 30
0.0
 11
7.719
 21
9.64
 31
0.0
  0
LINE
  8
TITLE
 10
8.531
 20
10.058
 30
0.0
 11
8.531
 21
9.64
 31
0.0
  0
ENDBLK
  8
0
  0
BLOCK
  8
0
  2
*D1
 70
    65
 10
0.0
 20
0.0
 30
0.0
  3
*D
  0
LINE
  8
0
  6
BYBLOCK
 62
     0
 10
2.822617
 20
21.167702
 30
0.0
 11
2.485916
 21
21.167702
 31
0.0
  0
LINE
  8
0
  6
BYBLOCK
 62
     0
 10
2.780784
 20
21.097702
 30
0.0
 11
2.485916
 21
21.097702
 31
0.0
  0
LINE
  8
0
  6
BYBLOCK
 62
     0
 10
2.625416
 20
21.437702
 30
0.0
 11
2.625416
 21
21.707702
 31
0.0
  0
LINE
  8
0
  6
BYBLOCK
 62
     0
 10
2.625416
 20
20.827702
 30
0.0
 11
2.625416
 21
20.557702
 31
0.0
  0
LINE
  8
0
  6
BYBLOCK
 62
     0
 10
2.625416
 20
20.557702
 30
0.0
 11
2.355416
 21
20.557702
 31
0.0
  0
SOLID
  8
0
  6
BYBLOCK
 62
     0
 10
2.580416
 20
21.437702
 30
0.0
 11
2.670416
 21
21.437702
 31
0.0
 12
2.625416
 22
21.167702
 32
0.0
 13
2.625416
 23
21.167702
 33
0.0
  0
SOLID
  8
0
  6
BYBLOCK
 62
     0
 10
2.580416
 20
20.827702
 30
0.0
 11
2.670416
 21
20.827702
 31
0.0
 12
2.625416
 22
21.097702
 32
0.0
 13
2.625416
 23
21.097702
 33
0.0
  0
TEXT
  8
0
  6
BYBLOCK
 62
     0
 10
1.728229
 20
20.463952
 30
0.0
 40
0.1875
  1
0.070
 41
0.75
 72
     1
 11
1.974322
 21
20.557702
 31
0.0
 73
     2
  0
POINT
  8
DEFPOINTS
  6
BYBLOCK
 62
     0
 10
2.917117
 20
21.167702
 30
0.0
  0
POINT
  8
DEFPOINTS
  6
BYBLOCK
 62
     0
 10
2.875284
 20
21.097702
 30
0.0
  0
POINT
  8
DEFPOINTS
  6
BYBLOCK
 62
     0
 10
2.625416
 20
21.097702
 30
0.0
  0
ENDBLK
  8
0
  0
BLOCK
  8
0
  2
*D2
 70
    65
 10
0.0
 20
0.0
 30
0.0
  3
*D
  0
LINE
  8
0
  6
BYBLOCK
 62
     0
 10
10.836829
 20
21.927702
 30
0.0
 11
11.288669
 21
21.927702
 31
0.0
  0
LINE
  8
0
  6
BYBLOCK
 62
     0
 10
10.836829
 20
21.997702
 30
0.0
 11
11.288669
 21
21.997702
 31
0.0
  0
LINE
  8
0
  6
BYBLOCK
 62
     0
 10
11.149169
 20
21.657702
 30
0.0
 11
11.149169
 21
21.387702
 31
0.0
  0
LINE
  8
0
  6
BYBLOCK
 62
     0
 10
11.149169
 20
22.267702
 30
0.0
 11
11.149169
 21
22.537702
 31
0.0
  0
LINE
  8
0
  6
BYBLOCK
 62
     0
 10
11.149169
 20
22.537702
 30
0.0
 11
11.419169
 21
22.537702
 31
0.0
  0
SOLID
  8
0
  6
BYBLOCK
 62
     0
 10
11.104169
 20
21.657702
 30
0.0
 11
11.194169
 21
21.657702
 31
0.0
 12
11.149169
 22
21.927702
 32
0.0
 13
11.149169
 23
21.927702
 33
0.0
  0
SOLID
  8
0
  6
BYBLOCK
 62
     0
 10
11.104169
 20
22.267702
 30
0.0
 11
11.194169
 21
22.267702
 31
0.0
 12
11.149169
 22
21.997702
 32
0.0
 13
11.149169
 23
21.997702
 33
0.0
  0
TEXT
  8
0
  6
BYBLOCK
 62
     0
 10
12.093232
 20
22.443952
 30
0.0
 40
0.1875
  1
 TYP.
 41
0.75
 72
     1
 11
12.374482
 21
22.537702
 31
0.0
 73
     2
  0
TEXT
  8
0
  6
BYBLOCK
 62
     0
 10
11.554169
 20
22.443952
 30
0.0
 40
0.1875
  1
0.070
 41
0.75
 72
     1
 11
11.800263
 21
22.537702
 31
0.0
 73
     2
  0
POINT
  8
DEFPOINTS
  6
BYBLOCK
 62
     0
 10
10.742329
 20
21.927702
 30
0.0
  0
POINT
  8
DEFPOINTS
  6
BYBLOCK
 62
     0
 10
10.742329
 20
21.997702
 30
0.0
  0
POINT
  8
DEFPOINTS
  6
BYBLOCK
 62
     0
 10
11.149169
 20
21.997702
 30
0.0
  0
ENDBLK
  8
0
  0
BLOCK
  8
0
  2
*D3
 70
    65
 10
0.0
 20
0.0
 30
0.0
  3
*D
  0
LINE
  8
0
  6
BYBLOCK
 62
     0
 10
23.206668
 20
19.319929
 30
0.0
 11
23.934283
 21
19.319929
 31
0.0
  0
LINE
  8
0
  6
BYBLOCK
 62
     0
 10
23.206668
 20
20.912929
 30
0.0
 11
23.934283
 21
20.912929
 31
0.0
  0
LINE
  8
0
  6
BYBLOCK
 62
     0
 10
23.794783
 20
19.589929
 30
0.0
 11
23.794783
 21
19.887679
 31
0.0
  0
LINE
  8
0
  6
BYBLOCK
 62
     0
 10
23.794783
 20
20.642929
 30
0.0
 11
23.794783
 21
20.345179
 31
0.0
  0
SOLID
  8
0
  6
BYBLOCK
 62
     0
 10
23.749783
 20
19.589929
 30
0.0
 11
23.839783
 21
19.589929
 31
0.0
 12
23.794783
 22
19.319929
 32
0.0
 13
23.794783
 23
19.319929
 33
0.0
  0
SOLID
  8
0
  6
BYBLOCK
 62
     0
 10
23.749783
 20
20.642929
 30
0.0
 11
23.839783
 21
20.642929
 31
0.0
 12
23.794783
 22
20.912929
 32
0.0
 13
23.794783
 23
20.912929
 33
0.0
  0
TEXT
  8
0
  6
BYBLOCK
 62
     0
 10
23.53697
 20
20.022679
 30
0.0
 40
0.1875
  1
1.593
 41
0.75
 72
     1
 11
23.794783
 21
20.116429
 31
0.0
 73
     2
  0
POINT
  8
DEFPOINTS
  6
BYBLOCK
 62
     0
 10
23.112168
 20
19.319929
 30
0.0
  0
POINT
  8
DEFPOINTS
  6
BYBLOCK
 62
     0
 10
23.112168
 20
20.912929
 30
0.0
  0
POINT
  8
DEFPOINTS
  6
BYBLOCK
 62
     0
 10
23.794783
 20
20.912929
 30
0.0
  0
ENDBLK
  8
0
  0
BLOCK
  8
0
  2
*D4
 70
    65
 10
0.0
 20
0.0
 30
0.0
  3
*D
  0
LINE
  8
0
  6
BYBLOCK
 62
     0
 10
23.206668
 20
20.912929
 30
0.0
 11
23.934283
 21
20.912929
 31
0.0
  0
LINE
  8
0
  6
BYBLOCK
 62
     0
 10
23.440668
 20
21.195929
 30
0.0
 11
23.934283
 21
21.195929
 31
0.0
  0
LINE
  8
0
  6
BYBLOCK
 62
     0
 10
23.794783
 20
20.642929
 30
0.0
 11
23.794783
 21
20.372929
 31
0.0
  0
LINE
  8
0
  6
BYBLOCK
 62
     0
 10
23.794783
 20
21.465929
 30
0.0
 11
23.794783
 21
21.735929
 31
0.0
  0
LINE
  8
0
  6
BYBLOCK
 62
     0
 10
23.794783
 20
21.735929
 30
0.0
 11
24.064783
 21
21.735929
 31
0.0
  0
SOLID
  8
0
  6
BYBLOCK
 62
     0
 10
23.749783
 20
20.642929
 30
0.0
 11
23.839783
 21
20.642929
 31
0.0
 12
23.794783
 22
20.912929
 32
0.0
 13
23.794783
 23
20.912929
 33
0.0
  0
SOLID
  8
0
  6
BYBLOCK
 62
     0
 10
23.749783
 20
21.465929
 30
0.0
 11
23.839783
 21
21.465929
 31
0.0
 12
23.794783
 22
21.195929
 32
0.0
 13
23.794783
 23
21.195929
 33
0.0
  0
TEXT
  8
0
  6
BYBLOCK
 62
     0
 10
24.199783
 20
21.642179
 30
0.0
 40
0.1875
  1
0.283
 41
0.75
 72
     1
 11
24.469314
 21
21.735929
 31
0.0
 73
     2
  0
POINT
  8
DEFPOINTS
  6
BYBLOCK
 62
     0
 10
23.112168
 20
20.912929
 30
0.0
  0
POINT
  8
DEFPOINTS
  6
BYBLOCK
 62
     0
 10
23.346168
 20
21.195929
 30
0.0
  0
POINT
  8
DEFPOINTS
  6
BYBLOCK
 62
     0
 10
23.794783
 20
21.195929
 30
0.0
  0
ENDBLK
  8
0
  0
BLOCK
  8
0
  2
*D5
 70
    65
 10
0.0
 20
0.0
 30
0.0
  3
*D
  0
LINE
  8
0
  6
BYBLOCK
 62
     0
 10
17.627732
 20
26.092357
 30
0.0
 11
18.332153
 21
26.092357
 31
0.0
  0
LINE
  8
0
  6
BYBLOCK
 62
     0
 10
17.664732
 20
25.805357
 30
0.0
 11
18.332153
 21
25.805357
 31
0.0
  0
LINE
  8
0
  6
BYBLOCK
 62
     0
 10
18.192653
 20
26.362357
 30
0.0
 11
18.192653
 21
26.632357
 31
0.0
  0
LINE
  8
0
  6
BYBLOCK
 62
     0
 10
18.192653
 20
25.535357
 30
0.0
 11
18.192653
 21
25.265357
 31
0.0
  0
SOLID
  8
0
  6
BYBLOCK
 62
     0
 10
18.147653
 20
26.362357
 30
0.0
 11
18.237653
 21
26.362357
 31
0.0
 12
18.192653
 22
26.092357
 32
0.0
 13
18.192653
 23
26.092357
 33
0.0
  0
SOLID
  8
0
  6
BYBLOCK
 62
     0
 10
18.147653
 20
25.535357
 30
0.0
 11
18.237653
 21
25.535357
 31
0.0
 12
18.192653
 22
25.805357
 32
0.0
 13
18.192653
 23
25.805357
 33
0.0
  0
TEXT
  8
0
  6
BYBLOCK
 62
     0
 10
17.923122
 20
25.855107
 30
0.0
 40
0.1875
  1
0.287
 41
0.75
 72
     1
 11
18.192653
 21
25.948857
 31
0.0
 73
     2
  0
POINT
  8
DEFPOINTS
  6
BYBLOCK
 62
     0
 10
17.533232
 20
26.092357
 30
0.0
  0
POINT
  8
DEFPOINTS
  6
BYBLOCK
 62
     0
 10
17.570232
 20
25.805357
 30
0.0
  0
POINT
  8
DEFPOINTS
  6
BYBLOCK
 62
     0
 10
18.192653
 20
25.805357
 30
0.0
  0
ENDBLK
  8
0
  0
BLOCK
  8
0
  2
*D6
 70
    65
 10
0.0
 20
0.0
 30
0.0
  3
*D
  0
LINE
  8
0
  6
BYBLOCK
 62
     0
 10
19.315668
 20
22.711221
 30
0.0
 11
18.777265
 21
22.711221
 31
0.0
  0
LINE
  8
0
  6
BYBLOCK
 62
     0
 10
19.315668
 20
24.870221
 30
0.0
 11
18.777265
 21
24.870221
 31
0.0
  0
LINE
  8
0
  6
BYBLOCK
 62
     0
 10
18.916765
 20
22.981221
 30
0.0
 11
18.916765
 21
23.561971
 31
0.0
  0
LINE
  8
0
  6
BYBLOCK
 62
     0
 10
18.916765
 20
24.600221
 30
0.0
 11
18.916765
 21
24.019471
 31
0.0
  0
SOLID
  8
0
  6
BYBLOCK
 62
     0
 10
18.871765
 20
22.981221
 30
0.0
 11
18.961765
 21
22.981221
 31
0.0
 12
18.916765
 22
22.711221
 32
0.0
 13
18.916765
 23
22.711221
 33
0.0
  0
SOLID
  8
0
  6
BYBLOCK
 62
     0
 10
18.871765
 20
24.600221
 30
0.0
 11
18.961765
 21
24.600221
 31
0.0
 12
18.916765
 22
24.870221
 32
0.0
 13
18.916765
 23
24.870221
 33
0.0
  0
TEXT
  8
0
  6
BYBLOCK
 62
     0
 10
18.658953
 20
23.696971
 30
0.0
 40
0.1875
  1
2.159
 41
0.75
 72
     1
 11
18.916765
 21
23.790721
 31
0.0
 73
     2
  0
POINT
  8
DEFPOINTS
  6
BYBLOCK
 62
     0
 10
19.410168
 20
22.711221
 30
0.0
  0
POINT
  8
DEFPOINTS
  6
BYBLOCK
 62
     0
 10
19.410168
 20
24.870221
 30
0.0
  0
POINT
  8
DEFPOINTS
  6
BYBLOCK
 62
     0
 10
18.916765
 20
24.870221
 30
0.0
  0
ENDBLK
  8
0
  0
BLOCK
  8
0
  2
*D7
 70
    65
 10
0.0
 20
0.0
 30
0.0
  3
*D
  0
LINE
  8
0
  6
BYBLOCK
 62
     0
 10
20.317143
 20
7.075546
 30
0.0
 11
20.375151
 21
7.075546
 31
0.0
  0
LINE
  8
0
  6
BYBLOCK
 62
     0
 10
20.317143
 20
7.038546
 30
0.0
 11
20.375151
 21
7.038546
 31
0.0
  0
LINE
  8
0
  6
BYBLOCK
 62
     0
 10
20.235651
 20
7.345546
 30
0.0
 11
20.235651
 21
7.615546
 31
0.0
  0
LINE
  8
0
  6
BYBLOCK
 62
     0
 10
20.235651
 20
6.768546
 30
0.0
 11
20.235651
 21
6.498546
 31
0.0
  0
LINE
  8
0
  6
BYBLOCK
 62
     0
 10
20.235651
 20
6.498546
 30
0.0
 11
19.965651
 21
6.498546
 31
0.0
  0
SOLID
  8
0
  6
BYBLOCK
 62
     0
 10
20.190651
 20
7.345546
 30
0.0
 11
20.280651
 21
7.345546
 31
0.0
 12
20.235651
 22
7.075546
 32
0.0
 13
20.235651
 23
7.075546
 33
0.0
  0
SOLID
  8
0
  6
BYBLOCK
 62
     0
 10
20.190651
 20
6.768546
 30
0.0
 11
20.280651
 21
6.768546
 31
0.0
 12
20.235651
 22
7.038546
 32
0.0
 13
20.235651
 23
7.038546
 33
0.0
  0
TEXT
  8
0
  6
BYBLOCK
 62
     0
 10
19.268151
 20
6.404796
 30
0.0
 40
0.1875
  1
 TYP.
 41
0.75
 72
     1
 11
19.549401
 21
6.498546
 31
0.0
 73
     2
  0
TEXT
  8
0
  6
BYBLOCK
 62
     0
 10
18.705651
 20
6.404796
 30
0.0
 40
0.1875
  1
0.037
 41
0.75
 72
     1
 11
18.963463
 21
6.498546
 31
0.0
 73
     2
  0
POINT
  8
DEFPOINTS
  6
BYBLOCK
 62
     0
 10
20.222643
 20
7.075546
 30
0.0
  0
POINT
  8
DEFPOINTS
  6
BYBLOCK
 62
     0
 10
20.222643
 20
7.038546
 30
0.0
  0
POINT
  8
DEFPOINTS
  6
BYBLOCK
 62
     0
 10
20.235651
 20
7.038546
 30
0.0
  0
ENDBLK
  8
0
  0
BLOCK
  8
0
  2
*D8
 70
    65
 10
0.0
 20
0.0
 30
0.0
  3
*D
  0
LINE
  8
0
  6
BYBLOCK
 62
     0
 10
21.786437
 20
5.425027
 30
0.0
 11
22.109351
 21
5.425027
 31
0.0
  0
LINE
  8
0
  6
BYBLOCK
 62
     0
 10
21.749437
 20
5.510027
 30
0.0
 11
22.109351
 21
5.510027
 31
0.0
  0
LINE
  8
0
  6
BYBLOCK
 62
     0
 10
21.969851
 20
5.155027
 30
0.0
 11
21.969851
 21
4.885027
 31
0.0
  0
LINE
  8
0
  6
BYBLOCK
 62
     0
 10
21.969851
 20
5.780027
 30
0.0
 11
21.969851
 21
6.050027
 31
0.0
  0
LINE
  8
0
  6
BYBLOCK
 62
     0
 10
21.969851
 20
6.050027
 30
0.0
 11
22.239851
 21
6.050027
 31
0.0
  0
SOLID
  8
0
  6
BYBLOCK
 62
     0
 10
21.924851
 20
5.155027
 30
0.0
 11
22.014851
 21
5.155027
 31
0.0
 12
21.969851
 22
5.425027
 32
0.0
 13
21.969851
 23
5.425027
 33
0.0
  0
SOLID
  8
0
  6
BYBLOCK
 62
     0
 10
21.924851
 20
5.780027
 30
0.0
 11
22.014851
 21
5.780027
 31
0.0
 12
21.969851
 22
5.510027
 32
0.0
 13
21.969851
 23
5.510027
 33
0.0
  0
TEXT
  8
0
  6
BYBLOCK
 62
     0
 10
22.374851
 20
5.956277
 30
0.0
 40
0.1875
  1
0.085
 41
0.75
 72
     1
 11
22.632663
 21
6.050027
 31
0.0
 73
     2
  0
POINT
  8
DEFPOINTS
  6
BYBLOCK
 62
     0
 10
21.691937
 20
5.425027
 30
0.0
  0
POINT
  8
DEFPOINTS
  6
BYBLOCK
 62
     0
 10
21.654937
 20
5.510027
 30
0.0
  0
POINT
  8
DEFPOINTS
  6
BYBLOCK
 62
     0
 10
21.969851
 20
5.510027
 30
0.0
  0
ENDBLK
  8
0
  0
BLOCK
  8
0
  2
*D9
 70
    65
 10
0.0
 20
0.0
 30
0.0
  3
*D
  0
LINE
  8
0
  6
BYBLOCK
 62
     0
 10
15.832001
 20
5.806527
 30
0.0
 11
15.832001
 21
6.187466
 31
0.0
  0
LINE
  8
0
  6
BYBLOCK
 62
     0
 10
15.723001
 20
5.806527
 30
0.0
 11
15.723001
 21
6.187466
 31
0.0
  0
LINE
  8
0
  6
BYBLOCK
 62
     0
 10
16.102001
 20
6.047966
 30
0.0
 11
16.372001
 21
6.047966
 31
0.0
  0
LINE
  8
0
  6
BYBLOCK
 62
     0
 10
15.453001
 20
6.047966
 30
0.0
 11
15.183001
 21
6.047966
 31
0.0
  0
SOLID
  8
0
  6
BYBLOCK
 62
     0
 10
16.102001
 20
6.092966
 30
0.0
 11
16.102001
 21
6.002966
 31
0.0
 12
15.832001
 22
6.047966
 32
0.0
 13
15.832001
 23
6.047966
 33
0.0
  0
SOLID
  8
0
  6
BYBLOCK
 62
     0
 10
15.453001
 20
6.092966
 30
0.0
 11
15.453001
 21
6.002966
 31
0.0
 12
15.723001
 22
6.047966
 32
0.0
 13
15.723001
 23
6.047966
 33
0.0
  0
TEXT
  8
0
  6
BYBLOCK
 62
     0
 10
14.579251
 20
5.954216
 30
0.0
 40
0.1875
  1
0.109
 41
0.75
 72
     1
 11
14.813626
 21
6.047966
 31
0.0
 73
     2
  0
POINT
  8
DEFPOINTS
  6
BYBLOCK
 62
     0
 10
15.832001
 20
5.712027
 30
0.0
  0
POINT
  8
DEFPOINTS
  6
BYBLOCK
 62
     0
 10
15.723001
 20
5.712027
 30
0.0
  0
POINT
  8
DEFPOINTS
  6
BYBLOCK
 62
     0
 10
15.723001
 20
6.047966
 30
0.0
  0
ENDBLK
  8
0
  0
BLOCK
  8
0
  2
*D10
 70
    65
 10
0.0
 20
0.0
 30
0.0
  3
*D
  0
LINE
  8
0
  6
BYBLOCK
 62
     0
 10
19.815937
 20
5.806527
 30
0.0
 11
19.815937
 21
6.187466
 31
0.0
  0
LINE
  8
0
  6
BYBLOCK
 62
     0
 10
19.537937
 20
5.806527
 30
0.0
 11
19.537937
 21
6.187466
 31
0.0
  0
LINE
  8
0
  6
BYBLOCK
 62
     0
 10
20.085937
 20
6.047966
 30
0.0
 11
20.355937
 21
6.047966
 31
0.0
  0
LINE
  8
0
  6
BYBLOCK
 62
     0
 10
19.267937
 20
6.047966
 30
0.0
 11
18.997937
 21
6.047966
 31
0.0
  0
SOLID
  8
0
  6
BYBLOCK
 62
     0
 10
20.085937
 20
6.092966
 30
0.0
 11
20.085937
 21
6.002966
 31
0.0
 12
19.815937
 22
6.047966
 32
0.0
 13
19.815937
 23
6.047966
 33
0.0
  0
SOLID
  8
0
  6
BYBLOCK
 62
     0
 10
19.267937
 20
6.092966
 30
0.0
 11
19.267937
 21
6.002966
 31
0.0
 12
19.537937
 22
6.047966
 32
0.0
 13
19.537937
 23
6.047966
 33
0.0
  0
TEXT
  8
0
  6
BYBLOCK
 62
     0
 10
18.323875
 20
5.954216
 30
0.0
 40
0.1875
  1
0.278
 41
0.75
 72
     1
 11
18.593406
 21
6.047966
 31
0.0
 73
     2
  0
POINT
  8
DEFPOINTS
  6
BYBLOCK
 62
     0
 10
19.815937
 20
5.712027
 30
0.0
  0
POINT
  8
DEFPOINTS
  6
BYBLOCK
 62
     0
 10
19.537937
 20
5.712027
 30
0.0
  0
POINT
  8
DEFPOINTS
  6
BYBLOCK
 62
     0
 10
19.537937
 20
6.047966
 30
0.0
  0
ENDBLK
  8
0
  0
BLOCK
  8
0
  2
*D11
 70
    65
 10
0.0
 20
0.0
 30
0.0
  3
*D
  0
LINE
  8
0
  6
BYBLOCK
 62
     0
 10
17.942937
 20
9.009046
 30
0.0
 11
17.942937
 21
9.741047
 31
0.0
  0
LINE
  8
0
  6
BYBLOCK
 62
     0
 10
17.661937
 20
9.245046
 30
0.0
 11
17.661937
 21
9.741047
 31
0.0
  0
LINE
  8
0
  6
BYBLOCK
 62
     0
 10
18.212937
 20
9.601547
 30
0.0
 11
18.482937
 21
9.601547
 31
0.0
  0
LINE
  8
0
  6
BYBLOCK
 62
     0
 10
17.391937
 20
9.601547
 30
0.0
 11
17.121937
 21
9.601547
 31
0.0
  0
SOLID
  8
0
  6
BYBLOCK
 62
     0
 10
18.212937
 20
9.646547
 30
0.0
 11
18.212937
 21
9.556547
 31
0.0
 12
17.942937
 22
9.601547
 32
0.0
 13
17.942937
 23
9.601547
 33
0.0
  0
SOLID
  8
0
  6
BYBLOCK
 62
     0
 10
17.391937
 20
9.646547
 30
0.0
 11
17.391937
 21
9.556547
 31
0.0
 12
17.661937
 22
9.601547
 32
0.0
 13
17.661937
 23
9.601547
 33
0.0
  0
TEXT
  8
0
  6
BYBLOCK
 62
     0
 10
16.49475
 20
9.507797
 30
0.0
 40
0.1875
  1
0.281
 41
0.75
 72
     1
 11
16.740844
 21
9.601547
 31
0.0
 73
     2
  0
POINT
  8
DEFPOINTS
  6
BYBLOCK
 62
     0
 10
17.942937
 20
8.914546
 30
0.0
  0
POINT
  8
DEFPOINTS
  6
BYBLOCK
 62
     0
 10
17.661937
 20
9.150546
 30
0.0
  0
POINT
  8
DEFPOINTS
  6
BYBLOCK
 62
     0
 10
17.661937
 20
9.601547
 30
0.0
  0
ENDBLK
  8
0
  0
BLOCK
  8
0
  2
*D12
 70
    65
 10
0.0
 20
0.0
 30
0.0
  3
*D
  0
LINE
  8
0
  6
BYBLOCK
 62
     0
 10
21.410937
 20
9.009046
 30
0.0
 11
21.410937
 21
9.741047
 31
0.0
  0
LINE
  8
0
  6
BYBLOCK
 62
     0
 10
17.942937
 20
9.009046
 30
0.0
 11
17.942937
 21
9.741047
 31
0.0
  0
LINE
  8
0
  6
BYBLOCK
 62
     0
 10
21.140937
 20
9.601547
 30
0.0
 11
20.093187
 21
9.601547
 31
0.0
  0
LINE
  8
0
  6
BYBLOCK
 62
     0
 10
18.212937
 20
9.601547
 30
0.0
 11
19.260687
 21
9.601547
 31
0.0
  0
SOLID
  8
0
  6
BYBLOCK
 62
     0
 10
21.140937
 20
9.646547
 30
0.0
 11
21.140937
 21
9.556547
 31
0.0
 12
21.410937
 22
9.601547
 32
0.0
 13
21.410937
 23
9.601547
 33
0.0
  0
SOLID
  8
0
  6
BYBLOCK
 62
     0
 10
18.212937
 20
9.646547
 30
0.0
 11
18.212937
 21
9.556547
 31
0.0
 12
17.942937
 22
9.601547
 32
0.0
 13
17.942937
 23
9.601547
 33
0.0
  0
TEXT
  8
0
  6
BYBLOCK
 62
     0
 10
19.395687
 20
9.507797
 30
0.0
 40
0.1875
  1
3.468
 41
0.75
 72
     1
 11
19.676937
 21
9.601547
 31
0.0
 73
     2
  0
POINT
  8
DEFPOINTS
  6
BYBLOCK
 62
     0
 10
21.410937
 20
8.914546
 30
0.0
  0
POINT
  8
DEFPOINTS
  6
BYBLOCK
 62
     0
 10
17.942937
 20
8.914546
 30
0.0
  0
POINT
  8
DEFPOINTS
  6
BYBLOCK
 62
     0
 10
17.942937
 20
9.601547
 30
0.0
  0
ENDBLK
  8
0
  0
BLOCK
  8
0
  2
*D13
 70
    65
 10
0.0
 20
0.0
 30
0.0
  3
*D
  0
LINE
  8
0
  6
BYBLOCK
 62
     0
 10
17.661937
 20
9.245046
 30
0.0
 11
17.661937
 21
10.162547
 31
0.0
  0
LINE
  8
0
  6
BYBLOCK
 62
     0
 10
21.691937
 20
9.245046
 30
0.0
 11
21.691937
 21
10.162547
 31
0.0
  0
LINE
  8
0
  6
BYBLOCK
 62
     0
 10
17.931937
 20
10.023047
 30
0.0
 11
19.284125
 21
10.023047
 31
0.0
  0
LINE
  8
0
  6
BYBLOCK
 62
     0
 10
21.421937
 20
10.023047
 30
0.0
 11
20.06975
 21
10.023047
 31
0.0
  0
SOLID
  8
0
  6
BYBLOCK
 62
     0
 10
17.931937
 20
10.068047
 30
0.0
 11
17.931937
 21
9.978047
 31
0.0
 12
17.661937
 22
10.023047
 32
0.0
 13
17.661937
 23
10.023047
 33
0.0
  0
SOLID
  8
0
  6
BYBLOCK
 62
     0
 10
21.421937
 20
10.068047
 30
0.0
 11
21.421937
 21
9.978047
 31
0.0
 12
21.691937
 22
10.023047
 32
0.0
 13
21.691937
 23
10.023047
 33
0.0
  0
TEXT
  8
0
  6
BYBLOCK
 62
     0
 10
19.419125
 20
9.929297
 30
0.0
 40
0.1875
  1
4.030
 41
0.75
 72
     1
 11
19.676937
 21
10.023047
 31
0.0
 73
     2
  0
POINT
  8
DEFPOINTS
  6
BYBLOCK
 62
     0
 10
17.661937
 20
9.150546
 30
0.0
  0
POINT
  8
DEFPOINTS
  6
BYBLOCK
 62
     0
 10
21.691937
 20
9.150546
 30
0.0
  0
POINT
  8
DEFPOINTS
  6
BYBLOCK
 62
     0
 10
21.691937
 20
10.023047
 30
0.0
  0
ENDBLK
  8
0
  0
BLOCK
  8
0
  2
*D14
 70
    65
 10
0.0
 20
0.0
 30
0.0
  3
*D
  0
LINE
  8
0
  6
BYBLOCK
 62
     0
 10
5.904754
 20
5.330527
 30
0.0
 11
5.904754
 21
4.911191
 31
0.0
  0
LINE
  8
0
  6
BYBLOCK
 62
     0
 10
5.94474
 20
5.32948
 30
0.0
 11
5.94474
 21
4.911191
 31
0.0
  0
LINE
  8
0
  6
BYBLOCK
 62
     0
 10
5.634754
 20
5.050691
 30
0.0
 11
5.364754
 21
5.050691
 31
0.0
  0
LINE
  8
0
  6
BYBLOCK
 62
     0
 10
6.21474
 20
5.050691
 30
0.0
 11
6.48474
 21
5.050691
 31
0.0
  0
SOLID
  8
0
  6
BYBLOCK
 62
     0
 10
5.634754
 20
5.095691
 30
0.0
 11
5.634754
 21
5.005691
 31
0.0
 12
5.904754
 22
5.050691
 32
0.0
 13
5.904754
 23
5.050691
 33
0.0
  0
SOLID
  8
0
  6
BYBLOCK
 62
     0
 10
6.21474
 20
5.095691
 30
0.0
 11
6.21474
 21
5.005691
 31
0.0
 12
5.94474
 22
5.050691
 32
0.0
 13
5.94474
 23
5.050691
 33
0.0
  0
TEXT
  8
0
  6
BYBLOCK
 62
     0
 10
7.158803
 20
4.956941
 30
0.0
 40
0.1875
  1
 TYP.
 41
0.75
 72
     1
 11
7.440053
 21
5.050691
 31
0.0
 73
     2
  0
TEXT
  8
0
  6
BYBLOCK
 62
     0
 10
6.61974
 20
4.956941
 30
0.0
 40
0.1875
  1
0.040
 41
0.75
 72
     1
 11
6.865834
 21
5.050691
 31
0.0
 73
     2
  0
POINT
  8
DEFPOINTS
  6
BYBLOCK
 62
     0
 10
5.904754
 20
5.425027
 30
0.0
  0
POINT
  8
DEFPOINTS
  6
BYBLOCK
 62
     0
 10
5.94474
 20
5.42398
 30
0.0
  0
POINT
  8
DEFPOINTS
  6
BYBLOCK
 62
     0
 10
5.94474
 20
5.050691
 30
0.0
  0
ENDBLK
  8
0
  0
BLOCK
  8
0
  2
*D15
 70
    65
 10
0.0
 20
0.0
 30
0.0
  3
*D
  0
LINE
  8
0
  6
BYBLOCK
 62
     0
 10
5.904754
 20
5.330527
 30
0.0
 11
5.904754
 21
4.489691
 31
0.0
  0
LINE
  8
0
  6
BYBLOCK
 62
     0
 10
10.009497
 20
5.330527
 30
0.0
 11
10.009497
 21
4.489691
 31
0.0
  0
LINE
  8
0
  6
BYBLOCK
 62
     0
 10
6.174754
 20
4.629191
 30
0.0
 11
7.576032
 21
4.629191
 31
0.0
  0
LINE
  8
0
  6
BYBLOCK
 62
     0
 10
9.739497
 20
4.629191
 30
0.0
 11
8.338219
 21
4.629191
 31
0.0
  0
SOLID
  8
0
  6
BYBLOCK
 62
     0
 10
6.174754
 20
4.674191
 30
0.0
 11
6.174754
 21
4.584191
 31
0.0
 12
5.904754
 22
4.629191
 32
0.0
 13
5.904754
 23
4.629191
 33
0.0
  0
SOLID
  8
0
  6
BYBLOCK
 62
     0
 10
9.739497
 20
4.674191
 30
0.0
 11
9.739497
 21
4.584191
 31
0.0
 12
10.009497
 22
4.629191
 32
0.0
 13
10.009497
 23
4.629191
 33
0.0
  0
TEXT
  8
0
  6
BYBLOCK
 62
     0
 10
7.711032
 20
4.535441
 30
0.0
 40
0.1875
  1
4.105
 41
0.75
 72
     1
 11
7.957126
 21
4.629191
 31
0.0
 73
     2
  0
POINT
  8
DEFPOINTS
  6
BYBLOCK
 62
     0
 10
5.904754
 20
5.425027
 30
0.0
  0
POINT
  8
DEFPOINTS
  6
BYBLOCK
 62
     0
 10
10.009497
 20
5.425027
 30
0.0
  0
POINT
  8
DEFPOINTS
  6
BYBLOCK
 62
     0
 10
10.009497
 20
4.629191
 30
0.0
  0
ENDBLK
  8
0
  0
BLOCK
  8
0
  2
*D16
 70
    65
 10
0.0
 20
0.0
 30
0.0
  3
*D
  0
LINE
  8
0
  6
BYBLOCK
 62
     0
 10
2.016599
 20
5.330527
 30
0.0
 11
2.016599
 21
4.911191
 31
0.0
  0
LINE
  8
0
  6
BYBLOCK
 62
     0
 10
4.246343
 20
5.330527
 30
0.0
 11
4.246343
 21
4.911191
 31
0.0
  0
LINE
  8
0
  6
BYBLOCK
 62
     0
 10
2.286599
 20
5.050691
 30
0.0
 11
2.72694
 21
5.050691
 31
0.0
  0
LINE
  8
0
  6
BYBLOCK
 62
     0
 10
3.976343
 20
5.050691
 30
0.0
 11
3.536002
 21
5.050691
 31
0.0
  0
SOLID
  8
0
  6
BYBLOCK
 62
     0
 10
2.286599
 20
5.095691
 30
0.0
 11
2.286599
 21
5.005691
 31
0.0
 12
2.016599
 22
5.050691
 32
0.0
 13
2.016599
 23
5.050691
 33
0.0
  0
SOLID
  8
0
  6
BYBLOCK
 62
     0
 10
3.976343
 20
5.095691
 30
0.0
 11
3.976343
 21
5.005691
 31
0.0
 12
4.246343
 22
5.050691
 32
0.0
 13
4.246343
 23
5.050691
 33
0.0
  0
TEXT
  8
0
  6
BYBLOCK
 62
     0
 10
2.86194
 20
4.956941
 30
0.0
 40
0.1875
  1
2.230
 41
0.75
 72
     1
 11
3.131471
 21
5.050691
 31
0.0
 73
     2
  0
POINT
  8
DEFPOINTS
  6
BYBLOCK
 62
     0
 10
2.016599
 20
5.425027
 30
0.0
  0
POINT
  8
DEFPOINTS
  6
BYBLOCK
 62
     0
 10
4.246343
 20
5.425027
 30
0.0
  0
POINT
  8
DEFPOINTS
  6
BYBLOCK
 62
     0
 10
4.246343
 20
5.050691
 30
0.0
  0
ENDBLK
  8
0
  0
BLOCK
  8
0
  2
*D17
 70
    65
 10
0.0
 20
0.0
 30
0.0
  3
*D
  0
LINE
  8
0
  6
BYBLOCK
 62
     0
 10
6.038251
 20
5.575027
 30
0.0
 11
5.106348
 21
5.575027
 31
0.0
  0
LINE
  8
0
  6
BYBLOCK
 62
     0
 10
5.810254
 20
5.425027
 30
0.0
 11
5.106348
 21
5.425027
 31
0.0
  0
LINE
  8
0
  6
BYBLOCK
 62
     0
 10
5.245848
 20
5.845027
 30
0.0
 11
5.245848
 21
6.115027
 31
0.0
  0
LINE
  8
0
  6
BYBLOCK
 62
     0
 10
5.245848
 20
5.155027
 30
0.0
 11
5.245848
 21
4.885027
 31
0.0
  0
LINE
  8
0
  6
BYBLOCK
 62
     0
 10
5.245848
 20
4.885027
 30
0.0
 11
4.975848
 21
4.885027
 31
0.0
  0
SOLID
  8
0
  6
BYBLOCK
 62
     0
 10
5.200848
 20
5.845027
 30
0.0
 11
5.290848
 21
5.845027
 31
0.0
 12
5.245848
 22
5.575027
 32
0.0
 13
5.245848
 23
5.575027
 33
0.0
  0
SOLID
  8
0
  6
BYBLOCK
 62
     0
 10
5.200848
 20
5.155027
 30
0.0
 11
5.290848
 21
5.155027
 31
0.0
 12
5.245848
 22
5.425027
 32
0.0
 13
5.245848
 23
5.425027
 33
0.0
  0
TEXT
  8
0
  6
BYBLOCK
 62
     0
 10
4.372098
 20
4.791277
 30
0.0
 40
0.1875
  1
0.150
 41
0.75
 72
     1
 11
4.606473
 21
4.885027
 31
0.0
 73
     2
  0
POINT
  8
DEFPOINTS
  6
BYBLOCK
 62
     0
 10
6.132751
 20
5.575027
 30
0.0
  0
POINT
  8
DEFPOINTS
  6
BYBLOCK
 62
     0
 10
5.904754
 20
5.425027
 30
0.0
  0
POINT
  8
DEFPOINTS
  6
BYBLOCK
 62
     0
 10
5.245848
 20
5.425027
 30
0.0
  0
ENDBLK
  8
0
  0
BLOCK
  8
0
  2
*D18
 70
    65
 10
0.0
 20
0.0
 30
0.0
  3
*D
  0
LINE
  8
0
  6
BYBLOCK
 62
     0
 10
6.222751
 20
3.291923
 30
0.0
 11
6.222751
 21
3.990563
 31
0.0
  0
LINE
  8
0
  6
BYBLOCK
 62
     0
 10
5.904754
 20
3.50492
 30
0.0
 11
5.904754
 21
3.990563
 31
0.0
  0
LINE
  8
0
  6
BYBLOCK
 62
     0
 10
6.492751
 20
3.851063
 30
0.0
 11
6.762751
 21
3.851063
 31
0.0
  0
LINE
  8
0
  6
BYBLOCK
 62
     0
 10
5.634754
 20
3.851063
 30
0.0
 11
5.364754
 21
3.851063
 31
0.0
  0
SOLID
  8
0
  6
BYBLOCK
 62
     0
 10
6.492751
 20
3.896063
 30
0.0
 11
6.492751
 21
3.806063
 31
0.0
 12
6.222751
 22
3.851063
 32
0.0
 13
6.222751
 23
3.851063
 33
0.0
  0
SOLID
  8
0
  6
BYBLOCK
 62
     0
 10
5.634754
 20
3.896063
 30
0.0
 11
5.634754
 21
3.806063
 31
0.0
 12
5.904754
 22
3.851063
 32
0.0
 13
5.904754
 23
3.851063
 33
0.0
  0
TEXT
  8
0
  6
BYBLOCK
 62
     0
 10
4.737566
 20
3.757313
 30
0.0
 40
0.1875
  1
0.318
 41
0.75
 72
     1
 11
4.98366
 21
3.851063
 31
0.0
 73
     2
  0
POINT
  8
DEFPOINTS
  6
BYBLOCK
 62
     0
 10
6.222751
 20
3.197423
 30
0.0
  0
POINT
  8
DEFPOINTS
  6
BYBLOCK
 62
     0
 10
5.904754
 20
3.41042
 30
0.0
  0
POINT
  8
DEFPOINTS
  6
BYBLOCK
 62
     0
 10
5.904754
 20
3.851063
 30
0.0
  0
ENDBLK
  8
0
  0
BLOCK
  8
0
  2
*D19
 70
    65
 10
0.0
 20
0.0
 30
0.0
  3
*D
  0
LINE
  8
0
  6
BYBLOCK
 62
     0
 10
6.222751
 20
3.291923
 30
0.0
 11
6.222751
 21
3.990563
 31
0.0
  0
LINE
  8
0
  6
BYBLOCK
 62
     0
 10
9.691501
 20
3.291923
 30
0.0
 11
9.691501
 21
3.990563
 31
0.0
  0
LINE
  8
0
  6
BYBLOCK
 62
     0
 10
6.492751
 20
3.851063
 30
0.0
 11
7.540876
 21
3.851063
 31
0.0
  0
LINE
  8
0
  6
BYBLOCK
 62
     0
 10
9.421501
 20
3.851063
 30
0.0
 11
8.373376
 21
3.851063
 31
0.0
  0
SOLID
  8
0
  6
BYBLOCK
 62
     0
 10
6.492751
 20
3.896063
 30
0.0
 11
6.492751
 21
3.806063
 31
0.0
 12
6.222751
 22
3.851063
 32
0.0
 13
6.222751
 23
3.851063
 33
0.0
  0
SOLID
  8
0
  6
BYBLOCK
 62
     0
 10
9.421501
 20
3.896063
 30
0.0
 11
9.421501
 21
3.806063
 31
0.0
 12
9.691501
 22
3.851063
 32
0.0
 13
9.691501
 23
3.851063
 33
0.0
  0
TEXT
  8
0
  6
BYBLOCK
 62
     0
 10
7.675876
 20
3.757313
 30
0.0
 40
0.1875
  1
3.469
 41
0.75
 72
     1
 11
7.957126
 21
3.851063
 31
0.0
 73
     2
  0
POINT
  8
DEFPOINTS
  6
BYBLOCK
 62
     0
 10
6.222751
 20
3.197423
 30
0.0
  0
POINT
  8
DEFPOINTS
  6
BYBLOCK
 62
     0
 10
9.691501
 20
3.197423
 30
0.0
  0
POINT
  8
DEFPOINTS
  6
BYBLOCK
 62
     0
 10
9.691501
 20
3.851063
 30
0.0
  0
ENDBLK
  8
0
  0
BLOCK
  8
0
  2
*D20
 70
    65
 10
0.0
 20
0.0
 30
0.0
  3
*D
  0
LINE
  8
0
  6
BYBLOCK
 62
     0
 10
5.925644
 20
6.317276
 30
0.0
 11
5.925644
 21
6.869527
 31
0.0
  0
LINE
  8
0
  6
BYBLOCK
 62
     0
 10
9.988608
 20
6.317276
 30
0.0
 11
9.988608
 21
6.869527
 31
0.0
  0
LINE
  8
0
  6
BYBLOCK
 62
     0
 10
6.195644
 20
6.730027
 30
0.0
 11
7.552594
 21
6.730027
 31
0.0
  0
LINE
  8
0
  6
BYBLOCK
 62
     0
 10
9.718608
 20
6.730027
 30
0.0
 11
8.361657
 21
6.730027
 31
0.0
  0
SOLID
  8
0
  6
BYBLOCK
 62
     0
 10
6.195644
 20
6.775027
 30
0.0
 11
6.195644
 21
6.685027
 31
0.0
 12
5.925644
 22
6.730027
 32
0.0
 13
5.925644
 23
6.730027
 33
0.0
  0
SOLID
  8
0
  6
BYBLOCK
 62
     0
 10
9.718608
 20
6.775027
 30
0.0
 11
9.718608
 21
6.685027
 31
0.0
 12
9.988608
 22
6.730027
 32
0.0
 13
9.988608
 23
6.730027
 33
0.0
  0
TEXT
  8
0
  6
BYBLOCK
 62
     0
 10
7.687594
 20
6.636277
 30
0.0
 40
0.1875
  1
4.063
 41
0.75
 72
     1
 11
7.957126
 21
6.730027
 31
0.0
 73
     2
  0
POINT
  8
DEFPOINTS
  6
BYBLOCK
 62
     0
 10
5.925644
 20
6.222776
 30
0.0
  0
POINT
  8
DEFPOINTS
  6
BYBLOCK
 62
     0
 10
9.988608
 20
6.222776
 30
0.0
  0
POINT
  8
DEFPOINTS
  6
BYBLOCK
 62
     0
 10
9.988608
 20
6.730027
 30
0.0
  0
ENDBLK
  8
0
  0
BLOCK
  8
0
  2
*D21
 70
    65
 10
0.0
 20
0.0
 30
0.0
  3
*D
  0
LINE
  8
0
  6
BYBLOCK
 62
     0
 10
1.611484
 20
6.419495
 30
0.0
 11
1.634717
 21
7.306725
 31
0.0
  0
LINE
  8
0
  6
BYBLOCK
 62
     0
 10
1.585443
 20
5.846083
 30
0.0
 11
1.585443
 21
7.30737
 31
0.0
  0
ARC
  8
0
  6
BYBLOCK
 62
     0
 10
1.585443
 20
5.425027
 30
0.0
 40
1.742843
 50
70.729754
 51
79.614877
  0
ARC
  8
0
  6
BYBLOCK
 62
     0
 10
1.585443
 20
5.425027
 30
0.0
 40
1.742843
 50
98.885123
 51
107.770246
  0
SOLID
  8
0
  6
BYBLOCK
 62
     0
 10
1.894955
 20
7.094561
 30
0.0
 11
1.904273
 21
7.184077
 31
0.0
 12
1.631065
 22
7.167273
 32
0.0
 13
1.631065
 23
7.167273
 33
0.0
  0
SOLID
  8
0
  6
BYBLOCK
 62
     0
 10
1.312768
 20
7.191821
 30
0.0
 11
1.31974
 21
7.102091
 31
0.0
 12
1.585443
 22
7.16787
 32
0.0
 13
1.585443
 23
7.16787
 33
0.0
  0
TEXT
  8
0
  6
BYBLOCK
 62
     0
 10
2.838132
 20
7.021131
 30
0.0
 40
0.1875
  1
 REF.
 41
0.75
 72
     1
 11
3.119382
 21
7.114881
 31
0.0
 73
     2
  0
TEXT
  8
0
  6
BYBLOCK
 62
     0
 10
2.322507
 20
7.021131
 30
0.0
 40
0.1875
  1
1%%d30'
 41
0.75
 72
     1
 11
2.556882
 21
7.114881
 31
0.0
 73
     2
  0
POINT
  8
DEFPOINTS
  6
BYBLOCK
 62
     0
 10
1.607245
 20
7.167733
 30
0.0
  0
POINT
  8
DEFPOINTS
  6
BYBLOCK
 62
     0
 10
1.60901
 20
6.325027
 30
0.0
  0
POINT
  8
DEFPOINTS
  6
BYBLOCK
 62
     0
 10
1.585443
 20
5.425027
 30
0.0
  0
POINT
  8
DEFPOINTS
  6
BYBLOCK
 62
     0
 10
1.585443
 20
5.751583
 30
0.0
  0
POINT
  8
DEFPOINTS
  6
BYBLOCK
 62
     0
 10
1.585443
 20
5.425027
 30
0.0
  0
ENDBLK
  8
0
  0
BLOCK
  8
0
  2
*D22
 70
    65
 10
0.0
 20
0.0
 30
0.0
  3
*D
  0
LINE
  8
0
  6
BYBLOCK
 62
     0
 10
3.794297
 20
6.317276
 30
0.0
 11
3.794297
 21
6.869527
 31
0.0
  0
LINE
  8
0
  6
BYBLOCK
 62
     0
 10
1.606333
 20
6.317276
 30
0.0
 11
1.606333
 21
6.869527
 31
0.0
  0
LINE
  8
0
  6
BYBLOCK
 62
     0
 10
3.524297
 20
6.730027
 30
0.0
 11
3.093127
 21
6.730027
 31
0.0
  0
LINE
  8
0
  6
BYBLOCK
 62
     0
 10
1.876333
 20
6.730027
 30
0.0
 11
2.307502
 21
6.730027
 31
0.0
  0
SOLID
  8
0
  6
BYBLOCK
 62
     0
 10
3.524297
 20
6.775027
 30
0.0
 11
3.524297
 21
6.685027
 31
0.0
 12
3.794297
 22
6.730027
 32
0.0
 13
3.794297
 23
6.730027
 33
0.0
  0
SOLID
  8
0
  6
BYBLOCK
 62
     0
 10
1.876333
 20
6.775027
 30
0.0
 11
1.876333
 21
6.685027
 31
0.0
 12
1.606333
 22
6.730027
 32
0.0
 13
1.606333
 23
6.730027
 33
0.0
  0
TEXT
  8
0
  6
BYBLOCK
 62
     0
 10
2.442502
 20
6.636277
 30
0.0
 40
0.1875
  1
2.188
 41
0.75
 72
     1
 11
2.700315
 21
6.730027
 31
0.0
 73
     2
  0
POINT
  8
DEFPOINTS
  6
BYBLOCK
 62
     0
 10
3.794297
 20
6.222776
 30
0.0
  0
POINT
  8
DEFPOINTS
  6
BYBLOCK
 62
     0
 10
1.606333
 20
6.222776
 30
0.0
  0
POINT
  8
DEFPOINTS
  6
BYBLOCK
 62
     0
 10
1.606333
 20
6.730027
 30
0.0
  0
ENDBLK
  8
0
  0
BLOCK
  8
0
  2
*D23
 70
    65
 10
0.0
 20
0.0
 30
0.0
  3
*D
  0
LINE
  8
0
  6
BYBLOCK
 62
     0
 10
3.783833
 20
6.325027
 30
0.0
 11
4.437605
 21
6.325027
 31
0.0
  0
LINE
  8
0
  6
BYBLOCK
 62
     0
 10
3.909687
 20
5.425027
 30
0.0
 11
4.437605
 21
5.425027
 31
0.0
  0
LINE
  8
0
  6
BYBLOCK
 62
     0
 10
4.298105
 20
6.595027
 30
0.0
 11
4.298105
 21
6.865027
 31
0.0
  0
LINE
  8
0
  6
BYBLOCK
 62
     0
 10
4.298105
 20
5.155027
 30
0.0
 11
4.298105
 21
4.885027
 31
0.0
  0
SOLID
  8
0
  6
BYBLOCK
 62
     0
 10
4.253105
 20
6.595027
 30
0.0
 11
4.343105
 21
6.595027
 31
0.0
 12
4.298105
 22
6.325027
 32
0.0
 13
4.298105
 23
6.325027
 33
0.0
  0
SOLID
  8
0
  6
BYBLOCK
 62
     0
 10
4.253105
 20
5.155027
 30
0.0
 11
4.343105
 21
5.155027
 31
0.0
 12
4.298105
 22
5.425027
 32
0.0
 13
4.298105
 23
5.425027
 33
0.0
  0
TEXT
  8
0
  6
BYBLOCK
 62
     0
 10
4.052011
 20
5.781277
 30
0.0
 40
0.1875
  1
0.900
 41
0.75
 72
     1
 11
4.298105
 21
5.875027
 31
0.0
 73
     2
  0
POINT
  8
DEFPOINTS
  6
BYBLOCK
 62
     0
 10
3.689333
 20
6.325027
 30
0.125
  0
POINT
  8
DEFPOINTS
  6
BYBLOCK
 62
     0
 10
3.815187
 20
5.425027
 30
0.125
  0
POINT
  8
DEFPOINTS
  6
BYBLOCK
 62
     0
 10
4.298105
 20
5.425027
 30
0.0
  0
ENDBLK
  8
0
  0
BLOCK
  8
0
  2
*D25
 70
    65
 10
0.0
 20
0.0
 30
0.0
  3
*D
  0
LINE
  8
0
  6
BYBLOCK
 62
     0
 10
6.384807
 20
1.971518
 30
0.0
 11
6.384807
 21
1.113561
 31
0.0
  0
LINE
  8
0
  6
BYBLOCK
 62
     0
 10
9.987843
 20
1.971518
 30
0.0
 11
9.987843
 21
1.113561
 31
0.0
  0
LINE
  8
0
  6
BYBLOCK
 62
     0
 10
6.654807
 20
1.253061
 30
0.0
 11
7.781794
 21
1.253061
 31
0.0
  0
LINE
  8
0
  6
BYBLOCK
 62
     0
 10
9.717843
 20
1.253061
 30
0.0
 11
8.590856
 21
1.253061
 31
0.0
  0
SOLID
  8
0
  6
BYBLOCK
 62
     0
 10
6.654807
 20
1.298061
 30
0.0
 11
6.654807
 21
1.208061
 31
0.0
 12
6.384807
 22
1.253061
 32
0.0
 13
6.384807
 23
1.253061
 33
0.0
  0
SOLID
  8
0
  6
BYBLOCK
 62
     0
 10
9.717843
 20
1.298061
 30
0.0
 11
9.717843
 21
1.208061
 31
0.0
 12
9.987843
 22
1.253061
 32
0.0
 13
9.987843
 23
1.253061
 33
0.0
  0
TEXT
  8
0
  6
BYBLOCK
 62
     0
 10
7.916794
 20
1.159311
 30
0.0
 40
0.1875
  1
3.603
 41
0.75
 72
     1
 11
8.186325
 21
1.253061
 31
0.0
 73
     2
  0
POINT
  8
DEFPOINTS
  6
BYBLOCK
 62
     0
 10
6.384807
 20
2.066018
 30
0.0
  0
POINT
  8
DEFPOINTS
  6
BYBLOCK
 62
     0
 10
9.987843
 20
2.066018
 30
0.0
  0
POINT
  8
DEFPOINTS
  6
BYBLOCK
 62
     0
 10
9.987843
 20
1.253061
 30
0.0
  0
ENDBLK
  8
0
  0
BLOCK
  8
0
  2
*D26
 70
    65
 10
0.0
 20
0.0
 30
0.0
  3
*D
  0
LINE
  8
0
  6
BYBLOCK
 62
     0
 10
6.290307
 20
2.265763
 30
0.0
 11
5.521066
 21
2.265763
 31
0.0
  0
LINE
  8
0
  6
BYBLOCK
 62
     0
 10
6.290307
 20
3.465763
 30
0.0
 11
5.521066
 21
3.465763
 31
0.0
  0
LINE
  8
0
  6
BYBLOCK
 62
     0
 10
5.660566
 20
1.995763
 30
0.0
 11
5.660566
 21
1.725763
 31
0.0
  0
LINE
  8
0
  6
BYBLOCK
 62
     0
 10
5.660566
 20
3.735763
 30
0.0
 11
5.660566
 21
4.005763
 31
0.0
  0
SOLID
  8
0
  6
BYBLOCK
 62
     0
 10
5.615566
 20
1.995763
 30
0.0
 11
5.705566
 21
1.995763
 31
0.0
 12
5.660566
 22
2.265763
 32
0.0
 13
5.660566
 23
2.265763
 33
0.0
  0
SOLID
  8
0
  6
BYBLOCK
 62
     0
 10
5.615566
 20
3.735763
 30
0.0
 11
5.705566
 21
3.735763
 31
0.0
 12
5.660566
 22
3.465763
 32
0.0
 13
5.660566
 23
3.465763
 33
0.0
  0
TEXT
  8
0
  6
BYBLOCK
 62
     0
 10
5.426191
 20
2.772013
 30
0.0
 40
0.1875
  1
1.200
 41
0.75
 72
     1
 11
5.660566
 21
2.865763
 31
0.0
 73
     2
  0
POINT
  8
DEFPOINTS
  6
BYBLOCK
 62
     0
 10
6.384807
 20
2.265763
 30
0.0
  0
POINT
  8
DEFPOINTS
  6
BYBLOCK
 62
     0
 10
6.384807
 20
3.465763
 30
0.0
  0
POINT
  8
DEFPOINTS
  6
BYBLOCK
 62
     0
 10
5.660566
 20
3.465763
 30
0.0
  0
ENDBLK
  8
0
  0
BLOCK
  8
0
  2
*D27
 70
    65
 10
0.0
 20
0.0
 30
0.0
  3
*D
  0
LINE
  8
0
  6
BYBLOCK
 62
     0
 10
6.35745
 20
3.662638
 30
0.0
 11
4.80035
 21
3.662638
 31
0.0
  0
LINE
  8
0
  6
BYBLOCK
 62
     0
 10
6.35745
 20
2.068888
 30
0.0
 11
4.80035
 21
2.068888
 31
0.0
  0
LINE
  8
0
  6
BYBLOCK
 62
     0
 10
4.93985
 20
3.392638
 30
0.0
 11
4.93985
 21
3.094513
 31
0.0
  0
LINE
  8
0
  6
BYBLOCK
 62
     0
 10
4.93985
 20
2.338888
 30
0.0
 11
4.93985
 21
2.637013
 31
0.0
  0
SOLID
  8
0
  6
BYBLOCK
 62
     0
 10
4.89485
 20
3.392638
 30
0.0
 11
4.98485
 21
3.392638
 31
0.0
 12
4.93985
 22
3.662638
 32
0.0
 13
4.93985
 23
3.662638
 33
0.0
  0
SOLID
  8
0
  6
BYBLOCK
 62
     0
 10
4.89485
 20
2.338888
 30
0.0
 11
4.98485
 21
2.338888
 31
0.0
 12
4.93985
 22
2.068888
 32
0.0
 13
4.93985
 23
2.068888
 33
0.0
  0
TEXT
  8
0
  6
BYBLOCK
 62
     0
 10
4.682037
 20
2.772013
 30
0.0
 40
0.1875
  1
1.594
 41
0.75
 72
     1
 11
4.93985
 21
2.865763
 31
0.0
 73
     2
  0
POINT
  8
DEFPOINTS
  6
BYBLOCK
 62
     0
 10
6.45195
 20
3.662638
 30
0.0
  0
POINT
  8
DEFPOINTS
  6
BYBLOCK
 62
     0
 10
6.45195
 20
2.068888
 30
0.0
  0
POINT
  8
DEFPOINTS
  6
BYBLOCK
 62
     0
 10
4.93985
 20
2.068888
 30
0.0
  0
ENDBLK
  8
0
  0
BLOCK
  8
0
  2
*D28
 70
    65
 10
0.0
 20
0.0
 30
0.0
  3
*D
  0
LINE
  8
0
  6
BYBLOCK
 62
     0
 10
6.35745
 20
2.068888
 30
0.0
 11
4.804052
 21
2.068888
 31
0.0
  0
LINE
  8
0
  6
BYBLOCK
 62
     0
 10
6.144453
 20
1.750892
 30
0.0
 11
4.804052
 21
1.750892
 31
0.0
  0
LINE
  8
0
  6
BYBLOCK
 62
     0
 10
4.943552
 20
2.338888
 30
0.0
 11
4.943552
 21
2.608888
 31
0.0
  0
LINE
  8
0
  6
BYBLOCK
 62
     0
 10
4.943552
 20
1.480892
 30
0.0
 11
4.943552
 21
1.210892
 31
0.0
  0
SOLID
  8
0
  6
BYBLOCK
 62
     0
 10
4.898552
 20
2.338888
 30
0.0
 11
4.988552
 21
2.338888
 31
0.0
 12
4.943552
 22
2.068888
 32
0.0
 13
4.943552
 23
2.068888
 33
0.0
  0
SOLID
  8
0
  6
BYBLOCK
 62
     0
 10
4.898552
 20
1.480892
 30
0.0
 11
4.988552
 21
1.480892
 31
0.0
 12
4.943552
 22
1.750892
 32
0.0
 13
4.943552
 23
1.750892
 33
0.0
  0
TEXT
  8
0
  6
BYBLOCK
 62
     0
 10
4.697458
 20
1.81614
 30
0.0
 40
0.1875
  1
0.318
 41
0.75
 72
     1
 11
4.943552
 21
1.90989
 31
0.0
 73
     2
  0
POINT
  8
DEFPOINTS
  6
BYBLOCK
 62
     0
 10
6.45195
 20
2.068888
 30
0.0
  0
POINT
  8
DEFPOINTS
  6
BYBLOCK
 62
     0
 10
6.238953
 20
1.750892
 30
0.0
  0
POINT
  8
DEFPOINTS
  6
BYBLOCK
 62
     0
 10
4.943552
 20
1.750892
 30
0.0
  0
ENDBLK
  8
0
  0
ENDSEC
  0
SECTION
  2
ENTITIES
  0
INSERT
  8
TITLE
  2
HBS
 10
0.0
 20
0.0
 30
0.0
 41
1.5
 42
1.5
 43
1.5
  0
TEXT
  8
TEXT
 10
7.674435
 20
14.041181
 30
0.0
 40
0.1875
  1
COVER REDUCES INSIDE HEIGHT BY 0.085.
 41
0.75
  0
TEXT
  8
TEXT
 10
7.741254
 20
0.737528
 30
0.0
 40
0.234
  1
%%uBODY
 41
0.75
 72
     4
 11
8.065929
 21
0.831128
 31
0.0
  0
TEXT
  8
TEXT
 10
7.674435
 20
12.479681
 30
0.0
 40
0.1875
  1
OPEN END DUE TO TAPER.
 41
0.75
  0
TEXT
  8
TEXT
 10
7.674435
 20
12.792181
 30
0.0
 40
0.1875
  1
DIMENSIONS INCREASE SLIGHTLY AT
 41
0.75
  0
TEXT
  8
TEXT
 10
7.674435
 20
13.104681
 30
0.0
 40
0.1875
  1
TAKEN FROM CLOSED END OF THE BOX.
 41
0.75
  0
TEXT
  8
TEXT
 10
7.674435
 20
13.417181
 30
0.0
 40
0.1875
  1
LENGTH AND WIDTH DIMENSIONS ARE
 41
0.75
  0
TEXT
  8
TEXT
 10
18.880092
 20
0.737528
 30
0.0
 40
0.234
  1
%%uCOVER
 41
0.75
 72
     4
 11
19.321767
 21
0.831128
 31
0.0
  0
TEXT
  8
TEXT
 10
0.353291
 20
14.041181
 30
0.0
 40
0.1875
  1
%%uMATERIAL:
 41
0.75
  0
TEXT
  8
TEXT
 10
0.353291
 20
10.928618
 30
0.0
 40
0.1875
  1
%%uCOLOR:%%u BLACK
 41
0.75
  0
TEXT
  8
TEXT
 10
0.760068
 20
13.416181
 30
0.0
 40
0.1875
  1
(FLAMMABILITY RATING OF 94-VO AT
 41
0.75
  0
TEXT
  8
TEXT
 10
0.813626
 20
12.791181
 30
0.0
 40
0.1875
  1
USE TEMPERATURE OF 70%%D C.)
 41
0.75
  0
TEXT
  8
TEXT
 10
0.813626
 20
13.103681
 30
0.0
 40
0.1875
  1
0.070" THICKNESS AND CONTINUOUS
 41
0.75
  0
TEXT
  8
TEXT
 10
0.503386
 20
13.728681
 30
0.0
 40
0.1875
  1
ABS THERMOPLASTIC
 41
0.75
  0
TEXT
  8
TEXT
 10
4.87725
 20
14.6565
 30
0.0
 40
0.234
  1
UTILIBOX  (STYLE E)
 41
0.75
 72
     4
 11
6.39825
 21
14.7735
 31
0.0
  0
TEXT
  8
TEXT
 10
17.4795
 20
14.6565
 30
0.0
 40
0.234
  1
CU-794
 41
0.75
 72
     4
 11
17.97675
 21
14.7735
 31
0.0
  0
TEXT
  8
TEXT
 10
7.674435
 20
11.858605
 30
0.0
 40
0.1875
  1
%%UNOTE:%%U ALL DIMENSIONS HAVE %%P0.010 TOLERANCE
 41
0.75
  0
TEXT
  8
TEXT
 10
8.258728
 20
11.555042
 30
0.0
 40
0.1875
  1
UNLESS OTHERWISE SPECIFIED.
 41
0.75
  0
DIMENSION
  8
DIM
  2
*D20
 10
10.097411
 20
7.165399
 30
0.0
 11
8.065929
 21
7.165399
 31
0.0
 12
0.108803
 22
0.435372
 32
0.0
 13
6.034447
 23
6.658148
 33
0.0
 14
10.097411
 24
6.658148
 34
0.0
  3
23NSTD
  0
DIMENSION
  8
DIM
  2
*D15
 10
10.118301
 20
5.064564
 30
0.0
 11
8.065929
 21
5.064564
 31
0.0
 12
0.108803
 22
0.435372
 32
0.0
 13
6.013557
 23
5.860399
 33
0.0
 14
10.118301
 24
5.860399
 34
0.0
  3
23NSTD
  0
LINE
  8
OBJECT
 10
6.139411
 20
6.760399
 30
0.0
 11
9.992447
 21
6.760399
 31
0.0
  0
LINE
  8
OBJECT
 10
6.013557
 20
5.860399
 30
0.0
 11
10.118301
 21
5.860399
 31
0.0
  0
LINE
  8
HIDDEN
 10
10.076454
 20
5.930399
 30
0.0
 11
6.055404
 21
5.930399
 31
0.0
  0
LINE
  8
HIDDEN
 10
6.264411
 20
6.700399
 30
0.0
 11
9.867447
 21
6.700399
 31
0.0
  0
LINE
  8
OBJECT
 10
6.034447
 20
6.658148
 30
0.0
 11
6.013557
 21
5.860399
 31
0.0
  0
LINE
  8
HIDDEN
 10
6.286554
 20
6.010399
 30
0.0
 11
6.286554
 21
6.510399
 31
0.0
  0
LINE
  8
HIDDEN
 10
6.376554
 20
6.010399
 30
0.0
 11
6.376554
 21
6.510399
 31
0.0
  0
LINE
  8
HIDDEN
 10
6.241554
 20
6.010399
 30
0.0
 11
6.235249
 21
6.690399
 31
0.0
  0
LINE
  8
HIDDEN
 10
6.421554
 20
6.010399
 30
0.0
 11
6.427859
 21
6.690399
 31
0.0
  0
LINE
  8
HIDDEN
 10
6.240979
 20
6.072399
 30
0.0
 11
6.089133
 21
6.072399
 31
0.0
  0
LINE
  8
HIDDEN
 10
6.421554
 20
6.010399
 30
0.0
 11
6.241554
 21
6.010399
 31
0.0
  0
LINE
  8
HIDDEN
 10
6.139411
 20
6.690399
 30
0.0
 11
6.264411
 21
6.690399
 31
0.0
  0
ARC
  8
OBJECT
 10
6.139411
 20
6.655399
 30
0.0
 40
0.105
 50
90.0
 51
178.5
  0
LINE
  8
HIDDEN
 10
6.376554
 20
6.510399
 30
0.0
 11
6.286554
 21
6.510399
 31
0.0
  0
LINE
  8
HIDDEN
 10
6.264411
 20
6.690399
 30
0.0
 11
6.264411
 21
6.700399
 31
0.0
  0
DIMENSION
  8
DIM
  2
*D2
 10
10.399288
 20
6.760399
 30
0.0
 11
11.355069
 21
7.300399
 31
0.0
 12
-0.749882
 22
-15.237303
 32
0.0
  1
<> TYP.
 13
9.992447
 23
6.690399
 33
0.0
 14
9.992447
 24
6.760399
 34
0.0
 50
90.0
  3
23NSTD
  0
LINE
  8
OBJECT
 10
10.097411
 20
6.658148
 30
0.0
 11
10.118301
 21
5.860399
 31
0.0
  0
LINE
  8
HIDDEN
 10
9.710304
 20
6.010399
 30
0.0
 11
9.703999
 21
6.690399
 31
0.0
  0
LINE
  8
HIDDEN
 10
9.890304
 20
6.010399
 30
0.0
 11
9.896609
 21
6.690399
 31
0.0
  0
LINE
  8
HIDDEN
 10
9.755304
 20
6.010399
 30
0.0
 11
9.755304
 21
6.510399
 31
0.0
  0
LINE
  8
HIDDEN
 10
9.845304
 20
6.010399
 30
0.0
 11
9.845304
 21
6.510399
 31
0.0
  0
LINE
  8
HIDDEN
 10
9.710304
 20
6.010399
 30
0.0
 11
9.890304
 21
6.010399
 31
0.0
  0
LINE
  8
HIDDEN
 10
9.890879
 20
6.072399
 30
0.0
 11
10.042726
 21
6.072399
 31
0.0
  0
LINE
  8
HIDDEN
 10
9.755304
 20
6.510399
 30
0.0
 11
9.845304
 21
6.510399
 31
0.0
  0
LINE
  8
HIDDEN
 10
9.867447
 20
6.690399
 30
0.0
 11
9.992447
 21
6.690399
 31
0.0
  0
LINE
  8
HIDDEN
 10
9.867447
 20
6.690399
 30
0.0
 11
9.867447
 21
6.700399
 31
0.0
  0
ARC
  8
OBJECT
 10
9.992447
 20
6.655399
 30
0.0
 40
0.105
 50
1.5
 51
90.0
  0
DIMENSION
  8
DIM
  2
*D23
 10
4.215283
 20
5.860399
 30
0.0
 11
4.215283
 21
6.310399
 31
0.0
 12
-0.082822
 22
0.435372
 32
0.0
 13
3.606511
 23
6.760399
 33
0.125
 14
3.732365
 24
5.860399
 34
0.125
 50
270.0
  3
23NSTDI
  0
DIMENSION
  8
DIM
  2
*D22
 10
1.523511
 20
7.165399
 30
0.0
 11
2.617493
 21
7.165399
 31
0.0
 12
-0.082822
 22
0.435372
 32
0.0
 13
3.711475
 23
6.658148
 33
0.0
 14
1.523511
 24
6.658148
 34
0.0
  3
23NSTD
  0
LINE
  8
HIDDEN
 10
3.606525
 20
6.690399
 30
0.0
 11
3.217493
 21
6.690399
 31
0.0
  0
LINE
  8
OBJECT
 10
3.606511
 20
6.760399
 30
0.0
 11
1.628475
 21
6.760399
 31
0.0
  0
LINE
  8
OBJECT
 10
3.732365
 20
5.860399
 30
0.0
 11
1.502621
 21
5.860399
 31
0.0
  0
LINE
  8
HIDDEN
 10
3.690518
 20
5.930399
 30
0.0
 11
1.544468
 21
5.930399
 31
0.0
  0
DIMENSION
  8
DIM
  2
*D1
 10
1.252753
 20
5.860399
 30
0.0
 11
0.601659
 21
5.320399
 31
0.0
 12
-1.372663
 22
-15.237303
 32
0.0
 13
1.544454
 23
5.930399
 33
0.0
 14
1.502621
 24
5.860399
 34
0.0
 50
270.0
  3
23NSTD
  0
LINE
  8
HIDDEN
 10
1.730043
 20
6.072399
 30
0.0
 11
1.578197
 21
6.072399
 31
0.0
  0
LINE
  8
HIDDEN
 10
1.730618
 20
6.010399
 30
0.0
 11
1.724314
 21
6.690399
 31
0.0
  0
LINE
  8
HIDDEN
 10
2.017493
 20
6.690399
 30
0.0
 11
1.628461
 21
6.690399
 31
0.0
  0
ARC
  8
OBJECT
 10
1.628475
 20
6.655399
 30
0.0
 40
0.105
 50
90.0
 51
178.5
  0
LINE
  8
HIDDEN
 10
3.217493
 20
6.700399
 30
0.0
 11
2.017493
 21
6.700399
 31
0.0
  0
LINE
  8
HIDDEN
 10
1.865618
 20
6.010399
 30
0.0
 11
1.865618
 21
6.510399
 31
0.0
  0
LINE
  8
HIDDEN
 10
1.775618
 20
6.010399
 30
0.0
 11
1.775618
 21
6.510399
 31
0.0
  0
LINE
  8
HIDDEN
 10
1.910618
 20
6.010399
 30
0.0
 11
1.916923
 21
6.690399
 31
0.0
  0
LINE
  8
HIDDEN
 10
2.017493
 20
6.700399
 30
0.0
 11
2.017493
 21
6.690399
 31
0.0
  0
LINE
  8
HIDDEN
 10
1.775618
 20
6.510399
 30
0.0
 11
1.865618
 21
6.510399
 31
0.0
  0
LINE
  8
HIDDEN
 10
1.910618
 20
6.010399
 30
0.0
 11
1.730618
 21
6.010399
 31
0.0
  0
LINE
  8
HIDDEN
 10
3.217493
 20
6.700399
 30
0.0
 11
3.217493
 21
6.690399
 31
0.0
  0
LINE
  8
OBJECT
 10
3.711475
 20
6.658148
 30
0.0
 11
3.732365
 21
5.860399
 31
0.0
  0
LINE
  8
HIDDEN
 10
3.324368
 20
6.010399
 30
0.0
 11
3.318064
 21
6.690399
 31
0.0
  0
LINE
  8
HIDDEN
 10
3.504368
 20
6.010399
 30
0.0
 11
3.510673
 21
6.690399
 31
0.0
  0
LINE
  8
HIDDEN
 10
3.459368
 20
6.010399
 30
0.0
 11
3.459368
 21
6.510399
 31
0.0
  0
LINE
  8
HIDDEN
 10
3.369368
 20
6.010399
 30
0.0
 11
3.369368
 21
6.510399
 31
0.0
  0
ARC
  8
OBJECT
 10
3.606511
 20
6.655399
 30
0.0
 40
0.105
 50
1.5
 51
90.0
  0
LINE
  8
HIDDEN
 10
3.459368
 20
6.510399
 30
0.0
 11
3.369368
 21
6.510399
 31
0.0
  0
LINE
  8
HIDDEN
 10
3.504943
 20
6.072399
 30
0.0
 11
3.65679
 21
6.072399
 31
0.0
  0
LINE
  8
HIDDEN
 10
3.324368
 20
6.010399
 30
0.0
 11
3.504368
 21
6.010399
 31
0.0
  0
POLYLINE
  8
HIDDEN
 66
     1
 10
0.0
 20
0.0
 30
0.0
 70
     1
  0
VERTEX
  8
HIDDEN
 10
6.264411
 20
9.600146
 30
0.0
  0
VERTEX
  8
HIDDEN
 10
6.264411
 20
8.400146
 30
0.0
  0
VERTEX
  8
HIDDEN
 10
9.867447
 20
8.400146
 30
0.0
  0
VERTEX
  8
HIDDEN
 10
9.867447
 20
9.600146
 30
0.0
  0
SEQEND
  8
HIDDEN
  0
POLYLINE
  8
OBJECT
 66
     1
 10
0.0
 20
0.0
 30
0.0
 70
     1
  0
VERTEX
  8
OBJECT
 10
10.097411
 20
9.989128
 30
0.0
 42
0.414214
  0
VERTEX
  8
OBJECT
 10
9.992411
 20
10.094128
 30
0.0
  0
VERTEX
  8
OBJECT
 10
6.139447
 20
10.094128
 30
0.0
 42
0.414214
  0
VERTEX
  8
OBJECT
 10
6.034447
 20
9.989128
 30
0.0
  0
VERTEX
  8
OBJECT
 10
6.034447
 20
8.011164
 30
0.0
 42
0.414214
  0
VERTEX
  8
OBJECT
 10
6.139447
 20
7.906164
 30
0.0
  0
VERTEX
  8
OBJECT
 10
9.992411
 20
7.906164
 30
0.0
 42
0.414214
  0
VERTEX
  8
OBJECT
 10
10.097411
 20
8.011164
 30
0.0
  0
SEQEND
  8
OBJECT
  0
POLYLINE
  8
OBJECT
 66
     1
 10
0.0
 20
0.0
 30
0.0
 70
     1
  0
VERTEX
  8
OBJECT
 10
10.118301
 20
10.010018
 30
0.0
 42
0.414214
  0
VERTEX
  8
OBJECT
 10
10.013301
 20
10.115018
 30
0.0
  0
VERTEX
  8
OBJECT
 10
6.118557
 20
10.115018
 30
0.0
 42
0.414214
  0
VERTEX
  8
OBJECT
 10
6.013557
 20
10.010018
 30
0.0
  0
VERTEX
  8
OBJECT
 10
6.013557
 20
7.990274
 30
0.0
 42
0.414214
  0
VERTEX
  8
OBJECT
 10
6.118557
 20
7.885274
 30
0.0
  0
VERTEX
  8
OBJECT
 10
10.013301
 20
7.885274
 30
0.0
 42
0.414214
  0
VERTEX
  8
OBJECT
 10
10.118301
 20
7.990274
 30
0.0
  0
SEQEND
  8
OBJECT
  0
POLYLINE
  8
OBJECT
 66
     1
 10
0.0
 20
0.0
 30
0.0
 70
     1
  0
VERTEX
  8
OBJECT
 10
10.118301
 20
3.875635
 30
0.0
 42
0.414214
  0
VERTEX
  8
OBJECT
 10
10.013301
 20
3.980635
 30
0.0
  0
VERTEX
  8
OBJECT
 10
6.118557
 20
3.980635
 30
0.0
 42
0.414214
  0
VERTEX
  8
OBJECT
 10
6.013557
 20
3.875635
 30
0.0
  0
VERTEX
  8
OBJECT
 10
6.013557
 20
1.855892
 30
0.0
 42
0.414214
  0
VERTEX
  8
OBJECT
 10
6.118557
 20
1.750892
 30
0.0
  0
VERTEX
  8
OBJECT
 10
10.013301
 20
1.750892
 30
0.0
 42
0.414214
  0
VERTEX
  8
OBJECT
 10
10.118301
 20
1.855892
 30
0.0
  0
SEQEND
  8
OBJECT
  0
POLYLINE
  8
OBJECT
 66
     1
 10
0.0
 20
0.0
 30
0.0
 70
     1
  0
VERTEX
  8
OBJECT
 10
6.264411
 20
3.465763
 30
0.0
  0
VERTEX
  8
OBJECT
 10
6.264411
 20
2.265763
 30
0.0
  0
VERTEX
  8
OBJECT
 10
9.867447
 20
2.265763
 30
0.0
  0
VERTEX
  8
OBJECT
 10
9.867447
 20
3.465763
 30
0.0
  0
SEQEND
  8
OBJECT
  0
POLYLINE
  8
OBJECT
 66
     1
 10
0.0
 20
0.0
 30
0.0
  0
VERTEX
  8
OBJECT
 10
6.10786
 20
1.822567
 30
0.0
  0
VERTEX
  8
OBJECT
 10
6.275576
 20
1.990283
 30
0.0
 42
11.979021
  0
VERTEX
  8
OBJECT
 10
6.252949
 20
2.012911
 30
0.0
  0
VERTEX
  8
OBJECT
 10
6.085232
 20
1.845194
 30
0.0
  0
SEQEND
  8
OBJECT
  0
CIRCLE
  8
OBJECT
 10
6.331554
 20
2.068888
 30
0.0
 40
0.045
  0
POLYLINE
  8
OBJECT
 66
     1
 10
0.0
 20
0.0
 30
0.0
  0
VERTEX
  8
OBJECT
 10
6.10786
 20
3.90896
 30
0.0
  0
VERTEX
  8
OBJECT
 10
6.275576
 20
3.741243
 30
0.0
 42
-11.979021
  0
VERTEX
  8
OBJECT
 10
6.252949
 20
3.718616
 30
0.0
  0
VERTEX
  8
OBJECT
 10
6.085232
 20
3.886333
 30
0.0
  0
SEQEND
  8
OBJECT
  0
CIRCLE
  8
OBJECT
 10
6.331554
 20
3.662638
 30
0.0
 40
0.045
  0
POLYLINE
  8
OBJECT
 66
     1
 10
0.0
 20
0.0
 30
0.0
  0
VERTEX
  8
OBJECT
 10
10.046626
 20
1.845194
 30
0.0
  0
VERTEX
  8
OBJECT
 10
9.878909
 20
2.012911
 30
0.0
 42
11.979021
  0
VERTEX
  8
OBJECT
 10
9.856282
 20
1.990283
 30
0.0
  0
VERTEX
  8
OBJECT
 10
10.023999
 20
1.822567
 30
0.0
  0
SEQEND
  8
OBJECT
  0
CIRCLE
  8
OBJECT
 10
9.800304
 20
2.068888
 30
0.0
 40
0.045
  0
POLYLINE
  8
OBJECT
 66
     1
 10
0.0
 20
0.0
 30
0.0
  0
VERTEX
  8
OBJECT
 10
10.046626
 20
3.886333
 30
0.0
  0
VERTEX
  8
OBJECT
 10
9.878909
 20
3.718616
 30
0.0
 42
-11.979021
  0
VERTEX
  8
OBJECT
 10
9.856282
 20
3.741243
 30
0.0
  0
VERTEX
  8
OBJECT
 10
10.023999
 20
3.90896
 30
0.0
  0
SEQEND
  8
OBJECT
  0
CIRCLE
  8
OBJECT
 10
9.800304
 20
3.662638
 30
0.0
 40
0.045
  0
DIMENSION
  8
DIM
  2
*D19
 10
9.800304
 20
4.316279
 30
0.0
 11
8.065929
 21
4.316279
 31
0.0
 12
0.108803
 22
0.465216
 32
0.0
 13
6.331554
 23
3.662638
 33
0.0
 14
9.800304
 24
3.662638
 34
0.0
  3
23NSTD
  0
DIMENSION
  8
DIM
  2
*D27
 10
4.819453
 20
2.068888
 30
0.0
 11
4.819453
 21
2.865763
 31
0.0
 12
-0.120396
 22
0.0
 32
0.0
 13
6.331554
 23
3.662638
 33
0.0
 14
6.331554
 24
2.068888
 34
0.0
 50
270.0
  3
23NSTD
  0
POLYLINE
  8
OBJECT
 66
     1
 10
0.0
 20
0.0
 30
0.0
 70
     1
  0
VERTEX
  8
OBJECT
 10
10.078301
 20
3.875635
 30
0.0
 42
0.414214
  0
VERTEX
  8
OBJECT
 10
10.013301
 20
3.940635
 30
0.0
  0
VERTEX
  8
OBJECT
 10
6.118557
 20
3.940635
 30
0.0
 42
0.414214
  0
VERTEX
  8
OBJECT
 10
6.053557
 20
3.875635
 30
0.0
  0
VERTEX
  8
OBJECT
 10
6.053557
 20
1.855892
 30
0.0
 42
0.414214
  0
VERTEX
  8
OBJECT
 10
6.118557
 20
1.790892
 30
0.0
  0
VERTEX
  8
OBJECT
 10
10.013301
 20
1.790892
 30
0.0
 42
0.414214
  0
VERTEX
  8
OBJECT
 10
10.078301
 20
1.855892
 30
0.0
  0
SEQEND
  8
OBJECT
  0
POLYLINE
  8
OBJECT
 66
     1
 10
0.0
 20
0.0
 30
0.0
 70
     1
  0
VERTEX
  8
OBJECT
 10
10.048301
 20
3.875635
 30
0.0
 42
0.414214
  0
VERTEX
  8
OBJECT
 10
10.013301
 20
3.910635
 30
0.0
  0
VERTEX
  8
OBJECT
 10
6.118557
 20
3.910635
 30
0.0
 42
0.414214
  0
VERTEX
  8
OBJECT
 10
6.083557
 20
3.875635
 30
0.0
  0
VERTEX
  8
OBJECT
 10
6.083557
 20
1.855892
 30
0.0
 42
0.414214
  0
VERTEX
  8
OBJECT
 10
6.118557
 20
1.820892
 30
0.0
  0
VERTEX
  8
OBJECT
 10
10.013301
 20
1.820892
 30
0.0
 42
0.414214
  0
VERTEX
  8
OBJECT
 10
10.048301
 20
1.855892
 30
0.0
  0
SEQEND
  8
OBJECT
  0
LINE
  8
HIDDEN
 10
6.104423
 20
6.656316
 30
0.0
 11
6.085414
 21
5.930399
 31
0.0
  0
LINE
  8
HIDDEN
 10
6.055404
 20
5.930399
 30
0.0
 11
6.053544
 21
5.859352
 31
0.0
  0
ARC
  8
HIDDEN
 10
6.139411
 20
6.655399
 30
0.0
 40
0.035
 50
90.0
 51
178.5
  0
LINE
  8
HIDDEN
 10
10.076454
 20
5.930399
 30
0.0
 11
10.078315
 21
5.859352
 31
0.0
  0
LINE
  8
HIDDEN
 10
10.027435
 20
6.656316
 30
0.0
 11
10.046444
 21
5.930399
 31
0.0
  0
ARC
  8
HIDDEN
 10
9.992447
 20
6.655399
 30
0.0
 40
0.035
 50
1.5
 51
90.0
  0
LINE
  8
HIDDEN
 10
1.593487
 20
6.656316
 30
0.0
 11
1.574478
 21
5.930399
 31
0.0
  0
ARC
  8
HIDDEN
 10
1.628475
 20
6.655399
 30
0.0
 40
0.035
 50
90.0
 51
178.5
  0
LINE
  8
HIDDEN
 10
1.544468
 20
5.930399
 30
0.0
 11
1.542608
 21
5.859352
 31
0.0
  0
LINE
  8
HIDDEN
 10
3.690518
 20
5.930399
 30
0.0
 11
3.692379
 21
5.859352
 31
0.0
  0
LINE
  8
HIDDEN
 10
3.641499
 20
6.656316
 30
0.0
 11
3.660508
 21
5.930399
 31
0.0
  0
ARC
  8
HIDDEN
 10
3.606511
 20
6.655399
 30
0.0
 40
0.035
 50
1.5
 51
90.0
  0
POLYLINE
  8
HIDDEN
 66
     1
 10
0.0
 20
0.0
 30
0.0
  0
VERTEX
  8
HIDDEN
 10
6.10786
 20
7.956949
 30
0.0
  0
VERTEX
  8
HIDDEN
 10
6.275576
 20
8.124666
 30
0.0
 42
11.979021
  0
VERTEX
  8
HIDDEN
 10
6.252949
 20
8.147293
 30
0.0
  0
VERTEX
  8
HIDDEN
 10
6.085232
 20
7.979577
 30
0.0
  0
SEQEND
  8
HIDDEN
  0
CIRCLE
  8
HIDDEN
 10
6.331554
 20
8.203271
 30
0.0
 40
0.045
  0
POLYLINE
  8
HIDDEN
 66
     1
 10
0.0
 20
0.0
 30
0.0
 70
     1
  0
VERTEX
  8
HIDDEN
 10
10.048301
 20
10.010018
 30
0.0
 42
0.414214
  0
VERTEX
  8
HIDDEN
 10
10.013301
 20
10.045018
 30
0.0
  0
VERTEX
  8
HIDDEN
 10
6.118557
 20
10.045018
 30
0.0
 42
0.414214
  0
VERTEX
  8
HIDDEN
 10
6.083557
 20
10.010018
 30
0.0
  0
VERTEX
  8
HIDDEN
 10
6.083557
 20
7.990274
 30
0.0
 42
0.414214
  0
VERTEX
  8
HIDDEN
 10
6.118557
 20
7.955274
 30
0.0
  0
VERTEX
  8
HIDDEN
 10
10.013301
 20
7.955274
 30
0.0
 42
0.414214
  0
VERTEX
  8
HIDDEN
 10
10.048301
 20
7.990274
 30
0.0
  0
SEQEND
  8
HIDDEN
  0
POLYLINE
  8
HIDDEN
 66
     1
 10
0.0
 20
0.0
 30
0.0
  0
VERTEX
  8
HIDDEN
 10
10.046626
 20
7.979577
 30
0.0
  0
VERTEX
  8
HIDDEN
 10
9.878909
 20
8.147293
 30
0.0
 42
11.979021
  0
VERTEX
  8
HIDDEN
 10
9.856282
 20
8.124666
 30
0.0
  0
VERTEX
  8
HIDDEN
 10
10.023999
 20
7.956949
 30
0.0
  0
SEQEND
  8
HIDDEN
  0
CIRCLE
  8
HIDDEN
 10
9.800304
 20
8.203271
 30
0.0
 40
0.045
  0
CIRCLE
  8
HIDDEN
 10
9.800304
 20
9.797021
 30
0.0
 40
0.045
  0
POLYLINE
  8
HIDDEN
 66
     1
 10
0.0
 20
0.0
 30
0.0
  0
VERTEX
  8
HIDDEN
 10
10.046626
 20
10.020716
 30
0.0
  0
VERTEX
  8
HIDDEN
 10
9.878909
 20
9.852999
 30
0.0
 42
-11.979021
  0
VERTEX
  8
HIDDEN
 10
9.856282
 20
9.875626
 30
0.0
  0
VERTEX
  8
HIDDEN
 10
10.023999
 20
10.043343
 30
0.0
  0
SEQEND
  8
HIDDEN
  0
POLYLINE
  8
HIDDEN
 66
     1
 10
0.0
 20
0.0
 30
0.0
  0
VERTEX
  8
HIDDEN
 10
6.10786
 20
10.043343
 30
0.0
  0
VERTEX
  8
HIDDEN
 10
6.275576
 20
9.875626
 30
0.0
 42
-11.979021
  0
VERTEX
  8
HIDDEN
 10
6.252949
 20
9.852999
 30
0.0
  0
VERTEX
  8
HIDDEN
 10
6.085232
 20
10.020716
 30
0.0
  0
SEQEND
  8
HIDDEN
  0
CIRCLE
  8
HIDDEN
 10
6.331554
 20
9.797021
 30
0.0
 40
0.045
  0
DIMENSION
  8
DIM
  2
*D14
 10
6.053544
 20
5.486064
 30
0.0
 11
7.279325
 21
5.486064
 31
0.0
 12
0.108803
 22
0.435372
 32
0.0
  1
<> TYP.
 13
6.013557
 23
5.860399
 33
0.0
 14
6.053544
 24
5.859352
 34
0.0
  3
23NSTD
  0
DIMENSION
  8
DIM
  6
CONTINUOUS
  2
*D17
 10
5.354651
 20
5.860399
 30
0.0
 11
4.715276
 21
5.320399
 31
0.0
 12
0.108803
 22
0.435372
 32
0.0
 13
6.241554
 23
6.010399
 33
0.0
 14
6.013557
 24
5.860399
 34
0.0
 50
90.0
  3
23NSTD
  0
POLYLINE
  8
DIM
 66
     1
 10
0.0
 20
0.0
 30
0.0
 41
0.10125
  0
VERTEX
  8
DIM
 10
9.823844
 20
3.70099
 30
0.0
  0
VERTEX
  8
DIM
 10
9.944154
 20
3.942704
 30
0.0
 41
0.0
  0
VERTEX
  8
DIM
 10
10.432111
 20
4.923049
 30
0.0
 41
0.0
  0
VERTEX
  8
DIM
 10
10.702111
 20
4.923049
 30
0.0
 41
0.0
  0
SEQEND
  8
DIM
  0
POLYLINE
  8
DIM
 66
     1
 10
0.0
 20
0.0
 30
0.0
 41
0.10125
  0
VERTEX
  8
DIM
 10
9.894525
 20
3.683487
 30
0.0
  0
VERTEX
  8
DIM
 10
10.124126
 20
3.825555
 30
0.0
 41
0.0
  0
VERTEX
  8
DIM
 10
10.720986
 20
4.194866
 30
0.0
 41
0.0
  0
VERTEX
  8
DIM
 10
10.990986
 20
4.194866
 30
0.0
 41
0.0
  0
SEQEND
  8
DIM
  0
TEXT
  8
DIM
 10
11.125986
 20
4.101116
 30
0.0
 40
0.1875
  1
0.180 DIA. BOSS
 41
0.75
 11
11.125986
 21
4.194866
 31
0.0
 73
     2
  0
TEXT
  8
DIM
 10
10.837111
 20
4.829299
 30
0.0
 40
0.1875
  1
0.090 DIA. x 0.500 DEEP
 41
0.75
 11
10.837111
 21
4.923049
 31
0.0
 73
     2
  0
TEXT
  8
DIM
 10
10.837111
 20
4.516799
 30
0.0
 40
0.1875
  1
(4) HOLES
 41
0.75
 11
10.837111
 21
4.610549
 31
0.0
 73
     2
  0
TEXT
  8
DIM
 10
11.125986
 20
3.788616
 30
0.0
 40
0.1875
  1
(4) PLACES
 41
0.75
 11
11.125986
 21
3.882366
 31
0.0
 73
     2
  0
DIMENSION
  8
DIM
  2
*D21
 10
1.502621
 20
5.860399
 30
0.0
 11
2.778748
 21
7.550254
 31
0.0
 12
-0.082822
 22
0.435372
 32
0.0
 70
   130
  1
<> REF.
 13
1.502621
 23
5.860399
 33
0.0
 14
1.502621
 24
6.186955
 34
0.0
 15
1.526189
 25
6.760399
 35
0.0
 16
1.524424
 26
7.603106
 36
0.0
  3
23NSTD
  0
LINE
  8
OBJECT
 10
1.523511
 20
6.658148
 30
0.0
 11
1.502621
 21
5.860399
 31
0.0
  0
DIMENSION
  8
DIM
  6
CONTINUOUS
  2
*D18
 10
6.013557
 20
4.316279
 30
0.0
 11
5.092463
 21
4.316279
 31
0.0
 12
0.108803
 22
0.465216
 32
0.0
 13
6.331554
 23
3.662638
 33
0.0
 14
6.013557
 24
3.875635
 34
0.0
  3
23NSTD
  0
DIMENSION
  8
DIM
  6
CONTINUOUS
  2
*D28
 10
4.823156
 20
1.750892
 30
0.0
 11
4.823156
 21
1.90989
 31
0.0
 12
-0.120396
 22
0.0
 32
0.0
 13
6.331554
 23
2.068888
 33
0.0
 14
6.118557
 24
1.750892
 34
0.0
 50
90.0
  3
23NSTDI
  0
DIMENSION
  8
DIM
  6
CONTINUOUS
  2
*D16
 10
3.732365
 20
5.486064
 30
0.0
 11
2.617493
 21
5.486064
 31
0.0
 12
-0.513978
 22
0.435372
 32
0.0
 13
1.502621
 23
5.860399
 33
0.0
 14
3.732365
 24
5.860399
 34
0.0
 50
180.0
  3
23NSTD
  0
LINE
  8
OBJECT
 10
17.306767
 20
5.860399
 30
0.0
 11
21.336767
 21
5.860399
 31
0.0
  0
LINE
  8
OBJECT
 10
17.343767
 20
5.945399
 30
0.0
 11
19.182767
 21
5.945399
 31
0.0
  0
LINE
  8
OBJECT
 10
17.306767
 20
5.860399
 30
0.0
 11
17.306767
 21
5.930399
 31
0.0
  0
LINE
  8
OBJECT
 10
21.336767
 20
5.860399
 30
0.0
 11
21.336767
 21
5.930399
 31
0.0
  0
LINE
  8
OBJECT
 10
17.306767
 20
5.930399
 30
0.0
 11
21.336767
 21
5.930399
 31
0.0
  0
LINE
  8
OBJECT
 10
17.343767
 20
5.930399
 30
0.0
 11
17.343767
 21
5.945399
 31
0.0
  0
LINE
  8
OBJECT
 10
21.299767
 20
5.930399
 30
0.0
 11
21.299767
 21
5.945399
 31
0.0
  0
LINE
  8
OBJECT
 10
19.182767
 20
6.147399
 30
0.0
 11
19.460767
 21
6.147399
 31
0.0
  0
LINE
  8
OBJECT
 10
19.182767
 20
5.945399
 30
0.0
 11
19.182767
 21
6.147399
 31
0.0
  0
LINE
  8
OBJECT
 10
19.460767
 20
5.945399
 30
0.0
 11
19.460767
 21
6.147399
 31
0.0
  0
LINE
  8
OBJECT
 10
19.460767
 20
5.945399
 30
0.0
 11
21.299767
 21
5.945399
 31
0.0
  0
LINE
  8
OBJECT
 10
14.042429
 20
5.930399
 30
0.0
 11
16.201429
 21
5.930399
 31
0.0
  0
LINE
  8
OBJECT
 10
14.042429
 20
5.860399
 30
0.0
 11
16.201429
 21
5.860399
 31
0.0
  0
LINE
  8
OBJECT
 10
14.079429
 20
5.945399
 30
0.0
 11
16.164429
 21
5.945399
 31
0.0
  0
LINE
  8
OBJECT
 10
14.042429
 20
5.860399
 30
0.0
 11
14.042429
 21
5.930399
 31
0.0
  0
LINE
  8
OBJECT
 10
14.079429
 20
5.930399
 30
0.0
 11
14.079429
 21
5.945399
 31
0.0
  0
LINE
  8
OBJECT
 10
16.055429
 20
6.147399
 30
0.0
 11
16.164429
 21
6.147399
 31
0.0
  0
LINE
  8
OBJECT
 10
16.055429
 20
5.945399
 30
0.0
 11
16.055429
 21
6.147399
 31
0.0
  0
LINE
  8
OBJECT
 10
16.164429
 20
5.930399
 30
0.0
 11
16.164429
 21
6.147399
 31
0.0
  0
LINE
  8
OBJECT
 10
16.201429
 20
5.860399
 30
0.0
 11
16.201429
 21
5.930399
 31
0.0
  0
POLYLINE
  8
OBJECT
 66
     1
 10
0.0
 20
0.0
 30
0.0
 70
     1
  0
VERTEX
  8
OBJECT
 10
17.306767
 20
7.967646
 30
0.0
  0
VERTEX
  8
OBJECT
 10
17.306767
 20
10.032646
 30
0.0
 42
-0.414214
  0
VERTEX
  8
OBJECT
 10
17.353767
 20
10.079646
 30
0.0
  0
VERTEX
  8
OBJECT
 10
21.289767
 20
10.079646
 30
0.0
 42
-0.414214
  0
VERTEX
  8
OBJECT
 10
21.336767
 20
10.032646
 30
0.0
  0
VERTEX
  8
OBJECT
 10
21.336767
 20
7.967646
 30
0.0
 42
-0.414214
  0
VERTEX
  8
OBJECT
 10
21.289767
 20
7.920646
 30
0.0
  0
VERTEX
  8
OBJECT
 10
17.353767
 20
7.920646
 30
0.0
 42
-0.414214
  0
SEQEND
  8
OBJECT
  0
POLYLINE
  8
OBJECT
 66
     1
 10
0.0
 20
0.0
 30
0.0
 70
     1
  0
VERTEX
  8
OBJECT
 10
17.343767
 20
7.967646
 30
0.0
  0
VERTEX
  8
OBJECT
 10
17.343767
 20
10.032646
 30
0.0
 42
-0.414214
  0
VERTEX
  8
OBJECT
 10
17.353767
 20
10.042646
 30
0.0
  0
VERTEX
  8
OBJECT
 10
21.289767
 20
10.042646
 30
0.0
 42
-0.414214
  0
VERTEX
  8
OBJECT
 10
21.299767
 20
10.032646
 30
0.0
  0
VERTEX
  8
OBJECT
 10
21.299767
 20
7.967646
 30
0.0
 42
-0.414214
  0
VERTEX
  8
OBJECT
 10
21.289767
 20
7.957646
 30
0.0
  0
VERTEX
  8
OBJECT
 10
17.353767
 20
7.957646
 30
0.0
 42
-0.414214
  0
SEQEND
  8
OBJECT
  0
LINE
  8
OBJECT
 10
19.182767
 20
8.066646
 30
0.0
 11
19.460767
 21
8.066646
 31
0.0
  0
LINE
  8
OBJECT
 10
19.182767
 20
7.957646
 30
0.0
 11
19.182767
 21
8.066646
 31
0.0
  0
LINE
  8
OBJECT
 10
19.460767
 20
7.957646
 30
0.0
 11
19.460767
 21
8.066646
 31
0.0
  0
DIMENSION
  8
DIM
  2
*D6
 10
16.860364
 20
10.079646
 30
0.0
 11
16.860364
 21
9.000146
 31
0.0
 12
-2.056402
 22
-14.790575
 32
0.0
 13
17.353767
 23
7.920646
 33
0.0
 14
17.353767
 24
10.079646
 34
0.0
 50
270.0
  3
23NSTD
  0
DIMENSION
  8
DIM
  2
*D13
 10
21.336767
 20
10.905147
 30
0.0
 11
19.321767
 21
10.905147
 31
0.0
 12
-0.355171
 22
0.8821
 32
0.0
 13
17.306767
 23
10.032646
 33
0.0
 14
21.336767
 24
10.032646
 34
0.0
  3
23NSTD
  0
DIMENSION
  8
DIM
  2
*D9
 10
16.055429
 20
6.483338
 30
0.0
 11
15.146054
 21
6.483338
 31
0.0
 12
0.332428
 22
0.435372
 32
0.0
 13
16.164429
 23
6.147399
 33
0.0
 14
16.055429
 24
6.147399
 34
0.0
 50
180.0
  3
23NSTD
  0
DIMENSION
  8
DIM
  2
*D10
 10
19.182767
 20
6.483338
 30
0.0
 11
18.238235
 21
6.483338
 31
0.0
 12
-0.355171
 22
0.435372
 32
0.0
 13
19.460767
 23
6.147399
 33
0.0
 14
19.182767
 24
6.147399
 34
0.0
 50
180.0
  3
23NSTD
  0
DIMENSION
  8
DIM
  2
*D5
 10
16.82385
 20
5.860399
 30
0.0
 11
16.82385
 21
6.003899
 31
0.0
 12
-1.368803
 22
-19.944957
 32
0.0
 13
16.164429
 23
6.147399
 33
0.0
 14
16.201429
 24
5.860399
 34
0.0
 50
270.0
  3
23NSTDI
  0
DIMENSION
  8
DIM
  2
*D8
 10
21.61468
 20
5.945399
 30
0.0
 11
22.277493
 21
6.485399
 31
0.0
 12
-0.355171
 22
0.435372
 32
0.0
 13
21.336767
 23
5.860399
 33
0.0
 14
21.299767
 24
5.945399
 34
0.0
 50
90.0
  3
23NSTD
  0
DIMENSION
  8
DIM
  2
*D7
 10
20.609641
 20
7.920646
 30
0.0
 11
19.642141
 21
7.380646
 31
0.0
 12
0.37399
 22
0.8821
 32
0.0
  1
<> TYP.
 13
20.596633
 23
7.957646
 33
0.0
 14
20.596633
 24
7.920646
 34
0.0
 50
90.0
  3
23NSTD
  0
CIRCLE
  8
OBJECT
 10
17.587767
 20
9.796646
 30
0.0
 40
0.125
  0
CIRCLE
  8
OBJECT
 10
17.587767
 20
8.203646
 30
0.0
 40
0.125
  0
CIRCLE
  8
OBJECT
 10
17.587767
 20
9.796646
 30
0.0
 40
0.055
  0
CIRCLE
  8
OBJECT
 10
17.587767
 20
8.203646
 30
0.0
 40
0.055
  0
CIRCLE
  8
OBJECT
 10
21.055767
 20
8.203646
 30
0.0
 40
0.125
  0
CIRCLE
  8
OBJECT
 10
21.055767
 20
8.203646
 30
0.0
 40
0.055
  0
CIRCLE
  8
OBJECT
 10
21.055767
 20
9.796646
 30
0.0
 40
0.055
  0
CIRCLE
  8
OBJECT
 10
21.055767
 20
9.796646
 30
0.0
 40
0.125
  0
LINE
  8
OBJECT
 10
17.462767
 20
6.010399
 30
0.0
 11
17.712767
 21
6.010399
 31
0.0
  0
LINE
  8
OBJECT
 10
17.462767
 20
6.010399
 30
0.0
 11
17.462767
 21
5.945399
 31
0.0
  0
LINE
  8
OBJECT
 10
17.712767
 20
6.010399
 30
0.0
 11
17.712767
 21
5.945399
 31
0.0
  0
LINE
  8
HIDDEN
  6
HIDDEN2
 10
17.642767
 20
6.010399
 30
0.0
 11
17.642767
 21
5.940925
 31
0.0
  0
LINE
  8
HIDDEN
  6
HIDDEN2
 10
17.642767
 20
5.940925
 30
0.0
 11
17.712767
 21
5.860399
 31
0.0
  0
LINE
  8
HIDDEN
  6
HIDDEN2
 10
17.532767
 20
6.010399
 30
0.0
 11
17.532767
 21
5.940925
 31
0.0
  0
LINE
  8
HIDDEN
  6
HIDDEN2
 10
17.532767
 20
5.940925
 30
0.0
 11
17.462767
 21
5.860399
 31
0.0
  0
LINE
  8
HIDDEN
  6
HIDDEN2
 10
17.532767
 20
5.940925
 30
0.0
 11
17.642767
 21
5.940925
 31
0.0
  0
LINE
  8
HIDDEN
  6
HIDDEN2
 10
21.110767
 20
5.940925
 30
0.0
 11
21.180767
 21
5.860399
 31
0.0
  0
LINE
  8
OBJECT
 10
21.180767
 20
6.010399
 30
0.0
 11
20.930767
 21
6.010399
 31
0.0
  0
LINE
  8
OBJECT
 10
21.180767
 20
6.010399
 30
0.0
 11
21.180767
 21
5.945399
 31
0.0
  0
LINE
  8
HIDDEN
  6
HIDDEN2
 10
21.110767
 20
6.010399
 30
0.0
 11
21.110767
 21
5.940925
 31
0.0
  0
LINE
  8
HIDDEN
  6
HIDDEN2
 10
21.000767
 20
6.010399
 30
0.0
 11
21.000767
 21
5.940925
 31
0.0
  0
LINE
  8
OBJECT
 10
20.930767
 20
6.010399
 30
0.0
 11
20.930767
 21
5.945399
 31
0.0
  0
LINE
  8
HIDDEN
  6
HIDDEN2
 10
21.000767
 20
5.940925
 30
0.0
 11
20.930767
 21
5.860399
 31
0.0
  0
LINE
  8
HIDDEN
  6
HIDDEN2
 10
21.110767
 20
5.940925
 30
0.0
 11
21.000767
 21
5.940925
 31
0.0
  0
LINE
  8
HIDDEN
  6
HIDDEN2
 10
14.270429
 20
5.940925
 30
0.0
 11
14.200429
 21
5.860399
 31
0.0
  0
LINE
  8
OBJECT
 10
14.200429
 20
6.010399
 30
0.0
 11
14.450429
 21
6.010399
 31
0.0
  0
LINE
  8
OBJECT
 10
14.200429
 20
6.010399
 30
0.0
 11
14.200429
 21
5.945399
 31
0.0
  0
LINE
  8
HIDDEN
  6
HIDDEN2
 10
14.270429
 20
6.010399
 30
0.0
 11
14.270429
 21
5.940925
 31
0.0
  0
LINE
  8
HIDDEN
  6
HIDDEN2
 10
14.380429
 20
6.010399
 30
0.0
 11
14.380429
 21
5.940925
 31
0.0
  0
LINE
  8
OBJECT
 10
14.450429
 20
6.010399
 30
0.0
 11
14.450429
 21
5.945399
 31
0.0
  0
LINE
  8
HIDDEN
  6
HIDDEN2
 10
14.380429
 20
5.940925
 30
0.0
 11
14.450429
 21
5.860399
 31
0.0
  0
LINE
  8
HIDDEN
  6
HIDDEN2
 10
14.270429
 20
5.940925
 30
0.0
 11
14.380429
 21
5.940925
 31
0.0
  0
LINE
  8
HIDDEN
  6
HIDDEN2
 10
15.973429
 20
5.940925
 30
0.0
 11
16.043429
 21
5.860399
 31
0.0
  0
LINE
  8
HIDDEN
  6
HIDDEN2
 10
15.863429
 20
5.940925
 30
0.0
 11
15.793429
 21
5.860399
 31
0.0
  0
LINE
  8
OBJECT
 10
16.043429
 20
6.010399
 30
0.0
 11
15.793429
 21
6.010399
 31
0.0
  0
LINE
  8
OBJECT
 10
16.043429
 20
6.010399
 30
0.0
 11
16.043429
 21
5.945399
 31
0.0
  0
LINE
  8
HIDDEN
  6
HIDDEN2
 10
15.973429
 20
5.940925
 30
0.0
 11
15.863429
 21
5.940925
 31
0.0
  0
LINE
  8
HIDDEN
  6
HIDDEN2
 10
15.973429
 20
6.010399
 30
0.0
 11
15.973429
 21
5.940925
 31
0.0
  0
LINE
  8
HIDDEN
  6
HIDDEN2
 10
15.863429
 20
6.010399
 30
0.0
 11
15.863429
 21
5.940925
 31
0.0
  0
LINE
  8
OBJECT
 10
15.793429
 20
6.010399
 30
0.0
 11
15.793429
 21
5.945399
 31
0.0
  0
DIMENSION
  8
DIM
  2
*D12
 10
17.587767
 20
10.483647
 30
0.0
 11
19.321767
 21
10.483647
 31
0.0
 12
-0.355171
 22
0.8821
 32
0.0
 13
21.055767
 23
9.796646
 33
0.0
 14
17.587767
 24
9.796646
 34
0.0
 50
180.0
  3
23NSTD
  0
DIMENSION
  8
DIM
  2
*D11
 10
17.306767
 20
10.483647
 30
0.0
 11
16.385673
 21
10.483647
 31
0.0
 12
-0.355171
 22
0.8821
 32
0.0
 13
17.587767
 23
9.796646
 33
0.0
 14
17.306767
 24
10.032646
 34
0.0
 50
180.0
  3
23NSTD
  0
DIMENSION
  8
DIM
  2
*D3
 10
21.738381
 20
9.796646
 30
0.0
 11
21.738381
 21
9.000146
 31
0.0
 12
-2.056402
 22
-11.116283
 32
0.0
 13
21.055767
 23
8.203646
 33
0.0
 14
21.055767
 24
9.796646
 34
0.0
 50
90.0
  3
23NSTD
  0
DIMENSION
  8
DIM
  2
*D4
 10
21.738381
 20
10.079646
 30
0.0
 11
22.412913
 21
10.619646
 31
0.0
 12
-2.056402
 22
-11.116283
 32
0.0
 13
21.055767
 23
9.796646
 33
0.0
 14
21.289767
 24
10.079646
 34
0.0
 50
90.0
  3
23NSTD
  0
POLYLINE
  8
OBJECT
 66
     1
 10
0.0
 20
0.0
 30
0.0
 70
     1
  0
VERTEX
  8
OBJECT
 10
17.306767
 20
3.898763
 30
0.0
  0
VERTEX
  8
OBJECT
 10
17.306767
 20
1.832763
 30
0.0
 42
0.414214
  0
VERTEX
  8
OBJECT
 10
17.353767
 20
1.785763
 30
0.0
  0
VERTEX
  8
OBJECT
 10
21.289767
 20
1.785763
 30
0.0
 42
0.414214
  0
VERTEX
  8
OBJECT
 10
21.336767
 20
1.832763
 30
0.0
  0
VERTEX
  8
OBJECT
 10
21.336767
 20
3.898763
 30
0.0
 42
0.414214
  0
VERTEX
  8
OBJECT
 10
21.289767
 20
3.945763
 30
0.0
  0
VERTEX
  8
OBJECT
 10
17.353767
 20
3.945763
 30
0.0
 42
0.414214
  0
SEQEND
  8
OBJECT
  0
CIRCLE
  8
OBJECT
 10
21.055767
 20
3.662763
 30
0.0
 40
0.125
  0
CIRCLE
  8
OBJECT
 10
21.055767
 20
3.662763
 30
0.0
 40
0.055
  0
CIRCLE
  8
OBJECT
 10
21.055767
 20
2.068763
 30
0.0
 40
0.125
  0
CIRCLE
  8
OBJECT
 10
21.055767
 20
2.068763
 30
0.0
 40
0.055
  0
CIRCLE
  8
OBJECT
 10
17.587767
 20
3.662763
 30
0.0
 40
0.125
  0
CIRCLE
  8
OBJECT
 10
17.587767
 20
3.662763
 30
0.0
 40
0.055
  0
CIRCLE
  8
OBJECT
 10
17.587767
 20
2.068763
 30
0.0
 40
0.125
  0
CIRCLE
  8
OBJECT
 10
17.587767
 20
2.068763
 30
0.0
 40
0.055
  0
POLYLINE
  8
DIM
 66
     1
 10
0.0
 20
0.0
 30
0.0
 41
0.10125
  0
VERTEX
  8
DIM
 10
17.527914
 20
8.093907
 30
0.0
  0
VERTEX
  8
DIM
 10
17.333163
 20
7.906899
 30
0.0
 41
0.0
  0
VERTEX
  8
DIM
 10
16.910323
 20
7.500871
 30
0.0
 41
0.0
  0
VERTEX
  8
DIM
 10
16.640323
 20
7.500871
 30
0.0
 41
0.0
  0
SEQEND
  8
DIM
  0
TEXT
  8
DIM
 10
13.083448
 20
7.407121
 30
0.0
 40
0.1875
  1
0.250 DIA. BOSS x 0.065 HIGH
 41
0.75
 72
     2
 11
16.505323
 21
7.500871
 31
0.0
 73
     2
  0
TEXT
  8
DIM
 10
15.239698
 20
7.094621
 30
0.0
 40
0.1875
  1
(4) PLACES
 41
0.75
 72
     2
 11
16.505323
 21
7.188371
 31
0.0
 73
     2
  0
POLYLINE
  8
DIM
 66
     1
 10
0.0
 20
0.0
 30
0.0
 41
0.10125
  0
VERTEX
  8
DIM
 10
17.639853
 20
3.776394
 30
0.0
  0
VERTEX
  8
DIM
 10
17.8046
 20
3.990307
 30
0.0
 41
0.0
  0
VERTEX
  8
DIM
 10
18.488938
 20
4.878877
 30
0.0
 41
0.0
  0
VERTEX
  8
DIM
 10
18.758938
 20
4.878877
 30
0.0
 41
0.0
  0
SEQEND
  8
DIM
  0
TEXT
  8
DIM
 10
18.893938
 20
4.785127
 30
0.0
 40
0.1875
  1
0.110 DIA. HOLE
 41
0.75
 11
18.893938
 21
4.878877
 31
0.0
 73
     2
  0
TEXT
  8
DIM
 10
18.893938
 20
4.472627
 30
0.0
 40
0.1875
  1
& C'SINK. TO 0.250 DIA. x 82%%d
 41
0.75
 11
18.893938
 21
4.566377
 31
0.0
 73
     2
  0
TEXT
  8
DIM
 10
18.893938
 20
4.160127
 30
0.0
 40
0.1875
  1
(4) PLACES
 41
0.75
 11
18.893938
 21
4.253877
 31
0.0
 73
     2
  0
DIMENSION
  8
DIM
  2
*D25
 10
9.867447
 20
1.452807
 30
0.0
 11
8.065929
 21
1.452807
 31
0.0
 12
-0.120396
 22
0.199746
 32
0.0
 13
6.264411
 23
2.265763
 33
0.0
 14
9.867447
 24
2.265763
 34
0.0
  3
23NSTD
  0
DIMENSION
  8
DIM
  2
*D26
 10
5.54017
 20
3.465763
 30
0.0
 11
5.54017
 21
2.865763
 31
0.0
 12
-0.120396
 22
0.0
 32
0.0
 13
6.264411
 23
2.265763
 33
0.0
 14
6.264411
 24
3.465763
 34
0.0
 50
270.0
  3
23NSTDI
  0
POLYLINE
  8
DIM
 66
     1
 10
0.0
 20
0.0
 30
0.0
 41
0.10125
  0
VERTEX
  8
DIM
 10
9.867447
 20
2.865763
 30
0.0
  0
VERTEX
  8
DIM
 10
10.092565
 20
2.716693
 30
0.0
 41
0.0
  0
VERTEX
  8
DIM
 10
10.678616
 20
2.328614
 30
0.0
 41
0.0
  0
VERTEX
  8
DIM
 10
10.948616
 20
2.328614
 30
0.0
 41
0.0
  0
SEQEND
  8
DIM
  0
TEXT
  8
DIM
 10
11.083616
 20
2.234864
 30
0.0
 40
0.1875
  1
RECESSED AREA 0.010 DEEP
 41
0.75
 11
11.083616
 21
2.328614
 31
0.0
 73
     2
  0
TEXT
  8
DIM
 10
11.083616
 20
1.922364
 30
0.0
 40
0.1875
  1
INSIDE TOP
 41
0.75
 11
11.083616
 21
2.016114
 31
0.0
 73
     2
  0
TEXT
  8
TEXT
 10
14.737637
 20
14.041181
 30
0.0
 40
0.187714
  1
FOUR (4) #4 x 1/2 LG. SELF THREADING
 41
0.75
  0
TEXT
  8
TEXT
 10
14.737637
 20
13.728324
 30
0.0
 40
0.187714
  1
SCREWS WITH HI/LOW THREADS
 41
0.75
  0
TEXT
  8
TEXT
 10
14.737637
 20
13.415466
 30
0.0
 40
0.187714
  1
ARE SUPPLIED FOR MOUNTING COVER.
 41
0.75
  0
TEXT
  8
TEXT
 10
0.503386
 20
11.542181
 30
0.0
 40
0.1872
  1
COVER - SURFACES ARE SMOOTH.
 41
0.75
  0
TEXT
  8
TEXT
 10
0.503386
 20
11.853681
 30
0.0
 40
0.1875
  1
BODY - OUTSIDE SURFACES ARE TEXTURED FINISH
 41
0.75
  0
TEXT
  8
TEXT
 10
0.353291
 20
12.166181
 30
0.0
 40
0.1875
  1
%%uFINISH:
 41
0.75
  0
ENDSEC
  0
EOF
