  0
SECTION
  2
HEADER
  9
$ACADVER
  1
AC1009
  9
$INSBASE
 10
0.0
 20
0.0
 30
0.0
  9
$EXTMIN
 10
0.0
 20
0.0
 30
0.0
  9
$EXTMAX
 10
23.25
 20
15.18
 30
0.125
  9
$LIMMIN
 10
0.0
 20
0.0
  9
$LIMMAX
 10
23.25
 20
15.18
  9
$ORTHOMODE
 70
     1
  9
$REGENMODE
 70
     1
  9
$FILLMODE
 70
     1
  9
$QTEXTMODE
 70
     0
  9
$MIRRTEXT
 70
     0
  9
$DRAGMODE
 70
     2
  9
$LTSCALE
 40
0.375
  9
$OSMODE
 70
     1
  9
$ATTMODE
 70
     1
  9
$TEXTSIZE
 40
0.188
  9
$TRACEWID
 40
0.05
  9
$TEXTSTYLE
  7
TXT
  9
$CLAYER
  8
DIM
  9
$CELTYPE
  6
BYLAYER
  9
$CECOLOR
 62
   256
  9
$DIMSCALE
 40
1.5
  9
$DIMASZ
 40
0.18
  9
$DIMEXO
 40
0.063
  9
$DIMDLI
 40
0.281
  9
$DIMRND
 40
0.0
  9
$DIMDLE
 40
0.0
  9
$DIMEXE
 40
0.093
  9
$DIMTP
 40
0.0
  9
$DIMTM
 40
0.0
  9
$DIMTXT
 40
0.125
  9
$DIMCEN
 40
0.09
  9
$DIMTSZ
 40
0.0
  9
$DIMTOL
 70
     0
  9
$DIMLIM
 70
     0
  9
$DIMTIH
 70
     1
  9
$DIMTOH
 70
     1
  9
$DIMSE1
 70
     0
  9
$DIMSE2
 70
     0
  9
$DIMTAD
 70
     0
  9
$DIMZIN
 70
     0
  9
$DIMBLK
  1

  9
$DIMASO
 70
     1
  9
$DIMSHO
 70
     1
  9
$DIMPOST
  1

  9
$DIMAPOST
  1

  9
$DIMALT
 70
     0
  9
$DIMALTD
 70
     2
  9
$DIMALTF
 40
25.4
  9
$DIMLFAC
 40
1.0
  9
$DIMTOFL
 70
     0
  9
$DIMTVP
 40
0.0
  9
$DIMTIX
 70
     0
  9
$DIMSOXD
 70
     0
  9
$DIMSAH
 70
     0
  9
$DIMBLK1
  1

  9
$DIMBLK2
  1

  9
$DIMSTYLE
  2
23NSTD
  9
$DIMCLRD
 70
     0
  9
$DIMCLRE
 70
     0
  9
$DIMCLRT
 70
     0
  9
$DIMTFAC
 40
1.0
  9
$DIMGAP
 40
0.09
  9
$LUNITS
 70
     2
  9
$LUPREC
 70
     3
  9
$SKETCHINC
 40
0.1
  9
$FILLETRAD
 40
0.0
  9
$AUNITS
 70
     1
  9
$AUPREC
 70
     1
  9
$MENU
  1
acad
  9
$ELEVATION
 40
0.0
  9
$PELEVATION
 40
0.0
  9
$THICKNESS
 40
0.0
  9
$LIMCHECK
 70
     0
  9
$BLIPMODE
 70
     1
  9
$CHAMFERA
 40
0.0
  9
$CHAMFERB
 40
0.0
  9
$SKPOLY
 70
     0
  9
$TDCREATE
 40
2450757.358536921
  9
$TDUPDATE
 40
2450882.329620254
  9
$TDINDWG
 40
0.0767302083
  9
$TDUSRTIMER
 40
0.0767302083
  9
$USRTIMER
 70
     1
  9
$ANGBASE
 50
0.0
  9
$ANGDIR
 70
     0
  9
$PDMODE
 70
     0
  9
$PDSIZE
 40
0.0
  9
$PLINEWID
 40
0.0
  9
$COORDS
 70
     0
  9
$SPLFRAME
 70
     0
  9
$SPLINETYPE
 70
     6
  9
$SPLINESEGS
 70
     8
  9
$ATTDIA
 70
     0
  9
$ATTREQ
 70
     1
  9
$HANDLING
 70
     0
  9
$HANDSEED
  5
0
  9
$SURFTAB1
 70
     6
  9
$SURFTAB2
 70
     6
  9
$SURFTYPE
 70
     6
  9
$SURFU
 70
     6
  9
$SURFV
 70
     6
  9
$UCSNAME
  2

  9
$UCSORG
 10
0.0
 20
0.0
 30
0.0
  9
$UCSXDIR
 10
1.0
 20
0.0
 30
0.0
  9
$UCSYDIR
 10
0.0
 20
1.0
 30
0.0
  9
$PUCSNAME
  2

  9
$PUCSORG
 10
0.0
 20
0.0
 30
0.0
  9
$PUCSXDIR
 10
1.0
 20
0.0
 30
0.0
  9
$PUCSYDIR
 10
0.0
 20
1.0
 30
0.0
  9
$USERI1
 70
     0
  9
$USERI2
 70
     0
  9
$USERI3
 70
     0
  9
$USERI4
 70
     0
  9
$USERI5
 70
     0
  9
$USERR1
 40
0.0
  9
$USERR2
 40
0.0
  9
$USERR3
 40
0.0
  9
$USERR4
 40
0.0
  9
$USERR5
 40
0.0
  9
$WORLDVIEW
 70
     1
  9
$SHADEDGE
 70
     3
  9
$SHADEDIF
 70
    70
  9
$TILEMODE
 70
     1
  9
$MAXACTVP
 70
    16
  9
$PINSBASE
 10
-3.100979
 20
50.0
 30
10.277186
  9
$PLIMCHECK
 70
     0
  9
$PEXTMIN
 10
1.000000E+20
 20
1.000000E+20
 30
1.000000E+20
  9
$PEXTMAX
 10
-1.000000E+20
 20
-1.000000E+20
 30
-1.000000E+20
  9
$PLIMMIN
 10
0.0
 20
0.0
  9
$PLIMMAX
 10
12.0
 20
9.0
  9
$UNITMODE
 70
     0
  9
$VISRETAIN
 70
     0
  9
$PLINEGEN
 70
     0
  9
$PSLTSCALE
 70
     0
  9
$TREEDEPTH
 70
  3020
  9
$DWGCODEPAGE
  3
undefined
  0
ENDSEC
  0
SECTION
  2
TABLES
  0
TABLE
  2
VPORT
 70
     2
  0
VPORT
  2
*ACTIVE
 70
     0
 10
0.0
 20
0.0
 11
1.0
 21
1.0
 12
11.625
 22
8.533115
 13
0.0
 23
0.0
 14
1.0
 24
1.0
 15
0.5
 25
0.5
 16
0.0
 26
0.0
 36
1.0
 17
0.0
 27
0.0
 37
0.0
 40
17.06623
 41
1.36234
 42
50.0
 43
0.0
 44
0.0
 50
0.0
 51
0.0
 71
     0
 72
   100
 73
     1
 74
     0
 75
     0
 76
     0
 77
     0
 78
     0
  0
ENDTAB
  0
TABLE
  2
LTYPE
 70
     5
  0
LTYPE
  2
CONTINUOUS
 70
    64
  3
Solid line
 72
    65
 73
     0
 40
0.0
  0
LTYPE
  2
HIDDEN
 70
    64
  3
_ _ _ _ _ _ _ _ _ _ _ _ _ _ _ _ _ _ _ _ _ _ _
 72
    65
 73
     2
 40
0.375
 49
0.25
 49
-0.125
  0
LTYPE
  2
CENTER
 70
    64
  3
____ _ ____ _ ____ _ ____ _ ____ _ ____ _ ____
 72
    65
 73
     4
 40
2.0
 49
1.25
 49
-0.25
 49
0.25
 49
-0.25
  0
LTYPE
  2
HIDDEN2
 70
    64
  3
_ _ _ _ _ _ _ _ _ _ _ _ _ _ _ _ _ _ _ _ _ _ _ _
 72
    65
 73
     2
 40
0.1875
 49
0.125
 49
-0.0625
  0
LTYPE
  2
PHANTOM
 70
    64
  3
_____ _ _ _____ _ _ _____ _ _ _____ _ _ ____
 72
    65
 73
     6
 40
2.5
 49
1.25
 49
-0.25
 49
0.25
 49
-0.25
 49
0.25
 49
-0.25
  0
ENDTAB
  0
TABLE
  2
LAYER
 70
     9
  0
LAYER
  2
0
 70
    64
 62
     7
  6
CONTINUOUS
  0
LAYER
  2
OBJECT
 70
    64
 62
     7
  6
CONTINUOUS
  0
LAYER
  2
DIM
 70
    64
 62
     7
  6
CONTINUOUS
  0
LAYER
  2
HIDDEN
 70
    64
 62
     7
  6
HIDDEN
  0
LAYER
  2
TEXT
 70
    64
 62
     7
  6
CONTINUOUS
  0
LAYER
  2
TITLE
 70
    64
 62
     7
  6
CONTINUOUS
  0
LAYER
  2
CENTER
 70
    64
 62
     7
  6
CENTER
  0
LAYER
  2
DEFPOINTS
 70
    64
 62
     7
  6
CONTINUOUS
  0
LAYER
  2
BEND
 70
    64
 62
     7
  6
PHANTOM
  0
ENDTAB
  0
TABLE
  2
STYLE
 70
     1
  0
STYLE
  2
TXT
 70
    64
 40
0.0
 41
0.75
 50
0.0
 71
     0
 42
0.188
  3
TXT.shx
  4

  0
ENDTAB
  0
TABLE
  2
VIEW
 70
     0
  0
ENDTAB
  0
TABLE
  2
UCS
 70
     0
  0
ENDTAB
  0
TABLE
  2
APPID
 70
     1
  0
APPID
  2
ACAD
 70
    64
  0
ENDTAB
  0
TABLE
  2
DIMSTYLE
 70
     2
  0
DIMSTYLE
  2
23NSTD
 70
    64
  3

  4

  5

  6

  7

 40
1.5
 41
0.18
 42
0.063
 43
0.281
 44
0.093
 45
0.0
 46
0.0
 47
0.0
 48
0.0
140
0.125
141
0.09
142
0.0
143
25.4
144
1.0
145
0.0
146
1.0
147
0.09
 71
     0
 72
     0
 73
     1
 74
     1
 75
     0
 76
     0
 77
     0
 78
     0
170
     0
171
     2
172
     0
173
     0
174
     0
175
     0
176
     0
177
     0
178
     0
  0
DIMSTYLE
  2
23NSTDI
 70
    64
  3

  4

  5

  6

  7

 40
1.5
 41
0.18
 42
0.063
 43
0.281
 44
0.093
 45
0.0
 46
0.0
 47
0.0
 48
0.0
140
0.125
141
0.09
142
0.0
143
25.4
144
1.0
145
0.0
146
1.0
147
0.09
 71
     0
 72
     0
 73
     1
 74
     1
 75
     0
 76
     0
 77
     0
 78
     0
170
     0
171
     2
172
     0
173
     0
174
     1
175
     0
176
     0
177
     0
178
     0
  0
ENDTAB
  0
ENDSEC
  0
SECTION
  2
BLOCKS
  0
BLOCK
  8
0
  2
HBS
 70
    64
 10
0.0
 20
0.0
 30
0.0
  3
HBS
  0
LINE
  8
TITLE
 10
0.062
 20
9.64
 30
0.0
 11
15.438
 21
9.64
 31
0.0
  0
POLYLINE
  8
TITLE
 66
     1
 10
0.0
 20
0.0
 30
0.0
 70
     1
  0
VERTEX
  8
TITLE
 10
15.5
 20
10.12
 30
0.0
  0
VERTEX
  8
TITLE
 10
15.5
 20
0.0
 30
0.0
  0
VERTEX
  8
TITLE
 10
0.0
 20
0.0
 30
0.0
  0
VERTEX
  8
TITLE
 10
0.0
 20
10.12
 30
0.0
  0
SEQEND
  8
TITLE
  0
POLYLINE
  8
TITLE
 66
     1
 10
0.0
 20
0.0
 30
0.0
 70
     1
  0
VERTEX
  8
TITLE
 10
15.438
 20
10.058
 30
0.0
  0
VERTEX
  8
TITLE
 10
15.438
 20
0.062
 30
0.0
  0
VERTEX
  8
TITLE
 10
0.062
 20
0.062
 30
0.0
  0
VERTEX
  8
TITLE
 10
0.062
 20
10.058
 30
0.0
  0
SEQEND
  8
TITLE
  0
TEXT
  8
TEXT
 10
0.207833
 20
9.680079
 30
0.0
 40
0.125
  1
NAME
 72
     1
 11
0.437
 21
9.680079
 31
0.0
  0
TEXT
  8
TEXT
 10
0.207833
 20
9.888413
 30
0.0
 40
0.125
  1
PART
 72
     1
 11
0.437
 21
9.888413
 31
0.0
  0
LINE
  8
TITLE
 10
0.812
 20
9.64
 30
0.0
 11
0.812
 21
10.058
 31
0.0
  0
TEXT
  8
TEXT
 10
7.926833
 20
9.888413
 30
0.0
 40
0.125
  1
PART
 72
     1
 11
8.156
 21
9.888413
 31
0.0
  0
TEXT
  8
TEXT
 10
8.031
 20
9.680079
 30
0.0
 40
0.125
  1
No.
 72
     1
 11
8.156
 21
9.680079
 31
0.0
  0
LINE
  8
TITLE
 10
7.781
 20
10.058
 30
0.0
 11
7.781
 21
9.64
 31
0.0
  0
LINE
  8
TITLE
 10
7.719
 20
10.058
 30
0.0
 11
7.719
 21
9.64
 31
0.0
  0
LINE
  8
TITLE
 10
8.531
 20
10.058
 30
0.0
 11
8.531
 21
9.64
 31
0.0
  0
ENDBLK
  8
0
  0
BLOCK
  8
0
  2
*D1
 70
    65
 10
0.0
 20
0.0
 30
0.0
  3
*D
  0
LINE
  8
0
  6
BYBLOCK
 62
     0
 10
29.821868
 20
9.909216
 30
0.0
 11
29.394512
 21
9.909216
 31
0.0
  0
LINE
  8
0
  6
BYBLOCK
 62
     0
 10
29.755952
 20
9.784216
 30
0.0
 11
29.394512
 21
9.784216
 31
0.0
  0
LINE
  8
0
  6
BYBLOCK
 62
     0
 10
29.534012
 20
10.179216
 30
0.0
 11
29.534012
 21
10.449216
 31
0.0
  0
LINE
  8
0
  6
BYBLOCK
 62
     0
 10
29.534012
 20
9.514216
 30
0.0
 11
29.534012
 21
9.244216
 31
0.0
  0
LINE
  8
0
  6
BYBLOCK
 62
     0
 10
29.534012
 20
9.244216
 30
0.0
 11
29.264012
 21
9.244216
 31
0.0
  0
SOLID
  8
0
  6
BYBLOCK
 62
     0
 10
29.489012
 20
10.179216
 30
0.0
 11
29.579012
 21
10.179216
 31
0.0
 12
29.534012
 22
9.909216
 32
0.0
 13
29.534012
 23
9.909216
 33
0.0
  0
SOLID
  8
0
  6
BYBLOCK
 62
     0
 10
29.489012
 20
9.514216
 30
0.0
 11
29.579012
 21
9.514216
 31
0.0
 12
29.534012
 22
9.784216
 32
0.0
 13
29.534012
 23
9.784216
 33
0.0
  0
TEXT
  8
0
  6
BYBLOCK
 62
     0
 10
28.636825
 20
9.150466
 30
0.0
 40
0.1875
  1
0.125
 41
0.75
 72
     1
 11
28.882918
 21
9.244216
 31
0.0
 73
     2
  0
POINT
  8
DEFPOINTS
  6
BYBLOCK
 62
     0
 10
29.916368
 20
9.909216
 30
0.125
  0
POINT
  8
DEFPOINTS
  6
BYBLOCK
 62
     0
 10
29.850452
 20
9.784216
 30
0.125
  0
POINT
  8
DEFPOINTS
  6
BYBLOCK
 62
     0
 10
29.534012
 20
9.784216
 30
0.125
  0
ENDBLK
  8
0
  0
BLOCK
  8
0
  2
*D3
 70
    65
 10
0.0
 20
0.0
 30
0.0
  3
*D
  0
LINE
  8
0
  6
BYBLOCK
 62
     0
 10
34.30897
 20
10.614216
 30
0.0
 11
34.760811
 21
10.614216
 31
0.0
  0
LINE
  8
0
  6
BYBLOCK
 62
     0
 10
34.30897
 20
10.684216
 30
0.0
 11
34.760811
 21
10.684216
 31
0.0
  0
LINE
  8
0
  6
BYBLOCK
 62
     0
 10
34.621311
 20
10.344216
 30
0.0
 11
34.621311
 21
10.074216
 31
0.0
  0
LINE
  8
0
  6
BYBLOCK
 62
     0
 10
34.621311
 20
10.954216
 30
0.0
 11
34.621311
 21
11.224216
 31
0.0
  0
LINE
  8
0
  6
BYBLOCK
 62
     0
 10
34.621311
 20
11.224216
 30
0.0
 11
34.891311
 21
11.224216
 31
0.0
  0
SOLID
  8
0
  6
BYBLOCK
 62
     0
 10
34.576311
 20
10.344216
 30
0.0
 11
34.666311
 21
10.344216
 31
0.0
 12
34.621311
 22
10.614216
 32
0.0
 13
34.621311
 23
10.614216
 33
0.0
  0
SOLID
  8
0
  6
BYBLOCK
 62
     0
 10
34.576311
 20
10.954216
 30
0.0
 11
34.666311
 21
10.954216
 31
0.0
 12
34.621311
 22
10.684216
 32
0.0
 13
34.621311
 23
10.684216
 33
0.0
  0
TEXT
  8
0
  6
BYBLOCK
 62
     0
 10
35.565373
 20
11.130466
 30
0.0
 40
0.1875
  1
 TYP.
 41
0.75
 72
     1
 11
35.846623
 21
11.224216
 31
0.0
 73
     2
  0
TEXT
  8
0
  6
BYBLOCK
 62
     0
 10
35.026311
 20
11.130466
 30
0.0
 40
0.1875
  1
0.070
 41
0.75
 72
     1
 11
35.272405
 21
11.224216
 31
0.0
 73
     2
  0
POINT
  8
DEFPOINTS
  6
BYBLOCK
 62
     0
 10
34.21447
 20
10.614216
 30
0.0
  0
POINT
  8
DEFPOINTS
  6
BYBLOCK
 62
     0
 10
34.21447
 20
10.684216
 30
0.0
  0
POINT
  8
DEFPOINTS
  6
BYBLOCK
 62
     0
 10
34.621311
 20
10.684216
 30
0.0
  0
ENDBLK
  8
0
  0
BLOCK
  8
0
  2
*D4
 70
    65
 10
0.0
 20
0.0
 30
0.0
  3
*D
  0
LINE
  8
0
  6
BYBLOCK
 62
     0
 10
23.206668
 20
19.319929
 30
0.0
 11
23.934283
 21
19.319929
 31
0.0
  0
LINE
  8
0
  6
BYBLOCK
 62
     0
 10
23.206668
 20
20.912929
 30
0.0
 11
23.934283
 21
20.912929
 31
0.0
  0
LINE
  8
0
  6
BYBLOCK
 62
     0
 10
23.794783
 20
19.589929
 30
0.0
 11
23.794783
 21
19.887679
 31
0.0
  0
LINE
  8
0
  6
BYBLOCK
 62
     0
 10
23.794783
 20
20.642929
 30
0.0
 11
23.794783
 21
20.345179
 31
0.0
  0
SOLID
  8
0
  6
BYBLOCK
 62
     0
 10
23.749783
 20
19.589929
 30
0.0
 11
23.839783
 21
19.589929
 31
0.0
 12
23.794783
 22
19.319929
 32
0.0
 13
23.794783
 23
19.319929
 33
0.0
  0
SOLID
  8
0
  6
BYBLOCK
 62
     0
 10
23.749783
 20
20.642929
 30
0.0
 11
23.839783
 21
20.642929
 31
0.0
 12
23.794783
 22
20.912929
 32
0.0
 13
23.794783
 23
20.912929
 33
0.0
  0
TEXT
  8
0
  6
BYBLOCK
 62
     0
 10
23.53697
 20
20.022679
 30
0.0
 40
0.1875
  1
1.593
 41
0.75
 72
     1
 11
23.794783
 21
20.116429
 31
0.0
 73
     2
  0
POINT
  8
DEFPOINTS
  6
BYBLOCK
 62
     0
 10
23.112168
 20
19.319929
 30
0.0
  0
POINT
  8
DEFPOINTS
  6
BYBLOCK
 62
     0
 10
23.112168
 20
20.912929
 30
0.0
  0
POINT
  8
DEFPOINTS
  6
BYBLOCK
 62
     0
 10
23.794783
 20
20.912929
 30
0.0
  0
ENDBLK
  8
0
  0
BLOCK
  8
0
  2
*D5
 70
    65
 10
0.0
 20
0.0
 30
0.0
  3
*D
  0
LINE
  8
0
  6
BYBLOCK
 62
     0
 10
23.206668
 20
20.912929
 30
0.0
 11
23.934283
 21
20.912929
 31
0.0
  0
LINE
  8
0
  6
BYBLOCK
 62
     0
 10
23.440668
 20
21.195929
 30
0.0
 11
23.934283
 21
21.195929
 31
0.0
  0
LINE
  8
0
  6
BYBLOCK
 62
     0
 10
23.794783
 20
20.642929
 30
0.0
 11
23.794783
 21
20.372929
 31
0.0
  0
LINE
  8
0
  6
BYBLOCK
 62
     0
 10
23.794783
 20
21.465929
 30
0.0
 11
23.794783
 21
21.735929
 31
0.0
  0
LINE
  8
0
  6
BYBLOCK
 62
     0
 10
23.794783
 20
21.735929
 30
0.0
 11
24.064783
 21
21.735929
 31
0.0
  0
SOLID
  8
0
  6
BYBLOCK
 62
     0
 10
23.749783
 20
20.642929
 30
0.0
 11
23.839783
 21
20.642929
 31
0.0
 12
23.794783
 22
20.912929
 32
0.0
 13
23.794783
 23
20.912929
 33
0.0
  0
SOLID
  8
0
  6
BYBLOCK
 62
     0
 10
23.749783
 20
21.465929
 30
0.0
 11
23.839783
 21
21.465929
 31
0.0
 12
23.794783
 22
21.195929
 32
0.0
 13
23.794783
 23
21.195929
 33
0.0
  0
TEXT
  8
0
  6
BYBLOCK
 62
     0
 10
24.199783
 20
21.642179
 30
0.0
 40
0.1875
  1
0.283
 41
0.75
 72
     1
 11
24.469314
 21
21.735929
 31
0.0
 73
     2
  0
POINT
  8
DEFPOINTS
  6
BYBLOCK
 62
     0
 10
23.112168
 20
20.912929
 30
0.0
  0
POINT
  8
DEFPOINTS
  6
BYBLOCK
 62
     0
 10
23.346168
 20
21.195929
 30
0.0
  0
POINT
  8
DEFPOINTS
  6
BYBLOCK
 62
     0
 10
23.794783
 20
21.195929
 30
0.0
  0
ENDBLK
  8
0
  0
BLOCK
  8
0
  2
*D6
 70
    65
 10
0.0
 20
0.0
 30
0.0
  3
*D
  0
LINE
  8
0
  6
BYBLOCK
 62
     0
 10
26.036858
 20
10.684216
 30
0.0
 11
25.335136
 21
10.684216
 31
0.0
  0
LINE
  8
0
  6
BYBLOCK
 62
     0
 10
25.911004
 20
9.784216
 30
0.0
 11
25.335136
 21
9.784216
 31
0.0
  0
LINE
  8
0
  6
BYBLOCK
 62
     0
 10
25.474636
 20
10.954216
 30
0.0
 11
25.474636
 21
11.224216
 31
0.0
  0
LINE
  8
0
  6
BYBLOCK
 62
     0
 10
25.474636
 20
9.514216
 30
0.0
 11
25.474636
 21
9.244216
 31
0.0
  0
SOLID
  8
0
  6
BYBLOCK
 62
     0
 10
25.429636
 20
10.954216
 30
0.0
 11
25.519636
 21
10.954216
 31
0.0
 12
25.474636
 22
10.684216
 32
0.0
 13
25.474636
 23
10.684216
 33
0.0
  0
SOLID
  8
0
  6
BYBLOCK
 62
     0
 10
25.429636
 20
9.514216
 30
0.0
 11
25.519636
 21
9.514216
 31
0.0
 12
25.474636
 22
9.784216
 32
0.0
 13
25.474636
 23
9.784216
 33
0.0
  0
TEXT
  8
0
  6
BYBLOCK
 62
     0
 10
25.228542
 20
10.140466
 30
0.0
 40
0.1875
  1
0.900
 41
0.75
 72
     1
 11
25.474636
 21
10.234216
 31
0.0
 73
     2
  0
POINT
  8
DEFPOINTS
  6
BYBLOCK
 62
     0
 10
26.131358
 20
10.684216
 30
0.125
  0
POINT
  8
DEFPOINTS
  6
BYBLOCK
 62
     0
 10
26.005504
 20
9.784216
 30
0.125
  0
POINT
  8
DEFPOINTS
  6
BYBLOCK
 62
     0
 10
25.474636
 20
9.784216
 30
0.0
  0
ENDBLK
  8
0
  0
BLOCK
  8
0
  2
*D7
 70
    65
 10
0.0
 20
0.0
 30
0.0
  3
*D
  0
LINE
  8
0
  6
BYBLOCK
 62
     0
 10
17.627732
 20
26.092357
 30
0.0
 11
18.332153
 21
26.092357
 31
0.0
  0
LINE
  8
0
  6
BYBLOCK
 62
     0
 10
17.664732
 20
25.805357
 30
0.0
 11
18.332153
 21
25.805357
 31
0.0
  0
LINE
  8
0
  6
BYBLOCK
 62
     0
 10
18.192653
 20
26.362357
 30
0.0
 11
18.192653
 21
26.632357
 31
0.0
  0
LINE
  8
0
  6
BYBLOCK
 62
     0
 10
18.192653
 20
25.535357
 30
0.0
 11
18.192653
 21
25.265357
 31
0.0
  0
SOLID
  8
0
  6
BYBLOCK
 62
     0
 10
18.147653
 20
26.362357
 30
0.0
 11
18.237653
 21
26.362357
 31
0.0
 12
18.192653
 22
26.092357
 32
0.0
 13
18.192653
 23
26.092357
 33
0.0
  0
SOLID
  8
0
  6
BYBLOCK
 62
     0
 10
18.147653
 20
25.535357
 30
0.0
 11
18.237653
 21
25.535357
 31
0.0
 12
18.192653
 22
25.805357
 32
0.0
 13
18.192653
 23
25.805357
 33
0.0
  0
TEXT
  8
0
  6
BYBLOCK
 62
     0
 10
17.923122
 20
25.855107
 30
0.0
 40
0.1875
  1
0.287
 41
0.75
 72
     1
 11
18.192653
 21
25.948857
 31
0.0
 73
     2
  0
POINT
  8
DEFPOINTS
  6
BYBLOCK
 62
     0
 10
17.533232
 20
26.092357
 30
0.0
  0
POINT
  8
DEFPOINTS
  6
BYBLOCK
 62
     0
 10
17.570232
 20
25.805357
 30
0.0
  0
POINT
  8
DEFPOINTS
  6
BYBLOCK
 62
     0
 10
18.192653
 20
25.805357
 30
0.0
  0
ENDBLK
  8
0
  0
BLOCK
  8
0
  2
*D8
 70
    65
 10
0.0
 20
0.0
 30
0.0
  3
*D
  0
LINE
  8
0
  6
BYBLOCK
 62
     0
 10
19.315668
 20
22.711221
 30
0.0
 11
18.777265
 21
22.711221
 31
0.0
  0
LINE
  8
0
  6
BYBLOCK
 62
     0
 10
19.315668
 20
24.870221
 30
0.0
 11
18.777265
 21
24.870221
 31
0.0
  0
LINE
  8
0
  6
BYBLOCK
 62
     0
 10
18.916765
 20
22.981221
 30
0.0
 11
18.916765
 21
23.561971
 31
0.0
  0
LINE
  8
0
  6
BYBLOCK
 62
     0
 10
18.916765
 20
24.600221
 30
0.0
 11
18.916765
 21
24.019471
 31
0.0
  0
SOLID
  8
0
  6
BYBLOCK
 62
     0
 10
18.871765
 20
22.981221
 30
0.0
 11
18.961765
 21
22.981221
 31
0.0
 12
18.916765
 22
22.711221
 32
0.0
 13
18.916765
 23
22.711221
 33
0.0
  0
SOLID
  8
0
  6
BYBLOCK
 62
     0
 10
18.871765
 20
24.600221
 30
0.0
 11
18.961765
 21
24.600221
 31
0.0
 12
18.916765
 22
24.870221
 32
0.0
 13
18.916765
 23
24.870221
 33
0.0
  0
TEXT
  8
0
  6
BYBLOCK
 62
     0
 10
18.658953
 20
23.696971
 30
0.0
 40
0.1875
  1
2.159
 41
0.75
 72
     1
 11
18.916765
 21
23.790721
 31
0.0
 73
     2
  0
POINT
  8
DEFPOINTS
  6
BYBLOCK
 62
     0
 10
19.410168
 20
22.711221
 30
0.0
  0
POINT
  8
DEFPOINTS
  6
BYBLOCK
 62
     0
 10
19.410168
 20
24.870221
 30
0.0
  0
POINT
  8
DEFPOINTS
  6
BYBLOCK
 62
     0
 10
18.916765
 20
24.870221
 30
0.0
  0
ENDBLK
  8
0
  0
BLOCK
  8
0
  2
*D9
 70
    65
 10
0.0
 20
0.0
 30
0.0
  3
*D
  0
LINE
  8
0
  6
BYBLOCK
 62
     0
 10
20.317143
 20
7.075546
 30
0.0
 11
20.375151
 21
7.075546
 31
0.0
  0
LINE
  8
0
  6
BYBLOCK
 62
     0
 10
20.317143
 20
7.038546
 30
0.0
 11
20.375151
 21
7.038546
 31
0.0
  0
LINE
  8
0
  6
BYBLOCK
 62
     0
 10
20.235651
 20
7.345546
 30
0.0
 11
20.235651
 21
7.615546
 31
0.0
  0
LINE
  8
0
  6
BYBLOCK
 62
     0
 10
20.235651
 20
6.768546
 30
0.0
 11
20.235651
 21
6.498546
 31
0.0
  0
LINE
  8
0
  6
BYBLOCK
 62
     0
 10
20.235651
 20
6.498546
 30
0.0
 11
19.965651
 21
6.498546
 31
0.0
  0
SOLID
  8
0
  6
BYBLOCK
 62
     0
 10
20.190651
 20
7.345546
 30
0.0
 11
20.280651
 21
7.345546
 31
0.0
 12
20.235651
 22
7.075546
 32
0.0
 13
20.235651
 23
7.075546
 33
0.0
  0
SOLID
  8
0
  6
BYBLOCK
 62
     0
 10
20.190651
 20
6.768546
 30
0.0
 11
20.280651
 21
6.768546
 31
0.0
 12
20.235651
 22
7.038546
 32
0.0
 13
20.235651
 23
7.038546
 33
0.0
  0
TEXT
  8
0
  6
BYBLOCK
 62
     0
 10
19.268151
 20
6.404796
 30
0.0
 40
0.1875
  1
 TYP.
 41
0.75
 72
     1
 11
19.549401
 21
6.498546
 31
0.0
 73
     2
  0
TEXT
  8
0
  6
BYBLOCK
 62
     0
 10
18.705651
 20
6.404796
 30
0.0
 40
0.1875
  1
0.037
 41
0.75
 72
     1
 11
18.963463
 21
6.498546
 31
0.0
 73
     2
  0
POINT
  8
DEFPOINTS
  6
BYBLOCK
 62
     0
 10
20.222643
 20
7.075546
 30
0.0
  0
POINT
  8
DEFPOINTS
  6
BYBLOCK
 62
     0
 10
20.222643
 20
7.038546
 30
0.0
  0
POINT
  8
DEFPOINTS
  6
BYBLOCK
 62
     0
 10
20.235651
 20
7.038546
 30
0.0
  0
ENDBLK
  8
0
  0
BLOCK
  8
0
  2
*D10
 70
    65
 10
0.0
 20
0.0
 30
0.0
  3
*D
  0
LINE
  8
0
  6
BYBLOCK
 62
     0
 10
21.786437
 20
5.425027
 30
0.0
 11
22.109351
 21
5.425027
 31
0.0
  0
LINE
  8
0
  6
BYBLOCK
 62
     0
 10
21.749437
 20
5.510027
 30
0.0
 11
22.109351
 21
5.510027
 31
0.0
  0
LINE
  8
0
  6
BYBLOCK
 62
     0
 10
21.969851
 20
5.155027
 30
0.0
 11
21.969851
 21
4.885027
 31
0.0
  0
LINE
  8
0
  6
BYBLOCK
 62
     0
 10
21.969851
 20
5.780027
 30
0.0
 11
21.969851
 21
6.050027
 31
0.0
  0
LINE
  8
0
  6
BYBLOCK
 62
     0
 10
21.969851
 20
6.050027
 30
0.0
 11
22.239851
 21
6.050027
 31
0.0
  0
SOLID
  8
0
  6
BYBLOCK
 62
     0
 10
21.924851
 20
5.155027
 30
0.0
 11
22.014851
 21
5.155027
 31
0.0
 12
21.969851
 22
5.425027
 32
0.0
 13
21.969851
 23
5.425027
 33
0.0
  0
SOLID
  8
0
  6
BYBLOCK
 62
     0
 10
21.924851
 20
5.780027
 30
0.0
 11
22.014851
 21
5.780027
 31
0.0
 12
21.969851
 22
5.510027
 32
0.0
 13
21.969851
 23
5.510027
 33
0.0
  0
TEXT
  8
0
  6
BYBLOCK
 62
     0
 10
22.374851
 20
5.956277
 30
0.0
 40
0.1875
  1
0.085
 41
0.75
 72
     1
 11
22.632663
 21
6.050027
 31
0.0
 73
     2
  0
POINT
  8
DEFPOINTS
  6
BYBLOCK
 62
     0
 10
21.691937
 20
5.425027
 30
0.0
  0
POINT
  8
DEFPOINTS
  6
BYBLOCK
 62
     0
 10
21.654937
 20
5.510027
 30
0.0
  0
POINT
  8
DEFPOINTS
  6
BYBLOCK
 62
     0
 10
21.969851
 20
5.510027
 30
0.0
  0
ENDBLK
  8
0
  0
BLOCK
  8
0
  2
*D11
 70
    65
 10
0.0
 20
0.0
 30
0.0
  3
*D
  0
LINE
  8
0
  6
BYBLOCK
 62
     0
 10
15.832001
 20
5.806527
 30
0.0
 11
15.832001
 21
6.187466
 31
0.0
  0
LINE
  8
0
  6
BYBLOCK
 62
     0
 10
15.723001
 20
5.806527
 30
0.0
 11
15.723001
 21
6.187466
 31
0.0
  0
LINE
  8
0
  6
BYBLOCK
 62
     0
 10
16.102001
 20
6.047966
 30
0.0
 11
16.372001
 21
6.047966
 31
0.0
  0
LINE
  8
0
  6
BYBLOCK
 62
     0
 10
15.453001
 20
6.047966
 30
0.0
 11
15.183001
 21
6.047966
 31
0.0
  0
SOLID
  8
0
  6
BYBLOCK
 62
     0
 10
16.102001
 20
6.092966
 30
0.0
 11
16.102001
 21
6.002966
 31
0.0
 12
15.832001
 22
6.047966
 32
0.0
 13
15.832001
 23
6.047966
 33
0.0
  0
SOLID
  8
0
  6
BYBLOCK
 62
     0
 10
15.453001
 20
6.092966
 30
0.0
 11
15.453001
 21
6.002966
 31
0.0
 12
15.723001
 22
6.047966
 32
0.0
 13
15.723001
 23
6.047966
 33
0.0
  0
TEXT
  8
0
  6
BYBLOCK
 62
     0
 10
14.579251
 20
5.954216
 30
0.0
 40
0.1875
  1
0.109
 41
0.75
 72
     1
 11
14.813626
 21
6.047966
 31
0.0
 73
     2
  0
POINT
  8
DEFPOINTS
  6
BYBLOCK
 62
     0
 10
15.832001
 20
5.712027
 30
0.0
  0
POINT
  8
DEFPOINTS
  6
BYBLOCK
 62
     0
 10
15.723001
 20
5.712027
 30
0.0
  0
POINT
  8
DEFPOINTS
  6
BYBLOCK
 62
     0
 10
15.723001
 20
6.047966
 30
0.0
  0
ENDBLK
  8
0
  0
BLOCK
  8
0
  2
*D12
 70
    65
 10
0.0
 20
0.0
 30
0.0
  3
*D
  0
LINE
  8
0
  6
BYBLOCK
 62
     0
 10
19.815937
 20
5.806527
 30
0.0
 11
19.815937
 21
6.187466
 31
0.0
  0
LINE
  8
0
  6
BYBLOCK
 62
     0
 10
19.537937
 20
5.806527
 30
0.0
 11
19.537937
 21
6.187466
 31
0.0
  0
LINE
  8
0
  6
BYBLOCK
 62
     0
 10
20.085937
 20
6.047966
 30
0.0
 11
20.355937
 21
6.047966
 31
0.0
  0
LINE
  8
0
  6
BYBLOCK
 62
     0
 10
19.267937
 20
6.047966
 30
0.0
 11
18.997937
 21
6.047966
 31
0.0
  0
SOLID
  8
0
  6
BYBLOCK
 62
     0
 10
20.085937
 20
6.092966
 30
0.0
 11
20.085937
 21
6.002966
 31
0.0
 12
19.815937
 22
6.047966
 32
0.0
 13
19.815937
 23
6.047966
 33
0.0
  0
SOLID
  8
0
  6
BYBLOCK
 62
     0
 10
19.267937
 20
6.092966
 30
0.0
 11
19.267937
 21
6.002966
 31
0.0
 12
19.537937
 22
6.047966
 32
0.0
 13
19.537937
 23
6.047966
 33
0.0
  0
TEXT
  8
0
  6
BYBLOCK
 62
     0
 10
18.323875
 20
5.954216
 30
0.0
 40
0.1875
  1
0.278
 41
0.75
 72
     1
 11
18.593406
 21
6.047966
 31
0.0
 73
     2
  0
POINT
  8
DEFPOINTS
  6
BYBLOCK
 62
     0
 10
19.815937
 20
5.712027
 30
0.0
  0
POINT
  8
DEFPOINTS
  6
BYBLOCK
 62
     0
 10
19.537937
 20
5.712027
 30
0.0
  0
POINT
  8
DEFPOINTS
  6
BYBLOCK
 62
     0
 10
19.537937
 20
6.047966
 30
0.0
  0
ENDBLK
  8
0
  0
BLOCK
  8
0
  2
*D13
 70
    65
 10
0.0
 20
0.0
 30
0.0
  3
*D
  0
LINE
  8
0
  6
BYBLOCK
 62
     0
 10
17.942937
 20
9.009046
 30
0.0
 11
17.942937
 21
9.741047
 31
0.0
  0
LINE
  8
0
  6
BYBLOCK
 62
     0
 10
17.661937
 20
9.245046
 30
0.0
 11
17.661937
 21
9.741047
 31
0.0
  0
LINE
  8
0
  6
BYBLOCK
 62
     0
 10
18.212937
 20
9.601547
 30
0.0
 11
18.482937
 21
9.601547
 31
0.0
  0
LINE
  8
0
  6
BYBLOCK
 62
     0
 10
17.391937
 20
9.601547
 30
0.0
 11
17.121937
 21
9.601547
 31
0.0
  0
SOLID
  8
0
  6
BYBLOCK
 62
     0
 10
18.212937
 20
9.646547
 30
0.0
 11
18.212937
 21
9.556547
 31
0.0
 12
17.942937
 22
9.601547
 32
0.0
 13
17.942937
 23
9.601547
 33
0.0
  0
SOLID
  8
0
  6
BYBLOCK
 62
     0
 10
17.391937
 20
9.646547
 30
0.0
 11
17.391937
 21
9.556547
 31
0.0
 12
17.661937
 22
9.601547
 32
0.0
 13
17.661937
 23
9.601547
 33
0.0
  0
TEXT
  8
0
  6
BYBLOCK
 62
     0
 10
16.49475
 20
9.507797
 30
0.0
 40
0.1875
  1
0.281
 41
0.75
 72
     1
 11
16.740844
 21
9.601547
 31
0.0
 73
     2
  0
POINT
  8
DEFPOINTS
  6
BYBLOCK
 62
     0
 10
17.942937
 20
8.914546
 30
0.0
  0
POINT
  8
DEFPOINTS
  6
BYBLOCK
 62
     0
 10
17.661937
 20
9.150546
 30
0.0
  0
POINT
  8
DEFPOINTS
  6
BYBLOCK
 62
     0
 10
17.661937
 20
9.601547
 30
0.0
  0
ENDBLK
  8
0
  0
BLOCK
  8
0
  2
*D14
 70
    65
 10
0.0
 20
0.0
 30
0.0
  3
*D
  0
LINE
  8
0
  6
BYBLOCK
 62
     0
 10
21.410937
 20
9.009046
 30
0.0
 11
21.410937
 21
9.741047
 31
0.0
  0
LINE
  8
0
  6
BYBLOCK
 62
     0
 10
17.942937
 20
9.009046
 30
0.0
 11
17.942937
 21
9.741047
 31
0.0
  0
LINE
  8
0
  6
BYBLOCK
 62
     0
 10
21.140937
 20
9.601547
 30
0.0
 11
20.093187
 21
9.601547
 31
0.0
  0
LINE
  8
0
  6
BYBLOCK
 62
     0
 10
18.212937
 20
9.601547
 30
0.0
 11
19.260687
 21
9.601547
 31
0.0
  0
SOLID
  8
0
  6
BYBLOCK
 62
     0
 10
21.140937
 20
9.646547
 30
0.0
 11
21.140937
 21
9.556547
 31
0.0
 12
21.410937
 22
9.601547
 32
0.0
 13
21.410937
 23
9.601547
 33
0.0
  0
SOLID
  8
0
  6
BYBLOCK
 62
     0
 10
18.212937
 20
9.646547
 30
0.0
 11
18.212937
 21
9.556547
 31
0.0
 12
17.942937
 22
9.601547
 32
0.0
 13
17.942937
 23
9.601547
 33
0.0
  0
TEXT
  8
0
  6
BYBLOCK
 62
     0
 10
19.395687
 20
9.507797
 30
0.0
 40
0.1875
  1
3.468
 41
0.75
 72
     1
 11
19.676937
 21
9.601547
 31
0.0
 73
     2
  0
POINT
  8
DEFPOINTS
  6
BYBLOCK
 62
     0
 10
21.410937
 20
8.914546
 30
0.0
  0
POINT
  8
DEFPOINTS
  6
BYBLOCK
 62
     0
 10
17.942937
 20
8.914546
 30
0.0
  0
POINT
  8
DEFPOINTS
  6
BYBLOCK
 62
     0
 10
17.942937
 20
9.601547
 30
0.0
  0
ENDBLK
  8
0
  0
BLOCK
  8
0
  2
*D15
 70
    65
 10
0.0
 20
0.0
 30
0.0
  3
*D
  0
LINE
  8
0
  6
BYBLOCK
 62
     0
 10
17.661937
 20
9.245046
 30
0.0
 11
17.661937
 21
10.162547
 31
0.0
  0
LINE
  8
0
  6
BYBLOCK
 62
     0
 10
21.691937
 20
9.245046
 30
0.0
 11
21.691937
 21
10.162547
 31
0.0
  0
LINE
  8
0
  6
BYBLOCK
 62
     0
 10
17.931937
 20
10.023047
 30
0.0
 11
19.284125
 21
10.023047
 31
0.0
  0
LINE
  8
0
  6
BYBLOCK
 62
     0
 10
21.421937
 20
10.023047
 30
0.0
 11
20.06975
 21
10.023047
 31
0.0
  0
SOLID
  8
0
  6
BYBLOCK
 62
     0
 10
17.931937
 20
10.068047
 30
0.0
 11
17.931937
 21
9.978047
 31
0.0
 12
17.661937
 22
10.023047
 32
0.0
 13
17.661937
 23
10.023047
 33
0.0
  0
SOLID
  8
0
  6
BYBLOCK
 62
     0
 10
21.421937
 20
10.068047
 30
0.0
 11
21.421937
 21
9.978047
 31
0.0
 12
21.691937
 22
10.023047
 32
0.0
 13
21.691937
 23
10.023047
 33
0.0
  0
TEXT
  8
0
  6
BYBLOCK
 62
     0
 10
19.419125
 20
9.929297
 30
0.0
 40
0.1875
  1
4.030
 41
0.75
 72
     1
 11
19.676937
 21
10.023047
 31
0.0
 73
     2
  0
POINT
  8
DEFPOINTS
  6
BYBLOCK
 62
     0
 10
17.661937
 20
9.150546
 30
0.0
  0
POINT
  8
DEFPOINTS
  6
BYBLOCK
 62
     0
 10
21.691937
 20
9.150546
 30
0.0
  0
POINT
  8
DEFPOINTS
  6
BYBLOCK
 62
     0
 10
21.691937
 20
10.023047
 30
0.0
  0
ENDBLK
  8
0
  0
BLOCK
  8
0
  2
*D16
 70
    65
 10
0.0
 20
0.0
 30
0.0
  3
*D
  0
LINE
  8
0
  6
BYBLOCK
 62
     0
 10
30.553577
 20
8.36382
 30
0.0
 11
30.553577
 21
9.084571
 31
0.0
  0
LINE
  8
0
  6
BYBLOCK
 62
     0
 10
30.23558
 20
8.596439
 30
0.0
 11
30.23558
 21
9.084571
 31
0.0
  0
LINE
  8
0
  6
BYBLOCK
 62
     0
 10
30.823577
 20
8.945071
 30
0.0
 11
31.093577
 21
8.945071
 31
0.0
  0
LINE
  8
0
  6
BYBLOCK
 62
     0
 10
29.96558
 20
8.945071
 30
0.0
 11
29.69558
 21
8.945071
 31
0.0
  0
SOLID
  8
0
  6
BYBLOCK
 62
     0
 10
30.823577
 20
8.990071
 30
0.0
 11
30.823577
 21
8.900071
 31
0.0
 12
30.553577
 22
8.945071
 32
0.0
 13
30.553577
 23
8.945071
 33
0.0
  0
SOLID
  8
0
  6
BYBLOCK
 62
     0
 10
29.96558
 20
8.990071
 30
0.0
 11
29.96558
 21
8.900071
 31
0.0
 12
30.23558
 22
8.945071
 32
0.0
 13
30.23558
 23
8.945071
 33
0.0
  0
TEXT
  8
0
  6
BYBLOCK
 62
     0
 10
29.068393
 20
8.851321
 30
0.0
 40
0.1875
  1
0.318
 41
0.75
 72
     1
 11
29.314487
 21
8.945071
 31
0.0
 73
     2
  0
POINT
  8
DEFPOINTS
  6
BYBLOCK
 62
     0
 10
30.553577
 20
8.26932
 30
0.0
  0
POINT
  8
DEFPOINTS
  6
BYBLOCK
 62
     0
 10
30.23558
 20
8.501939
 30
0.0
  0
POINT
  8
DEFPOINTS
  6
BYBLOCK
 62
     0
 10
30.23558
 20
8.945071
 30
0.0
  0
ENDBLK
  8
0
  0
BLOCK
  8
0
  2
*D17
 70
    65
 10
0.0
 20
0.0
 30
0.0
  3
*D
  0
LINE
  8
0
  6
BYBLOCK
 62
     0
 10
30.553577
 20
8.36382
 30
0.0
 11
30.553577
 21
9.084571
 31
0.0
  0
LINE
  8
0
  6
BYBLOCK
 62
     0
 10
34.022327
 20
8.36382
 30
0.0
 11
34.022327
 21
9.084571
 31
0.0
  0
LINE
  8
0
  6
BYBLOCK
 62
     0
 10
30.823577
 20
8.945071
 30
0.0
 11
31.871702
 21
8.945071
 31
0.0
  0
LINE
  8
0
  6
BYBLOCK
 62
     0
 10
33.752327
 20
8.945071
 30
0.0
 11
32.704202
 21
8.945071
 31
0.0
  0
SOLID
  8
0
  6
BYBLOCK
 62
     0
 10
30.823577
 20
8.990071
 30
0.0
 11
30.823577
 21
8.900071
 31
0.0
 12
30.553577
 22
8.945071
 32
0.0
 13
30.553577
 23
8.945071
 33
0.0
  0
SOLID
  8
0
  6
BYBLOCK
 62
     0
 10
33.752327
 20
8.990071
 30
0.0
 11
33.752327
 21
8.900071
 31
0.0
 12
34.022327
 22
8.945071
 32
0.0
 13
34.022327
 23
8.945071
 33
0.0
  0
TEXT
  8
0
  6
BYBLOCK
 62
     0
 10
32.006702
 20
8.851321
 30
0.0
 40
0.1875
  1
3.469
 41
0.75
 72
     1
 11
32.287952
 21
8.945071
 31
0.0
 73
     2
  0
POINT
  8
DEFPOINTS
  6
BYBLOCK
 62
     0
 10
30.553577
 20
8.26932
 30
0.0
  0
POINT
  8
DEFPOINTS
  6
BYBLOCK
 62
     0
 10
34.022327
 20
8.26932
 30
0.0
  0
POINT
  8
DEFPOINTS
  6
BYBLOCK
 62
     0
 10
34.022327
 20
8.945071
 30
0.0
  0
ENDBLK
  8
0
  0
BLOCK
  8
0
  2
*D18
 70
    65
 10
0.0
 20
0.0
 30
0.0
  3
*D
  0
LINE
  8
0
  6
BYBLOCK
 62
     0
 10
31.740137
 20
9.854216
 30
0.0
 11
31.879637
 21
9.854216
 31
0.0
  0
LINE
  8
0
  6
BYBLOCK
 62
     0
 10
31.740137
 20
9.784216
 30
0.0
 11
31.879637
 21
9.784216
 31
0.0
  0
LINE
  8
0
  6
BYBLOCK
 62
     0
 10
31.740137
 20
10.124216
 30
0.0
 11
31.740137
 21
10.394216
 31
0.0
  0
LINE
  8
0
  6
BYBLOCK
 62
     0
 10
31.740137
 20
9.514216
 30
0.0
 11
31.740137
 21
9.244216
 31
0.0
  0
LINE
  8
0
  6
BYBLOCK
 62
     0
 10
31.740137
 20
9.244216
 30
0.0
 11
31.470137
 21
9.244216
 31
0.0
  0
SOLID
  8
0
  6
BYBLOCK
 62
     0
 10
31.695137
 20
10.124216
 30
0.0
 11
31.785137
 21
10.124216
 31
0.0
 12
31.740137
 22
9.854216
 32
0.0
 13
31.740137
 23
9.854216
 33
0.0
  0
SOLID
  8
0
  6
BYBLOCK
 62
     0
 10
31.695137
 20
9.514216
 30
0.0
 11
31.785137
 21
9.514216
 31
0.0
 12
31.740137
 22
9.784216
 32
0.0
 13
31.740137
 23
9.784216
 33
0.0
  0
TEXT
  8
0
  6
BYBLOCK
 62
     0
 10
30.842949
 20
9.150466
 30
0.0
 40
0.1875
  1
0.070
 41
0.75
 72
     1
 11
31.089043
 21
9.244216
 31
0.0
 73
     2
  0
POINT
  8
DEFPOINTS
  6
BYBLOCK
 62
     0
 10
31.645637
 20
9.854216
 30
0.0
  0
POINT
  8
DEFPOINTS
  6
BYBLOCK
 62
     0
 10
31.645637
 20
9.784216
 30
0.0
  0
POINT
  8
DEFPOINTS
  6
BYBLOCK
 62
     0
 10
31.740137
 20
9.784216
 30
0.0
  0
ENDBLK
  8
0
  0
BLOCK
  8
0
  2
*D19
 70
    65
 10
0.0
 20
0.0
 30
0.0
  3
*D
  0
LINE
  8
0
  6
BYBLOCK
 62
     0
 10
28.235248
 20
9.689716
 30
0.0
 11
28.235248
 21
9.374716
 31
0.0
  0
LINE
  8
0
  6
BYBLOCK
 62
     0
 10
28.195261
 20
9.690763
 30
0.0
 11
28.195261
 21
9.374716
 31
0.0
  0
LINE
  8
0
  6
BYBLOCK
 62
     0
 10
28.505248
 20
9.514216
 30
0.0
 11
28.775248
 21
9.514216
 31
0.0
  0
LINE
  8
0
  6
BYBLOCK
 62
     0
 10
27.925261
 20
9.514216
 30
0.0
 11
27.655261
 21
9.514216
 31
0.0
  0
SOLID
  8
0
  6
BYBLOCK
 62
     0
 10
28.505248
 20
9.559216
 30
0.0
 11
28.505248
 21
9.469216
 31
0.0
 12
28.235248
 22
9.514216
 32
0.0
 13
28.235248
 23
9.514216
 33
0.0
  0
SOLID
  8
0
  6
BYBLOCK
 62
     0
 10
27.925261
 20
9.559216
 30
0.0
 11
27.925261
 21
9.469216
 31
0.0
 12
28.195261
 22
9.514216
 32
0.0
 13
28.195261
 23
9.514216
 33
0.0
  0
TEXT
  8
0
  6
BYBLOCK
 62
     0
 10
26.957761
 20
9.420466
 30
0.0
 40
0.1875
  1
 TYP.
 41
0.75
 72
     1
 11
27.239011
 21
9.514216
 31
0.0
 73
     2
  0
TEXT
  8
0
  6
BYBLOCK
 62
     0
 10
26.418699
 20
9.420466
 30
0.0
 40
0.1875
  1
0.040
 41
0.75
 72
     1
 11
26.664793
 21
9.514216
 31
0.0
 73
     2
  0
POINT
  8
DEFPOINTS
  6
BYBLOCK
 62
     0
 10
28.235248
 20
9.784216
 30
0.0
  0
POINT
  8
DEFPOINTS
  6
BYBLOCK
 62
     0
 10
28.195261
 20
9.785263
 30
0.0
  0
POINT
  8
DEFPOINTS
  6
BYBLOCK
 62
     0
 10
28.195261
 20
9.514216
 30
0.0
  0
ENDBLK
  8
0
  0
BLOCK
  8
0
  2
*D20
 70
    65
 10
0.0
 20
0.0
 30
0.0
  3
*D
  0
LINE
  8
0
  6
BYBLOCK
 62
     0
 10
26.005504
 20
9.689716
 30
0.0
 11
26.005504
 21
8.953216
 31
0.0
  0
LINE
  8
0
  6
BYBLOCK
 62
     0
 10
28.235248
 20
9.689716
 30
0.0
 11
28.235248
 21
8.953216
 31
0.0
  0
LINE
  8
0
  6
BYBLOCK
 62
     0
 10
26.275504
 20
9.092716
 30
0.0
 11
26.715844
 21
9.092716
 31
0.0
  0
LINE
  8
0
  6
BYBLOCK
 62
     0
 10
27.965248
 20
9.092716
 30
0.0
 11
27.524907
 21
9.092716
 31
0.0
  0
SOLID
  8
0
  6
BYBLOCK
 62
     0
 10
26.275504
 20
9.137716
 30
0.0
 11
26.275504
 21
9.047716
 31
0.0
 12
26.005504
 22
9.092716
 32
0.0
 13
26.005504
 23
9.092716
 33
0.0
  0
SOLID
  8
0
  6
BYBLOCK
 62
     0
 10
27.965248
 20
9.137716
 30
0.0
 11
27.965248
 21
9.047716
 31
0.0
 12
28.235248
 22
9.092716
 32
0.0
 13
28.235248
 23
9.092716
 33
0.0
  0
TEXT
  8
0
  6
BYBLOCK
 62
     0
 10
26.850844
 20
8.998966
 30
0.0
 40
0.1875
  1
2.230
 41
0.75
 72
     1
 11
27.120376
 21
9.092716
 31
0.0
 73
     2
  0
POINT
  8
DEFPOINTS
  6
BYBLOCK
 62
     0
 10
26.005504
 20
9.784216
 30
0.0
  0
POINT
  8
DEFPOINTS
  6
BYBLOCK
 62
     0
 10
28.235248
 20
9.784216
 30
0.0
  0
POINT
  8
DEFPOINTS
  6
BYBLOCK
 62
     0
 10
28.235248
 20
9.092716
 30
0.0
  0
ENDBLK
  8
0
  0
BLOCK
  8
0
  2
*D21
 70
    65
 10
0.0
 20
0.0
 30
0.0
  3
*D
  0
LINE
  8
0
  6
BYBLOCK
 62
     0
 10
30.25647
 20
10.676464
 30
0.0
 11
30.25647
 21
11.228716
 31
0.0
  0
LINE
  8
0
  6
BYBLOCK
 62
     0
 10
34.319434
 20
10.676464
 30
0.0
 11
34.319434
 21
11.228716
 31
0.0
  0
LINE
  8
0
  6
BYBLOCK
 62
     0
 10
30.52647
 20
11.089216
 30
0.0
 11
31.883421
 21
11.089216
 31
0.0
  0
LINE
  8
0
  6
BYBLOCK
 62
     0
 10
34.049434
 20
11.089216
 30
0.0
 11
32.692483
 21
11.089216
 31
0.0
  0
SOLID
  8
0
  6
BYBLOCK
 62
     0
 10
30.52647
 20
11.134216
 30
0.0
 11
30.52647
 21
11.044216
 31
0.0
 12
30.25647
 22
11.089216
 32
0.0
 13
30.25647
 23
11.089216
 33
0.0
  0
SOLID
  8
0
  6
BYBLOCK
 62
     0
 10
34.049434
 20
11.134216
 30
0.0
 11
34.049434
 21
11.044216
 31
0.0
 12
34.319434
 22
11.089216
 32
0.0
 13
34.319434
 23
11.089216
 33
0.0
  0
TEXT
  8
0
  6
BYBLOCK
 62
     0
 10
32.018421
 20
10.995466
 30
0.0
 40
0.1875
  1
4.063
 41
0.75
 72
     1
 11
32.287952
 21
11.089216
 31
0.0
 73
     2
  0
POINT
  8
DEFPOINTS
  6
BYBLOCK
 62
     0
 10
30.25647
 20
10.581964
 30
0.0
  0
POINT
  8
DEFPOINTS
  6
BYBLOCK
 62
     0
 10
34.319434
 20
10.581964
 30
0.0
  0
POINT
  8
DEFPOINTS
  6
BYBLOCK
 62
     0
 10
34.319434
 20
11.089216
 30
0.0
  0
ENDBLK
  8
0
  0
BLOCK
  8
0
  2
*D22
 70
    65
 10
0.0
 20
0.0
 30
0.0
  3
*D
  0
LINE
  8
0
  6
BYBLOCK
 62
     0
 10
28.214358
 20
10.676464
 30
0.0
 11
28.214358
 21
11.228716
 31
0.0
  0
LINE
  8
0
  6
BYBLOCK
 62
     0
 10
26.026394
 20
10.676464
 30
0.0
 11
26.026394
 21
11.228716
 31
0.0
  0
LINE
  8
0
  6
BYBLOCK
 62
     0
 10
27.944358
 20
11.089216
 30
0.0
 11
27.513188
 21
11.089216
 31
0.0
  0
LINE
  8
0
  6
BYBLOCK
 62
     0
 10
26.296394
 20
11.089216
 30
0.0
 11
26.727563
 21
11.089216
 31
0.0
  0
SOLID
  8
0
  6
BYBLOCK
 62
     0
 10
27.944358
 20
11.134216
 30
0.0
 11
27.944358
 21
11.044216
 31
0.0
 12
28.214358
 22
11.089216
 32
0.0
 13
28.214358
 23
11.089216
 33
0.0
  0
SOLID
  8
0
  6
BYBLOCK
 62
     0
 10
26.296394
 20
11.134216
 30
0.0
 11
26.296394
 21
11.044216
 31
0.0
 12
26.026394
 22
11.089216
 32
0.0
 13
26.026394
 23
11.089216
 33
0.0
  0
TEXT
  8
0
  6
BYBLOCK
 62
     0
 10
26.862563
 20
10.995466
 30
0.0
 40
0.1875
  1
2.188
 41
0.75
 72
     1
 11
27.120376
 21
11.089216
 31
0.0
 73
     2
  0
POINT
  8
DEFPOINTS
  6
BYBLOCK
 62
     0
 10
28.214358
 20
10.581964
 30
0.0
  0
POINT
  8
DEFPOINTS
  6
BYBLOCK
 62
     0
 10
26.026394
 20
10.581964
 30
0.0
  0
POINT
  8
DEFPOINTS
  6
BYBLOCK
 62
     0
 10
26.026394
 20
11.089216
 30
0.0
  0
ENDBLK
  8
0
  0
BLOCK
  8
0
  2
*D23
 70
    65
 10
0.0
 20
0.0
 30
0.0
  3
*D
  0
LINE
  8
0
  6
BYBLOCK
 62
     0
 10
26.031545
 20
10.778683
 30
0.0
 11
26.055604
 21
11.697467
 31
0.0
  0
LINE
  8
0
  6
BYBLOCK
 62
     0
 10
26.005504
 20
10.205271
 30
0.0
 11
26.005504
 21
11.698123
 31
0.0
  0
ARC
  8
0
  6
BYBLOCK
 62
     0
 10
26.005504
 20
9.784216
 30
0.0
 40
1.774407
 50
71.04648
 51
79.77324
  0
ARC
  8
0
  6
BYBLOCK
 62
     0
 10
26.005504
 20
9.784216
 30
0.0
 40
1.774407
 50
98.72676
 51
107.45352
  0
SOLID
  8
0
  6
BYBLOCK
 62
     0
 10
26.315943
 20
11.485668
 30
0.0
 11
26.325137
 21
11.575197
 31
0.0
 12
26.051952
 22
11.558015
 32
0.0
 13
26.051952
 23
11.558015
 33
0.0
  0
SOLID
  8
0
  6
BYBLOCK
 62
     0
 10
25.732863
 20
11.58295
 30
0.0
 11
25.73971
 21
11.493211
 31
0.0
 12
26.005504
 22
11.558623
 32
0.0
 13
26.005504
 23
11.558623
 33
0.0
  0
TEXT
  8
0
  6
BYBLOCK
 62
     0
 10
27.265479
 20
11.370975
 30
0.0
 40
0.1875
  1
 REF.
 41
0.75
 72
     1
 11
27.546729
 21
11.464725
 31
0.0
 73
     2
  0
TEXT
  8
0
  6
BYBLOCK
 62
     0
 10
26.749854
 20
11.370975
 30
0.0
 40
0.1875
  1
1%%d30'
 41
0.75
 72
     1
 11
26.984229
 21
11.464725
 31
0.0
 73
     2
  0
POINT
  8
DEFPOINTS
  6
BYBLOCK
 62
     0
 10
26.027306
 20
11.558489
 30
0.0
  0
POINT
  8
DEFPOINTS
  6
BYBLOCK
 62
     0
 10
26.029071
 20
10.684216
 30
0.0
  0
POINT
  8
DEFPOINTS
  6
BYBLOCK
 62
     0
 10
26.005504
 20
9.784216
 30
0.0
  0
POINT
  8
DEFPOINTS
  6
BYBLOCK
 62
     0
 10
26.005504
 20
10.110771
 30
0.0
  0
POINT
  8
DEFPOINTS
  6
BYBLOCK
 62
     0
 10
26.005504
 20
9.784216
 30
0.0
  0
ENDBLK
  8
0
  0
BLOCK
  8
0
  2
*D24
 70
    65
 10
0.0
 20
0.0
 30
0.0
  3
*D
  0
LINE
  8
0
  6
BYBLOCK
 62
     0
 10
33.837827
 20
9.934216
 30
0.0
 11
33.555879
 21
9.934216
 31
0.0
  0
LINE
  8
0
  6
BYBLOCK
 62
     0
 10
33.837827
 20
9.784216
 30
0.0
 11
33.555879
 21
9.784216
 31
0.0
  0
LINE
  8
0
  6
BYBLOCK
 62
     0
 10
33.695379
 20
10.204216
 30
0.0
 11
33.695379
 21
10.474216
 31
0.0
  0
LINE
  8
0
  6
BYBLOCK
 62
     0
 10
33.695379
 20
9.514216
 30
0.0
 11
33.695379
 21
9.244216
 31
0.0
  0
LINE
  8
0
  6
BYBLOCK
 62
     0
 10
33.695379
 20
9.244216
 30
0.0
 11
33.425379
 21
9.244216
 31
0.0
  0
SOLID
  8
0
  6
BYBLOCK
 62
     0
 10
33.650379
 20
10.204216
 30
0.0
 11
33.740379
 21
10.204216
 31
0.0
 12
33.695379
 22
9.934216
 32
0.0
 13
33.695379
 23
9.934216
 33
0.0
  0
SOLID
  8
0
  6
BYBLOCK
 62
     0
 10
33.650379
 20
9.514216
 30
0.0
 11
33.740379
 21
9.514216
 31
0.0
 12
33.695379
 22
9.784216
 32
0.0
 13
33.695379
 23
9.784216
 33
0.0
  0
TEXT
  8
0
  6
BYBLOCK
 62
     0
 10
32.821629
 20
9.150466
 30
0.0
 40
0.1875
  1
0.150
 41
0.75
 72
     1
 11
33.056004
 21
9.244216
 31
0.0
 73
     2
  0
POINT
  8
DEFPOINTS
  6
BYBLOCK
 62
     0
 10
33.932327
 20
9.934216
 30
0.0
  0
POINT
  8
DEFPOINTS
  6
BYBLOCK
 62
     0
 10
33.932327
 20
9.784216
 30
0.0
  0
POINT
  8
DEFPOINTS
  6
BYBLOCK
 62
     0
 10
33.695379
 20
9.784216
 30
0.0
  0
ENDBLK
  8
0
  0
BLOCK
  8
0
  2
*D25
 70
    65
 10
0.0
 20
0.0
 30
0.0
  3
*D
  0
LINE
  8
0
  6
BYBLOCK
 62
     0
 10
29.850452
 20
13.044363
 30
0.0
 11
29.850452
 21
15.030735
 31
0.0
  0
LINE
  8
0
  6
BYBLOCK
 62
     0
 10
34.725452
 20
13.044363
 30
0.0
 11
34.725452
 21
15.030735
 31
0.0
  0
LINE
  8
0
  6
BYBLOCK
 62
     0
 10
30.120452
 20
14.891235
 30
0.0
 11
31.871702
 21
14.891235
 31
0.0
  0
LINE
  8
0
  6
BYBLOCK
 62
     0
 10
34.455452
 20
14.891235
 30
0.0
 11
32.704202
 21
14.891235
 31
0.0
  0
SOLID
  8
0
  6
BYBLOCK
 62
     0
 10
30.120452
 20
14.936235
 30
0.0
 11
30.120452
 21
14.846235
 31
0.0
 12
29.850452
 22
14.891235
 32
0.0
 13
29.850452
 23
14.891235
 33
0.0
  0
SOLID
  8
0
  6
BYBLOCK
 62
     0
 10
34.455452
 20
14.936235
 30
0.0
 11
34.455452
 21
14.846235
 31
0.0
 12
34.725452
 22
14.891235
 32
0.0
 13
34.725452
 23
14.891235
 33
0.0
  0
TEXT
  8
0
  6
BYBLOCK
 62
     0
 10
32.006702
 20
14.797485
 30
0.0
 40
0.1875
  1
4.875
 41
0.75
 72
     1
 11
32.287952
 21
14.891235
 31
0.0
 73
     2
  0
POINT
  8
DEFPOINTS
  6
BYBLOCK
 62
     0
 10
29.850452
 20
12.949863
 30
0.125
  0
POINT
  8
DEFPOINTS
  6
BYBLOCK
 62
     0
 10
34.725452
 20
12.949863
 30
0.125
  0
POINT
  8
DEFPOINTS
  6
BYBLOCK
 62
     0
 10
34.725452
 20
14.891235
 30
0.0
  0
ENDBLK
  8
0
  0
BLOCK
  8
0
  2
*D26
 70
    65
 10
0.0
 20
0.0
 30
0.0
  3
*D
  0
LINE
  8
0
  6
BYBLOCK
 62
     0
 10
30.037952
 20
13.044363
 30
0.0
 11
30.037952
 21
14.609235
 31
0.0
  0
LINE
  8
0
  6
BYBLOCK
 62
     0
 10
34.537952
 20
13.044363
 30
0.0
 11
34.537952
 21
14.609235
 31
0.0
  0
LINE
  8
0
  6
BYBLOCK
 62
     0
 10
30.307952
 20
14.469735
 30
0.0
 11
31.89514
 21
14.469735
 31
0.0
  0
LINE
  8
0
  6
BYBLOCK
 62
     0
 10
34.267952
 20
14.469735
 30
0.0
 11
32.680765
 21
14.469735
 31
0.0
  0
SOLID
  8
0
  6
BYBLOCK
 62
     0
 10
30.307952
 20
14.514735
 30
0.0
 11
30.307952
 21
14.424735
 31
0.0
 12
30.037952
 22
14.469735
 32
0.0
 13
30.037952
 23
14.469735
 33
0.0
  0
SOLID
  8
0
  6
BYBLOCK
 62
     0
 10
34.267952
 20
14.514735
 30
0.0
 11
34.267952
 21
14.424735
 31
0.0
 12
34.537952
 22
14.469735
 32
0.0
 13
34.537952
 23
14.469735
 33
0.0
  0
TEXT
  8
0
  6
BYBLOCK
 62
     0
 10
32.03014
 20
14.375985
 30
0.0
 40
0.1875
  1
4.500
 41
0.75
 72
     1
 11
32.287952
 21
14.469735
 31
0.0
 73
     2
  0
POINT
  8
DEFPOINTS
  6
BYBLOCK
 62
     0
 10
30.037952
 20
12.949863
 30
0.0
  0
POINT
  8
DEFPOINTS
  6
BYBLOCK
 62
     0
 10
34.537952
 20
12.949863
 30
0.0
  0
POINT
  8
DEFPOINTS
  6
BYBLOCK
 62
     0
 10
34.537952
 20
14.469735
 30
0.0
  0
ENDBLK
  8
0
  0
BLOCK
  8
0
  2
*D27
 70
    65
 10
0.0
 20
0.0
 30
0.0
  3
*D
  0
LINE
  8
0
  6
BYBLOCK
 62
     0
 10
30.037952
 20
13.044363
 30
0.0
 11
30.037952
 21
14.609235
 31
0.0
  0
LINE
  8
0
  6
BYBLOCK
 62
     0
 10
29.850452
 20
13.044363
 30
0.0
 11
29.850452
 21
14.609235
 31
0.0
  0
LINE
  8
0
  6
BYBLOCK
 62
     0
 10
30.307952
 20
14.469735
 30
0.0
 11
30.577952
 21
14.469735
 31
0.0
  0
LINE
  8
0
  6
BYBLOCK
 62
     0
 10
29.580452
 20
14.469735
 30
0.0
 11
29.310452
 21
14.469735
 31
0.0
  0
SOLID
  8
0
  6
BYBLOCK
 62
     0
 10
30.307952
 20
14.514735
 30
0.0
 11
30.307952
 21
14.424735
 31
0.0
 12
30.037952
 22
14.469735
 32
0.0
 13
30.037952
 23
14.469735
 33
0.0
  0
SOLID
  8
0
  6
BYBLOCK
 62
     0
 10
29.580452
 20
14.514735
 30
0.0
 11
29.580452
 21
14.424735
 31
0.0
 12
29.850452
 22
14.469735
 32
0.0
 13
29.850452
 23
14.469735
 33
0.0
  0
TEXT
  8
0
  6
BYBLOCK
 62
     0
 10
28.683265
 20
14.375985
 30
0.0
 40
0.1875
  1
0.188
 41
0.75
 72
     1
 11
28.929358
 21
14.469735
 31
0.0
 73
     2
  0
POINT
  8
DEFPOINTS
  6
BYBLOCK
 62
     0
 10
30.037952
 20
12.949863
 30
0.0
  0
POINT
  8
DEFPOINTS
  6
BYBLOCK
 62
     0
 10
29.850452
 20
12.949863
 30
0.0
  0
POINT
  8
DEFPOINTS
  6
BYBLOCK
 62
     0
 10
29.850452
 20
14.469735
 30
0.0
  0
ENDBLK
  8
0
  0
BLOCK
  8
0
  2
*D28
 70
    65
 10
0.0
 20
0.0
 30
0.0
  3
*D
  0
LINE
  8
0
  6
BYBLOCK
 62
     0
 10
34.632452
 20
12.949863
 30
0.0
 11
35.374386
 21
12.949863
 31
0.0
  0
LINE
  8
0
  6
BYBLOCK
 62
     0
 10
34.329824
 20
14.064735
 30
0.0
 11
35.374386
 21
14.064735
 31
0.0
  0
LINE
  8
0
  6
BYBLOCK
 62
     0
 10
35.234886
 20
12.679863
 30
0.0
 11
35.234886
 21
12.409863
 31
0.0
  0
LINE
  8
0
  6
BYBLOCK
 62
     0
 10
35.234886
 20
14.334735
 30
0.0
 11
35.234886
 21
14.604735
 31
0.0
  0
SOLID
  8
0
  6
BYBLOCK
 62
     0
 10
35.189886
 20
12.679863
 30
0.0
 11
35.279886
 21
12.679863
 31
0.0
 12
35.234886
 22
12.949863
 32
0.0
 13
35.234886
 23
12.949863
 33
0.0
  0
SOLID
  8
0
  6
BYBLOCK
 62
     0
 10
35.189886
 20
14.334735
 30
0.0
 11
35.279886
 21
14.334735
 31
0.0
 12
35.234886
 22
14.064735
 32
0.0
 13
35.234886
 23
14.064735
 33
0.0
  0
TEXT
  8
0
  6
BYBLOCK
 62
     0
 10
35.023949
 20
13.413549
 30
0.0
 40
0.1875
  1
1.115
 41
0.75
 72
     1
 11
35.234886
 21
13.507299
 31
0.0
 73
     2
  0
POINT
  8
DEFPOINTS
  6
BYBLOCK
 62
     0
 10
34.537952
 20
12.949863
 30
0.0
  0
POINT
  8
DEFPOINTS
  6
BYBLOCK
 62
     0
 10
34.235324
 20
14.064735
 30
0.0
  0
POINT
  8
DEFPOINTS
  6
BYBLOCK
 62
     0
 10
35.234886
 20
14.064735
 30
0.0
  0
ENDBLK
  8
0
  0
BLOCK
  8
0
  2
*D29
 70
    65
 10
0.0
 20
0.0
 30
0.0
  3
*D
  0
LINE
  8
0
  6
BYBLOCK
 62
     0
 10
6.384807
 20
1.971518
 30
0.0
 11
6.384807
 21
1.113561
 31
0.0
  0
LINE
  8
0
  6
BYBLOCK
 62
     0
 10
9.987843
 20
1.971518
 30
0.0
 11
9.987843
 21
1.113561
 31
0.0
  0
LINE
  8
0
  6
BYBLOCK
 62
     0
 10
6.654807
 20
1.253061
 30
0.0
 11
7.781794
 21
1.253061
 31
0.0
  0
LINE
  8
0
  6
BYBLOCK
 62
     0
 10
9.717843
 20
1.253061
 30
0.0
 11
8.590856
 21
1.253061
 31
0.0
  0
SOLID
  8
0
  6
BYBLOCK
 62
     0
 10
6.654807
 20
1.298061
 30
0.0
 11
6.654807
 21
1.208061
 31
0.0
 12
6.384807
 22
1.253061
 32
0.0
 13
6.384807
 23
1.253061
 33
0.0
  0
SOLID
  8
0
  6
BYBLOCK
 62
     0
 10
9.717843
 20
1.298061
 30
0.0
 11
9.717843
 21
1.208061
 31
0.0
 12
9.987843
 22
1.253061
 32
0.0
 13
9.987843
 23
1.253061
 33
0.0
  0
TEXT
  8
0
  6
BYBLOCK
 62
     0
 10
7.916794
 20
1.159311
 30
0.0
 40
0.1875
  1
3.603
 41
0.75
 72
     1
 11
8.186325
 21
1.253061
 31
0.0
 73
     2
  0
POINT
  8
DEFPOINTS
  6
BYBLOCK
 62
     0
 10
6.384807
 20
2.066018
 30
0.0
  0
POINT
  8
DEFPOINTS
  6
BYBLOCK
 62
     0
 10
9.987843
 20
2.066018
 30
0.0
  0
POINT
  8
DEFPOINTS
  6
BYBLOCK
 62
     0
 10
9.987843
 20
1.253061
 30
0.0
  0
ENDBLK
  8
0
  0
BLOCK
  8
0
  2
*D30
 70
    65
 10
0.0
 20
0.0
 30
0.0
  3
*D
  0
LINE
  8
0
  6
BYBLOCK
 62
     0
 10
30.459077
 20
7.625762
 30
0.0
 11
28.486702
 21
7.625762
 31
0.0
  0
LINE
  8
0
  6
BYBLOCK
 62
     0
 10
30.459077
 20
6.032012
 30
0.0
 11
28.486702
 21
6.032012
 31
0.0
  0
LINE
  8
0
  6
BYBLOCK
 62
     0
 10
28.626202
 20
7.355762
 30
0.0
 11
28.626202
 21
7.057637
 31
0.0
  0
LINE
  8
0
  6
BYBLOCK
 62
     0
 10
28.626202
 20
6.302012
 30
0.0
 11
28.626202
 21
6.600137
 31
0.0
  0
SOLID
  8
0
  6
BYBLOCK
 62
     0
 10
28.581202
 20
7.355762
 30
0.0
 11
28.671202
 21
7.355762
 31
0.0
 12
28.626202
 22
7.625762
 32
0.0
 13
28.626202
 23
7.625762
 33
0.0
  0
SOLID
  8
0
  6
BYBLOCK
 62
     0
 10
28.581202
 20
6.302012
 30
0.0
 11
28.671202
 21
6.302012
 31
0.0
 12
28.626202
 22
6.032012
 32
0.0
 13
28.626202
 23
6.032012
 33
0.0
  0
TEXT
  8
0
  6
BYBLOCK
 62
     0
 10
28.368389
 20
6.735137
 30
0.0
 40
0.1875
  1
1.594
 41
0.75
 72
     1
 11
28.626202
 21
6.828887
 31
0.0
 73
     2
  0
POINT
  8
DEFPOINTS
  6
BYBLOCK
 62
     0
 10
30.553577
 20
7.625762
 30
0.0
  0
POINT
  8
DEFPOINTS
  6
BYBLOCK
 62
     0
 10
30.553577
 20
6.032012
 30
0.0
  0
POINT
  8
DEFPOINTS
  6
BYBLOCK
 62
     0
 10
28.626202
 20
6.032012
 30
0.0
  0
ENDBLK
  8
0
  0
BLOCK
  8
0
  2
*D31
 70
    65
 10
0.0
 20
0.0
 30
0.0
  3
*D
  0
LINE
  8
0
  6
BYBLOCK
 62
     0
 10
30.459077
 20
6.032012
 30
0.0
 11
28.486702
 21
6.032012
 31
0.0
  0
LINE
  8
0
  6
BYBLOCK
 62
     0
 10
30.24608
 20
5.714015
 30
0.0
 11
28.486702
 21
5.714015
 31
0.0
  0
LINE
  8
0
  6
BYBLOCK
 62
     0
 10
28.626202
 20
6.302012
 30
0.0
 11
28.626202
 21
6.572012
 31
0.0
  0
LINE
  8
0
  6
BYBLOCK
 62
     0
 10
28.626202
 20
5.444015
 30
0.0
 11
28.626202
 21
5.174015
 31
0.0
  0
SOLID
  8
0
  6
BYBLOCK
 62
     0
 10
28.581202
 20
6.302012
 30
0.0
 11
28.671202
 21
6.302012
 31
0.0
 12
28.626202
 22
6.032012
 32
0.0
 13
28.626202
 23
6.032012
 33
0.0
  0
SOLID
  8
0
  6
BYBLOCK
 62
     0
 10
28.581202
 20
5.444015
 30
0.0
 11
28.671202
 21
5.444015
 31
0.0
 12
28.626202
 22
5.714015
 32
0.0
 13
28.626202
 23
5.714015
 33
0.0
  0
TEXT
  8
0
  6
BYBLOCK
 62
     0
 10
28.380108
 20
5.779263
 30
0.0
 40
0.1875
  1
0.318
 41
0.75
 72
     1
 11
28.626202
 21
5.873013
 31
0.0
 73
     2
  0
POINT
  8
DEFPOINTS
  6
BYBLOCK
 62
     0
 10
30.553577
 20
6.032012
 30
0.0
  0
POINT
  8
DEFPOINTS
  6
BYBLOCK
 62
     0
 10
30.34058
 20
5.714015
 30
0.0
  0
POINT
  8
DEFPOINTS
  6
BYBLOCK
 62
     0
 10
28.626202
 20
5.714015
 30
0.0
  0
ENDBLK
  8
0
  0
BLOCK
  8
0
  2
*D32
 70
    65
 10
0.0
 20
0.0
 30
0.0
  3
*D
  0
LINE
  8
0
  6
BYBLOCK
 62
     0
 10
30.391934
 20
6.228887
 30
0.0
 11
29.2274
 21
6.228887
 31
0.0
  0
LINE
  8
0
  6
BYBLOCK
 62
     0
 10
30.391934
 20
7.428887
 30
0.0
 11
29.2274
 21
7.428887
 31
0.0
  0
LINE
  8
0
  6
BYBLOCK
 62
     0
 10
29.3669
 20
5.958887
 30
0.0
 11
29.3669
 21
5.688887
 31
0.0
  0
LINE
  8
0
  6
BYBLOCK
 62
     0
 10
29.3669
 20
7.698887
 30
0.0
 11
29.3669
 21
7.968887
 31
0.0
  0
SOLID
  8
0
  6
BYBLOCK
 62
     0
 10
29.3219
 20
5.958887
 30
0.0
 11
29.4119
 21
5.958887
 31
0.0
 12
29.3669
 22
6.228887
 32
0.0
 13
29.3669
 23
6.228887
 33
0.0
  0
SOLID
  8
0
  6
BYBLOCK
 62
     0
 10
29.3219
 20
7.698887
 30
0.0
 11
29.4119
 21
7.698887
 31
0.0
 12
29.3669
 22
7.428887
 32
0.0
 13
29.3669
 23
7.428887
 33
0.0
  0
TEXT
  8
0
  6
BYBLOCK
 62
     0
 10
29.132525
 20
6.735137
 30
0.0
 40
0.1875
  1
1.200
 41
0.75
 72
     1
 11
29.3669
 21
6.828887
 31
0.0
 73
     2
  0
POINT
  8
DEFPOINTS
  6
BYBLOCK
 62
     0
 10
30.486434
 20
6.228887
 30
0.0
  0
POINT
  8
DEFPOINTS
  6
BYBLOCK
 62
     0
 10
30.486434
 20
7.428887
 30
0.0
  0
POINT
  8
DEFPOINTS
  6
BYBLOCK
 62
     0
 10
29.3669
 20
7.428887
 30
0.0
  0
ENDBLK
  8
0
  0
ENDSEC
  0
SECTION
  2
ENTITIES
  0
INSERT
  8
TITLE
  2
HBS
 10
0.0
 20
0.0
 30
0.0
 41
1.5
 42
1.5
 43
1.5
  0
TEXT
  8
TEXT
 10
7.674435
 20
14.041181
 30
0.0
 40
0.1875
  1
COVER REDUCES INSIDE HEIGHT BY 0.085.
 41
0.75
  0
TEXT
  8
TEXT
 10
7.764692
 20
0.455528
 30
0.0
 40
0.234
  1
%%uBODY
 41
0.75
 72
     4
 11
8.089367
 21
0.549128
 31
0.0
  0
TEXT
  8
TEXT
 10
7.674435
 20
12.479681
 30
0.0
 40
0.1875
  1
OPEN END DUE TO TAPER.
 41
0.75
  0
TEXT
  8
TEXT
 10
7.674435
 20
12.792181
 30
0.0
 40
0.1875
  1
DIMENSIONS INCREASE SLIGHTLY AT
 41
0.75
  0
TEXT
  8
TEXT
 10
7.674435
 20
13.104681
 30
0.0
 40
0.1875
  1
TAKEN FROM CLOSED END OF THE BOX.
 41
0.75
  0
TEXT
  8
TEXT
 10
7.674435
 20
13.417181
 30
0.0
 40
0.1875
  1
LENGTH AND WIDTH DIMENSIONS ARE
 41
0.75
  0
TEXT
  8
TEXT
 10
18.903529
 20
0.455528
 30
0.0
 40
0.234
  1
%%uCOVER
 41
0.75
 72
     4
 11
19.345204
 21
0.549128
 31
0.0
  0
TEXT
  8
TEXT
 10
0.353291
 20
14.041181
 30
0.0
 40
0.1875
  1
%%uMATERIAL:
 41
0.75
  0
TEXT
  8
TEXT
 10
0.353291
 20
10.928618
 30
0.0
 40
0.1875
  1
%%uCOLOR:%%u BLACK
 41
0.75
  0
TEXT
  8
TEXT
 10
0.760068
 20
13.416181
 30
0.0
 40
0.1875
  1
(FLAMMABILITY RATING OF 94-VO AT
 41
0.75
  0
TEXT
  8
TEXT
 10
0.813626
 20
12.791181
 30
0.0
 40
0.1875
  1
USE TEMPERATURE OF 70%%D C.)
 41
0.75
  0
TEXT
  8
TEXT
 10
0.813626
 20
13.103681
 30
0.0
 40
0.1875
  1
0.070" THICKNESS AND CONTINUOUS
 41
0.75
  0
TEXT
  8
TEXT
 10
0.503386
 20
13.728681
 30
0.0
 40
0.1875
  1
ABS THERMOPLASTIC
 41
0.75
  0
TEXT
  8
TEXT
 10
4.87725
 20
14.6565
 30
0.0
 40
0.234
  1
UTILIBOX  (STYLE E)
 41
0.75
 72
     4
 11
6.39825
 21
14.7735
 31
0.0
  0
TEXT
  8
TEXT
 10
17.21625
 20
14.6565
 30
0.0
 40
0.234
  1
CU-794-MB
 41
0.75
 72
     4
 11
17.97675
 21
14.7735
 31
0.0
  0
TEXT
  8
TEXT
 10
7.674435
 20
11.858605
 30
0.0
 40
0.1875
  1
%%UNOTE:%%U ALL DIMENSIONS HAVE %%P0.010 TOLERANCE
 41
0.75
  0
TEXT
  8
TEXT
 10
8.258728
 20
11.555042
 30
0.0
 40
0.1875
  1
UNLESS OTHERWISE SPECIFIED.
 41
0.75
  0
LINE
  8
OBJECT
 10
17.330204
 20
5.438899
 30
0.0
 11
21.360204
 21
5.438899
 31
0.0
  0
LINE
  8
OBJECT
 10
17.367204
 20
5.523899
 30
0.0
 11
19.206204
 21
5.523899
 31
0.0
  0
LINE
  8
OBJECT
 10
17.330204
 20
5.438899
 30
0.0
 11
17.330204
 21
5.508899
 31
0.0
  0
LINE
  8
OBJECT
 10
21.360204
 20
5.438899
 30
0.0
 11
21.360204
 21
5.508899
 31
0.0
  0
LINE
  8
OBJECT
 10
17.330204
 20
5.508899
 30
0.0
 11
21.360204
 21
5.508899
 31
0.0
  0
LINE
  8
OBJECT
 10
17.367204
 20
5.508899
 30
0.0
 11
17.367204
 21
5.523899
 31
0.0
  0
LINE
  8
OBJECT
 10
21.323204
 20
5.508899
 30
0.0
 11
21.323204
 21
5.523899
 31
0.0
  0
LINE
  8
OBJECT
 10
19.206204
 20
5.725899
 30
0.0
 11
19.484204
 21
5.725899
 31
0.0
  0
LINE
  8
OBJECT
 10
19.206204
 20
5.523899
 30
0.0
 11
19.206204
 21
5.725899
 31
0.0
  0
LINE
  8
OBJECT
 10
19.484204
 20
5.523899
 30
0.0
 11
19.484204
 21
5.725899
 31
0.0
  0
LINE
  8
OBJECT
 10
19.484204
 20
5.523899
 30
0.0
 11
21.323204
 21
5.523899
 31
0.0
  0
LINE
  8
OBJECT
 10
14.065866
 20
5.508899
 30
0.0
 11
16.224866
 21
5.508899
 31
0.0
  0
LINE
  8
OBJECT
 10
14.065866
 20
5.438899
 30
0.0
 11
16.224866
 21
5.438899
 31
0.0
  0
LINE
  8
OBJECT
 10
14.102866
 20
5.523899
 30
0.0
 11
16.187866
 21
5.523899
 31
0.0
  0
LINE
  8
OBJECT
 10
14.065866
 20
5.438899
 30
0.0
 11
14.065866
 21
5.508899
 31
0.0
  0
LINE
  8
OBJECT
 10
14.102866
 20
5.508899
 30
0.0
 11
14.102866
 21
5.523899
 31
0.0
  0
LINE
  8
OBJECT
 10
16.078866
 20
5.725899
 30
0.0
 11
16.187866
 21
5.725899
 31
0.0
  0
LINE
  8
OBJECT
 10
16.078866
 20
5.523899
 30
0.0
 11
16.078866
 21
5.725899
 31
0.0
  0
LINE
  8
OBJECT
 10
16.187866
 20
5.508899
 30
0.0
 11
16.187866
 21
5.725899
 31
0.0
  0
LINE
  8
OBJECT
 10
16.224866
 20
5.438899
 30
0.0
 11
16.224866
 21
5.508899
 31
0.0
  0
POLYLINE
  8
OBJECT
 66
     1
 10
0.0
 20
0.0
 30
0.0
 70
     1
  0
VERTEX
  8
OBJECT
 10
17.330204
 20
7.546146
 30
0.0
  0
VERTEX
  8
OBJECT
 10
17.330204
 20
9.611146
 30
0.0
 42
-0.414214
  0
VERTEX
  8
OBJECT
 10
17.377204
 20
9.658146
 30
0.0
  0
VERTEX
  8
OBJECT
 10
21.313204
 20
9.658146
 30
0.0
 42
-0.414214
  0
VERTEX
  8
OBJECT
 10
21.360204
 20
9.611146
 30
0.0
  0
VERTEX
  8
OBJECT
 10
21.360204
 20
7.546146
 30
0.0
 42
-0.414214
  0
VERTEX
  8
OBJECT
 10
21.313204
 20
7.499146
 30
0.0
  0
VERTEX
  8
OBJECT
 10
17.377204
 20
7.499146
 30
0.0
 42
-0.414214
  0
SEQEND
  8
OBJECT
  0
POLYLINE
  8
OBJECT
 66
     1
 10
0.0
 20
0.0
 30
0.0
 70
     1
  0
VERTEX
  8
OBJECT
 10
17.367204
 20
7.546146
 30
0.0
  0
VERTEX
  8
OBJECT
 10
17.367204
 20
9.611146
 30
0.0
 42
-0.414214
  0
VERTEX
  8
OBJECT
 10
17.377204
 20
9.621146
 30
0.0
  0
VERTEX
  8
OBJECT
 10
21.313204
 20
9.621146
 30
0.0
 42
-0.414214
  0
VERTEX
  8
OBJECT
 10
21.323204
 20
9.611146
 30
0.0
  0
VERTEX
  8
OBJECT
 10
21.323204
 20
7.546146
 30
0.0
 42
-0.414214
  0
VERTEX
  8
OBJECT
 10
21.313204
 20
7.536146
 30
0.0
  0
VERTEX
  8
OBJECT
 10
17.377204
 20
7.536146
 30
0.0
 42
-0.414214
  0
SEQEND
  8
OBJECT
  0
LINE
  8
OBJECT
 10
19.206204
 20
7.645146
 30
0.0
 11
19.484204
 21
7.645146
 31
0.0
  0
LINE
  8
OBJECT
 10
19.206204
 20
7.536146
 30
0.0
 11
19.206204
 21
7.645146
 31
0.0
  0
LINE
  8
OBJECT
 10
19.484204
 20
7.536146
 30
0.0
 11
19.484204
 21
7.645146
 31
0.0
  0
DIMENSION
  8
DIM
  2
*D8
 10
16.883801
 20
9.658146
 30
0.0
 11
16.883801
 21
8.578646
 31
0.0
 12
-2.032964
 22
-15.212075
 32
0.0
 13
17.377204
 23
7.499146
 33
0.0
 14
17.377204
 24
9.658146
 34
0.0
 50
270.0
  3
23NSTD
  0
DIMENSION
  8
DIM
  2
*D15
 10
21.360204
 20
10.483647
 30
0.0
 11
19.345204
 21
10.483647
 31
0.0
 12
-0.331733
 22
0.4606
 32
0.0
 13
17.330204
 23
9.611146
 33
0.0
 14
21.360204
 24
9.611146
 34
0.0
  3
23NSTD
  0
DIMENSION
  8
DIM
  2
*D11
 10
16.078866
 20
6.061838
 30
0.0
 11
15.169491
 21
6.061838
 31
0.0
 12
0.355865
 22
0.013872
 32
0.0
 13
16.187866
 23
5.725899
 33
0.0
 14
16.078866
 24
5.725899
 34
0.0
 50
180.0
  3
23NSTD
  0
DIMENSION
  8
DIM
  2
*D12
 10
19.206204
 20
6.061838
 30
0.0
 11
18.261673
 21
6.061838
 31
0.0
 12
-0.331733
 22
0.013872
 32
0.0
 13
19.484204
 23
5.725899
 33
0.0
 14
19.206204
 24
5.725899
 34
0.0
 50
180.0
  3
23NSTD
  0
DIMENSION
  8
DIM
  2
*D7
 10
16.847288
 20
5.438899
 30
0.0
 11
16.847288
 21
5.582399
 31
0.0
 12
-1.345365
 22
-20.366457
 32
0.0
 13
16.187866
 23
5.725899
 33
0.0
 14
16.224866
 24
5.438899
 34
0.0
 50
270.0
  3
23NSTDI
  0
DIMENSION
  8
DIM
  2
*D10
 10
21.638118
 20
5.523899
 30
0.0
 11
22.30093
 21
6.063899
 31
0.0
 12
-0.331733
 22
0.013872
 32
0.0
 13
21.360204
 23
5.438899
 33
0.0
 14
21.323204
 24
5.523899
 34
0.0
 50
90.0
  3
23NSTD
  0
DIMENSION
  8
DIM
  2
*D9
 10
20.633079
 20
7.499146
 30
0.0
 11
19.665579
 21
6.959146
 31
0.0
 12
0.397428
 22
0.4606
 32
0.0
  1
<> TYP.
 13
20.620071
 23
7.536146
 33
0.0
 14
20.620071
 24
7.499146
 34
0.0
 50
90.0
  3
23NSTD
  0
CIRCLE
  8
OBJECT
 10
17.611204
 20
9.375146
 30
0.0
 40
0.125
  0
CIRCLE
  8
OBJECT
 10
17.611204
 20
7.782146
 30
0.0
 40
0.125
  0
CIRCLE
  8
OBJECT
 10
17.611204
 20
9.375146
 30
0.0
 40
0.055
  0
CIRCLE
  8
OBJECT
 10
17.611204
 20
7.782146
 30
0.0
 40
0.055
  0
CIRCLE
  8
OBJECT
 10
21.079204
 20
7.782146
 30
0.0
 40
0.125
  0
CIRCLE
  8
OBJECT
 10
21.079204
 20
7.782146
 30
0.0
 40
0.055
  0
CIRCLE
  8
OBJECT
 10
21.079204
 20
9.375146
 30
0.0
 40
0.055
  0
CIRCLE
  8
OBJECT
 10
21.079204
 20
9.375146
 30
0.0
 40
0.125
  0
LINE
  8
OBJECT
 10
17.486204
 20
5.588899
 30
0.0
 11
17.736204
 21
5.588899
 31
0.0
  0
LINE
  8
OBJECT
 10
17.486204
 20
5.588899
 30
0.0
 11
17.486204
 21
5.523899
 31
0.0
  0
LINE
  8
OBJECT
 10
17.736204
 20
5.588899
 30
0.0
 11
17.736204
 21
5.523899
 31
0.0
  0
LINE
  8
HIDDEN
  6
HIDDEN2
 10
17.666204
 20
5.588899
 30
0.0
 11
17.666204
 21
5.519425
 31
0.0
  0
LINE
  8
HIDDEN
  6
HIDDEN2
 10
17.666204
 20
5.519425
 30
0.0
 11
17.736204
 21
5.438899
 31
0.0
  0
LINE
  8
HIDDEN
  6
HIDDEN2
 10
17.556204
 20
5.588899
 30
0.0
 11
17.556204
 21
5.519425
 31
0.0
  0
LINE
  8
HIDDEN
  6
HIDDEN2
 10
17.556204
 20
5.519425
 30
0.0
 11
17.486204
 21
5.438899
 31
0.0
  0
LINE
  8
HIDDEN
  6
HIDDEN2
 10
17.556204
 20
5.519425
 30
0.0
 11
17.666204
 21
5.519425
 31
0.0
  0
LINE
  8
HIDDEN
  6
HIDDEN2
 10
21.134204
 20
5.519425
 30
0.0
 11
21.204204
 21
5.438899
 31
0.0
  0
LINE
  8
OBJECT
 10
21.204204
 20
5.588899
 30
0.0
 11
20.954204
 21
5.588899
 31
0.0
  0
LINE
  8
OBJECT
 10
21.204204
 20
5.588899
 30
0.0
 11
21.204204
 21
5.523899
 31
0.0
  0
LINE
  8
HIDDEN
  6
HIDDEN2
 10
21.134204
 20
5.588899
 30
0.0
 11
21.134204
 21
5.519425
 31
0.0
  0
LINE
  8
HIDDEN
  6
HIDDEN2
 10
21.024204
 20
5.588899
 30
0.0
 11
21.024204
 21
5.519425
 31
0.0
  0
LINE
  8
OBJECT
 10
20.954204
 20
5.588899
 30
0.0
 11
20.954204
 21
5.523899
 31
0.0
  0
LINE
  8
HIDDEN
  6
HIDDEN2
 10
21.024204
 20
5.519425
 30
0.0
 11
20.954204
 21
5.438899
 31
0.0
  0
LINE
  8
HIDDEN
  6
HIDDEN2
 10
21.134204
 20
5.519425
 30
0.0
 11
21.024204
 21
5.519425
 31
0.0
  0
LINE
  8
HIDDEN
  6
HIDDEN2
 10
14.293866
 20
5.519425
 30
0.0
 11
14.223866
 21
5.438899
 31
0.0
  0
LINE
  8
OBJECT
 10
14.223866
 20
5.588899
 30
0.0
 11
14.473866
 21
5.588899
 31
0.0
  0
LINE
  8
OBJECT
 10
14.223866
 20
5.588899
 30
0.0
 11
14.223866
 21
5.523899
 31
0.0
  0
LINE
  8
HIDDEN
  6
HIDDEN2
 10
14.293866
 20
5.588899
 30
0.0
 11
14.293866
 21
5.519425
 31
0.0
  0
LINE
  8
HIDDEN
  6
HIDDEN2
 10
14.403866
 20
5.588899
 30
0.0
 11
14.403866
 21
5.519425
 31
0.0
  0
LINE
  8
OBJECT
 10
14.473866
 20
5.588899
 30
0.0
 11
14.473866
 21
5.523899
 31
0.0
  0
LINE
  8
HIDDEN
  6
HIDDEN2
 10
14.403866
 20
5.519425
 30
0.0
 11
14.473866
 21
5.438899
 31
0.0
  0
LINE
  8
HIDDEN
  6
HIDDEN2
 10
14.293866
 20
5.519425
 30
0.0
 11
14.403866
 21
5.519425
 31
0.0
  0
LINE
  8
HIDDEN
  6
HIDDEN2
 10
15.996866
 20
5.519425
 30
0.0
 11
16.066866
 21
5.438899
 31
0.0
  0
LINE
  8
HIDDEN
  6
HIDDEN2
 10
15.886866
 20
5.519425
 30
0.0
 11
15.816866
 21
5.438899
 31
0.0
  0
LINE
  8
OBJECT
 10
16.066866
 20
5.588899
 30
0.0
 11
15.816866
 21
5.588899
 31
0.0
  0
LINE
  8
OBJECT
 10
16.066866
 20
5.588899
 30
0.0
 11
16.066866
 21
5.523899
 31
0.0
  0
LINE
  8
HIDDEN
  6
HIDDEN2
 10
15.996866
 20
5.519425
 30
0.0
 11
15.886866
 21
5.519425
 31
0.0
  0
LINE
  8
HIDDEN
  6
HIDDEN2
 10
15.996866
 20
5.588899
 30
0.0
 11
15.996866
 21
5.519425
 31
0.0
  0
LINE
  8
HIDDEN
  6
HIDDEN2
 10
15.886866
 20
5.588899
 30
0.0
 11
15.886866
 21
5.519425
 31
0.0
  0
LINE
  8
OBJECT
 10
15.816866
 20
5.588899
 30
0.0
 11
15.816866
 21
5.523899
 31
0.0
  0
DIMENSION
  8
DIM
  2
*D14
 10
17.611204
 20
10.062147
 30
0.0
 11
19.345204
 21
10.062147
 31
0.0
 12
-0.331733
 22
0.4606
 32
0.0
 13
21.079204
 23
9.375146
 33
0.0
 14
17.611204
 24
9.375146
 34
0.0
 50
180.0
  3
23NSTD
  0
DIMENSION
  8
DIM
  2
*D13
 10
17.330204
 20
10.062147
 30
0.0
 11
16.40911
 21
10.062147
 31
0.0
 12
-0.331733
 22
0.4606
 32
0.0
 13
17.611204
 23
9.375146
 33
0.0
 14
17.330204
 24
9.611146
 34
0.0
 50
180.0
  3
23NSTD
  0
DIMENSION
  8
DIM
  2
*D4
 10
21.761819
 20
9.375146
 30
0.0
 11
21.761819
 21
8.578646
 31
0.0
 12
-2.032964
 22
-11.537783
 32
0.0
 13
21.079204
 23
7.782146
 33
0.0
 14
21.079204
 24
9.375146
 34
0.0
 50
90.0
  3
23NSTD
  0
DIMENSION
  8
DIM
  2
*D5
 10
21.761819
 20
9.658146
 30
0.0
 11
22.43635
 21
10.198146
 31
0.0
 12
-2.032964
 22
-11.537783
 32
0.0
 13
21.079204
 23
9.375146
 33
0.0
 14
21.313204
 24
9.658146
 34
0.0
 50
90.0
  3
23NSTD
  0
POLYLINE
  8
OBJECT
 66
     1
 10
0.0
 20
0.0
 30
0.0
 70
     1
  0
VERTEX
  8
OBJECT
 10
17.330204
 20
3.477263
 30
0.0
  0
VERTEX
  8
OBJECT
 10
17.330204
 20
1.411263
 30
0.0
 42
0.414214
  0
VERTEX
  8
OBJECT
 10
17.377204
 20
1.364263
 30
0.0
  0
VERTEX
  8
OBJECT
 10
21.313204
 20
1.364263
 30
0.0
 42
0.414214
  0
VERTEX
  8
OBJECT
 10
21.360204
 20
1.411263
 30
0.0
  0
VERTEX
  8
OBJECT
 10
21.360204
 20
3.477263
 30
0.0
 42
0.414214
  0
VERTEX
  8
OBJECT
 10
21.313204
 20
3.524263
 30
0.0
  0
VERTEX
  8
OBJECT
 10
17.377204
 20
3.524263
 30
0.0
 42
0.414214
  0
SEQEND
  8
OBJECT
  0
CIRCLE
  8
OBJECT
 10
21.079204
 20
3.241263
 30
0.0
 40
0.125
  0
CIRCLE
  8
OBJECT
 10
21.079204
 20
3.241263
 30
0.0
 40
0.055
  0
CIRCLE
  8
OBJECT
 10
21.079204
 20
1.647263
 30
0.0
 40
0.125
  0
CIRCLE
  8
OBJECT
 10
21.079204
 20
1.647263
 30
0.0
 40
0.055
  0
CIRCLE
  8
OBJECT
 10
17.611204
 20
3.241263
 30
0.0
 40
0.125
  0
CIRCLE
  8
OBJECT
 10
17.611204
 20
3.241263
 30
0.0
 40
0.055
  0
CIRCLE
  8
OBJECT
 10
17.611204
 20
1.647263
 30
0.0
 40
0.125
  0
CIRCLE
  8
OBJECT
 10
17.611204
 20
1.647263
 30
0.0
 40
0.055
  0
POLYLINE
  8
DIM
 66
     1
 10
0.0
 20
0.0
 30
0.0
 41
0.10125
  0
VERTEX
  8
DIM
 10
17.551351
 20
7.672407
 30
0.0
  0
VERTEX
  8
DIM
 10
17.3566
 20
7.485399
 30
0.0
 41
0.0
  0
VERTEX
  8
DIM
 10
16.933761
 20
7.079371
 30
0.0
 41
0.0
  0
VERTEX
  8
DIM
 10
16.663761
 20
7.079371
 30
0.0
 41
0.0
  0
SEQEND
  8
DIM
  0
TEXT
  8
DIM
 10
13.106886
 20
6.985621
 30
0.0
 40
0.1875
  1
0.250 DIA. BOSS x 0.065 HIGH
 41
0.75
 72
     2
 11
16.528761
 21
7.079371
 31
0.0
 73
     2
  0
TEXT
  8
DIM
 10
15.263136
 20
6.673121
 30
0.0
 40
0.1875
  1
(4) PLACES
 41
0.75
 72
     2
 11
16.528761
 21
6.766871
 31
0.0
 73
     2
  0
POLYLINE
  8
DIM
 66
     1
 10
0.0
 20
0.0
 30
0.0
 41
0.10125
  0
VERTEX
  8
DIM
 10
17.663291
 20
3.354894
 30
0.0
  0
VERTEX
  8
DIM
 10
17.828037
 20
3.568807
 30
0.0
 41
0.0
  0
VERTEX
  8
DIM
 10
18.512375
 20
4.457377
 30
0.0
 41
0.0
  0
VERTEX
  8
DIM
 10
18.782375
 20
4.457377
 30
0.0
 41
0.0
  0
SEQEND
  8
DIM
  0
TEXT
  8
DIM
 10
18.917375
 20
4.363627
 30
0.0
 40
0.1875
  1
0.110 DIA. HOLE
 41
0.75
 11
18.917375
 21
4.457377
 31
0.0
 73
     2
  0
TEXT
  8
DIM
 10
18.917375
 20
4.051127
 30
0.0
 40
0.1875
  1
& C'SINK. TO 0.250 DIA. x 82%%d
 41
0.75
 11
18.917375
 21
4.144877
 31
0.0
 73
     2
  0
TEXT
  8
DIM
 10
18.917375
 20
3.738627
 30
0.0
 40
0.1875
  1
(4) PLACES
 41
0.75
 11
18.917375
 21
3.832377
 31
0.0
 73
     2
  0
DIMENSION
  8
DIM
  2
*D1
 10
5.335426
 20
5.438899
 30
0.125
 11
4.684333
 21
4.898899
 31
0.0
 12
-24.198586
 22
-4.345316
 32
0.0
 13
5.717783
 23
5.563899
 33
0.125
 14
5.651867
 24
5.438899
 34
0.125
 50
90.0
  3
23NSTD
  0
DIMENSION
  8
DIM
  2
*D21
 10
10.120849
 20
6.743899
 30
0.0
 11
8.089367
 21
6.743899
 31
0.0
 12
-24.198586
 22
-4.345316
 32
0.0
 13
6.057885
 23
6.236648
 33
0.0
 14
10.120849
 24
6.236648
 34
0.0
  3
23NSTD
  0
LINE
  8
OBJECT
 10
6.162849
 20
6.338899
 30
0.0
 11
10.015885
 21
6.338899
 31
0.0
  0
LINE
  8
OBJECT
 10
6.036995
 20
5.438899
 30
0.0
 11
10.141738
 21
5.438899
 31
0.0
  0
LINE
  8
HIDDEN
 10
10.099892
 20
5.508899
 30
0.0
 11
6.078841
 21
5.508899
 31
0.0
  0
LINE
  8
HIDDEN
 10
6.287849
 20
6.278899
 30
0.0
 11
9.890885
 21
6.278899
 31
0.0
  0
LINE
  8
OBJECT
 10
6.057885
 20
6.236648
 30
0.0
 11
6.036995
 21
5.438899
 31
0.0
  0
LINE
  8
HIDDEN
 10
6.309992
 20
5.588899
 30
0.0
 11
6.309992
 21
6.088899
 31
0.0
  0
LINE
  8
HIDDEN
 10
6.399992
 20
5.588899
 30
0.0
 11
6.399992
 21
6.088899
 31
0.0
  0
LINE
  8
HIDDEN
 10
6.264992
 20
5.588899
 30
0.0
 11
6.258687
 21
6.268899
 31
0.0
  0
LINE
  8
HIDDEN
 10
6.444992
 20
5.588899
 30
0.0
 11
6.451296
 21
6.268899
 31
0.0
  0
LINE
  8
HIDDEN
 10
5.749367
 20
5.563899
 30
0.0
 11
5.73843
 21
5.438899
 31
0.0
  0
LINE
  8
HIDDEN
 10
6.264417
 20
5.650899
 30
0.0
 11
6.11257
 21
5.650899
 31
0.0
  0
LINE
  8
HIDDEN
 10
5.929367
 20
5.563899
 30
0.0
 11
5.940303
 21
5.438899
 31
0.0
  0
LINE
  8
HIDDEN
 10
6.444992
 20
5.588899
 30
0.0
 11
6.264992
 21
5.588899
 31
0.0
  0
LINE
  8
HIDDEN
 10
6.162849
 20
6.268899
 30
0.0
 11
6.287849
 21
6.268899
 31
0.0
  0
ARC
  8
OBJECT
 10
6.162849
 20
6.233899
 30
0.0
 40
0.105
 50
90.0
 51
178.5
  0
LINE
  8
HIDDEN
 10
6.399992
 20
6.088899
 30
0.0
 11
6.309992
 21
6.088899
 31
0.0
  0
LINE
  8
HIDDEN
 10
6.287849
 20
6.268899
 30
0.0
 11
6.287849
 21
6.278899
 31
0.0
  0
DIMENSION
  8
DIM
  2
*D3
 10
10.422725
 20
6.338899
 30
0.0
 11
11.378507
 21
6.878899
 31
0.0
 12
-24.198586
 22
-4.345316
 32
0.0
  1
<> TYP.
 13
10.015885
 23
6.268899
 33
0.0
 14
10.015885
 24
6.338899
 34
0.0
 50
90.0
  3
23NSTD
  0
LINE
  8
OBJECT
 10
10.120849
 20
6.236648
 30
0.0
 11
10.141738
 21
5.438899
 31
0.0
  0
LINE
  8
HIDDEN
 10
9.733742
 20
5.588899
 30
0.0
 11
9.727437
 21
6.268899
 31
0.0
  0
LINE
  8
HIDDEN
 10
9.913742
 20
5.588899
 30
0.0
 11
9.920046
 21
6.268899
 31
0.0
  0
LINE
  8
HIDDEN
 10
9.778742
 20
5.588899
 30
0.0
 11
9.778742
 21
6.088899
 31
0.0
  0
LINE
  8
HIDDEN
 10
9.868742
 20
5.588899
 30
0.0
 11
9.868742
 21
6.088899
 31
0.0
  0
LINE
  8
HIDDEN
 10
9.733742
 20
5.588899
 30
0.0
 11
9.913742
 21
5.588899
 31
0.0
  0
LINE
  8
HIDDEN
 10
9.914316
 20
5.650899
 30
0.0
 11
10.066163
 21
5.650899
 31
0.0
  0
LINE
  8
HIDDEN
 10
10.429367
 20
5.563899
 30
0.0
 11
10.440303
 21
5.438899
 31
0.0
  0
LINE
  8
HIDDEN
 10
10.249367
 20
5.563899
 30
0.0
 11
10.23843
 21
5.438899
 31
0.0
  0
LINE
  8
HIDDEN
 10
9.778742
 20
6.088899
 30
0.0
 11
9.868742
 21
6.088899
 31
0.0
  0
LINE
  8
HIDDEN
 10
9.890885
 20
6.268899
 30
0.0
 11
10.015885
 21
6.268899
 31
0.0
  0
LINE
  8
HIDDEN
 10
9.890885
 20
6.268899
 30
0.0
 11
9.890885
 21
6.278899
 31
0.0
  0
ARC
  8
OBJECT
 10
10.015885
 20
6.233899
 30
0.0
 40
0.105
 50
1.5
 51
90.0
  0
DIMENSION
  8
DIM
  2
*D25
 10
10.526867
 20
10.520018
 30
0.0
 11
8.089367
 21
10.520018
 31
0.0
 12
-24.198586
 22
-4.371217
 32
0.0
 13
5.651867
 23
8.578646
 33
0.125
 14
10.526867
 24
8.578646
 34
0.125
  3
23NSTD
  0
DIMENSION
  8
DIM
  2
*D26
 10
10.339367
 20
10.098518
 30
0.0
 11
8.089367
 21
10.098518
 31
0.0
 12
-24.198586
 22
-4.371217
 32
0.0
 13
5.839367
 23
8.578646
 33
0.0
 14
10.339367
 24
8.578646
 34
0.0
  3
23NSTD
  0
CIRCLE
  8
OBJECT
 10
5.839367
 20
8.578646
 30
0.0
 40
0.09375
  0
CIRCLE
  8
OBJECT
 10
10.339367
 20
8.578646
 30
0.0
 40
0.09375
  0
DIMENSION
  8
DIM
  2
*D6
 10
0.794465
 20
5.438899
 30
0.0
 11
0.794465
 21
5.888899
 31
0.0
 12
-24.68017
 22
-4.345316
 32
0.0
 13
1.451187
 23
6.338899
 33
0.125
 14
1.325334
 24
5.438899
 34
0.125
 50
90.0
  3
23NSTDI
  0
DIMENSION
  8
DIM
  2
*D22
 10
1.346223
 20
6.743899
 30
0.0
 11
2.440205
 21
6.743899
 31
0.0
 12
-24.68017
 22
-4.345316
 32
0.0
 13
3.534187
 23
6.236648
 33
0.0
 14
1.346223
 24
6.236648
 34
0.0
  3
23NSTD
  0
LINE
  8
HIDDEN
 10
3.429237
 20
6.268899
 30
0.0
 11
3.040205
 21
6.268899
 31
0.0
  0
LINE
  8
OBJECT
 10
3.429223
 20
6.338899
 30
0.0
 11
1.451187
 21
6.338899
 31
0.0
  0
LINE
  8
OBJECT
 10
3.555077
 20
5.438899
 30
0.0
 11
1.325334
 21
5.438899
 31
0.0
  0
LINE
  8
OBJECT
 10
3.551804
 20
5.563899
 30
0.0
 11
1.328607
 21
5.563899
 31
0.0
  0
LINE
  8
HIDDEN
 10
3.513231
 20
5.508899
 30
0.0
 11
1.36718
 21
5.508899
 31
0.0
  0
LINE
  8
HIDDEN
 10
1.552756
 20
5.650899
 30
0.0
 11
1.400909
 21
5.650899
 31
0.0
  0
LINE
  8
HIDDEN
 10
1.55333
 20
5.588899
 30
0.0
 11
1.547026
 21
6.268899
 31
0.0
  0
LINE
  8
HIDDEN
 10
1.840205
 20
6.268899
 30
0.0
 11
1.451174
 21
6.268899
 31
0.0
  0
ARC
  8
OBJECT
 10
1.451187
 20
6.233899
 30
0.0
 40
0.105
 50
90.0
 51
178.5
  0
LINE
  8
HIDDEN
 10
3.040205
 20
6.278899
 30
0.0
 11
1.840205
 21
6.278899
 31
0.0
  0
LINE
  8
HIDDEN
 10
1.68833
 20
5.588899
 30
0.0
 11
1.68833
 21
6.088899
 31
0.0
  0
LINE
  8
HIDDEN
 10
1.59833
 20
5.588899
 30
0.0
 11
1.59833
 21
6.088899
 31
0.0
  0
LINE
  8
HIDDEN
 10
1.73333
 20
5.588899
 30
0.0
 11
1.739635
 21
6.268899
 31
0.0
  0
LINE
  8
HIDDEN
 10
1.840205
 20
6.278899
 30
0.0
 11
1.840205
 21
6.268899
 31
0.0
  0
LINE
  8
HIDDEN
 10
1.59833
 20
6.088899
 30
0.0
 11
1.68833
 21
6.088899
 31
0.0
  0
LINE
  8
HIDDEN
 10
1.73333
 20
5.588899
 30
0.0
 11
1.55333
 21
5.588899
 31
0.0
  0
LINE
  8
HIDDEN
 10
3.040205
 20
6.278899
 30
0.0
 11
3.040205
 21
6.268899
 31
0.0
  0
LINE
  8
HIDDEN
 10
2.346455
 20
5.438899
 30
0.0
 11
2.335519
 21
5.563899
 31
0.0
  0
LINE
  8
HIDDEN
 10
2.533955
 20
5.438899
 30
0.0
 11
2.544891
 21
5.563899
 31
0.0
  0
LINE
  8
OBJECT
 10
3.534187
 20
6.236648
 30
0.0
 11
3.555077
 21
5.438899
 31
0.0
  0
LINE
  8
HIDDEN
 10
3.14708
 20
5.588899
 30
0.0
 11
3.140776
 21
6.268899
 31
0.0
  0
LINE
  8
HIDDEN
 10
3.32708
 20
5.588899
 30
0.0
 11
3.333385
 21
6.268899
 31
0.0
  0
LINE
  8
HIDDEN
 10
3.28208
 20
5.588899
 30
0.0
 11
3.28208
 21
6.088899
 31
0.0
  0
LINE
  8
HIDDEN
 10
3.19208
 20
5.588899
 30
0.0
 11
3.19208
 21
6.088899
 31
0.0
  0
ARC
  8
OBJECT
 10
3.429223
 20
6.233899
 30
0.0
 40
0.105
 50
1.5
 51
90.0
  0
LINE
  8
HIDDEN
 10
3.28208
 20
6.088899
 30
0.0
 11
3.19208
 21
6.088899
 31
0.0
  0
LINE
  8
HIDDEN
 10
3.327655
 20
5.650899
 30
0.0
 11
3.479502
 21
5.650899
 31
0.0
  0
LINE
  8
HIDDEN
 10
3.14708
 20
5.588899
 30
0.0
 11
3.32708
 21
5.588899
 31
0.0
  0
POLYLINE
  8
HIDDEN
 66
     1
 10
0.0
 20
0.0
 30
0.0
 70
     1
  0
VERTEX
  8
HIDDEN
 10
6.287849
 20
9.178646
 30
0.0
  0
VERTEX
  8
HIDDEN
 10
6.287849
 20
7.978646
 30
0.0
  0
VERTEX
  8
HIDDEN
 10
9.890885
 20
7.978646
 30
0.0
  0
VERTEX
  8
HIDDEN
 10
9.890885
 20
9.178646
 30
0.0
  0
SEQEND
  8
HIDDEN
  0
POLYLINE
  8
OBJECT
 66
     1
 10
0.0
 20
0.0
 30
0.0
  0
VERTEX
  8
OBJECT
 10
6.044081
 20
9.626438
 30
0.0
  0
VERTEX
  8
OBJECT
 10
5.664521
 20
8.64636
 30
0.0
 42
0.186876
  0
VERTEX
  8
OBJECT
 10
5.664521
 20
8.510932
 30
0.0
  0
VERTEX
  8
OBJECT
 10
6.044081
 20
7.530855
 30
0.0
  0
SEQEND
  8
OBJECT
  0
POLYLINE
  8
OBJECT
 66
     1
 10
0.0
 20
0.0
 30
0.0
 70
     1
  0
VERTEX
  8
OBJECT
 10
10.120849
 20
9.567628
 30
0.0
 42
0.414214
  0
VERTEX
  8
OBJECT
 10
10.015849
 20
9.672628
 30
0.0
  0
VERTEX
  8
OBJECT
 10
6.162885
 20
9.672628
 30
0.0
 42
0.414214
  0
VERTEX
  8
OBJECT
 10
6.057885
 20
9.567628
 30
0.0
  0
VERTEX
  8
OBJECT
 10
6.057885
 20
7.589664
 30
0.0
 42
0.414214
  0
VERTEX
  8
OBJECT
 10
6.162885
 20
7.484664
 30
0.0
  0
VERTEX
  8
OBJECT
 10
10.015849
 20
7.484664
 30
0.0
 42
0.414214
  0
VERTEX
  8
OBJECT
 10
10.120849
 20
7.589664
 30
0.0
  0
SEQEND
  8
OBJECT
  0
POLYLINE
  8
OBJECT
 66
     1
 10
0.0
 20
0.0
 30
0.0
 70
     1
  0
VERTEX
  8
OBJECT
 10
10.141738
 20
9.588518
 30
0.0
 42
0.414214
  0
VERTEX
  8
OBJECT
 10
10.036738
 20
9.693518
 30
0.0
  0
VERTEX
  8
OBJECT
 10
6.141995
 20
9.693518
 30
0.0
 42
0.414214
  0
VERTEX
  8
OBJECT
 10
6.036995
 20
9.588518
 30
0.0
  0
VERTEX
  8
OBJECT
 10
6.036995
 20
7.568774
 30
0.0
 42
0.414214
  0
VERTEX
  8
OBJECT
 10
6.141995
 20
7.463774
 30
0.0
  0
VERTEX
  8
OBJECT
 10
10.036738
 20
7.463774
 30
0.0
 42
0.414214
  0
VERTEX
  8
OBJECT
 10
10.141738
 20
7.568774
 30
0.0
  0
SEQEND
  8
OBJECT
  0
POLYLINE
  8
OBJECT
 66
     1
 10
0.0
 20
0.0
 30
0.0
  0
VERTEX
  8
OBJECT
 10
10.134652
 20
9.626438
 30
0.0
  0
VERTEX
  8
OBJECT
 10
10.514213
 20
8.64636
 30
0.0
 42
-0.186876
  0
VERTEX
  8
OBJECT
 10
10.514213
 20
8.510932
 30
0.0
  0
VERTEX
  8
OBJECT
 10
10.134652
 20
7.530855
 30
0.0
  0
SEQEND
  8
OBJECT
  0
POLYLINE
  8
OBJECT
 66
     1
 10
0.0
 20
0.0
 30
0.0
  0
VERTEX
  8
OBJECT
 10
6.040268
 20
5.563899
 30
0.0
  0
VERTEX
  8
OBJECT
 10
5.717783
 20
5.563899
 30
0.0
 42
0.388879
  0
VERTEX
  8
OBJECT
 10
5.658011
 20
5.509129
 30
0.0
  0
VERTEX
  8
OBJECT
 10
5.651867
 20
5.438899
 30
0.0
  0
VERTEX
  8
OBJECT
 10
6.036995
 20
5.438899
 30
0.0
  0
SEQEND
  8
OBJECT
  0
POLYLINE
  8
OBJECT
 66
     1
 10
0.0
 20
0.0
 30
0.0
  0
VERTEX
  8
OBJECT
 10
10.141738
 20
5.438899
 30
0.0
  0
VERTEX
  8
OBJECT
 10
10.526867
 20
5.438899
 30
0.0
  0
VERTEX
  8
OBJECT
 10
10.520722
 20
5.509129
 30
0.0
 42
0.388879
  0
VERTEX
  8
OBJECT
 10
10.460951
 20
5.563899
 30
0.0
  0
VERTEX
  8
OBJECT
 10
10.138465
 20
5.563899
 30
0.0
  0
SEQEND
  8
OBJECT
  0
POLYLINE
  8
OBJECT
 66
     1
 10
0.0
 20
0.0
 30
0.0
 70
     1
  0
VERTEX
  8
OBJECT
 10
6.287849
 20
3.044263
 30
0.0
  0
VERTEX
  8
OBJECT
 10
6.287849
 20
1.844263
 30
0.0
  0
VERTEX
  8
OBJECT
 10
9.890885
 20
1.844263
 30
0.0
  0
VERTEX
  8
OBJECT
 10
9.890885
 20
3.044263
 30
0.0
  0
SEQEND
  8
OBJECT
  0
POLYLINE
  8
OBJECT
 66
     1
 10
0.0
 20
0.0
 30
0.0
  0
VERTEX
  8
OBJECT
 10
6.131297
 20
1.401067
 30
0.0
  0
VERTEX
  8
OBJECT
 10
6.299014
 20
1.568783
 30
0.0
 42
11.979021
  0
VERTEX
  8
OBJECT
 10
6.276387
 20
1.591411
 30
0.0
  0
VERTEX
  8
OBJECT
 10
6.10867
 20
1.423694
 30
0.0
  0
SEQEND
  8
OBJECT
  0
CIRCLE
  8
OBJECT
 10
5.839367
 20
2.444263
 30
0.0
 40
0.09375
  0
CIRCLE
  8
OBJECT
 10
6.354992
 20
1.647388
 30
0.0
 40
0.045
  0
POLYLINE
  8
OBJECT
 66
     1
 10
0.0
 20
0.0
 30
0.0
  0
VERTEX
  8
OBJECT
 10
6.131297
 20
3.48746
 30
0.0
  0
VERTEX
  8
OBJECT
 10
6.299014
 20
3.319743
 30
0.0
 42
-11.979021
  0
VERTEX
  8
OBJECT
 10
6.276387
 20
3.297116
 30
0.0
  0
VERTEX
  8
OBJECT
 10
6.10867
 20
3.464833
 30
0.0
  0
SEQEND
  8
OBJECT
  0
CIRCLE
  8
OBJECT
 10
6.354992
 20
3.241138
 30
0.0
 40
0.045
  0
POLYLINE
  8
OBJECT
 66
     1
 10
0.0
 20
0.0
 30
0.0
  0
VERTEX
  8
OBJECT
 10
10.070063
 20
1.423694
 30
0.0
  0
VERTEX
  8
OBJECT
 10
9.902347
 20
1.591411
 30
0.0
 42
11.979021
  0
VERTEX
  8
OBJECT
 10
9.879719
 20
1.568783
 30
0.0
  0
VERTEX
  8
OBJECT
 10
10.047436
 20
1.401067
 30
0.0
  0
SEQEND
  8
OBJECT
  0
CIRCLE
  8
OBJECT
 10
9.823742
 20
1.647388
 30
0.0
 40
0.045
  0
CIRCLE
  8
OBJECT
 10
10.339367
 20
2.444263
 30
0.0
 40
0.09375
  0
POLYLINE
  8
OBJECT
 66
     1
 10
0.0
 20
0.0
 30
0.0
  0
VERTEX
  8
OBJECT
 10
10.070063
 20
3.464833
 30
0.0
  0
VERTEX
  8
OBJECT
 10
9.902347
 20
3.297116
 30
0.0
 42
-11.979021
  0
VERTEX
  8
OBJECT
 10
9.879719
 20
3.319743
 30
0.0
  0
VERTEX
  8
OBJECT
 10
10.047436
 20
3.48746
 30
0.0
  0
SEQEND
  8
OBJECT
  0
CIRCLE
  8
OBJECT
 10
9.823742
 20
3.241138
 30
0.0
 40
0.045
  0
DIMENSION
  8
DIM
  2
*D17
 10
9.823742
 20
3.91689
 30
0.0
 11
8.089367
 21
3.91689
 31
0.0
 12
-24.198586
 22
-5.028182
 32
0.0
 13
6.354992
 23
3.241138
 33
0.0
 14
9.823742
 24
3.241138
 34
0.0
  3
23NSTD
  0
DIMENSION
  8
DIM
  2
*D30
 10
4.427616
 20
1.647388
 30
0.0
 11
4.427616
 21
2.444263
 31
0.0
 12
-24.198586
 22
-4.384623
 32
0.0
 13
6.354992
 23
3.241138
 33
0.0
 14
6.354992
 24
1.647388
 34
0.0
 50
270.0
  3
23NSTD
  0
POLYLINE
  8
OBJECT
 66
     1
 10
0.0
 20
0.0
 30
0.0
 70
     1
  0
VERTEX
  8
OBJECT
 10
10.101738
 20
3.454135
 30
0.0
 42
0.414214
  0
VERTEX
  8
OBJECT
 10
10.036738
 20
3.519135
 30
0.0
  0
VERTEX
  8
OBJECT
 10
6.141995
 20
3.519135
 30
0.0
 42
0.414214
  0
VERTEX
  8
OBJECT
 10
6.076995
 20
3.454135
 30
0.0
  0
VERTEX
  8
OBJECT
 10
6.076995
 20
1.434392
 30
0.0
 42
0.414214
  0
VERTEX
  8
OBJECT
 10
6.141995
 20
1.369392
 30
0.0
  0
VERTEX
  8
OBJECT
 10
10.036738
 20
1.369392
 30
0.0
 42
0.414214
  0
VERTEX
  8
OBJECT
 10
10.101738
 20
1.434392
 30
0.0
  0
SEQEND
  8
OBJECT
  0
POLYLINE
  8
OBJECT
 66
     1
 10
0.0
 20
0.0
 30
0.0
 70
     1
  0
VERTEX
  8
OBJECT
 10
10.071738
 20
3.454135
 30
0.0
 42
0.414214
  0
VERTEX
  8
OBJECT
 10
10.036738
 20
3.489135
 30
0.0
  0
VERTEX
  8
OBJECT
 10
6.141995
 20
3.489135
 30
0.0
 42
0.414214
  0
VERTEX
  8
OBJECT
 10
6.106995
 20
3.454135
 30
0.0
  0
VERTEX
  8
OBJECT
 10
6.106995
 20
1.434392
 30
0.0
 42
0.414214
  0
VERTEX
  8
OBJECT
 10
6.141995
 20
1.399392
 30
0.0
  0
VERTEX
  8
OBJECT
 10
10.036738
 20
1.399392
 30
0.0
 42
0.414214
  0
VERTEX
  8
OBJECT
 10
10.071738
 20
1.434392
 30
0.0
  0
SEQEND
  8
OBJECT
  0
LINE
  8
HIDDEN
 10
6.127861
 20
6.234816
 30
0.0
 11
6.108852
 21
5.508899
 31
0.0
  0
LINE
  8
HIDDEN
 10
6.078841
 20
5.508899
 30
0.0
 11
6.076981
 21
5.437852
 31
0.0
  0
ARC
  8
HIDDEN
 10
6.162849
 20
6.233899
 30
0.0
 40
0.035
 50
90.0
 51
178.5
  0
LINE
  8
HIDDEN
 10
10.099892
 20
5.508899
 30
0.0
 11
10.101752
 21
5.437852
 31
0.0
  0
LINE
  8
HIDDEN
 10
10.050873
 20
6.234816
 30
0.0
 11
10.069881
 21
5.508899
 31
0.0
  0
ARC
  8
HIDDEN
 10
10.015885
 20
6.233899
 30
0.0
 40
0.035
 50
1.5
 51
90.0
  0
LINE
  8
HIDDEN
 10
1.416199
 20
6.234816
 30
0.0
 11
1.397191
 21
5.508899
 31
0.0
  0
ARC
  8
HIDDEN
 10
1.451187
 20
6.233899
 30
0.0
 40
0.035
 50
90.0
 51
178.5
  0
LINE
  8
HIDDEN
 10
1.36718
 20
5.508899
 30
0.0
 11
1.36532
 21
5.437852
 31
0.0
  0
LINE
  8
HIDDEN
 10
3.513231
 20
5.508899
 30
0.0
 11
3.515091
 21
5.437852
 31
0.0
  0
LINE
  8
HIDDEN
 10
3.464211
 20
6.234816
 30
0.0
 11
3.48322
 21
5.508899
 31
0.0
  0
ARC
  8
HIDDEN
 10
3.429223
 20
6.233899
 30
0.0
 40
0.035
 50
1.5
 51
90.0
  0
POLYLINE
  8
HIDDEN
 66
     1
 10
0.0
 20
0.0
 30
0.0
  0
VERTEX
  8
HIDDEN
 10
6.131297
 20
7.535449
 30
0.0
  0
VERTEX
  8
HIDDEN
 10
6.299014
 20
7.703166
 30
0.0
 42
11.979021
  0
VERTEX
  8
HIDDEN
 10
6.276387
 20
7.725793
 30
0.0
  0
VERTEX
  8
HIDDEN
 10
6.10867
 20
7.558077
 30
0.0
  0
SEQEND
  8
HIDDEN
  0
CIRCLE
  8
HIDDEN
 10
6.354992
 20
7.781771
 30
0.0
 40
0.045
  0
POLYLINE
  8
HIDDEN
 66
     1
 10
0.0
 20
0.0
 30
0.0
 70
     1
  0
VERTEX
  8
HIDDEN
 10
10.071738
 20
9.588518
 30
0.0
 42
0.414214
  0
VERTEX
  8
HIDDEN
 10
10.036738
 20
9.623518
 30
0.0
  0
VERTEX
  8
HIDDEN
 10
6.141995
 20
9.623518
 30
0.0
 42
0.414214
  0
VERTEX
  8
HIDDEN
 10
6.106995
 20
9.588518
 30
0.0
  0
VERTEX
  8
HIDDEN
 10
6.106995
 20
7.568774
 30
0.0
 42
0.414214
  0
VERTEX
  8
HIDDEN
 10
6.141995
 20
7.533774
 30
0.0
  0
VERTEX
  8
HIDDEN
 10
10.036738
 20
7.533774
 30
0.0
 42
0.414214
  0
VERTEX
  8
HIDDEN
 10
10.071738
 20
7.568774
 30
0.0
  0
SEQEND
  8
HIDDEN
  0
POLYLINE
  8
HIDDEN
 66
     1
 10
0.0
 20
0.0
 30
0.0
  0
VERTEX
  8
HIDDEN
 10
10.070063
 20
7.558077
 30
0.0
  0
VERTEX
  8
HIDDEN
 10
9.902347
 20
7.725793
 30
0.0
 42
11.979021
  0
VERTEX
  8
HIDDEN
 10
9.879719
 20
7.703166
 30
0.0
  0
VERTEX
  8
HIDDEN
 10
10.047436
 20
7.535449
 30
0.0
  0
SEQEND
  8
HIDDEN
  0
CIRCLE
  8
HIDDEN
 10
9.823742
 20
7.781771
 30
0.0
 40
0.045
  0
CIRCLE
  8
HIDDEN
 10
9.823742
 20
9.375521
 30
0.0
 40
0.045
  0
POLYLINE
  8
HIDDEN
 66
     1
 10
0.0
 20
0.0
 30
0.0
  0
VERTEX
  8
HIDDEN
 10
10.070063
 20
9.599216
 30
0.0
  0
VERTEX
  8
HIDDEN
 10
9.902347
 20
9.431499
 30
0.0
 42
-11.979021
  0
VERTEX
  8
HIDDEN
 10
9.879719
 20
9.454126
 30
0.0
  0
VERTEX
  8
HIDDEN
 10
10.047436
 20
9.621843
 30
0.0
  0
SEQEND
  8
HIDDEN
  0
POLYLINE
  8
HIDDEN
 66
     1
 10
0.0
 20
0.0
 30
0.0
  0
VERTEX
  8
HIDDEN
 10
6.131297
 20
9.621843
 30
0.0
  0
VERTEX
  8
HIDDEN
 10
6.299014
 20
9.454126
 30
0.0
 42
-11.979021
  0
VERTEX
  8
HIDDEN
 10
6.276387
 20
9.431499
 30
0.0
  0
VERTEX
  8
HIDDEN
 10
6.10867
 20
9.599216
 30
0.0
  0
SEQEND
  8
HIDDEN
  0
CIRCLE
  8
HIDDEN
 10
6.354992
 20
9.375521
 30
0.0
 40
0.045
  0
DIMENSION
  8
DIM
  2
*D19
 10
3.515091
 20
5.168899
 30
0.0
 11
2.28931
 21
5.168899
 31
0.0
 12
-24.68017
 22
-4.345316
 32
0.0
  1
<> TYP.
 13
3.555077
 23
5.438899
 33
0.0
 14
3.515091
 24
5.439947
 34
0.0
  3
23NSTD
  0
DIMENSION
  8
DIM
  2
*D23
 10
1.325334
 20
5.438899
 30
0.0
 11
2.608746
 21
7.119408
 31
0.0
 12
-24.68017
 22
-4.345316
 32
0.0
 70
   130
  1
<> REF.
 13
1.325334
 23
5.438899
 33
0.0
 14
1.325334
 24
5.765455
 34
0.0
 15
1.348901
 25
6.338899
 35
0.0
 16
1.347136
 26
7.213172
 36
0.0
  3
23NSTD
  0
LINE
  8
OBJECT
 10
1.346223
 20
6.236648
 30
0.0
 11
1.325334
 21
5.438899
 31
0.0
  0
TEXT
  8
DIM
 10
11.164283
 20
7.365048
 30
0.0
 40
0.1875
  1
(2) HOLES
 41
0.75
 11
11.164283
 21
7.458798
 31
0.0
 73
     2
  0
TEXT
  8
DIM
 10
11.164283
 20
7.677548
 30
0.0
 40
0.1875
  1
0.187 DIA. (AT TOP)
 41
0.75
 11
11.164283
 21
7.771298
 31
0.0
 73
     2
  0
POLYLINE
  8
DIM
 66
     1
 10
0.0
 20
0.0
 30
0.0
 41
0.10125
  0
VERTEX
  8
DIM
 10
10.394995
 20
8.503184
 30
0.0
  0
VERTEX
  8
DIM
 10
10.515305
 20
8.26147
 30
0.0
 41
0.0
  0
VERTEX
  8
DIM
 10
10.759283
 20
7.771298
 30
0.0
 41
0.0
  0
VERTEX
  8
DIM
 10
11.029283
 20
7.771298
 30
0.0
 41
0.0
  0
SEQEND
  8
DIM
  0
DIMENSION
  8
DIM
  6
CONTINUOUS
  2
*D28
 10
11.0363
 20
9.693518
 30
0.0
 11
11.0363
 21
9.136082
 31
0.0
 12
-24.198586
 22
-4.371217
 32
0.0
 13
10.339367
 23
8.578646
 33
0.0
 14
10.036738
 24
9.693518
 34
0.0
 50
90.0
  3
23NSTDI
  0
DIMENSION
  8
DIM
  6
CONTINUOUS
  2
*D16
 10
6.036995
 20
3.91689
 30
0.0
 11
5.115901
 21
3.91689
 31
0.0
 12
-24.198586
 22
-5.028182
 32
0.0
 13
6.354992
 23
3.241138
 33
0.0
 14
6.036995
 24
3.473757
 34
0.0
  3
23NSTD
  0
DIMENSION
  8
DIM
  6
CONTINUOUS
  2
*D31
 10
4.427616
 20
1.329392
 30
0.0
 11
4.427616
 21
1.48839
 31
0.0
 12
-24.198586
 22
-4.384623
 32
0.0
 13
6.354992
 23
1.647388
 33
0.0
 14
6.141995
 24
1.329392
 34
0.0
 50
90.0
  3
23NSTDI
  0
DIMENSION
  8
DIM
  6
CONTINUOUS
  2
*D27
 10
5.651867
 20
10.098518
 30
0.0
 11
4.730773
 21
10.098518
 31
0.0
 12
-24.198586
 22
-4.371217
 32
0.0
 13
5.839367
 23
8.578646
 33
0.0
 14
5.651867
 24
8.578646
 34
0.0
  3
23NSTD
  0
POLYLINE
  8
OBJECT
 66
     1
 10
0.0
 20
0.0
 30
0.0
  0
VERTEX
  8
OBJECT
 10
10.134652
 20
3.492055
 30
0.0
 42
0.309694
  0
VERTEX
  8
OBJECT
 10
10.036738
 20
3.559135
 30
0.0
  0
VERTEX
  8
OBJECT
 10
6.141995
 20
3.559135
 30
0.0
 42
0.309694
  0
VERTEX
  8
OBJECT
 10
6.044081
 20
3.492055
 30
0.0
  0
VERTEX
  8
OBJECT
 10
5.664521
 20
2.511977
 30
0.0
 42
0.186876
  0
VERTEX
  8
OBJECT
 10
5.664521
 20
2.37655
 30
0.0
  0
VERTEX
  8
OBJECT
 10
6.044081
 20
1.396472
 30
0.0
 42
0.309694
  0
VERTEX
  8
OBJECT
 10
6.141995
 20
1.329392
 30
0.0
  0
VERTEX
  8
OBJECT
 10
10.036738
 20
1.329392
 30
0.0
 42
0.309694
  0
VERTEX
  8
OBJECT
 10
10.134652
 20
1.396472
 30
0.0
  0
VERTEX
  8
OBJECT
 10
10.514213
 20
2.37655
 30
0.0
 42
0.186876
  0
VERTEX
  8
OBJECT
 10
10.514213
 20
2.511977
 30
0.0
  0
VERTEX
  8
OBJECT
 10
10.134652
 20
3.492055
 30
0.0
  0
SEQEND
  8
OBJECT
  0
POLYLINE
  8
HIDDEN
 66
     1
 10
0.0
 20
0.0
 30
0.0
  0
VERTEX
  8
HIDDEN
 10
6.044081
 20
3.492055
 30
0.0
 42
0.092636
  0
VERTEX
  8
HIDDEN
 10
6.036995
 20
3.454135
 30
0.0
  0
VERTEX
  8
HIDDEN
 10
6.036995
 20
1.434392
 30
0.0
 42
0.092636
  0
VERTEX
  8
HIDDEN
 10
6.044081
 20
1.396472
 30
0.0
  0
SEQEND
  8
HIDDEN
  0
POLYLINE
  8
HIDDEN
 66
     1
 10
0.0
 20
0.0
 30
0.0
  0
VERTEX
  8
HIDDEN
 10
10.134652
 20
3.492055
 30
0.0
 42
-0.092636
  0
VERTEX
  8
HIDDEN
 10
10.141738
 20
3.454135
 30
0.0
  0
VERTEX
  8
HIDDEN
 10
10.141738
 20
1.434392
 30
0.0
 42
-0.092636
  0
VERTEX
  8
HIDDEN
 10
10.134652
 20
1.396472
 30
0.0
  0
SEQEND
  8
HIDDEN
  0
DIMENSION
  8
DIM
  6
CONTINUOUS
  2
*D20
 10
3.555077
 20
4.747399
 30
0.0
 11
2.440205
 21
4.747399
 31
0.0
 12
-24.68017
 22
-4.345316
 32
0.0
 13
1.325334
 23
5.438899
 33
0.0
 14
3.555077
 24
5.438899
 34
0.0
  3
23NSTD
  0
DIMENSION
  8
DIM
  2
*D18
 10
7.662121
 20
5.438899
 30
0.0
 11
7.011027
 21
4.898899
 31
0.0
 12
-24.078015
 22
-4.345316
 32
0.0
 13
7.567621
 23
5.508899
 33
0.0
 14
7.567621
 24
5.438899
 34
0.0
 50
90.0
  3
23NSTD
  0
DIMENSION
  8
DIM
  2
*D24
 10
9.496794
 20
5.438899
 30
0.0
 11
8.857419
 21
4.898899
 31
0.0
 12
-24.198586
 22
-4.345316
 32
0.0
 13
9.733742
 23
5.588899
 33
0.0
 14
9.733742
 24
5.438899
 34
0.0
 50
90.0
  3
23NSTD
  0
POLYLINE
  8
DIM
 66
     1
 10
0.0
 20
0.0
 30
0.0
 41
0.10125
  0
VERTEX
  8
DIM
 10
9.847282
 20
3.27949
 30
0.0
  0
VERTEX
  8
DIM
 10
9.967592
 20
3.521204
 30
0.0
 41
0.0
  0
VERTEX
  8
DIM
 10
10.455548
 20
4.501549
 30
0.0
 41
0.0
  0
VERTEX
  8
DIM
 10
10.725548
 20
4.501549
 30
0.0
 41
0.0
  0
SEQEND
  8
DIM
  0
POLYLINE
  8
DIM
 66
     1
 10
0.0
 20
0.0
 30
0.0
 41
0.10125
  0
VERTEX
  8
DIM
 10
9.917962
 20
3.261987
 30
0.0
  0
VERTEX
  8
DIM
 10
10.147564
 20
3.404055
 30
0.0
 41
0.0
  0
VERTEX
  8
DIM
 10
10.744423
 20
3.773366
 30
0.0
 41
0.0
  0
VERTEX
  8
DIM
 10
11.014423
 20
3.773366
 30
0.0
 41
0.0
  0
SEQEND
  8
DIM
  0
TEXT
  8
DIM
 10
11.149423
 20
3.367116
 30
0.0
 40
0.1875
  1
(4) PLACES
 41
0.75
 11
11.149423
 21
3.460866
 31
0.0
 73
     2
  0
TEXT
  8
DIM
 10
11.149423
 20
3.679616
 30
0.0
 40
0.1875
  1
0.180 DIA. BOSS
 41
0.75
 11
11.149423
 21
3.773366
 31
0.0
 73
     2
  0
TEXT
  8
DIM
 10
10.860548
 20
4.407799
 30
0.0
 40
0.1875
  1
0.090 DIA. x 0.500 DEEP
 41
0.75
 11
10.860548
 21
4.501549
 31
0.0
 73
     2
  0
TEXT
  8
DIM
 10
10.860548
 20
4.095299
 30
0.0
 40
0.1875
  1
(4) HOLES
 41
0.75
 11
10.860548
 21
4.189049
 31
0.0
 73
     2
  0
DIMENSION
  8
DIM
  2
*D29
 10
9.890885
 20
1.031307
 30
0.0
 11
8.089367
 21
1.031307
 31
0.0
 12
-0.096959
 22
-0.221754
 32
0.0
 13
6.287849
 23
1.844263
 33
0.0
 14
9.890885
 24
1.844263
 34
0.0
  3
23NSTD
  0
DIMENSION
  8
DIM
  2
*D32
 10
5.168314
 20
3.044263
 30
0.0
 11
5.168314
 21
2.444263
 31
0.0
 12
-24.198586
 22
-4.384623
 32
0.0
 13
6.287849
 23
1.844263
 33
0.0
 14
6.287849
 24
3.044263
 34
0.0
 50
270.0
  3
23NSTDI
  0
TEXT
  8
DIM
 10
11.107054
 20
1.813364
 30
0.0
 40
0.1875
  1
RECESSED AREA 0.010 DEEP
 41
0.75
 11
11.107054
 21
1.907114
 31
0.0
 73
     2
  0
TEXT
  8
DIM
 10
11.107054
 20
1.500864
 30
0.0
 40
0.1875
  1
INSIDE TOP
 41
0.75
 11
11.107054
 21
1.594614
 31
0.0
 73
     2
  0
POLYLINE
  8
DIM
 66
     1
 10
0.0
 20
0.0
 30
0.0
 41
0.10125
  0
VERTEX
  8
DIM
 10
9.890885
 20
2.444263
 30
0.0
  0
VERTEX
  8
DIM
 10
10.116002
 20
2.295193
 30
0.0
 41
0.0
  0
VERTEX
  8
DIM
 10
10.702054
 20
1.907114
 30
0.0
 41
0.0
  0
VERTEX
  8
DIM
 10
10.972054
 20
1.907114
 30
0.0
 41
0.0
  0
SEQEND
  8
DIM
  0
TEXT
  8
TEXT
 10
14.737637
 20
14.041181
 30
0.0
 40
0.187714
  1
FOUR (4) #4 x 1/2 LG. SELF THREADING
 41
0.75
  0
TEXT
  8
TEXT
 10
14.737637
 20
13.728324
 30
0.0
 40
0.187714
  1
SCREWS WITH HI/LOW THREADS
 41
0.75
  0
TEXT
  8
TEXT
 10
14.737637
 20
13.415466
 30
0.0
 40
0.187714
  1
ARE SUPPLIED FOR MOUNTING COVER.
 41
0.75
  0
TEXT
  8
TEXT
 10
0.503386
 20
11.542181
 30
0.0
 40
0.1872
  1
COVER - SURFACES ARE SMOOTH.
 41
0.75
  0
TEXT
  8
TEXT
 10
0.503386
 20
11.853681
 30
0.0
 40
0.1875
  1
BODY - OUTSIDE SURFACES ARE TEXTURED FINISH
 41
0.75
  0
TEXT
  8
TEXT
 10
0.353291
 20
12.166181
 30
0.0
 40
0.1875
  1
%%uFINISH:
 41
0.75
  0
ENDSEC
  0
EOF
