  0
SECTION
  2
HEADER
  9
$ACADVER
  1
AC1009
  9
$INSBASE
 10
0.0
 20
0.0
 30
0.0
  9
$EXTMIN
 10
0.0
 20
0.0
 30
0.0
  9
$EXTMAX
 10
23.25
 20
15.18
 30
0.0
  9
$LIMMIN
 10
0.0
 20
0.0
  9
$LIMMAX
 10
23.25
 20
15.18
  9
$ORTHOMODE
 70
     1
  9
$REGENMODE
 70
     1
  9
$FILLMODE
 70
     1
  9
$QTEXTMODE
 70
     0
  9
$MIRRTEXT
 70
     0
  9
$DRAGMODE
 70
     2
  9
$LTSCALE
 40
0.375
  9
$OSMODE
 70
     1
  9
$ATTMODE
 70
     1
  9
$TEXTSIZE
 40
0.188
  9
$TRACEWID
 40
0.05
  9
$TEXTSTYLE
  7
TXT
  9
$CLAYER
  8
DIM
  9
$CELTYPE
  6
BYLAYER
  9
$CECOLOR
 62
   256
  9
$DIMSCALE
 40
1.5
  9
$DIMASZ
 40
0.18
  9
$DIMEXO
 40
0.063
  9
$DIMDLI
 40
0.281
  9
$DIMRND
 40
0.0
  9
$DIMDLE
 40
0.0
  9
$DIMEXE
 40
0.093
  9
$DIMTP
 40
0.0
  9
$DIMTM
 40
0.0
  9
$DIMTXT
 40
0.125
  9
$DIMCEN
 40
0.09
  9
$DIMTSZ
 40
0.0
  9
$DIMTOL
 70
     0
  9
$DIMLIM
 70
     0
  9
$DIMTIH
 70
     1
  9
$DIMTOH
 70
     1
  9
$DIMSE1
 70
     0
  9
$DIMSE2
 70
     0
  9
$DIMTAD
 70
     0
  9
$DIMZIN
 70
     0
  9
$DIMBLK
  1

  9
$DIMASO
 70
     1
  9
$DIMSHO
 70
     1
  9
$DIMPOST
  1

  9
$DIMAPOST
  1

  9
$DIMALT
 70
     0
  9
$DIMALTD
 70
     2
  9
$DIMALTF
 40
25.4
  9
$DIMLFAC
 40
1.0
  9
$DIMTOFL
 70
     0
  9
$DIMTVP
 40
0.0
  9
$DIMTIX
 70
     0
  9
$DIMSOXD
 70
     0
  9
$DIMSAH
 70
     0
  9
$DIMBLK1
  1

  9
$DIMBLK2
  1

  9
$DIMSTYLE
  2
23NSTD
  9
$DIMCLRD
 70
     0
  9
$DIMCLRE
 70
     0
  9
$DIMCLRT
 70
     0
  9
$DIMTFAC
 40
1.0
  9
$DIMGAP
 40
0.09
  9
$LUNITS
 70
     2
  9
$LUPREC
 70
     3
  9
$SKETCHINC
 40
0.1
  9
$FILLETRAD
 40
0.0
  9
$AUNITS
 70
     1
  9
$AUPREC
 70
     1
  9
$MENU
  1
acad
  9
$ELEVATION
 40
0.0
  9
$PELEVATION
 40
0.0
  9
$THICKNESS
 40
0.0
  9
$LIMCHECK
 70
     0
  9
$BLIPMODE
 70
     1
  9
$CHAMFERA
 40
0.0
  9
$CHAMFERB
 40
0.0
  9
$SKPOLY
 70
     0
  9
$TDCREATE
 40
2450757.475683333
  9
$TDUPDATE
 40
2450757.567943518
  9
$TDINDWG
 40
0.0023939815
  9
$TDUSRTIMER
 40
0.0023939815
  9
$USRTIMER
 70
     1
  9
$ANGBASE
 50
0.0
  9
$ANGDIR
 70
     0
  9
$PDMODE
 70
     0
  9
$PDSIZE
 40
0.0
  9
$PLINEWID
 40
0.0
  9
$COORDS
 70
     0
  9
$SPLFRAME
 70
     0
  9
$SPLINETYPE
 70
     6
  9
$SPLINESEGS
 70
     8
  9
$ATTDIA
 70
     0
  9
$ATTREQ
 70
     1
  9
$HANDLING
 70
     0
  9
$HANDSEED
  5
0
  9
$SURFTAB1
 70
     6
  9
$SURFTAB2
 70
     6
  9
$SURFTYPE
 70
     6
  9
$SURFU
 70
     6
  9
$SURFV
 70
     6
  9
$UCSNAME
  2

  9
$UCSORG
 10
0.0
 20
0.0
 30
0.0
  9
$UCSXDIR
 10
1.0
 20
0.0
 30
0.0
  9
$UCSYDIR
 10
0.0
 20
1.0
 30
0.0
  9
$PUCSNAME
  2

  9
$PUCSORG
 10
0.0
 20
0.0
 30
0.0
  9
$PUCSXDIR
 10
1.0
 20
0.0
 30
0.0
  9
$PUCSYDIR
 10
0.0
 20
1.0
 30
0.0
  9
$USERI1
 70
     0
  9
$USERI2
 70
     0
  9
$USERI3
 70
     0
  9
$USERI4
 70
     0
  9
$USERI5
 70
     0
  9
$USERR1
 40
0.0
  9
$USERR2
 40
0.0
  9
$USERR3
 40
0.0
  9
$USERR4
 40
0.0
  9
$USERR5
 40
0.0
  9
$WORLDVIEW
 70
     1
  9
$SHADEDGE
 70
     3
  9
$SHADEDIF
 70
    70
  9
$TILEMODE
 70
     1
  9
$MAXACTVP
 70
    16
  9
$PINSBASE
 10
-3.100979
 20
50.0
 30
10.277186
  9
$PLIMCHECK
 70
     0
  9
$PEXTMIN
 10
1.000000E+20
 20
1.000000E+20
 30
1.000000E+20
  9
$PEXTMAX
 10
-1.000000E+20
 20
-1.000000E+20
 30
-1.000000E+20
  9
$PLIMMIN
 10
0.0
 20
0.0
  9
$PLIMMAX
 10
12.0
 20
9.0
  9
$UNITMODE
 70
     0
  9
$VISRETAIN
 70
     0
  9
$PLINEGEN
 70
     0
  9
$PSLTSCALE
 70
     0
  9
$TREEDEPTH
 70
  3020
  9
$DWGCODEPAGE
  3
undefined
  0
ENDSEC
  0
SECTION
  2
TABLES
  0
TABLE
  2
VPORT
 70
     2
  0
VPORT
  2
*ACTIVE
 70
     0
 10
0.0
 20
0.0
 11
1.0
 21
1.0
 12
11.625
 22
8.533115
 13
0.0
 23
0.0
 14
1.0
 24
1.0
 15
0.25
 25
0.25
 16
0.0
 26
0.0
 36
1.0
 17
0.0
 27
0.0
 37
0.0
 40
17.06623
 41
1.36234
 42
50.0
 43
0.0
 44
0.0
 50
0.0
 51
0.0
 71
     0
 72
   100
 73
     1
 74
     0
 75
     0
 76
     0
 77
     0
 78
     0
  0
ENDTAB
  0
TABLE
  2
LTYPE
 70
     4
  0
LTYPE
  2
CONTINUOUS
 70
    64
  3
Solid line
 72
    65
 73
     0
 40
0.0
  0
LTYPE
  2
HIDDEN
 70
    64
  3
_ _ _ _ _ _ _ _ _ _ _ _ _ _ _ _ _ _ _ _ _ _ _
 72
    65
 73
     2
 40
0.375
 49
0.25
 49
-0.125
  0
LTYPE
  2
CENTER
 70
    64
  3
____ _ ____ _ ____ _ ____ _ ____ _ ____ _ ____
 72
    65
 73
     4
 40
2.0
 49
1.25
 49
-0.25
 49
0.25
 49
-0.25
  0
LTYPE
  2
PHANTOM
 70
    64
  3
_____ _ _ _____ _ _ _____ _ _ _____ _ _ ____
 72
    65
 73
     6
 40
2.5
 49
1.25
 49
-0.25
 49
0.25
 49
-0.25
 49
0.25
 49
-0.25
  0
ENDTAB
  0
TABLE
  2
LAYER
 70
     9
  0
LAYER
  2
0
 70
    64
 62
     7
  6
CONTINUOUS
  0
LAYER
  2
OBJECT
 70
    64
 62
     7
  6
CONTINUOUS
  0
LAYER
  2
DIM
 70
    64
 62
     7
  6
CONTINUOUS
  0
LAYER
  2
HIDDEN
 70
    64
 62
     7
  6
HIDDEN
  0
LAYER
  2
TEXT
 70
    64
 62
     7
  6
CONTINUOUS
  0
LAYER
  2
TITLE
 70
    64
 62
     7
  6
CONTINUOUS
  0
LAYER
  2
CENTER
 70
    64
 62
     7
  6
CENTER
  0
LAYER
  2
DEFPOINTS
 70
    64
 62
     7
  6
CONTINUOUS
  0
LAYER
  2
BEND
 70
    64
 62
     7
  6
PHANTOM
  0
ENDTAB
  0
TABLE
  2
STYLE
 70
     1
  0
STYLE
  2
TXT
 70
    64
 40
0.0
 41
0.75
 50
0.0
 71
     0
 42
0.188
  3
TXT.shx
  4

  0
ENDTAB
  0
TABLE
  2
VIEW
 70
     0
  0
ENDTAB
  0
TABLE
  2
UCS
 70
     0
  0
ENDTAB
  0
TABLE
  2
APPID
 70
     1
  0
APPID
  2
ACAD
 70
    64
  0
ENDTAB
  0
TABLE
  2
DIMSTYLE
 70
     2
  0
DIMSTYLE
  2
23NSTD
 70
    64
  3

  4

  5

  6

  7

 40
1.5
 41
0.18
 42
0.063
 43
0.281
 44
0.093
 45
0.0
 46
0.0
 47
0.0
 48
0.0
140
0.125
141
0.09
142
0.0
143
25.4
144
1.0
145
0.0
146
1.0
147
0.09
 71
     0
 72
     0
 73
     1
 74
     1
 75
     0
 76
     0
 77
     0
 78
     0
170
     0
171
     2
172
     0
173
     0
174
     0
175
     0
176
     0
177
     0
178
     0
  0
DIMSTYLE
  2
23NSTDI
 70
    64
  3

  4

  5

  6

  7

 40
1.5
 41
0.18
 42
0.063
 43
0.281
 44
0.093
 45
0.0
 46
0.0
 47
0.0
 48
0.0
140
0.125
141
0.09
142
0.0
143
25.4
144
1.0
145
0.0
146
1.0
147
0.09
 71
     0
 72
     0
 73
     1
 74
     1
 75
     0
 76
     0
 77
     0
 78
     0
170
     0
171
     2
172
     0
173
     0
174
     1
175
     0
176
     0
177
     0
178
     0
  0
ENDTAB
  0
ENDSEC
  0
SECTION
  2
BLOCKS
  0
BLOCK
  8
0
  2
HBS
 70
    64
 10
0.0
 20
0.0
 30
0.0
  3
HBS
  0
LINE
  8
TITLE
 10
0.062
 20
9.64
 30
0.0
 11
15.438
 21
9.64
 31
0.0
  0
POLYLINE
  8
TITLE
 66
     1
 10
0.0
 20
0.0
 30
0.0
 70
     1
  0
VERTEX
  8
TITLE
 10
15.5
 20
10.12
 30
0.0
  0
VERTEX
  8
TITLE
 10
15.5
 20
0.0
 30
0.0
  0
VERTEX
  8
TITLE
 10
0.0
 20
0.0
 30
0.0
  0
VERTEX
  8
TITLE
 10
0.0
 20
10.12
 30
0.0
  0
SEQEND
  8
TITLE
  0
POLYLINE
  8
TITLE
 66
     1
 10
0.0
 20
0.0
 30
0.0
 70
     1
  0
VERTEX
  8
TITLE
 10
15.438
 20
10.058
 30
0.0
  0
VERTEX
  8
TITLE
 10
15.438
 20
0.062
 30
0.0
  0
VERTEX
  8
TITLE
 10
0.062
 20
0.062
 30
0.0
  0
VERTEX
  8
TITLE
 10
0.062
 20
10.058
 30
0.0
  0
SEQEND
  8
TITLE
  0
TEXT
  8
TEXT
 10
0.207833
 20
9.680079
 30
0.0
 40
0.125
  1
NAME
 72
     1
 11
0.437
 21
9.680079
 31
0.0
  0
TEXT
  8
TEXT
 10
0.207833
 20
9.888413
 30
0.0
 40
0.125
  1
PART
 72
     1
 11
0.437
 21
9.888413
 31
0.0
  0
LINE
  8
TITLE
 10
0.812
 20
9.64
 30
0.0
 11
0.812
 21
10.058
 31
0.0
  0
TEXT
  8
TEXT
 10
7.926833
 20
9.888413
 30
0.0
 40
0.125
  1
PART
 72
     1
 11
8.156
 21
9.888413
 31
0.0
  0
TEXT
  8
TEXT
 10
8.031
 20
9.680079
 30
0.0
 40
0.125
  1
No.
 72
     1
 11
8.156
 21
9.680079
 31
0.0
  0
LINE
  8
TITLE
 10
7.781
 20
10.058
 30
0.0
 11
7.781
 21
9.64
 31
0.0
  0
LINE
  8
TITLE
 10
7.719
 20
10.058
 30
0.0
 11
7.719
 21
9.64
 31
0.0
  0
LINE
  8
TITLE
 10
8.531
 20
10.058
 30
0.0
 11
8.531
 21
9.64
 31
0.0
  0
ENDBLK
  8
0
  0
BLOCK
  8
0
  2
*D1
 70
    65
 10
0.0
 20
0.0
 30
0.0
  3
*D
  0
LINE
  8
0
  6
BYBLOCK
 62
     0
 10
10.495856
 20
22.68623
 30
0.0
 11
10.495856
 21
21.84473
 31
0.0
  0
LINE
  8
0
  6
BYBLOCK
 62
     0
 10
14.969056
 20
22.68623
 30
0.0
 11
14.969056
 21
21.84473
 31
0.0
  0
LINE
  8
0
  6
BYBLOCK
 62
     0
 10
10.765856
 20
21.98423
 30
0.0
 11
12.316206
 21
21.98423
 31
0.0
  0
LINE
  8
0
  6
BYBLOCK
 62
     0
 10
14.699056
 20
21.98423
 30
0.0
 11
13.148706
 21
21.98423
 31
0.0
  0
SOLID
  8
0
  6
BYBLOCK
 62
     0
 10
10.765856
 20
22.02923
 30
0.0
 11
10.765856
 21
21.93923
 31
0.0
 12
10.495856
 22
21.98423
 32
0.0
 13
10.495856
 23
21.98423
 33
0.0
  0
SOLID
  8
0
  6
BYBLOCK
 62
     0
 10
14.699056
 20
22.02923
 30
0.0
 11
14.699056
 21
21.93923
 31
0.0
 12
14.969056
 22
21.98423
 32
0.0
 13
14.969056
 23
21.98423
 33
0.0
  0
TEXT
  8
0
  6
BYBLOCK
 62
     0
 10
12.451206
 20
21.89048
 30
0.0
 40
0.1875
  1
4.473
 41
0.75
 72
     1
 11
12.732456
 21
21.98423
 31
0.0
 73
     2
  0
POINT
  8
DEFPOINTS
  6
BYBLOCK
 62
     0
 10
10.495856
 20
22.78073
 30
0.0
  0
POINT
  8
DEFPOINTS
  6
BYBLOCK
 62
     0
 10
14.969056
 20
22.78073
 30
0.0
  0
POINT
  8
DEFPOINTS
  6
BYBLOCK
 62
     0
 10
14.969056
 20
21.98423
 30
0.0
  0
ENDBLK
  8
0
  0
BLOCK
  8
0
  2
*D2
 70
    65
 10
0.0
 20
0.0
 30
0.0
  3
*D
  0
LINE
  8
0
  6
BYBLOCK
 62
     0
 10
10.544468
 20
24.731656
 30
0.0
 11
10.544468
 21
25.29773
 31
0.0
  0
LINE
  8
0
  6
BYBLOCK
 62
     0
 10
14.920444
 20
24.731656
 30
0.0
 11
14.920444
 21
25.29773
 31
0.0
  0
LINE
  8
0
  6
BYBLOCK
 62
     0
 10
10.814468
 20
25.15823
 30
0.0
 11
12.316206
 21
25.15823
 31
0.0
  0
LINE
  8
0
  6
BYBLOCK
 62
     0
 10
14.650444
 20
25.15823
 30
0.0
 11
13.148706
 21
25.15823
 31
0.0
  0
SOLID
  8
0
  6
BYBLOCK
 62
     0
 10
10.814468
 20
25.20323
 30
0.0
 11
10.814468
 21
25.11323
 31
0.0
 12
10.544468
 22
25.15823
 32
0.0
 13
10.544468
 23
25.15823
 33
0.0
  0
SOLID
  8
0
  6
BYBLOCK
 62
     0
 10
14.650444
 20
25.20323
 30
0.0
 11
14.650444
 21
25.11323
 31
0.0
 12
14.920444
 22
25.15823
 32
0.0
 13
14.920444
 23
25.15823
 33
0.0
  0
TEXT
  8
0
  6
BYBLOCK
 62
     0
 10
12.451206
 20
25.06448
 30
0.0
 40
0.1875
  1
4.376
 41
0.75
 72
     1
 11
12.732456
 21
25.15823
 31
0.0
 73
     2
  0
POINT
  8
DEFPOINTS
  6
BYBLOCK
 62
     0
 10
10.544468
 20
24.637156
 30
0.0
  0
POINT
  8
DEFPOINTS
  6
BYBLOCK
 62
     0
 10
14.920444
 20
24.637156
 30
0.0
  0
POINT
  8
DEFPOINTS
  6
BYBLOCK
 62
     0
 10
14.920444
 20
25.15823
 30
0.0
  0
ENDBLK
  8
0
  0
BLOCK
  8
0
  2
*D3
 70
    65
 10
0.0
 20
0.0
 30
0.0
  3
*D
  0
LINE
  8
0
  6
BYBLOCK
 62
     0
 10
10.745594
 20
26.130743
 30
0.0
 11
10.745594
 21
25.461005
 31
0.0
  0
LINE
  8
0
  6
BYBLOCK
 62
     0
 10
14.719318
 20
26.130743
 30
0.0
 11
14.719318
 21
25.461005
 31
0.0
  0
LINE
  8
0
  6
BYBLOCK
 62
     0
 10
11.015594
 20
25.600505
 30
0.0
 11
12.316206
 21
25.600505
 31
0.0
  0
LINE
  8
0
  6
BYBLOCK
 62
     0
 10
14.449318
 20
25.600505
 30
0.0
 11
13.148706
 21
25.600505
 31
0.0
  0
SOLID
  8
0
  6
BYBLOCK
 62
     0
 10
11.015594
 20
25.645505
 30
0.0
 11
11.015594
 21
25.555505
 31
0.0
 12
10.745594
 22
25.600505
 32
0.0
 13
10.745594
 23
25.600505
 33
0.0
  0
SOLID
  8
0
  6
BYBLOCK
 62
     0
 10
14.449318
 20
25.645505
 30
0.0
 11
14.449318
 21
25.555505
 31
0.0
 12
14.719318
 22
25.600505
 32
0.0
 13
14.719318
 23
25.600505
 33
0.0
  0
TEXT
  8
0
  6
BYBLOCK
 62
     0
 10
12.451206
 20
25.506755
 30
0.0
 40
0.1875
  1
3.974
 41
0.75
 72
     1
 11
12.732456
 21
25.600505
 31
0.0
 73
     2
  0
POINT
  8
DEFPOINTS
  6
BYBLOCK
 62
     0
 10
10.745594
 20
26.225243
 30
0.0
  0
POINT
  8
DEFPOINTS
  6
BYBLOCK
 62
     0
 10
14.719318
 20
26.225243
 30
0.0
  0
POINT
  8
DEFPOINTS
  6
BYBLOCK
 62
     0
 10
14.719318
 20
25.600505
 30
0.0
  0
ENDBLK
  8
0
  0
BLOCK
  8
0
  2
*D4
 70
    65
 10
0.0
 20
0.0
 30
0.0
  3
*D
  0
LINE
  8
0
  6
BYBLOCK
 62
     0
 10
14.656564
 20
20.742031
 30
0.0
 11
14.656564
 21
21.474138
 31
0.0
  0
LINE
  8
0
  6
BYBLOCK
 62
     0
 10
10.808349
 20
20.742031
 30
0.0
 11
10.808349
 21
21.474138
 31
0.0
  0
LINE
  8
0
  6
BYBLOCK
 62
     0
 10
14.386564
 20
21.334638
 30
0.0
 11
13.148706
 21
21.334638
 31
0.0
  0
LINE
  8
0
  6
BYBLOCK
 62
     0
 10
11.078349
 20
21.334638
 30
0.0
 11
12.316206
 21
21.334638
 31
0.0
  0
SOLID
  8
0
  6
BYBLOCK
 62
     0
 10
14.386564
 20
21.379638
 30
0.0
 11
14.386564
 21
21.289638
 31
0.0
 12
14.656564
 22
21.334638
 32
0.0
 13
14.656564
 23
21.334638
 33
0.0
  0
SOLID
  8
0
  6
BYBLOCK
 62
     0
 10
11.078349
 20
21.379638
 30
0.0
 11
11.078349
 21
21.289638
 31
0.0
 12
10.808349
 22
21.334638
 32
0.0
 13
10.808349
 23
21.334638
 33
0.0
  0
TEXT
  8
0
  6
BYBLOCK
 62
     0
 10
12.451206
 20
21.240888
 30
0.0
 40
0.1875
  1
3.848
 41
0.75
 72
     1
 11
12.732456
 21
21.334638
 31
0.0
 73
     2
  0
POINT
  8
DEFPOINTS
  6
BYBLOCK
 62
     0
 10
14.656564
 20
20.647531
 30
0.0
  0
POINT
  8
DEFPOINTS
  6
BYBLOCK
 62
     0
 10
10.808349
 20
20.647531
 30
0.0
  0
POINT
  8
DEFPOINTS
  6
BYBLOCK
 62
     0
 10
10.808349
 20
21.334638
 30
0.0
  0
ENDBLK
  8
0
  0
BLOCK
  8
0
  2
*D5
 70
    65
 10
0.0
 20
0.0
 30
0.0
  3
*D
  0
LINE
  8
0
  6
BYBLOCK
 62
     0
 10
10.808349
 20
20.742031
 30
0.0
 11
10.808349
 21
21.474138
 31
0.0
  0
LINE
  8
0
  6
BYBLOCK
 62
     0
 10
10.495856
 20
20.904138
 30
0.0
 11
10.495856
 21
21.474138
 31
0.0
  0
LINE
  8
0
  6
BYBLOCK
 62
     0
 10
11.078349
 20
21.334638
 30
0.0
 11
11.348349
 21
21.334638
 31
0.0
  0
LINE
  8
0
  6
BYBLOCK
 62
     0
 10
10.225856
 20
21.334638
 30
0.0
 11
9.955856
 21
21.334638
 31
0.0
  0
SOLID
  8
0
  6
BYBLOCK
 62
     0
 10
11.078349
 20
21.379638
 30
0.0
 11
11.078349
 21
21.289638
 31
0.0
 12
10.808349
 22
21.334638
 32
0.0
 13
10.808349
 23
21.334638
 33
0.0
  0
SOLID
  8
0
  6
BYBLOCK
 62
     0
 10
10.225856
 20
21.379638
 30
0.0
 11
10.225856
 21
21.289638
 31
0.0
 12
10.495856
 22
21.334638
 32
0.0
 13
10.495856
 23
21.334638
 33
0.0
  0
TEXT
  8
0
  6
BYBLOCK
 62
     0
 10
9.328669
 20
21.240888
 30
0.0
 40
0.1875
  1
0.312
 41
0.75
 72
     1
 11
9.574762
 21
21.334638
 31
0.0
 73
     2
  0
POINT
  8
DEFPOINTS
  6
BYBLOCK
 62
     0
 10
10.808349
 20
20.647531
 30
0.0
  0
POINT
  8
DEFPOINTS
  6
BYBLOCK
 62
     0
 10
10.495856
 20
20.809638
 30
0.0
  0
POINT
  8
DEFPOINTS
  6
BYBLOCK
 62
     0
 10
10.495856
 20
21.334638
 30
0.0
  0
ENDBLK
  8
0
  0
BLOCK
  8
0
  2
*D6
 70
    65
 10
0.0
 20
0.0
 30
0.0
  3
*D
  0
LINE
  8
0
  6
BYBLOCK
 62
     0
 10
7.43003
 20
24.731656
 30
0.0
 11
7.43003
 21
25.29773
 31
0.0
  0
LINE
  8
0
  6
BYBLOCK
 62
     0
 10
4.304579
 20
24.731656
 30
0.0
 11
4.304579
 21
25.29773
 31
0.0
  0
LINE
  8
0
  6
BYBLOCK
 62
     0
 10
7.16003
 20
25.15823
 30
0.0
 11
6.260117
 21
25.15823
 31
0.0
  0
LINE
  8
0
  6
BYBLOCK
 62
     0
 10
4.574579
 20
25.15823
 30
0.0
 11
5.474492
 21
25.15823
 31
0.0
  0
SOLID
  8
0
  6
BYBLOCK
 62
     0
 10
7.16003
 20
25.20323
 30
0.0
 11
7.16003
 21
25.11323
 31
0.0
 12
7.43003
 22
25.15823
 32
0.0
 13
7.43003
 23
25.15823
 33
0.0
  0
SOLID
  8
0
  6
BYBLOCK
 62
     0
 10
4.574579
 20
25.20323
 30
0.0
 11
4.574579
 21
25.11323
 31
0.0
 12
4.304579
 22
25.15823
 32
0.0
 13
4.304579
 23
25.15823
 33
0.0
  0
TEXT
  8
0
  6
BYBLOCK
 62
     0
 10
5.609492
 20
25.06448
 30
0.0
 40
0.1875
  1
3.125
 41
0.75
 72
     1
 11
5.867304
 21
25.15823
 31
0.0
 73
     2
  0
POINT
  8
DEFPOINTS
  6
BYBLOCK
 62
     0
 10
7.43003
 20
24.637156
 30
0.0
  0
POINT
  8
DEFPOINTS
  6
BYBLOCK
 62
     0
 10
4.304579
 20
24.637156
 30
0.0
  0
POINT
  8
DEFPOINTS
  6
BYBLOCK
 62
     0
 10
4.304579
 20
25.15823
 30
0.0
  0
ENDBLK
  8
0
  0
BLOCK
  8
0
  2
*D7
 70
    65
 10
0.0
 20
0.0
 30
0.0
  3
*D
  0
LINE
  8
0
  6
BYBLOCK
 62
     0
 10
7.478643
 20
22.68623
 30
0.0
 11
7.478643
 21
22.26623
 31
0.0
  0
LINE
  8
0
  6
BYBLOCK
 62
     0
 10
4.255966
 20
22.68623
 30
0.0
 11
4.255966
 21
22.26623
 31
0.0
  0
LINE
  8
0
  6
BYBLOCK
 62
     0
 10
7.208643
 20
22.40573
 30
0.0
 11
6.283554
 21
22.40573
 31
0.0
  0
LINE
  8
0
  6
BYBLOCK
 62
     0
 10
4.525966
 20
22.40573
 30
0.0
 11
5.451054
 21
22.40573
 31
0.0
  0
SOLID
  8
0
  6
BYBLOCK
 62
     0
 10
7.208643
 20
22.45073
 30
0.0
 11
7.208643
 21
22.36073
 31
0.0
 12
7.478643
 22
22.40573
 32
0.0
 13
7.478643
 23
22.40573
 33
0.0
  0
SOLID
  8
0
  6
BYBLOCK
 62
     0
 10
4.525966
 20
22.45073
 30
0.0
 11
4.525966
 21
22.36073
 31
0.0
 12
4.255966
 22
22.40573
 32
0.0
 13
4.255966
 23
22.40573
 33
0.0
  0
TEXT
  8
0
  6
BYBLOCK
 62
     0
 10
5.586054
 20
22.31198
 30
0.0
 40
0.1875
  1
3.223
 41
0.75
 72
     1
 11
5.867304
 21
22.40573
 31
0.0
 73
     2
  0
POINT
  8
DEFPOINTS
  6
BYBLOCK
 62
     0
 10
7.478643
 20
22.78073
 30
0.0
  0
POINT
  8
DEFPOINTS
  6
BYBLOCK
 62
     0
 10
4.255966
 20
22.78073
 30
0.0
  0
POINT
  8
DEFPOINTS
  6
BYBLOCK
 62
     0
 10
4.255966
 20
22.40573
 30
0.0
  0
ENDBLK
  8
0
  0
BLOCK
  8
0
  2
*D8
 70
    65
 10
0.0
 20
0.0
 30
0.0
  3
*D
  0
LINE
  8
0
  6
BYBLOCK
 62
     0
 10
4.282007
 20
23.775197
 30
0.0
 11
4.332889
 21
25.718307
 31
0.0
  0
LINE
  8
0
  6
BYBLOCK
 62
     0
 10
4.255966
 20
23.201785
 30
0.0
 11
4.255966
 21
25.719314
 31
0.0
  0
ARC
  8
0
  6
BYBLOCK
 62
     0
 10
4.255966
 20
22.78073
 30
0.0
 40
2.799085
 50
77.442197
 51
82.971099
  0
ARC
  8
0
  6
BYBLOCK
 62
     0
 10
4.255966
 20
22.78073
 30
0.0
 40
2.799085
 50
95.528901
 51
101.057803
  0
SOLID
  8
0
  6
BYBLOCK
 62
     0
 10
4.595144
 20
25.513903
 30
0.0
 11
4.601836
 21
25.603653
 31
0.0
 12
4.329238
 22
25.578855
 32
0.0
 13
4.329238
 23
25.578855
 33
0.0
  0
SOLID
  8
0
  6
BYBLOCK
 62
     0
 10
3.98411
 20
25.61174
 30
0.0
 11
3.988451
 21
25.521845
 31
0.0
 12
4.255966
 22
25.579814
 32
0.0
 13
4.255966
 23
25.579814
 33
0.0
  0
TEXT
  8
0
  6
BYBLOCK
 62
     0
 10
5.477765
 20
25.419102
 30
0.0
 40
0.1875
  1
 REF.
 41
0.75
 72
     1
 11
5.759015
 21
25.512852
 31
0.0
 73
     2
  0
TEXT
  8
0
  6
BYBLOCK
 62
     0
 10
4.96214
 20
25.419102
 30
0.0
 40
0.1875
  1
1%%d30'
 41
0.75
 72
     1
 11
5.196515
 21
25.512852
 31
0.0
 73
     2
  0
POINT
  8
DEFPOINTS
  6
BYBLOCK
 62
     0
 10
4.277769
 20
25.57973
 30
0.0
  0
POINT
  8
DEFPOINTS
  6
BYBLOCK
 62
     0
 10
4.279534
 20
23.68073
 30
0.0
  0
POINT
  8
DEFPOINTS
  6
BYBLOCK
 62
     0
 10
4.255966
 20
22.78073
 30
0.0
  0
POINT
  8
DEFPOINTS
  6
BYBLOCK
 62
     0
 10
4.255966
 20
23.107285
 30
0.0
  0
POINT
  8
DEFPOINTS
  6
BYBLOCK
 62
     0
 10
4.255966
 20
22.78073
 30
0.0
  0
ENDBLK
  8
0
  0
BLOCK
  8
0
  2
*D9
 70
    65
 10
0.0
 20
0.0
 30
0.0
  3
*D
  0
LINE
  8
0
  6
BYBLOCK
 62
     0
 10
14.836244
 20
24.032467
 30
0.0
 11
14.833417
 21
24.14043
 31
0.0
  0
LINE
  8
0
  6
BYBLOCK
 62
     0
 10
14.93621
 20
24.035085
 30
0.0
 11
14.933383
 21
24.143048
 31
0.0
  0
LINE
  8
0
  6
BYBLOCK
 62
     0
 10
14.567161
 20
23.99391
 30
0.0
 11
14.297254
 21
23.986842
 31
0.0
  0
LINE
  8
0
  6
BYBLOCK
 62
     0
 10
15.206942
 20
24.010663
 30
0.0
 11
15.476849
 21
24.017731
 31
0.0
  0
SOLID
  8
0
  6
BYBLOCK
 62
     0
 10
14.565983
 20
24.038894
 30
0.0
 11
14.568339
 21
23.948925
 31
0.0
 12
14.837069
 22
24.000978
 32
0.0
 13
14.837069
 23
24.000978
 33
0.0
  0
SOLID
  8
0
  6
BYBLOCK
 62
     0
 10
15.205764
 20
24.055648
 30
0.0
 11
15.20812
 21
23.965679
 31
0.0
 12
14.937034
 22
24.003595
 32
0.0
 13
14.937034
 23
24.003595
 33
0.0
  0
TEXT
  8
0
  6
BYBLOCK
 62
     0
 10
16.104037
 20
23.923981
 30
0.0
 40
0.1875
  1
 TYP.
 41
0.75
 72
     1
 11
16.385287
 21
24.017731
 31
0.0
 73
     2
  0
TEXT
  8
0
  6
BYBLOCK
 62
     0
 10
15.611849
 20
23.923981
 30
0.0
 40
0.1875
  1
0.100
 41
0.75
 72
     1
 11
15.834506
 21
24.017731
 31
0.0
 73
     2
  0
POINT
  8
DEFPOINTS
  6
BYBLOCK
 62
     0
 10
14.838718
 20
23.937999
 30
0.0
  0
POINT
  8
DEFPOINTS
  6
BYBLOCK
 62
     0
 10
14.938684
 20
23.940617
 30
0.0
  0
POINT
  8
DEFPOINTS
  6
BYBLOCK
 62
     0
 10
14.937034
 20
24.003595
 30
0.0
  0
ENDBLK
  8
0
  0
BLOCK
  8
0
  2
*D10
 70
    65
 10
0.0
 20
0.0
 30
0.0
  3
*D
  0
LINE
  8
0
  6
BYBLOCK
 62
     0
 10
14.471933
 20
22.89573
 30
0.0
 11
14.121923
 21
22.89573
 31
0.0
  0
LINE
  8
0
  6
BYBLOCK
 62
     0
 10
14.874556
 20
22.78073
 30
0.0
 11
14.121923
 21
22.78073
 31
0.0
  0
LINE
  8
0
  6
BYBLOCK
 62
     0
 10
14.261423
 20
23.16573
 30
0.0
 11
14.261423
 21
23.43573
 31
0.0
  0
LINE
  8
0
  6
BYBLOCK
 62
     0
 10
14.261423
 20
22.51073
 30
0.0
 11
14.261423
 21
22.24073
 31
0.0
  0
LINE
  8
0
  6
BYBLOCK
 62
     0
 10
14.261423
 20
22.24073
 30
0.0
 11
13.991423
 21
22.24073
 31
0.0
  0
SOLID
  8
0
  6
BYBLOCK
 62
     0
 10
14.216423
 20
23.16573
 30
0.0
 11
14.306423
 21
23.16573
 31
0.0
 12
14.261423
 22
22.89573
 32
0.0
 13
14.261423
 23
22.89573
 33
0.0
  0
SOLID
  8
0
  6
BYBLOCK
 62
     0
 10
14.216423
 20
22.51073
 30
0.0
 11
14.306423
 21
22.51073
 31
0.0
 12
14.261423
 22
22.78073
 32
0.0
 13
14.261423
 23
22.78073
 33
0.0
  0
TEXT
  8
0
  6
BYBLOCK
 62
     0
 10
13.411111
 20
22.14698
 30
0.0
 40
0.1875
  1
0.115
 41
0.75
 72
     1
 11
13.633767
 21
22.24073
 31
0.0
 73
     2
  0
POINT
  8
DEFPOINTS
  6
BYBLOCK
 62
     0
 10
14.566433
 20
22.89573
 30
0.0
  0
POINT
  8
DEFPOINTS
  6
BYBLOCK
 62
     0
 10
14.969056
 20
22.78073
 30
0.0
  0
POINT
  8
DEFPOINTS
  6
BYBLOCK
 62
     0
 10
14.261423
 20
22.78073
 30
0.0
  0
ENDBLK
  8
0
  0
BLOCK
  8
0
  2
*D11
 70
    65
 10
0.0
 20
0.0
 30
0.0
  3
*D
  0
LINE
  8
0
  6
BYBLOCK
 62
     0
 10
31.07879
 20
11.790389
 30
0.0
 11
31.07879
 21
11.361696
 31
0.0
  0
LINE
  8
0
  6
BYBLOCK
 62
     0
 10
31.32879
 20
11.790389
 30
0.0
 11
31.32879
 21
11.361696
 31
0.0
  0
LINE
  8
0
  6
BYBLOCK
 62
     0
 10
30.80879
 20
11.501196
 30
0.0
 11
30.53879
 21
11.501196
 31
0.0
  0
LINE
  8
0
  6
BYBLOCK
 62
     0
 10
31.59879
 20
11.501196
 30
0.0
 11
31.86879
 21
11.501196
 31
0.0
  0
SOLID
  8
0
  6
BYBLOCK
 62
     0
 10
30.80879
 20
11.546196
 30
0.0
 11
30.80879
 21
11.456196
 31
0.0
 12
31.07879
 22
11.501196
 32
0.0
 13
31.07879
 23
11.501196
 33
0.0
  0
SOLID
  8
0
  6
BYBLOCK
 62
     0
 10
31.59879
 20
11.546196
 30
0.0
 11
31.59879
 21
11.456196
 31
0.0
 12
31.32879
 22
11.501196
 32
0.0
 13
31.32879
 23
11.501196
 33
0.0
  0
TEXT
  8
0
  6
BYBLOCK
 62
     0
 10
32.00379
 20
11.407446
 30
0.0
 40
0.1875
  1
0.250
 41
0.75
 72
     1
 11
32.261602
 21
11.501196
 31
0.0
 73
     2
  0
POINT
  8
DEFPOINTS
  6
BYBLOCK
 62
     0
 10
31.07879
 20
11.884889
 30
0.0
  0
POINT
  8
DEFPOINTS
  6
BYBLOCK
 62
     0
 10
31.32879
 20
11.884889
 30
0.0
  0
POINT
  8
DEFPOINTS
  6
BYBLOCK
 62
     0
 10
31.32879
 20
11.501196
 30
0.0
  0
ENDBLK
  8
0
  0
BLOCK
  8
0
  2
*D12
 70
    65
 10
0.0
 20
0.0
 30
0.0
  3
*D
  0
LINE
  8
0
  6
BYBLOCK
 62
     0
 10
33.487147
 20
10.947903
 30
0.0
 11
34.058195
 21
10.947903
 31
0.0
  0
LINE
  8
0
  6
BYBLOCK
 62
     0
 10
33.43279
 20
11.047903
 30
0.0
 11
34.058195
 21
11.047903
 31
0.0
  0
LINE
  8
0
  6
BYBLOCK
 62
     0
 10
33.918695
 20
10.677903
 30
0.0
 11
33.918695
 21
10.407903
 31
0.0
  0
LINE
  8
0
  6
BYBLOCK
 62
     0
 10
33.918695
 20
11.317903
 30
0.0
 11
33.918695
 21
11.587903
 31
0.0
  0
LINE
  8
0
  6
BYBLOCK
 62
     0
 10
33.918695
 20
11.587903
 30
0.0
 11
34.188695
 21
11.587903
 31
0.0
  0
SOLID
  8
0
  6
BYBLOCK
 62
     0
 10
33.873695
 20
10.677903
 30
0.0
 11
33.963695
 21
10.677903
 31
0.0
 12
33.918695
 22
10.947903
 32
0.0
 13
33.918695
 23
10.947903
 33
0.0
  0
SOLID
  8
0
  6
BYBLOCK
 62
     0
 10
33.873695
 20
11.317903
 30
0.0
 11
33.963695
 21
11.317903
 31
0.0
 12
33.918695
 22
11.047903
 32
0.0
 13
33.918695
 23
11.047903
 33
0.0
  0
TEXT
  8
0
  6
BYBLOCK
 62
     0
 10
34.323695
 20
11.494153
 30
0.0
 40
0.1875
  1
0.100
 41
0.75
 72
     1
 11
34.546351
 21
11.587903
 31
0.0
 73
     2
  0
POINT
  8
DEFPOINTS
  6
BYBLOCK
 62
     0
 10
33.392647
 20
10.947903
 30
0.0
  0
POINT
  8
DEFPOINTS
  6
BYBLOCK
 62
     0
 10
33.33829
 20
11.047903
 30
0.0
  0
POINT
  8
DEFPOINTS
  6
BYBLOCK
 62
     0
 10
33.918695
 20
11.047903
 30
0.0
  0
ENDBLK
  8
0
  0
BLOCK
  8
0
  2
*D13
 70
    65
 10
0.0
 20
0.0
 30
0.0
  3
*D
  0
LINE
  8
0
  6
BYBLOCK
 62
     0
 10
27.759093
 20
11.297903
 30
0.0
 11
28.448093
 21
11.297903
 31
0.0
  0
LINE
  8
0
  6
BYBLOCK
 62
     0
 10
27.808736
 20
11.037903
 30
0.0
 11
28.448093
 21
11.037903
 31
0.0
  0
LINE
  8
0
  6
BYBLOCK
 62
     0
 10
28.308593
 20
11.567903
 30
0.0
 11
28.308593
 21
11.837903
 31
0.0
  0
LINE
  8
0
  6
BYBLOCK
 62
     0
 10
28.308593
 20
10.767903
 30
0.0
 11
28.308593
 21
10.497903
 31
0.0
  0
LINE
  8
0
  6
BYBLOCK
 62
     0
 10
28.308593
 20
10.497903
 30
0.0
 11
28.038593
 21
10.497903
 31
0.0
  0
SOLID
  8
0
  6
BYBLOCK
 62
     0
 10
28.263593
 20
11.567903
 30
0.0
 11
28.353593
 21
11.567903
 31
0.0
 12
28.308593
 22
11.297903
 32
0.0
 13
28.308593
 23
11.297903
 33
0.0
  0
SOLID
  8
0
  6
BYBLOCK
 62
     0
 10
28.263593
 20
10.767903
 30
0.0
 11
28.353593
 21
10.767903
 31
0.0
 12
28.308593
 22
11.037903
 32
0.0
 13
28.308593
 23
11.037903
 33
0.0
  0
TEXT
  8
0
  6
BYBLOCK
 62
     0
 10
27.387968
 20
10.404153
 30
0.0
 40
0.1875
  1
0.260
 41
0.75
 72
     1
 11
27.645781
 21
10.497903
 31
0.0
 73
     2
  0
POINT
  8
DEFPOINTS
  6
BYBLOCK
 62
     0
 10
27.664593
 20
11.297903
 30
0.0
  0
POINT
  8
DEFPOINTS
  6
BYBLOCK
 62
     0
 10
27.714236
 20
11.037903
 30
0.0
  0
POINT
  8
DEFPOINTS
  6
BYBLOCK
 62
     0
 10
28.308593
 20
11.037903
 30
0.0
  0
ENDBLK
  8
0
  0
BLOCK
  8
0
  2
*D14
 70
    65
 10
0.0
 20
0.0
 30
0.0
  3
*D
  0
LINE
  8
0
  6
BYBLOCK
 62
     0
 10
27.664593
 20
11.392403
 30
0.0
 11
27.664593
 21
11.727403
 31
0.0
  0
LINE
  8
0
  6
BYBLOCK
 62
     0
 10
27.569593
 20
11.392403
 30
0.0
 11
27.569593
 21
11.727403
 31
0.0
  0
LINE
  8
0
  6
BYBLOCK
 62
     0
 10
27.934593
 20
11.587903
 30
0.0
 11
28.204593
 21
11.587903
 31
0.0
  0
LINE
  8
0
  6
BYBLOCK
 62
     0
 10
27.299593
 20
11.587903
 30
0.0
 11
27.029593
 21
11.587903
 31
0.0
  0
SOLID
  8
0
  6
BYBLOCK
 62
     0
 10
27.934593
 20
11.632903
 30
0.0
 11
27.934593
 21
11.542903
 31
0.0
 12
27.664593
 22
11.587903
 32
0.0
 13
27.664593
 23
11.587903
 33
0.0
  0
SOLID
  8
0
  6
BYBLOCK
 62
     0
 10
27.299593
 20
11.632903
 30
0.0
 11
27.299593
 21
11.542903
 31
0.0
 12
27.569593
 22
11.587903
 32
0.0
 13
27.569593
 23
11.587903
 33
0.0
  0
TEXT
  8
0
  6
BYBLOCK
 62
     0
 10
26.378968
 20
11.494153
 30
0.0
 40
0.1875
  1
0.095
 41
0.75
 72
     1
 11
26.636781
 21
11.587903
 31
0.0
 73
     2
  0
POINT
  8
DEFPOINTS
  6
BYBLOCK
 62
     0
 10
27.664593
 20
11.297903
 30
0.0
  0
POINT
  8
DEFPOINTS
  6
BYBLOCK
 62
     0
 10
27.569593
 20
11.297903
 30
0.0
  0
POINT
  8
DEFPOINTS
  6
BYBLOCK
 62
     0
 10
27.569593
 20
11.587903
 30
0.0
  0
ENDBLK
  8
0
  0
BLOCK
  8
0
  2
*D15
 70
    65
 10
0.0
 20
0.0
 30
0.0
  3
*D
  0
LINE
  8
0
  6
BYBLOCK
 62
     0
 10
10.713849
 20
18.049068
 30
0.0
 11
9.776668
 21
18.049068
 31
0.0
  0
LINE
  8
0
  6
BYBLOCK
 62
     0
 10
10.551356
 20
17.736962
 30
0.0
 11
9.776668
 21
17.736962
 31
0.0
  0
LINE
  8
0
  6
BYBLOCK
 62
     0
 10
9.916168
 20
18.319068
 30
0.0
 11
9.916168
 21
18.589068
 31
0.0
  0
LINE
  8
0
  6
BYBLOCK
 62
     0
 10
9.916168
 20
17.466962
 30
0.0
 11
9.916168
 21
17.196962
 31
0.0
  0
SOLID
  8
0
  6
BYBLOCK
 62
     0
 10
9.871168
 20
18.319068
 30
0.0
 11
9.961168
 21
18.319068
 31
0.0
 12
9.916168
 22
18.049068
 32
0.0
 13
9.916168
 23
18.049068
 33
0.0
  0
SOLID
  8
0
  6
BYBLOCK
 62
     0
 10
9.871168
 20
17.466962
 30
0.0
 11
9.961168
 21
17.466962
 31
0.0
 12
9.916168
 22
17.736962
 32
0.0
 13
9.916168
 23
17.736962
 33
0.0
  0
TEXT
  8
0
  6
BYBLOCK
 62
     0
 10
9.670074
 20
17.799265
 30
0.0
 40
0.1875
  1
0.312
 41
0.75
 72
     1
 11
9.916168
 21
17.893015
 31
0.0
 73
     2
  0
POINT
  8
DEFPOINTS
  6
BYBLOCK
 62
     0
 10
10.808349
 20
18.049068
 30
0.0
  0
POINT
  8
DEFPOINTS
  6
BYBLOCK
 62
     0
 10
10.645856
 20
17.736962
 30
0.0
  0
POINT
  8
DEFPOINTS
  6
BYBLOCK
 62
     0
 10
9.916168
 20
17.736962
 30
0.0
  0
ENDBLK
  8
0
  0
BLOCK
  8
0
  2
*D16
 70
    65
 10
0.0
 20
0.0
 30
0.0
  3
*D
  0
LINE
  8
0
  6
BYBLOCK
 62
     0
 10
10.713849
 20
18.049068
 30
0.0
 11
9.776668
 21
18.049068
 31
0.0
  0
LINE
  8
0
  6
BYBLOCK
 62
     0
 10
10.713849
 20
20.647531
 30
0.0
 11
9.776668
 21
20.647531
 31
0.0
  0
LINE
  8
0
  6
BYBLOCK
 62
     0
 10
9.916168
 20
18.319068
 30
0.0
 11
9.916168
 21
19.11955
 31
0.0
  0
LINE
  8
0
  6
BYBLOCK
 62
     0
 10
9.916168
 20
20.377531
 30
0.0
 11
9.916168
 21
19.57705
 31
0.0
  0
SOLID
  8
0
  6
BYBLOCK
 62
     0
 10
9.871168
 20
18.319068
 30
0.0
 11
9.961168
 21
18.319068
 31
0.0
 12
9.916168
 22
18.049068
 32
0.0
 13
9.916168
 23
18.049068
 33
0.0
  0
SOLID
  8
0
  6
BYBLOCK
 62
     0
 10
9.871168
 20
20.377531
 30
0.0
 11
9.961168
 21
20.377531
 31
0.0
 12
9.916168
 22
20.647531
 32
0.0
 13
9.916168
 23
20.647531
 33
0.0
  0
TEXT
  8
0
  6
BYBLOCK
 62
     0
 10
9.634918
 20
19.25455
 30
0.0
 40
0.1875
  1
2.598
 41
0.75
 72
     1
 11
9.916168
 21
19.3483
 31
0.0
 73
     2
  0
POINT
  8
DEFPOINTS
  6
BYBLOCK
 62
     0
 10
10.808349
 20
18.049068
 30
0.0
  0
POINT
  8
DEFPOINTS
  6
BYBLOCK
 62
     0
 10
10.808349
 20
20.647531
 30
0.0
  0
POINT
  8
DEFPOINTS
  6
BYBLOCK
 62
     0
 10
9.916168
 20
20.647531
 30
0.0
  0
ENDBLK
  8
0
  0
BLOCK
  8
0
  2
*D17
 70
    65
 10
0.0
 20
0.0
 30
0.0
  3
*D
  0
LINE
  8
0
  6
BYBLOCK
 62
     0
 10
10.651094
 20
26.225243
 30
0.0
 11
9.776668
 21
26.225243
 31
0.0
  0
LINE
  8
0
  6
BYBLOCK
 62
     0
 10
10.651094
 20
28.948443
 30
0.0
 11
9.776668
 21
28.948443
 31
0.0
  0
LINE
  8
0
  6
BYBLOCK
 62
     0
 10
9.916168
 20
26.495243
 30
0.0
 11
9.916168
 21
27.358093
 31
0.0
  0
LINE
  8
0
  6
BYBLOCK
 62
     0
 10
9.916168
 20
28.678443
 30
0.0
 11
9.916168
 21
27.815593
 31
0.0
  0
SOLID
  8
0
  6
BYBLOCK
 62
     0
 10
9.871168
 20
26.495243
 30
0.0
 11
9.961168
 21
26.495243
 31
0.0
 12
9.916168
 22
26.225243
 32
0.0
 13
9.916168
 23
26.225243
 33
0.0
  0
SOLID
  8
0
  6
BYBLOCK
 62
     0
 10
9.871168
 20
28.678443
 30
0.0
 11
9.961168
 21
28.678443
 31
0.0
 12
9.916168
 22
28.948443
 32
0.0
 13
9.916168
 23
28.948443
 33
0.0
  0
TEXT
  8
0
  6
BYBLOCK
 62
     0
 10
9.634918
 20
27.493093
 30
0.0
 40
0.1875
  1
2.723
 41
0.75
 72
     1
 11
9.916168
 21
27.586843
 31
0.0
 73
     2
  0
POINT
  8
DEFPOINTS
  6
BYBLOCK
 62
     0
 10
10.745594
 20
26.225243
 30
0.0
  0
POINT
  8
DEFPOINTS
  6
BYBLOCK
 62
     0
 10
10.745594
 20
28.948443
 30
0.0
  0
POINT
  8
DEFPOINTS
  6
BYBLOCK
 62
     0
 10
9.916168
 20
28.948443
 30
0.0
  0
ENDBLK
  8
0
  0
BLOCK
  8
0
  2
*D18
 70
    65
 10
0.0
 20
0.0
 30
0.0
  3
*D
  0
LINE
  8
0
  6
BYBLOCK
 62
     0
 10
25.585679
 20
20.989758
 30
0.0
 11
25.585679
 21
21.715258
 31
0.0
  0
LINE
  8
0
  6
BYBLOCK
 62
     0
 10
29.433679
 20
20.989758
 30
0.0
 11
29.433679
 21
21.715258
 31
0.0
  0
LINE
  8
0
  6
BYBLOCK
 62
     0
 10
25.855679
 20
21.575758
 30
0.0
 11
27.093429
 21
21.575758
 31
0.0
  0
LINE
  8
0
  6
BYBLOCK
 62
     0
 10
29.163679
 20
21.575758
 30
0.0
 11
27.925929
 21
21.575758
 31
0.0
  0
SOLID
  8
0
  6
BYBLOCK
 62
     0
 10
25.855679
 20
21.620758
 30
0.0
 11
25.855679
 21
21.530758
 31
0.0
 12
25.585679
 22
21.575758
 32
0.0
 13
25.585679
 23
21.575758
 33
0.0
  0
SOLID
  8
0
  6
BYBLOCK
 62
     0
 10
29.163679
 20
21.620758
 30
0.0
 11
29.163679
 21
21.530758
 31
0.0
 12
29.433679
 22
21.575758
 32
0.0
 13
29.433679
 23
21.575758
 33
0.0
  0
TEXT
  8
0
  6
BYBLOCK
 62
     0
 10
27.228429
 20
21.482008
 30
0.0
 40
0.1875
  1
3.848
 41
0.75
 72
     1
 11
27.509679
 21
21.575758
 31
0.0
 73
     2
  0
POINT
  8
DEFPOINTS
  6
BYBLOCK
 62
     0
 10
25.585679
 20
20.895258
 30
0.0
  0
POINT
  8
DEFPOINTS
  6
BYBLOCK
 62
     0
 10
29.433679
 20
20.895258
 30
0.0
  0
POINT
  8
DEFPOINTS
  6
BYBLOCK
 62
     0
 10
29.433679
 20
21.575758
 30
0.0
  0
ENDBLK
  8
0
  0
BLOCK
  8
0
  2
*D19
 70
    65
 10
0.0
 20
0.0
 30
0.0
  3
*D
  0
LINE
  8
0
  6
BYBLOCK
 62
     0
 10
25.323179
 20
21.149758
 30
0.0
 11
25.323179
 21
22.136758
 31
0.0
  0
LINE
  8
0
  6
BYBLOCK
 62
     0
 10
29.696179
 20
21.149758
 30
0.0
 11
29.696179
 21
22.136758
 31
0.0
  0
LINE
  8
0
  6
BYBLOCK
 62
     0
 10
25.593179
 20
21.997258
 30
0.0
 11
27.093429
 21
21.997258
 31
0.0
  0
LINE
  8
0
  6
BYBLOCK
 62
     0
 10
29.426179
 20
21.997258
 30
0.0
 11
27.925929
 21
21.997258
 31
0.0
  0
SOLID
  8
0
  6
BYBLOCK
 62
     0
 10
25.593179
 20
22.042258
 30
0.0
 11
25.593179
 21
21.952258
 31
0.0
 12
25.323179
 22
21.997258
 32
0.0
 13
25.323179
 23
21.997258
 33
0.0
  0
SOLID
  8
0
  6
BYBLOCK
 62
     0
 10
29.426179
 20
22.042258
 30
0.0
 11
29.426179
 21
21.952258
 31
0.0
 12
29.696179
 22
21.997258
 32
0.0
 13
29.696179
 23
21.997258
 33
0.0
  0
TEXT
  8
0
  6
BYBLOCK
 62
     0
 10
27.228429
 20
21.903508
 30
0.0
 40
0.1875
  1
4.373
 41
0.75
 72
     1
 11
27.509679
 21
21.997258
 31
0.0
 73
     2
  0
POINT
  8
DEFPOINTS
  6
BYBLOCK
 62
     0
 10
25.323179
 20
21.055258
 30
0.0
  0
POINT
  8
DEFPOINTS
  6
BYBLOCK
 62
     0
 10
29.696179
 20
21.055258
 30
0.0
  0
POINT
  8
DEFPOINTS
  6
BYBLOCK
 62
     0
 10
29.696179
 20
21.997258
 30
0.0
  0
ENDBLK
  8
0
  0
BLOCK
  8
0
  2
*D20
 70
    65
 10
0.0
 20
0.0
 30
0.0
  3
*D
  0
LINE
  8
0
  6
BYBLOCK
 62
     0
 10
25.585679
 20
20.989758
 30
0.0
 11
25.585679
 21
21.715258
 31
0.0
  0
LINE
  8
0
  6
BYBLOCK
 62
     0
 10
25.323179
 20
21.149758
 30
0.0
 11
25.323179
 21
21.715258
 31
0.0
  0
LINE
  8
0
  6
BYBLOCK
 62
     0
 10
25.855679
 20
21.575758
 30
0.0
 11
26.125679
 21
21.575758
 31
0.0
  0
LINE
  8
0
  6
BYBLOCK
 62
     0
 10
25.053179
 20
21.575758
 30
0.0
 11
24.783179
 21
21.575758
 31
0.0
  0
SOLID
  8
0
  6
BYBLOCK
 62
     0
 10
25.855679
 20
21.620758
 30
0.0
 11
25.855679
 21
21.530758
 31
0.0
 12
25.585679
 22
21.575758
 32
0.0
 13
25.585679
 23
21.575758
 33
0.0
  0
SOLID
  8
0
  6
BYBLOCK
 62
     0
 10
25.053179
 20
21.620758
 30
0.0
 11
25.053179
 21
21.530758
 31
0.0
 12
25.323179
 22
21.575758
 32
0.0
 13
25.323179
 23
21.575758
 33
0.0
  0
TEXT
  8
0
  6
BYBLOCK
 62
     0
 10
24.109117
 20
21.482008
 30
0.0
 40
0.1875
  1
0.263
 41
0.75
 72
     1
 11
24.378648
 21
21.575758
 31
0.0
 73
     2
  0
POINT
  8
DEFPOINTS
  6
BYBLOCK
 62
     0
 10
25.585679
 20
20.895258
 30
0.0
  0
POINT
  8
DEFPOINTS
  6
BYBLOCK
 62
     0
 10
25.323179
 20
21.055258
 30
0.0
  0
POINT
  8
DEFPOINTS
  6
BYBLOCK
 62
     0
 10
25.323179
 20
21.575758
 30
0.0
  0
ENDBLK
  8
0
  0
BLOCK
  8
0
  2
*D21
 70
    65
 10
0.0
 20
0.0
 30
0.0
  3
*D
  0
LINE
  8
0
  6
BYBLOCK
 62
     0
 10
10.495856
 20
22.68623
 30
0.0
 11
10.495856
 21
22.26623
 31
0.0
  0
LINE
  8
0
  6
BYBLOCK
 62
     0
 10
10.543238
 20
22.68623
 30
0.0
 11
10.543238
 21
22.26623
 31
0.0
  0
LINE
  8
0
  6
BYBLOCK
 62
     0
 10
10.225856
 20
22.40573
 30
0.0
 11
9.955856
 21
22.40573
 31
0.0
  0
LINE
  8
0
  6
BYBLOCK
 62
     0
 10
10.813238
 20
22.40573
 30
0.0
 11
11.083238
 21
22.40573
 31
0.0
  0
SOLID
  8
0
  6
BYBLOCK
 62
     0
 10
10.225856
 20
22.45073
 30
0.0
 11
10.225856
 21
22.36073
 31
0.0
 12
10.495856
 22
22.40573
 32
0.0
 13
10.495856
 23
22.40573
 33
0.0
  0
SOLID
  8
0
  6
BYBLOCK
 62
     0
 10
10.813238
 20
22.45073
 30
0.0
 11
10.813238
 21
22.36073
 31
0.0
 12
10.543238
 22
22.40573
 32
0.0
 13
10.543238
 23
22.40573
 33
0.0
  0
TEXT
  8
0
  6
BYBLOCK
 62
     0
 10
11.780738
 20
22.31198
 30
0.0
 40
0.1875
  1
 TYP.
 41
0.75
 72
     1
 11
12.061988
 21
22.40573
 31
0.0
 73
     2
  0
TEXT
  8
0
  6
BYBLOCK
 62
     0
 10
11.218238
 20
22.31198
 30
0.0
 40
0.1875
  1
0.047
 41
0.75
 72
     1
 11
11.47605
 21
22.40573
 31
0.0
 73
     2
  0
POINT
  8
DEFPOINTS
  6
BYBLOCK
 62
     0
 10
10.495856
 20
22.78073
 30
0.0
  0
POINT
  8
DEFPOINTS
  6
BYBLOCK
 62
     0
 10
10.543238
 20
22.78073
 30
0.0
  0
POINT
  8
DEFPOINTS
  6
BYBLOCK
 62
     0
 10
10.543238
 20
22.40573
 30
0.0
  0
ENDBLK
  8
0
  0
BLOCK
  8
0
  2
*D22
 70
    65
 10
0.0
 20
0.0
 30
0.0
  3
*D
  0
LINE
  8
0
  6
BYBLOCK
 62
     0
 10
15.063556
 20
22.78073
 30
0.0
 11
15.55802
 21
22.78073
 31
0.0
  0
LINE
  8
0
  6
BYBLOCK
 62
     0
 10
15.058659
 20
22.96773
 30
0.0
 11
15.55802
 21
22.96773
 31
0.0
  0
LINE
  8
0
  6
BYBLOCK
 62
     0
 10
15.41852
 20
22.51073
 30
0.0
 11
15.41852
 21
22.24073
 31
0.0
  0
LINE
  8
0
  6
BYBLOCK
 62
     0
 10
15.41852
 20
23.23773
 30
0.0
 11
15.41852
 21
23.50773
 31
0.0
  0
LINE
  8
0
  6
BYBLOCK
 62
     0
 10
15.41852
 20
23.50773
 30
0.0
 11
15.68852
 21
23.50773
 31
0.0
  0
SOLID
  8
0
  6
BYBLOCK
 62
     0
 10
15.37352
 20
22.51073
 30
0.0
 11
15.46352
 21
22.51073
 31
0.0
 12
15.41852
 22
22.78073
 32
0.0
 13
15.41852
 23
22.78073
 33
0.0
  0
SOLID
  8
0
  6
BYBLOCK
 62
     0
 10
15.37352
 20
23.23773
 30
0.0
 11
15.46352
 21
23.23773
 31
0.0
 12
15.41852
 22
22.96773
 32
0.0
 13
15.41852
 23
22.96773
 33
0.0
  0
TEXT
  8
0
  6
BYBLOCK
 62
     0
 10
16.362583
 20
23.41398
 30
0.0
 40
0.1875
  1
 POLISHED BAND
 41
0.75
 72
     1
 11
17.300083
 21
23.50773
 31
0.0
 73
     2
  0
TEXT
  8
0
  6
BYBLOCK
 62
     0
 10
15.82352
 20
23.41398
 30
0.0
 40
0.1875
  1
0.187
 41
0.75
 72
     1
 11
16.069614
 21
23.50773
 31
0.0
 73
     2
  0
POINT
  8
DEFPOINTS
  6
BYBLOCK
 62
     0
 10
14.969056
 20
22.78073
 30
0.0
  0
POINT
  8
DEFPOINTS
  6
BYBLOCK
 62
     0
 10
14.964159
 20
22.96773
 30
0.0
  0
POINT
  8
DEFPOINTS
  6
BYBLOCK
 62
     0
 10
15.41852
 20
22.96773
 30
0.0
  0
ENDBLK
  8
0
  0
BLOCK
  8
0
  2
*D23
 70
    65
 10
0.0
 20
0.0
 30
0.0
  3
*D
  0
LINE
  8
0
  6
BYBLOCK
 62
     0
 10
17.121151
 20
26.223446
 30
0.0
 11
17.121151
 21
26.083946
 31
0.0
  0
LINE
  8
0
  6
BYBLOCK
 62
     0
 10
17.069151
 20
26.223446
 30
0.0
 11
17.069151
 21
26.083946
 31
0.0
  0
LINE
  8
0
  6
BYBLOCK
 62
     0
 10
17.391151
 20
26.223446
 30
0.0
 11
17.661151
 21
26.223446
 31
0.0
  0
LINE
  8
0
  6
BYBLOCK
 62
     0
 10
16.799151
 20
26.223446
 30
0.0
 11
16.529151
 21
26.223446
 31
0.0
  0
SOLID
  8
0
  6
BYBLOCK
 62
     0
 10
17.391151
 20
26.268446
 30
0.0
 11
17.391151
 21
26.178446
 31
0.0
 12
17.121151
 22
26.223446
 32
0.0
 13
17.121151
 23
26.223446
 33
0.0
  0
SOLID
  8
0
  6
BYBLOCK
 62
     0
 10
16.799151
 20
26.268446
 30
0.0
 11
16.799151
 21
26.178446
 31
0.0
 12
17.069151
 22
26.223446
 32
0.0
 13
17.069151
 23
26.223446
 33
0.0
  0
TEXT
  8
0
  6
BYBLOCK
 62
     0
 10
15.831651
 20
26.129696
 30
0.0
 40
0.1875
  1
 TYP.
 41
0.75
 72
     1
 11
16.112901
 21
26.223446
 31
0.0
 73
     2
  0
TEXT
  8
0
  6
BYBLOCK
 62
     0
 10
15.269151
 20
26.129696
 30
0.0
 40
0.1875
  1
0.052
 41
0.75
 72
     1
 11
15.526963
 21
26.223446
 31
0.0
 73
     2
  0
POINT
  8
DEFPOINTS
  6
BYBLOCK
 62
     0
 10
17.121151
 20
26.317946
 30
0.0
  0
POINT
  8
DEFPOINTS
  6
BYBLOCK
 62
     0
 10
17.069151
 20
26.317946
 30
0.0
  0
POINT
  8
DEFPOINTS
  6
BYBLOCK
 62
     0
 10
17.069151
 20
26.223446
 30
0.0
  0
ENDBLK
  8
0
  0
BLOCK
  8
0
  2
*D24
 70
    65
 10
0.0
 20
0.0
 30
0.0
  3
*D
  0
LINE
  8
0
  6
BYBLOCK
 62
     0
 10
21.340267
 20
1.507278
 30
0.0
 11
22.082793
 21
1.507278
 31
0.0
  0
LINE
  8
0
  6
BYBLOCK
 62
     0
 10
21.340267
 20
4.105278
 30
0.0
 11
22.082793
 21
4.105278
 31
0.0
  0
LINE
  8
0
  6
BYBLOCK
 62
     0
 10
21.943293
 20
1.777278
 30
0.0
 11
21.943293
 21
2.577528
 31
0.0
  0
LINE
  8
0
  6
BYBLOCK
 62
     0
 10
21.943293
 20
3.835278
 30
0.0
 11
21.943293
 21
3.035028
 31
0.0
  0
SOLID
  8
0
  6
BYBLOCK
 62
     0
 10
21.898293
 20
1.777278
 30
0.0
 11
21.988293
 21
1.777278
 31
0.0
 12
21.943293
 22
1.507278
 32
0.0
 13
21.943293
 23
1.507278
 33
0.0
  0
SOLID
  8
0
  6
BYBLOCK
 62
     0
 10
21.898293
 20
3.835278
 30
0.0
 11
21.988293
 21
3.835278
 31
0.0
 12
21.943293
 22
4.105278
 32
0.0
 13
21.943293
 23
4.105278
 33
0.0
  0
TEXT
  8
0
  6
BYBLOCK
 62
     0
 10
21.662043
 20
2.712528
 30
0.0
 40
0.1875
  1
2.598
 41
0.75
 72
     1
 11
21.943293
 21
2.806278
 31
0.0
 73
     2
  0
POINT
  8
DEFPOINTS
  6
BYBLOCK
 62
     0
 10
21.245767
 20
1.507278
 30
0.0
  0
POINT
  8
DEFPOINTS
  6
BYBLOCK
 62
     0
 10
21.245767
 20
4.105278
 30
0.0
  0
POINT
  8
DEFPOINTS
  6
BYBLOCK
 62
     0
 10
21.943293
 20
4.105278
 30
0.0
  0
ENDBLK
  8
0
  0
BLOCK
  8
0
  2
*D25
 70
    65
 10
0.0
 20
0.0
 30
0.0
  3
*D
  0
LINE
  8
0
  6
BYBLOCK
 62
     0
 10
21.340267
 20
4.105278
 30
0.0
 11
22.082793
 21
4.105278
 31
0.0
  0
LINE
  8
0
  6
BYBLOCK
 62
     0
 10
21.502767
 20
4.365278
 30
0.0
 11
22.082793
 21
4.365278
 31
0.0
  0
LINE
  8
0
  6
BYBLOCK
 62
     0
 10
21.943293
 20
3.835278
 30
0.0
 11
21.943293
 21
3.565278
 31
0.0
  0
LINE
  8
0
  6
BYBLOCK
 62
     0
 10
21.943293
 20
4.635278
 30
0.0
 11
21.943293
 21
4.905278
 31
0.0
  0
LINE
  8
0
  6
BYBLOCK
 62
     0
 10
21.943293
 20
4.905278
 30
0.0
 11
22.213293
 21
4.905278
 31
0.0
  0
SOLID
  8
0
  6
BYBLOCK
 62
     0
 10
21.898293
 20
3.835278
 30
0.0
 11
21.988293
 21
3.835278
 31
0.0
 12
21.943293
 22
4.105278
 32
0.0
 13
21.943293
 23
4.105278
 33
0.0
  0
SOLID
  8
0
  6
BYBLOCK
 62
     0
 10
21.898293
 20
4.635278
 30
0.0
 11
21.988293
 21
4.635278
 31
0.0
 12
21.943293
 22
4.365278
 32
0.0
 13
21.943293
 23
4.365278
 33
0.0
  0
TEXT
  8
0
  6
BYBLOCK
 62
     0
 10
22.348293
 20
4.811528
 30
0.0
 40
0.1875
  1
0.260
 41
0.75
 72
     1
 11
22.606105
 21
4.905278
 31
0.0
 73
     2
  0
POINT
  8
DEFPOINTS
  6
BYBLOCK
 62
     0
 10
21.245767
 20
4.105278
 30
0.0
  0
POINT
  8
DEFPOINTS
  6
BYBLOCK
 62
     0
 10
21.408267
 20
4.365278
 30
0.0
  0
POINT
  8
DEFPOINTS
  6
BYBLOCK
 62
     0
 10
21.943293
 20
4.365278
 30
0.0
  0
ENDBLK
  8
0
  0
BLOCK
  8
0
  2
*D26
 70
    65
 10
0.0
 20
0.0
 30
0.0
  3
*D
  0
LINE
  8
0
  6
BYBLOCK
 62
     0
 10
21.502767
 20
1.247278
 30
0.0
 11
22.783293
 21
1.247278
 31
0.0
  0
LINE
  8
0
  6
BYBLOCK
 62
     0
 10
21.502767
 20
4.365278
 30
0.0
 11
22.783293
 21
4.365278
 31
0.0
  0
LINE
  8
0
  6
BYBLOCK
 62
     0
 10
22.643793
 20
1.517278
 30
0.0
 11
22.643793
 21
2.577528
 31
0.0
  0
LINE
  8
0
  6
BYBLOCK
 62
     0
 10
22.643793
 20
4.095278
 30
0.0
 11
22.643793
 21
3.035028
 31
0.0
  0
SOLID
  8
0
  6
BYBLOCK
 62
     0
 10
22.598793
 20
1.517278
 30
0.0
 11
22.688793
 21
1.517278
 31
0.0
 12
22.643793
 22
1.247278
 32
0.0
 13
22.643793
 23
1.247278
 33
0.0
  0
SOLID
  8
0
  6
BYBLOCK
 62
     0
 10
22.598793
 20
4.095278
 30
0.0
 11
22.688793
 21
4.095278
 31
0.0
 12
22.643793
 22
4.365278
 32
0.0
 13
22.643793
 23
4.365278
 33
0.0
  0
TEXT
  8
0
  6
BYBLOCK
 62
     0
 10
22.409418
 20
2.712528
 30
0.0
 40
0.1875
  1
3.118
 41
0.75
 72
     1
 11
22.643793
 21
2.806278
 31
0.0
 73
     2
  0
POINT
  8
DEFPOINTS
  6
BYBLOCK
 62
     0
 10
21.408267
 20
1.247278
 30
0.0
  0
POINT
  8
DEFPOINTS
  6
BYBLOCK
 62
     0
 10
21.408267
 20
4.365278
 30
0.0
  0
POINT
  8
DEFPOINTS
  6
BYBLOCK
 62
     0
 10
22.643793
 20
4.365278
 30
0.0
  0
ENDBLK
  8
0
  0
BLOCK
  8
0
  2
*D27
 70
    65
 10
0.0
 20
0.0
 30
0.0
  3
*D
  0
LINE
  8
0
  6
BYBLOCK
 62
     0
 10
1.661459
 20
6.09075
 30
0.0
 11
1.192959
 21
6.09075
 31
0.0
  0
LINE
  8
0
  6
BYBLOCK
 62
     0
 10
1.611459
 20
5.99075
 30
0.0
 11
1.192959
 21
5.99075
 31
0.0
  0
LINE
  8
0
  6
BYBLOCK
 62
     0
 10
1.332459
 20
6.36075
 30
0.0
 11
1.332459
 21
6.63075
 31
0.0
  0
LINE
  8
0
  6
BYBLOCK
 62
     0
 10
1.332459
 20
5.72075
 30
0.0
 11
1.332459
 21
5.45075
 31
0.0
  0
LINE
  8
0
  6
BYBLOCK
 62
     0
 10
1.332459
 20
5.45075
 30
0.0
 11
1.062459
 21
5.45075
 31
0.0
  0
SOLID
  8
0
  6
BYBLOCK
 62
     0
 10
1.287459
 20
6.36075
 30
0.0
 11
1.377459
 21
6.36075
 31
0.0
 12
1.332459
 22
6.09075
 32
0.0
 13
1.332459
 23
6.09075
 33
0.0
  0
SOLID
  8
0
  6
BYBLOCK
 62
     0
 10
1.287459
 20
5.72075
 30
0.0
 11
1.377459
 21
5.72075
 31
0.0
 12
1.332459
 22
5.99075
 32
0.0
 13
1.332459
 23
5.99075
 33
0.0
  0
TEXT
  8
0
  6
BYBLOCK
 62
     0
 10
0.482147
 20
5.357
 30
0.0
 40
0.1875
  1
0.100
 41
0.75
 72
     1
 11
0.704803
 21
5.45075
 31
0.0
 73
     2
  0
POINT
  8
DEFPOINTS
  6
BYBLOCK
 62
     0
 10
1.755959
 20
6.09075
 30
0.0
  0
POINT
  8
DEFPOINTS
  6
BYBLOCK
 62
     0
 10
1.705959
 20
5.99075
 30
0.0
  0
POINT
  8
DEFPOINTS
  6
BYBLOCK
 62
     0
 10
1.332459
 20
5.99075
 30
0.0
  0
ENDBLK
  8
0
  0
BLOCK
  8
0
  2
*D28
 70
    65
 10
0.0
 20
0.0
 30
0.0
  3
*D
  0
LINE
  8
0
  6
BYBLOCK
 62
     0
 10
1.611459
 20
5.99075
 30
0.0
 11
0.771459
 21
5.99075
 31
0.0
  0
LINE
  8
0
  6
BYBLOCK
 62
     0
 10
1.81002
 20
7.99325
 30
0.0
 11
0.771459
 21
7.99325
 31
0.0
  0
LINE
  8
0
  6
BYBLOCK
 62
     0
 10
0.910959
 20
6.26075
 30
0.0
 11
0.910959
 21
6.76325
 31
0.0
  0
LINE
  8
0
  6
BYBLOCK
 62
     0
 10
0.910959
 20
7.72325
 30
0.0
 11
0.910959
 21
7.22075
 31
0.0
  0
SOLID
  8
0
  6
BYBLOCK
 62
     0
 10
0.865959
 20
6.26075
 30
0.0
 11
0.955959
 21
6.26075
 31
0.0
 12
0.910959
 22
5.99075
 32
0.0
 13
0.910959
 23
5.99075
 33
0.0
  0
SOLID
  8
0
  6
BYBLOCK
 62
     0
 10
0.865959
 20
7.72325
 30
0.0
 11
0.955959
 21
7.72325
 31
0.0
 12
0.910959
 22
7.99325
 32
0.0
 13
0.910959
 23
7.99325
 33
0.0
  0
TEXT
  8
0
  6
BYBLOCK
 62
     0
 10
0.653147
 20
6.89825
 30
0.0
 40
0.1875
  1
2.003
 41
0.75
 72
     1
 11
0.910959
 21
6.992
 31
0.0
 73
     2
  0
POINT
  8
DEFPOINTS
  6
BYBLOCK
 62
     0
 10
1.705959
 20
5.99075
 30
0.0
  0
POINT
  8
DEFPOINTS
  6
BYBLOCK
 62
     0
 10
1.90452
 20
7.99325
 30
0.0
  0
POINT
  8
DEFPOINTS
  6
BYBLOCK
 62
     0
 10
0.910959
 20
7.99325
 30
0.0
  0
ENDBLK
  8
0
  0
ENDSEC
  0
SECTION
  2
ENTITIES
  0
INSERT
  8
TITLE
  2
HBS
 10
0.0
 20
0.0
 30
0.0
 41
1.5
 42
1.5
 43
1.5
  0
TEXT
  8
TEXT
 10
11.493072
 20
14.041181
 30
0.0
 40
0.1875
  1
COVER REDUCES INSIDE HEIGHT BY 0.100.
 41
0.75
  0
TEXT
  8
TEXT
 10
7.741254
 20
0.334537
 30
0.0
 40
0.234
  1
%%uBODY
 41
0.75
 72
     4
 11
8.065929
 21
0.428137
 31
0.0
  0
TEXT
  8
TEXT
 10
11.493072
 20
12.479681
 30
0.0
 40
0.1875
  1
OPEN END DUE TO TAPER.
 41
0.75
  0
TEXT
  8
TEXT
 10
11.493072
 20
12.792181
 30
0.0
 40
0.1875
  1
DIMENSIONS INCREASE SLIGHTLY AT
 41
0.75
  0
TEXT
  8
TEXT
 10
11.493072
 20
13.104681
 30
0.0
 40
0.1875
  1
TAKEN FROM CLOSED END OF THE BOX.
 41
0.75
  0
TEXT
  8
TEXT
 10
11.493072
 20
13.417181
 30
0.0
 40
0.1875
  1
LENGTH AND WIDTH DIMENSIONS ARE
 41
0.75
  0
TEXT
  8
TEXT
 10
18.880092
 20
0.334537
 30
0.0
 40
0.234
  1
%%uCOVER
 41
0.75
 72
     4
 11
19.321767
 21
0.428137
 31
0.0
  0
TEXT
  8
TEXT
 10
0.353291
 20
11.865118
 30
0.0
 40
0.1875
  1
%%uCOLOR:%%u BLACK
 41
0.75
  0
TEXT
  8
TEXT
 10
4.261733
 20
13.728681
 30
0.0
 40
0.1875
  1
AND CONTINUOUS USE TEMPERATURE OF 70%%d C.)
 41
0.75
  0
TEXT
  8
TEXT
 10
0.353291
 20
14.041181
 30
0.0
 40
0.1875
  1
%%uMATERIAL:%%u ABS THERMOPLASTIC (FLAMMABILITY RATING OF 94-VO AT 0.070" THICKNESS
 41
0.75
  0
TEXT
  8
TEXT
 10
4.87725
 20
14.6565
 30
0.0
 40
0.234
  1
UTILIBOX  (STYLE E)
 41
0.75
 72
     4
 11
6.39825
 21
14.7735
 31
0.0
  0
TEXT
  8
TEXT
 10
17.4795
 20
14.6565
 30
0.0
 40
0.234
  1
CU-795
 41
0.75
 72
     4
 11
17.97675
 21
14.7735
 31
0.0
  0
TEXT
  8
TEXT
 10
17.334426
 20
12.789752
 30
0.0
 40
0.1875
  1
%%UNOTE:%%U ALL DIMENSIONS HAVE %%P0.010 TOLERANCE
 41
0.75
  0
TEXT
  8
TEXT
 10
18.165273
 20
12.48619
 30
0.0
 40
0.1875
  1
UNLESS OTHERWISE SPECIFIED.
 41
0.75
  0
TEXT
  8
TEXT
 10
17.334426
 20
14.041181
 30
0.0
 40
0.187714
  1
FOUR (4) #4 x 1/2 LG. SELF THREADING
 41
0.75
  0
TEXT
  8
TEXT
 10
17.334426
 20
13.728324
 30
0.0
 40
0.187714
  1
SCREWS WITH HI/LOW THREADS
 41
0.75
  0
TEXT
  8
TEXT
 10
17.334426
 20
13.415466
 30
0.0
 40
0.187714
  1
ARE SUPPLIED FOR MOUNTING COVER.
 41
0.75
  0
TEXT
  8
TEXT
 10
0.503386
 20
12.478681
 30
0.0
 40
0.1872
  1
COVER - SURFACES ARE SMOOTH.
 41
0.75
  0
TEXT
  8
TEXT
 10
0.503386
 20
13.101681
 30
0.0
 40
0.1875
  1
BODY - OUTSIDE SURFACES ARE TEXTURED FINISH
 41
0.75
  0
TEXT
  8
TEXT
 10
0.353291
 20
13.414181
 30
0.0
 40
0.1875
  1
%%uFINISH:
 41
0.75
  0
DIMENSION
  8
DIM
  2
*D1
 10
10.302529
 20
4.900778
 30
0.0
 11
8.065929
 21
4.900778
 31
0.0
 12
-4.666527
 22
-17.083452
 32
0.0
 13
5.829329
 23
5.697278
 33
0.0
 14
10.302529
 24
5.697278
 34
0.0
  3
23NSTD
  0
DIMENSION
  8
DIM
  2
*D2
 10
10.253917
 20
8.074778
 30
0.0
 11
8.065929
 21
8.074778
 31
0.0
 12
-4.666527
 22
-17.083452
 32
0.0
 13
5.877941
 23
7.553704
 33
0.0
 14
10.253917
 24
7.553704
 34
0.0
  3
23NSTD
  0
LINE
  8
HIDDEN
 10
5.879329
 20
5.797278
 30
0.0
 11
10.252529
 21
5.797278
 31
0.0
  0
LINE
  8
OBJECT
 10
5.829329
 20
5.697278
 30
0.0
 11
10.302529
 21
5.697278
 31
0.0
  0
LINE
  8
OBJECT
 10
6.02789
 20
7.699778
 30
0.0
 11
10.103968
 21
7.699778
 31
0.0
  0
LINE
  8
HIDDEN
 10
6.02789
 20
7.599778
 30
0.0
 11
10.103968
 21
7.599778
 31
0.0
  0
LINE
  8
HIDDEN
 10
6.092467
 20
7.689778
 30
0.0
 11
10.052791
 21
7.689778
 31
0.0
  0
LINE
  8
HIDDEN
 10
5.931982
 20
5.797278
 30
0.0
 11
5.977907
 21
7.551087
 31
0.0
  0
LINE
  8
OBJECT
 10
5.829329
 20
5.697278
 30
0.0
 11
5.877941
 21
7.553704
 31
0.0
  0
LINE
  8
HIDDEN
 10
6.231952
 20
5.812278
 30
0.0
 11
6.247552
 21
7.599778
 31
0.0
  0
LINE
  8
HIDDEN
 10
6.051691
 20
5.812278
 30
0.0
 11
6.036091
 21
7.599778
 31
0.0
  0
LINE
  8
HIDDEN
 10
6.095924
 20
6.394945
 30
0.0
 11
6.095924
 21
5.812278
 31
0.0
  0
LINE
  8
HIDDEN
 10
6.187924
 20
6.394945
 30
0.0
 11
6.187924
 21
5.812278
 31
0.0
  0
LINE
  8
HIDDEN
 10
5.87671
 20
5.697278
 30
0.0
 11
5.879329
 21
5.797278
 31
0.0
  0
LINE
  8
HIDDEN
 10
6.051691
 20
5.812278
 30
0.0
 11
6.231952
 21
5.812278
 31
0.0
  0
ARC
  8
HIDDEN
 10
6.156674
 20
6.394945
 30
0.0
 40
0.03125
 50
0.0
 51
90.0
  0
ARC
  8
HIDDEN
 10
6.127174
 20
6.394945
 30
0.0
 40
0.03125
 50
90.0
 51
180.0
  0
LINE
  8
HIDDEN
 10
6.127174
 20
6.426195
 30
0.0
 11
6.156674
 21
6.426195
 31
0.0
  0
ARC
  8
OBJECT
 10
6.02789
 20
7.549778
 30
0.0
 40
0.15
 50
90.0
 51
178.5
  0
ARC
  8
HIDDEN
 10
6.02789
 20
7.549778
 30
0.0
 40
0.05
 50
90.0
 51
178.5
  0
LINE
  8
HIDDEN
 10
6.092467
 20
7.699778
 30
0.0
 11
6.092467
 21
7.689778
 31
0.0
  0
LINE
  8
HIDDEN
 10
6.123717
 20
7.699778
 30
0.0
 11
6.123717
 21
7.689778
 31
0.0
  0
LINE
  8
OBJECT
 10
10.302529
 20
5.697278
 30
0.0
 11
10.253917
 21
7.553704
 31
0.0
  0
LINE
  8
HIDDEN
 10
10.199876
 20
5.797278
 30
0.0
 11
10.153951
 21
7.551087
 31
0.0
  0
LINE
  8
HIDDEN
 10
9.899906
 20
5.812278
 30
0.0
 11
9.884306
 21
7.599778
 31
0.0
  0
LINE
  8
HIDDEN
 10
10.080167
 20
5.812278
 30
0.0
 11
10.095767
 21
7.599778
 31
0.0
  0
DIMENSION
  8
DIM
  2
*D22
 10
10.751993
 20
5.884278
 30
0.0
 11
12.364025
 21
6.424278
 31
0.0
 12
-4.666527
 22
-17.083452
 32
0.0
  1
<> POLISHED BAND
 13
10.302529
 23
5.697278
 33
0.0
 14
10.297632
 24
5.884278
 34
0.0
 50
90.0
  3
23NSTD
  0
LINE
  8
HIDDEN
 10
9.944037
 20
6.394945
 30
0.0
 11
9.944037
 21
5.812278
 31
0.0
  0
LINE
  8
HIDDEN
 10
10.036037
 20
6.394945
 30
0.0
 11
10.036037
 21
5.812278
 31
0.0
  0
LINE
  8
HIDDEN
 10
10.080167
 20
5.812278
 30
0.0
 11
9.899906
 21
5.812278
 31
0.0
  0
LINE
  8
HIDDEN
 10
10.255148
 20
5.697278
 30
0.0
 11
10.252529
 21
5.797278
 31
0.0
  0
ARC
  8
HIDDEN
 10
10.004787
 20
6.394945
 30
0.0
 40
0.03125
 50
0.0
 51
90.0
  0
ARC
  8
HIDDEN
 10
9.975287
 20
6.394945
 30
0.0
 40
0.03125
 50
90.0
 51
180.0
  0
LINE
  8
HIDDEN
 10
9.975287
 20
6.426195
 30
0.0
 11
10.004787
 21
6.426195
 31
0.0
  0
ARC
  8
OBJECT
 10
10.103968
 20
7.549778
 30
0.0
 40
0.15
 50
1.5
 51
90.0
  0
ARC
  8
HIDDEN
 10
10.103968
 20
7.549778
 30
0.0
 40
0.05
 50
1.5
 51
90.0
  0
LINE
  8
HIDDEN
 10
10.052791
 20
7.699778
 30
0.0
 11
10.052791
 21
7.689778
 31
0.0
  0
LINE
  8
HIDDEN
 10
10.021541
 20
7.699778
 30
0.0
 11
10.021541
 21
7.689778
 31
0.0
  0
DIMENSION
  8
DIM
  2
*D3
 10
10.052791
 20
8.517053
 30
0.0
 11
8.065929
 21
8.517053
 31
0.0
 12
-4.666527
 22
-17.083452
 32
0.0
 13
6.079067
 23
9.141792
 33
0.0
 14
10.052791
 24
9.141792
 34
0.0
 50
180.0
  3
23NSTD
  0
DIMENSION
  8
DIM
  2
*D17
 10
5.249641
 20
11.864992
 30
0.0
 11
5.249641
 21
10.503392
 31
0.0
 12
-4.666527
 22
-17.083452
 32
0.0
 13
6.079067
 23
9.141792
 33
0.0
 14
6.079067
 24
11.864992
 34
0.0
 50
270.0
  3
23NSTD
  0
POLYLINE
  8
OBJECT
 66
     1
 10
0.0
 20
0.0
 30
0.0
 70
     1
  0
VERTEX
  8
OBJECT
 10
6.110317
 20
11.833742
 30
0.0
  0
VERTEX
  8
OBJECT
 10
6.110317
 20
9.173042
 30
0.0
  0
VERTEX
  8
OBJECT
 10
10.021541
 20
9.173042
 30
0.0
  0
VERTEX
  8
OBJECT
 10
10.021541
 20
11.833742
 30
0.0
  0
SEQEND
  8
OBJECT
  0
POLYLINE
  8
OBJECT
 66
     1
 10
0.0
 20
0.0
 30
0.0
 70
     1
  0
VERTEX
  8
OBJECT
 10
10.052791
 20
9.141792
 30
0.0
  0
VERTEX
  8
OBJECT
 10
10.052791
 20
11.864992
 30
0.0
  0
VERTEX
  8
OBJECT
 10
6.079067
 20
11.864992
 30
0.0
  0
VERTEX
  8
OBJECT
 10
6.079067
 20
9.141792
 30
0.0
  0
SEQEND
  8
OBJECT
  0
POLYLINE
  8
OBJECT
 66
     1
 10
0.0
 20
0.0
 30
0.0
 70
     1
  0
VERTEX
  8
OBJECT
 10
5.879251
 20
11.914808
 30
0.0
  0
VERTEX
  8
OBJECT
 10
5.879251
 20
9.091975
 30
0.0
 42
0.414214
  0
VERTEX
  8
OBJECT
 10
6.029251
 20
8.941975
 30
0.0
  0
VERTEX
  8
OBJECT
 10
10.102608
 20
8.941975
 30
0.0
 42
0.414214
  0
VERTEX
  8
OBJECT
 10
10.252608
 20
9.091975
 30
0.0
  0
VERTEX
  8
OBJECT
 10
10.252608
 20
11.914808
 30
0.0
 42
0.414214
  0
VERTEX
  8
OBJECT
 10
10.102608
 20
12.064808
 30
0.0
  0
VERTEX
  8
OBJECT
 10
6.029251
 20
12.064808
 30
0.0
 42
0.414214
  0
SEQEND
  8
OBJECT
  0
POLYLINE
  8
OBJECT
 66
     1
 10
0.0
 20
0.0
 30
0.0
 70
     1
  0
VERTEX
  8
OBJECT
 10
10.302529
 20
11.96473
 30
0.0
 42
0.414214
  0
VERTEX
  8
OBJECT
 10
10.152529
 20
12.11473
 30
0.0
  0
VERTEX
  8
OBJECT
 10
5.979329
 20
12.11473
 30
0.0
 42
0.414214
  0
VERTEX
  8
OBJECT
 10
5.829329
 20
11.96473
 30
0.0
  0
VERTEX
  8
OBJECT
 10
5.829329
 20
9.042053
 30
0.0
 42
0.414214
  0
VERTEX
  8
OBJECT
 10
5.979329
 20
8.892053
 30
0.0
  0
VERTEX
  8
OBJECT
 10
10.152529
 20
8.892053
 30
0.0
 42
0.414214
  0
VERTEX
  8
OBJECT
 10
10.302529
 20
9.042053
 30
0.0
  0
SEQEND
  8
OBJECT
  0
POLYLINE
  8
OBJECT
 66
     1
 10
0.0
 20
0.0
 30
0.0
 70
     1
  0
VERTEX
  8
OBJECT
 10
10.302529
 20
0.941949
 30
0.0
 42
-0.414214
  0
VERTEX
  8
OBJECT
 10
10.152529
 20
0.791949
 30
0.0
  0
VERTEX
  8
OBJECT
 10
5.979329
 20
0.791949
 30
0.0
 42
-0.414214
  0
VERTEX
  8
OBJECT
 10
5.829329
 20
0.941949
 30
0.0
  0
VERTEX
  8
OBJECT
 10
5.829329
 20
3.864625
 30
0.0
 42
-0.414214
  0
VERTEX
  8
OBJECT
 10
5.979329
 20
4.014625
 30
0.0
  0
VERTEX
  8
OBJECT
 10
10.152529
 20
4.014625
 30
0.0
 42
-0.414214
  0
VERTEX
  8
OBJECT
 10
10.302529
 20
3.864625
 30
0.0
  0
SEQEND
  8
OBJECT
  0
LINE
  8
HIDDEN
 10
4.730075
 20
7.599778
 30
0.0
 11
1.90452
 21
7.599778
 31
0.0
  0
LINE
  8
HIDDEN
 10
4.706118
 20
5.812278
 30
0.0
 11
4.52694
 21
5.812278
 31
0.0
  0
LINE
  8
OBJECT
 10
1.90452
 20
7.699778
 30
0.0
 11
4.730075
 21
7.699778
 31
0.0
  0
LINE
  8
HIDDEN
 10
4.878636
 20
5.797278
 30
0.0
 11
1.755959
 21
5.797278
 31
0.0
  0
LINE
  8
OBJECT
 10
1.705959
 20
5.697278
 30
0.0
 11
4.928636
 21
5.697278
 31
0.0
  0
LINE
  8
HIDDEN
 10
1.942297
 20
7.689778
 30
0.0
 11
4.678897
 21
7.689778
 31
0.0
  0
LINE
  8
HIDDEN
 10
4.602653
 20
6.426195
 30
0.0
 11
4.632153
 21
6.426195
 31
0.0
  0
LINE
  8
HIDDEN
 10
1.912846
 20
7.599778
 30
0.0
 11
1.928477
 21
5.812278
 31
0.0
  0
LINE
  8
OBJECT
 10
1.705959
 20
5.697278
 30
0.0
 11
1.754572
 21
7.553704
 31
0.0
  0
LINE
  8
HIDDEN
 10
1.808612
 20
5.797278
 30
0.0
 11
1.854537
 21
7.551087
 31
0.0
  0
LINE
  8
HIDDEN
 10
2.123286
 20
7.599778
 30
0.0
 11
2.107655
 21
5.812278
 31
0.0
  0
LINE
  8
HIDDEN
 10
4.511309
 20
7.599778
 30
0.0
 11
4.52694
 21
5.812278
 31
0.0
  0
ARC
  8
HIDDEN
 10
1.90452
 20
7.549778
 30
0.0
 40
0.05
 50
90.0
 51
178.5
  0
ARC
  8
OBJECT
 10
1.90452
 20
7.549778
 30
0.0
 40
0.15
 50
90.0
 51
178.5
  0
LINE
  8
HIDDEN
 10
1.973547
 20
7.699778
 30
0.0
 11
1.973547
 21
7.689778
 31
0.0
  0
LINE
  8
HIDDEN
 10
1.942297
 20
7.699778
 30
0.0
 11
1.942297
 21
7.689778
 31
0.0
  0
LINE
  8
HIDDEN
 10
1.971191
 20
6.394945
 30
0.0
 11
1.971191
 21
5.812278
 31
0.0
  0
LINE
  8
HIDDEN
 10
2.063191
 20
6.394945
 30
0.0
 11
2.063191
 21
5.812278
 31
0.0
  0
ARC
  8
HIDDEN
 10
2.031941
 20
6.394945
 30
0.0
 40
0.03125
 50
0.0
 51
90.0
  0
ARC
  8
HIDDEN
 10
2.002441
 20
6.394945
 30
0.0
 40
0.03125
 50
90.0
 51
180.0
  0
LINE
  8
HIDDEN
 10
2.031941
 20
6.426195
 30
0.0
 11
2.002441
 21
6.426195
 31
0.0
  0
LINE
  8
HIDDEN
 10
1.753341
 20
5.697278
 30
0.0
 11
1.755959
 21
5.797278
 31
0.0
  0
LINE
  8
HIDDEN
 10
1.928477
 20
5.812278
 30
0.0
 11
2.107655
 21
5.812278
 31
0.0
  0
LINE
  8
HIDDEN
 10
1.811951
 20
5.924778
 30
0.0
 11
1.926536
 21
5.924778
 31
0.0
  0
LINE
  8
HIDDEN
 10
4.571403
 20
6.394945
 30
0.0
 11
4.571403
 21
5.812278
 31
0.0
  0
ARC
  8
HIDDEN
 10
4.602653
 20
6.394945
 30
0.0
 40
0.03125
 50
90.0
 51
180.0
  0
LINE
  8
HIDDEN
 10
4.721749
 20
7.599778
 30
0.0
 11
4.706118
 21
5.812278
 31
0.0
  0
LINE
  8
OBJECT
 10
4.928636
 20
5.697278
 30
0.0
 11
4.880023
 21
7.553704
 31
0.0
  0
LINE
  8
HIDDEN
 10
4.825983
 20
5.797278
 30
0.0
 11
4.780058
 21
7.551087
 31
0.0
  0
ARC
  8
HIDDEN
 10
4.730075
 20
7.549778
 30
0.0
 40
0.05
 50
1.5
 51
90.0
  0
ARC
  8
OBJECT
 10
4.730075
 20
7.549778
 30
0.0
 40
0.15
 50
1.5
 51
90.0
  0
LINE
  8
HIDDEN
 10
4.678897
 20
7.699778
 30
0.0
 11
4.678897
 21
7.689778
 31
0.0
  0
LINE
  8
HIDDEN
 10
4.647647
 20
7.699778
 30
0.0
 11
4.647647
 21
7.689778
 31
0.0
  0
LINE
  8
HIDDEN
 10
4.663403
 20
6.394945
 30
0.0
 11
4.663403
 21
5.812278
 31
0.0
  0
ARC
  8
HIDDEN
 10
4.632153
 20
6.394945
 30
0.0
 40
0.03125
 50
0.0
 51
90.0
  0
LINE
  8
HIDDEN
 10
4.881254
 20
5.697278
 30
0.0
 11
4.878636
 21
5.797278
 31
0.0
  0
LINE
  8
HIDDEN
 10
4.822644
 20
5.924778
 30
0.0
 11
4.708059
 21
5.924778
 31
0.0
  0
POLYLINE
  8
OBJECT
 66
     1
 10
0.0
 20
0.0
 30
0.0
 70
     1
  0
VERTEX
  8
OBJECT
 10
10.252529
 20
0.941949
 30
0.0
 42
-0.414214
  0
VERTEX
  8
OBJECT
 10
10.152529
 20
0.841949
 30
0.0
  0
VERTEX
  8
OBJECT
 10
5.979329
 20
0.841949
 30
0.0
 42
-0.414214
  0
VERTEX
  8
OBJECT
 10
5.879329
 20
0.941949
 30
0.0
  0
VERTEX
  8
OBJECT
 10
5.879329
 20
3.864625
 30
0.0
 42
-0.414214
  0
VERTEX
  8
OBJECT
 10
5.979329
 20
3.964625
 30
0.0
  0
VERTEX
  8
OBJECT
 10
10.152529
 20
3.964625
 30
0.0
 42
-0.414214
  0
VERTEX
  8
OBJECT
 10
10.252529
 20
3.864625
 30
0.0
  0
SEQEND
  8
OBJECT
  0
POLYLINE
  8
OBJECT
 66
     1
 10
0.0
 20
0.0
 30
0.0
 70
     1
  0
VERTEX
  8
OBJECT
 10
10.199529
 20
0.941949
 30
0.0
 42
-0.414214
  0
VERTEX
  8
OBJECT
 10
10.152529
 20
0.894949
 30
0.0
  0
VERTEX
  8
OBJECT
 10
5.979329
 20
0.894949
 30
0.0
 42
-0.414214
  0
VERTEX
  8
OBJECT
 10
5.932329
 20
0.941949
 30
0.0
  0
VERTEX
  8
OBJECT
 10
5.932329
 20
3.864625
 30
0.0
 42
-0.414214
  0
VERTEX
  8
OBJECT
 10
5.979329
 20
3.911625
 30
0.0
  0
VERTEX
  8
OBJECT
 10
10.152529
 20
3.911625
 30
0.0
 42
-0.414214
  0
VERTEX
  8
OBJECT
 10
10.199529
 20
3.864625
 30
0.0
  0
SEQEND
  8
OBJECT
  0
CIRCLE
  8
OBJECT
 10
6.141822
 20
3.702518
 30
0.0
 40
0.045
  0
LINE
  8
HIDDEN
 10
5.935321
 20
5.924778
 30
0.0
 11
6.050709
 21
5.924778
 31
0.0
  0
LINE
  8
HIDDEN
 10
10.081149
 20
5.924778
 30
0.0
 11
10.196537
 21
5.924778
 31
0.0
  0
POLYLINE
  8
OBJECT
 66
     1
 10
0.0
 20
0.0
 30
0.0
  0
VERTEX
  8
OBJECT
 10
5.959657
 20
3.90731
 30
0.0
  0
VERTEX
  8
OBJECT
 10
6.079234
 20
3.787734
 30
0.0
 42
-13.14017
  0
VERTEX
  8
OBJECT
 10
6.056606
 20
3.765106
 30
0.0
  0
VERTEX
  8
OBJECT
 10
5.93689
 20
3.884823
 30
0.0
  0
SEQEND
  8
OBJECT
  0
POLYLINE
  8
OBJECT
 66
     1
 10
0.0
 20
0.0
 30
0.0
  0
VERTEX
  8
OBJECT
 10
10.172201
 20
3.90731
 30
0.0
  0
VERTEX
  8
OBJECT
 10
10.052624
 20
3.787734
 30
0.0
 42
13.14017
  0
VERTEX
  8
OBJECT
 10
10.075252
 20
3.765106
 30
0.0
  0
VERTEX
  8
OBJECT
 10
10.194968
 20
3.884823
 30
0.0
  0
SEQEND
  8
OBJECT
  0
CIRCLE
  8
OBJECT
 10
9.990037
 20
3.702518
 30
0.0
 40
0.045
  0
POLYLINE
  8
OBJECT
 66
     1
 10
0.0
 20
0.0
 30
0.0
  0
VERTEX
  8
OBJECT
 10
5.959657
 20
0.899264
 30
0.0
  0
VERTEX
  8
OBJECT
 10
6.079234
 20
1.01884
 30
0.0
 42
13.14017
  0
VERTEX
  8
OBJECT
 10
6.056606
 20
1.041468
 30
0.0
  0
VERTEX
  8
OBJECT
 10
5.93689
 20
0.921751
 30
0.0
  0
SEQEND
  8
OBJECT
  0
CIRCLE
  8
OBJECT
 10
6.141822
 20
1.104055
 30
0.0
 40
0.045
  0
POLYLINE
  8
OBJECT
 66
     1
 10
0.0
 20
0.0
 30
0.0
  0
VERTEX
  8
OBJECT
 10
10.172201
 20
0.899264
 30
0.0
  0
VERTEX
  8
OBJECT
 10
10.052624
 20
1.01884
 30
0.0
 42
-13.14017
  0
VERTEX
  8
OBJECT
 10
10.075252
 20
1.041468
 30
0.0
  0
VERTEX
  8
OBJECT
 10
10.194968
 20
0.921751
 30
0.0
  0
SEQEND
  8
OBJECT
  0
CIRCLE
  8
OBJECT
 10
9.990037
 20
1.104055
 30
0.0
 40
0.045
  0
POLYLINE
  8
HIDDEN
 66
     1
 10
0.0
 20
0.0
 30
0.0
  0
VERTEX
  8
HIDDEN
 10
5.959657
 20
8.999368
 30
0.0
  0
VERTEX
  8
HIDDEN
 10
6.079234
 20
9.118945
 30
0.0
 42
13.14017
  0
VERTEX
  8
HIDDEN
 10
6.056606
 20
9.141572
 30
0.0
  0
VERTEX
  8
HIDDEN
 10
5.93689
 20
9.021856
 30
0.0
  0
SEQEND
  8
HIDDEN
  0
CIRCLE
  8
HIDDEN
 10
6.141822
 20
9.20416
 30
0.0
 40
0.045
  0
POLYLINE
  8
HIDDEN
 66
     1
 10
0.0
 20
0.0
 30
0.0
  0
VERTEX
  8
HIDDEN
 10
10.172201
 20
8.999368
 30
0.0
  0
VERTEX
  8
HIDDEN
 10
10.052624
 20
9.118945
 30
0.0
 42
-13.14017
  0
VERTEX
  8
HIDDEN
 10
10.075252
 20
9.141572
 30
0.0
  0
VERTEX
  8
HIDDEN
 10
10.194968
 20
9.021856
 30
0.0
  0
SEQEND
  8
HIDDEN
  0
CIRCLE
  8
HIDDEN
 10
9.990037
 20
9.20416
 30
0.0
 40
0.045
  0
POLYLINE
  8
HIDDEN
 66
     1
 10
0.0
 20
0.0
 30
0.0
 70
     1
  0
VERTEX
  8
HIDDEN
 10
10.199529
 20
9.042053
 30
0.0
 42
-0.414214
  0
VERTEX
  8
HIDDEN
 10
10.152529
 20
8.995053
 30
0.0
  0
VERTEX
  8
HIDDEN
 10
5.979329
 20
8.995053
 30
0.0
 42
-0.414214
  0
VERTEX
  8
HIDDEN
 10
5.932329
 20
9.042053
 30
0.0
  0
VERTEX
  8
HIDDEN
 10
5.932329
 20
11.96473
 30
0.0
 42
-0.414214
  0
VERTEX
  8
HIDDEN
 10
5.979329
 20
12.01173
 30
0.0
  0
VERTEX
  8
HIDDEN
 10
10.152529
 20
12.01173
 30
0.0
 42
-0.414214
  0
VERTEX
  8
HIDDEN
 10
10.199529
 20
11.96473
 30
0.0
  0
SEQEND
  8
HIDDEN
  0
DIMENSION
  8
DIM
  6
CONTINUOUS
  2
*D4
 10
6.141822
 20
4.389625
 30
0.0
 11
8.065929
 21
4.389625
 31
0.0
 12
-4.666527
 22
-16.945013
 32
0.0
 13
9.990037
 23
3.702518
 33
0.0
 14
6.141822
 24
3.702518
 34
0.0
  3
23NSTD
  0
DIMENSION
  8
DIM
  6
CONTINUOUS
  2
*D5
 10
5.829329
 20
4.389625
 30
0.0
 11
4.908235
 21
4.389625
 31
0.0
 12
-4.666527
 22
-16.945013
 32
0.0
 13
6.141822
 23
3.702518
 33
0.0
 14
5.829329
 24
3.864625
 34
0.0
  3
23NSTD
  0
DIMENSION
  8
DIM
  6
CONTINUOUS
  2
*D16
 10
5.249641
 20
3.702518
 30
0.0
 11
5.249641
 21
2.403287
 31
0.0
 12
-4.666527
 22
-16.945013
 32
0.0
 13
6.141822
 23
1.104055
 33
0.0
 14
6.141822
 24
3.702518
 34
0.0
 50
90.0
  3
23NSTD
  0
DIMENSION
  8
DIM
  6
CONTINUOUS
  2
*D15
 10
5.249641
 20
0.791949
 30
0.0
 11
5.249641
 21
0.948002
 31
0.0
 12
-4.666527
 22
-16.945013
 32
0.0
 13
6.141822
 23
1.104055
 33
0.0
 14
5.979329
 24
0.791949
 34
0.0
 50
90.0
  3
23NSTDI
  0
TEXT
  8
DIM
 10
11.376378
 20
4.306217
 30
0.0
 40
0.1875
  1
(4) HOLES
 41
0.75
 11
11.376378
 21
4.399967
 31
0.0
 73
     2
  0
TEXT
  8
DIM
 10
11.376378
 20
4.618717
 30
0.0
 40
0.1875
  1
0.090 DIA. x 0.500 DEEP
 41
0.75
 11
11.376378
 21
4.712467
 31
0.0
 73
     2
  0
TEXT
  8
DIM
 10
11.35545
 20
3.845414
 30
0.0
 40
0.1875
  1
0.180 DIA. BOSS
 41
0.75
 11
11.35545
 21
3.939164
 31
0.0
 73
     2
  0
TEXT
  8
DIM
 10
11.35545
 20
3.532914
 30
0.0
 40
0.1875
  1
(4) PLACES
 41
0.75
 11
11.35545
 21
3.626664
 31
0.0
 73
     2
  0
POLYLINE
  8
DIM
 66
     1
 10
0.0
 20
0.0
 30
0.0
 41
0.10125
  0
VERTEX
  8
DIM
 10
10.094607
 20
3.686901
 30
0.0
  0
VERTEX
  8
DIM
 10
10.353591
 20
3.763237
 30
0.0
 41
0.0
  0
VERTEX
  8
DIM
 10
10.95045
 20
3.939164
 30
0.0
 41
0.0
  0
VERTEX
  8
DIM
 10
11.22045
 20
3.939164
 30
0.0
 41
0.0
  0
SEQEND
  8
DIM
  0
POLYLINE
  8
DIM
 66
     1
 10
0.0
 20
0.0
 30
0.0
 41
0.10125
  0
VERTEX
  8
DIM
 10
10.014594
 20
3.740227
 30
0.0
  0
VERTEX
  8
DIM
 10
10.203977
 20
3.932669
 30
0.0
 41
0.0
  0
VERTEX
  8
DIM
 10
10.971378
 20
4.712467
 30
0.0
 41
0.0
  0
VERTEX
  8
DIM
 10
11.241378
 20
4.712467
 30
0.0
 41
0.0
  0
SEQEND
  8
DIM
  0
DIMENSION
  8
DIM
  2
*D6
 10
1.754572
 20
8.074778
 30
0.0
 11
3.317297
 21
8.074778
 31
0.0
 12
-2.550007
 22
-17.083452
 32
0.0
 13
4.880023
 23
7.553704
 33
0.0
 14
1.754572
 24
7.553704
 34
0.0
  3
23NSTD
  0
DIMENSION
  8
DIM
  2
*D28
 10
0.910959
 20
7.699778
 30
0.0
 11
0.910959
 21
6.698528
 31
0.0
 12
0.0
 22
-0.293472
 32
0.0
 13
1.705959
 23
5.697278
 33
0.0
 14
1.90452
 24
7.699778
 34
0.0
 50
90.0
  3
23NSTD
  0
DIMENSION
  8
DIM
  2
*D27
 10
1.332459
 20
5.697278
 30
0.0
 11
0.704803
 21
5.157278
 31
0.0
 12
0.0
 22
-0.293472
 32
0.0
 13
1.755959
 23
5.797278
 33
0.0
 14
1.705959
 24
5.697278
 34
0.0
 50
270.0
  3
23NSTD
  0
DIMENSION
  8
DIM
  2
*D7
 10
1.705959
 20
5.322278
 30
0.0
 11
3.317297
 21
5.322278
 31
0.0
 12
-2.550007
 22
-17.083452
 32
0.0
 13
4.928636
 23
5.697278
 33
0.0
 14
1.705959
 24
5.697278
 34
0.0
  3
23NSTD
  0
DIMENSION
  8
DIM
  2
*D8
 10
1.705959
 20
5.697278
 30
0.0
 11
2.951196
 21
8.429401
 31
0.0
 12
-2.550007
 22
-17.083452
 32
0.0
 70
   130
  1
<> REF.
 13
1.705959
 23
5.697278
 33
0.0
 14
1.705959
 24
6.023833
 34
0.0
 15
1.729527
 25
6.597278
 35
0.0
 16
1.727762
 26
8.496278
 36
0.0
  3
23NSTD
  0
DIMENSION
  8
DIM
  6
CONTINUOUS
  2
*D9
 10
10.270507
 20
6.920144
 30
0.0
 11
11.472666
 21
6.934279
 31
0.0
 12
-4.666527
 22
-17.083452
 32
0.0
 70
     1
  1
<> TYP.
 13
10.172191
 23
6.854548
 33
0.0
 14
10.272156
 24
6.857165
 34
0.0
  3
23NSTD
  0
DIMENSION
  8
DIM
  6
CONTINUOUS
  2
*D21
 10
5.87671
 20
5.322278
 30
0.0
 11
7.11421
 21
5.322278
 31
0.0
 12
-4.666527
 22
-17.083452
 32
0.0
  1
<> TYP.
 13
5.829329
 23
5.697278
 33
0.0
 14
5.87671
 24
5.697278
 34
0.0
  3
23NSTD
  0
DIMENSION
  8
DIM
  6
CONTINUOUS
  2
*D10
 10
9.594896
 20
5.697278
 30
0.0
 11
8.96724
 21
5.157278
 31
0.0
 12
-4.666527
 22
-17.083452
 32
0.0
 13
9.899906
 23
5.812278
 33
0.0
 14
10.302529
 24
5.697278
 34
0.0
 50
90.0
  3
23NSTD
  0
LINE
  8
OBJECT
 10
5.834226
 20
5.884278
 30
0.0
 11
10.297632
 21
5.884278
 31
0.0
  0
LINE
  8
OBJECT
 10
1.710856
 20
5.884278
 30
0.0
 11
4.923739
 21
5.884278
 31
0.0
  0
TEXT
  8
DIM
 10
11.138683
 20
10.635783
 30
0.0
 40
0.1875
  1
INSERT AREA
 41
0.75
 11
11.138683
 21
10.729533
 31
0.0
 73
     2
  0
POLYLINE
  8
DIM
 66
     1
 10
0.0
 20
0.0
 30
0.0
 41
0.10125
  0
VERTEX
  8
DIM
 10
9.28098
 20
10.301343
 30
0.0
  0
VERTEX
  8
DIM
 10
9.539964
 20
10.377679
 30
0.0
 41
0.0
  0
VERTEX
  8
DIM
 10
10.733683
 20
10.729533
 30
0.0
 41
0.0
  0
VERTEX
  8
DIM
 10
11.003683
 20
10.729533
 30
0.0
 41
0.0
  0
SEQEND
  8
DIM
  0
TEXT
  8
DIM
 10
15.209844
 20
2.341382
 30
0.0
 40
0.1875
  1
(4) PLACES
 41
0.75
 72
     2
 11
16.475469
 21
2.435132
 31
0.0
 73
     2
  0
TEXT
  8
DIM
 10
12.959844
 20
2.653882
 30
0.0
 40
0.1875
  1
& C'SINK. TO 0.224 DIA. x 82%%d
 41
0.75
 72
     2
 11
16.475469
 21
2.747632
 31
0.0
 73
     2
  0
TEXT
  8
DIM
 10
14.717656
 20
2.966382
 30
0.0
 40
0.1875
  1
0.139 DIA. HOLE
 41
0.75
 72
     2
 11
16.475469
 21
3.060132
 31
0.0
 73
     2
  0
POLYLINE
  8
DIM
 66
     1
 10
0.0
 20
0.0
 30
0.0
 41
0.10125
  0
VERTEX
  8
DIM
 10
17.352277
 20
3.595081
 30
0.0
  0
VERTEX
  8
DIM
 10
17.173683
 20
3.392587
 30
0.0
 41
0.0
  0
VERTEX
  8
DIM
 10
16.880469
 20
3.060132
 30
0.0
 41
0.0
  0
VERTEX
  8
DIM
 10
16.610469
 20
3.060132
 30
0.0
 41
0.0
  0
SEQEND
  8
DIM
  0
POLYLINE
  8
OBJECT
 66
     1
 10
0.0
 20
0.0
 30
0.0
 70
     1
  0
VERTEX
  8
OBJECT
 10
17.235267
 20
0.844287
 30
0.0
 42
-0.414214
  0
VERTEX
  8
OBJECT
 10
17.135267
 20
0.944287
 30
0.0
  0
VERTEX
  8
OBJECT
 10
17.135267
 20
3.862287
 30
0.0
 42
-0.414214
  0
VERTEX
  8
OBJECT
 10
17.235267
 20
3.962287
 30
0.0
  0
VERTEX
  8
OBJECT
 10
21.408267
 20
3.962287
 30
0.0
 42
-0.414214
  0
VERTEX
  8
OBJECT
 10
21.508267
 20
3.862287
 30
0.0
  0
VERTEX
  8
OBJECT
 10
21.508267
 20
0.944287
 30
0.0
 42
-0.414214
  0
VERTEX
  8
OBJECT
 10
21.408267
 20
0.844287
 30
0.0
  0
SEQEND
  8
OBJECT
  0
DIMENSION
  8
DIM
  2
*D26
 10
22.643793
 20
3.962287
 30
0.0
 11
22.643793
 21
2.403287
 31
0.0
 12
0.0
 22
-0.402991
 32
0.0
 13
21.408267
 23
0.844287
 33
0.0
 14
21.408267
 24
3.962287
 34
0.0
 50
90.0
  3
23NSTD
  0
DIMENSION
  8
DIM
  2
*D19
 10
21.508267
 20
4.804287
 30
0.0
 11
19.321767
 21
4.804287
 31
0.0
 12
-8.187913
 22
-17.192971
 32
0.0
 13
17.135267
 23
3.862287
 33
0.0
 14
21.508267
 24
3.862287
 34
0.0
  3
23NSTD
  0
DIMENSION
  8
DIM
  2
*D18
 10
21.245767
 20
4.382787
 30
0.0
 11
19.321767
 21
4.382787
 31
0.0
 12
-8.187913
 22
-17.192971
 32
0.0
 13
17.397767
 23
3.702287
 33
0.0
 14
21.245767
 24
3.702287
 34
0.0
  3
23NSTD
  0
POLYLINE
  8
OBJECT
 66
     1
 10
0.0
 20
0.0
 30
0.0
 70
     1
  0
VERTEX
  8
OBJECT
 10
17.235267
 20
6.922823
 30
0.0
 42
-0.414214
  0
VERTEX
  8
OBJECT
 10
17.135267
 20
7.022823
 30
0.0
  0
VERTEX
  8
OBJECT
 10
17.135267
 20
9.940823
 30
0.0
 42
-0.414214
  0
VERTEX
  8
OBJECT
 10
17.235267
 20
10.040823
 30
0.0
  0
VERTEX
  8
OBJECT
 10
21.408267
 20
10.040823
 30
0.0
 42
-0.414214
  0
VERTEX
  8
OBJECT
 10
21.508267
 20
9.940823
 30
0.0
  0
VERTEX
  8
OBJECT
 10
21.508267
 20
7.022823
 30
0.0
 42
-0.414214
  0
VERTEX
  8
OBJECT
 10
21.408267
 20
6.922823
 30
0.0
  0
SEQEND
  8
OBJECT
  0
DIMENSION
  8
DIM
  2
*D24
 10
21.943293
 20
3.702287
 30
0.0
 11
21.943293
 21
2.403287
 31
0.0
 12
0.0
 22
-0.402991
 32
0.0
 13
21.245767
 23
1.104287
 33
0.0
 14
21.245767
 24
3.702287
 34
0.0
 50
90.0
  3
23NSTD
  0
DIMENSION
  8
DIM
  6
CONTINUOUS
  2
*D20
 10
17.135267
 20
4.382787
 30
0.0
 11
16.190735
 21
4.382787
 31
0.0
 12
-8.187913
 22
-17.192971
 32
0.0
 13
17.397767
 23
3.702287
 33
0.0
 14
17.135267
 24
3.862287
 34
0.0
  3
23NSTD
  0
DIMENSION
  8
DIM
  6
CONTINUOUS
  2
*D25
 10
21.943293
 20
3.962287
 30
0.0
 11
22.606105
 21
4.502287
 31
0.0
 12
0.0
 22
-0.402991
 32
0.0
 13
21.245767
 23
3.702287
 33
0.0
 14
21.408267
 24
3.962287
 34
0.0
 50
90.0
  3
23NSTD
  0
POLYLINE
  8
OBJECT
 66
     1
 10
0.0
 20
0.0
 30
0.0
 70
     1
  0
VERTEX
  8
OBJECT
 10
16.167413
 20
5.787278
 30
0.0
  0
VERTEX
  8
OBJECT
 10
13.054126
 20
5.787278
 30
0.0
  0
VERTEX
  8
OBJECT
 10
13.051769
 20
5.697278
 30
0.0
  0
VERTEX
  8
OBJECT
 10
16.169769
 20
5.697278
 30
0.0
  0
SEQEND
  8
OBJECT
  0
POLYLINE
  8
OBJECT
 66
     1
 10
0.0
 20
0.0
 30
0.0
  0
VERTEX
  8
OBJECT
 10
13.103769
 20
5.787278
 30
0.0
  0
VERTEX
  8
OBJECT
 10
13.103769
 20
5.797278
 30
0.0
  0
VERTEX
  8
OBJECT
 10
16.117769
 20
5.797278
 30
0.0
  0
VERTEX
  8
OBJECT
 10
16.117769
 20
5.787278
 30
0.0
  0
SEQEND
  8
OBJECT
  0
POLYLINE
  8
OBJECT
 66
     1
 10
0.0
 20
0.0
 30
0.0
 70
     1
  0
VERTEX
  8
OBJECT
 10
21.508267
 20
5.787278
 30
0.0
  0
VERTEX
  8
OBJECT
 10
17.137623
 20
5.787278
 30
0.0
  0
VERTEX
  8
OBJECT
 10
17.135267
 20
5.697278
 30
0.0
  0
VERTEX
  8
OBJECT
 10
21.510623
 20
5.697278
 30
0.0
  0
SEQEND
  8
OBJECT
  0
POLYLINE
  8
OBJECT
 66
     1
 10
0.0
 20
0.0
 30
0.0
  0
VERTEX
  8
OBJECT
 10
17.187267
 20
5.787278
 30
0.0
  0
VERTEX
  8
OBJECT
 10
17.187267
 20
5.797278
 30
0.0
  0
VERTEX
  8
OBJECT
 10
21.456267
 20
5.797278
 30
0.0
  0
VERTEX
  8
OBJECT
 10
21.456267
 20
5.787278
 30
0.0
  0
SEQEND
  8
OBJECT
  0
LINE
  8
HIDDEN
 10
15.840409
 20
5.797278
 30
0.0
 11
15.797769
 21
5.748227
 31
0.0
  0
LINE
  8
HIDDEN
 10
15.97913
 20
5.797278
 30
0.0
 11
16.021769
 21
5.748227
 31
0.0
  0
LINE
  8
HIDDEN
 10
13.38113
 20
5.797278
 30
0.0
 11
13.423769
 21
5.748227
 31
0.0
  0
LINE
  8
HIDDEN
 10
13.242409
 20
5.797278
 30
0.0
 11
13.199769
 21
5.748227
 31
0.0
  0
LINE
  8
HIDDEN
 10
13.423769
 20
5.748227
 30
0.0
 11
13.199769
 21
5.748227
 31
0.0
  0
LINE
  8
HIDDEN
 10
13.199769
 20
5.748227
 30
0.0
 11
13.195312
 21
5.697278
 31
0.0
  0
LINE
  8
HIDDEN
 10
13.423769
 20
5.748227
 30
0.0
 11
13.428227
 21
5.697278
 31
0.0
  0
LINE
  8
HIDDEN
 10
15.797769
 20
5.748227
 30
0.0
 11
15.793312
 21
5.697278
 31
0.0
  0
LINE
  8
HIDDEN
 10
16.021769
 20
5.748227
 30
0.0
 11
16.026227
 21
5.697278
 31
0.0
  0
LINE
  8
HIDDEN
 10
15.797769
 20
5.748227
 30
0.0
 11
16.021769
 21
5.748227
 31
0.0
  0
LINE
  8
HIDDEN
 10
17.330763
 20
5.797278
 30
0.0
 11
17.288123
 21
5.748227
 31
0.0
  0
LINE
  8
HIDDEN
 10
17.469484
 20
5.797278
 30
0.0
 11
17.512123
 21
5.748227
 31
0.0
  0
LINE
  8
HIDDEN
 10
17.512123
 20
5.748227
 30
0.0
 11
17.288123
 21
5.748227
 31
0.0
  0
LINE
  8
HIDDEN
 10
17.288123
 20
5.748227
 30
0.0
 11
17.283666
 21
5.697278
 31
0.0
  0
LINE
  8
HIDDEN
 10
17.512123
 20
5.748227
 30
0.0
 11
17.516581
 21
5.697278
 31
0.0
  0
LINE
  8
HIDDEN
 10
21.176406
 20
5.797278
 30
0.0
 11
21.133767
 21
5.748227
 31
0.0
  0
LINE
  8
HIDDEN
 10
21.315127
 20
5.797278
 30
0.0
 11
21.357767
 21
5.748227
 31
0.0
  0
LINE
  8
HIDDEN
 10
21.133767
 20
5.748227
 30
0.0
 11
21.357767
 21
5.748227
 31
0.0
  0
LINE
  8
HIDDEN
 10
21.133767
 20
5.748227
 30
0.0
 11
21.129309
 21
5.697278
 31
0.0
  0
LINE
  8
HIDDEN
 10
21.357767
 20
5.748227
 30
0.0
 11
21.362224
 21
5.697278
 31
0.0
  0
CIRCLE
  8
OBJECT
 10
21.245767
 20
1.104287
 30
0.0
 40
0.112
  0
CIRCLE
  8
OBJECT
 10
21.245767
 20
1.104287
 30
0.0
 40
0.116457
  0
CIRCLE
  8
OBJECT
 10
21.245767
 20
1.104287
 30
0.0
 40
0.069361
  0
CIRCLE
  8
OBJECT
 10
21.245767
 20
3.702287
 30
0.0
 40
0.112
  0
CIRCLE
  8
OBJECT
 10
21.245767
 20
3.702287
 30
0.0
 40
0.069361
  0
CIRCLE
  8
OBJECT
 10
21.245767
 20
3.702287
 30
0.0
 40
0.116457
  0
CIRCLE
  8
OBJECT
 10
17.397767
 20
1.104287
 30
0.0
 40
0.112
  0
CIRCLE
  8
OBJECT
 10
17.397767
 20
1.104287
 30
0.0
 40
0.069361
  0
CIRCLE
  8
OBJECT
 10
17.397767
 20
1.104287
 30
0.0
 40
0.116457
  0
CIRCLE
  8
OBJECT
 10
17.397767
 20
3.702287
 30
0.0
 40
0.116457
  0
CIRCLE
  8
OBJECT
 10
17.397767
 20
3.702287
 30
0.0
 40
0.069361
  0
CIRCLE
  8
OBJECT
 10
17.397767
 20
3.702287
 30
0.0
 40
0.112
  0
CIRCLE
  8
HIDDEN
 10
17.397767
 20
9.780823
 30
0.0
 40
0.112
  0
CIRCLE
  8
HIDDEN
 10
17.397767
 20
9.780823
 30
0.0
 40
0.116457
  0
CIRCLE
  8
OBJECT
 10
17.397767
 20
9.780823
 30
0.0
 40
0.069361
  0
CIRCLE
  8
HIDDEN
 10
21.245767
 20
9.780823
 30
0.0
 40
0.116457
  0
CIRCLE
  8
HIDDEN
 10
21.245767
 20
9.780823
 30
0.0
 40
0.112
  0
CIRCLE
  8
OBJECT
 10
21.245767
 20
9.780823
 30
0.0
 40
0.069361
  0
CIRCLE
  8
HIDDEN
 10
17.397767
 20
7.182823
 30
0.0
 40
0.116457
  0
CIRCLE
  8
HIDDEN
 10
17.397767
 20
7.182823
 30
0.0
 40
0.112
  0
CIRCLE
  8
OBJECT
 10
17.397767
 20
7.182823
 30
0.0
 40
0.069361
  0
CIRCLE
  8
HIDDEN
 10
21.245767
 20
7.182823
 30
0.0
 40
0.112
  0
CIRCLE
  8
HIDDEN
 10
21.245767
 20
7.182823
 30
0.0
 40
0.116457
  0
CIRCLE
  8
OBJECT
 10
21.245767
 20
7.182823
 30
0.0
 40
0.069361
  0
DIMENSION
  8
DIM
  6
CONTINUOUS
  2
*D23
 10
17.135267
 20
8.441039
 30
0.0
 11
15.897767
 21
8.441039
 31
0.0
 12
0.066116
 22
-17.782407
 32
0.0
  1
<> TYP.
 13
17.187267
 23
8.535539
 33
0.0
 14
17.135267
 24
8.535539
 34
0.0
  3
23NSTD
  0
POLYLINE
  8
OBJECT
 66
     1
 10
0.0
 20
0.0
 30
0.0
 70
     1
  0
VERTEX
  8
OBJECT
 10
17.235267
 20
6.974823
 30
0.0
 42
-0.414214
  0
VERTEX
  8
OBJECT
 10
17.187267
 20
7.022823
 30
0.0
  0
VERTEX
  8
OBJECT
 10
17.187267
 20
9.940823
 30
0.0
 42
-0.414214
  0
VERTEX
  8
OBJECT
 10
17.235267
 20
9.988823
 30
0.0
  0
VERTEX
  8
OBJECT
 10
21.408267
 20
9.988823
 30
0.0
 42
-0.414214
  0
VERTEX
  8
OBJECT
 10
21.456267
 20
9.940823
 30
0.0
  0
VERTEX
  8
OBJECT
 10
21.456267
 20
7.022823
 30
0.0
 42
-0.414214
  0
VERTEX
  8
OBJECT
 10
21.408267
 20
6.974823
 30
0.0
  0
SEQEND
  8
OBJECT
  0
POLYLINE
  8
HIDDEN
 66
     1
 10
0.0
 20
0.0
 30
0.0
 70
     1
  0
VERTEX
  8
HIDDEN
 10
17.235267
 20
0.896287
 30
0.0
 42
-0.414214
  0
VERTEX
  8
HIDDEN
 10
17.187267
 20
0.944287
 30
0.0
  0
VERTEX
  8
HIDDEN
 10
17.187267
 20
3.862287
 30
0.0
 42
-0.414214
  0
VERTEX
  8
HIDDEN
 10
17.235267
 20
3.910287
 30
0.0
  0
VERTEX
  8
HIDDEN
 10
21.408267
 20
3.910287
 30
0.0
 42
-0.414214
  0
VERTEX
  8
HIDDEN
 10
21.456267
 20
3.862287
 30
0.0
  0
VERTEX
  8
HIDDEN
 10
21.456267
 20
0.944287
 30
0.0
 42
-0.414214
  0
VERTEX
  8
HIDDEN
 10
21.408267
 20
0.896287
 30
0.0
  0
SEQEND
  8
HIDDEN
  0
DIMENSION
  8
DIM
  2
*D13
 10
16.761769
 20
5.787278
 30
0.0
 11
16.098957
 21
5.247278
 31
0.0
 12
-11.546824
 22
-5.250625
 32
0.0
 13
16.117769
 23
6.047278
 33
0.0
 14
16.167413
 24
5.787278
 34
0.0
 50
270.0
  3
23NSTD
  0
POLYLINE
  8
OBJECT
 66
     1
 10
0.0
 20
0.0
 30
0.0
  0
VERTEX
  8
OBJECT
 10
16.117769
 20
5.797278
 30
0.0
  0
VERTEX
  8
OBJECT
 10
16.117769
 20
6.047278
 30
0.0
  0
VERTEX
  8
OBJECT
 10
16.022769
 20
6.047278
 30
0.0
  0
VERTEX
  8
OBJECT
 10
16.022769
 20
5.797278
 30
0.0
  0
SEQEND
  8
OBJECT
  0
DIMENSION
  8
DIM
  2
*D14
 10
16.022769
 20
6.337278
 30
0.0
 11
15.089957
 21
6.337278
 31
0.0
 12
-11.546824
 22
-5.250625
 32
0.0
 13
16.117769
 23
6.047278
 33
0.0
 14
16.022769
 24
6.047278
 34
0.0
 50
180.0
  3
23NSTD
  0
DIMENSION
  8
DIM
  2
*D11
 10
19.446767
 20
6.591129
 30
0.0
 11
20.379579
 21
6.591129
 31
0.0
 12
-11.882023
 22
-4.910066
 32
0.0
 13
19.196767
 23
6.974823
 33
0.0
 14
19.446767
 24
6.974823
 34
0.0
 50
180.0
  3
23NSTD
  0
POLYLINE
  8
OBJECT
 66
     1
 10
0.0
 20
0.0
 30
0.0
  0
VERTEX
  8
OBJECT
 10
19.196767
 20
6.974823
 30
0.0
  0
VERTEX
  8
OBJECT
 10
19.196767
 20
7.069823
 30
0.0
  0
VERTEX
  8
OBJECT
 10
19.446767
 20
7.069823
 30
0.0
  0
VERTEX
  8
OBJECT
 10
19.446767
 20
6.974823
 30
0.0
  0
SEQEND
  8
OBJECT
  0
POLYLINE
  8
OBJECT
 66
     1
 10
0.0
 20
0.0
 30
0.0
  0
VERTEX
  8
OBJECT
 10
19.196767
 20
5.797278
 30
0.0
  0
VERTEX
  8
OBJECT
 10
19.196767
 20
5.922278
 30
0.0
 42
-1.0
  0
VERTEX
  8
OBJECT
 10
19.446767
 20
5.922278
 30
0.0
  0
VERTEX
  8
OBJECT
 10
19.446767
 20
5.797278
 30
0.0
  0
SEQEND
  8
OBJECT
  0
DIMENSION
  8
DIM
  2
*D12
 10
22.036671
 20
5.797278
 30
0.0
 11
22.664328
 21
6.337278
 31
0.0
 12
-11.882023
 22
-5.250625
 32
0.0
 13
21.510623
 23
5.697278
 33
0.0
 14
21.456267
 24
5.797278
 34
0.0
 50
90.0
  3
23NSTD
  0
POLYLINE
  8
HIDDEN
 66
     1
 10
0.0
 20
0.0
 30
0.0
  0
VERTEX
  8
HIDDEN
 10
5.959657
 20
12.007415
 30
0.0
  0
VERTEX
  8
HIDDEN
 10
6.079234
 20
11.887838
 30
0.0
 42
-13.14017
  0
VERTEX
  8
HIDDEN
 10
6.056606
 20
11.865211
 30
0.0
  0
VERTEX
  8
HIDDEN
 10
5.93689
 20
11.984927
 30
0.0
  0
SEQEND
  8
HIDDEN
  0
CIRCLE
  8
HIDDEN
 10
6.141822
 20
11.802623
 30
0.0
 40
0.045
  0
POLYLINE
  8
HIDDEN
 66
     1
 10
0.0
 20
0.0
 30
0.0
  0
VERTEX
  8
HIDDEN
 10
10.172201
 20
12.007415
 30
0.0
  0
VERTEX
  8
HIDDEN
 10
10.052624
 20
11.887838
 30
0.0
 42
13.14017
  0
VERTEX
  8
HIDDEN
 10
10.075252
 20
11.865211
 30
0.0
  0
VERTEX
  8
HIDDEN
 10
10.194968
 20
11.984927
 30
0.0
  0
SEQEND
  8
HIDDEN
  0
CIRCLE
  8
HIDDEN
 10
9.990037
 20
11.802623
 30
0.0
 40
0.045
  0
TEXT
  8
TEXT
 10
1.549868
 20
12.798118
 30
0.0
 40
0.1875
  1
WITH TEXTURED INSERT AREA.
 41
0.75
  0
ENDSEC
  0
EOF
