  0
SECTION
  2
HEADER
  9
$ACADVER
  1
AC1009
  9
$INSBASE
 10
0.0
 20
0.0
 30
0.0
  9
$EXTMIN
 10
0.0
 20
0.0
 30
0.0
  9
$EXTMAX
 10
23.25
 20
15.18
 30
0.0
  9
$LIMMIN
 10
0.0
 20
0.0
  9
$LIMMAX
 10
23.25
 20
15.18
  9
$ORTHOMODE
 70
     1
  9
$REGENMODE
 70
     1
  9
$FILLMODE
 70
     1
  9
$QTEXTMODE
 70
     0
  9
$MIRRTEXT
 70
     0
  9
$DRAGMODE
 70
     2
  9
$LTSCALE
 40
0.375
  9
$OSMODE
 70
     1
  9
$ATTMODE
 70
     1
  9
$TEXTSIZE
 40
0.188
  9
$TRACEWID
 40
0.05
  9
$TEXTSTYLE
  7
TXT
  9
$CLAYER
  8
DIM
  9
$CELTYPE
  6
BYLAYER
  9
$CECOLOR
 62
   256
  9
$DIMSCALE
 40
1.5
  9
$DIMASZ
 40
0.18
  9
$DIMEXO
 40
0.063
  9
$DIMDLI
 40
0.281
  9
$DIMRND
 40
0.0
  9
$DIMDLE
 40
0.0
  9
$DIMEXE
 40
0.093
  9
$DIMTP
 40
0.0
  9
$DIMTM
 40
0.0
  9
$DIMTXT
 40
0.125
  9
$DIMCEN
 40
0.09
  9
$DIMTSZ
 40
0.0
  9
$DIMTOL
 70
     0
  9
$DIMLIM
 70
     0
  9
$DIMTIH
 70
     1
  9
$DIMTOH
 70
     1
  9
$DIMSE1
 70
     0
  9
$DIMSE2
 70
     0
  9
$DIMTAD
 70
     0
  9
$DIMZIN
 70
     0
  9
$DIMBLK
  1

  9
$DIMASO
 70
     1
  9
$DIMSHO
 70
     1
  9
$DIMPOST
  1

  9
$DIMAPOST
  1

  9
$DIMALT
 70
     0
  9
$DIMALTD
 70
     2
  9
$DIMALTF
 40
25.4
  9
$DIMLFAC
 40
1.0
  9
$DIMTOFL
 70
     0
  9
$DIMTVP
 40
0.0
  9
$DIMTIX
 70
     0
  9
$DIMSOXD
 70
     0
  9
$DIMSAH
 70
     0
  9
$DIMBLK1
  1

  9
$DIMBLK2
  1

  9
$DIMSTYLE
  2
23NSTD
  9
$DIMCLRD
 70
     0
  9
$DIMCLRE
 70
     0
  9
$DIMCLRT
 70
     0
  9
$DIMTFAC
 40
1.0
  9
$DIMGAP
 40
0.09
  9
$LUNITS
 70
     2
  9
$LUPREC
 70
     3
  9
$SKETCHINC
 40
0.1
  9
$FILLETRAD
 40
0.0
  9
$AUNITS
 70
     1
  9
$AUPREC
 70
     1
  9
$MENU
  1
acad
  9
$ELEVATION
 40
0.0
  9
$PELEVATION
 40
0.0
  9
$THICKNESS
 40
0.0
  9
$LIMCHECK
 70
     0
  9
$BLIPMODE
 70
     1
  9
$CHAMFERA
 40
0.0
  9
$CHAMFERB
 40
0.0
  9
$SKPOLY
 70
     0
  9
$TDCREATE
 40
2450757.476046990
  9
$TDUPDATE
 40
2450757.568472453
  9
$TDINDWG
 40
0.0070246528
  9
$TDUSRTIMER
 40
0.0070246528
  9
$USRTIMER
 70
     1
  9
$ANGBASE
 50
0.0
  9
$ANGDIR
 70
     0
  9
$PDMODE
 70
     0
  9
$PDSIZE
 40
0.0
  9
$PLINEWID
 40
0.0
  9
$COORDS
 70
     0
  9
$SPLFRAME
 70
     0
  9
$SPLINETYPE
 70
     6
  9
$SPLINESEGS
 70
     8
  9
$ATTDIA
 70
     0
  9
$ATTREQ
 70
     1
  9
$HANDLING
 70
     0
  9
$HANDSEED
  5
0
  9
$SURFTAB1
 70
     6
  9
$SURFTAB2
 70
     6
  9
$SURFTYPE
 70
     6
  9
$SURFU
 70
     6
  9
$SURFV
 70
     6
  9
$UCSNAME
  2

  9
$UCSORG
 10
0.0
 20
0.0
 30
0.0
  9
$UCSXDIR
 10
1.0
 20
0.0
 30
0.0
  9
$UCSYDIR
 10
0.0
 20
1.0
 30
0.0
  9
$PUCSNAME
  2

  9
$PUCSORG
 10
0.0
 20
0.0
 30
0.0
  9
$PUCSXDIR
 10
1.0
 20
0.0
 30
0.0
  9
$PUCSYDIR
 10
0.0
 20
1.0
 30
0.0
  9
$USERI1
 70
     0
  9
$USERI2
 70
     0
  9
$USERI3
 70
     0
  9
$USERI4
 70
     0
  9
$USERI5
 70
     0
  9
$USERR1
 40
0.0
  9
$USERR2
 40
0.0
  9
$USERR3
 40
0.0
  9
$USERR4
 40
0.0
  9
$USERR5
 40
0.0
  9
$WORLDVIEW
 70
     1
  9
$SHADEDGE
 70
     3
  9
$SHADEDIF
 70
    70
  9
$TILEMODE
 70
     1
  9
$MAXACTVP
 70
    16
  9
$PINSBASE
 10
-3.100979
 20
50.0
 30
10.277186
  9
$PLIMCHECK
 70
     0
  9
$PEXTMIN
 10
1.000000E+20
 20
1.000000E+20
 30
1.000000E+20
  9
$PEXTMAX
 10
-1.000000E+20
 20
-1.000000E+20
 30
-1.000000E+20
  9
$PLIMMIN
 10
0.0
 20
0.0
  9
$PLIMMAX
 10
12.0
 20
9.0
  9
$UNITMODE
 70
     0
  9
$VISRETAIN
 70
     0
  9
$PLINEGEN
 70
     0
  9
$PSLTSCALE
 70
     0
  9
$TREEDEPTH
 70
  3020
  9
$DWGCODEPAGE
  3
undefined
  0
ENDSEC
  0
SECTION
  2
TABLES
  0
TABLE
  2
VPORT
 70
     2
  0
VPORT
  2
*ACTIVE
 70
     0
 10
0.0
 20
0.0
 11
1.0
 21
1.0
 12
11.625
 22
8.533115
 13
0.0
 23
0.0
 14
1.0
 24
1.0
 15
0.5
 25
0.5
 16
0.0
 26
0.0
 36
1.0
 17
0.0
 27
0.0
 37
0.0
 40
17.06623
 41
1.36234
 42
50.0
 43
0.0
 44
0.0
 50
0.0
 51
0.0
 71
     0
 72
   100
 73
     1
 74
     0
 75
     0
 76
     0
 77
     0
 78
     0
  0
ENDTAB
  0
TABLE
  2
LTYPE
 70
     4
  0
LTYPE
  2
CONTINUOUS
 70
    64
  3
Solid line
 72
    65
 73
     0
 40
0.0
  0
LTYPE
  2
HIDDEN
 70
    64
  3
_ _ _ _ _ _ _ _ _ _ _ _ _ _ _ _ _ _ _ _ _ _ _
 72
    65
 73
     2
 40
0.375
 49
0.25
 49
-0.125
  0
LTYPE
  2
CENTER
 70
    64
  3
____ _ ____ _ ____ _ ____ _ ____ _ ____ _ ____
 72
    65
 73
     4
 40
2.0
 49
1.25
 49
-0.25
 49
0.25
 49
-0.25
  0
LTYPE
  2
PHANTOM
 70
    64
  3
_____ _ _ _____ _ _ _____ _ _ _____ _ _ ____
 72
    65
 73
     6
 40
2.5
 49
1.25
 49
-0.25
 49
0.25
 49
-0.25
 49
0.25
 49
-0.25
  0
ENDTAB
  0
TABLE
  2
LAYER
 70
     9
  0
LAYER
  2
0
 70
    64
 62
     7
  6
CONTINUOUS
  0
LAYER
  2
OBJECT
 70
    64
 62
     7
  6
CONTINUOUS
  0
LAYER
  2
DIM
 70
    64
 62
     7
  6
CONTINUOUS
  0
LAYER
  2
HIDDEN
 70
    64
 62
     7
  6
HIDDEN
  0
LAYER
  2
TEXT
 70
    64
 62
     7
  6
CONTINUOUS
  0
LAYER
  2
TITLE
 70
    64
 62
     7
  6
CONTINUOUS
  0
LAYER
  2
CENTER
 70
    64
 62
     7
  6
CENTER
  0
LAYER
  2
DEFPOINTS
 70
    64
 62
     7
  6
CONTINUOUS
  0
LAYER
  2
BEND
 70
    64
 62
     7
  6
PHANTOM
  0
ENDTAB
  0
TABLE
  2
STYLE
 70
     1
  0
STYLE
  2
TXT
 70
    64
 40
0.0
 41
0.75
 50
0.0
 71
     0
 42
0.188
  3
TXT.shx
  4

  0
ENDTAB
  0
TABLE
  2
VIEW
 70
     0
  0
ENDTAB
  0
TABLE
  2
UCS
 70
     0
  0
ENDTAB
  0
TABLE
  2
APPID
 70
     1
  0
APPID
  2
ACAD
 70
    64
  0
ENDTAB
  0
TABLE
  2
DIMSTYLE
 70
     2
  0
DIMSTYLE
  2
23NSTD
 70
    64
  3

  4

  5

  6

  7

 40
1.5
 41
0.18
 42
0.063
 43
0.281
 44
0.093
 45
0.0
 46
0.0
 47
0.0
 48
0.0
140
0.125
141
0.09
142
0.0
143
25.4
144
1.0
145
0.0
146
1.0
147
0.09
 71
     0
 72
     0
 73
     1
 74
     1
 75
     0
 76
     0
 77
     0
 78
     0
170
     0
171
     2
172
     0
173
     0
174
     0
175
     0
176
     0
177
     0
178
     0
  0
DIMSTYLE
  2
23NSTDI
 70
    64
  3

  4

  5

  6

  7

 40
1.5
 41
0.18
 42
0.063
 43
0.281
 44
0.093
 45
0.0
 46
0.0
 47
0.0
 48
0.0
140
0.125
141
0.09
142
0.0
143
25.4
144
1.0
145
0.0
146
1.0
147
0.09
 71
     0
 72
     0
 73
     1
 74
     1
 75
     0
 76
     0
 77
     0
 78
     0
170
     0
171
     2
172
     0
173
     0
174
     1
175
     0
176
     0
177
     0
178
     0
  0
ENDTAB
  0
ENDSEC
  0
SECTION
  2
BLOCKS
  0
BLOCK
  8
0
  2
HBS
 70
    64
 10
0.0
 20
0.0
 30
0.0
  3
HBS
  0
LINE
  8
TITLE
 10
0.062
 20
9.64
 30
0.0
 11
15.438
 21
9.64
 31
0.0
  0
POLYLINE
  8
TITLE
 66
     1
 10
0.0
 20
0.0
 30
0.0
 70
     1
  0
VERTEX
  8
TITLE
 10
15.5
 20
10.12
 30
0.0
  0
VERTEX
  8
TITLE
 10
15.5
 20
0.0
 30
0.0
  0
VERTEX
  8
TITLE
 10
0.0
 20
0.0
 30
0.0
  0
VERTEX
  8
TITLE
 10
0.0
 20
10.12
 30
0.0
  0
SEQEND
  8
TITLE
  0
POLYLINE
  8
TITLE
 66
     1
 10
0.0
 20
0.0
 30
0.0
 70
     1
  0
VERTEX
  8
TITLE
 10
15.438
 20
10.058
 30
0.0
  0
VERTEX
  8
TITLE
 10
15.438
 20
0.062
 30
0.0
  0
VERTEX
  8
TITLE
 10
0.062
 20
0.062
 30
0.0
  0
VERTEX
  8
TITLE
 10
0.062
 20
10.058
 30
0.0
  0
SEQEND
  8
TITLE
  0
TEXT
  8
TEXT
 10
0.207833
 20
9.680079
 30
0.0
 40
0.125
  1
NAME
 72
     1
 11
0.437
 21
9.680079
 31
0.0
  0
TEXT
  8
TEXT
 10
0.207833
 20
9.888413
 30
0.0
 40
0.125
  1
PART
 72
     1
 11
0.437
 21
9.888413
 31
0.0
  0
LINE
  8
TITLE
 10
0.812
 20
9.64
 30
0.0
 11
0.812
 21
10.058
 31
0.0
  0
TEXT
  8
TEXT
 10
7.926833
 20
9.888413
 30
0.0
 40
0.125
  1
PART
 72
     1
 11
8.156
 21
9.888413
 31
0.0
  0
TEXT
  8
TEXT
 10
8.031
 20
9.680079
 30
0.0
 40
0.125
  1
No.
 72
     1
 11
8.156
 21
9.680079
 31
0.0
  0
LINE
  8
TITLE
 10
7.781
 20
10.058
 30
0.0
 11
7.781
 21
9.64
 31
0.0
  0
LINE
  8
TITLE
 10
7.719
 20
10.058
 30
0.0
 11
7.719
 21
9.64
 31
0.0
  0
LINE
  8
TITLE
 10
8.531
 20
10.058
 30
0.0
 11
8.531
 21
9.64
 31
0.0
  0
ENDBLK
  8
0
  0
BLOCK
  8
0
  2
*D1
 70
    65
 10
0.0
 20
0.0
 30
0.0
  3
*D
  0
LINE
  8
0
  6
BYBLOCK
 62
     0
 10
33.794468
 20
24.731656
 30
0.0
 11
33.794468
 21
25.29773
 31
0.0
  0
LINE
  8
0
  6
BYBLOCK
 62
     0
 10
38.170444
 20
24.731656
 30
0.0
 11
38.170444
 21
25.29773
 31
0.0
  0
LINE
  8
0
  6
BYBLOCK
 62
     0
 10
34.064468
 20
25.15823
 30
0.0
 11
35.566206
 21
25.15823
 31
0.0
  0
LINE
  8
0
  6
BYBLOCK
 62
     0
 10
37.900444
 20
25.15823
 30
0.0
 11
36.398706
 21
25.15823
 31
0.0
  0
SOLID
  8
0
  6
BYBLOCK
 62
     0
 10
34.064468
 20
25.20323
 30
0.0
 11
34.064468
 21
25.11323
 31
0.0
 12
33.794468
 22
25.15823
 32
0.0
 13
33.794468
 23
25.15823
 33
0.0
  0
SOLID
  8
0
  6
BYBLOCK
 62
     0
 10
37.900444
 20
25.20323
 30
0.0
 11
37.900444
 21
25.11323
 31
0.0
 12
38.170444
 22
25.15823
 32
0.0
 13
38.170444
 23
25.15823
 33
0.0
  0
TEXT
  8
0
  6
BYBLOCK
 62
     0
 10
35.701206
 20
25.06448
 30
0.0
 40
0.1875
  1
4.376
 41
0.75
 72
     1
 11
35.982456
 21
25.15823
 31
0.0
 73
     2
  0
POINT
  8
DEFPOINTS
  6
BYBLOCK
 62
     0
 10
33.794468
 20
24.637156
 30
0.0
  0
POINT
  8
DEFPOINTS
  6
BYBLOCK
 62
     0
 10
38.170444
 20
24.637156
 30
0.0
  0
POINT
  8
DEFPOINTS
  6
BYBLOCK
 62
     0
 10
38.170444
 20
25.15823
 30
0.0
  0
ENDBLK
  8
0
  0
BLOCK
  8
0
  2
*D2
 70
    65
 10
0.0
 20
0.0
 30
0.0
  3
*D
  0
LINE
  8
0
  6
BYBLOCK
 62
     0
 10
38.826956
 20
22.78073
 30
0.0
 11
39.163289
 21
22.78073
 31
0.0
  0
LINE
  8
0
  6
BYBLOCK
 62
     0
 10
38.308659
 20
22.96773
 30
0.0
 11
39.163289
 21
22.96773
 31
0.0
  0
LINE
  8
0
  6
BYBLOCK
 62
     0
 10
39.023789
 20
22.51073
 30
0.0
 11
39.023789
 21
22.24073
 31
0.0
  0
LINE
  8
0
  6
BYBLOCK
 62
     0
 10
39.023789
 20
23.23773
 30
0.0
 11
39.023789
 21
23.50773
 31
0.0
  0
LINE
  8
0
  6
BYBLOCK
 62
     0
 10
39.023789
 20
23.50773
 30
0.0
 11
39.293789
 21
23.50773
 31
0.0
  0
SOLID
  8
0
  6
BYBLOCK
 62
     0
 10
38.978789
 20
22.51073
 30
0.0
 11
39.068789
 21
22.51073
 31
0.0
 12
39.023789
 22
22.78073
 32
0.0
 13
39.023789
 23
22.78073
 33
0.0
  0
SOLID
  8
0
  6
BYBLOCK
 62
     0
 10
38.978789
 20
23.23773
 30
0.0
 11
39.068789
 21
23.23773
 31
0.0
 12
39.023789
 22
22.96773
 32
0.0
 13
39.023789
 23
22.96773
 33
0.0
  0
TEXT
  8
0
  6
BYBLOCK
 62
     0
 10
39.967852
 20
23.41398
 30
0.0
 40
0.1875
  1
 POLISHED BAND
 41
0.75
 72
     1
 11
40.905352
 21
23.50773
 31
0.0
 73
     2
  0
TEXT
  8
0
  6
BYBLOCK
 62
     0
 10
39.428789
 20
23.41398
 30
0.0
 40
0.1875
  1
0.187
 41
0.75
 72
     1
 11
39.674883
 21
23.50773
 31
0.0
 73
     2
  0
POINT
  8
DEFPOINTS
  6
BYBLOCK
 62
     0
 10
38.732456
 20
22.78073
 30
0.0
  0
POINT
  8
DEFPOINTS
  6
BYBLOCK
 62
     0
 10
38.214159
 20
22.96773
 30
0.0
  0
POINT
  8
DEFPOINTS
  6
BYBLOCK
 62
     0
 10
39.023789
 20
22.96773
 30
0.0
  0
ENDBLK
  8
0
  0
BLOCK
  8
0
  2
*D3
 70
    65
 10
0.0
 20
0.0
 30
0.0
  3
*D
  0
LINE
  8
0
  6
BYBLOCK
 62
     0
 10
33.232456
 20
28.629281
 30
0.0
 11
33.232456
 21
30.134181
 31
0.0
  0
LINE
  8
0
  6
BYBLOCK
 62
     0
 10
38.732456
 20
28.629281
 30
0.0
 11
38.732456
 21
30.134181
 31
0.0
  0
LINE
  8
0
  6
BYBLOCK
 62
     0
 10
33.502456
 20
29.994681
 30
0.0
 11
35.589644
 21
29.994681
 31
0.0
  0
LINE
  8
0
  6
BYBLOCK
 62
     0
 10
38.462456
 20
29.994681
 30
0.0
 11
36.375269
 21
29.994681
 31
0.0
  0
SOLID
  8
0
  6
BYBLOCK
 62
     0
 10
33.502456
 20
30.039681
 30
0.0
 11
33.502456
 21
29.949681
 31
0.0
 12
33.232456
 22
29.994681
 32
0.0
 13
33.232456
 23
29.994681
 33
0.0
  0
SOLID
  8
0
  6
BYBLOCK
 62
     0
 10
38.462456
 20
30.039681
 30
0.0
 11
38.462456
 21
29.949681
 31
0.0
 12
38.732456
 22
29.994681
 32
0.0
 13
38.732456
 23
29.994681
 33
0.0
  0
TEXT
  8
0
  6
BYBLOCK
 62
     0
 10
35.724644
 20
29.900931
 30
0.0
 40
0.1875
  1
5.500
 41
0.75
 72
     1
 11
35.982456
 21
29.994681
 31
0.0
 73
     2
  0
POINT
  8
DEFPOINTS
  6
BYBLOCK
 62
     0
 10
33.232456
 20
28.534781
 30
0.0
  0
POINT
  8
DEFPOINTS
  6
BYBLOCK
 62
     0
 10
38.732456
 20
28.534781
 30
0.0
  0
POINT
  8
DEFPOINTS
  6
BYBLOCK
 62
     0
 10
38.732456
 20
29.994681
 30
0.0
  0
ENDBLK
  8
0
  0
BLOCK
  8
0
  2
*D4
 70
    65
 10
0.0
 20
0.0
 30
0.0
  3
*D
  0
LINE
  8
0
  6
BYBLOCK
 62
     0
 10
33.482456
 20
28.556343
 30
0.0
 11
33.482456
 21
29.712681
 31
0.0
  0
LINE
  8
0
  6
BYBLOCK
 62
     0
 10
38.482456
 20
28.556343
 30
0.0
 11
38.482456
 21
29.712681
 31
0.0
  0
LINE
  8
0
  6
BYBLOCK
 62
     0
 10
33.752456
 20
29.573181
 30
0.0
 11
35.601362
 21
29.573181
 31
0.0
  0
LINE
  8
0
  6
BYBLOCK
 62
     0
 10
38.212456
 20
29.573181
 30
0.0
 11
36.36355
 21
29.573181
 31
0.0
  0
SOLID
  8
0
  6
BYBLOCK
 62
     0
 10
33.752456
 20
29.618181
 30
0.0
 11
33.752456
 21
29.528181
 31
0.0
 12
33.482456
 22
29.573181
 32
0.0
 13
33.482456
 23
29.573181
 33
0.0
  0
SOLID
  8
0
  6
BYBLOCK
 62
     0
 10
38.212456
 20
29.618181
 30
0.0
 11
38.212456
 21
29.528181
 31
0.0
 12
38.482456
 22
29.573181
 32
0.0
 13
38.482456
 23
29.573181
 33
0.0
  0
TEXT
  8
0
  6
BYBLOCK
 62
     0
 10
35.736362
 20
29.479431
 30
0.0
 40
0.1875
  1
5.000
 41
0.75
 72
     1
 11
35.982456
 21
29.573181
 31
0.0
 73
     2
  0
POINT
  8
DEFPOINTS
  6
BYBLOCK
 62
     0
 10
33.482456
 20
28.461843
 30
0.0
  0
POINT
  8
DEFPOINTS
  6
BYBLOCK
 62
     0
 10
38.482456
 20
28.461843
 30
0.0
  0
POINT
  8
DEFPOINTS
  6
BYBLOCK
 62
     0
 10
38.482456
 20
29.573181
 30
0.0
  0
ENDBLK
  8
0
  0
BLOCK
  8
0
  2
*D5
 70
    65
 10
0.0
 20
0.0
 30
0.0
  3
*D
  0
LINE
  8
0
  6
BYBLOCK
 62
     0
 10
33.995594
 20
26.130743
 30
0.0
 11
33.995594
 21
25.461005
 31
0.0
  0
LINE
  8
0
  6
BYBLOCK
 62
     0
 10
37.969318
 20
26.130743
 30
0.0
 11
37.969318
 21
25.461005
 31
0.0
  0
LINE
  8
0
  6
BYBLOCK
 62
     0
 10
34.265594
 20
25.600505
 30
0.0
 11
35.566206
 21
25.600505
 31
0.0
  0
LINE
  8
0
  6
BYBLOCK
 62
     0
 10
37.699318
 20
25.600505
 30
0.0
 11
36.398706
 21
25.600505
 31
0.0
  0
SOLID
  8
0
  6
BYBLOCK
 62
     0
 10
34.265594
 20
25.645505
 30
0.0
 11
34.265594
 21
25.555505
 31
0.0
 12
33.995594
 22
25.600505
 32
0.0
 13
33.995594
 23
25.600505
 33
0.0
  0
SOLID
  8
0
  6
BYBLOCK
 62
     0
 10
37.699318
 20
25.645505
 30
0.0
 11
37.699318
 21
25.555505
 31
0.0
 12
37.969318
 22
25.600505
 32
0.0
 13
37.969318
 23
25.600505
 33
0.0
  0
TEXT
  8
0
  6
BYBLOCK
 62
     0
 10
35.701206
 20
25.506755
 30
0.0
 40
0.1875
  1
3.974
 41
0.75
 72
     1
 11
35.982456
 21
25.600505
 31
0.0
 73
     2
  0
POINT
  8
DEFPOINTS
  6
BYBLOCK
 62
     0
 10
33.995594
 20
26.225243
 30
0.0
  0
POINT
  8
DEFPOINTS
  6
BYBLOCK
 62
     0
 10
37.969318
 20
26.225243
 30
0.0
  0
POINT
  8
DEFPOINTS
  6
BYBLOCK
 62
     0
 10
37.969318
 20
25.600505
 30
0.0
  0
ENDBLK
  8
0
  0
BLOCK
  8
0
  2
*D6
 70
    65
 10
0.0
 20
0.0
 30
0.0
  3
*D
  0
LINE
  8
0
  6
BYBLOCK
 62
     0
 10
33.901094
 20
26.225243
 30
0.0
 11
32.592956
 21
26.225243
 31
0.0
  0
LINE
  8
0
  6
BYBLOCK
 62
     0
 10
33.901094
 20
28.948443
 30
0.0
 11
32.592956
 21
28.948443
 31
0.0
  0
LINE
  8
0
  6
BYBLOCK
 62
     0
 10
32.732456
 20
26.495243
 30
0.0
 11
32.732456
 21
27.358093
 31
0.0
  0
LINE
  8
0
  6
BYBLOCK
 62
     0
 10
32.732456
 20
28.678443
 30
0.0
 11
32.732456
 21
27.815593
 31
0.0
  0
SOLID
  8
0
  6
BYBLOCK
 62
     0
 10
32.687456
 20
26.495243
 30
0.0
 11
32.777456
 21
26.495243
 31
0.0
 12
32.732456
 22
26.225243
 32
0.0
 13
32.732456
 23
26.225243
 33
0.0
  0
SOLID
  8
0
  6
BYBLOCK
 62
     0
 10
32.687456
 20
28.678443
 30
0.0
 11
32.777456
 21
28.678443
 31
0.0
 12
32.732456
 22
28.948443
 32
0.0
 13
32.732456
 23
28.948443
 33
0.0
  0
TEXT
  8
0
  6
BYBLOCK
 62
     0
 10
32.451206
 20
27.493093
 30
0.0
 40
0.1875
  1
2.723
 41
0.75
 72
     1
 11
32.732456
 21
27.586843
 31
0.0
 73
     2
  0
POINT
  8
DEFPOINTS
  6
BYBLOCK
 62
     0
 10
33.995594
 20
26.225243
 30
0.0
  0
POINT
  8
DEFPOINTS
  6
BYBLOCK
 62
     0
 10
33.995594
 20
28.948443
 30
0.0
  0
POINT
  8
DEFPOINTS
  6
BYBLOCK
 62
     0
 10
32.732456
 20
28.948443
 30
0.0
  0
ENDBLK
  8
0
  0
BLOCK
  8
0
  2
*D7
 70
    65
 10
0.0
 20
0.0
 30
0.0
  3
*D
  0
LINE
  8
0
  6
BYBLOCK
 62
     0
 10
38.576956
 20
26.711843
 30
0.0
 11
39.371956
 21
26.711843
 31
0.0
  0
LINE
  8
0
  6
BYBLOCK
 62
     0
 10
38.576956
 20
28.461843
 30
0.0
 11
39.371956
 21
28.461843
 31
0.0
  0
LINE
  8
0
  6
BYBLOCK
 62
     0
 10
39.232456
 20
26.981843
 30
0.0
 11
39.232456
 21
27.358093
 31
0.0
  0
LINE
  8
0
  6
BYBLOCK
 62
     0
 10
39.232456
 20
28.191843
 30
0.0
 11
39.232456
 21
27.815593
 31
0.0
  0
SOLID
  8
0
  6
BYBLOCK
 62
     0
 10
39.187456
 20
26.981843
 30
0.0
 11
39.277456
 21
26.981843
 31
0.0
 12
39.232456
 22
26.711843
 32
0.0
 13
39.232456
 23
26.711843
 33
0.0
  0
SOLID
  8
0
  6
BYBLOCK
 62
     0
 10
39.187456
 20
28.191843
 30
0.0
 11
39.277456
 21
28.191843
 31
0.0
 12
39.232456
 22
28.461843
 32
0.0
 13
39.232456
 23
28.461843
 33
0.0
  0
TEXT
  8
0
  6
BYBLOCK
 62
     0
 10
38.986362
 20
27.493093
 30
0.0
 40
0.1875
  1
1.750
 41
0.75
 72
     1
 11
39.232456
 21
27.586843
 31
0.0
 73
     2
  0
POINT
  8
DEFPOINTS
  6
BYBLOCK
 62
     0
 10
38.482456
 20
26.711843
 30
0.0
  0
POINT
  8
DEFPOINTS
  6
BYBLOCK
 62
     0
 10
38.482456
 20
28.461843
 30
0.0
  0
POINT
  8
DEFPOINTS
  6
BYBLOCK
 62
     0
 10
39.232456
 20
28.461843
 30
0.0
  0
ENDBLK
  8
0
  0
BLOCK
  8
0
  2
*D8
 70
    65
 10
0.0
 20
0.0
 30
0.0
  3
*D
  0
LINE
  8
0
  6
BYBLOCK
 62
     0
 10
37.906564
 20
20.742031
 30
0.0
 11
37.906564
 21
21.474138
 31
0.0
  0
LINE
  8
0
  6
BYBLOCK
 62
     0
 10
34.058349
 20
20.742031
 30
0.0
 11
34.058349
 21
21.474138
 31
0.0
  0
LINE
  8
0
  6
BYBLOCK
 62
     0
 10
37.636564
 20
21.334638
 30
0.0
 11
36.398706
 21
21.334638
 31
0.0
  0
LINE
  8
0
  6
BYBLOCK
 62
     0
 10
34.328349
 20
21.334638
 30
0.0
 11
35.566206
 21
21.334638
 31
0.0
  0
SOLID
  8
0
  6
BYBLOCK
 62
     0
 10
37.636564
 20
21.379638
 30
0.0
 11
37.636564
 21
21.289638
 31
0.0
 12
37.906564
 22
21.334638
 32
0.0
 13
37.906564
 23
21.334638
 33
0.0
  0
SOLID
  8
0
  6
BYBLOCK
 62
     0
 10
34.328349
 20
21.379638
 30
0.0
 11
34.328349
 21
21.289638
 31
0.0
 12
34.058349
 22
21.334638
 32
0.0
 13
34.058349
 23
21.334638
 33
0.0
  0
TEXT
  8
0
  6
BYBLOCK
 62
     0
 10
35.701206
 20
21.240888
 30
0.0
 40
0.1875
  1
3.848
 41
0.75
 72
     1
 11
35.982456
 21
21.334638
 31
0.0
 73
     2
  0
POINT
  8
DEFPOINTS
  6
BYBLOCK
 62
     0
 10
37.906564
 20
20.647531
 30
0.0
  0
POINT
  8
DEFPOINTS
  6
BYBLOCK
 62
     0
 10
34.058349
 20
20.647531
 30
0.0
  0
POINT
  8
DEFPOINTS
  6
BYBLOCK
 62
     0
 10
34.058349
 20
21.334638
 30
0.0
  0
ENDBLK
  8
0
  0
BLOCK
  8
0
  2
*D9
 70
    65
 10
0.0
 20
0.0
 30
0.0
  3
*D
  0
LINE
  8
0
  6
BYBLOCK
 62
     0
 10
34.058349
 20
20.742031
 30
0.0
 11
34.058349
 21
21.474138
 31
0.0
  0
LINE
  8
0
  6
BYBLOCK
 62
     0
 10
33.745856
 20
20.904138
 30
0.0
 11
33.745856
 21
21.474138
 31
0.0
  0
LINE
  8
0
  6
BYBLOCK
 62
     0
 10
34.328349
 20
21.334638
 30
0.0
 11
34.598349
 21
21.334638
 31
0.0
  0
LINE
  8
0
  6
BYBLOCK
 62
     0
 10
33.475856
 20
21.334638
 30
0.0
 11
33.205856
 21
21.334638
 31
0.0
  0
SOLID
  8
0
  6
BYBLOCK
 62
     0
 10
34.328349
 20
21.379638
 30
0.0
 11
34.328349
 21
21.289638
 31
0.0
 12
34.058349
 22
21.334638
 32
0.0
 13
34.058349
 23
21.334638
 33
0.0
  0
SOLID
  8
0
  6
BYBLOCK
 62
     0
 10
33.475856
 20
21.379638
 30
0.0
 11
33.475856
 21
21.289638
 31
0.0
 12
33.745856
 22
21.334638
 32
0.0
 13
33.745856
 23
21.334638
 33
0.0
  0
TEXT
  8
0
  6
BYBLOCK
 62
     0
 10
32.578669
 20
21.240888
 30
0.0
 40
0.1875
  1
0.312
 41
0.75
 72
     1
 11
32.824762
 21
21.334638
 31
0.0
 73
     2
  0
POINT
  8
DEFPOINTS
  6
BYBLOCK
 62
     0
 10
34.058349
 20
20.647531
 30
0.0
  0
POINT
  8
DEFPOINTS
  6
BYBLOCK
 62
     0
 10
33.745856
 20
20.809638
 30
0.0
  0
POINT
  8
DEFPOINTS
  6
BYBLOCK
 62
     0
 10
33.745856
 20
21.334638
 30
0.0
  0
ENDBLK
  8
0
  0
BLOCK
  8
0
  2
*D10
 70
    65
 10
0.0
 20
0.0
 30
0.0
  3
*D
  0
LINE
  8
0
  6
BYBLOCK
 62
     0
 10
33.963849
 20
18.049068
 30
0.0
 11
32.236847
 21
18.049068
 31
0.0
  0
LINE
  8
0
  6
BYBLOCK
 62
     0
 10
33.963849
 20
20.647531
 30
0.0
 11
32.236847
 21
20.647531
 31
0.0
  0
LINE
  8
0
  6
BYBLOCK
 62
     0
 10
32.376347
 20
18.319068
 30
0.0
 11
32.376347
 21
19.11955
 31
0.0
  0
LINE
  8
0
  6
BYBLOCK
 62
     0
 10
32.376347
 20
20.377531
 30
0.0
 11
32.376347
 21
19.57705
 31
0.0
  0
SOLID
  8
0
  6
BYBLOCK
 62
     0
 10
32.331347
 20
18.319068
 30
0.0
 11
32.421347
 21
18.319068
 31
0.0
 12
32.376347
 22
18.049068
 32
0.0
 13
32.376347
 23
18.049068
 33
0.0
  0
SOLID
  8
0
  6
BYBLOCK
 62
     0
 10
32.331347
 20
20.377531
 30
0.0
 11
32.421347
 21
20.377531
 31
0.0
 12
32.376347
 22
20.647531
 32
0.0
 13
32.376347
 23
20.647531
 33
0.0
  0
TEXT
  8
0
  6
BYBLOCK
 62
     0
 10
32.095097
 20
19.25455
 30
0.0
 40
0.1875
  1
2.598
 41
0.75
 72
     1
 11
32.376347
 21
19.3483
 31
0.0
 73
     2
  0
POINT
  8
DEFPOINTS
  6
BYBLOCK
 62
     0
 10
34.058349
 20
18.049068
 30
0.0
  0
POINT
  8
DEFPOINTS
  6
BYBLOCK
 62
     0
 10
34.058349
 20
20.647531
 30
0.0
  0
POINT
  8
DEFPOINTS
  6
BYBLOCK
 62
     0
 10
32.376347
 20
20.647531
 30
0.0
  0
ENDBLK
  8
0
  0
BLOCK
  8
0
  2
*D11
 70
    65
 10
0.0
 20
0.0
 30
0.0
  3
*D
  0
LINE
  8
0
  6
BYBLOCK
 62
     0
 10
33.963849
 20
20.647531
 30
0.0
 11
32.236847
 21
20.647531
 31
0.0
  0
LINE
  8
0
  6
BYBLOCK
 62
     0
 10
33.801356
 20
20.959638
 30
0.0
 11
32.236847
 21
20.959638
 31
0.0
  0
LINE
  8
0
  6
BYBLOCK
 62
     0
 10
32.376347
 20
20.377531
 30
0.0
 11
32.376347
 21
20.107531
 31
0.0
  0
LINE
  8
0
  6
BYBLOCK
 62
     0
 10
32.376347
 20
21.229638
 30
0.0
 11
32.376347
 21
21.499638
 31
0.0
  0
SOLID
  8
0
  6
BYBLOCK
 62
     0
 10
32.331347
 20
20.377531
 30
0.0
 11
32.421347
 21
20.377531
 31
0.0
 12
32.376347
 22
20.647531
 32
0.0
 13
32.376347
 23
20.647531
 33
0.0
  0
SOLID
  8
0
  6
BYBLOCK
 62
     0
 10
32.331347
 20
21.229638
 30
0.0
 11
32.421347
 21
21.229638
 31
0.0
 12
32.376347
 22
20.959638
 32
0.0
 13
32.376347
 23
20.959638
 33
0.0
  0
TEXT
  8
0
  6
BYBLOCK
 62
     0
 10
32.130253
 20
20.709835
 30
0.0
 40
0.1875
  1
0.312
 41
0.75
 72
     1
 11
32.376347
 21
20.803585
 31
0.0
 73
     2
  0
POINT
  8
DEFPOINTS
  6
BYBLOCK
 62
     0
 10
34.058349
 20
20.647531
 30
0.0
  0
POINT
  8
DEFPOINTS
  6
BYBLOCK
 62
     0
 10
33.895856
 20
20.959638
 30
0.0
  0
POINT
  8
DEFPOINTS
  6
BYBLOCK
 62
     0
 10
32.376347
 20
20.959638
 30
0.0
  0
ENDBLK
  8
0
  0
BLOCK
  8
0
  2
*D12
 70
    65
 10
0.0
 20
0.0
 30
0.0
  3
*D
  0
LINE
  8
0
  6
BYBLOCK
 62
     0
 10
30.68003
 20
24.731656
 30
0.0
 11
30.68003
 21
25.29773
 31
0.0
  0
LINE
  8
0
  6
BYBLOCK
 62
     0
 10
27.554579
 20
24.731656
 30
0.0
 11
27.554579
 21
25.29773
 31
0.0
  0
LINE
  8
0
  6
BYBLOCK
 62
     0
 10
30.41003
 20
25.15823
 30
0.0
 11
29.510117
 21
25.15823
 31
0.0
  0
LINE
  8
0
  6
BYBLOCK
 62
     0
 10
27.824579
 20
25.15823
 30
0.0
 11
28.724492
 21
25.15823
 31
0.0
  0
SOLID
  8
0
  6
BYBLOCK
 62
     0
 10
30.41003
 20
25.20323
 30
0.0
 11
30.41003
 21
25.11323
 31
0.0
 12
30.68003
 22
25.15823
 32
0.0
 13
30.68003
 23
25.15823
 33
0.0
  0
SOLID
  8
0
  6
BYBLOCK
 62
     0
 10
27.824579
 20
25.20323
 30
0.0
 11
27.824579
 21
25.11323
 31
0.0
 12
27.554579
 22
25.15823
 32
0.0
 13
27.554579
 23
25.15823
 33
0.0
  0
TEXT
  8
0
  6
BYBLOCK
 62
     0
 10
28.859492
 20
25.06448
 30
0.0
 40
0.1875
  1
3.125
 41
0.75
 72
     1
 11
29.117304
 21
25.15823
 31
0.0
 73
     2
  0
POINT
  8
DEFPOINTS
  6
BYBLOCK
 62
     0
 10
30.68003
 20
24.637156
 30
0.0
  0
POINT
  8
DEFPOINTS
  6
BYBLOCK
 62
     0
 10
27.554579
 20
24.637156
 30
0.0
  0
POINT
  8
DEFPOINTS
  6
BYBLOCK
 62
     0
 10
27.554579
 20
25.15823
 30
0.0
  0
ENDBLK
  8
0
  0
BLOCK
  8
0
  2
*D13
 70
    65
 10
0.0
 20
0.0
 30
0.0
  3
*D
  0
LINE
  8
0
  6
BYBLOCK
 62
     0
 10
30.728643
 20
22.68623
 30
0.0
 11
30.728643
 21
21.84473
 31
0.0
  0
LINE
  8
0
  6
BYBLOCK
 62
     0
 10
27.505966
 20
22.68623
 30
0.0
 11
27.505966
 21
21.84473
 31
0.0
  0
LINE
  8
0
  6
BYBLOCK
 62
     0
 10
30.458643
 20
21.98423
 30
0.0
 11
29.533554
 21
21.98423
 31
0.0
  0
LINE
  8
0
  6
BYBLOCK
 62
     0
 10
27.775966
 20
21.98423
 30
0.0
 11
28.701054
 21
21.98423
 31
0.0
  0
SOLID
  8
0
  6
BYBLOCK
 62
     0
 10
30.458643
 20
22.02923
 30
0.0
 11
30.458643
 21
21.93923
 31
0.0
 12
30.728643
 22
21.98423
 32
0.0
 13
30.728643
 23
21.98423
 33
0.0
  0
SOLID
  8
0
  6
BYBLOCK
 62
     0
 10
27.775966
 20
22.02923
 30
0.0
 11
27.775966
 21
21.93923
 31
0.0
 12
27.505966
 22
21.98423
 32
0.0
 13
27.505966
 23
21.98423
 33
0.0
  0
TEXT
  8
0
  6
BYBLOCK
 62
     0
 10
28.836054
 20
21.89048
 30
0.0
 40
0.1875
  1
3.223
 41
0.75
 72
     1
 11
29.117304
 21
21.98423
 31
0.0
 73
     2
  0
POINT
  8
DEFPOINTS
  6
BYBLOCK
 62
     0
 10
30.728643
 20
22.78073
 30
0.0
  0
POINT
  8
DEFPOINTS
  6
BYBLOCK
 62
     0
 10
27.505966
 20
22.78073
 30
0.0
  0
POINT
  8
DEFPOINTS
  6
BYBLOCK
 62
     0
 10
27.505966
 20
21.98423
 30
0.0
  0
ENDBLK
  8
0
  0
BLOCK
  8
0
  2
*D14
 70
    65
 10
0.0
 20
0.0
 30
0.0
  3
*D
  0
LINE
  8
0
  6
BYBLOCK
 62
     0
 10
27.532007
 20
23.775197
 30
0.0
 11
27.582889
 21
25.718307
 31
0.0
  0
LINE
  8
0
  6
BYBLOCK
 62
     0
 10
27.505966
 20
23.201785
 30
0.0
 11
27.505966
 21
25.719314
 31
0.0
  0
ARC
  8
0
  6
BYBLOCK
 62
     0
 10
27.505966
 20
22.78073
 30
0.0
 40
2.799085
 50
77.442197
 51
82.971099
  0
ARC
  8
0
  6
BYBLOCK
 62
     0
 10
27.505966
 20
22.78073
 30
0.0
 40
2.799085
 50
95.528901
 51
101.057803
  0
SOLID
  8
0
  6
BYBLOCK
 62
     0
 10
27.845144
 20
25.513903
 30
0.0
 11
27.851836
 21
25.603653
 31
0.0
 12
27.579238
 22
25.578855
 32
0.0
 13
27.579238
 23
25.578855
 33
0.0
  0
SOLID
  8
0
  6
BYBLOCK
 62
     0
 10
27.23411
 20
25.61174
 30
0.0
 11
27.238451
 21
25.521845
 31
0.0
 12
27.505966
 22
25.579814
 32
0.0
 13
27.505966
 23
25.579814
 33
0.0
  0
TEXT
  8
0
  6
BYBLOCK
 62
     0
 10
28.727765
 20
25.419102
 30
0.0
 40
0.1875
  1
 REF.
 41
0.75
 72
     1
 11
29.009015
 21
25.512852
 31
0.0
 73
     2
  0
TEXT
  8
0
  6
BYBLOCK
 62
     0
 10
28.21214
 20
25.419102
 30
0.0
 40
0.1875
  1
1%%d30'
 41
0.75
 72
     1
 11
28.446515
 21
25.512852
 31
0.0
 73
     2
  0
POINT
  8
DEFPOINTS
  6
BYBLOCK
 62
     0
 10
27.527769
 20
25.57973
 30
0.0
  0
POINT
  8
DEFPOINTS
  6
BYBLOCK
 62
     0
 10
27.529534
 20
23.68073
 30
0.0
  0
POINT
  8
DEFPOINTS
  6
BYBLOCK
 62
     0
 10
27.505966
 20
22.78073
 30
0.0
  0
POINT
  8
DEFPOINTS
  6
BYBLOCK
 62
     0
 10
27.505966
 20
23.107285
 30
0.0
  0
POINT
  8
DEFPOINTS
  6
BYBLOCK
 62
     0
 10
27.505966
 20
22.78073
 30
0.0
  0
ENDBLK
  8
0
  0
BLOCK
  8
0
  2
*D15
 70
    65
 10
0.0
 20
0.0
 30
0.0
  3
*D
  0
LINE
  8
0
  6
BYBLOCK
 62
     0
 10
38.086244
 20
24.032467
 30
0.0
 11
38.083417
 21
24.14043
 31
0.0
  0
LINE
  8
0
  6
BYBLOCK
 62
     0
 10
38.18621
 20
24.035085
 30
0.0
 11
38.183383
 21
24.143048
 31
0.0
  0
LINE
  8
0
  6
BYBLOCK
 62
     0
 10
37.817161
 20
23.99391
 30
0.0
 11
37.547254
 21
23.986842
 31
0.0
  0
LINE
  8
0
  6
BYBLOCK
 62
     0
 10
38.456942
 20
24.010663
 30
0.0
 11
38.726849
 21
24.017731
 31
0.0
  0
SOLID
  8
0
  6
BYBLOCK
 62
     0
 10
37.815983
 20
24.038894
 30
0.0
 11
37.818339
 21
23.948925
 31
0.0
 12
38.087069
 22
24.000978
 32
0.0
 13
38.087069
 23
24.000978
 33
0.0
  0
SOLID
  8
0
  6
BYBLOCK
 62
     0
 10
38.455764
 20
24.055648
 30
0.0
 11
38.45812
 21
23.965679
 31
0.0
 12
38.187034
 22
24.003595
 32
0.0
 13
38.187034
 23
24.003595
 33
0.0
  0
TEXT
  8
0
  6
BYBLOCK
 62
     0
 10
39.354037
 20
23.923981
 30
0.0
 40
0.1875
  1
 TYP.
 41
0.75
 72
     1
 11
39.635287
 21
24.017731
 31
0.0
 73
     2
  0
TEXT
  8
0
  6
BYBLOCK
 62
     0
 10
38.861849
 20
23.923981
 30
0.0
 40
0.1875
  1
0.100
 41
0.75
 72
     1
 11
39.084506
 21
24.017731
 31
0.0
 73
     2
  0
POINT
  8
DEFPOINTS
  6
BYBLOCK
 62
     0
 10
38.088718
 20
23.937999
 30
0.0
  0
POINT
  8
DEFPOINTS
  6
BYBLOCK
 62
     0
 10
38.188684
 20
23.940617
 30
0.0
  0
POINT
  8
DEFPOINTS
  6
BYBLOCK
 62
     0
 10
38.187034
 20
24.003595
 30
0.0
  0
ENDBLK
  8
0
  0
BLOCK
  8
0
  2
*D16
 70
    65
 10
0.0
 20
0.0
 30
0.0
  3
*D
  0
LINE
  8
0
  6
BYBLOCK
 62
     0
 10
30.728643
 20
22.68623
 30
0.0
 11
30.728643
 21
22.26623
 31
0.0
  0
LINE
  8
0
  6
BYBLOCK
 62
     0
 10
30.681261
 20
22.68623
 30
0.0
 11
30.681261
 21
22.26623
 31
0.0
  0
LINE
  8
0
  6
BYBLOCK
 62
     0
 10
30.998643
 20
22.40573
 30
0.0
 11
31.268643
 21
22.40573
 31
0.0
  0
LINE
  8
0
  6
BYBLOCK
 62
     0
 10
30.411261
 20
22.40573
 30
0.0
 11
30.141261
 21
22.40573
 31
0.0
  0
SOLID
  8
0
  6
BYBLOCK
 62
     0
 10
30.998643
 20
22.45073
 30
0.0
 11
30.998643
 21
22.36073
 31
0.0
 12
30.728643
 22
22.40573
 32
0.0
 13
30.728643
 23
22.40573
 33
0.0
  0
SOLID
  8
0
  6
BYBLOCK
 62
     0
 10
30.411261
 20
22.45073
 30
0.0
 11
30.411261
 21
22.36073
 31
0.0
 12
30.681261
 22
22.40573
 32
0.0
 13
30.681261
 23
22.40573
 33
0.0
  0
TEXT
  8
0
  6
BYBLOCK
 62
     0
 10
29.443761
 20
22.31198
 30
0.0
 40
0.1875
  1
 TYP.
 41
0.75
 72
     1
 11
29.725011
 21
22.40573
 31
0.0
 73
     2
  0
TEXT
  8
0
  6
BYBLOCK
 62
     0
 10
28.881261
 20
22.31198
 30
0.0
 40
0.1875
  1
0.047
 41
0.75
 72
     1
 11
29.139074
 21
22.40573
 31
0.0
 73
     2
  0
POINT
  8
DEFPOINTS
  6
BYBLOCK
 62
     0
 10
30.728643
 20
22.78073
 30
0.0
  0
POINT
  8
DEFPOINTS
  6
BYBLOCK
 62
     0
 10
30.681261
 20
22.78073
 30
0.0
  0
POINT
  8
DEFPOINTS
  6
BYBLOCK
 62
     0
 10
30.681261
 20
22.40573
 30
0.0
  0
ENDBLK
  8
0
  0
BLOCK
  8
0
  2
*D17
 70
    65
 10
0.0
 20
0.0
 30
0.0
  3
*D
  0
LINE
  8
0
  6
BYBLOCK
 62
     0
 10
33.482456
 20
28.556343
 30
0.0
 11
33.482456
 21
29.712681
 31
0.0
  0
LINE
  8
0
  6
BYBLOCK
 62
     0
 10
33.232456
 20
28.629281
 30
0.0
 11
33.232456
 21
29.712681
 31
0.0
  0
LINE
  8
0
  6
BYBLOCK
 62
     0
 10
33.752456
 20
29.573181
 30
0.0
 11
34.022456
 21
29.573181
 31
0.0
  0
LINE
  8
0
  6
BYBLOCK
 62
     0
 10
32.962456
 20
29.573181
 30
0.0
 11
32.692456
 21
29.573181
 31
0.0
  0
SOLID
  8
0
  6
BYBLOCK
 62
     0
 10
33.752456
 20
29.618181
 30
0.0
 11
33.752456
 21
29.528181
 31
0.0
 12
33.482456
 22
29.573181
 32
0.0
 13
33.482456
 23
29.573181
 33
0.0
  0
SOLID
  8
0
  6
BYBLOCK
 62
     0
 10
32.962456
 20
29.618181
 30
0.0
 11
32.962456
 21
29.528181
 31
0.0
 12
33.232456
 22
29.573181
 32
0.0
 13
33.232456
 23
29.573181
 33
0.0
  0
TEXT
  8
0
  6
BYBLOCK
 62
     0
 10
32.041831
 20
29.479431
 30
0.0
 40
0.1875
  1
0.250
 41
0.75
 72
     1
 11
32.299644
 21
29.573181
 31
0.0
 73
     2
  0
POINT
  8
DEFPOINTS
  6
BYBLOCK
 62
     0
 10
33.482456
 20
28.461843
 30
0.0
  0
POINT
  8
DEFPOINTS
  6
BYBLOCK
 62
     0
 10
33.232456
 20
28.534781
 30
0.0
  0
POINT
  8
DEFPOINTS
  6
BYBLOCK
 62
     0
 10
33.232456
 20
29.573181
 30
0.0
  0
ENDBLK
  8
0
  0
BLOCK
  8
0
  2
*D18
 70
    65
 10
0.0
 20
0.0
 30
0.0
  3
*D
  0
LINE
  8
0
  6
BYBLOCK
 62
     0
 10
38.576956
 20
28.461843
 30
0.0
 11
39.371956
 21
28.461843
 31
0.0
  0
LINE
  8
0
  6
BYBLOCK
 62
     0
 10
38.163556
 20
29.198181
 30
0.0
 11
39.371956
 21
29.198181
 31
0.0
  0
LINE
  8
0
  6
BYBLOCK
 62
     0
 10
39.232456
 20
28.191843
 30
0.0
 11
39.232456
 21
27.921843
 31
0.0
  0
LINE
  8
0
  6
BYBLOCK
 62
     0
 10
39.232456
 20
29.468181
 30
0.0
 11
39.232456
 21
29.738181
 31
0.0
  0
SOLID
  8
0
  6
BYBLOCK
 62
     0
 10
39.187456
 20
28.191843
 30
0.0
 11
39.277456
 21
28.191843
 31
0.0
 12
39.232456
 22
28.461843
 32
0.0
 13
39.232456
 23
28.461843
 33
0.0
  0
SOLID
  8
0
  6
BYBLOCK
 62
     0
 10
39.187456
 20
29.468181
 30
0.0
 11
39.277456
 21
29.468181
 31
0.0
 12
39.232456
 22
29.198181
 32
0.0
 13
39.232456
 23
29.198181
 33
0.0
  0
TEXT
  8
0
  6
BYBLOCK
 62
     0
 10
38.962925
 20
28.736262
 30
0.0
 40
0.1875
  1
0.736
 41
0.75
 72
     1
 11
39.232456
 21
28.830012
 31
0.0
 73
     2
  0
POINT
  8
DEFPOINTS
  6
BYBLOCK
 62
     0
 10
38.482456
 20
28.461843
 30
0.0
  0
POINT
  8
DEFPOINTS
  6
BYBLOCK
 62
     0
 10
38.069056
 20
29.198181
 30
0.0
  0
POINT
  8
DEFPOINTS
  6
BYBLOCK
 62
     0
 10
39.232456
 20
29.198181
 30
0.0
  0
ENDBLK
  8
0
  0
BLOCK
  8
0
  2
*D19
 70
    65
 10
0.0
 20
0.0
 30
0.0
  3
*D
  0
LINE
  8
0
  6
BYBLOCK
 62
     0
 10
37.721933
 20
22.89573
 30
0.0
 11
37.371923
 21
22.89573
 31
0.0
  0
LINE
  8
0
  6
BYBLOCK
 62
     0
 10
38.124556
 20
22.78073
 30
0.0
 11
37.371923
 21
22.78073
 31
0.0
  0
LINE
  8
0
  6
BYBLOCK
 62
     0
 10
37.511423
 20
23.16573
 30
0.0
 11
37.511423
 21
23.43573
 31
0.0
  0
LINE
  8
0
  6
BYBLOCK
 62
     0
 10
37.511423
 20
22.51073
 30
0.0
 11
37.511423
 21
22.24073
 31
0.0
  0
LINE
  8
0
  6
BYBLOCK
 62
     0
 10
37.511423
 20
22.24073
 30
0.0
 11
37.241423
 21
22.24073
 31
0.0
  0
SOLID
  8
0
  6
BYBLOCK
 62
     0
 10
37.466423
 20
23.16573
 30
0.0
 11
37.556423
 21
23.16573
 31
0.0
 12
37.511423
 22
22.89573
 32
0.0
 13
37.511423
 23
22.89573
 33
0.0
  0
SOLID
  8
0
  6
BYBLOCK
 62
     0
 10
37.466423
 20
22.51073
 30
0.0
 11
37.556423
 21
22.51073
 31
0.0
 12
37.511423
 22
22.78073
 32
0.0
 13
37.511423
 23
22.78073
 33
0.0
  0
TEXT
  8
0
  6
BYBLOCK
 62
     0
 10
36.661111
 20
22.14698
 30
0.0
 40
0.1875
  1
0.115
 41
0.75
 72
     1
 11
36.883767
 21
22.24073
 31
0.0
 73
     2
  0
POINT
  8
DEFPOINTS
  6
BYBLOCK
 62
     0
 10
37.816433
 20
22.89573
 30
0.0
  0
POINT
  8
DEFPOINTS
  6
BYBLOCK
 62
     0
 10
38.219056
 20
22.78073
 30
0.0
  0
POINT
  8
DEFPOINTS
  6
BYBLOCK
 62
     0
 10
37.511423
 20
22.78073
 30
0.0
  0
ENDBLK
  8
0
  0
BLOCK
  8
0
  2
*D20
 70
    65
 10
0.0
 20
0.0
 30
0.0
  3
*D
  0
LINE
  8
0
  6
BYBLOCK
 62
     0
 10
31.07879
 20
11.790389
 30
0.0
 11
31.07879
 21
11.361696
 31
0.0
  0
LINE
  8
0
  6
BYBLOCK
 62
     0
 10
31.32879
 20
11.790389
 30
0.0
 11
31.32879
 21
11.361696
 31
0.0
  0
LINE
  8
0
  6
BYBLOCK
 62
     0
 10
30.80879
 20
11.501196
 30
0.0
 11
30.53879
 21
11.501196
 31
0.0
  0
LINE
  8
0
  6
BYBLOCK
 62
     0
 10
31.59879
 20
11.501196
 30
0.0
 11
31.86879
 21
11.501196
 31
0.0
  0
SOLID
  8
0
  6
BYBLOCK
 62
     0
 10
30.80879
 20
11.546196
 30
0.0
 11
30.80879
 21
11.456196
 31
0.0
 12
31.07879
 22
11.501196
 32
0.0
 13
31.07879
 23
11.501196
 33
0.0
  0
SOLID
  8
0
  6
BYBLOCK
 62
     0
 10
31.59879
 20
11.546196
 30
0.0
 11
31.59879
 21
11.456196
 31
0.0
 12
31.32879
 22
11.501196
 32
0.0
 13
31.32879
 23
11.501196
 33
0.0
  0
TEXT
  8
0
  6
BYBLOCK
 62
     0
 10
32.00379
 20
11.407446
 30
0.0
 40
0.1875
  1
0.250
 41
0.75
 72
     1
 11
32.261602
 21
11.501196
 31
0.0
 73
     2
  0
POINT
  8
DEFPOINTS
  6
BYBLOCK
 62
     0
 10
31.07879
 20
11.884889
 30
0.0
  0
POINT
  8
DEFPOINTS
  6
BYBLOCK
 62
     0
 10
31.32879
 20
11.884889
 30
0.0
  0
POINT
  8
DEFPOINTS
  6
BYBLOCK
 62
     0
 10
31.32879
 20
11.501196
 30
0.0
  0
ENDBLK
  8
0
  0
BLOCK
  8
0
  2
*D21
 70
    65
 10
0.0
 20
0.0
 30
0.0
  3
*D
  0
LINE
  8
0
  6
BYBLOCK
 62
     0
 10
33.487147
 20
10.947903
 30
0.0
 11
34.058195
 21
10.947903
 31
0.0
  0
LINE
  8
0
  6
BYBLOCK
 62
     0
 10
33.43279
 20
11.047903
 30
0.0
 11
34.058195
 21
11.047903
 31
0.0
  0
LINE
  8
0
  6
BYBLOCK
 62
     0
 10
33.918695
 20
10.677903
 30
0.0
 11
33.918695
 21
10.407903
 31
0.0
  0
LINE
  8
0
  6
BYBLOCK
 62
     0
 10
33.918695
 20
11.317903
 30
0.0
 11
33.918695
 21
11.587903
 31
0.0
  0
LINE
  8
0
  6
BYBLOCK
 62
     0
 10
33.918695
 20
11.587903
 30
0.0
 11
34.188695
 21
11.587903
 31
0.0
  0
SOLID
  8
0
  6
BYBLOCK
 62
     0
 10
33.873695
 20
10.677903
 30
0.0
 11
33.963695
 21
10.677903
 31
0.0
 12
33.918695
 22
10.947903
 32
0.0
 13
33.918695
 23
10.947903
 33
0.0
  0
SOLID
  8
0
  6
BYBLOCK
 62
     0
 10
33.873695
 20
11.317903
 30
0.0
 11
33.963695
 21
11.317903
 31
0.0
 12
33.918695
 22
11.047903
 32
0.0
 13
33.918695
 23
11.047903
 33
0.0
  0
TEXT
  8
0
  6
BYBLOCK
 62
     0
 10
34.323695
 20
11.494153
 30
0.0
 40
0.1875
  1
0.100
 41
0.75
 72
     1
 11
34.546351
 21
11.587903
 31
0.0
 73
     2
  0
POINT
  8
DEFPOINTS
  6
BYBLOCK
 62
     0
 10
33.392647
 20
10.947903
 30
0.0
  0
POINT
  8
DEFPOINTS
  6
BYBLOCK
 62
     0
 10
33.33829
 20
11.047903
 30
0.0
  0
POINT
  8
DEFPOINTS
  6
BYBLOCK
 62
     0
 10
33.918695
 20
11.047903
 30
0.0
  0
ENDBLK
  8
0
  0
BLOCK
  8
0
  2
*D22
 70
    65
 10
0.0
 20
0.0
 30
0.0
  3
*D
  0
LINE
  8
0
  6
BYBLOCK
 62
     0
 10
27.759093
 20
11.297903
 30
0.0
 11
28.448093
 21
11.297903
 31
0.0
  0
LINE
  8
0
  6
BYBLOCK
 62
     0
 10
27.808736
 20
11.037903
 30
0.0
 11
28.448093
 21
11.037903
 31
0.0
  0
LINE
  8
0
  6
BYBLOCK
 62
     0
 10
28.308593
 20
11.567903
 30
0.0
 11
28.308593
 21
11.837903
 31
0.0
  0
LINE
  8
0
  6
BYBLOCK
 62
     0
 10
28.308593
 20
10.767903
 30
0.0
 11
28.308593
 21
10.497903
 31
0.0
  0
LINE
  8
0
  6
BYBLOCK
 62
     0
 10
28.308593
 20
10.497903
 30
0.0
 11
28.038593
 21
10.497903
 31
0.0
  0
SOLID
  8
0
  6
BYBLOCK
 62
     0
 10
28.263593
 20
11.567903
 30
0.0
 11
28.353593
 21
11.567903
 31
0.0
 12
28.308593
 22
11.297903
 32
0.0
 13
28.308593
 23
11.297903
 33
0.0
  0
SOLID
  8
0
  6
BYBLOCK
 62
     0
 10
28.263593
 20
10.767903
 30
0.0
 11
28.353593
 21
10.767903
 31
0.0
 12
28.308593
 22
11.037903
 32
0.0
 13
28.308593
 23
11.037903
 33
0.0
  0
TEXT
  8
0
  6
BYBLOCK
 62
     0
 10
27.387968
 20
10.404153
 30
0.0
 40
0.1875
  1
0.260
 41
0.75
 72
     1
 11
27.645781
 21
10.497903
 31
0.0
 73
     2
  0
POINT
  8
DEFPOINTS
  6
BYBLOCK
 62
     0
 10
27.664593
 20
11.297903
 30
0.0
  0
POINT
  8
DEFPOINTS
  6
BYBLOCK
 62
     0
 10
27.714236
 20
11.037903
 30
0.0
  0
POINT
  8
DEFPOINTS
  6
BYBLOCK
 62
     0
 10
28.308593
 20
11.037903
 30
0.0
  0
ENDBLK
  8
0
  0
BLOCK
  8
0
  2
*D23
 70
    65
 10
0.0
 20
0.0
 30
0.0
  3
*D
  0
LINE
  8
0
  6
BYBLOCK
 62
     0
 10
27.664593
 20
11.392403
 30
0.0
 11
27.664593
 21
11.727403
 31
0.0
  0
LINE
  8
0
  6
BYBLOCK
 62
     0
 10
27.569593
 20
11.392403
 30
0.0
 11
27.569593
 21
11.727403
 31
0.0
  0
LINE
  8
0
  6
BYBLOCK
 62
     0
 10
27.934593
 20
11.587903
 30
0.0
 11
28.204593
 21
11.587903
 31
0.0
  0
LINE
  8
0
  6
BYBLOCK
 62
     0
 10
27.299593
 20
11.587903
 30
0.0
 11
27.029593
 21
11.587903
 31
0.0
  0
SOLID
  8
0
  6
BYBLOCK
 62
     0
 10
27.934593
 20
11.632903
 30
0.0
 11
27.934593
 21
11.542903
 31
0.0
 12
27.664593
 22
11.587903
 32
0.0
 13
27.664593
 23
11.587903
 33
0.0
  0
SOLID
  8
0
  6
BYBLOCK
 62
     0
 10
27.299593
 20
11.632903
 30
0.0
 11
27.299593
 21
11.542903
 31
0.0
 12
27.569593
 22
11.587903
 32
0.0
 13
27.569593
 23
11.587903
 33
0.0
  0
TEXT
  8
0
  6
BYBLOCK
 62
     0
 10
26.378968
 20
11.494153
 30
0.0
 40
0.1875
  1
0.095
 41
0.75
 72
     1
 11
26.636781
 21
11.587903
 31
0.0
 73
     2
  0
POINT
  8
DEFPOINTS
  6
BYBLOCK
 62
     0
 10
27.664593
 20
11.297903
 30
0.0
  0
POINT
  8
DEFPOINTS
  6
BYBLOCK
 62
     0
 10
27.569593
 20
11.297903
 30
0.0
  0
POINT
  8
DEFPOINTS
  6
BYBLOCK
 62
     0
 10
27.569593
 20
11.587903
 30
0.0
  0
ENDBLK
  8
0
  0
BLOCK
  8
0
  2
*D24
 70
    65
 10
0.0
 20
0.0
 30
0.0
  3
*D
  0
LINE
  8
0
  6
BYBLOCK
 62
     0
 10
25.585679
 20
20.989758
 30
0.0
 11
25.585679
 21
21.715258
 31
0.0
  0
LINE
  8
0
  6
BYBLOCK
 62
     0
 10
29.433679
 20
20.989758
 30
0.0
 11
29.433679
 21
21.715258
 31
0.0
  0
LINE
  8
0
  6
BYBLOCK
 62
     0
 10
25.855679
 20
21.575758
 30
0.0
 11
27.093429
 21
21.575758
 31
0.0
  0
LINE
  8
0
  6
BYBLOCK
 62
     0
 10
29.163679
 20
21.575758
 30
0.0
 11
27.925929
 21
21.575758
 31
0.0
  0
SOLID
  8
0
  6
BYBLOCK
 62
     0
 10
25.855679
 20
21.620758
 30
0.0
 11
25.855679
 21
21.530758
 31
0.0
 12
25.585679
 22
21.575758
 32
0.0
 13
25.585679
 23
21.575758
 33
0.0
  0
SOLID
  8
0
  6
BYBLOCK
 62
     0
 10
29.163679
 20
21.620758
 30
0.0
 11
29.163679
 21
21.530758
 31
0.0
 12
29.433679
 22
21.575758
 32
0.0
 13
29.433679
 23
21.575758
 33
0.0
  0
TEXT
  8
0
  6
BYBLOCK
 62
     0
 10
27.228429
 20
21.482008
 30
0.0
 40
0.1875
  1
3.848
 41
0.75
 72
     1
 11
27.509679
 21
21.575758
 31
0.0
 73
     2
  0
POINT
  8
DEFPOINTS
  6
BYBLOCK
 62
     0
 10
25.585679
 20
20.895258
 30
0.0
  0
POINT
  8
DEFPOINTS
  6
BYBLOCK
 62
     0
 10
29.433679
 20
20.895258
 30
0.0
  0
POINT
  8
DEFPOINTS
  6
BYBLOCK
 62
     0
 10
29.433679
 20
21.575758
 30
0.0
  0
ENDBLK
  8
0
  0
BLOCK
  8
0
  2
*D25
 70
    65
 10
0.0
 20
0.0
 30
0.0
  3
*D
  0
LINE
  8
0
  6
BYBLOCK
 62
     0
 10
25.323179
 20
21.149758
 30
0.0
 11
25.323179
 21
22.136758
 31
0.0
  0
LINE
  8
0
  6
BYBLOCK
 62
     0
 10
29.696179
 20
21.149758
 30
0.0
 11
29.696179
 21
22.136758
 31
0.0
  0
LINE
  8
0
  6
BYBLOCK
 62
     0
 10
25.593179
 20
21.997258
 30
0.0
 11
27.093429
 21
21.997258
 31
0.0
  0
LINE
  8
0
  6
BYBLOCK
 62
     0
 10
29.426179
 20
21.997258
 30
0.0
 11
27.925929
 21
21.997258
 31
0.0
  0
SOLID
  8
0
  6
BYBLOCK
 62
     0
 10
25.593179
 20
22.042258
 30
0.0
 11
25.593179
 21
21.952258
 31
0.0
 12
25.323179
 22
21.997258
 32
0.0
 13
25.323179
 23
21.997258
 33
0.0
  0
SOLID
  8
0
  6
BYBLOCK
 62
     0
 10
29.426179
 20
22.042258
 30
0.0
 11
29.426179
 21
21.952258
 31
0.0
 12
29.696179
 22
21.997258
 32
0.0
 13
29.696179
 23
21.997258
 33
0.0
  0
TEXT
  8
0
  6
BYBLOCK
 62
     0
 10
27.228429
 20
21.903508
 30
0.0
 40
0.1875
  1
4.373
 41
0.75
 72
     1
 11
27.509679
 21
21.997258
 31
0.0
 73
     2
  0
POINT
  8
DEFPOINTS
  6
BYBLOCK
 62
     0
 10
25.323179
 20
21.055258
 30
0.0
  0
POINT
  8
DEFPOINTS
  6
BYBLOCK
 62
     0
 10
29.696179
 20
21.055258
 30
0.0
  0
POINT
  8
DEFPOINTS
  6
BYBLOCK
 62
     0
 10
29.696179
 20
21.997258
 30
0.0
  0
ENDBLK
  8
0
  0
BLOCK
  8
0
  2
*D26
 70
    65
 10
0.0
 20
0.0
 30
0.0
  3
*D
  0
LINE
  8
0
  6
BYBLOCK
 62
     0
 10
25.585679
 20
20.989758
 30
0.0
 11
25.585679
 21
21.715258
 31
0.0
  0
LINE
  8
0
  6
BYBLOCK
 62
     0
 10
25.323179
 20
21.149758
 30
0.0
 11
25.323179
 21
21.715258
 31
0.0
  0
LINE
  8
0
  6
BYBLOCK
 62
     0
 10
25.855679
 20
21.575758
 30
0.0
 11
26.125679
 21
21.575758
 31
0.0
  0
LINE
  8
0
  6
BYBLOCK
 62
     0
 10
25.053179
 20
21.575758
 30
0.0
 11
24.783179
 21
21.575758
 31
0.0
  0
SOLID
  8
0
  6
BYBLOCK
 62
     0
 10
25.855679
 20
21.620758
 30
0.0
 11
25.855679
 21
21.530758
 31
0.0
 12
25.585679
 22
21.575758
 32
0.0
 13
25.585679
 23
21.575758
 33
0.0
  0
SOLID
  8
0
  6
BYBLOCK
 62
     0
 10
25.053179
 20
21.620758
 30
0.0
 11
25.053179
 21
21.530758
 31
0.0
 12
25.323179
 22
21.575758
 32
0.0
 13
25.323179
 23
21.575758
 33
0.0
  0
TEXT
  8
0
  6
BYBLOCK
 62
     0
 10
24.109117
 20
21.482008
 30
0.0
 40
0.1875
  1
0.263
 41
0.75
 72
     1
 11
24.378648
 21
21.575758
 31
0.0
 73
     2
  0
POINT
  8
DEFPOINTS
  6
BYBLOCK
 62
     0
 10
25.585679
 20
20.895258
 30
0.0
  0
POINT
  8
DEFPOINTS
  6
BYBLOCK
 62
     0
 10
25.323179
 20
21.055258
 30
0.0
  0
POINT
  8
DEFPOINTS
  6
BYBLOCK
 62
     0
 10
25.323179
 20
21.575758
 30
0.0
  0
ENDBLK
  8
0
  0
BLOCK
  8
0
  2
*D27
 70
    65
 10
0.0
 20
0.0
 30
0.0
  3
*D
  0
LINE
  8
0
  6
BYBLOCK
 62
     0
 10
17.121151
 20
26.223446
 30
0.0
 11
17.121151
 21
26.083946
 31
0.0
  0
LINE
  8
0
  6
BYBLOCK
 62
     0
 10
17.069151
 20
26.223446
 30
0.0
 11
17.069151
 21
26.083946
 31
0.0
  0
LINE
  8
0
  6
BYBLOCK
 62
     0
 10
17.391151
 20
26.223446
 30
0.0
 11
17.661151
 21
26.223446
 31
0.0
  0
LINE
  8
0
  6
BYBLOCK
 62
     0
 10
16.799151
 20
26.223446
 30
0.0
 11
16.529151
 21
26.223446
 31
0.0
  0
SOLID
  8
0
  6
BYBLOCK
 62
     0
 10
17.391151
 20
26.268446
 30
0.0
 11
17.391151
 21
26.178446
 31
0.0
 12
17.121151
 22
26.223446
 32
0.0
 13
17.121151
 23
26.223446
 33
0.0
  0
SOLID
  8
0
  6
BYBLOCK
 62
     0
 10
16.799151
 20
26.268446
 30
0.0
 11
16.799151
 21
26.178446
 31
0.0
 12
17.069151
 22
26.223446
 32
0.0
 13
17.069151
 23
26.223446
 33
0.0
  0
TEXT
  8
0
  6
BYBLOCK
 62
     0
 10
15.831651
 20
26.129696
 30
0.0
 40
0.1875
  1
 TYP.
 41
0.75
 72
     1
 11
16.112901
 21
26.223446
 31
0.0
 73
     2
  0
TEXT
  8
0
  6
BYBLOCK
 62
     0
 10
15.269151
 20
26.129696
 30
0.0
 40
0.1875
  1
0.052
 41
0.75
 72
     1
 11
15.526963
 21
26.223446
 31
0.0
 73
     2
  0
POINT
  8
DEFPOINTS
  6
BYBLOCK
 62
     0
 10
17.121151
 20
26.317946
 30
0.0
  0
POINT
  8
DEFPOINTS
  6
BYBLOCK
 62
     0
 10
17.069151
 20
26.317946
 30
0.0
  0
POINT
  8
DEFPOINTS
  6
BYBLOCK
 62
     0
 10
17.069151
 20
26.223446
 30
0.0
  0
ENDBLK
  8
0
  0
BLOCK
  8
0
  2
*D28
 70
    65
 10
0.0
 20
0.0
 30
0.0
  3
*D
  0
LINE
  8
0
  6
BYBLOCK
 62
     0
 10
21.340267
 20
1.507278
 30
0.0
 11
22.082793
 21
1.507278
 31
0.0
  0
LINE
  8
0
  6
BYBLOCK
 62
     0
 10
21.340267
 20
4.105278
 30
0.0
 11
22.082793
 21
4.105278
 31
0.0
  0
LINE
  8
0
  6
BYBLOCK
 62
     0
 10
21.943293
 20
1.777278
 30
0.0
 11
21.943293
 21
2.577528
 31
0.0
  0
LINE
  8
0
  6
BYBLOCK
 62
     0
 10
21.943293
 20
3.835278
 30
0.0
 11
21.943293
 21
3.035028
 31
0.0
  0
SOLID
  8
0
  6
BYBLOCK
 62
     0
 10
21.898293
 20
1.777278
 30
0.0
 11
21.988293
 21
1.777278
 31
0.0
 12
21.943293
 22
1.507278
 32
0.0
 13
21.943293
 23
1.507278
 33
0.0
  0
SOLID
  8
0
  6
BYBLOCK
 62
     0
 10
21.898293
 20
3.835278
 30
0.0
 11
21.988293
 21
3.835278
 31
0.0
 12
21.943293
 22
4.105278
 32
0.0
 13
21.943293
 23
4.105278
 33
0.0
  0
TEXT
  8
0
  6
BYBLOCK
 62
     0
 10
21.662043
 20
2.712528
 30
0.0
 40
0.1875
  1
2.598
 41
0.75
 72
     1
 11
21.943293
 21
2.806278
 31
0.0
 73
     2
  0
POINT
  8
DEFPOINTS
  6
BYBLOCK
 62
     0
 10
21.245767
 20
1.507278
 30
0.0
  0
POINT
  8
DEFPOINTS
  6
BYBLOCK
 62
     0
 10
21.245767
 20
4.105278
 30
0.0
  0
POINT
  8
DEFPOINTS
  6
BYBLOCK
 62
     0
 10
21.943293
 20
4.105278
 30
0.0
  0
ENDBLK
  8
0
  0
BLOCK
  8
0
  2
*D29
 70
    65
 10
0.0
 20
0.0
 30
0.0
  3
*D
  0
LINE
  8
0
  6
BYBLOCK
 62
     0
 10
21.340267
 20
4.105278
 30
0.0
 11
22.082793
 21
4.105278
 31
0.0
  0
LINE
  8
0
  6
BYBLOCK
 62
     0
 10
21.502767
 20
4.365278
 30
0.0
 11
22.082793
 21
4.365278
 31
0.0
  0
LINE
  8
0
  6
BYBLOCK
 62
     0
 10
21.943293
 20
3.835278
 30
0.0
 11
21.943293
 21
3.565278
 31
0.0
  0
LINE
  8
0
  6
BYBLOCK
 62
     0
 10
21.943293
 20
4.635278
 30
0.0
 11
21.943293
 21
4.905278
 31
0.0
  0
LINE
  8
0
  6
BYBLOCK
 62
     0
 10
21.943293
 20
4.905278
 30
0.0
 11
22.213293
 21
4.905278
 31
0.0
  0
SOLID
  8
0
  6
BYBLOCK
 62
     0
 10
21.898293
 20
3.835278
 30
0.0
 11
21.988293
 21
3.835278
 31
0.0
 12
21.943293
 22
4.105278
 32
0.0
 13
21.943293
 23
4.105278
 33
0.0
  0
SOLID
  8
0
  6
BYBLOCK
 62
     0
 10
21.898293
 20
4.635278
 30
0.0
 11
21.988293
 21
4.635278
 31
0.0
 12
21.943293
 22
4.365278
 32
0.0
 13
21.943293
 23
4.365278
 33
0.0
  0
TEXT
  8
0
  6
BYBLOCK
 62
     0
 10
22.348293
 20
4.811528
 30
0.0
 40
0.1875
  1
0.260
 41
0.75
 72
     1
 11
22.606105
 21
4.905278
 31
0.0
 73
     2
  0
POINT
  8
DEFPOINTS
  6
BYBLOCK
 62
     0
 10
21.245767
 20
4.105278
 30
0.0
  0
POINT
  8
DEFPOINTS
  6
BYBLOCK
 62
     0
 10
21.408267
 20
4.365278
 30
0.0
  0
POINT
  8
DEFPOINTS
  6
BYBLOCK
 62
     0
 10
21.943293
 20
4.365278
 30
0.0
  0
ENDBLK
  8
0
  0
BLOCK
  8
0
  2
*D30
 70
    65
 10
0.0
 20
0.0
 30
0.0
  3
*D
  0
LINE
  8
0
  6
BYBLOCK
 62
     0
 10
21.502767
 20
1.247278
 30
0.0
 11
22.783293
 21
1.247278
 31
0.0
  0
LINE
  8
0
  6
BYBLOCK
 62
     0
 10
21.502767
 20
4.365278
 30
0.0
 11
22.783293
 21
4.365278
 31
0.0
  0
LINE
  8
0
  6
BYBLOCK
 62
     0
 10
22.643793
 20
1.517278
 30
0.0
 11
22.643793
 21
2.577528
 31
0.0
  0
LINE
  8
0
  6
BYBLOCK
 62
     0
 10
22.643793
 20
4.095278
 30
0.0
 11
22.643793
 21
3.035028
 31
0.0
  0
SOLID
  8
0
  6
BYBLOCK
 62
     0
 10
22.598793
 20
1.517278
 30
0.0
 11
22.688793
 21
1.517278
 31
0.0
 12
22.643793
 22
1.247278
 32
0.0
 13
22.643793
 23
1.247278
 33
0.0
  0
SOLID
  8
0
  6
BYBLOCK
 62
     0
 10
22.598793
 20
4.095278
 30
0.0
 11
22.688793
 21
4.095278
 31
0.0
 12
22.643793
 22
4.365278
 32
0.0
 13
22.643793
 23
4.365278
 33
0.0
  0
TEXT
  8
0
  6
BYBLOCK
 62
     0
 10
22.409418
 20
2.712528
 30
0.0
 40
0.1875
  1
3.118
 41
0.75
 72
     1
 11
22.643793
 21
2.806278
 31
0.0
 73
     2
  0
POINT
  8
DEFPOINTS
  6
BYBLOCK
 62
     0
 10
21.408267
 20
1.247278
 30
0.0
  0
POINT
  8
DEFPOINTS
  6
BYBLOCK
 62
     0
 10
21.408267
 20
4.365278
 30
0.0
  0
POINT
  8
DEFPOINTS
  6
BYBLOCK
 62
     0
 10
22.643793
 20
4.365278
 30
0.0
  0
ENDBLK
  8
0
  0
BLOCK
  8
0
  2
*D31
 70
    65
 10
0.0
 20
0.0
 30
0.0
  3
*D
  0
LINE
  8
0
  6
BYBLOCK
 62
     0
 10
30.596759
 20
5.697278
 30
0.0
 11
30.010616
 21
5.697278
 31
0.0
  0
LINE
  8
0
  6
BYBLOCK
 62
     0
 10
30.636331
 20
5.822278
 30
0.0
 11
30.010616
 21
5.822278
 31
0.0
  0
LINE
  8
0
  6
BYBLOCK
 62
     0
 10
30.150116
 20
5.427278
 30
0.0
 11
30.150116
 21
5.157278
 31
0.0
  0
LINE
  8
0
  6
BYBLOCK
 62
     0
 10
30.150116
 20
6.092278
 30
0.0
 11
30.150116
 21
6.362278
 31
0.0
  0
LINE
  8
0
  6
BYBLOCK
 62
     0
 10
30.150116
 20
6.362278
 30
0.0
 11
30.420116
 21
6.362278
 31
0.0
  0
SOLID
  8
0
  6
BYBLOCK
 62
     0
 10
30.105116
 20
5.427278
 30
0.0
 11
30.195116
 21
5.427278
 31
0.0
 12
30.150116
 22
5.697278
 32
0.0
 13
30.150116
 23
5.697278
 33
0.0
  0
SOLID
  8
0
  6
BYBLOCK
 62
     0
 10
30.105116
 20
6.092278
 30
0.0
 11
30.195116
 21
6.092278
 31
0.0
 12
30.150116
 22
5.822278
 32
0.0
 13
30.150116
 23
5.822278
 33
0.0
  0
TEXT
  8
0
  6
BYBLOCK
 62
     0
 10
30.555116
 20
6.268528
 30
0.0
 40
0.1875
  1
0.125
 41
0.75
 72
     1
 11
30.80121
 21
6.362278
 31
0.0
 73
     2
  0
POINT
  8
DEFPOINTS
  6
BYBLOCK
 62
     0
 10
30.691259
 20
5.697278
 30
0.0
  0
POINT
  8
DEFPOINTS
  6
BYBLOCK
 62
     0
 10
30.730831
 20
5.822278
 30
0.0
  0
POINT
  8
DEFPOINTS
  6
BYBLOCK
 62
     0
 10
30.150116
 20
5.822278
 30
0.0
  0
ENDBLK
  8
0
  0
BLOCK
  8
0
  2
*D32
 70
    65
 10
0.0
 20
0.0
 30
0.0
  3
*D
  0
LINE
  8
0
  6
BYBLOCK
 62
     0
 10
6.893825
 20
5.421629
 30
0.0
 11
7.033325
 21
5.421629
 31
0.0
  0
LINE
  8
0
  6
BYBLOCK
 62
     0
 10
6.893825
 20
5.321629
 30
0.0
 11
7.033325
 21
5.321629
 31
0.0
  0
LINE
  8
0
  6
BYBLOCK
 62
     0
 10
6.893825
 20
5.691629
 30
0.0
 11
6.893825
 21
5.961629
 31
0.0
  0
LINE
  8
0
  6
BYBLOCK
 62
     0
 10
6.893825
 20
5.051629
 30
0.0
 11
6.893825
 21
4.781629
 31
0.0
  0
LINE
  8
0
  6
BYBLOCK
 62
     0
 10
6.893825
 20
4.781629
 30
0.0
 11
6.623825
 21
4.781629
 31
0.0
  0
SOLID
  8
0
  6
BYBLOCK
 62
     0
 10
6.848825
 20
5.691629
 30
0.0
 11
6.938825
 21
5.691629
 31
0.0
 12
6.893825
 22
5.421629
 32
0.0
 13
6.893825
 23
5.421629
 33
0.0
  0
SOLID
  8
0
  6
BYBLOCK
 62
     0
 10
6.848825
 20
5.051629
 30
0.0
 11
6.938825
 21
5.051629
 31
0.0
 12
6.893825
 22
5.321629
 32
0.0
 13
6.893825
 23
5.321629
 33
0.0
  0
TEXT
  8
0
  6
BYBLOCK
 62
     0
 10
6.043513
 20
4.687879
 30
0.0
 40
0.1875
  1
0.100
 41
0.75
 72
     1
 11
6.266169
 21
4.781629
 31
0.0
 73
     2
  0
POINT
  8
DEFPOINTS
  6
BYBLOCK
 62
     0
 10
6.799325
 20
5.421629
 30
0.0
  0
POINT
  8
DEFPOINTS
  6
BYBLOCK
 62
     0
 10
6.799325
 20
5.321629
 30
0.0
  0
POINT
  8
DEFPOINTS
  6
BYBLOCK
 62
     0
 10
6.893825
 20
5.321629
 30
0.0
  0
ENDBLK
  8
0
  0
BLOCK
  8
0
  2
*D33
 70
    65
 10
0.0
 20
0.0
 30
0.0
  3
*D
  0
LINE
  8
0
  6
BYBLOCK
 62
     0
 10
4.148627
 20
5.321629
 30
0.0
 11
4.604419
 21
5.321629
 31
0.0
  0
LINE
  8
0
  6
BYBLOCK
 62
     0
 10
3.950067
 20
7.324129
 30
0.0
 11
4.604419
 21
7.324129
 31
0.0
  0
LINE
  8
0
  6
BYBLOCK
 62
     0
 10
4.464919
 20
5.591629
 30
0.0
 11
4.464919
 21
6.094129
 31
0.0
  0
LINE
  8
0
  6
BYBLOCK
 62
     0
 10
4.464919
 20
7.054129
 30
0.0
 11
4.464919
 21
6.551629
 31
0.0
  0
SOLID
  8
0
  6
BYBLOCK
 62
     0
 10
4.419919
 20
5.591629
 30
0.0
 11
4.509919
 21
5.591629
 31
0.0
 12
4.464919
 22
5.321629
 32
0.0
 13
4.464919
 23
5.321629
 33
0.0
  0
SOLID
  8
0
  6
BYBLOCK
 62
     0
 10
4.419919
 20
7.054129
 30
0.0
 11
4.509919
 21
7.054129
 31
0.0
 12
4.464919
 22
7.324129
 32
0.0
 13
4.464919
 23
7.324129
 33
0.0
  0
TEXT
  8
0
  6
BYBLOCK
 62
     0
 10
4.207106
 20
6.229129
 30
0.0
 40
0.1875
  1
2.003
 41
0.75
 72
     1
 11
4.464919
 21
6.322879
 31
0.0
 73
     2
  0
POINT
  8
DEFPOINTS
  6
BYBLOCK
 62
     0
 10
4.054127
 20
5.321629
 30
0.0
  0
POINT
  8
DEFPOINTS
  6
BYBLOCK
 62
     0
 10
3.855567
 20
7.324129
 30
0.0
  0
POINT
  8
DEFPOINTS
  6
BYBLOCK
 62
     0
 10
4.464919
 20
7.324129
 30
0.0
  0
ENDBLK
  8
0
  0
ENDSEC
  0
SECTION
  2
ENTITIES
  0
INSERT
  8
TITLE
  2
HBS
 10
0.0
 20
0.0
 30
0.0
 41
1.5
 42
1.5
 43
1.5
  0
TEXT
  8
TEXT
 10
11.493072
 20
14.041181
 30
0.0
 40
0.1875
  1
COVER REDUCES INSIDE HEIGHT BY 0.085.
 41
0.75
  0
TEXT
  8
TEXT
 10
7.741254
 20
0.258138
 30
0.0
 40
0.234
  1
%%uBODY
 41
0.75
 72
     4
 11
8.065929
 21
0.351738
 31
0.0
  0
TEXT
  8
TEXT
 10
11.493072
 20
12.479681
 30
0.0
 40
0.1875
  1
OPEN END DUE TO TAPER.
 41
0.75
  0
TEXT
  8
TEXT
 10
11.493072
 20
12.792181
 30
0.0
 40
0.1875
  1
DIMENSIONS INCREASE SLIGHTLY AT
 41
0.75
  0
TEXT
  8
TEXT
 10
11.493072
 20
13.104681
 30
0.0
 40
0.1875
  1
TAKEN FROM CLOSED END OF THE BOX.
 41
0.75
  0
TEXT
  8
TEXT
 10
11.493072
 20
13.417181
 30
0.0
 40
0.1875
  1
LENGTH AND WIDTH DIMENSIONS ARE
 41
0.75
  0
TEXT
  8
TEXT
 10
18.880092
 20
0.258138
 30
0.0
 40
0.234
  1
%%uCOVER
 41
0.75
 72
     4
 11
19.321767
 21
0.351738
 31
0.0
  0
TEXT
  8
TEXT
 10
0.353291
 20
11.865118
 30
0.0
 40
0.1875
  1
%%uCOLOR:%%u BLACK
 41
0.75
  0
TEXT
  8
TEXT
 10
4.261733
 20
13.728681
 30
0.0
 40
0.1875
  1
AND CONTINUOUS USE TEMPERATURE OF 70%%d C.)
 41
0.75
  0
TEXT
  8
TEXT
 10
0.353291
 20
14.041181
 30
0.0
 40
0.1875
  1
%%uMATERIAL:%%u ABS THERMOPLASTIC (FLAMMABILITY RATING OF 94-VO AT 0.070" THICKNESS
 41
0.75
  0
TEXT
  8
TEXT
 10
4.87725
 20
14.6565
 30
0.0
 40
0.234
  1
UTILIBOX  (STYLE E)
 41
0.75
 72
     4
 11
6.39825
 21
14.7735
 31
0.0
  0
TEXT
  8
TEXT
 10
17.21625
 20
14.6565
 30
0.0
 40
0.234
  1
CU-795-MB
 41
0.75
 72
     4
 11
17.97675
 21
14.7735
 31
0.0
  0
TEXT
  8
TEXT
 10
17.334426
 20
12.789752
 30
0.0
 40
0.1875
  1
%%UNOTE:%%U ALL DIMENSIONS HAVE %%P0.010 TOLERANCE
 41
0.75
  0
TEXT
  8
TEXT
 10
18.140617
 20
12.48619
 30
0.0
 40
0.1875
  1
UNLESS OTHERWISE SPECIFIED.
 41
0.75
  0
TEXT
  8
TEXT
 10
17.334426
 20
14.041181
 30
0.0
 40
0.187714
  1
FOUR (4) #4 x 1/2 LG. SELF THREADING
 41
0.75
  0
TEXT
  8
TEXT
 10
17.334426
 20
13.728324
 30
0.0
 40
0.187714
  1
SCREWS WITH HI/LOW THREADS
 41
0.75
  0
TEXT
  8
TEXT
 10
17.334426
 20
13.415466
 30
0.0
 40
0.187714
  1
ARE SUPPLIED FOR MOUNTING COVER.
 41
0.75
  0
TEXT
  8
TEXT
 10
0.503386
 20
12.478681
 30
0.0
 40
0.1872
  1
COVER - SURFACES ARE SMOOTH.
 41
0.75
  0
TEXT
  8
TEXT
 10
0.503386
 20
13.101681
 30
0.0
 40
0.1875
  1
BODY - OUTSIDE SURFACES ARE TEXTURED FINISH
 41
0.75
  0
TEXT
  8
TEXT
 10
0.353291
 20
13.414181
 30
0.0
 40
0.1875
  1
%%uFINISH:
 41
0.75
  0
DIMENSION
  8
DIM
  2
*D1
 10
10.253917
 20
7.699129
 30
0.0
 11
8.065929
 21
7.699129
 31
0.0
 12
-27.916527
 22
-17.4591
 32
0.0
 13
5.877941
 23
7.178056
 33
0.0
 14
10.253917
 24
7.178056
 34
0.0
  3
23NSTD
  0
LINE
  8
HIDDEN
 10
5.879329
 20
5.421629
 30
0.0
 11
10.252529
 21
5.421629
 31
0.0
  0
LINE
  8
OBJECT
 10
5.829329
 20
5.321629
 30
0.0
 11
10.302529
 21
5.321629
 31
0.0
  0
LINE
  8
OBJECT
 10
6.02789
 20
7.324129
 30
0.0
 11
10.103968
 21
7.324129
 31
0.0
  0
LINE
  8
HIDDEN
 10
6.02789
 20
7.224129
 30
0.0
 11
10.103968
 21
7.224129
 31
0.0
  0
LINE
  8
HIDDEN
 10
6.092467
 20
7.314129
 30
0.0
 11
10.052791
 21
7.314129
 31
0.0
  0
LINE
  8
HIDDEN
 10
5.931982
 20
5.421629
 30
0.0
 11
5.977907
 21
7.175438
 31
0.0
  0
LINE
  8
OBJECT
 10
5.829329
 20
5.321629
 30
0.0
 11
5.877941
 21
7.178056
 31
0.0
  0
LINE
  8
HIDDEN
 10
6.231952
 20
5.436629
 30
0.0
 11
6.247552
 21
7.224129
 31
0.0
  0
LINE
  8
HIDDEN
 10
6.051691
 20
5.436629
 30
0.0
 11
6.036091
 21
7.224129
 31
0.0
  0
DIMENSION
  8
DIM
  2
*D31
 10
4.774786
 20
5.446629
 30
0.0
 11
5.42588
 21
5.986629
 31
0.0
 12
-25.37533
 22
-0.375648
 32
0.0
 13
5.315929
 23
5.321629
 33
0.0
 14
5.355501
 24
5.446629
 34
0.0
 50
90.0
  3
23NSTD
  0
LINE
  8
HIDDEN
 10
6.095924
 20
6.019296
 30
0.0
 11
6.095924
 21
5.436629
 31
0.0
  0
LINE
  8
HIDDEN
 10
6.187924
 20
6.019296
 30
0.0
 11
6.187924
 21
5.436629
 31
0.0
  0
LINE
  8
HIDDEN
 10
5.461243
 20
5.321629
 30
0.0
 11
5.472179
 21
5.446629
 31
0.0
  0
LINE
  8
HIDDEN
 10
5.670615
 20
5.321629
 30
0.0
 11
5.659679
 21
5.446629
 31
0.0
  0
LINE
  8
HIDDEN
 10
5.87671
 20
5.321629
 30
0.0
 11
5.879329
 21
5.421629
 31
0.0
  0
LINE
  8
HIDDEN
 10
6.051691
 20
5.436629
 30
0.0
 11
6.231952
 21
5.436629
 31
0.0
  0
ARC
  8
HIDDEN
 10
6.156674
 20
6.019296
 30
0.0
 40
0.03125
 50
0.0
 51
90.0
  0
ARC
  8
HIDDEN
 10
6.127174
 20
6.019296
 30
0.0
 40
0.03125
 50
90.0
 51
180.0
  0
LINE
  8
HIDDEN
 10
6.127174
 20
6.050546
 30
0.0
 11
6.156674
 21
6.050546
 31
0.0
  0
ARC
  8
OBJECT
 10
6.02789
 20
7.174129
 30
0.0
 40
0.15
 50
90.0
 51
178.5
  0
ARC
  8
HIDDEN
 10
6.02789
 20
7.174129
 30
0.0
 40
0.05
 50
90.0
 51
178.5
  0
LINE
  8
HIDDEN
 10
6.092467
 20
7.324129
 30
0.0
 11
6.092467
 21
7.314129
 31
0.0
  0
LINE
  8
HIDDEN
 10
6.123717
 20
7.324129
 30
0.0
 11
6.123717
 21
7.314129
 31
0.0
  0
LINE
  8
OBJECT
 10
10.302529
 20
5.321629
 30
0.0
 11
10.253917
 21
7.178056
 31
0.0
  0
LINE
  8
HIDDEN
 10
10.199876
 20
5.421629
 30
0.0
 11
10.153951
 21
7.175438
 31
0.0
  0
LINE
  8
HIDDEN
 10
9.899906
 20
5.436629
 30
0.0
 11
9.884306
 21
7.224129
 31
0.0
  0
LINE
  8
HIDDEN
 10
10.080167
 20
5.436629
 30
0.0
 11
10.095767
 21
7.224129
 31
0.0
  0
DIMENSION
  8
DIM
  2
*D2
 10
11.107262
 20
5.508629
 30
0.0
 11
12.719294
 21
6.048629
 31
0.0
 12
-27.916527
 22
-17.4591
 32
0.0
  1
<> POLISHED BAND
 13
10.815929
 23
5.321629
 33
0.0
 14
10.297632
 24
5.508629
 34
0.0
 50
90.0
  3
23NSTD
  0
LINE
  8
HIDDEN
 10
9.944037
 20
6.019296
 30
0.0
 11
9.944037
 21
5.436629
 31
0.0
  0
LINE
  8
HIDDEN
 10
10.036037
 20
6.019296
 30
0.0
 11
10.036037
 21
5.436629
 31
0.0
  0
LINE
  8
HIDDEN
 10
10.080167
 20
5.436629
 30
0.0
 11
9.899906
 21
5.436629
 31
0.0
  0
LINE
  8
HIDDEN
 10
10.255148
 20
5.321629
 30
0.0
 11
10.252529
 21
5.421629
 31
0.0
  0
LINE
  8
HIDDEN
 10
10.461243
 20
5.321629
 30
0.0
 11
10.472179
 21
5.446629
 31
0.0
  0
LINE
  8
HIDDEN
 10
10.670615
 20
5.321629
 30
0.0
 11
10.659679
 21
5.446629
 31
0.0
  0
ARC
  8
HIDDEN
 10
10.004787
 20
6.019296
 30
0.0
 40
0.03125
 50
0.0
 51
90.0
  0
ARC
  8
HIDDEN
 10
9.975287
 20
6.019296
 30
0.0
 40
0.03125
 50
90.0
 51
180.0
  0
LINE
  8
HIDDEN
 10
9.975287
 20
6.050546
 30
0.0
 11
10.004787
 21
6.050546
 31
0.0
  0
ARC
  8
OBJECT
 10
10.103968
 20
7.174129
 30
0.0
 40
0.15
 50
1.5
 51
90.0
  0
ARC
  8
HIDDEN
 10
10.103968
 20
7.174129
 30
0.0
 40
0.05
 50
1.5
 51
90.0
  0
LINE
  8
HIDDEN
 10
10.052791
 20
7.324129
 30
0.0
 11
10.052791
 21
7.314129
 31
0.0
  0
LINE
  8
HIDDEN
 10
10.021541
 20
7.324129
 30
0.0
 11
10.021541
 21
7.314129
 31
0.0
  0
DIMENSION
  8
DIM
  2
*D3
 10
10.815929
 20
12.535581
 30
0.0
 11
8.065929
 21
12.535581
 31
0.0
 12
-27.916527
 22
-17.4591
 32
0.0
 13
5.315929
 23
11.075681
 33
0.0
 14
10.815929
 24
11.075681
 34
0.0
  3
23NSTD
  0
DIMENSION
  8
DIM
  2
*D4
 10
10.565929
 20
12.114081
 30
0.0
 11
8.065929
 21
12.114081
 31
0.0
 12
-27.916527
 22
-17.4591
 32
0.0
 13
5.565929
 23
11.002743
 33
0.0
 14
10.565929
 24
11.002743
 34
0.0
  3
23NSTD
  0
DIMENSION
  8
DIM
  2
*D5
 10
10.052791
 20
8.141405
 30
0.0
 11
8.065929
 21
8.141405
 31
0.0
 12
-27.916527
 22
-17.4591
 32
0.0
 13
6.079067
 23
8.766143
 33
0.0
 14
10.052791
 24
8.766143
 34
0.0
 50
180.0
  3
23NSTD
  0
CIRCLE
  8
OBJECT
 10
5.565929
 20
9.252743
 30
0.0
 40
0.09375
  0
CIRCLE
  8
OBJECT
 10
5.565929
 20
11.002743
 30
0.0
 40
0.09375
  0
DIMENSION
  8
DIM
  2
*D6
 10
4.815929
 20
11.489343
 30
0.0
 11
4.815929
 21
10.127743
 31
0.0
 12
-27.916527
 22
-17.4591
 32
0.0
 13
6.079067
 23
8.766143
 33
0.0
 14
6.079067
 24
11.489343
 34
0.0
 50
270.0
  3
23NSTD
  0
DIMENSION
  8
DIM
  2
*D7
 10
11.315929
 20
11.002743
 30
0.0
 11
11.315929
 21
10.127743
 31
0.0
 12
-27.916527
 22
-17.4591
 32
0.0
 13
10.565929
 23
9.252743
 33
0.0
 14
10.565929
 24
11.002743
 34
0.0
 50
90.0
  3
23NSTD
  0
CIRCLE
  8
OBJECT
 10
10.565929
 20
9.252743
 30
0.0
 40
0.09375
  0
CIRCLE
  8
OBJECT
 10
10.565929
 20
11.002743
 30
0.0
 40
0.09375
  0
POLYLINE
  8
OBJECT
 66
     1
 10
0.0
 20
0.0
 30
0.0
 70
     1
  0
VERTEX
  8
OBJECT
 10
6.110317
 20
11.458093
 30
0.0
  0
VERTEX
  8
OBJECT
 10
6.110317
 20
8.797393
 30
0.0
  0
VERTEX
  8
OBJECT
 10
10.021541
 20
8.797393
 30
0.0
  0
VERTEX
  8
OBJECT
 10
10.021541
 20
11.458093
 30
0.0
  0
SEQEND
  8
OBJECT
  0
POLYLINE
  8
OBJECT
 66
     1
 10
0.0
 20
0.0
 30
0.0
 70
     1
  0
VERTEX
  8
OBJECT
 10
10.052791
 20
8.766143
 30
0.0
  0
VERTEX
  8
OBJECT
 10
10.052791
 20
11.489343
 30
0.0
  0
VERTEX
  8
OBJECT
 10
6.079067
 20
11.489343
 30
0.0
  0
VERTEX
  8
OBJECT
 10
6.079067
 20
8.766143
 30
0.0
  0
SEQEND
  8
OBJECT
  0
POLYLINE
  8
OBJECT
 66
     1
 10
0.0
 20
0.0
 30
0.0
 70
     1
  0
VERTEX
  8
OBJECT
 10
5.879251
 20
11.53916
 30
0.0
  0
VERTEX
  8
OBJECT
 10
5.879251
 20
8.716326
 30
0.0
 42
0.414214
  0
VERTEX
  8
OBJECT
 10
6.029251
 20
8.566326
 30
0.0
  0
VERTEX
  8
OBJECT
 10
10.102608
 20
8.566326
 30
0.0
 42
0.414214
  0
VERTEX
  8
OBJECT
 10
10.252608
 20
8.716326
 30
0.0
  0
VERTEX
  8
OBJECT
 10
10.252608
 20
11.53916
 30
0.0
 42
0.414214
  0
VERTEX
  8
OBJECT
 10
10.102608
 20
11.68916
 30
0.0
  0
VERTEX
  8
OBJECT
 10
6.029251
 20
11.68916
 30
0.0
 42
0.414214
  0
SEQEND
  8
OBJECT
  0
POLYLINE
  8
OBJECT
 66
     1
 10
0.0
 20
0.0
 30
0.0
  0
VERTEX
  8
OBJECT
 10
5.873263
 20
11.695147
 30
0.0
  0
VERTEX
  8
OBJECT
 10
5.359863
 20
11.181747
 30
0.0
 42
0.198912
  0
VERTEX
  8
OBJECT
 10
5.315929
 20
11.075681
 30
0.0
  0
VERTEX
  8
OBJECT
 10
5.315929
 20
9.179805
 30
0.0
 42
0.198912
  0
VERTEX
  8
OBJECT
 10
5.359863
 20
9.073739
 30
0.0
  0
VERTEX
  8
OBJECT
 10
5.873263
 20
8.560339
 30
0.0
  0
SEQEND
  8
OBJECT
  0
POLYLINE
  8
OBJECT
 66
     1
 10
0.0
 20
0.0
 30
0.0
 70
     1
  0
VERTEX
  8
OBJECT
 10
10.302529
 20
11.589081
 30
0.0
 42
0.414214
  0
VERTEX
  8
OBJECT
 10
10.152529
 20
11.739081
 30
0.0
  0
VERTEX
  8
OBJECT
 10
5.979329
 20
11.739081
 30
0.0
 42
0.414214
  0
VERTEX
  8
OBJECT
 10
5.829329
 20
11.589081
 30
0.0
  0
VERTEX
  8
OBJECT
 10
5.829329
 20
8.666405
 30
0.0
 42
0.414214
  0
VERTEX
  8
OBJECT
 10
5.979329
 20
8.516405
 30
0.0
  0
VERTEX
  8
OBJECT
 10
10.152529
 20
8.516405
 30
0.0
 42
0.414214
  0
VERTEX
  8
OBJECT
 10
10.302529
 20
8.666405
 30
0.0
  0
SEQEND
  8
OBJECT
  0
POLYLINE
  8
OBJECT
 66
     1
 10
0.0
 20
0.0
 30
0.0
  0
VERTEX
  8
OBJECT
 10
10.258595
 20
8.560339
 30
0.0
  0
VERTEX
  8
OBJECT
 10
10.771995
 20
9.073739
 30
0.0
 42
0.198912
  0
VERTEX
  8
OBJECT
 10
10.815929
 20
9.179805
 30
0.0
  0
VERTEX
  8
OBJECT
 10
10.815929
 20
11.075681
 30
0.0
 42
0.198912
  0
VERTEX
  8
OBJECT
 10
10.771995
 20
11.181747
 30
0.0
  0
VERTEX
  8
OBJECT
 10
10.258595
 20
11.695147
 30
0.0
  0
SEQEND
  8
OBJECT
  0
CIRCLE
  8
OBJECT
 10
5.565929
 20
3.201888
 30
0.0
 40
0.09375
  0
CIRCLE
  8
OBJECT
 10
5.565929
 20
1.451888
 30
0.0
 40
0.09375
  0
CIRCLE
  8
OBJECT
 10
10.565929
 20
3.201888
 30
0.0
 40
0.09375
  0
CIRCLE
  8
OBJECT
 10
10.565929
 20
1.451888
 30
0.0
 40
0.09375
  0
LINE
  8
HIDDEN
 10
3.74626
 20
7.224129
 30
0.0
 11
0.920705
 21
7.224129
 31
0.0
  0
LINE
  8
HIDDEN
 10
3.722304
 20
5.436629
 30
0.0
 11
3.543125
 21
5.436629
 31
0.0
  0
LINE
  8
OBJECT
 10
0.920705
 20
7.324129
 30
0.0
 11
3.74626
 21
7.324129
 31
0.0
  0
LINE
  8
HIDDEN
 10
3.894821
 20
5.421629
 30
0.0
 11
0.772145
 21
5.421629
 31
0.0
  0
LINE
  8
OBJECT
 10
0.722145
 20
5.321629
 30
0.0
 11
3.944821
 21
5.321629
 31
0.0
  0
LINE
  8
HIDDEN
 10
0.958483
 20
7.314129
 30
0.0
 11
3.695083
 21
7.314129
 31
0.0
  0
LINE
  8
OBJECT
 10
0.725418
 20
5.446629
 30
0.0
 11
3.941548
 21
5.446629
 31
0.0
  0
LINE
  8
HIDDEN
 10
3.618839
 20
6.050546
 30
0.0
 11
3.648339
 21
6.050546
 31
0.0
  0
LINE
  8
HIDDEN
 10
0.929031
 20
7.224129
 30
0.0
 11
0.944662
 21
5.436629
 31
0.0
  0
LINE
  8
OBJECT
 10
0.722145
 20
5.321629
 30
0.0
 11
0.770757
 21
7.178056
 31
0.0
  0
LINE
  8
HIDDEN
 10
0.824798
 20
5.421629
 30
0.0
 11
0.870723
 21
7.175438
 31
0.0
  0
LINE
  8
HIDDEN
 10
1.139471
 20
7.224129
 30
0.0
 11
1.123841
 21
5.436629
 31
0.0
  0
LINE
  8
HIDDEN
 10
3.527494
 20
7.224129
 30
0.0
 11
3.543125
 21
5.436629
 31
0.0
  0
ARC
  8
HIDDEN
 10
0.920705
 20
7.174129
 30
0.0
 40
0.05
 50
90.0
 51
178.5
  0
ARC
  8
OBJECT
 10
0.920705
 20
7.174129
 30
0.0
 40
0.15
 50
90.0
 51
178.5
  0
LINE
  8
HIDDEN
 10
0.989733
 20
7.324129
 30
0.0
 11
0.989733
 21
7.314129
 31
0.0
  0
LINE
  8
HIDDEN
 10
0.958483
 20
7.324129
 30
0.0
 11
0.958483
 21
7.314129
 31
0.0
  0
LINE
  8
HIDDEN
 10
0.987377
 20
6.019296
 30
0.0
 11
0.987377
 21
5.436629
 31
0.0
  0
LINE
  8
HIDDEN
 10
1.079377
 20
6.019296
 30
0.0
 11
1.079377
 21
5.436629
 31
0.0
  0
ARC
  8
HIDDEN
 10
1.048127
 20
6.019296
 30
0.0
 40
0.03125
 50
0.0
 51
90.0
  0
ARC
  8
HIDDEN
 10
1.018627
 20
6.019296
 30
0.0
 40
0.03125
 50
90.0
 51
180.0
  0
LINE
  8
HIDDEN
 10
1.048127
 20
6.050546
 30
0.0
 11
1.018627
 21
6.050546
 31
0.0
  0
LINE
  8
HIDDEN
 10
1.353797
 20
5.321629
 30
0.0
 11
1.364733
 21
5.446629
 31
0.0
  0
LINE
  8
HIDDEN
 10
1.563169
 20
5.321629
 30
0.0
 11
1.552233
 21
5.446629
 31
0.0
  0
LINE
  8
HIDDEN
 10
0.769526
 20
5.321629
 30
0.0
 11
0.772145
 21
5.421629
 31
0.0
  0
LINE
  8
HIDDEN
 10
0.944662
 20
5.436629
 30
0.0
 11
1.123841
 21
5.436629
 31
0.0
  0
LINE
  8
HIDDEN
 10
0.828136
 20
5.549129
 30
0.0
 11
0.942721
 21
5.549129
 31
0.0
  0
LINE
  8
HIDDEN
 10
3.587589
 20
6.019296
 30
0.0
 11
3.587589
 21
5.436629
 31
0.0
  0
ARC
  8
HIDDEN
 10
3.618839
 20
6.019296
 30
0.0
 40
0.03125
 50
90.0
 51
180.0
  0
LINE
  8
HIDDEN
 10
3.313169
 20
5.321629
 30
0.0
 11
3.302233
 21
5.446629
 31
0.0
  0
LINE
  8
HIDDEN
 10
3.103797
 20
5.321629
 30
0.0
 11
3.114733
 21
5.446629
 31
0.0
  0
LINE
  8
HIDDEN
 10
3.737935
 20
7.224129
 30
0.0
 11
3.722304
 21
5.436629
 31
0.0
  0
LINE
  8
OBJECT
 10
3.944821
 20
5.321629
 30
0.0
 11
3.896209
 21
7.178056
 31
0.0
  0
LINE
  8
HIDDEN
 10
3.842168
 20
5.421629
 30
0.0
 11
3.796243
 21
7.175438
 31
0.0
  0
ARC
  8
HIDDEN
 10
3.74626
 20
7.174129
 30
0.0
 40
0.05
 50
1.5
 51
90.0
  0
ARC
  8
OBJECT
 10
3.74626
 20
7.174129
 30
0.0
 40
0.15
 50
1.5
 51
90.0
  0
LINE
  8
HIDDEN
 10
3.695083
 20
7.324129
 30
0.0
 11
3.695083
 21
7.314129
 31
0.0
  0
LINE
  8
HIDDEN
 10
3.663833
 20
7.324129
 30
0.0
 11
3.663833
 21
7.314129
 31
0.0
  0
LINE
  8
HIDDEN
 10
3.679589
 20
6.019296
 30
0.0
 11
3.679589
 21
5.436629
 31
0.0
  0
ARC
  8
HIDDEN
 10
3.648339
 20
6.019296
 30
0.0
 40
0.03125
 50
0.0
 51
90.0
  0
LINE
  8
HIDDEN
 10
3.89744
 20
5.321629
 30
0.0
 11
3.894821
 21
5.421629
 31
0.0
  0
LINE
  8
HIDDEN
 10
3.838829
 20
5.549129
 30
0.0
 11
3.724245
 21
5.549129
 31
0.0
  0
POLYLINE
  8
OBJECT
 66
     1
 10
0.0
 20
0.0
 30
0.0
 70
     1
  0
VERTEX
  8
OBJECT
 10
10.252529
 20
0.86555
 30
0.0
 42
-0.414214
  0
VERTEX
  8
OBJECT
 10
10.152529
 20
0.76555
 30
0.0
  0
VERTEX
  8
OBJECT
 10
5.979329
 20
0.76555
 30
0.0
 42
-0.414214
  0
VERTEX
  8
OBJECT
 10
5.879329
 20
0.86555
 30
0.0
  0
VERTEX
  8
OBJECT
 10
5.879329
 20
3.788226
 30
0.0
 42
-0.414214
  0
VERTEX
  8
OBJECT
 10
5.979329
 20
3.888226
 30
0.0
  0
VERTEX
  8
OBJECT
 10
10.152529
 20
3.888226
 30
0.0
 42
-0.414214
  0
VERTEX
  8
OBJECT
 10
10.252529
 20
3.788226
 30
0.0
  0
SEQEND
  8
OBJECT
  0
POLYLINE
  8
OBJECT
 66
     1
 10
0.0
 20
0.0
 30
0.0
 70
     1
  0
VERTEX
  8
OBJECT
 10
10.199529
 20
0.86555
 30
0.0
 42
-0.414214
  0
VERTEX
  8
OBJECT
 10
10.152529
 20
0.81855
 30
0.0
  0
VERTEX
  8
OBJECT
 10
5.979329
 20
0.81855
 30
0.0
 42
-0.414214
  0
VERTEX
  8
OBJECT
 10
5.932329
 20
0.86555
 30
0.0
  0
VERTEX
  8
OBJECT
 10
5.932329
 20
3.788226
 30
0.0
 42
-0.414214
  0
VERTEX
  8
OBJECT
 10
5.979329
 20
3.835226
 30
0.0
  0
VERTEX
  8
OBJECT
 10
10.152529
 20
3.835226
 30
0.0
 42
-0.414214
  0
VERTEX
  8
OBJECT
 10
10.199529
 20
3.788226
 30
0.0
  0
SEQEND
  8
OBJECT
  0
CIRCLE
  8
OBJECT
 10
6.141822
 20
3.62612
 30
0.0
 40
0.045
  0
LINE
  8
HIDDEN
 10
5.935321
 20
5.549129
 30
0.0
 11
6.050709
 21
5.549129
 31
0.0
  0
LINE
  8
HIDDEN
 10
10.081149
 20
5.549129
 30
0.0
 11
10.196537
 21
5.549129
 31
0.0
  0
POLYLINE
  8
OBJECT
 66
     1
 10
0.0
 20
0.0
 30
0.0
  0
VERTEX
  8
OBJECT
 10
5.959657
 20
3.830911
 30
0.0
  0
VERTEX
  8
OBJECT
 10
6.079234
 20
3.711335
 30
0.0
 42
-13.14017
  0
VERTEX
  8
OBJECT
 10
6.056606
 20
3.688708
 30
0.0
  0
VERTEX
  8
OBJECT
 10
5.93689
 20
3.808424
 30
0.0
  0
SEQEND
  8
OBJECT
  0
POLYLINE
  8
OBJECT
 66
     1
 10
0.0
 20
0.0
 30
0.0
  0
VERTEX
  8
OBJECT
 10
10.172201
 20
3.830911
 30
0.0
  0
VERTEX
  8
OBJECT
 10
10.052624
 20
3.711335
 30
0.0
 42
13.14017
  0
VERTEX
  8
OBJECT
 10
10.075252
 20
3.688708
 30
0.0
  0
VERTEX
  8
OBJECT
 10
10.194968
 20
3.808424
 30
0.0
  0
SEQEND
  8
OBJECT
  0
CIRCLE
  8
OBJECT
 10
9.990037
 20
3.62612
 30
0.0
 40
0.045
  0
POLYLINE
  8
OBJECT
 66
     1
 10
0.0
 20
0.0
 30
0.0
  0
VERTEX
  8
OBJECT
 10
5.959657
 20
0.822865
 30
0.0
  0
VERTEX
  8
OBJECT
 10
6.079234
 20
0.942441
 30
0.0
 42
13.14017
  0
VERTEX
  8
OBJECT
 10
6.056606
 20
0.965069
 30
0.0
  0
VERTEX
  8
OBJECT
 10
5.93689
 20
0.845353
 30
0.0
  0
SEQEND
  8
OBJECT
  0
CIRCLE
  8
OBJECT
 10
6.141822
 20
1.027657
 30
0.0
 40
0.045
  0
POLYLINE
  8
OBJECT
 66
     1
 10
0.0
 20
0.0
 30
0.0
  0
VERTEX
  8
OBJECT
 10
10.172201
 20
0.822865
 30
0.0
  0
VERTEX
  8
OBJECT
 10
10.052624
 20
0.942441
 30
0.0
 42
-13.14017
  0
VERTEX
  8
OBJECT
 10
10.075252
 20
0.965069
 30
0.0
  0
VERTEX
  8
OBJECT
 10
10.194968
 20
0.845353
 30
0.0
  0
SEQEND
  8
OBJECT
  0
CIRCLE
  8
OBJECT
 10
9.990037
 20
1.027657
 30
0.0
 40
0.045
  0
POLYLINE
  8
HIDDEN
 66
     1
 10
0.0
 20
0.0
 30
0.0
  0
VERTEX
  8
HIDDEN
 10
5.959657
 20
8.62372
 30
0.0
  0
VERTEX
  8
HIDDEN
 10
6.079234
 20
8.743296
 30
0.0
 42
13.14017
  0
VERTEX
  8
HIDDEN
 10
6.056606
 20
8.765924
 30
0.0
  0
VERTEX
  8
HIDDEN
 10
5.93689
 20
8.646207
 30
0.0
  0
SEQEND
  8
HIDDEN
  0
CIRCLE
  8
HIDDEN
 10
6.141822
 20
8.828512
 30
0.0
 40
0.045
  0
POLYLINE
  8
HIDDEN
 66
     1
 10
0.0
 20
0.0
 30
0.0
  0
VERTEX
  8
HIDDEN
 10
10.172201
 20
8.62372
 30
0.0
  0
VERTEX
  8
HIDDEN
 10
10.052624
 20
8.743296
 30
0.0
 42
-13.14017
  0
VERTEX
  8
HIDDEN
 10
10.075252
 20
8.765924
 30
0.0
  0
VERTEX
  8
HIDDEN
 10
10.194968
 20
8.646207
 30
0.0
  0
SEQEND
  8
HIDDEN
  0
CIRCLE
  8
HIDDEN
 10
9.990037
 20
8.828512
 30
0.0
 40
0.045
  0
POLYLINE
  8
HIDDEN
 66
     1
 10
0.0
 20
0.0
 30
0.0
  0
VERTEX
  8
HIDDEN
 10
10.172201
 20
11.631766
 30
0.0
  0
VERTEX
  8
HIDDEN
 10
10.052624
 20
11.51219
 30
0.0
 42
13.14017
  0
VERTEX
  8
HIDDEN
 10
10.075252
 20
11.489562
 30
0.0
  0
VERTEX
  8
HIDDEN
 10
10.194968
 20
11.609279
 30
0.0
  0
SEQEND
  8
HIDDEN
  0
CIRCLE
  8
HIDDEN
 10
9.990037
 20
11.426975
 30
0.0
 40
0.045
  0
POLYLINE
  8
HIDDEN
 66
     1
 10
0.0
 20
0.0
 30
0.0
  0
VERTEX
  8
HIDDEN
 10
5.959657
 20
11.631766
 30
0.0
  0
VERTEX
  8
HIDDEN
 10
6.079234
 20
11.51219
 30
0.0
 42
-13.14017
  0
VERTEX
  8
HIDDEN
 10
6.056606
 20
11.489562
 30
0.0
  0
VERTEX
  8
HIDDEN
 10
5.93689
 20
11.609279
 30
0.0
  0
SEQEND
  8
HIDDEN
  0
CIRCLE
  8
HIDDEN
 10
6.141822
 20
11.426975
 30
0.0
 40
0.045
  0
POLYLINE
  8
HIDDEN
 66
     1
 10
0.0
 20
0.0
 30
0.0
 70
     1
  0
VERTEX
  8
HIDDEN
 10
10.199529
 20
8.666405
 30
0.0
 42
-0.414214
  0
VERTEX
  8
HIDDEN
 10
10.152529
 20
8.619405
 30
0.0
  0
VERTEX
  8
HIDDEN
 10
5.979329
 20
8.619405
 30
0.0
 42
-0.414214
  0
VERTEX
  8
HIDDEN
 10
5.932329
 20
8.666405
 30
0.0
  0
VERTEX
  8
HIDDEN
 10
5.932329
 20
11.589081
 30
0.0
 42
-0.414214
  0
VERTEX
  8
HIDDEN
 10
5.979329
 20
11.636081
 30
0.0
  0
VERTEX
  8
HIDDEN
 10
10.152529
 20
11.636081
 30
0.0
 42
-0.414214
  0
VERTEX
  8
HIDDEN
 10
10.199529
 20
11.589081
 30
0.0
  0
SEQEND
  8
HIDDEN
  0
DIMENSION
  8
DIM
  6
CONTINUOUS
  2
*D8
 10
6.141822
 20
4.313226
 30
0.0
 11
8.065929
 21
4.313226
 31
0.0
 12
-27.916527
 22
-17.021412
 32
0.0
 13
9.990037
 23
3.62612
 33
0.0
 14
6.141822
 24
3.62612
 34
0.0
  3
23NSTD
  0
DIMENSION
  8
DIM
  6
CONTINUOUS
  2
*D9
 10
5.829329
 20
4.313226
 30
0.0
 11
4.908235
 21
4.313226
 31
0.0
 12
-27.916527
 22
-17.021412
 32
0.0
 13
6.141822
 23
3.62612
 33
0.0
 14
5.829329
 24
3.788226
 34
0.0
  3
23NSTD
  0
DIMENSION
  8
DIM
  6
CONTINUOUS
  2
*D10
 10
4.459819
 20
3.62612
 30
0.0
 11
4.459819
 21
2.326888
 31
0.0
 12
-27.916527
 22
-17.021412
 32
0.0
 13
6.141822
 23
1.027657
 33
0.0
 14
6.141822
 24
3.62612
 34
0.0
 50
90.0
  3
23NSTD
  0
DIMENSION
  8
DIM
  6
CONTINUOUS
  2
*D11
 10
4.459819
 20
3.938226
 30
0.0
 11
4.459819
 21
3.782173
 31
0.0
 12
-27.916527
 22
-17.021412
 32
0.0
 13
6.141822
 23
3.62612
 33
0.0
 14
5.979329
 24
3.938226
 34
0.0
 50
90.0
  3
23NSTDI
  0
TEXT
  8
DIM
 10
11.376378
 20
4.229819
 30
0.0
 40
0.1875
  1
(4) HOLES
 41
0.75
 11
11.376378
 21
4.323569
 31
0.0
 73
     2
  0
TEXT
  8
DIM
 10
11.376378
 20
4.542319
 30
0.0
 40
0.1875
  1
0.090 DIA. x 0.500 DEEP
 41
0.75
 11
11.376378
 21
4.636069
 31
0.0
 73
     2
  0
TEXT
  8
DIM
 10
11.35545
 20
3.769015
 30
0.0
 40
0.1875
  1
0.180 DIA. BOSS
 41
0.75
 11
11.35545
 21
3.862765
 31
0.0
 73
     2
  0
TEXT
  8
DIM
 10
11.35545
 20
3.456515
 30
0.0
 40
0.1875
  1
(4) PLACES
 41
0.75
 11
11.35545
 21
3.550265
 31
0.0
 73
     2
  0
POLYLINE
  8
DIM
 66
     1
 10
0.0
 20
0.0
 30
0.0
 41
0.10125
  0
VERTEX
  8
DIM
 10
10.094607
 20
3.610502
 30
0.0
  0
VERTEX
  8
DIM
 10
10.353591
 20
3.686839
 30
0.0
 41
0.0
  0
VERTEX
  8
DIM
 10
10.95045
 20
3.862765
 30
0.0
 41
0.0
  0
VERTEX
  8
DIM
 10
11.22045
 20
3.862765
 30
0.0
 41
0.0
  0
SEQEND
  8
DIM
  0
POLYLINE
  8
DIM
 66
     1
 10
0.0
 20
0.0
 30
0.0
 41
0.10125
  0
VERTEX
  8
DIM
 10
10.014594
 20
3.663828
 30
0.0
  0
VERTEX
  8
DIM
 10
10.203977
 20
3.856271
 30
0.0
 41
0.0
  0
VERTEX
  8
DIM
 10
10.971378
 20
4.636069
 30
0.0
 41
0.0
  0
VERTEX
  8
DIM
 10
11.241378
 20
4.636069
 30
0.0
 41
0.0
  0
SEQEND
  8
DIM
  0
DIMENSION
  8
DIM
  2
*D12
 10
0.770757
 20
7.699129
 30
0.0
 11
2.333483
 21
7.699129
 31
0.0
 12
-26.783822
 22
-17.4591
 32
0.0
 13
3.896209
 23
7.178056
 33
0.0
 14
0.770757
 24
7.178056
 34
0.0
  3
23NSTD
  0
DIMENSION
  8
DIM
  2
*D33
 10
4.355612
 20
7.324129
 30
0.0
 11
4.355612
 21
6.322879
 31
0.0
 12
-0.109307
 22
0.0
 32
0.0
 13
3.944821
 23
5.321629
 33
0.0
 14
3.74626
 24
7.324129
 34
0.0
 50
270.0
  3
23NSTD
  0
DIMENSION
  8
DIM
  2
*D13
 10
0.722145
 20
4.525129
 30
0.0
 11
2.333483
 21
4.525129
 31
0.0
 12
-26.783822
 22
-17.4591
 32
0.0
 13
3.944821
 23
5.321629
 33
0.0
 14
0.722145
 24
5.321629
 34
0.0
  3
23NSTD
  0
DIMENSION
  8
DIM
  2
*D14
 10
0.722145
 20
5.321629
 30
0.0
 11
1.967381
 21
8.053752
 31
0.0
 12
-26.783822
 22
-17.4591
 32
0.0
 70
   130
  1
<> REF.
 13
0.722145
 23
5.321629
 33
0.0
 14
0.722145
 24
5.648185
 34
0.0
 15
0.745712
 25
6.221629
 35
0.0
 16
0.743947
 26
8.120629
 36
0.0
  3
23NSTD
  0
DIMENSION
  8
DIM
  6
CONTINUOUS
  2
*D15
 10
10.270507
 20
6.544495
 30
0.0
 11
11.472666
 21
6.558631
 31
0.0
 12
-27.916527
 22
-17.4591
 32
0.0
 70
     1
  1
<> TYP.
 13
10.172191
 23
6.478899
 33
0.0
 14
10.272156
 24
6.481517
 34
0.0
  3
23NSTD
  0
DIMENSION
  8
DIM
  6
CONTINUOUS
  2
*D16
 10
3.89744
 20
4.946629
 30
0.0
 11
2.65994
 21
4.946629
 31
0.0
 12
-26.783822
 22
-17.4591
 32
0.0
  1
<> TYP.
 13
3.944821
 23
5.321629
 33
0.0
 14
3.89744
 24
5.321629
 34
0.0
  3
23NSTD
  0
DIMENSION
  8
DIM
  6
CONTINUOUS
  2
*D17
 10
5.315929
 20
12.114081
 30
0.0
 11
4.383117
 21
12.114081
 31
0.0
 12
-27.916527
 22
-17.4591
 32
0.0
 13
5.565929
 23
11.002743
 33
0.0
 14
5.315929
 24
11.075681
 34
0.0
  3
23NSTD
  0
DIMENSION
  8
DIM
  6
CONTINUOUS
  2
*D18
 10
11.315929
 20
11.739081
 30
0.0
 11
11.315929
 21
11.370912
 31
0.0
 12
-27.916527
 22
-17.4591
 32
0.0
 13
10.565929
 23
11.002743
 33
0.0
 14
10.152529
 24
11.739081
 34
0.0
 50
90.0
  3
23NSTDI
  0
DIMENSION
  8
DIM
  6
CONTINUOUS
  2
*D19
 10
9.594896
 20
5.321629
 30
0.0
 11
8.96724
 21
4.781629
 31
0.0
 12
-27.916527
 22
-17.4591
 32
0.0
 13
9.899906
 23
5.436629
 33
0.0
 14
10.302529
 24
5.321629
 34
0.0
 50
90.0
  3
23NSTD
  0
TEXT
  8
DIM
 10
11.382922
 20
8.346402
 30
0.0
 40
0.1875
  1
0.187 DIA. (AT TOP)
 41
0.75
 11
11.382922
 21
8.440152
 31
0.0
 73
     2
  0
TEXT
  8
DIM
 10
11.382922
 20
8.033902
 30
0.0
 40
0.1875
  1
(4) HOLES
 41
0.75
 11
11.382922
 21
8.127652
 31
0.0
 73
     2
  0
POLYLINE
  8
DIM
 66
     1
 10
0.0
 20
0.0
 30
0.0
 41
0.10125
  0
VERTEX
  8
DIM
 10
10.613633
 20
9.172038
 30
0.0
  0
VERTEX
  8
DIM
 10
10.733944
 20
8.930324
 30
0.0
 41
0.0
  0
VERTEX
  8
DIM
 10
10.977922
 20
8.440152
 30
0.0
 41
0.0
  0
VERTEX
  8
DIM
 10
11.247922
 20
8.440152
 30
0.0
 41
0.0
  0
SEQEND
  8
DIM
  0
POLYLINE
  8
HIDDEN
 66
     1
 10
0.0
 20
0.0
 30
0.0
  0
VERTEX
  8
HIDDEN
 10
5.873263
 20
0.759484
 30
0.0
 42
-0.198912
  0
VERTEX
  8
HIDDEN
 10
5.829329
 20
0.86555
 30
0.0
  0
VERTEX
  8
HIDDEN
 10
5.829329
 20
3.788226
 30
0.0
 42
-0.198912
  0
VERTEX
  8
HIDDEN
 10
5.873263
 20
3.894292
 30
0.0
  0
SEQEND
  8
HIDDEN
  0
POLYLINE
  8
OBJECT
 66
     1
 10
0.0
 20
0.0
 30
0.0
 70
     1
  0
VERTEX
  8
OBJECT
 10
10.258595
 20
0.759484
 30
0.0
 42
-0.198912
  0
VERTEX
  8
OBJECT
 10
10.152529
 20
0.71555
 30
0.0
  0
VERTEX
  8
OBJECT
 10
5.979329
 20
0.71555
 30
0.0
 42
-0.198912
  0
VERTEX
  8
OBJECT
 10
5.873263
 20
0.759484
 30
0.0
  0
VERTEX
  8
OBJECT
 10
5.359863
 20
1.272884
 30
0.0
 42
-0.198912
  0
VERTEX
  8
OBJECT
 10
5.315929
 20
1.37895
 30
0.0
  0
VERTEX
  8
OBJECT
 10
5.315929
 20
3.274826
 30
0.0
 42
-0.198912
  0
VERTEX
  8
OBJECT
 10
5.359863
 20
3.380892
 30
0.0
  0
VERTEX
  8
OBJECT
 10
5.873263
 20
3.894292
 30
0.0
 42
-0.198912
  0
VERTEX
  8
OBJECT
 10
5.979329
 20
3.938226
 30
0.0
  0
VERTEX
  8
OBJECT
 10
10.152529
 20
3.938226
 30
0.0
 42
-0.198912
  0
VERTEX
  8
OBJECT
 10
10.258595
 20
3.894292
 30
0.0
  0
VERTEX
  8
OBJECT
 10
10.771995
 20
3.380892
 30
0.0
 42
-0.198912
  0
VERTEX
  8
OBJECT
 10
10.815929
 20
3.274826
 30
0.0
  0
VERTEX
  8
OBJECT
 10
10.815929
 20
1.37895
 30
0.0
 42
-0.198912
  0
VERTEX
  8
OBJECT
 10
10.771995
 20
1.272884
 30
0.0
  0
SEQEND
  8
OBJECT
  0
POLYLINE
  8
HIDDEN
 66
     1
 10
0.0
 20
0.0
 30
0.0
  0
VERTEX
  8
HIDDEN
 10
10.258595
 20
0.759484
 30
0.0
 42
0.198912
  0
VERTEX
  8
HIDDEN
 10
10.302529
 20
0.86555
 30
0.0
  0
VERTEX
  8
HIDDEN
 10
10.302529
 20
3.788226
 30
0.0
 42
0.198912
  0
VERTEX
  8
HIDDEN
 10
10.258595
 20
3.894292
 30
0.0
  0
SEQEND
  8
HIDDEN
  0
POLYLINE
  8
DIM
  6
CONTINUOUS
 66
     1
 10
0.0
 20
0.0
 30
0.0
 41
0.10125
  0
VERTEX
  8
DIM
  6
CONTINUOUS
 10
7.138878
 20
9.230672
 30
0.0
  0
VERTEX
  8
DIM
  6
CONTINUOUS
 10
6.908799
 20
9.089379
 30
0.0
 41
0.0
  0
VERTEX
  8
DIM
  6
CONTINUOUS
 10
5.529665
 20
8.242446
 30
0.0
 41
0.0
  0
VERTEX
  8
DIM
  6
CONTINUOUS
 10
5.259665
 20
8.242446
 30
0.0
 41
0.0
  0
SEQEND
  8
DIM
  6
CONTINUOUS
  0
TEXT
  8
DIM
  6
CONTINUOUS
 10
3.67154
 20
8.148696
 30
0.0
 40
0.1875
  1
INSERT AREA
 41
0.75
 72
     2
 11
5.124665
 21
8.242446
 31
0.0
 73
     2
  0
POLYLINE
  8
OBJECT
 66
     1
 10
0.0
 20
0.0
 30
0.0
  0
VERTEX
  8
OBJECT
 10
10.302529
 20
5.321629
 30
0.0
  0
VERTEX
  8
OBJECT
 10
10.815929
 20
5.321629
 30
0.0
  0
VERTEX
  8
OBJECT
 10
10.807489
 20
5.418103
 30
0.0
 42
0.388879
  0
VERTEX
  8
OBJECT
 10
10.776358
 20
5.446629
 30
0.0
  0
VERTEX
  8
OBJECT
 10
10.299256
 20
5.446629
 30
0.0
  0
SEQEND
  8
OBJECT
  0
LINE
  8
OBJECT
 10
5.834226
 20
5.508629
 30
0.0
 11
10.297632
 21
5.508629
 31
0.0
  0
POLYLINE
  8
OBJECT
 66
     1
 10
0.0
 20
0.0
 30
0.0
  0
VERTEX
  8
OBJECT
 10
5.832602
 20
5.446629
 30
0.0
  0
VERTEX
  8
OBJECT
 10
5.355501
 20
5.446629
 30
0.0
 42
0.388879
  0
VERTEX
  8
OBJECT
 10
5.324369
 20
5.418103
 30
0.0
  0
VERTEX
  8
OBJECT
 10
5.315929
 20
5.321629
 30
0.0
  0
VERTEX
  8
OBJECT
 10
5.829329
 20
5.321629
 30
0.0
  0
SEQEND
  8
OBJECT
  0
LINE
  8
OBJECT
 10
0.727041
 20
5.508629
 30
0.0
 11
3.939924
 21
5.508629
 31
0.0
  0
TEXT
  8
DIM
 10
15.209844
 20
2.264983
 30
0.0
 40
0.1875
  1
(4) PLACES
 41
0.75
 72
     2
 11
16.475469
 21
2.358733
 31
0.0
 73
     2
  0
TEXT
  8
DIM
 10
12.959844
 20
2.577483
 30
0.0
 40
0.1875
  1
& C'SINK. TO 0.224 DIA. x 82%%d
 41
0.75
 72
     2
 11
16.475469
 21
2.671233
 31
0.0
 73
     2
  0
TEXT
  8
DIM
 10
14.717656
 20
2.889983
 30
0.0
 40
0.1875
  1
0.139 DIA. HOLE
 41
0.75
 72
     2
 11
16.475469
 21
2.983733
 31
0.0
 73
     2
  0
POLYLINE
  8
DIM
 66
     1
 10
0.0
 20
0.0
 30
0.0
 41
0.10125
  0
VERTEX
  8
DIM
 10
17.352277
 20
3.518683
 30
0.0
  0
VERTEX
  8
DIM
 10
17.173683
 20
3.316188
 30
0.0
 41
0.0
  0
VERTEX
  8
DIM
 10
16.880469
 20
2.983733
 30
0.0
 41
0.0
  0
VERTEX
  8
DIM
 10
16.610469
 20
2.983733
 30
0.0
 41
0.0
  0
SEQEND
  8
DIM
  0
POLYLINE
  8
OBJECT
 66
     1
 10
0.0
 20
0.0
 30
0.0
 70
     1
  0
VERTEX
  8
OBJECT
 10
17.235267
 20
0.767888
 30
0.0
 42
-0.414214
  0
VERTEX
  8
OBJECT
 10
17.135267
 20
0.867888
 30
0.0
  0
VERTEX
  8
OBJECT
 10
17.135267
 20
3.785888
 30
0.0
 42
-0.414214
  0
VERTEX
  8
OBJECT
 10
17.235267
 20
3.885888
 30
0.0
  0
VERTEX
  8
OBJECT
 10
21.408267
 20
3.885888
 30
0.0
 42
-0.414214
  0
VERTEX
  8
OBJECT
 10
21.508267
 20
3.785888
 30
0.0
  0
VERTEX
  8
OBJECT
 10
21.508267
 20
0.867888
 30
0.0
 42
-0.414214
  0
VERTEX
  8
OBJECT
 10
21.408267
 20
0.767888
 30
0.0
  0
SEQEND
  8
OBJECT
  0
DIMENSION
  8
DIM
  2
*D30
 10
22.643793
 20
3.885888
 30
0.0
 11
22.643793
 21
2.326888
 31
0.0
 12
0.0
 22
-0.47939
 32
0.0
 13
21.408267
 23
0.767888
 33
0.0
 14
21.408267
 24
3.885888
 34
0.0
 50
90.0
  3
23NSTD
  0
DIMENSION
  8
DIM
  2
*D25
 10
21.508267
 20
4.727888
 30
0.0
 11
19.321767
 21
4.727888
 31
0.0
 12
-8.187913
 22
-17.26937
 32
0.0
 13
17.135267
 23
3.785888
 33
0.0
 14
21.508267
 24
3.785888
 34
0.0
  3
23NSTD
  0
DIMENSION
  8
DIM
  2
*D24
 10
21.245767
 20
4.306388
 30
0.0
 11
19.321767
 21
4.306388
 31
0.0
 12
-8.187913
 22
-17.26937
 32
0.0
 13
17.397767
 23
3.625888
 33
0.0
 14
21.245767
 24
3.625888
 34
0.0
  3
23NSTD
  0
POLYLINE
  8
OBJECT
 66
     1
 10
0.0
 20
0.0
 30
0.0
 70
     1
  0
VERTEX
  8
OBJECT
 10
17.235267
 20
6.547174
 30
0.0
 42
-0.414214
  0
VERTEX
  8
OBJECT
 10
17.135267
 20
6.647174
 30
0.0
  0
VERTEX
  8
OBJECT
 10
17.135267
 20
9.565174
 30
0.0
 42
-0.414214
  0
VERTEX
  8
OBJECT
 10
17.235267
 20
9.665174
 30
0.0
  0
VERTEX
  8
OBJECT
 10
21.408267
 20
9.665174
 30
0.0
 42
-0.414214
  0
VERTEX
  8
OBJECT
 10
21.508267
 20
9.565174
 30
0.0
  0
VERTEX
  8
OBJECT
 10
21.508267
 20
6.647174
 30
0.0
 42
-0.414214
  0
VERTEX
  8
OBJECT
 10
21.408267
 20
6.547174
 30
0.0
  0
SEQEND
  8
OBJECT
  0
DIMENSION
  8
DIM
  2
*D28
 10
21.943293
 20
3.625888
 30
0.0
 11
21.943293
 21
2.326888
 31
0.0
 12
0.0
 22
-0.47939
 32
0.0
 13
21.245767
 23
1.027888
 33
0.0
 14
21.245767
 24
3.625888
 34
0.0
 50
90.0
  3
23NSTD
  0
DIMENSION
  8
DIM
  6
CONTINUOUS
  2
*D26
 10
17.135267
 20
4.306388
 30
0.0
 11
16.190735
 21
4.306388
 31
0.0
 12
-8.187913
 22
-17.26937
 32
0.0
 13
17.397767
 23
3.625888
 33
0.0
 14
17.135267
 24
3.785888
 34
0.0
  3
23NSTD
  0
DIMENSION
  8
DIM
  6
CONTINUOUS
  2
*D29
 10
21.943293
 20
3.885888
 30
0.0
 11
22.606105
 21
4.425888
 31
0.0
 12
0.0
 22
-0.47939
 32
0.0
 13
21.245767
 23
3.625888
 33
0.0
 14
21.408267
 24
3.885888
 34
0.0
 50
90.0
  3
23NSTD
  0
POLYLINE
  8
OBJECT
 66
     1
 10
0.0
 20
0.0
 30
0.0
 70
     1
  0
VERTEX
  8
OBJECT
 10
16.167413
 20
5.411629
 30
0.0
  0
VERTEX
  8
OBJECT
 10
13.054126
 20
5.411629
 30
0.0
  0
VERTEX
  8
OBJECT
 10
13.051769
 20
5.321629
 30
0.0
  0
VERTEX
  8
OBJECT
 10
16.169769
 20
5.321629
 30
0.0
  0
SEQEND
  8
OBJECT
  0
POLYLINE
  8
OBJECT
 66
     1
 10
0.0
 20
0.0
 30
0.0
  0
VERTEX
  8
OBJECT
 10
13.103769
 20
5.411629
 30
0.0
  0
VERTEX
  8
OBJECT
 10
13.103769
 20
5.421629
 30
0.0
  0
VERTEX
  8
OBJECT
 10
16.117769
 20
5.421629
 30
0.0
  0
VERTEX
  8
OBJECT
 10
16.117769
 20
5.411629
 30
0.0
  0
SEQEND
  8
OBJECT
  0
POLYLINE
  8
OBJECT
 66
     1
 10
0.0
 20
0.0
 30
0.0
 70
     1
  0
VERTEX
  8
OBJECT
 10
21.508267
 20
5.411629
 30
0.0
  0
VERTEX
  8
OBJECT
 10
17.137623
 20
5.411629
 30
0.0
  0
VERTEX
  8
OBJECT
 10
17.135267
 20
5.321629
 30
0.0
  0
VERTEX
  8
OBJECT
 10
21.510623
 20
5.321629
 30
0.0
  0
SEQEND
  8
OBJECT
  0
POLYLINE
  8
OBJECT
 66
     1
 10
0.0
 20
0.0
 30
0.0
  0
VERTEX
  8
OBJECT
 10
17.187267
 20
5.411629
 30
0.0
  0
VERTEX
  8
OBJECT
 10
17.187267
 20
5.421629
 30
0.0
  0
VERTEX
  8
OBJECT
 10
21.456267
 20
5.421629
 30
0.0
  0
VERTEX
  8
OBJECT
 10
21.456267
 20
5.411629
 30
0.0
  0
SEQEND
  8
OBJECT
  0
LINE
  8
HIDDEN
 10
15.840409
 20
5.421629
 30
0.0
 11
15.797769
 21
5.372578
 31
0.0
  0
LINE
  8
HIDDEN
 10
15.97913
 20
5.421629
 30
0.0
 11
16.021769
 21
5.372578
 31
0.0
  0
LINE
  8
HIDDEN
 10
13.38113
 20
5.421629
 30
0.0
 11
13.423769
 21
5.372578
 31
0.0
  0
LINE
  8
HIDDEN
 10
13.242409
 20
5.421629
 30
0.0
 11
13.199769
 21
5.372578
 31
0.0
  0
LINE
  8
HIDDEN
 10
13.423769
 20
5.372578
 30
0.0
 11
13.199769
 21
5.372578
 31
0.0
  0
LINE
  8
HIDDEN
 10
13.199769
 20
5.372578
 30
0.0
 11
13.195312
 21
5.321629
 31
0.0
  0
LINE
  8
HIDDEN
 10
13.423769
 20
5.372578
 30
0.0
 11
13.428227
 21
5.321629
 31
0.0
  0
LINE
  8
HIDDEN
 10
15.797769
 20
5.372578
 30
0.0
 11
15.793312
 21
5.321629
 31
0.0
  0
LINE
  8
HIDDEN
 10
16.021769
 20
5.372578
 30
0.0
 11
16.026227
 21
5.321629
 31
0.0
  0
LINE
  8
HIDDEN
 10
15.797769
 20
5.372578
 30
0.0
 11
16.021769
 21
5.372578
 31
0.0
  0
LINE
  8
HIDDEN
 10
17.330763
 20
5.421629
 30
0.0
 11
17.288123
 21
5.372578
 31
0.0
  0
LINE
  8
HIDDEN
 10
17.469484
 20
5.421629
 30
0.0
 11
17.512123
 21
5.372578
 31
0.0
  0
LINE
  8
HIDDEN
 10
17.512123
 20
5.372578
 30
0.0
 11
17.288123
 21
5.372578
 31
0.0
  0
LINE
  8
HIDDEN
 10
17.288123
 20
5.372578
 30
0.0
 11
17.283666
 21
5.321629
 31
0.0
  0
LINE
  8
HIDDEN
 10
17.512123
 20
5.372578
 30
0.0
 11
17.516581
 21
5.321629
 31
0.0
  0
LINE
  8
HIDDEN
 10
21.176406
 20
5.421629
 30
0.0
 11
21.133767
 21
5.372578
 31
0.0
  0
LINE
  8
HIDDEN
 10
21.315127
 20
5.421629
 30
0.0
 11
21.357767
 21
5.372578
 31
0.0
  0
LINE
  8
HIDDEN
 10
21.133767
 20
5.372578
 30
0.0
 11
21.357767
 21
5.372578
 31
0.0
  0
LINE
  8
HIDDEN
 10
21.133767
 20
5.372578
 30
0.0
 11
21.129309
 21
5.321629
 31
0.0
  0
LINE
  8
HIDDEN
 10
21.357767
 20
5.372578
 30
0.0
 11
21.362224
 21
5.321629
 31
0.0
  0
CIRCLE
  8
OBJECT
 10
21.245767
 20
1.027888
 30
0.0
 40
0.112
  0
CIRCLE
  8
OBJECT
 10
21.245767
 20
1.027888
 30
0.0
 40
0.116457
  0
CIRCLE
  8
OBJECT
 10
21.245767
 20
1.027888
 30
0.0
 40
0.069361
  0
CIRCLE
  8
OBJECT
 10
21.245767
 20
3.625888
 30
0.0
 40
0.112
  0
CIRCLE
  8
OBJECT
 10
21.245767
 20
3.625888
 30
0.0
 40
0.069361
  0
CIRCLE
  8
OBJECT
 10
21.245767
 20
3.625888
 30
0.0
 40
0.116457
  0
CIRCLE
  8
OBJECT
 10
17.397767
 20
1.027888
 30
0.0
 40
0.112
  0
CIRCLE
  8
OBJECT
 10
17.397767
 20
1.027888
 30
0.0
 40
0.069361
  0
CIRCLE
  8
OBJECT
 10
17.397767
 20
1.027888
 30
0.0
 40
0.116457
  0
CIRCLE
  8
OBJECT
 10
17.397767
 20
3.625888
 30
0.0
 40
0.116457
  0
CIRCLE
  8
OBJECT
 10
17.397767
 20
3.625888
 30
0.0
 40
0.069361
  0
CIRCLE
  8
OBJECT
 10
17.397767
 20
3.625888
 30
0.0
 40
0.112
  0
CIRCLE
  8
HIDDEN
 10
17.397767
 20
9.405174
 30
0.0
 40
0.112
  0
CIRCLE
  8
HIDDEN
 10
17.397767
 20
9.405174
 30
0.0
 40
0.116457
  0
CIRCLE
  8
OBJECT
 10
17.397767
 20
9.405174
 30
0.0
 40
0.069361
  0
CIRCLE
  8
HIDDEN
 10
21.245767
 20
9.405174
 30
0.0
 40
0.116457
  0
CIRCLE
  8
HIDDEN
 10
21.245767
 20
9.405174
 30
0.0
 40
0.112
  0
CIRCLE
  8
OBJECT
 10
21.245767
 20
9.405174
 30
0.0
 40
0.069361
  0
CIRCLE
  8
HIDDEN
 10
17.397767
 20
6.807174
 30
0.0
 40
0.116457
  0
CIRCLE
  8
HIDDEN
 10
17.397767
 20
6.807174
 30
0.0
 40
0.112
  0
CIRCLE
  8
OBJECT
 10
17.397767
 20
6.807174
 30
0.0
 40
0.069361
  0
CIRCLE
  8
HIDDEN
 10
21.245767
 20
6.807174
 30
0.0
 40
0.112
  0
CIRCLE
  8
HIDDEN
 10
21.245767
 20
6.807174
 30
0.0
 40
0.116457
  0
CIRCLE
  8
OBJECT
 10
21.245767
 20
6.807174
 30
0.0
 40
0.069361
  0
DIMENSION
  8
DIM
  6
CONTINUOUS
  2
*D27
 10
17.135267
 20
8.065391
 30
0.0
 11
15.897767
 21
8.065391
 31
0.0
 12
0.066116
 22
-18.158055
 32
0.0
  1
<> TYP.
 13
17.187267
 23
8.159891
 33
0.0
 14
17.135267
 24
8.159891
 34
0.0
  3
23NSTD
  0
POLYLINE
  8
OBJECT
 66
     1
 10
0.0
 20
0.0
 30
0.0
 70
     1
  0
VERTEX
  8
OBJECT
 10
17.235267
 20
6.599174
 30
0.0
 42
-0.414214
  0
VERTEX
  8
OBJECT
 10
17.187267
 20
6.647174
 30
0.0
  0
VERTEX
  8
OBJECT
 10
17.187267
 20
9.565174
 30
0.0
 42
-0.414214
  0
VERTEX
  8
OBJECT
 10
17.235267
 20
9.613174
 30
0.0
  0
VERTEX
  8
OBJECT
 10
21.408267
 20
9.613174
 30
0.0
 42
-0.414214
  0
VERTEX
  8
OBJECT
 10
21.456267
 20
9.565174
 30
0.0
  0
VERTEX
  8
OBJECT
 10
21.456267
 20
6.647174
 30
0.0
 42
-0.414214
  0
VERTEX
  8
OBJECT
 10
21.408267
 20
6.599174
 30
0.0
  0
SEQEND
  8
OBJECT
  0
POLYLINE
  8
HIDDEN
 66
     1
 10
0.0
 20
0.0
 30
0.0
 70
     1
  0
VERTEX
  8
HIDDEN
 10
17.235267
 20
0.819888
 30
0.0
 42
-0.414214
  0
VERTEX
  8
HIDDEN
 10
17.187267
 20
0.867888
 30
0.0
  0
VERTEX
  8
HIDDEN
 10
17.187267
 20
3.785888
 30
0.0
 42
-0.414214
  0
VERTEX
  8
HIDDEN
 10
17.235267
 20
3.833888
 30
0.0
  0
VERTEX
  8
HIDDEN
 10
21.408267
 20
3.833888
 30
0.0
 42
-0.414214
  0
VERTEX
  8
HIDDEN
 10
21.456267
 20
3.785888
 30
0.0
  0
VERTEX
  8
HIDDEN
 10
21.456267
 20
0.867888
 30
0.0
 42
-0.414214
  0
VERTEX
  8
HIDDEN
 10
21.408267
 20
0.819888
 30
0.0
  0
SEQEND
  8
HIDDEN
  0
DIMENSION
  8
DIM
  2
*D22
 10
16.761769
 20
5.411629
 30
0.0
 11
16.098957
 21
4.871629
 31
0.0
 12
-11.546824
 22
-5.626273
 32
0.0
 13
16.117769
 23
5.671629
 33
0.0
 14
16.167413
 24
5.411629
 34
0.0
 50
270.0
  3
23NSTD
  0
POLYLINE
  8
OBJECT
 66
     1
 10
0.0
 20
0.0
 30
0.0
  0
VERTEX
  8
OBJECT
 10
16.117769
 20
5.421629
 30
0.0
  0
VERTEX
  8
OBJECT
 10
16.117769
 20
5.671629
 30
0.0
  0
VERTEX
  8
OBJECT
 10
16.022769
 20
5.671629
 30
0.0
  0
VERTEX
  8
OBJECT
 10
16.022769
 20
5.421629
 30
0.0
  0
SEQEND
  8
OBJECT
  0
DIMENSION
  8
DIM
  2
*D23
 10
16.022769
 20
5.961629
 30
0.0
 11
15.089957
 21
5.961629
 31
0.0
 12
-11.546824
 22
-5.626273
 32
0.0
 13
16.117769
 23
5.671629
 33
0.0
 14
16.022769
 24
5.671629
 34
0.0
 50
180.0
  3
23NSTD
  0
DIMENSION
  8
DIM
  2
*D20
 10
19.446767
 20
6.215481
 30
0.0
 11
20.379579
 21
6.215481
 31
0.0
 12
-11.882023
 22
-5.285715
 32
0.0
 13
19.196767
 23
6.599174
 33
0.0
 14
19.446767
 24
6.599174
 34
0.0
 50
180.0
  3
23NSTD
  0
POLYLINE
  8
OBJECT
 66
     1
 10
0.0
 20
0.0
 30
0.0
  0
VERTEX
  8
OBJECT
 10
19.196767
 20
6.599174
 30
0.0
  0
VERTEX
  8
OBJECT
 10
19.196767
 20
6.694174
 30
0.0
  0
VERTEX
  8
OBJECT
 10
19.446767
 20
6.694174
 30
0.0
  0
VERTEX
  8
OBJECT
 10
19.446767
 20
6.599174
 30
0.0
  0
SEQEND
  8
OBJECT
  0
POLYLINE
  8
OBJECT
 66
     1
 10
0.0
 20
0.0
 30
0.0
  0
VERTEX
  8
OBJECT
 10
19.196767
 20
5.421629
 30
0.0
  0
VERTEX
  8
OBJECT
 10
19.196767
 20
5.546629
 30
0.0
 42
-1.0
  0
VERTEX
  8
OBJECT
 10
19.446767
 20
5.546629
 30
0.0
  0
VERTEX
  8
OBJECT
 10
19.446767
 20
5.421629
 30
0.0
  0
SEQEND
  8
OBJECT
  0
DIMENSION
  8
DIM
  2
*D21
 10
22.036671
 20
5.421629
 30
0.0
 11
22.664328
 21
5.961629
 31
0.0
 12
-11.882023
 22
-5.626273
 32
0.0
 13
21.510623
 23
5.321629
 33
0.0
 14
21.456267
 24
5.421629
 34
0.0
 50
90.0
  3
23NSTD
  0
TEXT
  8
TEXT
 10
1.549868
 20
12.798118
 30
0.0
 40
0.1875
  1
WITH TEXTURED INSERT AREA.
 41
0.75
  0
DIMENSION
  8
DIM
  2
*D32
 10
7.170358
 20
5.321629
 30
0.0
 11
6.542702
 21
4.781629
 31
0.0
 12
0.276533
 22
0.0
 32
0.0
 13
7.075858
 23
5.421629
 33
0.0
 14
7.075858
 24
5.321629
 34
0.0
 50
90.0
  3
23NSTD
  0
ENDSEC
  0
EOF
