  0
SECTION
  2
HEADER
  9
$ACADVER
  1
AC1009
  9
$INSBASE
 10
0.0
 20
0.0
 30
0.0
  9
$EXTMIN
 10
0.0
 20
0.0
 30
0.0
  9
$EXTMAX
 10
86.02
 20
131.75
 30
0.0
  9
$LIMMIN
 10
0.0
 20
0.0
  9
$LIMMAX
 10
86.02
 20
131.75
  9
$ORTHOMODE
 70
     1
  9
$REGENMODE
 70
     1
  9
$FILLMODE
 70
     1
  9
$QTEXTMODE
 70
     0
  9
$MIRRTEXT
 70
     0
  9
$DRAGMODE
 70
     2
  9
$LTSCALE
 40
3.0
  9
$OSMODE
 70
     1
  9
$ATTMODE
 70
     1
  9
$TEXTSIZE
 40
1.25
  9
$TRACEWID
 40
0.05
  9
$TEXTSTYLE
  7
TXT
  9
$CLAYER
  8
TEXT
  9
$CELTYPE
  6
BYLAYER
  9
$CECOLOR
 62
   256
  9
$DIMSCALE
 40
8.5
  9
$DIMASZ
 40
0.18
  9
$DIMEXO
 40
0.063
  9
$DIMDLI
 40
0.281
  9
$DIMRND
 40
0.0
  9
$DIMDLE
 40
0.0
  9
$DIMEXE
 40
0.093
  9
$DIMTP
 40
0.0
  9
$DIMTM
 40
0.0
  9
$DIMTXT
 40
0.125
  9
$DIMCEN
 40
0.09
  9
$DIMTSZ
 40
0.0
  9
$DIMTOL
 70
     0
  9
$DIMLIM
 70
     0
  9
$DIMTIH
 70
     1
  9
$DIMTOH
 70
     1
  9
$DIMSE1
 70
     0
  9
$DIMSE2
 70
     0
  9
$DIMTAD
 70
     0
  9
$DIMZIN
 70
     0
  9
$DIMBLK
  1

  9
$DIMASO
 70
     1
  9
$DIMSHO
 70
     1
  9
$DIMPOST
  1

  9
$DIMAPOST
  1

  9
$DIMALT
 70
     0
  9
$DIMALTD
 70
     2
  9
$DIMALTF
 40
25.4
  9
$DIMLFAC
 40
1.0
  9
$DIMTOFL
 70
     0
  9
$DIMTVP
 40
0.0
  9
$DIMTIX
 70
     0
  9
$DIMSOXD
 70
     0
  9
$DIMSAH
 70
     0
  9
$DIMBLK1
  1

  9
$DIMBLK2
  1

  9
$DIMSTYLE
  2
23NSTD
  9
$DIMCLRD
 70
     0
  9
$DIMCLRE
 70
     0
  9
$DIMCLRT
 70
     0
  9
$DIMTFAC
 40
1.0
  9
$DIMGAP
 40
0.09
  9
$LUNITS
 70
     2
  9
$LUPREC
 70
     3
  9
$SKETCHINC
 40
0.1
  9
$FILLETRAD
 40
0.0
  9
$AUNITS
 70
     0
  9
$AUPREC
 70
     0
  9
$MENU
  1
acad
  9
$ELEVATION
 40
0.0
  9
$PELEVATION
 40
0.0
  9
$THICKNESS
 40
0.0
  9
$LIMCHECK
 70
     0
  9
$BLIPMODE
 70
     1
  9
$CHAMFERA
 40
0.0
  9
$CHAMFERB
 40
0.0
  9
$SKPOLY
 70
     0
  9
$TDCREATE
 40
2450280.613811342
  9
$TDUPDATE
 40
2450695.581491782
  9
$TDINDWG
 40
0.2991149306
  9
$TDUSRTIMER
 40
0.2991149306
  9
$USRTIMER
 70
     1
  9
$ANGBASE
 50
0.0
  9
$ANGDIR
 70
     0
  9
$PDMODE
 70
     0
  9
$PDSIZE
 40
0.0
  9
$PLINEWID
 40
0.0
  9
$COORDS
 70
     0
  9
$SPLFRAME
 70
     0
  9
$SPLINETYPE
 70
     6
  9
$SPLINESEGS
 70
     8
  9
$ATTDIA
 70
     1
  9
$ATTREQ
 70
     1
  9
$HANDLING
 70
     0
  9
$HANDSEED
  5
0
  9
$SURFTAB1
 70
     6
  9
$SURFTAB2
 70
     6
  9
$SURFTYPE
 70
     6
  9
$SURFU
 70
     6
  9
$SURFV
 70
     6
  9
$UCSNAME
  2

  9
$UCSORG
 10
0.0
 20
0.0
 30
0.0
  9
$UCSXDIR
 10
1.0
 20
0.0
 30
0.0
  9
$UCSYDIR
 10
0.0
 20
1.0
 30
0.0
  9
$PUCSNAME
  2

  9
$PUCSORG
 10
0.0
 20
0.0
 30
0.0
  9
$PUCSXDIR
 10
1.0
 20
0.0
 30
0.0
  9
$PUCSYDIR
 10
0.0
 20
1.0
 30
0.0
  9
$USERI1
 70
     0
  9
$USERI2
 70
     0
  9
$USERI3
 70
     0
  9
$USERI4
 70
     0
  9
$USERI5
 70
     0
  9
$USERR1
 40
0.0
  9
$USERR2
 40
0.0
  9
$USERR3
 40
0.0
  9
$USERR4
 40
0.0
  9
$USERR5
 40
0.0
  9
$WORLDVIEW
 70
     1
  9
$SHADEDGE
 70
     3
  9
$SHADEDIF
 70
    70
  9
$TILEMODE
 70
     1
  9
$MAXACTVP
 70
    16
  9
$PINSBASE
 10
0.0
 20
0.0
 30
0.0
  9
$PLIMCHECK
 70
     0
  9
$PEXTMIN
 10
1.000000E+20
 20
1.000000E+20
 30
1.000000E+20
  9
$PEXTMAX
 10
-1.000000E+20
 20
-1.000000E+20
 30
-1.000000E+20
  9
$PLIMMIN
 10
0.0
 20
0.0
  9
$PLIMMAX
 10
12.0
 20
9.0
  9
$UNITMODE
 70
     0
  9
$VISRETAIN
 70
     0
  9
$PLINEGEN
 70
     0
  9
$PSLTSCALE
 70
     1
  9
$TREEDEPTH
 70
  3020
  9
$DWGCODEPAGE
  3
ascii
  0
ENDSEC
  0
SECTION
  2
TABLES
  0
TABLE
  2
VPORT
 70
     2
  0
VPORT
  2
*ACTIVE
 70
     0
 10
0.0
 20
0.0
 11
1.0
 21
1.0
 12
89.744116
 22
65.875
 13
0.0
 23
0.0
 14
1.0
 24
1.0
 15
0.0
 25
0.0
 16
0.0
 26
0.0
 36
1.0
 17
0.0
 27
0.0
 37
0.0
 40
131.75
 41
1.36234
 42
50.0
 43
0.0
 44
0.0
 50
0.0
 51
0.0
 71
     0
 72
   500
 73
     1
 74
     0
 75
     0
 76
     0
 77
     0
 78
     0
  0
ENDTAB
  0
TABLE
  2
LTYPE
 70
     4
  0
LTYPE
  2
CONTINUOUS
 70
    64
  3
Solid line
 72
    65
 73
     0
 40
0.0
  0
LTYPE
  2
HIDDEN
 70
    64
  3
_ _ _ _ _ _ _ _ _ _ _ _ _ _ _ _ _ _ _ _ _ _ _
 72
    65
 73
     2
 40
0.375
 49
0.25
 49
-0.125
  0
LTYPE
  2
PHANTOM
 70
    64
  3
_____ _ _ _____ _ _ _____ _ _ _____ _ _ ____
 72
    65
 73
     6
 40
2.5
 49
1.25
 49
-0.25
 49
0.25
 49
-0.25
 49
0.25
 49
-0.25
  0
LTYPE
  2
CENTER
 70
    64
  3
____ _ ____ _ ____ _ ____ _ ____ _ ____ _ ____
 72
    65
 73
     4
 40
2.0
 49
1.25
 49
-0.25
 49
0.25
 49
-0.25
  0
ENDTAB
  0
TABLE
  2
LAYER
 70
    12
  0
LAYER
  2
0
 70
    64
 62
     7
  6
CONTINUOUS
  0
LAYER
  2
OBJECT
 70
    64
 62
     7
  6
CONTINUOUS
  0
LAYER
  2
DIM
 70
    64
 62
     7
  6
CONTINUOUS
  0
LAYER
  2
HIDDEN
 70
    64
 62
     7
  6
HIDDEN
  0
LAYER
  2
BEND
 70
    64
 62
     7
  6
PHANTOM
  0
LAYER
  2
TEXT
 70
    64
 62
     7
  6
CONTINUOUS
  0
LAYER
  2
TITLE
 70
    64
 62
     7
  6
CONTINUOUS
  0
LAYER
  2
CENTER
 70
    64
 62
     7
  6
CENTER
  0
LAYER
  2
DEFPOINTS
 70
    64
 62
     7
  6
CONTINUOUS
  0
LAYER
  2
VCCOVER
 70
    64
 62
     7
  6
CONTINUOUS
  0
LAYER
  2
CRING
 70
    64
 62
     7
  6
CONTINUOUS
  0
LAYER
  2
CWRING
 70
    64
 62
     7
  6
CONTINUOUS
  0
ENDTAB
  0
TABLE
  2
STYLE
 70
     1
  0
STYLE
  2
TXT
 70
    64
 40
0.0
 41
0.75
 50
0.0
 71
     0
 42
1.25
  3
TXT.shx
  4

  0
ENDTAB
  0
TABLE
  2
VIEW
 70
     0
  0
ENDTAB
  0
TABLE
  2
UCS
 70
     0
  0
ENDTAB
  0
TABLE
  2
APPID
 70
     1
  0
APPID
  2
ACAD
 70
    64
  0
ENDTAB
  0
TABLE
  2
DIMSTYLE
 70
     2
  0
DIMSTYLE
  2
23NSTD
 70
    64
  3

  4

  5

  6

  7

 40
8.5
 41
0.18
 42
0.063
 43
0.281
 44
0.093
 45
0.0
 46
0.0
 47
0.0
 48
0.0
140
0.125
141
0.09
142
0.0
143
25.4
144
1.0
145
0.0
146
1.0
147
0.09
 71
     0
 72
     0
 73
     1
 74
     1
 75
     0
 76
     0
 77
     0
 78
     0
170
     0
171
     2
172
     0
173
     0
174
     0
175
     0
176
     0
177
     0
178
     0
  0
DIMSTYLE
  2
23NSTDI
 70
    64
  3

  4

  5

  6

  7

 40
8.5
 41
0.18
 42
0.063
 43
0.281
 44
0.093
 45
0.0
 46
0.0
 47
0.0
 48
0.0
140
0.125
141
0.09
142
0.0
143
25.4
144
1.0
145
0.0
146
1.0
147
0.09
 71
     0
 72
     0
 73
     1
 74
     1
 75
     0
 76
     0
 77
     0
 78
     0
170
     0
171
     2
172
     0
173
     0
174
     1
175
     0
176
     0
177
     0
178
     0
  0
ENDTAB
  0
ENDSEC
  0
SECTION
  2
BLOCKS
  0
BLOCK
  8
0
  2
HB
 70
    64
 10
0.0
 20
0.0
 30
0.0
  3
HB
  0
TEXT
  8
TEXT
 10
0.207833
 20
15.060079
 30
0.0
 40
0.125
  1
NAME
 72
     1
 11
0.437
 21
15.060079
 31
0.0
  0
TEXT
  8
TEXT
 10
0.207833
 20
15.268413
 30
0.0
 40
0.125
  1
PART
 72
     1
 11
0.437
 21
15.268413
 31
0.0
  0
TEXT
  8
TEXT
 10
5.372
 20
15.060079
 30
0.0
 40
0.125
  1
No.
 72
     1
 11
5.497
 21
15.060079
 31
0.0
  0
TEXT
  8
TEXT
 10
5.267833
 20
15.268413
 30
0.0
 40
0.125
  1
PART
 72
     1
 11
5.497
 21
15.268413
 31
0.0
  0
LINE
  8
TITLE
 10
5.872
 20
15.438
 30
0.0
 11
5.872
 21
15.02
 31
0.0
  0
LINE
  8
TITLE
 10
5.122
 20
15.438
 30
0.0
 11
5.122
 21
15.02
 31
0.0
  0
LINE
  8
TITLE
 10
5.06
 20
15.438
 30
0.0
 11
5.06
 21
15.02
 31
0.0
  0
LINE
  8
TITLE
 10
0.812
 20
15.02
 30
0.0
 11
0.812
 21
15.438
 31
0.0
  0
LINE
  8
TITLE
 10
0.062
 20
15.02
 30
0.0
 11
10.058
 21
15.02
 31
0.0
  0
LINE
  8
TITLE
 10
10.058
 20
0.062
 30
0.0
 11
0.062
 21
0.062
 31
0.0
  0
LINE
  8
TITLE
 10
10.058
 20
15.438
 30
0.0
 11
10.058
 21
0.062
 31
0.0
  0
LINE
  8
TITLE
 10
0.062
 20
15.438
 30
0.0
 11
10.058
 21
15.438
 31
0.0
  0
LINE
  8
TITLE
 10
0.062
 20
0.062
 30
0.0
 11
0.062
 21
15.438
 31
0.0
  0
LINE
  8
TITLE
 10
0.0
 20
0.0
 30
0.0
 11
0.0
 21
15.5
 31
0.0
  0
LINE
  8
TITLE
 10
10.12
 20
0.0
 30
0.0
 11
0.0
 21
0.0
 31
0.0
  0
LINE
  8
TITLE
 10
10.12
 20
15.5
 30
0.0
 11
10.12
 21
0.0
 31
0.0
  0
LINE
  8
TITLE
 10
0.0
 20
15.5
 30
0.0
 11
10.12
 21
15.5
 31
0.0
  0
ENDBLK
  8
0
  0
BLOCK
  8
0
  2
*D1
 70
    65
 10
0.0
 20
0.0
 30
0.0
  3
*D
  0
LINE
  8
0
  6
BYBLOCK
 62
     0
 10
52.560165
 20
59.380382
 30
0.0
 11
52.560165
 21
56.376297
 31
0.0
  0
LINE
  8
0
  6
BYBLOCK
 62
     0
 10
70.872165
 20
59.380382
 30
0.0
 11
70.872165
 21
56.376297
 31
0.0
  0
LINE
  8
0
  6
BYBLOCK
 62
     0
 10
54.090165
 20
57.166797
 30
0.0
 11
59.224602
 21
57.166797
 31
0.0
  0
LINE
  8
0
  6
BYBLOCK
 62
     0
 10
69.342165
 20
57.166797
 30
0.0
 11
64.207727
 21
57.166797
 31
0.0
  0
SOLID
  8
0
  6
BYBLOCK
 62
     0
 10
54.090165
 20
57.421797
 30
0.0
 11
54.090165
 21
56.911797
 31
0.0
 12
52.560165
 22
57.166797
 32
0.0
 13
52.560165
 23
57.166797
 33
0.0
  0
SOLID
  8
0
  6
BYBLOCK
 62
     0
 10
69.342165
 20
57.421797
 30
0.0
 11
69.342165
 21
56.911797
 31
0.0
 12
70.872165
 22
57.166797
 32
0.0
 13
70.872165
 23
57.166797
 33
0.0
  0
TEXT
  8
0
  6
BYBLOCK
 62
     0
 10
59.989602
 20
56.635547
 30
0.0
 40
1.0625
  1
18.312
 41
0.75
 72
     1
 11
61.716165
 21
57.166797
 31
0.0
 73
     2
  0
POINT
  8
DEFPOINTS
  6
BYBLOCK
 62
     0
 10
52.560165
 20
59.915882
 30
0.0
  0
POINT
  8
DEFPOINTS
  6
BYBLOCK
 62
     0
 10
70.872165
 20
59.915882
 30
0.0
  0
POINT
  8
DEFPOINTS
  6
BYBLOCK
 62
     0
 10
70.872165
 20
57.166797
 30
0.0
  0
ENDBLK
  8
0
  0
BLOCK
  8
0
  2
*D2
 70
    65
 10
0.0
 20
0.0
 30
0.0
  3
*D
  0
LINE
  8
0
  6
BYBLOCK
 62
     0
 10
70.592165
 20
63.338418
 30
0.0
 11
70.592165
 21
62.646576
 31
0.0
  0
LINE
  8
0
  6
BYBLOCK
 62
     0
 10
52.840165
 20
63.338418
 30
0.0
 11
52.840165
 21
62.646576
 31
0.0
  0
LINE
  8
0
  6
BYBLOCK
 62
     0
 10
69.062165
 20
63.437076
 30
0.0
 11
64.34054
 21
63.437076
 31
0.0
  0
LINE
  8
0
  6
BYBLOCK
 62
     0
 10
54.370165
 20
63.437076
 30
0.0
 11
59.09179
 21
63.437076
 31
0.0
  0
SOLID
  8
0
  6
BYBLOCK
 62
     0
 10
69.062165
 20
63.692076
 30
0.0
 11
69.062165
 21
63.182076
 31
0.0
 12
70.592165
 22
63.437076
 32
0.0
 13
70.592165
 23
63.437076
 33
0.0
  0
SOLID
  8
0
  6
BYBLOCK
 62
     0
 10
54.370165
 20
63.692076
 30
0.0
 11
54.370165
 21
63.182076
 31
0.0
 12
52.840165
 22
63.437076
 32
0.0
 13
52.840165
 23
63.437076
 33
0.0
  0
TEXT
  8
0
  6
BYBLOCK
 62
     0
 10
59.85679
 20
62.905826
 30
0.0
 40
1.0625
  1
17.752
 41
0.75
 72
     1
 11
61.716165
 21
63.437076
 31
0.0
 73
     2
  0
POINT
  8
DEFPOINTS
  6
BYBLOCK
 62
     0
 10
70.592165
 20
63.873918
 30
0.0
  0
POINT
  8
DEFPOINTS
  6
BYBLOCK
 62
     0
 10
52.840165
 20
63.873918
 30
0.0
  0
POINT
  8
DEFPOINTS
  6
BYBLOCK
 62
     0
 10
52.840165
 20
63.437076
 30
0.0
  0
ENDBLK
  8
0
  0
BLOCK
  8
0
  2
*D3
 70
    65
 10
0.0
 20
0.0
 30
0.0
  3
*D
  0
LINE
  8
0
  6
BYBLOCK
 62
     0
 10
53.095665
 20
86.915882
 30
0.0
 11
58.395867
 21
86.915882
 31
0.0
  0
LINE
  8
0
  6
BYBLOCK
 62
     0
 10
53.095665
 20
9.915882
 30
0.0
 11
58.395867
 21
9.915882
 31
0.0
  0
LINE
  8
0
  6
BYBLOCK
 62
     0
 10
57.605367
 20
85.385882
 30
0.0
 11
57.605367
 21
49.712132
 31
0.0
  0
LINE
  8
0
  6
BYBLOCK
 62
     0
 10
57.605367
 20
11.445882
 30
0.0
 11
57.605367
 21
47.119632
 31
0.0
  0
SOLID
  8
0
  6
BYBLOCK
 62
     0
 10
57.350367
 20
85.385882
 30
0.0
 11
57.860367
 21
85.385882
 31
0.0
 12
57.605367
 22
86.915882
 32
0.0
 13
57.605367
 23
86.915882
 33
0.0
  0
SOLID
  8
0
  6
BYBLOCK
 62
     0
 10
57.350367
 20
11.445882
 30
0.0
 11
57.860367
 21
11.445882
 31
0.0
 12
57.605367
 22
9.915882
 32
0.0
 13
57.605367
 23
9.915882
 33
0.0
  0
TEXT
  8
0
  6
BYBLOCK
 62
     0
 10
58.203023
 20
47.884632
 30
0.0
 40
1.0625
  1
 P.S.
 41
0.75
 72
     1
 11
59.531148
 21
48.415882
 31
0.0
 73
     2
  0
TEXT
  8
0
  6
BYBLOCK
 62
     0
 10
54.351461
 20
47.884632
 30
0.0
 40
1.0625
  1
77.000
 41
0.75
 72
     1
 11
56.14443
 21
48.415882
 31
0.0
 73
     2
  0
POINT
  8
DEFPOINTS
  6
BYBLOCK
 62
     0
 10
52.560165
 20
86.915882
 30
0.0
  0
POINT
  8
DEFPOINTS
  6
BYBLOCK
 62
     0
 10
52.560165
 20
9.915882
 30
0.0
  0
POINT
  8
DEFPOINTS
  6
BYBLOCK
 62
     0
 10
57.605367
 20
9.915882
 30
0.0
  0
ENDBLK
  8
0
  0
BLOCK
  8
0
  2
*D4
 70
    65
 10
0.0
 20
0.0
 30
0.0
  3
*D
  0
LINE
  8
0
  6
BYBLOCK
 62
     0
 10
53.095665
 20
86.915882
 30
0.0
 11
58.395867
 21
86.915882
 31
0.0
  0
LINE
  8
0
  6
BYBLOCK
 62
     0
 10
57.821114
 20
89.353882
 30
0.0
 11
58.395867
 21
89.353882
 31
0.0
  0
LINE
  8
0
  6
BYBLOCK
 62
     0
 10
57.605367
 20
85.385882
 30
0.0
 11
57.605367
 21
83.855882
 31
0.0
  0
LINE
  8
0
  6
BYBLOCK
 62
     0
 10
57.605367
 20
90.883882
 30
0.0
 11
57.605367
 21
92.413882
 31
0.0
  0
LINE
  8
0
  6
BYBLOCK
 62
     0
 10
57.605367
 20
92.413882
 30
0.0
 11
59.135367
 21
92.413882
 31
0.0
  0
SOLID
  8
0
  6
BYBLOCK
 62
     0
 10
57.350367
 20
85.385882
 30
0.0
 11
57.860367
 21
85.385882
 31
0.0
 12
57.605367
 22
86.915882
 32
0.0
 13
57.605367
 23
86.915882
 33
0.0
  0
SOLID
  8
0
  6
BYBLOCK
 62
     0
 10
57.350367
 20
90.883882
 30
0.0
 11
57.860367
 21
90.883882
 31
0.0
 12
57.605367
 22
89.353882
 32
0.0
 13
57.605367
 23
89.353882
 33
0.0
  0
TEXT
  8
0
  6
BYBLOCK
 62
     0
 10
59.900367
 20
91.882632
 30
0.0
 40
1.0625
  1
2.438
 41
0.75
 72
     1
 11
61.494117
 21
92.413882
 31
0.0
 73
     2
  0
POINT
  8
DEFPOINTS
  6
BYBLOCK
 62
     0
 10
52.560165
 20
86.915882
 30
0.0
  0
POINT
  8
DEFPOINTS
  6
BYBLOCK
 62
     0
 10
57.285614
 20
89.353882
 30
0.0
  0
POINT
  8
DEFPOINTS
  6
BYBLOCK
 62
     0
 10
57.605367
 20
89.353882
 30
0.0
  0
ENDBLK
  8
0
  0
BLOCK
  8
0
  2
*D5
 70
    65
 10
0.0
 20
0.0
 30
0.0
  3
*D
  0
LINE
  8
0
  6
BYBLOCK
 62
     0
 10
53.180665
 20
113.526806
 30
0.0
 11
45.261169
 21
113.526806
 31
0.0
  0
LINE
  8
0
  6
BYBLOCK
 62
     0
 10
53.180665
 20
101.026806
 30
0.0
 11
45.261169
 21
101.026806
 31
0.0
  0
LINE
  8
0
  6
BYBLOCK
 62
     0
 10
46.051669
 20
111.996806
 30
0.0
 11
46.051669
 21
108.573056
 31
0.0
  0
LINE
  8
0
  6
BYBLOCK
 62
     0
 10
46.051669
 20
102.556806
 30
0.0
 11
46.051669
 21
105.980556
 31
0.0
  0
SOLID
  8
0
  6
BYBLOCK
 62
     0
 10
45.796669
 20
111.996806
 30
0.0
 11
46.306669
 21
111.996806
 31
0.0
 12
46.051669
 22
113.526806
 32
0.0
 13
46.051669
 23
113.526806
 33
0.0
  0
SOLID
  8
0
  6
BYBLOCK
 62
     0
 10
45.796669
 20
102.556806
 30
0.0
 11
46.306669
 21
102.556806
 31
0.0
 12
46.051669
 22
101.026806
 32
0.0
 13
46.051669
 23
101.026806
 33
0.0
  0
TEXT
  8
0
  6
BYBLOCK
 62
     0
 10
44.325107
 20
106.745556
 30
0.0
 40
1.0625
  1
12.500
 41
0.75
 72
     1
 11
46.051669
 21
107.276806
 31
0.0
 73
     2
  0
POINT
  8
DEFPOINTS
  6
BYBLOCK
 62
     0
 10
53.716165
 20
113.526806
 30
0.0
  0
POINT
  8
DEFPOINTS
  6
BYBLOCK
 62
     0
 10
53.716165
 20
101.026806
 30
0.0
  0
POINT
  8
DEFPOINTS
  6
BYBLOCK
 62
     0
 10
46.051669
 20
101.026806
 30
0.0
  0
ENDBLK
  8
0
  0
BLOCK
  8
0
  2
*D6
 70
    65
 10
0.0
 20
0.0
 30
0.0
  3
*D
  0
LINE
  8
0
  6
BYBLOCK
 62
     0
 10
72.376665
 20
99.776806
 30
0.0
 11
78.915161
 21
99.776806
 31
0.0
  0
LINE
  8
0
  6
BYBLOCK
 62
     0
 10
72.376665
 20
114.776806
 30
0.0
 11
78.915161
 21
114.776806
 31
0.0
  0
LINE
  8
0
  6
BYBLOCK
 62
     0
 10
78.124661
 20
101.306806
 30
0.0
 11
78.124661
 21
105.980556
 31
0.0
  0
LINE
  8
0
  6
BYBLOCK
 62
     0
 10
78.124661
 20
113.246806
 30
0.0
 11
78.124661
 21
108.573056
 31
0.0
  0
SOLID
  8
0
  6
BYBLOCK
 62
     0
 10
77.869661
 20
101.306806
 30
0.0
 11
78.379661
 21
101.306806
 31
0.0
 12
78.124661
 22
99.776806
 32
0.0
 13
78.124661
 23
99.776806
 33
0.0
  0
SOLID
  8
0
  6
BYBLOCK
 62
     0
 10
77.869661
 20
113.246806
 30
0.0
 11
78.379661
 21
113.246806
 31
0.0
 12
78.124661
 22
114.776806
 32
0.0
 13
78.124661
 23
114.776806
 33
0.0
  0
TEXT
  8
0
  6
BYBLOCK
 62
     0
 10
76.464504
 20
106.745556
 30
0.0
 40
1.0625
  1
15.000
 41
0.75
 72
     1
 11
78.124661
 21
107.276806
 31
0.0
 73
     2
  0
POINT
  8
DEFPOINTS
  6
BYBLOCK
 62
     0
 10
71.841165
 20
99.776806
 30
0.0
  0
POINT
  8
DEFPOINTS
  6
BYBLOCK
 62
     0
 10
71.841165
 20
114.776806
 30
0.0
  0
POINT
  8
DEFPOINTS
  6
BYBLOCK
 62
     0
 10
78.124661
 20
114.776806
 30
0.0
  0
ENDBLK
  8
0
  0
BLOCK
  8
0
  2
*D7
 70
    65
 10
0.0
 20
0.0
 30
0.0
  3
*D
  0
LINE
  8
0
  6
BYBLOCK
 62
     0
 10
31.499566
 20
89.889382
 30
0.0
 11
31.499566
 21
96.739008
 31
0.0
  0
LINE
  8
0
  6
BYBLOCK
 62
     0
 10
34.499566
 20
89.889382
 30
0.0
 11
34.499566
 21
96.739008
 31
0.0
  0
LINE
  8
0
  6
BYBLOCK
 62
     0
 10
29.969566
 20
95.948508
 30
0.0
 11
28.439566
 21
95.948508
 31
0.0
  0
LINE
  8
0
  6
BYBLOCK
 62
     0
 10
36.029566
 20
95.948508
 30
0.0
 11
37.559566
 21
95.948508
 31
0.0
  0
SOLID
  8
0
  6
BYBLOCK
 62
     0
 10
29.969566
 20
96.203508
 30
0.0
 11
29.969566
 21
95.693508
 31
0.0
 12
31.499566
 22
95.948508
 32
0.0
 13
31.499566
 23
95.948508
 33
0.0
  0
SOLID
  8
0
  6
BYBLOCK
 62
     0
 10
36.029566
 20
96.203508
 30
0.0
 11
36.029566
 21
95.693508
 31
0.0
 12
34.499566
 22
95.948508
 32
0.0
 13
34.499566
 23
95.948508
 33
0.0
  0
TEXT
  8
0
  6
BYBLOCK
 62
     0
 10
38.324566
 20
95.417258
 30
0.0
 40
1.0625
  1
3.000
 41
0.75
 72
     1
 11
39.719098
 21
95.948508
 31
0.0
 73
     2
  0
POINT
  8
DEFPOINTS
  6
BYBLOCK
 62
     0
 10
31.499566
 20
89.353882
 30
0.0
  0
POINT
  8
DEFPOINTS
  6
BYBLOCK
 62
     0
 10
34.499566
 20
89.353882
 30
0.0
  0
POINT
  8
DEFPOINTS
  6
BYBLOCK
 62
     0
 10
34.499566
 20
95.948508
 30
0.0
  0
ENDBLK
  8
0
  0
BLOCK
  8
0
  2
*D8
 70
    65
 10
0.0
 20
0.0
 30
0.0
  3
*D
  0
LINE
  8
0
  6
BYBLOCK
 62
     0
 10
53.180665
 20
113.526806
 30
0.0
 11
45.261169
 21
113.526806
 31
0.0
  0
LINE
  8
0
  6
BYBLOCK
 62
     0
 10
51.055665
 20
114.776806
 30
0.0
 11
45.261169
 21
114.776806
 31
0.0
  0
LINE
  8
0
  6
BYBLOCK
 62
     0
 10
46.051669
 20
111.996806
 30
0.0
 11
46.051669
 21
110.466806
 31
0.0
  0
LINE
  8
0
  6
BYBLOCK
 62
     0
 10
46.051669
 20
116.306806
 30
0.0
 11
46.051669
 21
117.836806
 31
0.0
  0
LINE
  8
0
  6
BYBLOCK
 62
     0
 10
46.051669
 20
117.836806
 30
0.0
 11
47.581669
 21
117.836806
 31
0.0
  0
SOLID
  8
0
  6
BYBLOCK
 62
     0
 10
45.796669
 20
111.996806
 30
0.0
 11
46.306669
 21
111.996806
 31
0.0
 12
46.051669
 22
113.526806
 32
0.0
 13
46.051669
 23
113.526806
 33
0.0
  0
SOLID
  8
0
  6
BYBLOCK
 62
     0
 10
45.796669
 20
116.306806
 30
0.0
 11
46.306669
 21
116.306806
 31
0.0
 12
46.051669
 22
114.776806
 32
0.0
 13
46.051669
 23
114.776806
 33
0.0
  0
TEXT
  8
0
  6
BYBLOCK
 62
     0
 10
48.346669
 20
117.305556
 30
0.0
 40
1.0625
  1
1.250
 41
0.75
 72
     1
 11
49.7412
 21
117.836806
 31
0.0
 73
     2
  0
POINT
  8
DEFPOINTS
  6
BYBLOCK
 62
     0
 10
53.716165
 20
113.526806
 30
0.0
  0
POINT
  8
DEFPOINTS
  6
BYBLOCK
 62
     0
 10
51.591165
 20
114.776806
 30
0.0
  0
POINT
  8
DEFPOINTS
  6
BYBLOCK
 62
     0
 10
46.051669
 20
114.776806
 30
0.0
  0
ENDBLK
  8
0
  0
BLOCK
  8
0
  2
*D9
 70
    65
 10
0.0
 20
0.0
 30
0.0
  3
*D
  0
LINE
  8
0
  6
BYBLOCK
 62
     0
 10
55.762583
 20
100.491306
 30
0.0
 11
55.762583
 21
96.574651
 31
0.0
  0
LINE
  8
0
  6
BYBLOCK
 62
     0
 10
71.762583
 20
100.491306
 30
0.0
 11
71.762583
 21
96.574651
 31
0.0
  0
LINE
  8
0
  6
BYBLOCK
 62
     0
 10
57.292583
 20
97.365151
 30
0.0
 11
61.337426
 21
97.365151
 31
0.0
  0
LINE
  8
0
  6
BYBLOCK
 62
     0
 10
70.232583
 20
97.365151
 30
0.0
 11
66.187739
 21
97.365151
 31
0.0
  0
SOLID
  8
0
  6
BYBLOCK
 62
     0
 10
57.292583
 20
97.620151
 30
0.0
 11
57.292583
 21
97.110151
 31
0.0
 12
55.762583
 22
97.365151
 32
0.0
 13
55.762583
 23
97.365151
 33
0.0
  0
SOLID
  8
0
  6
BYBLOCK
 62
     0
 10
70.232583
 20
97.620151
 30
0.0
 11
70.232583
 21
97.110151
 31
0.0
 12
71.762583
 22
97.365151
 32
0.0
 13
71.762583
 23
97.365151
 33
0.0
  0
TEXT
  8
0
  6
BYBLOCK
 62
     0
 10
62.102426
 20
96.833901
 30
0.0
 40
1.0625
  1
16.000
 41
0.75
 72
     1
 11
63.762583
 21
97.365151
 31
0.0
 73
     2
  0
POINT
  8
DEFPOINTS
  6
BYBLOCK
 62
     0
 10
55.762583
 20
101.026806
 30
0.0
  0
POINT
  8
DEFPOINTS
  6
BYBLOCK
 62
     0
 10
71.762583
 20
101.026806
 30
0.0
  0
POINT
  8
DEFPOINTS
  6
BYBLOCK
 62
     0
 10
71.762583
 20
97.365151
 30
0.0
  0
ENDBLK
  8
0
  0
BLOCK
  8
0
  2
*D10
 70
    65
 10
0.0
 20
0.0
 30
0.0
  3
*D
  0
LINE
  8
0
  6
BYBLOCK
 62
     0
 10
71.762583
 20
100.491306
 30
0.0
 11
71.762583
 21
96.574651
 31
0.0
  0
LINE
  8
0
  6
BYBLOCK
 62
     0
 10
73.887583
 20
99.241306
 30
0.0
 11
73.887583
 21
96.574651
 31
0.0
  0
LINE
  8
0
  6
BYBLOCK
 62
     0
 10
70.232583
 20
97.365151
 30
0.0
 11
68.702583
 21
97.365151
 31
0.0
  0
LINE
  8
0
  6
BYBLOCK
 62
     0
 10
75.417583
 20
97.365151
 30
0.0
 11
76.947583
 21
97.365151
 31
0.0
  0
SOLID
  8
0
  6
BYBLOCK
 62
     0
 10
70.232583
 20
97.620151
 30
0.0
 11
70.232583
 21
97.110151
 31
0.0
 12
71.762583
 22
97.365151
 32
0.0
 13
71.762583
 23
97.365151
 33
0.0
  0
SOLID
  8
0
  6
BYBLOCK
 62
     0
 10
75.417583
 20
97.620151
 30
0.0
 11
75.417583
 21
97.110151
 31
0.0
 12
73.887583
 22
97.365151
 32
0.0
 13
73.887583
 23
97.365151
 33
0.0
  0
TEXT
  8
0
  6
BYBLOCK
 62
     0
 10
77.712583
 20
96.833901
 30
0.0
 40
1.0625
  1
2.125
 41
0.75
 72
     1
 11
79.17352
 21
97.365151
 31
0.0
 73
     2
  0
POINT
  8
DEFPOINTS
  6
BYBLOCK
 62
     0
 10
71.762583
 20
101.026806
 30
0.0
  0
POINT
  8
DEFPOINTS
  6
BYBLOCK
 62
     0
 10
73.887583
 20
99.776806
 30
0.0
  0
POINT
  8
DEFPOINTS
  6
BYBLOCK
 62
     0
 10
73.887583
 20
97.365151
 30
0.0
  0
ENDBLK
  8
0
  0
BLOCK
  8
0
  2
*D11
 70
    65
 10
0.0
 20
0.0
 30
0.0
  3
*D
  0
LINE
  8
0
  6
BYBLOCK
 62
     0
 10
53.637583
 20
99.241306
 30
0.0
 11
53.637583
 21
94.186151
 31
0.0
  0
LINE
  8
0
  6
BYBLOCK
 62
     0
 10
73.887583
 20
99.241306
 30
0.0
 11
73.887583
 21
94.186151
 31
0.0
  0
LINE
  8
0
  6
BYBLOCK
 62
     0
 10
55.167583
 20
94.976651
 30
0.0
 11
61.138208
 21
94.976651
 31
0.0
  0
LINE
  8
0
  6
BYBLOCK
 62
     0
 10
72.357583
 20
94.976651
 30
0.0
 11
66.386958
 21
94.976651
 31
0.0
  0
SOLID
  8
0
  6
BYBLOCK
 62
     0
 10
55.167583
 20
95.231651
 30
0.0
 11
55.167583
 21
94.721651
 31
0.0
 12
53.637583
 22
94.976651
 32
0.0
 13
53.637583
 23
94.976651
 33
0.0
  0
SOLID
  8
0
  6
BYBLOCK
 62
     0
 10
72.357583
 20
95.231651
 30
0.0
 11
72.357583
 21
94.721651
 31
0.0
 12
73.887583
 22
94.976651
 32
0.0
 13
73.887583
 23
94.976651
 33
0.0
  0
TEXT
  8
0
  6
BYBLOCK
 62
     0
 10
61.903208
 20
94.445401
 30
0.0
 40
1.0625
  1
20.250
 41
0.75
 72
     1
 11
63.762583
 21
94.976651
 31
0.0
 73
     2
  0
POINT
  8
DEFPOINTS
  6
BYBLOCK
 62
     0
 10
53.637583
 20
99.776806
 30
0.0
  0
POINT
  8
DEFPOINTS
  6
BYBLOCK
 62
     0
 10
73.887583
 20
99.776806
 30
0.0
  0
POINT
  8
DEFPOINTS
  6
BYBLOCK
 62
     0
 10
73.887583
 20
94.976651
 30
0.0
  0
ENDBLK
  8
0
  0
BLOCK
  8
0
  2
*D12
 70
    65
 10
0.0
 20
0.0
 30
0.0
  3
*D
  0
LINE
  8
0
  6
BYBLOCK
 62
     0
 10
32.255899
 20
8.233423
 30
0.0
 11
42.777741
 21
8.233423
 31
0.0
  0
LINE
  8
0
  6
BYBLOCK
 62
     0
 10
38.255899
 20
4.733423
 30
0.0
 11
42.777741
 21
4.733423
 31
0.0
  0
LINE
  8
0
  6
BYBLOCK
 62
     0
 10
41.987241
 20
9.763423
 30
0.0
 11
41.987241
 21
11.293423
 31
0.0
  0
LINE
  8
0
  6
BYBLOCK
 62
     0
 10
41.987241
 20
3.203423
 30
0.0
 11
41.987241
 21
1.673423
 31
0.0
  0
SOLID
  8
0
  6
BYBLOCK
 62
     0
 10
41.732241
 20
9.763423
 30
0.0
 11
42.242241
 21
9.763423
 31
0.0
 12
41.987241
 22
8.233423
 32
0.0
 13
41.987241
 23
8.233423
 33
0.0
  0
SOLID
  8
0
  6
BYBLOCK
 62
     0
 10
41.732241
 20
3.203423
 30
0.0
 11
42.242241
 21
3.203423
 31
0.0
 12
41.987241
 22
4.733423
 32
0.0
 13
41.987241
 23
4.733423
 33
0.0
  0
TEXT
  8
0
  6
BYBLOCK
 62
     0
 10
40.526304
 20
5.952173
 30
0.0
 40
1.0625
  1
3.500
 41
0.75
 72
     1
 11
41.987241
 21
6.483423
 31
0.0
 73
     2
  0
POINT
  8
DEFPOINTS
  6
BYBLOCK
 62
     0
 10
31.720399
 20
8.233423
 30
0.0
  0
POINT
  8
DEFPOINTS
  6
BYBLOCK
 62
     0
 10
37.720399
 20
4.733423
 30
0.0
  0
POINT
  8
DEFPOINTS
  6
BYBLOCK
 62
     0
 10
41.987241
 20
4.733423
 30
0.0
  0
ENDBLK
  8
0
  0
BLOCK
  8
0
  2
*D13
 70
    65
 10
0.0
 20
0.0
 30
0.0
  3
*D
  0
LINE
  8
0
  6
BYBLOCK
 62
     0
 10
80.191428
 20
5.233423
 30
0.0
 11
86.431278
 21
5.233423
 31
0.0
  0
LINE
  8
0
  6
BYBLOCK
 62
     0
 10
80.191428
 20
88.233423
 30
0.0
 11
86.431278
 21
88.233423
 31
0.0
  0
LINE
  8
0
  6
BYBLOCK
 62
     0
 10
85.640778
 20
6.763423
 30
0.0
 11
85.640778
 21
48.54016
 31
0.0
  0
LINE
  8
0
  6
BYBLOCK
 62
     0
 10
85.640778
 20
86.703423
 30
0.0
 11
85.640778
 21
51.13266
 31
0.0
  0
SOLID
  8
0
  6
BYBLOCK
 62
     0
 10
85.385778
 20
6.763423
 30
0.0
 11
85.895778
 21
6.763423
 31
0.0
 12
85.640778
 22
5.233423
 32
0.0
 13
85.640778
 23
5.233423
 33
0.0
  0
SOLID
  8
0
  6
BYBLOCK
 62
     0
 10
85.385778
 20
86.703423
 30
0.0
 11
85.895778
 21
86.703423
 31
0.0
 12
85.640778
 22
88.233423
 32
0.0
 13
85.640778
 23
88.233423
 33
0.0
  0
TEXT
  8
0
  6
BYBLOCK
 62
     0
 10
83.847809
 20
49.30516
 30
0.0
 40
1.0625
  1
83.000
 41
0.75
 72
     1
 11
85.640778
 21
49.83641
 31
0.0
 73
     2
  0
POINT
  8
DEFPOINTS
  6
BYBLOCK
 62
     0
 10
79.655928
 20
5.233423
 30
0.0
  0
POINT
  8
DEFPOINTS
  6
BYBLOCK
 62
     0
 10
79.655928
 20
88.233423
 30
0.0
  0
POINT
  8
DEFPOINTS
  6
BYBLOCK
 62
     0
 10
85.640778
 20
88.233423
 30
0.0
  0
ENDBLK
  8
0
  0
BLOCK
  8
0
  2
*D14
 70
    65
 10
0.0
 20
0.0
 30
0.0
  3
*D
  0
LINE
  8
0
  6
BYBLOCK
 62
     0
 10
79.629428
 20
76.733423
 30
0.0
 11
83.374848
 21
76.733423
 31
0.0
  0
LINE
  8
0
  6
BYBLOCK
 62
     0
 10
79.629428
 20
64.733423
 30
0.0
 11
83.374848
 21
64.733423
 31
0.0
  0
LINE
  8
0
  6
BYBLOCK
 62
     0
 10
82.584348
 20
75.203423
 30
0.0
 11
82.584348
 21
72.029673
 31
0.0
  0
LINE
  8
0
  6
BYBLOCK
 62
     0
 10
82.584348
 20
66.263423
 30
0.0
 11
82.584348
 21
69.437173
 31
0.0
  0
SOLID
  8
0
  6
BYBLOCK
 62
     0
 10
82.329348
 20
75.203423
 30
0.0
 11
82.839348
 21
75.203423
 31
0.0
 12
82.584348
 22
76.733423
 32
0.0
 13
82.584348
 23
76.733423
 33
0.0
  0
SOLID
  8
0
  6
BYBLOCK
 62
     0
 10
82.329348
 20
66.263423
 30
0.0
 11
82.839348
 21
66.263423
 31
0.0
 12
82.584348
 22
64.733423
 32
0.0
 13
82.584348
 23
64.733423
 33
0.0
  0
TEXT
  8
0
  6
BYBLOCK
 62
     0
 10
80.924192
 20
70.202173
 30
0.0
 40
1.0625
  1
12.000
 41
0.75
 72
     1
 11
82.584348
 21
70.733423
 31
0.0
 73
     2
  0
POINT
  8
DEFPOINTS
  6
BYBLOCK
 62
     0
 10
79.093928
 20
76.733423
 30
0.0
  0
POINT
  8
DEFPOINTS
  6
BYBLOCK
 62
     0
 10
79.093928
 20
64.733423
 30
0.0
  0
POINT
  8
DEFPOINTS
  6
BYBLOCK
 62
     0
 10
82.584348
 20
64.733423
 30
0.0
  0
ENDBLK
  8
0
  0
BLOCK
  8
0
  2
*D15
 70
    65
 10
0.0
 20
0.0
 30
0.0
  3
*D
  0
LINE
  8
0
  6
BYBLOCK
 62
     0
 10
79.629428
 20
28.733423
 30
0.0
 11
83.374848
 21
28.733423
 31
0.0
  0
LINE
  8
0
  6
BYBLOCK
 62
     0
 10
79.629428
 20
16.733423
 30
0.0
 11
83.374848
 21
16.733423
 31
0.0
  0
LINE
  8
0
  6
BYBLOCK
 62
     0
 10
82.584348
 20
27.203423
 30
0.0
 11
82.584348
 21
24.029673
 31
0.0
  0
LINE
  8
0
  6
BYBLOCK
 62
     0
 10
82.584348
 20
18.263423
 30
0.0
 11
82.584348
 21
21.437173
 31
0.0
  0
SOLID
  8
0
  6
BYBLOCK
 62
     0
 10
82.329348
 20
27.203423
 30
0.0
 11
82.839348
 21
27.203423
 31
0.0
 12
82.584348
 22
28.733423
 32
0.0
 13
82.584348
 23
28.733423
 33
0.0
  0
SOLID
  8
0
  6
BYBLOCK
 62
     0
 10
82.329348
 20
18.263423
 30
0.0
 11
82.839348
 21
18.263423
 31
0.0
 12
82.584348
 22
16.733423
 32
0.0
 13
82.584348
 23
16.733423
 33
0.0
  0
TEXT
  8
0
  6
BYBLOCK
 62
     0
 10
80.924192
 20
22.202173
 30
0.0
 40
1.0625
  1
12.000
 41
0.75
 72
     1
 11
82.584348
 21
22.733423
 31
0.0
 73
     2
  0
POINT
  8
DEFPOINTS
  6
BYBLOCK
 62
     0
 10
79.093928
 20
28.733423
 30
0.0
  0
POINT
  8
DEFPOINTS
  6
BYBLOCK
 62
     0
 10
79.093928
 20
16.733423
 30
0.0
  0
POINT
  8
DEFPOINTS
  6
BYBLOCK
 62
     0
 10
82.584348
 20
16.733423
 30
0.0
  0
ENDBLK
  8
0
  0
BLOCK
  8
0
  2
*D16
 70
    65
 10
0.0
 20
0.0
 30
0.0
  3
*D
  0
LINE
  8
0
  6
BYBLOCK
 62
     0
 10
79.629428
 20
52.733423
 30
0.0
 11
83.374848
 21
52.733423
 31
0.0
  0
LINE
  8
0
  6
BYBLOCK
 62
     0
 10
79.629428
 20
40.733423
 30
0.0
 11
83.374848
 21
40.733423
 31
0.0
  0
LINE
  8
0
  6
BYBLOCK
 62
     0
 10
82.584348
 20
51.203423
 30
0.0
 11
82.584348
 21
48.029673
 31
0.0
  0
LINE
  8
0
  6
BYBLOCK
 62
     0
 10
82.584348
 20
42.263423
 30
0.0
 11
82.584348
 21
45.437173
 31
0.0
  0
SOLID
  8
0
  6
BYBLOCK
 62
     0
 10
82.329348
 20
51.203423
 30
0.0
 11
82.839348
 21
51.203423
 31
0.0
 12
82.584348
 22
52.733423
 32
0.0
 13
82.584348
 23
52.733423
 33
0.0
  0
SOLID
  8
0
  6
BYBLOCK
 62
     0
 10
82.329348
 20
42.263423
 30
0.0
 11
82.839348
 21
42.263423
 31
0.0
 12
82.584348
 22
40.733423
 32
0.0
 13
82.584348
 23
40.733423
 33
0.0
  0
TEXT
  8
0
  6
BYBLOCK
 62
     0
 10
80.924192
 20
46.202173
 30
0.0
 40
1.0625
  1
12.000
 41
0.75
 72
     1
 11
82.584348
 21
46.733423
 31
0.0
 73
     2
  0
POINT
  8
DEFPOINTS
  6
BYBLOCK
 62
     0
 10
79.093928
 20
52.733423
 30
0.0
  0
POINT
  8
DEFPOINTS
  6
BYBLOCK
 62
     0
 10
79.093928
 20
40.733423
 30
0.0
  0
POINT
  8
DEFPOINTS
  6
BYBLOCK
 62
     0
 10
82.584348
 20
40.733423
 30
0.0
  0
ENDBLK
  8
0
  0
BLOCK
  8
0
  2
*D17
 70
    65
 10
0.0
 20
0.0
 30
0.0
  3
*D
  0
LINE
  8
0
  6
BYBLOCK
 62
     0
 10
79.629428
 20
40.733423
 30
0.0
 11
83.374848
 21
40.733423
 31
0.0
  0
LINE
  8
0
  6
BYBLOCK
 62
     0
 10
79.629428
 20
28.733423
 30
0.0
 11
83.374848
 21
28.733423
 31
0.0
  0
LINE
  8
0
  6
BYBLOCK
 62
     0
 10
82.584348
 20
39.203423
 30
0.0
 11
82.584348
 21
36.029673
 31
0.0
  0
LINE
  8
0
  6
BYBLOCK
 62
     0
 10
82.584348
 20
30.263423
 30
0.0
 11
82.584348
 21
33.437173
 31
0.0
  0
SOLID
  8
0
  6
BYBLOCK
 62
     0
 10
82.329348
 20
39.203423
 30
0.0
 11
82.839348
 21
39.203423
 31
0.0
 12
82.584348
 22
40.733423
 32
0.0
 13
82.584348
 23
40.733423
 33
0.0
  0
SOLID
  8
0
  6
BYBLOCK
 62
     0
 10
82.329348
 20
30.263423
 30
0.0
 11
82.839348
 21
30.263423
 31
0.0
 12
82.584348
 22
28.733423
 32
0.0
 13
82.584348
 23
28.733423
 33
0.0
  0
TEXT
  8
0
  6
BYBLOCK
 62
     0
 10
80.924192
 20
34.202173
 30
0.0
 40
1.0625
  1
12.000
 41
0.75
 72
     1
 11
82.584348
 21
34.733423
 31
0.0
 73
     2
  0
POINT
  8
DEFPOINTS
  6
BYBLOCK
 62
     0
 10
79.093928
 20
40.733423
 30
0.0
  0
POINT
  8
DEFPOINTS
  6
BYBLOCK
 62
     0
 10
79.093928
 20
28.733423
 30
0.0
  0
POINT
  8
DEFPOINTS
  6
BYBLOCK
 62
     0
 10
82.584348
 20
28.733423
 30
0.0
  0
ENDBLK
  8
0
  0
BLOCK
  8
0
  2
*D18
 70
    65
 10
0.0
 20
0.0
 30
0.0
  3
*D
  0
LINE
  8
0
  6
BYBLOCK
 62
     0
 10
79.629428
 20
64.733423
 30
0.0
 11
83.374848
 21
64.733423
 31
0.0
  0
LINE
  8
0
  6
BYBLOCK
 62
     0
 10
79.629428
 20
52.733423
 30
0.0
 11
83.374848
 21
52.733423
 31
0.0
  0
LINE
  8
0
  6
BYBLOCK
 62
     0
 10
82.584348
 20
63.203423
 30
0.0
 11
82.584348
 21
60.029673
 31
0.0
  0
LINE
  8
0
  6
BYBLOCK
 62
     0
 10
82.584348
 20
54.263423
 30
0.0
 11
82.584348
 21
57.437173
 31
0.0
  0
SOLID
  8
0
  6
BYBLOCK
 62
     0
 10
82.329348
 20
63.203423
 30
0.0
 11
82.839348
 21
63.203423
 31
0.0
 12
82.584348
 22
64.733423
 32
0.0
 13
82.584348
 23
64.733423
 33
0.0
  0
SOLID
  8
0
  6
BYBLOCK
 62
     0
 10
82.329348
 20
54.263423
 30
0.0
 11
82.839348
 21
54.263423
 31
0.0
 12
82.584348
 22
52.733423
 32
0.0
 13
82.584348
 23
52.733423
 33
0.0
  0
TEXT
  8
0
  6
BYBLOCK
 62
     0
 10
80.924192
 20
58.202173
 30
0.0
 40
1.0625
  1
12.000
 41
0.75
 72
     1
 11
82.584348
 21
58.733423
 31
0.0
 73
     2
  0
POINT
  8
DEFPOINTS
  6
BYBLOCK
 62
     0
 10
79.093928
 20
64.733423
 30
0.0
  0
POINT
  8
DEFPOINTS
  6
BYBLOCK
 62
     0
 10
79.093928
 20
52.733423
 30
0.0
  0
POINT
  8
DEFPOINTS
  6
BYBLOCK
 62
     0
 10
82.584348
 20
52.733423
 30
0.0
  0
ENDBLK
  8
0
  0
BLOCK
  8
0
  2
*D19
 70
    65
 10
0.0
 20
0.0
 30
0.0
  3
*D
  0
LINE
  8
0
  6
BYBLOCK
 62
     0
 10
79.629428
 20
76.733423
 30
0.0
 11
83.374848
 21
76.733423
 31
0.0
  0
LINE
  8
0
  6
BYBLOCK
 62
     0
 10
80.191428
 20
88.233423
 30
0.0
 11
83.374848
 21
88.233423
 31
0.0
  0
LINE
  8
0
  6
BYBLOCK
 62
     0
 10
82.584348
 20
78.263423
 30
0.0
 11
82.584348
 21
81.187173
 31
0.0
  0
LINE
  8
0
  6
BYBLOCK
 62
     0
 10
82.584348
 20
86.703423
 30
0.0
 11
82.584348
 21
83.779673
 31
0.0
  0
SOLID
  8
0
  6
BYBLOCK
 62
     0
 10
82.329348
 20
78.263423
 30
0.0
 11
82.839348
 21
78.263423
 31
0.0
 12
82.584348
 22
76.733423
 32
0.0
 13
82.584348
 23
76.733423
 33
0.0
  0
SOLID
  8
0
  6
BYBLOCK
 62
     0
 10
82.329348
 20
86.703423
 30
0.0
 11
82.839348
 21
86.703423
 31
0.0
 12
82.584348
 22
88.233423
 32
0.0
 13
82.584348
 23
88.233423
 33
0.0
  0
TEXT
  8
0
  6
BYBLOCK
 62
     0
 10
80.990598
 20
81.952173
 30
0.0
 40
1.0625
  1
11.500
 41
0.75
 72
     1
 11
82.584348
 21
82.483423
 31
0.0
 73
     2
  0
POINT
  8
DEFPOINTS
  6
BYBLOCK
 62
     0
 10
79.093928
 20
76.733423
 30
0.0
  0
POINT
  8
DEFPOINTS
  6
BYBLOCK
 62
     0
 10
79.655928
 20
88.233423
 30
0.0
  0
POINT
  8
DEFPOINTS
  6
BYBLOCK
 62
     0
 10
82.584348
 20
88.233423
 30
0.0
  0
ENDBLK
  8
0
  0
BLOCK
  8
0
  2
*D20
 70
    65
 10
0.0
 20
0.0
 30
0.0
  3
*D
  0
LINE
  8
0
  6
BYBLOCK
 62
     0
 10
32.255899
 20
87.233423
 30
0.0
 11
36.7628
 21
87.233423
 31
0.0
  0
LINE
  8
0
  6
BYBLOCK
 62
     0
 10
33.755899
 20
88.733423
 30
0.0
 11
36.7628
 21
88.733423
 31
0.0
  0
LINE
  8
0
  6
BYBLOCK
 62
     0
 10
35.9723
 20
85.703423
 30
0.0
 11
35.9723
 21
84.173423
 31
0.0
  0
LINE
  8
0
  6
BYBLOCK
 62
     0
 10
35.9723
 20
90.263423
 30
0.0
 11
35.9723
 21
91.793423
 31
0.0
  0
SOLID
  8
0
  6
BYBLOCK
 62
     0
 10
35.7173
 20
85.703423
 30
0.0
 11
36.2273
 21
85.703423
 31
0.0
 12
35.9723
 22
87.233423
 32
0.0
 13
35.9723
 23
87.233423
 33
0.0
  0
SOLID
  8
0
  6
BYBLOCK
 62
     0
 10
35.7173
 20
90.263423
 30
0.0
 11
36.2273
 21
90.263423
 31
0.0
 12
35.9723
 22
88.733423
 32
0.0
 13
35.9723
 23
88.733423
 33
0.0
  0
TEXT
  8
0
  6
BYBLOCK
 62
     0
 10
34.644175
 20
87.452173
 30
0.0
 40
1.0625
  1
1.500
 41
0.75
 72
     1
 11
35.9723
 21
87.983423
 31
0.0
 73
     2
  0
POINT
  8
DEFPOINTS
  6
BYBLOCK
 62
     0
 10
31.720399
 20
87.233423
 30
0.0
  0
POINT
  8
DEFPOINTS
  6
BYBLOCK
 62
     0
 10
33.220399
 20
88.733423
 30
0.0
  0
POINT
  8
DEFPOINTS
  6
BYBLOCK
 62
     0
 10
35.9723
 20
88.733423
 30
0.0
  0
ENDBLK
  8
0
  0
BLOCK
  8
0
  2
*D21
 70
    65
 10
0.0
 20
0.0
 30
0.0
  3
*D
  0
LINE
  8
0
  6
BYBLOCK
 62
     0
 10
28.720399
 20
89.268923
 30
0.0
 11
28.720399
 21
91.341549
 31
0.0
  0
LINE
  8
0
  6
BYBLOCK
 62
     0
 10
27.220399
 20
89.268923
 30
0.0
 11
27.220399
 21
91.341549
 31
0.0
  0
LINE
  8
0
  6
BYBLOCK
 62
     0
 10
30.250399
 20
90.551049
 30
0.0
 11
31.780399
 21
90.551049
 31
0.0
  0
LINE
  8
0
  6
BYBLOCK
 62
     0
 10
25.690399
 20
90.551049
 30
0.0
 11
24.160399
 21
90.551049
 31
0.0
  0
SOLID
  8
0
  6
BYBLOCK
 62
     0
 10
30.250399
 20
90.806049
 30
0.0
 11
30.250399
 21
90.296049
 31
0.0
 12
28.720399
 22
90.551049
 32
0.0
 13
28.720399
 23
90.551049
 33
0.0
  0
SOLID
  8
0
  6
BYBLOCK
 62
     0
 10
25.690399
 20
90.806049
 30
0.0
 11
25.690399
 21
90.296049
 31
0.0
 12
27.220399
 22
90.551049
 32
0.0
 13
27.220399
 23
90.551049
 33
0.0
  0
TEXT
  8
0
  6
BYBLOCK
 62
     0
 10
20.739149
 20
90.019799
 30
0.0
 40
1.0625
  1
1.500
 41
0.75
 72
     1
 11
22.067274
 21
90.551049
 31
0.0
 73
     2
  0
POINT
  8
DEFPOINTS
  6
BYBLOCK
 62
     0
 10
28.720399
 20
88.733423
 30
0.0
  0
POINT
  8
DEFPOINTS
  6
BYBLOCK
 62
     0
 10
27.220399
 20
88.733423
 30
0.0
  0
POINT
  8
DEFPOINTS
  6
BYBLOCK
 62
     0
 10
27.220399
 20
90.551049
 30
0.0
  0
ENDBLK
  8
0
  0
BLOCK
  8
0
  2
*D22
 70
    65
 10
0.0
 20
0.0
 30
0.0
  3
*D
  0
LINE
  8
0
  6
BYBLOCK
 62
     0
 10
31.720399
 20
89.268923
 30
0.0
 11
31.720399
 21
93.730049
 31
0.0
  0
LINE
  8
0
  6
BYBLOCK
 62
     0
 10
33.220399
 20
89.268923
 30
0.0
 11
33.220399
 21
93.730049
 31
0.0
  0
LINE
  8
0
  6
BYBLOCK
 62
     0
 10
30.190399
 20
92.939549
 30
0.0
 11
28.660399
 21
92.939549
 31
0.0
  0
LINE
  8
0
  6
BYBLOCK
 62
     0
 10
34.750399
 20
92.939549
 30
0.0
 11
36.280399
 21
92.939549
 31
0.0
  0
SOLID
  8
0
  6
BYBLOCK
 62
     0
 10
30.190399
 20
93.194549
 30
0.0
 11
30.190399
 21
92.684549
 31
0.0
 12
31.720399
 22
92.939549
 32
0.0
 13
31.720399
 23
92.939549
 33
0.0
  0
SOLID
  8
0
  6
BYBLOCK
 62
     0
 10
34.750399
 20
93.194549
 30
0.0
 11
34.750399
 21
92.684549
 31
0.0
 12
33.220399
 22
92.939549
 32
0.0
 13
33.220399
 23
92.939549
 33
0.0
  0
TEXT
  8
0
  6
BYBLOCK
 62
     0
 10
37.045399
 20
92.408299
 30
0.0
 40
1.0625
  1
1.500
 41
0.75
 72
     1
 11
38.373524
 21
92.939549
 31
0.0
 73
     2
  0
POINT
  8
DEFPOINTS
  6
BYBLOCK
 62
     0
 10
31.720399
 20
88.733423
 30
0.0
  0
POINT
  8
DEFPOINTS
  6
BYBLOCK
 62
     0
 10
33.220399
 20
88.733423
 30
0.0
  0
POINT
  8
DEFPOINTS
  6
BYBLOCK
 62
     0
 10
33.220399
 20
92.939549
 30
0.0
  0
ENDBLK
  8
0
  0
BLOCK
  8
0
  2
*D23
 70
    65
 10
0.0
 20
0.0
 30
0.0
  3
*D
  0
LINE
  8
0
  6
BYBLOCK
 62
     0
 10
53.246099
 20
88.733423
 30
0.0
 11
47.514103
 21
88.733423
 31
0.0
  0
LINE
  8
0
  6
BYBLOCK
 62
     0
 10
53.262099
 20
4.733423
 30
0.0
 11
47.514103
 21
4.733423
 31
0.0
  0
LINE
  8
0
  6
BYBLOCK
 62
     0
 10
48.304603
 20
87.203423
 30
0.0
 11
48.304603
 21
48.029673
 31
0.0
  0
LINE
  8
0
  6
BYBLOCK
 62
     0
 10
48.304603
 20
6.263423
 30
0.0
 11
48.304603
 21
45.437173
 31
0.0
  0
SOLID
  8
0
  6
BYBLOCK
 62
     0
 10
48.049603
 20
87.203423
 30
0.0
 11
48.559603
 21
87.203423
 31
0.0
 12
48.304603
 22
88.733423
 32
0.0
 13
48.304603
 23
88.733423
 33
0.0
  0
SOLID
  8
0
  6
BYBLOCK
 62
     0
 10
48.049603
 20
6.263423
 30
0.0
 11
48.559603
 21
6.263423
 31
0.0
 12
48.304603
 22
4.733423
 32
0.0
 13
48.304603
 23
4.733423
 33
0.0
  0
TEXT
  8
0
  6
BYBLOCK
 62
     0
 10
46.511635
 20
46.202173
 30
0.0
 40
1.0625
  1
84.000
 41
0.75
 72
     1
 11
48.304603
 21
46.733423
 31
0.0
 73
     2
  0
POINT
  8
DEFPOINTS
  6
BYBLOCK
 62
     0
 10
53.781599
 20
88.733423
 30
0.0
  0
POINT
  8
DEFPOINTS
  6
BYBLOCK
 62
     0
 10
53.797599
 20
4.733423
 30
0.0
  0
POINT
  8
DEFPOINTS
  6
BYBLOCK
 62
     0
 10
48.304603
 20
4.733423
 30
0.0
  0
ENDBLK
  8
0
  0
BLOCK
  8
0
  2
*D24
 70
    65
 10
0.0
 20
0.0
 30
0.0
  3
*D
  0
LINE
  8
0
  6
BYBLOCK
 62
     0
 10
29.710112
 20
3.6423
 30
0.0
 11
29.710112
 21
1.114728
 31
0.0
  0
LINE
  8
0
  6
BYBLOCK
 62
     0
 10
23.710112
 20
3.2673
 30
0.0
 11
23.710112
 21
1.114728
 31
0.0
  0
LINE
  8
0
  6
BYBLOCK
 62
     0
 10
31.240112
 20
1.905228
 30
0.0
 11
32.770112
 21
1.905228
 31
0.0
  0
LINE
  8
0
  6
BYBLOCK
 62
     0
 10
22.180112
 20
1.905228
 30
0.0
 11
20.650112
 21
1.905228
 31
0.0
  0
SOLID
  8
0
  6
BYBLOCK
 62
     0
 10
31.240112
 20
2.160228
 30
0.0
 11
31.240112
 21
1.650228
 31
0.0
 12
29.710112
 22
1.905228
 32
0.0
 13
29.710112
 23
1.905228
 33
0.0
  0
SOLID
  8
0
  6
BYBLOCK
 62
     0
 10
22.180112
 20
2.160228
 30
0.0
 11
22.180112
 21
1.650228
 31
0.0
 12
23.710112
 22
1.905228
 32
0.0
 13
23.710112
 23
1.905228
 33
0.0
  0
TEXT
  8
0
  6
BYBLOCK
 62
     0
 10
25.315581
 20
1.373978
 30
0.0
 40
1.0625
  1
6.000
 41
0.75
 72
     1
 11
26.710112
 21
1.905228
 31
0.0
 73
     2
  0
POINT
  8
DEFPOINTS
  6
BYBLOCK
 62
     0
 10
29.710112
 20
4.1778
 30
0.0
  0
POINT
  8
DEFPOINTS
  6
BYBLOCK
 62
     0
 10
23.710112
 20
3.8028
 30
0.0
  0
POINT
  8
DEFPOINTS
  6
BYBLOCK
 62
     0
 10
23.710112
 20
1.905228
 30
0.0
  0
ENDBLK
  8
0
  0
BLOCK
  8
0
  2
*D25
 70
    65
 10
0.0
 20
0.0
 30
0.0
  3
*D
  0
LINE
  8
0
  6
BYBLOCK
 62
     0
 10
32.710112
 20
6.891369
 30
0.0
 11
32.710112
 21
2.038298
 31
0.0
  0
LINE
  8
0
  6
BYBLOCK
 62
     0
 10
38.710112
 20
6.579369
 30
0.0
 11
38.710112
 21
2.038298
 31
0.0
  0
LINE
  8
0
  6
BYBLOCK
 62
     0
 10
31.180112
 20
2.828798
 30
0.0
 11
29.650112
 21
2.828798
 31
0.0
  0
LINE
  8
0
  6
BYBLOCK
 62
     0
 10
40.240112
 20
2.828798
 30
0.0
 11
41.770112
 21
2.828798
 31
0.0
  0
SOLID
  8
0
  6
BYBLOCK
 62
     0
 10
31.180112
 20
3.083798
 30
0.0
 11
31.180112
 21
2.573798
 31
0.0
 12
32.710112
 22
2.828798
 32
0.0
 13
32.710112
 23
2.828798
 33
0.0
  0
SOLID
  8
0
  6
BYBLOCK
 62
     0
 10
40.240112
 20
3.083798
 30
0.0
 11
40.240112
 21
2.573798
 31
0.0
 12
38.710112
 22
2.828798
 32
0.0
 13
38.710112
 23
2.828798
 33
0.0
  0
TEXT
  8
0
  6
BYBLOCK
 62
     0
 10
34.315581
 20
2.297548
 30
0.0
 40
1.0625
  1
6.000
 41
0.75
 72
     1
 11
35.710112
 21
2.828798
 31
0.0
 73
     2
  0
POINT
  8
DEFPOINTS
  6
BYBLOCK
 62
     0
 10
32.710112
 20
7.426869
 30
0.0
  0
POINT
  8
DEFPOINTS
  6
BYBLOCK
 62
     0
 10
38.710112
 20
7.114869
 30
0.0
  0
POINT
  8
DEFPOINTS
  6
BYBLOCK
 62
     0
 10
38.710112
 20
2.828798
 30
0.0
  0
ENDBLK
  8
0
  0
ENDSEC
  0
SECTION
  2
ENTITIES
  0
LINE
  8
OBJECT
 62
     7
 10
28.467592
 20
7.489869
 30
0.0
 11
28.467592
 21
18.364869
 31
0.0
  0
LINE
  8
OBJECT
 62
     7
 10
28.467592
 20
7.489869
 30
0.0
 11
31.467592
 21
7.489869
 31
0.0
  0
LINE
  8
OBJECT
 62
     7
 10
31.467592
 20
7.489869
 30
0.0
 11
31.467592
 21
18.364869
 31
0.0
  0
CIRCLE
  8
OBJECT
 62
     7
 10
30.592592
 20
49.114869
 30
0.0
 40
0.328
  0
CIRCLE
  8
OBJECT
 62
     7
 10
29.342592
 20
49.114869
 30
0.0
 40
0.328
  0
CIRCLE
  8
OBJECT
 62
     7
 10
29.967592
 20
19.114869
 30
0.0
 40
0.0885
  0
CIRCLE
  8
OBJECT
 62
     7
 10
29.967592
 20
31.114869
 30
0.0
 40
0.0885
  0
CIRCLE
  8
OBJECT
 62
     7
 10
29.967592
 20
43.114869
 30
0.0
 40
0.0885
  0
CIRCLE
  8
OBJECT
 62
     7
 10
29.967592
 20
55.114869
 30
0.0
 40
0.0885
  0
CIRCLE
  8
OBJECT
 62
     7
 10
29.967592
 20
67.114869
 30
0.0
 40
0.0885
  0
CIRCLE
  8
OBJECT
 62
     7
 10
29.967592
 20
21.114869
 30
0.0
 40
0.5625
  0
CIRCLE
  8
OBJECT
 62
     7
 10
29.967592
 20
63.489869
 30
0.0
 40
0.5625
  0
CIRCLE
  8
OBJECT
 62
     7
 10
30.592592
 20
73.114869
 30
0.0
 40
0.328
  0
CIRCLE
  8
OBJECT
 62
     7
 10
29.342592
 20
73.114869
 30
0.0
 40
0.328
  0
CIRCLE
  8
OBJECT
 62
     7
 10
29.342592
 20
11.114869
 30
0.0
 40
0.328
  0
CIRCLE
  8
OBJECT
 62
     7
 10
30.592592
 20
11.114869
 30
0.0
 40
0.328
  0
CIRCLE
  8
OBJECT
 62
     7
 10
29.967592
 20
36.739869
 30
0.0
 40
0.328
  0
LINE
  8
HIDDEN
 62
     7
 10
28.654592
 20
7.489869
 30
0.0
 11
28.654592
 21
91.114869
 31
0.0
  0
LINE
  8
HIDDEN
 62
     7
 10
31.280592
 20
7.489869
 30
0.0
 11
31.280592
 21
91.114869
 31
0.0
  0
LINE
  8
HIDDEN
 62
     7
 10
72.346579
 20
91.114869
 30
0.0
 11
72.346579
 21
89.614869
 31
0.0
  0
LINE
  8
HIDDEN
 62
     7
 10
72.346579
 20
7.489869
 30
0.0
 11
73.611579
 21
7.489869
 31
0.0
  0
LINE
  8
OBJECT
 62
     7
 10
73.611579
 20
7.489869
 30
0.0
 11
73.611579
 21
91.114869
 31
0.0
  0
LINE
  8
HIDDEN
 62
     7
 10
73.455579
 20
7.489869
 30
0.0
 11
73.455579
 21
91.114869
 31
0.0
  0
LINE
  8
HIDDEN
 62
     7
 10
53.485579
 20
7.489869
 30
0.0
 11
53.485579
 21
91.114869
 31
0.0
  0
LINE
  8
OBJECT
 62
     7
 10
53.329579
 20
7.489869
 30
0.0
 11
53.329579
 21
91.114869
 31
0.0
  0
LINE
  8
HIDDEN
 62
     7
 10
54.594579
 20
7.489869
 30
0.0
 11
53.329579
 21
7.489869
 31
0.0
  0
LINE
  8
HIDDEN
 62
     7
 10
54.594579
 20
91.114869
 30
0.0
 11
54.594579
 21
89.614869
 31
0.0
  0
CIRCLE
  8
HIDDEN
 62
     7
 10
54.314579
 20
10.177869
 30
0.0
 40
0.1
  0
ARC
  8
OBJECT
 62
     7
 10
22.717592
 20
7.114869
 30
0.0
 40
0.25
 50
89.999994
 51
180.0
  0
ARC
  8
OBJECT
 62
     7
 10
28.467592
 20
10.364869
 30
0.0
 40
0.25
 50
90.0
 51
179.999985
  0
LINE
  8
OBJECT
 62
     7
 10
27.624592
 20
7.364869
 30
0.0
 11
22.717592
 21
7.364869
 31
0.0
  0
LINE
  8
OBJECT
 62
     7
 10
28.217592
 20
10.364869
 30
0.0
 11
28.217592
 21
7.957869
 31
0.0
  0
LINE
  8
OBJECT
 62
     7
 10
28.467592
 20
7.426869
 30
0.0
 11
28.467592
 21
10.614869
 31
0.0
  0
LINE
  8
OBJECT
 62
     7
 10
22.467592
 20
7.114869
 30
0.0
 11
28.155592
 21
7.114869
 31
0.0
  0
LINE
  8
OBJECT
 62
     7
 10
73.595579
 20
7.114869
 30
0.0
 11
53.345579
 21
7.114869
 31
0.0
  0
LINE
  8
OBJECT
 62
     7
 10
53.345579
 20
7.114869
 30
0.0
 11
53.345579
 21
10.614869
 31
0.0
  0
LINE
  8
OBJECT
 62
     7
 10
53.345579
 20
10.614869
 30
0.0
 11
73.595579
 21
10.614869
 31
0.0
  0
LINE
  8
OBJECT
 62
     7
 10
73.595579
 20
10.614869
 30
0.0
 11
73.595579
 21
7.114869
 31
0.0
  0
LINE
  8
OBJECT
 62
     7
 10
73.595579
 20
7.364869
 30
0.0
 11
53.345579
 21
7.364869
 31
0.0
  0
LINE
  8
OBJECT
 62
     7
 10
53.345579
 20
106.882856
 30
0.0
 11
73.595579
 21
106.882856
 31
0.0
  0
LINE
  8
OBJECT
 62
     7
 10
73.595579
 20
106.882856
 30
0.0
 11
73.595579
 21
112.882856
 31
0.0
  0
LINE
  8
OBJECT
 62
     7
 10
73.595579
 20
112.882856
 30
0.0
 11
53.345579
 21
112.882856
 31
0.0
  0
LINE
  8
OBJECT
 62
     7
 10
53.345579
 20
112.882856
 30
0.0
 11
53.345579
 21
106.882856
 31
0.0
  0
LINE
  8
HIDDEN
 62
     7
 10
73.595579
 20
112.632856
 30
0.0
 11
53.345579
 21
112.632856
 31
0.0
  0
CIRCLE
  8
OBJECT
 62
     7
 10
55.470579
 20
108.132856
 30
0.0
 40
0.375
  0
CIRCLE
  8
OBJECT
 62
     7
 10
71.470579
 20
108.132856
 30
0.0
 40
0.375
  0
TEXT
  8
DIM
 10
59.525419
 20
5.842174
 30
0.0
 40
0.33325
  1

  0
TEXT
  8
DIM
 10
63.957311
 20
8.649987
 30
0.0
 40
0.33325
  1

  0
LINE
  8
OBJECT
 62
     7
 10
28.155592
 20
7.114869
 30
0.0
 11
28.467592
 21
7.426869
 31
0.0
  0
ARC
  8
OBJECT
 62
     7
 10
27.624592
 20
7.957869
 30
0.0
 40
0.593
 50
270.0
 51
0.0
  0
LINE
  8
OBJECT
 62
     7
 10
53.345579
 20
112.882856
 30
0.0
 11
53.345579
 21
110.882856
 31
0.0
  0
LINE
  8
OBJECT
 62
     7
 10
53.345579
 20
111.382856
 30
0.0
 11
73.595579
 21
111.382856
 31
0.0
  0
LINE
  8
OBJECT
 62
     7
 10
73.595579
 20
110.882856
 30
0.0
 11
73.595579
 21
112.882856
 31
0.0
  0
LINE
  8
HIDDEN
 62
     7
 10
73.595579
 20
112.695856
 30
0.0
 11
53.345579
 21
112.695856
 31
0.0
  0
LINE
  8
OBJECT
 62
     7
 10
53.345579
 20
90.927869
 30
0.0
 11
73.595579
 21
90.927869
 31
0.0
  0
LINE
  8
OBJECT
 62
     7
 10
53.345579
 20
89.614869
 30
0.0
 11
53.345579
 21
91.114869
 31
0.0
  0
LINE
  8
OBJECT
 62
     7
 10
73.595579
 20
89.614869
 30
0.0
 11
53.345579
 21
89.614869
 31
0.0
  0
LINE
  8
OBJECT
 62
     7
 10
73.595579
 20
91.114869
 30
0.0
 11
73.595579
 21
89.614869
 31
0.0
  0
LINE
  8
OBJECT
 62
     7
 10
53.345579
 20
91.114869
 30
0.0
 11
73.595579
 21
91.114869
 31
0.0
  0
LINE
  8
HIDDEN
 62
     7
 10
73.595579
 20
116.069856
 30
0.0
 11
53.345579
 21
116.069856
 31
0.0
  0
LINE
  8
OBJECT
 62
     7
 10
73.595579
 20
117.882856
 30
0.0
 11
73.595579
 21
115.882856
 31
0.0
  0
LINE
  8
OBJECT
 62
     7
 10
53.345579
 20
117.382856
 30
0.0
 11
73.595579
 21
117.382856
 31
0.0
  0
CIRCLE
  8
OBJECT
 62
     7
 10
71.470579
 20
120.632856
 30
0.0
 40
0.375
  0
LINE
  8
HIDDEN
 62
     7
 10
73.595579
 20
116.132856
 30
0.0
 11
53.345579
 21
116.132856
 31
0.0
  0
LINE
  8
OBJECT
 62
     7
 10
73.595579
 20
115.882856
 30
0.0
 11
53.345579
 21
115.882856
 31
0.0
  0
LINE
  8
OBJECT
 62
     7
 10
73.595579
 20
121.882856
 30
0.0
 11
73.595579
 21
115.882856
 31
0.0
  0
LINE
  8
OBJECT
 62
     7
 10
53.345579
 20
121.882856
 30
0.0
 11
73.595579
 21
121.882856
 31
0.0
  0
CIRCLE
  8
OBJECT
 62
     7
 10
55.470579
 20
120.632856
 30
0.0
 40
0.375
  0
LINE
  8
OBJECT
 62
     7
 10
53.345579
 20
115.882856
 30
0.0
 11
53.345579
 21
121.882856
 31
0.0
  0
ARC
  8
OBJECT
 62
     7
 10
32.310592
 20
7.957869
 30
0.0
 40
0.593
 50
180.0
 51
270.0
  0
LINE
  8
OBJECT
 62
     7
 10
31.779592
 20
7.114869
 30
0.0
 11
31.467592
 21
7.426869
 31
0.0
  0
LINE
  8
OBJECT
 62
     7
 10
37.467592
 20
7.114869
 30
0.0
 11
31.779592
 21
7.114869
 31
0.0
  0
LINE
  8
OBJECT
 62
     7
 10
31.467592
 20
7.426869
 30
0.0
 11
31.467592
 21
10.614869
 31
0.0
  0
LINE
  8
OBJECT
 62
     7
 10
31.717592
 20
10.364869
 30
0.0
 11
31.717592
 21
7.957869
 31
0.0
  0
LINE
  8
OBJECT
 62
     7
 10
32.310592
 20
7.364869
 30
0.0
 11
37.217592
 21
7.364869
 31
0.0
  0
ARC
  8
OBJECT
 62
     7
 10
31.467592
 20
10.364869
 30
0.0
 40
0.25
 50
0.000015
 51
90.0
  0
ARC
  8
OBJECT
 62
     7
 10
37.217592
 20
7.114869
 30
0.0
 40
0.25
 50
0.0
 51
90.000006
  0
LINE
  8
HIDDEN
 62
     7
 10
72.346579
 20
10.614869
 30
0.0
 11
72.346579
 21
7.489869
 31
0.0
  0
LINE
  8
HIDDEN
 62
     7
 10
54.594579
 20
10.614869
 30
0.0
 11
54.594579
 21
7.489869
 31
0.0
  0
LINE
  8
OBJECT
 62
     7
 10
54.594579
 20
89.614869
 30
0.0
 11
54.594579
 21
10.614869
 31
0.0
  0
LINE
  8
OBJECT
 62
     7
 10
72.346579
 20
89.614869
 30
0.0
 11
72.346579
 21
10.614869
 31
0.0
  0
POLYLINE
  8
BEND
 62
     7
 66
     1
 10
0.0
 20
0.0
 30
0.0
 70
     1
  0
VERTEX
  8
BEND
 62
     7
 10
54.251079
 20
10.045291
 30
0.0
 50
270.0
  0
VERTEX
  8
BEND
 62
     7
 10
53.938579
 20
10.225713
 30
0.0
 50
270.0
  0
VERTEX
  8
BEND
 62
     7
 10
53.626079
 20
10.045291
 30
0.0
 50
270.0
  0
VERTEX
  8
BEND
 62
     7
 10
53.626079
 20
9.684447
 30
0.0
 50
270.0
  0
VERTEX
  8
BEND
 62
     7
 10
53.938579
 20
9.504025
 30
0.0
 50
270.0
  0
VERTEX
  8
BEND
 62
     7
 10
54.251079
 20
9.684447
 30
0.0
 50
270.0
  0
SEQEND
  8
BEND
 62
     7
  0
POLYLINE
  8
BEND
 62
     7
 66
     1
 10
0.0
 20
0.0
 30
0.0
 70
     1
  0
VERTEX
  8
BEND
 62
     7
 10
53.626079
 20
8.184447
 30
0.0
 50
90.0
  0
VERTEX
  8
BEND
 62
     7
 10
53.938579
 20
8.004025
 30
0.0
 50
90.0
  0
VERTEX
  8
BEND
 62
     7
 10
54.251079
 20
8.184447
 30
0.0
 50
90.0
  0
VERTEX
  8
BEND
 62
     7
 10
54.251079
 20
8.545291
 30
0.0
 50
90.0
  0
VERTEX
  8
BEND
 62
     7
 10
53.938579
 20
8.725713
 30
0.0
 50
90.0
  0
VERTEX
  8
BEND
 62
     7
 10
53.626079
 20
8.545291
 30
0.0
 50
90.0
  0
SEQEND
  8
BEND
 62
     7
  0
POLYLINE
  8
BEND
 62
     7
 66
     1
 10
0.0
 20
0.0
 30
0.0
 70
     1
  0
VERTEX
  8
BEND
 62
     7
 10
73.315079
 20
10.045291
 30
0.0
 50
270.0
  0
VERTEX
  8
BEND
 62
     7
 10
73.002579
 20
10.225713
 30
0.0
 50
270.0
  0
VERTEX
  8
BEND
 62
     7
 10
72.690079
 20
10.045291
 30
0.0
 50
270.0
  0
VERTEX
  8
BEND
 62
     7
 10
72.690079
 20
9.684447
 30
0.0
 50
270.0
  0
VERTEX
  8
BEND
 62
     7
 10
73.002579
 20
9.504025
 30
0.0
 50
270.0
  0
VERTEX
  8
BEND
 62
     7
 10
73.315079
 20
9.684447
 30
0.0
 50
270.0
  0
SEQEND
  8
BEND
 62
     7
  0
POLYLINE
  8
BEND
 62
     7
 66
     1
 10
0.0
 20
0.0
 30
0.0
 70
     1
  0
VERTEX
  8
BEND
 62
     7
 10
72.690079
 20
8.184447
 30
0.0
 50
90.0
  0
VERTEX
  8
BEND
 62
     7
 10
73.002579
 20
8.004025
 30
0.0
 50
90.0
  0
VERTEX
  8
BEND
 62
     7
 10
73.315079
 20
8.184447
 30
0.0
 50
90.0
  0
VERTEX
  8
BEND
 62
     7
 10
73.315079
 20
8.545291
 30
0.0
 50
90.0
  0
VERTEX
  8
BEND
 62
     7
 10
73.002579
 20
8.725713
 30
0.0
 50
90.0
  0
VERTEX
  8
BEND
 62
     7
 10
72.690079
 20
8.545291
 30
0.0
 50
90.0
  0
SEQEND
  8
BEND
 62
     7
  0
POLYLINE
  8
BEND
 62
     7
 66
     1
 10
0.0
 20
0.0
 30
0.0
 70
     1
  0
VERTEX
  8
BEND
 62
     7
 10
54.251079
 20
90.545291
 30
0.0
 50
270.0
  0
VERTEX
  8
BEND
 62
     7
 10
53.938579
 20
90.725713
 30
0.0
 50
270.0
  0
VERTEX
  8
BEND
 62
     7
 10
53.626079
 20
90.545291
 30
0.0
 50
270.0
  0
VERTEX
  8
BEND
 62
     7
 10
53.626079
 20
90.184447
 30
0.0
 50
270.0
  0
VERTEX
  8
BEND
 62
     7
 10
53.938579
 20
90.004025
 30
0.0
 50
270.0
  0
VERTEX
  8
BEND
 62
     7
 10
54.251079
 20
90.184447
 30
0.0
 50
270.0
  0
SEQEND
  8
BEND
 62
     7
  0
POLYLINE
  8
BEND
 62
     7
 66
     1
 10
0.0
 20
0.0
 30
0.0
 70
     1
  0
VERTEX
  8
BEND
 62
     7
 10
73.315079
 20
90.545291
 30
0.0
 50
270.0
  0
VERTEX
  8
BEND
 62
     7
 10
73.002579
 20
90.725713
 30
0.0
 50
270.0
  0
VERTEX
  8
BEND
 62
     7
 10
72.690079
 20
90.545291
 30
0.0
 50
270.0
  0
VERTEX
  8
BEND
 62
     7
 10
72.690079
 20
90.184447
 30
0.0
 50
270.0
  0
VERTEX
  8
BEND
 62
     7
 10
73.002579
 20
90.004025
 30
0.0
 50
270.0
  0
VERTEX
  8
BEND
 62
     7
 10
73.315079
 20
90.184447
 30
0.0
 50
270.0
  0
SEQEND
  8
BEND
 62
     7
  0
LINE
  8
BEND
 62
     7
 10
27.901592
 20
9.504025
 30
0.0
 11
27.901592
 21
10.225713
 31
0.0
  0
LINE
  8
BEND
 62
     7
 10
27.901592
 20
10.225713
 30
0.0
 11
28.217592
 21
10.225713
 31
0.0
  0
LINE
  8
BEND
 62
     7
 10
27.901592
 20
9.504025
 30
0.0
 11
28.217592
 21
9.504025
 31
0.0
  0
LINE
  8
BEND
 62
     7
 10
28.217592
 20
10.045291
 30
0.0
 11
27.901592
 21
10.045291
 31
0.0
  0
LINE
  8
BEND
 62
     7
 10
28.217592
 20
9.684447
 30
0.0
 11
27.901592
 21
9.684447
 31
0.0
  0
LINE
  8
BEND
 62
     7
 10
31.717592
 20
9.684447
 30
0.0
 11
32.033592
 21
9.684447
 31
0.0
  0
LINE
  8
BEND
 62
     7
 10
31.717592
 20
10.045291
 30
0.0
 11
32.033592
 21
10.045291
 31
0.0
  0
LINE
  8
BEND
 62
     7
 10
32.033592
 20
9.504025
 30
0.0
 11
31.717592
 21
9.504025
 31
0.0
  0
LINE
  8
BEND
 62
     7
 10
32.033592
 20
10.225713
 30
0.0
 11
31.717592
 21
10.225713
 31
0.0
  0
LINE
  8
BEND
 62
     7
 10
32.033592
 20
9.504025
 30
0.0
 11
32.033592
 21
10.225713
 31
0.0
  0
LINE
  8
BEND
 62
     7
 10
32.033592
 20
8.004025
 30
0.0
 11
32.033592
 21
8.725713
 31
0.0
  0
LINE
  8
BEND
 62
     7
 10
32.033592
 20
8.725713
 30
0.0
 11
31.717592
 21
8.725713
 31
0.0
  0
LINE
  8
BEND
 62
     7
 10
32.033592
 20
8.004025
 30
0.0
 11
31.717592
 21
8.004025
 31
0.0
  0
LINE
  8
BEND
 62
     7
 10
31.717592
 20
8.545291
 30
0.0
 11
32.033592
 21
8.545291
 31
0.0
  0
LINE
  8
BEND
 62
     7
 10
31.717592
 20
8.184447
 30
0.0
 11
32.033592
 21
8.184447
 31
0.0
  0
LINE
  8
BEND
 62
     7
 10
28.217592
 20
8.184447
 30
0.0
 11
27.901592
 21
8.184447
 31
0.0
  0
LINE
  8
BEND
 62
     7
 10
28.217592
 20
8.545291
 30
0.0
 11
27.901592
 21
8.545291
 31
0.0
  0
LINE
  8
BEND
 62
     7
 10
27.901592
 20
8.004025
 30
0.0
 11
28.217592
 21
8.004025
 31
0.0
  0
LINE
  8
BEND
 62
     7
 10
27.901592
 20
8.725713
 30
0.0
 11
28.217592
 21
8.725713
 31
0.0
  0
LINE
  8
BEND
 62
     7
 10
27.901592
 20
8.004025
 30
0.0
 11
27.901592
 21
8.725713
 31
0.0
  0
TEXT
  8
TEXT
 10
1.693962
 20
123.601976
 30
0.0
 40
1.0625
  1
%%uMATERIAL:
 41
0.75
  0
TEXT
  8
TEXT
 10
2.471411
 20
121.831143
 30
0.0
 40
1.0625
  1
ALUMINUM RELAY RACK:
 41
0.75
  0
TEXT
  8
TEXT
 10
1.693962
 20
73.951243
 30
0.0
 40
1.0625
  1
UPRIGHTS ARE TAPPED #12-24 ON
 41
0.75
  0
TEXT
  8
TEXT
 10
1.693962
 20
68.647243
 30
0.0
 40
1.0625
  1
UNIT SHIPPED KNOCKED DOWN.
 41
0.75
  0
TEXT
  8
TEXT
 10
2.721274
 20
72.183243
 30
0.0
 40
1.0625
  1
E.I.A. UNIVERSAL SPACING.
 41
0.75
  0
LINE
  8
OBJECT
 62
     7
 10
53.329579
 20
91.114869
 30
0.0
 11
53.345579
 21
91.114869
 31
0.0
  0
LINE
  8
OBJECT
 62
     7
 10
73.611579
 20
91.114869
 30
0.0
 11
73.595579
 21
91.114869
 31
0.0
  0
DIMENSION
  8
DIM
 62
     7
  2
*D1
 10
72.626579
 20
58.927784
 30
0.0
 11
63.470579
 21
58.927784
 31
0.0
 12
1.754414
 22
1.760987
 32
0.0
 13
54.314579
 23
61.676869
 33
0.0
 14
72.626579
 24
61.676869
 34
0.0
  3
23NSTD
  0
DIMENSION
  8
DIM
 62
     7
  2
*D2
 10
54.594579
 20
65.198064
 30
0.0
 11
63.470579
 21
65.198064
 31
0.0
 12
1.754414
 22
1.760987
 32
0.0
 13
72.346579
 23
65.634905
 33
0.0
 14
54.594579
 24
65.634905
 34
0.0
  3
23NSTD
  0
DIMENSION
  8
DIM
 62
     7
  2
*D23
 10
47.852583
 20
7.114869
 30
0.0
 11
47.852583
 21
49.114869
 31
0.0
 12
-0.45202
 22
2.381446
 32
0.0
 13
53.329579
 23
91.114869
 33
0.0
 14
53.345579
 24
7.114869
 34
0.0
 50
90.0
  3
23NSTD
  0
DIMENSION
  8
DIM
 62
     7
  2
*D3
 10
59.359781
 20
11.676869
 30
0.0
 11
59.359781
 21
50.176869
 31
0.0
 12
1.754414
 22
1.760987
 32
0.0
  1
<> P.S.
 13
54.314579
 23
88.676869
 33
0.0
 14
54.314579
 24
11.676869
 34
0.0
 50
90.0
  3
23NSTD
  0
DIMENSION
  8
DIM
 62
     7
  2
*D4
 10
59.359781
 20
91.114869
 30
0.0
 11
63.248531
 21
94.174869
 31
0.0
 12
1.754414
 22
1.760987
 32
0.0
 13
54.314579
 23
88.676869
 33
0.0
 14
59.040028
 24
91.114869
 34
0.0
 50
90.0
  3
23NSTD
  0
DIMENSION
  8
DIM
 62
     7
  2
*D12
 10
41.734434
 20
7.114869
 30
0.0
 11
41.734434
 21
8.864869
 31
0.0
 12
-0.252807
 22
2.381446
 32
0.0
  1
<>
 13
31.467592
 23
10.614869
 33
0.0
 14
37.467592
 24
7.114869
 34
0.0
 50
90.0
  3
23NSTDI
  0
DIMENSION
  8
DIM
 62
     7
  2
*D24
 10
22.467592
 20
5.217298
 30
0.0
 11
25.467592
 21
5.217298
 31
0.0
 12
-1.24252
 22
3.31207
 32
0.0
  1
<>
 13
28.467592
 23
7.489869
 33
0.0
 14
22.467592
 24
7.114869
 34
0.0
  3
23NSTDI
  0
DIMENSION
  8
DIM
 62
     7
  2
*D25
 10
37.467592
 20
2.828798
 30
0.0
 11
34.467592
 21
2.828798
 31
0.0
 12
-1.24252
 22
0.0
 32
0.0
  1
<>
 13
31.467592
 23
7.426869
 33
0.0
 14
37.467592
 24
7.114869
 34
0.0
  3
23NSTDI
  0
DIMENSION
  8
DIM
 62
     7
  2
*D11
 10
73.595579
 20
102.0827
 30
0.0
 11
63.470579
 21
102.0827
 31
0.0
 12
-0.292004
 22
7.10605
 32
0.0
 13
53.345579
 23
106.882856
 33
0.0
 14
73.595579
 24
106.882856
 34
0.0
  3
23NSTD
  0
DIMENSION
  8
DIM
 62
     7
  2
*D9
 10
71.470579
 20
104.4712
 30
0.0
 11
63.470579
 21
104.4712
 31
0.0
 12
-0.292004
 22
7.10605
 32
0.0
  1
<>
 13
55.470579
 23
108.132856
 33
0.0
 14
71.470579
 24
108.132856
 34
0.0
  3
23NSTD
  0
DIMENSION
  8
DIM
 62
     7
  2
*D8
 10
47.806083
 20
121.882856
 30
0.0
 11
51.495614
 21
124.942856
 31
0.0
 12
1.754414
 22
7.10605
 32
0.0
 13
55.470579
 23
120.632856
 33
0.0
 14
53.345579
 24
121.882856
 34
0.0
 50
270.0
  3
23NSTD
  0
DIMENSION
  8
DIM
 62
     7
  2
*D5
 10
47.806083
 20
108.132856
 30
0.0
 11
47.806083
 21
114.382856
 31
0.0
 12
1.754414
 22
7.10605
 32
0.0
 13
55.470579
 23
120.632856
 33
0.0
 14
55.470579
 24
108.132856
 34
0.0
 50
270.0
  3
23NSTD
  0
DIMENSION
  8
DIM
 62
     7
  2
*D6
 10
79.879075
 20
121.882856
 30
0.0
 11
79.879075
 21
114.382856
 31
0.0
 12
1.754414
 22
7.10605
 32
0.0
 13
73.595579
 23
106.882856
 33
0.0
 14
73.595579
 24
121.882856
 34
0.0
 50
90.0
  3
23NSTD
  0
DIMENSION
  8
DIM
 62
     7
  2
*D10
 10
73.595579
 20
104.4712
 30
0.0
 11
78.881516
 21
104.4712
 31
0.0
 12
-0.292004
 22
7.10605
 32
0.0
  1
<>
 13
71.470579
 23
108.132856
 33
0.0
 14
73.595579
 24
106.882856
 34
0.0
  3
23NSTD
  0
CIRCLE
  8
OBJECT
 62
     7
 10
29.967592
 20
79.114869
 30
0.0
 40
0.0885
  0
CIRCLE
  8
OBJECT
 62
     7
 10
54.314579
 20
10.802869
 30
0.0
 40
0.1
  0
CIRCLE
  8
OBJECT
 62
     7
 10
54.314579
 20
11.427869
 30
0.0
 40
0.1
  0
CIRCLE
  8
OBJECT
 62
     7
 10
54.314579
 20
12.552869
 30
0.0
 40
0.1
  0
CIRCLE
  8
OBJECT
 62
     7
 10
54.314579
 20
11.927869
 30
0.0
 40
0.1
  0
CIRCLE
  8
OBJECT
 62
     7
 10
54.314579
 20
13.177869
 30
0.0
 40
0.1
  0
CIRCLE
  8
OBJECT
 62
     7
 10
54.314579
 20
14.302869
 30
0.0
 40
0.1
  0
CIRCLE
  8
OBJECT
 62
     7
 10
54.314579
 20
13.677869
 30
0.0
 40
0.1
  0
CIRCLE
  8
OBJECT
 62
     7
 10
54.314579
 20
14.927869
 30
0.0
 40
0.1
  0
CIRCLE
  8
OBJECT
 62
     7
 10
54.314579
 20
16.052869
 30
0.0
 40
0.1
  0
CIRCLE
  8
OBJECT
 62
     7
 10
54.314579
 20
15.427869
 30
0.0
 40
0.1
  0
CIRCLE
  8
OBJECT
 62
     7
 10
54.314579
 20
16.677869
 30
0.0
 40
0.1
  0
CIRCLE
  8
OBJECT
 62
     7
 10
54.314579
 20
17.802869
 30
0.0
 40
0.1
  0
CIRCLE
  8
OBJECT
 62
     7
 10
54.314579
 20
17.177869
 30
0.0
 40
0.1
  0
CIRCLE
  8
OBJECT
 62
     7
 10
54.314579
 20
18.427869
 30
0.0
 40
0.1
  0
CIRCLE
  8
OBJECT
 62
     7
 10
54.314579
 20
19.552869
 30
0.0
 40
0.1
  0
CIRCLE
  8
OBJECT
 62
     7
 10
54.314579
 20
18.927869
 30
0.0
 40
0.1
  0
CIRCLE
  8
OBJECT
 62
     7
 10
54.314579
 20
20.177869
 30
0.0
 40
0.1
  0
CIRCLE
  8
OBJECT
 62
     7
 10
54.314579
 20
21.302869
 30
0.0
 40
0.1
  0
CIRCLE
  8
OBJECT
 62
     7
 10
54.314579
 20
20.677869
 30
0.0
 40
0.1
  0
CIRCLE
  8
OBJECT
 62
     7
 10
54.314579
 20
21.927869
 30
0.0
 40
0.1
  0
CIRCLE
  8
OBJECT
 62
     7
 10
54.314579
 20
23.052869
 30
0.0
 40
0.1
  0
CIRCLE
  8
OBJECT
 62
     7
 10
54.314579
 20
22.427869
 30
0.0
 40
0.1
  0
CIRCLE
  8
OBJECT
 62
     7
 10
54.314579
 20
23.677869
 30
0.0
 40
0.1
  0
CIRCLE
  8
OBJECT
 62
     7
 10
54.314579
 20
24.802869
 30
0.0
 40
0.1
  0
CIRCLE
  8
OBJECT
 62
     7
 10
54.314579
 20
24.177869
 30
0.0
 40
0.1
  0
CIRCLE
  8
OBJECT
 62
     7
 10
54.314579
 20
25.427869
 30
0.0
 40
0.1
  0
CIRCLE
  8
OBJECT
 62
     7
 10
54.314579
 20
26.552869
 30
0.0
 40
0.1
  0
CIRCLE
  8
OBJECT
 62
     7
 10
54.314579
 20
25.927869
 30
0.0
 40
0.1
  0
CIRCLE
  8
OBJECT
 62
     7
 10
54.314579
 20
27.177869
 30
0.0
 40
0.1
  0
CIRCLE
  8
OBJECT
 62
     7
 10
54.314579
 20
28.302869
 30
0.0
 40
0.1
  0
CIRCLE
  8
OBJECT
 62
     7
 10
54.314579
 20
27.677869
 30
0.0
 40
0.1
  0
CIRCLE
  8
OBJECT
 62
     7
 10
54.314579
 20
28.927869
 30
0.0
 40
0.1
  0
CIRCLE
  8
OBJECT
 62
     7
 10
54.314579
 20
30.052869
 30
0.0
 40
0.1
  0
CIRCLE
  8
OBJECT
 62
     7
 10
54.314579
 20
29.427869
 30
0.0
 40
0.1
  0
CIRCLE
  8
OBJECT
 62
     7
 10
54.314579
 20
30.677869
 30
0.0
 40
0.1
  0
CIRCLE
  8
OBJECT
 62
     7
 10
54.314579
 20
31.802869
 30
0.0
 40
0.1
  0
CIRCLE
  8
OBJECT
 62
     7
 10
54.314579
 20
31.177869
 30
0.0
 40
0.1
  0
CIRCLE
  8
OBJECT
 62
     7
 10
54.314579
 20
32.427869
 30
0.0
 40
0.1
  0
CIRCLE
  8
OBJECT
 62
     7
 10
54.314579
 20
33.552869
 30
0.0
 40
0.1
  0
CIRCLE
  8
OBJECT
 62
     7
 10
54.314579
 20
32.927869
 30
0.0
 40
0.1
  0
CIRCLE
  8
OBJECT
 62
     7
 10
54.314579
 20
34.177869
 30
0.0
 40
0.1
  0
CIRCLE
  8
OBJECT
 62
     7
 10
54.314579
 20
35.302869
 30
0.0
 40
0.1
  0
CIRCLE
  8
OBJECT
 62
     7
 10
54.314579
 20
34.677869
 30
0.0
 40
0.1
  0
CIRCLE
  8
OBJECT
 62
     7
 10
54.314579
 20
35.927869
 30
0.0
 40
0.1
  0
CIRCLE
  8
OBJECT
 62
     7
 10
54.314579
 20
37.052869
 30
0.0
 40
0.1
  0
CIRCLE
  8
OBJECT
 62
     7
 10
54.314579
 20
36.427869
 30
0.0
 40
0.1
  0
CIRCLE
  8
OBJECT
 62
     7
 10
54.314579
 20
37.677869
 30
0.0
 40
0.1
  0
CIRCLE
  8
OBJECT
 62
     7
 10
54.314579
 20
38.802869
 30
0.0
 40
0.1
  0
CIRCLE
  8
OBJECT
 62
     7
 10
54.314579
 20
38.177869
 30
0.0
 40
0.1
  0
CIRCLE
  8
OBJECT
 62
     7
 10
54.314579
 20
39.427869
 30
0.0
 40
0.1
  0
CIRCLE
  8
OBJECT
 62
     7
 10
54.314579
 20
40.552869
 30
0.0
 40
0.1
  0
CIRCLE
  8
OBJECT
 62
     7
 10
54.314579
 20
39.927869
 30
0.0
 40
0.1
  0
CIRCLE
  8
OBJECT
 62
     7
 10
54.314579
 20
41.177869
 30
0.0
 40
0.1
  0
CIRCLE
  8
OBJECT
 62
     7
 10
54.314579
 20
42.302869
 30
0.0
 40
0.1
  0
CIRCLE
  8
OBJECT
 62
     7
 10
54.314579
 20
41.677869
 30
0.0
 40
0.1
  0
CIRCLE
  8
OBJECT
 62
     7
 10
54.314579
 20
42.927869
 30
0.0
 40
0.1
  0
CIRCLE
  8
OBJECT
 62
     7
 10
54.314579
 20
44.052869
 30
0.0
 40
0.1
  0
CIRCLE
  8
OBJECT
 62
     7
 10
54.314579
 20
43.427869
 30
0.0
 40
0.1
  0
CIRCLE
  8
OBJECT
 62
     7
 10
54.314579
 20
44.677869
 30
0.0
 40
0.1
  0
CIRCLE
  8
OBJECT
 62
     7
 10
54.314579
 20
45.802869
 30
0.0
 40
0.1
  0
CIRCLE
  8
OBJECT
 62
     7
 10
54.314579
 20
45.177869
 30
0.0
 40
0.1
  0
CIRCLE
  8
OBJECT
 62
     7
 10
54.314579
 20
46.427869
 30
0.0
 40
0.1
  0
CIRCLE
  8
OBJECT
 62
     7
 10
54.314579
 20
47.552869
 30
0.0
 40
0.1
  0
CIRCLE
  8
OBJECT
 62
     7
 10
54.314579
 20
46.927869
 30
0.0
 40
0.1
  0
CIRCLE
  8
OBJECT
 62
     7
 10
54.314579
 20
48.177869
 30
0.0
 40
0.1
  0
CIRCLE
  8
OBJECT
 62
     7
 10
54.314579
 20
49.302869
 30
0.0
 40
0.1
  0
CIRCLE
  8
OBJECT
 62
     7
 10
54.314579
 20
48.677869
 30
0.0
 40
0.1
  0
CIRCLE
  8
OBJECT
 62
     7
 10
54.314579
 20
49.927869
 30
0.0
 40
0.1
  0
CIRCLE
  8
OBJECT
 62
     7
 10
54.314579
 20
51.052869
 30
0.0
 40
0.1
  0
CIRCLE
  8
OBJECT
 62
     7
 10
54.314579
 20
50.427869
 30
0.0
 40
0.1
  0
CIRCLE
  8
OBJECT
 62
     7
 10
54.314579
 20
51.677869
 30
0.0
 40
0.1
  0
CIRCLE
  8
OBJECT
 62
     7
 10
54.314579
 20
52.802869
 30
0.0
 40
0.1
  0
CIRCLE
  8
OBJECT
 62
     7
 10
54.314579
 20
52.177869
 30
0.0
 40
0.1
  0
CIRCLE
  8
OBJECT
 62
     7
 10
54.314579
 20
53.427869
 30
0.0
 40
0.1
  0
CIRCLE
  8
OBJECT
 62
     7
 10
54.314579
 20
54.552869
 30
0.0
 40
0.1
  0
CIRCLE
  8
OBJECT
 62
     7
 10
54.314579
 20
53.927869
 30
0.0
 40
0.1
  0
CIRCLE
  8
OBJECT
 62
     7
 10
54.314579
 20
55.177869
 30
0.0
 40
0.1
  0
CIRCLE
  8
OBJECT
 62
     7
 10
54.314579
 20
56.302869
 30
0.0
 40
0.1
  0
CIRCLE
  8
OBJECT
 62
     7
 10
54.314579
 20
55.677869
 30
0.0
 40
0.1
  0
CIRCLE
  8
OBJECT
 62
     7
 10
54.314579
 20
56.927869
 30
0.0
 40
0.1
  0
CIRCLE
  8
OBJECT
 62
     7
 10
54.314579
 20
58.052869
 30
0.0
 40
0.1
  0
CIRCLE
  8
OBJECT
 62
     7
 10
54.314579
 20
57.427869
 30
0.0
 40
0.1
  0
CIRCLE
  8
OBJECT
 62
     7
 10
54.314579
 20
58.677869
 30
0.0
 40
0.1
  0
CIRCLE
  8
OBJECT
 62
     7
 10
54.314579
 20
59.802869
 30
0.0
 40
0.1
  0
CIRCLE
  8
OBJECT
 62
     7
 10
54.314579
 20
59.177869
 30
0.0
 40
0.1
  0
CIRCLE
  8
OBJECT
 62
     7
 10
54.314579
 20
60.427869
 30
0.0
 40
0.1
  0
CIRCLE
  8
OBJECT
 62
     7
 10
54.314579
 20
61.552869
 30
0.0
 40
0.1
  0
CIRCLE
  8
OBJECT
 62
     7
 10
54.314579
 20
60.927869
 30
0.0
 40
0.1
  0
CIRCLE
  8
OBJECT
 62
     7
 10
54.314579
 20
62.177869
 30
0.0
 40
0.1
  0
CIRCLE
  8
OBJECT
 62
     7
 10
54.314579
 20
63.302869
 30
0.0
 40
0.1
  0
CIRCLE
  8
OBJECT
 62
     7
 10
54.314579
 20
62.677869
 30
0.0
 40
0.1
  0
CIRCLE
  8
OBJECT
 62
     7
 10
54.314579
 20
63.927869
 30
0.0
 40
0.1
  0
CIRCLE
  8
OBJECT
 62
     7
 10
54.314579
 20
65.052869
 30
0.0
 40
0.1
  0
CIRCLE
  8
OBJECT
 62
     7
 10
54.314579
 20
64.427869
 30
0.0
 40
0.1
  0
CIRCLE
  8
OBJECT
 62
     7
 10
54.314579
 20
65.677869
 30
0.0
 40
0.1
  0
CIRCLE
  8
OBJECT
 62
     7
 10
54.314579
 20
66.802869
 30
0.0
 40
0.1
  0
CIRCLE
  8
OBJECT
 62
     7
 10
54.314579
 20
66.177869
 30
0.0
 40
0.1
  0
CIRCLE
  8
OBJECT
 62
     7
 10
54.314579
 20
67.427869
 30
0.0
 40
0.1
  0
CIRCLE
  8
OBJECT
 62
     7
 10
54.314579
 20
68.552869
 30
0.0
 40
0.1
  0
CIRCLE
  8
OBJECT
 62
     7
 10
54.314579
 20
67.927869
 30
0.0
 40
0.1
  0
CIRCLE
  8
OBJECT
 62
     7
 10
54.314579
 20
69.177869
 30
0.0
 40
0.1
  0
CIRCLE
  8
OBJECT
 62
     7
 10
54.314579
 20
70.302869
 30
0.0
 40
0.1
  0
CIRCLE
  8
OBJECT
 62
     7
 10
54.314579
 20
69.677869
 30
0.0
 40
0.1
  0
CIRCLE
  8
OBJECT
 62
     7
 10
54.314579
 20
70.927869
 30
0.0
 40
0.1
  0
CIRCLE
  8
OBJECT
 62
     7
 10
54.314579
 20
72.052869
 30
0.0
 40
0.1
  0
CIRCLE
  8
OBJECT
 62
     7
 10
54.314579
 20
71.427869
 30
0.0
 40
0.1
  0
CIRCLE
  8
OBJECT
 62
     7
 10
54.314579
 20
72.677869
 30
0.0
 40
0.1
  0
CIRCLE
  8
OBJECT
 62
     7
 10
54.314579
 20
73.802869
 30
0.0
 40
0.1
  0
CIRCLE
  8
OBJECT
 62
     7
 10
54.314579
 20
73.177869
 30
0.0
 40
0.1
  0
CIRCLE
  8
OBJECT
 62
     7
 10
54.314579
 20
74.427869
 30
0.0
 40
0.1
  0
CIRCLE
  8
OBJECT
 62
     7
 10
54.314579
 20
75.552869
 30
0.0
 40
0.1
  0
CIRCLE
  8
OBJECT
 62
     7
 10
54.314579
 20
74.927869
 30
0.0
 40
0.1
  0
CIRCLE
  8
OBJECT
 62
     7
 10
54.314579
 20
76.177869
 30
0.0
 40
0.1
  0
CIRCLE
  8
OBJECT
 62
     7
 10
54.314579
 20
77.302869
 30
0.0
 40
0.1
  0
CIRCLE
  8
OBJECT
 62
     7
 10
54.314579
 20
76.677869
 30
0.0
 40
0.1
  0
CIRCLE
  8
OBJECT
 62
     7
 10
54.314579
 20
77.927869
 30
0.0
 40
0.1
  0
CIRCLE
  8
OBJECT
 62
     7
 10
54.314579
 20
79.052869
 30
0.0
 40
0.1
  0
CIRCLE
  8
OBJECT
 62
     7
 10
54.314579
 20
78.427869
 30
0.0
 40
0.1
  0
CIRCLE
  8
OBJECT
 62
     7
 10
54.314579
 20
79.677869
 30
0.0
 40
0.1
  0
CIRCLE
  8
OBJECT
 62
     7
 10
54.314579
 20
80.802869
 30
0.0
 40
0.1
  0
CIRCLE
  8
OBJECT
 62
     7
 10
54.314579
 20
80.177869
 30
0.0
 40
0.1
  0
CIRCLE
  8
OBJECT
 62
     7
 10
54.314579
 20
81.427869
 30
0.0
 40
0.1
  0
CIRCLE
  8
OBJECT
 62
     7
 10
54.314579
 20
82.552869
 30
0.0
 40
0.1
  0
CIRCLE
  8
OBJECT
 62
     7
 10
54.314579
 20
81.927869
 30
0.0
 40
0.1
  0
CIRCLE
  8
OBJECT
 62
     7
 10
54.314579
 20
83.177869
 30
0.0
 40
0.1
  0
CIRCLE
  8
OBJECT
 62
     7
 10
54.314579
 20
84.302869
 30
0.0
 40
0.1
  0
CIRCLE
  8
OBJECT
 62
     7
 10
54.314579
 20
83.677869
 30
0.0
 40
0.1
  0
CIRCLE
  8
OBJECT
 62
     7
 10
54.314579
 20
84.927869
 30
0.0
 40
0.1
  0
CIRCLE
  8
OBJECT
 62
     7
 10
54.314579
 20
86.052869
 30
0.0
 40
0.1
  0
CIRCLE
  8
OBJECT
 62
     7
 10
54.314579
 20
85.427869
 30
0.0
 40
0.1
  0
CIRCLE
  8
OBJECT
 62
     7
 10
54.314579
 20
86.677869
 30
0.0
 40
0.1
  0
CIRCLE
  8
OBJECT
 62
     7
 10
54.314579
 20
87.802869
 30
0.0
 40
0.1
  0
CIRCLE
  8
OBJECT
 62
     7
 10
54.314579
 20
87.177869
 30
0.0
 40
0.1
  0
CIRCLE
  8
OBJECT
 62
     7
 10
54.314579
 20
88.427869
 30
0.0
 40
0.1
  0
CIRCLE
  8
OBJECT
 62
     7
 10
72.626579
 20
88.427869
 30
0.0
 40
0.1
  0
CIRCLE
  8
OBJECT
 62
     7
 10
72.626579
 20
87.177869
 30
0.0
 40
0.1
  0
CIRCLE
  8
OBJECT
 62
     7
 10
72.626579
 20
87.802869
 30
0.0
 40
0.1
  0
CIRCLE
  8
OBJECT
 62
     7
 10
72.626579
 20
86.677869
 30
0.0
 40
0.1
  0
CIRCLE
  8
OBJECT
 62
     7
 10
72.626579
 20
86.052869
 30
0.0
 40
0.1
  0
CIRCLE
  8
OBJECT
 62
     7
 10
72.626579
 20
85.427869
 30
0.0
 40
0.1
  0
CIRCLE
  8
OBJECT
 62
     7
 10
72.626579
 20
84.927869
 30
0.0
 40
0.1
  0
CIRCLE
  8
OBJECT
 62
     7
 10
72.626579
 20
84.302869
 30
0.0
 40
0.1
  0
CIRCLE
  8
OBJECT
 62
     7
 10
72.626579
 20
83.677869
 30
0.0
 40
0.1
  0
CIRCLE
  8
OBJECT
 62
     7
 10
72.626579
 20
83.177869
 30
0.0
 40
0.1
  0
CIRCLE
  8
OBJECT
 62
     7
 10
72.626579
 20
82.552869
 30
0.0
 40
0.1
  0
CIRCLE
  8
OBJECT
 62
     7
 10
72.626579
 20
81.927869
 30
0.0
 40
0.1
  0
CIRCLE
  8
OBJECT
 62
     7
 10
72.626579
 20
81.427869
 30
0.0
 40
0.1
  0
CIRCLE
  8
OBJECT
 62
     7
 10
72.626579
 20
80.802869
 30
0.0
 40
0.1
  0
CIRCLE
  8
OBJECT
 62
     7
 10
72.626579
 20
80.177869
 30
0.0
 40
0.1
  0
CIRCLE
  8
OBJECT
 62
     7
 10
72.626579
 20
79.677869
 30
0.0
 40
0.1
  0
CIRCLE
  8
OBJECT
 62
     7
 10
72.626579
 20
79.052869
 30
0.0
 40
0.1
  0
CIRCLE
  8
OBJECT
 62
     7
 10
72.626579
 20
78.427869
 30
0.0
 40
0.1
  0
CIRCLE
  8
OBJECT
 62
     7
 10
72.626579
 20
77.927869
 30
0.0
 40
0.1
  0
CIRCLE
  8
OBJECT
 62
     7
 10
72.626579
 20
77.302869
 30
0.0
 40
0.1
  0
CIRCLE
  8
OBJECT
 62
     7
 10
72.626579
 20
76.677869
 30
0.0
 40
0.1
  0
CIRCLE
  8
OBJECT
 62
     7
 10
72.626579
 20
76.177869
 30
0.0
 40
0.1
  0
CIRCLE
  8
OBJECT
 62
     7
 10
72.626579
 20
75.552869
 30
0.0
 40
0.1
  0
CIRCLE
  8
OBJECT
 62
     7
 10
72.626579
 20
74.927869
 30
0.0
 40
0.1
  0
CIRCLE
  8
OBJECT
 62
     7
 10
72.626579
 20
74.427869
 30
0.0
 40
0.1
  0
CIRCLE
  8
OBJECT
 62
     7
 10
72.626579
 20
73.802869
 30
0.0
 40
0.1
  0
CIRCLE
  8
OBJECT
 62
     7
 10
72.626579
 20
73.177869
 30
0.0
 40
0.1
  0
CIRCLE
  8
OBJECT
 62
     7
 10
72.626579
 20
72.677869
 30
0.0
 40
0.1
  0
CIRCLE
  8
OBJECT
 62
     7
 10
72.626579
 20
72.052869
 30
0.0
 40
0.1
  0
CIRCLE
  8
OBJECT
 62
     7
 10
72.626579
 20
71.427869
 30
0.0
 40
0.1
  0
CIRCLE
  8
OBJECT
 62
     7
 10
72.626579
 20
70.927869
 30
0.0
 40
0.1
  0
CIRCLE
  8
OBJECT
 62
     7
 10
72.626579
 20
70.302869
 30
0.0
 40
0.1
  0
CIRCLE
  8
OBJECT
 62
     7
 10
72.626579
 20
69.677869
 30
0.0
 40
0.1
  0
CIRCLE
  8
OBJECT
 62
     7
 10
72.626579
 20
69.177869
 30
0.0
 40
0.1
  0
CIRCLE
  8
OBJECT
 62
     7
 10
72.626579
 20
68.552869
 30
0.0
 40
0.1
  0
CIRCLE
  8
OBJECT
 62
     7
 10
72.626579
 20
67.927869
 30
0.0
 40
0.1
  0
CIRCLE
  8
OBJECT
 62
     7
 10
72.626579
 20
67.427869
 30
0.0
 40
0.1
  0
CIRCLE
  8
OBJECT
 62
     7
 10
72.626579
 20
66.802869
 30
0.0
 40
0.1
  0
CIRCLE
  8
OBJECT
 62
     7
 10
72.626579
 20
66.177869
 30
0.0
 40
0.1
  0
CIRCLE
  8
OBJECT
 62
     7
 10
72.626579
 20
65.677869
 30
0.0
 40
0.1
  0
CIRCLE
  8
OBJECT
 62
     7
 10
72.626579
 20
65.052869
 30
0.0
 40
0.1
  0
CIRCLE
  8
OBJECT
 62
     7
 10
72.626579
 20
64.427869
 30
0.0
 40
0.1
  0
CIRCLE
  8
OBJECT
 62
     7
 10
72.626579
 20
63.927869
 30
0.0
 40
0.1
  0
CIRCLE
  8
OBJECT
 62
     7
 10
72.626579
 20
63.302869
 30
0.0
 40
0.1
  0
CIRCLE
  8
OBJECT
 62
     7
 10
72.626579
 20
62.677869
 30
0.0
 40
0.1
  0
CIRCLE
  8
OBJECT
 62
     7
 10
72.626579
 20
62.177869
 30
0.0
 40
0.1
  0
CIRCLE
  8
OBJECT
 62
     7
 10
72.626579
 20
61.552869
 30
0.0
 40
0.1
  0
CIRCLE
  8
OBJECT
 62
     7
 10
72.626579
 20
60.927869
 30
0.0
 40
0.1
  0
CIRCLE
  8
OBJECT
 62
     7
 10
72.626579
 20
60.427869
 30
0.0
 40
0.1
  0
CIRCLE
  8
OBJECT
 62
     7
 10
72.626579
 20
59.802869
 30
0.0
 40
0.1
  0
CIRCLE
  8
OBJECT
 62
     7
 10
72.626579
 20
59.177869
 30
0.0
 40
0.1
  0
CIRCLE
  8
OBJECT
 62
     7
 10
72.626579
 20
58.677869
 30
0.0
 40
0.1
  0
CIRCLE
  8
OBJECT
 62
     7
 10
72.626579
 20
58.052869
 30
0.0
 40
0.1
  0
CIRCLE
  8
OBJECT
 62
     7
 10
72.626579
 20
57.427869
 30
0.0
 40
0.1
  0
CIRCLE
  8
OBJECT
 62
     7
 10
72.626579
 20
56.927869
 30
0.0
 40
0.1
  0
CIRCLE
  8
OBJECT
 62
     7
 10
72.626579
 20
56.302869
 30
0.0
 40
0.1
  0
CIRCLE
  8
OBJECT
 62
     7
 10
72.626579
 20
55.677869
 30
0.0
 40
0.1
  0
CIRCLE
  8
OBJECT
 62
     7
 10
72.626579
 20
55.177869
 30
0.0
 40
0.1
  0
CIRCLE
  8
OBJECT
 62
     7
 10
72.626579
 20
54.552869
 30
0.0
 40
0.1
  0
CIRCLE
  8
OBJECT
 62
     7
 10
72.626579
 20
53.927869
 30
0.0
 40
0.1
  0
CIRCLE
  8
OBJECT
 62
     7
 10
72.626579
 20
53.427869
 30
0.0
 40
0.1
  0
CIRCLE
  8
OBJECT
 62
     7
 10
72.626579
 20
52.802869
 30
0.0
 40
0.1
  0
CIRCLE
  8
OBJECT
 62
     7
 10
72.626579
 20
52.177869
 30
0.0
 40
0.1
  0
CIRCLE
  8
OBJECT
 62
     7
 10
72.626579
 20
51.677869
 30
0.0
 40
0.1
  0
CIRCLE
  8
OBJECT
 62
     7
 10
72.626579
 20
51.052869
 30
0.0
 40
0.1
  0
CIRCLE
  8
OBJECT
 62
     7
 10
72.626579
 20
50.427869
 30
0.0
 40
0.1
  0
CIRCLE
  8
OBJECT
 62
     7
 10
72.626579
 20
49.927869
 30
0.0
 40
0.1
  0
CIRCLE
  8
OBJECT
 62
     7
 10
72.626579
 20
49.302869
 30
0.0
 40
0.1
  0
CIRCLE
  8
OBJECT
 62
     7
 10
72.626579
 20
48.677869
 30
0.0
 40
0.1
  0
CIRCLE
  8
OBJECT
 62
     7
 10
72.626579
 20
48.177869
 30
0.0
 40
0.1
  0
CIRCLE
  8
OBJECT
 62
     7
 10
72.626579
 20
47.552869
 30
0.0
 40
0.1
  0
CIRCLE
  8
OBJECT
 62
     7
 10
72.626579
 20
46.927869
 30
0.0
 40
0.1
  0
CIRCLE
  8
OBJECT
 62
     7
 10
72.626579
 20
46.427869
 30
0.0
 40
0.1
  0
CIRCLE
  8
OBJECT
 62
     7
 10
72.626579
 20
45.802869
 30
0.0
 40
0.1
  0
CIRCLE
  8
OBJECT
 62
     7
 10
72.626579
 20
45.177869
 30
0.0
 40
0.1
  0
CIRCLE
  8
OBJECT
 62
     7
 10
72.626579
 20
44.677869
 30
0.0
 40
0.1
  0
CIRCLE
  8
OBJECT
 62
     7
 10
72.626579
 20
44.052869
 30
0.0
 40
0.1
  0
CIRCLE
  8
OBJECT
 62
     7
 10
72.626579
 20
43.427869
 30
0.0
 40
0.1
  0
CIRCLE
  8
OBJECT
 62
     7
 10
72.626579
 20
42.927869
 30
0.0
 40
0.1
  0
CIRCLE
  8
OBJECT
 62
     7
 10
72.626579
 20
42.302869
 30
0.0
 40
0.1
  0
CIRCLE
  8
OBJECT
 62
     7
 10
72.626579
 20
41.677869
 30
0.0
 40
0.1
  0
CIRCLE
  8
OBJECT
 62
     7
 10
72.626579
 20
41.177869
 30
0.0
 40
0.1
  0
CIRCLE
  8
OBJECT
 62
     7
 10
72.626579
 20
40.552869
 30
0.0
 40
0.1
  0
CIRCLE
  8
OBJECT
 62
     7
 10
72.626579
 20
39.927869
 30
0.0
 40
0.1
  0
CIRCLE
  8
OBJECT
 62
     7
 10
72.626579
 20
39.427869
 30
0.0
 40
0.1
  0
CIRCLE
  8
OBJECT
 62
     7
 10
72.626579
 20
38.802869
 30
0.0
 40
0.1
  0
CIRCLE
  8
OBJECT
 62
     7
 10
72.626579
 20
38.177869
 30
0.0
 40
0.1
  0
CIRCLE
  8
OBJECT
 62
     7
 10
72.626579
 20
37.677869
 30
0.0
 40
0.1
  0
CIRCLE
  8
OBJECT
 62
     7
 10
72.626579
 20
37.052869
 30
0.0
 40
0.1
  0
CIRCLE
  8
OBJECT
 62
     7
 10
72.626579
 20
36.427869
 30
0.0
 40
0.1
  0
CIRCLE
  8
OBJECT
 62
     7
 10
72.626579
 20
35.927869
 30
0.0
 40
0.1
  0
CIRCLE
  8
OBJECT
 62
     7
 10
72.626579
 20
35.302869
 30
0.0
 40
0.1
  0
CIRCLE
  8
OBJECT
 62
     7
 10
72.626579
 20
34.677869
 30
0.0
 40
0.1
  0
CIRCLE
  8
OBJECT
 62
     7
 10
72.626579
 20
34.177869
 30
0.0
 40
0.1
  0
CIRCLE
  8
OBJECT
 62
     7
 10
72.626579
 20
33.552869
 30
0.0
 40
0.1
  0
CIRCLE
  8
OBJECT
 62
     7
 10
72.626579
 20
32.927869
 30
0.0
 40
0.1
  0
CIRCLE
  8
OBJECT
 62
     7
 10
72.626579
 20
32.427869
 30
0.0
 40
0.1
  0
CIRCLE
  8
OBJECT
 62
     7
 10
72.626579
 20
31.802869
 30
0.0
 40
0.1
  0
CIRCLE
  8
OBJECT
 62
     7
 10
72.626579
 20
31.177869
 30
0.0
 40
0.1
  0
CIRCLE
  8
OBJECT
 62
     7
 10
72.626579
 20
30.677869
 30
0.0
 40
0.1
  0
CIRCLE
  8
OBJECT
 62
     7
 10
72.626579
 20
30.052869
 30
0.0
 40
0.1
  0
CIRCLE
  8
OBJECT
 62
     7
 10
72.626579
 20
29.427869
 30
0.0
 40
0.1
  0
CIRCLE
  8
OBJECT
 62
     7
 10
72.626579
 20
28.927869
 30
0.0
 40
0.1
  0
CIRCLE
  8
OBJECT
 62
     7
 10
72.626579
 20
28.302869
 30
0.0
 40
0.1
  0
CIRCLE
  8
OBJECT
 62
     7
 10
72.626579
 20
27.677869
 30
0.0
 40
0.1
  0
CIRCLE
  8
OBJECT
 62
     7
 10
72.626579
 20
27.177869
 30
0.0
 40
0.1
  0
CIRCLE
  8
OBJECT
 62
     7
 10
72.626579
 20
26.552869
 30
0.0
 40
0.1
  0
CIRCLE
  8
OBJECT
 62
     7
 10
72.626579
 20
25.927869
 30
0.0
 40
0.1
  0
CIRCLE
  8
OBJECT
 62
     7
 10
72.626579
 20
25.427869
 30
0.0
 40
0.1
  0
CIRCLE
  8
OBJECT
 62
     7
 10
72.626579
 20
24.802869
 30
0.0
 40
0.1
  0
CIRCLE
  8
OBJECT
 62
     7
 10
72.626579
 20
24.177869
 30
0.0
 40
0.1
  0
CIRCLE
  8
OBJECT
 62
     7
 10
72.626579
 20
23.677869
 30
0.0
 40
0.1
  0
CIRCLE
  8
OBJECT
 62
     7
 10
72.626579
 20
23.052869
 30
0.0
 40
0.1
  0
CIRCLE
  8
OBJECT
 62
     7
 10
72.626579
 20
22.427869
 30
0.0
 40
0.1
  0
CIRCLE
  8
OBJECT
 62
     7
 10
72.626579
 20
21.927869
 30
0.0
 40
0.1
  0
CIRCLE
  8
OBJECT
 62
     7
 10
72.626579
 20
21.302869
 30
0.0
 40
0.1
  0
CIRCLE
  8
OBJECT
 62
     7
 10
72.626579
 20
20.677869
 30
0.0
 40
0.1
  0
CIRCLE
  8
OBJECT
 62
     7
 10
72.626579
 20
20.177869
 30
0.0
 40
0.1
  0
CIRCLE
  8
OBJECT
 62
     7
 10
72.626579
 20
19.552869
 30
0.0
 40
0.1
  0
CIRCLE
  8
OBJECT
 62
     7
 10
72.626579
 20
18.927869
 30
0.0
 40
0.1
  0
CIRCLE
  8
OBJECT
 62
     7
 10
72.626579
 20
18.427869
 30
0.0
 40
0.1
  0
CIRCLE
  8
OBJECT
 62
     7
 10
72.626579
 20
17.802869
 30
0.0
 40
0.1
  0
CIRCLE
  8
OBJECT
 62
     7
 10
72.626579
 20
17.177869
 30
0.0
 40
0.1
  0
CIRCLE
  8
OBJECT
 62
     7
 10
72.626579
 20
16.677869
 30
0.0
 40
0.1
  0
CIRCLE
  8
OBJECT
 62
     7
 10
72.626579
 20
16.052869
 30
0.0
 40
0.1
  0
CIRCLE
  8
OBJECT
 62
     7
 10
72.626579
 20
15.427869
 30
0.0
 40
0.1
  0
CIRCLE
  8
OBJECT
 62
     7
 10
72.626579
 20
14.927869
 30
0.0
 40
0.1
  0
CIRCLE
  8
OBJECT
 62
     7
 10
72.626579
 20
14.302869
 30
0.0
 40
0.1
  0
CIRCLE
  8
OBJECT
 62
     7
 10
72.626579
 20
13.677869
 30
0.0
 40
0.1
  0
CIRCLE
  8
OBJECT
 62
     7
 10
72.626579
 20
13.177869
 30
0.0
 40
0.1
  0
CIRCLE
  8
OBJECT
 62
     7
 10
72.626579
 20
12.552869
 30
0.0
 40
0.1
  0
CIRCLE
  8
OBJECT
 62
     7
 10
72.626579
 20
11.927869
 30
0.0
 40
0.1
  0
CIRCLE
  8
OBJECT
 62
     7
 10
72.626579
 20
11.427869
 30
0.0
 40
0.1
  0
CIRCLE
  8
OBJECT
 62
     7
 10
72.626579
 20
10.802869
 30
0.0
 40
0.1
  0
CIRCLE
  8
HIDDEN
 62
     7
 10
72.626579
 20
10.177869
 30
0.0
 40
0.1
  0
DIMENSION
  8
DIM
 62
     7
  2
*D20
 10
35.719493
 20
91.114869
 30
0.0
 11
35.719493
 21
90.364869
 31
0.0
 12
-0.252807
 22
2.381446
 32
0.0
  1
<>
 13
31.467592
 23
89.614869
 33
0.0
 14
32.967592
 24
91.114869
 34
0.0
 50
90.0
  3
23NSTDI
  0
DIMENSION
  8
DIM
 62
     7
  2
*D22
 10
32.967592
 20
95.320996
 30
0.0
 11
38.120717
 21
95.320996
 31
0.0
 12
-0.252807
 22
2.381446
 32
0.0
  1
<>
 13
31.467592
 23
91.114869
 33
0.0
 14
32.967592
 24
91.114869
 34
0.0
  3
23NSTD
  0
DIMENSION
  8
DIM
 62
     7
  2
*D7
 10
31.467592
 20
97.709496
 30
0.0
 11
36.687123
 21
97.709496
 31
0.0
 12
-3.031975
 22
1.760987
 32
0.0
 13
28.467592
 23
91.114869
 33
0.0
 14
31.467592
 24
91.114869
 34
0.0
  3
23NSTD
  0
DIMENSION
  8
DIM
 62
     7
  2
*D21
 10
26.967592
 20
92.932496
 30
0.0
 11
21.814467
 21
92.932496
 31
0.0
 12
-0.252807
 22
2.381446
 32
0.0
  1
<>
 13
28.467592
 23
91.114869
 33
0.0
 14
26.967592
 24
91.114869
 34
0.0
  3
23NSTD
  0
LINE
  8
OBJECT
 62
     7
 10
31.467592
 20
91.114869
 30
0.0
 11
28.467592
 21
91.114869
 31
0.0
  0
LINE
  8
OBJECT
 62
     7
 10
28.467592
 20
91.114869
 30
0.0
 11
26.967592
 21
91.114869
 31
0.0
  0
LINE
  8
OBJECT
 62
     7
 10
28.093592
 20
90.927869
 30
0.0
 11
27.092592
 21
90.927869
 31
0.0
  0
ARC
  8
OBJECT
 62
     7
 10
27.092592
 20
91.052869
 30
0.0
 40
0.125
 50
180.0
 51
270.0
  0
LINE
  8
OBJECT
 62
     7
 10
26.967592
 20
91.114869
 30
0.0
 11
26.967592
 21
91.052869
 31
0.0
  0
LINE
  8
OBJECT
 62
     7
 10
28.280592
 20
89.739869
 30
0.0
 11
28.280592
 21
90.740869
 31
0.0
  0
LINE
  8
OBJECT
 62
     7
 10
28.467592
 20
89.614869
 30
0.0
 11
28.467592
 21
91.114869
 31
0.0
  0
ARC
  8
OBJECT
 62
     7
 10
28.405592
 20
89.739869
 30
0.0
 40
0.125
 50
180.0
 51
270.0
  0
LINE
  8
OBJECT
 62
     7
 10
28.467592
 20
89.614869
 30
0.0
 11
28.405592
 21
89.614869
 31
0.0
  0
ARC
  8
OBJECT
 62
     7
 10
28.093592
 20
90.740869
 30
0.0
 40
0.187
 50
0.0
 51
90.0
  0
LINE
  8
BEND
 62
     7
 10
27.964592
 20
90.004025
 30
0.0
 11
27.964592
 21
90.725713
 31
0.0
  0
LINE
  8
BEND
 62
     7
 10
27.964592
 20
90.725713
 30
0.0
 11
28.280592
 21
90.725713
 31
0.0
  0
LINE
  8
BEND
 62
     7
 10
27.964592
 20
90.004025
 30
0.0
 11
28.280592
 21
90.004025
 31
0.0
  0
LINE
  8
BEND
 62
     7
 10
28.280592
 20
90.545291
 30
0.0
 11
27.964592
 21
90.545291
 31
0.0
  0
LINE
  8
BEND
 62
     7
 10
28.280592
 20
90.184447
 30
0.0
 11
27.964592
 21
90.184447
 31
0.0
  0
LINE
  8
OBJECT
 62
     7
 10
31.467592
 20
89.614869
 30
0.0
 11
31.467592
 21
91.114869
 31
0.0
  0
LINE
  8
OBJECT
 62
     7
 10
31.654592
 20
89.739869
 30
0.0
 11
31.654592
 21
90.740869
 31
0.0
  0
LINE
  8
OBJECT
 62
     7
 10
31.467592
 20
89.614869
 30
0.0
 11
31.529592
 21
89.614869
 31
0.0
  0
ARC
  8
OBJECT
 62
     7
 10
31.529592
 20
89.739869
 30
0.0
 40
0.125
 50
270.0
 51
0.0
  0
LINE
  8
BEND
 62
     7
 10
31.654592
 20
90.184447
 30
0.0
 11
31.970592
 21
90.184447
 31
0.0
  0
LINE
  8
BEND
 62
     7
 10
31.654592
 20
90.545291
 30
0.0
 11
31.970592
 21
90.545291
 31
0.0
  0
LINE
  8
BEND
 62
     7
 10
31.970592
 20
90.004025
 30
0.0
 11
31.654592
 21
90.004025
 31
0.0
  0
LINE
  8
BEND
 62
     7
 10
31.970592
 20
90.725713
 30
0.0
 11
31.654592
 21
90.725713
 31
0.0
  0
ARC
  8
OBJECT
 62
     7
 10
31.841592
 20
90.740869
 30
0.0
 40
0.187
 50
90.0
 51
180.0
  0
LINE
  8
OBJECT
 62
     7
 10
31.467592
 20
91.114869
 30
0.0
 11
32.967592
 21
91.114869
 31
0.0
  0
LINE
  8
BEND
 62
     7
 10
31.970592
 20
90.004025
 30
0.0
 11
31.970592
 21
90.725713
 31
0.0
  0
LINE
  8
OBJECT
 62
     7
 10
32.967592
 20
91.114869
 30
0.0
 11
32.967592
 21
91.052869
 31
0.0
  0
ARC
  8
OBJECT
 62
     7
 10
32.842592
 20
91.052869
 30
0.0
 40
0.125
 50
270.0
 51
0.0
  0
LINE
  8
OBJECT
 62
     7
 10
31.841592
 20
90.927869
 30
0.0
 11
32.842592
 21
90.927869
 31
0.0
  0
TEXT
  8
TEXT
 10
4.510024
 20
118.289476
 30
0.0
 40
1.0625
  1
& TOP ANGLES
 41
0.75
  0
TEXT
  8
TEXT
 62
     7
 10
26.115243
 20
118.289476
 30
0.0
 40
1.0625
  1
ALUMINUM EXTRUSIONS
 41
0.75
  0
LINE
  8
TEXT
 10
25.56914
 20
118.289476
 30
0.0
 11
14.469667
 21
118.289476
 31
0.0
  0
POLYLINE
  8
DIM
 62
     7
 66
     1
 10
0.0
 20
0.0
 30
0.0
 41
0.54
  0
VERTEX
  8
DIM
 62
     7
 10
71.269648
 20
120.949482
 30
0.0
  0
VERTEX
  8
DIM
 62
     7
 10
70.398227
 20
122.095878
 30
0.0
 41
0.0
  0
VERTEX
  8
DIM
 62
     7
 10
67.856576
 20
125.439543
 30
0.0
 41
0.0
  0
VERTEX
  8
DIM
 62
     7
 10
66.416576
 20
125.439543
 30
0.0
 41
0.0
  0
SEQEND
  8
DIM
 62
     7
  0
TEXT
  8
DIM
 10
59.946576
 20
124.939543
 30
0.0
 40
1.0
  1
0.750 DIA.
 41
0.75
 72
     2
 11
65.696576
 21
125.439543
 31
0.0
 73
     2
  0
TEXT
  8
DIM
 62
     7
 10
59.696576
 20
123.272877
 30
0.0
 40
1.0
  1
(4) HOLES
 41
0.75
 72
     2
 11
65.696576
 21
123.772877
 31
0.0
 73
     2
  0
LINE
  8
VCCOVER
 62
     7
 10
53.330079
 20
7.614869
 30
0.0
 11
53.330079
 21
90.614869
 31
0.0
  0
LINE
  8
VCCOVER
 62
     7
 10
50.329079
 20
7.614869
 30
0.0
 11
50.329079
 21
90.614869
 31
0.0
  0
DIMENSION
  8
DIM
 62
     7
  2
*D19
 10
79.602499
 20
90.614869
 30
0.0
 11
79.602499
 21
84.864869
 31
0.0
 12
-2.981849
 22
2.381446
 32
0.0
 13
76.112079
 23
79.114869
 33
0.0
 14
76.674079
 24
90.614869
 34
0.0
 50
90.0
  3
23NSTD
  0
DIMENSION
  8
DIM
 62
     7
  2
*D14
 10
79.602499
 20
67.114869
 30
0.0
 11
79.602499
 21
73.114869
 31
0.0
 12
-2.981849
 22
2.381446
 32
0.0
 13
76.112079
 23
79.114869
 33
0.0
 14
76.112079
 24
67.114869
 34
0.0
 50
90.0
  3
23NSTD
  0
DIMENSION
  8
DIM
 62
     7
  2
*D18
 10
79.602499
 20
55.114869
 30
0.0
 11
79.602499
 21
61.114869
 31
0.0
 12
-2.981849
 22
2.381446
 32
0.0
 13
76.112079
 23
67.114869
 33
0.0
 14
76.112079
 24
55.114869
 34
0.0
 50
90.0
  3
23NSTD
  0
DIMENSION
  8
DIM
 62
     7
  2
*D16
 10
79.602499
 20
43.114869
 30
0.0
 11
79.602499
 21
49.114869
 31
0.0
 12
-2.981849
 22
2.381446
 32
0.0
 13
76.112079
 23
55.114869
 33
0.0
 14
76.112079
 24
43.114869
 34
0.0
 50
90.0
  3
23NSTD
  0
DIMENSION
  8
DIM
 62
     7
  2
*D17
 10
79.602499
 20
31.114869
 30
0.0
 11
79.602499
 21
37.114869
 31
0.0
 12
-2.981849
 22
2.381446
 32
0.0
 13
76.112079
 23
43.114869
 33
0.0
 14
76.112079
 24
31.114869
 34
0.0
 50
90.0
  3
23NSTD
  0
DIMENSION
  8
DIM
 62
     7
  2
*D15
 10
79.602499
 20
19.114869
 30
0.0
 11
79.602499
 21
25.114869
 31
0.0
 12
-2.981849
 22
2.381446
 32
0.0
 13
76.112079
 23
31.114869
 33
0.0
 14
76.112079
 24
19.114869
 34
0.0
 50
90.0
  3
23NSTD
  0
DIMENSION
  8
DIM
 62
     7
  2
*D13
 10
82.658929
 20
90.614869
 30
0.0
 11
82.658929
 21
52.217856
 31
0.0
 12
-2.981849
 22
2.381446
 32
0.0
 70
   128
 13
76.674079
 23
7.614869
 33
0.0
 14
76.674079
 24
90.614869
 34
0.0
 50
90.0
  3
23NSTD
  0
LINE
  8
VCCOVER
 62
     7
 10
53.361579
 20
115.975856
 30
0.0
 11
53.361579
 21
116.413856
 31
0.0
  0
LINE
  8
VCCOVER
 62
     7
 10
50.298579
 20
116.413856
 30
0.0
 11
50.298579
 21
115.975856
 31
0.0
  0
POLYLINE
  8
VCCOVER
 62
     7
 66
     1
 10
0.0
 20
0.0
 30
0.0
 70
     1
  0
VERTEX
  8
VCCOVER
 62
     7
 10
53.392579
 20
115.975856
 30
0.0
 42
-1.0
  0
VERTEX
  8
VCCOVER
 62
     7
 10
53.330579
 20
115.975856
 30
0.0
  0
VERTEX
  8
VCCOVER
 62
     7
 10
53.330579
 20
116.413856
 30
0.0
  0
VERTEX
  8
VCCOVER
 62
     7
 10
50.329579
 20
116.413856
 30
0.0
  0
VERTEX
  8
VCCOVER
 62
     7
 10
50.329579
 20
115.975856
 30
0.0
 42
-1.0
  0
VERTEX
  8
VCCOVER
 62
     7
 10
50.267579
 20
115.975856
 30
0.0
  0
VERTEX
  8
VCCOVER
 62
     7
 10
50.267579
 20
116.444856
 30
0.0
  0
VERTEX
  8
VCCOVER
 62
     7
 10
53.392579
 20
116.444856
 30
0.0
  0
SEQEND
  8
VCCOVER
 62
     7
  0
POLYLINE
  8
CWRING
 62
     7
 66
     1
 10
0.0
 20
0.0
 30
0.0
 70
     1
  0
VERTEX
  8
CWRING
 62
     7
 10
52.969579
 20
79.114869
 30
0.0
 42
1.0
  0
VERTEX
  8
CWRING
 62
     7
 10
52.689579
 20
79.114869
 30
0.0
  0
VERTEX
  8
CWRING
 62
     7
 10
52.689579
 20
78.364869
 30
0.0
  0
VERTEX
  8
CWRING
 62
     7
 10
50.454579
 20
78.364869
 30
0.0
  0
VERTEX
  8
CWRING
 62
     7
 10
50.454579
 20
79.864869
 30
0.0
  0
VERTEX
  8
CWRING
 62
     7
 10
53.204579
 20
79.864869
 30
0.0
  0
VERTEX
  8
CWRING
 62
     7
 10
53.204579
 20
78.364869
 30
0.0
  0
VERTEX
  8
CWRING
 62
     7
 10
52.969579
 20
78.364869
 30
0.0
  0
SEQEND
  8
CWRING
 62
     7
  0
LINE
  8
CWRING
 62
     7
 10
50.329579
 20
78.364869
 30
0.0
 11
53.329579
 21
78.364869
 31
0.0
  0
LINE
  8
CWRING
 62
     7
 10
50.329579
 20
79.864869
 30
0.0
 11
53.329579
 21
79.864869
 31
0.0
  0
LINE
  8
CWRING
  6
HIDDEN
 62
     7
 10
51.079579
 20
78.739869
 30
0.0
 11
52.579579
 21
78.739869
 31
0.0
  0
LINE
  8
CWRING
  6
HIDDEN
 62
     7
 10
52.579579
 20
79.489869
 30
0.0
 11
51.079579
 21
79.489869
 31
0.0
  0
LINE
  8
CWRING
  6
HIDDEN
 62
     7
 10
28.045592
 20
79.864869
 30
0.0
 11
28.045592
 21
78.364869
 31
0.0
  0
CIRCLE
  8
CWRING
 62
     7
 10
29.967592
 20
79.114869
 30
0.0
 40
0.1405
  0
LINE
  8
CWRING
  6
HIDDEN
 62
     7
 10
31.889592
 20
79.864869
 30
0.0
 11
31.889592
 21
78.364869
 31
0.0
  0
POLYLINE
  8
CWRING
 62
     7
 66
     1
 10
0.0
 20
0.0
 30
0.0
 70
     1
  0
VERTEX
  8
CWRING
 62
     7
 10
32.076592
 20
79.864869
 30
0.0
  0
VERTEX
  8
CWRING
 62
     7
 10
31.998592
 20
79.864869
 30
0.0
  0
VERTEX
  8
CWRING
 62
     7
 10
31.998592
 20
78.364869
 30
0.0
  0
VERTEX
  8
CWRING
 62
     7
 10
32.076592
 20
78.364869
 30
0.0
  0
SEQEND
  8
CWRING
 62
     7
  0
LINE
  8
CWRING
 62
     7
 10
50.329579
 20
79.864869
 30
0.0
 11
50.329579
 21
78.364869
 31
0.0
  0
LINE
  8
CWRING
  6
HIDDEN
 62
     7
 10
50.407579
 20
79.864869
 30
0.0
 11
50.407579
 21
78.364869
 31
0.0
  0
CIRCLE
  8
CWRING
 62
     7
 10
50.829579
 20
79.114869
 30
0.0
 40
0.14
  0
LINE
  8
CWRING
  6
HIDDEN
 62
     7
 10
51.079579
 20
78.614869
 30
0.0
 11
51.079579
 21
79.614869
 31
0.0
  0
LINE
  8
CWRING
  6
HIDDEN
 62
     7
 10
51.079579
 20
78.614869
 30
0.0
 11
50.829579
 21
78.364869
 31
0.0
  0
LINE
  8
CWRING
  6
HIDDEN
 62
     7
 10
51.079579
 20
79.614869
 30
0.0
 11
50.829579
 21
79.864869
 31
0.0
  0
CIRCLE
  8
CWRING
  6
HIDDEN
 62
     7
 10
50.829579
 20
79.114869
 30
0.0
 40
0.1405
  0
LINE
  8
CWRING
  6
HIDDEN
 62
     7
 10
53.251579
 20
79.864869
 30
0.0
 11
53.251579
 21
78.364869
 31
0.0
  0
LINE
  8
CWRING
 62
     7
 10
53.329579
 20
79.864869
 30
0.0
 11
53.329579
 21
78.364869
 31
0.0
  0
LINE
  8
CWRING
  6
HIDDEN
 62
     7
 10
52.579579
 20
78.614869
 30
0.0
 11
52.829579
 21
78.364869
 31
0.0
  0
CIRCLE
  8
CWRING
  6
HIDDEN
 62
     7
 10
52.829579
 20
79.114869
 30
0.0
 40
0.1405
  0
LINE
  8
CWRING
  6
HIDDEN
 62
     7
 10
52.579579
 20
78.614869
 30
0.0
 11
52.579579
 21
79.614869
 31
0.0
  0
LINE
  8
CWRING
  6
HIDDEN
 62
     7
 10
52.579579
 20
79.614869
 30
0.0
 11
52.829579
 21
79.864869
 31
0.0
  0
LINE
  8
VCCOVER
  6
HIDDEN
 62
     7
 10
27.936592
 20
7.614869
 30
0.0
 11
27.936592
 21
90.614869
 31
0.0
  0
POLYLINE
  8
OBJECT
 62
     7
 66
     1
 10
0.0
 20
0.0
 30
0.0
 70
     1
  0
VERTEX
  8
OBJECT
 62
     7
 10
53.329579
 20
115.882856
 30
0.0
  0
VERTEX
  8
OBJECT
 62
     7
 10
54.594579
 20
115.882856
 30
0.0
  0
VERTEX
  8
OBJECT
 62
     7
 10
54.594579
 20
115.785856
 30
0.0
 42
-0.414214
  0
VERTEX
  8
OBJECT
 62
     7
 10
54.504579
 20
115.695856
 30
0.0
  0
VERTEX
  8
OBJECT
 62
     7
 10
53.703579
 20
115.695856
 30
0.0
 42
0.414214
  0
VERTEX
  8
OBJECT
 62
     7
 10
53.485579
 20
115.477856
 30
0.0
  0
VERTEX
  8
OBJECT
 62
     7
 10
53.485579
 20
113.287856
 30
0.0
 42
0.414214
  0
VERTEX
  8
OBJECT
 62
     7
 10
53.703579
 20
113.069856
 30
0.0
  0
VERTEX
  8
OBJECT
 62
     7
 10
54.504579
 20
113.069856
 30
0.0
 42
-0.414214
  0
VERTEX
  8
OBJECT
 62
     7
 10
54.594579
 20
112.979856
 30
0.0
  0
VERTEX
  8
OBJECT
 62
     7
 10
54.594579
 20
112.882856
 30
0.0
  0
VERTEX
  8
OBJECT
 62
     7
 10
53.329579
 20
112.882856
 30
0.0
  0
SEQEND
  8
OBJECT
 62
     7
  0
POLYLINE
  8
OBJECT
 62
     7
 66
     1
 10
0.0
 20
0.0
 30
0.0
 70
     1
  0
VERTEX
  8
OBJECT
 62
     7
 10
73.611579
 20
115.882856
 30
0.0
  0
VERTEX
  8
OBJECT
 62
     7
 10
72.346579
 20
115.882856
 30
0.0
  0
VERTEX
  8
OBJECT
 62
     7
 10
72.346579
 20
115.785856
 30
0.0
 42
0.414214
  0
VERTEX
  8
OBJECT
 62
     7
 10
72.436579
 20
115.695856
 30
0.0
  0
VERTEX
  8
OBJECT
 62
     7
 10
73.237579
 20
115.695856
 30
0.0
 42
-0.414214
  0
VERTEX
  8
OBJECT
 62
     7
 10
73.455579
 20
115.477856
 30
0.0
  0
VERTEX
  8
OBJECT
 62
     7
 10
73.455579
 20
113.287856
 30
0.0
 42
-0.414214
  0
VERTEX
  8
OBJECT
 62
     7
 10
73.237579
 20
113.069856
 30
0.0
  0
VERTEX
  8
OBJECT
 62
     7
 10
72.436579
 20
113.069856
 30
0.0
 42
0.414214
  0
VERTEX
  8
OBJECT
 62
     7
 10
72.346579
 20
112.979856
 30
0.0
  0
VERTEX
  8
OBJECT
 62
     7
 10
72.346579
 20
112.882856
 30
0.0
  0
VERTEX
  8
OBJECT
 62
     7
 10
73.611579
 20
112.882856
 30
0.0
  0
SEQEND
  8
OBJECT
 62
     7
  0
LINE
  8
CRING
  6
HIDDEN
 62
     7
 10
31.545592
 20
49.739299
 30
0.0
 11
31.545592
 21
48.857921
 31
0.0
  0
LINE
  8
CRING
  6
HIDDEN
 62
     7
 10
34.889592
 20
49.802869
 30
0.0
 11
34.889592
 21
48.802869
 31
0.0
  0
LINE
  8
CRING
 62
     7
 10
53.781579
 20
49.177869
 30
0.0
 11
54.157579
 21
49.177869
 31
0.0
  0
LINE
  8
CRING
 62
     7
 10
53.781579
 20
49.427869
 30
0.0
 11
54.157579
 21
49.427869
 31
0.0
  0
LINE
  8
CRING
  6
HIDDEN
 62
     7
 10
53.422579
 20
49.802869
 30
0.0
 11
53.422579
 21
48.802869
 31
0.0
  0
LINE
  8
CRING
  6
HIDDEN
 62
     7
 10
54.516579
 20
49.802869
 30
0.0
 11
54.516579
 21
48.802869
 31
0.0
  0
POLYLINE
  8
CRING
 62
     7
 66
     1
 10
0.0
 20
0.0
 30
0.0
 70
     1
  0
VERTEX
  8
CRING
 62
     7
 10
53.594579
 20
48.802869
 30
0.0
 42
1.0
  0
VERTEX
  8
CRING
 62
     7
 10
53.594579
 20
48.552869
 30
0.0
  0
VERTEX
  8
CRING
 62
     7
 10
54.344579
 20
48.552869
 30
0.0
 42
1.0
  0
VERTEX
  8
CRING
 62
     7
 10
54.344579
 20
48.802869
 30
0.0
  0
SEQEND
  8
CRING
 62
     7
  0
POLYLINE
  8
CRING
 62
     7
 66
     1
 10
0.0
 20
0.0
 30
0.0
 70
     1
  0
VERTEX
  8
CRING
 62
     7
 10
53.594579
 20
49.802869
 30
0.0
 42
-1.0
  0
VERTEX
  8
CRING
 62
     7
 10
53.594579
 20
50.052869
 30
0.0
  0
VERTEX
  8
CRING
 62
     7
 10
54.344579
 20
50.052869
 30
0.0
 42
-1.0
  0
VERTEX
  8
CRING
 62
     7
 10
54.344579
 20
49.802869
 30
0.0
  0
SEQEND
  8
CRING
 62
     7
  0
POLYLINE
  8
CRING
 62
     7
 66
     1
 10
0.0
 20
0.0
 30
0.0
 70
     1
  0
VERTEX
  8
CRING
 62
     7
 10
53.344579
 20
109.382856
 30
0.0
  0
VERTEX
  8
CRING
 62
     7
 10
53.344579
 20
112.882856
 30
0.0
  0
VERTEX
  8
CRING
 62
     7
 10
54.594579
 20
112.882856
 30
0.0
  0
VERTEX
  8
CRING
 62
     7
 10
54.594579
 20
109.382856
 30
0.0
  0
VERTEX
  8
CRING
 62
     7
 10
54.157579
 20
109.382856
 30
0.0
  0
VERTEX
  8
CRING
 62
     7
 10
54.157579
 20
109.460856
 30
0.0
  0
VERTEX
  8
CRING
 62
     7
 10
54.516579
 20
109.460856
 30
0.0
  0
VERTEX
  8
CRING
 62
     7
 10
54.516579
 20
112.804856
 30
0.0
  0
VERTEX
  8
CRING
 62
     7
 10
53.422579
 20
112.804856
 30
0.0
  0
VERTEX
  8
CRING
 62
     7
 10
53.422579
 20
109.460856
 30
0.0
  0
VERTEX
  8
CRING
 62
     7
 10
53.781579
 20
109.460856
 30
0.0
  0
VERTEX
  8
CRING
 62
     7
 10
53.781579
 20
109.382856
 30
0.0
  0
SEQEND
  8
CRING
 62
     7
  0
POLYLINE
  8
CRING
 62
     7
 66
     1
 10
0.0
 20
0.0
 30
0.0
 70
     1
  0
VERTEX
  8
CRING
 62
     7
 10
31.545592
 20
50.177869
 30
0.0
  0
VERTEX
  8
CRING
 62
     7
 10
31.545592
 20
49.802869
 30
0.0
  0
VERTEX
  8
CRING
 62
     7
 10
34.967592
 20
49.802869
 30
0.0
  0
VERTEX
  8
CRING
 62
     7
 10
34.967592
 20
48.802869
 30
0.0
  0
VERTEX
  8
CRING
 62
     7
 10
31.545592
 20
48.802869
 30
0.0
  0
VERTEX
  8
CRING
 62
     7
 10
31.545592
 20
48.427869
 30
0.0
  0
VERTEX
  8
CRING
 62
     7
 10
31.467592
 20
48.427869
 30
0.0
  0
VERTEX
  8
CRING
 62
     7
 10
31.467592
 20
50.177869
 30
0.0
  0
SEQEND
  8
CRING
 62
     7
  0
POLYLINE
  8
CRING
 62
     7
 66
     1
 10
0.0
 20
0.0
 30
0.0
 70
     1
  0
VERTEX
  8
CRING
 62
     7
 10
53.344579
 20
48.427869
 30
0.0
  0
VERTEX
  8
CRING
 62
     7
 10
53.344579
 20
50.177869
 30
0.0
  0
VERTEX
  8
CRING
 62
     7
 10
54.594579
 20
50.177869
 30
0.0
  0
VERTEX
  8
CRING
 62
     7
 10
54.594579
 20
48.427869
 30
0.0
  0
SEQEND
  8
CRING
 62
     7
  0
POLYLINE
  8
CRING
 62
     7
 66
     1
 10
0.0
 20
0.0
 30
0.0
  0
VERTEX
  8
CRING
 62
     7
 10
53.344579
 20
49.802869
 30
0.0
  0
VERTEX
  8
CRING
 62
     7
 10
53.531579
 20
49.802869
 30
0.0
  0
VERTEX
  8
CRING
 62
     7
 10
53.781579
 20
49.552869
 30
0.0
  0
VERTEX
  8
CRING
 62
     7
 10
53.781579
 20
49.052869
 30
0.0
  0
VERTEX
  8
CRING
 62
     7
 10
53.531579
 20
48.802869
 30
0.0
  0
VERTEX
  8
CRING
 62
     7
 10
53.344579
 20
48.802869
 30
0.0
  0
SEQEND
  8
CRING
 62
     7
  0
POLYLINE
  8
CRING
 62
     7
 66
     1
 10
0.0
 20
0.0
 30
0.0
  0
VERTEX
  8
CRING
 62
     7
 10
54.594579
 20
49.802869
 30
0.0
  0
VERTEX
  8
CRING
 62
     7
 10
54.407579
 20
49.802869
 30
0.0
  0
VERTEX
  8
CRING
 62
     7
 10
54.157579
 20
49.552869
 30
0.0
  0
VERTEX
  8
CRING
 62
     7
 10
54.157579
 20
49.052869
 30
0.0
  0
VERTEX
  8
CRING
 62
     7
 10
54.407579
 20
48.802869
 30
0.0
  0
VERTEX
  8
CRING
 62
     7
 10
54.594579
 20
48.802869
 30
0.0
  0
SEQEND
  8
CRING
 62
     7
  0
POLYLINE
  8
CWRING
 62
     7
 66
     1
 10
0.0
 20
0.0
 30
0.0
 70
     1
  0
VERTEX
  8
CWRING
 62
     7
 10
52.969579
 20
67.114869
 30
0.0
 42
1.0
  0
VERTEX
  8
CWRING
 62
     7
 10
52.689579
 20
67.114869
 30
0.0
  0
VERTEX
  8
CWRING
 62
     7
 10
52.689579
 20
66.364869
 30
0.0
  0
VERTEX
  8
CWRING
 62
     7
 10
50.454579
 20
66.364869
 30
0.0
  0
VERTEX
  8
CWRING
 62
     7
 10
50.454579
 20
67.864869
 30
0.0
  0
VERTEX
  8
CWRING
 62
     7
 10
53.204579
 20
67.864869
 30
0.0
  0
VERTEX
  8
CWRING
 62
     7
 10
53.204579
 20
66.364869
 30
0.0
  0
VERTEX
  8
CWRING
 62
     7
 10
52.969579
 20
66.364869
 30
0.0
  0
SEQEND
  8
CWRING
 62
     7
  0
LINE
  8
CWRING
 62
     7
 10
50.329579
 20
67.864869
 30
0.0
 11
53.329579
 21
67.864869
 31
0.0
  0
LINE
  8
CWRING
 62
     7
 10
50.329579
 20
66.364869
 30
0.0
 11
53.329579
 21
66.364869
 31
0.0
  0
LINE
  8
CWRING
  6
HIDDEN
 62
     7
 10
51.079579
 20
66.739869
 30
0.0
 11
52.579579
 21
66.739869
 31
0.0
  0
LINE
  8
CWRING
  6
HIDDEN
 62
     7
 10
52.579579
 20
67.489869
 30
0.0
 11
51.079579
 21
67.489869
 31
0.0
  0
LINE
  8
CWRING
 62
     7
 10
50.329579
 20
67.864869
 30
0.0
 11
50.329579
 21
66.364869
 31
0.0
  0
LINE
  8
CWRING
  6
HIDDEN
 62
     7
 10
50.407579
 20
67.864869
 30
0.0
 11
50.407579
 21
66.364869
 31
0.0
  0
LINE
  8
CWRING
  6
HIDDEN
 62
     7
 10
51.079579
 20
66.614869
 30
0.0
 11
51.079579
 21
67.614869
 31
0.0
  0
LINE
  8
CWRING
  6
HIDDEN
 62
     7
 10
51.079579
 20
66.614869
 30
0.0
 11
50.829579
 21
66.364869
 31
0.0
  0
CIRCLE
  8
CWRING
 62
     7
 10
50.829579
 20
67.114869
 30
0.0
 40
0.14
  0
CIRCLE
  8
CWRING
  6
HIDDEN
 62
     7
 10
50.829579
 20
67.114869
 30
0.0
 40
0.1405
  0
LINE
  8
CWRING
  6
HIDDEN
 62
     7
 10
51.079579
 20
67.614869
 30
0.0
 11
50.829579
 21
67.864869
 31
0.0
  0
LINE
  8
CWRING
 62
     7
 10
53.329579
 20
67.864869
 30
0.0
 11
53.329579
 21
66.364869
 31
0.0
  0
LINE
  8
CWRING
  6
HIDDEN
 62
     7
 10
53.251579
 20
67.864869
 30
0.0
 11
53.251579
 21
66.364869
 31
0.0
  0
LINE
  8
CWRING
  6
HIDDEN
 62
     7
 10
52.579579
 20
66.614869
 30
0.0
 11
52.579579
 21
67.614869
 31
0.0
  0
LINE
  8
CWRING
  6
HIDDEN
 62
     7
 10
52.579579
 20
66.614869
 30
0.0
 11
52.829579
 21
66.364869
 31
0.0
  0
CIRCLE
  8
CWRING
  6
HIDDEN
 62
     7
 10
52.829579
 20
67.114869
 30
0.0
 40
0.1405
  0
LINE
  8
CWRING
  6
HIDDEN
 62
     7
 10
52.579579
 20
67.614869
 30
0.0
 11
52.829579
 21
67.864869
 31
0.0
  0
POLYLINE
  8
CWRING
 62
     7
 66
     1
 10
0.0
 20
0.0
 30
0.0
 70
     1
  0
VERTEX
  8
CWRING
 62
     7
 10
52.969579
 20
55.114869
 30
0.0
 42
1.0
  0
VERTEX
  8
CWRING
 62
     7
 10
52.689579
 20
55.114869
 30
0.0
  0
VERTEX
  8
CWRING
 62
     7
 10
52.689579
 20
54.364869
 30
0.0
  0
VERTEX
  8
CWRING
 62
     7
 10
50.454579
 20
54.364869
 30
0.0
  0
VERTEX
  8
CWRING
 62
     7
 10
50.454579
 20
55.864869
 30
0.0
  0
VERTEX
  8
CWRING
 62
     7
 10
53.204579
 20
55.864869
 30
0.0
  0
VERTEX
  8
CWRING
 62
     7
 10
53.204579
 20
54.364869
 30
0.0
  0
VERTEX
  8
CWRING
 62
     7
 10
52.969579
 20
54.364869
 30
0.0
  0
SEQEND
  8
CWRING
 62
     7
  0
LINE
  8
CWRING
 62
     7
 10
50.329579
 20
55.864869
 30
0.0
 11
53.329579
 21
55.864869
 31
0.0
  0
LINE
  8
CWRING
 62
     7
 10
50.329579
 20
54.364869
 30
0.0
 11
53.329579
 21
54.364869
 31
0.0
  0
LINE
  8
CWRING
  6
HIDDEN
 62
     7
 10
51.079579
 20
54.739869
 30
0.0
 11
52.579579
 21
54.739869
 31
0.0
  0
LINE
  8
CWRING
  6
HIDDEN
 62
     7
 10
52.579579
 20
55.489869
 30
0.0
 11
51.079579
 21
55.489869
 31
0.0
  0
LINE
  8
CWRING
 62
     7
 10
50.329579
 20
55.864869
 30
0.0
 11
50.329579
 21
54.364869
 31
0.0
  0
LINE
  8
CWRING
  6
HIDDEN
 62
     7
 10
50.407579
 20
55.864869
 30
0.0
 11
50.407579
 21
54.364869
 31
0.0
  0
LINE
  8
CWRING
  6
HIDDEN
 62
     7
 10
51.079579
 20
54.614869
 30
0.0
 11
51.079579
 21
55.614869
 31
0.0
  0
LINE
  8
CWRING
  6
HIDDEN
 62
     7
 10
51.079579
 20
54.614869
 30
0.0
 11
50.829579
 21
54.364869
 31
0.0
  0
CIRCLE
  8
CWRING
 62
     7
 10
50.829579
 20
55.114869
 30
0.0
 40
0.14
  0
CIRCLE
  8
CWRING
  6
HIDDEN
 62
     7
 10
50.829579
 20
55.114869
 30
0.0
 40
0.1405
  0
LINE
  8
CWRING
  6
HIDDEN
 62
     7
 10
51.079579
 20
55.614869
 30
0.0
 11
50.829579
 21
55.864869
 31
0.0
  0
LINE
  8
CWRING
 62
     7
 10
53.329579
 20
55.864869
 30
0.0
 11
53.329579
 21
54.364869
 31
0.0
  0
LINE
  8
CWRING
  6
HIDDEN
 62
     7
 10
53.251579
 20
55.864869
 30
0.0
 11
53.251579
 21
54.364869
 31
0.0
  0
LINE
  8
CWRING
  6
HIDDEN
 62
     7
 10
52.579579
 20
54.614869
 30
0.0
 11
52.579579
 21
55.614869
 31
0.0
  0
LINE
  8
CWRING
  6
HIDDEN
 62
     7
 10
52.579579
 20
54.614869
 30
0.0
 11
52.829579
 21
54.364869
 31
0.0
  0
CIRCLE
  8
CWRING
  6
HIDDEN
 62
     7
 10
52.829579
 20
55.114869
 30
0.0
 40
0.1405
  0
LINE
  8
CWRING
  6
HIDDEN
 62
     7
 10
52.579579
 20
55.614869
 30
0.0
 11
52.829579
 21
55.864869
 31
0.0
  0
POLYLINE
  8
CWRING
 62
     7
 66
     1
 10
0.0
 20
0.0
 30
0.0
 70
     1
  0
VERTEX
  8
CWRING
 62
     7
 10
52.969579
 20
43.114869
 30
0.0
 42
1.0
  0
VERTEX
  8
CWRING
 62
     7
 10
52.689579
 20
43.114869
 30
0.0
  0
VERTEX
  8
CWRING
 62
     7
 10
52.689579
 20
42.364869
 30
0.0
  0
VERTEX
  8
CWRING
 62
     7
 10
50.454579
 20
42.364869
 30
0.0
  0
VERTEX
  8
CWRING
 62
     7
 10
50.454579
 20
43.864869
 30
0.0
  0
VERTEX
  8
CWRING
 62
     7
 10
53.204579
 20
43.864869
 30
0.0
  0
VERTEX
  8
CWRING
 62
     7
 10
53.204579
 20
42.364869
 30
0.0
  0
VERTEX
  8
CWRING
 62
     7
 10
52.969579
 20
42.364869
 30
0.0
  0
SEQEND
  8
CWRING
 62
     7
  0
LINE
  8
CWRING
 62
     7
 10
50.329579
 20
43.864869
 30
0.0
 11
53.329579
 21
43.864869
 31
0.0
  0
LINE
  8
CWRING
 62
     7
 10
50.329579
 20
42.364869
 30
0.0
 11
53.329579
 21
42.364869
 31
0.0
  0
LINE
  8
CWRING
  6
HIDDEN
 62
     7
 10
51.079579
 20
42.739869
 30
0.0
 11
52.579579
 21
42.739869
 31
0.0
  0
LINE
  8
CWRING
  6
HIDDEN
 62
     7
 10
52.579579
 20
43.489869
 30
0.0
 11
51.079579
 21
43.489869
 31
0.0
  0
LINE
  8
CWRING
 62
     7
 10
50.329579
 20
43.864869
 30
0.0
 11
50.329579
 21
42.364869
 31
0.0
  0
LINE
  8
CWRING
  6
HIDDEN
 62
     7
 10
50.407579
 20
43.864869
 30
0.0
 11
50.407579
 21
42.364869
 31
0.0
  0
LINE
  8
CWRING
  6
HIDDEN
 62
     7
 10
51.079579
 20
42.614869
 30
0.0
 11
51.079579
 21
43.614869
 31
0.0
  0
LINE
  8
CWRING
  6
HIDDEN
 62
     7
 10
51.079579
 20
42.614869
 30
0.0
 11
50.829579
 21
42.364869
 31
0.0
  0
CIRCLE
  8
CWRING
 62
     7
 10
50.829579
 20
43.114869
 30
0.0
 40
0.14
  0
CIRCLE
  8
CWRING
  6
HIDDEN
 62
     7
 10
50.829579
 20
43.114869
 30
0.0
 40
0.1405
  0
LINE
  8
CWRING
  6
HIDDEN
 62
     7
 10
51.079579
 20
43.614869
 30
0.0
 11
50.829579
 21
43.864869
 31
0.0
  0
LINE
  8
CWRING
 62
     7
 10
53.329579
 20
43.864869
 30
0.0
 11
53.329579
 21
42.364869
 31
0.0
  0
LINE
  8
CWRING
  6
HIDDEN
 62
     7
 10
53.251579
 20
43.864869
 30
0.0
 11
53.251579
 21
42.364869
 31
0.0
  0
LINE
  8
CWRING
  6
HIDDEN
 62
     7
 10
52.579579
 20
42.614869
 30
0.0
 11
52.579579
 21
43.614869
 31
0.0
  0
LINE
  8
CWRING
  6
HIDDEN
 62
     7
 10
52.579579
 20
42.614869
 30
0.0
 11
52.829579
 21
42.364869
 31
0.0
  0
CIRCLE
  8
CWRING
  6
HIDDEN
 62
     7
 10
52.829579
 20
43.114869
 30
0.0
 40
0.1405
  0
LINE
  8
CWRING
  6
HIDDEN
 62
     7
 10
52.579579
 20
43.614869
 30
0.0
 11
52.829579
 21
43.864869
 31
0.0
  0
POLYLINE
  8
CWRING
 62
     7
 66
     1
 10
0.0
 20
0.0
 30
0.0
 70
     1
  0
VERTEX
  8
CWRING
 62
     7
 10
52.969579
 20
31.114869
 30
0.0
 42
1.0
  0
VERTEX
  8
CWRING
 62
     7
 10
52.689579
 20
31.114869
 30
0.0
  0
VERTEX
  8
CWRING
 62
     7
 10
52.689579
 20
30.364869
 30
0.0
  0
VERTEX
  8
CWRING
 62
     7
 10
50.454579
 20
30.364869
 30
0.0
  0
VERTEX
  8
CWRING
 62
     7
 10
50.454579
 20
31.864869
 30
0.0
  0
VERTEX
  8
CWRING
 62
     7
 10
53.204579
 20
31.864869
 30
0.0
  0
VERTEX
  8
CWRING
 62
     7
 10
53.204579
 20
30.364869
 30
0.0
  0
VERTEX
  8
CWRING
 62
     7
 10
52.969579
 20
30.364869
 30
0.0
  0
SEQEND
  8
CWRING
 62
     7
  0
LINE
  8
CWRING
 62
     7
 10
50.329579
 20
31.864869
 30
0.0
 11
53.329579
 21
31.864869
 31
0.0
  0
LINE
  8
CWRING
 62
     7
 10
50.329579
 20
30.364869
 30
0.0
 11
53.329579
 21
30.364869
 31
0.0
  0
LINE
  8
CWRING
  6
HIDDEN
 62
     7
 10
51.079579
 20
30.739869
 30
0.0
 11
52.579579
 21
30.739869
 31
0.0
  0
LINE
  8
CWRING
  6
HIDDEN
 62
     7
 10
52.579579
 20
31.489869
 30
0.0
 11
51.079579
 21
31.489869
 31
0.0
  0
LINE
  8
CWRING
 62
     7
 10
50.329579
 20
31.864869
 30
0.0
 11
50.329579
 21
30.364869
 31
0.0
  0
LINE
  8
CWRING
  6
HIDDEN
 62
     7
 10
50.407579
 20
31.864869
 30
0.0
 11
50.407579
 21
30.364869
 31
0.0
  0
LINE
  8
CWRING
  6
HIDDEN
 62
     7
 10
51.079579
 20
30.614869
 30
0.0
 11
51.079579
 21
31.614869
 31
0.0
  0
LINE
  8
CWRING
  6
HIDDEN
 62
     7
 10
51.079579
 20
30.614869
 30
0.0
 11
50.829579
 21
30.364869
 31
0.0
  0
CIRCLE
  8
CWRING
 62
     7
 10
50.829579
 20
31.114869
 30
0.0
 40
0.14
  0
CIRCLE
  8
CWRING
  6
HIDDEN
 62
     7
 10
50.829579
 20
31.114869
 30
0.0
 40
0.1405
  0
LINE
  8
CWRING
  6
HIDDEN
 62
     7
 10
51.079579
 20
31.614869
 30
0.0
 11
50.829579
 21
31.864869
 31
0.0
  0
LINE
  8
CWRING
 62
     7
 10
53.329579
 20
31.864869
 30
0.0
 11
53.329579
 21
30.364869
 31
0.0
  0
LINE
  8
CWRING
  6
HIDDEN
 62
     7
 10
53.251579
 20
31.864869
 30
0.0
 11
53.251579
 21
30.364869
 31
0.0
  0
LINE
  8
CWRING
  6
HIDDEN
 62
     7
 10
52.579579
 20
30.614869
 30
0.0
 11
52.579579
 21
31.614869
 31
0.0
  0
LINE
  8
CWRING
  6
HIDDEN
 62
     7
 10
52.579579
 20
30.614869
 30
0.0
 11
52.829579
 21
30.364869
 31
0.0
  0
CIRCLE
  8
CWRING
  6
HIDDEN
 62
     7
 10
52.829579
 20
31.114869
 30
0.0
 40
0.1405
  0
LINE
  8
CWRING
  6
HIDDEN
 62
     7
 10
52.579579
 20
31.614869
 30
0.0
 11
52.829579
 21
31.864869
 31
0.0
  0
POLYLINE
  8
CWRING
 62
     7
 66
     1
 10
0.0
 20
0.0
 30
0.0
 70
     1
  0
VERTEX
  8
CWRING
 62
     7
 10
52.969579
 20
19.114869
 30
0.0
 42
1.0
  0
VERTEX
  8
CWRING
 62
     7
 10
52.689579
 20
19.114869
 30
0.0
  0
VERTEX
  8
CWRING
 62
     7
 10
52.689579
 20
18.364869
 30
0.0
  0
VERTEX
  8
CWRING
 62
     7
 10
50.454579
 20
18.364869
 30
0.0
  0
VERTEX
  8
CWRING
 62
     7
 10
50.454579
 20
19.864869
 30
0.0
  0
VERTEX
  8
CWRING
 62
     7
 10
53.204579
 20
19.864869
 30
0.0
  0
VERTEX
  8
CWRING
 62
     7
 10
53.204579
 20
18.364869
 30
0.0
  0
VERTEX
  8
CWRING
 62
     7
 10
52.969579
 20
18.364869
 30
0.0
  0
SEQEND
  8
CWRING
 62
     7
  0
LINE
  8
CWRING
 62
     7
 10
50.329579
 20
19.864869
 30
0.0
 11
53.329579
 21
19.864869
 31
0.0
  0
LINE
  8
CWRING
 62
     7
 10
50.329579
 20
18.364869
 30
0.0
 11
53.329579
 21
18.364869
 31
0.0
  0
LINE
  8
CWRING
  6
HIDDEN
 62
     7
 10
51.079579
 20
18.739869
 30
0.0
 11
52.579579
 21
18.739869
 31
0.0
  0
LINE
  8
CWRING
  6
HIDDEN
 62
     7
 10
52.579579
 20
19.489869
 30
0.0
 11
51.079579
 21
19.489869
 31
0.0
  0
LINE
  8
CWRING
 62
     7
 10
50.329579
 20
19.864869
 30
0.0
 11
50.329579
 21
18.364869
 31
0.0
  0
LINE
  8
CWRING
  6
HIDDEN
 62
     7
 10
50.407579
 20
19.864869
 30
0.0
 11
50.407579
 21
18.364869
 31
0.0
  0
LINE
  8
CWRING
  6
HIDDEN
 62
     7
 10
51.079579
 20
18.614869
 30
0.0
 11
51.079579
 21
19.614869
 31
0.0
  0
LINE
  8
CWRING
  6
HIDDEN
 62
     7
 10
51.079579
 20
18.614869
 30
0.0
 11
50.829579
 21
18.364869
 31
0.0
  0
CIRCLE
  8
CWRING
 62
     7
 10
50.829579
 20
19.114869
 30
0.0
 40
0.14
  0
CIRCLE
  8
CWRING
  6
HIDDEN
 62
     7
 10
50.829579
 20
19.114869
 30
0.0
 40
0.1405
  0
LINE
  8
CWRING
  6
HIDDEN
 62
     7
 10
51.079579
 20
19.614869
 30
0.0
 11
50.829579
 21
19.864869
 31
0.0
  0
LINE
  8
CWRING
 62
     7
 10
53.329579
 20
19.864869
 30
0.0
 11
53.329579
 21
18.364869
 31
0.0
  0
LINE
  8
CWRING
  6
HIDDEN
 62
     7
 10
53.251579
 20
19.864869
 30
0.0
 11
53.251579
 21
18.364869
 31
0.0
  0
LINE
  8
CWRING
  6
HIDDEN
 62
     7
 10
52.579579
 20
18.614869
 30
0.0
 11
52.579579
 21
19.614869
 31
0.0
  0
LINE
  8
CWRING
  6
HIDDEN
 62
     7
 10
52.579579
 20
18.614869
 30
0.0
 11
52.829579
 21
18.364869
 31
0.0
  0
CIRCLE
  8
CWRING
  6
HIDDEN
 62
     7
 10
52.829579
 20
19.114869
 30
0.0
 40
0.1405
  0
LINE
  8
CWRING
  6
HIDDEN
 62
     7
 10
52.579579
 20
19.614869
 30
0.0
 11
52.829579
 21
19.864869
 31
0.0
  0
POLYLINE
  8
CWRING
 62
     7
 66
     1
 10
0.0
 20
0.0
 30
0.0
 70
     1
  0
VERTEX
  8
CWRING
 62
     7
 10
50.454579
 20
112.351856
 30
0.0
  0
VERTEX
  8
CWRING
 62
     7
 10
50.454579
 20
112.273856
 30
0.0
  0
VERTEX
  8
CWRING
 62
     7
 10
53.204579
 20
112.273856
 30
0.0
  0
VERTEX
  8
CWRING
 62
     7
 10
53.204579
 20
112.351856
 30
0.0
  0
SEQEND
  8
CWRING
 62
     7
  0
POLYLINE
  8
CWRING
 62
     7
 66
     1
 10
0.0
 20
0.0
 30
0.0
 70
     1
  0
VERTEX
  8
CWRING
 62
     7
 10
53.329579
 20
112.382856
 30
0.0
  0
VERTEX
  8
CWRING
 62
     7
 10
52.579579
 20
112.382856
 30
0.0
  0
VERTEX
  8
CWRING
 62
     7
 10
52.579579
 20
112.460856
 30
0.0
  0
VERTEX
  8
CWRING
 62
     7
 10
53.251579
 20
112.460856
 30
0.0
  0
VERTEX
  8
CWRING
 62
     7
 10
53.251579
 20
116.304856
 30
0.0
  0
VERTEX
  8
CWRING
 62
     7
 10
50.407579
 20
116.304856
 30
0.0
  0
VERTEX
  8
CWRING
 62
     7
 10
50.407579
 20
112.460856
 30
0.0
  0
VERTEX
  8
CWRING
 62
     7
 10
51.079579
 20
112.460856
 30
0.0
  0
VERTEX
  8
CWRING
 62
     7
 10
51.079579
 20
112.382856
 30
0.0
  0
VERTEX
  8
CWRING
 62
     7
 10
50.329579
 20
112.382856
 30
0.0
  0
VERTEX
  8
CWRING
 62
     7
 10
50.329579
 20
116.382856
 30
0.0
  0
VERTEX
  8
CWRING
 62
     7
 10
53.329579
 20
116.382856
 30
0.0
  0
SEQEND
  8
CWRING
 62
     7
  0
POLYLINE
  8
CRING
 62
     7
 66
     1
 10
0.0
 20
0.0
 30
0.0
 70
     1
  0
VERTEX
  8
CRING
 62
     7
 10
31.545592
 20
72.927869
 30
0.0
  0
VERTEX
  8
CRING
 62
     7
 10
31.545592
 20
72.552869
 30
0.0
  0
VERTEX
  8
CRING
 62
     7
 10
34.967592
 20
72.552869
 30
0.0
  0
VERTEX
  8
CRING
 62
     7
 10
34.967592
 20
71.552869
 30
0.0
  0
VERTEX
  8
CRING
 62
     7
 10
31.545592
 20
71.552869
 30
0.0
  0
VERTEX
  8
CRING
 62
     7
 10
31.545592
 20
71.177869
 30
0.0
  0
VERTEX
  8
CRING
 62
     7
 10
31.467592
 20
71.177869
 30
0.0
  0
VERTEX
  8
CRING
 62
     7
 10
31.467592
 20
72.927869
 30
0.0
  0
SEQEND
  8
CRING
 62
     7
  0
LINE
  8
CRING
  6
HIDDEN
 62
     7
 10
31.545592
 20
72.489299
 30
0.0
 11
31.545592
 21
71.607921
 31
0.0
  0
LINE
  8
CRING
  6
HIDDEN
 62
     7
 10
34.889592
 20
72.552869
 30
0.0
 11
34.889592
 21
71.552869
 31
0.0
  0
POLYLINE
  8
CRING
 62
     7
 66
     1
 10
0.0
 20
0.0
 30
0.0
  0
VERTEX
  8
CRING
 62
     7
 10
54.594579
 20
72.552869
 30
0.0
  0
VERTEX
  8
CRING
 62
     7
 10
54.407579
 20
72.552869
 30
0.0
  0
VERTEX
  8
CRING
 62
     7
 10
54.157579
 20
72.302869
 30
0.0
  0
VERTEX
  8
CRING
 62
     7
 10
54.157579
 20
71.802869
 30
0.0
  0
VERTEX
  8
CRING
 62
     7
 10
54.407579
 20
71.552869
 30
0.0
  0
VERTEX
  8
CRING
 62
     7
 10
54.594579
 20
71.552869
 30
0.0
  0
SEQEND
  8
CRING
 62
     7
  0
POLYLINE
  8
CRING
 62
     7
 66
     1
 10
0.0
 20
0.0
 30
0.0
  0
VERTEX
  8
CRING
 62
     7
 10
53.344579
 20
72.552869
 30
0.0
  0
VERTEX
  8
CRING
 62
     7
 10
53.531579
 20
72.552869
 30
0.0
  0
VERTEX
  8
CRING
 62
     7
 10
53.781579
 20
72.302869
 30
0.0
  0
VERTEX
  8
CRING
 62
     7
 10
53.781579
 20
71.802869
 30
0.0
  0
VERTEX
  8
CRING
 62
     7
 10
53.531579
 20
71.552869
 30
0.0
  0
VERTEX
  8
CRING
 62
     7
 10
53.344579
 20
71.552869
 30
0.0
  0
SEQEND
  8
CRING
 62
     7
  0
POLYLINE
  8
CRING
 62
     7
 66
     1
 10
0.0
 20
0.0
 30
0.0
 70
     1
  0
VERTEX
  8
CRING
 62
     7
 10
53.344579
 20
71.177869
 30
0.0
  0
VERTEX
  8
CRING
 62
     7
 10
53.344579
 20
72.927869
 30
0.0
  0
VERTEX
  8
CRING
 62
     7
 10
54.594579
 20
72.927869
 30
0.0
  0
VERTEX
  8
CRING
 62
     7
 10
54.594579
 20
71.177869
 30
0.0
  0
SEQEND
  8
CRING
 62
     7
  0
POLYLINE
  8
CRING
 62
     7
 66
     1
 10
0.0
 20
0.0
 30
0.0
 70
     1
  0
VERTEX
  8
CRING
 62
     7
 10
53.594579
 20
72.552869
 30
0.0
 42
-1.0
  0
VERTEX
  8
CRING
 62
     7
 10
53.594579
 20
72.802869
 30
0.0
  0
VERTEX
  8
CRING
 62
     7
 10
54.344579
 20
72.802869
 30
0.0
 42
-1.0
  0
VERTEX
  8
CRING
 62
     7
 10
54.344579
 20
72.552869
 30
0.0
  0
SEQEND
  8
CRING
 62
     7
  0
POLYLINE
  8
CRING
 62
     7
 66
     1
 10
0.0
 20
0.0
 30
0.0
 70
     1
  0
VERTEX
  8
CRING
 62
     7
 10
53.594579
 20
71.552869
 30
0.0
 42
1.0
  0
VERTEX
  8
CRING
 62
     7
 10
53.594579
 20
71.302869
 30
0.0
  0
VERTEX
  8
CRING
 62
     7
 10
54.344579
 20
71.302869
 30
0.0
 42
1.0
  0
VERTEX
  8
CRING
 62
     7
 10
54.344579
 20
71.552869
 30
0.0
  0
SEQEND
  8
CRING
 62
     7
  0
LINE
  8
CRING
 62
     7
 10
53.781579
 20
71.927869
 30
0.0
 11
54.157579
 21
71.927869
 31
0.0
  0
LINE
  8
CRING
 62
     7
 10
53.781579
 20
72.177869
 30
0.0
 11
54.157579
 21
72.177869
 31
0.0
  0
LINE
  8
CRING
  6
HIDDEN
 62
     7
 10
53.422579
 20
72.552869
 30
0.0
 11
53.422579
 21
71.552869
 31
0.0
  0
LINE
  8
CRING
  6
HIDDEN
 62
     7
 10
54.516579
 20
72.552869
 30
0.0
 11
54.516579
 21
71.552869
 31
0.0
  0
POLYLINE
  8
CRING
 62
     7
 66
     1
 10
0.0
 20
0.0
 30
0.0
 70
     1
  0
VERTEX
  8
CRING
 62
     7
 10
31.545592
 20
27.427869
 30
0.0
  0
VERTEX
  8
CRING
 62
     7
 10
31.545592
 20
27.052869
 30
0.0
  0
VERTEX
  8
CRING
 62
     7
 10
34.967592
 20
27.052869
 30
0.0
  0
VERTEX
  8
CRING
 62
     7
 10
34.967592
 20
26.052869
 30
0.0
  0
VERTEX
  8
CRING
 62
     7
 10
31.545592
 20
26.052869
 30
0.0
  0
VERTEX
  8
CRING
 62
     7
 10
31.545592
 20
25.677869
 30
0.0
  0
VERTEX
  8
CRING
 62
     7
 10
31.467592
 20
25.677869
 30
0.0
  0
VERTEX
  8
CRING
 62
     7
 10
31.467592
 20
27.427869
 30
0.0
  0
SEQEND
  8
CRING
 62
     7
  0
LINE
  8
CRING
  6
HIDDEN
 62
     7
 10
31.545592
 20
26.989299
 30
0.0
 11
31.545592
 21
26.107921
 31
0.0
  0
LINE
  8
CRING
  6
HIDDEN
 62
     7
 10
34.889592
 20
27.052869
 30
0.0
 11
34.889592
 21
26.052869
 31
0.0
  0
POLYLINE
  8
CRING
 62
     7
 66
     1
 10
0.0
 20
0.0
 30
0.0
  0
VERTEX
  8
CRING
 62
     7
 10
54.594579
 20
27.052869
 30
0.0
  0
VERTEX
  8
CRING
 62
     7
 10
54.407579
 20
27.052869
 30
0.0
  0
VERTEX
  8
CRING
 62
     7
 10
54.157579
 20
26.802869
 30
0.0
  0
VERTEX
  8
CRING
 62
     7
 10
54.157579
 20
26.302869
 30
0.0
  0
VERTEX
  8
CRING
 62
     7
 10
54.407579
 20
26.052869
 30
0.0
  0
VERTEX
  8
CRING
 62
     7
 10
54.594579
 20
26.052869
 30
0.0
  0
SEQEND
  8
CRING
 62
     7
  0
POLYLINE
  8
CRING
 62
     7
 66
     1
 10
0.0
 20
0.0
 30
0.0
  0
VERTEX
  8
CRING
 62
     7
 10
53.344579
 20
27.052869
 30
0.0
  0
VERTEX
  8
CRING
 62
     7
 10
53.531579
 20
27.052869
 30
0.0
  0
VERTEX
  8
CRING
 62
     7
 10
53.781579
 20
26.802869
 30
0.0
  0
VERTEX
  8
CRING
 62
     7
 10
53.781579
 20
26.302869
 30
0.0
  0
VERTEX
  8
CRING
 62
     7
 10
53.531579
 20
26.052869
 30
0.0
  0
VERTEX
  8
CRING
 62
     7
 10
53.344579
 20
26.052869
 30
0.0
  0
SEQEND
  8
CRING
 62
     7
  0
POLYLINE
  8
CRING
 62
     7
 66
     1
 10
0.0
 20
0.0
 30
0.0
 70
     1
  0
VERTEX
  8
CRING
 62
     7
 10
53.344579
 20
25.677869
 30
0.0
  0
VERTEX
  8
CRING
 62
     7
 10
53.344579
 20
27.427869
 30
0.0
  0
VERTEX
  8
CRING
 62
     7
 10
54.594579
 20
27.427869
 30
0.0
  0
VERTEX
  8
CRING
 62
     7
 10
54.594579
 20
25.677869
 30
0.0
  0
SEQEND
  8
CRING
 62
     7
  0
POLYLINE
  8
CRING
 62
     7
 66
     1
 10
0.0
 20
0.0
 30
0.0
 70
     1
  0
VERTEX
  8
CRING
 62
     7
 10
53.594579
 20
27.052869
 30
0.0
 42
-1.0
  0
VERTEX
  8
CRING
 62
     7
 10
53.594579
 20
27.302869
 30
0.0
  0
VERTEX
  8
CRING
 62
     7
 10
54.344579
 20
27.302869
 30
0.0
 42
-1.0
  0
VERTEX
  8
CRING
 62
     7
 10
54.344579
 20
27.052869
 30
0.0
  0
SEQEND
  8
CRING
 62
     7
  0
POLYLINE
  8
CRING
 62
     7
 66
     1
 10
0.0
 20
0.0
 30
0.0
 70
     1
  0
VERTEX
  8
CRING
 62
     7
 10
53.594579
 20
26.052869
 30
0.0
 42
1.0
  0
VERTEX
  8
CRING
 62
     7
 10
53.594579
 20
25.802869
 30
0.0
  0
VERTEX
  8
CRING
 62
     7
 10
54.344579
 20
25.802869
 30
0.0
 42
1.0
  0
VERTEX
  8
CRING
 62
     7
 10
54.344579
 20
26.052869
 30
0.0
  0
SEQEND
  8
CRING
 62
     7
  0
LINE
  8
CRING
 62
     7
 10
53.781579
 20
26.427869
 30
0.0
 11
54.157579
 21
26.427869
 31
0.0
  0
LINE
  8
CRING
 62
     7
 10
53.781579
 20
26.677869
 30
0.0
 11
54.157579
 21
26.677869
 31
0.0
  0
LINE
  8
CRING
  6
HIDDEN
 62
     7
 10
53.422579
 20
27.052869
 30
0.0
 11
53.422579
 21
26.052869
 31
0.0
  0
LINE
  8
CRING
  6
HIDDEN
 62
     7
 10
54.516579
 20
27.052869
 30
0.0
 11
54.516579
 21
26.052869
 31
0.0
  0
POLYLINE
  8
VCCOVER
 62
     7
 66
     1
 10
0.0
 20
0.0
 30
0.0
 70
     1
  0
VERTEX
  8
VCCOVER
 62
     7
 10
28.405592
 20
7.614869
 30
0.0
  0
VERTEX
  8
VCCOVER
 62
     7
 10
27.905592
 20
7.614869
 30
0.0
  0
VERTEX
  8
VCCOVER
 62
     7
 10
27.905592
 20
90.614869
 30
0.0
  0
VERTEX
  8
VCCOVER
 62
     7
 10
28.405592
 20
90.614869
 30
0.0
  0
SEQEND
  8
VCCOVER
 62
     7
  0
POLYLINE
  8
VCCOVER
 62
     7
 66
     1
 10
0.0
 20
0.0
 30
0.0
 70
     1
  0
VERTEX
  8
VCCOVER
 62
     7
 10
50.267079
 20
7.614869
 30
0.0
  0
VERTEX
  8
VCCOVER
 62
     7
 10
53.392079
 20
7.614869
 30
0.0
  0
VERTEX
  8
VCCOVER
 62
     7
 10
53.392079
 20
90.614869
 30
0.0
  0
VERTEX
  8
VCCOVER
 62
     7
 10
50.267079
 20
90.614869
 30
0.0
  0
SEQEND
  8
VCCOVER
 62
     7
  0
POLYLINE
  8
CWRING
 62
     7
 66
     1
 10
0.0
 20
0.0
 30
0.0
 70
     1
  0
VERTEX
  8
CWRING
 62
     7
 10
31.967592
 20
78.364869
 30
0.0
  0
VERTEX
  8
CWRING
 62
     7
 10
31.967592
 20
79.864869
 30
0.0
  0
VERTEX
  8
CWRING
 62
     7
 10
27.967592
 20
79.864869
 30
0.0
  0
VERTEX
  8
CWRING
 62
     7
 10
27.967592
 20
78.364869
 30
0.0
  0
SEQEND
  8
CWRING
 62
     7
  0
POLYLINE
  8
CWRING
 62
     7
 66
     1
 10
0.0
 20
0.0
 30
0.0
 70
     1
  0
VERTEX
  8
CWRING
 62
     7
 10
31.967592
 20
66.364869
 30
0.0
  0
VERTEX
  8
CWRING
 62
     7
 10
31.967592
 20
67.864869
 30
0.0
  0
VERTEX
  8
CWRING
 62
     7
 10
27.967592
 20
67.864869
 30
0.0
  0
VERTEX
  8
CWRING
 62
     7
 10
27.967592
 20
66.364869
 30
0.0
  0
SEQEND
  8
CWRING
 62
     7
  0
LINE
  8
CWRING
  6
HIDDEN
 62
     7
 10
28.045592
 20
67.864869
 30
0.0
 11
28.045592
 21
66.364869
 31
0.0
  0
CIRCLE
  8
CWRING
 62
     7
 10
29.967592
 20
67.114869
 30
0.0
 40
0.1405
  0
POLYLINE
  8
CWRING
 62
     7
 66
     1
 10
0.0
 20
0.0
 30
0.0
 70
     1
  0
VERTEX
  8
CWRING
 62
     7
 10
32.076592
 20
67.864869
 30
0.0
  0
VERTEX
  8
CWRING
 62
     7
 10
31.998592
 20
67.864869
 30
0.0
  0
VERTEX
  8
CWRING
 62
     7
 10
31.998592
 20
66.364869
 30
0.0
  0
VERTEX
  8
CWRING
 62
     7
 10
32.076592
 20
66.364869
 30
0.0
  0
SEQEND
  8
CWRING
 62
     7
  0
LINE
  8
CWRING
  6
HIDDEN
 62
     7
 10
31.889592
 20
67.864869
 30
0.0
 11
31.889592
 21
66.364869
 31
0.0
  0
POLYLINE
  8
CWRING
 62
     7
 66
     1
 10
0.0
 20
0.0
 30
0.0
 70
     1
  0
VERTEX
  8
CWRING
 62
     7
 10
31.967592
 20
54.364869
 30
0.0
  0
VERTEX
  8
CWRING
 62
     7
 10
31.967592
 20
55.864869
 30
0.0
  0
VERTEX
  8
CWRING
 62
     7
 10
27.967592
 20
55.864869
 30
0.0
  0
VERTEX
  8
CWRING
 62
     7
 10
27.967592
 20
54.364869
 30
0.0
  0
SEQEND
  8
CWRING
 62
     7
  0
LINE
  8
CWRING
  6
HIDDEN
 62
     7
 10
28.045592
 20
55.864869
 30
0.0
 11
28.045592
 21
54.364869
 31
0.0
  0
CIRCLE
  8
CWRING
 62
     7
 10
29.967592
 20
55.114869
 30
0.0
 40
0.1405
  0
POLYLINE
  8
CWRING
 62
     7
 66
     1
 10
0.0
 20
0.0
 30
0.0
 70
     1
  0
VERTEX
  8
CWRING
 62
     7
 10
32.076592
 20
55.864869
 30
0.0
  0
VERTEX
  8
CWRING
 62
     7
 10
31.998592
 20
55.864869
 30
0.0
  0
VERTEX
  8
CWRING
 62
     7
 10
31.998592
 20
54.364869
 30
0.0
  0
VERTEX
  8
CWRING
 62
     7
 10
32.076592
 20
54.364869
 30
0.0
  0
SEQEND
  8
CWRING
 62
     7
  0
LINE
  8
CWRING
  6
HIDDEN
 62
     7
 10
31.889592
 20
55.864869
 30
0.0
 11
31.889592
 21
54.364869
 31
0.0
  0
POLYLINE
  8
CWRING
 62
     7
 66
     1
 10
0.0
 20
0.0
 30
0.0
 70
     1
  0
VERTEX
  8
CWRING
 62
     7
 10
31.967592
 20
42.364869
 30
0.0
  0
VERTEX
  8
CWRING
 62
     7
 10
31.967592
 20
43.864869
 30
0.0
  0
VERTEX
  8
CWRING
 62
     7
 10
27.967592
 20
43.864869
 30
0.0
  0
VERTEX
  8
CWRING
 62
     7
 10
27.967592
 20
42.364869
 30
0.0
  0
SEQEND
  8
CWRING
 62
     7
  0
LINE
  8
CWRING
  6
HIDDEN
 62
     7
 10
28.045592
 20
43.864869
 30
0.0
 11
28.045592
 21
42.364869
 31
0.0
  0
CIRCLE
  8
CWRING
 62
     7
 10
29.967592
 20
43.114869
 30
0.0
 40
0.1405
  0
POLYLINE
  8
CWRING
 62
     7
 66
     1
 10
0.0
 20
0.0
 30
0.0
 70
     1
  0
VERTEX
  8
CWRING
 62
     7
 10
32.076592
 20
43.864869
 30
0.0
  0
VERTEX
  8
CWRING
 62
     7
 10
31.998592
 20
43.864869
 30
0.0
  0
VERTEX
  8
CWRING
 62
     7
 10
31.998592
 20
42.364869
 30
0.0
  0
VERTEX
  8
CWRING
 62
     7
 10
32.076592
 20
42.364869
 30
0.0
  0
SEQEND
  8
CWRING
 62
     7
  0
LINE
  8
CWRING
  6
HIDDEN
 62
     7
 10
31.889592
 20
43.864869
 30
0.0
 11
31.889592
 21
42.364869
 31
0.0
  0
POLYLINE
  8
CWRING
 62
     7
 66
     1
 10
0.0
 20
0.0
 30
0.0
 70
     1
  0
VERTEX
  8
CWRING
 62
     7
 10
31.967592
 20
30.364869
 30
0.0
  0
VERTEX
  8
CWRING
 62
     7
 10
31.967592
 20
31.864869
 30
0.0
  0
VERTEX
  8
CWRING
 62
     7
 10
27.967592
 20
31.864869
 30
0.0
  0
VERTEX
  8
CWRING
 62
     7
 10
27.967592
 20
30.364869
 30
0.0
  0
SEQEND
  8
CWRING
 62
     7
  0
LINE
  8
CWRING
  6
HIDDEN
 62
     7
 10
28.045592
 20
31.864869
 30
0.0
 11
28.045592
 21
30.364869
 31
0.0
  0
CIRCLE
  8
CWRING
 62
     7
 10
29.967592
 20
31.114869
 30
0.0
 40
0.1405
  0
POLYLINE
  8
CWRING
 62
     7
 66
     1
 10
0.0
 20
0.0
 30
0.0
 70
     1
  0
VERTEX
  8
CWRING
 62
     7
 10
32.076592
 20
31.864869
 30
0.0
  0
VERTEX
  8
CWRING
 62
     7
 10
31.998592
 20
31.864869
 30
0.0
  0
VERTEX
  8
CWRING
 62
     7
 10
31.998592
 20
30.364869
 30
0.0
  0
VERTEX
  8
CWRING
 62
     7
 10
32.076592
 20
30.364869
 30
0.0
  0
SEQEND
  8
CWRING
 62
     7
  0
LINE
  8
CWRING
  6
HIDDEN
 62
     7
 10
31.889592
 20
31.864869
 30
0.0
 11
31.889592
 21
30.364869
 31
0.0
  0
POLYLINE
  8
CWRING
 62
     7
 66
     1
 10
0.0
 20
0.0
 30
0.0
 70
     1
  0
VERTEX
  8
CWRING
 62
     7
 10
31.967592
 20
18.364869
 30
0.0
  0
VERTEX
  8
CWRING
 62
     7
 10
31.967592
 20
19.864869
 30
0.0
  0
VERTEX
  8
CWRING
 62
     7
 10
27.967592
 20
19.864869
 30
0.0
  0
VERTEX
  8
CWRING
 62
     7
 10
27.967592
 20
18.364869
 30
0.0
  0
SEQEND
  8
CWRING
 62
     7
  0
LINE
  8
CWRING
  6
HIDDEN
 62
     7
 10
28.045592
 20
19.864869
 30
0.0
 11
28.045592
 21
18.364869
 31
0.0
  0
CIRCLE
  8
CWRING
 62
     7
 10
29.967592
 20
19.114869
 30
0.0
 40
0.1405
  0
POLYLINE
  8
CWRING
 62
     7
 66
     1
 10
0.0
 20
0.0
 30
0.0
 70
     1
  0
VERTEX
  8
CWRING
 62
     7
 10
32.076592
 20
19.864869
 30
0.0
  0
VERTEX
  8
CWRING
 62
     7
 10
31.998592
 20
19.864869
 30
0.0
  0
VERTEX
  8
CWRING
 62
     7
 10
31.998592
 20
18.364869
 30
0.0
  0
VERTEX
  8
CWRING
 62
     7
 10
32.076592
 20
18.364869
 30
0.0
  0
SEQEND
  8
CWRING
 62
     7
  0
LINE
  8
CWRING
  6
HIDDEN
 62
     7
 10
31.889592
 20
19.864869
 30
0.0
 11
31.889592
 21
18.364869
 31
0.0
  0
LINE
  8
OBJECT
 62
     7
 10
31.467592
 20
79.864869
 30
0.0
 11
31.467592
 21
91.114869
 31
0.0
  0
LINE
  8
HIDDEN
 62
     7
 10
31.467592
 20
78.458869
 30
0.0
 11
31.467592
 21
79.770869
 31
0.0
  0
LINE
  8
HIDDEN
 62
     7
 10
28.467592
 20
78.458869
 30
0.0
 11
28.467592
 21
79.770869
 31
0.0
  0
LINE
  8
OBJECT
 62
     7
 10
28.467592
 20
79.864869
 30
0.0
 11
28.467592
 21
91.114869
 31
0.0
  0
LINE
  8
OBJECT
 62
     7
 10
31.467592
 20
67.864869
 30
0.0
 11
31.467592
 21
78.364869
 31
0.0
  0
LINE
  8
OBJECT
 62
     7
 10
28.467592
 20
67.864869
 30
0.0
 11
28.467592
 21
78.364869
 31
0.0
  0
LINE
  8
OBJECT
 62
     7
 10
28.467592
 20
55.864869
 30
0.0
 11
28.467592
 21
66.364869
 31
0.0
  0
LINE
  8
OBJECT
 62
     7
 10
28.467592
 20
43.864869
 30
0.0
 11
28.467592
 21
54.364869
 31
0.0
  0
LINE
  8
OBJECT
 62
     7
 10
31.467592
 20
43.864869
 30
0.0
 11
31.467592
 21
54.364869
 31
0.0
  0
LINE
  8
OBJECT
 62
     7
 10
31.467592
 20
55.864869
 30
0.0
 11
31.467592
 21
66.364869
 31
0.0
  0
LINE
  8
OBJECT
 62
     7
 10
31.467592
 20
31.864869
 30
0.0
 11
31.467592
 21
42.364869
 31
0.0
  0
LINE
  8
OBJECT
 62
     7
 10
31.467592
 20
19.864869
 30
0.0
 11
31.467592
 21
30.364869
 31
0.0
  0
LINE
  8
OBJECT
 62
     7
 10
28.467592
 20
19.864869
 30
0.0
 11
28.467592
 21
30.364869
 31
0.0
  0
LINE
  8
OBJECT
 62
     7
 10
28.467592
 20
31.864869
 30
0.0
 11
28.467592
 21
42.364869
 31
0.0
  0
LINE
  8
HIDDEN
 62
     7
 10
28.467592
 20
66.458869
 30
0.0
 11
28.467592
 21
67.770869
 31
0.0
  0
LINE
  8
HIDDEN
 62
     7
 10
31.467592
 20
66.458869
 30
0.0
 11
31.467592
 21
67.770869
 31
0.0
  0
LINE
  8
HIDDEN
 62
     7
 10
28.467592
 20
54.458869
 30
0.0
 11
28.467592
 21
55.770869
 31
0.0
  0
LINE
  8
HIDDEN
 62
     7
 10
31.467592
 20
54.458869
 30
0.0
 11
31.467592
 21
55.770869
 31
0.0
  0
LINE
  8
HIDDEN
 62
     7
 10
28.467592
 20
42.458869
 30
0.0
 11
28.467592
 21
43.770869
 31
0.0
  0
LINE
  8
HIDDEN
 62
     7
 10
31.467592
 20
42.458869
 30
0.0
 11
31.467592
 21
43.770869
 31
0.0
  0
LINE
  8
HIDDEN
 62
     7
 10
28.467592
 20
30.458869
 30
0.0
 11
28.467592
 21
31.770869
 31
0.0
  0
LINE
  8
HIDDEN
 62
     7
 10
31.467592
 20
30.458869
 30
0.0
 11
31.467592
 21
31.770869
 31
0.0
  0
LINE
  8
HIDDEN
 62
     7
 10
28.467592
 20
18.458869
 30
0.0
 11
28.467592
 21
19.770869
 31
0.0
  0
LINE
  8
HIDDEN
 62
     7
 10
31.467592
 20
18.458869
 30
0.0
 11
31.467592
 21
19.770869
 31
0.0
  0
POLYLINE
  8
VCCOVER
 62
     7
 66
     1
 10
0.0
 20
0.0
 30
0.0
 70
     1
  0
VERTEX
  8
VCCOVER
 62
     7
 10
76.674079
 20
7.614869
 30
0.0
  0
VERTEX
  8
VCCOVER
 62
     7
 10
73.549079
 20
7.614869
 30
0.0
  0
VERTEX
  8
VCCOVER
 62
     7
 10
73.549079
 20
90.614869
 30
0.0
  0
VERTEX
  8
VCCOVER
 62
     7
 10
76.674079
 20
90.614869
 30
0.0
  0
SEQEND
  8
VCCOVER
 62
     7
  0
LINE
  8
VCCOVER
 62
     7
 10
73.611079
 20
7.614869
 30
0.0
 11
73.611079
 21
90.614869
 31
0.0
  0
LINE
  8
VCCOVER
 62
     7
 10
76.612079
 20
7.614869
 30
0.0
 11
76.612079
 21
90.614869
 31
0.0
  0
LINE
  8
CWRING
 62
     7
 10
76.611579
 20
18.364869
 30
0.0
 11
73.611579
 21
18.364869
 31
0.0
  0
LINE
  8
CWRING
 62
     7
 10
76.611579
 20
19.864869
 30
0.0
 11
73.611579
 21
19.864869
 31
0.0
  0
LINE
  8
CWRING
  6
HIDDEN
 62
     7
 10
73.689579
 20
19.864869
 30
0.0
 11
73.689579
 21
18.364869
 31
0.0
  0
LINE
  8
CWRING
  6
HIDDEN
 62
     7
 10
74.361579
 20
18.614869
 30
0.0
 11
74.111579
 21
18.364869
 31
0.0
  0
LINE
  8
CWRING
  6
HIDDEN
 62
     7
 10
76.533579
 20
19.864869
 30
0.0
 11
76.533579
 21
18.364869
 31
0.0
  0
LINE
  8
CWRING
 62
     7
 10
76.611579
 20
19.864869
 30
0.0
 11
76.611579
 21
18.364869
 31
0.0
  0
POLYLINE
  8
CWRING
 62
     7
 66
     1
 10
0.0
 20
0.0
 30
0.0
 70
     1
  0
VERTEX
  8
CWRING
 62
     7
 10
73.971579
 20
19.114869
 30
0.0
 42
-1.0
  0
VERTEX
  8
CWRING
 62
     7
 10
74.251579
 20
19.114869
 30
0.0
  0
VERTEX
  8
CWRING
 62
     7
 10
74.251579
 20
18.364869
 30
0.0
  0
VERTEX
  8
CWRING
 62
     7
 10
76.486579
 20
18.364869
 30
0.0
  0
VERTEX
  8
CWRING
 62
     7
 10
76.486579
 20
19.864869
 30
0.0
  0
VERTEX
  8
CWRING
 62
     7
 10
73.736579
 20
19.864869
 30
0.0
  0
VERTEX
  8
CWRING
 62
     7
 10
73.736579
 20
18.364869
 30
0.0
  0
VERTEX
  8
CWRING
 62
     7
 10
73.971579
 20
18.364869
 30
0.0
  0
SEQEND
  8
CWRING
 62
     7
  0
LINE
  8
CWRING
  6
HIDDEN
 62
     7
 10
75.861579
 20
18.614869
 30
0.0
 11
76.111579
 21
18.364869
 31
0.0
  0
LINE
  8
CWRING
  6
HIDDEN
 62
     7
 10
74.361579
 20
19.489869
 30
0.0
 11
75.861579
 21
19.489869
 31
0.0
  0
LINE
  8
CWRING
  6
HIDDEN
 62
     7
 10
75.861579
 20
18.739869
 30
0.0
 11
74.361579
 21
18.739869
 31
0.0
  0
LINE
  8
CWRING
  6
HIDDEN
 62
     7
 10
75.861579
 20
18.614869
 30
0.0
 11
75.861579
 21
19.614869
 31
0.0
  0
LINE
  8
CWRING
  6
HIDDEN
 62
     7
 10
75.861579
 20
19.614869
 30
0.0
 11
76.111579
 21
19.864869
 31
0.0
  0
CIRCLE
  8
CWRING
  6
HIDDEN
 62
     7
 10
76.111579
 20
19.114869
 30
0.0
 40
0.1405
  0
CIRCLE
  8
CWRING
 62
     7
 10
76.111579
 20
19.114869
 30
0.0
 40
0.14
  0
LINE
  8
CWRING
  6
HIDDEN
 62
     7
 10
74.361579
 20
18.614869
 30
0.0
 11
74.361579
 21
19.614869
 31
0.0
  0
LINE
  8
CWRING
  6
HIDDEN
 62
     7
 10
74.361579
 20
19.614869
 30
0.0
 11
74.111579
 21
19.864869
 31
0.0
  0
CIRCLE
  8
CWRING
  6
HIDDEN
 62
     7
 10
74.111579
 20
19.114869
 30
0.0
 40
0.1405
  0
LINE
  8
CWRING
 62
     7
 10
73.611579
 20
19.864869
 30
0.0
 11
73.611579
 21
18.364869
 31
0.0
  0
POLYLINE
  8
CWRING
 62
     7
 66
     1
 10
0.0
 20
0.0
 30
0.0
 70
     1
  0
VERTEX
  8
CWRING
 62
     7
 10
73.971579
 20
31.114869
 30
0.0
 42
-1.0
  0
VERTEX
  8
CWRING
 62
     7
 10
74.251579
 20
31.114869
 30
0.0
  0
VERTEX
  8
CWRING
 62
     7
 10
74.251579
 20
30.364869
 30
0.0
  0
VERTEX
  8
CWRING
 62
     7
 10
76.486579
 20
30.364869
 30
0.0
  0
VERTEX
  8
CWRING
 62
     7
 10
76.486579
 20
31.864869
 30
0.0
  0
VERTEX
  8
CWRING
 62
     7
 10
73.736579
 20
31.864869
 30
0.0
  0
VERTEX
  8
CWRING
 62
     7
 10
73.736579
 20
30.364869
 30
0.0
  0
VERTEX
  8
CWRING
 62
     7
 10
73.971579
 20
30.364869
 30
0.0
  0
SEQEND
  8
CWRING
 62
     7
  0
LINE
  8
CWRING
  6
HIDDEN
 62
     7
 10
75.861579
 20
30.614869
 30
0.0
 11
75.861579
 21
31.614869
 31
0.0
  0
LINE
  8
CWRING
  6
HIDDEN
 62
     7
 10
76.533579
 20
31.864869
 30
0.0
 11
76.533579
 21
30.364869
 31
0.0
  0
LINE
  8
CWRING
 62
     7
 10
76.611579
 20
31.864869
 30
0.0
 11
76.611579
 21
30.364869
 31
0.0
  0
LINE
  8
CWRING
  6
HIDDEN
 62
     7
 10
74.361579
 20
30.614869
 30
0.0
 11
74.361579
 21
31.614869
 31
0.0
  0
LINE
  8
CWRING
  6
HIDDEN
 62
     7
 10
73.689579
 20
31.864869
 30
0.0
 11
73.689579
 21
30.364869
 31
0.0
  0
LINE
  8
CWRING
 62
     7
 10
73.611579
 20
31.864869
 30
0.0
 11
73.611579
 21
30.364869
 31
0.0
  0
POLYLINE
  8
CRING
 62
     7
 66
     1
 10
0.0
 20
0.0
 30
0.0
 70
     1
  0
VERTEX
  8
CRING
 62
     7
 10
73.596579
 20
25.677869
 30
0.0
  0
VERTEX
  8
CRING
 62
     7
 10
73.596579
 20
27.427869
 30
0.0
  0
VERTEX
  8
CRING
 62
     7
 10
72.346579
 20
27.427869
 30
0.0
  0
VERTEX
  8
CRING
 62
     7
 10
72.346579
 20
25.677869
 30
0.0
  0
SEQEND
  8
CRING
 62
     7
  0
POLYLINE
  8
CRING
 62
     7
 66
     1
 10
0.0
 20
0.0
 30
0.0
 70
     1
  0
VERTEX
  8
CRING
 62
     7
 10
73.346579
 20
26.052869
 30
0.0
 42
-1.0
  0
VERTEX
  8
CRING
 62
     7
 10
73.346579
 20
25.802869
 30
0.0
  0
VERTEX
  8
CRING
 62
     7
 10
72.596579
 20
25.802869
 30
0.0
 42
-1.0
  0
VERTEX
  8
CRING
 62
     7
 10
72.596579
 20
26.052869
 30
0.0
  0
SEQEND
  8
CRING
 62
     7
  0
LINE
  8
CWRING
 62
     7
 10
76.611579
 20
30.364869
 30
0.0
 11
73.611579
 21
30.364869
 31
0.0
  0
LINE
  8
CWRING
  6
HIDDEN
 62
     7
 10
75.861579
 20
30.739869
 30
0.0
 11
74.361579
 21
30.739869
 31
0.0
  0
LINE
  8
CWRING
  6
HIDDEN
 62
     7
 10
75.861579
 20
30.614869
 30
0.0
 11
76.111579
 21
30.364869
 31
0.0
  0
LINE
  8
CWRING
  6
HIDDEN
 62
     7
 10
74.361579
 20
30.614869
 30
0.0
 11
74.111579
 21
30.364869
 31
0.0
  0
POLYLINE
  8
CRING
 62
     7
 66
     1
 10
0.0
 20
0.0
 30
0.0
  0
VERTEX
  8
CRING
 62
     7
 10
72.346579
 20
27.052869
 30
0.0
  0
VERTEX
  8
CRING
 62
     7
 10
72.533579
 20
27.052869
 30
0.0
  0
VERTEX
  8
CRING
 62
     7
 10
72.783579
 20
26.802869
 30
0.0
  0
VERTEX
  8
CRING
 62
     7
 10
72.783579
 20
26.302869
 30
0.0
  0
VERTEX
  8
CRING
 62
     7
 10
72.533579
 20
26.052869
 30
0.0
  0
VERTEX
  8
CRING
 62
     7
 10
72.346579
 20
26.052869
 30
0.0
  0
SEQEND
  8
CRING
 62
     7
  0
LINE
  8
CRING
  6
HIDDEN
 62
     7
 10
72.424579
 20
27.052869
 30
0.0
 11
72.424579
 21
26.052869
 31
0.0
  0
POLYLINE
  8
CRING
 62
     7
 66
     1
 10
0.0
 20
0.0
 30
0.0
  0
VERTEX
  8
CRING
 62
     7
 10
73.596579
 20
27.052869
 30
0.0
  0
VERTEX
  8
CRING
 62
     7
 10
73.409579
 20
27.052869
 30
0.0
  0
VERTEX
  8
CRING
 62
     7
 10
73.159579
 20
26.802869
 30
0.0
  0
VERTEX
  8
CRING
 62
     7
 10
73.159579
 20
26.302869
 30
0.0
  0
VERTEX
  8
CRING
 62
     7
 10
73.409579
 20
26.052869
 30
0.0
  0
VERTEX
  8
CRING
 62
     7
 10
73.596579
 20
26.052869
 30
0.0
  0
SEQEND
  8
CRING
 62
     7
  0
LINE
  8
CRING
  6
HIDDEN
 62
     7
 10
73.518579
 20
27.052869
 30
0.0
 11
73.518579
 21
26.052869
 31
0.0
  0
POLYLINE
  8
CRING
 62
     7
 66
     1
 10
0.0
 20
0.0
 30
0.0
 70
     1
  0
VERTEX
  8
CRING
 62
     7
 10
73.346579
 20
27.052869
 30
0.0
 42
1.0
  0
VERTEX
  8
CRING
 62
     7
 10
73.346579
 20
27.302869
 30
0.0
  0
VERTEX
  8
CRING
 62
     7
 10
72.596579
 20
27.302869
 30
0.0
 42
1.0
  0
VERTEX
  8
CRING
 62
     7
 10
72.596579
 20
27.052869
 30
0.0
  0
SEQEND
  8
CRING
 62
     7
  0
LINE
  8
CRING
 62
     7
 10
73.159579
 20
26.427869
 30
0.0
 11
72.783579
 21
26.427869
 31
0.0
  0
LINE
  8
CRING
 62
     7
 10
73.159579
 20
26.677869
 30
0.0
 11
72.783579
 21
26.677869
 31
0.0
  0
LINE
  8
CWRING
 62
     7
 10
76.611579
 20
31.864869
 30
0.0
 11
73.611579
 21
31.864869
 31
0.0
  0
LINE
  8
CWRING
  6
HIDDEN
 62
     7
 10
74.361579
 20
31.489869
 30
0.0
 11
75.861579
 21
31.489869
 31
0.0
  0
LINE
  8
CWRING
  6
HIDDEN
 62
     7
 10
75.861579
 20
31.614869
 30
0.0
 11
76.111579
 21
31.864869
 31
0.0
  0
CIRCLE
  8
CWRING
  6
HIDDEN
 62
     7
 10
76.111579
 20
31.114869
 30
0.0
 40
0.1405
  0
CIRCLE
  8
CWRING
 62
     7
 10
76.111579
 20
31.114869
 30
0.0
 40
0.14
  0
LINE
  8
CWRING
  6
HIDDEN
 62
     7
 10
74.361579
 20
31.614869
 30
0.0
 11
74.111579
 21
31.864869
 31
0.0
  0
CIRCLE
  8
CWRING
  6
HIDDEN
 62
     7
 10
74.111579
 20
31.114869
 30
0.0
 40
0.1405
  0
LINE
  8
CWRING
 62
     7
 10
76.611579
 20
42.364869
 30
0.0
 11
73.611579
 21
42.364869
 31
0.0
  0
LINE
  8
CWRING
 62
     7
 10
76.611579
 20
43.864869
 30
0.0
 11
73.611579
 21
43.864869
 31
0.0
  0
LINE
  8
CWRING
  6
HIDDEN
 62
     7
 10
75.861579
 20
42.614869
 30
0.0
 11
75.861579
 21
43.614869
 31
0.0
  0
LINE
  8
CWRING
  6
HIDDEN
 62
     7
 10
74.361579
 20
42.614869
 30
0.0
 11
74.361579
 21
43.614869
 31
0.0
  0
LINE
  8
CWRING
  6
HIDDEN
 62
     7
 10
73.689579
 20
43.864869
 30
0.0
 11
73.689579
 21
42.364869
 31
0.0
  0
LINE
  8
CWRING
  6
HIDDEN
 62
     7
 10
76.533579
 20
43.864869
 30
0.0
 11
76.533579
 21
42.364869
 31
0.0
  0
LINE
  8
CWRING
 62
     7
 10
76.611579
 20
43.864869
 30
0.0
 11
76.611579
 21
42.364869
 31
0.0
  0
POLYLINE
  8
CWRING
 62
     7
 66
     1
 10
0.0
 20
0.0
 30
0.0
 70
     1
  0
VERTEX
  8
CWRING
 62
     7
 10
73.971579
 20
43.114869
 30
0.0
 42
-1.0
  0
VERTEX
  8
CWRING
 62
     7
 10
74.251579
 20
43.114869
 30
0.0
  0
VERTEX
  8
CWRING
 62
     7
 10
74.251579
 20
42.364869
 30
0.0
  0
VERTEX
  8
CWRING
 62
     7
 10
76.486579
 20
42.364869
 30
0.0
  0
VERTEX
  8
CWRING
 62
     7
 10
76.486579
 20
43.864869
 30
0.0
  0
VERTEX
  8
CWRING
 62
     7
 10
73.736579
 20
43.864869
 30
0.0
  0
VERTEX
  8
CWRING
 62
     7
 10
73.736579
 20
42.364869
 30
0.0
  0
VERTEX
  8
CWRING
 62
     7
 10
73.971579
 20
42.364869
 30
0.0
  0
SEQEND
  8
CWRING
 62
     7
  0
LINE
  8
CWRING
  6
HIDDEN
 62
     7
 10
75.861579
 20
42.739869
 30
0.0
 11
74.361579
 21
42.739869
 31
0.0
  0
CIRCLE
  8
CWRING
  6
HIDDEN
 62
     7
 10
76.111579
 20
43.114869
 30
0.0
 40
0.1405
  0
CIRCLE
  8
CWRING
 62
     7
 10
76.111579
 20
43.114869
 30
0.0
 40
0.14
  0
LINE
  8
CWRING
  6
HIDDEN
 62
     7
 10
75.861579
 20
42.614869
 30
0.0
 11
76.111579
 21
42.364869
 31
0.0
  0
CIRCLE
  8
CWRING
  6
HIDDEN
 62
     7
 10
74.111579
 20
43.114869
 30
0.0
 40
0.1405
  0
LINE
  8
CWRING
  6
HIDDEN
 62
     7
 10
74.361579
 20
42.614869
 30
0.0
 11
74.111579
 21
42.364869
 31
0.0
  0
LINE
  8
CWRING
  6
HIDDEN
 62
     7
 10
74.361579
 20
43.489869
 30
0.0
 11
75.861579
 21
43.489869
 31
0.0
  0
LINE
  8
CWRING
  6
HIDDEN
 62
     7
 10
75.861579
 20
43.614869
 30
0.0
 11
76.111579
 21
43.864869
 31
0.0
  0
LINE
  8
CWRING
  6
HIDDEN
 62
     7
 10
74.361579
 20
43.614869
 30
0.0
 11
74.111579
 21
43.864869
 31
0.0
  0
LINE
  8
CWRING
 62
     7
 10
73.611579
 20
43.864869
 30
0.0
 11
73.611579
 21
42.364869
 31
0.0
  0
LINE
  8
CRING
  6
HIDDEN
 62
     7
 10
72.424579
 20
49.802869
 30
0.0
 11
72.424579
 21
48.802869
 31
0.0
  0
POLYLINE
  8
CRING
 62
     7
 66
     1
 10
0.0
 20
0.0
 30
0.0
  0
VERTEX
  8
CRING
 62
     7
 10
72.346579
 20
49.802869
 30
0.0
  0
VERTEX
  8
CRING
 62
     7
 10
72.533579
 20
49.802869
 30
0.0
  0
VERTEX
  8
CRING
 62
     7
 10
72.783579
 20
49.552869
 30
0.0
  0
VERTEX
  8
CRING
 62
     7
 10
72.783579
 20
49.052869
 30
0.0
  0
VERTEX
  8
CRING
 62
     7
 10
72.533579
 20
48.802869
 30
0.0
  0
VERTEX
  8
CRING
 62
     7
 10
72.346579
 20
48.802869
 30
0.0
  0
SEQEND
  8
CRING
 62
     7
  0
LINE
  8
CRING
  6
HIDDEN
 62
     7
 10
73.518579
 20
49.802869
 30
0.0
 11
73.518579
 21
48.802869
 31
0.0
  0
POLYLINE
  8
CRING
 62
     7
 66
     1
 10
0.0
 20
0.0
 30
0.0
  0
VERTEX
  8
CRING
 62
     7
 10
73.596579
 20
49.802869
 30
0.0
  0
VERTEX
  8
CRING
 62
     7
 10
73.409579
 20
49.802869
 30
0.0
  0
VERTEX
  8
CRING
 62
     7
 10
73.159579
 20
49.552869
 30
0.0
  0
VERTEX
  8
CRING
 62
     7
 10
73.159579
 20
49.052869
 30
0.0
  0
VERTEX
  8
CRING
 62
     7
 10
73.409579
 20
48.802869
 30
0.0
  0
VERTEX
  8
CRING
 62
     7
 10
73.596579
 20
48.802869
 30
0.0
  0
SEQEND
  8
CRING
 62
     7
  0
LINE
  8
CRING
 62
     7
 10
73.159579
 20
49.427869
 30
0.0
 11
72.783579
 21
49.427869
 31
0.0
  0
LINE
  8
CRING
 62
     7
 10
73.159579
 20
49.177869
 30
0.0
 11
72.783579
 21
49.177869
 31
0.0
  0
POLYLINE
  8
CRING
 62
     7
 66
     1
 10
0.0
 20
0.0
 30
0.0
 70
     1
  0
VERTEX
  8
CRING
 62
     7
 10
73.346579
 20
48.802869
 30
0.0
 42
-1.0
  0
VERTEX
  8
CRING
 62
     7
 10
73.346579
 20
48.552869
 30
0.0
  0
VERTEX
  8
CRING
 62
     7
 10
72.596579
 20
48.552869
 30
0.0
 42
-1.0
  0
VERTEX
  8
CRING
 62
     7
 10
72.596579
 20
48.802869
 30
0.0
  0
SEQEND
  8
CRING
 62
     7
  0
POLYLINE
  8
CRING
 62
     7
 66
     1
 10
0.0
 20
0.0
 30
0.0
 70
     1
  0
VERTEX
  8
CRING
 62
     7
 10
73.346579
 20
49.802869
 30
0.0
 42
1.0
  0
VERTEX
  8
CRING
 62
     7
 10
73.346579
 20
50.052869
 30
0.0
  0
VERTEX
  8
CRING
 62
     7
 10
72.596579
 20
50.052869
 30
0.0
 42
1.0
  0
VERTEX
  8
CRING
 62
     7
 10
72.596579
 20
49.802869
 30
0.0
  0
SEQEND
  8
CRING
 62
     7
  0
POLYLINE
  8
CRING
 62
     7
 66
     1
 10
0.0
 20
0.0
 30
0.0
 70
     1
  0
VERTEX
  8
CRING
 62
     7
 10
73.596579
 20
48.427869
 30
0.0
  0
VERTEX
  8
CRING
 62
     7
 10
73.596579
 20
50.177869
 30
0.0
  0
VERTEX
  8
CRING
 62
     7
 10
72.346579
 20
50.177869
 30
0.0
  0
VERTEX
  8
CRING
 62
     7
 10
72.346579
 20
48.427869
 30
0.0
  0
SEQEND
  8
CRING
 62
     7
  0
LINE
  8
CWRING
 62
     7
 10
76.611579
 20
54.364869
 30
0.0
 11
73.611579
 21
54.364869
 31
0.0
  0
LINE
  8
CWRING
 62
     7
 10
76.611579
 20
55.864869
 30
0.0
 11
73.611579
 21
55.864869
 31
0.0
  0
LINE
  8
CWRING
  6
HIDDEN
 62
     7
 10
74.361579
 20
55.489869
 30
0.0
 11
75.861579
 21
55.489869
 31
0.0
  0
LINE
  8
CWRING
  6
HIDDEN
 62
     7
 10
75.861579
 20
54.739869
 30
0.0
 11
74.361579
 21
54.739869
 31
0.0
  0
POLYLINE
  8
CWRING
 62
     7
 66
     1
 10
0.0
 20
0.0
 30
0.0
 70
     1
  0
VERTEX
  8
CWRING
 62
     7
 10
73.971579
 20
55.114869
 30
0.0
 42
-1.0
  0
VERTEX
  8
CWRING
 62
     7
 10
74.251579
 20
55.114869
 30
0.0
  0
VERTEX
  8
CWRING
 62
     7
 10
74.251579
 20
54.364869
 30
0.0
  0
VERTEX
  8
CWRING
 62
     7
 10
76.486579
 20
54.364869
 30
0.0
  0
VERTEX
  8
CWRING
 62
     7
 10
76.486579
 20
55.864869
 30
0.0
  0
VERTEX
  8
CWRING
 62
     7
 10
73.736579
 20
55.864869
 30
0.0
  0
VERTEX
  8
CWRING
 62
     7
 10
73.736579
 20
54.364869
 30
0.0
  0
VERTEX
  8
CWRING
 62
     7
 10
73.971579
 20
54.364869
 30
0.0
  0
SEQEND
  8
CWRING
 62
     7
  0
LINE
  8
CWRING
  6
HIDDEN
 62
     7
 10
75.861579
 20
54.614869
 30
0.0
 11
75.861579
 21
55.614869
 31
0.0
  0
LINE
  8
CWRING
  6
HIDDEN
 62
     7
 10
76.533579
 20
55.864869
 30
0.0
 11
76.533579
 21
54.364869
 31
0.0
  0
LINE
  8
CWRING
 62
     7
 10
76.611579
 20
55.864869
 30
0.0
 11
76.611579
 21
54.364869
 31
0.0
  0
LINE
  8
CWRING
  6
HIDDEN
 62
     7
 10
75.861579
 20
55.614869
 30
0.0
 11
76.111579
 21
55.864869
 31
0.0
  0
CIRCLE
  8
CWRING
  6
HIDDEN
 62
     7
 10
76.111579
 20
55.114869
 30
0.0
 40
0.1405
  0
CIRCLE
  8
CWRING
 62
     7
 10
76.111579
 20
55.114869
 30
0.0
 40
0.14
  0
LINE
  8
CWRING
  6
HIDDEN
 62
     7
 10
75.861579
 20
54.614869
 30
0.0
 11
76.111579
 21
54.364869
 31
0.0
  0
LINE
  8
CWRING
  6
HIDDEN
 62
     7
 10
74.361579
 20
55.614869
 30
0.0
 11
74.111579
 21
55.864869
 31
0.0
  0
CIRCLE
  8
CWRING
  6
HIDDEN
 62
     7
 10
74.111579
 20
55.114869
 30
0.0
 40
0.1405
  0
LINE
  8
CWRING
  6
HIDDEN
 62
     7
 10
74.361579
 20
54.614869
 30
0.0
 11
74.111579
 21
54.364869
 31
0.0
  0
LINE
  8
CWRING
  6
HIDDEN
 62
     7
 10
74.361579
 20
54.614869
 30
0.0
 11
74.361579
 21
55.614869
 31
0.0
  0
LINE
  8
CWRING
  6
HIDDEN
 62
     7
 10
73.689579
 20
55.864869
 30
0.0
 11
73.689579
 21
54.364869
 31
0.0
  0
LINE
  8
CWRING
 62
     7
 10
73.611579
 20
55.864869
 30
0.0
 11
73.611579
 21
54.364869
 31
0.0
  0
LINE
  8
CWRING
 62
     7
 10
76.611579
 20
66.364869
 30
0.0
 11
73.611579
 21
66.364869
 31
0.0
  0
LINE
  8
CWRING
 62
     7
 10
76.611579
 20
67.864869
 30
0.0
 11
73.611579
 21
67.864869
 31
0.0
  0
LINE
  8
CWRING
  6
HIDDEN
 62
     7
 10
74.361579
 20
67.489869
 30
0.0
 11
75.861579
 21
67.489869
 31
0.0
  0
LINE
  8
CWRING
  6
HIDDEN
 62
     7
 10
75.861579
 20
66.739869
 30
0.0
 11
74.361579
 21
66.739869
 31
0.0
  0
POLYLINE
  8
CWRING
 62
     7
 66
     1
 10
0.0
 20
0.0
 30
0.0
 70
     1
  0
VERTEX
  8
CWRING
 62
     7
 10
73.971579
 20
67.114869
 30
0.0
 42
-1.0
  0
VERTEX
  8
CWRING
 62
     7
 10
74.251579
 20
67.114869
 30
0.0
  0
VERTEX
  8
CWRING
 62
     7
 10
74.251579
 20
66.364869
 30
0.0
  0
VERTEX
  8
CWRING
 62
     7
 10
76.486579
 20
66.364869
 30
0.0
  0
VERTEX
  8
CWRING
 62
     7
 10
76.486579
 20
67.864869
 30
0.0
  0
VERTEX
  8
CWRING
 62
     7
 10
73.736579
 20
67.864869
 30
0.0
  0
VERTEX
  8
CWRING
 62
     7
 10
73.736579
 20
66.364869
 30
0.0
  0
VERTEX
  8
CWRING
 62
     7
 10
73.971579
 20
66.364869
 30
0.0
  0
SEQEND
  8
CWRING
 62
     7
  0
LINE
  8
CWRING
  6
HIDDEN
 62
     7
 10
75.861579
 20
66.614869
 30
0.0
 11
75.861579
 21
67.614869
 31
0.0
  0
LINE
  8
CWRING
  6
HIDDEN
 62
     7
 10
76.533579
 20
67.864869
 30
0.0
 11
76.533579
 21
66.364869
 31
0.0
  0
LINE
  8
CWRING
 62
     7
 10
76.611579
 20
67.864869
 30
0.0
 11
76.611579
 21
66.364869
 31
0.0
  0
LINE
  8
CWRING
  6
HIDDEN
 62
     7
 10
75.861579
 20
66.614869
 30
0.0
 11
76.111579
 21
66.364869
 31
0.0
  0
LINE
  8
CWRING
  6
HIDDEN
 62
     7
 10
75.861579
 20
67.614869
 30
0.0
 11
76.111579
 21
67.864869
 31
0.0
  0
CIRCLE
  8
CWRING
  6
HIDDEN
 62
     7
 10
76.111579
 20
67.114869
 30
0.0
 40
0.1405
  0
CIRCLE
  8
CWRING
 62
     7
 10
76.111579
 20
67.114869
 30
0.0
 40
0.14
  0
LINE
  8
CWRING
  6
HIDDEN
 62
     7
 10
74.361579
 20
66.614869
 30
0.0
 11
74.111579
 21
66.364869
 31
0.0
  0
LINE
  8
CWRING
  6
HIDDEN
 62
     7
 10
73.689579
 20
67.864869
 30
0.0
 11
73.689579
 21
66.364869
 31
0.0
  0
LINE
  8
CWRING
  6
HIDDEN
 62
     7
 10
74.361579
 20
67.614869
 30
0.0
 11
74.111579
 21
67.864869
 31
0.0
  0
CIRCLE
  8
CWRING
  6
HIDDEN
 62
     7
 10
74.111579
 20
67.114869
 30
0.0
 40
0.1405
  0
LINE
  8
CWRING
  6
HIDDEN
 62
     7
 10
74.361579
 20
66.614869
 30
0.0
 11
74.361579
 21
67.614869
 31
0.0
  0
LINE
  8
CWRING
 62
     7
 10
73.611579
 20
67.864869
 30
0.0
 11
73.611579
 21
66.364869
 31
0.0
  0
POLYLINE
  8
CRING
 62
     7
 66
     1
 10
0.0
 20
0.0
 30
0.0
  0
VERTEX
  8
CRING
 62
     7
 10
72.346579
 20
72.552869
 30
0.0
  0
VERTEX
  8
CRING
 62
     7
 10
72.533579
 20
72.552869
 30
0.0
  0
VERTEX
  8
CRING
 62
     7
 10
72.783579
 20
72.302869
 30
0.0
  0
VERTEX
  8
CRING
 62
     7
 10
72.783579
 20
71.802869
 30
0.0
  0
VERTEX
  8
CRING
 62
     7
 10
72.533579
 20
71.552869
 30
0.0
  0
VERTEX
  8
CRING
 62
     7
 10
72.346579
 20
71.552869
 30
0.0
  0
SEQEND
  8
CRING
 62
     7
  0
LINE
  8
CRING
  6
HIDDEN
 62
     7
 10
72.424579
 20
72.552869
 30
0.0
 11
72.424579
 21
71.552869
 31
0.0
  0
POLYLINE
  8
CRING
 62
     7
 66
     1
 10
0.0
 20
0.0
 30
0.0
  0
VERTEX
  8
CRING
 62
     7
 10
73.596579
 20
72.552869
 30
0.0
  0
VERTEX
  8
CRING
 62
     7
 10
73.409579
 20
72.552869
 30
0.0
  0
VERTEX
  8
CRING
 62
     7
 10
73.159579
 20
72.302869
 30
0.0
  0
VERTEX
  8
CRING
 62
     7
 10
73.159579
 20
71.802869
 30
0.0
  0
VERTEX
  8
CRING
 62
     7
 10
73.409579
 20
71.552869
 30
0.0
  0
VERTEX
  8
CRING
 62
     7
 10
73.596579
 20
71.552869
 30
0.0
  0
SEQEND
  8
CRING
 62
     7
  0
LINE
  8
CRING
  6
HIDDEN
 62
     7
 10
73.518579
 20
72.552869
 30
0.0
 11
73.518579
 21
71.552869
 31
0.0
  0
POLYLINE
  8
CRING
 62
     7
 66
     1
 10
0.0
 20
0.0
 30
0.0
 70
     1
  0
VERTEX
  8
CRING
 62
     7
 10
73.596579
 20
71.177869
 30
0.0
  0
VERTEX
  8
CRING
 62
     7
 10
73.596579
 20
72.927869
 30
0.0
  0
VERTEX
  8
CRING
 62
     7
 10
72.346579
 20
72.927869
 30
0.0
  0
VERTEX
  8
CRING
 62
     7
 10
72.346579
 20
71.177869
 30
0.0
  0
SEQEND
  8
CRING
 62
     7
  0
POLYLINE
  8
CRING
 62
     7
 66
     1
 10
0.0
 20
0.0
 30
0.0
 70
     1
  0
VERTEX
  8
CRING
 62
     7
 10
73.346579
 20
72.552869
 30
0.0
 42
1.0
  0
VERTEX
  8
CRING
 62
     7
 10
73.346579
 20
72.802869
 30
0.0
  0
VERTEX
  8
CRING
 62
     7
 10
72.596579
 20
72.802869
 30
0.0
 42
1.0
  0
VERTEX
  8
CRING
 62
     7
 10
72.596579
 20
72.552869
 30
0.0
  0
SEQEND
  8
CRING
 62
     7
  0
POLYLINE
  8
CRING
 62
     7
 66
     1
 10
0.0
 20
0.0
 30
0.0
 70
     1
  0
VERTEX
  8
CRING
 62
     7
 10
73.346579
 20
71.552869
 30
0.0
 42
-1.0
  0
VERTEX
  8
CRING
 62
     7
 10
73.346579
 20
71.302869
 30
0.0
  0
VERTEX
  8
CRING
 62
     7
 10
72.596579
 20
71.302869
 30
0.0
 42
-1.0
  0
VERTEX
  8
CRING
 62
     7
 10
72.596579
 20
71.552869
 30
0.0
  0
SEQEND
  8
CRING
 62
     7
  0
LINE
  8
CRING
 62
     7
 10
73.159579
 20
71.927869
 30
0.0
 11
72.783579
 21
71.927869
 31
0.0
  0
LINE
  8
CRING
 62
     7
 10
73.159579
 20
72.177869
 30
0.0
 11
72.783579
 21
72.177869
 31
0.0
  0
LINE
  8
CWRING
 62
     7
 10
76.611579
 20
79.864869
 30
0.0
 11
73.611579
 21
79.864869
 31
0.0
  0
LINE
  8
CWRING
 62
     7
 10
76.611579
 20
78.364869
 30
0.0
 11
73.611579
 21
78.364869
 31
0.0
  0
LINE
  8
CWRING
  6
HIDDEN
 62
     7
 10
73.689579
 20
79.864869
 30
0.0
 11
73.689579
 21
78.364869
 31
0.0
  0
LINE
  8
CWRING
  6
HIDDEN
 62
     7
 10
74.361579
 20
78.614869
 30
0.0
 11
74.111579
 21
78.364869
 31
0.0
  0
LINE
  8
CWRING
 62
     7
 10
76.611579
 20
79.864869
 30
0.0
 11
76.611579
 21
78.364869
 31
0.0
  0
LINE
  8
CWRING
  6
HIDDEN
 62
     7
 10
76.533579
 20
79.864869
 30
0.0
 11
76.533579
 21
78.364869
 31
0.0
  0
POLYLINE
  8
CWRING
 62
     7
 66
     1
 10
0.0
 20
0.0
 30
0.0
 70
     1
  0
VERTEX
  8
CWRING
 62
     7
 10
73.971579
 20
79.114869
 30
0.0
 42
-1.0
  0
VERTEX
  8
CWRING
 62
     7
 10
74.251579
 20
79.114869
 30
0.0
  0
VERTEX
  8
CWRING
 62
     7
 10
74.251579
 20
78.364869
 30
0.0
  0
VERTEX
  8
CWRING
 62
     7
 10
76.486579
 20
78.364869
 30
0.0
  0
VERTEX
  8
CWRING
 62
     7
 10
76.486579
 20
79.864869
 30
0.0
  0
VERTEX
  8
CWRING
 62
     7
 10
73.736579
 20
79.864869
 30
0.0
  0
VERTEX
  8
CWRING
 62
     7
 10
73.736579
 20
78.364869
 30
0.0
  0
VERTEX
  8
CWRING
 62
     7
 10
73.971579
 20
78.364869
 30
0.0
  0
SEQEND
  8
CWRING
 62
     7
  0
LINE
  8
CWRING
  6
HIDDEN
 62
     7
 10
75.861579
 20
78.614869
 30
0.0
 11
76.111579
 21
78.364869
 31
0.0
  0
LINE
  8
CWRING
  6
HIDDEN
 62
     7
 10
75.861579
 20
78.739869
 30
0.0
 11
74.361579
 21
78.739869
 31
0.0
  0
LINE
  8
CWRING
  6
HIDDEN
 62
     7
 10
74.361579
 20
79.489869
 30
0.0
 11
75.861579
 21
79.489869
 31
0.0
  0
LINE
  8
CWRING
  6
HIDDEN
 62
     7
 10
75.861579
 20
78.614869
 30
0.0
 11
75.861579
 21
79.614869
 31
0.0
  0
CIRCLE
  8
CWRING
 62
     7
 10
76.111579
 20
79.114869
 30
0.0
 40
0.14
  0
CIRCLE
  8
CWRING
  6
HIDDEN
 62
     7
 10
76.111579
 20
79.114869
 30
0.0
 40
0.1405
  0
LINE
  8
CWRING
  6
HIDDEN
 62
     7
 10
75.861579
 20
79.614869
 30
0.0
 11
76.111579
 21
79.864869
 31
0.0
  0
LINE
  8
CWRING
  6
HIDDEN
 62
     7
 10
74.361579
 20
78.614869
 30
0.0
 11
74.361579
 21
79.614869
 31
0.0
  0
CIRCLE
  8
CWRING
  6
HIDDEN
 62
     7
 10
74.111579
 20
79.114869
 30
0.0
 40
0.1405
  0
LINE
  8
CWRING
  6
HIDDEN
 62
     7
 10
74.361579
 20
79.614869
 30
0.0
 11
74.111579
 21
79.864869
 31
0.0
  0
LINE
  8
CWRING
 62
     7
 10
73.611579
 20
79.864869
 30
0.0
 11
73.611579
 21
78.364869
 31
0.0
  0
POLYLINE
  8
CWRING
 62
     7
 66
     1
 10
0.0
 20
0.0
 30
0.0
 70
     1
  0
VERTEX
  8
CWRING
 62
     7
 10
73.611579
 20
112.382856
 30
0.0
  0
VERTEX
  8
CWRING
 62
     7
 10
74.361579
 20
112.382856
 30
0.0
  0
VERTEX
  8
CWRING
 62
     7
 10
74.361579
 20
112.460856
 30
0.0
  0
VERTEX
  8
CWRING
 62
     7
 10
73.689579
 20
112.460856
 30
0.0
  0
VERTEX
  8
CWRING
 62
     7
 10
73.689579
 20
116.304856
 30
0.0
  0
VERTEX
  8
CWRING
 62
     7
 10
76.533579
 20
116.304856
 30
0.0
  0
VERTEX
  8
CWRING
 62
     7
 10
76.533579
 20
112.460856
 30
0.0
  0
VERTEX
  8
CWRING
 62
     7
 10
75.861579
 20
112.460856
 30
0.0
  0
VERTEX
  8
CWRING
 62
     7
 10
75.861579
 20
112.382856
 30
0.0
  0
VERTEX
  8
CWRING
 62
     7
 10
76.611579
 20
112.382856
 30
0.0
  0
VERTEX
  8
CWRING
 62
     7
 10
76.611579
 20
116.382856
 30
0.0
  0
VERTEX
  8
CWRING
 62
     7
 10
73.611579
 20
116.382856
 30
0.0
  0
SEQEND
  8
CWRING
 62
     7
  0
POLYLINE
  8
CWRING
 62
     7
 66
     1
 10
0.0
 20
0.0
 30
0.0
 70
     1
  0
VERTEX
  8
CWRING
 62
     7
 10
76.486579
 20
112.351856
 30
0.0
  0
VERTEX
  8
CWRING
 62
     7
 10
76.486579
 20
112.273856
 30
0.0
  0
VERTEX
  8
CWRING
 62
     7
 10
73.736579
 20
112.273856
 30
0.0
  0
VERTEX
  8
CWRING
 62
     7
 10
73.736579
 20
112.351856
 30
0.0
  0
SEQEND
  8
CWRING
 62
     7
  0
POLYLINE
  8
CRING
 62
     7
 66
     1
 10
0.0
 20
0.0
 30
0.0
 70
     1
  0
VERTEX
  8
CRING
 62
     7
 10
73.596579
 20
109.382856
 30
0.0
  0
VERTEX
  8
CRING
 62
     7
 10
73.596579
 20
112.882856
 30
0.0
  0
VERTEX
  8
CRING
 62
     7
 10
72.346579
 20
112.882856
 30
0.0
  0
VERTEX
  8
CRING
 62
     7
 10
72.346579
 20
109.382856
 30
0.0
  0
VERTEX
  8
CRING
 62
     7
 10
72.783579
 20
109.382856
 30
0.0
  0
VERTEX
  8
CRING
 62
     7
 10
72.783579
 20
109.460856
 30
0.0
  0
VERTEX
  8
CRING
 62
     7
 10
72.424579
 20
109.460856
 30
0.0
  0
VERTEX
  8
CRING
 62
     7
 10
72.424579
 20
112.804856
 30
0.0
  0
VERTEX
  8
CRING
 62
     7
 10
73.518579
 20
112.804856
 30
0.0
  0
VERTEX
  8
CRING
 62
     7
 10
73.518579
 20
109.460856
 30
0.0
  0
VERTEX
  8
CRING
 62
     7
 10
73.159579
 20
109.460856
 30
0.0
  0
VERTEX
  8
CRING
 62
     7
 10
73.159579
 20
109.382856
 30
0.0
  0
SEQEND
  8
CRING
 62
     7
  0
POLYLINE
  8
VCCOVER
 62
     7
 66
     1
 10
0.0
 20
0.0
 30
0.0
 70
     1
  0
VERTEX
  8
VCCOVER
 62
     7
 10
73.548579
 20
115.975856
 30
0.0
 42
1.0
  0
VERTEX
  8
VCCOVER
 62
     7
 10
73.610579
 20
115.975856
 30
0.0
  0
VERTEX
  8
VCCOVER
 62
     7
 10
73.610579
 20
116.413856
 30
0.0
  0
VERTEX
  8
VCCOVER
 62
     7
 10
76.611579
 20
116.413856
 30
0.0
  0
VERTEX
  8
VCCOVER
 62
     7
 10
76.611579
 20
115.975856
 30
0.0
 42
1.0
  0
VERTEX
  8
VCCOVER
 62
     7
 10
76.673579
 20
115.975856
 30
0.0
  0
VERTEX
  8
VCCOVER
 62
     7
 10
76.673579
 20
116.444856
 30
0.0
  0
VERTEX
  8
VCCOVER
 62
     7
 10
73.548579
 20
116.444856
 30
0.0
  0
SEQEND
  8
VCCOVER
 62
     7
  0
LINE
  8
VCCOVER
 62
     7
 10
76.642579
 20
116.413856
 30
0.0
 11
76.642579
 21
115.975856
 31
0.0
  0
LINE
  8
VCCOVER
 62
     7
 10
73.579579
 20
115.975856
 30
0.0
 11
73.579579
 21
116.413856
 31
0.0
  0
TEXT
  8
TEXT
 10
3.736365
 20
114.747809
 30
0.0
 40
1.0625
  1
& CABLE RINGS
 41
0.75
  0
TEXT
  8
TEXT
 10
2.471411
 20
116.518643
 30
0.0
 40
1.0625
  1
VERTICAL CABLEWAY RINGS
 41
0.75
  0
TEXT
  8
TEXT
 62
     7
 10
26.115243
 20
114.747809
 30
0.0
 40
1.0625
  1
14 GA. STEEL
 41
0.75
  0
LINE
  8
TEXT
 10
25.56914
 20
114.747809
 30
0.0
 11
14.464585
 21
114.747809
 31
0.0
  0
TEXT
  8
TEXT
 10
2.471411
 20
112.976976
 30
0.0
 40
1.0625
  1
VERTICAL CABLEWAY COVERS
 41
0.75
  0
LINE
  8
TEXT
 62
     7
 10
25.56914
 20
112.976976
 30
0.0
 11
22.482348
 21
112.976976
 31
0.0
  0
TEXT
  8
TEXT
 62
     7
 10
26.115243
 20
112.976976
 30
0.0
 40
1.0625
  1
20 GA. STEEL
 41
0.75
  0
TEXT
  8
TEXT
 10
3.736365
 20
102.329509
 30
0.0
 40
1.0625
  1
& CABLE RINGS
 41
0.75
  0
TEXT
  8
TEXT
 10
1.693962
 20
109.412843
 30
0.0
 40
1.0625
  1
%%uFINISH:
 41
0.75
  0
TEXT
  8
TEXT
 10
2.471411
 20
107.642009
 30
0.0
 40
1.0625
  1
ALUMINUM RELAY RACK
 41
0.75
  0
TEXT
  8
TEXT
 62
     7
 10
26.115243
 20
107.642009
 30
0.0
 40
1.0625
  1
BLACK TEXTURED
 41
0.75
  0
LINE
  8
TEXT
 62
     7
 10
25.56914
 20
107.642009
 30
0.0
 11
17.886483
 21
107.642009
 31
0.0
  0
TEXT
  8
TEXT
 10
2.471411
 20
105.871176
 30
0.0
 40
1.0625
  1
VERTICAL CABLEWAY RINGS,
 41
0.75
  0
TEXT
  8
TEXT
 62
     7
 10
26.115243
 20
102.329509
 30
0.0
 40
1.0625
  1
SMOOTH BLACK
 41
0.75
  0
LINE
  8
TEXT
 10
25.56914
 20
102.329509
 30
0.0
 11
14.345408
 21
102.329509
 31
0.0
  0
INSERT
  8
TITLE
  2
HB
 10
0.0
 20
0.0
 30
0.0
 41
8.5
 42
8.5
 43
8.5
  0
TEXT
  8
TEXT
 10
3.736365
 20
120.060309
 30
0.0
 40
1.0625
  1
UPRIGHTS, BASE ANGLES
 41
0.75
  0
TEXT
  8
TEXT
 10
2.471411
 20
104.100343
 30
0.0
 40
1.0625
  1
VERTICAL CABLEWAY COVERS
 41
0.75
  0
TEXT
  8
TEXT
 10
16.157172
 20
128.782438
 30
0.0
 40
1.328125
  1
OPEN RACK ASSEMBLY
 41
0.75
 72
     4
 11
24.956
 21
129.4465
 31
0.0
  0
TEXT
  8
TEXT
 10
64.465195
 20
128.782438
 30
0.0
 40
1.328125
  1
DC-8035
 41
0.75
 72
     4
 11
67.7025
 21
129.4465
 31
0.0
  0
POLYLINE
  8
DIM
 62
     7
 66
     1
 10
0.0
 20
0.0
 30
0.0
 41
0.57375
  0
VERTEX
  8
DIM
 62
     7
 10
32.076592
 20
79.864869
 30
0.0
  0
VERTEX
  8
DIM
 62
     7
 10
32.636494
 20
81.288741
 30
0.0
 41
0.0
  0
VERTEX
  8
DIM
 62
     7
 10
33.16662
 20
82.636886
 30
0.0
 41
0.0
  0
VERTEX
  8
DIM
 62
     7
 10
34.69662
 20
82.636886
 30
0.0
 41
0.0
  0
SEQEND
  8
DIM
 62
     7
  0
TEXT
  8
DIM
 62
     7
 10
35.46162
 20
82.105636
 30
0.0
 40
1.0625
  1
PART #CM-1196
 41
0.75
 11
35.46162
 21
82.636886
 31
0.0
 73
     2
  0
TEXT
  8
DIM
 62
     7
 10
35.46162
 20
80.334802
 30
0.0
 40
1.0625
  1
CABLEWAY RING
 41
0.75
 11
35.46162
 21
80.866052
 31
0.0
 73
     2
  0
TEXT
  8
DIM
 62
     7
 10
36.64162
 20
73.022802
 30
0.0
 40
1.0625
  1
CABLE RING
 41
0.75
 11
36.64162
 21
73.554052
 31
0.0
 73
     2
  0
TEXT
  8
DIM
 62
     7
 10
36.64162
 20
74.793636
 30
0.0
 40
1.0625
  1
PART #CM-1220
 41
0.75
 11
36.64162
 21
75.324886
 31
0.0
 73
     2
  0
POLYLINE
  8
DIM
 62
     7
 66
     1
 10
0.0
 20
0.0
 30
0.0
 41
0.57375
  0
VERTEX
  8
DIM
 62
     7
 10
33.256592
 20
72.552869
 30
0.0
  0
VERTEX
  8
DIM
 62
     7
 10
33.816494
 20
73.976741
 30
0.0
 41
0.0
  0
VERTEX
  8
DIM
 62
     7
 10
34.34662
 20
75.324886
 30
0.0
 41
0.0
  0
VERTEX
  8
DIM
 62
     7
 10
35.87662
 20
75.324886
 30
0.0
 41
0.0
  0
SEQEND
  8
DIM
 62
     7
  0
TEXT
  8
DIM
 62
     7
 10
58.389637
 20
95.954878
 30
0.0
 40
1.0625
  1
CABLEWAY COVER
 41
0.75
 72
     2
 11
69.811512
 21
96.486128
 31
0.0
 73
     2
  0
TEXT
  8
DIM
 62
     7
 10
61.045887
 20
97.725711
 30
0.0
 40
1.0625
  1
PART #1197-C
 41
0.75
 72
     2
 11
69.811512
 21
98.256961
 31
0.0
 73
     2
  0
POLYLINE
  8
DIM
 62
     7
 66
     1
 10
0.0
 20
0.0
 30
0.0
 41
0.57375
  0
VERTEX
  8
DIM
 62
     7
 10
75.111579
 20
90.614869
 30
0.0
  0
VERTEX
  8
DIM
 62
     7
 10
74.551676
 20
92.038741
 30
0.0
 41
0.0
  0
VERTEX
  8
DIM
 62
     7
 10
72.106512
 20
98.256961
 30
0.0
 41
0.0
  0
VERTEX
  8
DIM
 62
     7
 10
70.576512
 20
98.256961
 30
0.0
 41
0.0
  0
SEQEND
  8
DIM
 62
     7
  0
TEXT
  8
TEXT
 10
1.693962
 20
65.156222
 30
0.0
 40
1.0625
  1
THIS UNIT SUPPLIED WITH:
 41
0.75
  0
TEXT
  8
TEXT
 10
2.721274
 20
63.385389
 30
0.0
 40
1.0625
  1
TWELVE (12) CABLEWAY RINGS
 41
0.75
  0
TEXT
  8
TEXT
 10
2.721274
 20
61.614555
 30
0.0
 40
1.0625
  1
TWO (2) CABLEWAY COVERS
 41
0.75
  0
TEXT
  8
TEXT
 10
2.721274
 20
59.843722
 30
0.0
 40
1.0625
  1
SIX (6) CABLE RINGS
 41
0.75
  0
ENDSEC
  0
EOF
