  0
SECTION
  2
HEADER
  9
$ACADVER
  1
AC1009
  9
$INSBASE
 10
0.0
 20
0.0
 30
0.0
  9
$EXTMIN
 10
0.0
 20
0.0
 30
0.0
  9
$EXTMAX
 10
91.08
 20
139.5
 30
0.0
  9
$LIMMIN
 10
0.0
 20
0.0
  9
$LIMMAX
 10
75.0
 20
50.0
  9
$ORTHOMODE
 70
     1
  9
$REGENMODE
 70
     1
  9
$FILLMODE
 70
     1
  9
$QTEXTMODE
 70
     0
  9
$MIRRTEXT
 70
     0
  9
$DRAGMODE
 70
     2
  9
$LTSCALE
 40
1.0
  9
$OSMODE
 70
     0
  9
$ATTMODE
 70
     1
  9
$TEXTSIZE
 40
1.125
  9
$TRACEWID
 40
0.05
  9
$TEXTSTYLE
  7
TXT
  9
$CLAYER
  8
OBJECT
  9
$CELTYPE
  6
BYLAYER
  9
$CECOLOR
 62
   256
  9
$DIMSCALE
 40
9.0
  9
$DIMASZ
 40
0.18
  9
$DIMEXO
 40
0.063
  9
$DIMDLI
 40
0.281
  9
$DIMRND
 40
0.0
  9
$DIMDLE
 40
0.0
  9
$DIMEXE
 40
0.093
  9
$DIMTP
 40
0.0
  9
$DIMTM
 40
0.0
  9
$DIMTXT
 40
0.125
  9
$DIMCEN
 40
0.09
  9
$DIMTSZ
 40
0.0
  9
$DIMTOL
 70
     0
  9
$DIMLIM
 70
     0
  9
$DIMTIH
 70
     1
  9
$DIMTOH
 70
     1
  9
$DIMSE1
 70
     0
  9
$DIMSE2
 70
     0
  9
$DIMTAD
 70
     0
  9
$DIMZIN
 70
     0
  9
$DIMBLK
  1

  9
$DIMASO
 70
     1
  9
$DIMSHO
 70
     1
  9
$DIMPOST
  1

  9
$DIMAPOST
  1

  9
$DIMALT
 70
     0
  9
$DIMALTD
 70
     2
  9
$DIMALTF
 40
25.4
  9
$DIMLFAC
 40
1.0
  9
$DIMTOFL
 70
     0
  9
$DIMTVP
 40
0.0
  9
$DIMTIX
 70
     0
  9
$DIMSOXD
 70
     0
  9
$DIMSAH
 70
     0
  9
$DIMBLK1
  1

  9
$DIMBLK2
  1

  9
$DIMSTYLE
  2
23NSTD
  9
$DIMCLRD
 70
     0
  9
$DIMCLRE
 70
     0
  9
$DIMCLRT
 70
     0
  9
$DIMTFAC
 40
1.0
  9
$DIMGAP
 40
0.09
  9
$LUNITS
 70
     2
  9
$LUPREC
 70
     3
  9
$SKETCHINC
 40
0.1
  9
$FILLETRAD
 40
0.0
  9
$AUNITS
 70
     0
  9
$AUPREC
 70
     0
  9
$MENU
  1
acad
  9
$ELEVATION
 40
0.0
  9
$PELEVATION
 40
0.0
  9
$THICKNESS
 40
0.0
  9
$LIMCHECK
 70
     0
  9
$BLIPMODE
 70
     1
  9
$CHAMFERA
 40
0.0
  9
$CHAMFERB
 40
0.0
  9
$SKPOLY
 70
     0
  9
$TDCREATE
 40
2451039.560637963
  9
$TDUPDATE
 40
2451040.647076273
  9
$TDINDWG
 40
0.2596856481
  9
$TDUSRTIMER
 40
0.2596856481
  9
$USRTIMER
 70
     1
  9
$ANGBASE
 50
0.0
  9
$ANGDIR
 70
     0
  9
$PDMODE
 70
     0
  9
$PDSIZE
 40
0.0
  9
$PLINEWID
 40
0.0
  9
$COORDS
 70
     0
  9
$SPLFRAME
 70
     0
  9
$SPLINETYPE
 70
     6
  9
$SPLINESEGS
 70
     8
  9
$ATTDIA
 70
     0
  9
$ATTREQ
 70
     1
  9
$HANDLING
 70
     0
  9
$HANDSEED
  5
0
  9
$SURFTAB1
 70
     6
  9
$SURFTAB2
 70
     6
  9
$SURFTYPE
 70
     6
  9
$SURFU
 70
     6
  9
$SURFV
 70
     6
  9
$UCSNAME
  2

  9
$UCSORG
 10
0.0
 20
0.0
 30
0.0
  9
$UCSXDIR
 10
1.0
 20
0.0
 30
0.0
  9
$UCSYDIR
 10
0.0
 20
1.0
 30
0.0
  9
$PUCSNAME
  2

  9
$PUCSORG
 10
0.0
 20
0.0
 30
0.0
  9
$PUCSXDIR
 10
1.0
 20
0.0
 30
0.0
  9
$PUCSYDIR
 10
0.0
 20
1.0
 30
0.0
  9
$USERI1
 70
     0
  9
$USERI2
 70
     0
  9
$USERI3
 70
     0
  9
$USERI4
 70
     0
  9
$USERI5
 70
     0
  9
$USERR1
 40
0.0
  9
$USERR2
 40
0.0
  9
$USERR3
 40
0.0
  9
$USERR4
 40
0.0
  9
$USERR5
 40
0.0
  9
$WORLDVIEW
 70
     1
  9
$SHADEDGE
 70
     3
  9
$SHADEDIF
 70
    70
  9
$TILEMODE
 70
     1
  9
$MAXACTVP
 70
    16
  9
$PINSBASE
 10
0.0
 20
0.0
 30
0.0
  9
$PLIMCHECK
 70
     0
  9
$PEXTMIN
 10
1.000000E+20
 20
1.000000E+20
 30
1.000000E+20
  9
$PEXTMAX
 10
-1.000000E+20
 20
-1.000000E+20
 30
-1.000000E+20
  9
$PLIMMIN
 10
0.0
 20
0.0
  9
$PLIMMAX
 10
12.0
 20
9.0
  9
$UNITMODE
 70
     0
  9
$VISRETAIN
 70
     0
  9
$PLINEGEN
 70
     0
  9
$PSLTSCALE
 70
     1
  9
$TREEDEPTH
 70
  3020
  9
$DWGCODEPAGE
  3
ascii
  0
ENDSEC
  0
SECTION
  2
TABLES
  0
TABLE
  2
VPORT
 70
     2
  0
VPORT
  2
*ACTIVE
 70
     0
 10
0.0
 20
0.0
 11
1.0
 21
1.0
 12
95.023181
 22
69.75
 13
0.0
 23
0.0
 14
1.0
 24
1.0
 15
0.0
 25
0.0
 16
0.0
 26
0.0
 36
1.0
 17
0.0
 27
0.0
 37
0.0
 40
139.5
 41
1.36234
 42
50.0
 43
0.0
 44
0.0
 50
0.0
 51
0.0
 71
     0
 72
   100
 73
     1
 74
     0
 75
     0
 76
     0
 77
     0
 78
     0
  0
ENDTAB
  0
TABLE
  2
LTYPE
 70
     4
  0
LTYPE
  2
CONTINUOUS
 70
    64
  3
Solid line
 72
    65
 73
     0
 40
0.0
  0
LTYPE
  2
HIDDEN
 70
    64
  3
_ _ _ _ _ _ _ _ _ _ _ _ _ _ _ _ _ _ _ _ _ _ _
 72
    65
 73
     2
 40
0.375
 49
0.25
 49
-0.125
  0
LTYPE
  2
PHANTOM
 70
    64
  3
_____ _ _ _____ _ _ _____ _ _ _____ _ _ ____
 72
    65
 73
     6
 40
2.5
 49
1.25
 49
-0.25
 49
0.25
 49
-0.25
 49
0.25
 49
-0.25
  0
LTYPE
  2
CENTER
 70
    64
  3
____ _ ____ _ ____ _ ____ _ ____ _ ____ _ ____
 72
    65
 73
     4
 40
2.0
 49
1.25
 49
-0.25
 49
0.25
 49
-0.25
  0
ENDTAB
  0
TABLE
  2
LAYER
 70
    12
  0
LAYER
  2
0
 70
    64
 62
     7
  6
CONTINUOUS
  0
LAYER
  2
OBJECT
 70
    64
 62
     7
  6
CONTINUOUS
  0
LAYER
  2
DIM
 70
    64
 62
     7
  6
CONTINUOUS
  0
LAYER
  2
HIDDEN
 70
    64
 62
     7
  6
HIDDEN
  0
LAYER
  2
BEND
 70
    64
 62
     7
  6
PHANTOM
  0
LAYER
  2
TEXT
 70
    64
 62
     7
  6
CONTINUOUS
  0
LAYER
  2
TITLE
 70
    64
 62
     7
  6
CONTINUOUS
  0
LAYER
  2
CENTER
 70
    64
 62
     7
  6
CENTER
  0
LAYER
  2
DEFPOINTS
 70
    64
 62
     7
  6
CONTINUOUS
  0
LAYER
  2
UPRIGHTS
 70
    64
 62
     7
  6
CONTINUOUS
  0
LAYER
  2
TOP
 70
    64
 62
     7
  6
CONTINUOUS
  0
LAYER
  2
BASE
 70
    64
 62
     7
  6
CONTINUOUS
  0
ENDTAB
  0
TABLE
  2
STYLE
 70
     3
  0
STYLE
  2
STANDARD
 70
    64
 40
0.0
 41
1.0
 50
0.0
 71
     0
 42
0.2
  3
txt
  4

  0
STYLE
  2
TXT
 70
    64
 40
0.0
 41
0.75
 50
0.0
 71
     0
 42
1.125
  3
TXT.shx
  4

  0
STYLE
  2
REV
 70
    64
 40
0.0
 41
0.7
 50
0.0
 71
     0
 42
0.75
  3
romans
  4

  0
ENDTAB
  0
TABLE
  2
VIEW
 70
     0
  0
ENDTAB
  0
TABLE
  2
UCS
 70
     0
  0
ENDTAB
  0
TABLE
  2
APPID
 70
     1
  0
APPID
  2
ACAD
 70
    64
  0
ENDTAB
  0
TABLE
  2
DIMSTYLE
 70
     2
  0
DIMSTYLE
  2
23NSTD
 70
    64
  3

  4

  5

  6

  7

 40
9.0
 41
0.18
 42
0.063
 43
0.281
 44
0.093
 45
0.0
 46
0.0
 47
0.0
 48
0.0
140
0.125
141
0.09
142
0.0
143
25.4
144
1.0
145
0.0
146
1.0
147
0.09
 71
     0
 72
     0
 73
     1
 74
     1
 75
     0
 76
     0
 77
     0
 78
     0
170
     0
171
     2
172
     0
173
     0
174
     0
175
     0
176
     0
177
     0
178
     0
  0
DIMSTYLE
  2
23NSTDI
 70
    64
  3

  4

  5

  6

  7

 40
9.0
 41
0.18
 42
0.063
 43
0.281
 44
0.093
 45
0.0
 46
0.0
 47
0.0
 48
0.0
140
0.125
141
0.09
142
0.0
143
25.4
144
1.0
145
0.0
146
1.0
147
0.09
 71
     0
 72
     0
 73
     1
 74
     1
 75
     0
 76
     0
 77
     0
 78
     0
170
     0
171
     2
172
     0
173
     0
174
     1
175
     0
176
     0
177
     0
178
     0
  0
ENDTAB
  0
ENDSEC
  0
SECTION
  2
BLOCKS
  0
BLOCK
  8
0
  2
C
 70
     2
 10
0.0
 20
0.0
 30
0.0
  3
C
  0
ATTDEF
  8
TEXT
 10
15.305976
 20
0.539405
 30
0.0
 40
0.125
  1
TNT
  3
ENTER INITIALS
  2
NAME
 70
     4
 41
0.75
 72
     1
 11
15.477851
 21
0.539405
 31
0.0
  0
ATTDEF
  8
TEXT
 10
16.001361
 20
0.539405
 30
0.0
 40
0.125
  1

  3
ENTER DATE
  2
DATE
 70
     4
 41
0.75
 72
     1
 11
16.173236
 21
0.539405
 31
0.0
  0
ATTDEF
  8
TEXT
 10
19.199248
 20
0.710607
 30
0.0
 40
0.125
  1

  3
ENTER TITLE LINE #1
  2
TITLE1
 70
     4
 41
0.75
 72
     1
 11
19.433623
 21
0.710607
 31
0.0
  0
ATTDEF
  8
TEXT
 10
19.183623
 20
0.499477
 30
0.0
 40
0.125
  1
 
  3
ENTER TITLE LINE #2
  2
TITLE2
 70
     4
 41
0.75
 72
     1
 11
19.433623
 21
0.499477
 31
0.0
  0
ATTDEF
  8
TEXT
 10
19.415748
 20
0.106224
 30
0.0
 40
0.156
  1
 
  3
ENTER PART #
  2
PART
 70
     4
 41
0.75
 72
     1
 11
19.630248
 21
0.106224
 31
0.0
  0
ATTDEF
  8
TEXT
 10
19.415748
 20
15.677641
 30
0.0
 40
0.156
  1

  3
ENTER PART #
  2
PART
 70
     4
 41
0.75
 72
     1
 11
19.630248
 21
15.677641
 31
0.0
  0
ATTDEF
  8
TEXT
 10
11.056898
 20
1.182012
 30
0.0
 40
0.125
  1

  3
ENTER CUT SIZE
  2
CUTSIZE
 70
     4
 41
4.936416
 72
     5
 11
14.964894
 21
1.182012
 31
0.0
  0
ATTDEF
  8
TEXT
 10
11.069371
 20
0.286779
 30
0.0
 40
0.125
  1

  3
ENTER QUANTITY
  2
QTY
 70
     4
 41
0.75
 72
     1
 11
11.194371
 21
0.286779
 31
0.0
  0
ATTDEF
  8
TEXT
 10
11.967179
 20
0.286779
 30
0.0
 40
0.125
  1

  3
ENTER "USED ON" PART #
  2
USED
 70
     4
 41
0.75
 72
     1
 11
12.139054
 21
0.286779
 31
0.0
  0
ATTDEF
  8
TEXT
 10
15.958356
 20
0.955532
 30
0.0
 40
0.125
  1
AS NOTED
  3
ENTER MATERIAL
  2
MAT
 70
     4
 41
0.75
 72
     1
 11
16.083356
 21
0.955532
 31
0.0
  0
ATTDEF
  8
TEXT
 10
15.848981
 20
0.743654
 30
0.0
 40
0.125
  1
SEE SPEC.
  3
ENTER FINISH
  2
FINISH
 70
     4
 41
0.75
 72
     1
 11
16.083356
 21
0.743654
 31
0.0
  0
LINE
  8
TITLE
 10
20.5
 20
0.0
 30
0.0
 11
20.5
 21
16.0
 31
0.0
  0
LINE
  8
TITLE
 10
0.0
 20
0.0
 30
0.0
 11
20.5
 21
0.0
 31
0.0
  0
LINE
  8
TITLE
 10
0.0
 20
16.0
 30
0.0
 11
0.0
 21
0.0
 31
0.0
  0
LINE
  8
TITLE
 10
0.0
 20
16.0
 30
0.0
 11
20.5
 21
16.0
 31
0.0
  0
LINE
  8
TITLE
 10
11.02
 20
1.377
 30
0.0
 11
11.02
 21
0.0
 31
0.0
  0
LINE
  8
TITLE
 62
     8
 10
18.6875
 20
15.3125
 30
0.0
 11
18.6875
 21
15.5625
 31
0.0
  0
TEXT
  8
TITLE
 62
     8
 10
18.1875
 20
15.8125
 30
0.0
 40
0.09375
  1
DWG.
  0
TEXT
  8
TITLE
 62
     8
 10
18.179285
 20
15.398672
 30
0.0
 40
0.09375
  1
ISSUE
  0
LINE
  8
TITLE
 10
18.0625
 20
15.3125
 30
0.0
 11
18.0625
 21
16.0
 31
0.0
  0
TEXT
  8
TITLE
 62
     8
 10
18.1875
 20
15.65625
 30
0.0
 40
0.09375
  1
NO.
  0
LINE
  8
TITLE
 62
     8
 10
18.0625
 20
15.3125
 30
0.0
 11
20.5
 21
15.3125
 31
0.0
  0
LINE
  8
TITLE
 62
     8
 10
18.0625
 20
15.5625
 30
0.0
 11
20.5
 21
15.5625
 31
0.0
  0
TEXT
  8
TITLE
 62
     8
 10
19.12324
 20
15.400848
 30
0.0
 40
0.09375
  1
REVISIONS
  0
TEXT
  8
TITLE
 62
     8
 10
18.4375
 20
0.990354
 30
0.0
 40
0.09375
  1
NAME:
  0
TEXT
  8
TITLE
 62
     8
 10
18.4375
 20
0.063166
 30
0.0
 40
0.0938
  1
NO.
  0
TEXT
  8
TITLE
 62
     8
 10
18.4375
 20
0.219499
 30
0.0
 40
0.0938
  1
DWG.
  0
LINE
  8
TITLE
 62
     8
 10
18.367246
 20
0.0
 30
0.0
 11
18.367246
 21
1.127
 31
0.0
  0
LINE
  8
TITLE
 62
     8
 10
17.4365
 20
1.127
 30
0.0
 11
17.4365
 21
1.377
 31
0.0
  0
LINE
  8
TITLE
 10
17.636733
 20
0.859007
 30
0.0
 11
17.669763
 21
0.859007
 31
0.0
  0
ARC
  8
TITLE
 10
17.669763
 20
0.76607
 30
0.0
 40
0.092937
 50
0.0
 51
90.0
  0
LINE
  8
TITLE
 10
17.713861
 20
0.732878
 30
0.0
 11
17.672564
 21
0.732878
 31
0.0
  0
LINE
  8
TITLE
 10
17.636733
 20
0.593473
 30
0.0
 11
17.669763
 21
0.593473
 31
0.0
  0
ARC
  8
TITLE
 10
17.669763
 20
0.68641
 30
0.0
 40
0.092937
 50
270.0
 51
0.0
  0
LINE
  8
TITLE
 10
17.713861
 20
0.719602
 30
0.0
 11
17.672564
 21
0.719602
 31
0.0
  0
LINE
  8
TITLE
 10
17.636733
 20
0.593473
 30
0.0
 11
17.636733
 21
0.859007
 31
0.0
  0
LINE
  8
TITLE
 10
17.672564
 20
0.719602
 30
0.0
 11
17.672564
 21
0.732878
 31
0.0
  0
LINE
  8
TITLE
 10
17.7627
 20
0.68641
 30
0.0
 11
17.7627
 21
0.76607
 31
0.0
  0
LINE
  8
TITLE
 10
17.713861
 20
0.719602
 30
0.0
 11
17.713861
 21
0.732878
 31
0.0
  0
LINE
  8
TITLE
 10
17.533885
 20
0.859007
 30
0.0
 11
17.582422
 21
0.859007
 31
0.0
  0
LINE
  8
TITLE
 10
17.462234
 20
0.859007
 30
0.0
 11
17.510772
 21
0.859007
 31
0.0
  0
ARC
  8
TITLE
 10
17.524048
 20
0.636796
 30
0.0
 40
0.013277
 50
180.0
 51
262.555716
  0
ARC
  8
TITLE
 10
17.520608
 20
0.636796
 30
0.0
 40
0.013277
 50
277.444284
 51
0.0
  0
ARC
  8
TITLE
 10
17.565826
 20
0.610069
 30
0.0
 40
0.016596
 50
270.0
 51
0.0
  0
ARC
  8
TITLE
 10
17.47883
 20
0.610069
 30
0.0
 40
0.016596
 50
180.0
 51
270.0
  0
LINE
  8
TITLE
 10
17.47883
 20
0.593473
 30
0.0
 11
17.565826
 21
0.593473
 31
0.0
  0
LINE
  8
TITLE
 10
17.510772
 20
0.636796
 30
0.0
 11
17.510772
 21
0.859007
 31
0.0
  0
LINE
  8
TITLE
 10
17.533885
 20
0.636796
 30
0.0
 11
17.533885
 21
0.859007
 31
0.0
  0
LINE
  8
TITLE
 10
17.462234
 20
0.610069
 30
0.0
 11
17.462234
 21
0.859007
 31
0.0
  0
LINE
  8
TITLE
 10
17.582422
 20
0.610069
 30
0.0
 11
17.582422
 21
0.859007
 31
0.0
  0
LINE
  8
TITLE
 10
17.362847
 20
0.732878
 30
0.0
 11
17.290041
 21
0.732878
 31
0.0
  0
LINE
  8
TITLE
 10
17.277329
 20
0.859007
 30
0.0
 11
17.362847
 21
0.859007
 31
0.0
  0
LINE
  8
TITLE
 10
17.290041
 20
0.719602
 30
0.0
 11
17.290041
 21
0.72624
 31
0.0
  0
LINE
  8
TITLE
 10
17.277329
 20
0.593473
 30
0.0
 11
17.362847
 21
0.593473
 31
0.0
  0
LINE
  8
TITLE
 10
17.362847
 20
0.719602
 30
0.0
 11
17.290041
 21
0.719602
 31
0.0
  0
LINE
  8
TITLE
 10
17.277329
 20
0.593473
 30
0.0
 11
17.277329
 21
0.859007
 31
0.0
  0
LINE
  8
TITLE
 10
17.290041
 20
0.732878
 30
0.0
 11
17.290041
 21
0.72624
 31
0.0
  0
ARC
  8
TITLE
 10
17.362847
 20
0.795943
 30
0.0
 40
0.063065
 50
270.0
 51
90.0
  0
ARC
  8
TITLE
 10
17.362847
 20
0.656537
 30
0.0
 40
0.063065
 50
270.0
 51
90.0
  0
TEXT
  8
TITLE
 62
     8
 10
16.3755
 20
1.197741
 30
0.0
 40
0.09375
  1
PART NO.
  0
TEXT
  8
TITLE
 62
     8
 10
16.70238
 20
0.975598
 30
0.0
 40
0.09375
  1
SCALE:
  0
LINE
  8
TITLE
 62
     8
 10
16.663538
 20
0.0
 30
0.0
 11
16.663538
 21
1.127
 31
0.0
  0
TEXT
  8
TITLE
 62
     8
 10
16.763895
 20
0.125
 30
0.0
 40
0.09375
  1
WILLOUGHBY, OHIO
  0
TEXT
  8
TITLE
 62
     8
 10
16.704615
 20
0.375
 30
0.0
 40
0.09375
  1
BUD INDUSTRIES, INC.
  0
LINE
  8
TITLE
 62
     8
 10
18.367246
 20
0.382
 30
0.0
 11
20.5
 21
0.382
 31
0.0
  0
TEXT
  8
TITLE
 62
     8
 10
18.502446
 20
1.197741
 30
0.0
 40
0.09375
  1
DESCRIPTION
  0
LINE
  8
TITLE
 62
     8
 10
15.9375
 20
1.127
 30
0.0
 11
15.9375
 21
1.377
 31
0.0
  0
LINE
  8
TITLE
 62
     8
 10
15.419296
 20
1.127
 30
0.0
 11
15.419296
 21
1.377
 31
0.0
  0
TEXT
  8
TITLE
 62
     8
 10
15.470847
 20
1.197741
 30
0.0
 40
0.09375
  1
REQ'D.
  0
TEXT
  8
TITLE
 62
     8
 10
15.063
 20
0.972877
 30
0.0
 40
0.09375
  1
MAT:
  0
TEXT
  8
TITLE
 62
     8
 10
15.056572
 20
1.199408
 30
0.0
 40
0.09375
  1
ITEM
  0
TEXT
  8
TITLE
 62
     8
 10
15.063
 20
0.3125
 30
0.0
 40
0.09375
  1
CH.
  0
TEXT
  8
TITLE
 62
     8
 10
15.063
 20
0.569374
 30
0.0
 40
0.09375
  1
DR.
  0
TEXT
  8
TITLE
 62
     8
 10
15.063
 20
0.774118
 30
0.0
 40
0.09375
  1
FINISH:
  0
TEXT
  8
TITLE
 62
     8
 10
15.063
 20
0.0625
 30
0.0
 40
0.09375
  1
APP.
  0
LINE
  8
TITLE
 62
     8
 10
15.697756
 20
0.0
 30
0.0
 11
15.697756
 21
0.709
 31
0.0
  0
LINE
  8
TITLE
 62
     8
 10
15.0005
 20
0.0
 30
0.0
 11
15.0005
 21
1.377
 31
0.0
  0
TEXT
  8
TITLE
 10
13.045906
 20
0.952072
 30
0.0
 40
0.111789
  1
%%uTOLERANCES:
  0
TEXT
  8
TITLE
 62
     8
 10
13.091485
 20
0.23449
 30
0.0
 40
0.077242
  1
    SURFACES
  0
TEXT
  8
TITLE
 62
     8
 10
12.99372
 20
0.749439
 30
0.0
 40
0.077242
  1
%%p.005 BETWEEN HOLE CENTERS
  0
TEXT
  8
TITLE
 62
     8
 10
12.99372
 20
0.620702
 30
0.0
 40
0.077242
  1
%%p.015 FROM SHEARED EDGE
  0
TEXT
  8
TITLE
 62
     8
 10
12.99372
 20
0.491964
 30
0.0
 40
0.077242
  1
%%p.032 FROM A BENT SURFACE
  0
TEXT
  8
TITLE
 62
     8
 10
12.99865
 20
0.056475
 30
0.0
 40
0.077242
  1
UNLESS OTHERWISE SPECIFIED
  0
TEXT
  8
TITLE
 62
     8
 10
12.99372
 20
0.363227
 30
0.0
 40
0.077242
  1
%%p.063 BETWEEN ASSEMBLED
  0
LINE
  8
TITLE
 62
     8
 10
11.395
 20
0.0
 30
0.0
 11
11.395
 21
0.25
 31
0.0
  0
TEXT
  8
TITLE
 62
     8
 10
11.81726
 20
0.077628
 30
0.0
 40
0.09375
  1
USED ON
  0
LINE
  8
TITLE
 62
     8
 10
12.9225
 20
0.0
 30
0.0
 11
12.9225
 21
1.127
 31
0.0
  0
LINE
  8
TITLE
 10
11.02
 20
0.25
 30
0.0
 11
12.9225
 21
0.25
 31
0.0
  0
LINE
  8
TITLE
 10
12.9225
 20
1.127
 30
0.0
 11
11.02
 21
1.127
 31
0.0
  0
TEXT
  8
TITLE
 62
     8
 10
11.071749
 20
0.077628
 30
0.0
 40
0.09375
  1
QTY.
  0
LINE
  8
TITLE
 10
15.0005
 20
1.377
 30
0.0
 11
11.02
 21
1.377
 31
0.0
  0
LINE
  8
TITLE
 10
15.0005
 20
1.377
 30
0.0
 11
20.5
 21
1.377
 31
0.0
  0
LINE
  8
TITLE
 10
12.9225
 20
1.127
 30
0.0
 11
20.5
 21
1.127
 31
0.0
  0
LINE
  8
TITLE
 10
15.0005
 20
0.918
 30
0.0
 11
18.367246
 21
0.918
 31
0.0
  0
LINE
  8
TITLE
 10
15.0005
 20
0.25
 30
0.0
 11
16.663538
 21
0.25
 31
0.0
  0
LINE
  8
TITLE
 10
15.0005
 20
0.709
 30
0.0
 11
16.663538
 21
0.709
 31
0.0
  0
LINE
  8
TITLE
 10
15.0005
 20
0.5
 30
0.0
 11
16.663538
 21
0.5
 31
0.0
  0
ENDBLK
  8
0
  0
BLOCK
  8
0
  2
BOMCHART
 70
     2
 10
0.0
 20
0.0
 30
0.0
  3
BOMCHART
  0
ATTDEF
  8
TEXT
 10
0.028755
 20
0.040837
 30
0.0
 40
0.125
  1

  3
ENTER ITEM #
  2
ITEM
 70
     4
 41
0.75
 72
     1
 11
0.185005
 21
0.040837
 31
0.0
  0
ATTDEF
  8
TEXT
 10
0.393148
 20
0.040837
 30
0.0
 40
0.125
  1

  3
ENTER # REQUIRED
  2
#REQ'D.
 70
     4
 41
0.75
 72
     1
 11
0.65096
 21
0.040837
 31
0.0
  0
ATTDEF
  8
TEXT
 10
1.445486
 20
0.040837
 30
0.0
 40
0.125
  1

  3
ENTER PART #
  2
PART#
 70
     4
 41
0.75
 72
     1
 11
1.664236
 21
0.040837
 31
0.0
  0
ATTDEF
  8
TEXT
 10
2.538435
 20
0.040837
 30
0.0
 40
0.125
  1

  3
ENTER PART DESCRIPTION
  2
DESCRIPTION
 70
     4
 41
0.75
  0
LINE
  8
TITLE
 10
0.0
 20
0.208
 30
0.0
 11
5.4995
 21
0.208
 31
0.0
  0
LINE
  8
TITLE
 62
     8
 10
0.0
 20
0.0
 30
0.0
 11
0.0
 21
0.208
 31
0.0
  0
LINE
  8
TITLE
 62
     8
 10
0.418796
 20
0.0
 30
0.0
 11
0.418796
 21
0.208
 31
0.0
  0
LINE
  8
TITLE
 62
     8
 10
0.937
 20
0.0
 30
0.0
 11
0.937
 21
0.208
 31
0.0
  0
LINE
  8
TITLE
 62
     8
 10
2.436
 20
0.0
 30
0.0
 11
2.436
 21
0.208
 31
0.0
  0
ENDBLK
  8
0
  0
BLOCK
  8
0
  2
REVSYM
 70
     2
 10
0.0
 20
0.0
 30
0.0
  3
REVSYM
  0
ATTDEF
  8
0
 10
-1.125
 20
-0.5
 30
0.0
 40
1.0
  1
A
  3
Revison
  2
REV
 70
     0
 41
0.75
  7
TXT
 72
     4
 11
0.0
 21
0.0
 31
0.0
  0
ATTDEF
  8
0
 10
1.866925
 20
1.243981
 30
0.0
 40
0.75
  1

  3
Revison Date
  2
DATE
 70
     1
 41
0.7
  7
REV
  0
ATTDEF
  8
0
 10
1.866925
 20
0.029695
 30
0.0
 40
0.75
  1

  3
Revison Description
  2
DESCRIPT
 70
     1
 41
0.7
  7
REV
  0
ATTDEF
  8
0
 10
1.866925
 20
-1.184591
 30
0.0
 40
0.75
  1

  3
Revised By
  2
BY
 70
     1
 41
0.7
  7
REV
  0
CIRCLE
  8
0
 10
0.0
 20
0.0
 30
0.0
 40
0.828
  0
ENDBLK
  8
0
  0
BLOCK
  8
0
  2
REVCHART
 70
     2
 10
0.0
 20
0.0
 30
0.0
  3
REVCHART
  0
LINE
  8
TITLE
 10
0.0
 20
-0.449026
 30
0.0
 11
0.0
 21
0.0
 31
0.0
  0
LINE
  8
TITLE
 62
     8
 10
0.0
 20
-0.449026
 30
0.0
 11
2.4375
 21
-0.449026
 31
0.0
  0
LINE
  8
TITLE
 10
0.625
 20
-0.449026
 30
0.0
 11
0.625
 21
0.0
 31
0.0
  0
ATTDEF
  8
TEXT
 10
0.14375
 20
-0.299513
 30
0.0
 40
0.15
  1

  3
ENTER REV. LEVEL
  2
REV
 70
     4
 41
0.75
 72
     4
 11
0.3125
 21
-0.224513
 31
0.0
  0
CIRCLE
  8
TEXT
 10
0.3125
 20
-0.224513
 30
0.0
 40
0.116519
  0
ATTDEF
  8
TEXT
 62
     1
 10
0.717249
 20
-0.19326
 30
0.0
 40
0.125
  1

  3
ENTER LINE #1
  2
REV1
 70
     4
 41
0.75
  0
ATTDEF
  8
TEXT
 62
     1
 10
0.717249
 20
-0.401593
 30
0.0
 40
0.125
  1

  3
ENTER LINE #2
  2
REV2
 70
     4
 41
0.75
  0
ENDBLK
  8
0
  0
BLOCK
  8
0
  2
HB
 70
    64
 10
0.0
 20
0.0
 30
0.0
  3
HB
  0
TEXT
  8
TEXT
 10
0.207833
 20
15.060079
 30
0.0
 40
0.125
  1
NAME
  7
TXT
 72
     1
 11
0.437
 21
15.060079
 31
0.0
  0
TEXT
  8
TEXT
 10
0.207833
 20
15.268413
 30
0.0
 40
0.125
  1
PART
  7
TXT
 72
     1
 11
0.437
 21
15.268413
 31
0.0
  0
TEXT
  8
TEXT
 10
5.372
 20
15.060079
 30
0.0
 40
0.125
  1
No.
  7
TXT
 72
     1
 11
5.497
 21
15.060079
 31
0.0
  0
TEXT
  8
TEXT
 10
5.267833
 20
15.268413
 30
0.0
 40
0.125
  1
PART
  7
TXT
 72
     1
 11
5.497
 21
15.268413
 31
0.0
  0
LINE
  8
TITLE
 10
5.872
 20
15.438
 30
0.0
 11
5.872
 21
15.02
 31
0.0
  0
LINE
  8
TITLE
 10
5.122
 20
15.438
 30
0.0
 11
5.122
 21
15.02
 31
0.0
  0
LINE
  8
TITLE
 10
5.06
 20
15.438
 30
0.0
 11
5.06
 21
15.02
 31
0.0
  0
LINE
  8
TITLE
 10
0.812
 20
15.02
 30
0.0
 11
0.812
 21
15.438
 31
0.0
  0
LINE
  8
TITLE
 10
0.062
 20
15.02
 30
0.0
 11
10.058
 21
15.02
 31
0.0
  0
LINE
  8
TITLE
 10
10.058
 20
0.062
 30
0.0
 11
0.062
 21
0.062
 31
0.0
  0
LINE
  8
TITLE
 10
10.058
 20
15.438
 30
0.0
 11
10.058
 21
0.062
 31
0.0
  0
LINE
  8
TITLE
 10
0.062
 20
15.438
 30
0.0
 11
10.058
 21
15.438
 31
0.0
  0
LINE
  8
TITLE
 10
0.062
 20
0.062
 30
0.0
 11
0.062
 21
15.438
 31
0.0
  0
LINE
  8
TITLE
 10
0.0
 20
0.0
 30
0.0
 11
0.0
 21
15.5
 31
0.0
  0
LINE
  8
TITLE
 10
10.12
 20
0.0
 30
0.0
 11
0.0
 21
0.0
 31
0.0
  0
LINE
  8
TITLE
 10
10.12
 20
15.5
 30
0.0
 11
10.12
 21
0.0
 31
0.0
  0
LINE
  8
TITLE
 10
0.0
 20
15.5
 30
0.0
 11
10.12
 21
15.5
 31
0.0
  0
ENDBLK
  8
0
  0
BLOCK
  8
0
  2
*D5
 70
    65
 10
0.0
 20
0.0
 30
0.0
  3
*D
  0
LINE
  8
0
  6
BYBLOCK
 62
     0
 10
34.246357
 20
9.917903
 30
0.0
 11
46.388357
 21
9.917903
 31
0.0
  0
LINE
  8
0
  6
BYBLOCK
 62
     0
 10
34.246357
 20
93.915903
 30
0.0
 11
46.388357
 21
93.915903
 31
0.0
  0
LINE
  8
0
  6
BYBLOCK
 62
     0
 10
45.551357
 20
11.537903
 30
0.0
 11
45.551357
 21
50.544403
 31
0.0
  0
LINE
  8
0
  6
BYBLOCK
 62
     0
 10
45.551357
 20
92.295903
 30
0.0
 11
45.551357
 21
53.289403
 31
0.0
  0
SOLID
  8
0
  6
BYBLOCK
 62
     0
 10
45.281357
 20
11.537903
 30
0.0
 11
45.821357
 21
11.537903
 31
0.0
 12
45.551357
 22
9.917903
 32
0.0
 13
45.551357
 23
9.917903
 33
0.0
  0
SOLID
  8
0
  6
BYBLOCK
 62
     0
 10
45.281357
 20
92.295903
 30
0.0
 11
45.821357
 21
92.295903
 31
0.0
 12
45.551357
 22
93.915903
 32
0.0
 13
45.551357
 23
93.915903
 33
0.0
  0
TEXT
  8
0
  6
BYBLOCK
 62
     0
 10
43.441982
 20
51.354403
 30
0.0
 40
1.125
  1
83.998
 41
0.75
  7
TXT
 72
     1
 11
45.551357
 21
51.916903
 31
0.0
 73
     2
  0
POINT
  8
DEFPOINTS
  6
BYBLOCK
 62
     0
 10
33.679357
 20
9.917903
 30
0.0
  0
POINT
  8
DEFPOINTS
  6
BYBLOCK
 62
     0
 10
33.679357
 20
93.915903
 30
0.0
  0
POINT
  8
DEFPOINTS
  6
BYBLOCK
 62
     0
 10
45.551357
 20
93.915903
 30
0.0
  0
ENDBLK
  8
0
  0
BLOCK
  8
0
  2
*D6
 70
    65
 10
0.0
 20
0.0
 30
0.0
  3
*D
  0
LINE
  8
0
  6
BYBLOCK
 62
     0
 10
34.246357
 20
90.447903
 30
0.0
 11
39.644357
 21
90.447903
 31
0.0
  0
LINE
  8
0
  6
BYBLOCK
 62
     0
 10
34.246357
 20
13.385903
 30
0.0
 11
39.644357
 21
13.385903
 31
0.0
  0
LINE
  8
0
  6
BYBLOCK
 62
     0
 10
38.807357
 20
88.827903
 30
0.0
 11
38.807357
 21
53.289403
 31
0.0
  0
LINE
  8
0
  6
BYBLOCK
 62
     0
 10
38.807357
 20
15.005903
 30
0.0
 11
38.807357
 21
50.544403
 31
0.0
  0
SOLID
  8
0
  6
BYBLOCK
 62
     0
 10
38.537357
 20
88.827903
 30
0.0
 11
39.077357
 21
88.827903
 31
0.0
 12
38.807357
 22
90.447903
 32
0.0
 13
38.807357
 23
90.447903
 33
0.0
  0
SOLID
  8
0
  6
BYBLOCK
 62
     0
 10
38.537357
 20
15.005903
 30
0.0
 11
39.077357
 21
15.005903
 31
0.0
 12
38.807357
 22
13.385903
 32
0.0
 13
38.807357
 23
13.385903
 33
0.0
  0
TEXT
  8
0
  6
BYBLOCK
 62
     0
 10
39.580795
 20
51.354403
 30
0.0
 40
1.125
  1
 P.S.
 41
0.75
  7
TXT
 72
     1
 11
40.987045
 21
51.916903
 31
0.0
 73
     2
  0
TEXT
  8
0
  6
BYBLOCK
 62
     0
 10
35.22142
 20
51.354403
 30
0.0
 40
1.125
  1
77.062
 41
0.75
  7
TXT
 72
     1
 11
37.260482
 21
51.916903
 31
0.0
 73
     2
  0
POINT
  8
DEFPOINTS
  6
BYBLOCK
 62
     0
 10
33.679357
 20
90.447903
 30
0.0
  0
POINT
  8
DEFPOINTS
  6
BYBLOCK
 62
     0
 10
33.679357
 20
13.385903
 30
0.0
  0
POINT
  8
DEFPOINTS
  6
BYBLOCK
 62
     0
 10
38.807357
 20
13.385903
 30
0.0
  0
ENDBLK
  8
0
  0
BLOCK
  8
0
  2
*D7
 70
    65
 10
0.0
 20
0.0
 30
0.0
  3
*D
  0
LINE
  8
0
  6
BYBLOCK
 62
     0
 10
51.608266
 20
9.350903
 30
0.0
 11
51.608266
 21
1.704903
 31
0.0
  0
LINE
  8
0
  6
BYBLOCK
 62
     0
 10
68.108266
 20
9.350903
 30
0.0
 11
68.108266
 21
1.704903
 31
0.0
  0
LINE
  8
0
  6
BYBLOCK
 62
     0
 10
53.228266
 20
2.541903
 30
0.0
 11
57.220141
 21
2.541903
 31
0.0
  0
LINE
  8
0
  6
BYBLOCK
 62
     0
 10
66.488266
 20
2.541903
 30
0.0
 11
62.496391
 21
2.541903
 31
0.0
  0
SOLID
  8
0
  6
BYBLOCK
 62
     0
 10
53.228266
 20
2.811903
 30
0.0
 11
53.228266
 21
2.271903
 31
0.0
 12
51.608266
 22
2.541903
 32
0.0
 13
51.608266
 23
2.541903
 33
0.0
  0
SOLID
  8
0
  6
BYBLOCK
 62
     0
 10
66.488266
 20
2.811903
 30
0.0
 11
66.488266
 21
2.271903
 31
0.0
 12
68.108266
 22
2.541903
 32
0.0
 13
68.108266
 23
2.541903
 33
0.0
  0
TEXT
  8
0
  6
BYBLOCK
 62
     0
 10
58.030141
 20
1.979403
 30
0.0
 40
1.125
  1
16.500
 41
0.75
  7
TXT
 72
     1
 11
59.858266
 21
2.541903
 31
0.0
 73
     2
  0
POINT
  8
DEFPOINTS
  6
BYBLOCK
 62
     0
 10
51.608266
 20
9.917903
 30
0.0
  0
POINT
  8
DEFPOINTS
  6
BYBLOCK
 62
     0
 10
68.108266
 20
9.917903
 30
0.0
  0
POINT
  8
DEFPOINTS
  6
BYBLOCK
 62
     0
 10
68.108266
 20
2.541903
 30
0.0
  0
ENDBLK
  8
0
  0
BLOCK
  8
0
  2
*D8
 70
    65
 10
0.0
 20
0.0
 30
0.0
  3
*D
  0
LINE
  8
0
  6
BYBLOCK
 62
     0
 10
32.121357
 20
110.219226
 30
0.0
 11
39.644357
 21
110.219226
 31
0.0
  0
LINE
  8
0
  6
BYBLOCK
 62
     0
 10
32.121357
 20
124.219226
 30
0.0
 11
39.644357
 21
124.219226
 31
0.0
  0
LINE
  8
0
  6
BYBLOCK
 62
     0
 10
38.807357
 20
111.839226
 30
0.0
 11
38.807357
 21
115.846726
 31
0.0
  0
LINE
  8
0
  6
BYBLOCK
 62
     0
 10
38.807357
 20
122.599226
 30
0.0
 11
38.807357
 21
118.591726
 31
0.0
  0
SOLID
  8
0
  6
BYBLOCK
 62
     0
 10
38.537357
 20
111.839226
 30
0.0
 11
39.077357
 21
111.839226
 31
0.0
 12
38.807357
 22
110.219226
 32
0.0
 13
38.807357
 23
110.219226
 33
0.0
  0
SOLID
  8
0
  6
BYBLOCK
 62
     0
 10
38.537357
 20
122.599226
 30
0.0
 11
39.077357
 21
122.599226
 31
0.0
 12
38.807357
 22
124.219226
 32
0.0
 13
38.807357
 23
124.219226
 33
0.0
  0
TEXT
  8
0
  6
BYBLOCK
 62
     0
 10
37.049545
 20
116.656726
 30
0.0
 40
1.125
  1
14.000
 41
0.75
  7
TXT
 72
     1
 11
38.807357
 21
117.219226
 31
0.0
 73
     2
  0
POINT
  8
DEFPOINTS
  6
BYBLOCK
 62
     0
 10
31.554357
 20
110.219226
 30
0.0
  0
POINT
  8
DEFPOINTS
  6
BYBLOCK
 62
     0
 10
31.554357
 20
124.219226
 30
0.0
  0
POINT
  8
DEFPOINTS
  6
BYBLOCK
 62
     0
 10
38.807357
 20
124.219226
 30
0.0
  0
ENDBLK
  8
0
  0
BLOCK
  8
0
  2
*D9
 70
    65
 10
0.0
 20
0.0
 30
0.0
  3
*D
  0
LINE
  8
0
  6
BYBLOCK
 62
     0
 10
32.121357
 20
110.219226
 30
0.0
 11
39.644357
 21
110.219226
 31
0.0
  0
LINE
  8
0
  6
BYBLOCK
 62
     0
 10
34.246357
 20
108.969226
 30
0.0
 11
39.644357
 21
108.969226
 31
0.0
  0
LINE
  8
0
  6
BYBLOCK
 62
     0
 10
38.807357
 20
111.839226
 30
0.0
 11
38.807357
 21
113.459226
 31
0.0
  0
LINE
  8
0
  6
BYBLOCK
 62
     0
 10
38.807357
 20
107.349226
 30
0.0
 11
38.807357
 21
105.729226
 31
0.0
  0
LINE
  8
0
  6
BYBLOCK
 62
     0
 10
38.807357
 20
105.729226
 30
0.0
 11
37.187357
 21
105.729226
 31
0.0
  0
SOLID
  8
0
  6
BYBLOCK
 62
     0
 10
38.537357
 20
111.839226
 30
0.0
 11
39.077357
 21
111.839226
 31
0.0
 12
38.807357
 22
110.219226
 32
0.0
 13
38.807357
 23
110.219226
 33
0.0
  0
SOLID
  8
0
  6
BYBLOCK
 62
     0
 10
38.537357
 20
107.349226
 30
0.0
 11
39.077357
 21
107.349226
 31
0.0
 12
38.807357
 22
108.969226
 32
0.0
 13
38.807357
 23
108.969226
 33
0.0
  0
TEXT
  8
0
  6
BYBLOCK
 62
     0
 10
33.424232
 20
105.166726
 30
0.0
 40
1.125
  1
1.250
 41
0.75
  7
TXT
 72
     1
 11
34.900795
 21
105.729226
 31
0.0
 73
     2
  0
POINT
  8
DEFPOINTS
  6
BYBLOCK
 62
     0
 10
31.554357
 20
110.219226
 30
0.0
  0
POINT
  8
DEFPOINTS
  6
BYBLOCK
 62
     0
 10
33.679357
 20
108.969226
 30
0.0
  0
POINT
  8
DEFPOINTS
  6
BYBLOCK
 62
     0
 10
38.807357
 20
108.969226
 30
0.0
  0
ENDBLK
  8
0
  0
BLOCK
  8
0
  2
*D10
 70
    65
 10
0.0
 20
0.0
 30
0.0
  3
*D
  0
LINE
  8
0
  6
BYBLOCK
 62
     0
 10
12.054357
 20
109.652226
 30
0.0
 11
12.054357
 21
105.252226
 31
0.0
  0
LINE
  8
0
  6
BYBLOCK
 62
     0
 10
9.929357
 20
108.402226
 30
0.0
 11
9.929357
 21
105.252226
 31
0.0
  0
LINE
  8
0
  6
BYBLOCK
 62
     0
 10
13.674357
 20
106.089226
 30
0.0
 11
15.294357
 21
106.089226
 31
0.0
  0
LINE
  8
0
  6
BYBLOCK
 62
     0
 10
8.309357
 20
106.089226
 30
0.0
 11
6.689357
 21
106.089226
 31
0.0
  0
SOLID
  8
0
  6
BYBLOCK
 62
     0
 10
13.674357
 20
106.359226
 30
0.0
 11
13.674357
 21
105.819226
 31
0.0
 12
12.054357
 22
106.089226
 32
0.0
 13
12.054357
 23
106.089226
 33
0.0
  0
SOLID
  8
0
  6
BYBLOCK
 62
     0
 10
8.309357
 20
106.359226
 30
0.0
 11
8.309357
 21
105.819226
 31
0.0
 12
9.929357
 22
106.089226
 32
0.0
 13
9.929357
 23
106.089226
 33
0.0
  0
TEXT
  8
0
  6
BYBLOCK
 62
     0
 10
2.785607
 20
105.526726
 30
0.0
 40
1.125
  1
2.125
 41
0.75
  7
TXT
 72
     1
 11
4.332482
 21
106.089226
 31
0.0
 73
     2
  0
POINT
  8
DEFPOINTS
  6
BYBLOCK
 62
     0
 10
12.054357
 20
110.219226
 30
0.0
  0
POINT
  8
DEFPOINTS
  6
BYBLOCK
 62
     0
 10
9.929357
 20
108.969226
 30
0.0
  0
POINT
  8
DEFPOINTS
  6
BYBLOCK
 62
     0
 10
9.929357
 20
106.089226
 30
0.0
  0
ENDBLK
  8
0
  0
BLOCK
  8
0
  2
*D11
 70
    65
 10
0.0
 20
0.0
 30
0.0
  3
*D
  0
LINE
  8
0
  6
BYBLOCK
 62
     0
 10
12.054357
 20
109.652226
 30
0.0
 11
12.054357
 21
105.252226
 31
0.0
  0
LINE
  8
0
  6
BYBLOCK
 62
     0
 10
31.554357
 20
109.652226
 30
0.0
 11
31.554357
 21
105.252226
 31
0.0
  0
LINE
  8
0
  6
BYBLOCK
 62
     0
 10
13.674357
 20
106.089226
 30
0.0
 11
19.166232
 21
106.089226
 31
0.0
  0
LINE
  8
0
  6
BYBLOCK
 62
     0
 10
29.934357
 20
106.089226
 30
0.0
 11
24.442482
 21
106.089226
 31
0.0
  0
SOLID
  8
0
  6
BYBLOCK
 62
     0
 10
13.674357
 20
106.359226
 30
0.0
 11
13.674357
 21
105.819226
 31
0.0
 12
12.054357
 22
106.089226
 32
0.0
 13
12.054357
 23
106.089226
 33
0.0
  0
SOLID
  8
0
  6
BYBLOCK
 62
     0
 10
29.934357
 20
106.359226
 30
0.0
 11
29.934357
 21
105.819226
 31
0.0
 12
31.554357
 22
106.089226
 32
0.0
 13
31.554357
 23
106.089226
 33
0.0
  0
TEXT
  8
0
  6
BYBLOCK
 62
     0
 10
19.976232
 20
105.526726
 30
0.0
 40
1.125
  1
19.500
 41
0.75
  7
TXT
 72
     1
 11
21.804357
 21
106.089226
 31
0.0
 73
     2
  0
POINT
  8
DEFPOINTS
  6
BYBLOCK
 62
     0
 10
12.054357
 20
110.219226
 30
0.0
  0
POINT
  8
DEFPOINTS
  6
BYBLOCK
 62
     0
 10
31.554357
 20
110.219226
 30
0.0
  0
POINT
  8
DEFPOINTS
  6
BYBLOCK
 62
     0
 10
31.554357
 20
106.089226
 30
0.0
  0
ENDBLK
  8
0
  0
BLOCK
  8
0
  2
*D12
 70
    65
 10
0.0
 20
0.0
 30
0.0
  3
*D
  0
LINE
  8
0
  6
BYBLOCK
 62
     0
 10
33.679357
 20
9.350903
 30
0.0
 11
33.679357
 21
6.200903
 31
0.0
  0
LINE
  8
0
  6
BYBLOCK
 62
     0
 10
9.929357
 20
9.350903
 30
0.0
 11
9.929357
 21
6.200903
 31
0.0
  0
LINE
  8
0
  6
BYBLOCK
 62
     0
 10
32.059357
 20
7.037903
 30
0.0
 11
24.65342
 21
7.037903
 31
0.0
  0
LINE
  8
0
  6
BYBLOCK
 62
     0
 10
11.549357
 20
7.037903
 30
0.0
 11
18.955295
 21
7.037903
 31
0.0
  0
SOLID
  8
0
  6
BYBLOCK
 62
     0
 10
32.059357
 20
7.307903
 30
0.0
 11
32.059357
 21
6.767903
 31
0.0
 12
33.679357
 22
7.037903
 32
0.0
 13
33.679357
 23
7.037903
 33
0.0
  0
SOLID
  8
0
  6
BYBLOCK
 62
     0
 10
11.549357
 20
7.307903
 30
0.0
 11
11.549357
 21
6.767903
 31
0.0
 12
9.929357
 22
7.037903
 32
0.0
 13
9.929357
 23
7.037903
 33
0.0
  0
TEXT
  8
0
  6
BYBLOCK
 62
     0
 10
19.765295
 20
6.475403
 30
0.0
 40
1.125
  1
23.750
 41
0.75
  7
TXT
 72
     1
 11
21.804357
 21
7.037903
 31
0.0
 73
     2
  0
POINT
  8
DEFPOINTS
  6
BYBLOCK
 62
     0
 10
33.679357
 20
9.917903
 30
0.0
  0
POINT
  8
DEFPOINTS
  6
BYBLOCK
 62
     0
 10
9.929357
 20
9.917903
 30
0.0
  0
POINT
  8
DEFPOINTS
  6
BYBLOCK
 62
     0
 10
9.929357
 20
7.037903
 30
0.0
  0
ENDBLK
  8
0
  0
BLOCK
  8
0
  2
*D13
 70
    65
 10
0.0
 20
0.0
 30
0.0
  3
*D
  0
LINE
  8
0
  6
BYBLOCK
 62
     0
 10
53.108266
 20
96.482903
 30
0.0
 11
53.108266
 21
101.880903
 31
0.0
  0
LINE
  8
0
  6
BYBLOCK
 62
     0
 10
66.608266
 20
96.482903
 30
0.0
 11
66.608266
 21
101.880903
 31
0.0
  0
LINE
  8
0
  6
BYBLOCK
 62
     0
 10
54.728266
 20
101.043903
 30
0.0
 11
57.220141
 21
101.043903
 31
0.0
  0
LINE
  8
0
  6
BYBLOCK
 62
     0
 10
64.988266
 20
101.043903
 30
0.0
 11
62.496391
 21
101.043903
 31
0.0
  0
SOLID
  8
0
  6
BYBLOCK
 62
     0
 10
54.728266
 20
101.313903
 30
0.0
 11
54.728266
 21
100.773903
 31
0.0
 12
53.108266
 22
101.043903
 32
0.0
 13
53.108266
 23
101.043903
 33
0.0
  0
SOLID
  8
0
  6
BYBLOCK
 62
     0
 10
64.988266
 20
101.313903
 30
0.0
 11
64.988266
 21
100.773903
 31
0.0
 12
66.608266
 22
101.043903
 32
0.0
 13
66.608266
 23
101.043903
 33
0.0
  0
TEXT
  8
0
  6
BYBLOCK
 62
     0
 10
58.030141
 20
100.481403
 30
0.0
 40
1.125
  1
13.500
 41
0.75
  7
TXT
 72
     1
 11
59.858266
 21
101.043903
 31
0.0
 73
     2
  0
POINT
  8
DEFPOINTS
  6
BYBLOCK
 62
     0
 10
53.108266
 20
95.915903
 30
0.0
  0
POINT
  8
DEFPOINTS
  6
BYBLOCK
 62
     0
 10
66.608266
 20
95.915903
 30
0.0
  0
POINT
  8
DEFPOINTS
  6
BYBLOCK
 62
     0
 10
66.608266
 20
101.043903
 30
0.0
  0
ENDBLK
  8
0
  0
BLOCK
  8
0
  2
*D14
 70
    65
 10
0.0
 20
0.0
 30
0.0
  3
*D
  0
LINE
  8
0
  6
BYBLOCK
 62
     0
 10
12.648357
 20
72.599903
 30
0.0
 11
12.648357
 21
70.864634
 31
0.0
  0
LINE
  8
0
  6
BYBLOCK
 62
     0
 10
30.960357
 20
72.599903
 30
0.0
 11
30.960357
 21
70.864634
 31
0.0
  0
LINE
  8
0
  6
BYBLOCK
 62
     0
 10
14.268357
 20
71.701634
 30
0.0
 11
19.166232
 21
71.701634
 31
0.0
  0
LINE
  8
0
  6
BYBLOCK
 62
     0
 10
29.340357
 20
71.701634
 30
0.0
 11
24.442482
 21
71.701634
 31
0.0
  0
SOLID
  8
0
  6
BYBLOCK
 62
     0
 10
14.268357
 20
71.971634
 30
0.0
 11
14.268357
 21
71.431634
 31
0.0
 12
12.648357
 22
71.701634
 32
0.0
 13
12.648357
 23
71.701634
 33
0.0
  0
SOLID
  8
0
  6
BYBLOCK
 62
     0
 10
29.340357
 20
71.971634
 30
0.0
 11
29.340357
 21
71.431634
 31
0.0
 12
30.960357
 22
71.701634
 32
0.0
 13
30.960357
 23
71.701634
 33
0.0
  0
TEXT
  8
0
  6
BYBLOCK
 62
     0
 10
19.976232
 20
71.139134
 30
0.0
 40
1.125
  1
18.312
 41
0.75
  7
TXT
 72
     1
 11
21.804357
 21
71.701634
 31
0.0
 73
     2
  0
POINT
  8
DEFPOINTS
  6
BYBLOCK
 62
     0
 10
12.648357
 20
73.166903
 30
0.0
  0
POINT
  8
DEFPOINTS
  6
BYBLOCK
 62
     0
 10
30.960357
 20
73.166903
 30
0.0
  0
POINT
  8
DEFPOINTS
  6
BYBLOCK
 62
     0
 10
30.960357
 20
71.701634
 30
0.0
  0
ENDBLK
  8
0
  0
BLOCK
  8
0
  2
*D15
 70
    65
 10
0.0
 20
0.0
 30
0.0
  3
*D
  0
LINE
  8
0
  6
BYBLOCK
 62
     0
 10
12.835357
 20
75.192313
 30
0.0
 11
12.835357
 21
75.462313
 31
0.0
  0
LINE
  8
0
  6
BYBLOCK
 62
     0
 10
30.773357
 20
75.192313
 30
0.0
 11
30.773357
 21
75.462313
 31
0.0
  0
LINE
  8
0
  6
BYBLOCK
 62
     0
 10
14.455357
 20
74.625313
 30
0.0
 11
19.025607
 21
74.625313
 31
0.0
  0
LINE
  8
0
  6
BYBLOCK
 62
     0
 10
29.153357
 20
74.625313
 30
0.0
 11
24.583107
 21
74.625313
 31
0.0
  0
SOLID
  8
0
  6
BYBLOCK
 62
     0
 10
14.455357
 20
74.895313
 30
0.0
 11
14.455357
 21
74.355313
 31
0.0
 12
12.835357
 22
74.625313
 32
0.0
 13
12.835357
 23
74.625313
 33
0.0
  0
SOLID
  8
0
  6
BYBLOCK
 62
     0
 10
29.153357
 20
74.895313
 30
0.0
 11
29.153357
 21
74.355313
 31
0.0
 12
30.773357
 22
74.625313
 32
0.0
 13
30.773357
 23
74.625313
 33
0.0
  0
TEXT
  8
0
  6
BYBLOCK
 62
     0
 10
19.835607
 20
74.062813
 30
0.0
 40
1.125
  1
17.938
 41
0.75
  7
TXT
 72
     1
 11
21.804357
 21
74.625313
 31
0.0
 73
     2
  0
POINT
  8
DEFPOINTS
  6
BYBLOCK
 62
     0
 10
12.835357
 20
74.625313
 30
0.0
  0
POINT
  8
DEFPOINTS
  6
BYBLOCK
 62
     0
 10
30.773357
 20
74.625313
 30
0.0
  0
POINT
  8
DEFPOINTS
  6
BYBLOCK
 62
     0
 10
30.773357
 20
74.625313
 30
0.0
  0
ENDBLK
  8
0
  0
BLOCK
  8
0
  2
*D16
 70
    65
 10
0.0
 20
0.0
 30
0.0
  3
*D
  0
LINE
  8
0
  6
BYBLOCK
 62
     0
 10
12.835357
 20
96.232903
 30
0.0
 11
12.835357
 21
99.632903
 31
0.0
  0
LINE
  8
0
  6
BYBLOCK
 62
     0
 10
9.929357
 20
94.482903
 30
0.0
 11
9.929357
 21
99.632903
 31
0.0
  0
LINE
  8
0
  6
BYBLOCK
 62
     0
 10
14.455357
 20
98.795903
 30
0.0
 11
16.075357
 21
98.795903
 31
0.0
  0
LINE
  8
0
  6
BYBLOCK
 62
     0
 10
8.309357
 20
98.795903
 30
0.0
 11
6.689357
 21
98.795903
 31
0.0
  0
SOLID
  8
0
  6
BYBLOCK
 62
     0
 10
14.455357
 20
99.065903
 30
0.0
 11
14.455357
 21
98.525903
 31
0.0
 12
12.835357
 22
98.795903
 32
0.0
 13
12.835357
 23
98.795903
 33
0.0
  0
SOLID
  8
0
  6
BYBLOCK
 62
     0
 10
8.309357
 20
99.065903
 30
0.0
 11
8.309357
 21
98.525903
 31
0.0
 12
9.929357
 22
98.795903
 32
0.0
 13
9.929357
 23
98.795903
 33
0.0
  0
TEXT
  8
0
  6
BYBLOCK
 62
     0
 10
2.644982
 20
98.233403
 30
0.0
 40
1.125
  1
2.906
 41
0.75
  7
TXT
 72
     1
 11
4.26217
 21
98.795903
 31
0.0
 73
     2
  0
POINT
  8
DEFPOINTS
  6
BYBLOCK
 62
     0
 10
12.835357
 20
95.665903
 30
0.0
  0
POINT
  8
DEFPOINTS
  6
BYBLOCK
 62
     0
 10
9.929357
 20
93.915903
 30
0.0
  0
POINT
  8
DEFPOINTS
  6
BYBLOCK
 62
     0
 10
9.929357
 20
98.795903
 30
0.0
  0
ENDBLK
  8
0
  0
BLOCK
  8
0
  2
*D17
 70
    65
 10
0.0
 20
0.0
 30
0.0
  3
*D
  0
LINE
  8
0
  6
BYBLOCK
 62
     0
 10
12.835357
 20
96.232903
 30
0.0
 11
12.835357
 21
99.632903
 31
0.0
  0
LINE
  8
0
  6
BYBLOCK
 62
     0
 10
30.773357
 20
96.232903
 30
0.0
 11
30.773357
 21
99.632903
 31
0.0
  0
LINE
  8
0
  6
BYBLOCK
 62
     0
 10
14.455357
 20
98.795903
 30
0.0
 11
19.025607
 21
98.795903
 31
0.0
  0
LINE
  8
0
  6
BYBLOCK
 62
     0
 10
29.153357
 20
98.795903
 30
0.0
 11
24.583107
 21
98.795903
 31
0.0
  0
SOLID
  8
0
  6
BYBLOCK
 62
     0
 10
14.455357
 20
99.065903
 30
0.0
 11
14.455357
 21
98.525903
 31
0.0
 12
12.835357
 22
98.795903
 32
0.0
 13
12.835357
 23
98.795903
 33
0.0
  0
SOLID
  8
0
  6
BYBLOCK
 62
     0
 10
29.153357
 20
99.065903
 30
0.0
 11
29.153357
 21
98.525903
 31
0.0
 12
30.773357
 22
98.795903
 32
0.0
 13
30.773357
 23
98.795903
 33
0.0
  0
TEXT
  8
0
  6
BYBLOCK
 62
     0
 10
19.835607
 20
98.233403
 30
0.0
 40
1.125
  1
17.938
 41
0.75
  7
TXT
 72
     1
 11
21.804357
 21
98.795903
 31
0.0
 73
     2
  0
POINT
  8
DEFPOINTS
  6
BYBLOCK
 62
     0
 10
12.835357
 20
95.665903
 30
0.0
  0
POINT
  8
DEFPOINTS
  6
BYBLOCK
 62
     0
 10
30.773357
 20
95.665903
 30
0.0
  0
POINT
  8
DEFPOINTS
  6
BYBLOCK
 62
     0
 10
30.773357
 20
98.795903
 30
0.0
  0
ENDBLK
  8
0
  0
BLOCK
  8
0
  2
*D18
 70
    65
 10
0.0
 20
0.0
 30
0.0
  3
*D
  0
LINE
  8
0
  6
BYBLOCK
 62
     0
 10
34.246357
 20
93.915903
 30
0.0
 11
46.388357
 21
93.915903
 31
0.0
  0
LINE
  8
0
  6
BYBLOCK
 62
     0
 10
31.090357
 20
95.915903
 30
0.0
 11
46.388357
 21
95.915903
 31
0.0
  0
LINE
  8
0
  6
BYBLOCK
 62
     0
 10
45.551357
 20
92.295903
 30
0.0
 11
45.551357
 21
90.675903
 31
0.0
  0
LINE
  8
0
  6
BYBLOCK
 62
     0
 10
45.551357
 20
97.535903
 30
0.0
 11
45.551357
 21
99.155903
 31
0.0
  0
SOLID
  8
0
  6
BYBLOCK
 62
     0
 10
45.281357
 20
92.295903
 30
0.0
 11
45.821357
 21
92.295903
 31
0.0
 12
45.551357
 22
93.915903
 32
0.0
 13
45.551357
 23
93.915903
 33
0.0
  0
SOLID
  8
0
  6
BYBLOCK
 62
     0
 10
45.281357
 20
97.535903
 30
0.0
 11
45.821357
 21
97.535903
 31
0.0
 12
45.551357
 22
95.915903
 32
0.0
 13
45.551357
 23
95.915903
 33
0.0
  0
TEXT
  8
0
  6
BYBLOCK
 62
     0
 10
44.074795
 20
94.353403
 30
0.0
 40
1.125
  1
2.000
 41
0.75
  7
TXT
 72
     1
 11
45.551357
 21
94.915903
 31
0.0
 73
     2
  0
POINT
  8
DEFPOINTS
  6
BYBLOCK
 62
     0
 10
33.679357
 20
93.915903
 30
0.0
  0
POINT
  8
DEFPOINTS
  6
BYBLOCK
 62
     0
 10
30.523357
 20
95.915903
 30
0.0
  0
POINT
  8
DEFPOINTS
  6
BYBLOCK
 62
     0
 10
45.551357
 20
95.915903
 30
0.0
  0
ENDBLK
  8
0
  0
BLOCK
  8
0
  2
*D19
 70
    65
 10
0.0
 20
0.0
 30
0.0
  3
*D
  0
LINE
  8
0
  6
BYBLOCK
 62
     0
 10
34.246357
 20
13.385903
 30
0.0
 11
39.644357
 21
13.385903
 31
0.0
  0
LINE
  8
0
  6
BYBLOCK
 62
     0
 10
34.246357
 20
9.917903
 30
0.0
 11
39.644357
 21
9.917903
 31
0.0
  0
LINE
  8
0
  6
BYBLOCK
 62
     0
 10
38.807357
 20
15.005903
 30
0.0
 11
38.807357
 21
16.625903
 31
0.0
  0
LINE
  8
0
  6
BYBLOCK
 62
     0
 10
38.807357
 20
8.297903
 30
0.0
 11
38.807357
 21
6.677903
 31
0.0
  0
SOLID
  8
0
  6
BYBLOCK
 62
     0
 10
38.537357
 20
15.005903
 30
0.0
 11
39.077357
 21
15.005903
 31
0.0
 12
38.807357
 22
13.385903
 32
0.0
 13
38.807357
 23
13.385903
 33
0.0
  0
SOLID
  8
0
  6
BYBLOCK
 62
     0
 10
38.537357
 20
8.297903
 30
0.0
 11
39.077357
 21
8.297903
 31
0.0
 12
38.807357
 22
9.917903
 32
0.0
 13
38.807357
 23
9.917903
 33
0.0
  0
TEXT
  8
0
  6
BYBLOCK
 62
     0
 10
37.119857
 20
11.089403
 30
0.0
 40
1.125
  1
3.468
 41
0.75
  7
TXT
 72
     1
 11
38.807357
 21
11.651903
 31
0.0
 73
     2
  0
POINT
  8
DEFPOINTS
  6
BYBLOCK
 62
     0
 10
33.679357
 20
13.385903
 30
0.0
  0
POINT
  8
DEFPOINTS
  6
BYBLOCK
 62
     0
 10
33.679357
 20
9.917903
 30
0.0
  0
POINT
  8
DEFPOINTS
  6
BYBLOCK
 62
     0
 10
38.807357
 20
9.917903
 30
0.0
  0
ENDBLK
  8
0
  0
BLOCK
  8
0
  2
*D20
 70
    65
 10
0.0
 20
0.0
 30
0.0
  3
*D
  0
LINE
  8
0
  6
BYBLOCK
 62
     0
 10
63.108266
 20
9.600903
 30
0.0
 11
63.108266
 21
6.200903
 31
0.0
  0
LINE
  8
0
  6
BYBLOCK
 62
     0
 10
68.108266
 20
9.350903
 30
0.0
 11
68.108266
 21
6.200903
 31
0.0
  0
LINE
  8
0
  6
BYBLOCK
 62
     0
 10
61.488266
 20
7.037903
 30
0.0
 11
59.868266
 21
7.037903
 31
0.0
  0
LINE
  8
0
  6
BYBLOCK
 62
     0
 10
69.728266
 20
7.037903
 30
0.0
 11
71.348266
 21
7.037903
 31
0.0
  0
SOLID
  8
0
  6
BYBLOCK
 62
     0
 10
61.488266
 20
7.307903
 30
0.0
 11
61.488266
 21
6.767903
 31
0.0
 12
63.108266
 22
7.037903
 32
0.0
 13
63.108266
 23
7.037903
 33
0.0
  0
SOLID
  8
0
  6
BYBLOCK
 62
     0
 10
69.728266
 20
7.307903
 30
0.0
 11
69.728266
 21
6.767903
 31
0.0
 12
68.108266
 22
7.037903
 32
0.0
 13
68.108266
 23
7.037903
 33
0.0
  0
TEXT
  8
0
  6
BYBLOCK
 62
     0
 10
64.131703
 20
6.475403
 30
0.0
 40
1.125
  1
5.000
 41
0.75
  7
TXT
 72
     1
 11
65.608266
 21
7.037903
 31
0.0
 73
     2
  0
POINT
  8
DEFPOINTS
  6
BYBLOCK
 62
     0
 10
63.108266
 20
10.167903
 30
0.0
  0
POINT
  8
DEFPOINTS
  6
BYBLOCK
 62
     0
 10
68.108266
 20
9.917903
 30
0.0
  0
POINT
  8
DEFPOINTS
  6
BYBLOCK
 62
     0
 10
68.108266
 20
7.037903
 30
0.0
  0
ENDBLK
  8
0
  0
BLOCK
  8
0
  2
*D21
 70
    65
 10
0.0
 20
0.0
 30
0.0
  3
*D
  0
LINE
  8
0
  6
BYBLOCK
 62
     0
 10
56.608266
 20
9.600903
 30
0.0
 11
56.608266
 21
3.952903
 31
0.0
  0
LINE
  8
0
  6
BYBLOCK
 62
     0
 10
63.108266
 20
9.600903
 30
0.0
 11
63.108266
 21
3.952903
 31
0.0
  0
LINE
  8
0
  6
BYBLOCK
 62
     0
 10
54.988266
 20
4.789903
 30
0.0
 11
53.368266
 21
4.789903
 31
0.0
  0
LINE
  8
0
  6
BYBLOCK
 62
     0
 10
64.728266
 20
4.789903
 30
0.0
 11
66.348266
 21
4.789903
 31
0.0
  0
SOLID
  8
0
  6
BYBLOCK
 62
     0
 10
54.988266
 20
5.059903
 30
0.0
 11
54.988266
 21
4.519903
 31
0.0
 12
56.608266
 22
4.789903
 32
0.0
 13
56.608266
 23
4.789903
 33
0.0
  0
SOLID
  8
0
  6
BYBLOCK
 62
     0
 10
64.728266
 20
5.059903
 30
0.0
 11
64.728266
 21
4.519903
 31
0.0
 12
63.108266
 22
4.789903
 32
0.0
 13
63.108266
 23
4.789903
 33
0.0
  0
TEXT
  8
0
  6
BYBLOCK
 62
     0
 10
58.311391
 20
4.227403
 30
0.0
 40
1.125
  1
6.500
 41
0.75
  7
TXT
 72
     1
 11
59.858266
 21
4.789903
 31
0.0
 73
     2
  0
POINT
  8
DEFPOINTS
  6
BYBLOCK
 62
     0
 10
56.608266
 20
10.167903
 30
0.0
  0
POINT
  8
DEFPOINTS
  6
BYBLOCK
 62
     0
 10
63.108266
 20
10.167903
 30
0.0
  0
POINT
  8
DEFPOINTS
  6
BYBLOCK
 62
     0
 10
63.108266
 20
4.789903
 30
0.0
  0
ENDBLK
  8
0
  0
BLOCK
  8
0
  2
*D22
 70
    65
 10
0.0
 20
0.0
 30
0.0
  3
*D
  0
LINE
  8
0
  6
BYBLOCK
 62
     0
 10
56.608266
 20
94.482903
 30
0.0
 11
56.608266
 21
99.632903
 31
0.0
  0
LINE
  8
0
  6
BYBLOCK
 62
     0
 10
53.108266
 20
96.482903
 30
0.0
 11
53.108266
 21
99.632903
 31
0.0
  0
LINE
  8
0
  6
BYBLOCK
 62
     0
 10
58.228266
 20
98.795903
 30
0.0
 11
59.848266
 21
98.795903
 31
0.0
  0
LINE
  8
0
  6
BYBLOCK
 62
     0
 10
51.488266
 20
98.795903
 30
0.0
 11
49.868266
 21
98.795903
 31
0.0
  0
SOLID
  8
0
  6
BYBLOCK
 62
     0
 10
58.228266
 20
99.065903
 30
0.0
 11
58.228266
 21
98.525903
 31
0.0
 12
56.608266
 22
98.795903
 32
0.0
 13
56.608266
 23
98.795903
 33
0.0
  0
SOLID
  8
0
  6
BYBLOCK
 62
     0
 10
51.488266
 20
99.065903
 30
0.0
 11
51.488266
 21
98.525903
 31
0.0
 12
53.108266
 22
98.795903
 32
0.0
 13
53.108266
 23
98.795903
 33
0.0
  0
TEXT
  8
0
  6
BYBLOCK
 62
     0
 10
53.311391
 20
98.233403
 30
0.0
 40
1.125
  1
3.500
 41
0.75
  7
TXT
 72
     1
 11
54.858266
 21
98.795903
 31
0.0
 73
     2
  0
POINT
  8
DEFPOINTS
  6
BYBLOCK
 62
     0
 10
56.608266
 20
93.915903
 30
0.0
  0
POINT
  8
DEFPOINTS
  6
BYBLOCK
 62
     0
 10
53.108266
 20
95.915903
 30
0.0
  0
POINT
  8
DEFPOINTS
  6
BYBLOCK
 62
     0
 10
53.108266
 20
98.795903
 30
0.0
  0
ENDBLK
  8
0
  0
ENDSEC
  0
SECTION
  2
ENTITIES
  0
LINE
  8
UPRIGHTS
 10
35.311956
 20
16.183675
 30
0.0
 11
35.311956
 21
93.245675
 31
0.0
  0
LINE
  8
UPRIGHTS
 10
32.405956
 20
16.183675
 30
0.0
 11
32.405956
 21
93.245675
 31
0.0
  0
LINE
  8
BASE
 10
35.311956
 20
16.183675
 30
0.0
 11
11.561956
 21
16.183675
 31
0.0
  0
LINE
  8
BASE
 10
35.311956
 20
12.715675
 30
0.0
 11
11.561956
 21
12.715675
 31
0.0
  0
LINE
  8
BASE
 10
35.311956
 20
16.183675
 30
0.0
 11
35.311956
 21
12.715675
 31
0.0
  0
LINE
  8
BASE
 10
11.561956
 20
16.183675
 30
0.0
 11
11.561956
 21
12.715675
 31
0.0
  0
LINE
  8
BASE
 10
35.311956
 20
12.965675
 30
0.0
 11
11.561956
 21
12.965675
 31
0.0
  0
LINE
  8
TOP
 10
11.561956
 20
96.713675
 30
0.0
 11
14.467956
 21
96.713675
 31
0.0
  0
LINE
  8
TOP
 10
35.311956
 20
96.713675
 30
0.0
 11
35.311956
 21
93.245675
 31
0.0
  0
LINE
  8
TOP
 10
35.311956
 20
93.245675
 30
0.0
 11
11.561956
 21
93.245675
 31
0.0
  0
LINE
  8
TOP
 10
11.561956
 20
93.245675
 30
0.0
 11
11.561956
 21
96.713675
 31
0.0
  0
LINE
  8
TOP
 10
13.967956
 20
96.588675
 30
0.0
 11
32.905956
 21
96.588675
 31
0.0
  0
LINE
  8
TOP
 10
14.467956
 20
98.463675
 30
0.0
 11
14.467956
 21
96.588675
 31
0.0
  0
LINE
  8
TOP
 10
32.405956
 20
96.588675
 30
0.0
 11
32.405956
 21
98.463675
 31
0.0
  0
LINE
  8
TOP
 10
14.717956
 20
98.713675
 30
0.0
 11
32.155956
 21
98.713675
 31
0.0
  0
LINE
  8
TOP
 10
14.717956
 20
98.713675
 30
0.0
 11
14.467956
 21
98.463675
 31
0.0
  0
LINE
  8
TOP
 10
32.155956
 20
98.713675
 30
0.0
 11
32.405956
 21
98.463675
 31
0.0
  0
DIMENSION
  8
DIM
  2
*D5
 10
47.183956
 20
96.713675
 30
0.0
 11
47.183956
 21
54.714675
 31
0.0
 12
1.632598
 22
2.797771
 32
0.0
 13
35.311956
 23
12.715675
 33
0.0
 14
35.311956
 24
96.713675
 34
0.0
 50
90.0
  3
23NSTD
  0
LINE
  8
UPRIGHTS
 10
56.102938
 20
12.965675
 30
0.0
 11
56.102938
 21
96.465675
 31
0.0
  0
LINE
  8
UPRIGHTS
 10
62.602938
 20
12.965675
 30
0.0
 11
62.602938
 21
96.465675
 31
0.0
  0
LINE
  8
TOP
 10
52.602938
 20
98.713675
 30
0.0
 11
52.727938
 21
98.713675
 31
0.0
  0
LINE
  8
TOP
 10
56.102938
 20
93.245675
 30
0.0
 11
56.102938
 21
96.713675
 31
0.0
  0
LINE
  8
TOP
 10
55.977938
 20
93.245675
 30
0.0
 11
56.102938
 21
93.245675
 31
0.0
  0
LINE
  8
TOP
 10
56.102938
 20
96.713675
 30
0.0
 11
55.977938
 21
96.713675
 31
0.0
  0
LINE
  8
TOP
 10
52.602938
 20
98.463675
 30
0.0
 11
52.727938
 21
98.463675
 31
0.0
  0
LINE
  8
TOP
 10
32.405956
 20
96.713675
 30
0.0
 11
35.311956
 21
96.713675
 31
0.0
  0
DIMENSION
  8
DIM
  2
*D18
 10
47.183956
 20
98.713675
 30
0.0
 11
47.183956
 21
97.713675
 31
0.0
 12
1.632598
 22
2.797771
 32
0.0
 13
35.311956
 23
96.713675
 33
0.0
 14
32.155956
 24
98.713675
 34
0.0
 50
90.0
  3
23NSTDI
  0
DIMENSION
  8
DIM
  2
*D6
 10
40.439956
 20
16.183675
 30
0.0
 11
40.439956
 21
54.714675
 31
0.0
 12
1.632598
 22
2.797771
 32
0.0
  1
<> P.S.
 13
35.311956
 23
93.245675
 33
0.0
 14
35.311956
 24
16.183675
 34
0.0
 50
90.0
  3
23NSTD
  0
DIMENSION
  8
DIM
  2
*D19
 10
40.439956
 20
12.715675
 30
0.0
 11
40.439956
 21
14.449675
 31
0.0
 12
1.632598
 22
2.797771
 32
0.0
 13
35.311956
 23
16.183675
 33
0.0
 14
35.311956
 24
12.715675
 34
0.0
 50
90.0
  3
23NSTDI
  0
DIMENSION
  8
DIM
  2
*D7
 10
67.602938
 20
5.339675
 30
0.0
 11
59.352938
 21
5.339675
 31
0.0
 12
-0.505328
 22
2.797771
 32
0.0
 13
51.102938
 23
12.715675
 33
0.0
 14
67.602938
 24
12.715675
 34
0.0
  3
23NSTD
  0
DIMENSION
  8
DIM
  2
*D20
 10
67.602938
 20
9.835675
 30
0.0
 11
65.102938
 21
9.835675
 31
0.0
 12
-0.505328
 22
2.797771
 32
0.0
 13
62.602938
 23
12.965675
 33
0.0
 14
67.602938
 24
12.715675
 34
0.0
  3
23NSTDI
  0
DIMENSION
  8
DIM
  2
*D21
 10
62.602938
 20
7.587675
 30
0.0
 11
59.352938
 21
7.587675
 31
0.0
 12
-0.505328
 22
2.797771
 32
0.0
 13
56.102938
 23
12.965675
 33
0.0
 14
62.602938
 24
12.965675
 34
0.0
  3
23NSTDI
  0
CIRCLE
  8
TOP
 10
29.311956
 20
95.713675
 30
0.0
 40
0.224
  0
CIRCLE
  8
TOP
 10
17.561956
 20
95.713675
 30
0.0
 40
0.224
  0
LINE
  8
TOP
 10
11.561956
 20
116.641997
 30
0.0
 11
11.561956
 21
116.766997
 31
0.0
  0
LINE
  8
TOP
 10
14.467956
 20
113.266997
 30
0.0
 11
14.467956
 21
113.766997
 31
0.0
  0
LINE
  8
TOP
 10
14.717956
 20
113.266997
 30
0.0
 11
14.717956
 21
113.391997
 31
0.0
  0
LINE
  8
TOP
 10
32.405956
 20
113.266997
 30
0.0
 11
14.467956
 21
113.266997
 31
0.0
  0
LINE
  8
TOP
 10
35.311956
 20
116.766997
 30
0.0
 11
11.561956
 21
116.766997
 31
0.0
  0
POLYLINE
  8
OBJECT
 66
     1
 10
0.0
 20
0.0
 30
0.0
 70
     1
  0
VERTEX
  8
OBJECT
 10
16.561956
 20
123.266997
 30
0.0
  0
VERTEX
  8
OBJECT
 10
16.561956
 20
116.766997
 30
0.0
  0
VERTEX
  8
OBJECT
 10
18.561956
 20
116.766997
 30
0.0
  0
VERTEX
  8
OBJECT
 10
18.561956
 20
123.266997
 30
0.0
  0
SEQEND
  8
OBJECT
  0
POLYLINE
  8
BASE
 66
     1
 10
0.0
 20
0.0
 30
0.0
 70
     1
  0
VERTEX
  8
BASE
 10
35.311956
 20
111.766997
 30
0.0
  0
VERTEX
  8
BASE
 10
11.561956
 20
111.766997
 30
0.0
  0
VERTEX
  8
BASE
 10
11.561956
 20
116.766997
 30
0.0
  0
VERTEX
  8
BASE
 10
35.311956
 20
116.766997
 30
0.0
  0
SEQEND
  8
BASE
  0
POLYLINE
  8
BASE
 66
     1
 10
0.0
 20
0.0
 30
0.0
 70
     1
  0
VERTEX
  8
BASE
 10
35.311956
 20
128.266997
 30
0.0
  0
VERTEX
  8
BASE
 10
11.561956
 20
128.266997
 30
0.0
  0
VERTEX
  8
BASE
 10
11.561956
 20
123.266997
 30
0.0
  0
VERTEX
  8
BASE
 10
35.311956
 20
123.266997
 30
0.0
  0
SEQEND
  8
BASE
  0
DIMENSION
  8
DIM
  2
*D8
 10
40.439956
 20
127.016997
 30
0.0
 11
40.439956
 21
120.016997
 31
0.0
 12
1.632598
 22
2.797771
 32
0.0
 13
33.186956
 23
113.016997
 33
0.0
 14
33.186956
 24
127.016997
 34
0.0
 50
90.0
  3
23NSTD
  0
DIMENSION
  8
DIM
  2
*D9
 10
40.439956
 20
111.766997
 30
0.0
 11
36.533393
 21
108.526997
 31
0.0
 12
1.632598
 22
2.797771
 32
0.0
 13
33.186956
 23
113.016997
 33
0.0
 14
35.311956
 24
111.766997
 34
0.0
 50
90.0
  3
23NSTD
  0
DIMENSION
  8
DIM
  2
*D10
 10
11.561956
 20
108.886997
 30
0.0
 11
5.965081
 21
108.886997
 31
0.0
 12
1.632598
 22
2.797771
 32
0.0
 13
13.686956
 23
113.016997
 33
0.0
 14
11.561956
 24
111.766997
 34
0.0
  3
23NSTD
  0
DIMENSION
  8
DIM
  2
*D11
 10
33.186956
 20
108.886997
 30
0.0
 11
23.436956
 21
108.886997
 31
0.0
 12
1.632598
 22
2.797771
 32
0.0
 13
13.686956
 23
113.016997
 33
0.0
 14
33.186956
 24
113.016997
 34
0.0
  3
23NSTD
  0
DIMENSION
  8
DIM
  2
*D12
 10
11.561956
 20
9.835675
 30
0.0
 11
23.436956
 21
9.835675
 31
0.0
 12
1.632598
 22
2.797771
 32
0.0
 13
35.311956
 23
12.715675
 33
0.0
 14
11.561956
 24
12.715675
 34
0.0
  3
23NSTD
  0
DIMENSION
  8
DIM
  2
*D22
 10
52.602938
 20
101.593675
 30
0.0
 11
54.352938
 21
101.593675
 31
0.0
 12
-0.505328
 22
2.797771
 32
0.0
 13
56.102938
 23
96.713675
 33
0.0
 14
52.602938
 24
98.713675
 34
0.0
  3
23NSTDI
  0
DIMENSION
  8
DIM
  2
*D13
 10
66.102938
 20
103.841675
 30
0.0
 11
59.352938
 21
103.841675
 31
0.0
 12
-0.505328
 22
2.797771
 32
0.0
 13
52.602938
 23
98.713675
 33
0.0
 14
66.102938
 24
98.713675
 34
0.0
  3
23NSTD
  0
TEXT
  8
DIM
 10
147.685419
 20
16.858174
 30
0.0
 40
0.33325
  1

  0
TEXT
  8
DIM
 10
152.117311
 20
19.665987
 30
0.0
 40
0.33325
  1

  0
POLYLINE
  8
OBJECT
 66
     1
 10
0.0
 20
0.0
 30
0.0
 70
     1
  0
VERTEX
  8
OBJECT
 10
35.03517
 20
15.687547
 30
0.0
 50
270.0
  0
VERTEX
  8
OBJECT
 10
34.811956
 20
15.81642
 30
0.0
 50
270.0
  0
VERTEX
  8
OBJECT
 10
34.588741
 20
15.687547
 30
0.0
 50
270.0
  0
VERTEX
  8
OBJECT
 10
34.588741
 20
15.429802
 30
0.0
 50
270.0
  0
VERTEX
  8
OBJECT
 10
34.811956
 20
15.300929
 30
0.0
 50
270.0
  0
VERTEX
  8
OBJECT
 10
35.03517
 20
15.429802
 30
0.0
 50
270.0
  0
SEQEND
  8
OBJECT
  0
POLYLINE
  8
OBJECT
 66
     1
 10
0.0
 20
0.0
 30
0.0
 70
     1
  0
VERTEX
  8
OBJECT
 10
34.588741
 20
13.929802
 30
0.0
 50
90.0
  0
VERTEX
  8
OBJECT
 10
34.811956
 20
13.800929
 30
0.0
 50
90.0
  0
VERTEX
  8
OBJECT
 10
35.03517
 20
13.929802
 30
0.0
 50
90.0
  0
VERTEX
  8
OBJECT
 10
35.03517
 20
14.187547
 30
0.0
 50
90.0
  0
VERTEX
  8
OBJECT
 10
34.811956
 20
14.31642
 30
0.0
 50
90.0
  0
VERTEX
  8
OBJECT
 10
34.588741
 20
14.187547
 30
0.0
 50
90.0
  0
SEQEND
  8
OBJECT
  0
LINE
  8
OBJECT
 10
55.627223
 20
15.300929
 30
0.0
 11
55.627223
 21
15.81642
 31
0.0
  0
LINE
  8
OBJECT
 10
55.627223
 20
15.81642
 30
0.0
 11
55.852938
 21
15.81642
 31
0.0
  0
LINE
  8
OBJECT
 10
55.627223
 20
15.300929
 30
0.0
 11
55.852938
 21
15.300929
 31
0.0
  0
LINE
  8
OBJECT
 10
55.852938
 20
15.687547
 30
0.0
 11
55.627223
 21
15.687547
 31
0.0
  0
LINE
  8
OBJECT
 10
55.852938
 20
15.429802
 30
0.0
 11
55.627223
 21
15.429802
 31
0.0
  0
LINE
  8
OBJECT
 10
55.852938
 20
13.929802
 30
0.0
 11
55.627223
 21
13.929802
 31
0.0
  0
LINE
  8
OBJECT
 10
55.852938
 20
14.187547
 30
0.0
 11
55.627223
 21
14.187547
 31
0.0
  0
LINE
  8
OBJECT
 10
55.627223
 20
13.800929
 30
0.0
 11
55.852938
 21
13.800929
 31
0.0
  0
LINE
  8
OBJECT
 10
55.627223
 20
14.31642
 30
0.0
 11
55.852938
 21
14.31642
 31
0.0
  0
LINE
  8
OBJECT
 10
55.627223
 20
13.800929
 30
0.0
 11
55.627223
 21
14.31642
 31
0.0
  0
LINE
  8
OBJECT
 10
62.852938
 20
13.929802
 30
0.0
 11
63.078652
 21
13.929802
 31
0.0
  0
LINE
  8
OBJECT
 10
62.852938
 20
14.187547
 30
0.0
 11
63.078652
 21
14.187547
 31
0.0
  0
LINE
  8
OBJECT
 10
63.078652
 20
13.800929
 30
0.0
 11
62.852938
 21
13.800929
 31
0.0
  0
LINE
  8
OBJECT
 10
63.078652
 20
14.31642
 30
0.0
 11
62.852938
 21
14.31642
 31
0.0
  0
LINE
  8
OBJECT
 10
63.078652
 20
13.800929
 30
0.0
 11
63.078652
 21
14.31642
 31
0.0
  0
LINE
  8
OBJECT
 10
62.852938
 20
15.429802
 30
0.0
 11
63.078652
 21
15.429802
 31
0.0
  0
LINE
  8
OBJECT
 10
63.078652
 20
15.300929
 30
0.0
 11
62.852938
 21
15.300929
 31
0.0
  0
LINE
  8
OBJECT
 10
62.852938
 20
15.687547
 30
0.0
 11
63.078652
 21
15.687547
 31
0.0
  0
LINE
  8
OBJECT
 10
63.078652
 20
15.81642
 30
0.0
 11
62.852938
 21
15.81642
 31
0.0
  0
LINE
  8
OBJECT
 10
63.078652
 20
15.300929
 30
0.0
 11
63.078652
 21
15.81642
 31
0.0
  0
LINE
  8
OBJECT
 10
12.061956
 20
116.293426
 30
0.0
 11
12.061956
 21
116.641997
 31
0.0
  0
LINE
  8
OBJECT
 10
12.28517
 20
116.416283
 30
0.0
 11
11.838741
 21
116.416283
 31
0.0
  0
LINE
  8
OBJECT
 10
11.838741
 20
116.293426
 30
0.0
 11
11.838741
 21
116.641997
 31
0.0
  0
LINE
  8
OBJECT
 10
12.28517
 20
116.293426
 30
0.0
 11
12.28517
 21
116.641997
 31
0.0
  0
LINE
  8
BASE
 10
11.561956
 20
116.516997
 30
0.0
 11
11.838741
 21
116.516997
 31
0.0
  0
LINE
  8
OBJECT
 10
12.28517
 20
116.293426
 30
0.0
 11
11.838741
 21
116.293426
 31
0.0
  0
LINE
  8
BASE
 10
11.561956
 20
123.516997
 30
0.0
 11
11.838741
 21
123.516997
 31
0.0
  0
LINE
  8
BASE
 10
35.311956
 20
123.516997
 30
0.0
 11
35.03517
 21
123.516997
 31
0.0
  0
LINE
  8
BASE
 10
35.311956
 20
116.516997
 30
0.0
 11
35.03517
 21
116.516997
 31
0.0
  0
DIMENSION
  8
DIM
  2
*D14
 10
32.592956
 20
74.499406
 30
0.0
 11
23.436956
 21
74.499406
 31
0.0
 12
1.632598
 22
2.797771
 32
0.0
 13
14.280956
 23
75.964675
 33
0.0
 14
32.592956
 24
75.964675
 34
0.0
  3
23NSTD
  0
DIMENSION
  8
DIM
  2
*D15
 10
32.405956
 20
77.423084
 30
0.0
 11
23.436956
 21
77.423084
 31
0.0
 12
1.632598
 22
2.797771
 32
0.0
 13
14.467956
 23
77.423084
 33
0.0
 14
32.405956
 24
77.423084
 34
0.0
  3
23NSTD
  0
DIMENSION
  8
DIM
  2
*D16
 10
11.561956
 20
101.593675
 30
0.0
 11
5.894768
 21
101.593675
 31
0.0
 12
1.632598
 22
2.797771
 32
0.0
 13
14.467956
 23
98.463675
 33
0.0
 14
11.561956
 24
96.713675
 34
0.0
  3
23NSTD
  0
DIMENSION
  8
DIM
  2
*D17
 10
32.405956
 20
101.593675
 30
0.0
 11
23.436956
 21
101.593675
 31
0.0
 12
1.632598
 22
2.797771
 32
0.0
 13
14.467956
 23
98.463675
 33
0.0
 14
32.405956
 24
98.463675
 34
0.0
  3
23NSTD
  0
POLYLINE
  8
OBJECT
 66
     1
 10
0.0
 20
0.0
 30
0.0
 70
     1
  0
VERTEX
  8
OBJECT
 10
34.588741
 20
95.499547
 30
0.0
  0
VERTEX
  8
OBJECT
 10
34.811956
 20
95.62842
 30
0.0
  0
VERTEX
  8
OBJECT
 10
35.03517
 20
95.499547
 30
0.0
  0
VERTEX
  8
OBJECT
 10
35.03517
 20
95.241802
 30
0.0
  0
VERTEX
  8
OBJECT
 10
34.811956
 20
95.112929
 30
0.0
  0
VERTEX
  8
OBJECT
 10
34.588741
 20
95.241802
 30
0.0
  0
SEQEND
  8
OBJECT
  0
POLYLINE
  8
OBJECT
 66
     1
 10
0.0
 20
0.0
 30
0.0
 70
     1
  0
VERTEX
  8
OBJECT
 10
35.03517
 20
93.741802
 30
0.0
  0
VERTEX
  8
OBJECT
 10
34.811956
 20
93.612929
 30
0.0
  0
VERTEX
  8
OBJECT
 10
34.588741
 20
93.741802
 30
0.0
  0
VERTEX
  8
OBJECT
 10
34.588741
 20
93.999547
 30
0.0
  0
VERTEX
  8
OBJECT
 10
34.811956
 20
94.12842
 30
0.0
  0
VERTEX
  8
OBJECT
 10
35.03517
 20
93.999547
 30
0.0
  0
SEQEND
  8
OBJECT
  0
LINE
  8
UPRIGHTS
 10
11.561956
 20
16.183675
 30
0.0
 11
11.561956
 21
93.245675
 31
0.0
  0
LINE
  8
UPRIGHTS
 10
14.467956
 20
16.183675
 30
0.0
 11
14.467956
 21
93.245675
 31
0.0
  0
POLYLINE
  8
OBJECT
 66
     1
 10
0.0
 20
0.0
 30
0.0
 70
     1
  0
VERTEX
  8
OBJECT
 10
12.28517
 20
13.929802
 30
0.0
  0
VERTEX
  8
OBJECT
 10
12.061956
 20
13.800929
 30
0.0
  0
VERTEX
  8
OBJECT
 10
11.838741
 20
13.929802
 30
0.0
  0
VERTEX
  8
OBJECT
 10
11.838741
 20
14.187547
 30
0.0
  0
VERTEX
  8
OBJECT
 10
12.061956
 20
14.31642
 30
0.0
  0
VERTEX
  8
OBJECT
 10
12.28517
 20
14.187547
 30
0.0
  0
SEQEND
  8
OBJECT
  0
POLYLINE
  8
OBJECT
 66
     1
 10
0.0
 20
0.0
 30
0.0
 70
     1
  0
VERTEX
  8
OBJECT
 10
11.838741
 20
15.687547
 30
0.0
  0
VERTEX
  8
OBJECT
 10
12.061956
 20
15.81642
 30
0.0
  0
VERTEX
  8
OBJECT
 10
12.28517
 20
15.687547
 30
0.0
  0
VERTEX
  8
OBJECT
 10
12.28517
 20
15.429802
 30
0.0
  0
VERTEX
  8
OBJECT
 10
12.061956
 20
15.300929
 30
0.0
  0
VERTEX
  8
OBJECT
 10
11.838741
 20
15.429802
 30
0.0
  0
SEQEND
  8
OBJECT
  0
POLYLINE
  8
OBJECT
 66
     1
 10
0.0
 20
0.0
 30
0.0
 70
     1
  0
VERTEX
  8
OBJECT
 10
12.28517
 20
95.499547
 30
0.0
  0
VERTEX
  8
OBJECT
 10
12.061956
 20
95.62842
 30
0.0
  0
VERTEX
  8
OBJECT
 10
11.838741
 20
95.499547
 30
0.0
  0
VERTEX
  8
OBJECT
 10
11.838741
 20
95.241802
 30
0.0
  0
VERTEX
  8
OBJECT
 10
12.061956
 20
95.112929
 30
0.0
  0
VERTEX
  8
OBJECT
 10
12.28517
 20
95.241802
 30
0.0
  0
SEQEND
  8
OBJECT
  0
POLYLINE
  8
OBJECT
 66
     1
 10
0.0
 20
0.0
 30
0.0
 70
     1
  0
VERTEX
  8
OBJECT
 10
11.838741
 20
93.741802
 30
0.0
  0
VERTEX
  8
OBJECT
 10
12.061956
 20
93.612929
 30
0.0
  0
VERTEX
  8
OBJECT
 10
12.28517
 20
93.741802
 30
0.0
  0
VERTEX
  8
OBJECT
 10
12.28517
 20
93.999547
 30
0.0
  0
VERTEX
  8
OBJECT
 10
12.061956
 20
94.12842
 30
0.0
  0
VERTEX
  8
OBJECT
 10
11.838741
 20
93.999547
 30
0.0
  0
SEQEND
  8
OBJECT
  0
LINE
  8
UPRIGHTS
 10
56.102938
 20
12.965675
 30
0.0
 11
62.602938
 21
12.965675
 31
0.0
  0
LINE
  8
UPRIGHTS
 10
56.102938
 20
96.465675
 30
0.0
 11
62.602938
 21
96.465675
 31
0.0
  0
LINE
  8
OBJECT
 10
55.752223
 20
93.612929
 30
0.0
 11
55.977938
 21
93.612929
 31
0.0
  0
LINE
  8
OBJECT
 10
55.752223
 20
94.12842
 30
0.0
 11
55.977938
 21
94.12842
 31
0.0
  0
LINE
  8
OBJECT
 10
55.977938
 20
93.741802
 30
0.0
 11
55.752223
 21
93.741802
 31
0.0
  0
LINE
  8
OBJECT
 10
55.977938
 20
93.999547
 30
0.0
 11
55.752223
 21
93.999547
 31
0.0
  0
LINE
  8
OBJECT
 10
55.977938
 20
95.499547
 30
0.0
 11
55.752223
 21
95.499547
 31
0.0
  0
LINE
  8
OBJECT
 10
55.977938
 20
95.241802
 30
0.0
 11
55.752223
 21
95.241802
 31
0.0
  0
LINE
  8
OBJECT
 10
55.752223
 20
95.62842
 30
0.0
 11
55.977938
 21
95.62842
 31
0.0
  0
LINE
  8
OBJECT
 10
55.752223
 20
95.112929
 30
0.0
 11
55.977938
 21
95.112929
 31
0.0
  0
LINE
  8
OBJECT
 10
55.752223
 20
94.12842
 30
0.0
 11
55.752223
 21
93.612929
 31
0.0
  0
LINE
  8
OBJECT
 10
55.752223
 20
95.62842
 30
0.0
 11
55.752223
 21
95.112929
 31
0.0
  0
LINE
  8
TOP
 10
55.977938
 20
93.245675
 30
0.0
 11
55.977938
 21
96.713675
 31
0.0
  0
LINE
  8
TOP
 10
55.884188
 20
96.588675
 30
0.0
 11
55.602938
 21
96.588675
 31
0.0
  0
LINE
  8
TOP
 10
52.602938
 20
96.807425
 30
0.0
 11
52.602938
 21
98.713675
 31
0.0
  0
LINE
  8
TOP
 10
52.727938
 20
96.807425
 30
0.0
 11
52.727938
 21
98.713675
 31
0.0
  0
POLYLINE
  8
OBJECT
 66
     1
 10
0.0
 20
0.0
 30
0.0
 70
     1
  0
VERTEX
  8
OBJECT
 10
17.874456
 20
122.173247
 30
0.0
  0
VERTEX
  8
OBJECT
 10
17.249456
 20
122.173247
 30
0.0
 42
1.0
  0
VERTEX
  8
OBJECT
 10
17.249456
 20
121.923247
 30
0.0
  0
VERTEX
  8
OBJECT
 10
17.874456
 20
121.923247
 30
0.0
 42
1.0
  0
SEQEND
  8
OBJECT
  0
POLYLINE
  8
OBJECT
 66
     1
 10
0.0
 20
0.0
 30
0.0
 70
     1
  0
VERTEX
  8
OBJECT
 10
17.874456
 20
121.360747
 30
0.0
  0
VERTEX
  8
OBJECT
 10
17.249456
 20
121.360747
 30
0.0
 42
1.0
  0
VERTEX
  8
OBJECT
 10
17.249456
 20
121.110747
 30
0.0
  0
VERTEX
  8
OBJECT
 10
17.874456
 20
121.110747
 30
0.0
 42
1.0
  0
SEQEND
  8
OBJECT
  0
POLYLINE
  8
OBJECT
 66
     1
 10
0.0
 20
0.0
 30
0.0
 70
     1
  0
VERTEX
  8
OBJECT
 10
17.874456
 20
120.548247
 30
0.0
  0
VERTEX
  8
OBJECT
 10
17.249456
 20
120.548247
 30
0.0
 42
1.0
  0
VERTEX
  8
OBJECT
 10
17.249456
 20
120.298247
 30
0.0
  0
VERTEX
  8
OBJECT
 10
17.874456
 20
120.298247
 30
0.0
 42
1.0
  0
SEQEND
  8
OBJECT
  0
POLYLINE
  8
OBJECT
 66
     1
 10
0.0
 20
0.0
 30
0.0
 70
     1
  0
VERTEX
  8
OBJECT
 10
17.874456
 20
119.735747
 30
0.0
  0
VERTEX
  8
OBJECT
 10
17.249456
 20
119.735747
 30
0.0
 42
1.0
  0
VERTEX
  8
OBJECT
 10
17.249456
 20
119.485747
 30
0.0
  0
VERTEX
  8
OBJECT
 10
17.874456
 20
119.485747
 30
0.0
 42
1.0
  0
SEQEND
  8
OBJECT
  0
POLYLINE
  8
OBJECT
 66
     1
 10
0.0
 20
0.0
 30
0.0
 70
     1
  0
VERTEX
  8
OBJECT
 10
17.874456
 20
118.923247
 30
0.0
  0
VERTEX
  8
OBJECT
 10
17.249456
 20
118.923247
 30
0.0
 42
1.0
  0
VERTEX
  8
OBJECT
 10
17.249456
 20
118.673247
 30
0.0
  0
VERTEX
  8
OBJECT
 10
17.874456
 20
118.673247
 30
0.0
 42
1.0
  0
SEQEND
  8
OBJECT
  0
POLYLINE
  8
OBJECT
 66
     1
 10
0.0
 20
0.0
 30
0.0
 70
     1
  0
VERTEX
  8
OBJECT
 10
17.874456
 20
118.110747
 30
0.0
  0
VERTEX
  8
OBJECT
 10
17.249456
 20
118.110747
 30
0.0
 42
1.0
  0
VERTEX
  8
OBJECT
 10
17.249456
 20
117.860747
 30
0.0
  0
VERTEX
  8
OBJECT
 10
17.874456
 20
117.860747
 30
0.0
 42
1.0
  0
SEQEND
  8
OBJECT
  0
POLYLINE
  8
OBJECT
 66
     1
 10
0.0
 20
0.0
 30
0.0
 70
     1
  0
VERTEX
  8
OBJECT
 10
30.311956
 20
123.266997
 30
0.0
  0
VERTEX
  8
OBJECT
 10
30.311956
 20
116.766997
 30
0.0
  0
VERTEX
  8
OBJECT
 10
28.311956
 20
116.766997
 30
0.0
  0
VERTEX
  8
OBJECT
 10
28.311956
 20
123.266997
 30
0.0
  0
SEQEND
  8
OBJECT
  0
POLYLINE
  8
OBJECT
 66
     1
 10
0.0
 20
0.0
 30
0.0
 70
     1
  0
VERTEX
  8
OBJECT
 10
28.999456
 20
120.548247
 30
0.0
  0
VERTEX
  8
OBJECT
 10
29.624456
 20
120.548247
 30
0.0
 42
-1.0
  0
VERTEX
  8
OBJECT
 10
29.624456
 20
120.298247
 30
0.0
  0
VERTEX
  8
OBJECT
 10
28.999456
 20
120.298247
 30
0.0
 42
-1.0
  0
SEQEND
  8
OBJECT
  0
POLYLINE
  8
OBJECT
 66
     1
 10
0.0
 20
0.0
 30
0.0
 70
     1
  0
VERTEX
  8
OBJECT
 10
28.999456
 20
121.360747
 30
0.0
  0
VERTEX
  8
OBJECT
 10
29.624456
 20
121.360747
 30
0.0
 42
-1.0
  0
VERTEX
  8
OBJECT
 10
29.624456
 20
121.110747
 30
0.0
  0
VERTEX
  8
OBJECT
 10
28.999456
 20
121.110747
 30
0.0
 42
-1.0
  0
SEQEND
  8
OBJECT
  0
POLYLINE
  8
OBJECT
 66
     1
 10
0.0
 20
0.0
 30
0.0
 70
     1
  0
VERTEX
  8
OBJECT
 10
28.999456
 20
122.173247
 30
0.0
  0
VERTEX
  8
OBJECT
 10
29.624456
 20
122.173247
 30
0.0
 42
-1.0
  0
VERTEX
  8
OBJECT
 10
29.624456
 20
121.923247
 30
0.0
  0
VERTEX
  8
OBJECT
 10
28.999456
 20
121.923247
 30
0.0
 42
-1.0
  0
SEQEND
  8
OBJECT
  0
LINE
  8
UPRIGHTS
 10
14.467956
 20
116.766997
 30
0.0
 11
14.467956
 21
116.891997
 31
0.0
  0
POLYLINE
  8
UPRIGHTS
 66
     1
 10
0.0
 20
0.0
 30
0.0
  0
VERTEX
  8
UPRIGHTS
 10
14.467956
 20
123.266997
 30
0.0
  0
VERTEX
  8
UPRIGHTS
 10
11.780706
 20
123.266997
 30
0.0
 42
0.414214
  0
VERTEX
  8
UPRIGHTS
 10
11.561956
 20
123.048247
 30
0.0
  0
VERTEX
  8
UPRIGHTS
 10
11.561956
 20
116.985747
 30
0.0
 42
0.414214
  0
VERTEX
  8
UPRIGHTS
 10
11.780706
 20
116.766997
 30
0.0
  0
VERTEX
  8
UPRIGHTS
 10
14.467956
 20
116.766997
 30
0.0
  0
SEQEND
  8
UPRIGHTS
  0
POLYLINE
  8
UPRIGHTS
 66
     1
 10
0.0
 20
0.0
 30
0.0
  0
VERTEX
  8
UPRIGHTS
 10
14.467956
 20
123.141997
 30
0.0
  0
VERTEX
  8
UPRIGHTS
 10
11.780706
 20
123.141997
 30
0.0
 42
0.414214
  0
VERTEX
  8
UPRIGHTS
 10
11.686956
 20
123.048247
 30
0.0
  0
VERTEX
  8
UPRIGHTS
 10
11.686956
 20
116.985747
 30
0.0
 42
0.414214
  0
VERTEX
  8
UPRIGHTS
 10
11.780706
 20
116.891997
 30
0.0
  0
VERTEX
  8
UPRIGHTS
 10
14.467956
 20
116.891997
 30
0.0
  0
SEQEND
  8
UPRIGHTS
  0
LINE
  8
TOP
 10
14.467956
 20
116.641997
 30
0.0
 11
11.561956
 21
116.641997
 31
0.0
  0
LINE
  8
TOP
 10
32.405956
 20
113.391997
 30
0.0
 11
14.467956
 21
113.391997
 31
0.0
  0
LINE
  8
UPRIGHTS
 10
14.467956
 20
123.266997
 30
0.0
 11
14.467956
 21
123.141997
 31
0.0
  0
LINE
  8
OBJECT
 10
12.28517
 20
123.740569
 30
0.0
 11
12.28517
 21
123.391997
 31
0.0
  0
LINE
  8
OBJECT
 10
11.838741
 20
123.740569
 30
0.0
 11
11.838741
 21
123.391997
 31
0.0
  0
LINE
  8
OBJECT
 10
12.061956
 20
123.740569
 30
0.0
 11
12.061956
 21
123.391997
 31
0.0
  0
LINE
  8
OBJECT
 10
12.28517
 20
123.740569
 30
0.0
 11
11.838741
 21
123.740569
 31
0.0
  0
LINE
  8
OBJECT
 10
12.28517
 20
123.617712
 30
0.0
 11
11.838741
 21
123.617712
 31
0.0
  0
LINE
  8
UPRIGHTS
 10
32.405956
 20
116.766997
 30
0.0
 11
32.405956
 21
116.891997
 31
0.0
  0
POLYLINE
  8
UPRIGHTS
 66
     1
 10
0.0
 20
0.0
 30
0.0
  0
VERTEX
  8
UPRIGHTS
 10
32.405956
 20
123.266997
 30
0.0
  0
VERTEX
  8
UPRIGHTS
 10
35.093206
 20
123.266997
 30
0.0
 42
-0.414214
  0
VERTEX
  8
UPRIGHTS
 10
35.311956
 20
123.048247
 30
0.0
  0
VERTEX
  8
UPRIGHTS
 10
35.311956
 20
116.985747
 30
0.0
 42
-0.414214
  0
VERTEX
  8
UPRIGHTS
 10
35.093206
 20
116.766997
 30
0.0
  0
VERTEX
  8
UPRIGHTS
 10
32.405956
 20
116.766997
 30
0.0
  0
SEQEND
  8
UPRIGHTS
  0
LINE
  8
TOP
 10
32.405956
 20
116.641997
 30
0.0
 11
35.311956
 21
116.641997
 31
0.0
  0
LINE
  8
TOP
 10
35.311956
 20
116.641997
 30
0.0
 11
35.311956
 21
116.766997
 31
0.0
  0
LINE
  8
OBJECT
 10
34.588741
 20
116.293426
 30
0.0
 11
34.588741
 21
116.641997
 31
0.0
  0
LINE
  8
OBJECT
 10
35.03517
 20
116.293426
 30
0.0
 11
35.03517
 21
116.641997
 31
0.0
  0
LINE
  8
OBJECT
 10
34.811956
 20
116.293426
 30
0.0
 11
34.811956
 21
116.641997
 31
0.0
  0
LINE
  8
OBJECT
 10
34.588741
 20
116.293426
 30
0.0
 11
35.03517
 21
116.293426
 31
0.0
  0
LINE
  8
OBJECT
 10
34.588741
 20
116.416283
 30
0.0
 11
35.03517
 21
116.416283
 31
0.0
  0
POLYLINE
  8
UPRIGHTS
 66
     1
 10
0.0
 20
0.0
 30
0.0
  0
VERTEX
  8
UPRIGHTS
 10
32.405956
 20
123.141997
 30
0.0
  0
VERTEX
  8
UPRIGHTS
 10
35.093206
 20
123.141997
 30
0.0
 42
-0.414214
  0
VERTEX
  8
UPRIGHTS
 10
35.186956
 20
123.048247
 30
0.0
  0
VERTEX
  8
UPRIGHTS
 10
35.186956
 20
116.985747
 30
0.0
 42
-0.414214
  0
VERTEX
  8
UPRIGHTS
 10
35.093206
 20
116.891997
 30
0.0
  0
VERTEX
  8
UPRIGHTS
 10
32.405956
 20
116.891997
 30
0.0
  0
SEQEND
  8
UPRIGHTS
  0
LINE
  8
OBJECT
 10
34.588741
 20
123.617712
 30
0.0
 11
35.03517
 21
123.617712
 31
0.0
  0
LINE
  8
OBJECT
 10
34.588741
 20
123.740569
 30
0.0
 11
35.03517
 21
123.740569
 31
0.0
  0
LINE
  8
OBJECT
 10
34.811956
 20
123.740569
 30
0.0
 11
34.811956
 21
123.391997
 31
0.0
  0
LINE
  8
OBJECT
 10
35.03517
 20
123.740569
 30
0.0
 11
35.03517
 21
123.391997
 31
0.0
  0
LINE
  8
OBJECT
 10
34.588741
 20
123.740569
 30
0.0
 11
34.588741
 21
123.391997
 31
0.0
  0
LINE
  8
UPRIGHTS
 10
32.405956
 20
123.266997
 30
0.0
 11
32.405956
 21
123.141997
 31
0.0
  0
ARC
  8
TOP
 10
13.967956
 20
95.838675
 30
0.0
 40
0.75
 50
90.0
 51
180.0
  0
ARC
  8
TOP
 10
13.967956
 20
95.838675
 30
0.0
 40
0.875
 50
90.0
 51
180.0
  0
LINE
  8
TOP
 10
13.092956
 20
95.338675
 30
0.0
 11
13.092956
 21
95.838675
 31
0.0
  0
LINE
  8
TOP
 10
13.217956
 20
95.338675
 30
0.0
 11
13.092956
 21
95.338675
 31
0.0
  0
LINE
  8
TOP
 10
13.217956
 20
95.338675
 30
0.0
 11
13.217956
 21
95.838675
 31
0.0
  0
ARC
  8
TOP
 10
32.905956
 20
95.838675
 30
0.0
 40
0.875
 50
0.0
 51
90.0
  0
ARC
  8
TOP
 10
32.905956
 20
95.838675
 30
0.0
 40
0.75
 50
0.0
 51
90.0
  0
LINE
  8
TOP
 10
33.655956
 20
95.338675
 30
0.0
 11
33.780956
 21
95.338675
 31
0.0
  0
LINE
  8
TOP
 10
33.780956
 20
95.338675
 30
0.0
 11
33.780956
 21
95.838675
 31
0.0
  0
LINE
  8
TOP
 10
33.655956
 20
95.338675
 30
0.0
 11
33.655956
 21
95.838675
 31
0.0
  0
LINE
  8
TOP
 10
53.352938
 20
95.338675
 30
0.0
 11
55.352938
 21
95.338675
 31
0.0
  0
LINE
  8
TOP
 10
53.102938
 20
95.588675
 30
0.0
 11
53.352938
 21
95.338675
 31
0.0
  0
LINE
  8
TOP
 10
55.602938
 20
95.588675
 30
0.0
 11
55.352938
 21
95.338675
 31
0.0
  0
LINE
  8
TOP
 10
66.102938
 20
96.807425
 30
0.0
 11
66.102938
 21
98.713675
 31
0.0
  0
LINE
  8
TOP
 10
65.977938
 20
96.807425
 30
0.0
 11
65.977938
 21
98.713675
 31
0.0
  0
LINE
  8
TOP
 10
62.602938
 20
96.713675
 30
0.0
 11
62.727938
 21
96.713675
 31
0.0
  0
LINE
  8
TOP
 10
62.727938
 20
93.245675
 30
0.0
 11
62.727938
 21
96.713675
 31
0.0
  0
LINE
  8
TOP
 10
62.602938
 20
93.245675
 30
0.0
 11
62.602938
 21
96.713675
 31
0.0
  0
LINE
  8
OBJECT
 10
62.727938
 20
93.999547
 30
0.0
 11
62.953652
 21
93.999547
 31
0.0
  0
LINE
  8
OBJECT
 10
62.727938
 20
93.741802
 30
0.0
 11
62.953652
 21
93.741802
 31
0.0
  0
LINE
  8
OBJECT
 10
62.953652
 20
94.12842
 30
0.0
 11
62.727938
 21
94.12842
 31
0.0
  0
LINE
  8
OBJECT
 10
62.953652
 20
93.612929
 30
0.0
 11
62.727938
 21
93.612929
 31
0.0
  0
LINE
  8
OBJECT
 10
62.953652
 20
94.12842
 30
0.0
 11
62.953652
 21
93.612929
 31
0.0
  0
LINE
  8
TOP
 10
62.727938
 20
93.245675
 30
0.0
 11
62.602938
 21
93.245675
 31
0.0
  0
LINE
  8
TOP
 10
66.102938
 20
98.713675
 30
0.0
 11
65.977938
 21
98.713675
 31
0.0
  0
LINE
  8
TOP
 10
66.102938
 20
98.463675
 30
0.0
 11
65.977938
 21
98.463675
 31
0.0
  0
LINE
  8
TOP
 10
53.102938
 20
96.588675
 30
0.0
 11
52.821688
 21
96.588675
 31
0.0
  0
LINE
  8
TOP
 10
13.092956
 20
113.766997
 30
0.0
 11
13.092956
 21
116.266997
 31
0.0
  0
LINE
  8
TOP
 10
14.467956
 20
116.266997
 30
0.0
 11
14.467956
 21
116.641997
 31
0.0
  0
LINE
  8
TOP
 10
32.405956
 20
126.641997
 30
0.0
 11
14.467956
 21
126.641997
 31
0.0
  0
LINE
  8
TOP
 10
35.311956
 20
123.266997
 30
0.0
 11
11.561956
 21
123.266997
 31
0.0
  0
LINE
  8
TOP
 10
32.405956
 20
126.766997
 30
0.0
 11
14.467956
 21
126.766997
 31
0.0
  0
LINE
  8
BASE
 10
34.588741
 20
116.516997
 30
0.0
 11
32.405956
 21
116.516997
 31
0.0
  0
LINE
  8
BASE
 10
34.588741
 20
123.516997
 30
0.0
 11
32.405956
 21
123.516997
 31
0.0
  0
LINE
  8
BASE
 10
12.28517
 20
123.516997
 30
0.0
 11
14.467956
 21
123.516997
 31
0.0
  0
LINE
  8
BASE
 10
12.28517
 20
116.516997
 30
0.0
 11
14.467956
 21
116.516997
 31
0.0
  0
POLYLINE
  8
OBJECT
 66
     1
 10
0.0
 20
0.0
 30
0.0
  0
VERTEX
  8
OBJECT
 10
62.602938
 20
96.465675
 30
0.0
  0
VERTEX
  8
OBJECT
 10
62.602938
 20
96.494925
 30
0.0
 42
0.414214
  0
VERTEX
  8
OBJECT
 10
62.384188
 20
96.713675
 30
0.0
  0
VERTEX
  8
OBJECT
 10
56.321688
 20
96.713675
 30
0.0
 42
0.414214
  0
VERTEX
  8
OBJECT
 10
56.102938
 20
96.494925
 30
0.0
  0
VERTEX
  8
OBJECT
 10
56.102938
 20
96.465675
 30
0.0
  0
SEQEND
  8
OBJECT
  0
POLYLINE
  8
TOP
 66
     1
 10
0.0
 20
0.0
 30
0.0
 70
     1
  0
VERTEX
  8
TOP
 10
17.874456
 20
115.954497
 30
0.0
  0
VERTEX
  8
TOP
 10
17.249456
 20
115.954497
 30
0.0
 42
1.0
  0
VERTEX
  8
TOP
 10
17.249456
 20
115.704497
 30
0.0
  0
VERTEX
  8
TOP
 10
17.874456
 20
115.704497
 30
0.0
 42
1.0
  0
SEQEND
  8
TOP
  0
POLYLINE
  8
TOP
 66
     1
 10
0.0
 20
0.0
 30
0.0
 70
     1
  0
VERTEX
  8
TOP
 10
17.874456
 20
114.329497
 30
0.0
  0
VERTEX
  8
TOP
 10
17.249456
 20
114.329497
 30
0.0
 42
1.0
  0
VERTEX
  8
TOP
 10
17.249456
 20
114.079497
 30
0.0
  0
VERTEX
  8
TOP
 10
17.874456
 20
114.079497
 30
0.0
 42
1.0
  0
SEQEND
  8
TOP
  0
POLYLINE
  8
TOP
 66
     1
 10
0.0
 20
0.0
 30
0.0
 70
     1
  0
VERTEX
  8
TOP
 10
28.999456
 20
115.954497
 30
0.0
  0
VERTEX
  8
TOP
 10
29.624456
 20
115.954497
 30
0.0
 42
-1.0
  0
VERTEX
  8
TOP
 10
29.624456
 20
115.704497
 30
0.0
  0
VERTEX
  8
TOP
 10
28.999456
 20
115.704497
 30
0.0
 42
-1.0
  0
SEQEND
  8
TOP
  0
POLYLINE
  8
TOP
 66
     1
 10
0.0
 20
0.0
 30
0.0
 70
     1
  0
VERTEX
  8
TOP
 10
28.999456
 20
114.329497
 30
0.0
  0
VERTEX
  8
TOP
 10
29.624456
 20
114.329497
 30
0.0
 42
-1.0
  0
VERTEX
  8
TOP
 10
29.624456
 20
114.079497
 30
0.0
  0
VERTEX
  8
TOP
 10
28.999456
 20
114.079497
 30
0.0
 42
-1.0
  0
SEQEND
  8
TOP
  0
POLYLINE
  8
TOP
 66
     1
 10
0.0
 20
0.0
 30
0.0
 70
     1
  0
VERTEX
  8
TOP
 10
17.874456
 20
125.704497
 30
0.0
  0
VERTEX
  8
TOP
 10
17.249456
 20
125.704497
 30
0.0
 42
-1.0
  0
VERTEX
  8
TOP
 10
17.249456
 20
125.954497
 30
0.0
  0
VERTEX
  8
TOP
 10
17.874456
 20
125.954497
 30
0.0
 42
-1.0
  0
SEQEND
  8
TOP
  0
POLYLINE
  8
TOP
 66
     1
 10
0.0
 20
0.0
 30
0.0
 70
     1
  0
VERTEX
  8
TOP
 10
17.874456
 20
124.079497
 30
0.0
  0
VERTEX
  8
TOP
 10
17.249456
 20
124.079497
 30
0.0
 42
-1.0
  0
VERTEX
  8
TOP
 10
17.249456
 20
124.329497
 30
0.0
  0
VERTEX
  8
TOP
 10
17.874456
 20
124.329497
 30
0.0
 42
-1.0
  0
SEQEND
  8
TOP
  0
POLYLINE
  8
TOP
 66
     1
 10
0.0
 20
0.0
 30
0.0
 70
     1
  0
VERTEX
  8
TOP
 10
28.999456
 20
125.704497
 30
0.0
  0
VERTEX
  8
TOP
 10
29.624456
 20
125.704497
 30
0.0
 42
1.0
  0
VERTEX
  8
TOP
 10
29.624456
 20
125.954497
 30
0.0
  0
VERTEX
  8
TOP
 10
28.999456
 20
125.954497
 30
0.0
 42
1.0
  0
SEQEND
  8
TOP
  0
POLYLINE
  8
TOP
 66
     1
 10
0.0
 20
0.0
 30
0.0
 70
     1
  0
VERTEX
  8
TOP
 10
28.999456
 20
124.079497
 30
0.0
  0
VERTEX
  8
TOP
 10
29.624456
 20
124.079497
 30
0.0
 42
1.0
  0
VERTEX
  8
TOP
 10
29.624456
 20
124.329497
 30
0.0
  0
VERTEX
  8
TOP
 10
28.999456
 20
124.329497
 30
0.0
 42
1.0
  0
SEQEND
  8
TOP
  0
LINE
  8
TOP
 10
65.602938
 20
95.588675
 30
0.0
 11
65.352938
 21
95.338675
 31
0.0
  0
LINE
  8
TOP
 10
65.602938
 20
96.588675
 30
0.0
 11
65.884188
 21
96.588675
 31
0.0
  0
LINE
  8
TOP
 10
65.352938
 20
95.338675
 30
0.0
 11
63.352938
 21
95.338675
 31
0.0
  0
LINE
  8
TOP
 10
63.102938
 20
95.588675
 30
0.0
 11
63.352938
 21
95.338675
 31
0.0
  0
LINE
  8
OBJECT
 10
62.727938
 20
95.499547
 30
0.0
 11
62.953652
 21
95.499547
 31
0.0
  0
LINE
  8
OBJECT
 10
62.953652
 20
95.62842
 30
0.0
 11
62.953652
 21
95.112929
 31
0.0
  0
LINE
  8
OBJECT
 10
62.953652
 20
95.62842
 30
0.0
 11
62.727938
 21
95.62842
 31
0.0
  0
LINE
  8
TOP
 10
62.821688
 20
96.588675
 30
0.0
 11
63.102938
 21
96.588675
 31
0.0
  0
LINE
  8
OBJECT
 10
62.953652
 20
95.112929
 30
0.0
 11
62.727938
 21
95.112929
 31
0.0
  0
LINE
  8
OBJECT
 10
62.727938
 20
95.241802
 30
0.0
 11
62.953652
 21
95.241802
 31
0.0
  0
POLYLINE
  8
OBJECT
 66
     1
 10
0.0
 20
0.0
 30
0.0
  0
VERTEX
  8
OBJECT
 10
62.477938
 20
96.465675
 30
0.0
  0
VERTEX
  8
OBJECT
 10
62.477938
 20
96.494925
 30
0.0
 42
0.414214
  0
VERTEX
  8
OBJECT
 10
62.384188
 20
96.588675
 30
0.0
  0
VERTEX
  8
OBJECT
 10
56.321688
 20
96.588675
 30
0.0
 42
0.414214
  0
VERTEX
  8
OBJECT
 10
56.227938
 20
96.494925
 30
0.0
  0
VERTEX
  8
OBJECT
 10
56.227938
 20
96.465675
 30
0.0
  0
SEQEND
  8
OBJECT
  0
LINE
  8
TOP
 10
33.780956
 20
113.766997
 30
0.0
 11
33.780956
 21
116.266997
 31
0.0
  0
LINE
  8
TOP
 10
32.405956
 20
113.266997
 30
0.0
 11
32.405956
 21
113.766997
 31
0.0
  0
LINE
  8
TOP
 10
32.155956
 20
113.266997
 30
0.0
 11
32.155956
 21
113.391997
 31
0.0
  0
LINE
  8
TOP
 10
32.405956
 20
116.266997
 30
0.0
 11
32.405956
 21
116.641997
 31
0.0
  0
LINE
  8
TOP
 10
32.155956
 20
126.766997
 30
0.0
 11
32.155956
 21
126.641997
 31
0.0
  0
LINE
  8
TOP
 10
33.780956
 20
126.266997
 30
0.0
 11
33.780956
 21
123.766997
 31
0.0
  0
LINE
  8
TOP
 10
32.405956
 20
126.766997
 30
0.0
 11
32.405956
 21
126.266997
 31
0.0
  0
LINE
  8
TOP
 10
32.405956
 20
123.391997
 30
0.0
 11
35.311956
 21
123.391997
 31
0.0
  0
LINE
  8
TOP
 10
32.405956
 20
123.766997
 30
0.0
 11
32.405956
 21
123.391997
 31
0.0
  0
LINE
  8
TOP
 10
35.311956
 20
123.391997
 30
0.0
 11
35.311956
 21
123.266997
 31
0.0
  0
LINE
  8
TOP
 10
14.467956
 20
123.391997
 30
0.0
 11
11.561956
 21
123.391997
 31
0.0
  0
LINE
  8
TOP
 10
13.092956
 20
126.266997
 30
0.0
 11
13.092956
 21
123.766997
 31
0.0
  0
LINE
  8
TOP
 10
11.561956
 20
123.391997
 30
0.0
 11
11.561956
 21
123.266997
 31
0.0
  0
LINE
  8
TOP
 10
14.467956
 20
126.766997
 30
0.0
 11
14.467956
 21
126.266997
 31
0.0
  0
LINE
  8
TOP
 10
14.717956
 20
126.766997
 30
0.0
 11
14.717956
 21
126.641997
 31
0.0
  0
LINE
  8
TOP
 10
14.467956
 20
123.766997
 30
0.0
 11
14.467956
 21
123.391997
 31
0.0
  0
LINE
  8
TOP
 10
55.602938
 20
95.588675
 30
0.0
 11
55.602938
 21
96.713675
 31
0.0
  0
LINE
  8
TOP
 10
53.102938
 20
95.588675
 30
0.0
 11
53.102938
 21
96.713675
 31
0.0
  0
LINE
  8
TOP
 10
65.602938
 20
95.588675
 30
0.0
 11
65.602938
 21
96.713675
 31
0.0
  0
LINE
  8
TOP
 10
63.102938
 20
95.588675
 30
0.0
 11
63.102938
 21
96.713675
 31
0.0
  0
LINE
  8
TOP
 10
13.092956
 20
116.266997
 30
0.0
 11
14.467956
 21
116.266997
 31
0.0
  0
LINE
  8
TOP
 10
13.092956
 20
113.766997
 30
0.0
 11
14.467956
 21
113.766997
 31
0.0
  0
LINE
  8
TOP
 10
33.780956
 20
113.766997
 30
0.0
 11
32.405956
 21
113.766997
 31
0.0
  0
LINE
  8
TOP
 10
33.780956
 20
116.266997
 30
0.0
 11
32.405956
 21
116.266997
 31
0.0
  0
LINE
  8
TOP
 10
33.780956
 20
126.266997
 30
0.0
 11
32.405956
 21
126.266997
 31
0.0
  0
LINE
  8
TOP
 10
33.780956
 20
123.766997
 30
0.0
 11
32.405956
 21
123.766997
 31
0.0
  0
LINE
  8
TOP
 10
13.092956
 20
123.766997
 30
0.0
 11
14.467956
 21
123.766997
 31
0.0
  0
LINE
  8
TOP
 10
13.092956
 20
126.266997
 30
0.0
 11
14.467956
 21
126.266997
 31
0.0
  0
POLYLINE
  8
OBJECT
 66
     1
 10
0.0
 20
0.0
 30
0.0
 70
     1
  0
VERTEX
  8
OBJECT
 10
28.999456
 20
118.923247
 30
0.0
  0
VERTEX
  8
OBJECT
 10
29.624456
 20
118.923247
 30
0.0
 42
-1.0
  0
VERTEX
  8
OBJECT
 10
29.624456
 20
118.673247
 30
0.0
  0
VERTEX
  8
OBJECT
 10
28.999456
 20
118.673247
 30
0.0
 42
-1.0
  0
SEQEND
  8
OBJECT
  0
POLYLINE
  8
OBJECT
 66
     1
 10
0.0
 20
0.0
 30
0.0
 70
     1
  0
VERTEX
  8
OBJECT
 10
28.999456
 20
118.110747
 30
0.0
  0
VERTEX
  8
OBJECT
 10
29.624456
 20
118.110747
 30
0.0
 42
-1.0
  0
VERTEX
  8
OBJECT
 10
29.624456
 20
117.860747
 30
0.0
  0
VERTEX
  8
OBJECT
 10
28.999456
 20
117.860747
 30
0.0
 42
-1.0
  0
SEQEND
  8
OBJECT
  0
POLYLINE
  8
OBJECT
 66
     1
 10
0.0
 20
0.0
 30
0.0
 70
     1
  0
VERTEX
  8
OBJECT
 10
28.999456
 20
119.735747
 30
0.0
  0
VERTEX
  8
OBJECT
 10
29.624456
 20
119.735747
 30
0.0
 42
-1.0
  0
VERTEX
  8
OBJECT
 10
29.624456
 20
119.485747
 30
0.0
  0
VERTEX
  8
OBJECT
 10
28.999456
 20
119.485747
 30
0.0
 42
-1.0
  0
SEQEND
  8
OBJECT
  0
ARC
  8
TOP
 10
65.884188
 20
96.807425
 30
0.0
 40
0.09375
 50
270.0
 51
0.0
  0
ARC
  8
TOP
 10
52.821688
 20
96.807425
 30
0.0
 40
0.09375
 50
180.0
 51
270.0
  0
ARC
  8
TOP
 10
55.884188
 20
96.494925
 30
0.0
 40
0.09375
 50
360.0
 51
90.0
  0
ARC
  8
TOP
 10
62.821688
 20
96.494925
 30
0.0
 40
0.09375
 50
90.0
 51
180.0
  0
ARC
  8
TOP
 10
52.821688
 20
96.807425
 30
0.0
 40
0.21875
 50
180.0
 51
270.0
  0
ARC
  8
TOP
 10
65.884188
 20
96.807425
 30
0.0
 40
0.21875
 50
270.0
 51
0.0
  0
ARC
  8
TOP
 10
62.821688
 20
96.494925
 30
0.0
 40
0.21875
 50
90.0
 51
115.376934
  0
ARC
  8
TOP
 10
55.884188
 20
96.494925
 30
0.0
 40
0.21875
 50
64.623066
 51
90.0
  0
LINE
  8
TOP
 10
55.884188
 20
96.713675
 30
0.0
 11
52.821688
 21
96.713675
 31
0.0
  0
LINE
  8
TOP
 10
62.821688
 20
96.713675
 30
0.0
 11
65.884188
 21
96.713675
 31
0.0
  0
CIRCLE
  8
OBJECT
 10
34.030956
 20
32.215675
 30
0.0
 40
0.75
  0
LINE
  8
OBJECT
 10
60.352938
 20
56.715675
 30
0.0
 11
58.352938
 21
56.715675
 31
0.0
  0
LINE
  8
OBJECT
 10
60.352938
 20
52.715675
 30
0.0
 11
58.352938
 21
52.715675
 31
0.0
  0
LINE
  8
OBJECT
 10
60.852938
 20
53.215675
 30
0.0
 11
60.852938
 21
56.215675
 31
0.0
  0
LINE
  8
OBJECT
 10
57.852938
 20
53.215675
 30
0.0
 11
57.852938
 21
56.215675
 31
0.0
  0
CIRCLE
  8
OBJECT
 10
57.852938
 20
15.559675
 30
0.0
 40
0.1405
  0
CIRCLE
  8
OBJECT
 10
60.852938
 20
15.559675
 30
0.0
 40
0.1405
  0
CIRCLE
  8
OBJECT
 10
59.352938
 20
17.309675
 30
0.0
 40
0.1405
  0
CIRCLE
  8
OBJECT
 10
59.352938
 20
38.512675
 30
0.0
 40
0.1405
  0
ARC
  8
OBJECT
 10
58.352938
 20
53.215675
 30
0.0
 40
0.5
 50
180.0
 51
270.0
  0
ARC
  8
OBJECT
 10
60.352938
 20
53.215675
 30
0.0
 40
0.5
 50
270.0
 51
360.0
  0
ARC
  8
OBJECT
 10
60.352938
 20
56.215675
 30
0.0
 40
0.5
 50
360.0
 51
90.0
  0
ARC
  8
OBJECT
 10
58.352938
 20
56.215675
 30
0.0
 40
0.5
 50
90.0
 51
180.0
  0
POLYLINE
  8
OBJECT
 66
     1
 10
0.0
 20
0.0
 30
0.0
 70
     1
  0
VERTEX
  8
OBJECT
 10
57.852938
 20
20.809675
 30
0.0
 42
0.414214
  0
VERTEX
  8
OBJECT
 10
58.352938
 20
20.309675
 30
0.0
  0
VERTEX
  8
OBJECT
 10
60.352938
 20
20.309675
 30
0.0
 42
0.414214
  0
VERTEX
  8
OBJECT
 10
60.852938
 20
20.809675
 30
0.0
  0
VERTEX
  8
OBJECT
 10
60.852938
 20
23.809675
 30
0.0
 42
0.414214
  0
VERTEX
  8
OBJECT
 10
60.352938
 20
24.309675
 30
0.0
  0
VERTEX
  8
OBJECT
 10
58.352938
 20
24.309675
 30
0.0
 42
0.414214
  0
VERTEX
  8
OBJECT
 10
57.852938
 20
23.809675
 30
0.0
  0
SEQEND
  8
OBJECT
  0
CIRCLE
  8
OBJECT
 10
32.592956
 20
16.465675
 30
0.0
 40
0.1
  0
CIRCLE
  8
OBJECT
 10
32.592956
 20
17.715675
 30
0.0
 40
0.1
  0
CIRCLE
  8
OBJECT
 10
32.592956
 20
17.090675
 30
0.0
 40
0.1
  0
CIRCLE
  8
OBJECT
 10
14.280956
 20
17.090675
 30
0.0
 40
0.1
  0
CIRCLE
  8
OBJECT
 10
14.280956
 20
17.715675
 30
0.0
 40
0.1
  0
CIRCLE
  8
OBJECT
 10
14.280956
 20
16.465675
 30
0.0
 40
0.1
  0
CIRCLE
  8
OBJECT
 10
12.842956
 20
32.215675
 30
0.0
 40
0.75
  0
CIRCLE
  8
OBJECT
 10
57.852938
 20
93.871675
 30
0.0
 40
0.1405
  0
CIRCLE
  8
OBJECT
 10
60.852938
 20
93.871675
 30
0.0
 40
0.1405
  0
POLYLINE
  8
OBJECT
 66
     1
 10
0.0
 20
0.0
 30
0.0
 70
     1
  0
VERTEX
  8
OBJECT
 10
57.852938
 20
88.621675
 30
0.0
 42
-0.414214
  0
VERTEX
  8
OBJECT
 10
58.352938
 20
89.121675
 30
0.0
  0
VERTEX
  8
OBJECT
 10
60.352938
 20
89.121675
 30
0.0
 42
-0.414214
  0
VERTEX
  8
OBJECT
 10
60.852938
 20
88.621675
 30
0.0
  0
VERTEX
  8
OBJECT
 10
60.852938
 20
85.621675
 30
0.0
 42
-0.414214
  0
VERTEX
  8
OBJECT
 10
60.352938
 20
85.121675
 30
0.0
  0
VERTEX
  8
OBJECT
 10
58.352938
 20
85.121675
 30
0.0
 42
-0.414214
  0
VERTEX
  8
OBJECT
 10
57.852938
 20
85.621675
 30
0.0
  0
SEQEND
  8
OBJECT
  0
CIRCLE
  8
OBJECT
 10
59.352938
 20
92.121675
 30
0.0
 40
0.1405
  0
CIRCLE
  8
OBJECT
 10
59.352938
 20
70.918675
 30
0.0
 40
0.1405
  0
CIRCLE
  8
OBJECT
 10
14.280956
 20
18.215675
 30
0.0
 40
0.1
  0
CIRCLE
  8
OBJECT
 10
14.280956
 20
18.840675
 30
0.0
 40
0.1
  0
CIRCLE
  8
OBJECT
 10
14.280956
 20
19.465675
 30
0.0
 40
0.1
  0
CIRCLE
  8
OBJECT
 10
32.592956
 20
18.215675
 30
0.0
 40
0.1
  0
CIRCLE
  8
OBJECT
 10
32.592956
 20
19.465675
 30
0.0
 40
0.1
  0
CIRCLE
  8
OBJECT
 10
32.592956
 20
18.840675
 30
0.0
 40
0.1
  0
CIRCLE
  8
OBJECT
 10
14.280956
 20
19.965675
 30
0.0
 40
0.1
  0
CIRCLE
  8
OBJECT
 10
14.280956
 20
20.590675
 30
0.0
 40
0.1
  0
CIRCLE
  8
OBJECT
 10
14.280956
 20
21.215675
 30
0.0
 40
0.1
  0
CIRCLE
  8
OBJECT
 10
32.592956
 20
19.965675
 30
0.0
 40
0.1
  0
CIRCLE
  8
OBJECT
 10
32.592956
 20
21.215675
 30
0.0
 40
0.1
  0
CIRCLE
  8
OBJECT
 10
32.592956
 20
20.590675
 30
0.0
 40
0.1
  0
CIRCLE
  8
OBJECT
 10
14.280956
 20
21.715675
 30
0.0
 40
0.1
  0
CIRCLE
  8
OBJECT
 10
14.280956
 20
22.340675
 30
0.0
 40
0.1
  0
CIRCLE
  8
OBJECT
 10
14.280956
 20
22.965675
 30
0.0
 40
0.1
  0
CIRCLE
  8
OBJECT
 10
32.592956
 20
21.715675
 30
0.0
 40
0.1
  0
CIRCLE
  8
OBJECT
 10
32.592956
 20
22.965675
 30
0.0
 40
0.1
  0
CIRCLE
  8
OBJECT
 10
32.592956
 20
22.340675
 30
0.0
 40
0.1
  0
CIRCLE
  8
OBJECT
 10
14.280956
 20
23.465675
 30
0.0
 40
0.1
  0
CIRCLE
  8
OBJECT
 10
14.280956
 20
24.090675
 30
0.0
 40
0.1
  0
CIRCLE
  8
OBJECT
 10
14.280956
 20
24.715675
 30
0.0
 40
0.1
  0
CIRCLE
  8
OBJECT
 10
32.592956
 20
23.465675
 30
0.0
 40
0.1
  0
CIRCLE
  8
OBJECT
 10
32.592956
 20
24.715675
 30
0.0
 40
0.1
  0
CIRCLE
  8
OBJECT
 10
32.592956
 20
24.090675
 30
0.0
 40
0.1
  0
CIRCLE
  8
OBJECT
 10
14.280956
 20
25.215675
 30
0.0
 40
0.1
  0
CIRCLE
  8
OBJECT
 10
14.280956
 20
25.840675
 30
0.0
 40
0.1
  0
CIRCLE
  8
OBJECT
 10
14.280956
 20
26.465675
 30
0.0
 40
0.1
  0
CIRCLE
  8
OBJECT
 10
32.592956
 20
25.215675
 30
0.0
 40
0.1
  0
CIRCLE
  8
OBJECT
 10
32.592956
 20
26.465675
 30
0.0
 40
0.1
  0
CIRCLE
  8
OBJECT
 10
32.592956
 20
25.840675
 30
0.0
 40
0.1
  0
CIRCLE
  8
OBJECT
 10
14.280956
 20
26.965675
 30
0.0
 40
0.1
  0
CIRCLE
  8
OBJECT
 10
14.280956
 20
27.590675
 30
0.0
 40
0.1
  0
CIRCLE
  8
OBJECT
 10
14.280956
 20
28.215675
 30
0.0
 40
0.1
  0
CIRCLE
  8
OBJECT
 10
32.592956
 20
26.965675
 30
0.0
 40
0.1
  0
CIRCLE
  8
OBJECT
 10
32.592956
 20
28.215675
 30
0.0
 40
0.1
  0
CIRCLE
  8
OBJECT
 10
32.592956
 20
27.590675
 30
0.0
 40
0.1
  0
CIRCLE
  8
OBJECT
 10
14.280956
 20
28.715675
 30
0.0
 40
0.1
  0
CIRCLE
  8
OBJECT
 10
14.280956
 20
29.340675
 30
0.0
 40
0.1
  0
CIRCLE
  8
OBJECT
 10
14.280956
 20
29.965675
 30
0.0
 40
0.1
  0
CIRCLE
  8
OBJECT
 10
32.592956
 20
28.715675
 30
0.0
 40
0.1
  0
CIRCLE
  8
OBJECT
 10
32.592956
 20
29.965675
 30
0.0
 40
0.1
  0
CIRCLE
  8
OBJECT
 10
32.592956
 20
29.340675
 30
0.0
 40
0.1
  0
CIRCLE
  8
OBJECT
 10
14.280956
 20
30.465675
 30
0.0
 40
0.1
  0
CIRCLE
  8
OBJECT
 10
14.280956
 20
31.090675
 30
0.0
 40
0.1
  0
CIRCLE
  8
OBJECT
 10
14.280956
 20
31.715675
 30
0.0
 40
0.1
  0
CIRCLE
  8
OBJECT
 10
32.592956
 20
30.465675
 30
0.0
 40
0.1
  0
CIRCLE
  8
OBJECT
 10
32.592956
 20
31.715675
 30
0.0
 40
0.1
  0
CIRCLE
  8
OBJECT
 10
32.592956
 20
31.090675
 30
0.0
 40
0.1
  0
CIRCLE
  8
OBJECT
 10
14.280956
 20
32.215675
 30
0.0
 40
0.1
  0
CIRCLE
  8
OBJECT
 10
14.280956
 20
32.840675
 30
0.0
 40
0.1
  0
CIRCLE
  8
OBJECT
 10
14.280956
 20
33.465675
 30
0.0
 40
0.1
  0
CIRCLE
  8
OBJECT
 10
32.592956
 20
32.215675
 30
0.0
 40
0.1
  0
CIRCLE
  8
OBJECT
 10
32.592956
 20
33.465675
 30
0.0
 40
0.1
  0
CIRCLE
  8
OBJECT
 10
32.592956
 20
32.840675
 30
0.0
 40
0.1
  0
CIRCLE
  8
OBJECT
 10
14.280956
 20
33.965675
 30
0.0
 40
0.1
  0
CIRCLE
  8
OBJECT
 10
14.280956
 20
34.590675
 30
0.0
 40
0.1
  0
CIRCLE
  8
OBJECT
 10
14.280956
 20
35.215675
 30
0.0
 40
0.1
  0
CIRCLE
  8
OBJECT
 10
32.592956
 20
33.965675
 30
0.0
 40
0.1
  0
CIRCLE
  8
OBJECT
 10
32.592956
 20
35.215675
 30
0.0
 40
0.1
  0
CIRCLE
  8
OBJECT
 10
32.592956
 20
34.590675
 30
0.0
 40
0.1
  0
CIRCLE
  8
OBJECT
 10
14.280956
 20
35.715675
 30
0.0
 40
0.1
  0
CIRCLE
  8
OBJECT
 10
14.280956
 20
36.340675
 30
0.0
 40
0.1
  0
CIRCLE
  8
OBJECT
 10
14.280956
 20
36.965675
 30
0.0
 40
0.1
  0
CIRCLE
  8
OBJECT
 10
32.592956
 20
35.715675
 30
0.0
 40
0.1
  0
CIRCLE
  8
OBJECT
 10
32.592956
 20
36.965675
 30
0.0
 40
0.1
  0
CIRCLE
  8
OBJECT
 10
32.592956
 20
36.340675
 30
0.0
 40
0.1
  0
CIRCLE
  8
OBJECT
 10
14.280956
 20
37.465675
 30
0.0
 40
0.1
  0
CIRCLE
  8
OBJECT
 10
14.280956
 20
38.090675
 30
0.0
 40
0.1
  0
CIRCLE
  8
OBJECT
 10
14.280956
 20
38.715675
 30
0.0
 40
0.1
  0
CIRCLE
  8
OBJECT
 10
32.592956
 20
37.465675
 30
0.0
 40
0.1
  0
CIRCLE
  8
OBJECT
 10
32.592956
 20
38.715675
 30
0.0
 40
0.1
  0
CIRCLE
  8
OBJECT
 10
32.592956
 20
38.090675
 30
0.0
 40
0.1
  0
CIRCLE
  8
OBJECT
 10
14.280956
 20
39.215675
 30
0.0
 40
0.1
  0
CIRCLE
  8
OBJECT
 10
14.280956
 20
39.840675
 30
0.0
 40
0.1
  0
CIRCLE
  8
OBJECT
 10
14.280956
 20
40.465675
 30
0.0
 40
0.1
  0
CIRCLE
  8
OBJECT
 10
32.592956
 20
39.215675
 30
0.0
 40
0.1
  0
CIRCLE
  8
OBJECT
 10
32.592956
 20
40.465675
 30
0.0
 40
0.1
  0
CIRCLE
  8
OBJECT
 10
32.592956
 20
39.840675
 30
0.0
 40
0.1
  0
CIRCLE
  8
OBJECT
 10
14.280956
 20
40.965675
 30
0.0
 40
0.1
  0
CIRCLE
  8
OBJECT
 10
14.280956
 20
41.590675
 30
0.0
 40
0.1
  0
CIRCLE
  8
OBJECT
 10
14.280956
 20
42.215675
 30
0.0
 40
0.1
  0
CIRCLE
  8
OBJECT
 10
32.592956
 20
40.965675
 30
0.0
 40
0.1
  0
CIRCLE
  8
OBJECT
 10
32.592956
 20
42.215675
 30
0.0
 40
0.1
  0
CIRCLE
  8
OBJECT
 10
32.592956
 20
41.590675
 30
0.0
 40
0.1
  0
CIRCLE
  8
OBJECT
 10
14.280956
 20
42.715675
 30
0.0
 40
0.1
  0
CIRCLE
  8
OBJECT
 10
14.280956
 20
43.340675
 30
0.0
 40
0.1
  0
CIRCLE
  8
OBJECT
 10
14.280956
 20
43.965675
 30
0.0
 40
0.1
  0
CIRCLE
  8
OBJECT
 10
32.592956
 20
42.715675
 30
0.0
 40
0.1
  0
CIRCLE
  8
OBJECT
 10
32.592956
 20
43.965675
 30
0.0
 40
0.1
  0
CIRCLE
  8
OBJECT
 10
32.592956
 20
43.340675
 30
0.0
 40
0.1
  0
CIRCLE
  8
OBJECT
 10
14.280956
 20
44.465675
 30
0.0
 40
0.1
  0
CIRCLE
  8
OBJECT
 10
14.280956
 20
45.090675
 30
0.0
 40
0.1
  0
CIRCLE
  8
OBJECT
 10
14.280956
 20
45.715675
 30
0.0
 40
0.1
  0
CIRCLE
  8
OBJECT
 10
32.592956
 20
44.465675
 30
0.0
 40
0.1
  0
CIRCLE
  8
OBJECT
 10
32.592956
 20
45.715675
 30
0.0
 40
0.1
  0
CIRCLE
  8
OBJECT
 10
32.592956
 20
45.090675
 30
0.0
 40
0.1
  0
CIRCLE
  8
OBJECT
 10
14.280956
 20
46.215675
 30
0.0
 40
0.1
  0
CIRCLE
  8
OBJECT
 10
14.280956
 20
46.840675
 30
0.0
 40
0.1
  0
CIRCLE
  8
OBJECT
 10
14.280956
 20
47.465675
 30
0.0
 40
0.1
  0
CIRCLE
  8
OBJECT
 10
32.592956
 20
46.215675
 30
0.0
 40
0.1
  0
CIRCLE
  8
OBJECT
 10
32.592956
 20
47.465675
 30
0.0
 40
0.1
  0
CIRCLE
  8
OBJECT
 10
32.592956
 20
46.840675
 30
0.0
 40
0.1
  0
CIRCLE
  8
OBJECT
 10
14.280956
 20
47.965675
 30
0.0
 40
0.1
  0
CIRCLE
  8
OBJECT
 10
14.280956
 20
48.590675
 30
0.0
 40
0.1
  0
CIRCLE
  8
OBJECT
 10
14.280956
 20
49.215675
 30
0.0
 40
0.1
  0
CIRCLE
  8
OBJECT
 10
32.592956
 20
47.965675
 30
0.0
 40
0.1
  0
CIRCLE
  8
OBJECT
 10
32.592956
 20
49.215675
 30
0.0
 40
0.1
  0
CIRCLE
  8
OBJECT
 10
32.592956
 20
48.590675
 30
0.0
 40
0.1
  0
CIRCLE
  8
OBJECT
 10
14.280956
 20
49.715675
 30
0.0
 40
0.1
  0
CIRCLE
  8
OBJECT
 10
14.280956
 20
50.340675
 30
0.0
 40
0.1
  0
CIRCLE
  8
OBJECT
 10
14.280956
 20
50.965675
 30
0.0
 40
0.1
  0
CIRCLE
  8
OBJECT
 10
32.592956
 20
49.715675
 30
0.0
 40
0.1
  0
CIRCLE
  8
OBJECT
 10
32.592956
 20
50.965675
 30
0.0
 40
0.1
  0
CIRCLE
  8
OBJECT
 10
32.592956
 20
50.340675
 30
0.0
 40
0.1
  0
CIRCLE
  8
OBJECT
 10
14.280956
 20
51.465675
 30
0.0
 40
0.1
  0
CIRCLE
  8
OBJECT
 10
14.280956
 20
52.090675
 30
0.0
 40
0.1
  0
CIRCLE
  8
OBJECT
 10
14.280956
 20
52.715675
 30
0.0
 40
0.1
  0
CIRCLE
  8
OBJECT
 10
32.592956
 20
51.465675
 30
0.0
 40
0.1
  0
CIRCLE
  8
OBJECT
 10
32.592956
 20
52.715675
 30
0.0
 40
0.1
  0
CIRCLE
  8
OBJECT
 10
32.592956
 20
52.090675
 30
0.0
 40
0.1
  0
CIRCLE
  8
OBJECT
 10
14.280956
 20
53.215675
 30
0.0
 40
0.1
  0
CIRCLE
  8
OBJECT
 10
14.280956
 20
53.840675
 30
0.0
 40
0.1
  0
CIRCLE
  8
OBJECT
 10
14.280956
 20
54.465675
 30
0.0
 40
0.1
  0
CIRCLE
  8
OBJECT
 10
32.592956
 20
53.215675
 30
0.0
 40
0.1
  0
CIRCLE
  8
OBJECT
 10
32.592956
 20
54.465675
 30
0.0
 40
0.1
  0
CIRCLE
  8
OBJECT
 10
32.592956
 20
53.840675
 30
0.0
 40
0.1
  0
CIRCLE
  8
OBJECT
 10
14.280956
 20
54.965675
 30
0.0
 40
0.1
  0
CIRCLE
  8
OBJECT
 10
14.280956
 20
55.590675
 30
0.0
 40
0.1
  0
CIRCLE
  8
OBJECT
 10
14.280956
 20
56.215675
 30
0.0
 40
0.1
  0
CIRCLE
  8
OBJECT
 10
32.592956
 20
54.965675
 30
0.0
 40
0.1
  0
CIRCLE
  8
OBJECT
 10
32.592956
 20
56.215675
 30
0.0
 40
0.1
  0
CIRCLE
  8
OBJECT
 10
32.592956
 20
55.590675
 30
0.0
 40
0.1
  0
CIRCLE
  8
OBJECT
 10
14.280956
 20
56.715675
 30
0.0
 40
0.1
  0
CIRCLE
  8
OBJECT
 10
14.280956
 20
57.340675
 30
0.0
 40
0.1
  0
CIRCLE
  8
OBJECT
 10
14.280956
 20
57.965675
 30
0.0
 40
0.1
  0
CIRCLE
  8
OBJECT
 10
32.592956
 20
56.715675
 30
0.0
 40
0.1
  0
CIRCLE
  8
OBJECT
 10
32.592956
 20
57.965675
 30
0.0
 40
0.1
  0
CIRCLE
  8
OBJECT
 10
32.592956
 20
57.340675
 30
0.0
 40
0.1
  0
CIRCLE
  8
OBJECT
 10
14.280956
 20
58.465675
 30
0.0
 40
0.1
  0
CIRCLE
  8
OBJECT
 10
14.280956
 20
59.090675
 30
0.0
 40
0.1
  0
CIRCLE
  8
OBJECT
 10
14.280956
 20
59.715675
 30
0.0
 40
0.1
  0
CIRCLE
  8
OBJECT
 10
32.592956
 20
58.465675
 30
0.0
 40
0.1
  0
CIRCLE
  8
OBJECT
 10
32.592956
 20
59.715675
 30
0.0
 40
0.1
  0
CIRCLE
  8
OBJECT
 10
32.592956
 20
59.090675
 30
0.0
 40
0.1
  0
CIRCLE
  8
OBJECT
 10
14.280956
 20
60.215675
 30
0.0
 40
0.1
  0
CIRCLE
  8
OBJECT
 10
14.280956
 20
60.840675
 30
0.0
 40
0.1
  0
CIRCLE
  8
OBJECT
 10
14.280956
 20
61.465675
 30
0.0
 40
0.1
  0
CIRCLE
  8
OBJECT
 10
32.592956
 20
60.215675
 30
0.0
 40
0.1
  0
CIRCLE
  8
OBJECT
 10
32.592956
 20
61.465675
 30
0.0
 40
0.1
  0
CIRCLE
  8
OBJECT
 10
32.592956
 20
60.840675
 30
0.0
 40
0.1
  0
CIRCLE
  8
OBJECT
 10
14.280956
 20
61.965675
 30
0.0
 40
0.1
  0
CIRCLE
  8
OBJECT
 10
14.280956
 20
62.590675
 30
0.0
 40
0.1
  0
CIRCLE
  8
OBJECT
 10
14.280956
 20
63.215675
 30
0.0
 40
0.1
  0
CIRCLE
  8
OBJECT
 10
32.592956
 20
61.965675
 30
0.0
 40
0.1
  0
CIRCLE
  8
OBJECT
 10
32.592956
 20
63.215675
 30
0.0
 40
0.1
  0
CIRCLE
  8
OBJECT
 10
32.592956
 20
62.590675
 30
0.0
 40
0.1
  0
CIRCLE
  8
OBJECT
 10
14.280956
 20
63.715675
 30
0.0
 40
0.1
  0
CIRCLE
  8
OBJECT
 10
14.280956
 20
64.340675
 30
0.0
 40
0.1
  0
CIRCLE
  8
OBJECT
 10
14.280956
 20
64.965675
 30
0.0
 40
0.1
  0
CIRCLE
  8
OBJECT
 10
32.592956
 20
63.715675
 30
0.0
 40
0.1
  0
CIRCLE
  8
OBJECT
 10
32.592956
 20
64.965675
 30
0.0
 40
0.1
  0
CIRCLE
  8
OBJECT
 10
32.592956
 20
64.340675
 30
0.0
 40
0.1
  0
CIRCLE
  8
OBJECT
 10
14.280956
 20
65.465675
 30
0.0
 40
0.1
  0
CIRCLE
  8
OBJECT
 10
14.280956
 20
66.090675
 30
0.0
 40
0.1
  0
CIRCLE
  8
OBJECT
 10
14.280956
 20
66.715675
 30
0.0
 40
0.1
  0
CIRCLE
  8
OBJECT
 10
32.592956
 20
65.465675
 30
0.0
 40
0.1
  0
CIRCLE
  8
OBJECT
 10
32.592956
 20
66.715675
 30
0.0
 40
0.1
  0
CIRCLE
  8
OBJECT
 10
32.592956
 20
66.090675
 30
0.0
 40
0.1
  0
CIRCLE
  8
OBJECT
 10
14.280956
 20
67.215675
 30
0.0
 40
0.1
  0
CIRCLE
  8
OBJECT
 10
14.280956
 20
67.840675
 30
0.0
 40
0.1
  0
CIRCLE
  8
OBJECT
 10
14.280956
 20
68.465675
 30
0.0
 40
0.1
  0
CIRCLE
  8
OBJECT
 10
32.592956
 20
67.215675
 30
0.0
 40
0.1
  0
CIRCLE
  8
OBJECT
 10
32.592956
 20
68.465675
 30
0.0
 40
0.1
  0
CIRCLE
  8
OBJECT
 10
32.592956
 20
67.840675
 30
0.0
 40
0.1
  0
CIRCLE
  8
OBJECT
 10
14.280956
 20
68.965675
 30
0.0
 40
0.1
  0
CIRCLE
  8
OBJECT
 10
14.280956
 20
69.590675
 30
0.0
 40
0.1
  0
CIRCLE
  8
OBJECT
 10
14.280956
 20
70.215675
 30
0.0
 40
0.1
  0
CIRCLE
  8
OBJECT
 10
32.592956
 20
68.965675
 30
0.0
 40
0.1
  0
CIRCLE
  8
OBJECT
 10
32.592956
 20
70.215675
 30
0.0
 40
0.1
  0
CIRCLE
  8
OBJECT
 10
32.592956
 20
69.590675
 30
0.0
 40
0.1
  0
CIRCLE
  8
OBJECT
 10
14.280956
 20
70.715675
 30
0.0
 40
0.1
  0
CIRCLE
  8
OBJECT
 10
14.280956
 20
71.340675
 30
0.0
 40
0.1
  0
CIRCLE
  8
OBJECT
 10
14.280956
 20
71.965675
 30
0.0
 40
0.1
  0
CIRCLE
  8
OBJECT
 10
32.592956
 20
70.715675
 30
0.0
 40
0.1
  0
CIRCLE
  8
OBJECT
 10
32.592956
 20
71.965675
 30
0.0
 40
0.1
  0
CIRCLE
  8
OBJECT
 10
32.592956
 20
71.340675
 30
0.0
 40
0.1
  0
CIRCLE
  8
OBJECT
 10
14.280956
 20
72.465675
 30
0.0
 40
0.1
  0
CIRCLE
  8
OBJECT
 10
14.280956
 20
73.090675
 30
0.0
 40
0.1
  0
CIRCLE
  8
OBJECT
 10
14.280956
 20
73.715675
 30
0.0
 40
0.1
  0
CIRCLE
  8
OBJECT
 10
32.592956
 20
72.465675
 30
0.0
 40
0.1
  0
CIRCLE
  8
OBJECT
 10
32.592956
 20
73.715675
 30
0.0
 40
0.1
  0
CIRCLE
  8
OBJECT
 10
32.592956
 20
73.090675
 30
0.0
 40
0.1
  0
CIRCLE
  8
OBJECT
 10
14.280956
 20
74.215675
 30
0.0
 40
0.1
  0
CIRCLE
  8
OBJECT
 10
14.280956
 20
74.840675
 30
0.0
 40
0.1
  0
CIRCLE
  8
OBJECT
 10
14.280956
 20
75.465675
 30
0.0
 40
0.1
  0
CIRCLE
  8
OBJECT
 10
32.592956
 20
74.215675
 30
0.0
 40
0.1
  0
CIRCLE
  8
OBJECT
 10
32.592956
 20
75.465675
 30
0.0
 40
0.1
  0
CIRCLE
  8
OBJECT
 10
32.592956
 20
74.840675
 30
0.0
 40
0.1
  0
CIRCLE
  8
OBJECT
 10
14.280956
 20
75.965675
 30
0.0
 40
0.1
  0
CIRCLE
  8
OBJECT
 10
14.280956
 20
76.590675
 30
0.0
 40
0.1
  0
CIRCLE
  8
OBJECT
 10
14.280956
 20
77.215675
 30
0.0
 40
0.1
  0
CIRCLE
  8
OBJECT
 10
32.592956
 20
75.965675
 30
0.0
 40
0.1
  0
CIRCLE
  8
OBJECT
 10
32.592956
 20
77.215675
 30
0.0
 40
0.1
  0
CIRCLE
  8
OBJECT
 10
32.592956
 20
76.590675
 30
0.0
 40
0.1
  0
CIRCLE
  8
OBJECT
 10
14.280956
 20
77.715675
 30
0.0
 40
0.1
  0
CIRCLE
  8
OBJECT
 10
14.280956
 20
78.340675
 30
0.0
 40
0.1
  0
CIRCLE
  8
OBJECT
 10
14.280956
 20
78.965675
 30
0.0
 40
0.1
  0
CIRCLE
  8
OBJECT
 10
32.592956
 20
77.715675
 30
0.0
 40
0.1
  0
CIRCLE
  8
OBJECT
 10
32.592956
 20
78.965675
 30
0.0
 40
0.1
  0
CIRCLE
  8
OBJECT
 10
32.592956
 20
78.340675
 30
0.0
 40
0.1
  0
CIRCLE
  8
OBJECT
 10
14.280956
 20
79.465675
 30
0.0
 40
0.1
  0
CIRCLE
  8
OBJECT
 10
14.280956
 20
80.090675
 30
0.0
 40
0.1
  0
CIRCLE
  8
OBJECT
 10
14.280956
 20
80.715675
 30
0.0
 40
0.1
  0
CIRCLE
  8
OBJECT
 10
32.592956
 20
79.465675
 30
0.0
 40
0.1
  0
CIRCLE
  8
OBJECT
 10
32.592956
 20
80.715675
 30
0.0
 40
0.1
  0
CIRCLE
  8
OBJECT
 10
32.592956
 20
80.090675
 30
0.0
 40
0.1
  0
CIRCLE
  8
OBJECT
 10
14.280956
 20
81.215675
 30
0.0
 40
0.1
  0
CIRCLE
  8
OBJECT
 10
14.280956
 20
81.840675
 30
0.0
 40
0.1
  0
CIRCLE
  8
OBJECT
 10
14.280956
 20
82.465675
 30
0.0
 40
0.1
  0
CIRCLE
  8
OBJECT
 10
32.592956
 20
81.215675
 30
0.0
 40
0.1
  0
CIRCLE
  8
OBJECT
 10
32.592956
 20
82.465675
 30
0.0
 40
0.1
  0
CIRCLE
  8
OBJECT
 10
32.592956
 20
81.840675
 30
0.0
 40
0.1
  0
CIRCLE
  8
OBJECT
 10
14.280956
 20
82.965675
 30
0.0
 40
0.1
  0
CIRCLE
  8
OBJECT
 10
14.280956
 20
83.590675
 30
0.0
 40
0.1
  0
CIRCLE
  8
OBJECT
 10
14.280956
 20
84.215675
 30
0.0
 40
0.1
  0
CIRCLE
  8
OBJECT
 10
32.592956
 20
82.965675
 30
0.0
 40
0.1
  0
CIRCLE
  8
OBJECT
 10
32.592956
 20
84.215675
 30
0.0
 40
0.1
  0
CIRCLE
  8
OBJECT
 10
32.592956
 20
83.590675
 30
0.0
 40
0.1
  0
CIRCLE
  8
OBJECT
 10
14.280956
 20
84.715675
 30
0.0
 40
0.1
  0
CIRCLE
  8
OBJECT
 10
14.280956
 20
85.340675
 30
0.0
 40
0.1
  0
CIRCLE
  8
OBJECT
 10
14.280956
 20
85.965675
 30
0.0
 40
0.1
  0
CIRCLE
  8
OBJECT
 10
32.592956
 20
84.715675
 30
0.0
 40
0.1
  0
CIRCLE
  8
OBJECT
 10
32.592956
 20
85.965675
 30
0.0
 40
0.1
  0
CIRCLE
  8
OBJECT
 10
32.592956
 20
85.340675
 30
0.0
 40
0.1
  0
CIRCLE
  8
OBJECT
 10
14.280956
 20
86.465675
 30
0.0
 40
0.1
  0
CIRCLE
  8
OBJECT
 10
14.280956
 20
87.090675
 30
0.0
 40
0.1
  0
CIRCLE
  8
OBJECT
 10
14.280956
 20
87.715675
 30
0.0
 40
0.1
  0
CIRCLE
  8
OBJECT
 10
32.592956
 20
86.465675
 30
0.0
 40
0.1
  0
CIRCLE
  8
OBJECT
 10
32.592956
 20
87.715675
 30
0.0
 40
0.1
  0
CIRCLE
  8
OBJECT
 10
32.592956
 20
87.090675
 30
0.0
 40
0.1
  0
CIRCLE
  8
OBJECT
 10
14.280956
 20
88.215675
 30
0.0
 40
0.1
  0
CIRCLE
  8
OBJECT
 10
14.280956
 20
88.840675
 30
0.0
 40
0.1
  0
CIRCLE
  8
OBJECT
 10
14.280956
 20
89.465675
 30
0.0
 40
0.1
  0
CIRCLE
  8
OBJECT
 10
32.592956
 20
88.215675
 30
0.0
 40
0.1
  0
CIRCLE
  8
OBJECT
 10
32.592956
 20
89.465675
 30
0.0
 40
0.1
  0
CIRCLE
  8
OBJECT
 10
32.592956
 20
88.840675
 30
0.0
 40
0.1
  0
CIRCLE
  8
OBJECT
 10
14.280956
 20
89.965675
 30
0.0
 40
0.1
  0
CIRCLE
  8
OBJECT
 10
14.280956
 20
90.590675
 30
0.0
 40
0.1
  0
CIRCLE
  8
OBJECT
 10
14.280956
 20
91.215675
 30
0.0
 40
0.1
  0
CIRCLE
  8
OBJECT
 10
32.592956
 20
89.965675
 30
0.0
 40
0.1
  0
CIRCLE
  8
OBJECT
 10
32.592956
 20
91.215675
 30
0.0
 40
0.1
  0
CIRCLE
  8
OBJECT
 10
32.592956
 20
90.590675
 30
0.0
 40
0.1
  0
CIRCLE
  8
OBJECT
 10
14.280956
 20
91.715675
 30
0.0
 40
0.1
  0
CIRCLE
  8
OBJECT
 10
14.280956
 20
92.340675
 30
0.0
 40
0.1
  0
CIRCLE
  8
OBJECT
 10
14.280956
 20
92.965675
 30
0.0
 40
0.1
  0
CIRCLE
  8
OBJECT
 10
32.592956
 20
91.715675
 30
0.0
 40
0.1
  0
CIRCLE
  8
OBJECT
 10
32.592956
 20
92.965675
 30
0.0
 40
0.1
  0
CIRCLE
  8
OBJECT
 10
32.592956
 20
92.340675
 30
0.0
 40
0.1
  0
POLYLINE
  8
OBJECT
 66
     1
 10
0.0
 20
0.0
 30
0.0
 70
     1
  0
VERTEX
  8
OBJECT
 10
12.155456
 20
26.278175
 30
0.0
  0
VERTEX
  8
OBJECT
 10
12.155456
 20
26.903175
 30
0.0
 42
1.0
  0
VERTEX
  8
OBJECT
 10
11.905456
 20
26.903175
 30
0.0
  0
VERTEX
  8
OBJECT
 10
11.905456
 20
26.278175
 30
0.0
 42
1.0
  0
SEQEND
  8
OBJECT
  0
POLYLINE
  8
OBJECT
 66
     1
 10
0.0
 20
0.0
 30
0.0
 70
     1
  0
VERTEX
  8
OBJECT
 10
13.780456
 20
26.278175
 30
0.0
  0
VERTEX
  8
OBJECT
 10
13.780456
 20
26.903175
 30
0.0
 42
1.0
  0
VERTEX
  8
OBJECT
 10
13.530456
 20
26.903175
 30
0.0
  0
VERTEX
  8
OBJECT
 10
13.530456
 20
26.278175
 30
0.0
 42
1.0
  0
SEQEND
  8
OBJECT
  0
POLYLINE
  8
OBJECT
 66
     1
 10
0.0
 20
0.0
 30
0.0
 70
     1
  0
VERTEX
  8
OBJECT
 10
61.509188
 20
31.098675
 30
0.0
  0
VERTEX
  8
OBJECT
 10
61.509188
 20
31.723675
 30
0.0
 42
1.0
  0
VERTEX
  8
OBJECT
 10
61.259188
 20
31.723675
 30
0.0
  0
VERTEX
  8
OBJECT
 10
61.259188
 20
31.098675
 30
0.0
 42
1.0
  0
SEQEND
  8
OBJECT
  0
POLYLINE
  8
OBJECT
 66
     1
 10
0.0
 20
0.0
 30
0.0
 70
     1
  0
VERTEX
  8
OBJECT
 10
60.696688
 20
31.098675
 30
0.0
  0
VERTEX
  8
OBJECT
 10
60.696688
 20
31.723675
 30
0.0
 42
1.0
  0
VERTEX
  8
OBJECT
 10
60.446688
 20
31.723675
 30
0.0
  0
VERTEX
  8
OBJECT
 10
60.446688
 20
31.098675
 30
0.0
 42
1.0
  0
SEQEND
  8
OBJECT
  0
POLYLINE
  8
OBJECT
 66
     1
 10
0.0
 20
0.0
 30
0.0
 70
     1
  0
VERTEX
  8
OBJECT
 10
59.884188
 20
31.098675
 30
0.0
  0
VERTEX
  8
OBJECT
 10
59.884188
 20
31.723675
 30
0.0
 42
1.0
  0
VERTEX
  8
OBJECT
 10
59.634188
 20
31.723675
 30
0.0
  0
VERTEX
  8
OBJECT
 10
59.634188
 20
31.098675
 30
0.0
 42
1.0
  0
SEQEND
  8
OBJECT
  0
POLYLINE
  8
OBJECT
 66
     1
 10
0.0
 20
0.0
 30
0.0
 70
     1
  0
VERTEX
  8
OBJECT
 10
59.071688
 20
31.098675
 30
0.0
  0
VERTEX
  8
OBJECT
 10
59.071688
 20
31.723675
 30
0.0
 42
1.0
  0
VERTEX
  8
OBJECT
 10
58.821688
 20
31.723675
 30
0.0
  0
VERTEX
  8
OBJECT
 10
58.821688
 20
31.098675
 30
0.0
 42
1.0
  0
SEQEND
  8
OBJECT
  0
POLYLINE
  8
OBJECT
 66
     1
 10
0.0
 20
0.0
 30
0.0
 70
     1
  0
VERTEX
  8
OBJECT
 10
58.259188
 20
31.098675
 30
0.0
  0
VERTEX
  8
OBJECT
 10
58.259188
 20
31.723675
 30
0.0
 42
1.0
  0
VERTEX
  8
OBJECT
 10
58.009188
 20
31.723675
 30
0.0
  0
VERTEX
  8
OBJECT
 10
58.009188
 20
31.098675
 30
0.0
 42
1.0
  0
SEQEND
  8
OBJECT
  0
POLYLINE
  8
OBJECT
 66
     1
 10
0.0
 20
0.0
 30
0.0
 70
     1
  0
VERTEX
  8
OBJECT
 10
57.446688
 20
31.098675
 30
0.0
  0
VERTEX
  8
OBJECT
 10
57.446688
 20
31.723675
 30
0.0
 42
1.0
  0
VERTEX
  8
OBJECT
 10
57.196688
 20
31.723675
 30
0.0
  0
VERTEX
  8
OBJECT
 10
57.196688
 20
31.098675
 30
0.0
 42
1.0
  0
SEQEND
  8
OBJECT
  0
POLYLINE
  8
OBJECT
 66
     1
 10
0.0
 20
0.0
 30
0.0
 70
     1
  0
VERTEX
  8
OBJECT
 10
58.259188
 20
45.301675
 30
0.0
  0
VERTEX
  8
OBJECT
 10
58.259188
 20
45.926675
 30
0.0
 42
1.0
  0
VERTEX
  8
OBJECT
 10
58.009188
 20
45.926675
 30
0.0
  0
VERTEX
  8
OBJECT
 10
58.009188
 20
45.301675
 30
0.0
 42
1.0
  0
SEQEND
  8
OBJECT
  0
POLYLINE
  8
OBJECT
 66
     1
 10
0.0
 20
0.0
 30
0.0
 70
     1
  0
VERTEX
  8
OBJECT
 10
59.071688
 20
45.301675
 30
0.0
  0
VERTEX
  8
OBJECT
 10
59.071688
 20
45.926675
 30
0.0
 42
1.0
  0
VERTEX
  8
OBJECT
 10
58.821688
 20
45.926675
 30
0.0
  0
VERTEX
  8
OBJECT
 10
58.821688
 20
45.301675
 30
0.0
 42
1.0
  0
SEQEND
  8
OBJECT
  0
POLYLINE
  8
OBJECT
 66
     1
 10
0.0
 20
0.0
 30
0.0
 70
     1
  0
VERTEX
  8
OBJECT
 10
57.446688
 20
45.301675
 30
0.0
  0
VERTEX
  8
OBJECT
 10
57.446688
 20
45.926675
 30
0.0
 42
1.0
  0
VERTEX
  8
OBJECT
 10
57.196688
 20
45.926675
 30
0.0
  0
VERTEX
  8
OBJECT
 10
57.196688
 20
45.301675
 30
0.0
 42
1.0
  0
SEQEND
  8
OBJECT
  0
POLYLINE
  8
OBJECT
 66
     1
 10
0.0
 20
0.0
 30
0.0
 70
     1
  0
VERTEX
  8
OBJECT
 10
59.884188
 20
45.301675
 30
0.0
  0
VERTEX
  8
OBJECT
 10
59.884188
 20
45.926675
 30
0.0
 42
1.0
  0
VERTEX
  8
OBJECT
 10
59.634188
 20
45.926675
 30
0.0
  0
VERTEX
  8
OBJECT
 10
59.634188
 20
45.301675
 30
0.0
 42
1.0
  0
SEQEND
  8
OBJECT
  0
POLYLINE
  8
OBJECT
 66
     1
 10
0.0
 20
0.0
 30
0.0
 70
     1
  0
VERTEX
  8
OBJECT
 10
61.509188
 20
45.301675
 30
0.0
  0
VERTEX
  8
OBJECT
 10
61.509188
 20
45.926675
 30
0.0
 42
1.0
  0
VERTEX
  8
OBJECT
 10
61.259188
 20
45.926675
 30
0.0
  0
VERTEX
  8
OBJECT
 10
61.259188
 20
45.301675
 30
0.0
 42
1.0
  0
SEQEND
  8
OBJECT
  0
POLYLINE
  8
OBJECT
 66
     1
 10
0.0
 20
0.0
 30
0.0
 70
     1
  0
VERTEX
  8
OBJECT
 10
60.696688
 20
45.301675
 30
0.0
  0
VERTEX
  8
OBJECT
 10
60.696688
 20
45.926675
 30
0.0
 42
1.0
  0
VERTEX
  8
OBJECT
 10
60.446688
 20
45.926675
 30
0.0
  0
VERTEX
  8
OBJECT
 10
60.446688
 20
45.301675
 30
0.0
 42
1.0
  0
SEQEND
  8
OBJECT
  0
POLYLINE
  8
OBJECT
 66
     1
 10
0.0
 20
0.0
 30
0.0
 70
     1
  0
VERTEX
  8
OBJECT
 10
58.259188
 20
63.504675
 30
0.0
  0
VERTEX
  8
OBJECT
 10
58.259188
 20
64.129675
 30
0.0
 42
1.0
  0
VERTEX
  8
OBJECT
 10
58.009188
 20
64.129675
 30
0.0
  0
VERTEX
  8
OBJECT
 10
58.009188
 20
63.504675
 30
0.0
 42
1.0
  0
SEQEND
  8
OBJECT
  0
POLYLINE
  8
OBJECT
 66
     1
 10
0.0
 20
0.0
 30
0.0
 70
     1
  0
VERTEX
  8
OBJECT
 10
59.071688
 20
63.504675
 30
0.0
  0
VERTEX
  8
OBJECT
 10
59.071688
 20
64.129675
 30
0.0
 42
1.0
  0
VERTEX
  8
OBJECT
 10
58.821688
 20
64.129675
 30
0.0
  0
VERTEX
  8
OBJECT
 10
58.821688
 20
63.504675
 30
0.0
 42
1.0
  0
SEQEND
  8
OBJECT
  0
POLYLINE
  8
OBJECT
 66
     1
 10
0.0
 20
0.0
 30
0.0
 70
     1
  0
VERTEX
  8
OBJECT
 10
57.446688
 20
63.504675
 30
0.0
  0
VERTEX
  8
OBJECT
 10
57.446688
 20
64.129675
 30
0.0
 42
1.0
  0
VERTEX
  8
OBJECT
 10
57.196688
 20
64.129675
 30
0.0
  0
VERTEX
  8
OBJECT
 10
57.196688
 20
63.504675
 30
0.0
 42
1.0
  0
SEQEND
  8
OBJECT
  0
POLYLINE
  8
OBJECT
 66
     1
 10
0.0
 20
0.0
 30
0.0
 70
     1
  0
VERTEX
  8
OBJECT
 10
59.884188
 20
63.504675
 30
0.0
  0
VERTEX
  8
OBJECT
 10
59.884188
 20
64.129675
 30
0.0
 42
1.0
  0
VERTEX
  8
OBJECT
 10
59.634188
 20
64.129675
 30
0.0
  0
VERTEX
  8
OBJECT
 10
59.634188
 20
63.504675
 30
0.0
 42
1.0
  0
SEQEND
  8
OBJECT
  0
POLYLINE
  8
OBJECT
 66
     1
 10
0.0
 20
0.0
 30
0.0
 70
     1
  0
VERTEX
  8
OBJECT
 10
61.509188
 20
63.504675
 30
0.0
  0
VERTEX
  8
OBJECT
 10
61.509188
 20
64.129675
 30
0.0
 42
1.0
  0
VERTEX
  8
OBJECT
 10
61.259188
 20
64.129675
 30
0.0
  0
VERTEX
  8
OBJECT
 10
61.259188
 20
63.504675
 30
0.0
 42
1.0
  0
SEQEND
  8
OBJECT
  0
POLYLINE
  8
OBJECT
 66
     1
 10
0.0
 20
0.0
 30
0.0
 70
     1
  0
VERTEX
  8
OBJECT
 10
60.696688
 20
63.504675
 30
0.0
  0
VERTEX
  8
OBJECT
 10
60.696688
 20
64.129675
 30
0.0
 42
1.0
  0
VERTEX
  8
OBJECT
 10
60.446688
 20
64.129675
 30
0.0
  0
VERTEX
  8
OBJECT
 10
60.446688
 20
63.504675
 30
0.0
 42
1.0
  0
SEQEND
  8
OBJECT
  0
POLYLINE
  8
OBJECT
 66
     1
 10
0.0
 20
0.0
 30
0.0
 70
     1
  0
VERTEX
  8
OBJECT
 10
58.259188
 20
77.707175
 30
0.0
  0
VERTEX
  8
OBJECT
 10
58.259188
 20
78.332175
 30
0.0
 42
1.0
  0
VERTEX
  8
OBJECT
 10
58.009188
 20
78.332175
 30
0.0
  0
VERTEX
  8
OBJECT
 10
58.009188
 20
77.707175
 30
0.0
 42
1.0
  0
SEQEND
  8
OBJECT
  0
POLYLINE
  8
OBJECT
 66
     1
 10
0.0
 20
0.0
 30
0.0
 70
     1
  0
VERTEX
  8
OBJECT
 10
59.071688
 20
77.707175
 30
0.0
  0
VERTEX
  8
OBJECT
 10
59.071688
 20
78.332175
 30
0.0
 42
1.0
  0
VERTEX
  8
OBJECT
 10
58.821688
 20
78.332175
 30
0.0
  0
VERTEX
  8
OBJECT
 10
58.821688
 20
77.707175
 30
0.0
 42
1.0
  0
SEQEND
  8
OBJECT
  0
POLYLINE
  8
OBJECT
 66
     1
 10
0.0
 20
0.0
 30
0.0
 70
     1
  0
VERTEX
  8
OBJECT
 10
57.446688
 20
77.707175
 30
0.0
  0
VERTEX
  8
OBJECT
 10
57.446688
 20
78.332175
 30
0.0
 42
1.0
  0
VERTEX
  8
OBJECT
 10
57.196688
 20
78.332175
 30
0.0
  0
VERTEX
  8
OBJECT
 10
57.196688
 20
77.707175
 30
0.0
 42
1.0
  0
SEQEND
  8
OBJECT
  0
POLYLINE
  8
OBJECT
 66
     1
 10
0.0
 20
0.0
 30
0.0
 70
     1
  0
VERTEX
  8
OBJECT
 10
59.884188
 20
77.707175
 30
0.0
  0
VERTEX
  8
OBJECT
 10
59.884188
 20
78.332175
 30
0.0
 42
1.0
  0
VERTEX
  8
OBJECT
 10
59.634188
 20
78.332175
 30
0.0
  0
VERTEX
  8
OBJECT
 10
59.634188
 20
77.707175
 30
0.0
 42
1.0
  0
SEQEND
  8
OBJECT
  0
POLYLINE
  8
OBJECT
 66
     1
 10
0.0
 20
0.0
 30
0.0
 70
     1
  0
VERTEX
  8
OBJECT
 10
61.509188
 20
77.707175
 30
0.0
  0
VERTEX
  8
OBJECT
 10
61.509188
 20
78.332175
 30
0.0
 42
1.0
  0
VERTEX
  8
OBJECT
 10
61.259188
 20
78.332175
 30
0.0
  0
VERTEX
  8
OBJECT
 10
61.259188
 20
77.707175
 30
0.0
 42
1.0
  0
SEQEND
  8
OBJECT
  0
POLYLINE
  8
OBJECT
 66
     1
 10
0.0
 20
0.0
 30
0.0
 70
     1
  0
VERTEX
  8
OBJECT
 10
60.696688
 20
77.707175
 30
0.0
  0
VERTEX
  8
OBJECT
 10
60.696688
 20
78.332175
 30
0.0
 42
1.0
  0
VERTEX
  8
OBJECT
 10
60.446688
 20
78.332175
 30
0.0
  0
VERTEX
  8
OBJECT
 10
60.446688
 20
77.707175
 30
0.0
 42
1.0
  0
SEQEND
  8
OBJECT
  0
CIRCLE
  8
OBJECT
 10
12.842956
 20
43.465675
 30
0.0
 40
0.75
  0
CIRCLE
  8
OBJECT
 10
34.030956
 20
43.465675
 30
0.0
 40
0.75
  0
CIRCLE
  8
OBJECT
 10
12.842956
 20
54.715675
 30
0.0
 40
0.75
  0
CIRCLE
  8
OBJECT
 10
34.030956
 20
54.715675
 30
0.0
 40
0.75
  0
CIRCLE
  8
OBJECT
 10
12.842956
 20
65.965675
 30
0.0
 40
0.75
  0
CIRCLE
  8
OBJECT
 10
34.030956
 20
65.965675
 30
0.0
 40
0.75
  0
CIRCLE
  8
OBJECT
 10
12.842956
 20
77.215675
 30
0.0
 40
0.75
  0
CIRCLE
  8
OBJECT
 10
34.030956
 20
77.215675
 30
0.0
 40
0.75
  0
CIRCLE
  8
OBJECT
 10
12.842956
 20
20.965675
 30
0.0
 40
0.75
  0
CIRCLE
  8
OBJECT
 10
34.030956
 20
20.965675
 30
0.0
 40
0.75
  0
CIRCLE
  8
OBJECT
 10
12.842956
 20
88.465675
 30
0.0
 40
0.75
  0
CIRCLE
  8
OBJECT
 10
34.030956
 20
88.465675
 30
0.0
 40
0.75
  0
CIRCLE
  8
OBJECT
 10
12.842956
 20
27.215675
 30
0.0
 40
0.1015
  0
CIRCLE
  8
OBJECT
 10
12.842956
 20
25.965675
 30
0.0
 40
0.1015
  0
CIRCLE
  8
OBJECT
 10
34.030956
 20
25.965675
 30
0.0
 40
0.1015
  0
CIRCLE
  8
OBJECT
 10
34.030956
 20
27.215675
 30
0.0
 40
0.1015
  0
POLYLINE
  8
OBJECT
 66
     1
 10
0.0
 20
0.0
 30
0.0
 70
     1
  0
VERTEX
  8
OBJECT
 10
33.093456
 20
26.278175
 30
0.0
  0
VERTEX
  8
OBJECT
 10
33.093456
 20
26.903175
 30
0.0
 42
-1.0
  0
VERTEX
  8
OBJECT
 10
33.343456
 20
26.903175
 30
0.0
  0
VERTEX
  8
OBJECT
 10
33.343456
 20
26.278175
 30
0.0
 42
-1.0
  0
SEQEND
  8
OBJECT
  0
POLYLINE
  8
OBJECT
 66
     1
 10
0.0
 20
0.0
 30
0.0
 70
     1
  0
VERTEX
  8
OBJECT
 10
34.718456
 20
26.278175
 30
0.0
  0
VERTEX
  8
OBJECT
 10
34.718456
 20
26.903175
 30
0.0
 42
-1.0
  0
VERTEX
  8
OBJECT
 10
34.968456
 20
26.903175
 30
0.0
  0
VERTEX
  8
OBJECT
 10
34.968456
 20
26.278175
 30
0.0
 42
-1.0
  0
SEQEND
  8
OBJECT
  0
CIRCLE
  8
OBJECT
 10
12.842956
 20
37.215675
 30
0.0
 40
0.1015
  0
CIRCLE
  8
OBJECT
 10
12.842956
 20
38.465675
 30
0.0
 40
0.1015
  0
POLYLINE
  8
OBJECT
 66
     1
 10
0.0
 20
0.0
 30
0.0
 70
     1
  0
VERTEX
  8
OBJECT
 10
13.780456
 20
37.528175
 30
0.0
  0
VERTEX
  8
OBJECT
 10
13.780456
 20
38.153175
 30
0.0
 42
1.0
  0
VERTEX
  8
OBJECT
 10
13.530456
 20
38.153175
 30
0.0
  0
VERTEX
  8
OBJECT
 10
13.530456
 20
37.528175
 30
0.0
 42
1.0
  0
SEQEND
  8
OBJECT
  0
POLYLINE
  8
OBJECT
 66
     1
 10
0.0
 20
0.0
 30
0.0
 70
     1
  0
VERTEX
  8
OBJECT
 10
12.155456
 20
37.528175
 30
0.0
  0
VERTEX
  8
OBJECT
 10
12.155456
 20
38.153175
 30
0.0
 42
1.0
  0
VERTEX
  8
OBJECT
 10
11.905456
 20
38.153175
 30
0.0
  0
VERTEX
  8
OBJECT
 10
11.905456
 20
37.528175
 30
0.0
 42
1.0
  0
SEQEND
  8
OBJECT
  0
POLYLINE
  8
OBJECT
 66
     1
 10
0.0
 20
0.0
 30
0.0
 70
     1
  0
VERTEX
  8
OBJECT
 10
33.093456
 20
37.528175
 30
0.0
  0
VERTEX
  8
OBJECT
 10
33.093456
 20
38.153175
 30
0.0
 42
-1.0
  0
VERTEX
  8
OBJECT
 10
33.343456
 20
38.153175
 30
0.0
  0
VERTEX
  8
OBJECT
 10
33.343456
 20
37.528175
 30
0.0
 42
-1.0
  0
SEQEND
  8
OBJECT
  0
POLYLINE
  8
OBJECT
 66
     1
 10
0.0
 20
0.0
 30
0.0
 70
     1
  0
VERTEX
  8
OBJECT
 10
34.718456
 20
37.528175
 30
0.0
  0
VERTEX
  8
OBJECT
 10
34.718456
 20
38.153175
 30
0.0
 42
-1.0
  0
VERTEX
  8
OBJECT
 10
34.968456
 20
38.153175
 30
0.0
  0
VERTEX
  8
OBJECT
 10
34.968456
 20
37.528175
 30
0.0
 42
-1.0
  0
SEQEND
  8
OBJECT
  0
CIRCLE
  8
OBJECT
 10
34.030956
 20
37.215675
 30
0.0
 40
0.1015
  0
CIRCLE
  8
OBJECT
 10
34.030956
 20
38.465675
 30
0.0
 40
0.1015
  0
CIRCLE
  8
OBJECT
 10
12.842956
 20
48.465675
 30
0.0
 40
0.1015
  0
CIRCLE
  8
OBJECT
 10
12.842956
 20
49.715675
 30
0.0
 40
0.1015
  0
POLYLINE
  8
OBJECT
 66
     1
 10
0.0
 20
0.0
 30
0.0
 70
     1
  0
VERTEX
  8
OBJECT
 10
13.780456
 20
48.778175
 30
0.0
  0
VERTEX
  8
OBJECT
 10
13.780456
 20
49.403175
 30
0.0
 42
1.0
  0
VERTEX
  8
OBJECT
 10
13.530456
 20
49.403175
 30
0.0
  0
VERTEX
  8
OBJECT
 10
13.530456
 20
48.778175
 30
0.0
 42
1.0
  0
SEQEND
  8
OBJECT
  0
POLYLINE
  8
OBJECT
 66
     1
 10
0.0
 20
0.0
 30
0.0
 70
     1
  0
VERTEX
  8
OBJECT
 10
12.155456
 20
48.778175
 30
0.0
  0
VERTEX
  8
OBJECT
 10
12.155456
 20
49.403175
 30
0.0
 42
1.0
  0
VERTEX
  8
OBJECT
 10
11.905456
 20
49.403175
 30
0.0
  0
VERTEX
  8
OBJECT
 10
11.905456
 20
48.778175
 30
0.0
 42
1.0
  0
SEQEND
  8
OBJECT
  0
POLYLINE
  8
OBJECT
 66
     1
 10
0.0
 20
0.0
 30
0.0
 70
     1
  0
VERTEX
  8
OBJECT
 10
33.093456
 20
48.778175
 30
0.0
  0
VERTEX
  8
OBJECT
 10
33.093456
 20
49.403175
 30
0.0
 42
-1.0
  0
VERTEX
  8
OBJECT
 10
33.343456
 20
49.403175
 30
0.0
  0
VERTEX
  8
OBJECT
 10
33.343456
 20
48.778175
 30
0.0
 42
-1.0
  0
SEQEND
  8
OBJECT
  0
POLYLINE
  8
OBJECT
 66
     1
 10
0.0
 20
0.0
 30
0.0
 70
     1
  0
VERTEX
  8
OBJECT
 10
34.718456
 20
48.778175
 30
0.0
  0
VERTEX
  8
OBJECT
 10
34.718456
 20
49.403175
 30
0.0
 42
-1.0
  0
VERTEX
  8
OBJECT
 10
34.968456
 20
49.403175
 30
0.0
  0
VERTEX
  8
OBJECT
 10
34.968456
 20
48.778175
 30
0.0
 42
-1.0
  0
SEQEND
  8
OBJECT
  0
CIRCLE
  8
OBJECT
 10
34.030956
 20
48.465675
 30
0.0
 40
0.1015
  0
CIRCLE
  8
OBJECT
 10
34.030956
 20
49.715675
 30
0.0
 40
0.1015
  0
CIRCLE
  8
OBJECT
 10
12.842956
 20
59.715675
 30
0.0
 40
0.1015
  0
CIRCLE
  8
OBJECT
 10
12.842956
 20
60.965675
 30
0.0
 40
0.1015
  0
POLYLINE
  8
OBJECT
 66
     1
 10
0.0
 20
0.0
 30
0.0
 70
     1
  0
VERTEX
  8
OBJECT
 10
13.780456
 20
60.028175
 30
0.0
  0
VERTEX
  8
OBJECT
 10
13.780456
 20
60.653175
 30
0.0
 42
1.0
  0
VERTEX
  8
OBJECT
 10
13.530456
 20
60.653175
 30
0.0
  0
VERTEX
  8
OBJECT
 10
13.530456
 20
60.028175
 30
0.0
 42
1.0
  0
SEQEND
  8
OBJECT
  0
POLYLINE
  8
OBJECT
 66
     1
 10
0.0
 20
0.0
 30
0.0
 70
     1
  0
VERTEX
  8
OBJECT
 10
12.155456
 20
60.028175
 30
0.0
  0
VERTEX
  8
OBJECT
 10
12.155456
 20
60.653175
 30
0.0
 42
1.0
  0
VERTEX
  8
OBJECT
 10
11.905456
 20
60.653175
 30
0.0
  0
VERTEX
  8
OBJECT
 10
11.905456
 20
60.028175
 30
0.0
 42
1.0
  0
SEQEND
  8
OBJECT
  0
POLYLINE
  8
OBJECT
 66
     1
 10
0.0
 20
0.0
 30
0.0
 70
     1
  0
VERTEX
  8
OBJECT
 10
33.093456
 20
60.028175
 30
0.0
  0
VERTEX
  8
OBJECT
 10
33.093456
 20
60.653175
 30
0.0
 42
-1.0
  0
VERTEX
  8
OBJECT
 10
33.343456
 20
60.653175
 30
0.0
  0
VERTEX
  8
OBJECT
 10
33.343456
 20
60.028175
 30
0.0
 42
-1.0
  0
SEQEND
  8
OBJECT
  0
POLYLINE
  8
OBJECT
 66
     1
 10
0.0
 20
0.0
 30
0.0
 70
     1
  0
VERTEX
  8
OBJECT
 10
34.718456
 20
60.028175
 30
0.0
  0
VERTEX
  8
OBJECT
 10
34.718456
 20
60.653175
 30
0.0
 42
-1.0
  0
VERTEX
  8
OBJECT
 10
34.968456
 20
60.653175
 30
0.0
  0
VERTEX
  8
OBJECT
 10
34.968456
 20
60.028175
 30
0.0
 42
-1.0
  0
SEQEND
  8
OBJECT
  0
CIRCLE
  8
OBJECT
 10
34.030956
 20
59.715675
 30
0.0
 40
0.1015
  0
CIRCLE
  8
OBJECT
 10
34.030956
 20
60.965675
 30
0.0
 40
0.1015
  0
CIRCLE
  8
OBJECT
 10
12.842956
 20
70.965675
 30
0.0
 40
0.1015
  0
CIRCLE
  8
OBJECT
 10
12.842956
 20
72.215675
 30
0.0
 40
0.1015
  0
POLYLINE
  8
OBJECT
 66
     1
 10
0.0
 20
0.0
 30
0.0
 70
     1
  0
VERTEX
  8
OBJECT
 10
13.780456
 20
71.278175
 30
0.0
  0
VERTEX
  8
OBJECT
 10
13.780456
 20
71.903175
 30
0.0
 42
1.0
  0
VERTEX
  8
OBJECT
 10
13.530456
 20
71.903175
 30
0.0
  0
VERTEX
  8
OBJECT
 10
13.530456
 20
71.278175
 30
0.0
 42
1.0
  0
SEQEND
  8
OBJECT
  0
POLYLINE
  8
OBJECT
 66
     1
 10
0.0
 20
0.0
 30
0.0
 70
     1
  0
VERTEX
  8
OBJECT
 10
12.155456
 20
71.278175
 30
0.0
  0
VERTEX
  8
OBJECT
 10
12.155456
 20
71.903175
 30
0.0
 42
1.0
  0
VERTEX
  8
OBJECT
 10
11.905456
 20
71.903175
 30
0.0
  0
VERTEX
  8
OBJECT
 10
11.905456
 20
71.278175
 30
0.0
 42
1.0
  0
SEQEND
  8
OBJECT
  0
POLYLINE
  8
OBJECT
 66
     1
 10
0.0
 20
0.0
 30
0.0
 70
     1
  0
VERTEX
  8
OBJECT
 10
33.093456
 20
71.278175
 30
0.0
  0
VERTEX
  8
OBJECT
 10
33.093456
 20
71.903175
 30
0.0
 42
-1.0
  0
VERTEX
  8
OBJECT
 10
33.343456
 20
71.903175
 30
0.0
  0
VERTEX
  8
OBJECT
 10
33.343456
 20
71.278175
 30
0.0
 42
-1.0
  0
SEQEND
  8
OBJECT
  0
POLYLINE
  8
OBJECT
 66
     1
 10
0.0
 20
0.0
 30
0.0
 70
     1
  0
VERTEX
  8
OBJECT
 10
34.718456
 20
71.278175
 30
0.0
  0
VERTEX
  8
OBJECT
 10
34.718456
 20
71.903175
 30
0.0
 42
-1.0
  0
VERTEX
  8
OBJECT
 10
34.968456
 20
71.903175
 30
0.0
  0
VERTEX
  8
OBJECT
 10
34.968456
 20
71.278175
 30
0.0
 42
-1.0
  0
SEQEND
  8
OBJECT
  0
CIRCLE
  8
OBJECT
 10
34.030956
 20
70.965675
 30
0.0
 40
0.1015
  0
CIRCLE
  8
OBJECT
 10
34.030956
 20
72.215675
 30
0.0
 40
0.1015
  0
CIRCLE
  8
OBJECT
 10
12.842956
 20
82.215675
 30
0.0
 40
0.1015
  0
CIRCLE
  8
OBJECT
 10
12.842956
 20
83.465675
 30
0.0
 40
0.1015
  0
POLYLINE
  8
OBJECT
 66
     1
 10
0.0
 20
0.0
 30
0.0
 70
     1
  0
VERTEX
  8
OBJECT
 10
13.780456
 20
82.528175
 30
0.0
  0
VERTEX
  8
OBJECT
 10
13.780456
 20
83.153175
 30
0.0
 42
1.0
  0
VERTEX
  8
OBJECT
 10
13.530456
 20
83.153175
 30
0.0
  0
VERTEX
  8
OBJECT
 10
13.530456
 20
82.528175
 30
0.0
 42
1.0
  0
SEQEND
  8
OBJECT
  0
POLYLINE
  8
OBJECT
 66
     1
 10
0.0
 20
0.0
 30
0.0
 70
     1
  0
VERTEX
  8
OBJECT
 10
12.155456
 20
82.528175
 30
0.0
  0
VERTEX
  8
OBJECT
 10
12.155456
 20
83.153175
 30
0.0
 42
1.0
  0
VERTEX
  8
OBJECT
 10
11.905456
 20
83.153175
 30
0.0
  0
VERTEX
  8
OBJECT
 10
11.905456
 20
82.528175
 30
0.0
 42
1.0
  0
SEQEND
  8
OBJECT
  0
POLYLINE
  8
OBJECT
 66
     1
 10
0.0
 20
0.0
 30
0.0
 70
     1
  0
VERTEX
  8
OBJECT
 10
33.093456
 20
82.528175
 30
0.0
  0
VERTEX
  8
OBJECT
 10
33.093456
 20
83.153175
 30
0.0
 42
-1.0
  0
VERTEX
  8
OBJECT
 10
33.343456
 20
83.153175
 30
0.0
  0
VERTEX
  8
OBJECT
 10
33.343456
 20
82.528175
 30
0.0
 42
-1.0
  0
SEQEND
  8
OBJECT
  0
POLYLINE
  8
OBJECT
 66
     1
 10
0.0
 20
0.0
 30
0.0
 70
     1
  0
VERTEX
  8
OBJECT
 10
34.718456
 20
82.528175
 30
0.0
  0
VERTEX
  8
OBJECT
 10
34.718456
 20
83.153175
 30
0.0
 42
-1.0
  0
VERTEX
  8
OBJECT
 10
34.968456
 20
83.153175
 30
0.0
  0
VERTEX
  8
OBJECT
 10
34.968456
 20
82.528175
 30
0.0
 42
-1.0
  0
SEQEND
  8
OBJECT
  0
CIRCLE
  8
OBJECT
 10
34.030956
 20
82.215675
 30
0.0
 40
0.1015
  0
CIRCLE
  8
OBJECT
 10
34.030956
 20
83.465675
 30
0.0
 40
0.1015
  0
POLYLINE
  8
BASE
 66
     1
 10
0.0
 20
0.0
 30
0.0
 70
     1
  0
VERTEX
  8
BASE
 10
55.852938
 20
16.183675
 30
0.0
  0
VERTEX
  8
BASE
 10
55.852938
 20
13.465675
 30
0.0
 42
-0.414214
  0
VERTEX
  8
BASE
 10
55.352938
 20
12.965675
 30
0.0
  0
VERTEX
  8
BASE
 10
51.102938
 20
12.965675
 30
0.0
  0
VERTEX
  8
BASE
 10
51.102938
 20
12.715675
 30
0.0
  0
VERTEX
  8
BASE
 10
55.352938
 20
12.715675
 30
0.0
 42
0.414214
  0
VERTEX
  8
BASE
 10
56.102938
 20
13.465675
 30
0.0
  0
VERTEX
  8
BASE
 10
56.102938
 20
16.183675
 30
0.0
  0
SEQEND
  8
BASE
  0
POLYLINE
  8
BASE
 66
     1
 10
0.0
 20
0.0
 30
0.0
 70
     1
  0
VERTEX
  8
BASE
 10
63.352938
 20
12.715675
 30
0.0
  0
VERTEX
  8
BASE
 10
67.602938
 20
12.715675
 30
0.0
  0
VERTEX
  8
BASE
 10
67.602938
 20
12.965675
 30
0.0
  0
VERTEX
  8
BASE
 10
63.352938
 20
12.965675
 30
0.0
 42
-0.414214
  0
VERTEX
  8
BASE
 10
62.852938
 20
13.465675
 30
0.0
  0
VERTEX
  8
BASE
 10
62.852938
 20
16.183675
 30
0.0
  0
VERTEX
  8
BASE
 10
62.602938
 20
16.183675
 30
0.0
  0
VERTEX
  8
BASE
 10
62.602938
 20
13.465675
 30
0.0
 42
0.414214
  0
SEQEND
  8
BASE
  0
CIRCLE
  8
BASE
 10
13.686956
 20
127.016997
 30
0.0
 40
0.375
  0
CIRCLE
  8
BASE
 10
13.686956
 20
113.016997
 30
0.0
 40
0.375
  0
CIRCLE
  8
BASE
 10
33.186956
 20
127.016997
 30
0.0
 40
0.375
  0
CIRCLE
  8
BASE
 10
33.186956
 20
113.016997
 30
0.0
 40
0.375
  0
INSERT
  8
OBJECT
  2
HB
 10
0.0
 20
0.0
 30
0.0
 41
9.0
 42
9.0
 43
9.0
  0
TEXT
  8
TEXT
 10
48.817273
 20
130.074509
 30
0.0
 40
1.125
  1
%%UMATERIAL:
 41
0.75
  7
TXT
  0
TEXT
  8
TEXT
 10
49.898346
 20
128.199509
 30
0.0
 40
1.125
  1
BASE ANGLES
 41
0.75
  7
TXT
  0
TEXT
  8
TEXT
 10
49.898346
 20
126.324509
 30
0.0
 40
1.125
  1
UPRIGHTS, TOP ANGLES
 41
0.75
  7
TXT
  0
TEXT
  8
TEXT
 10
49.898346
 20
124.449509
 30
0.0
 40
1.125
  1
AND SUPPORT BARS
 41
0.75
  7
TXT
  0
TEXT
  8
TEXT
 10
49.898346
 20
122.574509
 30
0.0
 40
1.125
  1
CABLE CLIP BRACKETS
 41
0.75
  7
TXT
  0
TEXT
  8
TEXT
 10
48.817273
 20
119.875067
 30
0.0
 40
1.125
  1
%%UFINISH:
 41
0.75
  7
TXT
  0
TEXT
  8
TEXT
 10
49.898346
 20
118.000067
 30
0.0
 40
1.125
  1
ALL PARTS (EXC CABLE CLIPS)
 41
0.75
  7
TXT
  0
TEXT
  8
TEXT
 10
49.898346
 20
116.125067
 30
0.0
 40
1.125
  1
CABLE CLIP BRACKETS
 41
0.75
  7
TXT
  0
TEXT
  8
TEXT
 10
74.870015
 20
128.156635
 30
0.0
 40
1.125
  1
1/4 THK. ALUMINUM
 41
0.75
  7
TXT
 72
     2
 11
87.807515
 21
128.156635
 31
0.0
  0
TEXT
  8
TEXT
 10
74.870015
 20
124.406635
 30
0.0
 40
1.125
  1
1/8 THK. ALUMINUM
 41
0.75
  7
TXT
 72
     2
 11
87.807515
 21
124.406635
 31
0.0
  0
TEXT
  8
TEXT
 10
73.182515
 20
122.531635
 30
0.0
 40
1.125
  1
16 GA. SPRING STEEL
 41
0.75
  7
TXT
 72
     2
 11
87.807515
 21
122.531635
 31
0.0
  0
TEXT
  8
TEXT
 10
77.120015
 20
117.903568
 30
0.0
 40
1.125
  1
BLACK TEXTURE
 41
0.75
  7
TXT
 72
     2
 11
87.807515
 21
117.903568
 31
0.0
  0
TEXT
  8
TEXT
 10
77.963765
 20
116.028568
 30
0.0
 40
1.125
  1
SMOOTH BLACK
 41
0.75
  7
TXT
 72
     2
 11
87.807515
 21
116.028568
 31
0.0
  0
LINE
  8
TEXT
 10
59.294232
 20
128.224179
 30
0.0
 11
74.361678
 21
128.224179
 31
0.0
  0
LINE
  8
TEXT
 10
64.834728
 20
124.441735
 30
0.0
 11
74.429245
 21
124.441735
 31
0.0
  0
LINE
  8
TEXT
 10
65.780666
 20
122.550513
 30
0.0
 11
72.672502
 21
122.550513
 31
0.0
  0
LINE
  8
TEXT
 10
71.929265
 20
118.025089
 30
0.0
 11
76.794091
 21
118.025089
 31
0.0
  0
LINE
  8
TEXT
 10
65.9158
 20
116.066324
 30
0.0
 11
77.537328
 21
116.066324
 31
0.0
  0
POLYLINE
  8
DIM
 66
     1
 10
0.0
 20
0.0
 30
0.0
 41
0.6075
  0
VERTEX
  8
DIM
 10
13.818779
 20
127.314171
 30
0.0
  0
VERTEX
  8
DIM
 10
14.579456
 20
128.744475
 30
0.0
 41
0.0
  0
VERTEX
  8
DIM
 10
16.417259
 20
132.200099
 30
0.0
 41
0.0
  0
VERTEX
  8
DIM
 10
18.037259
 20
132.200099
 30
0.0
 41
0.0
  0
SEQEND
  8
DIM
  0
TEXT
  8
DIM
 10
18.847259
 20
131.637599
 30
0.0
 40
1.125
  1
0.750 DIA.
 41
0.75
  7
TXT
 11
18.847259
 21
132.200099
 31
0.0
 73
     2
  0
TEXT
  8
DIM
 10
18.847259
 20
129.762599
 30
0.0
 40
1.125
  1
(4) HOLES
 41
0.75
  7
TXT
 11
18.847259
 21
130.325099
 31
0.0
 73
     2
  0
TEXT
  8
TEXT
 10
64.984245
 20
78.007312
 30
0.0
 40
1.125
  1
UPRIGHTS ARE TAPPED #12-24 ON
 41
0.75
  7
TXT
  0
TEXT
  8
TEXT
 10
66.493895
 20
76.132312
 30
0.0
 40
1.125
  1
E.I.A. UNIVERSAL SPACING
 41
0.75
  7
TXT
  0
TEXT
  8
TEXT
 10
64.984245
 20
81.919037
 30
0.0
 40
1.125
  1
UNIT SHIPPED KNOCKED DOWN
 41
0.75
  7
TXT
  0
TEXT
  8
TEXT
 10
64.984245
 20
72.382312
 30
0.0
 40
1.125
  1
THIS UNIT SUPPLIED WITH:
 41
0.75
  7
TXT
  0
TEXT
  8
TEXT
 10
66.493895
 20
70.507312
 30
0.0
 40
1.125
  1
TWELVE (12) CABLE CLIP BRKTS.
 41
0.75
  7
TXT
  0
TEXT
  8
TEXT
 10
66.493895
 20
68.632312
 30
0.0
 40
1.125
  1
TWELVE (12) VELCRO STRAPS
 41
0.75
  7
TXT
  0
TEXT
  8
TEXT
 10
15.222104
 20
136.309987
 30
0.0
 40
1.438
  1
CABLE MANAGEMENT RACK
 41
0.75
  7
TXT
 72
     1
 11
26.366604
 21
136.309987
 31
0.0
  0
TEXT
  8
TEXT
 10
66.434639
 20
136.309987
 30
0.0
 40
1.688
  1
CMR-8040
 41
0.75
  7
TXT
 72
     1
 11
71.076639
 21
136.309987
 31
0.0
  0
ENDSEC
  0
EOF
