  0
SECTION
  2
HEADER
  9
$ACADVER
  1
AC1009
  9
$INSBASE
 10
0.0
 20
0.0
 30
0.0
  9
$EXTMIN
 10
0.0
 20
0.0
 30
0.0
  9
$EXTMAX
 10
141.68
 20
217.0
 30
0.0
  9
$LIMMIN
 10
0.0
 20
0.0
  9
$LIMMAX
 10
141.68
 20
217.0
  9
$ORTHOMODE
 70
     1
  9
$REGENMODE
 70
     1
  9
$FILLMODE
 70
     1
  9
$QTEXTMODE
 70
     0
  9
$MIRRTEXT
 70
     0
  9
$DRAGMODE
 70
     2
  9
$LTSCALE
 40
4.0
  9
$OSMODE
 70
     0
  9
$ATTMODE
 70
     1
  9
$TEXTSIZE
 40
1.75
  9
$TRACEWID
 40
0.05
  9
$TEXTSTYLE
  7
TXT
  9
$CLAYER
  8
OBJECT
  9
$CELTYPE
  6
BYLAYER
  9
$CECOLOR
 62
   256
  9
$DIMSCALE
 40
14.0
  9
$DIMASZ
 40
0.18
  9
$DIMEXO
 40
0.063
  9
$DIMDLI
 40
0.25
  9
$DIMRND
 40
0.0
  9
$DIMDLE
 40
0.0
  9
$DIMEXE
 40
0.093
  9
$DIMTP
 40
0.0
  9
$DIMTM
 40
0.0
  9
$DIMTXT
 40
0.125
  9
$DIMCEN
 40
0.09
  9
$DIMTSZ
 40
0.0
  9
$DIMTOL
 70
     0
  9
$DIMLIM
 70
     0
  9
$DIMTIH
 70
     1
  9
$DIMTOH
 70
     1
  9
$DIMSE1
 70
     0
  9
$DIMSE2
 70
     0
  9
$DIMTAD
 70
     0
  9
$DIMZIN
 70
     0
  9
$DIMBLK
  1

  9
$DIMASO
 70
     1
  9
$DIMSHO
 70
     1
  9
$DIMPOST
  1

  9
$DIMAPOST
  1

  9
$DIMALT
 70
     0
  9
$DIMALTD
 70
     2
  9
$DIMALTF
 40
25.4
  9
$DIMLFAC
 40
1.0
  9
$DIMTOFL
 70
     0
  9
$DIMTVP
 40
0.0
  9
$DIMTIX
 70
     0
  9
$DIMSOXD
 70
     0
  9
$DIMSAH
 70
     0
  9
$DIMBLK1
  1

  9
$DIMBLK2
  1

  9
$DIMSTYLE
  2
23NSTD
  9
$DIMCLRD
 70
     0
  9
$DIMCLRE
 70
     0
  9
$DIMCLRT
 70
     0
  9
$DIMTFAC
 40
1.0
  9
$DIMGAP
 40
0.09
  9
$LUNITS
 70
     2
  9
$LUPREC
 70
     3
  9
$SKETCHINC
 40
0.1
  9
$FILLETRAD
 40
0.0
  9
$AUNITS
 70
     0
  9
$AUPREC
 70
     0
  9
$MENU
  1
acad
  9
$ELEVATION
 40
0.0
  9
$PELEVATION
 40
0.0
  9
$THICKNESS
 40
0.0
  9
$LIMCHECK
 70
     0
  9
$BLIPMODE
 70
     1
  9
$CHAMFERA
 40
0.0
  9
$CHAMFERB
 40
0.0
  9
$SKPOLY
 70
     0
  9
$TDCREATE
 40
2450422.395932060
  9
$TDUPDATE
 40
2451344.352828241
  9
$TDINDWG
 40
0.2456295139
  9
$TDUSRTIMER
 40
0.2456295139
  9
$USRTIMER
 70
     1
  9
$ANGBASE
 50
0.0
  9
$ANGDIR
 70
     0
  9
$PDMODE
 70
     0
  9
$PDSIZE
 40
0.0
  9
$PLINEWID
 40
0.0
  9
$COORDS
 70
     0
  9
$SPLFRAME
 70
     0
  9
$SPLINETYPE
 70
     6
  9
$SPLINESEGS
 70
     8
  9
$ATTDIA
 70
     0
  9
$ATTREQ
 70
     1
  9
$HANDLING
 70
     0
  9
$HANDSEED
  5
0
  9
$SURFTAB1
 70
     6
  9
$SURFTAB2
 70
     6
  9
$SURFTYPE
 70
     6
  9
$SURFU
 70
     6
  9
$SURFV
 70
     6
  9
$UCSNAME
  2

  9
$UCSORG
 10
0.0
 20
0.0
 30
0.0
  9
$UCSXDIR
 10
1.0
 20
0.0
 30
0.0
  9
$UCSYDIR
 10
0.0
 20
1.0
 30
0.0
  9
$PUCSNAME
  2

  9
$PUCSORG
 10
0.0
 20
0.0
 30
0.0
  9
$PUCSXDIR
 10
1.0
 20
0.0
 30
0.0
  9
$PUCSYDIR
 10
0.0
 20
1.0
 30
0.0
  9
$USERI1
 70
     0
  9
$USERI2
 70
     0
  9
$USERI3
 70
     0
  9
$USERI4
 70
     0
  9
$USERI5
 70
     0
  9
$USERR1
 40
0.0
  9
$USERR2
 40
0.0
  9
$USERR3
 40
0.0
  9
$USERR4
 40
0.0
  9
$USERR5
 40
0.0
  9
$WORLDVIEW
 70
     1
  9
$SHADEDGE
 70
     3
  9
$SHADEDIF
 70
    70
  9
$TILEMODE
 70
     1
  9
$MAXACTVP
 70
    16
  9
$PINSBASE
 10
0.0
 20
0.0
 30
0.0
  9
$PLIMCHECK
 70
     0
  9
$PEXTMIN
 10
1.000000E+20
 20
1.000000E+20
 30
1.000000E+20
  9
$PEXTMAX
 10
-1.000000E+20
 20
-1.000000E+20
 30
-1.000000E+20
  9
$PLIMMIN
 10
0.0
 20
0.0
  9
$PLIMMAX
 10
12.0
 20
9.0
  9
$UNITMODE
 70
     0
  9
$VISRETAIN
 70
     0
  9
$PLINEGEN
 70
     0
  9
$PSLTSCALE
 70
     1
  9
$TREEDEPTH
 70
  3020
  9
$DWGCODEPAGE
  3
ascii
  0
ENDSEC
  0
SECTION
  2
TABLES
  0
TABLE
  2
VPORT
 70
     2
  0
VPORT
  2
*ACTIVE
 70
     0
 10
0.0
 20
0.0
 11
1.0
 21
1.0
 12
147.813837
 22
108.5
 13
0.0
 23
0.0
 14
1.0
 24
1.0
 15
2.0
 25
2.0
 16
0.0
 26
0.0
 36
1.0
 17
0.0
 27
0.0
 37
0.0
 40
217.0
 41
1.36234
 42
50.0
 43
0.0
 44
0.0
 50
0.0
 51
0.0
 71
     0
 72
   500
 73
     1
 74
     0
 75
     0
 76
     0
 77
     0
 78
     0
  0
ENDTAB
  0
TABLE
  2
LTYPE
 70
     7
  0
LTYPE
  2
CONTINUOUS
 70
    64
  3
Solid line
 72
    65
 73
     0
 40
0.0
  0
LTYPE
  2
HIDDEN
 70
    64
  3
_ _ _ _ _ _ _ _ _ _ _ _ _ _ _ _ _ _ _ _ _ _ _
 72
    65
 73
     2
 40
0.375
 49
0.25
 49
-0.125
  0
LTYPE
  2
PHANTOM
 70
    64
  3
_____ _ _ _____ _ _ _____ _ _ _____ _ _ ____
 72
    65
 73
     6
 40
2.5
 49
1.25
 49
-0.25
 49
0.25
 49
-0.25
 49
0.25
 49
-0.25
  0
LTYPE
  2
CENTER
 70
    64
  3
____ _ ____ _ ____ _ ____ _ ____ _ ____ _ ____
 72
    65
 73
     4
 40
2.0
 49
1.25
 49
-0.25
 49
0.25
 49
-0.25
  0
LTYPE
  2
HIDDEN2
 70
    64
  3
_ _ _ _ _ _ _ _ _ _ _ _ _ _ _ _ _ _ _ _ _ _ _ _
 72
    65
 73
     2
 40
0.1875
 49
0.125
 49
-0.0625
  0
LTYPE
  2
PHANTOM2
 70
     0
  3
___ _ _ ___ _ _ ___ _ _ ___ _ _ ___ _ _ ___ _ _
 72
    65
 73
     6
 40
1.25
 49
0.625
 49
-0.125
 49
0.125
 49
-0.125
 49
0.125
 49
-0.125
  0
LTYPE
  2
CENTER2
 70
     0
  3
___ _ ___ _ ___ _ ___ _ ___ _ ___ _ ___ _ ___ _
 72
    65
 73
     4
 40
1.125
 49
0.75
 49
-0.125
 49
0.125
 49
-0.125
  0
ENDTAB
  0
TABLE
  2
LAYER
 70
    13
  0
LAYER
  2
0
 70
    64
 62
     7
  6
CONTINUOUS
  0
LAYER
  2
OBJECT
 70
    64
 62
     7
  6
CONTINUOUS
  0
LAYER
  2
DIM
 70
    64
 62
     7
  6
CONTINUOUS
  0
LAYER
  2
HIDDEN
 70
    64
 62
     7
  6
HIDDEN
  0
LAYER
  2
BEND
 70
    64
 62
     7
  6
PHANTOM
  0
LAYER
  2
TEXT
 70
    64
 62
     7
  6
CONTINUOUS
  0
LAYER
  2
TITLE
 70
    64
 62
     7
  6
CONTINUOUS
  0
LAYER
  2
CENTER
 70
    64
 62
     7
  6
CENTER
  0
LAYER
  2
DEFPOINTS
 70
    64
 62
     7
  6
CONTINUOUS
  0
LAYER
  2
PMR
 70
    64
 62
     7
  6
CONTINUOUS
  0
LAYER
  2
CMP
 70
    64
 62
     7
  6
CONTINUOUS
  0
LAYER
  2
PLEXIGLASS
 70
    64
 62
     7
  6
CONTINUOUS
  0
LAYER
  2
DOOR
 70
    64
 62
     7
  6
CONTINUOUS
  0
ENDTAB
  0
TABLE
  2
STYLE
 70
     2
  0
STYLE
  2
STANDARD
 70
    64
 40
0.0
 41
1.0
 50
0.0
 71
     0
 42
0.2
  3
txt
  4

  0
STYLE
  2
TXT
 70
    64
 40
0.0
 41
0.75
 50
0.0
 71
     0
 42
1.75
  3
TXT.shx
  4

  0
ENDTAB
  0
TABLE
  2
VIEW
 70
     0
  0
ENDTAB
  0
TABLE
  2
UCS
 70
     0
  0
ENDTAB
  0
TABLE
  2
APPID
 70
     1
  0
APPID
  2
ACAD
 70
    64
  0
ENDTAB
  0
TABLE
  2
DIMSTYLE
 70
     2
  0
DIMSTYLE
  2
23NSTD
 70
    64
  3

  4

  5

  6

  7

 40
14.0
 41
0.18
 42
0.063
 43
0.25
 44
0.093
 45
0.0
 46
0.0
 47
0.0
 48
0.0
140
0.125
141
0.09
142
0.0
143
25.4
144
1.0
145
0.0
146
1.0
147
0.09
 71
     0
 72
     0
 73
     1
 74
     1
 75
     0
 76
     0
 77
     0
 78
     0
170
     0
171
     2
172
     0
173
     0
174
     0
175
     0
176
     0
177
     0
178
     0
  0
DIMSTYLE
  2
23NSTDI
 70
    64
  3

  4

  5

  6

  7

 40
14.0
 41
0.18
 42
0.063
 43
0.25
 44
0.093
 45
0.0
 46
0.0
 47
0.0
 48
0.0
140
0.125
141
0.09
142
0.0
143
25.4
144
1.0
145
0.0
146
1.0
147
0.09
 71
     0
 72
     0
 73
     1
 74
     1
 75
     0
 76
     0
 77
     0
 78
     0
170
     0
171
     2
172
     0
173
     0
174
     1
175
     0
176
     0
177
     0
178
     0
  0
ENDTAB
  0
ENDSEC
  0
SECTION
  2
BLOCKS
  0
BLOCK
  8
0
  2
L15
 70
    64
 10
0.0
 20
0.0
 30
0.0
  3
L15
  0
LINE
  8
0
 10
-2.1875
 20
-0.625
 30
0.0
 11
2.1875
 21
-0.625
 31
0.0
  0
ARC
  8
0
 10
1.6875
 20
-0.5
 30
0.0
 40
0.5
 50
0.0
 51
90.0
  0
ARC
  8
0
 10
1.6875
 20
-1.5
 30
0.0
 40
0.5
 50
0.0
 51
90.0
  0
LINE
  8
0
 10
-2.1875
 20
-1.625
 30
0.0
 11
2.1875
 21
-1.625
 31
0.0
  0
ARC
  8
0
 10
1.6875
 20
-2.5
 30
0.0
 40
0.5
 50
0.0
 51
90.0
  0
LINE
  8
0
 10
-2.1875
 20
-2.625
 30
0.0
 11
2.1875
 21
-2.625
 31
0.0
  0
ARC
  8
0
 10
1.6875
 20
-3.5
 30
0.0
 40
0.5
 50
0.0
 51
90.0
  0
LINE
  8
0
 10
-2.1875
 20
-3.625
 30
0.0
 11
2.1875
 21
-3.625
 31
0.0
  0
ARC
  8
0
 10
1.6875
 20
-4.5
 30
0.0
 40
0.5
 50
0.0
 51
90.0
  0
LINE
  8
0
 10
-2.1875
 20
-4.625
 30
0.0
 11
2.1875
 21
-4.625
 31
0.0
  0
LINE
  8
0
 10
-2.1875
 20
-9.625
 30
0.0
 11
2.1875
 21
-9.625
 31
0.0
  0
ARC
  8
0
 10
1.6875
 20
-9.5
 30
0.0
 40
0.5
 50
0.0
 51
90.0
  0
LINE
  8
0
 10
-2.1875
 20
-8.625
 30
0.0
 11
2.1875
 21
-8.625
 31
0.0
  0
ARC
  8
0
 10
1.6875
 20
-8.5
 30
0.0
 40
0.5
 50
0.0
 51
90.0
  0
LINE
  8
0
 10
-2.1875
 20
-7.625
 30
0.0
 11
2.1875
 21
-7.625
 31
0.0
  0
ARC
  8
0
 10
1.6875
 20
-7.5
 30
0.0
 40
0.5
 50
0.0
 51
90.0
  0
LINE
  8
0
 10
-2.1875
 20
-6.625
 30
0.0
 11
2.1875
 21
-6.625
 31
0.0
  0
ARC
  8
0
 10
1.6875
 20
-6.5
 30
0.0
 40
0.5
 50
0.0
 51
90.0
  0
ARC
  8
0
 10
1.6875
 20
-5.5
 30
0.0
 40
0.5
 50
0.0
 51
90.0
  0
LINE
  8
0
 10
-2.1875
 20
-5.625
 30
0.0
 11
2.1875
 21
-5.625
 31
0.0
  0
LINE
  8
0
 10
-2.1875
 20
-14.625
 30
0.0
 11
2.1875
 21
-14.625
 31
0.0
  0
ARC
  8
0
 10
1.6875
 20
-14.5
 30
0.0
 40
0.5
 50
0.0
 51
90.0
  0
LINE
  8
0
 10
-2.1875
 20
-13.625
 30
0.0
 11
2.1875
 21
-13.625
 31
0.0
  0
ARC
  8
0
 10
1.6875
 20
-13.5
 30
0.0
 40
0.5
 50
0.0
 51
90.0
  0
LINE
  8
0
 10
-2.1875
 20
-12.625
 30
0.0
 11
2.1875
 21
-12.625
 31
0.0
  0
ARC
  8
0
 10
1.6875
 20
-12.5
 30
0.0
 40
0.5
 50
0.0
 51
90.0
  0
LINE
  8
0
 10
-2.1875
 20
-11.625
 30
0.0
 11
2.1875
 21
-11.625
 31
0.0
  0
ARC
  8
0
 10
1.6875
 20
-11.5
 30
0.0
 40
0.5
 50
0.0
 51
90.0
  0
ARC
  8
0
 10
1.6875
 20
-10.5
 30
0.0
 40
0.5
 50
0.0
 51
90.0
  0
LINE
  8
0
 10
-2.1875
 20
-10.625
 30
0.0
 11
2.1875
 21
-10.625
 31
0.0
  0
ARC
  8
0
 10
-1.6875
 20
-8.5
 30
0.0
 40
0.5
 50
90.0
 51
180.0
  0
LINE
  8
0
 10
1.6875
 20
-9.0
 30
0.0
 11
-1.6875
 21
-9.0
 31
0.0
  0
LINE
  8
0
 10
1.6875
 20
-14.0
 30
0.0
 11
-1.6875
 21
-14.0
 31
0.0
  0
LINE
  8
0
 10
1.6875
 20
-13.0
 30
0.0
 11
-1.6875
 21
-13.0
 31
0.0
  0
LINE
  8
0
 10
1.6875
 20
-12.0
 30
0.0
 11
-1.6875
 21
-12.0
 31
0.0
  0
LINE
  8
0
 10
1.6875
 20
-11.0
 30
0.0
 11
-1.6875
 21
-11.0
 31
0.0
  0
LINE
  8
0
 10
1.6875
 20
-10.0
 30
0.0
 11
-1.6875
 21
-10.0
 31
0.0
  0
ARC
  8
0
 10
-1.6875
 20
-12.5
 30
0.0
 40
0.5
 50
90.0
 51
180.0
  0
ARC
  8
0
 10
-1.6875
 20
-14.5
 30
0.0
 40
0.5
 50
90.0
 51
180.0
  0
ARC
  8
0
 10
-1.6875
 20
-13.5
 30
0.0
 40
0.5
 50
90.0
 51
180.0
  0
LINE
  8
0
 10
-2.1875
 20
-14.5
 30
0.0
 11
-2.1875
 21
-14.625
 31
0.0
  0
LINE
  8
0
 10
-2.1875
 20
-13.5
 30
0.0
 11
-2.1875
 21
-13.625
 31
0.0
  0
LINE
  8
0
 10
-2.1875
 20
-12.5
 30
0.0
 11
-2.1875
 21
-12.625
 31
0.0
  0
ARC
  8
0
 10
-1.6875
 20
-9.5
 30
0.0
 40
0.5
 50
90.0
 51
180.0
  0
ARC
  8
0
 10
-1.6875
 20
-11.5
 30
0.0
 40
0.5
 50
90.0
 51
180.0
  0
ARC
  8
0
 10
-1.6875
 20
-10.5
 30
0.0
 40
0.5
 50
90.0
 51
180.0
  0
LINE
  8
0
 10
-2.1875
 20
-9.5
 30
0.0
 11
-2.1875
 21
-9.625
 31
0.0
  0
LINE
  8
0
 10
-2.1875
 20
-8.5
 30
0.0
 11
-2.1875
 21
-8.625
 31
0.0
  0
LINE
  8
0
 10
-2.1875
 20
-11.5
 30
0.0
 11
-2.1875
 21
-11.625
 31
0.0
  0
LINE
  8
0
 10
-2.1875
 20
-10.5
 30
0.0
 11
-2.1875
 21
-10.625
 31
0.0
  0
LINE
  8
0
 10
1.6875
 20
0.0
 30
0.0
 11
-1.6875
 21
0.0
 31
0.0
  0
LINE
  8
0
 10
1.6875
 20
-1.0
 30
0.0
 11
-1.6875
 21
-1.0
 31
0.0
  0
LINE
  8
0
 10
1.6875
 20
-2.0
 30
0.0
 11
-1.6875
 21
-2.0
 31
0.0
  0
LINE
  8
0
 10
1.6875
 20
-3.0
 30
0.0
 11
-1.6875
 21
-3.0
 31
0.0
  0
LINE
  8
0
 10
1.6875
 20
-4.0
 30
0.0
 11
-1.6875
 21
-4.0
 31
0.0
  0
LINE
  8
0
 10
1.6875
 20
-8.0
 30
0.0
 11
-1.6875
 21
-8.0
 31
0.0
  0
LINE
  8
0
 10
1.6875
 20
-7.0
 30
0.0
 11
-1.6875
 21
-7.0
 31
0.0
  0
LINE
  8
0
 10
1.6875
 20
-6.0
 30
0.0
 11
-1.6875
 21
-6.0
 31
0.0
  0
LINE
  8
0
 10
1.6875
 20
-5.0
 30
0.0
 11
-1.6875
 21
-5.0
 31
0.0
  0
ARC
  8
0
 10
-1.6875
 20
-4.5
 30
0.0
 40
0.5
 50
90.0
 51
180.0
  0
ARC
  8
0
 10
-1.6875
 20
-7.5
 30
0.0
 40
0.5
 50
90.0
 51
180.0
  0
ARC
  8
0
 10
-1.6875
 20
-6.5
 30
0.0
 40
0.5
 50
90.0
 51
180.0
  0
ARC
  8
0
 10
-1.6875
 20
-5.5
 30
0.0
 40
0.5
 50
90.0
 51
180.0
  0
LINE
  8
0
 10
-2.1875
 20
-4.5
 30
0.0
 11
-2.1875
 21
-4.625
 31
0.0
  0
LINE
  8
0
 10
-2.1875
 20
-7.5
 30
0.0
 11
-2.1875
 21
-7.625
 31
0.0
  0
LINE
  8
0
 10
-2.1875
 20
-6.5
 30
0.0
 11
-2.1875
 21
-6.625
 31
0.0
  0
LINE
  8
0
 10
-2.1875
 20
-5.5
 30
0.0
 11
-2.1875
 21
-5.625
 31
0.0
  0
ARC
  8
0
 10
-1.6875
 20
-0.5
 30
0.0
 40
0.5
 50
90.0
 51
180.0
  0
ARC
  8
0
 10
-1.6875
 20
-1.5
 30
0.0
 40
0.5
 50
90.0
 51
180.0
  0
ARC
  8
0
 10
-1.6875
 20
-2.5
 30
0.0
 40
0.5
 50
90.0
 51
180.0
  0
ARC
  8
0
 10
-1.6875
 20
-3.5
 30
0.0
 40
0.5
 50
90.0
 51
180.0
  0
LINE
  8
0
 10
-2.1875
 20
-0.5
 30
0.0
 11
-2.1875
 21
-0.625
 31
0.0
  0
LINE
  8
0
 10
-2.1875
 20
-1.5
 30
0.0
 11
-2.1875
 21
-1.625
 31
0.0
  0
LINE
  8
0
 10
-2.1875
 20
-2.5
 30
0.0
 11
-2.1875
 21
-2.625
 31
0.0
  0
LINE
  8
0
 10
-2.1875
 20
-3.5
 30
0.0
 11
-2.1875
 21
-3.625
 31
0.0
  0
LINE
  8
0
 10
2.1875
 20
-14.625
 30
0.0
 11
2.1875
 21
-14.5
 31
0.0
  0
LINE
  8
0
 10
2.1875
 20
-13.625
 30
0.0
 11
2.1875
 21
-13.5
 31
0.0
  0
LINE
  8
0
 10
2.1875
 20
-12.625
 30
0.0
 11
2.1875
 21
-12.5
 31
0.0
  0
LINE
  8
0
 10
2.1875
 20
-9.625
 30
0.0
 11
2.1875
 21
-9.5
 31
0.0
  0
LINE
  8
0
 10
2.1875
 20
-8.625
 30
0.0
 11
2.1875
 21
-8.5
 31
0.0
  0
LINE
  8
0
 10
2.1875
 20
-11.625
 30
0.0
 11
2.1875
 21
-11.5
 31
0.0
  0
LINE
  8
0
 10
2.1875
 20
-10.625
 30
0.0
 11
2.1875
 21
-10.5
 31
0.0
  0
LINE
  8
0
 10
2.1875
 20
-4.625
 30
0.0
 11
2.1875
 21
-4.5
 31
0.0
  0
LINE
  8
0
 10
2.1875
 20
-7.625
 30
0.0
 11
2.1875
 21
-7.5
 31
0.0
  0
LINE
  8
0
 10
2.1875
 20
-6.625
 30
0.0
 11
2.1875
 21
-6.5
 31
0.0
  0
LINE
  8
0
 10
2.1875
 20
-5.625
 30
0.0
 11
2.1875
 21
-5.5
 31
0.0
  0
LINE
  8
0
 10
2.1875
 20
-0.625
 30
0.0
 11
2.1875
 21
-0.5
 31
0.0
  0
LINE
  8
0
 10
2.1875
 20
-1.625
 30
0.0
 11
2.1875
 21
-1.5
 31
0.0
  0
LINE
  8
0
 10
2.1875
 20
-2.625
 30
0.0
 11
2.1875
 21
-2.5
 31
0.0
  0
LINE
  8
0
 10
2.1875
 20
-3.625
 30
0.0
 11
2.1875
 21
-3.5
 31
0.0
  0
ENDBLK
  8
0
  0
BLOCK
  8
0
  2
L15S
 70
    64
 10
0.0
 20
0.0
 30
0.0
  3
L15S
  0
ARC
  8
0
 10
11.5625
 20
0.344801
 30
0.0
 40
0.659768
 50
211.507467
 51
275.435793
  0
ARC
  8
0
 10
0.5625
 20
0.344801
 30
0.0
 40
0.659768
 50
211.507467
 51
275.435793
  0
ARC
  8
0
 10
5.5625
 20
0.344801
 30
0.0
 40
0.659768
 50
211.507467
 51
275.435793
  0
ARC
  8
0
 10
1.5625
 20
0.344801
 30
0.0
 40
0.659768
 50
211.507467
 51
275.435793
  0
LINE
  8
0
 10
0.625
 20
-0.312
 30
0.0
 11
0.625
 21
0.0
 31
0.0
  0
LINE
  8
0
 10
1.625
 20
-0.312
 30
0.0
 11
1.625
 21
0.0
 31
0.0
  0
ARC
  8
0
 10
2.5625
 20
0.344801
 30
0.0
 40
0.659768
 50
211.507467
 51
275.435793
  0
LINE
  8
0
 10
2.625
 20
-0.312
 30
0.0
 11
2.625
 21
0.0
 31
0.0
  0
ARC
  8
0
 10
4.5625
 20
0.344801
 30
0.0
 40
0.659768
 50
211.507467
 51
275.435793
  0
ARC
  8
0
 10
3.5625
 20
0.344801
 30
0.0
 40
0.659768
 50
211.507467
 51
275.435793
  0
LINE
  8
0
 10
3.625
 20
-0.312
 30
0.0
 11
3.625
 21
0.0
 31
0.0
  0
LINE
  8
0
 10
4.625
 20
-0.312
 30
0.0
 11
4.625
 21
0.0
 31
0.0
  0
ARC
  8
0
 10
8.5625
 20
0.344801
 30
0.0
 40
0.659768
 50
211.507467
 51
275.435793
  0
LINE
  8
0
 10
5.625
 20
-0.312
 30
0.0
 11
5.625
 21
0.0
 31
0.0
  0
ARC
  8
0
 10
6.5625
 20
0.344801
 30
0.0
 40
0.659768
 50
211.507467
 51
275.435793
  0
LINE
  8
0
 10
6.625
 20
-0.312
 30
0.0
 11
6.625
 21
0.0
 31
0.0
  0
LINE
  8
0
 10
7.625
 20
-0.312
 30
0.0
 11
7.625
 21
0.0
 31
0.0
  0
ARC
  8
0
 10
7.5625
 20
0.344801
 30
0.0
 40
0.659768
 50
211.507467
 51
275.435793
  0
LINE
  8
0
 10
8.625
 20
-0.312
 30
0.0
 11
8.625
 21
0.0
 31
0.0
  0
ARC
  8
0
 10
9.5625
 20
0.344801
 30
0.0
 40
0.659768
 50
211.507467
 51
275.435793
  0
LINE
  8
0
 10
9.625
 20
-0.312
 30
0.0
 11
9.625
 21
0.0
 31
0.0
  0
ARC
  8
0
 10
10.5625
 20
0.344801
 30
0.0
 40
0.659768
 50
211.507467
 51
275.435793
  0
LINE
  8
0
 10
10.625
 20
-0.312
 30
0.0
 11
10.625
 21
0.0
 31
0.0
  0
ARC
  8
0
 10
12.5625
 20
0.344801
 30
0.0
 40
0.659768
 50
211.507467
 51
275.435793
  0
LINE
  8
0
 10
11.625
 20
-0.312
 30
0.0
 11
11.625
 21
0.0
 31
0.0
  0
LINE
  8
0
 10
12.625
 20
-0.312
 30
0.0
 11
12.625
 21
0.0
 31
0.0
  0
ARC
  8
0
 10
13.5625
 20
0.344801
 30
0.0
 40
0.659768
 50
211.507467
 51
275.435793
  0
LINE
  8
0
 10
13.625
 20
-0.312
 30
0.0
 11
13.625
 21
0.0
 31
0.0
  0
ARC
  8
0
 10
14.5625
 20
0.344801
 30
0.0
 40
0.659768
 50
211.507467
 51
275.435793
  0
LINE
  8
0
 10
14.625
 20
-0.312
 30
0.0
 11
14.625
 21
0.0
 31
0.0
  0
ENDBLK
  8
0
  0
BLOCK
  8
0
  2
TOP
 70
    64
 10
0.0
 20
0.0
 30
0.0
  3
TOP
  0
CIRCLE
  8
BEND
 10
-2.095864
 20
-4.302038
 30
0.0
 40
0.125
  0
CIRCLE
  8
BEND
 10
-2.537099
 20
-3.860803
 30
0.0
 40
0.125
  0
CIRCLE
  8
BEND
 10
-2.978334
 20
-3.419568
 30
0.0
 40
0.125
  0
CIRCLE
  8
BEND
 10
-3.419568
 20
-2.978334
 30
0.0
 40
0.125
  0
CIRCLE
  8
BEND
 10
-3.860803
 20
-2.537099
 30
0.0
 40
0.125
  0
CIRCLE
  8
BEND
 10
-4.302038
 20
-2.095864
 30
0.0
 40
0.125
  0
CIRCLE
  8
BEND
 10
-1.65463
 20
-4.302038
 30
0.0
 40
0.125
  0
CIRCLE
  8
BEND
 10
-2.095864
 20
-3.860803
 30
0.0
 40
0.125
  0
CIRCLE
  8
BEND
 10
-2.537099
 20
-3.419568
 30
0.0
 40
0.125
  0
CIRCLE
  8
BEND
 10
-2.978334
 20
-2.978334
 30
0.0
 40
0.125
  0
CIRCLE
  8
BEND
 10
-3.419568
 20
-2.537099
 30
0.0
 40
0.125
  0
CIRCLE
  8
BEND
 10
-3.860803
 20
-2.095864
 30
0.0
 40
0.125
  0
CIRCLE
  8
BEND
 10
-4.302038
 20
-1.65463
 30
0.0
 40
0.125
  0
CIRCLE
  8
BEND
 10
-1.213395
 20
-4.302038
 30
0.0
 40
0.125
  0
CIRCLE
  8
BEND
 10
-1.65463
 20
-3.860803
 30
0.0
 40
0.125
  0
CIRCLE
  8
BEND
 10
-2.095864
 20
-3.419568
 30
0.0
 40
0.125
  0
CIRCLE
  8
BEND
 10
-2.537099
 20
-2.978334
 30
0.0
 40
0.125
  0
CIRCLE
  8
BEND
 10
-2.978334
 20
-2.537099
 30
0.0
 40
0.125
  0
CIRCLE
  8
BEND
 10
-3.419568
 20
-2.095864
 30
0.0
 40
0.125
  0
CIRCLE
  8
BEND
 10
-3.860803
 20
-1.65463
 30
0.0
 40
0.125
  0
CIRCLE
  8
BEND
 10
-4.302038
 20
-1.213395
 30
0.0
 40
0.125
  0
CIRCLE
  8
BEND
 10
-0.772161
 20
-4.302038
 30
0.0
 40
0.125
  0
CIRCLE
  8
BEND
 10
-1.213395
 20
-3.860803
 30
0.0
 40
0.125
  0
CIRCLE
  8
BEND
 10
-1.65463
 20
-3.419568
 30
0.0
 40
0.125
  0
CIRCLE
  8
BEND
 10
-2.095864
 20
-2.978334
 30
0.0
 40
0.125
  0
CIRCLE
  8
BEND
 10
-2.537099
 20
-2.537099
 30
0.0
 40
0.125
  0
CIRCLE
  8
BEND
 10
-2.978334
 20
-2.095864
 30
0.0
 40
0.125
  0
CIRCLE
  8
BEND
 10
-3.419568
 20
-1.65463
 30
0.0
 40
0.125
  0
CIRCLE
  8
BEND
 10
-3.860803
 20
-1.213395
 30
0.0
 40
0.125
  0
CIRCLE
  8
BEND
 10
-4.302038
 20
-0.772161
 30
0.0
 40
0.125
  0
CIRCLE
  8
BEND
 10
-0.330926
 20
-4.302038
 30
0.0
 40
0.125
  0
CIRCLE
  8
BEND
 10
-0.772161
 20
-3.860803
 30
0.0
 40
0.125
  0
CIRCLE
  8
BEND
 10
-1.213395
 20
-3.419568
 30
0.0
 40
0.125
  0
CIRCLE
  8
BEND
 10
-1.65463
 20
-2.978334
 30
0.0
 40
0.125
  0
CIRCLE
  8
BEND
 10
-2.095864
 20
-2.537099
 30
0.0
 40
0.125
  0
CIRCLE
  8
BEND
 10
-2.537099
 20
-2.095864
 30
0.0
 40
0.125
  0
CIRCLE
  8
BEND
 10
-2.978334
 20
-1.65463
 30
0.0
 40
0.125
  0
CIRCLE
  8
BEND
 10
-3.419568
 20
-1.213395
 30
0.0
 40
0.125
  0
CIRCLE
  8
BEND
 10
-3.860803
 20
-0.772161
 30
0.0
 40
0.125
  0
CIRCLE
  8
BEND
 10
-4.302038
 20
-0.330926
 30
0.0
 40
0.125
  0
CIRCLE
  8
BEND
 10
0.110309
 20
-4.302038
 30
0.0
 40
0.125
  0
CIRCLE
  8
BEND
 10
-0.330926
 20
-3.860803
 30
0.0
 40
0.125
  0
CIRCLE
  8
BEND
 10
-0.772161
 20
-3.419568
 30
0.0
 40
0.125
  0
CIRCLE
  8
BEND
 10
-1.213395
 20
-2.978334
 30
0.0
 40
0.125
  0
CIRCLE
  8
BEND
 10
-1.65463
 20
-2.537099
 30
0.0
 40
0.125
  0
CIRCLE
  8
BEND
 10
-2.095864
 20
-2.095864
 30
0.0
 40
0.125
  0
CIRCLE
  8
BEND
 10
-2.537099
 20
-1.65463
 30
0.0
 40
0.125
  0
CIRCLE
  8
BEND
 10
-2.978334
 20
-1.213395
 30
0.0
 40
0.125
  0
CIRCLE
  8
BEND
 10
-3.419568
 20
-0.772161
 30
0.0
 40
0.125
  0
CIRCLE
  8
BEND
 10
-3.860803
 20
-0.330926
 30
0.0
 40
0.125
  0
CIRCLE
  8
BEND
 10
-4.302038
 20
0.110309
 30
0.0
 40
0.125
  0
CIRCLE
  8
BEND
 10
0.551543
 20
-4.302038
 30
0.0
 40
0.125
  0
CIRCLE
  8
BEND
 10
0.110309
 20
-3.860803
 30
0.0
 40
0.125
  0
CIRCLE
  8
BEND
 10
-0.330926
 20
-3.419568
 30
0.0
 40
0.125
  0
CIRCLE
  8
BEND
 10
-0.772161
 20
-2.978334
 30
0.0
 40
0.125
  0
CIRCLE
  8
BEND
 10
-1.213395
 20
-2.537099
 30
0.0
 40
0.125
  0
CIRCLE
  8
BEND
 10
-1.65463
 20
-2.095864
 30
0.0
 40
0.125
  0
CIRCLE
  8
BEND
 10
-2.095864
 20
-1.65463
 30
0.0
 40
0.125
  0
CIRCLE
  8
BEND
 10
-2.537099
 20
-1.213395
 30
0.0
 40
0.125
  0
CIRCLE
  8
BEND
 10
-2.978334
 20
-0.772161
 30
0.0
 40
0.125
  0
CIRCLE
  8
BEND
 10
-3.419568
 20
-0.330926
 30
0.0
 40
0.125
  0
CIRCLE
  8
BEND
 10
-3.860803
 20
0.110309
 30
0.0
 40
0.125
  0
CIRCLE
  8
BEND
 10
-4.302038
 20
0.551543
 30
0.0
 40
0.125
  0
CIRCLE
  8
BEND
 10
0.992778
 20
-4.302038
 30
0.0
 40
0.125
  0
CIRCLE
  8
BEND
 10
0.551543
 20
-3.860803
 30
0.0
 40
0.125
  0
CIRCLE
  8
BEND
 10
0.110309
 20
-3.419568
 30
0.0
 40
0.125
  0
CIRCLE
  8
BEND
 10
-0.330926
 20
-2.978334
 30
0.0
 40
0.125
  0
CIRCLE
  8
BEND
 10
-0.772161
 20
-2.537099
 30
0.0
 40
0.125
  0
CIRCLE
  8
BEND
 10
-1.213395
 20
-2.095864
 30
0.0
 40
0.125
  0
CIRCLE
  8
BEND
 10
-1.65463
 20
-1.65463
 30
0.0
 40
0.125
  0
CIRCLE
  8
BEND
 10
-2.095864
 20
-1.213395
 30
0.0
 40
0.125
  0
CIRCLE
  8
BEND
 10
-2.537099
 20
-0.772161
 30
0.0
 40
0.125
  0
CIRCLE
  8
BEND
 10
-2.978334
 20
-0.330926
 30
0.0
 40
0.125
  0
CIRCLE
  8
BEND
 10
-3.419568
 20
0.110309
 30
0.0
 40
0.125
  0
CIRCLE
  8
BEND
 10
-3.860803
 20
0.551543
 30
0.0
 40
0.125
  0
CIRCLE
  8
BEND
 10
-4.302038
 20
0.992778
 30
0.0
 40
0.125
  0
CIRCLE
  8
BEND
 10
1.434013
 20
-4.302038
 30
0.0
 40
0.125
  0
CIRCLE
  8
BEND
 10
0.992778
 20
-3.860803
 30
0.0
 40
0.125
  0
CIRCLE
  8
BEND
 10
0.551543
 20
-3.419568
 30
0.0
 40
0.125
  0
CIRCLE
  8
BEND
 10
0.110309
 20
-2.978334
 30
0.0
 40
0.125
  0
CIRCLE
  8
BEND
 10
-0.330926
 20
-2.537099
 30
0.0
 40
0.125
  0
CIRCLE
  8
BEND
 10
-0.772161
 20
-2.095864
 30
0.0
 40
0.125
  0
CIRCLE
  8
BEND
 10
-1.213395
 20
-1.65463
 30
0.0
 40
0.125
  0
CIRCLE
  8
BEND
 10
-1.65463
 20
-1.213395
 30
0.0
 40
0.125
  0
CIRCLE
  8
BEND
 10
-2.095864
 20
-0.772161
 30
0.0
 40
0.125
  0
CIRCLE
  8
BEND
 10
-2.537099
 20
-0.330926
 30
0.0
 40
0.125
  0
CIRCLE
  8
BEND
 10
-2.978334
 20
0.110309
 30
0.0
 40
0.125
  0
CIRCLE
  8
BEND
 10
-3.419568
 20
0.551543
 30
0.0
 40
0.125
  0
CIRCLE
  8
BEND
 10
-3.860803
 20
0.992778
 30
0.0
 40
0.125
  0
CIRCLE
  8
BEND
 10
-4.302038
 20
1.434013
 30
0.0
 40
0.125
  0
CIRCLE
  8
BEND
 10
1.875247
 20
-4.302038
 30
0.0
 40
0.125
  0
CIRCLE
  8
BEND
 10
1.434013
 20
-3.860803
 30
0.0
 40
0.125
  0
CIRCLE
  8
BEND
 10
0.992778
 20
-3.419568
 30
0.0
 40
0.125
  0
CIRCLE
  8
BEND
 10
0.551543
 20
-2.978334
 30
0.0
 40
0.125
  0
CIRCLE
  8
BEND
 10
0.110309
 20
-2.537099
 30
0.0
 40
0.125
  0
CIRCLE
  8
BEND
 10
-0.330926
 20
-2.095864
 30
0.0
 40
0.125
  0
CIRCLE
  8
BEND
 10
-0.772161
 20
-1.65463
 30
0.0
 40
0.125
  0
CIRCLE
  8
BEND
 10
-1.213395
 20
-1.213395
 30
0.0
 40
0.125
  0
CIRCLE
  8
BEND
 10
-1.65463
 20
-0.772161
 30
0.0
 40
0.125
  0
CIRCLE
  8
BEND
 10
-2.095864
 20
-0.330926
 30
0.0
 40
0.125
  0
CIRCLE
  8
BEND
 10
-2.537099
 20
0.110309
 30
0.0
 40
0.125
  0
CIRCLE
  8
BEND
 10
-2.978334
 20
0.551543
 30
0.0
 40
0.125
  0
CIRCLE
  8
BEND
 10
-3.419568
 20
0.992778
 30
0.0
 40
0.125
  0
CIRCLE
  8
BEND
 10
-3.860803
 20
1.434013
 30
0.0
 40
0.125
  0
CIRCLE
  8
BEND
 10
-4.302038
 20
1.875247
 30
0.0
 40
0.125
  0
CIRCLE
  8
BEND
 10
1.875247
 20
-3.860803
 30
0.0
 40
0.125
  0
CIRCLE
  8
BEND
 10
1.434013
 20
-3.419568
 30
0.0
 40
0.125
  0
CIRCLE
  8
BEND
 10
0.992778
 20
-2.978334
 30
0.0
 40
0.125
  0
CIRCLE
  8
BEND
 10
0.551543
 20
-2.537099
 30
0.0
 40
0.125
  0
CIRCLE
  8
BEND
 10
0.110309
 20
-2.095864
 30
0.0
 40
0.125
  0
CIRCLE
  8
BEND
 10
-0.330926
 20
-1.65463
 30
0.0
 40
0.125
  0
CIRCLE
  8
BEND
 10
-0.772161
 20
-1.213395
 30
0.0
 40
0.125
  0
CIRCLE
  8
BEND
 10
-1.213395
 20
-0.772161
 30
0.0
 40
0.125
  0
CIRCLE
  8
BEND
 10
-1.65463
 20
-0.330926
 30
0.0
 40
0.125
  0
CIRCLE
  8
BEND
 10
-2.095864
 20
0.110309
 30
0.0
 40
0.125
  0
CIRCLE
  8
BEND
 10
-2.537099
 20
0.551543
 30
0.0
 40
0.125
  0
CIRCLE
  8
BEND
 10
-2.978334
 20
0.992778
 30
0.0
 40
0.125
  0
CIRCLE
  8
BEND
 10
-3.419568
 20
1.434013
 30
0.0
 40
0.125
  0
CIRCLE
  8
BEND
 10
-3.860803
 20
1.875247
 30
0.0
 40
0.125
  0
CIRCLE
  8
BEND
 10
2.316482
 20
-3.860803
 30
0.0
 40
0.125
  0
CIRCLE
  8
BEND
 10
1.875247
 20
-3.419568
 30
0.0
 40
0.125
  0
CIRCLE
  8
BEND
 10
1.434013
 20
-2.978334
 30
0.0
 40
0.125
  0
CIRCLE
  8
BEND
 10
0.992778
 20
-2.537099
 30
0.0
 40
0.125
  0
CIRCLE
  8
BEND
 10
0.551543
 20
-2.095864
 30
0.0
 40
0.125
  0
CIRCLE
  8
BEND
 10
0.110309
 20
-1.65463
 30
0.0
 40
0.125
  0
CIRCLE
  8
BEND
 10
-0.330926
 20
-1.213395
 30
0.0
 40
0.125
  0
CIRCLE
  8
BEND
 10
-0.772161
 20
-0.772161
 30
0.0
 40
0.125
  0
CIRCLE
  8
BEND
 10
-1.213395
 20
-0.330926
 30
0.0
 40
0.125
  0
CIRCLE
  8
BEND
 10
-1.65463
 20
0.110309
 30
0.0
 40
0.125
  0
CIRCLE
  8
BEND
 10
-2.095864
 20
0.551543
 30
0.0
 40
0.125
  0
CIRCLE
  8
BEND
 10
-2.537099
 20
0.992778
 30
0.0
 40
0.125
  0
CIRCLE
  8
BEND
 10
-2.978334
 20
1.434013
 30
0.0
 40
0.125
  0
CIRCLE
  8
BEND
 10
-3.419568
 20
1.875247
 30
0.0
 40
0.125
  0
CIRCLE
  8
BEND
 10
-3.860803
 20
2.316482
 30
0.0
 40
0.125
  0
CIRCLE
  8
BEND
 10
2.316482
 20
-3.419568
 30
0.0
 40
0.125
  0
CIRCLE
  8
BEND
 10
1.875247
 20
-2.978334
 30
0.0
 40
0.125
  0
CIRCLE
  8
BEND
 10
1.434013
 20
-2.537099
 30
0.0
 40
0.125
  0
CIRCLE
  8
BEND
 10
0.992778
 20
-2.095864
 30
0.0
 40
0.125
  0
CIRCLE
  8
BEND
 10
0.551543
 20
-1.65463
 30
0.0
 40
0.125
  0
CIRCLE
  8
BEND
 10
0.110309
 20
-1.213395
 30
0.0
 40
0.125
  0
CIRCLE
  8
BEND
 10
-0.330926
 20
-0.772161
 30
0.0
 40
0.125
  0
CIRCLE
  8
BEND
 10
-0.772161
 20
-0.330926
 30
0.0
 40
0.125
  0
CIRCLE
  8
BEND
 10
-1.213395
 20
0.110309
 30
0.0
 40
0.125
  0
CIRCLE
  8
BEND
 10
-1.65463
 20
0.551543
 30
0.0
 40
0.125
  0
CIRCLE
  8
BEND
 10
-2.095864
 20
0.992778
 30
0.0
 40
0.125
  0
CIRCLE
  8
BEND
 10
-2.537099
 20
1.434013
 30
0.0
 40
0.125
  0
CIRCLE
  8
BEND
 10
-2.978334
 20
1.875247
 30
0.0
 40
0.125
  0
CIRCLE
  8
BEND
 10
-3.419568
 20
2.316482
 30
0.0
 40
0.125
  0
CIRCLE
  8
BEND
 10
2.757716
 20
-3.419568
 30
0.0
 40
0.125
  0
CIRCLE
  8
BEND
 10
2.316482
 20
-2.978334
 30
0.0
 40
0.125
  0
CIRCLE
  8
BEND
 10
1.875247
 20
-2.537099
 30
0.0
 40
0.125
  0
CIRCLE
  8
BEND
 10
1.434013
 20
-2.095864
 30
0.0
 40
0.125
  0
CIRCLE
  8
BEND
 10
0.992778
 20
-1.65463
 30
0.0
 40
0.125
  0
CIRCLE
  8
BEND
 10
0.551543
 20
-1.213395
 30
0.0
 40
0.125
  0
CIRCLE
  8
BEND
 10
0.110309
 20
-0.772161
 30
0.0
 40
0.125
  0
CIRCLE
  8
BEND
 10
-0.330926
 20
-0.330926
 30
0.0
 40
0.125
  0
CIRCLE
  8
BEND
 10
-0.772161
 20
0.110309
 30
0.0
 40
0.125
  0
CIRCLE
  8
BEND
 10
-1.213395
 20
0.551543
 30
0.0
 40
0.125
  0
CIRCLE
  8
BEND
 10
-1.65463
 20
0.992778
 30
0.0
 40
0.125
  0
CIRCLE
  8
BEND
 10
-2.095864
 20
1.434013
 30
0.0
 40
0.125
  0
CIRCLE
  8
BEND
 10
-2.537099
 20
1.875247
 30
0.0
 40
0.125
  0
CIRCLE
  8
BEND
 10
-2.978334
 20
2.316482
 30
0.0
 40
0.125
  0
CIRCLE
  8
BEND
 10
-3.419568
 20
2.757716
 30
0.0
 40
0.125
  0
CIRCLE
  8
BEND
 10
2.757716
 20
-2.978334
 30
0.0
 40
0.125
  0
CIRCLE
  8
BEND
 10
2.316482
 20
-2.537099
 30
0.0
 40
0.125
  0
CIRCLE
  8
BEND
 10
1.875247
 20
-2.095864
 30
0.0
 40
0.125
  0
CIRCLE
  8
BEND
 10
1.434013
 20
-1.65463
 30
0.0
 40
0.125
  0
CIRCLE
  8
BEND
 10
0.992778
 20
-1.213395
 30
0.0
 40
0.125
  0
CIRCLE
  8
BEND
 10
0.551543
 20
-0.772161
 30
0.0
 40
0.125
  0
CIRCLE
  8
BEND
 10
0.110309
 20
-0.330926
 30
0.0
 40
0.125
  0
CIRCLE
  8
BEND
 10
-0.330926
 20
0.110309
 30
0.0
 40
0.125
  0
CIRCLE
  8
BEND
 10
-0.772161
 20
0.551543
 30
0.0
 40
0.125
  0
CIRCLE
  8
BEND
 10
-1.213395
 20
0.992778
 30
0.0
 40
0.125
  0
CIRCLE
  8
BEND
 10
-1.65463
 20
1.434013
 30
0.0
 40
0.125
  0
CIRCLE
  8
BEND
 10
-2.095864
 20
1.875247
 30
0.0
 40
0.125
  0
CIRCLE
  8
BEND
 10
-2.537099
 20
2.316482
 30
0.0
 40
0.125
  0
CIRCLE
  8
BEND
 10
-2.978334
 20
2.757716
 30
0.0
 40
0.125
  0
CIRCLE
  8
BEND
 10
3.198951
 20
-2.978334
 30
0.0
 40
0.125
  0
CIRCLE
  8
BEND
 10
2.757716
 20
-2.537099
 30
0.0
 40
0.125
  0
CIRCLE
  8
BEND
 10
2.316482
 20
-2.095864
 30
0.0
 40
0.125
  0
CIRCLE
  8
BEND
 10
1.875247
 20
-1.65463
 30
0.0
 40
0.125
  0
CIRCLE
  8
BEND
 10
1.434013
 20
-1.213395
 30
0.0
 40
0.125
  0
CIRCLE
  8
BEND
 10
0.992778
 20
-0.772161
 30
0.0
 40
0.125
  0
CIRCLE
  8
BEND
 10
0.551543
 20
-0.330926
 30
0.0
 40
0.125
  0
CIRCLE
  8
BEND
 10
0.110309
 20
0.110309
 30
0.0
 40
0.125
  0
CIRCLE
  8
BEND
 10
-0.330926
 20
0.551543
 30
0.0
 40
0.125
  0
CIRCLE
  8
BEND
 10
-0.772161
 20
0.992778
 30
0.0
 40
0.125
  0
CIRCLE
  8
BEND
 10
-1.213395
 20
1.434013
 30
0.0
 40
0.125
  0
CIRCLE
  8
BEND
 10
-1.65463
 20
1.875247
 30
0.0
 40
0.125
  0
CIRCLE
  8
BEND
 10
-2.095864
 20
2.316482
 30
0.0
 40
0.125
  0
CIRCLE
  8
BEND
 10
-2.537099
 20
2.757716
 30
0.0
 40
0.125
  0
CIRCLE
  8
BEND
 10
-2.978334
 20
3.198951
 30
0.0
 40
0.125
  0
CIRCLE
  8
BEND
 10
3.198951
 20
-2.537099
 30
0.0
 40
0.125
  0
CIRCLE
  8
BEND
 10
2.757716
 20
-2.095864
 30
0.0
 40
0.125
  0
CIRCLE
  8
BEND
 10
2.316482
 20
-1.65463
 30
0.0
 40
0.125
  0
CIRCLE
  8
BEND
 10
1.875247
 20
-1.213395
 30
0.0
 40
0.125
  0
CIRCLE
  8
BEND
 10
1.434013
 20
-0.772161
 30
0.0
 40
0.125
  0
CIRCLE
  8
BEND
 10
0.992778
 20
-0.330926
 30
0.0
 40
0.125
  0
CIRCLE
  8
BEND
 10
0.551543
 20
0.110309
 30
0.0
 40
0.125
  0
CIRCLE
  8
BEND
 10
0.110309
 20
0.551543
 30
0.0
 40
0.125
  0
CIRCLE
  8
BEND
 10
-0.330926
 20
0.992778
 30
0.0
 40
0.125
  0
CIRCLE
  8
BEND
 10
-0.772161
 20
1.434013
 30
0.0
 40
0.125
  0
CIRCLE
  8
BEND
 10
-1.213395
 20
1.875247
 30
0.0
 40
0.125
  0
CIRCLE
  8
BEND
 10
-1.65463
 20
2.316482
 30
0.0
 40
0.125
  0
CIRCLE
  8
BEND
 10
-2.095864
 20
2.757716
 30
0.0
 40
0.125
  0
CIRCLE
  8
BEND
 10
-2.537099
 20
3.198951
 30
0.0
 40
0.125
  0
CIRCLE
  8
BEND
 10
3.640186
 20
-2.537099
 30
0.0
 40
0.125
  0
CIRCLE
  8
BEND
 10
3.198951
 20
-2.095864
 30
0.0
 40
0.125
  0
CIRCLE
  8
BEND
 10
2.757716
 20
-1.65463
 30
0.0
 40
0.125
  0
CIRCLE
  8
BEND
 10
2.316482
 20
-1.213395
 30
0.0
 40
0.125
  0
CIRCLE
  8
BEND
 10
1.875247
 20
-0.772161
 30
0.0
 40
0.125
  0
CIRCLE
  8
BEND
 10
1.434013
 20
-0.330926
 30
0.0
 40
0.125
  0
CIRCLE
  8
BEND
 10
0.992778
 20
0.110309
 30
0.0
 40
0.125
  0
CIRCLE
  8
BEND
 10
0.551543
 20
0.551543
 30
0.0
 40
0.125
  0
CIRCLE
  8
BEND
 10
0.110309
 20
0.992778
 30
0.0
 40
0.125
  0
CIRCLE
  8
BEND
 10
-0.330926
 20
1.434013
 30
0.0
 40
0.125
  0
CIRCLE
  8
BEND
 10
-0.772161
 20
1.875247
 30
0.0
 40
0.125
  0
CIRCLE
  8
BEND
 10
-1.213395
 20
2.316482
 30
0.0
 40
0.125
  0
CIRCLE
  8
BEND
 10
-1.65463
 20
2.757716
 30
0.0
 40
0.125
  0
CIRCLE
  8
BEND
 10
-2.095864
 20
3.198951
 30
0.0
 40
0.125
  0
CIRCLE
  8
BEND
 10
-2.537099
 20
3.640186
 30
0.0
 40
0.125
  0
CIRCLE
  8
BEND
 10
3.640186
 20
-2.095864
 30
0.0
 40
0.125
  0
CIRCLE
  8
BEND
 10
3.198951
 20
-1.65463
 30
0.0
 40
0.125
  0
CIRCLE
  8
BEND
 10
2.757716
 20
-1.213395
 30
0.0
 40
0.125
  0
CIRCLE
  8
BEND
 10
2.316482
 20
-0.772161
 30
0.0
 40
0.125
  0
CIRCLE
  8
BEND
 10
1.875247
 20
-0.330926
 30
0.0
 40
0.125
  0
CIRCLE
  8
BEND
 10
1.434013
 20
0.110309
 30
0.0
 40
0.125
  0
CIRCLE
  8
BEND
 10
0.992778
 20
0.551543
 30
0.0
 40
0.125
  0
CIRCLE
  8
BEND
 10
0.551543
 20
0.992778
 30
0.0
 40
0.125
  0
CIRCLE
  8
BEND
 10
0.110309
 20
1.434013
 30
0.0
 40
0.125
  0
CIRCLE
  8
BEND
 10
-0.330926
 20
1.875247
 30
0.0
 40
0.125
  0
CIRCLE
  8
BEND
 10
-0.772161
 20
2.316482
 30
0.0
 40
0.125
  0
CIRCLE
  8
BEND
 10
-1.213395
 20
2.757716
 30
0.0
 40
0.125
  0
CIRCLE
  8
BEND
 10
-1.65463
 20
3.198951
 30
0.0
 40
0.125
  0
CIRCLE
  8
BEND
 10
-2.095864
 20
3.640186
 30
0.0
 40
0.125
  0
CIRCLE
  8
BEND
 10
4.08142
 20
-2.095864
 30
0.0
 40
0.125
  0
CIRCLE
  8
BEND
 10
3.640186
 20
-1.65463
 30
0.0
 40
0.125
  0
CIRCLE
  8
BEND
 10
3.198951
 20
-1.213395
 30
0.0
 40
0.125
  0
CIRCLE
  8
BEND
 10
2.757716
 20
-0.772161
 30
0.0
 40
0.125
  0
CIRCLE
  8
BEND
 10
2.316482
 20
-0.330926
 30
0.0
 40
0.125
  0
CIRCLE
  8
BEND
 10
1.875247
 20
0.110309
 30
0.0
 40
0.125
  0
CIRCLE
  8
BEND
 10
1.434013
 20
0.551543
 30
0.0
 40
0.125
  0
CIRCLE
  8
BEND
 10
0.992778
 20
0.992778
 30
0.0
 40
0.125
  0
CIRCLE
  8
BEND
 10
0.551543
 20
1.434013
 30
0.0
 40
0.125
  0
CIRCLE
  8
BEND
 10
0.110309
 20
1.875247
 30
0.0
 40
0.125
  0
CIRCLE
  8
BEND
 10
-0.330926
 20
2.316482
 30
0.0
 40
0.125
  0
CIRCLE
  8
BEND
 10
-0.772161
 20
2.757716
 30
0.0
 40
0.125
  0
CIRCLE
  8
BEND
 10
-1.213395
 20
3.198951
 30
0.0
 40
0.125
  0
CIRCLE
  8
BEND
 10
-1.65463
 20
3.640186
 30
0.0
 40
0.125
  0
CIRCLE
  8
BEND
 10
-2.095864
 20
4.08142
 30
0.0
 40
0.125
  0
CIRCLE
  8
BEND
 10
4.08142
 20
-1.65463
 30
0.0
 40
0.125
  0
CIRCLE
  8
BEND
 10
3.640186
 20
-1.213395
 30
0.0
 40
0.125
  0
CIRCLE
  8
BEND
 10
3.198951
 20
-0.772161
 30
0.0
 40
0.125
  0
CIRCLE
  8
BEND
 10
2.757716
 20
-0.330926
 30
0.0
 40
0.125
  0
CIRCLE
  8
BEND
 10
2.316482
 20
0.110309
 30
0.0
 40
0.125
  0
CIRCLE
  8
BEND
 10
1.875247
 20
0.551543
 30
0.0
 40
0.125
  0
CIRCLE
  8
BEND
 10
1.434013
 20
0.992778
 30
0.0
 40
0.125
  0
CIRCLE
  8
BEND
 10
0.992778
 20
1.434013
 30
0.0
 40
0.125
  0
CIRCLE
  8
BEND
 10
0.551543
 20
1.875247
 30
0.0
 40
0.125
  0
CIRCLE
  8
BEND
 10
0.110309
 20
2.316482
 30
0.0
 40
0.125
  0
CIRCLE
  8
BEND
 10
-0.330926
 20
2.757716
 30
0.0
 40
0.125
  0
CIRCLE
  8
BEND
 10
-0.772161
 20
3.198951
 30
0.0
 40
0.125
  0
CIRCLE
  8
BEND
 10
-1.213395
 20
3.640186
 30
0.0
 40
0.125
  0
CIRCLE
  8
BEND
 10
-1.65463
 20
4.08142
 30
0.0
 40
0.125
  0
CIRCLE
  8
BEND
 10
4.08142
 20
-1.213395
 30
0.0
 40
0.125
  0
CIRCLE
  8
BEND
 10
3.640186
 20
-0.772161
 30
0.0
 40
0.125
  0
CIRCLE
  8
BEND
 10
3.198951
 20
-0.330926
 30
0.0
 40
0.125
  0
CIRCLE
  8
BEND
 10
2.757716
 20
0.110309
 30
0.0
 40
0.125
  0
CIRCLE
  8
BEND
 10
2.316482
 20
0.551543
 30
0.0
 40
0.125
  0
CIRCLE
  8
BEND
 10
1.875247
 20
0.992778
 30
0.0
 40
0.125
  0
CIRCLE
  8
BEND
 10
1.434013
 20
1.434013
 30
0.0
 40
0.125
  0
CIRCLE
  8
BEND
 10
0.992778
 20
1.875247
 30
0.0
 40
0.125
  0
CIRCLE
  8
BEND
 10
0.551543
 20
2.316482
 30
0.0
 40
0.125
  0
CIRCLE
  8
BEND
 10
0.110309
 20
2.757716
 30
0.0
 40
0.125
  0
CIRCLE
  8
BEND
 10
-0.330926
 20
3.198951
 30
0.0
 40
0.125
  0
CIRCLE
  8
BEND
 10
-0.772161
 20
3.640186
 30
0.0
 40
0.125
  0
CIRCLE
  8
BEND
 10
-1.213395
 20
4.08142
 30
0.0
 40
0.125
  0
CIRCLE
  8
BEND
 10
4.08142
 20
-0.772161
 30
0.0
 40
0.125
  0
CIRCLE
  8
BEND
 10
3.640186
 20
-0.330926
 30
0.0
 40
0.125
  0
CIRCLE
  8
BEND
 10
3.198951
 20
0.110309
 30
0.0
 40
0.125
  0
CIRCLE
  8
BEND
 10
2.757716
 20
0.551543
 30
0.0
 40
0.125
  0
CIRCLE
  8
BEND
 10
2.316482
 20
0.992778
 30
0.0
 40
0.125
  0
CIRCLE
  8
BEND
 10
1.875247
 20
1.434013
 30
0.0
 40
0.125
  0
CIRCLE
  8
BEND
 10
1.434013
 20
1.875247
 30
0.0
 40
0.125
  0
CIRCLE
  8
BEND
 10
0.992778
 20
2.316482
 30
0.0
 40
0.125
  0
CIRCLE
  8
BEND
 10
0.551543
 20
2.757716
 30
0.0
 40
0.125
  0
CIRCLE
  8
BEND
 10
0.110309
 20
3.198951
 30
0.0
 40
0.125
  0
CIRCLE
  8
BEND
 10
-0.330926
 20
3.640186
 30
0.0
 40
0.125
  0
CIRCLE
  8
BEND
 10
-0.772161
 20
4.08142
 30
0.0
 40
0.125
  0
CIRCLE
  8
BEND
 10
4.08142
 20
-0.330926
 30
0.0
 40
0.125
  0
CIRCLE
  8
BEND
 10
3.640186
 20
0.110309
 30
0.0
 40
0.125
  0
CIRCLE
  8
BEND
 10
3.198951
 20
0.551543
 30
0.0
 40
0.125
  0
CIRCLE
  8
BEND
 10
2.757716
 20
0.992778
 30
0.0
 40
0.125
  0
CIRCLE
  8
BEND
 10
2.316482
 20
1.434013
 30
0.0
 40
0.125
  0
CIRCLE
  8
BEND
 10
1.875247
 20
1.875247
 30
0.0
 40
0.125
  0
CIRCLE
  8
BEND
 10
1.434013
 20
2.316482
 30
0.0
 40
0.125
  0
CIRCLE
  8
BEND
 10
0.992778
 20
2.757716
 30
0.0
 40
0.125
  0
CIRCLE
  8
BEND
 10
0.551543
 20
3.198951
 30
0.0
 40
0.125
  0
CIRCLE
  8
BEND
 10
0.110309
 20
3.640186
 30
0.0
 40
0.125
  0
CIRCLE
  8
BEND
 10
-0.330926
 20
4.08142
 30
0.0
 40
0.125
  0
CIRCLE
  8
BEND
 10
4.08142
 20
0.110309
 30
0.0
 40
0.125
  0
CIRCLE
  8
BEND
 10
3.640186
 20
0.551543
 30
0.0
 40
0.125
  0
CIRCLE
  8
BEND
 10
3.198951
 20
0.992778
 30
0.0
 40
0.125
  0
CIRCLE
  8
BEND
 10
2.757716
 20
1.434013
 30
0.0
 40
0.125
  0
CIRCLE
  8
BEND
 10
2.316482
 20
1.875247
 30
0.0
 40
0.125
  0
CIRCLE
  8
BEND
 10
1.875247
 20
2.316482
 30
0.0
 40
0.125
  0
CIRCLE
  8
BEND
 10
1.434013
 20
2.757716
 30
0.0
 40
0.125
  0
CIRCLE
  8
BEND
 10
0.992778
 20
3.198951
 30
0.0
 40
0.125
  0
CIRCLE
  8
BEND
 10
0.551543
 20
3.640186
 30
0.0
 40
0.125
  0
CIRCLE
  8
BEND
 10
0.110309
 20
4.08142
 30
0.0
 40
0.125
  0
CIRCLE
  8
BEND
 10
4.08142
 20
0.551543
 30
0.0
 40
0.125
  0
CIRCLE
  8
BEND
 10
3.640186
 20
0.992778
 30
0.0
 40
0.125
  0
CIRCLE
  8
BEND
 10
3.198951
 20
1.434013
 30
0.0
 40
0.125
  0
CIRCLE
  8
BEND
 10
2.757716
 20
1.875247
 30
0.0
 40
0.125
  0
CIRCLE
  8
BEND
 10
2.316482
 20
2.316482
 30
0.0
 40
0.125
  0
CIRCLE
  8
BEND
 10
1.875247
 20
2.757716
 30
0.0
 40
0.125
  0
CIRCLE
  8
BEND
 10
1.434013
 20
3.198951
 30
0.0
 40
0.125
  0
CIRCLE
  8
BEND
 10
0.992778
 20
3.640186
 30
0.0
 40
0.125
  0
CIRCLE
  8
BEND
 10
0.551543
 20
4.08142
 30
0.0
 40
0.125
  0
CIRCLE
  8
BEND
 10
4.08142
 20
0.992778
 30
0.0
 40
0.125
  0
CIRCLE
  8
BEND
 10
3.640186
 20
1.434013
 30
0.0
 40
0.125
  0
CIRCLE
  8
BEND
 10
3.198951
 20
1.875247
 30
0.0
 40
0.125
  0
CIRCLE
  8
BEND
 10
2.757716
 20
2.316482
 30
0.0
 40
0.125
  0
CIRCLE
  8
BEND
 10
2.316482
 20
2.757716
 30
0.0
 40
0.125
  0
CIRCLE
  8
BEND
 10
1.875247
 20
3.198951
 30
0.0
 40
0.125
  0
CIRCLE
  8
BEND
 10
1.434013
 20
3.640186
 30
0.0
 40
0.125
  0
CIRCLE
  8
BEND
 10
0.992778
 20
4.08142
 30
0.0
 40
0.125
  0
CIRCLE
  8
BEND
 10
4.08142
 20
1.434013
 30
0.0
 40
0.125
  0
CIRCLE
  8
BEND
 10
3.640186
 20
1.875247
 30
0.0
 40
0.125
  0
CIRCLE
  8
BEND
 10
3.198951
 20
2.316482
 30
0.0
 40
0.125
  0
CIRCLE
  8
BEND
 10
2.757716
 20
2.757716
 30
0.0
 40
0.125
  0
CIRCLE
  8
BEND
 10
2.316482
 20
3.198951
 30
0.0
 40
0.125
  0
CIRCLE
  8
BEND
 10
1.875247
 20
3.640186
 30
0.0
 40
0.125
  0
CIRCLE
  8
BEND
 10
1.434013
 20
4.08142
 30
0.0
 40
0.125
  0
CIRCLE
  8
BEND
 10
4.08142
 20
1.875247
 30
0.0
 40
0.125
  0
CIRCLE
  8
BEND
 10
3.640186
 20
2.316482
 30
0.0
 40
0.125
  0
CIRCLE
  8
BEND
 10
3.198951
 20
2.757716
 30
0.0
 40
0.125
  0
CIRCLE
  8
BEND
 10
2.757716
 20
3.198951
 30
0.0
 40
0.125
  0
CIRCLE
  8
BEND
 10
2.316482
 20
3.640186
 30
0.0
 40
0.125
  0
CIRCLE
  8
BEND
 10
1.875247
 20
4.08142
 30
0.0
 40
0.125
  0
CIRCLE
  8
BEND
 10
4.08142
 20
2.316482
 30
0.0
 40
0.125
  0
CIRCLE
  8
BEND
 10
3.640186
 20
2.757716
 30
0.0
 40
0.125
  0
CIRCLE
  8
BEND
 10
3.198951
 20
3.198951
 30
0.0
 40
0.125
  0
CIRCLE
  8
BEND
 10
2.757716
 20
3.640186
 30
0.0
 40
0.125
  0
CIRCLE
  8
BEND
 10
2.316482
 20
4.08142
 30
0.0
 40
0.125
  0
CIRCLE
  8
OBJECT
 10
4.844
 20
0.0
 30
0.0
 40
0.09
  0
CIRCLE
  8
OBJECT
 10
3.425225
 20
-3.425225
 30
0.0
 40
0.09
  0
CIRCLE
  8
OBJECT
 10
0.0
 20
-4.844
 30
0.0
 40
0.09
  0
CIRCLE
  8
OBJECT
 10
-3.425225
 20
-3.425225
 30
0.0
 40
0.09
  0
CIRCLE
  8
OBJECT
 10
-4.844
 20
0.0
 30
0.0
 40
0.09
  0
CIRCLE
  8
OBJECT
 10
-3.425225
 20
3.425225
 30
0.0
 40
0.09
  0
CIRCLE
  8
OBJECT
 10
0.0
 20
4.844
 30
0.0
 40
0.09
  0
CIRCLE
  8
OBJECT
 10
3.425225
 20
3.425225
 30
0.0
 40
0.09
  0
ENDBLK
  8
0
  0
BLOCK
  8
0
  2
CMP
 70
    64
 10
0.0
 20
0.0
 30
0.0
  3
CMP
  0
POLYLINE
  8
CMP
  6
HIDDEN
 66
     1
 10
0.0
 20
0.0
 30
0.0
  0
VERTEX
  8
CMP
  6
HIDDEN
 10
-2.125
 20
-28.703
 30
0.0
  0
VERTEX
  8
CMP
  6
HIDDEN
 10
-2.063
 20
-28.703
 30
0.0
  0
VERTEX
  8
CMP
  6
HIDDEN
 10
-2.063
 20
-0.453
 30
0.0
  0
VERTEX
  8
CMP
  6
HIDDEN
 10
-2.125
 20
-0.453
 30
0.0
  0
SEQEND
  8
CMP
  6
HIDDEN
  0
POLYLINE
  8
CMP
  6
HIDDEN
 66
     1
 10
0.0
 20
0.0
 30
0.0
  0
VERTEX
  8
CMP
  6
HIDDEN
 10
0.5
 20
-28.703
 30
0.0
  0
VERTEX
  8
CMP
  6
HIDDEN
 10
0.438
 20
-28.703
 30
0.0
  0
VERTEX
  8
CMP
  6
HIDDEN
 10
0.438
 20
-0.453
 30
0.0
  0
VERTEX
  8
CMP
  6
HIDDEN
 10
0.5
 20
-0.453
 30
0.0
  0
SEQEND
  8
CMP
  6
HIDDEN
  0
POLYLINE
  8
CMP
 66
     1
 10
0.0
 20
0.0
 30
0.0
 70
     1
  0
VERTEX
  8
CMP
 10
-2.125
 20
-30.515
 30
0.0
  0
VERTEX
  8
CMP
 10
0.5
 20
-30.515
 30
0.0
  0
VERTEX
  8
CMP
 10
0.5
 20
1.359
 30
0.0
  0
VERTEX
  8
CMP
 10
-2.125
 20
1.359
 30
0.0
  0
SEQEND
  8
CMP
  0
POLYLINE
  8
CMP
 66
     1
 10
0.0
 20
0.0
 30
0.0
  0
VERTEX
  8
CMP
 10
0.094
 20
-27.109
 30
0.0
  0
VERTEX
  8
CMP
 10
0.094
 20
-26.359
 30
0.0
  0
VERTEX
  8
CMP
 10
-0.656
 20
-26.359
 30
0.0
  0
VERTEX
  8
CMP
 10
-0.656
 20
-27.109
 30
0.0
  0
VERTEX
  8
CMP
 10
0.094
 20
-27.109
 30
0.0
  0
SEQEND
  8
CMP
  0
POLYLINE
  8
CMP
 66
     1
 10
0.0
 20
0.0
 30
0.0
  0
VERTEX
  8
CMP
 10
-1.719
 20
-27.109
 30
0.0
  0
VERTEX
  8
CMP
 10
-1.719
 20
-26.359
 30
0.0
  0
VERTEX
  8
CMP
 10
-0.969
 20
-26.359
 30
0.0
  0
VERTEX
  8
CMP
 10
-0.969
 20
-27.109
 30
0.0
  0
VERTEX
  8
CMP
 10
-1.719
 20
-27.109
 30
0.0
  0
SEQEND
  8
CMP
  0
POLYLINE
  8
CMP
 66
     1
 10
0.0
 20
0.0
 30
0.0
 70
     1
  0
VERTEX
  8
CMP
 10
-1.375
 20
-29.656
 30
0.0
 42
-1.0
  0
VERTEX
  8
CMP
 10
-1.375
 20
-29.906
 30
0.0
  0
VERTEX
  8
CMP
 10
-1.625
 20
-29.906
 30
0.0
 42
-1.0
  0
VERTEX
  8
CMP
 10
-1.625
 20
-29.656
 30
0.0
  0
SEQEND
  8
CMP
  0
POLYLINE
  8
CMP
 66
     1
 10
0.0
 20
0.0
 30
0.0
 70
     1
  0
VERTEX
  8
CMP
 10
0.0
 20
-29.656
 30
0.0
 42
-1.0
  0
VERTEX
  8
CMP
 10
0.0
 20
-29.906
 30
0.0
  0
VERTEX
  8
CMP
 10
-0.25
 20
-29.906
 30
0.0
 42
-1.0
  0
VERTEX
  8
CMP
 10
-0.25
 20
-29.656
 30
0.0
  0
SEQEND
  8
CMP
  0
POLYLINE
  8
CMP
 66
     1
 10
0.0
 20
0.0
 30
0.0
 70
     1
  0
VERTEX
  8
CMP
 10
0.0
 20
-29.031
 30
0.0
 42
-1.0
  0
VERTEX
  8
CMP
 10
0.0
 20
-29.281
 30
0.0
  0
VERTEX
  8
CMP
 10
-0.25
 20
-29.281
 30
0.0
 42
-1.0
  0
VERTEX
  8
CMP
 10
-0.25
 20
-29.031
 30
0.0
  0
SEQEND
  8
CMP
  0
POLYLINE
  8
CMP
 66
     1
 10
0.0
 20
0.0
 30
0.0
 70
     1
  0
VERTEX
  8
CMP
 10
-1.375
 20
-29.031
 30
0.0
 42
-1.0
  0
VERTEX
  8
CMP
 10
-1.375
 20
-29.281
 30
0.0
  0
VERTEX
  8
CMP
 10
-1.625
 20
-29.281
 30
0.0
 42
-1.0
  0
VERTEX
  8
CMP
 10
-1.625
 20
-29.031
 30
0.0
  0
SEQEND
  8
CMP
  0
POLYLINE
  8
CMP
 66
     1
 10
0.0
 20
0.0
 30
0.0
  0
VERTEX
  8
CMP
 10
-1.719
 20
-25.297
 30
0.0
  0
VERTEX
  8
CMP
 10
-1.719
 20
-26.047
 30
0.0
  0
VERTEX
  8
CMP
 10
-0.969
 20
-26.047
 30
0.0
  0
VERTEX
  8
CMP
 10
-0.969
 20
-25.297
 30
0.0
  0
VERTEX
  8
CMP
 10
-1.719
 20
-25.297
 30
0.0
  0
SEQEND
  8
CMP
  0
POLYLINE
  8
CMP
 66
     1
 10
0.0
 20
0.0
 30
0.0
  0
VERTEX
  8
CMP
 10
0.094
 20
-25.297
 30
0.0
  0
VERTEX
  8
CMP
 10
0.094
 20
-26.047
 30
0.0
  0
VERTEX
  8
CMP
 10
-0.656
 20
-26.047
 30
0.0
  0
VERTEX
  8
CMP
 10
-0.656
 20
-25.297
 30
0.0
  0
VERTEX
  8
CMP
 10
0.094
 20
-25.297
 30
0.0
  0
SEQEND
  8
CMP
  0
POLYLINE
  8
CMP
 66
     1
 10
0.0
 20
0.0
 30
0.0
  0
VERTEX
  8
CMP
 10
-1.719
 20
-11.859
 30
0.0
  0
VERTEX
  8
CMP
 10
-1.719
 20
-11.109
 30
0.0
  0
VERTEX
  8
CMP
 10
-0.969
 20
-11.109
 30
0.0
  0
VERTEX
  8
CMP
 10
-0.969
 20
-11.859
 30
0.0
  0
VERTEX
  8
CMP
 10
-1.719
 20
-11.859
 30
0.0
  0
SEQEND
  8
CMP
  0
POLYLINE
  8
CMP
 66
     1
 10
0.0
 20
0.0
 30
0.0
  0
VERTEX
  8
CMP
 10
0.094
 20
-11.859
 30
0.0
  0
VERTEX
  8
CMP
 10
0.094
 20
-11.109
 30
0.0
  0
VERTEX
  8
CMP
 10
-0.656
 20
-11.109
 30
0.0
  0
VERTEX
  8
CMP
 10
-0.656
 20
-11.859
 30
0.0
  0
VERTEX
  8
CMP
 10
0.094
 20
-11.859
 30
0.0
  0
SEQEND
  8
CMP
  0
POLYLINE
  8
CMP
 66
     1
 10
0.0
 20
0.0
 30
0.0
  0
VERTEX
  8
CMP
 10
-1.719
 20
-19.109
 30
0.0
  0
VERTEX
  8
CMP
 10
-1.719
 20
-18.359
 30
0.0
  0
VERTEX
  8
CMP
 10
-0.969
 20
-18.359
 30
0.0
  0
VERTEX
  8
CMP
 10
-0.969
 20
-19.109
 30
0.0
  0
VERTEX
  8
CMP
 10
-1.719
 20
-19.109
 30
0.0
  0
SEQEND
  8
CMP
  0
POLYLINE
  8
CMP
 66
     1
 10
0.0
 20
0.0
 30
0.0
  0
VERTEX
  8
CMP
 10
0.094
 20
-19.109
 30
0.0
  0
VERTEX
  8
CMP
 10
0.094
 20
-18.359
 30
0.0
  0
VERTEX
  8
CMP
 10
-0.656
 20
-18.359
 30
0.0
  0
VERTEX
  8
CMP
 10
-0.656
 20
-19.109
 30
0.0
  0
VERTEX
  8
CMP
 10
0.094
 20
-19.109
 30
0.0
  0
SEQEND
  8
CMP
  0
POLYLINE
  8
CMP
 66
     1
 10
0.0
 20
0.0
 30
0.0
  0
VERTEX
  8
CMP
 10
0.094
 20
-17.297
 30
0.0
  0
VERTEX
  8
CMP
 10
0.094
 20
-18.047
 30
0.0
  0
VERTEX
  8
CMP
 10
-0.656
 20
-18.047
 30
0.0
  0
VERTEX
  8
CMP
 10
-0.656
 20
-17.297
 30
0.0
  0
VERTEX
  8
CMP
 10
0.094
 20
-17.297
 30
0.0
  0
SEQEND
  8
CMP
  0
POLYLINE
  8
CMP
 66
     1
 10
0.0
 20
0.0
 30
0.0
  0
VERTEX
  8
CMP
 10
-1.719
 20
-17.297
 30
0.0
  0
VERTEX
  8
CMP
 10
-1.719
 20
-18.047
 30
0.0
  0
VERTEX
  8
CMP
 10
-0.969
 20
-18.047
 30
0.0
  0
VERTEX
  8
CMP
 10
-0.969
 20
-17.297
 30
0.0
  0
VERTEX
  8
CMP
 10
-1.719
 20
-17.297
 30
0.0
  0
SEQEND
  8
CMP
  0
POLYLINE
  8
CMP
 66
     1
 10
0.0
 20
0.0
 30
0.0
  0
VERTEX
  8
CMP
 10
0.094
 20
-10.047
 30
0.0
  0
VERTEX
  8
CMP
 10
0.094
 20
-10.797
 30
0.0
  0
VERTEX
  8
CMP
 10
-0.656
 20
-10.797
 30
0.0
  0
VERTEX
  8
CMP
 10
-0.656
 20
-10.047
 30
0.0
  0
VERTEX
  8
CMP
 10
0.094
 20
-10.047
 30
0.0
  0
SEQEND
  8
CMP
  0
POLYLINE
  8
CMP
 66
     1
 10
0.0
 20
0.0
 30
0.0
  0
VERTEX
  8
CMP
 10
-1.719
 20
-10.047
 30
0.0
  0
VERTEX
  8
CMP
 10
-1.719
 20
-10.797
 30
0.0
  0
VERTEX
  8
CMP
 10
-0.969
 20
-10.797
 30
0.0
  0
VERTEX
  8
CMP
 10
-0.969
 20
-10.047
 30
0.0
  0
VERTEX
  8
CMP
 10
-1.719
 20
-10.047
 30
0.0
  0
SEQEND
  8
CMP
  0
POLYLINE
  8
CMP
 66
     1
 10
0.0
 20
0.0
 30
0.0
  0
VERTEX
  8
CMP
 10
0.094
 20
-3.859
 30
0.0
  0
VERTEX
  8
CMP
 10
0.094
 20
-3.109
 30
0.0
  0
VERTEX
  8
CMP
 10
-0.656
 20
-3.109
 30
0.0
  0
VERTEX
  8
CMP
 10
-0.656
 20
-3.859
 30
0.0
  0
VERTEX
  8
CMP
 10
0.094
 20
-3.859
 30
0.0
  0
SEQEND
  8
CMP
  0
POLYLINE
  8
CMP
 66
     1
 10
0.0
 20
0.0
 30
0.0
  0
VERTEX
  8
CMP
 10
-1.719
 20
-3.859
 30
0.0
  0
VERTEX
  8
CMP
 10
-1.719
 20
-3.109
 30
0.0
  0
VERTEX
  8
CMP
 10
-0.969
 20
-3.109
 30
0.0
  0
VERTEX
  8
CMP
 10
-0.969
 20
-3.859
 30
0.0
  0
VERTEX
  8
CMP
 10
-1.719
 20
-3.859
 30
0.0
  0
SEQEND
  8
CMP
  0
POLYLINE
  8
CMP
 66
     1
 10
0.0
 20
0.0
 30
0.0
  0
VERTEX
  8
CMP
 10
-1.719
 20
-2.047
 30
0.0
  0
VERTEX
  8
CMP
 10
-1.719
 20
-2.797
 30
0.0
  0
VERTEX
  8
CMP
 10
-0.969
 20
-2.797
 30
0.0
  0
VERTEX
  8
CMP
 10
-0.969
 20
-2.047
 30
0.0
  0
VERTEX
  8
CMP
 10
-1.719
 20
-2.047
 30
0.0
  0
SEQEND
  8
CMP
  0
POLYLINE
  8
CMP
 66
     1
 10
0.0
 20
0.0
 30
0.0
  0
VERTEX
  8
CMP
 10
0.094
 20
-2.047
 30
0.0
  0
VERTEX
  8
CMP
 10
0.094
 20
-2.797
 30
0.0
  0
VERTEX
  8
CMP
 10
-0.656
 20
-2.797
 30
0.0
  0
VERTEX
  8
CMP
 10
-0.656
 20
-2.047
 30
0.0
  0
VERTEX
  8
CMP
 10
0.094
 20
-2.047
 30
0.0
  0
SEQEND
  8
CMP
  0
POLYLINE
  8
CMP
 66
     1
 10
0.0
 20
0.0
 30
0.0
 70
     1
  0
VERTEX
  8
CMP
 10
-1.375
 20
0.5
 30
0.0
 42
1.0
  0
VERTEX
  8
CMP
 10
-1.375
 20
0.75
 30
0.0
  0
VERTEX
  8
CMP
 10
-1.625
 20
0.75
 30
0.0
 42
1.0
  0
VERTEX
  8
CMP
 10
-1.625
 20
0.5
 30
0.0
  0
SEQEND
  8
CMP
  0
POLYLINE
  8
CMP
 66
     1
 10
0.0
 20
0.0
 30
0.0
 70
     1
  0
VERTEX
  8
CMP
 10
0.0
 20
0.5
 30
0.0
 42
1.0
  0
VERTEX
  8
CMP
 10
0.0
 20
0.75
 30
0.0
  0
VERTEX
  8
CMP
 10
-0.25
 20
0.75
 30
0.0
 42
1.0
  0
VERTEX
  8
CMP
 10
-0.25
 20
0.5
 30
0.0
  0
SEQEND
  8
CMP
  0
POLYLINE
  8
CMP
 66
     1
 10
0.0
 20
0.0
 30
0.0
 70
     1
  0
VERTEX
  8
CMP
 10
-1.375
 20
-0.125
 30
0.0
 42
1.0
  0
VERTEX
  8
CMP
 10
-1.375
 20
0.125
 30
0.0
  0
VERTEX
  8
CMP
 10
-1.625
 20
0.125
 30
0.0
 42
1.0
  0
VERTEX
  8
CMP
 10
-1.625
 20
-0.125
 30
0.0
  0
SEQEND
  8
CMP
  0
POLYLINE
  8
CMP
 66
     1
 10
0.0
 20
0.0
 30
0.0
 70
     1
  0
VERTEX
  8
CMP
 10
0.0
 20
-0.125
 30
0.0
 42
1.0
  0
VERTEX
  8
CMP
 10
0.0
 20
0.125
 30
0.0
  0
VERTEX
  8
CMP
 10
-0.25
 20
0.125
 30
0.0
 42
1.0
  0
VERTEX
  8
CMP
 10
-0.25
 20
-0.125
 30
0.0
  0
SEQEND
  8
CMP
  0
ENDBLK
  8
0
  0
BLOCK
  8
0
  2
HB
 70
    64
 10
0.0
 20
0.0
 30
0.0
  3
HB
  0
TEXT
  8
TEXT
 10
0.207833
 20
15.060079
 30
0.0
 40
0.125
  1
NAME
 72
     1
 11
0.437
 21
15.060079
 31
0.0
  0
TEXT
  8
TEXT
 10
0.207833
 20
15.268413
 30
0.0
 40
0.125
  1
PART
 72
     1
 11
0.437
 21
15.268413
 31
0.0
  0
TEXT
  8
TEXT
 10
5.372
 20
15.060079
 30
0.0
 40
0.125
  1
No.
 72
     1
 11
5.497
 21
15.060079
 31
0.0
  0
TEXT
  8
TEXT
 10
5.267833
 20
15.268413
 30
0.0
 40
0.125
  1
PART
 72
     1
 11
5.497
 21
15.268413
 31
0.0
  0
LINE
  8
TITLE
 10
5.872
 20
15.438
 30
0.0
 11
5.872
 21
15.02
 31
0.0
  0
LINE
  8
TITLE
 10
5.122
 20
15.438
 30
0.0
 11
5.122
 21
15.02
 31
0.0
  0
LINE
  8
TITLE
 10
5.06
 20
15.438
 30
0.0
 11
5.06
 21
15.02
 31
0.0
  0
LINE
  8
TITLE
 10
0.812
 20
15.02
 30
0.0
 11
0.812
 21
15.438
 31
0.0
  0
LINE
  8
TITLE
 10
0.062
 20
15.02
 30
0.0
 11
10.058
 21
15.02
 31
0.0
  0
LINE
  8
TITLE
 10
10.058
 20
0.062
 30
0.0
 11
0.062
 21
0.062
 31
0.0
  0
LINE
  8
TITLE
 10
10.058
 20
15.438
 30
0.0
 11
10.058
 21
0.062
 31
0.0
  0
LINE
  8
TITLE
 10
0.062
 20
15.438
 30
0.0
 11
10.058
 21
15.438
 31
0.0
  0
LINE
  8
TITLE
 10
0.062
 20
0.062
 30
0.0
 11
0.062
 21
15.438
 31
0.0
  0
LINE
  8
TITLE
 10
0.0
 20
0.0
 30
0.0
 11
0.0
 21
15.5
 31
0.0
  0
LINE
  8
TITLE
 10
10.12
 20
0.0
 30
0.0
 11
0.0
 21
0.0
 31
0.0
  0
LINE
  8
TITLE
 10
10.12
 20
15.5
 30
0.0
 11
10.12
 21
0.0
 31
0.0
  0
LINE
  8
TITLE
 10
0.0
 20
15.5
 30
0.0
 11
10.12
 21
15.5
 31
0.0
  0
ENDBLK
  8
0
  0
BLOCK
  8
0
  2
*D5
 70
    65
 10
0.0
 20
0.0
 30
0.0
  3
*D
  0
LINE
  8
0
  6
BYBLOCK
 62
     0
 10
326.841205
 20
60.256028
 30
0.0
 11
332.70261
 21
60.256028
 31
0.0
  0
LINE
  8
0
  6
BYBLOCK
 62
     0
 10
326.841205
 20
135.568028
 30
0.0
 11
332.70261
 21
135.568028
 31
0.0
  0
LINE
  8
0
  6
BYBLOCK
 62
     0
 10
331.40061
 20
62.776028
 30
0.0
 11
331.40061
 21
95.777028
 31
0.0
  0
LINE
  8
0
  6
BYBLOCK
 62
     0
 10
331.40061
 20
133.048028
 30
0.0
 11
331.40061
 21
100.047028
 31
0.0
  0
SOLID
  8
0
  6
BYBLOCK
 62
     0
 10
330.98061
 20
62.776028
 30
0.0
 11
331.82061
 21
62.776028
 31
0.0
 12
331.40061
 22
60.256028
 32
0.0
 13
331.40061
 23
60.256028
 33
0.0
  0
SOLID
  8
0
  6
BYBLOCK
 62
     0
 10
330.98061
 20
133.048028
 30
0.0
 11
331.82061
 21
133.048028
 31
0.0
 12
331.40061
 22
135.568028
 32
0.0
 13
331.40061
 23
135.568028
 33
0.0
  0
TEXT
  8
0
  6
BYBLOCK
 62
     0
 10
328.33811
 20
97.037028
 30
0.0
 40
1.75
  1
75.312
 41
0.75
  7
TXT
 72
     1
 11
331.40061
 21
97.912028
 31
0.0
 73
     2
  0
POINT
  8
DEFPOINTS
  6
BYBLOCK
 62
     0
 10
325.959205
 20
60.256028
 30
0.0
  0
POINT
  8
DEFPOINTS
  6
BYBLOCK
 62
     0
 10
325.959205
 20
135.568028
 30
0.0
  0
POINT
  8
DEFPOINTS
  6
BYBLOCK
 62
     0
 10
331.40061
 20
135.568028
 30
0.0
  0
ENDBLK
  8
0
  0
BLOCK
  8
0
  2
*D6
 70
    65
 10
0.0
 20
0.0
 30
0.0
  3
*D
  0
LINE
  8
0
  6
BYBLOCK
 62
     0
 10
252.104414
 20
89.263618
 30
0.0
 11
252.104414
 21
89.683618
 31
0.0
  0
LINE
  8
0
  6
BYBLOCK
 62
     0
 10
281.354414
 20
89.263618
 30
0.0
 11
281.354414
 21
89.683618
 31
0.0
  0
LINE
  8
0
  6
BYBLOCK
 62
     0
 10
254.624414
 20
88.381618
 30
0.0
 11
262.297539
 21
88.381618
 31
0.0
  0
LINE
  8
0
  6
BYBLOCK
 62
     0
 10
278.834414
 20
88.381618
 30
0.0
 11
271.161289
 21
88.381618
 31
0.0
  0
SOLID
  8
0
  6
BYBLOCK
 62
     0
 10
254.624414
 20
88.801618
 30
0.0
 11
254.624414
 21
87.961618
 31
0.0
 12
252.104414
 22
88.381618
 32
0.0
 13
252.104414
 23
88.381618
 33
0.0
  0
SOLID
  8
0
  6
BYBLOCK
 62
     0
 10
278.834414
 20
88.801618
 30
0.0
 11
278.834414
 21
87.961618
 31
0.0
 12
281.354414
 22
88.381618
 32
0.0
 13
281.354414
 23
88.381618
 33
0.0
  0
TEXT
  8
0
  6
BYBLOCK
 62
     0
 10
263.557539
 20
87.506618
 30
0.0
 40
1.75
  1
29.250
 41
0.75
  7
TXT
 72
     1
 11
266.729414
 21
88.381618
 31
0.0
 73
     2
  0
POINT
  8
DEFPOINTS
  6
BYBLOCK
 62
     0
 10
252.104414
 20
88.381618
 30
0.0
  0
POINT
  8
DEFPOINTS
  6
BYBLOCK
 62
     0
 10
281.354414
 20
88.381618
 30
0.0
  0
POINT
  8
DEFPOINTS
  6
BYBLOCK
 62
     0
 10
281.354414
 20
88.381618
 30
0.0
  0
ENDBLK
  8
0
  0
BLOCK
  8
0
  2
*D7
 70
    65
 10
0.0
 20
0.0
 30
0.0
  3
*D
  0
LINE
  8
0
  6
BYBLOCK
 62
     0
 10
251.847664
 20
131.217111
 30
0.0
 11
245.954913
 21
131.217111
 31
0.0
  0
LINE
  8
0
  6
BYBLOCK
 62
     0
 10
251.847664
 20
99.311111
 30
0.0
 11
245.954913
 21
99.311111
 31
0.0
  0
LINE
  8
0
  6
BYBLOCK
 62
     0
 10
247.256913
 20
128.697111
 30
0.0
 11
247.256913
 21
117.399111
 31
0.0
  0
LINE
  8
0
  6
BYBLOCK
 62
     0
 10
247.256913
 20
101.831111
 30
0.0
 11
247.256913
 21
113.129111
 31
0.0
  0
SOLID
  8
0
  6
BYBLOCK
 62
     0
 10
246.836913
 20
128.697111
 30
0.0
 11
247.676913
 21
128.697111
 31
0.0
 12
247.256913
 22
131.217111
 32
0.0
 13
247.256913
 23
131.217111
 33
0.0
  0
SOLID
  8
0
  6
BYBLOCK
 62
     0
 10
246.836913
 20
101.831111
 30
0.0
 11
247.676913
 21
101.831111
 31
0.0
 12
247.256913
 22
99.311111
 32
0.0
 13
247.256913
 23
99.311111
 33
0.0
  0
TEXT
  8
0
  6
BYBLOCK
 62
     0
 10
244.303788
 20
114.389111
 30
0.0
 40
1.75
  1
31.906
 41
0.75
  7
TXT
 72
     1
 11
247.256913
 21
115.264111
 31
0.0
 73
     2
  0
POINT
  8
DEFPOINTS
  6
BYBLOCK
 62
     0
 10
252.729664
 20
131.217111
 30
0.0
  0
POINT
  8
DEFPOINTS
  6
BYBLOCK
 62
     0
 10
252.729664
 20
99.311111
 30
0.0
  0
POINT
  8
DEFPOINTS
  6
BYBLOCK
 62
     0
 10
247.256913
 20
99.311111
 30
0.0
  0
ENDBLK
  8
0
  0
BLOCK
  8
0
  2
*D8
 70
    65
 10
0.0
 20
0.0
 30
0.0
  3
*D
  0
LINE
  8
0
  6
BYBLOCK
 62
     0
 10
251.847664
 20
64.655111
 30
0.0
 11
245.954913
 21
64.655111
 31
0.0
  0
LINE
  8
0
  6
BYBLOCK
 62
     0
 10
251.847664
 20
96.561111
 30
0.0
 11
245.954913
 21
96.561111
 31
0.0
  0
LINE
  8
0
  6
BYBLOCK
 62
     0
 10
247.256913
 20
67.175111
 30
0.0
 11
247.256913
 21
78.473111
 31
0.0
  0
LINE
  8
0
  6
BYBLOCK
 62
     0
 10
247.256913
 20
94.041111
 30
0.0
 11
247.256913
 21
82.743111
 31
0.0
  0
SOLID
  8
0
  6
BYBLOCK
 62
     0
 10
246.836913
 20
67.175111
 30
0.0
 11
247.676913
 21
67.175111
 31
0.0
 12
247.256913
 22
64.655111
 32
0.0
 13
247.256913
 23
64.655111
 33
0.0
  0
SOLID
  8
0
  6
BYBLOCK
 62
     0
 10
246.836913
 20
94.041111
 30
0.0
 11
247.676913
 21
94.041111
 31
0.0
 12
247.256913
 22
96.561111
 32
0.0
 13
247.256913
 23
96.561111
 33
0.0
  0
TEXT
  8
0
  6
BYBLOCK
 62
     0
 10
244.303788
 20
79.733111
 30
0.0
 40
1.75
  1
31.906
 41
0.75
  7
TXT
 72
     1
 11
247.256913
 21
80.608111
 31
0.0
 73
     2
  0
POINT
  8
DEFPOINTS
  6
BYBLOCK
 62
     0
 10
252.729664
 20
64.655111
 30
0.0
  0
POINT
  8
DEFPOINTS
  6
BYBLOCK
 62
     0
 10
252.729664
 20
96.561111
 30
0.0
  0
POINT
  8
DEFPOINTS
  6
BYBLOCK
 62
     0
 10
247.256913
 20
96.561111
 30
0.0
  0
ENDBLK
  8
0
  0
BLOCK
  8
0
  2
*D9
 70
    65
 10
0.0
 20
0.0
 30
0.0
  3
*D
  0
LINE
  8
0
  6
BYBLOCK
 62
     0
 10
303.491455
 20
115.567007
 30
0.0
 11
303.491455
 21
116.192968
 31
0.0
  0
LINE
  8
0
  6
BYBLOCK
 62
     0
 10
321.428205
 20
115.567007
 30
0.0
 11
321.428205
 21
116.192968
 31
0.0
  0
LINE
  8
0
  6
BYBLOCK
 62
     0
 10
306.011455
 20
114.890968
 30
0.0
 11
308.13733
 21
114.890968
 31
0.0
  0
LINE
  8
0
  6
BYBLOCK
 62
     0
 10
318.908205
 20
114.890968
 30
0.0
 11
316.78233
 21
114.890968
 31
0.0
  0
SOLID
  8
0
  6
BYBLOCK
 62
     0
 10
306.011455
 20
115.310968
 30
0.0
 11
306.011455
 21
114.470968
 31
0.0
 12
303.491455
 22
114.890968
 32
0.0
 13
303.491455
 23
114.890968
 33
0.0
  0
SOLID
  8
0
  6
BYBLOCK
 62
     0
 10
318.908205
 20
115.310968
 30
0.0
 11
318.908205
 21
114.470968
 31
0.0
 12
321.428205
 22
114.890968
 32
0.0
 13
321.428205
 23
114.890968
 33
0.0
  0
TEXT
  8
0
  6
BYBLOCK
 62
     0
 10
309.39733
 20
114.015968
 30
0.0
 40
1.75
  1
17.937
 41
0.75
  7
TXT
 72
     1
 11
312.45983
 21
114.890968
 31
0.0
 73
     2
  0
POINT
  8
DEFPOINTS
  6
BYBLOCK
 62
     0
 10
303.491455
 20
114.685007
 30
0.0
  0
POINT
  8
DEFPOINTS
  6
BYBLOCK
 62
     0
 10
321.428205
 20
114.685007
 30
0.0
  0
POINT
  8
DEFPOINTS
  6
BYBLOCK
 62
     0
 10
321.428205
 20
114.890968
 30
0.0
  0
ENDBLK
  8
0
  0
BLOCK
  8
0
  2
*D10
 70
    65
 10
0.0
 20
0.0
 30
0.0
  3
*D
  0
LINE
  8
0
  6
BYBLOCK
 62
     0
 10
303.303705
 20
111.905028
 30
0.0
 11
303.303705
 21
108.937614
 31
0.0
  0
LINE
  8
0
  6
BYBLOCK
 62
     0
 10
321.615705
 20
111.905028
 30
0.0
 11
321.615705
 21
108.937614
 31
0.0
  0
LINE
  8
0
  6
BYBLOCK
 62
     0
 10
305.823705
 20
110.239614
 30
0.0
 11
308.355955
 21
110.239614
 31
0.0
  0
LINE
  8
0
  6
BYBLOCK
 62
     0
 10
319.095705
 20
110.239614
 30
0.0
 11
316.563455
 21
110.239614
 31
0.0
  0
SOLID
  8
0
  6
BYBLOCK
 62
     0
 10
305.823705
 20
110.659614
 30
0.0
 11
305.823705
 21
109.819614
 31
0.0
 12
303.303705
 22
110.239614
 32
0.0
 13
303.303705
 23
110.239614
 33
0.0
  0
SOLID
  8
0
  6
BYBLOCK
 62
     0
 10
319.095705
 20
110.659614
 30
0.0
 11
319.095705
 21
109.819614
 31
0.0
 12
321.615705
 22
110.239614
 32
0.0
 13
321.615705
 23
110.239614
 33
0.0
  0
TEXT
  8
0
  6
BYBLOCK
 62
     0
 10
309.615955
 20
109.364614
 30
0.0
 40
1.75
  1
18.312
 41
0.75
  7
TXT
 72
     1
 11
312.459705
 21
110.239614
 31
0.0
 73
     2
  0
POINT
  8
DEFPOINTS
  6
BYBLOCK
 62
     0
 10
303.303705
 20
112.787028
 30
0.0
  0
POINT
  8
DEFPOINTS
  6
BYBLOCK
 62
     0
 10
321.615705
 20
112.787028
 30
0.0
  0
POINT
  8
DEFPOINTS
  6
BYBLOCK
 62
     0
 10
321.615705
 20
110.239614
 30
0.0
  0
ENDBLK
  8
0
  0
BLOCK
  8
0
  2
*D11
 70
    65
 10
0.0
 20
0.0
 30
0.0
  3
*D
  0
LINE
  8
0
  6
BYBLOCK
 62
     0
 10
233.982826
 20
60.256028
 30
0.0
 11
237.26851
 21
60.256028
 31
0.0
  0
LINE
  8
0
  6
BYBLOCK
 62
     0
 10
225.029326
 20
61.568028
 30
0.0
 11
237.26851
 21
61.568028
 31
0.0
  0
LINE
  8
0
  6
BYBLOCK
 62
     0
 10
235.96651
 20
57.736028
 30
0.0
 11
235.96651
 21
55.216028
 31
0.0
  0
LINE
  8
0
  6
BYBLOCK
 62
     0
 10
235.96651
 20
64.088028
 30
0.0
 11
235.96651
 21
66.608028
 31
0.0
  0
LINE
  8
0
  6
BYBLOCK
 62
     0
 10
235.96651
 20
66.608028
 30
0.0
 11
238.48651
 21
66.608028
 31
0.0
  0
SOLID
  8
0
  6
BYBLOCK
 62
     0
 10
235.54651
 20
57.736028
 30
0.0
 11
236.38651
 21
57.736028
 31
0.0
 12
235.96651
 22
60.256028
 32
0.0
 13
235.96651
 23
60.256028
 33
0.0
  0
SOLID
  8
0
  6
BYBLOCK
 62
     0
 10
235.54651
 20
64.088028
 30
0.0
 11
236.38651
 21
64.088028
 31
0.0
 12
235.96651
 22
61.568028
 32
0.0
 13
235.96651
 23
61.568028
 33
0.0
  0
TEXT
  8
0
  6
BYBLOCK
 62
     0
 10
239.74651
 20
65.733028
 30
0.0
 40
1.75
  1
1.312
 41
0.75
  7
TXT
 72
     1
 11
241.93401
 21
66.608028
 31
0.0
 73
     2
  0
POINT
  8
DEFPOINTS
  6
BYBLOCK
 62
     0
 10
233.100826
 20
60.256028
 30
0.0
  0
POINT
  8
DEFPOINTS
  6
BYBLOCK
 62
     0
 10
224.147326
 20
61.568028
 30
0.0
  0
POINT
  8
DEFPOINTS
  6
BYBLOCK
 62
     0
 10
235.96651
 20
61.568028
 30
0.0
  0
ENDBLK
  8
0
  0
BLOCK
  8
0
  2
*D12
 70
    65
 10
0.0
 20
0.0
 30
0.0
  3
*D
  0
LINE
  8
0
  6
BYBLOCK
 62
     0
 10
256.822414
 20
130.724111
 30
0.0
 11
256.822414
 21
140.682756
 31
0.0
  0
LINE
  8
0
  6
BYBLOCK
 62
     0
 10
261.197414
 20
130.724111
 30
0.0
 11
261.197414
 21
140.682756
 31
0.0
  0
LINE
  8
0
  6
BYBLOCK
 62
     0
 10
254.302414
 20
139.380756
 30
0.0
 11
251.782414
 21
139.380756
 31
0.0
  0
LINE
  8
0
  6
BYBLOCK
 62
     0
 10
263.717414
 20
139.380756
 30
0.0
 11
266.237414
 21
139.380756
 31
0.0
  0
SOLID
  8
0
  6
BYBLOCK
 62
     0
 10
254.302414
 20
139.800756
 30
0.0
 11
254.302414
 21
138.960756
 31
0.0
 12
256.822414
 22
139.380756
 32
0.0
 13
256.822414
 23
139.380756
 33
0.0
  0
SOLID
  8
0
  6
BYBLOCK
 62
     0
 10
263.717414
 20
139.800756
 30
0.0
 11
263.717414
 21
138.960756
 31
0.0
 12
261.197414
 22
139.380756
 32
0.0
 13
261.197414
 23
139.380756
 33
0.0
  0
TEXT
  8
0
  6
BYBLOCK
 62
     0
 10
267.497414
 20
137.032533
 30
0.0
 40
1.75
  1
4.375
 41
0.75
  7
TXT
 72
     1
 11
270.122414
 21
137.907533
 31
0.0
 73
     2
  0
POINT
  8
DEFPOINTS
  6
BYBLOCK
 62
     0
 10
256.822414
 20
129.842111
 30
0.0
  0
POINT
  8
DEFPOINTS
  6
BYBLOCK
 62
     0
 10
261.197414
 20
129.842111
 30
0.0
  0
POINT
  8
DEFPOINTS
  6
BYBLOCK
 62
     0
 10
261.197414
 20
139.380756
 30
0.0
  0
ENDBLK
  8
0
  0
BLOCK
  8
0
  2
*D13
 70
    65
 10
0.0
 20
0.0
 30
0.0
  3
*D
  0
LINE
  8
0
  6
BYBLOCK
 62
     0
 10
251.847664
 20
131.217111
 30
0.0
 11
245.954913
 21
131.217111
 31
0.0
  0
LINE
  8
0
  6
BYBLOCK
 62
     0
 10
250.472414
 20
135.592111
 30
0.0
 11
245.954913
 21
135.592111
 31
0.0
  0
LINE
  8
0
  6
BYBLOCK
 62
     0
 10
247.256913
 20
128.697111
 30
0.0
 11
247.256913
 21
126.177111
 31
0.0
  0
LINE
  8
0
  6
BYBLOCK
 62
     0
 10
247.256913
 20
138.112111
 30
0.0
 11
247.256913
 21
140.632111
 31
0.0
  0
SOLID
  8
0
  6
BYBLOCK
 62
     0
 10
246.836913
 20
128.697111
 30
0.0
 11
247.676913
 21
128.697111
 31
0.0
 12
247.256913
 22
131.217111
 32
0.0
 13
247.256913
 23
131.217111
 33
0.0
  0
SOLID
  8
0
  6
BYBLOCK
 62
     0
 10
246.836913
 20
138.112111
 30
0.0
 11
247.676913
 21
138.112111
 31
0.0
 12
247.256913
 22
135.592111
 32
0.0
 13
247.256913
 23
135.592111
 33
0.0
  0
TEXT
  8
0
  6
BYBLOCK
 62
     0
 10
244.631913
 20
132.529611
 30
0.0
 40
1.75
  1
4.375
 41
0.75
  7
TXT
 72
     1
 11
247.256913
 21
133.404611
 31
0.0
 73
     2
  0
POINT
  8
DEFPOINTS
  6
BYBLOCK
 62
     0
 10
252.729664
 20
131.217111
 30
0.0
  0
POINT
  8
DEFPOINTS
  6
BYBLOCK
 62
     0
 10
251.354414
 20
135.592111
 30
0.0
  0
POINT
  8
DEFPOINTS
  6
BYBLOCK
 62
     0
 10
247.256913
 20
135.592111
 30
0.0
  0
ENDBLK
  8
0
  0
BLOCK
  8
0
  2
*D14
 70
    65
 10
0.0
 20
0.0
 30
0.0
  3
*D
  0
LINE
  8
0
  6
BYBLOCK
 62
     0
 10
307.912705
 20
13.695908
 30
0.0
 11
307.912705
 21
8.850403
 31
0.0
  0
LINE
  8
0
  6
BYBLOCK
 62
     0
 10
317.005705
 20
13.695908
 30
0.0
 11
317.005705
 21
8.850403
 31
0.0
  0
LINE
  8
0
  6
BYBLOCK
 62
     0
 10
305.392705
 20
10.152403
 30
0.0
 11
302.872705
 21
10.152403
 31
0.0
  0
LINE
  8
0
  6
BYBLOCK
 62
     0
 10
319.525705
 20
10.152403
 30
0.0
 11
322.045705
 21
10.152403
 31
0.0
  0
SOLID
  8
0
  6
BYBLOCK
 62
     0
 10
305.392705
 20
10.572403
 30
0.0
 11
305.392705
 21
9.732403
 31
0.0
 12
307.912705
 22
10.152403
 32
0.0
 13
307.912705
 23
10.152403
 33
0.0
  0
SOLID
  8
0
  6
BYBLOCK
 62
     0
 10
319.525705
 20
10.572403
 30
0.0
 11
319.525705
 21
9.732403
 31
0.0
 12
317.005705
 22
10.152403
 32
0.0
 13
317.005705
 23
10.152403
 33
0.0
  0
TEXT
  8
0
  6
BYBLOCK
 62
     0
 10
309.94358
 20
9.277403
 30
0.0
 40
1.75
  1
9.093
 41
0.75
  7
TXT
 72
     1
 11
312.459205
 21
10.152403
 31
0.0
 73
     2
  0
POINT
  8
DEFPOINTS
  6
BYBLOCK
 62
     0
 10
307.912705
 20
14.577908
 30
0.0
  0
POINT
  8
DEFPOINTS
  6
BYBLOCK
 62
     0
 10
317.005705
 20
14.577908
 30
0.0
  0
POINT
  8
DEFPOINTS
  6
BYBLOCK
 62
     0
 10
317.005705
 20
10.152403
 30
0.0
  0
ENDBLK
  8
0
  0
BLOCK
  8
0
  2
*D15
 70
    65
 10
0.0
 20
0.0
 30
0.0
  3
*D
  0
LINE
  8
0
  6
BYBLOCK
 62
     0
 10
251.847664
 20
99.311111
 30
0.0
 11
245.954913
 21
99.311111
 31
0.0
  0
LINE
  8
0
  6
BYBLOCK
 62
     0
 10
251.847664
 20
96.561111
 30
0.0
 11
245.954913
 21
96.561111
 31
0.0
  0
LINE
  8
0
  6
BYBLOCK
 62
     0
 10
247.256913
 20
101.831111
 30
0.0
 11
247.256913
 21
104.351111
 31
0.0
  0
LINE
  8
0
  6
BYBLOCK
 62
     0
 10
247.256913
 20
94.041111
 30
0.0
 11
247.256913
 21
91.521111
 31
0.0
  0
SOLID
  8
0
  6
BYBLOCK
 62
     0
 10
246.836913
 20
101.831111
 30
0.0
 11
247.676913
 21
101.831111
 31
0.0
 12
247.256913
 22
99.311111
 32
0.0
 13
247.256913
 23
99.311111
 33
0.0
  0
SOLID
  8
0
  6
BYBLOCK
 62
     0
 10
246.836913
 20
94.041111
 30
0.0
 11
247.676913
 21
94.041111
 31
0.0
 12
247.256913
 22
96.561111
 32
0.0
 13
247.256913
 23
96.561111
 33
0.0
  0
TEXT
  8
0
  6
BYBLOCK
 62
     0
 10
244.741288
 20
97.061111
 30
0.0
 40
1.75
  1
2.750
 41
0.75
  7
TXT
 72
     1
 11
247.256913
 21
97.936111
 31
0.0
 73
     2
  0
POINT
  8
DEFPOINTS
  6
BYBLOCK
 62
     0
 10
252.729664
 20
99.311111
 30
0.0
  0
POINT
  8
DEFPOINTS
  6
BYBLOCK
 62
     0
 10
252.729664
 20
96.561111
 30
0.0
  0
POINT
  8
DEFPOINTS
  6
BYBLOCK
 62
     0
 10
247.256913
 20
96.561111
 30
0.0
  0
ENDBLK
  8
0
  0
BLOCK
  8
0
  2
*D16
 70
    65
 10
0.0
 20
0.0
 30
0.0
  3
*D
  0
LINE
  8
0
  6
BYBLOCK
 62
     0
 10
215.054326
 20
60.686028
 30
0.0
 11
215.054326
 21
55.501211
 31
0.0
  0
LINE
  8
0
  6
BYBLOCK
 62
     0
 10
206.100826
 20
59.374028
 30
0.0
 11
206.100826
 21
55.501211
 31
0.0
  0
LINE
  8
0
  6
BYBLOCK
 62
     0
 10
217.574326
 20
56.803211
 30
0.0
 11
220.094326
 21
56.803211
 31
0.0
  0
LINE
  8
0
  6
BYBLOCK
 62
     0
 10
203.580826
 20
56.803211
 30
0.0
 11
201.060826
 21
56.803211
 31
0.0
  0
SOLID
  8
0
  6
BYBLOCK
 62
     0
 10
217.574326
 20
57.223211
 30
0.0
 11
217.574326
 21
56.383211
 31
0.0
 12
215.054326
 22
56.803211
 32
0.0
 13
215.054326
 23
56.803211
 33
0.0
  0
SOLID
  8
0
  6
BYBLOCK
 62
     0
 10
203.580826
 20
57.223211
 30
0.0
 11
203.580826
 21
56.383211
 31
0.0
 12
206.100826
 22
56.803211
 32
0.0
 13
206.100826
 23
56.803211
 33
0.0
  0
TEXT
  8
0
  6
BYBLOCK
 62
     0
 10
207.952576
 20
55.928211
 30
0.0
 40
1.75
  1
8.953
 41
0.75
  7
TXT
 72
     1
 11
210.577576
 21
56.803211
 31
0.0
 73
     2
  0
POINT
  8
DEFPOINTS
  6
BYBLOCK
 62
     0
 10
215.054326
 20
61.568028
 30
0.0
  0
POINT
  8
DEFPOINTS
  6
BYBLOCK
 62
     0
 10
206.100826
 20
60.256028
 30
0.0
  0
POINT
  8
DEFPOINTS
  6
BYBLOCK
 62
     0
 10
206.100826
 20
56.803211
 30
0.0
  0
ENDBLK
  8
0
  0
BLOCK
  8
0
  2
*D17
 70
    65
 10
0.0
 20
0.0
 30
0.0
  3
*D
  0
LINE
  8
0
  6
BYBLOCK
 62
     0
 10
300.483205
 20
41.671908
 30
0.0
 11
292.965699
 21
41.671908
 31
0.0
  0
LINE
  8
0
  6
BYBLOCK
 62
     0
 10
300.483205
 20
38.671908
 30
0.0
 11
292.965699
 21
38.671908
 31
0.0
  0
LINE
  8
0
  6
BYBLOCK
 62
     0
 10
294.267699
 20
44.191908
 30
0.0
 11
294.267699
 21
46.711908
 31
0.0
  0
LINE
  8
0
  6
BYBLOCK
 62
     0
 10
294.267699
 20
36.151908
 30
0.0
 11
294.267699
 21
33.631908
 31
0.0
  0
SOLID
  8
0
  6
BYBLOCK
 62
     0
 10
293.847699
 20
44.191908
 30
0.0
 11
294.687699
 21
44.191908
 31
0.0
 12
294.267699
 22
41.671908
 32
0.0
 13
294.267699
 23
41.671908
 33
0.0
  0
SOLID
  8
0
  6
BYBLOCK
 62
     0
 10
293.847699
 20
36.151908
 30
0.0
 11
294.687699
 21
36.151908
 31
0.0
 12
294.267699
 22
38.671908
 32
0.0
 13
294.267699
 23
38.671908
 33
0.0
  0
TEXT
  8
0
  6
BYBLOCK
 62
     0
 10
291.970824
 20
39.296908
 30
0.0
 40
1.75
  1
3.000
 41
0.75
  7
TXT
 72
     1
 11
294.267699
 21
40.171908
 31
0.0
 73
     2
  0
POINT
  8
DEFPOINTS
  6
BYBLOCK
 62
     0
 10
301.365205
 20
41.671908
 30
0.0
  0
POINT
  8
DEFPOINTS
  6
BYBLOCK
 62
     0
 10
301.365205
 20
38.671908
 30
0.0
  0
POINT
  8
DEFPOINTS
  6
BYBLOCK
 62
     0
 10
294.267699
 20
38.671908
 30
0.0
  0
ENDBLK
  8
0
  0
BLOCK
  8
0
  2
*D18
 70
    65
 10
0.0
 20
0.0
 30
0.0
  3
*D
  0
LINE
  8
0
  6
BYBLOCK
 62
     0
 10
277.018414
 20
130.467111
 30
0.0
 11
287.961649
 21
130.467111
 31
0.0
  0
LINE
  8
0
  6
BYBLOCK
 62
     0
 10
282.986414
 20
135.592111
 30
0.0
 11
287.961649
 21
135.592111
 31
0.0
  0
LINE
  8
0
  6
BYBLOCK
 62
     0
 10
286.659649
 20
127.947111
 30
0.0
 11
286.659649
 21
125.427111
 31
0.0
  0
LINE
  8
0
  6
BYBLOCK
 62
     0
 10
286.659649
 20
138.112111
 30
0.0
 11
286.659649
 21
140.632111
 31
0.0
  0
SOLID
  8
0
  6
BYBLOCK
 62
     0
 10
286.239649
 20
127.947111
 30
0.0
 11
287.079649
 21
127.947111
 31
0.0
 12
286.659649
 22
130.467111
 32
0.0
 13
286.659649
 23
130.467111
 33
0.0
  0
SOLID
  8
0
  6
BYBLOCK
 62
     0
 10
286.239649
 20
138.112111
 30
0.0
 11
287.079649
 21
138.112111
 31
0.0
 12
286.659649
 22
135.592111
 32
0.0
 13
286.659649
 23
135.592111
 33
0.0
  0
TEXT
  8
0
  6
BYBLOCK
 62
     0
 10
284.253399
 20
132.154611
 30
0.0
 40
1.75
  1
5.125
 41
0.75
  7
TXT
 72
     1
 11
286.659649
 21
133.029611
 31
0.0
 73
     2
  0
POINT
  8
DEFPOINTS
  6
BYBLOCK
 62
     0
 10
276.136414
 20
130.467111
 30
0.0
  0
POINT
  8
DEFPOINTS
  6
BYBLOCK
 62
     0
 10
282.104414
 20
135.592111
 30
0.0
  0
POINT
  8
DEFPOINTS
  6
BYBLOCK
 62
     0
 10
286.659649
 20
135.592111
 30
0.0
  0
ENDBLK
  8
0
  0
BLOCK
  8
0
  2
*D19
 70
    65
 10
0.0
 20
0.0
 30
0.0
  3
*D
  0
LINE
  8
0
  6
BYBLOCK
 62
     0
 10
277.518414
 20
65.405111
 30
0.0
 11
287.961649
 21
65.405111
 31
0.0
  0
LINE
  8
0
  6
BYBLOCK
 62
     0
 10
282.986414
 20
60.280111
 30
0.0
 11
287.961649
 21
60.280111
 31
0.0
  0
LINE
  8
0
  6
BYBLOCK
 62
     0
 10
286.659649
 20
67.925111
 30
0.0
 11
286.659649
 21
70.445111
 31
0.0
  0
LINE
  8
0
  6
BYBLOCK
 62
     0
 10
286.659649
 20
57.760111
 30
0.0
 11
286.659649
 21
55.240111
 31
0.0
  0
SOLID
  8
0
  6
BYBLOCK
 62
     0
 10
286.239649
 20
67.925111
 30
0.0
 11
287.079649
 21
67.925111
 31
0.0
 12
286.659649
 22
65.405111
 32
0.0
 13
286.659649
 23
65.405111
 33
0.0
  0
SOLID
  8
0
  6
BYBLOCK
 62
     0
 10
286.239649
 20
57.760111
 30
0.0
 11
287.079649
 21
57.760111
 31
0.0
 12
286.659649
 22
60.280111
 32
0.0
 13
286.659649
 23
60.280111
 33
0.0
  0
TEXT
  8
0
  6
BYBLOCK
 62
     0
 10
284.253399
 20
61.967611
 30
0.0
 40
1.75
  1
5.125
 41
0.75
  7
TXT
 72
     1
 11
286.659649
 21
62.842611
 31
0.0
 73
     2
  0
POINT
  8
DEFPOINTS
  6
BYBLOCK
 62
     0
 10
276.636414
 20
65.405111
 30
0.0
  0
POINT
  8
DEFPOINTS
  6
BYBLOCK
 62
     0
 10
282.104414
 20
60.280111
 30
0.0
  0
POINT
  8
DEFPOINTS
  6
BYBLOCK
 62
     0
 10
286.659649
 20
60.280111
 30
0.0
  0
ENDBLK
  8
0
  0
BLOCK
  8
0
  2
*D20
 70
    65
 10
0.0
 20
0.0
 30
0.0
  3
*D
  0
LINE
  8
0
  6
BYBLOCK
 62
     0
 10
298.077205
 20
43.499908
 30
0.0
 11
288.163699
 21
43.499908
 31
0.0
  0
LINE
  8
0
  6
BYBLOCK
 62
     0
 10
300.483205
 20
41.671908
 30
0.0
 11
288.163699
 21
41.671908
 31
0.0
  0
LINE
  8
0
  6
BYBLOCK
 62
     0
 10
289.465699
 20
46.019908
 30
0.0
 11
289.465699
 21
48.539908
 31
0.0
  0
LINE
  8
0
  6
BYBLOCK
 62
     0
 10
289.465699
 20
39.151908
 30
0.0
 11
289.465699
 21
36.631908
 31
0.0
  0
LINE
  8
0
  6
BYBLOCK
 62
     0
 10
289.465699
 20
36.631908
 30
0.0
 11
286.945699
 21
36.631908
 31
0.0
  0
SOLID
  8
0
  6
BYBLOCK
 62
     0
 10
289.045699
 20
46.019908
 30
0.0
 11
289.885699
 21
46.019908
 31
0.0
 12
289.465699
 22
43.499908
 32
0.0
 13
289.465699
 23
43.499908
 33
0.0
  0
SOLID
  8
0
  6
BYBLOCK
 62
     0
 10
289.045699
 20
39.151908
 30
0.0
 11
289.885699
 21
39.151908
 31
0.0
 12
289.465699
 22
41.671908
 32
0.0
 13
289.465699
 23
41.671908
 33
0.0
  0
TEXT
  8
0
  6
BYBLOCK
 62
     0
 10
280.873199
 20
35.756908
 30
0.0
 40
1.75
  1
1.828
 41
0.75
  7
TXT
 72
     1
 11
283.279449
 21
36.631908
 31
0.0
 73
     2
  0
POINT
  8
DEFPOINTS
  6
BYBLOCK
 62
     0
 10
298.959205
 20
43.499908
 30
0.0
  0
POINT
  8
DEFPOINTS
  6
BYBLOCK
 62
     0
 10
301.365205
 20
41.671908
 30
0.0
  0
POINT
  8
DEFPOINTS
  6
BYBLOCK
 62
     0
 10
289.465699
 20
41.671908
 30
0.0
  0
ENDBLK
  8
0
  0
BLOCK
  8
0
  2
*D21
 70
    65
 10
0.0
 20
0.0
 30
0.0
  3
*D
  0
LINE
  8
0
  6
BYBLOCK
 62
     0
 10
224.147326
 20
60.686028
 30
0.0
 11
224.147326
 21
52.001211
 31
0.0
  0
LINE
  8
0
  6
BYBLOCK
 62
     0
 10
215.054326
 20
60.686028
 30
0.0
 11
215.054326
 21
52.001211
 31
0.0
  0
LINE
  8
0
  6
BYBLOCK
 62
     0
 10
226.667326
 20
53.303211
 30
0.0
 11
229.187326
 21
53.303211
 31
0.0
  0
LINE
  8
0
  6
BYBLOCK
 62
     0
 10
212.534326
 20
53.303211
 30
0.0
 11
210.014326
 21
53.303211
 31
0.0
  0
SOLID
  8
0
  6
BYBLOCK
 62
     0
 10
226.667326
 20
53.723211
 30
0.0
 11
226.667326
 21
52.883211
 31
0.0
 12
224.147326
 22
53.303211
 32
0.0
 13
224.147326
 23
53.303211
 33
0.0
  0
SOLID
  8
0
  6
BYBLOCK
 62
     0
 10
212.534326
 20
53.723211
 30
0.0
 11
212.534326
 21
52.883211
 31
0.0
 12
215.054326
 22
53.303211
 32
0.0
 13
215.054326
 23
53.303211
 33
0.0
  0
TEXT
  8
0
  6
BYBLOCK
 62
     0
 10
217.085201
 20
52.428211
 30
0.0
 40
1.75
  1
9.093
 41
0.75
  7
TXT
 72
     1
 11
219.600826
 21
53.303211
 31
0.0
 73
     2
  0
POINT
  8
DEFPOINTS
  6
BYBLOCK
 62
     0
 10
224.147326
 20
61.568028
 30
0.0
  0
POINT
  8
DEFPOINTS
  6
BYBLOCK
 62
     0
 10
215.054326
 20
61.568028
 30
0.0
  0
POINT
  8
DEFPOINTS
  6
BYBLOCK
 62
     0
 10
215.054326
 20
53.303211
 30
0.0
  0
ENDBLK
  8
0
  0
BLOCK
  8
0
  2
*D22
 70
    65
 10
0.0
 20
0.0
 30
0.0
  3
*D
  0
LINE
  8
0
  6
BYBLOCK
 62
     0
 10
298.959205
 20
136.450028
 30
0.0
 11
298.959205
 21
140.682756
 31
0.0
  0
LINE
  8
0
  6
BYBLOCK
 62
     0
 10
325.959205
 20
136.450028
 30
0.0
 11
325.959205
 21
140.682756
 31
0.0
  0
LINE
  8
0
  6
BYBLOCK
 62
     0
 10
301.479205
 20
139.380756
 30
0.0
 11
308.24608
 21
139.380756
 31
0.0
  0
LINE
  8
0
  6
BYBLOCK
 62
     0
 10
323.439205
 20
139.380756
 30
0.0
 11
316.67233
 21
139.380756
 31
0.0
  0
SOLID
  8
0
  6
BYBLOCK
 62
     0
 10
301.479205
 20
139.800756
 30
0.0
 11
301.479205
 21
138.960756
 31
0.0
 12
298.959205
 22
139.380756
 32
0.0
 13
298.959205
 23
139.380756
 33
0.0
  0
SOLID
  8
0
  6
BYBLOCK
 62
     0
 10
323.439205
 20
139.800756
 30
0.0
 11
323.439205
 21
138.960756
 31
0.0
 12
325.959205
 22
139.380756
 32
0.0
 13
325.959205
 23
139.380756
 33
0.0
  0
TEXT
  8
0
  6
BYBLOCK
 62
     0
 10
309.50608
 20
138.505756
 30
0.0
 40
1.75
  1
27.000
 41
0.75
  7
TXT
 72
     1
 11
312.459205
 21
139.380756
 31
0.0
 73
     2
  0
POINT
  8
DEFPOINTS
  6
BYBLOCK
 62
     0
 10
298.959205
 20
135.568028
 30
0.0
  0
POINT
  8
DEFPOINTS
  6
BYBLOCK
 62
     0
 10
325.959205
 20
135.568028
 30
0.0
  0
POINT
  8
DEFPOINTS
  6
BYBLOCK
 62
     0
 10
325.959205
 20
139.380756
 30
0.0
  0
ENDBLK
  8
0
  0
BLOCK
  8
0
  2
*D23
 70
    65
 10
0.0
 20
0.0
 30
0.0
  3
*D
  0
LINE
  8
0
  6
BYBLOCK
 62
     0
 10
298.959205
 20
44.381908
 30
0.0
 11
298.959205
 21
51.005421
 31
0.0
  0
LINE
  8
0
  6
BYBLOCK
 62
     0
 10
301.365205
 20
42.553908
 30
0.0
 11
301.365205
 21
51.005421
 31
0.0
  0
LINE
  8
0
  6
BYBLOCK
 62
     0
 10
296.439205
 20
49.703421
 30
0.0
 11
293.919205
 21
49.703421
 31
0.0
  0
LINE
  8
0
  6
BYBLOCK
 62
     0
 10
303.885205
 20
49.703421
 30
0.0
 11
306.405205
 21
49.703421
 31
0.0
  0
SOLID
  8
0
  6
BYBLOCK
 62
     0
 10
296.439205
 20
50.123421
 30
0.0
 11
296.439205
 21
49.283421
 31
0.0
 12
298.959205
 22
49.703421
 32
0.0
 13
298.959205
 23
49.703421
 33
0.0
  0
SOLID
  8
0
  6
BYBLOCK
 62
     0
 10
303.885205
 20
50.123421
 30
0.0
 11
303.885205
 21
49.283421
 31
0.0
 12
301.365205
 22
49.703421
 32
0.0
 13
301.365205
 23
49.703421
 33
0.0
  0
TEXT
  8
0
  6
BYBLOCK
 62
     0
 10
307.665205
 20
48.828421
 30
0.0
 40
1.75
  1
2.406
 41
0.75
  7
TXT
 72
     1
 11
310.18083
 21
49.703421
 31
0.0
 73
     2
  0
POINT
  8
DEFPOINTS
  6
BYBLOCK
 62
     0
 10
298.959205
 20
43.499908
 30
0.0
  0
POINT
  8
DEFPOINTS
  6
BYBLOCK
 62
     0
 10
301.365205
 20
41.671908
 30
0.0
  0
POINT
  8
DEFPOINTS
  6
BYBLOCK
 62
     0
 10
301.365205
 20
49.703421
 30
0.0
  0
ENDBLK
  8
0
  0
BLOCK
  8
0
  2
*D24
 70
    65
 10
0.0
 20
0.0
 30
0.0
  3
*D
  0
LINE
  8
0
  6
BYBLOCK
 62
     0
 10
301.365205
 20
42.553908
 30
0.0
 11
301.365205
 21
47.505421
 31
0.0
  0
LINE
  8
0
  6
BYBLOCK
 62
     0
 10
303.115205
 20
42.553908
 30
0.0
 11
303.115205
 21
47.505421
 31
0.0
  0
LINE
  8
0
  6
BYBLOCK
 62
     0
 10
298.845205
 20
46.203421
 30
0.0
 11
296.325205
 21
46.203421
 31
0.0
  0
LINE
  8
0
  6
BYBLOCK
 62
     0
 10
305.635205
 20
46.203421
 30
0.0
 11
308.155205
 21
46.203421
 31
0.0
  0
SOLID
  8
0
  6
BYBLOCK
 62
     0
 10
298.845205
 20
46.623421
 30
0.0
 11
298.845205
 21
45.783421
 31
0.0
 12
301.365205
 22
46.203421
 32
0.0
 13
301.365205
 23
46.203421
 33
0.0
  0
SOLID
  8
0
  6
BYBLOCK
 62
     0
 10
305.635205
 20
46.623421
 30
0.0
 11
305.635205
 21
45.783421
 31
0.0
 12
303.115205
 22
46.203421
 32
0.0
 13
303.115205
 23
46.203421
 33
0.0
  0
TEXT
  8
0
  6
BYBLOCK
 62
     0
 10
309.415205
 20
45.328421
 30
0.0
 40
1.75
  1
1.750
 41
0.75
  7
TXT
 72
     1
 11
311.71208
 21
46.203421
 31
0.0
 73
     2
  0
POINT
  8
DEFPOINTS
  6
BYBLOCK
 62
     0
 10
301.365205
 20
41.671908
 30
0.0
  0
POINT
  8
DEFPOINTS
  6
BYBLOCK
 62
     0
 10
303.115205
 20
41.671908
 30
0.0
  0
POINT
  8
DEFPOINTS
  6
BYBLOCK
 62
     0
 10
303.115205
 20
46.203421
 30
0.0
  0
ENDBLK
  8
0
  0
BLOCK
  8
0
  2
*D25
 70
    65
 10
0.0
 20
0.0
 30
0.0
  3
*D
  0
LINE
  8
0
  6
BYBLOCK
 62
     0
 10
317.005705
 20
13.695908
 30
0.0
 11
317.005705
 21
5.350403
 31
0.0
  0
LINE
  8
0
  6
BYBLOCK
 62
     0
 10
325.959205
 20
12.383908
 30
0.0
 11
325.959205
 21
5.350403
 31
0.0
  0
LINE
  8
0
  6
BYBLOCK
 62
     0
 10
314.485705
 20
6.652403
 30
0.0
 11
311.965705
 21
6.652403
 31
0.0
  0
LINE
  8
0
  6
BYBLOCK
 62
     0
 10
328.479205
 20
6.652403
 30
0.0
 11
330.999205
 21
6.652403
 31
0.0
  0
SOLID
  8
0
  6
BYBLOCK
 62
     0
 10
314.485705
 20
7.072403
 30
0.0
 11
314.485705
 21
6.232403
 31
0.0
 12
317.005705
 22
6.652403
 32
0.0
 13
317.005705
 23
6.652403
 33
0.0
  0
SOLID
  8
0
  6
BYBLOCK
 62
     0
 10
328.479205
 20
7.072403
 30
0.0
 11
328.479205
 21
6.232403
 31
0.0
 12
325.959205
 22
6.652403
 32
0.0
 13
325.959205
 23
6.652403
 33
0.0
  0
TEXT
  8
0
  6
BYBLOCK
 62
     0
 10
318.857455
 20
5.777403
 30
0.0
 40
1.75
  1
8.953
 41
0.75
  7
TXT
 72
     1
 11
321.482455
 21
6.652403
 31
0.0
 73
     2
  0
POINT
  8
DEFPOINTS
  6
BYBLOCK
 62
     0
 10
317.005705
 20
14.577908
 30
0.0
  0
POINT
  8
DEFPOINTS
  6
BYBLOCK
 62
     0
 10
325.959205
 20
13.265908
 30
0.0
  0
POINT
  8
DEFPOINTS
  6
BYBLOCK
 62
     0
 10
325.959205
 20
6.652403
 30
0.0
  0
ENDBLK
  8
0
  0
BLOCK
  8
0
  2
*D26
 70
    65
 10
0.0
 20
0.0
 30
0.0
  3
*D
  0
LINE
  8
0
  6
BYBLOCK
 62
     0
 10
58.107883
 20
128.538905
 30
0.0
 11
58.107883
 21
141.997551
 31
0.0
  0
LINE
  8
0
  6
BYBLOCK
 62
     0
 10
52.639883
 20
134.288905
 30
0.0
 11
52.639883
 21
141.997551
 31
0.0
  0
LINE
  8
0
  6
BYBLOCK
 62
     0
 10
60.627883
 20
140.695551
 30
0.0
 11
63.147883
 21
140.695551
 31
0.0
  0
LINE
  8
0
  6
BYBLOCK
 62
     0
 10
50.119883
 20
140.695551
 30
0.0
 11
47.599883
 21
140.695551
 31
0.0
  0
SOLID
  8
0
  6
BYBLOCK
 62
     0
 10
60.627883
 20
141.115551
 30
0.0
 11
60.627883
 21
140.275551
 31
0.0
 12
58.107883
 22
140.695551
 32
0.0
 13
58.107883
 23
140.695551
 33
0.0
  0
SOLID
  8
0
  6
BYBLOCK
 62
     0
 10
50.119883
 20
141.115551
 30
0.0
 11
50.119883
 21
140.275551
 31
0.0
 12
52.639883
 22
140.695551
 32
0.0
 13
52.639883
 23
140.695551
 33
0.0
  0
TEXT
  8
0
  6
BYBLOCK
 62
     0
 10
41.089883
 20
139.820551
 30
0.0
 40
1.75
  1
5.468
 41
0.75
  7
TXT
 72
     1
 11
43.714883
 21
140.695551
 31
0.0
 73
     2
  0
POINT
  8
DEFPOINTS
  6
BYBLOCK
 62
     0
 10
58.107883
 20
127.656905
 30
0.0
  0
POINT
  8
DEFPOINTS
  6
BYBLOCK
 62
     0
 10
52.639883
 20
133.406905
 30
0.0
  0
POINT
  8
DEFPOINTS
  6
BYBLOCK
 62
     0
 10
52.639883
 20
140.695551
 30
0.0
  0
ENDBLK
  8
0
  0
BLOCK
  8
0
  2
*D27
 70
    65
 10
0.0
 20
0.0
 30
0.0
  3
*D
  0
LINE
  8
0
  6
BYBLOCK
 62
     0
 10
52.639883
 20
134.288905
 30
0.0
 11
52.639883
 21
145.497551
 31
0.0
  0
LINE
  8
0
  6
BYBLOCK
 62
     0
 10
83.389883
 20
134.288905
 30
0.0
 11
83.389883
 21
145.497551
 31
0.0
  0
LINE
  8
0
  6
BYBLOCK
 62
     0
 10
55.159883
 20
144.195551
 30
0.0
 11
63.692383
 21
144.195551
 31
0.0
  0
LINE
  8
0
  6
BYBLOCK
 62
     0
 10
80.869883
 20
144.195551
 30
0.0
 11
72.337383
 21
144.195551
 31
0.0
  0
SOLID
  8
0
  6
BYBLOCK
 62
     0
 10
55.159883
 20
144.615551
 30
0.0
 11
55.159883
 21
143.775551
 31
0.0
 12
52.639883
 22
144.195551
 32
0.0
 13
52.639883
 23
144.195551
 33
0.0
  0
SOLID
  8
0
  6
BYBLOCK
 62
     0
 10
80.869883
 20
144.615551
 30
0.0
 11
80.869883
 21
143.775551
 31
0.0
 12
83.389883
 22
144.195551
 32
0.0
 13
83.389883
 23
144.195551
 33
0.0
  0
TEXT
  8
0
  6
BYBLOCK
 62
     0
 10
64.952383
 20
143.320551
 30
0.0
 40
1.75
  1
30.750
 41
0.75
  7
TXT
 72
     1
 11
68.014883
 21
144.195551
 31
0.0
 73
     2
  0
POINT
  8
DEFPOINTS
  6
BYBLOCK
 62
     0
 10
52.639883
 20
133.406905
 30
0.0
  0
POINT
  8
DEFPOINTS
  6
BYBLOCK
 62
     0
 10
83.389883
 20
133.406905
 30
0.0
  0
POINT
  8
DEFPOINTS
  6
BYBLOCK
 62
     0
 10
83.389883
 20
144.195551
 30
0.0
  0
ENDBLK
  8
0
  0
BLOCK
  8
0
  2
*D28
 70
    65
 10
0.0
 20
0.0
 30
0.0
  3
*D
  0
LINE
  8
0
  6
BYBLOCK
 62
     0
 10
128.126674
 20
12.245744
 30
0.0
 11
131.709184
 21
12.245744
 31
0.0
  0
LINE
  8
0
  6
BYBLOCK
 62
     0
 10
119.173174
 20
14.073744
 30
0.0
 11
131.709184
 21
14.073744
 31
0.0
  0
LINE
  8
0
  6
BYBLOCK
 62
     0
 10
130.407184
 20
9.725744
 30
0.0
 11
130.407184
 21
7.205744
 31
0.0
  0
LINE
  8
0
  6
BYBLOCK
 62
     0
 10
130.407184
 20
16.593744
 30
0.0
 11
130.407184
 21
19.113744
 31
0.0
  0
LINE
  8
0
  6
BYBLOCK
 62
     0
 10
130.407184
 20
19.113744
 30
0.0
 11
132.927184
 21
19.113744
 31
0.0
  0
SOLID
  8
0
  6
BYBLOCK
 62
     0
 10
129.987184
 20
9.725744
 30
0.0
 11
130.827184
 21
9.725744
 31
0.0
 12
130.407184
 22
12.245744
 32
0.0
 13
130.407184
 23
12.245744
 33
0.0
  0
SOLID
  8
0
  6
BYBLOCK
 62
     0
 10
129.987184
 20
16.593744
 30
0.0
 11
130.827184
 21
16.593744
 31
0.0
 12
130.407184
 22
14.073744
 32
0.0
 13
130.407184
 23
14.073744
 33
0.0
  0
TEXT
  8
0
  6
BYBLOCK
 62
     0
 10
134.187184
 20
18.238744
 30
0.0
 40
1.75
  1
1.828
 41
0.75
  7
TXT
 72
     1
 11
136.593434
 21
19.113744
 31
0.0
 73
     2
  0
POINT
  8
DEFPOINTS
  6
BYBLOCK
 62
     0
 10
127.244674
 20
12.245744
 30
0.0
  0
POINT
  8
DEFPOINTS
  6
BYBLOCK
 62
     0
 10
118.291174
 20
14.073744
 30
0.0
  0
POINT
  8
DEFPOINTS
  6
BYBLOCK
 62
     0
 10
130.407184
 20
14.073744
 30
0.0
  0
ENDBLK
  8
0
  0
BLOCK
  8
0
  2
*D29
 70
    65
 10
0.0
 20
0.0
 30
0.0
  3
*D
  0
LINE
  8
0
  6
BYBLOCK
 62
     0
 10
100.801674
 20
57.485763
 30
0.0
 11
94.09513
 21
57.485763
 31
0.0
  0
LINE
  8
0
  6
BYBLOCK
 62
     0
 10
100.801674
 20
127.547763
 30
0.0
 11
94.09513
 21
127.547763
 31
0.0
  0
LINE
  8
0
  6
BYBLOCK
 62
     0
 10
95.39713
 20
60.005763
 30
0.0
 11
95.39713
 21
90.381763
 31
0.0
  0
LINE
  8
0
  6
BYBLOCK
 62
     0
 10
95.39713
 20
125.027763
 30
0.0
 11
95.39713
 21
94.651763
 31
0.0
  0
SOLID
  8
0
  6
BYBLOCK
 62
     0
 10
94.97713
 20
60.005763
 30
0.0
 11
95.81713
 21
60.005763
 31
0.0
 12
95.39713
 22
57.485763
 32
0.0
 13
95.39713
 23
57.485763
 33
0.0
  0
SOLID
  8
0
  6
BYBLOCK
 62
     0
 10
94.97713
 20
125.027763
 30
0.0
 11
95.81713
 21
125.027763
 31
0.0
 12
95.39713
 22
127.547763
 32
0.0
 13
95.39713
 23
127.547763
 33
0.0
  0
TEXT
  8
0
  6
BYBLOCK
 62
     0
 10
92.33463
 20
91.641763
 30
0.0
 40
1.75
  1
70.062
 41
0.75
  7
TXT
 72
     1
 11
95.39713
 21
92.516763
 31
0.0
 73
     2
  0
POINT
  8
DEFPOINTS
  6
BYBLOCK
 62
     0
 10
101.683674
 20
57.485763
 30
0.0
  0
POINT
  8
DEFPOINTS
  6
BYBLOCK
 62
     0
 10
101.683674
 20
127.547763
 30
0.0
  0
POINT
  8
DEFPOINTS
  6
BYBLOCK
 62
     0
 10
95.39713
 20
127.547763
 30
0.0
  0
ENDBLK
  8
0
  0
BLOCK
  8
0
  2
*D30
 70
    65
 10
0.0
 20
0.0
 30
0.0
  3
*D
  0
LINE
  8
0
  6
BYBLOCK
 62
     0
 10
100.801674
 20
57.485763
 30
0.0
 11
94.09513
 21
57.485763
 31
0.0
  0
LINE
  8
0
  6
BYBLOCK
 62
     0
 10
99.362674
 20
54.860763
 30
0.0
 11
94.09513
 21
54.860763
 31
0.0
  0
LINE
  8
0
  6
BYBLOCK
 62
     0
 10
95.39713
 20
60.005763
 30
0.0
 11
95.39713
 21
62.525763
 31
0.0
  0
LINE
  8
0
  6
BYBLOCK
 62
     0
 10
95.39713
 20
52.340763
 30
0.0
 11
95.39713
 21
49.820763
 31
0.0
  0
SOLID
  8
0
  6
BYBLOCK
 62
     0
 10
94.97713
 20
60.005763
 30
0.0
 11
95.81713
 21
60.005763
 31
0.0
 12
95.39713
 22
57.485763
 32
0.0
 13
95.39713
 23
57.485763
 33
0.0
  0
SOLID
  8
0
  6
BYBLOCK
 62
     0
 10
94.97713
 20
52.340763
 30
0.0
 11
95.81713
 21
52.340763
 31
0.0
 12
95.39713
 22
54.860763
 32
0.0
 13
95.39713
 23
54.860763
 33
0.0
  0
TEXT
  8
0
  6
BYBLOCK
 62
     0
 10
92.77213
 20
55.298263
 30
0.0
 40
1.75
  1
2.625
 41
0.75
  7
TXT
 72
     1
 11
95.39713
 21
56.173263
 31
0.0
 73
     2
  0
POINT
  8
DEFPOINTS
  6
BYBLOCK
 62
     0
 10
101.683674
 20
57.485763
 30
0.0
  0
POINT
  8
DEFPOINTS
  6
BYBLOCK
 62
     0
 10
100.244674
 20
54.860763
 30
0.0
  0
POINT
  8
DEFPOINTS
  6
BYBLOCK
 62
     0
 10
95.39713
 20
54.860763
 30
0.0
  0
ENDBLK
  8
0
  0
BLOCK
  8
0
  2
*D31
 70
    65
 10
0.0
 20
0.0
 30
0.0
  3
*D
  0
LINE
  8
0
  6
BYBLOCK
 62
     0
 10
100.801674
 20
127.547763
 30
0.0
 11
94.09513
 21
127.547763
 31
0.0
  0
LINE
  8
0
  6
BYBLOCK
 62
     0
 10
99.362674
 20
130.172763
 30
0.0
 11
94.09513
 21
130.172763
 31
0.0
  0
LINE
  8
0
  6
BYBLOCK
 62
     0
 10
95.39713
 20
125.027763
 30
0.0
 11
95.39713
 21
122.507763
 31
0.0
  0
LINE
  8
0
  6
BYBLOCK
 62
     0
 10
95.39713
 20
132.692763
 30
0.0
 11
95.39713
 21
135.212763
 31
0.0
  0
SOLID
  8
0
  6
BYBLOCK
 62
     0
 10
94.97713
 20
125.027763
 30
0.0
 11
95.81713
 21
125.027763
 31
0.0
 12
95.39713
 22
127.547763
 32
0.0
 13
95.39713
 23
127.547763
 33
0.0
  0
SOLID
  8
0
  6
BYBLOCK
 62
     0
 10
94.97713
 20
132.692763
 30
0.0
 11
95.81713
 21
132.692763
 31
0.0
 12
95.39713
 22
130.172763
 32
0.0
 13
95.39713
 23
130.172763
 33
0.0
  0
TEXT
  8
0
  6
BYBLOCK
 62
     0
 10
92.77213
 20
127.985263
 30
0.0
 40
1.75
  1
2.625
 41
0.75
  7
TXT
 72
     1
 11
95.39713
 21
128.860263
 31
0.0
 73
     2
  0
POINT
  8
DEFPOINTS
  6
BYBLOCK
 62
     0
 10
101.683674
 20
127.547763
 30
0.0
  0
POINT
  8
DEFPOINTS
  6
BYBLOCK
 62
     0
 10
100.244674
 20
130.172763
 30
0.0
  0
POINT
  8
DEFPOINTS
  6
BYBLOCK
 62
     0
 10
95.39713
 20
130.172763
 30
0.0
  0
ENDBLK
  8
0
  0
BLOCK
  8
0
  2
*D32
 70
    65
 10
0.0
 20
0.0
 30
0.0
  3
*D
  0
LINE
  8
0
  6
BYBLOCK
 62
     0
 10
101.682674
 20
100.90936
 30
0.0
 11
101.682674
 21
102.21136
 31
0.0
  0
LINE
  8
0
  6
BYBLOCK
 62
     0
 10
125.806674
 20
100.90936
 30
0.0
 11
125.806674
 21
102.21136
 31
0.0
  0
LINE
  8
0
  6
BYBLOCK
 62
     0
 10
104.202674
 20
100.90936
 30
0.0
 11
109.422174
 21
100.90936
 31
0.0
  0
LINE
  8
0
  6
BYBLOCK
 62
     0
 10
123.286674
 20
100.90936
 30
0.0
 11
118.067174
 21
100.90936
 31
0.0
  0
SOLID
  8
0
  6
BYBLOCK
 62
     0
 10
104.202674
 20
101.32936
 30
0.0
 11
104.202674
 21
100.48936
 31
0.0
 12
101.682674
 22
100.90936
 32
0.0
 13
101.682674
 23
100.90936
 33
0.0
  0
SOLID
  8
0
  6
BYBLOCK
 62
     0
 10
123.286674
 20
101.32936
 30
0.0
 11
123.286674
 21
100.48936
 31
0.0
 12
125.806674
 22
100.90936
 32
0.0
 13
125.806674
 23
100.90936
 33
0.0
  0
TEXT
  8
0
  6
BYBLOCK
 62
     0
 10
110.682174
 20
100.03436
 30
0.0
 40
1.75
  1
24.124
 41
0.75
  7
TXT
 72
     1
 11
113.744674
 21
100.90936
 31
0.0
 73
     2
  0
POINT
  8
DEFPOINTS
  6
BYBLOCK
 62
     0
 10
101.682674
 20
100.02736
 30
0.0
  0
POINT
  8
DEFPOINTS
  6
BYBLOCK
 62
     0
 10
125.806674
 20
100.02736
 30
0.0
  0
POINT
  8
DEFPOINTS
  6
BYBLOCK
 62
     0
 10
125.806674
 20
100.90936
 30
0.0
  0
ENDBLK
  8
0
  0
BLOCK
  8
0
  2
*X33
 70
    65
 10
0.0
 20
0.0
 30
0.0
  3
*X
  0
LINE
  8
0
 62
     0
 10
111.085033
 20
62.532154
 30
0.0
 11
115.948755
 21
72.96244
 31
0.0
  0
LINE
  8
0
 62
     0
 10
109.915259
 20
61.798217
 30
0.0
 11
114.778981
 21
72.228502
 31
0.0
  0
LINE
  8
0
 62
     0
 10
110.112771
 20
63.996435
 30
0.0
 11
113.609207
 21
71.494565
 31
0.0
  0
LINE
  8
0
 62
     0
 10
110.389584
 20
66.364714
 30
0.0
 11
112.439433
 21
70.760627
 31
0.0
  0
LINE
  8
0
 62
     0
 10
110.666398
 20
68.732993
 30
0.0
 11
111.269659
 21
70.02669
 31
0.0
  0
LINE
  8
0
 62
     0
 10
112.254807
 20
63.266092
 30
0.0
 11
117.118529
 21
73.696377
 31
0.0
  0
LINE
  8
0
 62
     0
 10
113.424581
 20
64.000029
 30
0.0
 11
117.448615
 21
72.629597
 31
0.0
  0
LINE
  8
0
 62
     0
 10
114.594355
 20
64.733967
 30
0.0
 11
117.14672
 21
70.20753
 31
0.0
  0
LINE
  8
0
 62
     0
 10
115.764129
 20
65.467904
 30
0.0
 11
116.844825
 21
67.785463
 31
0.0
  0
ENDBLK
  8
0
  0
BLOCK
  8
0
  2
*X34
 70
    65
 10
0.0
 20
0.0
 30
0.0
  3
*X
  0
LINE
  8
0
 62
     0
 10
110.330307
 20
114.153174
 30
0.0
 11
115.194029
 21
124.58346
 31
0.0
  0
LINE
  8
0
 62
     0
 10
110.014555
 20
115.250694
 30
0.0
 11
114.024255
 21
123.849522
 31
0.0
  0
LINE
  8
0
 62
     0
 10
110.291368
 20
117.618973
 30
0.0
 11
112.854481
 21
123.115585
 31
0.0
  0
LINE
  8
0
 62
     0
 10
110.568181
 20
119.987252
 30
0.0
 11
111.684706
 21
122.381648
 31
0.0
  0
LINE
  8
0
 62
     0
 10
111.500081
 20
114.887112
 30
0.0
 11
116.363803
 21
125.317397
 31
0.0
  0
LINE
  8
0
 62
     0
 10
112.669855
 20
115.621049
 30
0.0
 11
117.533577
 21
126.051335
 31
0.0
  0
LINE
  8
0
 62
     0
 10
113.839629
 20
116.354987
 30
0.0
 11
117.341499
 21
123.864772
 31
0.0
  0
LINE
  8
0
 62
     0
 10
115.009403
 20
117.088924
 30
0.0
 11
117.039604
 21
121.442705
 31
0.0
  0
LINE
  8
0
 62
     0
 10
116.179177
 20
117.822862
 30
0.0
 11
116.737709
 21
119.020638
 31
0.0
  0
ENDBLK
  8
0
  0
BLOCK
  8
0
  2
*D35
 70
    65
 10
0.0
 20
0.0
 30
0.0
  3
*D
  0
LINE
  8
0
  6
BYBLOCK
 62
     0
 10
64.054607
 20
158.318132
 30
0.0
 11
70.764955
 21
158.318132
 31
0.0
  0
LINE
  8
0
  6
BYBLOCK
 62
     0
 10
64.054607
 20
153.818132
 30
0.0
 11
70.764955
 21
153.818132
 31
0.0
  0
LINE
  8
0
  6
BYBLOCK
 62
     0
 10
69.462955
 20
160.838132
 30
0.0
 11
69.462955
 21
163.358132
 31
0.0
  0
LINE
  8
0
  6
BYBLOCK
 62
     0
 10
69.462955
 20
151.298132
 30
0.0
 11
69.462955
 21
148.778132
 31
0.0
  0
SOLID
  8
0
  6
BYBLOCK
 62
     0
 10
69.042955
 20
160.838132
 30
0.0
 11
69.882955
 21
160.838132
 31
0.0
 12
69.462955
 22
158.318132
 32
0.0
 13
69.462955
 23
158.318132
 33
0.0
  0
SOLID
  8
0
  6
BYBLOCK
 62
     0
 10
69.042955
 20
151.298132
 30
0.0
 11
69.882955
 21
151.298132
 31
0.0
 12
69.462955
 22
153.818132
 32
0.0
 13
69.462955
 23
153.818132
 33
0.0
  0
TEXT
  8
0
  6
BYBLOCK
 62
     0
 10
67.056705
 20
155.193132
 30
0.0
 40
1.75
  1
4.500
 41
0.75
  7
TXT
 72
     1
 11
69.462955
 21
156.068132
 31
0.0
 73
     2
  0
POINT
  8
DEFPOINTS
  6
BYBLOCK
 62
     0
 10
63.172607
 20
158.318132
 30
0.0
  0
POINT
  8
DEFPOINTS
  6
BYBLOCK
 62
     0
 10
63.172607
 20
153.818132
 30
0.0
  0
POINT
  8
DEFPOINTS
  6
BYBLOCK
 62
     0
 10
69.462955
 20
153.818132
 30
0.0
  0
ENDBLK
  8
0
  0
BLOCK
  8
0
  2
*D36
 70
    65
 10
0.0
 20
0.0
 30
0.0
  3
*D
  0
LINE
  8
0
  6
BYBLOCK
 62
     0
 10
63.172607
 20
159.200132
 30
0.0
 11
63.172607
 21
163.222172
 31
0.0
  0
LINE
  8
0
  6
BYBLOCK
 62
     0
 10
58.672607
 20
159.200132
 30
0.0
 11
58.672607
 21
163.222172
 31
0.0
  0
LINE
  8
0
  6
BYBLOCK
 62
     0
 10
65.692607
 20
161.920172
 30
0.0
 11
68.212607
 21
161.920172
 31
0.0
  0
LINE
  8
0
  6
BYBLOCK
 62
     0
 10
56.152607
 20
161.920172
 30
0.0
 11
53.632607
 21
161.920172
 31
0.0
  0
SOLID
  8
0
  6
BYBLOCK
 62
     0
 10
65.692607
 20
162.340172
 30
0.0
 11
65.692607
 21
161.500172
 31
0.0
 12
63.172607
 22
161.920172
 32
0.0
 13
63.172607
 23
161.920172
 33
0.0
  0
SOLID
  8
0
  6
BYBLOCK
 62
     0
 10
56.152607
 20
162.340172
 30
0.0
 11
56.152607
 21
161.500172
 31
0.0
 12
58.672607
 22
161.920172
 32
0.0
 13
58.672607
 23
161.920172
 33
0.0
  0
TEXT
  8
0
  6
BYBLOCK
 62
     0
 10
47.560107
 20
161.045172
 30
0.0
 40
1.75
  1
4.500
 41
0.75
  7
TXT
 72
     1
 11
49.966357
 21
161.920172
 31
0.0
 73
     2
  0
POINT
  8
DEFPOINTS
  6
BYBLOCK
 62
     0
 10
63.172607
 20
158.318132
 30
0.0
  0
POINT
  8
DEFPOINTS
  6
BYBLOCK
 62
     0
 10
58.672607
 20
158.318132
 30
0.0
  0
POINT
  8
DEFPOINTS
  6
BYBLOCK
 62
     0
 10
58.672607
 20
161.920172
 30
0.0
  0
ENDBLK
  8
0
  0
BLOCK
  8
0
  2
*D37
 70
    65
 10
0.0
 20
0.0
 30
0.0
  3
*D
  0
LINE
  8
0
  6
BYBLOCK
 62
     0
 10
128.126674
 20
143.385071
 30
0.0
 11
135.370753
 21
143.385071
 31
0.0
  0
LINE
  8
0
  6
BYBLOCK
 62
     0
 10
124.626674
 20
146.885071
 30
0.0
 11
135.370753
 21
146.885071
 31
0.0
  0
LINE
  8
0
  6
BYBLOCK
 62
     0
 10
134.068753
 20
140.865071
 30
0.0
 11
134.068753
 21
138.345071
 31
0.0
  0
LINE
  8
0
  6
BYBLOCK
 62
     0
 10
134.068753
 20
149.405071
 30
0.0
 11
134.068753
 21
151.925071
 31
0.0
  0
SOLID
  8
0
  6
BYBLOCK
 62
     0
 10
133.648753
 20
140.865071
 30
0.0
 11
134.488753
 21
140.865071
 31
0.0
 12
134.068753
 22
143.385071
 32
0.0
 13
134.068753
 23
143.385071
 33
0.0
  0
SOLID
  8
0
  6
BYBLOCK
 62
     0
 10
133.648753
 20
149.405071
 30
0.0
 11
134.488753
 21
149.405071
 31
0.0
 12
134.068753
 22
146.885071
 32
0.0
 13
134.068753
 23
146.885071
 33
0.0
  0
TEXT
  8
0
  6
BYBLOCK
 62
     0
 10
134.068753
 20
144.260071
 30
0.0
 40
1.75
  1
 TYP.
 41
0.75
  7
TXT
 72
     1
 11
136.693753
 21
145.135071
 31
0.0
 73
     2
  0
TEXT
  8
0
  6
BYBLOCK
 62
     0
 10
128.818753
 20
144.260071
 30
0.0
 40
1.75
  1
3.500
 41
0.75
  7
TXT
 72
     1
 11
131.225003
 21
145.135071
 31
0.0
 73
     2
  0
POINT
  8
DEFPOINTS
  6
BYBLOCK
 62
     0
 10
127.244674
 20
143.385071
 30
0.0
  0
POINT
  8
DEFPOINTS
  6
BYBLOCK
 62
     0
 10
123.744674
 20
146.885071
 30
0.0
  0
POINT
  8
DEFPOINTS
  6
BYBLOCK
 62
     0
 10
134.068753
 20
146.885071
 30
0.0
  0
ENDBLK
  8
0
  0
BLOCK
  8
0
  2
*D38
 70
    65
 10
0.0
 20
0.0
 30
0.0
  3
*D
  0
LINE
  8
0
  6
BYBLOCK
 62
     0
 10
127.244674
 20
142.503071
 30
0.0
 11
127.244674
 21
139.078332
 31
0.0
  0
LINE
  8
0
  6
BYBLOCK
 62
     0
 10
123.744674
 20
146.003071
 30
0.0
 11
123.744674
 21
139.078332
 31
0.0
  0
LINE
  8
0
  6
BYBLOCK
 62
     0
 10
129.764674
 20
140.380332
 30
0.0
 11
132.284674
 21
140.380332
 31
0.0
  0
LINE
  8
0
  6
BYBLOCK
 62
     0
 10
121.224674
 20
140.380332
 30
0.0
 11
118.704674
 21
140.380332
 31
0.0
  0
SOLID
  8
0
  6
BYBLOCK
 62
     0
 10
129.764674
 20
140.800332
 30
0.0
 11
129.764674
 21
139.960332
 31
0.0
 12
127.244674
 22
140.380332
 32
0.0
 13
127.244674
 23
140.380332
 33
0.0
  0
SOLID
  8
0
  6
BYBLOCK
 62
     0
 10
121.224674
 20
140.800332
 30
0.0
 11
121.224674
 21
139.960332
 31
0.0
 12
123.744674
 22
140.380332
 32
0.0
 13
123.744674
 23
140.380332
 33
0.0
  0
TEXT
  8
0
  6
BYBLOCK
 62
     0
 10
112.194674
 20
139.505332
 30
0.0
 40
1.75
  1
 TYP.
 41
0.75
  7
TXT
 72
     1
 11
114.819674
 21
140.380332
 31
0.0
 73
     2
  0
TEXT
  8
0
  6
BYBLOCK
 62
     0
 10
106.944674
 20
139.505332
 30
0.0
 40
1.75
  1
3.500
 41
0.75
  7
TXT
 72
     1
 11
109.350924
 21
140.380332
 31
0.0
 73
     2
  0
POINT
  8
DEFPOINTS
  6
BYBLOCK
 62
     0
 10
127.244674
 20
143.385071
 30
0.0
  0
POINT
  8
DEFPOINTS
  6
BYBLOCK
 62
     0
 10
123.744674
 20
146.885071
 30
0.0
  0
POINT
  8
DEFPOINTS
  6
BYBLOCK
 62
     0
 10
123.744674
 20
140.380332
 30
0.0
  0
ENDBLK
  8
0
  0
ENDSEC
  0
SECTION
  2
ENTITIES
  0
ARC
  8
OBJECT
 10
16.339795
 20
56.172763
 30
0.0
 40
0.5545
 50
276.419806
 51
83.580194
  0
LINE
  8
OBJECT
 10
16.277795
 20
55.682978
 30
0.0
 11
16.277795
 21
55.539793
 31
0.0
  0
LINE
  8
OBJECT
 10
16.401795
 20
56.764821
 30
0.0
 11
16.401795
 21
56.801944
 31
0.0
  0
LINE
  8
OBJECT
 10
16.401795
 20
55.682978
 30
0.0
 11
16.401795
 21
55.539793
 31
0.0
  0
ARC
  8
OBJECT
 10
16.339795
 20
56.172763
 30
0.0
 40
0.5545
 50
96.419806
 51
263.580194
  0
LINE
  8
OBJECT
 10
16.277795
 20
56.764821
 30
0.0
 11
16.277795
 21
56.801944
 31
0.0
  0
LINE
  8
OBJECT
 10
16.277795
 20
56.621636
 30
0.0
 11
16.277795
 21
56.764821
 31
0.0
  0
LINE
  8
OBJECT
 10
16.401795
 20
56.764821
 30
0.0
 11
16.401795
 21
56.621636
 31
0.0
  0
LINE
  8
OBJECT
 10
25.370795
 20
56.764821
 30
0.0
 11
25.370795
 21
56.621636
 31
0.0
  0
LINE
  8
OBJECT
 10
25.494795
 20
56.621636
 30
0.0
 11
25.494795
 21
56.764821
 31
0.0
  0
LINE
  8
OBJECT
 10
25.494795
 20
56.764821
 30
0.0
 11
25.494795
 21
56.801944
 31
0.0
  0
ARC
  8
OBJECT
 10
25.432795
 20
56.172763
 30
0.0
 40
0.5545
 50
276.419806
 51
83.580194
  0
LINE
  8
OBJECT
 10
25.370795
 20
55.682978
 30
0.0
 11
25.370795
 21
55.539793
 31
0.0
  0
LINE
  8
OBJECT
 10
25.370795
 20
56.764821
 30
0.0
 11
25.370795
 21
56.801944
 31
0.0
  0
LINE
  8
OBJECT
 10
25.494795
 20
55.682978
 30
0.0
 11
25.494795
 21
55.539793
 31
0.0
  0
ARC
  8
OBJECT
 10
25.432795
 20
56.172763
 30
0.0
 40
0.5545
 50
96.419806
 51
263.580194
  0
LINE
  8
OBJECT
 10
8.824295
 20
127.547763
 30
0.0
 11
32.948295
 21
127.547763
 31
0.0
  0
LINE
  8
OBJECT
 10
32.948295
 20
57.485763
 30
0.0
 11
8.824295
 21
57.485763
 31
0.0
  0
LINE
  8
OBJECT
 10
32.948295
 20
130.110763
 30
0.0
 11
32.948295
 21
54.922763
 31
0.0
  0
LINE
  8
OBJECT
 10
8.824295
 20
54.922763
 30
0.0
 11
8.824295
 21
58.992999
 31
0.0
  0
LINE
  8
OBJECT
 10
34.308295
 20
54.860763
 30
0.0
 11
7.464295
 21
54.860763
 31
0.0
  0
LINE
  8
OBJECT
 10
34.386295
 20
130.110763
 30
0.0
 11
34.386295
 21
54.922763
 31
0.0
  0
LINE
  8
OBJECT
 10
7.464295
 20
130.172763
 30
0.0
 11
34.308295
 21
130.172763
 31
0.0
  0
LINE
  8
OBJECT
 10
7.386295
 20
54.922763
 30
0.0
 11
7.386295
 21
130.110763
 31
0.0
  0
LINE
  8
OBJECT
 10
100.244674
 20
41.265443
 30
0.0
 11
101.682674
 21
41.265443
 31
0.0
  0
LINE
  8
OBJECT
 10
100.244674
 20
41.265443
 30
0.0
 11
100.244674
 21
39.797443
 31
0.0
  0
LINE
  8
OBJECT
 10
127.244674
 20
41.265443
 30
0.0
 11
127.244674
 21
39.797443
 31
0.0
  0
LINE
  8
OBJECT
 10
125.806674
 20
41.265443
 30
0.0
 11
125.806674
 21
41.187443
 31
0.0
  0
LINE
  8
OBJECT
 10
100.244674
 20
39.797443
 30
0.0
 11
100.322674
 21
39.797443
 31
0.0
  0
LINE
  8
OBJECT
 10
101.682674
 20
41.265443
 30
0.0
 11
101.682674
 21
41.187443
 31
0.0
  0
LINE
  8
OBJECT
 10
100.322674
 20
41.187443
 30
0.0
 11
127.166674
 21
41.187443
 31
0.0
  0
LINE
  8
OBJECT
 10
127.166674
 20
41.187443
 30
0.0
 11
127.166674
 21
10.593443
 31
0.0
  0
LINE
  8
OBJECT
 10
100.322674
 20
41.187443
 30
0.0
 11
100.322674
 21
10.593443
 31
0.0
  0
LINE
  8
OBJECT
 10
125.806674
 20
41.265443
 30
0.0
 11
127.244674
 21
41.265443
 31
0.0
  0
LINE
  8
OBJECT
 10
127.166674
 20
39.797443
 30
0.0
 11
127.244674
 21
39.797443
 31
0.0
  0
LINE
  8
OBJECT
 10
100.400674
 20
40.687443
 30
0.0
 11
127.088674
 21
40.687443
 31
0.0
  0
LINE
  8
OBJECT
 10
127.088674
 20
40.687443
 30
0.0
 11
127.088674
 21
41.187443
 31
0.0
  0
LINE
  8
OBJECT
 10
100.400674
 20
40.687443
 30
0.0
 11
100.400674
 21
41.187443
 31
0.0
  0
CIRCLE
  8
OBJECT
 10
124.838674
 20
39.437443
 30
0.0
 40
0.156
  0
CIRCLE
  8
OBJECT
 10
123.088674
 20
39.437443
 30
0.0
 40
0.156
  0
CIRCLE
  8
OBJECT
 10
124.838674
 20
36.437443
 30
0.0
 40
0.156
  0
CIRCLE
  8
OBJECT
 10
123.088674
 20
36.437443
 30
0.0
 40
0.156
  0
CIRCLE
  8
OBJECT
 10
104.400674
 20
36.437443
 30
0.0
 40
0.156
  0
CIRCLE
  8
OBJECT
 10
102.650674
 20
36.437443
 30
0.0
 40
0.156
  0
CIRCLE
  8
OBJECT
 10
104.400674
 20
39.437443
 30
0.0
 40
0.156
  0
CIRCLE
  8
OBJECT
 10
102.650674
 20
39.437443
 30
0.0
 40
0.156
  0
CIRCLE
  8
OBJECT
 10
102.650674
 20
12.343443
 30
0.0
 40
0.156
  0
CIRCLE
  8
OBJECT
 10
104.400674
 20
12.343443
 30
0.0
 40
0.156
  0
CIRCLE
  8
OBJECT
 10
102.650674
 20
15.343443
 30
0.0
 40
0.156
  0
CIRCLE
  8
OBJECT
 10
104.400674
 20
15.343443
 30
0.0
 40
0.156
  0
CIRCLE
  8
OBJECT
 10
123.088674
 20
15.343443
 30
0.0
 40
0.156
  0
CIRCLE
  8
OBJECT
 10
124.838674
 20
15.343443
 30
0.0
 40
0.156
  0
CIRCLE
  8
OBJECT
 10
123.088674
 20
12.343443
 30
0.0
 40
0.156
  0
CIRCLE
  8
OBJECT
 10
124.838674
 20
12.343443
 30
0.0
 40
0.156
  0
LINE
  8
OBJECT
 10
100.400674
 20
11.093443
 30
0.0
 11
100.400674
 21
10.593443
 31
0.0
  0
LINE
  8
OBJECT
 10
127.088674
 20
11.093443
 30
0.0
 11
127.088674
 21
10.593443
 31
0.0
  0
LINE
  8
OBJECT
 10
100.400674
 20
11.093443
 30
0.0
 11
127.088674
 21
11.093443
 31
0.0
  0
LINE
  8
OBJECT
 10
127.166674
 20
11.983443
 30
0.0
 11
127.244674
 21
11.983443
 31
0.0
  0
LINE
  8
OBJECT
 10
125.806674
 20
10.515443
 30
0.0
 11
127.244674
 21
10.515443
 31
0.0
  0
LINE
  8
OBJECT
 10
100.322674
 20
10.593443
 30
0.0
 11
127.166674
 21
10.593443
 31
0.0
  0
LINE
  8
OBJECT
 10
101.682674
 20
10.515443
 30
0.0
 11
101.682674
 21
10.593443
 31
0.0
  0
LINE
  8
OBJECT
 10
100.244674
 20
11.983443
 30
0.0
 11
100.322674
 21
11.983443
 31
0.0
  0
LINE
  8
OBJECT
 10
125.806674
 20
10.515443
 30
0.0
 11
125.806674
 21
10.593443
 31
0.0
  0
LINE
  8
OBJECT
 10
127.244674
 20
10.515443
 30
0.0
 11
127.244674
 21
11.983443
 31
0.0
  0
LINE
  8
OBJECT
 10
100.244674
 20
10.515443
 30
0.0
 11
100.244674
 21
11.983443
 31
0.0
  0
LINE
  8
OBJECT
 10
100.244674
 20
10.515443
 30
0.0
 11
101.682674
 21
10.515443
 31
0.0
  0
LINE
  8
CENTER
 10
113.744674
 20
26.640443
 30
0.0
 11
113.744674
 21
25.140443
 31
0.0
  0
LINE
  8
CENTER
 10
114.494674
 20
25.890443
 30
0.0
 11
112.994674
 21
25.890443
 31
0.0
  0
ARC
  8
OBJECT
 10
118.291174
 20
12.343443
 30
0.0
 40
0.5545
 50
96.419806
 51
263.580194
  0
LINE
  8
OBJECT
 10
118.353174
 20
11.853658
 30
0.0
 11
118.353174
 21
11.710473
 31
0.0
  0
LINE
  8
OBJECT
 10
118.229174
 20
12.935502
 30
0.0
 11
118.229174
 21
12.972624
 31
0.0
  0
LINE
  8
OBJECT
 10
118.229174
 20
11.853658
 30
0.0
 11
118.229174
 21
11.710473
 31
0.0
  0
ARC
  8
OBJECT
 10
118.291174
 20
12.343443
 30
0.0
 40
0.5545
 50
276.419806
 51
83.580194
  0
LINE
  8
OBJECT
 10
118.353174
 20
12.935502
 30
0.0
 11
118.353174
 21
12.972624
 31
0.0
  0
LINE
  8
OBJECT
 10
118.353174
 20
12.792316
 30
0.0
 11
118.353174
 21
12.935502
 31
0.0
  0
LINE
  8
OBJECT
 10
118.229174
 20
12.935502
 30
0.0
 11
118.229174
 21
12.792316
 31
0.0
  0
LINE
  8
OBJECT
 10
109.260174
 20
12.935502
 30
0.0
 11
109.260174
 21
12.792316
 31
0.0
  0
LINE
  8
OBJECT
 10
109.136174
 20
12.792316
 30
0.0
 11
109.136174
 21
12.935502
 31
0.0
  0
LINE
  8
OBJECT
 10
109.136174
 20
12.935502
 30
0.0
 11
109.136174
 21
12.972624
 31
0.0
  0
ARC
  8
OBJECT
 10
109.198174
 20
12.343443
 30
0.0
 40
0.5545
 50
96.419806
 51
263.580194
  0
LINE
  8
OBJECT
 10
109.260174
 20
11.853658
 30
0.0
 11
109.260174
 21
11.710473
 31
0.0
  0
LINE
  8
OBJECT
 10
109.260174
 20
12.935502
 30
0.0
 11
109.260174
 21
12.972624
 31
0.0
  0
LINE
  8
OBJECT
 10
109.136174
 20
11.853658
 30
0.0
 11
109.136174
 21
11.710473
 31
0.0
  0
ARC
  8
OBJECT
 10
109.198174
 20
12.343443
 30
0.0
 40
0.5545
 50
276.419806
 51
83.580194
  0
TEXT
  8
DIM
 10
67.947406
 20
108.685211
 30
0.0
 40
1.25
  1

  0
TEXT
  8
DIM
 10
69.009906
 20
104.591452
 30
0.0
 40
1.0
  1

  0
LINE
  8
OBJECT
 10
83.311883
 20
54.884846
 30
0.0
 11
52.717883
 21
54.884846
 31
0.0
  0
LINE
  8
OBJECT
 10
83.311883
 20
57.509846
 30
0.0
 11
52.717883
 21
57.509846
 31
0.0
  0
LINE
  8
OBJECT
 10
52.639883
 20
130.134846
 30
0.0
 11
52.639883
 21
54.946846
 31
0.0
  0
LINE
  8
OBJECT
 10
83.311883
 20
130.196846
 30
0.0
 11
52.717883
 21
130.196846
 31
0.0
  0
LINE
  8
OBJECT
 10
83.389883
 20
54.946846
 30
0.0
 11
83.389883
 21
130.134846
 31
0.0
  0
LINE
  8
OBJECT
 10
125.806674
 20
143.385071
 30
0.0
 11
127.244674
 21
143.385071
 31
0.0
  0
LINE
  8
OBJECT
 10
100.322674
 20
143.463071
 30
0.0
 11
100.322674
 21
174.057071
 31
0.0
  0
LINE
  8
OBJECT
 10
127.166674
 20
143.463071
 30
0.0
 11
127.166674
 21
174.057071
 31
0.0
  0
LINE
  8
OBJECT
 10
100.322674
 20
143.463071
 30
0.0
 11
127.166674
 21
143.463071
 31
0.0
  0
LINE
  8
OBJECT
 10
101.682674
 20
143.385071
 30
0.0
 11
101.682674
 21
143.463071
 31
0.0
  0
LINE
  8
OBJECT
 10
125.806674
 20
143.385071
 30
0.0
 11
125.806674
 21
143.463071
 31
0.0
  0
LINE
  8
OBJECT
 10
127.244674
 20
143.385071
 30
0.0
 11
127.244674
 21
144.853071
 31
0.0
  0
LINE
  8
OBJECT
 10
100.244674
 20
143.385071
 30
0.0
 11
100.244674
 21
144.853071
 31
0.0
  0
LINE
  8
OBJECT
 10
100.244674
 20
143.385071
 30
0.0
 11
101.682674
 21
143.385071
 31
0.0
  0
LINE
  8
OBJECT
 10
100.244674
 20
174.135071
 30
0.0
 11
101.682674
 21
174.135071
 31
0.0
  0
LINE
  8
OBJECT
 10
100.244674
 20
174.135071
 30
0.0
 11
100.244674
 21
172.667071
 31
0.0
  0
LINE
  8
OBJECT
 10
127.244674
 20
174.135071
 30
0.0
 11
127.244674
 21
172.667071
 31
0.0
  0
LINE
  8
OBJECT
 10
125.806674
 20
174.135071
 30
0.0
 11
125.806674
 21
174.057071
 31
0.0
  0
LINE
  8
OBJECT
 10
101.682674
 20
174.135071
 30
0.0
 11
101.682674
 21
174.057071
 31
0.0
  0
LINE
  8
OBJECT
 10
100.322674
 20
174.057071
 30
0.0
 11
127.166674
 21
174.057071
 31
0.0
  0
LINE
  8
OBJECT
 10
100.244674
 20
172.667071
 30
0.0
 11
100.322674
 21
172.667071
 31
0.0
  0
LINE
  8
OBJECT
 10
100.244674
 20
144.853071
 30
0.0
 11
100.322674
 21
144.853071
 31
0.0
  0
LINE
  8
OBJECT
 10
127.166674
 20
172.667071
 30
0.0
 11
127.244674
 21
172.667071
 31
0.0
  0
LINE
  8
OBJECT
 10
127.166674
 20
144.853071
 30
0.0
 11
127.244674
 21
144.853071
 31
0.0
  0
LINE
  8
OBJECT
 10
53.421133
 20
126.196846
 30
0.0
 11
53.421133
 21
122.696846
 31
0.0
  0
LINE
  8
OBJECT
 10
83.311883
 20
54.884846
 30
0.0
 11
83.311883
 21
57.509846
 31
0.0
  0
LINE
  8
OBJECT
 10
83.249883
 20
54.946846
 30
0.0
 11
83.249883
 21
57.447846
 31
0.0
  0
LINE
  8
OBJECT
 10
83.389883
 20
54.946846
 30
0.0
 11
83.311883
 21
54.946846
 31
0.0
  0
LINE
  8
OBJECT
 10
83.249883
 20
57.447846
 30
0.0
 11
52.779883
 21
57.447846
 31
0.0
  0
LINE
  8
OBJECT
 10
52.779883
 20
57.447846
 30
0.0
 11
52.779883
 21
54.946846
 31
0.0
  0
LINE
  8
OBJECT
 10
52.717883
 20
57.509846
 30
0.0
 11
52.717883
 21
54.884846
 31
0.0
  0
LINE
  8
OBJECT
 10
82.639883
 20
57.509846
 30
0.0
 11
82.639883
 21
85.091284
 31
0.0
  0
LINE
  8
OBJECT
 10
53.389883
 20
127.019267
 30
0.0
 11
53.389883
 21
57.509846
 31
0.0
  0
CIRCLE
  8
OBJECT
 10
54.640133
 20
123.071846
 30
0.0
 40
0.1405
  0
CIRCLE
  8
OBJECT
 10
81.389633
 20
62.009846
 30
0.0
 40
0.1405
  0
CIRCLE
  8
OBJECT
 10
82.014633
 20
59.259846
 30
0.0
 40
0.1405
  0
CIRCLE
  8
OBJECT
 10
54.640133
 20
62.009846
 30
0.0
 40
0.1405
  0
LINE
  8
OBJECT
 10
82.608633
 20
58.884846
 30
0.0
 11
82.608633
 21
62.384846
 31
0.0
  0
LINE
  8
OBJECT
 10
53.421133
 20
58.884846
 30
0.0
 11
53.421133
 21
62.384846
 31
0.0
  0
LINE
  8
OBJECT
 10
82.608633
 20
58.884846
 30
0.0
 11
78.139633
 21
58.884846
 31
0.0
  0
LINE
  8
OBJECT
 10
82.608633
 20
62.384846
 30
0.0
 11
82.139633
 21
62.384846
 31
0.0
  0
LINE
  8
OBJECT
 10
82.608633
 20
61.759846
 30
0.0
 11
82.139633
 21
61.759846
 31
0.0
  0
LINE
  8
OBJECT
 10
82.608633
 20
59.509846
 30
0.0
 11
78.139633
 21
59.509846
 31
0.0
  0
LINE
  8
HIDDEN
 10
32.948295
 20
58.735763
 30
0.0
 11
32.277295
 21
58.735763
 31
0.0
  0
LINE
  8
HIDDEN
 10
32.277295
 20
58.735763
 30
0.0
 11
32.277295
 21
57.485763
 31
0.0
  0
LINE
  8
HIDDEN
 10
32.277295
 20
126.297763
 30
0.0
 11
32.277295
 21
127.547763
 31
0.0
  0
LINE
  8
HIDDEN
 10
32.948295
 20
126.297763
 30
0.0
 11
32.277295
 21
126.297763
 31
0.0
  0
LINE
  8
OBJECT
 10
8.824295
 20
125.166027
 30
0.0
 11
8.824295
 21
130.110763
 31
0.0
  0
LINE
  8
OBJECT
 10
8.824295
 20
62.446527
 30
0.0
 11
8.824295
 21
121.712499
 31
0.0
  0
LINE
  8
OBJECT
 10
79.514633
 20
62.384846
 30
0.0
 11
78.139633
 21
62.384846
 31
0.0
  0
LINE
  8
OBJECT
 10
79.514633
 20
61.759846
 30
0.0
 11
78.139633
 21
61.759846
 31
0.0
  0
TEXT
  8
OBJECT
 10
69.86665
 20
155.28811
 30
0.0
 40
1.25
  1

  0
TEXT
  8
TEXT
 10
108.472799
 20
136.560043
 30
0.0
 40
1.75
  1
%%uTOP VIEW
 41
0.75
  7
TXT
 72
     1
 11
113.744674
 21
136.560043
 31
0.0
  0
TEXT
  8
TEXT
 10
62.305508
 20
50.839693
 30
0.0
 40
1.75
  1
%%uSIDE VIEW
 41
0.75
  7
TXT
 72
     1
 11
68.014883
 21
50.839693
 31
0.0
  0
TEXT
  8
TEXT
 10
14.95817
 20
42.292469
 30
0.0
 40
1.75
  1
%%uREAR VIEW
 41
0.75
  7
TXT
 72
     1
 11
20.886295
 21
42.292469
 31
0.0
  0
TEXT
  8
TEXT
 10
96.270251
 20
3.115938
 30
0.0
 40
1.75
  1
%%uBOTTOM VIEW
 41
0.75
  7
TXT
 72
     1
 11
103.510876
 21
3.115938
 31
0.0
  0
LINE
  8
OBJECT
 10
125.806674
 20
174.135071
 30
0.0
 11
127.244674
 21
174.135071
 31
0.0
  0
INSERT
  8
DOOR
  2
L15
 10
13.433795
 20
125.048763
 30
0.0
  0
INSERT
  8
DOOR
  2
L15
 10
28.308295
 20
125.048763
 30
0.0
  0
INSERT
  8
DOOR
  2
L15
 10
13.433795
 20
74.609763
 30
0.0
  0
INSERT
  8
DOOR
  2
L15
 10
28.308295
 20
74.609763
 30
0.0
  0
INSERT
  8
OBJECT
  2
TOP
 10
113.744674
 20
158.760071
 30
0.0
  0
INSERT
  8
OBJECT
  2
L15S
 10
7.386295
 20
125.047763
 30
0.0
 50
270.0
  0
INSERT
  8
OBJECT
  2
L15S
 10
7.386295
 20
74.610763
 30
0.0
 50
270.0
  0
INSERT
  8
OBJECT
  2
L15S
 10
34.386295
 20
74.610763
 30
0.0
 41
-1.0
 50
90.0
  0
INSERT
  8
OBJECT
  2
L15S
 10
34.386295
 20
125.047763
 30
0.0
 41
-1.0
 50
90.0
  0
LINE
  8
OBJECT
 10
126.666674
 20
40.687443
 30
0.0
 11
126.666674
 21
11.093443
 31
0.0
  0
LINE
  8
OBJECT
 10
100.822674
 20
40.687443
 30
0.0
 11
100.822674
 21
11.093443
 31
0.0
  0
DIMENSION
  8
DIM
  2
*D22
 10
127.244674
 20
133.985491
 30
0.0
 11
113.744674
 21
133.985491
 31
0.0
 12
-198.714531
 22
-5.395265
 32
0.0
  1
<>
 13
100.244674
 23
130.172763
 33
0.0
 14
127.244674
 24
130.172763
 34
0.0
  3
23NSTD
  0
DIMENSION
  8
DIM
  2
*D29
 10
95.39713
 20
127.547763
 30
0.0
 11
95.39713
 21
92.516763
 31
0.0
  1
<>
 13
101.683674
 23
57.485763
 33
0.0
 14
101.683674
 24
127.547763
 34
0.0
 50
90.0
  3
23NSTD
  0
DIMENSION
  8
DIM
  2
*D31
 10
95.39713
 20
130.172763
 30
0.0
 11
95.39713
 21
128.860263
 31
0.0
 13
101.683674
 23
127.547763
 33
0.0
 14
100.244674
 24
130.172763
 34
0.0
 50
90.0
  3
23NSTDI
  0
DIMENSION
  8
DIM
  2
*D5
 10
132.686079
 20
130.172763
 30
0.0
 11
132.686079
 21
92.516763
 31
0.0
 12
-198.714531
 22
-5.395265
 32
0.0
  1
<>
 13
127.244674
 23
54.860763
 33
0.0
 14
127.244674
 24
130.172763
 34
0.0
 50
90.0
  3
23NSTD
  0
DIMENSION
  8
DIM
  2
*D6
 10
82.639883
 20
82.986353
 30
0.0
 11
68.014883
 21
82.986353
 31
0.0
 12
-198.714531
 22
-5.395265
 32
0.0
 13
53.389883
 23
82.986353
 33
0.0
 14
82.639883
 24
82.986353
 34
0.0
  3
23NSTD
  0
DIMENSION
  8
DIM
  2
*D13
 10
48.542382
 20
130.196846
 30
0.0
 11
48.542382
 21
128.009346
 31
0.0
 12
-198.714531
 22
-5.395265
 32
0.0
 13
54.015133
 23
125.821846
 33
0.0
 14
52.639883
 24
130.196846
 34
0.0
 50
90.0
  3
23NSTDI
  0
DIMENSION
  8
DIM
  2
*D30
 10
95.39713
 20
54.860763
 30
0.0
 11
95.39713
 21
56.173263
 31
0.0
 13
101.683674
 23
57.485763
 33
0.0
 14
100.244674
 24
54.860763
 34
0.0
 50
90.0
  3
23NSTDI
  0
DIMENSION
  8
DIM
  2
*D14
 10
118.291174
 20
7.917938
 30
0.0
 11
113.744674
 21
7.917938
 31
0.0
 12
-198.714531
 22
-2.234465
 32
0.0
 13
109.198174
 23
12.343443
 33
0.0
 14
118.291174
 24
12.343443
 34
0.0
  3
23NSTDI
  0
DIMENSION
  8
DIM
  2
*D25
 10
127.244674
 20
4.417938
 30
0.0
 11
122.767924
 21
4.417938
 31
0.0
 12
-198.714531
 22
-2.234465
 32
0.0
 13
118.291174
 23
12.343443
 33
0.0
 14
127.244674
 24
11.031443
 34
0.0
  3
23NSTDI
  0
CIRCLE
  8
OBJECT
 10
55.765133
 20
62.009846
 30
0.0
 40
0.1405
  0
CIRCLE
  8
OBJECT
 10
56.390133
 20
59.259846
 30
0.0
 40
0.1405
  0
CIRCLE
  8
OBJECT
 10
57.515133
 20
62.009846
 30
0.0
 40
0.1405
  0
CIRCLE
  8
OBJECT
 10
56.890133
 20
62.009846
 30
0.0
 40
0.1405
  0
CIRCLE
  8
OBJECT
 10
56.890133
 20
59.259846
 30
0.0
 40
0.1405
  0
CIRCLE
  8
OBJECT
 10
57.515133
 20
59.259846
 30
0.0
 40
0.1405
  0
CIRCLE
  8
OBJECT
 10
56.890133
 20
125.821846
 30
0.0
 40
0.1405
  0
CIRCLE
  8
OBJECT
 10
56.390133
 20
125.821846
 30
0.0
 40
0.1405
  0
CIRCLE
  8
OBJECT
 10
56.890133
 20
123.071846
 30
0.0
 40
0.1405
  0
CIRCLE
  8
OBJECT
 10
55.765133
 20
123.071846
 30
0.0
 40
0.1405
  0
LINE
  8
OBJECT
 10
53.421133
 20
94.290846
 30
0.0
 11
53.421133
 21
90.790846
 31
0.0
  0
CIRCLE
  8
OBJECT
 10
54.640133
 20
91.165846
 30
0.0
 40
0.1405
  0
CIRCLE
  8
OBJECT
 10
57.515133
 20
91.165846
 30
0.0
 40
0.1405
  0
CIRCLE
  8
OBJECT
 10
56.890133
 20
91.165846
 30
0.0
 40
0.1405
  0
CIRCLE
  8
OBJECT
 10
55.765133
 20
91.165846
 30
0.0
 40
0.1405
  0
CIRCLE
  8
OBJECT
 10
56.890133
 20
93.915846
 30
0.0
 40
0.1405
  0
CIRCLE
  8
OBJECT
 10
57.515133
 20
93.915846
 30
0.0
 40
0.1405
  0
CIRCLE
  8
OBJECT
 10
55.765133
 20
93.915846
 30
0.0
 40
0.1405
  0
DIMENSION
  8
DIM
  2
*D15
 10
48.542382
 20
91.165846
 30
0.0
 11
48.542382
 21
92.540846
 31
0.0
 12
-198.714531
 22
-5.395265
 32
0.0
 13
54.015133
 23
93.915846
 33
0.0
 14
54.015133
 24
91.165846
 34
0.0
 50
90.0
  3
23NSTDI
  0
DIMENSION
  8
DIM
  2
*D7
 10
48.542382
 20
93.915846
 30
0.0
 11
48.542382
 21
109.868846
 31
0.0
 12
-198.714531
 22
-5.395265
 32
0.0
 13
54.015133
 23
125.821846
 33
0.0
 14
54.015133
 24
93.915846
 34
0.0
 50
90.0
  3
23NSTD
  0
DIMENSION
  8
DIM
  2
*D8
 10
48.542382
 20
91.165846
 30
0.0
 11
48.542382
 21
75.212846
 31
0.0
 12
-198.714531
 22
-5.395265
 32
0.0
 13
54.015133
 23
59.259846
 33
0.0
 14
54.015133
 24
91.165846
 34
0.0
 50
90.0
  3
23NSTD
  0
POLYLINE
  8
HIDDEN
 66
     1
 10
0.0
 20
0.0
 30
0.0
 70
     1
  0
VERTEX
  8
HIDDEN
 10
100.978674
 20
144.135071
 30
0.0
  0
VERTEX
  8
HIDDEN
 10
101.619674
 20
144.135071
 30
0.0
  0
VERTEX
  8
HIDDEN
 10
101.619674
 20
173.385071
 30
0.0
  0
VERTEX
  8
HIDDEN
 10
100.978674
 20
173.385071
 30
0.0
  0
SEQEND
  8
HIDDEN
  0
POLYLINE
  8
HIDDEN
 66
     1
 10
0.0
 20
0.0
 30
0.0
 70
     1
  0
VERTEX
  8
HIDDEN
 10
126.510674
 20
144.135071
 30
0.0
  0
VERTEX
  8
HIDDEN
 10
125.869674
 20
144.135071
 30
0.0
  0
VERTEX
  8
HIDDEN
 10
125.869674
 20
173.385071
 30
0.0
  0
VERTEX
  8
HIDDEN
 10
126.510674
 20
173.385071
 30
0.0
  0
SEQEND
  8
HIDDEN
  0
CIRCLE
  8
OBJECT
 10
78.515133
 20
59.259846
 30
0.0
 40
0.1405
  0
CIRCLE
  8
OBJECT
 10
79.140133
 20
59.259846
 30
0.0
 40
0.1405
  0
CIRCLE
  8
OBJECT
 10
79.140133
 20
62.009846
 30
0.0
 40
0.1405
  0
CIRCLE
  8
OBJECT
 10
78.515133
 20
62.009846
 30
0.0
 40
0.1405
  0
CIRCLE
  8
OBJECT
 10
79.640133
 20
59.259846
 30
0.0
 40
0.1405
  0
LINE
  8
OBJECT
 10
57.227483
 20
126.196846
 30
0.0
 11
53.421133
 21
126.196846
 31
0.0
  0
LINE
  8
OBJECT
 10
57.562838
 20
125.571846
 30
0.0
 11
53.421133
 21
125.571846
 31
0.0
  0
LINE
  8
OBJECT
 10
53.889883
 20
123.321846
 30
0.0
 11
53.421133
 21
123.321846
 31
0.0
  0
LINE
  8
OBJECT
 10
53.889883
 20
122.696846
 30
0.0
 11
53.421133
 21
122.696846
 31
0.0
  0
LINE
  8
OBJECT
 10
53.889883
 20
94.290846
 30
0.0
 11
53.421133
 21
94.290846
 31
0.0
  0
LINE
  8
OBJECT
 10
53.889883
 20
93.665846
 30
0.0
 11
53.421133
 21
93.665846
 31
0.0
  0
LINE
  8
OBJECT
 10
53.889883
 20
91.415846
 30
0.0
 11
53.421133
 21
91.415846
 31
0.0
  0
LINE
  8
OBJECT
 10
53.889883
 20
90.790846
 30
0.0
 11
53.421133
 21
90.790846
 31
0.0
  0
LINE
  8
OBJECT
 10
57.890133
 20
58.884846
 30
0.0
 11
53.421133
 21
58.884846
 31
0.0
  0
LINE
  8
OBJECT
 10
57.890133
 20
59.509846
 30
0.0
 11
53.421133
 21
59.509846
 31
0.0
  0
LINE
  8
OBJECT
 10
53.889883
 20
61.759846
 30
0.0
 11
53.421133
 21
61.759846
 31
0.0
  0
LINE
  8
OBJECT
 10
53.889883
 20
62.384846
 30
0.0
 11
53.421133
 21
62.384846
 31
0.0
  0
INSERT
  8
PMR
  2
CMP
 10
56.014883
 20
123.071846
 30
0.0
  0
INSERT
  8
PMR
  2
CMP
 10
56.014883
 20
91.165846
 30
0.0
  0
INSERT
  8
OBJECT
  2
L15S
 10
100.244674
 20
125.047763
 30
0.0
 50
270.0
  0
LINE
  8
OBJECT
 10
101.682674
 20
62.446527
 30
0.0
 11
101.682674
 21
121.712499
 31
0.0
  0
LINE
  8
OBJECT
 10
100.244674
 20
54.922763
 30
0.0
 11
100.244674
 21
130.110763
 31
0.0
  0
INSERT
  8
OBJECT
  2
L15S
 10
127.244674
 20
125.047763
 30
0.0
 41
-1.0
 50
90.0
  0
LINE
  8
OBJECT
 10
127.244674
 20
130.110763
 30
0.0
 11
127.244674
 21
54.922763
 31
0.0
  0
LINE
  8
OBJECT
 10
125.806674
 20
130.110763
 30
0.0
 11
125.806674
 21
54.922763
 31
0.0
  0
LINE
  8
OBJECT
 10
127.166674
 20
54.860763
 30
0.0
 11
100.322674
 21
54.860763
 31
0.0
  0
LINE
  8
OBJECT
 10
125.806674
 20
57.485763
 30
0.0
 11
101.682674
 21
57.485763
 31
0.0
  0
LINE
  8
OBJECT
 10
101.682674
 20
54.922763
 30
0.0
 11
101.682674
 21
58.992999
 31
0.0
  0
TEXT
  8
TEXT
 10
107.160299
 20
50.839693
 30
0.0
 40
1.75
  1
%%uFRONT VIEW
 41
0.75
  7
TXT
 72
     1
 11
113.744674
 21
50.839693
 31
0.0
  0
INSERT
  8
OBJECT
  2
L15S
 10
100.244674
 20
74.610763
 30
0.0
 50
270.0
  0
INSERT
  8
OBJECT
  2
L15S
 10
127.244674
 20
74.610763
 30
0.0
 41
-1.0
 50
90.0
  0
LINE
  8
HIDDEN
 10
125.135674
 20
58.735763
 30
0.0
 11
125.135674
 21
57.485763
 31
0.0
  0
LINE
  8
HIDDEN
 10
125.806674
 20
58.735763
 30
0.0
 11
125.135674
 21
58.735763
 31
0.0
  0
LINE
  8
OBJECT
 10
100.322674
 20
130.172763
 30
0.0
 11
127.166674
 21
130.172763
 31
0.0
  0
LINE
  8
OBJECT
 10
101.682674
 20
127.547763
 30
0.0
 11
125.806674
 21
127.547763
 31
0.0
  0
LINE
  8
OBJECT
 10
101.682674
 20
125.166027
 30
0.0
 11
101.682674
 21
130.110763
 31
0.0
  0
LINE
  8
HIDDEN
 10
125.135674
 20
126.297763
 30
0.0
 11
125.135674
 21
127.547763
 31
0.0
  0
LINE
  8
HIDDEN
 10
125.806674
 20
126.297763
 30
0.0
 11
125.135674
 21
126.297763
 31
0.0
  0
LINE
  8
PLEXIGLASS
 10
103.041674
 20
58.828763
 30
0.0
 11
101.760674
 21
57.547763
 31
0.0
  0
LINE
  8
PLEXIGLASS
 10
124.417674
 20
58.828763
 30
0.0
 11
125.698674
 21
57.547763
 31
0.0
  0
CIRCLE
  8
PLEXIGLASS
 10
123.698674
 20
92.516763
 30
0.0
 40
0.4375
  0
ARC
  8
PLEXIGLASS
 10
123.698674
 20
92.453323
 30
0.0
 40
0.09076
 50
289.971898
 51
70.028102
  0
ARC
  8
PLEXIGLASS
 10
123.698674
 20
92.453323
 30
0.0
 40
0.09076
 50
109.971898
 51
250.028102
  0
ARC
  8
PLEXIGLASS
 10
123.698674
 20
92.516763
 30
0.0
 40
0.15883
 50
258.744954
 51
281.255046
  0
ARC
  8
PLEXIGLASS
 10
123.698674
 20
92.516763
 30
0.0
 40
0.15883
 50
78.744954
 51
101.255046
  0
LINE
  8
PLEXIGLASS
 10
123.729674
 20
92.360987
 30
0.0
 11
123.729674
 21
92.672539
 31
0.0
  0
LINE
  8
PLEXIGLASS
 10
123.667674
 20
92.360987
 30
0.0
 11
123.667674
 21
92.672539
 31
0.0
  0
CIRCLE
  8
PLEXIGLASS
 10
123.698674
 20
92.516763
 30
0.0
 40
0.275522
  0
LINE
  8
PLEXIGLASS
 10
103.041674
 20
126.204763
 30
0.0
 11
101.760674
 21
127.485763
 31
0.0
  0
LINE
  8
PLEXIGLASS
 10
124.417674
 20
126.204763
 30
0.0
 11
125.698674
 21
127.485763
 31
0.0
  0
LINE
  8
OBJECT
 10
57.287624
 20
123.321846
 30
0.0
 11
56.514883
 21
123.321846
 31
0.0
  0
LINE
  8
OBJECT
 10
57.23836
 20
122.696846
 30
0.0
 11
56.514883
 21
122.696846
 31
0.0
  0
LINE
  8
OBJECT
 10
57.890133
 20
90.790846
 30
0.0
 11
56.514883
 21
90.790846
 31
0.0
  0
LINE
  8
OBJECT
 10
57.890133
 20
91.415846
 30
0.0
 11
56.514883
 21
91.415846
 31
0.0
  0
LINE
  8
OBJECT
 10
57.890133
 20
93.665846
 30
0.0
 11
56.514883
 21
93.665846
 31
0.0
  0
LINE
  8
OBJECT
 10
57.890133
 20
94.290846
 30
0.0
 11
56.514883
 21
94.290846
 31
0.0
  0
LINE
  8
OBJECT
 10
57.890133
 20
62.384846
 30
0.0
 11
56.514883
 21
62.384846
 31
0.0
  0
LINE
  8
OBJECT
 10
57.890133
 20
61.759846
 30
0.0
 11
56.514883
 21
61.759846
 31
0.0
  0
POLYLINE
  8
CMP
  6
HIDDEN2
 66
     1
 10
0.0
 20
0.0
 30
0.0
 70
     1
  0
VERTEX
  8
CMP
  6
HIDDEN2
 10
101.213924
 20
144.697071
 30
0.0
  0
VERTEX
  8
CMP
  6
HIDDEN2
 10
101.651924
 20
144.697071
 30
0.0
  0
VERTEX
  8
CMP
  6
HIDDEN2
 10
101.651924
 20
147.198071
 30
0.0
  0
VERTEX
  8
CMP
  6
HIDDEN2
 10
101.213924
 20
147.198071
 30
0.0
  0
VERTEX
  8
CMP
  6
HIDDEN2
 10
101.213924
 20
147.260071
 30
0.0
  0
VERTEX
  8
CMP
  6
HIDDEN2
 10
101.713924
 20
147.260071
 30
0.0
  0
VERTEX
  8
CMP
  6
HIDDEN2
 10
101.713924
 20
144.635071
 30
0.0
  0
VERTEX
  8
CMP
  6
HIDDEN2
 10
101.213924
 20
144.635071
 30
0.0
  0
SEQEND
  8
CMP
  6
HIDDEN2
  0
POLYLINE
  8
CMP
  6
HIDDEN2
 66
     1
 10
0.0
 20
0.0
 30
0.0
 70
     1
  0
VERTEX
  8
CMP
  6
HIDDEN2
 10
126.275424
 20
144.697071
 30
0.0
  0
VERTEX
  8
CMP
  6
HIDDEN2
 10
125.837424
 20
144.697071
 30
0.0
  0
VERTEX
  8
CMP
  6
HIDDEN2
 10
125.837424
 20
147.198071
 30
0.0
  0
VERTEX
  8
CMP
  6
HIDDEN2
 10
126.275424
 20
147.198071
 30
0.0
  0
VERTEX
  8
CMP
  6
HIDDEN2
 10
126.275424
 20
147.260071
 30
0.0
  0
VERTEX
  8
CMP
  6
HIDDEN2
 10
125.775424
 20
147.260071
 30
0.0
  0
VERTEX
  8
CMP
  6
HIDDEN2
 10
125.775424
 20
144.635071
 30
0.0
  0
VERTEX
  8
CMP
  6
HIDDEN2
 10
126.275424
 20
144.635071
 30
0.0
  0
SEQEND
  8
CMP
  6
HIDDEN2
  0
POLYLINE
  8
CMP
  6
HIDDEN2
 66
     1
 10
0.0
 20
0.0
 30
0.0
 70
     1
  0
VERTEX
  8
CMP
  6
HIDDEN2
 10
101.213924
 20
172.823071
 30
0.0
  0
VERTEX
  8
CMP
  6
HIDDEN2
 10
101.651924
 20
172.823071
 30
0.0
  0
VERTEX
  8
CMP
  6
HIDDEN2
 10
101.651924
 20
170.322071
 30
0.0
  0
VERTEX
  8
CMP
  6
HIDDEN2
 10
101.213924
 20
170.322071
 30
0.0
  0
VERTEX
  8
CMP
  6
HIDDEN2
 10
101.213924
 20
170.260071
 30
0.0
  0
VERTEX
  8
CMP
  6
HIDDEN2
 10
101.713924
 20
170.260071
 30
0.0
  0
VERTEX
  8
CMP
  6
HIDDEN2
 10
101.713924
 20
172.885071
 30
0.0
  0
VERTEX
  8
CMP
  6
HIDDEN2
 10
101.213924
 20
172.885071
 30
0.0
  0
SEQEND
  8
CMP
  6
HIDDEN2
  0
POLYLINE
  8
CMP
  6
HIDDEN2
 66
     1
 10
0.0
 20
0.0
 30
0.0
 70
     1
  0
VERTEX
  8
CMP
  6
HIDDEN2
 10
126.275424
 20
172.823071
 30
0.0
  0
VERTEX
  8
CMP
  6
HIDDEN2
 10
125.837424
 20
172.823071
 30
0.0
  0
VERTEX
  8
CMP
  6
HIDDEN2
 10
125.837424
 20
170.322071
 30
0.0
  0
VERTEX
  8
CMP
  6
HIDDEN2
 10
126.275424
 20
170.322071
 30
0.0
  0
VERTEX
  8
CMP
  6
HIDDEN2
 10
126.275424
 20
170.260071
 30
0.0
  0
VERTEX
  8
CMP
  6
HIDDEN2
 10
125.775424
 20
170.260071
 30
0.0
  0
VERTEX
  8
CMP
  6
HIDDEN2
 10
125.775424
 20
172.885071
 30
0.0
  0
VERTEX
  8
CMP
  6
HIDDEN2
 10
126.275424
 20
172.885071
 30
0.0
  0
SEQEND
  8
CMP
  6
HIDDEN2
  0
CIRCLE
  8
OBJECT
 10
81.389633
 20
59.259846
 30
0.0
 40
0.1405
  0
CIRCLE
  8
OBJECT
 10
80.265133
 20
59.259846
 30
0.0
 40
0.1405
  0
CIRCLE
  8
OBJECT
 10
80.265133
 20
62.009846
 30
0.0
 40
0.1405
  0
CIRCLE
  8
OBJECT
 10
80.890133
 20
59.259846
 30
0.0
 40
0.1405
  0
CIRCLE
  8
OBJECT
 10
54.640133
 20
93.915846
 30
0.0
 40
0.1405
  0
CIRCLE
  8
OBJECT
 10
55.765133
 20
125.821846
 30
0.0
 40
0.1405
  0
CIRCLE
  8
OBJECT
 10
55.140133
 20
125.821846
 30
0.0
 40
0.1405
  0
CIRCLE
  8
OBJECT
 10
54.640133
 20
125.821846
 30
0.0
 40
0.1405
  0
CIRCLE
  8
OBJECT
 10
54.015133
 20
125.821846
 30
0.0
 40
0.1405
  0
CIRCLE
  8
OBJECT
 10
55.765133
 20
59.259846
 30
0.0
 40
0.1405
  0
CIRCLE
  8
OBJECT
 10
54.640133
 20
59.259846
 30
0.0
 40
0.1405
  0
CIRCLE
  8
OBJECT
 10
55.140133
 20
59.259846
 30
0.0
 40
0.1405
  0
CIRCLE
  8
OBJECT
 10
54.015133
 20
59.259846
 30
0.0
 40
0.1405
  0
TEXT
  8
DIM
 10
67.947406
 20
297.415211
 30
0.0
 40
1.25
  1

  0
TEXT
  8
DIM
 10
69.009906
 20
293.321452
 30
0.0
 40
1.0
  1

  0
TEXT
  8
OBJECT
 10
69.86665
 20
344.01811
 30
0.0
 40
1.25
  1

  0
INSERT
  8
TITLE
  2
HB
 10
0.0
 20
0.0
 30
0.0
 41
14.0
 42
14.0
 43
14.0
  0
TEXT
  8
TEXT
 10
8.13446
 20
202.377504
 30
0.0
 40
1.75
  1
%%uMATERIAL:
 41
0.75
  7
TXT
  0
TEXT
  8
TEXT
 10
10.096234
 20
199.460837
 30
0.0
 40
1.75
  1
PANEL MOUNTING RAILS
 41
0.75
  7
TXT
  0
TEXT
  8
TEXT
 10
10.096234
 20
196.54417
 30
0.0
 40
1.75
  1
VERTICAL RAILS
 41
0.75
  7
TXT
  0
TEXT
  8
TEXT
 10
10.096234
 20
193.627504
 30
0.0
 40
1.75
  1
TOP, BOTTOM, PLATES &
 41
0.75
  7
TXT
  0
TEXT
  8
TEXT
 10
12.058007
 20
190.710837
 30
0.0
 40
1.75
  1
RAIL SUPPORTS
 41
0.75
  7
TXT
  0
TEXT
  8
TEXT
 10
10.096234
 20
187.79417
 30
0.0
 40
1.75
  1
SIDES & REAR DOOR
 41
0.75
  7
TXT
  0
TEXT
  8
TEXT
 10
45.061963
 20
199.460837
 30
0.0
 40
1.75
  1
12 GA. STEEL
 41
0.75
  7
TXT
  0
TEXT
  8
TEXT
 10
45.061963
 20
196.54417
 30
0.0
 40
1.75
  1
14 GA. STEEL
 41
0.75
  7
TXT
  0
TEXT
  8
TEXT
 10
45.061963
 20
190.710837
 30
0.0
 40
1.75
  1
16 GA. STEEL
 41
0.75
  7
TXT
  0
TEXT
  8
TEXT
 10
45.061963
 20
187.79417
 30
0.0
 40
1.75
  1
20 GA. STEEL
 41
0.75
  7
TXT
  0
LINE
  8
TEXT
 10
36.15944
 20
199.437532
 30
0.0
 11
44.337323
 21
199.437532
 31
0.0
  0
LINE
  8
TEXT
 10
29.293729
 20
196.525532
 30
0.0
 11
44.337323
 21
196.525532
 31
0.0
  0
LINE
  8
TEXT
 10
29.293729
 20
190.701532
 30
0.0
 11
44.337323
 21
190.701532
 31
0.0
  0
TEXT
  8
TEXT
 10
8.13446
 20
182.044254
 30
0.0
 40
1.75
  1
%%uFINISH:
 41
0.75
  7
TXT
  0
LINE
  8
TEXT
 10
36.15944
 20
167.453731
 30
0.0
 11
44.337323
 21
167.453731
 31
0.0
  0
TEXT
  8
TEXT
 10
45.061963
 20
167.463036
 30
0.0
 40
1.75
  1
SMOOTH BLACK
 41
0.75
  7
TXT
  0
TEXT
  8
TEXT
 10
5.646707
 20
26.936435
 30
0.0
 40
1.75
  1
PANEL MTG. RAILS ARE FULLY ADJUSTABLE AND
 41
0.75
  7
TXT
  0
TEXT
  8
TEXT
 10
7.268311
 20
24.019768
 30
0.0
 40
1.75
  1
TAPPED #10-32 ON E.I.A. UNIVERSAL SPACING.
 41
0.75
  7
TXT
  0
TEXT
  8
TEXT
 10
5.646707
 20
15.881325
 30
0.0
 40
1.75
  1
BOTTOM PIERCED FOR RC-7758 CASTERS.
 41
0.75
  7
TXT
  0
TEXT
  8
TEXT
 10
19.507375
 20
212.114
 30
0.0
 40
2.187
  1
DATACOM DISTRIBUTION CABINET
 41
0.75
  7
TXT
 72
     1
 11
41.104
 21
212.114
 31
0.0
  0
TEXT
  8
TEXT
 10
106.315875
 20
212.114
 30
0.0
 40
2.187
  1
DC-8050
 41
0.75
  7
TXT
 72
     1
 11
111.51
 21
212.114
 31
0.0
  0
POLYLINE
  8
DIM
 66
     1
 10
0.0
 20
0.0
 30
0.0
 41
0.945
  0
VERTEX
  8
DIM
 10
110.319449
 20
162.185296
 30
0.0
  0
VERTEX
  8
DIM
 10
108.221822
 20
163.581849
 30
0.0
 41
0.0
  0
VERTEX
  8
DIM
 10
98.869575
 20
169.959025
 30
0.0
 41
0.0
  0
VERTEX
  8
DIM
 10
97.119575
 20
169.959025
 30
0.0
 41
0.0
  0
SEQEND
  8
DIM
  0
TEXT
  8
DIM
 10
72.570217
 20
169.084025
 30
0.0
 40
1.75
  1
MOUNTING PROVISIONS
 41
0.75
  7
TXT
 72
     2
 11
96.195217
 21
169.084025
 31
0.0
  0
TEXT
  8
DIM
 10
76.070217
 20
166.167359
 30
0.0
 40
1.75
  1
FOR OPTIONAL FAN
 41
0.75
  7
TXT
 72
     2
 11
96.195217
 21
166.167359
 31
0.0
  0
POLYLINE
  8
DIM
 66
     1
 10
0.0
 20
0.0
 30
0.0
 41
0.945
  0
VERTEX
  8
DIM
 10
108.851877
 20
25.757663
 30
0.0
  0
VERTEX
  8
DIM
 10
106.555291
 20
24.720314
 30
0.0
 41
0.0
  0
VERTEX
  8
DIM
 10
97.010369
 20
20.408957
 30
0.0
 41
0.0
  0
VERTEX
  8
DIM
 10
95.260369
 20
20.408957
 30
0.0
 41
0.0
  0
SEQEND
  8
DIM
  0
TEXT
  8
DIM
 10
70.322869
 20
19.533957
 30
0.0
 40
1.75
  1
9.561 SQUARE CUTOUT
 41
0.75
  7
TXT
 72
     2
 11
93.510369
 21
19.533957
 31
0.0
  0
TEXT
  8
TEXT
 10
7.268311
 20
21.186518
 30
0.0
 40
1.75
  1
(TOTAL OF FOUR PANEL MOUNTING RAILS)
 41
0.75
  7
TXT
  0
TEXT
  8
TEXT
 10
5.315596
 20
205.289504
 30
0.0
 40
1.75
  1
%%uCABINET RACK
 41
0.75
  7
TXT
  0
TEXT
  8
TEXT
 10
107.31925
 20
199.460837
 30
0.0
 40
1.75
  1
ALUMINUM EXTRUSION
 41
0.75
  7
TXT
  0
TEXT
  8
TEXT
 10
72.465588
 20
205.289504
 30
0.0
 40
1.75
  1
%%uLOCKING PLEXIGLAS DOOR
 41
0.75
  7
TXT
  0
TEXT
  8
TEXT
 10
75.056163
 20
202.377504
 30
0.0
 40
1.75
  1
%%uMATERIAL:
 41
0.75
  7
TXT
  0
TEXT
  8
TEXT
 10
77.017937
 20
199.460837
 30
0.0
 40
1.75
  1
DOOR FRAME
 41
0.75
  7
TXT
  0
TEXT
  8
TEXT
 10
75.056163
 20
192.591519
 30
0.0
 40
1.75
  1
%%uFINISH:
 41
0.75
  7
TXT
  0
LINE
  8
TEXT
 10
90.715857
 20
199.437532
 30
0.0
 11
106.59461
 21
199.437532
 31
0.0
  0
TEXT
  8
TEXT
 10
77.017937
 20
196.627587
 30
0.0
 40
1.75
  1
PLEXIGLAS
 41
0.75
  7
TXT
  0
TEXT
  8
TEXT
 10
77.017937
 20
189.674853
 30
0.0
 40
1.75
  1
ALUMINUM EXTRUSIONS
 41
0.75
  7
TXT
  0
TEXT
  8
TEXT
 10
77.017937
 20
186.841603
 30
0.0
 40
1.75
  1
PLEXIGLAS
 41
0.75
  7
TXT
  0
TEXT
  8
TEXT
 10
107.31925
 20
196.627587
 30
0.0
 40
1.75
  1
3/16 THICK
 41
0.75
  7
TXT
  0
TEXT
  8
TEXT
 10
107.31925
 20
189.674853
 30
0.0
 40
1.75
  1
CLEAR ANODIZED
 41
0.75
  7
TXT
  0
TEXT
  8
TEXT
 10
107.31925
 20
186.841603
 30
0.0
 40
1.75
  1
SMOKE GRAY
 41
0.75
  7
TXT
  0
LINE
  8
TEXT
 10
101.412579
 20
189.651548
 30
0.0
 11
106.59461
 21
189.651548
 31
0.0
  0
LINE
  8
TEXT
 10
89.415818
 20
196.525532
 30
0.0
 11
106.59461
 21
196.525532
 31
0.0
  0
LINE
  8
TEXT
 10
88.872061
 20
186.822965
 30
0.0
 11
106.59461
 21
186.822965
 31
0.0
  0
TEXT
  8
TEXT
 10
77.017937
 20
179.269342
 30
0.0
 40
1.75
  1
FULL LENGTH ALUMINUM EXTRUSION FRAMED
 41
0.75
  7
TXT
  0
TEXT
  8
TEXT
 10
77.017937
 20
176.352675
 30
0.0
 40
1.75
  1
LOCKING PLEXIGLAS DOOR FLUSH MOUNTED.
 41
0.75
  7
TXT
  0
TEXT
  8
TEXT
 10
7.268311
 20
6.772675
 30
0.0
 40
1.75
  1
EIGHT (8) CABLE MANAGEMENT PANELS &
 41
0.75
  7
TXT
  0
TEXT
  8
TEXT
 10
5.646707
 20
9.689341
 30
0.0
 40
1.75
  1
THIS UNIT SUPPLIED WITH:
 41
0.75
  7
TXT
  0
TEXT
  8
TEXT
 10
7.268311
 20
3.939425
 30
0.0
 40
1.75
  1
FIFTEEN (15) CABLE CLIP BRACKETS.
 41
0.75
  7
TXT
  0
TEXT
  8
DIM
 10
221.381413
 20
309.655461
 30
0.0
 40
1.25
  1

  0
TEXT
  8
DIM
 10
222.443913
 20
305.561703
 30
0.0
 40
1.0
  1

  0
TEXT
  8
OBJECT
 10
223.300657
 20
356.25836
 30
0.0
 40
1.25
  1

  0
TEXT
  8
TEXT
 10
5.315596
 20
161.703815
 30
0.0
 40
1.75
  1
%%uCABLE MANAGEMENT PANEL
 41
0.75
  7
TXT
  0
TEXT
  8
TEXT
 10
8.13446
 20
158.791815
 30
0.0
 40
1.75
  1
%%uMATERIAL:%%U  16 GA. STEEL
 41
0.75
  7
TXT
  0
CIRCLE
  8
PMR
 10
104.589174
 20
94.516763
 30
0.0
 40
0.095
  0
CIRCLE
  8
PMR
 10
104.589174
 20
94.016763
 30
0.0
 40
0.095
  0
CIRCLE
  8
PMR
 10
104.589174
 20
93.391763
 30
0.0
 40
0.095
  0
CIRCLE
  8
PMR
 10
104.589174
 20
92.766763
 30
0.0
 40
0.095
  0
CIRCLE
  8
PMR
 10
104.589174
 20
92.266763
 30
0.0
 40
0.095
  0
CIRCLE
  8
PMR
 10
104.589174
 20
91.016763
 30
0.0
 40
0.095
  0
CIRCLE
  8
PMR
 10
104.589174
 20
91.641763
 30
0.0
 40
0.095
  0
CIRCLE
  8
PMR
 10
104.589174
 20
90.516763
 30
0.0
 40
0.095
  0
CIRCLE
  8
PMR
 10
104.589174
 20
101.516763
 30
0.0
 40
0.095
  0
CIRCLE
  8
PMR
 10
104.589174
 20
102.141763
 30
0.0
 40
0.095
  0
CIRCLE
  8
PMR
 10
104.589174
 20
101.016763
 30
0.0
 40
0.095
  0
CIRCLE
  8
PMR
 10
104.589174
 20
99.766763
 30
0.0
 40
0.095
  0
CIRCLE
  8
PMR
 10
104.589174
 20
100.391763
 30
0.0
 40
0.095
  0
CIRCLE
  8
PMR
 10
104.589174
 20
99.266763
 30
0.0
 40
0.095
  0
CIRCLE
  8
PMR
 10
104.589174
 20
98.641763
 30
0.0
 40
0.095
  0
CIRCLE
  8
PMR
 10
104.589174
 20
98.016763
 30
0.0
 40
0.095
  0
CIRCLE
  8
PMR
 10
104.589174
 20
97.516763
 30
0.0
 40
0.095
  0
CIRCLE
  8
PMR
 10
104.589174
 20
96.266763
 30
0.0
 40
0.095
  0
CIRCLE
  8
PMR
 10
104.589174
 20
96.891763
 30
0.0
 40
0.095
  0
CIRCLE
  8
PMR
 10
104.589174
 20
95.766763
 30
0.0
 40
0.095
  0
CIRCLE
  8
PMR
 10
104.589174
 20
95.141763
 30
0.0
 40
0.095
  0
CIRCLE
  8
PMR
 10
104.589174
 20
110.266763
 30
0.0
 40
0.095
  0
CIRCLE
  8
PMR
 10
104.589174
 20
109.766763
 30
0.0
 40
0.095
  0
CIRCLE
  8
PMR
 10
104.589174
 20
108.516763
 30
0.0
 40
0.095
  0
CIRCLE
  8
PMR
 10
104.589174
 20
109.141763
 30
0.0
 40
0.095
  0
CIRCLE
  8
PMR
 10
104.589174
 20
108.016763
 30
0.0
 40
0.095
  0
CIRCLE
  8
PMR
 10
104.589174
 20
106.766763
 30
0.0
 40
0.095
  0
CIRCLE
  8
PMR
 10
104.589174
 20
107.391763
 30
0.0
 40
0.095
  0
CIRCLE
  8
PMR
 10
104.589174
 20
106.266763
 30
0.0
 40
0.095
  0
CIRCLE
  8
PMR
 10
104.589174
 20
105.016763
 30
0.0
 40
0.095
  0
CIRCLE
  8
PMR
 10
104.589174
 20
105.641763
 30
0.0
 40
0.095
  0
CIRCLE
  8
PMR
 10
104.589174
 20
104.516763
 30
0.0
 40
0.095
  0
CIRCLE
  8
PMR
 10
104.589174
 20
103.891763
 30
0.0
 40
0.095
  0
CIRCLE
  8
PMR
 10
104.589174
 20
102.766763
 30
0.0
 40
0.095
  0
CIRCLE
  8
PMR
 10
104.589174
 20
103.266763
 30
0.0
 40
0.095
  0
CIRCLE
  8
PMR
 10
104.589174
 20
112.016763
 30
0.0
 40
0.095
  0
CIRCLE
  8
PMR
 10
104.589174
 20
111.516763
 30
0.0
 40
0.095
  0
CIRCLE
  8
PMR
 10
104.589174
 20
110.891763
 30
0.0
 40
0.095
  0
CIRCLE
  8
PMR
 10
122.900174
 20
94.516763
 30
0.0
 40
0.095
  0
CIRCLE
  8
PMR
 10
122.900174
 20
94.016763
 30
0.0
 40
0.095
  0
CIRCLE
  8
PMR
 10
122.900174
 20
102.141763
 30
0.0
 40
0.095
  0
CIRCLE
  8
PMR
 10
122.900174
 20
101.516763
 30
0.0
 40
0.095
  0
CIRCLE
  8
PMR
 10
122.900174
 20
100.391763
 30
0.0
 40
0.095
  0
CIRCLE
  8
PMR
 10
122.900174
 20
101.016763
 30
0.0
 40
0.095
  0
CIRCLE
  8
PMR
 10
122.900174
 20
99.766763
 30
0.0
 40
0.095
  0
CIRCLE
  8
PMR
 10
122.900174
 20
98.641763
 30
0.0
 40
0.095
  0
CIRCLE
  8
PMR
 10
122.900174
 20
99.266763
 30
0.0
 40
0.095
  0
CIRCLE
  8
PMR
 10
122.900174
 20
98.016763
 30
0.0
 40
0.095
  0
CIRCLE
  8
PMR
 10
122.900174
 20
97.516763
 30
0.0
 40
0.095
  0
CIRCLE
  8
PMR
 10
122.900174
 20
96.891763
 30
0.0
 40
0.095
  0
CIRCLE
  8
PMR
 10
122.900174
 20
96.266763
 30
0.0
 40
0.095
  0
CIRCLE
  8
PMR
 10
122.900174
 20
95.141763
 30
0.0
 40
0.095
  0
CIRCLE
  8
PMR
 10
122.900174
 20
95.766763
 30
0.0
 40
0.095
  0
CIRCLE
  8
PMR
 10
122.900174
 20
106.766763
 30
0.0
 40
0.095
  0
CIRCLE
  8
PMR
 10
122.900174
 20
105.641763
 30
0.0
 40
0.095
  0
CIRCLE
  8
PMR
 10
122.900174
 20
106.266763
 30
0.0
 40
0.095
  0
CIRCLE
  8
PMR
 10
122.900174
 20
105.016763
 30
0.0
 40
0.095
  0
CIRCLE
  8
PMR
 10
122.900174
 20
103.891763
 30
0.0
 40
0.095
  0
CIRCLE
  8
PMR
 10
122.900174
 20
104.516763
 30
0.0
 40
0.095
  0
CIRCLE
  8
PMR
 10
122.900174
 20
103.266763
 30
0.0
 40
0.095
  0
CIRCLE
  8
PMR
 10
122.900174
 20
102.766763
 30
0.0
 40
0.095
  0
CIRCLE
  8
PMR
 10
122.900174
 20
110.266763
 30
0.0
 40
0.095
  0
CIRCLE
  8
PMR
 10
122.900174
 20
109.141763
 30
0.0
 40
0.095
  0
CIRCLE
  8
PMR
 10
122.900174
 20
109.766763
 30
0.0
 40
0.095
  0
CIRCLE
  8
PMR
 10
122.900174
 20
108.516763
 30
0.0
 40
0.095
  0
CIRCLE
  8
PMR
 10
122.900174
 20
108.016763
 30
0.0
 40
0.095
  0
CIRCLE
  8
PMR
 10
122.900174
 20
107.391763
 30
0.0
 40
0.095
  0
CIRCLE
  8
PMR
 10
122.900174
 20
115.516763
 30
0.0
 40
0.095
  0
CIRCLE
  8
PMR
 10
122.900174
 20
114.391763
 30
0.0
 40
0.095
  0
CIRCLE
  8
PMR
 10
122.900174
 20
115.016763
 30
0.0
 40
0.095
  0
CIRCLE
  8
PMR
 10
122.900174
 20
113.766763
 30
0.0
 40
0.095
  0
CIRCLE
  8
PMR
 10
122.900174
 20
112.641763
 30
0.0
 40
0.095
  0
CIRCLE
  8
PMR
 10
122.900174
 20
113.266763
 30
0.0
 40
0.095
  0
CIRCLE
  8
PMR
 10
122.900174
 20
112.016763
 30
0.0
 40
0.095
  0
CIRCLE
  8
PMR
 10
122.900174
 20
110.891763
 30
0.0
 40
0.095
  0
CIRCLE
  8
PMR
 10
122.900174
 20
111.516763
 30
0.0
 40
0.095
  0
DIMENSION
  8
DIM
  2
*D9
 10
122.713674
 20
109.495703
 30
0.0
 11
113.745299
 21
109.495703
 31
0.0
 12
-198.714531
 22
-5.395265
 32
0.0
  1
<>
 13
104.776924
 23
109.289743
 33
0.0
 14
122.713674
 24
109.289743
 34
0.0
  3
23NSTD
  0
DIMENSION
  8
DIM
  2
*D10
 10
122.901174
 20
104.844349
 30
0.0
 11
113.745174
 21
104.844349
 31
0.0
 12
-198.714531
 22
-5.395265
 32
0.0
  1
<>
 13
104.589174
 23
107.391763
 33
0.0
 14
122.901174
 24
107.391763
 34
0.0
  3
23NSTD
  0
DIMENSION
  8
DIM
  2
*D32
 10
125.806674
 20
100.90936
 30
0.0
 11
113.744674
 21
100.90936
 31
0.0
  1
<>
 13
101.682674
 23
100.02736
 33
0.0
 14
125.806674
 24
100.02736
 34
0.0
  3
23NSTD
  0
TEXT
  8
DIM
 10
37.85423
 20
40.078051
 30
0.0
 40
1.75
  1
(4) PLACES
 41
0.75
  7
TXT
  0
TEXT
  8
DIM
 10
37.85423
 20
42.994717
 30
0.0
 40
1.75
  1
KNOCKOUT
 41
0.75
  7
TXT
  0
TEXT
  8
DIM
 10
37.85423
 20
45.911384
 30
0.0
 40
1.75
  1
1.109 DIA.
 41
0.75
  7
TXT
  0
POLYLINE
  8
DIM
 66
     1
 10
0.0
 20
0.0
 30
0.0
 41
0.945
  0
VERTEX
  8
DIM
 10
25.847647
 20
55.804839
 30
0.0
  0
VERTEX
  8
DIM
 10
27.576772
 20
53.971666
 30
0.0
 41
0.0
  0
VERTEX
  8
DIM
 10
34.35423
 20
46.786384
 30
0.0
 41
0.0
  0
VERTEX
  8
DIM
 10
36.10423
 20
46.786384
 30
0.0
 41
0.0
  0
SEQEND
  8
DIM
  0
DIMENSION
  8
DIM
  2
*D21
 10
16.339795
 20
47.907946
 30
0.0
 11
20.886295
 21
47.907946
 31
0.0
 12
-198.714531
 22
-5.395265
 32
0.0
 13
25.432795
 23
56.172763
 33
0.0
 14
16.339795
 24
56.172763
 34
0.0
  3
23NSTDI
  0
DIMENSION
  8
DIM
  2
*D16
 10
7.386295
 20
51.407946
 30
0.0
 11
11.863045
 21
51.407946
 31
0.0
 12
-198.714531
 22
-5.395265
 32
0.0
 13
16.339795
 23
56.172763
 33
0.0
 14
7.386295
 24
54.860763
 34
0.0
  3
23NSTDI
  0
DIMENSION
  8
DIM
  2
*D11
 10
37.251979
 20
56.172763
 30
0.0
 11
43.219479
 21
61.212763
 31
0.0
 12
-198.714531
 22
-5.395265
 32
0.0
 13
34.386295
 23
54.860763
 33
0.0
 14
25.432795
 24
56.172763
 34
0.0
 50
270.0
  3
23NSTD
  0
DIMENSION
  8
DIM
  2
*D20
 10
90.751168
 20
39.437443
 30
0.0
 11
84.564918
 21
34.397443
 31
0.0
 12
-198.714531
 22
-2.234465
 32
0.0
 13
100.244674
 23
41.265443
 33
0.0
 14
102.650674
 24
39.437443
 34
0.0
 50
270.0
  3
23NSTD
  0
DIMENSION
  8
DIM
  2
*D23
 10
102.650674
 20
47.468956
 30
0.0
 11
111.466299
 21
47.468956
 31
0.0
 12
-198.714531
 22
-2.234465
 32
0.0
 13
100.244674
 23
41.265443
 33
0.0
 14
102.650674
 24
39.437443
 34
0.0
  3
23NSTD
  0
DIMENSION
  8
DIM
  2
*D24
 10
104.400674
 20
43.968956
 30
0.0
 11
112.997549
 21
43.968956
 31
0.0
 12
-198.714531
 22
-2.234465
 32
0.0
 13
102.650674
 23
39.437443
 33
0.0
 14
104.400674
 24
39.437443
 34
0.0
  3
23NSTD
  0
DIMENSION
  8
DIM
  2
*D17
 10
95.553168
 20
36.437443
 30
0.0
 11
95.553168
 21
37.937443
 31
0.0
 12
-198.714531
 22
-2.234465
 32
0.0
 13
102.650674
 23
39.437443
 33
0.0
 14
102.650674
 24
36.437443
 34
0.0
 50
270.0
  3
23NSTDI
  0
DIMENSION
  8
DIM
  2
*D28
 10
130.407184
 20
12.343443
 30
0.0
 11
136.593434
 21
17.383443
 31
0.0
 12
0.0
 22
-1.7303
 32
0.0
 13
127.244674
 23
10.515443
 33
0.0
 14
118.291174
 24
12.343443
 34
0.0
 50
270.0
  3
23NSTD
  0
POLYLINE
  8
PLEXIGLASS
 66
     1
 10
0.0
 20
0.0
 30
0.0
 75
     6
  0
VERTEX
  8
PLEXIGLASS
 10
101.760674
 20
110.925269
 30
0.0
  0
VERTEX
  8
PLEXIGLASS
 10
102.915038
 20
111.607178
 30
0.0
  0
VERTEX
  8
PLEXIGLASS
 10
103.937075
 20
112.064429
 30
0.0
  0
VERTEX
  8
PLEXIGLASS
 10
104.840813
 20
112.338933
 30
0.0
  0
VERTEX
  8
PLEXIGLASS
 10
105.640278
 20
112.472603
 30
0.0
  0
VERTEX
  8
PLEXIGLASS
 10
106.349496
 20
112.507351
 30
0.0
  0
VERTEX
  8
PLEXIGLASS
 10
106.982494
 20
112.485089
 30
0.0
  0
VERTEX
  8
PLEXIGLASS
 10
107.553299
 20
112.447728
 30
0.0
  0
VERTEX
  8
PLEXIGLASS
 10
108.075936
 20
112.437181
 30
0.0
  0
VERTEX
  8
PLEXIGLASS
 10
108.562922
 20
112.48593
 30
0.0
  0
VERTEX
  8
PLEXIGLASS
 10
109.020737
 20
112.588737
 30
0.0
  0
VERTEX
  8
PLEXIGLASS
 10
109.454349
 20
112.730932
 30
0.0
  0
VERTEX
  8
PLEXIGLASS
 10
109.868727
 20
112.897847
 30
0.0
  0
VERTEX
  8
PLEXIGLASS
 10
110.268841
 20
113.074814
 30
0.0
  0
VERTEX
  8
PLEXIGLASS
 10
110.65966
 20
113.247165
 30
0.0
  0
VERTEX
  8
PLEXIGLASS
 10
111.046153
 20
113.40023
 30
0.0
  0
VERTEX
  8
PLEXIGLASS
 10
111.433289
 20
113.519341
 30
0.0
  0
VERTEX
  8
PLEXIGLASS
 10
111.825072
 20
113.594515
 30
0.0
  0
VERTEX
  8
PLEXIGLASS
 10
112.221649
 20
113.634507
 30
0.0
  0
VERTEX
  8
PLEXIGLASS
 10
112.622202
 20
113.65276
 30
0.0
  0
VERTEX
  8
PLEXIGLASS
 10
113.025911
 20
113.662715
 30
0.0
  0
VERTEX
  8
PLEXIGLASS
 10
113.431959
 20
113.677812
 30
0.0
  0
VERTEX
  8
PLEXIGLASS
 10
113.839527
 20
113.711493
 30
0.0
  0
VERTEX
  8
PLEXIGLASS
 10
114.247796
 20
113.777199
 30
0.0
  0
VERTEX
  8
PLEXIGLASS
 10
114.655948
 20
113.888372
 30
0.0
  0
VERTEX
  8
PLEXIGLASS
 10
115.06318
 20
114.053868
 30
0.0
  0
VERTEX
  8
PLEXIGLASS
 10
115.468749
 20
114.264198
 30
0.0
  0
VERTEX
  8
PLEXIGLASS
 10
115.871927
 20
114.505291
 30
0.0
  0
VERTEX
  8
PLEXIGLASS
 10
116.271985
 20
114.763074
 30
0.0
  0
VERTEX
  8
PLEXIGLASS
 10
116.668198
 20
115.023473
 30
0.0
  0
VERTEX
  8
PLEXIGLASS
 10
117.059835
 20
115.272416
 30
0.0
  0
VERTEX
  8
PLEXIGLASS
 10
117.44617
 20
115.495831
 30
0.0
  0
VERTEX
  8
PLEXIGLASS
 10
117.826474
 20
115.679645
 30
0.0
  0
VERTEX
  8
PLEXIGLASS
 10
118.200283
 20
115.813248
 30
0.0
  0
VERTEX
  8
PLEXIGLASS
 10
118.568178
 20
115.899887
 30
0.0
  0
VERTEX
  8
PLEXIGLASS
 10
118.931004
 20
115.946269
 30
0.0
  0
VERTEX
  8
PLEXIGLASS
 10
119.289607
 20
115.959106
 30
0.0
  0
VERTEX
  8
PLEXIGLASS
 10
119.644831
 20
115.945105
 30
0.0
  0
VERTEX
  8
PLEXIGLASS
 10
119.99752
 20
115.910977
 30
0.0
  0
VERTEX
  8
PLEXIGLASS
 10
120.348519
 20
115.86343
 30
0.0
  0
VERTEX
  8
PLEXIGLASS
 10
120.698674
 20
115.809174
 30
0.0
  0
VERTEX
  8
PLEXIGLASS
 10
121.048829
 20
115.754918
 30
0.0
  0
VERTEX
  8
PLEXIGLASS
 10
121.399829
 20
115.707371
 30
0.0
  0
VERTEX
  8
PLEXIGLASS
 10
121.752518
 20
115.673242
 30
0.0
  0
VERTEX
  8
PLEXIGLASS
 10
122.107742
 20
115.659242
 30
0.0
  0
VERTEX
  8
PLEXIGLASS
 10
122.466344
 20
115.672078
 30
0.0
  0
VERTEX
  8
PLEXIGLASS
 10
122.829171
 20
115.718461
 30
0.0
  0
VERTEX
  8
PLEXIGLASS
 10
123.197066
 20
115.8051
 30
0.0
  0
VERTEX
  8
PLEXIGLASS
 10
123.570874
 20
115.938703
 30
0.0
  0
VERTEX
  8
PLEXIGLASS
 10
123.951179
 20
116.122516
 30
0.0
  0
VERTEX
  8
PLEXIGLASS
 10
124.337514
 20
116.345931
 30
0.0
  0
VERTEX
  8
PLEXIGLASS
 10
124.729151
 20
116.594875
 30
0.0
  0
VERTEX
  8
PLEXIGLASS
 10
125.125363
 20
116.855274
 30
0.0
  0
VERTEX
  8
PLEXIGLASS
 10
125.525422
 20
117.113057
 30
0.0
  0
VERTEX
  8
PLEXIGLASS
 10
125.698674
 20
117.216658
 30
0.0
  0
SEQEND
  8
PLEXIGLASS
  0
POLYLINE
  8
PLEXIGLASS
 66
     1
 10
0.0
 20
0.0
 30
0.0
 75
     6
  0
VERTEX
  8
PLEXIGLASS
 10
101.760674
 20
88.992487
 30
0.0
  0
VERTEX
  8
PLEXIGLASS
 10
102.915038
 20
89.674396
 30
0.0
  0
VERTEX
  8
PLEXIGLASS
 10
103.937075
 20
90.131647
 30
0.0
  0
VERTEX
  8
PLEXIGLASS
 10
104.840813
 20
90.406151
 30
0.0
  0
VERTEX
  8
PLEXIGLASS
 10
105.640278
 20
90.539821
 30
0.0
  0
VERTEX
  8
PLEXIGLASS
 10
106.349496
 20
90.574569
 30
0.0
  0
VERTEX
  8
PLEXIGLASS
 10
106.982494
 20
90.552306
 30
0.0
  0
VERTEX
  8
PLEXIGLASS
 10
107.553299
 20
90.514946
 30
0.0
  0
VERTEX
  8
PLEXIGLASS
 10
108.075936
 20
90.504399
 30
0.0
  0
VERTEX
  8
PLEXIGLASS
 10
108.562922
 20
90.553148
 30
0.0
  0
VERTEX
  8
PLEXIGLASS
 10
109.020737
 20
90.655954
 30
0.0
  0
VERTEX
  8
PLEXIGLASS
 10
109.454349
 20
90.798149
 30
0.0
  0
VERTEX
  8
PLEXIGLASS
 10
109.868727
 20
90.965065
 30
0.0
  0
VERTEX
  8
PLEXIGLASS
 10
110.268841
 20
91.142032
 30
0.0
  0
VERTEX
  8
PLEXIGLASS
 10
110.65966
 20
91.314382
 30
0.0
  0
VERTEX
  8
PLEXIGLASS
 10
111.046153
 20
91.467447
 30
0.0
  0
VERTEX
  8
PLEXIGLASS
 10
111.433289
 20
91.586559
 30
0.0
  0
VERTEX
  8
PLEXIGLASS
 10
111.825072
 20
91.661732
 30
0.0
  0
VERTEX
  8
PLEXIGLASS
 10
112.221649
 20
91.701725
 30
0.0
  0
VERTEX
  8
PLEXIGLASS
 10
112.622202
 20
91.719978
 30
0.0
  0
VERTEX
  8
PLEXIGLASS
 10
113.025911
 20
91.729932
 30
0.0
  0
VERTEX
  8
PLEXIGLASS
 10
113.431959
 20
91.745029
 30
0.0
  0
VERTEX
  8
PLEXIGLASS
 10
113.839527
 20
91.778711
 30
0.0
  0
VERTEX
  8
PLEXIGLASS
 10
114.247796
 20
91.844417
 30
0.0
  0
VERTEX
  8
PLEXIGLASS
 10
114.655948
 20
91.95559
 30
0.0
  0
VERTEX
  8
PLEXIGLASS
 10
115.06318
 20
92.121085
 30
0.0
  0
VERTEX
  8
PLEXIGLASS
 10
115.468749
 20
92.331416
 30
0.0
  0
VERTEX
  8
PLEXIGLASS
 10
115.871927
 20
92.572509
 30
0.0
  0
VERTEX
  8
PLEXIGLASS
 10
116.271985
 20
92.830291
 30
0.0
  0
VERTEX
  8
PLEXIGLASS
 10
116.668198
 20
93.09069
 30
0.0
  0
VERTEX
  8
PLEXIGLASS
 10
117.059835
 20
93.339634
 30
0.0
  0
VERTEX
  8
PLEXIGLASS
 10
117.44617
 20
93.563049
 30
0.0
  0
VERTEX
  8
PLEXIGLASS
 10
117.826474
 20
93.746863
 30
0.0
  0
VERTEX
  8
PLEXIGLASS
 10
118.200283
 20
93.880466
 30
0.0
  0
VERTEX
  8
PLEXIGLASS
 10
118.568178
 20
93.967104
 30
0.0
  0
VERTEX
  8
PLEXIGLASS
 10
118.931004
 20
94.013487
 30
0.0
  0
VERTEX
  8
PLEXIGLASS
 10
119.289607
 20
94.026323
 30
0.0
  0
VERTEX
  8
PLEXIGLASS
 10
119.644831
 20
94.012323
 30
0.0
  0
VERTEX
  8
PLEXIGLASS
 10
119.99752
 20
93.978194
 30
0.0
  0
VERTEX
  8
PLEXIGLASS
 10
120.348519
 20
93.930648
 30
0.0
  0
VERTEX
  8
PLEXIGLASS
 10
120.698674
 20
93.876391
 30
0.0
  0
VERTEX
  8
PLEXIGLASS
 10
121.048829
 20
93.822135
 30
0.0
  0
VERTEX
  8
PLEXIGLASS
 10
121.399829
 20
93.774588
 30
0.0
  0
VERTEX
  8
PLEXIGLASS
 10
121.752518
 20
93.74046
 30
0.0
  0
VERTEX
  8
PLEXIGLASS
 10
122.107742
 20
93.726459
 30
0.0
  0
VERTEX
  8
PLEXIGLASS
 10
122.466344
 20
93.739296
 30
0.0
  0
VERTEX
  8
PLEXIGLASS
 10
122.829171
 20
93.785679
 30
0.0
  0
VERTEX
  8
PLEXIGLASS
 10
123.197066
 20
93.872317
 30
0.0
  0
VERTEX
  8
PLEXIGLASS
 10
123.570874
 20
94.00592
 30
0.0
  0
VERTEX
  8
PLEXIGLASS
 10
123.951179
 20
94.189734
 30
0.0
  0
VERTEX
  8
PLEXIGLASS
 10
124.337514
 20
94.413149
 30
0.0
  0
VERTEX
  8
PLEXIGLASS
 10
124.729151
 20
94.662092
 30
0.0
  0
VERTEX
  8
PLEXIGLASS
 10
125.125363
 20
94.922492
 30
0.0
  0
VERTEX
  8
PLEXIGLASS
 10
125.525422
 20
95.180274
 30
0.0
  0
VERTEX
  8
PLEXIGLASS
 10
125.698674
 20
95.283876
 30
0.0
  0
SEQEND
  8
PLEXIGLASS
  0
LINE
  8
OBJECT
 10
81.358883
 20
57.509846
 30
0.0
 11
81.358883
 21
58.884846
 31
0.0
  0
LINE
  8
OBJECT
 10
81.999883
 20
57.509846
 30
0.0
 11
81.999883
 21
58.884846
 31
0.0
  0
CIRCLE
  8
OBJECT
 10
81.576883
 20
58.134846
 30
0.0
 40
0.0735
  0
LINE
  8
OBJECT
 10
81.201883
 20
60.259846
 30
0.0
 11
80.577883
 21
60.259846
 31
0.0
  0
LINE
  8
OBJECT
 10
80.577883
 20
60.650846
 30
0.0
 11
80.577883
 21
59.634846
 31
0.0
  0
LINE
  8
OBJECT
 10
81.201883
 20
60.650846
 30
0.0
 11
81.201883
 21
59.634846
 31
0.0
  0
ARC
  8
OBJECT
 10
80.889883
 20
60.634846
 30
0.0
 40
0.1405
 50
173.461028
 51
6.538972
  0
CIRCLE
  8
OBJECT
 10
54.452883
 20
58.134846
 30
0.0
 40
0.0735
  0
LINE
  8
OBJECT
 10
54.029883
 20
58.884846
 30
0.0
 11
54.029883
 21
57.509846
 31
0.0
  0
LINE
  8
OBJECT
 10
54.670883
 20
58.884846
 30
0.0
 11
54.670883
 21
57.509846
 31
0.0
  0
LINE
  8
OBJECT
 10
55.451883
 20
60.259846
 30
0.0
 11
54.827883
 21
60.259846
 31
0.0
  0
LINE
  8
OBJECT
 10
55.451883
 20
60.650846
 30
0.0
 11
55.451883
 21
59.634846
 31
0.0
  0
LINE
  8
OBJECT
 10
54.827883
 20
60.650846
 30
0.0
 11
54.827883
 21
59.634846
 31
0.0
  0
ARC
  8
OBJECT
 10
55.139883
 20
60.634846
 30
0.0
 40
0.1405
 50
173.461028
 51
6.538972
  0
LINE
  8
OBJECT
 10
54.670883
 20
126.196846
 30
0.0
 11
54.670883
 21
126.987276
 31
0.0
  0
LINE
  8
OBJECT
 10
54.029883
 20
126.196846
 30
0.0
 11
54.029883
 21
127.012014
 31
0.0
  0
CIRCLE
  8
OBJECT
 10
54.452883
 20
126.946846
 30
0.0
 40
0.0735
  0
ARC
  8
OBJECT
 10
55.139883
 20
124.446846
 30
0.0
 40
0.1405
 50
353.461028
 51
186.538972
  0
LINE
  8
OBJECT
 10
54.827883
 20
124.430846
 30
0.0
 11
54.827883
 21
125.446846
 31
0.0
  0
LINE
  8
OBJECT
 10
55.451883
 20
124.430846
 30
0.0
 11
55.451883
 21
125.446846
 31
0.0
  0
LINE
  8
OBJECT
 10
55.451883
 20
124.821846
 30
0.0
 11
54.827883
 21
124.821846
 31
0.0
  0
INSERT
  8
OBJECT
  2
L15
 10
60.295383
 20
125.071846
 30
0.0
  0
INSERT
  8
OBJECT
  2
L15
 10
75.734383
 20
125.071846
 30
0.0
  0
POLYLINE
  8
CMP
 66
     1
 10
0.0
 20
0.0
 30
0.0
  0
VERTEX
  8
CMP
 10
81.733633
 20
64.056846
 30
0.0
  0
VERTEX
  8
CMP
 10
81.733633
 20
64.806846
 30
0.0
  0
VERTEX
  8
CMP
 10
80.983633
 20
64.806846
 30
0.0
  0
VERTEX
  8
CMP
 10
80.983633
 20
64.056846
 30
0.0
  0
VERTEX
  8
CMP
 10
81.733633
 20
64.056846
 30
0.0
  0
SEQEND
  8
CMP
  0
POLYLINE
  8
CMP
 66
     1
 10
0.0
 20
0.0
 30
0.0
  0
VERTEX
  8
CMP
 10
79.920633
 20
64.056846
 30
0.0
  0
VERTEX
  8
CMP
 10
79.920633
 20
64.806846
 30
0.0
  0
VERTEX
  8
CMP
 10
80.670633
 20
64.806846
 30
0.0
  0
VERTEX
  8
CMP
 10
80.670633
 20
64.056846
 30
0.0
  0
VERTEX
  8
CMP
 10
79.920633
 20
64.056846
 30
0.0
  0
SEQEND
  8
CMP
  0
POLYLINE
  8
CMP
 66
     1
 10
0.0
 20
0.0
 30
0.0
 70
     1
  0
VERTEX
  8
CMP
 10
80.264633
 20
61.509846
 30
0.0
 42
-1.0
  0
VERTEX
  8
CMP
 10
80.264633
 20
61.259846
 30
0.0
  0
VERTEX
  8
CMP
 10
80.014633
 20
61.259846
 30
0.0
 42
-1.0
  0
VERTEX
  8
CMP
 10
80.014633
 20
61.509846
 30
0.0
  0
SEQEND
  8
CMP
  0
POLYLINE
  8
CMP
 66
     1
 10
0.0
 20
0.0
 30
0.0
 70
     1
  0
VERTEX
  8
CMP
 10
81.639633
 20
61.509846
 30
0.0
 42
-1.0
  0
VERTEX
  8
CMP
 10
81.639633
 20
61.259846
 30
0.0
  0
VERTEX
  8
CMP
 10
81.389633
 20
61.259846
 30
0.0
 42
-1.0
  0
VERTEX
  8
CMP
 10
81.389633
 20
61.509846
 30
0.0
  0
SEQEND
  8
CMP
  0
POLYLINE
  8
CMP
 66
     1
 10
0.0
 20
0.0
 30
0.0
 70
     1
  0
VERTEX
  8
CMP
 10
81.639633
 20
62.134846
 30
0.0
 42
-1.0
  0
VERTEX
  8
CMP
 10
81.639633
 20
61.884846
 30
0.0
  0
VERTEX
  8
CMP
 10
81.389633
 20
61.884846
 30
0.0
 42
-1.0
  0
VERTEX
  8
CMP
 10
81.389633
 20
62.134846
 30
0.0
  0
SEQEND
  8
CMP
  0
POLYLINE
  8
CMP
 66
     1
 10
0.0
 20
0.0
 30
0.0
 70
     1
  0
VERTEX
  8
CMP
 10
80.264633
 20
62.134846
 30
0.0
 42
-1.0
  0
VERTEX
  8
CMP
 10
80.264633
 20
61.884846
 30
0.0
  0
VERTEX
  8
CMP
 10
80.014633
 20
61.884846
 30
0.0
 42
-1.0
  0
VERTEX
  8
CMP
 10
80.014633
 20
62.134846
 30
0.0
  0
SEQEND
  8
CMP
  0
POLYLINE
  8
CMP
 66
     1
 10
0.0
 20
0.0
 30
0.0
  0
VERTEX
  8
CMP
 10
79.920633
 20
65.868846
 30
0.0
  0
VERTEX
  8
CMP
 10
79.920633
 20
65.118846
 30
0.0
  0
VERTEX
  8
CMP
 10
80.670633
 20
65.118846
 30
0.0
  0
VERTEX
  8
CMP
 10
80.670633
 20
65.868846
 30
0.0
  0
VERTEX
  8
CMP
 10
79.920633
 20
65.868846
 30
0.0
  0
SEQEND
  8
CMP
  0
POLYLINE
  8
CMP
 66
     1
 10
0.0
 20
0.0
 30
0.0
  0
VERTEX
  8
CMP
 10
81.733633
 20
65.868846
 30
0.0
  0
VERTEX
  8
CMP
 10
81.733633
 20
65.118846
 30
0.0
  0
VERTEX
  8
CMP
 10
80.983633
 20
65.118846
 30
0.0
  0
VERTEX
  8
CMP
 10
80.983633
 20
65.868846
 30
0.0
  0
VERTEX
  8
CMP
 10
81.733633
 20
65.868846
 30
0.0
  0
SEQEND
  8
CMP
  0
POLYLINE
  8
CMP
 66
     1
 10
0.0
 20
0.0
 30
0.0
  0
VERTEX
  8
CMP
 10
79.920633
 20
79.306846
 30
0.0
  0
VERTEX
  8
CMP
 10
79.920633
 20
80.056846
 30
0.0
  0
VERTEX
  8
CMP
 10
80.670633
 20
80.056846
 30
0.0
  0
VERTEX
  8
CMP
 10
80.670633
 20
79.306846
 30
0.0
  0
VERTEX
  8
CMP
 10
79.920633
 20
79.306846
 30
0.0
  0
SEQEND
  8
CMP
  0
POLYLINE
  8
CMP
 66
     1
 10
0.0
 20
0.0
 30
0.0
  0
VERTEX
  8
CMP
 10
81.733633
 20
79.306846
 30
0.0
  0
VERTEX
  8
CMP
 10
81.733633
 20
80.056846
 30
0.0
  0
VERTEX
  8
CMP
 10
80.983633
 20
80.056846
 30
0.0
  0
VERTEX
  8
CMP
 10
80.983633
 20
79.306846
 30
0.0
  0
VERTEX
  8
CMP
 10
81.733633
 20
79.306846
 30
0.0
  0
SEQEND
  8
CMP
  0
POLYLINE
  8
CMP
 66
     1
 10
0.0
 20
0.0
 30
0.0
  0
VERTEX
  8
CMP
 10
79.920633
 20
72.056846
 30
0.0
  0
VERTEX
  8
CMP
 10
79.920633
 20
72.806846
 30
0.0
  0
VERTEX
  8
CMP
 10
80.670633
 20
72.806846
 30
0.0
  0
VERTEX
  8
CMP
 10
80.670633
 20
72.056846
 30
0.0
  0
VERTEX
  8
CMP
 10
79.920633
 20
72.056846
 30
0.0
  0
SEQEND
  8
CMP
  0
POLYLINE
  8
CMP
 66
     1
 10
0.0
 20
0.0
 30
0.0
  0
VERTEX
  8
CMP
 10
81.733633
 20
72.056846
 30
0.0
  0
VERTEX
  8
CMP
 10
81.733633
 20
72.806846
 30
0.0
  0
VERTEX
  8
CMP
 10
80.983633
 20
72.806846
 30
0.0
  0
VERTEX
  8
CMP
 10
80.983633
 20
72.056846
 30
0.0
  0
VERTEX
  8
CMP
 10
81.733633
 20
72.056846
 30
0.0
  0
SEQEND
  8
CMP
  0
POLYLINE
  8
CMP
 66
     1
 10
0.0
 20
0.0
 30
0.0
  0
VERTEX
  8
CMP
 10
81.733633
 20
73.868846
 30
0.0
  0
VERTEX
  8
CMP
 10
81.733633
 20
73.118846
 30
0.0
  0
VERTEX
  8
CMP
 10
80.983633
 20
73.118846
 30
0.0
  0
VERTEX
  8
CMP
 10
80.983633
 20
73.868846
 30
0.0
  0
VERTEX
  8
CMP
 10
81.733633
 20
73.868846
 30
0.0
  0
SEQEND
  8
CMP
  0
POLYLINE
  8
CMP
 66
     1
 10
0.0
 20
0.0
 30
0.0
  0
VERTEX
  8
CMP
 10
79.920633
 20
73.868846
 30
0.0
  0
VERTEX
  8
CMP
 10
79.920633
 20
73.118846
 30
0.0
  0
VERTEX
  8
CMP
 10
80.670633
 20
73.118846
 30
0.0
  0
VERTEX
  8
CMP
 10
80.670633
 20
73.868846
 30
0.0
  0
VERTEX
  8
CMP
 10
79.920633
 20
73.868846
 30
0.0
  0
SEQEND
  8
CMP
  0
POLYLINE
  8
CMP
 66
     1
 10
0.0
 20
0.0
 30
0.0
  0
VERTEX
  8
CMP
 10
81.733633
 20
81.118846
 30
0.0
  0
VERTEX
  8
CMP
 10
81.733633
 20
80.368846
 30
0.0
  0
VERTEX
  8
CMP
 10
80.983633
 20
80.368846
 30
0.0
  0
VERTEX
  8
CMP
 10
80.983633
 20
81.118846
 30
0.0
  0
VERTEX
  8
CMP
 10
81.733633
 20
81.118846
 30
0.0
  0
SEQEND
  8
CMP
  0
POLYLINE
  8
CMP
 66
     1
 10
0.0
 20
0.0
 30
0.0
  0
VERTEX
  8
CMP
 10
79.920633
 20
81.118846
 30
0.0
  0
VERTEX
  8
CMP
 10
79.920633
 20
80.368846
 30
0.0
  0
VERTEX
  8
CMP
 10
80.670633
 20
80.368846
 30
0.0
  0
VERTEX
  8
CMP
 10
80.670633
 20
81.118846
 30
0.0
  0
VERTEX
  8
CMP
 10
79.920633
 20
81.118846
 30
0.0
  0
SEQEND
  8
CMP
  0
POLYLINE
  8
CMP
  6
HIDDEN
 66
     1
 10
0.0
 20
0.0
 30
0.0
  0
VERTEX
  8
CMP
  6
HIDDEN
 10
79.514633
 20
62.462846
 30
0.0
  0
VERTEX
  8
CMP
  6
HIDDEN
 10
79.576633
 20
62.462846
 30
0.0
  0
VERTEX
  8
CMP
  6
HIDDEN
 10
79.576633
 20
86.04413
 30
0.0
  0
SEQEND
  8
CMP
  6
HIDDEN
  0
POLYLINE
  8
CMP
  6
HIDDEN
 66
     1
 10
0.0
 20
0.0
 30
0.0
  0
VERTEX
  8
CMP
  6
HIDDEN
 10
82.139633
 20
62.462846
 30
0.0
  0
VERTEX
  8
CMP
  6
HIDDEN
 10
82.077633
 20
62.462846
 30
0.0
  0
VERTEX
  8
CMP
  6
HIDDEN
 10
82.077633
 20
85.167538
 30
0.0
  0
SEQEND
  8
CMP
  6
HIDDEN
  0
POLYLINE
  8
CMP
 66
     1
 10
0.0
 20
0.0
 30
0.0
  0
VERTEX
  8
CMP
 10
79.514633
 20
86.078675
 30
0.0
  0
VERTEX
  8
CMP
 10
79.514633
 20
60.650846
 30
0.0
  0
VERTEX
  8
CMP
 10
82.139633
 20
60.650846
 30
0.0
  0
VERTEX
  8
CMP
 10
82.139633
 20
85.157124
 30
0.0
  0
SEQEND
  8
CMP
  0
CIRCLE
  8
OBJECT
 10
80.889883
 20
92.540846
 30
0.0
 40
0.25
  0
CIRCLE
  8
OBJECT
 10
80.889883
 20
124.446846
 30
0.0
 40
0.25
  0
LINE
  8
OBJECT
 10
81.921883
 20
130.134846
 30
0.0
 11
81.921883
 21
85.195922
 31
0.0
  0
LINE
  8
OBJECT
 10
54.107883
 20
127.571846
 30
0.0
 11
81.921883
 21
127.571846
 31
0.0
  0
LINE
  8
OBJECT
 10
54.107883
 20
127.010049
 30
0.0
 11
54.107883
 21
130.134846
 31
0.0
  0
POLYLINE
  8
OBJECT
 66
     1
 10
0.0
 20
0.0
 30
0.0
  0
VERTEX
  8
OBJECT
 10
52.639883
 20
127.007643
 30
0.0
 42
-0.017877
  0
VERTEX
  8
OBJECT
 10
54.49188
 20
126.996946
 30
0.0
 42
-0.078093
  0
VERTEX
  8
OBJECT
 10
56.685199
 20
126.558282
 30
0.0
 42
-0.380732
  0
VERTEX
  8
OBJECT
 10
57.562526
 20
124.913293
 30
0.0
 42
0.070688
  0
VERTEX
  8
OBJECT
 10
57.233529
 20
121.513649
 30
0.0
 42
0.025909
  0
VERTEX
  8
OBJECT
 10
57.562526
 20
118.114004
 30
0.0
 42
-0.132792
  0
VERTEX
  8
OBJECT
 10
57.014197
 20
113.398369
 30
0.0
 42
0.309679
  0
VERTEX
  8
OBJECT
 10
58.220522
 20
108.024737
 30
0.0
 42
0.106654
  0
VERTEX
  8
OBJECT
 10
64.800479
 20
100.600218
 30
0.0
 42
-0.216409
  0
VERTEX
  8
OBJECT
 10
69.735446
 20
90.720794
 30
0.0
 42
0.415043
  0
VERTEX
  8
OBJECT
 10
72.915759
 20
88.198477
 30
0.0
 42
-0.192466
  0
VERTEX
  8
OBJECT
 10
78.636429
 20
86.652196
 30
0.0
 42
0.161158
  0
VERTEX
  8
OBJECT
 10
83.389883
 20
85.052103
 30
0.0
 42
-0.415043
  0
SEQEND
  8
OBJECT
  0
DIMENSION
  8
DIM
  2
*D27
 10
83.389883
 20
140.985491
 30
0.0
 11
68.014883
 21
140.985491
 31
0.0
 12
0.0
 22
-3.210059
 32
0.0
 13
52.639883
 23
130.196846
 33
0.0
 14
83.389883
 24
130.196846
 34
0.0
  3
23NSTD
  0
DIMENSION
  8
DIM
  2
*D12
 10
62.482883
 20
133.985491
 30
0.0
 11
71.407883
 21
132.512268
 31
0.0
 12
-198.714531
 22
-5.395265
 32
0.0
 70
   128
  1
<>
 13
58.107883
 23
124.446846
 33
0.0
 14
62.482883
 24
124.446846
 34
0.0
  3
23NSTD
  0
DIMENSION
  8
DIM
  2
*D26
 10
52.639883
 20
137.485491
 30
0.0
 11
43.714883
 21
137.485491
 31
0.0
 12
0.0
 22
-3.210059
 32
0.0
 13
58.107883
 23
124.446846
 33
0.0
 14
52.639883
 24
130.196846
 34
0.0
  3
23NSTD
  0
DIMENSION
  8
DIM
  2
*D18
 10
87.945118
 20
130.196846
 30
0.0
 11
87.945118
 21
127.634346
 31
0.0
 12
-198.714531
 22
-5.395265
 32
0.0
 13
77.421883
 23
125.071846
 33
0.0
 14
83.389883
 24
130.196846
 34
0.0
 50
90.0
  3
23NSTDI
  0
LINE
  8
DIM
 10
68.301253
 20
133.985491
 30
0.0
 11
74.10871
 21
133.985491
 31
0.0
  0
TEXT
  8
DIM
 10
69.111743
 20
134.544204
 30
0.0
 40
1.74944
  1
4.000
 41
0.75
  7
TXT
 72
     1
 11
71.407883
 21
134.544204
 31
0.0
  0
DIMENSION
  8
DIM
  2
*D19
 10
87.945118
 20
54.884846
 30
0.0
 11
87.945118
 21
57.447346
 31
0.0
 12
-198.714531
 22
-5.395265
 32
0.0
 13
77.921883
 23
60.009846
 33
0.0
 14
83.389883
 24
54.884846
 34
0.0
 50
90.0
  3
23NSTDI
  0
LINE
  8
HIDDEN
 10
81.921883
 20
91.415846
 30
0.0
 11
69.942513
 21
91.415846
 31
0.0
  0
LINE
  8
HIDDEN
 10
81.921883
 20
93.665846
 30
0.0
 11
69.552695
 21
93.665846
 31
0.0
  0
LINE
  8
HIDDEN
 10
81.921883
 20
94.290846
 30
0.0
 11
69.373333
 21
94.290846
 31
0.0
  0
LINE
  8
HIDDEN
 10
81.921883
 20
90.790846
 30
0.0
 11
69.982887
 21
90.790846
 31
0.0
  0
LINE
  8
HIDDEN
 10
81.921883
 20
125.571846
 30
0.0
 11
57.818884
 21
125.571846
 31
0.0
  0
LINE
  8
HIDDEN
 10
81.921883
 20
123.321846
 30
0.0
 11
57.539024
 21
123.321846
 31
0.0
  0
LINE
  8
HIDDEN
 10
81.921883
 20
122.696846
 30
0.0
 11
57.488717
 21
122.696846
 31
0.0
  0
LINE
  8
HIDDEN
 10
81.921883
 20
126.196846
 30
0.0
 11
57.548783
 21
126.196846
 31
0.0
  0
INSERT
  8
DOOR
  2
L15S
 10
52.639883
 20
125.072846
 30
0.0
 50
270.0
  0
INSERT
  8
DOOR
  2
L15S
 10
52.639883
 20
74.633846
 30
0.0
 50
270.0
  0
TEXT
  8
TEXT
 10
45.096965
 20
176.106987
 30
0.0
 40
1.75
  1
BLACK TEXTURE
 41
0.75
  7
TXT
  0
TEXT
  8
TEXT
 10
45.096965
 20
173.19032
 30
0.0
 40
1.75
  1
ROYAL BLUE TEXTURE
 41
0.75
  7
TXT
  0
TEXT
  8
TEXT
 10
10.096234
 20
167.453731
 30
0.0
 40
1.75
  1
PANEL MOUNTING RAILS
 41
0.75
  7
TXT
  0
TEXT
  8
TEXT
 10
8.13446
 20
155.958565
 30
0.0
 40
1.75
  1
%%uFINISH:%%U  BLACK
 41
0.75
  7
TXT
  0
TEXT
  8
TEXT
 10
5.315596
 20
150.120565
 30
0.0
 40
1.75
  1
%%uCABLE CLIP BRACKETS
 41
0.75
  7
TXT
  0
TEXT
  8
TEXT
 10
8.13446
 20
147.208565
 30
0.0
 40
1.75
  1
%%uMATERIAL:%%U  16 GA. SPRING STEEL
 41
0.75
  7
TXT
  0
TEXT
  8
TEXT
 10
8.13446
 20
144.375315
 30
0.0
 40
1.75
  1
%%uFINISH:%%U  BLACK
 41
0.75
  7
TXT
  0
POLYLINE
  8
PMR
  6
HIDDEN
 66
     1
 10
0.0
 20
0.0
 30
0.0
  0
VERTEX
  8
PMR
  6
HIDDEN
 10
101.651924
 20
127.515763
 30
0.0
  0
VERTEX
  8
PMR
  6
HIDDEN
 10
104.776924
 20
127.515763
 30
0.0
  0
VERTEX
  8
PMR
  6
HIDDEN
 10
104.776924
 20
112.571693
 30
0.0
  0
SEQEND
  8
PMR
  6
HIDDEN
  0
POLYLINE
  8
PMR
  6
HIDDEN
 66
     1
 10
0.0
 20
0.0
 30
0.0
  0
VERTEX
  8
PMR
  6
HIDDEN
 10
122.712424
 20
115.951736
 30
0.0
  0
VERTEX
  8
PMR
  6
HIDDEN
 10
122.712424
 20
127.517763
 30
0.0
  0
VERTEX
  8
PMR
  6
HIDDEN
 10
125.837424
 20
127.517763
 30
0.0
  0
SEQEND
  8
PMR
  6
HIDDEN
  0
POLYLINE
  8
PMR
 66
     1
 10
0.0
 20
0.0
 30
0.0
  0
VERTEX
  8
PMR
 10
104.776924
 20
112.310415
 30
0.0
  0
VERTEX
  8
PMR
 10
104.776924
 20
90.377633
 30
0.0
  0
SEQEND
  8
PMR
  0
POLYLINE
  8
PMR
  6
HIDDEN
 66
     1
 10
0.0
 20
0.0
 30
0.0
  0
VERTEX
  8
PMR
  6
HIDDEN
 10
104.776924
 20
90.116355
 30
0.0
  0
VERTEX
  8
PMR
  6
HIDDEN
 10
104.776924
 20
57.515763
 30
0.0
  0
VERTEX
  8
PMR
  6
HIDDEN
 10
101.651924
 20
57.515763
 30
0.0
  0
SEQEND
  8
PMR
  6
HIDDEN
  0
POLYLINE
  8
PMR
  6
HIDDEN
 66
     1
 10
0.0
 20
0.0
 30
0.0
  0
VERTEX
  8
PMR
  6
HIDDEN
 10
125.837424
 20
57.517763
 30
0.0
  0
VERTEX
  8
PMR
  6
HIDDEN
 10
122.712424
 20
57.517763
 30
0.0
  0
VERTEX
  8
PMR
  6
HIDDEN
 10
122.712424
 20
93.514885
 30
0.0
  0
SEQEND
  8
PMR
  6
HIDDEN
  0
POLYLINE
  8
PMR
 66
     1
 10
0.0
 20
0.0
 30
0.0
  0
VERTEX
  8
PMR
 10
122.712424
 20
93.766919
 30
0.0
  0
VERTEX
  8
PMR
 10
122.712424
 20
115.699701
 30
0.0
  0
SEQEND
  8
PMR
  0
POLYLINE
  8
PLEXIGLASS
 66
     1
 10
0.0
 20
0.0
 30
0.0
  0
VERTEX
  8
PLEXIGLASS
 10
103.041674
 20
111.663835
 30
0.0
  0
VERTEX
  8
PLEXIGLASS
 10
103.041674
 20
126.204763
 30
0.0
  0
VERTEX
  8
PLEXIGLASS
 10
124.417674
 20
126.204763
 30
0.0
  0
SEQEND
  8
PLEXIGLASS
  0
POLYLINE
  8
PLEXIGLASS
 66
     1
 10
0.0
 20
0.0
 30
0.0
  0
VERTEX
  8
PLEXIGLASS
 10
102.885674
 20
111.589833
 30
0.0
  0
VERTEX
  8
PLEXIGLASS
 10
102.885674
 20
126.360763
 30
0.0
  0
VERTEX
  8
PLEXIGLASS
 10
124.573674
 20
126.360763
 30
0.0
  0
SEQEND
  8
PLEXIGLASS
  0
POLYLINE
  8
PLEXIGLASS
 66
     1
 10
0.0
 20
0.0
 30
0.0
  0
VERTEX
  8
PLEXIGLASS
 10
101.760674
 20
110.925269
 30
0.0
  0
VERTEX
  8
PLEXIGLASS
 10
101.760674
 20
127.485763
 30
0.0
  0
VERTEX
  8
PLEXIGLASS
 10
125.698674
 20
127.485763
 30
0.0
  0
SEQEND
  8
PLEXIGLASS
  0
POLYLINE
  8
PLEXIGLASS
 66
     1
 10
0.0
 20
0.0
 30
0.0
  0
VERTEX
  8
PLEXIGLASS
 10
124.573674
 20
126.360763
 30
0.0
  0
VERTEX
  8
PLEXIGLASS
 10
124.573674
 20
116.496046
 30
0.0
  0
SEQEND
  8
PLEXIGLASS
  0
POLYLINE
  8
PLEXIGLASS
 66
     1
 10
0.0
 20
0.0
 30
0.0
  0
VERTEX
  8
PLEXIGLASS
 10
124.573674
 20
94.563264
 30
0.0
  0
VERTEX
  8
PLEXIGLASS
 10
124.573674
 20
58.672763
 30
0.0
  0
VERTEX
  8
PLEXIGLASS
 10
102.885674
 20
58.672763
 30
0.0
  0
VERTEX
  8
PLEXIGLASS
 10
102.885674
 20
89.65705
 30
0.0
  0
SEQEND
  8
PLEXIGLASS
  0
POLYLINE
  8
PLEXIGLASS
 66
     1
 10
0.0
 20
0.0
 30
0.0
  0
VERTEX
  8
PLEXIGLASS
 10
124.417674
 20
126.204763
 30
0.0
  0
VERTEX
  8
PLEXIGLASS
 10
124.417674
 20
116.396885
 30
0.0
  0
SEQEND
  8
PLEXIGLASS
  0
POLYLINE
  8
PLEXIGLASS
 66
     1
 10
0.0
 20
0.0
 30
0.0
  0
VERTEX
  8
PLEXIGLASS
 10
124.417674
 20
94.464103
 30
0.0
  0
VERTEX
  8
PLEXIGLASS
 10
124.417674
 20
58.828763
 30
0.0
  0
VERTEX
  8
PLEXIGLASS
 10
103.041674
 20
58.828763
 30
0.0
  0
VERTEX
  8
PLEXIGLASS
 10
103.041674
 20
89.731052
 30
0.0
  0
SEQEND
  8
PLEXIGLASS
  0
POLYLINE
  8
PLEXIGLASS
 66
     1
 10
0.0
 20
0.0
 30
0.0
  0
VERTEX
  8
PLEXIGLASS
 10
125.698674
 20
127.485763
 30
0.0
  0
VERTEX
  8
PLEXIGLASS
 10
125.698674
 20
117.216658
 30
0.0
  0
SEQEND
  8
PLEXIGLASS
  0
POLYLINE
  8
PLEXIGLASS
 66
     1
 10
0.0
 20
0.0
 30
0.0
  0
VERTEX
  8
PLEXIGLASS
 10
125.698674
 20
95.283876
 30
0.0
  0
VERTEX
  8
PLEXIGLASS
 10
125.698674
 20
57.547763
 30
0.0
  0
VERTEX
  8
PLEXIGLASS
 10
101.760674
 20
57.547763
 30
0.0
  0
VERTEX
  8
PLEXIGLASS
 10
101.760674
 20
88.992487
 30
0.0
  0
SEQEND
  8
PLEXIGLASS
  0
POLYLINE
  8
DOOR
 66
     1
 10
0.0
 20
0.0
 30
0.0
 70
     1
  0
VERTEX
  8
DOOR
 10
32.839795
 20
57.547763
 30
0.0
  0
VERTEX
  8
DOOR
 10
8.902295
 20
57.547763
 30
0.0
  0
VERTEX
  8
DOOR
 10
8.902295
 20
127.485763
 30
0.0
  0
VERTEX
  8
DOOR
 10
32.839795
 20
127.485763
 30
0.0
  0
SEQEND
  8
DOOR
  0
POLYLINE
  8
PLEXIGLASS
 66
     1
 10
0.0
 20
0.0
 30
0.0
  0
VERTEX
  8
PLEXIGLASS
 10
101.760674
 20
143.417071
 30
0.0
  0
VERTEX
  8
PLEXIGLASS
 10
125.698674
 20
143.417071
 30
0.0
  0
VERTEX
  8
PLEXIGLASS
 10
125.698674
 20
143.463071
 30
0.0
  0
SEQEND
  8
PLEXIGLASS
  0
POLYLINE
  8
PLEXIGLASS
 66
     1
 10
0.0
 20
0.0
 30
0.0
 70
     1
  0
VERTEX
  8
PLEXIGLASS
 10
101.760674
 20
143.463071
 30
0.0
  0
VERTEX
  8
PLEXIGLASS
 10
101.760674
 20
143.151571
 30
0.0
 42
-2.414214
  0
VERTEX
  8
PLEXIGLASS
 10
101.589174
 20
143.323071
 30
0.0
  0
VERTEX
  8
PLEXIGLASS
 10
101.682674
 20
143.323071
 30
0.0
  0
VERTEX
  8
PLEXIGLASS
 10
101.682674
 20
143.463071
 30
0.0
  0
SEQEND
  8
PLEXIGLASS
  0
POLYLINE
  8
DOOR
 66
     1
 10
0.0
 20
0.0
 30
0.0
  0
VERTEX
  8
DOOR
 10
101.791674
 20
174.057071
 30
0.0
  0
VERTEX
  8
DOOR
 10
101.791674
 20
174.135071
 30
0.0
  0
VERTEX
  8
DOOR
 10
125.728674
 20
174.135071
 30
0.0
  0
SEQEND
  8
DOOR
  0
POLYLINE
  8
DOOR
 66
     1
 10
0.0
 20
0.0
 30
0.0
  0
VERTEX
  8
DOOR
 10
118.980674
 20
174.135071
 30
0.0
 42
-0.360786
  0
VERTEX
  8
DOOR
 10
119.292674
 20
174.447071
 30
0.0
  0
VERTEX
  8
DOOR
 10
123.043674
 20
174.447071
 30
0.0
 42
-0.360786
  0
VERTEX
  8
DOOR
 10
123.355674
 20
174.135071
 30
0.0
  0
SEQEND
  8
DOOR
  0
POLYLINE
  8
DOOR
 66
     1
 10
0.0
 20
0.0
 30
0.0
  0
VERTEX
  8
DOOR
 10
104.105674
 20
174.135071
 30
0.0
 42
-0.360786
  0
VERTEX
  8
DOOR
 10
104.417674
 20
174.447071
 30
0.0
  0
VERTEX
  8
DOOR
 10
108.168674
 20
174.447071
 30
0.0
 42
-0.360786
  0
VERTEX
  8
DOOR
 10
108.480674
 20
174.135071
 30
0.0
  0
SEQEND
  8
DOOR
  0
POLYLINE
  8
DOOR
 66
     1
 10
0.0
 20
0.0
 30
0.0
 70
     1
  0
VERTEX
  8
DOOR
 10
125.728674
 20
174.057071
 30
0.0
  0
VERTEX
  8
DOOR
 10
125.728674
 20
174.368571
 30
0.0
 42
-2.414214
  0
VERTEX
  8
DOOR
 10
125.900174
 20
174.197071
 30
0.0
  0
VERTEX
  8
DOOR
 10
125.806674
 20
174.197071
 30
0.0
  0
VERTEX
  8
DOOR
 10
125.806674
 20
174.057071
 30
0.0
  0
SEQEND
  8
DOOR
  0
LINE
  8
DOOR
 10
52.577883
 20
60.657763
 30
0.0
 11
52.577883
 21
59.220263
 31
0.0
  0
POLYLINE
  8
DOOR
 66
     1
 10
0.0
 20
0.0
 30
0.0
  0
VERTEX
  8
DOOR
 10
52.577883
 20
59.220263
 30
0.0
 42
-0.152806
  0
VERTEX
  8
DOOR
 10
52.460383
 20
58.939263
 30
0.0
  0
VERTEX
  8
DOOR
 10
52.352383
 20
58.939263
 30
0.0
 42
-0.152806
  0
VERTEX
  8
DOOR
 10
52.234883
 20
59.220263
 30
0.0
  0
VERTEX
  8
DOOR
 10
52.234883
 20
60.719763
 30
0.0
  0
VERTEX
  8
DOOR
 10
52.577883
 20
60.719763
 30
0.0
  0
VERTEX
  8
DOOR
 10
52.577883
 20
60.657763
 30
0.0
  0
VERTEX
  8
DOOR
 10
52.639883
 20
60.657763
 30
0.0
  0
VERTEX
  8
DOOR
 10
52.639883
 20
59.220263
 30
0.0
  0
VERTEX
  8
DOOR
 10
52.234883
 20
59.220263
 30
0.0
  0
SEQEND
  8
DOOR
  0
POLYLINE
  8
DOOR
 66
     1
 10
0.0
 20
0.0
 30
0.0
  0
VERTEX
  8
DOOR
 10
52.234883
 20
62.219263
 30
0.0
  0
VERTEX
  8
DOOR
 10
52.639883
 20
62.219263
 30
0.0
  0
VERTEX
  8
DOOR
 10
52.639883
 20
60.719763
 30
0.0
  0
VERTEX
  8
DOOR
 10
52.234883
 20
60.719763
 30
0.0
  0
VERTEX
  8
DOOR
 10
52.234883
 20
62.219263
 30
0.0
 42
-0.152806
  0
VERTEX
  8
DOOR
 10
52.352383
 20
62.500263
 30
0.0
  0
VERTEX
  8
DOOR
 10
52.460383
 20
62.500263
 30
0.0
 42
-0.152806
  0
VERTEX
  8
DOOR
 10
52.577883
 20
62.219263
 30
0.0
  0
SEQEND
  8
DOOR
  0
LINE
  8
DOOR
 10
52.577883
 20
62.219263
 30
0.0
 11
52.577883
 21
60.719763
 31
0.0
  0
LINE
  8
PLEXIGLASS
 10
83.451883
 20
123.377263
 30
0.0
 11
83.451883
 21
121.939763
 31
0.0
  0
POLYLINE
  8
PLEXIGLASS
 66
     1
 10
0.0
 20
0.0
 30
0.0
  0
VERTEX
  8
PLEXIGLASS
 10
83.451883
 20
121.939763
 30
0.0
 42
0.152806
  0
VERTEX
  8
PLEXIGLASS
 10
83.569383
 20
121.658763
 30
0.0
  0
VERTEX
  8
PLEXIGLASS
 10
83.677383
 20
121.658763
 30
0.0
 42
0.152806
  0
VERTEX
  8
PLEXIGLASS
 10
83.794883
 20
121.939763
 30
0.0
  0
VERTEX
  8
PLEXIGLASS
 10
83.794883
 20
123.439263
 30
0.0
  0
VERTEX
  8
PLEXIGLASS
 10
83.451883
 20
123.439263
 30
0.0
  0
VERTEX
  8
PLEXIGLASS
 10
83.451883
 20
123.377263
 30
0.0
  0
VERTEX
  8
PLEXIGLASS
 10
83.389883
 20
123.377263
 30
0.0
  0
VERTEX
  8
PLEXIGLASS
 10
83.389883
 20
121.939763
 30
0.0
  0
VERTEX
  8
PLEXIGLASS
 10
83.794883
 20
121.939763
 30
0.0
  0
SEQEND
  8
PLEXIGLASS
  0
POLYLINE
  8
PLEXIGLASS
 66
     1
 10
0.0
 20
0.0
 30
0.0
  0
VERTEX
  8
PLEXIGLASS
 10
83.794883
 20
124.938763
 30
0.0
  0
VERTEX
  8
PLEXIGLASS
 10
83.389883
 20
124.938763
 30
0.0
  0
VERTEX
  8
PLEXIGLASS
 10
83.389883
 20
123.439263
 30
0.0
  0
VERTEX
  8
PLEXIGLASS
 10
83.794883
 20
123.439263
 30
0.0
  0
VERTEX
  8
PLEXIGLASS
 10
83.794883
 20
124.938763
 30
0.0
 42
0.152806
  0
VERTEX
  8
PLEXIGLASS
 10
83.677383
 20
125.219763
 30
0.0
  0
VERTEX
  8
PLEXIGLASS
 10
83.569383
 20
125.219763
 30
0.0
 42
0.152806
  0
VERTEX
  8
PLEXIGLASS
 10
83.451883
 20
124.938763
 30
0.0
  0
SEQEND
  8
PLEXIGLASS
  0
LINE
  8
PLEXIGLASS
 10
83.451883
 20
124.938763
 30
0.0
 11
83.451883
 21
123.439263
 31
0.0
  0
POLYLINE
  8
DOOR
 66
     1
 10
0.0
 20
0.0
 30
0.0
  0
VERTEX
  8
DOOR
 10
52.234883
 20
124.938763
 30
0.0
  0
VERTEX
  8
DOOR
 10
52.639883
 20
124.938763
 30
0.0
  0
VERTEX
  8
DOOR
 10
52.639883
 20
123.439263
 30
0.0
  0
VERTEX
  8
DOOR
 10
52.234883
 20
123.439263
 30
0.0
  0
VERTEX
  8
DOOR
 10
52.234883
 20
124.938763
 30
0.0
 42
-0.152806
  0
VERTEX
  8
DOOR
 10
52.352383
 20
125.219763
 30
0.0
  0
VERTEX
  8
DOOR
 10
52.460383
 20
125.219763
 30
0.0
 42
-0.152806
  0
VERTEX
  8
DOOR
 10
52.577883
 20
124.938763
 30
0.0
  0
SEQEND
  8
DOOR
  0
POLYLINE
  8
DOOR
 66
     1
 10
0.0
 20
0.0
 30
0.0
  0
VERTEX
  8
DOOR
 10
52.577883
 20
121.939763
 30
0.0
 42
-0.152806
  0
VERTEX
  8
DOOR
 10
52.460383
 20
121.658763
 30
0.0
  0
VERTEX
  8
DOOR
 10
52.352383
 20
121.658763
 30
0.0
 42
-0.152806
  0
VERTEX
  8
DOOR
 10
52.234883
 20
121.939763
 30
0.0
  0
VERTEX
  8
DOOR
 10
52.234883
 20
123.439263
 30
0.0
  0
VERTEX
  8
DOOR
 10
52.577883
 20
123.439263
 30
0.0
  0
VERTEX
  8
DOOR
 10
52.577883
 20
123.377263
 30
0.0
  0
VERTEX
  8
DOOR
 10
52.639883
 20
123.377263
 30
0.0
  0
VERTEX
  8
DOOR
 10
52.639883
 20
121.939763
 30
0.0
  0
VERTEX
  8
DOOR
 10
52.234883
 20
121.939763
 30
0.0
  0
SEQEND
  8
DOOR
  0
LINE
  8
DOOR
 10
52.577883
 20
123.377263
 30
0.0
 11
52.577883
 21
121.939763
 31
0.0
  0
LINE
  8
DOOR
 10
52.577883
 20
124.938763
 30
0.0
 11
52.577883
 21
123.439263
 31
0.0
  0
POLYLINE
  8
OBJECT
 66
     1
 10
0.0
 20
0.0
 30
0.0
  0
VERTEX
  8
OBJECT
 10
100.322674
 20
164.292071
 30
0.0
 42
-0.360786
  0
VERTEX
  8
OBJECT
 10
100.010674
 20
164.604071
 30
0.0
  0
VERTEX
  8
OBJECT
 10
100.010674
 20
168.355071
 30
0.0
 42
-0.360786
  0
VERTEX
  8
OBJECT
 10
100.322674
 20
168.667071
 30
0.0
  0
SEQEND
  8
OBJECT
  0
POLYLINE
  8
OBJECT
 66
     1
 10
0.0
 20
0.0
 30
0.0
  0
VERTEX
  8
OBJECT
 10
100.322674
 20
148.853071
 30
0.0
 42
-0.360786
  0
VERTEX
  8
OBJECT
 10
100.010674
 20
149.165071
 30
0.0
  0
VERTEX
  8
OBJECT
 10
100.010674
 20
152.916071
 30
0.0
 42
-0.360786
  0
VERTEX
  8
OBJECT
 10
100.322674
 20
153.228071
 30
0.0
  0
SEQEND
  8
OBJECT
  0
POLYLINE
  8
OBJECT
 66
     1
 10
0.0
 20
0.0
 30
0.0
  0
VERTEX
  8
OBJECT
 10
127.166674
 20
153.228071
 30
0.0
 42
-0.360786
  0
VERTEX
  8
OBJECT
 10
127.478674
 20
152.916071
 30
0.0
  0
VERTEX
  8
OBJECT
 10
127.478674
 20
149.165071
 30
0.0
 42
-0.360786
  0
VERTEX
  8
OBJECT
 10
127.166674
 20
148.853071
 30
0.0
  0
SEQEND
  8
OBJECT
  0
POLYLINE
  8
OBJECT
 66
     1
 10
0.0
 20
0.0
 30
0.0
  0
VERTEX
  8
OBJECT
 10
127.166674
 20
168.667071
 30
0.0
 42
-0.360786
  0
VERTEX
  8
OBJECT
 10
127.478674
 20
168.355071
 30
0.0
  0
VERTEX
  8
OBJECT
 10
127.478674
 20
164.604071
 30
0.0
 42
-0.360786
  0
VERTEX
  8
OBJECT
 10
127.166674
 20
164.292071
 30
0.0
  0
SEQEND
  8
OBJECT
  0
POLYLINE
  8
DOOR
 66
     1
 10
0.0
 20
0.0
 30
0.0
  0
VERTEX
  8
DOOR
 10
104.105674
 20
10.515443
 30
0.0
 42
0.360786
  0
VERTEX
  8
DOOR
 10
104.417674
 20
10.203443
 30
0.0
  0
VERTEX
  8
DOOR
 10
108.168674
 20
10.203443
 30
0.0
 42
0.360786
  0
VERTEX
  8
DOOR
 10
108.480674
 20
10.515443
 30
0.0
  0
SEQEND
  8
DOOR
  0
POLYLINE
  8
DOOR
 66
     1
 10
0.0
 20
0.0
 30
0.0
  0
VERTEX
  8
DOOR
 10
101.791674
 20
10.593443
 30
0.0
  0
VERTEX
  8
DOOR
 10
101.791674
 20
10.515443
 30
0.0
  0
VERTEX
  8
DOOR
 10
125.728674
 20
10.515443
 30
0.0
  0
SEQEND
  8
DOOR
  0
POLYLINE
  8
DOOR
 66
     1
 10
0.0
 20
0.0
 30
0.0
  0
VERTEX
  8
DOOR
 10
118.980674
 20
10.515443
 30
0.0
 42
0.360786
  0
VERTEX
  8
DOOR
 10
119.292674
 20
10.203443
 30
0.0
  0
VERTEX
  8
DOOR
 10
123.043674
 20
10.203443
 30
0.0
 42
0.360786
  0
VERTEX
  8
DOOR
 10
123.355674
 20
10.515443
 30
0.0
  0
SEQEND
  8
DOOR
  0
POLYLINE
  8
DOOR
 66
     1
 10
0.0
 20
0.0
 30
0.0
 70
     1
  0
VERTEX
  8
DOOR
 10
125.728674
 20
10.593443
 30
0.0
  0
VERTEX
  8
DOOR
 10
125.728674
 20
10.281943
 30
0.0
 42
2.414214
  0
VERTEX
  8
DOOR
 10
125.900174
 20
10.453443
 30
0.0
  0
VERTEX
  8
DOOR
 10
125.806674
 20
10.453443
 30
0.0
  0
VERTEX
  8
DOOR
 10
125.806674
 20
10.593443
 30
0.0
  0
SEQEND
  8
DOOR
  0
POLYLINE
  8
PLEXIGLASS
 66
     1
 10
0.0
 20
0.0
 30
0.0
  0
VERTEX
  8
PLEXIGLASS
 10
101.760674
 20
41.233443
 30
0.0
  0
VERTEX
  8
PLEXIGLASS
 10
125.698674
 20
41.233443
 30
0.0
  0
VERTEX
  8
PLEXIGLASS
 10
125.698674
 20
41.187443
 30
0.0
  0
SEQEND
  8
PLEXIGLASS
  0
POLYLINE
  8
PLEXIGLASS
 66
     1
 10
0.0
 20
0.0
 30
0.0
 70
     1
  0
VERTEX
  8
PLEXIGLASS
 10
101.760674
 20
41.187443
 30
0.0
  0
VERTEX
  8
PLEXIGLASS
 10
101.760674
 20
41.498943
 30
0.0
 42
2.414214
  0
VERTEX
  8
PLEXIGLASS
 10
101.589174
 20
41.327443
 30
0.0
  0
VERTEX
  8
PLEXIGLASS
 10
101.682674
 20
41.327443
 30
0.0
  0
VERTEX
  8
PLEXIGLASS
 10
101.682674
 20
41.187443
 30
0.0
  0
SEQEND
  8
PLEXIGLASS
  0
POLYLINE
  8
OBJECT
 66
     1
 10
0.0
 20
0.0
 30
0.0
  0
VERTEX
  8
OBJECT
 10
127.166674
 20
20.358443
 30
0.0
 42
-0.360786
  0
VERTEX
  8
OBJECT
 10
127.478674
 20
20.046443
 30
0.0
  0
VERTEX
  8
OBJECT
 10
127.478674
 20
16.295443
 30
0.0
 42
-0.360786
  0
VERTEX
  8
OBJECT
 10
127.166674
 20
15.983443
 30
0.0
  0
SEQEND
  8
OBJECT
  0
POLYLINE
  8
OBJECT
 66
     1
 10
0.0
 20
0.0
 30
0.0
  0
VERTEX
  8
OBJECT
 10
127.166674
 20
35.797443
 30
0.0
 42
-0.360786
  0
VERTEX
  8
OBJECT
 10
127.478674
 20
35.485443
 30
0.0
  0
VERTEX
  8
OBJECT
 10
127.478674
 20
31.734443
 30
0.0
 42
-0.360786
  0
VERTEX
  8
OBJECT
 10
127.166674
 20
31.422443
 30
0.0
  0
SEQEND
  8
OBJECT
  0
POLYLINE
  8
OBJECT
 66
     1
 10
0.0
 20
0.0
 30
0.0
  0
VERTEX
  8
OBJECT
 10
100.322674
 20
31.422443
 30
0.0
 42
-0.360786
  0
VERTEX
  8
OBJECT
 10
100.010674
 20
31.734443
 30
0.0
  0
VERTEX
  8
OBJECT
 10
100.010674
 20
35.485443
 30
0.0
 42
-0.360786
  0
VERTEX
  8
OBJECT
 10
100.322674
 20
35.797443
 30
0.0
  0
SEQEND
  8
OBJECT
  0
POLYLINE
  8
OBJECT
 66
     1
 10
0.0
 20
0.0
 30
0.0
  0
VERTEX
  8
OBJECT
 10
100.322674
 20
15.983443
 30
0.0
 42
-0.360786
  0
VERTEX
  8
OBJECT
 10
100.010674
 20
16.295443
 30
0.0
  0
VERTEX
  8
OBJECT
 10
100.010674
 20
20.046443
 30
0.0
 42
-0.360786
  0
VERTEX
  8
OBJECT
 10
100.322674
 20
20.358443
 30
0.0
  0
SEQEND
  8
OBJECT
  0
POLYLINE
  8
DOOR
 66
     1
 10
0.0
 20
0.0
 30
0.0
 70
     1
  0
VERTEX
  8
DOOR
 10
8.902295
 20
60.719763
 30
0.0
  0
VERTEX
  8
DOOR
 10
8.559295
 20
60.719763
 30
0.0
  0
VERTEX
  8
DOOR
 10
8.559295
 20
62.219263
 30
0.0
 42
-0.152806
  0
VERTEX
  8
DOOR
 10
8.676795
 20
62.500263
 30
0.0
  0
VERTEX
  8
DOOR
 10
8.784795
 20
62.500263
 30
0.0
 42
-0.152806
  0
VERTEX
  8
DOOR
 10
8.902295
 20
62.219263
 30
0.0
  0
SEQEND
  8
DOOR
  0
LINE
  8
DOOR
 10
8.902295
 20
59.220263
 30
0.0
 11
8.559295
 21
59.220263
 31
0.0
  0
POLYLINE
  8
DOOR
 66
     1
 10
0.0
 20
0.0
 30
0.0
 70
     1
  0
VERTEX
  8
DOOR
 10
8.676795
 20
58.939263
 30
0.0
 42
-0.152806
  0
VERTEX
  8
DOOR
 10
8.559295
 20
59.220263
 30
0.0
  0
VERTEX
  8
DOOR
 10
8.559295
 20
60.719763
 30
0.0
  0
VERTEX
  8
DOOR
 10
8.902295
 20
60.719763
 30
0.0
  0
VERTEX
  8
DOOR
 10
8.902295
 20
59.220263
 30
0.0
 42
-0.152806
  0
VERTEX
  8
DOOR
 10
8.784795
 20
58.939263
 30
0.0
  0
SEQEND
  8
DOOR
  0
LINE
  8
DOOR
 10
8.559295
 20
62.219263
 30
0.0
 11
8.902295
 21
62.219263
 31
0.0
  0
LINE
  8
DOOR
 10
8.559295
 20
124.938763
 30
0.0
 11
8.902295
 21
124.938763
 31
0.0
  0
LINE
  8
DOOR
 10
8.902295
 20
121.939763
 30
0.0
 11
8.559295
 21
121.939763
 31
0.0
  0
POLYLINE
  8
DOOR
 66
     1
 10
0.0
 20
0.0
 30
0.0
 70
     1
  0
VERTEX
  8
DOOR
 10
8.676795
 20
121.658763
 30
0.0
 42
-0.152806
  0
VERTEX
  8
DOOR
 10
8.559295
 20
121.939763
 30
0.0
  0
VERTEX
  8
DOOR
 10
8.559295
 20
123.439263
 30
0.0
  0
VERTEX
  8
DOOR
 10
8.902295
 20
123.439263
 30
0.0
  0
VERTEX
  8
DOOR
 10
8.902295
 20
121.939763
 30
0.0
 42
-0.152806
  0
VERTEX
  8
DOOR
 10
8.784795
 20
121.658763
 30
0.0
  0
SEQEND
  8
DOOR
  0
POLYLINE
  8
DOOR
 66
     1
 10
0.0
 20
0.0
 30
0.0
 70
     1
  0
VERTEX
  8
DOOR
 10
8.902295
 20
123.439263
 30
0.0
  0
VERTEX
  8
DOOR
 10
8.559295
 20
123.439263
 30
0.0
  0
VERTEX
  8
DOOR
 10
8.559295
 20
124.938763
 30
0.0
 42
-0.152806
  0
VERTEX
  8
DOOR
 10
8.676795
 20
125.219763
 30
0.0
  0
VERTEX
  8
DOOR
 10
8.784795
 20
125.219763
 30
0.0
 42
-0.152806
  0
VERTEX
  8
DOOR
 10
8.902295
 20
124.938763
 30
0.0
  0
SEQEND
  8
DOOR
  0
POLYLINE
  8
PLEXIGLASS
 66
     1
 10
0.0
 20
0.0
 30
0.0
 70
     1
  0
VERTEX
  8
PLEXIGLASS
 10
101.760674
 20
60.719763
 30
0.0
  0
VERTEX
  8
PLEXIGLASS
 10
101.417674
 20
60.719763
 30
0.0
  0
VERTEX
  8
PLEXIGLASS
 10
101.417674
 20
62.219263
 30
0.0
 42
-0.152806
  0
VERTEX
  8
PLEXIGLASS
 10
101.535174
 20
62.500263
 30
0.0
  0
VERTEX
  8
PLEXIGLASS
 10
101.643174
 20
62.500263
 30
0.0
 42
-0.152806
  0
VERTEX
  8
PLEXIGLASS
 10
101.760674
 20
62.219263
 30
0.0
  0
SEQEND
  8
PLEXIGLASS
  0
LINE
  8
PLEXIGLASS
 10
101.760674
 20
59.220263
 30
0.0
 11
101.417674
 21
59.220263
 31
0.0
  0
POLYLINE
  8
PLEXIGLASS
 66
     1
 10
0.0
 20
0.0
 30
0.0
 70
     1
  0
VERTEX
  8
PLEXIGLASS
 10
101.535174
 20
58.939263
 30
0.0
 42
-0.152806
  0
VERTEX
  8
PLEXIGLASS
 10
101.417674
 20
59.220263
 30
0.0
  0
VERTEX
  8
PLEXIGLASS
 10
101.417674
 20
60.719763
 30
0.0
  0
VERTEX
  8
PLEXIGLASS
 10
101.760674
 20
60.719763
 30
0.0
  0
VERTEX
  8
PLEXIGLASS
 10
101.760674
 20
59.220263
 30
0.0
 42
-0.152806
  0
VERTEX
  8
PLEXIGLASS
 10
101.643174
 20
58.939263
 30
0.0
  0
SEQEND
  8
PLEXIGLASS
  0
LINE
  8
PLEXIGLASS
 10
101.417674
 20
62.219263
 30
0.0
 11
101.760674
 21
62.219263
 31
0.0
  0
LINE
  8
PLEXIGLASS
 10
101.417674
 20
124.938763
 30
0.0
 11
101.760674
 21
124.938763
 31
0.0
  0
LINE
  8
PLEXIGLASS
 10
101.760674
 20
121.939763
 30
0.0
 11
101.417674
 21
121.939763
 31
0.0
  0
POLYLINE
  8
PLEXIGLASS
 66
     1
 10
0.0
 20
0.0
 30
0.0
 70
     1
  0
VERTEX
  8
PLEXIGLASS
 10
101.535174
 20
121.658763
 30
0.0
 42
-0.152806
  0
VERTEX
  8
PLEXIGLASS
 10
101.417674
 20
121.939763
 30
0.0
  0
VERTEX
  8
PLEXIGLASS
 10
101.417674
 20
123.439263
 30
0.0
  0
VERTEX
  8
PLEXIGLASS
 10
101.760674
 20
123.439263
 30
0.0
  0
VERTEX
  8
PLEXIGLASS
 10
101.760674
 20
121.939763
 30
0.0
 42
-0.152806
  0
VERTEX
  8
PLEXIGLASS
 10
101.643174
 20
121.658763
 30
0.0
  0
SEQEND
  8
PLEXIGLASS
  0
POLYLINE
  8
PLEXIGLASS
 66
     1
 10
0.0
 20
0.0
 30
0.0
 70
     1
  0
VERTEX
  8
PLEXIGLASS
 10
101.760674
 20
123.439263
 30
0.0
  0
VERTEX
  8
PLEXIGLASS
 10
101.417674
 20
123.439263
 30
0.0
  0
VERTEX
  8
PLEXIGLASS
 10
101.417674
 20
124.938763
 30
0.0
 42
-0.152806
  0
VERTEX
  8
PLEXIGLASS
 10
101.535174
 20
125.219763
 30
0.0
  0
VERTEX
  8
PLEXIGLASS
 10
101.643174
 20
125.219763
 30
0.0
 42
-0.152806
  0
VERTEX
  8
PLEXIGLASS
 10
101.760674
 20
124.938763
 30
0.0
  0
SEQEND
  8
PLEXIGLASS
  0
INSERT
  8
PLEXIGLASS
  2
*X33
 10
0.0
 20
0.0
 30
0.0
1001
ACAD
1000
HATCH
1002
{
1070
    16
1000
ANSI31
1040
6.0
1040
0.349066
1002
}
  0
INSERT
  8
PLEXIGLASS
  2
*X34
 10
0.0
 20
0.0
 30
0.0
1001
ACAD
1000
HATCH
1002
{
1070
    16
1000
ANSI31
1040
6.0
1040
0.349066
1002
}
  0
LINE
  8
TEXT
 10
32.177413
 20
187.789532
 30
0.0
 11
44.337323
 21
187.789532
 31
0.0
  0
POLYLINE
  8
OBJECT
 66
     1
 10
0.0
 20
0.0
 30
0.0
  0
VERTEX
  8
OBJECT
 10
108.964174
 20
21.109943
 30
0.0
  0
VERTEX
  8
OBJECT
 10
118.525174
 20
21.109943
 30
0.0
  0
VERTEX
  8
OBJECT
 10
118.525174
 20
30.670943
 30
0.0
  0
VERTEX
  8
OBJECT
 10
108.964174
 20
30.670943
 30
0.0
  0
VERTEX
  8
OBJECT
 10
108.964174
 20
21.109943
 30
0.0
  0
SEQEND
  8
OBJECT
  0
CIRCLE
  8
DOOR
 10
31.715295
 20
92.516763
 30
0.0
 40
0.4375
  0
CIRCLE
  8
DOOR
 10
31.715295
 20
92.516763
 30
0.0
 40
0.275522
  0
LINE
  8
DOOR
 10
31.684295
 20
92.360987
 30
0.0
 11
31.684295
 21
92.672539
 31
0.0
  0
LINE
  8
DOOR
 10
31.746295
 20
92.360987
 30
0.0
 11
31.746295
 21
92.672539
 31
0.0
  0
ARC
  8
DOOR
 10
31.715295
 20
92.516763
 30
0.0
 40
0.15883
 50
78.744954
 51
101.255046
  0
ARC
  8
DOOR
 10
31.715295
 20
92.516763
 30
0.0
 40
0.15883
 50
258.744954
 51
281.255046
  0
ARC
  8
DOOR
 10
31.715295
 20
92.453323
 30
0.0
 40
0.09076
 50
109.971898
 51
250.028102
  0
ARC
  8
DOOR
 10
31.715295
 20
92.453323
 30
0.0
 40
0.09076
 50
289.971898
 51
70.028102
  0
CIRCLE
  8
OBJECT
 10
123.744674
 20
146.885071
 30
0.0
 40
2.031
  0
CIRCLE
  8
OBJECT
 10
125.494674
 20
145.135071
 30
0.0
 40
0.058
  0
CIRCLE
  8
OBJECT
 10
121.994674
 20
148.635071
 30
0.0
 40
0.058
  0
CIRCLE
  8
OBJECT
 10
105.494674
 20
148.635071
 30
0.0
 40
0.058
  0
CIRCLE
  8
OBJECT
 10
103.744674
 20
146.885071
 30
0.0
 40
2.031
  0
CIRCLE
  8
OBJECT
 10
101.994674
 20
145.135071
 30
0.0
 40
0.058
  0
CIRCLE
  8
OBJECT
 10
101.994674
 20
172.385071
 30
0.0
 40
0.058
  0
CIRCLE
  8
OBJECT
 10
103.744674
 20
170.635071
 30
0.0
 40
2.031
  0
CIRCLE
  8
OBJECT
 10
105.494674
 20
168.885071
 30
0.0
 40
0.058
  0
CIRCLE
  8
OBJECT
 10
121.994674
 20
168.885071
 30
0.0
 40
0.058
  0
CIRCLE
  8
OBJECT
 10
123.744674
 20
170.635071
 30
0.0
 40
2.031
  0
CIRCLE
  8
OBJECT
 10
125.494674
 20
172.385071
 30
0.0
 40
0.058
  0
TEXT
  8
TEXT
 10
12.48837
 20
176.280975
 30
0.0
 40
1.75
  1
& REAR DOOR HINGES
 41
0.75
  7
TXT
  0
TEXT
  8
TEXT
 10
10.096234
 20
179.197642
 30
0.0
 40
1.75
  1
FRAME ASSEMBLY, SIDES, REAR DOOR
 41
0.75
  7
TXT
  0
LINE
  8
TEXT
 10
36.15944
 20
173.420112
 30
0.0
 11
44.337323
 21
173.420112
 31
0.0
  0
LINE
  8
TEXT
 10
36.15944
 20
176.188996
 30
0.0
 11
44.337323
 21
176.188996
 31
0.0
  0
POLYLINE
  8
DIM
 66
     1
 10
0.0
 20
0.0
 30
0.0
 41
0.945
  0
VERTEX
  8
DIM
 10
102.044242
 20
148.208432
 30
0.0
  0
VERTEX
  8
DIM
 10
100.007476
 20
149.692341
 30
0.0
 41
0.0
  0
VERTEX
  8
DIM
 10
97.6158
 20
151.434824
 30
0.0
 41
0.0
  0
VERTEX
  8
DIM
 10
95.0958
 20
151.434824
 30
0.0
 41
0.0
  0
SEQEND
  8
DIM
  0
TEXT
  8
DIM
 10
83.55455
 20
150.559824
 30
0.0
 40
1.75
  1
4.062 DIA.
 41
0.75
  7
TXT
 72
     2
 11
93.8358
 21
151.434824
 31
0.0
 73
     2
  0
TEXT
  8
DIM
 10
83.3358
 20
147.643157
 30
0.0
 40
1.75
  1
(4) HOLES
 41
0.75
  7
TXT
 72
     2
 11
93.8358
 21
148.518157
 31
0.0
 73
     2
  0
DIMENSION
  8
DIM
  2
*D38
 10
123.744674
 20
140.380332
 30
0.0
 11
112.194674
 21
140.380332
 31
0.0
  1
<> TYP.
 13
127.244674
 23
143.385071
 33
0.0
 14
123.744674
 24
146.885071
 34
0.0
  3
23NSTD
  0
DIMENSION
  8
DIM
  2
*D37
 10
134.068753
 20
146.885071
 30
0.0
 11
134.068753
 21
145.135071
 31
0.0
  1
<> TYP.
 13
127.244674
 23
143.385071
 33
0.0
 14
123.744674
 24
146.885071
 34
0.0
 50
90.0
  3
23NSTDI
  0
LINE
  8
OBJECT
 10
65.788381
 20
157.821854
 30
0.0
 11
70.288381
 21
157.821854
 31
0.0
  0
LINE
  8
OBJECT
 10
70.288381
 20
157.821854
 30
0.0
 11
70.288381
 21
153.321854
 31
0.0
  0
LINE
  8
OBJECT
 10
70.288381
 20
153.321854
 30
0.0
 11
65.788381
 21
153.321854
 31
0.0
  0
LINE
  8
OBJECT
 10
65.788381
 20
153.321854
 30
0.0
 11
65.788381
 21
157.821854
 31
0.0
  0
CIRCLE
  8
OBJECT
 10
66.288381
 20
157.321854
 30
0.0
 40
0.094
  0
CIRCLE
  8
OBJECT
 10
69.788381
 20
153.821854
 30
0.0
 40
0.094
  0
DIMENSION
  8
DIM
  2
*D36
 10
65.788381
 20
161.423894
 30
0.0
 11
57.082131
 21
161.423894
 31
0.0
 12
7.115774
 22
-0.496278
 32
0.0
 13
70.288381
 23
157.821854
 33
0.0
 14
65.788381
 24
157.821854
 34
0.0
  3
23NSTD
  0
DIMENSION
  8
DIM
  2
*D35
 10
76.578728
 20
153.321854
 30
0.0
 11
76.578728
 21
155.571854
 31
0.0
 12
7.115774
 22
-0.496278
 32
0.0
 13
70.288381
 23
157.821854
 33
0.0
 14
70.288381
 24
153.321854
 34
0.0
 50
90.0
  3
23NSTDI
  0
TEXT
  8
TEXT
 10
64.893423
 20
149.065337
 30
0.0
 40
1.75
  1
%%UPLATE
 41
0.75
  7
TXT
 72
     1
 11
67.977798
 21
149.065337
 31
0.0
  0
TEXT
  8
TEXT
 10
77.017937
 20
184.008353
 30
0.0
 40
1.75
  1
DOOR HINGES
 41
0.75
  7
TXT
  0
TEXT
  8
TEXT
 10
107.31925
 20
184.008353
 30
0.0
 40
1.75
  1
METALLIC GRAY
 41
0.75
  7
TXT
  0
LINE
  8
TEXT
 10
91.485814
 20
183.996183
 30
0.0
 11
106.529651
 21
183.996183
 31
0.0
  0
TEXT
  8
TEXT
 10
45.096965
 20
170.370398
 30
0.0
 40
1.75
  1
WHITE TEXTURE
 41
0.75
  7
TXT
  0
LINE
  8
TEXT
 10
36.15944
 20
170.60019
 30
0.0
 11
44.337323
 21
170.60019
 31
0.0
  0
POLYLINE
  8
PMR
  6
HIDDEN2
 66
     1
 10
0.0
 20
0.0
 30
0.0
 70
     1
  0
VERTEX
  8
PMR
  6
HIDDEN2
 10
123.322424
 20
164.385321
 30
0.0
 42
0.414214
  0
VERTEX
  8
PMR
  6
HIDDEN2
 10
123.447424
 20
164.510321
 30
0.0
  0
VERTEX
  8
PMR
  6
HIDDEN2
 10
123.447424
 20
167.368821
 30
0.0
 42
-0.414214
  0
VERTEX
  8
PMR
  6
HIDDEN2
 10
123.463424
 20
167.384821
 30
0.0
  0
VERTEX
  8
PMR
  6
HIDDEN2
 10
125.712424
 20
167.384821
 30
0.0
 42
0.414214
  0
VERTEX
  8
PMR
  6
HIDDEN2
 10
125.837424
 20
167.509821
 30
0.0
  0
VERTEX
  8
PMR
  6
HIDDEN2
 10
125.837424
 20
168.759821
 30
0.0
 42
0.414214
  0
VERTEX
  8
PMR
  6
HIDDEN2
 10
125.712424
 20
168.884821
 30
0.0
  0
VERTEX
  8
PMR
  6
HIDDEN2
 10
122.712424
 20
168.884821
 30
0.0
  0
VERTEX
  8
PMR
  6
HIDDEN2
 10
122.712424
 20
168.775821
 30
0.0
  0
VERTEX
  8
PMR
  6
HIDDEN2
 10
125.712424
 20
168.775821
 30
0.0
 42
-0.414214
  0
VERTEX
  8
PMR
  6
HIDDEN2
 10
125.728424
 20
168.759821
 30
0.0
  0
VERTEX
  8
PMR
  6
HIDDEN2
 10
125.728424
 20
167.509821
 30
0.0
 42
-0.414214
  0
VERTEX
  8
PMR
  6
HIDDEN2
 10
125.712424
 20
167.493821
 30
0.0
  0
VERTEX
  8
PMR
  6
HIDDEN2
 10
123.463424
 20
167.493821
 30
0.0
 42
0.414214
  0
VERTEX
  8
PMR
  6
HIDDEN2
 10
123.338424
 20
167.368821
 30
0.0
  0
VERTEX
  8
PMR
  6
HIDDEN2
 10
123.338424
 20
164.510321
 30
0.0
 42
-0.414214
  0
VERTEX
  8
PMR
  6
HIDDEN2
 10
123.322424
 20
164.494321
 30
0.0
  0
VERTEX
  8
PMR
  6
HIDDEN2
 10
122.838424
 20
164.494321
 30
0.0
 42
0.414214
  0
VERTEX
  8
PMR
  6
HIDDEN2
 10
122.713424
 20
164.369321
 30
0.0
  0
VERTEX
  8
PMR
  6
HIDDEN2
 10
122.713424
 20
163.805321
 30
0.0
  0
VERTEX
  8
PMR
  6
HIDDEN2
 10
122.822424
 20
163.805321
 30
0.0
  0
VERTEX
  8
PMR
  6
HIDDEN2
 10
122.822424
 20
164.369321
 30
0.0
 42
-0.414214
  0
VERTEX
  8
PMR
  6
HIDDEN2
 10
122.838424
 20
164.385321
 30
0.0
  0
SEQEND
  8
PMR
  6
HIDDEN2
  0
POLYLINE
  8
PMR
  6
HIDDEN2
 66
     1
 10
0.0
 20
0.0
 30
0.0
 70
     1
  0
VERTEX
  8
PMR
  6
HIDDEN2
 10
104.166924
 20
164.385321
 30
0.0
 42
-0.414214
  0
VERTEX
  8
PMR
  6
HIDDEN2
 10
104.041924
 20
164.510321
 30
0.0
  0
VERTEX
  8
PMR
  6
HIDDEN2
 10
104.041924
 20
167.368821
 30
0.0
 42
0.414214
  0
VERTEX
  8
PMR
  6
HIDDEN2
 10
104.025924
 20
167.384821
 30
0.0
  0
VERTEX
  8
PMR
  6
HIDDEN2
 10
101.776924
 20
167.384821
 30
0.0
 42
-0.414214
  0
VERTEX
  8
PMR
  6
HIDDEN2
 10
101.651924
 20
167.509821
 30
0.0
  0
VERTEX
  8
PMR
  6
HIDDEN2
 10
101.651924
 20
168.759821
 30
0.0
 42
-0.414214
  0
VERTEX
  8
PMR
  6
HIDDEN2
 10
101.776924
 20
168.884821
 30
0.0
  0
VERTEX
  8
PMR
  6
HIDDEN2
 10
104.776924
 20
168.884821
 30
0.0
  0
VERTEX
  8
PMR
  6
HIDDEN2
 10
104.776924
 20
168.775821
 30
0.0
  0
VERTEX
  8
PMR
  6
HIDDEN2
 10
101.776924
 20
168.775821
 30
0.0
 42
0.414214
  0
VERTEX
  8
PMR
  6
HIDDEN2
 10
101.760924
 20
168.759821
 30
0.0
  0
VERTEX
  8
PMR
  6
HIDDEN2
 10
101.760924
 20
167.509821
 30
0.0
 42
0.414214
  0
VERTEX
  8
PMR
  6
HIDDEN2
 10
101.776924
 20
167.493821
 30
0.0
  0
VERTEX
  8
PMR
  6
HIDDEN2
 10
104.025924
 20
167.493821
 30
0.0
 42
-0.414214
  0
VERTEX
  8
PMR
  6
HIDDEN2
 10
104.150924
 20
167.368821
 30
0.0
  0
VERTEX
  8
PMR
  6
HIDDEN2
 10
104.150924
 20
164.510321
 30
0.0
 42
0.414214
  0
VERTEX
  8
PMR
  6
HIDDEN2
 10
104.166924
 20
164.494321
 30
0.0
  0
VERTEX
  8
PMR
  6
HIDDEN2
 10
104.650924
 20
164.494321
 30
0.0
 42
-0.414214
  0
VERTEX
  8
PMR
  6
HIDDEN2
 10
104.775924
 20
164.369321
 30
0.0
  0
VERTEX
  8
PMR
  6
HIDDEN2
 10
104.775924
 20
163.805321
 30
0.0
  0
VERTEX
  8
PMR
  6
HIDDEN2
 10
104.666924
 20
163.805321
 30
0.0
  0
VERTEX
  8
PMR
  6
HIDDEN2
 10
104.666924
 20
164.369321
 30
0.0
 42
0.414214
  0
VERTEX
  8
PMR
  6
HIDDEN2
 10
104.650924
 20
164.385321
 30
0.0
  0
SEQEND
  8
PMR
  6
HIDDEN2
  0
POLYLINE
  8
PMR
  6
HIDDEN2
 66
     1
 10
0.0
 20
0.0
 30
0.0
 70
     1
  0
VERTEX
  8
PMR
  6
HIDDEN2
 10
104.166924
 20
153.134821
 30
0.0
 42
0.414214
  0
VERTEX
  8
PMR
  6
HIDDEN2
 10
104.041924
 20
153.009821
 30
0.0
  0
VERTEX
  8
PMR
  6
HIDDEN2
 10
104.041924
 20
150.151321
 30
0.0
 42
-0.414214
  0
VERTEX
  8
PMR
  6
HIDDEN2
 10
104.025924
 20
150.135321
 30
0.0
  0
VERTEX
  8
PMR
  6
HIDDEN2
 10
101.776924
 20
150.135321
 30
0.0
 42
0.414214
  0
VERTEX
  8
PMR
  6
HIDDEN2
 10
101.651924
 20
150.010321
 30
0.0
  0
VERTEX
  8
PMR
  6
HIDDEN2
 10
101.651924
 20
148.760321
 30
0.0
 42
0.414214
  0
VERTEX
  8
PMR
  6
HIDDEN2
 10
101.776924
 20
148.635321
 30
0.0
  0
VERTEX
  8
PMR
  6
HIDDEN2
 10
104.776924
 20
148.635321
 30
0.0
  0
VERTEX
  8
PMR
  6
HIDDEN2
 10
104.776924
 20
148.744321
 30
0.0
  0
VERTEX
  8
PMR
  6
HIDDEN2
 10
101.776924
 20
148.744321
 30
0.0
 42
-0.414214
  0
VERTEX
  8
PMR
  6
HIDDEN2
 10
101.760924
 20
148.760321
 30
0.0
  0
VERTEX
  8
PMR
  6
HIDDEN2
 10
101.760924
 20
150.010321
 30
0.0
 42
-0.414214
  0
VERTEX
  8
PMR
  6
HIDDEN2
 10
101.776924
 20
150.026321
 30
0.0
  0
VERTEX
  8
PMR
  6
HIDDEN2
 10
104.025924
 20
150.026321
 30
0.0
 42
0.414214
  0
VERTEX
  8
PMR
  6
HIDDEN2
 10
104.150924
 20
150.151321
 30
0.0
  0
VERTEX
  8
PMR
  6
HIDDEN2
 10
104.150924
 20
153.009821
 30
0.0
 42
-0.414214
  0
VERTEX
  8
PMR
  6
HIDDEN2
 10
104.166924
 20
153.025821
 30
0.0
  0
VERTEX
  8
PMR
  6
HIDDEN2
 10
104.650924
 20
153.025821
 30
0.0
 42
0.414214
  0
VERTEX
  8
PMR
  6
HIDDEN2
 10
104.775924
 20
153.150821
 30
0.0
  0
VERTEX
  8
PMR
  6
HIDDEN2
 10
104.775924
 20
153.714821
 30
0.0
  0
VERTEX
  8
PMR
  6
HIDDEN2
 10
104.666924
 20
153.714821
 30
0.0
  0
VERTEX
  8
PMR
  6
HIDDEN2
 10
104.666924
 20
153.150821
 30
0.0
 42
-0.414214
  0
VERTEX
  8
PMR
  6
HIDDEN2
 10
104.650924
 20
153.134821
 30
0.0
  0
SEQEND
  8
PMR
  6
HIDDEN2
  0
POLYLINE
  8
PMR
  6
HIDDEN2
 66
     1
 10
0.0
 20
0.0
 30
0.0
 70
     1
  0
VERTEX
  8
PMR
  6
HIDDEN2
 10
123.322424
 20
153.134821
 30
0.0
 42
-0.414214
  0
VERTEX
  8
PMR
  6
HIDDEN2
 10
123.447424
 20
153.009821
 30
0.0
  0
VERTEX
  8
PMR
  6
HIDDEN2
 10
123.447424
 20
150.151321
 30
0.0
 42
0.414214
  0
VERTEX
  8
PMR
  6
HIDDEN2
 10
123.463424
 20
150.135321
 30
0.0
  0
VERTEX
  8
PMR
  6
HIDDEN2
 10
125.712424
 20
150.135321
 30
0.0
 42
-0.414214
  0
VERTEX
  8
PMR
  6
HIDDEN2
 10
125.837424
 20
150.010321
 30
0.0
  0
VERTEX
  8
PMR
  6
HIDDEN2
 10
125.837424
 20
148.760321
 30
0.0
 42
-0.414214
  0
VERTEX
  8
PMR
  6
HIDDEN2
 10
125.712424
 20
148.635321
 30
0.0
  0
VERTEX
  8
PMR
  6
HIDDEN2
 10
122.712424
 20
148.635321
 30
0.0
  0
VERTEX
  8
PMR
  6
HIDDEN2
 10
122.712424
 20
148.744321
 30
0.0
  0
VERTEX
  8
PMR
  6
HIDDEN2
 10
125.712424
 20
148.744321
 30
0.0
 42
0.414214
  0
VERTEX
  8
PMR
  6
HIDDEN2
 10
125.728424
 20
148.760321
 30
0.0
  0
VERTEX
  8
PMR
  6
HIDDEN2
 10
125.728424
 20
150.010321
 30
0.0
 42
0.414214
  0
VERTEX
  8
PMR
  6
HIDDEN2
 10
125.712424
 20
150.026321
 30
0.0
  0
VERTEX
  8
PMR
  6
HIDDEN2
 10
123.463424
 20
150.026321
 30
0.0
 42
-0.414214
  0
VERTEX
  8
PMR
  6
HIDDEN2
 10
123.338424
 20
150.151321
 30
0.0
  0
VERTEX
  8
PMR
  6
HIDDEN2
 10
123.338424
 20
153.009821
 30
0.0
 42
0.414214
  0
VERTEX
  8
PMR
  6
HIDDEN2
 10
123.322424
 20
153.025821
 30
0.0
  0
VERTEX
  8
PMR
  6
HIDDEN2
 10
122.838424
 20
153.025821
 30
0.0
 42
-0.414214
  0
VERTEX
  8
PMR
  6
HIDDEN2
 10
122.713424
 20
153.150821
 30
0.0
  0
VERTEX
  8
PMR
  6
HIDDEN2
 10
122.713424
 20
153.714821
 30
0.0
  0
VERTEX
  8
PMR
  6
HIDDEN2
 10
122.822424
 20
153.714821
 30
0.0
  0
VERTEX
  8
PMR
  6
HIDDEN2
 10
122.822424
 20
153.150821
 30
0.0
 42
0.414214
  0
VERTEX
  8
PMR
  6
HIDDEN2
 10
122.838424
 20
153.134821
 30
0.0
  0
SEQEND
  8
PMR
  6
HIDDEN2
  0
POLYLINE
  8
PMR
 66
     1
 10
0.0
 20
0.0
 30
0.0
 70
     1
  0
VERTEX
  8
PMR
 10
123.962674
 20
97.328388
 30
0.0
  0
VERTEX
  8
PMR
 10
125.087674
 20
97.328388
 30
0.0
 42
0.414214
  0
VERTEX
  8
PMR
 10
125.212674
 20
97.453388
 30
0.0
  0
VERTEX
  8
PMR
 10
125.212674
 20
99.328388
 30
0.0
 42
0.414214
  0
VERTEX
  8
PMR
 10
125.087674
 20
99.453388
 30
0.0
  0
VERTEX
  8
PMR
 10
123.962674
 20
99.453388
 30
0.0
 42
0.414214
  0
VERTEX
  8
PMR
 10
123.837674
 20
99.328388
 30
0.0
  0
VERTEX
  8
PMR
 10
123.837674
 20
97.453388
 30
0.0
 42
0.414214
  0
SEQEND
  8
PMR
  0
POLYLINE
  8
PMR
 66
     1
 10
0.0
 20
0.0
 30
0.0
 70
     1
  0
VERTEX
  8
PMR
 10
123.962674
 20
103.203388
 30
0.0
  0
VERTEX
  8
PMR
 10
125.087674
 20
103.203388
 30
0.0
 42
0.414214
  0
VERTEX
  8
PMR
 10
125.212674
 20
103.328388
 30
0.0
  0
VERTEX
  8
PMR
 10
125.212674
 20
105.203388
 30
0.0
 42
0.414214
  0
VERTEX
  8
PMR
 10
125.087674
 20
105.328388
 30
0.0
  0
VERTEX
  8
PMR
 10
123.962674
 20
105.328388
 30
0.0
 42
0.414214
  0
VERTEX
  8
PMR
 10
123.837674
 20
105.203388
 30
0.0
  0
VERTEX
  8
PMR
 10
123.837674
 20
103.328388
 30
0.0
 42
0.414214
  0
SEQEND
  8
PMR
  0
POLYLINE
  8
PMR
 66
     1
 10
0.0
 20
0.0
 30
0.0
 70
     1
  0
VERTEX
  8
PMR
 10
123.837674
 20
94.953388
 30
0.0
 42
1.0
  0
VERTEX
  8
PMR
 10
124.087674
 20
94.953388
 30
0.0
  0
VERTEX
  8
PMR
 10
124.087674
 20
95.953388
 30
0.0
 42
1.0
  0
VERTEX
  8
PMR
 10
123.837674
 20
95.953388
 30
0.0
  0
SEQEND
  8
PMR
  0
POLYLINE
  8
PMR
 66
     1
 10
0.0
 20
0.0
 30
0.0
 70
     1
  0
VERTEX
  8
PMR
 10
123.837674
 20
100.828388
 30
0.0
 42
1.0
  0
VERTEX
  8
PMR
 10
124.087674
 20
100.828388
 30
0.0
  0
VERTEX
  8
PMR
 10
124.087674
 20
101.828388
 30
0.0
 42
1.0
  0
VERTEX
  8
PMR
 10
123.837674
 20
101.828388
 30
0.0
  0
SEQEND
  8
PMR
  0
POLYLINE
  8
PMR
 66
     1
 10
0.0
 20
0.0
 30
0.0
 70
     1
  0
VERTEX
  8
PMR
 10
123.837674
 20
106.703388
 30
0.0
 42
1.0
  0
VERTEX
  8
PMR
 10
124.087674
 20
106.703388
 30
0.0
  0
VERTEX
  8
PMR
 10
124.087674
 20
107.703388
 30
0.0
 42
1.0
  0
VERTEX
  8
PMR
 10
123.837674
 20
107.703388
 30
0.0
  0
SEQEND
  8
PMR
  0
POLYLINE
  8
PMR
 66
     1
 10
0.0
 20
0.0
 30
0.0
 70
     1
  0
VERTEX
  8
PMR
 10
124.962674
 20
100.828388
 30
0.0
 42
1.0
  0
VERTEX
  8
PMR
 10
125.212674
 20
100.828388
 30
0.0
  0
VERTEX
  8
PMR
 10
125.212674
 20
101.828388
 30
0.0
 42
1.0
  0
VERTEX
  8
PMR
 10
124.962674
 20
101.828388
 30
0.0
  0
SEQEND
  8
PMR
  0
POLYLINE
  8
PMR
 66
     1
 10
0.0
 20
0.0
 30
0.0
 70
     1
  0
VERTEX
  8
PMR
 10
124.962674
 20
106.703388
 30
0.0
 42
1.0
  0
VERTEX
  8
PMR
 10
125.212674
 20
106.703388
 30
0.0
  0
VERTEX
  8
PMR
 10
125.212674
 20
107.703388
 30
0.0
 42
1.0
  0
VERTEX
  8
PMR
 10
124.962674
 20
107.703388
 30
0.0
  0
SEQEND
  8
PMR
  0
POLYLINE
  8
PMR
 66
     1
 10
0.0
 20
0.0
 30
0.0
 70
     1
  0
VERTEX
  8
PMR
 10
123.962674
 20
109.078388
 30
0.0
  0
VERTEX
  8
PMR
 10
125.087674
 20
109.078388
 30
0.0
 42
0.414214
  0
VERTEX
  8
PMR
 10
125.212674
 20
109.203388
 30
0.0
  0
VERTEX
  8
PMR
 10
125.212674
 20
111.078388
 30
0.0
 42
0.414214
  0
VERTEX
  8
PMR
 10
125.087674
 20
111.203388
 30
0.0
  0
VERTEX
  8
PMR
 10
123.962674
 20
111.203388
 30
0.0
 42
0.414214
  0
VERTEX
  8
PMR
 10
123.837674
 20
111.078388
 30
0.0
  0
VERTEX
  8
PMR
 10
123.837674
 20
109.203388
 30
0.0
 42
0.414214
  0
SEQEND
  8
PMR
  0
POLYLINE
  8
PMR
 66
     1
 10
0.0
 20
0.0
 30
0.0
 70
     1
  0
VERTEX
  8
PMR
 10
123.837674
 20
112.578388
 30
0.0
 42
1.0
  0
VERTEX
  8
PMR
 10
124.087674
 20
112.578388
 30
0.0
  0
VERTEX
  8
PMR
 10
124.087674
 20
113.578388
 30
0.0
 42
1.0
  0
VERTEX
  8
PMR
 10
123.837674
 20
113.578388
 30
0.0
  0
SEQEND
  8
PMR
  0
POLYLINE
  8
PMR
 66
     1
 10
0.0
 20
0.0
 30
0.0
 70
     1
  0
VERTEX
  8
PMR
 10
124.962674
 20
112.578388
 30
0.0
 42
1.0
  0
VERTEX
  8
PMR
 10
125.212674
 20
112.578388
 30
0.0
  0
VERTEX
  8
PMR
 10
125.212674
 20
113.578388
 30
0.0
 42
1.0
  0
VERTEX
  8
PMR
 10
124.962674
 20
113.578388
 30
0.0
  0
SEQEND
  8
PMR
  0
POLYLINE
  8
PMR
 66
     1
 10
0.0
 20
0.0
 30
0.0
 70
     1
  0
VERTEX
  8
PMR
 10
103.526674
 20
91.453388
 30
0.0
  0
VERTEX
  8
PMR
 10
102.401674
 20
91.453388
 30
0.0
 42
-0.414214
  0
VERTEX
  8
PMR
 10
102.276674
 20
91.578388
 30
0.0
  0
VERTEX
  8
PMR
 10
102.276674
 20
93.453388
 30
0.0
 42
-0.414214
  0
VERTEX
  8
PMR
 10
102.401674
 20
93.578388
 30
0.0
  0
VERTEX
  8
PMR
 10
103.526674
 20
93.578388
 30
0.0
 42
-0.414214
  0
VERTEX
  8
PMR
 10
103.651674
 20
93.453388
 30
0.0
  0
VERTEX
  8
PMR
 10
103.651674
 20
91.578388
 30
0.0
 42
-0.414214
  0
SEQEND
  8
PMR
  0
POLYLINE
  8
PMR
 66
     1
 10
0.0
 20
0.0
 30
0.0
 70
     1
  0
VERTEX
  8
PMR
 10
103.526674
 20
97.328388
 30
0.0
  0
VERTEX
  8
PMR
 10
102.401674
 20
97.328388
 30
0.0
 42
-0.414214
  0
VERTEX
  8
PMR
 10
102.276674
 20
97.453388
 30
0.0
  0
VERTEX
  8
PMR
 10
102.276674
 20
99.328388
 30
0.0
 42
-0.414214
  0
VERTEX
  8
PMR
 10
102.401674
 20
99.453388
 30
0.0
  0
VERTEX
  8
PMR
 10
103.526674
 20
99.453388
 30
0.0
 42
-0.414214
  0
VERTEX
  8
PMR
 10
103.651674
 20
99.328388
 30
0.0
  0
VERTEX
  8
PMR
 10
103.651674
 20
97.453388
 30
0.0
 42
-0.414214
  0
SEQEND
  8
PMR
  0
POLYLINE
  8
PMR
 66
     1
 10
0.0
 20
0.0
 30
0.0
 70
     1
  0
VERTEX
  8
PMR
 10
103.526674
 20
103.203388
 30
0.0
  0
VERTEX
  8
PMR
 10
102.401674
 20
103.203388
 30
0.0
 42
-0.414214
  0
VERTEX
  8
PMR
 10
102.276674
 20
103.328388
 30
0.0
  0
VERTEX
  8
PMR
 10
102.276674
 20
105.203388
 30
0.0
 42
-0.414214
  0
VERTEX
  8
PMR
 10
102.401674
 20
105.328388
 30
0.0
  0
VERTEX
  8
PMR
 10
103.526674
 20
105.328388
 30
0.0
 42
-0.414214
  0
VERTEX
  8
PMR
 10
103.651674
 20
105.203388
 30
0.0
  0
VERTEX
  8
PMR
 10
103.651674
 20
103.328388
 30
0.0
 42
-0.414214
  0
SEQEND
  8
PMR
  0
POLYLINE
  8
PMR
 66
     1
 10
0.0
 20
0.0
 30
0.0
 70
     1
  0
VERTEX
  8
PMR
 10
102.526674
 20
94.953388
 30
0.0
 42
-1.0
  0
VERTEX
  8
PMR
 10
102.276674
 20
94.953388
 30
0.0
  0
VERTEX
  8
PMR
 10
102.276674
 20
95.953388
 30
0.0
 42
-1.0
  0
VERTEX
  8
PMR
 10
102.526674
 20
95.953388
 30
0.0
  0
SEQEND
  8
PMR
  0
POLYLINE
  8
PMR
 66
     1
 10
0.0
 20
0.0
 30
0.0
 70
     1
  0
VERTEX
  8
PMR
 10
102.526674
 20
100.828388
 30
0.0
 42
-1.0
  0
VERTEX
  8
PMR
 10
102.276674
 20
100.828388
 30
0.0
  0
VERTEX
  8
PMR
 10
102.276674
 20
101.828388
 30
0.0
 42
-1.0
  0
VERTEX
  8
PMR
 10
102.526674
 20
101.828388
 30
0.0
  0
SEQEND
  8
PMR
  0
POLYLINE
  8
PMR
 66
     1
 10
0.0
 20
0.0
 30
0.0
 70
     1
  0
VERTEX
  8
PMR
 10
102.526674
 20
106.703388
 30
0.0
 42
-1.0
  0
VERTEX
  8
PMR
 10
102.276674
 20
106.703388
 30
0.0
  0
VERTEX
  8
PMR
 10
102.276674
 20
107.703388
 30
0.0
 42
-1.0
  0
VERTEX
  8
PMR
 10
102.526674
 20
107.703388
 30
0.0
  0
SEQEND
  8
PMR
  0
POLYLINE
  8
PMR
 66
     1
 10
0.0
 20
0.0
 30
0.0
 70
     1
  0
VERTEX
  8
PMR
 10
103.651674
 20
94.953388
 30
0.0
 42
-1.0
  0
VERTEX
  8
PMR
 10
103.401674
 20
94.953388
 30
0.0
  0
VERTEX
  8
PMR
 10
103.401674
 20
95.953388
 30
0.0
 42
-1.0
  0
VERTEX
  8
PMR
 10
103.651674
 20
95.953388
 30
0.0
  0
SEQEND
  8
PMR
  0
POLYLINE
  8
PMR
 66
     1
 10
0.0
 20
0.0
 30
0.0
 70
     1
  0
VERTEX
  8
PMR
 10
103.651674
 20
100.828388
 30
0.0
 42
-1.0
  0
VERTEX
  8
PMR
 10
103.401674
 20
100.828388
 30
0.0
  0
VERTEX
  8
PMR
 10
103.401674
 20
101.828388
 30
0.0
 42
-1.0
  0
VERTEX
  8
PMR
 10
103.651674
 20
101.828388
 30
0.0
  0
SEQEND
  8
PMR
  0
POLYLINE
  8
PMR
 66
     1
 10
0.0
 20
0.0
 30
0.0
 70
     1
  0
VERTEX
  8
PMR
 10
103.651674
 20
106.703388
 30
0.0
 42
-1.0
  0
VERTEX
  8
PMR
 10
103.401674
 20
106.703388
 30
0.0
  0
VERTEX
  8
PMR
 10
103.401674
 20
107.703388
 30
0.0
 42
-1.0
  0
VERTEX
  8
PMR
 10
103.651674
 20
107.703388
 30
0.0
  0
SEQEND
  8
PMR
  0
POLYLINE
  8
PMR
 66
     1
 10
0.0
 20
0.0
 30
0.0
 70
     1
  0
VERTEX
  8
PMR
 10
103.526674
 20
109.078388
 30
0.0
  0
VERTEX
  8
PMR
 10
102.401674
 20
109.078388
 30
0.0
 42
-0.414214
  0
VERTEX
  8
PMR
 10
102.276674
 20
109.203388
 30
0.0
  0
VERTEX
  8
PMR
 10
102.276674
 20
111.078388
 30
0.0
 42
-0.414214
  0
VERTEX
  8
PMR
 10
102.401674
 20
111.203388
 30
0.0
  0
VERTEX
  8
PMR
 10
103.526674
 20
111.203388
 30
0.0
 42
-0.414214
  0
VERTEX
  8
PMR
 10
103.651674
 20
111.078388
 30
0.0
  0
VERTEX
  8
PMR
 10
103.651674
 20
109.203388
 30
0.0
 42
-0.414214
  0
SEQEND
  8
PMR
  0
POLYLINE
  8
PMR
 66
     1
 10
0.0
 20
0.0
 30
0.0
  0
VERTEX
  8
PMR
 10
103.401674
 20
89.892113
 30
0.0
  0
VERTEX
  8
PMR
 10
103.401674
 20
90.078388
 30
0.0
 42
-1.0
  0
VERTEX
  8
PMR
 10
103.651674
 20
90.078388
 30
0.0
  0
VERTEX
  8
PMR
 10
103.651674
 20
90.003961
 30
0.0
 42
-1.0
  0
SEQEND
  8
PMR
  0
POLYLINE
  8
PMR
 66
     1
 10
0.0
 20
0.0
 30
0.0
  0
VERTEX
  8
PMR
 10
102.276674
 20
89.2973
 30
0.0
  0
VERTEX
  8
PMR
 10
102.276674
 20
90.078388
 30
0.0
 42
-1.0
  0
VERTEX
  8
PMR
 10
102.526674
 20
90.078388
 30
0.0
  0
VERTEX
  8
PMR
 10
102.526674
 20
89.444981
 30
0.0
 42
-1.0
  0
SEQEND
  8
PMR
  0
POLYLINE
  8
PMR
 66
     1
 10
0.0
 20
0.0
 30
0.0
  0
VERTEX
  8
PMR
 10
124.962674
 20
94.953388
 30
0.0
 42
0.245448
  0
VERTEX
  8
PMR
 10
125.016267
 20
94.850791
 30
0.0
  0
SEQEND
  8
PMR
  0
POLYLINE
  8
PMR
 66
     1
 10
0.0
 20
0.0
 30
0.0
  0
VERTEX
  8
PMR
 10
125.212674
 20
94.978752
 30
0.0
  0
VERTEX
  8
PMR
 10
125.212674
 20
95.953388
 30
0.0
 42
1.0
  0
VERTEX
  8
PMR
 10
124.962674
 20
95.953388
 30
0.0
  0
VERTEX
  8
PMR
 10
124.962674
 20
94.953388
 30
0.0
 42
1.0
  0
SEQEND
  8
PMR
  0
POLYLINE
  8
PMR
 66
     1
 10
0.0
 20
0.0
 30
0.0
  0
VERTEX
  8
PMR
 10
123.962674
 20
114.953388
 30
0.0
  0
VERTEX
  8
PMR
 10
125.087674
 20
114.953388
 30
0.0
 42
0.414214
  0
VERTEX
  8
PMR
 10
125.212674
 20
115.078388
 30
0.0
  0
VERTEX
  8
PMR
 10
125.212674
 20
116.911534
 30
0.0
 42
0.414214
  0
SEQEND
  8
PMR
  0
POLYLINE
  8
PMR
 66
     1
 10
0.0
 20
0.0
 30
0.0
  0
VERTEX
  8
PMR
 10
123.837674
 20
116.067656
 30
0.0
  0
VERTEX
  8
PMR
 10
123.837674
 20
115.078388
 30
0.0
 42
0.414214
  0
VERTEX
  8
PMR
 10
123.962674
 20
114.953388
 30
0.0
  0
SEQEND
  8
PMR
  0
LINE
  8
OBJECT
 10
100.244674
 20
130.110763
 30
0.0
 11
101.682674
 21
130.110763
 31
0.0
  0
LINE
  8
OBJECT
 10
100.322674
 20
130.110763
 30
0.0
 11
100.322674
 21
130.172763
 31
0.0
  0
LINE
  8
OBJECT
 10
125.806674
 20
130.110763
 30
0.0
 11
127.244674
 21
130.110763
 31
0.0
  0
LINE
  8
OBJECT
 10
127.166674
 20
130.172763
 30
0.0
 11
127.166674
 21
130.110763
 31
0.0
  0
LINE
  8
OBJECT
 10
100.244674
 20
54.922763
 30
0.0
 11
101.682674
 21
54.922763
 31
0.0
  0
LINE
  8
OBJECT
 10
100.322674
 20
54.922763
 30
0.0
 11
100.322674
 21
54.860763
 31
0.0
  0
LINE
  8
OBJECT
 10
125.806674
 20
54.922763
 30
0.0
 11
127.244674
 21
54.922763
 31
0.0
  0
LINE
  8
OBJECT
 10
127.166674
 20
54.860763
 30
0.0
 11
127.166674
 21
54.922763
 31
0.0
  0
LINE
  8
OBJECT
 10
7.386295
 20
54.922763
 30
0.0
 11
8.824295
 21
54.922763
 31
0.0
  0
LINE
  8
OBJECT
 10
7.464295
 20
54.922763
 30
0.0
 11
7.464295
 21
54.860763
 31
0.0
  0
LINE
  8
OBJECT
 10
32.948295
 20
54.922763
 30
0.0
 11
34.386295
 21
54.922763
 31
0.0
  0
LINE
  8
OBJECT
 10
34.308295
 20
54.860763
 30
0.0
 11
34.308295
 21
54.922763
 31
0.0
  0
LINE
  8
OBJECT
 10
7.386295
 20
130.110763
 30
0.0
 11
8.824295
 21
130.110763
 31
0.0
  0
LINE
  8
OBJECT
 10
7.464295
 20
130.110763
 30
0.0
 11
7.464295
 21
130.172763
 31
0.0
  0
LINE
  8
OBJECT
 10
32.948295
 20
130.110763
 30
0.0
 11
34.386295
 21
130.110763
 31
0.0
  0
LINE
  8
OBJECT
 10
34.308295
 20
130.172763
 30
0.0
 11
34.308295
 21
130.110763
 31
0.0
  0
LINE
  8
OBJECT
 10
83.311883
 20
130.134846
 30
0.0
 11
83.311883
 21
130.196846
 31
0.0
  0
LINE
  8
OBJECT
 10
52.717883
 20
130.196846
 30
0.0
 11
52.717883
 21
130.134846
 31
0.0
  0
LINE
  8
OBJECT
 10
83.389883
 20
130.134846
 30
0.0
 11
81.921883
 21
130.134846
 31
0.0
  0
LINE
  8
OBJECT
 10
54.107883
 20
130.134846
 30
0.0
 11
52.639883
 21
130.134846
 31
0.0
  0
LINE
  8
OBJECT
 10
83.249883
 20
54.946846
 30
0.0
 11
52.779883
 21
54.946846
 31
0.0
  0
LINE
  8
OBJECT
 10
52.717883
 20
54.946846
 30
0.0
 11
52.639883
 21
54.946846
 31
0.0
  0
CIRCLE
  8
OBJECT
 10
58.640133
 20
93.915846
 30
0.0
 40
0.25
  0
CIRCLE
  8
OBJECT
 10
58.640133
 20
59.259846
 30
0.0
 40
0.25
  0
CIRCLE
  8
OBJECT
 10
65.140133
 20
93.915846
 30
0.0
 40
0.1405
  0
CIRCLE
  8
OBJECT
 10
65.140133
 20
91.165846
 30
0.0
 40
0.1405
  0
LINE
  8
OBJECT
 10
69.732668
 20
90.790846
 30
0.0
 11
62.970633
 21
90.790846
 31
0.0
  0
LINE
  8
OBJECT
 10
69.691534
 20
91.415846
 30
0.0
 11
62.970633
 21
91.415846
 31
0.0
  0
LINE
  8
OBJECT
 10
69.294137
 20
93.665846
 30
0.0
 11
62.970633
 21
93.665846
 31
0.0
  0
LINE
  8
OBJECT
 10
69.11113
 20
94.290846
 30
0.0
 11
62.970633
 21
94.290846
 31
0.0
  0
CIRCLE
  8
OBJECT
 10
63.890133
 20
91.165846
 30
0.0
 40
0.1405
  0
CIRCLE
  8
OBJECT
 10
63.390133
 20
91.165846
 30
0.0
 40
0.1405
  0
CIRCLE
  8
OBJECT
 10
64.515133
 20
91.165846
 30
0.0
 40
0.1405
  0
CIRCLE
  8
OBJECT
 10
63.890133
 20
93.915846
 30
0.0
 40
0.1405
  0
CIRCLE
  8
OBJECT
 10
63.390133
 20
93.915846
 30
0.0
 40
0.1405
  0
CIRCLE
  8
OBJECT
 10
64.515133
 20
93.915846
 30
0.0
 40
0.1405
  0
CIRCLE
  8
OBJECT
 10
68.015133
 20
91.165846
 30
0.0
 40
0.1405
  0
CIRCLE
  8
OBJECT
 10
66.265133
 20
91.165846
 30
0.0
 40
0.1405
  0
CIRCLE
  8
OBJECT
 10
65.640133
 20
91.165846
 30
0.0
 40
0.1405
  0
CIRCLE
  8
OBJECT
 10
66.890133
 20
91.165846
 30
0.0
 40
0.1405
  0
CIRCLE
  8
OBJECT
 10
67.390133
 20
91.165846
 30
0.0
 40
0.1405
  0
CIRCLE
  8
OBJECT
 10
69.140133
 20
91.165846
 30
0.0
 40
0.1405
  0
CIRCLE
  8
OBJECT
 10
68.640133
 20
91.165846
 30
0.0
 40
0.1405
  0
ARC
  8
OBJECT
 10
69.765133
 20
91.165846
 30
0.0
 40
0.1405
 50
116.667874
 51
251.366217
  0
POLYLINE
  8
OBJECT
 66
     1
 10
0.0
 20
0.0
 30
0.0
  0
VERTEX
  8
OBJECT
 10
67.858883
 20
92.009846
 30
0.0
  0
VERTEX
  8
OBJECT
 10
68.170883
 20
92.009846
 30
0.0
  0
VERTEX
  8
OBJECT
 10
68.170883
 20
93.071846
 30
0.0
  0
VERTEX
  8
OBJECT
 10
67.858883
 20
93.071846
 30
0.0
  0
VERTEX
  8
OBJECT
 10
67.858883
 20
92.009846
 30
0.0
  0
SEQEND
  8
OBJECT
  0
CIRCLE
  8
OBJECT
 10
68.015133
 20
93.915846
 30
0.0
 40
0.1405
  0
CIRCLE
  8
OBJECT
 10
66.265133
 20
93.915846
 30
0.0
 40
0.1405
  0
CIRCLE
  8
OBJECT
 10
65.640133
 20
93.915846
 30
0.0
 40
0.1405
  0
CIRCLE
  8
OBJECT
 10
66.890133
 20
93.915846
 30
0.0
 40
0.1405
  0
CIRCLE
  8
OBJECT
 10
67.390133
 20
93.915846
 30
0.0
 40
0.1405
  0
ARC
  8
OBJECT
 10
69.140133
 20
93.915846
 30
0.0
 40
0.1405
 50
70.954937
 51
321.320126
  0
CIRCLE
  8
OBJECT
 10
68.640133
 20
93.915846
 30
0.0
 40
0.1405
  0
CIRCLE
  8
OBJECT
 10
65.140133
 20
59.259846
 30
0.0
 40
0.1405
  0
CIRCLE
  8
OBJECT
 10
65.140133
 20
62.009846
 30
0.0
 40
0.1405
  0
LINE
  8
OBJECT
 10
73.059133
 20
62.384846
 30
0.0
 11
62.970633
 21
62.384846
 31
0.0
  0
LINE
  8
OBJECT
 10
73.059133
 20
61.759846
 30
0.0
 11
62.970633
 21
61.759846
 31
0.0
  0
LINE
  8
OBJECT
 10
73.059133
 20
58.884846
 30
0.0
 11
62.970633
 21
58.884846
 31
0.0
  0
LINE
  8
OBJECT
 10
73.059133
 20
59.509846
 30
0.0
 11
62.970633
 21
59.509846
 31
0.0
  0
CIRCLE
  8
OBJECT
 10
63.890133
 20
62.009846
 30
0.0
 40
0.1405
  0
CIRCLE
  8
OBJECT
 10
63.390133
 20
62.009846
 30
0.0
 40
0.1405
  0
CIRCLE
  8
OBJECT
 10
64.515133
 20
62.009846
 30
0.0
 40
0.1405
  0
CIRCLE
  8
OBJECT
 10
63.890133
 20
59.259846
 30
0.0
 40
0.1405
  0
CIRCLE
  8
OBJECT
 10
63.390133
 20
59.259846
 30
0.0
 40
0.1405
  0
CIRCLE
  8
OBJECT
 10
64.515133
 20
59.259846
 30
0.0
 40
0.1405
  0
POLYLINE
  8
OBJECT
 66
     1
 10
0.0
 20
0.0
 30
0.0
  0
VERTEX
  8
OBJECT
 10
67.858883
 20
60.103846
 30
0.0
  0
VERTEX
  8
OBJECT
 10
68.170883
 20
60.103846
 30
0.0
  0
VERTEX
  8
OBJECT
 10
68.170883
 20
61.165846
 30
0.0
  0
VERTEX
  8
OBJECT
 10
67.858883
 20
61.165846
 30
0.0
  0
VERTEX
  8
OBJECT
 10
67.858883
 20
60.103846
 30
0.0
  0
SEQEND
  8
OBJECT
  0
CIRCLE
  8
OBJECT
 10
68.015133
 20
59.259846
 30
0.0
 40
0.1405
  0
CIRCLE
  8
OBJECT
 10
68.015133
 20
62.009846
 30
0.0
 40
0.1405
  0
CIRCLE
  8
OBJECT
 10
65.640133
 20
62.009846
 30
0.0
 40
0.1405
  0
CIRCLE
  8
OBJECT
 10
66.265133
 20
62.009846
 30
0.0
 40
0.1405
  0
CIRCLE
  8
OBJECT
 10
66.890133
 20
62.009846
 30
0.0
 40
0.1405
  0
CIRCLE
  8
OBJECT
 10
67.390133
 20
62.009846
 30
0.0
 40
0.1405
  0
CIRCLE
  8
OBJECT
 10
66.265133
 20
59.259846
 30
0.0
 40
0.1405
  0
CIRCLE
  8
OBJECT
 10
65.640133
 20
59.259846
 30
0.0
 40
0.1405
  0
CIRCLE
  8
OBJECT
 10
66.890133
 20
59.259846
 30
0.0
 40
0.1405
  0
CIRCLE
  8
OBJECT
 10
67.390133
 20
59.259846
 30
0.0
 40
0.1405
  0
CIRCLE
  8
OBJECT
 10
70.390133
 20
62.009846
 30
0.0
 40
0.1405
  0
CIRCLE
  8
OBJECT
 10
68.640133
 20
62.009846
 30
0.0
 40
0.1405
  0
CIRCLE
  8
OBJECT
 10
69.140133
 20
62.009846
 30
0.0
 40
0.1405
  0
CIRCLE
  8
OBJECT
 10
69.765133
 20
62.009846
 30
0.0
 40
0.1405
  0
CIRCLE
  8
OBJECT
 10
69.140133
 20
59.259846
 30
0.0
 40
0.1405
  0
CIRCLE
  8
OBJECT
 10
68.640133
 20
59.259846
 30
0.0
 40
0.1405
  0
CIRCLE
  8
OBJECT
 10
70.390133
 20
59.259846
 30
0.0
 40
0.1405
  0
CIRCLE
  8
OBJECT
 10
69.765133
 20
59.259846
 30
0.0
 40
0.1405
  0
CIRCLE
  8
OBJECT
 10
71.515133
 20
62.009846
 30
0.0
 40
0.1405
  0
CIRCLE
  8
OBJECT
 10
70.890133
 20
62.009846
 30
0.0
 40
0.1405
  0
CIRCLE
  8
OBJECT
 10
72.640133
 20
62.009846
 30
0.0
 40
0.1405
  0
CIRCLE
  8
OBJECT
 10
72.140133
 20
62.009846
 30
0.0
 40
0.1405
  0
CIRCLE
  8
OBJECT
 10
72.140133
 20
59.259846
 30
0.0
 40
0.1405
  0
CIRCLE
  8
OBJECT
 10
70.890133
 20
59.259846
 30
0.0
 40
0.1405
  0
CIRCLE
  8
OBJECT
 10
71.515133
 20
59.259846
 30
0.0
 40
0.1405
  0
CIRCLE
  8
OBJECT
 10
72.640133
 20
59.259846
 30
0.0
 40
0.1405
  0
CIRCLE
  8
OBJECT
 10
77.390133
 20
59.259846
 30
0.0
 40
0.25
  0
LINE
  8
PMR
 10
76.747633
 20
57.539971
 30
0.0
 11
76.747633
 21
87.704783
 31
0.0
  0
LINE
  8
PMR
 10
78.029633
 20
57.539971
 30
0.0
 11
78.029633
 21
87.065777
 31
0.0
  0
LINE
  8
PMR
 10
73.748133
 20
88.251843
 30
0.0
 11
73.748133
 21
57.539971
 31
0.0
  0
LINE
  8
PMR
 10
73.059133
 20
88.213915
 30
0.0
 11
73.059133
 21
57.539971
 31
0.0
  0
LINE
  8
PMR
 10
78.138633
 20
57.539971
 30
0.0
 11
78.138633
 21
86.997393
 31
0.0
  0
POLYLINE
  8
PMR
 66
     1
 10
0.0
 20
0.0
 30
0.0
 70
     1
  0
VERTEX
  8
PMR
 10
75.630133
 20
71.477471
 30
0.0
 42
1.0
  0
VERTEX
  8
PMR
 10
75.880133
 20
71.477471
 30
0.0
  0
VERTEX
  8
PMR
 10
75.880133
 20
72.477471
 30
0.0
 42
1.0
  0
VERTEX
  8
PMR
 10
75.630133
 20
72.477471
 30
0.0
  0
SEQEND
  8
PMR
  0
POLYLINE
  8
PMR
 66
     1
 10
0.0
 20
0.0
 30
0.0
 70
     1
  0
VERTEX
  8
PMR
 10
74.505133
 20
71.477471
 30
0.0
 42
1.0
  0
VERTEX
  8
PMR
 10
74.755133
 20
71.477471
 30
0.0
  0
VERTEX
  8
PMR
 10
74.755133
 20
72.477471
 30
0.0
 42
1.0
  0
VERTEX
  8
PMR
 10
74.505133
 20
72.477471
 30
0.0
  0
SEQEND
  8
PMR
  0
POLYLINE
  8
PMR
 66
     1
 10
0.0
 20
0.0
 30
0.0
 70
     1
  0
VERTEX
  8
PMR
 10
75.630133
 20
59.727471
 30
0.0
 42
1.0
  0
VERTEX
  8
PMR
 10
75.880133
 20
59.727471
 30
0.0
  0
VERTEX
  8
PMR
 10
75.880133
 20
60.727471
 30
0.0
 42
1.0
  0
VERTEX
  8
PMR
 10
75.630133
 20
60.727471
 30
0.0
  0
SEQEND
  8
PMR
  0
POLYLINE
  8
PMR
 66
     1
 10
0.0
 20
0.0
 30
0.0
 70
     1
  0
VERTEX
  8
PMR
 10
74.505133
 20
59.727471
 30
0.0
 42
1.0
  0
VERTEX
  8
PMR
 10
74.755133
 20
59.727471
 30
0.0
  0
VERTEX
  8
PMR
 10
74.755133
 20
60.727471
 30
0.0
 42
1.0
  0
VERTEX
  8
PMR
 10
74.505133
 20
60.727471
 30
0.0
  0
SEQEND
  8
PMR
  0
ARC
  8
PMR
 10
77.701133
 20
60.633971
 30
0.0
 40
0.125
 50
270.0
 51
90.0
  0
ARC
  8
PMR
 10
77.076133
 20
60.633971
 30
0.0
 40
0.125
 50
90.0
 51
270.0
  0
CIRCLE
  8
PMR
 10
73.309133
 20
60.789971
 30
0.0
 40
0.1405
  0
LINE
  8
PMR
 10
78.138633
 20
57.539971
 30
0.0
 11
73.059133
 21
57.539971
 31
0.0
  0
CIRCLE
  8
PMR
 10
73.309133
 20
60.164971
 30
0.0
 40
0.1405
  0
CIRCLE
  8
PMR
 10
73.309133
 20
59.039971
 30
0.0
 40
0.1405
  0
CIRCLE
  8
PMR
 10
73.309133
 20
58.414971
 30
0.0
 40
0.1405
  0
CIRCLE
  8
PMR
 10
73.309133
 20
57.789971
 30
0.0
 40
0.1405
  0
CIRCLE
  8
PMR
 10
73.309133
 20
59.539971
 30
0.0
 40
0.1405
  0
LINE
  8
PMR
 10
77.701133
 20
60.508971
 30
0.0
 11
77.076133
 21
60.508971
 31
0.0
  0
LINE
  8
PMR
 10
77.701133
 20
57.758971
 30
0.0
 11
77.076133
 21
57.758971
 31
0.0
  0
LINE
  8
PMR
 10
77.701133
 20
58.008971
 30
0.0
 11
77.076133
 21
58.008971
 31
0.0
  0
ARC
  8
PMR
 10
77.701133
 20
57.883971
 30
0.0
 40
0.125
 50
270.0
 51
90.0
  0
ARC
  8
PMR
 10
77.076133
 20
57.883971
 30
0.0
 40
0.125
 50
90.0
 51
270.0
  0
LINE
  8
PMR
 10
77.701133
 20
59.133971
 30
0.0
 11
77.076133
 21
59.133971
 31
0.0
  0
LINE
  8
PMR
 10
77.701133
 20
59.383971
 30
0.0
 11
77.076133
 21
59.383971
 31
0.0
  0
ARC
  8
PMR
 10
77.701133
 20
59.258971
 30
0.0
 40
0.125
 50
270.0
 51
90.0
  0
ARC
  8
PMR
 10
77.076133
 20
59.258971
 30
0.0
 40
0.125
 50
90.0
 51
270.0
  0
POLYLINE
  8
PMR
 66
     1
 10
0.0
 20
0.0
 30
0.0
 70
     1
  0
VERTEX
  8
PMR
 10
75.630133
 20
65.602471
 30
0.0
 42
1.0
  0
VERTEX
  8
PMR
 10
75.880133
 20
65.602471
 30
0.0
  0
VERTEX
  8
PMR
 10
75.880133
 20
66.602471
 30
0.0
 42
1.0
  0
VERTEX
  8
PMR
 10
75.630133
 20
66.602471
 30
0.0
  0
SEQEND
  8
PMR
  0
POLYLINE
  8
PMR
 66
     1
 10
0.0
 20
0.0
 30
0.0
 70
     1
  0
VERTEX
  8
PMR
 10
74.505133
 20
65.602471
 30
0.0
 42
1.0
  0
VERTEX
  8
PMR
 10
74.755133
 20
65.602471
 30
0.0
  0
VERTEX
  8
PMR
 10
74.755133
 20
66.602471
 30
0.0
 42
1.0
  0
VERTEX
  8
PMR
 10
74.505133
 20
66.602471
 30
0.0
  0
SEQEND
  8
PMR
  0
POLYLINE
  8
PMR
 66
     1
 10
0.0
 20
0.0
 30
0.0
 70
     1
  0
VERTEX
  8
PMR
 10
74.630133
 20
62.102471
 30
0.0
  0
VERTEX
  8
PMR
 10
75.755133
 20
62.102471
 30
0.0
 42
0.414214
  0
VERTEX
  8
PMR
 10
75.880133
 20
62.227471
 30
0.0
  0
VERTEX
  8
PMR
 10
75.880133
 20
64.102471
 30
0.0
 42
0.414214
  0
VERTEX
  8
PMR
 10
75.755133
 20
64.227471
 30
0.0
  0
VERTEX
  8
PMR
 10
74.630133
 20
64.227471
 30
0.0
 42
0.414214
  0
VERTEX
  8
PMR
 10
74.505133
 20
64.102471
 30
0.0
  0
VERTEX
  8
PMR
 10
74.505133
 20
62.227471
 30
0.0
 42
0.414214
  0
SEQEND
  8
PMR
  0
CIRCLE
  8
PMR
 10
73.309133
 20
66.039971
 30
0.0
 40
0.1405
  0
CIRCLE
  8
PMR
 10
73.309133
 20
65.414971
 30
0.0
 40
0.1405
  0
CIRCLE
  8
PMR
 10
73.309133
 20
64.789971
 30
0.0
 40
0.1405
  0
CIRCLE
  8
PMR
 10
73.309133
 20
64.289971
 30
0.0
 40
0.1405
  0
CIRCLE
  8
PMR
 10
73.309133
 20
63.664971
 30
0.0
 40
0.1405
  0
CIRCLE
  8
PMR
 10
73.309133
 20
63.039971
 30
0.0
 40
0.1405
  0
CIRCLE
  8
PMR
 10
73.309133
 20
62.539971
 30
0.0
 40
0.1405
  0
CIRCLE
  8
PMR
 10
73.309133
 20
61.914971
 30
0.0
 40
0.1405
  0
CIRCLE
  8
PMR
 10
73.309133
 20
61.289971
 30
0.0
 40
0.1405
  0
LINE
  8
PMR
 10
77.701133
 20
60.758971
 30
0.0
 11
77.076133
 21
60.758971
 31
0.0
  0
LINE
  8
PMR
 10
77.701133
 20
62.133971
 30
0.0
 11
77.076133
 21
62.133971
 31
0.0
  0
LINE
  8
PMR
 10
77.701133
 20
61.883971
 30
0.0
 11
77.076133
 21
61.883971
 31
0.0
  0
ARC
  8
PMR
 10
77.701133
 20
62.008971
 30
0.0
 40
0.125
 50
270.0
 51
90.0
  0
ARC
  8
PMR
 10
77.076133
 20
62.008971
 30
0.0
 40
0.125
 50
90.0
 51
270.0
  0
POLYLINE
  8
PMR
 66
     1
 10
0.0
 20
0.0
 30
0.0
 70
     1
  0
VERTEX
  8
PMR
 10
74.630133
 20
67.977471
 30
0.0
  0
VERTEX
  8
PMR
 10
75.755133
 20
67.977471
 30
0.0
 42
0.414214
  0
VERTEX
  8
PMR
 10
75.880133
 20
68.102471
 30
0.0
  0
VERTEX
  8
PMR
 10
75.880133
 20
69.977471
 30
0.0
 42
0.414214
  0
VERTEX
  8
PMR
 10
75.755133
 20
70.102471
 30
0.0
  0
VERTEX
  8
PMR
 10
74.630133
 20
70.102471
 30
0.0
 42
0.414214
  0
VERTEX
  8
PMR
 10
74.505133
 20
69.977471
 30
0.0
  0
VERTEX
  8
PMR
 10
74.505133
 20
68.102471
 30
0.0
 42
0.414214
  0
SEQEND
  8
PMR
  0
CIRCLE
  8
PMR
 10
73.309133
 20
71.789971
 30
0.0
 40
0.1405
  0
CIRCLE
  8
PMR
 10
73.309133
 20
71.289971
 30
0.0
 40
0.1405
  0
CIRCLE
  8
PMR
 10
73.309133
 20
70.664971
 30
0.0
 40
0.1405
  0
CIRCLE
  8
PMR
 10
73.309133
 20
70.039971
 30
0.0
 40
0.1405
  0
CIRCLE
  8
PMR
 10
73.309133
 20
69.539971
 30
0.0
 40
0.1405
  0
CIRCLE
  8
PMR
 10
73.309133
 20
68.914971
 30
0.0
 40
0.1405
  0
CIRCLE
  8
PMR
 10
73.309133
 20
68.289971
 30
0.0
 40
0.1405
  0
CIRCLE
  8
PMR
 10
73.309133
 20
67.789971
 30
0.0
 40
0.1405
  0
CIRCLE
  8
PMR
 10
73.309133
 20
67.164971
 30
0.0
 40
0.1405
  0
CIRCLE
  8
PMR
 10
73.309133
 20
66.539971
 30
0.0
 40
0.1405
  0
POLYLINE
  8
PMR
 66
     1
 10
0.0
 20
0.0
 30
0.0
 70
     1
  0
VERTEX
  8
PMR
 10
75.630133
 20
83.227471
 30
0.0
 42
1.0
  0
VERTEX
  8
PMR
 10
75.880133
 20
83.227471
 30
0.0
  0
VERTEX
  8
PMR
 10
75.880133
 20
84.227471
 30
0.0
 42
1.0
  0
VERTEX
  8
PMR
 10
75.630133
 20
84.227471
 30
0.0
  0
SEQEND
  8
PMR
  0
POLYLINE
  8
PMR
 66
     1
 10
0.0
 20
0.0
 30
0.0
 70
     1
  0
VERTEX
  8
PMR
 10
74.505133
 20
83.227471
 30
0.0
 42
1.0
  0
VERTEX
  8
PMR
 10
74.755133
 20
83.227471
 30
0.0
  0
VERTEX
  8
PMR
 10
74.755133
 20
84.227471
 30
0.0
 42
1.0
  0
VERTEX
  8
PMR
 10
74.505133
 20
84.227471
 30
0.0
  0
SEQEND
  8
PMR
  0
CIRCLE
  8
PMR
 10
73.309133
 20
83.539971
 30
0.0
 40
0.1405
  0
POLYLINE
  8
PMR
 66
     1
 10
0.0
 20
0.0
 30
0.0
 70
     1
  0
VERTEX
  8
PMR
 10
75.630133
 20
77.352471
 30
0.0
 42
1.0
  0
VERTEX
  8
PMR
 10
75.880133
 20
77.352471
 30
0.0
  0
VERTEX
  8
PMR
 10
75.880133
 20
78.352471
 30
0.0
 42
1.0
  0
VERTEX
  8
PMR
 10
75.630133
 20
78.352471
 30
0.0
  0
SEQEND
  8
PMR
  0
POLYLINE
  8
PMR
 66
     1
 10
0.0
 20
0.0
 30
0.0
 70
     1
  0
VERTEX
  8
PMR
 10
74.505133
 20
77.352471
 30
0.0
 42
1.0
  0
VERTEX
  8
PMR
 10
74.755133
 20
77.352471
 30
0.0
  0
VERTEX
  8
PMR
 10
74.755133
 20
78.352471
 30
0.0
 42
1.0
  0
VERTEX
  8
PMR
 10
74.505133
 20
78.352471
 30
0.0
  0
SEQEND
  8
PMR
  0
CIRCLE
  8
PMR
 10
73.309133
 20
77.664971
 30
0.0
 40
0.1405
  0
POLYLINE
  8
PMR
 66
     1
 10
0.0
 20
0.0
 30
0.0
 70
     1
  0
VERTEX
  8
PMR
 10
74.630133
 20
73.852471
 30
0.0
  0
VERTEX
  8
PMR
 10
75.755133
 20
73.852471
 30
0.0
 42
0.414214
  0
VERTEX
  8
PMR
 10
75.880133
 20
73.977471
 30
0.0
  0
VERTEX
  8
PMR
 10
75.880133
 20
75.852471
 30
0.0
 42
0.414214
  0
VERTEX
  8
PMR
 10
75.755133
 20
75.977471
 30
0.0
  0
VERTEX
  8
PMR
 10
74.630133
 20
75.977471
 30
0.0
 42
0.414214
  0
VERTEX
  8
PMR
 10
74.505133
 20
75.852471
 30
0.0
  0
VERTEX
  8
PMR
 10
74.505133
 20
73.977471
 30
0.0
 42
0.414214
  0
SEQEND
  8
PMR
  0
CIRCLE
  8
PMR
 10
73.309133
 20
77.039971
 30
0.0
 40
0.1405
  0
CIRCLE
  8
PMR
 10
73.309133
 20
75.289971
 30
0.0
 40
0.1405
  0
CIRCLE
  8
PMR
 10
73.309133
 20
75.914971
 30
0.0
 40
0.1405
  0
CIRCLE
  8
PMR
 10
73.309133
 20
74.789971
 30
0.0
 40
0.1405
  0
CIRCLE
  8
PMR
 10
73.309133
 20
74.164971
 30
0.0
 40
0.1405
  0
CIRCLE
  8
PMR
 10
73.309133
 20
73.539971
 30
0.0
 40
0.1405
  0
CIRCLE
  8
PMR
 10
73.309133
 20
73.039971
 30
0.0
 40
0.1405
  0
CIRCLE
  8
PMR
 10
73.309133
 20
72.414971
 30
0.0
 40
0.1405
  0
CIRCLE
  8
PMR
 10
73.309133
 20
76.539971
 30
0.0
 40
0.1405
  0
LINE
  8
PMR
 10
77.701133
 20
75.789971
 30
0.0
 11
77.076133
 21
75.789971
 31
0.0
  0
LINE
  8
PMR
 10
77.701133
 20
76.039971
 30
0.0
 11
77.076133
 21
76.039971
 31
0.0
  0
ARC
  8
PMR
 10
77.701133
 20
75.914971
 30
0.0
 40
0.125
 50
270.0
 51
90.0
  0
ARC
  8
PMR
 10
77.076133
 20
75.914971
 30
0.0
 40
0.125
 50
90.0
 51
270.0
  0
LINE
  8
PMR
 10
77.701133
 20
73.039971
 30
0.0
 11
77.076133
 21
73.039971
 31
0.0
  0
LINE
  8
PMR
 10
77.701133
 20
73.289971
 30
0.0
 11
77.076133
 21
73.289971
 31
0.0
  0
ARC
  8
PMR
 10
77.701133
 20
73.164971
 30
0.0
 40
0.125
 50
270.0
 51
90.0
  0
ARC
  8
PMR
 10
77.076133
 20
73.164971
 30
0.0
 40
0.125
 50
90.0
 51
270.0
  0
POLYLINE
  8
PMR
 66
     1
 10
0.0
 20
0.0
 30
0.0
 70
     1
  0
VERTEX
  8
PMR
 10
74.630133
 20
79.727471
 30
0.0
  0
VERTEX
  8
PMR
 10
75.755133
 20
79.727471
 30
0.0
 42
0.414214
  0
VERTEX
  8
PMR
 10
75.880133
 20
79.852471
 30
0.0
  0
VERTEX
  8
PMR
 10
75.880133
 20
81.727471
 30
0.0
 42
0.414214
  0
VERTEX
  8
PMR
 10
75.755133
 20
81.852471
 30
0.0
  0
VERTEX
  8
PMR
 10
74.630133
 20
81.852471
 30
0.0
 42
0.414214
  0
VERTEX
  8
PMR
 10
74.505133
 20
81.727471
 30
0.0
  0
VERTEX
  8
PMR
 10
74.505133
 20
79.852471
 30
0.0
 42
0.414214
  0
SEQEND
  8
PMR
  0
CIRCLE
  8
PMR
 10
73.309133
 20
82.914971
 30
0.0
 40
0.1405
  0
CIRCLE
  8
PMR
 10
73.309133
 20
81.164971
 30
0.0
 40
0.1405
  0
CIRCLE
  8
PMR
 10
73.309133
 20
81.789971
 30
0.0
 40
0.1405
  0
CIRCLE
  8
PMR
 10
73.309133
 20
80.539971
 30
0.0
 40
0.1405
  0
CIRCLE
  8
PMR
 10
73.309133
 20
80.039971
 30
0.0
 40
0.1405
  0
CIRCLE
  8
PMR
 10
73.309133
 20
78.789971
 30
0.0
 40
0.1405
  0
CIRCLE
  8
PMR
 10
73.309133
 20
78.289971
 30
0.0
 40
0.1405
  0
CIRCLE
  8
PMR
 10
73.309133
 20
79.414971
 30
0.0
 40
0.1405
  0
CIRCLE
  8
PMR
 10
73.309133
 20
82.289971
 30
0.0
 40
0.1405
  0
POLYLINE
  8
PMR
 66
     1
 10
0.0
 20
0.0
 30
0.0
 70
     1
  0
VERTEX
  8
PMR
 10
74.630133
 20
85.602471
 30
0.0
  0
VERTEX
  8
PMR
 10
75.755133
 20
85.602471
 30
0.0
 42
0.414214
  0
VERTEX
  8
PMR
 10
75.880133
 20
85.727471
 30
0.0
  0
VERTEX
  8
PMR
 10
75.880133
 20
87.602471
 30
0.0
 42
0.414214
  0
VERTEX
  8
PMR
 10
75.755133
 20
87.727471
 30
0.0
  0
VERTEX
  8
PMR
 10
74.630133
 20
87.727471
 30
0.0
 42
0.414214
  0
VERTEX
  8
PMR
 10
74.505133
 20
87.602471
 30
0.0
  0
VERTEX
  8
PMR
 10
74.505133
 20
85.727471
 30
0.0
 42
0.414214
  0
SEQEND
  8
PMR
  0
ARC
  8
PMR
 10
73.309133
 20
88.164971
 30
0.0
 40
0.1405
 50
154.672383
 51
33.049785
  0
CIRCLE
  8
PMR
 10
73.309133
 20
87.539971
 30
0.0
 40
0.1405
  0
CIRCLE
  8
PMR
 10
73.309133
 20
86.414971
 30
0.0
 40
0.1405
  0
CIRCLE
  8
PMR
 10
73.309133
 20
85.789971
 30
0.0
 40
0.1405
  0
CIRCLE
  8
PMR
 10
73.309133
 20
87.039971
 30
0.0
 40
0.1405
  0
CIRCLE
  8
PMR
 10
73.309133
 20
85.289971
 30
0.0
 40
0.1405
  0
CIRCLE
  8
PMR
 10
73.309133
 20
84.664971
 30
0.0
 40
0.1405
  0
CIRCLE
  8
PMR
 10
73.309133
 20
84.039971
 30
0.0
 40
0.1405
  0
POLYLINE
  8
PMR
 66
     1
 10
0.0
 20
0.0
 30
0.0
 70
     1
  0
VERTEX
  8
PMR
 10
61.399633
 20
73.852471
 30
0.0
  0
VERTEX
  8
PMR
 10
60.274633
 20
73.852471
 30
0.0
 42
-0.414214
  0
VERTEX
  8
PMR
 10
60.149633
 20
73.977471
 30
0.0
  0
VERTEX
  8
PMR
 10
60.149633
 20
75.852471
 30
0.0
 42
-0.414214
  0
VERTEX
  8
PMR
 10
60.274633
 20
75.977471
 30
0.0
  0
VERTEX
  8
PMR
 10
61.399633
 20
75.977471
 30
0.0
 42
-0.414214
  0
VERTEX
  8
PMR
 10
61.524633
 20
75.852471
 30
0.0
  0
VERTEX
  8
PMR
 10
61.524633
 20
73.977471
 30
0.0
 42
-0.414214
  0
SEQEND
  8
PMR
  0
LINE
  8
PMR
 10
57.891133
 20
57.539971
 30
0.0
 11
62.970633
 21
57.539971
 31
0.0
  0
CIRCLE
  8
PMR
 10
62.720633
 20
66.039971
 30
0.0
 40
0.1405
  0
POLYLINE
  8
PMR
 66
     1
 10
0.0
 20
0.0
 30
0.0
 70
     1
  0
VERTEX
  8
PMR
 10
61.524633
 20
65.602471
 30
0.0
 42
-1.0
  0
VERTEX
  8
PMR
 10
61.274633
 20
65.602471
 30
0.0
  0
VERTEX
  8
PMR
 10
61.274633
 20
66.602471
 30
0.0
 42
-1.0
  0
VERTEX
  8
PMR
 10
61.524633
 20
66.602471
 30
0.0
  0
SEQEND
  8
PMR
  0
POLYLINE
  8
PMR
 66
     1
 10
0.0
 20
0.0
 30
0.0
 70
     1
  0
VERTEX
  8
PMR
 10
60.399633
 20
65.602471
 30
0.0
 42
-1.0
  0
VERTEX
  8
PMR
 10
60.149633
 20
65.602471
 30
0.0
  0
VERTEX
  8
PMR
 10
60.149633
 20
66.602471
 30
0.0
 42
-1.0
  0
VERTEX
  8
PMR
 10
60.399633
 20
66.602471
 30
0.0
  0
SEQEND
  8
PMR
  0
CIRCLE
  8
PMR
 10
62.720633
 20
61.914971
 30
0.0
 40
0.1405
  0
CIRCLE
  8
PMR
 10
62.720633
 20
61.289971
 30
0.0
 40
0.1405
  0
CIRCLE
  8
PMR
 10
62.720633
 20
59.539971
 30
0.0
 40
0.1405
  0
CIRCLE
  8
PMR
 10
62.720633
 20
57.789971
 30
0.0
 40
0.1405
  0
CIRCLE
  8
PMR
 10
62.720633
 20
58.414971
 30
0.0
 40
0.1405
  0
CIRCLE
  8
PMR
 10
62.720633
 20
59.039971
 30
0.0
 40
0.1405
  0
CIRCLE
  8
PMR
 10
62.720633
 20
60.164971
 30
0.0
 40
0.1405
  0
CIRCLE
  8
PMR
 10
62.720633
 20
60.789971
 30
0.0
 40
0.1405
  0
CIRCLE
  8
PMR
 10
62.720633
 20
62.539971
 30
0.0
 40
0.1405
  0
CIRCLE
  8
PMR
 10
62.720633
 20
63.039971
 30
0.0
 40
0.1405
  0
CIRCLE
  8
PMR
 10
62.720633
 20
63.664971
 30
0.0
 40
0.1405
  0
CIRCLE
  8
PMR
 10
62.720633
 20
64.289971
 30
0.0
 40
0.1405
  0
CIRCLE
  8
PMR
 10
62.720633
 20
64.789971
 30
0.0
 40
0.1405
  0
CIRCLE
  8
PMR
 10
62.720633
 20
65.414971
 30
0.0
 40
0.1405
  0
POLYLINE
  8
PMR
 66
     1
 10
0.0
 20
0.0
 30
0.0
 70
     1
  0
VERTEX
  8
PMR
 10
61.524633
 20
59.727471
 30
0.0
 42
-1.0
  0
VERTEX
  8
PMR
 10
61.274633
 20
59.727471
 30
0.0
  0
VERTEX
  8
PMR
 10
61.274633
 20
60.727471
 30
0.0
 42
-1.0
  0
VERTEX
  8
PMR
 10
61.524633
 20
60.727471
 30
0.0
  0
SEQEND
  8
PMR
  0
POLYLINE
  8
PMR
 66
     1
 10
0.0
 20
0.0
 30
0.0
 70
     1
  0
VERTEX
  8
PMR
 10
60.399633
 20
59.727471
 30
0.0
 42
-1.0
  0
VERTEX
  8
PMR
 10
60.149633
 20
59.727471
 30
0.0
  0
VERTEX
  8
PMR
 10
60.149633
 20
60.727471
 30
0.0
 42
-1.0
  0
VERTEX
  8
PMR
 10
60.399633
 20
60.727471
 30
0.0
  0
SEQEND
  8
PMR
  0
POLYLINE
  8
PMR
 66
     1
 10
0.0
 20
0.0
 30
0.0
 70
     1
  0
VERTEX
  8
PMR
 10
61.399633
 20
62.102471
 30
0.0
  0
VERTEX
  8
PMR
 10
60.274633
 20
62.102471
 30
0.0
 42
-0.414214
  0
VERTEX
  8
PMR
 10
60.149633
 20
62.227471
 30
0.0
  0
VERTEX
  8
PMR
 10
60.149633
 20
64.102471
 30
0.0
 42
-0.414214
  0
VERTEX
  8
PMR
 10
60.274633
 20
64.227471
 30
0.0
  0
VERTEX
  8
PMR
 10
61.399633
 20
64.227471
 30
0.0
 42
-0.414214
  0
VERTEX
  8
PMR
 10
61.524633
 20
64.102471
 30
0.0
  0
VERTEX
  8
PMR
 10
61.524633
 20
62.227471
 30
0.0
 42
-0.414214
  0
SEQEND
  8
PMR
  0
CIRCLE
  8
PMR
 10
62.720633
 20
66.539971
 30
0.0
 40
0.1405
  0
CIRCLE
  8
PMR
 10
62.720633
 20
67.164971
 30
0.0
 40
0.1405
  0
CIRCLE
  8
PMR
 10
62.720633
 20
67.789971
 30
0.0
 40
0.1405
  0
CIRCLE
  8
PMR
 10
62.720633
 20
68.289971
 30
0.0
 40
0.1405
  0
CIRCLE
  8
PMR
 10
62.720633
 20
68.914971
 30
0.0
 40
0.1405
  0
CIRCLE
  8
PMR
 10
62.720633
 20
69.539971
 30
0.0
 40
0.1405
  0
CIRCLE
  8
PMR
 10
62.720633
 20
70.039971
 30
0.0
 40
0.1405
  0
CIRCLE
  8
PMR
 10
62.720633
 20
72.414971
 30
0.0
 40
0.1405
  0
CIRCLE
  8
PMR
 10
62.720633
 20
73.039971
 30
0.0
 40
0.1405
  0
CIRCLE
  8
PMR
 10
62.720633
 20
73.539971
 30
0.0
 40
0.1405
  0
CIRCLE
  8
PMR
 10
62.720633
 20
74.164971
 30
0.0
 40
0.1405
  0
CIRCLE
  8
PMR
 10
62.720633
 20
70.664971
 30
0.0
 40
0.1405
  0
CIRCLE
  8
PMR
 10
62.720633
 20
71.289971
 30
0.0
 40
0.1405
  0
CIRCLE
  8
PMR
 10
62.720633
 20
71.789971
 30
0.0
 40
0.1405
  0
POLYLINE
  8
PMR
 66
     1
 10
0.0
 20
0.0
 30
0.0
 70
     1
  0
VERTEX
  8
PMR
 10
61.399633
 20
67.977471
 30
0.0
  0
VERTEX
  8
PMR
 10
60.274633
 20
67.977471
 30
0.0
 42
-0.414214
  0
VERTEX
  8
PMR
 10
60.149633
 20
68.102471
 30
0.0
  0
VERTEX
  8
PMR
 10
60.149633
 20
69.977471
 30
0.0
 42
-0.414214
  0
VERTEX
  8
PMR
 10
60.274633
 20
70.102471
 30
0.0
  0
VERTEX
  8
PMR
 10
61.399633
 20
70.102471
 30
0.0
 42
-0.414214
  0
VERTEX
  8
PMR
 10
61.524633
 20
69.977471
 30
0.0
  0
VERTEX
  8
PMR
 10
61.524633
 20
68.102471
 30
0.0
 42
-0.414214
  0
SEQEND
  8
PMR
  0
POLYLINE
  8
PMR
 66
     1
 10
0.0
 20
0.0
 30
0.0
 70
     1
  0
VERTEX
  8
PMR
 10
61.524633
 20
71.477471
 30
0.0
 42
-1.0
  0
VERTEX
  8
PMR
 10
61.274633
 20
71.477471
 30
0.0
  0
VERTEX
  8
PMR
 10
61.274633
 20
72.477471
 30
0.0
 42
-1.0
  0
VERTEX
  8
PMR
 10
61.524633
 20
72.477471
 30
0.0
  0
SEQEND
  8
PMR
  0
POLYLINE
  8
PMR
 66
     1
 10
0.0
 20
0.0
 30
0.0
 70
     1
  0
VERTEX
  8
PMR
 10
60.399633
 20
71.477471
 30
0.0
 42
-1.0
  0
VERTEX
  8
PMR
 10
60.149633
 20
71.477471
 30
0.0
  0
VERTEX
  8
PMR
 10
60.149633
 20
72.477471
 30
0.0
 42
-1.0
  0
VERTEX
  8
PMR
 10
60.399633
 20
72.477471
 30
0.0
  0
SEQEND
  8
PMR
  0
ARC
  8
PMR
 10
58.328633
 20
59.258971
 30
0.0
 40
0.125
 50
90.0
 51
270.0
  0
ARC
  8
PMR
 10
58.328633
 20
57.883971
 30
0.0
 40
0.125
 50
90.0
 51
270.0
  0
ARC
  8
PMR
 10
58.328633
 20
60.633971
 30
0.0
 40
0.125
 50
90.0
 51
270.0
  0
LINE
  8
PMR
 10
58.328633
 20
60.758971
 30
0.0
 11
58.953633
 21
60.758971
 31
0.0
  0
ARC
  8
PMR
 10
58.953633
 20
59.258971
 30
0.0
 40
0.125
 50
270.0
 51
90.0
  0
LINE
  8
PMR
 10
58.328633
 20
59.383971
 30
0.0
 11
58.953633
 21
59.383971
 31
0.0
  0
LINE
  8
PMR
 10
58.328633
 20
59.133971
 30
0.0
 11
58.953633
 21
59.133971
 31
0.0
  0
ARC
  8
PMR
 10
58.953633
 20
57.883971
 30
0.0
 40
0.125
 50
270.0
 51
90.0
  0
LINE
  8
PMR
 10
58.328633
 20
58.008971
 30
0.0
 11
58.953633
 21
58.008971
 31
0.0
  0
LINE
  8
PMR
 10
58.328633
 20
57.758971
 30
0.0
 11
58.953633
 21
57.758971
 31
0.0
  0
LINE
  8
PMR
 10
58.328633
 20
60.508971
 30
0.0
 11
58.953633
 21
60.508971
 31
0.0
  0
ARC
  8
PMR
 10
58.953633
 20
60.633971
 30
0.0
 40
0.125
 50
270.0
 51
90.0
  0
CIRCLE
  8
OBJECT
 10
58.639633
 20
59.259846
 30
0.0
 40
0.25
  0
ARC
  8
PMR
 10
58.328633
 20
62.008971
 30
0.0
 40
0.125
 50
90.0
 51
270.0
  0
ARC
  8
PMR
 10
58.953633
 20
62.008971
 30
0.0
 40
0.125
 50
270.0
 51
90.0
  0
LINE
  8
PMR
 10
58.328633
 20
61.883971
 30
0.0
 11
58.953633
 21
61.883971
 31
0.0
  0
LINE
  8
PMR
 10
58.328633
 20
62.133971
 30
0.0
 11
58.953633
 21
62.133971
 31
0.0
  0
ARC
  8
PMR
 10
58.328633
 20
73.164971
 30
0.0
 40
0.125
 50
90.0
 51
270.0
  0
ARC
  8
PMR
 10
58.953633
 20
73.164971
 30
0.0
 40
0.125
 50
270.0
 51
90.0
  0
LINE
  8
PMR
 10
58.328633
 20
73.289971
 30
0.0
 11
58.953633
 21
73.289971
 31
0.0
  0
LINE
  8
PMR
 10
58.328633
 20
73.039971
 30
0.0
 11
58.953633
 21
73.039971
 31
0.0
  0
CIRCLE
  8
PMR
 10
62.720633
 20
91.664971
 30
0.0
 40
0.1405
  0
POLYLINE
  8
PMR
 66
     1
 10
0.0
 20
0.0
 30
0.0
 70
     1
  0
VERTEX
  8
PMR
 10
61.399633
 20
91.477471
 30
0.0
  0
VERTEX
  8
PMR
 10
60.274633
 20
91.477471
 30
0.0
 42
-0.414214
  0
VERTEX
  8
PMR
 10
60.149633
 20
91.602471
 30
0.0
  0
VERTEX
  8
PMR
 10
60.149633
 20
93.477471
 30
0.0
 42
-0.414214
  0
VERTEX
  8
PMR
 10
60.274633
 20
93.602471
 30
0.0
  0
VERTEX
  8
PMR
 10
61.399633
 20
93.602471
 30
0.0
 42
-0.414214
  0
VERTEX
  8
PMR
 10
61.524633
 20
93.477471
 30
0.0
  0
VERTEX
  8
PMR
 10
61.524633
 20
91.602471
 30
0.0
 42
-0.414214
  0
SEQEND
  8
PMR
  0
CIRCLE
  8
PMR
 10
62.720633
 20
78.789971
 30
0.0
 40
0.1405
  0
CIRCLE
  8
PMR
 10
62.720633
 20
78.289971
 30
0.0
 40
0.1405
  0
CIRCLE
  8
PMR
 10
62.720633
 20
76.539971
 30
0.0
 40
0.1405
  0
CIRCLE
  8
PMR
 10
62.720633
 20
74.789971
 30
0.0
 40
0.1405
  0
CIRCLE
  8
PMR
 10
62.720633
 20
75.914971
 30
0.0
 40
0.1405
  0
CIRCLE
  8
PMR
 10
62.720633
 20
75.289971
 30
0.0
 40
0.1405
  0
CIRCLE
  8
PMR
 10
62.720633
 20
77.039971
 30
0.0
 40
0.1405
  0
CIRCLE
  8
PMR
 10
62.720633
 20
77.664971
 30
0.0
 40
0.1405
  0
CIRCLE
  8
PMR
 10
62.720633
 20
82.289971
 30
0.0
 40
0.1405
  0
CIRCLE
  8
PMR
 10
62.720633
 20
79.414971
 30
0.0
 40
0.1405
  0
CIRCLE
  8
PMR
 10
62.720633
 20
80.039971
 30
0.0
 40
0.1405
  0
CIRCLE
  8
PMR
 10
62.720633
 20
80.539971
 30
0.0
 40
0.1405
  0
CIRCLE
  8
PMR
 10
62.720633
 20
81.789971
 30
0.0
 40
0.1405
  0
CIRCLE
  8
PMR
 10
62.720633
 20
81.164971
 30
0.0
 40
0.1405
  0
CIRCLE
  8
PMR
 10
62.720633
 20
82.914971
 30
0.0
 40
0.1405
  0
POLYLINE
  8
PMR
 66
     1
 10
0.0
 20
0.0
 30
0.0
 70
     1
  0
VERTEX
  8
PMR
 10
61.524633
 20
77.352471
 30
0.0
 42
-1.0
  0
VERTEX
  8
PMR
 10
61.274633
 20
77.352471
 30
0.0
  0
VERTEX
  8
PMR
 10
61.274633
 20
78.352471
 30
0.0
 42
-1.0
  0
VERTEX
  8
PMR
 10
61.524633
 20
78.352471
 30
0.0
  0
SEQEND
  8
PMR
  0
POLYLINE
  8
PMR
 66
     1
 10
0.0
 20
0.0
 30
0.0
 70
     1
  0
VERTEX
  8
PMR
 10
60.399633
 20
77.352471
 30
0.0
 42
-1.0
  0
VERTEX
  8
PMR
 10
60.149633
 20
77.352471
 30
0.0
  0
VERTEX
  8
PMR
 10
60.149633
 20
78.352471
 30
0.0
 42
-1.0
  0
VERTEX
  8
PMR
 10
60.399633
 20
78.352471
 30
0.0
  0
SEQEND
  8
PMR
  0
POLYLINE
  8
PMR
 66
     1
 10
0.0
 20
0.0
 30
0.0
 70
     1
  0
VERTEX
  8
PMR
 10
61.399633
 20
79.727471
 30
0.0
  0
VERTEX
  8
PMR
 10
60.274633
 20
79.727471
 30
0.0
 42
-0.414214
  0
VERTEX
  8
PMR
 10
60.149633
 20
79.852471
 30
0.0
  0
VERTEX
  8
PMR
 10
60.149633
 20
81.727471
 30
0.0
 42
-0.414214
  0
VERTEX
  8
PMR
 10
60.274633
 20
81.852471
 30
0.0
  0
VERTEX
  8
PMR
 10
61.399633
 20
81.852471
 30
0.0
 42
-0.414214
  0
VERTEX
  8
PMR
 10
61.524633
 20
81.727471
 30
0.0
  0
VERTEX
  8
PMR
 10
61.524633
 20
79.852471
 30
0.0
 42
-0.414214
  0
SEQEND
  8
PMR
  0
CIRCLE
  8
PMR
 10
62.720633
 20
84.039971
 30
0.0
 40
0.1405
  0
CIRCLE
  8
PMR
 10
62.720633
 20
84.664971
 30
0.0
 40
0.1405
  0
CIRCLE
  8
PMR
 10
62.720633
 20
85.289971
 30
0.0
 40
0.1405
  0
CIRCLE
  8
PMR
 10
62.720633
 20
87.039971
 30
0.0
 40
0.1405
  0
CIRCLE
  8
PMR
 10
62.720633
 20
85.789971
 30
0.0
 40
0.1405
  0
CIRCLE
  8
PMR
 10
62.720633
 20
86.414971
 30
0.0
 40
0.1405
  0
CIRCLE
  8
PMR
 10
62.720633
 20
83.539971
 30
0.0
 40
0.1405
  0
CIRCLE
  8
PMR
 10
62.720633
 20
89.914971
 30
0.0
 40
0.1405
  0
CIRCLE
  8
PMR
 10
62.720633
 20
89.289971
 30
0.0
 40
0.1405
  0
CIRCLE
  8
PMR
 10
62.720633
 20
90.539971
 30
0.0
 40
0.1405
  0
CIRCLE
  8
PMR
 10
62.720633
 20
91.039971
 30
0.0
 40
0.1405
  0
CIRCLE
  8
PMR
 10
62.720633
 20
87.539971
 30
0.0
 40
0.1405
  0
CIRCLE
  8
PMR
 10
62.720633
 20
88.164971
 30
0.0
 40
0.1405
  0
CIRCLE
  8
PMR
 10
62.720633
 20
88.789971
 30
0.0
 40
0.1405
  0
POLYLINE
  8
PMR
 66
     1
 10
0.0
 20
0.0
 30
0.0
 70
     1
  0
VERTEX
  8
PMR
 10
61.399633
 20
85.602471
 30
0.0
  0
VERTEX
  8
PMR
 10
60.274633
 20
85.602471
 30
0.0
 42
-0.414214
  0
VERTEX
  8
PMR
 10
60.149633
 20
85.727471
 30
0.0
  0
VERTEX
  8
PMR
 10
60.149633
 20
87.602471
 30
0.0
 42
-0.414214
  0
VERTEX
  8
PMR
 10
60.274633
 20
87.727471
 30
0.0
  0
VERTEX
  8
PMR
 10
61.399633
 20
87.727471
 30
0.0
 42
-0.414214
  0
VERTEX
  8
PMR
 10
61.524633
 20
87.602471
 30
0.0
  0
VERTEX
  8
PMR
 10
61.524633
 20
85.727471
 30
0.0
 42
-0.414214
  0
SEQEND
  8
PMR
  0
POLYLINE
  8
PMR
 66
     1
 10
0.0
 20
0.0
 30
0.0
 70
     1
  0
VERTEX
  8
PMR
 10
61.524633
 20
83.227471
 30
0.0
 42
-1.0
  0
VERTEX
  8
PMR
 10
61.274633
 20
83.227471
 30
0.0
  0
VERTEX
  8
PMR
 10
61.274633
 20
84.227471
 30
0.0
 42
-1.0
  0
VERTEX
  8
PMR
 10
61.524633
 20
84.227471
 30
0.0
  0
SEQEND
  8
PMR
  0
POLYLINE
  8
PMR
 66
     1
 10
0.0
 20
0.0
 30
0.0
 70
     1
  0
VERTEX
  8
PMR
 10
60.399633
 20
83.227471
 30
0.0
 42
-1.0
  0
VERTEX
  8
PMR
 10
60.149633
 20
83.227471
 30
0.0
  0
VERTEX
  8
PMR
 10
60.149633
 20
84.227471
 30
0.0
 42
-1.0
  0
VERTEX
  8
PMR
 10
60.399633
 20
84.227471
 30
0.0
  0
SEQEND
  8
PMR
  0
POLYLINE
  8
PMR
 66
     1
 10
0.0
 20
0.0
 30
0.0
 70
     1
  0
VERTEX
  8
PMR
 10
61.524633
 20
89.102471
 30
0.0
 42
-1.0
  0
VERTEX
  8
PMR
 10
61.274633
 20
89.102471
 30
0.0
  0
VERTEX
  8
PMR
 10
61.274633
 20
90.102471
 30
0.0
 42
-1.0
  0
VERTEX
  8
PMR
 10
61.524633
 20
90.102471
 30
0.0
  0
SEQEND
  8
PMR
  0
POLYLINE
  8
PMR
 66
     1
 10
0.0
 20
0.0
 30
0.0
 70
     1
  0
VERTEX
  8
PMR
 10
60.399633
 20
89.102471
 30
0.0
 42
-1.0
  0
VERTEX
  8
PMR
 10
60.149633
 20
89.102471
 30
0.0
  0
VERTEX
  8
PMR
 10
60.149633
 20
90.102471
 30
0.0
 42
-1.0
  0
VERTEX
  8
PMR
 10
60.399633
 20
90.102471
 30
0.0
  0
SEQEND
  8
PMR
  0
ARC
  8
PMR
 10
58.328633
 20
75.914971
 30
0.0
 40
0.125
 50
90.0
 51
270.0
  0
ARC
  8
PMR
 10
58.953633
 20
75.914971
 30
0.0
 40
0.125
 50
270.0
 51
90.0
  0
LINE
  8
PMR
 10
58.328633
 20
76.039971
 30
0.0
 11
58.953633
 21
76.039971
 31
0.0
  0
LINE
  8
PMR
 10
58.328633
 20
75.789971
 30
0.0
 11
58.953633
 21
75.789971
 31
0.0
  0
ARC
  8
PMR
 10
58.328633
 20
91.164971
 30
0.0
 40
0.125
 50
90.0
 51
270.0
  0
ARC
  8
PMR
 10
58.953633
 20
91.164971
 30
0.0
 40
0.125
 50
270.0
 51
90.0
  0
LINE
  8
PMR
 10
58.328633
 20
91.289971
 30
0.0
 11
58.953633
 21
91.289971
 31
0.0
  0
LINE
  8
PMR
 10
58.328633
 20
91.039971
 30
0.0
 11
58.953633
 21
91.039971
 31
0.0
  0
CIRCLE
  8
PMR
 10
62.720633
 20
95.789971
 30
0.0
 40
0.1405
  0
CIRCLE
  8
PMR
 10
62.720633
 20
95.164971
 30
0.0
 40
0.1405
  0
CIRCLE
  8
PMR
 10
62.720633
 20
92.289971
 30
0.0
 40
0.1405
  0
CIRCLE
  8
PMR
 10
62.720633
 20
93.414971
 30
0.0
 40
0.1405
  0
CIRCLE
  8
PMR
 10
62.720633
 20
92.789971
 30
0.0
 40
0.1405
  0
CIRCLE
  8
PMR
 10
62.720633
 20
94.039971
 30
0.0
 40
0.1405
  0
CIRCLE
  8
PMR
 10
62.720633
 20
94.539971
 30
0.0
 40
0.1405
  0
CIRCLE
  8
PMR
 10
62.720633
 20
96.289971
 30
0.0
 40
0.1405
  0
CIRCLE
  8
PMR
 10
62.720633
 20
96.914971
 30
0.0
 40
0.1405
  0
CIRCLE
  8
PMR
 10
62.720633
 20
97.539971
 30
0.0
 40
0.1405
  0
CIRCLE
  8
PMR
 10
62.720633
 20
98.664971
 30
0.0
 40
0.1405
  0
CIRCLE
  8
PMR
 10
62.720633
 20
98.039971
 30
0.0
 40
0.1405
  0
CIRCLE
  8
PMR
 10
62.720633
 20
99.289971
 30
0.0
 40
0.1405
  0
CIRCLE
  8
PMR
 10
62.720633
 20
99.789971
 30
0.0
 40
0.1405
  0
POLYLINE
  8
PMR
 66
     1
 10
0.0
 20
0.0
 30
0.0
 70
     1
  0
VERTEX
  8
PMR
 10
61.524633
 20
94.977471
 30
0.0
 42
-1.0
  0
VERTEX
  8
PMR
 10
61.274633
 20
94.977471
 30
0.0
  0
VERTEX
  8
PMR
 10
61.274633
 20
95.977471
 30
0.0
 42
-1.0
  0
VERTEX
  8
PMR
 10
61.524633
 20
95.977471
 30
0.0
  0
SEQEND
  8
PMR
  0
POLYLINE
  8
PMR
 66
     1
 10
0.0
 20
0.0
 30
0.0
 70
     1
  0
VERTEX
  8
PMR
 10
60.399633
 20
94.977471
 30
0.0
 42
-1.0
  0
VERTEX
  8
PMR
 10
60.149633
 20
94.977471
 30
0.0
  0
VERTEX
  8
PMR
 10
60.149633
 20
95.977471
 30
0.0
 42
-1.0
  0
VERTEX
  8
PMR
 10
60.399633
 20
95.977471
 30
0.0
  0
SEQEND
  8
PMR
  0
POLYLINE
  8
PMR
 66
     1
 10
0.0
 20
0.0
 30
0.0
 70
     1
  0
VERTEX
  8
PMR
 10
61.399633
 20
97.352471
 30
0.0
  0
VERTEX
  8
PMR
 10
60.274633
 20
97.352471
 30
0.0
 42
-0.414214
  0
VERTEX
  8
PMR
 10
60.149633
 20
97.477471
 30
0.0
  0
VERTEX
  8
PMR
 10
60.149633
 20
99.352471
 30
0.0
 42
-0.414214
  0
VERTEX
  8
PMR
 10
60.274633
 20
99.477471
 30
0.0
  0
VERTEX
  8
PMR
 10
61.399633
 20
99.477471
 30
0.0
 42
-0.414214
  0
VERTEX
  8
PMR
 10
61.524633
 20
99.352471
 30
0.0
  0
VERTEX
  8
PMR
 10
61.524633
 20
97.477471
 30
0.0
 42
-0.414214
  0
SEQEND
  8
PMR
  0
CIRCLE
  8
PMR
 10
62.720633
 20
102.164971
 30
0.0
 40
0.1405
  0
CIRCLE
  8
PMR
 10
62.720633
 20
101.039971
 30
0.0
 40
0.1405
  0
CIRCLE
  8
PMR
 10
62.720633
 20
101.539971
 30
0.0
 40
0.1405
  0
CIRCLE
  8
PMR
 10
62.720633
 20
100.414971
 30
0.0
 40
0.1405
  0
POLYLINE
  8
PMR
 66
     1
 10
0.0
 20
0.0
 30
0.0
 70
     1
  0
VERTEX
  8
PMR
 10
61.524633
 20
100.852471
 30
0.0
 42
-1.0
  0
VERTEX
  8
PMR
 10
61.274633
 20
100.852471
 30
0.0
  0
VERTEX
  8
PMR
 10
61.274633
 20
101.852471
 30
0.0
 42
-1.0
  0
VERTEX
  8
PMR
 10
61.524633
 20
101.852471
 30
0.0
  0
SEQEND
  8
PMR
  0
POLYLINE
  8
PMR
 66
     1
 10
0.0
 20
0.0
 30
0.0
 70
     1
  0
VERTEX
  8
PMR
 10
60.399633
 20
100.852471
 30
0.0
 42
-1.0
  0
VERTEX
  8
PMR
 10
60.149633
 20
100.852471
 30
0.0
  0
VERTEX
  8
PMR
 10
60.149633
 20
101.852471
 30
0.0
 42
-1.0
  0
VERTEX
  8
PMR
 10
60.399633
 20
101.852471
 30
0.0
  0
SEQEND
  8
PMR
  0
ARC
  8
PMR
 10
58.328633
 20
93.914971
 30
0.0
 40
0.125
 50
90.0
 51
270.0
  0
ARC
  8
PMR
 10
58.953633
 20
93.914971
 30
0.0
 40
0.125
 50
270.0
 51
90.0
  0
LINE
  8
PMR
 10
58.328633
 20
94.039971
 30
0.0
 11
58.953633
 21
94.039971
 31
0.0
  0
LINE
  8
PMR
 10
58.328633
 20
93.789971
 30
0.0
 11
58.953633
 21
93.789971
 31
0.0
  0
LINE
  8
PMR
 10
57.891133
 20
57.539971
 30
0.0
 11
57.891133
 21
108.362376
 31
0.0
  0
LINE
  8
PMR
 10
62.970633
 20
102.089997
 30
0.0
 11
62.970633
 21
57.539971
 31
0.0
  0
LINE
  8
PMR
 10
62.281633
 20
102.736497
 30
0.0
 11
62.281633
 21
57.539971
 31
0.0
  0
LINE
  8
PMR
 10
58.000133
 20
57.539971
 30
0.0
 11
58.000133
 21
108.243282
 31
0.0
  0
LINE
  8
PMR
 10
59.282133
 20
57.539971
 30
0.0
 11
59.282133
 21
106.314279
 31
0.0
  0
POLYLINE
  8
PMR
 66
     1
 10
0.0
 20
0.0
 30
0.0
  0
VERTEX
  8
PMR
 10
61.399633
 20
103.227471
 30
0.0
  0
VERTEX
  8
PMR
 10
60.274633
 20
103.227471
 30
0.0
 42
-0.414214
  0
VERTEX
  8
PMR
 10
60.149633
 20
103.352471
 30
0.0
  0
VERTEX
  8
PMR
 10
60.149633
 20
105.123502
 30
0.0
 42
-0.414214
  0
SEQEND
  8
PMR
  0
POLYLINE
  8
PMR
 66
     1
 10
0.0
 20
0.0
 30
0.0
  0
VERTEX
  8
PMR
 10
61.524633
 20
103.5108
 30
0.0
  0
VERTEX
  8
PMR
 10
61.524633
 20
103.352471
 30
0.0
 42
-0.414214
  0
VERTEX
  8
PMR
 10
61.399633
 20
103.227471
 30
0.0
  0
SEQEND
  8
PMR
  0
TEXT
  8
TEXT
 10
5.646707
 20
32.603145
 30
0.0
 40
1.75
  1
LOAD RATING:  1200 LBS. MAX.
 41
0.75
  7
TXT
  0
ENDSEC
  0
EOF
