  0
SECTION
  2
HEADER
  9
$ACADVER
  1
AC1009
  9
$INSBASE
 10
0.0
 20
0.0
 30
0.0
  9
$EXTMIN
 10
0.0
 20
-0.000000000000016
 30
0.0
  9
$EXTMAX
 10
91.079999999999998
 20
139.5
 30
0.0
  9
$LIMMIN
 10
0.0
 20
0.0
  9
$LIMMAX
 10
91.079999999999998
 20
139.49999999999989
  9
$ORTHOMODE
 70
     1
  9
$REGENMODE
 70
     1
  9
$FILLMODE
 70
     1
  9
$QTEXTMODE
 70
     0
  9
$MIRRTEXT
 70
     0
  9
$DRAGMODE
 70
     2
  9
$LTSCALE
 40
6.0
  9
$OSMODE
 70
   229
  9
$ATTMODE
 70
     1
  9
$TEXTSIZE
 40
1.125
  9
$TRACEWID
 40
0.05
  9
$TEXTSTYLE
  7
TXT
  9
$CLAYER
  8
DIM
  9
$CELTYPE
  6
BYLAYER
  9
$CECOLOR
 62
   256
  9
$DIMSCALE
 40
9.0
  9
$DIMASZ
 40
0.18
  9
$DIMEXO
 40
0.063
  9
$DIMDLI
 40
0.281
  9
$DIMRND
 40
0.0
  9
$DIMDLE
 40
0.0
  9
$DIMEXE
 40
0.093
  9
$DIMTP
 40
0.0
  9
$DIMTM
 40
0.0
  9
$DIMTXT
 40
0.125
  9
$DIMCEN
 40
0.09
  9
$DIMTSZ
 40
0.0
  9
$DIMTOL
 70
     0
  9
$DIMLIM
 70
     0
  9
$DIMTIH
 70
     1
  9
$DIMTOH
 70
     1
  9
$DIMSE1
 70
     0
  9
$DIMSE2
 70
     0
  9
$DIMTAD
 70
     0
  9
$DIMZIN
 70
     0
  9
$DIMBLK
  1

  9
$DIMASO
 70
     1
  9
$DIMSHO
 70
     1
  9
$DIMPOST
  1

  9
$DIMAPOST
  1

  9
$DIMALT
 70
     0
  9
$DIMALTD
 70
     2
  9
$DIMALTF
 40
25.399999999999999
  9
$DIMLFAC
 40
1.0
  9
$DIMTOFL
 70
     0
  9
$DIMTVP
 40
0.0
  9
$DIMTIX
 70
     0
  9
$DIMSOXD
 70
     0
  9
$DIMSAH
 70
     0
  9
$DIMBLK1
  1

  9
$DIMBLK2
  1

  9
$DIMSTYLE
  2
23NSTD
  9
$DIMCLRD
 70
     0
  9
$DIMCLRE
 70
     0
  9
$DIMCLRT
 70
     0
  9
$DIMTFAC
 40
1.0
  9
$DIMGAP
 40
0.09
  9
$LUNITS
 70
     2
  9
$LUPREC
 70
     3
  9
$SKETCHINC
 40
0.1
  9
$FILLETRAD
 40
0.0
  9
$AUNITS
 70
     0
  9
$AUPREC
 70
     0
  9
$MENU
  1
acad
  9
$ELEVATION
 40
0.0
  9
$PELEVATION
 40
0.0
  9
$THICKNESS
 40
0.0
  9
$LIMCHECK
 70
     0
  9
$BLIPMODE
 70
     0
  9
$CHAMFERA
 40
0.0
  9
$CHAMFERB
 40
0.0
  9
$SKPOLY
 70
     0
  9
$TDCREATE
 40
2450694.3826266201
  9
$TDUPDATE
 40
2451932.6261478122
  9
$TDINDWG
 40
0.0288819792
  9
$TDUSRTIMER
 40
0.0288819792
  9
$USRTIMER
 70
     1
  9
$ANGBASE
 50
0.0
  9
$ANGDIR
 70
     0
  9
$PDMODE
 70
     0
  9
$PDSIZE
 40
0.0
  9
$PLINEWID
 40
0.0
  9
$COORDS
 70
     0
  9
$SPLFRAME
 70
     0
  9
$SPLINETYPE
 70
     6
  9
$SPLINESEGS
 70
     8
  9
$ATTDIA
 70
     0
  9
$ATTREQ
 70
     1
  9
$HANDLING
 70
  4097
  9
$HANDSEED
  5
858
  9
$SURFTAB1
 70
     6
  9
$SURFTAB2
 70
     6
  9
$SURFTYPE
 70
     6
  9
$SURFU
 70
     6
  9
$SURFV
 70
     6
  9
$UCSNAME
  2

  9
$UCSORG
 10
0.0
 20
0.0
 30
0.0
  9
$UCSXDIR
 10
1.0
 20
0.0
 30
0.0
  9
$UCSYDIR
 10
0.0
 20
1.0
 30
0.0
  9
$PUCSNAME
  2

  9
$PUCSORG
 10
0.0
 20
0.0
 30
0.0
  9
$PUCSXDIR
 10
1.0
 20
0.0
 30
0.0
  9
$PUCSYDIR
 10
0.0
 20
1.0
 30
0.0
  9
$USERI1
 70
     0
  9
$USERI2
 70
     0
  9
$USERI3
 70
     0
  9
$USERI4
 70
     0
  9
$USERI5
 70
     0
  9
$USERR1
 40
0.0
  9
$USERR2
 40
0.0
  9
$USERR3
 40
0.0
  9
$USERR4
 40
0.0
  9
$USERR5
 40
0.0
  9
$WORLDVIEW
 70
     1
  9
$SHADEDGE
 70
     3
  9
$SHADEDIF
 70
    70
  9
$TILEMODE
 70
     1
  9
$MAXACTVP
 70
    16
  9
$PLIMCHECK
 70
     0
  9
$PEXTMIN
 10
1.0000000000000000E+020
 20
1.0000000000000000E+020
 30
1.0000000000000000E+020
  9
$PEXTMAX
 10
-1.0000000000000000E+020
 20
-1.0000000000000000E+020
 30
-1.0000000000000000E+020
  9
$PLIMMIN
 10
0.0
 20
0.0
  9
$PLIMMAX
 10
12.0
 20
9.0
  9
$UNITMODE
 70
     0
  9
$VISRETAIN
 70
     0
  9
$PLINEGEN
 70
     0
  9
$PSLTSCALE
 70
     1
  0
ENDSEC
  0
SECTION
  2
TABLES
  0
TABLE
  2
VPORT
 70
     2
  0
VPORT
  2
*ACTIVE
 70
     0
 10
0.0
 20
0.0
 11
1.0
 21
1.0
 12
45.540000212062132
 22
69.750000324798762
 13
0.0
 23
0.0
 14
1.0
 24
1.0
 15
0.0
 25
0.0
 16
0.0
 26
0.0
 36
1.0
 17
0.0
 27
0.0
 37
0.0
 40
141.07896672405499
 41
1.8139097744360899
 42
50.0
 43
0.0
 44
0.0
 50
0.0
 51
0.0
 71
     0
 72
   100
 73
     1
 74
     0
 75
     0
 76
     0
 77
     0
 78
     0
  0
ENDTAB
  0
TABLE
  2
LTYPE
 70
     3
  0
LTYPE
  2
CONTINUOUS
 70
     0
  3
Solid line
 72
    65
 73
     0
 40
0.0
  0
LTYPE
  2
HIDDEN
 70
     0
  3
_ _ _ _ _ _ _ _ _ _ _ _ _ _ _ _ _ _ _ _ _ _ _
 72
    65
 73
     2
 40
0.375
 49
0.25
 49
-0.125
  0
LTYPE
  2
PHANTOM
 70
     0
  3
_____ _ _ _____ _ _ _____ _ _ _____ _ _ ____
 72
    65
 73
     6
 40
2.5
 49
1.25
 49
-0.25
 49
0.25
 49
-0.25
 49
0.25
 49
-0.25
  0
ENDTAB
  0
TABLE
  2
LAYER
 70
     8
  0
LAYER
  2
0
 70
     0
 62
     7
  6
CONTINUOUS
  0
LAYER
  2
TEXT
 70
     0
 62
     1
  6
CONTINUOUS
  0
LAYER
  2
OBJECT
 70
     0
 62
     7
  6
CONTINUOUS
  0
LAYER
  2
DIM
 70
     0
 62
     2
  6
CONTINUOUS
  0
LAYER
  2
HIDDEN
 70
     0
 62
     6
  6
HIDDEN
  0
LAYER
  2
BEND
 70
     0
 62
     4
  6
PHANTOM
  0
LAYER
  2
DEFPOINTS
 70
     0
 62
     7
  6
CONTINUOUS
  0
LAYER
  2
TITLE
 70
     0
 62
     8
  6
CONTINUOUS
  0
ENDTAB
  0
TABLE
  2
STYLE
 70
     1
  0
STYLE
  2
TXT
 70
     0
 40
0.0
 41
0.75
 50
0.0
 71
     0
 42
1.125
  3
TXT.shx
  4

  0
ENDTAB
  0
TABLE
  2
VIEW
 70
     0
  0
ENDTAB
  0
TABLE
  2
UCS
 70
     0
  0
ENDTAB
  0
TABLE
  2
APPID
 70
     1
  0
APPID
  2
ACAD
 70
     0
  0
ENDTAB
  0
TABLE
  2
DIMSTYLE
 70
     1
  0
DIMSTYLE
  2
23NSTD
 70
     0
  3

  4

  5

  6

  7

 40
9.0
 41
0.18
 42
0.063
 43
0.281
 44
0.093
 45
0.0
 46
0.0
 47
0.0
 48
0.0
140
0.125
141
0.09
142
0.0
143
25.399999999999999
144
1.0
145
0.0
146
1.0
147
0.09
 71
     0
 72
     0
 73
     1
 74
     1
 75
     0
 76
     0
 77
     0
 78
     0
170
     0
171
     2
172
     0
173
     0
174
     0
175
     0
176
     0
177
     0
178
     0
  0
ENDTAB
  0
ENDSEC
  0
SECTION
  2
BLOCKS
  0
BLOCK
  8
0
  2
$MODEL_SPACE
 70
     0
 10
0.0
 20
0.0
 30
0.0
  3
$MODEL_SPACE
  1

  0
ENDBLK
  5
46
  8
0
  0
BLOCK
 67
     1
  8
0
  2
$PAPER_SPACE
 70
     0
 10
0.0
 20
0.0
 30
0.0
  3
$PAPER_SPACE
  1

  0
ENDBLK
  5
44
 67
     1
  8
0
  0
BLOCK
  8
0
  2
FR-SLIDE
 70
     0
 10
0.0
 20
0.0
 30
0.0
  3
FR-SLIDE
  1

  0
POLYLINE
  5
48
  8
OBJECT
 66
     1
 10
0.0
 20
0.0
 30
0.0
 70
     1
  0
VERTEX
  5
725
  8
OBJECT
 10
-0.0962666802192445
 20
0.5174999999999841
 30
0.0
 42
0.4142135623730951
  0
VERTEX
  5
726
  8
OBJECT
 10
-0.1182666802192358
 20
0.5395000000000039
 30
0.0
  0
VERTEX
  5
727
  8
OBJECT
 10
-0.3104918770180092
 20
0.5395000000000039
 30
0.0
  0
VERTEX
  5
728
  8
OBJECT
 10
-0.3104918770180092
 20
0.5645000000000096
 30
0.0
  0
VERTEX
  5
729
  8
OBJECT
 10
-0.1182666802192358
 20
0.5644999999999812
 30
0.0
 42
-0.4142135623730951
  0
VERTEX
  5
72A
  8
OBJECT
 10
-0.0712666802192388
 20
0.5174999999999841
 30
0.0
  0
VERTEX
  5
72B
  8
OBJECT
 10
-0.0712666802192388
 20
0.221422351358143
 30
0.0
 42
-0.4142135623730951
  0
VERTEX
  5
72C
  8
OBJECT
 10
-0.1182666802192358
 20
0.174422351358146
 30
0.0
  0
VERTEX
  5
72D
  8
OBJECT
 10
-0.1647836887833165
 20
0.1744223513581247
 30
0.0
 42
0.4142135623730951
  0
VERTEX
  5
72E
  8
OBJECT
 10
-0.1867836887833505
 20
0.1524223513581262
 30
0.0
  0
VERTEX
  5
72F
  8
OBJECT
 10
-0.1867836887833079
 20
-0.1524223513580978
 30
0.0
 42
0.4142135623730951
  0
VERTEX
  5
730
  8
OBJECT
 10
-0.1647836887833165
 20
-0.1744223513581176
 30
0.0
  0
VERTEX
  5
731
  8
OBJECT
 10
-0.1182666802192358
 20
-0.1744223513581176
 30
0.0
 42
-0.4142135623730951
  0
VERTEX
  5
732
  8
OBJECT
 10
-0.0712666802192388
 20
-0.2214223513581146
 30
0.0
  0
VERTEX
  5
733
  8
OBJECT
 10
-0.0712666802192388
 20
-0.5174999999999841
 30
0.0
 42
-0.4142135623730951
  0
VERTEX
  5
734
  8
OBJECT
 10
-0.1182666802192358
 20
-0.5644999999999812
 30
0.0
  0
VERTEX
  5
735
  8
OBJECT
 10
-0.3104918770180092
 20
-0.5644999999999812
 30
0.0
  0
VERTEX
  5
736
  8
OBJECT
 10
-0.3104918770180092
 20
-0.5395000000000039
 30
0.0
  0
VERTEX
  5
737
  8
OBJECT
 10
-0.1182666802192358
 20
-0.5395000000000039
 30
0.0
 42
0.4142135623730951
  0
VERTEX
  5
738
  8
OBJECT
 10
-0.0962666802192445
 20
-0.5174999999999841
 30
0.0
  0
VERTEX
  5
739
  8
OBJECT
 10
-0.0962666802192303
 20
-0.2214223513581146
 30
0.0
 42
0.4142135623730951
  0
VERTEX
  5
73A
  8
OBJECT
 10
-0.1182666802192358
 20
-0.1994223513581161
 30
0.0
  0
VERTEX
  5
73B
  8
OBJECT
 10
-0.1647836887833165
 20
-0.1994223513581232
 30
0.0
 42
-0.4142135623730951
  0
VERTEX
  5
73C
  8
OBJECT
 10
-0.2117836887833135
 20
-0.1524223513580978
 30
0.0
  0
VERTEX
  5
73D
  8
OBJECT
 10
-0.2117836887833562
 20
0.1524223513581262
 30
0.0
 42
-0.4142135623730951
  0
VERTEX
  5
73E
  8
OBJECT
 10
-0.1647836887833165
 20
0.1994223513581303
 30
0.0
  0
VERTEX
  5
73F
  8
OBJECT
 10
-0.1182666802192358
 20
0.1994223513581232
 30
0.0
 42
0.4142135623730951
  0
VERTEX
  5
740
  8
OBJECT
 10
-0.0962666802192445
 20
0.221422351358143
 30
0.0
  0
SEQEND
  5
741
  8
OBJECT
  0
POLYLINE
  5
66
  8
OBJECT
 66
     1
 10
0.0
 20
0.0
 30
0.0
  0
VERTEX
  5
742
  8
OBJECT
 10
-0.128166275418252
 20
0.4569115347685227
 30
0.0
  0
VERTEX
  5
743
  8
OBJECT
 10
-0.0986312524380111
 20
0.4012636918852906
 30
0.0
 42
-0.3382295716708225
  0
VERTEX
  5
744
  8
OBJECT
 10
-0.2860670553935876
 20
0.4323507728733489
 30
0.0
 42
0.6795428983021218
  0
VERTEX
  5
745
  8
OBJECT
 10
-0.3119999999999834
 20
0.4220808788995499
 30
0.0
  0
VERTEX
  5
746
  8
OBJECT
 10
-0.3119999999999834
 20
-0.4220808788995214
 30
0.0
 42
0.6795428983021217
  0
VERTEX
  5
747
  8
OBJECT
 10
-0.2860670553935876
 20
-0.4323507728733205
 30
0.0
 42
-0.3382295716708225
  0
VERTEX
  5
748
  8
OBJECT
 10
-0.0986312524380111
 20
-0.4012636918852622
 30
0.0
  0
VERTEX
  5
749
  8
OBJECT
 10
-0.1281692895166913
 20
-0.4569172137238269
 30
0.0
 42
0.340971445673591
  0
VERTEX
  5
74A
  8
OBJECT
 10
-0.2407816945821111
 20
-0.4761502985000732
 30
0.0
 42
-0.6752466543721374
  0
VERTEX
  5
74B
  8
OBJECT
 10
-0.3749999999999716
 20
-0.4220808788995214
 30
0.0
  0
VERTEX
  5
74C
  8
OBJECT
 10
-0.375
 20
0.4220808788995499
 30
0.0
 42
-0.6752466543718576
  0
VERTEX
  5
74D
  8
OBJECT
 10
-0.2407816945821537
 20
0.4761502985001514
 30
0.0
 42
0.3409714456737536
  0
VERTEX
  5
74E
  8
OBJECT
 10
-0.1281692895166913
 20
0.4569172137238553
 30
0.0
  0
SEQEND
  5
74F
  8
OBJECT
  0
POLYLINE
  5
75
  8
OBJECT
 66
     1
 10
0.0
 20
0.0
 30
0.0
 70
     1
  0
VERTEX
  5
750
  8
OBJECT
 10
-0.3104918770180092
 20
-0.625000000000135
 30
0.0
 42
0.2383634416005031
  0
VERTEX
  5
751
  8
OBJECT
 10
-0.171999999999997
 20
-0.6949999999999932
 30
0.0
 42
0.4142135623730889
  0
VERTEX
  5
752
  8
OBJECT
 10
0.0
 20
-0.5229999999999963
 30
0.0
  0
VERTEX
  5
753
  8
OBJECT
 10
0.0
 20
0.5229999999999963
 30
0.0
 42
0.4142135623730888
  0
VERTEX
  5
754
  8
OBJECT
 10
-0.171999999999997
 20
0.6949999999999932
 30
0.0
 42
0.2383634416005031
  0
VERTEX
  5
755
  8
OBJECT
 10
-0.3104918770178244
 20
0.625
 30
0.0
  0
VERTEX
  5
756
  8
OBJECT
 10
-0.2633074249803968
 20
0.5912159998889308
 30
0.0
 42
-0.2419134094187066
  0
VERTEX
  5
757
  8
OBJECT
 10
-0.1820000000000164
 20
0.6329999999999814
 30
0.0
  0
VERTEX
  5
758
  8
OBJECT
 10
-0.1720000000000255
 20
0.6330000000000098
 30
0.0
 42
-0.4142135623730951
  0
VERTEX
  5
759
  8
OBJECT
 10
-0.062000000000026
 20
0.5229999999999963
 30
0.0
  0
VERTEX
  5
75A
  8
OBJECT
 10
-0.0620000000000118
 20
-0.5229999999999963
 30
0.0
 42
-0.4142135623730951
  0
VERTEX
  5
75B
  8
OBJECT
 10
-0.1720000000000255
 20
-0.6329999999999956
 30
0.0
  0
VERTEX
  5
75C
  8
OBJECT
 10
-0.1820000000000164
 20
-0.6330000000000098
 30
0.0
 42
-0.2419134094187065
  0
VERTEX
  5
75D
  8
OBJECT
 10
-0.2633074249803542
 20
-0.5912159998889024
 30
0.0
  0
SEQEND
  5
75E
  8
OBJECT
  0
ARC
  5
85
  8
OBJECT
 10
-0.1720000000000255
 20
-0.5395000000000039
 30
0.0
 40
0.0935
 50
35.905824288892951
 51
180.0
  0
ARC
  5
86
  8
OBJECT
 10
-0.1720000000000255
 20
-0.5395000000000039
 30
0.0
 40
0.0935
 50
195.50840180376809
 51
358.07827053655268
  0
ARC
  5
87
  8
OBJECT
 10
-0.1720000000000255
 20
0.5394999999999756
 30
0.0
 40
0.0935
 50
179.99999999998249
 51
324.0941757111068
  0
ARC
  5
88
  8
OBJECT
 10
-0.1720000000000255
 20
0.5394999999999756
 30
0.0
 40
0.0935
 50
1.921729463447281
 51
164.4915981962136
  0
ENDBLK
  5
89
  8
0
  0
BLOCK
  8
0
  2
1787FV
 70
     0
 10
0.0
 20
0.0
 30
0.0
  3
1787FV
  1

  0
LINE
  5
8B
  8
OBJECT
 10
0.968999999999994
 20
-2.1399999999999859
 30
0.0
 11
21.343
 21
-2.1399999999999859
 31
0.0
  0
LINE
  5
8C
  8
OBJECT
 10
0.8430000000000177
 20
-2.5149999999999859
 30
0.0
 11
21.46899999999998
 21
-2.5149999999999859
 31
0.0
  0
LINE
  5
8D
  8
OBJECT
 10
21.937000000000001
 20
0.1870000000000118
 30
0.0
 11
0.375
 21
0.1870000000000118
 31
0.0
  0
LINE
  5
8E
  8
OBJECT
 10
22.655999999999999
 20
0.2340000000000089
 30
0.0
 11
-0.3439999999999941
 21
0.2340000000000089
 31
0.0
  0
LINE
  5
8F
  8
OBJECT
 10
-0.3439999999999941
 20
-3.23399999999998
 30
0.0
 11
22.655999999999999
 21
-3.23399999999998
 31
0.0
  0
LINE
  5
90
  8
OBJECT
 10
0.3750000000000284
 20
-3.186999999999983
 30
0.0
 11
21.937000000000001
 21
-3.186999999999983
 31
0.0
  0
LINE
  5
91
  8
OBJECT
 10
2.156000000000005
 20
-2.561999999999983
 30
0.0
 11
20.155999999999999
 21
-2.561999999999983
 31
0.0
  0
LINE
  5
92
  8
OBJECT
 10
2.156000000000005
 20
-3.186999999999983
 30
0.0
 11
2.156000000000005
 21
-2.5149999999999859
 31
0.0
  0
LINE
  5
93
  8
OBJECT
 10
0.781000000000006
 20
-0.8269999999999981
 30
0.0
 11
0.781000000000006
 21
-2.4530000000000021
 31
0.0
  0
LINE
  5
94
  8
OBJECT
 10
0.8280000000000028
 20
-0.8269999999999981
 30
0.0
 11
0.8280000000000028
 21
-2.4530000000000021
 31
0.0
  0
INSERT
  5
95
  8
OBJECT
  2
FR-SLIDE
 10
0.3905000000000029
 20
-1.797499999999985
 30
0.0
 50
180.0
  0
ARC
  5
96
  8
OBJECT
 10
0.8430000000000177
 20
-2.4530000000000021
 30
0.0
 40
0.0619999999999997
 50
180.0
 51
270.0
  0
ARC
  5
97
  8
OBJECT
 10
0.968999999999994
 20
-2.2649999999999859
 30
0.0
 40
0.125
 50
90.0
 51
180.0
  0
ARC
  5
98
  8
OBJECT
 10
0.8430000000000177
 20
-2.4530000000000021
 30
0.0
 40
0.015
 50
180.0
 51
270.0
  0
LINE
  5
99
  8
OBJECT
 10
0.843999999999994
 20
-2.2649999999999859
 30
0.0
 11
0.843999999999994
 21
-2.5149999999999859
 31
0.0
  0
LINE
  5
9A
  8
OBJECT
 10
0.453000000000003
 20
-0.8119999999999834
 30
0.0
 11
0.7660000000000196
 21
-0.8119999999999834
 31
0.0
  0
LINE
  5
9B
  8
OBJECT
 10
0.453000000000003
 20
-0.7649999999999864
 30
0.0
 11
0.7660000000000196
 21
-0.7649999999999864
 31
0.0
  0
LINE
  5
9C
  8
OBJECT
 10
0.453000000000003
 20
-0.7649999999999864
 30
0.0
 11
0.453000000000003
 21
-0.8119999999999834
 31
0.0
  0
ARC
  5
9D
  8
OBJECT
 10
0.7660000000000196
 20
-0.8269999999999981
 30
0.0
 40
0.0619999999999997
 50
0.0
 51
89.999999999999844
  0
ARC
  5
9E
  8
OBJECT
 10
0.7660000000000196
 20
-0.8269999999999981
 30
0.0
 40
0.015
 50
0.0
 51
89.999999999999844
  0
LINE
  5
9F
  8
OBJECT
 10
0.8280000000000313
 20
-3.186999999999983
 30
0.0
 11
0.8280000000000313
 21
-3.23399999999998
 31
0.0
  0
CIRCLE
  5
A0
  8
OBJECT
 10
11.15599999999999
 20
-2.859000000000008
 30
0.0
 40
0.1883842335
  0
LINE
  5
A1
  8
OBJECT
 10
11.34333524055727
 20
-2.8391473659999908
 30
0.0
 11
10.96866475944263
 21
-2.8391473659999908
 31
0.0
  0
LINE
  5
A2
  8
OBJECT
 10
11.34333524055727
 20
-2.8788526339999971
 30
0.0
 11
10.96866475944263
 21
-2.8788526339999971
 31
0.0
  0
LINE
  5
A3
  8
OBJECT
 10
20.155999999999999
 20
-3.186999999999983
 30
0.0
 11
20.155999999999999
 21
-2.5149999999999859
 31
0.0
  0
LINE
  5
A4
  8
OBJECT
 10
21.484000000000002
 20
-3.186999999999983
 30
0.0
 11
21.484000000000002
 21
-3.23399999999998
 31
0.0
  0
ARC
  5
A5
  8
OBJECT
 10
21.343
 20
-2.2649999999999859
 30
0.0
 40
0.125
 50
0.0
 51
90.0
  0
ARC
  5
A6
  8
OBJECT
 10
21.46899999999998
 20
-2.4530000000000021
 30
0.0
 40
0.0619999999999997
 50
270.0
 51
0.0
  0
ARC
  5
A7
  8
OBJECT
 10
21.46899999999998
 20
-2.4530000000000021
 30
0.0
 40
0.015
 50
270.0
 51
0.0
  0
LINE
  5
A8
  8
OBJECT
 10
21.468000000000011
 20
-2.2649999999999859
 30
0.0
 11
21.468000000000011
 21
-2.5149999999999859
 31
0.0
  0
LINE
  5
A9
  8
OBJECT
 10
21.530999999999992
 20
-0.8269999999999981
 30
0.0
 11
21.530999999999992
 21
-2.4530000000000021
 31
0.0
  0
LINE
  5
AA
  8
OBJECT
 10
21.484000000000002
 20
-0.8269999999999981
 30
0.0
 11
21.484000000000002
 21
-2.4530000000000021
 31
0.0
  0
INSERT
  5
AB
  8
OBJECT
  2
FR-SLIDE
 10
21.921500000000002
 20
-1.797499999999985
 30
0.0
  0
ARC
  5
AC
  8
OBJECT
 10
21.545999999999982
 20
-0.8269999999999981
 30
0.0
 40
0.0619999999999997
 50
90.000000000000171
 51
180.0
  0
LINE
  5
AD
  8
OBJECT
 10
21.859000000000002
 20
-0.7649999999999864
 30
0.0
 11
21.859000000000002
 21
-0.8119999999999834
 31
0.0
  0
LINE
  5
AE
  8
OBJECT
 10
21.859000000000002
 20
-0.8119999999999834
 30
0.0
 11
21.545999999999982
 21
-0.8119999999999834
 31
0.0
  0
ARC
  5
AF
  8
OBJECT
 10
21.545999999999982
 20
-0.8269999999999981
 30
0.0
 40
0.015
 50
90.000000000000171
 51
180.0
  0
LINE
  5
B0
  8
OBJECT
 10
21.859000000000002
 20
-0.7649999999999864
 30
0.0
 11
21.545999999999982
 21
-0.7649999999999864
 31
0.0
  0
LINE
  5
B1
  8
OBJECT
 10
21.937000000000001
 20
-3.186999999999983
 30
0.0
 11
21.937000000000001
 21
0.1870000000000118
 31
0.0
  0
LINE
  5
B2
  8
OBJECT
 10
22.655999999999999
 20
-3.23399999999998
 30
0.0
 11
22.655999999999999
 21
0.2340000000000089
 31
0.0
  0
LINE
  5
B3
  8
OBJECT
 10
0.375
 20
0.1870000000000118
 30
0.0
 11
0.3750000000000284
 21
-3.186999999999983
 31
0.0
  0
POLYLINE
  5
B4
  8
OBJECT
 66
     1
 10
0.0
 20
0.0
 30
0.0
 70
     1
  0
VERTEX
  5
75F
  8
OBJECT
 10
0.0640000454245069
 20
-3.13900000000001
 30
0.0
  0
VERTEX
  5
760
  8
OBJECT
 10
-0.0639999545755075
 20
-3.13900000000001
 30
0.0
 42
-1.0
  0
VERTEX
  5
761
  8
OBJECT
 10
-0.0640000454244785
 20
-2.861000000000018
 30
0.0
  0
VERTEX
  5
762
  8
OBJECT
 10
0.0639999545755359
 20
-2.861000000000018
 30
0.0
 42
-1.0
  0
SEQEND
  5
763
  8
OBJECT
  0
POLYLINE
  5
BA
  8
OBJECT
 66
     1
 10
0.0
 20
0.0
 30
0.0
 70
     1
  0
VERTEX
  5
764
  8
OBJECT
 10
0.0640000454245069
 20
-0.13900000000001
 30
0.0
  0
VERTEX
  5
765
  8
OBJECT
 10
-0.0639999545755075
 20
-0.13900000000001
 30
0.0
 42
-1.0
  0
VERTEX
  5
766
  8
OBJECT
 10
-0.0640000454244785
 20
0.1389999999999816
 30
0.0
  0
VERTEX
  5
767
  8
OBJECT
 10
0.0639999545755359
 20
0.1389999999999816
 30
0.0
 42
-1.0
  0
SEQEND
  5
768
  8
OBJECT
  0
LINE
  5
C0
  8
OBJECT
 10
-0.3439999999999941
 20
0.2340000000000089
 30
0.0
 11
-0.3439999999999941
 21
-3.23399999999998
 31
0.0
  0
POLYLINE
  5
C1
  8
OBJECT
 66
     1
 10
0.0
 20
0.0
 30
0.0
 70
     1
  0
VERTEX
  5
769
  8
OBJECT
 10
22.37600004542448
 20
-0.13900000000001
 30
0.0
  0
VERTEX
  5
76A
  8
OBJECT
 10
22.248000045424462
 20
-0.13900000000001
 30
0.0
 42
-1.0
  0
VERTEX
  5
76B
  8
OBJECT
 10
22.247999954575491
 20
0.1389999999999816
 30
0.0
  0
VERTEX
  5
76C
  8
OBJECT
 10
22.375999954575509
 20
0.1389999999999816
 30
0.0
 42
-1.0
  0
SEQEND
  5
76D
  8
OBJECT
  0
POLYLINE
  5
C7
  8
OBJECT
 66
     1
 10
0.0
 20
0.0
 30
0.0
 70
     1
  0
VERTEX
  5
76E
  8
OBJECT
 10
22.37600004542448
 20
-3.13900000000001
 30
0.0
  0
VERTEX
  5
76F
  8
OBJECT
 10
22.248000045424462
 20
-3.13900000000001
 30
0.0
 42
-1.0
  0
VERTEX
  5
770
  8
OBJECT
 10
22.247999954575491
 20
-2.861000000000018
 30
0.0
  0
VERTEX
  5
771
  8
OBJECT
 10
22.375999954575509
 20
-2.861000000000018
 30
0.0
 42
-1.0
  0
SEQEND
  5
772
  8
OBJECT
  0
ENDBLK
  5
CD
  8
0
  0
BLOCK
  8
0
  2
1798FV
 70
     0
 10
0.0
 20
0.0
 30
0.0
  3
1798FV
  1

  0
LINE
  5
CF
  8
OBJECT
 10
10.62649999999997
 20
0.0
 30
0.0
 11
-10.626499999999981
 21
0.0
 31
0.0
  0
LINE
  5
D0
  8
OBJECT
 10
10.750500000000001
 20
-0.375
 30
0.0
 11
-10.750500000000001
 21
-0.375
 31
0.0
  0
LINE
  5
D1
  8
OBJECT
 10
-11.499999999999989
 20
-0.3129999999999882
 30
0.0
 11
-11.499999999999989
 21
-5.5309999999999908
 31
0.0
  0
LINE
  5
D2
  8
OBJECT
 10
-10.750500000000001
 20
-0.375
 30
0.0
 11
-10.750500000000001
 21
-5.5309999999999908
 31
0.0
  0
LINE
  5
D3
  8
OBJECT
 10
-10.812499999999989
 20
-0.3129999999999882
 30
0.0
 11
-10.812499999999989
 21
-5.5309999999999908
 31
0.0
  0
LINE
  5
D4
  8
OBJECT
 10
-10.874499999999999
 20
-0.3129999999999882
 30
0.0
 11
-10.874499999999999
 21
-5.5309999999999908
 31
0.0
  0
POLYLINE
  5
D5
  8
OBJECT
 66
     1
 10
0.0
 20
0.0
 30
0.0
 70
     1
  0
VERTEX
  5
773
  8
OBJECT
 10
-11.249999954085309
 20
-4.1874999999999707
 30
0.0
 42
-1.000000163397462
  0
VERTEX
  5
774
  8
OBJECT
 10
-11.249999999999989
 20
-3.9064999999999648
 30
0.0
  0
VERTEX
  5
775
  8
OBJECT
 10
-11.09400000000001
 20
-3.9064999999999648
 30
0.0
 42
-0.9999998366025646
  0
VERTEX
  5
776
  8
OBJECT
 10
-11.093999954085341
 20
-4.1874999999999707
 30
0.0
  0
SEQEND
  5
777
  8
OBJECT
  0
LINE
  5
DB
  8
OBJECT
 10
-10.812499999999989
 20
-5.5309999999999908
 30
0.0
 11
-11.499999999999989
 21
-5.5309999999999908
 31
0.0
  0
LINE
  5
DC
  8
OBJECT
 10
-11.0045
 20
-4.8879999999999759
 30
0.0
 11
-11.0045
 21
-4.455999999999988
 31
0.0
  0
ARC
  5
DD
  8
OBJECT
 10
-10.904110169491521
 20
-4.671999999999997
 30
0.0
 40
0.2716101694915245
 50
304.44075854995629
 51
55.55924145004375
  0
LINE
  5
DE
  8
OBJECT
 10
-11.125500000000009
 20
-4.5769999999999982
 30
0.0
 11
-11.0045
 21
-4.5769999999999982
 31
0.0
  0
LINE
  5
DF
  8
OBJECT
 10
-11.125500000000009
 20
-4.766999999999995
 30
0.0
 11
-11.0045
 21
-4.766999999999995
 31
0.0
  0
POLYLINE
  5
E0
  8
OBJECT
 66
     1
 10
0.0
 20
0.0
 30
0.0
 70
     1
  0
VERTEX
  5
778
  8
OBJECT
 10
-11.249999954085309
 20
-5.4374999999999707
 30
0.0
 42
-1.000000163397462
  0
VERTEX
  5
779
  8
OBJECT
 10
-11.249999999999989
 20
-5.1564999999999648
 30
0.0
  0
VERTEX
  5
77A
  8
OBJECT
 10
-11.09400000000001
 20
-5.1564999999999648
 30
0.0
 42
-0.9999998366025646
  0
VERTEX
  5
77B
  8
OBJECT
 10
-11.093999954085341
 20
-5.4374999999999707
 30
0.0
  0
SEQEND
  5
77C
  8
OBJECT
  0
LINE
  5
E6
  8
OBJECT
 10
-11.125500000000009
 20
-4.5769999999999982
 30
0.0
 11
-11.125500000000009
 21
-4.766999999999995
 31
0.0
  0
LINE
  5
E7
  8
OBJECT
 10
-10.812499999999989
 20
-5.5309999999999908
 30
0.0
 11
-10.750500000000001
 21
-5.5309999999999908
 31
0.0
  0
LINE
  5
E8
  8
OBJECT
 10
-11.0045
 20
-4.5639999999999921
 30
0.0
 11
-10.874499999999999
 21
-4.5639999999999921
 31
0.0
  0
LINE
  5
E9
  8
OBJECT
 10
-11.0045
 20
-4.7800000000000011
 30
0.0
 11
-10.874499999999999
 21
-4.7800000000000011
 31
0.0
  0
LINE
  5
EA
  8
OBJECT
 10
-11.0045
 20
-4.8879999999999759
 30
0.0
 11
-10.874499999999999
 21
-4.8879999999999759
 31
0.0
  0
LINE
  5
EB
  8
OBJECT
 10
-11.0045
 20
-4.455999999999988
 30
0.0
 11
-10.874499999999999
 21
-4.455999999999988
 31
0.0
  0
LINE
  5
EC
  8
OBJECT
 10
-11.0045
 20
-0.9559999999999888
 30
0.0
 11
-10.874499999999999
 21
-0.9559999999999888
 31
0.0
  0
LINE
  5
ED
  8
OBJECT
 10
-11.125500000000009
 20
-1.076999999999998
 30
0.0
 11
-11.0045
 21
-1.076999999999998
 31
0.0
  0
LINE
  5
EE
  8
OBJECT
 10
-11.125500000000009
 20
-1.266999999999995
 30
0.0
 11
-11.0045
 21
-1.266999999999995
 31
0.0
  0
LINE
  5
EF
  8
OBJECT
 10
-11.125500000000009
 20
-1.266999999999995
 30
0.0
 11
-11.125500000000009
 21
-1.076999999999998
 31
0.0
  0
LINE
  5
F0
  8
OBJECT
 10
-11.0045
 20
-1.0639999999999921
 30
0.0
 11
-10.874499999999999
 21
-1.0639999999999921
 31
0.0
  0
LINE
  5
F1
  8
OBJECT
 10
-11.0045
 20
-1.2800000000000009
 30
0.0
 11
-10.874499999999999
 21
-1.2800000000000009
 31
0.0
  0
LINE
  5
F2
  8
OBJECT
 10
-11.0045
 20
-1.3879999999999759
 30
0.0
 11
-10.874499999999999
 21
-1.388000000000005
 31
0.0
  0
ARC
  5
F3
  8
OBJECT
 10
-10.904110169491521
 20
-1.171999999999997
 30
0.0
 40
0.2716101694915245
 50
304.44075854995629
 51
55.55924145004375
  0
LINE
  5
F4
  8
OBJECT
 10
-11.0045
 20
-0.9559999999999888
 30
0.0
 11
-11.0045
 21
-1.388000000000005
 31
0.0
  0
POLYLINE
  5
F5
  8
OBJECT
 66
     1
 10
0.0
 20
0.0
 30
0.0
 70
     1
  0
VERTEX
  5
77D
  8
OBJECT
 10
-11.249999954085309
 20
-1.6565000000000221
 30
0.0
 42
1.000000163397462
  0
VERTEX
  5
77E
  8
OBJECT
 10
-11.249999999999989
 20
-1.9375
 30
0.0
  0
VERTEX
  5
77F
  8
OBJECT
 10
-11.09400000000001
 20
-1.9375
 30
0.0
 42
0.9999998366025646
  0
VERTEX
  5
780
  8
OBJECT
 10
-11.093999954085341
 20
-1.6565000000000221
 30
0.0
  0
SEQEND
  5
781
  8
OBJECT
  0
LINE
  5
FB
  8
OBJECT
 10
-10.812499999999989
 20
-0.3129999999999882
 30
0.0
 11
-11.499999999999989
 21
-0.3129999999999882
 31
0.0
  0
LINE
  5
FC
  8
OBJECT
 10
-10.626499999999981
 20
0.0
 30
0.0
 11
-10.751499999999981
 21
-0.125
 31
0.0
  0
POLYLINE
  5
FD
  8
OBJECT
 66
     1
 10
0.0
 20
0.0
 30
0.0
 70
     1
  0
VERTEX
  5
782
  8
OBJECT
 10
-11.249999954085309
 20
-0.4065000000000225
 30
0.0
 42
1.000000163397462
  0
VERTEX
  5
783
  8
OBJECT
 10
-11.249999999999989
 20
-0.6875
 30
0.0
  0
VERTEX
  5
784
  8
OBJECT
 10
-11.09400000000001
 20
-0.6875
 30
0.0
 42
0.9999998366025646
  0
VERTEX
  5
785
  8
OBJECT
 10
-11.093999954085341
 20
-0.4065000000000225
 30
0.0
  0
SEQEND
  5
786
  8
OBJECT
  0
LINE
  5
103
  8
OBJECT
 10
-10.751499999999981
 20
-0.3129999999999882
 30
0.0
 11
-10.812499999999989
 21
-0.3129999999999882
 31
0.0
  0
LINE
  5
104
  8
OBJECT
 10
-10.751499999999981
 20
-0.125
 30
0.0
 11
-10.751499999999981
 21
-0.375
 31
0.0
  0
POLYLINE
  5
105
  8
OBJECT
 66
     1
 10
0.0
 20
0.0
 30
0.0
 70
     1
  0
VERTEX
  5
787
  8
OBJECT
 10
-5.874999999999992
 20
-0.375
 30
0.0
  0
VERTEX
  5
788
  8
OBJECT
 10
-5.874999999999992
 20
-0.4219999999999971
 30
0.0
  0
VERTEX
  5
789
  8
OBJECT
 10
-5.3120000000000038
 20
-0.4219999999999971
 30
0.0
 42
-0.4142135623730371
  0
VERTEX
  5
78A
  8
OBJECT
 10
-5.2969999999999891
 20
-0.4369999999999834
 30
0.0
  0
VERTEX
  5
78B
  8
OBJECT
 10
-5.2969999999999891
 20
-4.3599999999999852
 30
0.0
 42
0.4142135623731007
  0
VERTEX
  5
78C
  8
OBJECT
 10
-5.2350000000000056
 20
-4.421999999999997
 30
0.0
  0
VERTEX
  5
78D
  8
OBJECT
 10
5.2349999999999994
 20
-4.421999999999997
 30
0.0
 42
0.4142135623731007
  0
VERTEX
  5
78E
  8
OBJECT
 10
5.2970000000000113
 20
-4.3599999999999852
 30
0.0
  0
VERTEX
  5
78F
  8
OBJECT
 10
5.2970000000000113
 20
-0.4369999999999834
 30
0.0
 42
-0.4142135623730718
  0
VERTEX
  5
790
  8
OBJECT
 10
5.3119999999999967
 20
-0.4219999999999971
 30
0.0
  0
VERTEX
  5
791
  8
OBJECT
 10
5.8749999999999849
 20
-0.4219999999999971
 30
0.0
  0
VERTEX
  5
792
  8
OBJECT
 10
5.8749999999999849
 20
-0.375
 30
0.0
  0
VERTEX
  5
793
  8
OBJECT
 10
5.3119999999999967
 20
-0.375
 30
0.0
 42
0.4142135623730951
  0
VERTEX
  5
794
  8
OBJECT
 10
5.2499999999999849
 20
-0.4369999999999834
 30
0.0
  0
VERTEX
  5
795
  8
OBJECT
 10
5.2499999999999849
 20
-4.3599999999999852
 30
0.0
 42
-0.4142135623730951
  0
VERTEX
  5
796
  8
OBJECT
 10
5.2349999999999994
 20
-4.375
 30
0.0
  0
VERTEX
  5
797
  8
OBJECT
 10
-5.2350000000000056
 20
-4.375
 30
0.0
 42
-0.4142135623730951
  0
VERTEX
  5
798
  8
OBJECT
 10
-5.249999999999992
 20
-4.3599999999999852
 30
0.0
  0
VERTEX
  5
799
  8
OBJECT
 10
-5.249999999999992
 20
-0.4369999999999834
 30
0.0
 42
0.4142135623730951
  0
VERTEX
  5
79A
  8
OBJECT
 10
-5.3120000000000038
 20
-0.375
 30
0.0
  0
SEQEND
  5
79B
  8
OBJECT
  0
LINE
  5
11B
  8
OBJECT
 10
11.500000000000011
 20
-0.3129999999999882
 30
0.0
 11
11.500000000000011
 21
-5.5309999999999908
 31
0.0
  0
LINE
  5
11C
  8
OBJECT
 10
10.750500000000001
 20
-0.375
 30
0.0
 11
10.750500000000001
 21
-5.5309999999999908
 31
0.0
  0
LINE
  5
11D
  8
OBJECT
 10
10.812500000000011
 20
-0.3129999999999882
 30
0.0
 11
10.812500000000011
 21
-5.5309999999999908
 31
0.0
  0
LINE
  5
11E
  8
OBJECT
 10
10.874500000000021
 20
-0.3129999999999882
 30
0.0
 11
10.874500000000021
 21
-5.5309999999999908
 31
0.0
  0
POLYLINE
  5
11F
  8
OBJECT
 66
     1
 10
0.0
 20
0.0
 30
0.0
 70
     1
  0
VERTEX
  5
79C
  8
OBJECT
 10
11.249999954085309
 20
-4.1874999999999707
 30
0.0
 42
1.000000163397462
  0
VERTEX
  5
79D
  8
OBJECT
 10
11.24999999999998
 20
-3.9064999999999648
 30
0.0
  0
VERTEX
  5
79E
  8
OBJECT
 10
11.093999999999999
 20
-3.9064999999999648
 30
0.0
 42
0.9999998366025646
  0
VERTEX
  5
79F
  8
OBJECT
 10
11.09399995408533
 20
-4.1874999999999707
 30
0.0
  0
SEQEND
  5
7A0
  8
OBJECT
  0
ARC
  5
125
  8
OBJECT
 10
10.90411016949154
 20
-4.671999999999997
 30
0.0
 40
0.2716101694915245
 50
124.4407585499562
 51
235.55924145004369
  0
LINE
  5
126
  8
OBJECT
 10
11.00450000000002
 20
-4.8879999999999759
 30
0.0
 11
11.00449999999999
 21
-4.455999999999988
 31
0.0
  0
LINE
  5
127
  8
OBJECT
 10
10.812500000000011
 20
-5.5309999999999908
 30
0.0
 11
11.500000000000011
 21
-5.5309999999999908
 31
0.0
  0
LINE
  5
128
  8
OBJECT
 10
10.750500000000001
 20
-5.5309999999999908
 30
0.0
 11
10.812500000000011
 21
-5.5309999999999908
 31
0.0
  0
POLYLINE
  5
129
  8
OBJECT
 66
     1
 10
0.0
 20
0.0
 30
0.0
 70
     1
  0
VERTEX
  5
7A1
  8
OBJECT
 10
11.249999954085309
 20
-5.4374999999999707
 30
0.0
 42
1.000000163397462
  0
VERTEX
  5
7A2
  8
OBJECT
 10
11.24999999999998
 20
-5.1564999999999648
 30
0.0
  0
VERTEX
  5
7A3
  8
OBJECT
 10
11.093999999999999
 20
-5.1564999999999648
 30
0.0
 42
0.9999998366025646
  0
VERTEX
  5
7A4
  8
OBJECT
 10
11.09399995408533
 20
-5.4374999999999707
 30
0.0
  0
SEQEND
  5
7A5
  8
OBJECT
  0
LINE
  5
12F
  8
OBJECT
 10
11.125500000000001
 20
-4.5769999999999982
 30
0.0
 11
11.125500000000001
 21
-4.766999999999995
 31
0.0
  0
LINE
  5
130
  8
OBJECT
 10
11.125500000000001
 20
-4.766999999999995
 30
0.0
 11
11.00450000000002
 21
-4.766999999999995
 31
0.0
  0
LINE
  5
131
  8
OBJECT
 10
11.125500000000001
 20
-4.5769999999999982
 30
0.0
 11
11.00450000000002
 21
-4.5769999999999982
 31
0.0
  0
LINE
  5
132
  8
OBJECT
 10
11.00450000000002
 20
-4.8879999999999759
 30
0.0
 11
10.874500000000021
 21
-4.8879999999999759
 31
0.0
  0
LINE
  5
133
  8
OBJECT
 10
11.00450000000002
 20
-4.7800000000000011
 30
0.0
 11
10.874500000000021
 21
-4.7800000000000011
 31
0.0
  0
LINE
  5
134
  8
OBJECT
 10
11.00449999999999
 20
-4.5639999999999921
 30
0.0
 11
10.874499999999991
 21
-4.5639999999999921
 31
0.0
  0
LINE
  5
135
  8
OBJECT
 10
11.00449999999999
 20
-4.455999999999988
 30
0.0
 11
10.874499999999991
 21
-4.455999999999988
 31
0.0
  0
ARC
  5
136
  8
OBJECT
 10
10.90411016949154
 20
-1.171999999999997
 30
0.0
 40
0.2716101694915245
 50
124.4407585499562
 51
235.55924145004369
  0
LINE
  5
137
  8
OBJECT
 10
11.00450000000002
 20
-0.9559999999999888
 30
0.0
 11
10.874500000000021
 21
-0.9559999999999888
 31
0.0
  0
LINE
  5
138
  8
OBJECT
 10
11.125500000000001
 20
-1.266999999999995
 30
0.0
 11
11.125500000000001
 21
-1.076999999999998
 31
0.0
  0
LINE
  5
139
  8
OBJECT
 10
11.125500000000001
 20
-1.266999999999995
 30
0.0
 11
11.00450000000002
 21
-1.266999999999995
 31
0.0
  0
LINE
  5
13A
  8
OBJECT
 10
11.125500000000001
 20
-1.076999999999998
 30
0.0
 11
11.00450000000002
 21
-1.076999999999998
 31
0.0
  0
LINE
  5
13B
  8
OBJECT
 10
11.00449999999999
 20
-1.3879999999999759
 30
0.0
 11
10.874499999999991
 21
-1.388000000000005
 31
0.0
  0
LINE
  5
13C
  8
OBJECT
 10
11.00449999999999
 20
-1.2800000000000009
 30
0.0
 11
10.874499999999991
 21
-1.2800000000000009
 31
0.0
  0
LINE
  5
13D
  8
OBJECT
 10
11.00450000000002
 20
-1.0639999999999921
 30
0.0
 11
10.874500000000021
 21
-1.0639999999999921
 31
0.0
  0
LINE
  5
13E
  8
OBJECT
 10
11.00450000000002
 20
-0.9559999999999888
 30
0.0
 11
11.00449999999999
 21
-1.388000000000005
 31
0.0
  0
POLYLINE
  5
13F
  8
OBJECT
 66
     1
 10
0.0
 20
0.0
 30
0.0
 70
     1
  0
VERTEX
  5
7A6
  8
OBJECT
 10
11.249999954085309
 20
-1.6565000000000221
 30
0.0
 42
-1.000000163397462
  0
VERTEX
  5
7A7
  8
OBJECT
 10
11.24999999999998
 20
-1.9375
 30
0.0
  0
VERTEX
  5
7A8
  8
OBJECT
 10
11.093999999999999
 20
-1.9375
 30
0.0
 42
-0.9999998366025646
  0
VERTEX
  5
7A9
  8
OBJECT
 10
11.09399995408533
 20
-1.6565000000000221
 30
0.0
  0
SEQEND
  5
7AA
  8
OBJECT
  0
LINE
  5
145
  8
OBJECT
 10
10.6265
 20
0.0
 30
0.0
 11
10.7515
 21
-0.125
 31
0.0
  0
LINE
  5
146
  8
OBJECT
 10
10.812500000000011
 20
-0.3129999999999882
 30
0.0
 11
11.500000000000011
 21
-0.3129999999999882
 31
0.0
  0
LINE
  5
147
  8
OBJECT
 10
10.7515
 20
-0.3129999999999882
 30
0.0
 11
10.812500000000011
 21
-0.3129999999999882
 31
0.0
  0
LINE
  5
148
  8
OBJECT
 10
10.7515
 20
-0.125
 30
0.0
 11
10.7515
 21
-0.375
 31
0.0
  0
POLYLINE
  5
149
  8
OBJECT
 66
     1
 10
0.0
 20
0.0
 30
0.0
 70
     1
  0
VERTEX
  5
7AB
  8
OBJECT
 10
11.249999954085309
 20
-0.4065000000000225
 30
0.0
 42
-1.000000163397462
  0
VERTEX
  5
7AC
  8
OBJECT
 10
11.24999999999998
 20
-0.6875
 30
0.0
  0
VERTEX
  5
7AD
  8
OBJECT
 10
11.093999999999999
 20
-0.6875
 30
0.0
 42
-0.9999998366025646
  0
VERTEX
  5
7AE
  8
OBJECT
 10
11.09399995408533
 20
-0.4065000000000225
 30
0.0
  0
SEQEND
  5
7AF
  8
OBJECT
  0
ENDBLK
  5
14F
  8
0
  0
BLOCK
  8
0
  2
1767FV
 70
     0
 10
0.0
 20
0.0
 30
0.0
  3
1767FV
  1

  0
LINE
  5
151
  8
OBJECT
 10
10.8125
 20
-0.3749999999999716
 30
0.0
 11
-10.8125
 21
-0.3749999999999716
 31
0.0
  0
LINE
  5
152
  8
OBJECT
 10
10.62649999999997
 20
0.0
 30
0.0
 11
-10.626499999999981
 21
0.0
 31
0.0
  0
POLYLINE
  5
153
  8
OBJECT
 66
     1
 10
0.0
 20
0.0
 30
0.0
 70
     1
  0
VERTEX
  5
7B0
  8
OBJECT
 10
-11.249999954085309
 20
3.4995000000000109
 30
0.0
 42
1.000000163397462
  0
VERTEX
  5
7B1
  8
OBJECT
 10
-11.249999999999989
 20
3.218500000000005
 30
0.0
  0
VERTEX
  5
7B2
  8
OBJECT
 10
-11.09400000000001
 20
3.218500000000005
 30
0.0
 42
0.9999998366025646
  0
VERTEX
  5
7B3
  8
OBJECT
 10
-11.093999954085341
 20
3.4995000000000109
 30
0.0
  0
SEQEND
  5
7B4
  8
OBJECT
  0
LINE
  5
159
  8
OBJECT
 10
-10.812499999999989
 20
4.8430000000000311
 30
0.0
 11
-11.499999999999989
 21
4.8430000000000311
 31
0.0
  0
LINE
  5
15A
  8
OBJECT
 10
-11.125500000000009
 20
3.889000000000038
 30
0.0
 11
-11.0045
 21
3.889000000000038
 31
0.0
  0
LINE
  5
15B
  8
OBJECT
 10
-11.125500000000009
 20
4.0790000000000362
 30
0.0
 11
-11.0045
 21
4.0790000000000362
 31
0.0
  0
POLYLINE
  5
15C
  8
OBJECT
 66
     1
 10
0.0
 20
0.0
 30
0.0
 70
     1
  0
VERTEX
  5
7B5
  8
OBJECT
 10
-11.249999954085309
 20
4.7495000000000109
 30
0.0
 42
1.000000163397462
  0
VERTEX
  5
7B6
  8
OBJECT
 10
-11.249999999999989
 20
4.468500000000005
 30
0.0
  0
VERTEX
  5
7B7
  8
OBJECT
 10
-11.09400000000001
 20
4.468500000000005
 30
0.0
 42
0.9999998366025646
  0
VERTEX
  5
7B8
  8
OBJECT
 10
-11.093999954085341
 20
4.7495000000000109
 30
0.0
  0
SEQEND
  5
7B9
  8
OBJECT
  0
LINE
  5
162
  8
OBJECT
 10
-11.125500000000009
 20
0.3890000000000384
 30
0.0
 11
-11.0045
 21
0.3890000000000384
 31
0.0
  0
LINE
  5
163
  8
OBJECT
 10
-11.125500000000009
 20
0.5790000000000362
 30
0.0
 11
-11.0045
 21
0.5790000000000362
 31
0.0
  0
POLYLINE
  5
164
  8
OBJECT
 66
     1
 10
0.0
 20
0.0
 30
0.0
 70
     1
  0
VERTEX
  5
7BA
  8
OBJECT
 10
-11.249999954085309
 20
0.9685000000000628
 30
0.0
 42
-1.000000163397462
  0
VERTEX
  5
7BB
  8
OBJECT
 10
-11.249999999999989
 20
1.24950000000004
 30
0.0
  0
VERTEX
  5
7BC
  8
OBJECT
 10
-11.09400000000001
 20
1.24950000000004
 30
0.0
 42
-0.9999998366025646
  0
VERTEX
  5
7BD
  8
OBJECT
 10
-11.093999954085341
 20
0.9685000000000628
 30
0.0
  0
SEQEND
  5
7BE
  8
OBJECT
  0
LINE
  5
16A
  8
OBJECT
 10
-10.812499999999989
 20
-0.3749999999999716
 30
0.0
 11
-11.499999999999989
 21
-0.3749999999999716
 31
0.0
  0
POLYLINE
  5
16B
  8
OBJECT
 66
     1
 10
0.0
 20
0.0
 30
0.0
 70
     1
  0
VERTEX
  5
7BF
  8
OBJECT
 10
-11.249999954085309
 20
-0.2814999999999372
 30
0.0
 42
-1.000000163397462
  0
VERTEX
  5
7C0
  8
OBJECT
 10
-11.249999999999989
 20
-0.0004999999999598
 30
0.0
  0
VERTEX
  5
7C1
  8
OBJECT
 10
-11.09400000000001
 20
-0.0004999999999598
 30
0.0
 42
-0.9999998366025646
  0
VERTEX
  5
7C2
  8
OBJECT
 10
-11.093999954085341
 20
-0.2814999999999372
 30
0.0
  0
SEQEND
  5
7C3
  8
OBJECT
  0
LINE
  5
171
  8
OBJECT
 10
-11.499999999999989
 20
-0.3749999999999716
 30
0.0
 11
-11.499999999999989
 21
4.8430000000000311
 31
0.0
  0
LINE
  5
172
  8
OBJECT
 10
-11.125500000000009
 20
0.5790000000000362
 30
0.0
 11
-11.125500000000009
 21
0.3890000000000384
 31
0.0
  0
LINE
  5
173
  8
OBJECT
 10
-11.125500000000009
 20
3.889000000000038
 30
0.0
 11
-11.125500000000009
 21
4.0790000000000362
 31
0.0
  0
LINE
  5
174
  8
OBJECT
 10
-10.750500000000001
 20
-0.3749999999999716
 30
0.0
 11
-10.750500000000001
 21
4.8430000000000311
 31
0.0
  0
LINE
  5
175
  8
OBJECT
 10
-10.812499999999989
 20
-0.3749999999999716
 30
0.0
 11
-10.812499999999989
 21
4.8430000000000311
 31
0.0
  0
LINE
  5
176
  8
OBJECT
 10
-10.874499999999999
 20
-0.3749999999999716
 30
0.0
 11
-10.874499999999999
 21
4.8430000000000311
 31
0.0
  0
ARC
  5
177
  8
OBJECT
 10
-10.904110169491521
 20
0.4840000000000373
 30
0.0
 40
0.2716101694915245
 50
304.44075854995629
 51
55.559241450043729
  0
LINE
  5
178
  8
OBJECT
 10
-11.0045
 20
0.2680000000000291
 30
0.0
 11
-11.0045
 21
0.7000000000000455
 31
0.0
  0
LINE
  5
179
  8
OBJECT
 10
-10.626499999999981
 20
0.0
 30
0.0
 11
-10.751499999999981
 21
-0.125
 31
0.0
  0
LINE
  5
17A
  8
OBJECT
 10
-11.0045
 20
0.2680000000000291
 30
0.0
 11
-10.874499999999999
 21
0.2680000000000291
 31
0.0
  0
LINE
  5
17B
  8
OBJECT
 10
-11.0045
 20
0.3760000000000332
 30
0.0
 11
-10.874499999999999
 21
0.3760000000000332
 31
0.0
  0
LINE
  5
17C
  8
OBJECT
 10
-11.0045
 20
0.5920000000000414
 30
0.0
 11
-10.874499999999999
 21
0.5920000000000414
 31
0.0
  0
LINE
  5
17D
  8
OBJECT
 10
-11.0045
 20
0.7000000000000171
 30
0.0
 11
-10.874499999999999
 21
0.7000000000000455
 31
0.0
  0
LINE
  5
17E
  8
OBJECT
 10
-11.0045
 20
3.8760000000000332
 30
0.0
 11
-10.874499999999999
 21
3.8760000000000332
 31
0.0
  0
LINE
  5
17F
  8
OBJECT
 10
-11.0045
 20
4.0920000000000414
 30
0.0
 11
-10.874499999999999
 21
4.0920000000000414
 31
0.0
  0
LINE
  5
180
  8
OBJECT
 10
-11.0045
 20
3.7680000000000291
 30
0.0
 11
-10.874499999999999
 21
3.7680000000000291
 31
0.0
  0
LINE
  5
181
  8
OBJECT
 10
-10.812499999999989
 20
4.8430000000000311
 30
0.0
 11
-10.750500000000001
 21
4.8430000000000311
 31
0.0
  0
LINE
  5
182
  8
OBJECT
 10
-11.0045
 20
4.2000000000000171
 30
0.0
 11
-10.874499999999999
 21
4.2000000000000171
 31
0.0
  0
LINE
  5
183
  8
OBJECT
 10
-11.0045
 20
4.2000000000000171
 30
0.0
 11
-11.0045
 21
3.7680000000000291
 31
0.0
  0
ARC
  5
184
  8
OBJECT
 10
-10.904110169491521
 20
3.9840000000000368
 30
0.0
 40
0.2716101694915245
 50
304.44075854995629
 51
55.559241450043729
  0
LINE
  5
185
  8
OBJECT
 10
10.8125
 20
-0.3749999999999716
 30
0.0
 11
10.812500000000011
 21
4.8430000000000311
 31
0.0
  0
LINE
  5
186
  8
OBJECT
 10
10.750500000000001
 20
-0.3749999999999716
 30
0.0
 11
10.750500000000001
 21
4.8430000000000311
 31
0.0
  0
LINE
  5
187
  8
OBJECT
 10
11.500000000000011
 20
-0.3749999999999716
 30
0.0
 11
11.500000000000011
 21
4.8430000000000311
 31
0.0
  0
LINE
  5
188
  8
OBJECT
 10
10.874500000000021
 20
-0.3749999999999716
 30
0.0
 11
10.874500000000021
 21
4.8430000000000311
 31
0.0
  0
LINE
  5
189
  8
OBJECT
 10
11.00450000000002
 20
0.2680000000000291
 30
0.0
 11
11.00449999999999
 21
0.7000000000000455
 31
0.0
  0
ARC
  5
18A
  8
OBJECT
 10
10.90411016949154
 20
0.4840000000000373
 30
0.0
 40
0.2716101694915245
 50
124.4407585499562
 51
235.55924145004369
  0
LINE
  5
18B
  8
OBJECT
 10
10.812500000000011
 20
-0.3749999999999716
 30
0.0
 11
11.500000000000011
 21
-0.3749999999999716
 31
0.0
  0
LINE
  5
18C
  8
OBJECT
 10
10.6265
 20
0.0
 30
0.0
 11
10.7515
 21
-0.125
 31
0.0
  0
LINE
  5
18D
  8
OBJECT
 10
11.00450000000002
 20
0.2680000000000291
 30
0.0
 11
10.874500000000021
 21
0.2680000000000291
 31
0.0
  0
POLYLINE
  5
18E
  8
OBJECT
 66
     1
 10
0.0
 20
0.0
 30
0.0
 70
     1
  0
VERTEX
  5
7C4
  8
OBJECT
 10
11.249999954085309
 20
-0.2814999999999372
 30
0.0
 42
1.000000163397462
  0
VERTEX
  5
7C5
  8
OBJECT
 10
11.24999999999998
 20
-0.0004999999999598
 30
0.0
  0
VERTEX
  5
7C6
  8
OBJECT
 10
11.093999999999999
 20
-0.0004999999999598
 30
0.0
 42
0.9999998366025646
  0
VERTEX
  5
7C7
  8
OBJECT
 10
11.09399995408533
 20
-0.2814999999999372
 30
0.0
  0
SEQEND
  5
7C8
  8
OBJECT
  0
LINE
  5
194
  8
OBJECT
 10
11.125500000000001
 20
0.5790000000000362
 30
0.0
 11
11.125500000000001
 21
0.3890000000000384
 31
0.0
  0
LINE
  5
195
  8
OBJECT
 10
11.125500000000001
 20
0.5790000000000362
 30
0.0
 11
11.00450000000002
 21
0.5790000000000362
 31
0.0
  0
LINE
  5
196
  8
OBJECT
 10
11.125500000000001
 20
0.3890000000000384
 30
0.0
 11
11.00450000000002
 21
0.3890000000000384
 31
0.0
  0
LINE
  5
197
  8
OBJECT
 10
11.00449999999999
 20
0.7000000000000171
 30
0.0
 11
10.874499999999991
 21
0.7000000000000455
 31
0.0
  0
LINE
  5
198
  8
OBJECT
 10
11.00449999999999
 20
0.5920000000000414
 30
0.0
 11
10.874499999999991
 21
0.5920000000000414
 31
0.0
  0
LINE
  5
199
  8
OBJECT
 10
11.00450000000002
 20
0.3760000000000332
 30
0.0
 11
10.874500000000021
 21
0.3760000000000332
 31
0.0
  0
POLYLINE
  5
19A
  8
OBJECT
 66
     1
 10
0.0
 20
0.0
 30
0.0
 70
     1
  0
VERTEX
  5
7C9
  8
OBJECT
 10
11.249999954085309
 20
0.9685000000000628
 30
0.0
 42
1.000000163397462
  0
VERTEX
  5
7CA
  8
OBJECT
 10
11.24999999999998
 20
1.24950000000004
 30
0.0
  0
VERTEX
  5
7CB
  8
OBJECT
 10
11.093999999999999
 20
1.24950000000004
 30
0.0
 42
0.9999998366025646
  0
VERTEX
  5
7CC
  8
OBJECT
 10
11.09399995408533
 20
0.9685000000000628
 30
0.0
  0
SEQEND
  5
7CD
  8
OBJECT
  0
LINE
  5
1A0
  8
OBJECT
 10
10.812500000000011
 20
4.8430000000000311
 30
0.0
 11
11.500000000000011
 21
4.8430000000000311
 31
0.0
  0
LINE
  5
1A1
  8
OBJECT
 10
10.750500000000001
 20
4.8430000000000311
 30
0.0
 11
10.812500000000011
 21
4.8430000000000311
 31
0.0
  0
ARC
  5
1A2
  8
OBJECT
 10
10.90411016949154
 20
3.9840000000000368
 30
0.0
 40
0.2716101694915245
 50
124.4407585499562
 51
235.55924145004369
  0
POLYLINE
  5
1A3
  8
OBJECT
 66
     1
 10
0.0
 20
0.0
 30
0.0
 70
     1
  0
VERTEX
  5
7CE
  8
OBJECT
 10
11.249999954085309
 20
3.4995000000000109
 30
0.0
 42
-1.000000163397462
  0
VERTEX
  5
7CF
  8
OBJECT
 10
11.24999999999998
 20
3.218500000000005
 30
0.0
  0
VERTEX
  5
7D0
  8
OBJECT
 10
11.093999999999999
 20
3.218500000000005
 30
0.0
 42
-0.9999998366025646
  0
VERTEX
  5
7D1
  8
OBJECT
 10
11.09399995408533
 20
3.4995000000000109
 30
0.0
  0
SEQEND
  5
7D2
  8
OBJECT
  0
LINE
  5
1A9
  8
OBJECT
 10
11.125500000000001
 20
3.889000000000038
 30
0.0
 11
11.125500000000001
 21
4.0790000000000362
 31
0.0
  0
LINE
  5
1AA
  8
OBJECT
 10
11.125500000000001
 20
4.0790000000000362
 30
0.0
 11
11.00450000000002
 21
4.0790000000000362
 31
0.0
  0
LINE
  5
1AB
  8
OBJECT
 10
11.125500000000001
 20
3.889000000000038
 30
0.0
 11
11.00450000000002
 21
3.889000000000038
 31
0.0
  0
LINE
  5
1AC
  8
OBJECT
 10
11.00450000000002
 20
4.0920000000000414
 30
0.0
 11
10.874500000000021
 21
4.0920000000000414
 31
0.0
  0
LINE
  5
1AD
  8
OBJECT
 10
11.00449999999999
 20
3.8760000000000332
 30
0.0
 11
10.874499999999991
 21
3.8760000000000332
 31
0.0
  0
LINE
  5
1AE
  8
OBJECT
 10
11.00449999999999
 20
3.7680000000000291
 30
0.0
 11
10.874499999999991
 21
3.7680000000000291
 31
0.0
  0
POLYLINE
  5
1AF
  8
OBJECT
 66
     1
 10
0.0
 20
0.0
 30
0.0
 70
     1
  0
VERTEX
  5
7D3
  8
OBJECT
 10
11.249999954085309
 20
4.7495000000000109
 30
0.0
 42
-1.000000163397462
  0
VERTEX
  5
7D4
  8
OBJECT
 10
11.24999999999998
 20
4.468500000000005
 30
0.0
  0
VERTEX
  5
7D5
  8
OBJECT
 10
11.093999999999999
 20
4.468500000000005
 30
0.0
 42
-0.9999998366025646
  0
VERTEX
  5
7D6
  8
OBJECT
 10
11.09399995408533
 20
4.7495000000000109
 30
0.0
  0
SEQEND
  5
7D7
  8
OBJECT
  0
LINE
  5
1B5
  8
OBJECT
 10
11.00450000000002
 20
4.2000000000000171
 30
0.0
 11
10.874500000000021
 21
4.2000000000000171
 31
0.0
  0
LINE
  5
1B6
  8
OBJECT
 10
11.00450000000002
 20
4.2000000000000171
 30
0.0
 11
11.00449999999999
 21
3.7680000000000291
 31
0.0
  0
ENDBLK
  5
1B7
  8
0
  0
BLOCK
  8
0
  2
HB
 70
     0
 10
0.0
 20
0.0
 30
0.0
  3
HB
  1

  0
TEXT
  5
204
  8
TEXT
 10
0.2078333333333363
 20
15.06007919564008
 30
0.0
 40
0.125
  1
NAME
 72
     1
 11
0.437000000000003
 21
15.06007919564008
 31
0.0
  0
TEXT
  5
205
  8
TEXT
 10
0.2078333333333363
 20
15.268412528973411
 30
0.0
 40
0.125
  1
PART
 72
     1
 11
0.437000000000003
 21
15.268412528973411
 31
0.0
  0
TEXT
  5
206
  8
TEXT
 10
5.3719999999999981
 20
15.06007919564008
 30
0.0
 40
0.125
  1
No.
 72
     1
 11
5.4969999999999981
 21
15.06007919564008
 31
0.0
  0
TEXT
  5
207
  8
TEXT
 10
5.2678333333333311
 20
15.268412528973411
 30
0.0
 40
0.125
  1
PART
 72
     1
 11
5.4969999999999981
 21
15.268412528973411
 31
0.0
  0
LINE
  5
208
  8
TITLE
 10
5.8720000000000008
 20
15.438000000000001
 30
0.0
 11
5.8720000000000008
 21
15.019999999999991
 31
0.0
  0
LINE
  5
209
  8
TITLE
 10
5.1220000000000008
 20
15.438000000000001
 30
0.0
 11
5.1220000000000008
 21
15.019999999999991
 31
0.0
  0
LINE
  5
20A
  8
TITLE
 10
5.0599999999999996
 20
15.438000000000001
 30
0.0
 11
5.0599999999999996
 21
15.019999999999991
 31
0.0
  0
LINE
  5
20B
  8
TITLE
 10
0.8120000000000029
 20
15.019999999999991
 30
0.0
 11
0.8120000000000011
 21
15.438000000000001
 31
0.0
  0
LINE
  5
20C
  8
TITLE
 10
0.0620000000000012
 20
15.019999999999991
 30
0.0
 11
10.058
 21
15.019999999999991
 31
0.0
  0
LINE
  5
20D
  8
TITLE
 10
10.058
 20
0.0619999999999994
 30
0.0
 11
0.0619999999999976
 21
0.0620000000000012
 31
0.0
  0
LINE
  5
20E
  8
TITLE
 10
10.058
 20
15.438000000000001
 30
0.0
 11
10.058
 21
0.0619999999999994
 31
0.0
  0
LINE
  5
20F
  8
TITLE
 10
0.0620000000000012
 20
15.438000000000001
 30
0.0
 11
10.058
 21
15.438000000000001
 31
0.0
  0
LINE
  5
210
  8
TITLE
 10
0.0619999999999976
 20
0.0620000000000012
 30
0.0
 11
0.0620000000000012
 21
15.438000000000001
 31
0.0
  0
LINE
  5
211
  8
TITLE
 10
0.0
 20
0.0
 30
0.0
 11
0.0
 21
15.5
 31
0.0
  0
LINE
  5
212
  8
TITLE
 10
10.119999999999999
 20
-0.0000000000000018
 30
0.0
 11
0.0
 21
0.0
 31
0.0
  0
LINE
  5
213
  8
TITLE
 10
10.119999999999999
 20
15.499999999999989
 30
0.0
 11
10.119999999999999
 21
-0.0000000000000018
 31
0.0
  0
LINE
  5
214
  8
TITLE
 10
0.0
 20
15.5
 30
0.0
 11
10.119999999999999
 21
15.499999999999989
 31
0.0
  0
ENDBLK
  5
215
  8
0
  0
BLOCK
  8
0
  2
*D5
 70
     1
 10
0.0
 20
0.0
 30
0.0
  3
*D5
  1

  0
LINE
  5
695
  8
DIM
 62
     0
 10
12.3588738464569
 20
99.127134279232706
 30
0.0
 11
6.723589688446534
 21
99.127134279232706
 31
0.0
  0
LINE
  5
696
  8
DIM
 62
     0
 10
12.3588738464569
 20
37.877134279232678
 30
0.0
 11
6.7235896884465189
 21
37.877134279232678
 31
0.0
  0
LINE
  5
697
  8
DIM
 62
     0
 10
7.560589688446532
 20
97.507134279232687
 30
0.0
 11
7.5605896884465258
 21
69.87463427923268
 31
0.0
  0
LINE
  5
698
  8
DIM
 62
     0
 10
7.5605896884465196
 20
39.497134279232668
 30
0.0
 11
7.5605896884465258
 21
67.129634279232675
 31
0.0
  0
SOLID
  5
699
  8
DIM
 62
     0
 10
7.2905896884465333
 20
97.507134279232687
 30
0.0
 11
7.8305896884465316
 21
97.507134279232687
 31
0.0
 12
7.5605896884465329
 22
99.127134279232706
 32
0.0
 13
7.5605896884465329
 23
99.127134279232706
 33
0.0
  0
SOLID
  5
69A
  8
DIM
 62
     0
 10
7.29058968844652
 20
39.497134279232668
 30
0.0
 11
7.83058968844652
 21
39.497134279232668
 31
0.0
 12
7.5605896884465187
 22
37.877134279232678
 32
0.0
 13
7.5605896884465187
 23
37.877134279232678
 33
0.0
  0
TEXT
  5
69B
  8
DIM
 62
     0
 10
4.115277188446516
 20
67.939634279232678
 30
0.0
 40
1.125
  1
61.250 P.S.
 41
0.75
  0
POINT
  5
69C
  8
DEFPOINTS
 62
     0
 10
12.9258738464569
 20
99.127134279232706
 30
0.0
  0
POINT
  5
69D
  8
DEFPOINTS
 62
     0
 10
12.9258738464569
 20
37.877134279232678
 30
0.0
  0
POINT
  5
69E
  8
DEFPOINTS
 62
     0
 10
7.5605896884465187
 20
37.877134279232678
 30
0.0
  0
ENDBLK
  5
5E0
  8
0
  0
BLOCK
  8
0
  2
*D6
 70
     1
 10
0.0
 20
0.0
 30
0.0
  3
*D6
  1

  0
LINE
  5
68B
  8
DIM
 62
     0
 10
36.789873846456921
 20
99.815134279232709
 30
0.0
 11
40.218470483794889
 21
99.815134279232709
 31
0.0
  0
LINE
  5
68C
  8
DIM
 62
     0
 10
36.773873846456929
 20
33.31513427923268
 30
0.0
 11
40.218470483794881
 21
33.31513427923268
 31
0.0
  0
LINE
  5
68D
  8
DIM
 62
     0
 10
39.381470483794892
 20
98.195134279232704
 30
0.0
 11
39.381470483794878
 21
67.937634279232682
 31
0.0
  0
LINE
  5
68E
  8
DIM
 62
     0
 10
39.381470483794871
 20
34.935134279232678
 30
0.0
 11
39.381470483794878
 21
65.192634279232664
 31
0.0
  0
SOLID
  5
68F
  8
DIM
 62
     0
 10
39.111470483794882
 20
98.195134279232704
 30
0.0
 11
39.651470483794888
 21
98.195134279232704
 31
0.0
 12
39.381470483794892
 22
99.815134279232709
 32
0.0
 13
39.381470483794892
 23
99.815134279232709
 33
0.0
  0
SOLID
  5
690
  8
DIM
 62
     0
 10
39.111470483794868
 20
34.935134279232678
 30
0.0
 11
39.651470483794881
 21
34.935134279232678
 31
0.0
 12
39.381470483794871
 22
33.31513427923268
 32
0.0
 13
39.381470483794871
 23
33.31513427923268
 33
0.0
  0
TEXT
  5
691
  8
DIM
 62
     0
 10
37.412720483794871
 20
66.002634279232694
 30
0.0
 40
1.125
  1
66.500
 41
0.75
  0
POINT
  5
692
  8
DEFPOINTS
 62
     0
 10
36.22287384645692
 20
99.815134279232709
 30
0.0
  0
POINT
  5
693
  8
DEFPOINTS
 62
     0
 10
36.206873846456929
 20
33.31513427923268
 30
0.0
  0
POINT
  5
694
  8
DEFPOINTS
 62
     0
 10
39.381470483794871
 20
33.31513427923268
 30
0.0
  0
ENDBLK
  5
5ED
  8
0
  0
BLOCK
  8
0
  2
*D7
 70
     1
 10
0.0
 20
0.0
 30
0.0
  3
*D7
  1

  0
LINE
  5
6D2
  8
DIM
 62
     0
 10
34.081873846456951
 20
7.5852424565421561
 30
0.0
 11
34.081873846456951
 21
4.1110142449313978
 31
0.0
  0
LINE
  5
6D3
  8
DIM
 62
     0
 10
36.206873846456929
 20
6.3352424565421837
 30
0.0
 11
36.206873846456929
 21
4.1110142449313978
 31
0.0
  0
LINE
  5
6D4
  8
DIM
 62
     0
 10
32.461873846456953
 20
4.9480142449313984
 30
0.0
 11
30.841873846456949
 21
4.9480142449313984
 31
0.0
  0
LINE
  5
6D5
  8
DIM
 62
     0
 10
37.826873846456927
 20
4.9480142449313984
 30
0.0
 11
39.446873846456931
 21
4.9480142449313984
 31
0.0
  0
SOLID
  5
6D6
  8
DIM
 62
     0
 10
32.461873846456953
 20
5.2180142449313971
 30
0.0
 11
32.461873846456953
 21
4.6780142449313979
 31
0.0
 12
34.081873846456951
 22
4.9480142449313984
 32
0.0
 13
34.081873846456951
 23
4.9480142449313984
 33
0.0
  0
SOLID
  5
6D7
  8
DIM
 62
     0
 10
37.826873846456927
 20
5.2180142449313971
 30
0.0
 11
37.826873846456927
 21
4.6780142449313979
 31
0.0
 12
36.206873846456929
 22
4.9480142449313984
 32
0.0
 13
36.206873846456929
 23
4.9480142449313984
 33
0.0
  0
TEXT
  5
6D8
  8
DIM
 62
     0
 10
40.256873846456926
 20
4.3855142449313984
 30
0.0
 40
1.125
  1
2.125
 41
0.75
  0
POINT
  5
6D9
  8
DEFPOINTS
 62
     0
 10
34.081873846456951
 20
8.1522424565421563
 30
0.0
  0
POINT
  5
6DA
  8
DEFPOINTS
 62
     0
 10
36.206873846456929
 20
6.9022424565421838
 30
0.0
  0
POINT
  5
6DB
  8
DEFPOINTS
 62
     0
 10
36.206873846456929
 20
4.9480142449313984
 30
0.0
  0
ENDBLK
  5
5FA
  8
0
  0
BLOCK
  8
0
  2
*D8
 70
     1
 10
0.0
 20
0.0
 30
0.0
  3
*D8
  1

  0
LINE
  5
6A9
  8
DIM
 62
     0
 10
14.081873846456901
 20
7.5852424565421561
 30
0.0
 11
14.081873846456901
 21
4.1110142449313978
 31
0.0
  0
LINE
  5
6AA
  8
DIM
 62
     0
 10
34.081873846456887
 20
7.5852424565421561
 30
0.0
 11
34.081873846456887
 21
4.1110142449313978
 31
0.0
  0
LINE
  5
6AB
  8
DIM
 62
     0
 10
15.7018738464569
 20
4.9480142449313984
 30
0.0
 11
21.443748846456899
 21
4.9480142449313984
 31
0.0
  0
LINE
  5
6AC
  8
DIM
 62
     0
 10
32.461873846456889
 20
4.9480142449313984
 30
0.0
 11
26.7199988464569
 21
4.9480142449313984
 31
0.0
  0
SOLID
  5
6AD
  8
DIM
 62
     0
 10
15.7018738464569
 20
5.2180142449313971
 30
0.0
 11
15.7018738464569
 21
4.6780142449313979
 31
0.0
 12
14.081873846456901
 22
4.9480142449313984
 32
0.0
 13
14.081873846456901
 23
4.9480142449313984
 33
0.0
  0
SOLID
  5
6AE
  8
DIM
 62
     0
 10
32.461873846456889
 20
5.2180142449313971
 30
0.0
 11
32.461873846456889
 21
4.6780142449313979
 31
0.0
 12
34.081873846456887
 22
4.9480142449313984
 32
0.0
 13
34.081873846456887
 23
4.9480142449313984
 33
0.0
  0
TEXT
  5
6AF
  8
DIM
 62
     0
 10
22.25374884645689
 20
4.3855142449313984
 30
0.0
 40
1.125
  1
20.000
 41
0.75
  0
POINT
  5
6B0
  8
DEFPOINTS
 62
     0
 10
14.081873846456901
 20
8.1522424565421563
 30
0.0
  0
POINT
  5
6B1
  8
DEFPOINTS
 62
     0
 10
34.081873846456887
 20
8.1522424565421563
 30
0.0
  0
POINT
  5
6B2
  8
DEFPOINTS
 62
     0
 10
34.081873846456887
 20
4.9480142449313984
 30
0.0
  0
ENDBLK
  5
607
  8
0
  0
BLOCK
  8
0
  2
*D9
 70
     1
 10
0.0
 20
0.0
 30
0.0
  3
*D9
  1

  0
LINE
  5
69F
  8
DIM
 62
     0
 10
11.956873846456901
 20
6.3352424565424403
 30
0.0
 11
11.956873846456901
 21
1.5820142449313981
 31
0.0
  0
LINE
  5
6A0
  8
DIM
 62
     0
 10
36.206873846456922
 20
6.3352424565424403
 30
0.0
 11
36.206873846456922
 21
1.5820142449313981
 31
0.0
  0
LINE
  5
6A1
  8
DIM
 62
     0
 10
13.5768738464569
 20
2.419014244931398
 30
0.0
 11
21.232811346456909
 21
2.419014244931398
 31
0.0
  0
LINE
  5
6A2
  8
DIM
 62
     0
 10
34.586873846456918
 20
2.419014244931398
 30
0.0
 11
26.93093634645691
 21
2.419014244931398
 31
0.0
  0
SOLID
  5
6A3
  8
DIM
 62
     0
 10
13.5768738464569
 20
2.6890142449313981
 30
0.0
 11
13.5768738464569
 21
2.149014244931398
 31
0.0
 12
11.956873846456901
 22
2.419014244931398
 32
0.0
 13
11.956873846456901
 23
2.419014244931398
 33
0.0
  0
SOLID
  5
6A4
  8
DIM
 62
     0
 10
34.586873846456918
 20
2.6890142449313981
 30
0.0
 11
34.586873846456918
 21
2.149014244931398
 31
0.0
 12
36.206873846456922
 22
2.419014244931398
 32
0.0
 13
36.206873846456922
 23
2.419014244931398
 33
0.0
  0
TEXT
  5
6A5
  8
DIM
 62
     0
 10
22.042811346456912
 20
1.856514244931398
 30
0.0
 40
1.125
  1
24.250
 41
0.75
  0
POINT
  5
6A6
  8
DEFPOINTS
 62
     0
 10
11.956873846456901
 20
6.9022424565424396
 30
0.0
  0
POINT
  5
6A7
  8
DEFPOINTS
 62
     0
 10
36.206873846456922
 20
6.9022424565424396
 30
0.0
  0
POINT
  5
6A8
  8
DEFPOINTS
 62
     0
 10
36.206873846456922
 20
2.419014244931398
 30
0.0
  0
ENDBLK
  5
614
  8
0
  0
BLOCK
  8
0
  2
*D10
 70
     1
 10
0.0
 20
0.0
 30
0.0
  3
*D10
  1

  0
LINE
  5
6B3
  8
DIM
 62
     0
 10
13.514873846456959
 20
28.652242456542179
 30
0.0
 11
8.3975896884465175
 21
28.652242456542179
 31
0.0
  0
LINE
  5
6B4
  8
DIM
 62
     0
 10
13.514873846456959
 20
8.1522424565421563
 30
0.0
 11
8.3975896884465122
 21
8.1522424565421581
 31
0.0
  0
LINE
  5
6B5
  8
DIM
 62
     0
 10
9.2345896884465155
 20
27.032242456542178
 30
0.0
 11
9.2345896884465137
 21
19.77474245654216
 31
0.0
  0
LINE
  5
6B6
  8
DIM
 62
     0
 10
9.2345896884465102
 20
9.7722424565421573
 30
0.0
 11
9.2345896884465137
 21
17.02974245654217
 31
0.0
  0
SOLID
  5
6B7
  8
DIM
 62
     0
 10
8.9645896884465142
 20
27.032242456542178
 30
0.0
 11
9.5045896884465151
 21
27.032242456542178
 31
0.0
 12
9.2345896884465173
 22
28.652242456542179
 32
0.0
 13
9.2345896884465173
 23
28.652242456542179
 33
0.0
  0
SOLID
  5
6B8
  8
DIM
 62
     0
 10
8.9645896884465124
 20
9.7722424565421573
 30
0.0
 11
9.5045896884465115
 21
9.7722424565421573
 31
0.0
 12
9.2345896884465102
 22
8.1522424565421581
 32
0.0
 13
9.2345896884465102
 23
8.1522424565421581
 33
0.0
  0
TEXT
  5
6B9
  8
DIM
 62
     0
 10
7.3361521884465111
 20
17.839742456542169
 30
0.0
 40
1.125
  1
20.500
 41
0.75
  0
POINT
  5
6BA
  8
DEFPOINTS
 62
     0
 10
14.081873846456959
 20
28.652242456542179
 30
0.0
  0
POINT
  5
6BB
  8
DEFPOINTS
 62
     0
 10
14.081873846456959
 20
8.1522424565421563
 30
0.0
  0
POINT
  5
6BC
  8
DEFPOINTS
 62
     0
 10
9.2345896884465102
 20
8.1522424565421581
 30
0.0
  0
ENDBLK
  5
621
  8
0
  0
BLOCK
  8
0
  2
*D11
 70
     1
 10
0.0
 20
0.0
 30
0.0
  3
*D11
  1

  0
LINE
  5
6BD
  8
DIM
 62
     0
 10
13.514873846456959
 20
8.1522424565421563
 30
0.0
 11
8.3975896884465122
 21
8.1522424565421581
 31
0.0
  0
LINE
  5
6BE
  8
DIM
 62
     0
 10
11.389873846456929
 20
6.9022424565421838
 30
0.0
 11
8.3975896884465122
 21
6.9022424565421847
 31
0.0
  0
LINE
  5
6BF
  8
DIM
 62
     0
 10
9.2345896884465102
 20
9.7722424565421573
 30
0.0
 11
9.2345896884465102
 21
11.392242456542149
 31
0.0
  0
LINE
  5
6C0
  8
DIM
 62
     0
 10
9.2345896884465102
 20
5.2822424565421846
 30
0.0
 11
9.2345896884465102
 21
3.6622424565421849
 31
0.0
  0
LINE
  5
6C1
  8
DIM
 62
     0
 10
9.2345896884465102
 20
3.6622424565421849
 30
0.0
 11
7.6145896884465101
 21
3.6622424565421849
 31
0.0
  0
SOLID
  5
6C2
  8
DIM
 62
     0
 10
8.9645896884465124
 20
9.7722424565421573
 30
0.0
 11
9.5045896884465115
 21
9.7722424565421573
 31
0.0
 12
9.2345896884465102
 22
8.1522424565421581
 32
0.0
 13
9.2345896884465102
 23
8.1522424565421581
 33
0.0
  0
SOLID
  5
6C3
  8
DIM
 62
     0
 10
8.9645896884465124
 20
5.2822424565421846
 30
0.0
 11
9.5045896884465115
 21
5.2822424565421846
 31
0.0
 12
9.2345896884465102
 22
6.9022424565421847
 32
0.0
 13
9.2345896884465102
 23
6.9022424565421847
 33
0.0
  0
TEXT
  5
6C4
  8
DIM
 62
     0
 10
3.85146468844651
 20
3.0997424565421858
 30
0.0
 40
1.125
  1
1.250
 41
0.75
  0
POINT
  5
6C5
  8
DEFPOINTS
 62
     0
 10
14.081873846456959
 20
8.1522424565421563
 30
0.0
  0
POINT
  5
6C6
  8
DEFPOINTS
 62
     0
 10
11.956873846456929
 20
6.9022424565421838
 30
0.0
  0
POINT
  5
6C7
  8
DEFPOINTS
 62
     0
 10
9.2345896884465102
 20
6.9022424565421847
 30
0.0
  0
ENDBLK
  5
62F
  8
0
  0
BLOCK
  8
0
  2
*D12
 70
     1
 10
0.0
 20
0.0
 30
0.0
  3
*D12
  1

  0
LINE
  5
6C8
  8
DIM
 62
     0
 10
36.773873846456922
 20
6.9022424565424396
 30
0.0
 11
40.218470483794867
 21
6.9022424565424387
 31
0.0
  0
LINE
  5
6C9
  8
DIM
 62
     0
 10
36.773873846456922
 20
29.90224245654241
 30
0.0
 11
40.218470483794881
 21
29.90224245654241
 31
0.0
  0
LINE
  5
6CA
  8
DIM
 62
     0
 10
39.381470483794871
 20
8.5222424565424397
 30
0.0
 11
39.381470483794871
 21
17.029742456542419
 31
0.0
  0
LINE
  5
6CB
  8
DIM
 62
     0
 10
39.381470483794871
 20
28.282242456542399
 30
0.0
 11
39.381470483794871
 21
19.77474245654242
 31
0.0
  0
SOLID
  5
6CC
  8
DIM
 62
     0
 10
39.111470483794861
 20
8.5222424565424397
 30
0.0
 11
39.651470483794867
 21
8.5222424565424397
 31
0.0
 12
39.381470483794871
 22
6.9022424565424387
 32
0.0
 13
39.381470483794871
 23
6.9022424565424387
 33
0.0
  0
SOLID
  5
6CD
  8
DIM
 62
     0
 10
39.111470483794868
 20
28.282242456542399
 30
0.0
 11
39.651470483794881
 21
28.282242456542399
 31
0.0
 12
39.381470483794871
 22
29.90224245654241
 32
0.0
 13
39.381470483794871
 23
29.90224245654241
 33
0.0
  0
TEXT
  5
6CE
  8
DIM
 62
     0
 10
37.483032983794871
 20
17.839742456542421
 30
0.0
 40
1.125
  1
23.000
 41
0.75
  0
POINT
  5
6CF
  8
DEFPOINTS
 62
     0
 10
36.206873846456922
 20
6.9022424565424396
 30
0.0
  0
POINT
  5
6D0
  8
DEFPOINTS
 62
     0
 10
36.206873846456922
 20
29.90224245654241
 30
0.0
  0
POINT
  5
6D1
  8
DEFPOINTS
 62
     0
 10
39.381470483794871
 20
29.90224245654241
 30
0.0
  0
ENDBLK
  5
63C
  8
0
  0
BLOCK
  8
0
  2
*D13
 70
     1
 10
0.0
 20
0.0
 30
0.0
  3
*D13
  1

  0
LINE
  5
6E6
  8
DIM
 62
     0
 10
34.957873846456927
 20
92.130081216576585
 30
0.0
 11
34.957873846456927
 21
91.293081216576581
 31
0.0
  0
LINE
  5
6E7
  8
DIM
 62
     0
 10
13.20587384645693
 20
92.130081216576585
 30
0.0
 11
13.20587384645693
 21
91.293081216576581
 31
0.0
  0
LINE
  5
6E8
  8
DIM
 62
     0
 10
33.33787384645693
 20
92.130081216576585
 30
0.0
 11
26.860623846456921
 21
92.130081216576585
 31
0.0
  0
LINE
  5
6E9
  8
DIM
 62
     0
 10
14.825873846456931
 20
92.130081216576585
 30
0.0
 11
21.303123846456931
 21
92.130081216576585
 31
0.0
  0
SOLID
  5
6EA
  8
DIM
 62
     0
 10
33.33787384645693
 20
92.400081216576567
 30
0.0
 11
33.33787384645693
 21
91.860081216576589
 31
0.0
 12
34.957873846456927
 22
92.130081216576585
 32
0.0
 13
34.957873846456927
 23
92.130081216576585
 33
0.0
  0
SOLID
  5
6EB
  8
DIM
 62
     0
 10
14.825873846456931
 20
92.400081216576567
 30
0.0
 11
14.825873846456931
 21
91.860081216576589
 31
0.0
 12
13.20587384645693
 22
92.130081216576585
 32
0.0
 13
13.20587384645693
 23
92.130081216576585
 33
0.0
  0
TEXT
  5
6EC
  8
DIM
 62
     0
 10
22.113123846456929
 20
91.567581216576585
 30
0.0
 40
1.125
  1
21.752
 41
0.75
  0
POINT
  5
6ED
  8
DEFPOINTS
 62
     0
 10
34.957873846456927
 20
92.697081216576564
 30
0.0
  0
POINT
  5
6EE
  8
DEFPOINTS
 62
     0
 10
13.20587384645693
 20
92.697081216576564
 30
0.0
  0
POINT
  5
6EF
  8
DEFPOINTS
 62
     0
 10
13.20587384645693
 20
92.130081216576585
 30
0.0
  0
ENDBLK
  5
649
  8
0
  0
BLOCK
  8
0
  2
*D14
 70
     1
 10
0.0
 20
0.0
 30
0.0
  3
*D14
  1

  0
LINE
  5
6DC
  8
DIM
 62
     0
 10
12.9258738464569
 20
88.319134279232657
 30
0.0
 11
12.9258738464569
 21
89.987328379214134
 31
0.0
  0
LINE
  5
6DD
  8
DIM
 62
     0
 10
35.237873846456949
 20
88.319134279232657
 30
0.0
 11
35.237873846456949
 21
89.987328379214134
 31
0.0
  0
LINE
  5
6DE
  8
DIM
 62
     0
 10
14.5458738464569
 20
89.150328379214145
 30
0.0
 11
21.303123846456931
 21
89.150328379214145
 31
0.0
  0
LINE
  5
6DF
  8
DIM
 62
     0
 10
33.617873846456959
 20
89.150328379214145
 30
0.0
 11
26.860623846456921
 21
89.150328379214145
 31
0.0
  0
SOLID
  5
6E0
  8
DIM
 62
     0
 10
14.5458738464569
 20
89.420328379214155
 30
0.0
 11
14.5458738464569
 21
88.880328379214134
 31
0.0
 12
12.9258738464569
 22
89.150328379214145
 32
0.0
 13
12.9258738464569
 23
89.150328379214145
 33
0.0
  0
SOLID
  5
6E1
  8
DIM
 62
     0
 10
33.617873846456959
 20
89.420328379214155
 30
0.0
 11
33.617873846456959
 21
88.880328379214134
 31
0.0
 12
35.237873846456949
 22
89.150328379214145
 32
0.0
 13
35.237873846456949
 23
89.150328379214145
 33
0.0
  0
TEXT
  5
6E2
  8
DIM
 62
     0
 10
22.113123846456929
 20
88.587828379214145
 30
0.0
 40
1.125
  1
22.312
 41
0.75
  0
POINT
  5
6E3
  8
DEFPOINTS
 62
     0
 10
12.9258738464569
 20
87.752134279232664
 30
0.0
  0
POINT
  5
6E4
  8
DEFPOINTS
 62
     0
 10
35.237873846456949
 20
87.752134279232664
 30
0.0
  0
POINT
  5
6E5
  8
DEFPOINTS
 62
     0
 10
35.237873846456949
 20
89.150328379214145
 30
0.0
  0
ENDBLK
  5
656
  8
0
  0
BLOCK
  8
0
  2
*D15
 70
     1
 10
0.0
 20
0.0
 30
0.0
  3
*D15
  1

  0
LINE
  5
6F0
  8
DIM
 62
     0
 10
63.04015663025001
 20
33.123134279232659
 30
0.0
 11
63.04015663025001
 21
27.855215365140069
 31
0.0
  0
LINE
  5
6F1
  8
DIM
 62
     0
 10
60.04015663025001
 20
33.123134279232659
 30
0.0
 11
60.04015663025001
 21
27.855215365140069
 31
0.0
  0
LINE
  5
6F2
  8
DIM
 62
     0
 10
64.660156630250015
 20
28.692215365140068
 30
0.0
 11
66.280156630250019
 21
28.692215365140068
 31
0.0
  0
LINE
  5
6F3
  8
DIM
 62
     0
 10
58.420156630250013
 20
28.692215365140068
 30
0.0
 11
56.800156630250022
 21
28.692215365140068
 31
0.0
  0
SOLID
  5
6F4
  8
DIM
 62
     0
 10
64.660156630250015
 20
28.962215365140072
 30
0.0
 11
64.660156630250015
 21
28.422215365140069
 31
0.0
 12
63.04015663025001
 22
28.692215365140068
 32
0.0
 13
63.04015663025001
 23
28.692215365140068
 33
0.0
  0
SOLID
  5
6F5
  8
DIM
 62
     0
 10
58.420156630250013
 20
28.962215365140072
 30
0.0
 11
58.420156630250013
 21
28.422215365140069
 31
0.0
 12
60.04015663025001
 22
28.692215365140068
 32
0.0
 13
60.04015663025001
 23
28.692215365140068
 33
0.0
  0
TEXT
  5
6F6
  8
DIM
 62
     0
 10
53.037031630250013
 20
28.129715365140068
 30
0.0
 40
1.125
  1
3.000
 41
0.75
  0
POINT
  5
6F7
  8
DEFPOINTS
 62
     0
 10
63.04015663025001
 20
33.690134279232659
 30
0.0
  0
POINT
  5
6F8
  8
DEFPOINTS
 62
     0
 10
60.04015663025001
 20
33.690134279232659
 30
0.0
  0
POINT
  5
6F9
  8
DEFPOINTS
 62
     0
 10
60.04015663025001
 20
28.692215365140068
 30
0.0
  0
ENDBLK
  5
663
  8
0
  0
BLOCK
  8
0
  2
*D16
 70
     1
 10
0.0
 20
0.0
 30
0.0
  3
*D16
  1

  0
LINE
  5
704
  8
DIM
 62
     0
 10
60.04015663025001
 20
33.123134279232673
 30
0.0
 11
60.04015663025001
 21
30.384215365140069
 31
0.0
  0
LINE
  5
705
  8
DIM
 62
     0
 10
50.04015663025001
 20
32.748134279232687
 30
0.0
 11
50.04015663025001
 21
30.384215365140069
 31
0.0
  0
LINE
  5
706
  8
DIM
 62
     0
 10
58.420156630250013
 20
31.221215365140068
 30
0.0
 11
57.537656630250019
 21
31.221215365140068
 31
0.0
  0
LINE
  5
707
  8
DIM
 62
     0
 10
51.660156630250007
 20
31.221215365140068
 30
0.0
 11
52.542656630250022
 21
31.221215365140068
 31
0.0
  0
SOLID
  5
708
  8
DIM
 62
     0
 10
58.420156630250013
 20
31.491215365140071
 30
0.0
 11
58.420156630250013
 21
30.951215365140069
 31
0.0
 12
60.04015663025001
 22
31.221215365140068
 32
0.0
 13
60.04015663025001
 23
31.221215365140068
 33
0.0
  0
SOLID
  5
709
  8
DIM
 62
     0
 10
51.660156630250007
 20
31.491215365140071
 30
0.0
 11
51.660156630250007
 21
30.951215365140069
 31
0.0
 12
50.04015663025001
 22
31.221215365140068
 32
0.0
 13
50.04015663025001
 23
31.221215365140068
 33
0.0
  0
TEXT
  5
70A
  8
DIM
 62
     0
 10
53.35265663025001
 20
30.658715365140068
 30
0.0
 40
1.125
  1
10.000
 41
0.75
  0
POINT
  5
70B
  8
DEFPOINTS
 62
     0
 10
60.04015663025001
 20
33.69013427923268
 30
0.0
  0
POINT
  5
70C
  8
DEFPOINTS
 62
     0
 10
50.04015663025001
 20
33.315134279232687
 30
0.0
  0
POINT
  5
70D
  8
DEFPOINTS
 62
     0
 10
50.04015663025001
 20
31.221215365140068
 30
0.0
  0
ENDBLK
  5
670
  8
0
  0
BLOCK
  8
0
  2
*D17
 70
     1
 10
0.0
 20
0.0
 30
0.0
  3
*D17
  1

  0
LINE
  5
6FA
  8
DIM
 62
     0
 10
59.223156630250017
 20
36.815134279232687
 30
0.0
 11
46.594256437860253
 21
36.815134279232701
 31
0.0
  0
LINE
  5
6FB
  8
DIM
 62
     0
 10
49.47315663025001
 20
33.315134279232687
 30
0.0
 11
46.594256437860253
 21
33.315134279232701
 31
0.0
  0
LINE
  5
6FC
  8
DIM
 62
     0
 10
47.431256437860263
 20
38.435134279232692
 30
0.0
 11
47.431256437860263
 21
40.055134279232703
 31
0.0
  0
LINE
  5
6FD
  8
DIM
 62
     0
 10
47.431256437860263
 20
31.69513427923269
 30
0.0
 11
47.431256437860263
 21
30.075134279232699
 31
0.0
  0
SOLID
  5
6FE
  8
DIM
 62
     0
 10
47.16125643786026
 20
38.435134279232692
 30
0.0
 11
47.701256437860259
 21
38.435134279232692
 31
0.0
 12
47.431256437860263
 22
36.815134279232701
 32
0.0
 13
47.431256437860263
 23
36.815134279232701
 33
0.0
  0
SOLID
  5
6FF
  8
DIM
 62
     0
 10
47.16125643786026
 20
31.69513427923269
 30
0.0
 11
47.701256437860259
 21
31.69513427923269
 31
0.0
 12
47.431256437860263
 22
33.315134279232701
 32
0.0
 13
47.431256437860263
 23
33.315134279232701
 33
0.0
  0
TEXT
  5
700
  8
DIM
 62
     0
 10
45.884381437860249
 20
34.502634279232709
 30
0.0
 40
1.125
  1
3.500
 41
0.75
  0
POINT
  5
701
  8
DEFPOINTS
 62
     0
 10
59.790156630250017
 20
36.815134279232687
 30
0.0
  0
POINT
  5
702
  8
DEFPOINTS
 62
     0
 10
50.04015663025001
 20
33.315134279232687
 30
0.0
  0
POINT
  5
703
  8
DEFPOINTS
 62
     0
 10
47.431256437860263
 20
33.315134279232701
 30
0.0
  0
ENDBLK
  5
67D
  8
0
  0
BLOCK
  8
0
  2
*D18
 70
     1
 10
0.0
 20
0.0
 30
0.0
  3
*D18
  1

  0
LINE
  5
70E
  8
DIM
 62
     0
 10
63.04015663025001
 20
33.123134279232673
 30
0.0
 11
63.04015663025001
 21
30.384215365140069
 31
0.0
  0
LINE
  5
70F
  8
DIM
 62
     0
 10
73.040156630250024
 20
32.748134279232687
 30
0.0
 11
73.040156630250024
 21
30.384215365140069
 31
0.0
  0
LINE
  5
710
  8
DIM
 62
     0
 10
64.660156630250015
 20
31.221215365140068
 30
0.0
 11
65.542656630250008
 21
31.221215365140068
 31
0.0
  0
LINE
  5
711
  8
DIM
 62
     0
 10
71.42015663025002
 20
31.221215365140068
 30
0.0
 11
70.537656630250012
 21
31.221215365140068
 31
0.0
  0
SOLID
  5
712
  8
DIM
 62
     0
 10
64.660156630250015
 20
31.491215365140071
 30
0.0
 11
64.660156630250015
 21
30.951215365140069
 31
0.0
 12
63.04015663025001
 22
31.221215365140068
 32
0.0
 13
63.04015663025001
 23
31.221215365140068
 33
0.0
  0
SOLID
  5
713
  8
DIM
 62
     0
 10
71.42015663025002
 20
31.491215365140071
 30
0.0
 11
71.42015663025002
 21
30.951215365140069
 31
0.0
 12
73.040156630250024
 22
31.221215365140068
 32
0.0
 13
73.040156630250024
 23
31.221215365140068
 33
0.0
  0
TEXT
  5
714
  8
DIM
 62
     0
 10
66.35265663025001
 20
30.658715365140068
 30
0.0
 40
1.125
  1
10.000
 41
0.75
  0
POINT
  5
715
  8
DEFPOINTS
 62
     0
 10
63.04015663025001
 20
33.69013427923268
 30
0.0
  0
POINT
  5
716
  8
DEFPOINTS
 62
     0
 10
73.040156630250024
 20
33.315134279232687
 30
0.0
  0
POINT
  5
717
  8
DEFPOINTS
 62
     0
 10
73.040156630250024
 20
31.221215365140068
 30
0.0
  0
ENDBLK
  5
68A
  8
0
  0
ENDSEC
  0
SECTION
  2
ENTITIES
  0
LINE
  5
276
  8
HIDDEN
 10
12.127873846456909
 20
33.690134279232687
 30
0.0
 11
12.127873846456909
 21
99.815134279232709
 31
0.0
  0
LINE
  5
277
  8
HIDDEN
 10
36.035873846456909
 20
33.690134279232687
 30
0.0
 11
36.03587384645693
 21
99.815134279232709
 31
0.0
  0
LINE
  5
278
  8
HIDDEN
 10
62.85315663025002
 20
33.69013427923268
 30
0.0
 11
62.85315663025002
 21
99.815134279232694
 31
0.0
  0
LINE
  5
279
  8
HIDDEN
 10
60.227156630250008
 20
33.69013427923268
 30
0.0
 11
60.227156630250008
 21
99.815134279232694
 31
0.0
  0
LINE
  5
27A
  8
OBJECT
 10
13.20587384645691
 20
74.643134279232683
 30
0.0
 11
13.2058738464569
 21
36.815134279232687
 31
0.0
  0
LINE
  5
27B
  8
OBJECT
 10
34.957873846456927
 20
74.643134279232683
 30
0.0
 11
34.957873846456891
 21
36.81513427923268
 31
0.0
  0
DIMENSION
  5
27C
  8
DIM
  2
*D5
 10
7.5605896884465187
 20
37.877134279232678
 30
0.0
 11
7.560589688446516
 21
68.502134279232678
 31
0.0
 70
     0
  1
<> P.S.
 13
12.9258738464569
 23
99.127134279232706
 33
0.0
 14
12.9258738464569
 24
37.877134279232678
 34
0.0
 50
90.0
  0
DIMENSION
  5
27D
  8
DIM
  2
*D6
 10
39.381470483794871
 20
33.31513427923268
 30
0.0
 11
39.381470483794871
 21
66.565134279232694
 31
0.0
 70
     0
 13
36.22287384645692
 23
99.815134279232709
 33
0.0
 14
36.206873846456929
 24
33.31513427923268
 34
0.0
 50
270.0
  0
LINE
  5
27E
  8
OBJECT
 10
11.94087384645691
 20
33.690134279232687
 30
0.0
 11
11.94087384645691
 21
99.815134279232709
 31
0.0
  0
LINE
  5
27F
  8
OBJECT
 10
36.222873846456913
 20
33.690134279232687
 30
0.0
 11
36.222873846456928
 21
99.815134279232709
 31
0.0
  0
LINE
  5
280
  8
OBJECT
 10
60.04015663025001
 20
33.69013427923268
 30
0.0
 11
60.04015663025001
 21
99.815134279232694
 31
0.0
  0
LINE
  5
281
  8
OBJECT
 10
63.04015663025001
 20
33.69013427923268
 30
0.0
 11
63.04015663025001
 21
99.815134279232694
 31
0.0
  0
LINE
  5
282
  8
HIDDEN
 10
36.206873846456922
 20
16.652242456542179
 30
0.0
 11
11.956873846456901
 21
16.652242456542179
 31
0.0
  0
LINE
  5
283
  8
HIDDEN
 10
36.206873846456922
 20
20.152242456542179
 30
0.0
 11
11.956873846456901
 21
20.152242456542179
 31
0.0
  0
POLYLINE
  5
284
  8
DIM
 66
     1
 10
0.0
 20
0.0
 30
0.0
 41
0.6075
  0
VERTEX
  5
7D8
  8
DIM
 10
14.01366050538264
 20
29.02098618882723
 30
0.0
  0
VERTEX
  5
7D9
  8
DIM
 10
12.84761988387821
 20
30.145596907699119
 30
0.0
 41
0.0
  0
VERTEX
  5
7DA
  8
DIM
 10
10.800863581514349
 20
32.119631117233958
 30
0.0
 41
0.0
  0
VERTEX
  5
7DB
  8
DIM
 10
9.1808635815143518
 20
32.119631117233958
 30
0.0
 41
0.0
  0
SEQEND
  5
7DC
  8
DIM
  0
INSERT
  5
28A
  8
OBJECT
  2
1767FV
 10
24.081873846456929
 20
38.252134279232642
 30
0.0
  0
INSERT
  5
28B
  8
OBJECT
  2
1767FV
 10
24.081873846456929
 20
55.768134279232669
 30
0.0
  0
LINE
  5
28C
  8
OBJECT
 10
36.206873846456922
 20
6.9022424565424396
 30
0.0
 11
11.956873846456901
 21
6.9022424565421838
 31
0.0
  0
LINE
  5
28D
  8
OBJECT
 10
36.206873846456922
 20
29.902242456542179
 30
0.0
 11
11.956873846456901
 21
29.902242456542179
 31
0.0
  0
DIMENSION
  5
28E
  8
DIM
  2
*D7
 10
36.206873846456929
 20
4.9480142449313984
 30
0.0
 11
41.803748846456926
 21
4.9480142449313984
 31
0.0
 70
     0
  1
<>
 13
34.081873846456951
 23
8.1522424565421563
 33
0.0
 14
36.206873846456929
 24
6.9022424565421838
 34
0.0
  0
LINE
  5
28F
  8
OBJECT
 10
36.206873846456922
 20
19.902242456542179
 30
0.0
 11
11.956873846456901
 21
19.902242456542179
 31
0.0
  0
LINE
  5
290
  8
OBJECT
 10
36.206873846456922
 20
16.902242456542179
 30
0.0
 11
11.956873846456901
 21
16.902242456542179
 31
0.0
  0
DIMENSION
  5
291
  8
DIM
  2
*D8
 10
34.081873846456887
 20
4.9480142449313984
 30
0.0
 11
24.081873846456901
 21
4.9480142449313984
 31
0.0
 70
     0
  1
<>
 13
14.081873846456901
 23
8.1522424565421563
 33
0.0
 14
34.081873846456887
 24
8.1522424565421563
 34
0.0
  0
DIMENSION
  5
292
  8
DIM
  2
*D9
 10
36.206873846456922
 20
2.419014244931398
 30
0.0
 11
24.081873846456912
 21
2.419014244931398
 31
0.0
 70
     0
 13
11.956873846456901
 23
6.9022424565424396
 33
0.0
 14
36.206873846456922
 24
6.9022424565424396
 34
0.0
  0
LINE
  5
293
  8
OBJECT
 10
36.206873846456922
 20
33.56513427923268
 30
0.0
 11
11.956873846456901
 21
33.56513427923268
 31
0.0
  0
LINE
  5
294
  8
OBJECT
 10
11.956873846456901
 20
36.815134279232687
 30
0.0
 11
36.206873846456908
 21
36.815134279232687
 31
0.0
  0
LINE
  5
295
  8
OBJECT
 10
36.206873846456922
 20
33.31513427923268
 30
0.0
 11
11.956873846456901
 21
33.31513427923268
 31
0.0
  0
DIMENSION
  5
296
  8
DIM
  2
*D10
 10
9.2345896884465102
 20
8.1522424565421581
 30
0.0
 11
9.2345896884465102
 21
18.402242456542169
 31
0.0
 70
     0
 13
14.081873846456959
 23
28.652242456542179
 33
0.0
 14
14.081873846456959
 24
8.1522424565421563
 34
0.0
 50
270.0
  0
LINE
  5
297
  8
OBJECT
 10
11.956873846456901
 20
19.902242456542179
 30
0.0
 11
11.956873846456901
 21
25.902242456542179
 31
0.0
  0
LINE
  5
298
  8
OBJECT
 10
11.956873846456901
 20
19.902242456542179
 30
0.0
 11
11.956873846456901
 21
29.902242456542179
 31
0.0
  0
DIMENSION
  5
299
  8
DIM
  2
*D11
 10
9.2345896884465102
 20
6.9022424565421847
 30
0.0
 11
5.3280271884465096
 21
3.6622424565421858
 31
0.0
 70
     0
 13
14.081873846456959
 23
8.1522424565421563
 33
0.0
 14
11.956873846456929
 24
6.9022424565421838
 34
0.0
 50
270.0
  0
LINE
  5
29A
  8
OBJECT
 10
11.956873846456901
 20
16.902242456542179
 30
0.0
 11
11.956873846456901
 21
6.9022424565421838
 31
0.0
  0
CIRCLE
  5
29B
  8
OBJECT
 10
14.081873846456901
 20
8.1522424565421847
 30
0.0
 40
0.375
  0
LINE
  5
29C
  8
OBJECT
 10
13.20687384645688
 20
19.902242456542179
 30
0.0
 11
13.20687384645688
 21
16.902242456542179
 31
0.0
  0
POLYLINE
  5
29D
  8
OBJECT
 66
     1
 10
0.0
 20
0.0
 30
0.0
 70
     1
  0
VERTEX
  5
7DD
  8
OBJECT
 10
13.205873846456869
 20
16.999242456542159
 30
0.0
 42
0.4142135623730951
  0
VERTEX
  5
7DE
  8
OBJECT
 10
13.11587384645687
 20
17.089242456542159
 30
0.0
  0
VERTEX
  5
7DF
  8
OBJECT
 10
12.31487384645688
 20
17.089242456542131
 30
0.0
 42
-0.4142135623730969
  0
VERTEX
  5
7E0
  8
OBJECT
 10
12.096873846456891
 20
17.307242456542149
 30
0.0
  0
VERTEX
  5
7E1
  8
OBJECT
 10
12.096873846456891
 20
19.49724245654215
 30
0.0
 42
-0.4142135623730922
  0
VERTEX
  5
7E2
  8
OBJECT
 10
12.31487384645691
 20
19.715242456542171
 30
0.0
  0
VERTEX
  5
7E3
  8
OBJECT
 10
13.11587384645687
 20
19.715242456542171
 30
0.0
 42
0.4142135623730927
  0
VERTEX
  5
7E4
  8
OBJECT
 10
13.205873846456869
 20
19.805242456542171
 30
0.0
  0
VERTEX
  5
7E5
  8
OBJECT
 10
13.205873846456869
 20
19.902242456542179
 30
0.0
  0
VERTEX
  5
7E6
  8
OBJECT
 10
11.94087384645691
 20
19.902242456542179
 30
0.0
  0
VERTEX
  5
7E7
  8
OBJECT
 10
11.94087384645691
 20
16.902242456542179
 30
0.0
  0
VERTEX
  5
7E8
  8
OBJECT
 10
13.205873846456869
 20
16.902242456542179
 30
0.0
  0
SEQEND
  5
7E9
  8
OBJECT
  0
TEXT
  5
2AB
  8
DIM
 10
1.6208635815143491
 20
29.682131117233968
 30
0.0
 40
1.125
  1
(4) HOLES
 41
0.75
 72
     2
 11
8.3708635815143495
 21
30.244631117233968
 31
0.0
 73
     2
  0
TEXT
  5
2AC
  8
DIM
 10
1.9021135815143491
 20
31.557131117233961
 30
0.0
 40
1.125
  1
0.750 DIA.
 41
0.75
 72
     2
 11
8.3708635815143495
 21
32.119631117233958
 31
0.0
 73
     2
  0
CIRCLE
  5
2AD
  8
OBJECT
 10
14.081873846456901
 20
28.652242456542211
 30
0.0
 40
0.375
  0
CIRCLE
  5
2AE
  8
OBJECT
 10
12.9258738464569
 20
37.627134279232678
 30
0.0
 40
0.0885
  0
POLYLINE
  5
2AF
  8
BEND
 66
     1
 10
0.0
 20
0.0
 30
0.0
 70
     1
  0
VERTEX
  5
7EA
  8
BEND
 10
12.23737384645689
 20
34.384712320110928
 30
0.0
  0
VERTEX
  5
7EB
  8
BEND
 10
12.54987384645689
 20
34.204290360989177
 30
0.0
  0
VERTEX
  5
7EC
  8
BEND
 10
12.86237384645689
 20
34.384712320110928
 30
0.0
  0
VERTEX
  5
7ED
  8
BEND
 10
12.86237384645689
 20
34.745556238354453
 30
0.0
  0
VERTEX
  5
7EE
  8
BEND
 10
12.54987384645689
 20
34.925978197476212
 30
0.0
  0
VERTEX
  5
7EF
  8
BEND
 10
12.23737384645689
 20
34.745556238354453
 30
0.0
  0
SEQEND
  5
7F0
  8
BEND
  0
LINE
  5
2B7
  8
OBJECT
 10
11.956873846456901
 20
33.31513427923268
 30
0.0
 11
11.956873846456901
 21
36.815134279232687
 31
0.0
  0
CIRCLE
  5
2B8
  8
OBJECT
 10
12.9258738464569
 20
37.002134279232678
 30
0.0
 40
0.0885
  0
POLYLINE
  5
2B9
  8
BEND
 66
     1
 10
0.0
 20
0.0
 30
0.0
 70
     1
  0
VERTEX
  5
7F1
  8
BEND
 10
12.86237384645689
 20
36.245556238354439
 30
0.0
  0
VERTEX
  5
7F2
  8
BEND
 10
12.54987384645689
 20
36.425978197476191
 30
0.0
  0
VERTEX
  5
7F3
  8
BEND
 10
12.23737384645689
 20
36.245556238354439
 30
0.0
  0
VERTEX
  5
7F4
  8
BEND
 10
12.23737384645689
 20
35.884712320110921
 30
0.0
  0
VERTEX
  5
7F5
  8
BEND
 10
12.54987384645689
 20
35.704290360989162
 30
0.0
  0
VERTEX
  5
7F6
  8
BEND
 10
12.86237384645689
 20
35.884712320110921
 30
0.0
  0
SEQEND
  5
7F7
  8
BEND
  0
CIRCLE
  5
2C1
  8
OBJECT
 10
12.9258738464569
 20
38.127134279232671
 30
0.0
 40
0.0885
  0
CIRCLE
  5
2C2
  8
OBJECT
 10
12.9258738464569
 20
39.377134279232671
 30
0.0
 40
0.0885
  0
CIRCLE
  5
2C3
  8
OBJECT
 10
12.9258738464569
 20
41.627134279232671
 30
0.0
 40
0.0885
  0
CIRCLE
  5
2C4
  8
OBJECT
 10
12.9258738464569
 20
42.877134279232671
 30
0.0
 40
0.0885
  0
CIRCLE
  5
2C5
  8
OBJECT
 10
12.9258738464569
 20
45.752134279232678
 30
0.0
 40
0.0885
  0
CIRCLE
  5
2C6
  8
OBJECT
 10
12.9258738464569
 20
44.002134279232678
 30
0.0
 40
0.0885
  0
CIRCLE
  5
2C7
  8
OBJECT
 10
12.9258738464569
 20
43.377134279232678
 30
0.0
 40
0.0885
  0
CIRCLE
  5
2C8
  8
OBJECT
 10
12.9258738464569
 20
44.627134279232678
 30
0.0
 40
0.0885
  0
CIRCLE
  5
2C9
  8
OBJECT
 10
12.9258738464569
 20
45.127134279232678
 30
0.0
 40
0.0885
  0
CIRCLE
  5
2CA
  8
OBJECT
 10
12.9258738464569
 20
46.377134279232678
 30
0.0
 40
0.0885
  0
CIRCLE
  5
2CB
  8
OBJECT
 10
12.9258738464569
 20
47.502134279232671
 30
0.0
 40
0.0885
  0
CIRCLE
  5
2CC
  8
OBJECT
 10
12.9258738464569
 20
46.877134279232671
 30
0.0
 40
0.0885
  0
CIRCLE
  5
2CD
  8
OBJECT
 10
12.9258738464569
 20
48.127134279232671
 30
0.0
 40
0.0885
  0
CIRCLE
  5
2CE
  8
OBJECT
 10
12.9258738464569
 20
49.252134279232671
 30
0.0
 40
0.0885
  0
CIRCLE
  5
2CF
  8
OBJECT
 10
12.9258738464569
 20
48.627134279232671
 30
0.0
 40
0.0885
  0
CIRCLE
  5
2D0
  8
OBJECT
 10
12.9258738464569
 20
49.877134279232671
 30
0.0
 40
0.0885
  0
CIRCLE
  5
2D1
  8
OBJECT
 10
12.9258738464569
 20
51.002134279232678
 30
0.0
 40
0.0885
  0
CIRCLE
  5
2D2
  8
OBJECT
 10
12.9258738464569
 20
50.377134279232678
 30
0.0
 40
0.0885
  0
CIRCLE
  5
2D3
  8
OBJECT
 10
12.9258738464569
 20
51.627134279232678
 30
0.0
 40
0.0885
  0
CIRCLE
  5
2D4
  8
OBJECT
 10
12.9258738464569
 20
52.752134279232678
 30
0.0
 40
0.0885
  0
CIRCLE
  5
2D5
  8
OBJECT
 10
12.9258738464569
 20
52.127134279232678
 30
0.0
 40
0.0885
  0
CIRCLE
  5
2D6
  8
OBJECT
 10
12.9258738464569
 20
53.377134279232678
 30
0.0
 40
0.0885
  0
CIRCLE
  5
2D7
  8
OBJECT
 10
12.9258738464569
 20
53.877134279232678
 30
0.0
 40
0.0885
  0
CIRCLE
  5
2D8
  8
OBJECT
 10
12.9258738464569
 20
54.502134279232678
 30
0.0
 40
0.0885
  0
CIRCLE
  5
2D9
  8
OBJECT
 10
12.9258738464569
 20
55.127134279232678
 30
0.0
 40
0.0885
  0
CIRCLE
  5
2DA
  8
OBJECT
 10
12.9258738464569
 20
55.627134279232671
 30
0.0
 40
0.0885
  0
CIRCLE
  5
2DB
  8
OBJECT
 10
12.9258738464569
 20
56.877134279232671
 30
0.0
 40
0.0885
  0
CIRCLE
  5
2DC
  8
OBJECT
 10
12.9258738464569
 20
59.127134279232678
 30
0.0
 40
0.0885
  0
CIRCLE
  5
2DD
  8
OBJECT
 10
12.9258738464569
 20
62.127134279232678
 30
0.0
 40
0.0885
  0
CIRCLE
  5
2DE
  8
OBJECT
 10
12.9258738464569
 20
60.377134279232678
 30
0.0
 40
0.0885
  0
CIRCLE
  5
2DF
  8
OBJECT
 10
12.9258738464569
 20
61.502134279232678
 30
0.0
 40
0.0885
  0
CIRCLE
  5
2E0
  8
OBJECT
 10
12.9258738464569
 20
60.877134279232678
 30
0.0
 40
0.0885
  0
CIRCLE
  5
2E1
  8
OBJECT
 10
12.9258738464569
 20
63.252134279232678
 30
0.0
 40
0.0885
  0
CIRCLE
  5
2E2
  8
OBJECT
 10
12.9258738464569
 20
62.627134279232678
 30
0.0
 40
0.0885
  0
CIRCLE
  5
2E3
  8
OBJECT
 10
12.9258738464569
 20
63.877134279232678
 30
0.0
 40
0.0885
  0
CIRCLE
  5
2E4
  8
OBJECT
 10
12.9258738464569
 20
64.377134279232664
 30
0.0
 40
0.0885
  0
LINE
  5
2E5
  8
OBJECT
 10
36.206873846456922
 20
25.902242456542179
 30
0.0
 11
36.206873846456922
 21
19.902242456542179
 31
0.0
  0
LINE
  5
2E6
  8
OBJECT
 10
36.206873846456922
 20
29.902242456542179
 30
0.0
 11
36.206873846456922
 21
19.902242456542179
 31
0.0
  0
DIMENSION
  5
2E7
  8
DIM
  2
*D12
 10
39.381470483794871
 20
29.90224245654241
 30
0.0
 11
39.381470483794871
 21
18.402242456542421
 31
0.0
 70
     0
 13
36.206873846456922
 23
6.9022424565424396
 33
0.0
 14
36.206873846456922
 24
29.90224245654241
 34
0.0
 50
90.0
  0
LINE
  5
2E8
  8
OBJECT
 10
36.206873846456922
 20
6.9022424565424396
 30
0.0
 11
36.206873846456922
 21
16.902242456542179
 31
0.0
  0
CIRCLE
  5
2E9
  8
OBJECT
 10
34.081873846456887
 20
8.1522424565421847
 30
0.0
 40
0.375
  0
LINE
  5
2EA
  8
OBJECT
 10
34.956873846456979
 20
19.902242456542179
 30
0.0
 11
34.956873846456979
 21
16.902242456542179
 31
0.0
  0
POLYLINE
  5
2EB
  8
OBJECT
 66
     1
 10
0.0
 20
0.0
 30
0.0
 70
     1
  0
VERTEX
  5
7F8
  8
OBJECT
 10
34.957873846456948
 20
16.999242456542159
 30
0.0
 42
-0.4142135623730951
  0
VERTEX
  5
7F9
  8
OBJECT
 10
35.04787384645693
 20
17.089242456542159
 30
0.0
  0
VERTEX
  5
7FA
  8
OBJECT
 10
35.848873846456911
 20
17.089242456542131
 30
0.0
 42
0.4142135623730969
  0
VERTEX
  5
7FB
  8
OBJECT
 10
36.066873846456929
 20
17.307242456542149
 30
0.0
  0
VERTEX
  5
7FC
  8
OBJECT
 10
36.066873846456929
 20
19.49724245654215
 30
0.0
 42
0.4142135623730922
  0
VERTEX
  5
7FD
  8
OBJECT
 10
35.848873846456911
 20
19.715242456542171
 30
0.0
  0
VERTEX
  5
7FE
  8
OBJECT
 10
35.04787384645693
 20
19.715242456542171
 30
0.0
 42
-0.4142135623730927
  0
VERTEX
  5
7FF
  8
OBJECT
 10
34.957873846456948
 20
19.805242456542171
 30
0.0
  0
VERTEX
  5
800
  8
OBJECT
 10
34.957873846456948
 20
19.902242456542179
 30
0.0
  0
VERTEX
  5
801
  8
OBJECT
 10
36.222873846456878
 20
19.902242456542179
 30
0.0
  0
VERTEX
  5
802
  8
OBJECT
 10
36.222873846456878
 20
16.902242456542179
 30
0.0
  0
VERTEX
  5
803
  8
OBJECT
 10
34.957873846456948
 20
16.902242456542179
 30
0.0
  0
SEQEND
  5
804
  8
OBJECT
  0
LINE
  5
2F9
  8
OBJECT
 10
36.206873846456922
 20
14.90224245654221
 30
0.0
 11
36.206873846456922
 21
16.902242456542179
 31
0.0
  0
CIRCLE
  5
2FA
  8
OBJECT
 10
59.649156630250033
 20
42.252134279232671
 30
0.0
 40
0.1405
  0
CIRCLE
  5
2FB
  8
OBJECT
 10
59.649156630250033
 20
38.752134279232671
 30
0.0
 40
0.1405
  0
LINE
  5
2FC
  8
OBJECT
 10
60.024156630250019
 20
43.111134279232687
 30
0.0
 11
57.242156630250022
 21
43.111134279232687
 31
0.0
  0
LINE
  5
2FD
  8
OBJECT
 10
60.024156630250019
 20
37.893134279232697
 30
0.0
 11
52.024156630249998
 21
37.893134279232697
 31
0.0
  0
LINE
  5
2FE
  8
OBJECT
 10
60.04015663025001
 20
60.611134279232687
 30
0.0
 11
57.258156630250028
 21
60.611134279232687
 31
0.0
  0
LINE
  5
2FF
  8
OBJECT
 10
60.04015663025001
 20
55.393134279232697
 30
0.0
 11
52.040156630250017
 21
55.393134279232697
 31
0.0
  0
CIRCLE
  5
300
  8
OBJECT
 10
59.665156630250017
 20
59.752134279232678
 30
0.0
 40
0.1405
  0
CIRCLE
  5
301
  8
OBJECT
 10
59.665156630250017
 20
56.252134279232671
 30
0.0
 40
0.1405
  0
DIMENSION
  5
302
  8
DIM
  2
*D16
 10
50.04015663025001
 20
31.221215365140068
 30
0.0
 11
55.04015663025001
 21
31.221215365140068
 31
0.0
 70
     0
  1
<>
 13
60.04015663025001
 23
33.69013427923268
 33
0.0
 14
50.04015663025001
 24
33.315134279232687
 34
0.0
  0
DIMENSION
  5
303
  8
DIM
  2
*D17
 10
47.431256437860263
 20
33.315134279232701
 30
0.0
 11
47.431256437860249
 21
35.065134279232709
 31
0.0
 70
     0
  1
<>
 13
59.790156630250017
 23
36.815134279232687
 33
0.0
 14
50.04015663025001
 24
33.315134279232687
 34
0.0
 50
270.0
  0
LINE
  5
304
  8
BEND
 10
59.790156630250017
 20
34.384712320110928
 30
0.0
 11
59.474156630250008
 21
34.384712320110928
 31
0.0
  0
LINE
  5
305
  8
BEND
 10
59.790156630250017
 20
34.745556238354453
 30
0.0
 11
59.47415663025005
 21
34.745556238354453
 31
0.0
  0
LINE
  5
306
  8
BEND
 10
59.47415663025005
 20
34.204290360989177
 30
0.0
 11
59.790156630250017
 21
34.204290360989177
 31
0.0
  0
LINE
  5
307
  8
BEND
 10
59.47415663025005
 20
34.925978197476212
 30
0.0
 11
59.790156630250017
 21
34.925978197476212
 31
0.0
  0
LINE
  5
308
  8
BEND
 10
59.47415663025005
 20
36.425978197476176
 30
0.0
 11
59.790156630250017
 21
36.425978197476176
 31
0.0
  0
LINE
  5
309
  8
BEND
 10
59.47415663025005
 20
35.704290360989141
 30
0.0
 11
59.790156630250017
 21
35.704290360989141
 31
0.0
  0
LINE
  5
30A
  8
BEND
 10
59.790156630250017
 20
36.245556238354418
 30
0.0
 11
59.47415663025005
 21
36.245556238354418
 31
0.0
  0
LINE
  5
30B
  8
BEND
 10
59.790156630250017
 20
35.8847123201109
 30
0.0
 11
59.474156630250008
 21
35.8847123201109
 31
0.0
  0
LINE
  5
30C
  8
OBJECT
 10
59.681156630250022
 20
33.565134279232687
 30
0.0
 11
50.04015663025001
 21
33.565134279232687
 31
0.0
  0
LINE
  5
30D
  8
OBJECT
 10
50.04015663025001
 20
33.315134279232687
 30
0.0
 11
59.681156630250022
 21
33.315134279232687
 31
0.0
  0
LINE
  5
30E
  8
OBJECT
 10
59.399156630250019
 20
37.893134279232662
 30
0.0
 11
59.399156630250019
 21
43.111134279232687
 31
0.0
  0
LINE
  5
30F
  8
OBJECT
 10
52.118156630249992
 20
37.98713427923272
 30
0.0
 11
57.242156630250022
 21
43.111134279232687
 31
0.0
  0
CIRCLE
  5
310
  8
OBJECT
 10
34.081873846456887
 20
28.652242456542211
 30
0.0
 40
0.375
  0
CIRCLE
  5
311
  8
OBJECT
 10
35.237873846456949
 20
37.627134279232678
 30
0.0
 40
0.0885
  0
POLYLINE
  5
312
  8
BEND
 66
     1
 10
0.0
 20
0.0
 30
0.0
 70
     1
  0
VERTEX
  5
805
  8
BEND
 10
35.30137384645689
 20
34.384712320110928
 30
0.0
  0
VERTEX
  5
806
  8
BEND
 10
35.61387384645689
 20
34.204290360989177
 30
0.0
  0
VERTEX
  5
807
  8
BEND
 10
35.92637384645689
 20
34.384712320110928
 30
0.0
  0
VERTEX
  5
808
  8
BEND
 10
35.92637384645689
 20
34.745556238354453
 30
0.0
  0
VERTEX
  5
809
  8
BEND
 10
35.61387384645689
 20
34.925978197476212
 30
0.0
  0
VERTEX
  5
80A
  8
BEND
 10
35.30137384645689
 20
34.745556238354453
 30
0.0
  0
SEQEND
  5
80B
  8
BEND
  0
CIRCLE
  5
31A
  8
OBJECT
 10
35.237873846456949
 20
37.002134279232678
 30
0.0
 40
0.0885
  0
POLYLINE
  5
31B
  8
BEND
 66
     1
 10
0.0
 20
0.0
 30
0.0
 70
     1
  0
VERTEX
  5
80C
  8
BEND
 10
35.926373846456897
 20
36.245556238354439
 30
0.0
  0
VERTEX
  5
80D
  8
BEND
 10
35.613873846456897
 20
36.425978197476191
 30
0.0
  0
VERTEX
  5
80E
  8
BEND
 10
35.301373846456897
 20
36.245556238354439
 30
0.0
  0
VERTEX
  5
80F
  8
BEND
 10
35.301373846456897
 20
35.884712320110921
 30
0.0
  0
VERTEX
  5
810
  8
BEND
 10
35.613873846456897
 20
35.704290360989162
 30
0.0
  0
VERTEX
  5
811
  8
BEND
 10
35.926373846456897
 20
35.884712320110921
 30
0.0
  0
SEQEND
  5
812
  8
BEND
  0
LINE
  5
323
  8
OBJECT
 10
36.206873846456922
 20
36.815134279232687
 30
0.0
 11
36.206873846456922
 21
33.31513427923268
 31
0.0
  0
CIRCLE
  5
324
  8
OBJECT
 10
35.237873846456949
 20
38.127134279232671
 30
0.0
 40
0.0885
  0
CIRCLE
  5
325
  8
OBJECT
 10
35.237873846456949
 20
39.377134279232671
 30
0.0
 40
0.0885
  0
CIRCLE
  5
326
  8
OBJECT
 10
35.237873846456949
 20
41.627134279232671
 30
0.0
 40
0.0885
  0
CIRCLE
  5
327
  8
OBJECT
 10
35.237873846456949
 20
42.877134279232671
 30
0.0
 40
0.0885
  0
LINE
  5
328
  8
OBJECT
 10
50.04015663025001
 20
33.315134279232687
 30
0.0
 11
50.04015663025001
 21
33.565134279232687
 31
0.0
  0
LINE
  5
329
  8
OBJECT
 10
52.086156630250009
 20
38.26813427923269
 30
0.0
 11
52.024156630249998
 21
38.26813427923269
 31
0.0
  0
LINE
  5
32A
  8
OBJECT
 10
52.118156630249992
 20
37.987134279232691
 30
0.0
 11
52.118156630249992
 21
37.893134279232697
 31
0.0
  0
LINE
  5
32B
  8
OBJECT
 10
52.086156630250009
 20
37.955134279232709
 30
0.0
 11
52.118156630249992
 21
37.955134279232709
 31
0.0
  0
LINE
  5
32C
  8
OBJECT
 10
52.086156630250009
 20
38.26813427923269
 30
0.0
 11
52.086156630250009
 21
37.955134279232709
 31
0.0
  0
LINE
  5
32D
  8
OBJECT
 10
52.024156630249998
 20
38.26813427923269
 30
0.0
 11
52.024156630249998
 21
37.893134279232697
 31
0.0
  0
LINE
  5
32E
  8
BEND
 10
59.474156630250008
 20
34.204290360989191
 30
0.0
 11
59.47415663025005
 21
34.925978197476212
 31
0.0
  0
LINE
  5
32F
  8
BEND
 10
59.474156630250008
 20
35.704290360989162
 30
0.0
 11
59.47415663025005
 21
36.425978197476176
 31
0.0
  0
CIRCLE
  5
330
  8
OBJECT
 10
57.524156630249998
 20
38.752134279232671
 30
0.0
 40
0.1405
  0
CIRCLE
  5
331
  8
OBJECT
 10
57.524156630249998
 20
42.252134279232671
 30
0.0
 40
0.1405
  0
CIRCLE
  5
332
  8
OBJECT
 10
35.237873846456949
 20
45.752134279232678
 30
0.0
 40
0.0885
  0
CIRCLE
  5
333
  8
OBJECT
 10
35.237873846456949
 20
43.377134279232678
 30
0.0
 40
0.0885
  0
CIRCLE
  5
334
  8
OBJECT
 10
35.237873846456949
 20
44.002134279232678
 30
0.0
 40
0.0885
  0
CIRCLE
  5
335
  8
OBJECT
 10
35.237873846456949
 20
44.627134279232678
 30
0.0
 40
0.0885
  0
CIRCLE
  5
336
  8
OBJECT
 10
35.237873846456949
 20
45.127134279232678
 30
0.0
 40
0.0885
  0
CIRCLE
  5
337
  8
OBJECT
 10
35.237873846456949
 20
46.377134279232678
 30
0.0
 40
0.0885
  0
CIRCLE
  5
338
  8
OBJECT
 10
35.237873846456949
 20
46.877134279232671
 30
0.0
 40
0.0885
  0
CIRCLE
  5
339
  8
OBJECT
 10
35.237873846456949
 20
47.502134279232671
 30
0.0
 40
0.0885
  0
CIRCLE
  5
33A
  8
OBJECT
 10
35.237873846456949
 20
48.127134279232671
 30
0.0
 40
0.0885
  0
CIRCLE
  5
33B
  8
OBJECT
 10
35.237873846456949
 20
48.627134279232671
 30
0.0
 40
0.0885
  0
CIRCLE
  5
33C
  8
OBJECT
 10
35.237873846456949
 20
49.252134279232671
 30
0.0
 40
0.0885
  0
CIRCLE
  5
33D
  8
OBJECT
 10
35.237873846456949
 20
49.877134279232671
 30
0.0
 40
0.0885
  0
CIRCLE
  5
33E
  8
OBJECT
 10
35.237873846456949
 20
50.377134279232678
 30
0.0
 40
0.0885
  0
CIRCLE
  5
33F
  8
OBJECT
 10
35.237873846456949
 20
51.002134279232678
 30
0.0
 40
0.0885
  0
CIRCLE
  5
340
  8
OBJECT
 10
35.237873846456949
 20
51.627134279232678
 30
0.0
 40
0.0885
  0
CIRCLE
  5
341
  8
OBJECT
 10
35.237873846456949
 20
52.127134279232678
 30
0.0
 40
0.0885
  0
CIRCLE
  5
342
  8
OBJECT
 10
35.237873846456949
 20
52.752134279232678
 30
0.0
 40
0.0885
  0
CIRCLE
  5
343
  8
OBJECT
 10
35.237873846456949
 20
53.377134279232678
 30
0.0
 40
0.0885
  0
CIRCLE
  5
344
  8
OBJECT
 10
35.237873846456949
 20
53.877134279232678
 30
0.0
 40
0.0885
  0
CIRCLE
  5
345
  8
OBJECT
 10
35.237873846456949
 20
54.502134279232678
 30
0.0
 40
0.0885
  0
CIRCLE
  5
346
  8
OBJECT
 10
35.237873846456949
 20
55.127134279232678
 30
0.0
 40
0.0885
  0
CIRCLE
  5
347
  8
OBJECT
 10
35.237873846456949
 20
55.627134279232671
 30
0.0
 40
0.0885
  0
CIRCLE
  5
348
  8
OBJECT
 10
35.237873846456949
 20
56.877134279232671
 30
0.0
 40
0.0885
  0
CIRCLE
  5
349
  8
OBJECT
 10
35.237873846456949
 20
59.127134279232678
 30
0.0
 40
0.0885
  0
CIRCLE
  5
34A
  8
OBJECT
 10
35.237873846456949
 20
62.127134279232678
 30
0.0
 40
0.0885
  0
CIRCLE
  5
34B
  8
OBJECT
 10
35.237873846456949
 20
60.377134279232678
 30
0.0
 40
0.0885
  0
CIRCLE
  5
34C
  8
OBJECT
 10
35.237873846456949
 20
60.877134279232678
 30
0.0
 40
0.0885
  0
CIRCLE
  5
34D
  8
OBJECT
 10
35.237873846456949
 20
61.502134279232678
 30
0.0
 40
0.0885
  0
CIRCLE
  5
34E
  8
OBJECT
 10
35.237873846456949
 20
62.627134279232678
 30
0.0
 40
0.0885
  0
CIRCLE
  5
34F
  8
OBJECT
 10
35.237873846456949
 20
63.252134279232678
 30
0.0
 40
0.0885
  0
CIRCLE
  5
350
  8
OBJECT
 10
35.237873846456949
 20
63.877134279232678
 30
0.0
 40
0.0885
  0
CIRCLE
  5
351
  8
OBJECT
 10
35.237873846456949
 20
64.377134279232664
 30
0.0
 40
0.0885
  0
LINE
  5
352
  8
OBJECT
 10
52.134156630250011
 20
55.48713427923272
 30
0.0
 11
57.258156630250028
 21
60.611134279232687
 31
0.0
  0
LINE
  5
353
  8
OBJECT
 10
52.102156630250029
 20
55.455134279232709
 30
0.0
 11
52.134156630250011
 21
55.455134279232709
 31
0.0
  0
LINE
  5
354
  8
OBJECT
 10
52.134156630250011
 20
55.487134279232691
 30
0.0
 11
52.134156630250011
 21
55.393134279232697
 31
0.0
  0
LINE
  5
355
  8
OBJECT
 10
52.040156630250017
 20
55.76813427923269
 30
0.0
 11
52.040156630250017
 21
55.393134279232697
 31
0.0
  0
LINE
  5
356
  8
OBJECT
 10
52.102156630250029
 20
55.76813427923269
 30
0.0
 11
52.102156630250029
 21
55.455134279232709
 31
0.0
  0
LINE
  5
357
  8
OBJECT
 10
52.102156630250029
 20
55.76813427923269
 30
0.0
 11
52.040156630250017
 21
55.76813427923269
 31
0.0
  0
LINE
  5
358
  8
OBJECT
 10
59.41515663025001
 20
55.393134279232669
 30
0.0
 11
59.41515663025001
 21
60.611134279232687
 31
0.0
  0
CIRCLE
  5
359
  8
OBJECT
 10
57.54015663025001
 20
56.252134279232671
 30
0.0
 40
0.1405
  0
CIRCLE
  5
35A
  8
OBJECT
 10
57.54015663025001
 20
59.752134279232678
 30
0.0
 40
0.1405
  0
LINE
  5
35B
  8
OBJECT
 10
63.086156630250038
 20
43.111134279232687
 30
0.0
 11
63.086156630250038
 21
37.893134279232697
 31
0.0
  0
LINE
  5
35C
  8
OBJECT
 10
63.649156630250019
 20
37.893134279232662
 30
0.0
 11
63.649156630250019
 21
43.111134279232687
 31
0.0
  0
LINE
  5
35D
  8
OBJECT
 10
63.024156630250019
 20
43.111134279232687
 30
0.0
 11
63.024156630250019
 21
37.893134279232697
 31
0.0
  0
LINE
  5
35E
  8
OBJECT
 10
70.930156630250011
 20
37.987134279232691
 30
0.0
 11
65.806156630249987
 21
43.111134279232687
 31
0.0
  0
LINE
  5
35F
  8
OBJECT
 10
60.024156630250019
 20
43.111134279232687
 30
0.0
 11
60.024156630250019
 21
37.893134279232697
 31
0.0
  0
LINE
  5
360
  8
OBJECT
 10
59.962156630250043
 20
43.111134279232687
 30
0.0
 11
59.962156630250043
 21
37.893134279232697
 31
0.0
  0
DIMENSION
  5
361
  8
DIM
  2
*D18
 10
73.040156630250024
 20
31.221215365140068
 30
0.0
 11
68.04015663025001
 21
31.221215365140068
 31
0.0
 70
     0
  1
<>
 13
63.04015663025001
 23
33.69013427923268
 33
0.0
 14
73.040156630250024
 24
33.315134279232687
 34
0.0
  0
LINE
  5
362
  8
OBJECT
 10
73.040156630250024
 20
33.315134279232687
 30
0.0
 11
63.399156630250012
 21
33.315134279232687
 31
0.0
  0
LINE
  5
363
  8
OBJECT
 10
63.399156630250012
 20
33.565134279232687
 30
0.0
 11
73.040156630250024
 21
33.565134279232687
 31
0.0
  0
LINE
  5
364
  8
OBJECT
 10
71.024156630250005
 20
37.893134279232697
 30
0.0
 11
63.024156630250019
 21
37.893134279232697
 31
0.0
  0
CIRCLE
  5
365
  8
OBJECT
 10
60.915156630250038
 20
37.31513427923268
 30
0.0
 40
0.3279999999999999
  0
CIRCLE
  5
366
  8
OBJECT
 10
62.165156630250038
 20
37.31513427923268
 30
0.0
 40
0.3279999999999999
  0
LINE
  5
367
  8
OBJECT
 10
63.04015663025001
 20
33.69013427923268
 30
0.0
 11
60.04015663025001
 21
33.69013427923268
 31
0.0
  0
LINE
  5
368
  8
OBJECT
 10
60.04015663025001
 20
33.674134279232703
 30
0.0
 11
60.04015663025001
 21
36.815134279232687
 31
0.0
  0
LINE
  5
369
  8
OBJECT
 10
59.790156630250017
 20
36.815134279232687
 30
0.0
 11
59.790156630250017
 21
33.674134279232703
 31
0.0
  0
ARC
  5
36A
  8
OBJECT
 10
59.681156630250022
 20
33.674134279232703
 30
0.0
 40
0.359
 50
270.0
 51
0.0
  0
ARC
  5
36B
  8
OBJECT
 10
59.681156630250022
 20
33.674134279232703
 30
0.0
 40
0.109
 50
270.0
 51
0.0
  0
LINE
  5
36C
  8
OBJECT
 10
60.04015663025001
 20
36.815134279232687
 30
0.0
 11
59.790156630250017
 21
36.815134279232687
 31
0.0
  0
LINE
  5
36D
  8
OBJECT
 10
63.290156630250017
 20
36.815134279232687
 30
0.0
 11
63.290156630250017
 21
33.674134279232703
 31
0.0
  0
LINE
  5
36E
  8
OBJECT
 10
63.04015663025001
 20
33.674134279232703
 30
0.0
 11
63.04015663025001
 21
36.815134279232687
 31
0.0
  0
LINE
  5
36F
  8
BEND
 10
63.60615663025002
 20
34.204290360989191
 30
0.0
 11
63.60615663025002
 21
34.925978197476212
 31
0.0
  0
ARC
  5
370
  8
OBJECT
 10
63.399156630250012
 20
33.674134279232703
 30
0.0
 40
0.109
 50
180.0
 51
270.0
  0
ARC
  5
371
  8
OBJECT
 10
63.399156630250012
 20
33.674134279232703
 30
0.0
 40
0.359
 50
180.0
 51
270.0
  0
LINE
  5
372
  8
BEND
 10
63.60615663025002
 20
34.204290360989177
 30
0.0
 11
63.290156630250017
 21
34.204290360989177
 31
0.0
  0
LINE
  5
373
  8
BEND
 10
63.290156630250017
 20
34.745556238354453
 30
0.0
 11
63.60615663025002
 21
34.745556238354453
 31
0.0
  0
LINE
  5
374
  8
BEND
 10
63.290156630250017
 20
34.384712320110928
 30
0.0
 11
63.60615663025002
 21
34.384712320110928
 31
0.0
  0
LINE
  5
375
  8
OBJECT
 10
63.04015663025001
 20
36.815134279232687
 30
0.0
 11
63.290156630250017
 21
36.815134279232687
 31
0.0
  0
LINE
  5
376
  8
BEND
 10
63.60615663025002
 20
34.925978197476212
 30
0.0
 11
63.290156630250017
 21
34.925978197476212
 31
0.0
  0
LINE
  5
377
  8
BEND
 10
63.290156630250017
 20
35.8847123201109
 30
0.0
 11
63.60615663025002
 21
35.8847123201109
 31
0.0
  0
LINE
  5
378
  8
BEND
 10
63.290156630250017
 20
36.245556238354418
 30
0.0
 11
63.60615663025002
 21
36.245556238354418
 31
0.0
  0
LINE
  5
379
  8
BEND
 10
63.60615663025002
 20
35.704290360989141
 30
0.0
 11
63.290156630250017
 21
35.704290360989141
 31
0.0
  0
LINE
  5
37A
  8
BEND
 10
63.60615663025002
 20
36.425978197476176
 30
0.0
 11
63.290156630250017
 21
36.425978197476176
 31
0.0
  0
LINE
  5
37B
  8
BEND
 10
63.60615663025002
 20
35.704290360989162
 30
0.0
 11
63.60615663025002
 21
36.425978197476176
 31
0.0
  0
CIRCLE
  5
37C
  8
OBJECT
 10
63.399156630250033
 20
38.752134279232671
 30
0.0
 40
0.1405
  0
CIRCLE
  5
37D
  8
OBJECT
 10
65.524156630250033
 20
38.752134279232671
 30
0.0
 40
0.1405
  0
CIRCLE
  5
37E
  8
OBJECT
 10
63.399156630250033
 20
42.252134279232671
 30
0.0
 40
0.1405
  0
CIRCLE
  5
37F
  8
OBJECT
 10
65.524156630250033
 20
42.252134279232671
 30
0.0
 40
0.1405
  0
LINE
  5
380
  8
OBJECT
 10
70.930156630250011
 20
37.987134279232691
 30
0.0
 11
70.930156630250011
 21
37.893134279232697
 31
0.0
  0
LINE
  5
381
  8
OBJECT
 10
70.962156630250021
 20
37.955134279232709
 30
0.0
 11
70.930156630250011
 21
37.955134279232709
 31
0.0
  0
LINE
  5
382
  8
OBJECT
 10
70.962156630250021
 20
38.26813427923269
 30
0.0
 11
70.962156630250021
 21
37.955134279232709
 31
0.0
  0
LINE
  5
383
  8
OBJECT
 10
71.024156630250005
 20
38.26813427923269
 30
0.0
 11
71.024156630250005
 21
37.893134279232697
 31
0.0
  0
LINE
  5
384
  8
OBJECT
 10
71.024156630250005
 20
38.26813427923269
 30
0.0
 11
70.962156630250021
 21
38.26813427923269
 31
0.0
  0
LINE
  5
385
  8
OBJECT
 10
73.040156630250024
 20
33.315134279232687
 30
0.0
 11
73.040156630250024
 21
33.565134279232687
 31
0.0
  0
TEXT
  5
386
  8
DIM
 10
70.110746793638683
 20
44.885963902369987
 30
0.0
 40
1.125
  1
PART #SA-1767-BT
 41
0.75
 11
70.110746793638683
 21
45.448463902369987
 31
0.0
 73
     2
  0
TEXT
  5
387
  8
DIM
 10
70.126746793638702
 20
62.385963902369987
 30
0.0
 40
1.125
  1
PART #SA-1767-BT
 41
0.75
 11
70.126746793638702
 21
62.948463902369987
 31
0.0
 73
     2
  0
POLYLINE
  5
388
  8
DIM
 66
     1
 10
0.0
 20
0.0
 30
0.0
 41
0.6075000000000002
  0
VERTEX
  5
813
  8
DIM
 10
65.806156630249987
 20
43.111134279232687
 30
0.0
  0
VERTEX
  5
814
  8
DIM
 10
66.819720089725465
 20
44.374894190614633
 30
0.0
 41
0.0
  0
VERTEX
  5
815
  8
DIM
 10
67.680746793638676
 20
45.448463902369987
 30
0.0
 41
0.0
  0
VERTEX
  5
816
  8
DIM
 10
69.30074679363868
 20
45.448463902369987
 30
0.0
 41
0.0
  0
SEQEND
  5
817
  8
DIM
  0
CIRCLE
  5
38E
  8
OBJECT
 10
61.540156630250038
 20
45.315134279232673
 30
0.0
 40
0.0885
  0
CIRCLE
  5
38F
  8
OBJECT
 10
61.540156630250038
 20
47.31513427923268
 30
0.0
 40
0.5625
  0
LINE
  5
390
  8
OBJECT
 10
65.806156630249987
 20
43.111134279232687
 30
0.0
 11
63.024156630250019
 21
43.111134279232687
 31
0.0
  0
POLYLINE
  5
391
  8
DIM
 66
     1
 10
0.0
 20
0.0
 30
0.0
 41
0.6075000000000002
  0
VERTEX
  5
818
  8
DIM
 10
65.822156630250007
 20
60.611134279232687
 30
0.0
  0
VERTEX
  5
819
  8
DIM
 10
66.835720089725484
 20
61.874894190614633
 30
0.0
 41
0.0
  0
VERTEX
  5
81A
  8
DIM
 10
67.696746793638695
 20
62.948463902369987
 30
0.0
 41
0.0
  0
VERTEX
  5
81B
  8
DIM
 10
69.3167467936387
 20
62.948463902369987
 30
0.0
 41
0.0
  0
SEQEND
  5
81C
  8
DIM
  0
LINE
  5
397
  8
OBJECT
 10
70.94615663025003
 20
55.487134279232691
 30
0.0
 11
65.822156630250007
 21
60.611134279232687
 31
0.0
  0
LINE
  5
398
  8
OBJECT
 10
71.040156630250024
 20
55.393134279232697
 30
0.0
 11
63.04015663025001
 21
55.393134279232697
 31
0.0
  0
LINE
  5
399
  8
OBJECT
 10
59.978156630250027
 20
60.611134279232687
 30
0.0
 11
59.978156630250027
 21
55.393134279232697
 31
0.0
  0
LINE
  5
39A
  8
OBJECT
 10
60.04015663025001
 20
60.611134279232687
 30
0.0
 11
60.04015663025001
 21
55.393134279232697
 31
0.0
  0
LINE
  5
39B
  8
OBJECT
 10
63.04015663025001
 20
60.611134279232687
 30
0.0
 11
63.04015663025001
 21
55.393134279232697
 31
0.0
  0
LINE
  5
39C
  8
OBJECT
 10
63.66515663025001
 20
55.393134279232669
 30
0.0
 11
63.66515663025001
 21
60.611134279232687
 31
0.0
  0
LINE
  5
39D
  8
OBJECT
 10
63.102156630250029
 20
60.611134279232687
 30
0.0
 11
63.102156630250029
 21
55.393134279232697
 31
0.0
  0
CIRCLE
  5
39E
  8
OBJECT
 10
61.540156630250017
 20
57.31513427923268
 30
0.0
 40
0.0885
  0
CIRCLE
  5
39F
  8
OBJECT
 10
63.415156630250017
 20
56.252134279232671
 30
0.0
 40
0.1405
  0
CIRCLE
  5
3A0
  8
OBJECT
 10
65.540156630250024
 20
56.252134279232671
 30
0.0
 40
0.1405
  0
CIRCLE
  5
3A1
  8
OBJECT
 10
61.540156630250017
 20
62.94013427923268
 30
0.0
 40
0.3279999999999999
  0
LINE
  5
3A2
  8
OBJECT
 10
65.822156630250007
 20
60.611134279232687
 30
0.0
 11
63.04015663025001
 21
60.611134279232687
 31
0.0
  0
CIRCLE
  5
3A3
  8
OBJECT
 10
63.415156630250017
 20
59.752134279232678
 30
0.0
 40
0.1405
  0
CIRCLE
  5
3A4
  8
OBJECT
 10
65.540156630250024
 20
59.752134279232678
 30
0.0
 40
0.1405
  0
LINE
  5
3A5
  8
OBJECT
 10
70.94615663025003
 20
55.487134279232691
 30
0.0
 11
70.94615663025003
 21
55.393134279232697
 31
0.0
  0
LINE
  5
3A6
  8
OBJECT
 10
70.978156630250041
 20
55.455134279232709
 30
0.0
 11
70.94615663025003
 21
55.455134279232709
 31
0.0
  0
LINE
  5
3A7
  8
OBJECT
 10
71.040156630250024
 20
55.76813427923269
 30
0.0
 11
70.978156630250041
 21
55.76813427923269
 31
0.0
  0
LINE
  5
3A8
  8
OBJECT
 10
71.040156630250024
 20
55.76813427923269
 30
0.0
 11
71.040156630250024
 21
55.393134279232697
 31
0.0
  0
LINE
  5
3A9
  8
OBJECT
 10
70.978156630250041
 20
55.76813427923269
 30
0.0
 11
70.978156630250041
 21
55.455134279232709
 31
0.0
  0
TEXT
  5
3AA
  8
TEXT
 10
15.894000000000011
 20
136.3589999999999
 30
0.0
 40
1.4039999999999999
  1
COMPUTER SERVER RACK
 41
0.75
 72
     4
 11
26.424000000000021
 21
137.06099999999989
 31
0.0
  0
INSERT
  5
3AB
  8
OBJECT
  2
1798FV
 10
24.097873800542189
 20
99.424134279232774
 30
0.0
  0
LINE
  5
3AC
  8
OBJECT
 10
34.909873846456911
 20
129.0353869138352
 30
0.0
 11
13.2538738464569
 21
129.0353869138352
 31
0.0
  0
LINE
  5
3AD
  8
OBJECT
 10
13.26787384645694
 20
108.5353869138352
 30
0.0
 11
34.895873846456901
 21
108.5353869138352
 31
0.0
  0
LINE
  5
3AE
  8
OBJECT
 10
13.26787384645694
 20
127.5353869138352
 30
0.0
 11
34.895873846456901
 21
127.5353869138352
 31
0.0
  0
LINE
  5
3AF
  8
OBJECT
 10
13.26787384645694
 20
108.59738691383519
 30
0.0
 11
34.895873846456901
 21
108.59738691383519
 31
0.0
  0
LINE
  5
3B0
  8
OBJECT
 10
13.26787384645694
 20
127.4733869138352
 30
0.0
 11
34.895873846456901
 21
127.4733869138352
 31
0.0
  0
LINE
  5
3B1
  8
OBJECT
 10
33.456873846456908
 20
83.377134279232664
 30
0.0
 11
32.519873846456889
 21
83.377134279232664
 31
0.0
  0
LINE
  5
3B2
  8
OBJECT
 10
32.519873846456889
 20
81.627134279232678
 30
0.0
 11
33.456873846456908
 21
81.627134279232678
 31
0.0
  0
INSERT
  5
3B3
  8
OBJECT
  2
1787FV
 10
12.9258738464569
 20
77.877134279232678
 30
0.0
  0
LINE
  5
3B4
  8
OBJECT
 10
11.956873846456929
 20
129.5353869138352
 30
0.0
 11
36.206873846456929
 21
129.5353869138352
 31
0.0
  0
LINE
  5
3B5
  8
OBJECT
 10
11.956873846456929
 20
106.5353869138352
 30
0.0
 11
36.206873846456944
 21
106.5353869138352
 31
0.0
  0
DIMENSION
  5
3B6
  8
DIM
  2
*D13
 10
13.20587384645693
 20
92.130081216576585
 30
0.0
 11
24.081873846456919
 21
92.130081216576585
 31
0.0
 70
     0
 13
34.957873846456927
 23
92.697081216576564
 33
0.0
 14
13.20587384645693
 24
92.697081216576564
 34
0.0
  0
DIMENSION
  5
3B7
  8
DIM
  2
*D14
 10
35.237873846456949
 20
89.150328379214145
 30
0.0
 11
24.081873846456919
 21
89.150328379214145
 31
0.0
 70
     0
 13
12.9258738464569
 23
87.752134279232664
 33
0.0
 14
35.237873846456949
 24
87.752134279232664
 34
0.0
  0
LINE
  5
3B8
  8
OBJECT
 10
13.206873846456901
 20
127.4413869138352
 30
0.0
 11
13.206873846456901
 21
108.62938691383521
 31
0.0
  0
LINE
  5
3B9
  8
OBJECT
 10
11.956873846456929
 20
116.5353869138352
 30
0.0
 11
11.956873846456929
 21
106.5353869138352
 31
0.0
  0
LINE
  5
3BA
  8
OBJECT
 10
13.20587384645693
 20
93.893134279232683
 30
0.0
 11
13.20587384645691
 21
83.361634279232675
 31
0.0
  0
CIRCLE
  5
3BB
  8
OBJECT
 10
12.9258738464569
 20
86.627134279232678
 30
0.0
 40
0.0885
  0
LINE
  5
3BC
  8
OBJECT
 10
15.64387384645689
 20
83.393134279232669
 30
0.0
 11
32.519873846456889
 21
83.393134279232669
 31
0.0
  0
LINE
  5
3BD
  8
OBJECT
 10
15.64387384645689
 20
81.611134279232687
 30
0.0
 11
32.519873846456889
 21
81.611134279232687
 31
0.0
  0
CIRCLE
  5
3BE
  8
OBJECT
 10
12.9258738464569
 20
70.252134279232678
 30
0.0
 40
0.0885
  0
CIRCLE
  5
3BF
  8
OBJECT
 10
12.9258738464569
 20
65.002134279232664
 30
0.0
 40
0.0885
  0
CIRCLE
  5
3C0
  8
OBJECT
 10
12.9258738464569
 20
65.627134279232664
 30
0.0
 40
0.0885
  0
CIRCLE
  5
3C1
  8
OBJECT
 10
12.9258738464569
 20
66.752134279232664
 30
0.0
 40
0.0885
  0
CIRCLE
  5
3C2
  8
OBJECT
 10
12.9258738464569
 20
66.127134279232664
 30
0.0
 40
0.0885
  0
CIRCLE
  5
3C3
  8
OBJECT
 10
12.9258738464569
 20
67.377134279232664
 30
0.0
 40
0.0885
  0
CIRCLE
  5
3C4
  8
OBJECT
 10
12.9258738464569
 20
68.502134279232678
 30
0.0
 40
0.0885
  0
CIRCLE
  5
3C5
  8
OBJECT
 10
12.9258738464569
 20
67.877134279232678
 30
0.0
 40
0.0885
  0
CIRCLE
  5
3C6
  8
OBJECT
 10
12.9258738464569
 20
69.127134279232678
 30
0.0
 40
0.0885
  0
CIRCLE
  5
3C7
  8
OBJECT
 10
12.9258738464569
 20
69.627134279232678
 30
0.0
 40
0.0885
  0
CIRCLE
  5
3C8
  8
OBJECT
 10
12.9258738464569
 20
73.127134279232664
 30
0.0
 40
0.0885
  0
CIRCLE
  5
3C9
  8
OBJECT
 10
12.9258738464569
 20
70.877134279232678
 30
0.0
 40
0.0885
  0
CIRCLE
  5
3CA
  8
OBJECT
 10
12.9258738464569
 20
72.002134279232678
 30
0.0
 40
0.0885
  0
CIRCLE
  5
3CB
  8
OBJECT
 10
12.9258738464569
 20
71.377134279232678
 30
0.0
 40
0.0885
  0
CIRCLE
  5
3CC
  8
OBJECT
 10
12.9258738464569
 20
72.627134279232678
 30
0.0
 40
0.0885
  0
CIRCLE
  5
3CD
  8
OBJECT
 10
12.9258738464569
 20
73.752134279232664
 30
0.0
 40
0.0885
  0
CIRCLE
  5
3CE
  8
OBJECT
 10
12.9258738464569
 20
74.377134279232664
 30
0.0
 40
0.0885
  0
CIRCLE
  5
3CF
  8
OBJECT
 10
12.9258738464569
 20
74.877134279232664
 30
0.0
 40
0.0885
  0
LINE
  5
3D0
  8
OBJECT
 10
14.64658495859188
 20
83.361634279232675
 30
0.0
 11
12.14387384645689
 21
83.361634279232675
 31
0.0
  0
LINE
  5
3D1
  8
OBJECT
 10
12.14387384645689
 20
81.642634279232681
 30
0.0
 11
14.646584958591889
 21
81.642634279232666
 31
0.0
  0
LINE
  5
3D2
  8
OBJECT
 10
13.20587384645691
 20
81.642634279232666
 30
0.0
 11
13.20587384645691
 21
78.111134279232687
 31
0.0
  0
CIRCLE
  5
3D3
  8
OBJECT
 10
12.9258738464569
 20
77.877134279232678
 30
0.0
 40
0.0885
  0
CIRCLE
  5
3D4
  8
OBJECT
 10
12.9258738464569
 20
78.377134279232678
 30
0.0
 40
0.0885
  0
CIRCLE
  5
3D5
  8
OBJECT
 10
12.9258738464569
 20
79.002134279232678
 30
0.0
 40
0.0885
  0
CIRCLE
  5
3D6
  8
OBJECT
 10
12.9258738464569
 20
79.627134279232678
 30
0.0
 40
0.0885
  0
CIRCLE
  5
3D7
  8
OBJECT
 10
12.9258738464569
 20
80.752134279232678
 30
0.0
 40
0.0885
  0
CIRCLE
  5
3D8
  8
OBJECT
 10
12.9258738464569
 20
80.127134279232678
 30
0.0
 40
0.0885
  0
LINE
  5
3D9
  8
OBJECT
 10
12.14387384645689
 20
83.361634279232675
 30
0.0
 11
12.14387384645689
 21
81.642634279232681
 31
0.0
  0
ARC
  5
3DA
  8
OBJECT
 10
12.9258738464569
 20
83.127134279232678
 30
0.0
 40
0.139
 50
269.99999999999989
 51
90.0
  0
ARC
  5
3DB
  8
OBJECT
 10
12.39187384645688
 20
83.127134279232678
 30
0.0
 40
0.139
 50
90.0
 51
270.0
  0
LINE
  5
3DC
  8
OBJECT
 10
12.9258738464569
 20
83.266134279232674
 30
0.0
 11
12.39187384645688
 21
83.266134279232674
 31
0.0
  0
LINE
  5
3DD
  8
OBJECT
 10
12.39187384645688
 20
82.988134279232668
 30
0.0
 11
12.9258738464569
 21
82.988134279232668
 31
0.0
  0
ARC
  5
3DE
  8
OBJECT
 10
12.9258738464569
 20
81.877134279232678
 30
0.0
 40
0.139
 50
270.0
 51
90.000000000000057
  0
ARC
  5
3DF
  8
OBJECT
 10
12.39187384645688
 20
81.877134279232678
 30
0.0
 40
0.139
 50
90.0
 51
270.0
  0
LINE
  5
3E0
  8
OBJECT
 10
12.39187384645688
 20
82.016134279232674
 30
0.0
 11
12.9258738464569
 21
82.016134279232674
 31
0.0
  0
LINE
  5
3E1
  8
OBJECT
 10
12.9258738464569
 20
81.738134279232668
 30
0.0
 11
12.39187384645688
 21
81.738134279232668
 31
0.0
  0
CIRCLE
  5
3E2
  8
OBJECT
 10
12.9258738464569
 20
81.377134279232678
 30
0.0
 40
0.0885
  0
CIRCLE
  5
3E3
  8
OBJECT
 10
12.9258738464569
 20
81.877134279232678
 30
0.0
 40
0.0885
  0
CIRCLE
  5
3E4
  8
OBJECT
 10
12.9258738464569
 20
83.127134279232678
 30
0.0
 40
0.0885
  0
CIRCLE
  5
3E5
  8
OBJECT
 10
12.9258738464569
 20
83.627134279232664
 30
0.0
 40
0.0885
  0
CIRCLE
  5
3E6
  8
OBJECT
 10
12.9258738464569
 20
84.252134279232664
 30
0.0
 40
0.0885
  0
CIRCLE
  5
3E7
  8
OBJECT
 10
12.9258738464569
 20
84.877134279232664
 30
0.0
 40
0.0885
  0
CIRCLE
  5
3E8
  8
OBJECT
 10
12.9258738464569
 20
86.002134279232678
 30
0.0
 40
0.0885
  0
CIRCLE
  5
3E9
  8
OBJECT
 10
12.9258738464569
 20
85.377134279232678
 30
0.0
 40
0.0885
  0
LINE
  5
3EA
  8
OBJECT
 10
16.956873846456901
 20
82.299134279232675
 30
0.0
 11
17.0028738464569
 21
82.299134279232675
 31
0.0
  0
LINE
  5
3EB
  8
OBJECT
 10
16.956873846456901
 20
82.611134279232658
 30
0.0
 11
17.0028738464569
 21
82.611134279232658
 31
0.0
  0
LINE
  5
3EC
  8
OBJECT
 10
16.956873846456901
 20
82.393134279232669
 30
0.0
 11
17.0028738464569
 21
82.393134279232669
 31
0.0
  0
POLYLINE
  5
3ED
  8
OBJECT
 66
     1
 10
0.0
 20
0.0
 30
0.0
  0
VERTEX
  5
81D
  8
OBJECT
 10
16.472873846456888
 20
82.143134279232669
 30
0.0
  0
VERTEX
  5
81E
  8
OBJECT
 10
17.190873846456881
 20
82.143134279232669
 30
0.0
  0
VERTEX
  5
81F
  8
OBJECT
 10
17.190873846456881
 20
82.861134279232658
 30
0.0
  0
VERTEX
  5
820
  8
OBJECT
 10
16.472873846456888
 20
82.861134279232658
 30
0.0
  0
VERTEX
  5
821
  8
OBJECT
 10
16.472873846456888
 20
82.143134279232669
 30
0.0
  0
SEQEND
  5
822
  8
OBJECT
  0
LINE
  5
3F4
  8
OBJECT
 10
14.706873846456901
 20
83.377134279232664
 30
0.0
 11
15.64387384645689
 21
83.377134279232664
 31
0.0
  0
LINE
  5
3F5
  8
OBJECT
 10
15.64387384645689
 20
81.627134279232678
 30
0.0
 11
14.706873846456901
 21
81.627134279232678
 31
0.0
  0
CIRCLE
  5
3F6
  8
OBJECT
 10
14.98787384645688
 20
83.127134279232678
 30
0.0
 40
0.109
  0
CIRCLE
  5
3F7
  8
OBJECT
 10
14.98787384645688
 20
81.877134279232678
 30
0.0
 40
0.109
  0
LINE
  5
3F8
  8
OBJECT
 10
14.82387388992062
 20
83.260134279232659
 30
0.0
 11
14.96387388992061
 21
83.260134279232659
 31
0.0
  0
LINE
  5
3F9
  8
OBJECT
 10
14.823873895138281
 20
82.994134279232668
 30
0.0
 11
14.96387389513829
 21
82.994134279232668
 31
0.0
  0
ARC
  5
3FA
  8
OBJECT
 10
14.823873846456889
 20
83.127134279232678
 30
0.0
 40
0.133
 50
89.999981276031747
 51
269.99998127603169
  0
ARC
  5
3FB
  8
OBJECT
 10
14.963873846456879
 20
83.127134279232678
 30
0.0
 40
0.133
 50
269.99998127603169
 51
89.999981276031747
  0
ARC
  5
3FC
  8
OBJECT
 10
14.963873846456879
 20
81.877134279232678
 30
0.0
 40
0.133
 50
269.99998127603169
 51
89.999981276031747
  0
ARC
  5
3FD
  8
OBJECT
 10
14.823873846456889
 20
81.877134279232678
 30
0.0
 40
0.133
 50
89.999981276031747
 51
269.99998127603169
  0
LINE
  5
3FE
  8
OBJECT
 10
14.823873895138281
 20
81.744134279232668
 30
0.0
 11
14.96387389513829
 21
81.744134279232668
 31
0.0
  0
LINE
  5
3FF
  8
OBJECT
 10
14.82387388992062
 20
82.010134279232659
 30
0.0
 11
14.96387388992061
 21
82.010134279232659
 31
0.0
  0
LINE
  5
400
  8
OBJECT
 10
14.581873846456901
 20
81.752134279232664
 30
0.0
 11
14.581873846456901
 21
83.252134279232678
 31
0.0
  0
ARC
  5
401
  8
OBJECT
 10
14.706873846456901
 20
83.252134279232678
 30
0.0
 40
0.125
 50
90.0
 51
180.0
  0
ARC
  5
402
  8
OBJECT
 10
14.706873846456901
 20
81.752134279232664
 30
0.0
 40
0.125
 50
180.0
 51
270.0
  0
LINE
  5
403
  8
OBJECT
 10
15.64387384645689
 20
83.377134279232664
 30
0.0
 11
15.64387384645689
 21
83.393134279232669
 31
0.0
  0
CIRCLE
  5
404
  8
OBJECT
 10
15.737873846456891
 20
82.971134279232672
 30
0.0
 40
0.102
  0
ARC
  5
405
  8
OBJECT
 10
15.73787384645688
 20
82.971134279232672
 30
0.0
 40
0.055
 50
209.17337986812791
 51
240.82662013187201
  0
LINE
  5
406
  8
OBJECT
 10
15.76468381860683
 20
82.923111103647116
 30
0.0
 11
15.737873846456891
 21
82.949921075797064
 31
0.0
  0
LINE
  5
407
  8
OBJECT
 10
15.78589702204242
 20
82.944324307082724
 30
0.0
 11
15.759087049892489
 21
82.971134279232672
 31
0.0
  0
LINE
  5
408
  8
OBJECT
 10
15.689850670871349
 20
82.944324307082724
 30
0.0
 11
15.716660643021291
 21
82.971134279232672
 31
0.0
  0
LINE
  5
409
  8
OBJECT
 10
15.71106387430696
 20
82.923111103647116
 30
0.0
 11
15.73787384645688
 21
82.949921075797064
 31
0.0
  0
ARC
  5
40A
  8
OBJECT
 10
15.73787384645688
 20
82.971134279232672
 30
0.0
 40
0.055
 50
119.1733798681274
 51
150.82662013187249
  0
ARC
  5
40B
  8
OBJECT
 10
15.73787384645688
 20
82.971134279232672
 30
0.0
 40
0.055
 50
29.173379868127981
 51
60.826620131871998
  0
ARC
  5
40C
  8
OBJECT
 10
15.73787384645688
 20
82.971134279232672
 30
0.0
 40
0.055
 50
299.17337986812743
 51
330.82662013187252
  0
LINE
  5
40D
  8
OBJECT
 10
15.716660643021291
 20
82.971134279232672
 30
0.0
 11
15.689850670871349
 21
82.99794425138262
 31
0.0
  0
LINE
  5
40E
  8
OBJECT
 10
15.737873846456891
 20
82.992347482668265
 30
0.0
 11
15.71106387430696
 21
83.019157454818213
 31
0.0
  0
LINE
  5
40F
  8
OBJECT
 10
15.737873846456891
 20
82.992347482668265
 30
0.0
 11
15.76468381860683
 21
83.019157454818213
 31
0.0
  0
LINE
  5
410
  8
OBJECT
 10
15.759087049892489
 20
82.971134279232672
 30
0.0
 11
15.78589702204242
 21
82.99794425138262
 31
0.0
  0
LINE
  5
411
  8
OBJECT
 10
16.706873846456901
 20
82.299134279232675
 30
0.0
 11
16.66087384645688
 21
82.299134279232675
 31
0.0
  0
LINE
  5
412
  8
OBJECT
 10
16.706873846456901
 20
82.393134279232669
 30
0.0
 11
16.66087384645688
 21
82.393134279232669
 31
0.0
  0
LINE
  5
413
  8
OBJECT
 10
16.66087384645688
 20
82.299134279232675
 30
0.0
 11
16.66087384645688
 21
82.611134279232658
 31
0.0
  0
LINE
  5
414
  8
OBJECT
 10
16.706873846456901
 20
82.611134279232658
 30
0.0
 11
16.66087384645688
 21
82.611134279232658
 31
0.0
  0
LINE
  5
415
  8
OBJECT
 10
16.956873846456901
 20
82.393134279232669
 30
0.0
 11
16.706873846456901
 21
82.393134279232669
 31
0.0
  0
LINE
  5
416
  8
OBJECT
 10
15.64387384645689
 20
81.611134279232658
 30
0.0
 11
15.64387384645689
 21
81.627134279232678
 31
0.0
  0
LINE
  5
417
  8
OBJECT
 10
15.759087049892489
 20
82.033134279232684
 30
0.0
 11
15.78589702204242
 21
82.059944251382603
 31
0.0
  0
LINE
  5
418
  8
OBJECT
 10
15.737873846456891
 20
82.054347482668277
 30
0.0
 11
15.76468381860683
 21
82.081157454818197
 31
0.0
  0
LINE
  5
419
  8
OBJECT
 10
15.737873846456891
 20
82.054347482668277
 30
0.0
 11
15.71106387430696
 21
82.081157454818197
 31
0.0
  0
LINE
  5
41A
  8
OBJECT
 10
15.716660643021291
 20
82.033134279232655
 30
0.0
 11
15.689850670871349
 21
82.059944251382603
 31
0.0
  0
ARC
  5
41B
  8
OBJECT
 10
15.73787384645688
 20
82.033134279232655
 30
0.0
 40
0.055
 50
299.17337986812743
 51
330.82662013187252
  0
ARC
  5
41C
  8
OBJECT
 10
15.73787384645688
 20
82.033134279232655
 30
0.0
 40
0.055
 50
29.173379868127981
 51
60.826620131871998
  0
ARC
  5
41D
  8
OBJECT
 10
15.73787384645688
 20
82.033134279232655
 30
0.0
 40
0.055
 50
119.1733798681274
 51
150.82662013187249
  0
LINE
  5
41E
  8
OBJECT
 10
15.71106387430696
 20
81.985111103647142
 30
0.0
 11
15.73787384645688
 21
82.011921075797048
 31
0.0
  0
LINE
  5
41F
  8
OBJECT
 10
15.689850670871349
 20
82.006324307082735
 30
0.0
 11
15.716660643021291
 21
82.033134279232655
 31
0.0
  0
LINE
  5
420
  8
OBJECT
 10
15.78589702204242
 20
82.006324307082735
 30
0.0
 11
15.759087049892489
 21
82.033134279232655
 31
0.0
  0
LINE
  5
421
  8
OBJECT
 10
15.76468381860683
 20
81.985111103647142
 30
0.0
 11
15.737873846456891
 21
82.011921075797048
 31
0.0
  0
ARC
  5
422
  8
OBJECT
 10
15.73787384645688
 20
82.033134279232655
 30
0.0
 40
0.055
 50
209.17337986812791
 51
240.82662013187201
  0
CIRCLE
  5
423
  8
OBJECT
 10
15.737873846456891
 20
82.033134279232655
 30
0.0
 40
0.102
  0
POLYLINE
  5
424
  8
OBJECT
 66
     1
 10
0.0
 20
0.0
 30
0.0
  0
VERTEX
  5
823
  8
OBJECT
 10
16.706873846456901
 20
82.268134279232655
 30
0.0
  0
VERTEX
  5
824
  8
OBJECT
 10
16.956873846456901
 20
82.268134279232655
 30
0.0
  0
VERTEX
  5
825
  8
OBJECT
 10
16.956873846456901
 20
82.736134279232644
 30
0.0
  0
VERTEX
  5
826
  8
OBJECT
 10
16.706873846456901
 20
82.736134279232644
 30
0.0
  0
VERTEX
  5
827
  8
OBJECT
 10
16.706873846456901
 20
82.268134279232655
 30
0.0
  0
SEQEND
  5
828
  8
OBJECT
  0
LINE
  5
42B
  8
OBJECT
 10
17.394373846456901
 20
83.111134279232644
 30
0.0
 11
18.01937384645689
 21
83.111134279232644
 31
0.0
  0
ARC
  5
42C
  8
OBJECT
 10
17.706873846456901
 20
81.978569763103621
 30
0.0
 40
1.023564516129043
 50
75.862809765993873
 51
104.1371902340061
  0
LINE
  5
42D
  8
OBJECT
 10
17.956873846456901
 20
82.971134279232672
 30
0.0
 11
18.01937384645689
 21
83.111134279232644
 31
0.0
  0
LINE
  5
42E
  8
OBJECT
 10
17.456873846456901
 20
82.971134279232672
 30
0.0
 11
17.394373846456901
 21
83.111134279232644
 31
0.0
  0
LINE
  5
42F
  8
OBJECT
 10
17.394373846456901
 20
81.893134279232655
 30
0.0
 11
18.01937384645689
 21
81.893134279232655
 31
0.0
  0
ARC
  5
430
  8
OBJECT
 10
17.706873846456901
 20
83.025698795361706
 30
0.0
 40
1.023564516129043
 50
255.8628097659938
 51
284.13719023400603
  0
LINE
  5
431
  8
OBJECT
 10
17.456873846456901
 20
82.033134279232655
 30
0.0
 11
17.394373846456901
 21
81.893134279232655
 31
0.0
  0
LINE
  5
432
  8
OBJECT
 10
17.956873846456901
 20
82.033134279232655
 30
0.0
 11
18.01937384645689
 21
81.893134279232655
 31
0.0
  0
LINE
  5
433
  8
OBJECT
 10
17.53487384645689
 20
82.329134279232676
 30
0.0
 11
17.878873846456901
 21
82.329134279232676
 31
0.0
  0
LINE
  5
434
  8
OBJECT
 10
17.394373846456901
 20
81.893134279232655
 30
0.0
 11
17.394373846456901
 21
83.111134279232644
 31
0.0
  0
LINE
  5
435
  8
OBJECT
 10
18.01937384645689
 20
81.893134279232655
 30
0.0
 11
18.01937384645689
 21
83.111134279232644
 31
0.0
  0
POLYLINE
  5
436
  8
OBJECT
 66
     1
 10
0.0
 20
0.0
 30
0.0
  0
VERTEX
  5
829
  8
OBJECT
 10
17.53487384645689
 20
82.111134279232644
 30
0.0
  0
VERTEX
  5
82A
  8
OBJECT
 10
17.878873846456901
 20
82.111134279232644
 30
0.0
  0
VERTEX
  5
82B
  8
OBJECT
 10
17.878873846456901
 20
82.893134279232655
 30
0.0
  0
VERTEX
  5
82C
  8
OBJECT
 10
17.53487384645689
 20
82.893134279232655
 30
0.0
  0
VERTEX
  5
82D
  8
OBJECT
 10
17.53487384645689
 20
82.111134279232644
 30
0.0
  0
SEQEND
  5
82E
  8
OBJECT
  0
ARC
  5
43D
  8
OBJECT
 10
20.989131910973061
 20
82.502134279232678
 30
0.0
 40
3.5632580645161611
 50
172.43671959085069
 51
187.5632804091492
  0
ARC
  5
43E
  8
OBJECT
 10
14.424615781940719
 20
82.502134279232678
 30
0.0
 40
3.5632580645161611
 50
352.43671959085071
 51
7.5632804091492307
  0
LINE
  5
43F
  8
OBJECT
 10
17.0028738464569
 20
82.299134279232675
 30
0.0
 11
17.0028738464569
 21
82.611134279232658
 31
0.0
  0
TEXT
  5
440
  8
OBJECT
 10
17.097873846456899
 20
82.549134279232675
 30
0.0
 40
0.062
  1
15
 41
0.75
 72
     1
 11
17.128873846456901
 21
82.549134279232675
 31
0.0
  0
TEXT
  5
441
  8
OBJECT
 10
17.113373846456899
 20
82.441134279232671
 30
0.0
 40
0.062
  1
A
 41
0.75
 72
     1
 11
17.128873846456901
 21
82.441134279232671
 31
0.0
  0
TEXT
  5
442
  8
OBJECT
 10
17.113373846456899
 20
82.354801252004762
 30
0.0
 40
0.062
  1
M
 41
0.75
 72
     1
 11
17.128873846456901
 21
82.354801252004762
 31
0.0
  0
TEXT
  5
443
  8
OBJECT
 10
17.113373846456899
 20
82.268468224776825
 30
0.0
 40
0.062
  1
P
 41
0.75
 72
     1
 11
17.128873846456901
 21
82.268468224776825
 31
0.0
  0
CIRCLE
  5
444
  8
OBJECT
 10
19.831873846456901
 20
82.502134279232678
 30
0.0
 40
0.2189999999999999
  0
LINE
  5
445
  8
OBJECT
 10
32.404660643021309
 20
82.971134279232672
 30
0.0
 11
32.377850670871361
 21
82.99794425138262
 31
0.0
  0
LINE
  5
446
  8
OBJECT
 10
32.425873846456902
 20
82.992347482668265
 30
0.0
 11
32.399063874306947
 21
83.019157454818213
 31
0.0
  0
LINE
  5
447
  8
OBJECT
 10
32.425873846456902
 20
82.992347482668265
 30
0.0
 11
32.45268381860685
 21
83.019157454818213
 31
0.0
  0
LINE
  5
448
  8
OBJECT
 10
32.447087049892488
 20
82.971134279232672
 30
0.0
 11
32.473897022042443
 21
82.99794425138262
 31
0.0
  0
ARC
  5
449
  8
OBJECT
 10
32.425873846456902
 20
82.971134279232672
 30
0.0
 40
0.055
 50
209.1733798681274
 51
240.82662013187249
  0
ARC
  5
44A
  8
OBJECT
 10
32.425873846456902
 20
82.971134279232672
 30
0.0
 40
0.055
 50
119.1733798681279
 51
150.82662013187189
  0
ARC
  5
44B
  8
OBJECT
 10
32.425873846456902
 20
82.971134279232672
 30
0.0
 40
0.055
 50
29.17337986812743
 51
60.826620131872559
  0
LINE
  5
44C
  8
OBJECT
 10
32.45268381860685
 20
82.923111103647116
 30
0.0
 11
32.425873846456902
 21
82.949921075797064
 31
0.0
  0
LINE
  5
44D
  8
OBJECT
 10
32.473897022042443
 20
82.944324307082724
 30
0.0
 11
32.447087049892488
 21
82.971134279232672
 31
0.0
  0
LINE
  5
44E
  8
OBJECT
 10
32.377850670871361
 20
82.944324307082724
 30
0.0
 11
32.404660643021309
 21
82.971134279232672
 31
0.0
  0
LINE
  5
44F
  8
OBJECT
 10
32.399063874306947
 20
82.923111103647116
 30
0.0
 11
32.425873846456902
 21
82.949921075797064
 31
0.0
  0
ARC
  5
450
  8
OBJECT
 10
32.425873846456902
 20
82.971134279232672
 30
0.0
 40
0.055
 50
299.17337986812799
 51
330.82662013187201
  0
CIRCLE
  5
451
  8
OBJECT
 10
32.425873846456902
 20
82.971134279232672
 30
0.0
 40
0.102
  0
LINE
  5
452
  8
OBJECT
 10
32.519873846456889
 20
83.377134279232664
 30
0.0
 11
32.519873846456889
 21
83.393134279232669
 31
0.0
  0
CIRCLE
  5
453
  8
OBJECT
 10
32.425873846456902
 20
82.033134279232655
 30
0.0
 40
0.102
  0
ARC
  5
454
  8
OBJECT
 10
32.425873846456902
 20
82.033134279232655
 30
0.0
 40
0.055
 50
299.17337986812799
 51
330.82662013187201
  0
LINE
  5
455
  8
OBJECT
 10
32.399063874306947
 20
81.985111103647142
 30
0.0
 11
32.425873846456902
 21
82.011921075797048
 31
0.0
  0
LINE
  5
456
  8
OBJECT
 10
32.377850670871361
 20
82.006324307082735
 30
0.0
 11
32.404660643021309
 21
82.033134279232655
 31
0.0
  0
LINE
  5
457
  8
OBJECT
 10
32.473897022042443
 20
82.006324307082735
 30
0.0
 11
32.447087049892488
 21
82.033134279232655
 31
0.0
  0
LINE
  5
458
  8
OBJECT
 10
32.45268381860685
 20
81.985111103647142
 30
0.0
 11
32.425873846456902
 21
82.011921075797048
 31
0.0
  0
ARC
  5
459
  8
OBJECT
 10
32.425873846456902
 20
82.033134279232655
 30
0.0
 40
0.055
 50
29.17337986812743
 51
60.826620131872559
  0
ARC
  5
45A
  8
OBJECT
 10
32.425873846456902
 20
82.033134279232655
 30
0.0
 40
0.055
 50
119.1733798681279
 51
150.82662013187189
  0
ARC
  5
45B
  8
OBJECT
 10
32.425873846456902
 20
82.033134279232655
 30
0.0
 40
0.055
 50
209.1733798681274
 51
240.82662013187249
  0
LINE
  5
45C
  8
OBJECT
 10
32.447087049892488
 20
82.033134279232655
 30
0.0
 11
32.473897022042443
 21
82.059944251382603
 31
0.0
  0
LINE
  5
45D
  8
OBJECT
 10
32.425873846456902
 20
82.054347482668277
 30
0.0
 11
32.45268381860685
 21
82.081157454818197
 31
0.0
  0
LINE
  5
45E
  8
OBJECT
 10
32.425873846456902
 20
82.054347482668277
 30
0.0
 11
32.399063874306947
 21
82.081157454818197
 31
0.0
  0
LINE
  5
45F
  8
OBJECT
 10
32.404660643021309
 20
82.033134279232684
 30
0.0
 11
32.377850670871361
 21
82.059944251382603
 31
0.0
  0
LINE
  5
460
  8
OBJECT
 10
32.519873846456889
 20
81.611134279232658
 30
0.0
 11
32.519873846456889
 21
81.627134279232678
 31
0.0
  0
CIRCLE
  5
461
  8
OBJECT
 10
12.9258738464569
 20
97.627134279232692
 30
0.0
 40
0.0885
  0
CIRCLE
  5
462
  8
OBJECT
 10
12.9258738464569
 20
87.752134279232664
 30
0.0
 40
0.0885
  0
CIRCLE
  5
463
  8
OBJECT
 10
12.9258738464569
 20
87.127134279232664
 30
0.0
 40
0.0885
  0
CIRCLE
  5
464
  8
OBJECT
 10
12.9258738464569
 20
88.377134279232664
 30
0.0
 40
0.0885
  0
CIRCLE
  5
465
  8
OBJECT
 10
12.9258738464569
 20
88.877134279232678
 30
0.0
 40
0.0885
  0
CIRCLE
  5
466
  8
OBJECT
 10
12.9258738464569
 20
89.502134279232678
 30
0.0
 40
0.0885
  0
CIRCLE
  5
467
  8
OBJECT
 10
12.9258738464569
 20
90.127134279232678
 30
0.0
 40
0.0885
  0
CIRCLE
  5
468
  8
OBJECT
 10
12.9258738464569
 20
91.252134279232678
 30
0.0
 40
0.0885
  0
CIRCLE
  5
469
  8
OBJECT
 10
12.9258738464569
 20
90.627134279232678
 30
0.0
 40
0.0885
  0
CIRCLE
  5
46A
  8
OBJECT
 10
12.9258738464569
 20
91.877134279232678
 30
0.0
 40
0.0885
  0
CIRCLE
  5
46B
  8
OBJECT
 10
12.9258738464569
 20
93.002134279232664
 30
0.0
 40
0.0885
  0
CIRCLE
  5
46C
  8
OBJECT
 10
12.9258738464569
 20
92.377134279232664
 30
0.0
 40
0.0885
  0
CIRCLE
  5
46D
  8
OBJECT
 10
12.9258738464569
 20
93.627134279232664
 30
0.0
 40
0.0885
  0
CIRCLE
  5
46E
  8
OBJECT
 10
12.9258738464569
 20
94.127134279232678
 30
0.0
 40
0.0885
  0
CIRCLE
  5
46F
  8
OBJECT
 10
12.9258738464569
 20
95.377134279232706
 30
0.0
 40
0.0885
  0
CIRCLE
  5
470
  8
OBJECT
 10
14.08187384645692
 20
107.7853869138349
 30
0.0
 40
0.375
  0
LINE
  5
471
  8
OBJECT
 10
11.94087384645691
 20
99.815134279232709
 30
0.0
 11
13.20587384645693
 21
99.815134279232709
 31
0.0
  0
CIRCLE
  5
472
  8
OBJECT
 10
12.9258738464569
 20
98.877134279232692
 30
0.0
 40
0.0885
  0
LINE
  5
473
  8
OBJECT
 10
13.20587384645693
 20
99.815134279232709
 30
0.0
 11
13.20587384645693
 21
99.111134279232701
 31
0.0
  0
LINE
  5
474
  8
OBJECT
 10
13.26787384645694
 20
108.5353869138352
 30
0.0
 11
13.26787384645694
 21
108.62938691383521
 31
0.0
  0
LINE
  5
475
  8
OBJECT
 10
13.206873846456901
 20
108.62938691383521
 30
0.0
 11
13.26887384645692
 21
108.62938691383521
 31
0.0
  0
LINE
  5
476
  8
OBJECT
 10
13.39287384645694
 20
108.59738691383519
 30
0.0
 11
13.39287384645694
 21
108.5353869138352
 31
0.0
  0
LINE
  5
477
  8
OBJECT
 10
11.956873846456929
 20
119.5353869138352
 30
0.0
 11
11.956873846456929
 21
129.5353869138352
 31
0.0
  0
LINE
  5
478
  8
OBJECT
 10
11.956873846456929
 20
116.5353869138352
 30
0.0
 11
11.956873846456929
 21
114.5353869138352
 31
0.0
  0
POLYLINE
  5
479
  8
OBJECT
 66
     1
 10
0.0
 20
0.0
 30
0.0
 70
     1
  0
VERTEX
  5
82F
  8
OBJECT
 10
13.205873846456891
 20
119.4383869138352
 30
0.0
 42
-0.4142135623730951
  0
VERTEX
  5
830
  8
OBJECT
 10
13.11587384645688
 20
119.3483869138352
 30
0.0
  0
VERTEX
  5
831
  8
OBJECT
 10
12.314873846456891
 20
119.3483869138352
 30
0.0
 42
0.4142135623730969
  0
VERTEX
  5
832
  8
OBJECT
 10
12.09687384645691
 20
119.1303869138352
 30
0.0
  0
VERTEX
  5
833
  8
OBJECT
 10
12.096873846456919
 20
116.9403869138352
 30
0.0
 42
0.4142135623730922
  0
VERTEX
  5
834
  8
OBJECT
 10
12.314873846456919
 20
116.72238691383519
 30
0.0
  0
VERTEX
  5
835
  8
OBJECT
 10
13.11587384645688
 20
116.72238691383519
 30
0.0
 42
-0.4142135623730927
  0
VERTEX
  5
836
  8
OBJECT
 10
13.205873846456891
 20
116.63238691383521
 30
0.0
  0
VERTEX
  5
837
  8
OBJECT
 10
13.205873846456891
 20
116.5353869138352
 30
0.0
  0
VERTEX
  5
838
  8
OBJECT
 10
11.940873846456929
 20
116.5353869138352
 30
0.0
  0
VERTEX
  5
839
  8
OBJECT
 10
11.940873846456929
 20
119.5353869138352
 30
0.0
  0
VERTEX
  5
83A
  8
OBJECT
 10
13.205873846456891
 20
119.5353869138352
 30
0.0
  0
SEQEND
  5
83B
  8
OBJECT
  0
LINE
  5
487
  8
OBJECT
 10
13.206873846456901
 20
116.2853869138352
 30
0.0
 11
11.956873846456929
 21
116.2853869138352
 31
0.0
  0
ARC
  5
488
  8
OBJECT
 10
13.12987384645692
 20
116.4583869138352
 30
0.0
 40
0.0770000000000047
 50
0.0
 51
90.0
  0
LINE
  5
489
  8
OBJECT
 10
12.58187384645692
 20
116.5353869138352
 30
0.0
 11
12.58187384645692
 21
116.4733869138352
 31
0.0
  0
LINE
  5
48A
  8
OBJECT
 10
13.20687384645692
 20
115.9103869138352
 30
0.0
 11
13.20687384645692
 21
116.4583869138352
 31
0.0
  0
LINE
  5
48B
  8
OBJECT
 10
13.144873846456919
 20
116.4583869138352
 30
0.0
 11
13.144873846456919
 21
115.9103869138352
 31
0.0
  0
LINE
  5
48C
  8
OBJECT
 10
13.144873846456919
 20
115.9103869138352
 30
0.0
 11
13.20687384645692
 21
115.9103869138352
 31
0.0
  0
ARC
  5
48D
  8
OBJECT
 10
13.12987384645692
 20
116.4583869138352
 30
0.0
 40
0.015
 50
0.0
 51
90.0
  0
LINE
  5
48E
  8
OBJECT
 10
12.58187384645692
 20
116.4733869138352
 30
0.0
 11
13.12987384645692
 21
116.4733869138352
 31
0.0
  0
LINE
  5
48F
  8
OBJECT
 10
12.58187384645692
 20
116.5353869138352
 30
0.0
 11
13.12987384645692
 21
116.5353869138352
 31
0.0
  0
LINE
  5
490
  8
OBJECT
 10
12.23737384645689
 20
115.96938691383519
 30
0.0
 11
12.86237384645689
 21
115.96938691383519
 31
0.0
  0
LINE
  5
491
  8
OBJECT
 10
12.23737384645689
 20
115.96938691383519
 30
0.0
 11
12.23737384645689
 21
116.2853869138352
 31
0.0
  0
LINE
  5
492
  8
OBJECT
 10
12.54987384645689
 20
115.96938691383519
 30
0.0
 11
12.54987384645689
 21
116.2853869138352
 31
0.0
  0
LINE
  5
493
  8
OBJECT
 10
12.86237384645689
 20
115.96938691383519
 30
0.0
 11
12.86237384645689
 21
116.2853869138352
 31
0.0
  0
LINE
  5
494
  8
OBJECT
 10
13.206873846456901
 20
119.7853869138352
 30
0.0
 11
11.956873846456929
 21
119.7853869138352
 31
0.0
  0
LINE
  5
495
  8
OBJECT
 10
13.144873846456919
 20
120.1603869138352
 30
0.0
 11
13.20687384645692
 21
120.1603869138352
 31
0.0
  0
ARC
  5
496
  8
OBJECT
 10
13.12987384645692
 20
119.61238691383519
 30
0.0
 40
0.015
 50
270.0
 51
0.0
  0
ARC
  5
497
  8
OBJECT
 10
13.12987384645692
 20
119.61238691383519
 30
0.0
 40
0.0770000000000047
 50
270.0
 51
0.0
  0
LINE
  5
498
  8
OBJECT
 10
12.58187384645692
 20
119.5353869138352
 30
0.0
 11
12.58187384645692
 21
119.59738691383519
 31
0.0
  0
LINE
  5
499
  8
OBJECT
 10
12.58187384645692
 20
119.59738691383519
 30
0.0
 11
13.12987384645692
 21
119.59738691383519
 31
0.0
  0
LINE
  5
49A
  8
OBJECT
 10
12.58187384645692
 20
119.5353869138352
 30
0.0
 11
13.12987384645692
 21
119.5353869138352
 31
0.0
  0
LINE
  5
49B
  8
OBJECT
 10
13.144873846456919
 20
119.61238691383519
 30
0.0
 11
13.144873846456919
 21
120.1603869138352
 31
0.0
  0
LINE
  5
49C
  8
OBJECT
 10
13.20687384645692
 20
120.1603869138352
 30
0.0
 11
13.20687384645692
 21
119.61238691383519
 31
0.0
  0
LINE
  5
49D
  8
OBJECT
 10
12.23737384645689
 20
120.1013869138352
 30
0.0
 11
12.86237384645689
 21
120.1013869138352
 31
0.0
  0
LINE
  5
49E
  8
OBJECT
 10
12.86237384645689
 20
120.1013869138352
 30
0.0
 11
12.86237384645689
 21
119.7853869138352
 31
0.0
  0
LINE
  5
49F
  8
OBJECT
 10
12.54987384645689
 20
120.1013869138352
 30
0.0
 11
12.54987384645689
 21
119.7853869138352
 31
0.0
  0
LINE
  5
4A0
  8
OBJECT
 10
12.23737384645689
 20
120.1013869138352
 30
0.0
 11
12.23737384645689
 21
119.7853869138352
 31
0.0
  0
LINE
  5
4A1
  8
OBJECT
 10
13.2538738464569
 20
129.0353869138352
 30
0.0
 11
13.2538738464569
 21
127.4413869138352
 31
0.0
  0
LINE
  5
4A2
  8
OBJECT
 10
13.26787384645694
 20
127.5353869138352
 30
0.0
 11
13.26787384645694
 21
127.4413869138352
 31
0.0
  0
LINE
  5
4A3
  8
OBJECT
 10
13.206873846456901
 20
127.4413869138352
 30
0.0
 11
13.26887384645692
 21
127.4413869138352
 31
0.0
  0
LINE
  5
4A4
  8
OBJECT
 10
13.39287384645694
 20
127.5353869138352
 30
0.0
 11
13.39287384645694
 21
127.4733869138352
 31
0.0
  0
LINE
  5
4A5
  8
OBJECT
 10
34.956873846456922
 20
127.4413869138352
 30
0.0
 11
34.956873846456922
 21
108.62938691383521
 31
0.0
  0
LINE
  5
4A6
  8
OBJECT
 10
36.206873846456944
 20
106.5353869138352
 30
0.0
 11
36.206873846456929
 21
116.5353869138352
 31
0.0
  0
POLYLINE
  5
4A7
  8
DIM
 66
     1
 10
0.0
 20
0.0
 30
0.0
 41
0.6075000000000002
  0
VERTEX
  5
83C
  8
DIM
 10
59.744156630250018
 20
81.893134279232655
 30
0.0
  0
VERTEX
  5
83D
  8
DIM
 10
58.730593170774547
 20
80.629374367850716
 30
0.0
 41
0.0
  0
VERTEX
  5
83E
  8
DIM
 10
57.869566466861329
 20
79.555804656095347
 30
0.0
 41
0.0
  0
VERTEX
  5
83F
  8
DIM
 10
56.249566466861332
 20
79.555804656095347
 30
0.0
 41
0.0
  0
SEQEND
  5
840
  8
DIM
  0
LINE
  5
4AD
  8
OBJECT
 10
59.632838324871877
 20
82.299134279232675
 30
0.0
 11
59.55615663025003
 21
82.159297583413789
 31
0.0
  0
ARC
  5
4AE
  8
OBJECT
 10
59.744156630250018
 20
82.502134279232664
 30
0.0
 40
0.391
 50
241.2611324072727
 51
270.0
  0
LINE
  5
4AF
  8
OBJECT
 10
59.61815663025002
 20
82.299134279232675
 30
0.0
 11
59.634156630250011
 21
82.299134279232675
 31
0.0
  0
LINE
  5
4B0
  8
OBJECT
 10
59.61815663025002
 20
82.611134279232658
 30
0.0
 11
59.634156630250011
 21
82.611134279232658
 31
0.0
  0
LINE
  5
4B1
  8
OBJECT
 10
60.04015663025001
 20
99.111134279232743
 30
0.0
 11
52.102156630250029
 21
99.111134279232743
 31
0.0
  0
LINE
  5
4B2
  8
OBJECT
 10
60.04015663025001
 20
93.893134279232754
 30
0.0
 11
57.258156630250028
 21
93.893134279232754
 31
0.0
  0
CIRCLE
  5
4B3
  8
OBJECT
 10
59.665156630250017
 20
98.252134279232735
 30
0.0
 40
0.1405
  0
CIRCLE
  5
4B4
  8
OBJECT
 10
59.665156630250017
 20
94.752134279232735
 30
0.0
 40
0.1405
  0
DIMENSION
  5
4B5
  8
DIM
  2
*D15
 10
60.04015663025001
 20
28.692215365140068
 30
0.0
 11
54.51359413025002
 21
28.692215365140068
 31
0.0
 70
     0
  1
<>
 13
63.04015663025001
 23
33.690134279232659
 33
0.0
 14
60.04015663025001
 24
33.690134279232659
 34
0.0
  0
LINE
  5
4B6
  8
OBJECT
 10
34.957873846456927
 20
93.893134279232683
 30
0.0
 11
34.957873846456941
 21
83.361634279232675
 31
0.0
  0
CIRCLE
  5
4B7
  8
OBJECT
 10
35.237873846456949
 20
86.627134279232678
 30
0.0
 40
0.0885
  0
TEXT
  5
4B8
  8
DIM
 10
43.345816466861322
 20
78.993304656095333
 30
0.0
 40
1.125
  1
PART #POS-194-S
 41
0.75
 72
     2
 11
55.439566466861322
 21
79.555804656095347
 31
0.0
 73
     2
  0
CIRCLE
  5
4B9
  8
OBJECT
 10
35.237873846456949
 20
70.252134279232678
 30
0.0
 40
0.0885
  0
CIRCLE
  5
4BA
  8
OBJECT
 10
35.237873846456949
 20
65.002134279232664
 30
0.0
 40
0.0885
  0
CIRCLE
  5
4BB
  8
OBJECT
 10
35.237873846456949
 20
65.627134279232664
 30
0.0
 40
0.0885
  0
CIRCLE
  5
4BC
  8
OBJECT
 10
35.237873846456949
 20
66.127134279232664
 30
0.0
 40
0.0885
  0
CIRCLE
  5
4BD
  8
OBJECT
 10
35.237873846456949
 20
66.752134279232664
 30
0.0
 40
0.0885
  0
CIRCLE
  5
4BE
  8
OBJECT
 10
35.237873846456949
 20
67.377134279232664
 30
0.0
 40
0.0885
  0
CIRCLE
  5
4BF
  8
OBJECT
 10
35.237873846456949
 20
67.877134279232678
 30
0.0
 40
0.0885
  0
CIRCLE
  5
4C0
  8
OBJECT
 10
35.237873846456949
 20
68.502134279232678
 30
0.0
 40
0.0885
  0
CIRCLE
  5
4C1
  8
OBJECT
 10
35.237873846456949
 20
69.127134279232678
 30
0.0
 40
0.0885
  0
CIRCLE
  5
4C2
  8
OBJECT
 10
35.237873846456949
 20
69.627134279232678
 30
0.0
 40
0.0885
  0
CIRCLE
  5
4C3
  8
OBJECT
 10
35.237873846456949
 20
73.127134279232664
 30
0.0
 40
0.0885
  0
CIRCLE
  5
4C4
  8
OBJECT
 10
35.237873846456949
 20
70.877134279232678
 30
0.0
 40
0.0885
  0
CIRCLE
  5
4C5
  8
OBJECT
 10
35.237873846456949
 20
71.377134279232678
 30
0.0
 40
0.0885
  0
CIRCLE
  5
4C6
  8
OBJECT
 10
35.237873846456949
 20
72.002134279232678
 30
0.0
 40
0.0885
  0
CIRCLE
  5
4C7
  8
OBJECT
 10
35.237873846456949
 20
72.627134279232678
 30
0.0
 40
0.0885
  0
CIRCLE
  5
4C8
  8
OBJECT
 10
35.237873846456949
 20
73.752134279232664
 30
0.0
 40
0.0885
  0
CIRCLE
  5
4C9
  8
OBJECT
 10
35.237873846456949
 20
74.377134279232664
 30
0.0
 40
0.0885
  0
CIRCLE
  5
4CA
  8
OBJECT
 10
35.237873846456949
 20
74.877134279232664
 30
0.0
 40
0.0885
  0
LINE
  5
4CB
  8
OBJECT
 10
34.957873846456941
 20
81.642634279232681
 30
0.0
 11
34.957873846456927
 21
78.111134279232687
 31
0.0
  0
CIRCLE
  5
4CC
  8
OBJECT
 10
35.237873846456949
 20
77.877134279232678
 30
0.0
 40
0.0885
  0
CIRCLE
  5
4CD
  8
OBJECT
 10
35.237873846456949
 20
78.377134279232678
 30
0.0
 40
0.0885
  0
CIRCLE
  5
4CE
  8
OBJECT
 10
35.237873846456949
 20
79.002134279232678
 30
0.0
 40
0.0885
  0
CIRCLE
  5
4CF
  8
OBJECT
 10
35.237873846456949
 20
79.627134279232678
 30
0.0
 40
0.0885
  0
CIRCLE
  5
4D0
  8
OBJECT
 10
35.237873846456949
 20
80.127134279232678
 30
0.0
 40
0.0885
  0
CIRCLE
  5
4D1
  8
OBJECT
 10
35.237873846456949
 20
80.752134279232678
 30
0.0
 40
0.0885
  0
LINE
  5
4D2
  8
OBJECT
 10
33.517162734321921
 20
81.642634279232666
 30
0.0
 11
36.019873846456889
 21
81.642634279232681
 31
0.0
  0
LINE
  5
4D3
  8
OBJECT
 10
36.019873846456889
 20
83.361634279232675
 30
0.0
 11
33.517162734321921
 21
83.361634279232675
 31
0.0
  0
CIRCLE
  5
4D4
  8
OBJECT
 10
33.175873846456902
 20
81.877134279232678
 30
0.0
 40
0.109
  0
CIRCLE
  5
4D5
  8
OBJECT
 10
33.175873846456902
 20
83.127134279232678
 30
0.0
 40
0.109
  0
ARC
  5
4D6
  8
OBJECT
 10
33.456873846456908
 20
83.252134279232678
 30
0.0
 40
0.125
 50
0.0
 51
90.0
  0
ARC
  5
4D7
  8
OBJECT
 10
33.199873846456903
 20
83.127134279232678
 30
0.0
 40
0.133
 50
90.000018723968253
 51
270.0000187239682
  0
ARC
  5
4D8
  8
OBJECT
 10
33.339873846456911
 20
83.127134279232678
 30
0.0
 40
0.133
 50
270.0000187239682
 51
90.000018723968253
  0
LINE
  5
4D9
  8
OBJECT
 10
33.339873797775503
 20
82.994134279232668
 30
0.0
 11
33.19987379777551
 21
82.994134279232668
 31
0.0
  0
LINE
  5
4DA
  8
OBJECT
 10
33.339873802993189
 20
83.260134279232659
 30
0.0
 11
33.199873802993167
 21
83.260134279232659
 31
0.0
  0
LINE
  5
4DB
  8
OBJECT
 10
33.339873802993189
 20
82.010134279232659
 30
0.0
 11
33.199873802993167
 21
82.010134279232659
 31
0.0
  0
LINE
  5
4DC
  8
OBJECT
 10
33.339873797775503
 20
81.744134279232668
 30
0.0
 11
33.19987379777551
 21
81.744134279232668
 31
0.0
  0
ARC
  5
4DD
  8
OBJECT
 10
33.339873846456911
 20
81.877134279232678
 30
0.0
 40
0.133
 50
270.0000187239682
 51
90.000018723968253
  0
ARC
  5
4DE
  8
OBJECT
 10
33.199873846456903
 20
81.877134279232678
 30
0.0
 40
0.133
 50
90.000018723968253
 51
270.0000187239682
  0
ARC
  5
4DF
  8
OBJECT
 10
33.456873846456908
 20
81.752134279232664
 30
0.0
 40
0.125
 50
270.0
 51
0.0
  0
LINE
  5
4E0
  8
OBJECT
 10
33.581873846456901
 20
81.752134279232664
 30
0.0
 11
33.581873846456901
 21
83.252134279232678
 31
0.0
  0
ARC
  5
4E1
  8
OBJECT
 10
35.237873846456893
 20
81.877134279232678
 30
0.0
 40
0.139
 50
89.999999999999915
 51
270.0
  0
ARC
  5
4E2
  8
OBJECT
 10
35.771873846456899
 20
81.877134279232678
 30
0.0
 40
0.139
 50
270.0
 51
90.0
  0
LINE
  5
4E3
  8
OBJECT
 10
35.237873846456893
 20
81.738134279232696
 30
0.0
 11
35.771873846456899
 21
81.738134279232696
 31
0.0
  0
LINE
  5
4E4
  8
OBJECT
 10
35.771873846456899
 20
82.016134279232674
 30
0.0
 11
35.237873846456893
 21
82.016134279232674
 31
0.0
  0
ARC
  5
4E5
  8
OBJECT
 10
35.237873846456893
 20
83.127134279232678
 30
0.0
 40
0.139
 50
90.0
 51
270.0
  0
ARC
  5
4E6
  8
OBJECT
 10
35.771873846456899
 20
83.127134279232678
 30
0.0
 40
0.139
 50
270.0
 51
90.0
  0
LINE
  5
4E7
  8
OBJECT
 10
35.771873846456899
 20
82.988134279232696
 30
0.0
 11
35.237873846456893
 21
82.988134279232696
 31
0.0
  0
LINE
  5
4E8
  8
OBJECT
 10
35.237873846456893
 20
83.266134279232674
 30
0.0
 11
35.771873846456899
 21
83.266134279232674
 31
0.0
  0
LINE
  5
4E9
  8
OBJECT
 10
36.019873846456889
 20
81.642634279232681
 30
0.0
 11
36.019873846456889
 21
83.361634279232675
 31
0.0
  0
CIRCLE
  5
4EA
  8
OBJECT
 10
35.237873846456949
 20
81.377134279232678
 30
0.0
 40
0.0885
  0
CIRCLE
  5
4EB
  8
OBJECT
 10
35.237873846456949
 20
81.877134279232678
 30
0.0
 40
0.0885
  0
CIRCLE
  5
4EC
  8
OBJECT
 10
35.237873846456949
 20
83.127134279232678
 30
0.0
 40
0.0885
  0
CIRCLE
  5
4ED
  8
OBJECT
 10
35.237873846456949
 20
83.627134279232664
 30
0.0
 40
0.0885
  0
CIRCLE
  5
4EE
  8
OBJECT
 10
35.237873846456949
 20
84.252134279232664
 30
0.0
 40
0.0885
  0
CIRCLE
  5
4EF
  8
OBJECT
 10
35.237873846456949
 20
84.877134279232664
 30
0.0
 40
0.0885
  0
CIRCLE
  5
4F0
  8
OBJECT
 10
35.237873846456949
 20
85.377134279232678
 30
0.0
 40
0.0885
  0
CIRCLE
  5
4F1
  8
OBJECT
 10
35.237873846456949
 20
86.002134279232678
 30
0.0
 40
0.0885
  0
LINE
  5
4F2
  8
OBJECT
 10
59.61815663025002
 20
82.611134279232658
 30
0.0
 11
59.61815663025002
 21
82.299134279232675
 31
0.0
  0
CIRCLE
  5
4F3
  8
OBJECT
 10
35.237873846456949
 20
97.627134279232692
 30
0.0
 40
0.0885
  0
CIRCLE
  5
4F4
  8
OBJECT
 10
35.237873846456949
 20
87.127134279232664
 30
0.0
 40
0.0885
  0
CIRCLE
  5
4F5
  8
OBJECT
 10
35.237873846456949
 20
87.752134279232664
 30
0.0
 40
0.0885
  0
CIRCLE
  5
4F6
  8
OBJECT
 10
35.237873846456949
 20
88.377134279232664
 30
0.0
 40
0.0885
  0
CIRCLE
  5
4F7
  8
OBJECT
 10
35.237873846456949
 20
88.877134279232678
 30
0.0
 40
0.0885
  0
CIRCLE
  5
4F8
  8
OBJECT
 10
35.237873846456949
 20
89.502134279232678
 30
0.0
 40
0.0885
  0
CIRCLE
  5
4F9
  8
OBJECT
 10
35.237873846456949
 20
90.127134279232678
 30
0.0
 40
0.0885
  0
CIRCLE
  5
4FA
  8
OBJECT
 10
35.237873846456949
 20
90.627134279232678
 30
0.0
 40
0.0885
  0
CIRCLE
  5
4FB
  8
OBJECT
 10
35.237873846456949
 20
91.252134279232678
 30
0.0
 40
0.0885
  0
CIRCLE
  5
4FC
  8
OBJECT
 10
35.237873846456949
 20
91.877134279232678
 30
0.0
 40
0.0885
  0
CIRCLE
  5
4FD
  8
OBJECT
 10
35.237873846456949
 20
92.377134279232664
 30
0.0
 40
0.0885
  0
CIRCLE
  5
4FE
  8
OBJECT
 10
35.237873846456949
 20
93.002134279232664
 30
0.0
 40
0.0885
  0
CIRCLE
  5
4FF
  8
OBJECT
 10
35.237873846456949
 20
93.627134279232664
 30
0.0
 40
0.0885
  0
CIRCLE
  5
500
  8
OBJECT
 10
35.237873846456949
 20
94.127134279232678
 30
0.0
 40
0.0885
  0
CIRCLE
  5
501
  8
OBJECT
 10
35.237873846456949
 20
95.377134279232706
 30
0.0
 40
0.0885
  0
LINE
  5
502
  8
OBJECT
 10
34.957873846456927
 20
99.815134279232709
 30
0.0
 11
36.222873846456928
 21
99.815134279232709
 31
0.0
  0
CIRCLE
  5
503
  8
OBJECT
 10
35.237873846456949
 20
98.877134279232692
 30
0.0
 40
0.0885
  0
LINE
  5
504
  8
OBJECT
 10
34.957873846456927
 20
99.815134279232709
 30
0.0
 11
34.957873846456927
 21
99.111134279232701
 31
0.0
  0
CIRCLE
  5
505
  8
OBJECT
 10
34.081873846456908
 20
107.7853869138349
 30
0.0
 40
0.375
  0
LINE
  5
506
  8
OBJECT
 10
34.89487384645691
 20
108.62938691383521
 30
0.0
 11
34.956873846456922
 21
108.62938691383521
 31
0.0
  0
LINE
  5
507
  8
OBJECT
 10
34.895873846456901
 20
108.5353869138352
 30
0.0
 11
34.895873846456901
 21
108.62938691383521
 31
0.0
  0
LINE
  5
508
  8
OBJECT
 10
34.89487384645691
 20
108.62938691383521
 30
0.0
 11
34.956873846456922
 21
108.62938691383521
 31
0.0
  0
LINE
  5
509
  8
OBJECT
 10
34.770873846456908
 20
108.59738691383519
 30
0.0
 11
34.770873846456908
 21
108.5353869138352
 31
0.0
  0
LINE
  5
50A
  8
OBJECT
 10
59.41515663025001
 20
93.893134279232726
 30
0.0
 11
59.41515663025001
 21
99.111134279232743
 31
0.0
  0
LINE
  5
50B
  8
OBJECT
 10
52.165156630250017
 20
95.002134279232749
 30
0.0
 11
52.165156630250017
 21
98.986134279232743
 31
0.0
  0
LINE
  5
50C
  8
OBJECT
 10
52.13415663025004
 20
99.017134279232721
 30
0.0
 11
57.258156630250028
 21
93.893134279232754
 31
0.0
  0
LINE
  5
50D
  8
OBJECT
 10
56.149156630250019
 20
95.002134279232749
 30
0.0
 11
52.165156630250017
 21
95.002134279232749
 31
0.0
  0
CIRCLE
  5
50E
  8
OBJECT
 10
57.54015663025001
 20
94.752134279232735
 30
0.0
 40
0.1405
  0
LINE
  5
50F
  8
OBJECT
 10
52.13415663025004
 20
99.04913427923276
 30
0.0
 11
52.040156630250017
 21
99.04913427923276
 31
0.0
  0
LINE
  5
510
  8
OBJECT
 10
52.102156630250029
 20
99.424134279232774
 30
0.0
 11
52.040156630250017
 21
99.424134279232774
 31
0.0
  0
LINE
  5
511
  8
OBJECT
 10
52.102156630250029
 20
99.424134279232774
 30
0.0
 11
52.102156630250029
 21
99.111134279232743
 31
0.0
  0
LINE
  5
512
  8
OBJECT
 10
52.040156630250017
 20
99.424134279232774
 30
0.0
 11
52.040156630250017
 21
99.04913427923276
 31
0.0
  0
LINE
  5
513
  8
OBJECT
 10
52.13415663025004
 20
99.017134279232721
 30
0.0
 11
52.13415663025004
 21
99.111134279232743
 31
0.0
  0
CIRCLE
  5
514
  8
OBJECT
 10
57.54015663025001
 20
98.252134279232735
 30
0.0
 40
0.1405
  0
TEXT
  5
515
  8
DIM
 10
70.126746793638702
 20
71.743304656095361
 30
0.0
 40
1.125
  1
PART #KS-1787-BT
 41
0.75
 11
70.126746793638702
 21
72.305804656095361
 31
0.0
 73
     2
  0
LINE
  5
516
  8
OBJECT
 10
63.04015663025001
 20
82.292304160866564
 30
0.0
 11
72.98626120717897
 21
82.292304160866564
 31
0.0
  0
LINE
  5
517
  8
OBJECT
 10
63.04015663025001
 20
82.66730416086655
 30
0.0
 11
72.98626120717897
 21
82.66730416086655
 31
0.0
  0
ARC
  5
518
  8
OBJECT
 10
72.43053163025003
 20
78.048509279232661
 30
0.0
 40
0.0626250000000042
 50
0.0000000000065138
 51
90.000000000003226
  0
ARC
  5
519
  8
OBJECT
 10
72.43053163025003
 20
74.705759279232666
 30
0.0
 40
0.0626250000000006
 50
269.9999999999967
 51
359.99999999999341
  0
LINE
  5
51A
  8
OBJECT
 10
59.99315663025002
 20
78.111134279232687
 30
0.0
 11
59.99315663025002
 21
74.643134279232669
 31
0.0
  0
POLYLINE
  5
51B
  8
DIM
 66
     1
 10
0.0
 20
0.0
 30
0.0
 41
0.6075000000000002
  0
VERTEX
  5
841
  8
DIM
 10
65.822156630250007
 20
74.643134279232669
 30
0.0
  0
VERTEX
  5
842
  8
DIM
 10
66.835720089725484
 20
73.37937436785073
 30
0.0
 41
0.0
  0
VERTEX
  5
843
  8
DIM
 10
67.696746793638695
 20
72.305804656095361
 30
0.0
 41
0.0
  0
VERTEX
  5
844
  8
DIM
 10
69.3167467936387
 20
72.305804656095361
 30
0.0
 41
0.0
  0
SEQEND
  5
845
  8
DIM
  0
LINE
  5
521
  8
OBJECT
 10
72.43053163025003
 20
74.643134279232669
 30
0.0
 11
63.04015663025001
 21
74.643134279232669
 31
0.0
  0
CIRCLE
  5
522
  8
OBJECT
 10
61.540156630250017
 20
69.31513427923268
 30
0.0
 40
0.0885
  0
CIRCLE
  5
523
  8
OBJECT
 10
60.915156630250017
 20
75.31513427923268
 30
0.0
 40
0.3279999999999999
  0
LINE
  5
524
  8
OBJECT
 10
60.04015663025001
 20
74.643134279232669
 30
0.0
 11
59.99315663025002
 21
74.643134279232669
 31
0.0
  0
CIRCLE
  5
525
  8
OBJECT
 10
62.165156630250017
 20
75.31513427923268
 30
0.0
 40
0.3279999999999999
  0
LINE
  5
526
  8
OBJECT
 10
63.04015663025001
 20
78.111134279232687
 30
0.0
 11
72.43053163025003
 21
78.111134279232687
 31
0.0
  0
LINE
  5
527
  8
OBJECT
 10
59.99315663025002
 20
78.111134279232687
 30
0.0
 11
60.04015663025001
 21
78.111134279232687
 31
0.0
  0
CIRCLE
  5
528
  8
OBJECT
 10
64.993156630250013
 20
76.080134279232681
 30
0.0
 40
0.082
  0
LINE
  5
529
  8
OBJECT
 10
59.744156630250018
 20
82.143134279232655
 30
0.0
 11
59.744156630250018
 21
81.893134279232655
 31
0.0
  0
LINE
  5
52A
  8
OBJECT
 10
59.744156630250018
 20
83.002134279232649
 30
0.0
 11
59.747786721866738
 21
83.002134279232649
 31
0.0
  0
LINE
  5
52B
  8
OBJECT
 10
59.744156630250018
 20
82.002134279232664
 30
0.0
 11
59.74778672186676
 21
82.002134279232664
 31
0.0
  0
LINE
  5
52C
  8
OBJECT
 10
59.744156630250018
 20
83.111134279232644
 30
0.0
 11
59.744156630250018
 21
82.861134279232658
 31
0.0
  0
LINE
  5
52D
  8
OBJECT
 10
59.744156630250018
 20
81.893134279232655
 30
0.0
 11
59.822156630250021
 21
81.893134279232655
 31
0.0
  0
LINE
  5
52E
  8
OBJECT
 10
59.744156630250018
 20
83.111134279232644
 30
0.0
 11
59.822156630250021
 21
83.111134279232672
 31
0.0
  0
LINE
  5
52F
  8
OBJECT
 10
59.634156630250011
 20
82.268134279232655
 30
0.0
 11
59.728156630250027
 21
82.268134279232655
 31
0.0
  0
LINE
  5
530
  8
OBJECT
 10
59.634156630250011
 20
82.736134279232644
 30
0.0
 11
59.728156630250027
 21
82.736134279232644
 31
0.0
  0
LINE
  5
531
  8
OBJECT
 10
59.634156630250011
 20
82.736134279232644
 30
0.0
 11
59.634156630250011
 21
82.268134279232655
 31
0.0
  0
LINE
  5
532
  8
OBJECT
 10
59.728156630250027
 20
82.861134279232658
 30
0.0
 11
59.728156630250027
 21
82.143134279232669
 31
0.0
  0
LINE
  5
533
  8
OBJECT
 10
59.728156630250027
 20
82.143134279232669
 30
0.0
 11
59.822156630250021
 21
82.143134279232655
 31
0.0
  0
LINE
  5
534
  8
OBJECT
 10
59.728156630250027
 20
82.861134279232658
 30
0.0
 11
59.822156630250021
 21
82.861134279232658
 31
0.0
  0
LINE
  5
535
  8
OBJECT
 10
59.791156630250022
 20
81.931134279232651
 30
0.0
 11
59.822156630250021
 21
81.931134279232651
 31
0.0
  0
LINE
  5
536
  8
OBJECT
 10
59.791156630250022
 20
82.135134279232645
 30
0.0
 11
59.822156630250021
 21
82.135134279232645
 31
0.0
  0
ARC
  5
537
  8
OBJECT
 10
59.878337481313856
 20
82.033134279232655
 30
0.0
 40
0.1341808510638292
 50
130.5209822605041
 51
229.47901773949661
  0
ARC
  5
538
  8
OBJECT
 10
59.878337481313856
 20
82.971134279232672
 30
0.0
 40
0.1341808510638292
 50
130.5209822605041
 51
229.47901773949661
  0
LINE
  5
539
  8
OBJECT
 10
59.791156630250022
 20
83.073134279232676
 30
0.0
 11
59.822156630250021
 21
83.073134279232676
 31
0.0
  0
LINE
  5
53A
  8
OBJECT
 10
59.791156630250022
 20
82.869134279232654
 30
0.0
 11
59.822156630250021
 21
82.869134279232654
 31
0.0
  0
LINE
  5
53B
  8
OBJECT
 10
59.822156630250021
 20
83.361634279232675
 30
0.0
 11
59.822156630250021
 21
81.642634279232695
 31
0.0
  0
LINE
  5
53C
  8
OBJECT
 10
59.853156630250027
 20
83.361634279232675
 30
0.0
 11
59.853156630250027
 21
81.642634279232695
 31
0.0
  0
LINE
  5
53D
  8
OBJECT
 10
60.04015663025001
 20
83.361634279232675
 30
0.0
 11
60.04015663025001
 21
81.642634279232695
 31
0.0
  0
LINE
  5
53E
  8
OBJECT
 10
59.978156630250027
 20
83.361634279232675
 30
0.0
 11
59.978156630250027
 21
81.642634279232695
 31
0.0
  0
LINE
  5
53F
  8
OBJECT
 10
59.822156630250021
 20
81.642634279232695
 30
0.0
 11
60.04015663025001
 21
81.642634279232695
 31
0.0
  0
LINE
  5
540
  8
OBJECT
 10
59.822156630250021
 20
83.361634279232675
 30
0.0
 11
60.04015663025001
 21
83.361634279232675
 31
0.0
  0
CIRCLE
  5
541
  8
OBJECT
 10
61.540156630250017
 20
81.31513427923268
 30
0.0
 40
0.0885
  0
CIRCLE
  5
542
  8
OBJECT
 10
66.493156630250056
 20
76.080134279232681
 30
0.0
 40
0.082
  0
CIRCLE
  5
543
  8
OBJECT
 10
70.868156630250027
 20
76.080134279232681
 30
0.0
 40
0.082
  0
CIRCLE
  5
544
  8
OBJECT
 10
71.368156630250027
 20
76.080134279232652
 30
0.0
 40
0.082
  0
LINE
  5
545
  8
OBJECT
 10
72.493156630250027
 20
78.048509279232675
 30
0.0
 11
72.493156630250027
 21
74.705759279232666
 31
0.0
  0
LINE
  5
546
  8
OBJECT
 10
73.61126120717897
 20
81.217344791705855
 30
0.0
 11
73.61126120717897
 21
79.835676837073606
 31
0.0
  0
ARC
  5
547
  8
OBJECT
 10
73.517761207178964
 20
81.216846121493091
 30
0.0
 40
0.0935013297872338
 50
179.69442323359351
 51
0.3055767664063984
  0
ARC
  5
548
  8
OBJECT
 10
73.330761207178952
 20
81.215848781067592
 30
0.0
 40
0.0935013297872338
 50
359.69442323359362
 51
180.3055767664064
  0
LINE
  5
549
  8
OBJECT
 10
73.61126120717897
 20
81.217344791705855
 30
0.0
 11
73.424261207178944
 21
81.216347451280342
 31
0.0
  0
LINE
  5
54A
  8
OBJECT
 10
73.220761207178967
 20
78.3046768370736
 30
0.0
 11
73.220761207178967
 21
79.5546768370736
 31
0.0
  0
LINE
  5
54B
  8
OBJECT
 10
73.626761207178973
 20
78.3046768370736
 30
0.0
 11
73.626761207178973
 21
79.5546768370736
 31
0.0
  0
LINE
  5
54C
  8
OBJECT
 10
72.954761207178976
 20
78.3046768370736
 30
0.0
 11
72.954761207178976
 21
79.116676837073612
 31
0.0
  0
LINE
  5
54D
  8
OBJECT
 10
73.892761207178964
 20
78.3046768370736
 30
0.0
 11
73.892761207178964
 21
79.116676837073612
 31
0.0
  0
LINE
  5
54E
  8
OBJECT
 10
73.142761207178964
 20
77.616676837073598
 30
0.0
 11
73.188761207178956
 21
77.616676837073598
 31
0.0
  0
LINE
  5
54F
  8
OBJECT
 10
73.142761207178964
 20
77.616676837073598
 30
0.0
 11
73.142761207178964
 21
78.3046768370736
 31
0.0
  0
LINE
  5
550
  8
OBJECT
 10
73.188761207178956
 20
77.616676837073598
 30
0.0
 11
73.188761207178956
 21
78.3046768370736
 31
0.0
  0
LINE
  5
551
  8
OBJECT
 10
73.658761207178955
 20
77.616676837073598
 30
0.0
 11
73.658761207178955
 21
78.3046768370736
 31
0.0
  0
LINE
  5
552
  8
OBJECT
 10
73.704761207178976
 20
77.616676837073598
 30
0.0
 11
73.704761207178976
 21
78.3046768370736
 31
0.0
  0
LINE
  5
553
  8
OBJECT
 10
73.704761207178976
 20
77.616676837073598
 30
0.0
 11
73.658761207178955
 21
77.616676837073598
 31
0.0
  0
ARC
  5
554
  8
OBJECT
 10
73.42376120717897
 20
77.586676837073611
 30
0.0
 40
0.094
 50
180.0
 51
0.0
  0
LINE
  5
555
  8
OBJECT
 10
73.329761207178976
 20
78.3046768370736
 30
0.0
 11
73.329761207178976
 21
77.586676837073611
 31
0.0
  0
LINE
  5
556
  8
OBJECT
 10
73.517761207178964
 20
78.3046768370736
 30
0.0
 11
73.517761207178964
 21
77.586676837073611
 31
0.0
  0
LINE
  5
557
  8
OBJECT
 10
73.892761207178964
 20
78.3046768370736
 30
0.0
 11
72.954761207178976
 21
78.3046768370736
 31
0.0
  0
LINE
  5
558
  8
OBJECT
 10
73.236261207178956
 20
81.215350110854843
 30
0.0
 11
73.236261207178956
 21
79.835676837073606
 31
0.0
  0
LINE
  5
559
  8
OBJECT
 10
72.954761207178976
 20
79.116676837073612
 30
0.0
 11
73.220761207178967
 21
79.5546768370736
 31
0.0
  0
LINE
  5
55A
  8
OBJECT
 10
73.11126120717897
 20
79.835676837073606
 30
0.0
 11
73.11126120717897
 21
79.374372325795406
 31
0.0
  0
LINE
  5
55B
  8
OBJECT
 10
73.73626120717897
 20
79.835676837073606
 30
0.0
 11
73.73626120717897
 21
79.374372325795406
 31
0.0
  0
LINE
  5
55C
  8
OBJECT
 10
73.892761207178964
 20
79.116676837073612
 30
0.0
 11
73.626761207178973
 21
79.5546768370736
 31
0.0
  0
LINE
  5
55D
  8
OBJECT
 10
73.626761207178973
 20
79.335676837073606
 30
0.0
 11
73.220761207178967
 21
79.335676837073606
 31
0.0
  0
LINE
  5
55E
  8
OBJECT
 10
73.626761207178973
 20
79.5546768370736
 30
0.0
 11
73.220761207178967
 21
79.5546768370736
 31
0.0
  0
LINE
  5
55F
  8
OBJECT
 10
73.73626120717897
 20
79.835676837073606
 30
0.0
 11
73.11126120717897
 21
79.835676837073606
 31
0.0
  0
ARC
  5
560
  8
OBJECT
 10
73.330761207178952
 20
81.516709281531732
 30
0.0
 40
0.0935013297872338
 50
359.69442323359362
 51
180.3055767664064
  0
ARC
  5
561
  8
OBJECT
 10
73.517761207178964
 20
81.517706621957217
 30
0.0
 40
0.0935013297872338
 50
179.69442323359351
 51
0.3055767664063984
  0
LINE
  5
562
  8
OBJECT
 10
73.236261207178956
 20
81.516205277947705
 30
0.0
 11
73.424261207178944
 21
81.517207951744453
 31
0.0
  0
ARC
  5
563
  8
OBJECT
 10
72.98626120717897
 20
82.04230416086655
 30
0.0
 40
0.625
 50
0.0
 51
90.0
  0
ARC
  5
564
  8
OBJECT
 10
72.98626120717897
 20
82.04230416086655
 30
0.0
 40
0.25
 50
0.0
 51
90.0
  0
LINE
  5
565
  8
OBJECT
 10
73.61126120717897
 20
82.04230416086655
 30
0.0
 11
73.61126120717897
 21
81.517207951744481
 31
0.0
  0
LINE
  5
566
  8
OBJECT
 10
73.236261207178956
 20
82.04230416086655
 30
0.0
 11
73.236261207178956
 21
81.516205277947705
 31
0.0
  0
TEXT
  5
567
  8
DIM
 10
70.126746793638702
 20
90.993304656095432
 30
0.0
 40
1.125
  1
PART #SA-1798-BT
 41
0.75
 11
70.126746793638702
 21
91.555804656095447
 31
0.0
 73
     2
  0
LINE
  5
568
  8
OBJECT
 10
63.102156630250029
 20
99.111134279232743
 30
0.0
 11
63.102156630250029
 21
93.893134279232754
 31
0.0
  0
LINE
  5
569
  8
OBJECT
 10
63.66515663025001
 20
93.893134279232726
 30
0.0
 11
63.66515663025001
 21
99.111134279232743
 31
0.0
  0
LINE
  5
56A
  8
OBJECT
 10
63.04015663025001
 20
99.111134279232743
 30
0.0
 11
63.04015663025001
 21
93.893134279232754
 31
0.0
  0
LINE
  5
56B
  8
OBJECT
 10
60.04015663025001
 20
99.111134279232743
 30
0.0
 11
60.04015663025001
 21
93.893134279232754
 31
0.0
  0
LINE
  5
56C
  8
OBJECT
 10
59.978156630250027
 20
99.111134279232743
 30
0.0
 11
59.978156630250027
 21
93.893134279232754
 31
0.0
  0
LINE
  5
56D
  8
OBJECT
 10
70.94615663025003
 20
99.017134279232721
 30
0.0
 11
65.822156630250007
 21
93.893134279232754
 31
0.0
  0
POLYLINE
  5
56E
  8
DIM
 66
     1
 10
0.0
 20
0.0
 30
0.0
 41
0.6075000000000002
  0
VERTEX
  5
846
  8
DIM
 10
65.822156630250007
 20
93.893134279232754
 30
0.0
  0
VERTEX
  5
847
  8
DIM
 10
66.835720089725484
 20
92.629374367850801
 30
0.0
 41
0.0
  0
VERTEX
  5
848
  8
DIM
 10
67.696746793638695
 20
91.555804656095447
 30
0.0
 41
0.0
  0
VERTEX
  5
849
  8
DIM
 10
69.3167467936387
 20
91.555804656095447
 30
0.0
 41
0.0
  0
SEQEND
  5
84A
  8
DIM
  0
CIRCLE
  5
574
  8
OBJECT
 10
61.540156630250017
 20
89.690134279232694
 30
0.0
 40
0.5625
  0
CIRCLE
  5
575
  8
OBJECT
 10
61.540156630250017
 20
93.315134279232694
 30
0.0
 40
0.0885
  0
CIRCLE
  5
576
  8
OBJECT
 10
63.415156630250038
 20
94.752134279232735
 30
0.0
 40
0.1405
  0
CIRCLE
  5
577
  8
OBJECT
 10
65.540156630250024
 20
94.752134279232735
 30
0.0
 40
0.1405
  0
LINE
  5
578
  8
OBJECT
 10
65.822156630250007
 20
93.893134279232754
 30
0.0
 11
63.04015663025001
 21
93.893134279232754
 31
0.0
  0
LINE
  5
579
  8
OBJECT
 10
70.978156630250041
 20
99.111134279232743
 30
0.0
 11
63.04015663025001
 21
99.111134279232743
 31
0.0
  0
LINE
  5
57A
  8
OBJECT
 10
60.04015663025001
 20
99.815134279232694
 30
0.0
 11
63.04015663025001
 21
99.815134279232694
 31
0.0
  0
CIRCLE
  5
57B
  8
OBJECT
 10
63.415156630250038
 20
98.252134279232735
 30
0.0
 40
0.1405
  0
CIRCLE
  5
57C
  8
OBJECT
 10
65.540156630250024
 20
98.252134279232735
 30
0.0
 40
0.1405
  0
LINE
  5
57D
  8
OBJECT
 10
71.040156630250053
 20
99.04913427923276
 30
0.0
 11
70.94615663025003
 21
99.049134279232746
 31
0.0
  0
LINE
  5
57E
  8
OBJECT
 10
71.040156630250053
 20
99.424134279232774
 30
0.0
 11
70.978156630250041
 21
99.424134279232774
 31
0.0
  0
LINE
  5
57F
  8
OBJECT
 10
70.978156630250041
 20
99.424134279232774
 30
0.0
 11
70.978156630250041
 21
99.111134279232743
 31
0.0
  0
LINE
  5
580
  8
OBJECT
 10
71.040156630250053
 20
99.424134279232774
 30
0.0
 11
71.040156630250053
 21
99.04913427923276
 31
0.0
  0
LINE
  5
581
  8
OBJECT
 10
70.94615663025003
 20
99.017134279232721
 30
0.0
 11
70.94615663025003
 21
99.111134279232743
 31
0.0
  0
LINE
  5
582
  8
OBJECT
 10
36.206873846456929
 20
129.5353869138352
 30
0.0
 11
36.206873846456929
 21
119.5353869138352
 31
0.0
  0
LINE
  5
583
  8
OBJECT
 10
36.206873846456922
 20
121.5353869138352
 30
0.0
 11
36.206873846456922
 21
119.5353869138352
 31
0.0
  0
LINE
  5
584
  8
OBJECT
 10
36.206873846456922
 20
114.5353869138352
 30
0.0
 11
36.206873846456922
 21
116.5353869138352
 31
0.0
  0
LINE
  5
585
  8
OBJECT
 10
34.956873846456929
 20
116.2853869138352
 30
0.0
 11
36.206873846456922
 21
116.2853869138352
 31
0.0
  0
LINE
  5
586
  8
OBJECT
 10
34.956873846456929
 20
119.7853869138352
 30
0.0
 11
36.206873846456922
 21
119.7853869138352
 31
0.0
  0
POLYLINE
  5
587
  8
OBJECT
 66
     1
 10
0.0
 20
0.0
 30
0.0
 70
     1
  0
VERTEX
  5
84B
  8
OBJECT
 10
34.957873846456948
 20
119.4383869138352
 30
0.0
 42
0.4142135623730951
  0
VERTEX
  5
84C
  8
OBJECT
 10
35.047873846456959
 20
119.3483869138352
 30
0.0
  0
VERTEX
  5
84D
  8
OBJECT
 10
35.848873846456947
 20
119.3483869138352
 30
0.0
 42
-0.4142135623730969
  0
VERTEX
  5
84E
  8
OBJECT
 10
36.066873846456929
 20
119.1303869138352
 30
0.0
  0
VERTEX
  5
84F
  8
OBJECT
 10
36.066873846456929
 20
116.9403869138352
 30
0.0
 42
-0.4142135623730922
  0
VERTEX
  5
850
  8
OBJECT
 10
35.848873846456911
 20
116.72238691383519
 30
0.0
  0
VERTEX
  5
851
  8
OBJECT
 10
35.047873846456959
 20
116.72238691383519
 30
0.0
 42
0.4142135623730927
  0
VERTEX
  5
852
  8
OBJECT
 10
34.957873846456948
 20
116.63238691383521
 30
0.0
  0
VERTEX
  5
853
  8
OBJECT
 10
34.957873846456948
 20
116.5353869138352
 30
0.0
  0
VERTEX
  5
854
  8
OBJECT
 10
36.222873846456913
 20
116.5353869138352
 30
0.0
  0
VERTEX
  5
855
  8
OBJECT
 10
36.222873846456913
 20
119.5353869138352
 30
0.0
  0
VERTEX
  5
856
  8
OBJECT
 10
34.957873846456948
 20
119.5353869138352
 30
0.0
  0
SEQEND
  5
857
  8
OBJECT
  0
LINE
  5
595
  8
OBJECT
 10
35.581873846456922
 20
116.5353869138352
 30
0.0
 11
35.581873846456922
 21
116.4733869138352
 31
0.0
  0
ARC
  5
596
  8
OBJECT
 10
35.03387384645692
 20
116.4583869138352
 30
0.0
 40
0.0770000000000047
 50
90.0
 51
180.0
  0
LINE
  5
597
  8
OBJECT
 10
35.01887384645692
 20
116.4583869138352
 30
0.0
 11
35.01887384645692
 21
115.9103869138352
 31
0.0
  0
LINE
  5
598
  8
OBJECT
 10
34.956873846456922
 20
115.9103869138352
 30
0.0
 11
34.956873846456922
 21
116.4583869138352
 31
0.0
  0
LINE
  5
599
  8
OBJECT
 10
35.01887384645692
 20
115.9103869138352
 30
0.0
 11
34.956873846456922
 21
115.9103869138352
 31
0.0
  0
ARC
  5
59A
  8
OBJECT
 10
35.03387384645692
 20
116.4583869138352
 30
0.0
 40
0.015
 50
90.0
 51
180.0
  0
LINE
  5
59B
  8
OBJECT
 10
35.581873846456922
 20
116.4733869138352
 30
0.0
 11
35.03387384645692
 21
116.4733869138352
 31
0.0
  0
LINE
  5
59C
  8
OBJECT
 10
35.581873846456922
 20
116.5353869138352
 30
0.0
 11
35.03387384645692
 21
116.5353869138352
 31
0.0
  0
LINE
  5
59D
  8
OBJECT
 10
35.926373846456961
 20
115.96938691383519
 30
0.0
 11
35.301373846456961
 21
115.96938691383519
 31
0.0
  0
LINE
  5
59E
  8
OBJECT
 10
35.301373846456961
 20
115.96938691383519
 30
0.0
 11
35.301373846456961
 21
116.2853869138352
 31
0.0
  0
LINE
  5
59F
  8
OBJECT
 10
35.613873846456961
 20
115.96938691383519
 30
0.0
 11
35.613873846456961
 21
116.2853869138352
 31
0.0
  0
LINE
  5
5A0
  8
OBJECT
 10
35.926373846456961
 20
115.96938691383519
 30
0.0
 11
35.926373846456961
 21
116.2853869138352
 31
0.0
  0
LINE
  5
5A1
  8
OBJECT
 10
35.581873846456922
 20
119.5353869138352
 30
0.0
 11
35.581873846456922
 21
119.59738691383519
 31
0.0
  0
LINE
  5
5A2
  8
OBJECT
 10
35.01887384645692
 20
120.1603869138352
 30
0.0
 11
34.956873846456922
 21
120.1603869138352
 31
0.0
  0
ARC
  5
5A3
  8
OBJECT
 10
35.03387384645692
 20
119.61238691383519
 30
0.0
 40
0.0770000000000047
 50
180.0
 51
270.0
  0
ARC
  5
5A4
  8
OBJECT
 10
35.03387384645692
 20
119.61238691383519
 30
0.0
 40
0.015
 50
180.0
 51
270.0
  0
LINE
  5
5A5
  8
OBJECT
 10
34.956873846456922
 20
120.1603869138352
 30
0.0
 11
34.956873846456922
 21
119.61238691383519
 31
0.0
  0
LINE
  5
5A6
  8
OBJECT
 10
35.01887384645692
 20
119.61238691383519
 30
0.0
 11
35.01887384645692
 21
120.1603869138352
 31
0.0
  0
LINE
  5
5A7
  8
OBJECT
 10
35.581873846456922
 20
119.5353869138352
 30
0.0
 11
35.03387384645692
 21
119.5353869138352
 31
0.0
  0
LINE
  5
5A8
  8
OBJECT
 10
35.581873846456922
 20
119.59738691383519
 30
0.0
 11
35.03387384645692
 21
119.59738691383519
 31
0.0
  0
LINE
  5
5A9
  8
OBJECT
 10
35.926373846456961
 20
120.1013869138352
 30
0.0
 11
35.926373846456961
 21
119.7853869138352
 31
0.0
  0
LINE
  5
5AA
  8
OBJECT
 10
35.613873846456961
 20
120.1013869138352
 30
0.0
 11
35.613873846456961
 21
119.7853869138352
 31
0.0
  0
LINE
  5
5AB
  8
OBJECT
 10
35.301373846456961
 20
120.1013869138352
 30
0.0
 11
35.301373846456961
 21
119.7853869138352
 31
0.0
  0
LINE
  5
5AC
  8
OBJECT
 10
35.926373846456961
 20
120.1013869138352
 30
0.0
 11
35.301373846456961
 21
120.1013869138352
 31
0.0
  0
LINE
  5
5AD
  8
OBJECT
 10
34.909873846456911
 20
129.0353869138352
 30
0.0
 11
34.909873846456911
 21
127.4413869138352
 31
0.0
  0
LINE
  5
5AE
  8
OBJECT
 10
34.895873846456901
 20
127.5353869138352
 30
0.0
 11
34.895873846456901
 21
127.4413869138352
 31
0.0
  0
LINE
  5
5AF
  8
OBJECT
 10
34.89487384645691
 20
127.4413869138352
 30
0.0
 11
34.956873846456922
 21
127.4413869138352
 31
0.0
  0
LINE
  5
5B0
  8
OBJECT
 10
34.770873846456908
 20
127.5353869138352
 30
0.0
 11
34.770873846456908
 21
127.4733869138352
 31
0.0
  0
TEXT
  5
5B1
  8
TEXT
 10
67.824000000000012
 20
136.3589999999999
 30
0.0
 40
1.4039999999999999
  1
CSR-8060
 41
0.75
 72
     4
 11
71.685000000000016
 21
137.06099999999989
 31
0.0
  0
INSERT
  5
5B2
  8
TITLE
  2
HB
 10
0.0
 20
0.0
 30
0.0
 41
9.0
 42
9.0
 43
9.0
  0
TEXT
  5
5B3
  8
TEXT
 10
46.373790056106323
 20
112.597463101651
 30
0.0
 40
1.0
  1
RELAY RACK SHELVES,
 41
0.75
  0
LINE
  5
5B4
  8
TEXT
 10
69.253517738669842
 20
109.2721297683177
 30
0.0
 11
60.840874600241051
 21
109.2721297683177
 31
0.0
  0
TEXT
  5
5B5
  8
TEXT
 10
45.780735099304557
 20
102.7537964349843
 30
0.0
 40
1.0
  1
UNIT SHIPPED KNOCKED DOWN.
 41
0.75
  0
TEXT
  5
5B6
  8
TEXT
 10
45.780735099304557
 20
105.99179643498429
 30
0.0
 40
1.0
  1
UPRIGHTS ARE TAPPED #12-24 ON E.I.A. UNIVERSAL SPACING.
 41
0.75
  0
TEXT
  5
5B7
  8
TEXT
 10
46.373790056106323
 20
109.2641297683176
 30
0.0
 40
1.0
  1
& ADAPTER BRACKETS
 41
0.75
  0
TEXT
  5
5B8
  8
TEXT
 10
46.373790056106323
 20
110.9307964349843
 30
0.0
 40
1.0
  1
KEYBOARD SHELF ASSEMBLY
 41
0.75
  0
TEXT
  5
5B9
  8
TEXT
 10
69.808545674993212
 20
109.2721297683177
 30
0.0
 40
1.0
  1
BLACK TEXTURED
 41
0.75
  0
LINE
  5
5BA
  8
TEXT
 10
69.193925699677294
 20
124.32936914657439
 30
0.0
 11
62.124622092584609
 21
124.32936914657439
 31
0.0
  0
LINE
  5
5BB
  8
TEXT
 10
69.253517738669899
 20
120.9281297683177
 30
0.0
 11
63.966246051181741
 21
120.9281297683177
 31
0.0
  0
LINE
  5
5BC
  8
TEXT
 10
54.671897861876708
 20
129.5106061399201
 30
0.0
 11
69.253517738669899
 21
129.5106061399201
 31
0.0
  0
LINE
  5
5BD
  8
TEXT
 10
69.253517738669899
 20
131.1013667616634
 30
0.0
 11
52.129203200035732
 21
131.1013667616634
 31
0.0
  0
TEXT
  5
5BE
  8
TEXT
 10
46.373790056106323
 20
114.2641297683177
 30
0.0
 40
1.0
  1
MONITOR SHELF ASSEMBLY,
 41
0.75
  0
TEXT
  5
5BF
  8
TEXT
 10
45.780735099304557
 20
115.9307964349844
 30
0.0
 40
1.0
  1
UPRIGHTS, BASE ANGLES,
 41
0.75
  0
TEXT
  5
5C0
  8
TEXT
 10
46.373790056106323
 20
120.91746310165109
 30
0.0
 40
1.0
  1
KEYBOARD SHELF ASSEMBLY
 41
0.75
  0
TEXT
  5
5C1
  8
TEXT
 10
45.780735099304557
 20
122.58412976831769
 30
0.0
 40
1.0
  1
SWITCH BOX BRACKET &
 41
0.75
  0
TEXT
  5
5C2
  8
TEXT
 10
44.495781211498972
 20
117.5947964349844
 30
0.0
 40
1.0
  1
%%UFINISH:
 41
0.75
  0
TEXT
  5
5C3
  8
TEXT
 10
45.780735099304557
 20
129.48472015733941
 30
0.0
 40
1.0
  1
BASE ANGLES
 41
0.75
  0
TEXT
  5
5C4
  8
TEXT
 10
45.780735099304557
 20
127.6573691465744
 30
0.0
 40
1.0
  1
ADAPTER BRACKETS, MONITOR
 41
0.75
  0
TEXT
  5
5C5
  8
TEXT
 10
46.373790056106323
 20
125.9907024799078
 30
0.0
 40
1.0
  1
SHELF, MOUNTING BRACKETS
 41
0.75
  0
TEXT
  5
5C6
  8
TEXT
 10
46.373790056106323
 20
124.3240358132411
 30
0.0
 40
1.0
  1
& RELAY RACK SHELVES
 41
0.75
  0
TEXT
  5
5C7
  8
TEXT
 10
45.780735099304557
 20
131.1037201573395
 30
0.0
 40
1.0
  1
UPRIGHTS
 41
0.75
  0
TEXT
  5
5C8
  8
TEXT
 10
69.808545674993212
 20
120.9147964349844
 30
0.0
 40
1.0
  1
18 GA. STEEL
 41
0.75
  0
TEXT
  5
5C9
  8
TEXT
 10
69.808545674993212
 20
124.3213691465744
 30
0.0
 40
1.0
  1
16 GA. STEEL
 41
0.75
  0
TEXT
  5
5CA
  8
TEXT
 10
69.808545674993212
 20
131.1037201573395
 30
0.0
 40
1.0
  1
ALUMINUM EXTRUSIONS
 41
0.75
  0
TEXT
  5
5CB
  8
TEXT
 10
69.808545674993212
 20
129.48472015733941
 30
0.0
 40
1.0
  1
0.250 THK. ALUMINUM
 41
0.75
  0
TEXT
  5
5CC
  8
TEXT
 10
44.495781211498972
 20
132.76772015733951
 30
0.0
 40
1.0
  1
%%uMATERIAL:%%u
 41
0.75
  0
TEXT
  5
5CD
  8
DIM
 10
70.126746793638702
 20
89.171929656095415
 30
0.0
 40
1.125
  1
MONITOR SHELF ASSEMBLY
 41
0.75
 11
70.126746793638702
 21
89.734429656095415
 31
0.0
 73
     2
  0
TEXT
  5
5CE
  8
DIM
 10
70.126746793638702
 20
69.921929656095358
 30
0.0
 40
1.125
  1
KEYBOARD SHELF ASSEMBLY
 41
0.75
 11
70.126746793638702
 21
70.484429656095344
 31
0.0
 73
     2
  0
TEXT
  5
5CF
  8
DIM
 10
70.126746793638702
 20
60.564588902369991
 30
0.0
 40
1.125
  1
RELAY RACK SHELF
 41
0.75
 11
70.126746793638702
 21
61.127088902369991
 31
0.0
 73
     2
  0
TEXT
  5
5D0
  8
DIM
 10
40.533316466861322
 20
77.171929656095344
 30
0.0
 40
1.125
  1
POWER OUTLET STRIP
 41
0.75
 72
     2
 11
55.439566466861322
 21
77.734429656095344
 31
0.0
 73
     2
  0
TEXT
  5
5D1
  8
DIM
 10
70.110746793638683
 20
43.064588902369977
 30
0.0
 40
1.125
  1
RELAY RACK SHELF
 41
0.75
 11
70.110746793638683
 21
43.627088902369991
 31
0.0
 73
     2
  0
ENDSEC
  0
EOF
