  0
SECTION
  2
HEADER
  9
$ACADVER
  1
AC1009
  9
$INSBASE
 10
0.0
 20
0.0
 30
0.0
  9
$EXTMIN
 10
0.0
 20
0.0
 30
0.0
  9
$EXTMAX
 10
161.92
 20
248.0
 30
0.0
  9
$LIMMIN
 10
0.0
 20
0.0
  9
$LIMMAX
 10
161.92
 20
248.0
  9
$ORTHOMODE
 70
     1
  9
$REGENMODE
 70
     1
  9
$FILLMODE
 70
     1
  9
$QTEXTMODE
 70
     0
  9
$MIRRTEXT
 70
     0
  9
$DRAGMODE
 70
     2
  9
$LTSCALE
 40
4.0
  9
$OSMODE
 70
    65
  9
$ATTMODE
 70
     1
  9
$TEXTSIZE
 40
2.0
  9
$TRACEWID
 40
0.05
  9
$TEXTSTYLE
  7
TXT
  9
$CLAYER
  8
OBJECT
  9
$CELTYPE
  6
BYLAYER
  9
$CECOLOR
 62
   256
  9
$DIMSCALE
 40
16.0
  9
$DIMASZ
 40
0.18
  9
$DIMEXO
 40
0.063
  9
$DIMDLI
 40
0.25
  9
$DIMRND
 40
0.0
  9
$DIMDLE
 40
0.0
  9
$DIMEXE
 40
0.093
  9
$DIMTP
 40
0.0
  9
$DIMTM
 40
0.0
  9
$DIMTXT
 40
0.125
  9
$DIMCEN
 40
0.09
  9
$DIMTSZ
 40
0.0
  9
$DIMTOL
 70
     0
  9
$DIMLIM
 70
     0
  9
$DIMTIH
 70
     1
  9
$DIMTOH
 70
     1
  9
$DIMSE1
 70
     0
  9
$DIMSE2
 70
     0
  9
$DIMTAD
 70
     0
  9
$DIMZIN
 70
     0
  9
$DIMBLK
  1

  9
$DIMASO
 70
     1
  9
$DIMSHO
 70
     1
  9
$DIMPOST
  1

  9
$DIMAPOST
  1

  9
$DIMALT
 70
     0
  9
$DIMALTD
 70
     2
  9
$DIMALTF
 40
25.4
  9
$DIMLFAC
 40
1.0
  9
$DIMTOFL
 70
     0
  9
$DIMTVP
 40
0.0
  9
$DIMTIX
 70
     0
  9
$DIMSOXD
 70
     0
  9
$DIMSAH
 70
     0
  9
$DIMBLK1
  1

  9
$DIMBLK2
  1

  9
$DIMSTYLE
  2
23NSTD
  9
$DIMCLRD
 70
     0
  9
$DIMCLRE
 70
     0
  9
$DIMCLRT
 70
     0
  9
$DIMTFAC
 40
1.0
  9
$DIMGAP
 40
0.09
  9
$LUNITS
 70
     2
  9
$LUPREC
 70
     3
  9
$SKETCHINC
 40
0.1
  9
$FILLETRAD
 40
0.0
  9
$AUNITS
 70
     0
  9
$AUPREC
 70
     0
  9
$MENU
  1
acad
  9
$ELEVATION
 40
0.0
  9
$PELEVATION
 40
0.0
  9
$THICKNESS
 40
0.0
  9
$LIMCHECK
 70
     0
  9
$BLIPMODE
 70
     1
  9
$CHAMFERA
 40
0.0
  9
$CHAMFERB
 40
0.0
  9
$SKPOLY
 70
     0
  9
$TDCREATE
 40
2448390.659412268
  9
$TDUPDATE
 40
2451344.353108564
  9
$TDINDWG
 40
0.5078111111
  9
$TDUSRTIMER
 40
0.5078111111
  9
$USRTIMER
 70
     1
  9
$ANGBASE
 50
0.0
  9
$ANGDIR
 70
     0
  9
$PDMODE
 70
     0
  9
$PDSIZE
 40
0.0
  9
$PLINEWID
 40
0.0
  9
$COORDS
 70
     0
  9
$SPLFRAME
 70
     0
  9
$SPLINETYPE
 70
     6
  9
$SPLINESEGS
 70
     8
  9
$ATTDIA
 70
     0
  9
$ATTREQ
 70
     1
  9
$HANDLING
 70
     0
  9
$HANDSEED
  5
0
  9
$SURFTAB1
 70
     6
  9
$SURFTAB2
 70
     6
  9
$SURFTYPE
 70
     6
  9
$SURFU
 70
     6
  9
$SURFV
 70
     6
  9
$UCSNAME
  2

  9
$UCSORG
 10
0.0
 20
0.0
 30
0.0
  9
$UCSXDIR
 10
1.0
 20
0.0
 30
0.0
  9
$UCSYDIR
 10
0.0
 20
1.0
 30
0.0
  9
$PUCSNAME
  2

  9
$PUCSORG
 10
0.0
 20
0.0
 30
0.0
  9
$PUCSXDIR
 10
1.0
 20
0.0
 30
0.0
  9
$PUCSYDIR
 10
0.0
 20
1.0
 30
0.0
  9
$USERI1
 70
     0
  9
$USERI2
 70
     0
  9
$USERI3
 70
     0
  9
$USERI4
 70
     0
  9
$USERI5
 70
     0
  9
$USERR1
 40
0.0
  9
$USERR2
 40
0.0
  9
$USERR3
 40
0.0
  9
$USERR4
 40
0.0
  9
$USERR5
 40
0.0
  9
$WORLDVIEW
 70
     1
  9
$SHADEDGE
 70
     3
  9
$SHADEDIF
 70
    70
  9
$TILEMODE
 70
     1
  9
$MAXACTVP
 70
    16
  9
$PINSBASE
 10
0.0
 20
0.0
 30
0.0
  9
$PLIMCHECK
 70
     0
  9
$PEXTMIN
 10
1.000000E+20
 20
1.000000E+20
 30
1.000000E+20
  9
$PEXTMAX
 10
-1.000000E+20
 20
-1.000000E+20
 30
-1.000000E+20
  9
$PLIMMIN
 10
0.0
 20
0.0
  9
$PLIMMAX
 10
12.0
 20
9.0
  9
$UNITMODE
 70
     0
  9
$VISRETAIN
 70
     0
  9
$PLINEGEN
 70
     0
  9
$PSLTSCALE
 70
     0
  9
$TREEDEPTH
 70
  3020
  9
$DWGCODEPAGE
  3
undefined
  0
ENDSEC
  0
SECTION
  2
TABLES
  0
TABLE
  2
VPORT
 70
     2
  0
VPORT
  2
*ACTIVE
 70
     0
 10
0.0
 20
0.0
 11
1.0
 21
1.0
 12
168.9301
 22
124.0
 13
0.0
 23
0.0
 14
1.0
 24
1.0
 15
2.0
 25
2.0
 16
0.0
 26
0.0
 36
1.0
 17
0.0
 27
0.0
 37
0.0
 40
248.0
 41
1.36234
 42
50.0
 43
0.0
 44
0.0
 50
0.0
 51
0.0
 71
     0
 72
   100
 73
     1
 74
     0
 75
     0
 76
     0
 77
     0
 78
     0
  0
ENDTAB
  0
TABLE
  2
LTYPE
 70
     4
  0
LTYPE
  2
CONTINUOUS
 70
    64
  3
Solid line
 72
    65
 73
     0
 40
0.0
  0
LTYPE
  2
HIDDEN
 70
    64
  3
_ _ _ _ _ _ _ _ _ _ _ _ _ _ _ _ _ _ _ _ _ _ _
 72
    65
 73
     2
 40
0.375
 49
0.25
 49
-0.125
  0
LTYPE
  2
CENTER
 70
    64
  3
____ _ ____ _ ____ _ ____ _ ____ _ ____ _ ____
 72
    65
 73
     4
 40
2.0
 49
1.25
 49
-0.25
 49
0.25
 49
-0.25
  0
LTYPE
  2
PHANTOM
 70
    64
  3
_____ _ _ _____ _ _ _____ _ _ _____ _ _ ____
 72
    65
 73
     6
 40
2.5
 49
1.25
 49
-0.25
 49
0.25
 49
-0.25
 49
0.25
 49
-0.25
  0
ENDTAB
  0
TABLE
  2
LAYER
 70
    11
  0
LAYER
  2
0
 70
    64
 62
     7
  6
CONTINUOUS
  0
LAYER
  2
OBJECT
 70
    64
 62
     7
  6
CONTINUOUS
  0
LAYER
  2
DIM
 70
    64
 62
     7
  6
CONTINUOUS
  0
LAYER
  2
HIDDEN
 70
    64
 62
     7
  6
HIDDEN
  0
LAYER
  2
TEXT
 70
    64
 62
     7
  6
CONTINUOUS
  0
LAYER
  2
TITLE
 70
    64
 62
     7
  6
CONTINUOUS
  0
LAYER
  2
CENTER
 70
    64
 62
     7
  6
CENTER
  0
LAYER
  2
DEFPOINTS
 70
    64
 62
     7
  6
CONTINUOUS
  0
LAYER
  2
PMR
 70
    64
 62
     7
  6
CONTINUOUS
  0
LAYER
  2
BEND
 70
    64
 62
     7
  6
PHANTOM
  0
LAYER
  2
PLEXIGLASS
 70
    64
 62
     7
  6
CONTINUOUS
  0
ENDTAB
  0
TABLE
  2
STYLE
 70
     1
  0
STYLE
  2
TXT
 70
    64
 40
0.0
 41
0.75
 50
0.0
 71
     0
 42
2.0
  3
TXT.shx
  4

  0
ENDTAB
  0
TABLE
  2
VIEW
 70
     0
  0
ENDTAB
  0
TABLE
  2
UCS
 70
     0
  0
ENDTAB
  0
TABLE
  2
APPID
 70
     1
  0
APPID
  2
ACAD
 70
    64
  0
ENDTAB
  0
TABLE
  2
DIMSTYLE
 70
     2
  0
DIMSTYLE
  2
23NSTD
 70
    64
  3

  4

  5

  6

  7

 40
16.0
 41
0.18
 42
0.063
 43
0.25
 44
0.093
 45
0.0
 46
0.0
 47
0.0
 48
0.0
140
0.125
141
0.09
142
0.0
143
25.4
144
1.0
145
0.0
146
1.0
147
0.09
 71
     0
 72
     0
 73
     1
 74
     1
 75
     0
 76
     0
 77
     0
 78
     0
170
     0
171
     2
172
     0
173
     0
174
     0
175
     0
176
     0
177
     0
178
     0
  0
DIMSTYLE
  2
23NSTDI
 70
    64
  3

  4

  5

  6

  7

 40
16.0
 41
0.18
 42
0.063
 43
0.25
 44
0.093
 45
0.0
 46
0.0
 47
0.0
 48
0.0
140
0.125
141
0.09
142
0.0
143
25.4
144
1.0
145
0.0
146
1.0
147
0.09
 71
     0
 72
     0
 73
     1
 74
     1
 75
     0
 76
     0
 77
     0
 78
     0
170
     0
171
     2
172
     0
173
     0
174
     1
175
     0
176
     0
177
     0
178
     0
  0
ENDTAB
  0
ENDSEC
  0
SECTION
  2
BLOCKS
  0
BLOCK
  8
0
  2
L15
 70
    64
 10
0.0
 20
0.0
 30
0.0
  3
L15
  0
LINE
  8
OBJECT
 10
-2.1875
 20
-10.625
 30
0.0
 11
2.1875
 21
-10.625
 31
0.0
  0
LINE
  8
OBJECT
 10
2.1875
 20
-10.625
 30
0.0
 11
2.1875
 21
-10.5
 31
0.0
  0
LINE
  8
OBJECT
 10
1.6875
 20
-10.0
 30
0.0
 11
-1.6875
 21
-10.0
 31
0.0
  0
LINE
  8
OBJECT
 10
-2.1875
 20
-10.5
 30
0.0
 11
-2.1875
 21
-10.625
 31
0.0
  0
ARC
  8
OBJECT
 10
-1.6875
 20
-10.5
 30
0.0
 40
0.5
 50
90.0
 51
180.0
  0
ARC
  8
OBJECT
 10
1.6875
 20
-10.5
 30
0.0
 40
0.5
 50
0.0
 51
90.0
  0
ARC
  8
OBJECT
 10
1.6875
 20
-11.5
 30
0.0
 40
0.5
 50
0.0
 51
90.0
  0
ARC
  8
OBJECT
 10
-1.6875
 20
-11.5
 30
0.0
 40
0.5
 50
90.0
 51
180.0
  0
LINE
  8
OBJECT
 10
-2.1875
 20
-11.5
 30
0.0
 11
-2.1875
 21
-11.625
 31
0.0
  0
LINE
  8
OBJECT
 10
1.6875
 20
-11.0
 30
0.0
 11
-1.6875
 21
-11.0
 31
0.0
  0
LINE
  8
OBJECT
 10
2.1875
 20
-11.625
 30
0.0
 11
2.1875
 21
-11.5
 31
0.0
  0
LINE
  8
OBJECT
 10
-2.1875
 20
-11.625
 30
0.0
 11
2.1875
 21
-11.625
 31
0.0
  0
ARC
  8
OBJECT
 10
1.6875
 20
-12.5
 30
0.0
 40
0.5
 50
0.0
 51
90.0
  0
ARC
  8
OBJECT
 10
-1.6875
 20
-12.5
 30
0.0
 40
0.5
 50
90.0
 51
180.0
  0
LINE
  8
OBJECT
 10
-2.1875
 20
-12.5
 30
0.0
 11
-2.1875
 21
-12.625
 31
0.0
  0
LINE
  8
OBJECT
 10
1.6875
 20
-12.0
 30
0.0
 11
-1.6875
 21
-12.0
 31
0.0
  0
LINE
  8
OBJECT
 10
2.1875
 20
-12.625
 30
0.0
 11
2.1875
 21
-12.5
 31
0.0
  0
LINE
  8
OBJECT
 10
-2.1875
 20
-12.625
 30
0.0
 11
2.1875
 21
-12.625
 31
0.0
  0
ARC
  8
OBJECT
 10
1.6875
 20
-13.5
 30
0.0
 40
0.5
 50
0.0
 51
90.0
  0
ARC
  8
OBJECT
 10
-1.6875
 20
-13.5
 30
0.0
 40
0.5
 50
90.0
 51
180.0
  0
LINE
  8
OBJECT
 10
-2.1875
 20
-13.5
 30
0.0
 11
-2.1875
 21
-13.625
 31
0.0
  0
LINE
  8
OBJECT
 10
1.6875
 20
-13.0
 30
0.0
 11
-1.6875
 21
-13.0
 31
0.0
  0
LINE
  8
OBJECT
 10
2.1875
 20
-13.625
 30
0.0
 11
2.1875
 21
-13.5
 31
0.0
  0
LINE
  8
OBJECT
 10
-2.1875
 20
-13.625
 30
0.0
 11
2.1875
 21
-13.625
 31
0.0
  0
ARC
  8
OBJECT
 10
1.6875
 20
-14.5
 30
0.0
 40
0.5
 50
0.0
 51
90.0
  0
ARC
  8
OBJECT
 10
-1.6875
 20
-14.5
 30
0.0
 40
0.5
 50
90.0
 51
180.0
  0
LINE
  8
OBJECT
 10
-2.1875
 20
-14.5
 30
0.0
 11
-2.1875
 21
-14.625
 31
0.0
  0
LINE
  8
OBJECT
 10
1.6875
 20
-14.0
 30
0.0
 11
-1.6875
 21
-14.0
 31
0.0
  0
LINE
  8
OBJECT
 10
2.1875
 20
-14.625
 30
0.0
 11
2.1875
 21
-14.5
 31
0.0
  0
LINE
  8
OBJECT
 10
-2.1875
 20
-14.625
 30
0.0
 11
2.1875
 21
-14.625
 31
0.0
  0
LINE
  8
OBJECT
 10
-2.1875
 20
-5.625
 30
0.0
 11
2.1875
 21
-5.625
 31
0.0
  0
LINE
  8
OBJECT
 10
2.1875
 20
-5.625
 30
0.0
 11
2.1875
 21
-5.5
 31
0.0
  0
LINE
  8
OBJECT
 10
1.6875
 20
-5.0
 30
0.0
 11
-1.6875
 21
-5.0
 31
0.0
  0
LINE
  8
OBJECT
 10
-2.1875
 20
-5.5
 30
0.0
 11
-2.1875
 21
-5.625
 31
0.0
  0
ARC
  8
OBJECT
 10
-1.6875
 20
-5.5
 30
0.0
 40
0.5
 50
90.0
 51
180.0
  0
ARC
  8
OBJECT
 10
1.6875
 20
-5.5
 30
0.0
 40
0.5
 50
0.0
 51
90.0
  0
ARC
  8
OBJECT
 10
1.6875
 20
-6.5
 30
0.0
 40
0.5
 50
0.0
 51
90.0
  0
ARC
  8
OBJECT
 10
-1.6875
 20
-6.5
 30
0.0
 40
0.5
 50
90.0
 51
180.0
  0
LINE
  8
OBJECT
 10
-2.1875
 20
-6.5
 30
0.0
 11
-2.1875
 21
-6.625
 31
0.0
  0
LINE
  8
OBJECT
 10
1.6875
 20
-6.0
 30
0.0
 11
-1.6875
 21
-6.0
 31
0.0
  0
LINE
  8
OBJECT
 10
2.1875
 20
-6.625
 30
0.0
 11
2.1875
 21
-6.5
 31
0.0
  0
LINE
  8
OBJECT
 10
-2.1875
 20
-6.625
 30
0.0
 11
2.1875
 21
-6.625
 31
0.0
  0
ARC
  8
OBJECT
 10
1.6875
 20
-7.5
 30
0.0
 40
0.5
 50
0.0
 51
90.0
  0
ARC
  8
OBJECT
 10
-1.6875
 20
-7.5
 30
0.0
 40
0.5
 50
90.0
 51
180.0
  0
LINE
  8
OBJECT
 10
-2.1875
 20
-7.5
 30
0.0
 11
-2.1875
 21
-7.625
 31
0.0
  0
LINE
  8
OBJECT
 10
1.6875
 20
-7.0
 30
0.0
 11
-1.6875
 21
-7.0
 31
0.0
  0
LINE
  8
OBJECT
 10
2.1875
 20
-7.625
 30
0.0
 11
2.1875
 21
-7.5
 31
0.0
  0
LINE
  8
OBJECT
 10
-2.1875
 20
-7.625
 30
0.0
 11
2.1875
 21
-7.625
 31
0.0
  0
ARC
  8
OBJECT
 10
1.6875
 20
-8.5
 30
0.0
 40
0.5
 50
0.0
 51
90.0
  0
ARC
  8
OBJECT
 10
-1.6875
 20
-8.5
 30
0.0
 40
0.5
 50
90.0
 51
180.0
  0
LINE
  8
OBJECT
 10
-2.1875
 20
-8.5
 30
0.0
 11
-2.1875
 21
-8.625
 31
0.0
  0
LINE
  8
OBJECT
 10
1.6875
 20
-8.0
 30
0.0
 11
-1.6875
 21
-8.0
 31
0.0
  0
LINE
  8
OBJECT
 10
2.1875
 20
-8.625
 30
0.0
 11
2.1875
 21
-8.5
 31
0.0
  0
LINE
  8
OBJECT
 10
-2.1875
 20
-8.625
 30
0.0
 11
2.1875
 21
-8.625
 31
0.0
  0
ARC
  8
OBJECT
 10
1.6875
 20
-9.5
 30
0.0
 40
0.5
 50
0.0
 51
90.0
  0
ARC
  8
OBJECT
 10
-1.6875
 20
-9.5
 30
0.0
 40
0.5
 50
90.0
 51
180.0
  0
LINE
  8
OBJECT
 10
-2.1875
 20
-9.5
 30
0.0
 11
-2.1875
 21
-9.625
 31
0.0
  0
LINE
  8
OBJECT
 10
1.6875
 20
-9.0
 30
0.0
 11
-1.6875
 21
-9.0
 31
0.0
  0
LINE
  8
OBJECT
 10
2.1875
 20
-9.625
 30
0.0
 11
2.1875
 21
-9.5
 31
0.0
  0
LINE
  8
OBJECT
 10
-2.1875
 20
-9.625
 30
0.0
 11
2.1875
 21
-9.625
 31
0.0
  0
LINE
  8
OBJECT
 10
-2.1875
 20
-4.625
 30
0.0
 11
2.1875
 21
-4.625
 31
0.0
  0
LINE
  8
OBJECT
 10
2.1875
 20
-4.625
 30
0.0
 11
2.1875
 21
-4.5
 31
0.0
  0
LINE
  8
OBJECT
 10
1.6875
 20
-4.0
 30
0.0
 11
-1.6875
 21
-4.0
 31
0.0
  0
LINE
  8
OBJECT
 10
-2.1875
 20
-4.5
 30
0.0
 11
-2.1875
 21
-4.625
 31
0.0
  0
ARC
  8
OBJECT
 10
-1.6875
 20
-4.5
 30
0.0
 40
0.5
 50
90.0
 51
180.0
  0
ARC
  8
OBJECT
 10
1.6875
 20
-4.5
 30
0.0
 40
0.5
 50
0.0
 51
90.0
  0
LINE
  8
OBJECT
 10
-2.1875
 20
-3.625
 30
0.0
 11
2.1875
 21
-3.625
 31
0.0
  0
LINE
  8
OBJECT
 10
2.1875
 20
-3.625
 30
0.0
 11
2.1875
 21
-3.5
 31
0.0
  0
LINE
  8
OBJECT
 10
1.6875
 20
-3.0
 30
0.0
 11
-1.6875
 21
-3.0
 31
0.0
  0
LINE
  8
OBJECT
 10
-2.1875
 20
-3.5
 30
0.0
 11
-2.1875
 21
-3.625
 31
0.0
  0
ARC
  8
OBJECT
 10
-1.6875
 20
-3.5
 30
0.0
 40
0.5
 50
90.0
 51
180.0
  0
ARC
  8
OBJECT
 10
1.6875
 20
-3.5
 30
0.0
 40
0.5
 50
0.0
 51
90.0
  0
LINE
  8
OBJECT
 10
-2.1875
 20
-2.625
 30
0.0
 11
2.1875
 21
-2.625
 31
0.0
  0
LINE
  8
OBJECT
 10
2.1875
 20
-2.625
 30
0.0
 11
2.1875
 21
-2.5
 31
0.0
  0
LINE
  8
OBJECT
 10
1.6875
 20
-2.0
 30
0.0
 11
-1.6875
 21
-2.0
 31
0.0
  0
LINE
  8
OBJECT
 10
-2.1875
 20
-2.5
 30
0.0
 11
-2.1875
 21
-2.625
 31
0.0
  0
ARC
  8
OBJECT
 10
-1.6875
 20
-2.5
 30
0.0
 40
0.5
 50
90.0
 51
180.0
  0
ARC
  8
OBJECT
 10
1.6875
 20
-2.5
 30
0.0
 40
0.5
 50
0.0
 51
90.0
  0
LINE
  8
OBJECT
 10
-2.1875
 20
-1.625
 30
0.0
 11
2.1875
 21
-1.625
 31
0.0
  0
LINE
  8
OBJECT
 10
2.1875
 20
-1.625
 30
0.0
 11
2.1875
 21
-1.5
 31
0.0
  0
LINE
  8
OBJECT
 10
1.6875
 20
-1.0
 30
0.0
 11
-1.6875
 21
-1.0
 31
0.0
  0
LINE
  8
OBJECT
 10
-2.1875
 20
-1.5
 30
0.0
 11
-2.1875
 21
-1.625
 31
0.0
  0
ARC
  8
OBJECT
 10
-1.6875
 20
-1.5
 30
0.0
 40
0.5
 50
90.0
 51
180.0
  0
ARC
  8
OBJECT
 10
1.6875
 20
-1.5
 30
0.0
 40
0.5
 50
0.0
 51
90.0
  0
ARC
  8
OBJECT
 10
1.6875
 20
-0.5
 30
0.0
 40
0.5
 50
0.0
 51
90.0
  0
ARC
  8
OBJECT
 10
-1.6875
 20
-0.5
 30
0.0
 40
0.5
 50
90.0
 51
180.0
  0
LINE
  8
OBJECT
 10
-2.1875
 20
-0.5
 30
0.0
 11
-2.1875
 21
-0.625
 31
0.0
  0
LINE
  8
OBJECT
 10
1.6875
 20
0.0
 30
0.0
 11
-1.6875
 21
0.0
 31
0.0
  0
LINE
  8
OBJECT
 10
2.1875
 20
-0.625
 30
0.0
 11
2.1875
 21
-0.5
 31
0.0
  0
LINE
  8
OBJECT
 10
-2.1875
 20
-0.625
 30
0.0
 11
2.1875
 21
-0.625
 31
0.0
  0
ENDBLK
  8
0
  0
BLOCK
  8
0
  2
L15S
 70
    64
 10
0.0
 20
0.0
 30
0.0
  3
L15S
  0
LINE
  8
OBJECT
 10
14.625
 20
-0.312
 30
0.0
 11
14.625
 21
0.0
 31
0.0
  0
ARC
  8
OBJECT
 10
14.5625
 20
0.344801
 30
0.0
 40
0.659768
 50
211.507467
 51
275.435793
  0
LINE
  8
OBJECT
 10
13.625
 20
-0.312
 30
0.0
 11
13.625
 21
0.0
 31
0.0
  0
ARC
  8
OBJECT
 10
13.5625
 20
0.344801
 30
0.0
 40
0.659768
 50
211.507467
 51
275.435793
  0
LINE
  8
OBJECT
 10
12.625
 20
-0.312
 30
0.0
 11
12.625
 21
0.0
 31
0.0
  0
ARC
  8
OBJECT
 10
12.5625
 20
0.344801
 30
0.0
 40
0.659768
 50
211.507467
 51
275.435793
  0
LINE
  8
OBJECT
 10
11.625
 20
-0.312
 30
0.0
 11
11.625
 21
0.0
 31
0.0
  0
ARC
  8
OBJECT
 10
11.5625
 20
0.344801
 30
0.0
 40
0.659768
 50
211.507467
 51
275.435793
  0
LINE
  8
OBJECT
 10
10.625
 20
-0.312
 30
0.0
 11
10.625
 21
0.0
 31
0.0
  0
ARC
  8
OBJECT
 10
10.5625
 20
0.344801
 30
0.0
 40
0.659768
 50
211.507467
 51
275.435793
  0
LINE
  8
OBJECT
 10
9.625
 20
-0.312
 30
0.0
 11
9.625
 21
0.0
 31
0.0
  0
ARC
  8
OBJECT
 10
9.5625
 20
0.344801
 30
0.0
 40
0.659768
 50
211.507467
 51
275.435793
  0
LINE
  8
OBJECT
 10
8.625
 20
-0.312
 30
0.0
 11
8.625
 21
0.0
 31
0.0
  0
ARC
  8
OBJECT
 10
8.5625
 20
0.344801
 30
0.0
 40
0.659768
 50
211.507467
 51
275.435793
  0
LINE
  8
OBJECT
 10
7.625
 20
-0.312
 30
0.0
 11
7.625
 21
0.0
 31
0.0
  0
ARC
  8
OBJECT
 10
7.5625
 20
0.344801
 30
0.0
 40
0.659768
 50
211.507467
 51
275.435793
  0
LINE
  8
OBJECT
 10
6.625
 20
-0.312
 30
0.0
 11
6.625
 21
0.0
 31
0.0
  0
ARC
  8
OBJECT
 10
6.5625
 20
0.344801
 30
0.0
 40
0.659768
 50
211.507467
 51
275.435793
  0
LINE
  8
OBJECT
 10
5.625
 20
-0.312
 30
0.0
 11
5.625
 21
0.0
 31
0.0
  0
ARC
  8
OBJECT
 10
5.5625
 20
0.344801
 30
0.0
 40
0.659768
 50
211.507467
 51
275.435793
  0
LINE
  8
OBJECT
 10
4.625
 20
-0.312
 30
0.0
 11
4.625
 21
0.0
 31
0.0
  0
ARC
  8
OBJECT
 10
4.5625
 20
0.344801
 30
0.0
 40
0.659768
 50
211.507467
 51
275.435793
  0
LINE
  8
OBJECT
 10
3.625
 20
-0.312
 30
0.0
 11
3.625
 21
0.0
 31
0.0
  0
ARC
  8
OBJECT
 10
3.5625
 20
0.344801
 30
0.0
 40
0.659768
 50
211.507467
 51
275.435793
  0
LINE
  8
OBJECT
 10
2.625
 20
-0.312
 30
0.0
 11
2.625
 21
0.0
 31
0.0
  0
ARC
  8
OBJECT
 10
2.5625
 20
0.344801
 30
0.0
 40
0.659768
 50
211.507467
 51
275.435793
  0
LINE
  8
OBJECT
 10
1.625
 20
-0.312
 30
0.0
 11
1.625
 21
0.0
 31
0.0
  0
ARC
  8
OBJECT
 10
1.5625
 20
0.344801
 30
0.0
 40
0.659768
 50
211.507467
 51
275.435793
  0
ARC
  8
OBJECT
 10
0.5625
 20
0.344801
 30
0.0
 40
0.659768
 50
211.507467
 51
275.435793
  0
LINE
  8
OBJECT
 10
0.625
 20
-0.312
 30
0.0
 11
0.625
 21
0.0
 31
0.0
  0
ENDBLK
  8
0
  0
BLOCK
  8
0
  2
HB
 70
    64
 10
0.0
 20
0.0
 30
0.0
  3
HB
  0
TEXT
  8
TEXT
 10
0.207833
 20
15.060079
 30
0.0
 40
0.125
  1
NAME
 72
     1
 11
0.437
 21
15.060079
 31
0.0
  0
TEXT
  8
TEXT
 10
0.207833
 20
15.268413
 30
0.0
 40
0.125
  1
PART
 72
     1
 11
0.437
 21
15.268413
 31
0.0
  0
TEXT
  8
TEXT
 10
5.372
 20
15.060079
 30
0.0
 40
0.125
  1
No.
 72
     1
 11
5.497
 21
15.060079
 31
0.0
  0
TEXT
  8
TEXT
 10
5.267833
 20
15.268413
 30
0.0
 40
0.125
  1
PART
 72
     1
 11
5.497
 21
15.268413
 31
0.0
  0
LINE
  8
TITLE
 10
5.872
 20
15.438
 30
0.0
 11
5.872
 21
15.02
 31
0.0
  0
LINE
  8
TITLE
 10
5.122
 20
15.438
 30
0.0
 11
5.122
 21
15.02
 31
0.0
  0
LINE
  8
TITLE
 10
5.06
 20
15.438
 30
0.0
 11
5.06
 21
15.02
 31
0.0
  0
LINE
  8
TITLE
 10
0.812
 20
15.02
 30
0.0
 11
0.812
 21
15.438
 31
0.0
  0
LINE
  8
TITLE
 10
0.062
 20
15.02
 30
0.0
 11
10.058
 21
15.02
 31
0.0
  0
LINE
  8
TITLE
 10
10.058
 20
0.062
 30
0.0
 11
0.062
 21
0.062
 31
0.0
  0
LINE
  8
TITLE
 10
10.058
 20
15.438
 30
0.0
 11
10.058
 21
0.062
 31
0.0
  0
LINE
  8
TITLE
 10
0.062
 20
15.438
 30
0.0
 11
10.058
 21
15.438
 31
0.0
  0
LINE
  8
TITLE
 10
0.062
 20
0.062
 30
0.0
 11
0.062
 21
15.438
 31
0.0
  0
LINE
  8
TITLE
 10
0.0
 20
0.0
 30
0.0
 11
0.0
 21
15.5
 31
0.0
  0
LINE
  8
TITLE
 10
10.12
 20
0.0
 30
0.0
 11
0.0
 21
0.0
 31
0.0
  0
LINE
  8
TITLE
 10
10.12
 20
15.5
 30
0.0
 11
10.12
 21
0.0
 31
0.0
  0
LINE
  8
TITLE
 10
0.0
 20
15.5
 30
0.0
 11
10.12
 21
15.5
 31
0.0
  0
ENDBLK
  8
0
  0
BLOCK
  8
0
  2
TOP
 70
    64
 10
0.0
 20
0.0
 30
0.0
  3
TOP
  0
CIRCLE
  8
OBJECT
 10
-4.196365
 20
-1.678546
 30
0.0
 40
0.125
  0
CIRCLE
  8
OBJECT
 10
-4.196365
 20
-0.839273
 30
0.0
 40
0.125
  0
CIRCLE
  8
OBJECT
 10
-4.196365
 20
0.0
 30
0.0
 40
0.125
  0
CIRCLE
  8
OBJECT
 10
-4.196365
 20
0.839273
 30
0.0
 40
0.125
  0
CIRCLE
  8
OBJECT
 10
-4.844
 20
0.0
 30
0.0
 40
0.09
  0
CIRCLE
  8
OBJECT
 10
-1.678546
 20
-4.196365
 30
0.0
 40
0.125
  0
CIRCLE
  8
OBJECT
 10
-1.678546
 20
-3.357092
 30
0.0
 40
0.125
  0
CIRCLE
  8
OBJECT
 10
-2.517819
 20
-3.357092
 30
0.0
 40
0.125
  0
CIRCLE
  8
OBJECT
 10
-3.425225
 20
-3.425225
 30
0.0
 40
0.09
  0
CIRCLE
  8
OBJECT
 10
-0.839273
 20
-4.196365
 30
0.0
 40
0.125
  0
CIRCLE
  8
OBJECT
 10
-0.839273
 20
-3.357092
 30
0.0
 40
0.125
  0
CIRCLE
  8
OBJECT
 10
0.0
 20
-4.196365
 30
0.0
 40
0.125
  0
CIRCLE
  8
OBJECT
 10
0.0
 20
-3.357092
 30
0.0
 40
0.125
  0
CIRCLE
  8
OBJECT
 10
0.839273
 20
-4.196365
 30
0.0
 40
0.125
  0
CIRCLE
  8
OBJECT
 10
0.839273
 20
-3.357092
 30
0.0
 40
0.125
  0
CIRCLE
  8
OBJECT
 10
0.0
 20
-4.844
 30
0.0
 40
0.09
  0
CIRCLE
  8
OBJECT
 10
-1.678546
 20
-2.517819
 30
0.0
 40
0.125
  0
CIRCLE
  8
OBJECT
 10
-1.678546
 20
-1.678546
 30
0.0
 40
0.125
  0
CIRCLE
  8
OBJECT
 10
-1.678546
 20
-0.839273
 30
0.0
 40
0.125
  0
CIRCLE
  8
OBJECT
 10
-1.678546
 20
0.0
 30
0.0
 40
0.125
  0
CIRCLE
  8
OBJECT
 10
-1.678546
 20
0.839273
 30
0.0
 40
0.125
  0
CIRCLE
  8
OBJECT
 10
-3.357092
 20
-2.517819
 30
0.0
 40
0.125
  0
CIRCLE
  8
OBJECT
 10
-3.357092
 20
-1.678546
 30
0.0
 40
0.125
  0
CIRCLE
  8
OBJECT
 10
-3.357092
 20
-0.839273
 30
0.0
 40
0.125
  0
CIRCLE
  8
OBJECT
 10
-3.357092
 20
0.0
 30
0.0
 40
0.125
  0
CIRCLE
  8
OBJECT
 10
-3.357092
 20
0.839273
 30
0.0
 40
0.125
  0
CIRCLE
  8
OBJECT
 10
-2.517819
 20
-2.517819
 30
0.0
 40
0.125
  0
CIRCLE
  8
OBJECT
 10
-2.517819
 20
-1.678546
 30
0.0
 40
0.125
  0
CIRCLE
  8
OBJECT
 10
-2.517819
 20
-0.839273
 30
0.0
 40
0.125
  0
CIRCLE
  8
OBJECT
 10
-2.517819
 20
0.0
 30
0.0
 40
0.125
  0
CIRCLE
  8
OBJECT
 10
-2.517819
 20
0.839273
 30
0.0
 40
0.125
  0
CIRCLE
  8
OBJECT
 10
-0.839273
 20
-2.517819
 30
0.0
 40
0.125
  0
CIRCLE
  8
OBJECT
 10
-0.839273
 20
-1.678546
 30
0.0
 40
0.125
  0
CIRCLE
  8
OBJECT
 10
-0.839273
 20
-0.839273
 30
0.0
 40
0.125
  0
CIRCLE
  8
OBJECT
 10
-0.839273
 20
0.0
 30
0.0
 40
0.125
  0
CIRCLE
  8
OBJECT
 10
-0.839273
 20
0.839273
 30
0.0
 40
0.125
  0
CIRCLE
  8
OBJECT
 10
0.0
 20
-2.517819
 30
0.0
 40
0.125
  0
CIRCLE
  8
OBJECT
 10
0.0
 20
-1.678546
 30
0.0
 40
0.125
  0
CIRCLE
  8
OBJECT
 10
0.0
 20
-0.839273
 30
0.0
 40
0.125
  0
CIRCLE
  8
OBJECT
 10
0.0
 20
0.0
 30
0.0
 40
0.125
  0
CIRCLE
  8
OBJECT
 10
0.0
 20
0.839273
 30
0.0
 40
0.125
  0
CIRCLE
  8
OBJECT
 10
0.839273
 20
-2.517819
 30
0.0
 40
0.125
  0
CIRCLE
  8
OBJECT
 10
0.839273
 20
-1.678546
 30
0.0
 40
0.125
  0
CIRCLE
  8
OBJECT
 10
0.839273
 20
-0.839273
 30
0.0
 40
0.125
  0
CIRCLE
  8
OBJECT
 10
0.839273
 20
0.0
 30
0.0
 40
0.125
  0
CIRCLE
  8
OBJECT
 10
0.839273
 20
0.839273
 30
0.0
 40
0.125
  0
CIRCLE
  8
OBJECT
 10
-4.196365
 20
1.678546
 30
0.0
 40
0.125
  0
CIRCLE
  8
OBJECT
 10
-1.678546
 20
1.678546
 30
0.0
 40
0.125
  0
CIRCLE
  8
OBJECT
 10
-1.678546
 20
2.517819
 30
0.0
 40
0.125
  0
CIRCLE
  8
OBJECT
 10
-1.678546
 20
3.357092
 30
0.0
 40
0.125
  0
CIRCLE
  8
OBJECT
 10
-1.678546
 20
4.196365
 30
0.0
 40
0.125
  0
CIRCLE
  8
OBJECT
 10
-3.357092
 20
1.678546
 30
0.0
 40
0.125
  0
CIRCLE
  8
OBJECT
 10
-3.357092
 20
2.517819
 30
0.0
 40
0.125
  0
CIRCLE
  8
OBJECT
 10
-2.517819
 20
1.678546
 30
0.0
 40
0.125
  0
CIRCLE
  8
OBJECT
 10
-2.517819
 20
2.517819
 30
0.0
 40
0.125
  0
CIRCLE
  8
OBJECT
 10
-2.517819
 20
3.357092
 30
0.0
 40
0.125
  0
CIRCLE
  8
OBJECT
 10
-3.425225
 20
3.425225
 30
0.0
 40
0.09
  0
CIRCLE
  8
OBJECT
 10
-0.839273
 20
1.678546
 30
0.0
 40
0.125
  0
CIRCLE
  8
OBJECT
 10
-0.839273
 20
2.517819
 30
0.0
 40
0.125
  0
CIRCLE
  8
OBJECT
 10
-0.839273
 20
3.357092
 30
0.0
 40
0.125
  0
CIRCLE
  8
OBJECT
 10
-0.839273
 20
4.196365
 30
0.0
 40
0.125
  0
CIRCLE
  8
OBJECT
 10
0.0
 20
1.678546
 30
0.0
 40
0.125
  0
CIRCLE
  8
OBJECT
 10
0.0
 20
2.517819
 30
0.0
 40
0.125
  0
CIRCLE
  8
OBJECT
 10
0.0
 20
3.357092
 30
0.0
 40
0.125
  0
CIRCLE
  8
OBJECT
 10
0.0
 20
4.196365
 30
0.0
 40
0.125
  0
CIRCLE
  8
OBJECT
 10
0.839273
 20
1.678546
 30
0.0
 40
0.125
  0
CIRCLE
  8
OBJECT
 10
0.839273
 20
2.517819
 30
0.0
 40
0.125
  0
CIRCLE
  8
OBJECT
 10
0.839273
 20
3.357092
 30
0.0
 40
0.125
  0
CIRCLE
  8
OBJECT
 10
0.839273
 20
4.196365
 30
0.0
 40
0.125
  0
CIRCLE
  8
OBJECT
 10
0.0
 20
4.844
 30
0.0
 40
0.09
  0
CIRCLE
  8
OBJECT
 10
2.517819
 20
-3.357092
 30
0.0
 40
0.125
  0
CIRCLE
  8
OBJECT
 10
1.678546
 20
-4.196365
 30
0.0
 40
0.125
  0
CIRCLE
  8
OBJECT
 10
1.678546
 20
-3.357092
 30
0.0
 40
0.125
  0
CIRCLE
  8
OBJECT
 10
3.425225
 20
-3.425225
 30
0.0
 40
0.09
  0
CIRCLE
  8
OBJECT
 10
2.517819
 20
-2.517819
 30
0.0
 40
0.125
  0
CIRCLE
  8
OBJECT
 10
2.517819
 20
-1.678546
 30
0.0
 40
0.125
  0
CIRCLE
  8
OBJECT
 10
2.517819
 20
-0.839273
 30
0.0
 40
0.125
  0
CIRCLE
  8
OBJECT
 10
2.517819
 20
0.0
 30
0.0
 40
0.125
  0
CIRCLE
  8
OBJECT
 10
2.517819
 20
0.839273
 30
0.0
 40
0.125
  0
CIRCLE
  8
OBJECT
 10
3.357092
 20
-2.517819
 30
0.0
 40
0.125
  0
CIRCLE
  8
OBJECT
 10
3.357092
 20
-1.678546
 30
0.0
 40
0.125
  0
CIRCLE
  8
OBJECT
 10
3.357092
 20
-0.839273
 30
0.0
 40
0.125
  0
CIRCLE
  8
OBJECT
 10
3.357092
 20
0.0
 30
0.0
 40
0.125
  0
CIRCLE
  8
OBJECT
 10
3.357092
 20
0.839273
 30
0.0
 40
0.125
  0
CIRCLE
  8
OBJECT
 10
1.678546
 20
-2.517819
 30
0.0
 40
0.125
  0
CIRCLE
  8
OBJECT
 10
1.678546
 20
-1.678546
 30
0.0
 40
0.125
  0
CIRCLE
  8
OBJECT
 10
1.678546
 20
-0.839273
 30
0.0
 40
0.125
  0
CIRCLE
  8
OBJECT
 10
1.678546
 20
0.0
 30
0.0
 40
0.125
  0
CIRCLE
  8
OBJECT
 10
1.678546
 20
0.839273
 30
0.0
 40
0.125
  0
CIRCLE
  8
OBJECT
 10
4.196365
 20
-1.678546
 30
0.0
 40
0.125
  0
CIRCLE
  8
OBJECT
 10
4.196365
 20
-0.839273
 30
0.0
 40
0.125
  0
CIRCLE
  8
OBJECT
 10
4.196365
 20
0.0
 30
0.0
 40
0.125
  0
CIRCLE
  8
OBJECT
 10
4.196365
 20
0.839273
 30
0.0
 40
0.125
  0
CIRCLE
  8
OBJECT
 10
4.844
 20
0.0
 30
0.0
 40
0.09
  0
CIRCLE
  8
OBJECT
 10
2.517819
 20
1.678546
 30
0.0
 40
0.125
  0
CIRCLE
  8
OBJECT
 10
2.517819
 20
2.517819
 30
0.0
 40
0.125
  0
CIRCLE
  8
OBJECT
 10
2.517819
 20
3.357092
 30
0.0
 40
0.125
  0
CIRCLE
  8
OBJECT
 10
3.357092
 20
1.678546
 30
0.0
 40
0.125
  0
CIRCLE
  8
OBJECT
 10
3.357092
 20
2.517819
 30
0.0
 40
0.125
  0
CIRCLE
  8
OBJECT
 10
1.678546
 20
1.678546
 30
0.0
 40
0.125
  0
CIRCLE
  8
OBJECT
 10
1.678546
 20
2.517819
 30
0.0
 40
0.125
  0
CIRCLE
  8
OBJECT
 10
1.678546
 20
3.357092
 30
0.0
 40
0.125
  0
CIRCLE
  8
OBJECT
 10
1.678546
 20
4.196365
 30
0.0
 40
0.125
  0
CIRCLE
  8
OBJECT
 10
3.425225
 20
3.425225
 30
0.0
 40
0.09
  0
CIRCLE
  8
OBJECT
 10
4.196365
 20
1.678546
 30
0.0
 40
0.125
  0
ENDBLK
  8
0
  0
BLOCK
  8
0
  2
*X4
 70
    65
 10
0.0
 20
0.0
 30
0.0
  3
*X
  0
LINE
  8
0
 62
     0
 10
1.196039
 20
0.599976
 30
0.0
 11
5.086496
 21
15.119358
 31
0.0
  0
LINE
  8
0
 62
     0
 10
0.447658
 20
1.670681
 30
0.0
 11
3.720422
 21
13.884803
 31
0.0
  0
LINE
  8
0
 62
     0
 10
0.283285
 20
4.920939
 30
0.0
 11
2.354347
 21
12.650248
 31
0.0
  0
LINE
  8
0
 62
     0
 10
0.118913
 20
8.171197
 30
0.0
 11
0.988273
 21
11.415693
 31
0.0
  0
LINE
  8
0
 62
     0
 10
2.562113
 20
1.834531
 30
0.0
 11
6.45257
 21
16.353913
 31
0.0
  0
LINE
  8
0
 62
     0
 10
3.928188
 20
3.069086
 30
0.0
 11
7.817077
 21
17.582618
 31
0.0
  0
LINE
  8
0
 62
     0
 10
5.294262
 20
4.303641
 30
0.0
 11
7.981449
 21
14.332359
 31
0.0
  0
LINE
  8
0
 62
     0
 10
6.660336
 20
5.538196
 30
0.0
 11
8.145821
 21
11.082101
 31
0.0
  0
LINE
  8
0
 62
     0
 10
8.02641
 20
6.772752
 30
0.0
 11
8.310193
 21
7.831843
 31
0.0
  0
ENDBLK
  8
0
  0
BLOCK
  8
0
  2
*D5
 70
    65
 10
0.0
 20
0.0
 30
0.0
  3
*D
  0
LINE
  8
0
  6
BYBLOCK
 62
     0
 10
24.822039
 20
82.182151
 30
0.0
 11
13.289539
 21
82.182151
 31
0.0
  0
LINE
  8
0
  6
BYBLOCK
 62
     0
 10
24.822039
 20
152.244151
 30
0.0
 11
13.289539
 21
152.244151
 31
0.0
  0
LINE
  8
0
  6
BYBLOCK
 62
     0
 10
14.777539
 20
85.062151
 30
0.0
 11
14.777539
 21
114.773151
 31
0.0
  0
LINE
  8
0
  6
BYBLOCK
 62
     0
 10
14.777539
 20
149.364151
 30
0.0
 11
14.777539
 21
119.653151
 31
0.0
  0
SOLID
  8
0
  6
BYBLOCK
 62
     0
 10
14.297539
 20
85.062151
 30
0.0
 11
15.257539
 21
85.062151
 31
0.0
 12
14.777539
 22
82.182151
 32
0.0
 13
14.777539
 23
82.182151
 33
0.0
  0
SOLID
  8
0
  6
BYBLOCK
 62
     0
 10
14.297539
 20
149.364151
 30
0.0
 11
15.257539
 21
149.364151
 31
0.0
 12
14.777539
 22
152.244151
 32
0.0
 13
14.777539
 23
152.244151
 33
0.0
  0
TEXT
  8
0
  6
BYBLOCK
 62
     0
 10
14.527539
 20
116.213151
 30
0.0
 40
2.0
  1
 %%p0.031
 41
0.75
 72
     1
 11
18.527539
 21
117.213151
 31
0.0
 73
     2
  0
TEXT
  8
0
  6
BYBLOCK
 62
     0
 10
7.027539
 20
116.213151
 30
0.0
 40
2.0
  1
70.062
 41
0.75
 72
     1
 11
10.527539
 21
117.213151
 31
0.0
 73
     2
  0
POINT
  8
DEFPOINTS
  6
BYBLOCK
 62
     0
 10
25.830039
 20
82.182151
 30
0.0
  0
POINT
  8
DEFPOINTS
  6
BYBLOCK
 62
     0
 10
25.830039
 20
152.244151
 30
0.0
  0
POINT
  8
DEFPOINTS
  6
BYBLOCK
 62
     0
 10
14.777539
 20
152.244151
 30
0.0
  0
ENDBLK
  8
0
  0
BLOCK
  8
0
  2
*D6
 70
    65
 10
0.0
 20
0.0
 30
0.0
  3
*D
  0
LINE
  8
0
  6
BYBLOCK
 62
     0
 10
24.822039
 20
152.244151
 30
0.0
 11
13.289539
 21
152.244151
 31
0.0
  0
LINE
  8
0
  6
BYBLOCK
 62
     0
 10
23.384539
 20
154.869151
 30
0.0
 11
13.289539
 21
154.869151
 31
0.0
  0
LINE
  8
0
  6
BYBLOCK
 62
     0
 10
14.777539
 20
149.364151
 30
0.0
 11
14.777539
 21
146.484151
 31
0.0
  0
LINE
  8
0
  6
BYBLOCK
 62
     0
 10
14.777539
 20
157.749151
 30
0.0
 11
14.777539
 21
160.629151
 31
0.0
  0
LINE
  8
0
  6
BYBLOCK
 62
     0
 10
14.777539
 20
160.629151
 30
0.0
 11
17.657539
 21
160.629151
 31
0.0
  0
SOLID
  8
0
  6
BYBLOCK
 62
     0
 10
14.297539
 20
149.364151
 30
0.0
 11
15.257539
 21
149.364151
 31
0.0
 12
14.777539
 22
152.244151
 32
0.0
 13
14.777539
 23
152.244151
 33
0.0
  0
SOLID
  8
0
  6
BYBLOCK
 62
     0
 10
14.297539
 20
157.749151
 30
0.0
 11
15.257539
 21
157.749151
 31
0.0
 12
14.777539
 22
154.869151
 32
0.0
 13
14.777539
 23
154.869151
 33
0.0
  0
TEXT
  8
0
  6
BYBLOCK
 62
     0
 10
19.097539
 20
159.629151
 30
0.0
 40
2.0
  1
2.625
 41
0.75
 72
     1
 11
22.097539
 21
160.629151
 31
0.0
 73
     2
  0
POINT
  8
DEFPOINTS
  6
BYBLOCK
 62
     0
 10
25.830039
 20
152.244151
 30
0.0
  0
POINT
  8
DEFPOINTS
  6
BYBLOCK
 62
     0
 10
24.392539
 20
154.869151
 30
0.0
  0
POINT
  8
DEFPOINTS
  6
BYBLOCK
 62
     0
 10
14.777539
 20
154.869151
 30
0.0
  0
ENDBLK
  8
0
  0
BLOCK
  8
0
  2
*D7
 70
    65
 10
0.0
 20
0.0
 30
0.0
  3
*D
  0
LINE
  8
0
  6
BYBLOCK
 62
     0
 10
24.822039
 20
82.182151
 30
0.0
 11
13.289539
 21
82.182151
 31
0.0
  0
LINE
  8
0
  6
BYBLOCK
 62
     0
 10
23.384539
 20
79.557151
 30
0.0
 11
13.289539
 21
79.557151
 31
0.0
  0
LINE
  8
0
  6
BYBLOCK
 62
     0
 10
14.777539
 20
85.062151
 30
0.0
 11
14.777539
 21
87.942151
 31
0.0
  0
LINE
  8
0
  6
BYBLOCK
 62
     0
 10
14.777539
 20
76.677151
 30
0.0
 11
14.777539
 21
73.797151
 31
0.0
  0
LINE
  8
0
  6
BYBLOCK
 62
     0
 10
14.777539
 20
73.797151
 30
0.0
 11
11.897539
 21
73.797151
 31
0.0
  0
SOLID
  8
0
  6
BYBLOCK
 62
     0
 10
14.297539
 20
85.062151
 30
0.0
 11
15.257539
 21
85.062151
 31
0.0
 12
14.777539
 22
82.182151
 32
0.0
 13
14.777539
 23
82.182151
 33
0.0
  0
SOLID
  8
0
  6
BYBLOCK
 62
     0
 10
14.297539
 20
76.677151
 30
0.0
 11
15.257539
 21
76.677151
 31
0.0
 12
14.777539
 22
79.557151
 32
0.0
 13
14.777539
 23
79.557151
 33
0.0
  0
TEXT
  8
0
  6
BYBLOCK
 62
     0
 10
4.457539
 20
72.797151
 30
0.0
 40
2.0
  1
2.625
 41
0.75
 72
     1
 11
7.457539
 21
73.797151
 31
0.0
 73
     2
  0
POINT
  8
DEFPOINTS
  6
BYBLOCK
 62
     0
 10
25.830039
 20
82.182151
 30
0.0
  0
POINT
  8
DEFPOINTS
  6
BYBLOCK
 62
     0
 10
24.392539
 20
79.557151
 30
0.0
  0
POINT
  8
DEFPOINTS
  6
BYBLOCK
 62
     0
 10
14.777539
 20
79.557151
 30
0.0
  0
ENDBLK
  8
0
  0
BLOCK
  8
0
  2
*D8
 70
    65
 10
0.0
 20
0.0
 30
0.0
  3
*D
  0
LINE
  8
0
  6
BYBLOCK
 62
     0
 10
88.871183
 20
83.932151
 30
0.0
 11
100.232433
 21
83.932151
 31
0.0
  0
LINE
  8
0
  6
BYBLOCK
 62
     0
 10
88.871183
 20
115.838151
 30
0.0
 11
100.232433
 21
115.838151
 31
0.0
  0
LINE
  8
0
  6
BYBLOCK
 62
     0
 10
98.744433
 20
86.812151
 30
0.0
 11
98.744433
 21
97.445151
 31
0.0
  0
LINE
  8
0
  6
BYBLOCK
 62
     0
 10
98.744433
 20
112.958151
 30
0.0
 11
98.744433
 21
102.325151
 31
0.0
  0
SOLID
  8
0
  6
BYBLOCK
 62
     0
 10
98.264433
 20
86.812151
 30
0.0
 11
99.224433
 21
86.812151
 31
0.0
 12
98.744433
 22
83.932151
 32
0.0
 13
98.744433
 23
83.932151
 33
0.0
  0
SOLID
  8
0
  6
BYBLOCK
 62
     0
 10
98.264433
 20
112.958151
 30
0.0
 11
99.224433
 21
112.958151
 31
0.0
 12
98.744433
 22
115.838151
 32
0.0
 13
98.744433
 23
115.838151
 33
0.0
  0
TEXT
  8
0
  6
BYBLOCK
 62
     0
 10
95.369433
 20
98.885151
 30
0.0
 40
2.0
  1
31.906
 41
0.75
 72
     1
 11
98.744433
 21
99.885151
 31
0.0
 73
     2
  0
POINT
  8
DEFPOINTS
  6
BYBLOCK
 62
     0
 10
87.863183
 20
83.932151
 30
0.0
  0
POINT
  8
DEFPOINTS
  6
BYBLOCK
 62
     0
 10
87.863183
 20
115.838151
 30
0.0
  0
POINT
  8
DEFPOINTS
  6
BYBLOCK
 62
     0
 10
98.744433
 20
115.838151
 30
0.0
  0
ENDBLK
  8
0
  0
BLOCK
  8
0
  2
*D9
 70
    65
 10
0.0
 20
0.0
 30
0.0
  3
*D
  0
LINE
  8
0
  6
BYBLOCK
 62
     0
 10
88.871183
 20
118.588151
 30
0.0
 11
100.232433
 21
118.588151
 31
0.0
  0
LINE
  8
0
  6
BYBLOCK
 62
     0
 10
88.871183
 20
150.494151
 30
0.0
 11
100.232433
 21
150.494151
 31
0.0
  0
LINE
  8
0
  6
BYBLOCK
 62
     0
 10
98.744433
 20
121.468151
 30
0.0
 11
98.744433
 21
132.101151
 31
0.0
  0
LINE
  8
0
  6
BYBLOCK
 62
     0
 10
98.744433
 20
147.614151
 30
0.0
 11
98.744433
 21
136.981151
 31
0.0
  0
SOLID
  8
0
  6
BYBLOCK
 62
     0
 10
98.264433
 20
121.468151
 30
0.0
 11
99.224433
 21
121.468151
 31
0.0
 12
98.744433
 22
118.588151
 32
0.0
 13
98.744433
 23
118.588151
 33
0.0
  0
SOLID
  8
0
  6
BYBLOCK
 62
     0
 10
98.264433
 20
147.614151
 30
0.0
 11
99.224433
 21
147.614151
 31
0.0
 12
98.744433
 22
150.494151
 32
0.0
 13
98.744433
 23
150.494151
 33
0.0
  0
TEXT
  8
0
  6
BYBLOCK
 62
     0
 10
95.369433
 20
133.541151
 30
0.0
 40
2.0
  1
31.906
 41
0.75
 72
     1
 11
98.744433
 21
134.541151
 31
0.0
 73
     2
  0
POINT
  8
DEFPOINTS
  6
BYBLOCK
 62
     0
 10
87.863183
 20
118.588151
 30
0.0
  0
POINT
  8
DEFPOINTS
  6
BYBLOCK
 62
     0
 10
87.863183
 20
150.494151
 30
0.0
  0
POINT
  8
DEFPOINTS
  6
BYBLOCK
 62
     0
 10
98.744433
 20
150.494151
 30
0.0
  0
ENDBLK
  8
0
  0
BLOCK
  8
0
  2
*D10
 70
    65
 10
0.0
 20
0.0
 30
0.0
  3
*D
  0
LINE
  8
0
  6
BYBLOCK
 62
     0
 10
120.597837
 20
116.038683
 30
0.0
 11
120.597837
 21
116.518683
 31
0.0
  0
LINE
  8
0
  6
BYBLOCK
 62
     0
 10
139.722837
 20
116.038683
 30
0.0
 11
139.722837
 21
116.518683
 31
0.0
  0
LINE
  8
0
  6
BYBLOCK
 62
     0
 10
117.717837
 20
115.030683
 30
0.0
 11
114.837837
 21
115.030683
 31
0.0
  0
LINE
  8
0
  6
BYBLOCK
 62
     0
 10
142.602837
 20
115.030683
 30
0.0
 11
145.482837
 21
115.030683
 31
0.0
  0
SOLID
  8
0
  6
BYBLOCK
 62
     0
 10
117.717837
 20
115.510683
 30
0.0
 11
117.717837
 21
114.550683
 31
0.0
 12
120.597837
 22
115.030683
 32
0.0
 13
120.597837
 23
115.030683
 33
0.0
  0
SOLID
  8
0
  6
BYBLOCK
 62
     0
 10
142.602837
 20
115.510683
 30
0.0
 11
142.602837
 21
114.550683
 31
0.0
 12
139.722837
 22
115.030683
 32
0.0
 13
139.722837
 23
115.030683
 33
0.0
  0
TEXT
  8
0
  6
BYBLOCK
 62
     0
 10
129.660337
 20
114.030683
 30
0.0
 40
2.0
  1
 %%p0.031
 41
0.75
 72
     1
 11
133.660337
 21
115.030683
 31
0.0
 73
     2
  0
TEXT
  8
0
  6
BYBLOCK
 62
     0
 10
122.660337
 20
114.030683
 30
0.0
 40
2.0
  1
19.125
 41
0.75
 72
     1
 11
125.910337
 21
115.030683
 31
0.0
 73
     2
  0
POINT
  8
DEFPOINTS
  6
BYBLOCK
 62
     0
 10
120.597837
 20
115.030683
 30
0.0
  0
POINT
  8
DEFPOINTS
  6
BYBLOCK
 62
     0
 10
139.722837
 20
115.030683
 30
0.0
  0
POINT
  8
DEFPOINTS
  6
BYBLOCK
 62
     0
 10
139.722837
 20
115.030683
 30
0.0
  0
ENDBLK
  8
0
  0
BLOCK
  8
0
  2
*D11
 70
    65
 10
0.0
 20
0.0
 30
0.0
  3
*D
  0
LINE
  8
0
  6
BYBLOCK
 62
     0
 10
121.192587
 20
125.100457
 30
0.0
 11
121.192587
 21
125.580457
 31
0.0
  0
LINE
  8
0
  6
BYBLOCK
 62
     0
 10
139.129337
 20
125.100457
 30
0.0
 11
139.129337
 21
125.580457
 31
0.0
  0
LINE
  8
0
  6
BYBLOCK
 62
     0
 10
118.312587
 20
124.092457
 30
0.0
 11
115.432587
 21
124.092457
 31
0.0
  0
LINE
  8
0
  6
BYBLOCK
 62
     0
 10
142.009337
 20
124.092457
 30
0.0
 11
144.889337
 21
124.092457
 31
0.0
  0
SOLID
  8
0
  6
BYBLOCK
 62
     0
 10
118.312587
 20
124.572457
 30
0.0
 11
118.312587
 21
123.612457
 31
0.0
 12
121.192587
 22
124.092457
 32
0.0
 13
121.192587
 23
124.092457
 33
0.0
  0
SOLID
  8
0
  6
BYBLOCK
 62
     0
 10
142.009337
 20
124.572457
 30
0.0
 11
142.009337
 21
123.612457
 31
0.0
 12
139.129337
 22
124.092457
 32
0.0
 13
139.129337
 23
124.092457
 33
0.0
  0
TEXT
  8
0
  6
BYBLOCK
 62
     0
 10
129.660962
 20
123.092457
 30
0.0
 40
2.0
  1
 %%p0.093
 41
0.75
 72
     1
 11
133.910962
 21
124.092457
 31
0.0
 73
     2
  0
TEXT
  8
0
  6
BYBLOCK
 62
     0
 10
122.160962
 20
123.092457
 30
0.0
 40
2.0
  1
17.937
 41
0.75
 72
     1
 11
125.660962
 21
124.092457
 31
0.0
 73
     2
  0
POINT
  8
DEFPOINTS
  6
BYBLOCK
 62
     0
 10
121.192587
 20
124.092457
 30
0.0
  0
POINT
  8
DEFPOINTS
  6
BYBLOCK
 62
     0
 10
139.129337
 20
124.092457
 30
0.0
  0
POINT
  8
DEFPOINTS
  6
BYBLOCK
 62
     0
 10
139.129337
 20
124.092457
 30
0.0
  0
ENDBLK
  8
0
  0
BLOCK
  8
0
  2
*D12
 70
    65
 10
0.0
 20
0.0
 30
0.0
  3
*D
  0
LINE
  8
0
  6
BYBLOCK
 62
     0
 10
119.160337
 20
155.877151
 30
0.0
 11
119.160337
 21
162.117151
 31
0.0
  0
LINE
  8
0
  6
BYBLOCK
 62
     0
 10
141.160337
 20
155.877151
 30
0.0
 11
141.160337
 21
162.117151
 31
0.0
  0
LINE
  8
0
  6
BYBLOCK
 62
     0
 10
116.280337
 20
160.629151
 30
0.0
 11
113.400337
 21
160.629151
 31
0.0
  0
LINE
  8
0
  6
BYBLOCK
 62
     0
 10
144.040337
 20
160.629151
 30
0.0
 11
146.920337
 21
160.629151
 31
0.0
  0
SOLID
  8
0
  6
BYBLOCK
 62
     0
 10
116.280337
 20
161.109151
 30
0.0
 11
116.280337
 21
160.149151
 31
0.0
 12
119.160337
 22
160.629151
 32
0.0
 13
119.160337
 23
160.629151
 33
0.0
  0
SOLID
  8
0
  6
BYBLOCK
 62
     0
 10
144.040337
 20
161.109151
 30
0.0
 11
144.040337
 21
160.149151
 31
0.0
 12
141.160337
 22
160.629151
 32
0.0
 13
141.160337
 23
160.629151
 33
0.0
  0
TEXT
  8
0
  6
BYBLOCK
 62
     0
 10
129.535337
 20
159.629151
 30
0.0
 40
2.0
  1
 %%p0.062
 41
0.75
 72
     1
 11
133.785337
 21
160.629151
 31
0.0
 73
     2
  0
TEXT
  8
0
  6
BYBLOCK
 62
     0
 10
122.285337
 20
159.629151
 30
0.0
 40
2.0
  1
22.000
 41
0.75
 72
     1
 11
125.660337
 21
160.629151
 31
0.0
 73
     2
  0
POINT
  8
DEFPOINTS
  6
BYBLOCK
 62
     0
 10
119.160337
 20
154.869151
 30
0.0
  0
POINT
  8
DEFPOINTS
  6
BYBLOCK
 62
     0
 10
141.160337
 20
154.869151
 30
0.0
  0
POINT
  8
DEFPOINTS
  6
BYBLOCK
 62
     0
 10
141.160337
 20
160.629151
 30
0.0
  0
ENDBLK
  8
0
  0
BLOCK
  8
0
  2
*D13
 70
    65
 10
0.0
 20
0.0
 30
0.0
  3
*D
  0
LINE
  8
0
  6
BYBLOCK
 62
     0
 10
30.846039
 20
79.861151
 30
0.0
 11
30.846039
 21
72.309151
 31
0.0
  0
LINE
  8
0
  6
BYBLOCK
 62
     0
 10
39.939039
 20
79.861151
 30
0.0
 11
39.939039
 21
72.309151
 31
0.0
  0
LINE
  8
0
  6
BYBLOCK
 62
     0
 10
27.966039
 20
73.797151
 30
0.0
 11
25.086039
 21
73.797151
 31
0.0
  0
LINE
  8
0
  6
BYBLOCK
 62
     0
 10
42.819039
 20
73.797151
 30
0.0
 11
45.699039
 21
73.797151
 31
0.0
  0
SOLID
  8
0
  6
BYBLOCK
 62
     0
 10
27.966039
 20
74.277151
 30
0.0
 11
27.966039
 21
73.317151
 31
0.0
 12
30.846039
 22
73.797151
 32
0.0
 13
30.846039
 23
73.797151
 33
0.0
  0
SOLID
  8
0
  6
BYBLOCK
 62
     0
 10
42.819039
 20
74.277151
 30
0.0
 11
42.819039
 21
73.317151
 31
0.0
 12
39.939039
 22
73.797151
 32
0.0
 13
39.939039
 23
73.797151
 33
0.0
  0
TEXT
  8
0
  6
BYBLOCK
 62
     0
 10
32.517539
 20
72.797151
 30
0.0
 40
2.0
  1
9.093
 41
0.75
 72
     1
 11
35.392539
 21
73.797151
 31
0.0
 73
     2
  0
POINT
  8
DEFPOINTS
  6
BYBLOCK
 62
     0
 10
30.846039
 20
80.869151
 30
0.0
  0
POINT
  8
DEFPOINTS
  6
BYBLOCK
 62
     0
 10
39.939039
 20
80.869151
 30
0.0
  0
POINT
  8
DEFPOINTS
  6
BYBLOCK
 62
     0
 10
39.939039
 20
73.797151
 30
0.0
  0
ENDBLK
  8
0
  0
BLOCK
  8
0
  2
*D14
 70
    65
 10
0.0
 20
0.0
 30
0.0
  3
*D
  0
LINE
  8
0
  6
BYBLOCK
 62
     0
 10
64.488433
 20
94.553182
 30
0.0
 11
64.488433
 21
95.033182
 31
0.0
  0
LINE
  8
0
  6
BYBLOCK
 62
     0
 10
88.488433
 20
94.553182
 30
0.0
 11
88.488433
 21
95.033182
 31
0.0
  0
LINE
  8
0
  6
BYBLOCK
 62
     0
 10
61.608433
 20
93.545182
 30
0.0
 11
58.728433
 21
93.545182
 31
0.0
  0
LINE
  8
0
  6
BYBLOCK
 62
     0
 10
91.368433
 20
93.545182
 30
0.0
 11
94.248433
 21
93.545182
 31
0.0
  0
SOLID
  8
0
  6
BYBLOCK
 62
     0
 10
61.608433
 20
94.025182
 30
0.0
 11
61.608433
 21
93.065182
 31
0.0
 12
64.488433
 22
93.545182
 32
0.0
 13
64.488433
 23
93.545182
 33
0.0
  0
SOLID
  8
0
  6
BYBLOCK
 62
     0
 10
91.368433
 20
94.025182
 30
0.0
 11
91.368433
 21
93.065182
 31
0.0
 12
88.488433
 22
93.545182
 32
0.0
 13
88.488433
 23
93.545182
 33
0.0
  0
TEXT
  8
0
  6
BYBLOCK
 62
     0
 10
76.863433
 20
92.545182
 30
0.0
 40
2.0
  1
 C.I.D.
 41
0.75
 72
     1
 11
80.113433
 21
93.545182
 31
0.0
 73
     2
  0
TEXT
  8
0
  6
BYBLOCK
 62
     0
 10
69.613433
 20
92.545182
 30
0.0
 40
2.0
  1
24.000
 41
0.75
 72
     1
 11
72.988433
 21
93.545182
 31
0.0
 73
     2
  0
POINT
  8
DEFPOINTS
  6
BYBLOCK
 62
     0
 10
64.488433
 20
93.545182
 30
0.0
  0
POINT
  8
DEFPOINTS
  6
BYBLOCK
 62
     0
 10
88.488433
 20
93.545182
 30
0.0
  0
POINT
  8
DEFPOINTS
  6
BYBLOCK
 62
     0
 10
88.488433
 20
93.545182
 30
0.0
  0
ENDBLK
  8
0
  0
BLOCK
  8
0
  2
*D15
 70
    65
 10
0.0
 20
0.0
 30
0.0
  3
*D
  0
LINE
  8
0
  6
BYBLOCK
 62
     0
 10
88.871183
 20
83.932151
 30
0.0
 11
100.232433
 21
83.932151
 31
0.0
  0
LINE
  8
0
  6
BYBLOCK
 62
     0
 10
90.246433
 20
79.557151
 30
0.0
 11
100.232433
 21
79.557151
 31
0.0
  0
LINE
  8
0
  6
BYBLOCK
 62
     0
 10
98.744433
 20
86.812151
 30
0.0
 11
98.744433
 21
89.692151
 31
0.0
  0
LINE
  8
0
  6
BYBLOCK
 62
     0
 10
98.744433
 20
76.677151
 30
0.0
 11
98.744433
 21
73.797151
 31
0.0
  0
SOLID
  8
0
  6
BYBLOCK
 62
     0
 10
98.264433
 20
86.812151
 30
0.0
 11
99.224433
 21
86.812151
 31
0.0
 12
98.744433
 22
83.932151
 32
0.0
 13
98.744433
 23
83.932151
 33
0.0
  0
SOLID
  8
0
  6
BYBLOCK
 62
     0
 10
98.264433
 20
76.677151
 30
0.0
 11
99.224433
 21
76.677151
 31
0.0
 12
98.744433
 22
79.557151
 32
0.0
 13
98.744433
 23
79.557151
 33
0.0
  0
TEXT
  8
0
  6
BYBLOCK
 62
     0
 10
95.744433
 20
80.744651
 30
0.0
 40
2.0
  1
4.375
 41
0.75
 72
     1
 11
98.744433
 21
81.744651
 31
0.0
 73
     2
  0
POINT
  8
DEFPOINTS
  6
BYBLOCK
 62
     0
 10
87.863183
 20
83.932151
 30
0.0
  0
POINT
  8
DEFPOINTS
  6
BYBLOCK
 62
     0
 10
89.238433
 20
79.557151
 30
0.0
  0
POINT
  8
DEFPOINTS
  6
BYBLOCK
 62
     0
 10
98.744433
 20
79.557151
 30
0.0
  0
ENDBLK
  8
0
  0
BLOCK
  8
0
  2
*D16
 70
    65
 10
0.0
 20
0.0
 30
0.0
  3
*D
  0
LINE
  8
0
  6
BYBLOCK
 62
     0
 10
88.871183
 20
115.838151
 30
0.0
 11
100.232433
 21
115.838151
 31
0.0
  0
LINE
  8
0
  6
BYBLOCK
 62
     0
 10
88.871183
 20
118.588151
 30
0.0
 11
100.232433
 21
118.588151
 31
0.0
  0
LINE
  8
0
  6
BYBLOCK
 62
     0
 10
98.744433
 20
112.958151
 30
0.0
 11
98.744433
 21
110.078151
 31
0.0
  0
LINE
  8
0
  6
BYBLOCK
 62
     0
 10
98.744433
 20
121.468151
 30
0.0
 11
98.744433
 21
124.348151
 31
0.0
  0
SOLID
  8
0
  6
BYBLOCK
 62
     0
 10
98.264433
 20
112.958151
 30
0.0
 11
99.224433
 21
112.958151
 31
0.0
 12
98.744433
 22
115.838151
 32
0.0
 13
98.744433
 23
115.838151
 33
0.0
  0
SOLID
  8
0
  6
BYBLOCK
 62
     0
 10
98.264433
 20
121.468151
 30
0.0
 11
99.224433
 21
121.468151
 31
0.0
 12
98.744433
 22
118.588151
 32
0.0
 13
98.744433
 23
118.588151
 33
0.0
  0
TEXT
  8
0
  6
BYBLOCK
 62
     0
 10
95.869433
 20
116.213151
 30
0.0
 40
2.0
  1
2.750
 41
0.75
 72
     1
 11
98.744433
 21
117.213151
 31
0.0
 73
     2
  0
POINT
  8
DEFPOINTS
  6
BYBLOCK
 62
     0
 10
87.863183
 20
115.838151
 30
0.0
  0
POINT
  8
DEFPOINTS
  6
BYBLOCK
 62
     0
 10
87.863183
 20
118.588151
 30
0.0
  0
POINT
  8
DEFPOINTS
  6
BYBLOCK
 62
     0
 10
98.744433
 20
118.588151
 30
0.0
  0
ENDBLK
  8
0
  0
BLOCK
  8
0
  2
*D17
 70
    65
 10
0.0
 20
0.0
 30
0.0
  3
*D
  0
LINE
  8
0
  6
BYBLOCK
 62
     0
 10
88.871183
 20
150.494151
 30
0.0
 11
100.232433
 21
150.494151
 31
0.0
  0
LINE
  8
0
  6
BYBLOCK
 62
     0
 10
90.246433
 20
154.869151
 30
0.0
 11
100.232433
 21
154.869151
 31
0.0
  0
LINE
  8
0
  6
BYBLOCK
 62
     0
 10
98.744433
 20
147.614151
 30
0.0
 11
98.744433
 21
144.734151
 31
0.0
  0
LINE
  8
0
  6
BYBLOCK
 62
     0
 10
98.744433
 20
157.749151
 30
0.0
 11
98.744433
 21
160.629151
 31
0.0
  0
SOLID
  8
0
  6
BYBLOCK
 62
     0
 10
98.264433
 20
147.614151
 30
0.0
 11
99.224433
 21
147.614151
 31
0.0
 12
98.744433
 22
150.494151
 32
0.0
 13
98.744433
 23
150.494151
 33
0.0
  0
SOLID
  8
0
  6
BYBLOCK
 62
     0
 10
98.264433
 20
157.749151
 30
0.0
 11
99.224433
 21
157.749151
 31
0.0
 12
98.744433
 22
154.869151
 32
0.0
 13
98.744433
 23
154.869151
 33
0.0
  0
TEXT
  8
0
  6
BYBLOCK
 62
     0
 10
95.744433
 20
151.681651
 30
0.0
 40
2.0
  1
4.375
 41
0.75
 72
     1
 11
98.744433
 21
152.681651
 31
0.0
 73
     2
  0
POINT
  8
DEFPOINTS
  6
BYBLOCK
 62
     0
 10
87.863183
 20
150.494151
 30
0.0
  0
POINT
  8
DEFPOINTS
  6
BYBLOCK
 62
     0
 10
89.238433
 20
154.869151
 30
0.0
  0
POINT
  8
DEFPOINTS
  6
BYBLOCK
 62
     0
 10
98.744433
 20
154.869151
 30
0.0
  0
ENDBLK
  8
0
  0
BLOCK
  8
0
  2
*D18
 70
    65
 10
0.0
 20
0.0
 30
0.0
  3
*D
  0
LINE
  8
0
  6
BYBLOCK
 62
     0
 10
89.238433
 20
155.877151
 30
0.0
 11
89.238433
 21
171.109151
 31
0.0
  0
LINE
  8
0
  6
BYBLOCK
 62
     0
 10
63.738433
 20
155.877151
 30
0.0
 11
63.738433
 21
171.109151
 31
0.0
  0
LINE
  8
0
  6
BYBLOCK
 62
     0
 10
92.118433
 20
169.621151
 30
0.0
 11
94.998433
 21
169.621151
 31
0.0
  0
LINE
  8
0
  6
BYBLOCK
 62
     0
 10
60.858433
 20
169.621151
 30
0.0
 11
57.978433
 21
169.621151
 31
0.0
  0
SOLID
  8
0
  6
BYBLOCK
 62
     0
 10
92.118433
 20
170.101151
 30
0.0
 11
92.118433
 21
169.141151
 31
0.0
 12
89.238433
 22
169.621151
 32
0.0
 13
89.238433
 23
169.621151
 33
0.0
  0
SOLID
  8
0
  6
BYBLOCK
 62
     0
 10
60.858433
 20
170.101151
 30
0.0
 11
60.858433
 21
169.141151
 31
0.0
 12
63.738433
 22
169.621151
 32
0.0
 13
63.738433
 23
169.621151
 33
0.0
  0
TEXT
  8
0
  6
BYBLOCK
 62
     0
 10
75.988433
 20
168.621151
 30
0.0
 40
2.0
  1
 %%p0.062
 41
0.75
 72
     1
 11
80.238433
 21
169.621151
 31
0.0
 73
     2
  0
TEXT
  8
0
  6
BYBLOCK
 62
     0
 10
68.488433
 20
168.621151
 30
0.0
 40
2.0
  1
25.500
 41
0.75
 72
     1
 11
71.988433
 21
169.621151
 31
0.0
 73
     2
  0
POINT
  8
DEFPOINTS
  6
BYBLOCK
 62
     0
 10
89.238433
 20
154.869151
 30
0.0
  0
POINT
  8
DEFPOINTS
  6
BYBLOCK
 62
     0
 10
63.738433
 20
154.869151
 30
0.0
  0
POINT
  8
DEFPOINTS
  6
BYBLOCK
 62
     0
 10
63.738433
 20
169.621151
 30
0.0
  0
ENDBLK
  8
0
  0
BLOCK
  8
0
  2
*D19
 70
    65
 10
0.0
 20
0.0
 30
0.0
  3
*D
  0
LINE
  8
0
  6
BYBLOCK
 62
     0
 10
118.152337
 20
45.887785
 30
0.0
 11
109.688337
 21
45.887785
 31
0.0
  0
LINE
  8
0
  6
BYBLOCK
 62
     0
 10
127.802337
 20
33.137785
 30
0.0
 11
109.688337
 21
33.137785
 31
0.0
  0
LINE
  8
0
  6
BYBLOCK
 62
     0
 10
111.176337
 20
48.767785
 30
0.0
 11
111.176337
 21
51.647785
 31
0.0
  0
LINE
  8
0
  6
BYBLOCK
 62
     0
 10
111.176337
 20
30.257785
 30
0.0
 11
111.176337
 21
27.377785
 31
0.0
  0
SOLID
  8
0
  6
BYBLOCK
 62
     0
 10
110.696337
 20
48.767785
 30
0.0
 11
111.656337
 21
48.767785
 31
0.0
 12
111.176337
 22
45.887785
 32
0.0
 13
111.176337
 23
45.887785
 33
0.0
  0
SOLID
  8
0
  6
BYBLOCK
 62
     0
 10
110.696337
 20
30.257785
 30
0.0
 11
111.656337
 21
30.257785
 31
0.0
 12
111.176337
 22
33.137785
 32
0.0
 13
111.176337
 23
33.137785
 33
0.0
  0
TEXT
  8
0
  6
BYBLOCK
 62
     0
 10
107.801337
 20
38.512785
 30
0.0
 40
2.0
  1
12.750
 41
0.75
 72
     1
 11
111.176337
 21
39.512785
 31
0.0
 73
     2
  0
POINT
  8
DEFPOINTS
  6
BYBLOCK
 62
     0
 10
119.160337
 20
45.887785
 30
0.0
  0
POINT
  8
DEFPOINTS
  6
BYBLOCK
 62
     0
 10
128.810337
 20
33.137785
 30
0.0
  0
POINT
  8
DEFPOINTS
  6
BYBLOCK
 62
     0
 10
111.176337
 20
33.137785
 30
0.0
  0
ENDBLK
  8
0
  0
BLOCK
  8
0
  2
*D20
 70
    65
 10
0.0
 20
0.0
 30
0.0
  3
*D
  0
LINE
  8
0
  6
BYBLOCK
 62
     0
 10
125.613837
 20
21.207785
 30
0.0
 11
125.613837
 21
13.703588
 31
0.0
  0
LINE
  8
0
  6
BYBLOCK
 62
     0
 10
134.706837
 20
21.207785
 30
0.0
 11
134.706837
 21
13.703588
 31
0.0
  0
LINE
  8
0
  6
BYBLOCK
 62
     0
 10
122.733837
 20
15.191588
 30
0.0
 11
119.853837
 21
15.191588
 31
0.0
  0
LINE
  8
0
  6
BYBLOCK
 62
     0
 10
137.586837
 20
15.191588
 30
0.0
 11
140.466837
 21
15.191588
 31
0.0
  0
SOLID
  8
0
  6
BYBLOCK
 62
     0
 10
122.733837
 20
15.671588
 30
0.0
 11
122.733837
 21
14.711588
 31
0.0
 12
125.613837
 22
15.191588
 32
0.0
 13
125.613837
 23
15.191588
 33
0.0
  0
SOLID
  8
0
  6
BYBLOCK
 62
     0
 10
137.586837
 20
15.671588
 30
0.0
 11
137.586837
 21
14.711588
 31
0.0
 12
134.706837
 22
15.191588
 32
0.0
 13
134.706837
 23
15.191588
 33
0.0
  0
TEXT
  8
0
  6
BYBLOCK
 62
     0
 10
127.285337
 20
14.191588
 30
0.0
 40
2.0
  1
9.093
 41
0.75
 72
     1
 11
130.160337
 21
15.191588
 31
0.0
 73
     2
  0
POINT
  8
DEFPOINTS
  6
BYBLOCK
 62
     0
 10
125.613837
 20
22.215785
 30
0.0
  0
POINT
  8
DEFPOINTS
  6
BYBLOCK
 62
     0
 10
134.706837
 20
22.215785
 30
0.0
  0
POINT
  8
DEFPOINTS
  6
BYBLOCK
 62
     0
 10
134.706837
 20
15.191588
 30
0.0
  0
ENDBLK
  8
0
  0
BLOCK
  8
0
  2
*D21
 70
    65
 10
0.0
 20
0.0
 30
0.0
  3
*D
  0
LINE
  8
0
  6
BYBLOCK
 62
     0
 10
124.605837
 20
22.215785
 30
0.0
 11
113.688337
 21
22.215785
 31
0.0
  0
LINE
  8
0
  6
BYBLOCK
 62
     0
 10
118.152337
 20
20.387785
 30
0.0
 11
113.688337
 21
20.387785
 31
0.0
  0
LINE
  8
0
  6
BYBLOCK
 62
     0
 10
115.176337
 20
25.095785
 30
0.0
 11
115.176337
 21
27.975785
 31
0.0
  0
LINE
  8
0
  6
BYBLOCK
 62
     0
 10
115.176337
 20
17.507785
 30
0.0
 11
115.176337
 21
14.627785
 31
0.0
  0
LINE
  8
0
  6
BYBLOCK
 62
     0
 10
115.176337
 20
14.627785
 30
0.0
 11
112.296337
 21
14.627785
 31
0.0
  0
SOLID
  8
0
  6
BYBLOCK
 62
     0
 10
114.696337
 20
25.095785
 30
0.0
 11
115.656337
 21
25.095785
 31
0.0
 12
115.176337
 22
22.215785
 32
0.0
 13
115.176337
 23
22.215785
 33
0.0
  0
SOLID
  8
0
  6
BYBLOCK
 62
     0
 10
114.696337
 20
17.507785
 30
0.0
 11
115.656337
 21
17.507785
 31
0.0
 12
115.176337
 22
20.387785
 32
0.0
 13
115.176337
 23
20.387785
 33
0.0
  0
TEXT
  8
0
  6
BYBLOCK
 62
     0
 10
105.356337
 20
13.627785
 30
0.0
 40
2.0
  1
1.828
 41
0.75
 72
     1
 11
108.106337
 21
14.627785
 31
0.0
 73
     2
  0
POINT
  8
DEFPOINTS
  6
BYBLOCK
 62
     0
 10
125.613837
 20
22.215785
 30
0.0
  0
POINT
  8
DEFPOINTS
  6
BYBLOCK
 62
     0
 10
119.160337
 20
20.387785
 30
0.0
  0
POINT
  8
DEFPOINTS
  6
BYBLOCK
 62
     0
 10
115.176337
 20
20.387785
 30
0.0
  0
ENDBLK
  8
0
  0
BLOCK
  8
0
  2
*D22
 70
    65
 10
0.0
 20
0.0
 30
0.0
  3
*D
  0
LINE
  8
0
  6
BYBLOCK
 62
     0
 10
125.613837
 20
21.207785
 30
0.0
 11
125.613837
 21
9.703588
 31
0.0
  0
LINE
  8
0
  6
BYBLOCK
 62
     0
 10
119.160337
 20
19.379785
 30
0.0
 11
119.160337
 21
9.703588
 31
0.0
  0
LINE
  8
0
  6
BYBLOCK
 62
     0
 10
128.493837
 20
11.191588
 30
0.0
 11
131.373837
 21
11.191588
 31
0.0
  0
LINE
  8
0
  6
BYBLOCK
 62
     0
 10
116.280337
 20
11.191588
 30
0.0
 11
113.400337
 21
11.191588
 31
0.0
  0
SOLID
  8
0
  6
BYBLOCK
 62
     0
 10
128.493837
 20
11.671588
 30
0.0
 11
128.493837
 21
10.711588
 31
0.0
 12
125.613837
 22
11.191588
 32
0.0
 13
125.613837
 23
11.191588
 33
0.0
  0
SOLID
  8
0
  6
BYBLOCK
 62
     0
 10
116.280337
 20
11.671588
 30
0.0
 11
116.280337
 21
10.711588
 31
0.0
 12
119.160337
 22
11.191588
 32
0.0
 13
119.160337
 23
11.191588
 33
0.0
  0
TEXT
  8
0
  6
BYBLOCK
 62
     0
 10
105.960337
 20
10.191588
 30
0.0
 40
2.0
  1
6.453
 41
0.75
 72
     1
 11
108.960337
 21
11.191588
 31
0.0
 73
     2
  0
POINT
  8
DEFPOINTS
  6
BYBLOCK
 62
     0
 10
125.613837
 20
22.215785
 30
0.0
  0
POINT
  8
DEFPOINTS
  6
BYBLOCK
 62
     0
 10
119.160337
 20
20.387785
 30
0.0
  0
POINT
  8
DEFPOINTS
  6
BYBLOCK
 62
     0
 10
119.160337
 20
11.191588
 30
0.0
  0
ENDBLK
  8
0
  0
BLOCK
  8
0
  2
*D23
 70
    65
 10
0.0
 20
0.0
 30
0.0
  3
*D
  0
LINE
  8
0
  6
BYBLOCK
 62
     0
 10
139.762337
 20
44.059785
 30
0.0
 11
147.122811
 21
44.059785
 31
0.0
  0
LINE
  8
0
  6
BYBLOCK
 62
     0
 10
139.762337
 20
41.059785
 30
0.0
 11
147.122811
 21
41.059785
 31
0.0
  0
LINE
  8
0
  6
BYBLOCK
 62
     0
 10
145.634811
 20
46.939785
 30
0.0
 11
145.634811
 21
49.819785
 31
0.0
  0
LINE
  8
0
  6
BYBLOCK
 62
     0
 10
145.634811
 20
38.179785
 30
0.0
 11
145.634811
 21
35.299785
 31
0.0
  0
SOLID
  8
0
  6
BYBLOCK
 62
     0
 10
145.154811
 20
46.939785
 30
0.0
 11
146.114811
 21
46.939785
 31
0.0
 12
145.634811
 22
44.059785
 32
0.0
 13
145.634811
 23
44.059785
 33
0.0
  0
SOLID
  8
0
  6
BYBLOCK
 62
     0
 10
145.154811
 20
38.179785
 30
0.0
 11
146.114811
 21
38.179785
 31
0.0
 12
145.634811
 22
41.059785
 32
0.0
 13
145.634811
 23
41.059785
 33
0.0
  0
TEXT
  8
0
  6
BYBLOCK
 62
     0
 10
143.009811
 20
41.559785
 30
0.0
 40
2.0
  1
3.000
 41
0.75
 72
     1
 11
145.634811
 21
42.559785
 31
0.0
 73
     2
  0
POINT
  8
DEFPOINTS
  6
BYBLOCK
 62
     0
 10
138.754337
 20
44.059785
 30
0.0
  0
POINT
  8
DEFPOINTS
  6
BYBLOCK
 62
     0
 10
138.754337
 20
41.059785
 30
0.0
  0
POINT
  8
DEFPOINTS
  6
BYBLOCK
 62
     0
 10
145.634811
 20
41.059785
 30
0.0
  0
ENDBLK
  8
0
  0
BLOCK
  8
0
  2
*D24
 70
    65
 10
0.0
 20
0.0
 30
0.0
  3
*D
  0
LINE
  8
0
  6
BYBLOCK
 62
     0
 10
139.762337
 20
44.059785
 30
0.0
 11
151.618811
 21
44.059785
 31
0.0
  0
LINE
  8
0
  6
BYBLOCK
 62
     0
 10
142.168337
 20
45.887785
 30
0.0
 11
151.618811
 21
45.887785
 31
0.0
  0
LINE
  8
0
  6
BYBLOCK
 62
     0
 10
150.130811
 20
41.179785
 30
0.0
 11
150.130811
 21
38.299785
 31
0.0
  0
LINE
  8
0
  6
BYBLOCK
 62
     0
 10
150.130811
 20
48.767785
 30
0.0
 11
150.130811
 21
51.647785
 31
0.0
  0
LINE
  8
0
  6
BYBLOCK
 62
     0
 10
150.130811
 20
51.647785
 30
0.0
 11
153.010811
 21
51.647785
 31
0.0
  0
SOLID
  8
0
  6
BYBLOCK
 62
     0
 10
149.650811
 20
41.179785
 30
0.0
 11
150.610811
 21
41.179785
 31
0.0
 12
150.130811
 22
44.059785
 32
0.0
 13
150.130811
 23
44.059785
 33
0.0
  0
SOLID
  8
0
  6
BYBLOCK
 62
     0
 10
149.650811
 20
48.767785
 30
0.0
 11
150.610811
 21
48.767785
 31
0.0
 12
150.130811
 22
45.887785
 32
0.0
 13
150.130811
 23
45.887785
 33
0.0
  0
TEXT
  8
0
  6
BYBLOCK
 62
     0
 10
154.450811
 20
50.647785
 30
0.0
 40
2.0
  1
1.828
 41
0.75
 72
     1
 11
157.200811
 21
51.647785
 31
0.0
 73
     2
  0
POINT
  8
DEFPOINTS
  6
BYBLOCK
 62
     0
 10
138.754337
 20
44.059785
 30
0.0
  0
POINT
  8
DEFPOINTS
  6
BYBLOCK
 62
     0
 10
141.160337
 20
45.887785
 30
0.0
  0
POINT
  8
DEFPOINTS
  6
BYBLOCK
 62
     0
 10
150.130811
 20
45.887785
 30
0.0
  0
ENDBLK
  8
0
  0
BLOCK
  8
0
  2
*D25
 70
    65
 10
0.0
 20
0.0
 30
0.0
  3
*D
  0
LINE
  8
0
  6
BYBLOCK
 62
     0
 10
119.160337
 20
46.895785
 30
0.0
 11
119.160337
 21
53.006017
 31
0.0
  0
LINE
  8
0
  6
BYBLOCK
 62
     0
 10
130.160337
 20
35.495785
 30
0.0
 11
130.160337
 21
53.006017
 31
0.0
  0
LINE
  8
0
  6
BYBLOCK
 62
     0
 10
116.280337
 20
51.518017
 30
0.0
 11
113.400337
 21
51.518017
 31
0.0
  0
LINE
  8
0
  6
BYBLOCK
 62
     0
 10
133.040337
 20
51.518017
 30
0.0
 11
135.920337
 21
51.518017
 31
0.0
  0
SOLID
  8
0
  6
BYBLOCK
 62
     0
 10
116.280337
 20
51.998017
 30
0.0
 11
116.280337
 21
51.038017
 31
0.0
 12
119.160337
 22
51.518017
 32
0.0
 13
119.160337
 23
51.518017
 33
0.0
  0
SOLID
  8
0
  6
BYBLOCK
 62
     0
 10
133.040337
 20
51.998017
 30
0.0
 11
133.040337
 21
51.038017
 31
0.0
 12
130.160337
 22
51.518017
 32
0.0
 13
130.160337
 23
51.518017
 33
0.0
  0
TEXT
  8
0
  6
BYBLOCK
 62
     0
 10
121.785337
 20
50.518017
 30
0.0
 40
2.0
  1
11.000
 41
0.75
 72
     1
 11
124.660337
 21
51.518017
 31
0.0
 73
     2
  0
POINT
  8
DEFPOINTS
  6
BYBLOCK
 62
     0
 10
119.160337
 20
45.887785
 30
0.0
  0
POINT
  8
DEFPOINTS
  6
BYBLOCK
 62
     0
 10
130.160337
 20
34.487785
 30
0.0
  0
POINT
  8
DEFPOINTS
  6
BYBLOCK
 62
     0
 10
130.160337
 20
51.518017
 30
0.0
  0
ENDBLK
  8
0
  0
BLOCK
  8
0
  2
*D26
 70
    65
 10
0.0
 20
0.0
 30
0.0
  3
*D
  0
LINE
  8
0
  6
BYBLOCK
 62
     0
 10
138.754337
 20
45.067785
 30
0.0
 11
138.754337
 21
61.006017
 31
0.0
  0
LINE
  8
0
  6
BYBLOCK
 62
     0
 10
141.160337
 20
46.895785
 30
0.0
 11
141.160337
 21
61.006017
 31
0.0
  0
LINE
  8
0
  6
BYBLOCK
 62
     0
 10
135.874337
 20
59.518017
 30
0.0
 11
132.994337
 21
59.518017
 31
0.0
  0
LINE
  8
0
  6
BYBLOCK
 62
     0
 10
144.040337
 20
59.518017
 30
0.0
 11
146.920337
 21
59.518017
 31
0.0
  0
SOLID
  8
0
  6
BYBLOCK
 62
     0
 10
135.874337
 20
59.998017
 30
0.0
 11
135.874337
 21
59.038017
 31
0.0
 12
138.754337
 22
59.518017
 32
0.0
 13
138.754337
 23
59.518017
 33
0.0
  0
SOLID
  8
0
  6
BYBLOCK
 62
     0
 10
144.040337
 20
59.998017
 30
0.0
 11
144.040337
 21
59.038017
 31
0.0
 12
141.160337
 22
59.518017
 32
0.0
 13
141.160337
 23
59.518017
 33
0.0
  0
TEXT
  8
0
  6
BYBLOCK
 62
     0
 10
148.360337
 20
58.518017
 30
0.0
 40
2.0
  1
2.406
 41
0.75
 72
     1
 11
151.235337
 21
59.518017
 31
0.0
 73
     2
  0
POINT
  8
DEFPOINTS
  6
BYBLOCK
 62
     0
 10
138.754337
 20
44.059785
 30
0.0
  0
POINT
  8
DEFPOINTS
  6
BYBLOCK
 62
     0
 10
141.160337
 20
45.887785
 30
0.0
  0
POINT
  8
DEFPOINTS
  6
BYBLOCK
 62
     0
 10
141.160337
 20
59.518017
 30
0.0
  0
ENDBLK
  8
0
  0
BLOCK
  8
0
  2
*D27
 70
    65
 10
0.0
 20
0.0
 30
0.0
  3
*D
  0
LINE
  8
0
  6
BYBLOCK
 62
     0
 10
137.004337
 20
45.067785
 30
0.0
 11
137.004337
 21
57.006017
 31
0.0
  0
LINE
  8
0
  6
BYBLOCK
 62
     0
 10
138.754337
 20
45.067785
 30
0.0
 11
138.754337
 21
57.006017
 31
0.0
  0
LINE
  8
0
  6
BYBLOCK
 62
     0
 10
134.124337
 20
55.518017
 30
0.0
 11
131.244337
 21
55.518017
 31
0.0
  0
LINE
  8
0
  6
BYBLOCK
 62
     0
 10
141.634337
 20
55.518017
 30
0.0
 11
144.514337
 21
55.518017
 31
0.0
  0
SOLID
  8
0
  6
BYBLOCK
 62
     0
 10
134.124337
 20
55.998017
 30
0.0
 11
134.124337
 21
55.038017
 31
0.0
 12
137.004337
 22
55.518017
 32
0.0
 13
137.004337
 23
55.518017
 33
0.0
  0
SOLID
  8
0
  6
BYBLOCK
 62
     0
 10
141.634337
 20
55.998017
 30
0.0
 11
141.634337
 21
55.038017
 31
0.0
 12
138.754337
 22
55.518017
 32
0.0
 13
138.754337
 23
55.518017
 33
0.0
  0
TEXT
  8
0
  6
BYBLOCK
 62
     0
 10
145.954337
 20
54.518017
 30
0.0
 40
2.0
  1
1.750
 41
0.75
 72
     1
 11
148.579337
 21
55.518017
 31
0.0
 73
     2
  0
POINT
  8
DEFPOINTS
  6
BYBLOCK
 62
     0
 10
137.004337
 20
44.059785
 30
0.0
  0
POINT
  8
DEFPOINTS
  6
BYBLOCK
 62
     0
 10
138.754337
 20
44.059785
 30
0.0
  0
POINT
  8
DEFPOINTS
  6
BYBLOCK
 62
     0
 10
138.754337
 20
55.518017
 30
0.0
  0
ENDBLK
  8
0
  0
BLOCK
  8
0
  2
*D28
 70
    65
 10
0.0
 20
0.0
 30
0.0
  3
*D
  0
LINE
  8
0
  6
BYBLOCK
 62
     0
 10
63.738433
 20
155.877151
 30
0.0
 11
63.738433
 21
160.677151
 31
0.0
  0
LINE
  8
0
  6
BYBLOCK
 62
     0
 10
69.206433
 20
150.252151
 30
0.0
 11
69.206433
 21
160.677151
 31
0.0
  0
LINE
  8
0
  6
BYBLOCK
 62
     0
 10
60.858433
 20
159.189151
 30
0.0
 11
57.978433
 21
159.189151
 31
0.0
  0
LINE
  8
0
  6
BYBLOCK
 62
     0
 10
72.086433
 20
159.189151
 30
0.0
 11
74.966433
 21
159.189151
 31
0.0
  0
SOLID
  8
0
  6
BYBLOCK
 62
     0
 10
60.858433
 20
159.669151
 30
0.0
 11
60.858433
 21
158.709151
 31
0.0
 12
63.738433
 22
159.189151
 32
0.0
 13
63.738433
 23
159.189151
 33
0.0
  0
SOLID
  8
0
  6
BYBLOCK
 62
     0
 10
72.086433
 20
159.669151
 30
0.0
 11
72.086433
 21
158.709151
 31
0.0
 12
69.206433
 22
159.189151
 32
0.0
 13
69.206433
 23
159.189151
 33
0.0
  0
TEXT
  8
0
  6
BYBLOCK
 62
     0
 10
76.406433
 20
158.189151
 30
0.0
 40
2.0
  1
5.468
 41
0.75
 72
     1
 11
79.406433
 21
159.189151
 31
0.0
 73
     2
  0
POINT
  8
DEFPOINTS
  6
BYBLOCK
 62
     0
 10
63.738433
 20
154.869151
 30
0.0
  0
POINT
  8
DEFPOINTS
  6
BYBLOCK
 62
     0
 10
69.206433
 20
149.244151
 30
0.0
  0
POINT
  8
DEFPOINTS
  6
BYBLOCK
 62
     0
 10
69.206433
 20
159.189151
 30
0.0
  0
ENDBLK
  8
0
  0
BLOCK
  8
0
  2
*D29
 70
    65
 10
0.0
 20
0.0
 30
0.0
  3
*D
  0
LINE
  8
0
  6
BYBLOCK
 62
     0
 10
69.206433
 20
150.252151
 30
0.0
 11
69.206433
 21
165.173151
 31
0.0
  0
LINE
  8
0
  6
BYBLOCK
 62
     0
 10
73.581433
 20
150.252151
 30
0.0
 11
73.581433
 21
165.173151
 31
0.0
  0
LINE
  8
0
  6
BYBLOCK
 62
     0
 10
66.326433
 20
163.685151
 30
0.0
 11
63.446433
 21
163.685151
 31
0.0
  0
LINE
  8
0
  6
BYBLOCK
 62
     0
 10
76.461433
 20
163.685151
 30
0.0
 11
79.341433
 21
163.685151
 31
0.0
  0
SOLID
  8
0
  6
BYBLOCK
 62
     0
 10
66.326433
 20
164.165151
 30
0.0
 11
66.326433
 21
163.205151
 31
0.0
 12
69.206433
 22
163.685151
 32
0.0
 13
69.206433
 23
163.685151
 33
0.0
  0
SOLID
  8
0
  6
BYBLOCK
 62
     0
 10
76.461433
 20
164.165151
 30
0.0
 11
76.461433
 21
163.205151
 31
0.0
 12
73.581433
 22
163.685151
 32
0.0
 13
73.581433
 23
163.685151
 33
0.0
  0
TEXT
  8
0
  6
BYBLOCK
 62
     0
 10
80.781433
 20
161.066151
 30
0.0
 40
2.0
  1
4.375
 41
0.75
 72
     1
 11
83.781433
 21
162.066151
 31
0.0
 73
     2
  0
POINT
  8
DEFPOINTS
  6
BYBLOCK
 62
     0
 10
69.206433
 20
149.244151
 30
0.0
  0
POINT
  8
DEFPOINTS
  6
BYBLOCK
 62
     0
 10
73.581433
 20
149.244151
 30
0.0
  0
POINT
  8
DEFPOINTS
  6
BYBLOCK
 62
     0
 10
73.581433
 20
163.685151
 30
0.0
  0
ENDBLK
  8
0
  0
BLOCK
  8
0
  2
*D30
 70
    65
 10
0.0
 20
0.0
 30
0.0
  3
*D
  0
LINE
  8
0
  6
BYBLOCK
 62
     0
 10
39.939039
 20
79.861151
 30
0.0
 11
39.939039
 21
68.309151
 31
0.0
  0
LINE
  8
0
  6
BYBLOCK
 62
     0
 10
46.392539
 20
78.549151
 30
0.0
 11
46.392539
 21
68.309151
 31
0.0
  0
LINE
  8
0
  6
BYBLOCK
 62
     0
 10
37.059039
 20
69.797151
 30
0.0
 11
34.179039
 21
69.797151
 31
0.0
  0
LINE
  8
0
  6
BYBLOCK
 62
     0
 10
49.272539
 20
69.797151
 30
0.0
 11
52.152539
 21
69.797151
 31
0.0
  0
SOLID
  8
0
  6
BYBLOCK
 62
     0
 10
37.059039
 20
70.277151
 30
0.0
 11
37.059039
 21
69.317151
 31
0.0
 12
39.939039
 22
69.797151
 32
0.0
 13
39.939039
 23
69.797151
 33
0.0
  0
SOLID
  8
0
  6
BYBLOCK
 62
     0
 10
49.272539
 20
70.277151
 30
0.0
 11
49.272539
 21
69.317151
 31
0.0
 12
46.392539
 22
69.797151
 32
0.0
 13
46.392539
 23
69.797151
 33
0.0
  0
TEXT
  8
0
  6
BYBLOCK
 62
     0
 10
53.592539
 20
68.797151
 30
0.0
 40
2.0
  1
6.453
 41
0.75
 72
     1
 11
56.592539
 21
69.797151
 31
0.0
 73
     2
  0
POINT
  8
DEFPOINTS
  6
BYBLOCK
 62
     0
 10
39.939039
 20
80.869151
 30
0.0
  0
POINT
  8
DEFPOINTS
  6
BYBLOCK
 62
     0
 10
46.392539
 20
79.557151
 30
0.0
  0
POINT
  8
DEFPOINTS
  6
BYBLOCK
 62
     0
 10
46.392539
 20
69.797151
 30
0.0
  0
ENDBLK
  8
0
  0
BLOCK
  8
0
  2
*D31
 70
    65
 10
0.0
 20
0.0
 30
0.0
  3
*D
  0
LINE
  8
0
  6
BYBLOCK
 62
     0
 10
47.400539
 20
79.557151
 30
0.0
 11
52.1489
 21
79.557151
 31
0.0
  0
LINE
  8
0
  6
BYBLOCK
 62
     0
 10
40.947039
 20
80.869151
 30
0.0
 11
52.1489
 21
80.869151
 31
0.0
  0
LINE
  8
0
  6
BYBLOCK
 62
     0
 10
50.6609
 20
76.677151
 30
0.0
 11
50.6609
 21
73.797151
 31
0.0
  0
LINE
  8
0
  6
BYBLOCK
 62
     0
 10
50.6609
 20
83.749151
 30
0.0
 11
50.6609
 21
86.629151
 31
0.0
  0
LINE
  8
0
  6
BYBLOCK
 62
     0
 10
50.6609
 20
86.629151
 30
0.0
 11
53.5409
 21
86.629151
 31
0.0
  0
SOLID
  8
0
  6
BYBLOCK
 62
     0
 10
50.1809
 20
76.677151
 30
0.0
 11
51.1409
 21
76.677151
 31
0.0
 12
50.6609
 22
79.557151
 32
0.0
 13
50.6609
 23
79.557151
 33
0.0
  0
SOLID
  8
0
  6
BYBLOCK
 62
     0
 10
50.1809
 20
83.749151
 30
0.0
 11
51.1409
 21
83.749151
 31
0.0
 12
50.6609
 22
80.869151
 32
0.0
 13
50.6609
 23
80.869151
 33
0.0
  0
TEXT
  8
0
  6
BYBLOCK
 62
     0
 10
54.9809
 20
85.629151
 30
0.0
 40
2.0
  1
1.312
 41
0.75
 72
     1
 11
57.4809
 21
86.629151
 31
0.0
 73
     2
  0
POINT
  8
DEFPOINTS
  6
BYBLOCK
 62
     0
 10
46.392539
 20
79.557151
 30
0.0
  0
POINT
  8
DEFPOINTS
  6
BYBLOCK
 62
     0
 10
39.939039
 20
80.869151
 30
0.0
  0
POINT
  8
DEFPOINTS
  6
BYBLOCK
 62
     0
 10
50.6609
 20
80.869151
 30
0.0
  0
ENDBLK
  8
0
  0
BLOCK
  8
0
  2
*D32
 70
    65
 10
0.0
 20
0.0
 30
0.0
  3
*D
  0
LINE
  8
0
  6
BYBLOCK
 62
     0
 10
137.24379
 20
78.572634
 30
0.0
 11
150.95579
 21
78.572634
 31
0.0
  0
LINE
  8
0
  6
BYBLOCK
 62
     0
 10
137.24379
 20
153.884634
 30
0.0
 11
150.95579
 21
153.884634
 31
0.0
  0
LINE
  8
0
  6
BYBLOCK
 62
     0
 10
149.46779
 20
81.452634
 30
0.0
 11
149.46779
 21
113.788634
 31
0.0
  0
LINE
  8
0
  6
BYBLOCK
 62
     0
 10
149.46779
 20
151.004634
 30
0.0
 11
149.46779
 21
118.668634
 31
0.0
  0
SOLID
  8
0
  6
BYBLOCK
 62
     0
 10
148.98779
 20
81.452634
 30
0.0
 11
149.94779
 21
81.452634
 31
0.0
 12
149.46779
 22
78.572634
 32
0.0
 13
149.46779
 23
78.572634
 33
0.0
  0
SOLID
  8
0
  6
BYBLOCK
 62
     0
 10
148.98779
 20
151.004634
 30
0.0
 11
149.94779
 21
151.004634
 31
0.0
 12
149.46779
 22
153.884634
 32
0.0
 13
149.46779
 23
153.884634
 33
0.0
  0
TEXT
  8
0
  6
BYBLOCK
 62
     0
 10
148.96779
 20
115.228634
 30
0.0
 40
2.0
  1
 %%p0.062
 41
0.75
 72
     1
 11
153.21779
 21
116.228634
 31
0.0
 73
     2
  0
TEXT
  8
0
  6
BYBLOCK
 62
     0
 10
141.46779
 20
115.228634
 30
0.0
 40
2.0
  1
75.312
 41
0.75
 72
     1
 11
144.96779
 21
116.228634
 31
0.0
 73
     2
  0
POINT
  8
DEFPOINTS
  6
BYBLOCK
 62
     0
 10
136.23579
 20
78.572634
 30
0.0
  0
POINT
  8
DEFPOINTS
  6
BYBLOCK
 62
     0
 10
136.23579
 20
153.884634
 30
0.0
  0
POINT
  8
DEFPOINTS
  6
BYBLOCK
 62
     0
 10
149.46779
 20
153.884634
 30
0.0
  0
ENDBLK
  8
0
  0
BLOCK
  8
0
  2
*D33
 70
    65
 10
0.0
 20
0.0
 30
0.0
  3
*D
  0
LINE
  8
0
  6
BYBLOCK
 62
     0
 10
116.08029
 20
117.845634
 30
0.0
 11
116.08029
 21
115.916995
 31
0.0
  0
LINE
  8
0
  6
BYBLOCK
 62
     0
 10
134.39229
 20
117.845634
 30
0.0
 11
134.39229
 21
115.916995
 31
0.0
  0
LINE
  8
0
  6
BYBLOCK
 62
     0
 10
113.20029
 20
117.404995
 30
0.0
 11
110.32029
 21
117.404995
 31
0.0
  0
LINE
  8
0
  6
BYBLOCK
 62
     0
 10
137.27229
 20
117.404995
 30
0.0
 11
140.15229
 21
117.404995
 31
0.0
  0
SOLID
  8
0
  6
BYBLOCK
 62
     0
 10
113.20029
 20
117.884995
 30
0.0
 11
113.20029
 21
116.924995
 31
0.0
 12
116.08029
 22
117.404995
 32
0.0
 13
116.08029
 23
117.404995
 33
0.0
  0
SOLID
  8
0
  6
BYBLOCK
 62
     0
 10
137.27229
 20
117.884995
 30
0.0
 11
137.27229
 21
116.924995
 31
0.0
 12
134.39229
 22
117.404995
 32
0.0
 13
134.39229
 23
117.404995
 33
0.0
  0
TEXT
  8
0
  6
BYBLOCK
 62
     0
 10
124.48629
 20
116.404995
 30
0.0
 40
2.0
  1
 %%p0.062
 41
0.75
 72
     1
 11
128.73629
 21
117.404995
 31
0.0
 73
     2
  0
TEXT
  8
0
  6
BYBLOCK
 62
     0
 10
117.48629
 20
116.404995
 30
0.0
 40
2.0
  1
18.312
 41
0.75
 72
     1
 11
120.73629
 21
117.404995
 31
0.0
 73
     2
  0
POINT
  8
DEFPOINTS
  6
BYBLOCK
 62
     0
 10
116.08029
 20
118.853634
 30
0.0
  0
POINT
  8
DEFPOINTS
  6
BYBLOCK
 62
     0
 10
134.39229
 20
118.853634
 30
0.0
  0
POINT
  8
DEFPOINTS
  6
BYBLOCK
 62
     0
 10
134.39229
 20
117.404995
 30
0.0
  0
ENDBLK
  8
0
  0
BLOCK
  8
0
  2
*D34
 70
    65
 10
0.0
 20
0.0
 30
0.0
  3
*D
  0
LINE
  8
0
  6
BYBLOCK
 62
     0
 10
136.23579
 20
171.19855
 30
0.0
 11
136.23579
 21
166.564053
 31
0.0
  0
LINE
  8
0
  6
BYBLOCK
 62
     0
 10
132.73579
 20
174.69855
 30
0.0
 11
132.73579
 21
166.564053
 31
0.0
  0
LINE
  8
0
  6
BYBLOCK
 62
     0
 10
139.11579
 20
168.052053
 30
0.0
 11
141.99579
 21
168.052053
 31
0.0
  0
LINE
  8
0
  6
BYBLOCK
 62
     0
 10
129.85579
 20
168.052053
 30
0.0
 11
126.97579
 21
168.052053
 31
0.0
  0
SOLID
  8
0
  6
BYBLOCK
 62
     0
 10
139.11579
 20
168.532053
 30
0.0
 11
139.11579
 21
167.572053
 31
0.0
 12
136.23579
 22
168.052053
 32
0.0
 13
136.23579
 23
168.052053
 33
0.0
  0
SOLID
  8
0
  6
BYBLOCK
 62
     0
 10
129.85579
 20
168.532053
 30
0.0
 11
129.85579
 21
167.572053
 31
0.0
 12
132.73579
 22
168.052053
 32
0.0
 13
132.73579
 23
168.052053
 33
0.0
  0
TEXT
  8
0
  6
BYBLOCK
 62
     0
 10
119.53579
 20
167.052053
 30
0.0
 40
2.0
  1
 TYP.
 41
0.75
 72
     1
 11
122.53579
 21
168.052053
 31
0.0
 73
     2
  0
TEXT
  8
0
  6
BYBLOCK
 62
     0
 10
113.53579
 20
167.052053
 30
0.0
 40
2.0
  1
3.500
 41
0.75
 72
     1
 11
116.28579
 21
168.052053
 31
0.0
 73
     2
  0
POINT
  8
DEFPOINTS
  6
BYBLOCK
 62
     0
 10
136.23579
 20
172.20655
 30
0.0
  0
POINT
  8
DEFPOINTS
  6
BYBLOCK
 62
     0
 10
132.73579
 20
175.70655
 30
0.0
  0
POINT
  8
DEFPOINTS
  6
BYBLOCK
 62
     0
 10
132.73579
 20
168.052053
 30
0.0
  0
ENDBLK
  8
0
  0
BLOCK
  8
0
  2
*D35
 70
    65
 10
0.0
 20
0.0
 30
0.0
  3
*D
  0
LINE
  8
0
  6
BYBLOCK
 62
     0
 10
133.74379
 20
175.70655
 30
0.0
 11
148.190516
 21
175.70655
 31
0.0
  0
LINE
  8
0
  6
BYBLOCK
 62
     0
 10
137.24379
 20
172.20655
 30
0.0
 11
148.190516
 21
172.20655
 31
0.0
  0
LINE
  8
0
  6
BYBLOCK
 62
     0
 10
146.702516
 20
178.58655
 30
0.0
 11
146.702516
 21
181.46655
 31
0.0
  0
LINE
  8
0
  6
BYBLOCK
 62
     0
 10
146.702516
 20
169.32655
 30
0.0
 11
146.702516
 21
166.44655
 31
0.0
  0
SOLID
  8
0
  6
BYBLOCK
 62
     0
 10
146.222516
 20
178.58655
 30
0.0
 11
147.182516
 21
178.58655
 31
0.0
 12
146.702516
 22
175.70655
 32
0.0
 13
146.702516
 23
175.70655
 33
0.0
  0
SOLID
  8
0
  6
BYBLOCK
 62
     0
 10
146.222516
 20
169.32655
 30
0.0
 11
147.182516
 21
169.32655
 31
0.0
 12
146.702516
 22
172.20655
 32
0.0
 13
146.702516
 23
172.20655
 33
0.0
  0
TEXT
  8
0
  6
BYBLOCK
 62
     0
 10
146.702516
 20
172.95655
 30
0.0
 40
2.0
  1
 TYP.
 41
0.75
 72
     1
 11
149.702516
 21
173.95655
 31
0.0
 73
     2
  0
TEXT
  8
0
  6
BYBLOCK
 62
     0
 10
140.702516
 20
172.95655
 30
0.0
 40
2.0
  1
3.500
 41
0.75
 72
     1
 11
143.452516
 21
173.95655
 31
0.0
 73
     2
  0
POINT
  8
DEFPOINTS
  6
BYBLOCK
 62
     0
 10
132.73579
 20
175.70655
 30
0.0
  0
POINT
  8
DEFPOINTS
  6
BYBLOCK
 62
     0
 10
136.23579
 20
172.20655
 30
0.0
  0
POINT
  8
DEFPOINTS
  6
BYBLOCK
 62
     0
 10
146.702516
 20
172.20655
 30
0.0
  0
ENDBLK
  8
0
  0
BLOCK
  8
0
  2
*D36
 70
    65
 10
0.0
 20
0.0
 30
0.0
  3
*D
  0
LINE
  8
0
  6
BYBLOCK
 62
     0
 10
52.948782
 20
189.769776
 30
0.0
 11
52.948782
 21
197.258771
 31
0.0
  0
LINE
  8
0
  6
BYBLOCK
 62
     0
 10
48.448782
 20
189.769776
 30
0.0
 11
48.448782
 21
197.258771
 31
0.0
  0
LINE
  8
0
  6
BYBLOCK
 62
     0
 10
55.828782
 20
195.770771
 30
0.0
 11
58.708782
 21
195.770771
 31
0.0
  0
LINE
  8
0
  6
BYBLOCK
 62
     0
 10
45.568782
 20
195.770771
 30
0.0
 11
42.688782
 21
195.770771
 31
0.0
  0
SOLID
  8
0
  6
BYBLOCK
 62
     0
 10
55.828782
 20
196.250771
 30
0.0
 11
55.828782
 21
195.290771
 31
0.0
 12
52.948782
 22
195.770771
 32
0.0
 13
52.948782
 23
195.770771
 33
0.0
  0
SOLID
  8
0
  6
BYBLOCK
 62
     0
 10
45.568782
 20
196.250771
 30
0.0
 11
45.568782
 21
195.290771
 31
0.0
 12
48.448782
 22
195.770771
 32
0.0
 13
48.448782
 23
195.770771
 33
0.0
  0
TEXT
  8
0
  6
BYBLOCK
 62
     0
 10
35.748782
 20
194.770771
 30
0.0
 40
2.0
  1
4.500
 41
0.75
 72
     1
 11
38.498782
 21
195.770771
 31
0.0
 73
     2
  0
POINT
  8
DEFPOINTS
  6
BYBLOCK
 62
     0
 10
52.948782
 20
188.761776
 30
0.0
  0
POINT
  8
DEFPOINTS
  6
BYBLOCK
 62
     0
 10
48.448782
 20
188.761776
 30
0.0
  0
POINT
  8
DEFPOINTS
  6
BYBLOCK
 62
     0
 10
48.448782
 20
195.770771
 30
0.0
  0
ENDBLK
  8
0
  0
BLOCK
  8
0
  2
*D37
 70
    65
 10
0.0
 20
0.0
 30
0.0
  3
*D
  0
LINE
  8
0
  6
BYBLOCK
 62
     0
 10
53.956782
 20
188.761776
 30
0.0
 11
60.58065
 21
188.761776
 31
0.0
  0
LINE
  8
0
  6
BYBLOCK
 62
     0
 10
53.956782
 20
184.261776
 30
0.0
 11
60.58065
 21
184.261776
 31
0.0
  0
LINE
  8
0
  6
BYBLOCK
 62
     0
 10
59.09265
 20
191.641776
 30
0.0
 11
59.09265
 21
194.521776
 31
0.0
  0
LINE
  8
0
  6
BYBLOCK
 62
     0
 10
59.09265
 20
181.381776
 30
0.0
 11
59.09265
 21
178.501776
 31
0.0
  0
SOLID
  8
0
  6
BYBLOCK
 62
     0
 10
58.61265
 20
191.641776
 30
0.0
 11
59.57265
 21
191.641776
 31
0.0
 12
59.09265
 22
188.761776
 32
0.0
 13
59.09265
 23
188.761776
 33
0.0
  0
SOLID
  8
0
  6
BYBLOCK
 62
     0
 10
58.61265
 20
181.381776
 30
0.0
 11
59.57265
 21
181.381776
 31
0.0
 12
59.09265
 22
184.261776
 32
0.0
 13
59.09265
 23
184.261776
 33
0.0
  0
TEXT
  8
0
  6
BYBLOCK
 62
     0
 10
56.34265
 20
185.511776
 30
0.0
 40
2.0
  1
4.500
 41
0.75
 72
     1
 11
59.09265
 21
186.511776
 31
0.0
 73
     2
  0
POINT
  8
DEFPOINTS
  6
BYBLOCK
 62
     0
 10
52.948782
 20
188.761776
 30
0.0
  0
POINT
  8
DEFPOINTS
  6
BYBLOCK
 62
     0
 10
52.948782
 20
184.261776
 30
0.0
  0
POINT
  8
DEFPOINTS
  6
BYBLOCK
 62
     0
 10
59.09265
 20
184.261776
 30
0.0
  0
ENDBLK
  8
0
  0
ENDSEC
  0
SECTION
  2
ENTITIES
  0
TEXT
  8
DIM
 10
67.947406
 20
108.685211
 30
0.0
 40
1.25
  1

  0
TEXT
  8
DIM
 10
69.009906
 20
104.591452
 30
0.0
 40
1.0
  1

  0
TEXT
  8
OBJECT
 10
69.86665
 20
155.28811
 30
0.0
 40
1.25
  1

  0
INSERT
  8
OBJECT
  2
HB
 10
0.0
 20
0.0
 30
0.0
 41
16.0
 42
16.0
 43
16.0
  0
TEXT
  8
TEXT
 10
26.355714
 20
242.416
 30
0.0
 40
2.499429
  1
MISSION CRITICAL CABINET
 41
0.75
 72
     1
 11
46.976
 21
242.416
 31
0.0
  0
TEXT
  8
TEXT
 10
121.347643
 20
242.416
 30
0.0
 40
2.499429
  1
DC-8075
 41
0.75
 72
     1
 11
127.44
 21
242.416
 31
0.0
  0
TEXT
  8
DIM
 10
221.381413
 20
120.925461
 30
0.0
 40
1.25
  1

  0
TEXT
  8
DIM
 10
222.443913
 20
116.831703
 30
0.0
 40
1.0
  1

  0
TEXT
  8
OBJECT
 10
223.300657
 20
167.52836
 30
0.0
 40
1.25
  1

  0
TEXT
  8
DIM
 10
-32.554051
 20
108.835018
 30
0.0
 40
1.25
  1

  0
TEXT
  8
DIM
 10
-31.491551
 20
104.74126
 30
0.0
 40
1.0
  1

  0
TEXT
  8
OBJECT
 10
-30.634808
 20
155.437917
 30
0.0
 40
1.25
  1

  0
TEXT
  8
DIM
 10
213.445949
 20
108.835018
 30
0.0
 40
1.25
  1

  0
TEXT
  8
DIM
 10
214.508449
 20
104.74126
 30
0.0
 40
1.0
  1

  0
TEXT
  8
OBJECT
 10
215.365192
 20
155.437917
 30
0.0
 40
1.25
  1

  0
TEXT
  8
DIM
 10
418.445949
 20
108.835018
 30
0.0
 40
1.25
  1

  0
TEXT
  8
DIM
 10
419.508449
 20
104.74126
 30
0.0
 40
1.0
  1

  0
TEXT
  8
OBJECT
 10
420.365192
 20
155.437917
 30
0.0
 40
1.25
  1

  0
TEXT
  8
DIM
 10
623.445949
 20
108.835018
 30
0.0
 40
1.25
  1

  0
TEXT
  8
DIM
 10
624.508449
 20
104.74126
 30
0.0
 40
1.0
  1

  0
TEXT
  8
DIM
 10
787.445949
 20
108.835018
 30
0.0
 40
1.25
  1

  0
TEXT
  8
DIM
 10
788.508449
 20
104.74126
 30
0.0
 40
1.0
  1

  0
TEXT
  8
OBJECT
 10
789.365192
 20
155.437917
 30
0.0
 40
1.25
  1

  0
TEXT
  8
DIM
 10
787.445949
 20
108.835018
 30
0.0
 40
1.25
  1

  0
TEXT
  8
DIM
 10
788.508449
 20
104.74126
 30
0.0
 40
1.0
  1

  0
TEXT
  8
OBJECT
 10
789.365192
 20
155.437917
 30
0.0
 40
1.25
  1

  0
TEXT
  8
DIM
 10
805.413326
 20
293.759395
 30
0.0
 40
0.72
  1

  0
TEXT
  8
DIM
 10
741.877449
 20
270.884129
 30
0.0
 40
0.72
  1

  0
TEXT
  8
DIM
 10
892.78977
 20
221.762391
 30
0.0
 40
0.72
  1

  0
TEXT
  8
DIM
 10
829.253894
 20
198.887126
 30
0.0
 40
0.72
  1

  0
TEXT
  8
DIM
 10
795.443126
 20
307.374357
 30
0.0
 40
0.72
  1

  0
TEXT
  8
DIM
 10
731.90725
 20
284.499092
 30
0.0
 40
0.72
  1

  0
TEXT
  8
DIM
 10
731.90725
 20
324.499092
 30
0.0
 40
0.72
  1

  0
TEXT
  8
DIM
 10
793.40725
 20
324.499092
 30
0.0
 40
0.72
  1

  0
LINE
  8
OBJECT
 10
136.23579
 20
74.082383
 30
0.0
 11
136.23579
 21
149.394383
 31
0.0
  0
LINE
  8
OBJECT
 10
136.23579
 20
149.394383
 30
0.0
 11
114.23579
 21
149.394383
 31
0.0
  0
LINE
  8
OBJECT
 10
114.23579
 20
149.394383
 30
0.0
 11
114.23579
 21
74.082383
 31
0.0
  0
LINE
  8
OBJECT
 10
114.23579
 20
74.082383
 30
0.0
 11
136.23579
 21
74.082383
 31
0.0
  0
LINE
  8
OBJECT
 10
134.79829
 20
74.082383
 30
0.0
 11
134.79829
 21
149.394383
 31
0.0
  0
LINE
  8
OBJECT
 10
115.67329
 20
149.394383
 30
0.0
 11
115.67329
 21
144.386075
 31
0.0
  0
LINE
  8
OBJECT
 10
115.67329
 20
76.707383
 30
0.0
 11
134.79829
 21
76.707383
 31
0.0
  0
LINE
  8
OBJECT
 10
134.79829
 20
146.769383
 30
0.0
 11
115.67329
 21
146.769383
 31
0.0
  0
ARC
  8
OBJECT
 10
39.939039
 20
76.378901
 30
0.0
 40
0.5545
 50
96.419806
 51
263.580194
  0
LINE
  8
OBJECT
 10
40.001039
 20
75.889116
 30
0.0
 11
40.001039
 21
75.745931
 31
0.0
  0
LINE
  8
OBJECT
 10
39.877039
 20
76.970959
 30
0.0
 11
39.877039
 21
77.008081
 31
0.0
  0
LINE
  8
OBJECT
 10
39.877039
 20
75.889116
 30
0.0
 11
39.877039
 21
75.745931
 31
0.0
  0
ARC
  8
OBJECT
 10
39.939039
 20
76.378901
 30
0.0
 40
0.5545
 50
276.419806
 51
83.580194
  0
LINE
  8
OBJECT
 10
40.001039
 20
76.970959
 30
0.0
 11
40.001039
 21
77.008081
 31
0.0
  0
LINE
  8
OBJECT
 10
40.001039
 20
76.827774
 30
0.0
 11
40.001039
 21
76.970959
 31
0.0
  0
LINE
  8
OBJECT
 10
39.877039
 20
76.970959
 30
0.0
 11
39.877039
 21
76.827774
 31
0.0
  0
LINE
  8
OBJECT
 10
30.908039
 20
76.970959
 30
0.0
 11
30.908039
 21
76.827774
 31
0.0
  0
LINE
  8
OBJECT
 10
30.784039
 20
76.827774
 30
0.0
 11
30.784039
 21
76.970959
 31
0.0
  0
LINE
  8
OBJECT
 10
30.784039
 20
76.970959
 30
0.0
 11
30.784039
 21
77.008081
 31
0.0
  0
ARC
  8
OBJECT
 10
30.846039
 20
76.378901
 30
0.0
 40
0.5545
 50
96.419806
 51
263.580194
  0
LINE
  8
OBJECT
 10
30.908039
 20
75.889116
 30
0.0
 11
30.908039
 21
75.745931
 31
0.0
  0
LINE
  8
OBJECT
 10
30.908039
 20
76.970959
 30
0.0
 11
30.908039
 21
77.008081
 31
0.0
  0
LINE
  8
OBJECT
 10
30.784039
 20
75.889116
 30
0.0
 11
30.784039
 21
75.745931
 31
0.0
  0
ARC
  8
OBJECT
 10
30.846039
 20
76.378901
 30
0.0
 40
0.5545
 50
276.419806
 51
83.580194
  0
LINE
  8
OBJECT
 10
46.392539
 20
75.066901
 30
0.0
 11
24.392539
 21
75.066901
 31
0.0
  0
LINE
  8
OBJECT
 10
46.392539
 20
150.378901
 30
0.0
 11
46.392539
 21
75.066901
 31
0.0
  0
LINE
  8
OBJECT
 10
24.392539
 20
150.378901
 30
0.0
 11
46.392539
 21
150.378901
 31
0.0
  0
LINE
  8
OBJECT
 10
24.392539
 20
75.066901
 30
0.0
 11
24.392539
 21
150.378901
 31
0.0
  0
TEXT
  8
DIM
 10
418.445949
 20
108.835018
 30
0.0
 40
1.25
  1

  0
TEXT
  8
DIM
 10
419.508449
 20
104.74126
 30
0.0
 40
1.0
  1

  0
TEXT
  8
OBJECT
 10
420.365192
 20
155.437917
 30
0.0
 40
1.25
  1

  0
TEXT
  8
TEXT
 10
27.453086
 20
59.466901
 30
0.0
 40
2.34375
  1
%%uREAR VIEW
 41
0.75
 72
     1
 11
35.392539
 21
59.466901
 31
0.0
  0
DIMENSION
  8
DIM
  2
*D10
 10
134.79829
 20
107.805915
 30
0.0
 11
125.23579
 21
107.805915
 31
0.0
 12
-4.924547
 22
-7.224769
 32
0.0
  1
<> %%p0.031
 13
115.67329
 23
107.805915
 33
0.0
 14
134.79829
 24
107.805915
 34
0.0
  3
23NSTDI
  0
DIMENSION
  8
DIM
  2
*D33
 10
134.39229
 20
112.289745
 30
0.0
 11
125.23629
 21
112.289745
 31
0.0
 12
0.0
 22
-5.115251
 32
0.0
  1
<> %%p0.062
 13
116.08029
 23
113.738383
 33
0.0
 14
134.39229
 24
113.738383
 34
0.0
  3
23NSTDI
  0
DIMENSION
  8
DIM
  2
*D11
 10
134.20479
 20
116.867688
 30
0.0
 11
125.236415
 21
116.867688
 31
0.0
 12
-4.924547
 22
-7.224769
 32
0.0
  1
<> %%p0.093
 13
116.26804
 23
116.867688
 33
0.0
 14
134.20479
 24
116.867688
 34
0.0
  3
23NSTDI
  0
DIMENSION
  8
DIM
  2
*D12
 10
136.23579
 20
155.154383
 30
0.0
 11
125.23579
 21
155.154383
 31
0.0
 12
-4.924547
 22
-5.474769
 32
0.0
  1
<> %%p0.062
 13
114.23579
 23
149.394383
 33
0.0
 14
136.23579
 24
149.394383
 34
0.0
  3
23NSTDI
  0
DIMENSION
  8
DIM
  2
*D5
 10
14.777539
 20
147.753901
 30
0.0
 11
14.777539
 21
112.722901
 31
0.0
 12
0.0
 22
-4.490251
 32
0.0
  1
<> %%p0.031
 13
25.830039
 23
77.691901
 33
0.0
 14
25.830039
 24
147.753901
 34
0.0
 50
90.0
  3
23NSTD
  0
DIMENSION
  8
DIM
  2
*D6
 10
14.777539
 20
150.378901
 30
0.0
 11
22.097539
 21
156.138901
 31
0.0
 12
0.0
 22
-4.490251
 32
0.0
 13
25.830039
 23
147.753901
 33
0.0
 14
24.392539
 24
150.378901
 34
0.0
 50
90.0
  3
23NSTD
  0
DIMENSION
  8
DIM
  2
*D32
 10
149.46779
 20
149.394383
 30
0.0
 11
149.46779
 21
111.738383
 31
0.0
 12
0.0
 22
-4.490251
 32
0.0
  1
<> %%p0.062
 13
136.23579
 23
74.082383
 33
0.0
 14
136.23579
 24
149.394383
 34
0.0
 50
270.0
  3
23NSTD
  0
DIMENSION
  8
DIM
  2
*D7
 10
14.777539
 20
75.066901
 30
0.0
 11
7.457539
 21
69.306901
 31
0.0
 12
0.0
 22
-4.490251
 32
0.0
 13
25.830039
 23
77.691901
 33
0.0
 14
24.392539
 24
75.066901
 34
0.0
 50
90.0
  3
23NSTD
  0
DIMENSION
  8
DIM
  2
*D13
 10
39.939039
 20
69.306901
 30
0.0
 11
35.392539
 21
69.306901
 31
0.0
 12
0.0
 22
-4.490251
 32
0.0
 13
30.846039
 23
76.378901
 33
0.0
 14
39.939039
 24
76.378901
 34
0.0
  3
23NSTDI
  0
DIMENSION
  8
DIM
  2
*D30
 10
46.392539
 20
65.306901
 30
0.0
 11
56.592539
 21
65.306901
 31
0.0
 12
0.0
 22
-4.490251
 32
0.0
 13
39.939039
 23
76.378901
 33
0.0
 14
46.392539
 24
75.066901
 34
0.0
  3
23NSTD
  0
POLYLINE
  8
DIM
 66
     1
 10
0.0
 20
0.0
 30
0.0
 41
1.08
  0
VERTEX
  8
DIM
 10
30.416606
 20
76.028105
 30
0.0
  0
VERTEX
  8
DIM
 10
28.330878
 20
74.042119
 30
0.0
 41
0.0
  0
VERTEX
  8
DIM
 10
19.794353
 20
65.91382
 30
0.0
 41
0.0
  0
VERTEX
  8
DIM
 10
17.794353
 20
65.91382
 30
0.0
 41
0.0
  0
SEQEND
  8
DIM
  0
TEXT
  8
DIM
 10
5.044351
 20
64.91382
 30
0.0
 40
2.0
  1
1.109 DIA.
 41
0.75
 72
     2
 11
15.794352
 21
64.91382
 31
0.0
  0
TEXT
  8
DIM
 10
4.294351
 20
61.580486
 30
0.0
 40
2.0
  1
KNOCKOUT
 41
0.75
 72
     2
 11
15.794352
 21
61.580486
 31
0.0
  0
TEXT
  8
DIM
 10
2.29435
 20
58.247152
 30
0.0
 40
2.0
  1
(4) PLACES
 41
0.75
 72
     2
 11
15.794352
 21
58.247152
 31
0.0
  0
CIRCLE
  8
PMR
 10
116.08029
 20
92.238383
 30
0.0
 40
0.095
  0
CIRCLE
  8
PMR
 10
116.08029
 20
93.363383
 30
0.0
 40
0.095
  0
CIRCLE
  8
PMR
 10
116.08029
 20
93.988383
 30
0.0
 40
0.095
  0
CIRCLE
  8
PMR
 10
116.08029
 20
92.738383
 30
0.0
 40
0.095
  0
CIRCLE
  8
PMR
 10
116.08029
 20
95.113383
 30
0.0
 40
0.095
  0
CIRCLE
  8
PMR
 10
116.08029
 20
95.738383
 30
0.0
 40
0.095
  0
CIRCLE
  8
PMR
 10
116.08029
 20
94.488383
 30
0.0
 40
0.095
  0
CIRCLE
  8
PMR
 10
116.08029
 20
96.863383
 30
0.0
 40
0.095
  0
CIRCLE
  8
PMR
 10
116.08029
 20
97.488383
 30
0.0
 40
0.095
  0
CIRCLE
  8
PMR
 10
116.08029
 20
96.238383
 30
0.0
 40
0.095
  0
CIRCLE
  8
PMR
 10
116.08029
 20
98.613383
 30
0.0
 40
0.095
  0
CIRCLE
  8
PMR
 10
116.08029
 20
99.238383
 30
0.0
 40
0.095
  0
CIRCLE
  8
PMR
 10
116.08029
 20
97.988383
 30
0.0
 40
0.095
  0
CIRCLE
  8
PMR
 10
116.08029
 20
100.363383
 30
0.0
 40
0.095
  0
CIRCLE
  8
PMR
 10
116.08029
 20
100.988383
 30
0.0
 40
0.095
  0
CIRCLE
  8
PMR
 10
116.08029
 20
99.738383
 30
0.0
 40
0.095
  0
CIRCLE
  8
PMR
 10
116.08029
 20
102.113383
 30
0.0
 40
0.095
  0
CIRCLE
  8
PMR
 10
116.08029
 20
102.738383
 30
0.0
 40
0.095
  0
CIRCLE
  8
PMR
 10
116.08029
 20
101.488383
 30
0.0
 40
0.095
  0
CIRCLE
  8
PMR
 10
116.08029
 20
103.238383
 30
0.0
 40
0.095
  0
CIRCLE
  8
PMR
 10
134.39229
 20
131.863383
 30
0.0
 40
0.095
  0
TEXT
  8
DIM
 10
623.445949
 20
108.835018
 30
0.0
 40
1.25
  1

  0
TEXT
  8
DIM
 10
624.508449
 20
104.74126
 30
0.0
 40
1.0
  1

  0
TEXT
  8
DIM
 10
787.445949
 20
108.835018
 30
0.0
 40
1.25
  1

  0
TEXT
  8
DIM
 10
788.508449
 20
104.74126
 30
0.0
 40
1.0
  1

  0
TEXT
  8
OBJECT
 10
789.365192
 20
155.437917
 30
0.0
 40
1.25
  1

  0
TEXT
  8
DIM
 10
787.445949
 20
108.835018
 30
0.0
 40
1.25
  1

  0
TEXT
  8
DIM
 10
788.508449
 20
104.74126
 30
0.0
 40
1.0
  1

  0
TEXT
  8
OBJECT
 10
789.365192
 20
155.437917
 30
0.0
 40
1.25
  1

  0
TEXT
  8
DIM
 10
805.413326
 20
293.759395
 30
0.0
 40
0.72
  1

  0
TEXT
  8
DIM
 10
741.877449
 20
270.884129
 30
0.0
 40
0.72
  1

  0
TEXT
  8
DIM
 10
892.78977
 20
221.762391
 30
0.0
 40
0.72
  1

  0
TEXT
  8
DIM
 10
829.253894
 20
198.887126
 30
0.0
 40
0.72
  1

  0
TEXT
  8
DIM
 10
795.443126
 20
307.374357
 30
0.0
 40
0.72
  1

  0
TEXT
  8
DIM
 10
731.90725
 20
284.499092
 30
0.0
 40
0.72
  1

  0
TEXT
  8
DIM
 10
731.90725
 20
324.499092
 30
0.0
 40
0.72
  1

  0
TEXT
  8
DIM
 10
793.40725
 20
324.499092
 30
0.0
 40
0.72
  1

  0
LINE
  8
OBJECT
 10
25.830039
 20
75.066901
 30
0.0
 11
25.830039
 21
79.201459
 31
0.0
  0
LINE
  8
OBJECT
 10
44.955039
 20
150.378901
 30
0.0
 11
44.955039
 21
75.066901
 31
0.0
  0
LINE
  8
OBJECT
 10
44.955039
 20
77.691901
 30
0.0
 11
25.830039
 21
77.691901
 31
0.0
  0
LINE
  8
OBJECT
 10
25.829039
 20
147.753901
 30
0.0
 11
44.955039
 21
147.753901
 31
0.0
  0
LINE
  8
OBJECT
 10
25.681539
 20
141.863901
 30
0.0
 11
25.789539
 21
141.863901
 31
0.0
  0
ARC
  8
OBJECT
 10
25.39929
 20
142.192149
 30
0.0
 40
0.509942
 50
319.931907
 51
354.683658
  0
ARC
  8
OBJECT
 10
26.071787
 20
142.192149
 30
0.0
 40
0.509942
 50
185.316342
 51
220.068093
  0
LINE
  8
OBJECT
 10
25.564039
 20
142.144901
 30
0.0
 11
25.564039
 21
143.644401
 31
0.0
  0
LINE
  8
OBJECT
 10
25.907039
 20
142.144901
 30
0.0
 11
25.564039
 21
142.144901
 31
0.0
  0
LINE
  8
OBJECT
 10
25.564039
 20
79.427151
 30
0.0
 11
25.564039
 21
80.926651
 31
0.0
  0
LINE
  8
OBJECT
 10
25.681539
 20
79.146151
 30
0.0
 11
25.789539
 21
79.146151
 31
0.0
  0
ARC
  8
OBJECT
 10
25.39929
 20
79.474399
 30
0.0
 40
0.509942
 50
319.931907
 51
354.683658
  0
ARC
  8
OBJECT
 10
26.071787
 20
79.474399
 30
0.0
 40
0.509942
 50
185.316342
 51
220.068093
  0
LINE
  8
OBJECT
 10
25.907039
 20
79.427151
 30
0.0
 11
25.564039
 21
79.427151
 31
0.0
  0
LINE
  8
OBJECT
 10
25.830039
 20
145.370843
 30
0.0
 11
25.830039
 21
150.378901
 31
0.0
  0
LINE
  8
OBJECT
 10
25.830039
 20
82.652843
 30
0.0
 11
25.830039
 21
141.919209
 31
0.0
  0
LINE
  8
OBJECT
 10
25.564039
 20
143.644651
 30
0.0
 11
25.564039
 21
145.145151
 31
0.0
  0
LINE
  8
OBJECT
 10
25.907039
 20
147.692151
 30
0.0
 11
25.907039
 21
77.754651
 31
0.0
  0
LINE
  8
OBJECT
 10
44.845039
 20
77.754651
 30
0.0
 11
44.845039
 21
147.692151
 31
0.0
  0
LINE
  8
OBJECT
 10
25.907039
 20
77.754651
 30
0.0
 11
44.845039
 21
77.754651
 31
0.0
  0
LINE
  8
OBJECT
 10
25.564039
 20
80.926651
 30
0.0
 11
25.564039
 21
82.427151
 31
0.0
  0
LINE
  8
OBJECT
 10
25.564039
 20
80.926651
 30
0.0
 11
25.907039
 21
80.926651
 31
0.0
  0
ARC
  8
OBJECT
 10
26.071787
 20
82.379902
 30
0.0
 40
0.509942
 50
139.931907
 51
174.683658
  0
LINE
  8
OBJECT
 10
25.564039
 20
82.427151
 30
0.0
 11
25.907039
 21
82.427151
 31
0.0
  0
ARC
  8
OBJECT
 10
25.39929
 20
82.379902
 30
0.0
 40
0.509942
 50
5.316342
 51
40.068093
  0
LINE
  8
OBJECT
 10
25.681539
 20
82.708151
 30
0.0
 11
25.789539
 21
82.708151
 31
0.0
  0
LINE
  8
OBJECT
 10
25.564039
 20
143.644651
 30
0.0
 11
25.907039
 21
143.644651
 31
0.0
  0
LINE
  8
OBJECT
 10
44.845039
 20
147.692151
 30
0.0
 11
25.907039
 21
147.692151
 31
0.0
  0
LINE
  8
OBJECT
 10
25.564039
 20
145.145151
 30
0.0
 11
25.907039
 21
145.145151
 31
0.0
  0
ARC
  8
OBJECT
 10
26.071787
 20
145.097902
 30
0.0
 40
0.509942
 50
139.931907
 51
174.683658
  0
LINE
  8
OBJECT
 10
25.681539
 20
145.426151
 30
0.0
 11
25.789539
 21
145.426151
 31
0.0
  0
ARC
  8
OBJECT
 10
25.39929
 20
145.097902
 30
0.0
 40
0.509942
 50
5.316342
 51
40.068093
  0
CIRCLE
  8
PMR
 10
116.08029
 20
109.113383
 30
0.0
 40
0.095
  0
CIRCLE
  8
PMR
 10
116.08029
 20
109.738383
 30
0.0
 40
0.095
  0
CIRCLE
  8
PMR
 10
116.08029
 20
110.238383
 30
0.0
 40
0.095
  0
CIRCLE
  8
PMR
 10
116.08029
 20
111.988383
 30
0.0
 40
0.095
  0
CIRCLE
  8
PMR
 10
116.08029
 20
110.863383
 30
0.0
 40
0.095
  0
CIRCLE
  8
PMR
 10
116.08029
 20
111.488383
 30
0.0
 40
0.095
  0
CIRCLE
  8
PMR
 10
134.39229
 20
131.238383
 30
0.0
 40
0.095
  0
CIRCLE
  8
PMR
 10
134.39229
 20
109.738383
 30
0.0
 40
0.095
  0
CIRCLE
  8
PMR
 10
134.39229
 20
109.113383
 30
0.0
 40
0.095
  0
CIRCLE
  8
PMR
 10
134.39229
 20
110.238383
 30
0.0
 40
0.095
  0
CIRCLE
  8
PMR
 10
134.39229
 20
130.738383
 30
0.0
 40
0.095
  0
CIRCLE
  8
PMR
 10
134.39229
 20
130.113383
 30
0.0
 40
0.095
  0
CIRCLE
  8
PMR
 10
134.39229
 20
111.988383
 30
0.0
 40
0.095
  0
CIRCLE
  8
PMR
 10
134.39229
 20
110.863383
 30
0.0
 40
0.095
  0
CIRCLE
  8
PMR
 10
134.39229
 20
111.488383
 30
0.0
 40
0.095
  0
CIRCLE
  8
PMR
 10
116.08029
 20
108.488383
 30
0.0
 40
0.095
  0
CIRCLE
  8
PMR
 10
116.08029
 20
103.863383
 30
0.0
 40
0.095
  0
CIRCLE
  8
PMR
 10
116.08029
 20
104.488383
 30
0.0
 40
0.095
  0
CIRCLE
  8
PMR
 10
116.08029
 20
104.988383
 30
0.0
 40
0.095
  0
CIRCLE
  8
PMR
 10
116.08029
 20
107.363383
 30
0.0
 40
0.095
  0
CIRCLE
  8
PMR
 10
116.08029
 20
107.988383
 30
0.0
 40
0.095
  0
CIRCLE
  8
PMR
 10
116.08029
 20
106.738383
 30
0.0
 40
0.095
  0
CIRCLE
  8
PMR
 10
116.08029
 20
105.613383
 30
0.0
 40
0.095
  0
CIRCLE
  8
PMR
 10
116.08029
 20
106.238383
 30
0.0
 40
0.095
  0
CIRCLE
  8
PMR
 10
134.39229
 20
108.488383
 30
0.0
 40
0.095
  0
CIRCLE
  8
PMR
 10
134.39229
 20
104.488383
 30
0.0
 40
0.095
  0
ARC
  8
PMR
 10
134.39229
 20
103.863383
 30
0.0
 40
0.095
 50
44.655209
 51
205.922734
  0
CIRCLE
  8
PMR
 10
134.39229
 20
104.988383
 30
0.0
 40
0.095
  0
CIRCLE
  8
PMR
 10
134.39229
 20
107.988383
 30
0.0
 40
0.095
  0
CIRCLE
  8
PMR
 10
134.39229
 20
107.363383
 30
0.0
 40
0.095
  0
CIRCLE
  8
PMR
 10
134.39229
 20
106.738383
 30
0.0
 40
0.095
  0
CIRCLE
  8
PMR
 10
134.39229
 20
105.613383
 30
0.0
 40
0.095
  0
CIRCLE
  8
PMR
 10
134.39229
 20
106.238383
 30
0.0
 40
0.095
  0
TEXT
  8
DIM
 10
397.945949
 20
108.835018
 30
0.0
 40
1.25
  1

  0
TEXT
  8
DIM
 10
399.008449
 20
104.74126
 30
0.0
 40
1.0
  1

  0
TEXT
  8
DIM
 10
561.945949
 20
108.835018
 30
0.0
 40
1.25
  1

  0
TEXT
  8
DIM
 10
563.008449
 20
104.74126
 30
0.0
 40
1.0
  1

  0
TEXT
  8
OBJECT
 10
563.865192
 20
155.437917
 30
0.0
 40
1.25
  1

  0
TEXT
  8
DIM
 10
561.945949
 20
108.835018
 30
0.0
 40
1.25
  1

  0
TEXT
  8
DIM
 10
563.008449
 20
104.74126
 30
0.0
 40
1.0
  1

  0
TEXT
  8
OBJECT
 10
563.865192
 20
155.437917
 30
0.0
 40
1.25
  1

  0
TEXT
  8
DIM
 10
579.913326
 20
293.759395
 30
0.0
 40
0.72
  1

  0
TEXT
  8
DIM
 10
516.377449
 20
270.884129
 30
0.0
 40
0.72
  1

  0
TEXT
  8
DIM
 10
667.28977
 20
221.762391
 30
0.0
 40
0.72
  1

  0
TEXT
  8
DIM
 10
603.753894
 20
198.887126
 30
0.0
 40
0.72
  1

  0
TEXT
  8
DIM
 10
569.943126
 20
307.374357
 30
0.0
 40
0.72
  1

  0
TEXT
  8
DIM
 10
506.40725
 20
284.499092
 30
0.0
 40
0.72
  1

  0
TEXT
  8
DIM
 10
506.40725
 20
324.499092
 30
0.0
 40
0.72
  1

  0
TEXT
  8
DIM
 10
567.90725
 20
324.499092
 30
0.0
 40
0.72
  1

  0
CIRCLE
  8
OBJECT
 10
43.720039
 20
112.722901
 30
0.0
 40
0.3175
  0
CIRCLE
  8
OBJECT
 10
43.720039
 20
112.722901
 30
0.0
 40
0.453125
  0
LINE
  8
OBJECT
 10
43.675039
 20
112.470401
 30
0.0
 11
43.765039
 21
112.470401
 31
0.0
  0
LINE
  8
OBJECT
 10
43.675039
 20
112.860401
 30
0.0
 11
43.765039
 21
112.860401
 31
0.0
  0
LINE
  8
OBJECT
 10
43.675039
 20
112.860401
 30
0.0
 11
43.675039
 21
112.470401
 31
0.0
  0
LINE
  8
OBJECT
 10
43.765039
 20
112.860401
 30
0.0
 11
43.765039
 21
112.470401
 31
0.0
  0
ARC
  8
OBJECT
 10
43.720039
 20
112.722901
 30
0.0
 40
0.125
 50
291.100196
 51
68.899804
  0
ARC
  8
OBJECT
 10
43.720039
 20
112.722901
 30
0.0
 40
0.125
 50
111.100196
 51
248.899804
  0
CIRCLE
  8
PMR
 10
116.08029
 20
112.613383
 30
0.0
 40
0.095
  0
CIRCLE
  8
PMR
 10
134.39229
 20
112.613383
 30
0.0
 40
0.095
  0
CIRCLE
  8
PMR
 10
116.08029
 20
114.363383
 30
0.0
 40
0.095
  0
CIRCLE
  8
PMR
 10
116.08029
 20
113.738383
 30
0.0
 40
0.095
  0
CIRCLE
  8
PMR
 10
116.08029
 20
113.238383
 30
0.0
 40
0.095
  0
CIRCLE
  8
PMR
 10
134.39229
 20
127.738383
 30
0.0
 40
0.095
  0
CIRCLE
  8
PMR
 10
134.39229
 20
124.238383
 30
0.0
 40
0.095
  0
CIRCLE
  8
PMR
 10
134.39229
 20
123.738383
 30
0.0
 40
0.095
  0
CIRCLE
  8
PMR
 10
134.39229
 20
114.363383
 30
0.0
 40
0.095
  0
CIRCLE
  8
PMR
 10
134.39229
 20
113.738383
 30
0.0
 40
0.095
  0
CIRCLE
  8
PMR
 10
134.39229
 20
113.238383
 30
0.0
 40
0.095
  0
CIRCLE
  8
PMR
 10
134.39229
 20
127.238383
 30
0.0
 40
0.095
  0
CIRCLE
  8
PMR
 10
134.39229
 20
124.863383
 30
0.0
 40
0.095
  0
CIRCLE
  8
PMR
 10
134.39229
 20
125.488383
 30
0.0
 40
0.095
  0
CIRCLE
  8
PMR
 10
134.39229
 20
125.988383
 30
0.0
 40
0.095
  0
CIRCLE
  8
PMR
 10
134.39229
 20
126.613383
 30
0.0
 40
0.095
  0
CIRCLE
  8
PMR
 10
134.39229
 20
128.988383
 30
0.0
 40
0.095
  0
CIRCLE
  8
PMR
 10
134.39229
 20
128.363383
 30
0.0
 40
0.095
  0
CIRCLE
  8
PMR
 10
134.39229
 20
129.488383
 30
0.0
 40
0.095
  0
CIRCLE
  8
PMR
 10
116.08029
 20
116.113383
 30
0.0
 40
0.095
  0
CIRCLE
  8
PMR
 10
116.08029
 20
116.738383
 30
0.0
 40
0.095
  0
CIRCLE
  8
PMR
 10
116.08029
 20
117.238383
 30
0.0
 40
0.095
  0
CIRCLE
  8
PMR
 10
116.08029
 20
117.863383
 30
0.0
 40
0.095
  0
CIRCLE
  8
PMR
 10
116.08029
 20
114.988383
 30
0.0
 40
0.095
  0
CIRCLE
  8
PMR
 10
116.08029
 20
115.488383
 30
0.0
 40
0.095
  0
CIRCLE
  8
PMR
 10
116.08029
 20
119.613383
 30
0.0
 40
0.095
  0
CIRCLE
  8
PMR
 10
116.08029
 20
120.238383
 30
0.0
 40
0.095
  0
CIRCLE
  8
PMR
 10
116.08029
 20
118.988383
 30
0.0
 40
0.095
  0
CIRCLE
  8
PMR
 10
116.08029
 20
118.488383
 30
0.0
 40
0.095
  0
CIRCLE
  8
PMR
 10
134.39229
 20
116.113383
 30
0.0
 40
0.095
  0
CIRCLE
  8
PMR
 10
134.39229
 20
116.738383
 30
0.0
 40
0.095
  0
CIRCLE
  8
PMR
 10
134.39229
 20
117.238383
 30
0.0
 40
0.095
  0
CIRCLE
  8
PMR
 10
134.39229
 20
117.863383
 30
0.0
 40
0.095
  0
CIRCLE
  8
PMR
 10
134.39229
 20
114.988383
 30
0.0
 40
0.095
  0
CIRCLE
  8
PMR
 10
134.39229
 20
115.488383
 30
0.0
 40
0.095
  0
CIRCLE
  8
PMR
 10
134.39229
 20
119.613383
 30
0.0
 40
0.095
  0
CIRCLE
  8
PMR
 10
134.39229
 20
121.363383
 30
0.0
 40
0.095
  0
CIRCLE
  8
PMR
 10
134.39229
 20
120.238383
 30
0.0
 40
0.095
  0
CIRCLE
  8
PMR
 10
134.39229
 20
120.738383
 30
0.0
 40
0.095
  0
CIRCLE
  8
PMR
 10
134.39229
 20
118.988383
 30
0.0
 40
0.095
  0
CIRCLE
  8
PMR
 10
134.39229
 20
118.488383
 30
0.0
 40
0.095
  0
CIRCLE
  8
PMR
 10
134.39229
 20
123.113383
 30
0.0
 40
0.095
  0
CIRCLE
  8
PMR
 10
134.39229
 20
121.988383
 30
0.0
 40
0.095
  0
CIRCLE
  8
PMR
 10
134.39229
 20
122.488383
 30
0.0
 40
0.095
  0
TEXT
  8
DIM
 10
459.445949
 20
108.835018
 30
0.0
 40
1.25
  1

  0
TEXT
  8
DIM
 10
460.508449
 20
104.74126
 30
0.0
 40
1.0
  1

  0
TEXT
  8
DIM
 10
623.445949
 20
108.835018
 30
0.0
 40
1.25
  1

  0
TEXT
  8
DIM
 10
624.508449
 20
104.74126
 30
0.0
 40
1.0
  1

  0
TEXT
  8
OBJECT
 10
625.365192
 20
155.437917
 30
0.0
 40
1.25
  1

  0
TEXT
  8
DIM
 10
623.445949
 20
108.835018
 30
0.0
 40
1.25
  1

  0
TEXT
  8
DIM
 10
624.508449
 20
104.74126
 30
0.0
 40
1.0
  1

  0
TEXT
  8
OBJECT
 10
625.365192
 20
155.437917
 30
0.0
 40
1.25
  1

  0
TEXT
  8
DIM
 10
641.413326
 20
293.759395
 30
0.0
 40
0.72
  1

  0
TEXT
  8
DIM
 10
577.877449
 20
270.884129
 30
0.0
 40
0.72
  1

  0
TEXT
  8
DIM
 10
728.78977
 20
221.762391
 30
0.0
 40
0.72
  1

  0
TEXT
  8
DIM
 10
665.253894
 20
198.887126
 30
0.0
 40
0.72
  1

  0
TEXT
  8
DIM
 10
631.443126
 20
307.374357
 30
0.0
 40
0.72
  1

  0
TEXT
  8
DIM
 10
567.90725
 20
284.499092
 30
0.0
 40
0.72
  1

  0
TEXT
  8
DIM
 10
567.90725
 20
324.499092
 30
0.0
 40
0.72
  1

  0
TEXT
  8
DIM
 10
629.40725
 20
324.499092
 30
0.0
 40
0.72
  1

  0
TEXT
  8
DIM
 10
459.445949
 20
108.835018
 30
0.0
 40
1.25
  1

  0
TEXT
  8
DIM
 10
460.508449
 20
104.74126
 30
0.0
 40
1.0
  1

  0
TEXT
  8
OBJECT
 10
461.365192
 20
155.437917
 30
0.0
 40
1.25
  1

  0
TEXT
  8
DIM
 10
664.445949
 20
108.835018
 30
0.0
 40
1.25
  1

  0
TEXT
  8
DIM
 10
665.508449
 20
104.74126
 30
0.0
 40
1.0
  1

  0
TEXT
  8
OBJECT
 10
666.365192
 20
155.437917
 30
0.0
 40
1.25
  1

  0
TEXT
  8
DIM
 10
869.445949
 20
108.835018
 30
0.0
 40
1.25
  1

  0
TEXT
  8
DIM
 10
870.508449
 20
104.74126
 30
0.0
 40
1.0
  1

  0
TEXT
  8
DIM
 10
1033.445949
 20
108.835018
 30
0.0
 40
1.25
  1

  0
TEXT
  8
DIM
 10
1034.508449
 20
104.74126
 30
0.0
 40
1.0
  1

  0
TEXT
  8
OBJECT
 10
1035.365192
 20
155.437917
 30
0.0
 40
1.25
  1

  0
TEXT
  8
DIM
 10
1033.445949
 20
108.835018
 30
0.0
 40
1.25
  1

  0
TEXT
  8
DIM
 10
1034.508449
 20
104.74126
 30
0.0
 40
1.0
  1

  0
TEXT
  8
OBJECT
 10
1035.365192
 20
155.437917
 30
0.0
 40
1.25
  1

  0
TEXT
  8
DIM
 10
1051.413326
 20
293.759395
 30
0.0
 40
0.72
  1

  0
TEXT
  8
DIM
 10
987.877449
 20
270.884129
 30
0.0
 40
0.72
  1

  0
TEXT
  8
DIM
 10
1138.78977
 20
221.762391
 30
0.0
 40
0.72
  1

  0
TEXT
  8
DIM
 10
1075.253894
 20
198.887126
 30
0.0
 40
0.72
  1

  0
TEXT
  8
DIM
 10
1041.443126
 20
307.374357
 30
0.0
 40
0.72
  1

  0
TEXT
  8
DIM
 10
977.90725
 20
284.499092
 30
0.0
 40
0.72
  1

  0
TEXT
  8
DIM
 10
977.90725
 20
324.499092
 30
0.0
 40
0.72
  1

  0
TEXT
  8
DIM
 10
1039.40725
 20
324.499092
 30
0.0
 40
0.72
  1

  0
TEXT
  8
DIM
 10
664.445949
 20
108.835018
 30
0.0
 40
1.25
  1

  0
TEXT
  8
DIM
 10
665.508449
 20
104.74126
 30
0.0
 40
1.0
  1

  0
TEXT
  8
OBJECT
 10
666.365192
 20
155.437917
 30
0.0
 40
1.25
  1

  0
TEXT
  8
DIM
 10
869.445949
 20
108.835018
 30
0.0
 40
1.25
  1

  0
TEXT
  8
DIM
 10
870.508449
 20
104.74126
 30
0.0
 40
1.0
  1

  0
TEXT
  8
DIM
 10
1033.445949
 20
108.835018
 30
0.0
 40
1.25
  1

  0
TEXT
  8
DIM
 10
1034.508449
 20
104.74126
 30
0.0
 40
1.0
  1

  0
TEXT
  8
OBJECT
 10
1035.365192
 20
155.437917
 30
0.0
 40
1.25
  1

  0
TEXT
  8
DIM
 10
1033.445949
 20
108.835018
 30
0.0
 40
1.25
  1

  0
TEXT
  8
DIM
 10
1034.508449
 20
104.74126
 30
0.0
 40
1.0
  1

  0
TEXT
  8
OBJECT
 10
1035.365192
 20
155.437917
 30
0.0
 40
1.25
  1

  0
TEXT
  8
DIM
 10
1051.413326
 20
293.759395
 30
0.0
 40
0.72
  1

  0
TEXT
  8
DIM
 10
987.877449
 20
270.884129
 30
0.0
 40
0.72
  1

  0
TEXT
  8
DIM
 10
1138.78977
 20
221.762391
 30
0.0
 40
0.72
  1

  0
TEXT
  8
DIM
 10
1075.253894
 20
198.887126
 30
0.0
 40
0.72
  1

  0
TEXT
  8
DIM
 10
1041.443126
 20
307.374357
 30
0.0
 40
0.72
  1

  0
TEXT
  8
DIM
 10
977.90725
 20
284.499092
 30
0.0
 40
0.72
  1

  0
TEXT
  8
DIM
 10
977.90725
 20
324.499092
 30
0.0
 40
0.72
  1

  0
TEXT
  8
DIM
 10
1039.40725
 20
324.499092
 30
0.0
 40
0.72
  1

  0
TEXT
  8
DIM
 10
643.945949
 20
108.835018
 30
0.0
 40
1.25
  1

  0
TEXT
  8
DIM
 10
645.008449
 20
104.74126
 30
0.0
 40
1.0
  1

  0
TEXT
  8
DIM
 10
807.945949
 20
108.835018
 30
0.0
 40
1.25
  1

  0
TEXT
  8
DIM
 10
809.008449
 20
104.74126
 30
0.0
 40
1.0
  1

  0
TEXT
  8
OBJECT
 10
809.865192
 20
155.437917
 30
0.0
 40
1.25
  1

  0
TEXT
  8
DIM
 10
807.945949
 20
108.835018
 30
0.0
 40
1.25
  1

  0
TEXT
  8
DIM
 10
809.008449
 20
104.74126
 30
0.0
 40
1.0
  1

  0
TEXT
  8
OBJECT
 10
809.865192
 20
155.437917
 30
0.0
 40
1.25
  1

  0
TEXT
  8
DIM
 10
825.913326
 20
293.759395
 30
0.0
 40
0.72
  1

  0
TEXT
  8
DIM
 10
762.377449
 20
270.884129
 30
0.0
 40
0.72
  1

  0
TEXT
  8
DIM
 10
913.28977
 20
221.762391
 30
0.0
 40
0.72
  1

  0
TEXT
  8
DIM
 10
849.753894
 20
198.887126
 30
0.0
 40
0.72
  1

  0
TEXT
  8
DIM
 10
815.943126
 20
307.374357
 30
0.0
 40
0.72
  1

  0
TEXT
  8
DIM
 10
752.40725
 20
284.499092
 30
0.0
 40
0.72
  1

  0
TEXT
  8
DIM
 10
752.40725
 20
324.499092
 30
0.0
 40
0.72
  1

  0
TEXT
  8
DIM
 10
813.90725
 20
324.499092
 30
0.0
 40
0.72
  1

  0
TEXT
  8
DIM
 10
664.445949
 20
108.835018
 30
0.0
 40
1.25
  1

  0
TEXT
  8
DIM
 10
665.508449
 20
104.74126
 30
0.0
 40
1.0
  1

  0
TEXT
  8
DIM
 10
828.445949
 20
108.835018
 30
0.0
 40
1.25
  1

  0
TEXT
  8
DIM
 10
829.508449
 20
104.74126
 30
0.0
 40
1.0
  1

  0
TEXT
  8
OBJECT
 10
830.365192
 20
155.437917
 30
0.0
 40
1.25
  1

  0
TEXT
  8
DIM
 10
828.445949
 20
108.835018
 30
0.0
 40
1.25
  1

  0
TEXT
  8
DIM
 10
829.508449
 20
104.74126
 30
0.0
 40
1.0
  1

  0
TEXT
  8
OBJECT
 10
830.365192
 20
155.437917
 30
0.0
 40
1.25
  1

  0
TEXT
  8
DIM
 10
846.413326
 20
293.759395
 30
0.0
 40
0.72
  1

  0
TEXT
  8
DIM
 10
782.877449
 20
270.884129
 30
0.0
 40
0.72
  1

  0
TEXT
  8
DIM
 10
933.78977
 20
221.762391
 30
0.0
 40
0.72
  1

  0
TEXT
  8
DIM
 10
870.253894
 20
198.887126
 30
0.0
 40
0.72
  1

  0
TEXT
  8
DIM
 10
836.443126
 20
307.374357
 30
0.0
 40
0.72
  1

  0
TEXT
  8
DIM
 10
772.90725
 20
284.499092
 30
0.0
 40
0.72
  1

  0
TEXT
  8
DIM
 10
772.90725
 20
324.499092
 30
0.0
 40
0.72
  1

  0
TEXT
  8
DIM
 10
834.40725
 20
324.499092
 30
0.0
 40
0.72
  1

  0
TEXT
  8
DIM
 10
684.945949
 20
108.835018
 30
0.0
 40
1.25
  1

  0
TEXT
  8
DIM
 10
686.008449
 20
104.74126
 30
0.0
 40
1.0
  1

  0
TEXT
  8
OBJECT
 10
686.865192
 20
155.437917
 30
0.0
 40
1.25
  1

  0
TEXT
  8
DIM
 10
889.945949
 20
108.835018
 30
0.0
 40
1.25
  1

  0
TEXT
  8
DIM
 10
891.008449
 20
104.74126
 30
0.0
 40
1.0
  1

  0
TEXT
  8
OBJECT
 10
891.865192
 20
155.437917
 30
0.0
 40
1.25
  1

  0
TEXT
  8
DIM
 10
1094.945949
 20
108.835018
 30
0.0
 40
1.25
  1

  0
TEXT
  8
DIM
 10
1096.008449
 20
104.74126
 30
0.0
 40
1.0
  1

  0
TEXT
  8
DIM
 10
1258.945949
 20
108.835018
 30
0.0
 40
1.25
  1

  0
TEXT
  8
DIM
 10
1260.008449
 20
104.74126
 30
0.0
 40
1.0
  1

  0
TEXT
  8
OBJECT
 10
1260.865192
 20
155.437917
 30
0.0
 40
1.25
  1

  0
TEXT
  8
DIM
 10
1258.945949
 20
108.835018
 30
0.0
 40
1.25
  1

  0
TEXT
  8
DIM
 10
1260.008449
 20
104.74126
 30
0.0
 40
1.0
  1

  0
TEXT
  8
OBJECT
 10
1260.865192
 20
155.437917
 30
0.0
 40
1.25
  1

  0
TEXT
  8
DIM
 10
1276.913326
 20
293.759395
 30
0.0
 40
0.72
  1

  0
TEXT
  8
DIM
 10
1213.377449
 20
270.884129
 30
0.0
 40
0.72
  1

  0
TEXT
  8
DIM
 10
1364.28977
 20
221.762391
 30
0.0
 40
0.72
  1

  0
TEXT
  8
DIM
 10
1300.753894
 20
198.887126
 30
0.0
 40
0.72
  1

  0
TEXT
  8
DIM
 10
1266.943126
 20
307.374357
 30
0.0
 40
0.72
  1

  0
TEXT
  8
DIM
 10
1203.40725
 20
284.499092
 30
0.0
 40
0.72
  1

  0
TEXT
  8
DIM
 10
1203.40725
 20
324.499092
 30
0.0
 40
0.72
  1

  0
TEXT
  8
DIM
 10
1264.90725
 20
324.499092
 30
0.0
 40
0.72
  1

  0
TEXT
  8
DIM
 10
889.945949
 20
108.835018
 30
0.0
 40
1.25
  1

  0
TEXT
  8
DIM
 10
891.008449
 20
104.74126
 30
0.0
 40
1.0
  1

  0
TEXT
  8
OBJECT
 10
891.865192
 20
155.437917
 30
0.0
 40
1.25
  1

  0
TEXT
  8
DIM
 10
1094.945949
 20
108.835018
 30
0.0
 40
1.25
  1

  0
TEXT
  8
DIM
 10
1096.008449
 20
104.74126
 30
0.0
 40
1.0
  1

  0
TEXT
  8
DIM
 10
1258.945949
 20
108.835018
 30
0.0
 40
1.25
  1

  0
TEXT
  8
DIM
 10
1260.008449
 20
104.74126
 30
0.0
 40
1.0
  1

  0
TEXT
  8
OBJECT
 10
1260.865192
 20
155.437917
 30
0.0
 40
1.25
  1

  0
TEXT
  8
DIM
 10
1258.945949
 20
108.835018
 30
0.0
 40
1.25
  1

  0
TEXT
  8
DIM
 10
1260.008449
 20
104.74126
 30
0.0
 40
1.0
  1

  0
TEXT
  8
OBJECT
 10
1260.865192
 20
155.437917
 30
0.0
 40
1.25
  1

  0
TEXT
  8
DIM
 10
1276.913326
 20
293.759395
 30
0.0
 40
0.72
  1

  0
TEXT
  8
DIM
 10
1213.377449
 20
270.884129
 30
0.0
 40
0.72
  1

  0
TEXT
  8
DIM
 10
1364.28977
 20
221.762391
 30
0.0
 40
0.72
  1

  0
TEXT
  8
DIM
 10
1300.753894
 20
198.887126
 30
0.0
 40
0.72
  1

  0
TEXT
  8
DIM
 10
1266.943126
 20
307.374357
 30
0.0
 40
0.72
  1

  0
TEXT
  8
DIM
 10
1203.40725
 20
284.499092
 30
0.0
 40
0.72
  1

  0
TEXT
  8
DIM
 10
1203.40725
 20
324.499092
 30
0.0
 40
0.72
  1

  0
TEXT
  8
DIM
 10
1264.90725
 20
324.499092
 30
0.0
 40
0.72
  1

  0
TEXT
  8
DIM
 10
869.445949
 20
108.835018
 30
0.0
 40
1.25
  1

  0
TEXT
  8
DIM
 10
870.508449
 20
104.74126
 30
0.0
 40
1.0
  1

  0
TEXT
  8
DIM
 10
1033.445949
 20
108.835018
 30
0.0
 40
1.25
  1

  0
TEXT
  8
DIM
 10
1034.508449
 20
104.74126
 30
0.0
 40
1.0
  1

  0
TEXT
  8
OBJECT
 10
1035.365192
 20
155.437917
 30
0.0
 40
1.25
  1

  0
TEXT
  8
DIM
 10
1033.445949
 20
108.835018
 30
0.0
 40
1.25
  1

  0
TEXT
  8
DIM
 10
1034.508449
 20
104.74126
 30
0.0
 40
1.0
  1

  0
TEXT
  8
OBJECT
 10
1035.365192
 20
155.437917
 30
0.0
 40
1.25
  1

  0
TEXT
  8
DIM
 10
1051.413326
 20
293.759395
 30
0.0
 40
0.72
  1

  0
TEXT
  8
DIM
 10
987.877449
 20
270.884129
 30
0.0
 40
0.72
  1

  0
TEXT
  8
DIM
 10
1138.78977
 20
221.762391
 30
0.0
 40
0.72
  1

  0
TEXT
  8
DIM
 10
1075.253894
 20
198.887126
 30
0.0
 40
0.72
  1

  0
TEXT
  8
DIM
 10
1041.443126
 20
307.374357
 30
0.0
 40
0.72
  1

  0
TEXT
  8
DIM
 10
977.90725
 20
284.499092
 30
0.0
 40
0.72
  1

  0
TEXT
  8
DIM
 10
977.90725
 20
324.499092
 30
0.0
 40
0.72
  1

  0
TEXT
  8
DIM
 10
1039.40725
 20
324.499092
 30
0.0
 40
0.72
  1

  0
TEXT
  8
DIM
 10
889.945949
 20
108.835018
 30
0.0
 40
1.25
  1

  0
TEXT
  8
DIM
 10
891.008449
 20
104.74126
 30
0.0
 40
1.0
  1

  0
TEXT
  8
DIM
 10
1053.945949
 20
108.835018
 30
0.0
 40
1.25
  1

  0
TEXT
  8
DIM
 10
1055.008449
 20
104.74126
 30
0.0
 40
1.0
  1

  0
TEXT
  8
OBJECT
 10
1055.865192
 20
155.437917
 30
0.0
 40
1.25
  1

  0
TEXT
  8
DIM
 10
1053.945949
 20
108.835018
 30
0.0
 40
1.25
  1

  0
TEXT
  8
DIM
 10
1055.008449
 20
104.74126
 30
0.0
 40
1.0
  1

  0
TEXT
  8
OBJECT
 10
1055.865192
 20
155.437917
 30
0.0
 40
1.25
  1

  0
TEXT
  8
DIM
 10
1071.913326
 20
293.759395
 30
0.0
 40
0.72
  1

  0
TEXT
  8
DIM
 10
1008.377449
 20
270.884129
 30
0.0
 40
0.72
  1

  0
TEXT
  8
DIM
 10
1159.28977
 20
221.762391
 30
0.0
 40
0.72
  1

  0
TEXT
  8
DIM
 10
1095.753894
 20
198.887126
 30
0.0
 40
0.72
  1

  0
TEXT
  8
DIM
 10
1061.943126
 20
307.374357
 30
0.0
 40
0.72
  1

  0
TEXT
  8
DIM
 10
998.40725
 20
284.499092
 30
0.0
 40
0.72
  1

  0
TEXT
  8
DIM
 10
998.40725
 20
324.499092
 30
0.0
 40
0.72
  1

  0
TEXT
  8
DIM
 10
1059.90725
 20
324.499092
 30
0.0
 40
0.72
  1

  0
TEXT
  8
DIM
 10
889.945949
 20
108.835018
 30
0.0
 40
1.25
  1

  0
TEXT
  8
DIM
 10
891.008449
 20
104.74126
 30
0.0
 40
1.0
  1

  0
TEXT
  8
OBJECT
 10
891.865192
 20
155.437917
 30
0.0
 40
1.25
  1

  0
TEXT
  8
DIM
 10
1094.945949
 20
108.835018
 30
0.0
 40
1.25
  1

  0
TEXT
  8
DIM
 10
1096.008449
 20
104.74126
 30
0.0
 40
1.0
  1

  0
TEXT
  8
DIM
 10
1258.945949
 20
108.835018
 30
0.0
 40
1.25
  1

  0
TEXT
  8
DIM
 10
1260.008449
 20
104.74126
 30
0.0
 40
1.0
  1

  0
TEXT
  8
OBJECT
 10
1260.865192
 20
155.437917
 30
0.0
 40
1.25
  1

  0
TEXT
  8
DIM
 10
1258.945949
 20
108.835018
 30
0.0
 40
1.25
  1

  0
TEXT
  8
DIM
 10
1260.008449
 20
104.74126
 30
0.0
 40
1.0
  1

  0
TEXT
  8
OBJECT
 10
1260.865192
 20
155.437917
 30
0.0
 40
1.25
  1

  0
TEXT
  8
DIM
 10
1276.913326
 20
293.759395
 30
0.0
 40
0.72
  1

  0
TEXT
  8
DIM
 10
1213.377449
 20
270.884129
 30
0.0
 40
0.72
  1

  0
TEXT
  8
DIM
 10
1364.28977
 20
221.762391
 30
0.0
 40
0.72
  1

  0
TEXT
  8
DIM
 10
1300.753894
 20
198.887126
 30
0.0
 40
0.72
  1

  0
TEXT
  8
DIM
 10
1266.943126
 20
307.374357
 30
0.0
 40
0.72
  1

  0
TEXT
  8
DIM
 10
1203.40725
 20
284.499092
 30
0.0
 40
0.72
  1

  0
TEXT
  8
DIM
 10
1203.40725
 20
324.499092
 30
0.0
 40
0.72
  1

  0
TEXT
  8
DIM
 10
1264.90725
 20
324.499092
 30
0.0
 40
0.72
  1

  0
TEXT
  8
DIM
 10
1053.945949
 20
108.835018
 30
0.0
 40
1.25
  1

  0
TEXT
  8
DIM
 10
1055.008449
 20
104.74126
 30
0.0
 40
1.0
  1

  0
TEXT
  8
OBJECT
 10
1055.865192
 20
155.437917
 30
0.0
 40
1.25
  1

  0
TEXT
  8
DIM
 10
1258.945949
 20
108.835018
 30
0.0
 40
1.25
  1

  0
TEXT
  8
DIM
 10
1260.008449
 20
104.74126
 30
0.0
 40
1.0
  1

  0
TEXT
  8
OBJECT
 10
1260.865192
 20
155.437917
 30
0.0
 40
1.25
  1

  0
TEXT
  8
DIM
 10
1463.945949
 20
108.835018
 30
0.0
 40
1.25
  1

  0
TEXT
  8
DIM
 10
1465.008449
 20
104.74126
 30
0.0
 40
1.0
  1

  0
TEXT
  8
DIM
 10
1627.945949
 20
108.835018
 30
0.0
 40
1.25
  1

  0
TEXT
  8
DIM
 10
1629.008449
 20
104.74126
 30
0.0
 40
1.0
  1

  0
TEXT
  8
OBJECT
 10
1629.865192
 20
155.437917
 30
0.0
 40
1.25
  1

  0
TEXT
  8
DIM
 10
1627.945949
 20
108.835018
 30
0.0
 40
1.25
  1

  0
TEXT
  8
DIM
 10
1629.008449
 20
104.74126
 30
0.0
 40
1.0
  1

  0
TEXT
  8
OBJECT
 10
1629.865192
 20
155.437917
 30
0.0
 40
1.25
  1

  0
TEXT
  8
DIM
 10
1645.913326
 20
293.759395
 30
0.0
 40
0.72
  1

  0
TEXT
  8
DIM
 10
1582.377449
 20
270.884129
 30
0.0
 40
0.72
  1

  0
TEXT
  8
DIM
 10
1733.28977
 20
221.762391
 30
0.0
 40
0.72
  1

  0
TEXT
  8
DIM
 10
1669.753894
 20
198.887126
 30
0.0
 40
0.72
  1

  0
TEXT
  8
DIM
 10
1635.943126
 20
307.374357
 30
0.0
 40
0.72
  1

  0
TEXT
  8
DIM
 10
1572.40725
 20
284.499092
 30
0.0
 40
0.72
  1

  0
TEXT
  8
DIM
 10
1572.40725
 20
324.499092
 30
0.0
 40
0.72
  1

  0
TEXT
  8
DIM
 10
1633.90725
 20
324.499092
 30
0.0
 40
0.72
  1

  0
TEXT
  8
DIM
 10
1258.945949
 20
108.835018
 30
0.0
 40
1.25
  1

  0
TEXT
  8
DIM
 10
1260.008449
 20
104.74126
 30
0.0
 40
1.0
  1

  0
TEXT
  8
OBJECT
 10
1260.865192
 20
155.437917
 30
0.0
 40
1.25
  1

  0
TEXT
  8
DIM
 10
1463.945949
 20
108.835018
 30
0.0
 40
1.25
  1

  0
TEXT
  8
DIM
 10
1465.008449
 20
104.74126
 30
0.0
 40
1.0
  1

  0
TEXT
  8
DIM
 10
1627.945949
 20
108.835018
 30
0.0
 40
1.25
  1

  0
TEXT
  8
DIM
 10
1629.008449
 20
104.74126
 30
0.0
 40
1.0
  1

  0
TEXT
  8
OBJECT
 10
1629.865192
 20
155.437917
 30
0.0
 40
1.25
  1

  0
TEXT
  8
DIM
 10
1627.945949
 20
108.835018
 30
0.0
 40
1.25
  1

  0
TEXT
  8
DIM
 10
1629.008449
 20
104.74126
 30
0.0
 40
1.0
  1

  0
TEXT
  8
OBJECT
 10
1629.865192
 20
155.437917
 30
0.0
 40
1.25
  1

  0
TEXT
  8
DIM
 10
1645.913326
 20
293.759395
 30
0.0
 40
0.72
  1

  0
TEXT
  8
DIM
 10
1582.377449
 20
270.884129
 30
0.0
 40
0.72
  1

  0
TEXT
  8
DIM
 10
1733.28977
 20
221.762391
 30
0.0
 40
0.72
  1

  0
TEXT
  8
DIM
 10
1669.753894
 20
198.887126
 30
0.0
 40
0.72
  1

  0
TEXT
  8
DIM
 10
1635.943126
 20
307.374357
 30
0.0
 40
0.72
  1

  0
TEXT
  8
DIM
 10
1572.40725
 20
284.499092
 30
0.0
 40
0.72
  1

  0
TEXT
  8
DIM
 10
1572.40725
 20
324.499092
 30
0.0
 40
0.72
  1

  0
TEXT
  8
DIM
 10
1633.90725
 20
324.499092
 30
0.0
 40
0.72
  1

  0
TEXT
  8
DIM
 10
1238.445949
 20
108.835018
 30
0.0
 40
1.25
  1

  0
TEXT
  8
DIM
 10
1239.508449
 20
104.74126
 30
0.0
 40
1.0
  1

  0
TEXT
  8
DIM
 10
1402.445949
 20
108.835018
 30
0.0
 40
1.25
  1

  0
TEXT
  8
DIM
 10
1403.508449
 20
104.74126
 30
0.0
 40
1.0
  1

  0
TEXT
  8
OBJECT
 10
1404.365192
 20
155.437917
 30
0.0
 40
1.25
  1

  0
TEXT
  8
DIM
 10
1402.445949
 20
108.835018
 30
0.0
 40
1.25
  1

  0
TEXT
  8
DIM
 10
1403.508449
 20
104.74126
 30
0.0
 40
1.0
  1

  0
TEXT
  8
OBJECT
 10
1404.365192
 20
155.437917
 30
0.0
 40
1.25
  1

  0
TEXT
  8
DIM
 10
1420.413326
 20
293.759395
 30
0.0
 40
0.72
  1

  0
TEXT
  8
DIM
 10
1356.877449
 20
270.884129
 30
0.0
 40
0.72
  1

  0
TEXT
  8
DIM
 10
1507.78977
 20
221.762391
 30
0.0
 40
0.72
  1

  0
TEXT
  8
DIM
 10
1444.253894
 20
198.887126
 30
0.0
 40
0.72
  1

  0
TEXT
  8
DIM
 10
1410.443126
 20
307.374357
 30
0.0
 40
0.72
  1

  0
TEXT
  8
DIM
 10
1346.90725
 20
284.499092
 30
0.0
 40
0.72
  1

  0
TEXT
  8
DIM
 10
1346.90725
 20
324.499092
 30
0.0
 40
0.72
  1

  0
TEXT
  8
DIM
 10
1408.40725
 20
324.499092
 30
0.0
 40
0.72
  1

  0
TEXT
  8
DIM
 10
1053.945949
 20
108.835018
 30
0.0
 40
1.25
  1

  0
TEXT
  8
DIM
 10
1055.008449
 20
104.74126
 30
0.0
 40
1.0
  1

  0
TEXT
  8
DIM
 10
1217.945949
 20
108.835018
 30
0.0
 40
1.25
  1

  0
TEXT
  8
DIM
 10
1219.008449
 20
104.74126
 30
0.0
 40
1.0
  1

  0
TEXT
  8
OBJECT
 10
1219.865192
 20
155.437917
 30
0.0
 40
1.25
  1

  0
TEXT
  8
DIM
 10
1217.945949
 20
108.835018
 30
0.0
 40
1.25
  1

  0
TEXT
  8
DIM
 10
1219.008449
 20
104.74126
 30
0.0
 40
1.0
  1

  0
TEXT
  8
OBJECT
 10
1219.865192
 20
155.437917
 30
0.0
 40
1.25
  1

  0
TEXT
  8
DIM
 10
1235.913326
 20
293.759395
 30
0.0
 40
0.72
  1

  0
TEXT
  8
DIM
 10
1172.377449
 20
270.884129
 30
0.0
 40
0.72
  1

  0
TEXT
  8
DIM
 10
1323.28977
 20
221.762391
 30
0.0
 40
0.72
  1

  0
TEXT
  8
DIM
 10
1259.753894
 20
198.887126
 30
0.0
 40
0.72
  1

  0
TEXT
  8
DIM
 10
1225.943126
 20
307.374357
 30
0.0
 40
0.72
  1

  0
TEXT
  8
DIM
 10
1162.40725
 20
284.499092
 30
0.0
 40
0.72
  1

  0
TEXT
  8
DIM
 10
1162.40725
 20
324.499092
 30
0.0
 40
0.72
  1

  0
TEXT
  8
DIM
 10
1223.90725
 20
324.499092
 30
0.0
 40
0.72
  1

  0
TEXT
  8
DIM
 10
1074.445949
 20
108.835018
 30
0.0
 40
1.25
  1

  0
TEXT
  8
DIM
 10
1075.508449
 20
104.74126
 30
0.0
 40
1.0
  1

  0
TEXT
  8
OBJECT
 10
1076.365192
 20
155.437917
 30
0.0
 40
1.25
  1

  0
TEXT
  8
DIM
 10
1279.445949
 20
108.835018
 30
0.0
 40
1.25
  1

  0
TEXT
  8
DIM
 10
1280.508449
 20
104.74126
 30
0.0
 40
1.0
  1

  0
TEXT
  8
DIM
 10
1443.445949
 20
108.835018
 30
0.0
 40
1.25
  1

  0
TEXT
  8
DIM
 10
1444.508449
 20
104.74126
 30
0.0
 40
1.0
  1

  0
TEXT
  8
OBJECT
 10
1445.365192
 20
155.437917
 30
0.0
 40
1.25
  1

  0
TEXT
  8
DIM
 10
1443.445949
 20
108.835018
 30
0.0
 40
1.25
  1

  0
TEXT
  8
DIM
 10
1444.508449
 20
104.74126
 30
0.0
 40
1.0
  1

  0
TEXT
  8
OBJECT
 10
1445.365192
 20
155.437917
 30
0.0
 40
1.25
  1

  0
TEXT
  8
DIM
 10
1461.413326
 20
293.759395
 30
0.0
 40
0.72
  1

  0
TEXT
  8
DIM
 10
1397.877449
 20
270.884129
 30
0.0
 40
0.72
  1

  0
TEXT
  8
DIM
 10
1548.78977
 20
221.762391
 30
0.0
 40
0.72
  1

  0
TEXT
  8
DIM
 10
1485.253894
 20
198.887126
 30
0.0
 40
0.72
  1

  0
TEXT
  8
DIM
 10
1451.443126
 20
307.374357
 30
0.0
 40
0.72
  1

  0
TEXT
  8
DIM
 10
1387.90725
 20
284.499092
 30
0.0
 40
0.72
  1

  0
TEXT
  8
DIM
 10
1387.90725
 20
324.499092
 30
0.0
 40
0.72
  1

  0
TEXT
  8
DIM
 10
1449.40725
 20
324.499092
 30
0.0
 40
0.72
  1

  0
TEXT
  8
DIM
 10
1238.445949
 20
108.835018
 30
0.0
 40
1.25
  1

  0
TEXT
  8
DIM
 10
1239.508449
 20
104.74126
 30
0.0
 40
1.0
  1

  0
TEXT
  8
OBJECT
 10
1240.365192
 20
155.437917
 30
0.0
 40
1.25
  1

  0
TEXT
  8
DIM
 10
1443.445949
 20
108.835018
 30
0.0
 40
1.25
  1

  0
TEXT
  8
DIM
 10
1444.508449
 20
104.74126
 30
0.0
 40
1.0
  1

  0
TEXT
  8
OBJECT
 10
1445.365192
 20
155.437917
 30
0.0
 40
1.25
  1

  0
TEXT
  8
DIM
 10
1648.445949
 20
108.835018
 30
0.0
 40
1.25
  1

  0
TEXT
  8
DIM
 10
1649.508449
 20
104.74126
 30
0.0
 40
1.0
  1

  0
TEXT
  8
DIM
 10
1812.445949
 20
108.835018
 30
0.0
 40
1.25
  1

  0
TEXT
  8
DIM
 10
1813.508449
 20
104.74126
 30
0.0
 40
1.0
  1

  0
TEXT
  8
OBJECT
 10
1814.365192
 20
155.437917
 30
0.0
 40
1.25
  1

  0
TEXT
  8
DIM
 10
1812.445949
 20
108.835018
 30
0.0
 40
1.25
  1

  0
TEXT
  8
DIM
 10
1813.508449
 20
104.74126
 30
0.0
 40
1.0
  1

  0
TEXT
  8
OBJECT
 10
1814.365192
 20
155.437917
 30
0.0
 40
1.25
  1

  0
TEXT
  8
DIM
 10
1830.413326
 20
293.759395
 30
0.0
 40
0.72
  1

  0
TEXT
  8
DIM
 10
1766.877449
 20
270.884129
 30
0.0
 40
0.72
  1

  0
TEXT
  8
DIM
 10
1917.78977
 20
221.762391
 30
0.0
 40
0.72
  1

  0
TEXT
  8
DIM
 10
1854.253894
 20
198.887126
 30
0.0
 40
0.72
  1

  0
TEXT
  8
DIM
 10
1820.443126
 20
307.374357
 30
0.0
 40
0.72
  1

  0
TEXT
  8
DIM
 10
1756.90725
 20
284.499092
 30
0.0
 40
0.72
  1

  0
TEXT
  8
DIM
 10
1756.90725
 20
324.499092
 30
0.0
 40
0.72
  1

  0
TEXT
  8
DIM
 10
1818.40725
 20
324.499092
 30
0.0
 40
0.72
  1

  0
TEXT
  8
DIM
 10
1443.445949
 20
108.835018
 30
0.0
 40
1.25
  1

  0
TEXT
  8
DIM
 10
1444.508449
 20
104.74126
 30
0.0
 40
1.0
  1

  0
TEXT
  8
OBJECT
 10
1445.365192
 20
155.437917
 30
0.0
 40
1.25
  1

  0
TEXT
  8
DIM
 10
1648.445949
 20
108.835018
 30
0.0
 40
1.25
  1

  0
TEXT
  8
DIM
 10
1649.508449
 20
104.74126
 30
0.0
 40
1.0
  1

  0
TEXT
  8
DIM
 10
1812.445949
 20
108.835018
 30
0.0
 40
1.25
  1

  0
TEXT
  8
DIM
 10
1813.508449
 20
104.74126
 30
0.0
 40
1.0
  1

  0
TEXT
  8
OBJECT
 10
1814.365192
 20
155.437917
 30
0.0
 40
1.25
  1

  0
TEXT
  8
DIM
 10
1812.445949
 20
108.835018
 30
0.0
 40
1.25
  1

  0
TEXT
  8
DIM
 10
1813.508449
 20
104.74126
 30
0.0
 40
1.0
  1

  0
TEXT
  8
OBJECT
 10
1814.365192
 20
155.437917
 30
0.0
 40
1.25
  1

  0
TEXT
  8
DIM
 10
1830.413326
 20
293.759395
 30
0.0
 40
0.72
  1

  0
TEXT
  8
DIM
 10
1766.877449
 20
270.884129
 30
0.0
 40
0.72
  1

  0
TEXT
  8
DIM
 10
1917.78977
 20
221.762391
 30
0.0
 40
0.72
  1

  0
TEXT
  8
DIM
 10
1854.253894
 20
198.887126
 30
0.0
 40
0.72
  1

  0
TEXT
  8
DIM
 10
1820.443126
 20
307.374357
 30
0.0
 40
0.72
  1

  0
TEXT
  8
DIM
 10
1756.90725
 20
284.499092
 30
0.0
 40
0.72
  1

  0
TEXT
  8
DIM
 10
1756.90725
 20
324.499092
 30
0.0
 40
0.72
  1

  0
TEXT
  8
DIM
 10
1818.40725
 20
324.499092
 30
0.0
 40
0.72
  1

  0
TEXT
  8
DIM
 10
1422.945949
 20
108.835018
 30
0.0
 40
1.25
  1

  0
TEXT
  8
DIM
 10
1424.008449
 20
104.74126
 30
0.0
 40
1.0
  1

  0
TEXT
  8
DIM
 10
1586.945949
 20
108.835018
 30
0.0
 40
1.25
  1

  0
TEXT
  8
DIM
 10
1588.008449
 20
104.74126
 30
0.0
 40
1.0
  1

  0
TEXT
  8
OBJECT
 10
1588.865192
 20
155.437917
 30
0.0
 40
1.25
  1

  0
TEXT
  8
DIM
 10
1586.945949
 20
108.835018
 30
0.0
 40
1.25
  1

  0
TEXT
  8
DIM
 10
1588.008449
 20
104.74126
 30
0.0
 40
1.0
  1

  0
TEXT
  8
OBJECT
 10
1588.865192
 20
155.437917
 30
0.0
 40
1.25
  1

  0
TEXT
  8
DIM
 10
1604.913326
 20
293.759395
 30
0.0
 40
0.72
  1

  0
TEXT
  8
DIM
 10
1541.377449
 20
270.884129
 30
0.0
 40
0.72
  1

  0
TEXT
  8
DIM
 10
1692.28977
 20
221.762391
 30
0.0
 40
0.72
  1

  0
TEXT
  8
DIM
 10
1628.753894
 20
198.887126
 30
0.0
 40
0.72
  1

  0
TEXT
  8
DIM
 10
1594.943126
 20
307.374357
 30
0.0
 40
0.72
  1

  0
TEXT
  8
DIM
 10
1531.40725
 20
284.499092
 30
0.0
 40
0.72
  1

  0
TEXT
  8
DIM
 10
1531.40725
 20
324.499092
 30
0.0
 40
0.72
  1

  0
TEXT
  8
DIM
 10
1592.90725
 20
324.499092
 30
0.0
 40
0.72
  1

  0
TEXT
  8
DIM
 10
1238.445949
 20
108.835018
 30
0.0
 40
1.25
  1

  0
TEXT
  8
DIM
 10
1239.508449
 20
104.74126
 30
0.0
 40
1.0
  1

  0
TEXT
  8
OBJECT
 10
1240.365192
 20
155.437917
 30
0.0
 40
1.25
  1

  0
TEXT
  8
DIM
 10
1074.643028
 20
268.54834
 30
0.0
 40
1.25
  1

  0
TEXT
  8
DIM
 10
1075.705528
 20
264.454581
 30
0.0
 40
1.0
  1

  0
TEXT
  8
OBJECT
 10
1076.562271
 20
315.151239
 30
0.0
 40
1.25
  1

  0
TEXT
  8
DIM
 10
889.945949
 20
252.835018
 30
0.0
 40
1.25
  1

  0
TEXT
  8
DIM
 10
891.008449
 20
248.74126
 30
0.0
 40
1.0
  1

  0
TEXT
  8
OBJECT
 10
891.865192
 20
299.437917
 30
0.0
 40
1.25
  1

  0
TEXT
  8
DIM
 10
889.945949
 20
108.835018
 30
0.0
 40
1.25
  1

  0
TEXT
  8
DIM
 10
891.008449
 20
104.74126
 30
0.0
 40
1.0
  1

  0
TEXT
  8
OBJECT
 10
891.865192
 20
155.437917
 30
0.0
 40
1.25
  1

  0
TEXT
  8
DIM
 10
684.945949
 20
108.835018
 30
0.0
 40
1.25
  1

  0
TEXT
  8
DIM
 10
686.008449
 20
104.74126
 30
0.0
 40
1.0
  1

  0
TEXT
  8
OBJECT
 10
686.865192
 20
155.437917
 30
0.0
 40
1.25
  1

  0
TEXT
  8
DIM
 10
459.445949
 20
108.835018
 30
0.0
 40
1.25
  1

  0
TEXT
  8
DIM
 10
460.508449
 20
104.74126
 30
0.0
 40
1.0
  1

  0
TEXT
  8
OBJECT
 10
461.365192
 20
155.437917
 30
0.0
 40
1.25
  1

  0
INSERT
  8
OBJECT
  2
L15
 10
30.390539
 20
145.290901
 30
0.0
  0
INSERT
  8
OBJECT
  2
L15
 10
40.265039
 20
145.290901
 30
0.0
  0
INSERT
  8
OBJECT
  2
L15
 10
30.390539
 20
94.851901
 30
0.0
  0
INSERT
  8
OBJECT
  2
L15
 10
40.265039
 20
94.851901
 30
0.0
  0
INSERT
  8
OBJECT
  2
L15S
 10
114.23579
 20
144.269383
 30
0.0
 50
270.0
  0
INSERT
  8
OBJECT
  2
L15S
 10
114.23579
 20
93.832383
 30
0.0
 50
270.0
  0
INSERT
  8
OBJECT
  2
L15S
 10
136.23579
 20
93.832383
 30
0.0
 41
-1.0
 50
90.0
  0
INSERT
  8
OBJECT
  2
L15S
 10
136.23579
 20
144.269383
 30
0.0
 41
-1.0
 50
90.0
  0
INSERT
  8
OBJECT
  2
L15S
 10
24.392539
 20
145.253901
 30
0.0
 50
270.0
  0
INSERT
  8
OBJECT
  2
L15S
 10
24.392539
 20
94.816901
 30
0.0
 50
270.0
  0
INSERT
  8
OBJECT
  2
L15S
 10
46.392539
 20
94.816901
 30
0.0
 41
-1.0
 50
90.0
  0
INSERT
  8
OBJECT
  2
L15S
 10
46.392539
 20
145.253901
 30
0.0
 41
-1.0
 50
90.0
  0
ARC
  8
OBJECT
 10
115.915039
 20
78.489131
 30
0.0
 40
0.509942
 50
185.316342
 51
220.068093
  0
ARC
  8
OBJECT
 10
115.242542
 20
78.489131
 30
0.0
 40
0.509942
 50
319.931907
 51
354.683658
  0
LINE
  8
OBJECT
 10
115.63279
 20
78.160883
 30
0.0
 11
115.52479
 21
78.160883
 31
0.0
  0
LINE
  8
OBJECT
 10
115.40729
 20
81.440883
 30
0.0
 11
115.75029
 21
81.440883
 31
0.0
  0
ARC
  8
OBJECT
 10
115.915039
 20
81.393634
 30
0.0
 40
0.509942
 50
139.931907
 51
174.683658
  0
LINE
  8
OBJECT
 10
115.63279
 20
81.721883
 30
0.0
 11
115.52479
 21
81.721883
 31
0.0
  0
ARC
  8
OBJECT
 10
115.242542
 20
81.393634
 30
0.0
 40
0.509942
 50
5.316342
 51
40.068093
  0
LINE
  8
OBJECT
 10
115.75029
 20
79.941383
 30
0.0
 11
115.40729
 21
79.941383
 31
0.0
  0
LINE
  8
OBJECT
 10
115.40729
 20
78.441883
 30
0.0
 11
115.75029
 21
78.441883
 31
0.0
  0
LINE
  8
OBJECT
 10
115.40729
 20
79.941383
 30
0.0
 11
115.40729
 21
78.441883
 31
0.0
  0
LINE
  8
OBJECT
 10
115.40729
 20
79.941383
 30
0.0
 11
115.40729
 21
81.440883
 31
0.0
  0
LINE
  8
OBJECT
 10
115.40729
 20
141.161383
 30
0.0
 11
115.75029
 21
141.161383
 31
0.0
  0
LINE
  8
OBJECT
 10
115.40729
 20
142.660883
 30
0.0
 11
115.40729
 21
141.161383
 31
0.0
  0
ARC
  8
OBJECT
 10
115.242542
 20
144.113134
 30
0.0
 40
0.509942
 50
5.316342
 51
40.068093
  0
ARC
  8
OBJECT
 10
115.915039
 20
144.113134
 30
0.0
 40
0.509942
 50
139.931907
 51
174.683658
  0
LINE
  8
OBJECT
 10
115.63279
 20
144.441383
 30
0.0
 11
115.52479
 21
144.441383
 31
0.0
  0
LINE
  8
OBJECT
 10
115.40729
 20
144.160383
 30
0.0
 11
115.75029
 21
144.160383
 31
0.0
  0
LINE
  8
OBJECT
 10
115.75029
 20
142.660883
 30
0.0
 11
115.40729
 21
142.660883
 31
0.0
  0
LINE
  8
OBJECT
 10
115.40729
 20
142.660883
 30
0.0
 11
115.40729
 21
144.160383
 31
0.0
  0
LINE
  8
OBJECT
 10
115.63279
 20
140.880383
 30
0.0
 11
115.52479
 21
140.880383
 31
0.0
  0
ARC
  8
OBJECT
 10
115.915039
 20
141.208631
 30
0.0
 40
0.509942
 50
185.316342
 51
220.068093
  0
ARC
  8
OBJECT
 10
115.242542
 20
141.208631
 30
0.0
 40
0.509942
 50
319.931907
 51
354.683658
  0
TEXT
  8
TEXT
 10
116.417431
 20
68.505148
 30
0.0
 40
2.34375
  1
%%uFRONT VIEW
 41
0.75
 72
     1
 11
125.23579
 21
68.505148
 31
0.0
  0
LINE
  8
CENTER
 10
123.88579
 20
32.153267
 30
0.0
 11
126.58579
 21
32.153267
 31
0.0
  0
LINE
  8
CENTER
 10
125.23579
 20
30.803267
 30
0.0
 11
125.23579
 21
33.503267
 31
0.0
  0
TEXT
  8
TEXT
 10
115.538525
 20
3.306983
 30
0.0
 40
2.34375
  1
%%uBOTTOM VIEW
 41
0.75
 72
     1
 11
125.23579
 21
3.306983
 31
0.0
  0
TEXT
  8
TEXT
 10
118.175243
 20
162.193292
 30
0.0
 40
2.34375
  1
%%uTOP VIEW
 41
0.75
 72
     1
 11
125.23579
 21
162.193292
 31
0.0
  0
POLYLINE
  8
DIM
 66
     1
 10
0.0
 20
0.0
 30
0.0
 41
1.08
  0
VERTEX
  8
DIM
 10
120.305804
 20
187.102397
 30
0.0
  0
VERTEX
  8
DIM
 10
117.554244
 20
187.952883
 30
0.0
 41
0.0
  0
VERTEX
  8
DIM
 10
110.531449
 20
190.123573
 30
0.0
 41
0.0
  0
VERTEX
  8
DIM
 10
107.651448
 20
190.123573
 30
0.0
 41
0.0
  0
SEQEND
  8
DIM
  0
TEXT
  8
DIM
 10
79.211439
 20
188.896508
 30
0.0
 40
2.000001
  1
MOUNTING PROVISIONS
 41
0.75
 72
     2
 11
106.211448
 21
189.896509
 31
0.0
 73
     2
  0
TEXT
  8
DIM
 10
82.711441
 20
185.563174
 30
0.0
 40
2.000001
  1
FOR OPTIONAL FAN.
 41
0.75
 72
     2
 11
106.211448
 21
186.563174
 31
0.0
 73
     2
  0
POLYLINE
  8
DIM
 66
     1
 10
0.0
 20
0.0
 30
0.0
 41
1.080003
  0
VERTEX
  8
DIM
 10
120.442854
 20
30.859656
 30
0.0
 41
1.08
  0
VERTEX
  8
DIM
 10
117.801198
 20
29.712463
 30
0.0
 41
0.0
  0
VERTEX
  8
DIM
 10
106.575154
 20
24.837323
 30
0.0
 41
0.0
  0
VERTEX
  8
DIM
 10
103.695145
 20
24.837323
 30
0.0
 41
0.0
  0
SEQEND
  8
DIM
  0
TEXT
  8
DIM
 10
75.755058
 20
23.83732
 30
0.0
 40
2.000006
  1
9.561 SQUARE CUTOUT
 41
0.75
 72
     2
 11
102.255141
 21
24.837323
 31
0.0
 73
     2
  0
LINE
  8
OBJECT
 10
88.488433
 20
77.691901
 30
0.0
 11
88.488433
 21
139.010673
 31
0.0
  0
LINE
  8
OBJECT
 10
89.238433
 20
75.066901
 30
0.0
 11
89.238433
 21
150.378901
 31
0.0
  0
LINE
  8
OBJECT
 10
65.769433
 20
104.0272
 30
0.0
 11
65.769433
 21
82.566901
 31
0.0
  0
LINE
  8
OBJECT
 10
65.206433
 20
110.972901
 30
0.0
 11
65.206433
 21
102.152464
 31
0.0
  0
LINE
  8
OBJECT
 10
64.488433
 20
99.698248
 30
0.0
 11
64.488433
 21
77.691901
 31
0.0
  0
LINE
  8
OBJECT
 10
63.738433
 20
150.378901
 30
0.0
 11
63.738433
 21
75.066901
 31
0.0
  0
LINE
  8
OBJECT
 10
88.457183
 20
79.066901
 30
0.0
 11
88.363433
 21
79.066901
 31
0.0
  0
LINE
  8
OBJECT
 10
88.457183
 20
79.691901
 30
0.0
 11
88.363433
 21
79.691901
 31
0.0
  0
LINE
  8
OBJECT
 10
88.457183
 20
81.941901
 30
0.0
 11
88.363433
 21
81.941901
 31
0.0
  0
LINE
  8
OBJECT
 10
88.457183
 20
82.566901
 30
0.0
 11
88.363433
 21
82.566901
 31
0.0
  0
LINE
  8
OBJECT
 10
89.098433
 20
77.629901
 30
0.0
 11
63.878433
 21
77.629901
 31
0.0
  0
LINE
  8
OBJECT
 10
89.098433
 20
75.128901
 30
0.0
 11
63.878433
 21
75.128901
 31
0.0
  0
LINE
  8
OBJECT
 10
89.160433
 20
77.691901
 30
0.0
 11
63.816433
 21
77.691901
 31
0.0
  0
LINE
  8
OBJECT
 10
89.238433
 20
75.066901
 30
0.0
 11
63.738433
 21
75.066901
 31
0.0
  0
LINE
  8
OBJECT
 10
64.519683
 20
79.066901
 30
0.0
 11
64.519683
 21
82.566901
 31
0.0
  0
LINE
  8
OBJECT
 10
65.206433
 20
79.066901
 30
0.0
 11
65.206433
 21
77.691901
 31
0.0
  0
CIRCLE
  8
OBJECT
 10
65.113683
 20
79.441901
 30
0.0
 40
0.1405
  0
LINE
  8
OBJECT
 10
63.816433
 20
77.691901
 30
0.0
 11
63.816433
 21
75.066901
 31
0.0
  0
LINE
  8
OBJECT
 10
63.878433
 20
77.629901
 30
0.0
 11
63.878433
 21
75.128901
 31
0.0
  0
CIRCLE
  8
OBJECT
 10
65.113683
 20
82.191901
 30
0.0
 40
0.1405
  0
CIRCLE
  8
OBJECT
 10
64.098433
 20
82.894901
 30
0.0
 40
0.1405
  0
CIRCLE
  8
OBJECT
 10
64.098433
 20
82.207901
 30
0.0
 40
0.1405
  0
CIRCLE
  8
OBJECT
 10
64.098433
 20
80.519901
 30
0.0
 40
0.1405
  0
CIRCLE
  8
OBJECT
 10
64.098433
 20
79.832901
 30
0.0
 40
0.1405
  0
CIRCLE
  8
OBJECT
 10
66.863683
 20
79.441901
 30
0.0
 40
0.218
  0
CIRCLE
  8
OBJECT
 10
69.738683
 20
79.441901
 30
0.0
 40
0.1405
  0
LINE
  8
OBJECT
 10
65.769433
 20
79.066901
 30
0.0
 11
65.769433
 21
77.691901
 31
0.0
  0
CIRCLE
  8
OBJECT
 10
65.738683
 20
79.441901
 30
0.0
 40
0.1405
  0
CIRCLE
  8
OBJECT
 10
65.551433
 20
78.316901
 30
0.0
 40
0.0735
  0
CIRCLE
  8
OBJECT
 10
73.863683
 20
79.441901
 30
0.0
 40
0.1405
  0
CIRCLE
  8
OBJECT
 10
73.238683
 20
79.441901
 30
0.0
 40
0.1405
  0
CIRCLE
  8
OBJECT
 10
72.738683
 20
79.441901
 30
0.0
 40
0.1405
  0
CIRCLE
  8
OBJECT
 10
72.113683
 20
79.441901
 30
0.0
 40
0.1405
  0
CIRCLE
  8
OBJECT
 10
71.488683
 20
79.441901
 30
0.0
 40
0.1405
  0
CIRCLE
  8
OBJECT
 10
70.988683
 20
79.441901
 30
0.0
 40
0.1405
  0
CIRCLE
  8
OBJECT
 10
70.363683
 20
79.441901
 30
0.0
 40
0.1405
  0
CIRCLE
  8
OBJECT
 10
69.738683
 20
82.191901
 30
0.0
 40
0.1405
  0
CIRCLE
  8
OBJECT
 10
65.738683
 20
82.191901
 30
0.0
 40
0.1405
  0
LINE
  8
OBJECT
 10
66.022433
 20
81.191901
 30
0.0
 11
65.926433
 21
81.191901
 31
0.0
  0
POLYLINE
  8
OBJECT
 66
     1
 10
0.0
 20
0.0
 30
0.0
 70
     1
  0
VERTEX
  8
OBJECT
 10
65.519183
 20
80.691901
 30
0.0
  0
VERTEX
  8
OBJECT
 10
65.582183
 20
80.691901
 30
0.0
 42
1.0
  0
VERTEX
  8
OBJECT
 10
65.582183
 20
80.941901
 30
0.0
  0
VERTEX
  8
OBJECT
 10
65.519183
 20
80.941901
 30
0.0
 42
1.0
  0
SEQEND
  8
OBJECT
  0
LINE
  8
OBJECT
 10
66.022433
 20
80.441901
 30
0.0
 11
65.926433
 21
80.441901
 31
0.0
  0
LINE
  8
OBJECT
 10
65.926433
 20
81.816901
 30
0.0
 11
65.926433
 21
79.816901
 31
0.0
  0
CIRCLE
  8
OBJECT
 10
73.863683
 20
82.191901
 30
0.0
 40
0.1405
  0
CIRCLE
  8
OBJECT
 10
73.238683
 20
82.191901
 30
0.0
 40
0.1405
  0
CIRCLE
  8
OBJECT
 10
72.738683
 20
82.191901
 30
0.0
 40
0.1405
  0
CIRCLE
  8
OBJECT
 10
72.113683
 20
82.191901
 30
0.0
 40
0.1405
  0
CIRCLE
  8
OBJECT
 10
71.488683
 20
82.191901
 30
0.0
 40
0.1405
  0
CIRCLE
  8
OBJECT
 10
70.988683
 20
82.191901
 30
0.0
 40
0.1405
  0
CIRCLE
  8
OBJECT
 10
70.363683
 20
82.191901
 30
0.0
 40
0.1405
  0
CIRCLE
  8
OBJECT
 10
78.488683
 20
79.441901
 30
0.0
 40
0.1405
  0
CIRCLE
  8
OBJECT
 10
77.988683
 20
79.441901
 30
0.0
 40
0.1405
  0
CIRCLE
  8
OBJECT
 10
77.363683
 20
79.441901
 30
0.0
 40
0.1405
  0
CIRCLE
  8
OBJECT
 10
76.738683
 20
79.441901
 30
0.0
 40
0.1405
  0
CIRCLE
  8
OBJECT
 10
76.238683
 20
79.441901
 30
0.0
 40
0.1405
  0
CIRCLE
  8
OBJECT
 10
75.613683
 20
79.441901
 30
0.0
 40
0.1405
  0
CIRCLE
  8
OBJECT
 10
74.988683
 20
79.441901
 30
0.0
 40
0.1405
  0
CIRCLE
  8
OBJECT
 10
74.488683
 20
79.441901
 30
0.0
 40
0.1405
  0
CIRCLE
  8
OBJECT
 10
82.613683
 20
79.441901
 30
0.0
 40
0.1405
  0
CIRCLE
  8
OBJECT
 10
81.988683
 20
79.441901
 30
0.0
 40
0.1405
  0
CIRCLE
  8
OBJECT
 10
80.238683
 20
79.441901
 30
0.0
 40
0.1405
  0
CIRCLE
  8
OBJECT
 10
80.863683
 20
79.441901
 30
0.0
 40
0.1405
  0
CIRCLE
  8
OBJECT
 10
81.488683
 20
79.441901
 30
0.0
 40
0.1405
  0
CIRCLE
  8
OBJECT
 10
79.738683
 20
79.441901
 30
0.0
 40
0.1405
  0
CIRCLE
  8
OBJECT
 10
79.113683
 20
79.441901
 30
0.0
 40
0.1405
  0
CIRCLE
  8
OBJECT
 10
78.488683
 20
82.191901
 30
0.0
 40
0.1405
  0
CIRCLE
  8
OBJECT
 10
77.988683
 20
82.191901
 30
0.0
 40
0.1405
  0
CIRCLE
  8
OBJECT
 10
77.363683
 20
82.191901
 30
0.0
 40
0.1405
  0
CIRCLE
  8
OBJECT
 10
76.738683
 20
82.191901
 30
0.0
 40
0.1405
  0
CIRCLE
  8
OBJECT
 10
76.238683
 20
82.191901
 30
0.0
 40
0.1405
  0
CIRCLE
  8
OBJECT
 10
75.613683
 20
82.191901
 30
0.0
 40
0.1405
  0
CIRCLE
  8
OBJECT
 10
74.988683
 20
82.191901
 30
0.0
 40
0.1405
  0
CIRCLE
  8
OBJECT
 10
74.488683
 20
82.191901
 30
0.0
 40
0.1405
  0
CIRCLE
  8
OBJECT
 10
82.613683
 20
82.191901
 30
0.0
 40
0.1405
  0
CIRCLE
  8
OBJECT
 10
81.988683
 20
82.191901
 30
0.0
 40
0.1405
  0
CIRCLE
  8
OBJECT
 10
80.238683
 20
82.191901
 30
0.0
 40
0.1405
  0
CIRCLE
  8
OBJECT
 10
80.863683
 20
82.191901
 30
0.0
 40
0.1405
  0
CIRCLE
  8
OBJECT
 10
81.488683
 20
82.191901
 30
0.0
 40
0.1405
  0
CIRCLE
  8
OBJECT
 10
79.738683
 20
82.191901
 30
0.0
 40
0.1405
  0
CIRCLE
  8
OBJECT
 10
79.113683
 20
82.191901
 30
0.0
 40
0.1405
  0
CIRCLE
  8
OBJECT
 10
87.863183
 20
79.441901
 30
0.0
 40
0.218
  0
LINE
  8
OBJECT
 10
88.457183
 20
79.066901
 30
0.0
 11
88.457183
 21
82.566901
 31
0.0
  0
LINE
  8
OBJECT
 10
87.207433
 20
77.691901
 30
0.0
 11
87.207433
 21
77.721901
 31
0.0
  0
CIRCLE
  8
OBJECT
 10
83.238683
 20
79.441901
 30
0.0
 40
0.1405
  0
CIRCLE
  8
OBJECT
 10
86.113183
 20
79.441901
 30
0.0
 40
0.1405
  0
LINE
  8
OBJECT
 10
89.098433
 20
75.128901
 30
0.0
 11
89.098433
 21
77.629901
 31
0.0
  0
LINE
  8
OBJECT
 10
89.160433
 20
75.066901
 30
0.0
 11
89.160433
 21
77.691901
 31
0.0
  0
POLYLINE
  8
OBJECT
 66
     1
 10
0.0
 20
0.0
 30
0.0
 70
     1
  0
VERTEX
  8
OBJECT
 10
87.457683
 20
80.691901
 30
0.0
  0
VERTEX
  8
OBJECT
 10
87.394683
 20
80.691901
 30
0.0
 42
-1.0
  0
VERTEX
  8
OBJECT
 10
87.394683
 20
80.941901
 30
0.0
  0
VERTEX
  8
OBJECT
 10
87.457683
 20
80.941901
 30
0.0
 42
-1.0
  0
SEQEND
  8
OBJECT
  0
CIRCLE
  8
OBJECT
 10
83.238683
 20
82.191901
 30
0.0
 40
0.1405
  0
CIRCLE
  8
OBJECT
 10
86.113183
 20
82.191901
 30
0.0
 40
0.1405
  0
CIRCLE
  8
OBJECT
 10
88.878433
 20
82.894901
 30
0.0
 40
0.1405
  0
CIRCLE
  8
OBJECT
 10
88.878433
 20
82.207901
 30
0.0
 40
0.1405
  0
CIRCLE
  8
OBJECT
 10
88.878433
 20
80.519901
 30
0.0
 40
0.1405
  0
CIRCLE
  8
OBJECT
 10
88.878433
 20
79.832901
 30
0.0
 40
0.1405
  0
LINE
  8
HIDDEN
 10
87.207433
 20
137.606852
 30
0.0
 11
87.207433
 21
147.753901
 31
0.0
  0
LINE
  8
HIDDEN
 10
65.769433
 20
147.753901
 30
0.0
 11
65.769433
 21
104.0272
 31
0.0
  0
LINE
  8
OBJECT
 10
65.206433
 20
142.878901
 30
0.0
 11
65.206433
 21
114.472901
 31
0.0
  0
LINE
  8
OBJECT
 10
88.457183
 20
110.972901
 30
0.0
 11
88.363433
 21
110.972901
 31
0.0
  0
LINE
  8
OBJECT
 10
88.457183
 20
111.597901
 30
0.0
 11
88.363433
 21
111.597901
 31
0.0
  0
LINE
  8
OBJECT
 10
88.457183
 20
113.847901
 30
0.0
 11
88.363433
 21
113.847901
 31
0.0
  0
LINE
  8
OBJECT
 10
88.457183
 20
114.472901
 30
0.0
 11
88.363433
 21
114.472901
 31
0.0
  0
LINE
  8
HIDDEN
 10
66.550433
 20
113.722901
 30
0.0
 11
66.550433
 21
111.722901
 31
0.0
  0
LINE
  8
HIDDEN
 10
65.926433
 20
113.722901
 30
0.0
 11
65.926433
 21
111.722901
 31
0.0
  0
LINE
  8
HIDDEN
 10
66.550433
 20
112.347901
 30
0.0
 11
65.926433
 21
112.347901
 31
0.0
  0
CIRCLE
  8
OBJECT
 10
72.738683
 20
111.347901
 30
0.0
 40
0.1405
  0
CIRCLE
  8
OBJECT
 10
73.238683
 20
111.347901
 30
0.0
 40
0.1405
  0
CIRCLE
  8
OBJECT
 10
73.863683
 20
111.347901
 30
0.0
 40
0.1405
  0
CIRCLE
  8
OBJECT
 10
72.113683
 20
111.347901
 30
0.0
 40
0.1405
  0
CIRCLE
  8
OBJECT
 10
70.988683
 20
111.347901
 30
0.0
 40
0.1405
  0
CIRCLE
  8
OBJECT
 10
71.488683
 20
111.347901
 30
0.0
 40
0.1405
  0
CIRCLE
  8
OBJECT
 10
78.488683
 20
111.347901
 30
0.0
 40
0.1405
  0
CIRCLE
  8
OBJECT
 10
77.988683
 20
111.347901
 30
0.0
 40
0.1405
  0
CIRCLE
  8
OBJECT
 10
76.238683
 20
111.347901
 30
0.0
 40
0.1405
  0
CIRCLE
  8
OBJECT
 10
76.738683
 20
111.347901
 30
0.0
 40
0.1405
  0
CIRCLE
  8
OBJECT
 10
75.613683
 20
111.347901
 30
0.0
 40
0.1405
  0
CIRCLE
  8
OBJECT
 10
77.363683
 20
111.347901
 30
0.0
 40
0.1405
  0
CIRCLE
  8
OBJECT
 10
74.488683
 20
111.347901
 30
0.0
 40
0.1405
  0
CIRCLE
  8
OBJECT
 10
74.988683
 20
111.347901
 30
0.0
 40
0.1405
  0
CIRCLE
  8
OBJECT
 10
82.613683
 20
111.347901
 30
0.0
 40
0.1405
  0
CIRCLE
  8
OBJECT
 10
81.488683
 20
111.347901
 30
0.0
 40
0.1405
  0
CIRCLE
  8
OBJECT
 10
80.863683
 20
111.347901
 30
0.0
 40
0.1405
  0
CIRCLE
  8
OBJECT
 10
81.988683
 20
111.347901
 30
0.0
 40
0.1405
  0
CIRCLE
  8
OBJECT
 10
79.738683
 20
111.347901
 30
0.0
 40
0.1405
  0
CIRCLE
  8
OBJECT
 10
80.238683
 20
111.347901
 30
0.0
 40
0.1405
  0
CIRCLE
  8
OBJECT
 10
79.113683
 20
111.347901
 30
0.0
 40
0.1405
  0
POLYLINE
  8
HIDDEN
 66
     1
 10
0.0
 20
0.0
 30
0.0
 70
     1
  0
VERTEX
  8
HIDDEN
 10
65.519183
 20
112.597901
 30
0.0
  0
VERTEX
  8
HIDDEN
 10
65.582183
 20
112.597901
 30
0.0
 42
1.0
  0
VERTEX
  8
HIDDEN
 10
65.582183
 20
112.847901
 30
0.0
  0
VERTEX
  8
HIDDEN
 10
65.519183
 20
112.847901
 30
0.0
 42
1.0
  0
SEQEND
  8
HIDDEN
  0
LINE
  8
HIDDEN
 10
66.550433
 20
113.097901
 30
0.0
 11
65.926433
 21
113.097901
 31
0.0
  0
CIRCLE
  8
OBJECT
 10
72.738683
 20
114.097901
 30
0.0
 40
0.1405
  0
CIRCLE
  8
OBJECT
 10
73.238683
 20
114.097901
 30
0.0
 40
0.1405
  0
CIRCLE
  8
OBJECT
 10
73.863683
 20
114.097901
 30
0.0
 40
0.1405
  0
CIRCLE
  8
OBJECT
 10
72.113683
 20
114.097901
 30
0.0
 40
0.1405
  0
ARC
  8
OBJECT
 10
71.488683
 20
114.097901
 30
0.0
 40
0.1405
 50
238.171043
 51
107.360528
  0
CIRCLE
  8
OBJECT
 10
78.488683
 20
114.097901
 30
0.0
 40
0.1405
  0
CIRCLE
  8
OBJECT
 10
77.988683
 20
114.097901
 30
0.0
 40
0.1405
  0
CIRCLE
  8
OBJECT
 10
76.238683
 20
114.097901
 30
0.0
 40
0.1405
  0
CIRCLE
  8
OBJECT
 10
76.738683
 20
114.097901
 30
0.0
 40
0.1405
  0
CIRCLE
  8
OBJECT
 10
75.613683
 20
114.097901
 30
0.0
 40
0.1405
  0
CIRCLE
  8
OBJECT
 10
77.363683
 20
114.097901
 30
0.0
 40
0.1405
  0
CIRCLE
  8
OBJECT
 10
74.488683
 20
114.097901
 30
0.0
 40
0.1405
  0
CIRCLE
  8
OBJECT
 10
74.988683
 20
114.097901
 30
0.0
 40
0.1405
  0
CIRCLE
  8
OBJECT
 10
82.613683
 20
114.097901
 30
0.0
 40
0.1405
  0
CIRCLE
  8
OBJECT
 10
81.488683
 20
114.097901
 30
0.0
 40
0.1405
  0
CIRCLE
  8
OBJECT
 10
80.863683
 20
114.097901
 30
0.0
 40
0.1405
  0
CIRCLE
  8
OBJECT
 10
81.988683
 20
114.097901
 30
0.0
 40
0.1405
  0
CIRCLE
  8
OBJECT
 10
79.738683
 20
114.097901
 30
0.0
 40
0.1405
  0
CIRCLE
  8
OBJECT
 10
80.238683
 20
114.097901
 30
0.0
 40
0.1405
  0
CIRCLE
  8
OBJECT
 10
79.113683
 20
114.097901
 30
0.0
 40
0.1405
  0
LINE
  8
OBJECT
 10
88.457183
 20
110.972901
 30
0.0
 11
88.457183
 21
114.472901
 31
0.0
  0
CIRCLE
  8
OBJECT
 10
83.238683
 20
111.347901
 30
0.0
 40
0.1405
  0
CIRCLE
  8
OBJECT
 10
86.113183
 20
111.347901
 30
0.0
 40
0.1405
  0
CIRCLE
  8
OBJECT
 10
87.863183
 20
111.347901
 30
0.0
 40
0.218
  0
CIRCLE
  8
OBJECT
 10
83.238683
 20
114.097901
 30
0.0
 40
0.1405
  0
CIRCLE
  8
OBJECT
 10
86.113183
 20
114.097901
 30
0.0
 40
0.1405
  0
LINE
  8
HIDDEN
 10
87.207433
 20
142.878901
 30
0.0
 11
65.769433
 21
142.878901
 31
0.0
  0
LINE
  8
HIDDEN
 10
87.207433
 20
146.378901
 30
0.0
 11
65.769433
 21
146.378901
 31
0.0
  0
LINE
  8
OBJECT
 10
89.238433
 20
150.378901
 30
0.0
 11
63.738433
 21
150.378901
 31
0.0
  0
LINE
  8
OBJECT
 10
87.770433
 20
147.753901
 30
0.0
 11
65.206433
 21
147.753901
 31
0.0
  0
DIMENSION
  8
DIM
  2
*D14
 10
88.488433
 20
89.054932
 30
0.0
 11
76.488433
 21
89.054932
 31
0.0
 12
0.0
 22
-4.490251
 32
0.0
  1
<> C.I.D.
 13
64.488433
 23
89.054932
 33
0.0
 14
88.488433
 24
89.054932
 34
0.0
  3
23NSTDI
  0
LINE
  8
OBJECT
 10
65.206433
 20
147.753901
 30
0.0
 11
65.206433
 21
146.378901
 31
0.0
  0
LINE
  8
HIDDEN
 10
66.550433
 20
145.628901
 30
0.0
 11
66.550433
 21
143.628901
 31
0.0
  0
LINE
  8
HIDDEN
 10
65.926433
 20
145.628901
 30
0.0
 11
65.926433
 21
143.628901
 31
0.0
  0
POLYLINE
  8
HIDDEN
 66
     1
 10
0.0
 20
0.0
 30
0.0
 70
     1
  0
VERTEX
  8
HIDDEN
 10
65.519183
 20
144.503901
 30
0.0
  0
VERTEX
  8
HIDDEN
 10
65.582183
 20
144.503901
 30
0.0
 42
1.0
  0
VERTEX
  8
HIDDEN
 10
65.582183
 20
144.753901
 30
0.0
  0
VERTEX
  8
HIDDEN
 10
65.519183
 20
144.753901
 30
0.0
 42
1.0
  0
SEQEND
  8
HIDDEN
  0
LINE
  8
HIDDEN
 10
66.550433
 20
145.003901
 30
0.0
 11
65.926433
 21
145.003901
 31
0.0
  0
LINE
  8
HIDDEN
 10
66.550433
 20
144.253901
 30
0.0
 11
65.926433
 21
144.253901
 31
0.0
  0
CIRCLE
  8
HIDDEN
 10
65.551433
 20
147.128901
 30
0.0
 40
0.0735
  0
LINE
  8
HIDDEN
 10
87.050433
 20
145.628901
 30
0.0
 11
87.050433
 21
143.628901
 31
0.0
  0
LINE
  8
HIDDEN
 10
86.426433
 20
145.628901
 30
0.0
 11
86.426433
 21
143.628901
 31
0.0
  0
POLYLINE
  8
HIDDEN
 66
     1
 10
0.0
 20
0.0
 30
0.0
 70
     1
  0
VERTEX
  8
HIDDEN
 10
87.457683
 20
144.503901
 30
0.0
  0
VERTEX
  8
HIDDEN
 10
87.394683
 20
144.503901
 30
0.0
 42
-1.0
  0
VERTEX
  8
HIDDEN
 10
87.394683
 20
144.753901
 30
0.0
  0
VERTEX
  8
HIDDEN
 10
87.457683
 20
144.753901
 30
0.0
 42
-1.0
  0
SEQEND
  8
HIDDEN
  0
CIRCLE
  8
HIDDEN
 10
86.738433
 20
144.628901
 30
0.0
 40
0.1405
  0
LINE
  8
HIDDEN
 10
87.050433
 20
145.003901
 30
0.0
 11
86.426433
 21
145.003901
 31
0.0
  0
LINE
  8
HIDDEN
 10
87.050433
 20
144.253901
 30
0.0
 11
86.426433
 21
144.253901
 31
0.0
  0
CIRCLE
  8
HIDDEN
 10
87.425433
 20
147.128901
 30
0.0
 40
0.0735
  0
LINE
  8
OBJECT
 10
87.770433
 20
146.378901
 30
0.0
 11
87.770433
 21
147.753901
 31
0.0
  0
CIRCLE
  8
OBJECT
 10
66.238433
 20
112.722901
 30
0.0
 40
0.218
  0
INSERT
  8
OBJECT
  2
L15S
 10
63.738433
 20
145.254901
 30
0.0
 50
270.0
  0
INSERT
  8
OBJECT
  2
L15
 10
71.393933
 20
145.253901
 30
0.0
  0
ARC
  8
OBJECT
 10
89.808182
 20
145.097902
 30
0.0
 40
0.509942
 50
139.931907
 51
174.683658
  0
ARC
  8
OBJECT
 10
89.135685
 20
145.097902
 30
0.0
 40
0.509942
 50
5.316342
 51
40.068093
  0
CIRCLE
  8
OBJECT
 10
86.738433
 20
144.628901
 30
0.0
 40
0.218
  0
LINE
  8
OBJECT
 10
89.300433
 20
145.145151
 30
0.0
 11
89.300433
 21
143.644651
 31
0.0
  0
LINE
  8
OBJECT
 10
89.643433
 20
143.644651
 30
0.0
 11
89.643433
 21
145.145151
 31
0.0
  0
LINE
  8
OBJECT
 10
89.643433
 20
145.145151
 30
0.0
 11
89.238433
 21
145.145151
 31
0.0
  0
LINE
  8
OBJECT
 10
89.238433
 20
143.644651
 30
0.0
 11
89.643433
 21
143.644651
 31
0.0
  0
ARC
  8
OBJECT
 10
89.135685
 20
142.191399
 30
0.0
 40
0.509942
 50
319.931907
 51
354.683658
  0
ARC
  8
OBJECT
 10
89.808182
 20
142.191399
 30
0.0
 40
0.509942
 50
185.316342
 51
220.068093
  0
LINE
  8
OBJECT
 10
89.643433
 20
142.144151
 30
0.0
 11
89.238433
 21
142.144151
 31
0.0
  0
LINE
  8
OBJECT
 10
89.525933
 20
141.863151
 30
0.0
 11
89.417933
 21
141.863151
 31
0.0
  0
LINE
  8
OBJECT
 10
89.643433
 20
143.644651
 30
0.0
 11
89.643433
 21
142.144151
 31
0.0
  0
LINE
  8
OBJECT
 10
89.300433
 20
142.144151
 30
0.0
 11
89.300433
 21
143.644651
 31
0.0
  0
LINE
  8
OBJECT
 10
89.525933
 20
145.426151
 30
0.0
 11
89.417933
 21
145.426151
 31
0.0
  0
ARC
  8
OBJECT
 10
63.841182
 20
145.097902
 30
0.0
 40
0.509942
 50
139.931907
 51
174.683658
  0
ARC
  8
OBJECT
 10
63.168685
 20
145.097902
 30
0.0
 40
0.509942
 50
5.316342
 51
40.068093
  0
CIRCLE
  8
OBJECT
 10
66.238433
 20
144.628901
 30
0.0
 40
0.218
  0
LINE
  8
OBJECT
 10
63.738433
 20
143.644651
 30
0.0
 11
63.333433
 21
143.644651
 31
0.0
  0
LINE
  8
OBJECT
 10
63.333433
 20
145.145151
 30
0.0
 11
63.738433
 21
145.145151
 31
0.0
  0
LINE
  8
OBJECT
 10
63.333433
 20
143.644651
 30
0.0
 11
63.333433
 21
145.145151
 31
0.0
  0
LINE
  8
OBJECT
 10
63.676433
 20
145.145151
 30
0.0
 11
63.676433
 21
143.644651
 31
0.0
  0
LINE
  8
OBJECT
 10
63.450933
 20
141.863151
 30
0.0
 11
63.558933
 21
141.863151
 31
0.0
  0
LINE
  8
OBJECT
 10
63.333433
 20
142.144151
 30
0.0
 11
63.738433
 21
142.144151
 31
0.0
  0
ARC
  8
OBJECT
 10
63.168685
 20
142.191399
 30
0.0
 40
0.509942
 50
319.931907
 51
354.683658
  0
ARC
  8
OBJECT
 10
63.841182
 20
142.191399
 30
0.0
 40
0.509942
 50
185.316342
 51
220.068093
  0
LINE
  8
OBJECT
 10
63.676433
 20
142.144151
 30
0.0
 11
63.676433
 21
143.644651
 31
0.0
  0
LINE
  8
OBJECT
 10
63.333433
 20
143.644651
 30
0.0
 11
63.333433
 21
142.144151
 31
0.0
  0
LINE
  8
OBJECT
 10
63.450933
 20
145.426151
 30
0.0
 11
63.558933
 21
145.426151
 31
0.0
  0
CIRCLE
  8
OBJECT
 10
83.738683
 20
114.097901
 30
0.0
 40
0.1405
  0
CIRCLE
  8
OBJECT
 10
85.488683
 20
114.097901
 30
0.0
 40
0.1405
  0
CIRCLE
  8
OBJECT
 10
84.363683
 20
114.097901
 30
0.0
 40
0.1405
  0
CIRCLE
  8
OBJECT
 10
84.988683
 20
114.097901
 30
0.0
 40
0.1405
  0
CIRCLE
  8
OBJECT
 10
83.738683
 20
111.347901
 30
0.0
 40
0.1405
  0
CIRCLE
  8
OBJECT
 10
85.488683
 20
111.347901
 30
0.0
 40
0.1405
  0
CIRCLE
  8
OBJECT
 10
84.363683
 20
111.347901
 30
0.0
 40
0.1405
  0
CIRCLE
  8
OBJECT
 10
84.988683
 20
111.347901
 30
0.0
 40
0.1405
  0
CIRCLE
  8
OBJECT
 10
87.863183
 20
82.191901
 30
0.0
 40
0.218
  0
CIRCLE
  8
OBJECT
 10
84.988683
 20
82.191901
 30
0.0
 40
0.1405
  0
CIRCLE
  8
OBJECT
 10
84.363683
 20
82.191901
 30
0.0
 40
0.1405
  0
CIRCLE
  8
OBJECT
 10
83.738683
 20
82.191901
 30
0.0
 40
0.1405
  0
CIRCLE
  8
OBJECT
 10
85.488683
 20
82.191901
 30
0.0
 40
0.1405
  0
CIRCLE
  8
OBJECT
 10
84.988683
 20
79.441901
 30
0.0
 40
0.1405
  0
CIRCLE
  8
OBJECT
 10
84.363683
 20
79.441901
 30
0.0
 40
0.1405
  0
CIRCLE
  8
OBJECT
 10
83.738683
 20
79.441901
 30
0.0
 40
0.1405
  0
CIRCLE
  8
OBJECT
 10
85.488683
 20
79.441901
 30
0.0
 40
0.1405
  0
CIRCLE
  8
OBJECT
 10
66.863683
 20
82.191901
 30
0.0
 40
0.218
  0
CIRCLE
  8
OBJECT
 10
68.613683
 20
82.191901
 30
0.0
 40
0.1405
  0
CIRCLE
  8
OBJECT
 10
69.238683
 20
82.191901
 30
0.0
 40
0.1405
  0
CIRCLE
  8
OBJECT
 10
68.613683
 20
79.441901
 30
0.0
 40
0.1405
  0
CIRCLE
  8
OBJECT
 10
69.238683
 20
79.441901
 30
0.0
 40
0.1405
  0
POLYLINE
  8
OBJECT
 66
     1
 10
0.0
 20
0.0
 30
0.0
 75
     6
  0
VERTEX
  8
OBJECT
 10
89.238433
 20
139.568172
 30
0.0
  0
VERTEX
  8
OBJECT
 10
88.825004
 20
139.314391
 30
0.0
  0
VERTEX
  8
OBJECT
 10
87.970737
 20
138.543511
 30
0.0
  0
VERTEX
  8
OBJECT
 10
87.336417
 20
137.778364
 30
0.0
  0
VERTEX
  8
OBJECT
 10
86.794642
 20
137.057957
 30
0.0
  0
VERTEX
  8
OBJECT
 10
86.218011
 20
136.421296
 30
0.0
  0
VERTEX
  8
OBJECT
 10
85.506486
 20
135.894683
 30
0.0
  0
VERTEX
  8
OBJECT
 10
84.669492
 20
135.453605
 30
0.0
  0
VERTEX
  8
OBJECT
 10
83.743819
 20
135.060846
 30
0.0
  0
VERTEX
  8
OBJECT
 10
82.766258
 20
134.679189
 30
0.0
  0
VERTEX
  8
OBJECT
 10
81.773598
 20
134.271418
 30
0.0
  0
VERTEX
  8
OBJECT
 10
80.802629
 20
133.800315
 30
0.0
  0
VERTEX
  8
OBJECT
 10
79.890142
 20
133.228664
 30
0.0
  0
VERTEX
  8
OBJECT
 10
79.072925
 20
132.519249
 30
0.0
  0
VERTEX
  8
OBJECT
 10
78.377935
 20
131.647007
 30
0.0
  0
VERTEX
  8
OBJECT
 10
77.792791
 20
130.635495
 30
0.0
  0
VERTEX
  8
OBJECT
 10
77.295278
 20
129.520427
 30
0.0
  0
VERTEX
  8
OBJECT
 10
76.86318
 20
128.337514
 30
0.0
  0
VERTEX
  8
OBJECT
 10
76.474283
 20
127.122467
 30
0.0
  0
VERTEX
  8
OBJECT
 10
76.106371
 20
125.911
 30
0.0
  0
VERTEX
  8
OBJECT
 10
75.737229
 20
124.738825
 30
0.0
  0
VERTEX
  8
OBJECT
 10
75.344642
 20
123.641652
 30
0.0
  0
VERTEX
  8
OBJECT
 10
74.912835
 20
122.64607
 30
0.0
  0
VERTEX
  8
OBJECT
 10
74.451797
 20
121.742168
 30
0.0
  0
VERTEX
  8
OBJECT
 10
73.977957
 20
120.91091
 30
0.0
  0
VERTEX
  8
OBJECT
 10
73.507744
 20
120.133259
 30
0.0
  0
VERTEX
  8
OBJECT
 10
73.057587
 20
119.390181
 30
0.0
  0
VERTEX
  8
OBJECT
 10
72.643915
 20
118.662639
 30
0.0
  0
VERTEX
  8
OBJECT
 10
72.283157
 20
117.931597
 30
0.0
  0
VERTEX
  8
OBJECT
 10
71.991743
 20
117.17802
 30
0.0
  0
VERTEX
  8
OBJECT
 10
71.779168
 20
116.3882
 30
0.0
  0
VERTEX
  8
OBJECT
 10
71.627203
 20
115.569747
 30
0.0
  0
VERTEX
  8
OBJECT
 10
71.510685
 20
114.735599
 30
0.0
  0
VERTEX
  8
OBJECT
 10
71.404452
 20
113.898693
 30
0.0
  0
VERTEX
  8
OBJECT
 10
71.28334
 20
113.071969
 30
0.0
  0
VERTEX
  8
OBJECT
 10
71.122188
 20
112.268363
 30
0.0
  0
VERTEX
  8
OBJECT
 10
70.895832
 20
111.500813
 30
0.0
  0
VERTEX
  8
OBJECT
 10
70.57911
 20
110.782259
 30
0.0
  0
VERTEX
  8
OBJECT
 10
70.155399
 20
110.119113
 30
0.0
  0
VERTEX
  8
OBJECT
 10
69.642231
 20
109.491692
 30
0.0
  0
VERTEX
  8
OBJECT
 10
69.06568
 20
108.87379
 30
0.0
  0
VERTEX
  8
OBJECT
 10
68.451817
 20
108.239197
 30
0.0
  0
VERTEX
  8
OBJECT
 10
67.826714
 20
107.561708
 30
0.0
  0
VERTEX
  8
OBJECT
 10
67.216445
 20
106.815115
 30
0.0
  0
VERTEX
  8
OBJECT
 10
66.64708
 20
105.97321
 30
0.0
  0
VERTEX
  8
OBJECT
 10
66.144693
 20
105.009785
 30
0.0
  0
VERTEX
  8
OBJECT
 10
65.724252
 20
103.908896
 30
0.0
  0
VERTEX
  8
OBJECT
 10
65.356307
 20
102.695649
 30
0.0
  0
VERTEX
  8
OBJECT
 10
65.000308
 20
101.405409
 30
0.0
  0
VERTEX
  8
OBJECT
 10
64.6157
 20
100.073545
 30
0.0
  0
VERTEX
  8
OBJECT
 10
64.161931
 20
98.735424
 30
0.0
  0
VERTEX
  8
OBJECT
 10
63.738433
 20
97.751608
 30
0.0
  0
SEQEND
  8
OBJECT
  0
LINE
  8
OBJECT
 10
87.770433
 20
138.301895
 30
0.0
 11
87.770433
 21
150.378901
 31
0.0
  0
LINE
  8
OBJECT
 10
65.206433
 20
150.378901
 30
0.0
 11
65.206433
 21
102.152464
 31
0.0
  0
POLYLINE
  8
HIDDEN
 66
     1
 10
0.0
 20
0.0
 30
0.0
 70
     1
  0
VERTEX
  8
HIDDEN
 10
78.081933
 20
144.097401
 30
0.0
  0
VERTEX
  8
HIDDEN
 10
78.081933
 20
145.160401
 30
0.0
  0
VERTEX
  8
HIDDEN
 10
78.394933
 20
145.160401
 30
0.0
  0
VERTEX
  8
HIDDEN
 10
78.394933
 20
144.097401
 30
0.0
  0
SEQEND
  8
HIDDEN
  0
POLYLINE
  8
HIDDEN
 66
     1
 10
0.0
 20
0.0
 30
0.0
 70
     1
  0
VERTEX
  8
HIDDEN
 10
76.331933
 20
144.097401
 30
0.0
  0
VERTEX
  8
HIDDEN
 10
76.331933
 20
145.160401
 30
0.0
  0
VERTEX
  8
HIDDEN
 10
76.644933
 20
145.160401
 30
0.0
  0
VERTEX
  8
HIDDEN
 10
76.644933
 20
144.097401
 30
0.0
  0
SEQEND
  8
HIDDEN
  0
POLYLINE
  8
HIDDEN
 66
     1
 10
0.0
 20
0.0
 30
0.0
 70
     1
  0
VERTEX
  8
HIDDEN
 10
79.831933
 20
144.097401
 30
0.0
  0
VERTEX
  8
HIDDEN
 10
79.831933
 20
145.160401
 30
0.0
  0
VERTEX
  8
HIDDEN
 10
80.144933
 20
145.160401
 30
0.0
  0
VERTEX
  8
HIDDEN
 10
80.144933
 20
144.097401
 30
0.0
  0
SEQEND
  8
HIDDEN
  0
LINE
  8
HIDDEN
 10
86.863433
 20
147.721901
 30
0.0
 11
86.863433
 21
146.378901
 31
0.0
  0
LINE
  8
HIDDEN
 10
87.207433
 20
147.721901
 30
0.0
 11
86.285433
 21
147.721901
 31
0.0
  0
LINE
  8
HIDDEN
 10
86.285433
 20
147.721901
 30
0.0
 11
86.285433
 21
146.378901
 31
0.0
  0
LINE
  8
HIDDEN
 10
86.863433
 20
142.878901
 30
0.0
 11
86.863433
 21
137.14943
 31
0.0
  0
LINE
  8
HIDDEN
 10
86.285433
 20
142.878901
 30
0.0
 11
86.285433
 21
136.495738
 31
0.0
  0
LINE
  8
HIDDEN
 10
67.522433
 20
107.189456
 30
0.0
 11
67.522433
 21
110.972901
 31
0.0
  0
LINE
  8
HIDDEN
 10
68.100433
 20
107.858366
 30
0.0
 11
68.100433
 21
110.972901
 31
0.0
  0
LINE
  8
HIDDEN
 10
66.022433
 20
147.723901
 30
0.0
 11
66.022433
 21
146.378901
 31
0.0
  0
LINE
  8
HIDDEN
 10
68.100433
 20
147.723901
 30
0.0
 11
66.022433
 21
147.723901
 31
0.0
  0
ARC
  8
PMR
 10
67.850433
 20
107.723901
 30
0.0
 40
0.1405
 50
268.507295
 51
6.098777
  0
LINE
  8
HIDDEN
 10
66.022433
 20
142.878901
 30
0.0
 11
66.022433
 21
114.472901
 31
0.0
  0
LINE
  8
HIDDEN
 10
67.522433
 20
146.378901
 30
0.0
 11
67.522433
 21
147.723901
 31
0.0
  0
LINE
  8
HIDDEN
 10
68.100433
 20
146.378901
 30
0.0
 11
68.100433
 21
147.723901
 31
0.0
  0
LINE
  8
HIDDEN
 10
70.66314
 20
110.972901
 30
0.0
 11
65.769433
 21
110.972901
 31
0.0
  0
LINE
  8
HIDDEN
 10
71.477339
 20
114.472901
 30
0.0
 11
65.769433
 21
114.472901
 31
0.0
  0
LINE
  8
HIDDEN
 10
68.100433
 20
114.472901
 30
0.0
 11
68.100433
 21
142.878901
 31
0.0
  0
LINE
  8
HIDDEN
 10
67.522433
 20
114.472901
 30
0.0
 11
67.522433
 21
142.878901
 31
0.0
  0
LINE
  8
HIDDEN
 10
66.022433
 20
110.972901
 30
0.0
 11
66.022433
 21
104.689658
 31
0.0
  0
LINE
  8
OBJECT
 10
65.128433
 20
101.869771
 30
0.0
 11
65.128433
 21
82.566901
 31
0.0
  0
LINE
  8
OBJECT
 10
87.848433
 20
77.691901
 30
0.0
 11
87.848433
 21
77.721901
 31
0.0
  0
CIRCLE
  8
OBJECT
 10
87.863183
 20
114.097901
 30
0.0
 40
0.218
  0
LINE
  8
PMR
 10
88.254433
 20
77.721901
 30
0.0
 11
88.254433
 21
138.799515
 31
0.0
  0
LINE
  8
PMR
 10
88.363433
 20
77.721901
 30
0.0
 11
88.363433
 21
138.897875
 31
0.0
  0
LINE
  8
PMR
 10
86.285433
 20
77.721901
 30
0.0
 11
88.363433
 21
77.721901
 31
0.0
  0
CIRCLE
  8
PMR
 10
86.535433
 20
79.721901
 30
0.0
 40
0.1405
  0
CIRCLE
  8
PMR
 10
86.535433
 20
79.221901
 30
0.0
 40
0.1405
  0
CIRCLE
  8
PMR
 10
86.535433
 20
78.596901
 30
0.0
 40
0.1405
  0
CIRCLE
  8
PMR
 10
86.535433
 20
77.971901
 30
0.0
 40
0.1405
  0
CIRCLE
  8
PMR
 10
86.535433
 20
82.096901
 30
0.0
 40
0.1405
  0
CIRCLE
  8
PMR
 10
86.535433
 20
82.721901
 30
0.0
 40
0.1405
  0
CIRCLE
  8
PMR
 10
86.535433
 20
83.221901
 30
0.0
 40
0.1405
  0
CIRCLE
  8
PMR
 10
86.535433
 20
81.471901
 30
0.0
 40
0.1405
  0
CIRCLE
  8
PMR
 10
86.535433
 20
80.346901
 30
0.0
 40
0.1405
  0
CIRCLE
  8
PMR
 10
86.535433
 20
80.971901
 30
0.0
 40
0.1405
  0
CIRCLE
  8
PMR
 10
86.535433
 20
87.346901
 30
0.0
 40
0.1405
  0
CIRCLE
  8
PMR
 10
86.535433
 20
86.221901
 30
0.0
 40
0.1405
  0
CIRCLE
  8
PMR
 10
86.535433
 20
86.721901
 30
0.0
 40
0.1405
  0
CIRCLE
  8
PMR
 10
86.535433
 20
84.971901
 30
0.0
 40
0.1405
  0
CIRCLE
  8
PMR
 10
86.535433
 20
83.846901
 30
0.0
 40
0.1405
  0
CIRCLE
  8
PMR
 10
86.535433
 20
84.471901
 30
0.0
 40
0.1405
  0
CIRCLE
  8
PMR
 10
86.535433
 20
85.596901
 30
0.0
 40
0.1405
  0
CIRCLE
  8
PMR
 10
86.535433
 20
89.721901
 30
0.0
 40
0.1405
  0
CIRCLE
  8
PMR
 10
86.535433
 20
90.221901
 30
0.0
 40
0.1405
  0
CIRCLE
  8
PMR
 10
86.535433
 20
90.846901
 30
0.0
 40
0.1405
  0
CIRCLE
  8
PMR
 10
86.535433
 20
88.471901
 30
0.0
 40
0.1405
  0
CIRCLE
  8
PMR
 10
86.535433
 20
89.096901
 30
0.0
 40
0.1405
  0
CIRCLE
  8
PMR
 10
86.535433
 20
87.971901
 30
0.0
 40
0.1405
  0
CIRCLE
  8
PMR
 10
86.535433
 20
93.721901
 30
0.0
 40
0.1405
  0
CIRCLE
  8
PMR
 10
86.535433
 20
94.346901
 30
0.0
 40
0.1405
  0
CIRCLE
  8
PMR
 10
86.535433
 20
91.971901
 30
0.0
 40
0.1405
  0
CIRCLE
  8
PMR
 10
86.535433
 20
92.596901
 30
0.0
 40
0.1405
  0
CIRCLE
  8
PMR
 10
86.535433
 20
91.471901
 30
0.0
 40
0.1405
  0
CIRCLE
  8
PMR
 10
86.535433
 20
93.221901
 30
0.0
 40
0.1405
  0
CIRCLE
  8
PMR
 10
86.535433
 20
97.846901
 30
0.0
 40
0.1405
  0
CIRCLE
  8
PMR
 10
86.535433
 20
98.471901
 30
0.0
 40
0.1405
  0
CIRCLE
  8
PMR
 10
86.535433
 20
95.471901
 30
0.0
 40
0.1405
  0
CIRCLE
  8
PMR
 10
86.535433
 20
96.096901
 30
0.0
 40
0.1405
  0
CIRCLE
  8
PMR
 10
86.535433
 20
94.971901
 30
0.0
 40
0.1405
  0
CIRCLE
  8
PMR
 10
86.535433
 20
102.471901
 30
0.0
 40
0.1405
  0
CIRCLE
  8
PMR
 10
86.535433
 20
101.346901
 30
0.0
 40
0.1405
  0
CIRCLE
  8
PMR
 10
86.535433
 20
101.971901
 30
0.0
 40
0.1405
  0
CIRCLE
  8
PMR
 10
86.535433
 20
98.971901
 30
0.0
 40
0.1405
  0
CIRCLE
  8
PMR
 10
86.535433
 20
99.596901
 30
0.0
 40
0.1405
  0
CIRCLE
  8
PMR
 10
86.535433
 20
100.221901
 30
0.0
 40
0.1405
  0
CIRCLE
  8
PMR
 10
86.535433
 20
100.721901
 30
0.0
 40
0.1405
  0
CIRCLE
  8
PMR
 10
86.535433
 20
105.971901
 30
0.0
 40
0.1405
  0
CIRCLE
  8
PMR
 10
86.535433
 20
104.846901
 30
0.0
 40
0.1405
  0
CIRCLE
  8
PMR
 10
86.535433
 20
105.471901
 30
0.0
 40
0.1405
  0
CIRCLE
  8
PMR
 10
86.535433
 20
103.096901
 30
0.0
 40
0.1405
  0
CIRCLE
  8
PMR
 10
86.535433
 20
103.721901
 30
0.0
 40
0.1405
  0
CIRCLE
  8
PMR
 10
86.535433
 20
104.221901
 30
0.0
 40
0.1405
  0
CIRCLE
  8
PMR
 10
86.535433
 20
110.096901
 30
0.0
 40
0.1405
  0
CIRCLE
  8
PMR
 10
86.535433
 20
108.971901
 30
0.0
 40
0.1405
  0
CIRCLE
  8
PMR
 10
86.535433
 20
109.471901
 30
0.0
 40
0.1405
  0
CIRCLE
  8
PMR
 10
86.535433
 20
106.596901
 30
0.0
 40
0.1405
  0
CIRCLE
  8
PMR
 10
86.535433
 20
107.221901
 30
0.0
 40
0.1405
  0
CIRCLE
  8
PMR
 10
86.535433
 20
107.721901
 30
0.0
 40
0.1405
  0
CIRCLE
  8
PMR
 10
86.535433
 20
108.346901
 30
0.0
 40
0.1405
  0
CIRCLE
  8
PMR
 10
86.535433
 20
112.471901
 30
0.0
 40
0.1405
  0
CIRCLE
  8
PMR
 10
86.535433
 20
113.596901
 30
0.0
 40
0.1405
  0
CIRCLE
  8
PMR
 10
86.535433
 20
112.971901
 30
0.0
 40
0.1405
  0
CIRCLE
  8
PMR
 10
86.535433
 20
111.846901
 30
0.0
 40
0.1405
  0
CIRCLE
  8
PMR
 10
86.535433
 20
111.221901
 30
0.0
 40
0.1405
  0
CIRCLE
  8
PMR
 10
86.535433
 20
110.721901
 30
0.0
 40
0.1405
  0
CIRCLE
  8
PMR
 10
86.535433
 20
117.721901
 30
0.0
 40
0.1405
  0
CIRCLE
  8
PMR
 10
86.535433
 20
116.471901
 30
0.0
 40
0.1405
  0
CIRCLE
  8
PMR
 10
86.535433
 20
117.096901
 30
0.0
 40
0.1405
  0
CIRCLE
  8
PMR
 10
86.535433
 20
115.971901
 30
0.0
 40
0.1405
  0
CIRCLE
  8
PMR
 10
86.535433
 20
115.346901
 30
0.0
 40
0.1405
  0
CIRCLE
  8
PMR
 10
86.535433
 20
114.721901
 30
0.0
 40
0.1405
  0
CIRCLE
  8
PMR
 10
86.535433
 20
114.221901
 30
0.0
 40
0.1405
  0
CIRCLE
  8
PMR
 10
86.535433
 20
121.221901
 30
0.0
 40
0.1405
  0
CIRCLE
  8
PMR
 10
86.535433
 20
120.596901
 30
0.0
 40
0.1405
  0
CIRCLE
  8
PMR
 10
86.535433
 20
118.221901
 30
0.0
 40
0.1405
  0
CIRCLE
  8
PMR
 10
86.535433
 20
118.846901
 30
0.0
 40
0.1405
  0
CIRCLE
  8
PMR
 10
86.535433
 20
119.471901
 30
0.0
 40
0.1405
  0
CIRCLE
  8
PMR
 10
86.535433
 20
119.971901
 30
0.0
 40
0.1405
  0
CIRCLE
  8
PMR
 10
86.535433
 20
125.221901
 30
0.0
 40
0.1405
  0
CIRCLE
  8
PMR
 10
86.535433
 20
124.096901
 30
0.0
 40
0.1405
  0
CIRCLE
  8
PMR
 10
86.535433
 20
124.721901
 30
0.0
 40
0.1405
  0
CIRCLE
  8
PMR
 10
86.535433
 20
121.721901
 30
0.0
 40
0.1405
  0
CIRCLE
  8
PMR
 10
86.535433
 20
123.471901
 30
0.0
 40
0.1405
  0
CIRCLE
  8
PMR
 10
86.535433
 20
122.346901
 30
0.0
 40
0.1405
  0
CIRCLE
  8
PMR
 10
86.535433
 20
122.971901
 30
0.0
 40
0.1405
  0
CIRCLE
  8
PMR
 10
86.535433
 20
126.971901
 30
0.0
 40
0.1405
  0
CIRCLE
  8
PMR
 10
86.535433
 20
125.846901
 30
0.0
 40
0.1405
  0
CIRCLE
  8
PMR
 10
86.535433
 20
126.471901
 30
0.0
 40
0.1405
  0
CIRCLE
  8
PMR
 10
86.535433
 20
127.596901
 30
0.0
 40
0.1405
  0
CIRCLE
  8
PMR
 10
86.535433
 20
132.846901
 30
0.0
 40
0.1405
  0
CIRCLE
  8
PMR
 10
86.535433
 20
131.721901
 30
0.0
 40
0.1405
  0
CIRCLE
  8
PMR
 10
86.535433
 20
132.221901
 30
0.0
 40
0.1405
  0
CIRCLE
  8
PMR
 10
86.535433
 20
130.471901
 30
0.0
 40
0.1405
  0
CIRCLE
  8
PMR
 10
86.535433
 20
131.096901
 30
0.0
 40
0.1405
  0
CIRCLE
  8
PMR
 10
86.535433
 20
129.346901
 30
0.0
 40
0.1405
  0
CIRCLE
  8
PMR
 10
86.535433
 20
129.971901
 30
0.0
 40
0.1405
  0
CIRCLE
  8
PMR
 10
86.535433
 20
136.346901
 30
0.0
 40
0.1405
  0
CIRCLE
  8
PMR
 10
86.535433
 20
135.721901
 30
0.0
 40
0.1405
  0
CIRCLE
  8
PMR
 10
86.535433
 20
133.971901
 30
0.0
 40
0.1405
  0
CIRCLE
  8
PMR
 10
86.535433
 20
134.596901
 30
0.0
 40
0.1405
  0
CIRCLE
  8
PMR
 10
86.535433
 20
133.471901
 30
0.0
 40
0.1405
  0
CIRCLE
  8
PMR
 10
86.535433
 20
135.221901
 30
0.0
 40
0.1405
  0
ARC
  8
PMR
 10
86.535433
 20
136.971901
 30
0.0
 40
0.1405
 50
300.820505
 51
334.844469
  0
POLYLINE
  8
PMR
 66
     1
 10
0.0
 20
0.0
 30
0.0
 70
     1
  0
VERTEX
  8
PMR
 10
87.299933
 20
131.972901
 30
0.0
 42
-1.0
  0
VERTEX
  8
PMR
 10
87.299933
 20
132.222901
 30
0.0
  0
VERTEX
  8
PMR
 10
87.924933
 20
132.222901
 30
0.0
 42
-1.0
  0
VERTEX
  8
PMR
 10
87.924933
 20
131.972901
 30
0.0
  0
SEQEND
  8
PMR
  0
POLYLINE
  8
PMR
 66
     1
 10
0.0
 20
0.0
 30
0.0
 70
     1
  0
VERTEX
  8
PMR
 10
87.299933
 20
129.222901
 30
0.0
 42
-1.0
  0
VERTEX
  8
PMR
 10
87.299933
 20
129.472901
 30
0.0
  0
VERTEX
  8
PMR
 10
87.924933
 20
129.472901
 30
0.0
 42
-1.0
  0
VERTEX
  8
PMR
 10
87.924933
 20
129.222901
 30
0.0
  0
SEQEND
  8
PMR
  0
POLYLINE
  8
PMR
 66
     1
 10
0.0
 20
0.0
 30
0.0
 70
     1
  0
VERTEX
  8
PMR
 10
87.299933
 20
93.468901
 30
0.0
 42
1.0
  0
VERTEX
  8
PMR
 10
87.299933
 20
93.218901
 30
0.0
  0
VERTEX
  8
PMR
 10
87.924933
 20
93.218901
 30
0.0
 42
1.0
  0
VERTEX
  8
PMR
 10
87.924933
 20
93.468901
 30
0.0
  0
SEQEND
  8
PMR
  0
POLYLINE
  8
PMR
 66
     1
 10
0.0
 20
0.0
 30
0.0
 70
     1
  0
VERTEX
  8
PMR
 10
87.924933
 20
80.689901
 30
0.0
 42
1.0
  0
VERTEX
  8
PMR
 10
87.924933
 20
80.939901
 30
0.0
  0
VERTEX
  8
PMR
 10
87.299933
 20
80.939901
 30
0.0
 42
1.0
  0
VERTEX
  8
PMR
 10
87.299933
 20
80.689901
 30
0.0
  0
SEQEND
  8
PMR
  0
POLYLINE
  8
PMR
 66
     1
 10
0.0
 20
0.0
 30
0.0
 70
     1
  0
VERTEX
  8
PMR
 10
87.299933
 20
78.189901
 30
0.0
 42
1.0
  0
VERTEX
  8
PMR
 10
87.299933
 20
77.939901
 30
0.0
  0
VERTEX
  8
PMR
 10
87.924933
 20
77.939901
 30
0.0
 42
1.0
  0
VERTEX
  8
PMR
 10
87.924933
 20
78.189901
 30
0.0
  0
SEQEND
  8
PMR
  0
LINE
  8
OBJECT
 10
87.207433
 20
137.606852
 30
0.0
 11
87.207433
 21
142.878901
 31
0.0
  0
LINE
  8
OBJECT
 10
86.285433
 20
114.472901
 30
0.0
 11
71.477339
 21
114.472901
 31
0.0
  0
LINE
  8
OBJECT
 10
86.285433
 20
113.847901
 30
0.0
 11
71.397011
 21
113.847901
 31
0.0
  0
LINE
  8
OBJECT
 10
86.285433
 20
111.597901
 30
0.0
 11
70.924463
 21
111.597901
 31
0.0
  0
LINE
  8
OBJECT
 10
86.285433
 20
110.972901
 30
0.0
 11
70.66314
 21
110.972901
 31
0.0
  0
POLYLINE
  8
PMR
 66
     1
 10
0.0
 20
0.0
 30
0.0
  0
VERTEX
  8
PMR
 10
87.683197
 20
111.470901
 30
0.0
  0
VERTEX
  8
PMR
 10
87.299933
 20
111.470901
 30
0.0
 42
1.0
  0
VERTEX
  8
PMR
 10
87.299933
 20
111.220901
 30
0.0
  0
VERTEX
  8
PMR
 10
87.685997
 20
111.220901
 30
0.0
 42
1.0
  0
SEQEND
  8
PMR
  0
POLYLINE
  8
PMR
 66
     1
 10
0.0
 20
0.0
 30
0.0
  0
VERTEX
  8
PMR
 10
87.299933
 20
114.220901
 30
0.0
 42
1.0
  0
VERTEX
  8
PMR
 10
87.299933
 20
113.970901
 30
0.0
  0
VERTEX
  8
PMR
 10
87.685997
 20
113.970901
 30
0.0
 42
1.0
  0
SEQEND
  8
PMR
  0
POLYLINE
  8
PMR
 66
     1
 10
0.0
 20
0.0
 30
0.0
  0
VERTEX
  8
PMR
 10
87.683197
 20
114.220901
 30
0.0
  0
VERTEX
  8
PMR
 10
87.299933
 20
114.220901
 30
0.0
 42
1.0
  0
SEQEND
  8
PMR
  0
LINE
  8
OBJECT
 10
86.285433
 20
82.566901
 30
0.0
 11
68.100433
 21
82.566901
 31
0.0
  0
LINE
  8
OBJECT
 10
86.285433
 20
81.941901
 30
0.0
 11
68.100433
 21
81.941901
 31
0.0
  0
LINE
  8
OBJECT
 10
86.285433
 20
79.691901
 30
0.0
 11
68.100433
 21
79.691901
 31
0.0
  0
LINE
  8
OBJECT
 10
86.285433
 20
79.066901
 30
0.0
 11
68.100433
 21
79.066901
 31
0.0
  0
POLYLINE
  8
PMR
 66
     1
 10
0.0
 20
0.0
 30
0.0
  0
VERTEX
  8
PMR
 10
408.729974
 20
117.818168
 30
0.0
 42
1.0
  0
SEQEND
  8
PMR
  0
POLYLINE
  8
PMR
 66
     1
 10
0.0
 20
0.0
 30
0.0
  0
VERTEX
  8
PMR
 10
87.683197
 20
82.314901
 30
0.0
  0
VERTEX
  8
PMR
 10
87.299933
 20
82.314901
 30
0.0
 42
1.0
  0
VERTEX
  8
PMR
 10
87.299933
 20
82.064901
 30
0.0
  0
VERTEX
  8
PMR
 10
87.685997
 20
82.064901
 30
0.0
 42
1.0
  0
SEQEND
  8
PMR
  0
POLYLINE
  8
PMR
 66
     1
 10
0.0
 20
0.0
 30
0.0
  0
VERTEX
  8
PMR
 10
408.729974
 20
115.068168
 30
0.0
 42
1.0
  0
SEQEND
  8
PMR
  0
POLYLINE
  8
PMR
 66
     1
 10
0.0
 20
0.0
 30
0.0
  0
VERTEX
  8
PMR
 10
87.683197
 20
79.564901
 30
0.0
  0
VERTEX
  8
PMR
 10
87.299933
 20
79.564901
 30
0.0
 42
1.0
  0
VERTEX
  8
PMR
 10
87.299933
 20
79.314901
 30
0.0
  0
VERTEX
  8
PMR
 10
87.685997
 20
79.314901
 30
0.0
 42
1.0
  0
SEQEND
  8
PMR
  0
LINE
  8
PMR
 10
67.413433
 20
77.723901
 30
0.0
 11
67.413433
 21
107.056108
 31
0.0
  0
LINE
  8
PMR
 10
66.131433
 20
104.975065
 30
0.0
 11
66.131433
 21
77.723901
 31
0.0
  0
LINE
  8
PMR
 10
68.100433
 20
77.723901
 30
0.0
 11
68.100433
 21
107.858366
 31
0.0
  0
LINE
  8
PMR
 10
66.022433
 20
104.689658
 30
0.0
 11
66.022433
 21
77.723901
 31
0.0
  0
CIRCLE
  8
PMR
 10
67.850433
 20
80.973901
 30
0.0
 40
0.1405
  0
ARC
  8
PMR
 10
67.850433
 20
107.723901
 30
0.0
 40
0.1405
 50
268.507295
 51
6.098777
  0
CIRCLE
  8
PMR
 10
67.850433
 20
104.223901
 30
0.0
 40
0.1405
  0
CIRCLE
  8
PMR
 10
67.850433
 20
104.848901
 30
0.0
 40
0.1405
  0
CIRCLE
  8
PMR
 10
67.850433
 20
107.223901
 30
0.0
 40
0.1405
  0
CIRCLE
  8
PMR
 10
67.850433
 20
106.598901
 30
0.0
 40
0.1405
  0
CIRCLE
  8
PMR
 10
67.850433
 20
105.973901
 30
0.0
 40
0.1405
  0
CIRCLE
  8
PMR
 10
67.850433
 20
105.473901
 30
0.0
 40
0.1405
  0
CIRCLE
  8
PMR
 10
67.850433
 20
100.223901
 30
0.0
 40
0.1405
  0
CIRCLE
  8
PMR
 10
67.850433
 20
101.348901
 30
0.0
 40
0.1405
  0
CIRCLE
  8
PMR
 10
67.850433
 20
100.723901
 30
0.0
 40
0.1405
  0
CIRCLE
  8
PMR
 10
67.850433
 20
103.723901
 30
0.0
 40
0.1405
  0
CIRCLE
  8
PMR
 10
67.850433
 20
101.973901
 30
0.0
 40
0.1405
  0
CIRCLE
  8
PMR
 10
67.850433
 20
103.098901
 30
0.0
 40
0.1405
  0
CIRCLE
  8
PMR
 10
67.850433
 20
102.473901
 30
0.0
 40
0.1405
  0
CIRCLE
  8
PMR
 10
67.850433
 20
98.473901
 30
0.0
 40
0.1405
  0
CIRCLE
  8
PMR
 10
67.850433
 20
99.598901
 30
0.0
 40
0.1405
  0
CIRCLE
  8
PMR
 10
67.850433
 20
98.973901
 30
0.0
 40
0.1405
  0
CIRCLE
  8
PMR
 10
67.850433
 20
97.848901
 30
0.0
 40
0.1405
  0
CIRCLE
  8
PMR
 10
67.850433
 20
92.598901
 30
0.0
 40
0.1405
  0
CIRCLE
  8
PMR
 10
67.850433
 20
93.723901
 30
0.0
 40
0.1405
  0
CIRCLE
  8
PMR
 10
67.850433
 20
93.223901
 30
0.0
 40
0.1405
  0
CIRCLE
  8
PMR
 10
67.850433
 20
94.973901
 30
0.0
 40
0.1405
  0
CIRCLE
  8
PMR
 10
67.850433
 20
94.348901
 30
0.0
 40
0.1405
  0
CIRCLE
  8
PMR
 10
67.850433
 20
96.098901
 30
0.0
 40
0.1405
  0
CIRCLE
  8
PMR
 10
67.850433
 20
95.473901
 30
0.0
 40
0.1405
  0
CIRCLE
  8
PMR
 10
67.850433
 20
89.098901
 30
0.0
 40
0.1405
  0
CIRCLE
  8
PMR
 10
67.850433
 20
89.723901
 30
0.0
 40
0.1405
  0
CIRCLE
  8
PMR
 10
67.850433
 20
91.473901
 30
0.0
 40
0.1405
  0
CIRCLE
  8
PMR
 10
67.850433
 20
90.848901
 30
0.0
 40
0.1405
  0
CIRCLE
  8
PMR
 10
67.850433
 20
91.973901
 30
0.0
 40
0.1405
  0
CIRCLE
  8
PMR
 10
67.850433
 20
90.223901
 30
0.0
 40
0.1405
  0
CIRCLE
  8
PMR
 10
67.850433
 20
84.973901
 30
0.0
 40
0.1405
  0
CIRCLE
  8
PMR
 10
67.850433
 20
86.223901
 30
0.0
 40
0.1405
  0
CIRCLE
  8
PMR
 10
67.850433
 20
85.598901
 30
0.0
 40
0.1405
  0
CIRCLE
  8
PMR
 10
67.850433
 20
87.973901
 30
0.0
 40
0.1405
  0
CIRCLE
  8
PMR
 10
67.850433
 20
87.348901
 30
0.0
 40
0.1405
  0
CIRCLE
  8
PMR
 10
67.850433
 20
86.723901
 30
0.0
 40
0.1405
  0
CIRCLE
  8
PMR
 10
67.850433
 20
88.473901
 30
0.0
 40
0.1405
  0
CIRCLE
  8
PMR
 10
67.850433
 20
81.473901
 30
0.0
 40
0.1405
  0
CIRCLE
  8
PMR
 10
67.850433
 20
82.098901
 30
0.0
 40
0.1405
  0
CIRCLE
  8
PMR
 10
67.850433
 20
84.473901
 30
0.0
 40
0.1405
  0
CIRCLE
  8
PMR
 10
67.850433
 20
83.848901
 30
0.0
 40
0.1405
  0
CIRCLE
  8
PMR
 10
67.850433
 20
83.223901
 30
0.0
 40
0.1405
  0
CIRCLE
  8
PMR
 10
67.850433
 20
82.723901
 30
0.0
 40
0.1405
  0
LINE
  8
PMR
 10
66.022433
 20
77.723901
 30
0.0
 11
68.100433
 21
77.723901
 31
0.0
  0
CIRCLE
  8
PMR
 10
67.850433
 20
78.598901
 30
0.0
 40
0.1405
  0
CIRCLE
  8
PMR
 10
67.850433
 20
77.973901
 30
0.0
 40
0.1405
  0
CIRCLE
  8
PMR
 10
67.850433
 20
79.223901
 30
0.0
 40
0.1405
  0
CIRCLE
  8
PMR
 10
67.850433
 20
80.348901
 30
0.0
 40
0.1405
  0
CIRCLE
  8
PMR
 10
67.850433
 20
79.723901
 30
0.0
 40
0.1405
  0
POLYLINE
  8
PMR
 66
     1
 10
0.0
 20
0.0
 30
0.0
 70
     1
  0
VERTEX
  8
PMR
 10
67.085933
 20
78.191901
 30
0.0
 42
-1.0
  0
VERTEX
  8
PMR
 10
67.085933
 20
77.941901
 30
0.0
  0
VERTEX
  8
PMR
 10
66.460933
 20
77.941901
 30
0.0
 42
-1.0
  0
VERTEX
  8
PMR
 10
66.460933
 20
78.191901
 30
0.0
  0
SEQEND
  8
PMR
  0
POLYLINE
  8
PMR
 66
     1
 10
0.0
 20
0.0
 30
0.0
 70
     1
  0
VERTEX
  8
PMR
 10
67.085933
 20
80.941901
 30
0.0
 42
-1.0
  0
VERTEX
  8
PMR
 10
67.085933
 20
80.691901
 30
0.0
  0
VERTEX
  8
PMR
 10
66.460933
 20
80.691901
 30
0.0
 42
-1.0
  0
VERTEX
  8
PMR
 10
66.460933
 20
80.941901
 30
0.0
  0
SEQEND
  8
PMR
  0
POLYLINE
  8
PMR
 66
     1
 10
0.0
 20
0.0
 30
0.0
 70
     1
  0
VERTEX
  8
PMR
 10
67.085933
 20
93.472901
 30
0.0
 42
-1.0
  0
VERTEX
  8
PMR
 10
67.085933
 20
93.222901
 30
0.0
  0
VERTEX
  8
PMR
 10
66.460933
 20
93.222901
 30
0.0
 42
-1.0
  0
VERTEX
  8
PMR
 10
66.460933
 20
93.472901
 30
0.0
  0
SEQEND
  8
PMR
  0
LINE
  8
OBJECT
 10
66.022433
 20
79.066901
 30
0.0
 11
64.519683
 21
79.066901
 31
0.0
  0
LINE
  8
OBJECT
 10
66.022433
 20
79.691901
 30
0.0
 11
64.519683
 21
79.691901
 31
0.0
  0
LINE
  8
OBJECT
 10
66.022433
 20
81.941901
 30
0.0
 11
64.519683
 21
81.941901
 31
0.0
  0
POLYLINE
  8
PMR
 66
     1
 10
0.0
 20
0.0
 30
0.0
  0
VERTEX
  8
PMR
 10
67.085933
 20
82.316901
 30
0.0
 42
-1.0
  0
VERTEX
  8
PMR
 10
67.085933
 20
82.066901
 30
0.0
  0
VERTEX
  8
PMR
 10
67.042286
 20
82.066901
 30
0.0
 42
-1.0
  0
SEQEND
  8
PMR
  0
POLYLINE
  8
PMR
 66
     1
 10
0.0
 20
0.0
 30
0.0
  0
VERTEX
  8
PMR
 10
66.68508
 20
82.066901
 30
0.0
  0
VERTEX
  8
PMR
 10
66.460933
 20
82.066901
 30
0.0
 42
-1.0
  0
VERTEX
  8
PMR
 10
66.460933
 20
82.316901
 30
0.0
  0
VERTEX
  8
PMR
 10
66.68508
 20
82.316901
 30
0.0
 42
-1.0
  0
SEQEND
  8
PMR
  0
POLYLINE
  8
PMR
 66
     1
 10
0.0
 20
0.0
 30
0.0
  0
VERTEX
  8
PMR
 10
67.042286
 20
82.316901
 30
0.0
  0
VERTEX
  8
PMR
 10
67.085933
 20
82.316901
 30
0.0
 42
-1.0
  0
SEQEND
  8
PMR
  0
POLYLINE
  8
PMR
 66
     1
 10
0.0
 20
0.0
 30
0.0
  0
VERTEX
  8
PMR
 10
66.460933
 20
79.316901
 30
0.0
 42
-1.0
  0
VERTEX
  8
PMR
 10
66.460933
 20
79.566901
 30
0.0
  0
VERTEX
  8
PMR
 10
66.68508
 20
79.566901
 30
0.0
 42
-1.0
  0
SEQEND
  8
PMR
  0
POLYLINE
  8
PMR
 66
     1
 10
0.0
 20
0.0
 30
0.0
  0
VERTEX
  8
PMR
 10
67.042286
 20
79.566901
 30
0.0
  0
VERTEX
  8
PMR
 10
67.085933
 20
79.566901
 30
0.0
 42
-1.0
  0
VERTEX
  8
PMR
 10
67.085933
 20
79.316901
 30
0.0
  0
VERTEX
  8
PMR
 10
67.042286
 20
79.316901
 30
0.0
 42
-1.0
  0
SEQEND
  8
PMR
  0
POLYLINE
  8
PMR
 66
     1
 10
0.0
 20
0.0
 30
0.0
  0
VERTEX
  8
PMR
 10
66.68508
 20
79.316901
 30
0.0
  0
VERTEX
  8
PMR
 10
66.460933
 20
79.316901
 30
0.0
 42
-1.0
  0
SEQEND
  8
PMR
  0
POLYLINE
  8
PMR
 66
     1
 10
0.0
 20
0.0
 30
0.0
  0
VERTEX
  8
PMR
 10
87.299933
 20
96.218901
 30
0.0
 42
1.0
  0
VERTEX
  8
PMR
 10
87.299933
 20
95.968901
 30
0.0
  0
VERTEX
  8
PMR
 10
87.924933
 20
95.968901
 30
0.0
 42
1.0
  0
VERTEX
  8
PMR
 10
87.924933
 20
96.218901
 30
0.0
  0
VERTEX
  8
PMR
 10
87.299933
 20
96.218901
 30
0.0
  0
SEQEND
  8
PMR
  0
LINE
  8
PMR
 10
86.285433
 20
136.495738
 30
0.0
 11
86.285433
 21
77.721901
 31
0.0
  0
LINE
  8
PMR
 10
86.972433
 20
137.294369
 30
0.0
 11
86.972433
 21
77.721901
 31
0.0
  0
LINE
  8
OBJECT
 10
79.395433
 20
134.628901
 30
0.0
 11
82.643838
 21
134.628901
 31
0.0
  0
LINE
  8
OBJECT
 10
83.270433
 20
135.253901
 30
0.0
 11
79.895433
 21
135.253901
 31
0.0
  0
LINE
  8
OBJECT
 10
79.395433
 20
134.753901
 30
0.0
 11
79.395433
 21
134.628901
 31
0.0
  0
ARC
  8
OBJECT
 10
79.895433
 20
134.753901
 30
0.0
 40
0.5
 50
90.0
 51
180.0
  0
ARC
  8
OBJECT
 10
83.270433
 20
134.753901
 30
0.0
 40
0.5
 50
34.478163
 51
90.0
  0
ARC
  8
OBJECT
 10
79.895433
 20
133.753901
 30
0.0
 40
0.5
 50
90.0
 51
180.0
  0
LINE
  8
OBJECT
 10
79.395433
 20
133.753901
 30
0.0
 11
79.395433
 21
133.628901
 31
0.0
  0
LINE
  8
OBJECT
 10
81.737495
 20
134.253901
 30
0.0
 11
79.895433
 21
134.253901
 31
0.0
  0
LINE
  8
OBJECT
 10
79.395433
 20
133.628901
 30
0.0
 11
80.529013
 21
133.628901
 31
0.0
  0
ARC
  8
OBJECT
 10
79.895433
 20
132.753901
 30
0.0
 40
0.5
 50
90.0
 51
174.576763
  0
LINE
  8
OBJECT
 10
79.930425
 20
133.253901
 30
0.0
 11
79.895433
 21
133.253901
 31
0.0
  0
LINE
  8
OBJECT
 10
79.395433
 20
139.628901
 30
0.0
 11
83.770433
 21
139.628901
 31
0.0
  0
LINE
  8
OBJECT
 10
83.770433
 20
139.628901
 30
0.0
 11
83.770433
 21
139.753901
 31
0.0
  0
LINE
  8
OBJECT
 10
83.270433
 20
140.253901
 30
0.0
 11
79.895433
 21
140.253901
 31
0.0
  0
LINE
  8
OBJECT
 10
79.395433
 20
139.753901
 30
0.0
 11
79.395433
 21
139.628901
 31
0.0
  0
ARC
  8
OBJECT
 10
79.895433
 20
139.753901
 30
0.0
 40
0.5
 50
90.0
 51
180.0
  0
ARC
  8
OBJECT
 10
83.270433
 20
139.753901
 30
0.0
 40
0.5
 50
0.0
 51
90.0
  0
ARC
  8
OBJECT
 10
83.270433
 20
138.753901
 30
0.0
 40
0.5
 50
0.0
 51
90.0
  0
ARC
  8
OBJECT
 10
79.895433
 20
138.753901
 30
0.0
 40
0.5
 50
90.0
 51
180.0
  0
LINE
  8
OBJECT
 10
79.395433
 20
138.753901
 30
0.0
 11
79.395433
 21
138.628901
 31
0.0
  0
LINE
  8
OBJECT
 10
83.270433
 20
139.253901
 30
0.0
 11
79.895433
 21
139.253901
 31
0.0
  0
LINE
  8
OBJECT
 10
83.770433
 20
138.628901
 30
0.0
 11
83.770433
 21
138.753901
 31
0.0
  0
LINE
  8
OBJECT
 10
79.395433
 20
138.628901
 30
0.0
 11
83.770433
 21
138.628901
 31
0.0
  0
ARC
  8
OBJECT
 10
83.270433
 20
137.753901
 30
0.0
 40
0.5
 50
0.0
 51
90.0
  0
ARC
  8
OBJECT
 10
79.895433
 20
137.753901
 30
0.0
 40
0.5
 50
90.0
 51
180.0
  0
LINE
  8
OBJECT
 10
79.395433
 20
137.753901
 30
0.0
 11
79.395433
 21
137.628901
 31
0.0
  0
LINE
  8
OBJECT
 10
83.270433
 20
138.253901
 30
0.0
 11
79.895433
 21
138.253901
 31
0.0
  0
LINE
  8
OBJECT
 10
83.770433
 20
137.628901
 30
0.0
 11
83.770433
 21
137.753901
 31
0.0
  0
LINE
  8
OBJECT
 10
79.395433
 20
137.628901
 30
0.0
 11
83.770433
 21
137.628901
 31
0.0
  0
ARC
  8
OBJECT
 10
83.270433
 20
136.753901
 30
0.0
 40
0.5
 50
0.0
 51
90.0
  0
ARC
  8
OBJECT
 10
79.895433
 20
136.753901
 30
0.0
 40
0.5
 50
90.0
 51
180.0
  0
LINE
  8
OBJECT
 10
79.395433
 20
136.753901
 30
0.0
 11
79.395433
 21
136.628901
 31
0.0
  0
LINE
  8
OBJECT
 10
83.270433
 20
137.253901
 30
0.0
 11
79.895433
 21
137.253901
 31
0.0
  0
LINE
  8
OBJECT
 10
83.770433
 20
136.628901
 30
0.0
 11
83.770433
 21
136.753901
 31
0.0
  0
LINE
  8
OBJECT
 10
79.395433
 20
136.628901
 30
0.0
 11
83.770433
 21
136.628901
 31
0.0
  0
ARC
  8
OBJECT
 10
83.270433
 20
135.753901
 30
0.0
 40
0.5
 50
0.0
 51
90.0
  0
ARC
  8
OBJECT
 10
79.895433
 20
135.753901
 30
0.0
 40
0.5
 50
90.0
 51
180.0
  0
LINE
  8
OBJECT
 10
79.395433
 20
135.753901
 30
0.0
 11
79.395433
 21
135.628901
 31
0.0
  0
LINE
  8
OBJECT
 10
83.270433
 20
136.253901
 30
0.0
 11
79.895433
 21
136.253901
 31
0.0
  0
LINE
  8
OBJECT
 10
83.770433
 20
135.628901
 30
0.0
 11
83.770433
 21
135.753901
 31
0.0
  0
LINE
  8
OBJECT
 10
79.395433
 20
135.628901
 30
0.0
 11
83.770433
 21
135.628901
 31
0.0
  0
LINE
  8
OBJECT
 10
79.395433
 20
140.628901
 30
0.0
 11
83.770433
 21
140.628901
 31
0.0
  0
LINE
  8
OBJECT
 10
83.770433
 20
140.628901
 30
0.0
 11
83.770433
 21
140.753901
 31
0.0
  0
LINE
  8
OBJECT
 10
83.270433
 20
141.253901
 30
0.0
 11
79.895433
 21
141.253901
 31
0.0
  0
LINE
  8
OBJECT
 10
79.395433
 20
140.753901
 30
0.0
 11
79.395433
 21
140.628901
 31
0.0
  0
ARC
  8
OBJECT
 10
79.895433
 20
140.753901
 30
0.0
 40
0.5
 50
90.0
 51
180.0
  0
ARC
  8
OBJECT
 10
83.270433
 20
140.753901
 30
0.0
 40
0.5
 50
0.0
 51
90.0
  0
LINE
  8
OBJECT
 10
79.395433
 20
141.628901
 30
0.0
 11
83.770433
 21
141.628901
 31
0.0
  0
LINE
  8
OBJECT
 10
83.770433
 20
141.628901
 30
0.0
 11
83.770433
 21
141.753901
 31
0.0
  0
LINE
  8
OBJECT
 10
83.270433
 20
142.253901
 30
0.0
 11
79.895433
 21
142.253901
 31
0.0
  0
LINE
  8
OBJECT
 10
79.395433
 20
141.753901
 30
0.0
 11
79.395433
 21
141.628901
 31
0.0
  0
ARC
  8
OBJECT
 10
79.895433
 20
141.753901
 30
0.0
 40
0.5
 50
90.0
 51
180.0
  0
ARC
  8
OBJECT
 10
83.270433
 20
141.753901
 30
0.0
 40
0.5
 50
0.0
 51
90.0
  0
LINE
  8
OBJECT
 10
79.395433
 20
142.628901
 30
0.0
 11
83.770433
 21
142.628901
 31
0.0
  0
LINE
  8
OBJECT
 10
83.770433
 20
142.628901
 30
0.0
 11
83.770433
 21
142.753901
 31
0.0
  0
LINE
  8
OBJECT
 10
83.270433
 20
143.253901
 30
0.0
 11
79.895433
 21
143.253901
 31
0.0
  0
LINE
  8
OBJECT
 10
79.395433
 20
142.753901
 30
0.0
 11
79.395433
 21
142.628901
 31
0.0
  0
ARC
  8
OBJECT
 10
79.895433
 20
142.753901
 30
0.0
 40
0.5
 50
90.0
 51
180.0
  0
ARC
  8
OBJECT
 10
83.270433
 20
142.753901
 30
0.0
 40
0.5
 50
0.0
 51
90.0
  0
LINE
  8
OBJECT
 10
79.395433
 20
143.628901
 30
0.0
 11
83.770433
 21
143.628901
 31
0.0
  0
LINE
  8
OBJECT
 10
83.770433
 20
143.628901
 30
0.0
 11
83.770433
 21
143.753901
 31
0.0
  0
LINE
  8
OBJECT
 10
83.270433
 20
144.253901
 30
0.0
 11
79.895433
 21
144.253901
 31
0.0
  0
LINE
  8
OBJECT
 10
79.395433
 20
143.753901
 30
0.0
 11
79.395433
 21
143.628901
 31
0.0
  0
ARC
  8
OBJECT
 10
79.895433
 20
143.753901
 30
0.0
 40
0.5
 50
90.0
 51
180.0
  0
ARC
  8
OBJECT
 10
83.270433
 20
143.753901
 30
0.0
 40
0.5
 50
0.0
 51
90.0
  0
ARC
  8
OBJECT
 10
83.270433
 20
144.753901
 30
0.0
 40
0.5
 50
0.0
 51
90.0
  0
ARC
  8
OBJECT
 10
79.895433
 20
144.753901
 30
0.0
 40
0.5
 50
90.0
 51
180.0
  0
LINE
  8
OBJECT
 10
79.395433
 20
144.753901
 30
0.0
 11
79.395433
 21
144.628901
 31
0.0
  0
LINE
  8
OBJECT
 10
83.270433
 20
145.253901
 30
0.0
 11
79.895433
 21
145.253901
 31
0.0
  0
LINE
  8
OBJECT
 10
83.770433
 20
144.628901
 30
0.0
 11
83.770433
 21
144.753901
 31
0.0
  0
LINE
  8
OBJECT
 10
79.395433
 20
144.628901
 30
0.0
 11
83.770433
 21
144.628901
 31
0.0
  0
LINE
  8
OBJECT
 10
87.754433
 20
147.737901
 30
0.0
 11
65.222433
 21
147.737901
 31
0.0
  0
LINE
  8
OBJECT
 10
65.222433
 20
147.737901
 30
0.0
 11
65.222433
 21
102.210452
 31
0.0
  0
LINE
  8
OBJECT
 10
87.754433
 20
138.282595
 30
0.0
 11
87.754433
 21
147.737901
 31
0.0
  0
LINE
  8
OBJECT
 10
66.022433
 20
82.566901
 30
0.0
 11
64.519683
 21
82.566901
 31
0.0
  0
POLYLINE
  8
OBJECT
 66
     1
 10
0.0
 20
0.0
 30
0.0
 75
     6
  0
VERTEX
  8
OBJECT
 10
134.79829
 20
132.578425
 30
0.0
  0
VERTEX
  8
OBJECT
 10
134.715138
 20
132.527847
 30
0.0
  0
VERTEX
  8
OBJECT
 10
133.687185
 20
131.800313
 30
0.0
  0
VERTEX
  8
OBJECT
 10
132.676506
 20
131.021785
 30
0.0
  0
VERTEX
  8
OBJECT
 10
131.685126
 20
130.234271
 30
0.0
  0
VERTEX
  8
OBJECT
 10
130.715071
 20
129.479782
 30
0.0
  0
VERTEX
  8
OBJECT
 10
129.768366
 20
128.800325
 30
0.0
  0
VERTEX
  8
OBJECT
 10
128.847148
 20
128.226742
 30
0.0
  0
VERTEX
  8
OBJECT
 10
127.954
 20
127.745201
 30
0.0
  0
VERTEX
  8
OBJECT
 10
127.091617
 20
127.330701
 30
0.0
  0
VERTEX
  8
OBJECT
 10
126.262693
 20
126.958242
 30
0.0
  0
VERTEX
  8
OBJECT
 10
125.469923
 20
126.602824
 30
0.0
  0
VERTEX
  8
OBJECT
 10
124.716001
 20
126.239446
 30
0.0
  0
VERTEX
  8
OBJECT
 10
124.003621
 20
125.843108
 30
0.0
  0
VERTEX
  8
OBJECT
 10
123.335479
 20
125.38881
 30
0.0
  0
VERTEX
  8
OBJECT
 10
122.711594
 20
124.859876
 30
0.0
  0
VERTEX
  8
OBJECT
 10
122.121295
 20
124.27293
 30
0.0
  0
VERTEX
  8
OBJECT
 10
121.551236
 20
123.65292
 30
0.0
  0
VERTEX
  8
OBJECT
 10
120.98807
 20
123.024795
 30
0.0
  0
VERTEX
  8
OBJECT
 10
120.418451
 20
122.413505
 30
0.0
  0
VERTEX
  8
OBJECT
 10
119.829034
 20
121.843996
 30
0.0
  0
VERTEX
  8
OBJECT
 10
119.206472
 20
121.341218
 30
0.0
  0
VERTEX
  8
OBJECT
 10
118.53742
 20
120.930119
 30
0.0
  0
VERTEX
  8
OBJECT
 10
117.811847
 20
120.625427
 30
0.0
  0
VERTEX
  8
OBJECT
 10
117.032988
 20
120.40098
 30
0.0
  0
VERTEX
  8
OBJECT
 10
116.207394
 20
120.220397
 30
0.0
  0
VERTEX
  8
OBJECT
 10
115.67329
 20
120.113608
 30
0.0
  0
SEQEND
  8
OBJECT
  0
POLYLINE
  8
OBJECT
 66
     1
 10
0.0
 20
0.0
 30
0.0
 75
     6
  0
VERTEX
  8
OBJECT
 10
134.79829
 20
104.161397
 30
0.0
  0
VERTEX
  8
OBJECT
 10
134.715138
 20
104.11082
 30
0.0
  0
VERTEX
  8
OBJECT
 10
133.687185
 20
103.383286
 30
0.0
  0
VERTEX
  8
OBJECT
 10
132.676506
 20
102.604757
 30
0.0
  0
VERTEX
  8
OBJECT
 10
131.685126
 20
101.817244
 30
0.0
  0
VERTEX
  8
OBJECT
 10
130.715071
 20
101.062754
 30
0.0
  0
VERTEX
  8
OBJECT
 10
129.768366
 20
100.383297
 30
0.0
  0
VERTEX
  8
OBJECT
 10
128.847148
 20
99.809714
 30
0.0
  0
VERTEX
  8
OBJECT
 10
127.954
 20
99.328173
 30
0.0
  0
VERTEX
  8
OBJECT
 10
127.091617
 20
98.913673
 30
0.0
  0
VERTEX
  8
OBJECT
 10
126.262693
 20
98.541214
 30
0.0
  0
VERTEX
  8
OBJECT
 10
125.469923
 20
98.185796
 30
0.0
  0
VERTEX
  8
OBJECT
 10
124.716001
 20
97.822418
 30
0.0
  0
VERTEX
  8
OBJECT
 10
124.003621
 20
97.42608
 30
0.0
  0
VERTEX
  8
OBJECT
 10
123.335479
 20
96.971782
 30
0.0
  0
VERTEX
  8
OBJECT
 10
122.711594
 20
96.442848
 30
0.0
  0
VERTEX
  8
OBJECT
 10
122.121295
 20
95.855902
 30
0.0
  0
VERTEX
  8
OBJECT
 10
121.551236
 20
95.235892
 30
0.0
  0
VERTEX
  8
OBJECT
 10
120.98807
 20
94.607768
 30
0.0
  0
VERTEX
  8
OBJECT
 10
120.418451
 20
93.996477
 30
0.0
  0
VERTEX
  8
OBJECT
 10
119.829034
 20
93.426968
 30
0.0
  0
VERTEX
  8
OBJECT
 10
119.206472
 20
92.92419
 30
0.0
  0
VERTEX
  8
OBJECT
 10
118.53742
 20
92.513092
 30
0.0
  0
VERTEX
  8
OBJECT
 10
117.811847
 20
92.208399
 30
0.0
  0
VERTEX
  8
OBJECT
 10
117.032988
 20
91.983953
 30
0.0
  0
VERTEX
  8
OBJECT
 10
116.207394
 20
91.803369
 30
0.0
  0
VERTEX
  8
OBJECT
 10
115.67329
 20
91.696581
 30
0.0
  0
SEQEND
  8
OBJECT
  0
LINE
  8
PMR
 10
116.26804
 20
120.233662
 30
0.0
 11
116.26804
 21
91.816634
 31
0.0
  0
LINE
  8
PMR
 10
134.20479
 20
103.749621
 30
0.0
 11
134.20479
 21
132.166649
 31
0.0
  0
LINE
  8
OBJECT
 10
115.67329
 20
78.216191
 30
0.0
 11
115.67329
 21
74.082383
 31
0.0
  0
DIMENSION
  8
DIM
  2
*D15
 10
98.744433
 20
75.066901
 30
0.0
 11
98.744433
 21
77.254401
 31
0.0
 12
0.0
 22
-4.490251
 32
0.0
 13
87.863183
 23
79.441901
 33
0.0
 14
89.238433
 24
75.066901
 34
0.0
 50
90.0
  3
23NSTDI
  0
DIMENSION
  8
DIM
  2
*D8
 10
98.744433
 20
111.347901
 30
0.0
 11
98.744433
 21
95.394901
 31
0.0
 12
0.0
 22
-4.490251
 32
0.0
 13
87.863183
 23
79.441901
 33
0.0
 14
87.863183
 24
111.347901
 34
0.0
 50
90.0
  3
23NSTD
  0
DIMENSION
  8
DIM
  2
*D16
 10
98.744433
 20
114.097901
 30
0.0
 11
98.744433
 21
112.722901
 31
0.0
 12
0.0
 22
-4.490251
 32
0.0
 13
87.863183
 23
111.347901
 33
0.0
 14
87.863183
 24
114.097901
 34
0.0
 50
90.0
  3
23NSTDI
  0
DIMENSION
  8
DIM
  2
*D9
 10
98.744433
 20
146.003901
 30
0.0
 11
98.744433
 21
130.050901
 31
0.0
 12
0.0
 22
-4.490251
 32
0.0
 13
87.863183
 23
114.097901
 33
0.0
 14
87.863183
 24
146.003901
 34
0.0
 50
90.0
  3
23NSTD
  0
DIMENSION
  8
DIM
  2
*D17
 10
98.744433
 20
150.378901
 30
0.0
 11
98.744433
 21
148.191401
 31
0.0
 12
0.0
 22
-4.490251
 32
0.0
 13
87.863183
 23
146.003901
 33
0.0
 14
89.238433
 24
150.378901
 34
0.0
 50
90.0
  3
23NSTDI
  0
DIMENSION
  8
DIM
  2
*D28
 10
69.206433
 20
154.698901
 30
0.0
 11
79.406433
 21
154.698901
 31
0.0
 12
0.0
 22
-4.490251
 32
0.0
 13
63.738433
 23
150.378901
 33
0.0
 14
69.206433
 24
144.753901
 34
0.0
  3
23NSTD
  0
DIMENSION
  8
DIM
  2
*D29
 10
73.581433
 20
159.194901
 30
0.0
 11
83.781433
 21
157.575901
 31
0.0
 12
0.0
 22
-4.490251
 32
0.0
 70
   128
 13
69.206433
 23
144.753901
 33
0.0
 14
73.581433
 24
144.753901
 34
0.0
  3
23NSTD
  0
DIMENSION
  8
DIM
  2
*D18
 10
63.738433
 20
165.130901
 30
0.0
 11
76.488433
 21
165.130901
 31
0.0
 12
0.0
 22
-4.490251
 32
0.0
  1
<> %%p0.062
 13
89.238433
 23
150.378901
 33
0.0
 14
63.738433
 24
150.378901
 34
0.0
  3
23NSTDI
  0
DIMENSION
  8
DIM
  2
*D31
 10
50.6609
 20
76.378901
 30
0.0
 11
57.4809
 21
82.138901
 31
0.0
 12
0.0
 22
-4.490251
 32
0.0
 13
46.392539
 23
75.066901
 33
0.0
 14
39.939039
 24
76.378901
 34
0.0
 50
90.0
  3
23NSTD
  0
TEXT
  8
TEXT
 10
68.841949
 20
69.489666
 30
0.0
 40
2.34375
  1
%%uSIDE VIEW
 41
0.75
 72
     1
 11
76.488433
 21
69.489666
 31
0.0
  0
TEXT
  8
DIM
 10
81.156433
 20
159.813901
 30
0.0
 40
2.0
  1
4.000
 41
0.75
 72
     1
 11
83.781433
 21
160.813901
 31
0.0
 73
     2
  0
LINE
  8
DIM
 10
80.860707
 20
159.194901
 30
0.0
 11
86.73346
 21
159.194901
 31
0.0
  0
POLYLINE
  8
PMR
 66
     1
 10
0.0
 20
0.0
 30
0.0
 70
     1
  0
VERTEX
  8
PMR
 10
66.460933
 20
95.972901
 30
0.0
 42
-1.0
  0
VERTEX
  8
PMR
 10
66.460933
 20
96.222901
 30
0.0
  0
VERTEX
  8
PMR
 10
67.085933
 20
96.222901
 30
0.0
 42
-1.0
  0
VERTEX
  8
PMR
 10
67.085933
 20
95.972901
 30
0.0
  0
SEQEND
  8
PMR
  0
CIRCLE
  8
PMR
 10
67.850433
 20
97.223901
 30
0.0
 40
0.1405
  0
CIRCLE
  8
PMR
 10
67.850433
 20
96.723901
 30
0.0
 40
0.1405
  0
CIRCLE
  8
PMR
 10
86.535433
 20
128.721901
 30
0.0
 40
0.1405
  0
CIRCLE
  8
PMR
 10
86.535433
 20
128.221901
 30
0.0
 40
0.1405
  0
CIRCLE
  8
PMR
 10
86.535433
 20
97.221901
 30
0.0
 40
0.1405
  0
CIRCLE
  8
PMR
 10
86.535433
 20
96.721901
 30
0.0
 40
0.1405
  0
TEXT
  8
DIM
 10
229.867406
 20
108.685211
 30
0.0
 40
1.25
  1

  0
TEXT
  8
DIM
 10
230.929906
 20
104.591452
 30
0.0
 40
1.0
  1

  0
TEXT
  8
OBJECT
 10
231.78665
 20
155.28811
 30
0.0
 40
1.25
  1

  0
TEXT
  8
DIM
 10
434.867406
 20
108.685211
 30
0.0
 40
1.25
  1

  0
TEXT
  8
DIM
 10
435.929906
 20
104.591452
 30
0.0
 40
1.0
  1

  0
TEXT
  8
OBJECT
 10
436.78665
 20
155.28811
 30
0.0
 40
1.25
  1

  0
TEXT
  8
DIM
 10
639.867406
 20
108.685211
 30
0.0
 40
1.25
  1

  0
TEXT
  8
DIM
 10
640.929906
 20
104.591452
 30
0.0
 40
1.0
  1

  0
TEXT
  8
DIM
 10
803.867406
 20
108.685211
 30
0.0
 40
1.25
  1

  0
TEXT
  8
DIM
 10
804.929906
 20
104.591452
 30
0.0
 40
1.0
  1

  0
TEXT
  8
OBJECT
 10
805.78665
 20
155.28811
 30
0.0
 40
1.25
  1

  0
TEXT
  8
DIM
 10
803.867406
 20
108.685211
 30
0.0
 40
1.25
  1

  0
TEXT
  8
DIM
 10
804.929906
 20
104.591452
 30
0.0
 40
1.0
  1

  0
TEXT
  8
OBJECT
 10
805.78665
 20
155.28811
 30
0.0
 40
1.25
  1

  0
TEXT
  8
DIM
 10
821.834784
 20
293.609587
 30
0.0
 40
0.72
  1

  0
TEXT
  8
DIM
 10
758.298907
 20
270.734322
 30
0.0
 40
0.72
  1

  0
TEXT
  8
DIM
 10
909.211228
 20
221.612584
 30
0.0
 40
0.72
  1

  0
TEXT
  8
DIM
 10
845.675351
 20
198.737319
 30
0.0
 40
0.72
  1

  0
TEXT
  8
DIM
 10
811.864584
 20
307.22455
 30
0.0
 40
0.72
  1

  0
TEXT
  8
DIM
 10
748.328707
 20
284.349285
 30
0.0
 40
0.72
  1

  0
TEXT
  8
DIM
 10
748.328707
 20
324.349285
 30
0.0
 40
0.72
  1

  0
TEXT
  8
DIM
 10
809.828707
 20
324.349285
 30
0.0
 40
0.72
  1

  0
TEXT
  8
DIM
 10
434.867406
 20
108.685211
 30
0.0
 40
1.25
  1

  0
TEXT
  8
DIM
 10
435.929906
 20
104.591452
 30
0.0
 40
1.0
  1

  0
TEXT
  8
OBJECT
 10
436.78665
 20
155.28811
 30
0.0
 40
1.25
  1

  0
TEXT
  8
TEXT
 10
7.829313
 20
11.818155
 30
0.0
 40
2.0
  1
SIDES SHIPPED ASSEMBLED WITH TEMPORARY NYLON PUSH
 41
0.75
  0
TEXT
  8
TEXT
 10
9.162647
 20
8.490155
 30
0.0
 40
2.0
  1
FASTENERS.  CUSTOMER TO DO FINAL ASSEMBLY WITH #7346
 41
0.75
  0
TEXT
  8
TEXT
 10
9.162647
 20
5.162155
 30
0.0
 40
2.0
  1
SCREWS AND #295 NUT RETAINERS PROVIDED IN HARDWARE.
 41
0.75
  0
TEXT
  8
DIM
 10
639.867406
 20
108.685211
 30
0.0
 40
1.25
  1

  0
TEXT
  8
DIM
 10
640.929906
 20
104.591452
 30
0.0
 40
1.0
  1

  0
TEXT
  8
DIM
 10
803.867406
 20
108.685211
 30
0.0
 40
1.25
  1

  0
TEXT
  8
DIM
 10
804.929906
 20
104.591452
 30
0.0
 40
1.0
  1

  0
TEXT
  8
OBJECT
 10
805.78665
 20
155.28811
 30
0.0
 40
1.25
  1

  0
TEXT
  8
DIM
 10
803.867406
 20
108.685211
 30
0.0
 40
1.25
  1

  0
TEXT
  8
DIM
 10
804.929906
 20
104.591452
 30
0.0
 40
1.0
  1

  0
TEXT
  8
OBJECT
 10
805.78665
 20
155.28811
 30
0.0
 40
1.25
  1

  0
TEXT
  8
DIM
 10
821.834784
 20
293.609587
 30
0.0
 40
0.72
  1

  0
TEXT
  8
DIM
 10
758.298907
 20
270.734322
 30
0.0
 40
0.72
  1

  0
TEXT
  8
DIM
 10
909.211228
 20
221.612584
 30
0.0
 40
0.72
  1

  0
TEXT
  8
DIM
 10
845.675351
 20
198.737319
 30
0.0
 40
0.72
  1

  0
TEXT
  8
DIM
 10
811.864584
 20
307.22455
 30
0.0
 40
0.72
  1

  0
TEXT
  8
DIM
 10
748.328707
 20
284.349285
 30
0.0
 40
0.72
  1

  0
TEXT
  8
DIM
 10
748.328707
 20
324.349285
 30
0.0
 40
0.72
  1

  0
TEXT
  8
DIM
 10
809.828707
 20
324.349285
 30
0.0
 40
0.72
  1

  0
TEXT
  8
DIM
 10
414.367406
 20
108.685211
 30
0.0
 40
1.25
  1

  0
TEXT
  8
DIM
 10
415.429906
 20
104.591452
 30
0.0
 40
1.0
  1

  0
TEXT
  8
DIM
 10
578.367406
 20
108.685211
 30
0.0
 40
1.25
  1

  0
TEXT
  8
DIM
 10
579.429906
 20
104.591452
 30
0.0
 40
1.0
  1

  0
TEXT
  8
OBJECT
 10
580.28665
 20
155.28811
 30
0.0
 40
1.25
  1

  0
TEXT
  8
DIM
 10
578.367406
 20
108.685211
 30
0.0
 40
1.25
  1

  0
TEXT
  8
DIM
 10
579.429906
 20
104.591452
 30
0.0
 40
1.0
  1

  0
TEXT
  8
OBJECT
 10
580.28665
 20
155.28811
 30
0.0
 40
1.25
  1

  0
TEXT
  8
DIM
 10
596.334784
 20
293.609587
 30
0.0
 40
0.72
  1

  0
TEXT
  8
DIM
 10
532.798907
 20
270.734322
 30
0.0
 40
0.72
  1

  0
TEXT
  8
DIM
 10
683.711228
 20
221.612584
 30
0.0
 40
0.72
  1

  0
TEXT
  8
DIM
 10
620.175351
 20
198.737319
 30
0.0
 40
0.72
  1

  0
TEXT
  8
DIM
 10
586.364584
 20
307.22455
 30
0.0
 40
0.72
  1

  0
TEXT
  8
DIM
 10
522.828707
 20
284.349285
 30
0.0
 40
0.72
  1

  0
TEXT
  8
DIM
 10
522.828707
 20
324.349285
 30
0.0
 40
0.72
  1

  0
TEXT
  8
DIM
 10
584.328707
 20
324.349285
 30
0.0
 40
0.72
  1

  0
TEXT
  8
DIM
 10
475.867406
 20
108.685211
 30
0.0
 40
1.25
  1

  0
TEXT
  8
DIM
 10
476.929906
 20
104.591452
 30
0.0
 40
1.0
  1

  0
TEXT
  8
DIM
 10
639.867406
 20
108.685211
 30
0.0
 40
1.25
  1

  0
TEXT
  8
DIM
 10
640.929906
 20
104.591452
 30
0.0
 40
1.0
  1

  0
TEXT
  8
OBJECT
 10
641.78665
 20
155.28811
 30
0.0
 40
1.25
  1

  0
TEXT
  8
DIM
 10
639.867406
 20
108.685211
 30
0.0
 40
1.25
  1

  0
TEXT
  8
DIM
 10
640.929906
 20
104.591452
 30
0.0
 40
1.0
  1

  0
TEXT
  8
OBJECT
 10
641.78665
 20
155.28811
 30
0.0
 40
1.25
  1

  0
TEXT
  8
DIM
 10
657.834784
 20
293.609587
 30
0.0
 40
0.72
  1

  0
TEXT
  8
DIM
 10
594.298907
 20
270.734322
 30
0.0
 40
0.72
  1

  0
TEXT
  8
DIM
 10
745.211228
 20
221.612584
 30
0.0
 40
0.72
  1

  0
TEXT
  8
DIM
 10
681.675351
 20
198.737319
 30
0.0
 40
0.72
  1

  0
TEXT
  8
DIM
 10
647.864584
 20
307.22455
 30
0.0
 40
0.72
  1

  0
TEXT
  8
DIM
 10
584.328707
 20
284.349285
 30
0.0
 40
0.72
  1

  0
TEXT
  8
DIM
 10
584.328707
 20
324.349285
 30
0.0
 40
0.72
  1

  0
TEXT
  8
DIM
 10
645.828707
 20
324.349285
 30
0.0
 40
0.72
  1

  0
TEXT
  8
DIM
 10
475.867406
 20
108.685211
 30
0.0
 40
1.25
  1

  0
TEXT
  8
DIM
 10
476.929906
 20
104.591452
 30
0.0
 40
1.0
  1

  0
TEXT
  8
OBJECT
 10
477.78665
 20
155.28811
 30
0.0
 40
1.25
  1

  0
TEXT
  8
DIM
 10
680.867406
 20
108.685211
 30
0.0
 40
1.25
  1

  0
TEXT
  8
DIM
 10
681.929906
 20
104.591452
 30
0.0
 40
1.0
  1

  0
TEXT
  8
OBJECT
 10
682.78665
 20
155.28811
 30
0.0
 40
1.25
  1

  0
TEXT
  8
DIM
 10
885.867406
 20
108.685211
 30
0.0
 40
1.25
  1

  0
TEXT
  8
DIM
 10
886.929906
 20
104.591452
 30
0.0
 40
1.0
  1

  0
TEXT
  8
DIM
 10
1049.867406
 20
108.685211
 30
0.0
 40
1.25
  1

  0
TEXT
  8
DIM
 10
1050.929906
 20
104.591452
 30
0.0
 40
1.0
  1

  0
TEXT
  8
OBJECT
 10
1051.78665
 20
155.28811
 30
0.0
 40
1.25
  1

  0
TEXT
  8
DIM
 10
1049.867406
 20
108.685211
 30
0.0
 40
1.25
  1

  0
TEXT
  8
DIM
 10
1050.929906
 20
104.591452
 30
0.0
 40
1.0
  1

  0
TEXT
  8
OBJECT
 10
1051.78665
 20
155.28811
 30
0.0
 40
1.25
  1

  0
TEXT
  8
DIM
 10
1067.834784
 20
293.609587
 30
0.0
 40
0.72
  1

  0
TEXT
  8
DIM
 10
1004.298907
 20
270.734322
 30
0.0
 40
0.72
  1

  0
TEXT
  8
DIM
 10
1155.211228
 20
221.612584
 30
0.0
 40
0.72
  1

  0
TEXT
  8
DIM
 10
1091.675351
 20
198.737319
 30
0.0
 40
0.72
  1

  0
TEXT
  8
DIM
 10
1057.864584
 20
307.22455
 30
0.0
 40
0.72
  1

  0
TEXT
  8
DIM
 10
994.328707
 20
284.349285
 30
0.0
 40
0.72
  1

  0
TEXT
  8
DIM
 10
994.328707
 20
324.349285
 30
0.0
 40
0.72
  1

  0
TEXT
  8
DIM
 10
1055.828707
 20
324.349285
 30
0.0
 40
0.72
  1

  0
TEXT
  8
DIM
 10
680.867406
 20
108.685211
 30
0.0
 40
1.25
  1

  0
TEXT
  8
DIM
 10
681.929906
 20
104.591452
 30
0.0
 40
1.0
  1

  0
TEXT
  8
OBJECT
 10
682.78665
 20
155.28811
 30
0.0
 40
1.25
  1

  0
TEXT
  8
DIM
 10
885.867406
 20
108.685211
 30
0.0
 40
1.25
  1

  0
TEXT
  8
DIM
 10
886.929906
 20
104.591452
 30
0.0
 40
1.0
  1

  0
TEXT
  8
DIM
 10
1049.867406
 20
108.685211
 30
0.0
 40
1.25
  1

  0
TEXT
  8
DIM
 10
1050.929906
 20
104.591452
 30
0.0
 40
1.0
  1

  0
TEXT
  8
OBJECT
 10
1051.78665
 20
155.28811
 30
0.0
 40
1.25
  1

  0
TEXT
  8
DIM
 10
1049.867406
 20
108.685211
 30
0.0
 40
1.25
  1

  0
TEXT
  8
DIM
 10
1050.929906
 20
104.591452
 30
0.0
 40
1.0
  1

  0
TEXT
  8
OBJECT
 10
1051.78665
 20
155.28811
 30
0.0
 40
1.25
  1

  0
TEXT
  8
DIM
 10
1067.834784
 20
293.609587
 30
0.0
 40
0.72
  1

  0
TEXT
  8
DIM
 10
1004.298907
 20
270.734322
 30
0.0
 40
0.72
  1

  0
TEXT
  8
DIM
 10
1155.211228
 20
221.612584
 30
0.0
 40
0.72
  1

  0
TEXT
  8
DIM
 10
1091.675351
 20
198.737319
 30
0.0
 40
0.72
  1

  0
TEXT
  8
DIM
 10
1057.864584
 20
307.22455
 30
0.0
 40
0.72
  1

  0
TEXT
  8
DIM
 10
994.328707
 20
284.349285
 30
0.0
 40
0.72
  1

  0
TEXT
  8
DIM
 10
994.328707
 20
324.349285
 30
0.0
 40
0.72
  1

  0
TEXT
  8
DIM
 10
1055.828707
 20
324.349285
 30
0.0
 40
0.72
  1

  0
TEXT
  8
DIM
 10
660.367406
 20
108.685211
 30
0.0
 40
1.25
  1

  0
TEXT
  8
DIM
 10
661.429906
 20
104.591452
 30
0.0
 40
1.0
  1

  0
TEXT
  8
DIM
 10
824.367406
 20
108.685211
 30
0.0
 40
1.25
  1

  0
TEXT
  8
DIM
 10
825.429906
 20
104.591452
 30
0.0
 40
1.0
  1

  0
TEXT
  8
OBJECT
 10
826.28665
 20
155.28811
 30
0.0
 40
1.25
  1

  0
TEXT
  8
DIM
 10
824.367406
 20
108.685211
 30
0.0
 40
1.25
  1

  0
TEXT
  8
DIM
 10
825.429906
 20
104.591452
 30
0.0
 40
1.0
  1

  0
TEXT
  8
OBJECT
 10
826.28665
 20
155.28811
 30
0.0
 40
1.25
  1

  0
TEXT
  8
DIM
 10
842.334784
 20
293.609587
 30
0.0
 40
0.72
  1

  0
TEXT
  8
DIM
 10
778.798907
 20
270.734322
 30
0.0
 40
0.72
  1

  0
TEXT
  8
DIM
 10
929.711228
 20
221.612584
 30
0.0
 40
0.72
  1

  0
TEXT
  8
DIM
 10
866.175351
 20
198.737319
 30
0.0
 40
0.72
  1

  0
TEXT
  8
DIM
 10
832.364584
 20
307.22455
 30
0.0
 40
0.72
  1

  0
TEXT
  8
DIM
 10
768.828707
 20
284.349285
 30
0.0
 40
0.72
  1

  0
TEXT
  8
DIM
 10
768.828707
 20
324.349285
 30
0.0
 40
0.72
  1

  0
TEXT
  8
DIM
 10
830.328707
 20
324.349285
 30
0.0
 40
0.72
  1

  0
TEXT
  8
DIM
 10
680.867406
 20
108.685211
 30
0.0
 40
1.25
  1

  0
TEXT
  8
DIM
 10
681.929906
 20
104.591452
 30
0.0
 40
1.0
  1

  0
TEXT
  8
DIM
 10
844.867406
 20
108.685211
 30
0.0
 40
1.25
  1

  0
TEXT
  8
DIM
 10
845.929906
 20
104.591452
 30
0.0
 40
1.0
  1

  0
TEXT
  8
OBJECT
 10
846.78665
 20
155.28811
 30
0.0
 40
1.25
  1

  0
TEXT
  8
DIM
 10
844.867406
 20
108.685211
 30
0.0
 40
1.25
  1

  0
TEXT
  8
DIM
 10
845.929906
 20
104.591452
 30
0.0
 40
1.0
  1

  0
TEXT
  8
OBJECT
 10
846.78665
 20
155.28811
 30
0.0
 40
1.25
  1

  0
TEXT
  8
DIM
 10
862.834784
 20
293.609587
 30
0.0
 40
0.72
  1

  0
TEXT
  8
DIM
 10
799.298907
 20
270.734322
 30
0.0
 40
0.72
  1

  0
TEXT
  8
DIM
 10
950.211228
 20
221.612584
 30
0.0
 40
0.72
  1

  0
TEXT
  8
DIM
 10
886.675351
 20
198.737319
 30
0.0
 40
0.72
  1

  0
TEXT
  8
DIM
 10
852.864584
 20
307.22455
 30
0.0
 40
0.72
  1

  0
TEXT
  8
DIM
 10
789.328707
 20
284.349285
 30
0.0
 40
0.72
  1

  0
TEXT
  8
DIM
 10
789.328707
 20
324.349285
 30
0.0
 40
0.72
  1

  0
TEXT
  8
DIM
 10
850.828707
 20
324.349285
 30
0.0
 40
0.72
  1

  0
TEXT
  8
DIM
 10
701.367406
 20
108.685211
 30
0.0
 40
1.25
  1

  0
TEXT
  8
DIM
 10
702.429906
 20
104.591452
 30
0.0
 40
1.0
  1

  0
TEXT
  8
OBJECT
 10
703.28665
 20
155.28811
 30
0.0
 40
1.25
  1

  0
TEXT
  8
DIM
 10
906.367406
 20
108.685211
 30
0.0
 40
1.25
  1

  0
TEXT
  8
DIM
 10
907.429906
 20
104.591452
 30
0.0
 40
1.0
  1

  0
TEXT
  8
OBJECT
 10
908.28665
 20
155.28811
 30
0.0
 40
1.25
  1

  0
TEXT
  8
DIM
 10
1111.367406
 20
108.685211
 30
0.0
 40
1.25
  1

  0
TEXT
  8
DIM
 10
1112.429906
 20
104.591452
 30
0.0
 40
1.0
  1

  0
TEXT
  8
DIM
 10
1275.367406
 20
108.685211
 30
0.0
 40
1.25
  1

  0
TEXT
  8
DIM
 10
1276.429906
 20
104.591452
 30
0.0
 40
1.0
  1

  0
TEXT
  8
OBJECT
 10
1277.28665
 20
155.28811
 30
0.0
 40
1.25
  1

  0
TEXT
  8
DIM
 10
1275.367406
 20
108.685211
 30
0.0
 40
1.25
  1

  0
TEXT
  8
DIM
 10
1276.429906
 20
104.591452
 30
0.0
 40
1.0
  1

  0
TEXT
  8
OBJECT
 10
1277.28665
 20
155.28811
 30
0.0
 40
1.25
  1

  0
TEXT
  8
DIM
 10
1293.334784
 20
293.609587
 30
0.0
 40
0.72
  1

  0
TEXT
  8
DIM
 10
1229.798907
 20
270.734322
 30
0.0
 40
0.72
  1

  0
TEXT
  8
DIM
 10
1380.711228
 20
221.612584
 30
0.0
 40
0.72
  1

  0
TEXT
  8
DIM
 10
1317.175351
 20
198.737319
 30
0.0
 40
0.72
  1

  0
TEXT
  8
DIM
 10
1283.364584
 20
307.22455
 30
0.0
 40
0.72
  1

  0
TEXT
  8
DIM
 10
1219.828707
 20
284.349285
 30
0.0
 40
0.72
  1

  0
TEXT
  8
DIM
 10
1219.828707
 20
324.349285
 30
0.0
 40
0.72
  1

  0
TEXT
  8
DIM
 10
1281.328707
 20
324.349285
 30
0.0
 40
0.72
  1

  0
TEXT
  8
DIM
 10
906.367406
 20
108.685211
 30
0.0
 40
1.25
  1

  0
TEXT
  8
DIM
 10
907.429906
 20
104.591452
 30
0.0
 40
1.0
  1

  0
TEXT
  8
OBJECT
 10
908.28665
 20
155.28811
 30
0.0
 40
1.25
  1

  0
TEXT
  8
DIM
 10
1111.367406
 20
108.685211
 30
0.0
 40
1.25
  1

  0
TEXT
  8
DIM
 10
1112.429906
 20
104.591452
 30
0.0
 40
1.0
  1

  0
TEXT
  8
DIM
 10
1275.367406
 20
108.685211
 30
0.0
 40
1.25
  1

  0
TEXT
  8
DIM
 10
1276.429906
 20
104.591452
 30
0.0
 40
1.0
  1

  0
TEXT
  8
OBJECT
 10
1277.28665
 20
155.28811
 30
0.0
 40
1.25
  1

  0
TEXT
  8
DIM
 10
1275.367406
 20
108.685211
 30
0.0
 40
1.25
  1

  0
TEXT
  8
DIM
 10
1276.429906
 20
104.591452
 30
0.0
 40
1.0
  1

  0
TEXT
  8
OBJECT
 10
1277.28665
 20
155.28811
 30
0.0
 40
1.25
  1

  0
TEXT
  8
DIM
 10
1293.334784
 20
293.609587
 30
0.0
 40
0.72
  1

  0
TEXT
  8
DIM
 10
1229.798907
 20
270.734322
 30
0.0
 40
0.72
  1

  0
TEXT
  8
DIM
 10
1380.711228
 20
221.612584
 30
0.0
 40
0.72
  1

  0
TEXT
  8
DIM
 10
1317.175351
 20
198.737319
 30
0.0
 40
0.72
  1

  0
TEXT
  8
DIM
 10
1283.364584
 20
307.22455
 30
0.0
 40
0.72
  1

  0
TEXT
  8
DIM
 10
1219.828707
 20
284.349285
 30
0.0
 40
0.72
  1

  0
TEXT
  8
DIM
 10
1219.828707
 20
324.349285
 30
0.0
 40
0.72
  1

  0
TEXT
  8
DIM
 10
1281.328707
 20
324.349285
 30
0.0
 40
0.72
  1

  0
TEXT
  8
DIM
 10
885.867406
 20
108.685211
 30
0.0
 40
1.25
  1

  0
TEXT
  8
DIM
 10
886.929906
 20
104.591452
 30
0.0
 40
1.0
  1

  0
TEXT
  8
DIM
 10
1049.867406
 20
108.685211
 30
0.0
 40
1.25
  1

  0
TEXT
  8
DIM
 10
1050.929906
 20
104.591452
 30
0.0
 40
1.0
  1

  0
TEXT
  8
OBJECT
 10
1051.78665
 20
155.28811
 30
0.0
 40
1.25
  1

  0
TEXT
  8
DIM
 10
1049.867406
 20
108.685211
 30
0.0
 40
1.25
  1

  0
TEXT
  8
DIM
 10
1050.929906
 20
104.591452
 30
0.0
 40
1.0
  1

  0
TEXT
  8
OBJECT
 10
1051.78665
 20
155.28811
 30
0.0
 40
1.25
  1

  0
TEXT
  8
DIM
 10
1067.834784
 20
293.609587
 30
0.0
 40
0.72
  1

  0
TEXT
  8
DIM
 10
1004.298907
 20
270.734322
 30
0.0
 40
0.72
  1

  0
TEXT
  8
DIM
 10
1155.211228
 20
221.612584
 30
0.0
 40
0.72
  1

  0
TEXT
  8
DIM
 10
1091.675351
 20
198.737319
 30
0.0
 40
0.72
  1

  0
TEXT
  8
DIM
 10
1057.864584
 20
307.22455
 30
0.0
 40
0.72
  1

  0
TEXT
  8
DIM
 10
994.328707
 20
284.349285
 30
0.0
 40
0.72
  1

  0
TEXT
  8
DIM
 10
994.328707
 20
324.349285
 30
0.0
 40
0.72
  1

  0
TEXT
  8
DIM
 10
1055.828707
 20
324.349285
 30
0.0
 40
0.72
  1

  0
TEXT
  8
DIM
 10
906.367406
 20
108.685211
 30
0.0
 40
1.25
  1

  0
TEXT
  8
DIM
 10
907.429906
 20
104.591452
 30
0.0
 40
1.0
  1

  0
TEXT
  8
DIM
 10
1070.367406
 20
108.685211
 30
0.0
 40
1.25
  1

  0
TEXT
  8
DIM
 10
1071.429906
 20
104.591452
 30
0.0
 40
1.0
  1

  0
TEXT
  8
OBJECT
 10
1072.28665
 20
155.28811
 30
0.0
 40
1.25
  1

  0
TEXT
  8
DIM
 10
1070.367406
 20
108.685211
 30
0.0
 40
1.25
  1

  0
TEXT
  8
DIM
 10
1071.429906
 20
104.591452
 30
0.0
 40
1.0
  1

  0
TEXT
  8
OBJECT
 10
1072.28665
 20
155.28811
 30
0.0
 40
1.25
  1

  0
TEXT
  8
DIM
 10
1088.334784
 20
293.609587
 30
0.0
 40
0.72
  1

  0
TEXT
  8
DIM
 10
1024.798907
 20
270.734322
 30
0.0
 40
0.72
  1

  0
TEXT
  8
DIM
 10
1175.711228
 20
221.612584
 30
0.0
 40
0.72
  1

  0
TEXT
  8
DIM
 10
1112.175351
 20
198.737319
 30
0.0
 40
0.72
  1

  0
TEXT
  8
DIM
 10
1078.364584
 20
307.22455
 30
0.0
 40
0.72
  1

  0
TEXT
  8
DIM
 10
1014.828707
 20
284.349285
 30
0.0
 40
0.72
  1

  0
TEXT
  8
DIM
 10
1014.828707
 20
324.349285
 30
0.0
 40
0.72
  1

  0
TEXT
  8
DIM
 10
1076.328707
 20
324.349285
 30
0.0
 40
0.72
  1

  0
TEXT
  8
DIM
 10
906.367406
 20
108.685211
 30
0.0
 40
1.25
  1

  0
TEXT
  8
DIM
 10
907.429906
 20
104.591452
 30
0.0
 40
1.0
  1

  0
TEXT
  8
OBJECT
 10
908.28665
 20
155.28811
 30
0.0
 40
1.25
  1

  0
TEXT
  8
DIM
 10
1111.367406
 20
108.685211
 30
0.0
 40
1.25
  1

  0
TEXT
  8
DIM
 10
1112.429906
 20
104.591452
 30
0.0
 40
1.0
  1

  0
TEXT
  8
DIM
 10
1275.367406
 20
108.685211
 30
0.0
 40
1.25
  1

  0
TEXT
  8
DIM
 10
1276.429906
 20
104.591452
 30
0.0
 40
1.0
  1

  0
TEXT
  8
OBJECT
 10
1277.28665
 20
155.28811
 30
0.0
 40
1.25
  1

  0
TEXT
  8
DIM
 10
1275.367406
 20
108.685211
 30
0.0
 40
1.25
  1

  0
TEXT
  8
DIM
 10
1276.429906
 20
104.591452
 30
0.0
 40
1.0
  1

  0
TEXT
  8
OBJECT
 10
1277.28665
 20
155.28811
 30
0.0
 40
1.25
  1

  0
TEXT
  8
DIM
 10
1293.334784
 20
293.609587
 30
0.0
 40
0.72
  1

  0
TEXT
  8
DIM
 10
1229.798907
 20
270.734322
 30
0.0
 40
0.72
  1

  0
TEXT
  8
DIM
 10
1380.711228
 20
221.612584
 30
0.0
 40
0.72
  1

  0
TEXT
  8
DIM
 10
1317.175351
 20
198.737319
 30
0.0
 40
0.72
  1

  0
TEXT
  8
DIM
 10
1283.364584
 20
307.22455
 30
0.0
 40
0.72
  1

  0
TEXT
  8
DIM
 10
1219.828707
 20
284.349285
 30
0.0
 40
0.72
  1

  0
TEXT
  8
DIM
 10
1219.828707
 20
324.349285
 30
0.0
 40
0.72
  1

  0
TEXT
  8
DIM
 10
1281.328707
 20
324.349285
 30
0.0
 40
0.72
  1

  0
TEXT
  8
DIM
 10
1070.367406
 20
108.685211
 30
0.0
 40
1.25
  1

  0
TEXT
  8
DIM
 10
1071.429906
 20
104.591452
 30
0.0
 40
1.0
  1

  0
TEXT
  8
OBJECT
 10
1072.28665
 20
155.28811
 30
0.0
 40
1.25
  1

  0
TEXT
  8
DIM
 10
1275.367406
 20
108.685211
 30
0.0
 40
1.25
  1

  0
TEXT
  8
DIM
 10
1276.429906
 20
104.591452
 30
0.0
 40
1.0
  1

  0
TEXT
  8
OBJECT
 10
1277.28665
 20
155.28811
 30
0.0
 40
1.25
  1

  0
TEXT
  8
DIM
 10
1480.367406
 20
108.685211
 30
0.0
 40
1.25
  1

  0
TEXT
  8
DIM
 10
1481.429906
 20
104.591452
 30
0.0
 40
1.0
  1

  0
TEXT
  8
DIM
 10
1644.367406
 20
108.685211
 30
0.0
 40
1.25
  1

  0
TEXT
  8
DIM
 10
1645.429906
 20
104.591452
 30
0.0
 40
1.0
  1

  0
TEXT
  8
OBJECT
 10
1646.28665
 20
155.28811
 30
0.0
 40
1.25
  1

  0
TEXT
  8
DIM
 10
1644.367406
 20
108.685211
 30
0.0
 40
1.25
  1

  0
TEXT
  8
DIM
 10
1645.429906
 20
104.591452
 30
0.0
 40
1.0
  1

  0
TEXT
  8
OBJECT
 10
1646.28665
 20
155.28811
 30
0.0
 40
1.25
  1

  0
TEXT
  8
DIM
 10
1662.334784
 20
293.609587
 30
0.0
 40
0.72
  1

  0
TEXT
  8
DIM
 10
1598.798907
 20
270.734322
 30
0.0
 40
0.72
  1

  0
TEXT
  8
DIM
 10
1749.711228
 20
221.612584
 30
0.0
 40
0.72
  1

  0
TEXT
  8
DIM
 10
1686.175351
 20
198.737319
 30
0.0
 40
0.72
  1

  0
TEXT
  8
DIM
 10
1652.364584
 20
307.22455
 30
0.0
 40
0.72
  1

  0
TEXT
  8
DIM
 10
1588.828707
 20
284.349285
 30
0.0
 40
0.72
  1

  0
TEXT
  8
DIM
 10
1588.828707
 20
324.349285
 30
0.0
 40
0.72
  1

  0
TEXT
  8
DIM
 10
1650.328707
 20
324.349285
 30
0.0
 40
0.72
  1

  0
TEXT
  8
DIM
 10
1275.367406
 20
108.685211
 30
0.0
 40
1.25
  1

  0
TEXT
  8
DIM
 10
1276.429906
 20
104.591452
 30
0.0
 40
1.0
  1

  0
TEXT
  8
OBJECT
 10
1277.28665
 20
155.28811
 30
0.0
 40
1.25
  1

  0
TEXT
  8
DIM
 10
1480.367406
 20
108.685211
 30
0.0
 40
1.25
  1

  0
TEXT
  8
DIM
 10
1481.429906
 20
104.591452
 30
0.0
 40
1.0
  1

  0
TEXT
  8
DIM
 10
1644.367406
 20
108.685211
 30
0.0
 40
1.25
  1

  0
TEXT
  8
DIM
 10
1645.429906
 20
104.591452
 30
0.0
 40
1.0
  1

  0
TEXT
  8
OBJECT
 10
1646.28665
 20
155.28811
 30
0.0
 40
1.25
  1

  0
TEXT
  8
DIM
 10
1644.367406
 20
108.685211
 30
0.0
 40
1.25
  1

  0
TEXT
  8
DIM
 10
1645.429906
 20
104.591452
 30
0.0
 40
1.0
  1

  0
TEXT
  8
OBJECT
 10
1646.28665
 20
155.28811
 30
0.0
 40
1.25
  1

  0
TEXT
  8
DIM
 10
1662.334784
 20
293.609587
 30
0.0
 40
0.72
  1

  0
TEXT
  8
DIM
 10
1598.798907
 20
270.734322
 30
0.0
 40
0.72
  1

  0
TEXT
  8
DIM
 10
1749.711228
 20
221.612584
 30
0.0
 40
0.72
  1

  0
TEXT
  8
DIM
 10
1686.175351
 20
198.737319
 30
0.0
 40
0.72
  1

  0
TEXT
  8
DIM
 10
1652.364584
 20
307.22455
 30
0.0
 40
0.72
  1

  0
TEXT
  8
DIM
 10
1588.828707
 20
284.349285
 30
0.0
 40
0.72
  1

  0
TEXT
  8
DIM
 10
1588.828707
 20
324.349285
 30
0.0
 40
0.72
  1

  0
TEXT
  8
DIM
 10
1650.328707
 20
324.349285
 30
0.0
 40
0.72
  1

  0
TEXT
  8
DIM
 10
1254.867406
 20
108.685211
 30
0.0
 40
1.25
  1

  0
TEXT
  8
DIM
 10
1255.929906
 20
104.591452
 30
0.0
 40
1.0
  1

  0
TEXT
  8
DIM
 10
1418.867406
 20
108.685211
 30
0.0
 40
1.25
  1

  0
TEXT
  8
DIM
 10
1419.929906
 20
104.591452
 30
0.0
 40
1.0
  1

  0
TEXT
  8
OBJECT
 10
1420.78665
 20
155.28811
 30
0.0
 40
1.25
  1

  0
TEXT
  8
DIM
 10
1418.867406
 20
108.685211
 30
0.0
 40
1.25
  1

  0
TEXT
  8
DIM
 10
1419.929906
 20
104.591452
 30
0.0
 40
1.0
  1

  0
TEXT
  8
OBJECT
 10
1420.78665
 20
155.28811
 30
0.0
 40
1.25
  1

  0
TEXT
  8
DIM
 10
1436.834784
 20
293.609587
 30
0.0
 40
0.72
  1

  0
TEXT
  8
DIM
 10
1373.298907
 20
270.734322
 30
0.0
 40
0.72
  1

  0
TEXT
  8
DIM
 10
1524.211228
 20
221.612584
 30
0.0
 40
0.72
  1

  0
TEXT
  8
DIM
 10
1460.675351
 20
198.737319
 30
0.0
 40
0.72
  1

  0
TEXT
  8
DIM
 10
1426.864584
 20
307.22455
 30
0.0
 40
0.72
  1

  0
TEXT
  8
DIM
 10
1363.328707
 20
284.349285
 30
0.0
 40
0.72
  1

  0
TEXT
  8
DIM
 10
1363.328707
 20
324.349285
 30
0.0
 40
0.72
  1

  0
TEXT
  8
DIM
 10
1424.828707
 20
324.349285
 30
0.0
 40
0.72
  1

  0
TEXT
  8
DIM
 10
1070.367406
 20
108.685211
 30
0.0
 40
1.25
  1

  0
TEXT
  8
DIM
 10
1071.429906
 20
104.591452
 30
0.0
 40
1.0
  1

  0
TEXT
  8
DIM
 10
1234.367406
 20
108.685211
 30
0.0
 40
1.25
  1

  0
TEXT
  8
DIM
 10
1235.429906
 20
104.591452
 30
0.0
 40
1.0
  1

  0
TEXT
  8
OBJECT
 10
1236.28665
 20
155.28811
 30
0.0
 40
1.25
  1

  0
TEXT
  8
DIM
 10
1234.367406
 20
108.685211
 30
0.0
 40
1.25
  1

  0
TEXT
  8
DIM
 10
1235.429906
 20
104.591452
 30
0.0
 40
1.0
  1

  0
TEXT
  8
OBJECT
 10
1236.28665
 20
155.28811
 30
0.0
 40
1.25
  1

  0
TEXT
  8
DIM
 10
1252.334784
 20
293.609587
 30
0.0
 40
0.72
  1

  0
TEXT
  8
DIM
 10
1188.798907
 20
270.734322
 30
0.0
 40
0.72
  1

  0
TEXT
  8
DIM
 10
1339.711228
 20
221.612584
 30
0.0
 40
0.72
  1

  0
TEXT
  8
DIM
 10
1276.175351
 20
198.737319
 30
0.0
 40
0.72
  1

  0
TEXT
  8
DIM
 10
1242.364584
 20
307.22455
 30
0.0
 40
0.72
  1

  0
TEXT
  8
DIM
 10
1178.828707
 20
284.349285
 30
0.0
 40
0.72
  1

  0
TEXT
  8
DIM
 10
1178.828707
 20
324.349285
 30
0.0
 40
0.72
  1

  0
TEXT
  8
DIM
 10
1240.328707
 20
324.349285
 30
0.0
 40
0.72
  1

  0
TEXT
  8
DIM
 10
1090.867406
 20
108.685211
 30
0.0
 40
1.25
  1

  0
TEXT
  8
DIM
 10
1091.929906
 20
104.591452
 30
0.0
 40
1.0
  1

  0
TEXT
  8
OBJECT
 10
1092.78665
 20
155.28811
 30
0.0
 40
1.25
  1

  0
TEXT
  8
DIM
 10
1295.867406
 20
108.685211
 30
0.0
 40
1.25
  1

  0
TEXT
  8
DIM
 10
1296.929906
 20
104.591452
 30
0.0
 40
1.0
  1

  0
TEXT
  8
DIM
 10
1459.867406
 20
108.685211
 30
0.0
 40
1.25
  1

  0
TEXT
  8
DIM
 10
1460.929906
 20
104.591452
 30
0.0
 40
1.0
  1

  0
TEXT
  8
OBJECT
 10
1461.78665
 20
155.28811
 30
0.0
 40
1.25
  1

  0
TEXT
  8
DIM
 10
1459.867406
 20
108.685211
 30
0.0
 40
1.25
  1

  0
TEXT
  8
DIM
 10
1460.929906
 20
104.591452
 30
0.0
 40
1.0
  1

  0
TEXT
  8
OBJECT
 10
1461.78665
 20
155.28811
 30
0.0
 40
1.25
  1

  0
TEXT
  8
DIM
 10
1477.834784
 20
293.609587
 30
0.0
 40
0.72
  1

  0
TEXT
  8
DIM
 10
1414.298907
 20
270.734322
 30
0.0
 40
0.72
  1

  0
TEXT
  8
DIM
 10
1565.211228
 20
221.612584
 30
0.0
 40
0.72
  1

  0
TEXT
  8
DIM
 10
1501.675351
 20
198.737319
 30
0.0
 40
0.72
  1

  0
TEXT
  8
DIM
 10
1467.864584
 20
307.22455
 30
0.0
 40
0.72
  1

  0
TEXT
  8
DIM
 10
1404.328707
 20
284.349285
 30
0.0
 40
0.72
  1

  0
TEXT
  8
DIM
 10
1404.328707
 20
324.349285
 30
0.0
 40
0.72
  1

  0
TEXT
  8
DIM
 10
1465.828707
 20
324.349285
 30
0.0
 40
0.72
  1

  0
TEXT
  8
DIM
 10
1254.867406
 20
108.685211
 30
0.0
 40
1.25
  1

  0
TEXT
  8
DIM
 10
1255.929906
 20
104.591452
 30
0.0
 40
1.0
  1

  0
TEXT
  8
OBJECT
 10
1256.78665
 20
155.28811
 30
0.0
 40
1.25
  1

  0
TEXT
  8
DIM
 10
1459.867406
 20
108.685211
 30
0.0
 40
1.25
  1

  0
TEXT
  8
DIM
 10
1460.929906
 20
104.591452
 30
0.0
 40
1.0
  1

  0
TEXT
  8
OBJECT
 10
1461.78665
 20
155.28811
 30
0.0
 40
1.25
  1

  0
TEXT
  8
DIM
 10
1664.867406
 20
108.685211
 30
0.0
 40
1.25
  1

  0
TEXT
  8
DIM
 10
1665.929906
 20
104.591452
 30
0.0
 40
1.0
  1

  0
TEXT
  8
DIM
 10
1828.867406
 20
108.685211
 30
0.0
 40
1.25
  1

  0
TEXT
  8
DIM
 10
1829.929906
 20
104.591452
 30
0.0
 40
1.0
  1

  0
TEXT
  8
OBJECT
 10
1830.78665
 20
155.28811
 30
0.0
 40
1.25
  1

  0
TEXT
  8
DIM
 10
1828.867406
 20
108.685211
 30
0.0
 40
1.25
  1

  0
TEXT
  8
DIM
 10
1829.929906
 20
104.591452
 30
0.0
 40
1.0
  1

  0
TEXT
  8
OBJECT
 10
1830.78665
 20
155.28811
 30
0.0
 40
1.25
  1

  0
TEXT
  8
DIM
 10
1846.834784
 20
293.609587
 30
0.0
 40
0.72
  1

  0
TEXT
  8
DIM
 10
1783.298907
 20
270.734322
 30
0.0
 40
0.72
  1

  0
TEXT
  8
DIM
 10
1934.211228
 20
221.612584
 30
0.0
 40
0.72
  1

  0
TEXT
  8
DIM
 10
1870.675351
 20
198.737319
 30
0.0
 40
0.72
  1

  0
TEXT
  8
DIM
 10
1836.864584
 20
307.22455
 30
0.0
 40
0.72
  1

  0
TEXT
  8
DIM
 10
1773.328707
 20
284.349285
 30
0.0
 40
0.72
  1

  0
TEXT
  8
DIM
 10
1773.328707
 20
324.349285
 30
0.0
 40
0.72
  1

  0
TEXT
  8
DIM
 10
1834.828707
 20
324.349285
 30
0.0
 40
0.72
  1

  0
TEXT
  8
DIM
 10
1459.867406
 20
108.685211
 30
0.0
 40
1.25
  1

  0
TEXT
  8
DIM
 10
1460.929906
 20
104.591452
 30
0.0
 40
1.0
  1

  0
TEXT
  8
OBJECT
 10
1461.78665
 20
155.28811
 30
0.0
 40
1.25
  1

  0
TEXT
  8
DIM
 10
1664.867406
 20
108.685211
 30
0.0
 40
1.25
  1

  0
TEXT
  8
DIM
 10
1665.929906
 20
104.591452
 30
0.0
 40
1.0
  1

  0
TEXT
  8
DIM
 10
1828.867406
 20
108.685211
 30
0.0
 40
1.25
  1

  0
TEXT
  8
DIM
 10
1829.929906
 20
104.591452
 30
0.0
 40
1.0
  1

  0
TEXT
  8
OBJECT
 10
1830.78665
 20
155.28811
 30
0.0
 40
1.25
  1

  0
TEXT
  8
DIM
 10
1828.867406
 20
108.685211
 30
0.0
 40
1.25
  1

  0
TEXT
  8
DIM
 10
1829.929906
 20
104.591452
 30
0.0
 40
1.0
  1

  0
TEXT
  8
OBJECT
 10
1830.78665
 20
155.28811
 30
0.0
 40
1.25
  1

  0
TEXT
  8
DIM
 10
1846.834784
 20
293.609587
 30
0.0
 40
0.72
  1

  0
TEXT
  8
DIM
 10
1783.298907
 20
270.734322
 30
0.0
 40
0.72
  1

  0
TEXT
  8
DIM
 10
1934.211228
 20
221.612584
 30
0.0
 40
0.72
  1

  0
TEXT
  8
DIM
 10
1870.675351
 20
198.737319
 30
0.0
 40
0.72
  1

  0
TEXT
  8
DIM
 10
1836.864584
 20
307.22455
 30
0.0
 40
0.72
  1

  0
TEXT
  8
DIM
 10
1773.328707
 20
284.349285
 30
0.0
 40
0.72
  1

  0
TEXT
  8
DIM
 10
1773.328707
 20
324.349285
 30
0.0
 40
0.72
  1

  0
TEXT
  8
DIM
 10
1834.828707
 20
324.349285
 30
0.0
 40
0.72
  1

  0
TEXT
  8
DIM
 10
1439.367406
 20
108.685211
 30
0.0
 40
1.25
  1

  0
TEXT
  8
DIM
 10
1440.429906
 20
104.591452
 30
0.0
 40
1.0
  1

  0
TEXT
  8
DIM
 10
1603.367406
 20
108.685211
 30
0.0
 40
1.25
  1

  0
TEXT
  8
DIM
 10
1604.429906
 20
104.591452
 30
0.0
 40
1.0
  1

  0
TEXT
  8
OBJECT
 10
1605.28665
 20
155.28811
 30
0.0
 40
1.25
  1

  0
TEXT
  8
DIM
 10
1603.367406
 20
108.685211
 30
0.0
 40
1.25
  1

  0
TEXT
  8
DIM
 10
1604.429906
 20
104.591452
 30
0.0
 40
1.0
  1

  0
TEXT
  8
OBJECT
 10
1605.28665
 20
155.28811
 30
0.0
 40
1.25
  1

  0
TEXT
  8
DIM
 10
1621.334784
 20
293.609587
 30
0.0
 40
0.72
  1

  0
TEXT
  8
DIM
 10
1557.798907
 20
270.734322
 30
0.0
 40
0.72
  1

  0
TEXT
  8
DIM
 10
1708.711228
 20
221.612584
 30
0.0
 40
0.72
  1

  0
TEXT
  8
DIM
 10
1645.175351
 20
198.737319
 30
0.0
 40
0.72
  1

  0
TEXT
  8
DIM
 10
1611.364584
 20
307.22455
 30
0.0
 40
0.72
  1

  0
TEXT
  8
DIM
 10
1547.828707
 20
284.349285
 30
0.0
 40
0.72
  1

  0
TEXT
  8
DIM
 10
1547.828707
 20
324.349285
 30
0.0
 40
0.72
  1

  0
TEXT
  8
DIM
 10
1609.328707
 20
324.349285
 30
0.0
 40
0.72
  1

  0
TEXT
  8
DIM
 10
1254.867406
 20
108.685211
 30
0.0
 40
1.25
  1

  0
TEXT
  8
DIM
 10
1255.929906
 20
104.591452
 30
0.0
 40
1.0
  1

  0
TEXT
  8
OBJECT
 10
1256.78665
 20
155.28811
 30
0.0
 40
1.25
  1

  0
TEXT
  8
DIM
 10
1091.064485
 20
268.398533
 30
0.0
 40
1.25
  1

  0
TEXT
  8
DIM
 10
1092.126985
 20
264.304774
 30
0.0
 40
1.0
  1

  0
TEXT
  8
OBJECT
 10
1092.983729
 20
315.001432
 30
0.0
 40
1.25
  1

  0
TEXT
  8
DIM
 10
906.367406
 20
252.685211
 30
0.0
 40
1.25
  1

  0
TEXT
  8
DIM
 10
907.429906
 20
248.591452
 30
0.0
 40
1.0
  1

  0
TEXT
  8
OBJECT
 10
908.28665
 20
299.28811
 30
0.0
 40
1.25
  1

  0
TEXT
  8
DIM
 10
906.367406
 20
108.685211
 30
0.0
 40
1.25
  1

  0
TEXT
  8
DIM
 10
907.429906
 20
104.591452
 30
0.0
 40
1.0
  1

  0
TEXT
  8
OBJECT
 10
908.28665
 20
155.28811
 30
0.0
 40
1.25
  1

  0
TEXT
  8
DIM
 10
701.367406
 20
108.685211
 30
0.0
 40
1.25
  1

  0
TEXT
  8
DIM
 10
702.429906
 20
104.591452
 30
0.0
 40
1.0
  1

  0
TEXT
  8
OBJECT
 10
703.28665
 20
155.28811
 30
0.0
 40
1.25
  1

  0
TEXT
  8
DIM
 10
475.867406
 20
108.685211
 30
0.0
 40
1.25
  1

  0
TEXT
  8
DIM
 10
476.929906
 20
104.591452
 30
0.0
 40
1.0
  1

  0
TEXT
  8
OBJECT
 10
477.78665
 20
155.28811
 30
0.0
 40
1.25
  1

  0
TEXT
  8
DIM
 10
-16.132594
 20
300.685211
 30
0.0
 40
1.25
  1

  0
TEXT
  8
DIM
 10
-15.070094
 20
296.591452
 30
0.0
 40
1.0
  1

  0
TEXT
  8
OBJECT
 10
-14.21335
 20
347.28811
 30
0.0
 40
1.25
  1

  0
TEXT
  8
DIM
 10
229.867406
 20
300.685211
 30
0.0
 40
1.25
  1

  0
TEXT
  8
DIM
 10
230.929906
 20
296.591452
 30
0.0
 40
1.0
  1

  0
TEXT
  8
OBJECT
 10
231.78665
 20
347.28811
 30
0.0
 40
1.25
  1

  0
TEXT
  8
DIM
 10
434.867406
 20
300.685211
 30
0.0
 40
1.25
  1

  0
TEXT
  8
DIM
 10
435.929906
 20
296.591452
 30
0.0
 40
1.0
  1

  0
TEXT
  8
OBJECT
 10
436.78665
 20
347.28811
 30
0.0
 40
1.25
  1

  0
TEXT
  8
DIM
 10
639.867406
 20
300.685211
 30
0.0
 40
1.25
  1

  0
TEXT
  8
DIM
 10
640.929906
 20
296.591452
 30
0.0
 40
1.0
  1

  0
TEXT
  8
DIM
 10
803.867406
 20
300.685211
 30
0.0
 40
1.25
  1

  0
TEXT
  8
DIM
 10
804.929906
 20
296.591452
 30
0.0
 40
1.0
  1

  0
TEXT
  8
OBJECT
 10
805.78665
 20
347.28811
 30
0.0
 40
1.25
  1

  0
TEXT
  8
DIM
 10
803.867406
 20
300.685211
 30
0.0
 40
1.25
  1

  0
TEXT
  8
DIM
 10
804.929906
 20
296.591452
 30
0.0
 40
1.0
  1

  0
TEXT
  8
OBJECT
 10
805.78665
 20
347.28811
 30
0.0
 40
1.25
  1

  0
TEXT
  8
DIM
 10
821.834784
 20
485.609587
 30
0.0
 40
0.72
  1

  0
TEXT
  8
DIM
 10
758.298907
 20
462.734322
 30
0.0
 40
0.72
  1

  0
TEXT
  8
DIM
 10
909.211228
 20
413.612584
 30
0.0
 40
0.72
  1

  0
TEXT
  8
DIM
 10
845.675351
 20
390.737319
 30
0.0
 40
0.72
  1

  0
TEXT
  8
DIM
 10
811.864584
 20
499.22455
 30
0.0
 40
0.72
  1

  0
TEXT
  8
DIM
 10
748.328707
 20
476.349285
 30
0.0
 40
0.72
  1

  0
TEXT
  8
DIM
 10
748.328707
 20
516.349285
 30
0.0
 40
0.72
  1

  0
TEXT
  8
DIM
 10
809.828707
 20
516.349285
 30
0.0
 40
0.72
  1

  0
TEXT
  8
DIM
 10
434.867406
 20
300.685211
 30
0.0
 40
1.25
  1

  0
TEXT
  8
DIM
 10
435.929906
 20
296.591452
 30
0.0
 40
1.0
  1

  0
TEXT
  8
OBJECT
 10
436.78665
 20
347.28811
 30
0.0
 40
1.25
  1

  0
TEXT
  8
TEXT
 10
3.134272
 20
235.711626
 30
0.0
 40
2.0
  1
%%uMATERIAL:
 41
0.75
  0
TEXT
  8
TEXT
 10
4.467605
 20
232.383626
 30
0.0
 40
2.0
  1
SIDES & REAR DOOR
 41
0.75
  0
TEXT
  8
TEXT
 10
4.467605
 20
229.055626
 30
0.0
 40
2.0
  1
REAR DOOR STIFFENER
 41
0.75
  0
TEXT
  8
TEXT
 10
4.467605
 20
225.727626
 30
0.0
 40
2.0
  1
TOP, BOTTOM, RAIL SUPPORTS, PLATES
 41
0.75
  0
TEXT
  8
TEXT
 10
5.800938
 20
222.399626
 30
0.0
 40
2.0
  1
& DOOR STOPS
 41
0.75
  0
TEXT
  8
TEXT
 10
4.467605
 20
219.071626
 30
0.0
 40
2.0
  1
VERTICAL RAILS
 41
0.75
  0
TEXT
  8
TEXT
 10
4.467605
 20
215.743626
 30
0.0
 40
2.0
  1
PANEL MOUNTING RAILS
 41
0.75
  0
TEXT
  8
TEXT
 10
81.952
 20
235.807627
 30
0.0
 40
2.0
  1
%%uFINISH:
 41
0.75
  0
TEXT
  8
TEXT
 10
83.285333
 20
232.479627
 30
0.0
 40
2.0
  1
FRAME ASSEMBLY, SIDES, PLATES,
 41
0.75
  0
TEXT
  8
TEXT
 10
84.618667
 20
229.151627
 30
0.0
 40
2.0
  1
REAR DOOR & REAR DOOR HINGES
 41
0.75
  0
TEXT
  8
TEXT
 10
83.285333
 20
219.167627
 30
0.0
 40
2.0
  1
PANEL MOUNTING RAILS, DOOR STOPS
 41
0.75
  0
TEXT
  8
TEXT
 10
7.829313
 20
48.426155
 30
0.0
 40
2.0
  1
%%uNOTES:
 41
0.75
  0
TEXT
  8
TEXT
 10
7.829313
 20
45.098155
 30
0.0
 40
2.0
  1
PANEL MOUNTING RAILS TAPPED #10-32 ON E.I.A. UNIVERSAL
 41
0.75
  0
TEXT
  8
TEXT
 10
7.829313
 20
35.114155
 30
0.0
 40
2.0
  1
MOUNTING HOLES PIERCED IN BASE FOR #RL-7770 LEVELER KIT.
 41
0.75
  0
TEXT
  8
TEXT
 10
4.731792
 20
45.098155
 30
0.0
 40
2.0
  1
1
 41
0.75
 72
     4
 11
4.981792
 21
46.098155
 31
0.0
  0
POLYLINE
  8
TEXT
 66
     1
 10
0.0
 20
0.0
 30
0.0
 70
     1
  0
VERTEX
  8
TEXT
 10
4.058032
 20
47.698155
 30
0.0
  0
VERTEX
  8
TEXT
 10
3.134272
 20
46.098155
 30
0.0
  0
VERTEX
  8
TEXT
 10
4.058032
 20
44.498155
 30
0.0
  0
VERTEX
  8
TEXT
 10
5.905553
 20
44.498155
 30
0.0
  0
VERTEX
  8
TEXT
 10
6.829313
 20
46.098155
 30
0.0
  0
VERTEX
  8
TEXT
 10
5.905553
 20
47.698155
 30
0.0
  0
SEQEND
  8
TEXT
  0
TEXT
  8
TEXT
 10
131.682773
 20
225.823627
 30
0.0
 40
2.0
  1
BLACK TEXTURE
 41
0.75
  0
TEXT
  8
TEXT
 10
131.682773
 20
215.839627
 30
0.0
 40
2.0
  1
SMOOTH BLACK
 41
0.75
  0
TEXT
  8
TEXT
 10
52.865045
 20
232.383626
 30
0.0
 40
2.0
  1
20 GA. STEEL
 41
0.75
  0
TEXT
  8
TEXT
 10
52.865045
 20
229.055626
 30
0.0
 40
2.0
  1
18 GA. STEEL
 41
0.75
  0
TEXT
  8
TEXT
 10
52.865045
 20
222.399626
 30
0.0
 40
2.0
  1
16 GA. STEEL
 41
0.75
  0
TEXT
  8
TEXT
 10
52.865045
 20
219.071626
 30
0.0
 40
2.0
  1
14 GA. STEEL
 41
0.75
  0
TEXT
  8
TEXT
 10
52.865045
 20
212.415626
 30
0.0
 40
2.0
  1
12 GA. STEEL
 41
0.75
  0
LINE
  8
TEXT
 10
130.838547
 20
225.823627
 30
0.0
 11
126.172313
 21
225.823627
 31
0.0
  0
LINE
  8
TEXT
 10
52.020818
 20
212.415626
 30
0.0
 11
46.654641
 21
212.415626
 31
0.0
  0
LINE
  8
TEXT
 10
52.020818
 20
219.071626
 30
0.0
 11
25.044553
 21
219.071626
 31
0.0
  0
LINE
  8
TEXT
 10
52.020818
 20
222.399626
 30
0.0
 11
24.67636
 21
222.399626
 31
0.0
  0
LINE
  8
TEXT
 10
52.020818
 20
229.055626
 30
0.0
 11
32.462214
 21
229.055626
 31
0.0
  0
LINE
  8
TEXT
 10
52.020818
 20
232.383626
 30
0.0
 11
30.469969
 21
232.383626
 31
0.0
  0
TEXT
  8
TEXT
 10
9.162647
 20
41.770155
 30
0.0
 40
2.0
  1
SPACING AND ARE FULLY ADJUSTABLE.
 41
0.75
  0
TEXT
  8
TEXT
 10
4.481792
 20
35.114155
 30
0.0
 40
2.0
  1
2
 41
0.75
 72
     4
 11
4.981792
 21
36.114155
 31
0.0
  0
POLYLINE
  8
TEXT
 66
     1
 10
0.0
 20
0.0
 30
0.0
 70
     1
  0
VERTEX
  8
TEXT
 10
4.058032
 20
37.714155
 30
0.0
  0
VERTEX
  8
TEXT
 10
3.134272
 20
36.114155
 30
0.0
  0
VERTEX
  8
TEXT
 10
4.058032
 20
34.514155
 30
0.0
  0
VERTEX
  8
TEXT
 10
5.905553
 20
34.514155
 30
0.0
  0
VERTEX
  8
TEXT
 10
6.829313
 20
36.114155
 30
0.0
  0
VERTEX
  8
TEXT
 10
5.905553
 20
37.714155
 30
0.0
  0
SEQEND
  8
TEXT
  0
TEXT
  8
TEXT
 10
4.481792
 20
21.802155
 30
0.0
 40
2.0
  1
3
 41
0.75
 72
     4
 11
4.981792
 21
22.802155
 31
0.0
  0
TEXT
  8
DIM
 10
639.867406
 20
300.685211
 30
0.0
 40
1.25
  1

  0
TEXT
  8
DIM
 10
640.929906
 20
296.591452
 30
0.0
 40
1.0
  1

  0
TEXT
  8
DIM
 10
803.867406
 20
300.685211
 30
0.0
 40
1.25
  1

  0
TEXT
  8
DIM
 10
804.929906
 20
296.591452
 30
0.0
 40
1.0
  1

  0
TEXT
  8
OBJECT
 10
805.78665
 20
347.28811
 30
0.0
 40
1.25
  1

  0
TEXT
  8
DIM
 10
803.867406
 20
300.685211
 30
0.0
 40
1.25
  1

  0
TEXT
  8
DIM
 10
804.929906
 20
296.591452
 30
0.0
 40
1.0
  1

  0
TEXT
  8
OBJECT
 10
805.78665
 20
347.28811
 30
0.0
 40
1.25
  1

  0
TEXT
  8
DIM
 10
821.834784
 20
485.609587
 30
0.0
 40
0.72
  1

  0
TEXT
  8
DIM
 10
758.298907
 20
462.734322
 30
0.0
 40
0.72
  1

  0
TEXT
  8
DIM
 10
909.211228
 20
413.612584
 30
0.0
 40
0.72
  1

  0
TEXT
  8
DIM
 10
845.675351
 20
390.737319
 30
0.0
 40
0.72
  1

  0
TEXT
  8
DIM
 10
811.864584
 20
499.22455
 30
0.0
 40
0.72
  1

  0
TEXT
  8
DIM
 10
748.328707
 20
476.349285
 30
0.0
 40
0.72
  1

  0
TEXT
  8
DIM
 10
748.328707
 20
516.349285
 30
0.0
 40
0.72
  1

  0
TEXT
  8
DIM
 10
809.828707
 20
516.349285
 30
0.0
 40
0.72
  1

  0
TEXT
  8
DIM
 10
414.367406
 20
300.685211
 30
0.0
 40
1.25
  1

  0
TEXT
  8
DIM
 10
415.429906
 20
296.591452
 30
0.0
 40
1.0
  1

  0
TEXT
  8
DIM
 10
578.367406
 20
300.685211
 30
0.0
 40
1.25
  1

  0
TEXT
  8
DIM
 10
579.429906
 20
296.591452
 30
0.0
 40
1.0
  1

  0
TEXT
  8
OBJECT
 10
580.28665
 20
347.28811
 30
0.0
 40
1.25
  1

  0
TEXT
  8
DIM
 10
578.367406
 20
300.685211
 30
0.0
 40
1.25
  1

  0
TEXT
  8
DIM
 10
579.429906
 20
296.591452
 30
0.0
 40
1.0
  1

  0
TEXT
  8
OBJECT
 10
580.28665
 20
347.28811
 30
0.0
 40
1.25
  1

  0
TEXT
  8
DIM
 10
596.334784
 20
485.609587
 30
0.0
 40
0.72
  1

  0
TEXT
  8
DIM
 10
532.798907
 20
462.734322
 30
0.0
 40
0.72
  1

  0
TEXT
  8
DIM
 10
683.711228
 20
413.612584
 30
0.0
 40
0.72
  1

  0
TEXT
  8
DIM
 10
620.175351
 20
390.737319
 30
0.0
 40
0.72
  1

  0
TEXT
  8
DIM
 10
586.364584
 20
499.22455
 30
0.0
 40
0.72
  1

  0
TEXT
  8
DIM
 10
522.828707
 20
476.349285
 30
0.0
 40
0.72
  1

  0
TEXT
  8
DIM
 10
522.828707
 20
516.349285
 30
0.0
 40
0.72
  1

  0
TEXT
  8
DIM
 10
584.328707
 20
516.349285
 30
0.0
 40
0.72
  1

  0
TEXT
  8
DIM
 10
475.867406
 20
300.685211
 30
0.0
 40
1.25
  1

  0
TEXT
  8
DIM
 10
476.929906
 20
296.591452
 30
0.0
 40
1.0
  1

  0
TEXT
  8
DIM
 10
639.867406
 20
300.685211
 30
0.0
 40
1.25
  1

  0
TEXT
  8
DIM
 10
640.929906
 20
296.591452
 30
0.0
 40
1.0
  1

  0
TEXT
  8
OBJECT
 10
641.78665
 20
347.28811
 30
0.0
 40
1.25
  1

  0
TEXT
  8
DIM
 10
639.867406
 20
300.685211
 30
0.0
 40
1.25
  1

  0
TEXT
  8
DIM
 10
640.929906
 20
296.591452
 30
0.0
 40
1.0
  1

  0
TEXT
  8
OBJECT
 10
641.78665
 20
347.28811
 30
0.0
 40
1.25
  1

  0
TEXT
  8
DIM
 10
657.834784
 20
485.609587
 30
0.0
 40
0.72
  1

  0
TEXT
  8
DIM
 10
594.298907
 20
462.734322
 30
0.0
 40
0.72
  1

  0
TEXT
  8
DIM
 10
745.211228
 20
413.612584
 30
0.0
 40
0.72
  1

  0
TEXT
  8
DIM
 10
681.675351
 20
390.737319
 30
0.0
 40
0.72
  1

  0
TEXT
  8
DIM
 10
647.864584
 20
499.22455
 30
0.0
 40
0.72
  1

  0
TEXT
  8
DIM
 10
584.328707
 20
476.349285
 30
0.0
 40
0.72
  1

  0
TEXT
  8
DIM
 10
584.328707
 20
516.349285
 30
0.0
 40
0.72
  1

  0
TEXT
  8
DIM
 10
645.828707
 20
516.349285
 30
0.0
 40
0.72
  1

  0
TEXT
  8
DIM
 10
475.867406
 20
300.685211
 30
0.0
 40
1.25
  1

  0
TEXT
  8
DIM
 10
476.929906
 20
296.591452
 30
0.0
 40
1.0
  1

  0
TEXT
  8
OBJECT
 10
477.78665
 20
347.28811
 30
0.0
 40
1.25
  1

  0
TEXT
  8
DIM
 10
680.867406
 20
300.685211
 30
0.0
 40
1.25
  1

  0
TEXT
  8
DIM
 10
681.929906
 20
296.591452
 30
0.0
 40
1.0
  1

  0
TEXT
  8
OBJECT
 10
682.78665
 20
347.28811
 30
0.0
 40
1.25
  1

  0
TEXT
  8
DIM
 10
885.867406
 20
300.685211
 30
0.0
 40
1.25
  1

  0
TEXT
  8
DIM
 10
886.929906
 20
296.591452
 30
0.0
 40
1.0
  1

  0
TEXT
  8
DIM
 10
1049.867406
 20
300.685211
 30
0.0
 40
1.25
  1

  0
TEXT
  8
DIM
 10
1050.929906
 20
296.591452
 30
0.0
 40
1.0
  1

  0
TEXT
  8
OBJECT
 10
1051.78665
 20
347.28811
 30
0.0
 40
1.25
  1

  0
TEXT
  8
DIM
 10
1049.867406
 20
300.685211
 30
0.0
 40
1.25
  1

  0
TEXT
  8
DIM
 10
1050.929906
 20
296.591452
 30
0.0
 40
1.0
  1

  0
TEXT
  8
OBJECT
 10
1051.78665
 20
347.28811
 30
0.0
 40
1.25
  1

  0
TEXT
  8
DIM
 10
1067.834784
 20
485.609587
 30
0.0
 40
0.72
  1

  0
TEXT
  8
DIM
 10
1004.298907
 20
462.734322
 30
0.0
 40
0.72
  1

  0
TEXT
  8
DIM
 10
1155.211228
 20
413.612584
 30
0.0
 40
0.72
  1

  0
TEXT
  8
DIM
 10
1091.675351
 20
390.737319
 30
0.0
 40
0.72
  1

  0
TEXT
  8
DIM
 10
1057.864584
 20
499.22455
 30
0.0
 40
0.72
  1

  0
TEXT
  8
DIM
 10
994.328707
 20
476.349285
 30
0.0
 40
0.72
  1

  0
TEXT
  8
DIM
 10
994.328707
 20
516.349285
 30
0.0
 40
0.72
  1

  0
TEXT
  8
DIM
 10
1055.828707
 20
516.349285
 30
0.0
 40
0.72
  1

  0
TEXT
  8
DIM
 10
680.867406
 20
300.685211
 30
0.0
 40
1.25
  1

  0
TEXT
  8
DIM
 10
681.929906
 20
296.591452
 30
0.0
 40
1.0
  1

  0
TEXT
  8
OBJECT
 10
682.78665
 20
347.28811
 30
0.0
 40
1.25
  1

  0
TEXT
  8
DIM
 10
885.867406
 20
300.685211
 30
0.0
 40
1.25
  1

  0
TEXT
  8
DIM
 10
886.929906
 20
296.591452
 30
0.0
 40
1.0
  1

  0
TEXT
  8
DIM
 10
1049.867406
 20
300.685211
 30
0.0
 40
1.25
  1

  0
TEXT
  8
DIM
 10
1050.929906
 20
296.591452
 30
0.0
 40
1.0
  1

  0
TEXT
  8
OBJECT
 10
1051.78665
 20
347.28811
 30
0.0
 40
1.25
  1

  0
TEXT
  8
DIM
 10
1049.867406
 20
300.685211
 30
0.0
 40
1.25
  1

  0
TEXT
  8
DIM
 10
1050.929906
 20
296.591452
 30
0.0
 40
1.0
  1

  0
TEXT
  8
OBJECT
 10
1051.78665
 20
347.28811
 30
0.0
 40
1.25
  1

  0
TEXT
  8
DIM
 10
1067.834784
 20
485.609587
 30
0.0
 40
0.72
  1

  0
TEXT
  8
DIM
 10
1004.298907
 20
462.734322
 30
0.0
 40
0.72
  1

  0
TEXT
  8
DIM
 10
1155.211228
 20
413.612584
 30
0.0
 40
0.72
  1

  0
TEXT
  8
DIM
 10
1091.675351
 20
390.737319
 30
0.0
 40
0.72
  1

  0
TEXT
  8
DIM
 10
1057.864584
 20
499.22455
 30
0.0
 40
0.72
  1

  0
TEXT
  8
DIM
 10
994.328707
 20
476.349285
 30
0.0
 40
0.72
  1

  0
TEXT
  8
DIM
 10
994.328707
 20
516.349285
 30
0.0
 40
0.72
  1

  0
TEXT
  8
DIM
 10
1055.828707
 20
516.349285
 30
0.0
 40
0.72
  1

  0
TEXT
  8
DIM
 10
660.367406
 20
300.685211
 30
0.0
 40
1.25
  1

  0
TEXT
  8
DIM
 10
661.429906
 20
296.591452
 30
0.0
 40
1.0
  1

  0
TEXT
  8
DIM
 10
824.367406
 20
300.685211
 30
0.0
 40
1.25
  1

  0
TEXT
  8
DIM
 10
825.429906
 20
296.591452
 30
0.0
 40
1.0
  1

  0
TEXT
  8
OBJECT
 10
826.28665
 20
347.28811
 30
0.0
 40
1.25
  1

  0
TEXT
  8
DIM
 10
824.367406
 20
300.685211
 30
0.0
 40
1.25
  1

  0
TEXT
  8
DIM
 10
825.429906
 20
296.591452
 30
0.0
 40
1.0
  1

  0
TEXT
  8
OBJECT
 10
826.28665
 20
347.28811
 30
0.0
 40
1.25
  1

  0
TEXT
  8
DIM
 10
842.334784
 20
485.609587
 30
0.0
 40
0.72
  1

  0
TEXT
  8
DIM
 10
778.798907
 20
462.734322
 30
0.0
 40
0.72
  1

  0
TEXT
  8
DIM
 10
929.711228
 20
413.612584
 30
0.0
 40
0.72
  1

  0
TEXT
  8
DIM
 10
866.175351
 20
390.737319
 30
0.0
 40
0.72
  1

  0
TEXT
  8
DIM
 10
832.364584
 20
499.22455
 30
0.0
 40
0.72
  1

  0
TEXT
  8
DIM
 10
768.828707
 20
476.349285
 30
0.0
 40
0.72
  1

  0
TEXT
  8
DIM
 10
768.828707
 20
516.349285
 30
0.0
 40
0.72
  1

  0
TEXT
  8
DIM
 10
830.328707
 20
516.349285
 30
0.0
 40
0.72
  1

  0
TEXT
  8
DIM
 10
680.867406
 20
300.685211
 30
0.0
 40
1.25
  1

  0
TEXT
  8
DIM
 10
681.929906
 20
296.591452
 30
0.0
 40
1.0
  1

  0
TEXT
  8
DIM
 10
844.867406
 20
300.685211
 30
0.0
 40
1.25
  1

  0
TEXT
  8
DIM
 10
845.929906
 20
296.591452
 30
0.0
 40
1.0
  1

  0
TEXT
  8
OBJECT
 10
846.78665
 20
347.28811
 30
0.0
 40
1.25
  1

  0
TEXT
  8
DIM
 10
844.867406
 20
300.685211
 30
0.0
 40
1.25
  1

  0
TEXT
  8
DIM
 10
845.929906
 20
296.591452
 30
0.0
 40
1.0
  1

  0
TEXT
  8
OBJECT
 10
846.78665
 20
347.28811
 30
0.0
 40
1.25
  1

  0
TEXT
  8
DIM
 10
862.834784
 20
485.609587
 30
0.0
 40
0.72
  1

  0
TEXT
  8
DIM
 10
799.298907
 20
462.734322
 30
0.0
 40
0.72
  1

  0
TEXT
  8
DIM
 10
950.211228
 20
413.612584
 30
0.0
 40
0.72
  1

  0
TEXT
  8
DIM
 10
886.675351
 20
390.737319
 30
0.0
 40
0.72
  1

  0
TEXT
  8
DIM
 10
852.864584
 20
499.22455
 30
0.0
 40
0.72
  1

  0
TEXT
  8
DIM
 10
789.328707
 20
476.349285
 30
0.0
 40
0.72
  1

  0
TEXT
  8
DIM
 10
789.328707
 20
516.349285
 30
0.0
 40
0.72
  1

  0
TEXT
  8
DIM
 10
850.828707
 20
516.349285
 30
0.0
 40
0.72
  1

  0
TEXT
  8
DIM
 10
701.367406
 20
300.685211
 30
0.0
 40
1.25
  1

  0
TEXT
  8
DIM
 10
702.429906
 20
296.591452
 30
0.0
 40
1.0
  1

  0
TEXT
  8
OBJECT
 10
703.28665
 20
347.28811
 30
0.0
 40
1.25
  1

  0
TEXT
  8
DIM
 10
906.367406
 20
300.685211
 30
0.0
 40
1.25
  1

  0
TEXT
  8
DIM
 10
907.429906
 20
296.591452
 30
0.0
 40
1.0
  1

  0
TEXT
  8
OBJECT
 10
908.28665
 20
347.28811
 30
0.0
 40
1.25
  1

  0
TEXT
  8
DIM
 10
1111.367406
 20
300.685211
 30
0.0
 40
1.25
  1

  0
TEXT
  8
DIM
 10
1112.429906
 20
296.591452
 30
0.0
 40
1.0
  1

  0
TEXT
  8
DIM
 10
1275.367406
 20
300.685211
 30
0.0
 40
1.25
  1

  0
TEXT
  8
DIM
 10
1276.429906
 20
296.591452
 30
0.0
 40
1.0
  1

  0
TEXT
  8
OBJECT
 10
1277.28665
 20
347.28811
 30
0.0
 40
1.25
  1

  0
TEXT
  8
DIM
 10
1275.367406
 20
300.685211
 30
0.0
 40
1.25
  1

  0
TEXT
  8
DIM
 10
1276.429906
 20
296.591452
 30
0.0
 40
1.0
  1

  0
TEXT
  8
OBJECT
 10
1277.28665
 20
347.28811
 30
0.0
 40
1.25
  1

  0
TEXT
  8
DIM
 10
1293.334784
 20
485.609587
 30
0.0
 40
0.72
  1

  0
TEXT
  8
DIM
 10
1229.798907
 20
462.734322
 30
0.0
 40
0.72
  1

  0
TEXT
  8
DIM
 10
1380.711228
 20
413.612584
 30
0.0
 40
0.72
  1

  0
TEXT
  8
DIM
 10
1317.175351
 20
390.737319
 30
0.0
 40
0.72
  1

  0
TEXT
  8
DIM
 10
1283.364584
 20
499.22455
 30
0.0
 40
0.72
  1

  0
TEXT
  8
DIM
 10
1219.828707
 20
476.349285
 30
0.0
 40
0.72
  1

  0
TEXT
  8
DIM
 10
1219.828707
 20
516.349285
 30
0.0
 40
0.72
  1

  0
TEXT
  8
DIM
 10
1281.328707
 20
516.349285
 30
0.0
 40
0.72
  1

  0
TEXT
  8
DIM
 10
906.367406
 20
300.685211
 30
0.0
 40
1.25
  1

  0
TEXT
  8
DIM
 10
907.429906
 20
296.591452
 30
0.0
 40
1.0
  1

  0
TEXT
  8
OBJECT
 10
908.28665
 20
347.28811
 30
0.0
 40
1.25
  1

  0
TEXT
  8
DIM
 10
1111.367406
 20
300.685211
 30
0.0
 40
1.25
  1

  0
TEXT
  8
DIM
 10
1112.429906
 20
296.591452
 30
0.0
 40
1.0
  1

  0
TEXT
  8
DIM
 10
1275.367406
 20
300.685211
 30
0.0
 40
1.25
  1

  0
TEXT
  8
DIM
 10
1276.429906
 20
296.591452
 30
0.0
 40
1.0
  1

  0
TEXT
  8
OBJECT
 10
1277.28665
 20
347.28811
 30
0.0
 40
1.25
  1

  0
TEXT
  8
DIM
 10
1275.367406
 20
300.685211
 30
0.0
 40
1.25
  1

  0
TEXT
  8
DIM
 10
1276.429906
 20
296.591452
 30
0.0
 40
1.0
  1

  0
TEXT
  8
OBJECT
 10
1277.28665
 20
347.28811
 30
0.0
 40
1.25
  1

  0
TEXT
  8
DIM
 10
1293.334784
 20
485.609587
 30
0.0
 40
0.72
  1

  0
TEXT
  8
DIM
 10
1229.798907
 20
462.734322
 30
0.0
 40
0.72
  1

  0
TEXT
  8
DIM
 10
1380.711228
 20
413.612584
 30
0.0
 40
0.72
  1

  0
TEXT
  8
DIM
 10
1317.175351
 20
390.737319
 30
0.0
 40
0.72
  1

  0
TEXT
  8
DIM
 10
1283.364584
 20
499.22455
 30
0.0
 40
0.72
  1

  0
TEXT
  8
DIM
 10
1219.828707
 20
476.349285
 30
0.0
 40
0.72
  1

  0
TEXT
  8
DIM
 10
1219.828707
 20
516.349285
 30
0.0
 40
0.72
  1

  0
TEXT
  8
DIM
 10
1281.328707
 20
516.349285
 30
0.0
 40
0.72
  1

  0
TEXT
  8
DIM
 10
885.867406
 20
300.685211
 30
0.0
 40
1.25
  1

  0
TEXT
  8
DIM
 10
886.929906
 20
296.591452
 30
0.0
 40
1.0
  1

  0
TEXT
  8
DIM
 10
1049.867406
 20
300.685211
 30
0.0
 40
1.25
  1

  0
TEXT
  8
DIM
 10
1050.929906
 20
296.591452
 30
0.0
 40
1.0
  1

  0
TEXT
  8
OBJECT
 10
1051.78665
 20
347.28811
 30
0.0
 40
1.25
  1

  0
TEXT
  8
DIM
 10
1049.867406
 20
300.685211
 30
0.0
 40
1.25
  1

  0
TEXT
  8
DIM
 10
1050.929906
 20
296.591452
 30
0.0
 40
1.0
  1

  0
TEXT
  8
OBJECT
 10
1051.78665
 20
347.28811
 30
0.0
 40
1.25
  1

  0
TEXT
  8
DIM
 10
1067.834784
 20
485.609587
 30
0.0
 40
0.72
  1

  0
TEXT
  8
DIM
 10
1004.298907
 20
462.734322
 30
0.0
 40
0.72
  1

  0
TEXT
  8
DIM
 10
1155.211228
 20
413.612584
 30
0.0
 40
0.72
  1

  0
TEXT
  8
DIM
 10
1091.675351
 20
390.737319
 30
0.0
 40
0.72
  1

  0
TEXT
  8
DIM
 10
1057.864584
 20
499.22455
 30
0.0
 40
0.72
  1

  0
TEXT
  8
DIM
 10
994.328707
 20
476.349285
 30
0.0
 40
0.72
  1

  0
TEXT
  8
DIM
 10
994.328707
 20
516.349285
 30
0.0
 40
0.72
  1

  0
TEXT
  8
DIM
 10
1055.828707
 20
516.349285
 30
0.0
 40
0.72
  1

  0
TEXT
  8
DIM
 10
906.367406
 20
300.685211
 30
0.0
 40
1.25
  1

  0
TEXT
  8
DIM
 10
907.429906
 20
296.591452
 30
0.0
 40
1.0
  1

  0
TEXT
  8
DIM
 10
1070.367406
 20
300.685211
 30
0.0
 40
1.25
  1

  0
TEXT
  8
DIM
 10
1071.429906
 20
296.591452
 30
0.0
 40
1.0
  1

  0
TEXT
  8
OBJECT
 10
1072.28665
 20
347.28811
 30
0.0
 40
1.25
  1

  0
TEXT
  8
DIM
 10
1070.367406
 20
300.685211
 30
0.0
 40
1.25
  1

  0
TEXT
  8
DIM
 10
1071.429906
 20
296.591452
 30
0.0
 40
1.0
  1

  0
TEXT
  8
OBJECT
 10
1072.28665
 20
347.28811
 30
0.0
 40
1.25
  1

  0
TEXT
  8
DIM
 10
1088.334784
 20
485.609587
 30
0.0
 40
0.72
  1

  0
TEXT
  8
DIM
 10
1024.798907
 20
462.734322
 30
0.0
 40
0.72
  1

  0
TEXT
  8
DIM
 10
1175.711228
 20
413.612584
 30
0.0
 40
0.72
  1

  0
TEXT
  8
DIM
 10
1112.175351
 20
390.737319
 30
0.0
 40
0.72
  1

  0
TEXT
  8
DIM
 10
1078.364584
 20
499.22455
 30
0.0
 40
0.72
  1

  0
TEXT
  8
DIM
 10
1014.828707
 20
476.349285
 30
0.0
 40
0.72
  1

  0
TEXT
  8
DIM
 10
1014.828707
 20
516.349285
 30
0.0
 40
0.72
  1

  0
TEXT
  8
DIM
 10
1076.328707
 20
516.349285
 30
0.0
 40
0.72
  1

  0
TEXT
  8
DIM
 10
906.367406
 20
300.685211
 30
0.0
 40
1.25
  1

  0
TEXT
  8
DIM
 10
907.429906
 20
296.591452
 30
0.0
 40
1.0
  1

  0
TEXT
  8
OBJECT
 10
908.28665
 20
347.28811
 30
0.0
 40
1.25
  1

  0
TEXT
  8
DIM
 10
1111.367406
 20
300.685211
 30
0.0
 40
1.25
  1

  0
TEXT
  8
DIM
 10
1112.429906
 20
296.591452
 30
0.0
 40
1.0
  1

  0
TEXT
  8
DIM
 10
1275.367406
 20
300.685211
 30
0.0
 40
1.25
  1

  0
TEXT
  8
DIM
 10
1276.429906
 20
296.591452
 30
0.0
 40
1.0
  1

  0
TEXT
  8
OBJECT
 10
1277.28665
 20
347.28811
 30
0.0
 40
1.25
  1

  0
TEXT
  8
DIM
 10
1275.367406
 20
300.685211
 30
0.0
 40
1.25
  1

  0
TEXT
  8
DIM
 10
1276.429906
 20
296.591452
 30
0.0
 40
1.0
  1

  0
TEXT
  8
OBJECT
 10
1277.28665
 20
347.28811
 30
0.0
 40
1.25
  1

  0
TEXT
  8
DIM
 10
1293.334784
 20
485.609587
 30
0.0
 40
0.72
  1

  0
TEXT
  8
DIM
 10
1229.798907
 20
462.734322
 30
0.0
 40
0.72
  1

  0
TEXT
  8
DIM
 10
1380.711228
 20
413.612584
 30
0.0
 40
0.72
  1

  0
TEXT
  8
DIM
 10
1317.175351
 20
390.737319
 30
0.0
 40
0.72
  1

  0
TEXT
  8
DIM
 10
1283.364584
 20
499.22455
 30
0.0
 40
0.72
  1

  0
TEXT
  8
DIM
 10
1219.828707
 20
476.349285
 30
0.0
 40
0.72
  1

  0
TEXT
  8
DIM
 10
1219.828707
 20
516.349285
 30
0.0
 40
0.72
  1

  0
TEXT
  8
DIM
 10
1281.328707
 20
516.349285
 30
0.0
 40
0.72
  1

  0
TEXT
  8
DIM
 10
1070.367406
 20
300.685211
 30
0.0
 40
1.25
  1

  0
TEXT
  8
DIM
 10
1071.429906
 20
296.591452
 30
0.0
 40
1.0
  1

  0
TEXT
  8
OBJECT
 10
1072.28665
 20
347.28811
 30
0.0
 40
1.25
  1

  0
TEXT
  8
DIM
 10
1275.367406
 20
300.685211
 30
0.0
 40
1.25
  1

  0
TEXT
  8
DIM
 10
1276.429906
 20
296.591452
 30
0.0
 40
1.0
  1

  0
TEXT
  8
OBJECT
 10
1277.28665
 20
347.28811
 30
0.0
 40
1.25
  1

  0
TEXT
  8
DIM
 10
1480.367406
 20
300.685211
 30
0.0
 40
1.25
  1

  0
TEXT
  8
DIM
 10
1481.429906
 20
296.591452
 30
0.0
 40
1.0
  1

  0
TEXT
  8
DIM
 10
1644.367406
 20
300.685211
 30
0.0
 40
1.25
  1

  0
TEXT
  8
DIM
 10
1645.429906
 20
296.591452
 30
0.0
 40
1.0
  1

  0
TEXT
  8
OBJECT
 10
1646.28665
 20
347.28811
 30
0.0
 40
1.25
  1

  0
TEXT
  8
DIM
 10
1644.367406
 20
300.685211
 30
0.0
 40
1.25
  1

  0
TEXT
  8
DIM
 10
1645.429906
 20
296.591452
 30
0.0
 40
1.0
  1

  0
TEXT
  8
OBJECT
 10
1646.28665
 20
347.28811
 30
0.0
 40
1.25
  1

  0
TEXT
  8
DIM
 10
1662.334784
 20
485.609587
 30
0.0
 40
0.72
  1

  0
TEXT
  8
DIM
 10
1598.798907
 20
462.734322
 30
0.0
 40
0.72
  1

  0
TEXT
  8
DIM
 10
1749.711228
 20
413.612584
 30
0.0
 40
0.72
  1

  0
TEXT
  8
DIM
 10
1686.175351
 20
390.737319
 30
0.0
 40
0.72
  1

  0
TEXT
  8
DIM
 10
1652.364584
 20
499.22455
 30
0.0
 40
0.72
  1

  0
TEXT
  8
DIM
 10
1588.828707
 20
476.349285
 30
0.0
 40
0.72
  1

  0
TEXT
  8
DIM
 10
1588.828707
 20
516.349285
 30
0.0
 40
0.72
  1

  0
TEXT
  8
DIM
 10
1650.328707
 20
516.349285
 30
0.0
 40
0.72
  1

  0
TEXT
  8
DIM
 10
1275.367406
 20
300.685211
 30
0.0
 40
1.25
  1

  0
TEXT
  8
DIM
 10
1276.429906
 20
296.591452
 30
0.0
 40
1.0
  1

  0
TEXT
  8
OBJECT
 10
1277.28665
 20
347.28811
 30
0.0
 40
1.25
  1

  0
TEXT
  8
DIM
 10
1480.367406
 20
300.685211
 30
0.0
 40
1.25
  1

  0
TEXT
  8
DIM
 10
1481.429906
 20
296.591452
 30
0.0
 40
1.0
  1

  0
TEXT
  8
DIM
 10
1644.367406
 20
300.685211
 30
0.0
 40
1.25
  1

  0
TEXT
  8
DIM
 10
1645.429906
 20
296.591452
 30
0.0
 40
1.0
  1

  0
TEXT
  8
OBJECT
 10
1646.28665
 20
347.28811
 30
0.0
 40
1.25
  1

  0
TEXT
  8
DIM
 10
1644.367406
 20
300.685211
 30
0.0
 40
1.25
  1

  0
TEXT
  8
DIM
 10
1645.429906
 20
296.591452
 30
0.0
 40
1.0
  1

  0
TEXT
  8
OBJECT
 10
1646.28665
 20
347.28811
 30
0.0
 40
1.25
  1

  0
TEXT
  8
DIM
 10
1662.334784
 20
485.609587
 30
0.0
 40
0.72
  1

  0
TEXT
  8
DIM
 10
1598.798907
 20
462.734322
 30
0.0
 40
0.72
  1

  0
TEXT
  8
DIM
 10
1749.711228
 20
413.612584
 30
0.0
 40
0.72
  1

  0
TEXT
  8
DIM
 10
1686.175351
 20
390.737319
 30
0.0
 40
0.72
  1

  0
TEXT
  8
DIM
 10
1652.364584
 20
499.22455
 30
0.0
 40
0.72
  1

  0
TEXT
  8
DIM
 10
1588.828707
 20
476.349285
 30
0.0
 40
0.72
  1

  0
TEXT
  8
DIM
 10
1588.828707
 20
516.349285
 30
0.0
 40
0.72
  1

  0
TEXT
  8
DIM
 10
1650.328707
 20
516.349285
 30
0.0
 40
0.72
  1

  0
TEXT
  8
DIM
 10
1254.867406
 20
300.685211
 30
0.0
 40
1.25
  1

  0
TEXT
  8
DIM
 10
1255.929906
 20
296.591452
 30
0.0
 40
1.0
  1

  0
TEXT
  8
DIM
 10
1418.867406
 20
300.685211
 30
0.0
 40
1.25
  1

  0
TEXT
  8
DIM
 10
1419.929906
 20
296.591452
 30
0.0
 40
1.0
  1

  0
TEXT
  8
OBJECT
 10
1420.78665
 20
347.28811
 30
0.0
 40
1.25
  1

  0
TEXT
  8
DIM
 10
1418.867406
 20
300.685211
 30
0.0
 40
1.25
  1

  0
TEXT
  8
DIM
 10
1419.929906
 20
296.591452
 30
0.0
 40
1.0
  1

  0
TEXT
  8
OBJECT
 10
1420.78665
 20
347.28811
 30
0.0
 40
1.25
  1

  0
TEXT
  8
DIM
 10
1436.834784
 20
485.609587
 30
0.0
 40
0.72
  1

  0
TEXT
  8
DIM
 10
1373.298907
 20
462.734322
 30
0.0
 40
0.72
  1

  0
TEXT
  8
DIM
 10
1524.211228
 20
413.612584
 30
0.0
 40
0.72
  1

  0
TEXT
  8
DIM
 10
1460.675351
 20
390.737319
 30
0.0
 40
0.72
  1

  0
TEXT
  8
DIM
 10
1426.864584
 20
499.22455
 30
0.0
 40
0.72
  1

  0
TEXT
  8
DIM
 10
1363.328707
 20
476.349285
 30
0.0
 40
0.72
  1

  0
TEXT
  8
DIM
 10
1363.328707
 20
516.349285
 30
0.0
 40
0.72
  1

  0
TEXT
  8
DIM
 10
1424.828707
 20
516.349285
 30
0.0
 40
0.72
  1

  0
TEXT
  8
DIM
 10
1070.367406
 20
300.685211
 30
0.0
 40
1.25
  1

  0
TEXT
  8
DIM
 10
1071.429906
 20
296.591452
 30
0.0
 40
1.0
  1

  0
TEXT
  8
DIM
 10
1234.367406
 20
300.685211
 30
0.0
 40
1.25
  1

  0
TEXT
  8
DIM
 10
1235.429906
 20
296.591452
 30
0.0
 40
1.0
  1

  0
TEXT
  8
OBJECT
 10
1236.28665
 20
347.28811
 30
0.0
 40
1.25
  1

  0
TEXT
  8
DIM
 10
1234.367406
 20
300.685211
 30
0.0
 40
1.25
  1

  0
TEXT
  8
DIM
 10
1235.429906
 20
296.591452
 30
0.0
 40
1.0
  1

  0
TEXT
  8
OBJECT
 10
1236.28665
 20
347.28811
 30
0.0
 40
1.25
  1

  0
TEXT
  8
DIM
 10
1252.334784
 20
485.609587
 30
0.0
 40
0.72
  1

  0
TEXT
  8
DIM
 10
1188.798907
 20
462.734322
 30
0.0
 40
0.72
  1

  0
TEXT
  8
DIM
 10
1339.711228
 20
413.612584
 30
0.0
 40
0.72
  1

  0
TEXT
  8
DIM
 10
1276.175351
 20
390.737319
 30
0.0
 40
0.72
  1

  0
TEXT
  8
DIM
 10
1242.364584
 20
499.22455
 30
0.0
 40
0.72
  1

  0
TEXT
  8
DIM
 10
1178.828707
 20
476.349285
 30
0.0
 40
0.72
  1

  0
TEXT
  8
DIM
 10
1178.828707
 20
516.349285
 30
0.0
 40
0.72
  1

  0
TEXT
  8
DIM
 10
1240.328707
 20
516.349285
 30
0.0
 40
0.72
  1

  0
TEXT
  8
DIM
 10
1090.867406
 20
300.685211
 30
0.0
 40
1.25
  1

  0
TEXT
  8
DIM
 10
1091.929906
 20
296.591452
 30
0.0
 40
1.0
  1

  0
TEXT
  8
OBJECT
 10
1092.78665
 20
347.28811
 30
0.0
 40
1.25
  1

  0
TEXT
  8
DIM
 10
1295.867406
 20
300.685211
 30
0.0
 40
1.25
  1

  0
TEXT
  8
DIM
 10
1296.929906
 20
296.591452
 30
0.0
 40
1.0
  1

  0
TEXT
  8
DIM
 10
1459.867406
 20
300.685211
 30
0.0
 40
1.25
  1

  0
TEXT
  8
DIM
 10
1460.929906
 20
296.591452
 30
0.0
 40
1.0
  1

  0
TEXT
  8
OBJECT
 10
1461.78665
 20
347.28811
 30
0.0
 40
1.25
  1

  0
TEXT
  8
DIM
 10
1459.867406
 20
300.685211
 30
0.0
 40
1.25
  1

  0
TEXT
  8
DIM
 10
1460.929906
 20
296.591452
 30
0.0
 40
1.0
  1

  0
TEXT
  8
OBJECT
 10
1461.78665
 20
347.28811
 30
0.0
 40
1.25
  1

  0
TEXT
  8
DIM
 10
1477.834784
 20
485.609587
 30
0.0
 40
0.72
  1

  0
TEXT
  8
DIM
 10
1414.298907
 20
462.734322
 30
0.0
 40
0.72
  1

  0
TEXT
  8
DIM
 10
1565.211228
 20
413.612584
 30
0.0
 40
0.72
  1

  0
TEXT
  8
DIM
 10
1501.675351
 20
390.737319
 30
0.0
 40
0.72
  1

  0
TEXT
  8
DIM
 10
1467.864584
 20
499.22455
 30
0.0
 40
0.72
  1

  0
TEXT
  8
DIM
 10
1404.328707
 20
476.349285
 30
0.0
 40
0.72
  1

  0
TEXT
  8
DIM
 10
1404.328707
 20
516.349285
 30
0.0
 40
0.72
  1

  0
TEXT
  8
DIM
 10
1465.828707
 20
516.349285
 30
0.0
 40
0.72
  1

  0
TEXT
  8
DIM
 10
1254.867406
 20
300.685211
 30
0.0
 40
1.25
  1

  0
TEXT
  8
DIM
 10
1255.929906
 20
296.591452
 30
0.0
 40
1.0
  1

  0
TEXT
  8
OBJECT
 10
1256.78665
 20
347.28811
 30
0.0
 40
1.25
  1

  0
TEXT
  8
DIM
 10
1459.867406
 20
300.685211
 30
0.0
 40
1.25
  1

  0
TEXT
  8
DIM
 10
1460.929906
 20
296.591452
 30
0.0
 40
1.0
  1

  0
TEXT
  8
OBJECT
 10
1461.78665
 20
347.28811
 30
0.0
 40
1.25
  1

  0
TEXT
  8
DIM
 10
1664.867406
 20
300.685211
 30
0.0
 40
1.25
  1

  0
TEXT
  8
DIM
 10
1665.929906
 20
296.591452
 30
0.0
 40
1.0
  1

  0
TEXT
  8
DIM
 10
1828.867406
 20
300.685211
 30
0.0
 40
1.25
  1

  0
TEXT
  8
DIM
 10
1829.929906
 20
296.591452
 30
0.0
 40
1.0
  1

  0
TEXT
  8
OBJECT
 10
1830.78665
 20
347.28811
 30
0.0
 40
1.25
  1

  0
TEXT
  8
DIM
 10
1828.867406
 20
300.685211
 30
0.0
 40
1.25
  1

  0
TEXT
  8
DIM
 10
1829.929906
 20
296.591452
 30
0.0
 40
1.0
  1

  0
TEXT
  8
OBJECT
 10
1830.78665
 20
347.28811
 30
0.0
 40
1.25
  1

  0
TEXT
  8
DIM
 10
1846.834784
 20
485.609587
 30
0.0
 40
0.72
  1

  0
TEXT
  8
DIM
 10
1783.298907
 20
462.734322
 30
0.0
 40
0.72
  1

  0
TEXT
  8
DIM
 10
1934.211228
 20
413.612584
 30
0.0
 40
0.72
  1

  0
TEXT
  8
DIM
 10
1870.675351
 20
390.737319
 30
0.0
 40
0.72
  1

  0
TEXT
  8
DIM
 10
1836.864584
 20
499.22455
 30
0.0
 40
0.72
  1

  0
TEXT
  8
DIM
 10
1773.328707
 20
476.349285
 30
0.0
 40
0.72
  1

  0
TEXT
  8
DIM
 10
1773.328707
 20
516.349285
 30
0.0
 40
0.72
  1

  0
TEXT
  8
DIM
 10
1834.828707
 20
516.349285
 30
0.0
 40
0.72
  1

  0
TEXT
  8
DIM
 10
1459.867406
 20
300.685211
 30
0.0
 40
1.25
  1

  0
TEXT
  8
DIM
 10
1460.929906
 20
296.591452
 30
0.0
 40
1.0
  1

  0
TEXT
  8
OBJECT
 10
1461.78665
 20
347.28811
 30
0.0
 40
1.25
  1

  0
TEXT
  8
DIM
 10
1664.867406
 20
300.685211
 30
0.0
 40
1.25
  1

  0
TEXT
  8
DIM
 10
1665.929906
 20
296.591452
 30
0.0
 40
1.0
  1

  0
TEXT
  8
DIM
 10
1828.867406
 20
300.685211
 30
0.0
 40
1.25
  1

  0
TEXT
  8
DIM
 10
1829.929906
 20
296.591452
 30
0.0
 40
1.0
  1

  0
TEXT
  8
OBJECT
 10
1830.78665
 20
347.28811
 30
0.0
 40
1.25
  1

  0
TEXT
  8
DIM
 10
1828.867406
 20
300.685211
 30
0.0
 40
1.25
  1

  0
TEXT
  8
DIM
 10
1829.929906
 20
296.591452
 30
0.0
 40
1.0
  1

  0
TEXT
  8
OBJECT
 10
1830.78665
 20
347.28811
 30
0.0
 40
1.25
  1

  0
TEXT
  8
DIM
 10
1846.834784
 20
485.609587
 30
0.0
 40
0.72
  1

  0
TEXT
  8
DIM
 10
1783.298907
 20
462.734322
 30
0.0
 40
0.72
  1

  0
TEXT
  8
DIM
 10
1934.211228
 20
413.612584
 30
0.0
 40
0.72
  1

  0
TEXT
  8
DIM
 10
1870.675351
 20
390.737319
 30
0.0
 40
0.72
  1

  0
TEXT
  8
DIM
 10
1836.864584
 20
499.22455
 30
0.0
 40
0.72
  1

  0
TEXT
  8
DIM
 10
1773.328707
 20
476.349285
 30
0.0
 40
0.72
  1

  0
TEXT
  8
DIM
 10
1773.328707
 20
516.349285
 30
0.0
 40
0.72
  1

  0
TEXT
  8
DIM
 10
1834.828707
 20
516.349285
 30
0.0
 40
0.72
  1

  0
TEXT
  8
DIM
 10
1439.367406
 20
300.685211
 30
0.0
 40
1.25
  1

  0
TEXT
  8
DIM
 10
1440.429906
 20
296.591452
 30
0.0
 40
1.0
  1

  0
TEXT
  8
DIM
 10
1603.367406
 20
300.685211
 30
0.0
 40
1.25
  1

  0
TEXT
  8
DIM
 10
1604.429906
 20
296.591452
 30
0.0
 40
1.0
  1

  0
TEXT
  8
OBJECT
 10
1605.28665
 20
347.28811
 30
0.0
 40
1.25
  1

  0
TEXT
  8
DIM
 10
1603.367406
 20
300.685211
 30
0.0
 40
1.25
  1

  0
TEXT
  8
DIM
 10
1604.429906
 20
296.591452
 30
0.0
 40
1.0
  1

  0
TEXT
  8
OBJECT
 10
1605.28665
 20
347.28811
 30
0.0
 40
1.25
  1

  0
TEXT
  8
DIM
 10
1621.334784
 20
485.609587
 30
0.0
 40
0.72
  1

  0
TEXT
  8
DIM
 10
1557.798907
 20
462.734322
 30
0.0
 40
0.72
  1

  0
TEXT
  8
DIM
 10
1708.711228
 20
413.612584
 30
0.0
 40
0.72
  1

  0
TEXT
  8
DIM
 10
1645.175351
 20
390.737319
 30
0.0
 40
0.72
  1

  0
TEXT
  8
DIM
 10
1611.364584
 20
499.22455
 30
0.0
 40
0.72
  1

  0
TEXT
  8
DIM
 10
1547.828707
 20
476.349285
 30
0.0
 40
0.72
  1

  0
TEXT
  8
DIM
 10
1547.828707
 20
516.349285
 30
0.0
 40
0.72
  1

  0
TEXT
  8
DIM
 10
1609.328707
 20
516.349285
 30
0.0
 40
0.72
  1

  0
TEXT
  8
DIM
 10
1254.867406
 20
300.685211
 30
0.0
 40
1.25
  1

  0
TEXT
  8
DIM
 10
1255.929906
 20
296.591452
 30
0.0
 40
1.0
  1

  0
TEXT
  8
OBJECT
 10
1256.78665
 20
347.28811
 30
0.0
 40
1.25
  1

  0
TEXT
  8
DIM
 10
1091.064485
 20
460.398533
 30
0.0
 40
1.25
  1

  0
TEXT
  8
DIM
 10
1092.126985
 20
456.304774
 30
0.0
 40
1.0
  1

  0
TEXT
  8
OBJECT
 10
1092.983729
 20
507.001432
 30
0.0
 40
1.25
  1

  0
TEXT
  8
DIM
 10
906.367406
 20
444.685211
 30
0.0
 40
1.25
  1

  0
TEXT
  8
DIM
 10
907.429906
 20
440.591452
 30
0.0
 40
1.0
  1

  0
TEXT
  8
OBJECT
 10
908.28665
 20
491.28811
 30
0.0
 40
1.25
  1

  0
TEXT
  8
DIM
 10
906.367406
 20
300.685211
 30
0.0
 40
1.25
  1

  0
TEXT
  8
DIM
 10
907.429906
 20
296.591452
 30
0.0
 40
1.0
  1

  0
TEXT
  8
OBJECT
 10
908.28665
 20
347.28811
 30
0.0
 40
1.25
  1

  0
TEXT
  8
DIM
 10
701.367406
 20
300.685211
 30
0.0
 40
1.25
  1

  0
TEXT
  8
DIM
 10
702.429906
 20
296.591452
 30
0.0
 40
1.0
  1

  0
TEXT
  8
OBJECT
 10
703.28665
 20
347.28811
 30
0.0
 40
1.25
  1

  0
TEXT
  8
DIM
 10
475.867406
 20
300.685211
 30
0.0
 40
1.25
  1

  0
TEXT
  8
DIM
 10
476.929906
 20
296.591452
 30
0.0
 40
1.0
  1

  0
TEXT
  8
OBJECT
 10
477.78665
 20
347.28811
 30
0.0
 40
1.25
  1

  0
TEXT
  8
TEXT
 10
4.481792
 20
11.818155
 30
0.0
 40
2.0
  1
4
 41
0.75
 72
     4
 11
4.981792
 21
12.818155
 31
0.0
  0
TEXT
  8
TEXT
 10
7.829313
 20
21.802155
 30
0.0
 40
2.0
  1
LEVELER KIT TO BE SHIPPED UNASSEMBLED,
 41
0.75
  0
TEXT
  8
TEXT
 10
9.162647
 20
18.474155
 30
0.0
 40
2.0
  1
PACKED INSIDE RACK.
 41
0.75
  0
LINE
  8
TEXT
 10
52.020818
 20
209.087626
 30
0.0
 11
34.663329
 21
209.087626
 31
0.0
  0
TEXT
  8
TEXT
 10
4.467605
 20
209.087626
 30
0.0
 40
2.0
  1
PLEXIGLAS DOOR FRAME
 41
0.75
  0
TEXT
  8
TEXT
 10
52.865045
 20
209.087626
 30
0.0
 40
2.0
  1
ALUMINUM EXTRUSION
 41
0.75
  0
LINE
  8
TEXT
 10
130.838547
 20
212.511627
 30
0.0
 11
113.502658
 21
212.511627
 31
0.0
  0
TEXT
  8
TEXT
 10
83.285333
 20
212.511627
 30
0.0
 40
2.0
  1
PLEXIGLAS DOOR FRAME
 41
0.75
  0
TEXT
  8
TEXT
 10
131.682773
 20
212.511627
 30
0.0
 40
2.0
  1
CLEAR ANODIZED
 41
0.75
  0
TEXT
  8
TEXT
 10
83.285333
 20
209.183627
 30
0.0
 40
2.0
  1
PLEXIGLAS PANEL
 41
0.75
  0
TEXT
  8
TEXT
 10
131.682773
 20
209.183627
 30
0.0
 40
2.0
  1
SMOKE GRAY
 41
0.75
  0
LINE
  8
TEXT
 10
130.838547
 20
209.183627
 30
0.0
 11
105.904916
 21
209.183627
 31
0.0
  0
TEXT
  8
TEXT
 10
83.285333
 20
222.495627
 30
0.0
 40
2.0
  1
PLEXIGLAS DOOR HINGES
 41
0.75
  0
LINE
  8
TEXT
 10
130.838547
 20
222.495627
 30
0.0
 11
113.857806
 21
222.495627
 31
0.0
  0
TEXT
  8
TEXT
 10
131.682773
 20
222.495627
 30
0.0
 40
2.0
  1
METALLIC GRAY
 41
0.75
  0
POLYLINE
  8
TEXT
 66
     1
 10
0.0
 20
0.0
 30
0.0
 70
     1
  0
VERTEX
  8
TEXT
 10
5.905553
 20
24.402155
 30
0.0
  0
VERTEX
  8
TEXT
 10
4.058032
 20
24.402155
 30
0.0
  0
VERTEX
  8
TEXT
 10
3.134272
 20
22.802155
 30
0.0
  0
VERTEX
  8
TEXT
 10
4.058032
 20
21.202155
 30
0.0
  0
VERTEX
  8
TEXT
 10
5.905553
 20
21.202155
 30
0.0
  0
VERTEX
  8
TEXT
 10
6.829313
 20
22.802155
 30
0.0
  0
SEQEND
  8
TEXT
  0
POLYLINE
  8
TEXT
 66
     1
 10
0.0
 20
0.0
 30
0.0
 70
     1
  0
VERTEX
  8
TEXT
 10
4.058032
 20
14.418155
 30
0.0
  0
VERTEX
  8
TEXT
 10
3.134272
 20
12.818155
 30
0.0
  0
VERTEX
  8
TEXT
 10
4.058032
 20
11.218155
 30
0.0
  0
VERTEX
  8
TEXT
 10
5.905553
 20
11.218155
 30
0.0
  0
VERTEX
  8
TEXT
 10
6.829313
 20
12.818155
 30
0.0
  0
VERTEX
  8
TEXT
 10
5.905553
 20
14.418155
 30
0.0
  0
SEQEND
  8
TEXT
  0
TEXT
  8
TEXT
 10
9.162647
 20
31.786155
 30
0.0
 40
2.0
  1
LEVELER KIT WILL RAISE CABINET RACK APPROXIMATELY
 41
0.75
  0
TEXT
  8
TEXT
 10
9.162647
 20
28.458155
 30
0.0
 40
2.0
  1
1.188 INCHES OFF THE FLOOR.
 41
0.75
  0
TEXT
  8
TEXT
 10
5.800938
 20
212.415626
 30
0.0
 40
2.0
  1
& LEVELER MOUNTING BRACKETS
 41
0.75
  0
TEXT
  8
TEXT
 10
84.618667
 20
215.839627
 30
0.0
 40
2.0
  1
& LEVELER MOUNTING BRACKETS
 41
0.75
  0
LINE
  8
TEXT
 10
130.838547
 20
215.839627
 30
0.0
 11
125.47237
 21
215.839627
 31
0.0
  0
LINE
  8
OBJECT
 10
134.79829
 20
197.70655
 30
0.0
 11
136.23579
 21
197.70655
 31
0.0
  0
LINE
  8
OBJECT
 10
134.79829
 20
172.20655
 30
0.0
 11
136.23579
 21
172.20655
 31
0.0
  0
LINE
  8
OBJECT
 10
114.31379
 20
197.62855
 30
0.0
 11
136.15779
 21
197.62855
 31
0.0
  0
LINE
  8
OBJECT
 10
114.31379
 20
172.28455
 30
0.0
 11
136.15779
 21
172.28455
 31
0.0
  0
LINE
  8
OBJECT
 10
114.23579
 20
197.70655
 30
0.0
 11
114.23579
 21
196.23855
 31
0.0
  0
LINE
  8
OBJECT
 10
114.31379
 20
172.28455
 30
0.0
 11
114.31379
 21
197.62855
 31
0.0
  0
LINE
  8
OBJECT
 10
115.75129
 20
172.28455
 30
0.0
 11
115.75129
 21
171.97305
 31
0.0
  0
LINE
  8
OBJECT
 10
115.67329
 20
172.28455
 30
0.0
 11
115.67329
 21
172.11682
 31
0.0
  0
LINE
  8
OBJECT
 10
115.67329
 20
172.20655
 30
0.0
 11
115.67329
 21
172.28455
 31
0.0
  0
LINE
  8
OBJECT
 10
114.23579
 20
172.20655
 30
0.0
 11
114.23579
 21
173.67455
 31
0.0
  0
LINE
  8
OBJECT
 10
114.23579
 20
172.20655
 30
0.0
 11
115.67329
 21
172.20655
 31
0.0
  0
LINE
  8
OBJECT
 10
115.57979
 20
172.14455
 30
0.0
 11
115.67329
 21
172.14455
 31
0.0
  0
LINE
  8
OBJECT
 10
115.57979
 20
172.14455
 30
0.0
 11
115.57979
 21
172.14455
 31
0.0
  0
CIRCLE
  8
OBJECT
 10
115.57979
 20
171.97305
 30
0.0
 40
0.055
  0
CIRCLE
  8
OBJECT
 10
115.57979
 20
171.97305
 30
0.0
 40
0.1715
  0
LINE
  8
OBJECT
 10
114.23579
 20
173.67455
 30
0.0
 11
114.31379
 21
173.67455
 31
0.0
  0
LINE
  8
OBJECT
 10
134.79829
 20
172.20655
 30
0.0
 11
134.79829
 21
172.28455
 31
0.0
  0
POLYLINE
  8
OBJECT
 66
     1
 10
0.0
 20
0.0
 30
0.0
  0
VERTEX
  8
OBJECT
 10
114.31379
 20
177.67455
 30
0.0
 42
-0.360786
  0
VERTEX
  8
OBJECT
 10
114.00179
 20
177.98655
 30
0.0
  0
VERTEX
  8
OBJECT
 10
114.00179
 20
181.73755
 30
0.0
 42
-0.360786
  0
VERTEX
  8
OBJECT
 10
114.31379
 20
182.04955
 30
0.0
  0
SEQEND
  8
OBJECT
  0
POLYLINE
  8
OBJECT
 66
     1
 10
0.0
 20
0.0
 30
0.0
  0
VERTEX
  8
OBJECT
 10
114.31379
 20
187.86355
 30
0.0
 42
-0.360786
  0
VERTEX
  8
OBJECT
 10
114.00179
 20
188.17555
 30
0.0
  0
VERTEX
  8
OBJECT
 10
114.00179
 20
191.92655
 30
0.0
 42
-0.360786
  0
VERTEX
  8
OBJECT
 10
114.31379
 20
192.23855
 30
0.0
  0
SEQEND
  8
OBJECT
  0
LINE
  8
OBJECT
 10
114.23579
 20
196.23855
 30
0.0
 11
114.31379
 21
196.23855
 31
0.0
  0
INSERT
  8
OBJECT
  2
TOP
 10
125.23579
 20
184.95655
 30
0.0
  0
POLYLINE
  8
OBJECT
 66
     1
 10
0.0
 20
0.0
 30
0.0
  0
VERTEX
  8
OBJECT
 10
118.09329
 20
197.70655
 30
0.0
 42
-0.360786
  0
VERTEX
  8
OBJECT
 10
118.40529
 20
198.01855
 30
0.0
  0
VERTEX
  8
OBJECT
 10
122.15629
 20
198.01855
 30
0.0
 42
-0.360786
  0
VERTEX
  8
OBJECT
 10
122.46829
 20
197.70655
 30
0.0
  0
SEQEND
  8
OBJECT
  0
LINE
  8
OBJECT
 10
115.78229
 20
197.70655
 30
0.0
 11
134.72029
 21
197.70655
 31
0.0
  0
LINE
  8
OBJECT
 10
114.23579
 20
197.70655
 30
0.0
 11
115.67329
 21
197.70655
 31
0.0
  0
LINE
  8
OBJECT
 10
115.67329
 20
197.70655
 30
0.0
 11
115.67329
 21
197.62855
 31
0.0
  0
LINE
  8
OBJECT
 10
115.78229
 20
197.70655
 30
0.0
 11
115.78229
 21
197.62855
 31
0.0
  0
POLYLINE
  8
OBJECT
 66
     1
 10
0.0
 20
0.0
 30
0.0
  0
VERTEX
  8
OBJECT
 10
127.97029
 20
197.70655
 30
0.0
 42
-0.360786
  0
VERTEX
  8
OBJECT
 10
128.28229
 20
198.01855
 30
0.0
  0
VERTEX
  8
OBJECT
 10
132.03329
 20
198.01855
 30
0.0
 42
-0.360786
  0
VERTEX
  8
OBJECT
 10
132.34529
 20
197.70655
 30
0.0
  0
SEQEND
  8
OBJECT
  0
CIRCLE
  8
OBJECT
 10
134.89179
 20
197.94005
 30
0.0
 40
0.1715
  0
LINE
  8
OBJECT
 10
134.79829
 20
197.62855
 30
0.0
 11
134.79829
 21
197.796279
 31
0.0
  0
LINE
  8
OBJECT
 10
134.72029
 20
197.62855
 30
0.0
 11
134.72029
 21
197.94005
 31
0.0
  0
CIRCLE
  8
OBJECT
 10
134.89179
 20
197.94005
 30
0.0
 40
0.055
  0
LINE
  8
OBJECT
 10
134.89179
 20
197.76855
 30
0.0
 11
134.89179
 21
197.76855
 31
0.0
  0
LINE
  8
OBJECT
 10
134.89179
 20
197.76855
 30
0.0
 11
134.79829
 21
197.76855
 31
0.0
  0
LINE
  8
OBJECT
 10
136.23579
 20
197.70655
 30
0.0
 11
136.23579
 21
196.23855
 31
0.0
  0
LINE
  8
OBJECT
 10
136.15779
 20
172.28455
 30
0.0
 11
136.15779
 21
197.62855
 31
0.0
  0
LINE
  8
OBJECT
 10
136.23579
 20
172.20655
 30
0.0
 11
136.23579
 21
173.67455
 31
0.0
  0
LINE
  8
OBJECT
 10
136.15779
 20
173.67455
 30
0.0
 11
136.23579
 21
173.67455
 31
0.0
  0
POLYLINE
  8
OBJECT
 66
     1
 10
0.0
 20
0.0
 30
0.0
  0
VERTEX
  8
OBJECT
 10
136.15779
 20
182.04955
 30
0.0
 42
-0.360786
  0
VERTEX
  8
OBJECT
 10
136.46979
 20
181.73755
 30
0.0
  0
VERTEX
  8
OBJECT
 10
136.46979
 20
177.98655
 30
0.0
 42
-0.360786
  0
VERTEX
  8
OBJECT
 10
136.15779
 20
177.67455
 30
0.0
  0
SEQEND
  8
OBJECT
  0
POLYLINE
  8
OBJECT
 66
     1
 10
0.0
 20
0.0
 30
0.0
  0
VERTEX
  8
OBJECT
 10
136.15779
 20
192.23855
 30
0.0
 42
-0.360786
  0
VERTEX
  8
OBJECT
 10
136.46979
 20
191.92655
 30
0.0
  0
VERTEX
  8
OBJECT
 10
136.46979
 20
188.17555
 30
0.0
 42
-0.360786
  0
VERTEX
  8
OBJECT
 10
136.15779
 20
187.86355
 30
0.0
  0
SEQEND
  8
OBJECT
  0
LINE
  8
OBJECT
 10
136.15779
 20
196.23855
 30
0.0
 11
136.23579
 21
196.23855
 31
0.0
  0
LINE
  8
OBJECT
 10
134.79829
 20
19.403267
 30
0.0
 11
136.23579
 21
19.403267
 31
0.0
  0
LINE
  8
OBJECT
 10
114.31379
 20
19.481267
 30
0.0
 11
136.15779
 21
19.481267
 31
0.0
  0
LINE
  8
OBJECT
 10
114.39179
 20
19.981267
 30
0.0
 11
136.07979
 21
19.981267
 31
0.0
  0
DIMENSION
  8
DIM
  2
*D21
 10
110.25179
 20
19.403267
 30
0.0
 11
103.18179
 21
13.643267
 31
0.0
 12
-4.924547
 22
-0.984518
 32
0.0
 13
120.68929
 23
21.231267
 33
0.0
 14
114.23579
 24
19.403267
 34
0.0
 50
90.0
  3
23NSTD
  0
DIMENSION
  8
DIM
  2
*D22
 10
114.23579
 20
10.20707
 30
0.0
 11
104.03579
 21
10.20707
 31
0.0
 12
-4.924547
 22
-0.984518
 32
0.0
 13
120.68929
 23
21.231267
 33
0.0
 14
114.23579
 24
19.403267
 34
0.0
  3
23NSTD
  0
DIMENSION
  8
DIM
  2
*D20
 10
129.78229
 20
14.20707
 30
0.0
 11
125.23579
 21
14.20707
 31
0.0
 12
-4.924547
 22
-0.984518
 32
0.0
 13
120.68929
 23
21.231267
 33
0.0
 14
129.78229
 24
21.231267
 34
0.0
  3
23NSTDI
  0
LINE
  8
OBJECT
 10
135.65779
 20
44.325267
 30
0.0
 11
135.65779
 21
19.981267
 31
0.0
  0
LINE
  8
OBJECT
 10
114.81379
 20
44.325267
 30
0.0
 11
114.81379
 21
19.981267
 31
0.0
  0
LINE
  8
OBJECT
 10
114.31379
 20
44.825267
 30
0.0
 11
114.31379
 21
19.481267
 31
0.0
  0
POLYLINE
  8
OBJECT
 66
     1
 10
0.0
 20
0.0
 30
0.0
  0
VERTEX
  8
OBJECT
 10
122.46829
 20
19.403267
 30
0.0
 42
-0.360786
  0
VERTEX
  8
OBJECT
 10
122.15629
 20
19.091267
 30
0.0
  0
VERTEX
  8
OBJECT
 10
118.40529
 20
19.091267
 30
0.0
 42
-0.360786
  0
VERTEX
  8
OBJECT
 10
118.09329
 20
19.403267
 30
0.0
  0
SEQEND
  8
OBJECT
  0
LINE
  8
OBJECT
 10
115.78229
 20
19.403267
 30
0.0
 11
134.72029
 21
19.403267
 31
0.0
  0
POLYLINE
  8
OBJECT
 66
     1
 10
0.0
 20
0.0
 30
0.0
  0
VERTEX
  8
OBJECT
 10
114.31379
 20
24.871267
 30
0.0
 42
-0.360786
  0
VERTEX
  8
OBJECT
 10
114.00179
 20
25.183267
 30
0.0
  0
VERTEX
  8
OBJECT
 10
114.00179
 20
28.934267
 30
0.0
 42
-0.360786
  0
VERTEX
  8
OBJECT
 10
114.31379
 20
29.246267
 30
0.0
  0
SEQEND
  8
OBJECT
  0
CIRCLE
  8
OBJECT
 10
118.39179
 20
21.231267
 30
0.0
 40
0.156
  0
CIRCLE
  8
OBJECT
 10
116.64179
 20
21.231267
 30
0.0
 40
0.156
  0
LINE
  8
OBJECT
 10
114.23579
 20
19.403267
 30
0.0
 11
115.67329
 21
19.403267
 31
0.0
  0
LINE
  8
OBJECT
 10
114.23579
 20
19.403267
 30
0.0
 11
114.23579
 21
20.871267
 31
0.0
  0
LINE
  8
OBJECT
 10
114.23579
 20
20.871267
 30
0.0
 11
114.31379
 21
20.871267
 31
0.0
  0
LINE
  8
OBJECT
 10
114.39179
 20
19.981267
 30
0.0
 11
114.39179
 21
19.481267
 31
0.0
  0
LINE
  8
OBJECT
 10
115.78229
 20
19.403267
 30
0.0
 11
115.78229
 21
19.481267
 31
0.0
  0
LINE
  8
OBJECT
 10
115.67329
 20
19.403267
 30
0.0
 11
115.67329
 21
19.481267
 31
0.0
  0
CIRCLE
  8
OBJECT
 10
118.39179
 20
24.231267
 30
0.0
 40
0.156
  0
CIRCLE
  8
OBJECT
 10
116.64179
 20
24.231267
 30
0.0
 40
0.156
  0
ARC
  8
OBJECT
 10
120.68929
 20
21.231267
 30
0.0
 40
0.5545
 50
276.419806
 51
83.580194
  0
ARC
  8
OBJECT
 10
120.68929
 20
21.231267
 30
0.0
 40
0.5545
 50
96.419806
 51
263.580194
  0
LINE
  8
OBJECT
 10
120.62729
 20
20.741482
 30
0.0
 11
120.62729
 21
20.598297
 31
0.0
  0
LINE
  8
OBJECT
 10
120.75129
 20
20.741482
 30
0.0
 11
120.75129
 21
20.598297
 31
0.0
  0
LINE
  8
OBJECT
 10
120.75129
 20
21.823325
 30
0.0
 11
120.75129
 21
21.860447
 31
0.0
  0
LINE
  8
OBJECT
 10
120.62729
 20
21.823325
 30
0.0
 11
120.62729
 21
21.860447
 31
0.0
  0
LINE
  8
OBJECT
 10
120.62729
 20
21.68014
 30
0.0
 11
120.62729
 21
21.823325
 31
0.0
  0
LINE
  8
OBJECT
 10
120.75129
 20
21.823325
 30
0.0
 11
120.75129
 21
21.68014
 31
0.0
  0
CIRCLE
  8
OBJECT
 10
133.82979
 20
21.231267
 30
0.0
 40
0.156
  0
ARC
  8
OBJECT
 10
129.78229
 20
21.231267
 30
0.0
 40
0.5545
 50
276.419806
 51
83.580194
  0
CIRCLE
  8
OBJECT
 10
132.07979
 20
21.231267
 30
0.0
 40
0.156
  0
ARC
  8
OBJECT
 10
129.78229
 20
21.231267
 30
0.0
 40
0.5545
 50
96.419806
 51
263.580194
  0
POLYLINE
  8
OBJECT
 66
     1
 10
0.0
 20
0.0
 30
0.0
  0
VERTEX
  8
OBJECT
 10
132.34529
 20
19.403267
 30
0.0
 42
-0.360786
  0
VERTEX
  8
OBJECT
 10
132.03329
 20
19.091267
 30
0.0
  0
VERTEX
  8
OBJECT
 10
128.28229
 20
19.091267
 30
0.0
 42
-0.360786
  0
VERTEX
  8
OBJECT
 10
127.97029
 20
19.403267
 30
0.0
  0
SEQEND
  8
OBJECT
  0
LINE
  8
OBJECT
 10
129.72029
 20
20.741482
 30
0.0
 11
129.72029
 21
20.598297
 31
0.0
  0
LINE
  8
OBJECT
 10
129.84429
 20
20.741482
 30
0.0
 11
129.84429
 21
20.598297
 31
0.0
  0
CIRCLE
  8
OBJECT
 10
134.89179
 20
19.169767
 30
0.0
 40
0.1715
  0
LINE
  8
OBJECT
 10
134.89179
 20
19.341267
 30
0.0
 11
134.89179
 21
19.341267
 31
0.0
  0
LINE
  8
OBJECT
 10
134.89179
 20
19.341267
 30
0.0
 11
134.79829
 21
19.341267
 31
0.0
  0
CIRCLE
  8
OBJECT
 10
134.89179
 20
19.169767
 30
0.0
 40
0.055
  0
LINE
  8
OBJECT
 10
134.79829
 20
19.481267
 30
0.0
 11
134.79829
 21
19.313537
 31
0.0
  0
LINE
  8
OBJECT
 10
134.72029
 20
19.481267
 30
0.0
 11
134.72029
 21
19.169767
 31
0.0
  0
LINE
  8
OBJECT
 10
129.72029
 20
21.823325
 30
0.0
 11
129.72029
 21
21.68014
 31
0.0
  0
LINE
  8
OBJECT
 10
129.84429
 20
21.68014
 30
0.0
 11
129.84429
 21
21.823325
 31
0.0
  0
LINE
  8
OBJECT
 10
129.84429
 20
21.823325
 30
0.0
 11
129.84429
 21
21.860447
 31
0.0
  0
LINE
  8
OBJECT
 10
129.72029
 20
21.823325
 30
0.0
 11
129.72029
 21
21.860447
 31
0.0
  0
CIRCLE
  8
OBJECT
 10
133.82979
 20
24.231267
 30
0.0
 40
0.156
  0
CIRCLE
  8
OBJECT
 10
132.07979
 20
24.231267
 30
0.0
 40
0.156
  0
LINE
  8
OBJECT
 10
136.15779
 20
44.825267
 30
0.0
 11
136.15779
 21
19.481267
 31
0.0
  0
POLYLINE
  8
OBJECT
 66
     1
 10
0.0
 20
0.0
 30
0.0
  0
VERTEX
  8
OBJECT
 10
136.15779
 20
29.246267
 30
0.0
 42
-0.360786
  0
VERTEX
  8
OBJECT
 10
136.46979
 20
28.934267
 30
0.0
  0
VERTEX
  8
OBJECT
 10
136.46979
 20
25.183267
 30
0.0
 42
-0.360786
  0
VERTEX
  8
OBJECT
 10
136.15779
 20
24.871267
 30
0.0
  0
SEQEND
  8
OBJECT
  0
LINE
  8
OBJECT
 10
136.23579
 20
19.403267
 30
0.0
 11
136.23579
 21
20.871267
 31
0.0
  0
LINE
  8
OBJECT
 10
136.15779
 20
20.871267
 30
0.0
 11
136.23579
 21
20.871267
 31
0.0
  0
LINE
  8
OBJECT
 10
136.07979
 20
19.981267
 30
0.0
 11
136.07979
 21
19.481267
 31
0.0
  0
DIMENSION
  8
DIM
  2
*D26
 10
136.23579
 20
58.5335
 30
0.0
 11
146.31079
 21
58.5335
 31
0.0
 12
-4.924547
 22
-0.984518
 32
0.0
 13
133.82979
 23
43.075267
 33
0.0
 14
136.23579
 24
44.903267
 34
0.0
  3
23NSTD
  0
DIMENSION
  8
DIM
  2
*D24
 10
145.206264
 20
44.903267
 30
0.0
 11
152.276264
 21
50.663267
 31
0.0
 12
-4.924547
 22
-0.984518
 32
0.0
 13
133.82979
 23
43.075267
 33
0.0
 14
136.23579
 24
44.903267
 34
0.0
 50
90.0
  3
23NSTD
  0
DIMENSION
  8
DIM
  2
*D23
 10
140.710264
 20
40.075267
 30
0.0
 11
140.710264
 21
41.575267
 31
0.0
 12
-4.924547
 22
-0.984518
 32
0.0
 13
133.82979
 23
43.075267
 33
0.0
 14
133.82979
 24
40.075267
 34
0.0
 50
90.0
  3
23NSTDI
  0
DIMENSION
  8
DIM
  2
*D27
 10
133.82979
 20
54.5335
 30
0.0
 11
143.65479
 21
54.5335
 31
0.0
 12
-4.924547
 22
-0.984518
 32
0.0
 13
132.07979
 23
43.075267
 33
0.0
 14
133.82979
 24
43.075267
 34
0.0
  3
23NSTD
  0
LINE
  8
OBJECT
 10
134.79829
 20
44.903267
 30
0.0
 11
136.23579
 21
44.903267
 31
0.0
  0
LINE
  8
OBJECT
 10
114.39179
 20
44.325267
 30
0.0
 11
136.07979
 21
44.325267
 31
0.0
  0
LINE
  8
OBJECT
 10
114.31379
 20
44.825267
 30
0.0
 11
136.15779
 21
44.825267
 31
0.0
  0
DIMENSION
  8
DIM
  2
*D19
 10
106.25179
 20
32.153267
 30
0.0
 11
106.25179
 21
38.528267
 31
0.0
 12
-4.924547
 22
-0.984518
 32
0.0
 13
114.23579
 23
44.903267
 33
0.0
 14
123.88579
 24
32.153267
 34
0.0
 50
90.0
  3
23NSTDI
  0
DIMENSION
  8
DIM
  2
*D25
 10
125.23579
 20
50.5335
 30
0.0
 11
119.73579
 21
50.5335
 31
0.0
 12
-4.924547
 22
-0.984518
 32
0.0
 13
114.23579
 23
44.903267
 33
0.0
 14
125.23579
 24
33.503267
 34
0.0
  3
23NSTDI
  0
POLYLINE
  8
OBJECT
 66
     1
 10
0.0
 20
0.0
 30
0.0
  0
VERTEX
  8
OBJECT
 10
114.31379
 20
35.060267
 30
0.0
 42
-0.360786
  0
VERTEX
  8
OBJECT
 10
114.00179
 20
35.372267
 30
0.0
  0
VERTEX
  8
OBJECT
 10
114.00179
 20
39.123267
 30
0.0
 42
-0.360786
  0
VERTEX
  8
OBJECT
 10
114.31379
 20
39.435267
 30
0.0
  0
SEQEND
  8
OBJECT
  0
CIRCLE
  8
OBJECT
 10
118.39179
 20
40.075267
 30
0.0
 40
0.156
  0
CIRCLE
  8
OBJECT
 10
116.64179
 20
40.075267
 30
0.0
 40
0.156
  0
LINE
  8
OBJECT
 10
114.23579
 20
44.903267
 30
0.0
 11
115.67329
 21
44.903267
 31
0.0
  0
LINE
  8
OBJECT
 10
114.23579
 20
43.435267
 30
0.0
 11
114.31379
 21
43.435267
 31
0.0
  0
LINE
  8
OBJECT
 10
114.23579
 20
44.903267
 30
0.0
 11
114.23579
 21
43.435267
 31
0.0
  0
LINE
  8
OBJECT
 10
114.39179
 20
44.325267
 30
0.0
 11
114.39179
 21
44.825267
 31
0.0
  0
CIRCLE
  8
OBJECT
 10
118.39179
 20
43.075267
 30
0.0
 40
0.156
  0
CIRCLE
  8
OBJECT
 10
115.57979
 20
45.136767
 30
0.0
 40
0.1715
  0
LINE
  8
OBJECT
 10
115.57979
 20
44.965267
 30
0.0
 11
115.57979
 21
44.965267
 31
0.0
  0
LINE
  8
OBJECT
 10
115.57979
 20
44.965267
 30
0.0
 11
115.67329
 21
44.965267
 31
0.0
  0
CIRCLE
  8
OBJECT
 10
115.57979
 20
45.136767
 30
0.0
 40
0.055
  0
LINE
  8
OBJECT
 10
115.67329
 20
44.825267
 30
0.0
 11
115.67329
 21
44.992996
 31
0.0
  0
LINE
  8
OBJECT
 10
115.75129
 20
44.825267
 30
0.0
 11
115.75129
 21
45.136767
 31
0.0
  0
LINE
  8
OBJECT
 10
115.67329
 20
44.903267
 30
0.0
 11
115.67329
 21
44.825267
 31
0.0
  0
CIRCLE
  8
OBJECT
 10
116.64179
 20
43.075267
 30
0.0
 40
0.156
  0
CIRCLE
  8
OBJECT
 10
133.82979
 20
40.075267
 30
0.0
 40
0.156
  0
CIRCLE
  8
OBJECT
 10
132.07979
 20
40.075267
 30
0.0
 40
0.156
  0
LINE
  8
OBJECT
 10
134.79829
 20
44.903267
 30
0.0
 11
134.79829
 21
44.825267
 31
0.0
  0
CIRCLE
  8
OBJECT
 10
133.82979
 20
43.075267
 30
0.0
 40
0.156
  0
CIRCLE
  8
OBJECT
 10
132.07979
 20
43.075267
 30
0.0
 40
0.156
  0
POLYLINE
  8
OBJECT
 66
     1
 10
0.0
 20
0.0
 30
0.0
  0
VERTEX
  8
OBJECT
 10
136.15779
 20
39.435267
 30
0.0
 42
-0.360786
  0
VERTEX
  8
OBJECT
 10
136.46979
 20
39.123267
 30
0.0
  0
VERTEX
  8
OBJECT
 10
136.46979
 20
35.372267
 30
0.0
 42
-0.360786
  0
VERTEX
  8
OBJECT
 10
136.15779
 20
35.060267
 30
0.0
  0
SEQEND
  8
OBJECT
  0
LINE
  8
OBJECT
 10
136.15779
 20
43.435267
 30
0.0
 11
136.23579
 21
43.435267
 31
0.0
  0
LINE
  8
OBJECT
 10
136.23579
 20
44.903267
 30
0.0
 11
136.23579
 21
43.435267
 31
0.0
  0
LINE
  8
OBJECT
 10
136.07979
 20
44.325267
 30
0.0
 11
136.07979
 21
44.825267
 31
0.0
  0
LINE
  8
OBJECT
 10
115.67329
 20
140.935691
 30
0.0
 11
115.67329
 21
81.666575
 31
0.0
  0
LINE
  8
PLEXIGLASS
 10
133.40729
 20
145.426383
 30
0.0
 11
134.68829
 21
146.707383
 31
0.0
  0
LINE
  8
PLEXIGLASS
 10
117.03129
 20
145.426383
 30
0.0
 11
115.75029
 21
146.707383
 31
0.0
  0
POLYLINE
  8
HIDDEN
 66
     1
 10
0.0
 20
0.0
 30
0.0
  0
VERTEX
  8
HIDDEN
 10
134.79929
 20
145.519383
 30
0.0
  0
VERTEX
  8
HIDDEN
 10
134.12729
 20
145.519383
 30
0.0
  0
VERTEX
  8
HIDDEN
 10
134.12729
 20
146.769383
 30
0.0
  0
SEQEND
  8
HIDDEN
  0
INSERT
  8
PLEXIGLASS
  2
*X4
 10
122.516597
 20
79.88527
 30
0.0
 41
0.75
 42
0.75
 43
0.75
1001
ACAD
1000
HATCH
1002
{
1070
    16
1000
ANSI31
1040
8.0
1040
0.523599
1002
}
  0
LINE
  8
PLEXIGLASS
 10
117.03129
 20
78.050383
 30
0.0
 11
115.75029
 21
76.769383
 31
0.0
  0
LINE
  8
PLEXIGLASS
 10
133.40729
 20
78.050383
 30
0.0
 11
134.68829
 21
76.769383
 31
0.0
  0
CIRCLE
  8
HIDDEN
 10
134.50229
 20
77.332383
 30
0.0
 40
0.234
  0
POLYLINE
  8
HIDDEN
 66
     1
 10
0.0
 20
0.0
 30
0.0
  0
VERTEX
  8
HIDDEN
 10
134.79929
 20
77.957383
 30
0.0
  0
VERTEX
  8
HIDDEN
 10
134.12729
 20
77.957383
 30
0.0
  0
VERTEX
  8
HIDDEN
 10
134.12729
 20
76.707383
 30
0.0
  0
SEQEND
  8
HIDDEN
  0
INSERT
  8
PLEXIGLASS
  2
*X4
 10
122.516597
 20
129.299355
 30
0.0
 41
0.75
 42
0.75
 43
0.75
1001
ACAD
1000
HATCH
1002
{
1070
    16
1000
ANSI31
1040
8.0
1040
0.523599
1002
}
  0
CIRCLE
  8
HIDDEN
 10
134.50229
 20
146.144383
 30
0.0
 40
0.234
  0
POLYLINE
  8
PLEXIGLASS
 66
     1
 10
0.0
 20
0.0
 30
0.0
  0
VERTEX
  8
PLEXIGLASS
 10
116.87529
 20
120.366487
 30
0.0
  0
VERTEX
  8
PLEXIGLASS
 10
116.87529
 20
145.582383
 30
0.0
  0
VERTEX
  8
PLEXIGLASS
 10
133.56329
 20
145.582383
 30
0.0
  0
VERTEX
  8
PLEXIGLASS
 10
133.56329
 20
131.704877
 30
0.0
  0
SEQEND
  8
PLEXIGLASS
  0
POLYLINE
  8
PLEXIGLASS
 66
     1
 10
0.0
 20
0.0
 30
0.0
  0
VERTEX
  8
PLEXIGLASS
 10
133.40729
 20
103.167682
 30
0.0
  0
VERTEX
  8
PLEXIGLASS
 10
133.40729
 20
78.050383
 30
0.0
  0
VERTEX
  8
PLEXIGLASS
 10
117.03129
 20
78.050383
 30
0.0
  0
VERTEX
  8
PLEXIGLASS
 10
117.03129
 20
91.983581
 30
0.0
  0
SEQEND
  8
PLEXIGLASS
  0
POLYLINE
  8
PLEXIGLASS
 66
     1
 10
0.0
 20
0.0
 30
0.0
  0
VERTEX
  8
PLEXIGLASS
 10
134.68829
 20
104.091818
 30
0.0
  0
VERTEX
  8
PLEXIGLASS
 10
134.68829
 20
76.769383
 30
0.0
  0
VERTEX
  8
PLEXIGLASS
 10
115.75029
 20
76.769383
 30
0.0
  0
VERTEX
  8
PLEXIGLASS
 10
115.75029
 20
91.711976
 30
0.0
  0
SEQEND
  8
PLEXIGLASS
  0
POLYLINE
  8
PLEXIGLASS
 66
     1
 10
0.0
 20
0.0
 30
0.0
  0
VERTEX
  8
PLEXIGLASS
 10
133.56329
 20
103.287849
 30
0.0
  0
VERTEX
  8
PLEXIGLASS
 10
133.56329
 20
77.894383
 30
0.0
  0
VERTEX
  8
PLEXIGLASS
 10
116.87529
 20
77.894383
 30
0.0
  0
VERTEX
  8
PLEXIGLASS
 10
116.87529
 20
91.949459
 30
0.0
  0
SEQEND
  8
PLEXIGLASS
  0
POLYLINE
  8
PLEXIGLASS
 66
     1
 10
0.0
 20
0.0
 30
0.0
  0
VERTEX
  8
PLEXIGLASS
 10
117.03129
 20
120.400609
 30
0.0
  0
VERTEX
  8
PLEXIGLASS
 10
117.03129
 20
145.426383
 30
0.0
  0
VERTEX
  8
PLEXIGLASS
 10
133.40729
 20
145.426383
 30
0.0
  0
VERTEX
  8
PLEXIGLASS
 10
133.40729
 20
131.58471
 30
0.0
  0
SEQEND
  8
PLEXIGLASS
  0
POLYLINE
  8
PLEXIGLASS
 66
     1
 10
0.0
 20
0.0
 30
0.0
  0
VERTEX
  8
PLEXIGLASS
 10
115.75029
 20
120.129004
 30
0.0
  0
VERTEX
  8
PLEXIGLASS
 10
115.75029
 20
146.707383
 30
0.0
  0
VERTEX
  8
PLEXIGLASS
 10
134.68829
 20
146.707383
 30
0.0
  0
VERTEX
  8
PLEXIGLASS
 10
134.68829
 20
132.508846
 30
0.0
  0
SEQEND
  8
PLEXIGLASS
  0
CIRCLE
  8
HIDDEN
 10
44.659039
 20
78.316901
 30
0.0
 40
0.234
  0
POLYLINE
  8
HIDDEN
 66
     1
 10
0.0
 20
0.0
 30
0.0
  0
VERTEX
  8
HIDDEN
 10
44.956039
 20
78.941901
 30
0.0
  0
VERTEX
  8
HIDDEN
 10
44.284039
 20
78.941901
 30
0.0
  0
VERTEX
  8
HIDDEN
 10
44.284039
 20
77.691901
 30
0.0
  0
SEQEND
  8
HIDDEN
  0
POLYLINE
  8
HIDDEN
 66
     1
 10
0.0
 20
0.0
 30
0.0
  0
VERTEX
  8
HIDDEN
 10
44.956039
 20
146.503901
 30
0.0
  0
VERTEX
  8
HIDDEN
 10
44.284039
 20
146.503901
 30
0.0
  0
VERTEX
  8
HIDDEN
 10
44.284039
 20
147.753901
 30
0.0
  0
SEQEND
  8
HIDDEN
  0
CIRCLE
  8
HIDDEN
 10
44.659039
 20
147.128901
 30
0.0
 40
0.234
  0
POLYLINE
  8
OBJECT
 66
     1
 10
0.0
 20
0.0
 30
0.0
 70
     1
  0
VERTEX
  8
OBJECT
 10
76.331933
 20
112.191401
 30
0.0
  0
VERTEX
  8
OBJECT
 10
76.331933
 20
113.254401
 30
0.0
  0
VERTEX
  8
OBJECT
 10
76.644933
 20
113.254401
 30
0.0
  0
VERTEX
  8
OBJECT
 10
76.644933
 20
112.191401
 30
0.0
  0
SEQEND
  8
OBJECT
  0
POLYLINE
  8
OBJECT
 66
     1
 10
0.0
 20
0.0
 30
0.0
 70
     1
  0
VERTEX
  8
OBJECT
 10
78.081933
 20
112.191401
 30
0.0
  0
VERTEX
  8
OBJECT
 10
78.081933
 20
113.254401
 30
0.0
  0
VERTEX
  8
OBJECT
 10
78.394933
 20
113.254401
 30
0.0
  0
VERTEX
  8
OBJECT
 10
78.394933
 20
112.191401
 30
0.0
  0
SEQEND
  8
OBJECT
  0
POLYLINE
  8
OBJECT
 66
     1
 10
0.0
 20
0.0
 30
0.0
 70
     1
  0
VERTEX
  8
OBJECT
 10
79.831933
 20
112.191401
 30
0.0
  0
VERTEX
  8
OBJECT
 10
79.831933
 20
113.254401
 30
0.0
  0
VERTEX
  8
OBJECT
 10
80.144933
 20
113.254401
 30
0.0
  0
VERTEX
  8
OBJECT
 10
80.144933
 20
112.191401
 30
0.0
  0
SEQEND
  8
OBJECT
  0
POLYLINE
  8
OBJECT
 66
     1
 10
0.0
 20
0.0
 30
0.0
 70
     1
  0
VERTEX
  8
OBJECT
 10
79.831933
 20
80.285401
 30
0.0
  0
VERTEX
  8
OBJECT
 10
79.831933
 20
81.348401
 30
0.0
  0
VERTEX
  8
OBJECT
 10
80.144933
 20
81.348401
 30
0.0
  0
VERTEX
  8
OBJECT
 10
80.144933
 20
80.285401
 30
0.0
  0
SEQEND
  8
OBJECT
  0
POLYLINE
  8
OBJECT
 66
     1
 10
0.0
 20
0.0
 30
0.0
 70
     1
  0
VERTEX
  8
OBJECT
 10
76.331933
 20
80.285401
 30
0.0
  0
VERTEX
  8
OBJECT
 10
76.331933
 20
81.348401
 30
0.0
  0
VERTEX
  8
OBJECT
 10
76.644933
 20
81.348401
 30
0.0
  0
VERTEX
  8
OBJECT
 10
76.644933
 20
80.285401
 30
0.0
  0
SEQEND
  8
OBJECT
  0
POLYLINE
  8
OBJECT
 66
     1
 10
0.0
 20
0.0
 30
0.0
 70
     1
  0
VERTEX
  8
OBJECT
 10
78.081933
 20
80.285401
 30
0.0
  0
VERTEX
  8
OBJECT
 10
78.081933
 20
81.348401
 30
0.0
  0
VERTEX
  8
OBJECT
 10
78.394933
 20
81.348401
 30
0.0
  0
VERTEX
  8
OBJECT
 10
78.394933
 20
80.285401
 30
0.0
  0
SEQEND
  8
OBJECT
  0
TEXT
  8
TEXT
 10
4.467605
 20
205.849626
 30
0.0
 40
2.0
  1
PLEXIGLAS PANEL
 41
0.75
  0
TEXT
  8
TEXT
 10
52.865045
 20
205.849626
 30
0.0
 40
2.0
  1
3/16" THICK
 41
0.75
  0
LINE
  8
TEXT
 10
27.359125
 20
205.928539
 30
0.0
 11
51.890929
 21
205.928539
 31
0.0
  0
POLYLINE
  8
OBJECT
 66
     1
 10
0.0
 20
0.0
 30
0.0
  0
VERTEX
  8
OBJECT
 10
120.45529
 20
27.372767
 30
0.0
  0
VERTEX
  8
OBJECT
 10
130.01629
 20
27.372767
 30
0.0
  0
VERTEX
  8
OBJECT
 10
130.01629
 20
36.933767
 30
0.0
  0
VERTEX
  8
OBJECT
 10
120.45529
 20
36.933767
 30
0.0
  0
VERTEX
  8
OBJECT
 10
120.45529
 20
27.372767
 30
0.0
  0
SEQEND
  8
OBJECT
  0
CIRCLE
  8
OBJECT
 10
134.48579
 20
173.95655
 30
0.0
 40
0.058
  0
CIRCLE
  8
OBJECT
 10
132.73579
 20
175.70655
 30
0.0
 40
2.031
  0
CIRCLE
  8
OBJECT
 10
130.98579
 20
177.45655
 30
0.0
 40
0.058
  0
CIRCLE
  8
OBJECT
 10
117.73579
 20
175.70655
 30
0.0
 40
2.031
  0
CIRCLE
  8
OBJECT
 10
119.48579
 20
177.45655
 30
0.0
 40
0.058
  0
CIRCLE
  8
OBJECT
 10
115.98579
 20
173.95655
 30
0.0
 40
0.058
  0
CIRCLE
  8
OBJECT
 10
132.73579
 20
194.20655
 30
0.0
 40
2.031
  0
CIRCLE
  8
OBJECT
 10
117.73579
 20
194.20655
 30
0.0
 40
2.031
  0
CIRCLE
  8
OBJECT
 10
115.98579
 20
195.95655
 30
0.0
 40
0.058
  0
CIRCLE
  8
OBJECT
 10
119.48579
 20
192.45655
 30
0.0
 40
0.058
  0
CIRCLE
  8
OBJECT
 10
130.98579
 20
192.45655
 30
0.0
 40
0.058
  0
CIRCLE
  8
OBJECT
 10
134.48579
 20
195.95655
 30
0.0
 40
0.058
  0
DIMENSION
  8
DIM
  2
*D35
 10
146.702516
 20
172.20655
 30
0.0
 11
146.702516
 21
173.95655
 31
0.0
  1
<> TYP.
 13
132.73579
 23
175.70655
 33
0.0
 14
136.23579
 24
172.20655
 34
0.0
 50
90.0
  3
23NSTDI
  0
DIMENSION
  8
DIM
  2
*D34
 10
132.73579
 20
168.052053
 30
0.0
 11
119.53579
 21
168.052053
 31
0.0
  1
<> TYP.
 13
136.23579
 23
172.20655
 33
0.0
 14
132.73579
 24
175.70655
 34
0.0
  3
23NSTD
  0
POLYLINE
  8
DIM
 66
     1
 10
0.0
 20
0.0
 30
0.0
 41
1.08
  0
VERTEX
  8
DIM
 10
115.783823
 20
176.282758
 30
0.0
  0
VERTEX
  8
DIM
 10
113.104851
 20
177.339881
 30
0.0
 41
0.0
  0
VERTEX
  8
DIM
 10
110.614358
 20
178.32263
 30
0.0
 41
0.0
  0
VERTEX
  8
DIM
 10
107.734358
 20
178.32263
 30
0.0
 41
0.0
  0
SEQEND
  8
DIM
  0
TEXT
  8
DIM
 10
94.544358
 20
177.32263
 30
0.0
 40
2.0
  1
4.062 DIA.
 41
0.75
 72
     2
 11
106.294358
 21
178.32263
 31
0.0
 73
     2
  0
TEXT
  8
DIM
 10
94.294358
 20
173.989297
 30
0.0
 40
2.0
  1
(4) HOLES
 41
0.75
 72
     2
 11
106.294358
 21
174.989297
 31
0.0
 73
     2
  0
LINE
  8
OBJECT
 10
61.446615
 20
180.796887
 30
0.0
 11
65.946615
 21
180.796887
 31
0.0
  0
LINE
  8
OBJECT
 10
65.946615
 20
180.796887
 30
0.0
 11
65.946615
 21
185.296887
 31
0.0
  0
LINE
  8
OBJECT
 10
65.946615
 20
185.296887
 30
0.0
 11
61.446615
 21
185.296887
 31
0.0
  0
LINE
  8
OBJECT
 10
61.446615
 20
185.296887
 30
0.0
 11
61.446615
 21
180.796887
 31
0.0
  0
CIRCLE
  8
OBJECT
 10
61.946615
 20
184.796887
 30
0.0
 40
0.094
  0
CIRCLE
  8
OBJECT
 10
65.446615
 20
181.296887
 30
0.0
 40
0.094
  0
DIMENSION
  8
DIM
  2
*D37
 10
72.090483
 20
180.796887
 30
0.0
 11
72.090483
 21
183.046887
 31
0.0
 12
12.997832
 22
-3.46489
 32
0.0
 13
65.946615
 23
185.296887
 33
0.0
 14
65.946615
 24
180.796887
 34
0.0
 50
90.0
  3
23NSTDI
  0
DIMENSION
  8
DIM
  2
*D36
 10
61.446615
 20
192.305881
 30
0.0
 11
51.496615
 21
192.305881
 31
0.0
 12
12.997832
 22
-3.46489
 32
0.0
 13
65.946615
 23
185.296887
 33
0.0
 14
61.446615
 24
185.296887
 34
0.0
  3
23NSTD
  0
TEXT
  8
TEXT
 10
60.605781
 20
174.655923
 30
0.0
 40
2.0
  1
%%UPLATE
 41
0.75
 72
     1
 11
64.130781
 21
174.655923
 31
0.0
  0
LINE
  8
TEXT
 10
130.838547
 20
229.151627
 30
0.0
 11
126.172313
 21
229.151627
 31
0.0
  0
TEXT
  8
TEXT
 10
131.682773
 20
229.151627
 30
0.0
 40
2.0
  1
WHITE TEXTURE
 41
0.75
  0
TEXT
  8
TEXT
 10
4.467605
 20
172.569626
 30
0.0
 40
2.0
  1
LOAD RATING: 1200 LBS. MAX.
 41
0.75
  0
ENDSEC
  0
EOF
