  0
SECTION
  2
HEADER
  9
$ACADVER
  1
AC1009
  9
$INSBASE
 10
0.0
 20
0.0
 30
0.0
  9
$EXTMIN
 10
0.0
 20
0.0
 30
0.0
  9
$EXTMAX
 10
161.92
 20
248.0
 30
0.0
  9
$LIMMIN
 10
0.0
 20
0.0
  9
$LIMMAX
 10
161.92
 20
248.0
  9
$ORTHOMODE
 70
     1
  9
$REGENMODE
 70
     1
  9
$FILLMODE
 70
     1
  9
$QTEXTMODE
 70
     0
  9
$MIRRTEXT
 70
     0
  9
$DRAGMODE
 70
     2
  9
$LTSCALE
 40
4.0
  9
$OSMODE
 70
    65
  9
$ATTMODE
 70
     1
  9
$TEXTSIZE
 40
2.0
  9
$TRACEWID
 40
0.05
  9
$TEXTSTYLE
  7
TXT
  9
$CLAYER
  8
OBJECT
  9
$CELTYPE
  6
BYLAYER
  9
$CECOLOR
 62
   256
  9
$DIMSCALE
 40
16.0
  9
$DIMASZ
 40
0.18
  9
$DIMEXO
 40
0.063
  9
$DIMDLI
 40
0.25
  9
$DIMRND
 40
0.0
  9
$DIMDLE
 40
0.0
  9
$DIMEXE
 40
0.093
  9
$DIMTP
 40
0.0
  9
$DIMTM
 40
0.0
  9
$DIMTXT
 40
0.125
  9
$DIMCEN
 40
0.09
  9
$DIMTSZ
 40
0.0
  9
$DIMTOL
 70
     0
  9
$DIMLIM
 70
     0
  9
$DIMTIH
 70
     1
  9
$DIMTOH
 70
     1
  9
$DIMSE1
 70
     0
  9
$DIMSE2
 70
     0
  9
$DIMTAD
 70
     0
  9
$DIMZIN
 70
     0
  9
$DIMBLK
  1

  9
$DIMASO
 70
     1
  9
$DIMSHO
 70
     1
  9
$DIMPOST
  1

  9
$DIMAPOST
  1

  9
$DIMALT
 70
     0
  9
$DIMALTD
 70
     2
  9
$DIMALTF
 40
25.4
  9
$DIMLFAC
 40
1.0
  9
$DIMTOFL
 70
     0
  9
$DIMTVP
 40
0.0
  9
$DIMTIX
 70
     0
  9
$DIMSOXD
 70
     0
  9
$DIMSAH
 70
     0
  9
$DIMBLK1
  1

  9
$DIMBLK2
  1

  9
$DIMSTYLE
  2
23NSTD
  9
$DIMCLRD
 70
     0
  9
$DIMCLRE
 70
     0
  9
$DIMCLRT
 70
     0
  9
$DIMTFAC
 40
1.0
  9
$DIMGAP
 40
0.09
  9
$LUNITS
 70
     2
  9
$LUPREC
 70
     3
  9
$SKETCHINC
 40
0.1
  9
$FILLETRAD
 40
0.0
  9
$AUNITS
 70
     0
  9
$AUPREC
 70
     0
  9
$MENU
  1
acad
  9
$ELEVATION
 40
0.0
  9
$PELEVATION
 40
0.0
  9
$THICKNESS
 40
0.0
  9
$LIMCHECK
 70
     0
  9
$BLIPMODE
 70
     1
  9
$CHAMFERA
 40
0.0
  9
$CHAMFERB
 40
0.0
  9
$SKPOLY
 70
     0
  9
$TDCREATE
 40
2451320.395162152
  9
$TDUPDATE
 40
2451320.396907175
  9
$TDINDWG
 40
0.0016853009
  9
$TDUSRTIMER
 40
0.0016853009
  9
$USRTIMER
 70
     1
  9
$ANGBASE
 50
0.0
  9
$ANGDIR
 70
     0
  9
$PDMODE
 70
     0
  9
$PDSIZE
 40
0.0
  9
$PLINEWID
 40
0.0
  9
$COORDS
 70
     0
  9
$SPLFRAME
 70
     0
  9
$SPLINETYPE
 70
     6
  9
$SPLINESEGS
 70
     8
  9
$ATTDIA
 70
     0
  9
$ATTREQ
 70
     1
  9
$HANDLING
 70
     0
  9
$HANDSEED
  5
0
  9
$SURFTAB1
 70
     6
  9
$SURFTAB2
 70
     6
  9
$SURFTYPE
 70
     6
  9
$SURFU
 70
     6
  9
$SURFV
 70
     6
  9
$UCSNAME
  2

  9
$UCSORG
 10
0.0
 20
0.0
 30
0.0
  9
$UCSXDIR
 10
1.0
 20
0.0
 30
0.0
  9
$UCSYDIR
 10
0.0
 20
1.0
 30
0.0
  9
$PUCSNAME
  2

  9
$PUCSORG
 10
0.0
 20
0.0
 30
0.0
  9
$PUCSXDIR
 10
1.0
 20
0.0
 30
0.0
  9
$PUCSYDIR
 10
0.0
 20
1.0
 30
0.0
  9
$USERI1
 70
     0
  9
$USERI2
 70
     0
  9
$USERI3
 70
     0
  9
$USERI4
 70
     0
  9
$USERI5
 70
     0
  9
$USERR1
 40
0.0
  9
$USERR2
 40
0.0
  9
$USERR3
 40
0.0
  9
$USERR4
 40
0.0
  9
$USERR5
 40
0.0
  9
$WORLDVIEW
 70
     1
  9
$SHADEDGE
 70
     3
  9
$SHADEDIF
 70
    70
  9
$TILEMODE
 70
     1
  9
$MAXACTVP
 70
    16
  9
$PINSBASE
 10
0.0
 20
0.0
 30
0.0
  9
$PLIMCHECK
 70
     0
  9
$PEXTMIN
 10
1.000000E+20
 20
1.000000E+20
 30
1.000000E+20
  9
$PEXTMAX
 10
-1.000000E+20
 20
-1.000000E+20
 30
-1.000000E+20
  9
$PLIMMIN
 10
0.0
 20
0.0
  9
$PLIMMAX
 10
12.0
 20
9.0
  9
$UNITMODE
 70
     0
  9
$VISRETAIN
 70
     0
  9
$PLINEGEN
 70
     0
  9
$PSLTSCALE
 70
     0
  9
$TREEDEPTH
 70
  3020
  9
$DWGCODEPAGE
  3
undefined
  0
ENDSEC
  0
SECTION
  2
TABLES
  0
TABLE
  2
VPORT
 70
     2
  0
VPORT
  2
*ACTIVE
 70
     0
 10
0.0
 20
0.0
 11
1.0
 21
1.0
 12
168.9301
 22
124.0
 13
0.0
 23
0.0
 14
1.0
 24
1.0
 15
2.0
 25
2.0
 16
0.0
 26
0.0
 36
1.0
 17
0.0
 27
0.0
 37
0.0
 40
248.0
 41
1.36234
 42
50.0
 43
0.0
 44
0.0
 50
0.0
 51
0.0
 71
     0
 72
   100
 73
     1
 74
     0
 75
     0
 76
     0
 77
     0
 78
     0
  0
ENDTAB
  0
TABLE
  2
LTYPE
 70
     4
  0
LTYPE
  2
CONTINUOUS
 70
    64
  3
Solid line
 72
    65
 73
     0
 40
0.0
  0
LTYPE
  2
HIDDEN
 70
    64
  3
_ _ _ _ _ _ _ _ _ _ _ _ _ _ _ _ _ _ _ _ _ _ _
 72
    65
 73
     2
 40
0.375
 49
0.25
 49
-0.125
  0
LTYPE
  2
CENTER
 70
    64
  3
____ _ ____ _ ____ _ ____ _ ____ _ ____ _ ____
 72
    65
 73
     4
 40
2.0
 49
1.25
 49
-0.25
 49
0.25
 49
-0.25
  0
LTYPE
  2
PHANTOM
 70
    64
  3
_____ _ _ _____ _ _ _____ _ _ _____ _ _ ____
 72
    65
 73
     6
 40
2.5
 49
1.25
 49
-0.25
 49
0.25
 49
-0.25
 49
0.25
 49
-0.25
  0
ENDTAB
  0
TABLE
  2
LAYER
 70
    11
  0
LAYER
  2
0
 70
    64
 62
     7
  6
CONTINUOUS
  0
LAYER
  2
OBJECT
 70
    64
 62
     7
  6
CONTINUOUS
  0
LAYER
  2
DIM
 70
    64
 62
     7
  6
CONTINUOUS
  0
LAYER
  2
HIDDEN
 70
    64
 62
     7
  6
HIDDEN
  0
LAYER
  2
TEXT
 70
    64
 62
     7
  6
CONTINUOUS
  0
LAYER
  2
TITLE
 70
    64
 62
     7
  6
CONTINUOUS
  0
LAYER
  2
CENTER
 70
    64
 62
     7
  6
CENTER
  0
LAYER
  2
DEFPOINTS
 70
    64
 62
     7
  6
CONTINUOUS
  0
LAYER
  2
PMR
 70
    64
 62
     7
  6
CONTINUOUS
  0
LAYER
  2
BEND
 70
    64
 62
     7
  6
PHANTOM
  0
LAYER
  2
PLEXIGLASS
 70
    64
 62
     7
  6
CONTINUOUS
  0
ENDTAB
  0
TABLE
  2
STYLE
 70
     1
  0
STYLE
  2
TXT
 70
    64
 40
0.0
 41
0.75
 50
0.0
 71
     0
 42
2.0
  3
TXT.shx
  4

  0
ENDTAB
  0
TABLE
  2
VIEW
 70
     0
  0
ENDTAB
  0
TABLE
  2
UCS
 70
     0
  0
ENDTAB
  0
TABLE
  2
APPID
 70
     1
  0
APPID
  2
ACAD
 70
    64
  0
ENDTAB
  0
TABLE
  2
DIMSTYLE
 70
     2
  0
DIMSTYLE
  2
23NSTD
 70
    64
  3

  4

  5

  6

  7

 40
16.0
 41
0.18
 42
0.063
 43
0.25
 44
0.093
 45
0.0
 46
0.0
 47
0.0
 48
0.0
140
0.125
141
0.09
142
0.0
143
25.4
144
1.0
145
0.0
146
1.0
147
0.09
 71
     0
 72
     0
 73
     1
 74
     1
 75
     0
 76
     0
 77
     0
 78
     0
170
     0
171
     2
172
     0
173
     0
174
     0
175
     0
176
     0
177
     0
178
     0
  0
DIMSTYLE
  2
23NSTDI
 70
    64
  3

  4

  5

  6

  7

 40
16.0
 41
0.18
 42
0.063
 43
0.25
 44
0.093
 45
0.0
 46
0.0
 47
0.0
 48
0.0
140
0.125
141
0.09
142
0.0
143
25.4
144
1.0
145
0.0
146
1.0
147
0.09
 71
     0
 72
     0
 73
     1
 74
     1
 75
     0
 76
     0
 77
     0
 78
     0
170
     0
171
     2
172
     0
173
     0
174
     1
175
     0
176
     0
177
     0
178
     0
  0
ENDTAB
  0
ENDSEC
  0
SECTION
  2
BLOCKS
  0
BLOCK
  8
0
  2
L15
 70
    64
 10
0.0
 20
0.0
 30
0.0
  3
L15
  0
LINE
  8
OBJECT
 10
-2.1875
 20
-10.625
 30
0.0
 11
2.1875
 21
-10.625
 31
0.0
  0
LINE
  8
OBJECT
 10
2.1875
 20
-10.625
 30
0.0
 11
2.1875
 21
-10.5
 31
0.0
  0
LINE
  8
OBJECT
 10
1.6875
 20
-10.0
 30
0.0
 11
-1.6875
 21
-10.0
 31
0.0
  0
LINE
  8
OBJECT
 10
-2.1875
 20
-10.5
 30
0.0
 11
-2.1875
 21
-10.625
 31
0.0
  0
ARC
  8
OBJECT
 10
-1.6875
 20
-10.5
 30
0.0
 40
0.5
 50
90.0
 51
180.0
  0
ARC
  8
OBJECT
 10
1.6875
 20
-10.5
 30
0.0
 40
0.5
 50
0.0
 51
90.0
  0
ARC
  8
OBJECT
 10
1.6875
 20
-11.5
 30
0.0
 40
0.5
 50
0.0
 51
90.0
  0
ARC
  8
OBJECT
 10
-1.6875
 20
-11.5
 30
0.0
 40
0.5
 50
90.0
 51
180.0
  0
LINE
  8
OBJECT
 10
-2.1875
 20
-11.5
 30
0.0
 11
-2.1875
 21
-11.625
 31
0.0
  0
LINE
  8
OBJECT
 10
1.6875
 20
-11.0
 30
0.0
 11
-1.6875
 21
-11.0
 31
0.0
  0
LINE
  8
OBJECT
 10
2.1875
 20
-11.625
 30
0.0
 11
2.1875
 21
-11.5
 31
0.0
  0
LINE
  8
OBJECT
 10
-2.1875
 20
-11.625
 30
0.0
 11
2.1875
 21
-11.625
 31
0.0
  0
ARC
  8
OBJECT
 10
1.6875
 20
-12.5
 30
0.0
 40
0.5
 50
0.0
 51
90.0
  0
ARC
  8
OBJECT
 10
-1.6875
 20
-12.5
 30
0.0
 40
0.5
 50
90.0
 51
180.0
  0
LINE
  8
OBJECT
 10
-2.1875
 20
-12.5
 30
0.0
 11
-2.1875
 21
-12.625
 31
0.0
  0
LINE
  8
OBJECT
 10
1.6875
 20
-12.0
 30
0.0
 11
-1.6875
 21
-12.0
 31
0.0
  0
LINE
  8
OBJECT
 10
2.1875
 20
-12.625
 30
0.0
 11
2.1875
 21
-12.5
 31
0.0
  0
LINE
  8
OBJECT
 10
-2.1875
 20
-12.625
 30
0.0
 11
2.1875
 21
-12.625
 31
0.0
  0
ARC
  8
OBJECT
 10
1.6875
 20
-13.5
 30
0.0
 40
0.5
 50
0.0
 51
90.0
  0
ARC
  8
OBJECT
 10
-1.6875
 20
-13.5
 30
0.0
 40
0.5
 50
90.0
 51
180.0
  0
LINE
  8
OBJECT
 10
-2.1875
 20
-13.5
 30
0.0
 11
-2.1875
 21
-13.625
 31
0.0
  0
LINE
  8
OBJECT
 10
1.6875
 20
-13.0
 30
0.0
 11
-1.6875
 21
-13.0
 31
0.0
  0
LINE
  8
OBJECT
 10
2.1875
 20
-13.625
 30
0.0
 11
2.1875
 21
-13.5
 31
0.0
  0
LINE
  8
OBJECT
 10
-2.1875
 20
-13.625
 30
0.0
 11
2.1875
 21
-13.625
 31
0.0
  0
ARC
  8
OBJECT
 10
1.6875
 20
-14.5
 30
0.0
 40
0.5
 50
0.0
 51
90.0
  0
ARC
  8
OBJECT
 10
-1.6875
 20
-14.5
 30
0.0
 40
0.5
 50
90.0
 51
180.0
  0
LINE
  8
OBJECT
 10
-2.1875
 20
-14.5
 30
0.0
 11
-2.1875
 21
-14.625
 31
0.0
  0
LINE
  8
OBJECT
 10
1.6875
 20
-14.0
 30
0.0
 11
-1.6875
 21
-14.0
 31
0.0
  0
LINE
  8
OBJECT
 10
2.1875
 20
-14.625
 30
0.0
 11
2.1875
 21
-14.5
 31
0.0
  0
LINE
  8
OBJECT
 10
-2.1875
 20
-14.625
 30
0.0
 11
2.1875
 21
-14.625
 31
0.0
  0
LINE
  8
OBJECT
 10
-2.1875
 20
-5.625
 30
0.0
 11
2.1875
 21
-5.625
 31
0.0
  0
LINE
  8
OBJECT
 10
2.1875
 20
-5.625
 30
0.0
 11
2.1875
 21
-5.5
 31
0.0
  0
LINE
  8
OBJECT
 10
1.6875
 20
-5.0
 30
0.0
 11
-1.6875
 21
-5.0
 31
0.0
  0
LINE
  8
OBJECT
 10
-2.1875
 20
-5.5
 30
0.0
 11
-2.1875
 21
-5.625
 31
0.0
  0
ARC
  8
OBJECT
 10
-1.6875
 20
-5.5
 30
0.0
 40
0.5
 50
90.0
 51
180.0
  0
ARC
  8
OBJECT
 10
1.6875
 20
-5.5
 30
0.0
 40
0.5
 50
0.0
 51
90.0
  0
ARC
  8
OBJECT
 10
1.6875
 20
-6.5
 30
0.0
 40
0.5
 50
0.0
 51
90.0
  0
ARC
  8
OBJECT
 10
-1.6875
 20
-6.5
 30
0.0
 40
0.5
 50
90.0
 51
180.0
  0
LINE
  8
OBJECT
 10
-2.1875
 20
-6.5
 30
0.0
 11
-2.1875
 21
-6.625
 31
0.0
  0
LINE
  8
OBJECT
 10
1.6875
 20
-6.0
 30
0.0
 11
-1.6875
 21
-6.0
 31
0.0
  0
LINE
  8
OBJECT
 10
2.1875
 20
-6.625
 30
0.0
 11
2.1875
 21
-6.5
 31
0.0
  0
LINE
  8
OBJECT
 10
-2.1875
 20
-6.625
 30
0.0
 11
2.1875
 21
-6.625
 31
0.0
  0
ARC
  8
OBJECT
 10
1.6875
 20
-7.5
 30
0.0
 40
0.5
 50
0.0
 51
90.0
  0
ARC
  8
OBJECT
 10
-1.6875
 20
-7.5
 30
0.0
 40
0.5
 50
90.0
 51
180.0
  0
LINE
  8
OBJECT
 10
-2.1875
 20
-7.5
 30
0.0
 11
-2.1875
 21
-7.625
 31
0.0
  0
LINE
  8
OBJECT
 10
1.6875
 20
-7.0
 30
0.0
 11
-1.6875
 21
-7.0
 31
0.0
  0
LINE
  8
OBJECT
 10
2.1875
 20
-7.625
 30
0.0
 11
2.1875
 21
-7.5
 31
0.0
  0
LINE
  8
OBJECT
 10
-2.1875
 20
-7.625
 30
0.0
 11
2.1875
 21
-7.625
 31
0.0
  0
ARC
  8
OBJECT
 10
1.6875
 20
-8.5
 30
0.0
 40
0.5
 50
0.0
 51
90.0
  0
ARC
  8
OBJECT
 10
-1.6875
 20
-8.5
 30
0.0
 40
0.5
 50
90.0
 51
180.0
  0
LINE
  8
OBJECT
 10
-2.1875
 20
-8.5
 30
0.0
 11
-2.1875
 21
-8.625
 31
0.0
  0
LINE
  8
OBJECT
 10
1.6875
 20
-8.0
 30
0.0
 11
-1.6875
 21
-8.0
 31
0.0
  0
LINE
  8
OBJECT
 10
2.1875
 20
-8.625
 30
0.0
 11
2.1875
 21
-8.5
 31
0.0
  0
LINE
  8
OBJECT
 10
-2.1875
 20
-8.625
 30
0.0
 11
2.1875
 21
-8.625
 31
0.0
  0
ARC
  8
OBJECT
 10
1.6875
 20
-9.5
 30
0.0
 40
0.5
 50
0.0
 51
90.0
  0
ARC
  8
OBJECT
 10
-1.6875
 20
-9.5
 30
0.0
 40
0.5
 50
90.0
 51
180.0
  0
LINE
  8
OBJECT
 10
-2.1875
 20
-9.5
 30
0.0
 11
-2.1875
 21
-9.625
 31
0.0
  0
LINE
  8
OBJECT
 10
1.6875
 20
-9.0
 30
0.0
 11
-1.6875
 21
-9.0
 31
0.0
  0
LINE
  8
OBJECT
 10
2.1875
 20
-9.625
 30
0.0
 11
2.1875
 21
-9.5
 31
0.0
  0
LINE
  8
OBJECT
 10
-2.1875
 20
-9.625
 30
0.0
 11
2.1875
 21
-9.625
 31
0.0
  0
LINE
  8
OBJECT
 10
-2.1875
 20
-4.625
 30
0.0
 11
2.1875
 21
-4.625
 31
0.0
  0
LINE
  8
OBJECT
 10
2.1875
 20
-4.625
 30
0.0
 11
2.1875
 21
-4.5
 31
0.0
  0
LINE
  8
OBJECT
 10
1.6875
 20
-4.0
 30
0.0
 11
-1.6875
 21
-4.0
 31
0.0
  0
LINE
  8
OBJECT
 10
-2.1875
 20
-4.5
 30
0.0
 11
-2.1875
 21
-4.625
 31
0.0
  0
ARC
  8
OBJECT
 10
-1.6875
 20
-4.5
 30
0.0
 40
0.5
 50
90.0
 51
180.0
  0
ARC
  8
OBJECT
 10
1.6875
 20
-4.5
 30
0.0
 40
0.5
 50
0.0
 51
90.0
  0
LINE
  8
OBJECT
 10
-2.1875
 20
-3.625
 30
0.0
 11
2.1875
 21
-3.625
 31
0.0
  0
LINE
  8
OBJECT
 10
2.1875
 20
-3.625
 30
0.0
 11
2.1875
 21
-3.5
 31
0.0
  0
LINE
  8
OBJECT
 10
1.6875
 20
-3.0
 30
0.0
 11
-1.6875
 21
-3.0
 31
0.0
  0
LINE
  8
OBJECT
 10
-2.1875
 20
-3.5
 30
0.0
 11
-2.1875
 21
-3.625
 31
0.0
  0
ARC
  8
OBJECT
 10
-1.6875
 20
-3.5
 30
0.0
 40
0.5
 50
90.0
 51
180.0
  0
ARC
  8
OBJECT
 10
1.6875
 20
-3.5
 30
0.0
 40
0.5
 50
0.0
 51
90.0
  0
LINE
  8
OBJECT
 10
-2.1875
 20
-2.625
 30
0.0
 11
2.1875
 21
-2.625
 31
0.0
  0
LINE
  8
OBJECT
 10
2.1875
 20
-2.625
 30
0.0
 11
2.1875
 21
-2.5
 31
0.0
  0
LINE
  8
OBJECT
 10
1.6875
 20
-2.0
 30
0.0
 11
-1.6875
 21
-2.0
 31
0.0
  0
LINE
  8
OBJECT
 10
-2.1875
 20
-2.5
 30
0.0
 11
-2.1875
 21
-2.625
 31
0.0
  0
ARC
  8
OBJECT
 10
-1.6875
 20
-2.5
 30
0.0
 40
0.5
 50
90.0
 51
180.0
  0
ARC
  8
OBJECT
 10
1.6875
 20
-2.5
 30
0.0
 40
0.5
 50
0.0
 51
90.0
  0
LINE
  8
OBJECT
 10
-2.1875
 20
-1.625
 30
0.0
 11
2.1875
 21
-1.625
 31
0.0
  0
LINE
  8
OBJECT
 10
2.1875
 20
-1.625
 30
0.0
 11
2.1875
 21
-1.5
 31
0.0
  0
LINE
  8
OBJECT
 10
1.6875
 20
-1.0
 30
0.0
 11
-1.6875
 21
-1.0
 31
0.0
  0
LINE
  8
OBJECT
 10
-2.1875
 20
-1.5
 30
0.0
 11
-2.1875
 21
-1.625
 31
0.0
  0
ARC
  8
OBJECT
 10
-1.6875
 20
-1.5
 30
0.0
 40
0.5
 50
90.0
 51
180.0
  0
ARC
  8
OBJECT
 10
1.6875
 20
-1.5
 30
0.0
 40
0.5
 50
0.0
 51
90.0
  0
ARC
  8
OBJECT
 10
1.6875
 20
-0.5
 30
0.0
 40
0.5
 50
0.0
 51
90.0
  0
ARC
  8
OBJECT
 10
-1.6875
 20
-0.5
 30
0.0
 40
0.5
 50
90.0
 51
180.0
  0
LINE
  8
OBJECT
 10
-2.1875
 20
-0.5
 30
0.0
 11
-2.1875
 21
-0.625
 31
0.0
  0
LINE
  8
OBJECT
 10
1.6875
 20
0.0
 30
0.0
 11
-1.6875
 21
0.0
 31
0.0
  0
LINE
  8
OBJECT
 10
2.1875
 20
-0.625
 30
0.0
 11
2.1875
 21
-0.5
 31
0.0
  0
LINE
  8
OBJECT
 10
-2.1875
 20
-0.625
 30
0.0
 11
2.1875
 21
-0.625
 31
0.0
  0
ENDBLK
  8
0
  0
BLOCK
  8
0
  2
L15S
 70
    64
 10
0.0
 20
0.0
 30
0.0
  3
L15S
  0
LINE
  8
OBJECT
 10
14.625
 20
-0.312
 30
0.0
 11
14.625
 21
0.0
 31
0.0
  0
ARC
  8
OBJECT
 10
14.5625
 20
0.344801
 30
0.0
 40
0.659768
 50
211.507467
 51
275.435793
  0
LINE
  8
OBJECT
 10
13.625
 20
-0.312
 30
0.0
 11
13.625
 21
0.0
 31
0.0
  0
ARC
  8
OBJECT
 10
13.5625
 20
0.344801
 30
0.0
 40
0.659768
 50
211.507467
 51
275.435793
  0
LINE
  8
OBJECT
 10
12.625
 20
-0.312
 30
0.0
 11
12.625
 21
0.0
 31
0.0
  0
ARC
  8
OBJECT
 10
12.5625
 20
0.344801
 30
0.0
 40
0.659768
 50
211.507467
 51
275.435793
  0
LINE
  8
OBJECT
 10
11.625
 20
-0.312
 30
0.0
 11
11.625
 21
0.0
 31
0.0
  0
ARC
  8
OBJECT
 10
11.5625
 20
0.344801
 30
0.0
 40
0.659768
 50
211.507467
 51
275.435793
  0
LINE
  8
OBJECT
 10
10.625
 20
-0.312
 30
0.0
 11
10.625
 21
0.0
 31
0.0
  0
ARC
  8
OBJECT
 10
10.5625
 20
0.344801
 30
0.0
 40
0.659768
 50
211.507467
 51
275.435793
  0
LINE
  8
OBJECT
 10
9.625
 20
-0.312
 30
0.0
 11
9.625
 21
0.0
 31
0.0
  0
ARC
  8
OBJECT
 10
9.5625
 20
0.344801
 30
0.0
 40
0.659768
 50
211.507467
 51
275.435793
  0
LINE
  8
OBJECT
 10
8.625
 20
-0.312
 30
0.0
 11
8.625
 21
0.0
 31
0.0
  0
ARC
  8
OBJECT
 10
8.5625
 20
0.344801
 30
0.0
 40
0.659768
 50
211.507467
 51
275.435793
  0
LINE
  8
OBJECT
 10
7.625
 20
-0.312
 30
0.0
 11
7.625
 21
0.0
 31
0.0
  0
ARC
  8
OBJECT
 10
7.5625
 20
0.344801
 30
0.0
 40
0.659768
 50
211.507467
 51
275.435793
  0
LINE
  8
OBJECT
 10
6.625
 20
-0.312
 30
0.0
 11
6.625
 21
0.0
 31
0.0
  0
ARC
  8
OBJECT
 10
6.5625
 20
0.344801
 30
0.0
 40
0.659768
 50
211.507467
 51
275.435793
  0
LINE
  8
OBJECT
 10
5.625
 20
-0.312
 30
0.0
 11
5.625
 21
0.0
 31
0.0
  0
ARC
  8
OBJECT
 10
5.5625
 20
0.344801
 30
0.0
 40
0.659768
 50
211.507467
 51
275.435793
  0
LINE
  8
OBJECT
 10
4.625
 20
-0.312
 30
0.0
 11
4.625
 21
0.0
 31
0.0
  0
ARC
  8
OBJECT
 10
4.5625
 20
0.344801
 30
0.0
 40
0.659768
 50
211.507467
 51
275.435793
  0
LINE
  8
OBJECT
 10
3.625
 20
-0.312
 30
0.0
 11
3.625
 21
0.0
 31
0.0
  0
ARC
  8
OBJECT
 10
3.5625
 20
0.344801
 30
0.0
 40
0.659768
 50
211.507467
 51
275.435793
  0
LINE
  8
OBJECT
 10
2.625
 20
-0.312
 30
0.0
 11
2.625
 21
0.0
 31
0.0
  0
ARC
  8
OBJECT
 10
2.5625
 20
0.344801
 30
0.0
 40
0.659768
 50
211.507467
 51
275.435793
  0
LINE
  8
OBJECT
 10
1.625
 20
-0.312
 30
0.0
 11
1.625
 21
0.0
 31
0.0
  0
ARC
  8
OBJECT
 10
1.5625
 20
0.344801
 30
0.0
 40
0.659768
 50
211.507467
 51
275.435793
  0
ARC
  8
OBJECT
 10
0.5625
 20
0.344801
 30
0.0
 40
0.659768
 50
211.507467
 51
275.435793
  0
LINE
  8
OBJECT
 10
0.625
 20
-0.312
 30
0.0
 11
0.625
 21
0.0
 31
0.0
  0
ENDBLK
  8
0
  0
BLOCK
  8
0
  2
HB
 70
    64
 10
0.0
 20
0.0
 30
0.0
  3
HB
  0
TEXT
  8
TEXT
 10
0.207833
 20
15.060079
 30
0.0
 40
0.125
  1
NAME
 72
     1
 11
0.437
 21
15.060079
 31
0.0
  0
TEXT
  8
TEXT
 10
0.207833
 20
15.268413
 30
0.0
 40
0.125
  1
PART
 72
     1
 11
0.437
 21
15.268413
 31
0.0
  0
TEXT
  8
TEXT
 10
5.372
 20
15.060079
 30
0.0
 40
0.125
  1
No.
 72
     1
 11
5.497
 21
15.060079
 31
0.0
  0
TEXT
  8
TEXT
 10
5.267833
 20
15.268413
 30
0.0
 40
0.125
  1
PART
 72
     1
 11
5.497
 21
15.268413
 31
0.0
  0
LINE
  8
TITLE
 10
5.872
 20
15.438
 30
0.0
 11
5.872
 21
15.02
 31
0.0
  0
LINE
  8
TITLE
 10
5.122
 20
15.438
 30
0.0
 11
5.122
 21
15.02
 31
0.0
  0
LINE
  8
TITLE
 10
5.06
 20
15.438
 30
0.0
 11
5.06
 21
15.02
 31
0.0
  0
LINE
  8
TITLE
 10
0.812
 20
15.02
 30
0.0
 11
0.812
 21
15.438
 31
0.0
  0
LINE
  8
TITLE
 10
0.062
 20
15.02
 30
0.0
 11
10.058
 21
15.02
 31
0.0
  0
LINE
  8
TITLE
 10
10.058
 20
0.062
 30
0.0
 11
0.062
 21
0.062
 31
0.0
  0
LINE
  8
TITLE
 10
10.058
 20
15.438
 30
0.0
 11
10.058
 21
0.062
 31
0.0
  0
LINE
  8
TITLE
 10
0.062
 20
15.438
 30
0.0
 11
10.058
 21
15.438
 31
0.0
  0
LINE
  8
TITLE
 10
0.062
 20
0.062
 30
0.0
 11
0.062
 21
15.438
 31
0.0
  0
LINE
  8
TITLE
 10
0.0
 20
0.0
 30
0.0
 11
0.0
 21
15.5
 31
0.0
  0
LINE
  8
TITLE
 10
10.12
 20
0.0
 30
0.0
 11
0.0
 21
0.0
 31
0.0
  0
LINE
  8
TITLE
 10
10.12
 20
15.5
 30
0.0
 11
10.12
 21
0.0
 31
0.0
  0
LINE
  8
TITLE
 10
0.0
 20
15.5
 30
0.0
 11
10.12
 21
15.5
 31
0.0
  0
ENDBLK
  8
0
  0
BLOCK
  8
0
  2
TOP
 70
    64
 10
0.0
 20
0.0
 30
0.0
  3
TOP
  0
CIRCLE
  8
OBJECT
 10
-4.196365
 20
-1.678546
 30
0.0
 40
0.125
  0
CIRCLE
  8
OBJECT
 10
-4.196365
 20
-0.839273
 30
0.0
 40
0.125
  0
CIRCLE
  8
OBJECT
 10
-4.196365
 20
0.0
 30
0.0
 40
0.125
  0
CIRCLE
  8
OBJECT
 10
-4.196365
 20
0.839273
 30
0.0
 40
0.125
  0
CIRCLE
  8
OBJECT
 10
-4.844
 20
0.0
 30
0.0
 40
0.09
  0
CIRCLE
  8
OBJECT
 10
-1.678546
 20
-4.196365
 30
0.0
 40
0.125
  0
CIRCLE
  8
OBJECT
 10
-1.678546
 20
-3.357092
 30
0.0
 40
0.125
  0
CIRCLE
  8
OBJECT
 10
-2.517819
 20
-3.357092
 30
0.0
 40
0.125
  0
CIRCLE
  8
OBJECT
 10
-3.425225
 20
-3.425225
 30
0.0
 40
0.09
  0
CIRCLE
  8
OBJECT
 10
-0.839273
 20
-4.196365
 30
0.0
 40
0.125
  0
CIRCLE
  8
OBJECT
 10
-0.839273
 20
-3.357092
 30
0.0
 40
0.125
  0
CIRCLE
  8
OBJECT
 10
0.0
 20
-4.196365
 30
0.0
 40
0.125
  0
CIRCLE
  8
OBJECT
 10
0.0
 20
-3.357092
 30
0.0
 40
0.125
  0
CIRCLE
  8
OBJECT
 10
0.839273
 20
-4.196365
 30
0.0
 40
0.125
  0
CIRCLE
  8
OBJECT
 10
0.839273
 20
-3.357092
 30
0.0
 40
0.125
  0
CIRCLE
  8
OBJECT
 10
0.0
 20
-4.844
 30
0.0
 40
0.09
  0
CIRCLE
  8
OBJECT
 10
-1.678546
 20
-2.517819
 30
0.0
 40
0.125
  0
CIRCLE
  8
OBJECT
 10
-1.678546
 20
-1.678546
 30
0.0
 40
0.125
  0
CIRCLE
  8
OBJECT
 10
-1.678546
 20
-0.839273
 30
0.0
 40
0.125
  0
CIRCLE
  8
OBJECT
 10
-1.678546
 20
0.0
 30
0.0
 40
0.125
  0
CIRCLE
  8
OBJECT
 10
-1.678546
 20
0.839273
 30
0.0
 40
0.125
  0
CIRCLE
  8
OBJECT
 10
-3.357092
 20
-2.517819
 30
0.0
 40
0.125
  0
CIRCLE
  8
OBJECT
 10
-3.357092
 20
-1.678546
 30
0.0
 40
0.125
  0
CIRCLE
  8
OBJECT
 10
-3.357092
 20
-0.839273
 30
0.0
 40
0.125
  0
CIRCLE
  8
OBJECT
 10
-3.357092
 20
0.0
 30
0.0
 40
0.125
  0
CIRCLE
  8
OBJECT
 10
-3.357092
 20
0.839273
 30
0.0
 40
0.125
  0
CIRCLE
  8
OBJECT
 10
-2.517819
 20
-2.517819
 30
0.0
 40
0.125
  0
CIRCLE
  8
OBJECT
 10
-2.517819
 20
-1.678546
 30
0.0
 40
0.125
  0
CIRCLE
  8
OBJECT
 10
-2.517819
 20
-0.839273
 30
0.0
 40
0.125
  0
CIRCLE
  8
OBJECT
 10
-2.517819
 20
0.0
 30
0.0
 40
0.125
  0
CIRCLE
  8
OBJECT
 10
-2.517819
 20
0.839273
 30
0.0
 40
0.125
  0
CIRCLE
  8
OBJECT
 10
-0.839273
 20
-2.517819
 30
0.0
 40
0.125
  0
CIRCLE
  8
OBJECT
 10
-0.839273
 20
-1.678546
 30
0.0
 40
0.125
  0
CIRCLE
  8
OBJECT
 10
-0.839273
 20
-0.839273
 30
0.0
 40
0.125
  0
CIRCLE
  8
OBJECT
 10
-0.839273
 20
0.0
 30
0.0
 40
0.125
  0
CIRCLE
  8
OBJECT
 10
-0.839273
 20
0.839273
 30
0.0
 40
0.125
  0
CIRCLE
  8
OBJECT
 10
0.0
 20
-2.517819
 30
0.0
 40
0.125
  0
CIRCLE
  8
OBJECT
 10
0.0
 20
-1.678546
 30
0.0
 40
0.125
  0
CIRCLE
  8
OBJECT
 10
0.0
 20
-0.839273
 30
0.0
 40
0.125
  0
CIRCLE
  8
OBJECT
 10
0.0
 20
0.0
 30
0.0
 40
0.125
  0
CIRCLE
  8
OBJECT
 10
0.0
 20
0.839273
 30
0.0
 40
0.125
  0
CIRCLE
  8
OBJECT
 10
0.839273
 20
-2.517819
 30
0.0
 40
0.125
  0
CIRCLE
  8
OBJECT
 10
0.839273
 20
-1.678546
 30
0.0
 40
0.125
  0
CIRCLE
  8
OBJECT
 10
0.839273
 20
-0.839273
 30
0.0
 40
0.125
  0
CIRCLE
  8
OBJECT
 10
0.839273
 20
0.0
 30
0.0
 40
0.125
  0
CIRCLE
  8
OBJECT
 10
0.839273
 20
0.839273
 30
0.0
 40
0.125
  0
CIRCLE
  8
OBJECT
 10
-4.196365
 20
1.678546
 30
0.0
 40
0.125
  0
CIRCLE
  8
OBJECT
 10
-1.678546
 20
1.678546
 30
0.0
 40
0.125
  0
CIRCLE
  8
OBJECT
 10
-1.678546
 20
2.517819
 30
0.0
 40
0.125
  0
CIRCLE
  8
OBJECT
 10
-1.678546
 20
3.357092
 30
0.0
 40
0.125
  0
CIRCLE
  8
OBJECT
 10
-1.678546
 20
4.196365
 30
0.0
 40
0.125
  0
CIRCLE
  8
OBJECT
 10
-3.357092
 20
1.678546
 30
0.0
 40
0.125
  0
CIRCLE
  8
OBJECT
 10
-3.357092
 20
2.517819
 30
0.0
 40
0.125
  0
CIRCLE
  8
OBJECT
 10
-2.517819
 20
1.678546
 30
0.0
 40
0.125
  0
CIRCLE
  8
OBJECT
 10
-2.517819
 20
2.517819
 30
0.0
 40
0.125
  0
CIRCLE
  8
OBJECT
 10
-2.517819
 20
3.357092
 30
0.0
 40
0.125
  0
CIRCLE
  8
OBJECT
 10
-3.425225
 20
3.425225
 30
0.0
 40
0.09
  0
CIRCLE
  8
OBJECT
 10
-0.839273
 20
1.678546
 30
0.0
 40
0.125
  0
CIRCLE
  8
OBJECT
 10
-0.839273
 20
2.517819
 30
0.0
 40
0.125
  0
CIRCLE
  8
OBJECT
 10
-0.839273
 20
3.357092
 30
0.0
 40
0.125
  0
CIRCLE
  8
OBJECT
 10
-0.839273
 20
4.196365
 30
0.0
 40
0.125
  0
CIRCLE
  8
OBJECT
 10
0.0
 20
1.678546
 30
0.0
 40
0.125
  0
CIRCLE
  8
OBJECT
 10
0.0
 20
2.517819
 30
0.0
 40
0.125
  0
CIRCLE
  8
OBJECT
 10
0.0
 20
3.357092
 30
0.0
 40
0.125
  0
CIRCLE
  8
OBJECT
 10
0.0
 20
4.196365
 30
0.0
 40
0.125
  0
CIRCLE
  8
OBJECT
 10
0.839273
 20
1.678546
 30
0.0
 40
0.125
  0
CIRCLE
  8
OBJECT
 10
0.839273
 20
2.517819
 30
0.0
 40
0.125
  0
CIRCLE
  8
OBJECT
 10
0.839273
 20
3.357092
 30
0.0
 40
0.125
  0
CIRCLE
  8
OBJECT
 10
0.839273
 20
4.196365
 30
0.0
 40
0.125
  0
CIRCLE
  8
OBJECT
 10
0.0
 20
4.844
 30
0.0
 40
0.09
  0
CIRCLE
  8
OBJECT
 10
2.517819
 20
-3.357092
 30
0.0
 40
0.125
  0
CIRCLE
  8
OBJECT
 10
1.678546
 20
-4.196365
 30
0.0
 40
0.125
  0
CIRCLE
  8
OBJECT
 10
1.678546
 20
-3.357092
 30
0.0
 40
0.125
  0
CIRCLE
  8
OBJECT
 10
3.425225
 20
-3.425225
 30
0.0
 40
0.09
  0
CIRCLE
  8
OBJECT
 10
2.517819
 20
-2.517819
 30
0.0
 40
0.125
  0
CIRCLE
  8
OBJECT
 10
2.517819
 20
-1.678546
 30
0.0
 40
0.125
  0
CIRCLE
  8
OBJECT
 10
2.517819
 20
-0.839273
 30
0.0
 40
0.125
  0
CIRCLE
  8
OBJECT
 10
2.517819
 20
0.0
 30
0.0
 40
0.125
  0
CIRCLE
  8
OBJECT
 10
2.517819
 20
0.839273
 30
0.0
 40
0.125
  0
CIRCLE
  8
OBJECT
 10
3.357092
 20
-2.517819
 30
0.0
 40
0.125
  0
CIRCLE
  8
OBJECT
 10
3.357092
 20
-1.678546
 30
0.0
 40
0.125
  0
CIRCLE
  8
OBJECT
 10
3.357092
 20
-0.839273
 30
0.0
 40
0.125
  0
CIRCLE
  8
OBJECT
 10
3.357092
 20
0.0
 30
0.0
 40
0.125
  0
CIRCLE
  8
OBJECT
 10
3.357092
 20
0.839273
 30
0.0
 40
0.125
  0
CIRCLE
  8
OBJECT
 10
1.678546
 20
-2.517819
 30
0.0
 40
0.125
  0
CIRCLE
  8
OBJECT
 10
1.678546
 20
-1.678546
 30
0.0
 40
0.125
  0
CIRCLE
  8
OBJECT
 10
1.678546
 20
-0.839273
 30
0.0
 40
0.125
  0
CIRCLE
  8
OBJECT
 10
1.678546
 20
0.0
 30
0.0
 40
0.125
  0
CIRCLE
  8
OBJECT
 10
1.678546
 20
0.839273
 30
0.0
 40
0.125
  0
CIRCLE
  8
OBJECT
 10
4.196365
 20
-1.678546
 30
0.0
 40
0.125
  0
CIRCLE
  8
OBJECT
 10
4.196365
 20
-0.839273
 30
0.0
 40
0.125
  0
CIRCLE
  8
OBJECT
 10
4.196365
 20
0.0
 30
0.0
 40
0.125
  0
CIRCLE
  8
OBJECT
 10
4.196365
 20
0.839273
 30
0.0
 40
0.125
  0
CIRCLE
  8
OBJECT
 10
4.844
 20
0.0
 30
0.0
 40
0.09
  0
CIRCLE
  8
OBJECT
 10
2.517819
 20
1.678546
 30
0.0
 40
0.125
  0
CIRCLE
  8
OBJECT
 10
2.517819
 20
2.517819
 30
0.0
 40
0.125
  0
CIRCLE
  8
OBJECT
 10
2.517819
 20
3.357092
 30
0.0
 40
0.125
  0
CIRCLE
  8
OBJECT
 10
3.357092
 20
1.678546
 30
0.0
 40
0.125
  0
CIRCLE
  8
OBJECT
 10
3.357092
 20
2.517819
 30
0.0
 40
0.125
  0
CIRCLE
  8
OBJECT
 10
1.678546
 20
1.678546
 30
0.0
 40
0.125
  0
CIRCLE
  8
OBJECT
 10
1.678546
 20
2.517819
 30
0.0
 40
0.125
  0
CIRCLE
  8
OBJECT
 10
1.678546
 20
3.357092
 30
0.0
 40
0.125
  0
CIRCLE
  8
OBJECT
 10
1.678546
 20
4.196365
 30
0.0
 40
0.125
  0
CIRCLE
  8
OBJECT
 10
3.425225
 20
3.425225
 30
0.0
 40
0.09
  0
CIRCLE
  8
OBJECT
 10
4.196365
 20
1.678546
 30
0.0
 40
0.125
  0
ENDBLK
  8
0
  0
BLOCK
  8
0
  2
*X4
 70
    65
 10
0.0
 20
0.0
 30
0.0
  3
*X
  0
LINE
  8
0
 62
     0
 10
1.196039
 20
0.599976
 30
0.0
 11
5.086496
 21
15.119358
 31
0.0
  0
LINE
  8
0
 62
     0
 10
0.447658
 20
1.670681
 30
0.0
 11
3.720422
 21
13.884803
 31
0.0
  0
LINE
  8
0
 62
     0
 10
0.283285
 20
4.920939
 30
0.0
 11
2.354347
 21
12.650248
 31
0.0
  0
LINE
  8
0
 62
     0
 10
0.118913
 20
8.171197
 30
0.0
 11
0.988273
 21
11.415693
 31
0.0
  0
LINE
  8
0
 62
     0
 10
2.562113
 20
1.834531
 30
0.0
 11
6.45257
 21
16.353913
 31
0.0
  0
LINE
  8
0
 62
     0
 10
3.928188
 20
3.069086
 30
0.0
 11
7.817077
 21
17.582618
 31
0.0
  0
LINE
  8
0
 62
     0
 10
5.294262
 20
4.303641
 30
0.0
 11
7.981449
 21
14.332359
 31
0.0
  0
LINE
  8
0
 62
     0
 10
6.660336
 20
5.538196
 30
0.0
 11
8.145821
 21
11.082101
 31
0.0
  0
LINE
  8
0
 62
     0
 10
8.02641
 20
6.772752
 30
0.0
 11
8.310193
 21
7.831843
 31
0.0
  0
ENDBLK
  8
0
  0
BLOCK
  8
0
  2
*D5
 70
    65
 10
0.0
 20
0.0
 30
0.0
  3
*D
  0
LINE
  8
0
  6
BYBLOCK
 62
     0
 10
24.822039
 20
152.244151
 30
0.0
 11
13.289539
 21
152.244151
 31
0.0
  0
LINE
  8
0
  6
BYBLOCK
 62
     0
 10
23.384539
 20
154.869151
 30
0.0
 11
13.289539
 21
154.869151
 31
0.0
  0
LINE
  8
0
  6
BYBLOCK
 62
     0
 10
14.777539
 20
149.364151
 30
0.0
 11
14.777539
 21
146.484151
 31
0.0
  0
LINE
  8
0
  6
BYBLOCK
 62
     0
 10
14.777539
 20
157.749151
 30
0.0
 11
14.777539
 21
160.629151
 31
0.0
  0
LINE
  8
0
  6
BYBLOCK
 62
     0
 10
14.777539
 20
160.629151
 30
0.0
 11
17.657539
 21
160.629151
 31
0.0
  0
SOLID
  8
0
  6
BYBLOCK
 62
     0
 10
14.297539
 20
149.364151
 30
0.0
 11
15.257539
 21
149.364151
 31
0.0
 12
14.777539
 22
152.244151
 32
0.0
 13
14.777539
 23
152.244151
 33
0.0
  0
SOLID
  8
0
  6
BYBLOCK
 62
     0
 10
14.297539
 20
157.749151
 30
0.0
 11
15.257539
 21
157.749151
 31
0.0
 12
14.777539
 22
154.869151
 32
0.0
 13
14.777539
 23
154.869151
 33
0.0
  0
TEXT
  8
0
  6
BYBLOCK
 62
     0
 10
19.097539
 20
159.629151
 30
0.0
 40
2.0
  1
2.625
 41
0.75
 72
     1
 11
22.097539
 21
160.629151
 31
0.0
 73
     2
  0
POINT
  8
DEFPOINTS
  6
BYBLOCK
 62
     0
 10
25.830039
 20
152.244151
 30
0.0
  0
POINT
  8
DEFPOINTS
  6
BYBLOCK
 62
     0
 10
24.392539
 20
154.869151
 30
0.0
  0
POINT
  8
DEFPOINTS
  6
BYBLOCK
 62
     0
 10
14.777539
 20
154.869151
 30
0.0
  0
ENDBLK
  8
0
  0
BLOCK
  8
0
  2
*D6
 70
    65
 10
0.0
 20
0.0
 30
0.0
  3
*D
  0
LINE
  8
0
  6
BYBLOCK
 62
     0
 10
120.597837
 20
116.038683
 30
0.0
 11
120.597837
 21
116.518683
 31
0.0
  0
LINE
  8
0
  6
BYBLOCK
 62
     0
 10
139.722837
 20
116.038683
 30
0.0
 11
139.722837
 21
116.518683
 31
0.0
  0
LINE
  8
0
  6
BYBLOCK
 62
     0
 10
117.717837
 20
115.030683
 30
0.0
 11
114.837837
 21
115.030683
 31
0.0
  0
LINE
  8
0
  6
BYBLOCK
 62
     0
 10
142.602837
 20
115.030683
 30
0.0
 11
145.482837
 21
115.030683
 31
0.0
  0
SOLID
  8
0
  6
BYBLOCK
 62
     0
 10
117.717837
 20
115.510683
 30
0.0
 11
117.717837
 21
114.550683
 31
0.0
 12
120.597837
 22
115.030683
 32
0.0
 13
120.597837
 23
115.030683
 33
0.0
  0
SOLID
  8
0
  6
BYBLOCK
 62
     0
 10
142.602837
 20
115.510683
 30
0.0
 11
142.602837
 21
114.550683
 31
0.0
 12
139.722837
 22
115.030683
 32
0.0
 13
139.722837
 23
115.030683
 33
0.0
  0
TEXT
  8
0
  6
BYBLOCK
 62
     0
 10
129.660337
 20
114.030683
 30
0.0
 40
2.0
  1
 %%p0.031
 41
0.75
 72
     1
 11
133.660337
 21
115.030683
 31
0.0
 73
     2
  0
TEXT
  8
0
  6
BYBLOCK
 62
     0
 10
122.660337
 20
114.030683
 30
0.0
 40
2.0
  1
19.125
 41
0.75
 72
     1
 11
125.910337
 21
115.030683
 31
0.0
 73
     2
  0
POINT
  8
DEFPOINTS
  6
BYBLOCK
 62
     0
 10
120.597837
 20
115.030683
 30
0.0
  0
POINT
  8
DEFPOINTS
  6
BYBLOCK
 62
     0
 10
139.722837
 20
115.030683
 30
0.0
  0
POINT
  8
DEFPOINTS
  6
BYBLOCK
 62
     0
 10
139.722837
 20
115.030683
 30
0.0
  0
ENDBLK
  8
0
  0
BLOCK
  8
0
  2
*D7
 70
    65
 10
0.0
 20
0.0
 30
0.0
  3
*D
  0
LINE
  8
0
  6
BYBLOCK
 62
     0
 10
121.192587
 20
125.100457
 30
0.0
 11
121.192587
 21
125.580457
 31
0.0
  0
LINE
  8
0
  6
BYBLOCK
 62
     0
 10
139.129337
 20
125.100457
 30
0.0
 11
139.129337
 21
125.580457
 31
0.0
  0
LINE
  8
0
  6
BYBLOCK
 62
     0
 10
118.312587
 20
124.092457
 30
0.0
 11
115.432587
 21
124.092457
 31
0.0
  0
LINE
  8
0
  6
BYBLOCK
 62
     0
 10
142.009337
 20
124.092457
 30
0.0
 11
144.889337
 21
124.092457
 31
0.0
  0
SOLID
  8
0
  6
BYBLOCK
 62
     0
 10
118.312587
 20
124.572457
 30
0.0
 11
118.312587
 21
123.612457
 31
0.0
 12
121.192587
 22
124.092457
 32
0.0
 13
121.192587
 23
124.092457
 33
0.0
  0
SOLID
  8
0
  6
BYBLOCK
 62
     0
 10
142.009337
 20
124.572457
 30
0.0
 11
142.009337
 21
123.612457
 31
0.0
 12
139.129337
 22
124.092457
 32
0.0
 13
139.129337
 23
124.092457
 33
0.0
  0
TEXT
  8
0
  6
BYBLOCK
 62
     0
 10
129.660962
 20
123.092457
 30
0.0
 40
2.0
  1
 %%p0.093
 41
0.75
 72
     1
 11
133.910962
 21
124.092457
 31
0.0
 73
     2
  0
TEXT
  8
0
  6
BYBLOCK
 62
     0
 10
122.160962
 20
123.092457
 30
0.0
 40
2.0
  1
17.937
 41
0.75
 72
     1
 11
125.660962
 21
124.092457
 31
0.0
 73
     2
  0
POINT
  8
DEFPOINTS
  6
BYBLOCK
 62
     0
 10
121.192587
 20
124.092457
 30
0.0
  0
POINT
  8
DEFPOINTS
  6
BYBLOCK
 62
     0
 10
139.129337
 20
124.092457
 30
0.0
  0
POINT
  8
DEFPOINTS
  6
BYBLOCK
 62
     0
 10
139.129337
 20
124.092457
 30
0.0
  0
ENDBLK
  8
0
  0
BLOCK
  8
0
  2
*D8
 70
    65
 10
0.0
 20
0.0
 30
0.0
  3
*D
  0
LINE
  8
0
  6
BYBLOCK
 62
     0
 10
119.160337
 20
155.877151
 30
0.0
 11
119.160337
 21
162.117151
 31
0.0
  0
LINE
  8
0
  6
BYBLOCK
 62
     0
 10
141.160337
 20
155.877151
 30
0.0
 11
141.160337
 21
162.117151
 31
0.0
  0
LINE
  8
0
  6
BYBLOCK
 62
     0
 10
116.280337
 20
160.629151
 30
0.0
 11
113.400337
 21
160.629151
 31
0.0
  0
LINE
  8
0
  6
BYBLOCK
 62
     0
 10
144.040337
 20
160.629151
 30
0.0
 11
146.920337
 21
160.629151
 31
0.0
  0
SOLID
  8
0
  6
BYBLOCK
 62
     0
 10
116.280337
 20
161.109151
 30
0.0
 11
116.280337
 21
160.149151
 31
0.0
 12
119.160337
 22
160.629151
 32
0.0
 13
119.160337
 23
160.629151
 33
0.0
  0
SOLID
  8
0
  6
BYBLOCK
 62
     0
 10
144.040337
 20
161.109151
 30
0.0
 11
144.040337
 21
160.149151
 31
0.0
 12
141.160337
 22
160.629151
 32
0.0
 13
141.160337
 23
160.629151
 33
0.0
  0
TEXT
  8
0
  6
BYBLOCK
 62
     0
 10
129.535337
 20
159.629151
 30
0.0
 40
2.0
  1
 %%p0.062
 41
0.75
 72
     1
 11
133.785337
 21
160.629151
 31
0.0
 73
     2
  0
TEXT
  8
0
  6
BYBLOCK
 62
     0
 10
122.285337
 20
159.629151
 30
0.0
 40
2.0
  1
22.000
 41
0.75
 72
     1
 11
125.660337
 21
160.629151
 31
0.0
 73
     2
  0
POINT
  8
DEFPOINTS
  6
BYBLOCK
 62
     0
 10
119.160337
 20
154.869151
 30
0.0
  0
POINT
  8
DEFPOINTS
  6
BYBLOCK
 62
     0
 10
141.160337
 20
154.869151
 30
0.0
  0
POINT
  8
DEFPOINTS
  6
BYBLOCK
 62
     0
 10
141.160337
 20
160.629151
 30
0.0
  0
ENDBLK
  8
0
  0
BLOCK
  8
0
  2
*D9
 70
    65
 10
0.0
 20
0.0
 30
0.0
  3
*D
  0
LINE
  8
0
  6
BYBLOCK
 62
     0
 10
30.846039
 20
79.861151
 30
0.0
 11
30.846039
 21
72.309151
 31
0.0
  0
LINE
  8
0
  6
BYBLOCK
 62
     0
 10
39.939039
 20
79.861151
 30
0.0
 11
39.939039
 21
72.309151
 31
0.0
  0
LINE
  8
0
  6
BYBLOCK
 62
     0
 10
27.966039
 20
73.797151
 30
0.0
 11
25.086039
 21
73.797151
 31
0.0
  0
LINE
  8
0
  6
BYBLOCK
 62
     0
 10
42.819039
 20
73.797151
 30
0.0
 11
45.699039
 21
73.797151
 31
0.0
  0
SOLID
  8
0
  6
BYBLOCK
 62
     0
 10
27.966039
 20
74.277151
 30
0.0
 11
27.966039
 21
73.317151
 31
0.0
 12
30.846039
 22
73.797151
 32
0.0
 13
30.846039
 23
73.797151
 33
0.0
  0
SOLID
  8
0
  6
BYBLOCK
 62
     0
 10
42.819039
 20
74.277151
 30
0.0
 11
42.819039
 21
73.317151
 31
0.0
 12
39.939039
 22
73.797151
 32
0.0
 13
39.939039
 23
73.797151
 33
0.0
  0
TEXT
  8
0
  6
BYBLOCK
 62
     0
 10
32.517539
 20
72.797151
 30
0.0
 40
2.0
  1
9.093
 41
0.75
 72
     1
 11
35.392539
 21
73.797151
 31
0.0
 73
     2
  0
POINT
  8
DEFPOINTS
  6
BYBLOCK
 62
     0
 10
30.846039
 20
80.869151
 30
0.0
  0
POINT
  8
DEFPOINTS
  6
BYBLOCK
 62
     0
 10
39.939039
 20
80.869151
 30
0.0
  0
POINT
  8
DEFPOINTS
  6
BYBLOCK
 62
     0
 10
39.939039
 20
73.797151
 30
0.0
  0
ENDBLK
  8
0
  0
BLOCK
  8
0
  2
*D10
 70
    65
 10
0.0
 20
0.0
 30
0.0
  3
*D
  0
LINE
  8
0
  6
BYBLOCK
 62
     0
 10
139.762337
 20
44.059785
 30
0.0
 11
147.122811
 21
44.059785
 31
0.0
  0
LINE
  8
0
  6
BYBLOCK
 62
     0
 10
139.762337
 20
41.059785
 30
0.0
 11
147.122811
 21
41.059785
 31
0.0
  0
LINE
  8
0
  6
BYBLOCK
 62
     0
 10
145.634811
 20
46.939785
 30
0.0
 11
145.634811
 21
49.819785
 31
0.0
  0
LINE
  8
0
  6
BYBLOCK
 62
     0
 10
145.634811
 20
38.179785
 30
0.0
 11
145.634811
 21
35.299785
 31
0.0
  0
SOLID
  8
0
  6
BYBLOCK
 62
     0
 10
145.154811
 20
46.939785
 30
0.0
 11
146.114811
 21
46.939785
 31
0.0
 12
145.634811
 22
44.059785
 32
0.0
 13
145.634811
 23
44.059785
 33
0.0
  0
SOLID
  8
0
  6
BYBLOCK
 62
     0
 10
145.154811
 20
38.179785
 30
0.0
 11
146.114811
 21
38.179785
 31
0.0
 12
145.634811
 22
41.059785
 32
0.0
 13
145.634811
 23
41.059785
 33
0.0
  0
TEXT
  8
0
  6
BYBLOCK
 62
     0
 10
143.009811
 20
41.559785
 30
0.0
 40
2.0
  1
3.000
 41
0.75
 72
     1
 11
145.634811
 21
42.559785
 31
0.0
 73
     2
  0
POINT
  8
DEFPOINTS
  6
BYBLOCK
 62
     0
 10
138.754337
 20
44.059785
 30
0.0
  0
POINT
  8
DEFPOINTS
  6
BYBLOCK
 62
     0
 10
138.754337
 20
41.059785
 30
0.0
  0
POINT
  8
DEFPOINTS
  6
BYBLOCK
 62
     0
 10
145.634811
 20
41.059785
 30
0.0
  0
ENDBLK
  8
0
  0
BLOCK
  8
0
  2
*D11
 70
    65
 10
0.0
 20
0.0
 30
0.0
  3
*D
  0
LINE
  8
0
  6
BYBLOCK
 62
     0
 10
139.762337
 20
44.059785
 30
0.0
 11
151.618811
 21
44.059785
 31
0.0
  0
LINE
  8
0
  6
BYBLOCK
 62
     0
 10
142.168337
 20
45.887785
 30
0.0
 11
151.618811
 21
45.887785
 31
0.0
  0
LINE
  8
0
  6
BYBLOCK
 62
     0
 10
150.130811
 20
41.179785
 30
0.0
 11
150.130811
 21
38.299785
 31
0.0
  0
LINE
  8
0
  6
BYBLOCK
 62
     0
 10
150.130811
 20
48.767785
 30
0.0
 11
150.130811
 21
51.647785
 31
0.0
  0
LINE
  8
0
  6
BYBLOCK
 62
     0
 10
150.130811
 20
51.647785
 30
0.0
 11
153.010811
 21
51.647785
 31
0.0
  0
SOLID
  8
0
  6
BYBLOCK
 62
     0
 10
149.650811
 20
41.179785
 30
0.0
 11
150.610811
 21
41.179785
 31
0.0
 12
150.130811
 22
44.059785
 32
0.0
 13
150.130811
 23
44.059785
 33
0.0
  0
SOLID
  8
0
  6
BYBLOCK
 62
     0
 10
149.650811
 20
48.767785
 30
0.0
 11
150.610811
 21
48.767785
 31
0.0
 12
150.130811
 22
45.887785
 32
0.0
 13
150.130811
 23
45.887785
 33
0.0
  0
TEXT
  8
0
  6
BYBLOCK
 62
     0
 10
154.450811
 20
50.647785
 30
0.0
 40
2.0
  1
1.828
 41
0.75
 72
     1
 11
157.200811
 21
51.647785
 31
0.0
 73
     2
  0
POINT
  8
DEFPOINTS
  6
BYBLOCK
 62
     0
 10
138.754337
 20
44.059785
 30
0.0
  0
POINT
  8
DEFPOINTS
  6
BYBLOCK
 62
     0
 10
141.160337
 20
45.887785
 30
0.0
  0
POINT
  8
DEFPOINTS
  6
BYBLOCK
 62
     0
 10
150.130811
 20
45.887785
 30
0.0
  0
ENDBLK
  8
0
  0
BLOCK
  8
0
  2
*D12
 70
    65
 10
0.0
 20
0.0
 30
0.0
  3
*D
  0
LINE
  8
0
  6
BYBLOCK
 62
     0
 10
63.738433
 20
155.877151
 30
0.0
 11
63.738433
 21
160.677151
 31
0.0
  0
LINE
  8
0
  6
BYBLOCK
 62
     0
 10
69.206433
 20
150.252151
 30
0.0
 11
69.206433
 21
160.677151
 31
0.0
  0
LINE
  8
0
  6
BYBLOCK
 62
     0
 10
60.858433
 20
159.189151
 30
0.0
 11
57.978433
 21
159.189151
 31
0.0
  0
LINE
  8
0
  6
BYBLOCK
 62
     0
 10
72.086433
 20
159.189151
 30
0.0
 11
74.966433
 21
159.189151
 31
0.0
  0
SOLID
  8
0
  6
BYBLOCK
 62
     0
 10
60.858433
 20
159.669151
 30
0.0
 11
60.858433
 21
158.709151
 31
0.0
 12
63.738433
 22
159.189151
 32
0.0
 13
63.738433
 23
159.189151
 33
0.0
  0
SOLID
  8
0
  6
BYBLOCK
 62
     0
 10
72.086433
 20
159.669151
 30
0.0
 11
72.086433
 21
158.709151
 31
0.0
 12
69.206433
 22
159.189151
 32
0.0
 13
69.206433
 23
159.189151
 33
0.0
  0
TEXT
  8
0
  6
BYBLOCK
 62
     0
 10
76.406433
 20
158.189151
 30
0.0
 40
2.0
  1
5.468
 41
0.75
 72
     1
 11
79.406433
 21
159.189151
 31
0.0
 73
     2
  0
POINT
  8
DEFPOINTS
  6
BYBLOCK
 62
     0
 10
63.738433
 20
154.869151
 30
0.0
  0
POINT
  8
DEFPOINTS
  6
BYBLOCK
 62
     0
 10
69.206433
 20
149.244151
 30
0.0
  0
POINT
  8
DEFPOINTS
  6
BYBLOCK
 62
     0
 10
69.206433
 20
159.189151
 30
0.0
  0
ENDBLK
  8
0
  0
BLOCK
  8
0
  2
*D13
 70
    65
 10
0.0
 20
0.0
 30
0.0
  3
*D
  0
LINE
  8
0
  6
BYBLOCK
 62
     0
 10
69.206433
 20
150.252151
 30
0.0
 11
69.206433
 21
165.173151
 31
0.0
  0
LINE
  8
0
  6
BYBLOCK
 62
     0
 10
73.581433
 20
150.252151
 30
0.0
 11
73.581433
 21
165.173151
 31
0.0
  0
LINE
  8
0
  6
BYBLOCK
 62
     0
 10
66.326433
 20
163.685151
 30
0.0
 11
63.446433
 21
163.685151
 31
0.0
  0
LINE
  8
0
  6
BYBLOCK
 62
     0
 10
76.461433
 20
163.685151
 30
0.0
 11
79.341433
 21
163.685151
 31
0.0
  0
SOLID
  8
0
  6
BYBLOCK
 62
     0
 10
66.326433
 20
164.165151
 30
0.0
 11
66.326433
 21
163.205151
 31
0.0
 12
69.206433
 22
163.685151
 32
0.0
 13
69.206433
 23
163.685151
 33
0.0
  0
SOLID
  8
0
  6
BYBLOCK
 62
     0
 10
76.461433
 20
164.165151
 30
0.0
 11
76.461433
 21
163.205151
 31
0.0
 12
73.581433
 22
163.685151
 32
0.0
 13
73.581433
 23
163.685151
 33
0.0
  0
TEXT
  8
0
  6
BYBLOCK
 62
     0
 10
80.781433
 20
161.066151
 30
0.0
 40
2.0
  1
4.375
 41
0.75
 72
     1
 11
83.781433
 21
162.066151
 31
0.0
 73
     2
  0
POINT
  8
DEFPOINTS
  6
BYBLOCK
 62
     0
 10
69.206433
 20
149.244151
 30
0.0
  0
POINT
  8
DEFPOINTS
  6
BYBLOCK
 62
     0
 10
73.581433
 20
149.244151
 30
0.0
  0
POINT
  8
DEFPOINTS
  6
BYBLOCK
 62
     0
 10
73.581433
 20
163.685151
 30
0.0
  0
ENDBLK
  8
0
  0
BLOCK
  8
0
  2
*D14
 70
    65
 10
0.0
 20
0.0
 30
0.0
  3
*D
  0
LINE
  8
0
  6
BYBLOCK
 62
     0
 10
39.939039
 20
79.861151
 30
0.0
 11
39.939039
 21
68.309151
 31
0.0
  0
LINE
  8
0
  6
BYBLOCK
 62
     0
 10
46.392539
 20
78.549151
 30
0.0
 11
46.392539
 21
68.309151
 31
0.0
  0
LINE
  8
0
  6
BYBLOCK
 62
     0
 10
37.059039
 20
69.797151
 30
0.0
 11
34.179039
 21
69.797151
 31
0.0
  0
LINE
  8
0
  6
BYBLOCK
 62
     0
 10
49.272539
 20
69.797151
 30
0.0
 11
52.152539
 21
69.797151
 31
0.0
  0
SOLID
  8
0
  6
BYBLOCK
 62
     0
 10
37.059039
 20
70.277151
 30
0.0
 11
37.059039
 21
69.317151
 31
0.0
 12
39.939039
 22
69.797151
 32
0.0
 13
39.939039
 23
69.797151
 33
0.0
  0
SOLID
  8
0
  6
BYBLOCK
 62
     0
 10
49.272539
 20
70.277151
 30
0.0
 11
49.272539
 21
69.317151
 31
0.0
 12
46.392539
 22
69.797151
 32
0.0
 13
46.392539
 23
69.797151
 33
0.0
  0
TEXT
  8
0
  6
BYBLOCK
 62
     0
 10
53.592539
 20
68.797151
 30
0.0
 40
2.0
  1
6.453
 41
0.75
 72
     1
 11
56.592539
 21
69.797151
 31
0.0
 73
     2
  0
POINT
  8
DEFPOINTS
  6
BYBLOCK
 62
     0
 10
39.939039
 20
80.869151
 30
0.0
  0
POINT
  8
DEFPOINTS
  6
BYBLOCK
 62
     0
 10
46.392539
 20
79.557151
 30
0.0
  0
POINT
  8
DEFPOINTS
  6
BYBLOCK
 62
     0
 10
46.392539
 20
69.797151
 30
0.0
  0
ENDBLK
  8
0
  0
BLOCK
  8
0
  2
*D15
 70
    65
 10
0.0
 20
0.0
 30
0.0
  3
*D
  0
LINE
  8
0
  6
BYBLOCK
 62
     0
 10
47.400539
 20
79.557151
 30
0.0
 11
52.1489
 21
79.557151
 31
0.0
  0
LINE
  8
0
  6
BYBLOCK
 62
     0
 10
40.947039
 20
80.869151
 30
0.0
 11
52.1489
 21
80.869151
 31
0.0
  0
LINE
  8
0
  6
BYBLOCK
 62
     0
 10
50.6609
 20
76.677151
 30
0.0
 11
50.6609
 21
73.797151
 31
0.0
  0
LINE
  8
0
  6
BYBLOCK
 62
     0
 10
50.6609
 20
83.749151
 30
0.0
 11
50.6609
 21
86.629151
 31
0.0
  0
LINE
  8
0
  6
BYBLOCK
 62
     0
 10
50.6609
 20
86.629151
 30
0.0
 11
53.5409
 21
86.629151
 31
0.0
  0
SOLID
  8
0
  6
BYBLOCK
 62
     0
 10
50.1809
 20
76.677151
 30
0.0
 11
51.1409
 21
76.677151
 31
0.0
 12
50.6609
 22
79.557151
 32
0.0
 13
50.6609
 23
79.557151
 33
0.0
  0
SOLID
  8
0
  6
BYBLOCK
 62
     0
 10
50.1809
 20
83.749151
 30
0.0
 11
51.1409
 21
83.749151
 31
0.0
 12
50.6609
 22
80.869151
 32
0.0
 13
50.6609
 23
80.869151
 33
0.0
  0
TEXT
  8
0
  6
BYBLOCK
 62
     0
 10
54.9809
 20
85.629151
 30
0.0
 40
2.0
  1
1.312
 41
0.75
 72
     1
 11
57.4809
 21
86.629151
 31
0.0
 73
     2
  0
POINT
  8
DEFPOINTS
  6
BYBLOCK
 62
     0
 10
46.392539
 20
79.557151
 30
0.0
  0
POINT
  8
DEFPOINTS
  6
BYBLOCK
 62
     0
 10
39.939039
 20
80.869151
 30
0.0
  0
POINT
  8
DEFPOINTS
  6
BYBLOCK
 62
     0
 10
50.6609
 20
80.869151
 30
0.0
  0
ENDBLK
  8
0
  0
BLOCK
  8
0
  2
*D16
 70
    65
 10
0.0
 20
0.0
 30
0.0
  3
*D
  0
LINE
  8
0
  6
BYBLOCK
 62
     0
 10
116.08029
 20
117.845634
 30
0.0
 11
116.08029
 21
115.916995
 31
0.0
  0
LINE
  8
0
  6
BYBLOCK
 62
     0
 10
134.39229
 20
117.845634
 30
0.0
 11
134.39229
 21
115.916995
 31
0.0
  0
LINE
  8
0
  6
BYBLOCK
 62
     0
 10
113.20029
 20
117.404995
 30
0.0
 11
110.32029
 21
117.404995
 31
0.0
  0
LINE
  8
0
  6
BYBLOCK
 62
     0
 10
137.27229
 20
117.404995
 30
0.0
 11
140.15229
 21
117.404995
 31
0.0
  0
SOLID
  8
0
  6
BYBLOCK
 62
     0
 10
113.20029
 20
117.884995
 30
0.0
 11
113.20029
 21
116.924995
 31
0.0
 12
116.08029
 22
117.404995
 32
0.0
 13
116.08029
 23
117.404995
 33
0.0
  0
SOLID
  8
0
  6
BYBLOCK
 62
     0
 10
137.27229
 20
117.884995
 30
0.0
 11
137.27229
 21
116.924995
 31
0.0
 12
134.39229
 22
117.404995
 32
0.0
 13
134.39229
 23
117.404995
 33
0.0
  0
TEXT
  8
0
  6
BYBLOCK
 62
     0
 10
124.48629
 20
116.404995
 30
0.0
 40
2.0
  1
 %%p0.062
 41
0.75
 72
     1
 11
128.73629
 21
117.404995
 31
0.0
 73
     2
  0
TEXT
  8
0
  6
BYBLOCK
 62
     0
 10
117.48629
 20
116.404995
 30
0.0
 40
2.0
  1
18.312
 41
0.75
 72
     1
 11
120.73629
 21
117.404995
 31
0.0
 73
     2
  0
POINT
  8
DEFPOINTS
  6
BYBLOCK
 62
     0
 10
116.08029
 20
118.853634
 30
0.0
  0
POINT
  8
DEFPOINTS
  6
BYBLOCK
 62
     0
 10
134.39229
 20
118.853634
 30
0.0
  0
POINT
  8
DEFPOINTS
  6
BYBLOCK
 62
     0
 10
134.39229
 20
117.404995
 30
0.0
  0
ENDBLK
  8
0
  0
BLOCK
  8
0
  2
*D17
 70
    65
 10
0.0
 20
0.0
 30
0.0
  3
*D
  0
LINE
  8
0
  6
BYBLOCK
 62
     0
 10
137.24379
 20
69.822634
 30
0.0
 11
150.95579
 21
69.822634
 31
0.0
  0
LINE
  8
0
  6
BYBLOCK
 62
     0
 10
137.24379
 20
153.884634
 30
0.0
 11
150.95579
 21
153.884634
 31
0.0
  0
LINE
  8
0
  6
BYBLOCK
 62
     0
 10
149.46779
 20
72.702634
 30
0.0
 11
149.46779
 21
109.413634
 31
0.0
  0
LINE
  8
0
  6
BYBLOCK
 62
     0
 10
149.46779
 20
151.004634
 30
0.0
 11
149.46779
 21
114.293634
 31
0.0
  0
SOLID
  8
0
  6
BYBLOCK
 62
     0
 10
148.98779
 20
72.702634
 30
0.0
 11
149.94779
 21
72.702634
 31
0.0
 12
149.46779
 22
69.822634
 32
0.0
 13
149.46779
 23
69.822634
 33
0.0
  0
SOLID
  8
0
  6
BYBLOCK
 62
     0
 10
148.98779
 20
151.004634
 30
0.0
 11
149.94779
 21
151.004634
 31
0.0
 12
149.46779
 22
153.884634
 32
0.0
 13
149.46779
 23
153.884634
 33
0.0
  0
TEXT
  8
0
  6
BYBLOCK
 62
     0
 10
149.09279
 20
110.853634
 30
0.0
 40
2.0
  1
 %%p0.062
 41
0.75
 72
     1
 11
153.34279
 21
111.853634
 31
0.0
 73
     2
  0
TEXT
  8
0
  6
BYBLOCK
 62
     0
 10
141.34279
 20
110.853634
 30
0.0
 40
2.0
  1
84.062
 41
0.75
 72
     1
 11
144.96779
 21
111.853634
 31
0.0
 73
     2
  0
POINT
  8
DEFPOINTS
  6
BYBLOCK
 62
     0
 10
136.23579
 20
69.822634
 30
0.0
  0
POINT
  8
DEFPOINTS
  6
BYBLOCK
 62
     0
 10
136.23579
 20
153.884634
 30
0.0
  0
POINT
  8
DEFPOINTS
  6
BYBLOCK
 62
     0
 10
149.46779
 20
153.884634
 30
0.0
  0
ENDBLK
  8
0
  0
BLOCK
  8
0
  2
*D18
 70
    65
 10
0.0
 20
0.0
 30
0.0
  3
*D
  0
LINE
  8
0
  6
BYBLOCK
 62
     0
 10
24.822039
 20
73.432151
 30
0.0
 11
13.289539
 21
73.432151
 31
0.0
  0
LINE
  8
0
  6
BYBLOCK
 62
     0
 10
24.822039
 20
152.244151
 30
0.0
 11
13.289539
 21
152.244151
 31
0.0
  0
LINE
  8
0
  6
BYBLOCK
 62
     0
 10
14.777539
 20
76.312151
 30
0.0
 11
14.777539
 21
110.398151
 31
0.0
  0
LINE
  8
0
  6
BYBLOCK
 62
     0
 10
14.777539
 20
149.364151
 30
0.0
 11
14.777539
 21
115.278151
 31
0.0
  0
SOLID
  8
0
  6
BYBLOCK
 62
     0
 10
14.297539
 20
76.312151
 30
0.0
 11
15.257539
 21
76.312151
 31
0.0
 12
14.777539
 22
73.432151
 32
0.0
 13
14.777539
 23
73.432151
 33
0.0
  0
SOLID
  8
0
  6
BYBLOCK
 62
     0
 10
14.297539
 20
149.364151
 30
0.0
 11
15.257539
 21
149.364151
 31
0.0
 12
14.777539
 22
152.244151
 32
0.0
 13
14.777539
 23
152.244151
 33
0.0
  0
TEXT
  8
0
  6
BYBLOCK
 62
     0
 10
14.527539
 20
111.838151
 30
0.0
 40
2.0
  1
 %%p0.031
 41
0.75
 72
     1
 11
18.527539
 21
112.838151
 31
0.0
 73
     2
  0
TEXT
  8
0
  6
BYBLOCK
 62
     0
 10
7.027539
 20
111.838151
 30
0.0
 40
2.0
  1
78.812
 41
0.75
 72
     1
 11
10.527539
 21
112.838151
 31
0.0
 73
     2
  0
POINT
  8
DEFPOINTS
  6
BYBLOCK
 62
     0
 10
25.830039
 20
73.432151
 30
0.0
  0
POINT
  8
DEFPOINTS
  6
BYBLOCK
 62
     0
 10
25.830039
 20
152.244151
 30
0.0
  0
POINT
  8
DEFPOINTS
  6
BYBLOCK
 62
     0
 10
14.777539
 20
152.244151
 30
0.0
  0
ENDBLK
  8
0
  0
BLOCK
  8
0
  2
*D19
 70
    65
 10
0.0
 20
0.0
 30
0.0
  3
*D
  0
LINE
  8
0
  6
BYBLOCK
 62
     0
 10
24.822039
 20
73.432151
 30
0.0
 11
13.289539
 21
73.432151
 31
0.0
  0
LINE
  8
0
  6
BYBLOCK
 62
     0
 10
23.384539
 20
70.807151
 30
0.0
 11
13.289539
 21
70.807151
 31
0.0
  0
LINE
  8
0
  6
BYBLOCK
 62
     0
 10
14.777539
 20
76.312151
 30
0.0
 11
14.777539
 21
79.192151
 31
0.0
  0
LINE
  8
0
  6
BYBLOCK
 62
     0
 10
14.777539
 20
67.927151
 30
0.0
 11
14.777539
 21
65.047151
 31
0.0
  0
LINE
  8
0
  6
BYBLOCK
 62
     0
 10
14.777539
 20
65.047151
 30
0.0
 11
11.897539
 21
65.047151
 31
0.0
  0
SOLID
  8
0
  6
BYBLOCK
 62
     0
 10
14.297539
 20
76.312151
 30
0.0
 11
15.257539
 21
76.312151
 31
0.0
 12
14.777539
 22
73.432151
 32
0.0
 13
14.777539
 23
73.432151
 33
0.0
  0
SOLID
  8
0
  6
BYBLOCK
 62
     0
 10
14.297539
 20
67.927151
 30
0.0
 11
15.257539
 21
67.927151
 31
0.0
 12
14.777539
 22
70.807151
 32
0.0
 13
14.777539
 23
70.807151
 33
0.0
  0
TEXT
  8
0
  6
BYBLOCK
 62
     0
 10
4.457539
 20
64.047151
 30
0.0
 40
2.0
  1
2.625
 41
0.75
 72
     1
 11
7.457539
 21
65.047151
 31
0.0
 73
     2
  0
POINT
  8
DEFPOINTS
  6
BYBLOCK
 62
     0
 10
25.830039
 20
73.432151
 30
0.0
  0
POINT
  8
DEFPOINTS
  6
BYBLOCK
 62
     0
 10
24.392539
 20
70.807151
 30
0.0
  0
POINT
  8
DEFPOINTS
  6
BYBLOCK
 62
     0
 10
14.777539
 20
70.807151
 30
0.0
  0
ENDBLK
  8
0
  0
BLOCK
  8
0
  2
*D20
 70
    65
 10
0.0
 20
0.0
 30
0.0
  3
*D
  0
LINE
  8
0
  6
BYBLOCK
 62
     0
 10
136.23579
 20
175.57355
 30
0.0
 11
136.23579
 21
170.586402
 31
0.0
  0
LINE
  8
0
  6
BYBLOCK
 62
     0
 10
132.73579
 20
179.07355
 30
0.0
 11
132.73579
 21
170.586402
 31
0.0
  0
LINE
  8
0
  6
BYBLOCK
 62
     0
 10
139.11579
 20
172.074402
 30
0.0
 11
141.99579
 21
172.074402
 31
0.0
  0
LINE
  8
0
  6
BYBLOCK
 62
     0
 10
129.85579
 20
172.074402
 30
0.0
 11
126.97579
 21
172.074402
 31
0.0
  0
SOLID
  8
0
  6
BYBLOCK
 62
     0
 10
139.11579
 20
172.554402
 30
0.0
 11
139.11579
 21
171.594402
 31
0.0
 12
136.23579
 22
172.074402
 32
0.0
 13
136.23579
 23
172.074402
 33
0.0
  0
SOLID
  8
0
  6
BYBLOCK
 62
     0
 10
129.85579
 20
172.554402
 30
0.0
 11
129.85579
 21
171.594402
 31
0.0
 12
132.73579
 22
172.074402
 32
0.0
 13
132.73579
 23
172.074402
 33
0.0
  0
TEXT
  8
0
  6
BYBLOCK
 62
     0
 10
119.53579
 20
171.074402
 30
0.0
 40
2.0
  1
 TYP.
 41
0.75
 72
     1
 11
122.53579
 21
172.074402
 31
0.0
 73
     2
  0
TEXT
  8
0
  6
BYBLOCK
 62
     0
 10
113.53579
 20
171.074402
 30
0.0
 40
2.0
  1
3.500
 41
0.75
 72
     1
 11
116.28579
 21
172.074402
 31
0.0
 73
     2
  0
POINT
  8
DEFPOINTS
  6
BYBLOCK
 62
     0
 10
136.23579
 20
176.58155
 30
0.0
  0
POINT
  8
DEFPOINTS
  6
BYBLOCK
 62
     0
 10
132.73579
 20
180.08155
 30
0.0
  0
POINT
  8
DEFPOINTS
  6
BYBLOCK
 62
     0
 10
132.73579
 20
172.074402
 30
0.0
  0
ENDBLK
  8
0
  0
BLOCK
  8
0
  2
*D21
 70
    65
 10
0.0
 20
0.0
 30
0.0
  3
*D
  0
LINE
  8
0
  6
BYBLOCK
 62
     0
 10
137.24379
 20
176.58155
 30
0.0
 11
146.853999
 21
176.58155
 31
0.0
  0
LINE
  8
0
  6
BYBLOCK
 62
     0
 10
133.74379
 20
180.08155
 30
0.0
 11
146.853999
 21
180.08155
 31
0.0
  0
LINE
  8
0
  6
BYBLOCK
 62
     0
 10
145.365999
 20
173.70155
 30
0.0
 11
145.365999
 21
170.82155
 31
0.0
  0
LINE
  8
0
  6
BYBLOCK
 62
     0
 10
145.365999
 20
182.96155
 30
0.0
 11
145.365999
 21
185.84155
 31
0.0
  0
SOLID
  8
0
  6
BYBLOCK
 62
     0
 10
144.885999
 20
173.70155
 30
0.0
 11
145.845999
 21
173.70155
 31
0.0
 12
145.365999
 22
176.58155
 32
0.0
 13
145.365999
 23
176.58155
 33
0.0
  0
SOLID
  8
0
  6
BYBLOCK
 62
     0
 10
144.885999
 20
182.96155
 30
0.0
 11
145.845999
 21
182.96155
 31
0.0
 12
145.365999
 22
180.08155
 32
0.0
 13
145.365999
 23
180.08155
 33
0.0
  0
TEXT
  8
0
  6
BYBLOCK
 62
     0
 10
145.365999
 20
177.33155
 30
0.0
 40
2.0
  1
 TYP.
 41
0.75
 72
     1
 11
148.365999
 21
178.33155
 31
0.0
 73
     2
  0
TEXT
  8
0
  6
BYBLOCK
 62
     0
 10
139.365999
 20
177.33155
 30
0.0
 40
2.0
  1
3.500
 41
0.75
 72
     1
 11
142.115999
 21
178.33155
 31
0.0
 73
     2
  0
POINT
  8
DEFPOINTS
  6
BYBLOCK
 62
     0
 10
136.23579
 20
176.58155
 30
0.0
  0
POINT
  8
DEFPOINTS
  6
BYBLOCK
 62
     0
 10
132.73579
 20
180.08155
 30
0.0
  0
POINT
  8
DEFPOINTS
  6
BYBLOCK
 62
     0
 10
145.365999
 20
180.08155
 30
0.0
  0
ENDBLK
  8
0
  0
BLOCK
  8
0
  2
*D22
 70
    65
 10
0.0
 20
0.0
 30
0.0
  3
*D
  0
LINE
  8
0
  6
BYBLOCK
 62
     0
 10
62.198319
 20
195.129867
 30
0.0
 11
62.198319
 21
202.454478
 31
0.0
  0
LINE
  8
0
  6
BYBLOCK
 62
     0
 10
57.698319
 20
195.129867
 30
0.0
 11
57.698319
 21
202.454478
 31
0.0
  0
LINE
  8
0
  6
BYBLOCK
 62
     0
 10
65.078319
 20
200.966478
 30
0.0
 11
67.958319
 21
200.966478
 31
0.0
  0
LINE
  8
0
  6
BYBLOCK
 62
     0
 10
54.818319
 20
200.966478
 30
0.0
 11
51.938319
 21
200.966478
 31
0.0
  0
SOLID
  8
0
  6
BYBLOCK
 62
     0
 10
65.078319
 20
201.446478
 30
0.0
 11
65.078319
 21
200.486478
 31
0.0
 12
62.198319
 22
200.966478
 32
0.0
 13
62.198319
 23
200.966478
 33
0.0
  0
SOLID
  8
0
  6
BYBLOCK
 62
     0
 10
54.818319
 20
201.446478
 30
0.0
 11
54.818319
 21
200.486478
 31
0.0
 12
57.698319
 22
200.966478
 32
0.0
 13
57.698319
 23
200.966478
 33
0.0
  0
TEXT
  8
0
  6
BYBLOCK
 62
     0
 10
44.998319
 20
199.966478
 30
0.0
 40
2.0
  1
4.500
 41
0.75
 72
     1
 11
47.748319
 21
200.966478
 31
0.0
 73
     2
  0
POINT
  8
DEFPOINTS
  6
BYBLOCK
 62
     0
 10
62.198319
 20
194.121867
 30
0.0
  0
POINT
  8
DEFPOINTS
  6
BYBLOCK
 62
     0
 10
57.698319
 20
194.121867
 30
0.0
  0
POINT
  8
DEFPOINTS
  6
BYBLOCK
 62
     0
 10
57.698319
 20
200.966478
 30
0.0
  0
ENDBLK
  8
0
  0
BLOCK
  8
0
  2
*D23
 70
    65
 10
0.0
 20
0.0
 30
0.0
  3
*D
  0
LINE
  8
0
  6
BYBLOCK
 62
     0
 10
63.206319
 20
194.121867
 30
0.0
 11
69.382092
 21
194.121867
 31
0.0
  0
LINE
  8
0
  6
BYBLOCK
 62
     0
 10
63.206319
 20
189.621867
 30
0.0
 11
69.382092
 21
189.621867
 31
0.0
  0
LINE
  8
0
  6
BYBLOCK
 62
     0
 10
67.894092
 20
197.001867
 30
0.0
 11
67.894092
 21
199.881867
 31
0.0
  0
LINE
  8
0
  6
BYBLOCK
 62
     0
 10
67.894092
 20
186.741867
 30
0.0
 11
67.894092
 21
183.861867
 31
0.0
  0
SOLID
  8
0
  6
BYBLOCK
 62
     0
 10
67.414092
 20
197.001867
 30
0.0
 11
68.374092
 21
197.001867
 31
0.0
 12
67.894092
 22
194.121867
 32
0.0
 13
67.894092
 23
194.121867
 33
0.0
  0
SOLID
  8
0
  6
BYBLOCK
 62
     0
 10
67.414092
 20
186.741867
 30
0.0
 11
68.374092
 21
186.741867
 31
0.0
 12
67.894092
 22
189.621867
 32
0.0
 13
67.894092
 23
189.621867
 33
0.0
  0
TEXT
  8
0
  6
BYBLOCK
 62
     0
 10
65.144092
 20
190.871867
 30
0.0
 40
2.0
  1
4.500
 41
0.75
 72
     1
 11
67.894092
 21
191.871867
 31
0.0
 73
     2
  0
POINT
  8
DEFPOINTS
  6
BYBLOCK
 62
     0
 10
62.198319
 20
194.121867
 30
0.0
  0
POINT
  8
DEFPOINTS
  6
BYBLOCK
 62
     0
 10
62.198319
 20
189.621867
 30
0.0
  0
POINT
  8
DEFPOINTS
  6
BYBLOCK
 62
     0
 10
67.894092
 20
189.621867
 30
0.0
  0
ENDBLK
  8
0
  0
BLOCK
  8
0
  2
*D24
 70
    65
 10
0.0
 20
0.0
 30
0.0
  3
*D
  0
LINE
  8
0
  6
BYBLOCK
 62
     0
 10
132.07979
 20
44.083267
 30
0.0
 11
132.07979
 21
54.375267
 31
0.0
  0
LINE
  8
0
  6
BYBLOCK
 62
     0
 10
133.82979
 20
44.083267
 30
0.0
 11
133.82979
 21
54.375267
 31
0.0
  0
LINE
  8
0
  6
BYBLOCK
 62
     0
 10
129.19979
 20
52.887267
 30
0.0
 11
126.31979
 21
52.887267
 31
0.0
  0
LINE
  8
0
  6
BYBLOCK
 62
     0
 10
136.70979
 20
52.887267
 30
0.0
 11
139.58979
 21
52.887267
 31
0.0
  0
SOLID
  8
0
  6
BYBLOCK
 62
     0
 10
129.19979
 20
53.367267
 30
0.0
 11
129.19979
 21
52.407267
 31
0.0
 12
132.07979
 22
52.887267
 32
0.0
 13
132.07979
 23
52.887267
 33
0.0
  0
SOLID
  8
0
  6
BYBLOCK
 62
     0
 10
136.70979
 20
53.367267
 30
0.0
 11
136.70979
 21
52.407267
 31
0.0
 12
133.82979
 22
52.887267
 32
0.0
 13
133.82979
 23
52.887267
 33
0.0
  0
TEXT
  8
0
  6
BYBLOCK
 62
     0
 10
141.02979
 20
51.887267
 30
0.0
 40
2.0
  1
1.750
 41
0.75
 72
     1
 11
143.65479
 21
52.887267
 31
0.0
 73
     2
  0
POINT
  8
DEFPOINTS
  6
BYBLOCK
 62
     0
 10
132.07979
 20
43.075267
 30
0.0
  0
POINT
  8
DEFPOINTS
  6
BYBLOCK
 62
     0
 10
133.82979
 20
43.075267
 30
0.0
  0
POINT
  8
DEFPOINTS
  6
BYBLOCK
 62
     0
 10
133.82979
 20
52.887267
 30
0.0
  0
ENDBLK
  8
0
  0
BLOCK
  8
0
  2
*D25
 70
    65
 10
0.0
 20
0.0
 30
0.0
  3
*D
  0
LINE
  8
0
  6
BYBLOCK
 62
     0
 10
133.82979
 20
44.083267
 30
0.0
 11
133.82979
 21
58.375267
 31
0.0
  0
LINE
  8
0
  6
BYBLOCK
 62
     0
 10
136.23579
 20
45.911267
 30
0.0
 11
136.23579
 21
58.375267
 31
0.0
  0
LINE
  8
0
  6
BYBLOCK
 62
     0
 10
130.94979
 20
56.887267
 30
0.0
 11
128.06979
 21
56.887267
 31
0.0
  0
LINE
  8
0
  6
BYBLOCK
 62
     0
 10
139.11579
 20
56.887267
 30
0.0
 11
141.99579
 21
56.887267
 31
0.0
  0
SOLID
  8
0
  6
BYBLOCK
 62
     0
 10
130.94979
 20
57.367267
 30
0.0
 11
130.94979
 21
56.407267
 31
0.0
 12
133.82979
 22
56.887267
 32
0.0
 13
133.82979
 23
56.887267
 33
0.0
  0
SOLID
  8
0
  6
BYBLOCK
 62
     0
 10
139.11579
 20
57.367267
 30
0.0
 11
139.11579
 21
56.407267
 31
0.0
 12
136.23579
 22
56.887267
 32
0.0
 13
136.23579
 23
56.887267
 33
0.0
  0
TEXT
  8
0
  6
BYBLOCK
 62
     0
 10
143.43579
 20
55.887267
 30
0.0
 40
2.0
  1
2.406
 41
0.75
 72
     1
 11
146.31079
 21
56.887267
 31
0.0
 73
     2
  0
POINT
  8
DEFPOINTS
  6
BYBLOCK
 62
     0
 10
133.82979
 20
43.075267
 30
0.0
  0
POINT
  8
DEFPOINTS
  6
BYBLOCK
 62
     0
 10
136.23579
 20
44.903267
 30
0.0
  0
POINT
  8
DEFPOINTS
  6
BYBLOCK
 62
     0
 10
136.23579
 20
56.887267
 30
0.0
  0
ENDBLK
  8
0
  0
BLOCK
  8
0
  2
*D26
 70
    65
 10
0.0
 20
0.0
 30
0.0
  3
*D
  0
LINE
  8
0
  6
BYBLOCK
 62
     0
 10
114.23579
 20
48.536267
 30
0.0
 11
114.23579
 21
53.000267
 31
0.0
  0
LINE
  8
0
  6
BYBLOCK
 62
     0
 10
125.23579
 20
34.511267
 30
0.0
 11
125.23579
 21
53.000267
 31
0.0
  0
LINE
  8
0
  6
BYBLOCK
 62
     0
 10
111.35579
 20
51.512267
 30
0.0
 11
108.47579
 21
51.512267
 31
0.0
  0
LINE
  8
0
  6
BYBLOCK
 62
     0
 10
128.11579
 20
51.512267
 30
0.0
 11
130.99579
 21
51.512267
 31
0.0
  0
SOLID
  8
0
  6
BYBLOCK
 62
     0
 10
111.35579
 20
51.992267
 30
0.0
 11
111.35579
 21
51.032267
 31
0.0
 12
114.23579
 22
51.512267
 32
0.0
 13
114.23579
 23
51.512267
 33
0.0
  0
SOLID
  8
0
  6
BYBLOCK
 62
     0
 10
128.11579
 20
51.992267
 30
0.0
 11
128.11579
 21
51.032267
 31
0.0
 12
125.23579
 22
51.512267
 32
0.0
 13
125.23579
 23
51.512267
 33
0.0
  0
TEXT
  8
0
  6
BYBLOCK
 62
     0
 10
116.86079
 20
50.512267
 30
0.0
 40
2.0
  1
11.000
 41
0.75
 72
     1
 11
119.73579
 21
51.512267
 31
0.0
 73
     2
  0
POINT
  8
DEFPOINTS
  6
BYBLOCK
 62
     0
 10
114.23579
 20
47.528267
 30
0.0
  0
POINT
  8
DEFPOINTS
  6
BYBLOCK
 62
     0
 10
125.23579
 20
33.503267
 30
0.0
  0
POINT
  8
DEFPOINTS
  6
BYBLOCK
 62
     0
 10
125.23579
 20
51.512267
 30
0.0
  0
ENDBLK
  8
0
  0
BLOCK
  8
0
  2
*D27
 70
    65
 10
0.0
 20
0.0
 30
0.0
  3
*D
  0
LINE
  8
0
  6
BYBLOCK
 62
     0
 10
113.22779
 20
47.528267
 30
0.0
 11
104.76379
 21
47.528267
 31
0.0
  0
LINE
  8
0
  6
BYBLOCK
 62
     0
 10
122.87779
 20
32.153267
 30
0.0
 11
104.76379
 21
32.153267
 31
0.0
  0
LINE
  8
0
  6
BYBLOCK
 62
     0
 10
106.25179
 20
44.648267
 30
0.0
 11
106.25179
 21
42.280767
 31
0.0
  0
LINE
  8
0
  6
BYBLOCK
 62
     0
 10
106.25179
 20
35.033267
 30
0.0
 11
106.25179
 21
37.400767
 31
0.0
  0
SOLID
  8
0
  6
BYBLOCK
 62
     0
 10
105.77179
 20
44.648267
 30
0.0
 11
106.73179
 21
44.648267
 31
0.0
 12
106.25179
 22
47.528267
 32
0.0
 13
106.25179
 23
47.528267
 33
0.0
  0
SOLID
  8
0
  6
BYBLOCK
 62
     0
 10
105.77179
 20
35.033267
 30
0.0
 11
106.73179
 21
35.033267
 31
0.0
 12
106.25179
 22
32.153267
 32
0.0
 13
106.25179
 23
32.153267
 33
0.0
  0
TEXT
  8
0
  6
BYBLOCK
 62
     0
 10
102.75179
 20
38.840767
 30
0.0
 40
2.0
  1
15.375
 41
0.75
 72
     1
 11
106.25179
 21
39.840767
 31
0.0
 73
     2
  0
POINT
  8
DEFPOINTS
  6
BYBLOCK
 62
     0
 10
114.23579
 20
47.528267
 30
0.0
  0
POINT
  8
DEFPOINTS
  6
BYBLOCK
 62
     0
 10
123.88579
 20
32.153267
 30
0.0
  0
POINT
  8
DEFPOINTS
  6
BYBLOCK
 62
     0
 10
106.25179
 20
32.153267
 30
0.0
  0
ENDBLK
  8
0
  0
BLOCK
  8
0
  2
*D28
 70
    65
 10
0.0
 20
0.0
 30
0.0
  3
*D
  0
LINE
  8
0
  6
BYBLOCK
 62
     0
 10
119.68129
 20
18.606267
 30
0.0
 11
108.76379
 21
18.606267
 31
0.0
  0
LINE
  8
0
  6
BYBLOCK
 62
     0
 10
113.22779
 20
16.778267
 30
0.0
 11
108.76379
 21
16.778267
 31
0.0
  0
LINE
  8
0
  6
BYBLOCK
 62
     0
 10
110.25179
 20
21.486267
 30
0.0
 11
110.25179
 21
24.366267
 31
0.0
  0
LINE
  8
0
  6
BYBLOCK
 62
     0
 10
110.25179
 20
13.898267
 30
0.0
 11
110.25179
 21
11.018267
 31
0.0
  0
LINE
  8
0
  6
BYBLOCK
 62
     0
 10
110.25179
 20
11.018267
 30
0.0
 11
107.37179
 21
11.018267
 31
0.0
  0
SOLID
  8
0
  6
BYBLOCK
 62
     0
 10
109.77179
 20
21.486267
 30
0.0
 11
110.73179
 21
21.486267
 31
0.0
 12
110.25179
 22
18.606267
 32
0.0
 13
110.25179
 23
18.606267
 33
0.0
  0
SOLID
  8
0
  6
BYBLOCK
 62
     0
 10
109.77179
 20
13.898267
 30
0.0
 11
110.73179
 21
13.898267
 31
0.0
 12
110.25179
 22
16.778267
 32
0.0
 13
110.25179
 23
16.778267
 33
0.0
  0
TEXT
  8
0
  6
BYBLOCK
 62
     0
 10
100.43179
 20
10.018267
 30
0.0
 40
2.0
  1
1.828
 41
0.75
 72
     1
 11
103.18179
 21
11.018267
 31
0.0
 73
     2
  0
POINT
  8
DEFPOINTS
  6
BYBLOCK
 62
     0
 10
120.68929
 20
18.606267
 30
0.0
  0
POINT
  8
DEFPOINTS
  6
BYBLOCK
 62
     0
 10
114.23579
 20
16.778267
 30
0.0
  0
POINT
  8
DEFPOINTS
  6
BYBLOCK
 62
     0
 10
110.25179
 20
16.778267
 30
0.0
  0
ENDBLK
  8
0
  0
BLOCK
  8
0
  2
*D29
 70
    65
 10
0.0
 20
0.0
 30
0.0
  3
*D
  0
LINE
  8
0
  6
BYBLOCK
 62
     0
 10
129.78229
 20
17.598267
 30
0.0
 11
129.78229
 21
12.794267
 31
0.0
  0
LINE
  8
0
  6
BYBLOCK
 62
     0
 10
136.23579
 20
15.770267
 30
0.0
 11
136.23579
 21
12.794267
 31
0.0
  0
LINE
  8
0
  6
BYBLOCK
 62
     0
 10
126.90229
 20
14.282267
 30
0.0
 11
124.02229
 21
14.282267
 31
0.0
  0
LINE
  8
0
  6
BYBLOCK
 62
     0
 10
139.11579
 20
14.282267
 30
0.0
 11
141.99579
 21
14.282267
 31
0.0
  0
SOLID
  8
0
  6
BYBLOCK
 62
     0
 10
126.90229
 20
14.762267
 30
0.0
 11
126.90229
 21
13.802267
 31
0.0
 12
129.78229
 22
14.282267
 32
0.0
 13
129.78229
 23
14.282267
 33
0.0
  0
SOLID
  8
0
  6
BYBLOCK
 62
     0
 10
139.11579
 20
14.762267
 30
0.0
 11
139.11579
 21
13.802267
 31
0.0
 12
136.23579
 22
14.282267
 32
0.0
 13
136.23579
 23
14.282267
 33
0.0
  0
TEXT
  8
0
  6
BYBLOCK
 62
     0
 10
143.43579
 20
13.282267
 30
0.0
 40
2.0
  1
6.453
 41
0.75
 72
     1
 11
146.43579
 21
14.282267
 31
0.0
 73
     2
  0
POINT
  8
DEFPOINTS
  6
BYBLOCK
 62
     0
 10
129.78229
 20
18.606267
 30
0.0
  0
POINT
  8
DEFPOINTS
  6
BYBLOCK
 62
     0
 10
136.23579
 20
16.778267
 30
0.0
  0
POINT
  8
DEFPOINTS
  6
BYBLOCK
 62
     0
 10
136.23579
 20
14.282267
 30
0.0
  0
ENDBLK
  8
0
  0
BLOCK
  8
0
  2
*D30
 70
    65
 10
0.0
 20
0.0
 30
0.0
  3
*D
  0
LINE
  8
0
  6
BYBLOCK
 62
     0
 10
120.68929
 20
17.598267
 30
0.0
 11
120.68929
 21
8.794267
 31
0.0
  0
LINE
  8
0
  6
BYBLOCK
 62
     0
 10
129.78229
 20
17.598267
 30
0.0
 11
129.78229
 21
8.794267
 31
0.0
  0
LINE
  8
0
  6
BYBLOCK
 62
     0
 10
117.80929
 20
10.282267
 30
0.0
 11
114.92929
 21
10.282267
 31
0.0
  0
LINE
  8
0
  6
BYBLOCK
 62
     0
 10
132.66229
 20
10.282267
 30
0.0
 11
135.54229
 21
10.282267
 31
0.0
  0
SOLID
  8
0
  6
BYBLOCK
 62
     0
 10
117.80929
 20
10.762267
 30
0.0
 11
117.80929
 21
9.802267
 31
0.0
 12
120.68929
 22
10.282267
 32
0.0
 13
120.68929
 23
10.282267
 33
0.0
  0
SOLID
  8
0
  6
BYBLOCK
 62
     0
 10
132.66229
 20
10.762267
 30
0.0
 11
132.66229
 21
9.802267
 31
0.0
 12
129.78229
 22
10.282267
 32
0.0
 13
129.78229
 23
10.282267
 33
0.0
  0
TEXT
  8
0
  6
BYBLOCK
 62
     0
 10
122.36079
 20
9.282267
 30
0.0
 40
2.0
  1
9.093
 41
0.75
 72
     1
 11
125.23579
 21
10.282267
 31
0.0
 73
     2
  0
POINT
  8
DEFPOINTS
  6
BYBLOCK
 62
     0
 10
120.68929
 20
18.606267
 30
0.0
  0
POINT
  8
DEFPOINTS
  6
BYBLOCK
 62
     0
 10
129.78229
 20
18.606267
 30
0.0
  0
POINT
  8
DEFPOINTS
  6
BYBLOCK
 62
     0
 10
129.78229
 20
10.282267
 30
0.0
  0
ENDBLK
  8
0
  0
BLOCK
  8
0
  2
*D31
 70
    65
 10
0.0
 20
0.0
 30
0.0
  3
*D
  0
LINE
  8
0
  6
BYBLOCK
 62
     0
 10
94.488433
 20
157.143517
 30
0.0
 11
94.488433
 21
172.375517
 31
0.0
  0
LINE
  8
0
  6
BYBLOCK
 62
     0
 10
63.738433
 20
157.143517
 30
0.0
 11
63.738433
 21
172.375517
 31
0.0
  0
LINE
  8
0
  6
BYBLOCK
 62
     0
 10
91.608433
 20
170.887517
 30
0.0
 11
88.553433
 21
170.887517
 31
0.0
  0
LINE
  8
0
  6
BYBLOCK
 62
     0
 10
66.618433
 20
170.887517
 30
0.0
 11
69.673433
 21
170.887517
 31
0.0
  0
SOLID
  8
0
  6
BYBLOCK
 62
     0
 10
91.608433
 20
171.367517
 30
0.0
 11
91.608433
 21
170.407517
 31
0.0
 12
94.488433
 22
170.887517
 32
0.0
 13
94.488433
 23
170.887517
 33
0.0
  0
SOLID
  8
0
  6
BYBLOCK
 62
     0
 10
66.618433
 20
171.367517
 30
0.0
 11
66.618433
 21
170.407517
 31
0.0
 12
63.738433
 22
170.887517
 32
0.0
 13
63.738433
 23
170.887517
 33
0.0
  0
TEXT
  8
0
  6
BYBLOCK
 62
     0
 10
78.613433
 20
169.887517
 30
0.0
 40
2.0
  1
 %%p0.062
 41
0.75
 72
     1
 11
82.863433
 21
170.887517
 31
0.0
 73
     2
  0
TEXT
  8
0
  6
BYBLOCK
 62
     0
 10
71.113433
 20
169.887517
 30
0.0
 40
2.0
  1
30.750
 41
0.75
 72
     1
 11
74.613433
 21
170.887517
 31
0.0
 73
     2
  0
POINT
  8
DEFPOINTS
  6
BYBLOCK
 62
     0
 10
94.488433
 20
156.135517
 30
0.0
  0
POINT
  8
DEFPOINTS
  6
BYBLOCK
 62
     0
 10
63.738433
 20
156.135517
 30
0.0
  0
POINT
  8
DEFPOINTS
  6
BYBLOCK
 62
     0
 10
63.738433
 20
170.887517
 30
0.0
  0
ENDBLK
  8
0
  0
BLOCK
  8
0
  2
*D32
 70
    65
 10
0.0
 20
0.0
 30
0.0
  3
*D
  0
LINE
  8
0
  6
BYBLOCK
 62
     0
 10
64.488433
 20
91.444548
 30
0.0
 11
64.488433
 21
91.924548
 31
0.0
  0
LINE
  8
0
  6
BYBLOCK
 62
     0
 10
93.738433
 20
91.444548
 30
0.0
 11
93.738433
 21
91.924548
 31
0.0
  0
LINE
  8
0
  6
BYBLOCK
 62
     0
 10
67.368433
 20
90.436548
 30
0.0
 11
70.548433
 21
90.436548
 31
0.0
  0
LINE
  8
0
  6
BYBLOCK
 62
     0
 10
90.858433
 20
90.436548
 30
0.0
 11
87.678433
 21
90.436548
 31
0.0
  0
SOLID
  8
0
  6
BYBLOCK
 62
     0
 10
67.368433
 20
90.916548
 30
0.0
 11
67.368433
 21
89.956548
 31
0.0
 12
64.488433
 22
90.436548
 32
0.0
 13
64.488433
 23
90.436548
 33
0.0
  0
SOLID
  8
0
  6
BYBLOCK
 62
     0
 10
90.858433
 20
90.916548
 30
0.0
 11
90.858433
 21
89.956548
 31
0.0
 12
93.738433
 22
90.436548
 32
0.0
 13
93.738433
 23
90.436548
 33
0.0
  0
TEXT
  8
0
  6
BYBLOCK
 62
     0
 10
79.738433
 20
89.436548
 30
0.0
 40
2.0
  1
 C.I.D.
 41
0.75
 72
     1
 11
82.988433
 21
90.436548
 31
0.0
 73
     2
  0
TEXT
  8
0
  6
BYBLOCK
 62
     0
 10
71.988433
 20
89.436548
 30
0.0
 40
2.0
  1
29.250
 41
0.75
 72
     1
 11
75.613433
 21
90.436548
 31
0.0
 73
     2
  0
POINT
  8
DEFPOINTS
  6
BYBLOCK
 62
     0
 10
64.488433
 20
90.436548
 30
0.0
  0
POINT
  8
DEFPOINTS
  6
BYBLOCK
 62
     0
 10
93.738433
 20
90.436548
 30
0.0
  0
POINT
  8
DEFPOINTS
  6
BYBLOCK
 62
     0
 10
93.738433
 20
90.436548
 30
0.0
  0
ENDBLK
  8
0
  0
BLOCK
  8
0
  2
*D33
 70
    65
 10
0.0
 20
0.0
 30
0.0
  3
*D
  0
LINE
  8
0
  6
BYBLOCK
 62
     0
 10
94.121183
 20
115.479517
 30
0.0
 11
102.074186
 21
115.479517
 31
0.0
  0
LINE
  8
0
  6
BYBLOCK
 62
     0
 10
94.121183
 20
151.760517
 30
0.0
 11
102.074186
 21
151.760517
 31
0.0
  0
LINE
  8
0
  6
BYBLOCK
 62
     0
 10
100.586186
 20
118.359517
 30
0.0
 11
100.586186
 21
131.180017
 31
0.0
  0
LINE
  8
0
  6
BYBLOCK
 62
     0
 10
100.586186
 20
148.880517
 30
0.0
 11
100.586186
 21
136.060017
 31
0.0
  0
SOLID
  8
0
  6
BYBLOCK
 62
     0
 10
100.106186
 20
118.359517
 30
0.0
 11
101.066186
 21
118.359517
 31
0.0
 12
100.586186
 22
115.479517
 32
0.0
 13
100.586186
 23
115.479517
 33
0.0
  0
SOLID
  8
0
  6
BYBLOCK
 62
     0
 10
100.106186
 20
148.880517
 30
0.0
 11
101.066186
 21
148.880517
 31
0.0
 12
100.586186
 22
151.760517
 32
0.0
 13
100.586186
 23
151.760517
 33
0.0
  0
TEXT
  8
0
  6
BYBLOCK
 62
     0
 10
97.086186
 20
132.620017
 30
0.0
 40
2.0
  1
36.281
 41
0.75
 72
     1
 11
100.586186
 21
133.620017
 31
0.0
 73
     2
  0
POINT
  8
DEFPOINTS
  6
BYBLOCK
 62
     0
 10
93.113183
 20
115.479517
 30
0.0
  0
POINT
  8
DEFPOINTS
  6
BYBLOCK
 62
     0
 10
93.113183
 20
151.760517
 30
0.0
  0
POINT
  8
DEFPOINTS
  6
BYBLOCK
 62
     0
 10
100.586186
 20
151.760517
 30
0.0
  0
ENDBLK
  8
0
  0
BLOCK
  8
0
  2
*D34
 70
    65
 10
0.0
 20
0.0
 30
0.0
  3
*D
  0
LINE
  8
0
  6
BYBLOCK
 62
     0
 10
94.121183
 20
112.729517
 30
0.0
 11
102.074186
 21
112.729517
 31
0.0
  0
LINE
  8
0
  6
BYBLOCK
 62
     0
 10
94.121183
 20
115.479517
 30
0.0
 11
102.074186
 21
115.479517
 31
0.0
  0
LINE
  8
0
  6
BYBLOCK
 62
     0
 10
100.586186
 20
109.849517
 30
0.0
 11
100.586186
 21
106.969517
 31
0.0
  0
LINE
  8
0
  6
BYBLOCK
 62
     0
 10
100.586186
 20
118.359517
 30
0.0
 11
100.586186
 21
121.239517
 31
0.0
  0
SOLID
  8
0
  6
BYBLOCK
 62
     0
 10
100.106186
 20
109.849517
 30
0.0
 11
101.066186
 21
109.849517
 31
0.0
 12
100.586186
 22
112.729517
 32
0.0
 13
100.586186
 23
112.729517
 33
0.0
  0
SOLID
  8
0
  6
BYBLOCK
 62
     0
 10
100.106186
 20
118.359517
 30
0.0
 11
101.066186
 21
118.359517
 31
0.0
 12
100.586186
 22
115.479517
 32
0.0
 13
100.586186
 23
115.479517
 33
0.0
  0
TEXT
  8
0
  6
BYBLOCK
 62
     0
 10
97.711186
 20
113.104517
 30
0.0
 40
2.0
  1
2.750
 41
0.75
 72
     1
 11
100.586186
 21
114.104517
 31
0.0
 73
     2
  0
POINT
  8
DEFPOINTS
  6
BYBLOCK
 62
     0
 10
93.113183
 20
112.729517
 30
0.0
  0
POINT
  8
DEFPOINTS
  6
BYBLOCK
 62
     0
 10
93.113183
 20
115.479517
 30
0.0
  0
POINT
  8
DEFPOINTS
  6
BYBLOCK
 62
     0
 10
100.586186
 20
115.479517
 30
0.0
  0
ENDBLK
  8
0
  0
BLOCK
  8
0
  2
*D35
 70
    65
 10
0.0
 20
0.0
 30
0.0
  3
*D
  0
LINE
  8
0
  6
BYBLOCK
 62
     0
 10
94.121183
 20
76.448517
 30
0.0
 11
102.074186
 21
76.448517
 31
0.0
  0
LINE
  8
0
  6
BYBLOCK
 62
     0
 10
95.496433
 20
72.073517
 30
0.0
 11
102.074186
 21
72.073517
 31
0.0
  0
LINE
  8
0
  6
BYBLOCK
 62
     0
 10
100.586186
 20
79.328517
 30
0.0
 11
100.586186
 21
82.208517
 31
0.0
  0
LINE
  8
0
  6
BYBLOCK
 62
     0
 10
100.586186
 20
69.193517
 30
0.0
 11
100.586186
 21
66.313517
 31
0.0
  0
SOLID
  8
0
  6
BYBLOCK
 62
     0
 10
100.106186
 20
79.328517
 30
0.0
 11
101.066186
 21
79.328517
 31
0.0
 12
100.586186
 22
76.448517
 32
0.0
 13
100.586186
 23
76.448517
 33
0.0
  0
SOLID
  8
0
  6
BYBLOCK
 62
     0
 10
100.106186
 20
69.193517
 30
0.0
 11
101.066186
 21
69.193517
 31
0.0
 12
100.586186
 22
72.073517
 32
0.0
 13
100.586186
 23
72.073517
 33
0.0
  0
TEXT
  8
0
  6
BYBLOCK
 62
     0
 10
97.586186
 20
73.261017
 30
0.0
 40
2.0
  1
4.375
 41
0.75
 72
     1
 11
100.586186
 21
74.261017
 31
0.0
 73
     2
  0
POINT
  8
DEFPOINTS
  6
BYBLOCK
 62
     0
 10
93.113183
 20
76.448517
 30
0.0
  0
POINT
  8
DEFPOINTS
  6
BYBLOCK
 62
     0
 10
94.488433
 20
72.073517
 30
0.0
  0
POINT
  8
DEFPOINTS
  6
BYBLOCK
 62
     0
 10
100.586186
 20
72.073517
 30
0.0
  0
ENDBLK
  8
0
  0
BLOCK
  8
0
  2
*D36
 70
    65
 10
0.0
 20
0.0
 30
0.0
  3
*D
  0
LINE
  8
0
  6
BYBLOCK
 62
     0
 10
94.121183
 20
76.448517
 30
0.0
 11
102.074186
 21
76.448517
 31
0.0
  0
LINE
  8
0
  6
BYBLOCK
 62
     0
 10
94.121183
 20
112.729517
 30
0.0
 11
102.074186
 21
112.729517
 31
0.0
  0
LINE
  8
0
  6
BYBLOCK
 62
     0
 10
100.586186
 20
79.328517
 30
0.0
 11
100.586186
 21
92.149017
 31
0.0
  0
LINE
  8
0
  6
BYBLOCK
 62
     0
 10
100.586186
 20
109.849517
 30
0.0
 11
100.586186
 21
97.029017
 31
0.0
  0
SOLID
  8
0
  6
BYBLOCK
 62
     0
 10
100.106186
 20
79.328517
 30
0.0
 11
101.066186
 21
79.328517
 31
0.0
 12
100.586186
 22
76.448517
 32
0.0
 13
100.586186
 23
76.448517
 33
0.0
  0
SOLID
  8
0
  6
BYBLOCK
 62
     0
 10
100.106186
 20
109.849517
 30
0.0
 11
101.066186
 21
109.849517
 31
0.0
 12
100.586186
 22
112.729517
 32
0.0
 13
100.586186
 23
112.729517
 33
0.0
  0
TEXT
  8
0
  6
BYBLOCK
 62
     0
 10
97.086186
 20
93.589017
 30
0.0
 40
2.0
  1
36.281
 41
0.75
 72
     1
 11
100.586186
 21
94.589017
 31
0.0
 73
     2
  0
POINT
  8
DEFPOINTS
  6
BYBLOCK
 62
     0
 10
93.113183
 20
76.448517
 30
0.0
  0
POINT
  8
DEFPOINTS
  6
BYBLOCK
 62
     0
 10
93.113183
 20
112.729517
 30
0.0
  0
POINT
  8
DEFPOINTS
  6
BYBLOCK
 62
     0
 10
100.586186
 20
112.729517
 30
0.0
  0
ENDBLK
  8
0
  0
BLOCK
  8
0
  2
*D37
 70
    65
 10
0.0
 20
0.0
 30
0.0
  3
*D
  0
LINE
  8
0
  6
BYBLOCK
 62
     0
 10
94.121183
 20
151.760517
 30
0.0
 11
102.074186
 21
151.760517
 31
0.0
  0
LINE
  8
0
  6
BYBLOCK
 62
     0
 10
95.496433
 20
156.135517
 30
0.0
 11
102.074186
 21
156.135517
 31
0.0
  0
LINE
  8
0
  6
BYBLOCK
 62
     0
 10
100.586186
 20
148.880517
 30
0.0
 11
100.586186
 21
146.000517
 31
0.0
  0
LINE
  8
0
  6
BYBLOCK
 62
     0
 10
100.586186
 20
159.015517
 30
0.0
 11
100.586186
 21
161.895517
 31
0.0
  0
SOLID
  8
0
  6
BYBLOCK
 62
     0
 10
100.106186
 20
148.880517
 30
0.0
 11
101.066186
 21
148.880517
 31
0.0
 12
100.586186
 22
151.760517
 32
0.0
 13
100.586186
 23
151.760517
 33
0.0
  0
SOLID
  8
0
  6
BYBLOCK
 62
     0
 10
100.106186
 20
159.015517
 30
0.0
 11
101.066186
 21
159.015517
 31
0.0
 12
100.586186
 22
156.135517
 32
0.0
 13
100.586186
 23
156.135517
 33
0.0
  0
TEXT
  8
0
  6
BYBLOCK
 62
     0
 10
97.586186
 20
152.948017
 30
0.0
 40
2.0
  1
4.375
 41
0.75
 72
     1
 11
100.586186
 21
153.948017
 31
0.0
 73
     2
  0
POINT
  8
DEFPOINTS
  6
BYBLOCK
 62
     0
 10
93.113183
 20
151.760517
 30
0.0
  0
POINT
  8
DEFPOINTS
  6
BYBLOCK
 62
     0
 10
94.488433
 20
156.135517
 30
0.0
  0
POINT
  8
DEFPOINTS
  6
BYBLOCK
 62
     0
 10
100.586186
 20
156.135517
 30
0.0
  0
ENDBLK
  8
0
  0
ENDSEC
  0
SECTION
  2
ENTITIES
  0
TEXT
  8
DIM
 10
67.947406
 20
108.685211
 30
0.0
 40
1.25
  1

  0
TEXT
  8
DIM
 10
69.009906
 20
104.591452
 30
0.0
 40
1.0
  1

  0
TEXT
  8
OBJECT
 10
69.86665
 20
155.28811
 30
0.0
 40
1.25
  1

  0
INSERT
  8
TITLE
  2
HB
 10
0.0
 20
0.0
 30
0.0
 41
16.0
 42
16.0
 43
16.0
  0
TEXT
  8
TEXT
 10
33.541571
 20
242.416
 30
0.0
 40
2.499429
  1
TURNKEY CABINET
 41
0.75
 72
     1
 11
46.976
 21
242.416
 31
0.0
  0
TEXT
  8
TEXT
 10
121.347643
 20
242.416
 30
0.0
 40
2.499429
  1
DC-8078
 41
0.75
 72
     1
 11
127.44
 21
242.416
 31
0.0
  0
TEXT
  8
DIM
 10
221.381413
 20
120.925461
 30
0.0
 40
1.25
  1

  0
TEXT
  8
DIM
 10
222.443913
 20
116.831703
 30
0.0
 40
1.0
  1

  0
TEXT
  8
OBJECT
 10
223.300657
 20
167.52836
 30
0.0
 40
1.25
  1

  0
TEXT
  8
DIM
 10
-32.554051
 20
108.835018
 30
0.0
 40
1.25
  1

  0
TEXT
  8
DIM
 10
-31.491551
 20
104.74126
 30
0.0
 40
1.0
  1

  0
TEXT
  8
OBJECT
 10
-30.634808
 20
155.437917
 30
0.0
 40
1.25
  1

  0
TEXT
  8
DIM
 10
213.445949
 20
108.835018
 30
0.0
 40
1.25
  1

  0
TEXT
  8
DIM
 10
214.508449
 20
104.74126
 30
0.0
 40
1.0
  1

  0
TEXT
  8
OBJECT
 10
215.365192
 20
155.437917
 30
0.0
 40
1.25
  1

  0
TEXT
  8
DIM
 10
418.445949
 20
108.835018
 30
0.0
 40
1.25
  1

  0
TEXT
  8
DIM
 10
419.508449
 20
104.74126
 30
0.0
 40
1.0
  1

  0
TEXT
  8
OBJECT
 10
420.365192
 20
155.437917
 30
0.0
 40
1.25
  1

  0
TEXT
  8
DIM
 10
623.445949
 20
108.835018
 30
0.0
 40
1.25
  1

  0
TEXT
  8
DIM
 10
624.508449
 20
104.74126
 30
0.0
 40
1.0
  1

  0
TEXT
  8
DIM
 10
787.445949
 20
108.835018
 30
0.0
 40
1.25
  1

  0
TEXT
  8
DIM
 10
788.508449
 20
104.74126
 30
0.0
 40
1.0
  1

  0
TEXT
  8
OBJECT
 10
789.365192
 20
155.437917
 30
0.0
 40
1.25
  1

  0
TEXT
  8
DIM
 10
787.445949
 20
108.835018
 30
0.0
 40
1.25
  1

  0
TEXT
  8
DIM
 10
788.508449
 20
104.74126
 30
0.0
 40
1.0
  1

  0
TEXT
  8
OBJECT
 10
789.365192
 20
155.437917
 30
0.0
 40
1.25
  1

  0
TEXT
  8
DIM
 10
805.413326
 20
293.759395
 30
0.0
 40
0.72
  1

  0
TEXT
  8
DIM
 10
741.877449
 20
270.884129
 30
0.0
 40
0.72
  1

  0
TEXT
  8
DIM
 10
892.78977
 20
221.762391
 30
0.0
 40
0.72
  1

  0
TEXT
  8
DIM
 10
829.253894
 20
198.887126
 30
0.0
 40
0.72
  1

  0
TEXT
  8
DIM
 10
795.443126
 20
307.374357
 30
0.0
 40
0.72
  1

  0
TEXT
  8
DIM
 10
731.90725
 20
284.499092
 30
0.0
 40
0.72
  1

  0
TEXT
  8
DIM
 10
731.90725
 20
324.499092
 30
0.0
 40
0.72
  1

  0
TEXT
  8
DIM
 10
793.40725
 20
324.499092
 30
0.0
 40
0.72
  1

  0
LINE
  8
OBJECT
 10
136.23579
 20
71.088999
 30
0.0
 11
136.23579
 21
155.150999
 31
0.0
  0
LINE
  8
OBJECT
 10
136.23579
 20
155.150999
 30
0.0
 11
114.23579
 21
155.150999
 31
0.0
  0
LINE
  8
OBJECT
 10
114.23579
 20
155.150999
 30
0.0
 11
114.23579
 21
71.088999
 31
0.0
  0
LINE
  8
OBJECT
 10
114.23579
 20
71.088999
 30
0.0
 11
136.23579
 21
71.088999
 31
0.0
  0
LINE
  8
OBJECT
 10
134.79829
 20
71.088999
 30
0.0
 11
134.79829
 21
155.150999
 31
0.0
  0
LINE
  8
OBJECT
 10
115.67329
 20
155.150999
 30
0.0
 11
115.67329
 21
150.142691
 31
0.0
  0
LINE
  8
OBJECT
 10
115.67329
 20
73.713999
 30
0.0
 11
134.79829
 21
73.713999
 31
0.0
  0
LINE
  8
OBJECT
 10
134.79829
 20
152.525999
 30
0.0
 11
115.67329
 21
152.525999
 31
0.0
  0
ARC
  8
OBJECT
 10
39.939039
 20
73.385517
 30
0.0
 40
0.5545
 50
96.419806
 51
263.580194
  0
LINE
  8
OBJECT
 10
40.001039
 20
72.895732
 30
0.0
 11
40.001039
 21
72.752547
 31
0.0
  0
LINE
  8
OBJECT
 10
39.877039
 20
73.977575
 30
0.0
 11
39.877039
 21
74.014697
 31
0.0
  0
LINE
  8
OBJECT
 10
39.877039
 20
72.895732
 30
0.0
 11
39.877039
 21
72.752547
 31
0.0
  0
ARC
  8
OBJECT
 10
39.939039
 20
73.385517
 30
0.0
 40
0.5545
 50
276.419806
 51
83.580194
  0
LINE
  8
OBJECT
 10
40.001039
 20
73.977575
 30
0.0
 11
40.001039
 21
74.014697
 31
0.0
  0
LINE
  8
OBJECT
 10
40.001039
 20
73.83439
 30
0.0
 11
40.001039
 21
73.977575
 31
0.0
  0
LINE
  8
OBJECT
 10
39.877039
 20
73.977575
 30
0.0
 11
39.877039
 21
73.83439
 31
0.0
  0
LINE
  8
OBJECT
 10
30.908039
 20
73.977575
 30
0.0
 11
30.908039
 21
73.83439
 31
0.0
  0
LINE
  8
OBJECT
 10
30.784039
 20
73.83439
 30
0.0
 11
30.784039
 21
73.977575
 31
0.0
  0
LINE
  8
OBJECT
 10
30.784039
 20
73.977575
 30
0.0
 11
30.784039
 21
74.014697
 31
0.0
  0
ARC
  8
OBJECT
 10
30.846039
 20
73.385517
 30
0.0
 40
0.5545
 50
96.419806
 51
263.580194
  0
LINE
  8
OBJECT
 10
30.908039
 20
72.895732
 30
0.0
 11
30.908039
 21
72.752547
 31
0.0
  0
LINE
  8
OBJECT
 10
30.908039
 20
73.977575
 30
0.0
 11
30.908039
 21
74.014697
 31
0.0
  0
LINE
  8
OBJECT
 10
30.784039
 20
72.895732
 30
0.0
 11
30.784039
 21
72.752547
 31
0.0
  0
ARC
  8
OBJECT
 10
30.846039
 20
73.385517
 30
0.0
 40
0.5545
 50
276.419806
 51
83.580194
  0
LINE
  8
OBJECT
 10
46.392539
 20
72.073517
 30
0.0
 11
24.392539
 21
72.073517
 31
0.0
  0
LINE
  8
OBJECT
 10
46.392539
 20
156.135517
 30
0.0
 11
46.392539
 21
72.073517
 31
0.0
  0
LINE
  8
OBJECT
 10
24.392539
 20
156.135517
 30
0.0
 11
46.392539
 21
156.135517
 31
0.0
  0
LINE
  8
OBJECT
 10
24.392539
 20
72.073517
 30
0.0
 11
24.392539
 21
156.135517
 31
0.0
  0
TEXT
  8
DIM
 10
418.445949
 20
108.835018
 30
0.0
 40
1.25
  1

  0
TEXT
  8
DIM
 10
419.508449
 20
104.74126
 30
0.0
 40
1.0
  1

  0
TEXT
  8
OBJECT
 10
420.365192
 20
155.437917
 30
0.0
 40
1.25
  1

  0
TEXT
  8
TEXT
 10
27.453086
 20
56.473517
 30
0.0
 40
2.34375
  1
%%uREAR VIEW
 41
0.75
 72
     1
 11
35.392539
 21
56.473517
 31
0.0
  0
DIMENSION
  8
DIM
  2
*D6
 10
134.79829
 20
110.062531
 30
0.0
 11
125.23579
 21
110.062531
 31
0.0
 12
-4.924547
 22
-4.968153
 32
0.0
  1
<> %%p0.031
 13
115.67329
 23
110.062531
 33
0.0
 14
134.79829
 24
110.062531
 34
0.0
  3
23NSTDI
  0
DIMENSION
  8
DIM
  2
*D16
 10
134.39229
 20
116.296361
 30
0.0
 11
125.23629
 21
116.296361
 31
0.0
 12
0.0
 22
-1.108635
 32
0.0
  1
<> %%p0.062
 13
116.08029
 23
117.744999
 33
0.0
 14
134.39229
 24
117.744999
 34
0.0
  3
23NSTDI
  0
DIMENSION
  8
DIM
  2
*D7
 10
134.20479
 20
122.624304
 30
0.0
 11
125.236415
 21
122.624304
 31
0.0
 12
-4.924547
 22
-1.468153
 32
0.0
  1
<> %%p0.093
 13
116.26804
 23
122.624304
 33
0.0
 14
134.20479
 24
122.624304
 34
0.0
  3
23NSTDI
  0
DIMENSION
  8
DIM
  2
*D8
 10
136.23579
 20
160.910999
 30
0.0
 11
125.23579
 21
160.910999
 31
0.0
 12
-4.924547
 22
0.281847
 32
0.0
  1
<> %%p0.062
 13
114.23579
 23
155.150999
 33
0.0
 14
136.23579
 24
155.150999
 34
0.0
  3
23NSTDI
  0
DIMENSION
  8
DIM
  2
*D18
 10
14.777539
 20
153.510517
 30
0.0
 11
14.777539
 21
114.104517
 31
0.0
 12
0.0
 22
1.266365
 32
0.0
  1
<> %%p0.031
 13
25.830039
 23
74.698517
 33
0.0
 14
25.830039
 24
153.510517
 34
0.0
 50
90.0
  3
23NSTD
  0
DIMENSION
  8
DIM
  2
*D5
 10
14.777539
 20
156.135517
 30
0.0
 11
22.097539
 21
161.895517
 31
0.0
 12
0.0
 22
1.266365
 32
0.0
 13
25.830039
 23
153.510517
 33
0.0
 14
24.392539
 24
156.135517
 34
0.0
 50
90.0
  3
23NSTD
  0
DIMENSION
  8
DIM
  2
*D17
 10
149.46779
 20
155.150999
 30
0.0
 11
149.46779
 21
113.119999
 31
0.0
 12
0.0
 22
1.266365
 32
0.0
  1
<> %%p0.062
 13
136.23579
 23
71.088999
 33
0.0
 14
136.23579
 24
155.150999
 34
0.0
 50
270.0
  3
23NSTD
  0
DIMENSION
  8
DIM
  2
*D19
 10
14.777539
 20
72.073517
 30
0.0
 11
7.457539
 21
66.313517
 31
0.0
 12
0.0
 22
1.266365
 32
0.0
 13
25.830039
 23
74.698517
 33
0.0
 14
24.392539
 24
72.073517
 34
0.0
 50
90.0
  3
23NSTD
  0
DIMENSION
  8
DIM
  2
*D9
 10
39.939039
 20
66.313517
 30
0.0
 11
35.392539
 21
75.063517
 31
0.0
 12
0.0
 22
-7.483635
 32
0.0
 13
30.846039
 23
73.385517
 33
0.0
 14
39.939039
 24
73.385517
 34
0.0
  3
23NSTDI
  0
DIMENSION
  8
DIM
  2
*D14
 10
46.392539
 20
62.313517
 30
0.0
 11
56.592539
 21
71.063517
 31
0.0
 12
0.0
 22
-7.483635
 32
0.0
 13
39.939039
 23
73.385517
 33
0.0
 14
46.392539
 24
72.073517
 34
0.0
  3
23NSTD
  0
POLYLINE
  8
DIM
 66
     1
 10
0.0
 20
0.0
 30
0.0
 41
1.08
  0
VERTEX
  8
DIM
 10
30.416606
 20
73.034721
 30
0.0
  0
VERTEX
  8
DIM
 10
28.330878
 20
71.048735
 30
0.0
 41
0.0
  0
VERTEX
  8
DIM
 10
19.794353
 20
62.920436
 30
0.0
 41
0.0
  0
VERTEX
  8
DIM
 10
17.794353
 20
62.920436
 30
0.0
 41
0.0
  0
SEQEND
  8
DIM
  0
TEXT
  8
DIM
 10
5.044351
 20
61.920436
 30
0.0
 40
2.0
  1
1.109 DIA.
 41
0.75
 72
     2
 11
15.794352
 21
61.920436
 31
0.0
  0
TEXT
  8
DIM
 10
4.294351
 20
58.587102
 30
0.0
 40
2.0
  1
KNOCKOUT
 41
0.75
 72
     2
 11
15.794352
 21
58.587102
 31
0.0
  0
TEXT
  8
DIM
 10
2.29435
 20
55.253768
 30
0.0
 40
2.0
  1
(4) PLACES
 41
0.75
 72
     2
 11
15.794352
 21
55.253768
 31
0.0
  0
CIRCLE
  8
PMR
 10
116.08029
 20
89.244999
 30
0.0
 40
0.095
  0
CIRCLE
  8
PMR
 10
116.08029
 20
90.369999
 30
0.0
 40
0.095
  0
CIRCLE
  8
PMR
 10
116.08029
 20
90.994999
 30
0.0
 40
0.095
  0
CIRCLE
  8
PMR
 10
116.08029
 20
89.744999
 30
0.0
 40
0.095
  0
CIRCLE
  8
PMR
 10
116.08029
 20
92.119999
 30
0.0
 40
0.095
  0
CIRCLE
  8
PMR
 10
116.08029
 20
92.744999
 30
0.0
 40
0.095
  0
CIRCLE
  8
PMR
 10
116.08029
 20
91.494999
 30
0.0
 40
0.095
  0
CIRCLE
  8
PMR
 10
116.08029
 20
93.869999
 30
0.0
 40
0.095
  0
CIRCLE
  8
PMR
 10
116.08029
 20
94.494999
 30
0.0
 40
0.095
  0
CIRCLE
  8
PMR
 10
116.08029
 20
93.244999
 30
0.0
 40
0.095
  0
CIRCLE
  8
PMR
 10
116.08029
 20
95.619999
 30
0.0
 40
0.095
  0
CIRCLE
  8
PMR
 10
116.08029
 20
96.244999
 30
0.0
 40
0.095
  0
CIRCLE
  8
PMR
 10
116.08029
 20
94.994999
 30
0.0
 40
0.095
  0
CIRCLE
  8
PMR
 10
116.08029
 20
97.369999
 30
0.0
 40
0.095
  0
CIRCLE
  8
PMR
 10
116.08029
 20
97.994999
 30
0.0
 40
0.095
  0
CIRCLE
  8
PMR
 10
116.08029
 20
96.744999
 30
0.0
 40
0.095
  0
CIRCLE
  8
PMR
 10
116.08029
 20
99.119999
 30
0.0
 40
0.095
  0
CIRCLE
  8
PMR
 10
116.08029
 20
99.744999
 30
0.0
 40
0.095
  0
CIRCLE
  8
PMR
 10
116.08029
 20
98.494999
 30
0.0
 40
0.095
  0
CIRCLE
  8
PMR
 10
116.08029
 20
100.244999
 30
0.0
 40
0.095
  0
CIRCLE
  8
PMR
 10
134.39229
 20
137.619999
 30
0.0
 40
0.095
  0
TEXT
  8
DIM
 10
623.445949
 20
108.835018
 30
0.0
 40
1.25
  1

  0
TEXT
  8
DIM
 10
624.508449
 20
104.74126
 30
0.0
 40
1.0
  1

  0
TEXT
  8
DIM
 10
787.445949
 20
108.835018
 30
0.0
 40
1.25
  1

  0
TEXT
  8
DIM
 10
788.508449
 20
104.74126
 30
0.0
 40
1.0
  1

  0
TEXT
  8
OBJECT
 10
789.365192
 20
155.437917
 30
0.0
 40
1.25
  1

  0
TEXT
  8
DIM
 10
787.445949
 20
108.835018
 30
0.0
 40
1.25
  1

  0
TEXT
  8
DIM
 10
788.508449
 20
104.74126
 30
0.0
 40
1.0
  1

  0
TEXT
  8
OBJECT
 10
789.365192
 20
155.437917
 30
0.0
 40
1.25
  1

  0
TEXT
  8
DIM
 10
805.413326
 20
293.759395
 30
0.0
 40
0.72
  1

  0
TEXT
  8
DIM
 10
741.877449
 20
270.884129
 30
0.0
 40
0.72
  1

  0
TEXT
  8
DIM
 10
892.78977
 20
221.762391
 30
0.0
 40
0.72
  1

  0
TEXT
  8
DIM
 10
829.253894
 20
198.887126
 30
0.0
 40
0.72
  1

  0
TEXT
  8
DIM
 10
795.443126
 20
307.374357
 30
0.0
 40
0.72
  1

  0
TEXT
  8
DIM
 10
731.90725
 20
284.499092
 30
0.0
 40
0.72
  1

  0
TEXT
  8
DIM
 10
731.90725
 20
324.499092
 30
0.0
 40
0.72
  1

  0
TEXT
  8
DIM
 10
793.40725
 20
324.499092
 30
0.0
 40
0.72
  1

  0
LINE
  8
OBJECT
 10
25.830039
 20
72.073517
 30
0.0
 11
25.830039
 21
76.208074
 31
0.0
  0
LINE
  8
OBJECT
 10
44.955039
 20
156.135517
 30
0.0
 11
44.955039
 21
72.073517
 31
0.0
  0
LINE
  8
OBJECT
 10
44.955039
 20
74.698517
 30
0.0
 11
25.830039
 21
74.698517
 31
0.0
  0
LINE
  8
OBJECT
 10
25.829039
 20
153.510517
 30
0.0
 11
44.955039
 21
153.510517
 31
0.0
  0
LINE
  8
OBJECT
 10
25.681539
 20
147.620517
 30
0.0
 11
25.789539
 21
147.620517
 31
0.0
  0
ARC
  8
OBJECT
 10
25.39929
 20
147.948765
 30
0.0
 40
0.509942
 50
319.931907
 51
354.683658
  0
ARC
  8
OBJECT
 10
26.071787
 20
147.948765
 30
0.0
 40
0.509942
 50
185.316342
 51
220.068093
  0
LINE
  8
OBJECT
 10
25.564039
 20
147.901517
 30
0.0
 11
25.564039
 21
149.401017
 31
0.0
  0
LINE
  8
OBJECT
 10
25.907039
 20
147.901517
 30
0.0
 11
25.564039
 21
147.901517
 31
0.0
  0
LINE
  8
OBJECT
 10
25.564039
 20
76.433767
 30
0.0
 11
25.564039
 21
77.933267
 31
0.0
  0
LINE
  8
OBJECT
 10
25.681539
 20
76.152767
 30
0.0
 11
25.789539
 21
76.152767
 31
0.0
  0
ARC
  8
OBJECT
 10
25.39929
 20
76.481015
 30
0.0
 40
0.509942
 50
319.931907
 51
354.683658
  0
ARC
  8
OBJECT
 10
26.071787
 20
76.481015
 30
0.0
 40
0.509942
 50
185.316342
 51
220.068093
  0
LINE
  8
OBJECT
 10
25.907039
 20
76.433767
 30
0.0
 11
25.564039
 21
76.433767
 31
0.0
  0
LINE
  8
OBJECT
 10
25.830039
 20
151.127459
 30
0.0
 11
25.830039
 21
156.135517
 31
0.0
  0
LINE
  8
OBJECT
 10
25.830039
 20
79.659459
 30
0.0
 11
25.830039
 21
147.675824
 31
0.0
  0
LINE
  8
OBJECT
 10
25.564039
 20
149.401267
 30
0.0
 11
25.564039
 21
150.901767
 31
0.0
  0
LINE
  8
OBJECT
 10
25.907039
 20
153.448767
 30
0.0
 11
25.907039
 21
74.761267
 31
0.0
  0
LINE
  8
OBJECT
 10
44.845039
 20
74.761267
 30
0.0
 11
44.845039
 21
153.448767
 31
0.0
  0
LINE
  8
OBJECT
 10
25.907039
 20
74.761267
 30
0.0
 11
44.845039
 21
74.761267
 31
0.0
  0
LINE
  8
OBJECT
 10
25.564039
 20
77.933267
 30
0.0
 11
25.564039
 21
79.433767
 31
0.0
  0
LINE
  8
OBJECT
 10
25.564039
 20
77.933267
 30
0.0
 11
25.907039
 21
77.933267
 31
0.0
  0
ARC
  8
OBJECT
 10
26.071787
 20
79.386518
 30
0.0
 40
0.509942
 50
139.931907
 51
174.683658
  0
LINE
  8
OBJECT
 10
25.564039
 20
79.433767
 30
0.0
 11
25.907039
 21
79.433767
 31
0.0
  0
ARC
  8
OBJECT
 10
25.39929
 20
79.386518
 30
0.0
 40
0.509942
 50
5.316342
 51
40.068093
  0
LINE
  8
OBJECT
 10
25.681539
 20
79.714767
 30
0.0
 11
25.789539
 21
79.714767
 31
0.0
  0
LINE
  8
OBJECT
 10
25.564039
 20
149.401267
 30
0.0
 11
25.907039
 21
149.401267
 31
0.0
  0
LINE
  8
OBJECT
 10
44.845039
 20
153.448767
 30
0.0
 11
25.907039
 21
153.448767
 31
0.0
  0
LINE
  8
OBJECT
 10
25.564039
 20
150.901767
 30
0.0
 11
25.907039
 21
150.901767
 31
0.0
  0
ARC
  8
OBJECT
 10
26.071787
 20
150.854518
 30
0.0
 40
0.509942
 50
139.931907
 51
174.683658
  0
LINE
  8
OBJECT
 10
25.681539
 20
151.182767
 30
0.0
 11
25.789539
 21
151.182767
 31
0.0
  0
ARC
  8
OBJECT
 10
25.39929
 20
150.854518
 30
0.0
 40
0.509942
 50
5.316342
 51
40.068093
  0
CIRCLE
  8
PMR
 10
116.08029
 20
114.869999
 30
0.0
 40
0.095
  0
CIRCLE
  8
PMR
 10
116.08029
 20
115.494999
 30
0.0
 40
0.095
  0
CIRCLE
  8
PMR
 10
116.08029
 20
115.994999
 30
0.0
 40
0.095
  0
CIRCLE
  8
PMR
 10
116.08029
 20
117.744999
 30
0.0
 40
0.095
  0
CIRCLE
  8
PMR
 10
116.08029
 20
116.619999
 30
0.0
 40
0.095
  0
CIRCLE
  8
PMR
 10
116.08029
 20
117.244999
 30
0.0
 40
0.095
  0
CIRCLE
  8
PMR
 10
134.39229
 20
136.994999
 30
0.0
 40
0.095
  0
CIRCLE
  8
PMR
 10
134.39229
 20
115.494999
 30
0.0
 40
0.095
  0
CIRCLE
  8
PMR
 10
134.39229
 20
114.869999
 30
0.0
 40
0.095
  0
CIRCLE
  8
PMR
 10
134.39229
 20
115.994999
 30
0.0
 40
0.095
  0
CIRCLE
  8
PMR
 10
134.39229
 20
136.494999
 30
0.0
 40
0.095
  0
CIRCLE
  8
PMR
 10
134.39229
 20
135.869999
 30
0.0
 40
0.095
  0
CIRCLE
  8
PMR
 10
134.39229
 20
117.744999
 30
0.0
 40
0.095
  0
CIRCLE
  8
PMR
 10
134.39229
 20
116.619999
 30
0.0
 40
0.095
  0
CIRCLE
  8
PMR
 10
134.39229
 20
117.244999
 30
0.0
 40
0.095
  0
CIRCLE
  8
PMR
 10
116.08029
 20
114.244999
 30
0.0
 40
0.095
  0
CIRCLE
  8
PMR
 10
116.08029
 20
100.869999
 30
0.0
 40
0.095
  0
CIRCLE
  8
PMR
 10
116.08029
 20
101.494999
 30
0.0
 40
0.095
  0
CIRCLE
  8
PMR
 10
116.08029
 20
110.744999
 30
0.0
 40
0.095
  0
CIRCLE
  8
PMR
 10
116.08029
 20
113.119999
 30
0.0
 40
0.095
  0
CIRCLE
  8
PMR
 10
116.08029
 20
113.744999
 30
0.0
 40
0.095
  0
CIRCLE
  8
PMR
 10
116.08029
 20
112.494999
 30
0.0
 40
0.095
  0
CIRCLE
  8
PMR
 10
116.08029
 20
111.369999
 30
0.0
 40
0.095
  0
CIRCLE
  8
PMR
 10
116.08029
 20
111.994999
 30
0.0
 40
0.095
  0
CIRCLE
  8
PMR
 10
134.39229
 20
114.244999
 30
0.0
 40
0.095
  0
CIRCLE
  8
PMR
 10
134.39229
 20
101.494999
 30
0.0
 40
0.095
  0
ARC
  8
PMR
 10
134.39229
 20
100.869999
 30
0.0
 40
0.095
 50
44.655209
 51
205.922734
  0
CIRCLE
  8
PMR
 10
134.39229
 20
110.744999
 30
0.0
 40
0.095
  0
CIRCLE
  8
PMR
 10
134.39229
 20
113.744999
 30
0.0
 40
0.095
  0
CIRCLE
  8
PMR
 10
134.39229
 20
113.119999
 30
0.0
 40
0.095
  0
CIRCLE
  8
PMR
 10
134.39229
 20
112.494999
 30
0.0
 40
0.095
  0
CIRCLE
  8
PMR
 10
134.39229
 20
111.369999
 30
0.0
 40
0.095
  0
CIRCLE
  8
PMR
 10
134.39229
 20
111.994999
 30
0.0
 40
0.095
  0
TEXT
  8
DIM
 10
397.945949
 20
108.835018
 30
0.0
 40
1.25
  1

  0
TEXT
  8
DIM
 10
399.008449
 20
104.74126
 30
0.0
 40
1.0
  1

  0
TEXT
  8
DIM
 10
561.945949
 20
108.835018
 30
0.0
 40
1.25
  1

  0
TEXT
  8
DIM
 10
563.008449
 20
104.74126
 30
0.0
 40
1.0
  1

  0
TEXT
  8
OBJECT
 10
563.865192
 20
155.437917
 30
0.0
 40
1.25
  1

  0
TEXT
  8
DIM
 10
561.945949
 20
108.835018
 30
0.0
 40
1.25
  1

  0
TEXT
  8
DIM
 10
563.008449
 20
104.74126
 30
0.0
 40
1.0
  1

  0
TEXT
  8
OBJECT
 10
563.865192
 20
155.437917
 30
0.0
 40
1.25
  1

  0
TEXT
  8
DIM
 10
579.913326
 20
293.759395
 30
0.0
 40
0.72
  1

  0
TEXT
  8
DIM
 10
516.377449
 20
270.884129
 30
0.0
 40
0.72
  1

  0
TEXT
  8
DIM
 10
667.28977
 20
221.762391
 30
0.0
 40
0.72
  1

  0
TEXT
  8
DIM
 10
603.753894
 20
198.887126
 30
0.0
 40
0.72
  1

  0
TEXT
  8
DIM
 10
569.943126
 20
307.374357
 30
0.0
 40
0.72
  1

  0
TEXT
  8
DIM
 10
506.40725
 20
284.499092
 30
0.0
 40
0.72
  1

  0
TEXT
  8
DIM
 10
506.40725
 20
324.499092
 30
0.0
 40
0.72
  1

  0
TEXT
  8
DIM
 10
567.90725
 20
324.499092
 30
0.0
 40
0.72
  1

  0
CIRCLE
  8
OBJECT
 10
43.720039
 20
114.104517
 30
0.0
 40
0.3175
  0
CIRCLE
  8
OBJECT
 10
43.720039
 20
114.104517
 30
0.0
 40
0.453125
  0
LINE
  8
OBJECT
 10
43.675039
 20
113.852017
 30
0.0
 11
43.765039
 21
113.852017
 31
0.0
  0
LINE
  8
OBJECT
 10
43.675039
 20
114.242017
 30
0.0
 11
43.765039
 21
114.242017
 31
0.0
  0
LINE
  8
OBJECT
 10
43.675039
 20
114.242017
 30
0.0
 11
43.675039
 21
113.852017
 31
0.0
  0
LINE
  8
OBJECT
 10
43.765039
 20
114.242017
 30
0.0
 11
43.765039
 21
113.852017
 31
0.0
  0
ARC
  8
OBJECT
 10
43.720039
 20
114.104517
 30
0.0
 40
0.125
 50
291.100196
 51
68.899804
  0
ARC
  8
OBJECT
 10
43.720039
 20
114.104517
 30
0.0
 40
0.125
 50
111.100196
 51
248.899804
  0
CIRCLE
  8
PMR
 10
116.08029
 20
118.369999
 30
0.0
 40
0.095
  0
CIRCLE
  8
PMR
 10
134.39229
 20
118.369999
 30
0.0
 40
0.095
  0
CIRCLE
  8
PMR
 10
116.08029
 20
120.119999
 30
0.0
 40
0.095
  0
CIRCLE
  8
PMR
 10
116.08029
 20
119.494999
 30
0.0
 40
0.095
  0
CIRCLE
  8
PMR
 10
116.08029
 20
118.994999
 30
0.0
 40
0.095
  0
CIRCLE
  8
PMR
 10
134.39229
 20
133.494999
 30
0.0
 40
0.095
  0
CIRCLE
  8
PMR
 10
134.39229
 20
129.994999
 30
0.0
 40
0.095
  0
CIRCLE
  8
PMR
 10
134.39229
 20
129.494999
 30
0.0
 40
0.095
  0
CIRCLE
  8
PMR
 10
134.39229
 20
120.119999
 30
0.0
 40
0.095
  0
CIRCLE
  8
PMR
 10
134.39229
 20
119.494999
 30
0.0
 40
0.095
  0
CIRCLE
  8
PMR
 10
134.39229
 20
118.994999
 30
0.0
 40
0.095
  0
CIRCLE
  8
PMR
 10
134.39229
 20
132.994999
 30
0.0
 40
0.095
  0
CIRCLE
  8
PMR
 10
134.39229
 20
130.619999
 30
0.0
 40
0.095
  0
CIRCLE
  8
PMR
 10
134.39229
 20
131.244999
 30
0.0
 40
0.095
  0
CIRCLE
  8
PMR
 10
134.39229
 20
131.744999
 30
0.0
 40
0.095
  0
CIRCLE
  8
PMR
 10
134.39229
 20
132.369999
 30
0.0
 40
0.095
  0
CIRCLE
  8
PMR
 10
134.39229
 20
134.744999
 30
0.0
 40
0.095
  0
CIRCLE
  8
PMR
 10
134.39229
 20
134.119999
 30
0.0
 40
0.095
  0
CIRCLE
  8
PMR
 10
134.39229
 20
135.244999
 30
0.0
 40
0.095
  0
CIRCLE
  8
PMR
 10
116.08029
 20
121.869999
 30
0.0
 40
0.095
  0
CIRCLE
  8
PMR
 10
116.08029
 20
122.494999
 30
0.0
 40
0.095
  0
CIRCLE
  8
PMR
 10
116.08029
 20
122.994999
 30
0.0
 40
0.095
  0
CIRCLE
  8
PMR
 10
116.08029
 20
123.619999
 30
0.0
 40
0.095
  0
CIRCLE
  8
PMR
 10
116.08029
 20
120.744999
 30
0.0
 40
0.095
  0
CIRCLE
  8
PMR
 10
116.08029
 20
121.244999
 30
0.0
 40
0.095
  0
CIRCLE
  8
PMR
 10
116.08029
 20
125.369999
 30
0.0
 40
0.095
  0
CIRCLE
  8
PMR
 10
116.08029
 20
125.994999
 30
0.0
 40
0.095
  0
CIRCLE
  8
PMR
 10
116.08029
 20
124.744999
 30
0.0
 40
0.095
  0
CIRCLE
  8
PMR
 10
116.08029
 20
124.244999
 30
0.0
 40
0.095
  0
CIRCLE
  8
PMR
 10
134.39229
 20
121.869999
 30
0.0
 40
0.095
  0
CIRCLE
  8
PMR
 10
134.39229
 20
122.494999
 30
0.0
 40
0.095
  0
CIRCLE
  8
PMR
 10
134.39229
 20
122.994999
 30
0.0
 40
0.095
  0
CIRCLE
  8
PMR
 10
134.39229
 20
123.619999
 30
0.0
 40
0.095
  0
CIRCLE
  8
PMR
 10
134.39229
 20
120.744999
 30
0.0
 40
0.095
  0
CIRCLE
  8
PMR
 10
134.39229
 20
121.244999
 30
0.0
 40
0.095
  0
CIRCLE
  8
PMR
 10
134.39229
 20
125.369999
 30
0.0
 40
0.095
  0
CIRCLE
  8
PMR
 10
134.39229
 20
127.119999
 30
0.0
 40
0.095
  0
CIRCLE
  8
PMR
 10
134.39229
 20
125.994999
 30
0.0
 40
0.095
  0
CIRCLE
  8
PMR
 10
134.39229
 20
126.494999
 30
0.0
 40
0.095
  0
CIRCLE
  8
PMR
 10
134.39229
 20
124.744999
 30
0.0
 40
0.095
  0
CIRCLE
  8
PMR
 10
134.39229
 20
124.244999
 30
0.0
 40
0.095
  0
CIRCLE
  8
PMR
 10
134.39229
 20
128.869999
 30
0.0
 40
0.095
  0
CIRCLE
  8
PMR
 10
134.39229
 20
127.744999
 30
0.0
 40
0.095
  0
CIRCLE
  8
PMR
 10
134.39229
 20
128.244999
 30
0.0
 40
0.095
  0
TEXT
  8
DIM
 10
459.445949
 20
108.835018
 30
0.0
 40
1.25
  1

  0
TEXT
  8
DIM
 10
460.508449
 20
104.74126
 30
0.0
 40
1.0
  1

  0
TEXT
  8
DIM
 10
623.445949
 20
108.835018
 30
0.0
 40
1.25
  1

  0
TEXT
  8
DIM
 10
624.508449
 20
104.74126
 30
0.0
 40
1.0
  1

  0
TEXT
  8
OBJECT
 10
625.365192
 20
155.437917
 30
0.0
 40
1.25
  1

  0
TEXT
  8
DIM
 10
623.445949
 20
108.835018
 30
0.0
 40
1.25
  1

  0
TEXT
  8
DIM
 10
624.508449
 20
104.74126
 30
0.0
 40
1.0
  1

  0
TEXT
  8
OBJECT
 10
625.365192
 20
155.437917
 30
0.0
 40
1.25
  1

  0
TEXT
  8
DIM
 10
641.413326
 20
293.759395
 30
0.0
 40
0.72
  1

  0
TEXT
  8
DIM
 10
577.877449
 20
270.884129
 30
0.0
 40
0.72
  1

  0
TEXT
  8
DIM
 10
728.78977
 20
221.762391
 30
0.0
 40
0.72
  1

  0
TEXT
  8
DIM
 10
665.253894
 20
198.887126
 30
0.0
 40
0.72
  1

  0
TEXT
  8
DIM
 10
631.443126
 20
307.374357
 30
0.0
 40
0.72
  1

  0
TEXT
  8
DIM
 10
567.90725
 20
284.499092
 30
0.0
 40
0.72
  1

  0
TEXT
  8
DIM
 10
567.90725
 20
324.499092
 30
0.0
 40
0.72
  1

  0
TEXT
  8
DIM
 10
629.40725
 20
324.499092
 30
0.0
 40
0.72
  1

  0
TEXT
  8
DIM
 10
459.445949
 20
108.835018
 30
0.0
 40
1.25
  1

  0
TEXT
  8
DIM
 10
460.508449
 20
104.74126
 30
0.0
 40
1.0
  1

  0
TEXT
  8
OBJECT
 10
461.365192
 20
155.437917
 30
0.0
 40
1.25
  1

  0
TEXT
  8
DIM
 10
664.445949
 20
108.835018
 30
0.0
 40
1.25
  1

  0
TEXT
  8
DIM
 10
665.508449
 20
104.74126
 30
0.0
 40
1.0
  1

  0
TEXT
  8
OBJECT
 10
666.365192
 20
155.437917
 30
0.0
 40
1.25
  1

  0
TEXT
  8
DIM
 10
869.445949
 20
108.835018
 30
0.0
 40
1.25
  1

  0
TEXT
  8
DIM
 10
870.508449
 20
104.74126
 30
0.0
 40
1.0
  1

  0
TEXT
  8
DIM
 10
1033.445949
 20
108.835018
 30
0.0
 40
1.25
  1

  0
TEXT
  8
DIM
 10
1034.508449
 20
104.74126
 30
0.0
 40
1.0
  1

  0
TEXT
  8
OBJECT
 10
1035.365192
 20
155.437917
 30
0.0
 40
1.25
  1

  0
TEXT
  8
DIM
 10
1033.445949
 20
108.835018
 30
0.0
 40
1.25
  1

  0
TEXT
  8
DIM
 10
1034.508449
 20
104.74126
 30
0.0
 40
1.0
  1

  0
TEXT
  8
OBJECT
 10
1035.365192
 20
155.437917
 30
0.0
 40
1.25
  1

  0
TEXT
  8
DIM
 10
1051.413326
 20
293.759395
 30
0.0
 40
0.72
  1

  0
TEXT
  8
DIM
 10
987.877449
 20
270.884129
 30
0.0
 40
0.72
  1

  0
TEXT
  8
DIM
 10
1138.78977
 20
221.762391
 30
0.0
 40
0.72
  1

  0
TEXT
  8
DIM
 10
1075.253894
 20
198.887126
 30
0.0
 40
0.72
  1

  0
TEXT
  8
DIM
 10
1041.443126
 20
307.374357
 30
0.0
 40
0.72
  1

  0
TEXT
  8
DIM
 10
977.90725
 20
284.499092
 30
0.0
 40
0.72
  1

  0
TEXT
  8
DIM
 10
977.90725
 20
324.499092
 30
0.0
 40
0.72
  1

  0
TEXT
  8
DIM
 10
1039.40725
 20
324.499092
 30
0.0
 40
0.72
  1

  0
TEXT
  8
DIM
 10
664.445949
 20
108.835018
 30
0.0
 40
1.25
  1

  0
TEXT
  8
DIM
 10
665.508449
 20
104.74126
 30
0.0
 40
1.0
  1

  0
TEXT
  8
OBJECT
 10
666.365192
 20
155.437917
 30
0.0
 40
1.25
  1

  0
TEXT
  8
DIM
 10
869.445949
 20
108.835018
 30
0.0
 40
1.25
  1

  0
TEXT
  8
DIM
 10
870.508449
 20
104.74126
 30
0.0
 40
1.0
  1

  0
TEXT
  8
DIM
 10
1033.445949
 20
108.835018
 30
0.0
 40
1.25
  1

  0
TEXT
  8
DIM
 10
1034.508449
 20
104.74126
 30
0.0
 40
1.0
  1

  0
TEXT
  8
OBJECT
 10
1035.365192
 20
155.437917
 30
0.0
 40
1.25
  1

  0
TEXT
  8
DIM
 10
1033.445949
 20
108.835018
 30
0.0
 40
1.25
  1

  0
TEXT
  8
DIM
 10
1034.508449
 20
104.74126
 30
0.0
 40
1.0
  1

  0
TEXT
  8
OBJECT
 10
1035.365192
 20
155.437917
 30
0.0
 40
1.25
  1

  0
TEXT
  8
DIM
 10
1051.413326
 20
293.759395
 30
0.0
 40
0.72
  1

  0
TEXT
  8
DIM
 10
987.877449
 20
270.884129
 30
0.0
 40
0.72
  1

  0
TEXT
  8
DIM
 10
1138.78977
 20
221.762391
 30
0.0
 40
0.72
  1

  0
TEXT
  8
DIM
 10
1075.253894
 20
198.887126
 30
0.0
 40
0.72
  1

  0
TEXT
  8
DIM
 10
1041.443126
 20
307.374357
 30
0.0
 40
0.72
  1

  0
TEXT
  8
DIM
 10
977.90725
 20
284.499092
 30
0.0
 40
0.72
  1

  0
TEXT
  8
DIM
 10
977.90725
 20
324.499092
 30
0.0
 40
0.72
  1

  0
TEXT
  8
DIM
 10
1039.40725
 20
324.499092
 30
0.0
 40
0.72
  1

  0
TEXT
  8
DIM
 10
643.945949
 20
108.835018
 30
0.0
 40
1.25
  1

  0
TEXT
  8
DIM
 10
645.008449
 20
104.74126
 30
0.0
 40
1.0
  1

  0
TEXT
  8
DIM
 10
807.945949
 20
108.835018
 30
0.0
 40
1.25
  1

  0
TEXT
  8
DIM
 10
809.008449
 20
104.74126
 30
0.0
 40
1.0
  1

  0
TEXT
  8
OBJECT
 10
809.865192
 20
155.437917
 30
0.0
 40
1.25
  1

  0
TEXT
  8
DIM
 10
807.945949
 20
108.835018
 30
0.0
 40
1.25
  1

  0
TEXT
  8
DIM
 10
809.008449
 20
104.74126
 30
0.0
 40
1.0
  1

  0
TEXT
  8
OBJECT
 10
809.865192
 20
155.437917
 30
0.0
 40
1.25
  1

  0
TEXT
  8
DIM
 10
825.913326
 20
293.759395
 30
0.0
 40
0.72
  1

  0
TEXT
  8
DIM
 10
762.377449
 20
270.884129
 30
0.0
 40
0.72
  1

  0
TEXT
  8
DIM
 10
913.28977
 20
221.762391
 30
0.0
 40
0.72
  1

  0
TEXT
  8
DIM
 10
849.753894
 20
198.887126
 30
0.0
 40
0.72
  1

  0
TEXT
  8
DIM
 10
815.943126
 20
307.374357
 30
0.0
 40
0.72
  1

  0
TEXT
  8
DIM
 10
752.40725
 20
284.499092
 30
0.0
 40
0.72
  1

  0
TEXT
  8
DIM
 10
752.40725
 20
324.499092
 30
0.0
 40
0.72
  1

  0
TEXT
  8
DIM
 10
813.90725
 20
324.499092
 30
0.0
 40
0.72
  1

  0
TEXT
  8
DIM
 10
664.445949
 20
108.835018
 30
0.0
 40
1.25
  1

  0
TEXT
  8
DIM
 10
665.508449
 20
104.74126
 30
0.0
 40
1.0
  1

  0
TEXT
  8
DIM
 10
828.445949
 20
108.835018
 30
0.0
 40
1.25
  1

  0
TEXT
  8
DIM
 10
829.508449
 20
104.74126
 30
0.0
 40
1.0
  1

  0
TEXT
  8
OBJECT
 10
830.365192
 20
155.437917
 30
0.0
 40
1.25
  1

  0
TEXT
  8
DIM
 10
828.445949
 20
108.835018
 30
0.0
 40
1.25
  1

  0
TEXT
  8
DIM
 10
829.508449
 20
104.74126
 30
0.0
 40
1.0
  1

  0
TEXT
  8
OBJECT
 10
830.365192
 20
155.437917
 30
0.0
 40
1.25
  1

  0
TEXT
  8
DIM
 10
846.413326
 20
293.759395
 30
0.0
 40
0.72
  1

  0
TEXT
  8
DIM
 10
782.877449
 20
270.884129
 30
0.0
 40
0.72
  1

  0
TEXT
  8
DIM
 10
933.78977
 20
221.762391
 30
0.0
 40
0.72
  1

  0
TEXT
  8
DIM
 10
870.253894
 20
198.887126
 30
0.0
 40
0.72
  1

  0
TEXT
  8
DIM
 10
836.443126
 20
307.374357
 30
0.0
 40
0.72
  1

  0
TEXT
  8
DIM
 10
772.90725
 20
284.499092
 30
0.0
 40
0.72
  1

  0
TEXT
  8
DIM
 10
772.90725
 20
324.499092
 30
0.0
 40
0.72
  1

  0
TEXT
  8
DIM
 10
834.40725
 20
324.499092
 30
0.0
 40
0.72
  1

  0
TEXT
  8
DIM
 10
684.945949
 20
108.835018
 30
0.0
 40
1.25
  1

  0
TEXT
  8
DIM
 10
686.008449
 20
104.74126
 30
0.0
 40
1.0
  1

  0
TEXT
  8
OBJECT
 10
686.865192
 20
155.437917
 30
0.0
 40
1.25
  1

  0
TEXT
  8
DIM
 10
889.945949
 20
108.835018
 30
0.0
 40
1.25
  1

  0
TEXT
  8
DIM
 10
891.008449
 20
104.74126
 30
0.0
 40
1.0
  1

  0
TEXT
  8
OBJECT
 10
891.865192
 20
155.437917
 30
0.0
 40
1.25
  1

  0
TEXT
  8
DIM
 10
1094.945949
 20
108.835018
 30
0.0
 40
1.25
  1

  0
TEXT
  8
DIM
 10
1096.008449
 20
104.74126
 30
0.0
 40
1.0
  1

  0
TEXT
  8
DIM
 10
1258.945949
 20
108.835018
 30
0.0
 40
1.25
  1

  0
TEXT
  8
DIM
 10
1260.008449
 20
104.74126
 30
0.0
 40
1.0
  1

  0
TEXT
  8
OBJECT
 10
1260.865192
 20
155.437917
 30
0.0
 40
1.25
  1

  0
TEXT
  8
DIM
 10
1258.945949
 20
108.835018
 30
0.0
 40
1.25
  1

  0
TEXT
  8
DIM
 10
1260.008449
 20
104.74126
 30
0.0
 40
1.0
  1

  0
TEXT
  8
OBJECT
 10
1260.865192
 20
155.437917
 30
0.0
 40
1.25
  1

  0
TEXT
  8
DIM
 10
1276.913326
 20
293.759395
 30
0.0
 40
0.72
  1

  0
TEXT
  8
DIM
 10
1213.377449
 20
270.884129
 30
0.0
 40
0.72
  1

  0
TEXT
  8
DIM
 10
1364.28977
 20
221.762391
 30
0.0
 40
0.72
  1

  0
TEXT
  8
DIM
 10
1300.753894
 20
198.887126
 30
0.0
 40
0.72
  1

  0
TEXT
  8
DIM
 10
1266.943126
 20
307.374357
 30
0.0
 40
0.72
  1

  0
TEXT
  8
DIM
 10
1203.40725
 20
284.499092
 30
0.0
 40
0.72
  1

  0
TEXT
  8
DIM
 10
1203.40725
 20
324.499092
 30
0.0
 40
0.72
  1

  0
TEXT
  8
DIM
 10
1264.90725
 20
324.499092
 30
0.0
 40
0.72
  1

  0
TEXT
  8
DIM
 10
889.945949
 20
108.835018
 30
0.0
 40
1.25
  1

  0
TEXT
  8
DIM
 10
891.008449
 20
104.74126
 30
0.0
 40
1.0
  1

  0
TEXT
  8
OBJECT
 10
891.865192
 20
155.437917
 30
0.0
 40
1.25
  1

  0
TEXT
  8
DIM
 10
1094.945949
 20
108.835018
 30
0.0
 40
1.25
  1

  0
TEXT
  8
DIM
 10
1096.008449
 20
104.74126
 30
0.0
 40
1.0
  1

  0
TEXT
  8
DIM
 10
1258.945949
 20
108.835018
 30
0.0
 40
1.25
  1

  0
TEXT
  8
DIM
 10
1260.008449
 20
104.74126
 30
0.0
 40
1.0
  1

  0
TEXT
  8
OBJECT
 10
1260.865192
 20
155.437917
 30
0.0
 40
1.25
  1

  0
TEXT
  8
DIM
 10
1258.945949
 20
108.835018
 30
0.0
 40
1.25
  1

  0
TEXT
  8
DIM
 10
1260.008449
 20
104.74126
 30
0.0
 40
1.0
  1

  0
TEXT
  8
OBJECT
 10
1260.865192
 20
155.437917
 30
0.0
 40
1.25
  1

  0
TEXT
  8
DIM
 10
1276.913326
 20
293.759395
 30
0.0
 40
0.72
  1

  0
TEXT
  8
DIM
 10
1213.377449
 20
270.884129
 30
0.0
 40
0.72
  1

  0
TEXT
  8
DIM
 10
1364.28977
 20
221.762391
 30
0.0
 40
0.72
  1

  0
TEXT
  8
DIM
 10
1300.753894
 20
198.887126
 30
0.0
 40
0.72
  1

  0
TEXT
  8
DIM
 10
1266.943126
 20
307.374357
 30
0.0
 40
0.72
  1

  0
TEXT
  8
DIM
 10
1203.40725
 20
284.499092
 30
0.0
 40
0.72
  1

  0
TEXT
  8
DIM
 10
1203.40725
 20
324.499092
 30
0.0
 40
0.72
  1

  0
TEXT
  8
DIM
 10
1264.90725
 20
324.499092
 30
0.0
 40
0.72
  1

  0
TEXT
  8
DIM
 10
869.445949
 20
108.835018
 30
0.0
 40
1.25
  1

  0
TEXT
  8
DIM
 10
870.508449
 20
104.74126
 30
0.0
 40
1.0
  1

  0
TEXT
  8
DIM
 10
1033.445949
 20
108.835018
 30
0.0
 40
1.25
  1

  0
TEXT
  8
DIM
 10
1034.508449
 20
104.74126
 30
0.0
 40
1.0
  1

  0
TEXT
  8
OBJECT
 10
1035.365192
 20
155.437917
 30
0.0
 40
1.25
  1

  0
TEXT
  8
DIM
 10
1033.445949
 20
108.835018
 30
0.0
 40
1.25
  1

  0
TEXT
  8
DIM
 10
1034.508449
 20
104.74126
 30
0.0
 40
1.0
  1

  0
TEXT
  8
OBJECT
 10
1035.365192
 20
155.437917
 30
0.0
 40
1.25
  1

  0
TEXT
  8
DIM
 10
1051.413326
 20
293.759395
 30
0.0
 40
0.72
  1

  0
TEXT
  8
DIM
 10
987.877449
 20
270.884129
 30
0.0
 40
0.72
  1

  0
TEXT
  8
DIM
 10
1138.78977
 20
221.762391
 30
0.0
 40
0.72
  1

  0
TEXT
  8
DIM
 10
1075.253894
 20
198.887126
 30
0.0
 40
0.72
  1

  0
TEXT
  8
DIM
 10
1041.443126
 20
307.374357
 30
0.0
 40
0.72
  1

  0
TEXT
  8
DIM
 10
977.90725
 20
284.499092
 30
0.0
 40
0.72
  1

  0
TEXT
  8
DIM
 10
977.90725
 20
324.499092
 30
0.0
 40
0.72
  1

  0
TEXT
  8
DIM
 10
1039.40725
 20
324.499092
 30
0.0
 40
0.72
  1

  0
TEXT
  8
DIM
 10
889.945949
 20
108.835018
 30
0.0
 40
1.25
  1

  0
TEXT
  8
DIM
 10
891.008449
 20
104.74126
 30
0.0
 40
1.0
  1

  0
TEXT
  8
DIM
 10
1053.945949
 20
108.835018
 30
0.0
 40
1.25
  1

  0
TEXT
  8
DIM
 10
1055.008449
 20
104.74126
 30
0.0
 40
1.0
  1

  0
TEXT
  8
OBJECT
 10
1055.865192
 20
155.437917
 30
0.0
 40
1.25
  1

  0
TEXT
  8
DIM
 10
1053.945949
 20
108.835018
 30
0.0
 40
1.25
  1

  0
TEXT
  8
DIM
 10
1055.008449
 20
104.74126
 30
0.0
 40
1.0
  1

  0
TEXT
  8
OBJECT
 10
1055.865192
 20
155.437917
 30
0.0
 40
1.25
  1

  0
TEXT
  8
DIM
 10
1071.913326
 20
293.759395
 30
0.0
 40
0.72
  1

  0
TEXT
  8
DIM
 10
1008.377449
 20
270.884129
 30
0.0
 40
0.72
  1

  0
TEXT
  8
DIM
 10
1159.28977
 20
221.762391
 30
0.0
 40
0.72
  1

  0
TEXT
  8
DIM
 10
1095.753894
 20
198.887126
 30
0.0
 40
0.72
  1

  0
TEXT
  8
DIM
 10
1061.943126
 20
307.374357
 30
0.0
 40
0.72
  1

  0
TEXT
  8
DIM
 10
998.40725
 20
284.499092
 30
0.0
 40
0.72
  1

  0
TEXT
  8
DIM
 10
998.40725
 20
324.499092
 30
0.0
 40
0.72
  1

  0
TEXT
  8
DIM
 10
1059.90725
 20
324.499092
 30
0.0
 40
0.72
  1

  0
TEXT
  8
DIM
 10
889.945949
 20
108.835018
 30
0.0
 40
1.25
  1

  0
TEXT
  8
DIM
 10
891.008449
 20
104.74126
 30
0.0
 40
1.0
  1

  0
TEXT
  8
OBJECT
 10
891.865192
 20
155.437917
 30
0.0
 40
1.25
  1

  0
TEXT
  8
DIM
 10
1094.945949
 20
108.835018
 30
0.0
 40
1.25
  1

  0
TEXT
  8
DIM
 10
1096.008449
 20
104.74126
 30
0.0
 40
1.0
  1

  0
TEXT
  8
DIM
 10
1258.945949
 20
108.835018
 30
0.0
 40
1.25
  1

  0
TEXT
  8
DIM
 10
1260.008449
 20
104.74126
 30
0.0
 40
1.0
  1

  0
TEXT
  8
OBJECT
 10
1260.865192
 20
155.437917
 30
0.0
 40
1.25
  1

  0
TEXT
  8
DIM
 10
1258.945949
 20
108.835018
 30
0.0
 40
1.25
  1

  0
TEXT
  8
DIM
 10
1260.008449
 20
104.74126
 30
0.0
 40
1.0
  1

  0
TEXT
  8
OBJECT
 10
1260.865192
 20
155.437917
 30
0.0
 40
1.25
  1

  0
TEXT
  8
DIM
 10
1276.913326
 20
293.759395
 30
0.0
 40
0.72
  1

  0
TEXT
  8
DIM
 10
1213.377449
 20
270.884129
 30
0.0
 40
0.72
  1

  0
TEXT
  8
DIM
 10
1364.28977
 20
221.762391
 30
0.0
 40
0.72
  1

  0
TEXT
  8
DIM
 10
1300.753894
 20
198.887126
 30
0.0
 40
0.72
  1

  0
TEXT
  8
DIM
 10
1266.943126
 20
307.374357
 30
0.0
 40
0.72
  1

  0
TEXT
  8
DIM
 10
1203.40725
 20
284.499092
 30
0.0
 40
0.72
  1

  0
TEXT
  8
DIM
 10
1203.40725
 20
324.499092
 30
0.0
 40
0.72
  1

  0
TEXT
  8
DIM
 10
1264.90725
 20
324.499092
 30
0.0
 40
0.72
  1

  0
TEXT
  8
DIM
 10
1053.945949
 20
108.835018
 30
0.0
 40
1.25
  1

  0
TEXT
  8
DIM
 10
1055.008449
 20
104.74126
 30
0.0
 40
1.0
  1

  0
TEXT
  8
OBJECT
 10
1055.865192
 20
155.437917
 30
0.0
 40
1.25
  1

  0
TEXT
  8
DIM
 10
1258.945949
 20
108.835018
 30
0.0
 40
1.25
  1

  0
TEXT
  8
DIM
 10
1260.008449
 20
104.74126
 30
0.0
 40
1.0
  1

  0
TEXT
  8
OBJECT
 10
1260.865192
 20
155.437917
 30
0.0
 40
1.25
  1

  0
TEXT
  8
DIM
 10
1463.945949
 20
108.835018
 30
0.0
 40
1.25
  1

  0
TEXT
  8
DIM
 10
1465.008449
 20
104.74126
 30
0.0
 40
1.0
  1

  0
TEXT
  8
DIM
 10
1627.945949
 20
108.835018
 30
0.0
 40
1.25
  1

  0
TEXT
  8
DIM
 10
1629.008449
 20
104.74126
 30
0.0
 40
1.0
  1

  0
TEXT
  8
OBJECT
 10
1629.865192
 20
155.437917
 30
0.0
 40
1.25
  1

  0
TEXT
  8
DIM
 10
1627.945949
 20
108.835018
 30
0.0
 40
1.25
  1

  0
TEXT
  8
DIM
 10
1629.008449
 20
104.74126
 30
0.0
 40
1.0
  1

  0
TEXT
  8
OBJECT
 10
1629.865192
 20
155.437917
 30
0.0
 40
1.25
  1

  0
TEXT
  8
DIM
 10
1645.913326
 20
293.759395
 30
0.0
 40
0.72
  1

  0
TEXT
  8
DIM
 10
1582.377449
 20
270.884129
 30
0.0
 40
0.72
  1

  0
TEXT
  8
DIM
 10
1733.28977
 20
221.762391
 30
0.0
 40
0.72
  1

  0
TEXT
  8
DIM
 10
1669.753894
 20
198.887126
 30
0.0
 40
0.72
  1

  0
TEXT
  8
DIM
 10
1635.943126
 20
307.374357
 30
0.0
 40
0.72
  1

  0
TEXT
  8
DIM
 10
1572.40725
 20
284.499092
 30
0.0
 40
0.72
  1

  0
TEXT
  8
DIM
 10
1572.40725
 20
324.499092
 30
0.0
 40
0.72
  1

  0
TEXT
  8
DIM
 10
1633.90725
 20
324.499092
 30
0.0
 40
0.72
  1

  0
TEXT
  8
DIM
 10
1258.945949
 20
108.835018
 30
0.0
 40
1.25
  1

  0
TEXT
  8
DIM
 10
1260.008449
 20
104.74126
 30
0.0
 40
1.0
  1

  0
TEXT
  8
OBJECT
 10
1260.865192
 20
155.437917
 30
0.0
 40
1.25
  1

  0
TEXT
  8
DIM
 10
1463.945949
 20
108.835018
 30
0.0
 40
1.25
  1

  0
TEXT
  8
DIM
 10
1465.008449
 20
104.74126
 30
0.0
 40
1.0
  1

  0
TEXT
  8
DIM
 10
1627.945949
 20
108.835018
 30
0.0
 40
1.25
  1

  0
TEXT
  8
DIM
 10
1629.008449
 20
104.74126
 30
0.0
 40
1.0
  1

  0
TEXT
  8
OBJECT
 10
1629.865192
 20
155.437917
 30
0.0
 40
1.25
  1

  0
TEXT
  8
DIM
 10
1627.945949
 20
108.835018
 30
0.0
 40
1.25
  1

  0
TEXT
  8
DIM
 10
1629.008449
 20
104.74126
 30
0.0
 40
1.0
  1

  0
TEXT
  8
OBJECT
 10
1629.865192
 20
155.437917
 30
0.0
 40
1.25
  1

  0
TEXT
  8
DIM
 10
1645.913326
 20
293.759395
 30
0.0
 40
0.72
  1

  0
TEXT
  8
DIM
 10
1582.377449
 20
270.884129
 30
0.0
 40
0.72
  1

  0
TEXT
  8
DIM
 10
1733.28977
 20
221.762391
 30
0.0
 40
0.72
  1

  0
TEXT
  8
DIM
 10
1669.753894
 20
198.887126
 30
0.0
 40
0.72
  1

  0
TEXT
  8
DIM
 10
1635.943126
 20
307.374357
 30
0.0
 40
0.72
  1

  0
TEXT
  8
DIM
 10
1572.40725
 20
284.499092
 30
0.0
 40
0.72
  1

  0
TEXT
  8
DIM
 10
1572.40725
 20
324.499092
 30
0.0
 40
0.72
  1

  0
TEXT
  8
DIM
 10
1633.90725
 20
324.499092
 30
0.0
 40
0.72
  1

  0
TEXT
  8
DIM
 10
1238.445949
 20
108.835018
 30
0.0
 40
1.25
  1

  0
TEXT
  8
DIM
 10
1239.508449
 20
104.74126
 30
0.0
 40
1.0
  1

  0
TEXT
  8
DIM
 10
1402.445949
 20
108.835018
 30
0.0
 40
1.25
  1

  0
TEXT
  8
DIM
 10
1403.508449
 20
104.74126
 30
0.0
 40
1.0
  1

  0
TEXT
  8
OBJECT
 10
1404.365192
 20
155.437917
 30
0.0
 40
1.25
  1

  0
TEXT
  8
DIM
 10
1402.445949
 20
108.835018
 30
0.0
 40
1.25
  1

  0
TEXT
  8
DIM
 10
1403.508449
 20
104.74126
 30
0.0
 40
1.0
  1

  0
TEXT
  8
OBJECT
 10
1404.365192
 20
155.437917
 30
0.0
 40
1.25
  1

  0
TEXT
  8
DIM
 10
1420.413326
 20
293.759395
 30
0.0
 40
0.72
  1

  0
TEXT
  8
DIM
 10
1356.877449
 20
270.884129
 30
0.0
 40
0.72
  1

  0
TEXT
  8
DIM
 10
1507.78977
 20
221.762391
 30
0.0
 40
0.72
  1

  0
TEXT
  8
DIM
 10
1444.253894
 20
198.887126
 30
0.0
 40
0.72
  1

  0
TEXT
  8
DIM
 10
1410.443126
 20
307.374357
 30
0.0
 40
0.72
  1

  0
TEXT
  8
DIM
 10
1346.90725
 20
284.499092
 30
0.0
 40
0.72
  1

  0
TEXT
  8
DIM
 10
1346.90725
 20
324.499092
 30
0.0
 40
0.72
  1

  0
TEXT
  8
DIM
 10
1408.40725
 20
324.499092
 30
0.0
 40
0.72
  1

  0
TEXT
  8
DIM
 10
1053.945949
 20
108.835018
 30
0.0
 40
1.25
  1

  0
TEXT
  8
DIM
 10
1055.008449
 20
104.74126
 30
0.0
 40
1.0
  1

  0
TEXT
  8
DIM
 10
1217.945949
 20
108.835018
 30
0.0
 40
1.25
  1

  0
TEXT
  8
DIM
 10
1219.008449
 20
104.74126
 30
0.0
 40
1.0
  1

  0
TEXT
  8
OBJECT
 10
1219.865192
 20
155.437917
 30
0.0
 40
1.25
  1

  0
TEXT
  8
DIM
 10
1217.945949
 20
108.835018
 30
0.0
 40
1.25
  1

  0
TEXT
  8
DIM
 10
1219.008449
 20
104.74126
 30
0.0
 40
1.0
  1

  0
TEXT
  8
OBJECT
 10
1219.865192
 20
155.437917
 30
0.0
 40
1.25
  1

  0
TEXT
  8
DIM
 10
1235.913326
 20
293.759395
 30
0.0
 40
0.72
  1

  0
TEXT
  8
DIM
 10
1172.377449
 20
270.884129
 30
0.0
 40
0.72
  1

  0
TEXT
  8
DIM
 10
1323.28977
 20
221.762391
 30
0.0
 40
0.72
  1

  0
TEXT
  8
DIM
 10
1259.753894
 20
198.887126
 30
0.0
 40
0.72
  1

  0
TEXT
  8
DIM
 10
1225.943126
 20
307.374357
 30
0.0
 40
0.72
  1

  0
TEXT
  8
DIM
 10
1162.40725
 20
284.499092
 30
0.0
 40
0.72
  1

  0
TEXT
  8
DIM
 10
1162.40725
 20
324.499092
 30
0.0
 40
0.72
  1

  0
TEXT
  8
DIM
 10
1223.90725
 20
324.499092
 30
0.0
 40
0.72
  1

  0
TEXT
  8
DIM
 10
1074.445949
 20
108.835018
 30
0.0
 40
1.25
  1

  0
TEXT
  8
DIM
 10
1075.508449
 20
104.74126
 30
0.0
 40
1.0
  1

  0
TEXT
  8
OBJECT
 10
1076.365192
 20
155.437917
 30
0.0
 40
1.25
  1

  0
TEXT
  8
DIM
 10
1279.445949
 20
108.835018
 30
0.0
 40
1.25
  1

  0
TEXT
  8
DIM
 10
1280.508449
 20
104.74126
 30
0.0
 40
1.0
  1

  0
TEXT
  8
DIM
 10
1443.445949
 20
108.835018
 30
0.0
 40
1.25
  1

  0
TEXT
  8
DIM
 10
1444.508449
 20
104.74126
 30
0.0
 40
1.0
  1

  0
TEXT
  8
OBJECT
 10
1445.365192
 20
155.437917
 30
0.0
 40
1.25
  1

  0
TEXT
  8
DIM
 10
1443.445949
 20
108.835018
 30
0.0
 40
1.25
  1

  0
TEXT
  8
DIM
 10
1444.508449
 20
104.74126
 30
0.0
 40
1.0
  1

  0
TEXT
  8
OBJECT
 10
1445.365192
 20
155.437917
 30
0.0
 40
1.25
  1

  0
TEXT
  8
DIM
 10
1461.413326
 20
293.759395
 30
0.0
 40
0.72
  1

  0
TEXT
  8
DIM
 10
1397.877449
 20
270.884129
 30
0.0
 40
0.72
  1

  0
TEXT
  8
DIM
 10
1548.78977
 20
221.762391
 30
0.0
 40
0.72
  1

  0
TEXT
  8
DIM
 10
1485.253894
 20
198.887126
 30
0.0
 40
0.72
  1

  0
TEXT
  8
DIM
 10
1451.443126
 20
307.374357
 30
0.0
 40
0.72
  1

  0
TEXT
  8
DIM
 10
1387.90725
 20
284.499092
 30
0.0
 40
0.72
  1

  0
TEXT
  8
DIM
 10
1387.90725
 20
324.499092
 30
0.0
 40
0.72
  1

  0
TEXT
  8
DIM
 10
1449.40725
 20
324.499092
 30
0.0
 40
0.72
  1

  0
TEXT
  8
DIM
 10
1238.445949
 20
108.835018
 30
0.0
 40
1.25
  1

  0
TEXT
  8
DIM
 10
1239.508449
 20
104.74126
 30
0.0
 40
1.0
  1

  0
TEXT
  8
OBJECT
 10
1240.365192
 20
155.437917
 30
0.0
 40
1.25
  1

  0
TEXT
  8
DIM
 10
1443.445949
 20
108.835018
 30
0.0
 40
1.25
  1

  0
TEXT
  8
DIM
 10
1444.508449
 20
104.74126
 30
0.0
 40
1.0
  1

  0
TEXT
  8
OBJECT
 10
1445.365192
 20
155.437917
 30
0.0
 40
1.25
  1

  0
TEXT
  8
DIM
 10
1648.445949
 20
108.835018
 30
0.0
 40
1.25
  1

  0
TEXT
  8
DIM
 10
1649.508449
 20
104.74126
 30
0.0
 40
1.0
  1

  0
TEXT
  8
DIM
 10
1812.445949
 20
108.835018
 30
0.0
 40
1.25
  1

  0
TEXT
  8
DIM
 10
1813.508449
 20
104.74126
 30
0.0
 40
1.0
  1

  0
TEXT
  8
OBJECT
 10
1814.365192
 20
155.437917
 30
0.0
 40
1.25
  1

  0
TEXT
  8
DIM
 10
1812.445949
 20
108.835018
 30
0.0
 40
1.25
  1

  0
TEXT
  8
DIM
 10
1813.508449
 20
104.74126
 30
0.0
 40
1.0
  1

  0
TEXT
  8
OBJECT
 10
1814.365192
 20
155.437917
 30
0.0
 40
1.25
  1

  0
TEXT
  8
DIM
 10
1830.413326
 20
293.759395
 30
0.0
 40
0.72
  1

  0
TEXT
  8
DIM
 10
1766.877449
 20
270.884129
 30
0.0
 40
0.72
  1

  0
TEXT
  8
DIM
 10
1917.78977
 20
221.762391
 30
0.0
 40
0.72
  1

  0
TEXT
  8
DIM
 10
1854.253894
 20
198.887126
 30
0.0
 40
0.72
  1

  0
TEXT
  8
DIM
 10
1820.443126
 20
307.374357
 30
0.0
 40
0.72
  1

  0
TEXT
  8
DIM
 10
1756.90725
 20
284.499092
 30
0.0
 40
0.72
  1

  0
TEXT
  8
DIM
 10
1756.90725
 20
324.499092
 30
0.0
 40
0.72
  1

  0
TEXT
  8
DIM
 10
1818.40725
 20
324.499092
 30
0.0
 40
0.72
  1

  0
TEXT
  8
DIM
 10
1443.445949
 20
108.835018
 30
0.0
 40
1.25
  1

  0
TEXT
  8
DIM
 10
1444.508449
 20
104.74126
 30
0.0
 40
1.0
  1

  0
TEXT
  8
OBJECT
 10
1445.365192
 20
155.437917
 30
0.0
 40
1.25
  1

  0
TEXT
  8
DIM
 10
1648.445949
 20
108.835018
 30
0.0
 40
1.25
  1

  0
TEXT
  8
DIM
 10
1649.508449
 20
104.74126
 30
0.0
 40
1.0
  1

  0
TEXT
  8
DIM
 10
1812.445949
 20
108.835018
 30
0.0
 40
1.25
  1

  0
TEXT
  8
DIM
 10
1813.508449
 20
104.74126
 30
0.0
 40
1.0
  1

  0
TEXT
  8
OBJECT
 10
1814.365192
 20
155.437917
 30
0.0
 40
1.25
  1

  0
TEXT
  8
DIM
 10
1812.445949
 20
108.835018
 30
0.0
 40
1.25
  1

  0
TEXT
  8
DIM
 10
1813.508449
 20
104.74126
 30
0.0
 40
1.0
  1

  0
TEXT
  8
OBJECT
 10
1814.365192
 20
155.437917
 30
0.0
 40
1.25
  1

  0
TEXT
  8
DIM
 10
1830.413326
 20
293.759395
 30
0.0
 40
0.72
  1

  0
TEXT
  8
DIM
 10
1766.877449
 20
270.884129
 30
0.0
 40
0.72
  1

  0
TEXT
  8
DIM
 10
1917.78977
 20
221.762391
 30
0.0
 40
0.72
  1

  0
TEXT
  8
DIM
 10
1854.253894
 20
198.887126
 30
0.0
 40
0.72
  1

  0
TEXT
  8
DIM
 10
1820.443126
 20
307.374357
 30
0.0
 40
0.72
  1

  0
TEXT
  8
DIM
 10
1756.90725
 20
284.499092
 30
0.0
 40
0.72
  1

  0
TEXT
  8
DIM
 10
1756.90725
 20
324.499092
 30
0.0
 40
0.72
  1

  0
TEXT
  8
DIM
 10
1818.40725
 20
324.499092
 30
0.0
 40
0.72
  1

  0
TEXT
  8
DIM
 10
1422.945949
 20
108.835018
 30
0.0
 40
1.25
  1

  0
TEXT
  8
DIM
 10
1424.008449
 20
104.74126
 30
0.0
 40
1.0
  1

  0
TEXT
  8
DIM
 10
1586.945949
 20
108.835018
 30
0.0
 40
1.25
  1

  0
TEXT
  8
DIM
 10
1588.008449
 20
104.74126
 30
0.0
 40
1.0
  1

  0
TEXT
  8
OBJECT
 10
1588.865192
 20
155.437917
 30
0.0
 40
1.25
  1

  0
TEXT
  8
DIM
 10
1586.945949
 20
108.835018
 30
0.0
 40
1.25
  1

  0
TEXT
  8
DIM
 10
1588.008449
 20
104.74126
 30
0.0
 40
1.0
  1

  0
TEXT
  8
OBJECT
 10
1588.865192
 20
155.437917
 30
0.0
 40
1.25
  1

  0
TEXT
  8
DIM
 10
1604.913326
 20
293.759395
 30
0.0
 40
0.72
  1

  0
TEXT
  8
DIM
 10
1541.377449
 20
270.884129
 30
0.0
 40
0.72
  1

  0
TEXT
  8
DIM
 10
1692.28977
 20
221.762391
 30
0.0
 40
0.72
  1

  0
TEXT
  8
DIM
 10
1628.753894
 20
198.887126
 30
0.0
 40
0.72
  1

  0
TEXT
  8
DIM
 10
1594.943126
 20
307.374357
 30
0.0
 40
0.72
  1

  0
TEXT
  8
DIM
 10
1531.40725
 20
284.499092
 30
0.0
 40
0.72
  1

  0
TEXT
  8
DIM
 10
1531.40725
 20
324.499092
 30
0.0
 40
0.72
  1

  0
TEXT
  8
DIM
 10
1592.90725
 20
324.499092
 30
0.0
 40
0.72
  1

  0
TEXT
  8
DIM
 10
1238.445949
 20
108.835018
 30
0.0
 40
1.25
  1

  0
TEXT
  8
DIM
 10
1239.508449
 20
104.74126
 30
0.0
 40
1.0
  1

  0
TEXT
  8
OBJECT
 10
1240.365192
 20
155.437917
 30
0.0
 40
1.25
  1

  0
TEXT
  8
DIM
 10
1074.643028
 20
268.54834
 30
0.0
 40
1.25
  1

  0
TEXT
  8
DIM
 10
1075.705528
 20
264.454581
 30
0.0
 40
1.0
  1

  0
TEXT
  8
OBJECT
 10
1076.562271
 20
315.151239
 30
0.0
 40
1.25
  1

  0
TEXT
  8
DIM
 10
889.945949
 20
252.835018
 30
0.0
 40
1.25
  1

  0
TEXT
  8
DIM
 10
891.008449
 20
248.74126
 30
0.0
 40
1.0
  1

  0
TEXT
  8
OBJECT
 10
891.865192
 20
299.437917
 30
0.0
 40
1.25
  1

  0
TEXT
  8
DIM
 10
889.945949
 20
108.835018
 30
0.0
 40
1.25
  1

  0
TEXT
  8
DIM
 10
891.008449
 20
104.74126
 30
0.0
 40
1.0
  1

  0
TEXT
  8
OBJECT
 10
891.865192
 20
155.437917
 30
0.0
 40
1.25
  1

  0
TEXT
  8
DIM
 10
684.945949
 20
108.835018
 30
0.0
 40
1.25
  1

  0
TEXT
  8
DIM
 10
686.008449
 20
104.74126
 30
0.0
 40
1.0
  1

  0
TEXT
  8
OBJECT
 10
686.865192
 20
155.437917
 30
0.0
 40
1.25
  1

  0
TEXT
  8
DIM
 10
459.445949
 20
108.835018
 30
0.0
 40
1.25
  1

  0
TEXT
  8
DIM
 10
460.508449
 20
104.74126
 30
0.0
 40
1.0
  1

  0
TEXT
  8
OBJECT
 10
461.365192
 20
155.437917
 30
0.0
 40
1.25
  1

  0
INSERT
  8
OBJECT
  2
L15
 10
30.390539
 20
151.047517
 30
0.0
  0
INSERT
  8
OBJECT
  2
L15
 10
40.265039
 20
151.047517
 30
0.0
  0
INSERT
  8
OBJECT
  2
L15
 10
30.390539
 20
91.858517
 30
0.0
  0
INSERT
  8
OBJECT
  2
L15
 10
40.265039
 20
91.858517
 30
0.0
  0
INSERT
  8
OBJECT
  2
L15S
 10
114.23579
 20
150.025999
 30
0.0
 50
270.0
  0
INSERT
  8
OBJECT
  2
L15S
 10
114.23579
 20
90.838999
 30
0.0
 50
270.0
  0
INSERT
  8
OBJECT
  2
L15S
 10
136.23579
 20
90.838999
 30
0.0
 41
-1.0
 50
90.0
  0
INSERT
  8
OBJECT
  2
L15S
 10
136.23579
 20
150.025999
 30
0.0
 41
-1.0
 50
90.0
  0
INSERT
  8
OBJECT
  2
L15S
 10
24.392539
 20
151.010517
 30
0.0
 50
270.0
  0
INSERT
  8
OBJECT
  2
L15S
 10
24.392539
 20
91.823517
 30
0.0
 50
270.0
  0
INSERT
  8
OBJECT
  2
L15S
 10
46.392539
 20
91.823517
 30
0.0
 41
-1.0
 50
90.0
  0
INSERT
  8
OBJECT
  2
L15S
 10
46.392539
 20
151.010517
 30
0.0
 41
-1.0
 50
90.0
  0
ARC
  8
OBJECT
 10
115.915039
 20
75.495747
 30
0.0
 40
0.509942
 50
185.316342
 51
220.068093
  0
ARC
  8
OBJECT
 10
115.242542
 20
75.495747
 30
0.0
 40
0.509942
 50
319.931907
 51
354.683658
  0
LINE
  8
OBJECT
 10
115.63279
 20
75.167499
 30
0.0
 11
115.52479
 21
75.167499
 31
0.0
  0
LINE
  8
OBJECT
 10
115.40729
 20
78.447499
 30
0.0
 11
115.75029
 21
78.447499
 31
0.0
  0
ARC
  8
OBJECT
 10
115.915039
 20
78.40025
 30
0.0
 40
0.509942
 50
139.931907
 51
174.683658
  0
LINE
  8
OBJECT
 10
115.63279
 20
78.728499
 30
0.0
 11
115.52479
 21
78.728499
 31
0.0
  0
ARC
  8
OBJECT
 10
115.242542
 20
78.40025
 30
0.0
 40
0.509942
 50
5.316342
 51
40.068093
  0
LINE
  8
OBJECT
 10
115.75029
 20
76.947999
 30
0.0
 11
115.40729
 21
76.947999
 31
0.0
  0
LINE
  8
OBJECT
 10
115.40729
 20
75.448499
 30
0.0
 11
115.75029
 21
75.448499
 31
0.0
  0
LINE
  8
OBJECT
 10
115.40729
 20
76.947999
 30
0.0
 11
115.40729
 21
75.448499
 31
0.0
  0
LINE
  8
OBJECT
 10
115.40729
 20
76.947999
 30
0.0
 11
115.40729
 21
78.447499
 31
0.0
  0
LINE
  8
OBJECT
 10
115.40729
 20
146.917999
 30
0.0
 11
115.75029
 21
146.917999
 31
0.0
  0
LINE
  8
OBJECT
 10
115.40729
 20
148.417499
 30
0.0
 11
115.40729
 21
146.917999
 31
0.0
  0
ARC
  8
OBJECT
 10
115.242542
 20
149.86975
 30
0.0
 40
0.509942
 50
5.316342
 51
40.068093
  0
ARC
  8
OBJECT
 10
115.915039
 20
149.86975
 30
0.0
 40
0.509942
 50
139.931907
 51
174.683658
  0
LINE
  8
OBJECT
 10
115.63279
 20
150.197999
 30
0.0
 11
115.52479
 21
150.197999
 31
0.0
  0
LINE
  8
OBJECT
 10
115.40729
 20
149.916999
 30
0.0
 11
115.75029
 21
149.916999
 31
0.0
  0
LINE
  8
OBJECT
 10
115.75029
 20
148.417499
 30
0.0
 11
115.40729
 21
148.417499
 31
0.0
  0
LINE
  8
OBJECT
 10
115.40729
 20
148.417499
 30
0.0
 11
115.40729
 21
149.916999
 31
0.0
  0
LINE
  8
OBJECT
 10
115.63279
 20
146.636999
 30
0.0
 11
115.52479
 21
146.636999
 31
0.0
  0
ARC
  8
OBJECT
 10
115.915039
 20
146.965247
 30
0.0
 40
0.509942
 50
185.316342
 51
220.068093
  0
ARC
  8
OBJECT
 10
115.242542
 20
146.965247
 30
0.0
 40
0.509942
 50
319.931907
 51
354.683658
  0
TEXT
  8
TEXT
 10
116.417431
 20
65.511764
 30
0.0
 40
2.34375
  1
%%uFRONT VIEW
 41
0.75
 72
     1
 11
125.23579
 21
65.511764
 31
0.0
  0
LINE
  8
CENTER
 10
123.88579
 20
30.32208
 30
0.0
 11
126.58579
 21
30.32208
 31
0.0
  0
LINE
  8
CENTER
 10
125.23579
 20
28.97208
 30
0.0
 11
125.23579
 21
31.67208
 31
0.0
  0
TEXT
  8
TEXT
 10
115.538525
 20
3.306983
 30
0.0
 40
2.34375
  1
%%uBOTTOM VIEW
 41
0.75
 72
     1
 11
125.23579
 21
3.306983
 31
0.0
  0
TEXT
  8
TEXT
 10
118.175243
 20
165.877484
 30
0.0
 40
2.34375
  1
%%uTOP VIEW
 41
0.75
 72
     1
 11
125.23579
 21
165.877484
 31
0.0
  0
POLYLINE
  8
DIM
 66
     1
 10
0.0
 20
0.0
 30
0.0
 41
1.08
  0
VERTEX
  8
DIM
 10
120.305862
 20
190.989905
 30
0.0
  0
VERTEX
  8
DIM
 10
117.554302
 20
191.84039
 30
0.0
 41
0.0
  0
VERTEX
  8
DIM
 10
110.531507
 20
194.011081
 30
0.0
 41
0.0
  0
VERTEX
  8
DIM
 10
107.651506
 20
194.011081
 30
0.0
 41
0.0
  0
SEQEND
  8
DIM
  0
TEXT
  8
DIM
 10
79.211497
 20
192.784016
 30
0.0
 40
2.000001
  1
MOUNTING PROVISIONS
 41
0.75
 72
     2
 11
106.211506
 21
193.784016
 31
0.0
 73
     2
  0
TEXT
  8
DIM
 10
82.711498
 20
189.450682
 30
0.0
 40
2.000001
  1
FOR OPTIONAL FAN.
 41
0.75
 72
     2
 11
106.211506
 21
190.450682
 31
0.0
 73
     2
  0
POLYLINE
  8
DIM
 66
     1
 10
0.0
 20
0.0
 30
0.0
 41
1.080003
  0
VERTEX
  8
DIM
 10
120.534029
 20
29.028469
 30
0.0
 41
1.08
  0
VERTEX
  8
DIM
 10
117.892373
 20
27.881276
 30
0.0
 41
0.0
  0
VERTEX
  8
DIM
 10
106.66633
 20
23.006136
 30
0.0
 41
0.0
  0
VERTEX
  8
DIM
 10
103.786321
 20
23.006136
 30
0.0
 41
0.0
  0
SEQEND
  8
DIM
  0
TEXT
  8
DIM
 10
75.846233
 20
22.006133
 30
0.0
 40
2.000006
  1
9.561 SQUARE CUTOUT
 41
0.75
 72
     2
 11
102.346316
 21
23.006136
 31
0.0
 73
     2
  0
LINE
  8
OBJECT
 10
93.738433
 20
79.073517
 30
0.0
 11
93.738433
 21
144.767289
 31
0.0
  0
LINE
  8
OBJECT
 10
94.488433
 20
72.073517
 30
0.0
 11
94.488433
 21
156.135517
 31
0.0
  0
LINE
  8
OBJECT
 10
65.769433
 20
109.783816
 30
0.0
 11
65.769433
 21
79.573517
 31
0.0
  0
LINE
  8
OBJECT
 10
65.206433
 20
112.354517
 30
0.0
 11
65.206433
 21
107.90908
 31
0.0
  0
LINE
  8
OBJECT
 10
64.488433
 20
105.454864
 30
0.0
 11
64.488433
 21
74.698517
 31
0.0
  0
LINE
  8
OBJECT
 10
63.738433
 20
156.135517
 30
0.0
 11
63.738433
 21
72.073517
 31
0.0
  0
LINE
  8
OBJECT
 10
93.707183
 20
76.073517
 30
0.0
 11
93.613433
 21
76.073517
 31
0.0
  0
LINE
  8
OBJECT
 10
93.707183
 20
76.698517
 30
0.0
 11
93.613433
 21
76.698517
 31
0.0
  0
LINE
  8
OBJECT
 10
93.707183
 20
78.948517
 30
0.0
 11
93.613433
 21
78.948517
 31
0.0
  0
LINE
  8
OBJECT
 10
93.707183
 20
79.573517
 30
0.0
 11
93.613433
 21
79.573517
 31
0.0
  0
LINE
  8
OBJECT
 10
94.348433
 20
74.636517
 30
0.0
 11
63.878433
 21
74.636517
 31
0.0
  0
LINE
  8
OBJECT
 10
94.348433
 20
72.135517
 30
0.0
 11
63.878433
 21
72.135517
 31
0.0
  0
LINE
  8
OBJECT
 10
94.410433
 20
74.698517
 30
0.0
 11
63.816433
 21
74.698517
 31
0.0
  0
LINE
  8
OBJECT
 10
94.488433
 20
72.073517
 30
0.0
 11
63.738433
 21
72.073517
 31
0.0
  0
LINE
  8
OBJECT
 10
64.519683
 20
76.073517
 30
0.0
 11
64.519683
 21
79.573517
 31
0.0
  0
LINE
  8
OBJECT
 10
65.206433
 20
76.073517
 30
0.0
 11
65.206433
 21
74.698517
 31
0.0
  0
CIRCLE
  8
OBJECT
 10
65.113683
 20
76.448517
 30
0.0
 40
0.1405
  0
LINE
  8
OBJECT
 10
63.816433
 20
74.698517
 30
0.0
 11
63.816433
 21
72.073517
 31
0.0
  0
LINE
  8
OBJECT
 10
63.878433
 20
74.636517
 30
0.0
 11
63.878433
 21
72.135517
 31
0.0
  0
CIRCLE
  8
OBJECT
 10
65.113683
 20
79.198517
 30
0.0
 40
0.1405
  0
CIRCLE
  8
OBJECT
 10
64.098433
 20
79.901517
 30
0.0
 40
0.1405
  0
CIRCLE
  8
OBJECT
 10
64.098433
 20
79.214517
 30
0.0
 40
0.1405
  0
CIRCLE
  8
OBJECT
 10
64.098433
 20
77.526517
 30
0.0
 40
0.1405
  0
CIRCLE
  8
OBJECT
 10
64.098433
 20
76.839517
 30
0.0
 40
0.1405
  0
CIRCLE
  8
OBJECT
 10
66.863683
 20
76.448517
 30
0.0
 40
0.218
  0
CIRCLE
  8
OBJECT
 10
69.738683
 20
76.448517
 30
0.0
 40
0.1405
  0
LINE
  8
OBJECT
 10
65.769433
 20
76.073517
 30
0.0
 11
65.769433
 21
74.698517
 31
0.0
  0
CIRCLE
  8
OBJECT
 10
65.738683
 20
76.448517
 30
0.0
 40
0.1405
  0
CIRCLE
  8
OBJECT
 10
65.551433
 20
75.323517
 30
0.0
 40
0.0735
  0
CIRCLE
  8
OBJECT
 10
73.863683
 20
76.448517
 30
0.0
 40
0.1405
  0
CIRCLE
  8
OBJECT
 10
73.238683
 20
76.448517
 30
0.0
 40
0.1405
  0
CIRCLE
  8
OBJECT
 10
72.738683
 20
76.448517
 30
0.0
 40
0.1405
  0
CIRCLE
  8
OBJECT
 10
72.113683
 20
76.448517
 30
0.0
 40
0.1405
  0
CIRCLE
  8
OBJECT
 10
71.488683
 20
76.448517
 30
0.0
 40
0.1405
  0
CIRCLE
  8
OBJECT
 10
70.988683
 20
76.448517
 30
0.0
 40
0.1405
  0
CIRCLE
  8
OBJECT
 10
70.363683
 20
76.448517
 30
0.0
 40
0.1405
  0
CIRCLE
  8
OBJECT
 10
69.738683
 20
79.198517
 30
0.0
 40
0.1405
  0
CIRCLE
  8
OBJECT
 10
65.738683
 20
79.198517
 30
0.0
 40
0.1405
  0
LINE
  8
OBJECT
 10
66.022433
 20
78.198517
 30
0.0
 11
65.926433
 21
78.198517
 31
0.0
  0
POLYLINE
  8
OBJECT
 66
     1
 10
0.0
 20
0.0
 30
0.0
 70
     1
  0
VERTEX
  8
OBJECT
 10
65.519183
 20
77.698517
 30
0.0
  0
VERTEX
  8
OBJECT
 10
65.582183
 20
77.698517
 30
0.0
 42
1.0
  0
VERTEX
  8
OBJECT
 10
65.582183
 20
77.948517
 30
0.0
  0
VERTEX
  8
OBJECT
 10
65.519183
 20
77.948517
 30
0.0
 42
1.0
  0
SEQEND
  8
OBJECT
  0
LINE
  8
OBJECT
 10
66.022433
 20
77.448517
 30
0.0
 11
65.926433
 21
77.448517
 31
0.0
  0
LINE
  8
OBJECT
 10
65.926433
 20
78.823517
 30
0.0
 11
65.926433
 21
76.823517
 31
0.0
  0
CIRCLE
  8
OBJECT
 10
73.863683
 20
79.198517
 30
0.0
 40
0.1405
  0
CIRCLE
  8
OBJECT
 10
73.238683
 20
79.198517
 30
0.0
 40
0.1405
  0
CIRCLE
  8
OBJECT
 10
72.738683
 20
79.198517
 30
0.0
 40
0.1405
  0
CIRCLE
  8
OBJECT
 10
72.113683
 20
79.198517
 30
0.0
 40
0.1405
  0
CIRCLE
  8
OBJECT
 10
71.488683
 20
79.198517
 30
0.0
 40
0.1405
  0
CIRCLE
  8
OBJECT
 10
70.988683
 20
79.198517
 30
0.0
 40
0.1405
  0
CIRCLE
  8
OBJECT
 10
70.363683
 20
79.198517
 30
0.0
 40
0.1405
  0
CIRCLE
  8
OBJECT
 10
83.738683
 20
76.448517
 30
0.0
 40
0.1405
  0
CIRCLE
  8
OBJECT
 10
77.988683
 20
76.448517
 30
0.0
 40
0.1405
  0
CIRCLE
  8
OBJECT
 10
77.363683
 20
76.448517
 30
0.0
 40
0.1405
  0
CIRCLE
  8
OBJECT
 10
76.738683
 20
76.448517
 30
0.0
 40
0.1405
  0
CIRCLE
  8
OBJECT
 10
76.238683
 20
76.448517
 30
0.0
 40
0.1405
  0
CIRCLE
  8
OBJECT
 10
75.613683
 20
76.448517
 30
0.0
 40
0.1405
  0
CIRCLE
  8
OBJECT
 10
74.988683
 20
76.448517
 30
0.0
 40
0.1405
  0
CIRCLE
  8
OBJECT
 10
74.488683
 20
76.448517
 30
0.0
 40
0.1405
  0
CIRCLE
  8
OBJECT
 10
87.863683
 20
76.448517
 30
0.0
 40
0.1405
  0
CIRCLE
  8
OBJECT
 10
87.238683
 20
76.448517
 30
0.0
 40
0.1405
  0
CIRCLE
  8
OBJECT
 10
85.488683
 20
76.448517
 30
0.0
 40
0.1405
  0
CIRCLE
  8
OBJECT
 10
86.113683
 20
76.448517
 30
0.0
 40
0.1405
  0
CIRCLE
  8
OBJECT
 10
86.738683
 20
76.448517
 30
0.0
 40
0.1405
  0
CIRCLE
  8
OBJECT
 10
84.988683
 20
76.448517
 30
0.0
 40
0.1405
  0
CIRCLE
  8
OBJECT
 10
84.363683
 20
76.448517
 30
0.0
 40
0.1405
  0
CIRCLE
  8
OBJECT
 10
83.738683
 20
79.198517
 30
0.0
 40
0.1405
  0
CIRCLE
  8
OBJECT
 10
77.988683
 20
79.198517
 30
0.0
 40
0.1405
  0
CIRCLE
  8
OBJECT
 10
77.363683
 20
79.198517
 30
0.0
 40
0.1405
  0
CIRCLE
  8
OBJECT
 10
76.738683
 20
79.198517
 30
0.0
 40
0.1405
  0
CIRCLE
  8
OBJECT
 10
76.238683
 20
79.198517
 30
0.0
 40
0.1405
  0
CIRCLE
  8
OBJECT
 10
75.613683
 20
79.198517
 30
0.0
 40
0.1405
  0
CIRCLE
  8
OBJECT
 10
74.988683
 20
79.198517
 30
0.0
 40
0.1405
  0
CIRCLE
  8
OBJECT
 10
74.488683
 20
79.198517
 30
0.0
 40
0.1405
  0
CIRCLE
  8
OBJECT
 10
87.863683
 20
79.198517
 30
0.0
 40
0.1405
  0
CIRCLE
  8
OBJECT
 10
87.238683
 20
79.198517
 30
0.0
 40
0.1405
  0
CIRCLE
  8
OBJECT
 10
85.488683
 20
79.198517
 30
0.0
 40
0.1405
  0
CIRCLE
  8
OBJECT
 10
86.113683
 20
79.198517
 30
0.0
 40
0.1405
  0
CIRCLE
  8
OBJECT
 10
86.738683
 20
79.198517
 30
0.0
 40
0.1405
  0
CIRCLE
  8
OBJECT
 10
84.988683
 20
79.198517
 30
0.0
 40
0.1405
  0
CIRCLE
  8
OBJECT
 10
84.363683
 20
79.198517
 30
0.0
 40
0.1405
  0
CIRCLE
  8
OBJECT
 10
93.113183
 20
76.448517
 30
0.0
 40
0.218
  0
LINE
  8
OBJECT
 10
93.707183
 20
74.698517
 30
0.0
 11
93.707183
 21
79.573517
 31
0.0
  0
LINE
  8
OBJECT
 10
92.457433
 20
74.698517
 30
0.0
 11
92.457433
 21
74.728517
 31
0.0
  0
CIRCLE
  8
OBJECT
 10
88.488683
 20
76.448517
 30
0.0
 40
0.1405
  0
CIRCLE
  8
OBJECT
 10
91.363183
 20
76.448517
 30
0.0
 40
0.1405
  0
LINE
  8
OBJECT
 10
94.348433
 20
72.135517
 30
0.0
 11
94.348433
 21
74.636517
 31
0.0
  0
LINE
  8
OBJECT
 10
94.410433
 20
72.073517
 30
0.0
 11
94.410433
 21
74.698517
 31
0.0
  0
POLYLINE
  8
OBJECT
 66
     1
 10
0.0
 20
0.0
 30
0.0
 70
     1
  0
VERTEX
  8
OBJECT
 10
92.707683
 20
77.698517
 30
0.0
  0
VERTEX
  8
OBJECT
 10
92.644683
 20
77.698517
 30
0.0
 42
-1.0
  0
VERTEX
  8
OBJECT
 10
92.644683
 20
77.948517
 30
0.0
  0
VERTEX
  8
OBJECT
 10
92.707683
 20
77.948517
 30
0.0
 42
-1.0
  0
SEQEND
  8
OBJECT
  0
CIRCLE
  8
OBJECT
 10
88.488683
 20
79.198517
 30
0.0
 40
0.1405
  0
CIRCLE
  8
OBJECT
 10
91.363183
 20
79.198517
 30
0.0
 40
0.1405
  0
CIRCLE
  8
OBJECT
 10
94.128433
 20
79.901517
 30
0.0
 40
0.1405
  0
CIRCLE
  8
OBJECT
 10
94.128433
 20
79.214517
 30
0.0
 40
0.1405
  0
CIRCLE
  8
OBJECT
 10
94.128433
 20
77.526517
 30
0.0
 40
0.1405
  0
CIRCLE
  8
OBJECT
 10
94.128433
 20
76.839517
 30
0.0
 40
0.1405
  0
LINE
  8
HIDDEN
 10
92.457433
 20
143.363468
 30
0.0
 11
92.457433
 21
153.510517
 31
0.0
  0
LINE
  8
HIDDEN
 10
65.769433
 20
153.510517
 30
0.0
 11
65.769433
 21
109.783816
 31
0.0
  0
LINE
  8
OBJECT
 10
65.206433
 20
148.635517
 30
0.0
 11
65.206433
 21
115.854517
 31
0.0
  0
LINE
  8
OBJECT
 10
93.707183
 20
112.354517
 30
0.0
 11
93.613433
 21
112.354517
 31
0.0
  0
LINE
  8
OBJECT
 10
93.707183
 20
112.979517
 30
0.0
 11
93.613433
 21
112.979517
 31
0.0
  0
LINE
  8
OBJECT
 10
93.707183
 20
115.229517
 30
0.0
 11
93.613433
 21
115.229517
 31
0.0
  0
LINE
  8
OBJECT
 10
93.707183
 20
115.854517
 30
0.0
 11
93.613433
 21
115.854517
 31
0.0
  0
LINE
  8
HIDDEN
 10
66.550433
 20
115.104517
 30
0.0
 11
66.550433
 21
113.104517
 31
0.0
  0
LINE
  8
HIDDEN
 10
65.926433
 20
115.104517
 30
0.0
 11
65.926433
 21
113.104517
 31
0.0
  0
LINE
  8
HIDDEN
 10
66.550433
 20
113.729517
 30
0.0
 11
65.926433
 21
113.729517
 31
0.0
  0
CIRCLE
  8
OBJECT
 10
72.738683
 20
112.729517
 30
0.0
 40
0.1405
  0
CIRCLE
  8
OBJECT
 10
73.238683
 20
112.729517
 30
0.0
 40
0.1405
  0
CIRCLE
  8
OBJECT
 10
73.863683
 20
112.729517
 30
0.0
 40
0.1405
  0
CIRCLE
  8
OBJECT
 10
72.113683
 20
112.729517
 30
0.0
 40
0.1405
  0
CIRCLE
  8
OBJECT
 10
83.738683
 20
112.729517
 30
0.0
 40
0.1405
  0
CIRCLE
  8
OBJECT
 10
77.988683
 20
112.729517
 30
0.0
 40
0.1405
  0
CIRCLE
  8
OBJECT
 10
76.238683
 20
112.729517
 30
0.0
 40
0.1405
  0
CIRCLE
  8
OBJECT
 10
76.738683
 20
112.729517
 30
0.0
 40
0.1405
  0
CIRCLE
  8
OBJECT
 10
75.613683
 20
112.729517
 30
0.0
 40
0.1405
  0
CIRCLE
  8
OBJECT
 10
77.363683
 20
112.729517
 30
0.0
 40
0.1405
  0
CIRCLE
  8
OBJECT
 10
74.488683
 20
112.729517
 30
0.0
 40
0.1405
  0
CIRCLE
  8
OBJECT
 10
74.988683
 20
112.729517
 30
0.0
 40
0.1405
  0
CIRCLE
  8
OBJECT
 10
87.863683
 20
112.729517
 30
0.0
 40
0.1405
  0
CIRCLE
  8
OBJECT
 10
86.738683
 20
112.729517
 30
0.0
 40
0.1405
  0
CIRCLE
  8
OBJECT
 10
86.113683
 20
112.729517
 30
0.0
 40
0.1405
  0
CIRCLE
  8
OBJECT
 10
87.238683
 20
112.729517
 30
0.0
 40
0.1405
  0
CIRCLE
  8
OBJECT
 10
84.988683
 20
112.729517
 30
0.0
 40
0.1405
  0
CIRCLE
  8
OBJECT
 10
85.488683
 20
112.729517
 30
0.0
 40
0.1405
  0
CIRCLE
  8
OBJECT
 10
84.363683
 20
112.729517
 30
0.0
 40
0.1405
  0
POLYLINE
  8
HIDDEN
 66
     1
 10
0.0
 20
0.0
 30
0.0
 70
     1
  0
VERTEX
  8
HIDDEN
 10
65.519183
 20
113.979517
 30
0.0
  0
VERTEX
  8
HIDDEN
 10
65.582183
 20
113.979517
 30
0.0
 42
1.0
  0
VERTEX
  8
HIDDEN
 10
65.582183
 20
114.229517
 30
0.0
  0
VERTEX
  8
HIDDEN
 10
65.519183
 20
114.229517
 30
0.0
 42
1.0
  0
SEQEND
  8
HIDDEN
  0
LINE
  8
HIDDEN
 10
66.550433
 20
114.479517
 30
0.0
 11
65.926433
 21
114.479517
 31
0.0
  0
CIRCLE
  8
OBJECT
 10
72.738683
 20
115.479517
 30
0.0
 40
0.1405
  0
CIRCLE
  8
OBJECT
 10
73.238683
 20
115.479517
 30
0.0
 40
0.1405
  0
CIRCLE
  8
OBJECT
 10
73.863683
 20
115.479517
 30
0.0
 40
0.1405
  0
CIRCLE
  8
OBJECT
 10
72.113683
 20
115.479517
 30
0.0
 40
0.1405
  0
CIRCLE
  8
OBJECT
 10
83.738683
 20
115.479517
 30
0.0
 40
0.1405
  0
CIRCLE
  8
OBJECT
 10
77.988683
 20
115.479517
 30
0.0
 40
0.1405
  0
CIRCLE
  8
OBJECT
 10
76.238683
 20
115.479517
 30
0.0
 40
0.1405
  0
CIRCLE
  8
OBJECT
 10
76.738683
 20
115.479517
 30
0.0
 40
0.1405
  0
CIRCLE
  8
OBJECT
 10
75.613683
 20
115.479517
 30
0.0
 40
0.1405
  0
CIRCLE
  8
OBJECT
 10
77.363683
 20
115.479517
 30
0.0
 40
0.1405
  0
CIRCLE
  8
OBJECT
 10
74.488683
 20
115.479517
 30
0.0
 40
0.1405
  0
CIRCLE
  8
OBJECT
 10
74.988683
 20
115.479517
 30
0.0
 40
0.1405
  0
CIRCLE
  8
OBJECT
 10
87.863683
 20
115.479517
 30
0.0
 40
0.1405
  0
CIRCLE
  8
OBJECT
 10
86.738683
 20
115.479517
 30
0.0
 40
0.1405
  0
CIRCLE
  8
OBJECT
 10
86.113683
 20
115.479517
 30
0.0
 40
0.1405
  0
CIRCLE
  8
OBJECT
 10
87.238683
 20
115.479517
 30
0.0
 40
0.1405
  0
CIRCLE
  8
OBJECT
 10
84.988683
 20
115.479517
 30
0.0
 40
0.1405
  0
CIRCLE
  8
OBJECT
 10
85.488683
 20
115.479517
 30
0.0
 40
0.1405
  0
CIRCLE
  8
OBJECT
 10
84.363683
 20
115.479517
 30
0.0
 40
0.1405
  0
LINE
  8
OBJECT
 10
93.707183
 20
112.354517
 30
0.0
 11
93.707183
 21
115.854517
 31
0.0
  0
CIRCLE
  8
OBJECT
 10
88.488683
 20
112.729517
 30
0.0
 40
0.1405
  0
CIRCLE
  8
OBJECT
 10
91.363183
 20
112.729517
 30
0.0
 40
0.1405
  0
CIRCLE
  8
OBJECT
 10
93.113183
 20
112.729517
 30
0.0
 40
0.218
  0
CIRCLE
  8
OBJECT
 10
88.488683
 20
115.479517
 30
0.0
 40
0.1405
  0
CIRCLE
  8
OBJECT
 10
91.363183
 20
115.479517
 30
0.0
 40
0.1405
  0
LINE
  8
HIDDEN
 10
92.457433
 20
148.635517
 30
0.0
 11
65.769433
 21
148.635517
 31
0.0
  0
LINE
  8
HIDDEN
 10
92.457433
 20
152.135517
 30
0.0
 11
65.769433
 21
152.135517
 31
0.0
  0
LINE
  8
OBJECT
 10
94.488433
 20
156.135517
 30
0.0
 11
63.738433
 21
156.135517
 31
0.0
  0
LINE
  8
OBJECT
 10
93.020433
 20
153.510517
 30
0.0
 11
65.206433
 21
153.510517
 31
0.0
  0
DIMENSION
  8
DIM
  2
*D32
 10
93.738433
 20
90.436548
 30
0.0
 11
79.113433
 21
90.436548
 31
0.0
  1
<> C.I.D.
 13
64.488433
 23
90.436548
 33
0.0
 14
93.738433
 24
90.436548
 34
0.0
  3
23NSTDI
  0
LINE
  8
OBJECT
 10
65.206433
 20
153.510517
 30
0.0
 11
65.206433
 21
152.135517
 31
0.0
  0
LINE
  8
HIDDEN
 10
66.550433
 20
151.385517
 30
0.0
 11
66.550433
 21
149.385517
 31
0.0
  0
LINE
  8
HIDDEN
 10
65.926433
 20
151.385517
 30
0.0
 11
65.926433
 21
149.385517
 31
0.0
  0
POLYLINE
  8
HIDDEN
 66
     1
 10
0.0
 20
0.0
 30
0.0
 70
     1
  0
VERTEX
  8
HIDDEN
 10
65.519183
 20
150.260517
 30
0.0
  0
VERTEX
  8
HIDDEN
 10
65.582183
 20
150.260517
 30
0.0
 42
1.0
  0
VERTEX
  8
HIDDEN
 10
65.582183
 20
150.510517
 30
0.0
  0
VERTEX
  8
HIDDEN
 10
65.519183
 20
150.510517
 30
0.0
 42
1.0
  0
SEQEND
  8
HIDDEN
  0
LINE
  8
HIDDEN
 10
66.550433
 20
150.760517
 30
0.0
 11
65.926433
 21
150.760517
 31
0.0
  0
LINE
  8
HIDDEN
 10
66.550433
 20
150.010517
 30
0.0
 11
65.926433
 21
150.010517
 31
0.0
  0
CIRCLE
  8
HIDDEN
 10
65.551433
 20
152.885517
 30
0.0
 40
0.0735
  0
LINE
  8
HIDDEN
 10
92.300433
 20
151.385517
 30
0.0
 11
92.300433
 21
149.385517
 31
0.0
  0
LINE
  8
HIDDEN
 10
91.676433
 20
151.385517
 30
0.0
 11
91.676433
 21
149.385517
 31
0.0
  0
POLYLINE
  8
HIDDEN
 66
     1
 10
0.0
 20
0.0
 30
0.0
 70
     1
  0
VERTEX
  8
HIDDEN
 10
92.707683
 20
150.260517
 30
0.0
  0
VERTEX
  8
HIDDEN
 10
92.644683
 20
150.260517
 30
0.0
 42
-1.0
  0
VERTEX
  8
HIDDEN
 10
92.644683
 20
150.510517
 30
0.0
  0
VERTEX
  8
HIDDEN
 10
92.707683
 20
150.510517
 30
0.0
 42
-1.0
  0
SEQEND
  8
HIDDEN
  0
CIRCLE
  8
HIDDEN
 10
91.988433
 20
150.385517
 30
0.0
 40
0.1405
  0
LINE
  8
HIDDEN
 10
92.300433
 20
150.760517
 30
0.0
 11
91.676433
 21
150.760517
 31
0.0
  0
LINE
  8
HIDDEN
 10
92.300433
 20
150.010517
 30
0.0
 11
91.676433
 21
150.010517
 31
0.0
  0
CIRCLE
  8
HIDDEN
 10
92.675433
 20
152.885517
 30
0.0
 40
0.0735
  0
LINE
  8
OBJECT
 10
93.020433
 20
152.135517
 30
0.0
 11
93.020433
 21
153.510517
 31
0.0
  0
CIRCLE
  8
OBJECT
 10
66.238433
 20
114.104517
 30
0.0
 40
0.218
  0
INSERT
  8
OBJECT
  2
L15S
 10
63.738433
 20
151.011517
 30
0.0
 50
270.0
  0
INSERT
  8
OBJECT
  2
L15
 10
71.393933
 20
151.010517
 30
0.0
  0
ARC
  8
OBJECT
 10
95.058182
 20
150.854518
 30
0.0
 40
0.509942
 50
139.931907
 51
174.683658
  0
ARC
  8
OBJECT
 10
94.385685
 20
150.854518
 30
0.0
 40
0.509942
 50
5.316342
 51
40.068093
  0
CIRCLE
  8
OBJECT
 10
91.988433
 20
150.385517
 30
0.0
 40
0.218
  0
LINE
  8
OBJECT
 10
94.550433
 20
150.901767
 30
0.0
 11
94.550433
 21
149.401267
 31
0.0
  0
LINE
  8
OBJECT
 10
94.893433
 20
149.401267
 30
0.0
 11
94.893433
 21
150.901767
 31
0.0
  0
LINE
  8
OBJECT
 10
94.893433
 20
150.901767
 30
0.0
 11
94.488433
 21
150.901767
 31
0.0
  0
LINE
  8
OBJECT
 10
94.488433
 20
149.401267
 30
0.0
 11
94.893433
 21
149.401267
 31
0.0
  0
ARC
  8
OBJECT
 10
94.385685
 20
147.948015
 30
0.0
 40
0.509942
 50
319.931907
 51
354.683658
  0
ARC
  8
OBJECT
 10
95.058182
 20
147.948015
 30
0.0
 40
0.509942
 50
185.316342
 51
220.068093
  0
LINE
  8
OBJECT
 10
94.893433
 20
147.900767
 30
0.0
 11
94.488433
 21
147.900767
 31
0.0
  0
LINE
  8
OBJECT
 10
94.775933
 20
147.619767
 30
0.0
 11
94.667933
 21
147.619767
 31
0.0
  0
LINE
  8
OBJECT
 10
94.893433
 20
149.401267
 30
0.0
 11
94.893433
 21
147.900767
 31
0.0
  0
LINE
  8
OBJECT
 10
94.550433
 20
147.900767
 30
0.0
 11
94.550433
 21
149.401267
 31
0.0
  0
LINE
  8
OBJECT
 10
94.775933
 20
151.182767
 30
0.0
 11
94.667933
 21
151.182767
 31
0.0
  0
ARC
  8
OBJECT
 10
63.841182
 20
150.854518
 30
0.0
 40
0.509942
 50
139.931907
 51
174.683658
  0
ARC
  8
OBJECT
 10
63.168685
 20
150.854518
 30
0.0
 40
0.509942
 50
5.316342
 51
40.068093
  0
CIRCLE
  8
OBJECT
 10
66.238433
 20
150.385517
 30
0.0
 40
0.218
  0
LINE
  8
OBJECT
 10
63.738433
 20
149.401267
 30
0.0
 11
63.333433
 21
149.401267
 31
0.0
  0
LINE
  8
OBJECT
 10
63.333433
 20
150.901767
 30
0.0
 11
63.738433
 21
150.901767
 31
0.0
  0
LINE
  8
OBJECT
 10
63.333433
 20
149.401267
 30
0.0
 11
63.333433
 21
150.901767
 31
0.0
  0
LINE
  8
OBJECT
 10
63.676433
 20
150.901767
 30
0.0
 11
63.676433
 21
149.401267
 31
0.0
  0
LINE
  8
OBJECT
 10
63.450933
 20
147.619767
 30
0.0
 11
63.558933
 21
147.619767
 31
0.0
  0
LINE
  8
OBJECT
 10
63.333433
 20
147.900767
 30
0.0
 11
63.738433
 21
147.900767
 31
0.0
  0
ARC
  8
OBJECT
 10
63.168685
 20
147.948015
 30
0.0
 40
0.509942
 50
319.931907
 51
354.683658
  0
ARC
  8
OBJECT
 10
63.841182
 20
147.948015
 30
0.0
 40
0.509942
 50
185.316342
 51
220.068093
  0
LINE
  8
OBJECT
 10
63.676433
 20
147.900767
 30
0.0
 11
63.676433
 21
149.401267
 31
0.0
  0
LINE
  8
OBJECT
 10
63.333433
 20
149.401267
 30
0.0
 11
63.333433
 21
147.900767
 31
0.0
  0
LINE
  8
OBJECT
 10
63.450933
 20
151.182767
 30
0.0
 11
63.558933
 21
151.182767
 31
0.0
  0
CIRCLE
  8
OBJECT
 10
88.988683
 20
115.479517
 30
0.0
 40
0.1405
  0
CIRCLE
  8
OBJECT
 10
90.738683
 20
115.479517
 30
0.0
 40
0.1405
  0
CIRCLE
  8
OBJECT
 10
89.613683
 20
115.479517
 30
0.0
 40
0.1405
  0
CIRCLE
  8
OBJECT
 10
90.238683
 20
115.479517
 30
0.0
 40
0.1405
  0
CIRCLE
  8
OBJECT
 10
88.988683
 20
112.729517
 30
0.0
 40
0.1405
  0
CIRCLE
  8
OBJECT
 10
90.738683
 20
112.729517
 30
0.0
 40
0.1405
  0
CIRCLE
  8
OBJECT
 10
89.613683
 20
112.729517
 30
0.0
 40
0.1405
  0
CIRCLE
  8
OBJECT
 10
90.238683
 20
112.729517
 30
0.0
 40
0.1405
  0
CIRCLE
  8
OBJECT
 10
93.113183
 20
79.198517
 30
0.0
 40
0.218
  0
CIRCLE
  8
OBJECT
 10
90.238683
 20
79.198517
 30
0.0
 40
0.1405
  0
CIRCLE
  8
OBJECT
 10
89.613683
 20
79.198517
 30
0.0
 40
0.1405
  0
CIRCLE
  8
OBJECT
 10
88.988683
 20
79.198517
 30
0.0
 40
0.1405
  0
CIRCLE
  8
OBJECT
 10
90.738683
 20
79.198517
 30
0.0
 40
0.1405
  0
CIRCLE
  8
OBJECT
 10
90.238683
 20
76.448517
 30
0.0
 40
0.1405
  0
CIRCLE
  8
OBJECT
 10
89.613683
 20
76.448517
 30
0.0
 40
0.1405
  0
CIRCLE
  8
OBJECT
 10
88.988683
 20
76.448517
 30
0.0
 40
0.1405
  0
CIRCLE
  8
OBJECT
 10
90.738683
 20
76.448517
 30
0.0
 40
0.1405
  0
CIRCLE
  8
OBJECT
 10
66.863683
 20
79.198517
 30
0.0
 40
0.218
  0
CIRCLE
  8
OBJECT
 10
68.613683
 20
79.198517
 30
0.0
 40
0.1405
  0
CIRCLE
  8
OBJECT
 10
69.238683
 20
79.198517
 30
0.0
 40
0.1405
  0
CIRCLE
  8
OBJECT
 10
68.613683
 20
76.448517
 30
0.0
 40
0.1405
  0
CIRCLE
  8
OBJECT
 10
69.238683
 20
76.448517
 30
0.0
 40
0.1405
  0
POLYLINE
  8
OBJECT
 66
     1
 10
0.0
 20
0.0
 30
0.0
 75
     6
  0
VERTEX
  8
OBJECT
 10
94.488433
 20
145.324788
 30
0.0
  0
VERTEX
  8
OBJECT
 10
94.075004
 20
145.071007
 30
0.0
  0
VERTEX
  8
OBJECT
 10
93.220737
 20
144.300127
 30
0.0
  0
VERTEX
  8
OBJECT
 10
92.586417
 20
143.53498
 30
0.0
  0
VERTEX
  8
OBJECT
 10
92.044642
 20
142.814573
 30
0.0
  0
VERTEX
  8
OBJECT
 10
91.468011
 20
142.177912
 30
0.0
  0
VERTEX
  8
OBJECT
 10
90.756486
 20
141.651299
 30
0.0
  0
VERTEX
  8
OBJECT
 10
89.919492
 20
141.210221
 30
0.0
  0
VERTEX
  8
OBJECT
 10
88.993819
 20
140.817462
 30
0.0
  0
VERTEX
  8
OBJECT
 10
88.016258
 20
140.435805
 30
0.0
  0
VERTEX
  8
OBJECT
 10
87.023598
 20
140.028034
 30
0.0
  0
VERTEX
  8
OBJECT
 10
86.052629
 20
139.556931
 30
0.0
  0
VERTEX
  8
OBJECT
 10
85.140142
 20
138.98528
 30
0.0
  0
VERTEX
  8
OBJECT
 10
84.322925
 20
138.275864
 30
0.0
  0
VERTEX
  8
OBJECT
 10
83.627935
 20
137.403622
 30
0.0
  0
VERTEX
  8
OBJECT
 10
77.792791
 20
136.392111
 30
0.0
  0
VERTEX
  8
OBJECT
 10
77.295278
 20
135.277043
 30
0.0
  0
VERTEX
  8
OBJECT
 10
76.86318
 20
134.09413
 30
0.0
  0
VERTEX
  8
OBJECT
 10
76.474283
 20
132.879083
 30
0.0
  0
VERTEX
  8
OBJECT
 10
76.106371
 20
131.667616
 30
0.0
  0
VERTEX
  8
OBJECT
 10
75.737229
 20
130.49544
 30
0.0
  0
VERTEX
  8
OBJECT
 10
75.344642
 20
129.398268
 30
0.0
  0
VERTEX
  8
OBJECT
 10
74.912835
 20
128.402686
 30
0.0
  0
VERTEX
  8
OBJECT
 10
74.451797
 20
127.498784
 30
0.0
  0
VERTEX
  8
OBJECT
 10
73.977957
 20
126.667526
 30
0.0
  0
VERTEX
  8
OBJECT
 10
73.507744
 20
125.889875
 30
0.0
  0
VERTEX
  8
OBJECT
 10
73.057587
 20
125.146797
 30
0.0
  0
VERTEX
  8
OBJECT
 10
72.643915
 20
124.419255
 30
0.0
  0
VERTEX
  8
OBJECT
 10
72.283157
 20
123.688213
 30
0.0
  0
VERTEX
  8
OBJECT
 10
71.991743
 20
122.934636
 30
0.0
  0
VERTEX
  8
OBJECT
 10
71.779168
 20
122.144816
 30
0.0
  0
VERTEX
  8
OBJECT
 10
71.627203
 20
121.326363
 30
0.0
  0
VERTEX
  8
OBJECT
 10
71.510685
 20
120.492215
 30
0.0
  0
VERTEX
  8
OBJECT
 10
71.404452
 20
119.655309
 30
0.0
  0
VERTEX
  8
OBJECT
 10
71.28334
 20
118.828585
 30
0.0
  0
VERTEX
  8
OBJECT
 10
71.122188
 20
118.024979
 30
0.0
  0
VERTEX
  8
OBJECT
 10
70.895832
 20
117.257429
 30
0.0
  0
VERTEX
  8
OBJECT
 10
70.57911
 20
116.538875
 30
0.0
  0
VERTEX
  8
OBJECT
 10
70.155399
 20
115.875729
 30
0.0
  0
VERTEX
  8
OBJECT
 10
69.642231
 20
115.248308
 30
0.0
  0
VERTEX
  8
OBJECT
 10
69.06568
 20
114.630406
 30
0.0
  0
VERTEX
  8
OBJECT
 10
68.451817
 20
113.995813
 30
0.0
  0
VERTEX
  8
OBJECT
 10
67.826714
 20
113.318324
 30
0.0
  0
VERTEX
  8
OBJECT
 10
67.216445
 20
112.571731
 30
0.0
  0
VERTEX
  8
OBJECT
 10
66.64708
 20
111.729825
 30
0.0
  0
VERTEX
  8
OBJECT
 10
66.144693
 20
110.766401
 30
0.0
  0
VERTEX
  8
OBJECT
 10
65.724252
 20
109.665512
 30
0.0
  0
VERTEX
  8
OBJECT
 10
65.356307
 20
108.452265
 30
0.0
  0
VERTEX
  8
OBJECT
 10
65.000308
 20
107.162025
 30
0.0
  0
VERTEX
  8
OBJECT
 10
64.6157
 20
105.830161
 30
0.0
  0
VERTEX
  8
OBJECT
 10
64.161931
 20
104.49204
 30
0.0
  0
VERTEX
  8
OBJECT
 10
63.738433
 20
103.508224
 30
0.0
  0
SEQEND
  8
OBJECT
  0
LINE
  8
OBJECT
 10
93.020433
 20
144.058511
 30
0.0
 11
93.020433
 21
156.135517
 31
0.0
  0
LINE
  8
OBJECT
 10
65.206433
 20
156.135517
 30
0.0
 11
65.206433
 21
107.90908
 31
0.0
  0
POLYLINE
  8
HIDDEN
 66
     1
 10
0.0
 20
0.0
 30
0.0
 70
     1
  0
VERTEX
  8
HIDDEN
 10
78.956933
 20
149.854017
 30
0.0
  0
VERTEX
  8
HIDDEN
 10
78.956933
 20
150.917017
 30
0.0
  0
VERTEX
  8
HIDDEN
 10
79.269933
 20
150.917017
 30
0.0
  0
VERTEX
  8
HIDDEN
 10
79.269933
 20
149.854017
 30
0.0
  0
SEQEND
  8
HIDDEN
  0
LINE
  8
HIDDEN
 10
92.113433
 20
153.478517
 30
0.0
 11
92.113433
 21
152.135517
 31
0.0
  0
LINE
  8
HIDDEN
 10
92.457433
 20
153.478517
 30
0.0
 11
91.535433
 21
153.478517
 31
0.0
  0
LINE
  8
HIDDEN
 10
91.535433
 20
153.478517
 30
0.0
 11
91.535433
 21
152.135517
 31
0.0
  0
LINE
  8
HIDDEN
 10
92.113433
 20
148.635517
 30
0.0
 11
92.113433
 21
142.906046
 31
0.0
  0
LINE
  8
HIDDEN
 10
91.535433
 20
148.635517
 30
0.0
 11
91.535433
 21
142.252354
 31
0.0
  0
LINE
  8
HIDDEN
 10
66.022433
 20
153.480517
 30
0.0
 11
66.022433
 21
152.135517
 31
0.0
  0
LINE
  8
HIDDEN
 10
68.100433
 20
153.480517
 30
0.0
 11
66.022433
 21
153.480517
 31
0.0
  0
ARC
  8
PMR
 10
67.850433
 20
113.480517
 30
0.0
 40
0.1405
 50
268.507295
 51
6.098777
  0
LINE
  8
HIDDEN
 10
66.022433
 20
148.635517
 30
0.0
 11
66.022433
 21
115.854517
 31
0.0
  0
LINE
  8
HIDDEN
 10
67.522433
 20
152.135517
 30
0.0
 11
67.522433
 21
153.480517
 31
0.0
  0
LINE
  8
HIDDEN
 10
68.100433
 20
152.135517
 30
0.0
 11
68.100433
 21
153.480517
 31
0.0
  0
LINE
  8
HIDDEN
 10
67.069547
 20
112.354517
 30
0.0
 11
65.769433
 21
112.354517
 31
0.0
  0
LINE
  8
HIDDEN
 10
70.138049
 20
115.854517
 30
0.0
 11
65.769433
 21
115.854517
 31
0.0
  0
LINE
  8
HIDDEN
 10
68.100433
 20
115.854517
 30
0.0
 11
68.100433
 21
148.635517
 31
0.0
  0
LINE
  8
HIDDEN
 10
67.522433
 20
115.854517
 30
0.0
 11
67.522433
 21
148.635517
 31
0.0
  0
LINE
  8
HIDDEN
 10
66.022433
 20
112.354517
 30
0.0
 11
66.022433
 21
110.446274
 31
0.0
  0
LINE
  8
OBJECT
 10
65.128433
 20
107.626387
 30
0.0
 11
65.128433
 21
79.573517
 31
0.0
  0
LINE
  8
OBJECT
 10
93.098433
 20
74.698517
 30
0.0
 11
93.098433
 21
74.728517
 31
0.0
  0
CIRCLE
  8
OBJECT
 10
93.113183
 20
115.479517
 30
0.0
 40
0.218
  0
LINE
  8
PMR
 10
93.504433
 20
74.728517
 30
0.0
 11
93.504433
 21
144.556131
 31
0.0
  0
LINE
  8
PMR
 10
93.613433
 20
74.728517
 30
0.0
 11
93.613433
 21
144.654491
 31
0.0
  0
LINE
  8
PMR
 10
91.535433
 20
74.728517
 30
0.0
 11
93.613433
 21
74.728517
 31
0.0
  0
CIRCLE
  8
PMR
 10
91.785433
 20
76.728517
 30
0.0
 40
0.1405
  0
CIRCLE
  8
PMR
 10
91.785433
 20
76.228517
 30
0.0
 40
0.1405
  0
CIRCLE
  8
PMR
 10
91.785433
 20
75.603517
 30
0.0
 40
0.1405
  0
CIRCLE
  8
PMR
 10
91.785433
 20
74.978517
 30
0.0
 40
0.1405
  0
CIRCLE
  8
PMR
 10
91.785433
 20
79.103517
 30
0.0
 40
0.1405
  0
CIRCLE
  8
PMR
 10
91.785433
 20
79.728517
 30
0.0
 40
0.1405
  0
CIRCLE
  8
PMR
 10
91.785433
 20
80.228517
 30
0.0
 40
0.1405
  0
CIRCLE
  8
PMR
 10
91.785433
 20
78.478517
 30
0.0
 40
0.1405
  0
CIRCLE
  8
PMR
 10
91.785433
 20
77.353517
 30
0.0
 40
0.1405
  0
CIRCLE
  8
PMR
 10
91.785433
 20
77.978517
 30
0.0
 40
0.1405
  0
CIRCLE
  8
PMR
 10
91.785433
 20
84.353517
 30
0.0
 40
0.1405
  0
CIRCLE
  8
PMR
 10
91.785433
 20
83.228517
 30
0.0
 40
0.1405
  0
CIRCLE
  8
PMR
 10
91.785433
 20
83.728517
 30
0.0
 40
0.1405
  0
CIRCLE
  8
PMR
 10
91.785433
 20
81.978517
 30
0.0
 40
0.1405
  0
CIRCLE
  8
PMR
 10
91.785433
 20
80.853517
 30
0.0
 40
0.1405
  0
CIRCLE
  8
PMR
 10
91.785433
 20
81.478517
 30
0.0
 40
0.1405
  0
CIRCLE
  8
PMR
 10
91.785433
 20
82.603517
 30
0.0
 40
0.1405
  0
CIRCLE
  8
PMR
 10
91.785433
 20
86.728517
 30
0.0
 40
0.1405
  0
CIRCLE
  8
PMR
 10
91.785433
 20
87.228517
 30
0.0
 40
0.1405
  0
CIRCLE
  8
PMR
 10
91.785433
 20
87.853517
 30
0.0
 40
0.1405
  0
CIRCLE
  8
PMR
 10
91.785433
 20
85.478517
 30
0.0
 40
0.1405
  0
CIRCLE
  8
PMR
 10
91.785433
 20
86.103517
 30
0.0
 40
0.1405
  0
CIRCLE
  8
PMR
 10
91.785433
 20
84.978517
 30
0.0
 40
0.1405
  0
CIRCLE
  8
PMR
 10
91.785433
 20
90.728517
 30
0.0
 40
0.1405
  0
CIRCLE
  8
PMR
 10
91.785433
 20
91.353517
 30
0.0
 40
0.1405
  0
CIRCLE
  8
PMR
 10
91.785433
 20
88.978517
 30
0.0
 40
0.1405
  0
CIRCLE
  8
PMR
 10
91.785433
 20
89.603517
 30
0.0
 40
0.1405
  0
CIRCLE
  8
PMR
 10
91.785433
 20
88.478517
 30
0.0
 40
0.1405
  0
CIRCLE
  8
PMR
 10
91.785433
 20
90.228517
 30
0.0
 40
0.1405
  0
CIRCLE
  8
PMR
 10
91.785433
 20
103.603517
 30
0.0
 40
0.1405
  0
CIRCLE
  8
PMR
 10
91.785433
 20
104.228517
 30
0.0
 40
0.1405
  0
CIRCLE
  8
PMR
 10
91.785433
 20
92.478517
 30
0.0
 40
0.1405
  0
CIRCLE
  8
PMR
 10
91.785433
 20
93.103517
 30
0.0
 40
0.1405
  0
CIRCLE
  8
PMR
 10
91.785433
 20
91.978517
 30
0.0
 40
0.1405
  0
CIRCLE
  8
PMR
 10
91.785433
 20
108.228517
 30
0.0
 40
0.1405
  0
CIRCLE
  8
PMR
 10
91.785433
 20
107.103517
 30
0.0
 40
0.1405
  0
CIRCLE
  8
PMR
 10
91.785433
 20
107.728517
 30
0.0
 40
0.1405
  0
CIRCLE
  8
PMR
 10
91.785433
 20
104.728517
 30
0.0
 40
0.1405
  0
CIRCLE
  8
PMR
 10
91.785433
 20
105.353517
 30
0.0
 40
0.1405
  0
CIRCLE
  8
PMR
 10
91.785433
 20
105.978517
 30
0.0
 40
0.1405
  0
CIRCLE
  8
PMR
 10
91.785433
 20
106.478517
 30
0.0
 40
0.1405
  0
CIRCLE
  8
PMR
 10
91.785433
 20
111.728517
 30
0.0
 40
0.1405
  0
CIRCLE
  8
PMR
 10
91.785433
 20
110.603517
 30
0.0
 40
0.1405
  0
CIRCLE
  8
PMR
 10
91.785433
 20
111.228517
 30
0.0
 40
0.1405
  0
CIRCLE
  8
PMR
 10
91.785433
 20
108.853517
 30
0.0
 40
0.1405
  0
CIRCLE
  8
PMR
 10
91.785433
 20
109.478517
 30
0.0
 40
0.1405
  0
CIRCLE
  8
PMR
 10
91.785433
 20
109.978517
 30
0.0
 40
0.1405
  0
CIRCLE
  8
PMR
 10
91.785433
 20
115.853517
 30
0.0
 40
0.1405
  0
CIRCLE
  8
PMR
 10
91.785433
 20
114.728517
 30
0.0
 40
0.1405
  0
CIRCLE
  8
PMR
 10
91.785433
 20
115.228517
 30
0.0
 40
0.1405
  0
CIRCLE
  8
PMR
 10
91.785433
 20
112.353517
 30
0.0
 40
0.1405
  0
CIRCLE
  8
PMR
 10
91.785433
 20
112.978517
 30
0.0
 40
0.1405
  0
CIRCLE
  8
PMR
 10
91.785433
 20
113.478517
 30
0.0
 40
0.1405
  0
CIRCLE
  8
PMR
 10
91.785433
 20
114.103517
 30
0.0
 40
0.1405
  0
CIRCLE
  8
PMR
 10
91.785433
 20
118.228517
 30
0.0
 40
0.1405
  0
CIRCLE
  8
PMR
 10
91.785433
 20
119.353517
 30
0.0
 40
0.1405
  0
CIRCLE
  8
PMR
 10
91.785433
 20
118.728517
 30
0.0
 40
0.1405
  0
CIRCLE
  8
PMR
 10
91.785433
 20
117.603517
 30
0.0
 40
0.1405
  0
CIRCLE
  8
PMR
 10
91.785433
 20
116.978517
 30
0.0
 40
0.1405
  0
CIRCLE
  8
PMR
 10
91.785433
 20
116.478517
 30
0.0
 40
0.1405
  0
CIRCLE
  8
PMR
 10
91.785433
 20
123.478517
 30
0.0
 40
0.1405
  0
CIRCLE
  8
PMR
 10
91.785433
 20
122.228517
 30
0.0
 40
0.1405
  0
CIRCLE
  8
PMR
 10
91.785433
 20
122.853517
 30
0.0
 40
0.1405
  0
CIRCLE
  8
PMR
 10
91.785433
 20
121.728517
 30
0.0
 40
0.1405
  0
CIRCLE
  8
PMR
 10
91.785433
 20
121.103517
 30
0.0
 40
0.1405
  0
CIRCLE
  8
PMR
 10
91.785433
 20
120.478517
 30
0.0
 40
0.1405
  0
CIRCLE
  8
PMR
 10
91.785433
 20
119.978517
 30
0.0
 40
0.1405
  0
CIRCLE
  8
PMR
 10
91.785433
 20
126.978517
 30
0.0
 40
0.1405
  0
CIRCLE
  8
PMR
 10
91.785433
 20
126.353517
 30
0.0
 40
0.1405
  0
CIRCLE
  8
PMR
 10
91.785433
 20
123.978517
 30
0.0
 40
0.1405
  0
CIRCLE
  8
PMR
 10
91.785433
 20
124.603517
 30
0.0
 40
0.1405
  0
CIRCLE
  8
PMR
 10
91.785433
 20
125.228517
 30
0.0
 40
0.1405
  0
CIRCLE
  8
PMR
 10
91.785433
 20
125.728517
 30
0.0
 40
0.1405
  0
CIRCLE
  8
PMR
 10
91.785433
 20
130.978517
 30
0.0
 40
0.1405
  0
CIRCLE
  8
PMR
 10
91.785433
 20
129.853517
 30
0.0
 40
0.1405
  0
CIRCLE
  8
PMR
 10
91.785433
 20
130.478517
 30
0.0
 40
0.1405
  0
CIRCLE
  8
PMR
 10
91.785433
 20
127.478517
 30
0.0
 40
0.1405
  0
CIRCLE
  8
PMR
 10
91.785433
 20
129.228517
 30
0.0
 40
0.1405
  0
CIRCLE
  8
PMR
 10
91.785433
 20
128.103517
 30
0.0
 40
0.1405
  0
CIRCLE
  8
PMR
 10
91.785433
 20
128.728517
 30
0.0
 40
0.1405
  0
CIRCLE
  8
PMR
 10
91.785433
 20
132.728517
 30
0.0
 40
0.1405
  0
CIRCLE
  8
PMR
 10
91.785433
 20
131.603517
 30
0.0
 40
0.1405
  0
CIRCLE
  8
PMR
 10
91.785433
 20
132.228517
 30
0.0
 40
0.1405
  0
CIRCLE
  8
PMR
 10
91.785433
 20
133.353517
 30
0.0
 40
0.1405
  0
CIRCLE
  8
PMR
 10
91.785433
 20
138.603517
 30
0.0
 40
0.1405
  0
CIRCLE
  8
PMR
 10
91.785433
 20
137.478517
 30
0.0
 40
0.1405
  0
CIRCLE
  8
PMR
 10
91.785433
 20
137.978517
 30
0.0
 40
0.1405
  0
CIRCLE
  8
PMR
 10
91.785433
 20
136.228517
 30
0.0
 40
0.1405
  0
CIRCLE
  8
PMR
 10
91.785433
 20
136.853517
 30
0.0
 40
0.1405
  0
CIRCLE
  8
PMR
 10
91.785433
 20
135.103517
 30
0.0
 40
0.1405
  0
CIRCLE
  8
PMR
 10
91.785433
 20
135.728517
 30
0.0
 40
0.1405
  0
CIRCLE
  8
PMR
 10
91.785433
 20
142.103517
 30
0.0
 40
0.1405
  0
CIRCLE
  8
PMR
 10
91.785433
 20
141.478517
 30
0.0
 40
0.1405
  0
CIRCLE
  8
PMR
 10
91.785433
 20
139.728517
 30
0.0
 40
0.1405
  0
CIRCLE
  8
PMR
 10
91.785433
 20
140.353517
 30
0.0
 40
0.1405
  0
CIRCLE
  8
PMR
 10
91.785433
 20
139.228517
 30
0.0
 40
0.1405
  0
CIRCLE
  8
PMR
 10
91.785433
 20
140.978517
 30
0.0
 40
0.1405
  0
ARC
  8
PMR
 10
91.785433
 20
142.728517
 30
0.0
 40
0.1405
 50
300.820505
 51
334.844469
  0
POLYLINE
  8
PMR
 66
     1
 10
0.0
 20
0.0
 30
0.0
 70
     1
  0
VERTEX
  8
PMR
 10
92.549933
 20
137.729517
 30
0.0
 42
-1.0
  0
VERTEX
  8
PMR
 10
92.549933
 20
137.979517
 30
0.0
  0
VERTEX
  8
PMR
 10
93.174933
 20
137.979517
 30
0.0
 42
-1.0
  0
VERTEX
  8
PMR
 10
93.174933
 20
137.729517
 30
0.0
  0
SEQEND
  8
PMR
  0
POLYLINE
  8
PMR
 66
     1
 10
0.0
 20
0.0
 30
0.0
 70
     1
  0
VERTEX
  8
PMR
 10
92.549933
 20
134.979517
 30
0.0
 42
-1.0
  0
VERTEX
  8
PMR
 10
92.549933
 20
135.229517
 30
0.0
  0
VERTEX
  8
PMR
 10
93.174933
 20
135.229517
 30
0.0
 42
-1.0
  0
VERTEX
  8
PMR
 10
93.174933
 20
134.979517
 30
0.0
  0
SEQEND
  8
PMR
  0
POLYLINE
  8
PMR
 66
     1
 10
0.0
 20
0.0
 30
0.0
 70
     1
  0
VERTEX
  8
PMR
 10
92.549933
 20
90.475517
 30
0.0
 42
1.0
  0
VERTEX
  8
PMR
 10
92.549933
 20
90.225517
 30
0.0
  0
VERTEX
  8
PMR
 10
93.174933
 20
90.225517
 30
0.0
 42
1.0
  0
VERTEX
  8
PMR
 10
93.174933
 20
90.475517
 30
0.0
  0
SEQEND
  8
PMR
  0
POLYLINE
  8
PMR
 66
     1
 10
0.0
 20
0.0
 30
0.0
 70
     1
  0
VERTEX
  8
PMR
 10
93.174933
 20
77.696517
 30
0.0
 42
1.0
  0
VERTEX
  8
PMR
 10
93.174933
 20
77.946517
 30
0.0
  0
VERTEX
  8
PMR
 10
92.549933
 20
77.946517
 30
0.0
 42
1.0
  0
VERTEX
  8
PMR
 10
92.549933
 20
77.696517
 30
0.0
  0
SEQEND
  8
PMR
  0
POLYLINE
  8
PMR
 66
     1
 10
0.0
 20
0.0
 30
0.0
 70
     1
  0
VERTEX
  8
PMR
 10
92.549933
 20
75.196517
 30
0.0
 42
1.0
  0
VERTEX
  8
PMR
 10
92.549933
 20
74.946517
 30
0.0
  0
VERTEX
  8
PMR
 10
93.174933
 20
74.946517
 30
0.0
 42
1.0
  0
VERTEX
  8
PMR
 10
93.174933
 20
75.196517
 30
0.0
  0
SEQEND
  8
PMR
  0
LINE
  8
OBJECT
 10
92.457433
 20
143.363468
 30
0.0
 11
92.457433
 21
148.635517
 31
0.0
  0
LINE
  8
OBJECT
 10
91.535433
 20
115.854517
 30
0.0
 11
70.138049
 21
115.854517
 31
0.0
  0
LINE
  8
OBJECT
 10
91.535433
 20
115.229517
 30
0.0
 11
69.624697
 21
115.229517
 31
0.0
  0
LINE
  8
OBJECT
 10
91.535433
 20
112.979517
 30
0.0
 11
68.100433
 21
112.979517
 31
0.0
  0
LINE
  8
OBJECT
 10
91.535433
 20
112.354517
 30
0.0
 11
68.100433
 21
112.354517
 31
0.0
  0
POLYLINE
  8
PMR
 66
     1
 10
0.0
 20
0.0
 30
0.0
  0
VERTEX
  8
PMR
 10
92.933197
 20
112.852517
 30
0.0
  0
VERTEX
  8
PMR
 10
92.549933
 20
112.852517
 30
0.0
 42
1.0
  0
VERTEX
  8
PMR
 10
92.549933
 20
112.602517
 30
0.0
  0
VERTEX
  8
PMR
 10
92.935997
 20
112.602517
 30
0.0
 42
1.0
  0
SEQEND
  8
PMR
  0
POLYLINE
  8
PMR
 66
     1
 10
0.0
 20
0.0
 30
0.0
  0
VERTEX
  8
PMR
 10
92.549933
 20
115.602517
 30
0.0
 42
1.0
  0
VERTEX
  8
PMR
 10
92.549933
 20
115.352517
 30
0.0
  0
VERTEX
  8
PMR
 10
92.935997
 20
115.352517
 30
0.0
 42
1.0
  0
SEQEND
  8
PMR
  0
POLYLINE
  8
PMR
 66
     1
 10
0.0
 20
0.0
 30
0.0
  0
VERTEX
  8
PMR
 10
92.933197
 20
115.602517
 30
0.0
  0
VERTEX
  8
PMR
 10
92.549933
 20
115.602517
 30
0.0
 42
1.0
  0
SEQEND
  8
PMR
  0
LINE
  8
OBJECT
 10
91.535433
 20
79.573517
 30
0.0
 11
68.100433
 21
79.573517
 31
0.0
  0
LINE
  8
OBJECT
 10
91.535433
 20
78.948517
 30
0.0
 11
68.100433
 21
78.948517
 31
0.0
  0
LINE
  8
OBJECT
 10
91.535433
 20
76.698517
 30
0.0
 11
68.100433
 21
76.698517
 31
0.0
  0
LINE
  8
OBJECT
 10
91.535433
 20
76.073517
 30
0.0
 11
68.100433
 21
76.073517
 31
0.0
  0
POLYLINE
  8
PMR
 66
     1
 10
0.0
 20
0.0
 30
0.0
  0
VERTEX
  8
PMR
 10
408.729974
 20
117.818168
 30
0.0
 42
1.0
  0
SEQEND
  8
PMR
  0
POLYLINE
  8
PMR
 66
     1
 10
0.0
 20
0.0
 30
0.0
  0
VERTEX
  8
PMR
 10
92.933197
 20
79.321517
 30
0.0
  0
VERTEX
  8
PMR
 10
92.549933
 20
79.321517
 30
0.0
 42
1.0
  0
VERTEX
  8
PMR
 10
92.549933
 20
79.071517
 30
0.0
  0
VERTEX
  8
PMR
 10
92.935997
 20
79.071517
 30
0.0
 42
1.0
  0
SEQEND
  8
PMR
  0
POLYLINE
  8
PMR
 66
     1
 10
0.0
 20
0.0
 30
0.0
  0
VERTEX
  8
PMR
 10
408.729974
 20
115.068168
 30
0.0
 42
1.0
  0
SEQEND
  8
PMR
  0
POLYLINE
  8
PMR
 66
     1
 10
0.0
 20
0.0
 30
0.0
  0
VERTEX
  8
PMR
 10
92.933197
 20
76.571517
 30
0.0
  0
VERTEX
  8
PMR
 10
92.549933
 20
76.571517
 30
0.0
 42
1.0
  0
VERTEX
  8
PMR
 10
92.549933
 20
76.321517
 30
0.0
  0
VERTEX
  8
PMR
 10
92.935997
 20
76.321517
 30
0.0
 42
1.0
  0
SEQEND
  8
PMR
  0
LINE
  8
PMR
 10
67.413433
 20
74.730517
 30
0.0
 11
67.413433
 21
112.812723
 31
0.0
  0
LINE
  8
PMR
 10
66.131433
 20
110.731681
 30
0.0
 11
66.131433
 21
74.730517
 31
0.0
  0
LINE
  8
PMR
 10
68.100433
 20
74.730517
 30
0.0
 11
68.100433
 21
113.614982
 31
0.0
  0
LINE
  8
PMR
 10
66.022433
 20
110.446274
 30
0.0
 11
66.022433
 21
74.730517
 31
0.0
  0
CIRCLE
  8
PMR
 10
67.850433
 20
77.980517
 30
0.0
 40
0.1405
  0
ARC
  8
PMR
 10
67.850433
 20
113.480517
 30
0.0
 40
0.1405
 50
268.507295
 51
6.098777
  0
CIRCLE
  8
PMR
 10
67.850433
 20
109.980517
 30
0.0
 40
0.1405
  0
CIRCLE
  8
PMR
 10
67.850433
 20
110.605517
 30
0.0
 40
0.1405
  0
CIRCLE
  8
PMR
 10
67.850433
 20
112.980517
 30
0.0
 40
0.1405
  0
CIRCLE
  8
PMR
 10
67.850433
 20
112.355517
 30
0.0
 40
0.1405
  0
CIRCLE
  8
PMR
 10
67.850433
 20
111.730517
 30
0.0
 40
0.1405
  0
CIRCLE
  8
PMR
 10
67.850433
 20
111.230517
 30
0.0
 40
0.1405
  0
CIRCLE
  8
PMR
 10
67.850433
 20
105.980517
 30
0.0
 40
0.1405
  0
CIRCLE
  8
PMR
 10
67.850433
 20
107.105517
 30
0.0
 40
0.1405
  0
CIRCLE
  8
PMR
 10
67.850433
 20
106.480517
 30
0.0
 40
0.1405
  0
CIRCLE
  8
PMR
 10
67.850433
 20
109.480517
 30
0.0
 40
0.1405
  0
CIRCLE
  8
PMR
 10
67.850433
 20
107.730517
 30
0.0
 40
0.1405
  0
CIRCLE
  8
PMR
 10
67.850433
 20
108.855517
 30
0.0
 40
0.1405
  0
CIRCLE
  8
PMR
 10
67.850433
 20
108.230517
 30
0.0
 40
0.1405
  0
CIRCLE
  8
PMR
 10
67.850433
 20
104.230517
 30
0.0
 40
0.1405
  0
CIRCLE
  8
PMR
 10
67.850433
 20
105.355517
 30
0.0
 40
0.1405
  0
CIRCLE
  8
PMR
 10
67.850433
 20
104.730517
 30
0.0
 40
0.1405
  0
CIRCLE
  8
PMR
 10
67.850433
 20
103.605517
 30
0.0
 40
0.1405
  0
CIRCLE
  8
PMR
 10
67.850433
 20
89.605517
 30
0.0
 40
0.1405
  0
CIRCLE
  8
PMR
 10
67.850433
 20
90.730517
 30
0.0
 40
0.1405
  0
CIRCLE
  8
PMR
 10
67.850433
 20
90.230517
 30
0.0
 40
0.1405
  0
CIRCLE
  8
PMR
 10
67.850433
 20
91.980517
 30
0.0
 40
0.1405
  0
CIRCLE
  8
PMR
 10
67.850433
 20
91.355517
 30
0.0
 40
0.1405
  0
CIRCLE
  8
PMR
 10
67.850433
 20
93.105517
 30
0.0
 40
0.1405
  0
CIRCLE
  8
PMR
 10
67.850433
 20
92.480517
 30
0.0
 40
0.1405
  0
CIRCLE
  8
PMR
 10
67.850433
 20
86.105517
 30
0.0
 40
0.1405
  0
CIRCLE
  8
PMR
 10
67.850433
 20
86.730517
 30
0.0
 40
0.1405
  0
CIRCLE
  8
PMR
 10
67.850433
 20
88.480517
 30
0.0
 40
0.1405
  0
CIRCLE
  8
PMR
 10
67.850433
 20
87.855517
 30
0.0
 40
0.1405
  0
CIRCLE
  8
PMR
 10
67.850433
 20
88.980517
 30
0.0
 40
0.1405
  0
CIRCLE
  8
PMR
 10
67.850433
 20
87.230517
 30
0.0
 40
0.1405
  0
CIRCLE
  8
PMR
 10
67.850433
 20
81.980517
 30
0.0
 40
0.1405
  0
CIRCLE
  8
PMR
 10
67.850433
 20
83.230517
 30
0.0
 40
0.1405
  0
CIRCLE
  8
PMR
 10
67.850433
 20
82.605517
 30
0.0
 40
0.1405
  0
CIRCLE
  8
PMR
 10
67.850433
 20
84.980517
 30
0.0
 40
0.1405
  0
CIRCLE
  8
PMR
 10
67.850433
 20
84.355517
 30
0.0
 40
0.1405
  0
CIRCLE
  8
PMR
 10
67.850433
 20
83.730517
 30
0.0
 40
0.1405
  0
CIRCLE
  8
PMR
 10
67.850433
 20
85.480517
 30
0.0
 40
0.1405
  0
CIRCLE
  8
PMR
 10
67.850433
 20
78.480517
 30
0.0
 40
0.1405
  0
CIRCLE
  8
PMR
 10
67.850433
 20
79.105517
 30
0.0
 40
0.1405
  0
CIRCLE
  8
PMR
 10
67.850433
 20
81.480517
 30
0.0
 40
0.1405
  0
CIRCLE
  8
PMR
 10
67.850433
 20
80.855517
 30
0.0
 40
0.1405
  0
CIRCLE
  8
PMR
 10
67.850433
 20
80.230517
 30
0.0
 40
0.1405
  0
CIRCLE
  8
PMR
 10
67.850433
 20
79.730517
 30
0.0
 40
0.1405
  0
LINE
  8
PMR
 10
66.022433
 20
74.730517
 30
0.0
 11
68.100433
 21
74.730517
 31
0.0
  0
CIRCLE
  8
PMR
 10
67.850433
 20
75.605517
 30
0.0
 40
0.1405
  0
CIRCLE
  8
PMR
 10
67.850433
 20
74.980517
 30
0.0
 40
0.1405
  0
CIRCLE
  8
PMR
 10
67.850433
 20
76.230517
 30
0.0
 40
0.1405
  0
CIRCLE
  8
PMR
 10
67.850433
 20
77.355517
 30
0.0
 40
0.1405
  0
CIRCLE
  8
PMR
 10
67.850433
 20
76.730517
 30
0.0
 40
0.1405
  0
POLYLINE
  8
PMR
 66
     1
 10
0.0
 20
0.0
 30
0.0
 70
     1
  0
VERTEX
  8
PMR
 10
67.085933
 20
75.198517
 30
0.0
 42
-1.0
  0
VERTEX
  8
PMR
 10
67.085933
 20
74.948517
 30
0.0
  0
VERTEX
  8
PMR
 10
66.460933
 20
74.948517
 30
0.0
 42
-1.0
  0
VERTEX
  8
PMR
 10
66.460933
 20
75.198517
 30
0.0
  0
SEQEND
  8
PMR
  0
POLYLINE
  8
PMR
 66
     1
 10
0.0
 20
0.0
 30
0.0
 70
     1
  0
VERTEX
  8
PMR
 10
67.085933
 20
77.948517
 30
0.0
 42
-1.0
  0
VERTEX
  8
PMR
 10
67.085933
 20
77.698517
 30
0.0
  0
VERTEX
  8
PMR
 10
66.460933
 20
77.698517
 30
0.0
 42
-1.0
  0
VERTEX
  8
PMR
 10
66.460933
 20
77.948517
 30
0.0
  0
SEQEND
  8
PMR
  0
POLYLINE
  8
PMR
 66
     1
 10
0.0
 20
0.0
 30
0.0
 70
     1
  0
VERTEX
  8
PMR
 10
67.085933
 20
90.479517
 30
0.0
 42
-1.0
  0
VERTEX
  8
PMR
 10
67.085933
 20
90.229517
 30
0.0
  0
VERTEX
  8
PMR
 10
66.460933
 20
90.229517
 30
0.0
 42
-1.0
  0
VERTEX
  8
PMR
 10
66.460933
 20
90.479517
 30
0.0
  0
SEQEND
  8
PMR
  0
LINE
  8
OBJECT
 10
66.022433
 20
76.073517
 30
0.0
 11
64.519683
 21
76.073517
 31
0.0
  0
LINE
  8
OBJECT
 10
66.022433
 20
76.698517
 30
0.0
 11
64.519683
 21
76.698517
 31
0.0
  0
LINE
  8
OBJECT
 10
66.022433
 20
78.948517
 30
0.0
 11
64.519683
 21
78.948517
 31
0.0
  0
POLYLINE
  8
PMR
 66
     1
 10
0.0
 20
0.0
 30
0.0
  0
VERTEX
  8
PMR
 10
67.085933
 20
79.323517
 30
0.0
 42
-1.0
  0
VERTEX
  8
PMR
 10
67.085933
 20
79.073517
 30
0.0
  0
VERTEX
  8
PMR
 10
67.042286
 20
79.073517
 30
0.0
 42
-1.0
  0
SEQEND
  8
PMR
  0
POLYLINE
  8
PMR
 66
     1
 10
0.0
 20
0.0
 30
0.0
  0
VERTEX
  8
PMR
 10
66.68508
 20
79.073517
 30
0.0
  0
VERTEX
  8
PMR
 10
66.460933
 20
79.073517
 30
0.0
 42
-1.0
  0
VERTEX
  8
PMR
 10
66.460933
 20
79.323517
 30
0.0
  0
VERTEX
  8
PMR
 10
66.68508
 20
79.323517
 30
0.0
 42
-1.0
  0
SEQEND
  8
PMR
  0
POLYLINE
  8
PMR
 66
     1
 10
0.0
 20
0.0
 30
0.0
  0
VERTEX
  8
PMR
 10
67.042286
 20
79.323517
 30
0.0
  0
VERTEX
  8
PMR
 10
67.085933
 20
79.323517
 30
0.0
 42
-1.0
  0
SEQEND
  8
PMR
  0
POLYLINE
  8
PMR
 66
     1
 10
0.0
 20
0.0
 30
0.0
  0
VERTEX
  8
PMR
 10
66.460933
 20
76.323517
 30
0.0
 42
-1.0
  0
VERTEX
  8
PMR
 10
66.460933
 20
76.573517
 30
0.0
  0
VERTEX
  8
PMR
 10
66.68508
 20
76.573517
 30
0.0
 42
-1.0
  0
SEQEND
  8
PMR
  0
POLYLINE
  8
PMR
 66
     1
 10
0.0
 20
0.0
 30
0.0
  0
VERTEX
  8
PMR
 10
67.042286
 20
76.573517
 30
0.0
  0
VERTEX
  8
PMR
 10
67.085933
 20
76.573517
 30
0.0
 42
-1.0
  0
VERTEX
  8
PMR
 10
67.085933
 20
76.323517
 30
0.0
  0
VERTEX
  8
PMR
 10
67.042286
 20
76.323517
 30
0.0
 42
-1.0
  0
SEQEND
  8
PMR
  0
POLYLINE
  8
PMR
 66
     1
 10
0.0
 20
0.0
 30
0.0
  0
VERTEX
  8
PMR
 10
66.68508
 20
76.323517
 30
0.0
  0
VERTEX
  8
PMR
 10
66.460933
 20
76.323517
 30
0.0
 42
-1.0
  0
SEQEND
  8
PMR
  0
POLYLINE
  8
PMR
 66
     1
 10
0.0
 20
0.0
 30
0.0
  0
VERTEX
  8
PMR
 10
92.549933
 20
93.225517
 30
0.0
 42
1.0
  0
VERTEX
  8
PMR
 10
92.549933
 20
92.975517
 30
0.0
  0
VERTEX
  8
PMR
 10
93.174933
 20
92.975517
 30
0.0
 42
1.0
  0
VERTEX
  8
PMR
 10
93.174933
 20
93.225517
 30
0.0
  0
VERTEX
  8
PMR
 10
92.549933
 20
93.225517
 30
0.0
  0
SEQEND
  8
PMR
  0
LINE
  8
PMR
 10
91.535433
 20
142.252354
 30
0.0
 11
91.535433
 21
74.728517
 31
0.0
  0
LINE
  8
PMR
 10
92.222433
 20
143.050985
 30
0.0
 11
92.222433
 21
74.728517
 31
0.0
  0
LINE
  8
OBJECT
 10
84.645433
 20
140.385517
 30
0.0
 11
87.893838
 21
140.385517
 31
0.0
  0
LINE
  8
OBJECT
 10
88.520433
 20
141.010517
 30
0.0
 11
85.145433
 21
141.010517
 31
0.0
  0
LINE
  8
OBJECT
 10
84.645433
 20
140.510517
 30
0.0
 11
84.645433
 21
140.385517
 31
0.0
  0
ARC
  8
OBJECT
 10
85.145433
 20
140.510517
 30
0.0
 40
0.5
 50
90.0
 51
180.0
  0
ARC
  8
OBJECT
 10
88.520433
 20
140.510517
 30
0.0
 40
0.5
 50
34.478163
 51
90.0
  0
ARC
  8
OBJECT
 10
85.145433
 20
139.510517
 30
0.0
 40
0.5
 50
90.0
 51
180.0
  0
LINE
  8
OBJECT
 10
84.645433
 20
139.510517
 30
0.0
 11
84.645433
 21
139.385517
 31
0.0
  0
LINE
  8
OBJECT
 10
86.987495
 20
140.010517
 30
0.0
 11
85.145433
 21
140.010517
 31
0.0
  0
LINE
  8
OBJECT
 10
84.645433
 20
139.385517
 30
0.0
 11
85.779013
 21
139.385517
 31
0.0
  0
ARC
  8
OBJECT
 10
85.145433
 20
138.510517
 30
0.0
 40
0.5
 50
90.0
 51
174.576763
  0
LINE
  8
OBJECT
 10
85.180425
 20
139.010517
 30
0.0
 11
85.145433
 21
139.010517
 31
0.0
  0
LINE
  8
OBJECT
 10
84.645433
 20
145.385517
 30
0.0
 11
89.020433
 21
145.385517
 31
0.0
  0
LINE
  8
OBJECT
 10
89.020433
 20
145.385517
 30
0.0
 11
89.020433
 21
145.510517
 31
0.0
  0
LINE
  8
OBJECT
 10
88.520433
 20
146.010517
 30
0.0
 11
85.145433
 21
146.010517
 31
0.0
  0
LINE
  8
OBJECT
 10
84.645433
 20
145.510517
 30
0.0
 11
84.645433
 21
145.385517
 31
0.0
  0
ARC
  8
OBJECT
 10
85.145433
 20
145.510517
 30
0.0
 40
0.5
 50
90.0
 51
180.0
  0
ARC
  8
OBJECT
 10
88.520433
 20
145.510517
 30
0.0
 40
0.5
 50
0.0
 51
90.0
  0
ARC
  8
OBJECT
 10
88.520433
 20
144.510517
 30
0.0
 40
0.5
 50
0.0
 51
90.0
  0
ARC
  8
OBJECT
 10
85.145433
 20
144.510517
 30
0.0
 40
0.5
 50
90.0
 51
180.0
  0
LINE
  8
OBJECT
 10
84.645433
 20
144.510517
 30
0.0
 11
84.645433
 21
144.385517
 31
0.0
  0
LINE
  8
OBJECT
 10
88.520433
 20
145.010517
 30
0.0
 11
85.145433
 21
145.010517
 31
0.0
  0
LINE
  8
OBJECT
 10
89.020433
 20
144.385517
 30
0.0
 11
89.020433
 21
144.510517
 31
0.0
  0
LINE
  8
OBJECT
 10
84.645433
 20
144.385517
 30
0.0
 11
89.020433
 21
144.385517
 31
0.0
  0
ARC
  8
OBJECT
 10
88.520433
 20
143.510517
 30
0.0
 40
0.5
 50
0.0
 51
90.0
  0
ARC
  8
OBJECT
 10
85.145433
 20
143.510517
 30
0.0
 40
0.5
 50
90.0
 51
180.0
  0
LINE
  8
OBJECT
 10
84.645433
 20
143.510517
 30
0.0
 11
84.645433
 21
143.385517
 31
0.0
  0
LINE
  8
OBJECT
 10
88.520433
 20
144.010517
 30
0.0
 11
85.145433
 21
144.010517
 31
0.0
  0
LINE
  8
OBJECT
 10
89.020433
 20
143.385517
 30
0.0
 11
89.020433
 21
143.510517
 31
0.0
  0
LINE
  8
OBJECT
 10
84.645433
 20
143.385517
 30
0.0
 11
89.020433
 21
143.385517
 31
0.0
  0
ARC
  8
OBJECT
 10
88.520433
 20
142.510517
 30
0.0
 40
0.5
 50
0.0
 51
90.0
  0
ARC
  8
OBJECT
 10
85.145433
 20
142.510517
 30
0.0
 40
0.5
 50
90.0
 51
180.0
  0
LINE
  8
OBJECT
 10
84.645433
 20
142.510517
 30
0.0
 11
84.645433
 21
142.385517
 31
0.0
  0
LINE
  8
OBJECT
 10
88.520433
 20
143.010517
 30
0.0
 11
85.145433
 21
143.010517
 31
0.0
  0
LINE
  8
OBJECT
 10
89.020433
 20
142.385517
 30
0.0
 11
89.020433
 21
142.510517
 31
0.0
  0
LINE
  8
OBJECT
 10
84.645433
 20
142.385517
 30
0.0
 11
89.020433
 21
142.385517
 31
0.0
  0
ARC
  8
OBJECT
 10
88.520433
 20
141.510517
 30
0.0
 40
0.5
 50
0.0
 51
90.0
  0
ARC
  8
OBJECT
 10
85.145433
 20
141.510517
 30
0.0
 40
0.5
 50
90.0
 51
180.0
  0
LINE
  8
OBJECT
 10
84.645433
 20
141.510517
 30
0.0
 11
84.645433
 21
141.385517
 31
0.0
  0
LINE
  8
OBJECT
 10
88.520433
 20
142.010517
 30
0.0
 11
85.145433
 21
142.010517
 31
0.0
  0
LINE
  8
OBJECT
 10
89.020433
 20
141.385517
 30
0.0
 11
89.020433
 21
141.510517
 31
0.0
  0
LINE
  8
OBJECT
 10
84.645433
 20
141.385517
 30
0.0
 11
89.020433
 21
141.385517
 31
0.0
  0
LINE
  8
OBJECT
 10
84.645433
 20
146.385517
 30
0.0
 11
89.020433
 21
146.385517
 31
0.0
  0
LINE
  8
OBJECT
 10
89.020433
 20
146.385517
 30
0.0
 11
89.020433
 21
146.510517
 31
0.0
  0
LINE
  8
OBJECT
 10
88.520433
 20
147.010517
 30
0.0
 11
85.145433
 21
147.010517
 31
0.0
  0
LINE
  8
OBJECT
 10
84.645433
 20
146.510517
 30
0.0
 11
84.645433
 21
146.385517
 31
0.0
  0
ARC
  8
OBJECT
 10
85.145433
 20
146.510517
 30
0.0
 40
0.5
 50
90.0
 51
180.0
  0
ARC
  8
OBJECT
 10
88.520433
 20
146.510517
 30
0.0
 40
0.5
 50
0.0
 51
90.0
  0
LINE
  8
OBJECT
 10
84.645433
 20
147.385517
 30
0.0
 11
89.020433
 21
147.385517
 31
0.0
  0
LINE
  8
OBJECT
 10
89.020433
 20
147.385517
 30
0.0
 11
89.020433
 21
147.510517
 31
0.0
  0
LINE
  8
OBJECT
 10
88.520433
 20
148.010517
 30
0.0
 11
85.145433
 21
148.010517
 31
0.0
  0
LINE
  8
OBJECT
 10
84.645433
 20
147.510517
 30
0.0
 11
84.645433
 21
147.385517
 31
0.0
  0
ARC
  8
OBJECT
 10
85.145433
 20
147.510517
 30
0.0
 40
0.5
 50
90.0
 51
180.0
  0
ARC
  8
OBJECT
 10
88.520433
 20
147.510517
 30
0.0
 40
0.5
 50
0.0
 51
90.0
  0
LINE
  8
OBJECT
 10
84.645433
 20
148.385517
 30
0.0
 11
89.020433
 21
148.385517
 31
0.0
  0
LINE
  8
OBJECT
 10
89.020433
 20
148.385517
 30
0.0
 11
89.020433
 21
148.510517
 31
0.0
  0
LINE
  8
OBJECT
 10
88.520433
 20
149.010517
 30
0.0
 11
85.145433
 21
149.010517
 31
0.0
  0
LINE
  8
OBJECT
 10
84.645433
 20
148.510517
 30
0.0
 11
84.645433
 21
148.385517
 31
0.0
  0
ARC
  8
OBJECT
 10
85.145433
 20
148.510517
 30
0.0
 40
0.5
 50
90.0
 51
180.0
  0
ARC
  8
OBJECT
 10
88.520433
 20
148.510517
 30
0.0
 40
0.5
 50
0.0
 51
90.0
  0
LINE
  8
OBJECT
 10
84.645433
 20
149.385517
 30
0.0
 11
89.020433
 21
149.385517
 31
0.0
  0
LINE
  8
OBJECT
 10
89.020433
 20
149.385517
 30
0.0
 11
89.020433
 21
149.510517
 31
0.0
  0
LINE
  8
OBJECT
 10
88.520433
 20
150.010517
 30
0.0
 11
85.145433
 21
150.010517
 31
0.0
  0
LINE
  8
OBJECT
 10
84.645433
 20
149.510517
 30
0.0
 11
84.645433
 21
149.385517
 31
0.0
  0
ARC
  8
OBJECT
 10
85.145433
 20
149.510517
 30
0.0
 40
0.5
 50
90.0
 51
180.0
  0
ARC
  8
OBJECT
 10
88.520433
 20
149.510517
 30
0.0
 40
0.5
 50
0.0
 51
90.0
  0
ARC
  8
OBJECT
 10
88.520433
 20
150.510517
 30
0.0
 40
0.5
 50
0.0
 51
90.0
  0
ARC
  8
OBJECT
 10
85.145433
 20
150.510517
 30
0.0
 40
0.5
 50
90.0
 51
180.0
  0
LINE
  8
OBJECT
 10
84.645433
 20
150.510517
 30
0.0
 11
84.645433
 21
150.385517
 31
0.0
  0
LINE
  8
OBJECT
 10
88.520433
 20
151.010517
 30
0.0
 11
85.145433
 21
151.010517
 31
0.0
  0
LINE
  8
OBJECT
 10
89.020433
 20
150.385517
 30
0.0
 11
89.020433
 21
150.510517
 31
0.0
  0
LINE
  8
OBJECT
 10
84.645433
 20
150.385517
 30
0.0
 11
89.020433
 21
150.385517
 31
0.0
  0
LINE
  8
OBJECT
 10
93.004433
 20
153.494517
 30
0.0
 11
65.222433
 21
153.494517
 31
0.0
  0
LINE
  8
OBJECT
 10
65.222433
 20
153.494517
 30
0.0
 11
65.222433
 21
107.967068
 31
0.0
  0
LINE
  8
OBJECT
 10
93.004433
 20
144.039211
 30
0.0
 11
93.004433
 21
153.494517
 31
0.0
  0
LINE
  8
OBJECT
 10
66.022433
 20
79.573517
 30
0.0
 11
64.519683
 21
79.573517
 31
0.0
  0
POLYLINE
  8
OBJECT
 66
     1
 10
0.0
 20
0.0
 30
0.0
 75
     6
  0
VERTEX
  8
OBJECT
 10
134.79829
 20
138.335041
 30
0.0
  0
VERTEX
  8
OBJECT
 10
134.715138
 20
138.284463
 30
0.0
  0
VERTEX
  8
OBJECT
 10
133.687185
 20
137.556929
 30
0.0
  0
VERTEX
  8
OBJECT
 10
132.676506
 20
136.778401
 30
0.0
  0
VERTEX
  8
OBJECT
 10
131.685126
 20
135.990887
 30
0.0
  0
VERTEX
  8
OBJECT
 10
130.715071
 20
135.236398
 30
0.0
  0
VERTEX
  8
OBJECT
 10
129.768366
 20
134.556941
 30
0.0
  0
VERTEX
  8
OBJECT
 10
128.847148
 20
133.983358
 30
0.0
  0
VERTEX
  8
OBJECT
 10
127.954
 20
133.501817
 30
0.0
  0
VERTEX
  8
OBJECT
 10
127.091617
 20
133.087317
 30
0.0
  0
VERTEX
  8
OBJECT
 10
126.262693
 20
132.714858
 30
0.0
  0
VERTEX
  8
OBJECT
 10
125.469923
 20
132.35944
 30
0.0
  0
VERTEX
  8
OBJECT
 10
124.716001
 20
131.996062
 30
0.0
  0
VERTEX
  8
OBJECT
 10
124.003621
 20
131.599724
 30
0.0
  0
VERTEX
  8
OBJECT
 10
123.335479
 20
131.145426
 30
0.0
  0
VERTEX
  8
OBJECT
 10
122.711594
 20
130.616492
 30
0.0
  0
VERTEX
  8
OBJECT
 10
122.121295
 20
130.029546
 30
0.0
  0
VERTEX
  8
OBJECT
 10
121.551236
 20
129.409536
 30
0.0
  0
VERTEX
  8
OBJECT
 10
120.98807
 20
128.781411
 30
0.0
  0
VERTEX
  8
OBJECT
 10
120.418451
 20
128.17012
 30
0.0
  0
VERTEX
  8
OBJECT
 10
119.829034
 20
127.600612
 30
0.0
  0
VERTEX
  8
OBJECT
 10
119.206472
 20
127.097834
 30
0.0
  0
VERTEX
  8
OBJECT
 10
118.53742
 20
126.686735
 30
0.0
  0
VERTEX
  8
OBJECT
 10
117.811847
 20
126.382043
 30
0.0
  0
VERTEX
  8
OBJECT
 10
117.032988
 20
126.157596
 30
0.0
  0
VERTEX
  8
OBJECT
 10
116.207394
 20
125.977013
 30
0.0
  0
VERTEX
  8
OBJECT
 10
115.67329
 20
125.870224
 30
0.0
  0
SEQEND
  8
OBJECT
  0
POLYLINE
  8
OBJECT
 66
     1
 10
0.0
 20
0.0
 30
0.0
 75
     6
  0
VERTEX
  8
OBJECT
 10
134.79829
 20
101.168013
 30
0.0
  0
VERTEX
  8
OBJECT
 10
134.715138
 20
101.117436
 30
0.0
  0
VERTEX
  8
OBJECT
 10
133.687185
 20
100.389902
 30
0.0
  0
VERTEX
  8
OBJECT
 10
132.676506
 20
99.611373
 30
0.0
  0
VERTEX
  8
OBJECT
 10
131.685126
 20
98.82386
 30
0.0
  0
VERTEX
  8
OBJECT
 10
130.715071
 20
98.06937
 30
0.0
  0
VERTEX
  8
OBJECT
 10
129.768366
 20
97.389913
 30
0.0
  0
VERTEX
  8
OBJECT
 10
128.847148
 20
96.81633
 30
0.0
  0
VERTEX
  8
OBJECT
 10
127.954
 20
96.334789
 30
0.0
  0
VERTEX
  8
OBJECT
 10
127.091617
 20
95.920289
 30
0.0
  0
VERTEX
  8
OBJECT
 10
126.262693
 20
95.54783
 30
0.0
  0
VERTEX
  8
OBJECT
 10
125.469923
 20
95.192412
 30
0.0
  0
VERTEX
  8
OBJECT
 10
124.716001
 20
94.829034
 30
0.0
  0
VERTEX
  8
OBJECT
 10
124.003621
 20
94.432696
 30
0.0
  0
VERTEX
  8
OBJECT
 10
123.335479
 20
93.978398
 30
0.0
  0
VERTEX
  8
OBJECT
 10
122.711594
 20
93.449464
 30
0.0
  0
VERTEX
  8
OBJECT
 10
122.121295
 20
92.862518
 30
0.0
  0
VERTEX
  8
OBJECT
 10
121.551236
 20
92.242508
 30
0.0
  0
VERTEX
  8
OBJECT
 10
120.98807
 20
91.614384
 30
0.0
  0
VERTEX
  8
OBJECT
 10
120.418451
 20
91.003093
 30
0.0
  0
VERTEX
  8
OBJECT
 10
119.829034
 20
90.433584
 30
0.0
  0
VERTEX
  8
OBJECT
 10
119.206472
 20
89.930806
 30
0.0
  0
VERTEX
  8
OBJECT
 10
118.53742
 20
89.519708
 30
0.0
  0
VERTEX
  8
OBJECT
 10
117.811847
 20
89.215015
 30
0.0
  0
VERTEX
  8
OBJECT
 10
117.032988
 20
88.990569
 30
0.0
  0
VERTEX
  8
OBJECT
 10
116.207394
 20
88.809985
 30
0.0
  0
VERTEX
  8
OBJECT
 10
115.67329
 20
88.703197
 30
0.0
  0
SEQEND
  8
OBJECT
  0
LINE
  8
PMR
 10
116.26804
 20
125.990278
 30
0.0
 11
116.26804
 21
88.82325
 31
0.0
  0
LINE
  8
PMR
 10
134.20479
 20
100.756237
 30
0.0
 11
134.20479
 21
137.923264
 31
0.0
  0
LINE
  8
OBJECT
 10
115.67329
 20
75.222807
 30
0.0
 11
115.67329
 21
71.088999
 31
0.0
  0
DIMENSION
  8
DIM
  2
*D35
 10
100.586186
 20
72.073517
 30
0.0
 11
100.586186
 21
74.261017
 31
0.0
 13
93.113183
 23
76.448517
 33
0.0
 14
94.488433
 24
72.073517
 34
0.0
 50
90.0
  3
23NSTDI
  0
DIMENSION
  8
DIM
  2
*D36
 10
100.586186
 20
112.729517
 30
0.0
 11
100.586186
 21
94.589017
 31
0.0
 13
93.113183
 23
76.448517
 33
0.0
 14
93.113183
 24
112.729517
 34
0.0
 50
90.0
  3
23NSTD
  0
DIMENSION
  8
DIM
  2
*D34
 10
100.586186
 20
115.479517
 30
0.0
 11
100.586186
 21
114.104517
 31
0.0
 13
93.113183
 23
112.729517
 33
0.0
 14
93.113183
 24
115.479517
 34
0.0
 50
90.0
  3
23NSTDI
  0
DIMENSION
  8
DIM
  2
*D33
 10
100.586186
 20
151.760517
 30
0.0
 11
100.586186
 21
133.620017
 31
0.0
 13
93.113183
 23
115.479517
 33
0.0
 14
93.113183
 24
151.760517
 34
0.0
 50
90.0
  3
23NSTD
  0
DIMENSION
  8
DIM
  2
*D37
 10
100.586186
 20
156.135517
 30
0.0
 11
100.586186
 21
153.948017
 31
0.0
 13
93.113183
 23
151.760517
 33
0.0
 14
94.488433
 24
156.135517
 34
0.0
 50
90.0
  3
23NSTDI
  0
DIMENSION
  8
DIM
  2
*D12
 10
69.206433
 20
160.455517
 30
0.0
 11
79.406433
 21
160.455517
 31
0.0
 12
0.0
 22
1.266365
 32
0.0
 13
63.738433
 23
156.135517
 33
0.0
 14
69.206433
 24
150.510517
 34
0.0
  3
23NSTD
  0
DIMENSION
  8
DIM
  2
*D13
 10
73.581433
 20
164.951517
 30
0.0
 11
83.781433
 21
163.332517
 31
0.0
 12
0.0
 22
1.266365
 32
0.0
 70
   128
 13
69.206433
 23
150.510517
 33
0.0
 14
73.581433
 24
150.510517
 34
0.0
  3
23NSTD
  0
DIMENSION
  8
DIM
  2
*D31
 10
63.738433
 20
170.887517
 30
0.0
 11
79.113433
 21
170.887517
 31
0.0
  1
<> %%p0.062
 13
94.488433
 23
156.135517
 33
0.0
 14
63.738433
 24
156.135517
 34
0.0
  3
23NSTDI
  0
DIMENSION
  8
DIM
  2
*D15
 10
50.6609
 20
73.385517
 30
0.0
 11
57.4809
 21
87.895517
 31
0.0
 12
0.0
 22
-7.483635
 32
0.0
 13
46.392539
 23
72.073517
 33
0.0
 14
39.939039
 24
73.385517
 34
0.0
 50
90.0
  3
23NSTD
  0
TEXT
  8
TEXT
 10
71.466949
 20
66.496282
 30
0.0
 40
2.34375
  1
%%uSIDE VIEW
 41
0.75
 72
     1
 11
79.113433
 21
66.496282
 31
0.0
  0
TEXT
  8
DIM
 10
81.156433
 20
165.570517
 30
0.0
 40
2.0
  1
4.000
 41
0.75
 72
     1
 11
83.781433
 21
166.570517
 31
0.0
 73
     2
  0
LINE
  8
DIM
 10
80.860707
 20
164.951517
 30
0.0
 11
86.73346
 21
164.951517
 31
0.0
  0
POLYLINE
  8
PMR
 66
     1
 10
0.0
 20
0.0
 30
0.0
 70
     1
  0
VERTEX
  8
PMR
 10
66.460933
 20
92.979517
 30
0.0
 42
-1.0
  0
VERTEX
  8
PMR
 10
66.460933
 20
93.229517
 30
0.0
  0
VERTEX
  8
PMR
 10
67.085933
 20
93.229517
 30
0.0
 42
-1.0
  0
VERTEX
  8
PMR
 10
67.085933
 20
92.979517
 30
0.0
  0
SEQEND
  8
PMR
  0
CIRCLE
  8
PMR
 10
67.850433
 20
102.980517
 30
0.0
 40
0.1405
  0
CIRCLE
  8
PMR
 10
67.850433
 20
93.730517
 30
0.0
 40
0.1405
  0
CIRCLE
  8
PMR
 10
91.785433
 20
134.478517
 30
0.0
 40
0.1405
  0
CIRCLE
  8
PMR
 10
91.785433
 20
133.978517
 30
0.0
 40
0.1405
  0
CIRCLE
  8
PMR
 10
91.785433
 20
102.978517
 30
0.0
 40
0.1405
  0
CIRCLE
  8
PMR
 10
91.785433
 20
93.728517
 30
0.0
 40
0.1405
  0
TEXT
  8
DIM
 10
229.867406
 20
108.685211
 30
0.0
 40
1.25
  1

  0
TEXT
  8
DIM
 10
230.929906
 20
104.591452
 30
0.0
 40
1.0
  1

  0
TEXT
  8
OBJECT
 10
231.78665
 20
155.28811
 30
0.0
 40
1.25
  1

  0
TEXT
  8
DIM
 10
434.867406
 20
108.685211
 30
0.0
 40
1.25
  1

  0
TEXT
  8
DIM
 10
435.929906
 20
104.591452
 30
0.0
 40
1.0
  1

  0
TEXT
  8
OBJECT
 10
436.78665
 20
155.28811
 30
0.0
 40
1.25
  1

  0
TEXT
  8
DIM
 10
639.867406
 20
108.685211
 30
0.0
 40
1.25
  1

  0
TEXT
  8
DIM
 10
640.929906
 20
104.591452
 30
0.0
 40
1.0
  1

  0
TEXT
  8
DIM
 10
803.867406
 20
108.685211
 30
0.0
 40
1.25
  1

  0
TEXT
  8
DIM
 10
804.929906
 20
104.591452
 30
0.0
 40
1.0
  1

  0
TEXT
  8
OBJECT
 10
805.78665
 20
155.28811
 30
0.0
 40
1.25
  1

  0
TEXT
  8
DIM
 10
803.867406
 20
108.685211
 30
0.0
 40
1.25
  1

  0
TEXT
  8
DIM
 10
804.929906
 20
104.591452
 30
0.0
 40
1.0
  1

  0
TEXT
  8
OBJECT
 10
805.78665
 20
155.28811
 30
0.0
 40
1.25
  1

  0
TEXT
  8
DIM
 10
821.834784
 20
293.609587
 30
0.0
 40
0.72
  1

  0
TEXT
  8
DIM
 10
758.298907
 20
270.734322
 30
0.0
 40
0.72
  1

  0
TEXT
  8
DIM
 10
909.211228
 20
221.612584
 30
0.0
 40
0.72
  1

  0
TEXT
  8
DIM
 10
845.675351
 20
198.737319
 30
0.0
 40
0.72
  1

  0
TEXT
  8
DIM
 10
811.864584
 20
307.22455
 30
0.0
 40
0.72
  1

  0
TEXT
  8
DIM
 10
748.328707
 20
284.349285
 30
0.0
 40
0.72
  1

  0
TEXT
  8
DIM
 10
748.328707
 20
324.349285
 30
0.0
 40
0.72
  1

  0
TEXT
  8
DIM
 10
809.828707
 20
324.349285
 30
0.0
 40
0.72
  1

  0
TEXT
  8
DIM
 10
434.867406
 20
108.685211
 30
0.0
 40
1.25
  1

  0
TEXT
  8
DIM
 10
435.929906
 20
104.591452
 30
0.0
 40
1.0
  1

  0
TEXT
  8
OBJECT
 10
436.78665
 20
155.28811
 30
0.0
 40
1.25
  1

  0
TEXT
  8
TEXT
 10
7.829313
 20
11.818155
 30
0.0
 40
2.0
  1
SIDES SHIPPED ASSEMBLED WITH TEMPORARY NYLON PUSH
 41
0.75
  0
TEXT
  8
TEXT
 10
9.162647
 20
8.490155
 30
0.0
 40
2.0
  1
FASTENERS.  CUSTOMER TO DO FINAL ASSEMBLY WITH #7346
 41
0.75
  0
TEXT
  8
TEXT
 10
9.162647
 20
5.162155
 30
0.0
 40
2.0
  1
SCREWS AND #295 NUT RETAINERS PROVIDED IN HARDWARE.
 41
0.75
  0
TEXT
  8
DIM
 10
639.867406
 20
108.685211
 30
0.0
 40
1.25
  1

  0
TEXT
  8
DIM
 10
640.929906
 20
104.591452
 30
0.0
 40
1.0
  1

  0
TEXT
  8
DIM
 10
803.867406
 20
108.685211
 30
0.0
 40
1.25
  1

  0
TEXT
  8
DIM
 10
804.929906
 20
104.591452
 30
0.0
 40
1.0
  1

  0
TEXT
  8
OBJECT
 10
805.78665
 20
155.28811
 30
0.0
 40
1.25
  1

  0
TEXT
  8
DIM
 10
803.867406
 20
108.685211
 30
0.0
 40
1.25
  1

  0
TEXT
  8
DIM
 10
804.929906
 20
104.591452
 30
0.0
 40
1.0
  1

  0
TEXT
  8
OBJECT
 10
805.78665
 20
155.28811
 30
0.0
 40
1.25
  1

  0
TEXT
  8
DIM
 10
821.834784
 20
293.609587
 30
0.0
 40
0.72
  1

  0
TEXT
  8
DIM
 10
758.298907
 20
270.734322
 30
0.0
 40
0.72
  1

  0
TEXT
  8
DIM
 10
909.211228
 20
221.612584
 30
0.0
 40
0.72
  1

  0
TEXT
  8
DIM
 10
845.675351
 20
198.737319
 30
0.0
 40
0.72
  1

  0
TEXT
  8
DIM
 10
811.864584
 20
307.22455
 30
0.0
 40
0.72
  1

  0
TEXT
  8
DIM
 10
748.328707
 20
284.349285
 30
0.0
 40
0.72
  1

  0
TEXT
  8
DIM
 10
748.328707
 20
324.349285
 30
0.0
 40
0.72
  1

  0
TEXT
  8
DIM
 10
809.828707
 20
324.349285
 30
0.0
 40
0.72
  1

  0
TEXT
  8
DIM
 10
414.367406
 20
108.685211
 30
0.0
 40
1.25
  1

  0
TEXT
  8
DIM
 10
415.429906
 20
104.591452
 30
0.0
 40
1.0
  1

  0
TEXT
  8
DIM
 10
578.367406
 20
108.685211
 30
0.0
 40
1.25
  1

  0
TEXT
  8
DIM
 10
579.429906
 20
104.591452
 30
0.0
 40
1.0
  1

  0
TEXT
  8
OBJECT
 10
580.28665
 20
155.28811
 30
0.0
 40
1.25
  1

  0
TEXT
  8
DIM
 10
578.367406
 20
108.685211
 30
0.0
 40
1.25
  1

  0
TEXT
  8
DIM
 10
579.429906
 20
104.591452
 30
0.0
 40
1.0
  1

  0
TEXT
  8
OBJECT
 10
580.28665
 20
155.28811
 30
0.0
 40
1.25
  1

  0
TEXT
  8
DIM
 10
596.334784
 20
293.609587
 30
0.0
 40
0.72
  1

  0
TEXT
  8
DIM
 10
532.798907
 20
270.734322
 30
0.0
 40
0.72
  1

  0
TEXT
  8
DIM
 10
683.711228
 20
221.612584
 30
0.0
 40
0.72
  1

  0
TEXT
  8
DIM
 10
620.175351
 20
198.737319
 30
0.0
 40
0.72
  1

  0
TEXT
  8
DIM
 10
586.364584
 20
307.22455
 30
0.0
 40
0.72
  1

  0
TEXT
  8
DIM
 10
522.828707
 20
284.349285
 30
0.0
 40
0.72
  1

  0
TEXT
  8
DIM
 10
522.828707
 20
324.349285
 30
0.0
 40
0.72
  1

  0
TEXT
  8
DIM
 10
584.328707
 20
324.349285
 30
0.0
 40
0.72
  1

  0
TEXT
  8
DIM
 10
475.867406
 20
108.685211
 30
0.0
 40
1.25
  1

  0
TEXT
  8
DIM
 10
476.929906
 20
104.591452
 30
0.0
 40
1.0
  1

  0
TEXT
  8
DIM
 10
639.867406
 20
108.685211
 30
0.0
 40
1.25
  1

  0
TEXT
  8
DIM
 10
640.929906
 20
104.591452
 30
0.0
 40
1.0
  1

  0
TEXT
  8
OBJECT
 10
641.78665
 20
155.28811
 30
0.0
 40
1.25
  1

  0
TEXT
  8
DIM
 10
639.867406
 20
108.685211
 30
0.0
 40
1.25
  1

  0
TEXT
  8
DIM
 10
640.929906
 20
104.591452
 30
0.0
 40
1.0
  1

  0
TEXT
  8
OBJECT
 10
641.78665
 20
155.28811
 30
0.0
 40
1.25
  1

  0
TEXT
  8
DIM
 10
657.834784
 20
293.609587
 30
0.0
 40
0.72
  1

  0
TEXT
  8
DIM
 10
594.298907
 20
270.734322
 30
0.0
 40
0.72
  1

  0
TEXT
  8
DIM
 10
745.211228
 20
221.612584
 30
0.0
 40
0.72
  1

  0
TEXT
  8
DIM
 10
681.675351
 20
198.737319
 30
0.0
 40
0.72
  1

  0
TEXT
  8
DIM
 10
647.864584
 20
307.22455
 30
0.0
 40
0.72
  1

  0
TEXT
  8
DIM
 10
584.328707
 20
284.349285
 30
0.0
 40
0.72
  1

  0
TEXT
  8
DIM
 10
584.328707
 20
324.349285
 30
0.0
 40
0.72
  1

  0
TEXT
  8
DIM
 10
645.828707
 20
324.349285
 30
0.0
 40
0.72
  1

  0
TEXT
  8
DIM
 10
475.867406
 20
108.685211
 30
0.0
 40
1.25
  1

  0
TEXT
  8
DIM
 10
476.929906
 20
104.591452
 30
0.0
 40
1.0
  1

  0
TEXT
  8
OBJECT
 10
477.78665
 20
155.28811
 30
0.0
 40
1.25
  1

  0
TEXT
  8
DIM
 10
680.867406
 20
108.685211
 30
0.0
 40
1.25
  1

  0
TEXT
  8
DIM
 10
681.929906
 20
104.591452
 30
0.0
 40
1.0
  1

  0
TEXT
  8
OBJECT
 10
682.78665
 20
155.28811
 30
0.0
 40
1.25
  1

  0
TEXT
  8
DIM
 10
885.867406
 20
108.685211
 30
0.0
 40
1.25
  1

  0
TEXT
  8
DIM
 10
886.929906
 20
104.591452
 30
0.0
 40
1.0
  1

  0
TEXT
  8
DIM
 10
1049.867406
 20
108.685211
 30
0.0
 40
1.25
  1

  0
TEXT
  8
DIM
 10
1050.929906
 20
104.591452
 30
0.0
 40
1.0
  1

  0
TEXT
  8
OBJECT
 10
1051.78665
 20
155.28811
 30
0.0
 40
1.25
  1

  0
TEXT
  8
DIM
 10
1049.867406
 20
108.685211
 30
0.0
 40
1.25
  1

  0
TEXT
  8
DIM
 10
1050.929906
 20
104.591452
 30
0.0
 40
1.0
  1

  0
TEXT
  8
OBJECT
 10
1051.78665
 20
155.28811
 30
0.0
 40
1.25
  1

  0
TEXT
  8
DIM
 10
1067.834784
 20
293.609587
 30
0.0
 40
0.72
  1

  0
TEXT
  8
DIM
 10
1004.298907
 20
270.734322
 30
0.0
 40
0.72
  1

  0
TEXT
  8
DIM
 10
1155.211228
 20
221.612584
 30
0.0
 40
0.72
  1

  0
TEXT
  8
DIM
 10
1091.675351
 20
198.737319
 30
0.0
 40
0.72
  1

  0
TEXT
  8
DIM
 10
1057.864584
 20
307.22455
 30
0.0
 40
0.72
  1

  0
TEXT
  8
DIM
 10
994.328707
 20
284.349285
 30
0.0
 40
0.72
  1

  0
TEXT
  8
DIM
 10
994.328707
 20
324.349285
 30
0.0
 40
0.72
  1

  0
TEXT
  8
DIM
 10
1055.828707
 20
324.349285
 30
0.0
 40
0.72
  1

  0
TEXT
  8
DIM
 10
680.867406
 20
108.685211
 30
0.0
 40
1.25
  1

  0
TEXT
  8
DIM
 10
681.929906
 20
104.591452
 30
0.0
 40
1.0
  1

  0
TEXT
  8
OBJECT
 10
682.78665
 20
155.28811
 30
0.0
 40
1.25
  1

  0
TEXT
  8
DIM
 10
885.867406
 20
108.685211
 30
0.0
 40
1.25
  1

  0
TEXT
  8
DIM
 10
886.929906
 20
104.591452
 30
0.0
 40
1.0
  1

  0
TEXT
  8
DIM
 10
1049.867406
 20
108.685211
 30
0.0
 40
1.25
  1

  0
TEXT
  8
DIM
 10
1050.929906
 20
104.591452
 30
0.0
 40
1.0
  1

  0
TEXT
  8
OBJECT
 10
1051.78665
 20
155.28811
 30
0.0
 40
1.25
  1

  0
TEXT
  8
DIM
 10
1049.867406
 20
108.685211
 30
0.0
 40
1.25
  1

  0
TEXT
  8
DIM
 10
1050.929906
 20
104.591452
 30
0.0
 40
1.0
  1

  0
TEXT
  8
OBJECT
 10
1051.78665
 20
155.28811
 30
0.0
 40
1.25
  1

  0
TEXT
  8
DIM
 10
1067.834784
 20
293.609587
 30
0.0
 40
0.72
  1

  0
TEXT
  8
DIM
 10
1004.298907
 20
270.734322
 30
0.0
 40
0.72
  1

  0
TEXT
  8
DIM
 10
1155.211228
 20
221.612584
 30
0.0
 40
0.72
  1

  0
TEXT
  8
DIM
 10
1091.675351
 20
198.737319
 30
0.0
 40
0.72
  1

  0
TEXT
  8
DIM
 10
1057.864584
 20
307.22455
 30
0.0
 40
0.72
  1

  0
TEXT
  8
DIM
 10
994.328707
 20
284.349285
 30
0.0
 40
0.72
  1

  0
TEXT
  8
DIM
 10
994.328707
 20
324.349285
 30
0.0
 40
0.72
  1

  0
TEXT
  8
DIM
 10
1055.828707
 20
324.349285
 30
0.0
 40
0.72
  1

  0
TEXT
  8
DIM
 10
660.367406
 20
108.685211
 30
0.0
 40
1.25
  1

  0
TEXT
  8
DIM
 10
661.429906
 20
104.591452
 30
0.0
 40
1.0
  1

  0
TEXT
  8
DIM
 10
824.367406
 20
108.685211
 30
0.0
 40
1.25
  1

  0
TEXT
  8
DIM
 10
825.429906
 20
104.591452
 30
0.0
 40
1.0
  1

  0
TEXT
  8
OBJECT
 10
826.28665
 20
155.28811
 30
0.0
 40
1.25
  1

  0
TEXT
  8
DIM
 10
824.367406
 20
108.685211
 30
0.0
 40
1.25
  1

  0
TEXT
  8
DIM
 10
825.429906
 20
104.591452
 30
0.0
 40
1.0
  1

  0
TEXT
  8
OBJECT
 10
826.28665
 20
155.28811
 30
0.0
 40
1.25
  1

  0
TEXT
  8
DIM
 10
842.334784
 20
293.609587
 30
0.0
 40
0.72
  1

  0
TEXT
  8
DIM
 10
778.798907
 20
270.734322
 30
0.0
 40
0.72
  1

  0
TEXT
  8
DIM
 10
929.711228
 20
221.612584
 30
0.0
 40
0.72
  1

  0
TEXT
  8
DIM
 10
866.175351
 20
198.737319
 30
0.0
 40
0.72
  1

  0
TEXT
  8
DIM
 10
832.364584
 20
307.22455
 30
0.0
 40
0.72
  1

  0
TEXT
  8
DIM
 10
768.828707
 20
284.349285
 30
0.0
 40
0.72
  1

  0
TEXT
  8
DIM
 10
768.828707
 20
324.349285
 30
0.0
 40
0.72
  1

  0
TEXT
  8
DIM
 10
830.328707
 20
324.349285
 30
0.0
 40
0.72
  1

  0
TEXT
  8
DIM
 10
680.867406
 20
108.685211
 30
0.0
 40
1.25
  1

  0
TEXT
  8
DIM
 10
681.929906
 20
104.591452
 30
0.0
 40
1.0
  1

  0
TEXT
  8
DIM
 10
844.867406
 20
108.685211
 30
0.0
 40
1.25
  1

  0
TEXT
  8
DIM
 10
845.929906
 20
104.591452
 30
0.0
 40
1.0
  1

  0
TEXT
  8
OBJECT
 10
846.78665
 20
155.28811
 30
0.0
 40
1.25
  1

  0
TEXT
  8
DIM
 10
844.867406
 20
108.685211
 30
0.0
 40
1.25
  1

  0
TEXT
  8
DIM
 10
845.929906
 20
104.591452
 30
0.0
 40
1.0
  1

  0
TEXT
  8
OBJECT
 10
846.78665
 20
155.28811
 30
0.0
 40
1.25
  1

  0
TEXT
  8
DIM
 10
862.834784
 20
293.609587
 30
0.0
 40
0.72
  1

  0
TEXT
  8
DIM
 10
799.298907
 20
270.734322
 30
0.0
 40
0.72
  1

  0
TEXT
  8
DIM
 10
950.211228
 20
221.612584
 30
0.0
 40
0.72
  1

  0
TEXT
  8
DIM
 10
886.675351
 20
198.737319
 30
0.0
 40
0.72
  1

  0
TEXT
  8
DIM
 10
852.864584
 20
307.22455
 30
0.0
 40
0.72
  1

  0
TEXT
  8
DIM
 10
789.328707
 20
284.349285
 30
0.0
 40
0.72
  1

  0
TEXT
  8
DIM
 10
789.328707
 20
324.349285
 30
0.0
 40
0.72
  1

  0
TEXT
  8
DIM
 10
850.828707
 20
324.349285
 30
0.0
 40
0.72
  1

  0
TEXT
  8
DIM
 10
701.367406
 20
108.685211
 30
0.0
 40
1.25
  1

  0
TEXT
  8
DIM
 10
702.429906
 20
104.591452
 30
0.0
 40
1.0
  1

  0
TEXT
  8
OBJECT
 10
703.28665
 20
155.28811
 30
0.0
 40
1.25
  1

  0
TEXT
  8
DIM
 10
906.367406
 20
108.685211
 30
0.0
 40
1.25
  1

  0
TEXT
  8
DIM
 10
907.429906
 20
104.591452
 30
0.0
 40
1.0
  1

  0
TEXT
  8
OBJECT
 10
908.28665
 20
155.28811
 30
0.0
 40
1.25
  1

  0
TEXT
  8
DIM
 10
1111.367406
 20
108.685211
 30
0.0
 40
1.25
  1

  0
TEXT
  8
DIM
 10
1112.429906
 20
104.591452
 30
0.0
 40
1.0
  1

  0
TEXT
  8
DIM
 10
1275.367406
 20
108.685211
 30
0.0
 40
1.25
  1

  0
TEXT
  8
DIM
 10
1276.429906
 20
104.591452
 30
0.0
 40
1.0
  1

  0
TEXT
  8
OBJECT
 10
1277.28665
 20
155.28811
 30
0.0
 40
1.25
  1

  0
TEXT
  8
DIM
 10
1275.367406
 20
108.685211
 30
0.0
 40
1.25
  1

  0
TEXT
  8
DIM
 10
1276.429906
 20
104.591452
 30
0.0
 40
1.0
  1

  0
TEXT
  8
OBJECT
 10
1277.28665
 20
155.28811
 30
0.0
 40
1.25
  1

  0
TEXT
  8
DIM
 10
1293.334784
 20
293.609587
 30
0.0
 40
0.72
  1

  0
TEXT
  8
DIM
 10
1229.798907
 20
270.734322
 30
0.0
 40
0.72
  1

  0
TEXT
  8
DIM
 10
1380.711228
 20
221.612584
 30
0.0
 40
0.72
  1

  0
TEXT
  8
DIM
 10
1317.175351
 20
198.737319
 30
0.0
 40
0.72
  1

  0
TEXT
  8
DIM
 10
1283.364584
 20
307.22455
 30
0.0
 40
0.72
  1

  0
TEXT
  8
DIM
 10
1219.828707
 20
284.349285
 30
0.0
 40
0.72
  1

  0
TEXT
  8
DIM
 10
1219.828707
 20
324.349285
 30
0.0
 40
0.72
  1

  0
TEXT
  8
DIM
 10
1281.328707
 20
324.349285
 30
0.0
 40
0.72
  1

  0
TEXT
  8
DIM
 10
906.367406
 20
108.685211
 30
0.0
 40
1.25
  1

  0
TEXT
  8
DIM
 10
907.429906
 20
104.591452
 30
0.0
 40
1.0
  1

  0
TEXT
  8
OBJECT
 10
908.28665
 20
155.28811
 30
0.0
 40
1.25
  1

  0
TEXT
  8
DIM
 10
1111.367406
 20
108.685211
 30
0.0
 40
1.25
  1

  0
TEXT
  8
DIM
 10
1112.429906
 20
104.591452
 30
0.0
 40
1.0
  1

  0
TEXT
  8
DIM
 10
1275.367406
 20
108.685211
 30
0.0
 40
1.25
  1

  0
TEXT
  8
DIM
 10
1276.429906
 20
104.591452
 30
0.0
 40
1.0
  1

  0
TEXT
  8
OBJECT
 10
1277.28665
 20
155.28811
 30
0.0
 40
1.25
  1

  0
TEXT
  8
DIM
 10
1275.367406
 20
108.685211
 30
0.0
 40
1.25
  1

  0
TEXT
  8
DIM
 10
1276.429906
 20
104.591452
 30
0.0
 40
1.0
  1

  0
TEXT
  8
OBJECT
 10
1277.28665
 20
155.28811
 30
0.0
 40
1.25
  1

  0
TEXT
  8
DIM
 10
1293.334784
 20
293.609587
 30
0.0
 40
0.72
  1

  0
TEXT
  8
DIM
 10
1229.798907
 20
270.734322
 30
0.0
 40
0.72
  1

  0
TEXT
  8
DIM
 10
1380.711228
 20
221.612584
 30
0.0
 40
0.72
  1

  0
TEXT
  8
DIM
 10
1317.175351
 20
198.737319
 30
0.0
 40
0.72
  1

  0
TEXT
  8
DIM
 10
1283.364584
 20
307.22455
 30
0.0
 40
0.72
  1

  0
TEXT
  8
DIM
 10
1219.828707
 20
284.349285
 30
0.0
 40
0.72
  1

  0
TEXT
  8
DIM
 10
1219.828707
 20
324.349285
 30
0.0
 40
0.72
  1

  0
TEXT
  8
DIM
 10
1281.328707
 20
324.349285
 30
0.0
 40
0.72
  1

  0
TEXT
  8
DIM
 10
885.867406
 20
108.685211
 30
0.0
 40
1.25
  1

  0
TEXT
  8
DIM
 10
886.929906
 20
104.591452
 30
0.0
 40
1.0
  1

  0
TEXT
  8
DIM
 10
1049.867406
 20
108.685211
 30
0.0
 40
1.25
  1

  0
TEXT
  8
DIM
 10
1050.929906
 20
104.591452
 30
0.0
 40
1.0
  1

  0
TEXT
  8
OBJECT
 10
1051.78665
 20
155.28811
 30
0.0
 40
1.25
  1

  0
TEXT
  8
DIM
 10
1049.867406
 20
108.685211
 30
0.0
 40
1.25
  1

  0
TEXT
  8
DIM
 10
1050.929906
 20
104.591452
 30
0.0
 40
1.0
  1

  0
TEXT
  8
OBJECT
 10
1051.78665
 20
155.28811
 30
0.0
 40
1.25
  1

  0
TEXT
  8
DIM
 10
1067.834784
 20
293.609587
 30
0.0
 40
0.72
  1

  0
TEXT
  8
DIM
 10
1004.298907
 20
270.734322
 30
0.0
 40
0.72
  1

  0
TEXT
  8
DIM
 10
1155.211228
 20
221.612584
 30
0.0
 40
0.72
  1

  0
TEXT
  8
DIM
 10
1091.675351
 20
198.737319
 30
0.0
 40
0.72
  1

  0
TEXT
  8
DIM
 10
1057.864584
 20
307.22455
 30
0.0
 40
0.72
  1

  0
TEXT
  8
DIM
 10
994.328707
 20
284.349285
 30
0.0
 40
0.72
  1

  0
TEXT
  8
DIM
 10
994.328707
 20
324.349285
 30
0.0
 40
0.72
  1

  0
TEXT
  8
DIM
 10
1055.828707
 20
324.349285
 30
0.0
 40
0.72
  1

  0
TEXT
  8
DIM
 10
906.367406
 20
108.685211
 30
0.0
 40
1.25
  1

  0
TEXT
  8
DIM
 10
907.429906
 20
104.591452
 30
0.0
 40
1.0
  1

  0
TEXT
  8
DIM
 10
1070.367406
 20
108.685211
 30
0.0
 40
1.25
  1

  0
TEXT
  8
DIM
 10
1071.429906
 20
104.591452
 30
0.0
 40
1.0
  1

  0
TEXT
  8
OBJECT
 10
1072.28665
 20
155.28811
 30
0.0
 40
1.25
  1

  0
TEXT
  8
DIM
 10
1070.367406
 20
108.685211
 30
0.0
 40
1.25
  1

  0
TEXT
  8
DIM
 10
1071.429906
 20
104.591452
 30
0.0
 40
1.0
  1

  0
TEXT
  8
OBJECT
 10
1072.28665
 20
155.28811
 30
0.0
 40
1.25
  1

  0
TEXT
  8
DIM
 10
1088.334784
 20
293.609587
 30
0.0
 40
0.72
  1

  0
TEXT
  8
DIM
 10
1024.798907
 20
270.734322
 30
0.0
 40
0.72
  1

  0
TEXT
  8
DIM
 10
1175.711228
 20
221.612584
 30
0.0
 40
0.72
  1

  0
TEXT
  8
DIM
 10
1112.175351
 20
198.737319
 30
0.0
 40
0.72
  1

  0
TEXT
  8
DIM
 10
1078.364584
 20
307.22455
 30
0.0
 40
0.72
  1

  0
TEXT
  8
DIM
 10
1014.828707
 20
284.349285
 30
0.0
 40
0.72
  1

  0
TEXT
  8
DIM
 10
1014.828707
 20
324.349285
 30
0.0
 40
0.72
  1

  0
TEXT
  8
DIM
 10
1076.328707
 20
324.349285
 30
0.0
 40
0.72
  1

  0
TEXT
  8
DIM
 10
906.367406
 20
108.685211
 30
0.0
 40
1.25
  1

  0
TEXT
  8
DIM
 10
907.429906
 20
104.591452
 30
0.0
 40
1.0
  1

  0
TEXT
  8
OBJECT
 10
908.28665
 20
155.28811
 30
0.0
 40
1.25
  1

  0
TEXT
  8
DIM
 10
1111.367406
 20
108.685211
 30
0.0
 40
1.25
  1

  0
TEXT
  8
DIM
 10
1112.429906
 20
104.591452
 30
0.0
 40
1.0
  1

  0
TEXT
  8
DIM
 10
1275.367406
 20
108.685211
 30
0.0
 40
1.25
  1

  0
TEXT
  8
DIM
 10
1276.429906
 20
104.591452
 30
0.0
 40
1.0
  1

  0
TEXT
  8
OBJECT
 10
1277.28665
 20
155.28811
 30
0.0
 40
1.25
  1

  0
TEXT
  8
DIM
 10
1275.367406
 20
108.685211
 30
0.0
 40
1.25
  1

  0
TEXT
  8
DIM
 10
1276.429906
 20
104.591452
 30
0.0
 40
1.0
  1

  0
TEXT
  8
OBJECT
 10
1277.28665
 20
155.28811
 30
0.0
 40
1.25
  1

  0
TEXT
  8
DIM
 10
1293.334784
 20
293.609587
 30
0.0
 40
0.72
  1

  0
TEXT
  8
DIM
 10
1229.798907
 20
270.734322
 30
0.0
 40
0.72
  1

  0
TEXT
  8
DIM
 10
1380.711228
 20
221.612584
 30
0.0
 40
0.72
  1

  0
TEXT
  8
DIM
 10
1317.175351
 20
198.737319
 30
0.0
 40
0.72
  1

  0
TEXT
  8
DIM
 10
1283.364584
 20
307.22455
 30
0.0
 40
0.72
  1

  0
TEXT
  8
DIM
 10
1219.828707
 20
284.349285
 30
0.0
 40
0.72
  1

  0
TEXT
  8
DIM
 10
1219.828707
 20
324.349285
 30
0.0
 40
0.72
  1

  0
TEXT
  8
DIM
 10
1281.328707
 20
324.349285
 30
0.0
 40
0.72
  1

  0
TEXT
  8
DIM
 10
1070.367406
 20
108.685211
 30
0.0
 40
1.25
  1

  0
TEXT
  8
DIM
 10
1071.429906
 20
104.591452
 30
0.0
 40
1.0
  1

  0
TEXT
  8
OBJECT
 10
1072.28665
 20
155.28811
 30
0.0
 40
1.25
  1

  0
TEXT
  8
DIM
 10
1275.367406
 20
108.685211
 30
0.0
 40
1.25
  1

  0
TEXT
  8
DIM
 10
1276.429906
 20
104.591452
 30
0.0
 40
1.0
  1

  0
TEXT
  8
OBJECT
 10
1277.28665
 20
155.28811
 30
0.0
 40
1.25
  1

  0
TEXT
  8
DIM
 10
1480.367406
 20
108.685211
 30
0.0
 40
1.25
  1

  0
TEXT
  8
DIM
 10
1481.429906
 20
104.591452
 30
0.0
 40
1.0
  1

  0
TEXT
  8
DIM
 10
1644.367406
 20
108.685211
 30
0.0
 40
1.25
  1

  0
TEXT
  8
DIM
 10
1645.429906
 20
104.591452
 30
0.0
 40
1.0
  1

  0
TEXT
  8
OBJECT
 10
1646.28665
 20
155.28811
 30
0.0
 40
1.25
  1

  0
TEXT
  8
DIM
 10
1644.367406
 20
108.685211
 30
0.0
 40
1.25
  1

  0
TEXT
  8
DIM
 10
1645.429906
 20
104.591452
 30
0.0
 40
1.0
  1

  0
TEXT
  8
OBJECT
 10
1646.28665
 20
155.28811
 30
0.0
 40
1.25
  1

  0
TEXT
  8
DIM
 10
1662.334784
 20
293.609587
 30
0.0
 40
0.72
  1

  0
TEXT
  8
DIM
 10
1598.798907
 20
270.734322
 30
0.0
 40
0.72
  1

  0
TEXT
  8
DIM
 10
1749.711228
 20
221.612584
 30
0.0
 40
0.72
  1

  0
TEXT
  8
DIM
 10
1686.175351
 20
198.737319
 30
0.0
 40
0.72
  1

  0
TEXT
  8
DIM
 10
1652.364584
 20
307.22455
 30
0.0
 40
0.72
  1

  0
TEXT
  8
DIM
 10
1588.828707
 20
284.349285
 30
0.0
 40
0.72
  1

  0
TEXT
  8
DIM
 10
1588.828707
 20
324.349285
 30
0.0
 40
0.72
  1

  0
TEXT
  8
DIM
 10
1650.328707
 20
324.349285
 30
0.0
 40
0.72
  1

  0
TEXT
  8
DIM
 10
1275.367406
 20
108.685211
 30
0.0
 40
1.25
  1

  0
TEXT
  8
DIM
 10
1276.429906
 20
104.591452
 30
0.0
 40
1.0
  1

  0
TEXT
  8
OBJECT
 10
1277.28665
 20
155.28811
 30
0.0
 40
1.25
  1

  0
TEXT
  8
DIM
 10
1480.367406
 20
108.685211
 30
0.0
 40
1.25
  1

  0
TEXT
  8
DIM
 10
1481.429906
 20
104.591452
 30
0.0
 40
1.0
  1

  0
TEXT
  8
DIM
 10
1644.367406
 20
108.685211
 30
0.0
 40
1.25
  1

  0
TEXT
  8
DIM
 10
1645.429906
 20
104.591452
 30
0.0
 40
1.0
  1

  0
TEXT
  8
OBJECT
 10
1646.28665
 20
155.28811
 30
0.0
 40
1.25
  1

  0
TEXT
  8
DIM
 10
1644.367406
 20
108.685211
 30
0.0
 40
1.25
  1

  0
TEXT
  8
DIM
 10
1645.429906
 20
104.591452
 30
0.0
 40
1.0
  1

  0
TEXT
  8
OBJECT
 10
1646.28665
 20
155.28811
 30
0.0
 40
1.25
  1

  0
TEXT
  8
DIM
 10
1662.334784
 20
293.609587
 30
0.0
 40
0.72
  1

  0
TEXT
  8
DIM
 10
1598.798907
 20
270.734322
 30
0.0
 40
0.72
  1

  0
TEXT
  8
DIM
 10
1749.711228
 20
221.612584
 30
0.0
 40
0.72
  1

  0
TEXT
  8
DIM
 10
1686.175351
 20
198.737319
 30
0.0
 40
0.72
  1

  0
TEXT
  8
DIM
 10
1652.364584
 20
307.22455
 30
0.0
 40
0.72
  1

  0
TEXT
  8
DIM
 10
1588.828707
 20
284.349285
 30
0.0
 40
0.72
  1

  0
TEXT
  8
DIM
 10
1588.828707
 20
324.349285
 30
0.0
 40
0.72
  1

  0
TEXT
  8
DIM
 10
1650.328707
 20
324.349285
 30
0.0
 40
0.72
  1

  0
TEXT
  8
DIM
 10
1254.867406
 20
108.685211
 30
0.0
 40
1.25
  1

  0
TEXT
  8
DIM
 10
1255.929906
 20
104.591452
 30
0.0
 40
1.0
  1

  0
TEXT
  8
DIM
 10
1418.867406
 20
108.685211
 30
0.0
 40
1.25
  1

  0
TEXT
  8
DIM
 10
1419.929906
 20
104.591452
 30
0.0
 40
1.0
  1

  0
TEXT
  8
OBJECT
 10
1420.78665
 20
155.28811
 30
0.0
 40
1.25
  1

  0
TEXT
  8
DIM
 10
1418.867406
 20
108.685211
 30
0.0
 40
1.25
  1

  0
TEXT
  8
DIM
 10
1419.929906
 20
104.591452
 30
0.0
 40
1.0
  1

  0
TEXT
  8
OBJECT
 10
1420.78665
 20
155.28811
 30
0.0
 40
1.25
  1

  0
TEXT
  8
DIM
 10
1436.834784
 20
293.609587
 30
0.0
 40
0.72
  1

  0
TEXT
  8
DIM
 10
1373.298907
 20
270.734322
 30
0.0
 40
0.72
  1

  0
TEXT
  8
DIM
 10
1524.211228
 20
221.612584
 30
0.0
 40
0.72
  1

  0
TEXT
  8
DIM
 10
1460.675351
 20
198.737319
 30
0.0
 40
0.72
  1

  0
TEXT
  8
DIM
 10
1426.864584
 20
307.22455
 30
0.0
 40
0.72
  1

  0
TEXT
  8
DIM
 10
1363.328707
 20
284.349285
 30
0.0
 40
0.72
  1

  0
TEXT
  8
DIM
 10
1363.328707
 20
324.349285
 30
0.0
 40
0.72
  1

  0
TEXT
  8
DIM
 10
1424.828707
 20
324.349285
 30
0.0
 40
0.72
  1

  0
TEXT
  8
DIM
 10
1070.367406
 20
108.685211
 30
0.0
 40
1.25
  1

  0
TEXT
  8
DIM
 10
1071.429906
 20
104.591452
 30
0.0
 40
1.0
  1

  0
TEXT
  8
DIM
 10
1234.367406
 20
108.685211
 30
0.0
 40
1.25
  1

  0
TEXT
  8
DIM
 10
1235.429906
 20
104.591452
 30
0.0
 40
1.0
  1

  0
TEXT
  8
OBJECT
 10
1236.28665
 20
155.28811
 30
0.0
 40
1.25
  1

  0
TEXT
  8
DIM
 10
1234.367406
 20
108.685211
 30
0.0
 40
1.25
  1

  0
TEXT
  8
DIM
 10
1235.429906
 20
104.591452
 30
0.0
 40
1.0
  1

  0
TEXT
  8
OBJECT
 10
1236.28665
 20
155.28811
 30
0.0
 40
1.25
  1

  0
TEXT
  8
DIM
 10
1252.334784
 20
293.609587
 30
0.0
 40
0.72
  1

  0
TEXT
  8
DIM
 10
1188.798907
 20
270.734322
 30
0.0
 40
0.72
  1

  0
TEXT
  8
DIM
 10
1339.711228
 20
221.612584
 30
0.0
 40
0.72
  1

  0
TEXT
  8
DIM
 10
1276.175351
 20
198.737319
 30
0.0
 40
0.72
  1

  0
TEXT
  8
DIM
 10
1242.364584
 20
307.22455
 30
0.0
 40
0.72
  1

  0
TEXT
  8
DIM
 10
1178.828707
 20
284.349285
 30
0.0
 40
0.72
  1

  0
TEXT
  8
DIM
 10
1178.828707
 20
324.349285
 30
0.0
 40
0.72
  1

  0
TEXT
  8
DIM
 10
1240.328707
 20
324.349285
 30
0.0
 40
0.72
  1

  0
TEXT
  8
DIM
 10
1090.867406
 20
108.685211
 30
0.0
 40
1.25
  1

  0
TEXT
  8
DIM
 10
1091.929906
 20
104.591452
 30
0.0
 40
1.0
  1

  0
TEXT
  8
OBJECT
 10
1092.78665
 20
155.28811
 30
0.0
 40
1.25
  1

  0
TEXT
  8
DIM
 10
1295.867406
 20
108.685211
 30
0.0
 40
1.25
  1

  0
TEXT
  8
DIM
 10
1296.929906
 20
104.591452
 30
0.0
 40
1.0
  1

  0
TEXT
  8
DIM
 10
1459.867406
 20
108.685211
 30
0.0
 40
1.25
  1

  0
TEXT
  8
DIM
 10
1460.929906
 20
104.591452
 30
0.0
 40
1.0
  1

  0
TEXT
  8
OBJECT
 10
1461.78665
 20
155.28811
 30
0.0
 40
1.25
  1

  0
TEXT
  8
DIM
 10
1459.867406
 20
108.685211
 30
0.0
 40
1.25
  1

  0
TEXT
  8
DIM
 10
1460.929906
 20
104.591452
 30
0.0
 40
1.0
  1

  0
TEXT
  8
OBJECT
 10
1461.78665
 20
155.28811
 30
0.0
 40
1.25
  1

  0
TEXT
  8
DIM
 10
1477.834784
 20
293.609587
 30
0.0
 40
0.72
  1

  0
TEXT
  8
DIM
 10
1414.298907
 20
270.734322
 30
0.0
 40
0.72
  1

  0
TEXT
  8
DIM
 10
1565.211228
 20
221.612584
 30
0.0
 40
0.72
  1

  0
TEXT
  8
DIM
 10
1501.675351
 20
198.737319
 30
0.0
 40
0.72
  1

  0
TEXT
  8
DIM
 10
1467.864584
 20
307.22455
 30
0.0
 40
0.72
  1

  0
TEXT
  8
DIM
 10
1404.328707
 20
284.349285
 30
0.0
 40
0.72
  1

  0
TEXT
  8
DIM
 10
1404.328707
 20
324.349285
 30
0.0
 40
0.72
  1

  0
TEXT
  8
DIM
 10
1465.828707
 20
324.349285
 30
0.0
 40
0.72
  1

  0
TEXT
  8
DIM
 10
1254.867406
 20
108.685211
 30
0.0
 40
1.25
  1

  0
TEXT
  8
DIM
 10
1255.929906
 20
104.591452
 30
0.0
 40
1.0
  1

  0
TEXT
  8
OBJECT
 10
1256.78665
 20
155.28811
 30
0.0
 40
1.25
  1

  0
TEXT
  8
DIM
 10
1459.867406
 20
108.685211
 30
0.0
 40
1.25
  1

  0
TEXT
  8
DIM
 10
1460.929906
 20
104.591452
 30
0.0
 40
1.0
  1

  0
TEXT
  8
OBJECT
 10
1461.78665
 20
155.28811
 30
0.0
 40
1.25
  1

  0
TEXT
  8
DIM
 10
1664.867406
 20
108.685211
 30
0.0
 40
1.25
  1

  0
TEXT
  8
DIM
 10
1665.929906
 20
104.591452
 30
0.0
 40
1.0
  1

  0
TEXT
  8
DIM
 10
1828.867406
 20
108.685211
 30
0.0
 40
1.25
  1

  0
TEXT
  8
DIM
 10
1829.929906
 20
104.591452
 30
0.0
 40
1.0
  1

  0
TEXT
  8
OBJECT
 10
1830.78665
 20
155.28811
 30
0.0
 40
1.25
  1

  0
TEXT
  8
DIM
 10
1828.867406
 20
108.685211
 30
0.0
 40
1.25
  1

  0
TEXT
  8
DIM
 10
1829.929906
 20
104.591452
 30
0.0
 40
1.0
  1

  0
TEXT
  8
OBJECT
 10
1830.78665
 20
155.28811
 30
0.0
 40
1.25
  1

  0
TEXT
  8
DIM
 10
1846.834784
 20
293.609587
 30
0.0
 40
0.72
  1

  0
TEXT
  8
DIM
 10
1783.298907
 20
270.734322
 30
0.0
 40
0.72
  1

  0
TEXT
  8
DIM
 10
1934.211228
 20
221.612584
 30
0.0
 40
0.72
  1

  0
TEXT
  8
DIM
 10
1870.675351
 20
198.737319
 30
0.0
 40
0.72
  1

  0
TEXT
  8
DIM
 10
1836.864584
 20
307.22455
 30
0.0
 40
0.72
  1

  0
TEXT
  8
DIM
 10
1773.328707
 20
284.349285
 30
0.0
 40
0.72
  1

  0
TEXT
  8
DIM
 10
1773.328707
 20
324.349285
 30
0.0
 40
0.72
  1

  0
TEXT
  8
DIM
 10
1834.828707
 20
324.349285
 30
0.0
 40
0.72
  1

  0
TEXT
  8
DIM
 10
1459.867406
 20
108.685211
 30
0.0
 40
1.25
  1

  0
TEXT
  8
DIM
 10
1460.929906
 20
104.591452
 30
0.0
 40
1.0
  1

  0
TEXT
  8
OBJECT
 10
1461.78665
 20
155.28811
 30
0.0
 40
1.25
  1

  0
TEXT
  8
DIM
 10
1664.867406
 20
108.685211
 30
0.0
 40
1.25
  1

  0
TEXT
  8
DIM
 10
1665.929906
 20
104.591452
 30
0.0
 40
1.0
  1

  0
TEXT
  8
DIM
 10
1828.867406
 20
108.685211
 30
0.0
 40
1.25
  1

  0
TEXT
  8
DIM
 10
1829.929906
 20
104.591452
 30
0.0
 40
1.0
  1

  0
TEXT
  8
OBJECT
 10
1830.78665
 20
155.28811
 30
0.0
 40
1.25
  1

  0
TEXT
  8
DIM
 10
1828.867406
 20
108.685211
 30
0.0
 40
1.25
  1

  0
TEXT
  8
DIM
 10
1829.929906
 20
104.591452
 30
0.0
 40
1.0
  1

  0
TEXT
  8
OBJECT
 10
1830.78665
 20
155.28811
 30
0.0
 40
1.25
  1

  0
TEXT
  8
DIM
 10
1846.834784
 20
293.609587
 30
0.0
 40
0.72
  1

  0
TEXT
  8
DIM
 10
1783.298907
 20
270.734322
 30
0.0
 40
0.72
  1

  0
TEXT
  8
DIM
 10
1934.211228
 20
221.612584
 30
0.0
 40
0.72
  1

  0
TEXT
  8
DIM
 10
1870.675351
 20
198.737319
 30
0.0
 40
0.72
  1

  0
TEXT
  8
DIM
 10
1836.864584
 20
307.22455
 30
0.0
 40
0.72
  1

  0
TEXT
  8
DIM
 10
1773.328707
 20
284.349285
 30
0.0
 40
0.72
  1

  0
TEXT
  8
DIM
 10
1773.328707
 20
324.349285
 30
0.0
 40
0.72
  1

  0
TEXT
  8
DIM
 10
1834.828707
 20
324.349285
 30
0.0
 40
0.72
  1

  0
TEXT
  8
DIM
 10
1439.367406
 20
108.685211
 30
0.0
 40
1.25
  1

  0
TEXT
  8
DIM
 10
1440.429906
 20
104.591452
 30
0.0
 40
1.0
  1

  0
TEXT
  8
DIM
 10
1603.367406
 20
108.685211
 30
0.0
 40
1.25
  1

  0
TEXT
  8
DIM
 10
1604.429906
 20
104.591452
 30
0.0
 40
1.0
  1

  0
TEXT
  8
OBJECT
 10
1605.28665
 20
155.28811
 30
0.0
 40
1.25
  1

  0
TEXT
  8
DIM
 10
1603.367406
 20
108.685211
 30
0.0
 40
1.25
  1

  0
TEXT
  8
DIM
 10
1604.429906
 20
104.591452
 30
0.0
 40
1.0
  1

  0
TEXT
  8
OBJECT
 10
1605.28665
 20
155.28811
 30
0.0
 40
1.25
  1

  0
TEXT
  8
DIM
 10
1621.334784
 20
293.609587
 30
0.0
 40
0.72
  1

  0
TEXT
  8
DIM
 10
1557.798907
 20
270.734322
 30
0.0
 40
0.72
  1

  0
TEXT
  8
DIM
 10
1708.711228
 20
221.612584
 30
0.0
 40
0.72
  1

  0
TEXT
  8
DIM
 10
1645.175351
 20
198.737319
 30
0.0
 40
0.72
  1

  0
TEXT
  8
DIM
 10
1611.364584
 20
307.22455
 30
0.0
 40
0.72
  1

  0
TEXT
  8
DIM
 10
1547.828707
 20
284.349285
 30
0.0
 40
0.72
  1

  0
TEXT
  8
DIM
 10
1547.828707
 20
324.349285
 30
0.0
 40
0.72
  1

  0
TEXT
  8
DIM
 10
1609.328707
 20
324.349285
 30
0.0
 40
0.72
  1

  0
TEXT
  8
DIM
 10
1254.867406
 20
108.685211
 30
0.0
 40
1.25
  1

  0
TEXT
  8
DIM
 10
1255.929906
 20
104.591452
 30
0.0
 40
1.0
  1

  0
TEXT
  8
OBJECT
 10
1256.78665
 20
155.28811
 30
0.0
 40
1.25
  1

  0
TEXT
  8
DIM
 10
1091.064485
 20
268.398533
 30
0.0
 40
1.25
  1

  0
TEXT
  8
DIM
 10
1092.126985
 20
264.304774
 30
0.0
 40
1.0
  1

  0
TEXT
  8
OBJECT
 10
1092.983729
 20
315.001432
 30
0.0
 40
1.25
  1

  0
TEXT
  8
DIM
 10
906.367406
 20
252.685211
 30
0.0
 40
1.25
  1

  0
TEXT
  8
DIM
 10
907.429906
 20
248.591452
 30
0.0
 40
1.0
  1

  0
TEXT
  8
OBJECT
 10
908.28665
 20
299.28811
 30
0.0
 40
1.25
  1

  0
TEXT
  8
DIM
 10
906.367406
 20
108.685211
 30
0.0
 40
1.25
  1

  0
TEXT
  8
DIM
 10
907.429906
 20
104.591452
 30
0.0
 40
1.0
  1

  0
TEXT
  8
OBJECT
 10
908.28665
 20
155.28811
 30
0.0
 40
1.25
  1

  0
TEXT
  8
DIM
 10
701.367406
 20
108.685211
 30
0.0
 40
1.25
  1

  0
TEXT
  8
DIM
 10
702.429906
 20
104.591452
 30
0.0
 40
1.0
  1

  0
TEXT
  8
OBJECT
 10
703.28665
 20
155.28811
 30
0.0
 40
1.25
  1

  0
TEXT
  8
DIM
 10
475.867406
 20
108.685211
 30
0.0
 40
1.25
  1

  0
TEXT
  8
DIM
 10
476.929906
 20
104.591452
 30
0.0
 40
1.0
  1

  0
TEXT
  8
OBJECT
 10
477.78665
 20
155.28811
 30
0.0
 40
1.25
  1

  0
TEXT
  8
DIM
 10
-16.132594
 20
300.685211
 30
0.0
 40
1.25
  1

  0
TEXT
  8
DIM
 10
-15.070094
 20
296.591452
 30
0.0
 40
1.0
  1

  0
TEXT
  8
OBJECT
 10
-14.21335
 20
347.28811
 30
0.0
 40
1.25
  1

  0
TEXT
  8
DIM
 10
229.867406
 20
300.685211
 30
0.0
 40
1.25
  1

  0
TEXT
  8
DIM
 10
230.929906
 20
296.591452
 30
0.0
 40
1.0
  1

  0
TEXT
  8
OBJECT
 10
231.78665
 20
347.28811
 30
0.0
 40
1.25
  1

  0
TEXT
  8
DIM
 10
434.867406
 20
300.685211
 30
0.0
 40
1.25
  1

  0
TEXT
  8
DIM
 10
435.929906
 20
296.591452
 30
0.0
 40
1.0
  1

  0
TEXT
  8
OBJECT
 10
436.78665
 20
347.28811
 30
0.0
 40
1.25
  1

  0
TEXT
  8
DIM
 10
639.867406
 20
300.685211
 30
0.0
 40
1.25
  1

  0
TEXT
  8
DIM
 10
640.929906
 20
296.591452
 30
0.0
 40
1.0
  1

  0
TEXT
  8
DIM
 10
803.867406
 20
300.685211
 30
0.0
 40
1.25
  1

  0
TEXT
  8
DIM
 10
804.929906
 20
296.591452
 30
0.0
 40
1.0
  1

  0
TEXT
  8
OBJECT
 10
805.78665
 20
347.28811
 30
0.0
 40
1.25
  1

  0
TEXT
  8
DIM
 10
803.867406
 20
300.685211
 30
0.0
 40
1.25
  1

  0
TEXT
  8
DIM
 10
804.929906
 20
296.591452
 30
0.0
 40
1.0
  1

  0
TEXT
  8
OBJECT
 10
805.78665
 20
347.28811
 30
0.0
 40
1.25
  1

  0
TEXT
  8
DIM
 10
821.834784
 20
485.609587
 30
0.0
 40
0.72
  1

  0
TEXT
  8
DIM
 10
758.298907
 20
462.734322
 30
0.0
 40
0.72
  1

  0
TEXT
  8
DIM
 10
909.211228
 20
413.612584
 30
0.0
 40
0.72
  1

  0
TEXT
  8
DIM
 10
845.675351
 20
390.737319
 30
0.0
 40
0.72
  1

  0
TEXT
  8
DIM
 10
811.864584
 20
499.22455
 30
0.0
 40
0.72
  1

  0
TEXT
  8
DIM
 10
748.328707
 20
476.349285
 30
0.0
 40
0.72
  1

  0
TEXT
  8
DIM
 10
748.328707
 20
516.349285
 30
0.0
 40
0.72
  1

  0
TEXT
  8
DIM
 10
809.828707
 20
516.349285
 30
0.0
 40
0.72
  1

  0
TEXT
  8
DIM
 10
434.867406
 20
300.685211
 30
0.0
 40
1.25
  1

  0
TEXT
  8
DIM
 10
435.929906
 20
296.591452
 30
0.0
 40
1.0
  1

  0
TEXT
  8
OBJECT
 10
436.78665
 20
347.28811
 30
0.0
 40
1.25
  1

  0
TEXT
  8
TEXT
 10
3.134272
 20
235.711626
 30
0.0
 40
2.0
  1
%%uMATERIAL:
 41
0.75
  0
TEXT
  8
TEXT
 10
4.467605
 20
232.383626
 30
0.0
 40
2.0
  1
SIDES & REAR DOOR
 41
0.75
  0
TEXT
  8
TEXT
 10
4.467605
 20
229.055626
 30
0.0
 40
2.0
  1
REAR DOOR STIFFENER
 41
0.75
  0
TEXT
  8
TEXT
 10
4.467605
 20
225.727626
 30
0.0
 40
2.0
  1
TOP, BOTTOM, RAIL SUPPORTS, PLATES
 41
0.75
  0
TEXT
  8
TEXT
 10
5.800938
 20
222.399626
 30
0.0
 40
2.0
  1
& DOOR STOPS
 41
0.75
  0
TEXT
  8
TEXT
 10
4.467605
 20
219.071626
 30
0.0
 40
2.0
  1
VERTICAL RAILS
 41
0.75
  0
TEXT
  8
TEXT
 10
4.467605
 20
215.743626
 30
0.0
 40
2.0
  1
PANEL MOUNTING RAILS
 41
0.75
  0
TEXT
  8
TEXT
 10
81.952
 20
235.807627
 30
0.0
 40
2.0
  1
%%uFINISH:
 41
0.75
  0
TEXT
  8
TEXT
 10
83.285333
 20
232.479627
 30
0.0
 40
2.0
  1
FRAME ASSEMBLY, SIDES, PLATES,
 41
0.75
  0
TEXT
  8
TEXT
 10
84.618667
 20
229.151627
 30
0.0
 40
2.0
  1
REAR DOOR & REAR DOOR HINGES
 41
0.75
  0
TEXT
  8
TEXT
 10
83.285333
 20
219.167627
 30
0.0
 40
2.0
  1
PANEL MOUNTING RAILS, DOOR STOPS
 41
0.75
  0
TEXT
  8
TEXT
 10
7.829313
 20
48.426155
 30
0.0
 40
2.0
  1
%%uNOTES:
 41
0.75
  0
TEXT
  8
TEXT
 10
7.829313
 20
45.098155
 30
0.0
 40
2.0
  1
PANEL MOUNTING RAILS TAPPED #10-32 ON E.I.A. UNIVERSAL
 41
0.75
  0
TEXT
  8
TEXT
 10
7.829313
 20
35.114155
 30
0.0
 40
2.0
  1
MOUNTING HOLES PIERCED IN BASE FOR #RL-7770 LEVELER KIT.
 41
0.75
  0
TEXT
  8
TEXT
 10
4.731792
 20
45.098155
 30
0.0
 40
2.0
  1
1
 41
0.75
 72
     4
 11
4.981792
 21
46.098155
 31
0.0
  0
POLYLINE
  8
TEXT
 66
     1
 10
0.0
 20
0.0
 30
0.0
 70
     1
  0
VERTEX
  8
TEXT
 10
4.058032
 20
47.698155
 30
0.0
  0
VERTEX
  8
TEXT
 10
3.134272
 20
46.098155
 30
0.0
  0
VERTEX
  8
TEXT
 10
4.058032
 20
44.498155
 30
0.0
  0
VERTEX
  8
TEXT
 10
5.905553
 20
44.498155
 30
0.0
  0
VERTEX
  8
TEXT
 10
6.829313
 20
46.098155
 30
0.0
  0
VERTEX
  8
TEXT
 10
5.905553
 20
47.698155
 30
0.0
  0
SEQEND
  8
TEXT
  0
TEXT
  8
TEXT
 10
131.682773
 20
225.823627
 30
0.0
 40
2.0
  1
BLACK TEXTURE
 41
0.75
  0
TEXT
  8
TEXT
 10
131.682773
 20
215.839627
 30
0.0
 40
2.0
  1
SMOOTH BLACK
 41
0.75
  0
TEXT
  8
TEXT
 10
52.865045
 20
232.383626
 30
0.0
 40
2.0
  1
20 GA. STEEL
 41
0.75
  0
TEXT
  8
TEXT
 10
52.865045
 20
229.055626
 30
0.0
 40
2.0
  1
18 GA. STEEL
 41
0.75
  0
TEXT
  8
TEXT
 10
52.865045
 20
222.399626
 30
0.0
 40
2.0
  1
16 GA. STEEL
 41
0.75
  0
TEXT
  8
TEXT
 10
52.865045
 20
219.071626
 30
0.0
 40
2.0
  1
14 GA. STEEL
 41
0.75
  0
TEXT
  8
TEXT
 10
52.865045
 20
212.415626
 30
0.0
 40
2.0
  1
12 GA. STEEL
 41
0.75
  0
LINE
  8
TEXT
 10
130.838547
 20
225.823627
 30
0.0
 11
126.204336
 21
225.823627
 31
0.0
  0
LINE
  8
TEXT
 10
52.020818
 20
212.415626
 30
0.0
 11
46.654641
 21
212.415626
 31
0.0
  0
LINE
  8
TEXT
 10
52.020818
 20
219.071626
 30
0.0
 11
25.335009
 21
219.071626
 31
0.0
  0
LINE
  8
TEXT
 10
52.020818
 20
222.399626
 30
0.0
 11
24.67636
 21
222.399626
 31
0.0
  0
LINE
  8
TEXT
 10
52.020818
 20
229.055626
 30
0.0
 11
32.462214
 21
229.055626
 31
0.0
  0
LINE
  8
TEXT
 10
52.020818
 20
232.383626
 30
0.0
 11
30.469969
 21
232.383626
 31
0.0
  0
TEXT
  8
TEXT
 10
9.162647
 20
41.770155
 30
0.0
 40
2.0
  1
SPACING AND ARE FULLY ADJUSTABLE.
 41
0.75
  0
TEXT
  8
TEXT
 10
4.481792
 20
35.114155
 30
0.0
 40
2.0
  1
2
 41
0.75
 72
     4
 11
4.981792
 21
36.114155
 31
0.0
  0
POLYLINE
  8
TEXT
 66
     1
 10
0.0
 20
0.0
 30
0.0
 70
     1
  0
VERTEX
  8
TEXT
 10
4.058032
 20
37.714155
 30
0.0
  0
VERTEX
  8
TEXT
 10
3.134272
 20
36.114155
 30
0.0
  0
VERTEX
  8
TEXT
 10
4.058032
 20
34.514155
 30
0.0
  0
VERTEX
  8
TEXT
 10
5.905553
 20
34.514155
 30
0.0
  0
VERTEX
  8
TEXT
 10
6.829313
 20
36.114155
 30
0.0
  0
VERTEX
  8
TEXT
 10
5.905553
 20
37.714155
 30
0.0
  0
SEQEND
  8
TEXT
  0
TEXT
  8
TEXT
 10
4.481792
 20
21.802155
 30
0.0
 40
2.0
  1
3
 41
0.75
 72
     4
 11
4.981792
 21
22.802155
 31
0.0
  0
TEXT
  8
DIM
 10
639.867406
 20
300.685211
 30
0.0
 40
1.25
  1

  0
TEXT
  8
DIM
 10
640.929906
 20
296.591452
 30
0.0
 40
1.0
  1

  0
TEXT
  8
DIM
 10
803.867406
 20
300.685211
 30
0.0
 40
1.25
  1

  0
TEXT
  8
DIM
 10
804.929906
 20
296.591452
 30
0.0
 40
1.0
  1

  0
TEXT
  8
OBJECT
 10
805.78665
 20
347.28811
 30
0.0
 40
1.25
  1

  0
TEXT
  8
DIM
 10
803.867406
 20
300.685211
 30
0.0
 40
1.25
  1

  0
TEXT
  8
DIM
 10
804.929906
 20
296.591452
 30
0.0
 40
1.0
  1

  0
TEXT
  8
OBJECT
 10
805.78665
 20
347.28811
 30
0.0
 40
1.25
  1

  0
TEXT
  8
DIM
 10
821.834784
 20
485.609587
 30
0.0
 40
0.72
  1

  0
TEXT
  8
DIM
 10
758.298907
 20
462.734322
 30
0.0
 40
0.72
  1

  0
TEXT
  8
DIM
 10
909.211228
 20
413.612584
 30
0.0
 40
0.72
  1

  0
TEXT
  8
DIM
 10
845.675351
 20
390.737319
 30
0.0
 40
0.72
  1

  0
TEXT
  8
DIM
 10
811.864584
 20
499.22455
 30
0.0
 40
0.72
  1

  0
TEXT
  8
DIM
 10
748.328707
 20
476.349285
 30
0.0
 40
0.72
  1

  0
TEXT
  8
DIM
 10
748.328707
 20
516.349285
 30
0.0
 40
0.72
  1

  0
TEXT
  8
DIM
 10
809.828707
 20
516.349285
 30
0.0
 40
0.72
  1

  0
TEXT
  8
DIM
 10
414.367406
 20
300.685211
 30
0.0
 40
1.25
  1

  0
TEXT
  8
DIM
 10
415.429906
 20
296.591452
 30
0.0
 40
1.0
  1

  0
TEXT
  8
DIM
 10
578.367406
 20
300.685211
 30
0.0
 40
1.25
  1

  0
TEXT
  8
DIM
 10
579.429906
 20
296.591452
 30
0.0
 40
1.0
  1

  0
TEXT
  8
OBJECT
 10
580.28665
 20
347.28811
 30
0.0
 40
1.25
  1

  0
TEXT
  8
DIM
 10
578.367406
 20
300.685211
 30
0.0
 40
1.25
  1

  0
TEXT
  8
DIM
 10
579.429906
 20
296.591452
 30
0.0
 40
1.0
  1

  0
TEXT
  8
OBJECT
 10
580.28665
 20
347.28811
 30
0.0
 40
1.25
  1

  0
TEXT
  8
DIM
 10
596.334784
 20
485.609587
 30
0.0
 40
0.72
  1

  0
TEXT
  8
DIM
 10
532.798907
 20
462.734322
 30
0.0
 40
0.72
  1

  0
TEXT
  8
DIM
 10
683.711228
 20
413.612584
 30
0.0
 40
0.72
  1

  0
TEXT
  8
DIM
 10
620.175351
 20
390.737319
 30
0.0
 40
0.72
  1

  0
TEXT
  8
DIM
 10
586.364584
 20
499.22455
 30
0.0
 40
0.72
  1

  0
TEXT
  8
DIM
 10
522.828707
 20
476.349285
 30
0.0
 40
0.72
  1

  0
TEXT
  8
DIM
 10
522.828707
 20
516.349285
 30
0.0
 40
0.72
  1

  0
TEXT
  8
DIM
 10
584.328707
 20
516.349285
 30
0.0
 40
0.72
  1

  0
TEXT
  8
DIM
 10
475.867406
 20
300.685211
 30
0.0
 40
1.25
  1

  0
TEXT
  8
DIM
 10
476.929906
 20
296.591452
 30
0.0
 40
1.0
  1

  0
TEXT
  8
DIM
 10
639.867406
 20
300.685211
 30
0.0
 40
1.25
  1

  0
TEXT
  8
DIM
 10
640.929906
 20
296.591452
 30
0.0
 40
1.0
  1

  0
TEXT
  8
OBJECT
 10
641.78665
 20
347.28811
 30
0.0
 40
1.25
  1

  0
TEXT
  8
DIM
 10
639.867406
 20
300.685211
 30
0.0
 40
1.25
  1

  0
TEXT
  8
DIM
 10
640.929906
 20
296.591452
 30
0.0
 40
1.0
  1

  0
TEXT
  8
OBJECT
 10
641.78665
 20
347.28811
 30
0.0
 40
1.25
  1

  0
TEXT
  8
DIM
 10
657.834784
 20
485.609587
 30
0.0
 40
0.72
  1

  0
TEXT
  8
DIM
 10
594.298907
 20
462.734322
 30
0.0
 40
0.72
  1

  0
TEXT
  8
DIM
 10
745.211228
 20
413.612584
 30
0.0
 40
0.72
  1

  0
TEXT
  8
DIM
 10
681.675351
 20
390.737319
 30
0.0
 40
0.72
  1

  0
TEXT
  8
DIM
 10
647.864584
 20
499.22455
 30
0.0
 40
0.72
  1

  0
TEXT
  8
DIM
 10
584.328707
 20
476.349285
 30
0.0
 40
0.72
  1

  0
TEXT
  8
DIM
 10
584.328707
 20
516.349285
 30
0.0
 40
0.72
  1

  0
TEXT
  8
DIM
 10
645.828707
 20
516.349285
 30
0.0
 40
0.72
  1

  0
TEXT
  8
DIM
 10
475.867406
 20
300.685211
 30
0.0
 40
1.25
  1

  0
TEXT
  8
DIM
 10
476.929906
 20
296.591452
 30
0.0
 40
1.0
  1

  0
TEXT
  8
OBJECT
 10
477.78665
 20
347.28811
 30
0.0
 40
1.25
  1

  0
TEXT
  8
DIM
 10
680.867406
 20
300.685211
 30
0.0
 40
1.25
  1

  0
TEXT
  8
DIM
 10
681.929906
 20
296.591452
 30
0.0
 40
1.0
  1

  0
TEXT
  8
OBJECT
 10
682.78665
 20
347.28811
 30
0.0
 40
1.25
  1

  0
TEXT
  8
DIM
 10
885.867406
 20
300.685211
 30
0.0
 40
1.25
  1

  0
TEXT
  8
DIM
 10
886.929906
 20
296.591452
 30
0.0
 40
1.0
  1

  0
TEXT
  8
DIM
 10
1049.867406
 20
300.685211
 30
0.0
 40
1.25
  1

  0
TEXT
  8
DIM
 10
1050.929906
 20
296.591452
 30
0.0
 40
1.0
  1

  0
TEXT
  8
OBJECT
 10
1051.78665
 20
347.28811
 30
0.0
 40
1.25
  1

  0
TEXT
  8
DIM
 10
1049.867406
 20
300.685211
 30
0.0
 40
1.25
  1

  0
TEXT
  8
DIM
 10
1050.929906
 20
296.591452
 30
0.0
 40
1.0
  1

  0
TEXT
  8
OBJECT
 10
1051.78665
 20
347.28811
 30
0.0
 40
1.25
  1

  0
TEXT
  8
DIM
 10
1067.834784
 20
485.609587
 30
0.0
 40
0.72
  1

  0
TEXT
  8
DIM
 10
1004.298907
 20
462.734322
 30
0.0
 40
0.72
  1

  0
TEXT
  8
DIM
 10
1155.211228
 20
413.612584
 30
0.0
 40
0.72
  1

  0
TEXT
  8
DIM
 10
1091.675351
 20
390.737319
 30
0.0
 40
0.72
  1

  0
TEXT
  8
DIM
 10
1057.864584
 20
499.22455
 30
0.0
 40
0.72
  1

  0
TEXT
  8
DIM
 10
994.328707
 20
476.349285
 30
0.0
 40
0.72
  1

  0
TEXT
  8
DIM
 10
994.328707
 20
516.349285
 30
0.0
 40
0.72
  1

  0
TEXT
  8
DIM
 10
1055.828707
 20
516.349285
 30
0.0
 40
0.72
  1

  0
TEXT
  8
DIM
 10
680.867406
 20
300.685211
 30
0.0
 40
1.25
  1

  0
TEXT
  8
DIM
 10
681.929906
 20
296.591452
 30
0.0
 40
1.0
  1

  0
TEXT
  8
OBJECT
 10
682.78665
 20
347.28811
 30
0.0
 40
1.25
  1

  0
TEXT
  8
DIM
 10
885.867406
 20
300.685211
 30
0.0
 40
1.25
  1

  0
TEXT
  8
DIM
 10
886.929906
 20
296.591452
 30
0.0
 40
1.0
  1

  0
TEXT
  8
DIM
 10
1049.867406
 20
300.685211
 30
0.0
 40
1.25
  1

  0
TEXT
  8
DIM
 10
1050.929906
 20
296.591452
 30
0.0
 40
1.0
  1

  0
TEXT
  8
OBJECT
 10
1051.78665
 20
347.28811
 30
0.0
 40
1.25
  1

  0
TEXT
  8
DIM
 10
1049.867406
 20
300.685211
 30
0.0
 40
1.25
  1

  0
TEXT
  8
DIM
 10
1050.929906
 20
296.591452
 30
0.0
 40
1.0
  1

  0
TEXT
  8
OBJECT
 10
1051.78665
 20
347.28811
 30
0.0
 40
1.25
  1

  0
TEXT
  8
DIM
 10
1067.834784
 20
485.609587
 30
0.0
 40
0.72
  1

  0
TEXT
  8
DIM
 10
1004.298907
 20
462.734322
 30
0.0
 40
0.72
  1

  0
TEXT
  8
DIM
 10
1155.211228
 20
413.612584
 30
0.0
 40
0.72
  1

  0
TEXT
  8
DIM
 10
1091.675351
 20
390.737319
 30
0.0
 40
0.72
  1

  0
TEXT
  8
DIM
 10
1057.864584
 20
499.22455
 30
0.0
 40
0.72
  1

  0
TEXT
  8
DIM
 10
994.328707
 20
476.349285
 30
0.0
 40
0.72
  1

  0
TEXT
  8
DIM
 10
994.328707
 20
516.349285
 30
0.0
 40
0.72
  1

  0
TEXT
  8
DIM
 10
1055.828707
 20
516.349285
 30
0.0
 40
0.72
  1

  0
TEXT
  8
DIM
 10
660.367406
 20
300.685211
 30
0.0
 40
1.25
  1

  0
TEXT
  8
DIM
 10
661.429906
 20
296.591452
 30
0.0
 40
1.0
  1

  0
TEXT
  8
DIM
 10
824.367406
 20
300.685211
 30
0.0
 40
1.25
  1

  0
TEXT
  8
DIM
 10
825.429906
 20
296.591452
 30
0.0
 40
1.0
  1

  0
TEXT
  8
OBJECT
 10
826.28665
 20
347.28811
 30
0.0
 40
1.25
  1

  0
TEXT
  8
DIM
 10
824.367406
 20
300.685211
 30
0.0
 40
1.25
  1

  0
TEXT
  8
DIM
 10
825.429906
 20
296.591452
 30
0.0
 40
1.0
  1

  0
TEXT
  8
OBJECT
 10
826.28665
 20
347.28811
 30
0.0
 40
1.25
  1

  0
TEXT
  8
DIM
 10
842.334784
 20
485.609587
 30
0.0
 40
0.72
  1

  0
TEXT
  8
DIM
 10
778.798907
 20
462.734322
 30
0.0
 40
0.72
  1

  0
TEXT
  8
DIM
 10
929.711228
 20
413.612584
 30
0.0
 40
0.72
  1

  0
TEXT
  8
DIM
 10
866.175351
 20
390.737319
 30
0.0
 40
0.72
  1

  0
TEXT
  8
DIM
 10
832.364584
 20
499.22455
 30
0.0
 40
0.72
  1

  0
TEXT
  8
DIM
 10
768.828707
 20
476.349285
 30
0.0
 40
0.72
  1

  0
TEXT
  8
DIM
 10
768.828707
 20
516.349285
 30
0.0
 40
0.72
  1

  0
TEXT
  8
DIM
 10
830.328707
 20
516.349285
 30
0.0
 40
0.72
  1

  0
TEXT
  8
DIM
 10
680.867406
 20
300.685211
 30
0.0
 40
1.25
  1

  0
TEXT
  8
DIM
 10
681.929906
 20
296.591452
 30
0.0
 40
1.0
  1

  0
TEXT
  8
DIM
 10
844.867406
 20
300.685211
 30
0.0
 40
1.25
  1

  0
TEXT
  8
DIM
 10
845.929906
 20
296.591452
 30
0.0
 40
1.0
  1

  0
TEXT
  8
OBJECT
 10
846.78665
 20
347.28811
 30
0.0
 40
1.25
  1

  0
TEXT
  8
DIM
 10
844.867406
 20
300.685211
 30
0.0
 40
1.25
  1

  0
TEXT
  8
DIM
 10
845.929906
 20
296.591452
 30
0.0
 40
1.0
  1

  0
TEXT
  8
OBJECT
 10
846.78665
 20
347.28811
 30
0.0
 40
1.25
  1

  0
TEXT
  8
DIM
 10
862.834784
 20
485.609587
 30
0.0
 40
0.72
  1

  0
TEXT
  8
DIM
 10
799.298907
 20
462.734322
 30
0.0
 40
0.72
  1

  0
TEXT
  8
DIM
 10
950.211228
 20
413.612584
 30
0.0
 40
0.72
  1

  0
TEXT
  8
DIM
 10
886.675351
 20
390.737319
 30
0.0
 40
0.72
  1

  0
TEXT
  8
DIM
 10
852.864584
 20
499.22455
 30
0.0
 40
0.72
  1

  0
TEXT
  8
DIM
 10
789.328707
 20
476.349285
 30
0.0
 40
0.72
  1

  0
TEXT
  8
DIM
 10
789.328707
 20
516.349285
 30
0.0
 40
0.72
  1

  0
TEXT
  8
DIM
 10
850.828707
 20
516.349285
 30
0.0
 40
0.72
  1

  0
TEXT
  8
DIM
 10
701.367406
 20
300.685211
 30
0.0
 40
1.25
  1

  0
TEXT
  8
DIM
 10
702.429906
 20
296.591452
 30
0.0
 40
1.0
  1

  0
TEXT
  8
OBJECT
 10
703.28665
 20
347.28811
 30
0.0
 40
1.25
  1

  0
TEXT
  8
DIM
 10
906.367406
 20
300.685211
 30
0.0
 40
1.25
  1

  0
TEXT
  8
DIM
 10
907.429906
 20
296.591452
 30
0.0
 40
1.0
  1

  0
TEXT
  8
OBJECT
 10
908.28665
 20
347.28811
 30
0.0
 40
1.25
  1

  0
TEXT
  8
DIM
 10
1111.367406
 20
300.685211
 30
0.0
 40
1.25
  1

  0
TEXT
  8
DIM
 10
1112.429906
 20
296.591452
 30
0.0
 40
1.0
  1

  0
TEXT
  8
DIM
 10
1275.367406
 20
300.685211
 30
0.0
 40
1.25
  1

  0
TEXT
  8
DIM
 10
1276.429906
 20
296.591452
 30
0.0
 40
1.0
  1

  0
TEXT
  8
OBJECT
 10
1277.28665
 20
347.28811
 30
0.0
 40
1.25
  1

  0
TEXT
  8
DIM
 10
1275.367406
 20
300.685211
 30
0.0
 40
1.25
  1

  0
TEXT
  8
DIM
 10
1276.429906
 20
296.591452
 30
0.0
 40
1.0
  1

  0
TEXT
  8
OBJECT
 10
1277.28665
 20
347.28811
 30
0.0
 40
1.25
  1

  0
TEXT
  8
DIM
 10
1293.334784
 20
485.609587
 30
0.0
 40
0.72
  1

  0
TEXT
  8
DIM
 10
1229.798907
 20
462.734322
 30
0.0
 40
0.72
  1

  0
TEXT
  8
DIM
 10
1380.711228
 20
413.612584
 30
0.0
 40
0.72
  1

  0
TEXT
  8
DIM
 10
1317.175351
 20
390.737319
 30
0.0
 40
0.72
  1

  0
TEXT
  8
DIM
 10
1283.364584
 20
499.22455
 30
0.0
 40
0.72
  1

  0
TEXT
  8
DIM
 10
1219.828707
 20
476.349285
 30
0.0
 40
0.72
  1

  0
TEXT
  8
DIM
 10
1219.828707
 20
516.349285
 30
0.0
 40
0.72
  1

  0
TEXT
  8
DIM
 10
1281.328707
 20
516.349285
 30
0.0
 40
0.72
  1

  0
TEXT
  8
DIM
 10
906.367406
 20
300.685211
 30
0.0
 40
1.25
  1

  0
TEXT
  8
DIM
 10
907.429906
 20
296.591452
 30
0.0
 40
1.0
  1

  0
TEXT
  8
OBJECT
 10
908.28665
 20
347.28811
 30
0.0
 40
1.25
  1

  0
TEXT
  8
DIM
 10
1111.367406
 20
300.685211
 30
0.0
 40
1.25
  1

  0
TEXT
  8
DIM
 10
1112.429906
 20
296.591452
 30
0.0
 40
1.0
  1

  0
TEXT
  8
DIM
 10
1275.367406
 20
300.685211
 30
0.0
 40
1.25
  1

  0
TEXT
  8
DIM
 10
1276.429906
 20
296.591452
 30
0.0
 40
1.0
  1

  0
TEXT
  8
OBJECT
 10
1277.28665
 20
347.28811
 30
0.0
 40
1.25
  1

  0
TEXT
  8
DIM
 10
1275.367406
 20
300.685211
 30
0.0
 40
1.25
  1

  0
TEXT
  8
DIM
 10
1276.429906
 20
296.591452
 30
0.0
 40
1.0
  1

  0
TEXT
  8
OBJECT
 10
1277.28665
 20
347.28811
 30
0.0
 40
1.25
  1

  0
TEXT
  8
DIM
 10
1293.334784
 20
485.609587
 30
0.0
 40
0.72
  1

  0
TEXT
  8
DIM
 10
1229.798907
 20
462.734322
 30
0.0
 40
0.72
  1

  0
TEXT
  8
DIM
 10
1380.711228
 20
413.612584
 30
0.0
 40
0.72
  1

  0
TEXT
  8
DIM
 10
1317.175351
 20
390.737319
 30
0.0
 40
0.72
  1

  0
TEXT
  8
DIM
 10
1283.364584
 20
499.22455
 30
0.0
 40
0.72
  1

  0
TEXT
  8
DIM
 10
1219.828707
 20
476.349285
 30
0.0
 40
0.72
  1

  0
TEXT
  8
DIM
 10
1219.828707
 20
516.349285
 30
0.0
 40
0.72
  1

  0
TEXT
  8
DIM
 10
1281.328707
 20
516.349285
 30
0.0
 40
0.72
  1

  0
TEXT
  8
DIM
 10
885.867406
 20
300.685211
 30
0.0
 40
1.25
  1

  0
TEXT
  8
DIM
 10
886.929906
 20
296.591452
 30
0.0
 40
1.0
  1

  0
TEXT
  8
DIM
 10
1049.867406
 20
300.685211
 30
0.0
 40
1.25
  1

  0
TEXT
  8
DIM
 10
1050.929906
 20
296.591452
 30
0.0
 40
1.0
  1

  0
TEXT
  8
OBJECT
 10
1051.78665
 20
347.28811
 30
0.0
 40
1.25
  1

  0
TEXT
  8
DIM
 10
1049.867406
 20
300.685211
 30
0.0
 40
1.25
  1

  0
TEXT
  8
DIM
 10
1050.929906
 20
296.591452
 30
0.0
 40
1.0
  1

  0
TEXT
  8
OBJECT
 10
1051.78665
 20
347.28811
 30
0.0
 40
1.25
  1

  0
TEXT
  8
DIM
 10
1067.834784
 20
485.609587
 30
0.0
 40
0.72
  1

  0
TEXT
  8
DIM
 10
1004.298907
 20
462.734322
 30
0.0
 40
0.72
  1

  0
TEXT
  8
DIM
 10
1155.211228
 20
413.612584
 30
0.0
 40
0.72
  1

  0
TEXT
  8
DIM
 10
1091.675351
 20
390.737319
 30
0.0
 40
0.72
  1

  0
TEXT
  8
DIM
 10
1057.864584
 20
499.22455
 30
0.0
 40
0.72
  1

  0
TEXT
  8
DIM
 10
994.328707
 20
476.349285
 30
0.0
 40
0.72
  1

  0
TEXT
  8
DIM
 10
994.328707
 20
516.349285
 30
0.0
 40
0.72
  1

  0
TEXT
  8
DIM
 10
1055.828707
 20
516.349285
 30
0.0
 40
0.72
  1

  0
TEXT
  8
DIM
 10
906.367406
 20
300.685211
 30
0.0
 40
1.25
  1

  0
TEXT
  8
DIM
 10
907.429906
 20
296.591452
 30
0.0
 40
1.0
  1

  0
TEXT
  8
DIM
 10
1070.367406
 20
300.685211
 30
0.0
 40
1.25
  1

  0
TEXT
  8
DIM
 10
1071.429906
 20
296.591452
 30
0.0
 40
1.0
  1

  0
TEXT
  8
OBJECT
 10
1072.28665
 20
347.28811
 30
0.0
 40
1.25
  1

  0
TEXT
  8
DIM
 10
1070.367406
 20
300.685211
 30
0.0
 40
1.25
  1

  0
TEXT
  8
DIM
 10
1071.429906
 20
296.591452
 30
0.0
 40
1.0
  1

  0
TEXT
  8
OBJECT
 10
1072.28665
 20
347.28811
 30
0.0
 40
1.25
  1

  0
TEXT
  8
DIM
 10
1088.334784
 20
485.609587
 30
0.0
 40
0.72
  1

  0
TEXT
  8
DIM
 10
1024.798907
 20
462.734322
 30
0.0
 40
0.72
  1

  0
TEXT
  8
DIM
 10
1175.711228
 20
413.612584
 30
0.0
 40
0.72
  1

  0
TEXT
  8
DIM
 10
1112.175351
 20
390.737319
 30
0.0
 40
0.72
  1

  0
TEXT
  8
DIM
 10
1078.364584
 20
499.22455
 30
0.0
 40
0.72
  1

  0
TEXT
  8
DIM
 10
1014.828707
 20
476.349285
 30
0.0
 40
0.72
  1

  0
TEXT
  8
DIM
 10
1014.828707
 20
516.349285
 30
0.0
 40
0.72
  1

  0
TEXT
  8
DIM
 10
1076.328707
 20
516.349285
 30
0.0
 40
0.72
  1

  0
TEXT
  8
DIM
 10
906.367406
 20
300.685211
 30
0.0
 40
1.25
  1

  0
TEXT
  8
DIM
 10
907.429906
 20
296.591452
 30
0.0
 40
1.0
  1

  0
TEXT
  8
OBJECT
 10
908.28665
 20
347.28811
 30
0.0
 40
1.25
  1

  0
TEXT
  8
DIM
 10
1111.367406
 20
300.685211
 30
0.0
 40
1.25
  1

  0
TEXT
  8
DIM
 10
1112.429906
 20
296.591452
 30
0.0
 40
1.0
  1

  0
TEXT
  8
DIM
 10
1275.367406
 20
300.685211
 30
0.0
 40
1.25
  1

  0
TEXT
  8
DIM
 10
1276.429906
 20
296.591452
 30
0.0
 40
1.0
  1

  0
TEXT
  8
OBJECT
 10
1277.28665
 20
347.28811
 30
0.0
 40
1.25
  1

  0
TEXT
  8
DIM
 10
1275.367406
 20
300.685211
 30
0.0
 40
1.25
  1

  0
TEXT
  8
DIM
 10
1276.429906
 20
296.591452
 30
0.0
 40
1.0
  1

  0
TEXT
  8
OBJECT
 10
1277.28665
 20
347.28811
 30
0.0
 40
1.25
  1

  0
TEXT
  8
DIM
 10
1293.334784
 20
485.609587
 30
0.0
 40
0.72
  1

  0
TEXT
  8
DIM
 10
1229.798907
 20
462.734322
 30
0.0
 40
0.72
  1

  0
TEXT
  8
DIM
 10
1380.711228
 20
413.612584
 30
0.0
 40
0.72
  1

  0
TEXT
  8
DIM
 10
1317.175351
 20
390.737319
 30
0.0
 40
0.72
  1

  0
TEXT
  8
DIM
 10
1283.364584
 20
499.22455
 30
0.0
 40
0.72
  1

  0
TEXT
  8
DIM
 10
1219.828707
 20
476.349285
 30
0.0
 40
0.72
  1

  0
TEXT
  8
DIM
 10
1219.828707
 20
516.349285
 30
0.0
 40
0.72
  1

  0
TEXT
  8
DIM
 10
1281.328707
 20
516.349285
 30
0.0
 40
0.72
  1

  0
TEXT
  8
DIM
 10
1070.367406
 20
300.685211
 30
0.0
 40
1.25
  1

  0
TEXT
  8
DIM
 10
1071.429906
 20
296.591452
 30
0.0
 40
1.0
  1

  0
TEXT
  8
OBJECT
 10
1072.28665
 20
347.28811
 30
0.0
 40
1.25
  1

  0
TEXT
  8
DIM
 10
1275.367406
 20
300.685211
 30
0.0
 40
1.25
  1

  0
TEXT
  8
DIM
 10
1276.429906
 20
296.591452
 30
0.0
 40
1.0
  1

  0
TEXT
  8
OBJECT
 10
1277.28665
 20
347.28811
 30
0.0
 40
1.25
  1

  0
TEXT
  8
DIM
 10
1480.367406
 20
300.685211
 30
0.0
 40
1.25
  1

  0
TEXT
  8
DIM
 10
1481.429906
 20
296.591452
 30
0.0
 40
1.0
  1

  0
TEXT
  8
DIM
 10
1644.367406
 20
300.685211
 30
0.0
 40
1.25
  1

  0
TEXT
  8
DIM
 10
1645.429906
 20
296.591452
 30
0.0
 40
1.0
  1

  0
TEXT
  8
OBJECT
 10
1646.28665
 20
347.28811
 30
0.0
 40
1.25
  1

  0
TEXT
  8
DIM
 10
1644.367406
 20
300.685211
 30
0.0
 40
1.25
  1

  0
TEXT
  8
DIM
 10
1645.429906
 20
296.591452
 30
0.0
 40
1.0
  1

  0
TEXT
  8
OBJECT
 10
1646.28665
 20
347.28811
 30
0.0
 40
1.25
  1

  0
TEXT
  8
DIM
 10
1662.334784
 20
485.609587
 30
0.0
 40
0.72
  1

  0
TEXT
  8
DIM
 10
1598.798907
 20
462.734322
 30
0.0
 40
0.72
  1

  0
TEXT
  8
DIM
 10
1749.711228
 20
413.612584
 30
0.0
 40
0.72
  1

  0
TEXT
  8
DIM
 10
1686.175351
 20
390.737319
 30
0.0
 40
0.72
  1

  0
TEXT
  8
DIM
 10
1652.364584
 20
499.22455
 30
0.0
 40
0.72
  1

  0
TEXT
  8
DIM
 10
1588.828707
 20
476.349285
 30
0.0
 40
0.72
  1

  0
TEXT
  8
DIM
 10
1588.828707
 20
516.349285
 30
0.0
 40
0.72
  1

  0
TEXT
  8
DIM
 10
1650.328707
 20
516.349285
 30
0.0
 40
0.72
  1

  0
TEXT
  8
DIM
 10
1275.367406
 20
300.685211
 30
0.0
 40
1.25
  1

  0
TEXT
  8
DIM
 10
1276.429906
 20
296.591452
 30
0.0
 40
1.0
  1

  0
TEXT
  8
OBJECT
 10
1277.28665
 20
347.28811
 30
0.0
 40
1.25
  1

  0
TEXT
  8
DIM
 10
1480.367406
 20
300.685211
 30
0.0
 40
1.25
  1

  0
TEXT
  8
DIM
 10
1481.429906
 20
296.591452
 30
0.0
 40
1.0
  1

  0
TEXT
  8
DIM
 10
1644.367406
 20
300.685211
 30
0.0
 40
1.25
  1

  0
TEXT
  8
DIM
 10
1645.429906
 20
296.591452
 30
0.0
 40
1.0
  1

  0
TEXT
  8
OBJECT
 10
1646.28665
 20
347.28811
 30
0.0
 40
1.25
  1

  0
TEXT
  8
DIM
 10
1644.367406
 20
300.685211
 30
0.0
 40
1.25
  1

  0
TEXT
  8
DIM
 10
1645.429906
 20
296.591452
 30
0.0
 40
1.0
  1

  0
TEXT
  8
OBJECT
 10
1646.28665
 20
347.28811
 30
0.0
 40
1.25
  1

  0
TEXT
  8
DIM
 10
1662.334784
 20
485.609587
 30
0.0
 40
0.72
  1

  0
TEXT
  8
DIM
 10
1598.798907
 20
462.734322
 30
0.0
 40
0.72
  1

  0
TEXT
  8
DIM
 10
1749.711228
 20
413.612584
 30
0.0
 40
0.72
  1

  0
TEXT
  8
DIM
 10
1686.175351
 20
390.737319
 30
0.0
 40
0.72
  1

  0
TEXT
  8
DIM
 10
1652.364584
 20
499.22455
 30
0.0
 40
0.72
  1

  0
TEXT
  8
DIM
 10
1588.828707
 20
476.349285
 30
0.0
 40
0.72
  1

  0
TEXT
  8
DIM
 10
1588.828707
 20
516.349285
 30
0.0
 40
0.72
  1

  0
TEXT
  8
DIM
 10
1650.328707
 20
516.349285
 30
0.0
 40
0.72
  1

  0
TEXT
  8
DIM
 10
1254.867406
 20
300.685211
 30
0.0
 40
1.25
  1

  0
TEXT
  8
DIM
 10
1255.929906
 20
296.591452
 30
0.0
 40
1.0
  1

  0
TEXT
  8
DIM
 10
1418.867406
 20
300.685211
 30
0.0
 40
1.25
  1

  0
TEXT
  8
DIM
 10
1419.929906
 20
296.591452
 30
0.0
 40
1.0
  1

  0
TEXT
  8
OBJECT
 10
1420.78665
 20
347.28811
 30
0.0
 40
1.25
  1

  0
TEXT
  8
DIM
 10
1418.867406
 20
300.685211
 30
0.0
 40
1.25
  1

  0
TEXT
  8
DIM
 10
1419.929906
 20
296.591452
 30
0.0
 40
1.0
  1

  0
TEXT
  8
OBJECT
 10
1420.78665
 20
347.28811
 30
0.0
 40
1.25
  1

  0
TEXT
  8
DIM
 10
1436.834784
 20
485.609587
 30
0.0
 40
0.72
  1

  0
TEXT
  8
DIM
 10
1373.298907
 20
462.734322
 30
0.0
 40
0.72
  1

  0
TEXT
  8
DIM
 10
1524.211228
 20
413.612584
 30
0.0
 40
0.72
  1

  0
TEXT
  8
DIM
 10
1460.675351
 20
390.737319
 30
0.0
 40
0.72
  1

  0
TEXT
  8
DIM
 10
1426.864584
 20
499.22455
 30
0.0
 40
0.72
  1

  0
TEXT
  8
DIM
 10
1363.328707
 20
476.349285
 30
0.0
 40
0.72
  1

  0
TEXT
  8
DIM
 10
1363.328707
 20
516.349285
 30
0.0
 40
0.72
  1

  0
TEXT
  8
DIM
 10
1424.828707
 20
516.349285
 30
0.0
 40
0.72
  1

  0
TEXT
  8
DIM
 10
1070.367406
 20
300.685211
 30
0.0
 40
1.25
  1

  0
TEXT
  8
DIM
 10
1071.429906
 20
296.591452
 30
0.0
 40
1.0
  1

  0
TEXT
  8
DIM
 10
1234.367406
 20
300.685211
 30
0.0
 40
1.25
  1

  0
TEXT
  8
DIM
 10
1235.429906
 20
296.591452
 30
0.0
 40
1.0
  1

  0
TEXT
  8
OBJECT
 10
1236.28665
 20
347.28811
 30
0.0
 40
1.25
  1

  0
TEXT
  8
DIM
 10
1234.367406
 20
300.685211
 30
0.0
 40
1.25
  1

  0
TEXT
  8
DIM
 10
1235.429906
 20
296.591452
 30
0.0
 40
1.0
  1

  0
TEXT
  8
OBJECT
 10
1236.28665
 20
347.28811
 30
0.0
 40
1.25
  1

  0
TEXT
  8
DIM
 10
1252.334784
 20
485.609587
 30
0.0
 40
0.72
  1

  0
TEXT
  8
DIM
 10
1188.798907
 20
462.734322
 30
0.0
 40
0.72
  1

  0
TEXT
  8
DIM
 10
1339.711228
 20
413.612584
 30
0.0
 40
0.72
  1

  0
TEXT
  8
DIM
 10
1276.175351
 20
390.737319
 30
0.0
 40
0.72
  1

  0
TEXT
  8
DIM
 10
1242.364584
 20
499.22455
 30
0.0
 40
0.72
  1

  0
TEXT
  8
DIM
 10
1178.828707
 20
476.349285
 30
0.0
 40
0.72
  1

  0
TEXT
  8
DIM
 10
1178.828707
 20
516.349285
 30
0.0
 40
0.72
  1

  0
TEXT
  8
DIM
 10
1240.328707
 20
516.349285
 30
0.0
 40
0.72
  1

  0
TEXT
  8
DIM
 10
1090.867406
 20
300.685211
 30
0.0
 40
1.25
  1

  0
TEXT
  8
DIM
 10
1091.929906
 20
296.591452
 30
0.0
 40
1.0
  1

  0
TEXT
  8
OBJECT
 10
1092.78665
 20
347.28811
 30
0.0
 40
1.25
  1

  0
TEXT
  8
DIM
 10
1295.867406
 20
300.685211
 30
0.0
 40
1.25
  1

  0
TEXT
  8
DIM
 10
1296.929906
 20
296.591452
 30
0.0
 40
1.0
  1

  0
TEXT
  8
DIM
 10
1459.867406
 20
300.685211
 30
0.0
 40
1.25
  1

  0
TEXT
  8
DIM
 10
1460.929906
 20
296.591452
 30
0.0
 40
1.0
  1

  0
TEXT
  8
OBJECT
 10
1461.78665
 20
347.28811
 30
0.0
 40
1.25
  1

  0
TEXT
  8
DIM
 10
1459.867406
 20
300.685211
 30
0.0
 40
1.25
  1

  0
TEXT
  8
DIM
 10
1460.929906
 20
296.591452
 30
0.0
 40
1.0
  1

  0
TEXT
  8
OBJECT
 10
1461.78665
 20
347.28811
 30
0.0
 40
1.25
  1

  0
TEXT
  8
DIM
 10
1477.834784
 20
485.609587
 30
0.0
 40
0.72
  1

  0
TEXT
  8
DIM
 10
1414.298907
 20
462.734322
 30
0.0
 40
0.72
  1

  0
TEXT
  8
DIM
 10
1565.211228
 20
413.612584
 30
0.0
 40
0.72
  1

  0
TEXT
  8
DIM
 10
1501.675351
 20
390.737319
 30
0.0
 40
0.72
  1

  0
TEXT
  8
DIM
 10
1467.864584
 20
499.22455
 30
0.0
 40
0.72
  1

  0
TEXT
  8
DIM
 10
1404.328707
 20
476.349285
 30
0.0
 40
0.72
  1

  0
TEXT
  8
DIM
 10
1404.328707
 20
516.349285
 30
0.0
 40
0.72
  1

  0
TEXT
  8
DIM
 10
1465.828707
 20
516.349285
 30
0.0
 40
0.72
  1

  0
TEXT
  8
DIM
 10
1254.867406
 20
300.685211
 30
0.0
 40
1.25
  1

  0
TEXT
  8
DIM
 10
1255.929906
 20
296.591452
 30
0.0
 40
1.0
  1

  0
TEXT
  8
OBJECT
 10
1256.78665
 20
347.28811
 30
0.0
 40
1.25
  1

  0
TEXT
  8
DIM
 10
1459.867406
 20
300.685211
 30
0.0
 40
1.25
  1

  0
TEXT
  8
DIM
 10
1460.929906
 20
296.591452
 30
0.0
 40
1.0
  1

  0
TEXT
  8
OBJECT
 10
1461.78665
 20
347.28811
 30
0.0
 40
1.25
  1

  0
TEXT
  8
DIM
 10
1664.867406
 20
300.685211
 30
0.0
 40
1.25
  1

  0
TEXT
  8
DIM
 10
1665.929906
 20
296.591452
 30
0.0
 40
1.0
  1

  0
TEXT
  8
DIM
 10
1828.867406
 20
300.685211
 30
0.0
 40
1.25
  1

  0
TEXT
  8
DIM
 10
1829.929906
 20
296.591452
 30
0.0
 40
1.0
  1

  0
TEXT
  8
OBJECT
 10
1830.78665
 20
347.28811
 30
0.0
 40
1.25
  1

  0
TEXT
  8
DIM
 10
1828.867406
 20
300.685211
 30
0.0
 40
1.25
  1

  0
TEXT
  8
DIM
 10
1829.929906
 20
296.591452
 30
0.0
 40
1.0
  1

  0
TEXT
  8
OBJECT
 10
1830.78665
 20
347.28811
 30
0.0
 40
1.25
  1

  0
TEXT
  8
DIM
 10
1846.834784
 20
485.609587
 30
0.0
 40
0.72
  1

  0
TEXT
  8
DIM
 10
1783.298907
 20
462.734322
 30
0.0
 40
0.72
  1

  0
TEXT
  8
DIM
 10
1934.211228
 20
413.612584
 30
0.0
 40
0.72
  1

  0
TEXT
  8
DIM
 10
1870.675351
 20
390.737319
 30
0.0
 40
0.72
  1

  0
TEXT
  8
DIM
 10
1836.864584
 20
499.22455
 30
0.0
 40
0.72
  1

  0
TEXT
  8
DIM
 10
1773.328707
 20
476.349285
 30
0.0
 40
0.72
  1

  0
TEXT
  8
DIM
 10
1773.328707
 20
516.349285
 30
0.0
 40
0.72
  1

  0
TEXT
  8
DIM
 10
1834.828707
 20
516.349285
 30
0.0
 40
0.72
  1

  0
TEXT
  8
DIM
 10
1459.867406
 20
300.685211
 30
0.0
 40
1.25
  1

  0
TEXT
  8
DIM
 10
1460.929906
 20
296.591452
 30
0.0
 40
1.0
  1

  0
TEXT
  8
OBJECT
 10
1461.78665
 20
347.28811
 30
0.0
 40
1.25
  1

  0
TEXT
  8
DIM
 10
1664.867406
 20
300.685211
 30
0.0
 40
1.25
  1

  0
TEXT
  8
DIM
 10
1665.929906
 20
296.591452
 30
0.0
 40
1.0
  1

  0
TEXT
  8
DIM
 10
1828.867406
 20
300.685211
 30
0.0
 40
1.25
  1

  0
TEXT
  8
DIM
 10
1829.929906
 20
296.591452
 30
0.0
 40
1.0
  1

  0
TEXT
  8
OBJECT
 10
1830.78665
 20
347.28811
 30
0.0
 40
1.25
  1

  0
TEXT
  8
DIM
 10
1828.867406
 20
300.685211
 30
0.0
 40
1.25
  1

  0
TEXT
  8
DIM
 10
1829.929906
 20
296.591452
 30
0.0
 40
1.0
  1

  0
TEXT
  8
OBJECT
 10
1830.78665
 20
347.28811
 30
0.0
 40
1.25
  1

  0
TEXT
  8
DIM
 10
1846.834784
 20
485.609587
 30
0.0
 40
0.72
  1

  0
TEXT
  8
DIM
 10
1783.298907
 20
462.734322
 30
0.0
 40
0.72
  1

  0
TEXT
  8
DIM
 10
1934.211228
 20
413.612584
 30
0.0
 40
0.72
  1

  0
TEXT
  8
DIM
 10
1870.675351
 20
390.737319
 30
0.0
 40
0.72
  1

  0
TEXT
  8
DIM
 10
1836.864584
 20
499.22455
 30
0.0
 40
0.72
  1

  0
TEXT
  8
DIM
 10
1773.328707
 20
476.349285
 30
0.0
 40
0.72
  1

  0
TEXT
  8
DIM
 10
1773.328707
 20
516.349285
 30
0.0
 40
0.72
  1

  0
TEXT
  8
DIM
 10
1834.828707
 20
516.349285
 30
0.0
 40
0.72
  1

  0
TEXT
  8
DIM
 10
1439.367406
 20
300.685211
 30
0.0
 40
1.25
  1

  0
TEXT
  8
DIM
 10
1440.429906
 20
296.591452
 30
0.0
 40
1.0
  1

  0
TEXT
  8
DIM
 10
1603.367406
 20
300.685211
 30
0.0
 40
1.25
  1

  0
TEXT
  8
DIM
 10
1604.429906
 20
296.591452
 30
0.0
 40
1.0
  1

  0
TEXT
  8
OBJECT
 10
1605.28665
 20
347.28811
 30
0.0
 40
1.25
  1

  0
TEXT
  8
DIM
 10
1603.367406
 20
300.685211
 30
0.0
 40
1.25
  1

  0
TEXT
  8
DIM
 10
1604.429906
 20
296.591452
 30
0.0
 40
1.0
  1

  0
TEXT
  8
OBJECT
 10
1605.28665
 20
347.28811
 30
0.0
 40
1.25
  1

  0
TEXT
  8
DIM
 10
1621.334784
 20
485.609587
 30
0.0
 40
0.72
  1

  0
TEXT
  8
DIM
 10
1557.798907
 20
462.734322
 30
0.0
 40
0.72
  1

  0
TEXT
  8
DIM
 10
1708.711228
 20
413.612584
 30
0.0
 40
0.72
  1

  0
TEXT
  8
DIM
 10
1645.175351
 20
390.737319
 30
0.0
 40
0.72
  1

  0
TEXT
  8
DIM
 10
1611.364584
 20
499.22455
 30
0.0
 40
0.72
  1

  0
TEXT
  8
DIM
 10
1547.828707
 20
476.349285
 30
0.0
 40
0.72
  1

  0
TEXT
  8
DIM
 10
1547.828707
 20
516.349285
 30
0.0
 40
0.72
  1

  0
TEXT
  8
DIM
 10
1609.328707
 20
516.349285
 30
0.0
 40
0.72
  1

  0
TEXT
  8
DIM
 10
1254.867406
 20
300.685211
 30
0.0
 40
1.25
  1

  0
TEXT
  8
DIM
 10
1255.929906
 20
296.591452
 30
0.0
 40
1.0
  1

  0
TEXT
  8
OBJECT
 10
1256.78665
 20
347.28811
 30
0.0
 40
1.25
  1

  0
TEXT
  8
DIM
 10
1091.064485
 20
460.398533
 30
0.0
 40
1.25
  1

  0
TEXT
  8
DIM
 10
1092.126985
 20
456.304774
 30
0.0
 40
1.0
  1

  0
TEXT
  8
OBJECT
 10
1092.983729
 20
507.001432
 30
0.0
 40
1.25
  1

  0
TEXT
  8
DIM
 10
906.367406
 20
444.685211
 30
0.0
 40
1.25
  1

  0
TEXT
  8
DIM
 10
907.429906
 20
440.591452
 30
0.0
 40
1.0
  1

  0
TEXT
  8
OBJECT
 10
908.28665
 20
491.28811
 30
0.0
 40
1.25
  1

  0
TEXT
  8
DIM
 10
906.367406
 20
300.685211
 30
0.0
 40
1.25
  1

  0
TEXT
  8
DIM
 10
907.429906
 20
296.591452
 30
0.0
 40
1.0
  1

  0
TEXT
  8
OBJECT
 10
908.28665
 20
347.28811
 30
0.0
 40
1.25
  1

  0
TEXT
  8
DIM
 10
701.367406
 20
300.685211
 30
0.0
 40
1.25
  1

  0
TEXT
  8
DIM
 10
702.429906
 20
296.591452
 30
0.0
 40
1.0
  1

  0
TEXT
  8
OBJECT
 10
703.28665
 20
347.28811
 30
0.0
 40
1.25
  1

  0
TEXT
  8
DIM
 10
475.867406
 20
300.685211
 30
0.0
 40
1.25
  1

  0
TEXT
  8
DIM
 10
476.929906
 20
296.591452
 30
0.0
 40
1.0
  1

  0
TEXT
  8
OBJECT
 10
477.78665
 20
347.28811
 30
0.0
 40
1.25
  1

  0
TEXT
  8
TEXT
 10
4.481792
 20
11.818155
 30
0.0
 40
2.0
  1
4
 41
0.75
 72
     4
 11
4.981792
 21
12.818155
 31
0.0
  0
TEXT
  8
TEXT
 10
7.829313
 20
21.802155
 30
0.0
 40
2.0
  1
LEVELER KIT TO BE SHIPPED UNASSEMBLED,
 41
0.75
  0
TEXT
  8
TEXT
 10
9.162647
 20
18.474155
 30
0.0
 40
2.0
  1
PACKED INSIDE RACK.
 41
0.75
  0
LINE
  8
TEXT
 10
52.020818
 20
209.087626
 30
0.0
 11
34.663329
 21
209.087626
 31
0.0
  0
TEXT
  8
TEXT
 10
4.467605
 20
209.087626
 30
0.0
 40
2.0
  1
PLEXIGLAS DOOR FRAME
 41
0.75
  0
TEXT
  8
TEXT
 10
52.865045
 20
209.087626
 30
0.0
 40
2.0
  1
ALUMINUM EXTRUSION
 41
0.75
  0
LINE
  8
TEXT
 10
130.838547
 20
212.511627
 30
0.0
 11
113.502658
 21
212.511627
 31
0.0
  0
TEXT
  8
TEXT
 10
83.285333
 20
212.511627
 30
0.0
 40
2.0
  1
PLEXIGLAS DOOR FRAME
 41
0.75
  0
TEXT
  8
TEXT
 10
131.682773
 20
212.511627
 30
0.0
 40
2.0
  1
CLEAR ANODIZED
 41
0.75
  0
TEXT
  8
TEXT
 10
83.285333
 20
209.183627
 30
0.0
 40
2.0
  1
PLEXIGLAS PANEL
 41
0.75
  0
TEXT
  8
TEXT
 10
131.682773
 20
209.183627
 30
0.0
 40
2.0
  1
SMOKE GRAY
 41
0.75
  0
LINE
  8
TEXT
 10
130.838547
 20
209.183627
 30
0.0
 11
105.904916
 21
209.183627
 31
0.0
  0
TEXT
  8
TEXT
 10
83.285333
 20
222.495627
 30
0.0
 40
2.0
  1
PLEXIGLAS DOOR HINGES
 41
0.75
  0
LINE
  8
TEXT
 10
130.838547
 20
222.495627
 30
0.0
 11
113.857806
 21
222.495627
 31
0.0
  0
TEXT
  8
TEXT
 10
131.682773
 20
222.495627
 30
0.0
 40
2.0
  1
METALLIC GRAY
 41
0.75
  0
POLYLINE
  8
TEXT
 66
     1
 10
0.0
 20
0.0
 30
0.0
 70
     1
  0
VERTEX
  8
TEXT
 10
5.905553
 20
24.402155
 30
0.0
  0
VERTEX
  8
TEXT
 10
4.058032
 20
24.402155
 30
0.0
  0
VERTEX
  8
TEXT
 10
3.134272
 20
22.802155
 30
0.0
  0
VERTEX
  8
TEXT
 10
4.058032
 20
21.202155
 30
0.0
  0
VERTEX
  8
TEXT
 10
5.905553
 20
21.202155
 30
0.0
  0
VERTEX
  8
TEXT
 10
6.829313
 20
22.802155
 30
0.0
  0
SEQEND
  8
TEXT
  0
POLYLINE
  8
TEXT
 66
     1
 10
0.0
 20
0.0
 30
0.0
 70
     1
  0
VERTEX
  8
TEXT
 10
4.058032
 20
14.418155
 30
0.0
  0
VERTEX
  8
TEXT
 10
3.134272
 20
12.818155
 30
0.0
  0
VERTEX
  8
TEXT
 10
4.058032
 20
11.218155
 30
0.0
  0
VERTEX
  8
TEXT
 10
5.905553
 20
11.218155
 30
0.0
  0
VERTEX
  8
TEXT
 10
6.829313
 20
12.818155
 30
0.0
  0
VERTEX
  8
TEXT
 10
5.905553
 20
14.418155
 30
0.0
  0
SEQEND
  8
TEXT
  0
TEXT
  8
TEXT
 10
9.162647
 20
31.786155
 30
0.0
 40
2.0
  1
LEVELER KIT WILL RAISE CABINET RACK APPROXIMATELY
 41
0.75
  0
TEXT
  8
TEXT
 10
9.162647
 20
28.458155
 30
0.0
 40
2.0
  1
1.188 INCHES OFF THE FLOOR.
 41
0.75
  0
TEXT
  8
TEXT
 10
5.800938
 20
212.415626
 30
0.0
 40
2.0
  1
& LEVELER MOUNTING BRACKETS
 41
0.75
  0
TEXT
  8
TEXT
 10
84.618667
 20
215.839627
 30
0.0
 40
2.0
  1
& LEVELER MOUNTING BRACKETS
 41
0.75
  0
LINE
  8
TEXT
 10
130.838547
 20
215.839627
 30
0.0
 11
125.47237
 21
215.839627
 31
0.0
  0
LINE
  8
OBJECT
 10
134.79829
 20
206.338141
 30
0.0
 11
136.23579
 21
206.338141
 31
0.0
  0
LINE
  8
OBJECT
 10
134.79829
 20
175.588141
 30
0.0
 11
136.23579
 21
175.588141
 31
0.0
  0
LINE
  8
OBJECT
 10
114.31379
 20
206.260141
 30
0.0
 11
136.15779
 21
206.260141
 31
0.0
  0
LINE
  8
OBJECT
 10
114.31379
 20
175.666141
 30
0.0
 11
136.15779
 21
175.666141
 31
0.0
  0
LINE
  8
OBJECT
 10
114.23579
 20
206.338141
 30
0.0
 11
114.23579
 21
204.870141
 31
0.0
  0
LINE
  8
OBJECT
 10
114.31379
 20
175.666141
 30
0.0
 11
114.31379
 21
206.260141
 31
0.0
  0
LINE
  8
OBJECT
 10
115.75129
 20
175.666141
 30
0.0
 11
115.75129
 21
175.354641
 31
0.0
  0
LINE
  8
OBJECT
 10
115.67329
 20
175.666141
 30
0.0
 11
115.67329
 21
175.498412
 31
0.0
  0
LINE
  8
OBJECT
 10
115.67329
 20
175.588141
 30
0.0
 11
115.67329
 21
175.666141
 31
0.0
  0
LINE
  8
OBJECT
 10
114.23579
 20
175.588141
 30
0.0
 11
114.23579
 21
177.056141
 31
0.0
  0
LINE
  8
OBJECT
 10
114.23579
 20
175.588141
 30
0.0
 11
115.67329
 21
175.588141
 31
0.0
  0
LINE
  8
OBJECT
 10
115.57979
 20
175.526141
 30
0.0
 11
115.67329
 21
175.526141
 31
0.0
  0
LINE
  8
OBJECT
 10
115.57979
 20
175.526141
 30
0.0
 11
115.57979
 21
175.526141
 31
0.0
  0
CIRCLE
  8
OBJECT
 10
115.57979
 20
175.354641
 30
0.0
 40
0.055
  0
CIRCLE
  8
OBJECT
 10
115.57979
 20
175.354641
 30
0.0
 40
0.1715
  0
LINE
  8
OBJECT
 10
114.23579
 20
177.056141
 30
0.0
 11
114.31379
 21
177.056141
 31
0.0
  0
LINE
  8
OBJECT
 10
134.79829
 20
175.588141
 30
0.0
 11
134.79829
 21
175.666141
 31
0.0
  0
POLYLINE
  8
OBJECT
 66
     1
 10
0.0
 20
0.0
 30
0.0
  0
VERTEX
  8
OBJECT
 10
114.31379
 20
181.056141
 30
0.0
 42
-0.360786
  0
VERTEX
  8
OBJECT
 10
114.00179
 20
181.368141
 30
0.0
  0
VERTEX
  8
OBJECT
 10
114.00179
 20
185.119141
 30
0.0
 42
-0.360786
  0
VERTEX
  8
OBJECT
 10
114.31379
 20
185.431141
 30
0.0
  0
SEQEND
  8
OBJECT
  0
POLYLINE
  8
OBJECT
 66
     1
 10
0.0
 20
0.0
 30
0.0
  0
VERTEX
  8
OBJECT
 10
114.31379
 20
196.495141
 30
0.0
 42
-0.360786
  0
VERTEX
  8
OBJECT
 10
114.00179
 20
196.807141
 30
0.0
  0
VERTEX
  8
OBJECT
 10
114.00179
 20
200.558141
 30
0.0
 42
-0.360786
  0
VERTEX
  8
OBJECT
 10
114.31379
 20
200.870141
 30
0.0
  0
SEQEND
  8
OBJECT
  0
LINE
  8
OBJECT
 10
114.23579
 20
204.870141
 30
0.0
 11
114.31379
 21
204.870141
 31
0.0
  0
INSERT
  8
OBJECT
  2
TOP
 10
125.23579
 20
190.963141
 30
0.0
  0
POLYLINE
  8
OBJECT
 66
     1
 10
0.0
 20
0.0
 30
0.0
  0
VERTEX
  8
OBJECT
 10
118.09329
 20
206.338141
 30
0.0
 42
-0.360786
  0
VERTEX
  8
OBJECT
 10
118.40529
 20
206.650141
 30
0.0
  0
VERTEX
  8
OBJECT
 10
122.15629
 20
206.650141
 30
0.0
 42
-0.360786
  0
VERTEX
  8
OBJECT
 10
122.46829
 20
206.338141
 30
0.0
  0
SEQEND
  8
OBJECT
  0
LINE
  8
OBJECT
 10
115.78229
 20
206.338141
 30
0.0
 11
134.72029
 21
206.338141
 31
0.0
  0
LINE
  8
OBJECT
 10
114.23579
 20
206.338141
 30
0.0
 11
115.67329
 21
206.338141
 31
0.0
  0
LINE
  8
OBJECT
 10
115.67329
 20
206.338141
 30
0.0
 11
115.67329
 21
206.260141
 31
0.0
  0
LINE
  8
OBJECT
 10
115.78229
 20
206.338141
 30
0.0
 11
115.78229
 21
206.260141
 31
0.0
  0
POLYLINE
  8
OBJECT
 66
     1
 10
0.0
 20
0.0
 30
0.0
  0
VERTEX
  8
OBJECT
 10
127.97029
 20
206.338141
 30
0.0
 42
-0.360786
  0
VERTEX
  8
OBJECT
 10
128.28229
 20
206.650141
 30
0.0
  0
VERTEX
  8
OBJECT
 10
132.03329
 20
206.650141
 30
0.0
 42
-0.360786
  0
VERTEX
  8
OBJECT
 10
132.34529
 20
206.338141
 30
0.0
  0
SEQEND
  8
OBJECT
  0
CIRCLE
  8
OBJECT
 10
134.89179
 20
206.571641
 30
0.0
 40
0.1715
  0
LINE
  8
OBJECT
 10
134.79829
 20
206.260141
 30
0.0
 11
134.79829
 21
206.427871
 31
0.0
  0
LINE
  8
OBJECT
 10
134.72029
 20
206.260141
 30
0.0
 11
134.72029
 21
206.571641
 31
0.0
  0
CIRCLE
  8
OBJECT
 10
134.89179
 20
206.571641
 30
0.0
 40
0.055
  0
LINE
  8
OBJECT
 10
134.89179
 20
206.400141
 30
0.0
 11
134.89179
 21
206.400141
 31
0.0
  0
LINE
  8
OBJECT
 10
134.89179
 20
206.400141
 30
0.0
 11
134.79829
 21
206.400141
 31
0.0
  0
LINE
  8
OBJECT
 10
136.23579
 20
206.338141
 30
0.0
 11
136.23579
 21
204.870141
 31
0.0
  0
LINE
  8
OBJECT
 10
136.15779
 20
175.666141
 30
0.0
 11
136.15779
 21
206.260141
 31
0.0
  0
LINE
  8
OBJECT
 10
136.23579
 20
175.588141
 30
0.0
 11
136.23579
 21
177.056141
 31
0.0
  0
LINE
  8
OBJECT
 10
136.15779
 20
177.056141
 30
0.0
 11
136.23579
 21
177.056141
 31
0.0
  0
POLYLINE
  8
OBJECT
 66
     1
 10
0.0
 20
0.0
 30
0.0
  0
VERTEX
  8
OBJECT
 10
136.15779
 20
185.431141
 30
0.0
 42
-0.360786
  0
VERTEX
  8
OBJECT
 10
136.46979
 20
185.119141
 30
0.0
  0
VERTEX
  8
OBJECT
 10
136.46979
 20
181.368141
 30
0.0
 42
-0.360786
  0
VERTEX
  8
OBJECT
 10
136.15779
 20
181.056141
 30
0.0
  0
SEQEND
  8
OBJECT
  0
POLYLINE
  8
OBJECT
 66
     1
 10
0.0
 20
0.0
 30
0.0
  0
VERTEX
  8
OBJECT
 10
136.15779
 20
200.870141
 30
0.0
 42
-0.360786
  0
VERTEX
  8
OBJECT
 10
136.46979
 20
200.558141
 30
0.0
  0
VERTEX
  8
OBJECT
 10
136.46979
 20
196.807141
 30
0.0
 42
-0.360786
  0
VERTEX
  8
OBJECT
 10
136.15779
 20
196.495141
 30
0.0
  0
SEQEND
  8
OBJECT
  0
LINE
  8
OBJECT
 10
136.15779
 20
204.870141
 30
0.0
 11
136.23579
 21
204.870141
 31
0.0
  0
LINE
  8
OBJECT
 10
134.79829
 20
14.94708
 30
0.0
 11
136.23579
 21
14.94708
 31
0.0
  0
LINE
  8
OBJECT
 10
114.31379
 20
15.02508
 30
0.0
 11
136.15779
 21
15.02508
 31
0.0
  0
LINE
  8
OBJECT
 10
114.39179
 20
15.52508
 30
0.0
 11
136.07979
 21
15.52508
 31
0.0
  0
DIMENSION
  8
DIM
  2
*D28
 10
110.25179
 20
14.94708
 30
0.0
 11
103.18179
 21
9.18708
 31
0.0
 12
0.0
 22
-1.831187
 32
0.0
 13
120.68929
 23
16.77508
 33
0.0
 14
114.23579
 24
14.94708
 34
0.0
 50
90.0
  3
23NSTD
  0
DIMENSION
  8
DIM
  2
*D29
 10
136.23579
 20
12.45108
 30
0.0
 11
146.43579
 21
12.45108
 31
0.0
 12
0.0
 22
-1.831187
 32
0.0
 13
129.78229
 23
16.77508
 33
0.0
 14
136.23579
 24
14.94708
 34
0.0
  3
23NSTD
  0
DIMENSION
  8
DIM
  2
*D30
 10
129.78229
 20
8.45108
 30
0.0
 11
125.23579
 21
8.45108
 31
0.0
 12
0.0
 22
-1.831187
 32
0.0
 13
120.68929
 23
16.77508
 33
0.0
 14
129.78229
 24
16.77508
 34
0.0
  3
23NSTDI
  0
LINE
  8
OBJECT
 10
135.65779
 20
45.11908
 30
0.0
 11
135.65779
 21
15.52508
 31
0.0
  0
LINE
  8
OBJECT
 10
114.81379
 20
45.11908
 30
0.0
 11
114.81379
 21
15.52508
 31
0.0
  0
LINE
  8
OBJECT
 10
114.31379
 20
45.61908
 30
0.0
 11
114.31379
 21
15.02508
 31
0.0
  0
POLYLINE
  8
OBJECT
 66
     1
 10
0.0
 20
0.0
 30
0.0
  0
VERTEX
  8
OBJECT
 10
122.46829
 20
14.94708
 30
0.0
 42
-0.360786
  0
VERTEX
  8
OBJECT
 10
122.15629
 20
14.63508
 30
0.0
  0
VERTEX
  8
OBJECT
 10
118.40529
 20
14.63508
 30
0.0
 42
-0.360786
  0
VERTEX
  8
OBJECT
 10
118.09329
 20
14.94708
 30
0.0
  0
SEQEND
  8
OBJECT
  0
LINE
  8
OBJECT
 10
115.78229
 20
14.94708
 30
0.0
 11
134.72029
 21
14.94708
 31
0.0
  0
POLYLINE
  8
OBJECT
 66
     1
 10
0.0
 20
0.0
 30
0.0
  0
VERTEX
  8
OBJECT
 10
114.31379
 20
20.41508
 30
0.0
 42
-0.360786
  0
VERTEX
  8
OBJECT
 10
114.00179
 20
20.72708
 30
0.0
  0
VERTEX
  8
OBJECT
 10
114.00179
 20
24.47808
 30
0.0
 42
-0.360786
  0
VERTEX
  8
OBJECT
 10
114.31379
 20
24.79008
 30
0.0
  0
SEQEND
  8
OBJECT
  0
CIRCLE
  8
OBJECT
 10
118.39179
 20
16.77508
 30
0.0
 40
0.156
  0
CIRCLE
  8
OBJECT
 10
116.64179
 20
16.77508
 30
0.0
 40
0.156
  0
LINE
  8
OBJECT
 10
114.23579
 20
14.94708
 30
0.0
 11
115.67329
 21
14.94708
 31
0.0
  0
LINE
  8
OBJECT
 10
114.23579
 20
14.94708
 30
0.0
 11
114.23579
 21
16.41508
 31
0.0
  0
LINE
  8
OBJECT
 10
114.23579
 20
16.41508
 30
0.0
 11
114.31379
 21
16.41508
 31
0.0
  0
LINE
  8
OBJECT
 10
114.39179
 20
15.52508
 30
0.0
 11
114.39179
 21
15.02508
 31
0.0
  0
LINE
  8
OBJECT
 10
115.78229
 20
14.94708
 30
0.0
 11
115.78229
 21
15.02508
 31
0.0
  0
LINE
  8
OBJECT
 10
115.67329
 20
14.94708
 30
0.0
 11
115.67329
 21
15.02508
 31
0.0
  0
CIRCLE
  8
OBJECT
 10
118.39179
 20
19.77508
 30
0.0
 40
0.156
  0
CIRCLE
  8
OBJECT
 10
116.64179
 20
19.77508
 30
0.0
 40
0.156
  0
ARC
  8
OBJECT
 10
120.68929
 20
16.77508
 30
0.0
 40
0.5545
 50
276.419806
 51
83.580194
  0
ARC
  8
OBJECT
 10
120.68929
 20
16.77508
 30
0.0
 40
0.5545
 50
96.419806
 51
263.580194
  0
LINE
  8
OBJECT
 10
120.62729
 20
16.285295
 30
0.0
 11
120.62729
 21
16.14211
 31
0.0
  0
LINE
  8
OBJECT
 10
120.75129
 20
16.285295
 30
0.0
 11
120.75129
 21
16.14211
 31
0.0
  0
LINE
  8
OBJECT
 10
120.75129
 20
17.367138
 30
0.0
 11
120.75129
 21
17.40426
 31
0.0
  0
LINE
  8
OBJECT
 10
120.62729
 20
17.367138
 30
0.0
 11
120.62729
 21
17.40426
 31
0.0
  0
LINE
  8
OBJECT
 10
120.62729
 20
17.223953
 30
0.0
 11
120.62729
 21
17.367138
 31
0.0
  0
LINE
  8
OBJECT
 10
120.75129
 20
17.367138
 30
0.0
 11
120.75129
 21
17.223953
 31
0.0
  0
CIRCLE
  8
OBJECT
 10
133.82979
 20
16.77508
 30
0.0
 40
0.156
  0
ARC
  8
OBJECT
 10
129.78229
 20
16.77508
 30
0.0
 40
0.5545
 50
276.419806
 51
83.580194
  0
CIRCLE
  8
OBJECT
 10
132.07979
 20
16.77508
 30
0.0
 40
0.156
  0
ARC
  8
OBJECT
 10
129.78229
 20
16.77508
 30
0.0
 40
0.5545
 50
96.419806
 51
263.580194
  0
POLYLINE
  8
OBJECT
 66
     1
 10
0.0
 20
0.0
 30
0.0
  0
VERTEX
  8
OBJECT
 10
132.34529
 20
14.94708
 30
0.0
 42
-0.360786
  0
VERTEX
  8
OBJECT
 10
132.03329
 20
14.63508
 30
0.0
  0
VERTEX
  8
OBJECT
 10
128.28229
 20
14.63508
 30
0.0
 42
-0.360786
  0
VERTEX
  8
OBJECT
 10
127.97029
 20
14.94708
 30
0.0
  0
SEQEND
  8
OBJECT
  0
LINE
  8
OBJECT
 10
129.72029
 20
16.285295
 30
0.0
 11
129.72029
 21
16.14211
 31
0.0
  0
LINE
  8
OBJECT
 10
129.84429
 20
16.285295
 30
0.0
 11
129.84429
 21
16.14211
 31
0.0
  0
CIRCLE
  8
OBJECT
 10
134.89179
 20
14.71358
 30
0.0
 40
0.1715
  0
LINE
  8
OBJECT
 10
134.89179
 20
14.88508
 30
0.0
 11
134.89179
 21
14.88508
 31
0.0
  0
LINE
  8
OBJECT
 10
134.89179
 20
14.88508
 30
0.0
 11
134.79829
 21
14.88508
 31
0.0
  0
CIRCLE
  8
OBJECT
 10
134.89179
 20
14.71358
 30
0.0
 40
0.055
  0
LINE
  8
OBJECT
 10
134.79829
 20
15.02508
 30
0.0
 11
134.79829
 21
14.85735
 31
0.0
  0
LINE
  8
OBJECT
 10
134.72029
 20
15.02508
 30
0.0
 11
134.72029
 21
14.71358
 31
0.0
  0
LINE
  8
OBJECT
 10
129.72029
 20
17.367138
 30
0.0
 11
129.72029
 21
17.223953
 31
0.0
  0
LINE
  8
OBJECT
 10
129.84429
 20
17.223953
 30
0.0
 11
129.84429
 21
17.367138
 31
0.0
  0
LINE
  8
OBJECT
 10
129.84429
 20
17.367138
 30
0.0
 11
129.84429
 21
17.40426
 31
0.0
  0
LINE
  8
OBJECT
 10
129.72029
 20
17.367138
 30
0.0
 11
129.72029
 21
17.40426
 31
0.0
  0
CIRCLE
  8
OBJECT
 10
133.82979
 20
19.77508
 30
0.0
 40
0.156
  0
CIRCLE
  8
OBJECT
 10
132.07979
 20
19.77508
 30
0.0
 40
0.156
  0
LINE
  8
OBJECT
 10
136.15779
 20
45.61908
 30
0.0
 11
136.15779
 21
15.02508
 31
0.0
  0
POLYLINE
  8
OBJECT
 66
     1
 10
0.0
 20
0.0
 30
0.0
  0
VERTEX
  8
OBJECT
 10
136.15779
 20
24.79008
 30
0.0
 42
-0.360786
  0
VERTEX
  8
OBJECT
 10
136.46979
 20
24.47808
 30
0.0
  0
VERTEX
  8
OBJECT
 10
136.46979
 20
20.72708
 30
0.0
 42
-0.360786
  0
VERTEX
  8
OBJECT
 10
136.15779
 20
20.41508
 30
0.0
  0
SEQEND
  8
OBJECT
  0
LINE
  8
OBJECT
 10
136.23579
 20
14.94708
 30
0.0
 11
136.23579
 21
16.41508
 31
0.0
  0
LINE
  8
OBJECT
 10
136.15779
 20
16.41508
 30
0.0
 11
136.23579
 21
16.41508
 31
0.0
  0
LINE
  8
OBJECT
 10
136.07979
 20
15.52508
 30
0.0
 11
136.07979
 21
15.02508
 31
0.0
  0
DIMENSION
  8
DIM
  2
*D25
 10
136.23579
 20
57.68108
 30
0.0
 11
146.31079
 21
55.05608
 31
0.0
 12
0.0
 22
0.793813
 32
0.0
 13
133.82979
 23
43.86908
 33
0.0
 14
136.23579
 24
45.69708
 34
0.0
  3
23NSTD
  0
DIMENSION
  8
DIM
  2
*D11
 10
145.206264
 20
45.69708
 30
0.0
 11
152.276264
 21
48.83208
 31
0.0
 12
-4.924547
 22
-0.190705
 32
0.0
 13
133.82979
 23
43.86908
 33
0.0
 14
136.23579
 24
45.69708
 34
0.0
 50
90.0
  3
23NSTD
  0
DIMENSION
  8
DIM
  2
*D10
 10
140.710264
 20
40.86908
 30
0.0
 11
140.710264
 21
39.74408
 31
0.0
 12
-4.924547
 22
-0.190705
 32
0.0
 13
133.82979
 23
43.86908
 33
0.0
 14
133.82979
 24
40.86908
 34
0.0
 50
90.0
  3
23NSTDI
  0
DIMENSION
  8
DIM
  2
*D24
 10
133.82979
 20
53.68108
 30
0.0
 11
143.65479
 21
51.05608
 31
0.0
 12
0.0
 22
0.793813
 32
0.0
 13
132.07979
 23
43.86908
 33
0.0
 14
133.82979
 24
43.86908
 34
0.0
  3
23NSTD
  0
LINE
  8
OBJECT
 10
134.79829
 20
45.69708
 30
0.0
 11
136.23579
 21
45.69708
 31
0.0
  0
LINE
  8
OBJECT
 10
114.39179
 20
45.11908
 30
0.0
 11
136.07979
 21
45.11908
 31
0.0
  0
LINE
  8
OBJECT
 10
114.31379
 20
45.61908
 30
0.0
 11
136.15779
 21
45.61908
 31
0.0
  0
DIMENSION
  8
DIM
  2
*D27
 10
106.25179
 20
30.32208
 30
0.0
 11
106.25179
 21
38.00958
 31
0.0
 12
0.0
 22
-1.831187
 32
0.0
 13
114.23579
 23
45.69708
 33
0.0
 14
123.88579
 24
30.32208
 34
0.0
 50
90.0
  3
23NSTDI
  0
DIMENSION
  8
DIM
  2
*D26
 10
125.23579
 20
49.68108
 30
0.0
 11
119.73579
 21
49.68108
 31
0.0
 12
0.0
 22
-1.831187
 32
0.0
 13
114.23579
 23
45.69708
 33
0.0
 14
125.23579
 24
31.67208
 34
0.0
  3
23NSTDI
  0
POLYLINE
  8
OBJECT
 66
     1
 10
0.0
 20
0.0
 30
0.0
  0
VERTEX
  8
OBJECT
 10
114.31379
 20
35.85408
 30
0.0
 42
-0.360786
  0
VERTEX
  8
OBJECT
 10
114.00179
 20
36.16608
 30
0.0
  0
VERTEX
  8
OBJECT
 10
114.00179
 20
39.91708
 30
0.0
 42
-0.360786
  0
VERTEX
  8
OBJECT
 10
114.31379
 20
40.22908
 30
0.0
  0
SEQEND
  8
OBJECT
  0
CIRCLE
  8
OBJECT
 10
118.39179
 20
40.86908
 30
0.0
 40
0.156
  0
CIRCLE
  8
OBJECT
 10
116.64179
 20
40.86908
 30
0.0
 40
0.156
  0
LINE
  8
OBJECT
 10
114.23579
 20
45.69708
 30
0.0
 11
115.67329
 21
45.69708
 31
0.0
  0
LINE
  8
OBJECT
 10
114.23579
 20
44.22908
 30
0.0
 11
114.31379
 21
44.22908
 31
0.0
  0
LINE
  8
OBJECT
 10
114.23579
 20
45.69708
 30
0.0
 11
114.23579
 21
44.22908
 31
0.0
  0
LINE
  8
OBJECT
 10
114.39179
 20
45.11908
 30
0.0
 11
114.39179
 21
45.61908
 31
0.0
  0
CIRCLE
  8
OBJECT
 10
118.39179
 20
43.86908
 30
0.0
 40
0.156
  0
CIRCLE
  8
OBJECT
 10
115.57979
 20
45.93058
 30
0.0
 40
0.1715
  0
LINE
  8
OBJECT
 10
115.57979
 20
45.75908
 30
0.0
 11
115.57979
 21
45.75908
 31
0.0
  0
LINE
  8
OBJECT
 10
115.57979
 20
45.75908
 30
0.0
 11
115.67329
 21
45.75908
 31
0.0
  0
CIRCLE
  8
OBJECT
 10
115.57979
 20
45.93058
 30
0.0
 40
0.055
  0
LINE
  8
OBJECT
 10
115.67329
 20
45.61908
 30
0.0
 11
115.67329
 21
45.786809
 31
0.0
  0
LINE
  8
OBJECT
 10
115.75129
 20
45.61908
 30
0.0
 11
115.75129
 21
45.93058
 31
0.0
  0
LINE
  8
OBJECT
 10
115.67329
 20
45.69708
 30
0.0
 11
115.67329
 21
45.61908
 31
0.0
  0
CIRCLE
  8
OBJECT
 10
116.64179
 20
43.86908
 30
0.0
 40
0.156
  0
CIRCLE
  8
OBJECT
 10
133.82979
 20
40.86908
 30
0.0
 40
0.156
  0
CIRCLE
  8
OBJECT
 10
132.07979
 20
40.86908
 30
0.0
 40
0.156
  0
LINE
  8
OBJECT
 10
134.79829
 20
45.69708
 30
0.0
 11
134.79829
 21
45.61908
 31
0.0
  0
CIRCLE
  8
OBJECT
 10
133.82979
 20
43.86908
 30
0.0
 40
0.156
  0
CIRCLE
  8
OBJECT
 10
132.07979
 20
43.86908
 30
0.0
 40
0.156
  0
POLYLINE
  8
OBJECT
 66
     1
 10
0.0
 20
0.0
 30
0.0
  0
VERTEX
  8
OBJECT
 10
136.15779
 20
40.22908
 30
0.0
 42
-0.360786
  0
VERTEX
  8
OBJECT
 10
136.46979
 20
39.91708
 30
0.0
  0
VERTEX
  8
OBJECT
 10
136.46979
 20
36.16608
 30
0.0
 42
-0.360786
  0
VERTEX
  8
OBJECT
 10
136.15779
 20
35.85408
 30
0.0
  0
SEQEND
  8
OBJECT
  0
LINE
  8
OBJECT
 10
136.15779
 20
44.22908
 30
0.0
 11
136.23579
 21
44.22908
 31
0.0
  0
LINE
  8
OBJECT
 10
136.23579
 20
45.69708
 30
0.0
 11
136.23579
 21
44.22908
 31
0.0
  0
LINE
  8
OBJECT
 10
136.07979
 20
45.11908
 30
0.0
 11
136.07979
 21
45.61908
 31
0.0
  0
LINE
  8
OBJECT
 10
115.67329
 20
146.692307
 30
0.0
 11
115.67329
 21
78.673191
 31
0.0
  0
LINE
  8
PLEXIGLASS
 10
133.40729
 20
151.182999
 30
0.0
 11
134.68829
 21
152.463999
 31
0.0
  0
LINE
  8
PLEXIGLASS
 10
117.03129
 20
151.182999
 30
0.0
 11
115.75029
 21
152.463999
 31
0.0
  0
POLYLINE
  8
HIDDEN
 66
     1
 10
0.0
 20
0.0
 30
0.0
  0
VERTEX
  8
HIDDEN
 10
134.79929
 20
151.275999
 30
0.0
  0
VERTEX
  8
HIDDEN
 10
134.12729
 20
151.275999
 30
0.0
  0
VERTEX
  8
HIDDEN
 10
134.12729
 20
152.525999
 30
0.0
  0
SEQEND
  8
HIDDEN
  0
INSERT
  8
PLEXIGLASS
  2
*X4
 10
122.516597
 20
76.891886
 30
0.0
 41
0.75
 42
0.75
 43
0.75
1001
ACAD
1000
HATCH
1002
{
1070
    16
1000
ANSI31
1040
8.0
1040
0.523599
1002
}
  0
LINE
  8
PLEXIGLASS
 10
117.03129
 20
75.056999
 30
0.0
 11
115.75029
 21
73.775999
 31
0.0
  0
LINE
  8
PLEXIGLASS
 10
133.40729
 20
75.056999
 30
0.0
 11
134.68829
 21
73.775999
 31
0.0
  0
CIRCLE
  8
HIDDEN
 10
134.50229
 20
74.338999
 30
0.0
 40
0.234
  0
POLYLINE
  8
HIDDEN
 66
     1
 10
0.0
 20
0.0
 30
0.0
  0
VERTEX
  8
HIDDEN
 10
134.79929
 20
74.963999
 30
0.0
  0
VERTEX
  8
HIDDEN
 10
134.12729
 20
74.963999
 30
0.0
  0
VERTEX
  8
HIDDEN
 10
134.12729
 20
73.713999
 30
0.0
  0
SEQEND
  8
HIDDEN
  0
INSERT
  8
PLEXIGLASS
  2
*X4
 10
122.516597
 20
135.055971
 30
0.0
 41
0.75
 42
0.75
 43
0.75
1001
ACAD
1000
HATCH
1002
{
1070
    16
1000
ANSI31
1040
8.0
1040
0.523599
1002
}
  0
CIRCLE
  8
HIDDEN
 10
134.50229
 20
151.900999
 30
0.0
 40
0.234
  0
POLYLINE
  8
PLEXIGLASS
 66
     1
 10
0.0
 20
0.0
 30
0.0
  0
VERTEX
  8
PLEXIGLASS
 10
116.87529
 20
126.123103
 30
0.0
  0
VERTEX
  8
PLEXIGLASS
 10
116.87529
 20
151.338999
 30
0.0
  0
VERTEX
  8
PLEXIGLASS
 10
133.56329
 20
151.338999
 30
0.0
  0
VERTEX
  8
PLEXIGLASS
 10
133.56329
 20
137.461493
 30
0.0
  0
SEQEND
  8
PLEXIGLASS
  0
POLYLINE
  8
PLEXIGLASS
 66
     1
 10
0.0
 20
0.0
 30
0.0
  0
VERTEX
  8
PLEXIGLASS
 10
133.40729
 20
100.174298
 30
0.0
  0
VERTEX
  8
PLEXIGLASS
 10
133.40729
 20
75.056999
 30
0.0
  0
VERTEX
  8
PLEXIGLASS
 10
117.03129
 20
75.056999
 30
0.0
  0
VERTEX
  8
PLEXIGLASS
 10
117.03129
 20
88.990197
 30
0.0
  0
SEQEND
  8
PLEXIGLASS
  0
POLYLINE
  8
PLEXIGLASS
 66
     1
 10
0.0
 20
0.0
 30
0.0
  0
VERTEX
  8
PLEXIGLASS
 10
134.68829
 20
101.098434
 30
0.0
  0
VERTEX
  8
PLEXIGLASS
 10
134.68829
 20
73.775999
 30
0.0
  0
VERTEX
  8
PLEXIGLASS
 10
115.75029
 20
73.775999
 30
0.0
  0
VERTEX
  8
PLEXIGLASS
 10
115.75029
 20
88.718592
 30
0.0
  0
SEQEND
  8
PLEXIGLASS
  0
POLYLINE
  8
PLEXIGLASS
 66
     1
 10
0.0
 20
0.0
 30
0.0
  0
VERTEX
  8
PLEXIGLASS
 10
133.56329
 20
100.294465
 30
0.0
  0
VERTEX
  8
PLEXIGLASS
 10
133.56329
 20
74.900999
 30
0.0
  0
VERTEX
  8
PLEXIGLASS
 10
116.87529
 20
74.900999
 30
0.0
  0
VERTEX
  8
PLEXIGLASS
 10
116.87529
 20
88.956075
 30
0.0
  0
SEQEND
  8
PLEXIGLASS
  0
POLYLINE
  8
PLEXIGLASS
 66
     1
 10
0.0
 20
0.0
 30
0.0
  0
VERTEX
  8
PLEXIGLASS
 10
117.03129
 20
126.157225
 30
0.0
  0
VERTEX
  8
PLEXIGLASS
 10
117.03129
 20
151.182999
 30
0.0
  0
VERTEX
  8
PLEXIGLASS
 10
133.40729
 20
151.182999
 30
0.0
  0
VERTEX
  8
PLEXIGLASS
 10
133.40729
 20
137.341326
 30
0.0
  0
SEQEND
  8
PLEXIGLASS
  0
POLYLINE
  8
PLEXIGLASS
 66
     1
 10
0.0
 20
0.0
 30
0.0
  0
VERTEX
  8
PLEXIGLASS
 10
115.75029
 20
125.88562
 30
0.0
  0
VERTEX
  8
PLEXIGLASS
 10
115.75029
 20
152.463999
 30
0.0
  0
VERTEX
  8
PLEXIGLASS
 10
134.68829
 20
152.463999
 30
0.0
  0
VERTEX
  8
PLEXIGLASS
 10
134.68829
 20
138.265462
 30
0.0
  0
SEQEND
  8
PLEXIGLASS
  0
CIRCLE
  8
HIDDEN
 10
44.659039
 20
75.323517
 30
0.0
 40
0.234
  0
POLYLINE
  8
HIDDEN
 66
     1
 10
0.0
 20
0.0
 30
0.0
  0
VERTEX
  8
HIDDEN
 10
44.956039
 20
75.948517
 30
0.0
  0
VERTEX
  8
HIDDEN
 10
44.284039
 20
75.948517
 30
0.0
  0
VERTEX
  8
HIDDEN
 10
44.284039
 20
74.698517
 30
0.0
  0
SEQEND
  8
HIDDEN
  0
POLYLINE
  8
HIDDEN
 66
     1
 10
0.0
 20
0.0
 30
0.0
  0
VERTEX
  8
HIDDEN
 10
44.956039
 20
152.260517
 30
0.0
  0
VERTEX
  8
HIDDEN
 10
44.284039
 20
152.260517
 30
0.0
  0
VERTEX
  8
HIDDEN
 10
44.284039
 20
153.510517
 30
0.0
  0
SEQEND
  8
HIDDEN
  0
CIRCLE
  8
HIDDEN
 10
44.659039
 20
152.885517
 30
0.0
 40
0.234
  0
POLYLINE
  8
OBJECT
 66
     1
 10
0.0
 20
0.0
 30
0.0
 70
     1
  0
VERTEX
  8
OBJECT
 10
78.956933
 20
113.573017
 30
0.0
  0
VERTEX
  8
OBJECT
 10
78.956933
 20
114.636017
 30
0.0
  0
VERTEX
  8
OBJECT
 10
79.269933
 20
114.636017
 30
0.0
  0
VERTEX
  8
OBJECT
 10
79.269933
 20
113.573017
 30
0.0
  0
SEQEND
  8
OBJECT
  0
POLYLINE
  8
OBJECT
 66
     1
 10
0.0
 20
0.0
 30
0.0
 70
     1
  0
VERTEX
  8
OBJECT
 10
78.956933
 20
77.292017
 30
0.0
  0
VERTEX
  8
OBJECT
 10
78.956933
 20
78.355017
 30
0.0
  0
VERTEX
  8
OBJECT
 10
79.269933
 20
78.355017
 30
0.0
  0
VERTEX
  8
OBJECT
 10
79.269933
 20
77.292017
 30
0.0
  0
SEQEND
  8
OBJECT
  0
CIRCLE
  8
OBJECT
 10
70.988683
 20
115.479517
 30
0.0
 40
0.1405
  0
CIRCLE
  8
OBJECT
 10
70.363683
 20
115.479517
 30
0.0
 40
0.1405
  0
CIRCLE
  8
OBJECT
 10
71.488683
 20
115.479517
 30
0.0
 40
0.1405
  0
CIRCLE
  8
OBJECT
 10
71.488683
 20
112.729517
 30
0.0
 40
0.1405
  0
CIRCLE
  8
OBJECT
 10
70.988683
 20
112.729517
 30
0.0
 40
0.1405
  0
CIRCLE
  8
OBJECT
 10
70.363683
 20
112.729517
 30
0.0
 40
0.1405
  0
CIRCLE
  8
OBJECT
 10
69.738683
 20
112.729517
 30
0.0
 40
0.1405
  0
CIRCLE
  8
OBJECT
 10
68.613683
 20
112.729517
 30
0.0
 40
0.1405
  0
CIRCLE
  8
OBJECT
 10
69.238683
 20
112.729517
 30
0.0
 40
0.1405
  0
LINE
  8
HIDDEN
 10
69.624697
 20
115.229517
 30
0.0
 11
65.769433
 21
115.229517
 31
0.0
  0
LINE
  8
HIDDEN
 10
67.549771
 20
112.979517
 30
0.0
 11
65.769433
 21
112.979517
 31
0.0
  0
CIRCLE
  8
PMR
 10
67.850433
 20
101.230517
 30
0.0
 40
0.1405
  0
CIRCLE
  8
PMR
 10
67.850433
 20
101.855517
 30
0.0
 40
0.1405
  0
CIRCLE
  8
PMR
 10
67.850433
 20
102.480517
 30
0.0
 40
0.1405
  0
CIRCLE
  8
PMR
 10
91.785433
 20
101.228517
 30
0.0
 40
0.1405
  0
CIRCLE
  8
PMR
 10
91.785433
 20
102.478517
 30
0.0
 40
0.1405
  0
CIRCLE
  8
PMR
 10
91.785433
 20
101.853517
 30
0.0
 40
0.1405
  0
CIRCLE
  8
PMR
 10
67.850433
 20
99.480517
 30
0.0
 40
0.1405
  0
CIRCLE
  8
PMR
 10
67.850433
 20
100.105517
 30
0.0
 40
0.1405
  0
CIRCLE
  8
PMR
 10
67.850433
 20
100.730517
 30
0.0
 40
0.1405
  0
CIRCLE
  8
PMR
 10
91.785433
 20
99.478517
 30
0.0
 40
0.1405
  0
CIRCLE
  8
PMR
 10
91.785433
 20
100.728517
 30
0.0
 40
0.1405
  0
CIRCLE
  8
PMR
 10
91.785433
 20
100.103517
 30
0.0
 40
0.1405
  0
CIRCLE
  8
PMR
 10
67.850433
 20
97.730517
 30
0.0
 40
0.1405
  0
CIRCLE
  8
PMR
 10
67.850433
 20
98.355517
 30
0.0
 40
0.1405
  0
CIRCLE
  8
PMR
 10
67.850433
 20
98.980517
 30
0.0
 40
0.1405
  0
CIRCLE
  8
PMR
 10
91.785433
 20
97.728517
 30
0.0
 40
0.1405
  0
CIRCLE
  8
PMR
 10
91.785433
 20
98.978517
 30
0.0
 40
0.1405
  0
CIRCLE
  8
PMR
 10
91.785433
 20
98.353517
 30
0.0
 40
0.1405
  0
CIRCLE
  8
PMR
 10
67.850433
 20
95.980517
 30
0.0
 40
0.1405
  0
CIRCLE
  8
PMR
 10
67.850433
 20
96.605517
 30
0.0
 40
0.1405
  0
CIRCLE
  8
PMR
 10
67.850433
 20
97.230517
 30
0.0
 40
0.1405
  0
CIRCLE
  8
PMR
 10
91.785433
 20
95.978517
 30
0.0
 40
0.1405
  0
CIRCLE
  8
PMR
 10
91.785433
 20
97.228517
 30
0.0
 40
0.1405
  0
CIRCLE
  8
PMR
 10
91.785433
 20
96.603517
 30
0.0
 40
0.1405
  0
CIRCLE
  8
PMR
 10
67.850433
 20
94.230517
 30
0.0
 40
0.1405
  0
CIRCLE
  8
PMR
 10
67.850433
 20
94.855517
 30
0.0
 40
0.1405
  0
CIRCLE
  8
PMR
 10
67.850433
 20
95.480517
 30
0.0
 40
0.1405
  0
CIRCLE
  8
PMR
 10
91.785433
 20
94.228517
 30
0.0
 40
0.1405
  0
CIRCLE
  8
PMR
 10
91.785433
 20
95.478517
 30
0.0
 40
0.1405
  0
CIRCLE
  8
PMR
 10
91.785433
 20
94.853517
 30
0.0
 40
0.1405
  0
CIRCLE
  8
PMR
 10
116.08029
 20
108.994999
 30
0.0
 40
0.095
  0
CIRCLE
  8
PMR
 10
116.08029
 20
110.244999
 30
0.0
 40
0.095
  0
CIRCLE
  8
PMR
 10
116.08029
 20
109.619999
 30
0.0
 40
0.095
  0
CIRCLE
  8
PMR
 10
134.39229
 20
108.994999
 30
0.0
 40
0.095
  0
CIRCLE
  8
PMR
 10
134.39229
 20
110.244999
 30
0.0
 40
0.095
  0
CIRCLE
  8
PMR
 10
134.39229
 20
109.619999
 30
0.0
 40
0.095
  0
CIRCLE
  8
PMR
 10
116.08029
 20
107.244999
 30
0.0
 40
0.095
  0
CIRCLE
  8
PMR
 10
116.08029
 20
108.494999
 30
0.0
 40
0.095
  0
CIRCLE
  8
PMR
 10
116.08029
 20
107.869999
 30
0.0
 40
0.095
  0
CIRCLE
  8
PMR
 10
134.39229
 20
107.244999
 30
0.0
 40
0.095
  0
CIRCLE
  8
PMR
 10
134.39229
 20
108.494999
 30
0.0
 40
0.095
  0
CIRCLE
  8
PMR
 10
134.39229
 20
107.869999
 30
0.0
 40
0.095
  0
CIRCLE
  8
PMR
 10
116.08029
 20
105.494999
 30
0.0
 40
0.095
  0
CIRCLE
  8
PMR
 10
116.08029
 20
106.744999
 30
0.0
 40
0.095
  0
CIRCLE
  8
PMR
 10
116.08029
 20
106.119999
 30
0.0
 40
0.095
  0
CIRCLE
  8
PMR
 10
134.39229
 20
105.494999
 30
0.0
 40
0.095
  0
CIRCLE
  8
PMR
 10
134.39229
 20
106.744999
 30
0.0
 40
0.095
  0
CIRCLE
  8
PMR
 10
134.39229
 20
106.119999
 30
0.0
 40
0.095
  0
CIRCLE
  8
PMR
 10
116.08029
 20
103.744999
 30
0.0
 40
0.095
  0
CIRCLE
  8
PMR
 10
116.08029
 20
104.994999
 30
0.0
 40
0.095
  0
CIRCLE
  8
PMR
 10
116.08029
 20
104.369999
 30
0.0
 40
0.095
  0
CIRCLE
  8
PMR
 10
134.39229
 20
103.744999
 30
0.0
 40
0.095
  0
CIRCLE
  8
PMR
 10
134.39229
 20
104.994999
 30
0.0
 40
0.095
  0
CIRCLE
  8
PMR
 10
134.39229
 20
104.369999
 30
0.0
 40
0.095
  0
CIRCLE
  8
PMR
 10
116.08029
 20
101.994999
 30
0.0
 40
0.095
  0
CIRCLE
  8
PMR
 10
116.08029
 20
103.244999
 30
0.0
 40
0.095
  0
CIRCLE
  8
PMR
 10
116.08029
 20
102.619999
 30
0.0
 40
0.095
  0
CIRCLE
  8
PMR
 10
134.39229
 20
101.994999
 30
0.0
 40
0.095
  0
CIRCLE
  8
PMR
 10
134.39229
 20
103.244999
 30
0.0
 40
0.095
  0
CIRCLE
  8
PMR
 10
134.39229
 20
102.619999
 30
0.0
 40
0.095
  0
TEXT
  8
TEXT
 10
4.467605
 20
205.849626
 30
0.0
 40
2.0
  1
PLEXIGLAS PANEL
 41
0.75
  0
TEXT
  8
TEXT
 10
52.865045
 20
205.849626
 30
0.0
 40
2.0
  1
3/16" THICK
 41
0.75
  0
LINE
  8
TEXT
 10
26.795615
 20
205.856746
 30
0.0
 11
52.024254
 21
205.856746
 31
0.0
  0
POLYLINE
  8
OBJECT
 66
     1
 10
0.0
 20
0.0
 30
0.0
  0
VERTEX
  8
OBJECT
 10
120.45529
 20
25.54158
 30
0.0
  0
VERTEX
  8
OBJECT
 10
130.01629
 20
25.54158
 30
0.0
  0
VERTEX
  8
OBJECT
 10
130.01629
 20
35.10258
 30
0.0
  0
VERTEX
  8
OBJECT
 10
120.45529
 20
35.10258
 30
0.0
  0
VERTEX
  8
OBJECT
 10
120.45529
 20
25.54158
 30
0.0
  0
SEQEND
  8
OBJECT
  0
CIRCLE
  8
OBJECT
 10
132.73579
 20
179.088141
 30
0.0
 40
2.031
  0
CIRCLE
  8
OBJECT
 10
134.48579
 20
177.338141
 30
0.0
 40
0.058
  0
CIRCLE
  8
OBJECT
 10
130.98579
 20
180.838141
 30
0.0
 40
0.058
  0
CIRCLE
  8
OBJECT
 10
117.73579
 20
179.088141
 30
0.0
 40
2.031
  0
CIRCLE
  8
OBJECT
 10
119.48579
 20
180.838141
 30
0.0
 40
0.058
  0
CIRCLE
  8
OBJECT
 10
115.98579
 20
177.338141
 30
0.0
 40
0.058
  0
CIRCLE
  8
OBJECT
 10
132.73579
 20
202.838141
 30
0.0
 40
2.031
  0
CIRCLE
  8
OBJECT
 10
117.73579
 20
202.838141
 30
0.0
 40
2.031
  0
CIRCLE
  8
OBJECT
 10
115.98579
 20
204.588141
 30
0.0
 40
0.058
  0
CIRCLE
  8
OBJECT
 10
119.48579
 20
201.088141
 30
0.0
 40
0.058
  0
CIRCLE
  8
OBJECT
 10
130.98579
 20
201.088141
 30
0.0
 40
0.058
  0
CIRCLE
  8
OBJECT
 10
134.48579
 20
204.588141
 30
0.0
 40
0.058
  0
DIMENSION
  8
DIM
  2
*D21
 10
145.365999
 20
179.088141
 30
0.0
 11
145.365999
 21
177.338141
 31
0.0
 12
0.0
 22
-0.993408
 32
0.0
  1
<> TYP.
 13
136.23579
 23
175.588141
 33
0.0
 14
132.73579
 24
179.088141
 34
0.0
 50
90.0
  3
23NSTDI
  0
DIMENSION
  8
DIM
  2
*D20
 10
132.73579
 20
171.080994
 30
0.0
 11
119.53579
 21
171.080994
 31
0.0
 12
0.0
 22
-0.993408
 32
0.0
  1
<> TYP.
 13
136.23579
 23
175.588141
 33
0.0
 14
132.73579
 24
179.088141
 34
0.0
  3
23NSTD
  0
POLYLINE
  8
DIM
 66
     1
 10
0.0
 20
0.0
 30
0.0
 41
1.08
  0
VERTEX
  8
DIM
 10
116.016644
 20
179.99715
 30
0.0
  0
VERTEX
  8
DIM
 10
113.338232
 20
181.055691
 30
0.0
 41
0.0
  0
VERTEX
  8
DIM
 10
110.587041
 20
182.142995
 30
0.0
 41
0.0
  0
VERTEX
  8
DIM
 10
107.707041
 20
182.142995
 30
0.0
 41
0.0
  0
SEQEND
  8
DIM
  0
TEXT
  8
DIM
 10
94.517041
 20
181.142995
 30
0.0
 40
2.0
  1
4.062 DIA.
 41
0.75
 72
     2
 11
106.267041
 21
182.142995
 31
0.0
 73
     2
  0
TEXT
  8
DIM
 10
94.267041
 20
177.809662
 30
0.0
 40
2.0
  1
(4) HOLES
 41
0.75
 72
     2
 11
106.267041
 21
178.809662
 31
0.0
 73
     2
  0
LINE
  8
OBJECT
 10
57.698319
 20
184.543887
 30
0.0
 11
62.198319
 21
184.543887
 31
0.0
  0
LINE
  8
OBJECT
 10
62.198319
 20
184.543887
 30
0.0
 11
62.198319
 21
189.043887
 31
0.0
  0
LINE
  8
OBJECT
 10
62.198319
 20
189.043887
 30
0.0
 11
57.698319
 21
189.043887
 31
0.0
  0
LINE
  8
OBJECT
 10
57.698319
 20
189.043887
 30
0.0
 11
57.698319
 21
184.543887
 31
0.0
  0
CIRCLE
  8
OBJECT
 10
58.198319
 20
188.543887
 30
0.0
 40
0.094
  0
CIRCLE
  8
OBJECT
 10
61.698319
 20
185.043887
 30
0.0
 40
0.094
  0
DIMENSION
  8
DIM
  2
*D22
 10
57.698319
 20
195.888498
 30
0.0
 11
47.748319
 21
195.888498
 31
0.0
 12
0.0
 22
-5.07798
 32
0.0
 13
62.198319
 23
189.043887
 33
0.0
 14
57.698319
 24
189.043887
 34
0.0
  3
23NSTD
  0
DIMENSION
  8
DIM
  2
*D23
 10
67.894092
 20
184.543887
 30
0.0
 11
67.894092
 21
186.793887
 31
0.0
 12
0.0
 22
-5.07798
 32
0.0
 13
62.198319
 23
189.043887
 33
0.0
 14
62.198319
 24
184.543887
 34
0.0
 50
90.0
  3
23NSTDI
  0
TEXT
  8
TEXT
 10
56.241512
 20
178.877265
 30
0.0
 40
2.0
  1
%%UPLATE
 41
0.75
 72
     1
 11
59.766512
 21
178.877265
 31
0.0
  0
LINE
  8
TEXT
 10
130.838547
 20
229.151627
 30
0.0
 11
126.204336
 21
229.151627
 31
0.0
  0
TEXT
  8
TEXT
 10
131.682773
 20
229.151627
 30
0.0
 40
2.0
  1
WHITE TEXTURE
 41
0.75
  0
TEXT
  8
TEXT
 10
4.467605
 20
172.569626
 30
0.0
 40
2.0
  1
LOAD RATING: 1200 LBS. MAX.
 41
0.75
  0
CIRCLE
  8
OBJECT
 10
78.488683
 20
79.198517
 30
0.0
 40
0.1405
  0
CIRCLE
  8
OBJECT
 10
79.113683
 20
79.198517
 30
0.0
 40
0.1405
  0
CIRCLE
  8
OBJECT
 10
78.488683
 20
76.448517
 30
0.0
 40
0.1405
  0
CIRCLE
  8
OBJECT
 10
79.113683
 20
76.448517
 30
0.0
 40
0.1405
  0
CIRCLE
  8
OBJECT
 10
79.738683
 20
79.198517
 30
0.0
 40
0.1405
  0
CIRCLE
  8
OBJECT
 10
79.738683
 20
76.448517
 30
0.0
 40
0.1405
  0
CIRCLE
  8
OBJECT
 10
79.113683
 20
112.729517
 30
0.0
 40
0.1405
  0
CIRCLE
  8
OBJECT
 10
78.488683
 20
112.729517
 30
0.0
 40
0.1405
  0
CIRCLE
  8
OBJECT
 10
79.738683
 20
112.729517
 30
0.0
 40
0.1405
  0
CIRCLE
  8
OBJECT
 10
79.113683
 20
115.479517
 30
0.0
 40
0.1405
  0
CIRCLE
  8
OBJECT
 10
78.488683
 20
115.479517
 30
0.0
 40
0.1405
  0
CIRCLE
  8
OBJECT
 10
79.738683
 20
115.479517
 30
0.0
 40
0.1405
  0
CIRCLE
  8
OBJECT
 10
80.238683
 20
79.198517
 30
0.0
 40
0.1405
  0
CIRCLE
  8
OBJECT
 10
80.863683
 20
79.198517
 30
0.0
 40
0.1405
  0
CIRCLE
  8
OBJECT
 10
80.238683
 20
76.448517
 30
0.0
 40
0.1405
  0
CIRCLE
  8
OBJECT
 10
80.863683
 20
76.448517
 30
0.0
 40
0.1405
  0
CIRCLE
  8
OBJECT
 10
81.488683
 20
79.198517
 30
0.0
 40
0.1405
  0
CIRCLE
  8
OBJECT
 10
81.488683
 20
76.448517
 30
0.0
 40
0.1405
  0
CIRCLE
  8
OBJECT
 10
80.863683
 20
112.729517
 30
0.0
 40
0.1405
  0
CIRCLE
  8
OBJECT
 10
80.238683
 20
112.729517
 30
0.0
 40
0.1405
  0
CIRCLE
  8
OBJECT
 10
81.488683
 20
112.729517
 30
0.0
 40
0.1405
  0
CIRCLE
  8
OBJECT
 10
80.863683
 20
115.479517
 30
0.0
 40
0.1405
  0
CIRCLE
  8
OBJECT
 10
80.238683
 20
115.479517
 30
0.0
 40
0.1405
  0
CIRCLE
  8
OBJECT
 10
81.488683
 20
115.479517
 30
0.0
 40
0.1405
  0
CIRCLE
  8
OBJECT
 10
81.988683
 20
79.198517
 30
0.0
 40
0.1405
  0
CIRCLE
  8
OBJECT
 10
82.613683
 20
79.198517
 30
0.0
 40
0.1405
  0
CIRCLE
  8
OBJECT
 10
81.988683
 20
76.448517
 30
0.0
 40
0.1405
  0
CIRCLE
  8
OBJECT
 10
82.613683
 20
76.448517
 30
0.0
 40
0.1405
  0
CIRCLE
  8
OBJECT
 10
83.238683
 20
79.198517
 30
0.0
 40
0.1405
  0
CIRCLE
  8
OBJECT
 10
83.238683
 20
76.448517
 30
0.0
 40
0.1405
  0
CIRCLE
  8
OBJECT
 10
82.613683
 20
112.729517
 30
0.0
 40
0.1405
  0
CIRCLE
  8
OBJECT
 10
81.988683
 20
112.729517
 30
0.0
 40
0.1405
  0
CIRCLE
  8
OBJECT
 10
83.238683
 20
112.729517
 30
0.0
 40
0.1405
  0
CIRCLE
  8
OBJECT
 10
82.613683
 20
115.479517
 30
0.0
 40
0.1405
  0
CIRCLE
  8
OBJECT
 10
81.988683
 20
115.479517
 30
0.0
 40
0.1405
  0
CIRCLE
  8
OBJECT
 10
83.238683
 20
115.479517
 30
0.0
 40
0.1405
  0
ENDSEC
  0
EOF
