  0
SECTION
  2
HEADER
  9
$ACADVER
  1
AC1015
  9
$ACADMAINTVER
 70
     6
  9
$DWGCODEPAGE
  3
ANSI_1252
  9
$INSBASE
 10
0.0
 20
0.0
 30
0.0
  9
$EXTMIN
 10
0.0
 20
-0.0000000000000142
 30
0.0
  9
$EXTMAX
 10
84.8
 20
125.28
 30
0.0
  9
$LIMMIN
 10
0.0
 20
0.0
  9
$LIMMAX
 10
97.59299999999999
 20
62.91
  9
$ORTHOMODE
 70
     1
  9
$REGENMODE
 70
     1
  9
$FILLMODE
 70
     1
  9
$QTEXTMODE
 70
     0
  9
$MIRRTEXT
 70
     0
  9
$LTSCALE
 40
2.0
  9
$ATTMODE
 70
     1
  9
$TEXTSIZE
 40
1.0
  9
$TRACEWID
 40
0.05
  9
$TEXTSTYLE
  7
TXT
  9
$CLAYER
  8
OBJECT
  9
$CELTYPE
  6
ByLayer
  9
$CECOLOR
 62
   256
  9
$CELTSCALE
 40
1.0
  9
$DISPSILH
 70
     0
  9
$DIMSCALE
 40
8.0
  9
$DIMASZ
 40
0.18
  9
$DIMEXO
 40
0.063
  9
$DIMDLI
 40
0.281
  9
$DIMRND
 40
0.0
  9
$DIMDLE
 40
0.0
  9
$DIMEXE
 40
0.093
  9
$DIMTP
 40
0.0
  9
$DIMTM
 40
0.0
  9
$DIMTXT
 40
0.125
  9
$DIMCEN
 40
0.09
  9
$DIMTSZ
 40
0.0
  9
$DIMTOL
 70
     0
  9
$DIMLIM
 70
     0
  9
$DIMTIH
 70
     1
  9
$DIMTOH
 70
     1
  9
$DIMSE1
 70
     0
  9
$DIMSE2
 70
     0
  9
$DIMTAD
 70
     0
  9
$DIMZIN
 70
     0
  9
$DIMBLK
  1

  9
$DIMASO
 70
     1
  9
$DIMSHO
 70
     1
  9
$DIMPOST
  1

  9
$DIMAPOST
  1

  9
$DIMALT
 70
     0
  9
$DIMALTD
 70
     2
  9
$DIMALTF
 40
25.4
  9
$DIMLFAC
 40
1.0
  9
$DIMTOFL
 70
     0
  9
$DIMTVP
 40
0.0
  9
$DIMTIX
 70
     0
  9
$DIMSOXD
 70
     0
  9
$DIMSAH
 70
     0
  9
$DIMBLK1
  1

  9
$DIMBLK2
  1

  9
$DIMSTYLE
  2
23NSTD
  9
$DIMCLRD
 70
     0
  9
$DIMCLRE
 70
     0
  9
$DIMCLRT
 70
     0
  9
$DIMTFAC
 40
1.0
  9
$DIMGAP
 40
0.09
  9
$DIMJUST
 70
     0
  9
$DIMSD1
 70
     0
  9
$DIMSD2
 70
     0
  9
$DIMTOLJ
 70
     1
  9
$DIMTZIN
 70
     0
  9
$DIMALTZ
 70
     0
  9
$DIMALTTZ
 70
     0
  9
$DIMUPT
 70
     0
  9
$DIMDEC
 70
     3
  9
$DIMTDEC
 70
     3
  9
$DIMALTU
 70
     2
  9
$DIMALTTD
 70
     2
  9
$DIMTXSTY
  7
TXT
  9
$DIMAUNIT
 70
     0
  9
$DIMADEC
 70
     0
  9
$DIMALTRND
 40
0.0
  9
$DIMAZIN
 70
     0
  9
$DIMDSEP
 70
    46
  9
$DIMATFIT
 70
     1
  9
$DIMFRAC
 70
     0
  9
$DIMLDRBLK
  1

  9
$DIMLUNIT
 70
     2
  9
$DIMLWD
 70
    -2
  9
$DIMLWE
 70
    -2
  9
$DIMTMOVE
 70
     0
  9
$LUNITS
 70
     2
  9
$LUPREC
 70
     3
  9
$SKETCHINC
 40
0.1
  9
$FILLETRAD
 40
0.0
  9
$AUNITS
 70
     0
  9
$AUPREC
 70
     3
  9
$MENU
  1
acad
  9
$ELEVATION
 40
0.0
  9
$PELEVATION
 40
0.0
  9
$THICKNESS
 40
0.0
  9
$LIMCHECK
 70
     0
  9
$CHAMFERA
 40
0.5
  9
$CHAMFERB
 40
0.5
  9
$CHAMFERC
 40
0.0
  9
$CHAMFERD
 40
0.0
  9
$SKPOLY
 70
     0
  9
$TDCREATE
 40
2451267.608526041
  9
$TDUCREATE
 40
2451267.816859375
  9
$TDUPDATE
 40
2453712.602237592
  9
$TDUUPDATE
 40
2453712.810570926
  9
$TDINDWG
 40
0.2915471528
  9
$TDUSRTIMER
 40
0.2915471528
  9
$USRTIMER
 70
     1
  9
$ANGBASE
 50
0.0
  9
$ANGDIR
 70
     0
  9
$PDMODE
 70
     0
  9
$PDSIZE
 40
0.0
  9
$PLINEWID
 40
0.0
  9
$SPLFRAME
 70
     0
  9
$SPLINETYPE
 70
     6
  9
$SPLINESEGS
 70
     8
  9
$HANDSEED
  5
1052
  9
$SURFTAB1
 70
     6
  9
$SURFTAB2
 70
     6
  9
$SURFTYPE
 70
     6
  9
$SURFU
 70
     6
  9
$SURFV
 70
     6
  9
$UCSBASE
  2

  9
$UCSNAME
  2

  9
$UCSORG
 10
0.0
 20
0.0
 30
0.0
  9
$UCSXDIR
 10
1.0
 20
0.0
 30
0.0
  9
$UCSYDIR
 10
0.0
 20
1.0
 30
0.0
  9
$UCSORTHOREF
  2

  9
$UCSORTHOVIEW
 70
     0
  9
$UCSORGTOP
 10
0.0
 20
0.0
 30
0.0
  9
$UCSORGBOTTOM
 10
0.0
 20
0.0
 30
0.0
  9
$UCSORGLEFT
 10
0.0
 20
0.0
 30
0.0
  9
$UCSORGRIGHT
 10
0.0
 20
0.0
 30
0.0
  9
$UCSORGFRONT
 10
0.0
 20
0.0
 30
0.0
  9
$UCSORGBACK
 10
0.0
 20
0.0
 30
0.0
  9
$PUCSBASE
  2

  9
$PUCSNAME
  2

  9
$PUCSORG
 10
0.0
 20
0.0
 30
0.0
  9
$PUCSXDIR
 10
1.0
 20
0.0
 30
0.0
  9
$PUCSYDIR
 10
0.0
 20
1.0
 30
0.0
  9
$PUCSORTHOREF
  2

  9
$PUCSORTHOVIEW
 70
     0
  9
$PUCSORGTOP
 10
0.0
 20
0.0
 30
0.0
  9
$PUCSORGBOTTOM
 10
0.0
 20
0.0
 30
0.0
  9
$PUCSORGLEFT
 10
0.0
 20
0.0
 30
0.0
  9
$PUCSORGRIGHT
 10
0.0
 20
0.0
 30
0.0
  9
$PUCSORGFRONT
 10
0.0
 20
0.0
 30
0.0
  9
$PUCSORGBACK
 10
0.0
 20
0.0
 30
0.0
  9
$USERI1
 70
     0
  9
$USERI2
 70
     0
  9
$USERI3
 70
     0
  9
$USERI4
 70
     0
  9
$USERI5
 70
     0
  9
$USERR1
 40
0.0
  9
$USERR2
 40
0.0
  9
$USERR3
 40
0.0
  9
$USERR4
 40
0.0
  9
$USERR5
 40
0.0
  9
$WORLDVIEW
 70
     0
  9
$SHADEDGE
 70
     3
  9
$SHADEDIF
 70
    70
  9
$TILEMODE
 70
     1
  9
$MAXACTVP
 70
    16
  9
$PINSBASE
 10
0.0
 20
0.0
 30
0.0
  9
$PLIMCHECK
 70
     0
  9
$PEXTMIN
 10
1.000000000000000E+20
 20
1.000000000000000E+20
 30
1.000000000000000E+20
  9
$PEXTMAX
 10
-1.000000000000000E+20
 20
-1.000000000000000E+20
 30
-1.000000000000000E+20
  9
$PLIMMIN
 10
0.0
 20
0.0
  9
$PLIMMAX
 10
12.0
 20
9.0
  9
$UNITMODE
 70
     0
  9
$VISRETAIN
 70
     0
  9
$PLINEGEN
 70
     0
  9
$PSLTSCALE
 70
     1
  9
$TREEDEPTH
 70
  3020
  9
$CMLSTYLE
  2
Standard
  9
$CMLJUST
 70
     0
  9
$CMLSCALE
 40
1.0
  9
$PROXYGRAPHICS
 70
     1
  9
$MEASUREMENT
 70
     0
  9
$CELWEIGHT
370
    -1
  9
$ENDCAPS
280
     0
  9
$JOINSTYLE
280
     0
  9
$LWDISPLAY
290
     0
  9
$INSUNITS
 70
     0
  9
$HYPERLINKBASE
  1

  9
$STYLESHEET
  1
monochrome.ctb
  9
$XEDIT
290
     1
  9
$CEPSNTYPE
380
     0
  9
$PSTYLEMODE
290
     1
  9
$FINGERPRINTGUID
  2
{224C0CA9-F255-4D46-80B6-F81260506476}
  9
$VERSIONGUID
  2
{FC3EEFC5-3D23-48E8-8999-774CBAB370B0}
  9
$EXTNAMES
290
     1
  9
$PSVPSCALE
 40
0.0
  9
$OLESTARTUP
290
     0
  0
ENDSEC
  0
SECTION
  2
CLASSES
  0
CLASS
  1
ACDBDICTIONARYWDFLT
  2
AcDbDictionaryWithDefault
  3
AutoCAD 2000
 90
        0
280
     0
281
     0
  0
CLASS
  1
ACDBPLACEHOLDER
  2
AcDbPlaceHolder
  3
AutoCAD 2000
 90
        0
280
     0
281
     0
  0
CLASS
  1
LAYOUT
  2
AcDbLayout
  3
AutoCAD 2000
 90
        0
280
     0
281
     0
  0
ENDSEC
  0
SECTION
  2
TABLES
  0
TABLE
  2
VPORT
  5
8
330
0
100
AcDbSymbolTable
 70
     2
  0
VPORT
  5
1051
330
8
100
AcDbSymbolTableRecord
100
AcDbViewportTableRecord
  2
*Active
 70
     0
 10
0.0
 20
0.0
 11
1.0
 21
1.0
 12
42.4009513039562
 22
62.64338993905856
 13
0.0
 23
0.0
 14
0.03125
 24
0.03125
 15
0.0
 25
0.0
 16
0.0
 26
0.0
 36
1.0
 17
0.0
 27
0.0
 37
0.0
 40
126.5129083420315
 41
1.780130293159609
 42
50.0
 43
0.0
 44
0.0
 50
0.0
 51
0.0
 71
     0
 72
   100
 73
     1
 74
     0
 75
     0
 76
     0
 77
     0
 78
     1
281
     0
 65
     1
110
0.0
120
0.0
130
0.0
111
1.0
121
0.0
131
0.0
112
0.0
122
1.0
132
0.0
 79
     0
146
0.0
  0
ENDTAB
  0
TABLE
  2
LTYPE
  5
5
330
0
100
AcDbSymbolTable
 70
     6
  0
LTYPE
  5
13
330
5
100
AcDbSymbolTableRecord
100
AcDbLinetypeTableRecord
  2
ByBlock
 70
     0
  3

 72
    65
 73
     0
 40
0.0
  0
LTYPE
  5
14
330
5
100
AcDbSymbolTableRecord
100
AcDbLinetypeTableRecord
  2
ByLayer
 70
     0
  3

 72
    65
 73
     0
 40
0.0
  0
LTYPE
  5
15
330
5
100
AcDbSymbolTableRecord
100
AcDbLinetypeTableRecord
  2
CONTINUOUS
 70
     0
  3
Solid line
 72
    65
 73
     0
 40
0.0
  0
LTYPE
  5
42
330
5
100
AcDbSymbolTableRecord
100
AcDbLinetypeTableRecord
  2
HIDDEN
 70
     0
  3
_ _ _ _ _ _ _ _ _ _ _ _ _ _ _ _ _ _ _ _ _ _ _
 72
    65
 73
     2
 40
0.375
 49
0.25
 74
     0
 49
-0.125
 74
     0
  0
LTYPE
  5
43
330
5
100
AcDbSymbolTableRecord
100
AcDbLinetypeTableRecord
  2
PHANTOM
 70
     0
  3
_____ _ _ _____ _ _ _____ _ _ _____ _ _ ____
 72
    65
 73
     6
 40
2.5
 49
1.25
 74
     0
 49
-0.25
 74
     0
 49
0.25
 74
     0
 49
-0.25
 74
     0
 49
0.25
 74
     0
 49
-0.25
 74
     0
  0
LTYPE
  5
44
330
5
100
AcDbSymbolTableRecord
100
AcDbLinetypeTableRecord
  2
CENTER
 70
     0
  3
____ _ ____ _ ____ _ ____ _ ____ _ ____ _ ____
 72
    65
 73
     4
 40
2.0
 49
1.25
 74
     0
 49
-0.25
 74
     0
 49
0.25
 74
     0
 49
-0.25
 74
     0
  0
LTYPE
  5
45
330
5
100
AcDbSymbolTableRecord
100
AcDbLinetypeTableRecord
  2
HIDDEN2
 70
     0
  3
_ _ _ _ _ _ _ _ _ _ _ _ _ _ _ _ _ _ _ _ _ _ _ _
 72
    65
 73
     2
 40
0.1875
 49
0.125
 74
     0
 49
-0.0625
 74
     0
  0
LTYPE
  5
46
330
5
100
AcDbSymbolTableRecord
100
AcDbLinetypeTableRecord
  2
PHANTOM2
 70
     0
  3
___ _ _ ___ _ _ ___ _ _ ___ _ _ ___ _ _ ___ _ _
 72
    65
 73
     6
 40
1.25
 49
0.625
 74
     0
 49
-0.125
 74
     0
 49
0.125
 74
     0
 49
-0.125
 74
     0
 49
0.125
 74
     0
 49
-0.125
 74
     0
  0
ENDTAB
  0
TABLE
  2
LAYER
  5
2
330
0
100
AcDbSymbolTable
 70
     9
  0
LAYER
  5
10
330
2
100
AcDbSymbolTableRecord
100
AcDbLayerTableRecord
  2
0
 70
     0
 62
     7
  6
CONTINUOUS
370
    -3
390
F
  0
LAYER
  5
4D
330
2
100
AcDbSymbolTableRecord
100
AcDbLayerTableRecord
  2
OBJECT
 70
     0
 62
     7
  6
CONTINUOUS
370
    -3
390
F
  0
LAYER
  5
4E
330
2
100
AcDbSymbolTableRecord
100
AcDbLayerTableRecord
  2
DIM
 70
     0
 62
     2
  6
CONTINUOUS
370
    -3
390
F
  0
LAYER
  5
4F
330
2
100
AcDbSymbolTableRecord
100
AcDbLayerTableRecord
  2
HIDDEN
 70
     0
 62
     6
  6
HIDDEN
370
    -3
390
F
  0
LAYER
  5
50
330
2
100
AcDbSymbolTableRecord
100
AcDbLayerTableRecord
  2
BEND
 70
     0
 62
     4
  6
PHANTOM
370
    -3
390
F
  0
LAYER
  5
51
330
2
100
AcDbSymbolTableRecord
100
AcDbLayerTableRecord
  2
TEXT
 70
     0
 62
     1
  6
CONTINUOUS
370
    -3
390
F
  0
LAYER
  5
52
330
2
100
AcDbSymbolTableRecord
100
AcDbLayerTableRecord
  2
TITLE
 70
     0
 62
     8
  6
CONTINUOUS
370
    -3
390
F
  0
LAYER
  5
53
330
2
100
AcDbSymbolTableRecord
100
AcDbLayerTableRecord
  2
CENTER
 70
     0
 62
     3
  6
CENTER
370
    -3
390
F
  0
LAYER
  5
54
330
2
100
AcDbSymbolTableRecord
100
AcDbLayerTableRecord
  2
DEFPOINTS
 70
     0
 62
     7
  6
CONTINUOUS
290
     0
370
    -3
390
F
  0
ENDTAB
  0
TABLE
  2
STYLE
  5
3
330
0
100
AcDbSymbolTable
 70
     2
  0
STYLE
  5
11
330
3
100
AcDbSymbolTableRecord
100
AcDbTextStyleTableRecord
  2
STANDARD
 70
     0
 40
0.0
 41
1.0
 50
0.0
 71
     0
 42
0.2
  3
txt
  4

  0
STYLE
  5
41
330
3
100
AcDbSymbolTableRecord
100
AcDbTextStyleTableRecord
  2
TXT
 70
     0
 40
0.0
 41
0.75
 50
0.0
 71
     0
 42
1.0
  3
TXT.shx
  4

  0
ENDTAB
  0
TABLE
  2
VIEW
  5
6
330
0
100
AcDbSymbolTable
 70
     0
  0
ENDTAB
  0
TABLE
  2
UCS
  5
7
330
0
100
AcDbSymbolTable
 70
     0
  0
ENDTAB
  0
TABLE
  2
APPID
  5
9
330
0
100
AcDbSymbolTable
 70
     2
  0
APPID
  5
12
330
9
100
AcDbSymbolTableRecord
100
AcDbRegAppTableRecord
  2
ACAD
 70
     0
  0
APPID
  5
D44
330
9
100
AcDbSymbolTableRecord
100
AcDbRegAppTableRecord
  2
DCO15
 70
     0
  0
ENDTAB
  0
TABLE
  2
DIMSTYLE
  5
A
330
0
100
AcDbSymbolTable
 70
     4
100
AcDbDimStyleTable
 71
     4
340
49
340
4A
340
4C
340
4B
  0
DIMSTYLE
105
49
102
{ACAD_REACTORS
330
1F0
330
1F1
330
3D2
330
466
330
4EF
330
534
330
5B2
330
5B4
330
62E
330
630
330
6BD
330
6EA
330
A5A
102
}
330
A
100
AcDbSymbolTableRecord
100
AcDbDimStyleTableRecord
  2
23NSTD
 70
     0
 40
8.0
 42
0.063
 43
0.281
 44
0.093
140
0.125
271
     3
272
     3
289
     1
340
41
  0
DIMSTYLE
105
4A
102
{ACAD_REACTORS
330
1EF
330
4C5
330
5B3
330
62F
330
6BA
330
A16
330
A59
330
A6B
102
}
330
A
100
AcDbSymbolTableRecord
100
AcDbDimStyleTableRecord
  2
23NSTDI
 70
     0
 40
8.0
 42
0.063
 43
0.281
 44
0.093
140
0.125
174
     1
271
     3
272
     3
340
41
  0
DIMSTYLE
105
4B
102
{ACAD_REACTORS
330
9EB
330
9ED
330
9EE
330
9EF
330
9F0
330
9F2
330
9F7
102
}
330
A
100
AcDbSymbolTableRecord
100
AcDbDimStyleTableRecord
  2
23NSTD250
 70
     0
 40
8.0
 42
0.063
 43
0.281
 44
0.093
140
0.125
144
0.4
271
     3
272
     3
289
     1
340
41
  0
DIMSTYLE
105
4C
102
{ACAD_REACTORS
330
9EC
330
9F1
102
}
330
A
100
AcDbSymbolTableRecord
100
AcDbDimStyleTableRecord
  2
23NSTD250I
 70
     0
 40
8.0
 42
0.063
 43
0.281
 44
0.093
140
0.125
144
0.4
174
     1
271
     3
272
     3
340
41
  0
ENDTAB
  0
TABLE
  2
BLOCK_RECORD
  5
1
330
0
100
AcDbSymbolTable
 70
    32
  0
BLOCK_RECORD
  5
1E
330
1
100
AcDbSymbolTableRecord
100
AcDbBlockTableRecord
  2
*Model_Space
340
21
  0
BLOCK_RECORD
  5
1A
330
1
100
AcDbSymbolTableRecord
100
AcDbBlockTableRecord
  2
*Paper_Space
340
1D
  0
BLOCK_RECORD
  5
22
330
1
100
AcDbSymbolTableRecord
100
AcDbBlockTableRecord
  2
OBLONG
340
0
102
{BLKREFS
331
2FE
331
2FF
331
300
331
301
331
302
331
303
331
304
331
305
331
306
331
307
331
308
331
309
331
30C
331
30D
331
30E
331
30F
331
310
331
311
331
312
331
313
331
314
331
315
331
316
331
317
331
318
331
319
331
31A
331
31B
331
31C
331
31D
331
31E
331
31F
331
320
331
321
331
322
331
323
331
324
331
325
331
326
331
327
331
328
331
329
331
32A
331
32B
331
32C
331
32D
331
32E
331
32F
331
35B
331
35C
331
35D
331
35E
331
35F
331
360
331
361
331
362
331
363
331
364
331
365
331
366
331
368
331
369
331
36A
331
36B
331
36C
331
36D
331
36E
331
36F
331
370
331
371
331
372
331
373
331
374
331
375
331
376
331
377
331
378
331
379
331
37A
331
37B
331
37C
331
37D
331
37E
331
37F
331
380
331
381
331
382
331
383
331
384
331
385
331
386
331
387
331
388
331
389
331
38A
331
38B
331
631
331
632
331
633
331
634
331
635
331
636
331
637
331
638
331
639
331
63A
331
63B
331
63C
331
63D
331
63E
331
63F
331
640
331
641
331
642
331
643
331
644
331
645
331
646
331
649
331
64A
331
64B
331
64C
331
64D
331
64E
331
64F
331
650
331
651
331
652
331
653
331
654
331
655
331
656
331
657
331
658
331
659
331
65A
331
65B
331
65C
331
65D
331
65E
331
660
331
661
331
663
331
664
331
665
331
666
331
667
331
668
331
669
331
66A
331
66B
331
66C
331
66D
331
66E
331
66F
331
670
331
671
331
672
331
673
331
675
331
676
331
677
331
678
331
679
331
67A
331
67B
331
67C
331
67D
331
67E
331
67F
331
681
331
682
331
683
331
684
331
685
331
686
331
687
331
688
331
689
331
68A
331
68B
331
68C
331
68D
331
68E
331
68F
331
690
331
691
331
692
331
693
331
694
331
695
331
696
331
835
331
836
331
837
331
838
331
8BF
331
8C0
331
8C1
331
8C2
331
8C3
331
8C4
331
8C5
331
8C6
331
8C7
331
8C8
331
8C9
331
8CA
331
8CB
331
8CC
331
8CD
331
8CE
331
8CF
331
8D0
331
8D1
331
8D2
331
8D3
331
8D4
331
8D5
331
8D6
331
8D7
331
8D8
331
8D9
331
8DA
331
8DB
331
8DC
331
8DD
331
8DE
331
8DF
331
8E0
331
8E1
331
8E2
331
8E3
331
8E4
331
8E5
331
8E6
331
8E7
331
8E8
331
8FF
331
900
331
901
331
902
331
903
331
904
331
90D
331
90E
331
90F
331
910
331
911
331
912
331
913
331
915
331
916
331
917
331
918
331
919
331
91A
331
91B
331
91C
331
91D
331
91E
331
91F
331
920
331
921
331
922
331
923
331
924
331
925
331
926
331
927
331
928
331
929
331
945
331
946
331
947
331
948
331
94A
331
94B
331
94C
331
94D
331
951
331
952
331
953
331
954
331
955
331
956
331
957
331
958
102
}
  0
BLOCK_RECORD
  5
ABD
330
1
100
AcDbSymbolTableRecord
100
AcDbBlockTableRecord
  2
*D1
340
0
  0
BLOCK_RECORD
  5
ACA
330
1
100
AcDbSymbolTableRecord
100
AcDbBlockTableRecord
  2
*D2
340
0
  0
BLOCK_RECORD
  5
AD8
330
1
100
AcDbSymbolTableRecord
100
AcDbBlockTableRecord
  2
*D3
340
0
  0
BLOCK_RECORD
  5
AE5
330
1
100
AcDbSymbolTableRecord
100
AcDbBlockTableRecord
  2
*D4
340
0
  0
BLOCK_RECORD
  5
AF2
330
1
100
AcDbSymbolTableRecord
100
AcDbBlockTableRecord
  2
*D5
340
0
  0
BLOCK_RECORD
  5
AFF
330
1
100
AcDbSymbolTableRecord
100
AcDbBlockTableRecord
  2
*D6
340
0
  0
BLOCK_RECORD
  5
B0C
330
1
100
AcDbSymbolTableRecord
100
AcDbBlockTableRecord
  2
*D7
340
0
  0
BLOCK_RECORD
  5
B19
330
1
100
AcDbSymbolTableRecord
100
AcDbBlockTableRecord
  2
*D8
340
0
  0
BLOCK_RECORD
  5
B26
330
1
100
AcDbSymbolTableRecord
100
AcDbBlockTableRecord
  2
*D9
340
0
  0
BLOCK_RECORD
  5
B33
330
1
100
AcDbSymbolTableRecord
100
AcDbBlockTableRecord
  2
*D10
340
0
  0
BLOCK_RECORD
  5
B40
330
1
100
AcDbSymbolTableRecord
100
AcDbBlockTableRecord
  2
*D11
340
0
  0
BLOCK_RECORD
  5
B4D
330
1
100
AcDbSymbolTableRecord
100
AcDbBlockTableRecord
  2
*D12
340
0
  0
BLOCK_RECORD
  5
B5A
330
1
100
AcDbSymbolTableRecord
100
AcDbBlockTableRecord
  2
*D13
340
0
  0
BLOCK_RECORD
  5
B71
330
1
100
AcDbSymbolTableRecord
100
AcDbBlockTableRecord
  2
*D14
340
0
  0
BLOCK_RECORD
  5
B7E
330
1
100
AcDbSymbolTableRecord
100
AcDbBlockTableRecord
  2
*D15
340
0
  0
BLOCK_RECORD
  5
B8B
330
1
100
AcDbSymbolTableRecord
100
AcDbBlockTableRecord
  2
*D16
340
0
  0
BLOCK_RECORD
  5
B99
330
1
100
AcDbSymbolTableRecord
100
AcDbBlockTableRecord
  2
*D17
340
0
  0
BLOCK_RECORD
  5
BA6
330
1
100
AcDbSymbolTableRecord
100
AcDbBlockTableRecord
  2
*D18
340
0
  0
BLOCK_RECORD
  5
BB4
330
1
100
AcDbSymbolTableRecord
100
AcDbBlockTableRecord
  2
*D19
340
0
  0
BLOCK_RECORD
  5
BC1
330
1
100
AcDbSymbolTableRecord
100
AcDbBlockTableRecord
  2
*D20
340
0
  0
BLOCK_RECORD
  5
BCE
330
1
100
AcDbSymbolTableRecord
100
AcDbBlockTableRecord
  2
*D21
340
0
  0
BLOCK_RECORD
  5
BDB
330
1
100
AcDbSymbolTableRecord
100
AcDbBlockTableRecord
  2
*D22
340
0
  0
BLOCK_RECORD
  5
BE8
330
1
100
AcDbSymbolTableRecord
100
AcDbBlockTableRecord
  2
*D23
340
0
  0
BLOCK_RECORD
  5
BF5
330
1
100
AcDbSymbolTableRecord
100
AcDbBlockTableRecord
  2
*D24
340
0
  0
BLOCK_RECORD
  5
C02
330
1
100
AcDbSymbolTableRecord
100
AcDbBlockTableRecord
  2
*D25
340
0
  0
BLOCK_RECORD
  5
C0F
330
1
100
AcDbSymbolTableRecord
100
AcDbBlockTableRecord
  2
*D26
340
0
  0
BLOCK_RECORD
  5
C1C
330
1
100
AcDbSymbolTableRecord
100
AcDbBlockTableRecord
  2
*D27
340
0
  0
BLOCK_RECORD
  5
C29
330
1
100
AcDbSymbolTableRecord
100
AcDbBlockTableRecord
  2
*D28
340
0
  0
BLOCK_RECORD
  5
C36
330
1
100
AcDbSymbolTableRecord
100
AcDbBlockTableRecord
  2
*D29
340
0
  0
BLOCK_RECORD
  5
C43
330
1
100
AcDbSymbolTableRecord
100
AcDbBlockTableRecord
  2
*D30
340
0
  0
BLOCK_RECORD
  5
D45
330
1
100
AcDbSymbolTableRecord
100
AcDbBlockTableRecord
  2
HB
340
0
102
{BLKREFS
331
D5E
102
}
  0
ENDTAB
  0
ENDSEC
  0
SECTION
  2
BLOCKS
  0
BLOCK
  5
57
330
1E
100
AcDbEntity
  8
0
100
AcDbBlockBegin
  2
*Model_Space
 70
     0
 10
0.0
 20
0.0
 30
0.0
  3
*Model_Space
  1

  0
ENDBLK
  5
58
330
1E
100
AcDbEntity
  8
0
100
AcDbBlockEnd
  0
BLOCK
  5
55
330
1A
100
AcDbEntity
 67
     1
  8
0
100
AcDbBlockBegin
  2
*Paper_Space
 70
     0
 10
0.0
 20
0.0
 30
0.0
  3
*Paper_Space
  1

  0
ENDBLK
  5
56
330
1A
100
AcDbEntity
 67
     1
  8
0
100
AcDbBlockEnd
  0
BLOCK
  5
59
330
22
100
AcDbEntity
  8
0
100
AcDbBlockBegin
  2
OBLONG
 70
     0
 10
0.0
 20
0.0
 30
0.0
  3
OBLONG
  1

  0
ARC
  5
5A
330
22
100
AcDbEntity
  8
OBJECT
100
AcDbCircle
 10
-0.3125000204246824
 20
0.0
 30
0.0
 40
0.0625000000000033
100
AcDbArc
 50
89.99998127603042
 51
269.9999812760304
  0
LINE
  5
5B
330
22
100
AcDbEntity
  8
OBJECT
100
AcDbLine
 10
-0.3125
 20
0.0625
 30
0.0
 11
0.3125
 21
0.0625
 31
0.0
  0
ARC
  5
5C
330
22
100
AcDbEntity
  8
OBJECT
100
AcDbCircle
 10
0.3124999795753176
 20
0.0
 30
0.0
 40
0.0625000000000033
100
AcDbArc
 50
269.9999812760304
 51
89.99998127603042
  0
LWPOLYLINE
  5
5D
330
22
100
AcDbEntity
  8
OBJECT
100
AcDbPolyline
 90
        2
 70
     0
 43
0.0
 10
-0.3124999975480875
 20
-0.0625
 10
0.3125000024519124
 20
-0.0625
  0
ENDBLK
  5
61
330
22
100
AcDbEntity
  8
0
100
AcDbBlockEnd
  0
BLOCK
  5
AC8
330
ABD
100
AcDbEntity
  8
0
100
AcDbBlockBegin
  2
*D1
 70
     1
 10
0.0
 20
0.0
 30
0.0
  3
*D1
  1

  0
LINE
  5
F27
330
ABD
100
AcDbEntity
  8
DIM
 62
     0
370
    -2
100
AcDbLine
 10
60.66334220332208
 20
60.75056327616444
 30
0.0
 11
60.66334220332208
 21
63.40137845992397
 31
0.0
  0
LINE
  5
F28
330
ABD
100
AcDbEntity
  8
DIM
 62
     0
370
    -2
100
AcDbLine
 10
61.70534220332206
 20
60.75056327616444
 30
0.0
 11
61.70534220332206
 21
63.40137845992397
 31
0.0
  0
LINE
  5
F29
330
ABD
100
AcDbEntity
  8
DIM
 62
     0
370
    -2
100
AcDbLine
 10
63.14534220332205
 20
62.65737845992397
 30
0.0
 11
64.58534220332206
 21
62.65737845992397
 31
0.0
  0
LINE
  5
F2A
330
ABD
100
AcDbEntity
  8
DIM
 62
     0
370
    -2
100
AcDbLine
 10
59.22334220332209
 20
62.65737845992397
 30
0.0
 11
57.78334220332206
 21
62.65737845992397
 31
0.0
  0
SOLID
  5
F2B
330
ABD
100
AcDbEntity
  8
DIM
 62
     0
100
AcDbTrace
 10
63.14534220332205
 20
62.89737845992397
 30
0.0
 11
63.14534220332205
 21
62.41737845992396
 31
0.0
 12
61.70534220332206
 22
62.65737845992397
 32
0.0
 13
61.70534220332206
 23
62.65737845992397
 33
0.0
  0
SOLID
  5
F2C
330
ABD
100
AcDbEntity
  8
DIM
 62
     0
100
AcDbTrace
 10
59.22334220332209
 20
62.89737845992397
 30
0.0
 11
59.22334220332209
 21
62.41737845992396
 31
0.0
 12
60.66334220332208
 22
62.65737845992397
 32
0.0
 13
60.66334220332208
 23
62.65737845992397
 33
0.0
  0
MTEXT
  5
F2D
330
ABD
100
AcDbEntity
  8
DIM
 62
     0
100
AcDbMText
 10
55.75084220332207
 20
62.65737845992397
 30
0.0
 40
1.0
 41
0.0
 71
     5
 72
     1
  1
\A1;1.042
  7
TXT
 73
     1
 44
1.0
  0
POINT
  5
F2E
330
ABD
100
AcDbEntity
  8
DEFPOINTS
 62
     0
100
AcDbPoint
 10
60.66334220332208
 20
60.24656327616444
 30
0.0
  0
POINT
  5
F2F
330
ABD
100
AcDbEntity
  8
DEFPOINTS
 62
     0
100
AcDbPoint
 10
61.70534220332206
 20
60.24656327616444
 30
0.0
  0
POINT
  5
F30
330
ABD
100
AcDbEntity
  8
DEFPOINTS
 62
     0
100
AcDbPoint
 10
61.70534220332206
 20
62.65737845992397
 30
0.0
  0
ENDBLK
  5
AC9
330
ABD
100
AcDbEntity
  8
0
100
AcDbBlockEnd
  0
BLOCK
  5
AD6
330
ACA
100
AcDbEntity
  8
0
100
AcDbBlockBegin
  2
*D2
 70
     1
 10
0.0
 20
0.0
 30
0.0
  3
*D2
  1

  0
LINE
  5
F31
330
ACA
100
AcDbEntity
  8
DIM
 62
     0
370
    -2
100
AcDbLine
 10
62.02134220332207
 20
59.41856327616444
 30
0.0
 11
67.16571053296911
 21
59.41856327616444
 31
0.0
  0
LINE
  5
F32
330
ACA
100
AcDbEntity
  8
DIM
 62
     0
370
    -2
100
AcDbLine
 10
64.43834220332205
 20
60.24656327616444
 30
0.0
 11
67.16571053296911
 21
60.24656327616444
 31
0.0
  0
LINE
  5
F33
330
ACA
100
AcDbEntity
  8
DIM
 62
     0
370
    -2
100
AcDbLine
 10
66.42171053296912
 20
57.97856327616444
 30
0.0
 11
66.42171053296912
 21
56.53856327616444
 31
0.0
  0
LINE
  5
F34
330
ACA
100
AcDbEntity
  8
DIM
 62
     0
370
    -2
100
AcDbLine
 10
66.42171053296912
 20
61.68656327616444
 30
0.0
 11
66.42171053296912
 21
63.12656327616444
 31
0.0
  0
LINE
  5
F35
330
ACA
100
AcDbEntity
  8
DIM
 62
     0
370
    -2
100
AcDbLine
 10
66.42171053296912
 20
63.12656327616444
 30
0.0
 11
67.86171053296911
 21
63.12656327616444
 31
0.0
  0
SOLID
  5
F36
330
ACA
100
AcDbEntity
  8
DIM
 62
     0
100
AcDbTrace
 10
66.18171053296912
 20
57.97856327616444
 30
0.0
 11
66.66171053296911
 21
57.97856327616444
 31
0.0
 12
66.42171053296912
 22
59.41856327616444
 32
0.0
 13
66.42171053296912
 23
59.41856327616444
 33
0.0
  0
SOLID
  5
F37
330
ACA
100
AcDbEntity
  8
DIM
 62
     0
100
AcDbTrace
 10
66.18171053296912
 20
61.68656327616444
 30
0.0
 11
66.66171053296911
 21
61.68656327616444
 31
0.0
 12
66.42171053296912
 22
60.24656327616444
 32
0.0
 13
66.42171053296912
 23
60.24656327616444
 33
0.0
  0
MTEXT
  5
F38
330
ACA
100
AcDbEntity
  8
DIM
 62
     0
100
AcDbMText
 10
70.0192105329691
 20
63.12656327616445
 30
0.0
 40
1.0
 41
0.0
 71
     5
 72
     1
  1
\A1;0.828
  7
TXT
 73
     1
 44
1.0
  0
POINT
  5
F39
330
ACA
100
AcDbEntity
  8
DEFPOINTS
 62
     0
100
AcDbPoint
 10
61.51734220332207
 20
59.41856327616444
 30
0.0
  0
POINT
  5
F3A
330
ACA
100
AcDbEntity
  8
DEFPOINTS
 62
     0
100
AcDbPoint
 10
63.93434220332204
 20
60.24656327616444
 30
0.0
  0
POINT
  5
F3B
330
ACA
100
AcDbEntity
  8
DEFPOINTS
 62
     0
100
AcDbPoint
 10
66.42171053296912
 20
60.24656327616444
 30
0.0
  0
ENDBLK
  5
AD7
330
ACA
100
AcDbEntity
  8
0
100
AcDbBlockEnd
  0
BLOCK
  5
AE3
330
AD8
100
AcDbEntity
  8
0
100
AcDbBlockBegin
  2
*D3
 70
     1
 10
0.0
 20
0.0
 30
0.0
  3
*D3
  1

  0
LINE
  5
FD4
330
AD8
100
AcDbEntity
  8
DIM
 62
     0
370
    -2
100
AcDbLine
 10
38.02262342739533
 20
96.40519971315066
 30
0.0
 11
38.02262342739533
 21
99.29175716247801
 31
0.0
  0
LINE
  5
FD5
330
AD8
100
AcDbEntity
  8
DIM
 62
     0
370
    -2
100
AcDbLine
 10
15.7726234273953
 20
96.4051997131507
 30
0.0
 11
15.7726234273953
 21
99.29175716247801
 31
0.0
  0
LINE
  5
FD6
330
AD8
100
AcDbEntity
  8
DIM
 62
     0
370
    -2
100
AcDbLine
 10
36.58262342739533
 20
98.547757162478
 30
0.0
 11
29.43012342739531
 21
98.547757162478
 31
0.0
  0
LINE
  5
FD7
330
AD8
100
AcDbEntity
  8
DIM
 62
     0
370
    -2
100
AcDbLine
 10
17.2126234273953
 20
98.547757162478
 30
0.0
 11
24.36512342739531
 21
98.547757162478
 31
0.0
  0
SOLID
  5
FD8
330
AD8
100
AcDbEntity
  8
DIM
 62
     0
100
AcDbTrace
 10
36.58262342739533
 20
98.78775716247801
 30
0.0
 11
36.58262342739533
 21
98.30775716247801
 31
0.0
 12
38.02262342739533
 22
98.547757162478
 32
0.0
 13
38.02262342739533
 23
98.547757162478
 33
0.0
  0
SOLID
  5
FD9
330
AD8
100
AcDbEntity
  8
DIM
 62
     0
100
AcDbTrace
 10
17.2126234273953
 20
98.78775716247801
 30
0.0
 11
17.2126234273953
 21
98.30775716247801
 31
0.0
 12
15.7726234273953
 22
98.547757162478
 32
0.0
 13
15.7726234273953
 23
98.547757162478
 33
0.0
  0
MTEXT
  5
FDA
330
AD8
100
AcDbEntity
  8
DIM
 62
     0
100
AcDbMText
 10
26.89762342739531
 20
98.547757162478
 30
0.0
 40
1.0
 41
0.0
 71
     5
 72
     1
  1
\A1;22.250
  7
TXT
 73
     1
 44
1.0
  0
POINT
  5
FDB
330
AD8
100
AcDbEntity
  8
DEFPOINTS
 62
     0
100
AcDbPoint
 10
38.02262342739533
 20
95.90119971315067
 30
0.0
  0
POINT
  5
FDC
330
AD8
100
AcDbEntity
  8
DEFPOINTS
 62
     0
100
AcDbPoint
 10
15.7726234273953
 20
95.90119971315068
 30
0.0
  0
POINT
  5
FDD
330
AD8
100
AcDbEntity
  8
DEFPOINTS
 62
     0
100
AcDbPoint
 10
15.7726234273953
 20
98.547757162478
 30
0.0
  0
ENDBLK
  5
AE4
330
AD8
100
AcDbEntity
  8
0
100
AcDbBlockEnd
  0
BLOCK
  5
AF0
330
AE5
100
AcDbEntity
  8
0
100
AcDbBlockBegin
  2
*D4
 70
     1
 10
0.0
 20
0.0
 30
0.0
  3
*D4
  1

  0
LINE
  5
FFC
330
AE5
100
AcDbEntity
  8
DIM
 62
     0
370
    -2
100
AcDbLine
 10
38.52662342739533
 20
95.90119971315067
 30
0.0
 11
41.83180293666828
 21
95.90119971315067
 31
0.0
  0
LINE
  5
FFD
330
AE5
100
AcDbEntity
  8
DIM
 62
     0
370
    -2
100
AcDbLine
 10
38.5266234273953
 20
74.86919971315067
 30
0.0
 11
41.83180293666828
 21
74.86919971315067
 31
0.0
  0
LINE
  5
FFE
330
AE5
100
AcDbEntity
  8
DIM
 62
     0
370
    -2
100
AcDbLine
 10
41.08780293666828
 20
94.46119971315066
 30
0.0
 11
41.08780293666828
 21
86.60519971315066
 31
0.0
  0
LINE
  5
FFF
330
AE5
100
AcDbEntity
  8
DIM
 62
     0
370
    -2
100
AcDbLine
 10
41.08780293666828
 20
76.30919971315067
 30
0.0
 11
41.08780293666828
 21
84.16519971315066
 31
0.0
  0
SOLID
  5
1000
330
AE5
100
AcDbEntity
  8
DIM
 62
     0
100
AcDbTrace
 10
40.84780293666828
 20
94.46119971315066
 30
0.0
 11
41.32780293666828
 21
94.46119971315066
 31
0.0
 12
41.08780293666828
 22
95.90119971315067
 32
0.0
 13
41.08780293666828
 23
95.90119971315067
 33
0.0
  0
SOLID
  5
1001
330
AE5
100
AcDbEntity
  8
DIM
 62
     0
100
AcDbTrace
 10
40.84780293666828
 20
76.30919971315067
 30
0.0
 11
41.32780293666828
 21
76.30919971315067
 31
0.0
 12
41.08780293666828
 22
74.86919971315067
 32
0.0
 13
41.08780293666828
 23
74.86919971315067
 33
0.0
  0
MTEXT
  5
1002
330
AE5
100
AcDbEntity
  8
DIM
 62
     0
100
AcDbMText
 10
41.08780293666828
 20
85.38519971315068
 30
0.0
 40
1.0
 41
0.0
 71
     5
 72
     1
  1
\A1;21.032
  7
TXT
 73
     1
 44
1.0
  0
POINT
  5
1003
330
AE5
100
AcDbEntity
  8
DEFPOINTS
 62
     0
100
AcDbPoint
 10
38.02262342739533
 20
95.90119971315067
 30
0.0
  0
POINT
  5
1004
330
AE5
100
AcDbEntity
  8
DEFPOINTS
 62
     0
100
AcDbPoint
 10
38.0226234273953
 20
74.86919971315067
 30
0.0
  0
POINT
  5
1005
330
AE5
100
AcDbEntity
  8
DEFPOINTS
 62
     0
100
AcDbPoint
 10
41.08780293666828
 20
74.86919971315067
 30
0.0
  0
ENDBLK
  5
AF1
330
AE5
100
AcDbEntity
  8
0
100
AcDbBlockEnd
  0
BLOCK
  5
AFD
330
AF2
100
AcDbEntity
  8
0
100
AcDbBlockBegin
  2
*D5
 70
     1
 10
0.0
 20
0.0
 30
0.0
  3
*D5
  1

  0
LINE
  5
1006
330
AF2
100
AcDbEntity
  8
DIM
 62
     0
370
    -2
100
AcDbLine
 10
17.74162342739538
 20
106.5716254068149
 30
0.0
 11
17.74162342739538
 21
112.2105866483753
 31
0.0
  0
LINE
  5
1007
330
AF2
100
AcDbEntity
  8
DIM
 62
     0
370
    -2
100
AcDbLine
 10
36.05362342739539
 20
106.5716254068149
 30
0.0
 11
36.05362342739539
 21
112.2105866483753
 31
0.0
  0
LINE
  5
1008
330
AF2
100
AcDbEntity
  8
DIM
 62
     0
370
    -2
100
AcDbLine
 10
19.18162342739538
 20
111.4665866483754
 30
0.0
 11
20.92762342739538
 21
111.4665866483754
 31
0.0
  0
LINE
  5
1009
330
AF2
100
AcDbEntity
  8
DIM
 62
     0
370
    -2
100
AcDbLine
 10
34.61362342739539
 20
111.4665866483754
 30
0.0
 11
32.86762342739538
 21
111.4665866483754
 31
0.0
  0
SOLID
  5
100A
330
AF2
100
AcDbEntity
  8
DIM
 62
     0
100
AcDbTrace
 10
19.18162342739538
 20
111.7065866483754
 30
0.0
 11
19.18162342739538
 21
111.2265866483754
 31
0.0
 12
17.74162342739538
 22
111.4665866483754
 32
0.0
 13
17.74162342739538
 23
111.4665866483754
 33
0.0
  0
SOLID
  5
100B
330
AF2
100
AcDbEntity
  8
DIM
 62
     0
100
AcDbTrace
 10
34.61362342739539
 20
111.7065866483754
 30
0.0
 11
34.61362342739539
 21
111.2265866483754
 31
0.0
 12
36.05362342739539
 22
111.4665866483754
 32
0.0
 13
36.05362342739539
 23
111.4665866483754
 33
0.0
  0
MTEXT
  5
100C
330
AF2
100
AcDbEntity
  8
DIM
 62
     0
100
AcDbMText
 10
26.89762342739538
 20
111.4665866483754
 30
0.0
 40
1.0
 41
0.0
 71
     5
 72
     1
  1
\A1;18.312 REF. CTRS.
  7
TXT
 73
     1
 44
1.0
  0
POINT
  5
100D
330
AF2
100
AcDbEntity
  8
DEFPOINTS
 62
     0
100
AcDbPoint
 10
17.74162342739538
 20
106.0676254068149
 30
0.0
  0
POINT
  5
100E
330
AF2
100
AcDbEntity
  8
DEFPOINTS
 62
     0
100
AcDbPoint
 10
36.05362342739539
 20
106.0676254068149
 30
0.0
  0
POINT
  5
100F
330
AF2
100
AcDbEntity
  8
DEFPOINTS
 62
     0
100
AcDbPoint
 10
36.05362342739539
 20
111.4665866483754
 30
0.0
  0
ENDBLK
  5
AFE
330
AF2
100
AcDbEntity
  8
0
100
AcDbBlockEnd
  0
BLOCK
  5
B0A
330
AFF
100
AcDbEntity
  8
0
100
AcDbBlockBegin
  2
*D6
 70
     1
 10
0.0
 20
0.0
 30
0.0
  3
*D6
  1

  0
LINE
  5
1010
330
AFF
100
AcDbEntity
  8
DIM
 62
     0
370
    -2
100
AcDbLine
 10
17.92862342739539
 20
107.2746254068149
 30
0.0
 11
17.92862342739539
 21
110.0373329443607
 31
0.0
  0
LINE
  5
1011
330
AFF
100
AcDbEntity
  8
DIM
 62
     0
370
    -2
100
AcDbLine
 10
35.86662342739538
 20
107.2746254068149
 30
0.0
 11
35.86662342739538
 21
110.0373329443607
 31
0.0
  0
LINE
  5
1012
330
AFF
100
AcDbEntity
  8
DIM
 62
     0
370
    -2
100
AcDbLine
 10
19.36862342739539
 20
109.2933329443607
 30
0.0
 11
20.42762342739539
 21
109.2933329443607
 31
0.0
  0
LINE
  5
1013
330
AFF
100
AcDbEntity
  8
DIM
 62
     0
370
    -2
100
AcDbLine
 10
34.42662342739538
 20
109.2933329443607
 30
0.0
 11
33.36762342739538
 21
109.2933329443607
 31
0.0
  0
SOLID
  5
1014
330
AFF
100
AcDbEntity
  8
DIM
 62
     0
100
AcDbTrace
 10
19.36862342739539
 20
109.5333329443607
 30
0.0
 11
19.36862342739539
 21
109.0533329443607
 31
0.0
 12
17.92862342739539
 22
109.2933329443607
 32
0.0
 13
17.92862342739539
 23
109.2933329443607
 33
0.0
  0
SOLID
  5
1015
330
AFF
100
AcDbEntity
  8
DIM
 62
     0
100
AcDbTrace
 10
34.42662342739538
 20
109.5333329443607
 30
0.0
 11
34.42662342739538
 21
109.0533329443607
 31
0.0
 12
35.86662342739538
 22
109.2933329443607
 32
0.0
 13
35.86662342739538
 23
109.2933329443607
 33
0.0
  0
MTEXT
  5
1016
330
AFF
100
AcDbEntity
  8
DIM
 62
     0
100
AcDbMText
 10
26.89762342739538
 20
109.2933329443607
 30
0.0
 40
1.0
 41
0.0
 71
     5
 72
     1
  1
\A1;17.938 REF. CLEAR.
  7
TXT
 73
     1
 44
1.0
  0
POINT
  5
1017
330
AFF
100
AcDbEntity
  8
DEFPOINTS
 62
     0
100
AcDbPoint
 10
17.92862342739539
 20
106.7706254068149
 30
0.0
  0
POINT
  5
1018
330
AFF
100
AcDbEntity
  8
DEFPOINTS
 62
     0
100
AcDbPoint
 10
35.86662342739538
 20
106.7706254068149
 30
0.0
  0
POINT
  5
1019
330
AFF
100
AcDbEntity
  8
DEFPOINTS
 62
     0
100
AcDbPoint
 10
35.86662342739538
 20
109.2933329443607
 30
0.0
  0
ENDBLK
  5
B0B
330
AFF
100
AcDbEntity
  8
0
100
AcDbBlockEnd
  0
BLOCK
  5
B17
330
B0C
100
AcDbEntity
  8
0
100
AcDbBlockBegin
  2
*D7
 70
     1
 10
0.0
 20
0.0
 30
0.0
  3
*D7
  1

  0
LINE
  5
1024
330
B0C
100
AcDbEntity
  8
DIM
 62
     0
370
    -2
100
AcDbLine
 10
60.82708272882962
 20
94.60719971315066
 30
0.0
 11
60.82708272882962
 21
101.496679443244
 31
0.0
  0
LINE
  5
1025
330
B0C
100
AcDbEntity
  8
DIM
 62
     0
370
    -2
100
AcDbLine
 10
76.82708272882968
 20
94.60719971315066
 30
0.0
 11
76.82708272882968
 21
101.496679443244
 31
0.0
  0
LINE
  5
1026
330
B0C
100
AcDbEntity
  8
DIM
 62
     0
370
    -2
100
AcDbLine
 10
62.26708272882962
 20
100.752679443244
 30
0.0
 11
66.54458272882965
 21
100.752679443244
 31
0.0
  0
LINE
  5
1027
330
B0C
100
AcDbEntity
  8
DIM
 62
     0
370
    -2
100
AcDbLine
 10
75.38708272882968
 20
100.752679443244
 30
0.0
 11
71.10958272882965
 21
100.752679443244
 31
0.0
  0
SOLID
  5
1028
330
B0C
100
AcDbEntity
  8
DIM
 62
     0
100
AcDbTrace
 10
62.26708272882962
 20
100.992679443244
 30
0.0
 11
62.26708272882962
 21
100.512679443244
 31
0.0
 12
60.82708272882962
 22
100.752679443244
 32
0.0
 13
60.82708272882962
 23
100.752679443244
 33
0.0
  0
SOLID
  5
1029
330
B0C
100
AcDbEntity
  8
DIM
 62
     0
100
AcDbTrace
 10
75.38708272882968
 20
100.992679443244
 30
0.0
 11
75.38708272882968
 21
100.512679443244
 31
0.0
 12
76.82708272882968
 22
100.752679443244
 32
0.0
 13
76.82708272882968
 23
100.752679443244
 33
0.0
  0
MTEXT
  5
102A
330
B0C
100
AcDbEntity
  8
DIM
 62
     0
100
AcDbMText
 10
68.82708272882965
 20
100.752679443244
 30
0.0
 40
1.0
 41
0.0
 71
     5
 72
     1
  1
\A1;16.000
  7
TXT
 73
     1
 44
1.0
  0
POINT
  5
102B
330
B0C
100
AcDbEntity
  8
DEFPOINTS
 62
     0
100
AcDbPoint
 10
60.82708272882962
 20
94.10319971315066
 30
0.0
  0
POINT
  5
102C
330
B0C
100
AcDbEntity
  8
DEFPOINTS
 62
     0
100
AcDbPoint
 10
76.82708272882968
 20
94.10319971315066
 30
0.0
  0
POINT
  5
102D
330
B0C
100
AcDbEntity
  8
DEFPOINTS
 62
     0
100
AcDbPoint
 10
76.82708272882968
 20
100.752679443244
 30
0.0
  0
ENDBLK
  5
B18
330
B0C
100
AcDbEntity
  8
0
100
AcDbBlockEnd
  0
BLOCK
  5
B24
330
B19
100
AcDbEntity
  8
0
100
AcDbBlockBegin
  2
*D8
 70
     1
 10
0.0
 20
0.0
 30
0.0
  3
*D8
  1

  0
LINE
  5
FCA
330
B19
100
AcDbEntity
  8
DIM
 62
     0
370
    -2
100
AcDbLine
 10
76.98308272882968
 20
92.31919971315063
 30
0.0
 11
76.98308272882968
 21
87.82852752253917
 31
0.0
  0
LINE
  5
FCB
330
B19
100
AcDbEntity
  8
DIM
 62
     0
370
    -2
100
AcDbLine
 10
76.67108272882967
 20
92.31919971315063
 30
0.0
 11
76.67108272882967
 21
87.82852752253917
 31
0.0
  0
LINE
  5
FCC
330
B19
100
AcDbEntity
  8
DIM
 62
     0
370
    -2
100
AcDbLine
 10
78.42308272882968
 20
88.57252752253918
 30
0.0
 11
79.86308272882968
 21
88.57252752253918
 31
0.0
  0
LINE
  5
FCD
330
B19
100
AcDbEntity
  8
DIM
 62
     0
370
    -2
100
AcDbLine
 10
75.23108272882968
 20
88.57252752253918
 30
0.0
 11
73.79108272882968
 21
88.57252752253918
 31
0.0
  0
SOLID
  5
FCE
330
B19
100
AcDbEntity
  8
DIM
 62
     0
100
AcDbTrace
 10
78.42308272882968
 20
88.81252752253917
 30
0.0
 11
78.42308272882968
 21
88.33252752253917
 31
0.0
 12
76.98308272882968
 22
88.57252752253918
 32
0.0
 13
76.98308272882968
 23
88.57252752253918
 33
0.0
  0
SOLID
  5
FCF
330
B19
100
AcDbEntity
  8
DIM
 62
     0
100
AcDbTrace
 10
75.23108272882968
 20
88.81252752253917
 30
0.0
 11
75.23108272882968
 21
88.33252752253917
 31
0.0
 12
76.67108272882967
 22
88.57252752253918
 32
0.0
 13
76.67108272882967
 23
88.57252752253918
 33
0.0
  0
MTEXT
  5
FD0
330
B19
100
AcDbEntity
  8
DIM
 62
     0
100
AcDbMText
 10
70.13358272882967
 20
88.57252752253918
 30
0.0
 40
1.0
 41
0.0
 71
     5
 72
     1
  1
\A1;0.312 TYP.
  7
TXT
 73
     1
 44
1.0
  0
POINT
  5
FD1
330
B19
100
AcDbEntity
  8
DEFPOINTS
 62
     0
100
AcDbPoint
 10
76.98308272882968
 20
92.82319971315065
 30
0.0
  0
POINT
  5
FD2
330
B19
100
AcDbEntity
  8
DEFPOINTS
 62
     0
100
AcDbPoint
 10
76.67108272882967
 20
92.82319971315065
 30
0.0
  0
POINT
  5
FD3
330
B19
100
AcDbEntity
  8
DEFPOINTS
 62
     0
100
AcDbPoint
 10
76.67108272882967
 20
88.57252752253918
 30
0.0
  0
ENDBLK
  5
B25
330
B19
100
AcDbEntity
  8
0
100
AcDbBlockEnd
  0
BLOCK
  5
B31
330
B26
100
AcDbEntity
  8
0
100
AcDbBlockBegin
  2
*D9
 70
     1
 10
0.0
 20
0.0
 30
0.0
  3
*D9
  1

  0
LINE
  5
101A
330
B26
100
AcDbEntity
  8
DIM
 62
     0
370
    -2
100
AcDbLine
 10
60.82708272882962
 20
94.60719971315066
 30
0.0
 11
60.82708272882962
 21
101.496679443244
 31
0.0
  0
LINE
  5
101B
330
B26
100
AcDbEntity
  8
DIM
 62
     0
370
    -2
100
AcDbLine
 10
57.70208272882962
 20
96.40519971315068
 30
0.0
 11
57.70208272882962
 21
101.496679443244
 31
0.0
  0
LINE
  5
101C
330
B26
100
AcDbEntity
  8
DIM
 62
     0
370
    -2
100
AcDbLine
 10
62.26708272882962
 20
100.752679443244
 30
0.0
 11
63.70708272882962
 21
100.752679443244
 31
0.0
  0
LINE
  5
101D
330
B26
100
AcDbEntity
  8
DIM
 62
     0
370
    -2
100
AcDbLine
 10
56.26208272882962
 20
100.752679443244
 30
0.0
 11
54.82208272882962
 21
100.752679443244
 31
0.0
  0
SOLID
  5
101E
330
B26
100
AcDbEntity
  8
DIM
 62
     0
100
AcDbTrace
 10
62.26708272882962
 20
100.992679443244
 30
0.0
 11
62.26708272882962
 21
100.512679443244
 31
0.0
 12
60.82708272882962
 22
100.752679443244
 32
0.0
 13
60.82708272882962
 23
100.752679443244
 33
0.0
  0
SOLID
  5
101F
330
B26
100
AcDbEntity
  8
DIM
 62
     0
100
AcDbTrace
 10
56.26208272882962
 20
100.992679443244
 30
0.0
 11
56.26208272882962
 21
100.512679443244
 31
0.0
 12
57.70208272882962
 22
100.752679443244
 32
0.0
 13
57.70208272882962
 23
100.752679443244
 33
0.0
  0
MTEXT
  5
1020
330
B26
100
AcDbEntity
  8
DIM
 62
     0
100
AcDbMText
 10
52.72708272882962
 20
100.752679443244
 30
0.0
 40
1.0
 41
0.0
 71
     5
 72
     1
  1
\A1;3.125
  7
TXT
 73
     1
 44
1.0
  0
POINT
  5
1021
330
B26
100
AcDbEntity
  8
DEFPOINTS
 62
     0
100
AcDbPoint
 10
60.82708272882962
 20
94.10319971315066
 30
0.0
  0
POINT
  5
1022
330
B26
100
AcDbEntity
  8
DEFPOINTS
 62
     0
100
AcDbPoint
 10
57.70208272882962
 20
95.90119971315067
 30
0.0
  0
POINT
  5
1023
330
B26
100
AcDbEntity
  8
DEFPOINTS
 62
     0
100
AcDbPoint
 10
57.70208272882962
 20
100.752679443244
 30
0.0
  0
ENDBLK
  5
B32
330
B26
100
AcDbEntity
  8
0
100
AcDbBlockEnd
  0
BLOCK
  5
B3E
330
B33
100
AcDbEntity
  8
0
100
AcDbBlockBegin
  2
*D10
 70
     1
 10
0.0
 20
0.0
 30
0.0
  3
*D10
  1

  0
LINE
  5
102E
330
B33
100
AcDbEntity
  8
DIM
 62
     0
370
    -2
100
AcDbLine
 10
59.60508272882964
 20
93.38519971315065
 30
0.0
 11
54.09112445287031
 21
93.38519971315065
 31
0.0
  0
LINE
  5
102F
330
B33
100
AcDbEntity
  8
DIM
 62
     0
370
    -2
100
AcDbLine
 10
59.60508272882964
 20
77.38519971315067
 30
0.0
 11
54.0911244528703
 21
77.38519971315067
 31
0.0
  0
LINE
  5
1030
330
B33
100
AcDbEntity
  8
DIM
 62
     0
370
    -2
100
AcDbLine
 10
54.83512445287031
 20
91.94519971315065
 30
0.0
 11
54.83512445287031
 21
86.60519971315066
 31
0.0
  0
LINE
  5
1031
330
B33
100
AcDbEntity
  8
DIM
 62
     0
370
    -2
100
AcDbLine
 10
54.8351244528703
 20
78.82519971315066
 30
0.0
 11
54.83512445287031
 21
84.16519971315066
 31
0.0
  0
SOLID
  5
1032
330
B33
100
AcDbEntity
  8
DIM
 62
     0
100
AcDbTrace
 10
54.59512445287031
 20
91.94519971315065
 30
0.0
 11
55.07512445287031
 21
91.94519971315065
 31
0.0
 12
54.83512445287031
 22
93.38519971315065
 32
0.0
 13
54.83512445287031
 23
93.38519971315065
 33
0.0
  0
SOLID
  5
1033
330
B33
100
AcDbEntity
  8
DIM
 62
     0
100
AcDbTrace
 10
54.5951244528703
 20
78.82519971315066
 30
0.0
 11
55.0751244528703
 21
78.82519971315066
 31
0.0
 12
54.8351244528703
 22
77.38519971315067
 32
0.0
 13
54.8351244528703
 23
77.38519971315067
 33
0.0
  0
MTEXT
  5
1034
330
B33
100
AcDbEntity
  8
DIM
 62
     0
100
AcDbMText
 10
54.83512445287029
 20
85.38519971315068
 30
0.0
 40
1.0
 41
0.0
 71
     5
 72
     1
  1
\A1;16.000
  7
TXT
 73
     1
 44
1.0
  0
POINT
  5
1035
330
B33
100
AcDbEntity
  8
DEFPOINTS
 62
     0
100
AcDbPoint
 10
60.10908272882963
 20
93.38519971315065
 30
0.0
  0
POINT
  5
1036
330
B33
100
AcDbEntity
  8
DEFPOINTS
 62
     0
100
AcDbPoint
 10
60.10908272882963
 20
77.38519971315067
 30
0.0
  0
POINT
  5
1037
330
B33
100
AcDbEntity
  8
DEFPOINTS
 62
     0
100
AcDbPoint
 10
54.8351244528703
 20
77.38519971315067
 30
0.0
  0
ENDBLK
  5
B3F
330
B33
100
AcDbEntity
  8
0
100
AcDbBlockEnd
  0
BLOCK
  5
B4B
330
B40
100
AcDbEntity
  8
0
100
AcDbBlockBegin
  2
*D11
 70
     1
 10
0.0
 20
0.0
 30
0.0
  3
*D11
  1

  0
LINE
  5
FA2
330
B40
100
AcDbEntity
  8
DIM
 62
     0
370
    -2
100
AcDbLine
 10
33.75842695896546
 20
47.29307805576864
 30
0.0
 11
34.03533154481735
 21
47.29307805576864
 31
0.0
  0
LINE
  5
FA3
330
B40
100
AcDbEntity
  8
DIM
 62
     0
370
    -2
100
AcDbLine
 10
33.75842695896546
 20
26.38707805576864
 30
0.0
 11
34.03533154481735
 21
26.38707805576864
 31
0.0
  0
LINE
  5
FA4
330
B40
100
AcDbEntity
  8
DIM
 62
     0
370
    -2
100
AcDbLine
 10
33.29133154481735
 20
45.85307805576864
 30
0.0
 11
33.29133154481735
 21
38.06007805576863
 31
0.0
  0
LINE
  5
FA5
330
B40
100
AcDbEntity
  8
DIM
 62
     0
370
    -2
100
AcDbLine
 10
33.29133154481735
 20
27.82707805576864
 30
0.0
 11
33.29133154481735
 21
35.62007805576863
 31
0.0
  0
SOLID
  5
FA6
330
B40
100
AcDbEntity
  8
DIM
 62
     0
100
AcDbTrace
 10
33.05133154481735
 20
45.85307805576864
 30
0.0
 11
33.53133154481735
 21
45.85307805576864
 31
0.0
 12
33.29133154481735
 22
47.29307805576864
 32
0.0
 13
33.29133154481735
 23
47.29307805576864
 33
0.0
  0
SOLID
  5
FA7
330
B40
100
AcDbEntity
  8
DIM
 62
     0
100
AcDbTrace
 10
33.05133154481735
 20
27.82707805576864
 30
0.0
 11
33.53133154481735
 21
27.82707805576864
 31
0.0
 12
33.29133154481735
 22
26.38707805576864
 32
0.0
 13
33.29133154481735
 23
26.38707805576864
 33
0.0
  0
MTEXT
  5
FA8
330
B40
100
AcDbEntity
  8
DIM
 62
     0
100
AcDbMText
 10
33.29133154481734
 20
36.84007805576864
 30
0.0
 40
1.0
 41
0.0
 71
     5
 72
     1
  1
\A1;20.906 OPENING
  7
TXT
 73
     1
 44
1.0
  0
POINT
  5
FA9
330
B40
100
AcDbEntity
  8
DEFPOINTS
 62
     0
100
AcDbPoint
 10
33.25442695896546
 20
47.29307805576864
 30
0.0
  0
POINT
  5
FAA
330
B40
100
AcDbEntity
  8
DEFPOINTS
 62
     0
100
AcDbPoint
 10
33.25442695896546
 20
26.38707805576864
 30
0.0
  0
POINT
  5
FAB
330
B40
100
AcDbEntity
  8
DEFPOINTS
 62
     0
100
AcDbPoint
 10
33.29133154481735
 20
26.38707805576864
 30
0.0
  0
ENDBLK
  5
B4C
330
B40
100
AcDbEntity
  8
0
100
AcDbBlockEnd
  0
BLOCK
  5
B58
330
B4D
100
AcDbEntity
  8
0
100
AcDbBlockBegin
  2
*D12
 70
     1
 10
0.0
 20
0.0
 30
0.0
  3
*D12
  1

  0
LINE
  5
FAC
330
B4D
100
AcDbEntity
  8
DIM
 62
     0
370
    -2
100
AcDbLine
 10
20.08081255583691
 20
42.58765189809113
 30
0.0
 11
20.08081255583691
 21
42.82765189809113
 31
0.0
  0
LINE
  5
FAD
330
B4D
100
AcDbEntity
  8
DIM
 62
     0
370
    -2
100
AcDbLine
 10
39.76881255583691
 20
42.58765189809113
 30
0.0
 11
39.76881255583691
 21
42.82765189809113
 31
0.0
  0
LINE
  5
FAE
330
B4D
100
AcDbEntity
  8
DIM
 62
     0
370
    -2
100
AcDbLine
 10
21.52081255583691
 20
42.08365189809113
 30
0.0
 11
22.32831783735632
 21
42.08365189809113
 31
0.0
  0
LINE
  5
FAF
330
B4D
100
AcDbEntity
  8
DIM
 62
     0
370
    -2
100
AcDbLine
 10
38.32881255583691
 20
42.08365189809113
 30
0.0
 11
33.01831783735632
 21
42.08365189809113
 31
0.0
  0
SOLID
  5
FB0
330
B4D
100
AcDbEntity
  8
DIM
 62
     0
100
AcDbTrace
 10
21.52081255583691
 20
42.32365189809113
 30
0.0
 11
21.52081255583691
 21
41.84365189809112
 31
0.0
 12
20.08081255583691
 22
42.08365189809113
 32
0.0
 13
20.08081255583691
 23
42.08365189809113
 33
0.0
  0
SOLID
  5
FB1
330
B4D
100
AcDbEntity
  8
DIM
 62
     0
100
AcDbTrace
 10
38.32881255583691
 20
42.32365189809113
 30
0.0
 11
38.32881255583691
 21
41.84365189809112
 31
0.0
 12
39.76881255583691
 22
42.08365189809113
 32
0.0
 13
39.76881255583691
 23
42.08365189809113
 33
0.0
  0
MTEXT
  5
FB2
330
B4D
100
AcDbEntity
  8
DIM
 62
     0
100
AcDbMText
 10
27.67331783735632
 20
42.08365189809113
 30
0.0
 40
1.0
 41
0.0
 71
     5
 72
     1
  1
\A1;19.688 OPENING
  7
TXT
 73
     1
 44
1.0
  0
POINT
  5
FB3
330
B4D
100
AcDbEntity
  8
DEFPOINTS
 62
     0
100
AcDbPoint
 10
20.08081255583691
 20
42.08365189809113
 30
0.0
  0
POINT
  5
FB4
330
B4D
100
AcDbEntity
  8
DEFPOINTS
 62
     0
100
AcDbPoint
 10
39.76881255583691
 20
42.08365189809113
 30
0.0
  0
POINT
  5
FB5
330
B4D
100
AcDbEntity
  8
DEFPOINTS
 62
     0
100
AcDbPoint
 10
39.76881255583691
 20
42.08365189809113
 30
0.0
  0
ENDBLK
  5
B59
330
B4D
100
AcDbEntity
  8
0
100
AcDbBlockEnd
  0
BLOCK
  5
B65
330
B5A
100
AcDbEntity
  8
0
100
AcDbBlockBegin
  2
*D13
 70
     1
 10
0.0
 20
0.0
 30
0.0
  3
*D13
  1

  0
LINE
  5
FC0
330
B5A
100
AcDbEntity
  8
DIM
 62
     0
370
    -2
100
AcDbLine
 10
59.12134220332205
 20
55.48803011899881
 30
0.0
 11
59.12134220332205
 21
51.63031327038797
 31
0.0
  0
LINE
  5
FC1
330
B5A
100
AcDbEntity
  8
DIM
 62
     0
370
    -2
100
AcDbLine
 10
58.43434220332205
 20
54.84256327616444
 30
0.0
 11
58.43434220332205
 21
51.63031327038797
 31
0.0
  0
LINE
  5
FC2
330
B5A
100
AcDbEntity
  8
DIM
 62
     0
370
    -2
100
AcDbLine
 10
60.56134220332205
 20
52.37431327038796
 30
0.0
 11
62.00134220332206
 21
52.37431327038796
 31
0.0
  0
LINE
  5
FC3
330
B5A
100
AcDbEntity
  8
DIM
 62
     0
370
    -2
100
AcDbLine
 10
56.99434220332205
 20
52.37431327038796
 30
0.0
 11
55.55434220332204
 21
52.37431327038796
 31
0.0
  0
SOLID
  5
FC4
330
B5A
100
AcDbEntity
  8
DIM
 62
     0
100
AcDbTrace
 10
60.56134220332205
 20
52.61431327038796
 30
0.0
 11
60.56134220332205
 21
52.13431327038796
 31
0.0
 12
59.12134220332205
 22
52.37431327038796
 32
0.0
 13
59.12134220332205
 23
52.37431327038796
 33
0.0
  0
SOLID
  5
FC5
330
B5A
100
AcDbEntity
  8
DIM
 62
     0
100
AcDbTrace
 10
56.99434220332205
 20
52.61431327038796
 30
0.0
 11
56.99434220332205
 21
52.13431327038796
 31
0.0
 12
58.43434220332205
 22
52.37431327038796
 32
0.0
 13
58.43434220332205
 23
52.37431327038796
 33
0.0
  0
MTEXT
  5
FC6
330
B5A
100
AcDbEntity
  8
DIM
 62
     0
100
AcDbMText
 10
53.39684220332205
 20
52.37431327038796
 30
0.0
 40
1.0
 41
0.0
 71
     5
 72
     1
  1
\A1;0.687
  7
TXT
 73
     1
 44
1.0
  0
POINT
  5
FC7
330
B5A
100
AcDbEntity
  8
DEFPOINTS
 62
     0
100
AcDbPoint
 10
59.12134220332205
 20
55.99203011899881
 30
0.0
  0
POINT
  5
FC8
330
B5A
100
AcDbEntity
  8
DEFPOINTS
 62
     0
100
AcDbPoint
 10
58.43434220332205
 20
55.34656327616444
 30
0.0
  0
POINT
  5
FC9
330
B5A
100
AcDbEntity
  8
DEFPOINTS
 62
     0
100
AcDbPoint
 10
58.43434220332205
 20
52.37431327038796
 30
0.0
  0
ENDBLK
  5
B66
330
B5A
100
AcDbEntity
  8
0
100
AcDbBlockEnd
  0
BLOCK
  5
B7C
330
B71
100
AcDbEntity
  8
0
100
AcDbBlockBegin
  2
*D14
 70
     1
 10
0.0
 20
0.0
 30
0.0
  3
*D14
  1

  0
LINE
  5
F46
330
B71
100
AcDbEntity
  8
DIM
 62
     0
370
    -2
100
AcDbLine
 10
15.02349128126257
 20
13.06574514431851
 30
0.0
 11
15.02349128126257
 21
18.93607447369482
 31
0.0
  0
LINE
  5
F47
330
B71
100
AcDbEntity
  8
DIM
 62
     0
370
    -2
100
AcDbLine
 10
27.52349128126258
 20
13.06574514431851
 30
0.0
 11
27.52349128126258
 21
18.93607447369482
 31
0.0
  0
LINE
  5
F48
330
B71
100
AcDbEntity
  8
DIM
 62
     0
370
    -2
100
AcDbLine
 10
16.46349128126258
 20
18.19207447369482
 30
0.0
 11
19.24099128126258
 21
18.19207447369482
 31
0.0
  0
LINE
  5
F49
330
B71
100
AcDbEntity
  8
DIM
 62
     0
370
    -2
100
AcDbLine
 10
26.08349128126258
 20
18.19207447369482
 30
0.0
 11
23.30599128126257
 21
18.19207447369482
 31
0.0
  0
SOLID
  5
F4A
330
B71
100
AcDbEntity
  8
DIM
 62
     0
100
AcDbTrace
 10
16.46349128126258
 20
18.43207447369482
 30
0.0
 11
16.46349128126258
 21
17.95207447369482
 31
0.0
 12
15.02349128126257
 22
18.19207447369482
 32
0.0
 13
15.02349128126257
 23
18.19207447369482
 33
0.0
  0
SOLID
  5
F4B
330
B71
100
AcDbEntity
  8
DIM
 62
     0
100
AcDbTrace
 10
26.08349128126258
 20
18.43207447369482
 30
0.0
 11
26.08349128126258
 21
17.95207447369482
 31
0.0
 12
27.52349128126258
 22
18.19207447369482
 32
0.0
 13
27.52349128126258
 23
18.19207447369482
 33
0.0
  0
MTEXT
  5
F4C
330
B71
100
AcDbEntity
  8
DIM
 62
     0
100
AcDbMText
 10
21.27349128126258
 20
18.19207447369482
 30
0.0
 40
1.0
 41
0.0
 71
     5
 72
     1
  1
\A1;5.000
  7
TXT
 73
     1
 44
1.0
  0
POINT
  5
F4D
330
B71
100
AcDbEntity
  8
DEFPOINTS
 62
     0
100
AcDbPoint
 10
15.02349128126257
 20
12.56174514431851
 30
0.0
  0
POINT
  5
F4E
330
B71
100
AcDbEntity
  8
DEFPOINTS
 62
     0
100
AcDbPoint
 10
27.52349128126258
 20
12.56174514431851
 30
0.0
  0
POINT
  5
F4F
330
B71
100
AcDbEntity
  8
DEFPOINTS
 62
     0
100
AcDbPoint
 10
27.52349128126258
 20
18.19207447369482
 30
0.0
  0
ENDBLK
  5
B7D
330
B71
100
AcDbEntity
  8
0
100
AcDbBlockEnd
  0
BLOCK
  5
B89
330
B7E
100
AcDbEntity
  8
0
100
AcDbBlockBegin
  2
*D15
 70
     1
 10
0.0
 20
0.0
 30
0.0
  3
*D15
  1

  0
LINE
  5
F6E
330
B7E
100
AcDbEntity
  8
DIM
 62
     0
370
    -2
100
AcDbLine
 10
47.05844802801348
 20
7.213995144318444
 30
0.0
 11
47.05844802801348
 21
2.430080049161788
 31
0.0
  0
LINE
  5
F6F
330
B7E
100
AcDbEntity
  8
DIM
 62
     0
370
    -2
100
AcDbLine
 10
45.18344802801348
 20
7.213995144318444
 30
0.0
 11
45.18344802801348
 21
2.430080049161788
 31
0.0
  0
LINE
  5
F70
330
B7E
100
AcDbEntity
  8
DIM
 62
     0
370
    -2
100
AcDbLine
 10
48.49844802801348
 20
3.174080049161788
 30
0.0
 11
49.93844802801349
 21
3.174080049161788
 31
0.0
  0
LINE
  5
F71
330
B7E
100
AcDbEntity
  8
DIM
 62
     0
370
    -2
100
AcDbLine
 10
43.74344802801348
 20
3.174080049161788
 30
0.0
 11
42.30344802801348
 21
3.174080049161788
 31
0.0
  0
SOLID
  5
F72
330
B7E
100
AcDbEntity
  8
DIM
 62
     0
100
AcDbTrace
 10
48.49844802801348
 20
3.414080049161788
 30
0.0
 11
48.49844802801348
 21
2.934080049161788
 31
0.0
 12
47.05844802801348
 22
3.174080049161788
 32
0.0
 13
47.05844802801348
 23
3.174080049161788
 33
0.0
  0
SOLID
  5
F73
330
B7E
100
AcDbEntity
  8
DIM
 62
     0
100
AcDbTrace
 10
43.74344802801348
 20
3.414080049161788
 30
0.0
 11
43.74344802801348
 21
2.934080049161788
 31
0.0
 12
45.18344802801348
 22
3.174080049161788
 32
0.0
 13
45.18344802801348
 23
3.174080049161788
 33
0.0
  0
MTEXT
  5
F74
330
B7E
100
AcDbEntity
  8
DIM
 62
     0
100
AcDbMText
 10
40.20844802801348
 20
3.174080049161788
 30
0.0
 40
1.0
 41
0.0
 71
     5
 72
     1
  1
\A1;0.750
  7
TXT
 73
     1
 44
1.0
  0
POINT
  5
F75
330
B7E
100
AcDbEntity
  8
DEFPOINTS
 62
     0
100
AcDbPoint
 10
47.05844802801348
 20
7.717995144318443
 30
0.0
  0
POINT
  5
F76
330
B7E
100
AcDbEntity
  8
DEFPOINTS
 62
     0
100
AcDbPoint
 10
45.18344802801348
 20
7.717995144318443
 30
0.0
  0
POINT
  5
F77
330
B7E
100
AcDbEntity
  8
DEFPOINTS
 62
     0
100
AcDbPoint
 10
45.18344802801348
 20
3.174080049161788
 30
0.0
  0
ENDBLK
  5
B8A
330
B7E
100
AcDbEntity
  8
0
100
AcDbBlockEnd
  0
BLOCK
  5
B97
330
B8B
100
AcDbEntity
  8
0
100
AcDbBlockBegin
  2
*D16
 70
     1
 10
0.0
 20
0.0
 30
0.0
  3
*D16
  1

  0
LINE
  5
F97
330
B8B
100
AcDbEntity
  8
DIM
 62
     0
370
    -2
100
AcDbLine
 10
44.67944802801349
 20
8.811745144318514
 30
0.0
 11
41.45661940015233
 21
8.811745144318516
 31
0.0
  0
LINE
  5
F98
330
B8B
100
AcDbEntity
  8
DIM
 62
     0
370
    -2
100
AcDbLine
 10
44.83569802801349
 20
7.561745144318443
 30
0.0
 11
41.45661940015233
 21
7.561745144318444
 31
0.0
  0
LINE
  5
F99
330
B8B
100
AcDbEntity
  8
DIM
 62
     0
370
    -2
100
AcDbLine
 10
42.20061940015233
 20
10.25174514431851
 30
0.0
 11
42.20061940015233
 21
11.69174514431851
 31
0.0
  0
LINE
  5
F9A
330
B8B
100
AcDbEntity
  8
DIM
 62
     0
370
    -2
100
AcDbLine
 10
42.20061940015233
 20
6.121745144318443
 30
0.0
 11
42.20061940015233
 21
4.681745144318443
 31
0.0
  0
LINE
  5
F9B
330
B8B
100
AcDbEntity
  8
DIM
 62
     0
370
    -2
100
AcDbLine
 10
42.20061940015233
 20
4.681745144318443
 30
0.0
 11
40.76061940015233
 21
4.681745144318444
 31
0.0
  0
SOLID
  5
F9C
330
B8B
100
AcDbEntity
  8
DIM
 62
     0
100
AcDbTrace
 10
41.96061940015233
 20
10.25174514431851
 30
0.0
 11
42.44061940015233
 21
10.25174514431851
 31
0.0
 12
42.20061940015233
 22
8.811745144318516
 32
0.0
 13
42.20061940015233
 23
8.811745144318516
 33
0.0
  0
SOLID
  5
F9D
330
B8B
100
AcDbEntity
  8
DIM
 62
     0
100
AcDbTrace
 10
41.96061940015233
 20
6.121745144318444
 30
0.0
 11
42.44061940015233
 21
6.121745144318443
 31
0.0
 12
42.20061940015233
 22
7.561745144318443
 32
0.0
 13
42.20061940015233
 23
7.561745144318443
 33
0.0
  0
MTEXT
  5
F9E
330
B8B
100
AcDbEntity
  8
DIM
 62
     0
100
AcDbMText
 10
38.72811940015234
 20
4.68174514431845
 30
0.0
 40
1.0
 41
0.0
 71
     5
 72
     1
  1
\A1;0.500
  7
TXT
 73
     1
 44
1.0
  0
POINT
  5
F9F
330
B8B
100
AcDbEntity
  8
DEFPOINTS
 62
     0
100
AcDbPoint
 10
45.18344802801348
 20
8.811745144318514
 30
0.0
  0
POINT
  5
FA0
330
B8B
100
AcDbEntity
  8
DEFPOINTS
 62
     0
100
AcDbPoint
 10
45.33969802801348
 20
7.561745144318443
 30
0.0
  0
POINT
  5
FA1
330
B8B
100
AcDbEntity
  8
DEFPOINTS
 62
     0
100
AcDbPoint
 10
42.20061940015233
 20
7.561745144318443
 30
0.0
  0
ENDBLK
  5
B98
330
B8B
100
AcDbEntity
  8
0
100
AcDbBlockEnd
  0
BLOCK
  5
BA4
330
B99
100
AcDbEntity
  8
0
100
AcDbBlockBegin
  2
*D17
 70
     1
 10
0.0
 20
0.0
 30
0.0
  3
*D17
  1

  0
LINE
  5
F50
330
B99
100
AcDbEntity
  8
DIM
 62
     0
370
    -2
100
AcDbLine
 10
29.37434327805201
 20
5.373063241107926
 30
0.0
 11
29.37434327805201
 21
2.430080049161788
 31
0.0
  0
LINE
  5
F51
330
B99
100
AcDbEntity
  8
DIM
 62
     0
370
    -2
100
AcDbLine
 10
13.17263928447312
 20
5.373063241107926
 30
0.0
 11
13.17263928447312
 21
2.430080049161788
 31
0.0
  0
LINE
  5
F52
330
B99
100
AcDbEntity
  8
DIM
 62
     0
370
    -2
100
AcDbLine
 10
27.93434327805201
 20
3.174080049161788
 30
0.0
 11
24.99349128126256
 21
3.174080049161788
 31
0.0
  0
LINE
  5
F53
330
B99
100
AcDbEntity
  8
DIM
 62
     0
370
    -2
100
AcDbLine
 10
14.61263928447312
 20
3.174080049161788
 30
0.0
 11
17.55349128126256
 21
3.174080049161788
 31
0.0
  0
SOLID
  5
F54
330
B99
100
AcDbEntity
  8
DIM
 62
     0
100
AcDbTrace
 10
27.93434327805201
 20
3.414080049161788
 30
0.0
 11
27.93434327805201
 21
2.934080049161788
 31
0.0
 12
29.37434327805201
 22
3.174080049161788
 32
0.0
 13
29.37434327805201
 23
3.174080049161788
 33
0.0
  0
SOLID
  5
F55
330
B99
100
AcDbEntity
  8
DIM
 62
     0
100
AcDbTrace
 10
14.61263928447312
 20
3.414080049161788
 30
0.0
 11
14.61263928447312
 21
2.934080049161788
 31
0.0
 12
13.17263928447312
 22
3.174080049161788
 32
0.0
 13
13.17263928447312
 23
3.174080049161788
 33
0.0
  0
MTEXT
  5
F56
330
B99
100
AcDbEntity
  8
DIM
 62
     0
100
AcDbMText
 10
21.27349128126256
 20
3.174080049161788
 30
0.0
 40
1.0
 41
0.0
 71
     5
 72
     1
  1
\A1;6.481 REF.
  7
TXT
 73
     1
 44
1.0
  0
POINT
  5
F57
330
B99
100
AcDbEntity
  8
DEFPOINTS
 62
     0
100
AcDbPoint
 10
29.37434327805201
 20
5.877063241107926
 30
0.0
  0
POINT
  5
F58
330
B99
100
AcDbEntity
  8
DEFPOINTS
 62
     0
100
AcDbPoint
 10
13.17263928447312
 20
5.877063241107926
 30
0.0
  0
POINT
  5
F59
330
B99
100
AcDbEntity
  8
DEFPOINTS
 62
     0
100
AcDbPoint
 10
13.17263928447312
 20
3.174080049161788
 30
0.0
  0
ENDBLK
  5
BA5
330
B99
100
AcDbEntity
  8
0
100
AcDbBlockEnd
  0
BLOCK
  5
BB2
330
BA6
100
AcDbEntity
  8
0
100
AcDbBlockBegin
  2
*D18
 70
     1
 10
0.0
 20
0.0
 30
0.0
  3
*D18
  1

  0
LINE
  5
F82
330
BA6
100
AcDbEntity
  8
DIM
 62
     0
370
    -2
100
AcDbLine
 10
24.90249128126258
 20
11.93674514431851
 30
0.0
 11
32.59523402375819
 21
11.93674514431851
 31
0.0
  0
LINE
  5
F83
330
BA6
100
AcDbEntity
  8
DIM
 62
     0
370
    -2
100
AcDbLine
 10
28.02749128126258
 20
12.56174514431851
 30
0.0
 11
32.59523402375819
 21
12.56174514431851
 31
0.0
  0
LINE
  5
F84
330
BA6
100
AcDbEntity
  8
DIM
 62
     0
370
    -2
100
AcDbLine
 10
31.85123402375819
 20
10.49674514431851
 30
0.0
 11
31.85123402375819
 21
9.056745144318512
 31
0.0
  0
LINE
  5
F85
330
BA6
100
AcDbEntity
  8
DIM
 62
     0
370
    -2
100
AcDbLine
 10
31.85123402375819
 20
14.00174514431851
 30
0.0
 11
31.85123402375819
 21
15.44174514431851
 31
0.0
  0
LINE
  5
F86
330
BA6
100
AcDbEntity
  8
DIM
 62
     0
370
    -2
100
AcDbLine
 10
31.85123402375819
 20
15.44174514431851
 30
0.0
 11
33.29123402375819
 21
15.44174514431851
 31
0.0
  0
SOLID
  5
F87
330
BA6
100
AcDbEntity
  8
DIM
 62
     0
100
AcDbTrace
 10
31.61123402375819
 20
10.49674514431851
 30
0.0
 11
32.09123402375819
 21
10.49674514431851
 31
0.0
 12
31.85123402375819
 22
11.93674514431851
 32
0.0
 13
31.85123402375819
 23
11.93674514431851
 33
0.0
  0
SOLID
  5
F88
330
BA6
100
AcDbEntity
  8
DIM
 62
     0
100
AcDbTrace
 10
31.61123402375819
 20
14.00174514431851
 30
0.0
 11
32.09123402375819
 21
14.00174514431851
 31
0.0
 12
31.85123402375819
 22
12.56174514431851
 32
0.0
 13
31.85123402375819
 23
12.56174514431851
 33
0.0
  0
MTEXT
  5
F89
330
BA6
100
AcDbEntity
  8
DIM
 62
     0
100
AcDbMText
 10
35.38623402375819
 20
15.44174514431851
 30
0.0
 40
1.0
 41
0.0
 71
     5
 72
     1
  1
\A1;0.250
  7
TXT
 73
     1
 44
1.0
  0
POINT
  5
F8A
330
BA6
100
AcDbEntity
  8
DEFPOINTS
 62
     0
100
AcDbPoint
 10
24.39849128126258
 20
11.93674514431851
 30
0.0
  0
POINT
  5
F8B
330
BA6
100
AcDbEntity
  8
DEFPOINTS
 62
     0
100
AcDbPoint
 10
27.52349128126258
 20
12.56174514431851
 30
0.0
  0
POINT
  5
F8C
330
BA6
100
AcDbEntity
  8
DEFPOINTS
 62
     0
100
AcDbPoint
 10
31.85123402375819
 20
12.56174514431851
 30
0.0
  0
ENDBLK
  5
BB3
330
BA6
100
AcDbEntity
  8
0
100
AcDbBlockEnd
  0
BLOCK
  5
BBF
330
BB4
100
AcDbEntity
  8
0
100
AcDbBlockBegin
  2
*D19
 70
     1
 10
0.0
 20
0.0
 30
0.0
  3
*D19
  1

  0
LINE
  5
F64
330
BB4
100
AcDbEntity
  8
DIM
 62
     0
370
    -2
100
AcDbLine
 10
18.14849128126257
 20
12.44074514431851
 30
0.0
 11
18.14849128126257
 21
17.10137160664566
 31
0.0
  0
LINE
  5
F65
330
BB4
100
AcDbEntity
  8
DIM
 62
     0
370
    -2
100
AcDbLine
 10
15.02349128126257
 20
13.06574514431851
 30
0.0
 11
15.02349128126257
 21
17.10137160664566
 31
0.0
  0
LINE
  5
F66
330
BB4
100
AcDbEntity
  8
DIM
 62
     0
370
    -2
100
AcDbLine
 10
19.58849128126258
 20
16.35737160664566
 30
0.0
 11
21.02849128126258
 21
16.35737160664566
 31
0.0
  0
LINE
  5
F67
330
BB4
100
AcDbEntity
  8
DIM
 62
     0
370
    -2
100
AcDbLine
 10
13.58349128126258
 20
16.35737160664566
 30
0.0
 11
12.14349128126258
 21
16.35737160664566
 31
0.0
  0
SOLID
  5
F68
330
BB4
100
AcDbEntity
  8
DIM
 62
     0
100
AcDbTrace
 10
19.58849128126258
 20
16.59737160664566
 30
0.0
 11
19.58849128126258
 21
16.11737160664566
 31
0.0
 12
18.14849128126257
 22
16.35737160664566
 32
0.0
 13
18.14849128126257
 23
16.35737160664566
 33
0.0
  0
SOLID
  5
F69
330
BB4
100
AcDbEntity
  8
DIM
 62
     0
100
AcDbTrace
 10
13.58349128126258
 20
16.59737160664566
 30
0.0
 11
13.58349128126258
 21
16.11737160664566
 31
0.0
 12
15.02349128126257
 22
16.35737160664566
 32
0.0
 13
15.02349128126257
 23
16.35737160664566
 33
0.0
  0
MTEXT
  5
F6A
330
BB4
100
AcDbEntity
  8
DIM
 62
     0
100
AcDbMText
 10
10.11099128126258
 20
16.35737160664566
 30
0.0
 40
1.0
 41
0.0
 71
     5
 72
     1
  1
\A1;1.250
  7
TXT
 73
     1
 44
1.0
  0
POINT
  5
F6B
330
BB4
100
AcDbEntity
  8
DEFPOINTS
 62
     0
100
AcDbPoint
 10
18.14849128126257
 20
11.93674514431851
 30
0.0
  0
POINT
  5
F6C
330
BB4
100
AcDbEntity
  8
DEFPOINTS
 62
     0
100
AcDbPoint
 10
15.02349128126257
 20
12.56174514431851
 30
0.0
  0
POINT
  5
F6D
330
BB4
100
AcDbEntity
  8
DEFPOINTS
 62
     0
100
AcDbPoint
 10
15.02349128126257
 20
16.35737160664566
 30
0.0
  0
ENDBLK
  5
BC0
330
BB4
100
AcDbEntity
  8
0
100
AcDbBlockEnd
  0
BLOCK
  5
BCC
330
BC1
100
AcDbEntity
  8
0
100
AcDbBlockBegin
  2
*D20
 70
     1
 10
0.0
 20
0.0
 30
0.0
  3
*D20
  1

  0
LINE
  5
F8D
330
BC1
100
AcDbEntity
  8
DIM
 62
     0
370
    -2
100
AcDbLine
 10
29.79525823126259
 20
5.793978194318508
 30
0.0
 11
36.5165846889524
 21
5.793978194318507
 31
0.0
  0
LINE
  5
F8E
330
BC1
100
AcDbEntity
  8
DIM
 62
     0
370
    -2
100
AcDbLine
 10
28.02749128126258
 20
12.56174514431851
 30
0.0
 11
36.5165846889524
 21
12.56174514431851
 31
0.0
  0
LINE
  5
F8F
330
BC1
100
AcDbEntity
  8
DIM
 62
     0
370
    -2
100
AcDbLine
 10
35.7725846889524
 20
7.233978194318507
 30
0.0
 11
35.7725846889524
 21
7.957861669318509
 31
0.0
  0
LINE
  5
F90
330
BC1
100
AcDbEntity
  8
DIM
 62
     0
370
    -2
100
AcDbLine
 10
35.7725846889524
 20
11.12174514431851
 30
0.0
 11
35.7725846889524
 21
10.39786166931851
 31
0.0
  0
SOLID
  5
F91
330
BC1
100
AcDbEntity
  8
DIM
 62
     0
100
AcDbTrace
 10
35.5325846889524
 20
7.233978194318507
 30
0.0
 11
36.0125846889524
 21
7.233978194318507
 31
0.0
 12
35.7725846889524
 22
5.793978194318507
 32
0.0
 13
35.7725846889524
 23
5.793978194318507
 33
0.0
  0
SOLID
  5
F92
330
BC1
100
AcDbEntity
  8
DIM
 62
     0
100
AcDbTrace
 10
35.5325846889524
 20
11.12174514431851
 30
0.0
 11
36.0125846889524
 21
11.12174514431851
 31
0.0
 12
35.7725846889524
 22
12.56174514431851
 32
0.0
 13
35.7725846889524
 23
12.56174514431851
 33
0.0
  0
MTEXT
  5
F93
330
BC1
100
AcDbEntity
  8
DIM
 62
     0
100
AcDbMText
 10
35.7725846889524
 20
9.177861669318515
 30
0.0
 40
1.0
 41
0.0
 71
     5
 72
     1
  1
\A1;2.707 REF.
  7
TXT
 73
     1
 44
1.0
  0
POINT
  5
F94
330
BC1
100
AcDbEntity
  8
DEFPOINTS
 62
     0
100
AcDbPoint
 10
29.29125823126259
 20
5.793978194318508
 30
0.0
  0
POINT
  5
F95
330
BC1
100
AcDbEntity
  8
DEFPOINTS
 62
     0
100
AcDbPoint
 10
27.52349128126258
 20
12.56174514431851
 30
0.0
  0
POINT
  5
F96
330
BC1
100
AcDbEntity
  8
DEFPOINTS
 62
     0
100
AcDbPoint
 10
35.7725846889524
 20
12.56174514431851
 30
0.0
  0
ENDBLK
  5
BCD
330
BC1
100
AcDbEntity
  8
0
100
AcDbBlockEnd
  0
BLOCK
  5
BD9
330
BCE
100
AcDbEntity
  8
0
100
AcDbBlockBegin
  2
*D21
 70
     1
 10
0.0
 20
0.0
 30
0.0
  3
*D21
  1

  0
LINE
  5
F78
330
BCE
100
AcDbEntity
  8
DIM
 62
     0
370
    -2
100
AcDbLine
 10
47.40619802801348
 20
7.561745144318514
 30
0.0
 11
50.78632175565306
 21
7.561745144318513
 31
0.0
  0
LINE
  5
F79
330
BCE
100
AcDbEntity
  8
DIM
 62
     0
370
    -2
100
AcDbLine
 10
47.56244802801348
 20
12.56174514431851
 30
0.0
 11
50.78632175565306
 21
12.56174514431851
 31
0.0
  0
LINE
  5
F7A
330
BCE
100
AcDbEntity
  8
DIM
 62
     0
370
    -2
100
AcDbLine
 10
50.04232175565306
 20
6.121745144318514
 30
0.0
 11
50.04232175565306
 21
4.681745144318513
 31
0.0
  0
LINE
  5
F7B
330
BCE
100
AcDbEntity
  8
DIM
 62
     0
370
    -2
100
AcDbLine
 10
50.04232175565306
 20
14.00174514431851
 30
0.0
 11
50.04232175565306
 21
15.44174514431851
 31
0.0
  0
SOLID
  5
F7C
330
BCE
100
AcDbEntity
  8
DIM
 62
     0
100
AcDbTrace
 10
49.80232175565306
 20
6.121745144318515
 30
0.0
 11
50.28232175565307
 21
6.121745144318514
 31
0.0
 12
50.04232175565306
 22
7.561745144318513
 32
0.0
 13
50.04232175565306
 23
7.561745144318513
 33
0.0
  0
SOLID
  5
F7D
330
BCE
100
AcDbEntity
  8
DIM
 62
     0
100
AcDbTrace
 10
49.80232175565306
 20
14.00174514431851
 30
0.0
 11
50.28232175565307
 21
14.00174514431851
 31
0.0
 12
50.04232175565306
 22
12.56174514431851
 32
0.0
 13
50.04232175565306
 23
12.56174514431851
 33
0.0
  0
MTEXT
  5
F7E
330
BCE
100
AcDbEntity
  8
DIM
 62
     0
100
AcDbMText
 10
50.04232175565306
 20
10.06174514431852
 30
0.0
 40
1.0
 41
0.0
 71
     5
 72
     1
  1
\A1;2.000
  7
TXT
 73
     1
 44
1.0
  0
POINT
  5
F7F
330
BCE
100
AcDbEntity
  8
DEFPOINTS
 62
     0
100
AcDbPoint
 10
46.90219802801348
 20
7.561745144318514
 30
0.0
  0
POINT
  5
F80
330
BCE
100
AcDbEntity
  8
DEFPOINTS
 62
     0
100
AcDbPoint
 10
47.05844802801348
 20
12.56174514431851
 30
0.0
  0
POINT
  5
F81
330
BCE
100
AcDbEntity
  8
DEFPOINTS
 62
     0
100
AcDbPoint
 10
50.04232175565306
 20
12.56174514431851
 30
0.0
  0
ENDBLK
  5
BDA
330
BCE
100
AcDbEntity
  8
0
100
AcDbBlockEnd
  0
BLOCK
  5
BE6
330
BDB
100
AcDbEntity
  8
0
100
AcDbBlockBegin
  2
*D22
 70
     1
 10
0.0
 20
0.0
 30
0.0
  3
*D22
  1

  0
LINE
  5
F5A
330
BDB
100
AcDbEntity
  8
DIM
 62
     0
370
    -2
100
AcDbLine
 10
24.39849128126258
 20
12.44074514431851
 30
0.0
 11
24.39849128126258
 21
15.38490422192638
 31
0.0
  0
LINE
  5
F5B
330
BDB
100
AcDbEntity
  8
DIM
 62
     0
370
    -2
100
AcDbLine
 10
18.14849128126257
 20
12.44074514431851
 30
0.0
 11
18.14849128126257
 21
15.38490422192638
 31
0.0
  0
LINE
  5
F5C
330
BDB
100
AcDbEntity
  8
DIM
 62
     0
370
    -2
100
AcDbLine
 10
25.83849128126258
 20
14.64090422192638
 30
0.0
 11
27.27849128126258
 21
14.64090422192638
 31
0.0
  0
LINE
  5
F5D
330
BDB
100
AcDbEntity
  8
DIM
 62
     0
370
    -2
100
AcDbLine
 10
16.70849128126257
 20
14.64090422192638
 30
0.0
 11
15.26849128126258
 21
14.64090422192638
 31
0.0
  0
SOLID
  5
F5E
330
BDB
100
AcDbEntity
  8
DIM
 62
     0
100
AcDbTrace
 10
25.83849128126258
 20
14.88090422192638
 30
0.0
 11
25.83849128126258
 21
14.40090422192638
 31
0.0
 12
24.39849128126258
 22
14.64090422192638
 32
0.0
 13
24.39849128126258
 23
14.64090422192638
 33
0.0
  0
SOLID
  5
F5F
330
BDB
100
AcDbEntity
  8
DIM
 62
     0
100
AcDbTrace
 10
16.70849128126257
 20
14.88090422192638
 30
0.0
 11
16.70849128126257
 21
14.40090422192638
 31
0.0
 12
18.14849128126257
 22
14.64090422192638
 32
0.0
 13
18.14849128126257
 23
14.64090422192638
 33
0.0
  0
MTEXT
  5
F60
330
BDB
100
AcDbEntity
  8
DIM
 62
     0
100
AcDbMText
 10
21.27349128126258
 20
14.64090422192638
 30
0.0
 40
1.0
 41
0.0
 71
     5
 72
     1
  1
\A1;2.500
  7
TXT
 73
     1
 44
1.0
  0
POINT
  5
F61
330
BDB
100
AcDbEntity
  8
DEFPOINTS
 62
     0
100
AcDbPoint
 10
24.39849128126258
 20
11.93674514431851
 30
0.0
  0
POINT
  5
F62
330
BDB
100
AcDbEntity
  8
DEFPOINTS
 62
     0
100
AcDbPoint
 10
18.14849128126257
 20
11.93674514431851
 30
0.0
  0
POINT
  5
F63
330
BDB
100
AcDbEntity
  8
DEFPOINTS
 62
     0
100
AcDbPoint
 10
18.14849128126257
 20
14.64090422192638
 30
0.0
  0
ENDBLK
  5
BE7
330
BDB
100
AcDbEntity
  8
0
100
AcDbBlockEnd
  0
BLOCK
  5
BF3
330
BE8
100
AcDbEntity
  8
0
100
AcDbBlockBegin
  2
*D23
 70
     1
 10
0.0
 20
0.0
 30
0.0
  3
*D23
  1

  0
LINE
  5
F3C
330
BE8
100
AcDbEntity
  8
DIM
 62
     0
370
    -2
100
AcDbLine
 10
57.93034220332205
 20
60.24656327616444
 30
0.0
 11
50.76552690427135
 21
60.24656327616444
 31
0.0
  0
LINE
  5
F3D
330
BE8
100
AcDbEntity
  8
DIM
 62
     0
370
    -2
100
AcDbLine
 10
57.93034220332205
 20
55.34656327616444
 30
0.0
 11
50.76552690427135
 21
55.34656327616444
 31
0.0
  0
LINE
  5
F3E
330
BE8
100
AcDbEntity
  8
DIM
 62
     0
370
    -2
100
AcDbLine
 10
51.50952690427136
 20
61.68656327616444
 30
0.0
 11
51.50952690427136
 21
63.12656327616444
 31
0.0
  0
LINE
  5
F3F
330
BE8
100
AcDbEntity
  8
DIM
 62
     0
370
    -2
100
AcDbLine
 10
51.50952690427136
 20
53.90656327616444
 30
0.0
 11
51.50952690427136
 21
52.46656327616443
 31
0.0
  0
SOLID
  5
F40
330
BE8
100
AcDbEntity
  8
DIM
 62
     0
100
AcDbTrace
 10
51.26952690427135
 20
61.68656327616444
 30
0.0
 11
51.74952690427136
 21
61.68656327616444
 31
0.0
 12
51.50952690427136
 22
60.24656327616444
 32
0.0
 13
51.50952690427136
 23
60.24656327616444
 33
0.0
  0
SOLID
  5
F41
330
BE8
100
AcDbEntity
  8
DIM
 62
     0
100
AcDbTrace
 10
51.26952690427135
 20
53.90656327616444
 30
0.0
 11
51.74952690427136
 21
53.90656327616444
 31
0.0
 12
51.50952690427136
 22
55.34656327616444
 32
0.0
 13
51.50952690427136
 23
55.34656327616444
 33
0.0
  0
MTEXT
  5
F42
330
BE8
100
AcDbEntity
  8
DIM
 62
     0
100
AcDbMText
 10
51.50952690427134
 20
57.79656327616446
 30
0.0
 40
1.0
 41
0.0
 71
     5
 72
     1
  1
\A1;4.900
  7
TXT
 73
     1
 44
1.0
  0
POINT
  5
F43
330
BE8
100
AcDbEntity
  8
DEFPOINTS
 62
     0
100
AcDbPoint
 10
58.43434220332205
 20
60.24656327616444
 30
0.0
  0
POINT
  5
F44
330
BE8
100
AcDbEntity
  8
DEFPOINTS
 62
     0
100
AcDbPoint
 10
58.43434220332205
 20
55.34656327616444
 30
0.0
  0
POINT
  5
F45
330
BE8
100
AcDbEntity
  8
DEFPOINTS
 62
     0
100
AcDbPoint
 10
51.50952690427136
 20
55.34656327616444
 30
0.0
  0
ENDBLK
  5
BF4
330
BE8
100
AcDbEntity
  8
0
100
AcDbBlockEnd
  0
BLOCK
  5
C00
330
BF5
100
AcDbEntity
  8
0
100
AcDbBlockBegin
  2
*D24
 70
     1
 10
0.0
 20
0.0
 30
0.0
  3
*D24
  1

  0
LINE
  5
FE8
330
BF5
100
AcDbEntity
  8
DIM
 62
     0
370
    -2
100
AcDbLine
 10
50.33439100867394
 20
96.4051997131507
 30
0.0
 11
50.33439100867394
 21
99.29175716247801
 31
0.0
  0
LINE
  5
FE9
330
BF5
100
AcDbEntity
  8
DIM
 62
     0
370
    -2
100
AcDbLine
 10
44.02226600867393
 20
95.90519971315066
 30
0.0
 11
44.02226600867393
 21
99.29175716247801
 31
0.0
  0
LINE
  5
FEA
330
BF5
100
AcDbEntity
  8
DIM
 62
     0
370
    -2
100
AcDbLine
 10
51.77439100867395
 20
98.547757162478
 30
0.0
 11
53.21439100867395
 21
98.547757162478
 31
0.0
  0
LINE
  5
FEB
330
BF5
100
AcDbEntity
  8
DIM
 62
     0
370
    -2
100
AcDbLine
 10
42.58226600867394
 20
98.547757162478
 30
0.0
 11
41.14226600867393
 21
98.547757162478
 31
0.0
  0
SOLID
  5
FEC
330
BF5
100
AcDbEntity
  8
DIM
 62
     0
100
AcDbTrace
 10
51.77439100867395
 20
98.78775716247801
 30
0.0
 11
51.77439100867395
 21
98.30775716247801
 31
0.0
 12
50.33439100867394
 22
98.547757162478
 32
0.0
 13
50.33439100867394
 23
98.547757162478
 33
0.0
  0
SOLID
  5
FED
330
BF5
100
AcDbEntity
  8
DIM
 62
     0
100
AcDbTrace
 10
42.58226600867394
 20
98.78775716247801
 30
0.0
 11
42.58226600867394
 21
98.30775716247801
 31
0.0
 12
44.02226600867393
 22
98.547757162478
 32
0.0
 13
44.02226600867393
 23
98.547757162478
 33
0.0
  0
MTEXT
  5
FEE
330
BF5
100
AcDbEntity
  8
DIM
 62
     0
100
AcDbMText
 10
47.17832850867394
 20
98.547757162478
 30
0.0
 40
1.0
 41
0.0
 71
     5
 72
     1
  1
\A1;6.312
  7
TXT
 73
     1
 44
1.0
  0
POINT
  5
FEF
330
BF5
100
AcDbEntity
  8
DEFPOINTS
 62
     0
100
AcDbPoint
 10
50.33439100867394
 20
95.90119971315068
 30
0.0
  0
POINT
  5
FF0
330
BF5
100
AcDbEntity
  8
DEFPOINTS
 62
     0
100
AcDbPoint
 10
44.02226600867393
 20
95.40119971315066
 30
0.0
  0
POINT
  5
FF1
330
BF5
100
AcDbEntity
  8
DEFPOINTS
 62
     0
100
AcDbPoint
 10
44.02226600867393
 20
98.547757162478
 30
0.0
  0
ENDBLK
  5
C01
330
BF5
100
AcDbEntity
  8
0
100
AcDbBlockEnd
  0
BLOCK
  5
C0D
330
C02
100
AcDbEntity
  8
0
100
AcDbBlockBegin
  2
*D25
 70
     1
 10
0.0
 20
0.0
 30
0.0
  3
*D25
  1

  0
LINE
  5
1042
330
C02
100
AcDbEntity
  8
DIM
 62
     0
370
    -2
100
AcDbLine
 10
76.3230827288297
 20
94.10319971315066
 30
0.0
 11
70.39109538087237
 21
94.10319971315066
 31
0.0
  0
LINE
  5
1043
330
C02
100
AcDbEntity
  8
DIM
 62
     0
370
    -2
100
AcDbLine
 10
76.3230827288297
 20
92.66719971315065
 30
0.0
 11
70.39109538087237
 21
92.66719971315065
 31
0.0
  0
LINE
  5
1044
330
C02
100
AcDbEntity
  8
DIM
 62
     0
370
    -2
100
AcDbLine
 10
71.13509538087237
 20
95.54319971315065
 30
0.0
 11
71.13509538087239
 21
96.98319971315065
 31
0.0
  0
LINE
  5
1045
330
C02
100
AcDbEntity
  8
DIM
 62
     0
370
    -2
100
AcDbLine
 10
71.13509538087237
 20
91.22719971315065
 30
0.0
 11
71.13509538087237
 21
89.78719971315065
 31
0.0
  0
SOLID
  5
1046
330
C02
100
AcDbEntity
  8
DIM
 62
     0
100
AcDbTrace
 10
70.89509538087238
 20
95.54319971315065
 30
0.0
 11
71.37509538087236
 21
95.54319971315065
 31
0.0
 12
71.13509538087237
 22
94.10319971315066
 32
0.0
 13
71.13509538087237
 23
94.10319971315066
 33
0.0
  0
SOLID
  5
1047
330
C02
100
AcDbEntity
  8
DIM
 62
     0
100
AcDbTrace
 10
70.89509538087238
 20
91.22719971315065
 30
0.0
 11
71.37509538087236
 21
91.22719971315065
 31
0.0
 12
71.13509538087237
 22
92.66719971315065
 32
0.0
 13
71.13509538087237
 23
92.66719971315065
 33
0.0
  0
MTEXT
  5
1048
330
C02
100
AcDbEntity
  8
DIM
 62
     0
100
AcDbMText
 10
71.13509538087235
 20
93.38519971315067
 30
0.0
 40
1.0
 41
0.0
 71
     5
 72
     1
  1
\A1;1.436 TYP.
  7
TXT
 73
     1
 44
1.0
  0
POINT
  5
1049
330
C02
100
AcDbEntity
  8
DEFPOINTS
 62
     0
100
AcDbPoint
 10
76.82708272882971
 20
94.10319971315066
 30
0.0
  0
POINT
  5
104A
330
C02
100
AcDbEntity
  8
DEFPOINTS
 62
     0
100
AcDbPoint
 10
76.82708272882971
 20
92.66719971315065
 30
0.0
  0
POINT
  5
104B
330
C02
100
AcDbEntity
  8
DEFPOINTS
 62
     0
100
AcDbPoint
 10
71.13509538087237
 20
92.66719971315065
 30
0.0
  0
ENDBLK
  5
C0E
330
C02
100
AcDbEntity
  8
0
100
AcDbBlockEnd
  0
BLOCK
  5
C1A
330
C0F
100
AcDbEntity
  8
0
100
AcDbBlockBegin
  2
*D26
 70
     1
 10
0.0
 20
0.0
 30
0.0
  3
*D26
  1

  0
LINE
  5
1038
330
C0F
100
AcDbEntity
  8
DIM
 62
     0
370
    -2
100
AcDbLine
 10
59.60508272882964
 20
93.38519971315065
 30
0.0
 11
54.0911244528703
 21
93.38519971315065
 31
0.0
  0
LINE
  5
1039
330
C0F
100
AcDbEntity
  8
DIM
 62
     0
370
    -2
100
AcDbLine
 10
57.19808272882962
 20
95.90119971315067
 30
0.0
 11
54.0911244528703
 21
95.90119971315067
 31
0.0
  0
LINE
  5
103A
330
C0F
100
AcDbEntity
  8
DIM
 62
     0
370
    -2
100
AcDbLine
 10
54.8351244528703
 20
91.94519971315065
 30
0.0
 11
54.8351244528703
 21
90.50519971315067
 31
0.0
  0
LINE
  5
103B
330
C0F
100
AcDbEntity
  8
DIM
 62
     0
370
    -2
100
AcDbLine
 10
54.8351244528703
 20
97.34119971315067
 30
0.0
 11
54.8351244528703
 21
98.78119971315067
 31
0.0
  0
SOLID
  5
103C
330
C0F
100
AcDbEntity
  8
DIM
 62
     0
100
AcDbTrace
 10
54.5951244528703
 20
91.94519971315065
 30
0.0
 11
55.0751244528703
 21
91.94519971315065
 31
0.0
 12
54.8351244528703
 22
93.38519971315065
 32
0.0
 13
54.8351244528703
 23
93.38519971315065
 33
0.0
  0
SOLID
  5
103D
330
C0F
100
AcDbEntity
  8
DIM
 62
     0
100
AcDbTrace
 10
54.5951244528703
 20
97.34119971315067
 30
0.0
 11
55.0751244528703
 21
97.34119971315067
 31
0.0
 12
54.8351244528703
 22
95.90119971315067
 32
0.0
 13
54.8351244528703
 23
95.90119971315067
 33
0.0
  0
MTEXT
  5
103E
330
C0F
100
AcDbEntity
  8
DIM
 62
     0
100
AcDbMText
 10
54.83512445287029
 20
94.64319971315068
 30
0.0
 40
1.0
 41
0.0
 71
     5
 72
     1
  1
\A1;2.516
  7
TXT
 73
     1
 44
1.0
  0
POINT
  5
103F
330
C0F
100
AcDbEntity
  8
DEFPOINTS
 62
     0
100
AcDbPoint
 10
60.10908272882963
 20
93.38519971315065
 30
0.0
  0
POINT
  5
1040
330
C0F
100
AcDbEntity
  8
DEFPOINTS
 62
     0
100
AcDbPoint
 10
57.70208272882962
 20
95.90119971315067
 30
0.0
  0
POINT
  5
1041
330
C0F
100
AcDbEntity
  8
DEFPOINTS
 62
     0
100
AcDbPoint
 10
54.8351244528703
 20
95.90119971315067
 30
0.0
  0
ENDBLK
  5
C1B
330
C0F
100
AcDbEntity
  8
0
100
AcDbBlockEnd
  0
BLOCK
  5
C27
330
C1C
100
AcDbEntity
  8
0
100
AcDbBlockBegin
  2
*D27
 70
     1
 10
0.0
 20
0.0
 30
0.0
  3
*D27
  1

  0
LINE
  5
FF2
330
C1C
100
AcDbEntity
  8
DIM
 62
     0
370
    -2
100
AcDbLine
 10
35.48762342739538
 20
102.8176254068149
 30
0.0
 11
32.02095658406756
 21
102.8176254068149
 31
0.0
  0
LINE
  5
FF3
330
C1C
100
AcDbEntity
  8
DIM
 62
     0
370
    -2
100
AcDbLine
 10
35.48762342739538
 20
106.3176254068149
 30
0.0
 11
32.02095658406756
 21
106.3176254068149
 31
0.0
  0
LINE
  5
FF4
330
C1C
100
AcDbEntity
  8
DIM
 62
     0
370
    -2
100
AcDbLine
 10
32.76495658406756
 20
101.3776254068149
 30
0.0
 11
32.76495658406756
 21
99.93762540681494
 31
0.0
  0
LINE
  5
FF5
330
C1C
100
AcDbEntity
  8
DIM
 62
     0
370
    -2
100
AcDbLine
 10
32.76495658406756
 20
107.7576254068149
 30
0.0
 11
32.76495658406756
 21
109.1976254068149
 31
0.0
  0
SOLID
  5
FF6
330
C1C
100
AcDbEntity
  8
DIM
 62
     0
100
AcDbTrace
 10
32.52495658406756
 20
101.3776254068149
 30
0.0
 11
33.00495658406756
 21
101.3776254068149
 31
0.0
 12
32.76495658406756
 22
102.8176254068149
 32
0.0
 13
32.76495658406756
 23
102.8176254068149
 33
0.0
  0
SOLID
  5
FF7
330
C1C
100
AcDbEntity
  8
DIM
 62
     0
100
AcDbTrace
 10
32.52495658406756
 20
107.7576254068149
 30
0.0
 11
33.00495658406756
 21
107.7576254068149
 31
0.0
 12
32.76495658406756
 22
106.3176254068149
 32
0.0
 13
32.76495658406756
 23
106.3176254068149
 33
0.0
  0
MTEXT
  5
FF8
330
C1C
100
AcDbEntity
  8
DIM
 62
     0
100
AcDbMText
 10
32.76495658406755
 20
104.5676254068149
 30
0.0
 40
1.0
 41
0.0
 71
     5
 72
     1
  1
\A1;3.500 P.S.
  7
TXT
 73
     1
 44
1.0
  0
POINT
  5
FF9
330
C1C
100
AcDbEntity
  8
DEFPOINTS
 62
     0
100
AcDbPoint
 10
35.99162342739538
 20
102.8176254068149
 30
0.0
  0
POINT
  5
FFA
330
C1C
100
AcDbEntity
  8
DEFPOINTS
 62
     0
100
AcDbPoint
 10
35.99162342739538
 20
106.3176254068149
 30
0.0
  0
POINT
  5
FFB
330
C1C
100
AcDbEntity
  8
DEFPOINTS
 62
     0
100
AcDbPoint
 10
32.76495658406756
 20
106.3176254068149
 30
0.0
  0
ENDBLK
  5
C28
330
C1C
100
AcDbEntity
  8
0
100
AcDbBlockEnd
  0
BLOCK
  5
C34
330
C29
100
AcDbEntity
  8
0
100
AcDbBlockBegin
  2
*D28
 70
     1
 10
0.0
 20
0.0
 30
0.0
  3
*D28
  1

  0
LINE
  5
FDE
330
C29
100
AcDbEntity
  8
DIM
 62
     0
370
    -2
100
AcDbLine
 10
15.26862342739535
 20
106.8176254068149
 30
0.0
 11
11.77032332666976
 21
106.8176254068149
 31
0.0
  0
LINE
  5
FDF
330
C29
100
AcDbEntity
  8
DIM
 62
     0
370
    -2
100
AcDbLine
 10
15.26862342739535
 20
101.5676254068149
 30
0.0
 11
11.77032332666976
 21
101.5676254068149
 31
0.0
  0
LINE
  5
FE0
330
C29
100
AcDbEntity
  8
DIM
 62
     0
370
    -2
100
AcDbLine
 10
12.51432332666976
 20
108.2576254068149
 30
0.0
 11
12.51432332666976
 21
109.6976254068149
 31
0.0
  0
LINE
  5
FE1
330
C29
100
AcDbEntity
  8
DIM
 62
     0
370
    -2
100
AcDbLine
 10
12.51432332666976
 20
100.1276254068149
 30
0.0
 11
12.51432332666976
 21
98.68762540681492
 31
0.0
  0
SOLID
  5
FE2
330
C29
100
AcDbEntity
  8
DIM
 62
     0
100
AcDbTrace
 10
12.27432332666976
 20
108.2576254068149
 30
0.0
 11
12.75432332666976
 21
108.2576254068149
 31
0.0
 12
12.51432332666976
 22
106.8176254068149
 32
0.0
 13
12.51432332666976
 23
106.8176254068149
 33
0.0
  0
SOLID
  5
FE3
330
C29
100
AcDbEntity
  8
DIM
 62
     0
100
AcDbTrace
 10
12.27432332666976
 20
100.1276254068149
 30
0.0
 11
12.75432332666976
 21
100.1276254068149
 31
0.0
 12
12.51432332666976
 22
101.5676254068149
 32
0.0
 13
12.51432332666976
 23
101.5676254068149
 33
0.0
  0
MTEXT
  5
FE4
330
C29
100
AcDbEntity
  8
DIM
 62
     0
100
AcDbMText
 10
12.51432332666975
 20
104.1926254068149
 30
0.0
 40
1.0
 41
0.0
 71
     5
 72
     1
  1
\A1;5.250
  7
TXT
 73
     1
 44
1.0
  0
POINT
  5
FE5
330
C29
100
AcDbEntity
  8
DEFPOINTS
 62
     0
100
AcDbPoint
 10
15.77262342739536
 20
106.8176254068149
 30
0.0
  0
POINT
  5
FE6
330
C29
100
AcDbEntity
  8
DEFPOINTS
 62
     0
100
AcDbPoint
 10
15.77262342739536
 20
101.5676254068149
 30
0.0
  0
POINT
  5
FE7
330
C29
100
AcDbEntity
  8
DEFPOINTS
 62
     0
100
AcDbPoint
 10
12.51432332666976
 20
101.5676254068149
 30
0.0
  0
ENDBLK
  5
C35
330
C29
100
AcDbEntity
  8
0
100
AcDbBlockEnd
  0
BLOCK
  5
C41
330
C36
100
AcDbEntity
  8
0
100
AcDbBlockBegin
  2
*D29
 70
     1
 10
0.0
 20
0.0
 30
0.0
  3
*D29
  1

  0
LINE
  5
FB6
330
C36
100
AcDbEntity
  8
DIM
 62
     0
370
    -2
100
AcDbLine
 10
57.93034220332205
 20
57.60106327616444
 30
0.0
 11
54.45819296788261
 21
57.60106327616444
 31
0.0
  0
LINE
  5
FB7
330
C36
100
AcDbEntity
  8
DIM
 62
     0
370
    -2
100
AcDbLine
 10
57.93034220332205
 20
55.99203011899881
 30
0.0
 11
54.45819296788261
 21
55.99203011899881
 31
0.0
  0
LINE
  5
FB8
330
C36
100
AcDbEntity
  8
DIM
 62
     0
370
    -2
100
AcDbLine
 10
55.20219296788261
 20
59.04106327616444
 30
0.0
 11
55.20219296788261
 21
60.48106327616444
 31
0.0
  0
LINE
  5
FB9
330
C36
100
AcDbEntity
  8
DIM
 62
     0
370
    -2
100
AcDbLine
 10
55.20219296788261
 20
54.55203011899881
 30
0.0
 11
55.20219296788261
 21
53.1120301189988
 31
0.0
  0
SOLID
  5
FBA
330
C36
100
AcDbEntity
  8
DIM
 62
     0
100
AcDbTrace
 10
54.96219296788261
 20
59.04106327616444
 30
0.0
 11
55.44219296788261
 21
59.04106327616444
 31
0.0
 12
55.20219296788261
 22
57.60106327616444
 32
0.0
 13
55.20219296788261
 23
57.60106327616444
 33
0.0
  0
SOLID
  5
FBB
330
C36
100
AcDbEntity
  8
DIM
 62
     0
100
AcDbTrace
 10
54.96219296788261
 20
54.55203011899881
 30
0.0
 11
55.44219296788261
 21
54.55203011899881
 31
0.0
 12
55.20219296788261
 22
55.99203011899881
 32
0.0
 13
55.20219296788261
 23
55.99203011899881
 33
0.0
  0
MTEXT
  5
FBC
330
C36
100
AcDbEntity
  8
DIM
 62
     0
100
AcDbMText
 10
55.20219296788259
 20
56.79654669758164
 30
0.0
 40
1.0
 41
0.0
 71
     5
 72
     1
  1
\A1;1.609
  7
TXT
 73
     1
 44
1.0
  0
POINT
  5
FBD
330
C36
100
AcDbEntity
  8
DEFPOINTS
 62
     0
100
AcDbPoint
 10
58.43434220332205
 20
57.60106327616444
 30
0.0
  0
POINT
  5
FBE
330
C36
100
AcDbEntity
  8
DEFPOINTS
 62
     0
100
AcDbPoint
 10
58.43434220332205
 20
55.99203011899881
 30
0.0
  0
POINT
  5
FBF
330
C36
100
AcDbEntity
  8
DEFPOINTS
 62
     0
100
AcDbPoint
 10
55.20219296788261
 20
55.99203011899881
 30
0.0
  0
ENDBLK
  5
C42
330
C36
100
AcDbEntity
  8
0
100
AcDbBlockEnd
  0
BLOCK
  5
C4E
330
C43
100
AcDbEntity
  8
0
100
AcDbBlockBegin
  2
*D30
 70
     1
 10
0.0
 20
0.0
 30
0.0
  3
*D30
  1

  0
LINE
  5
F1D
330
C43
100
AcDbEntity
  8
DIM
 62
     0
370
    -2
100
AcDbLine
 10
63.93434220332204
 20
60.75056327616444
 30
0.0
 11
63.93434220332204
 21
65.52882046658926
 31
0.0
  0
LINE
  5
F1E
330
C43
100
AcDbEntity
  8
DIM
 62
     0
370
    -2
100
AcDbLine
 10
58.43434220332205
 20
60.75056327616444
 30
0.0
 11
58.43434220332205
 21
65.52882046658926
 31
0.0
  0
LINE
  5
F1F
330
C43
100
AcDbEntity
  8
DIM
 62
     0
370
    -2
100
AcDbLine
 10
65.37434220332205
 20
64.78482046658927
 30
0.0
 11
66.81434220332204
 21
64.78482046658927
 31
0.0
  0
LINE
  5
F20
330
C43
100
AcDbEntity
  8
DIM
 62
     0
370
    -2
100
AcDbLine
 10
56.99434220332205
 20
64.78482046658927
 30
0.0
 11
55.55434220332204
 21
64.78482046658927
 31
0.0
  0
SOLID
  5
F21
330
C43
100
AcDbEntity
  8
DIM
 62
     0
100
AcDbTrace
 10
65.37434220332205
 20
65.02482046658926
 30
0.0
 11
65.37434220332205
 21
64.54482046658927
 31
0.0
 12
63.93434220332204
 22
64.78482046658927
 32
0.0
 13
63.93434220332204
 23
64.78482046658927
 33
0.0
  0
SOLID
  5
F22
330
C43
100
AcDbEntity
  8
DIM
 62
     0
100
AcDbTrace
 10
56.99434220332205
 20
65.02482046658926
 30
0.0
 11
56.99434220332205
 21
64.54482046658927
 31
0.0
 12
58.43434220332205
 22
64.78482046658927
 32
0.0
 13
58.43434220332205
 23
64.78482046658927
 33
0.0
  0
MTEXT
  5
F23
330
C43
100
AcDbEntity
  8
DIM
 62
     0
100
AcDbMText
 10
61.18434220332204
 20
64.78482046658927
 30
0.0
 40
1.0
 41
0.0
 71
     5
 72
     1
  1
\A1;5.500
  7
TXT
 73
     1
 44
1.0
  0
POINT
  5
F24
330
C43
100
AcDbEntity
  8
DEFPOINTS
 62
     0
100
AcDbPoint
 10
63.93434220332204
 20
60.24656327616444
 30
0.0
  0
POINT
  5
F25
330
C43
100
AcDbEntity
  8
DEFPOINTS
 62
     0
100
AcDbPoint
 10
58.43434220332205
 20
60.24656327616444
 30
0.0
  0
POINT
  5
F26
330
C43
100
AcDbEntity
  8
DEFPOINTS
 62
     0
100
AcDbPoint
 10
58.43434220332205
 20
64.78482046658927
 30
0.0
  0
ENDBLK
  5
C4F
330
C43
100
AcDbEntity
  8
0
100
AcDbBlockEnd
  0
BLOCK
  5
D5C
330
D45
100
AcDbEntity
  8
0
100
AcDbBlockBegin
  2
HB
 70
     0
 10
0.0
 20
0.0
 30
0.0
  3
HB
  1

  0
TEXT
  5
D46
330
D45
100
AcDbEntity
  8
TEXT
100
AcDbText
 10
0.2078333333333363
 20
15.22007919564008
 30
0.0
 40
0.125
  1
NAME
  7
TXT
 72
     1
 11
0.437000000000003
 21
15.22007919564008
 31
0.0
100
AcDbText
  0
TEXT
  5
D47
330
D45
100
AcDbEntity
  8
TEXT
100
AcDbText
 10
0.2078333333333363
 20
15.42841252897341
 30
0.0
 40
0.125
  1
PART
  7
TXT
 72
     1
 11
0.437000000000003
 21
15.42841252897341
 31
0.0
100
AcDbText
  0
TEXT
  5
D48
330
D45
100
AcDbEntity
  8
TEXT
100
AcDbText
 10
4.561999999999998
 20
15.22007919564008
 30
0.0
 40
0.125
  1
No.
  7
TXT
 72
     1
 11
4.686999999999998
 21
15.22007919564008
 31
0.0
100
AcDbText
  0
TEXT
  5
D49
330
D45
100
AcDbEntity
  8
TEXT
100
AcDbText
 10
4.457833333333331
 20
15.42841252897341
 30
0.0
 40
0.125
  1
PART
  7
TXT
 72
     1
 11
4.686999999999998
 21
15.42841252897341
 31
0.0
100
AcDbText
  0
LINE
  5
D4A
330
D45
100
AcDbEntity
  8
TITLE
100
AcDbLine
 10
5.062000000000002
 20
15.598
 30
0.0
 11
5.062000000000002
 21
15.17999999999999
 31
0.0
  0
LINE
  5
D4B
330
D45
100
AcDbEntity
  8
TITLE
100
AcDbLine
 10
4.312000000000002
 20
15.598
 30
0.0
 11
4.312000000000002
 21
15.17999999999999
 31
0.0
  0
LINE
  5
D4C
330
D45
100
AcDbEntity
  8
TITLE
100
AcDbLine
 10
4.25
 20
15.598
 30
0.0
 11
4.25
 21
15.17999999999999
 31
0.0
  0
LINE
  5
D4D
330
D45
100
AcDbEntity
  8
TITLE
100
AcDbLine
 10
0.8120000000000029
 20
15.17999999999999
 30
0.0
 11
0.8120000000000011
 21
15.598
 31
0.0
  0
LINE
  5
D4E
330
D45
100
AcDbEntity
  8
TITLE
100
AcDbLine
 10
0.0620000000000012
 20
15.17999999999999
 30
0.0
 11
10.538
 21
15.17999999999999
 31
0.0
  0
LINE
  5
D4F
330
D45
100
AcDbEntity
  8
TITLE
100
AcDbLine
 10
10.538
 20
0.0619999999999994
 30
0.0
 11
0.0619999999999976
 21
0.0620000000000012
 31
0.0
  0
LINE
  5
D50
330
D45
100
AcDbEntity
  8
TITLE
100
AcDbLine
 10
10.538
 20
15.598
 30
0.0
 11
10.538
 21
0.0619999999999994
 31
0.0
  0
LINE
  5
D51
330
D45
100
AcDbEntity
  8
TITLE
100
AcDbLine
 10
0.0620000000000012
 20
15.598
 30
0.0
 11
10.538
 21
15.598
 31
0.0
  0
LINE
  5
D52
330
D45
100
AcDbEntity
  8
TITLE
100
AcDbLine
 10
0.0619999999999976
 20
0.0620000000000012
 30
0.0
 11
0.0620000000000012
 21
15.598
 31
0.0
  0
LINE
  5
D53
330
D45
100
AcDbEntity
  8
TITLE
100
AcDbLine
 10
0.0
 20
0.0
 30
0.0
 11
0.0
 21
15.66
 31
0.0
  0
LINE
  5
D54
330
D45
100
AcDbEntity
  8
TITLE
100
AcDbLine
 10
10.6
 20
-0.0000000000000018
 30
0.0
 11
0.0
 21
0.0
 31
0.0
  0
LINE
  5
D55
330
D45
100
AcDbEntity
  8
TITLE
100
AcDbLine
 10
10.6
 20
15.65999999999999
 30
0.0
 11
10.6
 21
-0.0000000000000018
 31
0.0
  0
LINE
  5
D56
330
D45
100
AcDbEntity
  8
TITLE
100
AcDbLine
 10
0.0
 20
15.66
 30
0.0
 11
10.6
 21
15.65999999999999
 31
0.0
  0
LINE
  5
D57
330
D45
100
AcDbEntity
  8
TITLE
100
AcDbLine
 10
8.500025722444004
 20
15.598
 30
0.0
 11
8.500025722444004
 21
15.17999999999999
 31
0.0
  0
TEXT
  5
D58
330
D45
100
AcDbEntity
  8
TEXT
100
AcDbText
 10
8.728692389110667
 20
15.42841252897341
 30
0.0
 40
0.125
  1
REV.
  7
TXT
 72
     1
 11
8.937025722444001
 21
15.42841252897341
 31
0.0
100
AcDbText
  0
TEXT
  5
D59
330
D45
100
AcDbEntity
  8
TEXT
100
AcDbText
 10
8.707859055777335
 20
15.22007919564008
 30
0.0
 40
0.125
  1
DATE
  7
TXT
 72
     1
 11
8.937025722444001
 21
15.22007919564008
 31
0.0
100
AcDbText
  0
LINE
  5
D5A
330
D45
100
AcDbEntity
  8
TITLE
100
AcDbLine
 10
8.562025722444005
 20
15.598
 30
0.0
 11
8.562025722444005
 21
15.17999999999999
 31
0.0
  0
LINE
  5
D5B
330
D45
100
AcDbEntity
  8
TITLE
100
AcDbLine
 10
9.312025722444005
 20
15.598
 30
0.0
 11
9.312025722444005
 21
15.17999999999999
 31
0.0
  0
ENDBLK
  5
D5D
330
D45
100
AcDbEntity
  8
0
100
AcDbBlockEnd
  0
ENDSEC
  0
SECTION
  2
ENTITIES
  0
TEXT
  5
1D7
330
1E
100
AcDbEntity
  8
TEXT
100
AcDbText
 10
40.55572523048957
 20
119.4116204170846
 30
0.0
 40
1.000000000001249
  1
%%UMATERIAL:
 41
0.75
  7
TXT
100
AcDbText
  0
TEXT
  5
1D8
330
1E
100
AcDbEntity
  8
TEXT
100
AcDbText
 10
41.24605032579623
 20
117.7449537504159
 30
0.0
 40
1.000000000001249
  1
BODY, DOOR & COVERS
 41
0.75
  7
TXT
100
AcDbText
  0
TEXT
  5
1D9
330
1E
100
AcDbEntity
  8
TEXT
100
AcDbText
 10
40.51747140142739
 20
109.618358320628
 30
0.0
 40
1.000000000001249
  1
%%UFINISH:
 41
0.75
  7
TXT
100
AcDbText
  0
TEXT
  5
1DA
330
1E
100
AcDbEntity
  8
TEXT
100
AcDbText
 10
41.29058092401305
 20
107.9516916539592
 30
0.0
 40
1.000000000001249
  1
BODY, DOOR, MTG. BRACKETS & COVERS
 41
0.75
  7
TXT
100
AcDbText
  0
TEXT
  5
1DB
330
1E
100
AcDbEntity
  8
TEXT
100
AcDbText
 10
72.68366311930305
 20
117.7042731249002
 30
0.0
 40
1.000000000001249
  1
18 GA. STEEL
 41
0.75
  7
TXT
 72
     2
 11
80.68366311931304
 21
117.7042731249002
 31
0.0
100
AcDbText
  0
TEXT
  5
1DC
330
1E
100
AcDbEntity
  8
TEXT
100
AcDbText
 10
71.89540929023999
 20
107.9789209687822
 30
0.0
 40
1.000000000001249
  1
SAND TEXTURE
 41
0.75
  7
TXT
 72
     2
 11
80.64540929025094
 21
107.9789209687822
 31
0.0
100
AcDbText
  0
LINE
  5
1DD
330
1E
100
AcDbEntity
  8
TEXT
100
AcDbLine
 10
55.65492988799324
 20
117.7042731249002
 30
0.0
 11
72.23885841678515
 21
117.7042731249002
 31
0.0
  0
TEXT
  5
1DE
330
1E
100
AcDbEntity
  8
TEXT
100
AcDbText
 10
41.24605032579623
 20
116.1259537504139
 30
0.0
 40
1.000000000001249
  1
MOUNTING BRACKETS
 41
0.75
  7
TXT
100
AcDbText
  0
TEXT
  5
1DF
330
1E
100
AcDbEntity
  8
TEXT
100
AcDbText
 10
72.68366311930305
 20
116.0852731248982
 30
0.0
 40
1.000000000001249
  1
14 GA. STEEL
 41
0.75
  7
TXT
 72
     2
 11
80.68366311931304
 21
116.0852731248982
 31
0.0
100
AcDbText
  0
LINE
  5
1E0
330
1E
100
AcDbEntity
  8
TEXT
100
AcDbLine
 10
53.76564697081988
 20
116.1548785654314
 30
0.0
 11
72.17032340472892
 21
116.1548785654314
 31
0.0
  0
TEXT
  5
1E1
330
1E
100
AcDbEntity
  8
TEXT
100
AcDbText
 10
41.24605032579623
 20
114.5069537504118
 30
0.0
 40
1.000000000001249
  1
CONTINUOUS HINGE
 41
0.75
  7
TXT
100
AcDbText
  0
TEXT
  5
1E2
330
1E
100
AcDbEntity
  8
TEXT
100
AcDbText
 10
55.18366311928116
 20
114.4903192882957
 30
0.0
 40
1.000000000001249
  1
20 GA. STAINLESS STEEL (0.100 DIA. PIN)
 41
0.75
  7
TXT
 72
     2
 11
80.68366311931304
 21
114.4903192882957
 31
0.0
100
AcDbText
  0
LINE
  5
1E3
330
1E
100
AcDbEntity
  8
TEXT
100
AcDbLine
 10
52.79868209647713
 20
114.5397015894584
 30
0.0
 11
54.70389311628625
 21
114.5397015894584
 31
0.0
  0
TEXT
  5
1E4
330
1E
100
AcDbEntity
  8
TEXT
100
AcDbText
 10
41.29058092401305
 20
106.4006015942959
 30
0.0
 40
1.000000000001249
  1
CONTINUOUS HINGE
 41
0.75
  7
TXT
100
AcDbText
  0
TEXT
  5
1E5
330
1E
100
AcDbEntity
  8
TEXT
100
AcDbText
 10
75.64540929024468
 20
106.3599209687802
 30
0.0
 40
1.000000000001249
  1
NATURAL
 41
0.75
  7
TXT
 72
     2
 11
80.64540929025094
 21
106.3599209687802
 31
0.0
100
AcDbText
  0
LINE
  5
1E6
330
1E
100
AcDbEntity
  8
TEXT
100
AcDbLine
 10
52.97917968387636
 20
106.4176570304416
 30
0.0
 11
75.23931135839106
 21
106.4176570304416
 31
0.0
  0
TEXT
  5
1E7
330
1E
100
AcDbEntity
  8
TEXT
100
AcDbText
 10
41.24605032579623
 20
112.8879537504098
 30
0.0
 40
1.000000000001249
  1
CABLE SUPPORTS
 41
0.75
  7
TXT
100
AcDbText
  0
TEXT
  5
1E8
330
1E
100
AcDbEntity
  8
TEXT
100
AcDbText
 10
57.68366311928429
 20
112.8472731248941
 30
0.0
 40
1.000000000001249
  1
0.047 DIA. GALVANIZED STEEL CABLE
 41
0.75
  7
TXT
 72
     2
 11
80.68366311931304
 21
112.8472731248941
 31
0.0
100
AcDbText
  0
TEXT
  5
1E9
330
1E
100
AcDbEntity
  8
TEXT
100
AcDbText
 10
41.29058092401305
 20
104.7816015942939
 30
0.0
 40
1.000000000001249
  1
CABLE SUPPORTS
 41
0.75
  7
TXT
100
AcDbText
  0
TEXT
  5
1EA
330
1E
100
AcDbEntity
  8
TEXT
100
AcDbText
 10
68.64540929023593
 20
104.7409209687782
 30
0.0
 40
1.000000000001249
  1
CLEAR PVC COATED
 41
0.75
  7
TXT
 72
     2
 11
80.64540929025094
 21
104.7409209687782
 31
0.0
100
AcDbText
  0
LINE
  5
1EB
330
1E
100
AcDbEntity
  8
TEXT
100
AcDbLine
 10
51.97492992600214
 20
104.7947332525767
 30
0.0
 11
68.04399376766105
 21
104.7947332525767
 31
0.0
  0
LINE
  5
1EC
330
1E
100
AcDbEntity
  8
TEXT
100
AcDbLine
 10
52.14608567122661
 20
112.9249323034045
 30
0.0
 11
57.06010481979572
 21
112.9249323034045
 31
0.0
  0
CIRCLE
  5
1ED
330
1E
100
AcDbEntity
  8
OBJECT
100
AcDbCircle
 10
63.43434220332205
 20
57.79656327616443
 30
0.0
 40
0.1015
  0
CIRCLE
  5
1EE
330
1E
100
AcDbEntity
  8
OBJECT
100
AcDbCircle
 10
58.93434220332204
 20
57.79656327616443
 30
0.0
 40
0.1015
  0
DIMENSION
  5
1EF
330
1E
100
AcDbEntity
  8
DIM
100
AcDbDimension
  2
*D23
 10
51.50952690427136
 20
55.34656327616444
 30
0.0
 11
51.50952690427134
 21
57.79656327616446
 31
0.0
 70
    32
 71
     5
 42
4.900000000000005
  3
23NSTDI
100
AcDbAlignedDimension
 13
58.43434220332205
 23
60.24656327616444
 33
0.0
 14
58.43434220332205
 24
55.34656327616444
 34
0.0
 50
90.0
100
AcDbRotatedDimension
  0
DIMENSION
  5
1F0
330
1E
100
AcDbEntity
  8
DIM
100
AcDbDimension
  2
*D1
 10
61.70534220332206
 20
62.65737845992397
 30
0.0
 11
55.75084220332207
 21
62.65737845992397
 31
0.0
 70
   160
 71
     5
 42
1.041999999999973
  3
23NSTD
100
AcDbAlignedDimension
 13
60.66334220332208
 23
60.24656327616444
 33
0.0
 14
61.70534220332206
 24
60.24656327616444
 34
0.0
100
AcDbRotatedDimension
  0
DIMENSION
  5
1F1
330
1E
100
AcDbEntity
  8
DIM
100
AcDbDimension
  2
*D2
 10
66.42171053296912
 20
60.24656327616444
 30
0.0
 11
70.0192105329691
 21
63.12656327616445
 31
0.0
 70
    32
 71
     5
 42
0.8280000000000029
  3
23NSTD
100
AcDbAlignedDimension
 13
61.51734220332207
 23
59.41856327616444
 33
0.0
 14
63.93434220332204
 24
60.24656327616444
 34
0.0
 50
90.0
100
AcDbRotatedDimension
  0
TEXT
  5
1F2
330
1E
100
AcDbEntity
  8
DIM
100
AcDbText
 10
22.74282303616232
 20
63.41832306259446
 30
0.0
 40
1.0
  1
0.125 x 0.750 OBLONG
 41
0.75
  7
TXT
 11
22.74282303616232
 21
63.91832306259446
 31
0.0
100
AcDbText
 73
     2
  0
TEXT
  5
1F3
330
1E
100
AcDbEntity
  8
DIM
100
AcDbText
 10
22.74282303616232
 20
61.75165639592779
 30
0.0
 40
1.0
  1
(48) HOLES
 41
0.75
  7
TXT
 11
22.74282303616232
 21
62.25165639592779
 31
0.0
100
AcDbText
 73
     2
  0
TEXT
  5
1F4
330
1E
100
AcDbEntity
  8
DIM
100
AcDbText
 10
22.74282303616232
 20
60.13265639592779
 30
0.0
 40
1.0
  1
(4) PLACES
 41
0.75
  7
TXT
 11
22.74282303616232
 21
60.63265639592779
 31
0.0
100
AcDbText
 73
     2
  0
TEXT
  5
1F5
330
1E
100
AcDbEntity
  8
DIM
100
AcDbText
 10
65.98525950893398
 20
71.99206292262974
 30
0.0
 40
1.0
  1
0.750 DIA.
 41
0.75
  7
TXT
 72
     2
 11
71.73525950893398
 21
72.49206292262974
 31
0.0
100
AcDbText
 73
     2
  0
TEXT
  5
1F6
330
1E
100
AcDbEntity
  8
DIM
100
AcDbText
 10
65.98525950893398
 20
70.37306292262975
 30
0.0
 40
1.0
  1
(4) PLACES
 41
0.75
  7
TXT
 72
     2
 11
72.73525950893398
 21
70.87306292262976
 31
0.0
100
AcDbText
 73
     2
  0
TEXT
  5
1F7
330
1E
100
AcDbEntity
  8
TEXT
100
AcDbText
 10
56.03673216670315
 20
49.82746686464796
 30
0.0
 40
1.0
  1
%%UTYPICAL COVER
 41
0.75
  7
TXT
 72
     1
 11
60.79923216670315
 21
49.82746686464796
 31
0.0
100
AcDbText
  0
TEXT
  5
1F8
330
1E
100
AcDbEntity
  8
TEXT
100
AcDbText
 10
5.029584460704469
 20
53.71537033591581
 30
0.0
 40
1.0
  1
QTY. (4) COVERS SUPPLIED UNASSEMBLED
 41
0.75
  7
TXT
100
AcDbText
  0
TEXT
  5
1F9
330
1E
100
AcDbEntity
  8
TEXT
100
AcDbText
 10
5.029584460704469
 20
55.28707042541802
 30
0.0
 40
1.0
  1
QTY. (1 PAIR) MOUNTING BRACKETS SUPPLIED UNASSEMBLED
 41
0.75
  7
TXT
100
AcDbText
  0
ARC
  5
1FA
330
1E
100
AcDbEntity
  8
OBJECT
100
AcDbCircle
 10
61.18434220332204
 20
57.79656327616443
 30
0.0
 40
1.234499999999999
100
AcDbArc
 50
92.87876337507054
 51
267.1212366249295
  0
ARC
  5
1FB
330
1E
100
AcDbEntity
  8
OBJECT
100
AcDbCircle
 10
61.18434220332204
 20
57.79656327616443
 30
0.0
 40
1.234499999999999
100
AcDbArc
 50
272.8787633750702
 51
87.12123662492951
  0
ARC
  5
1FC
330
1E
100
AcDbEntity
  8
OBJECT
100
AcDbCircle
 10
61.18434220332204
 20
57.79656327616443
 30
0.0
 40
0.5545
100
AcDbArc
 50
186.4198055673918
 51
353.5801944326081
  0
LINE
  5
1FD
330
1E
100
AcDbEntity
  8
OBJECT
100
AcDbLine
 10
61.12234220332203
 20
56.56362116479016
 30
0.0
 11
61.12234220332203
 21
56.65774974884752
 31
0.0
  0
LINE
  5
1FE
330
1E
100
AcDbEntity
  8
OBJECT
100
AcDbLine
 10
61.24634220332206
 20
56.56362116479016
 30
0.0
 11
61.24634220332206
 21
56.65774974884752
 31
0.0
  0
ARC
  5
1FF
330
1E
100
AcDbEntity
  8
OBJECT
100
AcDbCircle
 10
60.99684220332204
 20
57.79656327616443
 30
0.0
 40
0.0624999999999998
100
AcDbArc
 50
89.99998127603042
 51
269.9999812760304
  0
ARC
  5
200
330
1E
100
AcDbEntity
  8
OBJECT
100
AcDbCircle
 10
61.18434220332204
 20
57.79656327616443
 30
0.0
 40
0.5545
100
AcDbArc
 50
6.419805567391834
 51
173.5801944326081
  0
LINE
  5
201
330
1E
100
AcDbEntity
  8
OBJECT
100
AcDbLine
 10
60.72803501512533
 20
57.85856327616443
 30
0.0
 11
60.63331929091276
 21
57.85856327616443
 31
0.0
  0
LINE
  5
202
330
1E
100
AcDbEntity
  8
OBJECT
100
AcDbLine
 10
60.72803501512533
 20
57.73456327616443
 30
0.0
 11
60.63331929091276
 21
57.73456327616443
 31
0.0
  0
LINE
  5
203
330
1E
100
AcDbEntity
  8
OBJECT
100
AcDbLine
 10
61.73536511573132
 20
57.85856327616443
 30
0.0
 11
61.64064939151876
 21
57.85856327616443
 31
0.0
  0
LINE
  5
204
330
1E
100
AcDbEntity
  8
OBJECT
100
AcDbLine
 10
61.73536511573132
 20
57.73456327616443
 30
0.0
 11
61.64064939151876
 21
57.73456327616443
 31
0.0
  0
ARC
  5
205
330
1E
100
AcDbEntity
  8
OBJECT
100
AcDbCircle
 10
61.37184220332205
 20
57.79656327616443
 30
0.0
 40
0.0624999999999998
100
AcDbArc
 50
269.9999812760304
 51
89.99998127603042
  0
LINE
  5
206
330
1E
100
AcDbEntity
  8
OBJECT
100
AcDbLine
 10
60.99684222374674
 20
57.85906327616443
 30
0.0
 11
61.37184222374674
 21
57.85906327616443
 31
0.0
  0
LWPOLYLINE
  5
207
330
1E
100
AcDbEntity
  8
OBJECT
100
AcDbPolyline
 90
        2
 70
     0
 43
0.0
 10
60.99684222619862
 20
57.73406327616442
 10
61.37184222619862
 20
57.73406327616442
  0
LINE
  5
20B
330
1E
100
AcDbEntity
  8
OBJECT
100
AcDbLine
 10
61.12234220332203
 20
58.93537680348134
 30
0.0
 11
61.12234220332203
 21
59.02950538753868
 31
0.0
  0
LINE
  5
20C
330
1E
100
AcDbEntity
  8
OBJECT
100
AcDbLine
 10
61.24634220332206
 20
58.93537680348134
 30
0.0
 11
61.24634220332206
 21
59.02950538753868
 31
0.0
  0
TEXT
  5
20D
330
1E
100
AcDbEntity
  8
TEXT
100
AcDbText
 10
5.029584460704469
 20
52.15683270067586
 30
0.0
 40
1.0
  1
QTY. (2) POWER CORD STRAIN RELIEF BUSHING
 41
0.75
  7
TXT
100
AcDbText
  0
TEXT
  5
20E
330
1E
100
AcDbEntity
  8
TEXT
100
AcDbText
 10
6.650540179623178
 20
50.49016603400919
 30
0.0
 40
1.0
  1
SUPPLIED UNASSEMBLED
 41
0.75
  7
TXT
100
AcDbText
  0
LINE
  5
217
330
1E
100
AcDbEntity
  8
OBJECT
100
AcDbLine
 10
37.97562342739539
 20
106.7706254068149
 30
0.0
 11
37.97562342739539
 21
101.6146254068149
 31
0.0
  0
LINE
  5
218
330
1E
100
AcDbEntity
  8
OBJECT
100
AcDbLine
 10
38.02262342739538
 20
106.8176254068149
 30
0.0
 11
38.02262342739538
 21
101.5676254068149
 31
0.0
  0
LINE
  5
219
330
1E
100
AcDbEntity
  8
OBJECT
100
AcDbLine
 10
15.77262342739536
 20
106.8176254068149
 30
0.0
 11
15.77262342739538
 21
101.5676254068149
 31
0.0
  0
LINE
  5
21A
330
1E
100
AcDbEntity
  8
OBJECT
100
AcDbLine
 10
15.81962342739535
 20
106.7706254068149
 30
0.0
 11
15.81962342739535
 21
101.7816254068149
 31
0.0
  0
LINE
  5
21B
330
1E
100
AcDbEntity
  8
HIDDEN
100
AcDbLine
 10
11.45446925578053
 20
95.85432471315071
 30
0.0
 11
11.45446925578059
 21
74.91607471315074
 31
0.0
  0
LINE
  5
21C
330
1E
100
AcDbEntity
  8
HIDDEN
100
AcDbLine
 10
12.42271925578054
 20
95.41184234557043
 30
0.0
 11
12.42271925578054
 21
75.35855708068256
 31
0.0
  0
LINE
  5
21D
330
1E
100
AcDbEntity
  8
OBJECT
100
AcDbLine
 10
12.46971925578057
 20
95.40119971315069
 30
0.0
 11
12.46971925578057
 21
75.36919971315071
 31
0.0
  0
LINE
  5
21E
330
1E
100
AcDbEntity
  8
OBJECT
100
AcDbLine
 10
11.40759425578053
 20
95.90119971315072
 30
0.0
 11
11.40759425578059
 21
74.86919971315071
 31
0.0
  0
LINE
  5
21F
330
1E
100
AcDbEntity
  8
OBJECT
100
AcDbLine
 10
6.157594255780537
 20
95.90119971315072
 30
0.0
 11
6.157594255780594
 21
74.86919971315071
 31
0.0
  0
LINE
  5
220
330
1E
100
AcDbEntity
  8
OBJECT
100
AcDbLine
 10
11.24559425578055
 20
95.13519971315069
 30
0.0
 11
11.24559425578055
 21
75.63519971315073
 31
0.0
  0
LINE
  5
221
330
1E
100
AcDbEntity
  8
HIDDEN
100
AcDbLine
 10
11.19359425578053
 20
95.33919971315073
 30
0.0
 11
11.19359425578059
 21
75.43119971315071
 31
0.0
  0
LINE
  5
222
330
1E
100
AcDbEntity
  8
OBJECT
100
AcDbLine
 10
11.24059425578056
 20
95.40119971315071
 30
0.0
 11
11.24059425578056
 21
75.36919971315071
 31
0.0
  0
LINE
  5
223
330
1E
100
AcDbEntity
  8
HIDDEN
100
AcDbLine
 10
6.204594255780563
 20
90.83262810217942
 30
0.0
 11
6.204594255780563
 21
79.96040416489946
 31
0.0
  0
LINE
  5
224
330
1E
100
AcDbEntity
  8
OBJECT
100
AcDbLine
 10
6.157594255780594
 20
74.86919971315071
 30
0.0
 11
11.40759425578059
 21
74.86919971315071
 31
0.0
  0
LINE
  5
225
330
1E
100
AcDbEntity
  8
HIDDEN
100
AcDbLine
 10
6.204594255780563
 20
74.91619971315073
 30
0.0
 11
11.36059425578056
 21
74.91619971315073
 31
0.0
  0
LWPOLYLINE
  5
226
330
1E
100
AcDbEntity
  8
OBJECT
100
AcDbPolyline
 90
       20
 70
     1
 43
0.0
 10
7.095577677197837
 20
75.86919971315076
 10
7.095577677197837
 20
75.7191863794222
 42
0.1687295055132477
 10
6.979577677197852
 20
75.60317218673914
 10
6.979577677197852
 20
75.3852272395621
 42
0.6267890062733434
 10
7.429577677197841
 20
75.38522723956241
 10
7.429577677197841
 20
75.60317218673914
 42
0.1687295055132672
 10
7.313577677197855
 20
75.7191863794222
 10
7.313577677197855
 20
75.86919971315076
 10
8.095577677197837
 20
75.86919971315076
 10
8.095577677197837
 20
75.7191863794222
 42
0.1687295055132477
 10
7.979577677197852
 20
75.60317218673914
 10
7.979577677197852
 20
75.3852272395621
 42
0.6267890062733434
 10
8.429577677197841
 20
75.38522723956241
 10
8.429577677197841
 20
75.60317218673914
 42
0.1687295055132672
 10
8.313577677197798
 20
75.7191863794222
 10
8.313577677197855
 20
75.86919971315073
 10
10.20459425578056
 20
75.86919971315076
 10
10.20459425578056
 20
79.86919971315076
 10
6.204594255780563
 20
79.86919971315076
 10
6.204594255780563
 20
75.86919971315076
  0
LWPOLYLINE
  5
23C
330
1E
100
AcDbEntity
  8
OBJECT
100
AcDbPolyline
 90
        4
 70
     0
 43
0.0
 10
6.204594255780563
 20
76.26119971315076
 10
6.657594255780594
 20
76.26119971315076
 10
6.657594255780594
 20
76.07119971315076
 10
6.204594255780563
 20
76.07119971315076
  0
LINE
  5
242
330
1E
100
AcDbEntity
  8
HIDDEN
100
AcDbLine
 10
6.204594255780563
 20
75.77092111335391
 30
0.0
 11
6.204594255780563
 21
74.91619971315073
 31
0.0
  0
LINE
  5
243
330
1E
100
AcDbEntity
  8
OBJECT
100
AcDbLine
 10
11.40759425578059
 20
77.13519971315072
 30
0.0
 11
11.24559425578055
 21
77.13519971315072
 31
0.0
  0
LINE
  5
244
330
1E
100
AcDbEntity
  8
OBJECT
100
AcDbLine
 10
11.40759425578059
 20
77.63519971315073
 30
0.0
 11
11.24559425578055
 21
77.63519971315073
 31
0.0
  0
LINE
  5
245
330
1E
100
AcDbEntity
  8
OBJECT
100
AcDbLine
 10
11.40759425578059
 20
76.63519971315072
 30
0.0
 11
11.24559425578055
 21
76.63519971315072
 31
0.0
  0
ARC
  5
246
330
1E
100
AcDbEntity
  8
HIDDEN
100
AcDbCircle
 10
11.96971925578057
 20
75.36919971315071
 30
0.0
 40
0.453125
100
AcDbArc
 50
270.0
 51
0.0
  0
ARC
  5
247
330
1E
100
AcDbEntity
  8
OBJECT
100
AcDbCircle
 10
11.96971925578057
 20
75.36919971315071
 30
0.0
 40
0.5
100
AcDbArc
 50
270.0
 51
0.0
  0
LWPOLYLINE
  5
248
330
1E
100
AcDbEntity
  8
HIDDEN
  6
HIDDEN2
100
AcDbPolyline
 90
        4
 70
     0
 43
0.0
 10
12.46971925578057
 20
76.07119971315068
 10
11.96971925578057
 20
76.07119971315068
 10
11.96971925578057
 20
76.26119971315067
 10
12.46971925578057
 20
76.26119971315067
  0
LINE
  5
24E
330
1E
100
AcDbEntity
  8
HIDDEN
100
AcDbLine
 10
11.36059425578056
 20
75.54119971315073
 30
0.0
 11
11.36059425578056
 21
74.91619971315073
 31
0.0
  0
LINE
  5
24F
330
1E
100
AcDbEntity
  8
OBJECT
100
AcDbLine
 10
11.40759425578059
 20
76.13519971315072
 30
0.0
 11
11.24559425578055
 21
76.13519971315072
 31
0.0
  0
LINE
  5
250
330
1E
100
AcDbEntity
  8
HIDDEN
100
AcDbLine
 10
11.24059425578056
 20
75.43119971315071
 30
0.0
 11
11.19359425578059
 21
75.43119971315071
 31
0.0
  0
LINE
  5
251
330
1E
100
AcDbEntity
  8
OBJECT
100
AcDbLine
 10
11.40759425578059
 20
75.63519971315073
 30
0.0
 11
11.24559425578055
 21
75.63519971315073
 31
0.0
  0
LINE
  5
252
330
1E
100
AcDbEntity
  8
OBJECT
100
AcDbLine
 10
11.40759425578059
 20
75.36919971315071
 30
0.0
 11
11.24059425578056
 21
75.36919971315071
 31
0.0
  0
LWPOLYLINE
  5
253
330
1E
100
AcDbEntity
  8
HIDDEN
100
AcDbPolyline
 90
        4
 70
     0
 43
0.0
 10
11.40759425578053
 20
75.49419971315071
 10
11.64159425578057
 20
75.49419971315071
 10
11.64159425578057
 20
75.54119971315073
 10
11.36059425578056
 20
75.54119971315073
  0
LINE
  5
259
330
1E
100
AcDbEntity
  8
HIDDEN
100
AcDbLine
 10
11.45446925578059
 20
74.9160747131507
 30
0.0
 11
11.96971925578057
 21
74.9160747131507
 31
0.0
  0
LINE
  5
25A
330
1E
100
AcDbEntity
  8
OBJECT
100
AcDbLine
 10
11.40759425578059
 20
74.86919971315071
 30
0.0
 11
11.96971925578057
 21
74.86919971315071
 31
0.0
  0
LINE
  5
25B
330
1E
100
AcDbEntity
  8
OBJECT
100
AcDbLine
 10
11.40759425578059
 20
80.13519971315071
 30
0.0
 11
11.24559425578055
 21
80.13519971315071
 31
0.0
  0
LINE
  5
25C
330
1E
100
AcDbEntity
  8
OBJECT
100
AcDbLine
 10
11.40759425578059
 20
80.63519971315072
 30
0.0
 11
11.24559425578055
 21
80.63519971315072
 31
0.0
  0
LINE
  5
25D
330
1E
100
AcDbEntity
  8
OBJECT
100
AcDbLine
 10
11.40759425578059
 20
81.13519971315071
 30
0.0
 11
11.24559425578055
 21
81.13519971315071
 31
0.0
  0
LINE
  5
25E
330
1E
100
AcDbEntity
  8
OBJECT
100
AcDbLine
 10
11.40759425578059
 20
79.63519971315072
 30
0.0
 11
11.24559425578055
 21
79.63519971315072
 31
0.0
  0
LINE
  5
25F
330
1E
100
AcDbEntity
  8
OBJECT
100
AcDbLine
 10
11.40759425578059
 20
79.13519971315072
 30
0.0
 11
11.24559425578055
 21
79.13519971315072
 31
0.0
  0
LINE
  5
260
330
1E
100
AcDbEntity
  8
OBJECT
100
AcDbLine
 10
11.40759425578059
 20
78.13519971315073
 30
0.0
 11
11.24559425578055
 21
78.13519971315073
 31
0.0
  0
LINE
  5
261
330
1E
100
AcDbEntity
  8
OBJECT
100
AcDbLine
 10
11.40759425578059
 20
78.63519971315072
 30
0.0
 11
11.24559425578055
 21
78.63519971315072
 31
0.0
  0
LWPOLYLINE
  5
262
330
1E
100
AcDbEntity
  8
HIDDEN
  6
HIDDEN2
100
AcDbPolyline
 90
        4
 70
     0
 43
0.0
 10
6.157594255780594
 20
84.23019971315072
 10
6.657594255780594
 20
84.23019971315072
 10
6.657594255780594
 20
84.04019971315072
 10
6.157594255780594
 20
84.04019971315072
  0
LWPOLYLINE
  5
268
330
1E
100
AcDbEntity
  8
HIDDEN
  6
HIDDEN2
100
AcDbPolyline
 90
        4
 70
     0
 43
0.0
 10
6.157594255780594
 20
86.73019971315072
 10
6.657594255780594
 20
86.73019971315072
 10
6.657594255780594
 20
86.54019971315072
 10
6.157594255780594
 20
86.54019971315072
  0
LWPOLYLINE
  5
26E
330
1E
100
AcDbEntity
  8
OBJECT
100
AcDbPolyline
 90
        4
 70
     1
 43
0.0
 10
12.46971925578057
 20
85.83832471315069
 42
-0.217523824832095
 10
12.69471925578059
 20
85.70269971315072
 10
12.69471925578059
 20
85.06769971315071
 42
-0.2175238248320952
 10
12.46971925578057
 20
84.9320747131507
  0
LINE
  5
274
330
1E
100
AcDbEntity
  8
OBJECT
100
AcDbLine
 10
11.40759425578059
 20
83.13519971315072
 30
0.0
 11
11.24559425578055
 21
83.13519971315072
 31
0.0
  0
LINE
  5
275
330
1E
100
AcDbEntity
  8
OBJECT
100
AcDbLine
 10
11.40759425578059
 20
84.6351997131507
 30
0.0
 11
11.24559425578055
 21
84.6351997131507
 31
0.0
  0
LINE
  5
276
330
1E
100
AcDbEntity
  8
OBJECT
100
AcDbLine
 10
11.40759425578059
 20
83.63519971315069
 30
0.0
 11
11.24559425578055
 21
83.63519971315069
 31
0.0
  0
LINE
  5
277
330
1E
100
AcDbEntity
  8
OBJECT
100
AcDbLine
 10
11.40759425578059
 20
84.1351997131507
 30
0.0
 11
11.24559425578055
 21
84.1351997131507
 31
0.0
  0
LINE
  5
278
330
1E
100
AcDbEntity
  8
OBJECT
100
AcDbLine
 10
11.40759425578059
 20
82.1351997131507
 30
0.0
 11
11.24559425578055
 21
82.1351997131507
 31
0.0
  0
LINE
  5
279
330
1E
100
AcDbEntity
  8
OBJECT
100
AcDbLine
 10
11.40759425578059
 20
82.63519971315071
 30
0.0
 11
11.24559425578055
 21
82.63519971315071
 31
0.0
  0
LINE
  5
27A
330
1E
100
AcDbEntity
  8
OBJECT
100
AcDbLine
 10
11.40759425578059
 20
81.63519971315071
 30
0.0
 11
11.24559425578055
 21
81.63519971315071
 31
0.0
  0
LINE
  5
27B
330
1E
100
AcDbEntity
  8
OBJECT
100
AcDbLine
 10
11.40759425578059
 20
88.1351997131507
 30
0.0
 11
11.24559425578055
 21
88.1351997131507
 31
0.0
  0
LINE
  5
27C
330
1E
100
AcDbEntity
  8
OBJECT
100
AcDbLine
 10
11.40759425578059
 20
86.6351997131507
 30
0.0
 11
11.24559425578055
 21
86.6351997131507
 31
0.0
  0
LINE
  5
27D
330
1E
100
AcDbEntity
  8
OBJECT
100
AcDbLine
 10
11.40759425578059
 20
87.1351997131507
 30
0.0
 11
11.24559425578055
 21
87.1351997131507
 31
0.0
  0
LINE
  5
27E
330
1E
100
AcDbEntity
  8
OBJECT
100
AcDbLine
 10
11.40759425578059
 20
87.63519971315069
 30
0.0
 11
11.24559425578055
 21
87.63519971315069
 31
0.0
  0
LINE
  5
27F
330
1E
100
AcDbEntity
  8
OBJECT
100
AcDbLine
 10
11.40759425578059
 20
86.13519971315069
 30
0.0
 11
11.24559425578055
 21
86.13519971315069
 31
0.0
  0
LINE
  5
280
330
1E
100
AcDbEntity
  8
OBJECT
100
AcDbLine
 10
11.40759425578059
 20
85.6351997131507
 30
0.0
 11
11.24559425578055
 21
85.6351997131507
 31
0.0
  0
LINE
  5
281
330
1E
100
AcDbEntity
  8
OBJECT
100
AcDbLine
 10
11.40759425578059
 20
85.13519971315069
 30
0.0
 11
11.24559425578055
 21
85.13519971315069
 31
0.0
  0
ARC
  5
282
330
1E
100
AcDbEntity
  8
HIDDEN
100
AcDbCircle
 10
11.96971925578057
 20
95.40119971315069
 30
0.0
 40
0.453125
100
AcDbArc
 50
0.0
 51
90.0
  0
ARC
  5
283
330
1E
100
AcDbEntity
  8
OBJECT
100
AcDbCircle
 10
11.96971925578057
 20
95.40119971315069
 30
0.0
 40
0.5
100
AcDbArc
 50
0.0
 51
90.0
  0
LWPOLYLINE
  5
284
330
1E
100
AcDbEntity
  8
OBJECT
100
AcDbPolyline
 90
       20
 70
     1
 43
0.0
 10
7.095577677197837
 20
94.90119971315069
 10
7.095577677197837
 20
95.05121304687925
 42
-0.1687295055132477
 10
6.979577677197852
 20
95.16722723956231
 10
6.979577677197852
 20
95.38517218673932
 42
-0.6267890062733434
 10
7.429577677197841
 20
95.38517218673904
 10
7.429577677197841
 20
95.16722723956231
 42
-0.1687295055132672
 10
7.313577677197855
 20
95.05121304687925
 10
7.313577677197855
 20
94.90119971315069
 10
8.095577677197837
 20
94.90119971315069
 10
8.095577677197837
 20
95.05121304687925
 42
-0.1687295055132477
 10
7.979577677197852
 20
95.16722723956231
 10
7.979577677197852
 20
95.38517218673932
 42
-0.6267890062733434
 10
8.429577677197841
 20
95.38517218673904
 10
8.429577677197841
 20
95.16722723956231
 42
-0.1687295055132672
 10
8.313577677197798
 20
95.05121304687923
 10
8.313577677197855
 20
94.90119971315072
 10
10.20459425578056
 20
94.90119971315069
 10
10.20459425578056
 20
90.90119971315068
 10
6.204594255780563
 20
90.90119971315068
 10
6.204594255780563
 20
94.90119971315069
  0
LINE
  5
29A
330
1E
100
AcDbEntity
  8
HIDDEN
100
AcDbLine
 10
6.204594255780563
 20
95.85419971315072
 30
0.0
 11
6.204594255780563
 21
94.97602815360444
 31
0.0
  0
LINE
  5
29B
330
1E
100
AcDbEntity
  8
HIDDEN
100
AcDbLine
 10
11.36059425578056
 20
95.85419971315072
 30
0.0
 11
11.36059425578056
 21
95.22919971315072
 31
0.0
  0
LWPOLYLINE
  5
29C
330
1E
100
AcDbEntity
  8
HIDDEN
  6
HIDDEN2
100
AcDbPolyline
 90
        4
 70
     0
 43
0.0
 10
6.204594255780563
 20
94.5091997131507
 10
6.657594255780594
 20
94.5091997131507
 10
6.657594255780594
 20
94.6991997131507
 10
6.204594255780563
 20
94.6991997131507
  0
LINE
  5
2A2
330
1E
100
AcDbEntity
  8
OBJECT
100
AcDbLine
 10
11.40759425578059
 20
89.6351997131507
 30
0.0
 11
11.24559425578055
 21
89.6351997131507
 31
0.0
  0
LINE
  5
2A3
330
1E
100
AcDbEntity
  8
OBJECT
100
AcDbLine
 10
11.40759425578059
 20
91.13519971315069
 30
0.0
 11
11.24559425578055
 21
91.13519971315069
 31
0.0
  0
LINE
  5
2A4
330
1E
100
AcDbEntity
  8
OBJECT
100
AcDbLine
 10
11.40759425578059
 20
90.6351997131507
 30
0.0
 11
11.24559425578055
 21
90.6351997131507
 31
0.0
  0
LINE
  5
2A5
330
1E
100
AcDbEntity
  8
OBJECT
100
AcDbLine
 10
11.40759425578059
 20
90.13519971315069
 30
0.0
 11
11.24559425578055
 21
90.13519971315069
 31
0.0
  0
LINE
  5
2A6
330
1E
100
AcDbEntity
  8
OBJECT
100
AcDbLine
 10
11.40759425578059
 20
91.6351997131507
 30
0.0
 11
11.24559425578055
 21
91.6351997131507
 31
0.0
  0
LINE
  5
2A7
330
1E
100
AcDbEntity
  8
OBJECT
100
AcDbLine
 10
11.40759425578059
 20
89.1351997131507
 30
0.0
 11
11.24559425578055
 21
89.1351997131507
 31
0.0
  0
LINE
  5
2A8
330
1E
100
AcDbEntity
  8
OBJECT
100
AcDbLine
 10
11.40759425578059
 20
88.63519971315069
 30
0.0
 11
11.24559425578055
 21
88.63519971315069
 31
0.0
  0
LWPOLYLINE
  5
2A9
330
1E
100
AcDbEntity
  8
HIDDEN
  6
HIDDEN2
100
AcDbPolyline
 90
        4
 70
     0
 43
0.0
 10
12.46971925578057
 20
94.69919971315071
 10
11.96971925578057
 20
94.69919971315071
 10
11.96971925578057
 20
94.50919971315071
 10
12.46971925578057
 20
94.50919971315071
  0
LINE
  5
2AF
330
1E
100
AcDbEntity
  8
OBJECT
100
AcDbLine
 10
11.40759425578059
 20
93.1351997131507
 30
0.0
 11
11.24559425578055
 21
93.1351997131507
 31
0.0
  0
LINE
  5
2B0
330
1E
100
AcDbEntity
  8
OBJECT
100
AcDbLine
 10
11.40759425578059
 20
93.63519971315069
 30
0.0
 11
11.24559425578055
 21
93.63519971315069
 31
0.0
  0
LINE
  5
2B1
330
1E
100
AcDbEntity
  8
OBJECT
100
AcDbLine
 10
11.40759425578059
 20
92.63519971315069
 30
0.0
 11
11.24559425578055
 21
92.63519971315069
 31
0.0
  0
LINE
  5
2B2
330
1E
100
AcDbEntity
  8
HIDDEN
100
AcDbLine
 10
11.24059425578056
 20
95.33919971315073
 30
0.0
 11
11.19359425578059
 21
95.33919971315073
 31
0.0
  0
LINE
  5
2B3
330
1E
100
AcDbEntity
  8
OBJECT
100
AcDbLine
 10
11.40759425578059
 20
95.13519971315069
 30
0.0
 11
11.24559425578055
 21
95.13519971315069
 31
0.0
  0
LINE
  5
2B4
330
1E
100
AcDbEntity
  8
OBJECT
100
AcDbLine
 10
11.40759425578059
 20
95.40119971315071
 30
0.0
 11
11.24059425578056
 21
95.40119971315071
 31
0.0
  0
LINE
  5
2B5
330
1E
100
AcDbEntity
  8
OBJECT
100
AcDbLine
 10
11.40759425578059
 20
94.1351997131507
 30
0.0
 11
11.24559425578055
 21
94.1351997131507
 31
0.0
  0
LINE
  5
2B6
330
1E
100
AcDbEntity
  8
OBJECT
100
AcDbLine
 10
11.40759425578059
 20
94.6351997131507
 30
0.0
 11
11.24559425578055
 21
94.6351997131507
 31
0.0
  0
LINE
  5
2B7
330
1E
100
AcDbEntity
  8
OBJECT
100
AcDbLine
 10
11.40759425578059
 20
92.1351997131507
 30
0.0
 11
11.24559425578055
 21
92.1351997131507
 31
0.0
  0
LWPOLYLINE
  5
2B8
330
1E
100
AcDbEntity
  8
HIDDEN
100
AcDbPolyline
 90
        4
 70
     0
 43
0.0
 10
11.40759425578053
 20
95.27619971315072
 10
11.64159425578057
 20
95.27619971315072
 10
11.64159425578057
 20
95.22919971315072
 10
11.36059425578056
 20
95.22919971315072
  0
LINE
  5
2BE
330
1E
100
AcDbEntity
  8
OBJECT
100
AcDbLine
 10
11.40759425578053
 20
95.90119971315072
 30
0.0
 11
6.157594255780537
 21
95.90119971315072
 31
0.0
  0
LINE
  5
2BF
330
1E
100
AcDbEntity
  8
HIDDEN
100
AcDbLine
 10
11.36059425578056
 20
95.85419971315072
 30
0.0
 11
6.204594255780563
 21
95.85419971315072
 31
0.0
  0
LINE
  5
2C0
330
1E
100
AcDbEntity
  8
OBJECT
100
AcDbLine
 10
11.40759425578059
 20
95.90119971315068
 30
0.0
 11
11.96971925578057
 21
95.90119971315068
 31
0.0
  0
LINE
  5
2C1
330
1E
100
AcDbEntity
  8
HIDDEN
100
AcDbLine
 10
11.45446925578059
 20
95.85432471315069
 30
0.0
 11
11.96971925578057
 21
95.85432471315069
 31
0.0
  0
LWPOLYLINE
  5
2C2
330
1E
100
AcDbEntity
  8
HIDDEN
100
AcDbPolyline
 90
        6
 70
     0
 43
0.0
 10
37.28762342739537
 20
70.99126365262311
 10
37.28762342739537
 20
71.14826365262309
 42
0.4142135623730951
 10
37.16262342739537
 20
71.27326365262309
 10
16.63262342739534
 20
71.27326365262321
 42
0.4142135623731025
 10
16.50762342739534
 20
71.14826365262309
 10
16.50762342739534
 20
70.99126365262307
  0
LWPOLYLINE
  5
2CA
330
1E
100
AcDbEntity
  8
HIDDEN
  6
HIDDEN2
100
AcDbPolyline
 90
        6
 70
     1
 43
0.0
 10
15.81949842739535
 20
71.60038865262311
 42
-0.4211102882306934
 10
16.2832660598224
 20
72.05338865262311
 10
37.51198079496609
 20
72.05338865262309
 42
-0.4211102882321143
 10
37.97574842739533
 20
71.60038865262309
 10
37.97574842739533
 20
71.0851386526231
 10
15.81949842739535
 20
71.0851386526231
  0
LWPOLYLINE
  5
2D2
330
1E
100
AcDbEntity
  8
OBJECT
100
AcDbPolyline
 90
        6
 70
     0
 43
0.0
 10
15.77262342739536
 20
71.0382636526231
 10
15.77262342739536
 20
71.60038865262311
 42
-0.4142135623730951
 10
16.27262342739536
 20
72.10038865262311
 10
37.52262342739533
 20
72.10038865262308
 42
-0.4142135623730951
 10
38.02262342739533
 20
71.60038865262311
 10
38.02262342739533
 20
71.0382636526231
  0
LWPOLYLINE
  5
2DA
330
1E
100
AcDbEntity
  8
OBJECT
100
AcDbPolyline
 90
        4
 70
     1
 43
0.0
 10
36.16374842739537
 20
72.10038865262308
 42
0.217523824832095
 10
36.02812342739537
 20
72.32538865262307
 10
35.39312342739538
 20
72.32538865262307
 42
0.2175238248320952
 10
35.25749842739537
 20
72.10038865262308
  0
LWPOLYLINE
  5
2E0
330
1E
100
AcDbEntity
  8
HIDDEN
100
AcDbPolyline
 90
        8
 70
     1
 43
0.0
 10
35.39862342739536
 20
71.22538865262308
 10
35.39862342739536
 20
71.10038865262308
 10
36.58562342739537
 20
71.10038865262308
 10
36.58562342739537
 20
70.85038865262308
 10
37.58562342739537
 20
70.85038865262308
 10
37.58562342739537
 20
70.97538865262308
 10
36.71062342739537
 20
70.97538865262308
 10
36.71062342739537
 20
71.22538865262308
  0
LINE
  5
2EA
330
1E
100
AcDbEntity
  8
HIDDEN
100
AcDbLine
 10
15.77262342739536
 20
70.99126365262307
 30
0.0
 11
37.97562342739533
 21
70.99126365262311
 31
0.0
  0
LINE
  5
2EB
330
1E
100
AcDbEntity
  8
OBJECT
100
AcDbLine
 10
15.77262342739536
 20
71.0382636526231
 30
0.0
 11
38.02262342739533
 21
71.0382636526231
 31
0.0
  0
LINE
  5
2EC
330
1E
100
AcDbEntity
  8
HIDDEN
100
AcDbLine
 10
15.81962342739532
 20
65.8352636526231
 30
0.0
 11
37.97562342739533
 21
65.8352636526231
 31
0.0
  0
LINE
  5
2ED
330
1E
100
AcDbEntity
  8
OBJECT
100
AcDbLine
 10
15.77262342739536
 20
65.7882636526231
 30
0.0
 11
38.02262342739533
 21
65.7882636526231
 31
0.0
  0
CIRCLE
  5
2EE
330
1E
100
AcDbEntity
  8
OBJECT
100
AcDbCircle
 10
21.33510204192518
 20
70.47576365262313
 30
0.0
 40
0.109
  0
CIRCLE
  5
2EF
330
1E
100
AcDbEntity
  8
OBJECT
100
AcDbCircle
 10
17.21010204192518
 20
70.47576365262313
 30
0.0
 40
0.109
  0
LINE
  5
2F0
330
1E
100
AcDbEntity
  8
HIDDEN
100
AcDbLine
 10
15.81962342739532
 20
65.8352636526231
 30
0.0
 11
15.81962342739532
 21
70.82426365262309
 31
0.0
  0
LINE
  5
2F1
330
1E
100
AcDbEntity
  8
OBJECT
100
AcDbLine
 10
15.77262342739536
 20
65.7882636526231
 30
0.0
 11
15.77262342739536
 21
71.0382636526231
 31
0.0
  0
LWPOLYLINE
  5
2F2
330
1E
100
AcDbEntity
  8
HIDDEN
100
AcDbPolyline
 90
        4
 70
     0
 43
0.0
 10
15.77262342739536
 20
70.4602636526231
 10
16.77262342739536
 20
70.4602636526231
 10
16.77262342739536
 20
65.99126365262311
 10
15.77262342739536
 20
65.99126365262311
  0
LWPOLYLINE
  5
2F8
330
1E
100
AcDbEntity
  8
HIDDEN
  6
HIDDEN2
100
AcDbPolyline
 90
        4
 70
     0
 43
0.0
 10
15.77262342739536
 20
68.41726365262309
 10
16.14762342739536
 20
68.41726365262309
 10
16.14762342739536
 20
68.2532636526231
 10
15.77262342739536
 20
68.2532636526231
  0
INSERT
  5
2FE
330
1E
100
AcDbEntity
  8
OBJECT
100
AcDbBlockReference
  2
OBLONG
 10
20.14760204192515
 20
66.91326367304782
 30
0.0
 41
-1.0
 50
270.0
  0
INSERT
  5
2FF
330
1E
100
AcDbEntity
  8
OBJECT
100
AcDbBlockReference
  2
OBLONG
 10
20.64760204192515
 20
66.91326367304782
 30
0.0
 41
-1.0
 50
270.0
  0
INSERT
  5
300
330
1E
100
AcDbEntity
  8
OBJECT
100
AcDbBlockReference
  2
OBLONG
 10
20.39760204192515
 20
66.91326367304782
 30
0.0
 41
-1.0
 50
270.0
  0
INSERT
  5
301
330
1E
100
AcDbEntity
  8
OBJECT
100
AcDbBlockReference
  2
OBLONG
 10
17.89760204192515
 20
66.91326367304782
 30
0.0
 41
-1.0
 50
270.0
  0
INSERT
  5
302
330
1E
100
AcDbEntity
  8
OBJECT
100
AcDbBlockReference
  2
OBLONG
 10
18.89760204192515
 20
66.91326367304782
 30
0.0
 41
-1.0
 50
270.0
  0
INSERT
  5
303
330
1E
100
AcDbEntity
  8
OBJECT
100
AcDbBlockReference
  2
OBLONG
 10
18.39760204192515
 20
66.91326367304782
 30
0.0
 41
-1.0
 50
270.0
  0
INSERT
  5
304
330
1E
100
AcDbEntity
  8
OBJECT
100
AcDbBlockReference
  2
OBLONG
 10
18.14760204192515
 20
66.91326367304782
 30
0.0
 41
-1.0
 50
270.0
  0
INSERT
  5
305
330
1E
100
AcDbEntity
  8
OBJECT
100
AcDbBlockReference
  2
OBLONG
 10
18.64760204192515
 20
66.91326367304782
 30
0.0
 41
-1.0
 50
270.0
  0
INSERT
  5
306
330
1E
100
AcDbEntity
  8
OBJECT
100
AcDbBlockReference
  2
OBLONG
 10
19.64760204192515
 20
66.91326367304782
 30
0.0
 41
-1.0
 50
270.0
  0
INSERT
  5
307
330
1E
100
AcDbEntity
  8
OBJECT
100
AcDbBlockReference
  2
OBLONG
 10
19.39760204192515
 20
66.91326367304782
 30
0.0
 41
-1.0
 50
270.0
  0
INSERT
  5
308
330
1E
100
AcDbEntity
  8
OBJECT
100
AcDbBlockReference
  2
OBLONG
 10
19.14760204192515
 20
66.91326367304782
 30
0.0
 41
-1.0
 50
270.0
  0
INSERT
  5
309
330
1E
100
AcDbEntity
  8
OBJECT
100
AcDbBlockReference
  2
OBLONG
 10
19.89760204192515
 20
66.91326367304782
 30
0.0
 41
-1.0
 50
270.0
  0
CIRCLE
  5
30A
330
1E
100
AcDbEntity
  8
OBJECT
100
AcDbCircle
 10
17.21010204192518
 20
66.35076365262313
 30
0.0
 40
0.109
  0
CIRCLE
  5
30B
330
1E
100
AcDbEntity
  8
OBJECT
100
AcDbCircle
 10
21.33510204192518
 20
66.35076365262313
 30
0.0
 40
0.109
  0
INSERT
  5
30C
330
1E
100
AcDbEntity
  8
OBJECT
100
AcDbBlockReference
  2
OBLONG
 10
20.14760204192515
 20
68.91326367304779
 30
0.0
 41
-1.0
 50
270.0
  0
INSERT
  5
30D
330
1E
100
AcDbEntity
  8
OBJECT
100
AcDbBlockReference
  2
OBLONG
 10
20.14760204192515
 20
69.91326367304779
 30
0.0
 41
-1.0
 50
270.0
  0
INSERT
  5
30E
330
1E
100
AcDbEntity
  8
OBJECT
100
AcDbBlockReference
  2
OBLONG
 10
20.14760204192515
 20
67.9132636730478
 30
0.0
 41
-1.0
 50
270.0
  0
INSERT
  5
30F
330
1E
100
AcDbEntity
  8
OBJECT
100
AcDbBlockReference
  2
OBLONG
 10
18.64760204192515
 20
68.91326367304779
 30
0.0
 41
-1.0
 50
270.0
  0
INSERT
  5
310
330
1E
100
AcDbEntity
  8
OBJECT
100
AcDbBlockReference
  2
OBLONG
 10
18.89760204192515
 20
68.91326367304779
 30
0.0
 41
-1.0
 50
270.0
  0
INSERT
  5
311
330
1E
100
AcDbEntity
  8
OBJECT
100
AcDbBlockReference
  2
OBLONG
 10
18.39760204192515
 20
68.91326367304779
 30
0.0
 41
-1.0
 50
270.0
  0
INSERT
  5
312
330
1E
100
AcDbEntity
  8
OBJECT
100
AcDbBlockReference
  2
OBLONG
 10
18.14760204192515
 20
68.91326367304779
 30
0.0
 41
-1.0
 50
270.0
  0
INSERT
  5
313
330
1E
100
AcDbEntity
  8
OBJECT
100
AcDbBlockReference
  2
OBLONG
 10
17.89760204192515
 20
68.91326367304779
 30
0.0
 41
-1.0
 50
270.0
  0
INSERT
  5
314
330
1E
100
AcDbEntity
  8
OBJECT
100
AcDbBlockReference
  2
OBLONG
 10
19.64760204192515
 20
68.91326367304779
 30
0.0
 41
-1.0
 50
270.0
  0
INSERT
  5
315
330
1E
100
AcDbEntity
  8
OBJECT
100
AcDbBlockReference
  2
OBLONG
 10
19.39760204192515
 20
68.91326367304779
 30
0.0
 41
-1.0
 50
270.0
  0
INSERT
  5
316
330
1E
100
AcDbEntity
  8
OBJECT
100
AcDbBlockReference
  2
OBLONG
 10
19.14760204192515
 20
68.91326367304779
 30
0.0
 41
-1.0
 50
270.0
  0
INSERT
  5
317
330
1E
100
AcDbEntity
  8
OBJECT
100
AcDbBlockReference
  2
OBLONG
 10
17.89760204192515
 20
69.91326367304779
 30
0.0
 41
-1.0
 50
270.0
  0
INSERT
  5
318
330
1E
100
AcDbEntity
  8
OBJECT
100
AcDbBlockReference
  2
OBLONG
 10
18.64760204192515
 20
69.91326367304779
 30
0.0
 41
-1.0
 50
270.0
  0
INSERT
  5
319
330
1E
100
AcDbEntity
  8
OBJECT
100
AcDbBlockReference
  2
OBLONG
 10
18.39760204192515
 20
69.91326367304779
 30
0.0
 41
-1.0
 50
270.0
  0
INSERT
  5
31A
330
1E
100
AcDbEntity
  8
OBJECT
100
AcDbBlockReference
  2
OBLONG
 10
18.14760204192515
 20
69.91326367304779
 30
0.0
 41
-1.0
 50
270.0
  0
INSERT
  5
31B
330
1E
100
AcDbEntity
  8
OBJECT
100
AcDbBlockReference
  2
OBLONG
 10
18.89760204192515
 20
69.91326367304779
 30
0.0
 41
-1.0
 50
270.0
  0
INSERT
  5
31C
330
1E
100
AcDbEntity
  8
OBJECT
100
AcDbBlockReference
  2
OBLONG
 10
19.64760204192515
 20
69.91326367304779
 30
0.0
 41
-1.0
 50
270.0
  0
INSERT
  5
31D
330
1E
100
AcDbEntity
  8
OBJECT
100
AcDbBlockReference
  2
OBLONG
 10
19.39760204192515
 20
69.91326367304779
 30
0.0
 41
-1.0
 50
270.0
  0
INSERT
  5
31E
330
1E
100
AcDbEntity
  8
OBJECT
100
AcDbBlockReference
  2
OBLONG
 10
19.14760204192515
 20
69.91326367304779
 30
0.0
 41
-1.0
 50
270.0
  0
INSERT
  5
31F
330
1E
100
AcDbEntity
  8
OBJECT
100
AcDbBlockReference
  2
OBLONG
 10
19.89760204192515
 20
68.91326367304779
 30
0.0
 41
-1.0
 50
270.0
  0
INSERT
  5
320
330
1E
100
AcDbEntity
  8
OBJECT
100
AcDbBlockReference
  2
OBLONG
 10
19.89760204192515
 20
69.91326367304779
 30
0.0
 41
-1.0
 50
270.0
  0
INSERT
  5
321
330
1E
100
AcDbEntity
  8
OBJECT
100
AcDbBlockReference
  2
OBLONG
 10
17.89760204192515
 20
67.9132636730478
 30
0.0
 41
-1.0
 50
270.0
  0
INSERT
  5
322
330
1E
100
AcDbEntity
  8
OBJECT
100
AcDbBlockReference
  2
OBLONG
 10
18.64760204192515
 20
67.9132636730478
 30
0.0
 41
-1.0
 50
270.0
  0
INSERT
  5
323
330
1E
100
AcDbEntity
  8
OBJECT
100
AcDbBlockReference
  2
OBLONG
 10
18.39760204192515
 20
67.9132636730478
 30
0.0
 41
-1.0
 50
270.0
  0
INSERT
  5
324
330
1E
100
AcDbEntity
  8
OBJECT
100
AcDbBlockReference
  2
OBLONG
 10
18.14760204192515
 20
67.9132636730478
 30
0.0
 41
-1.0
 50
270.0
  0
INSERT
  5
325
330
1E
100
AcDbEntity
  8
OBJECT
100
AcDbBlockReference
  2
OBLONG
 10
18.89760204192515
 20
67.9132636730478
 30
0.0
 41
-1.0
 50
270.0
  0
INSERT
  5
326
330
1E
100
AcDbEntity
  8
OBJECT
100
AcDbBlockReference
  2
OBLONG
 10
19.89760204192515
 20
67.9132636730478
 30
0.0
 41
-1.0
 50
270.0
  0
INSERT
  5
327
330
1E
100
AcDbEntity
  8
OBJECT
100
AcDbBlockReference
  2
OBLONG
 10
19.64760204192515
 20
67.9132636730478
 30
0.0
 41
-1.0
 50
270.0
  0
INSERT
  5
328
330
1E
100
AcDbEntity
  8
OBJECT
100
AcDbBlockReference
  2
OBLONG
 10
19.39760204192515
 20
67.9132636730478
 30
0.0
 41
-1.0
 50
270.0
  0
INSERT
  5
329
330
1E
100
AcDbEntity
  8
OBJECT
100
AcDbBlockReference
  2
OBLONG
 10
19.14760204192515
 20
67.9132636730478
 30
0.0
 41
-1.0
 50
270.0
  0
INSERT
  5
32A
330
1E
100
AcDbEntity
  8
OBJECT
100
AcDbBlockReference
  2
OBLONG
 10
20.64760204192515
 20
68.91326367304779
 30
0.0
 41
-1.0
 50
270.0
  0
INSERT
  5
32B
330
1E
100
AcDbEntity
  8
OBJECT
100
AcDbBlockReference
  2
OBLONG
 10
20.39760204192515
 20
68.91326367304779
 30
0.0
 41
-1.0
 50
270.0
  0
INSERT
  5
32C
330
1E
100
AcDbEntity
  8
OBJECT
100
AcDbBlockReference
  2
OBLONG
 10
20.64760204192515
 20
69.91326367304779
 30
0.0
 41
-1.0
 50
270.0
  0
INSERT
  5
32D
330
1E
100
AcDbEntity
  8
OBJECT
100
AcDbBlockReference
  2
OBLONG
 10
20.39760204192515
 20
69.91326367304779
 30
0.0
 41
-1.0
 50
270.0
  0
INSERT
  5
32E
330
1E
100
AcDbEntity
  8
OBJECT
100
AcDbBlockReference
  2
OBLONG
 10
20.64760204192515
 20
67.9132636730478
 30
0.0
 41
-1.0
 50
270.0
  0
INSERT
  5
32F
330
1E
100
AcDbEntity
  8
OBJECT
100
AcDbBlockReference
  2
OBLONG
 10
20.39760204192515
 20
67.9132636730478
 30
0.0
 41
-1.0
 50
270.0
  0
LWPOLYLINE
  5
330
330
1E
100
AcDbEntity
  8
HIDDEN
100
AcDbPolyline
 90
        4
 70
     1
 43
0.0
 10
16.19187342739533
 20
70.9072636526231
 10
16.19187342739533
 20
70.91713058361586
 42
0.2380324936361291
 10
15.87987342739532
 20
70.91713058361586
 10
15.87987342739532
 20
70.9072636526231
  0
LWPOLYLINE
  5
336
330
1E
100
AcDbEntity
  8
HIDDEN
100
AcDbPolyline
 90
        4
 70
     1
 43
0.0
 10
16.19187342739533
 20
71.00726365262312
 10
16.19187342739533
 20
70.99739672163036
 42
-0.2380324936361291
 10
15.87987342739532
 20
70.99739672163036
 10
15.87987342739532
 20
71.00726365262312
  0
CIRCLE
  5
33C
330
1E
100
AcDbEntity
  8
OBJECT
100
AcDbCircle
 10
15.69162342739531
 20
70.95726365262311
 30
0.0
 40
0.05
  0
LWPOLYLINE
  5
33D
330
1E
100
AcDbEntity
  8
OBJECT
 62
     4
100
AcDbPolyline
 90
        5
 70
     0
 43
0.0
 10
15.69162342739531
 20
70.9072636526231
 10
16.22262342739531
 20
70.9072636526231
 10
16.22262342739531
 20
70.87626365262309
 10
15.69162342739531
 20
70.87626365262309
 42
-4.341678926823472
 10
15.75534940326073
 20
70.9072636526231
  0
LWPOLYLINE
  5
344
330
1E
100
AcDbEntity
  8
OBJECT
 62
     2
100
AcDbPolyline
 90
        4
 70
     0
 43
0.0
 10
15.69162342739531
 20
71.0072636526231
 10
16.22262342739531
 20
71.0072636526231
 10
16.22262342739531
 20
71.0382636526231
 10
15.69162342739531
 20
71.0382636526231
  0
LINE
  5
34A
330
1E
100
AcDbEntity
  8
HIDDEN
100
AcDbLine
 10
15.81962342739535
 20
70.8712636526231
 30
0.0
 11
15.81962342739532
 21
70.9602636526231
 31
0.0
  0
LINE
  5
34B
330
1E
100
AcDbEntity
  8
HIDDEN
100
AcDbLine
 10
16.44462342739532
 20
70.8242636526231
 30
0.0
 11
16.44462342739532
 21
70.8712636526231
 31
0.0
  0
LINE
  5
34C
330
1E
100
AcDbEntity
  8
HIDDEN
100
AcDbLine
 10
16.44462342739532
 20
70.8712636526231
 30
0.0
 11
15.77262342739536
 21
70.8712636526231
 31
0.0
  0
LINE
  5
34D
330
1E
100
AcDbEntity
  8
HIDDEN
100
AcDbLine
 10
16.44462342739532
 20
70.8242636526231
 30
0.0
 11
15.81962342739535
 21
70.8242636526231
 31
0.0
  0
CIRCLE
  5
34E
330
1E
100
AcDbEntity
  8
OBJECT
100
AcDbCircle
 10
32.4601448128655
 20
70.47576365262313
 30
0.0
 40
0.109
  0
LWPOLYLINE
  5
34F
330
1E
100
AcDbEntity
  8
HIDDEN
  6
HIDDEN2
100
AcDbPolyline
 90
        4
 70
     0
 43
0.0
 10
26.35162342739533
 20
65.7882636526231
 10
26.35162342739533
 20
66.2882636526231
 10
26.16162342739537
 20
66.2882636526231
 10
26.16162342739534
 20
65.7882636526231
  0
LWPOLYLINE
  5
355
330
1E
100
AcDbEntity
  8
HIDDEN
  6
HIDDEN2
100
AcDbPolyline
 90
        4
 70
     0
 43
0.0
 10
28.85162342739533
 20
65.7882636526231
 10
28.85162342739533
 20
66.2882636526231
 10
28.66162342739537
 20
66.2882636526231
 10
28.66162342739534
 20
65.7882636526231
  0
INSERT
  5
35B
330
1E
100
AcDbEntity
  8
OBJECT
100
AcDbBlockReference
  2
OBLONG
 10
35.8976448128655
 20
66.91326367304782
 30
0.0
 50
90.0
  0
INSERT
  5
35C
330
1E
100
AcDbEntity
  8
OBJECT
100
AcDbBlockReference
  2
OBLONG
 10
34.1476448128655
 20
66.91326367304782
 30
0.0
 50
90.0
  0
INSERT
  5
35D
330
1E
100
AcDbEntity
  8
OBJECT
100
AcDbBlockReference
  2
OBLONG
 10
34.3976448128655
 20
66.91326367304782
 30
0.0
 50
90.0
  0
INSERT
  5
35E
330
1E
100
AcDbEntity
  8
OBJECT
100
AcDbBlockReference
  2
OBLONG
 10
34.6476448128655
 20
66.91326367304782
 30
0.0
 50
90.0
  0
INSERT
  5
35F
330
1E
100
AcDbEntity
  8
OBJECT
100
AcDbBlockReference
  2
OBLONG
 10
33.89764481286551
 20
66.91326367304782
 30
0.0
 50
90.0
  0
INSERT
  5
360
330
1E
100
AcDbEntity
  8
OBJECT
100
AcDbBlockReference
  2
OBLONG
 10
35.3976448128655
 20
66.91326367304782
 30
0.0
 50
90.0
  0
INSERT
  5
361
330
1E
100
AcDbEntity
  8
OBJECT
100
AcDbBlockReference
  2
OBLONG
 10
35.6476448128655
 20
66.91326367304782
 30
0.0
 50
90.0
  0
INSERT
  5
362
330
1E
100
AcDbEntity
  8
OBJECT
100
AcDbBlockReference
  2
OBLONG
 10
35.14764481286551
 20
66.91326367304782
 30
0.0
 50
90.0
  0
INSERT
  5
363
330
1E
100
AcDbEntity
  8
OBJECT
100
AcDbBlockReference
  2
OBLONG
 10
34.89764481286551
 20
66.91326367304782
 30
0.0
 50
90.0
  0
INSERT
  5
364
330
1E
100
AcDbEntity
  8
OBJECT
100
AcDbBlockReference
  2
OBLONG
 10
33.1476448128655
 20
66.91326367304782
 30
0.0
 50
90.0
  0
INSERT
  5
365
330
1E
100
AcDbEntity
  8
OBJECT
100
AcDbBlockReference
  2
OBLONG
 10
33.3976448128655
 20
66.91326367304782
 30
0.0
 50
90.0
  0
INSERT
  5
366
330
1E
100
AcDbEntity
  8
OBJECT
100
AcDbBlockReference
  2
OBLONG
 10
33.64764481286551
 20
66.91326367304782
 30
0.0
 50
90.0
  0
CIRCLE
  5
367
330
1E
100
AcDbEntity
  8
OBJECT
100
AcDbCircle
 10
32.4601448128655
 20
66.35076365262313
 30
0.0
 40
0.109
  0
INSERT
  5
368
330
1E
100
AcDbEntity
  8
OBJECT
100
AcDbBlockReference
  2
OBLONG
 10
35.8976448128655
 20
68.91326367304779
 30
0.0
 50
90.0
  0
INSERT
  5
369
330
1E
100
AcDbEntity
  8
OBJECT
100
AcDbBlockReference
  2
OBLONG
 10
35.8976448128655
 20
69.91326367304779
 30
0.0
 50
90.0
  0
INSERT
  5
36A
330
1E
100
AcDbEntity
  8
OBJECT
100
AcDbBlockReference
  2
OBLONG
 10
34.1476448128655
 20
68.91326367304779
 30
0.0
 50
90.0
  0
INSERT
  5
36B
330
1E
100
AcDbEntity
  8
OBJECT
100
AcDbBlockReference
  2
OBLONG
 10
33.89764481286551
 20
68.91326367304779
 30
0.0
 50
90.0
  0
INSERT
  5
36C
330
1E
100
AcDbEntity
  8
OBJECT
100
AcDbBlockReference
  2
OBLONG
 10
34.3976448128655
 20
68.91326367304779
 30
0.0
 50
90.0
  0
INSERT
  5
36D
330
1E
100
AcDbEntity
  8
OBJECT
100
AcDbBlockReference
  2
OBLONG
 10
34.6476448128655
 20
68.91326367304779
 30
0.0
 50
90.0
  0
INSERT
  5
36E
330
1E
100
AcDbEntity
  8
OBJECT
100
AcDbBlockReference
  2
OBLONG
 10
35.14764481286551
 20
68.91326367304779
 30
0.0
 50
90.0
  0
INSERT
  5
36F
330
1E
100
AcDbEntity
  8
OBJECT
100
AcDbBlockReference
  2
OBLONG
 10
34.89764481286551
 20
68.91326367304779
 30
0.0
 50
90.0
  0
INSERT
  5
370
330
1E
100
AcDbEntity
  8
OBJECT
100
AcDbBlockReference
  2
OBLONG
 10
35.3976448128655
 20
68.91326367304779
 30
0.0
 50
90.0
  0
INSERT
  5
371
330
1E
100
AcDbEntity
  8
OBJECT
100
AcDbBlockReference
  2
OBLONG
 10
35.6476448128655
 20
68.91326367304779
 30
0.0
 50
90.0
  0
INSERT
  5
372
330
1E
100
AcDbEntity
  8
OBJECT
100
AcDbBlockReference
  2
OBLONG
 10
34.1476448128655
 20
69.91326367304779
 30
0.0
 50
90.0
  0
INSERT
  5
373
330
1E
100
AcDbEntity
  8
OBJECT
100
AcDbBlockReference
  2
OBLONG
 10
33.89764481286551
 20
69.91326367304779
 30
0.0
 50
90.0
  0
INSERT
  5
374
330
1E
100
AcDbEntity
  8
OBJECT
100
AcDbBlockReference
  2
OBLONG
 10
34.3976448128655
 20
69.91326367304779
 30
0.0
 50
90.0
  0
INSERT
  5
375
330
1E
100
AcDbEntity
  8
OBJECT
100
AcDbBlockReference
  2
OBLONG
 10
34.6476448128655
 20
69.91326367304779
 30
0.0
 50
90.0
  0
INSERT
  5
376
330
1E
100
AcDbEntity
  8
OBJECT
100
AcDbBlockReference
  2
OBLONG
 10
35.14764481286551
 20
69.91326367304779
 30
0.0
 50
90.0
  0
INSERT
  5
377
330
1E
100
AcDbEntity
  8
OBJECT
100
AcDbBlockReference
  2
OBLONG
 10
34.89764481286551
 20
69.91326367304779
 30
0.0
 50
90.0
  0
INSERT
  5
378
330
1E
100
AcDbEntity
  8
OBJECT
100
AcDbBlockReference
  2
OBLONG
 10
35.3976448128655
 20
69.91326367304779
 30
0.0
 50
90.0
  0
INSERT
  5
379
330
1E
100
AcDbEntity
  8
OBJECT
100
AcDbBlockReference
  2
OBLONG
 10
35.6476448128655
 20
69.91326367304779
 30
0.0
 50
90.0
  0
INSERT
  5
37A
330
1E
100
AcDbEntity
  8
OBJECT
100
AcDbBlockReference
  2
OBLONG
 10
33.1476448128655
 20
68.91326367304779
 30
0.0
 50
90.0
  0
INSERT
  5
37B
330
1E
100
AcDbEntity
  8
OBJECT
100
AcDbBlockReference
  2
OBLONG
 10
33.3976448128655
 20
68.91326367304779
 30
0.0
 50
90.0
  0
INSERT
  5
37C
330
1E
100
AcDbEntity
  8
OBJECT
100
AcDbBlockReference
  2
OBLONG
 10
33.64764481286551
 20
68.91326367304779
 30
0.0
 50
90.0
  0
INSERT
  5
37D
330
1E
100
AcDbEntity
  8
OBJECT
100
AcDbBlockReference
  2
OBLONG
 10
33.1476448128655
 20
69.91326367304779
 30
0.0
 50
90.0
  0
INSERT
  5
37E
330
1E
100
AcDbEntity
  8
OBJECT
100
AcDbBlockReference
  2
OBLONG
 10
33.3976448128655
 20
69.91326367304779
 30
0.0
 50
90.0
  0
INSERT
  5
37F
330
1E
100
AcDbEntity
  8
OBJECT
100
AcDbBlockReference
  2
OBLONG
 10
33.64764481286551
 20
69.91326367304779
 30
0.0
 50
90.0
  0
INSERT
  5
380
330
1E
100
AcDbEntity
  8
OBJECT
100
AcDbBlockReference
  2
OBLONG
 10
35.8976448128655
 20
67.9132636730478
 30
0.0
 50
90.0
  0
INSERT
  5
381
330
1E
100
AcDbEntity
  8
OBJECT
100
AcDbBlockReference
  2
OBLONG
 10
33.1476448128655
 20
67.9132636730478
 30
0.0
 50
90.0
  0
INSERT
  5
382
330
1E
100
AcDbEntity
  8
OBJECT
100
AcDbBlockReference
  2
OBLONG
 10
33.3976448128655
 20
67.9132636730478
 30
0.0
 50
90.0
  0
INSERT
  5
383
330
1E
100
AcDbEntity
  8
OBJECT
100
AcDbBlockReference
  2
OBLONG
 10
34.1476448128655
 20
67.9132636730478
 30
0.0
 50
90.0
  0
INSERT
  5
384
330
1E
100
AcDbEntity
  8
OBJECT
100
AcDbBlockReference
  2
OBLONG
 10
33.64764481286551
 20
67.9132636730478
 30
0.0
 50
90.0
  0
INSERT
  5
385
330
1E
100
AcDbEntity
  8
OBJECT
100
AcDbBlockReference
  2
OBLONG
 10
33.89764481286551
 20
67.9132636730478
 30
0.0
 50
90.0
  0
INSERT
  5
386
330
1E
100
AcDbEntity
  8
OBJECT
100
AcDbBlockReference
  2
OBLONG
 10
35.14764481286551
 20
67.9132636730478
 30
0.0
 50
90.0
  0
INSERT
  5
387
330
1E
100
AcDbEntity
  8
OBJECT
100
AcDbBlockReference
  2
OBLONG
 10
34.3976448128655
 20
67.9132636730478
 30
0.0
 50
90.0
  0
INSERT
  5
388
330
1E
100
AcDbEntity
  8
OBJECT
100
AcDbBlockReference
  2
OBLONG
 10
34.6476448128655
 20
67.9132636730478
 30
0.0
 50
90.0
  0
INSERT
  5
389
330
1E
100
AcDbEntity
  8
OBJECT
100
AcDbBlockReference
  2
OBLONG
 10
34.89764481286551
 20
67.9132636730478
 30
0.0
 50
90.0
  0
INSERT
  5
38A
330
1E
100
AcDbEntity
  8
OBJECT
100
AcDbBlockReference
  2
OBLONG
 10
35.3976448128655
 20
67.9132636730478
 30
0.0
 50
90.0
  0
INSERT
  5
38B
330
1E
100
AcDbEntity
  8
OBJECT
100
AcDbBlockReference
  2
OBLONG
 10
35.6476448128655
 20
67.9132636730478
 30
0.0
 50
90.0
  0
LWPOLYLINE
  5
38C
330
1E
100
AcDbEntity
  8
HIDDEN
  6
HIDDEN2
100
AcDbPolyline
 90
        4
 70
     0
 43
0.0
 10
26.35162342739536
 20
72.10038865262309
 10
26.35162342739536
 20
71.60038865262311
 10
26.16162342739537
 20
71.60038865262311
 10
26.16162342739537
 20
72.10038865262309
  0
LWPOLYLINE
  5
392
330
1E
100
AcDbEntity
  8
HIDDEN
  6
HIDDEN2
100
AcDbPolyline
 90
        4
 70
     0
 43
0.0
 10
28.85162342739537
 20
72.10038865262309
 10
28.85162342739537
 20
71.60038865262311
 10
28.66162342739537
 20
71.60038865262311
 10
28.66162342739537
 20
72.10038865262309
  0
LINE
  5
398
330
1E
100
AcDbEntity
  8
HIDDEN
100
AcDbLine
 10
35.39812342739537
 20
71.22538865262308
 30
0.0
 11
35.39812342739537
 21
72.10038865262308
 31
0.0
  0
CIRCLE
  5
399
330
1E
100
AcDbEntity
  8
OBJECT
100
AcDbCircle
 10
36.5851448128655
 20
70.47576365262313
 30
0.0
 40
0.109
  0
LINE
  5
39A
330
1E
100
AcDbEntity
  8
HIDDEN
100
AcDbLine
 10
37.97562342739533
 20
65.8352636526231
 30
0.0
 11
37.97562342739533
 21
70.99126365262311
 31
0.0
  0
LINE
  5
39B
330
1E
100
AcDbEntity
  8
OBJECT
100
AcDbLine
 10
38.02262342739533
 20
65.7882636526231
 30
0.0
 11
38.02262342739533
 21
71.0382636526231
 31
0.0
  0
LWPOLYLINE
  5
39C
330
1E
100
AcDbEntity
  8
HIDDEN
100
AcDbPolyline
 90
        4
 70
     0
 43
0.0
 10
38.02262342739533
 20
70.4602636526231
 10
37.02262342739533
 20
70.4602636526231
 10
37.02262342739533
 20
65.99126365262311
 10
38.02262342739533
 20
65.99126365262311
  0
CIRCLE
  5
3A2
330
1E
100
AcDbEntity
  8
OBJECT
100
AcDbCircle
 10
36.5851448128655
 20
66.35076365262313
 30
0.0
 40
0.109
  0
LWPOLYLINE
  5
3A3
330
1E
100
AcDbEntity
  8
HIDDEN
  6
HIDDEN2
100
AcDbPolyline
 90
        4
 70
     0
 43
0.0
 10
38.02262342739533
 20
68.41726365262309
 10
37.64762342739533
 20
68.41726365262309
 10
37.64762342739533
 20
68.2532636526231
 10
38.02262342739533
 20
68.2532636526231
  0
LINE
  5
3A9
330
1E
100
AcDbEntity
  8
HIDDEN
100
AcDbLine
 10
37.35062342739533
 20
71.27326365262312
 30
0.0
 11
37.39762342739533
 21
71.27326365262312
 31
0.0
  0
LINE
  5
3AA
330
1E
100
AcDbEntity
  8
HIDDEN
100
AcDbLine
 10
37.39762342739533
 20
71.0382636526231
 30
0.0
 11
37.39762342739533
 21
71.27326365262312
 31
0.0
  0
LINE
  5
3AB
330
1E
100
AcDbEntity
  8
HIDDEN
100
AcDbLine
 10
37.35062342739533
 20
70.99126365262311
 30
0.0
 11
37.35062342739533
 21
71.27326365262312
 31
0.0
  0
LINE
  5
3AC
330
1E
100
AcDbEntity
  8
HIDDEN
100
AcDbLine
 10
36.02312342739537
 20
71.22538865262308
 30
0.0
 11
36.02312342739537
 21
72.10038865262308
 31
0.0
  0
LINE
  5
3AD
330
1E
100
AcDbEntity
  8
OBJECT
100
AcDbLine
 10
35.99668442127731
 20
101.1876190945952
 30
0.0
 11
35.44055708654761
 21
101.1876190945952
 31
0.0
  0
LINE
  5
3AE
330
1E
100
AcDbEntity
  8
OBJECT
100
AcDbLine
 10
35.3981234273954
 20
101.3805004068149
 30
0.0
 11
36.0231234273954
 21
101.3805004068149
 31
0.0
  0
LINE
  5
3AF
330
1E
100
AcDbEntity
  8
OBJECT
100
AcDbLine
 10
35.99668442127731
 20
101.2816190945952
 30
0.0
 11
35.44055708654761
 21
101.2816190945952
 31
0.0
  0
LINE
  5
3B0
330
1E
100
AcDbEntity
  8
OBJECT
100
AcDbLine
 10
35.99668442127731
 20
101.0936190945952
 30
0.0
 11
35.44055708654761
 21
101.0936190945952
 31
0.0
  0
LINE
  5
3B1
330
1E
100
AcDbEntity
  8
OBJECT
100
AcDbLine
 10
35.99668442127731
 20
100.9996190945952
 30
0.0
 11
35.44055708654761
 21
100.9996190945952
 31
0.0
  0
LINE
  5
3B2
330
1E
100
AcDbEntity
  8
OBJECT
100
AcDbLine
 10
35.99668442127731
 20
100.9056190945952
 30
0.0
 11
35.44055708654761
 21
100.9056190945952
 31
0.0
  0
LINE
  5
3B3
330
1E
100
AcDbEntity
  8
OBJECT
100
AcDbLine
 10
35.99668442127731
 20
100.8116190945952
 30
0.0
 11
35.44055708654761
 21
100.8116190945952
 31
0.0
  0
LINE
  5
3B4
330
1E
100
AcDbEntity
  8
OBJECT
100
AcDbLine
 10
35.99668442127731
 20
100.7176190945952
 30
0.0
 11
35.44055708654761
 21
100.7176190945952
 31
0.0
  0
LWPOLYLINE
  5
3B5
330
1E
100
AcDbEntity
  8
OBJECT
100
AcDbPolyline
 90
        6
 70
     1
 43
0.0
 10
35.97408184184144
 20
100.6215648176078
 42
-0.2367401266923993
 10
36.23754025628747
 20
100.6215648176078
 10
36.23754025628747
 20
100.5527504068149
 10
35.18370659850333
 20
100.5527504068149
 10
35.18370659850333
 20
100.6215648176078
 42
-0.2367401266923995
 10
35.44716501294937
 20
100.6215648176078
 42
-0.1183700633462
  0
LWPOLYLINE
  5
3BD
330
1E
100
AcDbEntity
  8
OBJECT
100
AcDbPolyline
 90
        4
 70
     1
 43
0.0
 10
36.1637484273954
 20
100.5055004068149
 42
-0.217523824832095
 10
36.02812342739539
 20
100.2805004068149
 10
35.3931234273954
 20
100.2805004068149
 42
-0.2175238248320952
 10
35.2574984273954
 20
100.5055004068149
  0
LINE
  5
3C3
330
1E
100
AcDbEntity
  8
OBJECT
100
AcDbLine
 10
36.10581104906444
 20
100.6527504068149
 30
0.0
 11
35.31543580572634
 21
100.6527504068149
 31
0.0
  0
LWPOLYLINE
  5
3C4
330
1E
100
AcDbEntity
  8
OBJECT
100
AcDbPolyline
 90
        8
 70
     1
 43
0.0
 10
35.39862342739539
 20
101.3805004068149
 10
35.39862342739539
 20
101.5055004068149
 10
36.5856234273954
 20
101.5055004068149
 10
36.5856234273954
 20
101.7555004068149
 10
37.5856234273954
 20
101.7555004068149
 10
37.5856234273954
 20
101.6305004068149
 10
36.7106234273954
 20
101.6305004068149
 10
36.7106234273954
 20
101.3805004068149
  0
LINE
  5
3CE
330
1E
100
AcDbEntity
  8
HIDDEN
100
AcDbLine
 10
35.87902007745668
 20
101.5676254068149
 30
0.0
 11
36.5856234273954
 21
101.5676254068149
 31
0.0
  0
LINE
  5
3CF
330
1E
100
AcDbEntity
  8
OBJECT
100
AcDbLine
 10
35.81761343125146
 20
101.6146254068149
 30
0.0
 11
36.5856234273954
 21
101.6146254068149
 31
0.0
  0
LINE
  5
3D0
330
1E
100
AcDbEntity
  8
OBJECT
100
AcDbLine
 10
37.52262342739538
 20
100.5055004068149
 30
0.0
 11
16.27262342739536
 21
100.5055004068148
 31
0.0
  0
LINE
  5
3D1
330
1E
100
AcDbEntity
  8
OBJECT
100
AcDbLine
 10
37.52262342739538
 20
100.5525004068149
 30
0.0
 11
16.26198079496754
 21
100.5525004068149
 31
0.0
  0
DIMENSION
  5
3D2
330
1E
100
AcDbEntity
  8
DIM
100
AcDbDimension
  2
*D3
 10
15.7726234273953
 20
98.547757162478
 30
0.0
 11
26.89762342739531
 21
98.547757162478
 31
0.0
 70
    32
 71
     5
 42
22.25000000000002
  3
23NSTD
100
AcDbAlignedDimension
 13
38.02262342739533
 23
95.90119971315067
 33
0.0
 14
15.7726234273953
 24
95.90119971315068
 34
0.0
100
AcDbRotatedDimension
  0
CIRCLE
  5
3D3
330
1E
100
AcDbEntity
  8
OBJECT
100
AcDbCircle
 10
35.71062342739537
 20
85.38519971315066
 30
0.0
 40
0.453125
  0
CIRCLE
  5
3D4
330
1E
100
AcDbEntity
  8
OBJECT
100
AcDbCircle
 10
35.71062342739537
 20
85.38519971315066
 30
0.0
 40
0.3174999999999999
  0
LINE
  5
3D5
330
1E
100
AcDbEntity
  8
OBJECT
100
AcDbLine
 10
37.52262342739533
 20
75.36919971315069
 30
0.0
 11
16.2726234273953
 21
75.36919971315068
 31
0.0
  0
LINE
  5
3D6
330
1E
100
AcDbEntity
  8
OBJECT
100
AcDbLine
 10
37.52262342739533
 20
95.40119971315064
 30
0.0
 11
16.2726234273953
 21
95.40119971315066
 31
0.0
  0
LINE
  5
3D7
330
1E
100
AcDbEntity
  8
HIDDEN
100
AcDbLine
 10
15.81962342739532
 20
74.91619971315066
 30
0.0
 11
37.9756234273953
 21
74.91619971315067
 31
0.0
  0
LINE
  5
3D8
330
1E
100
AcDbEntity
  8
OBJECT
100
AcDbLine
 10
15.77262342739533
 20
74.86919971315069
 30
0.0
 11
38.0226234273953
 21
74.86919971315067
 31
0.0
  0
LINE
  5
3D9
330
1E
100
AcDbEntity
  8
HIDDEN
100
AcDbLine
 10
15.81962342739529
 20
95.85419971315069
 30
0.0
 11
37.97562342739533
 21
95.85419971315069
 31
0.0
  0
LINE
  5
3DA
330
1E
100
AcDbEntity
  8
OBJECT
100
AcDbLine
 10
15.7726234273953
 20
95.90119971315068
 30
0.0
 11
38.02262342739533
 21
95.90119971315067
 31
0.0
  0
LINE
  5
3DB
330
1E
100
AcDbEntity
  8
OBJECT
100
AcDbLine
 10
15.61062342739526
 20
75.6351997131507
 30
0.0
 11
15.61062342739529
 21
95.13519971315069
 31
0.0
  0
LINE
  5
3DC
330
1E
100
AcDbEntity
  8
OBJECT
100
AcDbLine
 10
16.2726234273953
 20
95.40119971315066
 30
0.0
 11
16.2726234273953
 21
75.36919971315068
 31
0.0
  0
LINE
  5
3DD
330
1E
100
AcDbEntity
  8
HIDDEN
100
AcDbLine
 10
15.81962342739529
 20
95.85419971315069
 30
0.0
 11
15.81962342739529
 21
74.91619971315066
 31
0.0
  0
LINE
  5
3DE
330
1E
100
AcDbEntity
  8
OBJECT
100
AcDbLine
 10
15.7726234273953
 20
95.90119971315068
 30
0.0
 11
15.7726234273953
 21
74.86919971315067
 31
0.0
  0
LINE
  5
3DF
330
1E
100
AcDbEntity
  8
OBJECT
100
AcDbLine
 10
15.7726234273953
 20
77.13519971315069
 30
0.0
 11
15.61062342739529
 21
77.13519971315069
 31
0.0
  0
LINE
  5
3E0
330
1E
100
AcDbEntity
  8
OBJECT
100
AcDbLine
 10
15.7726234273953
 20
77.63519971315069
 30
0.0
 11
15.61062342739529
 21
77.63519971315069
 31
0.0
  0
LINE
  5
3E1
330
1E
100
AcDbEntity
  8
OBJECT
100
AcDbLine
 10
15.7726234273953
 20
75.6351997131507
 30
0.0
 11
15.61062342739529
 21
75.6351997131507
 31
0.0
  0
LINE
  5
3E2
330
1E
100
AcDbEntity
  8
OBJECT
100
AcDbLine
 10
15.7726234273953
 20
76.1351997131507
 30
0.0
 11
15.61062342739529
 21
76.1351997131507
 31
0.0
  0
LINE
  5
3E3
330
1E
100
AcDbEntity
  8
OBJECT
100
AcDbLine
 10
15.7726234273953
 20
76.6351997131507
 30
0.0
 11
15.61062342739529
 21
76.6351997131507
 31
0.0
  0
LINE
  5
3E4
330
1E
100
AcDbEntity
  8
OBJECT
100
AcDbLine
 10
16.2726234273953
 20
75.36919971315068
 30
0.0
 11
15.7726234273953
 21
74.86919971315067
 31
0.0
  0
LINE
  5
3E5
330
1E
100
AcDbEntity
  8
OBJECT
100
AcDbLine
 10
15.7726234273953
 20
78.1351997131507
 30
0.0
 11
15.61062342739529
 21
78.1351997131507
 31
0.0
  0
LINE
  5
3E6
330
1E
100
AcDbEntity
  8
OBJECT
100
AcDbLine
 10
15.7726234273953
 20
79.63519971315069
 30
0.0
 11
15.61062342739529
 21
79.63519971315069
 31
0.0
  0
LINE
  5
3E7
330
1E
100
AcDbEntity
  8
OBJECT
100
AcDbLine
 10
15.7726234273953
 20
80.13519971315069
 30
0.0
 11
15.61062342739529
 21
80.13519971315069
 31
0.0
  0
LINE
  5
3E8
330
1E
100
AcDbEntity
  8
OBJECT
100
AcDbLine
 10
15.7726234273953
 20
80.6351997131507
 30
0.0
 11
15.61062342739529
 21
80.6351997131507
 31
0.0
  0
LINE
  5
3E9
330
1E
100
AcDbEntity
  8
OBJECT
100
AcDbLine
 10
15.7726234273953
 20
81.13519971315069
 30
0.0
 11
15.61062342739529
 21
81.13519971315069
 31
0.0
  0
LINE
  5
3EA
330
1E
100
AcDbEntity
  8
OBJECT
100
AcDbLine
 10
15.7726234273953
 20
78.6351997131507
 30
0.0
 11
15.61062342739529
 21
78.6351997131507
 31
0.0
  0
LINE
  5
3EB
330
1E
100
AcDbEntity
  8
OBJECT
100
AcDbLine
 10
15.7726234273953
 20
79.1351997131507
 30
0.0
 11
15.61062342739529
 21
79.1351997131507
 31
0.0
  0
LINE
  5
3EC
330
1E
100
AcDbEntity
  8
OBJECT
100
AcDbLine
 10
15.7726234273953
 20
82.63519971315069
 30
0.0
 11
15.61062342739529
 21
82.63519971315069
 31
0.0
  0
LINE
  5
3ED
330
1E
100
AcDbEntity
  8
OBJECT
100
AcDbLine
 10
15.7726234273953
 20
83.1351997131507
 30
0.0
 11
15.61062342739529
 21
83.1351997131507
 31
0.0
  0
LINE
  5
3EE
330
1E
100
AcDbEntity
  8
OBJECT
100
AcDbLine
 10
15.7726234273953
 20
83.63519971315069
 30
0.0
 11
15.61062342739529
 21
83.63519971315069
 31
0.0
  0
LINE
  5
3EF
330
1E
100
AcDbEntity
  8
OBJECT
100
AcDbLine
 10
15.7726234273953
 20
84.1351997131507
 30
0.0
 11
15.61062342739529
 21
84.1351997131507
 31
0.0
  0
LINE
  5
3F0
330
1E
100
AcDbEntity
  8
OBJECT
100
AcDbLine
 10
15.7726234273953
 20
84.6351997131507
 30
0.0
 11
15.61062342739529
 21
84.6351997131507
 31
0.0
  0
LINE
  5
3F1
330
1E
100
AcDbEntity
  8
OBJECT
100
AcDbLine
 10
15.7726234273953
 20
81.6351997131507
 30
0.0
 11
15.61062342739529
 21
81.6351997131507
 31
0.0
  0
LINE
  5
3F2
330
1E
100
AcDbEntity
  8
OBJECT
100
AcDbLine
 10
15.7726234273953
 20
82.1351997131507
 30
0.0
 11
15.61062342739529
 21
82.1351997131507
 31
0.0
  0
LINE
  5
3F3
330
1E
100
AcDbEntity
  8
OBJECT
100
AcDbLine
 10
15.7726234273953
 20
87.63519971315069
 30
0.0
 11
15.61062342739529
 21
87.63519971315069
 31
0.0
  0
LINE
  5
3F4
330
1E
100
AcDbEntity
  8
OBJECT
100
AcDbLine
 10
15.7726234273953
 20
85.13519971315069
 30
0.0
 11
15.61062342739529
 21
85.13519971315069
 31
0.0
  0
LINE
  5
3F5
330
1E
100
AcDbEntity
  8
OBJECT
100
AcDbLine
 10
15.7726234273953
 20
85.6351997131507
 30
0.0
 11
15.61062342739529
 21
85.6351997131507
 31
0.0
  0
LINE
  5
3F6
330
1E
100
AcDbEntity
  8
OBJECT
100
AcDbLine
 10
15.7726234273953
 20
86.13519971315069
 30
0.0
 11
15.61062342739529
 21
86.13519971315069
 31
0.0
  0
LINE
  5
3F7
330
1E
100
AcDbEntity
  8
OBJECT
100
AcDbLine
 10
15.7726234273953
 20
86.6351997131507
 30
0.0
 11
15.61062342739529
 21
86.6351997131507
 31
0.0
  0
LINE
  5
3F8
330
1E
100
AcDbEntity
  8
OBJECT
100
AcDbLine
 10
15.7726234273953
 20
87.1351997131507
 30
0.0
 11
15.61062342739529
 21
87.1351997131507
 31
0.0
  0
LINE
  5
3F9
330
1E
100
AcDbEntity
  8
OBJECT
100
AcDbLine
 10
15.7726234273953
 20
88.1351997131507
 30
0.0
 11
15.61062342739529
 21
88.1351997131507
 31
0.0
  0
LINE
  5
3FA
330
1E
100
AcDbEntity
  8
OBJECT
100
AcDbLine
 10
35.66562342739536
 20
85.29968391841974
 30
0.0
 11
35.69032662003036
 21
85.29968391841974
 31
0.0
  0
LINE
  5
3FB
330
1E
100
AcDbEntity
  8
OBJECT
100
AcDbLine
 10
35.66562342739536
 20
85.27268391841973
 30
0.0
 11
35.69032662003036
 21
85.27268391841973
 31
0.0
  0
ARC
  5
3FC
330
1E
100
AcDbEntity
  8
OBJECT
100
AcDbCircle
 10
35.69032662003036
 20
85.28618391841972
 30
0.0
 40
0.0135000000000001
100
AcDbArc
 50
270.0
 51
90.0
  0
LINE
  5
3FD
330
1E
100
AcDbEntity
  8
OBJECT
100
AcDbLine
 10
35.66562342739536
 20
85.42391915377995
 30
0.0
 11
35.69032662003036
 21
85.42391915377995
 31
0.0
  0
LINE
  5
3FE
330
1E
100
AcDbEntity
  8
OBJECT
100
AcDbLine
 10
35.66562342739536
 20
85.39691915377996
 30
0.0
 11
35.69032662003036
 21
85.39691915377996
 31
0.0
  0
ARC
  5
3FF
330
1E
100
AcDbEntity
  8
OBJECT
100
AcDbCircle
 10
35.69032662003036
 20
85.41041915377995
 30
0.0
 40
0.0135000000000001
100
AcDbArc
 50
270.0
 51
90.0
  0
ARC
  5
400
330
1E
100
AcDbEntity
  8
OBJECT
100
AcDbCircle
 10
35.73092023476039
 20
85.35142302442547
 30
0.0
 40
0.0135000000000001
100
AcDbArc
 50
90.0
 51
270.0
  0
LINE
  5
401
330
1E
100
AcDbEntity
  8
OBJECT
100
AcDbLine
 10
35.75562342739539
 20
85.33792302442547
 30
0.0
 11
35.73092023476039
 21
85.33792302442547
 31
0.0
  0
LINE
  5
402
330
1E
100
AcDbEntity
  8
OBJECT
100
AcDbLine
 10
35.75562342739539
 20
85.36492302442546
 30
0.0
 11
35.73092023476039
 21
85.36492302442546
 31
0.0
  0
ARC
  5
403
330
1E
100
AcDbEntity
  8
OBJECT
100
AcDbCircle
 10
35.71062342739537
 20
85.38519971315066
 30
0.0
 40
0.125
100
AcDbArc
 50
111.1001960240928
 51
248.8998039759069
  0
ARC
  5
404
330
1E
100
AcDbEntity
  8
OBJECT
100
AcDbCircle
 10
35.71062342739537
 20
85.38519971315066
 30
0.0
 40
0.125
100
AcDbArc
 50
291.100196024093
 51
68.89980397590702
  0
LINE
  5
405
330
1E
100
AcDbEntity
  8
OBJECT
100
AcDbLine
 10
35.66562342739536
 20
85.46269971315066
 30
0.0
 11
35.75562342739539
 21
85.46269971315066
 31
0.0
  0
LINE
  5
406
330
1E
100
AcDbEntity
  8
OBJECT
100
AcDbLine
 10
35.66562342739536
 20
85.21769971315064
 30
0.0
 11
35.75562342739539
 21
85.21769971315064
 31
0.0
  0
LINE
  5
407
330
1E
100
AcDbEntity
  8
OBJECT
100
AcDbLine
 10
35.75562342739539
 20
85.52269971315066
 30
0.0
 11
35.75562342739539
 21
85.13269971315066
 31
0.0
  0
LINE
  5
408
330
1E
100
AcDbEntity
  8
OBJECT
100
AcDbLine
 10
35.66562342739536
 20
85.52269971315066
 30
0.0
 11
35.66562342739536
 21
85.13269971315066
 31
0.0
  0
LINE
  5
409
330
1E
100
AcDbEntity
  8
OBJECT
100
AcDbLine
 10
35.66562342739536
 20
85.52269971315066
 30
0.0
 11
35.75562342739539
 21
85.52269971315066
 31
0.0
  0
LINE
  5
40A
330
1E
100
AcDbEntity
  8
OBJECT
100
AcDbLine
 10
35.66562342739536
 20
85.13269971315066
 30
0.0
 11
35.75562342739539
 21
85.13269971315066
 31
0.0
  0
LINE
  5
40B
330
1E
100
AcDbEntity
  8
HIDDEN
100
AcDbLine
 10
16.27262342739536
 20
101.5676254068149
 30
0.0
 11
35.54222677733298
 21
101.5676254068149
 31
0.0
  0
LINE
  5
40C
330
1E
100
AcDbEntity
  8
OBJECT
100
AcDbLine
 10
15.77262342739536
 20
101.6146254068149
 30
0.0
 11
35.60363342353756
 21
101.6146254068149
 31
0.0
  0
LINE
  5
40D
330
1E
100
AcDbEntity
  8
OBJECT
100
AcDbLine
 10
35.3981234273954
 20
101.3326254068149
 30
0.0
 11
16.63262342739537
 21
101.3326254068149
 31
0.0
  0
LINE
  5
40E
330
1E
100
AcDbEntity
  8
OBJECT
100
AcDbLine
 10
16.2726234273953
 20
95.40119971315066
 30
0.0
 11
15.7726234273953
 21
95.90119971315067
 31
0.0
  0
LINE
  5
40F
330
1E
100
AcDbEntity
  8
OBJECT
100
AcDbLine
 10
15.7726234273953
 20
90.6351997131507
 30
0.0
 11
15.61062342739529
 21
90.6351997131507
 31
0.0
  0
LINE
  5
410
330
1E
100
AcDbEntity
  8
OBJECT
100
AcDbLine
 10
15.7726234273953
 20
88.63519971315069
 30
0.0
 11
15.61062342739529
 21
88.63519971315069
 31
0.0
  0
LINE
  5
411
330
1E
100
AcDbEntity
  8
OBJECT
100
AcDbLine
 10
15.7726234273953
 20
89.1351997131507
 30
0.0
 11
15.61062342739529
 21
89.1351997131507
 31
0.0
  0
LINE
  5
412
330
1E
100
AcDbEntity
  8
OBJECT
100
AcDbLine
 10
15.7726234273953
 20
89.6351997131507
 30
0.0
 11
15.61062342739529
 21
89.6351997131507
 31
0.0
  0
LINE
  5
413
330
1E
100
AcDbEntity
  8
OBJECT
100
AcDbLine
 10
15.7726234273953
 20
90.13519971315069
 30
0.0
 11
15.61062342739529
 21
90.13519971315069
 31
0.0
  0
LINE
  5
414
330
1E
100
AcDbEntity
  8
OBJECT
100
AcDbLine
 10
15.7726234273953
 20
91.13519971315069
 30
0.0
 11
15.61062342739529
 21
91.13519971315069
 31
0.0
  0
LINE
  5
415
330
1E
100
AcDbEntity
  8
OBJECT
100
AcDbLine
 10
15.7726234273953
 20
91.6351997131507
 30
0.0
 11
15.61062342739529
 21
91.6351997131507
 31
0.0
  0
LINE
  5
416
330
1E
100
AcDbEntity
  8
OBJECT
100
AcDbLine
 10
15.7726234273953
 20
93.1351997131507
 30
0.0
 11
15.61062342739529
 21
93.1351997131507
 31
0.0
  0
LINE
  5
417
330
1E
100
AcDbEntity
  8
OBJECT
100
AcDbLine
 10
15.7726234273953
 20
93.63519971315069
 30
0.0
 11
15.61062342739529
 21
93.63519971315069
 31
0.0
  0
LINE
  5
418
330
1E
100
AcDbEntity
  8
OBJECT
100
AcDbLine
 10
15.7726234273953
 20
94.1351997131507
 30
0.0
 11
15.61062342739529
 21
94.1351997131507
 31
0.0
  0
LINE
  5
419
330
1E
100
AcDbEntity
  8
OBJECT
100
AcDbLine
 10
15.7726234273953
 20
92.1351997131507
 30
0.0
 11
15.61062342739529
 21
92.1351997131507
 31
0.0
  0
LINE
  5
41A
330
1E
100
AcDbEntity
  8
OBJECT
100
AcDbLine
 10
15.7726234273953
 20
92.63519971315069
 30
0.0
 11
15.61062342739529
 21
92.63519971315069
 31
0.0
  0
LINE
  5
41B
330
1E
100
AcDbEntity
  8
OBJECT
100
AcDbLine
 10
15.7726234273953
 20
95.13519971315067
 30
0.0
 11
15.61062342739529
 21
95.13519971315069
 31
0.0
  0
LINE
  5
41C
330
1E
100
AcDbEntity
  8
OBJECT
100
AcDbLine
 10
15.7726234273953
 20
94.6351997131507
 30
0.0
 11
15.61062342739529
 21
94.6351997131507
 31
0.0
  0
LINE
  5
41D
330
1E
100
AcDbEntity
  8
OBJECT
100
AcDbLine
 10
16.44462342739538
 20
101.7816254068149
 30
0.0
 11
16.44462342739538
 21
101.7346254068149
 31
0.0
  0
LINE
  5
41E
330
1E
100
AcDbEntity
  8
OBJECT
100
AcDbLine
 10
15.77262342739536
 20
101.5676254068149
 30
0.0
 11
15.77262342739536
 21
101.0055004068149
 31
0.0
  0
ARC
  5
41F
330
1E
100
AcDbEntity
  8
OBJECT
100
AcDbCircle
 10
16.27262342739536
 20
101.0055004068149
 30
0.0
 40
0.5
100
AcDbArc
 50
180.0
 51
270.0
  0
LINE
  5
420
330
1E
100
AcDbEntity
  8
OBJECT
100
AcDbLine
 10
15.81949842739535
 20
101.5207504068149
 30
0.0
 11
15.81949842739535
 21
101.0055004068149
 31
0.0
  0
ARC
  5
421
330
1E
100
AcDbEntity
  8
OBJECT
100
AcDbCircle
 10
16.27262342739536
 20
101.0055004068149
 30
0.0
 40
0.453125
100
AcDbArc
 50
180.0
 51
270.0
  0
LINE
  5
422
330
1E
100
AcDbEntity
  8
OBJECT
100
AcDbLine
 10
16.44462342739538
 20
101.7346254068149
 30
0.0
 11
15.77262342739536
 21
101.7346254068149
 31
0.0
  0
LINE
  5
423
330
1E
100
AcDbEntity
  8
OBJECT
100
AcDbLine
 10
16.27262342739536
 20
101.5676254068149
 30
0.0
 11
16.27262342739538
 21
101.5207504068149
 31
0.0
  0
LINE
  5
424
330
1E
100
AcDbEntity
  8
OBJECT
100
AcDbLine
 10
16.50762342739537
 20
101.5207504068149
 30
0.0
 11
15.81949842739538
 21
101.5207504068149
 31
0.0
  0
LINE
  5
425
330
1E
100
AcDbEntity
  8
OBJECT
100
AcDbLine
 10
16.50762342739537
 20
101.4576254068149
 30
0.0
 11
16.50762342739537
 21
101.6146254068149
 31
0.0
  0
ARC
  5
426
330
1E
100
AcDbEntity
  8
OBJECT
100
AcDbCircle
 10
16.63262342739537
 20
101.4576254068149
 30
0.0
 40
0.125
100
AcDbArc
 50
179.9999999999985
 51
270.0
  0
LINE
  5
427
330
1E
100
AcDbEntity
  8
OBJECT
100
AcDbLine
 10
16.27262342739536
 20
101.5676254068149
 30
0.0
 11
15.77262342739536
 21
101.5676254068149
 31
0.0
  0
LWPOLYLINE
  5
428
330
1E
100
AcDbEntity
  8
OBJECT
 62
     4
100
AcDbPolyline
 90
        5
 70
     0
 43
0.0
 10
15.69162342739534
 20
101.6986254068149
 10
16.22262342739534
 20
101.6986254068149
 10
16.22262342739534
 20
101.7296254068149
 10
15.69162342739534
 20
101.7296254068149
 42
4.341678926823472
 10
15.75534940326076
 20
101.6986254068149
  0
LWPOLYLINE
  5
42F
330
1E
100
AcDbEntity
  8
OBJECT
 62
     2
100
AcDbPolyline
 90
        4
 70
     0
 43
0.0
 10
15.69162342739534
 20
101.5986254068149
 10
16.22262342739534
 20
101.5986254068149
 10
16.22262342739534
 20
101.5676254068149
 10
15.69162342739534
 20
101.5676254068149
  0
CIRCLE
  5
435
330
1E
100
AcDbEntity
  8
OBJECT
100
AcDbCircle
 10
15.69162342739534
 20
101.6486254068148
 30
0.0
 40
0.05
  0
LWPOLYLINE
  5
436
330
1E
100
AcDbEntity
  8
OBJECT
100
AcDbPolyline
 90
        4
 70
     1
 43
0.0
 10
16.19187342739536
 20
101.6986254068149
 10
16.19187342739536
 20
101.6887584758221
 42
-0.2380324936361291
 10
15.87987342739535
 20
101.6887584758221
 10
15.87987342739535
 20
101.6986254068149
  0
LWPOLYLINE
  5
43C
330
1E
100
AcDbEntity
  8
OBJECT
100
AcDbPolyline
 90
        4
 70
     1
 43
0.0
 10
16.19187342739536
 20
101.5986254068149
 10
16.19187342739536
 20
101.6084923378076
 42
0.2380324936361291
 10
15.87987342739535
 20
101.6084923378076
 10
15.87987342739535
 20
101.5986254068149
  0
LINE
  5
442
330
1E
100
AcDbEntity
  8
OBJECT
100
AcDbLine
 10
16.44462342739538
 20
101.7816254068149
 30
0.0
 11
15.81962342739535
 21
101.7816254068149
 31
0.0
  0
LWPOLYLINE
  5
443
330
1E
100
AcDbEntity
  8
OBJECT
100
AcDbPolyline
 90
        4
 70
     0
 43
0.0
 10
26.35162342739539
 20
100.5525004068149
 10
26.35162342739539
 20
101.0055004068149
 10
26.16162342739539
 20
101.0055004068149
 10
26.16162342739539
 20
100.5525004068149
  0
LWPOLYLINE
  5
449
330
1E
100
AcDbEntity
  8
OBJECT
100
AcDbPolyline
 90
        4
 70
     0
 43
0.0
 10
28.85162342739539
 20
100.5525004068149
 10
28.85162342739539
 20
101.0055004068149
 10
28.66162342739539
 20
101.0055004068149
 10
28.66162342739539
 20
100.5525004068149
  0
LINE
  5
44F
330
1E
100
AcDbEntity
  8
OBJECT
100
AcDbLine
 10
35.96668442127727
 20
101.2347803083683
 30
0.0
 11
35.47055708654761
 21
101.2347803083683
 31
0.0
  0
LINE
  5
450
330
1E
100
AcDbEntity
  8
OBJECT
100
AcDbLine
 10
35.96668442127727
 20
101.3284578808221
 30
0.0
 11
35.47055708654761
 21
101.3284578808221
 31
0.0
  0
LINE
  5
451
330
1E
100
AcDbEntity
  8
OBJECT
100
AcDbLine
 10
35.96668442127727
 20
101.1407803083683
 30
0.0
 11
35.47055708654761
 21
101.1407803083683
 31
0.0
  0
LINE
  5
452
330
1E
100
AcDbEntity
  8
OBJECT
100
AcDbLine
 10
35.96668442127727
 20
101.0467803083682
 30
0.0
 11
35.47055708654761
 21
101.0467803083682
 31
0.0
  0
LINE
  5
453
330
1E
100
AcDbEntity
  8
OBJECT
100
AcDbLine
 10
35.96668442127727
 20
100.9527803083682
 30
0.0
 11
35.47055708654761
 21
100.9527803083682
 31
0.0
  0
LINE
  5
454
330
1E
100
AcDbEntity
  8
OBJECT
100
AcDbLine
 10
35.96668442127727
 20
100.8587803083683
 30
0.0
 11
35.47055708654761
 21
100.8587803083683
 31
0.0
  0
LINE
  5
455
330
1E
100
AcDbEntity
  8
OBJECT
100
AcDbLine
 10
35.96668442127727
 20
100.7647803083682
 30
0.0
 11
35.47055708654761
 21
100.7647803083682
 31
0.0
  0
LINE
  5
456
330
1E
100
AcDbEntity
  8
OBJECT
100
AcDbLine
 10
35.96668442127727
 20
100.6707803083682
 30
0.0
 11
35.47055708654761
 21
100.6707803083682
 31
0.0
  0
LWPOLYLINE
  5
457
330
1E
100
AcDbEntity
  8
OBJECT
100
AcDbPolyline
 90
        6
 70
     1
 43
0.0
 10
35.67608415907224
 20
101.6384378066731
 10
35.67608415907224
 20
101.5429988357538
 10
35.74516269571853
 20
101.5429988357538
 10
35.74516269571853
 20
101.6384378066731
 42
-0.2546116017424532
 10
35.92021965246968
 20
101.5055004068149
 10
35.50102720232109
 20
101.5055004068149
 42
-0.2546116017424538
  0
LINE
  5
45F
330
1E
100
AcDbEntity
  8
CENTER
100
AcDbLine
 10
35.7106234273954
 20
101.7293628054127
 30
0.0
 11
35.7106234273954
 21
100.1802831011125
 31
0.0
  0
LINE
  5
460
330
1E
100
AcDbEntity
  8
OBJECT
100
AcDbLine
 10
35.44716501294934
 20
100.6215648176078
 30
0.0
 11
35.44716501294934
 21
100.5527504068149
 31
0.0
  0
LINE
  5
461
330
1E
100
AcDbEntity
  8
OBJECT
100
AcDbLine
 10
35.3981234273954
 20
100.5527504068149
 30
0.0
 11
35.3981234273954
 21
100.5055004068149
 31
0.0
  0
LINE
  5
462
330
1E
100
AcDbEntity
  8
OBJECT
100
AcDbLine
 10
35.3981234273954
 20
101.3805004068149
 30
0.0
 11
35.3981234273954
 21
100.6527504068149
 31
0.0
  0
LINE
  5
463
330
1E
100
AcDbEntity
  8
OBJECT
100
AcDbLine
 10
35.44716501294937
 20
100.6527504068149
 30
0.0
 11
35.31543580572634
 21
100.6527504068149
 31
0.0
  0
LINE
  5
464
330
1E
100
AcDbEntity
  8
OBJECT
100
AcDbLine
 10
35.67608415907224
 20
101.6146254068149
 30
0.0
 11
35.74516269571853
 21
101.6146254068149
 31
0.0
  0
LINE
  5
465
330
1E
100
AcDbEntity
  8
OBJECT
100
AcDbLine
 10
35.97408184184144
 20
100.6215648176078
 30
0.0
 11
35.97408184184144
 21
100.5527504068149
 31
0.0
  0
DIMENSION
  5
466
330
1E
100
AcDbEntity
  8
DIM
100
AcDbDimension
  2
*D4
 10
41.08780293666828
 20
74.86919971315067
 30
0.0
 11
41.08780293666828
 21
85.38519971315068
 31
0.0
 70
    32
 71
     5
 42
21.03199999999998
  3
23NSTD
100
AcDbAlignedDimension
 13
38.02262342739533
 23
95.90119971315067
 33
0.0
 14
38.0226234273953
 24
74.86919971315067
 34
0.0
 50
270.0
100
AcDbRotatedDimension
  0
LINE
  5
467
330
1E
100
AcDbEntity
  8
OBJECT
100
AcDbLine
 10
37.52262342739533
 20
95.40119971315066
 30
0.0
 11
37.52262342739533
 21
75.36919971315068
 31
0.0
  0
LINE
  5
468
330
1E
100
AcDbEntity
  8
HIDDEN
100
AcDbLine
 10
37.97562342739533
 20
95.85419971315069
 30
0.0
 11
37.9756234273953
 21
74.91619971315067
 31
0.0
  0
LINE
  5
469
330
1E
100
AcDbEntity
  8
OBJECT
100
AcDbLine
 10
38.02262342739533
 20
95.90119971315067
 30
0.0
 11
38.0226234273953
 21
74.86919971315067
 31
0.0
  0
LWPOLYLINE
  5
46A
330
1E
100
AcDbEntity
  8
HIDDEN
100
AcDbPolyline
 90
        6
 70
     0
 43
0.0
 10
45.13139100867391
 20
75.52519971315067
 10
44.97539100867391
 20
75.52519971315067
 42
-0.4142135623730948
 10
44.85039100867408
 20
75.65019971315066
 10
44.85039100867391
 20
95.12019971315066
 42
-0.4142135623730948
 10
44.97539100867391
 20
95.24519971315065
 10
45.13139100867391
 20
95.24519971315065
  0
LINE
  5
472
330
1E
100
AcDbEntity
  8
HIDDEN
100
AcDbLine
 10
50.28739100867397
 20
90.81345051898646
 30
0.0
 11
50.28739100867392
 21
79.9604041648994
 31
0.0
  0
LINE
  5
473
330
1E
100
AcDbEntity
  8
HIDDEN
100
AcDbLine
 10
45.03739100867392
 20
95.85432471315066
 30
0.0
 11
45.03739100867394
 21
74.91607471315069
 31
0.0
  0
LINE
  5
474
330
1E
100
AcDbEntity
  8
HIDDEN
100
AcDbLine
 10
44.06926600867393
 20
95.41184234554085
 30
0.0
 11
44.06926600867393
 21
75.35855708071207
 31
0.0
  0
LINE
  5
475
330
1E
100
AcDbEntity
  8
OBJECT
100
AcDbLine
 10
44.02226600867393
 20
95.40119971315066
 30
0.0
 11
44.02226600867393
 21
75.36919971315068
 31
0.0
  0
LINE
  5
476
330
1E
100
AcDbEntity
  8
HIDDEN
100
AcDbLine
 10
45.13139100867391
 20
95.85419971315069
 30
0.0
 11
45.13139100867391
 21
74.91619971315067
 31
0.0
  0
LINE
  5
477
330
1E
100
AcDbEntity
  8
OBJECT
100
AcDbLine
 10
50.33439100867394
 20
95.90119971315068
 30
0.0
 11
50.33439100867389
 21
74.86919971315067
 31
0.0
  0
LINE
  5
478
330
1E
100
AcDbEntity
  8
OBJECT
100
AcDbLine
 10
45.08439100867394
 20
95.90119971315067
 30
0.0
 11
45.08439100867391
 21
74.86919971315067
 31
0.0
  0
LWPOLYLINE
  5
479
330
1E
100
AcDbEntity
  8
OBJECT
100
AcDbPolyline
 90
       20
 70
     1
 43
0.0
 10
49.39640758725665
 20
75.86919971315071
 10
49.39640758725665
 20
75.71918637942215
 42
-0.1687295055132477
 10
49.51240758725663
 20
75.60317218673908
 10
49.51240758725669
 20
75.38522723956207
 42
-0.6267890062733434
 10
49.06240758725664
 20
75.38522723956237
 10
49.06240758725664
 20
75.60317218673908
 42
-0.1687295055132672
 10
49.17840758725668
 20
75.71918637942215
 10
49.17840758725668
 20
75.86919971315071
 10
48.39640758725664
 20
75.86919971315071
 10
48.39640758725664
 20
75.71918637942214
 42
-0.1687295055132477
 10
48.51240758725663
 20
75.60317218673908
 10
48.51240758725669
 20
75.38522723956207
 42
-0.6267890062733434
 10
48.06240758725664
 20
75.38522723956237
 10
48.06240758725664
 20
75.60317218673908
 42
-0.1687295055132672
 10
48.17840758725669
 20
75.71918637942217
 10
48.17840758725669
 20
75.86919971315069
 10
46.28739100867392
 20
75.86919971315071
 10
46.28739100867394
 20
79.86919971315071
 10
50.28739100867392
 20
79.86919971315071
 10
50.28739100867392
 20
75.86919971315071
  0
LINE
  5
48F
330
1E
100
AcDbEntity
  8
HIDDEN
100
AcDbLine
 10
50.28739100867392
 20
74.91619971315067
 30
0.0
 11
45.13139100867391
 21
74.91619971315067
 31
0.0
  0
LINE
  5
490
330
1E
100
AcDbEntity
  8
OBJECT
100
AcDbLine
 10
50.33439100867389
 20
74.86919971315067
 30
0.0
 11
45.08439100867391
 21
74.86919971315067
 31
0.0
  0
LINE
  5
491
330
1E
100
AcDbEntity
  8
OBJECT
100
AcDbLine
 10
37.52262342739533
 20
75.36919971315068
 30
0.0
 11
38.02262342739533
 21
74.86919971315067
 31
0.0
  0
LWPOLYLINE
  5
492
330
1E
100
AcDbEntity
  8
HIDDEN
  6
HIDDEN2
100
AcDbPolyline
 90
        4
 70
     0
 43
0.0
 10
44.02226600867393
 20
76.07119971315063
 10
44.52226600867393
 20
76.07119971315063
 10
44.52226600867393
 20
76.26119971315063
 10
44.02226600867393
 20
76.26119971315063
  0
LINE
  5
498
330
1E
100
AcDbEntity
  8
HIDDEN
100
AcDbLine
 10
44.85039100867391
 20
75.49419971315067
 30
0.0
 11
45.08439100867394
 21
75.49419971315067
 31
0.0
  0
LINE
  5
499
330
1E
100
AcDbEntity
  8
HIDDEN
100
AcDbLine
 10
44.85039100867391
 20
75.49419971315067
 30
0.0
 11
44.85039100867391
 21
75.54119971315067
 31
0.0
  0
LINE
  5
49A
330
1E
100
AcDbEntity
  8
HIDDEN
100
AcDbLine
 10
44.85039100867391
 20
75.54119971315067
 30
0.0
 11
45.13139100867391
 21
75.54119971315067
 31
0.0
  0
LINE
  5
49B
330
1E
100
AcDbEntity
  8
OBJECT
100
AcDbLine
 10
45.08439100867394
 20
74.86919971315067
 30
0.0
 11
44.5222660086739
 21
74.86919971315067
 31
0.0
  0
LINE
  5
49C
330
1E
100
AcDbEntity
  8
HIDDEN
100
AcDbLine
 10
45.03751600867395
 20
74.91607471315067
 30
0.0
 11
44.5222660086739
 21
74.91607471315067
 31
0.0
  0
ARC
  5
49D
330
1E
100
AcDbEntity
  8
OBJECT
100
AcDbCircle
 10
44.5222660086739
 20
75.36919971315068
 30
0.0
 40
0.5
100
AcDbArc
 50
180.0
 51
270.0
  0
ARC
  5
49E
330
1E
100
AcDbEntity
  8
HIDDEN
100
AcDbCircle
 10
44.5222660086739
 20
75.36919971315068
 30
0.0
 40
0.453125
100
AcDbArc
 50
180.0
 51
270.0
  0
LWPOLYLINE
  5
49F
330
1E
100
AcDbEntity
  8
OBJECT
100
AcDbPolyline
 90
        4
 70
     1
 43
0.0
 10
44.02226600867393
 20
84.93207471315066
 42
-0.217523824832095
 10
43.79726600867394
 20
85.06769971315065
 10
43.79726600867394
 20
85.70269971315067
 42
-0.2175238248320952
 10
44.02226600867393
 20
85.83832471315067
  0
LINE
  5
4A5
330
1E
100
AcDbEntity
  8
HIDDEN
100
AcDbLine
 10
45.27226600867393
 20
85.76019971315067
 30
0.0
 11
45.27226600867393
 21
85.01019971315066
 31
0.0
  0
LINE
  5
4A6
330
1E
100
AcDbEntity
  8
HIDDEN
100
AcDbLine
 10
44.06926600867393
 20
85.76019971315067
 30
0.0
 11
45.27226600867393
 21
85.76019971315067
 31
0.0
  0
LINE
  5
4A7
330
1E
100
AcDbEntity
  8
HIDDEN
100
AcDbLine
 10
44.06926600867393
 20
85.01019971315066
 30
0.0
 11
45.27226600867393
 21
85.01019971315066
 31
0.0
  0
LWPOLYLINE
  5
4A8
330
1E
100
AcDbEntity
  8
OBJECT
100
AcDbPolyline
 90
        4
 70
     0
 43
0.0
 10
50.28739100867392
 20
76.26119971315072
 10
49.83439100867395
 20
76.26119971315072
 10
49.83439100867395
 20
76.07119971315071
 10
50.28739100867392
 20
76.07119971315071
  0
LINE
  5
4AE
330
1E
100
AcDbEntity
  8
HIDDEN
100
AcDbLine
 10
50.28739100867392
 20
75.77092111335388
 30
0.0
 11
50.28739100867392
 21
74.91619971315069
 31
0.0
  0
LWPOLYLINE
  5
4AF
330
1E
100
AcDbEntity
  8
OBJECT
100
AcDbPolyline
 90
       20
 70
     1
 43
0.0
 10
49.39640758725665
 20
94.90119971315065
 10
49.39640758725665
 20
95.0512130468792
 42
0.1687295055132477
 10
49.51240758725663
 20
95.16722723956227
 10
49.51240758725669
 20
95.38517218673929
 42
0.6267890062733434
 10
49.06240758725664
 20
95.38517218673899
 10
49.06240758725664
 20
95.16722723956227
 42
0.1687295055132672
 10
49.17840758725668
 20
95.0512130468792
 10
49.17840758725668
 20
94.90119971315065
 10
48.39640758725664
 20
94.90119971315065
 10
48.39640758725664
 20
95.05121304687923
 42
0.1687295055132477
 10
48.51240758725663
 20
95.16722723956227
 10
48.51240758725669
 20
95.38517218673929
 42
0.6267890062733434
 10
48.06240758725664
 20
95.38517218673899
 10
48.06240758725664
 20
95.16722723956227
 42
0.1687295055132672
 10
48.17840758725669
 20
95.0512130468792
 10
48.17840758725669
 20
94.90119971315065
 10
46.28739100867392
 20
94.90119971315065
 10
46.28739100867394
 20
90.90119971315067
 10
50.28739100867392
 20
90.90119971315067
 10
50.28739100867392
 20
94.90119971315065
  0
DIMENSION
  5
4C5
330
1E
100
AcDbEntity
  8
DIM
100
AcDbDimension
  2
*D24
 10
44.02226600867393
 20
98.547757162478
 30
0.0
 11
47.17832850867394
 21
98.547757162478
 31
0.0
 70
    32
 71
     5
 42
6.312125000000008
  3
23NSTDI
100
AcDbAlignedDimension
 13
50.33439100867394
 23
95.90119971315068
 33
0.0
 14
44.02226600867393
 24
95.40119971315066
 34
0.0
100
AcDbRotatedDimension
  0
LINE
  5
4C6
330
1E
100
AcDbEntity
  8
HIDDEN
100
AcDbLine
 10
45.13139100867391
 20
95.85419971315069
 30
0.0
 11
50.28739100867392
 21
95.85419971315069
 31
0.0
  0
LINE
  5
4C7
330
1E
100
AcDbEntity
  8
OBJECT
100
AcDbLine
 10
45.08439100867394
 20
95.90119971315067
 30
0.0
 11
50.33439100867394
 21
95.90119971315068
 31
0.0
  0
LINE
  5
4C8
330
1E
100
AcDbEntity
  8
OBJECT
100
AcDbLine
 10
37.52262342739533
 20
95.40119971315066
 30
0.0
 11
38.02262342739533
 21
95.90119971315067
 31
0.0
  0
ARC
  5
4C9
330
1E
100
AcDbEntity
  8
HIDDEN
100
AcDbCircle
 10
44.5222660086739
 20
95.40119971315066
 30
0.0
 40
0.453125
100
AcDbArc
 50
90.0
 51
180.0
  0
ARC
  5
4CA
330
1E
100
AcDbEntity
  8
OBJECT
100
AcDbCircle
 10
44.5222660086739
 20
95.40119971315066
 30
0.0
 40
0.5
100
AcDbArc
 50
90.0
 51
180.0
  0
LWPOLYLINE
  5
4CB
330
1E
100
AcDbEntity
  8
HIDDEN
  6
HIDDEN2
100
AcDbPolyline
 90
        4
 70
     0
 43
0.0
 10
44.02226600867393
 20
94.6991997131507
 10
44.52226600867393
 20
94.6991997131507
 10
44.52226600867393
 20
94.5091997131507
 10
44.02226600867393
 20
94.5091997131507
  0
LINE
  5
4D1
330
1E
100
AcDbEntity
  8
HIDDEN
100
AcDbLine
 10
44.85039100867391
 20
95.22919971315067
 30
0.0
 11
45.13139100867391
 21
95.22919971315067
 31
0.0
  0
LINE
  5
4D2
330
1E
100
AcDbEntity
  8
HIDDEN
100
AcDbLine
 10
44.85039100867391
 20
95.27619971315067
 30
0.0
 11
44.85039100867391
 21
95.22919971315067
 31
0.0
  0
LINE
  5
4D3
330
1E
100
AcDbEntity
  8
HIDDEN
100
AcDbLine
 10
44.85039100867391
 20
95.27619971315067
 30
0.0
 11
45.08439100867394
 21
95.27619971315067
 31
0.0
  0
LINE
  5
4D4
330
1E
100
AcDbEntity
  8
HIDDEN
100
AcDbLine
 10
36.7106234273954
 20
101.5676254068149
 30
0.0
 11
37.35062342739539
 21
101.5676254068149
 31
0.0
  0
LINE
  5
4D5
330
1E
100
AcDbEntity
  8
OBJECT
100
AcDbLine
 10
36.7106234273954
 20
101.6146254068149
 30
0.0
 11
37.97562342739539
 21
101.6146254068149
 31
0.0
  0
LINE
  5
4D6
330
1E
100
AcDbEntity
  8
OBJECT
100
AcDbLine
 10
37.97574842739539
 20
101.5207504068149
 30
0.0
 11
37.39762342739538
 21
101.5207504068149
 31
0.0
  0
LINE
  5
4D7
330
1E
100
AcDbEntity
  8
OBJECT
100
AcDbLine
 10
37.97574842739539
 20
101.5207504068149
 30
0.0
 11
37.97574842739539
 21
101.0055004068149
 31
0.0
  0
LINE
  5
4D8
330
1E
100
AcDbEntity
  8
OBJECT
100
AcDbLine
 10
38.02262342739538
 20
101.5676254068149
 30
0.0
 11
38.02262342739538
 21
101.0055004068149
 31
0.0
  0
ARC
  5
4D9
330
1E
100
AcDbEntity
  8
OBJECT
100
AcDbCircle
 10
37.52262342739538
 20
101.0055004068149
 30
0.0
 40
0.453125
100
AcDbArc
 50
268.6541594509598
 51
0.0
  0
ARC
  5
4DA
330
1E
100
AcDbEntity
  8
OBJECT
100
AcDbCircle
 10
37.52262342739538
 20
101.0055004068149
 30
0.0
 40
0.5
100
AcDbArc
 50
270.0
 51
0.0
  0
LINE
  5
4DB
330
1E
100
AcDbEntity
  8
OBJECT
100
AcDbLine
 10
37.39762342739538
 20
101.5676254068149
 30
0.0
 11
37.39762342739538
 21
101.5207504068149
 31
0.0
  0
LINE
  5
4DC
330
1E
100
AcDbEntity
  8
OBJECT
100
AcDbLine
 10
37.35062342739539
 20
101.6146254068149
 30
0.0
 11
37.35062342739539
 21
101.3326254068149
 31
0.0
  0
LINE
  5
4DD
330
1E
100
AcDbEntity
  8
OBJECT
100
AcDbLine
 10
37.39762342739541
 20
101.5676254068149
 30
0.0
 11
37.39762342739541
 21
101.3326254068149
 31
0.0
  0
LINE
  5
4DE
330
1E
100
AcDbEntity
  8
OBJECT
100
AcDbLine
 10
37.35062342739539
 20
101.3326254068149
 30
0.0
 11
37.39762342739541
 21
101.3326254068149
 31
0.0
  0
LINE
  5
4DF
330
1E
100
AcDbEntity
  8
OBJECT
100
AcDbLine
 10
37.35062342739539
 20
101.5207504068149
 30
0.0
 11
37.2876234273954
 21
101.5207504068149
 31
0.0
  0
LINE
  5
4E0
330
1E
100
AcDbEntity
  8
OBJECT
100
AcDbLine
 10
37.39762342739538
 20
101.5676254068149
 30
0.0
 11
38.02262342739538
 21
101.5676254068149
 31
0.0
  0
LINE
  5
4E1
330
1E
100
AcDbEntity
  8
OBJECT
100
AcDbLine
 10
37.2876234273954
 20
101.4576254068149
 30
0.0
 11
37.2876234273954
 21
101.6146254068149
 31
0.0
  0
ARC
  5
4E2
330
1E
100
AcDbEntity
  8
OBJECT
100
AcDbCircle
 10
37.1626234273954
 20
101.4576254068149
 30
0.0
 40
0.125
100
AcDbArc
 50
270.0
 51
0.0
  0
LINE
  5
4E3
330
1E
100
AcDbEntity
  8
OBJECT
100
AcDbLine
 10
36.0231234273954
 20
100.5527504068149
 30
0.0
 11
36.0231234273954
 21
100.5055004068149
 31
0.0
  0
LINE
  5
4E4
330
1E
100
AcDbEntity
  8
OBJECT
100
AcDbLine
 10
36.0231234273954
 20
101.3805004068149
 30
0.0
 11
36.0231234273954
 21
100.6527504068149
 31
0.0
  0
LINE
  5
4E5
330
1E
100
AcDbEntity
  8
OBJECT
100
AcDbLine
 10
37.1626234273954
 20
101.3326254068149
 30
0.0
 11
36.0231234273954
 21
101.3326254068149
 31
0.0
  0
LINE
  5
4E6
330
1E
100
AcDbEntity
  8
HIDDEN
100
AcDbLine
 10
45.03751600867395
 20
95.85432471315066
 30
0.0
 11
44.5222660086739
 21
95.85432471315066
 31
0.0
  0
LINE
  5
4E7
330
1E
100
AcDbEntity
  8
OBJECT
100
AcDbLine
 10
45.08439100867394
 20
95.90119971315067
 30
0.0
 11
44.5222660086739
 21
95.90119971315067
 31
0.0
  0
LINE
  5
4E8
330
1E
100
AcDbEntity
  8
HIDDEN
100
AcDbLine
 10
50.28739100867397
 20
95.85419971315069
 30
0.0
 11
50.28739100867397
 21
94.99383525071484
 31
0.0
  0
LWPOLYLINE
  5
4E9
330
1E
100
AcDbEntity
  8
OBJECT
100
AcDbPolyline
 90
        4
 70
     0
 43
0.0
 10
50.28739100867392
 20
94.50919971315064
 10
49.83439100867395
 20
94.50919971315064
 10
49.83439100867395
 20
94.69919971315063
 10
50.28739100867392
 20
94.69919971315063
  0
DIMENSION
  5
4EF
330
1E
100
AcDbEntity
  8
DIM
100
AcDbDimension
  2
*D5
 10
36.05362342739539
 20
111.4665866483754
 30
0.0
 11
26.89762342739538
 21
111.4665866483754
 31
0.0
 70
    32
  1
<> REF. CTRS.
 71
     5
 42
18.31200000000001
  3
23NSTD
100
AcDbAlignedDimension
 13
17.74162342739538
 23
106.0676254068149
 33
0.0
 14
36.05362342739539
 24
106.0676254068149
 34
0.0
100
AcDbRotatedDimension
  0
CIRCLE
  5
4F0
330
1E
100
AcDbEntity
  8
HIDDEN
100
AcDbCircle
 10
36.05362342739539
 20
106.0676254068149
 30
0.0
 40
0.1313932152745245
  0
CIRCLE
  5
4F1
330
1E
100
AcDbEntity
  8
HIDDEN
100
AcDbCircle
 10
36.05362342739539
 20
105.4426254068149
 30
0.0
 40
0.1313932152745245
  0
LINE
  5
4F2
330
1E
100
AcDbEntity
  8
HIDDEN
100
AcDbLine
 10
35.86662342739538
 20
106.6926254068149
 30
0.0
 11
36.41362342739538
 21
106.6926254068149
 31
0.0
  0
CIRCLE
  5
4F3
330
1E
100
AcDbEntity
  8
OBJECT
100
AcDbCircle
 10
36.05362342739539
 20
106.0676254068149
 30
0.0
 40
0.095
  0
CIRCLE
  5
4F4
330
1E
100
AcDbEntity
  8
OBJECT
100
AcDbCircle
 10
36.05362342739539
 20
105.4426254068149
 30
0.0
 40
0.095
  0
ARC
  5
4F5
330
1E
100
AcDbEntity
  8
OBJECT
100
AcDbCircle
 10
35.99162342739538
 20
102.9426254068149
 30
0.0
 40
0.125
100
AcDbArc
 50
180.0
 51
270.0
  0
CIRCLE
  5
4F6
330
1E
100
AcDbEntity
  8
HIDDEN
100
AcDbCircle
 10
36.05362342739539
 20
104.3176254068149
 30
0.0
 40
0.1313932152745245
  0
CIRCLE
  5
4F7
330
1E
100
AcDbEntity
  8
HIDDEN
100
AcDbCircle
 10
36.05362342739539
 20
103.0676254068149
 30
0.0
 40
0.1313932152745245
  0
CIRCLE
  5
4F8
330
1E
100
AcDbEntity
  8
HIDDEN
100
AcDbCircle
 10
36.05362342739539
 20
103.6926254068149
 30
0.0
 40
0.1313932152745245
  0
CIRCLE
  5
4F9
330
1E
100
AcDbEntity
  8
OBJECT
100
AcDbCircle
 10
36.05362342739539
 20
103.0676254068149
 30
0.0
 40
0.095
  0
CIRCLE
  5
4FA
330
1E
100
AcDbEntity
  8
OBJECT
100
AcDbCircle
 10
36.05362342739539
 20
104.8176254068149
 30
0.0
 40
0.095
  0
CIRCLE
  5
4FB
330
1E
100
AcDbEntity
  8
OBJECT
100
AcDbCircle
 10
36.05362342739539
 20
104.3176254068149
 30
0.0
 40
0.095
  0
CIRCLE
  5
4FC
330
1E
100
AcDbEntity
  8
OBJECT
100
AcDbCircle
 10
36.05362342739539
 20
103.6926254068149
 30
0.0
 40
0.095
  0
CIRCLE
  5
4FD
330
1E
100
AcDbEntity
  8
HIDDEN
100
AcDbCircle
 10
36.05362342739539
 20
104.8176254068149
 30
0.0
 40
0.1313932152745245
  0
LINE
  5
4FE
330
1E
100
AcDbEntity
  8
OBJECT
100
AcDbLine
 10
15.77262342739536
 20
106.8176254068149
 30
0.0
 11
38.02262342739538
 21
106.8176254068149
 31
0.0
  0
LINE
  5
4FF
330
1E
100
AcDbEntity
  8
OBJECT
100
AcDbLine
 10
15.81962342739535
 20
106.7706254068149
 30
0.0
 11
37.97562342739539
 21
106.7706254068149
 31
0.0
  0
LWPOLYLINE
  5
500
330
1E
100
AcDbEntity
  8
HIDDEN
100
AcDbPolyline
 90
        8
 70
     1
 43
0.0
 10
35.39862342739536
 20
114.3537666094498
 10
35.39862342739536
 20
114.4787666094498
 10
36.58562342739537
 20
114.4787666094498
 10
36.58562342739537
 20
114.7287666094498
 10
37.58562342739537
 20
114.7287666094498
 10
37.58562342739537
 20
114.6037666094498
 10
36.71062342739537
 20
114.6037666094498
 10
36.71062342739537
 20
114.3537666094498
  0
LWPOLYLINE
  5
50A
330
1E
100
AcDbEntity
  8
OBJECT
100
AcDbPolyline
 90
        4
 70
     1
 43
0.0
 10
36.16374842739537
 20
113.4787666094498
 42
-0.217523824832095
 10
36.02812342739537
 20
113.2537666094499
 10
35.39312342739538
 20
113.2537666094499
 42
-0.2175238248320952
 10
35.25749842739537
 20
113.4787666094498
  0
LWPOLYLINE
  5
510
330
1E
100
AcDbEntity
  8
HIDDEN
100
AcDbPolyline
 90
        6
 70
     0
 43
0.0
 10
37.28762342739537
 20
114.5878916094498
 10
37.28762342739537
 20
114.4308916094498
 42
-0.4142135623730951
 10
37.16262342739537
 20
114.3058916094498
 10
16.63262342739534
 20
114.3058916094497
 42
-0.4142135623731025
 10
16.50762342739534
 20
114.4308916094498
 10
16.50762342739534
 20
114.5878916094499
  0
LINE
  5
518
330
1E
100
AcDbEntity
  8
OBJECT
100
AcDbLine
 10
15.77262342739536
 20
119.7908916094498
 30
0.0
 11
38.02262342739533
 21
119.7908916094498
 31
0.0
  0
LINE
  5
519
330
1E
100
AcDbEntity
  8
HIDDEN
100
AcDbLine
 10
15.81962342739532
 20
119.7438916094498
 30
0.0
 11
37.97562342739533
 21
119.7438916094498
 31
0.0
  0
LINE
  5
51A
330
1E
100
AcDbEntity
  8
OBJECT
100
AcDbLine
 10
15.77262342739536
 20
114.5408916094498
 30
0.0
 11
38.02262342739533
 21
114.5408916094498
 31
0.0
  0
LINE
  5
51B
330
1E
100
AcDbEntity
  8
HIDDEN
100
AcDbLine
 10
15.77262342739536
 20
114.5878916094499
 30
0.0
 11
37.97562342739533
 21
114.5878916094498
 31
0.0
  0
LWPOLYLINE
  5
51C
330
1E
100
AcDbEntity
  8
OBJECT
100
AcDbPolyline
 90
        6
 70
     0
 43
0.0
 10
15.77262342739536
 20
114.5408916094498
 10
15.77262342739536
 20
113.9787666094498
 42
0.4142135623730951
 10
16.27262342739536
 20
113.4787666094498
 10
37.52262342739533
 20
113.4787666094498
 42
0.4142135623730951
 10
38.02262342739533
 20
113.9787666094498
 10
38.02262342739533
 20
114.5408916094498
  0
LWPOLYLINE
  5
524
330
1E
100
AcDbEntity
  8
HIDDEN
100
AcDbPolyline
 90
        6
 70
     1
 43
0.0
 10
15.81949842739535
 20
113.9787666094498
 42
0.4211102882306934
 10
16.2832660598224
 20
113.5257666094498
 10
37.51198079496609
 20
113.5257666094498
 42
0.4211102882321143
 10
37.97574842739533
 20
113.9787666094498
 10
37.97574842739533
 20
114.4940166094498
 10
15.81949842739535
 20
114.4940166094498
  0
LWPOLYLINE
  5
52C
330
1E
100
AcDbEntity
  8
HIDDEN
100
AcDbPolyline
 90
        4
 70
     0
 43
0.0
 10
15.77262342739536
 20
115.1188916094498
 10
16.77262342739536
 20
115.1188916094498
 10
16.77262342739536
 20
119.5878916094498
 10
15.77262342739536
 20
119.5878916094498
  0
LINE
  5
532
330
1E
100
AcDbEntity
  8
OBJECT
100
AcDbLine
 10
15.77262342739536
 20
119.7908916094498
 30
0.0
 11
15.77262342739536
 21
114.5408916094498
 31
0.0
  0
LINE
  5
533
330
1E
100
AcDbEntity
  8
HIDDEN
100
AcDbLine
 10
15.81962342739532
 20
119.7438916094498
 30
0.0
 11
15.81962342739532
 21
114.7548916094498
 31
0.0
  0
DIMENSION
  5
534
330
1E
100
AcDbEntity
  8
DIM
100
AcDbDimension
  2
*D6
 10
35.86662342739538
 20
109.2933329443607
 30
0.0
 11
26.89762342739538
 21
109.2933329443607
 31
0.0
 70
    32
  1
<> REF. CLEAR.
 71
     5
 42
17.93799999999998
  3
23NSTD
100
AcDbAlignedDimension
 13
17.92862342739539
 23
106.7706254068149
 33
0.0
 14
35.86662342739538
 24
106.7706254068149
 34
0.0
100
AcDbRotatedDimension
  0
LWPOLYLINE
  5
535
330
1E
100
AcDbEntity
  8
OBJECT
100
AcDbPolyline
 90
        4
 70
     0
 43
0.0
 10
15.81962342739535
 20
104.1886254068149
 10
16.14762342739538
 20
104.1886254068149
 10
16.14762342739538
 20
104.3526254068149
 10
15.81962342739535
 20
104.3526254068149
  0
CIRCLE
  5
53B
330
1E
100
AcDbEntity
  8
OBJECT
100
AcDbCircle
 10
17.74162342739538
 20
106.0676254068149
 30
0.0
 40
0.095
  0
CIRCLE
  5
53C
330
1E
100
AcDbEntity
  8
HIDDEN
100
AcDbCircle
 10
17.74162342739538
 20
106.0676254068149
 30
0.0
 40
0.1313932152745245
  0
LINE
  5
53D
330
1E
100
AcDbEntity
  8
OBJECT
100
AcDbLine
 10
17.92862342739539
 20
102.9426254068149
 30
0.0
 11
17.92862342739539
 21
106.7706254068149
 31
0.0
  0
LINE
  5
53E
330
1E
100
AcDbEntity
  8
OBJECT
100
AcDbLine
 10
17.30362342739539
 20
102.8176254068149
 30
0.0
 11
17.30362342739539
 21
106.7706254068149
 31
0.0
  0
LINE
  5
53F
330
1E
100
AcDbEntity
  8
HIDDEN
100
AcDbLine
 10
17.38162342739539
 20
102.8176254068149
 30
0.0
 11
17.38162342739539
 21
106.6926254068149
 31
0.0
  0
CIRCLE
  5
540
330
1E
100
AcDbEntity
  8
OBJECT
100
AcDbCircle
 10
17.74162342739538
 20
105.4426254068149
 30
0.0
 40
0.095
  0
CIRCLE
  5
541
330
1E
100
AcDbEntity
  8
HIDDEN
100
AcDbCircle
 10
17.74162342739538
 20
105.4426254068149
 30
0.0
 40
0.1313932152745245
  0
CIRCLE
  5
542
330
1E
100
AcDbEntity
  8
HIDDEN
100
AcDbCircle
 10
17.74162342739538
 20
103.0676254068149
 30
0.0
 40
0.1313932152745245
  0
CIRCLE
  5
543
330
1E
100
AcDbEntity
  8
OBJECT
100
AcDbCircle
 10
17.74162342739538
 20
103.0676254068149
 30
0.0
 40
0.095
  0
ARC
  5
544
330
1E
100
AcDbEntity
  8
OBJECT
100
AcDbCircle
 10
17.80362342739539
 20
102.9426254068149
 30
0.0
 40
0.125
100
AcDbArc
 50
270.0
 51
0.0
  0
CIRCLE
  5
545
330
1E
100
AcDbEntity
  8
OBJECT
100
AcDbCircle
 10
17.74162342739538
 20
104.8176254068149
 30
0.0
 40
0.095
  0
CIRCLE
  5
546
330
1E
100
AcDbEntity
  8
HIDDEN
100
AcDbCircle
 10
17.74162342739538
 20
104.3176254068149
 30
0.0
 40
0.1313932152745245
  0
CIRCLE
  5
547
330
1E
100
AcDbEntity
  8
OBJECT
100
AcDbCircle
 10
17.74162342739538
 20
104.3176254068149
 30
0.0
 40
0.095
  0
CIRCLE
  5
548
330
1E
100
AcDbEntity
  8
HIDDEN
100
AcDbCircle
 10
17.74162342739538
 20
103.6926254068149
 30
0.0
 40
0.1313932152745245
  0
CIRCLE
  5
549
330
1E
100
AcDbEntity
  8
OBJECT
100
AcDbCircle
 10
17.74162342739538
 20
103.6926254068149
 30
0.0
 40
0.095
  0
LINE
  5
54A
330
1E
100
AcDbEntity
  8
OBJECT
100
AcDbLine
 10
17.80362342739539
 20
102.8176254068149
 30
0.0
 11
17.30362342739539
 21
102.8176254068149
 31
0.0
  0
CIRCLE
  5
54B
330
1E
100
AcDbEntity
  8
HIDDEN
100
AcDbCircle
 10
17.74162342739538
 20
104.8176254068149
 30
0.0
 40
0.1313932152745245
  0
LINE
  5
54C
330
1E
100
AcDbEntity
  8
HIDDEN
100
AcDbLine
 10
17.92862342739539
 20
106.6926254068149
 30
0.0
 11
17.38162342739537
 21
106.6926254068149
 31
0.0
  0
LINE
  5
54D
330
1E
100
AcDbEntity
  8
HIDDEN
100
AcDbLine
 10
16.44462342739532
 20
114.7548916094498
 30
0.0
 11
16.44462342739532
 21
114.7078916094498
 31
0.0
  0
LWPOLYLINE
  5
54E
330
1E
100
AcDbEntity
  8
OBJECT
 62
     2
100
AcDbPolyline
 90
        4
 70
     0
 43
0.0
 10
15.69162342739531
 20
114.5718916094498
 10
16.22262342739531
 20
114.5718916094498
 10
16.22262342739531
 20
114.5408916094498
 10
15.69162342739531
 20
114.5408916094498
  0
LWPOLYLINE
  5
554
330
1E
100
AcDbEntity
  8
OBJECT
 62
     4
100
AcDbPolyline
 90
        5
 70
     0
 43
0.0
 10
15.69162342739531
 20
114.6718916094498
 10
16.22262342739531
 20
114.6718916094498
 10
16.22262342739531
 20
114.7028916094498
 10
15.69162342739531
 20
114.7028916094498
 42
4.341678926823472
 10
15.75534940326073
 20
114.6718916094498
  0
CIRCLE
  5
55B
330
1E
100
AcDbEntity
  8
OBJECT
100
AcDbCircle
 10
15.69162342739531
 20
114.6218916094498
 30
0.0
 40
0.05
  0
LWPOLYLINE
  5
55C
330
1E
100
AcDbEntity
  8
HIDDEN
100
AcDbPolyline
 90
        4
 70
     1
 43
0.0
 10
16.19187342739533
 20
114.5718916094498
 10
16.19187342739533
 20
114.5817585404426
 42
0.2380324936361291
 10
15.87987342739532
 20
114.5817585404426
 10
15.87987342739532
 20
114.5718916094498
  0
LWPOLYLINE
  5
562
330
1E
100
AcDbEntity
  8
HIDDEN
100
AcDbPolyline
 90
        4
 70
     1
 43
0.0
 10
16.19187342739533
 20
114.6718916094498
 10
16.19187342739533
 20
114.6620246784571
 42
-0.2380324936361291
 10
15.87987342739532
 20
114.6620246784571
 10
15.87987342739532
 20
114.6718916094498
  0
LINE
  5
568
330
1E
100
AcDbEntity
  8
HIDDEN
100
AcDbLine
 10
15.81962342739535
 20
114.7078916094498
 30
0.0
 11
15.81962342739532
 21
114.6188916094498
 31
0.0
  0
LINE
  5
569
330
1E
100
AcDbEntity
  8
HIDDEN
100
AcDbLine
 10
16.44462342739532
 20
114.7548916094498
 30
0.0
 11
15.81962342739535
 21
114.7548916094498
 31
0.0
  0
LINE
  5
56A
330
1E
100
AcDbEntity
  8
HIDDEN
100
AcDbLine
 10
16.44462342739532
 20
114.7078916094498
 30
0.0
 11
15.77262342739536
 21
114.7078916094498
 31
0.0
  0
LWPOLYLINE
  5
56B
330
1E
100
AcDbEntity
  8
HIDDEN
  6
HIDDEN2
100
AcDbPolyline
 90
        4
 70
     0
 43
0.0
 10
15.77262342739536
 20
117.1618916094498
 10
16.14762342739536
 20
117.1618916094498
 10
16.14762342739536
 20
117.3258916094498
 10
15.77262342739536
 20
117.3258916094498
  0
LWPOLYLINE
  5
571
330
1E
100
AcDbEntity
  8
OBJECT
100
AcDbPolyline
 90
        4
 70
     0
 43
0.0
 10
26.35162342739539
 20
106.7706254068149
 10
26.35162342739539
 20
106.3176254068149
 10
26.16162342739539
 20
106.3176254068149
 10
26.16162342739539
 20
106.7706254068149
  0
LWPOLYLINE
  5
577
330
1E
100
AcDbEntity
  8
OBJECT
100
AcDbPolyline
 90
        4
 70
     0
 43
0.0
 10
28.85162342739539
 20
106.7706254068149
 10
28.85162342739539
 20
106.3176254068149
 10
28.66162342739539
 20
106.3176254068149
 10
28.66162342739539
 20
106.7706254068149
  0
LINE
  5
57D
330
1E
100
AcDbEntity
  8
OBJECT
100
AcDbLine
 10
35.86662342739538
 20
102.9426254068149
 30
0.0
 11
35.86662342739538
 21
106.7706254068149
 31
0.0
  0
LWPOLYLINE
  5
57E
330
1E
100
AcDbEntity
  8
HIDDEN
  6
HIDDEN2
100
AcDbPolyline
 90
        4
 70
     0
 43
0.0
 10
26.35162342739536
 20
113.4787666094498
 10
26.35162342739536
 20
113.9787666094498
 10
26.16162342739537
 20
113.9787666094498
 10
26.16162342739537
 20
113.4787666094498
  0
LWPOLYLINE
  5
584
330
1E
100
AcDbEntity
  8
HIDDEN
  6
HIDDEN2
100
AcDbPolyline
 90
        4
 70
     0
 43
0.0
 10
28.85162342739537
 20
113.4787666094498
 10
28.85162342739537
 20
113.9787666094498
 10
28.66162342739537
 20
113.9787666094498
 10
28.66162342739537
 20
113.4787666094498
  0
LINE
  5
58A
330
1E
100
AcDbEntity
  8
HIDDEN
100
AcDbLine
 10
35.39812342739537
 20
114.3537666094498
 30
0.0
 11
35.39812342739537
 21
113.4787666094498
 31
0.0
  0
LWPOLYLINE
  5
58B
330
1E
100
AcDbEntity
  8
HIDDEN
  6
HIDDEN2
100
AcDbPolyline
 90
        4
 70
     0
 43
0.0
 10
26.35162342739533
 20
119.7908916094498
 10
26.35162342739533
 20
119.2908916094498
 10
26.16162342739537
 20
119.2908916094498
 10
26.16162342739534
 20
119.7908916094498
  0
LWPOLYLINE
  5
591
330
1E
100
AcDbEntity
  8
HIDDEN
  6
HIDDEN2
100
AcDbPolyline
 90
        4
 70
     0
 43
0.0
 10
28.85162342739533
 20
119.7908916094498
 10
28.85162342739533
 20
119.2908916094498
 10
28.66162342739537
 20
119.2908916094498
 10
28.66162342739534
 20
119.7908916094498
  0
LWPOLYLINE
  5
597
330
1E
100
AcDbEntity
  8
HIDDEN
100
AcDbPolyline
 90
        4
 70
     0
 43
0.0
 10
38.02262342739533
 20
115.1188916094498
 10
37.02262342739533
 20
115.1188916094498
 10
37.02262342739533
 20
119.5878916094498
 10
38.02262342739533
 20
119.5878916094498
  0
LINE
  5
59D
330
1E
100
AcDbEntity
  8
OBJECT
100
AcDbLine
 10
38.02262342739533
 20
119.7908916094498
 30
0.0
 11
38.02262342739533
 21
114.5408916094498
 31
0.0
  0
LINE
  5
59E
330
1E
100
AcDbEntity
  8
HIDDEN
100
AcDbLine
 10
37.97562342739533
 20
119.7438916094498
 30
0.0
 11
37.97562342739533
 21
114.5878916094498
 31
0.0
  0
LINE
  5
59F
330
1E
100
AcDbEntity
  8
OBJECT
100
AcDbLine
 10
36.49162342739538
 20
102.8176254068149
 30
0.0
 11
36.49162342739538
 21
106.7706254068149
 31
0.0
  0
LINE
  5
5A0
330
1E
100
AcDbEntity
  8
HIDDEN
100
AcDbLine
 10
36.41362342739538
 20
102.8176254068149
 30
0.0
 11
36.41362342739538
 21
106.6926254068149
 31
0.0
  0
LWPOLYLINE
  5
5A1
330
1E
100
AcDbEntity
  8
OBJECT
100
AcDbPolyline
 90
        4
 70
     0
 43
0.0
 10
37.97562342739539
 20
104.1886254068149
 10
37.64762342739539
 20
104.1886254068149
 10
37.64762342739539
 20
104.3526254068149
 10
37.97562342739539
 20
104.3526254068149
  0
LINE
  5
5A7
330
1E
100
AcDbEntity
  8
OBJECT
100
AcDbLine
 10
35.99162342739538
 20
102.8176254068149
 30
0.0
 11
36.49162342739538
 21
102.8176254068149
 31
0.0
  0
LINE
  5
5A8
330
1E
100
AcDbEntity
  8
HIDDEN
100
AcDbLine
 10
37.35062342739533
 20
114.3058916094498
 30
0.0
 11
37.39762342739533
 21
114.3058916094498
 31
0.0
  0
LINE
  5
5A9
330
1E
100
AcDbEntity
  8
HIDDEN
100
AcDbLine
 10
36.02312342739537
 20
114.3537666094498
 30
0.0
 11
36.02312342739537
 21
113.4787666094498
 31
0.0
  0
LINE
  5
5AA
330
1E
100
AcDbEntity
  8
HIDDEN
100
AcDbLine
 10
37.35062342739533
 20
114.5878916094498
 30
0.0
 11
37.35062342739533
 21
114.3058916094498
 31
0.0
  0
LINE
  5
5AB
330
1E
100
AcDbEntity
  8
HIDDEN
100
AcDbLine
 10
37.39762342739533
 20
114.5408916094498
 30
0.0
 11
37.39762342739533
 21
114.3058916094498
 31
0.0
  0
LWPOLYLINE
  5
5AC
330
1E
100
AcDbEntity
  8
HIDDEN
  6
HIDDEN2
100
AcDbPolyline
 90
        4
 70
     0
 43
0.0
 10
38.02262342739533
 20
117.1618916094498
 10
37.64762342739533
 20
117.1618916094498
 10
37.64762342739533
 20
117.3258916094498
 10
38.02262342739533
 20
117.3258916094498
  0
DIMENSION
  5
5B2
330
1E
100
AcDbEntity
  8
DIM
100
AcDbDimension
  2
*D7
 10
76.82708272882968
 20
100.752679443244
 30
0.0
 11
68.82708272882965
 21
100.752679443244
 31
0.0
 70
    32
 71
     5
 42
16.00000000000005
  3
23NSTD
100
AcDbAlignedDimension
 13
60.82708272882962
 23
94.10319971315066
 33
0.0
 14
76.82708272882968
 24
94.10319971315066
 34
0.0
100
AcDbRotatedDimension
  0
DIMENSION
  5
5B3
330
1E
100
AcDbEntity
  8
DIM
100
AcDbDimension
  2
*D25
 10
71.13509538087237
 20
92.66719971315065
 30
0.0
 11
71.13509538087235
 21
93.38519971315067
 31
0.0
 70
    32
  1
<> TYP.
 71
     5
 42
1.436000000000007
  3
23NSTDI
100
AcDbAlignedDimension
 13
76.82708272882971
 23
94.10319971315066
 33
0.0
 14
76.82708272882971
 24
92.66719971315065
 34
0.0
 50
270.0
100
AcDbRotatedDimension
  0
DIMENSION
  5
5B4
330
1E
100
AcDbEntity
  8
DIM
100
AcDbDimension
  2
*D8
 10
76.67108272882967
 20
88.57252752253918
 30
0.0
 11
70.13358272882967
 21
88.57252752253918
 31
0.0
 70
    32
  1
<> TYP.
 71
     5
 42
0.3120000000000118
  3
23NSTD
100
AcDbAlignedDimension
 13
76.98308272882968
 23
92.82319971315065
 33
0.0
 14
76.67108272882967
 24
92.82319971315065
 34
0.0
 50
180.0
100
AcDbRotatedDimension
  0
LINE
  5
5B5
330
1E
100
AcDbEntity
  8
OBJECT
100
AcDbLine
 10
57.70208272882962
 20
95.90119971315067
 30
0.0
 11
79.95208272882968
 21
95.90119971315065
 31
0.0
  0
LINE
  5
5B6
330
1E
100
AcDbEntity
  8
HIDDEN
100
AcDbLine
 10
57.74908272882965
 20
95.85419971315067
 30
0.0
 11
79.90508272882966
 21
95.85419971315067
 31
0.0
  0
LINE
  5
5B7
330
1E
100
AcDbEntity
  8
HIDDEN
100
AcDbLine
 10
57.74908272882965
 20
74.91619971315064
 30
0.0
 11
79.90508272882966
 21
74.91619971315066
 31
0.0
  0
LINE
  5
5B8
330
1E
100
AcDbEntity
  8
OBJECT
100
AcDbLine
 10
57.70208272882962
 20
74.86919971315067
 30
0.0
 11
79.95208272882962
 21
74.86919971315066
 31
0.0
  0
LINE
  5
5B9
330
1E
100
AcDbEntity
  8
OBJECT
100
AcDbLine
 10
57.70208272882962
 20
95.90119971315067
 30
0.0
 11
57.70208272882962
 21
74.86919971315067
 31
0.0
  0
LINE
  5
5BA
330
1E
100
AcDbEntity
  8
HIDDEN
100
AcDbLine
 10
57.74908272882965
 20
95.85419971315067
 30
0.0
 11
57.74908272882959
 21
74.91619971315064
 31
0.0
  0
LWPOLYLINE
  5
5BB
330
1E
100
AcDbEntity
  8
OBJECT
100
AcDbPolyline
 90
       16
 70
     1
 43
0.0
 10
61.38908272882964
 20
77.22919971315066
 42
1.0
 10
61.38908272882964
 20
77.54119971315067
 10
61.16809445883316
 20
77.54119971315065
 42
0.1800878024639097
 10
60.98308272882963
 20
77.72621144315419
 10
60.98308272882963
 20
77.94719971315065
 42
1.0
 10
60.67108272882961
 20
77.94719971315065
 10
60.67108272882961
 20
77.72621144315419
 42
0.1800878024639097
 10
60.48607099882611
 20
77.54119971315067
 10
60.26508272882963
 20
77.54119971315067
 42
1.0
 10
60.26508272882963
 20
77.22919971315066
 10
60.48607099882611
 20
77.22919971315066
 42
0.1800878024639097
 10
60.67108272882961
 20
77.04418798314712
 10
60.67108272882961
 20
76.82319971315066
 42
1.0
 10
60.98308272882963
 20
76.82319971315066
 10
60.98308272882963
 20
77.04418798314712
 42
0.1800878024639097
 10
61.16809445883316
 20
77.22919971315066
  0
LWPOLYLINE
  5
5CD
330
1E
100
AcDbEntity
  8
OBJECT
100
AcDbPolyline
 90
       16
 70
     1
 43
0.0
 10
61.38908272882964
 20
93.54119971315066
 42
-1.0
 10
61.38908272882964
 20
93.22919971315064
 10
61.16809445883316
 20
93.22919971315066
 42
-0.1800878024639097
 10
60.98308272882963
 20
93.04418798314712
 10
60.98308272882963
 20
92.82319971315066
 42
-1.0
 10
60.67108272882961
 20
92.82319971315066
 10
60.67108272882961
 20
93.04418798314712
 42
-0.1800878024639097
 10
60.48607099882611
 20
93.22919971315064
 10
60.26508272882963
 20
93.22919971315064
 42
-1.0
 10
60.26508272882963
 20
93.54119971315066
 10
60.48607099882611
 20
93.54119971315066
 42
-0.1800878024639097
 10
60.67108272882961
 20
93.72621144315418
 10
60.67108272882961
 20
93.94719971315065
 42
-1.0
 10
60.98308272882963
 20
93.94719971315065
 10
60.98308272882963
 20
93.72621144315418
 42
-0.1800878024639097
 10
61.16809445883316
 20
93.54119971315064
  0
LINE
  5
5DF
330
1E
100
AcDbEntity
  8
OBJECT
100
AcDbLine
 10
80.11408272882972
 20
95.13519971315066
 30
0.0
 11
80.11408272882965
 21
75.63519971315066
 31
0.0
  0
LINE
  5
5E0
330
1E
100
AcDbEntity
  8
HIDDEN
100
AcDbLine
 10
79.90508272882966
 20
95.85419971315067
 30
0.0
 11
79.90508272882966
 21
74.91619971315066
 31
0.0
  0
LINE
  5
5E1
330
1E
100
AcDbEntity
  8
OBJECT
100
AcDbLine
 10
79.95208272882968
 20
95.90119971315065
 30
0.0
 11
79.95208272882962
 21
74.86919971315066
 31
0.0
  0
LWPOLYLINE
  5
5E2
330
1E
100
AcDbEntity
  8
OBJECT
100
AcDbPolyline
 90
       16
 70
     1
 43
0.0
 10
76.26508272882969
 20
77.22919971315066
 42
-1.0
 10
76.26508272882969
 20
77.54119971315067
 10
76.48607099882616
 20
77.54119971315065
 42
-0.1800878024639097
 10
76.67108272882967
 20
77.72621144315419
 10
76.67108272882967
 20
77.94719971315065
 42
-1.0
 10
76.98308272882968
 20
77.94719971315065
 10
76.98308272882968
 20
77.72621144315419
 42
-0.1800878024639097
 10
77.16809445883322
 20
77.54119971315067
 10
77.38908272882969
 20
77.54119971315067
 42
-1.0
 10
77.38908272882969
 20
77.22919971315066
 10
77.16809445883322
 20
77.22919971315066
 42
-0.1800878024639097
 10
76.98308272882968
 20
77.04418798314712
 10
76.98308272882968
 20
76.82319971315066
 42
-1.0
 10
76.67108272882967
 20
76.82319971315066
 10
76.67108272882967
 20
77.04418798314712
 42
-0.1800878024639097
 10
76.48607099882616
 20
77.22919971315066
  0
LINE
  5
5F4
330
1E
100
AcDbEntity
  8
OBJECT
100
AcDbLine
 10
79.95208272882968
 20
76.13519971315065
 30
0.0
 11
80.11408272882965
 21
76.13519971315065
 31
0.0
  0
LINE
  5
5F5
330
1E
100
AcDbEntity
  8
OBJECT
100
AcDbLine
 10
79.95208272882968
 20
76.63519971315065
 30
0.0
 11
80.11408272882965
 21
76.63519971315065
 31
0.0
  0
LINE
  5
5F6
330
1E
100
AcDbEntity
  8
OBJECT
100
AcDbLine
 10
79.95208272882968
 20
77.13519971315065
 30
0.0
 11
80.11408272882965
 21
77.13519971315065
 31
0.0
  0
LINE
  5
5F7
330
1E
100
AcDbEntity
  8
OBJECT
100
AcDbLine
 10
79.95208272882968
 20
77.63519971315066
 30
0.0
 11
80.11408272882965
 21
77.63519971315066
 31
0.0
  0
LINE
  5
5F8
330
1E
100
AcDbEntity
  8
OBJECT
100
AcDbLine
 10
79.95208272882968
 20
78.13519971315066
 30
0.0
 11
80.11408272882965
 21
78.13519971315066
 31
0.0
  0
LINE
  5
5F9
330
1E
100
AcDbEntity
  8
OBJECT
100
AcDbLine
 10
79.95208272882968
 20
75.63519971315066
 30
0.0
 11
80.11408272882965
 21
75.63519971315066
 31
0.0
  0
LINE
  5
5FA
330
1E
100
AcDbEntity
  8
OBJECT
100
AcDbLine
 10
79.95208272882968
 20
78.63519971315065
 30
0.0
 11
80.11408272882965
 21
78.63519971315065
 31
0.0
  0
LINE
  5
5FB
330
1E
100
AcDbEntity
  8
OBJECT
100
AcDbLine
 10
79.95208272882968
 20
79.13519971315065
 30
0.0
 11
80.11408272882965
 21
79.13519971315065
 31
0.0
  0
LINE
  5
5FC
330
1E
100
AcDbEntity
  8
OBJECT
100
AcDbLine
 10
79.95208272882968
 20
79.63519971315065
 30
0.0
 11
80.11408272882965
 21
79.63519971315065
 31
0.0
  0
LINE
  5
5FD
330
1E
100
AcDbEntity
  8
OBJECT
100
AcDbLine
 10
79.95208272882968
 20
80.13519971315066
 30
0.0
 11
80.11408272882965
 21
80.13519971315066
 31
0.0
  0
LINE
  5
5FE
330
1E
100
AcDbEntity
  8
OBJECT
100
AcDbLine
 10
79.95208272882968
 20
80.63519971315065
 30
0.0
 11
80.11408272882965
 21
80.63519971315065
 31
0.0
  0
LINE
  5
5FF
330
1E
100
AcDbEntity
  8
OBJECT
100
AcDbLine
 10
79.95208272882968
 20
81.13519971315065
 30
0.0
 11
80.11408272882965
 21
81.13519971315065
 31
0.0
  0
LINE
  5
600
330
1E
100
AcDbEntity
  8
OBJECT
100
AcDbLine
 10
79.95208272882968
 20
81.63519971315066
 30
0.0
 11
80.11408272882965
 21
81.63519971315066
 31
0.0
  0
LINE
  5
601
330
1E
100
AcDbEntity
  8
OBJECT
100
AcDbLine
 10
79.95208272882968
 20
82.13519971315065
 30
0.0
 11
80.11408272882965
 21
82.13519971315065
 31
0.0
  0
LINE
  5
602
330
1E
100
AcDbEntity
  8
OBJECT
100
AcDbLine
 10
79.95208272882968
 20
82.63519971315066
 30
0.0
 11
80.11408272882965
 21
82.63519971315066
 31
0.0
  0
LINE
  5
603
330
1E
100
AcDbEntity
  8
OBJECT
100
AcDbLine
 10
79.95208272882968
 20
83.13519971315065
 30
0.0
 11
80.11408272882965
 21
83.13519971315065
 31
0.0
  0
LINE
  5
604
330
1E
100
AcDbEntity
  8
OBJECT
100
AcDbLine
 10
79.95208272882968
 20
83.63519971315065
 30
0.0
 11
80.11408272882965
 21
83.63519971315065
 31
0.0
  0
LINE
  5
605
330
1E
100
AcDbEntity
  8
OBJECT
100
AcDbLine
 10
79.95208272882968
 20
84.13519971315066
 30
0.0
 11
80.11408272882965
 21
84.13519971315066
 31
0.0
  0
LINE
  5
606
330
1E
100
AcDbEntity
  8
OBJECT
100
AcDbLine
 10
79.95208272882968
 20
84.63519971315065
 30
0.0
 11
80.11408272882965
 21
84.63519971315065
 31
0.0
  0
LINE
  5
607
330
1E
100
AcDbEntity
  8
OBJECT
100
AcDbLine
 10
79.95208272882968
 20
85.13519971315066
 30
0.0
 11
80.11408272882965
 21
85.13519971315066
 31
0.0
  0
LINE
  5
608
330
1E
100
AcDbEntity
  8
OBJECT
100
AcDbLine
 10
79.95208272882968
 20
85.63519971315065
 30
0.0
 11
80.11408272882965
 21
85.63519971315065
 31
0.0
  0
LINE
  5
609
330
1E
100
AcDbEntity
  8
OBJECT
100
AcDbLine
 10
79.95208272882968
 20
86.13519971315065
 30
0.0
 11
80.11408272882965
 21
86.13519971315065
 31
0.0
  0
LINE
  5
60A
330
1E
100
AcDbEntity
  8
OBJECT
100
AcDbLine
 10
79.95208272882968
 20
86.63519971315066
 30
0.0
 11
80.11408272882965
 21
86.63519971315066
 31
0.0
  0
LINE
  5
60B
330
1E
100
AcDbEntity
  8
OBJECT
100
AcDbLine
 10
79.95208272882968
 20
87.13519971315065
 30
0.0
 11
80.11408272882965
 21
87.13519971315065
 31
0.0
  0
LINE
  5
60C
330
1E
100
AcDbEntity
  8
OBJECT
100
AcDbLine
 10
79.95208272882968
 20
87.63519971315066
 30
0.0
 11
80.11408272882965
 21
87.63519971315066
 31
0.0
  0
LINE
  5
60D
330
1E
100
AcDbEntity
  8
OBJECT
100
AcDbLine
 10
79.95208272882968
 20
88.13519971315065
 30
0.0
 11
80.11408272882965
 21
88.13519971315065
 31
0.0
  0
LINE
  5
60E
330
1E
100
AcDbEntity
  8
OBJECT
100
AcDbLine
 10
79.95208272882968
 20
88.63519971315065
 30
0.0
 11
80.11408272882965
 21
88.63519971315065
 31
0.0
  0
LWPOLYLINE
  5
60F
330
1E
100
AcDbEntity
  8
OBJECT
100
AcDbPolyline
 90
       16
 70
     1
 43
0.0
 10
76.26508272882969
 20
93.54119971315066
 42
1.0
 10
76.26508272882969
 20
93.22919971315064
 10
76.48607099882616
 20
93.22919971315066
 42
0.1800878024639097
 10
76.67108272882967
 20
93.04418798314712
 10
76.67108272882967
 20
92.82319971315066
 42
1.0
 10
76.98308272882968
 20
92.82319971315066
 10
76.98308272882968
 20
93.04418798314712
 42
0.1800878024639097
 10
77.16809445883322
 20
93.22919971315064
 10
77.38908272882969
 20
93.22919971315064
 42
1.0
 10
77.38908272882969
 20
93.54119971315066
 10
77.16809445883322
 20
93.54119971315066
 42
0.1800878024639097
 10
76.98308272882968
 20
93.72621144315418
 10
76.98308272882968
 20
93.94719971315065
 42
1.0
 10
76.67108272882967
 20
93.94719971315065
 10
76.67108272882967
 20
93.72621144315418
 42
0.1800878024639097
 10
76.48607099882616
 20
93.54119971315064
  0
LINE
  5
621
330
1E
100
AcDbEntity
  8
OBJECT
100
AcDbLine
 10
79.95208272882968
 20
89.13519971315066
 30
0.0
 11
80.11408272882965
 21
89.13519971315066
 31
0.0
  0
LINE
  5
622
330
1E
100
AcDbEntity
  8
OBJECT
100
AcDbLine
 10
79.95208272882968
 20
89.63519971315065
 30
0.0
 11
80.11408272882965
 21
89.63519971315065
 31
0.0
  0
LINE
  5
623
330
1E
100
AcDbEntity
  8
OBJECT
100
AcDbLine
 10
79.95208272882968
 20
90.13519971315066
 30
0.0
 11
80.11408272882965
 21
90.13519971315066
 31
0.0
  0
LINE
  5
624
330
1E
100
AcDbEntity
  8
OBJECT
100
AcDbLine
 10
79.95208272882968
 20
90.63519971315065
 30
0.0
 11
80.11408272882965
 21
90.63519971315065
 31
0.0
  0
LINE
  5
625
330
1E
100
AcDbEntity
  8
OBJECT
100
AcDbLine
 10
79.95208272882968
 20
91.13519971315065
 30
0.0
 11
80.11408272882965
 21
91.13519971315065
 31
0.0
  0
LINE
  5
626
330
1E
100
AcDbEntity
  8
OBJECT
100
AcDbLine
 10
79.95208272882968
 20
91.63519971315066
 30
0.0
 11
80.11408272882965
 21
91.63519971315066
 31
0.0
  0
LINE
  5
627
330
1E
100
AcDbEntity
  8
OBJECT
100
AcDbLine
 10
79.95208272882968
 20
92.13519971315065
 30
0.0
 11
80.11408272882965
 21
92.13519971315065
 31
0.0
  0
LINE
  5
628
330
1E
100
AcDbEntity
  8
OBJECT
100
AcDbLine
 10
79.95208272882968
 20
92.63519971315066
 30
0.0
 11
80.11408272882965
 21
92.63519971315066
 31
0.0
  0
LINE
  5
629
330
1E
100
AcDbEntity
  8
OBJECT
100
AcDbLine
 10
79.95208272882968
 20
93.13519971315065
 30
0.0
 11
80.11408272882965
 21
93.13519971315065
 31
0.0
  0
LINE
  5
62A
330
1E
100
AcDbEntity
  8
OBJECT
100
AcDbLine
 10
79.95208272882968
 20
93.63519971315065
 30
0.0
 11
80.11408272882965
 21
93.63519971315065
 31
0.0
  0
LINE
  5
62B
330
1E
100
AcDbEntity
  8
OBJECT
100
AcDbLine
 10
79.95208272882968
 20
94.13519971315066
 30
0.0
 11
80.11408272882965
 21
94.13519971315066
 31
0.0
  0
LINE
  5
62C
330
1E
100
AcDbEntity
  8
OBJECT
100
AcDbLine
 10
79.95208272882968
 20
94.63519971315065
 30
0.0
 11
80.11408272882965
 21
94.63519971315065
 31
0.0
  0
LINE
  5
62D
330
1E
100
AcDbEntity
  8
OBJECT
100
AcDbLine
 10
79.95208272882968
 20
95.13519971315066
 30
0.0
 11
80.11408272882965
 21
95.13519971315066
 31
0.0
  0
DIMENSION
  5
62E
330
1E
100
AcDbEntity
  8
DIM
100
AcDbDimension
  2
*D9
 10
57.70208272882962
 20
100.752679443244
 30
0.0
 11
52.72708272882962
 21
100.752679443244
 31
0.0
 70
    32
 71
     5
 42
3.125
  3
23NSTD
100
AcDbAlignedDimension
 13
60.82708272882962
 23
94.10319971315066
 33
0.0
 14
57.70208272882962
 24
95.90119971315067
 34
0.0
100
AcDbRotatedDimension
  0
DIMENSION
  5
62F
330
1E
100
AcDbEntity
  8
DIM
100
AcDbDimension
  2
*D26
 10
54.8351244528703
 20
95.90119971315067
 30
0.0
 11
54.83512445287029
 21
94.64319971315068
 31
0.0
 70
    32
 71
     5
 42
2.516000000000019
  3
23NSTDI
100
AcDbAlignedDimension
 13
60.10908272882963
 23
93.38519971315065
 33
0.0
 14
57.70208272882962
 24
95.90119971315067
 34
0.0
 50
90.0
100
AcDbRotatedDimension
  0
DIMENSION
  5
630
330
1E
100
AcDbEntity
  8
DIM
100
AcDbDimension
  2
*D10
 10
54.8351244528703
 20
77.38519971315067
 30
0.0
 11
54.83512445287029
 21
85.38519971315068
 31
0.0
 70
    32
 71
     5
 42
15.99999999999998
  3
23NSTD
100
AcDbAlignedDimension
 13
60.10908272882963
 23
93.38519971315065
 33
0.0
 14
60.10908272882963
 24
77.38519971315067
 34
0.0
 50
90.0
100
AcDbRotatedDimension
  0
INSERT
  5
631
330
1E
100
AcDbEntity
  8
OBJECT
100
AcDbBlockReference
  2
OBLONG
 10
20.64760204192515
 20
117.6658915890252
 30
0.0
 50
270.0
  0
INSERT
  5
632
330
1E
100
AcDbEntity
  8
OBJECT
100
AcDbBlockReference
  2
OBLONG
 10
20.39760204192515
 20
117.6658915890252
 30
0.0
 50
270.0
  0
INSERT
  5
633
330
1E
100
AcDbEntity
  8
OBJECT
100
AcDbBlockReference
  2
OBLONG
 10
19.14760204192515
 20
117.6658915890252
 30
0.0
 50
270.0
  0
INSERT
  5
634
330
1E
100
AcDbEntity
  8
OBJECT
100
AcDbBlockReference
  2
OBLONG
 10
19.39760204192515
 20
117.6658915890252
 30
0.0
 50
270.0
  0
INSERT
  5
635
330
1E
100
AcDbEntity
  8
OBJECT
100
AcDbBlockReference
  2
OBLONG
 10
19.64760204192515
 20
117.6658915890252
 30
0.0
 50
270.0
  0
INSERT
  5
636
330
1E
100
AcDbEntity
  8
OBJECT
100
AcDbBlockReference
  2
OBLONG
 10
19.89760204192515
 20
117.6658915890252
 30
0.0
 50
270.0
  0
INSERT
  5
637
330
1E
100
AcDbEntity
  8
OBJECT
100
AcDbBlockReference
  2
OBLONG
 10
18.89760204192515
 20
117.6658915890252
 30
0.0
 50
270.0
  0
INSERT
  5
638
330
1E
100
AcDbEntity
  8
OBJECT
100
AcDbBlockReference
  2
OBLONG
 10
18.14760204192515
 20
117.6658915890252
 30
0.0
 50
270.0
  0
INSERT
  5
639
330
1E
100
AcDbEntity
  8
OBJECT
100
AcDbBlockReference
  2
OBLONG
 10
18.39760204192515
 20
117.6658915890252
 30
0.0
 50
270.0
  0
INSERT
  5
63A
330
1E
100
AcDbEntity
  8
OBJECT
100
AcDbBlockReference
  2
OBLONG
 10
18.64760204192515
 20
117.6658915890252
 30
0.0
 50
270.0
  0
INSERT
  5
63B
330
1E
100
AcDbEntity
  8
OBJECT
100
AcDbBlockReference
  2
OBLONG
 10
17.89760204192515
 20
117.6658915890252
 30
0.0
 50
270.0
  0
INSERT
  5
63C
330
1E
100
AcDbEntity
  8
OBJECT
100
AcDbBlockReference
  2
OBLONG
 10
20.14760204192515
 20
117.6658915890252
 30
0.0
 50
270.0
  0
INSERT
  5
63D
330
1E
100
AcDbEntity
  8
OBJECT
100
AcDbBlockReference
  2
OBLONG
 10
20.14760204192515
 20
118.6658915890251
 30
0.0
 50
270.0
  0
INSERT
  5
63E
330
1E
100
AcDbEntity
  8
OBJECT
100
AcDbBlockReference
  2
OBLONG
 10
19.89760204192515
 20
118.6658915890251
 30
0.0
 50
270.0
  0
INSERT
  5
63F
330
1E
100
AcDbEntity
  8
OBJECT
100
AcDbBlockReference
  2
OBLONG
 10
19.14760204192515
 20
118.6658915890251
 30
0.0
 50
270.0
  0
INSERT
  5
640
330
1E
100
AcDbEntity
  8
OBJECT
100
AcDbBlockReference
  2
OBLONG
 10
19.39760204192515
 20
118.6658915890251
 30
0.0
 50
270.0
  0
INSERT
  5
641
330
1E
100
AcDbEntity
  8
OBJECT
100
AcDbBlockReference
  2
OBLONG
 10
19.64760204192515
 20
118.6658915890251
 30
0.0
 50
270.0
  0
INSERT
  5
642
330
1E
100
AcDbEntity
  8
OBJECT
100
AcDbBlockReference
  2
OBLONG
 10
18.64760204192515
 20
118.6658915890251
 30
0.0
 50
270.0
  0
INSERT
  5
643
330
1E
100
AcDbEntity
  8
OBJECT
100
AcDbBlockReference
  2
OBLONG
 10
18.14760204192515
 20
118.6658915890251
 30
0.0
 50
270.0
  0
INSERT
  5
644
330
1E
100
AcDbEntity
  8
OBJECT
100
AcDbBlockReference
  2
OBLONG
 10
18.39760204192515
 20
118.6658915890251
 30
0.0
 50
270.0
  0
INSERT
  5
645
330
1E
100
AcDbEntity
  8
OBJECT
100
AcDbBlockReference
  2
OBLONG
 10
18.89760204192515
 20
118.6658915890251
 30
0.0
 50
270.0
  0
INSERT
  5
646
330
1E
100
AcDbEntity
  8
OBJECT
100
AcDbBlockReference
  2
OBLONG
 10
17.89760204192515
 20
118.6658915890251
 30
0.0
 50
270.0
  0
CIRCLE
  5
647
330
1E
100
AcDbEntity
  8
OBJECT
100
AcDbCircle
 10
17.21010204192518
 20
119.2283916094498
 30
0.0
 40
0.109
  0
CIRCLE
  5
648
330
1E
100
AcDbEntity
  8
OBJECT
100
AcDbCircle
 10
21.33510204192518
 20
119.2283916094498
 30
0.0
 40
0.109
  0
INSERT
  5
649
330
1E
100
AcDbEntity
  8
OBJECT
100
AcDbBlockReference
  2
OBLONG
 10
20.64760204192515
 20
118.6658915890251
 30
0.0
 50
270.0
  0
INSERT
  5
64A
330
1E
100
AcDbEntity
  8
OBJECT
100
AcDbBlockReference
  2
OBLONG
 10
20.39760204192515
 20
118.6658915890251
 30
0.0
 50
270.0
  0
INSERT
  5
64B
330
1E
100
AcDbEntity
  8
OBJECT
100
AcDbBlockReference
  2
OBLONG
 10
20.14760204192515
 20
115.6658915890251
 30
0.0
 50
270.0
  0
INSERT
  5
64C
330
1E
100
AcDbEntity
  8
OBJECT
100
AcDbBlockReference
  2
OBLONG
 10
20.14760204192515
 20
116.6658915890252
 30
0.0
 50
270.0
  0
INSERT
  5
64D
330
1E
100
AcDbEntity
  8
OBJECT
100
AcDbBlockReference
  2
OBLONG
 10
19.89760204192515
 20
115.6658915890251
 30
0.0
 50
270.0
  0
INSERT
  5
64E
330
1E
100
AcDbEntity
  8
OBJECT
100
AcDbBlockReference
  2
OBLONG
 10
19.89760204192515
 20
116.6658915890252
 30
0.0
 50
270.0
  0
INSERT
  5
64F
330
1E
100
AcDbEntity
  8
OBJECT
100
AcDbBlockReference
  2
OBLONG
 10
19.14760204192515
 20
115.6658915890251
 30
0.0
 50
270.0
  0
INSERT
  5
650
330
1E
100
AcDbEntity
  8
OBJECT
100
AcDbBlockReference
  2
OBLONG
 10
19.39760204192515
 20
115.6658915890251
 30
0.0
 50
270.0
  0
INSERT
  5
651
330
1E
100
AcDbEntity
  8
OBJECT
100
AcDbBlockReference
  2
OBLONG
 10
19.64760204192515
 20
115.6658915890251
 30
0.0
 50
270.0
  0
INSERT
  5
652
330
1E
100
AcDbEntity
  8
OBJECT
100
AcDbBlockReference
  2
OBLONG
 10
18.89760204192515
 20
115.6658915890251
 30
0.0
 50
270.0
  0
INSERT
  5
653
330
1E
100
AcDbEntity
  8
OBJECT
100
AcDbBlockReference
  2
OBLONG
 10
18.14760204192515
 20
115.6658915890251
 30
0.0
 50
270.0
  0
INSERT
  5
654
330
1E
100
AcDbEntity
  8
OBJECT
100
AcDbBlockReference
  2
OBLONG
 10
18.39760204192515
 20
115.6658915890251
 30
0.0
 50
270.0
  0
INSERT
  5
655
330
1E
100
AcDbEntity
  8
OBJECT
100
AcDbBlockReference
  2
OBLONG
 10
18.64760204192515
 20
115.6658915890251
 30
0.0
 50
270.0
  0
INSERT
  5
656
330
1E
100
AcDbEntity
  8
OBJECT
100
AcDbBlockReference
  2
OBLONG
 10
17.89760204192515
 20
115.6658915890251
 30
0.0
 50
270.0
  0
INSERT
  5
657
330
1E
100
AcDbEntity
  8
OBJECT
100
AcDbBlockReference
  2
OBLONG
 10
19.14760204192515
 20
116.6658915890252
 30
0.0
 50
270.0
  0
INSERT
  5
658
330
1E
100
AcDbEntity
  8
OBJECT
100
AcDbBlockReference
  2
OBLONG
 10
19.39760204192515
 20
116.6658915890252
 30
0.0
 50
270.0
  0
INSERT
  5
659
330
1E
100
AcDbEntity
  8
OBJECT
100
AcDbBlockReference
  2
OBLONG
 10
19.64760204192515
 20
116.6658915890252
 30
0.0
 50
270.0
  0
INSERT
  5
65A
330
1E
100
AcDbEntity
  8
OBJECT
100
AcDbBlockReference
  2
OBLONG
 10
17.89760204192515
 20
116.6658915890252
 30
0.0
 50
270.0
  0
INSERT
  5
65B
330
1E
100
AcDbEntity
  8
OBJECT
100
AcDbBlockReference
  2
OBLONG
 10
18.14760204192515
 20
116.6658915890252
 30
0.0
 50
270.0
  0
INSERT
  5
65C
330
1E
100
AcDbEntity
  8
OBJECT
100
AcDbBlockReference
  2
OBLONG
 10
18.39760204192515
 20
116.6658915890252
 30
0.0
 50
270.0
  0
INSERT
  5
65D
330
1E
100
AcDbEntity
  8
OBJECT
100
AcDbBlockReference
  2
OBLONG
 10
18.89760204192515
 20
116.6658915890252
 30
0.0
 50
270.0
  0
INSERT
  5
65E
330
1E
100
AcDbEntity
  8
OBJECT
100
AcDbBlockReference
  2
OBLONG
 10
18.64760204192515
 20
116.6658915890252
 30
0.0
 50
270.0
  0
CIRCLE
  5
65F
330
1E
100
AcDbEntity
  8
OBJECT
100
AcDbCircle
 10
17.21010204192518
 20
115.1033916094498
 30
0.0
 40
0.109
  0
INSERT
  5
660
330
1E
100
AcDbEntity
  8
OBJECT
100
AcDbBlockReference
  2
OBLONG
 10
20.64760204192515
 20
115.6658915890251
 30
0.0
 50
270.0
  0
INSERT
  5
661
330
1E
100
AcDbEntity
  8
OBJECT
100
AcDbBlockReference
  2
OBLONG
 10
20.64760204192515
 20
116.6658915890252
 30
0.0
 50
270.0
  0
CIRCLE
  5
662
330
1E
100
AcDbEntity
  8
OBJECT
100
AcDbCircle
 10
21.33510204192518
 20
115.1033916094498
 30
0.0
 40
0.109
  0
INSERT
  5
663
330
1E
100
AcDbEntity
  8
OBJECT
100
AcDbBlockReference
  2
OBLONG
 10
20.39760204192515
 20
115.6658915890251
 30
0.0
 50
270.0
  0
INSERT
  5
664
330
1E
100
AcDbEntity
  8
OBJECT
100
AcDbBlockReference
  2
OBLONG
 10
20.39760204192515
 20
116.6658915890252
 30
0.0
 50
270.0
  0
INSERT
  5
665
330
1E
100
AcDbEntity
  8
OBJECT
100
AcDbBlockReference
  2
OBLONG
 10
35.8976448128655
 20
115.6658915890251
 30
0.0
 41
-1.0
 50
90.0
  0
INSERT
  5
666
330
1E
100
AcDbEntity
  8
OBJECT
100
AcDbBlockReference
  2
OBLONG
 10
35.8976448128655
 20
116.6658915890252
 30
0.0
 41
-1.0
 50
90.0
  0
INSERT
  5
667
330
1E
100
AcDbEntity
  8
OBJECT
100
AcDbBlockReference
  2
OBLONG
 10
35.8976448128655
 20
118.6658915890251
 30
0.0
 41
-1.0
 50
90.0
  0
INSERT
  5
668
330
1E
100
AcDbEntity
  8
OBJECT
100
AcDbBlockReference
  2
OBLONG
 10
35.8976448128655
 20
117.6658915890252
 30
0.0
 41
-1.0
 50
90.0
  0
INSERT
  5
669
330
1E
100
AcDbEntity
  8
OBJECT
100
AcDbBlockReference
  2
OBLONG
 10
35.6476448128655
 20
117.6658915890252
 30
0.0
 41
-1.0
 50
90.0
  0
INSERT
  5
66A
330
1E
100
AcDbEntity
  8
OBJECT
100
AcDbBlockReference
  2
OBLONG
 10
35.3976448128655
 20
117.6658915890252
 30
0.0
 41
-1.0
 50
90.0
  0
INSERT
  5
66B
330
1E
100
AcDbEntity
  8
OBJECT
100
AcDbBlockReference
  2
OBLONG
 10
34.89764481286551
 20
117.6658915890252
 30
0.0
 41
-1.0
 50
90.0
  0
INSERT
  5
66C
330
1E
100
AcDbEntity
  8
OBJECT
100
AcDbBlockReference
  2
OBLONG
 10
34.6476448128655
 20
117.6658915890252
 30
0.0
 41
-1.0
 50
90.0
  0
INSERT
  5
66D
330
1E
100
AcDbEntity
  8
OBJECT
100
AcDbBlockReference
  2
OBLONG
 10
34.3976448128655
 20
117.6658915890252
 30
0.0
 41
-1.0
 50
90.0
  0
INSERT
  5
66E
330
1E
100
AcDbEntity
  8
OBJECT
100
AcDbBlockReference
  2
OBLONG
 10
35.14764481286551
 20
117.6658915890252
 30
0.0
 41
-1.0
 50
90.0
  0
INSERT
  5
66F
330
1E
100
AcDbEntity
  8
OBJECT
100
AcDbBlockReference
  2
OBLONG
 10
33.89764481286551
 20
117.6658915890252
 30
0.0
 41
-1.0
 50
90.0
  0
INSERT
  5
670
330
1E
100
AcDbEntity
  8
OBJECT
100
AcDbBlockReference
  2
OBLONG
 10
33.64764481286551
 20
117.6658915890252
 30
0.0
 41
-1.0
 50
90.0
  0
INSERT
  5
671
330
1E
100
AcDbEntity
  8
OBJECT
100
AcDbBlockReference
  2
OBLONG
 10
34.1476448128655
 20
117.6658915890252
 30
0.0
 41
-1.0
 50
90.0
  0
INSERT
  5
672
330
1E
100
AcDbEntity
  8
OBJECT
100
AcDbBlockReference
  2
OBLONG
 10
33.3976448128655
 20
117.6658915890252
 30
0.0
 41
-1.0
 50
90.0
  0
INSERT
  5
673
330
1E
100
AcDbEntity
  8
OBJECT
100
AcDbBlockReference
  2
OBLONG
 10
33.1476448128655
 20
117.6658915890252
 30
0.0
 41
-1.0
 50
90.0
  0
CIRCLE
  5
674
330
1E
100
AcDbEntity
  8
OBJECT
100
AcDbCircle
 10
32.4601448128655
 20
119.2283916094498
 30
0.0
 40
0.109
  0
INSERT
  5
675
330
1E
100
AcDbEntity
  8
OBJECT
100
AcDbBlockReference
  2
OBLONG
 10
33.64764481286551
 20
118.6658915890251
 30
0.0
 41
-1.0
 50
90.0
  0
INSERT
  5
676
330
1E
100
AcDbEntity
  8
OBJECT
100
AcDbBlockReference
  2
OBLONG
 10
33.3976448128655
 20
118.6658915890251
 30
0.0
 41
-1.0
 50
90.0
  0
INSERT
  5
677
330
1E
100
AcDbEntity
  8
OBJECT
100
AcDbBlockReference
  2
OBLONG
 10
34.89764481286551
 20
118.6658915890251
 30
0.0
 41
-1.0
 50
90.0
  0
INSERT
  5
678
330
1E
100
AcDbEntity
  8
OBJECT
100
AcDbBlockReference
  2
OBLONG
 10
35.14764481286551
 20
118.6658915890251
 30
0.0
 41
-1.0
 50
90.0
  0
INSERT
  5
679
330
1E
100
AcDbEntity
  8
OBJECT
100
AcDbBlockReference
  2
OBLONG
 10
35.6476448128655
 20
118.6658915890251
 30
0.0
 41
-1.0
 50
90.0
  0
INSERT
  5
67A
330
1E
100
AcDbEntity
  8
OBJECT
100
AcDbBlockReference
  2
OBLONG
 10
35.3976448128655
 20
118.6658915890251
 30
0.0
 41
-1.0
 50
90.0
  0
INSERT
  5
67B
330
1E
100
AcDbEntity
  8
OBJECT
100
AcDbBlockReference
  2
OBLONG
 10
33.89764481286551
 20
118.6658915890251
 30
0.0
 41
-1.0
 50
90.0
  0
INSERT
  5
67C
330
1E
100
AcDbEntity
  8
OBJECT
100
AcDbBlockReference
  2
OBLONG
 10
34.6476448128655
 20
118.6658915890251
 30
0.0
 41
-1.0
 50
90.0
  0
INSERT
  5
67D
330
1E
100
AcDbEntity
  8
OBJECT
100
AcDbBlockReference
  2
OBLONG
 10
34.3976448128655
 20
118.6658915890251
 30
0.0
 41
-1.0
 50
90.0
  0
INSERT
  5
67E
330
1E
100
AcDbEntity
  8
OBJECT
100
AcDbBlockReference
  2
OBLONG
 10
34.1476448128655
 20
118.6658915890251
 30
0.0
 41
-1.0
 50
90.0
  0
INSERT
  5
67F
330
1E
100
AcDbEntity
  8
OBJECT
100
AcDbBlockReference
  2
OBLONG
 10
33.1476448128655
 20
118.6658915890251
 30
0.0
 41
-1.0
 50
90.0
  0
CIRCLE
  5
680
330
1E
100
AcDbEntity
  8
OBJECT
100
AcDbCircle
 10
32.4601448128655
 20
115.1033916094498
 30
0.0
 40
0.109
  0
INSERT
  5
681
330
1E
100
AcDbEntity
  8
OBJECT
100
AcDbBlockReference
  2
OBLONG
 10
33.64764481286551
 20
115.6658915890251
 30
0.0
 41
-1.0
 50
90.0
  0
INSERT
  5
682
330
1E
100
AcDbEntity
  8
OBJECT
100
AcDbBlockReference
  2
OBLONG
 10
33.3976448128655
 20
115.6658915890251
 30
0.0
 41
-1.0
 50
90.0
  0
INSERT
  5
683
330
1E
100
AcDbEntity
  8
OBJECT
100
AcDbBlockReference
  2
OBLONG
 10
33.64764481286551
 20
116.6658915890252
 30
0.0
 41
-1.0
 50
90.0
  0
INSERT
  5
684
330
1E
100
AcDbEntity
  8
OBJECT
100
AcDbBlockReference
  2
OBLONG
 10
33.3976448128655
 20
116.6658915890252
 30
0.0
 41
-1.0
 50
90.0
  0
INSERT
  5
685
330
1E
100
AcDbEntity
  8
OBJECT
100
AcDbBlockReference
  2
OBLONG
 10
35.6476448128655
 20
115.6658915890251
 30
0.0
 41
-1.0
 50
90.0
  0
INSERT
  5
686
330
1E
100
AcDbEntity
  8
OBJECT
100
AcDbBlockReference
  2
OBLONG
 10
35.3976448128655
 20
115.6658915890251
 30
0.0
 41
-1.0
 50
90.0
  0
INSERT
  5
687
330
1E
100
AcDbEntity
  8
OBJECT
100
AcDbBlockReference
  2
OBLONG
 10
34.89764481286551
 20
115.6658915890251
 30
0.0
 41
-1.0
 50
90.0
  0
INSERT
  5
688
330
1E
100
AcDbEntity
  8
OBJECT
100
AcDbBlockReference
  2
OBLONG
 10
35.14764481286551
 20
115.6658915890251
 30
0.0
 41
-1.0
 50
90.0
  0
INSERT
  5
689
330
1E
100
AcDbEntity
  8
OBJECT
100
AcDbBlockReference
  2
OBLONG
 10
34.6476448128655
 20
115.6658915890251
 30
0.0
 41
-1.0
 50
90.0
  0
INSERT
  5
68A
330
1E
100
AcDbEntity
  8
OBJECT
100
AcDbBlockReference
  2
OBLONG
 10
34.3976448128655
 20
115.6658915890251
 30
0.0
 41
-1.0
 50
90.0
  0
INSERT
  5
68B
330
1E
100
AcDbEntity
  8
OBJECT
100
AcDbBlockReference
  2
OBLONG
 10
33.89764481286551
 20
115.6658915890251
 30
0.0
 41
-1.0
 50
90.0
  0
INSERT
  5
68C
330
1E
100
AcDbEntity
  8
OBJECT
100
AcDbBlockReference
  2
OBLONG
 10
34.1476448128655
 20
115.6658915890251
 30
0.0
 41
-1.0
 50
90.0
  0
INSERT
  5
68D
330
1E
100
AcDbEntity
  8
OBJECT
100
AcDbBlockReference
  2
OBLONG
 10
35.6476448128655
 20
116.6658915890252
 30
0.0
 41
-1.0
 50
90.0
  0
INSERT
  5
68E
330
1E
100
AcDbEntity
  8
OBJECT
100
AcDbBlockReference
  2
OBLONG
 10
35.3976448128655
 20
116.6658915890252
 30
0.0
 41
-1.0
 50
90.0
  0
INSERT
  5
68F
330
1E
100
AcDbEntity
  8
OBJECT
100
AcDbBlockReference
  2
OBLONG
 10
34.89764481286551
 20
116.6658915890252
 30
0.0
 41
-1.0
 50
90.0
  0
INSERT
  5
690
330
1E
100
AcDbEntity
  8
OBJECT
100
AcDbBlockReference
  2
OBLONG
 10
35.14764481286551
 20
116.6658915890252
 30
0.0
 41
-1.0
 50
90.0
  0
INSERT
  5
691
330
1E
100
AcDbEntity
  8
OBJECT
100
AcDbBlockReference
  2
OBLONG
 10
34.6476448128655
 20
116.6658915890252
 30
0.0
 41
-1.0
 50
90.0
  0
INSERT
  5
692
330
1E
100
AcDbEntity
  8
OBJECT
100
AcDbBlockReference
  2
OBLONG
 10
34.3976448128655
 20
116.6658915890252
 30
0.0
 41
-1.0
 50
90.0
  0
INSERT
  5
693
330
1E
100
AcDbEntity
  8
OBJECT
100
AcDbBlockReference
  2
OBLONG
 10
33.89764481286551
 20
116.6658915890252
 30
0.0
 41
-1.0
 50
90.0
  0
INSERT
  5
694
330
1E
100
AcDbEntity
  8
OBJECT
100
AcDbBlockReference
  2
OBLONG
 10
34.1476448128655
 20
116.6658915890252
 30
0.0
 41
-1.0
 50
90.0
  0
INSERT
  5
695
330
1E
100
AcDbEntity
  8
OBJECT
100
AcDbBlockReference
  2
OBLONG
 10
33.1476448128655
 20
115.6658915890251
 30
0.0
 41
-1.0
 50
90.0
  0
INSERT
  5
696
330
1E
100
AcDbEntity
  8
OBJECT
100
AcDbBlockReference
  2
OBLONG
 10
33.1476448128655
 20
116.6658915890252
 30
0.0
 41
-1.0
 50
90.0
  0
CIRCLE
  5
697
330
1E
100
AcDbEntity
  8
OBJECT
100
AcDbCircle
 10
36.5851448128655
 20
119.2283916094498
 30
0.0
 40
0.109
  0
CIRCLE
  5
698
330
1E
100
AcDbEntity
  8
OBJECT
100
AcDbCircle
 10
36.5851448128655
 20
115.1033916094498
 30
0.0
 40
0.109
  0
LWPOLYLINE
  5
699
330
1E
100
AcDbEntity
  8
HIDDEN
  6
HIDDEN2
100
AcDbPolyline
 90
        4
 70
     0
 43
0.0
 10
17.77362342739533
 20
65.7882636526231
 10
17.77362342739533
 20
66.2882636526231
 10
17.58362342739536
 20
66.2882636526231
 10
17.58362342739533
 20
65.7882636526231
  0
LWPOLYLINE
  5
69F
330
1E
100
AcDbEntity
  8
HIDDEN
  6
HIDDEN2
100
AcDbPolyline
 90
        4
 70
     0
 43
0.0
 10
17.77362342739533
 20
119.7908916094498
 10
17.77362342739533
 20
119.2908916094498
 10
17.58362342739536
 20
119.2908916094498
 10
17.58362342739533
 20
119.7908916094498
  0
LWPOLYLINE
  5
6A5
330
1E
100
AcDbEntity
  8
HIDDEN
  6
HIDDEN2
100
AcDbPolyline
 90
        4
 70
     0
 43
0.0
 10
36.21162342739535
 20
65.7882636526231
 10
36.21162342739535
 20
66.2882636526231
 10
36.02162342739538
 20
66.2882636526231
 10
36.02162342739535
 20
65.7882636526231
  0
LWPOLYLINE
  5
6AB
330
1E
100
AcDbEntity
  8
HIDDEN
  6
HIDDEN2
100
AcDbPolyline
 90
        4
 70
     0
 43
0.0
 10
36.21162342739535
 20
119.7908916094498
 10
36.21162342739535
 20
119.2908916094498
 10
36.02162342739538
 20
119.2908916094498
 10
36.02162342739535
 20
119.7908916094498
  0
DIMENSION
  5
6BA
330
1E
100
AcDbEntity
  8
DIM
100
AcDbDimension
  2
*D27
 10
32.76495658406756
 20
106.3176254068149
 30
0.0
 11
32.76495658406755
 21
104.5676254068149
 31
0.0
 70
    32
  1
<> P.S.
 71
     5
 42
3.5
  3
23NSTDI
100
AcDbAlignedDimension
 13
35.99162342739538
 23
102.8176254068149
 33
0.0
 14
35.99162342739538
 24
106.3176254068149
 34
0.0
 50
90.0
100
AcDbRotatedDimension
  0
TEXT
  5
6BB
330
1E
100
AcDbEntity
  8
TEXT
100
AcDbText
 10
7.146893997024079
 20
122.4379983099859
 30
0.0
 40
1.28365395898686
  1
UNIVERSAL NETWORKING CABINET
 41
0.75
  7
TXT
 72
     1
 11
20.3043470766394
 21
122.4379983099859
 31
0.0
100
AcDbText
  0
TEXT
  5
6BC
330
1E
100
AcDbEntity
  8
TEXT
100
AcDbText
 10
50.47552798077157
 20
122.506287117679
 30
0.0
 40
1.375
  1
UN-8080
 41
0.75
  7
TXT
 72
     1
 11
53.74115298077157
 21
122.506287117679
 31
0.0
100
AcDbText
  0
DIMENSION
  5
6BD
330
1E
100
AcDbEntity
  8
DIM
100
AcDbDimension
  2
*D11
 10
33.29133154481735
 20
26.38707805576864
 30
0.0
 11
33.29133154481734
 21
36.84007805576864
 31
0.0
 70
    32
  1
<> OPENING
 71
     5
 42
20.906
  3
23NSTD
100
AcDbAlignedDimension
 13
33.25442695896546
 23
47.29307805576864
 33
0.0
 14
33.25442695896546
 24
26.38707805576864
 34
0.0
 50
90.0
100
AcDbRotatedDimension
  0
LWPOLYLINE
  5
6BE
330
1E
100
AcDbEntity
  8
OBJECT
100
AcDbPolyline
 90
       16
 70
     1
 43
0.0
 10
21.76881255583691
 20
44.27807805576863
 42
1.0
 10
22.08081255583692
 20
44.27807805576863
 10
22.08081255583692
 20
44.49906632576509
 42
0.1800878024639097
 10
22.26582428584046
 20
44.68407805576862
 10
22.4868125558369
 20
44.68407805576862
 42
1.0
 10
22.4868125558369
 20
44.99607805576864
 10
22.26582428584046
 20
44.99607805576864
 42
0.1800878024639097
 10
22.08081255583692
 20
45.18108978577216
 10
22.08081255583692
 20
45.40207805576862
 42
1.0
 10
21.76881255583691
 20
45.40207805576862
 10
21.76881255583691
 20
45.18108978577216
 42
0.1800878024639097
 10
21.5838008258334
 20
44.99607805576864
 10
21.36281255583694
 20
44.99607805576864
 42
1.0
 10
21.36281255583694
 20
44.68407805576862
 10
21.5838008258334
 20
44.68407805576862
 42
0.1800878024639097
 10
21.76881255583694
 20
44.49906632576509
  0
LWPOLYLINE
  5
6D0
330
1E
100
AcDbEntity
  8
OBJECT
100
AcDbPolyline
 90
       16
 70
     1
 43
0.0
 10
38.08081255583692
 20
44.27807805576863
 42
-1.0
 10
37.76881255583691
 20
44.27807805576863
 10
37.76881255583694
 20
44.49906632576509
 42
-0.1800878024639097
 10
37.5838008258334
 20
44.68407805576862
 10
37.36281255583694
 20
44.68407805576862
 42
-1.0
 10
37.36281255583694
 20
44.99607805576864
 10
37.5838008258334
 20
44.99607805576864
 42
-0.1800878024639097
 10
37.76881255583691
 20
45.18108978577216
 10
37.76881255583691
 20
45.40207805576862
 42
-1.0
 10
38.08081255583692
 20
45.40207805576862
 10
38.08081255583692
 20
45.18108978577216
 42
-0.1800878024639097
 10
38.26582428584046
 20
44.99607805576864
 10
38.48681255583693
 20
44.99607805576864
 42
-1.0
 10
38.48681255583693
 20
44.68407805576862
 10
38.26582428584046
 20
44.68407805576862
 42
-0.1800878024639097
 10
38.08081255583692
 20
44.49906632576509
  0
LINE
  5
6E2
330
1E
100
AcDbEntity
  8
OBJECT
100
AcDbLine
 10
39.81581255583694
 20
25.71507805576862
 30
0.0
 11
39.81581255583691
 21
47.96507805576864
 31
0.0
  0
LINE
  5
6E3
330
1E
100
AcDbEntity
  8
OBJECT
100
AcDbLine
 10
39.76881255583694
 20
26.45007805576863
 30
0.0
 11
39.76881255583691
 21
47.23007805576864
 31
0.0
  0
LINE
  5
6E4
330
1E
100
AcDbEntity
  8
OBJECT
100
AcDbLine
 10
20.08081255583689
 20
26.45007805576863
 30
0.0
 11
20.08081255583693
 21
47.23007805576864
 31
0.0
  0
LINE
  5
6E5
330
1E
100
AcDbEntity
  8
OBJECT
100
AcDbLine
 10
20.0338125558369
 20
25.71507805576862
 30
0.0
 11
20.03381255583693
 21
47.96507805576864
 31
0.0
  0
LINE
  5
6E6
330
1E
100
AcDbEntity
  8
HIDDEN
100
AcDbLine
 10
40.39381255583694
 20
25.76207805576862
 30
0.0
 11
40.39381255583691
 21
47.91807805576863
 31
0.0
  0
LINE
  5
6E7
330
1E
100
AcDbEntity
  8
OBJECT
100
AcDbLine
 10
40.44081255583691
 20
25.71507805576862
 30
0.0
 11
40.44081255583691
 21
47.96507805576861
 31
0.0
  0
LINE
  5
6E8
330
1E
100
AcDbEntity
  8
HIDDEN
100
AcDbLine
 10
19.45581255583689
 20
25.76207805576861
 30
0.0
 11
19.45581255583689
 21
47.91807805576865
 31
0.0
  0
LINE
  5
6E9
330
1E
100
AcDbEntity
  8
OBJECT
100
AcDbLine
 10
19.4088125558369
 20
25.71507805576861
 30
0.0
 11
19.40881255583693
 21
47.96507805576864
 31
0.0
  0
DIMENSION
  5
6EA
330
1E
100
AcDbEntity
  8
DIM
100
AcDbDimension
  2
*D12
 10
39.76881255583691
 20
42.08365189809113
 30
0.0
 11
27.67331783735632
 21
42.08365189809113
 31
0.0
 70
   160
  1
<> OPENING
 71
     5
 42
19.688
  3
23NSTD
100
AcDbAlignedDimension
 13
20.08081255583691
 23
42.08365189809113
 33
0.0
 14
39.76881255583691
 24
42.08365189809113
 34
0.0
100
AcDbRotatedDimension
  0
LINE
  5
6EB
330
1E
100
AcDbEntity
  8
OBJECT
100
AcDbLine
 10
39.67481255583689
 20
26.16507805576863
 30
0.0
 11
20.17481255583692
 21
26.16507805576863
 31
0.0
  0
LINE
  5
6EC
330
1E
100
AcDbEntity
  8
OBJECT
100
AcDbLine
 10
20.09581255583691
 20
26.38707805576862
 30
0.0
 11
39.75381255583693
 21
26.38707805576864
 31
0.0
  0
LINE
  5
6ED
330
1E
100
AcDbEntity
  8
OBJECT
100
AcDbLine
 10
30.79981255583692
 20
25.5840780557686
 30
0.0
 11
20.17481255583692
 21
25.5840780557686
 31
0.0
  0
LINE
  5
6EE
330
1E
100
AcDbEntity
  8
OBJECT
100
AcDbLine
 10
30.79981255583692
 20
25.71457805576864
 30
0.0
 11
20.17481255583692
 21
25.71457805576865
 31
0.0
  0
LINE
  5
6EF
330
1E
100
AcDbEntity
  8
HIDDEN
100
AcDbLine
 10
30.79981255583692
 20
25.68357805576863
 30
0.0
 11
20.17481255583692
 21
25.68357805576863
 31
0.0
  0
LINE
  5
6F0
330
1E
100
AcDbEntity
  8
OBJECT
100
AcDbLine
 10
40.44081255583691
 20
25.55257805576863
 30
0.0
 11
19.40881255583693
 21
25.55257805576863
 31
0.0
  0
LINE
  5
6F1
330
1E
100
AcDbEntity
  8
HIDDEN
100
AcDbLine
 10
19.45568755583693
 20
25.50607805576858
 30
0.0
 11
40.39393755583691
 21
25.50607805576858
 31
0.0
  0
LINE
  5
6F2
330
1E
100
AcDbEntity
  8
OBJECT
100
AcDbLine
 10
19.90881255583693
 20
24.4909530557686
 30
0.0
 11
39.94081255583691
 21
24.49095305576858
 31
0.0
  0
LINE
  5
6F3
330
1E
100
AcDbEntity
  8
HIDDEN
100
AcDbLine
 10
19.89816992344671
 20
24.53795305576858
 30
0.0
 11
39.9514551882755
 21
24.53795305576858
 31
0.0
  0
LWPOLYLINE
  5
6F4
330
1E
100
AcDbEntity
  8
OBJECT
100
AcDbPolyline
 90
       16
 70
     1
 43
0.0
 10
21.76881255583691
 20
29.40207805576857
 42
-1.0
 10
22.08081255583692
 20
29.40207805576857
 10
22.08081255583692
 20
29.1810897857721
 42
-0.1800878024639097
 10
22.26582428584046
 20
28.99607805576858
 10
22.4868125558369
 20
28.99607805576858
 42
-1.0
 10
22.4868125558369
 20
28.68407805576857
 10
22.26582428584046
 20
28.68407805576857
 42
-0.1800878024639097
 10
22.08081255583692
 20
28.49906632576504
 10
22.08081255583692
 20
28.27807805576858
 42
-1.0
 10
21.76881255583691
 20
28.27807805576858
 10
21.76881255583691
 20
28.49906632576504
 42
-0.1800878024639097
 10
21.5838008258334
 20
28.68407805576857
 10
21.36281255583694
 20
28.68407805576857
 42
-1.0
 10
21.36281255583694
 20
28.99607805576858
 10
21.5838008258334
 20
28.99607805576858
 42
-0.1800878024639097
 10
21.76881255583694
 20
29.1810897857721
  0
LWPOLYLINE
  5
706
330
1E
100
AcDbEntity
  8
OBJECT
100
AcDbPolyline
 90
        4
 70
     1
 43
0.0
 10
21.01881255583691
 20
25.58407805576857
 10
21.01881255583691
 20
25.59394498676133
 42
-0.2380324936361291
 10
21.33081255583693
 20
25.59394498676133
 10
21.33081255583693
 20
25.58407805576857
  0
LINE
  5
70C
330
1E
100
AcDbEntity
  8
OBJECT
100
AcDbLine
 10
20.17481255583692
 20
25.55257805576864
 30
0.0
 11
20.17481255583692
 21
26.16507805576863
 31
0.0
  0
ARC
  5
70D
330
1E
100
AcDbEntity
  8
OBJECT
100
AcDbCircle
 10
19.90881255583693
 20
24.99095305576858
 30
0.0
 40
0.5
100
AcDbArc
 50
180.0
 51
270.0
  0
ARC
  5
70E
330
1E
100
AcDbEntity
  8
HIDDEN
100
AcDbCircle
 10
19.90881255583693
 20
24.99095305576858
 30
0.0
 40
0.453125
100
AcDbArc
 50
180.0
 51
270.0
  0
LINE
  5
70F
330
1E
100
AcDbEntity
  8
OBJECT
100
AcDbLine
 10
19.40881255583693
 20
25.55307805576858
 30
0.0
 11
19.40881255583693
 21
24.99095305576858
 31
0.0
  0
LINE
  5
710
330
1E
100
AcDbEntity
  8
HIDDEN
100
AcDbLine
 10
19.45568755583693
 20
25.50607805576858
 30
0.0
 11
19.45568755583693
 21
24.99095305576858
 31
0.0
  0
LWPOLYLINE
  5
711
330
1E
100
AcDbEntity
  8
HIDDEN
  6
HIDDEN2
100
AcDbPolyline
 90
        4
 70
     0
 43
0.0
 10
20.6108125558369
 20
24.4909530557686
 10
20.6108125558369
 20
24.9909530557686
 10
20.8008125558369
 20
24.9909530557686
 10
20.8008125558369
 20
24.4909530557686
  0
LINE
  5
717
330
1E
100
AcDbEntity
  8
HIDDEN
100
AcDbLine
 10
19.45581255583689
 20
26.71532805576861
 30
0.0
 11
19.50281255583689
 21
26.71532805576861
 31
0.0
  0
LINE
  5
718
330
1E
100
AcDbEntity
  8
HIDDEN
100
AcDbLine
 10
19.50281255583689
 20
26.71532805576861
 30
0.0
 11
19.50281255583689
 21
25.76232805576859
 31
0.0
  0
LINE
  5
719
330
1E
100
AcDbEntity
  8
OBJECT
100
AcDbLine
 10
20.03381255583693
 20
26.45007805576863
 30
0.0
 11
20.08081255583689
 21
26.45007805576863
 31
0.0
  0
LINE
  5
71A
330
1E
100
AcDbEntity
  8
HIDDEN
100
AcDbLine
 10
19.45581255583689
 20
25.76207805576861
 30
0.0
 11
20.17481255583692
 21
25.76207805576861
 31
0.0
  0
LINE
  5
71B
330
1E
100
AcDbEntity
  8
OBJECT
100
AcDbLine
 10
20.09581255583691
 20
25.71507805576862
 30
0.0
 11
20.09581255583691
 21
26.38707805576862
 31
0.0
  0
LINE
  5
71C
330
1E
100
AcDbEntity
  8
OBJECT
100
AcDbLine
 10
19.4088125558369
 20
25.71507805576862
 30
0.0
 11
20.17481255583692
 21
25.71507805576862
 31
0.0
  0
LWPOLYLINE
  5
71D
330
1E
100
AcDbEntity
  8
HIDDEN
  6
HIDDEN2
100
AcDbPolyline
 90
        4
 70
     0
 43
0.0
 10
19.40881255583695
 20
32.57507805576864
 10
20.03381255583696
 20
32.57507805576864
 10
20.03381255583696
 20
32.85507805576864
 10
19.40881255583693
 20
32.85507805576864
  0
CIRCLE
  5
723
330
1E
100
AcDbEntity
  8
OBJECT
100
AcDbCircle
 10
20.70581255583687
 20
38.69907805576863
 30
0.0
 40
0.095
  0
CIRCLE
  5
724
330
1E
100
AcDbEntity
  8
OBJECT
100
AcDbCircle
 10
20.70581255583687
 20
36.19907805576863
 30
0.0
 40
0.095
  0
CIRCLE
  5
725
330
1E
100
AcDbEntity
  8
OBJECT
100
AcDbCircle
 10
31.74981255583691
 20
25.97807805576863
 30
0.0
 40
0.156
  0
LINE
  5
726
330
1E
100
AcDbEntity
  8
OBJECT
100
AcDbLine
 10
39.67481255583692
 20
25.5840780557686
 30
0.0
 11
30.92481255583692
 21
25.5840780557686
 31
0.0
  0
LWPOLYLINE
  5
727
330
1E
100
AcDbEntity
  8
OBJECT
100
AcDbPolyline
 90
        6
 70
     0
 43
0.0
 10
30.79981255583692
 20
25.55307805576858
 10
30.79981255583692
 20
25.74095305576859
 10
31.79981255583692
 20
25.74095305576859
 10
31.79981255583692
 20
25.61595305576858
 10
30.92481255583692
 20
25.61595305576858
 10
30.92481255583692
 20
25.55307805576858
  0
LWPOLYLINE
  5
72F
330
1E
100
AcDbEntity
  8
OBJECT
100
AcDbPolyline
 90
        4
 70
     0
 43
0.0
 10
24.17481255583692
 20
25.5840780557686
 10
24.17481255583692
 20
25.73057805576865
 10
23.67481255583692
 20
25.73057805576865
 10
23.67481255583692
 20
25.5840780557686
  0
LWPOLYLINE
  5
735
330
1E
100
AcDbEntity
  8
OBJECT
100
AcDbPolyline
 90
        4
 70
     0
 43
0.0
 10
22.17481255583692
 20
25.5840780557686
 10
22.17481255583692
 20
25.73057805576865
 10
21.67481255583692
 20
25.73057805576865
 10
21.67481255583692
 20
25.5840780557686
  0
LWPOLYLINE
  5
73B
330
1E
100
AcDbEntity
  8
OBJECT
100
AcDbPolyline
 90
        4
 70
     0
 43
0.0
 10
23.17481255583692
 20
25.5840780557686
 10
23.17481255583692
 20
25.73057805576865
 10
22.67481255583692
 20
25.73057805576865
 10
22.67481255583692
 20
25.5840780557686
  0
LWPOLYLINE
  5
741
330
1E
100
AcDbEntity
  8
OBJECT
100
AcDbPolyline
 90
        4
 70
     0
 43
0.0
 10
26.17481255583692
 20
25.5840780557686
 10
26.17481255583692
 20
25.73057805576865
 10
25.67481255583692
 20
25.73057805576865
 10
25.67481255583692
 20
25.60772772656476
  0
LWPOLYLINE
  5
747
330
1E
100
AcDbEntity
  8
OBJECT
100
AcDbPolyline
 90
        4
 70
     1
 43
0.0
 10
25.39381255583691
 20
25.58407805576857
 10
25.39381255583691
 20
25.59394498676133
 42
-0.2380324936361291
 10
25.70581255583693
 20
25.59394498676133
 10
25.70581255583693
 20
25.58407805576857
  0
LWPOLYLINE
  5
74D
330
1E
100
AcDbEntity
  8
OBJECT
100
AcDbPolyline
 90
        4
 70
     0
 43
0.0
 10
25.17481255583692
 20
25.5840780557686
 10
25.17481255583692
 20
25.73057805576865
 10
24.67481255583692
 20
25.73057805576865
 10
24.67481255583692
 20
25.5840780557686
  0
CIRCLE
  5
753
330
1E
100
AcDbEntity
  8
OBJECT
100
AcDbCircle
 10
24.44981255583693
 20
25.97807805576863
 30
0.0
 40
0.156
  0
CIRCLE
  5
754
330
1E
100
AcDbEntity
  8
OBJECT
100
AcDbCircle
 10
24.44981255583693
 20
25.97807805576863
 30
0.0
 40
0.0855
  0
LWPOLYLINE
  5
755
330
1E
100
AcDbEntity
  8
OBJECT
100
AcDbPolyline
 90
        4
 70
     0
 43
0.0
 10
29.17481255583692
 20
25.5840780557686
 10
29.17481255583692
 20
25.73057805576865
 10
28.67481255583692
 20
25.73057805576865
 10
28.67481255583692
 20
25.5840780557686
  0
LWPOLYLINE
  5
75B
330
1E
100
AcDbEntity
  8
OBJECT
100
AcDbPolyline
 90
        4
 70
     0
 43
0.0
 10
27.17481255583692
 20
25.5840780557686
 10
27.17481255583692
 20
25.73057805576865
 10
26.67481255583692
 20
25.73057805576865
 10
26.67481255583692
 20
25.5840780557686
  0
LWPOLYLINE
  5
761
330
1E
100
AcDbEntity
  8
OBJECT
100
AcDbPolyline
 90
        4
 70
     0
 43
0.0
 10
28.17481255583692
 20
25.5840780557686
 10
28.17481255583692
 20
25.73057805576865
 10
27.67481255583692
 20
25.73057805576865
 10
27.67481255583692
 20
25.5840780557686
  0
CIRCLE
  5
767
330
1E
100
AcDbEntity
  8
OBJECT
100
AcDbCircle
 10
28.0998125558369
 20
25.97807805576863
 30
0.0
 40
0.156
  0
CIRCLE
  5
768
330
1E
100
AcDbEntity
  8
OBJECT
100
AcDbCircle
 10
28.0998125558369
 20
25.97807805576863
 30
0.0
 40
0.0855
  0
LWPOLYLINE
  5
769
330
1E
100
AcDbEntity
  8
OBJECT
100
AcDbPolyline
 90
        4
 70
     1
 43
0.0
 10
29.76881255583691
 20
25.58407805576857
 10
29.76881255583691
 20
25.59394498676133
 42
-0.2380324936361291
 10
30.08081255583693
 20
25.59394498676133
 10
30.08081255583693
 20
25.58407805576857
  0
LWPOLYLINE
  5
76F
330
1E
100
AcDbEntity
  8
OBJECT
100
AcDbPolyline
 90
        4
 70
     0
 43
0.0
 10
30.17481255583692
 20
25.5840780557686
 10
30.17481255583692
 20
25.73057805576865
 10
29.67481255583692
 20
25.73057805576865
 10
29.67481255583692
 20
25.5840780557686
  0
LWPOLYLINE
  5
775
330
1E
100
AcDbEntity
  8
OBJECT
100
AcDbPolyline
 90
        3
 70
     0
 43
0.0
 10
30.79981255583692
 20
25.73057805576865
 10
30.67481255583692
 20
25.73057805576865
 10
30.67481255583692
 20
25.5840780557686
  0
LWPOLYLINE
  5
77A
330
1E
100
AcDbEntity
  8
OBJECT
100
AcDbPolyline
 90
        2
 70
     0
 43
0.0
 10
31.17481255583692
 20
25.5840780557686
 10
31.17481255583692
 20
25.61595305576858
  0
LWPOLYLINE
  5
77E
330
1E
100
AcDbEntity
  8
HIDDEN
100
AcDbPolyline
 90
        4
 70
     0
 43
0.0
 10
29.61281255583691
 20
25.36595305576859
 10
29.61281255583691
 20
25.49095305576859
 10
30.79981255583692
 20
25.49095305576859
 10
30.79981255583692
 20
25.52366543787917
  0
LWPOLYLINE
  5
784
330
1E
100
AcDbEntity
  8
HIDDEN
100
AcDbPolyline
 90
        3
 70
     0
 43
0.0
 10
30.92481255583692
 20
25.51553501990392
 10
30.92481255583692
 20
25.36595305576859
 10
29.61281255583691
 20
25.36595305576859
  0
LINE
  5
789
330
1E
100
AcDbEntity
  8
HIDDEN
100
AcDbLine
 10
29.61231255583692
 20
25.36595305576858
 30
0.0
 11
29.61231255583692
 21
24.49095305576858
 31
0.0
  0
LINE
  5
78A
330
1E
100
AcDbEntity
  8
HIDDEN
100
AcDbLine
 10
30.23731255583692
 20
25.36595305576858
 30
0.0
 11
30.23731255583692
 21
24.49095305576858
 31
0.0
  0
LWPOLYLINE
  5
78B
330
1E
100
AcDbEntity
  8
OBJECT
100
AcDbPolyline
 90
        4
 70
     1
 43
0.0
 10
30.37793755583692
 20
24.49095305576859
 42
-0.217523824832095
 10
30.24231255583691
 20
24.26595305576859
 10
29.60731255583692
 20
24.26595305576859
 42
-0.2175238248320952
 10
29.47168755583692
 20
24.49095305576859
  0
LINE
  5
791
330
1E
100
AcDbEntity
  8
HIDDEN
100
AcDbLine
 10
39.67481255583692
 20
25.68357805576863
 30
0.0
 11
31.79981255583692
 21
25.68357805576863
 31
0.0
  0
LINE
  5
792
330
1E
100
AcDbEntity
  8
OBJECT
100
AcDbLine
 10
39.67481255583692
 20
25.71457805576864
 30
0.0
 11
31.79981255583692
 21
25.71457805576864
 31
0.0
  0
LWPOLYLINE
  5
793
330
1E
100
AcDbEntity
  8
OBJECT
100
AcDbPolyline
 90
        4
 70
     0
 43
0.0
 10
37.17481255583692
 20
25.5840780557686
 10
37.17481255583692
 20
25.73057805576865
 10
36.67481255583692
 20
25.73057805576865
 10
36.67481255583692
 20
25.5840780557686
  0
LWPOLYLINE
  5
799
330
1E
100
AcDbEntity
  8
OBJECT
100
AcDbPolyline
 90
        4
 70
     1
 43
0.0
 10
34.14381255583691
 20
25.58407805576857
 10
34.14381255583691
 20
25.59394498676133
 42
-0.2380324936361291
 10
34.45581255583693
 20
25.59394498676133
 10
34.45581255583693
 20
25.58407805576857
  0
LWPOLYLINE
  5
79F
330
1E
100
AcDbEntity
  8
OBJECT
100
AcDbPolyline
 90
        4
 70
     0
 43
0.0
 10
34.17481255583692
 20
25.60772772656476
 10
34.17481255583692
 20
25.73057805576865
 10
33.67481255583692
 20
25.73057805576865
 10
33.67481255583692
 20
25.5840780557686
  0
LWPOLYLINE
  5
7A5
330
1E
100
AcDbEntity
  8
OBJECT
100
AcDbPolyline
 90
        2
 70
     0
 43
0.0
 10
31.67481255583692
 20
25.61595305576858
 10
31.67481255583692
 20
25.5840780557686
  0
LWPOLYLINE
  5
7A9
330
1E
100
AcDbEntity
  8
OBJECT
100
AcDbPolyline
 90
        3
 70
     0
 43
0.0
 10
32.17481255583692
 20
25.5840780557686
 10
32.17481255583692
 20
25.73057805576865
 10
31.79981255583692
 20
25.73057805576865
  0
LWPOLYLINE
  5
7AE
330
1E
100
AcDbEntity
  8
OBJECT
100
AcDbPolyline
 90
        4
 70
     0
 43
0.0
 10
33.17481255583692
 20
25.5840780557686
 10
33.17481255583692
 20
25.73057805576865
 10
32.67481255583692
 20
25.73057805576865
 10
32.67481255583692
 20
25.5840780557686
  0
CIRCLE
  5
7B4
330
1E
100
AcDbEntity
  8
OBJECT
100
AcDbCircle
 10
31.74981255583691
 20
25.97807805576863
 30
0.0
 40
0.0855
  0
LWPOLYLINE
  5
7B5
330
1E
100
AcDbEntity
  8
OBJECT
100
AcDbPolyline
 90
        4
 70
     0
 43
0.0
 10
35.17481255583692
 20
25.5840780557686
 10
35.17481255583692
 20
25.73057805576865
 10
34.67481255583692
 20
25.73057805576865
 10
34.67481255583692
 20
25.5840780557686
  0
LWPOLYLINE
  5
7BB
330
1E
100
AcDbEntity
  8
OBJECT
100
AcDbPolyline
 90
        4
 70
     0
 43
0.0
 10
36.17481255583692
 20
25.5840780557686
 10
36.17481255583692
 20
25.73057805576865
 10
35.67481255583692
 20
25.73057805576865
 10
35.67481255583692
 20
25.5840780557686
  0
CIRCLE
  5
7C1
330
1E
100
AcDbEntity
  8
OBJECT
100
AcDbCircle
 10
35.39981255583692
 20
25.97807805576863
 30
0.0
 40
0.156
  0
CIRCLE
  5
7C2
330
1E
100
AcDbEntity
  8
OBJECT
100
AcDbCircle
 10
35.39981255583692
 20
25.97807805576863
 30
0.0
 40
0.0855
  0
LWPOLYLINE
  5
7C3
330
1E
100
AcDbEntity
  8
HIDDEN
  6
HIDDEN2
100
AcDbPolyline
 90
        4
 70
     0
 43
0.0
 10
39.23881255583694
 20
24.4909530557686
 10
39.23881255583694
 20
24.9909530557686
 10
39.04881255583694
 20
24.9909530557686
 10
39.04881255583694
 20
24.4909530557686
  0
LWPOLYLINE
  5
7C9
330
1E
100
AcDbEntity
  8
OBJECT
100
AcDbPolyline
 90
        4
 70
     1
 43
0.0
 10
38.51881255583691
 20
25.58407805576857
 10
38.51881255583691
 20
25.59394498676133
 42
-0.2380324936361291
 10
38.83081255583693
 20
25.59394498676133
 10
38.83081255583693
 20
25.58407805576857
  0
LWPOLYLINE
  5
7CF
330
1E
100
AcDbEntity
  8
OBJECT
100
AcDbPolyline
 90
        4
 70
     0
 43
0.0
 10
38.17481255583692
 20
25.5840780557686
 10
38.17481255583692
 20
25.73057805576865
 10
37.67481255583692
 20
25.73057805576865
 10
37.67481255583692
 20
25.5840780557686
  0
LINE
  5
7D5
330
1E
100
AcDbEntity
  8
HIDDEN
100
AcDbLine
 10
40.17369854666938
 20
25.76207805576861
 30
0.0
 11
40.08469854666938
 21
25.76207805576861
 31
0.0
  0
LINE
  5
7D6
330
1E
100
AcDbEntity
  8
OBJECT
100
AcDbLine
 10
39.67481255583692
 20
25.55257805576863
 30
0.0
 11
39.67481255583692
 21
26.16507805576863
 31
0.0
  0
ARC
  5
7D7
330
1E
100
AcDbEntity
  8
HIDDEN
100
AcDbCircle
 10
39.94081255583691
 20
24.99095305576858
 30
0.0
 40
0.453125
100
AcDbArc
 50
270.0
 51
0.0
  0
ARC
  5
7D8
330
1E
100
AcDbEntity
  8
OBJECT
100
AcDbCircle
 10
39.94081255583691
 20
24.99095305576858
 30
0.0
 40
0.5
100
AcDbArc
 50
270.0
 51
0.0
  0
LINE
  5
7D9
330
1E
100
AcDbEntity
  8
HIDDEN
100
AcDbLine
 10
40.39393755583691
 20
25.50607805576858
 30
0.0
 11
40.39393755583691
 21
24.99095305576858
 31
0.0
  0
LINE
  5
7DA
330
1E
100
AcDbEntity
  8
OBJECT
100
AcDbLine
 10
40.44081255583691
 20
25.55307805576858
 30
0.0
 11
40.44081255583691
 21
24.99095305576858
 31
0.0
  0
LINE
  5
7DB
330
1E
100
AcDbEntity
  8
HIDDEN
100
AcDbLine
 10
39.67481255583692
 20
25.76207805576862
 30
0.0
 11
40.39381255583691
 21
25.76207805576862
 31
0.0
  0
LINE
  5
7DC
330
1E
100
AcDbEntity
  8
OBJECT
100
AcDbLine
 10
39.81581255583694
 20
26.45007805576863
 30
0.0
 11
39.76881255583694
 21
26.45007805576863
 31
0.0
  0
LINE
  5
7DD
330
1E
100
AcDbEntity
  8
OBJECT
100
AcDbLine
 10
39.75381255583693
 20
25.71507805576862
 30
0.0
 11
39.75381255583693
 21
26.38707805576864
 31
0.0
  0
LINE
  5
7DE
330
1E
100
AcDbEntity
  8
HIDDEN
100
AcDbLine
 10
40.39381255583697
 20
26.71532805576861
 30
0.0
 11
40.34681255583698
 21
26.71532805576862
 31
0.0
  0
LINE
  5
7DF
330
1E
100
AcDbEntity
  8
HIDDEN
100
AcDbLine
 10
40.34681255583698
 20
26.71532805576861
 30
0.0
 11
40.34681255583698
 21
25.76232805576839
 31
0.0
  0
LINE
  5
7E0
330
1E
100
AcDbEntity
  8
OBJECT
100
AcDbLine
 10
39.67481255583689
 20
25.71507805576862
 30
0.0
 11
40.44081255583691
 21
25.71507805576862
 31
0.0
  0
LWPOLYLINE
  5
7E1
330
1E
100
AcDbEntity
  8
OBJECT
100
AcDbPolyline
 90
       16
 70
     1
 43
0.0
 10
38.08081255583692
 20
29.40207805576857
 42
1.0
 10
37.76881255583691
 20
29.40207805576857
 10
37.76881255583694
 20
29.1810897857721
 42
0.1800878024639097
 10
37.5838008258334
 20
28.99607805576858
 10
37.36281255583694
 20
28.99607805576858
 42
1.0
 10
37.36281255583694
 20
28.68407805576857
 10
37.5838008258334
 20
28.68407805576857
 42
0.1800878024639097
 10
37.76881255583691
 20
28.49906632576504
 10
37.76881255583691
 20
28.27807805576858
 42
1.0
 10
38.08081255583692
 20
28.27807805576858
 10
38.08081255583692
 20
28.49906632576504
 42
0.1800878024639097
 10
38.26582428584046
 20
28.68407805576857
 10
38.48681255583693
 20
28.68407805576857
 42
1.0
 10
38.48681255583693
 20
28.99607805576858
 10
38.26582428584046
 20
28.99607805576858
 42
0.1800878024639097
 10
38.08081255583692
 20
29.1810897857721
  0
LWPOLYLINE
  5
7F3
330
1E
100
AcDbEntity
  8
HIDDEN
  6
HIDDEN2
100
AcDbPolyline
 90
        4
 70
     0
 43
0.0
 10
40.44081255583691
 20
32.57507805576864
 10
39.81581255583691
 20
32.57507805576864
 10
39.81581255583691
 20
32.85507805576864
 10
40.44081255583691
 20
32.85507805576864
  0
CIRCLE
  5
7F9
330
1E
100
AcDbEntity
  8
OBJECT
100
AcDbCircle
 10
39.14381255583688
 20
38.69907805576863
 30
0.0
 40
0.095
  0
CIRCLE
  5
7FA
330
1E
100
AcDbEntity
  8
OBJECT
100
AcDbCircle
 10
39.14381255583688
 20
36.19907805576863
 30
0.0
 40
0.095
  0
LINE
  5
7FB
330
1E
100
AcDbEntity
  8
OBJECT
100
AcDbLine
 10
20.06481255583693
 20
47.34007805576865
 30
0.0
 11
39.78481255583693
 21
47.3400780557686
 31
0.0
  0
LINE
  5
7FC
330
1E
100
AcDbEntity
  8
OBJECT
100
AcDbLine
 10
20.06481255583693
 20
47.29307805576866
 30
0.0
 11
39.78481255583693
 21
47.29307805576863
 31
0.0
  0
LINE
  5
7FD
330
1E
100
AcDbEntity
  8
HIDDEN
100
AcDbLine
 10
19.45581255583689
 20
47.91807805576865
 30
0.0
 11
40.39381255583691
 21
47.91807805576863
 31
0.0
  0
LINE
  5
7FE
330
1E
100
AcDbEntity
  8
OBJECT
100
AcDbLine
 10
19.40881255583693
 20
47.96507805576864
 30
0.0
 11
40.44081255583691
 21
47.96507805576861
 31
0.0
  0
LWPOLYLINE
  5
7FF
330
1E
100
AcDbEntity
  8
HIDDEN
  6
HIDDEN2
100
AcDbPolyline
 90
        4
 70
     0
 43
0.0
 10
20.07681255583696
 20
47.96507805576864
 10
20.07681255583696
 20
47.59007805576864
 10
20.24081255583698
 20
47.59007805576864
 10
20.24081255583698
 20
47.96507805576864
  0
LINE
  5
805
330
1E
100
AcDbEntity
  8
HIDDEN
100
AcDbLine
 10
19.50281255583689
 20
46.96507805576863
 30
0.0
 11
19.50281255583689
 21
47.91807805576863
 31
0.0
  0
LWPOLYLINE
  5
806
330
1E
100
AcDbEntity
  8
HIDDEN
100
AcDbPolyline
 90
        8
 70
     1
 43
0.0
 10
20.4558125558369
 20
47.41807805576864
 10
19.95581255583689
 20
46.91807805576864
 10
19.95581255583689
 20
46.29307805576864
 10
19.45581255583689
 20
46.29307805576864
 10
19.45581255583689
 20
47.85607805576865
 10
19.51781255583691
 20
47.91807805576865
 10
21.0808125558369
 20
47.91807805576865
 10
21.0808125558369
 20
47.41807805576864
  0
LINE
  5
810
330
1E
100
AcDbEntity
  8
OBJECT
100
AcDbLine
 10
20.06481255583693
 20
47.29307805576866
 30
0.0
 11
20.06481255583693
 21
47.96507805576864
 31
0.0
  0
LINE
  5
811
330
1E
100
AcDbEntity
  8
OBJECT
100
AcDbLine
 10
20.08081255583693
 20
47.04307805576866
 30
0.0
 11
20.33081255583689
 21
47.29307805576866
 31
0.0
  0
LINE
  5
812
330
1E
100
AcDbEntity
  8
HIDDEN
100
AcDbLine
 10
19.45581255583689
 20
46.96507805576863
 30
0.0
 11
19.50281255583689
 21
46.96507805576863
 31
0.0
  0
LINE
  5
813
330
1E
100
AcDbEntity
  8
OBJECT
100
AcDbLine
 10
20.03381255583693
 20
47.23007805576864
 30
0.0
 11
20.08081255583693
 21
47.23007805576864
 31
0.0
  0
LWPOLYLINE
  5
814
330
1E
100
AcDbEntity
  8
HIDDEN
  6
HIDDEN2
100
AcDbPolyline
 90
        4
 70
     0
 43
0.0
 10
24.57681255583696
 20
47.96507805576863
 10
24.57681255583696
 20
47.59007805576864
 10
24.74081255583698
 20
47.59007805576864
 10
24.74081255583698
 20
47.96507805576863
  0
LWPOLYLINE
  5
81A
330
1E
100
AcDbEntity
  8
HIDDEN
  6
HIDDEN2
100
AcDbPolyline
 90
        4
 70
     0
 43
0.0
 10
35.10881255583695
 20
47.96507805576861
 10
35.10881255583695
 20
47.59007805576864
 10
35.27281255583696
 20
47.59007805576864
 10
35.27281255583696
 20
47.96507805576861
  0
LWPOLYLINE
  5
820
330
1E
100
AcDbEntity
  8
HIDDEN
  6
HIDDEN2
100
AcDbPolyline
 90
        4
 70
     0
 43
0.0
 10
39.60881255583695
 20
47.96507805576861
 10
39.60881255583695
 20
47.59007805576864
 10
39.77281255583696
 20
47.59007805576864
 10
39.77281255583696
 20
47.96507805576861
  0
LINE
  5
826
330
1E
100
AcDbEntity
  8
OBJECT
100
AcDbLine
 10
39.78481255583693
 20
47.29307805576863
 30
0.0
 11
39.78481255583693
 21
47.96507805576864
 31
0.0
  0
LINE
  5
827
330
1E
100
AcDbEntity
  8
HIDDEN
100
AcDbLine
 10
40.34681255583698
 20
46.96507805576863
 30
0.0
 11
40.34681255583698
 21
47.91807805576861
 31
0.0
  0
LWPOLYLINE
  5
828
330
1E
100
AcDbEntity
  8
HIDDEN
100
AcDbPolyline
 90
        8
 70
     1
 43
0.0
 10
40.33181255583693
 20
47.91807805576863
 10
38.76881255583692
 20
47.91807805576863
 10
38.76881255583692
 20
47.41807805576863
 10
39.39381255583692
 20
47.41807805576863
 10
39.89381255583691
 20
46.91807805576863
 10
39.89381255583691
 20
46.29307805576863
 10
40.39381255583691
 20
46.29307805576863
 10
40.39381255583691
 20
47.85607805576863
  0
LINE
  5
832
330
1E
100
AcDbEntity
  8
OBJECT
100
AcDbLine
 10
39.76881255583691
 20
47.04307805576863
 30
0.0
 11
39.51881255583691
 21
47.29307805576863
 31
0.0
  0
LINE
  5
833
330
1E
100
AcDbEntity
  8
OBJECT
100
AcDbLine
 10
39.81581255583694
 20
47.23007805576862
 30
0.0
 11
39.76881255583691
 21
47.23007805576862
 31
0.0
  0
LINE
  5
834
330
1E
100
AcDbEntity
  8
HIDDEN
100
AcDbLine
 10
40.39381255583697
 20
46.96507805576863
 30
0.0
 11
40.34681255583698
 21
46.96507805576863
 31
0.0
  0
INSERT
  5
835
330
1E
100
AcDbEntity
  8
OBJECT
100
AcDbBlockReference
  2
OBLONG
 10
69.32437465583089
 20
44.84009944123878
 30
0.0
 50
180.0
  0
INSERT
  5
836
330
1E
100
AcDbEntity
  8
OBJECT
100
AcDbBlockReference
  2
OBLONG
 10
68.32437465583089
 20
44.84009944123878
 30
0.0
 50
180.0
  0
INSERT
  5
837
330
1E
100
AcDbEntity
  8
OBJECT
100
AcDbBlockReference
  2
OBLONG
 10
66.32437465583089
 20
44.84009944123878
 30
0.0
 50
180.0
  0
INSERT
  5
838
330
1E
100
AcDbEntity
  8
OBJECT
100
AcDbBlockReference
  2
OBLONG
 10
67.32437465583089
 20
44.84009944123878
 30
0.0
 50
180.0
  0
LINE
  5
839
330
1E
100
AcDbEntity
  8
HIDDEN
100
AcDbLine
 10
65.24637467625564
 20
25.71507805576862
 30
0.0
 11
65.24637467625561
 21
47.9180780557686
 31
0.0
  0
LINE
  5
83A
330
1E
100
AcDbEntity
  8
OBJECT
100
AcDbLine
 10
65.19937467625559
 20
25.71507805576862
 30
0.0
 11
65.19937467625561
 21
47.9650780557686
 31
0.0
  0
LWPOLYLINE
  5
83B
330
1E
100
AcDbEntity
  8
OBJECT
100
AcDbPolyline
 90
        6
 70
     0
 43
0.0
 10
65.24637467625561
 20
47.23007805576862
 10
65.08937467625563
 20
47.23007805576862
 42
0.4142135623730951
 10
64.96437467625563
 20
47.10507805576862
 10
64.96437467625549
 20
26.57507805576869
 42
0.4142135623730951
 10
65.08937467625563
 20
26.45007805576861
 10
65.24637467625564
 20
26.45007805576861
  0
LINE
  5
843
330
1E
100
AcDbEntity
  8
OBJECT
100
AcDbLine
 10
70.44937467625562
 20
25.71507805576861
 30
0.0
 11
70.44937467625562
 21
47.9650780557686
 31
0.0
  0
LINE
  5
844
330
1E
100
AcDbEntity
  8
HIDDEN
100
AcDbLine
 10
70.40237467625562
 20
25.76207805576861
 30
0.0
 11
70.40237467625562
 21
47.9180780557686
 31
0.0
  0
LINE
  5
845
330
1E
100
AcDbEntity
  8
OBJECT
100
AcDbLine
 10
65.19937467625556
 20
25.55307805576859
 30
0.0
 11
42.94937467625558
 21
25.55307805576859
 31
0.0
  0
LWPOLYLINE
  5
846
330
1E
100
AcDbEntity
  8
OBJECT
100
AcDbPolyline
 90
        6
 70
     0
 43
0.0
 10
65.19937467625556
 20
25.55307805576859
 10
65.19937467625556
 20
24.99095305576858
 42
-0.4142135623730951
 10
64.69937467625555
 20
24.49095305576859
 10
43.44937467625558
 20
24.49095305576861
 42
-0.4142135623730951
 10
42.94937467625558
 20
24.99095305576858
 10
42.94937467625558
 20
25.55307805576859
  0
LWPOLYLINE
  5
84E
330
1E
100
AcDbEntity
  8
HIDDEN
100
AcDbPolyline
 90
        6
 70
     1
 43
0.0
 10
65.15249967625556
 20
24.99095305576858
 42
-0.4211102882306934
 10
64.68873204382851
 20
24.53795305576858
 10
43.46001730868482
 20
24.53795305576861
 42
-0.4211102882321143
 10
42.99624967625558
 20
24.9909530557686
 10
42.99624967625561
 20
25.5062030557686
 10
65.15249967625556
 20
25.5062030557686
  0
LINE
  5
856
330
1E
100
AcDbEntity
  8
OBJECT
100
AcDbLine
 10
44.94887467625554
 20
25.55307805576859
 30
0.0
 11
44.94887467625554
 21
25.74095305576861
 31
0.0
  0
LINE
  5
857
330
1E
100
AcDbEntity
  8
HIDDEN
100
AcDbLine
 10
44.94887467625554
 20
25.36595305576861
 30
0.0
 11
45.57337467625555
 21
25.36595305576861
 31
0.0
  0
LINE
  5
858
330
1E
100
AcDbEntity
  8
OBJECT
100
AcDbLine
 10
44.94887467625554
 20
25.61595305576861
 30
0.0
 11
45.57337467625555
 21
25.61595305576862
 31
0.0
  0
LINE
  5
859
330
1E
100
AcDbEntity
  8
OBJECT
100
AcDbLine
 10
45.57337467625555
 20
25.74095305576861
 30
0.0
 11
44.94887467625554
 21
25.74095305576861
 31
0.0
  0
LINE
  5
85A
330
1E
100
AcDbEntity
  8
HIDDEN
100
AcDbLine
 10
45.57337467625555
 20
25.49095305576861
 30
0.0
 11
44.94887467625554
 21
25.49095305576861
 31
0.0
  0
LINE
  5
85B
330
1E
100
AcDbEntity
  8
OBJECT
100
AcDbLine
 10
45.57337467625555
 20
25.55307805576859
 30
0.0
 11
45.57337467625555
 21
25.74095305576861
 31
0.0
  0
LWPOLYLINE
  5
85C
330
1E
100
AcDbEntity
  8
OBJECT
100
AcDbPolyline
 90
        4
 70
     1
 43
0.0
 10
44.80824967625554
 20
24.49095305576861
 42
0.217523824832095
 10
44.94387467625554
 20
24.26595305576862
 10
45.57887467625554
 20
24.26595305576862
 42
0.2175238248320952
 10
45.71449967625554
 20
24.49095305576861
  0
LINE
  5
862
330
1E
100
AcDbEntity
  8
HIDDEN
100
AcDbLine
 10
44.94887467625557
 20
25.55307805576859
 30
0.0
 11
44.94887467625554
 21
24.49095305576861
 31
0.0
  0
LINE
  5
863
330
1E
100
AcDbEntity
  8
HIDDEN
100
AcDbLine
 10
45.57387467625557
 20
25.55307805576859
 30
0.0
 11
45.57387467625554
 21
24.49095305576861
 31
0.0
  0
LWPOLYLINE
  5
864
330
1E
100
AcDbEntity
  8
BEND
  6
PHANTOM2
100
AcDbPolyline
 90
        5
 70
     0
 43
0.0
 10
51.37137467625553
 20
24.5379530557686
 10
51.37137467625553
 20
28.4909530557686
 10
51.44937467625553
 20
28.4909530557686
 10
55.32437467625553
 20
24.61595305576863
 10
55.32437467625553
 20
24.53795305576861
  0
LWPOLYLINE
  5
86B
330
1E
100
AcDbEntity
  8
HIDDEN
  6
HIDDEN2
100
AcDbPolyline
 90
        4
 70
     0
 43
0.0
 10
54.62037467625555
 20
24.4909530557686
 10
54.62037467625555
 20
24.99095305576858
 10
54.81037467625554
 20
24.99095305576858
 10
54.81037467625554
 20
24.4909530557686
  0
LWPOLYLINE
  5
871
330
1E
100
AcDbEntity
  8
HIDDEN
  6
HIDDEN2
100
AcDbPolyline
 90
        4
 70
     0
 43
0.0
 10
52.12037467625555
 20
24.4909530557686
 10
52.12037467625555
 20
24.99095305576858
 10
52.31037467625554
 20
24.99095305576858
 10
52.31037467625554
 20
24.4909530557686
  0
CIRCLE
  5
877
330
1E
100
AcDbEntity
  8
OBJECT
100
AcDbCircle
 10
69.88687467625559
 20
31.27755667029845
 30
0.0
 40
0.109
  0
CIRCLE
  5
878
330
1E
100
AcDbEntity
  8
OBJECT
100
AcDbCircle
 10
69.88687467625559
 20
27.15255667029845
 30
0.0
 40
0.109
  0
LINE
  5
879
330
1E
100
AcDbEntity
  8
OBJECT
100
AcDbLine
 10
70.44937467625562
 20
25.71507805576861
 30
0.0
 11
65.19937467625561
 21
25.71507805576862
 31
0.0
  0
LINE
  5
87A
330
1E
100
AcDbEntity
  8
HIDDEN
100
AcDbLine
 10
70.40237467625562
 20
25.76207805576861
 30
0.0
 11
65.41337467625561
 21
25.76207805576861
 31
0.0
  0
LWPOLYLINE
  5
87B
330
1E
100
AcDbEntity
  8
HIDDEN
100
AcDbPolyline
 90
        4
 70
     0
 43
0.0
 10
65.77737467625562
 20
25.71507805576862
 10
65.77737467625562
 20
26.71507805576863
 10
70.24637467625561
 20
26.71507805576862
 10
70.24637467625561
 20
25.71507805576862
  0
LINE
  5
881
330
1E
100
AcDbEntity
  8
HIDDEN
  6
HIDDEN2
100
AcDbLine
 10
65.24637467625561
 20
30.66101623507987
 30
0.0
 11
65.02089585382612
 21
30.31837739215578
 31
0.0
  0
LINE
  5
882
330
1E
100
AcDbEntity
  8
HIDDEN
  6
HIDDEN2
100
AcDbLine
 10
65.33560714104544
 20
30.62561701331111
 30
0.0
 11
65.03628550771629
 21
30.17076623397406
 31
0.0
  0
CIRCLE
  5
883
330
1E
100
AcDbEntity
  8
OBJECT
100
AcDbCircle
 10
65.76187467625558
 20
27.15255667029845
 30
0.0
 40
0.109
  0
LWPOLYLINE
  5
884
330
1E
100
AcDbEntity
  8
OBJECT
 62
     2
100
AcDbPolyline
 90
        4
 70
     0
 43
0.0
 10
65.2803746762556
 20
25.5840780557686
 10
64.7493746762556
 20
25.5840780557686
 10
64.7493746762556
 20
25.55307805576859
 10
65.2803746762556
 20
25.55307805576859
  0
LWPOLYLINE
  5
88A
330
1E
100
AcDbEntity
  8
OBJECT
100
AcDbPolyline
 90
        4
 70
     1
 43
0.0
 10
64.78012467625558
 20
25.58407805576857
 10
64.78012467625558
 20
25.59394498676133
 42
-0.2380324936361291
 10
65.09212467625559
 20
25.59394498676133
 10
65.09212467625559
 20
25.58407805576857
  0
LINE
  5
890
330
1E
100
AcDbEntity
  8
HIDDEN
  6
HIDDEN2
100
AcDbLine
 10
61.83288932193395
 20
25.47386535527215
 30
0.0
 11
61.39064484921121
 21
24.80182825311514
 31
0.0
  0
LINE
  5
891
330
1E
100
AcDbEntity
  8
HIDDEN
  6
HIDDEN2
100
AcDbLine
 10
61.92114124026389
 20
25.43697608977855
 30
0.0
 11
61.47256274005261
 21
24.75531376505585
 31
0.0
  0
LINE
  5
892
330
1E
100
AcDbEntity
  8
HIDDEN
  6
HIDDEN2
100
AcDbLine
 10
60.3873746762556
 20
24.72595305576864
 30
0.0
 11
61.04437467625562
 21
24.72595305576864
 31
0.0
  0
LINE
  5
893
330
1E
100
AcDbEntity
  8
HIDDEN
  6
HIDDEN2
100
AcDbLine
 10
59.85637467625562
 20
24.58495305576863
 30
0.0
 11
59.85637467625562
 21
24.53795305576864
 31
0.0
  0
LINE
  5
894
330
1E
100
AcDbEntity
  8
HIDDEN
  6
HIDDEN2
100
AcDbLine
 10
60.3873746762556
 20
24.72595305576864
 30
0.0
 11
60.3873746762556
 21
24.58495305576863
 31
0.0
  0
LINE
  5
895
330
1E
100
AcDbEntity
  8
HIDDEN
  6
HIDDEN2
100
AcDbLine
 10
59.85637467625562
 20
24.58495305576863
 30
0.0
 11
60.3873746762556
 21
24.58495305576863
 31
0.0
  0
LWPOLYLINE
  5
896
330
1E
100
AcDbEntity
  8
HIDDEN
  6
HIDDEN2
100
AcDbPolyline
 90
        4
 70
     0
 43
0.0
 10
59.90246863360434
 20
24.58495305576864
 10
59.90246863360434
 20
24.71495305576863
 10
60.24628071890683
 20
24.71495305576863
 10
60.24628071890683
 20
24.58495305576864
  0
LWPOLYLINE
  5
89C
330
1E
100
AcDbEntity
  8
HIDDEN
  6
HIDDEN2
100
AcDbPolyline
 90
        4
 70
     0
 43
0.0
 10
59.99237467625559
 20
24.71495305576863
 10
59.99237467625559
 20
24.86595305576864
 10
60.15637467625561
 20
24.86595305576864
 10
60.15637467625561
 20
24.71495305576863
  0
LINE
  5
8A2
330
1E
100
AcDbEntity
  8
HIDDEN
  6
HIDDEN2
100
AcDbLine
 10
61.04437467625562
 20
24.72595305576864
 30
0.0
 11
61.04437467625562
 21
24.53795305576864
 31
0.0
  0
LINE
  5
8A3
330
1E
100
AcDbEntity
  8
HIDDEN
  6
HIDDEN2
100
AcDbLine
 10
61.04437467625562
 20
24.67895305576864
 30
0.0
 11
61.19748763248802
 21
24.67895305576864
 31
0.0
  0
LINE
  5
8A4
330
1E
100
AcDbEntity
  8
HIDDEN
  6
HIDDEN2
100
AcDbLine
 10
61.04437467625562
 20
24.58495305576863
 30
0.0
 11
61.19748763248802
 21
24.58495305576863
 31
0.0
  0
ARC
  5
8A5
330
1E
100
AcDbEntity
  8
HIDDEN
  6
HIDDEN2
100
AcDbCircle
 10
61.19748763248802
 20
24.89221018832063
 30
0.0
 40
0.3072571325519959
100
AcDbArc
 50
270.0
 51
333.541881971489
  0
ARC
  5
8A6
330
1E
100
AcDbEntity
  8
HIDDEN
  6
HIDDEN2
100
AcDbCircle
 10
61.19748763248802
 20
24.89221018832063
 30
0.0
 40
0.213257132551996
100
AcDbArc
 50
270.0
 51
334.9242123515198
  0
LINE
  5
8A7
330
1E
100
AcDbEntity
  8
HIDDEN
100
AcDbLine
 10
65.41337467625561
 20
26.38707805576861
 30
0.0
 11
65.41337467625561
 21
25.76207805576861
 31
0.0
  0
LINE
  5
8A8
330
1E
100
AcDbEntity
  8
HIDDEN
100
AcDbLine
 10
65.36637467625562
 20
26.3870780557686
 30
0.0
 11
65.36637467625562
 21
25.71507805576861
 31
0.0
  0
LINE
  5
8A9
330
1E
100
AcDbEntity
  8
HIDDEN
100
AcDbLine
 10
65.41337467625561
 20
26.38707805576861
 30
0.0
 11
65.36637467625562
 21
26.38707805576861
 31
0.0
  0
LINE
  5
8AA
330
1E
100
AcDbEntity
  8
HIDDEN
100
AcDbLine
 10
65.36637467625562
 20
25.76207805576861
 30
0.0
 11
65.27737467625562
 21
25.76207805576861
 31
0.0
  0
LWPOLYLINE
  5
8AB
330
1E
100
AcDbEntity
  8
OBJECT
 62
     4
100
AcDbPolyline
 90
        5
 70
     0
 43
0.0
 10
65.33037467625561
 20
25.63407805576858
 10
65.33037467625561
 20
26.16507805576859
 10
65.36137467625562
 20
26.16507805576859
 10
65.36137467625562
 20
25.63407805576858
 42
-4.341678926823472
 10
65.33037467625561
 20
25.69780403163401
  0
CIRCLE
  5
8B2
330
1E
100
AcDbEntity
  8
OBJECT
100
AcDbCircle
 10
65.2803746762556
 20
25.63407805576858
 30
0.0
 40
0.05
  0
LWPOLYLINE
  5
8B3
330
1E
100
AcDbEntity
  8
HIDDEN
100
AcDbPolyline
 90
        4
 70
     1
 43
0.0
 10
65.33037467625561
 20
26.13432805576861
 10
65.32050774526286
 20
26.13432805576861
 42
0.2380324936361291
 10
65.32050774526286
 20
25.82232805576859
 10
65.33037467625561
 20
25.82232805576859
  0
LWPOLYLINE
  5
8B9
330
1E
100
AcDbEntity
  8
HIDDEN
  6
HIDDEN2
100
AcDbPolyline
 90
        4
 70
     0
 43
0.0
 10
67.82037467625563
 20
25.71507805576862
 10
67.82037467625563
 20
26.09007805576862
 10
67.98437467625561
 20
26.09007805576862
 10
67.98437467625561
 20
25.71507805576862
  0
INSERT
  5
8BF
330
1E
100
AcDbEntity
  8
OBJECT
100
AcDbBlockReference
  2
OBLONG
 10
69.32437465583089
 20
30.09005667029842
 30
0.0
 41
-1.0
  0
INSERT
  5
8C0
330
1E
100
AcDbEntity
  8
OBJECT
100
AcDbBlockReference
  2
OBLONG
 10
67.32437465583089
 20
30.09005667029842
 30
0.0
 41
-1.0
  0
INSERT
  5
8C1
330
1E
100
AcDbEntity
  8
OBJECT
100
AcDbBlockReference
  2
OBLONG
 10
66.32437465583089
 20
30.09005667029842
 30
0.0
 41
-1.0
  0
INSERT
  5
8C2
330
1E
100
AcDbEntity
  8
OBJECT
100
AcDbBlockReference
  2
OBLONG
 10
68.32437465583089
 20
30.09005667029842
 30
0.0
 41
-1.0
  0
INSERT
  5
8C3
330
1E
100
AcDbEntity
  8
OBJECT
100
AcDbBlockReference
  2
OBLONG
 10
67.32437465583089
 20
28.59005667029842
 30
0.0
 41
-1.0
  0
INSERT
  5
8C4
330
1E
100
AcDbEntity
  8
OBJECT
100
AcDbBlockReference
  2
OBLONG
 10
67.32437465583089
 20
27.84005667029842
 30
0.0
 41
-1.0
  0
INSERT
  5
8C5
330
1E
100
AcDbEntity
  8
OBJECT
100
AcDbBlockReference
  2
OBLONG
 10
67.32437465583089
 20
28.09005667029842
 30
0.0
 41
-1.0
  0
INSERT
  5
8C6
330
1E
100
AcDbEntity
  8
OBJECT
100
AcDbBlockReference
  2
OBLONG
 10
67.32437465583089
 20
28.34005667029842
 30
0.0
 41
-1.0
  0
INSERT
  5
8C7
330
1E
100
AcDbEntity
  8
OBJECT
100
AcDbBlockReference
  2
OBLONG
 10
67.32437465583089
 20
29.84005667029842
 30
0.0
 41
-1.0
  0
INSERT
  5
8C8
330
1E
100
AcDbEntity
  8
OBJECT
100
AcDbBlockReference
  2
OBLONG
 10
67.32437465583089
 20
29.09005667029842
 30
0.0
 41
-1.0
  0
INSERT
  5
8C9
330
1E
100
AcDbEntity
  8
OBJECT
100
AcDbBlockReference
  2
OBLONG
 10
67.32437465583089
 20
29.34005667029842
 30
0.0
 41
-1.0
  0
INSERT
  5
8CA
330
1E
100
AcDbEntity
  8
OBJECT
100
AcDbBlockReference
  2
OBLONG
 10
67.32437465583089
 20
29.59005667029842
 30
0.0
 41
-1.0
  0
INSERT
  5
8CB
330
1E
100
AcDbEntity
  8
OBJECT
100
AcDbBlockReference
  2
OBLONG
 10
67.32437465583089
 20
28.84005667029842
 30
0.0
 41
-1.0
  0
INSERT
  5
8CC
330
1E
100
AcDbEntity
  8
OBJECT
100
AcDbBlockReference
  2
OBLONG
 10
66.32437465583089
 20
28.59005667029842
 30
0.0
 41
-1.0
  0
INSERT
  5
8CD
330
1E
100
AcDbEntity
  8
OBJECT
100
AcDbBlockReference
  2
OBLONG
 10
66.32437465583089
 20
28.09005667029842
 30
0.0
 41
-1.0
  0
INSERT
  5
8CE
330
1E
100
AcDbEntity
  8
OBJECT
100
AcDbBlockReference
  2
OBLONG
 10
66.32437465583089
 20
28.34005667029842
 30
0.0
 41
-1.0
  0
INSERT
  5
8CF
330
1E
100
AcDbEntity
  8
OBJECT
100
AcDbBlockReference
  2
OBLONG
 10
66.32437465583089
 20
27.84005667029842
 30
0.0
 41
-1.0
  0
INSERT
  5
8D0
330
1E
100
AcDbEntity
  8
OBJECT
100
AcDbBlockReference
  2
OBLONG
 10
66.32437465583089
 20
29.84005667029842
 30
0.0
 41
-1.0
  0
INSERT
  5
8D1
330
1E
100
AcDbEntity
  8
OBJECT
100
AcDbBlockReference
  2
OBLONG
 10
66.32437465583089
 20
29.09005667029842
 30
0.0
 41
-1.0
  0
INSERT
  5
8D2
330
1E
100
AcDbEntity
  8
OBJECT
100
AcDbBlockReference
  2
OBLONG
 10
66.32437465583089
 20
29.34005667029842
 30
0.0
 41
-1.0
  0
INSERT
  5
8D3
330
1E
100
AcDbEntity
  8
OBJECT
100
AcDbBlockReference
  2
OBLONG
 10
66.32437465583089
 20
29.59005667029842
 30
0.0
 41
-1.0
  0
INSERT
  5
8D4
330
1E
100
AcDbEntity
  8
OBJECT
100
AcDbBlockReference
  2
OBLONG
 10
66.32437465583089
 20
28.84005667029842
 30
0.0
 41
-1.0
  0
INSERT
  5
8D5
330
1E
100
AcDbEntity
  8
OBJECT
100
AcDbBlockReference
  2
OBLONG
 10
69.32437465583089
 20
28.59005667029842
 30
0.0
 41
-1.0
  0
INSERT
  5
8D6
330
1E
100
AcDbEntity
  8
OBJECT
100
AcDbBlockReference
  2
OBLONG
 10
69.32437465583089
 20
28.09005667029842
 30
0.0
 41
-1.0
  0
INSERT
  5
8D7
330
1E
100
AcDbEntity
  8
OBJECT
100
AcDbBlockReference
  2
OBLONG
 10
69.32437465583089
 20
28.34005667029842
 30
0.0
 41
-1.0
  0
INSERT
  5
8D8
330
1E
100
AcDbEntity
  8
OBJECT
100
AcDbBlockReference
  2
OBLONG
 10
69.32437465583089
 20
27.84005667029842
 30
0.0
 41
-1.0
  0
INSERT
  5
8D9
330
1E
100
AcDbEntity
  8
OBJECT
100
AcDbBlockReference
  2
OBLONG
 10
69.32437465583089
 20
29.84005667029842
 30
0.0
 41
-1.0
  0
INSERT
  5
8DA
330
1E
100
AcDbEntity
  8
OBJECT
100
AcDbBlockReference
  2
OBLONG
 10
69.32437465583089
 20
29.59005667029842
 30
0.0
 41
-1.0
  0
INSERT
  5
8DB
330
1E
100
AcDbEntity
  8
OBJECT
100
AcDbBlockReference
  2
OBLONG
 10
69.32437465583089
 20
29.09005667029842
 30
0.0
 41
-1.0
  0
INSERT
  5
8DC
330
1E
100
AcDbEntity
  8
OBJECT
100
AcDbBlockReference
  2
OBLONG
 10
69.32437465583089
 20
29.34005667029842
 30
0.0
 41
-1.0
  0
INSERT
  5
8DD
330
1E
100
AcDbEntity
  8
OBJECT
100
AcDbBlockReference
  2
OBLONG
 10
69.32437465583089
 20
28.84005667029842
 30
0.0
 41
-1.0
  0
INSERT
  5
8DE
330
1E
100
AcDbEntity
  8
OBJECT
100
AcDbBlockReference
  2
OBLONG
 10
68.32437465583089
 20
28.59005667029842
 30
0.0
 41
-1.0
  0
INSERT
  5
8DF
330
1E
100
AcDbEntity
  8
OBJECT
100
AcDbBlockReference
  2
OBLONG
 10
68.32437465583089
 20
28.09005667029842
 30
0.0
 41
-1.0
  0
INSERT
  5
8E0
330
1E
100
AcDbEntity
  8
OBJECT
100
AcDbBlockReference
  2
OBLONG
 10
68.32437465583089
 20
28.34005667029842
 30
0.0
 41
-1.0
  0
INSERT
  5
8E1
330
1E
100
AcDbEntity
  8
OBJECT
100
AcDbBlockReference
  2
OBLONG
 10
68.32437465583089
 20
27.84005667029842
 30
0.0
 41
-1.0
  0
INSERT
  5
8E2
330
1E
100
AcDbEntity
  8
OBJECT
100
AcDbBlockReference
  2
OBLONG
 10
68.32437465583089
 20
29.84005667029842
 30
0.0
 41
-1.0
  0
INSERT
  5
8E3
330
1E
100
AcDbEntity
  8
OBJECT
100
AcDbBlockReference
  2
OBLONG
 10
68.32437465583089
 20
29.09005667029842
 30
0.0
 41
-1.0
  0
INSERT
  5
8E4
330
1E
100
AcDbEntity
  8
OBJECT
100
AcDbBlockReference
  2
OBLONG
 10
68.32437465583089
 20
29.34005667029842
 30
0.0
 41
-1.0
  0
INSERT
  5
8E5
330
1E
100
AcDbEntity
  8
OBJECT
100
AcDbBlockReference
  2
OBLONG
 10
68.32437465583089
 20
29.59005667029842
 30
0.0
 41
-1.0
  0
INSERT
  5
8E6
330
1E
100
AcDbEntity
  8
OBJECT
100
AcDbBlockReference
  2
OBLONG
 10
68.32437465583089
 20
28.84005667029842
 30
0.0
 41
-1.0
  0
INSERT
  5
8E7
330
1E
100
AcDbEntity
  8
OBJECT
100
AcDbBlockReference
  2
OBLONG
 10
67.32437465583089
 20
30.34005667029842
 30
0.0
 41
-1.0
  0
INSERT
  5
8E8
330
1E
100
AcDbEntity
  8
OBJECT
100
AcDbBlockReference
  2
OBLONG
 10
67.32437465583089
 20
30.59005667029842
 30
0.0
 41
-1.0
  0
LWPOLYLINE
  5
8E9
330
1E
100
AcDbEntity
  8
HIDDEN
  6
HIDDEN2
100
AcDbPolyline
 90
        6
 70
     1
 43
0.0
 10
65.28415311754887
 20
31.32914855850646
 10
65.53040813744368
 20
31.28603863880591
 10
65.64370100641676
 20
31.93319683108956
 10
65.7663647896777
 20
32.15671773900671
 42
1.39749101599712
 10
65.35801010590489
 20
32.22820516547342
 10
65.39744598652188
 20
31.97630675079011
  0
LINE
  5
8F1
330
1E
100
AcDbEntity
  8
HIDDEN
  6
HIDDEN2
100
AcDbLine
 10
65.24637467625561
 20
30.66101623507987
 30
0.0
 11
65.36098468375604
 21
31.31569826355988
 31
0.0
  0
LINE
  5
8F2
330
1E
100
AcDbEntity
  8
HIDDEN
  6
HIDDEN2
100
AcDbLine
 10
65.33560714104544
 20
30.62561701331111
 30
0.0
 11
65.45357657123648
 21
31.29948893375247
 31
0.0
  0
CIRCLE
  5
8F3
330
1E
100
AcDbEntity
  8
HIDDEN
  6
HIDDEN2
100
AcDbCircle
 10
65.57437467625558
 20
32.26207805576861
 30
0.0
 40
0.082
  0
CIRCLE
  5
8F4
330
1E
100
AcDbEntity
  8
HIDDEN
  6
HIDDEN2
100
AcDbCircle
 10
65.57437467625558
 20
32.26207805576861
 30
0.0
 40
0.095
  0
LINE
  5
8F5
330
1E
100
AcDbEntity
  8
HIDDEN
  6
HIDDEN2
100
AcDbLine
 10
65.39744598652188
 20
31.97630675079011
 30
0.0
 11
65.64370100641676
 21
31.93319683108956
 31
0.0
  0
LWPOLYLINE
  5
8F6
330
1E
100
AcDbEntity
  8
HIDDEN
  6
HIDDEN2
100
AcDbPolyline
 90
        6
 70
     1
 43
0.0
 10
65.4751246762556
 20
32.43398409841983
 10
65.37587467625562
 20
32.26207805576861
 10
65.4751246762556
 20
32.09017201311739
 10
65.67362467625563
 20
32.09017201311739
 10
65.77287467625561
 20
32.26207805576861
 10
65.67362467625563
 20
32.43398409841983
  0
CIRCLE
  5
8FE
330
1E
100
AcDbEntity
  8
OBJECT
100
AcDbCircle
 10
65.76187467625558
 20
31.27755667029845
 30
0.0
 40
0.109
  0
INSERT
  5
8FF
330
1E
100
AcDbEntity
  8
OBJECT
100
AcDbBlockReference
  2
OBLONG
 10
66.32437465583089
 20
30.59005667029842
 30
0.0
 41
-1.0
  0
INSERT
  5
900
330
1E
100
AcDbEntity
  8
OBJECT
100
AcDbBlockReference
  2
OBLONG
 10
66.32437465583089
 20
30.34005667029842
 30
0.0
 41
-1.0
  0
INSERT
  5
901
330
1E
100
AcDbEntity
  8
OBJECT
100
AcDbBlockReference
  2
OBLONG
 10
69.32437465583089
 20
30.59005667029842
 30
0.0
 41
-1.0
  0
INSERT
  5
902
330
1E
100
AcDbEntity
  8
OBJECT
100
AcDbBlockReference
  2
OBLONG
 10
69.32437465583089
 20
30.34005667029842
 30
0.0
 41
-1.0
  0
INSERT
  5
903
330
1E
100
AcDbEntity
  8
OBJECT
100
AcDbBlockReference
  2
OBLONG
 10
68.32437465583089
 20
30.59005667029842
 30
0.0
 41
-1.0
  0
INSERT
  5
904
330
1E
100
AcDbEntity
  8
OBJECT
100
AcDbBlockReference
  2
OBLONG
 10
68.32437465583089
 20
30.34005667029842
 30
0.0
 41
-1.0
  0
LWPOLYLINE
  5
905
330
1E
100
AcDbEntity
  8
BEND
  6
PHANTOM2
100
AcDbPolyline
 90
        5
 70
     0
 43
0.0
 10
70.40237467625559
 20
39.54307805576864
 10
66.44937467625559
 20
39.54307805576864
 10
66.44937467625559
 20
39.46507805576864
 10
70.32437467625555
 20
35.59007805576865
 10
70.40237467625559
 20
35.59007805576864
  0
CIRCLE
  5
90C
330
1E
100
AcDbEntity
  8
OBJECT
100
AcDbCircle
 10
69.88687467625559
 20
42.40259944123875
 30
0.0
 40
0.109
  0
INSERT
  5
90D
330
1E
100
AcDbEntity
  8
OBJECT
100
AcDbBlockReference
  2
OBLONG
 10
67.32437465583089
 20
43.59009944123878
 30
0.0
 50
180.0
  0
INSERT
  5
90E
330
1E
100
AcDbEntity
  8
OBJECT
100
AcDbBlockReference
  2
OBLONG
 10
67.32437465583089
 20
44.09009944123877
 30
0.0
 50
180.0
  0
INSERT
  5
90F
330
1E
100
AcDbEntity
  8
OBJECT
100
AcDbBlockReference
  2
OBLONG
 10
67.32437465583089
 20
44.34009944123878
 30
0.0
 50
180.0
  0
INSERT
  5
910
330
1E
100
AcDbEntity
  8
OBJECT
100
AcDbBlockReference
  2
OBLONG
 10
67.32437465583089
 20
44.59009944123877
 30
0.0
 50
180.0
  0
INSERT
  5
911
330
1E
100
AcDbEntity
  8
OBJECT
100
AcDbBlockReference
  2
OBLONG
 10
67.32437465583089
 20
43.84009944123877
 30
0.0
 50
180.0
  0
INSERT
  5
912
330
1E
100
AcDbEntity
  8
OBJECT
100
AcDbBlockReference
  2
OBLONG
 10
67.32437465583089
 20
43.09009944123878
 30
0.0
 50
180.0
  0
INSERT
  5
913
330
1E
100
AcDbEntity
  8
OBJECT
100
AcDbBlockReference
  2
OBLONG
 10
67.32437465583089
 20
43.34009944123877
 30
0.0
 50
180.0
  0
CIRCLE
  5
914
330
1E
100
AcDbEntity
  8
OBJECT
100
AcDbCircle
 10
65.76187467625558
 20
42.40259944123875
 30
0.0
 40
0.109
  0
INSERT
  5
915
330
1E
100
AcDbEntity
  8
OBJECT
100
AcDbBlockReference
  2
OBLONG
 10
66.32437465583089
 20
43.59009944123878
 30
0.0
 50
180.0
  0
INSERT
  5
916
330
1E
100
AcDbEntity
  8
OBJECT
100
AcDbBlockReference
  2
OBLONG
 10
66.32437465583089
 20
44.09009944123877
 30
0.0
 50
180.0
  0
INSERT
  5
917
330
1E
100
AcDbEntity
  8
OBJECT
100
AcDbBlockReference
  2
OBLONG
 10
66.32437465583089
 20
44.34009944123878
 30
0.0
 50
180.0
  0
INSERT
  5
918
330
1E
100
AcDbEntity
  8
OBJECT
100
AcDbBlockReference
  2
OBLONG
 10
66.32437465583089
 20
44.59009944123877
 30
0.0
 50
180.0
  0
INSERT
  5
919
330
1E
100
AcDbEntity
  8
OBJECT
100
AcDbBlockReference
  2
OBLONG
 10
66.32437465583089
 20
43.84009944123877
 30
0.0
 50
180.0
  0
INSERT
  5
91A
330
1E
100
AcDbEntity
  8
OBJECT
100
AcDbBlockReference
  2
OBLONG
 10
66.32437465583089
 20
43.34009944123877
 30
0.0
 50
180.0
  0
INSERT
  5
91B
330
1E
100
AcDbEntity
  8
OBJECT
100
AcDbBlockReference
  2
OBLONG
 10
66.32437465583089
 20
43.09009944123878
 30
0.0
 50
180.0
  0
INSERT
  5
91C
330
1E
100
AcDbEntity
  8
OBJECT
100
AcDbBlockReference
  2
OBLONG
 10
69.32437465583089
 20
43.59009944123878
 30
0.0
 50
180.0
  0
INSERT
  5
91D
330
1E
100
AcDbEntity
  8
OBJECT
100
AcDbBlockReference
  2
OBLONG
 10
69.32437465583089
 20
44.34009944123878
 30
0.0
 50
180.0
  0
INSERT
  5
91E
330
1E
100
AcDbEntity
  8
OBJECT
100
AcDbBlockReference
  2
OBLONG
 10
69.32437465583089
 20
44.59009944123877
 30
0.0
 50
180.0
  0
INSERT
  5
91F
330
1E
100
AcDbEntity
  8
OBJECT
100
AcDbBlockReference
  2
OBLONG
 10
69.32437465583089
 20
44.09009944123877
 30
0.0
 50
180.0
  0
INSERT
  5
920
330
1E
100
AcDbEntity
  8
OBJECT
100
AcDbBlockReference
  2
OBLONG
 10
69.32437465583089
 20
43.84009944123877
 30
0.0
 50
180.0
  0
INSERT
  5
921
330
1E
100
AcDbEntity
  8
OBJECT
100
AcDbBlockReference
  2
OBLONG
 10
69.32437465583089
 20
43.34009944123877
 30
0.0
 50
180.0
  0
INSERT
  5
922
330
1E
100
AcDbEntity
  8
OBJECT
100
AcDbBlockReference
  2
OBLONG
 10
69.32437465583089
 20
43.09009944123878
 30
0.0
 50
180.0
  0
INSERT
  5
923
330
1E
100
AcDbEntity
  8
OBJECT
100
AcDbBlockReference
  2
OBLONG
 10
68.32437465583089
 20
43.34009944123877
 30
0.0
 50
180.0
  0
INSERT
  5
924
330
1E
100
AcDbEntity
  8
OBJECT
100
AcDbBlockReference
  2
OBLONG
 10
68.32437465583089
 20
43.09009944123878
 30
0.0
 50
180.0
  0
INSERT
  5
925
330
1E
100
AcDbEntity
  8
OBJECT
100
AcDbBlockReference
  2
OBLONG
 10
68.32437465583089
 20
43.59009944123878
 30
0.0
 50
180.0
  0
INSERT
  5
926
330
1E
100
AcDbEntity
  8
OBJECT
100
AcDbBlockReference
  2
OBLONG
 10
68.32437465583089
 20
44.09009944123877
 30
0.0
 50
180.0
  0
INSERT
  5
927
330
1E
100
AcDbEntity
  8
OBJECT
100
AcDbBlockReference
  2
OBLONG
 10
68.32437465583089
 20
44.34009944123878
 30
0.0
 50
180.0
  0
INSERT
  5
928
330
1E
100
AcDbEntity
  8
OBJECT
100
AcDbBlockReference
  2
OBLONG
 10
68.32437465583089
 20
44.59009944123877
 30
0.0
 50
180.0
  0
INSERT
  5
929
330
1E
100
AcDbEntity
  8
OBJECT
100
AcDbBlockReference
  2
OBLONG
 10
68.32437465583089
 20
43.84009944123877
 30
0.0
 50
180.0
  0
LWPOLYLINE
  5
92A
330
1E
100
AcDbEntity
  8
HIDDEN
  6
HIDDEN2
100
AcDbPolyline
 90
        4
 70
     0
 43
0.0
 10
70.44937467625562
 20
38.79407805576862
 10
69.94937467625561
 20
38.79407805576862
 10
69.94937467625561
 20
38.60407805576862
 10
70.44937467625562
 20
38.60407805576862
  0
LWPOLYLINE
  5
930
330
1E
100
AcDbEntity
  8
HIDDEN
  6
HIDDEN2
100
AcDbPolyline
 90
        4
 70
     0
 43
0.0
 10
70.44937467625562
 20
36.29407805576862
 10
69.94937467625561
 20
36.29407805576862
 10
69.94937467625561
 20
36.10407805576862
 10
70.44937467625562
 20
36.10407805576862
  0
CIRCLE
  5
936
330
1E
100
AcDbEntity
  8
OBJECT
100
AcDbCircle
 10
69.88687467625559
 20
46.52759944123874
 30
0.0
 40
0.109
  0
LINE
  5
937
330
1E
100
AcDbEntity
  8
OBJECT
100
AcDbLine
 10
70.44937467625562
 20
47.9650780557686
 30
0.0
 11
65.19937467625561
 21
47.9650780557686
 31
0.0
  0
LINE
  5
938
330
1E
100
AcDbEntity
  8
HIDDEN
100
AcDbLine
 10
70.40237467625562
 20
47.9180780557686
 30
0.0
 11
65.24637467625561
 21
47.9180780557686
 31
0.0
  0
LWPOLYLINE
  5
939
330
1E
100
AcDbEntity
  8
HIDDEN
100
AcDbPolyline
 90
        4
 70
     0
 43
0.0
 10
65.77737467625562
 20
47.9650780557686
 10
65.77737467625562
 20
46.96507805576858
 10
70.24637467625561
 20
46.96507805576859
 10
70.24637467625561
 20
47.9650780557686
  0
LWPOLYLINE
  5
93F
330
1E
100
AcDbEntity
  8
HIDDEN
  6
HIDDEN2
100
AcDbPolyline
 90
        4
 70
     0
 43
0.0
 10
67.82037467625563
 20
47.96507805576861
 10
67.82037467625563
 20
47.59007805576861
 10
67.98437467625561
 20
47.59007805576861
 10
67.98437467625561
 20
47.96507805576861
  0
INSERT
  5
945
330
1E
100
AcDbEntity
  8
OBJECT
100
AcDbBlockReference
  2
OBLONG
 10
67.32437465583089
 20
45.34009944123877
 30
0.0
 50
180.0
  0
INSERT
  5
946
330
1E
100
AcDbEntity
  8
OBJECT
100
AcDbBlockReference
  2
OBLONG
 10
67.32437465583089
 20
45.59009944123878
 30
0.0
 50
180.0
  0
INSERT
  5
947
330
1E
100
AcDbEntity
  8
OBJECT
100
AcDbBlockReference
  2
OBLONG
 10
67.32437465583089
 20
45.84009944123877
 30
0.0
 50
180.0
  0
INSERT
  5
948
330
1E
100
AcDbEntity
  8
OBJECT
100
AcDbBlockReference
  2
OBLONG
 10
67.32437465583089
 20
45.09009944123877
 30
0.0
 50
180.0
  0
CIRCLE
  5
949
330
1E
100
AcDbEntity
  8
OBJECT
100
AcDbCircle
 10
65.76187467625558
 20
46.52759944123874
 30
0.0
 40
0.109
  0
INSERT
  5
94A
330
1E
100
AcDbEntity
  8
OBJECT
100
AcDbBlockReference
  2
OBLONG
 10
66.32437465583089
 20
45.84009944123877
 30
0.0
 50
180.0
  0
INSERT
  5
94B
330
1E
100
AcDbEntity
  8
OBJECT
100
AcDbBlockReference
  2
OBLONG
 10
66.32437465583089
 20
45.34009944123877
 30
0.0
 50
180.0
  0
INSERT
  5
94C
330
1E
100
AcDbEntity
  8
OBJECT
100
AcDbBlockReference
  2
OBLONG
 10
66.32437465583089
 20
45.59009944123878
 30
0.0
 50
180.0
  0
INSERT
  5
94D
330
1E
100
AcDbEntity
  8
OBJECT
100
AcDbBlockReference
  2
OBLONG
 10
66.32437465583089
 20
45.09009944123877
 30
0.0
 50
180.0
  0
LINE
  5
94E
330
1E
100
AcDbEntity
  8
OBJECT
100
AcDbLine
 10
65.24637467625561
 20
47.2930780557686
 30
0.0
 11
64.9643746762556
 21
47.2930780557686
 31
0.0
  0
LINE
  5
94F
330
1E
100
AcDbEntity
  8
OBJECT
100
AcDbLine
 10
65.19937467625561
 20
47.3400780557686
 30
0.0
 11
64.9643746762556
 21
47.3400780557686
 31
0.0
  0
LINE
  5
950
330
1E
100
AcDbEntity
  8
OBJECT
100
AcDbLine
 10
64.9643746762556
 20
47.2930780557686
 30
0.0
 11
64.9643746762556
 21
47.3400780557686
 31
0.0
  0
INSERT
  5
951
330
1E
100
AcDbEntity
  8
OBJECT
100
AcDbBlockReference
  2
OBLONG
 10
69.32437465583089
 20
45.84009944123877
 30
0.0
 50
180.0
  0
INSERT
  5
952
330
1E
100
AcDbEntity
  8
OBJECT
100
AcDbBlockReference
  2
OBLONG
 10
69.32437465583089
 20
45.34009944123877
 30
0.0
 50
180.0
  0
INSERT
  5
953
330
1E
100
AcDbEntity
  8
OBJECT
100
AcDbBlockReference
  2
OBLONG
 10
69.32437465583089
 20
45.59009944123878
 30
0.0
 50
180.0
  0
INSERT
  5
954
330
1E
100
AcDbEntity
  8
OBJECT
100
AcDbBlockReference
  2
OBLONG
 10
69.32437465583089
 20
45.09009944123877
 30
0.0
 50
180.0
  0
INSERT
  5
955
330
1E
100
AcDbEntity
  8
OBJECT
100
AcDbBlockReference
  2
OBLONG
 10
68.32437465583089
 20
45.84009944123877
 30
0.0
 50
180.0
  0
INSERT
  5
956
330
1E
100
AcDbEntity
  8
OBJECT
100
AcDbBlockReference
  2
OBLONG
 10
68.32437465583089
 20
45.34009944123877
 30
0.0
 50
180.0
  0
INSERT
  5
957
330
1E
100
AcDbEntity
  8
OBJECT
100
AcDbBlockReference
  2
OBLONG
 10
68.32437465583089
 20
45.59009944123878
 30
0.0
 50
180.0
  0
INSERT
  5
958
330
1E
100
AcDbEntity
  8
OBJECT
100
AcDbBlockReference
  2
OBLONG
 10
68.32437465583089
 20
45.09009944123877
 30
0.0
 50
180.0
  0
LINE
  5
959
330
1E
100
AcDbEntity
  8
OBJECT
100
AcDbLine
 10
31.78381255583693
 20
27.32407805576862
 30
0.0
 11
27.9088125558369
 21
27.32407805576862
 31
0.0
  0
LINE
  5
95A
330
1E
100
AcDbEntity
  8
OBJECT
100
AcDbLine
 10
31.78381255583693
 20
27.24607805576862
 30
0.0
 11
27.83081255583693
 21
27.24607805576862
 31
0.0
  0
LINE
  5
95B
330
1E
100
AcDbEntity
  8
OBJECT
100
AcDbLine
 10
31.78381255583693
 20
27.87107805576862
 30
0.0
 11
27.83081255583693
 21
27.87107805576862
 31
0.0
  0
LWPOLYLINE
  5
95C
330
1E
100
AcDbEntity
  8
OBJECT
100
AcDbPolyline
 90
        6
 70
     1
 43
0.0
 10
28.78306255583692
 20
27.80857255568795
 10
28.89131255583691
 20
27.62107805576862
 10
28.78306255583692
 20
27.4335835558493
 10
28.56656255583692
 20
27.4335835558493
 10
28.45831255583692
 20
27.62107805576862
 10
28.56656255583692
 20
27.80857255568795
  0
CIRCLE
  5
964
330
1E
100
AcDbEntity
  8
OBJECT
100
AcDbCircle
 10
28.67481255583692
 20
27.62107805576862
 30
0.0
 40
0.095
  0
LINE
  5
965
330
1E
100
AcDbEntity
  8
OBJECT
100
AcDbLine
 10
27.83081255583693
 20
27.24607805576862
 30
0.0
 11
27.83081255583693
 21
27.87107805576862
 31
0.0
  0
LINE
  5
966
330
1E
100
AcDbEntity
  8
OBJECT
100
AcDbLine
 10
27.9088125558369
 20
27.32407805576862
 30
0.0
 11
27.9088125558369
 21
27.87107805576862
 31
0.0
  0
LWPOLYLINE
  5
967
330
1E
100
AcDbEntity
  8
OBJECT
100
AcDbPolyline
 90
        6
 70
     1
 43
0.0
 10
31.28306255583692
 20
27.80857255568795
 10
31.39131255583691
 20
27.62107805576862
 10
31.28306255583692
 20
27.4335835558493
 10
31.06656255583692
 20
27.4335835558493
 10
30.95831255583692
 20
27.62107805576862
 10
31.06656255583692
 20
27.80857255568795
  0
CIRCLE
  5
96F
330
1E
100
AcDbEntity
  8
OBJECT
100
AcDbCircle
 10
31.17481255583692
 20
27.62107805576862
 30
0.0
 40
0.095
  0
LINE
  5
970
330
1E
100
AcDbEntity
  8
OBJECT
100
AcDbLine
 10
31.78381255583693
 20
27.24607805576862
 30
0.0
 11
31.78381255583693
 21
27.87107805576862
 31
0.0
  0
LINE
  5
971
330
1E
100
AcDbEntity
  8
OBJECT
100
AcDbLine
 10
31.78381255583693
 20
45.80907805576863
 30
0.0
 11
27.83081255583693
 21
45.80907805576863
 31
0.0
  0
LINE
  5
972
330
1E
100
AcDbEntity
  8
OBJECT
100
AcDbLine
 10
31.78381255583693
 20
46.43407805576863
 30
0.0
 11
27.83081255583693
 21
46.43407805576863
 31
0.0
  0
LINE
  5
973
330
1E
100
AcDbEntity
  8
OBJECT
100
AcDbLine
 10
31.78381255583693
 20
46.35607805576863
 30
0.0
 11
27.9088125558369
 21
46.35607805576863
 31
0.0
  0
LWPOLYLINE
  5
974
330
1E
100
AcDbEntity
  8
OBJECT
100
AcDbPolyline
 90
        6
 70
     1
 43
0.0
 10
28.56656255583692
 20
46.24657255568796
 10
28.45831255583692
 20
46.05907805576864
 10
28.56656255583692
 20
45.87158355584931
 10
28.78306255583692
 20
45.87158355584931
 10
28.89131255583691
 20
46.05907805576864
 10
28.78306255583692
 20
46.24657255568796
  0
CIRCLE
  5
97C
330
1E
100
AcDbEntity
  8
OBJECT
100
AcDbCircle
 10
28.67481255583692
 20
46.05907805576864
 30
0.0
 40
0.095
  0
LINE
  5
97D
330
1E
100
AcDbEntity
  8
OBJECT
100
AcDbLine
 10
27.9088125558369
 20
46.35607805576863
 30
0.0
 11
27.9088125558369
 21
45.80907805576863
 31
0.0
  0
LINE
  5
97E
330
1E
100
AcDbEntity
  8
OBJECT
100
AcDbLine
 10
27.83081255583693
 20
46.43407805576863
 30
0.0
 11
27.83081255583693
 21
45.80907805576863
 31
0.0
  0
LWPOLYLINE
  5
97F
330
1E
100
AcDbEntity
  8
OBJECT
100
AcDbPolyline
 90
        6
 70
     1
 43
0.0
 10
31.06656255583692
 20
46.24657255568796
 10
30.95831255583692
 20
46.05907805576864
 10
31.06656255583692
 20
45.87158355584931
 10
31.28306255583692
 20
45.87158355584931
 10
31.39131255583691
 20
46.05907805576864
 10
31.28306255583692
 20
46.24657255568796
  0
CIRCLE
  5
987
330
1E
100
AcDbEntity
  8
OBJECT
100
AcDbCircle
 10
31.17481255583692
 20
46.05907805576864
 30
0.0
 40
0.095
  0
LINE
  5
988
330
1E
100
AcDbEntity
  8
OBJECT
100
AcDbLine
 10
31.78381255583693
 20
46.43407805576863
 30
0.0
 11
31.78381255583693
 21
45.80907805576863
 31
0.0
  0
LWPOLYLINE
  5
989
330
1E
100
AcDbEntity
  8
BEND
  6
PHANTOM2
100
AcDbPolyline
 90
        4
 70
     1
 43
0.0
 10
38.89381255583703
 20
35.59007805576863
 10
39.51881255583703
 20
35.59007805576863
 10
39.51881255583703
 20
39.54307805576866
 10
38.893812555837
 20
39.54307805576866
  0
LWPOLYLINE
  5
98F
330
1E
100
AcDbEntity
  8
BEND
  6
PHANTOM2
100
AcDbPolyline
 90
        4
 70
     1
 43
0.0
 10
20.95581255583681
 20
35.59007805576863
 10
20.33081255583681
 20
35.59007805576863
 10
20.33081255583681
 20
39.54307805576866
 10
20.95581255583684
 20
39.54307805576866
  0
CIRCLE
  5
995
330
1E
100
AcDbEntity
  8
OBJECT
100
AcDbCircle
 10
20.79981255583695
 20
25.97807805576863
 30
0.0
 40
0.0855
  0
CIRCLE
  5
996
330
1E
100
AcDbEntity
  8
OBJECT
100
AcDbCircle
 10
20.79981255583695
 20
25.97807805576863
 30
0.0
 40
0.156
  0
LWPOLYLINE
  5
997
330
1E
100
AcDbEntity
  8
OBJECT
100
AcDbPolyline
 90
        4
 70
     0
 43
0.0
 10
21.17481255583692
 20
25.63107805576857
 10
21.17481255583692
 20
25.73057805576865
 10
20.67481255583692
 20
25.73057805576865
 10
20.67481255583692
 20
25.5840780557686
  0
LWPOLYLINE
  5
99D
330
1E
100
AcDbEntity
  8
OBJECT
100
AcDbPolyline
 90
        4
 70
     0
 43
0.0
 10
39.17481255583692
 20
25.5840780557686
 10
39.17481255583692
 20
25.73057805576865
 10
38.67481255583692
 20
25.73057805576865
 10
38.67481255583695
 20
25.63107805576857
  0
CIRCLE
  5
9A3
330
1E
100
AcDbEntity
  8
OBJECT
100
AcDbCircle
 10
39.04981255583692
 20
25.97807805576863
 30
0.0
 40
0.0855
  0
CIRCLE
  5
9A4
330
1E
100
AcDbEntity
  8
OBJECT
100
AcDbCircle
 10
39.04981255583692
 20
25.97807805576863
 30
0.0
 40
0.156
  0
LINE
  5
9A5
330
1E
100
AcDbEntity
  8
TITLE
100
AcDbLine
 10
0.4959999999999809
 20
19.79642635286117
 30
0.0
 11
84.30400000000004
 21
19.79642635286116
 31
0.0
  0
TEXT
  5
9A6
330
1E
100
AcDbEntity
  8
TEXT
100
AcDbText
 10
51.12398769180654
 20
20.86271347054027
 30
0.0
 40
1.375
  1
UN-8086
 41
0.75
  7
TXT
 72
     1
 11
54.47555019180654
 21
20.86271347054027
 31
0.0
100
AcDbText
  0
TEXT
  5
9A7
330
1E
100
AcDbEntity
  8
TEXT
100
AcDbText
 10
15.68879795588822
 20
20.86271347054028
 30
0.0
 40
1.375
  1
CABLE REEL
 41
0.75
  7
TXT
 72
     1
 11
20.67317295588821
 21
20.86271347054028
 31
0.0
100
AcDbText
  0
LINE
  5
9A8
330
1E
100
AcDbEntity
  8
TITLE
100
AcDbLine
 10
6.496000000000023
 20
19.79642635286118
 30
0.0
 11
6.496000000000023
 21
23.14042635252679
 31
0.0
  0
TEXT
  5
9A9
330
1E
100
AcDbEntity
  8
TEXT
100
AcDbText
 10
1.662666666966709
 20
21.78372658444978
 30
0.0
 40
0.9999999998999999
  1
PART
  7
TXT
 72
     1
 11
3.496000000300043
 21
21.78372658444978
 31
0.0
100
AcDbText
  0
TEXT
  5
9AA
330
1E
100
AcDbEntity
  8
TEXT
100
AcDbText
 10
1.662666666966709
 20
20.11705991794977
 30
0.0
 40
0.9999999998999999
  1
NAME
  7
TXT
 72
     1
 11
3.496000000300043
 21
20.11705991794977
 31
0.0
100
AcDbText
  0
TEXT
  5
9AB
330
1E
100
AcDbEntity
  8
TEXT
100
AcDbText
 10
35.66266666696663
 20
21.78372658444976
 30
0.0
 40
0.9999999998999999
  1
PART
  7
TXT
 72
     1
 11
37.49600000029997
 21
21.78372658444976
 31
0.0
100
AcDbText
  0
LINE
  5
9AC
330
1E
100
AcDbEntity
  8
TITLE
100
AcDbLine
 10
34.00000000064963
 20
23.14042635252677
 30
0.0
 11
34.00000000064963
 21
19.79642635286117
 31
0.0
  0
LINE
  5
9AD
330
1E
100
AcDbEntity
  8
TITLE
100
AcDbLine
 10
34.49600000059999
 20
23.14042635252677
 30
0.0
 11
34.49600000059999
 21
19.79642635286117
 31
0.0
  0
LINE
  5
9AE
330
1E
100
AcDbEntity
  8
TITLE
100
AcDbLine
 10
40.496
 20
23.14042635252677
 30
0.0
 11
40.496
 21
19.79642635286117
 31
0.0
  0
TEXT
  5
9AF
330
1E
100
AcDbEntity
  8
TEXT
100
AcDbText
 10
36.49600000029997
 20
20.11705991794976
 30
0.0
 40
0.9999999998999999
  1
No.
  7
TXT
 72
     1
 11
37.49600000029997
 21
20.11705991794976
 31
0.0
100
AcDbText
  0
LINE
  5
9B0
330
1E
100
AcDbEntity
  8
TITLE
100
AcDbLine
 10
0.4959999999999809
 20
23.14042635252675
 30
0.0
 11
84.30400000000004
 21
23.14042635252675
 31
0.0
  0
LINE
  5
9B1
330
1E
100
AcDbEntity
  8
OBJECT
100
AcDbLine
 10
45.18344802801348
 20
8.811745144318507
 30
0.0
 11
45.30094802801346
 21
8.811745144318507
 31
0.0
  0
LINE
  5
9B2
330
1E
100
AcDbEntity
  8
OBJECT
100
AcDbLine
 10
45.18344802801348
 20
7.71799514431845
 30
0.0
 11
45.18344802801348
 21
8.811745144318507
 31
0.0
  0
LINE
  5
9B3
330
1E
100
AcDbEntity
  8
OBJECT
100
AcDbLine
 10
47.05844802801348
 20
7.71799514431845
 30
0.0
 11
47.05844802801348
 21
12.5617451443185
 31
0.0
  0
LINE
  5
9B4
330
1E
100
AcDbEntity
  8
OBJECT
100
AcDbLine
 10
45.30094802801346
 20
7.718307644318514
 30
0.0
 11
45.30094802801346
 21
8.811745144318507
 31
0.0
  0
LINE
  5
9B5
330
1E
100
AcDbEntity
  8
OBJECT
100
AcDbLine
 10
46.94094802801347
 20
7.718307644318514
 30
0.0
 11
46.94094802801347
 21
12.5617451443185
 31
0.0
  0
LINE
  5
9B6
330
1E
100
AcDbEntity
  8
OBJECT
100
AcDbLine
 10
45.34001052801346
 20
7.679245144318514
 30
0.0
 11
46.90188552801347
 21
7.679245144318514
 31
0.0
  0
LINE
  5
9B7
330
1E
100
AcDbEntity
  8
HIDDEN
100
AcDbLine
 10
45.33969802801348
 20
7.56174514431845
 30
0.0
 11
46.90219802801348
 21
7.561745144318507
 31
0.0
  0
ARC
  5
9B8
330
1E
100
AcDbEntity
  8
OBJECT
100
AcDbCircle
 10
46.90188552801347
 20
7.718307644318514
 30
0.0
 40
0.0390625
100
AcDbArc
 50
270.0
 51
0.0
  0
ARC
  5
9B9
330
1E
100
AcDbEntity
  8
OBJECT
100
AcDbCircle
 10
45.34001052801346
 20
7.718307644318514
 30
0.0
 40
0.0390625
100
AcDbArc
 50
180.0
 51
270.0
  0
ARC
  5
9BA
330
1E
100
AcDbEntity
  8
OBJECT
100
AcDbCircle
 10
46.90219802801348
 20
7.71799514431845
 30
0.0
 40
0.15625
100
AcDbArc
 50
270.0000000000021
 51
359.9999999999998
  0
ARC
  5
9BB
330
1E
100
AcDbEntity
  8
OBJECT
100
AcDbCircle
 10
45.33969802801348
 20
7.71799514431845
 30
0.0
 40
0.15625
100
AcDbArc
 50
179.9999999999991
 51
270.000000000002
  0
ARC
  5
9BC
330
1E
100
AcDbEntity
  8
OBJECT
100
AcDbCircle
 10
15.33599128126257
 20
8.499245144318507
 30
0.0
 40
0.3125
100
AcDbArc
 50
90.0
 51
180.0
  0
ARC
  5
9BD
330
1E
100
AcDbEntity
  8
OBJECT
100
AcDbCircle
 10
27.21099128126258
 20
8.499245144318507
 30
0.0
 40
0.3125
100
AcDbArc
 50
0.0
 51
90.0
  0
LINE
  5
9BE
330
1E
100
AcDbEntity
  8
OBJECT
100
AcDbLine
 10
27.21099128126258
 20
8.811745144318507
 30
0.0
 11
15.33599128126257
 21
8.811745144318507
 31
0.0
  0
LINE
  5
9BF
330
1E
100
AcDbEntity
  8
OBJECT
100
AcDbLine
 10
46.94094802801347
 20
12.5617451443185
 30
0.0
 11
47.05844802801348
 21
12.5617451443185
 31
0.0
  0
LINE
  5
9C0
330
1E
100
AcDbEntity
  8
OBJECT
100
AcDbLine
 10
27.52349128126249
 20
7.561745144318507
 30
0.0
 11
27.52349128126258
 21
12.5617451443185
 31
0.0
  0
LINE
  5
9C1
330
1E
100
AcDbEntity
  8
OBJECT
100
AcDbLine
 10
15.02349128126257
 20
12.5617451443185
 30
0.0
 11
15.02349128126257
 21
7.561745144318507
 31
0.0
  0
LINE
  5
9C2
330
1E
100
AcDbEntity
  8
OBJECT
100
AcDbLine
 10
15.02349128126257
 20
12.5617451443185
 30
0.0
 11
27.52349128126258
 21
12.5617451443185
 31
0.0
  0
CIRCLE
  5
9C3
330
1E
100
AcDbEntity
  8
OBJECT
100
AcDbCircle
 10
18.14849128126257
 20
11.9367451443185
 30
0.0
 40
0.3512500000000001
  0
CIRCLE
  5
9C4
330
1E
100
AcDbEntity
  8
OBJECT
100
AcDbCircle
 10
24.39849128126258
 20
11.9367451443185
 30
0.0
 40
0.3512500000000001
  0
LINE
  5
9C5
330
1E
100
AcDbEntity
  8
HIDDEN
100
AcDbLine
 10
27.50744050572061
 20
7.679245144318514
 30
0.0
 11
15.03954205680452
 21
7.679245144318514
 31
0.0
  0
LINE
  5
9C6
330
1E
100
AcDbEntity
  8
OBJECT
100
AcDbLine
 10
27.52349128126249
 20
7.561745144318507
 30
0.0
 11
15.02349128126257
 21
7.561745144318507
 31
0.0
  0
ARC
  5
9C7
330
1E
100
AcDbEntity
  8
OBJECT
100
AcDbCircle
 10
15.03954205680452
 20
7.522995144318514
 30
0.0
 40
0.15625
100
AcDbArc
 50
90.0
 51
134.9999999999999
  0
ARC
  5
9C8
330
1E
100
AcDbEntity
  8
OBJECT
100
AcDbCircle
 10
15.03967149854275
 20
7.522682644318507
 30
0.0
 40
0.0390625
100
AcDbArc
 50
90.0
 51
135.0
  0
LINE
  5
9C9
330
1E
100
AcDbEntity
  8
OBJECT
100
AcDbLine
 10
13.25572433126257
 20
5.793978194318512
 30
0.0
 11
13.17263928447312
 21
5.877063241107919
 31
0.0
  0
LINE
  5
9CA
330
1E
100
AcDbEntity
  8
OBJECT
100
AcDbLine
 10
14.9290566222441
 20
7.633480578878902
 30
0.0
 11
13.17263928447312
 21
5.877063241107919
 31
0.0
  0
LINE
  5
9CB
330
1E
100
AcDbEntity
  8
OBJECT
100
AcDbLine
 10
15.01205013990267
 20
7.550304002958611
 30
0.0
 11
13.25572433126257
 21
5.793978194318512
 31
0.0
  0
ARC
  5
9CC
330
1E
100
AcDbEntity
  8
OBJECT
100
AcDbCircle
 10
27.50744050572061
 20
7.522995144318514
 30
0.0
 40
0.15625
100
AcDbArc
 50
45.00000000000005
 51
90.0
  0
ARC
  5
9CD
330
1E
100
AcDbEntity
  8
OBJECT
100
AcDbCircle
 10
27.50731106398234
 20
7.522682644318507
 30
0.0
 40
0.0390625
100
AcDbArc
 50
45.00000000000015
 51
90.0
  0
LINE
  5
9CE
330
1E
100
AcDbEntity
  8
OBJECT
100
AcDbLine
 10
29.29125823126259
 20
5.793978194318512
 30
0.0
 11
29.37434327805201
 21
5.877063241107919
 31
0.0
  0
LINE
  5
9CF
330
1E
100
AcDbEntity
  8
OBJECT
100
AcDbLine
 10
27.61792594028102
 20
7.633480578878902
 30
0.0
 11
29.37434327805201
 21
5.877063241107919
 31
0.0
  0
LINE
  5
9D0
330
1E
100
AcDbEntity
  8
OBJECT
100
AcDbLine
 10
27.53493242262246
 20
7.550304002958611
 30
0.0
 11
29.29125823126259
 21
5.793978194318512
 31
0.0
  0
LWPOLYLINE
  5
9D1
330
1E
100
AcDbEntity
  8
OBJECT
100
AcDbPolyline
 90
       12
 70
     0
 43
0.0
 10
45.30094802801346
 20
7.716745144318473
 10
45.30094802801346
 20
6.014949063439268
 42
0.1332561510788647
 10
45.32272418007662
 20
5.934692098326018
 42
0.1067562697215976
 10
45.39247715889271
 20
5.858699063439268
 42
0.0828275296410219
 10
45.48965006334628
 20
5.811734998027696
 42
0.0713517487531184
 10
45.61344802801346
 20
5.793978194318506
 10
46.62844802801347
 20
5.793978194318506
 42
0.0713517487531197
 10
46.75224599268065
 20
5.811734998027696
 42
0.0828275296410042
 10
46.84941889713425
 20
5.858699063439268
 42
0.1067562697216123
 10
46.91917187595035
 20
5.934692098326018
 42
0.13325615107887
 10
46.94094802801347
 20
6.014949063439268
 10
46.94094802801347
 20
7.716745144318473
  0
LWPOLYLINE
  5
9DF
330
1E
100
AcDbEntity
  8
OBJECT
100
AcDbPolyline
 90
       10
 70
     0
 43
0.0
 10
45.30094802801346
 20
6.098034110228703
 42
0.1332561510788647
 10
45.32272418007662
 20
6.017777145115453
 42
0.1067562697215976
 10
45.39247715889271
 20
5.941784110228703
 42
0.0828275296410219
 10
45.48965006334628
 20
5.894820044817131
 42
0.0713517487531184
 10
45.61344802801346
 20
5.87706324110787
 10
46.62844802801347
 20
5.87706324110787
 42
0.0713517487531197
 10
46.75224599268065
 20
5.894820044817131
 42
0.0828275296410042
 10
46.84941889713431
 20
5.941784110228703
 42
0.1067562697216123
 10
46.91917187595035
 20
6.017777145115453
 42
0.1332561510788681
 10
46.94094802801347
 20
6.098034110228703
 42
0.1332561510789135
  0
DIMENSION
  5
9EB
330
1E
100
AcDbEntity
  8
DIM
100
AcDbDimension
  2
*D14
 10
27.52349128126258
 20
18.19207447369482
 30
0.0
 11
21.27349128126258
 21
18.19207447369482
 31
0.0
 70
    32
 71
     5
 42
5.0
  3
23NSTD250
100
AcDbAlignedDimension
 13
15.02349128126257
 23
12.56174514431851
 33
0.0
 14
27.52349128126258
 24
12.56174514431851
 34
0.0
100
AcDbRotatedDimension
  0
DIMENSION
  5
9EC
330
1E
100
AcDbEntity
  8
DIM
100
AcDbDimension
  2
*D21
 10
50.04232175565306
 20
12.56174514431851
 30
0.0
 11
50.04232175565306
 21
10.06174514431852
 31
0.0
 70
    32
 71
     5
 42
2.0
  3
23NSTD250I
100
AcDbAlignedDimension
 13
46.90219802801348
 23
7.561745144318514
 33
0.0
 14
47.05844802801348
 24
12.56174514431851
 34
0.0
 50
90.0
100
AcDbRotatedDimension
  0
DIMENSION
  5
9ED
330
1E
100
AcDbEntity
  8
DIM
100
AcDbDimension
  2
*D15
 10
45.18344802801348
 20
3.174080049161788
 30
0.0
 11
40.20844802801348
 21
3.174080049161788
 31
0.0
 70
    32
 71
     5
 42
0.75
  3
23NSTD250
100
AcDbAlignedDimension
 13
47.05844802801348
 23
7.717995144318443
 33
0.0
 14
45.18344802801348
 24
7.717995144318443
 34
0.0
100
AcDbRotatedDimension
  0
DIMENSION
  5
9EE
330
1E
100
AcDbEntity
  8
DIM
100
AcDbDimension
  2
*D16
 10
42.20061940015233
 20
7.561745144318443
 30
0.0
 11
38.72811940015234
 21
4.68174514431845
 31
0.0
 70
    32
 71
     5
 42
0.5000000000000288
  3
23NSTD250
100
AcDbAlignedDimension
 13
45.18344802801348
 23
8.811745144318514
 33
0.0
 14
45.33969802801348
 24
7.561745144318443
 34
0.0
 50
90.0
100
AcDbRotatedDimension
  0
DIMENSION
  5
9EF
330
1E
100
AcDbEntity
  8
DIM
100
AcDbDimension
  2
*D17
 10
13.17263928447312
 20
3.174080049161788
 30
0.0
 11
21.27349128126256
 21
3.174080049161788
 31
0.0
 70
    32
  1
<> REF.
 71
     5
 42
6.480681597431555
  3
23NSTD250
100
AcDbAlignedDimension
 13
29.37434327805201
 23
5.877063241107926
 33
0.0
 14
13.17263928447312
 24
5.877063241107926
 34
0.0
100
AcDbRotatedDimension
  0
DIMENSION
  5
9F0
330
1E
100
AcDbEntity
  8
DIM
100
AcDbDimension
  2
*D18
 10
31.85123402375819
 20
12.56174514431851
 30
0.0
 11
35.38623402375819
 21
15.44174514431851
 31
0.0
 70
    32
 71
     5
 42
0.25
  3
23NSTD250
100
AcDbAlignedDimension
 13
24.39849128126258
 23
11.93674514431851
 33
0.0
 14
27.52349128126258
 24
12.56174514431851
 34
0.0
 50
90.0
100
AcDbRotatedDimension
  0
DIMENSION
  5
9F1
330
1E
100
AcDbEntity
  8
DIM
100
AcDbDimension
  2
*D22
 10
18.14849128126257
 20
14.64090422192638
 30
0.0
 11
21.27349128126258
 21
14.64090422192638
 31
0.0
 70
    32
 71
     5
 42
2.5
  3
23NSTD250I
100
AcDbAlignedDimension
 13
24.39849128126258
 23
11.93674514431851
 33
0.0
 14
18.14849128126257
 24
11.93674514431851
 34
0.0
100
AcDbRotatedDimension
  0
DIMENSION
  5
9F2
330
1E
100
AcDbEntity
  8
DIM
100
AcDbDimension
  2
*D19
 10
15.02349128126257
 20
16.35737160664566
 30
0.0
 11
10.11099128126258
 21
16.35737160664566
 31
0.0
 70
    32
 71
     5
 42
1.25
  3
23NSTD250
100
AcDbAlignedDimension
 13
18.14849128126257
 23
11.93674514431851
 33
0.0
 14
15.02349128126257
 24
12.56174514431851
 34
0.0
100
AcDbRotatedDimension
  0
TEXT
  5
9F3
330
1E
100
AcDbEntity
  8
TEXT
100
AcDbText
 10
56.85894846550661
 20
16.14991655254
 30
0.0
 40
1.0
  1
SUPPLIED IN PAIRS WITH QTY. (4)
 41
0.75
  7
TXT
100
AcDbText
  0
TEXT
  5
9F4
330
1E
100
AcDbEntity
  8
TEXT
100
AcDbText
 10
58.2265617056029
 20
14.48324988587335
 30
0.0
 40
1.0
  1
#10-32 KEPS NUTS FOR MOUNTING
 41
0.75
  7
TXT
100
AcDbText
  0
TEXT
  5
9F5
330
1E
100
AcDbEntity
  8
TEXT
100
AcDbText
 10
56.85894846550661
 20
11.41339088092806
 30
0.0
 40
1.0
  1
MATERIAL:  18 GA. STEEL
 41
0.75
  7
TXT
100
AcDbText
  0
TEXT
  5
9F6
330
1E
100
AcDbEntity
  8
TEXT
100
AcDbText
 10
56.85894846550661
 20
9.173311387363696
 30
0.0
 40
1.0
  1
FINISH:  SAND TEXTURE
 41
0.75
  7
TXT
100
AcDbText
  0
DIMENSION
  5
9F7
330
1E
100
AcDbEntity
  8
DIM
100
AcDbDimension
  2
*D20
 10
35.7725846889524
 20
12.56174514431851
 30
0.0
 11
35.7725846889524
 21
9.177861669318515
 31
0.0
 70
    32
  1
<> REF.
 71
     5
 42
2.707106780000001
  3
23NSTD250
100
AcDbAlignedDimension
 13
29.29125823126259
 23
5.793978194318508
 33
0.0
 14
27.52349128126258
 24
12.56174514431851
 34
0.0
 50
90.0
100
AcDbRotatedDimension
  0
LINE
  5
9F8
330
1E
100
AcDbEntity
  8
TEXT
100
AcDbLine
 10
65.70584175764492
 20
108.0465851059318
 30
0.0
 11
71.47864660233844
 21
108.0465851059318
 31
0.0
  0
LWPOLYLINE
  5
9F9
330
1E
100
AcDbEntity
  8
DIM
100
AcDbPolyline
 90
        4
 70
     0
 10
17.84528603201496
 20
11.75850966417945
 40
0.0
 41
0.5400000000000001
 10
16.4306997917875
 20
11.48916644640872
 40
0.0
 41
0.0
 10
12.76861383079082
 20
10.79188975274512
 40
0.0
 41
0.0
 10
11.32861383079083
 20
10.79188975274512
 40
0.0
 41
0.0
  0
TEXT
  5
9FF
330
1E
100
AcDbEntity
  8
DIM
100
AcDbText
 10
4.983613830790829
 20
10.29188975274512
 30
0.0
 40
1.0
  1
0.281 DIA.
 41
0.75
  7
TXT
 72
     2
 11
10.60861383079082
 21
10.79188975274512
 31
0.0
100
AcDbText
 73
     2
  0
TEXT
  5
A00
330
1E
100
AcDbEntity
  8
DIM
100
AcDbText
 10
4.608613830790829
 20
8.625223086078449
 30
0.0
 40
1.0
  1
(2) HOLES
 41
0.75
  7
TXT
 72
     2
 11
10.60861383079082
 21
9.125223086078449
 31
0.0
100
AcDbText
 73
     2
  0
LWPOLYLINE
  5
A01
330
1E
100
AcDbEntity
  8
DIM
100
AcDbPolyline
 90
        4
 70
     0
 10
47.07557315092773
 20
75.88698854507537
 40
0.0
 41
0.5400000000000001
 10
47.34689368366758
 20
74.47278022643423
 40
0.0
 41
0.0
 10
47.8621726250418
 20
71.78698362286221
 40
0.0
 41
0.0
 10
49.3021726250418
 20
71.78698362286221
 40
0.0
 41
0.0
  0
TEXT
  5
A07
330
1E
100
AcDbEntity
  8
DIM
100
AcDbText
 10
50.0221726250418
 20
71.28698362286221
 30
0.0
 40
1.0
  1
4.000 SQUARE
 41
0.75
  7
TXT
 11
50.0221726250418
 21
71.78698362286221
 31
0.0
100
AcDbText
 73
     2
  0
TEXT
  5
A08
330
1E
100
AcDbEntity
  8
DIM
100
AcDbText
 10
50.0221726250418
 20
69.62031695619555
 30
0.0
 40
1.0
  1
CUTOUT
 41
0.75
  7
TXT
 11
50.0221726250418
 21
70.12031695619555
 31
0.0
100
AcDbText
 73
     2
  0
TEXT
  5
A09
330
1E
100
AcDbEntity
  8
DIM
100
AcDbText
 10
50.0221726250418
 20
67.95365028952888
 30
0.0
 40
1.0
  1
(4) PLACES
 41
0.75
  7
TXT
 11
50.0221726250418
 21
68.45365028952888
 31
0.0
100
AcDbText
 73
     2
  0
LWPOLYLINE
  5
A0A
330
1E
100
AcDbEntity
  8
DIM
100
AcDbPolyline
 90
        4
 70
     0
 10
18.6751220994673
 20
66.4313760593787
 40
0.0
 41
0.5400000000000001
 10
19.46818722861743
 20
65.22944107739087
 40
0.0
 41
0.0
 10
20.39952113487686
 20
63.92241569912399
 40
0.0
 41
0.0
 10
21.83952113487686
 20
63.92241569912399
 40
0.0
 41
0.0
  0
LWPOLYLINE
  5
A10
330
1E
100
AcDbEntity
  8
DIM
100
AcDbPolyline
 90
        4
 70
     0
 10
61.12952487125594
 20
77.14724703678903
 40
0.0
 41
0.5400000000000001
 10
61.87669871285447
 20
75.91625912034515
 40
0.0
 41
0.0
 10
63.95837739528474
 20
72.48664052113396
 40
0.0
 41
0.0
 10
65.39837739528474
 20
72.48664052113396
 40
0.0
 41
0.0
  0
DIMENSION
  5
A16
330
1E
100
AcDbEntity
  8
DIM
100
AcDbDimension
  2
*D28
 10
12.51432332666976
 20
101.5676254068149
 30
0.0
 11
12.51432332666975
 21
104.1926254068149
 31
0.0
 70
    32
 71
     5
 42
5.250000000000028
  3
23NSTDI
100
AcDbAlignedDimension
 13
15.77262342739536
 23
106.8176254068149
 33
0.0
 14
15.77262342739536
 24
101.5676254068149
 34
0.0
 50
90.0
100
AcDbRotatedDimension
  0
TEXT
  5
A17
330
1E
100
AcDbEntity
  8
DIM
100
AcDbText
 10
12.58133835368789
 20
105.2537467082094
 30
0.0
 40
1.0
  1
BODY
 41
0.75
  7
TXT
100
AcDbText
  0
LWPOLYLINE
  5
A18
330
1E
100
AcDbEntity
  8
DIM
100
AcDbPolyline
 90
        4
 70
     0
 10
36.57758179670426
 20
66.26325790528776
 40
0.0
 41
0.5400000000000001
 10
37.3803348134532
 20
65.06777156320748
 40
0.0
 41
0.0
 10
38.35248459196478
 20
63.84385338144098
 40
0.0
 41
0.0
 10
39.79248459196478
 20
63.84385338144098
 40
0.0
 41
0.0
  0
TEXT
  5
A1E
330
1E
100
AcDbEntity
  8
DIM
100
AcDbText
 10
40.51248459196478
 20
63.34385338144098
 30
0.0
 40
1.0
  1
MTG. HOLES
 41
0.75
  7
TXT
 11
40.51248459196478
 21
63.84385338144098
 31
0.0
100
AcDbText
 73
     2
  0
TEXT
  5
A1F
330
1E
100
AcDbEntity
  8
DIM
100
AcDbText
 10
40.51248459196478
 20
61.67718671477431
 30
0.0
 40
1.0
  1
FOR FAN
 41
0.75
  7
TXT
 11
40.51248459196478
 21
62.17718671477431
 31
0.0
100
AcDbText
 73
     2
  0
TEXT
  5
A20
330
1E
100
AcDbEntity
  8
DIM
100
AcDbText
 10
40.51248459196478
 20
60.01052004810765
 30
0.0
 40
1.0
  1
#FN-1280
 41
0.75
  7
TXT
 11
40.51248459196478
 21
60.51052004810765
 31
0.0
100
AcDbText
 73
     2
  0
TEXT
  5
A21
330
1E
100
AcDbEntity
  8
DIM
100
AcDbText
 10
40.51248459196478
 20
58.39152004810765
 30
0.0
 40
1.0
  1
(4) PLACES
 41
0.75
  7
TXT
 11
40.51248459196478
 21
58.89152004810765
 31
0.0
100
AcDbText
 73
     2
  0
LWPOLYLINE
  5
A22
330
1E
100
AcDbEntity
  8
DIM
100
AcDbPolyline
 90
        5
 70
     0
 10
8.422128874823982
 20
75.16066722905474
 40
0.0
 41
0.5400000000000001
 10
9.361966004327484
 20
74.06965569382396
 40
0.0
 41
0.0
 10
14.09113286435655
 20
68.66266452942508
 40
0.0
 41
0.0
 10
13.03291870424232
 20
68.66266452942508
 40
0.0
 41
0.0
 10
12.49995897326073
 20
68.66266452942508
 40
0.0
 41
0.0
  0
TEXT
  5
A29
330
1E
100
AcDbEntity
  8
DIM
100
AcDbText
 10
5.779958973260733
 20
68.16266452942508
 30
0.0
 40
1.0
  1
MTG. HOLE
 41
0.75
  7
TXT
 72
     2
 11
11.77995897326073
 21
68.66266452942508
 31
0.0
100
AcDbText
 73
     2
  0
TEXT
  5
A2A
330
1E
100
AcDbEntity
  8
DIM
100
AcDbText
 10
5.029958973260733
 20
66.49599786275842
 30
0.0
 40
1.0
  1
FOR POWER
 41
0.75
  7
TXT
 72
     2
 11
11.77995897326073
 21
66.99599786275843
 31
0.0
100
AcDbText
 73
     2
  0
TEXT
  5
A2B
330
1E
100
AcDbEntity
  8
DIM
100
AcDbText
 10
3.279958973260733
 20
64.82933119609175
 30
0.0
 40
1.0
  1
CORD BUSHING
 41
0.75
  7
TXT
 72
     2
 11
11.77995897326073
 21
65.32933119609175
 31
0.0
100
AcDbText
 73
     2
  0
TEXT
  5
A2C
330
1E
100
AcDbEntity
  8
DIM
100
AcDbText
 10
6.654958973260733
 20
63.16266452942509
 30
0.0
 40
1.0
  1
(8) PL'S.
 41
0.75
  7
TXT
 72
     2
 11
11.77995897326073
 21
63.66266452942509
 31
0.0
100
AcDbText
 73
     2
  0
TEXT
  5
A2D
330
1E
100
AcDbEntity
  8
TEXT
100
AcDbText
 10
5.029584460704469
 20
58.56348704155697
 30
0.0
 40
1.0
  1
MOUNTING BRACKETS HAVE #10-32 TAPPED HOLES ON
 41
0.75
  7
TXT
100
AcDbText
  0
TEXT
  5
A2E
330
1E
100
AcDbEntity
  8
TEXT
100
AcDbText
 10
6.662658504528948
 20
56.94448704155698
 30
0.0
 40
1.0
  1
E.I.A. UNIVERSAL HOLE SPACING
 41
0.75
  7
TXT
100
AcDbText
  0
TEXT
  5
A2F
330
1E
100
AcDbEntity
  8
TEXT
100
AcDbText
 10
5.029584460704469
 20
48.87116603400919
 30
0.0
 40
1.0
  1
QTY. (2) CABLE SUPPORTS SUPPLIED UNASSEMBLED
 41
0.75
  7
TXT
100
AcDbText
  0
LWPOLYLINE
  5
A30
330
1E
100
AcDbEntity
  8
DIM
100
AcDbPolyline
 90
        4
 70
     0
 10
63.26973220052483
 20
27.94811055978812
 40
0.0
 41
0.5400000000000001
 10
62.5063265100336
 20
29.16909858254903
 40
0.0
 41
0.0
 10
61.4231199210781
 20
30.90157488939878
 40
0.0
 41
0.0
 10
59.9831199210781
 20
30.90157488939878
 40
0.0
 41
0.0
  0
TEXT
  5
A36
330
1E
100
AcDbEntity
  8
DIM
100
AcDbText
 10
55.7631199210781
 20
30.40157488939877
 30
0.0
 40
1.0
  1
CABLE
 41
0.75
  7
TXT
 72
     2
 11
59.2631199210781
 21
30.90157488939877
 31
0.0
100
AcDbText
 73
     2
  0
TEXT
  5
A37
330
1E
100
AcDbEntity
  8
DIM
100
AcDbText
 10
54.2631199210781
 20
28.73490822273211
 30
0.0
 40
1.0
  1
SUPPORT
 41
0.75
  7
TXT
 72
     2
 11
59.2631199210781
 21
29.23490822273211
 31
0.0
100
AcDbText
 73
     2
  0
LWPOLYLINE
  5
A38
330
1E
100
AcDbEntity
  8
DIM
100
AcDbPolyline
 90
        4
 70
     0
 10
66.31664355827386
 20
39.57737635763008
 40
0.0
 41
0.5400000000000001
 10
64.64206681159223
 20
39.85680064005271
 40
0.0
 41
0.0
 10
58.83786195573839
 20
40.86830011428297
 40
0.0
 41
0.0
 10
57.39786195573839
 20
40.86830011428297
 40
0.0
 41
0.0
  0
TEXT
  5
A3E
330
1E
100
AcDbEntity
  8
DIM
100
AcDbText
 10
47.92786195573839
 20
40.36830011428297
 30
0.0
 40
1.0
  1
OPTIONAL MTG.
 41
0.75
  7
TXT
 72
     2
 11
56.67786195573839
 21
40.86830011428297
 31
0.0
100
AcDbText
 73
     2
  0
TEXT
  5
A3F
330
1E
100
AcDbEntity
  8
DIM
100
AcDbText
 10
46.42786195573839
 20
38.7016334476163
 30
0.0
 40
1.0
  1
BRKT. LOCATIONS
 41
0.75
  7
TXT
 72
     2
 11
56.67786195573839
 21
39.2016334476163
 31
0.0
100
AcDbText
 73
     2
  0
LWPOLYLINE
  5
A40
330
1E
100
AcDbEntity
  8
DIM
100
AcDbPolyline
 90
        4
 70
     0
 10
51.35907970810766
 20
28.50188512159012
 40
0.0
 41
0.5400000000000001
 10
52.2082825013129
 20
29.85633515195268
 40
0.0
 41
0.0
 10
57.72989407199415
 20
38.00713154497265
 40
0.0
 41
0.0
 10
58.83786195573839
 20
40.86830011428297
 40
0.0
 41
0.0
  0
LWPOLYLINE
  5
A46
330
1E
100
AcDbEntity
  8
DIM
100
AcDbPolyline
 90
        4
 70
     0
 10
39.54075712005806
 20
38.74671451492707
 40
0.0
 41
0.5400000000000001
 10
40.94834643630639
 20
39.21861075234135
 40
0.0
 41
0.0
 10
45.35758818716766
 20
40.86830011428297
 40
0.0
 41
0.0
 10
46.79758818716766
 20
40.86830011428297
 40
0.0
 41
0.0
  0
LWPOLYLINE
  5
A4C
330
1E
100
AcDbEntity
  8
DIM
100
AcDbPolyline
 90
        4
 70
     0
 10
20.52064522295665
 20
26.10219535378146
 40
0.0
 41
0.5400000000000001
 10
19.52674015904449
 20
27.14418994298515
 40
0.0
 41
0.0
 10
16.73508946950515
 20
30.07091304669578
 40
0.0
 41
0.0
 10
15.29508946950515
 20
30.07091304669578
 40
0.0
 41
0.0
  0
TEXT
  5
A52
330
1E
100
AcDbEntity
  8
DIM
100
AcDbText
 10
5.825089469505158
 20
29.57091304669578
 30
0.0
 40
1.0
  1
DOOR RIVETED
 41
0.75
  7
TXT
 72
     2
 11
14.57508946950516
 21
30.07091304669577
 31
0.0
100
AcDbText
 73
     2
  0
TEXT
  5
A53
330
1E
100
AcDbEntity
  8
DIM
100
AcDbText
 10
9.575089469505158
 20
27.90424638002912
 30
0.0
 40
1.0
  1
TO BODY
 41
0.75
  7
TXT
 72
     2
 11
14.57508946950516
 21
28.40424638002912
 31
0.0
100
AcDbText
 73
     2
  0
LINE
  5
A54
330
1E
100
AcDbEntity
  8
OBJECT
100
AcDbLine
 10
64.96437467625551
 20
30.23248750380693
 30
0.0
 11
61.8850164721338
 21
25.55307805576859
 31
0.0
  0
LINE
  5
A55
330
1E
100
AcDbEntity
  8
OBJECT
100
AcDbLine
 10
64.96437467625551
 20
30.06149014400719
 30
0.0
 11
61.99754394565997
 21
25.55307805576859
 31
0.0
  0
LINE
  5
A56
330
1E
100
AcDbEntity
  8
TITLE
100
AcDbLine
 10
0.4959999999999809
 20
23.63642635252675
 30
0.0
 11
84.30400000000004
 21
23.63642635252675
 31
0.0
  0
TEXT
  5
A57
330
1E
100
AcDbEntity
  8
DIM
100
AcDbText
 10
71.24536257048845
 20
65.83827079230694
 30
0.0
 40
1.0
  1
SIGNAL CABLE
 41
0.75
  7
TXT
 11
71.24536257048845
 21
66.33827079230695
 31
0.0
100
AcDbText
 73
     2
  0
TEXT
  5
A58
330
1E
100
AcDbEntity
  8
DIM
100
AcDbText
 10
71.24536257048845
 20
64.17160412564029
 30
0.0
 40
1.0
  1
RACEWAY
 41
0.75
  7
TXT
 11
71.24536257048845
 21
64.67160412564028
 31
0.0
100
AcDbText
 73
     2
  0
DIMENSION
  5
A59
330
1E
100
AcDbEntity
  8
DIM
100
AcDbDimension
  2
*D29
 10
55.20219296788261
 20
55.99203011899881
 30
0.0
 11
55.20219296788259
 21
56.79654669758164
 31
0.0
 70
    32
 71
     5
 42
1.60903315716564
  3
23NSTDI
100
AcDbAlignedDimension
 13
58.43434220332205
 23
57.60106327616444
 33
0.0
 14
58.43434220332205
 24
55.99203011899881
 34
0.0
 50
90.0
100
AcDbRotatedDimension
  0
DIMENSION
  5
A5A
330
1E
100
AcDbEntity
  8
DIM
100
AcDbDimension
  2
*D13
 10
58.43434220332205
 20
52.37431327038796
 30
0.0
 11
53.39684220332205
 21
52.37431327038796
 31
0.0
 70
    32
 71
     5
 42
0.6870000000000119
  3
23NSTD
100
AcDbAlignedDimension
 13
59.12134220332205
 23
55.99203011899881
 33
0.0
 14
58.43434220332205
 24
55.34656327616444
 34
0.0
100
AcDbRotatedDimension
  0
LWPOLYLINE
  5
A5B
330
1E
100
AcDbEntity
  8
DIM
100
AcDbPolyline
 90
        4
 70
     0
 10
59.20433876095862
 20
56.306823129289
 40
0.0
 41
0.5400000000000001
 10
60.50001170190984
 20
55.67846683697797
 40
0.0
 41
0.0
 10
65.43085798892326
 20
52.33138336012137
 40
0.0
 41
0.0
 10
66.87085798892326
 20
52.33138336012137
 40
0.0
 41
0.0
  0
TEXT
  5
A61
330
1E
100
AcDbEntity
  8
DIM
100
AcDbText
 10
67.59085798892326
 20
51.83138336012138
 30
0.0
 40
1.0
  1
POWER CORD
 41
0.75
  7
TXT
 11
67.59085798892326
 21
52.33138336012138
 31
0.0
100
AcDbText
 73
     2
  0
TEXT
  5
A62
330
1E
100
AcDbEntity
  8
DIM
100
AcDbText
 10
67.59085798892326
 20
50.1647166934547
 30
0.0
 40
1.0
  1
RACEWAY
 41
0.75
  7
TXT
 11
67.59085798892326
 21
50.66471669345471
 31
0.0
100
AcDbText
 73
     2
  0
LWPOLYLINE
  5
A63
330
1E
100
AcDbEntity
  8
DIM
100
AcDbPolyline
 90
        4
 70
     0
 10
62.11989006500491
 20
57.08914247595151
 40
0.0
 41
0.5400000000000001
 10
63.51858809153239
 20
56.74673361130558
 40
0.0
 41
0.0
 10
66.12901003220946
 20
56.06759606907665
 40
0.0
 41
0.0
 10
67.56901003220946
 20
56.06759606907665
 40
0.0
 41
0.0
  0
TEXT
  5
A69
330
1E
100
AcDbEntity
  8
DIM
100
AcDbText
 10
68.28901003220943
 20
55.56759606907665
 30
0.0
 40
1.0
  1
1.109 DIA. & 2.469 DIA.
 41
0.75
  7
TXT
 11
68.28901003220943
 21
56.06759606907664
 31
0.0
100
AcDbText
 73
     2
  0
TEXT
  5
A6A
330
1E
100
AcDbEntity
  8
DIM
100
AcDbText
 10
68.28901003220943
 20
53.90092940240998
 30
0.0
 40
1.0
  1
DOUBLE KNOCKOUT
 41
0.75
  7
TXT
 11
68.28901003220943
 21
54.40092940240998
 31
0.0
100
AcDbText
 73
     2
  0
DIMENSION
  5
A6B
330
1E
100
AcDbEntity
  8
DIM
100
AcDbDimension
  2
*D30
 10
58.43434220332205
 20
64.78482046658927
 30
0.0
 11
61.18434220332204
 21
64.78482046658927
 31
0.0
 70
    32
 71
     5
 42
5.5
  3
23NSTDI
100
AcDbAlignedDimension
 13
63.93434220332204
 23
60.24656327616444
 33
0.0
 14
58.43434220332205
 24
60.24656327616444
 34
0.0
100
AcDbRotatedDimension
  0
LWPOLYLINE
  5
A6C
330
1E
100
AcDbEntity
  8
OBJECT
100
AcDbPolyline
 90
       14
 70
     1
 43
0.0
 10
60.85134220332207
 20
59.41856327616444
 10
61.51734220332207
 20
59.41856327616444
 42
0.4142135623730951
 10
61.70534220332206
 20
59.60656327616443
 10
61.70534220332206
 20
60.24656327616444
 10
63.93434220332204
 20
60.24656327616444
 10
63.93434220332204
 20
55.34656327616444
 10
58.43434220332205
 20
55.34656327616444
 10
58.43434220332205
 20
55.99203011899881
 10
59.12134220332205
 20
55.99203011899881
 10
59.12134220332205
 20
57.60106327616444
 10
58.43434220332205
 20
57.60106327616444
 10
58.43434220332205
 20
60.24656327616444
 10
60.66334220332208
 20
60.24656327616444
 10
60.66334220332208
 20
59.60656327616443
 42
0.4142135623730951
  0
ARC
  5
A7C
330
1E
100
AcDbEntity
  8
OBJECT
100
AcDbCircle
 10
8.654594255780608
 20
92.90119971315068
 30
0.0
 40
1.234499999999999
100
AcDbArc
 50
182.8787633750705
 51
357.1212366249294
  0
ARC
  5
A7D
330
1E
100
AcDbEntity
  8
OBJECT
100
AcDbCircle
 10
8.654594255780608
 20
92.90119971315068
 30
0.0
 40
1.234499999999999
100
AcDbArc
 50
2.878763375070542
 51
177.1212366249297
  0
LINE
  5
A7E
330
1E
100
AcDbEntity
  8
OBJECT
100
AcDbLine
 10
8.717094255780608
 20
92.71369973357534
 30
0.0
 11
8.717094255780608
 21
93.08869973357534
 31
0.0
  0
LWPOLYLINE
  5
A7F
330
1E
100
AcDbEntity
  8
OBJECT
100
AcDbPolyline
 90
        2
 70
     0
 43
0.0
 10
8.592094255780608
 20
92.71369973602725
 10
8.592094255780608
 20
93.08869973602725
  0
ARC
  5
A83
330
1E
100
AcDbEntity
  8
OBJECT
100
AcDbCircle
 10
8.654594255780608
 20
92.90119971315068
 30
0.0
 40
0.5545
100
AcDbArc
 50
96.41980556739184
 51
263.5801944326081
  0
ARC
  5
A84
330
1E
100
AcDbEntity
  8
OBJECT
100
AcDbCircle
 10
8.654594255780608
 20
92.90119971315068
 30
0.0
 40
0.5545
100
AcDbArc
 50
276.4198055673918
 51
83.58019443260815
  0
ARC
  5
A85
330
1E
100
AcDbEntity
  8
OBJECT
100
AcDbCircle
 10
8.654594255780608
 20
92.71369971315067
 30
0.0
 40
0.0624999999999998
100
AcDbArc
 50
180.0000187239696
 51
0.0000187239695813
  0
LINE
  5
A86
330
1E
100
AcDbEntity
  8
OBJECT
100
AcDbLine
 10
8.71659425578062
 20
92.44489252495393
 30
0.0
 11
8.71659425578062
 21
92.3501768007414
 31
0.0
  0
LINE
  5
A87
330
1E
100
AcDbEntity
  8
OBJECT
100
AcDbLine
 10
8.592594255780625
 20
92.44489252495393
 30
0.0
 11
8.592594255780625
 21
92.3501768007414
 31
0.0
  0
LINE
  5
A88
330
1E
100
AcDbEntity
  8
OBJECT
100
AcDbLine
 10
7.421652144406351
 20
92.83919971315066
 30
0.0
 11
7.51578072846371
 21
92.83919971315066
 31
0.0
  0
LINE
  5
A89
330
1E
100
AcDbEntity
  8
OBJECT
100
AcDbLine
 10
8.71659425578062
 20
93.45222262555996
 30
0.0
 11
8.71659425578062
 21
93.35750690134739
 31
0.0
  0
LINE
  5
A8A
330
1E
100
AcDbEntity
  8
OBJECT
100
AcDbLine
 10
8.592594255780625
 20
93.45222262555996
 30
0.0
 11
8.592594255780625
 21
93.35750690134739
 31
0.0
  0
ARC
  5
A8B
330
1E
100
AcDbEntity
  8
OBJECT
100
AcDbCircle
 10
8.654594255780608
 20
93.08869971315067
 30
0.0
 40
0.0624999999999998
100
AcDbArc
 50
0.0000187239695813
 51
180.0000187239696
  0
LINE
  5
A8C
330
1E
100
AcDbEntity
  8
OBJECT
100
AcDbLine
 10
7.421652144406351
 20
92.96319971315066
 30
0.0
 11
7.51578072846371
 21
92.96319971315066
 31
0.0
  0
LINE
  5
A8D
330
1E
100
AcDbEntity
  8
OBJECT
100
AcDbLine
 10
9.793407783097535
 20
92.83919971315066
 30
0.0
 11
9.887536367154865
 21
92.83919971315066
 31
0.0
  0
LINE
  5
A8E
330
1E
100
AcDbEntity
  8
OBJECT
100
AcDbLine
 10
9.793407783097535
 20
92.96319971315066
 30
0.0
 11
9.887536367154865
 21
92.96319971315066
 31
0.0
  0
LWPOLYLINE
  5
A8F
330
1E
100
AcDbEntity
  8
HIDDEN
100
AcDbPolyline
 90
       14
 70
     0
 43
0.0
 10
6.204594255780619
 20
90.15119971315067
 10
6.850061098614986
 20
90.15119971315067
 10
6.850061098614986
 20
90.83819971315069
 10
8.459094255780627
 20
90.83819971315069
 10
8.459094255780627
 20
90.15119971315067
 10
11.10459425578062
 20
90.15119971315067
 10
11.10459425578062
 20
92.38019971315068
 10
10.46459425578061
 20
92.38019971315068
 42
-0.4142135623730951
 10
10.27659425578062
 20
92.56819971315067
 10
10.27659425578062
 20
93.23419971315066
 42
-0.4142135623730951
 10
10.46459425578061
 20
93.42219971315069
 10
11.10459425578062
 20
93.42219971315069
 10
11.10459425578062
 20
95.65119971315068
 10
6.204594255780619
 20
95.65119971315068
  0
LWPOLYLINE
  5
A9F
330
1E
100
AcDbEntity
  8
DIM
100
AcDbPolyline
 90
        4
 70
     0
 10
61.98598418276387
 20
59.9838021407114
 40
0.0
 41
0.5400000000000001
 10
63.03740051873714
 20
60.96773490693506
 40
0.0
 41
0.0
 10
69.03537099877417
 20
66.35737936637532
 40
0.0
 41
0.0
 10
70.47537099877416
 20
66.35737936637532
 40
0.0
 41
0.0
  0
LWPOLYLINE
  5
AA5
330
1E
100
AcDbEntity
  8
DIM
100
AcDbPolyline
 90
        4
 70
     0
 10
9.466040570943334
 20
94.06720173679891
 40
0.0
 41
0.5400000000000001
 10
9.232377129042674
 20
95.48811742603566
 40
0.0
 41
0.0
 10
8.349635486019423
 20
100.8561007096491
 40
0.0
 41
0.0
 10
6.909635486019411
 20
100.8561007096491
 40
0.0
 41
0.0
  0
TEXT
  5
AAB
330
1E
100
AcDbEntity
  8
DIM
100
AcDbText
 10
3.939635486019412
 20
100.3561007096491
 30
0.0
 40
1.0
  1
REF.
 41
0.75
  7
TXT
 72
     2
 11
6.189635486019412
 21
100.8561007096491
 31
0.0
100
AcDbText
 73
     2
  0
TEXT
  5
AAC
330
1E
100
AcDbEntity
  8
DIM
100
AcDbText
 10
3.090871851043232
 20
98.68943404298249
 30
0.0
 40
1.0
  1
COVER
 41
0.75
  7
TXT
 72
     2
 11
6.840871851043232
 21
99.1894340429825
 31
0.0
100
AcDbText
 73
     2
  0
INSERT
  5
D5E
330
1E
100
AcDbEntity
  8
OBJECT
100
AcDbBlockReference
  2
HB
 10
0.0
 20
0.0
 30
0.0
 41
8.0
 42
8.0
 43
8.0
  0
TEXT
  5
DE2
330
1E
100
AcDbEntity
  8
TEXT
100
AcDbText
 10
76.48509892076612
 20
122.506287117679
 30
0.0
 40
1.375
  1
12-7-05
 41
0.75
  7
TXT
 72
     1
 11
79.66478642076612
 21
122.506287117679
 31
0.0
100
AcDbText
  0
TEXT
  5
F18
330
1E
100
AcDbEntity
  8
TEXT
100
AcDbText
 10
69.66287244651867
 20
21.78372658444975
 30
0.0
 40
0.9999999998999999
  1
PART
  7
TXT
 72
     1
 11
71.496205779852
 21
21.78372658444975
 31
0.0
100
AcDbText
  0
LINE
  5
F19
330
1E
100
AcDbEntity
  8
TITLE
100
AcDbLine
 10
68.00020578020166
 20
23.14042635252675
 30
0.0
 11
68.00020578020166
 21
19.79642635286116
 31
0.0
  0
LINE
  5
F1A
330
1E
100
AcDbEntity
  8
TITLE
100
AcDbLine
 10
68.49620578015202
 20
23.14042635252675
 30
0.0
 11
68.49620578015202
 21
19.79642635286116
 31
0.0
  0
TEXT
  5
F1B
330
1E
100
AcDbEntity
  8
TEXT
100
AcDbText
 10
70.49620577985201
 20
20.11705991794974
 30
0.0
 40
0.9999999998999999
  1
No.
  7
TXT
 72
     1
 11
71.496205779852
 21
20.11705991794974
 31
0.0
100
AcDbText
  0
LINE
  5
F1C
330
1E
100
AcDbEntity
  8
TITLE
100
AcDbLine
 10
74.49620577955204
 20
23.14042635252675
 30
0.0
 11
74.49620577955204
 21
19.79642635286116
 31
0.0
  0
ENDSEC
  0
SECTION
  2
OBJECTS
  0
DICTIONARY
  5
C
330
0
100
AcDbDictionary
281
     1
  3
ACAD_GROUP
350
D
  3
ACAD_LAYOUT
350
19
  3
ACAD_MLINESTYLE
350
16
  3
ACAD_PLOTSETTINGS
350
18
  3
ACAD_PLOTSTYLENAME
350
E
  0
DICTIONARY
  5
D
102
{ACAD_REACTORS
330
C
102
}
330
C
100
AcDbDictionary
281
     1
  0
DICTIONARY
  5
19
102
{ACAD_REACTORS
330
C
102
}
330
C
100
AcDbDictionary
281
     1
  3
Layout1
350
1D
  3
Model
350
21
  0
DICTIONARY
  5
16
102
{ACAD_REACTORS
330
C
102
}
330
C
100
AcDbDictionary
281
     1
  3
Standard
350
17
  0
DICTIONARY
  5
18
102
{ACAD_REACTORS
330
C
102
}
330
C
100
AcDbDictionary
281
     1
  0
ACDBDICTIONARYWDFLT
  5
E
102
{ACAD_REACTORS
330
C
102
}
330
C
100
AcDbDictionary
281
     1
  3
Normal
350
F
100
AcDbDictionaryWithDefault
340
F
  0
LAYOUT
  5
1D
102
{ACAD_REACTORS
330
19
102
}
330
19
100
AcDbPlotSettings
  1

  2
C:\Program Files\ACAD2000\plotters\DWF Classic.pc3
  4

  6

 40
0.0
 41
0.0
 42
0.0
 43
0.0
 44
0.0
 45
0.0
 46
0.0
 47
0.0
 48
0.0
 49
0.0
140
0.0
141
0.0
142
1.0
143
1.0
 70
   688
 72
     0
 73
     0
 74
     5
  7
monochrome.ctb
 75
    16
147
1.0
148
0.0
149
0.0
100
AcDbLayout
  1
Layout1
 70
     1
 71
     1
 10
0.0
 20
0.0
 11
12.0
 21
9.0
 12
0.0
 22
0.0
 32
0.0
 14
1.000000000000000E+20
 24
1.000000000000000E+20
 34
1.000000000000000E+20
 15
-1.000000000000000E+20
 25
-1.000000000000000E+20
 35
-1.000000000000000E+20
146
0.0
 13
0.0
 23
0.0
 33
0.0
 16
1.0
 26
0.0
 36
0.0
 17
0.0
 27
1.0
 37
0.0
 76
     0
330
1A
  0
LAYOUT
  5
21
102
{ACAD_REACTORS
330
19
102
}
330
19
100
AcDbPlotSettings
  1

  2
Auto RICOH Aficio 1060 PCL 5e on RICOH
  4
Letter
  6

 40
7.143749713897705
 41
5.027085304260253
 42
7.14373779296875
 43
5.027069091796875
 44
215.8999938964843
 45
279.3999938964843
 46
12.95399999999999
 47
0.0
 48
0.0
 49
0.0
140
0.0
141
0.0
142
1.0
143
11.69494390526822
 70
 11956
 72
     0
 73
     0
 74
     1
  7
monochrome.ctb
 75
     0
147
0.0855070368956221
148
0.1512885070420793
149
0.1922275280016947
100
AcDbLayout
  1
Model
 70
     1
 71
     0
 10
0.0
 20
0.0
 11
12.0
 21
9.0
 12
0.0
 22
0.0
 32
0.0
 14
0.0
 24
0.0
 34
0.0
 15
0.0
 25
0.0
 35
0.0
146
0.0
 13
0.0
 23
0.0
 33
0.0
 16
1.0
 26
0.0
 36
0.0
 17
0.0
 27
1.0
 37
0.0
 76
     0
330
1E
  0
MLINESTYLE
  5
17
102
{ACAD_REACTORS
330
16
102
}
330
16
100
AcDbMlineStyle
  2
STANDARD
 70
     0
  3

 62
   256
 51
90.0
 52
90.0
 71
     2
 49
0.5
 62
   256
  6
BYLAYER
 49
-0.5
 62
   256
  6
BYLAYER
  0
ACDBPLACEHOLDER
  5
F
102
{ACAD_REACTORS
330
E
102
}
330
E
  0
ENDSEC
  0
EOF
