  0
SECTION
  2
HEADER
  9
$ACADVER
  1
AC1009
  9
$INSBASE
 10
0.0
 20
0.0
 30
0.0
  9
$EXTMIN
 10
0.0
 20
0.0
 30
0.0
  9
$EXTMAX
 10
70.84
 20
108.5
 30
0.0
  9
$LIMMIN
 10
0.0
 20
0.0
  9
$LIMMAX
 10
75.0
 20
50.0
  9
$ORTHOMODE
 70
     1
  9
$REGENMODE
 70
     0
  9
$FILLMODE
 70
     1
  9
$QTEXTMODE
 70
     0
  9
$MIRRTEXT
 70
     0
  9
$DRAGMODE
 70
     2
  9
$LTSCALE
 40
2.5
  9
$OSMODE
 70
     0
  9
$ATTMODE
 70
     1
  9
$TEXTSIZE
 40
0.875
  9
$TRACEWID
 40
0.05
  9
$TEXTSTYLE
  7
TXT
  9
$CLAYER
  8
OBJECT
  9
$CELTYPE
  6
BYLAYER
  9
$CECOLOR
 62
   256
  9
$DIMSCALE
 40
7.0
  9
$DIMASZ
 40
0.18
  9
$DIMEXO
 40
0.063
  9
$DIMDLI
 40
0.281
  9
$DIMRND
 40
0.0
  9
$DIMDLE
 40
0.0
  9
$DIMEXE
 40
0.093
  9
$DIMTP
 40
0.0
  9
$DIMTM
 40
0.0
  9
$DIMTXT
 40
0.125
  9
$DIMCEN
 40
0.09
  9
$DIMTSZ
 40
0.0
  9
$DIMTOL
 70
     0
  9
$DIMLIM
 70
     0
  9
$DIMTIH
 70
     1
  9
$DIMTOH
 70
     1
  9
$DIMSE1
 70
     0
  9
$DIMSE2
 70
     0
  9
$DIMTAD
 70
     0
  9
$DIMZIN
 70
     0
  9
$DIMBLK
  1

  9
$DIMASO
 70
     1
  9
$DIMSHO
 70
     1
  9
$DIMPOST
  1

  9
$DIMAPOST
  1

  9
$DIMALT
 70
     0
  9
$DIMALTD
 70
     2
  9
$DIMALTF
 40
25.4
  9
$DIMLFAC
 40
1.0
  9
$DIMTOFL
 70
     0
  9
$DIMTVP
 40
0.0
  9
$DIMTIX
 70
     0
  9
$DIMSOXD
 70
     0
  9
$DIMSAH
 70
     0
  9
$DIMBLK1
  1

  9
$DIMBLK2
  1

  9
$DIMSTYLE
  2
*UNNAMED
  9
$DIMCLRD
 70
     0
  9
$DIMCLRE
 70
     0
  9
$DIMCLRT
 70
     0
  9
$DIMTFAC
 40
1.0
  9
$DIMGAP
 40
0.09
  9
$LUNITS
 70
     2
  9
$LUPREC
 70
     3
  9
$SKETCHINC
 40
0.1
  9
$FILLETRAD
 40
0.0
  9
$AUNITS
 70
     0
  9
$AUPREC
 70
     0
  9
$MENU
  1
acad
  9
$ELEVATION
 40
0.0
  9
$PELEVATION
 40
0.0
  9
$THICKNESS
 40
0.0
  9
$LIMCHECK
 70
     0
  9
$BLIPMODE
 70
     1
  9
$CHAMFERA
 40
0.0
  9
$CHAMFERB
 40
0.0
  9
$SKPOLY
 70
     0
  9
$TDCREATE
 40
2449134.491059259
  9
$TDUPDATE
 40
2451347.346537268
  9
$TDINDWG
 40
0.1268410880
  9
$TDUSRTIMER
 40
0.1268410880
  9
$USRTIMER
 70
     1
  9
$ANGBASE
 50
0.0
  9
$ANGDIR
 70
     0
  9
$PDMODE
 70
     0
  9
$PDSIZE
 40
0.0
  9
$PLINEWID
 40
0.0
  9
$COORDS
 70
     0
  9
$SPLFRAME
 70
     0
  9
$SPLINETYPE
 70
     6
  9
$SPLINESEGS
 70
     8
  9
$ATTDIA
 70
     0
  9
$ATTREQ
 70
     1
  9
$HANDLING
 70
     0
  9
$HANDSEED
  5
0
  9
$SURFTAB1
 70
     6
  9
$SURFTAB2
 70
     6
  9
$SURFTYPE
 70
     6
  9
$SURFU
 70
     6
  9
$SURFV
 70
     6
  9
$UCSNAME
  2

  9
$UCSORG
 10
0.0
 20
0.0
 30
0.0
  9
$UCSXDIR
 10
1.0
 20
0.0
 30
0.0
  9
$UCSYDIR
 10
0.0
 20
1.0
 30
0.0
  9
$PUCSNAME
  2

  9
$PUCSORG
 10
0.0
 20
0.0
 30
0.0
  9
$PUCSXDIR
 10
1.0
 20
0.0
 30
0.0
  9
$PUCSYDIR
 10
0.0
 20
1.0
 30
0.0
  9
$USERI1
 70
     0
  9
$USERI2
 70
     0
  9
$USERI3
 70
     0
  9
$USERI4
 70
     0
  9
$USERI5
 70
     0
  9
$USERR1
 40
0.0
  9
$USERR2
 40
0.0
  9
$USERR3
 40
0.0
  9
$USERR4
 40
0.0
  9
$USERR5
 40
0.0
  9
$WORLDVIEW
 70
     1
  9
$SHADEDGE
 70
     3
  9
$SHADEDIF
 70
    70
  9
$TILEMODE
 70
     1
  9
$MAXACTVP
 70
    16
  9
$PINSBASE
 10
0.0
 20
0.0
 30
0.0
  9
$PLIMCHECK
 70
     0
  9
$PEXTMIN
 10
1.000000E+20
 20
1.000000E+20
 30
1.000000E+20
  9
$PEXTMAX
 10
-1.000000E+20
 20
-1.000000E+20
 30
-1.000000E+20
  9
$PLIMMIN
 10
0.0
 20
0.0
  9
$PLIMMAX
 10
12.0
 20
9.0
  9
$UNITMODE
 70
     0
  9
$VISRETAIN
 70
     0
  9
$PLINEGEN
 70
     0
  9
$PSLTSCALE
 70
     1
  9
$TREEDEPTH
 70
  3020
  9
$DWGCODEPAGE
  3
ascii
  0
ENDSEC
  0
SECTION
  2
TABLES
  0
TABLE
  2
VPORT
 70
     2
  0
VPORT
  2
*ACTIVE
 70
     0
 10
0.0
 20
0.0
 11
1.0
 21
1.0
 12
73.906919
 22
54.25
 13
0.0
 23
0.0
 14
1.0
 24
1.0
 15
0.0
 25
0.0
 16
0.0
 26
0.0
 36
1.0
 17
0.0
 27
0.0
 37
0.0
 40
108.5
 41
1.36234
 42
50.0
 43
0.0
 44
0.0
 50
0.0
 51
0.0
 71
     0
 72
   100
 73
     1
 74
     0
 75
     0
 76
     0
 77
     0
 78
     0
  0
ENDTAB
  0
TABLE
  2
LTYPE
 70
     4
  0
LTYPE
  2
CONTINUOUS
 70
    64
  3
Solid line
 72
    65
 73
     0
 40
0.0
  0
LTYPE
  2
HIDDEN
 70
    64
  3
_ _ _ _ _ _ _ _ _ _ _ _ _ _ _ _ _ _ _ _ _ _ _
 72
    65
 73
     2
 40
0.375
 49
0.25
 49
-0.125
  0
LTYPE
  2
PHANTOM
 70
    64
  3
_____ _ _ _____ _ _ _____ _ _ _____ _ _ ____
 72
    65
 73
     6
 40
2.5
 49
1.25
 49
-0.25
 49
0.25
 49
-0.25
 49
0.25
 49
-0.25
  0
LTYPE
  2
CENTER
 70
    64
  3
____ _ ____ _ ____ _ ____ _ ____ _ ____ _ ____
 72
    65
 73
     4
 40
2.0
 49
1.25
 49
-0.25
 49
0.25
 49
-0.25
  0
ENDTAB
  0
TABLE
  2
LAYER
 70
     9
  0
LAYER
  2
0
 70
    64
 62
     7
  6
CONTINUOUS
  0
LAYER
  2
DEFPOINTS
 70
    64
 62
     7
  6
CONTINUOUS
  0
LAYER
  2
OBJECT
 70
    64
 62
     7
  6
CONTINUOUS
  0
LAYER
  2
DIM
 70
    64
 62
     7
  6
CONTINUOUS
  0
LAYER
  2
HIDDEN
 70
    64
 62
     7
  6
HIDDEN
  0
LAYER
  2
BEND
 70
    64
 62
     7
  6
PHANTOM
  0
LAYER
  2
TEXT
 70
    64
 62
     7
  6
CONTINUOUS
  0
LAYER
  2
TITLE
 70
    64
 62
     7
  6
CONTINUOUS
  0
LAYER
  2
CENTER
 70
    64
 62
     7
  6
CENTER
  0
ENDTAB
  0
TABLE
  2
STYLE
 70
     3
  0
STYLE
  2
STANDARD
 70
    64
 40
0.0
 41
1.0
 50
0.0
 71
     0
 42
0.2
  3
txt
  4

  0
STYLE
  2
TXT
 70
    64
 40
0.0
 41
0.75
 50
0.0
 71
     0
 42
0.875
  3
TXT.shx
  4

  0
STYLE
  2
REV
 70
    64
 40
0.0
 41
0.7
 50
0.0
 71
     0
 42
0.75
  3
romans
  4

  0
ENDTAB
  0
TABLE
  2
VIEW
 70
     0
  0
ENDTAB
  0
TABLE
  2
UCS
 70
     0
  0
ENDTAB
  0
TABLE
  2
APPID
 70
     1
  0
APPID
  2
ACAD
 70
    64
  0
ENDTAB
  0
TABLE
  2
DIMSTYLE
 70
     2
  0
DIMSTYLE
  2
23NSTD
 70
    64
  3

  4

  5

  6

  7

 40
6.5
 41
0.18
 42
0.063
 43
0.38
 44
0.093
 45
0.0
 46
0.0
 47
0.0
 48
0.0
140
0.125
141
0.09
142
0.0
143
25.4
144
1.0
145
0.0
146
1.0
147
0.09
 71
     0
 72
     0
 73
     1
 74
     1
 75
     0
 76
     0
 77
     0
 78
     0
170
     0
171
     2
172
     0
173
     0
174
     0
175
     0
176
     0
177
     0
178
     0
  0
DIMSTYLE
  2
23NSTDX
 70
    64
  3

  4

  5

  6

  7

 40
6.5
 41
0.18
 42
0.063
 43
0.38
 44
0.093
 45
0.0
 46
0.0
 47
0.031
 48
0.0001
140
0.125
141
0.09
142
0.0
143
25.4
144
1.0
145
0.0
146
0.8
147
0.09
 71
     1
 72
     0
 73
     1
 74
     1
 75
     0
 76
     0
 77
     0
 78
     0
170
     0
171
     2
172
     0
173
     0
174
     0
175
     0
176
     0
177
     0
178
     0
  0
ENDTAB
  0
ENDSEC
  0
SECTION
  2
BLOCKS
  0
BLOCK
  8
0
  2
HB
 70
    64
 10
0.0
 20
0.0
 30
0.0
  3
HB
  0
TEXT
  8
TEXT
 10
0.207833
 20
15.060079
 30
0.0
 40
0.125
  1
NAME
 72
     1
 11
0.437
 21
15.060079
 31
0.0
  0
TEXT
  8
TEXT
 10
0.207833
 20
15.268413
 30
0.0
 40
0.125
  1
PART
 72
     1
 11
0.437
 21
15.268413
 31
0.0
  0
TEXT
  8
TEXT
 10
5.372
 20
15.060079
 30
0.0
 40
0.125
  1
No.
 72
     1
 11
5.497
 21
15.060079
 31
0.0
  0
TEXT
  8
TEXT
 10
5.267833
 20
15.268413
 30
0.0
 40
0.125
  1
PART
 72
     1
 11
5.497
 21
15.268413
 31
0.0
  0
LINE
  8
TITLE
 10
5.872
 20
15.438
 30
0.0
 11
5.872
 21
15.02
 31
0.0
  0
LINE
  8
TITLE
 10
5.122
 20
15.438
 30
0.0
 11
5.122
 21
15.02
 31
0.0
  0
LINE
  8
TITLE
 10
5.06
 20
15.438
 30
0.0
 11
5.06
 21
15.02
 31
0.0
  0
LINE
  8
TITLE
 10
0.812
 20
15.02
 30
0.0
 11
0.812
 21
15.438
 31
0.0
  0
LINE
  8
TITLE
 10
0.062
 20
15.02
 30
0.0
 11
10.058
 21
15.02
 31
0.0
  0
LINE
  8
TITLE
 10
10.058
 20
0.062
 30
0.0
 11
0.062
 21
0.062
 31
0.0
  0
LINE
  8
TITLE
 10
10.058
 20
15.438
 30
0.0
 11
10.058
 21
0.062
 31
0.0
  0
LINE
  8
TITLE
 10
0.062
 20
15.438
 30
0.0
 11
10.058
 21
15.438
 31
0.0
  0
LINE
  8
TITLE
 10
0.062
 20
0.062
 30
0.0
 11
0.062
 21
15.438
 31
0.0
  0
LINE
  8
TITLE
 10
0.0
 20
0.0
 30
0.0
 11
0.0
 21
15.5
 31
0.0
  0
LINE
  8
TITLE
 10
10.12
 20
0.0
 30
0.0
 11
0.0
 21
0.0
 31
0.0
  0
LINE
  8
TITLE
 10
10.12
 20
15.5
 30
0.0
 11
10.12
 21
0.0
 31
0.0
  0
LINE
  8
TITLE
 10
0.0
 20
15.5
 30
0.0
 11
10.12
 21
15.5
 31
0.0
  0
ENDBLK
  8
0
  0
BLOCK
  8
0
  2
*D1
 70
    65
 10
0.0
 20
0.0
 30
0.0
  3
*D
  0
LINE
  8
0
  6
BYBLOCK
 62
     0
 10
33.231015
 20
49.966611
 30
0.0
 11
33.231015
 21
49.69944
 31
0.0
  0
LINE
  8
0
  6
BYBLOCK
 62
     0
 10
51.043015
 20
49.966611
 30
0.0
 11
51.043015
 21
49.69944
 31
0.0
  0
LINE
  8
0
  6
BYBLOCK
 62
     0
 10
34.491015
 20
50.35044
 30
0.0
 11
40.08514
 21
50.35044
 31
0.0
  0
LINE
  8
0
  6
BYBLOCK
 62
     0
 10
49.783015
 20
50.35044
 30
0.0
 11
44.18889
 21
50.35044
 31
0.0
  0
SOLID
  8
0
  6
BYBLOCK
 62
     0
 10
34.491015
 20
50.56044
 30
0.0
 11
34.491015
 21
50.14044
 31
0.0
 12
33.231015
 22
50.35044
 32
0.0
 13
33.231015
 23
50.35044
 33
0.0
  0
SOLID
  8
0
  6
BYBLOCK
 62
     0
 10
49.783015
 20
50.56044
 30
0.0
 11
49.783015
 21
50.14044
 31
0.0
 12
51.043015
 22
50.35044
 32
0.0
 13
51.043015
 23
50.35044
 33
0.0
  0
TEXT
  8
0
  6
BYBLOCK
 62
     0
 10
40.71514
 20
49.91294
 30
0.0
 40
0.875
  1
17.812
 41
0.75
  7
TXT
 72
     1
 11
42.137015
 21
50.35044
 31
0.0
 73
     2
  0
POINT
  8
DEFPOINTS
  6
BYBLOCK
 62
     0
 10
33.231015
 20
50.407611
 30
0.0
  0
POINT
  8
DEFPOINTS
  6
BYBLOCK
 62
     0
 10
51.043015
 20
50.407611
 30
0.0
  0
POINT
  8
DEFPOINTS
  6
BYBLOCK
 62
     0
 10
51.043015
 20
50.35044
 30
0.0
  0
ENDBLK
  8
0
  0
BLOCK
  8
0
  2
*D2
 70
    65
 10
0.0
 20
0.0
 30
0.0
  3
*D
  0
LINE
  8
0
  6
BYBLOCK
 62
     0
 10
32.981015
 20
48.49826
 30
0.0
 11
32.981015
 21
47.309947
 31
0.0
  0
LINE
  8
0
  6
BYBLOCK
 62
     0
 10
51.293015
 20
48.49826
 30
0.0
 11
51.293015
 21
47.309947
 31
0.0
  0
LINE
  8
0
  6
BYBLOCK
 62
     0
 10
34.241015
 20
47.960947
 30
0.0
 11
40.08514
 21
47.960947
 31
0.0
  0
LINE
  8
0
  6
BYBLOCK
 62
     0
 10
50.033015
 20
47.960947
 30
0.0
 11
44.18889
 21
47.960947
 31
0.0
  0
SOLID
  8
0
  6
BYBLOCK
 62
     0
 10
34.241015
 20
48.170947
 30
0.0
 11
34.241015
 21
47.750947
 31
0.0
 12
32.981015
 22
47.960947
 32
0.0
 13
32.981015
 23
47.960947
 33
0.0
  0
SOLID
  8
0
  6
BYBLOCK
 62
     0
 10
50.033015
 20
48.170947
 30
0.0
 11
50.033015
 21
47.750947
 31
0.0
 12
51.293015
 22
47.960947
 32
0.0
 13
51.293015
 23
47.960947
 33
0.0
  0
TEXT
  8
0
  6
BYBLOCK
 62
     0
 10
40.71514
 20
47.523447
 30
0.0
 40
0.875
  1
18.312
 41
0.75
  7
TXT
 72
     1
 11
42.137015
 21
47.960947
 31
0.0
 73
     2
  0
POINT
  8
DEFPOINTS
  6
BYBLOCK
 62
     0
 10
32.981015
 20
48.93926
 30
0.0
  0
POINT
  8
DEFPOINTS
  6
BYBLOCK
 62
     0
 10
51.293015
 20
48.93926
 30
0.0
  0
POINT
  8
DEFPOINTS
  6
BYBLOCK
 62
     0
 10
51.293015
 20
47.960947
 30
0.0
  0
ENDBLK
  8
0
  0
BLOCK
  8
0
  2
*D3
 70
    65
 10
0.0
 20
0.0
 30
0.0
  3
*D
  0
LINE
  8
0
  6
BYBLOCK
 62
     0
 10
25.411093
 20
54.16126
 30
0.0
 11
25.411093
 21
60.642772
 31
0.0
  0
LINE
  8
0
  6
BYBLOCK
 62
     0
 10
46.473093
 20
54.16126
 30
0.0
 11
46.473093
 21
60.642772
 31
0.0
  0
LINE
  8
0
  6
BYBLOCK
 62
     0
 10
26.671093
 20
59.991772
 30
0.0
 11
33.83553
 21
59.991772
 31
0.0
  0
LINE
  8
0
  6
BYBLOCK
 62
     0
 10
45.213093
 20
59.991772
 30
0.0
 11
38.048655
 21
59.991772
 31
0.0
  0
SOLID
  8
0
  6
BYBLOCK
 62
     0
 10
26.671093
 20
60.201772
 30
0.0
 11
26.671093
 21
59.781772
 31
0.0
 12
25.411093
 22
59.991772
 32
0.0
 13
25.411093
 23
59.991772
 33
0.0
  0
SOLID
  8
0
  6
BYBLOCK
 62
     0
 10
45.213093
 20
60.201772
 30
0.0
 11
45.213093
 21
59.781772
 31
0.0
 12
46.473093
 22
59.991772
 32
0.0
 13
46.473093
 23
59.991772
 33
0.0
  0
TEXT
  8
0
  6
BYBLOCK
 62
     0
 10
34.46553
 20
59.554272
 30
0.0
 40
0.875
  1
21.062
 41
0.75
  7
TXT
 72
     1
 11
35.942093
 21
59.991772
 31
0.0
 73
     2
  0
POINT
  8
DEFPOINTS
  6
BYBLOCK
 62
     0
 10
25.411093
 20
53.72026
 30
0.0
  0
POINT
  8
DEFPOINTS
  6
BYBLOCK
 62
     0
 10
46.473093
 20
53.72026
 30
0.0
  0
POINT
  8
DEFPOINTS
  6
BYBLOCK
 62
     0
 10
46.473093
 20
59.991772
 30
0.0
  0
ENDBLK
  8
0
  0
BLOCK
  8
0
  2
*D4
 70
    65
 10
0.0
 20
0.0
 30
0.0
  3
*D
  0
LINE
  8
0
  6
BYBLOCK
 62
     0
 10
26.411093
 20
54.16126
 30
0.0
 11
26.411093
 21
58.024145
 31
0.0
  0
LINE
  8
0
  6
BYBLOCK
 62
     0
 10
45.473093
 20
54.16126
 30
0.0
 11
45.473093
 21
58.024145
 31
0.0
  0
LINE
  8
0
  6
BYBLOCK
 62
     0
 10
27.671093
 20
57.373145
 30
0.0
 11
33.83553
 21
57.373145
 31
0.0
  0
LINE
  8
0
  6
BYBLOCK
 62
     0
 10
44.213093
 20
57.373145
 30
0.0
 11
38.048655
 21
57.373145
 31
0.0
  0
SOLID
  8
0
  6
BYBLOCK
 62
     0
 10
27.671093
 20
57.583145
 30
0.0
 11
27.671093
 21
57.163145
 31
0.0
 12
26.411093
 22
57.373145
 32
0.0
 13
26.411093
 23
57.373145
 33
0.0
  0
SOLID
  8
0
  6
BYBLOCK
 62
     0
 10
44.213093
 20
57.583145
 30
0.0
 11
44.213093
 21
57.163145
 31
0.0
 12
45.473093
 22
57.373145
 32
0.0
 13
45.473093
 23
57.373145
 33
0.0
  0
TEXT
  8
0
  6
BYBLOCK
 62
     0
 10
34.46553
 20
56.935645
 30
0.0
 40
0.875
  1
19.062
 41
0.75
  7
TXT
 72
     1
 11
35.942093
 21
57.373145
 31
0.0
 73
     2
  0
POINT
  8
DEFPOINTS
  6
BYBLOCK
 62
     0
 10
26.411093
 20
53.72026
 30
0.0
  0
POINT
  8
DEFPOINTS
  6
BYBLOCK
 62
     0
 10
45.473093
 20
53.72026
 30
0.0
  0
POINT
  8
DEFPOINTS
  6
BYBLOCK
 62
     0
 10
45.473093
 20
57.373145
 30
0.0
  0
ENDBLK
  8
0
  0
BLOCK
  8
0
  2
*D5
 70
    65
 10
0.0
 20
0.0
 30
0.0
  3
*D
  0
LINE
  8
0
  6
BYBLOCK
 62
     0
 10
45.473093
 20
54.16126
 30
0.0
 11
45.473093
 21
58.024145
 31
0.0
  0
LINE
  8
0
  6
BYBLOCK
 62
     0
 10
46.473093
 20
54.16126
 30
0.0
 11
46.473093
 21
58.024145
 31
0.0
  0
LINE
  8
0
  6
BYBLOCK
 62
     0
 10
44.213093
 20
57.373145
 30
0.0
 11
42.953093
 21
57.373145
 31
0.0
  0
LINE
  8
0
  6
BYBLOCK
 62
     0
 10
47.733093
 20
57.373145
 30
0.0
 11
48.993093
 21
57.373145
 31
0.0
  0
SOLID
  8
0
  6
BYBLOCK
 62
     0
 10
44.213093
 20
57.583145
 30
0.0
 11
44.213093
 21
57.163145
 31
0.0
 12
45.473093
 22
57.373145
 32
0.0
 13
45.473093
 23
57.373145
 33
0.0
  0
SOLID
  8
0
  6
BYBLOCK
 62
     0
 10
47.733093
 20
57.583145
 30
0.0
 11
47.733093
 21
57.163145
 31
0.0
 12
46.473093
 22
57.373145
 32
0.0
 13
46.473093
 23
57.373145
 33
0.0
  0
TEXT
  8
0
  6
BYBLOCK
 62
     0
 10
49.623093
 20
56.935645
 30
0.0
 40
0.875
  1
1.000
 41
0.75
  7
TXT
 72
     1
 11
50.662155
 21
57.373145
 31
0.0
 73
     2
  0
POINT
  8
DEFPOINTS
  6
BYBLOCK
 62
     0
 10
45.473093
 20
53.72026
 30
0.0
  0
POINT
  8
DEFPOINTS
  6
BYBLOCK
 62
     0
 10
46.473093
 20
53.72026
 30
0.0
  0
POINT
  8
DEFPOINTS
  6
BYBLOCK
 62
     0
 10
46.473093
 20
57.373145
 30
0.0
  0
ENDBLK
  8
0
  0
BLOCK
  8
0
  2
*D6
 70
    65
 10
0.0
 20
0.0
 30
0.0
  3
*D
  0
LINE
  8
0
  6
BYBLOCK
 62
     0
 10
25.017093
 20
42.15826
 30
0.0
 11
22.591387
 21
42.15826
 31
0.0
  0
LINE
  8
0
  6
BYBLOCK
 62
     0
 10
24.970093
 20
41.15826
 30
0.0
 11
22.591387
 21
41.15826
 31
0.0
  0
LINE
  8
0
  6
BYBLOCK
 62
     0
 10
23.242387
 20
43.41826
 30
0.0
 11
23.242387
 21
44.67826
 31
0.0
  0
LINE
  8
0
  6
BYBLOCK
 62
     0
 10
23.242387
 20
39.89826
 30
0.0
 11
23.242387
 21
38.63826
 31
0.0
  0
LINE
  8
0
  6
BYBLOCK
 62
     0
 10
23.242387
 20
38.63826
 30
0.0
 11
21.982387
 21
38.63826
 31
0.0
  0
SOLID
  8
0
  6
BYBLOCK
 62
     0
 10
23.032387
 20
43.41826
 30
0.0
 11
23.452387
 21
43.41826
 31
0.0
 12
23.242387
 22
42.15826
 32
0.0
 13
23.242387
 23
42.15826
 33
0.0
  0
SOLID
  8
0
  6
BYBLOCK
 62
     0
 10
23.032387
 20
39.89826
 30
0.0
 11
23.452387
 21
39.89826
 31
0.0
 12
23.242387
 22
41.15826
 32
0.0
 13
23.242387
 23
41.15826
 33
0.0
  0
TEXT
  8
0
  6
BYBLOCK
 62
     0
 10
19.274262
 20
38.20076
 30
0.0
 40
0.875
  1
1.000
 41
0.75
  7
TXT
 72
     1
 11
20.313325
 21
38.63826
 31
0.0
 73
     2
  0
POINT
  8
DEFPOINTS
  6
BYBLOCK
 62
     0
 10
25.458093
 20
42.15826
 30
0.0
  0
POINT
  8
DEFPOINTS
  6
BYBLOCK
 62
     0
 10
25.411093
 20
41.15826
 30
0.0
  0
POINT
  8
DEFPOINTS
  6
BYBLOCK
 62
     0
 10
23.242387
 20
41.15826
 30
0.0
  0
ENDBLK
  8
0
  0
BLOCK
  8
0
  2
*D7
 70
    65
 10
0.0
 20
0.0
 30
0.0
  3
*D
  0
LINE
  8
0
  6
BYBLOCK
 62
     0
 10
2.72432
 20
54.16126
 30
0.0
 11
2.72432
 21
58.024145
 31
0.0
  0
LINE
  8
0
  6
BYBLOCK
 62
     0
 10
18.22432
 20
54.16126
 30
0.0
 11
18.22432
 21
58.024145
 31
0.0
  0
LINE
  8
0
  6
BYBLOCK
 62
     0
 10
3.98432
 20
57.373145
 30
0.0
 11
8.422445
 21
57.373145
 31
0.0
  0
LINE
  8
0
  6
BYBLOCK
 62
     0
 10
16.96432
 20
57.373145
 30
0.0
 11
12.526195
 21
57.373145
 31
0.0
  0
SOLID
  8
0
  6
BYBLOCK
 62
     0
 10
3.98432
 20
57.583145
 30
0.0
 11
3.98432
 21
57.163145
 31
0.0
 12
2.72432
 22
57.373145
 32
0.0
 13
2.72432
 23
57.373145
 33
0.0
  0
SOLID
  8
0
  6
BYBLOCK
 62
     0
 10
16.96432
 20
57.583145
 30
0.0
 11
16.96432
 21
57.163145
 31
0.0
 12
18.22432
 22
57.373145
 32
0.0
 13
18.22432
 23
57.373145
 33
0.0
  0
TEXT
  8
0
  6
BYBLOCK
 62
     0
 10
9.052445
 20
56.935645
 30
0.0
 40
0.875
  1
15.500
 41
0.75
  7
TXT
 72
     1
 11
10.47432
 21
57.373145
 31
0.0
 73
     2
  0
POINT
  8
DEFPOINTS
  6
BYBLOCK
 62
     0
 10
2.72432
 20
53.72026
 30
0.0
  0
POINT
  8
DEFPOINTS
  6
BYBLOCK
 62
     0
 10
18.22432
 20
53.72026
 30
0.0
  0
POINT
  8
DEFPOINTS
  6
BYBLOCK
 62
     0
 10
18.22432
 20
57.373145
 30
0.0
  0
ENDBLK
  8
0
  0
BLOCK
  8
0
  2
*D8
 70
    65
 10
0.0
 20
0.0
 30
0.0
  3
*D
  0
LINE
  8
0
  6
BYBLOCK
 62
     0
 10
52.389745
 20
54.16126
 30
0.0
 11
52.389745
 21
58.024145
 31
0.0
  0
LINE
  8
0
  6
BYBLOCK
 62
     0
 10
67.889745
 20
54.16126
 30
0.0
 11
67.889745
 21
58.024145
 31
0.0
  0
LINE
  8
0
  6
BYBLOCK
 62
     0
 10
53.649745
 20
57.373145
 30
0.0
 11
58.08787
 21
57.373145
 31
0.0
  0
LINE
  8
0
  6
BYBLOCK
 62
     0
 10
66.629745
 20
57.373145
 30
0.0
 11
62.19162
 21
57.373145
 31
0.0
  0
SOLID
  8
0
  6
BYBLOCK
 62
     0
 10
53.649745
 20
57.583145
 30
0.0
 11
53.649745
 21
57.163145
 31
0.0
 12
52.389745
 22
57.373145
 32
0.0
 13
52.389745
 23
57.373145
 33
0.0
  0
SOLID
  8
0
  6
BYBLOCK
 62
     0
 10
66.629745
 20
57.583145
 30
0.0
 11
66.629745
 21
57.163145
 31
0.0
 12
67.889745
 22
57.373145
 32
0.0
 13
67.889745
 23
57.373145
 33
0.0
  0
TEXT
  8
0
  6
BYBLOCK
 62
     0
 10
58.71787
 20
56.935645
 30
0.0
 40
0.875
  1
15.500
 41
0.75
  7
TXT
 72
     1
 11
60.139745
 21
57.373145
 31
0.0
 73
     2
  0
POINT
  8
DEFPOINTS
  6
BYBLOCK
 62
     0
 10
52.389745
 20
53.72026
 30
0.0
  0
POINT
  8
DEFPOINTS
  6
BYBLOCK
 62
     0
 10
67.889745
 20
53.72026
 30
0.0
  0
POINT
  8
DEFPOINTS
  6
BYBLOCK
 62
     0
 10
67.889745
 20
57.373145
 30
0.0
  0
ENDBLK
  8
0
  0
BLOCK
  8
0
  2
*D9
 70
    65
 10
0.0
 20
0.0
 30
0.0
  3
*D
  0
LINE
  8
0
  6
BYBLOCK
 62
     0
 10
43.951343
 20
63.126552
 30
0.0
 11
46.498297
 21
63.126552
 31
0.0
  0
LINE
  8
0
  6
BYBLOCK
 62
     0
 10
43.951343
 20
50.564552
 30
0.0
 11
46.498297
 21
50.564552
 31
0.0
  0
LINE
  8
0
  6
BYBLOCK
 62
     0
 10
45.847297
 20
61.866552
 30
0.0
 11
45.847297
 21
58.530274
 31
0.0
  0
LINE
  8
0
  6
BYBLOCK
 62
     0
 10
45.847297
 20
51.824552
 30
0.0
 11
45.847297
 21
56.395274
 31
0.0
  0
SOLID
  8
0
  6
BYBLOCK
 62
     0
 10
45.637297
 20
61.866552
 30
0.0
 11
46.057297
 21
61.866552
 31
0.0
 12
45.847297
 22
63.126552
 32
0.0
 13
45.847297
 23
63.126552
 33
0.0
  0
SOLID
  8
0
  6
BYBLOCK
 62
     0
 10
45.637297
 20
51.824552
 30
0.0
 11
46.057297
 21
51.824552
 31
0.0
 12
45.847297
 22
50.564552
 32
0.0
 13
45.847297
 23
50.564552
 33
0.0
  0
TEXT
  8
0
  6
BYBLOCK
 62
     0
 10
45.628547
 20
57.025274
 30
0.0
 40
0.875
  1
A
 41
0.75
  7
TXT
 72
     1
 11
45.847297
 21
57.462774
 31
0.0
 73
     2
  0
POINT
  8
DEFPOINTS
  6
BYBLOCK
 62
     0
 10
43.510343
 20
63.126552
 30
0.0
  0
POINT
  8
DEFPOINTS
  6
BYBLOCK
 62
     0
 10
43.510343
 20
50.564552
 30
0.0
  0
POINT
  8
DEFPOINTS
  6
BYBLOCK
 62
     0
 10
45.847297
 20
50.564552
 30
0.0
  0
ENDBLK
  8
0
  0
BLOCK
  8
0
  2
*D10
 70
    65
 10
0.0
 20
0.0
 30
0.0
  3
*D
  0
LINE
  8
0
  6
BYBLOCK
 62
     0
 10
22.054343
 20
62.126552
 30
0.0
 11
19.628638
 21
62.126552
 31
0.0
  0
LINE
  8
0
  6
BYBLOCK
 62
     0
 10
22.054343
 20
51.564552
 30
0.0
 11
19.628638
 21
51.564552
 31
0.0
  0
LINE
  8
0
  6
BYBLOCK
 62
     0
 10
20.279638
 20
60.866552
 30
0.0
 11
20.279638
 21
57.913052
 31
0.0
  0
LINE
  8
0
  6
BYBLOCK
 62
     0
 10
20.279638
 20
52.824552
 30
0.0
 11
20.279638
 21
55.778052
 31
0.0
  0
SOLID
  8
0
  6
BYBLOCK
 62
     0
 10
20.069638
 20
60.866552
 30
0.0
 11
20.489638
 21
60.866552
 31
0.0
 12
20.279638
 22
62.126552
 32
0.0
 13
20.279638
 23
62.126552
 33
0.0
  0
SOLID
  8
0
  6
BYBLOCK
 62
     0
 10
20.069638
 20
52.824552
 30
0.0
 11
20.489638
 21
52.824552
 31
0.0
 12
20.279638
 22
51.564552
 32
0.0
 13
20.279638
 23
51.564552
 33
0.0
  0
TEXT
  8
0
  6
BYBLOCK
 62
     0
 10
20.060888
 20
56.408052
 30
0.0
 40
0.875
  1
B
 41
0.75
  7
TXT
 72
     1
 11
20.279638
 21
56.845552
 31
0.0
 73
     2
  0
POINT
  8
DEFPOINTS
  6
BYBLOCK
 62
     0
 10
22.495343
 20
62.126552
 30
0.0
  0
POINT
  8
DEFPOINTS
  6
BYBLOCK
 62
     0
 10
22.495343
 20
51.564552
 30
0.0
  0
POINT
  8
DEFPOINTS
  6
BYBLOCK
 62
     0
 10
20.279638
 20
51.564552
 30
0.0
  0
ENDBLK
  8
0
  0
BLOCK
  8
0
  2
*D11
 70
    65
 10
0.0
 20
0.0
 30
0.0
  3
*D
  0
LINE
  8
0
  6
BYBLOCK
 62
     0
 10
52.223134
 20
51.123552
 30
0.0
 11
52.223134
 21
46.796876
 31
0.0
  0
LINE
  8
0
  6
BYBLOCK
 62
     0
 10
51.723134
 20
50.123552
 30
0.0
 11
51.723134
 21
46.796876
 31
0.0
  0
LINE
  8
0
  6
BYBLOCK
 62
     0
 10
53.483134
 20
47.447876
 30
0.0
 11
54.743134
 21
47.447876
 31
0.0
  0
LINE
  8
0
  6
BYBLOCK
 62
     0
 10
50.463134
 20
47.447876
 30
0.0
 11
49.203134
 21
47.447876
 31
0.0
  0
SOLID
  8
0
  6
BYBLOCK
 62
     0
 10
53.483134
 20
47.657876
 30
0.0
 11
53.483134
 21
47.237876
 31
0.0
 12
52.223134
 22
47.447876
 32
0.0
 13
52.223134
 23
47.447876
 33
0.0
  0
SOLID
  8
0
  6
BYBLOCK
 62
     0
 10
50.463134
 20
47.657876
 30
0.0
 11
50.463134
 21
47.237876
 31
0.0
 12
51.723134
 22
47.447876
 32
0.0
 13
51.723134
 23
47.447876
 33
0.0
  0
TEXT
  8
0
  6
BYBLOCK
 62
     0
 10
46.276259
 20
47.010376
 30
0.0
 40
0.875
  1
0.500
 41
0.75
  7
TXT
 72
     1
 11
47.424696
 21
47.447876
 31
0.0
 73
     2
  0
POINT
  8
DEFPOINTS
  6
BYBLOCK
 62
     0
 10
52.223134
 20
51.564552
 30
0.0
  0
POINT
  8
DEFPOINTS
  6
BYBLOCK
 62
     0
 10
51.723134
 20
50.564552
 30
0.0
  0
POINT
  8
DEFPOINTS
  6
BYBLOCK
 62
     0
 10
51.723134
 20
47.447876
 30
0.0
  0
ENDBLK
  8
0
  0
BLOCK
  8
0
  2
*D12
 70
    65
 10
0.0
 20
0.0
 30
0.0
  3
*D
  0
LINE
  8
0
  6
BYBLOCK
 62
     0
 10
52.223134
 20
51.123552
 30
0.0
 11
52.223134
 21
46.796876
 31
0.0
  0
LINE
  8
0
  6
BYBLOCK
 62
     0
 10
66.723134
 20
51.123552
 30
0.0
 11
66.723134
 21
46.796876
 31
0.0
  0
LINE
  8
0
  6
BYBLOCK
 62
     0
 10
53.483134
 20
47.447876
 30
0.0
 11
57.421259
 21
47.447876
 31
0.0
  0
LINE
  8
0
  6
BYBLOCK
 62
     0
 10
65.463134
 20
47.447876
 30
0.0
 11
61.525009
 21
47.447876
 31
0.0
  0
SOLID
  8
0
  6
BYBLOCK
 62
     0
 10
53.483134
 20
47.657876
 30
0.0
 11
53.483134
 21
47.237876
 31
0.0
 12
52.223134
 22
47.447876
 32
0.0
 13
52.223134
 23
47.447876
 33
0.0
  0
SOLID
  8
0
  6
BYBLOCK
 62
     0
 10
65.463134
 20
47.657876
 30
0.0
 11
65.463134
 21
47.237876
 31
0.0
 12
66.723134
 22
47.447876
 32
0.0
 13
66.723134
 23
47.447876
 33
0.0
  0
TEXT
  8
0
  6
BYBLOCK
 62
     0
 10
58.051259
 20
47.010376
 30
0.0
 40
0.875
  1
14.500
 41
0.75
  7
TXT
 72
     1
 11
59.473134
 21
47.447876
 31
0.0
 73
     2
  0
POINT
  8
DEFPOINTS
  6
BYBLOCK
 62
     0
 10
52.223134
 20
51.564552
 30
0.0
  0
POINT
  8
DEFPOINTS
  6
BYBLOCK
 62
     0
 10
66.723134
 20
51.564552
 30
0.0
  0
POINT
  8
DEFPOINTS
  6
BYBLOCK
 62
     0
 10
66.723134
 20
47.447876
 30
0.0
  0
ENDBLK
  8
0
  0
BLOCK
  8
0
  2
EC9904
 70
     0
 10
0.0
 20
0.0
 30
0.0
  3
EC9904
  0
LINE
  8
OBJECT
 10
31.606015
 20
41.15826
 30
0.0
 11
52.668015
 21
41.15826
 31
0.0
  0
LINE
  8
OBJECT
 10
52.668015
 20
41.15826
 30
0.0
 11
52.668015
 21
53.72026
 31
0.0
  0
LINE
  8
OBJECT
 10
52.668015
 20
53.72026
 30
0.0
 11
31.606015
 21
53.72026
 31
0.0
  0
LINE
  8
OBJECT
 10
31.606015
 20
53.72026
 30
0.0
 11
31.606015
 21
41.15826
 31
0.0
  0
LINE
  8
OBJECT
 10
83.66875
 20
41.15826
 30
0.0
 11
83.66875
 21
53.72026
 31
0.0
  0
LINE
  8
OBJECT
 10
83.66875
 20
53.72026
 30
0.0
 11
68.16875
 21
53.72026
 31
0.0
  0
LINE
  8
OBJECT
 10
68.16875
 20
53.72026
 30
0.0
 11
68.16875
 21
41.15826
 31
0.0
  0
LINE
  8
OBJECT
 10
51.668015
 20
52.72026
 30
0.0
 11
32.606015
 21
52.72026
 31
0.0
  0
LINE
  8
OBJECT
 10
32.606015
 20
42.15826
 30
0.0
 11
51.668015
 21
42.15826
 31
0.0
  0
LINE
  8
OBJECT
 10
33.231015
 20
52.72026
 30
0.0
 11
33.231015
 21
42.15826
 31
0.0
  0
LINE
  8
OBJECT
 10
68.21575
 20
42.15826
 30
0.0
 11
83.62175
 21
42.15826
 31
0.0
  0
LINE
  8
OBJECT
 10
82.60675
 20
41.20526
 30
0.0
 11
82.60675
 21
41.15826
 31
0.0
  0
LINE
  8
OBJECT
 10
69.23075
 20
41.20526
 30
0.0
 11
69.23075
 21
41.15826
 31
0.0
  0
LINE
  8
OBJECT
 10
83.66875
 20
41.15826
 30
0.0
 11
68.16875
 21
41.15826
 31
0.0
  0
LINE
  8
OBJECT
 10
83.16875
 20
42.15826
 30
0.0
 11
83.16875
 21
52.72026
 31
0.0
  0
TEXT
  8
DIM
 10
19.505127
 20
55.799975
 30
0.0
 40
1.0
  1

  0
TEXT
  8
DIM
 10
19.255127
 20
45.42523
 30
0.0
 40
1.0
  1

  0
TEXT
  8
DIM
 10
19.421794
 20
39.140892
 30
0.0
 40
1.0
  1

  0
TEXT
  8
DIM
 10
1.543474
 20
40.54549
 30
0.0
 40
1.0
  1

  0
TEXT
  8
DIM
 10
35.585973
 20
40.54549
 30
0.0
 40
1.0
  1

  0
TEXT
  8
DIM
 10
86.107065
 20
39.078095
 30
0.0
 40
1.0
  1

  0
TEXT
  8
TEXT
 10
72.280746
 20
36.673075
 30
0.0
 40
0.8125
  1
%%uSECTION "A-A"
 41
0.75
 72
     1
 11
75.845589
 21
36.673075
 31
0.0
  0
TEXT
  8
DIM
 10
75.358746
 20
52.80049
 30
0.0
 40
1.0
  1

  0
TEXT
  8
TEXT
 10
36.041019
 20
36.414473
 30
0.0
 40
0.8125
  1
%%uFRONT & REAR VIEW
 41
0.75
 72
     1
 11
41.230863
 21
36.414473
 31
0.0
  0
TEXT
  8
DIM
 10
77.616184
 20
56.085531
 30
0.0
 40
1.0
  1

  0
LINE
  8
OBJECT
 10
68.21575
 20
53.72026
 30
0.0
 11
68.21575
 21
52.72026
 31
0.0
  0
LINE
  8
OBJECT
 10
68.26275
 20
42.11126
 30
0.0
 11
83.57475
 21
42.11126
 31
0.0
  0
LINE
  8
OBJECT
 10
68.26275
 20
42.11126
 30
0.0
 11
68.26275
 21
41.20526
 31
0.0
  0
LINE
  8
OBJECT
 10
83.57475
 20
41.20526
 30
0.0
 11
82.60675
 21
41.20526
 31
0.0
  0
LINE
  8
OBJECT
 10
83.62175
 20
41.15826
 30
0.0
 11
83.62175
 21
42.15826
 31
0.0
  0
LINE
  8
OBJECT
 10
83.57475
 20
41.20526
 30
0.0
 11
83.57475
 21
42.11126
 31
0.0
  0
LINE
  8
OBJECT
 10
69.23075
 20
41.20526
 30
0.0
 11
68.26275
 21
41.20526
 31
0.0
  0
LINE
  8
OBJECT
 10
68.73075
 20
52.76726
 30
0.0
 11
68.26275
 21
52.76726
 31
0.0
  0
LINE
  8
OBJECT
 10
83.57475
 20
52.76726
 30
0.0
 11
83.57475
 21
53.67326
 31
0.0
  0
LINE
  8
OBJECT
 10
83.57475
 20
52.76726
 30
0.0
 11
83.10675
 21
52.76726
 31
0.0
  0
LINE
  8
OBJECT
 10
68.26275
 20
53.67326
 30
0.0
 11
68.26275
 21
52.76726
 31
0.0
  0
LINE
  8
OBJECT
 10
68.26275
 20
53.67326
 30
0.0
 11
83.57475
 21
53.67326
 31
0.0
  0
LINE
  8
OBJECT
 10
83.62175
 20
52.72026
 30
0.0
 11
83.10675
 21
52.72026
 31
0.0
  0
LINE
  8
OBJECT
 10
83.12175
 20
42.15826
 30
0.0
 11
83.12175
 21
52.72026
 31
0.0
  0
LINE
  8
OBJECT
 10
68.73075
 20
52.76726
 30
0.0
 11
68.73075
 21
52.72026
 31
0.0
  0
LINE
  8
OBJECT
 10
68.73075
 20
52.72026
 30
0.0
 11
68.21575
 21
52.72026
 31
0.0
  0
LINE
  8
OBJECT
 10
83.10675
 20
52.76726
 30
0.0
 11
83.10675
 21
52.72026
 31
0.0
  0
LINE
  8
OBJECT
 10
83.62175
 20
52.72026
 30
0.0
 11
83.62175
 21
53.72026
 31
0.0
  0
LINE
  8
HIDDEN
 10
83.62175
 20
42.15826
 30
0.0
 11
83.62175
 21
52.72026
 31
0.0
  0
POLYLINE
  8
OBJECT
 66
     1
 10
0.0
 20
0.0
 30
0.0
  0
VERTEX
  8
OBJECT
 10
73.31875
 20
50.65826
 30
0.0
  0
VERTEX
  8
OBJECT
 10
78.51875
 20
50.65826
 30
0.0
  0
VERTEX
  8
OBJECT
 10
78.51875
 20
51.86826
 30
0.0
  0
VERTEX
  8
OBJECT
 10
73.31875
 20
51.86826
 30
0.0
  0
VERTEX
  8
OBJECT
 10
73.31875
 20
50.65826
 30
0.0
  0
SEQEND
  8
OBJECT
  0
LINE
  8
CENTER
 10
75.55875
 20
51.26326
 30
0.0
 11
76.27875
 21
51.26326
 31
0.0
  0
LINE
  8
CENTER
 10
75.91875
 20
50.90326
 30
0.0
 11
75.91875
 21
51.62326
 31
0.0
  0
LINE
  8
OBJECT
 10
68.71575
 20
42.15826
 30
0.0
 11
68.71575
 21
52.72026
 31
0.0
  0
LINE
  8
OBJECT
 10
68.66875
 20
42.15826
 30
0.0
 11
68.66875
 21
52.72026
 31
0.0
  0
LINE
  8
HIDDEN
 10
68.21575
 20
42.15826
 30
0.0
 11
68.21575
 21
52.72026
 31
0.0
  0
LINE
  8
OBJECT
 10
68.21575
 20
42.15826
 30
0.0
 11
68.21575
 21
41.15826
 31
0.0
  0
LINE
  8
OBJECT
 10
32.606015
 20
53.72026
 30
0.0
 11
32.606015
 21
41.15826
 31
0.0
  0
CIRCLE
  8
OBJECT
 10
32.981015
 20
45.93926
 30
0.0
 40
0.1405
  0
CIRCLE
  8
OBJECT
 10
32.981015
 20
46.56426
 30
0.0
 40
0.1405
  0
CIRCLE
  8
OBJECT
 10
32.981015
 20
47.18926
 30
0.0
 40
0.1405
  0
CIRCLE
  8
OBJECT
 10
32.981015
 20
47.68926
 30
0.0
 40
0.1405
  0
CIRCLE
  8
OBJECT
 10
32.981015
 20
48.31426
 30
0.0
 40
0.1405
  0
CIRCLE
  8
OBJECT
 10
32.981015
 20
48.93926
 30
0.0
 40
0.1405
  0
CIRCLE
  8
OBJECT
 10
32.981015
 20
49.43926
 30
0.0
 40
0.1405
  0
CIRCLE
  8
OBJECT
 10
32.981015
 20
50.06426
 30
0.0
 40
0.1405
  0
CIRCLE
  8
OBJECT
 10
32.981015
 20
50.68926
 30
0.0
 40
0.1405
  0
CIRCLE
  8
OBJECT
 10
32.981015
 20
51.18926
 30
0.0
 40
0.1405
  0
CIRCLE
  8
OBJECT
 10
32.981015
 20
51.81426
 30
0.0
 40
0.1405
  0
CIRCLE
  8
OBJECT
 10
32.981015
 20
52.43926
 30
0.0
 40
0.1405
  0
LINE
  8
HIDDEN
 10
32.606015
 20
52.72026
 30
0.0
 11
31.653015
 21
52.72026
 31
0.0
  0
LINE
  8
HIDDEN
 10
32.606015
 20
42.15826
 30
0.0
 11
31.653015
 21
42.15826
 31
0.0
  0
LINE
  8
HIDDEN
 10
51.668015
 20
42.15826
 30
0.0
 11
52.621015
 21
42.15826
 31
0.0
  0
LINE
  8
HIDDEN
 10
51.668015
 20
52.72026
 30
0.0
 11
52.621015
 21
52.72026
 31
0.0
  0
CIRCLE
  8
OBJECT
 10
51.293015
 20
52.43926
 30
0.0
 40
0.1405
  0
CIRCLE
  8
OBJECT
 10
51.293015
 20
51.81426
 30
0.0
 40
0.1405
  0
CIRCLE
  8
OBJECT
 10
51.293015
 20
51.18926
 30
0.0
 40
0.1405
  0
CIRCLE
  8
OBJECT
 10
51.293015
 20
50.68926
 30
0.0
 40
0.1405
  0
CIRCLE
  8
OBJECT
 10
51.293015
 20
50.06426
 30
0.0
 40
0.1405
  0
CIRCLE
  8
OBJECT
 10
51.293015
 20
49.43926
 30
0.0
 40
0.1405
  0
CIRCLE
  8
OBJECT
 10
51.293015
 20
48.93926
 30
0.0
 40
0.1405
  0
CIRCLE
  8
OBJECT
 10
51.293015
 20
48.31426
 30
0.0
 40
0.1405
  0
CIRCLE
  8
OBJECT
 10
51.293015
 20
47.68926
 30
0.0
 40
0.1405
  0
CIRCLE
  8
OBJECT
 10
51.293015
 20
47.18926
 30
0.0
 40
0.1405
  0
CIRCLE
  8
OBJECT
 10
51.293015
 20
46.56426
 30
0.0
 40
0.1405
  0
CIRCLE
  8
OBJECT
 10
51.293015
 20
45.93926
 30
0.0
 40
0.1405
  0
LINE
  8
OBJECT
 10
51.043015
 20
52.72026
 30
0.0
 11
51.043015
 21
42.15826
 31
0.0
  0
LINE
  8
OBJECT
 10
51.668015
 20
53.72026
 30
0.0
 11
51.668015
 21
41.15826
 31
0.0
  0
LINE
  8
OBJECT
 10
31.606015
 20
32.617983
 30
0.0
 11
32.606015
 21
32.617983
 31
0.0
  0
LINE
  8
OBJECT
 10
31.606015
 20
17.117983
 30
0.0
 11
31.606015
 21
32.617983
 31
0.0
  0
LINE
  8
OBJECT
 10
31.653015
 20
17.164983
 30
0.0
 11
31.653015
 21
32.570983
 31
0.0
  0
LINE
  8
OBJECT
 10
31.653015
 20
32.570983
 30
0.0
 11
52.621015
 21
32.570983
 31
0.0
  0
LINE
  8
OBJECT
 10
32.606015
 20
32.570983
 30
0.0
 11
32.606015
 21
32.617983
 31
0.0
  0
LINE
  8
OBJECT
 10
31.731015
 20
31.570983
 30
0.0
 11
52.543015
 21
31.570983
 31
0.0
  0
LINE
  8
OBJECT
 10
31.731015
 20
31.570983
 30
0.0
 11
31.731015
 21
32.570983
 31
0.0
  0
LINE
  8
OBJECT
 10
31.700015
 20
17.164983
 30
0.0
 11
31.700015
 21
32.570983
 31
0.0
  0
LINE
  8
OBJECT
 10
31.731015
 20
18.164983
 30
0.0
 11
31.731015
 21
17.164983
 31
0.0
  0
LINE
  8
OBJECT
 10
32.606015
 20
17.164983
 30
0.0
 11
32.606015
 21
17.117983
 31
0.0
  0
LINE
  8
OBJECT
 10
31.606015
 20
17.117983
 30
0.0
 11
32.606015
 21
17.117983
 31
0.0
  0
LINE
  8
OBJECT
 10
31.653015
 20
17.164983
 30
0.0
 11
52.621015
 21
17.164983
 31
0.0
  0
LINE
  8
OBJECT
 10
31.731015
 20
18.164983
 30
0.0
 11
52.543015
 21
18.164983
 31
0.0
  0
LINE
  8
OBJECT
 10
52.668015
 20
17.117983
 30
0.0
 11
51.668015
 21
17.117983
 31
0.0
  0
LINE
  8
OBJECT
 10
51.668015
 20
17.164983
 30
0.0
 11
51.668015
 21
17.117983
 31
0.0
  0
LINE
  8
OBJECT
 10
52.543015
 20
18.164983
 30
0.0
 11
52.543015
 21
17.164983
 31
0.0
  0
LINE
  8
OBJECT
 10
52.574015
 20
17.164983
 30
0.0
 11
52.574015
 21
32.570983
 31
0.0
  0
LINE
  8
OBJECT
 10
52.543015
 20
31.570983
 30
0.0
 11
52.543015
 21
32.570983
 31
0.0
  0
LINE
  8
OBJECT
 10
51.668015
 20
32.570983
 30
0.0
 11
51.668015
 21
32.617983
 31
0.0
  0
LINE
  8
OBJECT
 10
52.621015
 20
17.164983
 30
0.0
 11
52.621015
 21
32.570983
 31
0.0
  0
LINE
  8
OBJECT
 10
52.668015
 20
17.117983
 30
0.0
 11
52.668015
 21
32.617983
 31
0.0
  0
LINE
  8
OBJECT
 10
52.668015
 20
32.617983
 30
0.0
 11
51.668015
 21
32.617983
 31
0.0
  0
LINE
  8
HIDDEN
 10
2.229295
 20
41.15826
 30
0.0
 11
2.229295
 21
53.72026
 31
0.0
  0
LINE
  8
HIDDEN
 10
2.682295
 20
42.15826
 30
0.0
 11
2.682295
 21
52.72026
 31
0.0
  0
LINE
  8
HIDDEN
 10
2.729295
 20
42.15826
 30
0.0
 11
2.729295
 21
52.72026
 31
0.0
  0
LINE
  8
CENTER
 10
9.932295
 20
50.90326
 30
0.0
 11
9.932295
 21
51.62326
 31
0.0
  0
LINE
  8
CENTER
 10
9.572295
 20
51.26326
 30
0.0
 11
10.292295
 21
51.26326
 31
0.0
  0
POLYLINE
  8
HIDDEN
 66
     1
 10
0.0
 20
0.0
 30
0.0
  0
VERTEX
  8
HIDDEN
 10
7.332295
 20
50.65826
 30
0.0
  0
VERTEX
  8
HIDDEN
 10
12.532295
 20
50.65826
 30
0.0
  0
VERTEX
  8
HIDDEN
 10
12.532295
 20
51.86826
 30
0.0
  0
VERTEX
  8
HIDDEN
 10
7.332295
 20
51.86826
 30
0.0
  0
VERTEX
  8
HIDDEN
 10
7.332295
 20
50.65826
 30
0.0
  0
SEQEND
  8
HIDDEN
  0
LINE
  8
HIDDEN
 10
17.635295
 20
41.15826
 30
0.0
 11
17.635295
 21
53.72026
 31
0.0
  0
LINE
  8
HIDDEN
 10
17.120295
 20
52.76726
 30
0.0
 11
17.120295
 21
52.72026
 31
0.0
  0
LINE
  8
HIDDEN
 10
2.744295
 20
52.72026
 30
0.0
 11
2.229295
 21
52.72026
 31
0.0
  0
LINE
  8
HIDDEN
 10
2.744295
 20
52.76726
 30
0.0
 11
2.744295
 21
52.72026
 31
0.0
  0
LINE
  8
HIDDEN
 10
17.135295
 20
42.15826
 30
0.0
 11
17.135295
 21
52.72026
 31
0.0
  0
LINE
  8
HIDDEN
 10
17.635295
 20
52.72026
 30
0.0
 11
17.120295
 21
52.72026
 31
0.0
  0
LINE
  8
HIDDEN
 10
2.276295
 20
53.67326
 30
0.0
 11
17.588295
 21
53.67326
 31
0.0
  0
LINE
  8
HIDDEN
 10
2.276295
 20
53.67326
 30
0.0
 11
2.276295
 21
52.76726
 31
0.0
  0
LINE
  8
HIDDEN
 10
17.588295
 20
52.76726
 30
0.0
 11
17.120295
 21
52.76726
 31
0.0
  0
LINE
  8
HIDDEN
 10
17.588295
 20
52.76726
 30
0.0
 11
17.588295
 21
53.67326
 31
0.0
  0
LINE
  8
HIDDEN
 10
2.744295
 20
52.76726
 30
0.0
 11
2.276295
 21
52.76726
 31
0.0
  0
LINE
  8
HIDDEN
 10
3.244295
 20
41.20526
 30
0.0
 11
2.276295
 21
41.20526
 31
0.0
  0
LINE
  8
HIDDEN
 10
17.588295
 20
41.20526
 30
0.0
 11
17.588295
 21
42.11126
 31
0.0
  0
LINE
  8
HIDDEN
 10
17.588295
 20
41.20526
 30
0.0
 11
16.620295
 21
41.20526
 31
0.0
  0
LINE
  8
HIDDEN
 10
2.276295
 20
42.11126
 30
0.0
 11
2.276295
 21
41.20526
 31
0.0
  0
LINE
  8
HIDDEN
 10
2.276295
 20
42.11126
 30
0.0
 11
17.588295
 21
42.11126
 31
0.0
  0
LINE
  8
HIDDEN
 10
17.182295
 20
42.15826
 30
0.0
 11
17.182295
 21
52.72026
 31
0.0
  0
LINE
  8
OBJECT
 10
17.682295
 20
41.15826
 30
0.0
 11
2.182295
 21
41.15826
 31
0.0
  0
LINE
  8
HIDDEN
 10
3.244295
 20
41.20526
 30
0.0
 11
3.244295
 21
41.15826
 31
0.0
  0
LINE
  8
HIDDEN
 10
16.620295
 20
41.20526
 30
0.0
 11
16.620295
 21
41.15826
 31
0.0
  0
LINE
  8
HIDDEN
 10
2.229295
 20
42.15826
 30
0.0
 11
17.635295
 21
42.15826
 31
0.0
  0
LINE
  8
OBJECT
 10
2.182295
 20
53.72026
 30
0.0
 11
2.182295
 21
41.15826
 31
0.0
  0
LINE
  8
OBJECT
 10
17.682295
 20
53.72026
 30
0.0
 11
2.182295
 21
53.72026
 31
0.0
  0
LINE
  8
OBJECT
 10
17.682295
 20
41.15826
 30
0.0
 11
17.682295
 21
53.72026
 31
0.0
  0
TEXT
  8
TEXT
 10
38.774253
 20
14.031261
 30
0.0
 40
0.8125
  1
%%uBOTTOM VIEW
 41
0.75
 72
     1
 11
42.135972
 21
14.031261
 31
0.0
  0
TEXT
  8
TEXT
 10
7.127527
 20
36.414473
 30
0.0
 40
0.8125
  1
%%uSIDE VIEW
 41
0.75
 72
     1
 11
9.778308
 21
36.414473
 31
0.0
  0
POLYLINE
  8
DIM
 66
     1
 10
0.0
 20
0.0
 30
0.0
  0
VERTEX
  8
DIM
 10
7.232295
 20
50.56326
 30
0.0
  0
VERTEX
  8
DIM
 10
12.632295
 20
50.56326
 30
0.0
  0
VERTEX
  8
DIM
 10
12.632295
 20
51.96326
 30
0.0
  0
VERTEX
  8
DIM
 10
7.232295
 20
51.96326
 30
0.0
  0
VERTEX
  8
DIM
 10
7.232295
 20
50.56326
 30
0.0
  0
SEQEND
  8
DIM
  0
POLYLINE
  8
DIM
 66
     1
 10
0.0
 20
0.0
 30
0.0
  0
VERTEX
  8
DIM
 10
7.432295
 20
50.76326
 30
0.0
  0
VERTEX
  8
DIM
 10
12.432295
 20
50.76326
 30
0.0
  0
VERTEX
  8
DIM
 10
12.432295
 20
51.76326
 30
0.0
  0
VERTEX
  8
DIM
 10
7.432295
 20
51.76326
 30
0.0
  0
VERTEX
  8
DIM
 10
7.432295
 20
50.76326
 30
0.0
  0
SEQEND
  8
DIM
  0
LINE
  8
DIM
 10
31.528015
 20
50.56326
 30
0.0
 11
31.606015
 21
50.56326
 31
0.0
  0
LINE
  8
DIM
 10
31.606015
 20
51.96326
 30
0.0
 11
31.528015
 21
51.96326
 31
0.0
  0
LINE
  8
DIM
 10
31.528015
 20
50.56326
 30
0.0
 11
31.528015
 21
51.96326
 31
0.0
  0
LINE
  8
HIDDEN
 10
32.256015
 20
51.94209
 30
0.0
 11
32.256015
 21
51.314265
 31
0.0
  0
LINE
  8
HIDDEN
 10
31.606015
 20
50.76326
 30
0.0
 11
32.186015
 21
51.34326
 31
0.0
  0
LINE
  8
HIDDEN
 10
31.606015
 20
51.76326
 30
0.0
 11
31.902345
 21
52.05959
 31
0.0
  0
LINE
  8
HIDDEN
 10
31.606015
 20
51.862255
 30
0.0
 11
31.852847
 21
52.109087
 31
0.0
  0
ARC
  8
HIDDEN
 10
32.019845
 20
51.94209
 30
0.0
 40
0.23617
 50
0.0
 51
135.0
  0
ARC
  8
HIDDEN
 10
32.019845
 20
51.94209
 30
0.0
 40
0.16617
 50
0.0
 51
135.0
  0
LINE
  8
HIDDEN
 10
32.186015
 20
51.94209
 30
0.0
 11
32.186015
 21
51.34326
 31
0.0
  0
LINE
  8
HIDDEN
 10
31.606015
 20
50.664265
 30
0.0
 11
32.256015
 21
51.314265
 31
0.0
  0
LINE
  8
HIDDEN
 10
52.668015
 20
50.664265
 30
0.0
 11
52.018015
 21
51.314265
 31
0.0
  0
LINE
  8
HIDDEN
 10
52.088015
 20
51.94209
 30
0.0
 11
52.088015
 21
51.34326
 31
0.0
  0
ARC
  8
HIDDEN
 10
52.254185
 20
51.94209
 30
0.0
 40
0.16617
 50
45.0
 51
180.0
  0
ARC
  8
HIDDEN
 10
52.254185
 20
51.94209
 30
0.0
 40
0.23617
 50
45.0
 51
180.0
  0
LINE
  8
HIDDEN
 10
52.668015
 20
51.862255
 30
0.0
 11
52.421182
 21
52.109087
 31
0.0
  0
LINE
  8
HIDDEN
 10
52.668015
 20
51.76326
 30
0.0
 11
52.371685
 21
52.05959
 31
0.0
  0
LINE
  8
HIDDEN
 10
52.668015
 20
50.76326
 30
0.0
 11
52.088015
 21
51.34326
 31
0.0
  0
LINE
  8
HIDDEN
 10
52.018015
 20
51.94209
 30
0.0
 11
52.018015
 21
51.314265
 31
0.0
  0
LINE
  8
DIM
 10
52.746015
 20
50.56326
 30
0.0
 11
52.746015
 21
51.96326
 31
0.0
  0
LINE
  8
DIM
 10
52.668015
 20
51.96326
 30
0.0
 11
52.746015
 21
51.96326
 31
0.0
  0
LINE
  8
DIM
 10
52.746015
 20
50.56326
 30
0.0
 11
52.668015
 21
50.56326
 31
0.0
  0
LINE
  8
DIM
 10
31.606015
 20
27.567983
 30
0.0
 11
31.536015
 21
27.567983
 31
0.0
  0
LINE
  8
DIM
 10
31.606015
 20
22.167983
 30
0.0
 11
31.536015
 21
22.167983
 31
0.0
  0
LINE
  8
DIM
 10
31.536015
 20
22.167983
 30
0.0
 11
31.536015
 21
27.567983
 31
0.0
  0
LINE
  8
DIM
 10
52.738015
 20
22.167983
 30
0.0
 11
52.738015
 21
27.567983
 31
0.0
  0
LINE
  8
DIM
 10
52.668015
 20
22.167983
 30
0.0
 11
52.738015
 21
22.167983
 31
0.0
  0
LINE
  8
DIM
 10
52.668015
 20
27.567983
 30
0.0
 11
52.738015
 21
27.567983
 31
0.0
  0
CIRCLE
  8
OBJECT
 10
32.981015
 20
45.43926
 30
0.0
 40
0.1405
  0
CIRCLE
  8
OBJECT
 10
32.981015
 20
44.81426
 30
0.0
 40
0.1405
  0
CIRCLE
  8
OBJECT
 10
32.981015
 20
44.18926
 30
0.0
 40
0.1405
  0
CIRCLE
  8
OBJECT
 10
51.293015
 20
45.43926
 30
0.0
 40
0.1405
  0
CIRCLE
  8
OBJECT
 10
51.293015
 20
44.81426
 30
0.0
 40
0.1405
  0
CIRCLE
  8
OBJECT
 10
51.293015
 20
44.18926
 30
0.0
 40
0.1405
  0
CIRCLE
  8
OBJECT
 10
32.981015
 20
42.43926
 30
0.0
 40
0.1405
  0
CIRCLE
  8
OBJECT
 10
32.981015
 20
43.06426
 30
0.0
 40
0.1405
  0
CIRCLE
  8
OBJECT
 10
32.981015
 20
43.68926
 30
0.0
 40
0.1405
  0
CIRCLE
  8
OBJECT
 10
51.293015
 20
42.43926
 30
0.0
 40
0.1405
  0
CIRCLE
  8
OBJECT
 10
51.293015
 20
43.06426
 30
0.0
 40
0.1405
  0
CIRCLE
  8
OBJECT
 10
51.293015
 20
43.68926
 30
0.0
 40
0.1405
  0
TEXT
  8
DIM
 10
19.505127
 20
126.639975
 30
0.0
 40
1.0
  1

  0
TEXT
  8
DIM
 10
19.255127
 20
116.26523
 30
0.0
 40
1.0
  1

  0
TEXT
  8
DIM
 10
19.421794
 20
109.980892
 30
0.0
 40
1.0
  1

  0
TEXT
  8
DIM
 10
1.543474
 20
111.38549
 30
0.0
 40
1.0
  1

  0
TEXT
  8
DIM
 10
35.585973
 20
111.38549
 30
0.0
 40
1.0
  1

  0
TEXT
  8
DIM
 10
86.107065
 20
109.918095
 30
0.0
 40
1.0
  1

  0
TEXT
  8
TEXT
 10
37.572268
 20
39.365834
 30
0.0
 40
0.8125
  1
A
 41
0.75
  0
TEXT
  8
TEXT
 10
37.572268
 20
55.106357
 30
0.0
 40
0.8125
  1
A
 41
0.75
  0
TEXT
  8
DIM
 10
75.358746
 20
123.64049
 30
0.0
 40
1.0
  1

  0
TEXT
  8
DIM
 10
77.616184
 20
126.925531
 30
0.0
 40
1.0
  1

  0
DIMENSION
  8
DIM
  2
*D17
 10
52.668015
 20
59.843145
 30
0.0
 11
42.137015
 21
59.843145
 31
0.0
 12
0.0
 22
-74.34
 32
0.0
  1
<> %%P0.031
 13
31.606015
 23
53.72026
 33
0.0
 14
52.668015
 24
53.72026
 34
0.0
  3
23NSTD
  0
DIMENSION
  8
DIM
  2
*D18
 10
51.293015
 20
48.492137
 30
0.0
 11
42.137015
 21
48.492137
 31
0.0
 12
0.0
 22
-73.80881
 32
0.0
 70
   128
  1
<> %%P0.062
 13
32.981015
 23
49.47045
 33
0.0
 14
51.293015
 24
49.47045
 34
0.0
  0
DIMENSION
  8
DIM
  2
*D19
 10
51.043015
 20
50.88163
 30
0.0
 11
42.137015
 21
50.88163
 31
0.0
 12
0.0
 22
-73.80881
 32
0.0
 70
   128
  1
<> %%P0.062
 13
33.231015
 23
50.938802
 33
0.0
 14
51.043015
 24
50.938802
 34
0.0
  0
DIMENSION
  8
DIM
  2
*D20
 10
51.668015
 20
57.373145
 30
0.0
 11
42.137015
 21
57.373145
 31
0.0
 12
0.0
 22
-74.34
 32
0.0
  1
<> %%P0.031
 13
32.606015
 23
53.72026
 33
0.0
 14
51.668015
 24
53.72026
 34
0.0
  0
DIMENSION
  8
DIM
  2
*D21
 10
52.668015
 20
57.373145
 30
0.0
 11
58.278952
 21
57.373145
 31
0.0
 12
0.0
 22
-74.34
 32
0.0
  1
<> REF.
 13
51.668015
 23
53.72026
 33
0.0
 14
52.668015
 24
53.72026
 34
0.0
  0
DIMENSION
  8
DIM
  2
*D27
 10
26.993362
 20
42.15826
 30
0.0
 11
26.993362
 21
47.43926
 31
0.0
  1
<> %%P0.031
 13
31.653015
 23
52.72026
 33
0.0
 14
31.653015
 24
42.15826
 34
0.0
 50
90.0
  0
DIMENSION
  8
DIM
  2
*D22
 10
26.993362
 20
41.15826
 30
0.0
 11
22.642424
 21
38.63826
 31
0.0
 12
0.0
 22
-70.84
 32
0.0
  1
<> REF.
 13
31.653015
 23
42.15826
 33
0.0
 14
31.606015
 24
41.15826
 34
0.0
 50
90.0
  0
DIMENSION
  8
DIM
  2
*D26
 10
57.773276
 20
41.15826
 30
0.0
 11
57.773276
 21
47.43926
 31
0.0
  1
<> %%P0.062
 13
52.668015
 23
53.72026
 33
0.0
 14
52.668015
 24
41.15826
 34
0.0
 50
90.0
  0
DIMENSION
  8
DIM
  2
*D23
 10
68.66875
 20
48.492137
 30
0.0
 11
75.91875
 21
48.492137
 31
0.0
 12
1.782286
 22
-74.34
 32
0.0
 13
83.16875
 23
49.102334
 33
0.0
 14
68.66875
 24
49.102334
 34
0.0
  0
DIMENSION
  8
DIM
  2
*D24
 10
68.16875
 20
48.492137
 30
0.0
 11
63.870312
 21
48.492137
 31
0.0
 12
1.782286
 22
-74.34
 32
0.0
 13
68.66875
 23
49.102334
 33
0.0
 14
68.16875
 24
49.102334
 34
0.0
  0
DIMENSION
  8
DIM
  2
*D25
 10
17.682295
 20
59.843145
 30
0.0
 11
9.932295
 21
59.843145
 31
0.0
 12
0.0
 22
-74.34
 32
0.0
 13
2.182295
 23
53.72026
 33
0.0
 14
17.682295
 24
53.72026
 34
0.0
  3
23NSTDX
  0
POLYLINE
  8
DIM
 66
     1
 10
0.0
 20
0.0
 30
0.0
 41
0.43884
  0
VERTEX
  8
DIM
 10
17.682295
 20
53.72026
 30
0.0
  0
VERTEX
  8
DIM
 10
18.614714
 20
54.427405
 30
0.0
 41
0.0
  0
VERTEX
  8
DIM
 10
20.314715
 20
55.716683
 30
0.0
 41
0.0
 42
1.0
  0
VERTEX
  8
DIM
 10
22.257257
 20
57.189904
 30
0.0
 41
0.0
 42
1.0
  0
VERTEX
  8
DIM
 10
20.314715
 20
55.716683
 30
0.0
 41
0.0
 42
0.677103
  0
SEQEND
  8
DIM
  0
TEXT
  8
DIM
 10
21.184403
 20
56.04696
 30
0.0
 40
0.812667
  1
1
 41
0.75
 72
     4
 11
21.285986
 21
56.453294
 31
0.0
  0
POLYLINE
  8
DIM
 66
     1
 10
0.0
 20
0.0
 30
0.0
 41
0.43884
  0
VERTEX
  8
DIM
 10
12.632295
 20
50.56326
 30
0.0
  0
VERTEX
  8
DIM
 10
13.736728
 20
50.176363
 30
0.0
 41
0.0
  0
VERTEX
  8
DIM
 10
18.85478
 20
48.708802
 30
0.0
 41
0.0
 42
1.0
  0
VERTEX
  8
DIM
 10
21.155683
 20
47.902767
 30
0.0
 41
0.0
 42
1.0
  0
VERTEX
  8
DIM
 10
18.85478
 20
48.708802
 30
0.0
 41
0.0
 42
0.863883
  0
SEQEND
  8
DIM
  0
TEXT
  8
DIM
 10
19.802065
 20
47.899451
 30
0.0
 40
0.812667
  1
2
 41
0.75
 72
     4
 11
20.005231
 21
48.305784
 31
0.0
  0
POLYLINE
  8
DIM
 66
     1
 10
0.0
 20
0.0
 30
0.0
 41
0.43884
  0
VERTEX
  8
DIM
 10
16.899539
 20
40.968975
 30
0.0
  0
VERTEX
  8
DIM
 10
17.377332
 20
39.900716
 30
0.0
 41
0.0
  0
VERTEX
  8
DIM
 10
18.044442
 20
38.409179
 30
0.0
 41
0.0
 42
1.0
  0
VERTEX
  8
DIM
 10
19.039844
 20
36.183641
 30
0.0
 41
0.0
 42
1.0
  0
VERTEX
  8
DIM
 10
18.044442
 20
38.409179
 30
0.0
 41
0.0
 42
1.0
  0
SEQEND
  8
DIM
  0
TEXT
  8
DIM
 10
18.338977
 20
36.890077
 30
0.0
 40
0.812667
  1
3
 41
0.75
 72
     4
 11
18.542143
 21
37.29641
 31
0.0
  0
TEXT
  8
TEXT
 10
1.422854
 20
15.101325
 30
0.0
 40
0.8125
  1
%%uNOTES:
 41
0.75
  0
TEXT
  8
TEXT
 10
2.207224
 20
13.747158
 30
0.0
 40
0.8125
  1
%%uMATERIAL:%%u BODY ASSEMBLY
 41
0.75
  0
TEXT
  8
TEXT
 10
7.697813
 20
12.392992
 30
0.0
 40
0.8125
  1
HANDLE
 41
0.75
  0
TEXT
  8
TEXT
 10
7.697813
 20
11.038825
 30
0.0
 40
0.8125
  1
FOOT
 41
0.75
  0
TEXT
  8
TEXT
 10
2.207224
 20
9.684658
 30
0.0
 40
0.8125
  1
%%uFINISH:%%u BODY ASSEMBLY
 41
0.75
  0
TEXT
  8
TEXT
 10
6.403602
 20
6.978492
 30
0.0
 40
0.8125
  1
HANDLE
 41
0.75
  0
TEXT
  8
TEXT
 10
6.403602
 20
5.624325
 30
0.0
 40
0.8125
  1
FOOT
 41
0.75
  0
TEXT
  8
TEXT
 10
19.541797
 20
13.783721
 30
0.0
 40
0.8125
  1
18 GA. STEEL
 41
0.75
  0
TEXT
  8
TEXT
 10
19.541797
 20
12.429554
 30
0.0
 40
0.8125
  1
ABS PLASTIC
 41
0.75
  0
TEXT
  8
TEXT
 10
19.541797
 20
11.075387
 30
0.0
 40
0.8125
  1
RUBBER
 41
0.75
  0
TEXT
  8
TEXT
 10
19.541797
 20
7.015054
 30
0.0
 40
0.8125
  1
BLACK
 41
0.75
  0
TEXT
  8
TEXT
 10
19.541797
 20
5.660887
 30
0.0
 40
0.8125
  1
BLACK
 41
0.75
  0
LINE
  8
TEXT
 10
15.713612
 20
13.709741
 30
0.0
 11
19.086402
 21
13.709741
 31
0.0
  0
LINE
  8
TEXT
 10
11.59567
 20
12.357741
 30
0.0
 11
19.086402
 21
12.357741
 31
0.0
  0
LINE
  8
TEXT
 10
10.223023
 20
11.005741
 30
0.0
 11
19.086402
 21
11.005741
 31
0.0
  0
LINE
  8
TEXT
 10
14.340965
 20
9.653741
 30
0.0
 11
19.086402
 21
9.653741
 31
0.0
  0
LINE
  8
TEXT
 10
10.419116
 20
6.949741
 30
0.0
 11
19.086402
 21
6.949741
 31
0.0
  0
LINE
  8
TEXT
 10
8.968032
 20
5.597741
 30
0.0
 11
19.086402
 21
5.597741
 31
0.0
  0
TEXT
  8
TEXT
 10
2.360702
 20
2.956887
 30
0.0
 40
0.8125
  1
MOUNTING RAILS ARE PIERCED 0.281 DIA. HOLES
 41
0.75
  0
TEXT
  8
TEXT
 10
3.229424
 20
1.602721
 30
0.0
 40
0.8125
  1
ON E.I.A. UNIVERSAL SPACING.
 41
0.75
  0
TEXT
  8
TEXT
 10
19.426515
 20
9.653741
 30
0.0
 40
0.8125
  1
#3343-P SAND TEXTURED "S"
 41
0.75
  0
TEXT
  8
TEXT
 10
19.426515
 20
8.299574
 30
0.0
 40
0.8125
  1
#4083-P BLACK TEXTURED "BT"
 41
0.75
  0
TEXT
  8
TEXT
 10
69.870641
 20
15.632149
 30
0.0
 40
0.8125
  1
* NOT SHOWN
 41
0.75
 72
     2
 11
76.573766
 21
15.632149
 31
0.0
  0
TEXT
  8
TEXT
 10
64.062186
 20
13.188495
 30
0.0
 40
0.8125
  1
*
 41
0.75
 72
     2
 11
64.468436
 21
13.188495
 31
0.0
  0
INSERT
  8
DIM
 66
     1
  2
B
 10
0.0
 20
0.0
 30
0.0
 41
6.5
 42
6.5
 43
6.5
  0
ATTRIB
  8
TEXT
 10
67.293528
 20
3.506133
 30
0.0
 40
0.8125
  1
KAO
  2
NAME
 70
     4
 41
0.75
 72
     1
 11
68.106028
 21
3.506133
 31
0.0
  0
ATTRIB
  8
TEXT
 10
70.899471
 20
3.506133
 30
0.0
 40
0.8125
  1
9-4-96
  2
DATE
 70
     4
 41
0.75
 72
     1
 11
72.626034
 21
3.506133
 31
0.0
  0
ATTRIB
  8
TEXT
 10
91.482611
 20
4.79887
 30
0.0
 40
0.8125
  1
ECONOCAB
  2
TITLE1
 70
     4
 41
0.75
 72
     1
 11
93.818548
 21
4.79887
 31
0.0
  0
ATTRIB
  8
TEXT
 10
93.513861
 20
3.32145
 30
0.0
 40
0.8125
  1
 
  2
TITLE2
 70
     4
 41
0.75
 72
     1
 11
93.818548
 21
3.32145
 31
0.0
  0
ATTRIB
  8
TEXT
 10
92.593603
 20
0.768133
 30
0.0
 40
1.014
  1
EC-9904
  2
PART
 70
     4
 41
0.75
 72
     1
 11
95.065228
 21
0.768133
 31
0.0
  0
ATTRIB
  8
TEXT
 10
92.593603
 20
63.684665
 30
0.0
 40
1.014
  1
EC-9904
  2
PART
 70
     4
 41
0.75
 72
     1
 11
95.065228
 21
63.684665
 31
0.0
  0
ATTRIB
  8
TEXT
 10
39.369834
 20
7.68308
 30
0.0
 40
0.8125
  1

  2
CUTSIZE
 70
     4
 41
4.936416
 72
     5
 11
64.771811
 21
7.68308
 31
0.0
  0
ATTRIB
  8
TEXT
 10
40.45713
 20
1.864062
 30
0.0
 40
0.8125
  1

  2
QTY
 70
     4
 41
0.75
 72
     1
 11
40.45713
 21
1.864062
 31
0.0
  0
ATTRIB
  8
TEXT
 10
46.403852
 20
1.864062
 30
0.0
 40
0.8125
  1

  2
USED
 70
     4
 41
0.75
 72
     1
 11
46.403852
 21
1.864062
 31
0.0
  0
ATTRIB
  8
TEXT
 10
69.705878
 20
6.21096
 30
0.0
 40
0.8125
  1
AS NOTED
  2
MAT
 70
     4
 41
0.75
 72
     1
 11
72.041815
 21
6.21096
 31
0.0
  0
ATTRIB
  8
TEXT
 10
69.705878
 20
4.833752
 30
0.0
 40
0.8125
  1
AS NOTED
  2
FINISH
 70
     4
 41
0.75
 72
     1
 11
72.041815
 21
4.833752
 31
0.0
  0
SEQEND
  8
DIM
  0
INSERT
  8
DIM
 66
     1
  2
REVCHART
 10
84.90625
 20
61.31125
 30
0.0
 41
6.5
 42
6.5
 43
6.5
  0
ATTRIB
  8
TEXT
 10
86.69375
 20
59.364415
 30
0.0
 40
0.975
  1
A
  2
REV
 70
     4
 41
0.75
 72
     4
 11
86.9375
 21
59.851915
 31
0.0
  0
ATTRIB
  8
TEXT
 62
     1
 10
89.568367
 20
60.055062
 30
0.0
 40
0.8125
  1
REVISED & REDRAWN
  2
REV1
 70
     4
 41
0.75
  0
ATTRIB
  8
TEXT
 62
     1
 10
89.568367
 20
58.700895
 30
0.0
 40
0.8125
  1
PER ECN #8095
  2
REV2
 70
     4
 41
0.75
  0
SEQEND
  8
DIM
  0
TEXT
  8
DIM
 10
19.505127
 20
197.479975
 30
0.0
 40
1.0
  1

  0
TEXT
  8
DIM
 10
19.255127
 20
187.10523
 30
0.0
 40
1.0
  1

  0
TEXT
  8
DIM
 10
19.421794
 20
180.820892
 30
0.0
 40
1.0
  1

  0
TEXT
  8
DIM
 10
1.543474
 20
182.22549
 30
0.0
 40
1.0
  1

  0
TEXT
  8
DIM
 10
35.585973
 20
182.22549
 30
0.0
 40
1.0
  1

  0
TEXT
  8
DIM
 10
86.107065
 20
180.758095
 30
0.0
 40
1.0
  1

  0
TEXT
  8
DIM
 10
75.358746
 20
194.48049
 30
0.0
 40
1.0
  1

  0
TEXT
  8
DIM
 10
77.616184
 20
197.765531
 30
0.0
 40
1.0
  1

  0
TEXT
  8
DIM
 10
19.505127
 20
197.479975
 30
0.0
 40
1.0
  1

  0
TEXT
  8
DIM
 10
19.255127
 20
187.10523
 30
0.0
 40
1.0
  1

  0
TEXT
  8
DIM
 10
19.421794
 20
180.820892
 30
0.0
 40
1.0
  1

  0
TEXT
  8
DIM
 10
1.543474
 20
182.22549
 30
0.0
 40
1.0
  1

  0
TEXT
  8
DIM
 10
35.585973
 20
182.22549
 30
0.0
 40
1.0
  1

  0
TEXT
  8
DIM
 10
86.107065
 20
180.758095
 30
0.0
 40
1.0
  1

  0
TEXT
  8
DIM
 10
75.358746
 20
194.48049
 30
0.0
 40
1.0
  1

  0
TEXT
  8
DIM
 10
77.616184
 20
197.765531
 30
0.0
 40
1.0
  1

  0
CIRCLE
  8
OBJECT
 10
32.528015
 20
32.070983
 30
0.0
 40
0.3125
  0
CIRCLE
  8
OBJECT
 10
32.528015
 20
17.664983
 30
0.0
 40
0.3125
  0
CIRCLE
  8
OBJECT
 10
51.746015
 20
17.664983
 30
0.0
 40
0.3125
  0
CIRCLE
  8
OBJECT
 10
51.746015
 20
32.070983
 30
0.0
 40
0.3125
  0
INSERT
  8
DIM
 66
     1
  2
BOMCHART
 10
65.00325
 20
8.9505
 30
0.0
 41
6.5
 42
6.5
 43
6.5
  0
ATTRIB
  8
TEXT
 10
66.104219
 20
9.21594
 30
0.0
 40
0.8125
  1
1
  2
ITEM
 70
     4
 41
0.75
 72
     1
 11
66.205781
 21
9.21594
 31
0.0
  0
ATTRIB
  8
TEXT
 10
69.13293
 20
9.21594
 30
0.0
 40
0.8125
  1
1
  2
#REQ'D.
 70
     4
 41
0.75
 72
     1
 11
69.234492
 21
9.21594
 31
0.0
  0
ATTRIB
  8
TEXT
 10
73.840317
 20
9.21594
 30
0.0
 40
0.8125
  1
9904-BA
  2
PART#
 70
     4
 41
0.75
 72
     1
 11
75.820786
 21
9.21594
 31
0.0
  0
ATTRIB
  8
TEXT
 10
81.503079
 20
9.21594
 30
0.0
 40
0.8125
  1
BODY ASSEMBLY
  2
DESCRIPTION
 70
     4
 41
0.75
  0
SEQEND
  8
DIM
  0
INSERT
  8
DIM
 66
     1
  2
BOMCHART
 10
65.00325
 20
10.3025
 30
0.0
 41
6.5
 42
6.5
 43
6.5
  0
ATTRIB
  8
TEXT
 10
66.002656
 20
10.56794
 30
0.0
 40
0.8125
  1
2
  2
ITEM
 70
     4
 41
0.75
 72
     1
 11
66.205781
 21
10.56794
 31
0.0
  0
ATTRIB
  8
TEXT
 10
69.031367
 20
10.56794
 30
0.0
 40
0.8125
  1
2
  2
#REQ'D.
 70
     4
 41
0.75
 72
     1
 11
69.234492
 21
10.56794
 31
0.0
  0
ATTRIB
  8
TEXT
 10
74.195786
 20
10.56794
 30
0.0
 40
0.8125
  1
9185-H
  2
PART#
 70
     4
 41
0.75
 72
     1
 11
75.820786
 21
10.56794
 31
0.0
  0
ATTRIB
  8
TEXT
 10
81.503079
 20
10.56794
 30
0.0
 40
0.8125
  1
HANDLE
  2
DESCRIPTION
 70
     4
 41
0.75
  0
SEQEND
  8
DIM
  0
INSERT
  8
DIM
 66
     1
  2
BOMCHART
 10
65.00325
 20
11.6545
 30
0.0
 41
6.5
 42
6.5
 43
6.5
  0
ATTRIB
  8
TEXT
 10
66.002656
 20
11.91994
 30
0.0
 40
0.8125
  1
3
  2
ITEM
 70
     4
 41
0.75
 72
     1
 11
66.205781
 21
11.91994
 31
0.0
  0
ATTRIB
  8
TEXT
 10
69.031367
 20
11.91994
 30
0.0
 40
0.8125
  1
4
  2
#REQ'D.
 70
     4
 41
0.75
 72
     1
 11
69.234492
 21
11.91994
 31
0.0
  0
ATTRIB
  8
TEXT
 10
74.094224
 20
11.91994
 30
0.0
 40
0.8125
  1
F-9653
  2
PART#
 70
     4
 41
0.75
 72
     1
 11
75.820786
 21
11.91994
 31
0.0
  0
ATTRIB
  8
TEXT
 10
81.503079
 20
11.91994
 30
0.0
 40
0.8125
  1
RUBBER FOOT
  2
DESCRIPTION
 70
     4
 41
0.75
  0
SEQEND
  8
DIM
  0
INSERT
  8
DIM
 66
     1
  2
BOMCHART
 10
65.00325
 20
13.0065
 30
0.0
 41
6.5
 42
6.5
 43
6.5
  0
ATTRIB
  8
TEXT
 10
66.002656
 20
13.27194
 30
0.0
 40
0.8125
  1
4
  2
ITEM
 70
     4
 41
0.75
 72
     1
 11
66.205781
 21
13.27194
 31
0.0
  0
ATTRIB
  8
TEXT
 10
69.13293
 20
13.27194
 30
0.0
 40
0.8125
  1
1
  2
#REQ'D.
 70
     4
 41
0.75
 72
     1
 11
69.234492
 21
13.27194
 31
0.0
  0
ATTRIB
  8
TEXT
 10
74.398911
 20
13.27194
 30
0.0
 40
0.8125
  1
55483
  2
PART#
 70
     4
 41
0.75
 72
     1
 11
75.820786
 21
13.27194
 31
0.0
  0
ATTRIB
  8
TEXT
 10
81.503079
 20
13.27194
 30
0.0
 40
0.8125
  1
HARDWARE KIT
  2
DESCRIPTION
 70
     4
 41
0.75
  0
SEQEND
  8
DIM
  0
ARC
  8
OBJECT
 10
32.528015
 20
41.28326
 30
0.0
 40
0.34375
 50
201.323686
 51
338.676314
  0
ARC
  8
OBJECT
 10
51.746015
 20
41.28326
 30
0.0
 40
0.34375
 50
201.323686
 51
338.676314
  0
ARC
  8
OBJECT
 10
69.09075
 20
41.28326
 30
0.0
 40
0.34375
 50
201.323686
 51
338.676314
  0
ARC
  8
OBJECT
 10
82.74675
 20
41.28326
 30
0.0
 40
0.34375
 50
201.323686
 51
338.676314
  0
ARC
  8
OBJECT
 10
3.104295
 20
41.28326
 30
0.0
 40
0.34375
 50
201.323686
 51
338.676314
  0
ARC
  8
OBJECT
 10
16.760295
 20
41.28326
 30
0.0
 40
0.34375
 50
201.323686
 51
338.676314
  0
SOLID
  8
BEND
 10
35.314625
 20
39.481809
 30
0.0
 11
35.314625
 21
39.871809
 31
0.0
 12
34.144625
 22
39.676809
 32
0.0
 13
34.144625
 23
39.676809
 33
0.0
  0
LINE
  8
BEND
 10
35.314625
 20
39.676809
 30
0.0
 11
36.975578
 21
39.676809
 31
0.0
  0
SOLID
  8
BEND
 10
35.314625
 20
55.356671
 30
0.0
 11
35.314625
 21
55.746671
 31
0.0
 12
34.144625
 22
55.551671
 32
0.0
 13
34.144625
 23
55.551671
 33
0.0
  0
LINE
  8
BEND
 10
35.314625
 20
55.551671
 30
0.0
 11
36.975578
 21
55.551671
 31
0.0
  0
LINE
  8
BEND
 10
36.975578
 20
55.551671
 30
0.0
 11
36.975578
 21
39.676809
 31
0.0
  0
INSERT
  8
TEXT
 66
     1
  2
REVSYM
 10
62.929188
 20
13.657184
 30
0.0
 41
0.8125
 42
0.8125
 43
0.8125
  0
ATTRIB
  8
0
 10
62.726063
 20
13.250934
 30
0.0
 40
0.8125
  1
B
  2
REV
 70
     0
 41
0.75
  7
TXT
 72
     4
 11
62.929188
 21
13.657184
 31
0.0
  0
ATTRIB
  8
0
 10
64.446065
 20
14.667918
 30
0.0
 40
0.609375
  1

  2
DATE
 70
     1
 41
0.7
  7
REV
  0
ATTRIB
  8
0
 10
64.446065
 20
13.681311
 30
0.0
 40
0.609375
  1

  2
DESCRIPT
 70
     1
 41
0.7
  7
REV
  0
ATTRIB
  8
0
 10
64.446065
 20
12.694704
 30
0.0
 40
0.609375
  1

  2
BY
 70
     1
 41
0.7
  7
REV
  0
SEQEND
  8
TEXT
  0
INSERT
  8
DIM
 66
     1
  2
REVCHART
 10
84.90625
 20
58.39258
 30
0.0
 41
6.5
 42
6.5
 43
6.5
  0
ATTRIB
  8
TEXT
 10
86.69375
 20
56.445745
 30
0.0
 40
0.975
  1
B
  2
REV
 70
     4
 41
0.75
 72
     4
 11
86.9375
 21
56.933245
 31
0.0
  0
ATTRIB
  8
TEXT
 62
     1
 10
89.568367
 20
57.136392
 30
0.0
 40
0.8125
  1
PER ECN #8666
  2
REV1
 70
     4
 41
0.75
  0
ATTRIB
  8
TEXT
 62
     1
 10
89.568367
 20
55.782226
 30
0.0
 40
0.8125
  1
12-16-98 DAB
  2
REV2
 70
     4
 41
0.75
  0
SEQEND
  8
DIM
  0
ENDBLK
  8
0
  0
BLOCK
  8
0
  2
B
 70
    64
 10
0.0
 20
0.0
 30
0.0
  3
B
  0
LINE
  8
TITLE
 10
15.5
 20
0.0
 30
0.0
 11
15.5
 21
10.12
 31
0.0
  0
LINE
  8
TITLE
 10
0.0
 20
10.12
 30
0.0
 11
0.0
 21
0.0
 31
0.0
  0
TEXT
  8
TITLE
 62
     8
 10
13.1875
 20
9.9325
 30
0.0
 40
0.09375
  1
DWG.
  0
TEXT
  8
TITLE
 62
     8
 10
13.1875
 20
9.77625
 30
0.0
 40
0.09375
  1
NO.
  0
TEXT
  8
TITLE
 62
     8
 10
13.179285
 20
9.518672
 30
0.0
 40
0.09375
  1
ISSUE
  0
TEXT
  8
TITLE
 62
     8
 10
14.12324
 20
9.520848
 30
0.0
 40
0.09375
  1
REVISIONS
  0
LINE
  8
TITLE
 62
     8
 10
13.6875
 20
9.4325
 30
0.0
 11
13.6875
 21
9.6825
 31
0.0
  0
LINE
  8
TITLE
 62
     8
 10
13.0625
 20
9.4325
 30
0.0
 11
15.5
 21
9.4325
 31
0.0
  0
LINE
  8
TITLE
 62
     8
 10
13.0625
 20
9.6825
 30
0.0
 11
15.5
 21
9.6825
 31
0.0
  0
LINE
  8
TITLE
 10
13.0625
 20
9.4325
 30
0.0
 11
13.0625
 21
10.12
 31
0.0
  0
LINE
  8
TITLE
 10
0.0
 20
0.0
 30
0.0
 11
15.5
 21
0.0
 31
0.0
  0
LINE
  8
TITLE
 10
0.0
 20
10.12
 30
0.0
 11
15.5
 21
10.12
 31
0.0
  0
TEXT
  8
TITLE
 62
     8
 10
6.071749
 20
0.077628
 30
0.0
 40
0.09375
  1
QTY.
  0
TEXT
  8
TITLE
 62
     8
 10
6.81726
 20
0.077628
 30
0.0
 40
0.09375
  1
USED ON
  0
TEXT
  8
TITLE
 62
     8
 10
10.056572
 20
1.199408
 30
0.0
 40
0.09375
  1
ITEM
  0
TEXT
  8
TITLE
 62
     8
 10
10.470847
 20
1.197741
 30
0.0
 40
0.09375
  1
REQ'D.
  0
TEXT
  8
TITLE
 62
     8
 10
10.063
 20
0.972877
 30
0.0
 40
0.09375
  1
MAT:
  0
TEXT
  8
TITLE
 62
     8
 10
10.063
 20
0.774118
 30
0.0
 40
0.09375
  1
FINISH
  0
TEXT
  8
TITLE
 62
     8
 10
10.063
 20
0.569374
 30
0.0
 40
0.09375
  1
DR.
  0
TEXT
  8
TITLE
 62
     8
 10
10.063
 20
0.3125
 30
0.0
 40
0.09375
  1
CH.
  0
TEXT
  8
TITLE
 62
     8
 10
10.063
 20
0.0625
 30
0.0
 40
0.09375
  1
APP.
  0
TEXT
  8
TITLE
 62
     8
 10
11.3755
 20
1.197741
 30
0.0
 40
0.09375
  1
PART NO.
  0
TEXT
  8
TITLE
 62
     8
 10
13.502446
 20
1.197741
 30
0.0
 40
0.09375
  1
DESCRIPTION
  0
TEXT
  8
TITLE
 62
     8
 10
11.898215
 20
0.975598
 30
0.0
 40
0.09375
  1
SCALE:
  0
TEXT
  8
TITLE
 62
     8
 10
13.4375
 20
0.990354
 30
0.0
 40
0.09375
  1
NAME:
  0
TEXT
  8
TITLE
 62
     8
 10
11.92261
 20
0.125
 30
0.0
 40
0.09375
  1
WILLOUGHBY, OHIO
  0
TEXT
  8
TITLE
 62
     8
 10
12.032858
 20
0.375
 30
0.0
 40
0.09375
  1
BUD EAST, INC.
  0
TEXT
  8
TITLE
 62
     8
 10
13.4375
 20
0.219499
 30
0.0
 40
0.0938
  1
DWG.
  0
TEXT
  8
TITLE
 62
     8
 10
13.4375
 20
0.063166
 30
0.0
 40
0.0938
  1
NO.
  0
LINE
  8
TITLE
 62
     8
 10
13.367246
 20
0.0
 30
0.0
 11
13.367246
 21
1.127
 31
0.0
  0
LINE
  8
TITLE
 62
     8
 10
11.859373
 20
0.0
 30
0.0
 11
11.859373
 21
1.127
 31
0.0
  0
LINE
  8
TITLE
 62
     8
 10
13.367246
 20
0.382
 30
0.0
 11
15.5
 21
0.382
 31
0.0
  0
LINE
  8
TITLE
 62
     8
 10
10.419296
 20
1.127
 30
0.0
 11
10.419296
 21
1.377
 31
0.0
  0
LINE
  8
TITLE
 62
     8
 10
10.837233
 20
0.0
 30
0.0
 11
10.837233
 21
0.709
 31
0.0
  0
LINE
  8
TITLE
 10
6.02
 20
0.25
 30
0.0
 11
7.9225
 21
0.25
 31
0.0
  0
LINE
  8
TITLE
 10
10.0005
 20
0.5
 30
0.0
 11
11.859373
 21
0.5
 31
0.0
  0
LINE
  8
TITLE
 62
     8
 10
12.4365
 20
1.127
 30
0.0
 11
12.4365
 21
1.377
 31
0.0
  0
LINE
  8
TITLE
 10
10.0005
 20
1.377
 30
0.0
 11
15.5
 21
1.377
 31
0.0
  0
LINE
  8
TITLE
 62
     8
 10
10.0005
 20
0.0
 30
0.0
 11
10.0005
 21
1.377
 31
0.0
  0
LINE
  8
TITLE
 10
10.0005
 20
0.25
 30
0.0
 11
11.859373
 21
0.25
 31
0.0
  0
TEXT
  8
TITLE
 62
     8
 10
7.99865
 20
0.056475
 30
0.0
 40
0.077242
  1
UNLESS OTHERWISE SPECIFIED
  0
LINE
  8
TITLE
 62
     8
 10
8.033554
 20
0.382538
 30
0.0
 11
7.994932
 21
0.382538
 31
0.0
  0
LINE
  8
TITLE
 62
     8
 10
8.014243
 20
0.401848
 30
0.0
 11
8.014243
 21
0.440469
 31
0.0
  0
LINE
  8
TITLE
 62
     8
 10
8.033554
 20
0.421159
 30
0.0
 11
7.994932
 21
0.421159
 31
0.0
  0
LINE
  8
TITLE
 62
     8
 10
8.033554
 20
0.498401
 30
0.0
 11
7.994932
 21
0.498401
 31
0.0
  0
LINE
  8
TITLE
 62
     8
 10
8.014243
 20
0.517712
 30
0.0
 11
8.014243
 21
0.556333
 31
0.0
  0
LINE
  8
TITLE
 62
     8
 10
8.033554
 20
0.537022
 30
0.0
 11
7.994932
 21
0.537022
 31
0.0
  0
LINE
  8
TITLE
 62
     8
 10
8.033554
 20
0.633575
 30
0.0
 11
7.994932
 21
0.633575
 31
0.0
  0
LINE
  8
TITLE
 62
     8
 10
8.014243
 20
0.652886
 30
0.0
 11
8.014243
 21
0.691507
 31
0.0
  0
LINE
  8
TITLE
 62
     8
 10
8.033554
 20
0.672197
 30
0.0
 11
7.994932
 21
0.672197
 31
0.0
  0
LINE
  8
TITLE
 62
     8
 10
8.014243
 20
0.76875
 30
0.0
 11
8.014243
 21
0.807371
 31
0.0
  0
LINE
  8
TITLE
 62
     8
 10
8.033554
 20
0.749439
 30
0.0
 11
7.994932
 21
0.749439
 31
0.0
  0
TEXT
  8
TITLE
 62
     8
 10
8.091485
 20
0.23449
 30
0.0
 40
0.077242
  1
    SURFACES
  0
TEXT
  8
TITLE
 62
     8
 10
8.091485
 20
0.363227
 30
0.0
 40
0.077242
  1
.063 BETWEEN ASSEMBLED
  0
TEXT
  8
TITLE
 62
     8
 10
8.091485
 20
0.491964
 30
0.0
 40
0.077242
  1
.032 FROM A BENT SURFACE
  0
TEXT
  8
TITLE
 62
     8
 10
8.091485
 20
0.620702
 30
0.0
 40
0.077242
  1
.015 FROM SHEARED EDGE
  0
TEXT
  8
TITLE
 62
     8
 10
8.091485
 20
0.749439
 30
0.0
 40
0.077242
  1
.005 BETWEEN HOLE CENTERS
  0
LINE
  8
TITLE
 62
     8
 10
8.033554
 20
0.78806
 30
0.0
 11
7.994932
 21
0.78806
 31
0.0
  0
TEXT
  8
TITLE
 10
8.045906
 20
0.952072
 30
0.0
 40
0.111789
  1
TOLERANCES:
  0
LINE
  8
TITLE
 10
8.053565
 20
0.923609
 30
0.0
 11
9.164155
 21
0.923609
 31
0.0
  0
LINE
  8
TITLE
 62
     8
 10
7.9225
 20
0.0
 30
0.0
 11
7.9225
 21
1.127
 31
0.0
  0
LINE
  8
TITLE
 62
     8
 10
6.395
 20
0.0
 30
0.0
 11
6.395
 21
0.25
 31
0.0
  0
LINE
  8
TITLE
 62
     8
 10
10.9375
 20
1.127
 30
0.0
 11
10.9375
 21
1.377
 31
0.0
  0
LINE
  8
TITLE
 10
10.0005
 20
0.709
 30
0.0
 11
11.859373
 21
0.709
 31
0.0
  0
LINE
  8
TITLE
 10
10.0005
 20
0.918
 30
0.0
 11
13.367246
 21
0.918
 31
0.0
  0
LINE
  8
TITLE
 10
7.9225
 20
1.127
 30
0.0
 11
15.5
 21
1.127
 31
0.0
  0
LINE
  8
TITLE
 10
6.02
 20
0.25
 30
0.0
 11
6.02
 21
0.0
 31
0.0
  0
LINE
  8
TITLE
 10
10.0005
 20
1.377
 30
0.0
 11
6.02
 21
1.377
 31
0.0
  0
LINE
  8
TITLE
 10
7.9225
 20
1.127
 30
0.0
 11
6.02
 21
1.127
 31
0.0
  0
LINE
  8
TITLE
 10
6.02
 20
1.377
 30
0.0
 11
6.02
 21
0.25
 31
0.0
  0
LINE
  8
TITLE
 10
12.77723
 20
0.701411
 30
0.0
 11
12.77723
 21
0.714688
 31
0.0
  0
LINE
  8
TITLE
 10
12.735933
 20
0.701411
 30
0.0
 11
12.735933
 21
0.714688
 31
0.0
  0
LINE
  8
TITLE
 10
12.77723
 20
0.714688
 30
0.0
 11
12.735933
 21
0.714688
 31
0.0
  0
LINE
  8
TITLE
 10
12.77723
 20
0.701411
 30
0.0
 11
12.735933
 21
0.701411
 31
0.0
  0
ARC
  8
TITLE
 10
12.733131
 20
0.747879
 30
0.0
 40
0.092937
 50
0.0
 51
90.0
  0
ARC
  8
TITLE
 10
12.733131
 20
0.668219
 30
0.0
 40
0.092937
 50
270.0
 51
0.0
  0
LINE
  8
TITLE
 10
12.826069
 20
0.668219
 30
0.0
 11
12.826069
 21
0.747879
 31
0.0
  0
LINE
  8
TITLE
 10
12.700102
 20
0.840817
 30
0.0
 11
12.733131
 21
0.840817
 31
0.0
  0
LINE
  8
TITLE
 10
12.700102
 20
0.575282
 30
0.0
 11
12.733131
 21
0.575282
 31
0.0
  0
LINE
  8
TITLE
 10
12.700102
 20
0.575282
 30
0.0
 11
12.700102
 21
0.840817
 31
0.0
  0
LINE
  8
TITLE
 10
12.597254
 20
0.840817
 30
0.0
 11
12.645791
 21
0.840817
 31
0.0
  0
LINE
  8
TITLE
 10
12.525603
 20
0.840817
 30
0.0
 11
12.574141
 21
0.840817
 31
0.0
  0
ARC
  8
TITLE
 10
12.583977
 20
0.618606
 30
0.0
 40
0.013277
 50
277.444284
 51
0.0
  0
ARC
  8
TITLE
 10
12.587417
 20
0.618606
 30
0.0
 40
0.013277
 50
180.0
 51
262.555716
  0
ARC
  8
TITLE
 10
12.629195
 20
0.591878
 30
0.0
 40
0.016596
 50
270.0
 51
0.0
  0
ARC
  8
TITLE
 10
12.542199
 20
0.591878
 30
0.0
 40
0.016596
 50
180.0
 51
270.0
  0
LINE
  8
TITLE
 10
12.542199
 20
0.575282
 30
0.0
 11
12.629195
 21
0.575282
 31
0.0
  0
LINE
  8
TITLE
 10
12.597254
 20
0.618606
 30
0.0
 11
12.597254
 21
0.840817
 31
0.0
  0
LINE
  8
TITLE
 10
12.645791
 20
0.591878
 30
0.0
 11
12.645791
 21
0.840817
 31
0.0
  0
LINE
  8
TITLE
 10
12.574141
 20
0.618606
 30
0.0
 11
12.574141
 21
0.840817
 31
0.0
  0
LINE
  8
TITLE
 10
12.525603
 20
0.591878
 30
0.0
 11
12.525603
 21
0.840817
 31
0.0
  0
ARC
  8
TITLE
 10
12.426216
 20
0.638346
 30
0.0
 40
0.063065
 50
270.0
 51
90.0
  0
LINE
  8
TITLE
 10
12.35341
 20
0.701411
 30
0.0
 11
12.35341
 21
0.708049
 31
0.0
  0
LINE
  8
TITLE
 10
12.426216
 20
0.701411
 30
0.0
 11
12.35341
 21
0.701411
 31
0.0
  0
LINE
  8
TITLE
 10
12.35341
 20
0.714688
 30
0.0
 11
12.35341
 21
0.708049
 31
0.0
  0
LINE
  8
TITLE
 10
12.426216
 20
0.714688
 30
0.0
 11
12.35341
 21
0.714688
 31
0.0
  0
ARC
  8
TITLE
 10
12.426216
 20
0.777752
 30
0.0
 40
0.063065
 50
270.0
 51
90.0
  0
LINE
  8
TITLE
 10
12.340698
 20
0.575282
 30
0.0
 11
12.340698
 21
0.840817
 31
0.0
  0
LINE
  8
TITLE
 10
12.340698
 20
0.575282
 30
0.0
 11
12.426216
 21
0.575282
 31
0.0
  0
LINE
  8
TITLE
 10
12.340698
 20
0.840817
 30
0.0
 11
12.426216
 21
0.840817
 31
0.0
  0
TEXT
  8
TITLE
 10
12.410146
 20
0.376907
 30
0.0
 40
0.001
  1
Bob, you should really check out 42409 series of
  0
TEXT
  8
TITLE
 10
12.410146
 20
0.375241
 30
0.0
 40
0.001
  1
drawings because there are some big drawings there-CH.
  0
ENDBLK
  8
0
  0
BLOCK
  8
0
  2
REVCHART
 70
    66
 10
0.0
 20
0.0
 30
0.0
  3
REVCHART
  0
LINE
  8
TITLE
 10
0.0
 20
-0.449026
 30
0.0
 11
0.0
 21
0.0
 31
0.0
  0
LINE
  8
TITLE
 62
     8
 10
0.0
 20
-0.449026
 30
0.0
 11
2.4375
 21
-0.449026
 31
0.0
  0
LINE
  8
TITLE
 10
0.625
 20
-0.449026
 30
0.0
 11
0.625
 21
0.0
 31
0.0
  0
ATTDEF
  8
TEXT
 10
0.14375
 20
-0.299513
 30
0.0
 40
0.15
  1

  3
ENTER REV. LEVEL
  2
REV
 70
     4
 41
0.75
 72
     4
 11
0.3125
 21
-0.224513
 31
0.0
  0
CIRCLE
  8
TEXT
 10
0.3125
 20
-0.224513
 30
0.0
 40
0.116519
  0
ATTDEF
  8
TEXT
 62
     1
 10
0.717249
 20
-0.19326
 30
0.0
 40
0.125
  1

  3
ENTER LINE #1
  2
REV1
 70
     4
 41
0.75
  0
ATTDEF
  8
TEXT
 62
     1
 10
0.717249
 20
-0.401593
 30
0.0
 40
0.125
  1

  3
ENTER LINE #2
  2
REV2
 70
     4
 41
0.75
  0
ENDBLK
  8
0
  0
BLOCK
  8
0
  2
BOMCHART
 70
    66
 10
0.0
 20
0.0
 30
0.0
  3
BOMCHART
  0
ATTDEF
  8
TEXT
 10
0.028755
 20
0.040837
 30
0.0
 40
0.125
  1

  3
ENTER ITEM #
  2
ITEM
 70
     4
 41
0.75
 72
     1
 11
0.185005
 21
0.040837
 31
0.0
  0
ATTDEF
  8
TEXT
 10
0.393148
 20
0.040837
 30
0.0
 40
0.125
  1

  3
ENTER # REQUIRED
  2
#REQ'D.
 70
     4
 41
0.75
 72
     1
 11
0.65096
 21
0.040837
 31
0.0
  0
ATTDEF
  8
TEXT
 10
1.445486
 20
0.040837
 30
0.0
 40
0.125
  1

  3
ENTER PART #
  2
PART#
 70
     4
 41
0.75
 72
     1
 11
1.664236
 21
0.040837
 31
0.0
  0
ATTDEF
  8
TEXT
 10
2.538435
 20
0.040837
 30
0.0
 40
0.125
  1

  3
ENTER PART DESCRIPTION
  2
DESCRIPTION
 70
     4
 41
0.75
  0
LINE
  8
TITLE
 10
0.0
 20
0.208
 30
0.0
 11
5.4995
 21
0.208
 31
0.0
  0
LINE
  8
TITLE
 62
     8
 10
0.0
 20
0.0
 30
0.0
 11
0.0
 21
0.208
 31
0.0
  0
LINE
  8
TITLE
 62
     8
 10
0.418796
 20
0.0
 30
0.0
 11
0.418796
 21
0.208
 31
0.0
  0
LINE
  8
TITLE
 62
     8
 10
0.937
 20
0.0
 30
0.0
 11
0.937
 21
0.208
 31
0.0
  0
LINE
  8
TITLE
 62
     8
 10
2.436
 20
0.0
 30
0.0
 11
2.436
 21
0.208
 31
0.0
  0
ENDBLK
  8
0
  0
BLOCK
  8
0
  2
*D17
 70
    65
 10
0.0
 20
0.0
 30
0.0
  3
*D
  0
LINE
  8
0
  6
BYBLOCK
 62
     0
 10
31.606015
 20
128.46976
 30
0.0
 11
31.606015
 21
134.787645
 31
0.0
  0
LINE
  8
0
  6
BYBLOCK
 62
     0
 10
52.668015
 20
128.46976
 30
0.0
 11
52.668015
 21
134.787645
 31
0.0
  0
LINE
  8
0
  6
BYBLOCK
 62
     0
 10
32.776015
 20
134.183145
 30
0.0
 11
38.454359
 21
134.183145
 31
0.0
  0
LINE
  8
0
  6
BYBLOCK
 62
     0
 10
51.498015
 20
134.183145
 30
0.0
 11
45.819671
 21
134.183145
 31
0.0
  0
SOLID
  8
0
  6
BYBLOCK
 62
     0
 10
32.776015
 20
134.378145
 30
0.0
 11
32.776015
 21
133.988145
 31
0.0
 12
31.606015
 22
134.183145
 32
0.0
 13
31.606015
 23
134.183145
 33
0.0
  0
SOLID
  8
0
  6
BYBLOCK
 62
     0
 10
51.498015
 20
134.378145
 30
0.0
 11
51.498015
 21
133.988145
 31
0.0
 12
52.668015
 22
134.183145
 32
0.0
 13
52.668015
 23
134.183145
 33
0.0
  0
TEXT
  8
0
  6
BYBLOCK
 62
     0
 10
41.984671
 20
133.776895
 30
0.0
 40
0.8125
  1
 %%P0.031
 41
0.75
 72
     1
 11
43.609671
 21
134.183145
 31
0.0
 73
     2
  0
TEXT
  8
0
  6
BYBLOCK
 62
     0
 10
39.039359
 20
133.776895
 30
0.0
 40
0.8125
  1
21.062
 41
0.75
 72
     1
 11
40.410452
 21
134.183145
 31
0.0
 73
     2
  0
POINT
  8
DEFPOINTS
  6
BYBLOCK
 62
     0
 10
31.606015
 20
128.06026
 30
0.0
  0
POINT
  8
DEFPOINTS
  6
BYBLOCK
 62
     0
 10
52.668015
 20
128.06026
 30
0.0
  0
POINT
  8
DEFPOINTS
  6
BYBLOCK
 62
     0
 10
52.668015
 20
134.183145
 30
0.0
  0
ENDBLK
  8
0
  0
BLOCK
  8
0
  2
*D18
 70
    65
 10
0.0
 20
0.0
 30
0.0
  3
*D
  0
LINE
  8
0
  6
BYBLOCK
 62
     0
 10
32.981015
 20
122.84176
 30
0.0
 11
32.981015
 21
121.649947
 31
0.0
  0
LINE
  8
0
  6
BYBLOCK
 62
     0
 10
51.293015
 20
122.84176
 30
0.0
 11
51.293015
 21
121.649947
 31
0.0
  0
LINE
  8
0
  6
BYBLOCK
 62
     0
 10
34.241015
 20
122.300947
 30
0.0
 11
38.11639
 21
122.300947
 31
0.0
  0
LINE
  8
0
  6
BYBLOCK
 62
     0
 10
50.033015
 20
122.300947
 30
0.0
 11
46.15764
 21
122.300947
 31
0.0
  0
SOLID
  8
0
  6
BYBLOCK
 62
     0
 10
34.241015
 20
122.510947
 30
0.0
 11
34.241015
 21
122.090947
 31
0.0
 12
32.981015
 22
122.300947
 32
0.0
 13
32.981015
 23
122.300947
 33
0.0
  0
SOLID
  8
0
  6
BYBLOCK
 62
     0
 10
50.033015
 20
122.510947
 30
0.0
 11
50.033015
 21
122.090947
 31
0.0
 12
51.293015
 22
122.300947
 32
0.0
 13
51.293015
 23
122.300947
 33
0.0
  0
TEXT
  8
0
  6
BYBLOCK
 62
     0
 10
41.80889
 20
121.863447
 30
0.0
 40
0.875
  1
 %%P0.062
 41
0.75
 72
     1
 11
43.668265
 21
122.300947
 31
0.0
 73
     2
  0
TEXT
  8
0
  6
BYBLOCK
 62
     0
 10
38.74639
 20
121.863447
 30
0.0
 40
0.875
  1
18.312
 41
0.75
 72
     1
 11
40.168265
 21
122.300947
 31
0.0
 73
     2
  0
POINT
  8
DEFPOINTS
  6
BYBLOCK
 62
     0
 10
32.981015
 20
123.27926
 30
0.0
  0
POINT
  8
DEFPOINTS
  6
BYBLOCK
 62
     0
 10
51.293015
 20
123.27926
 30
0.0
  0
POINT
  8
DEFPOINTS
  6
BYBLOCK
 62
     0
 10
51.293015
 20
122.300947
 30
0.0
  0
ENDBLK
  8
0
  0
BLOCK
  8
0
  2
*D19
 70
    65
 10
0.0
 20
0.0
 30
0.0
  3
*D
  0
LINE
  8
0
  6
BYBLOCK
 62
     0
 10
33.231015
 20
124.310111
 30
0.0
 11
33.231015
 21
124.03944
 31
0.0
  0
LINE
  8
0
  6
BYBLOCK
 62
     0
 10
51.043015
 20
124.310111
 30
0.0
 11
51.043015
 21
124.03944
 31
0.0
  0
LINE
  8
0
  6
BYBLOCK
 62
     0
 10
34.491015
 20
124.69044
 30
0.0
 11
38.11639
 21
124.69044
 31
0.0
  0
LINE
  8
0
  6
BYBLOCK
 62
     0
 10
49.783015
 20
124.69044
 30
0.0
 11
46.15764
 21
124.69044
 31
0.0
  0
SOLID
  8
0
  6
BYBLOCK
 62
     0
 10
34.491015
 20
124.90044
 30
0.0
 11
34.491015
 21
124.48044
 31
0.0
 12
33.231015
 22
124.69044
 32
0.0
 13
33.231015
 23
124.69044
 33
0.0
  0
SOLID
  8
0
  6
BYBLOCK
 62
     0
 10
49.783015
 20
124.90044
 30
0.0
 11
49.783015
 21
124.48044
 31
0.0
 12
51.043015
 22
124.69044
 32
0.0
 13
51.043015
 23
124.69044
 33
0.0
  0
TEXT
  8
0
  6
BYBLOCK
 62
     0
 10
41.80889
 20
124.25294
 30
0.0
 40
0.875
  1
 %%P0.062
 41
0.75
 72
     1
 11
43.668265
 21
124.69044
 31
0.0
 73
     2
  0
TEXT
  8
0
  6
BYBLOCK
 62
     0
 10
38.74639
 20
124.25294
 30
0.0
 40
0.875
  1
17.812
 41
0.75
 72
     1
 11
40.168265
 21
124.69044
 31
0.0
 73
     2
  0
POINT
  8
DEFPOINTS
  6
BYBLOCK
 62
     0
 10
33.231015
 20
124.747611
 30
0.0
  0
POINT
  8
DEFPOINTS
  6
BYBLOCK
 62
     0
 10
51.043015
 20
124.747611
 30
0.0
  0
POINT
  8
DEFPOINTS
  6
BYBLOCK
 62
     0
 10
51.043015
 20
124.69044
 30
0.0
  0
ENDBLK
  8
0
  0
BLOCK
  8
0
  2
*D20
 70
    65
 10
0.0
 20
0.0
 30
0.0
  3
*D
  0
LINE
  8
0
  6
BYBLOCK
 62
     0
 10
32.606015
 20
128.49776
 30
0.0
 11
32.606015
 21
132.364145
 31
0.0
  0
LINE
  8
0
  6
BYBLOCK
 62
     0
 10
51.668015
 20
128.49776
 30
0.0
 11
51.668015
 21
132.364145
 31
0.0
  0
LINE
  8
0
  6
BYBLOCK
 62
     0
 10
33.866015
 20
131.713145
 30
0.0
 11
38.171077
 21
131.713145
 31
0.0
  0
LINE
  8
0
  6
BYBLOCK
 62
     0
 10
50.408015
 20
131.713145
 30
0.0
 11
46.102952
 21
131.713145
 31
0.0
  0
SOLID
  8
0
  6
BYBLOCK
 62
     0
 10
33.866015
 20
131.923145
 30
0.0
 11
33.866015
 21
131.503145
 31
0.0
 12
32.606015
 22
131.713145
 32
0.0
 13
32.606015
 23
131.713145
 33
0.0
  0
SOLID
  8
0
  6
BYBLOCK
 62
     0
 10
50.408015
 20
131.923145
 30
0.0
 11
50.408015
 21
131.503145
 31
0.0
 12
51.668015
 22
131.713145
 32
0.0
 13
51.668015
 23
131.713145
 33
0.0
  0
TEXT
  8
0
  6
BYBLOCK
 62
     0
 10
41.972952
 20
131.275645
 30
0.0
 40
0.875
  1
 %%P0.031
 41
0.75
 72
     1
 11
43.722952
 21
131.713145
 31
0.0
 73
     2
  0
TEXT
  8
0
  6
BYBLOCK
 62
     0
 10
38.801077
 20
131.275645
 30
0.0
 40
0.875
  1
19.062
 41
0.75
 72
     1
 11
40.27764
 21
131.713145
 31
0.0
 73
     2
  0
POINT
  8
DEFPOINTS
  6
BYBLOCK
 62
     0
 10
32.606015
 20
128.06026
 30
0.0
  0
POINT
  8
DEFPOINTS
  6
BYBLOCK
 62
     0
 10
51.668015
 20
128.06026
 30
0.0
  0
POINT
  8
DEFPOINTS
  6
BYBLOCK
 62
     0
 10
51.668015
 20
131.713145
 30
0.0
  0
ENDBLK
  8
0
  0
BLOCK
  8
0
  2
*D21
 70
    65
 10
0.0
 20
0.0
 30
0.0
  3
*D
  0
LINE
  8
0
  6
BYBLOCK
 62
     0
 10
51.668015
 20
128.49776
 30
0.0
 11
51.668015
 21
132.364145
 31
0.0
  0
LINE
  8
0
  6
BYBLOCK
 62
     0
 10
52.668015
 20
128.49776
 30
0.0
 11
52.668015
 21
132.364145
 31
0.0
  0
LINE
  8
0
  6
BYBLOCK
 62
     0
 10
50.408015
 20
131.713145
 30
0.0
 11
49.148015
 21
131.713145
 31
0.0
  0
LINE
  8
0
  6
BYBLOCK
 62
     0
 10
53.928015
 20
131.713145
 30
0.0
 11
55.188015
 21
131.713145
 31
0.0
  0
SOLID
  8
0
  6
BYBLOCK
 62
     0
 10
50.408015
 20
131.923145
 30
0.0
 11
50.408015
 21
131.503145
 31
0.0
 12
51.668015
 22
131.713145
 32
0.0
 13
51.668015
 23
131.713145
 33
0.0
  0
SOLID
  8
0
  6
BYBLOCK
 62
     0
 10
53.928015
 20
131.923145
 30
0.0
 11
53.928015
 21
131.503145
 31
0.0
 12
52.668015
 22
131.713145
 32
0.0
 13
52.668015
 23
131.713145
 33
0.0
  0
TEXT
  8
0
  6
BYBLOCK
 62
     0
 10
58.11489
 20
131.275645
 30
0.0
 40
0.875
  1
 REF.
 41
0.75
 72
     1
 11
59.42739
 21
131.713145
 31
0.0
 73
     2
  0
TEXT
  8
0
  6
BYBLOCK
 62
     0
 10
55.818015
 20
131.275645
 30
0.0
 40
0.875
  1
1.000
 41
0.75
 72
     1
 11
56.857077
 21
131.713145
 31
0.0
 73
     2
  0
POINT
  8
DEFPOINTS
  6
BYBLOCK
 62
     0
 10
51.668015
 20
128.06026
 30
0.0
  0
POINT
  8
DEFPOINTS
  6
BYBLOCK
 62
     0
 10
52.668015
 20
128.06026
 30
0.0
  0
POINT
  8
DEFPOINTS
  6
BYBLOCK
 62
     0
 10
52.668015
 20
131.713145
 30
0.0
  0
ENDBLK
  8
0
  0
BLOCK
  8
0
  2
*D22
 70
    65
 10
0.0
 20
0.0
 30
0.0
  3
*D
  0
LINE
  8
0
  6
BYBLOCK
 62
     0
 10
31.215515
 20
112.99826
 30
0.0
 11
26.342362
 21
112.99826
 31
0.0
  0
LINE
  8
0
  6
BYBLOCK
 62
     0
 10
31.168515
 20
111.99826
 30
0.0
 11
26.342362
 21
111.99826
 31
0.0
  0
LINE
  8
0
  6
BYBLOCK
 62
     0
 10
26.993362
 20
114.25826
 30
0.0
 11
26.993362
 21
115.51826
 31
0.0
  0
LINE
  8
0
  6
BYBLOCK
 62
     0
 10
26.993362
 20
110.73826
 30
0.0
 11
26.993362
 21
109.47826
 31
0.0
  0
LINE
  8
0
  6
BYBLOCK
 62
     0
 10
26.993362
 20
109.47826
 30
0.0
 11
25.733362
 21
109.47826
 31
0.0
  0
SOLID
  8
0
  6
BYBLOCK
 62
     0
 10
26.783362
 20
114.25826
 30
0.0
 11
27.203362
 21
114.25826
 31
0.0
 12
26.993362
 22
112.99826
 32
0.0
 13
26.993362
 23
112.99826
 33
0.0
  0
SOLID
  8
0
  6
BYBLOCK
 62
     0
 10
26.783362
 20
110.73826
 30
0.0
 11
27.203362
 21
110.73826
 31
0.0
 12
26.993362
 22
111.99826
 32
0.0
 13
26.993362
 23
111.99826
 33
0.0
  0
TEXT
  8
0
  6
BYBLOCK
 62
     0
 10
22.478362
 20
109.04076
 30
0.0
 40
0.875
  1
 REF.
 41
0.75
 72
     1
 11
23.790862
 21
109.47826
 31
0.0
 73
     2
  0
TEXT
  8
0
  6
BYBLOCK
 62
     0
 10
20.181487
 20
109.04076
 30
0.0
 40
0.875
  1
1.000
 41
0.75
 72
     1
 11
21.220549
 21
109.47826
 31
0.0
 73
     2
  0
POINT
  8
DEFPOINTS
  6
BYBLOCK
 62
     0
 10
31.653015
 20
112.99826
 30
0.0
  0
POINT
  8
DEFPOINTS
  6
BYBLOCK
 62
     0
 10
31.606015
 20
111.99826
 30
0.0
  0
POINT
  8
DEFPOINTS
  6
BYBLOCK
 62
     0
 10
26.993362
 20
111.99826
 30
0.0
  0
ENDBLK
  8
0
  0
BLOCK
  8
0
  2
*D23
 70
    65
 10
0.0
 20
0.0
 30
0.0
  3
*D
  0
LINE
  8
0
  6
BYBLOCK
 62
     0
 10
81.386464
 20
123.004834
 30
0.0
 11
81.386464
 21
122.181137
 31
0.0
  0
LINE
  8
0
  6
BYBLOCK
 62
     0
 10
66.886464
 20
123.004834
 30
0.0
 11
66.886464
 21
122.181137
 31
0.0
  0
LINE
  8
0
  6
BYBLOCK
 62
     0
 10
80.126464
 20
122.832137
 30
0.0
 11
76.188339
 21
122.832137
 31
0.0
  0
LINE
  8
0
  6
BYBLOCK
 62
     0
 10
68.146464
 20
122.832137
 30
0.0
 11
72.084589
 21
122.832137
 31
0.0
  0
SOLID
  8
0
  6
BYBLOCK
 62
     0
 10
80.126464
 20
123.042137
 30
0.0
 11
80.126464
 21
122.622137
 31
0.0
 12
81.386464
 22
122.832137
 32
0.0
 13
81.386464
 23
122.832137
 33
0.0
  0
SOLID
  8
0
  6
BYBLOCK
 62
     0
 10
68.146464
 20
123.042137
 30
0.0
 11
68.146464
 21
122.622137
 31
0.0
 12
66.886464
 22
122.832137
 32
0.0
 13
66.886464
 23
122.832137
 33
0.0
  0
TEXT
  8
0
  6
BYBLOCK
 62
     0
 10
72.714589
 20
122.394637
 30
0.0
 40
0.875
  1
14.500
 41
0.75
 72
     1
 11
74.136464
 21
122.832137
 31
0.0
 73
     2
  0
POINT
  8
DEFPOINTS
  6
BYBLOCK
 62
     0
 10
81.386464
 20
123.442334
 30
0.0
  0
POINT
  8
DEFPOINTS
  6
BYBLOCK
 62
     0
 10
66.886464
 20
123.442334
 30
0.0
  0
POINT
  8
DEFPOINTS
  6
BYBLOCK
 62
     0
 10
66.886464
 20
122.832137
 30
0.0
  0
ENDBLK
  8
0
  0
BLOCK
  8
0
  2
*D24
 70
    65
 10
0.0
 20
0.0
 30
0.0
  3
*D
  0
LINE
  8
0
  6
BYBLOCK
 62
     0
 10
66.886464
 20
123.004834
 30
0.0
 11
66.886464
 21
122.181137
 31
0.0
  0
LINE
  8
0
  6
BYBLOCK
 62
     0
 10
66.386464
 20
123.004834
 30
0.0
 11
66.386464
 21
122.181137
 31
0.0
  0
LINE
  8
0
  6
BYBLOCK
 62
     0
 10
68.146464
 20
122.832137
 30
0.0
 11
69.406464
 21
122.832137
 31
0.0
  0
LINE
  8
0
  6
BYBLOCK
 62
     0
 10
65.126464
 20
122.832137
 30
0.0
 11
63.866464
 21
122.832137
 31
0.0
  0
SOLID
  8
0
  6
BYBLOCK
 62
     0
 10
68.146464
 20
123.042137
 30
0.0
 11
68.146464
 21
122.622137
 31
0.0
 12
66.886464
 22
122.832137
 32
0.0
 13
66.886464
 23
122.832137
 33
0.0
  0
SOLID
  8
0
  6
BYBLOCK
 62
     0
 10
65.126464
 20
123.042137
 30
0.0
 11
65.126464
 21
122.622137
 31
0.0
 12
66.386464
 22
122.832137
 32
0.0
 13
66.386464
 23
122.832137
 33
0.0
  0
TEXT
  8
0
  6
BYBLOCK
 62
     0
 10
60.939589
 20
122.394637
 30
0.0
 40
0.875
  1
0.500
 41
0.75
 72
     1
 11
62.088026
 21
122.832137
 31
0.0
 73
     2
  0
POINT
  8
DEFPOINTS
  6
BYBLOCK
 62
     0
 10
66.886464
 20
123.442334
 30
0.0
  0
POINT
  8
DEFPOINTS
  6
BYBLOCK
 62
     0
 10
66.386464
 20
123.442334
 30
0.0
  0
POINT
  8
DEFPOINTS
  6
BYBLOCK
 62
     0
 10
66.386464
 20
122.832137
 30
0.0
  0
ENDBLK
  8
0
  0
BLOCK
  8
0
  2
*D25
 70
    65
 10
0.0
 20
0.0
 30
0.0
  3
*D
  0
LINE
  8
0
  6
BYBLOCK
 62
     0
 10
2.182295
 20
128.46976
 30
0.0
 11
2.182295
 21
134.787645
 31
0.0
  0
LINE
  8
0
  6
BYBLOCK
 62
     0
 10
17.682295
 20
128.46976
 30
0.0
 11
17.682295
 21
134.787645
 31
0.0
  0
LINE
  8
0
  6
BYBLOCK
 62
     0
 10
3.352295
 20
134.183145
 30
0.0
 11
6.86917
 21
134.183145
 31
0.0
  0
LINE
  8
0
  6
BYBLOCK
 62
     0
 10
16.512295
 20
134.183145
 30
0.0
 11
12.99542
 21
134.183145
 31
0.0
  0
SOLID
  8
0
  6
BYBLOCK
 62
     0
 10
3.352295
 20
134.378145
 30
0.0
 11
3.352295
 21
133.988145
 31
0.0
 12
2.182295
 22
134.183145
 32
0.0
 13
2.182295
 23
134.183145
 33
0.0
  0
SOLID
  8
0
  6
BYBLOCK
 62
     0
 10
16.512295
 20
134.378145
 30
0.0
 11
16.512295
 21
133.988145
 31
0.0
 12
17.682295
 22
134.183145
 32
0.0
 13
17.682295
 23
134.183145
 33
0.0
  0
TEXT
  8
0
  6
BYBLOCK
 62
     0
 10
7.45417
 20
133.776895
 30
0.0
 40
0.8125
  1
15.500
 41
0.75
 72
     1
 11
8.774482
 21
134.183145
 31
0.0
 73
     2
  0
TEXT
  8
0
  6
BYBLOCK
 62
     0
 10
10.29792
 20
133.403145
 30
0.0
 40
0.65
  1
-0.000
 41
0.75
 72
     1
 11
11.35417
 21
133.728145
 31
0.0
 73
     2
  0
TEXT
  8
0
  6
BYBLOCK
 62
     0
 10
10.29792
 20
134.313145
 30
0.0
 40
0.65
  1
+0.031
 41
0.75
 72
     1
 11
11.35417
 21
134.638145
 31
0.0
 73
     2
  0
POINT
  8
DEFPOINTS
  6
BYBLOCK
 62
     0
 10
2.182295
 20
128.06026
 30
0.0
  0
POINT
  8
DEFPOINTS
  6
BYBLOCK
 62
     0
 10
17.682295
 20
128.06026
 30
0.0
  0
POINT
  8
DEFPOINTS
  6
BYBLOCK
 62
     0
 10
17.682295
 20
134.183145
 30
0.0
  0
ENDBLK
  8
0
  0
BLOCK
  8
0
  2
*D26
 70
    65
 10
0.0
 20
0.0
 30
0.0
  3
*D
  0
LINE
  8
0
  6
BYBLOCK
 62
     0
 10
53.105515
 20
53.72026
 30
0.0
 11
58.424276
 21
53.72026
 31
0.0
  0
LINE
  8
0
  6
BYBLOCK
 62
     0
 10
53.105515
 20
41.15826
 30
0.0
 11
58.424276
 21
41.15826
 31
0.0
  0
LINE
  8
0
  6
BYBLOCK
 62
     0
 10
57.773276
 20
52.46026
 30
0.0
 11
57.773276
 21
48.50676
 31
0.0
  0
LINE
  8
0
  6
BYBLOCK
 62
     0
 10
57.773276
 20
42.41826
 30
0.0
 11
57.773276
 21
46.37176
 31
0.0
  0
SOLID
  8
0
  6
BYBLOCK
 62
     0
 10
57.563276
 20
52.46026
 30
0.0
 11
57.983276
 21
52.46026
 31
0.0
 12
57.773276
 22
53.72026
 32
0.0
 13
57.773276
 23
53.72026
 33
0.0
  0
SOLID
  8
0
  6
BYBLOCK
 62
     0
 10
57.563276
 20
42.41826
 30
0.0
 11
57.983276
 21
42.41826
 31
0.0
 12
57.773276
 22
41.15826
 32
0.0
 13
57.773276
 23
41.15826
 33
0.0
  0
TEXT
  8
0
  6
BYBLOCK
 62
     0
 10
57.554526
 20
47.00176
 30
0.0
 40
0.875
  1
 %%P0.062
 41
0.75
 72
     1
 11
59.413901
 21
47.43926
 31
0.0
 73
     2
  0
TEXT
  8
0
  6
BYBLOCK
 62
     0
 10
54.273276
 20
47.00176
 30
0.0
 40
0.875
  1
12.562
 41
0.75
 72
     1
 11
55.804526
 21
47.43926
 31
0.0
 73
     2
  0
POINT
  8
DEFPOINTS
  6
BYBLOCK
 62
     0
 10
52.668015
 20
53.72026
 30
0.0
  0
POINT
  8
DEFPOINTS
  6
BYBLOCK
 62
     0
 10
52.668015
 20
41.15826
 30
0.0
  0
POINT
  8
DEFPOINTS
  6
BYBLOCK
 62
     0
 10
57.773276
 20
41.15826
 30
0.0
  0
ENDBLK
  8
0
  0
BLOCK
  8
0
  2
*D27
 70
    65
 10
0.0
 20
0.0
 30
0.0
  3
*D
  0
LINE
  8
0
  6
BYBLOCK
 62
     0
 10
31.243515
 20
52.72026
 30
0.0
 11
26.388862
 21
52.72026
 31
0.0
  0
LINE
  8
0
  6
BYBLOCK
 62
     0
 10
31.243515
 20
42.15826
 30
0.0
 11
26.388862
 21
42.15826
 31
0.0
  0
LINE
  8
0
  6
BYBLOCK
 62
     0
 10
26.993362
 20
51.55026
 30
0.0
 11
26.993362
 21
48.43051
 31
0.0
  0
LINE
  8
0
  6
BYBLOCK
 62
     0
 10
26.993362
 20
43.32826
 30
0.0
 11
26.993362
 21
46.44801
 31
0.0
  0
SOLID
  8
0
  6
BYBLOCK
 62
     0
 10
26.798362
 20
51.55026
 30
0.0
 11
27.188362
 21
51.55026
 31
0.0
 12
26.993362
 22
52.72026
 32
0.0
 13
26.993362
 23
52.72026
 33
0.0
  0
SOLID
  8
0
  6
BYBLOCK
 62
     0
 10
26.798362
 20
43.32826
 30
0.0
 11
27.188362
 21
43.32826
 31
0.0
 12
26.993362
 22
42.15826
 32
0.0
 13
26.993362
 23
42.15826
 33
0.0
  0
TEXT
  8
0
  6
BYBLOCK
 62
     0
 10
26.841018
 20
47.03301
 30
0.0
 40
0.8125
  1
 %%P0.031
 41
0.75
 72
     1
 11
28.466018
 21
47.43926
 31
0.0
 73
     2
  0
TEXT
  8
0
  6
BYBLOCK
 62
     0
 10
23.895705
 20
47.03301
 30
0.0
 40
0.8125
  1
10.562
 41
0.75
 72
     1
 11
25.266799
 21
47.43926
 31
0.0
 73
     2
  0
POINT
  8
DEFPOINTS
  6
BYBLOCK
 62
     0
 10
31.653015
 20
52.72026
 30
0.0
  0
POINT
  8
DEFPOINTS
  6
BYBLOCK
 62
     0
 10
31.653015
 20
42.15826
 30
0.0
  0
POINT
  8
DEFPOINTS
  6
BYBLOCK
 62
     0
 10
26.993362
 20
42.15826
 30
0.0
  0
ENDBLK
  8
0
  0
BLOCK
  8
0
  2
REVSYM
 70
    66
 10
0.0
 20
0.0
 30
0.0
  3
REVSYM
  0
ATTDEF
  8
0
 10
-1.125
 20
-0.5
 30
0.0
 40
1.0
  1
A
  3
Revison
  2
REV
 70
     0
 41
0.75
  7
TXT
 72
     4
 11
0.0
 21
0.0
 31
0.0
  0
ATTDEF
  8
0
 10
1.866925
 20
1.243981
 30
0.0
 40
0.75
  1

  3
Revison Date
  2
DATE
 70
     1
 41
0.7
  7
REV
  0
ATTDEF
  8
0
 10
1.866925
 20
0.029695
 30
0.0
 40
0.75
  1

  3
Revison Description
  2
DESCRIPT
 70
     1
 41
0.7
  7
REV
  0
ATTDEF
  8
0
 10
1.866925
 20
-1.184591
 30
0.0
 40
0.75
  1

  3
Revised By
  2
BY
 70
     1
 41
0.7
  7
REV
  0
CIRCLE
  8
0
 10
0.0
 20
0.0
 30
0.0
 40
0.828
  0
ENDBLK
  8
0
  0
ENDSEC
  0
SECTION
  2
ENTITIES
  0
LINE
  8
OBJECT
 62
     7
 10
24.452707
 20
58.696655
 30
0.0
 11
45.514707
 21
58.696655
 31
0.0
  0
LINE
  8
OBJECT
 62
     7
 10
45.514707
 20
58.696655
 30
0.0
 11
45.514707
 21
71.258655
 31
0.0
  0
LINE
  8
OBJECT
 62
     7
 10
45.514707
 20
71.258655
 30
0.0
 11
24.452707
 21
71.258655
 31
0.0
  0
LINE
  8
OBJECT
 62
     7
 10
24.452707
 20
71.258655
 30
0.0
 11
24.452707
 21
58.696655
 31
0.0
  0
LINE
  8
OBJECT
 62
     7
 10
67.079361
 20
58.696655
 30
0.0
 11
67.079361
 21
71.258655
 31
0.0
  0
LINE
  8
OBJECT
 62
     7
 10
67.079361
 20
71.258655
 30
0.0
 11
51.579361
 21
71.258655
 31
0.0
  0
LINE
  8
OBJECT
 62
     7
 10
51.579361
 20
71.258655
 30
0.0
 11
51.579361
 21
58.696655
 31
0.0
  0
LINE
  8
OBJECT
 62
     7
 10
44.514707
 20
70.258655
 30
0.0
 11
25.452707
 21
70.258655
 31
0.0
  0
LINE
  8
OBJECT
 62
     7
 10
25.452707
 20
59.696655
 30
0.0
 11
44.514707
 21
59.696655
 31
0.0
  0
LINE
  8
OBJECT
 62
     7
 10
26.077707
 20
70.258655
 30
0.0
 11
26.077707
 21
59.696655
 31
0.0
  0
LINE
  8
OBJECT
 62
     7
 10
51.626361
 20
59.696655
 30
0.0
 11
67.032361
 21
59.696655
 31
0.0
  0
LINE
  8
OBJECT
 62
     7
 10
66.017361
 20
58.743655
 30
0.0
 11
66.017361
 21
58.696655
 31
0.0
  0
LINE
  8
OBJECT
 62
     7
 10
52.641361
 20
58.743655
 30
0.0
 11
52.641361
 21
58.696655
 31
0.0
  0
LINE
  8
OBJECT
 62
     7
 10
67.079361
 20
58.696655
 30
0.0
 11
51.579361
 21
58.696655
 31
0.0
  0
LINE
  8
OBJECT
 62
     7
 10
66.579361
 20
59.696655
 30
0.0
 11
66.579361
 21
70.258655
 31
0.0
  0
TEXT
  8
DIM
 10
19.505127
 20
55.799975
 30
0.0
 40
1.0
  1

  0
TEXT
  8
DIM
 10
19.255127
 20
45.42523
 30
0.0
 40
1.0
  1

  0
TEXT
  8
DIM
 10
19.421794
 20
39.140892
 30
0.0
 40
1.0
  1

  0
TEXT
  8
DIM
 10
1.543474
 20
40.54549
 30
0.0
 40
1.0
  1

  0
TEXT
  8
DIM
 10
35.585973
 20
40.54549
 30
0.0
 40
1.0
  1

  0
TEXT
  8
DIM
 10
86.107065
 20
39.078095
 30
0.0
 40
1.0
  1

  0
TEXT
  8
BEND
 62
     7
 10
30.736106
 20
56.904229
 30
0.0
 40
1.09375
  1
"A"
 41
0.75
  0
TEXT
  8
BEND
 62
     7
 10
30.736106
 20
72.114701
 30
0.0
 40
1.09375
  1
"A"
 41
0.75
  0
TEXT
  8
TEXT
 62
     7
 10
55.417138
 20
52.926296
 30
0.0
 40
0.875
  1
%%uSECTION "A-A"
 41
0.75
 72
     1
 11
59.256201
 21
52.926296
 31
0.0
  0
TEXT
  8
DIM
 10
75.358746
 20
52.80049
 30
0.0
 40
1.0
  1

  0
TEXT
  8
TEXT
 62
     7
 10
29.406102
 20
52.667694
 30
0.0
 40
0.875
  1
%%uFRONT & REAR VIEW
 41
0.75
 72
     1
 11
34.995164
 21
52.667694
 31
0.0
  0
TEXT
  8
DIM
 10
77.616184
 20
56.085531
 30
0.0
 40
1.0
  1

  0
LINE
  8
OBJECT
 62
     7
 10
51.626361
 20
71.258655
 30
0.0
 11
51.626361
 21
70.258655
 31
0.0
  0
LINE
  8
OBJECT
 62
     7
 10
51.673361
 20
59.649655
 30
0.0
 11
66.985361
 21
59.649655
 31
0.0
  0
LINE
  8
OBJECT
 62
     7
 10
51.673361
 20
59.649655
 30
0.0
 11
51.673361
 21
58.743655
 31
0.0
  0
LINE
  8
OBJECT
 62
     7
 10
66.985361
 20
58.743655
 30
0.0
 11
66.017361
 21
58.743655
 31
0.0
  0
LINE
  8
OBJECT
 62
     7
 10
67.032361
 20
58.696655
 30
0.0
 11
67.032361
 21
59.696655
 31
0.0
  0
LINE
  8
OBJECT
 62
     7
 10
66.985361
 20
58.743655
 30
0.0
 11
66.985361
 21
59.649655
 31
0.0
  0
LINE
  8
OBJECT
 62
     7
 10
52.641361
 20
58.743655
 30
0.0
 11
51.673361
 21
58.743655
 31
0.0
  0
LINE
  8
OBJECT
 62
     7
 10
52.141361
 20
70.305655
 30
0.0
 11
51.673361
 21
70.305655
 31
0.0
  0
LINE
  8
OBJECT
 62
     7
 10
66.985361
 20
70.305655
 30
0.0
 11
66.985361
 21
71.211655
 31
0.0
  0
LINE
  8
OBJECT
 62
     7
 10
66.985361
 20
70.305655
 30
0.0
 11
66.517361
 21
70.305655
 31
0.0
  0
LINE
  8
OBJECT
 62
     7
 10
51.673361
 20
71.211655
 30
0.0
 11
51.673361
 21
70.305655
 31
0.0
  0
LINE
  8
OBJECT
 62
     7
 10
51.673361
 20
71.211655
 30
0.0
 11
66.985361
 21
71.211655
 31
0.0
  0
LINE
  8
OBJECT
 62
     7
 10
67.032361
 20
70.258655
 30
0.0
 11
66.517361
 21
70.258655
 31
0.0
  0
LINE
  8
OBJECT
 62
     7
 10
66.532361
 20
59.696655
 30
0.0
 11
66.532361
 21
70.258655
 31
0.0
  0
LINE
  8
OBJECT
 62
     7
 10
52.141361
 20
70.305655
 30
0.0
 11
52.141361
 21
70.258655
 31
0.0
  0
LINE
  8
OBJECT
 62
     7
 10
52.141361
 20
70.258655
 30
0.0
 11
51.626361
 21
70.258655
 31
0.0
  0
LINE
  8
OBJECT
 62
     7
 10
66.517361
 20
70.305655
 30
0.0
 11
66.517361
 21
70.258655
 31
0.0
  0
LINE
  8
OBJECT
 62
     7
 10
67.032361
 20
70.258655
 30
0.0
 11
67.032361
 21
71.258655
 31
0.0
  0
LINE
  8
HIDDEN
 62
     7
 10
67.032361
 20
59.696655
 30
0.0
 11
67.032361
 21
70.258655
 31
0.0
  0
POLYLINE
  8
OBJECT
 62
     7
 66
     1
 10
0.0
 20
0.0
 30
0.0
  0
VERTEX
  8
OBJECT
 62
     7
 10
56.729361
 20
68.196655
 30
0.0
  0
VERTEX
  8
OBJECT
 62
     7
 10
61.929361
 20
68.196655
 30
0.0
  0
VERTEX
  8
OBJECT
 62
     7
 10
61.929361
 20
69.406655
 30
0.0
  0
VERTEX
  8
OBJECT
 62
     7
 10
56.729361
 20
69.406655
 30
0.0
  0
VERTEX
  8
OBJECT
 62
     7
 10
56.729361
 20
68.196655
 30
0.0
  0
SEQEND
  8
OBJECT
 62
     7
  0
LINE
  8
CENTER
 62
     7
 10
58.969361
 20
68.801655
 30
0.0
 11
59.689361
 21
68.801655
 31
0.0
  0
LINE
  8
CENTER
 62
     7
 10
59.329361
 20
68.441655
 30
0.0
 11
59.329361
 21
69.161655
 31
0.0
  0
LINE
  8
OBJECT
 62
     7
 10
52.126361
 20
59.696655
 30
0.0
 11
52.126361
 21
70.258655
 31
0.0
  0
LINE
  8
OBJECT
 62
     7
 10
52.079361
 20
59.696655
 30
0.0
 11
52.079361
 21
70.258655
 31
0.0
  0
LINE
  8
HIDDEN
 62
     7
 10
51.626361
 20
59.696655
 30
0.0
 11
51.626361
 21
70.258655
 31
0.0
  0
LINE
  8
OBJECT
 62
     7
 10
51.626361
 20
59.696655
 30
0.0
 11
51.626361
 21
58.696655
 31
0.0
  0
LINE
  8
OBJECT
 62
     7
 10
25.452707
 20
71.258655
 30
0.0
 11
25.452707
 21
58.696655
 31
0.0
  0
CIRCLE
  8
OBJECT
 62
     7
 10
25.827707
 20
63.477655
 30
0.0
 40
0.1405
  0
CIRCLE
  8
OBJECT
 62
     7
 10
25.827707
 20
64.102655
 30
0.0
 40
0.1405
  0
CIRCLE
  8
OBJECT
 62
     7
 10
25.827707
 20
64.727655
 30
0.0
 40
0.1405
  0
CIRCLE
  8
OBJECT
 62
     7
 10
25.827707
 20
65.227655
 30
0.0
 40
0.1405
  0
CIRCLE
  8
OBJECT
 62
     7
 10
25.827707
 20
65.852655
 30
0.0
 40
0.1405
  0
CIRCLE
  8
OBJECT
 62
     7
 10
25.827707
 20
66.477655
 30
0.0
 40
0.1405
  0
CIRCLE
  8
OBJECT
 62
     7
 10
25.827707
 20
66.977655
 30
0.0
 40
0.1405
  0
CIRCLE
  8
OBJECT
 62
     7
 10
25.827707
 20
67.602655
 30
0.0
 40
0.1405
  0
CIRCLE
  8
OBJECT
 62
     7
 10
25.827707
 20
68.227655
 30
0.0
 40
0.1405
  0
CIRCLE
  8
OBJECT
 62
     7
 10
25.827707
 20
68.727655
 30
0.0
 40
0.1405
  0
CIRCLE
  8
OBJECT
 62
     7
 10
25.827707
 20
69.352655
 30
0.0
 40
0.1405
  0
CIRCLE
  8
OBJECT
 62
     7
 10
25.827707
 20
69.977655
 30
0.0
 40
0.1405
  0
CIRCLE
  8
OBJECT
 62
     7
 10
44.139707
 20
69.977655
 30
0.0
 40
0.1405
  0
CIRCLE
  8
OBJECT
 62
     7
 10
44.139707
 20
69.352655
 30
0.0
 40
0.1405
  0
CIRCLE
  8
OBJECT
 62
     7
 10
44.139707
 20
68.727655
 30
0.0
 40
0.1405
  0
CIRCLE
  8
OBJECT
 62
     7
 10
44.139707
 20
68.227655
 30
0.0
 40
0.1405
  0
CIRCLE
  8
OBJECT
 62
     7
 10
44.139707
 20
67.602655
 30
0.0
 40
0.1405
  0
CIRCLE
  8
OBJECT
 62
     7
 10
44.139707
 20
66.977655
 30
0.0
 40
0.1405
  0
CIRCLE
  8
OBJECT
 62
     7
 10
44.139707
 20
66.477655
 30
0.0
 40
0.1405
  0
CIRCLE
  8
OBJECT
 62
     7
 10
44.139707
 20
65.852655
 30
0.0
 40
0.1405
  0
CIRCLE
  8
OBJECT
 62
     7
 10
44.139707
 20
65.227655
 30
0.0
 40
0.1405
  0
CIRCLE
  8
OBJECT
 62
     7
 10
44.139707
 20
64.727655
 30
0.0
 40
0.1405
  0
CIRCLE
  8
OBJECT
 62
     7
 10
44.139707
 20
64.102655
 30
0.0
 40
0.1405
  0
CIRCLE
  8
OBJECT
 62
     7
 10
44.139707
 20
63.477655
 30
0.0
 40
0.1405
  0
LINE
  8
OBJECT
 62
     7
 10
43.889707
 20
70.258655
 30
0.0
 11
43.889707
 21
59.696655
 31
0.0
  0
LINE
  8
OBJECT
 62
     7
 10
44.514707
 20
71.258655
 30
0.0
 11
44.514707
 21
58.696655
 31
0.0
  0
LINE
  8
OBJECT
 62
     7
 10
24.452707
 20
49.15445
 30
0.0
 11
25.452707
 21
49.15445
 31
0.0
  0
LINE
  8
OBJECT
 10
24.452707
 20
33.65445
 30
0.0
 11
24.452707
 21
49.15445
 31
0.0
  0
LINE
  8
OBJECT
 10
24.499707
 20
33.70145
 30
0.0
 11
24.499707
 21
49.10745
 31
0.0
  0
LINE
  8
OBJECT
 62
     7
 10
24.499707
 20
49.10745
 30
0.0
 11
45.467707
 21
49.10745
 31
0.0
  0
LINE
  8
OBJECT
 62
     7
 10
25.452707
 20
49.10745
 30
0.0
 11
25.452707
 21
49.15445
 31
0.0
  0
LINE
  8
OBJECT
 62
     7
 10
24.577707
 20
48.10745
 30
0.0
 11
45.389707
 21
48.10745
 31
0.0
  0
LINE
  8
OBJECT
 62
     7
 10
24.577707
 20
48.10745
 30
0.0
 11
24.577707
 21
49.10745
 31
0.0
  0
LINE
  8
OBJECT
 10
24.546707
 20
33.70145
 30
0.0
 11
24.546707
 21
49.10745
 31
0.0
  0
LINE
  8
OBJECT
 10
24.577707
 20
34.70145
 30
0.0
 11
24.577707
 21
33.70145
 31
0.0
  0
LINE
  8
OBJECT
 10
25.452707
 20
33.70145
 30
0.0
 11
25.452707
 21
33.65445
 31
0.0
  0
LINE
  8
OBJECT
 10
24.452707
 20
33.65445
 30
0.0
 11
25.452707
 21
33.65445
 31
0.0
  0
LINE
  8
OBJECT
 10
24.499707
 20
33.70145
 30
0.0
 11
45.467707
 21
33.70145
 31
0.0
  0
LINE
  8
OBJECT
 10
24.577707
 20
34.70145
 30
0.0
 11
45.389707
 21
34.70145
 31
0.0
  0
LINE
  8
OBJECT
 10
45.514707
 20
33.65445
 30
0.0
 11
44.514707
 21
33.65445
 31
0.0
  0
LINE
  8
OBJECT
 10
44.514707
 20
33.70145
 30
0.0
 11
44.514707
 21
33.65445
 31
0.0
  0
LINE
  8
OBJECT
 10
45.389707
 20
34.70145
 30
0.0
 11
45.389707
 21
33.70145
 31
0.0
  0
LINE
  8
OBJECT
 10
45.420707
 20
33.70145
 30
0.0
 11
45.420707
 21
49.10745
 31
0.0
  0
LINE
  8
OBJECT
 62
     7
 10
45.389707
 20
48.10745
 30
0.0
 11
45.389707
 21
49.10745
 31
0.0
  0
LINE
  8
OBJECT
 62
     7
 10
44.514707
 20
49.10745
 30
0.0
 11
44.514707
 21
49.15445
 31
0.0
  0
LINE
  8
OBJECT
 10
45.467707
 20
33.70145
 30
0.0
 11
45.467707
 21
49.10745
 31
0.0
  0
LINE
  8
OBJECT
 10
45.514707
 20
33.65445
 30
0.0
 11
45.514707
 21
49.15445
 31
0.0
  0
LINE
  8
OBJECT
 62
     7
 10
45.514707
 20
49.15445
 30
0.0
 11
44.514707
 21
49.15445
 31
0.0
  0
DIMENSION
  8
DIM
 62
     7
  2
*D3
 10
45.514707
 20
77.530167
 30
0.0
 11
34.983707
 21
77.530167
 31
0.0
 12
-0.958386
 22
17.538395
 32
0.0
 13
24.452707
 23
71.258655
 33
0.0
 14
45.514707
 24
71.258655
 34
0.0
  0
POLYLINE
  8
BEND
 62
     7
 66
     1
 10
0.0
 20
0.0
 30
0.0
 41
0.63
  0
VERTEX
  8
BEND
 62
     7
 10
26.991317
 20
57.215204
 30
0.0
  0
VERTEX
  8
BEND
 62
     7
 10
28.251317
 20
57.215204
 30
0.0
 41
0.0
  0
VERTEX
  8
BEND
 62
     7
 10
29.82227
 20
57.215204
 30
0.0
 41
0.0
  0
VERTEX
  8
BEND
 62
     7
 10
29.82227
 20
72.560015
 30
0.0
 41
0.0
  0
VERTEX
  8
BEND
 62
     7
 10
28.251317
 20
72.560015
 30
0.0
 40
0.63
 41
0.0
  0
VERTEX
  8
BEND
 62
     7
 10
26.991317
 20
72.560015
 30
0.0
 41
0.0
  0
SEQEND
  8
BEND
 62
     7
  0
DIMENSION
  8
DIM
 62
     7
  2
*D8
 10
67.079361
 20
74.91154
 30
0.0
 11
59.329361
 21
74.91154
 31
0.0
 12
-0.810384
 22
17.538395
 32
0.0
 13
51.579361
 23
71.258655
 33
0.0
 14
67.079361
 24
71.258655
 34
0.0
  0
DIMENSION
  8
DIM
 62
     7
  2
*D2
 10
44.139707
 20
65.499342
 30
0.0
 11
34.983707
 21
65.499342
 31
0.0
 12
-7.153308
 22
17.538395
 32
0.0
 70
   128
 13
25.827707
 23
66.477655
 33
0.0
 14
44.139707
 24
66.477655
 34
0.0
  0
DIMENSION
  8
DIM
 62
     7
  2
*D1
 10
43.889707
 20
67.888835
 30
0.0
 11
34.983707
 21
67.888835
 31
0.0
 12
-7.153308
 22
17.538395
 32
0.0
 70
   128
 13
26.077707
 23
67.946007
 33
0.0
 14
43.889707
 24
67.946007
 34
0.0
  0
DIMENSION
  8
DIM
 62
     7
  2
*D4
 10
44.514707
 20
74.91154
 30
0.0
 11
34.983707
 21
74.91154
 31
0.0
 12
-0.958386
 22
17.538395
 32
0.0
 13
25.452707
 23
71.258655
 33
0.0
 14
44.514707
 24
71.258655
 34
0.0
  0
DIMENSION
  8
DIM
 62
     7
  2
*D5
 10
45.514707
 20
74.91154
 30
0.0
 11
49.703769
 21
74.91154
 31
0.0
 12
-0.958386
 22
17.538395
 32
0.0
 13
44.514707
 23
71.258655
 33
0.0
 14
45.514707
 24
71.258655
 34
0.0
  0
DIMENSION
  8
DIM
 62
     7
  2
*D10
 10
22.284002
 20
59.696655
 30
0.0
 11
22.284002
 21
64.977655
 31
0.0
 12
2.004364
 22
8.132103
 32
0.0
  1
B
 13
24.499707
 23
70.258655
 33
0.0
 14
24.499707
 24
59.696655
 34
0.0
 50
90.0
  0
DIMENSION
  8
DIM
 62
     7
  2
*D6
 10
22.284002
 20
58.696655
 30
0.0
 11
19.354939
 21
56.176655
 31
0.0
 12
-0.958386
 22
17.538395
 32
0.0
 13
24.499707
 23
59.696655
 33
0.0
 14
24.452707
 24
58.696655
 34
0.0
 50
90.0
  0
DIMENSION
  8
DIM
 62
     7
  2
*D9
 10
47.851661
 20
58.696655
 30
0.0
 11
47.851661
 21
65.594877
 31
0.0
 12
2.004364
 22
8.132103
 32
0.0
 70
   128
  1
A
 13
45.514707
 23
71.258655
 33
0.0
 14
45.514707
 24
58.696655
 34
0.0
 50
90.0
  0
LINE
  8
HIDDEN
 62
     7
 10
4.109072
 20
58.696655
 30
0.0
 11
4.109072
 21
71.258655
 31
0.0
  0
LINE
  8
HIDDEN
 62
     7
 10
4.562072
 20
59.696655
 30
0.0
 11
4.562072
 21
70.258655
 31
0.0
  0
LINE
  8
HIDDEN
 62
     7
 10
4.609072
 20
59.696655
 30
0.0
 11
4.609072
 21
70.258655
 31
0.0
  0
LINE
  8
CENTER
 62
     7
 10
11.812072
 20
68.441655
 30
0.0
 11
11.812072
 21
69.161655
 31
0.0
  0
LINE
  8
CENTER
 62
     7
 10
11.452072
 20
68.801655
 30
0.0
 11
12.172072
 21
68.801655
 31
0.0
  0
POLYLINE
  8
HIDDEN
 62
     7
 66
     1
 10
0.0
 20
0.0
 30
0.0
  0
VERTEX
  8
HIDDEN
 62
     7
 10
9.212072
 20
68.196655
 30
0.0
  0
VERTEX
  8
HIDDEN
 62
     7
 10
14.412072
 20
68.196655
 30
0.0
  0
VERTEX
  8
HIDDEN
 62
     7
 10
14.412072
 20
69.406655
 30
0.0
  0
VERTEX
  8
HIDDEN
 62
     7
 10
9.212072
 20
69.406655
 30
0.0
  0
VERTEX
  8
HIDDEN
 62
     7
 10
9.212072
 20
68.196655
 30
0.0
  0
SEQEND
  8
HIDDEN
 62
     7
  0
LINE
  8
HIDDEN
 62
     7
 10
19.515072
 20
58.696655
 30
0.0
 11
19.515072
 21
71.258655
 31
0.0
  0
LINE
  8
HIDDEN
 62
     7
 10
19.000072
 20
70.305655
 30
0.0
 11
19.000072
 21
70.258655
 31
0.0
  0
LINE
  8
HIDDEN
 62
     7
 10
4.624072
 20
70.258655
 30
0.0
 11
4.109072
 21
70.258655
 31
0.0
  0
LINE
  8
HIDDEN
 62
     7
 10
4.624072
 20
70.305655
 30
0.0
 11
4.624072
 21
70.258655
 31
0.0
  0
LINE
  8
HIDDEN
 62
     7
 10
19.015072
 20
59.696655
 30
0.0
 11
19.015072
 21
70.258655
 31
0.0
  0
LINE
  8
HIDDEN
 62
     7
 10
19.515072
 20
70.258655
 30
0.0
 11
19.000072
 21
70.258655
 31
0.0
  0
LINE
  8
HIDDEN
 62
     7
 10
4.156072
 20
71.211655
 30
0.0
 11
19.468072
 21
71.211655
 31
0.0
  0
LINE
  8
HIDDEN
 62
     7
 10
4.156072
 20
71.211655
 30
0.0
 11
4.156072
 21
70.305655
 31
0.0
  0
LINE
  8
HIDDEN
 62
     7
 10
19.468072
 20
70.305655
 30
0.0
 11
19.000072
 21
70.305655
 31
0.0
  0
LINE
  8
HIDDEN
 62
     7
 10
19.468072
 20
70.305655
 30
0.0
 11
19.468072
 21
71.211655
 31
0.0
  0
LINE
  8
HIDDEN
 62
     7
 10
4.624072
 20
70.305655
 30
0.0
 11
4.156072
 21
70.305655
 31
0.0
  0
LINE
  8
HIDDEN
 62
     7
 10
5.124072
 20
58.743655
 30
0.0
 11
4.156072
 21
58.743655
 31
0.0
  0
LINE
  8
HIDDEN
 62
     7
 10
19.468072
 20
58.743655
 30
0.0
 11
19.468072
 21
59.649655
 31
0.0
  0
LINE
  8
HIDDEN
 62
     7
 10
19.468072
 20
58.743655
 30
0.0
 11
18.500072
 21
58.743655
 31
0.0
  0
LINE
  8
HIDDEN
 62
     7
 10
4.156072
 20
59.649655
 30
0.0
 11
4.156072
 21
58.743655
 31
0.0
  0
LINE
  8
HIDDEN
 62
     7
 10
4.156072
 20
59.649655
 30
0.0
 11
19.468072
 21
59.649655
 31
0.0
  0
LINE
  8
HIDDEN
 62
     7
 10
19.062072
 20
59.696655
 30
0.0
 11
19.062072
 21
70.258655
 31
0.0
  0
LINE
  8
OBJECT
 62
     7
 10
19.562072
 20
58.696655
 30
0.0
 11
4.062072
 21
58.696655
 31
0.0
  0
LINE
  8
HIDDEN
 62
     7
 10
5.124072
 20
58.743655
 30
0.0
 11
5.124072
 21
58.696655
 31
0.0
  0
LINE
  8
HIDDEN
 62
     7
 10
18.500072
 20
58.743655
 30
0.0
 11
18.500072
 21
58.696655
 31
0.0
  0
LINE
  8
HIDDEN
 62
     7
 10
4.109072
 20
59.696655
 30
0.0
 11
19.515072
 21
59.696655
 31
0.0
  0
LINE
  8
OBJECT
 62
     7
 10
4.062072
 20
71.258655
 30
0.0
 11
4.062072
 21
58.696655
 31
0.0
  0
LINE
  8
OBJECT
 62
     7
 10
19.562072
 20
71.258655
 30
0.0
 11
4.062072
 21
71.258655
 31
0.0
  0
LINE
  8
OBJECT
 62
     7
 10
19.562072
 20
58.696655
 30
0.0
 11
19.562072
 21
71.258655
 31
0.0
  0
TEXT
  8
TEXT
 10
32.028963
 20
30.280254
 30
0.0
 40
0.875
  1
%%uBOTTOM VIEW
 41
0.75
 72
     1
 11
35.649275
 21
30.280254
 31
0.0
  0
TEXT
  8
TEXT
 62
     7
 10
8.803398
 20
52.667694
 30
0.0
 40
0.875
  1
%%uSIDE VIEW
 41
0.75
 72
     1
 11
11.658086
 21
52.667694
 31
0.0
  0
POLYLINE
  8
DIM
 62
     7
 66
     1
 10
0.0
 20
0.0
 30
0.0
  0
VERTEX
  8
DIM
 62
     7
 10
9.112072
 20
68.101655
 30
0.0
  0
VERTEX
  8
DIM
 62
     7
 10
14.512072
 20
68.101655
 30
0.0
  0
VERTEX
  8
DIM
 62
     7
 10
14.512072
 20
69.501655
 30
0.0
  0
VERTEX
  8
DIM
 62
     7
 10
9.112072
 20
69.501655
 30
0.0
  0
VERTEX
  8
DIM
 62
     7
 10
9.112072
 20
68.101655
 30
0.0
  0
SEQEND
  8
DIM
 62
     7
  0
POLYLINE
  8
DIM
 62
     7
 66
     1
 10
0.0
 20
0.0
 30
0.0
  0
VERTEX
  8
DIM
 62
     7
 10
9.312072
 20
68.301655
 30
0.0
  0
VERTEX
  8
DIM
 62
     7
 10
14.312072
 20
68.301655
 30
0.0
  0
VERTEX
  8
DIM
 62
     7
 10
14.312072
 20
69.301655
 30
0.0
  0
VERTEX
  8
DIM
 62
     7
 10
9.312072
 20
69.301655
 30
0.0
  0
VERTEX
  8
DIM
 62
     7
 10
9.312072
 20
68.301655
 30
0.0
  0
SEQEND
  8
DIM
 62
     7
  0
LINE
  8
DIM
 62
     7
 10
24.374707
 20
68.101655
 30
0.0
 11
24.452707
 21
68.101655
 31
0.0
  0
LINE
  8
DIM
 62
     7
 10
24.452707
 20
69.501655
 30
0.0
 11
24.374707
 21
69.501655
 31
0.0
  0
LINE
  8
DIM
 62
     7
 10
24.374707
 20
68.101655
 30
0.0
 11
24.374707
 21
69.501655
 31
0.0
  0
LINE
  8
DIM
 62
     7
 10
45.592707
 20
68.101655
 30
0.0
 11
45.592707
 21
69.501655
 31
0.0
  0
LINE
  8
DIM
 62
     7
 10
45.514707
 20
69.501655
 30
0.0
 11
45.592707
 21
69.501655
 31
0.0
  0
LINE
  8
DIM
 62
     7
 10
45.592707
 20
68.101655
 30
0.0
 11
45.514707
 21
68.101655
 31
0.0
  0
LINE
  8
DIM
 10
24.452707
 20
44.10445
 30
0.0
 11
24.382707
 21
44.10445
 31
0.0
  0
LINE
  8
DIM
 10
24.452707
 20
38.70445
 30
0.0
 11
24.382707
 21
38.70445
 31
0.0
  0
LINE
  8
DIM
 10
24.382707
 20
38.70445
 30
0.0
 11
24.382707
 21
44.10445
 31
0.0
  0
LINE
  8
DIM
 10
45.584707
 20
38.70445
 30
0.0
 11
45.584707
 21
44.10445
 31
0.0
  0
LINE
  8
DIM
 10
45.514707
 20
38.70445
 30
0.0
 11
45.584707
 21
38.70445
 31
0.0
  0
LINE
  8
DIM
 10
45.514707
 20
44.10445
 30
0.0
 11
45.584707
 21
44.10445
 31
0.0
  0
DIMENSION
  8
DIM
 62
     7
  2
*D7
 10
19.562072
 20
74.91154
 30
0.0
 11
11.812072
 21
74.91154
 31
0.0
 12
1.337753
 22
17.538395
 32
0.0
 13
4.062072
 23
71.258655
 33
0.0
 14
19.562072
 24
71.258655
 34
0.0
  0
TEXT
  8
TEXT
 10
1.757484
 20
28.676547
 30
0.0
 40
0.875
  1
%%uNOTES:
 41
0.75
  0
TEXT
  8
TEXT
 10
2.60219
 20
27.12222
 30
0.0
 40
0.875
  1
%%uMATERIAL:%%u BODY ASSEMBLY
 41
0.75
  0
TEXT
  8
TEXT
 10
8.515131
 20
25.663887
 30
0.0
 40
0.875
  1
HANDLE
 41
0.75
  0
TEXT
  8
TEXT
 10
8.515131
 20
24.205554
 30
0.0
 40
0.875
  1
FOOT
 41
0.75
  0
TEXT
  8
TEXT
 10
2.60219
 20
22.74722
 30
0.0
 40
0.875
  1
%%uFINISH:%%u BODY ASSEMBLY
 41
0.75
  0
TEXT
  8
TEXT
 10
7.121367
 20
19.832887
 30
0.0
 40
0.875
  1
HANDLE
 41
0.75
  0
TEXT
  8
TEXT
 10
7.121367
 20
18.374554
 30
0.0
 40
0.875
  1
FOOT
 41
0.75
  0
TEXT
  8
TEXT
 10
21.282877
 20
27.161595
 30
0.0
 40
0.875
  1
18 GA. STEEL
 41
0.75
  0
TEXT
  8
TEXT
 10
21.270191
 20
25.703262
 30
0.0
 40
0.875
  1
ABS PLASTIC
 41
0.75
  0
TEXT
  8
TEXT
 10
21.270191
 20
24.244929
 30
0.0
 40
0.875
  1
RUBBER
 41
0.75
  0
TEXT
  8
TEXT
 10
21.270191
 20
19.872262
 30
0.0
 40
0.875
  1
BLACK
 41
0.75
  0
TEXT
  8
TEXT
 10
21.270191
 20
18.413929
 30
0.0
 40
0.875
  1
BLACK
 41
0.75
  0
LINE
  8
TEXT
 10
17.147531
 20
27.081925
 30
0.0
 11
20.779766
 21
27.081925
 31
0.0
  0
LINE
  8
TEXT
 10
12.712824
 20
25.625925
 30
0.0
 11
20.779766
 21
25.625925
 31
0.0
  0
LINE
  8
TEXT
 10
11.234589
 20
24.169925
 30
0.0
 11
20.779766
 21
24.169925
 31
0.0
  0
LINE
  8
TEXT
 10
15.669295
 20
22.713925
 30
0.0
 11
20.779766
 21
22.713925
 31
0.0
  0
LINE
  8
TEXT
 10
11.445765
 20
19.801925
 30
0.0
 11
20.779766
 21
19.801925
 31
0.0
  0
LINE
  8
TEXT
 10
9.883059
 20
18.345925
 30
0.0
 11
20.779766
 21
18.345925
 31
0.0
  0
TEXT
  8
TEXT
 10
2.767474
 20
15.501929
 30
0.0
 40
0.875
  1
MOUNTING RAILS ARE PIERCED 0.281 DIA. HOLES
 41
0.75
  0
TEXT
  8
TEXT
 10
3.703021
 20
14.043595
 30
0.0
 40
0.875
  1
ON E.I.A. UNIVERSAL SPACING.
 41
0.75
  0
TEXT
  8
TEXT
 10
21.146042
 20
22.713925
 30
0.0
 40
0.875
  1
SAND TEXTURE
 41
0.75
  0
TEXT
  8
TEXT
 10
21.146042
 20
21.255591
 30
0.0
 40
0.875
  1
BLACK TEXTURE
 41
0.75
  0
CIRCLE
  8
OBJECT
 62
     7
 10
25.827707
 20
62.977655
 30
0.0
 40
0.1405
  0
CIRCLE
  8
OBJECT
 62
     7
 10
25.827707
 20
62.352655
 30
0.0
 40
0.1405
  0
CIRCLE
  8
OBJECT
 62
     7
 10
25.827707
 20
61.727655
 30
0.0
 40
0.1405
  0
CIRCLE
  8
OBJECT
 62
     7
 10
44.139707
 20
62.977655
 30
0.0
 40
0.1405
  0
CIRCLE
  8
OBJECT
 62
     7
 10
44.139707
 20
62.352655
 30
0.0
 40
0.1405
  0
CIRCLE
  8
OBJECT
 62
     7
 10
44.139707
 20
61.727655
 30
0.0
 40
0.1405
  0
CIRCLE
  8
OBJECT
 62
     7
 10
25.827707
 20
59.977655
 30
0.0
 40
0.1405
  0
CIRCLE
  8
OBJECT
 62
     7
 10
25.827707
 20
60.602655
 30
0.0
 40
0.1405
  0
CIRCLE
  8
OBJECT
 62
     7
 10
25.827707
 20
61.227655
 30
0.0
 40
0.1405
  0
CIRCLE
  8
OBJECT
 62
     7
 10
44.139707
 20
59.977655
 30
0.0
 40
0.1405
  0
CIRCLE
  8
OBJECT
 62
     7
 10
44.139707
 20
60.602655
 30
0.0
 40
0.1405
  0
CIRCLE
  8
OBJECT
 62
     7
 10
44.139707
 20
61.227655
 30
0.0
 40
0.1405
  0
INSERT
  8
OBJECT
  2
HB
 10
0.0
 20
0.0
 30
0.0
 41
7.0
 42
7.0
 43
7.0
  0
LINE
  8
OBJECT
 10
24.452707
 20
84.879297
 30
0.0
 11
24.452707
 21
100.379297
 31
0.0
  0
LINE
  8
OBJECT
 10
24.452707
 20
100.379297
 30
0.0
 11
45.514707
 21
100.379297
 31
0.0
  0
LINE
  8
OBJECT
 10
45.514707
 20
84.879297
 30
0.0
 11
45.514707
 21
100.379297
 31
0.0
  0
LINE
  8
OBJECT
 10
24.452707
 20
84.879297
 30
0.0
 11
45.514707
 21
84.879297
 31
0.0
  0
DIMENSION
  8
DIM
 62
     7
  2
*D11
 10
51.579361
 20
55.579979
 30
0.0
 11
47.280923
 21
55.579979
 31
0.0
 12
-0.143773
 22
8.132103
 32
0.0
 13
52.079361
 23
59.696655
 33
0.0
 14
51.579361
 24
58.696655
 34
0.0
  0
DIMENSION
  8
DIM
 62
     7
  2
*D12
 10
66.579361
 20
55.579979
 30
0.0
 11
59.329361
 21
55.579979
 31
0.0
 12
-0.143773
 22
8.132103
 32
0.0
 13
52.079361
 23
59.696655
 33
0.0
 14
66.579361
 24
59.696655
 34
0.0
  0
TEXT
  8
TEXT
 10
33.013338
 20
82.097301
 30
0.0
 40
0.875
  1
%%uTOP VIEW
 41
0.75
 72
     1
 11
35.649275
 21
82.097301
 31
0.0
  0
LINE
  8
TITLE
 10
70.406
 20
1.89
 30
0.0
 11
0.434
 21
1.89
 31
0.0
  0
LINE
  8
TITLE
 10
20.731117
 20
0.434
 30
0.0
 11
20.731117
 21
9.17
 31
0.0
  0
LINE
  8
TITLE
 10
70.406
 20
3.346
 30
0.0
 11
0.434
 21
3.346
 31
0.0
  0
LINE
  8
TITLE
 10
70.406
 20
4.802
 30
0.0
 11
0.434
 21
4.802
 31
0.0
  0
LINE
  8
TITLE
 10
70.406
 20
6.258
 30
0.0
 11
0.434
 21
6.258
 31
0.0
  0
LINE
  8
TITLE
 10
70.406
 20
7.714
 30
0.0
 11
0.434
 21
7.714
 31
0.0
  0
LINE
  8
TITLE
 10
70.406
 20
9.17
 30
0.0
 11
0.434
 21
9.17
 31
0.0
  0
LINE
  8
TITLE
 10
45.568559
 20
0.434
 30
0.0
 11
45.568559
 21
9.17
 31
0.0
  0
LINE
  8
DIM
 10
24.382707
 20
89.929297
 30
0.0
 11
24.382707
 21
95.329297
 31
0.0
  0
LINE
  8
DIM
 10
24.452707
 20
89.929297
 30
0.0
 11
24.382707
 21
89.929297
 31
0.0
  0
LINE
  8
DIM
 10
24.452707
 20
95.329297
 30
0.0
 11
24.382707
 21
95.329297
 31
0.0
  0
LINE
  8
DIM
 10
45.584707
 20
89.929297
 30
0.0
 11
45.584707
 21
95.329297
 31
0.0
  0
LINE
  8
DIM
 10
45.514707
 20
89.929297
 30
0.0
 11
45.584707
 21
89.929297
 31
0.0
  0
LINE
  8
DIM
 10
45.514707
 20
95.329297
 30
0.0
 11
45.584707
 21
95.329297
 31
0.0
  0
TEXT
  8
DIM
 62
     7
 10
46.131197
 20
53.763789
 30
0.0
 40
0.875
  1
INSIDE
 41
0.75
  7
TXT
  0
POLYLINE
  8
DIM
 62
     7
 66
     1
 10
0.0
 20
0.0
 30
0.0
 41
0.4725
  0
VERTEX
  8
DIM
 62
     7
 10
13.103453
 20
69.501655
 30
0.0
  0
VERTEX
  8
DIM
 62
     7
 10
13.572955
 20
70.670915
 30
0.0
 41
0.0
  0
VERTEX
  8
DIM
 62
     7
 10
16.477889
 20
77.842243
 30
0.0
 41
0.0
  0
VERTEX
  8
DIM
 62
     7
 10
17.352889
 20
77.842243
 30
0.0
 41
0.0
  0
SEQEND
  8
DIM
 62
     7
  0
TEXT
  8
DIM
 62
     7
 10
18.227889
 20
77.404743
 30
0.0
 40
0.875
  1
HANDLE
 41
0.75
  7
TXT
  0
POLYLINE
  8
DIM
 62
     7
 66
     1
 10
0.0
 20
0.0
 30
0.0
 41
0.4725
  0
VERTEX
  8
DIM
 62
     7
 10
25.062207
 20
48.29495
 30
0.0
  0
VERTEX
  8
DIM
 62
     7
 10
24.032012
 20
47.569485
 30
0.0
 41
0.0
  0
VERTEX
  8
DIM
 62
     7
 10
21.421141
 20
45.793207
 30
0.0
 41
0.0
  0
VERTEX
  8
DIM
 62
     7
 10
20.546141
 20
45.793207
 30
0.0
 41
0.0
  0
SEQEND
  8
DIM
 62
     7
  0
TEXT
  8
DIM
 62
     7
 10
12.671141
 20
45.355707
 30
0.0
 40
0.875
  1
RUBBER FOOT
 41
0.75
  7
TXT
 72
     2
 11
19.671141
 21
45.355707
 31
0.0
  0
TEXT
  8
TEXT
 10
16.103045
 20
105.937707
 30
0.0
 40
1.312
  1
ECONOCAB
 41
0.75
  7
TXT
 72
     1
 11
19.875045
 21
105.937707
 31
0.0
  0
TEXT
  8
TEXT
 10
45.699406
 20
105.937707
 30
0.0
 40
1.312
  1
EC-9902  TO  EC-9906
 41
0.75
  7
TXT
 72
     1
 11
55.211406
 21
105.937707
 31
0.0
  0
TEXT
  8
TEXT
 10
7.279913
 20
8.004861
 30
0.0
 40
0.875
  1
PART NO.
 41
0.75
  7
TXT
 72
     1
 11
9.576788
 21
8.004861
 31
0.0
  0
TEXT
  8
TEXT
 10
7.443975
 20
6.546527
 30
0.0
 40
0.875
  1
EC-9902
 41
0.75
  7
TXT
 72
     1
 11
9.576788
 21
6.546527
 31
0.0
  0
TEXT
  8
TEXT
 10
7.443975
 20
5.088194
 30
0.0
 40
0.875
  1
EC-9903
 41
0.75
  7
TXT
 72
     1
 11
9.576788
 21
5.088194
 31
0.0
  0
TEXT
  8
TEXT
 10
7.443975
 20
3.629861
 30
0.0
 40
0.875
  1
EC-9904
 41
0.75
  7
TXT
 72
     1
 11
9.576788
 21
3.629861
 31
0.0
  0
TEXT
  8
TEXT
 10
7.443975
 20
2.171527
 30
0.0
 40
0.875
  1
EC-9905
 41
0.75
  7
TXT
 72
     1
 11
9.576788
 21
2.171527
 31
0.0
  0
TEXT
  8
TEXT
 10
7.443975
 20
0.713194
 30
0.0
 40
0.875
  1
EC-9906
 41
0.75
  7
TXT
 72
     1
 11
9.576788
 21
0.713194
 31
0.0
  0
TEXT
  8
TEXT
 10
31.450926
 20
7.992178
 30
0.0
 40
0.875
  1
DIM. A
 41
0.75
  7
TXT
 72
     1
 11
32.982176
 21
7.992178
 31
0.0
  0
TEXT
  8
TEXT
 10
31.724364
 20
6.533845
 30
0.0
 40
0.875
  1
9.062
 41
0.75
  7
TXT
 72
     1
 11
32.982176
 21
6.533845
 31
0.0
  0
TEXT
  8
TEXT
 10
31.614989
 20
5.075511
 30
0.0
 40
0.875
  1
10.812
 41
0.75
  7
TXT
 72
     1
 11
32.982176
 21
5.075511
 31
0.0
  0
TEXT
  8
TEXT
 10
31.450926
 20
3.617178
 30
0.0
 40
0.875
  1
12.562
 41
0.75
  7
TXT
 72
     1
 11
32.982176
 21
3.617178
 31
0.0
  0
TEXT
  8
TEXT
 10
31.560301
 20
2.158845
 30
0.0
 40
0.875
  1
14.312
 41
0.75
  7
TXT
 72
     1
 11
32.982176
 21
2.158845
 31
0.0
  0
TEXT
  8
TEXT
 10
31.505614
 20
0.700511
 30
0.0
 40
0.875
  1
16.062
 41
0.75
  7
TXT
 72
     1
 11
32.982176
 21
0.700511
 31
0.0
  0
TEXT
  8
TEXT
 10
56.343055
 20
0.700511
 30
0.0
 40
0.875
  1
14.062
 41
0.75
  7
TXT
 72
     1
 11
57.819618
 21
0.700511
 31
0.0
  0
TEXT
  8
TEXT
 10
56.397743
 20
2.158845
 30
0.0
 40
0.875
  1
12.312
 41
0.75
  7
TXT
 72
     1
 11
57.819618
 21
2.158845
 31
0.0
  0
TEXT
  8
TEXT
 10
56.343055
 20
3.617178
 30
0.0
 40
0.875
  1
10.562
 41
0.75
  7
TXT
 72
     1
 11
57.819618
 21
3.617178
 31
0.0
  0
TEXT
  8
TEXT
 10
56.616493
 20
5.075511
 30
0.0
 40
0.875
  1
8.812
 41
0.75
  7
TXT
 72
     1
 11
57.819618
 21
5.075511
 31
0.0
  0
TEXT
  8
TEXT
 10
56.288368
 20
7.992178
 30
0.0
 40
0.875
  1
DIM. B
 41
0.75
  7
TXT
 72
     1
 11
57.819618
 21
7.992178
 31
0.0
  0
TEXT
  8
TEXT
 10
56.561805
 20
6.533845
 30
0.0
 40
0.875
  1
7.062
 41
0.75
  7
TXT
 72
     1
 11
57.819618
 21
6.533845
 31
0.0
  0
TEXT
  8
DIM
 10
6.983641
 20
43.939082
 30
0.0
 40
0.875
  1
0.625 DIA. x 0.218 HIGH
 41
0.75
  7
TXT
 72
     2
 11
19.671141
 21
43.939082
 31
0.0
  0
TEXT
  8
DIM
 10
93.1988
 20
66.755754
 30
0.0
 40
1.0
  1

  0
TEXT
  8
DIM
 10
92.9488
 20
56.381009
 30
0.0
 40
1.0
  1

  0
TEXT
  8
DIM
 10
93.115467
 20
50.096672
 30
0.0
 40
1.0
  1

  0
TEXT
  8
DIM
 10
75.237147
 20
51.50127
 30
0.0
 40
1.0
  1

  0
TEXT
  8
DIM
 10
109.279647
 20
51.50127
 30
0.0
 40
1.0
  1

  0
TEXT
  8
DIM
 10
159.800739
 20
50.033875
 30
0.0
 40
1.0
  1

  0
TEXT
  8
DIM
 10
149.052419
 20
63.75627
 30
0.0
 40
1.0
  1

  0
TEXT
  8
DIM
 10
151.309857
 20
67.041311
 30
0.0
 40
1.0
  1

  0
TEXT
  8
DIM
 10
93.1988
 20
137.595754
 30
0.0
 40
1.0
  1

  0
TEXT
  8
DIM
 10
92.9488
 20
127.221009
 30
0.0
 40
1.0
  1

  0
TEXT
  8
DIM
 10
93.115467
 20
120.936672
 30
0.0
 40
1.0
  1

  0
TEXT
  8
DIM
 10
75.237147
 20
122.34127
 30
0.0
 40
1.0
  1

  0
TEXT
  8
DIM
 10
109.279647
 20
122.34127
 30
0.0
 40
1.0
  1

  0
TEXT
  8
DIM
 10
159.800739
 20
120.873875
 30
0.0
 40
1.0
  1

  0
TEXT
  8
DIM
 10
149.052419
 20
134.59627
 30
0.0
 40
1.0
  1

  0
TEXT
  8
DIM
 10
151.309857
 20
137.881311
 30
0.0
 40
1.0
  1

  0
TEXT
  8
DIM
 10
93.1988
 20
208.435754
 30
0.0
 40
1.0
  1

  0
TEXT
  8
DIM
 10
92.9488
 20
198.061009
 30
0.0
 40
1.0
  1

  0
TEXT
  8
DIM
 10
93.115467
 20
191.776672
 30
0.0
 40
1.0
  1

  0
TEXT
  8
DIM
 10
75.237147
 20
193.18127
 30
0.0
 40
1.0
  1

  0
TEXT
  8
DIM
 10
109.279647
 20
193.18127
 30
0.0
 40
1.0
  1

  0
TEXT
  8
DIM
 10
159.800739
 20
191.713875
 30
0.0
 40
1.0
  1

  0
TEXT
  8
DIM
 10
149.052419
 20
205.43627
 30
0.0
 40
1.0
  1

  0
TEXT
  8
DIM
 10
151.309857
 20
208.721311
 30
0.0
 40
1.0
  1

  0
TEXT
  8
DIM
 10
93.1988
 20
208.435754
 30
0.0
 40
1.0
  1

  0
TEXT
  8
DIM
 10
92.9488
 20
198.061009
 30
0.0
 40
1.0
  1

  0
TEXT
  8
DIM
 10
93.115467
 20
191.776672
 30
0.0
 40
1.0
  1

  0
TEXT
  8
DIM
 10
75.237147
 20
193.18127
 30
0.0
 40
1.0
  1

  0
TEXT
  8
DIM
 10
109.279647
 20
193.18127
 30
0.0
 40
1.0
  1

  0
TEXT
  8
DIM
 10
159.800739
 20
191.713875
 30
0.0
 40
1.0
  1

  0
TEXT
  8
DIM
 10
149.052419
 20
205.43627
 30
0.0
 40
1.0
  1

  0
TEXT
  8
DIM
 10
151.309857
 20
208.721311
 30
0.0
 40
1.0
  1

  0
ARC
  8
OBJECT
 62
     7
 10
44.592707
 20
58.821655
 30
0.0
 40
0.34375
 50
201.323686
 51
338.676314
  0
ARC
  8
OBJECT
 62
     7
 10
25.374707
 20
58.821655
 30
0.0
 40
0.34375
 50
201.323686
 51
338.676314
  0
ARC
  8
OBJECT
 62
     7
 10
19.015072
 20
58.821655
 30
0.0
 40
0.34375
 50
201.323686
 51
338.676314
  0
CIRCLE
  8
OBJECT
 62
     7
 10
44.592707
 20
48.60745
 30
0.0
 40
0.3125
  0
CIRCLE
  8
OBJECT
 62
     7
 10
25.374707
 20
48.60745
 30
0.0
 40
0.3125
  0
CIRCLE
  8
OBJECT
 10
25.374707
 20
34.20145
 30
0.0
 40
0.3125
  0
CIRCLE
  8
OBJECT
 10
44.592707
 20
34.20145
 30
0.0
 40
0.3125
  0
ARC
  8
OBJECT
 62
     7
 10
4.609072
 20
58.821655
 30
0.0
 40
0.34375
 50
201.323686
 51
338.676314
  0
ARC
  8
OBJECT
 62
     7
 10
52.126361
 20
58.821655
 30
0.0
 40
0.34375
 50
201.323686
 51
338.676314
  0
ARC
  8
OBJECT
 62
     7
 10
66.532361
 20
58.821655
 30
0.0
 40
0.34375
 50
201.323686
 51
338.676314
  0
TEXT
  8
TEXT
 10
2.767474
 20
11.260454
 30
0.0
 40
0.875
  1
LOAD RATING:  500 LBS. MAX.
 41
0.75
  0
ENDSEC
  0
EOF
