  0
SECTION
  2
HEADER
  9
$ACADVER
  1
AC1015
  9
$ACADMAINTVER
 70
     6
  9
$DWGCODEPAGE
  3
ANSI_1252
  9
$INSBASE
 10
0.0
 20
0.0
 30
0.0
  9
$EXTMIN
 10
0.0
 20
0.0
 30
0.0
  9
$EXTMAX
 10
25.5
 20
16.5
 30
0.0
  9
$LIMMIN
 10
0.0
 20
0.0
  9
$LIMMAX
 10
25.5
 20
16.5
  9
$ORTHOMODE
 70
     0
  9
$REGENMODE
 70
     1
  9
$FILLMODE
 70
     1
  9
$QTEXTMODE
 70
     0
  9
$MIRRTEXT
 70
     1
  9
$LTSCALE
 40
1.5
  9
$ATTMODE
 70
     1
  9
$TEXTSIZE
 40
0.1875
  9
$TRACEWID
 40
0.05
  9
$TEXTSTYLE
  7
Standard
  9
$CLAYER
  8
0
  9
$CELTYPE
  6
ByLayer
  9
$CECOLOR
 62
   256
  9
$CELTSCALE
 40
1.0
  9
$DISPSILH
 70
     0
  9
$DIMSCALE
 40
1.0
  9
$DIMASZ
 40
0.195
  9
$DIMEXO
 40
0.075
  9
$DIMDLI
 40
0.38
  9
$DIMRND
 40
0.0
  9
$DIMDLE
 40
0.0
  9
$DIMEXE
 40
0.1875
  9
$DIMTP
 40
0.0
  9
$DIMTM
 40
0.0
  9
$DIMTXT
 40
0.1875
  9
$DIMCEN
 40
0.09
  9
$DIMTSZ
 40
0.0
  9
$DIMTOL
 70
     0
  9
$DIMLIM
 70
     0
  9
$DIMTIH
 70
     1
  9
$DIMTOH
 70
     1
  9
$DIMSE1
 70
     0
  9
$DIMSE2
 70
     0
  9
$DIMTAD
 70
     0
  9
$DIMZIN
 70
     0
  9
$DIMBLK
  1

  9
$DIMASO
 70
     1
  9
$DIMSHO
 70
     1
  9
$DIMPOST
  1

  9
$DIMAPOST
  1

  9
$DIMALT
 70
     0
  9
$DIMALTD
 70
     2
  9
$DIMALTF
 40
25.4
  9
$DIMLFAC
 40
1.0
  9
$DIMTOFL
 70
     0
  9
$DIMTVP
 40
0.0
  9
$DIMTIX
 70
     0
  9
$DIMSOXD
 70
     0
  9
$DIMSAH
 70
     0
  9
$DIMBLK1
  1

  9
$DIMBLK2
  1

  9
$DIMSTYLE
  2
Standard
  9
$DIMCLRD
 70
     0
  9
$DIMCLRE
 70
     0
  9
$DIMCLRT
 70
     0
  9
$DIMTFAC
 40
1.0
  9
$DIMGAP
 40
0.09
  9
$DIMJUST
 70
     0
  9
$DIMSD1
 70
     0
  9
$DIMSD2
 70
     0
  9
$DIMTOLJ
 70
     1
  9
$DIMTZIN
 70
     0
  9
$DIMALTZ
 70
     0
  9
$DIMALTTZ
 70
     0
  9
$DIMUPT
 70
     0
  9
$DIMDEC
 70
     2
  9
$DIMTDEC
 70
     2
  9
$DIMALTU
 70
     2
  9
$DIMALTTD
 70
     2
  9
$DIMTXSTY
  7
Standard
  9
$DIMAUNIT
 70
     0
  9
$DIMADEC
 70
     2
  9
$DIMALTRND
 40
0.0
  9
$DIMAZIN
 70
     0
  9
$DIMDSEP
 70
    46
  9
$DIMATFIT
 70
     3
  9
$DIMFRAC
 70
     0
  9
$DIMLDRBLK
  1

  9
$DIMLUNIT
 70
     2
  9
$DIMLWD
 70
    -2
  9
$DIMLWE
 70
    -2
  9
$DIMTMOVE
 70
     0
  9
$LUNITS
 70
     2
  9
$LUPREC
 70
     2
  9
$SKETCHINC
 40
0.1
  9
$FILLETRAD
 40
0.5
  9
$AUNITS
 70
     0
  9
$AUPREC
 70
     2
  9
$MENU
  1
.
  9
$ELEVATION
 40
0.0
  9
$PELEVATION
 40
0.0
  9
$THICKNESS
 40
0.0
  9
$LIMCHECK
 70
     0
  9
$CHAMFERA
 40
0.0
  9
$CHAMFERB
 40
0.0
  9
$CHAMFERC
 40
0.0
  9
$CHAMFERD
 40
0.0
  9
$SKPOLY
 70
     0
  9
$TDCREATE
 40
2457308.590251979
  9
$TDUCREATE
 40
2457308.756918646
  9
$TDUPDATE
 40
2457308.590255335
  9
$TDUUPDATE
 40
2457308.756922002
  9
$TDINDWG
 40
0.0000000116
  9
$TDUSRTIMER
 40
0.0000000116
  9
$USRTIMER
 70
     1
  9
$ANGBASE
 50
0.0
  9
$ANGDIR
 70
     0
  9
$PDMODE
 70
     0
  9
$PDSIZE
 40
-1.0
  9
$PLINEWID
 40
0.0
  9
$SPLFRAME
 70
     0
  9
$SPLINETYPE
 70
     6
  9
$SPLINESEGS
 70
     8
  9
$HANDSEED
  5
62F
  9
$SURFTAB1
 70
     6
  9
$SURFTAB2
 70
     6
  9
$SURFTYPE
 70
     6
  9
$SURFU
 70
     6
  9
$SURFV
 70
     6
  9
$UCSBASE
  2

  9
$UCSNAME
  2

  9
$UCSORG
 10
0.0
 20
0.0
 30
0.0
  9
$UCSXDIR
 10
1.0
 20
0.0
 30
0.0
  9
$UCSYDIR
 10
0.0
 20
1.0
 30
0.0
  9
$UCSORTHOREF
  2

  9
$UCSORTHOVIEW
 70
     0
  9
$UCSORGTOP
 10
0.0
 20
0.0
 30
0.0
  9
$UCSORGBOTTOM
 10
0.0
 20
0.0
 30
0.0
  9
$UCSORGLEFT
 10
0.0
 20
0.0
 30
0.0
  9
$UCSORGRIGHT
 10
0.0
 20
0.0
 30
0.0
  9
$UCSORGFRONT
 10
0.0
 20
0.0
 30
0.0
  9
$UCSORGBACK
 10
0.0
 20
0.0
 30
0.0
  9
$PUCSBASE
  2

  9
$PUCSNAME
  2

  9
$PUCSORG
 10
0.0
 20
0.0
 30
0.0
  9
$PUCSXDIR
 10
1.0
 20
0.0
 30
0.0
  9
$PUCSYDIR
 10
0.0
 20
1.0
 30
0.0
  9
$PUCSORTHOREF
  2

  9
$PUCSORTHOVIEW
 70
     0
  9
$PUCSORGTOP
 10
0.0
 20
0.0
 30
0.0
  9
$PUCSORGBOTTOM
 10
0.0
 20
0.0
 30
0.0
  9
$PUCSORGLEFT
 10
0.0
 20
0.0
 30
0.0
  9
$PUCSORGRIGHT
 10
0.0
 20
0.0
 30
0.0
  9
$PUCSORGFRONT
 10
0.0
 20
0.0
 30
0.0
  9
$PUCSORGBACK
 10
0.0
 20
0.0
 30
0.0
  9
$USERI1
 70
     0
  9
$USERI2
 70
     0
  9
$USERI3
 70
     0
  9
$USERI4
 70
     0
  9
$USERI5
 70
     0
  9
$USERR1
 40
0.0
  9
$USERR2
 40
0.0
  9
$USERR3
 40
0.0
  9
$USERR4
 40
0.0
  9
$USERR5
 40
0.0
  9
$WORLDVIEW
 70
     1
  9
$SHADEDGE
 70
     3
  9
$SHADEDIF
 70
    70
  9
$TILEMODE
 70
     1
  9
$MAXACTVP
 70
    64
  9
$PINSBASE
 10
0.0
 20
0.0
 30
0.0
  9
$PLIMCHECK
 70
     0
  9
$PEXTMIN
 10
1.0000000000E+20
 20
1.0000000000E+20
 30
1.0000000000E+20
  9
$PEXTMAX
 10
-1.0000000000E+20
 20
-1.0000000000E+20
 30
-1.0000000000E+20
  9
$PLIMMIN
 10
0.0
 20
0.0
  9
$PLIMMAX
 10
12.0
 20
9.0
  9
$UNITMODE
 70
     0
  9
$VISRETAIN
 70
     1
  9
$PLINEGEN
 70
     0
  9
$PSLTSCALE
 70
     1
  9
$TREEDEPTH
 70
  3020
  9
$CMLSTYLE
  2
Standard
  9
$CMLJUST
 70
     0
  9
$CMLSCALE
 40
1.0
  9
$PROXYGRAPHICS
 70
     1
  9
$MEASUREMENT
 70
     0
  9
$CELWEIGHT
370
    -1
  9
$ENDCAPS
280
     0
  9
$JOINSTYLE
280
     0
  9
$LWDISPLAY
290
     1
  9
$INSUNITS
 70
     1
  9
$HYPERLINKBASE
  1

  9
$STYLESHEET
  1

  9
$XEDIT
290
     1
  9
$CEPSNTYPE
380
     0
  9
$PSTYLEMODE
290
     1
  9
$FINGERPRINTGUID
  2
{19F61BA7-B317-463A-9CDE-BF17A8F76CFA}
  9
$VERSIONGUID
  2
{FAEB1C32-E019-11D5-929B-00C0DF256EC4}
  9
$EXTNAMES
290
     1
  9
$PSVPSCALE
 40
0.0
  9
$OLESTARTUP
290
     0
  0
ENDSEC
  0
SECTION
  2
CLASSES
  0
CLASS
  1
ACDBDICTIONARYWDFLT
  2
AcDbDictionaryWithDefault
  3
ObjectDBX Classes
 90
        0
280
     0
281
     0
  0
CLASS
  1
VISUALSTYLE
  2
AcDbVisualStyle
  3
ObjectDBX Classes
 90
     4095
280
     0
281
     0
  0
CLASS
  1
MATERIAL
  2
AcDbMaterial
  3
ObjectDBX Classes
 90
     1153
280
     0
281
     0
  0
CLASS
  1
SCALE
  2
AcDbScale
  3
ObjectDBX Classes
 90
     1153
280
     0
281
     0
  0
CLASS
  1
TABLESTYLE
  2
AcDbTableStyle
  3
ObjectDBX Classes
 90
     4095
280
     0
281
     0
  0
CLASS
  1
MLEADERSTYLE
  2
AcDbMLeaderStyle
  3
ACDB_MLEADERSTYLE_CLASS
 90
     4095
280
     0
281
     0
  0
CLASS
  1
SUN
  2
AcDbSun
  3
SCENEOE
 90
     1153
280
     0
281
     0
  0
CLASS
  1
ACDBPLACEHOLDER
  2
AcDbPlaceHolder
  3
ObjectDBX Classes
 90
        0
280
     0
281
     0
  0
CLASS
  1
LAYOUT
  2
AcDbLayout
  3
ObjectDBX Classes
 90
        0
280
     0
281
     0
  0
ENDSEC
  0
SECTION
  2
TABLES
  0
TABLE
  2
VPORT
  5
8
330
0
100
AcDbSymbolTable
 70
     1
  0
VPORT
  5
29
330
8
100
AcDbSymbolTableRecord
100
AcDbViewportTableRecord
  2
*Active
 70
     0
 10
0.0
 20
0.0
 11
1.0
 21
1.0
 12
12.75
 22
8.25
 13
0.0
 23
0.0
 14
0.5
 24
0.5
 15
0.5
 25
0.5
 16
0.0
 26
0.0
 36
1.0
 17
0.0
 27
0.0
 37
0.0
 40
16.5
 41
1.5454545455
 42
50.0
 43
0.0
 44
0.0
 50
0.0
 51
0.0
 71
     0
 72
  2000
 73
     1
 74
     3
 75
     0
 76
     0
 77
     0
 78
     0
281
     0
 65
     1
110
0.0
120
0.0
130
0.0
111
1.0
121
0.0
131
0.0
112
0.0
122
1.0
132
0.0
 79
     0
146
0.0
  0
ENDTAB
  0
TABLE
  2
LTYPE
  5
5
330
0
100
AcDbSymbolTable
 70
     6
  0
LTYPE
  5
14
330
5
100
AcDbSymbolTableRecord
100
AcDbLinetypeTableRecord
  2
ByBlock
 70
     0
  3

 72
    65
 73
     0
 40
0.0
  0
LTYPE
  5
15
330
5
100
AcDbSymbolTableRecord
100
AcDbLinetypeTableRecord
  2
ByLayer
 70
     0
  3

 72
    65
 73
     0
 40
0.0
  0
LTYPE
  5
16
330
5
100
AcDbSymbolTableRecord
100
AcDbLinetypeTableRecord
  2
Continuous
 70
     0
  3
Solid line
 72
    65
 73
     0
 40
0.0
  0
LTYPE
  5
6E
330
5
100
AcDbSymbolTableRecord
100
AcDbLinetypeTableRecord
  2
HIDDEN
 70
     0
  3
Hidden __ __ __ __ __ __ __ __ __ __ __ __ __ __
 72
    65
 73
     2
 40
0.075
 49
0.05
 74
     0
 49
-0.025
 74
     0
  0
LTYPE
  5
6F
330
5
100
AcDbSymbolTableRecord
100
AcDbLinetypeTableRecord
  2
PHANTOM
 70
     0
  3
Phantom ______  __  __  ______  __  __  ______
 72
    65
 73
     6
 40
0.5
 49
0.25
 74
     0
 49
-0.05
 74
     0
 49
0.05
 74
     0
 49
-0.05
 74
     0
 49
0.05
 74
     0
 49
-0.05
 74
     0
  0
LTYPE
  5
70
330
5
100
AcDbSymbolTableRecord
100
AcDbLinetypeTableRecord
  2
CENTER
 70
     0
  3
Center ____ _ ____ _ ____ _ ____ _ ____ _ ____
 72
    65
 73
     4
 40
0.4
 49
0.25
 74
     0
 49
-0.05
 74
     0
 49
0.05
 74
     0
 49
-0.05
 74
     0
  0
LTYPE
  5
71
330
5
100
AcDbSymbolTableRecord
100
AcDbLinetypeTableRecord
  2
CENTERX2
 70
     0
  3
Center (2x) ________  __  ________  __  _____
 72
    65
 73
     4
 40
0.8
 49
0.5
 74
     0
 49
-0.1
 74
     0
 49
0.1
 74
     0
 49
-0.1
 74
     0
  0
LTYPE
  5
72
330
5
100
AcDbSymbolTableRecord
100
AcDbLinetypeTableRecord
  2
DOT2
 70
     0
  3
Dot (.5x) ........................................
 72
    65
 73
     2
 40
0.025
 49
0.0
 74
     0
 49
-0.025
 74
     0
  0
ENDTAB
  0
TABLE
  2
LAYER
  5
2
330
0
100
AcDbSymbolTable
 70
     1
  0
LAYER
  5
10
330
2
100
AcDbSymbolTableRecord
100
AcDbLayerTableRecord
  2
0
 70
     0
 62
     7
  6
Continuous
370
    -3
390
F
  0
ENDTAB
  0
TABLE
  2
STYLE
  5
3
330
0
100
AcDbSymbolTable
 70
     5
  0
STYLE
  5
11
330
3
100
AcDbSymbolTableRecord
100
AcDbTextStyleTableRecord
  2
Standard
 70
     0
 40
0.0
 41
1.0
 50
0.0
 71
     0
 42
0.1875
  3
txt
  4

  0
STYLE
  5
A6
330
3
100
AcDbSymbolTableRecord
100
AcDbTextStyleTableRecord
  2
SLDTEXTSTYLE0
 70
     0
 40
0.0
 41
0.75
 50
0.0
 71
     0
 42
0.1875
  3
TXT
  4

  0
STYLE
  5
BA
330
3
100
AcDbSymbolTableRecord
100
AcDbTextStyleTableRecord
  2
SLDTEXTSTYLE1
 70
     0
 40
0.0
 41
0.7
 50
0.0
 71
     0
 42
0.1875
  3
TXT
  4

  0
STYLE
  5
C5
330
3
100
AcDbSymbolTableRecord
100
AcDbTextStyleTableRecord
  2
SLDTEXTSTYLE2
 70
     0
 40
0.0
 41
0.6981132075
 50
0.0
 71
     0
 42
0.1875
  3
TXT
  4

  0
STYLE
  5
22C
330
3
100
AcDbSymbolTableRecord
100
AcDbTextStyleTableRecord
  2
SLDTEXTSTYLE3
 70
     0
 40
0.0
 41
0.6875
 50
0.0
 71
     0
 42
0.1875
  3
TXT
  4

  0
ENDTAB
  0
TABLE
  2
VIEW
  5
6
330
0
100
AcDbSymbolTable
 70
     0
  0
ENDTAB
  0
TABLE
  2
UCS
  5
7
330
0
100
AcDbSymbolTable
 70
     0
  0
ENDTAB
  0
TABLE
  2
APPID
  5
9
330
0
100
AcDbSymbolTable
 70
     1
  0
APPID
  5
12
330
9
100
AcDbSymbolTableRecord
100
AcDbRegAppTableRecord
  2
ACAD
 70
     0
  0
ENDTAB
  0
TABLE
  2
DIMSTYLE
  5
A
330
0
100
AcDbSymbolTable
 70
     8
100
AcDbDimStyleTable
  0
DIMSTYLE
105
27
330
A
100
AcDbSymbolTableRecord
100
AcDbDimStyleTableRecord
  2
Standard
 70
     0
178
     0
340
11
  0
DIMSTYLE
105
17C
102
{ACAD_REACTORS
330
17B
330
190
330
1A4
330
1B8
330
25E
330
272
330
29A
330
2C3
330
309
330
53D
330
551
330
579
330
5E0
330
606
102
}
330
A
100
AcDbSymbolTableRecord
100
AcDbDimStyleTableRecord
  2
SLDDIMSTYLE0
 70
     0
 41
0.195
 44
0.0
 45
0.000000001
 78
    12
 79
     3
140
0.1875
147
0.046875
148
0.000000001
170
     1
173
     1
178
     0
271
     2
272
     2
276
     2
284
    12
340
A6
  0
DIMSTYLE
105
1CD
102
{ACAD_REACTORS
330
1CC
330
20A
102
}
330
A
100
AcDbSymbolTableRecord
100
AcDbDimStyleTableRecord
  2
SLDDIMSTYLE1
 70
     0
 41
0.195
 44
0.0
 45
0.000000001
 78
     4
 79
     1
140
0.1875
147
0.046875
148
0.000000001
170
     1
173
     1
178
     0
271
     2
272
     2
276
     2
284
    12
340
A6
  0
DIMSTYLE
105
1E2
102
{ACAD_REACTORS
330
1E1
330
1F6
330
286
330
2AE
330
31C
330
330
330
355
330
4DD
330
4EF
330
565
330
5F3
330
61A
102
}
330
A
100
AcDbSymbolTableRecord
100
AcDbDimStyleTableRecord
  2
SLDDIMSTYLE2
 70
     0
 41
0.195
 44
0.0
 45
0.000000001
 78
    12
 79
     3
140
0.1875
147
0.046875
148
0.000000001
170
     1
172
     1
173
     1
178
     0
271
     2
272
     2
276
     2
284
    12
289
     0
340
A6
  0
DIMSTYLE
105
232
330
A
100
AcDbSymbolTableRecord
100
AcDbDimStyleTableRecord
  2
SLDDIMSTYLE3
 70
     0
 41
0.195
 44
0.0
 45
0.000000001
146
0.195
147
0.0
173
     1
178
     0
271
     0
272
     0
276
     2
340
11
  0
DIMSTYLE
105
2D8
102
{ACAD_REACTORS
330
2D7
102
}
330
A
100
AcDbSymbolTableRecord
100
AcDbDimStyleTableRecord
  2
SLDDIMSTYLE4
 70
     0
 41
0.195
 44
0.0
 45
0.000000001
 78
    12
 79
     3
140
0.1875
141
0.0
147
0.046875
148
0.000000001
170
     1
173
     1
178
     0
271
     2
272
     2
276
     2
284
    12
340
A6
  0
DIMSTYLE
105
2E9
102
{ACAD_REACTORS
330
2E8
330
2F9
330
345
102
}
330
A
100
AcDbSymbolTableRecord
100
AcDbDimStyleTableRecord
  2
SLDDIMSTYLE5
 70
     0
 41
0.195
 44
0.0
 45
0.000000001
 78
    12
 79
     3
140
0.1875
141
0.0
147
0.046875
148
0.000000001
170
     1
173
     1
178
     0
271
     2
272
     2
276
     2
279
     1
284
    12
340
A6
  0
DIMSTYLE
105
58E
102
{ACAD_REACTORS
330
58D
102
}
330
A
100
AcDbSymbolTableRecord
100
AcDbDimStyleTableRecord
  2
SLDDIMSTYLE6
 70
     0
 41
0.195
 44
0.0
 45
0.000000001
 78
    12
 79
     3
140
0.1875
141
0.0
147
0.046875
148
0.000000001
170
     1
173
     1
178
     0
271
     2
272
     2
276
     2
284
    12
340
A6
  0
ENDTAB
  0
TABLE
  2
BLOCK_RECORD
  5
1
330
0
100
AcDbSymbolTable
 70
    47
  0
BLOCK_RECORD
  5
1F
330
1
100
AcDbSymbolTableRecord
100
AcDbBlockTableRecord
  2
*Model_Space
340
22
  0
BLOCK_RECORD
  5
1B
330
1
100
AcDbSymbolTableRecord
100
AcDbBlockTableRecord
  2
*Paper_Space
340
1E
  0
BLOCK_RECORD
  5
23
330
1
100
AcDbSymbolTableRecord
100
AcDbBlockTableRecord
  2
*Paper_Space0
340
26
  0
BLOCK_RECORD
  5
A3
330
1
100
AcDbSymbolTableRecord
100
AcDbBlockTableRecord
  2
SW_NOTE_0
340
0
102
{BLKREFS
331
A9
102
}
  0
BLOCK_RECORD
  5
AA
330
1
100
AcDbSymbolTableRecord
100
AcDbBlockTableRecord
  2
SW_NOTE_1
340
0
102
{BLKREFS
331
AF
102
}
  0
BLOCK_RECORD
  5
B0
330
1
100
AcDbSymbolTableRecord
100
AcDbBlockTableRecord
  2
SW_NOTE_2
340
0
102
{BLKREFS
331
C0
102
}
  0
BLOCK_RECORD
  5
C1
330
1
100
AcDbSymbolTableRecord
100
AcDbBlockTableRecord
  2
SW_NOTE_3
340
0
102
{BLKREFS
331
CA
102
}
  0
BLOCK_RECORD
  5
CC
330
1
100
AcDbSymbolTableRecord
100
AcDbBlockTableRecord
  2
SW_NOTE_4
340
0
102
{BLKREFS
331
D4
102
}
  0
BLOCK_RECORD
  5
D5
330
1
100
AcDbSymbolTableRecord
100
AcDbBlockTableRecord
  2
SW_NOTE_5
340
0
102
{BLKREFS
331
DC
102
}
  0
BLOCK_RECORD
  5
E1
330
1
100
AcDbSymbolTableRecord
100
AcDbBlockTableRecord
  2
SW_NOTE_6
340
0
102
{BLKREFS
331
E6
102
}
  0
BLOCK_RECORD
  5
E7
330
1
100
AcDbSymbolTableRecord
100
AcDbBlockTableRecord
  2
SW_NOTE_7
340
0
102
{BLKREFS
331
EC
102
}
  0
BLOCK_RECORD
  5
ED
330
1
100
AcDbSymbolTableRecord
100
AcDbBlockTableRecord
  2
SW_NOTE_8
340
0
102
{BLKREFS
331
F2
102
}
  0
BLOCK_RECORD
  5
17D
330
1
100
AcDbSymbolTableRecord
100
AcDbBlockTableRecord
  2
_D
340
0
  0
BLOCK_RECORD
  5
191
330
1
100
AcDbSymbolTableRecord
100
AcDbBlockTableRecord
  2
_D_1
340
0
  0
BLOCK_RECORD
  5
1A5
330
1
100
AcDbSymbolTableRecord
100
AcDbBlockTableRecord
  2
_D_2
340
0
  0
BLOCK_RECORD
  5
1B9
330
1
100
AcDbSymbolTableRecord
100
AcDbBlockTableRecord
  2
_D_3
340
0
  0
BLOCK_RECORD
  5
1CE
330
1
100
AcDbSymbolTableRecord
100
AcDbBlockTableRecord
  2
_D_4
340
0
  0
BLOCK_RECORD
  5
1E3
330
1
100
AcDbSymbolTableRecord
100
AcDbBlockTableRecord
  2
_D_5
340
0
  0
BLOCK_RECORD
  5
1F7
330
1
100
AcDbSymbolTableRecord
100
AcDbBlockTableRecord
  2
_D_6
340
0
  0
BLOCK_RECORD
  5
20B
330
1
100
AcDbSymbolTableRecord
100
AcDbBlockTableRecord
  2
_D_7
340
0
  0
BLOCK_RECORD
  5
21E
330
1
100
AcDbSymbolTableRecord
100
AcDbBlockTableRecord
  2
SW_NOTE_9
340
0
102
{BLKREFS
331
231
102
}
  0
BLOCK_RECORD
  5
25F
330
1
100
AcDbSymbolTableRecord
100
AcDbBlockTableRecord
  2
_D_8
340
0
  0
BLOCK_RECORD
  5
273
330
1
100
AcDbSymbolTableRecord
100
AcDbBlockTableRecord
  2
_D_9
340
0
  0
BLOCK_RECORD
  5
287
330
1
100
AcDbSymbolTableRecord
100
AcDbBlockTableRecord
  2
_D_10
340
0
  0
BLOCK_RECORD
  5
29B
330
1
100
AcDbSymbolTableRecord
100
AcDbBlockTableRecord
  2
_D_11
340
0
  0
BLOCK_RECORD
  5
2AF
330
1
100
AcDbSymbolTableRecord
100
AcDbBlockTableRecord
  2
_D_12
340
0
  0
BLOCK_RECORD
  5
2C4
330
1
100
AcDbSymbolTableRecord
100
AcDbBlockTableRecord
  2
_D_13
340
0
  0
BLOCK_RECORD
  5
2D9
330
1
100
AcDbSymbolTableRecord
100
AcDbBlockTableRecord
  2
_D_14
340
0
  0
BLOCK_RECORD
  5
2EA
330
1
100
AcDbSymbolTableRecord
100
AcDbBlockTableRecord
  2
_D_15
340
0
  0
BLOCK_RECORD
  5
2FA
330
1
100
AcDbSymbolTableRecord
100
AcDbBlockTableRecord
  2
_D_16
340
0
  0
BLOCK_RECORD
  5
30A
330
1
100
AcDbSymbolTableRecord
100
AcDbBlockTableRecord
  2
_D_17
340
0
  0
BLOCK_RECORD
  5
31D
330
1
100
AcDbSymbolTableRecord
100
AcDbBlockTableRecord
  2
_D_18
340
0
  0
BLOCK_RECORD
  5
331
330
1
100
AcDbSymbolTableRecord
100
AcDbBlockTableRecord
  2
_D_19
340
0
  0
BLOCK_RECORD
  5
346
330
1
100
AcDbSymbolTableRecord
100
AcDbBlockTableRecord
  2
_D_20
340
0
  0
BLOCK_RECORD
  5
356
330
1
100
AcDbSymbolTableRecord
100
AcDbBlockTableRecord
  2
_D_21
340
0
  0
BLOCK_RECORD
  5
36A
330
1
100
AcDbSymbolTableRecord
100
AcDbBlockTableRecord
  2
SW_CENTERMARKSYMBOL_0
340
0
102
{BLKREFS
331
375
102
}
  0
BLOCK_RECORD
  5
376
330
1
100
AcDbSymbolTableRecord
100
AcDbBlockTableRecord
  2
SW_CENTERMARKSYMBOL_1
340
0
102
{BLKREFS
331
381
102
}
  0
BLOCK_RECORD
  5
4A5
330
1
100
AcDbSymbolTableRecord
100
AcDbBlockTableRecord
  2
SW_NOTE_10
340
0
102
{BLKREFS
331
4AC
102
}
  0
BLOCK_RECORD
  5
4DE
330
1
100
AcDbSymbolTableRecord
100
AcDbBlockTableRecord
  2
_D_22
340
0
  0
BLOCK_RECORD
  5
4F0
330
1
100
AcDbSymbolTableRecord
100
AcDbBlockTableRecord
  2
_D_23
340
0
  0
BLOCK_RECORD
  5
53E
330
1
100
AcDbSymbolTableRecord
100
AcDbBlockTableRecord
  2
_D_24
340
0
  0
BLOCK_RECORD
  5
552
330
1
100
AcDbSymbolTableRecord
100
AcDbBlockTableRecord
  2
_D_25
340
0
  0
BLOCK_RECORD
  5
566
330
1
100
AcDbSymbolTableRecord
100
AcDbBlockTableRecord
  2
_D_26
340
0
  0
BLOCK_RECORD
  5
57A
330
1
100
AcDbSymbolTableRecord
100
AcDbBlockTableRecord
  2
_D_27
340
0
  0
BLOCK_RECORD
  5
58F
330
1
100
AcDbSymbolTableRecord
100
AcDbBlockTableRecord
  2
_D_28
340
0
  0
BLOCK_RECORD
  5
5E1
330
1
100
AcDbSymbolTableRecord
100
AcDbBlockTableRecord
  2
_D_29
340
0
  0
BLOCK_RECORD
  5
5F4
330
1
100
AcDbSymbolTableRecord
100
AcDbBlockTableRecord
  2
_D_30
340
0
  0
BLOCK_RECORD
  5
607
330
1
100
AcDbSymbolTableRecord
100
AcDbBlockTableRecord
  2
_D_31
340
0
  0
BLOCK_RECORD
  5
61B
330
1
100
AcDbSymbolTableRecord
100
AcDbBlockTableRecord
  2
_D_32
340
0
  0
ENDTAB
  0
ENDSEC
  0
SECTION
  2
BLOCKS
  0
BLOCK
  5
20
330
1F
100
AcDbEntity
  8
0
100
AcDbBlockBegin
  2
*Model_Space
 70
     0
 10
0.0
 20
0.0
 30
0.0
  3
*Model_Space
  1

  0
ENDBLK
  5
21
330
1F
100
AcDbEntity
  8
0
100
AcDbBlockEnd
  0
BLOCK
  5
1C
330
1B
100
AcDbEntity
 67
     1
  8
0
100
AcDbBlockBegin
  2
*Paper_Space
 70
     0
 10
0.0
 20
0.0
 30
0.0
  3
*Paper_Space
  1

  0
ENDBLK
  5
1D
330
1B
100
AcDbEntity
 67
     1
  8
0
100
AcDbBlockEnd
  0
BLOCK
  5
24
330
23
100
AcDbEntity
  8
0
100
AcDbBlockBegin
  2
*Paper_Space0
 70
     0
 10
0.0
 20
0.0
 30
0.0
  3
*Paper_Space0
  1

  0
ENDBLK
  5
25
330
23
100
AcDbEntity
  8
0
100
AcDbBlockEnd
  0
BLOCK
  5
A4
330
A3
100
AcDbEntity
  8
0
100
AcDbBlockBegin
  2
SW_NOTE_0
 70
     0
 10
0.0
 20
0.0
 30
0.0
  3
SW_NOTE_0
  1

  0
MTEXT
  5
A7
330
A3
100
AcDbEntity
  8
0
  6
Continuous
 62
     0
370
     0
100
AcDbMText
 10
1.88671875
 20
0.2417002012
 30
0.0
 40
0.1875
 41
0.0
 71
     2
 72
     1
  1
OPTIONAL INTERNAL PANEL AND
  7
SLDTEXTSTYLE0
 73
     1
 44
1.0
  0
MTEXT
  5
A8
330
A3
100
AcDbEntity
  8
0
  6
Continuous
 62
     0
370
     0
100
AcDbMText
 10
1.887304555
 20
-0.0048549106
 30
0.0
 40
0.1875
 41
0.0
 71
     2
 72
     1
  1
SUGGESTED PC BOARD LAYOUT
  7
SLDTEXTSTYLE0
 73
     1
 44
1.0
  0
ENDBLK
  5
A5
330
A3
100
AcDbEntity
  8
0
100
AcDbBlockEnd
  0
BLOCK
  5
AB
330
AA
100
AcDbEntity
  8
0
100
AcDbBlockBegin
  2
SW_NOTE_1
 70
     0
 10
0.0
 20
0.0
 30
0.0
  3
SW_NOTE_1
  1

  0
MTEXT
  5
AD
330
AA
100
AcDbEntity
  8
0
  6
Continuous
 62
     0
370
     0
100
AcDbMText
 10
0.62109375
 20
0.3222669349
 30
0.0
 40
0.25
 41
0.0
 71
     2
 72
     1
  1
\LBODY
  7
SLDTEXTSTYLE0
 73
     1
 44
1.0
  0
MTEXT
  5
AE
330
AA
100
AcDbEntity
  8
0
  6
Continuous
 62
     0
370
     0
100
AcDbMText
 10
0.551710645
 20
-0.0069164862
 30
0.0
 40
0.15625
 41
0.0
 71
     2
 72
     1
  1
\LCOVER NOT SHOWN
  7
SLDTEXTSTYLE0
 73
     1
 44
1.0
  0
ENDBLK
  5
AC
330
AA
100
AcDbEntity
  8
0
100
AcDbBlockEnd
  0
BLOCK
  5
B1
330
B0
100
AcDbEntity
  8
0
100
AcDbBlockBegin
  2
SW_NOTE_2
 70
     0
 10
0.0
 20
0.0
 30
0.0
  3
SW_NOTE_2
  1

  0
MTEXT
  5
B3
330
B0
100
AcDbEntity
  8
0
  6
Continuous
 62
     0
370
     0
100
AcDbMText
 10
0.0
 20
0.2417002012
 30
0.0
 40
0.1875
 41
0.0
 71
     1
 72
     1
  1
MATERIAL: BODY & COVER - ALUMINUM ALLOY #ADC-12
  7
SLDTEXTSTYLE0
 73
     1
 44
1.0
  0
MTEXT
  5
B4
330
B0
100
AcDbEntity
  8
0
  6
Continuous
 62
     0
370
     0
100
AcDbMText
 10
0.0
 20
-0.2514100223
 30
0.0
 40
0.1875
 41
0.0
 71
     1
 72
     1
  1
FINISH: NATURAL (SUFFIX -A)
  7
SLDTEXTSTYLE0
 73
     1
 44
1.0
  0
MTEXT
  5
B5
330
B0
100
AcDbEntity
  8
0
  6
Continuous
 62
     0
370
     0
100
AcDbMText
 10
0.84375
 20
-0.4979651341
 30
0.0
 40
0.1875
 41
0.0
 71
     1
 72
     1
  1
SMOOTH BLACK POWDERCOAT (SUFFIX -AB)
  7
SLDTEXTSTYLE0
 73
     1
 44
1.0
  0
MTEXT
  5
B6
330
B0
100
AcDbEntity
  8
0
  6
Continuous
 62
     0
370
     0
100
AcDbMText
 10
0.0
 20
-0.9910753577
 30
0.0
 40
0.1875
 41
0.0
 71
     1
 72
     1
  1
FOUR (4) M4x0.7 x 20mm (.79") LG. 90
  7
SLDTEXTSTYLE0
 73
     1
 44
1.0
  0
MTEXT
  5
B7
330
B0
100
AcDbEntity
  8
0
  6
Continuous
 62
     0
370
     0
100
AcDbMText
 10
4.4499999132
 20
-0.9910753577
 30
0.0
 40
0.1875
 41
0.0
 71
     1
 72
     1
  1
%%d
  7
SLDTEXTSTYLE0
 73
     1
 44
1.0
  0
MTEXT
  5
B8
330
B0
100
AcDbEntity
  8
0
  6
Continuous
 62
     0
370
     0
100
AcDbMText
 10
4.5690625378
 20
-0.9910753577
 30
0.0
 40
0.1875
 41
0.0
 71
     1
 72
     1
  1
CSK. HEAD
  7
SLDTEXTSTYLE0
 73
     1
 44
1.0
  0
MTEXT
  5
B9
330
B0
100
AcDbEntity
  8
0
  6
Continuous
 62
     0
370
     0
100
AcDbMText
 10
0.4921875
 20
-1.2376304694
 30
0.0
 40
0.1875
 41
0.0
 71
     1
 72
     1
  1
STAINLESS STEEL SCREWS SUPPLIED FOR ASSEMBLY
  7
SLDTEXTSTYLE0
 73
     1
 44
1.0
  0
MTEXT
  5
BB
330
B0
100
AcDbEntity
  8
0
  6
Continuous
 62
     0
370
     0
100
AcDbMText
 10
0.4921875
 20
-1.4841855812
 30
0.0
 40
0.1875
 41
0.0
 71
     1
 72
     1
  1
OF COVER TO BODY. APPLY AT 12 IN./LB. OF
  7
SLDTEXTSTYLE1
 73
     1
 44
1.0
  0
MTEXT
  5
BC
330
B0
100
AcDbEntity
  8
0
  6
Continuous
 62
     0
370
     0
100
AcDbMText
 10
0.4921875
 20
-1.730740693
 30
0.0
 40
0.1875
 41
0.0
 71
     1
 72
     1
  1
TORQUE.
  7
SLDTEXTSTYLE0
 73
     1
 44
1.0
  0
MTEXT
  5
BD
330
B0
100
AcDbEntity
  8
0
  6
Continuous
 62
     0
370
     0
100
AcDbMText
 10
0.0
 20
-2.2238509165
 30
0.0
 40
0.1875
 41
0.0
 71
     1
 72
     1
  1
OUTSIDE AND INSIDE DRAFT ANGLE: 1
  7
SLDTEXTSTYLE0
 73
     1
 44
1.0
  0
MTEXT
  5
BE
330
B0
100
AcDbEntity
  8
0
  6
Continuous
 62
     0
370
     0
100
AcDbMText
 10
4.4283856029
 20
-2.2238509165
 30
0.0
 40
0.1875
 41
0.0
 71
     1
 72
     1
  1
%%d
  7
SLDTEXTSTYLE0
 73
     1
 44
1.0
  0
MTEXT
  5
BF
330
B0
100
AcDbEntity
  8
0
  6
Continuous
 62
     0
370
     0
100
AcDbMText
 10
0.0
 20
-2.4704060283
 30
0.0
 40
0.1875
 41
0.0
 71
     1
 72
     1
  1
DIMENSIONS ARE INCH[MM]
  7
SLDTEXTSTYLE0
 73
     1
 44
1.0
  0
ENDBLK
  5
B2
330
B0
100
AcDbEntity
  8
0
100
AcDbBlockEnd
  0
BLOCK
  5
C2
330
C1
100
AcDbEntity
  8
0
100
AcDbBlockBegin
  2
SW_NOTE_3
 70
     0
 10
0.0
 20
0.0
 30
0.0
  3
SW_NOTE_3
  1

  0
MTEXT
  5
C4
330
C1
100
AcDbEntity
  8
0
  6
Continuous
 62
     0
370
     0
100
AcDbMText
 10
0.0
 20
0.2417002012
 30
0.0
 40
0.1875
 41
0.0
 71
     1
 72
     1
  1
UL LISTED FOR U.S. AND CANADA - FILE #E194432
  7
SLDTEXTSTYLE0
 73
     1
 44
1.0
  0
MTEXT
  5
C6
330
C1
100
AcDbEntity
  8
0
  6
Continuous
 62
     0
370
     0
100
AcDbMText
 10
0.0
 20
-0.2514100223
 30
0.0
 40
0.1875
 41
0.0
 71
     1
 72
     1
  1
TYPE RATING 4, 4X, 6, 6P, 12 AND 13, COMPARE TO IP-68
  7
SLDTEXTSTYLE2
 73
     1
 44
1.0
  0
MTEXT
  5
C7
330
C1
100
AcDbEntity
  8
0
  6
Continuous
 62
     0
370
     0
100
AcDbMText
 10
0.0
 20
-0.7445202459
 30
0.0
 40
0.1875
 41
0.0
 71
     1
 72
     1
  1
80
  7
SLDTEXTSTYLE0
 73
     1
 44
1.0
  0
MTEXT
  5
C8
330
C1
100
AcDbEntity
  8
0
  6
Continuous
 62
     0
370
     0
100
AcDbMText
 10
0.2770833341
 20
-0.7445202459
 30
0.0
 40
0.1875
 41
0.0
 71
     1
 72
     1
  1
%%d
  7
SLDTEXTSTYLE0
 73
     1
 44
1.0
  0
MTEXT
  5
C9
330
C1
100
AcDbEntity
  8
0
  6
Continuous
 62
     0
370
     0
100
AcDbMText
 10
0.3961458487
 20
-0.7445202459
 30
0.0
 40
0.1875
 41
0.0
 71
     1
 72
     1
  1
C. MAXIMUM OPERATING TEMPERATURE
  7
SLDTEXTSTYLE0
 73
     1
 44
1.0
  0
ENDBLK
  5
C3
330
C1
100
AcDbEntity
  8
0
100
AcDbBlockEnd
  0
BLOCK
  5
CD
330
CC
100
AcDbEntity
  8
0
100
AcDbBlockBegin
  2
SW_NOTE_4
 70
     0
 10
0.0
 20
0.0
 30
0.0
  3
SW_NOTE_4
  1

  0
MTEXT
  5
CF
330
CC
100
AcDbEntity
  8
0
  6
Continuous
 62
     0
370
     0
100
AcDbMText
 10
0.0
 20
0.2417002012
 30
0.0
 40
0.1875
 41
0.0
 71
     1
 72
     1
  1
OPTIONAL ACCESSORIES:
  7
SLDTEXTSTYLE0
 73
     1
 44
1.0
  0
MTEXT
  5
D0
330
CC
100
AcDbEntity
  8
0
  6
Continuous
 62
     0
370
     0
100
AcDbMText
 10
0.140625
 20
-0.0048549106
 30
0.0
 40
0.1875
 41
0.0
 71
     1
 72
     1
  1
PCB MOUNTING KIT #57-58
  7
SLDTEXTSTYLE0
 73
     1
 44
1.0
  0
MTEXT
  5
D1
330
CC
100
AcDbEntity
  8
0
  6
Continuous
 62
     0
370
     0
100
AcDbMText
 10
0.140625
 20
-0.2514100223
 30
0.0
 40
0.1875
 41
0.0
 71
     1
 72
     1
  1
INTERNAL PANEL #ANX-91315
  7
SLDTEXTSTYLE0
 73
     1
 44
1.0
  0
MTEXT
  5
D2
330
CC
100
AcDbEntity
  8
0
  6
Continuous
 62
     0
370
     0
100
AcDbMText
 10
0.140625
 20
-0.4979651341
 30
0.0
 40
0.1875
 41
0.0
 71
     1
 72
     1
  1
WALL MOUNTING BRACKETS #ANX-1390
  7
SLDTEXTSTYLE0
 73
     1
 44
1.0
  0
MTEXT
  5
D3
330
CC
100
AcDbEntity
  8
0
  6
Continuous
 62
     0
370
     0
100
AcDbMText
 10
0.140625
 20
-0.7445202459
 30
0.0
 40
0.1875
 41
0.0
 71
     1
 72
     1
  1
REPLACEMENT GASKET #1315GSKTSC
  7
SLDTEXTSTYLE0
 73
     1
 44
1.0
  0
ENDBLK
  5
CE
330
CC
100
AcDbEntity
  8
0
100
AcDbBlockEnd
  0
BLOCK
  5
D6
330
D5
100
AcDbEntity
  8
0
100
AcDbBlockBegin
  2
SW_NOTE_5
 70
     0
 10
0.0
 20
0.0
 30
0.0
  3
SW_NOTE_5
  1

  0
MTEXT
  5
D8
330
D5
100
AcDbEntity
  8
0
  6
Continuous
 62
     0
370
     0
100
AcDbMText
 10
1.5322265625
 20
0.2417002012
 30
0.0
 40
0.1875
 41
0.0
 71
     2
 72
     1
  1
DRAWING FOR REFERENCE
  7
SLDTEXTSTYLE0
 73
     1
 44
1.0
  0
MTEXT
  5
D9
330
D5
100
AcDbEntity
  8
0
  6
Continuous
 62
     0
370
     0
100
AcDbMText
 10
1.5424903937
 20
-0.0321718194
 30
0.0
 40
0.093
 41
0.0
 71
     2
 72
     1
  1
WE RESERVE THE RIGHT TO MAKE CHANGES TO OUR
  7
SLDTEXTSTYLE0
 73
     1
 44
1.0
  0
MTEXT
  5
DA
330
D5
100
AcDbEntity
  8
0
  6
Continuous
 62
     0
370
     0
100
AcDbMText
 10
1.534869547
 20
-0.1842269404
 30
0.0
 40
0.093
 41
0.0
 71
     2
 72
     1
  1
STANDARD PRODUCTS. PLEASE CONSULT WITH BUD INDUSTRIES
  7
SLDTEXTSTYLE0
 73
     1
 44
1.0
  0
MTEXT
  5
DB
330
D5
100
AcDbEntity
  8
0
  6
Continuous
 62
     0
370
     0
100
AcDbMText
 10
1.5504985027
 20
-0.3362820613
 30
0.0
 40
0.093
 41
0.0
 71
     2
 72
     1
  1
PRIOR TO USING THIS DRAWING FOR DESIGN PURPOSE.
  7
SLDTEXTSTYLE0
 73
     1
 44
1.0
  0
ENDBLK
  5
D7
330
D5
100
AcDbEntity
  8
0
100
AcDbBlockEnd
  0
BLOCK
  5
E2
330
E1
100
AcDbEntity
  8
0
100
AcDbBlockBegin
  2
SW_NOTE_6
 70
     0
 10
0.0
 20
0.0
 30
0.0
  3
SW_NOTE_6
  1

  0
MTEXT
  5
E4
330
E1
100
AcDbEntity
  8
0
  6
Continuous
 62
     0
370
     0
100
AcDbMText
 10
0.2841796875
 20
0.2417002012
 30
0.0
 40
0.1875
 41
0.0
 71
     2
 72
     1
  1
PART
  7
SLDTEXTSTYLE0
 73
     1
 44
1.0
  0
MTEXT
  5
E5
330
E1
100
AcDbEntity
  8
0
  6
Continuous
 62
     0
370
     0
100
AcDbMText
 10
0.2816569051
 20
-0.0048549106
 30
0.0
 40
0.1875
 41
0.0
 71
     2
 72
     1
  1
NAME
  7
SLDTEXTSTYLE0
 73
     1
 44
1.0
  0
ENDBLK
  5
E3
330
E1
100
AcDbEntity
  8
0
100
AcDbBlockEnd
  0
BLOCK
  5
E8
330
E7
100
AcDbEntity
  8
0
100
AcDbBlockBegin
  2
SW_NOTE_7
 70
     0
 10
0.0
 20
0.0
 30
0.0
  3
SW_NOTE_7
  1

  0
MTEXT
  5
EA
330
E7
100
AcDbEntity
  8
0
  6
Continuous
 62
     0
370
     0
100
AcDbMText
 10
0.2841796875
 20
0.2417002012
 30
0.0
 40
0.1875
 41
0.0
 71
     2
 72
     1
  1
PART
  7
SLDTEXTSTYLE0
 73
     1
 44
1.0
  0
MTEXT
  5
EB
330
E7
100
AcDbEntity
  8
0
  6
Continuous
 62
     0
370
     0
100
AcDbMText
 10
0.2926432322
 20
-0.0048549106
 30
0.0
 40
0.1875
 41
0.0
 71
     2
 72
     1
  1
No.
  7
SLDTEXTSTYLE0
 73
     1
 44
1.0
  0
ENDBLK
  5
E9
330
E7
100
AcDbEntity
  8
0
100
AcDbBlockEnd
  0
BLOCK
  5
EE
330
ED
100
AcDbEntity
  8
0
100
AcDbBlockBegin
  2
SW_NOTE_8
 70
     0
 10
0.0
 20
0.0
 30
0.0
  3
SW_NOTE_8
  1

  0
MTEXT
  5
F0
330
ED
100
AcDbEntity
  8
0
  6
Continuous
 62
     0
370
     0
100
AcDbMText
 10
0.55078125
 20
0.2417002012
 30
0.0
 40
0.1875
 41
0.0
 71
     2
 72
     1
  1
REVISION
  7
SLDTEXTSTYLE0
 73
     1
 44
1.0
  0
MTEXT
  5
F1
330
ED
100
AcDbEntity
  8
0
  6
Continuous
 62
     0
370
     0
100
AcDbMText
 10
0.5302408854
 20
-0.0048549106
 30
0.0
 40
0.1875
 41
0.0
 71
     2
 72
     1
  1
DATE
  7
SLDTEXTSTYLE0
 73
     1
 44
1.0
  0
ENDBLK
  5
EF
330
ED
100
AcDbEntity
  8
0
100
AcDbBlockEnd
  0
BLOCK
  5
17E
330
17D
100
AcDbEntity
  8
0
100
AcDbBlockBegin
  2
_D
 70
     0
 10
0.0
 20
0.0
 30
0.0
  3
_D
  1

  0
SOLID
  5
180
330
17D
100
AcDbEntity
  8
0
  6
Continuous
 62
     7
370
     0
100
AcDbTrace
 10
7.6800503636
 20
7.2765767162
 30
0.0
 11
7.7100503636
 21
7.4715767162
 31
0.0
 12
7.6500503636
 22
7.4715767162
 32
0.0
 13
7.6500503636
 23
7.4715767162
 33
0.0
  0
SOLID
  5
181
330
17D
100
AcDbEntity
  8
0
  6
Continuous
 62
     7
370
     0
100
AcDbTrace
 10
7.6800503636
 20
12.5127971886
 30
0.0
 11
7.6500503636
 21
12.3177971886
 31
0.0
 12
7.7100503636
 22
12.3177971886
 32
0.0
 13
7.7100503636
 23
12.3177971886
 33
0.0
  0
LINE
  5
182
330
17D
100
AcDbEntity
  8
0
  6
Continuous
 62
     7
370
     0
100
AcDbLine
 10
7.4246304542
 20
9.8932546315
 30
0.0
 11
7.3865445183
 21
9.8932546315
 31
0.0
  0
LINE
  5
183
330
17D
100
AcDbEntity
  8
0
  6
Continuous
 62
     7
370
     0
100
AcDbLine
 10
7.3865445183
 20
9.8932546315
 30
0.0
 11
7.3865445183
 21
9.5955983725
 31
0.0
  0
LINE
  5
184
330
17D
100
AcDbEntity
  8
0
  6
Continuous
 62
     7
370
     0
100
AcDbLine
 10
7.3865445183
 20
9.5955983725
 30
0.0
 11
7.4246304542
 21
9.5955983725
 31
0.0
  0
LINE
  5
185
330
17D
100
AcDbEntity
  8
0
  6
Continuous
 62
     7
370
     0
100
AcDbLine
 10
7.9354703005
 20
9.8932546315
 30
0.0
 11
7.9735562364
 21
9.8932546315
 31
0.0
  0
LINE
  5
186
330
17D
100
AcDbEntity
  8
0
  6
Continuous
 62
     7
370
     0
100
AcDbLine
 10
7.9735562364
 20
9.8932546315
 30
0.0
 11
7.9735562364
 21
9.5955983725
 31
0.0
  0
LINE
  5
187
330
17D
100
AcDbEntity
  8
0
  6
Continuous
 62
     7
370
     0
100
AcDbLine
 10
7.9735562364
 20
9.5955983725
 30
0.0
 11
7.9354703005
 21
9.5955983725
 31
0.0
  0
LINE
  5
188
330
17D
100
AcDbEntity
  8
0
  6
Continuous
 62
     7
370
     0
100
AcDbLine
 10
3.8384098692
 20
7.2765767162
 30
0.0
 11
7.8675503636
 21
7.2765767162
 31
0.0
  0
LINE
  5
189
330
17D
100
AcDbEntity
  8
0
  6
Continuous
 62
     7
370
     0
100
AcDbLine
 10
5.1140004203
 20
12.5127971886
 30
0.0
 11
7.8675503636
 21
12.5127971886
 31
0.0
  0
LINE
  5
18A
330
17D
100
AcDbEntity
  8
0
  6
Continuous
 62
     7
370
     0
100
AcDbLine
 10
7.6800503636
 20
7.2765767162
 30
0.0
 11
7.6800503636
 21
9.557512495
 31
0.0
  0
LINE
  5
18B
330
17D
100
AcDbEntity
  8
0
  6
Continuous
 62
     7
370
     0
100
AcDbLine
 10
7.6800503636
 20
12.5127971886
 30
0.0
 11
7.6800503636
 21
10.2318614099
 31
0.0
  0
MTEXT
  5
18C
330
17D
100
AcDbEntity
  8
0
  6
Continuous
 62
     7
370
     0
100
AcDbMText
 10
7.3590217319
 20
10.1759053727
 30
0.0
 40
0.1875
 41
0.0
 71
     1
 72
     1
  1

  7
SLDTEXTSTYLE0
 73
     1
 44
1.0
  0
MTEXT
  5
18D
330
17D
100
AcDbEntity
  8
0
  6
Continuous
 62
     7
370
     0
100
AcDbMText
 10
7.4376024531
 20
10.1730407755
 30
0.0
 40
0.1875
 41
0.0
 71
     1
 72
     1
  1
5.24
  7
SLDTEXTSTYLE0
 73
     1
 44
1.0
  0
MTEXT
  5
18E
330
17D
100
AcDbEntity
  8
0
  6
Continuous
 62
     7
370
     0
100
AcDbMText
 10
7.4722378768
 20
9.8372985943
 30
0.0
 40
0.1875
 41
0.0
 71
     1
 72
     1
  1
133
  7
SLDTEXTSTYLE0
 73
     1
 44
1.0
  0
MTEXT
  5
18F
330
17D
100
AcDbEntity
  8
0
  6
Continuous
 62
     7
370
     0
100
AcDbMText
 10
8.0724331755
 20
10.1759053727
 30
0.0
 40
0.1875
 41
0.0
 71
     1
 72
     1
  1

  7
SLDTEXTSTYLE0
 73
     1
 44
1.0
  0
ENDBLK
  5
17F
330
17D
100
AcDbEntity
  8
0
100
AcDbBlockEnd
  0
BLOCK
  5
192
330
191
100
AcDbEntity
  8
0
100
AcDbBlockBegin
  2
_D_1
 70
     0
 10
0.0
 20
0.0
 30
0.0
  3
_D_1
  1

  0
SOLID
  5
194
330
191
100
AcDbEntity
  8
0
  6
Continuous
 62
     7
370
     0
100
AcDbTrace
 10
5.0390004203
 20
13.6832387488
 30
0.0
 11
4.8440004203
 21
13.7132387488
 31
0.0
 12
4.8440004203
 22
13.6532387488
 32
0.0
 13
4.8440004203
 23
13.6532387488
 33
0.0
  0
SOLID
  5
195
330
191
100
AcDbEntity
  8
0
  6
Continuous
 62
     7
370
     0
100
AcDbTrace
 10
3.7634098692
 20
13.6832387488
 30
0.0
 11
3.9584098692
 21
13.6532387488
 31
0.0
 12
3.9584098692
 22
13.7132387488
 32
0.0
 13
3.9584098692
 23
13.7132387488
 33
0.0
  0
LINE
  5
196
330
191
100
AcDbEntity
  8
0
  6
Continuous
 62
     7
370
     0
100
AcDbLine
 10
4.1111498255
 20
13.6818064279
 30
0.0
 11
4.0730638895
 21
13.6818064279
 31
0.0
  0
LINE
  5
197
330
191
100
AcDbEntity
  8
0
  6
Continuous
 62
     7
370
     0
100
AcDbLine
 10
4.0730638895
 20
13.6818064279
 30
0.0
 11
4.0730638895
 21
13.3841501689
 31
0.0
  0
LINE
  5
198
330
191
100
AcDbEntity
  8
0
  6
Continuous
 62
     7
370
     0
100
AcDbLine
 10
4.0730638895
 20
13.3841501689
 30
0.0
 11
4.1111498255
 21
13.3841501689
 31
0.0
  0
LINE
  5
199
330
191
100
AcDbEntity
  8
0
  6
Continuous
 62
     7
370
     0
100
AcDbLine
 10
4.691260519
 20
13.6818064279
 30
0.0
 11
4.729346455
 21
13.6818064279
 31
0.0
  0
LINE
  5
19A
330
191
100
AcDbEntity
  8
0
  6
Continuous
 62
     7
370
     0
100
AcDbLine
 10
4.729346455
 20
13.6818064279
 30
0.0
 11
4.729346455
 21
13.3841501689
 31
0.0
  0
LINE
  5
19B
330
191
100
AcDbEntity
  8
0
  6
Continuous
 62
     7
370
     0
100
AcDbLine
 10
4.729346455
 20
13.3841501689
 30
0.0
 11
4.691260519
 21
13.3841501689
 31
0.0
  0
LINE
  5
19C
330
191
100
AcDbEntity
  8
0
  6
Continuous
 62
     7
370
     0
100
AcDbLine
 10
5.0390004203
 20
12.5877971886
 30
0.0
 11
5.0390004203
 21
13.8707387488
 31
0.0
  0
LINE
  5
19D
330
191
100
AcDbEntity
  8
0
  6
Continuous
 62
     7
370
     0
100
AcDbLine
 10
3.7634098692
 20
7.3515767162
 30
0.0
 11
3.7634098692
 21
13.8707387488
 31
0.0
  0
LINE
  5
19E
330
191
100
AcDbEntity
  8
0
  6
Continuous
 62
     7
370
     0
100
AcDbLine
 10
5.0390004203
 20
13.6832387488
 30
0.0
 11
4.8651755085
 21
13.6832387488
 31
0.0
  0
LINE
  5
19F
330
191
100
AcDbEntity
  8
0
  6
Continuous
 62
     7
370
     0
100
AcDbLine
 10
3.7634098692
 20
13.6832387488
 30
0.0
 11
3.937234781
 21
13.6832387488
 31
0.0
  0
MTEXT
  5
1A0
330
191
100
AcDbEntity
  8
0
  6
Continuous
 62
     7
370
     0
100
AcDbMText
 10
4.0455411032
 20
13.9644571691
 30
0.0
 40
0.1875
 41
0.0
 71
     1
 72
     1
  1

  7
SLDTEXTSTYLE0
 73
     1
 44
1.0
  0
MTEXT
  5
1A1
330
191
100
AcDbEntity
  8
0
  6
Continuous
 62
     7
370
     0
100
AcDbMText
 10
4.1587572343
 20
13.9615925719
 30
0.0
 40
0.1875
 41
0.0
 71
     1
 72
     1
  1
1.28
  7
SLDTEXTSTYLE0
 73
     1
 44
1.0
  0
MTEXT
  5
1A2
330
191
100
AcDbEntity
  8
0
  6
Continuous
 62
     7
370
     0
100
AcDbMText
 10
4.158757248
 20
13.6258503907
 30
0.0
 40
0.1875
 41
0.0
 71
     1
 72
     1
  1
32.4
  7
SLDTEXTSTYLE0
 73
     1
 44
1.0
  0
MTEXT
  5
1A3
330
191
100
AcDbEntity
  8
0
  6
Continuous
 62
     7
370
     0
100
AcDbMText
 10
4.8282233665
 20
13.9644571691
 30
0.0
 40
0.1875
 41
0.0
 71
     1
 72
     1
  1

  7
SLDTEXTSTYLE0
 73
     1
 44
1.0
  0
ENDBLK
  5
193
330
191
100
AcDbEntity
  8
0
100
AcDbBlockEnd
  0
BLOCK
  5
1A6
330
1A5
100
AcDbEntity
  8
0
100
AcDbBlockBegin
  2
_D_2
 70
     0
 10
0.0
 20
0.0
 30
0.0
  3
_D_2
  1

  0
SOLID
  5
1A8
330
1A5
100
AcDbEntity
  8
0
  6
Continuous
 62
     7
370
     0
100
AcDbTrace
 10
4.6820821474
 20
7.1060618169
 30
0.0
 11
4.7120821474
 21
7.3010618169
 31
0.0
 12
4.6520821474
 22
7.3010618169
 32
0.0
 13
4.6520821474
 23
7.3010618169
 33
0.0
  0
SOLID
  5
1A9
330
1A5
100
AcDbEntity
  8
0
  6
Continuous
 62
     7
370
     0
100
AcDbTrace
 10
4.6820821474
 20
12.6833120879
 30
0.0
 11
4.6520821474
 21
12.4883120879
 31
0.0
 12
4.7120821474
 22
12.4883120879
 32
0.0
 13
4.7120821474
 23
12.4883120879
 33
0.0
  0
LINE
  5
1AA
330
1A5
100
AcDbEntity
  8
0
  6
Continuous
 62
     7
370
     0
100
AcDbLine
 10
4.3227559809
 20
9.9462954377
 30
0.0
 11
4.2846700449
 21
9.9462954377
 31
0.0
  0
LINE
  5
1AB
330
1A5
100
AcDbEntity
  8
0
  6
Continuous
 62
     7
370
     0
100
AcDbLine
 10
4.2846700449
 20
9.9462954377
 30
0.0
 11
4.2846700449
 21
9.6486391788
 31
0.0
  0
LINE
  5
1AC
330
1A5
100
AcDbEntity
  8
0
  6
Continuous
 62
     7
370
     0
100
AcDbLine
 10
4.2846700449
 20
9.6486391788
 30
0.0
 11
4.3227559809
 21
9.6486391788
 31
0.0
  0
LINE
  5
1AD
330
1A5
100
AcDbEntity
  8
0
  6
Continuous
 62
     7
370
     0
100
AcDbLine
 10
5.041408314
 20
9.9462954377
 30
0.0
 11
5.0794942499
 21
9.9462954377
 31
0.0
  0
LINE
  5
1AE
330
1A5
100
AcDbEntity
  8
0
  6
Continuous
 62
     7
370
     0
100
AcDbLine
 10
5.0794942499
 20
9.9462954377
 30
0.0
 11
5.0794942499
 21
9.6486391788
 31
0.0
  0
LINE
  5
1AF
330
1A5
100
AcDbEntity
  8
0
  6
Continuous
 62
     7
370
     0
100
AcDbLine
 10
5.0794942499
 20
9.6486391788
 30
0.0
 11
5.041408314
 21
9.6486391788
 31
0.0
  0
LINE
  5
1B0
330
1A5
100
AcDbEntity
  8
0
  6
Continuous
 62
     7
370
     0
100
AcDbLine
 10
4.7002208928
 20
7.1060618169
 30
0.0
 11
4.4945821474
 21
7.1060618169
 31
0.0
  0
LINE
  5
1B1
330
1A5
100
AcDbEntity
  8
0
  6
Continuous
 62
     7
370
     0
100
AcDbLine
 10
4.1021893967
 20
12.6833120879
 30
0.0
 11
4.8695821474
 21
12.6833120879
 31
0.0
  0
LINE
  5
1B2
330
1A5
100
AcDbEntity
  8
0
  6
Continuous
 62
     7
370
     0
100
AcDbLine
 10
4.6820821474
 20
7.1060618169
 30
0.0
 11
4.6820821474
 21
9.6105533012
 31
0.0
  0
LINE
  5
1B3
330
1A5
100
AcDbEntity
  8
0
  6
Continuous
 62
     7
370
     0
100
AcDbLine
 10
4.6820821474
 20
12.6833120879
 30
0.0
 11
4.6820821474
 21
10.2849022161
 31
0.0
  0
MTEXT
  5
1B4
330
1A5
100
AcDbEntity
  8
0
  6
Continuous
 62
     7
370
     0
100
AcDbMText
 10
4.2571472586
 20
10.228946179
 30
0.0
 40
0.1875
 41
0.0
 71
     1
 72
     1
  1

  7
SLDTEXTSTYLE0
 73
     1
 44
1.0
  0
MTEXT
  5
1B5
330
1A5
100
AcDbEntity
  8
0
  6
Continuous
 62
     7
370
     0
100
AcDbMText
 10
4.4396342095
 20
10.2260815818
 30
0.0
 40
0.1875
 41
0.0
 71
     1
 72
     1
  1
5.58
  7
SLDTEXTSTYLE0
 73
     1
 44
1.0
  0
MTEXT
  5
1B6
330
1A5
100
AcDbEntity
  8
0
  6
Continuous
 62
     7
370
     0
100
AcDbMText
 10
4.3703634034
 20
9.8903394006
 30
0.0
 40
0.1875
 41
0.0
 71
     1
 72
     1
  1
141.7
  7
SLDTEXTSTYLE0
 73
     1
 44
1.0
  0
MTEXT
  5
1B7
330
1A5
100
AcDbEntity
  8
0
  6
Continuous
 62
     7
370
     0
100
AcDbMText
 10
5.1783711615
 20
10.228946179
 30
0.0
 40
0.1875
 41
0.0
 71
     1
 72
     1
  1

  7
SLDTEXTSTYLE0
 73
     1
 44
1.0
  0
ENDBLK
  5
1A7
330
1A5
100
AcDbEntity
  8
0
100
AcDbBlockEnd
  0
BLOCK
  5
1BA
330
1B9
100
AcDbEntity
  8
0
100
AcDbBlockBegin
  2
_D_3
 70
     0
 10
0.0
 20
0.0
 30
0.0
  3
_D_3
  1

  0
SOLID
  5
1BC
330
1B9
100
AcDbEntity
  8
0
  6
Continuous
 62
     7
370
     0
100
AcDbTrace
 10
3.3054933951
 20
11.2188300418
 30
0.0
 11
3.5004933951
 21
11.1888300418
 31
0.0
 12
3.5004933951
 22
11.2488300418
 32
0.0
 13
3.5004933951
 23
11.2488300418
 33
0.0
  0
SOLID
  5
1BD
330
1B9
100
AcDbEntity
  8
0
  6
Continuous
 62
     7
370
     0
100
AcDbTrace
 10
5.4969168944
 20
11.2188300418
 30
0.0
 11
5.3019168944
 21
11.2488300418
 31
0.0
 12
5.3019168944
 22
11.1888300418
 32
0.0
 13
5.3019168944
 23
11.1888300418
 33
0.0
  0
LINE
  5
1BE
330
1B9
100
AcDbEntity
  8
0
  6
Continuous
 62
     7
370
     0
100
AcDbLine
 10
3.9378874931
 20
11.2173977209
 30
0.0
 11
3.8998015571
 21
11.2173977209
 31
0.0
  0
LINE
  5
1BF
330
1B9
100
AcDbEntity
  8
0
  6
Continuous
 62
     7
370
     0
100
AcDbLine
 10
3.8998015571
 20
11.2173977209
 30
0.0
 11
3.8998015571
 21
10.9197414619
 31
0.0
  0
LINE
  5
1C0
330
1B9
100
AcDbEntity
  8
0
  6
Continuous
 62
     7
370
     0
100
AcDbLine
 10
3.8998015571
 20
10.9197414619
 30
0.0
 11
3.9378874931
 21
10.9197414619
 31
0.0
  0
LINE
  5
1C1
330
1B9
100
AcDbEntity
  8
0
  6
Continuous
 62
     7
370
     0
100
AcDbLine
 10
4.5179981866
 20
11.2173977209
 30
0.0
 11
4.5560841225
 21
11.2173977209
 31
0.0
  0
LINE
  5
1C2
330
1B9
100
AcDbEntity
  8
0
  6
Continuous
 62
     7
370
     0
100
AcDbLine
 10
4.5560841225
 20
11.2173977209
 30
0.0
 11
4.5560841225
 21
10.9197414619
 31
0.0
  0
LINE
  5
1C3
330
1B9
100
AcDbEntity
  8
0
  6
Continuous
 62
     7
370
     0
100
AcDbLine
 10
4.5560841225
 20
10.9197414619
 30
0.0
 11
4.5179981866
 21
10.9197414619
 31
0.0
  0
LINE
  5
1C4
330
1B9
100
AcDbEntity
  8
0
  6
Continuous
 62
     7
370
     0
100
AcDbLine
 10
3.3054933951
 20
12.1897656926
 30
0.0
 11
3.3054933951
 21
11.0313300418
 31
0.0
  0
LINE
  5
1C5
330
1B9
100
AcDbEntity
  8
0
  6
Continuous
 62
     7
370
     0
100
AcDbLine
 10
5.4969168944
 20
12.1897656926
 30
0.0
 11
5.4969168944
 21
11.0313300418
 31
0.0
  0
LINE
  5
1C6
330
1B9
100
AcDbEntity
  8
0
  6
Continuous
 62
     7
370
     0
100
AcDbLine
 10
3.3054933951
 20
11.2188300418
 30
0.0
 11
3.7639724486
 21
11.2188300418
 31
0.0
  0
LINE
  5
1C7
330
1B9
100
AcDbEntity
  8
0
  6
Continuous
 62
     7
370
     0
100
AcDbLine
 10
5.4969168944
 20
11.2188300418
 30
0.0
 11
4.6919131761
 21
11.2188300418
 31
0.0
  0
MTEXT
  5
1C8
330
1B9
100
AcDbEntity
  8
0
  6
Continuous
 62
     7
370
     0
100
AcDbMText
 10
3.8722787707
 20
11.5000484621
 30
0.0
 40
0.1875
 41
0.0
 71
     1
 72
     1
  1

  7
SLDTEXTSTYLE0
 73
     1
 44
1.0
  0
MTEXT
  5
1C9
330
1B9
100
AcDbEntity
  8
0
  6
Continuous
 62
     7
370
     0
100
AcDbMText
 10
3.9854949018
 20
11.4971838649
 30
0.0
 40
0.1875
 41
0.0
 71
     1
 72
     1
  1
2.19
  7
SLDTEXTSTYLE0
 73
     1
 44
1.0
  0
MTEXT
  5
1CA
330
1B9
100
AcDbEntity
  8
0
  6
Continuous
 62
     7
370
     0
100
AcDbMText
 10
3.9854949156
 20
11.1614416838
 30
0.0
 40
0.1875
 41
0.0
 71
     1
 72
     1
  1
55.7
  7
SLDTEXTSTYLE0
 73
     1
 44
1.0
  0
MTEXT
  5
1CB
330
1B9
100
AcDbEntity
  8
0
  6
Continuous
 62
     7
370
     0
100
AcDbMText
 10
4.6549610341
 20
11.5000484621
 30
0.0
 40
0.1875
 41
0.0
 71
     1
 72
     1
  1

  7
SLDTEXTSTYLE0
 73
     1
 44
1.0
  0
ENDBLK
  5
1BB
330
1B9
100
AcDbEntity
  8
0
100
AcDbBlockEnd
  0
BLOCK
  5
1CF
330
1CE
100
AcDbEntity
  8
0
100
AcDbBlockBegin
  2
_D_4
 70
     0
 10
0.0
 20
0.0
 30
0.0
  3
_D_4
  1

  0
SOLID
  5
1D1
330
1CE
100
AcDbEntity
  8
0
  6
Continuous
 62
     7
370
     0
100
AcDbTrace
 10
6.8389853732
 20
12.3466979147
 30
0.0
 11
6.8089853732
 21
12.1516979147
 31
0.0
 12
6.8689853732
 22
12.1516979147
 32
0.0
 13
6.8689853732
 23
12.1516979147
 33
0.0
  0
SOLID
  5
1D2
330
1CE
100
AcDbEntity
  8
0
  6
Continuous
 62
     7
370
     0
100
AcDbTrace
 10
6.8389853732
 20
7.4426759901
 30
0.0
 11
6.8689853732
 21
7.6376759901
 31
0.0
 12
6.8089853732
 22
7.6376759901
 32
0.0
 13
6.8089853732
 23
7.6376759901
 33
0.0
  0
LINE
  5
1D3
330
1CE
100
AcDbEntity
  8
0
  6
Continuous
 62
     7
370
     0
100
AcDbLine
 10
6.4796592067
 20
9.8932546315
 30
0.0
 11
6.4415732707
 21
9.8932546315
 31
0.0
  0
LINE
  5
1D4
330
1CE
100
AcDbEntity
  8
0
  6
Continuous
 62
     7
370
     0
100
AcDbLine
 10
6.4415732707
 20
9.8932546315
 30
0.0
 11
6.4415732707
 21
9.5955983725
 31
0.0
  0
LINE
  5
1D5
330
1CE
100
AcDbEntity
  8
0
  6
Continuous
 62
     7
370
     0
100
AcDbLine
 10
6.4415732707
 20
9.5955983725
 30
0.0
 11
6.4796592067
 21
9.5955983725
 31
0.0
  0
LINE
  5
1D6
330
1CE
100
AcDbEntity
  8
0
  6
Continuous
 62
     7
370
     0
100
AcDbLine
 10
7.1983115397
 20
9.8932546315
 30
0.0
 11
7.2363974757
 21
9.8932546315
 31
0.0
  0
LINE
  5
1D7
330
1CE
100
AcDbEntity
  8
0
  6
Continuous
 62
     7
370
     0
100
AcDbLine
 10
7.2363974757
 20
9.8932546315
 30
0.0
 11
7.2363974757
 21
9.5955983725
 31
0.0
  0
LINE
  5
1D8
330
1CE
100
AcDbEntity
  8
0
  6
Continuous
 62
     7
370
     0
100
AcDbLine
 10
7.2363974757
 20
9.5955983725
 30
0.0
 11
7.1983115397
 21
9.5955983725
 31
0.0
  0
LINE
  5
1D9
330
1CE
100
AcDbEntity
  8
0
  6
Continuous
 62
     7
370
     0
100
AcDbLine
 10
5.4899846723
 20
12.3466979147
 30
0.0
 11
7.0264853732
 21
12.3466979147
 31
0.0
  0
LINE
  5
1DA
330
1CE
100
AcDbEntity
  8
0
  6
Continuous
 62
     7
370
     0
100
AcDbLine
 10
5.1848665621
 20
7.4426759901
 30
0.0
 11
7.0264853732
 21
7.4426759901
 31
0.0
  0
LINE
  5
1DB
330
1CE
100
AcDbEntity
  8
0
  6
Continuous
 62
     7
370
     0
100
AcDbLine
 10
6.8389853732
 20
12.3466979147
 30
0.0
 11
6.8389853732
 21
10.2318614099
 31
0.0
  0
LINE
  5
1DC
330
1CE
100
AcDbEntity
  8
0
  6
Continuous
 62
     7
370
     0
100
AcDbLine
 10
6.8389853732
 20
7.4426759901
 30
0.0
 11
6.8389853732
 21
9.557512495
 31
0.0
  0
MTEXT
  5
1DD
330
1CE
100
AcDbEntity
  8
0
  6
Continuous
 62
     7
370
     0
100
AcDbMText
 10
6.4140504843
 20
10.1759053727
 30
0.0
 40
0.1875
 41
0.0
 71
     1
 72
     1
  1

  7
SLDTEXTSTYLE0
 73
     1
 44
1.0
  0
MTEXT
  5
1DE
330
1CE
100
AcDbEntity
  8
0
  6
Continuous
 62
     7
370
     0
100
AcDbMText
 10
6.5965374352
 20
10.1730407755
 30
0.0
 40
0.1875
 41
0.0
 71
     1
 72
     1
  1
4.90
  7
SLDTEXTSTYLE0
 73
     1
 44
1.0
  0
MTEXT
  5
1DF
330
1CE
100
AcDbEntity
  8
0
  6
Continuous
 62
     7
370
     0
100
AcDbMText
 10
6.5272666292
 20
9.8372985943
 30
0.0
 40
0.1875
 41
0.0
 71
     1
 72
     1
  1
124.6
  7
SLDTEXTSTYLE0
 73
     1
 44
1.0
  0
MTEXT
  5
1E0
330
1CE
100
AcDbEntity
  8
0
  6
Continuous
 62
     7
370
     0
100
AcDbMText
 10
7.3352743873
 20
10.1759053727
 30
0.0
 40
0.1875
 41
0.0
 71
     1
 72
     1
  1

  7
SLDTEXTSTYLE0
 73
     1
 44
1.0
  0
ENDBLK
  5
1D0
330
1CE
100
AcDbEntity
  8
0
100
AcDbBlockEnd
  0
BLOCK
  5
1E4
330
1E3
100
AcDbEntity
  8
0
100
AcDbBlockBegin
  2
_D_5
 70
     0
 10
0.0
 20
0.0
 30
0.0
  3
_D_5
  1

  0
SOLID
  5
1E6
330
1E3
100
AcDbEntity
  8
0
  6
Continuous
 62
     7
370
     0
100
AcDbTrace
 10
3.9058870959
 20
5.7095509303
 30
0.0
 11
3.7108870959
 21
5.7395509303
 31
0.0
 12
3.7108870959
 22
5.6795509303
 32
0.0
 13
3.7108870959
 23
5.6795509303
 33
0.0
  0
SOLID
  5
1E7
330
1E3
100
AcDbEntity
  8
0
  6
Continuous
 62
     7
370
     0
100
AcDbTrace
 10
4.8571531149
 20
5.7095509303
 30
0.0
 11
5.0521531149
 21
5.6795509303
 31
0.0
 12
5.0521531149
 22
5.7395509303
 32
0.0
 13
5.0521531149
 23
5.7395509303
 33
0.0
  0
LINE
  5
1E8
330
1E3
100
AcDbEntity
  8
0
  6
Continuous
 62
     7
370
     0
100
AcDbLine
 10
4.0914647861
 20
5.7081186093
 30
0.0
 11
4.0533788502
 21
5.7081186093
 31
0.0
  0
LINE
  5
1E9
330
1E3
100
AcDbEntity
  8
0
  6
Continuous
 62
     7
370
     0
100
AcDbLine
 10
4.0533788502
 20
5.7081186093
 30
0.0
 11
4.0533788502
 21
5.4104623504
 31
0.0
  0
LINE
  5
1EA
330
1E3
100
AcDbEntity
  8
0
  6
Continuous
 62
     7
370
     0
100
AcDbLine
 10
4.0533788502
 20
5.4104623504
 30
0.0
 11
4.0914647861
 21
5.4104623504
 31
0.0
  0
LINE
  5
1EB
330
1E3
100
AcDbEntity
  8
0
  6
Continuous
 62
     7
370
     0
100
AcDbLine
 10
4.6715754796
 20
5.7081186093
 30
0.0
 11
4.7096614156
 21
5.7081186093
 31
0.0
  0
LINE
  5
1EC
330
1E3
100
AcDbEntity
  8
0
  6
Continuous
 62
     7
370
     0
100
AcDbLine
 10
4.7096614156
 20
5.7081186093
 30
0.0
 11
4.7096614156
 21
5.4104623504
 31
0.0
  0
LINE
  5
1ED
330
1E3
100
AcDbEntity
  8
0
  6
Continuous
 62
     7
370
     0
100
AcDbLine
 10
4.7096614156
 20
5.4104623504
 30
0.0
 11
4.6715754796
 21
5.4104623504
 31
0.0
  0
LINE
  5
1EE
330
1E3
100
AcDbEntity
  8
0
  6
Continuous
 62
     7
370
     0
100
AcDbLine
 10
3.9058870959
 20
7.2417109262
 30
0.0
 11
3.9058870959
 21
5.5220509303
 31
0.0
  0
LINE
  5
1EF
330
1E3
100
AcDbEntity
  8
0
  6
Continuous
 62
     7
370
     0
100
AcDbLine
 10
4.8571531149
 20
7.114962543
 30
0.0
 11
4.8571531149
 21
5.5220509303
 31
0.0
  0
LINE
  5
1F0
330
1E3
100
AcDbEntity
  8
0
  6
Continuous
 62
     7
370
     0
100
AcDbLine
 10
3.9058870959
 20
5.7095509303
 30
0.0
 11
3.5308870959
 21
5.7095509303
 31
0.0
  0
LINE
  5
1F1
330
1E3
100
AcDbEntity
  8
0
  6
Continuous
 62
     7
370
     0
100
AcDbLine
 10
4.8571531149
 20
5.7095509303
 30
0.0
 11
5.2321531149
 21
5.7095509303
 31
0.0
  0
MTEXT
  5
1F2
330
1E3
100
AcDbEntity
  8
0
  6
Continuous
 62
     7
370
     0
100
AcDbMText
 10
4.0258560638
 20
5.9907693506
 30
0.0
 40
0.1875
 41
0.0
 71
     1
 72
     1
  1

  7
SLDTEXTSTYLE0
 73
     1
 44
1.0
  0
MTEXT
  5
1F3
330
1E3
100
AcDbEntity
  8
0
  6
Continuous
 62
     7
370
     0
100
AcDbMText
 10
4.2083430422
 20
5.9879047534
 30
0.0
 40
0.1875
 41
0.0
 71
     1
 72
     1
  1
.95
  7
SLDTEXTSTYLE0
 73
     1
 44
1.0
  0
MTEXT
  5
1F4
330
1E3
100
AcDbEntity
  8
0
  6
Continuous
 62
     7
370
     0
100
AcDbMText
 10
4.1390722087
 20
5.6521625722
 30
0.0
 40
0.1875
 41
0.0
 71
     1
 72
     1
  1
24.2
  7
SLDTEXTSTYLE0
 73
     1
 44
1.0
  0
MTEXT
  5
1F5
330
1E3
100
AcDbEntity
  8
0
  6
Continuous
 62
     7
370
     0
100
AcDbMText
 10
4.8085383272
 20
5.9907693506
 30
0.0
 40
0.1875
 41
0.0
 71
     1
 72
     1
  1

  7
SLDTEXTSTYLE0
 73
     1
 44
1.0
  0
ENDBLK
  5
1E5
330
1E3
100
AcDbEntity
  8
0
100
AcDbBlockEnd
  0
BLOCK
  5
1F8
330
1F7
100
AcDbEntity
  8
0
100
AcDbBlockBegin
  2
_D_6
 70
     0
 10
0.0
 20
0.0
 30
0.0
  3
_D_6
  1

  0
SOLID
  5
1FA
330
1F7
100
AcDbEntity
  8
0
  6
Continuous
 62
     7
370
     0
100
AcDbTrace
 10
3.6352354955
 20
4.9229283477
 30
0.0
 11
3.4402354955
 21
4.9529283477
 31
0.0
 12
3.4402354955
 22
4.8929283477
 32
0.0
 13
3.4402354955
 23
4.8929283477
 33
0.0
  0
SOLID
  5
1FB
330
1F7
100
AcDbEntity
  8
0
  6
Continuous
 62
     7
370
     0
100
AcDbTrace
 10
4.8571531149
 20
4.9229283477
 30
0.0
 11
5.0521531149
 21
4.8929283477
 31
0.0
 12
5.0521531149
 22
4.9529283477
 32
0.0
 13
5.0521531149
 23
4.9529283477
 33
0.0
  0
LINE
  5
1FC
330
1F7
100
AcDbEntity
  8
0
  6
Continuous
 62
     7
370
     0
100
AcDbLine
 10
4.0600452431
 20
4.9214960268
 30
0.0
 11
4.0219593071
 21
4.9214960268
 31
0.0
  0
LINE
  5
1FD
330
1F7
100
AcDbEntity
  8
0
  6
Continuous
 62
     7
370
     0
100
AcDbLine
 10
4.0219593071
 20
4.9214960268
 30
0.0
 11
4.0219593071
 21
4.6238397678
 31
0.0
  0
LINE
  5
1FE
330
1F7
100
AcDbEntity
  8
0
  6
Continuous
 62
     7
370
     0
100
AcDbLine
 10
4.0219593071
 20
4.6238397678
 30
0.0
 11
4.0600452431
 21
4.6238397678
 31
0.0
  0
LINE
  5
1FF
330
1F7
100
AcDbEntity
  8
0
  6
Continuous
 62
     7
370
     0
100
AcDbLine
 10
4.4323434223
 20
4.9214960268
 30
0.0
 11
4.4704293582
 21
4.9214960268
 31
0.0
  0
LINE
  5
200
330
1F7
100
AcDbEntity
  8
0
  6
Continuous
 62
     7
370
     0
100
AcDbLine
 10
4.4704293582
 20
4.9214960268
 30
0.0
 11
4.4704293582
 21
4.6238397678
 31
0.0
  0
LINE
  5
201
330
1F7
100
AcDbEntity
  8
0
  6
Continuous
 62
     7
370
     0
100
AcDbLine
 10
4.4704293582
 20
4.6238397678
 30
0.0
 11
4.4323434223
 21
4.6238397678
 31
0.0
  0
LINE
  5
202
330
1F7
100
AcDbEntity
  8
0
  6
Continuous
 62
     7
370
     0
100
AcDbLine
 10
3.6352354955
 20
7.114962543
 30
0.0
 11
3.6352354955
 21
4.7354283477
 31
0.0
  0
LINE
  5
203
330
1F7
100
AcDbEntity
  8
0
  6
Continuous
 62
     7
370
     0
100
AcDbLine
 10
4.8571531149
 20
7.114962543
 30
0.0
 11
4.8571531149
 21
4.7354283477
 31
0.0
  0
LINE
  5
204
330
1F7
100
AcDbEntity
  8
0
  6
Continuous
 62
     7
370
     0
100
AcDbLine
 10
3.6352354955
 20
4.9229283477
 30
0.0
 11
3.2602354955
 21
4.9229283477
 31
0.0
  0
LINE
  5
205
330
1F7
100
AcDbEntity
  8
0
  6
Continuous
 62
     7
370
     0
100
AcDbLine
 10
4.8571531149
 20
4.9229283477
 30
0.0
 11
5.2321531149
 21
4.9229283477
 31
0.0
  0
MTEXT
  5
206
330
1F7
100
AcDbEntity
  8
0
  6
Continuous
 62
     7
370
     0
100
AcDbMText
 10
3.9944365208
 20
5.204146768
 30
0.0
 40
0.1875
 41
0.0
 71
     1
 72
     1
  1

  7
SLDTEXTSTYLE0
 73
     1
 44
1.0
  0
MTEXT
  5
207
330
1F7
100
AcDbEntity
  8
0
  6
Continuous
 62
     7
370
     0
100
AcDbMText
 10
4.0037463947
 20
5.2012821708
 30
0.0
 40
0.1875
 41
0.0
 71
     1
 72
     1
  1
1.22
  7
SLDTEXTSTYLE0
 73
     1
 44
1.0
  0
MTEXT
  5
208
330
1F7
100
AcDbEntity
  8
0
  6
Continuous
 62
     7
370
     0
100
AcDbMText
 10
4.1076526656
 20
4.8655399897
 30
0.0
 40
0.1875
 41
0.0
 71
     1
 72
     1
  1
31
  7
SLDTEXTSTYLE0
 73
     1
 44
1.0
  0
MTEXT
  5
209
330
1F7
100
AcDbEntity
  8
0
  6
Continuous
 62
     7
370
     0
100
AcDbMText
 10
4.5693062698
 20
5.204146768
 30
0.0
 40
0.1875
 41
0.0
 71
     1
 72
     1
  1

  7
SLDTEXTSTYLE0
 73
     1
 44
1.0
  0
ENDBLK
  5
1F9
330
1F7
100
AcDbEntity
  8
0
100
AcDbBlockEnd
  0
BLOCK
  5
20C
330
20B
100
AcDbEntity
  8
0
100
AcDbBlockBegin
  2
_D_7
 70
     0
 10
0.0
 20
0.0
 30
0.0
  3
_D_7
  1

  0
SOLID
  5
20E
330
20B
100
AcDbEntity
  8
0
  6
Continuous
 62
     7
370
     0
100
AcDbTrace
 10
1.8310213432
 20
12.3466979147
 30
0.0
 11
1.8010213432
 21
12.1516979147
 31
0.0
 12
1.8610213432
 22
12.1516979147
 32
0.0
 13
1.8610213432
 23
12.1516979147
 33
0.0
  0
SOLID
  5
20F
330
20B
100
AcDbEntity
  8
0
  6
Continuous
 62
     7
370
     0
100
AcDbTrace
 10
1.8310213432
 20
7.4426759901
 30
0.0
 11
1.8610213432
 21
7.6376759901
 31
0.0
 12
1.8010213432
 22
7.6376759901
 32
0.0
 13
1.8010213432
 23
7.6376759901
 33
0.0
  0
LINE
  5
210
330
20B
100
AcDbEntity
  8
0
  6
Continuous
 62
     7
370
     0
100
AcDbLine
 10
1.4716951767
 20
9.8932546315
 30
0.0
 11
1.4336092407
 21
9.8932546315
 31
0.0
  0
LINE
  5
211
330
20B
100
AcDbEntity
  8
0
  6
Continuous
 62
     7
370
     0
100
AcDbLine
 10
1.4336092407
 20
9.8932546315
 30
0.0
 11
1.4336092407
 21
9.5955983725
 31
0.0
  0
LINE
  5
212
330
20B
100
AcDbEntity
  8
0
  6
Continuous
 62
     7
370
     0
100
AcDbLine
 10
1.4336092407
 20
9.5955983725
 30
0.0
 11
1.4716951767
 21
9.5955983725
 31
0.0
  0
LINE
  5
213
330
20B
100
AcDbEntity
  8
0
  6
Continuous
 62
     7
370
     0
100
AcDbLine
 10
2.1903475097
 20
9.8932546315
 30
0.0
 11
2.2284334457
 21
9.8932546315
 31
0.0
  0
LINE
  5
214
330
20B
100
AcDbEntity
  8
0
  6
Continuous
 62
     7
370
     0
100
AcDbLine
 10
2.2284334457
 20
9.8932546315
 30
0.0
 11
2.2284334457
 21
9.5955983725
 31
0.0
  0
LINE
  5
215
330
20B
100
AcDbEntity
  8
0
  6
Continuous
 62
     7
370
     0
100
AcDbLine
 10
2.2284334457
 20
9.5955983725
 30
0.0
 11
2.1903475097
 21
9.5955983725
 31
0.0
  0
LINE
  5
216
330
20B
100
AcDbEntity
  8
0
  6
Continuous
 62
     7
370
     0
100
AcDbLine
 10
3.3124256172
 20
12.3466979147
 30
0.0
 11
1.6435213432
 21
12.3466979147
 31
0.0
  0
LINE
  5
217
330
20B
100
AcDbEntity
  8
0
  6
Continuous
 62
     7
370
     0
100
AcDbLine
 10
3.3124256172
 20
7.4426759901
 30
0.0
 11
1.6435213432
 21
7.4426759901
 31
0.0
  0
LINE
  5
218
330
20B
100
AcDbEntity
  8
0
  6
Continuous
 62
     7
370
     0
100
AcDbLine
 10
1.8310213432
 20
12.3466979147
 30
0.0
 11
1.8310213432
 21
10.2318614099
 31
0.0
  0
LINE
  5
219
330
20B
100
AcDbEntity
  8
0
  6
Continuous
 62
     7
370
     0
100
AcDbLine
 10
1.8310213432
 20
7.4426759901
 30
0.0
 11
1.8310213432
 21
9.557512495
 31
0.0
  0
MTEXT
  5
21A
330
20B
100
AcDbEntity
  8
0
  6
Continuous
 62
     7
370
     0
100
AcDbMText
 10
1.4060864543
 20
10.1759053727
 30
0.0
 40
0.1875
 41
0.0
 71
     1
 72
     1
  1

  7
SLDTEXTSTYLE0
 73
     1
 44
1.0
  0
MTEXT
  5
21B
330
20B
100
AcDbEntity
  8
0
  6
Continuous
 62
     7
370
     0
100
AcDbMText
 10
1.5885734052
 20
10.1730407755
 30
0.0
 40
0.1875
 41
0.0
 71
     1
 72
     1
  1
4.90
  7
SLDTEXTSTYLE0
 73
     1
 44
1.0
  0
MTEXT
  5
21C
330
20B
100
AcDbEntity
  8
0
  6
Continuous
 62
     7
370
     0
100
AcDbMText
 10
1.5193025992
 20
9.8372985943
 30
0.0
 40
0.1875
 41
0.0
 71
     1
 72
     1
  1
124.6
  7
SLDTEXTSTYLE0
 73
     1
 44
1.0
  0
MTEXT
  5
21D
330
20B
100
AcDbEntity
  8
0
  6
Continuous
 62
     7
370
     0
100
AcDbMText
 10
2.3273103573
 20
10.1759053727
 30
0.0
 40
0.1875
 41
0.0
 71
     1
 72
     1
  1

  7
SLDTEXTSTYLE0
 73
     1
 44
1.0
  0
ENDBLK
  5
20D
330
20B
100
AcDbEntity
  8
0
100
AcDbBlockEnd
  0
BLOCK
  5
21F
330
21E
100
AcDbEntity
  8
0
100
AcDbBlockBegin
  2
SW_NOTE_9
 70
     0
 10
0.0
 20
0.0
 30
0.0
  3
SW_NOTE_9
  1

  0
LINE
  5
221
330
21E
100
AcDbEntity
  8
0
  6
Continuous
 62
     0
370
     0
100
AcDbLine
 10
0.1980137305
 20
-0.1853117295
 30
0.0
 11
0.1599277945
 21
-0.1853117295
 31
0.0
  0
LINE
  5
222
330
21E
100
AcDbEntity
  8
0
  6
Continuous
 62
     0
370
     0
100
AcDbLine
 10
0.1599277945
 20
-0.1853117295
 30
0.0
 11
0.1599277945
 21
-0.4829679885
 31
0.0
  0
LINE
  5
223
330
21E
100
AcDbEntity
  8
0
  6
Continuous
 62
     0
370
     0
100
AcDbLine
 10
0.1599277945
 20
-0.4829679885
 30
0.0
 11
0.1980137305
 21
-0.4829679885
 31
0.0
  0
LINE
  5
224
330
21E
100
AcDbEntity
  8
0
  6
Continuous
 62
     0
370
     0
100
AcDbLine
 10
0.6395827295
 20
-0.1853117295
 30
0.0
 11
0.6776686654
 21
-0.1853117295
 31
0.0
  0
LINE
  5
225
330
21E
100
AcDbEntity
  8
0
  6
Continuous
 62
     0
370
     0
100
AcDbLine
 10
0.6776686654
 20
-0.1853117295
 30
0.0
 11
0.6776686654
 21
-0.4829679885
 31
0.0
  0
LINE
  5
226
330
21E
100
AcDbEntity
  8
0
  6
Continuous
 62
     0
370
     0
100
AcDbLine
 10
0.6776686654
 20
-0.4829679885
 30
0.0
 11
0.6395827295
 21
-0.4829679885
 31
0.0
  0
MTEXT
  5
227
330
21E
100
AcDbEntity
  8
0
  6
Continuous
 62
     0
370
     0
100
AcDbMText
 10
0.0349635903
 20
0.0944744145
 30
0.0
 40
0.1875
 41
0.0
 71
     1
 72
     1
  1
%%c
  7
SLDTEXTSTYLE0
 73
     1
 44
1.0
  0
MTEXT
  5
228
330
21E
100
AcDbEntity
  8
0
  6
Continuous
 62
     0
370
     0
100
AcDbMText
 10
0.3177370212
 20
0.0944744145
 30
0.0
 40
0.1875
 41
0.0
 71
     1
 72
     1
  1
.126
  7
SLDTEXTSTYLE0
 73
     1
 44
1.0
  0
MTEXT
  5
229
330
21E
100
AcDbEntity
  8
0
  6
Continuous
 62
     0
370
     0
100
AcDbMText
 10
0.245621153
 20
-0.2412677666
 30
0.0
 40
0.1875
 41
0.0
 71
     1
 72
     1
  1
3.2
  7
SLDTEXTSTYLE0
 73
     1
 44
1.0
  0
MTEXT
  5
22A
330
21E
100
AcDbEntity
  8
0
  6
Continuous
 62
     0
370
     0
100
AcDbMText
 10
0.8729453421
 20
0.0944744283
 30
0.0
 40
0.1875
 41
0.0
 71
     1
 72
     1
  1
x .390 DEEP (2X)
  7
SLDTEXTSTYLE0
 73
     1
 44
1.0
  0
MTEXT
  5
22B
330
21E
100
AcDbEntity
  8
0
  6
Continuous
 62
     0
370
     0
100
AcDbMText
 10
0.0349635903
 20
-0.52590878
 30
0.0
 40
0.1875
 41
0.0
 71
     1
 72
     1
  1
ACCEPTS M3.5 x 6mm LG.
  7
SLDTEXTSTYLE0
 73
     1
 44
1.0
  0
MTEXT
  5
22D
330
21E
100
AcDbEntity
  8
0
  6
Continuous
 62
     0
370
     0
100
AcDbMText
 10
0.0349635903
 20
-0.7724638918
 30
0.0
 40
0.1875
 41
0.0
 71
     1
 72
     1
  1
OR #6 x 1/4" LG.
  7
SLDTEXTSTYLE3
 73
     1
 44
1.0
  0
MTEXT
  5
22E
330
21E
100
AcDbEntity
  8
0
  6
Continuous
 62
     0
370
     0
100
AcDbMText
 10
0.0349635903
 20
-1.0190190036
 30
0.0
 40
0.1875
 41
0.0
 71
     1
 72
     1
  1
SELF-TAPPING SCREW
  7
SLDTEXTSTYLE0
 73
     1
 44
1.0
  0
MTEXT
  5
22F
330
21E
100
AcDbEntity
  8
0
  6
Continuous
 62
     0
370
     0
100
AcDbMText
 10
0.0349635903
 20
-1.2655741153
 30
0.0
 40
0.1875
 41
0.0
 71
     1
 72
     1
  1
(NOT SUPPLIED - FOR PCB
  7
SLDTEXTSTYLE0
 73
     1
 44
1.0
  0
MTEXT
  5
230
330
21E
100
AcDbEntity
  8
0
  6
Continuous
 62
     0
370
     0
100
AcDbMText
 10
0.0349635903
 20
-1.5121292271
 30
0.0
 40
0.1875
 41
0.0
 71
     1
 72
     1
  1
MOUNTING)
  7
SLDTEXTSTYLE0
 73
     1
 44
1.0
  0
ENDBLK
  5
220
330
21E
100
AcDbEntity
  8
0
100
AcDbBlockEnd
  0
BLOCK
  5
260
330
25F
100
AcDbEntity
  8
0
100
AcDbBlockBegin
  2
_D_8
 70
     0
 10
0.0
 20
0.0
 30
0.0
  3
_D_8
  1

  0
SOLID
  5
262
330
25F
100
AcDbEntity
  8
0
  6
Continuous
 62
     7
370
     0
100
AcDbTrace
 10
20.1242226614
 20
9.0570808069
 30
0.0
 11
20.3192226614
 21
9.0270808069
 31
0.0
 12
20.3192226614
 22
9.0870808069
 32
0.0
 13
20.3192226614
 23
9.0870808069
 33
0.0
  0
SOLID
  5
263
330
25F
100
AcDbEntity
  8
0
  6
Continuous
 62
     7
370
     0
100
AcDbTrace
 10
22.2698919527
 20
9.0570808069
 30
0.0
 11
22.0748919527
 21
9.0870808069
 31
0.0
 12
22.0748919527
 22
9.0270808069
 32
0.0
 13
22.0748919527
 23
9.0270808069
 33
0.0
  0
LINE
  5
264
330
25F
100
AcDbEntity
  8
0
  6
Continuous
 62
     7
370
     0
100
AcDbLine
 10
20.9070019878
 20
9.055648486
 30
0.0
 11
20.8689160518
 21
9.055648486
 31
0.0
  0
LINE
  5
265
330
25F
100
AcDbEntity
  8
0
  6
Continuous
 62
     7
370
     0
100
AcDbLine
 10
20.8689160518
 20
9.055648486
 30
0.0
 11
20.8689160518
 21
8.757992227
 31
0.0
  0
LINE
  5
266
330
25F
100
AcDbEntity
  8
0
  6
Continuous
 62
     7
370
     0
100
AcDbLine
 10
20.8689160518
 20
8.757992227
 30
0.0
 11
20.9070019878
 21
8.757992227
 31
0.0
  0
LINE
  5
267
330
25F
100
AcDbEntity
  8
0
  6
Continuous
 62
     7
370
     0
100
AcDbLine
 10
21.4871126813
 20
9.055648486
 30
0.0
 11
21.5251986173
 21
9.055648486
 31
0.0
  0
LINE
  5
268
330
25F
100
AcDbEntity
  8
0
  6
Continuous
 62
     7
370
     0
100
AcDbLine
 10
21.5251986173
 20
9.055648486
 30
0.0
 11
21.5251986173
 21
8.757992227
 31
0.0
  0
LINE
  5
269
330
25F
100
AcDbEntity
  8
0
  6
Continuous
 62
     7
370
     0
100
AcDbLine
 10
21.5251986173
 20
8.757992227
 30
0.0
 11
21.4871126813
 21
8.757992227
 31
0.0
  0
LINE
  5
26A
330
25F
100
AcDbEntity
  8
0
  6
Continuous
 62
     7
370
     0
100
AcDbLine
 10
20.1242226614
 20
7.2612119813
 30
0.0
 11
20.1242226614
 21
9.2445808069
 31
0.0
  0
LINE
  5
26B
330
25F
100
AcDbEntity
  8
0
  6
Continuous
 62
     7
370
     0
100
AcDbLine
 10
22.2698919527
 20
7.2614156802
 30
0.0
 11
22.2698919527
 21
9.2445808069
 31
0.0
  0
LINE
  5
26C
330
25F
100
AcDbEntity
  8
0
  6
Continuous
 62
     7
370
     0
100
AcDbLine
 10
20.1242226614
 20
9.0570808069
 30
0.0
 11
20.7330869433
 21
9.0570808069
 31
0.0
  0
LINE
  5
26D
330
25F
100
AcDbEntity
  8
0
  6
Continuous
 62
     7
370
     0
100
AcDbLine
 10
22.2698919527
 20
9.0570808069
 30
0.0
 11
21.6610276708
 21
9.0570808069
 31
0.0
  0
MTEXT
  5
26E
330
25F
100
AcDbEntity
  8
0
  6
Continuous
 62
     7
370
     0
100
AcDbMText
 10
20.8413932655
 20
9.3382992272
 30
0.0
 40
0.1875
 41
0.0
 71
     1
 72
     1
  1

  7
SLDTEXTSTYLE0
 73
     1
 44
1.0
  0
MTEXT
  5
26F
330
25F
100
AcDbEntity
  8
0
  6
Continuous
 62
     7
370
     0
100
AcDbMText
 10
20.9546093966
 20
9.33543463
 30
0.0
 40
0.1875
 41
0.0
 71
     1
 72
     1
  1
2.15
  7
SLDTEXTSTYLE0
 73
     1
 44
1.0
  0
MTEXT
  5
270
330
25F
100
AcDbEntity
  8
0
  6
Continuous
 62
     7
370
     0
100
AcDbMText
 10
20.9546094103
 20
8.9996924489
 30
0.0
 40
0.1875
 41
0.0
 71
     1
 72
     1
  1
54.5
  7
SLDTEXTSTYLE0
 73
     1
 44
1.0
  0
MTEXT
  5
271
330
25F
100
AcDbEntity
  8
0
  6
Continuous
 62
     7
370
     0
100
AcDbMText
 10
21.6240755289
 20
9.3382992272
 30
0.0
 40
0.1875
 41
0.0
 71
     1
 72
     1
  1

  7
SLDTEXTSTYLE0
 73
     1
 44
1.0
  0
ENDBLK
  5
261
330
25F
100
AcDbEntity
  8
0
100
AcDbBlockEnd
  0
BLOCK
  5
274
330
273
100
AcDbEntity
  8
0
100
AcDbBlockBegin
  2
_D_9
 70
     0
 10
0.0
 20
0.0
 30
0.0
  3
_D_9
  1

  0
SOLID
  5
276
330
273
100
AcDbEntity
  8
0
  6
Continuous
 62
     7
370
     0
100
AcDbTrace
 10
23.8750154776
 20
7.5759757609
 30
0.0
 11
23.8450154776
 21
7.3809757609
 31
0.0
 12
23.9050154776
 22
7.3809757609
 32
0.0
 13
23.9050154776
 23
7.3809757609
 33
0.0
  0
SOLID
  5
277
330
273
100
AcDbEntity
  8
0
  6
Continuous
 62
     7
370
     0
100
AcDbTrace
 10
23.8750154776
 20
2.0444796979
 30
0.0
 11
23.9050154776
 21
2.2394796979
 31
0.0
 12
23.8450154776
 22
2.2394796979
 32
0.0
 13
23.8450154776
 23
2.2394796979
 33
0.0
  0
LINE
  5
278
330
273
100
AcDbEntity
  8
0
  6
Continuous
 62
     7
370
     0
100
AcDbLine
 10
23.5156893111
 20
4.8087954084
 30
0.0
 11
23.4776033751
 21
4.8087954084
 31
0.0
  0
LINE
  5
279
330
273
100
AcDbEntity
  8
0
  6
Continuous
 62
     7
370
     0
100
AcDbLine
 10
23.4776033751
 20
4.8087954084
 30
0.0
 11
23.4776033751
 21
4.5111391495
 31
0.0
  0
LINE
  5
27A
330
273
100
AcDbEntity
  8
0
  6
Continuous
 62
     7
370
     0
100
AcDbLine
 10
23.4776033751
 20
4.5111391495
 30
0.0
 11
23.5156893111
 21
4.5111391495
 31
0.0
  0
LINE
  5
27B
330
273
100
AcDbEntity
  8
0
  6
Continuous
 62
     7
370
     0
100
AcDbLine
 10
24.2343416441
 20
4.8087954084
 30
0.0
 11
24.2724275801
 21
4.8087954084
 31
0.0
  0
LINE
  5
27C
330
273
100
AcDbEntity
  8
0
  6
Continuous
 62
     7
370
     0
100
AcDbLine
 10
24.2724275801
 20
4.8087954084
 30
0.0
 11
24.2724275801
 21
4.5111391495
 31
0.0
  0
LINE
  5
27D
330
273
100
AcDbEntity
  8
0
  6
Continuous
 62
     7
370
     0
100
AcDbLine
 10
24.2724275801
 20
4.5111391495
 30
0.0
 11
24.2343416441
 21
4.5111391495
 31
0.0
  0
LINE
  5
27E
330
273
100
AcDbEntity
  8
0
  6
Continuous
 62
     7
370
     0
100
AcDbLine
 10
21.859343438
 20
7.5759757609
 30
0.0
 11
24.0625154776
 21
7.5759757609
 31
0.0
  0
LINE
  5
27F
330
273
100
AcDbEntity
  8
0
  6
Continuous
 62
     7
370
     0
100
AcDbLine
 10
21.6519785669
 20
2.0444796979
 30
0.0
 11
24.0625154776
 21
2.0444796979
 31
0.0
  0
LINE
  5
280
330
273
100
AcDbEntity
  8
0
  6
Continuous
 62
     7
370
     0
100
AcDbLine
 10
23.8750154776
 20
7.5759757609
 30
0.0
 11
23.8750154776
 21
5.1474021868
 31
0.0
  0
LINE
  5
281
330
273
100
AcDbEntity
  8
0
  6
Continuous
 62
     7
370
     0
100
AcDbLine
 10
23.8750154776
 20
2.0444796979
 30
0.0
 11
23.8750154776
 21
4.4730532719
 31
0.0
  0
MTEXT
  5
282
330
273
100
AcDbEntity
  8
0
  6
Continuous
 62
     7
370
     0
100
AcDbMText
 10
23.4500805887
 20
5.0914461497
 30
0.0
 40
0.1875
 41
0.0
 71
     1
 72
     1
  1

  7
SLDTEXTSTYLE0
 73
     1
 44
1.0
  0
MTEXT
  5
283
330
273
100
AcDbEntity
  8
0
  6
Continuous
 62
     7
370
     0
100
AcDbMText
 10
23.6325675396
 20
5.0885815525
 30
0.0
 40
0.1875
 41
0.0
 71
     1
 72
     1
  1
5.53
  7
SLDTEXTSTYLE0
 73
     1
 44
1.0
  0
MTEXT
  5
284
330
273
100
AcDbEntity
  8
0
  6
Continuous
 62
     7
370
     0
100
AcDbMText
 10
23.5632967336
 20
4.7528393713
 30
0.0
 40
0.1875
 41
0.0
 71
     1
 72
     1
  1
140.5
  7
SLDTEXTSTYLE0
 73
     1
 44
1.0
  0
MTEXT
  5
285
330
273
100
AcDbEntity
  8
0
  6
Continuous
 62
     7
370
     0
100
AcDbMText
 10
24.3713044917
 20
5.0914461497
 30
0.0
 40
0.1875
 41
0.0
 71
     1
 72
     1
  1

  7
SLDTEXTSTYLE0
 73
     1
 44
1.0
  0
ENDBLK
  5
275
330
273
100
AcDbEntity
  8
0
100
AcDbBlockEnd
  0
BLOCK
  5
288
330
287
100
AcDbEntity
  8
0
100
AcDbBlockBegin
  2
_D_10
 70
     0
 10
0.0
 20
0.0
 30
0.0
  3
_D_10
  1

  0
SOLID
  5
28A
330
287
100
AcDbEntity
  8
0
  6
Continuous
 62
     7
370
     0
100
AcDbTrace
 10
20.5572935275
 20
5.1597817809
 30
0.0
 11
20.3622935275
 21
5.1897817809
 31
0.0
 12
20.3622935275
 22
5.1297817809
 32
0.0
 13
20.3622935275
 23
5.1297817809
 33
0.0
  0
SOLID
  5
28B
330
287
100
AcDbEntity
  8
0
  6
Continuous
 62
     7
370
     0
100
AcDbTrace
 10
21.8368210866
 20
5.1597817809
 30
0.0
 11
22.0318210866
 21
5.1297817809
 31
0.0
 12
22.0318210866
 22
5.1897817809
 32
0.0
 13
22.0318210866
 23
5.1897817809
 33
0.0
  0
LINE
  5
28C
330
287
100
AcDbEntity
  8
0
  6
Continuous
 62
     7
370
     0
100
AcDbLine
 10
20.9070019878
 20
5.15834946
 30
0.0
 11
20.8689160518
 21
5.15834946
 31
0.0
  0
LINE
  5
28D
330
287
100
AcDbEntity
  8
0
  6
Continuous
 62
     7
370
     0
100
AcDbLine
 10
20.8689160518
 20
5.15834946
 30
0.0
 11
20.8689160518
 21
4.860693201
 31
0.0
  0
LINE
  5
28E
330
287
100
AcDbEntity
  8
0
  6
Continuous
 62
     7
370
     0
100
AcDbLine
 10
20.8689160518
 20
4.860693201
 30
0.0
 11
20.9070019878
 21
4.860693201
 31
0.0
  0
LINE
  5
28F
330
287
100
AcDbEntity
  8
0
  6
Continuous
 62
     7
370
     0
100
AcDbLine
 10
21.4871126813
 20
5.15834946
 30
0.0
 11
21.5251986173
 21
5.15834946
 31
0.0
  0
LINE
  5
290
330
287
100
AcDbEntity
  8
0
  6
Continuous
 62
     7
370
     0
100
AcDbLine
 10
21.5251986173
 20
5.15834946
 30
0.0
 11
21.5251986173
 21
4.860693201
 31
0.0
  0
LINE
  5
291
330
287
100
AcDbEntity
  8
0
  6
Continuous
 62
     7
370
     0
100
AcDbLine
 10
21.5251986173
 20
4.860693201
 30
0.0
 11
21.4871126813
 21
4.860693201
 31
0.0
  0
LINE
  5
292
330
287
100
AcDbEntity
  8
0
  6
Continuous
 62
     7
370
     0
100
AcDbLine
 10
20.5572935275
 20
2.2671174932
 30
0.0
 11
20.5572935275
 21
5.3472817809
 31
0.0
  0
LINE
  5
293
330
287
100
AcDbEntity
  8
0
  6
Continuous
 62
     7
370
     0
100
AcDbLine
 10
21.8368210866
 20
7.3533379656
 30
0.0
 11
21.8368210866
 21
4.9722817809
 31
0.0
  0
LINE
  5
294
330
287
100
AcDbEntity
  8
0
  6
Continuous
 62
     7
370
     0
100
AcDbLine
 10
20.5572935275
 20
5.1597817809
 30
0.0
 11
20.1822935275
 21
5.1597817809
 31
0.0
  0
LINE
  5
295
330
287
100
AcDbEntity
  8
0
  6
Continuous
 62
     7
370
     0
100
AcDbLine
 10
21.8368210866
 20
5.1597817809
 30
0.0
 11
22.2118210866
 21
5.1597817809
 31
0.0
  0
MTEXT
  5
296
330
287
100
AcDbEntity
  8
0
  6
Continuous
 62
     7
370
     0
100
AcDbMText
 10
20.8413932655
 20
5.4410002012
 30
0.0
 40
0.1875
 41
0.0
 71
     1
 72
     1
  1

  7
SLDTEXTSTYLE0
 73
     1
 44
1.0
  0
MTEXT
  5
297
330
287
100
AcDbEntity
  8
0
  6
Continuous
 62
     7
370
     0
100
AcDbMText
 10
20.9546093966
 20
5.438135604
 30
0.0
 40
0.1875
 41
0.0
 71
     1
 72
     1
  1
1.28
  7
SLDTEXTSTYLE0
 73
     1
 44
1.0
  0
MTEXT
  5
298
330
287
100
AcDbEntity
  8
0
  6
Continuous
 62
     7
370
     0
100
AcDbMText
 10
20.9546094103
 20
5.1023934229
 30
0.0
 40
0.1875
 41
0.0
 71
     1
 72
     1
  1
32.5
  7
SLDTEXTSTYLE0
 73
     1
 44
1.0
  0
MTEXT
  5
299
330
287
100
AcDbEntity
  8
0
  6
Continuous
 62
     7
370
     0
100
AcDbMText
 10
21.6240755289
 20
5.4410002012
 30
0.0
 40
0.1875
 41
0.0
 71
     1
 72
     1
  1

  7
SLDTEXTSTYLE0
 73
     1
 44
1.0
  0
ENDBLK
  5
289
330
287
100
AcDbEntity
  8
0
100
AcDbBlockEnd
  0
BLOCK
  5
29C
330
29B
100
AcDbEntity
  8
0
100
AcDbBlockBegin
  2
_D_11
 70
     0
 10
0.0
 20
0.0
 30
0.0
  3
_D_11
  1

  0
SOLID
  5
29E
330
29B
100
AcDbEntity
  8
0
  6
Continuous
 62
     7
370
     0
100
AcDbTrace
 10
22.9240139449
 20
2.1921174932
 30
0.0
 11
22.9540139449
 21
2.3871174932
 31
0.0
 12
22.8940139449
 22
2.3871174932
 32
0.0
 13
22.8940139449
 23
2.3871174932
 33
0.0
  0
SOLID
  5
29F
330
29B
100
AcDbEntity
  8
0
  6
Continuous
 62
     7
370
     0
100
AcDbTrace
 10
22.9240139449
 20
7.4283379656
 30
0.0
 11
22.8940139449
 21
7.2333379656
 31
0.0
 12
22.9540139449
 22
7.2333379656
 32
0.0
 13
22.9540139449
 23
7.2333379656
 33
0.0
  0
LINE
  5
2A0
330
29B
100
AcDbEntity
  8
0
  6
Continuous
 62
     7
370
     0
100
AcDbLine
 10
22.6685940355
 20
4.8087954084
 30
0.0
 11
22.6305080996
 21
4.8087954084
 31
0.0
  0
LINE
  5
2A1
330
29B
100
AcDbEntity
  8
0
  6
Continuous
 62
     7
370
     0
100
AcDbLine
 10
22.6305080996
 20
4.8087954084
 30
0.0
 11
22.6305080996
 21
4.5111391495
 31
0.0
  0
LINE
  5
2A2
330
29B
100
AcDbEntity
  8
0
  6
Continuous
 62
     7
370
     0
100
AcDbLine
 10
22.6305080996
 20
4.5111391495
 30
0.0
 11
22.6685940355
 21
4.5111391495
 31
0.0
  0
LINE
  5
2A3
330
29B
100
AcDbEntity
  8
0
  6
Continuous
 62
     7
370
     0
100
AcDbLine
 10
23.1794338818
 20
4.8087954084
 30
0.0
 11
23.2175198177
 21
4.8087954084
 31
0.0
  0
LINE
  5
2A4
330
29B
100
AcDbEntity
  8
0
  6
Continuous
 62
     7
370
     0
100
AcDbLine
 10
23.2175198177
 20
4.8087954084
 30
0.0
 11
23.2175198177
 21
4.5111391495
 31
0.0
  0
LINE
  5
2A5
330
29B
100
AcDbEntity
  8
0
  6
Continuous
 62
     7
370
     0
100
AcDbLine
 10
23.2175198177
 20
4.5111391495
 30
0.0
 11
23.1794338818
 21
4.5111391495
 31
0.0
  0
LINE
  5
2A6
330
29B
100
AcDbEntity
  8
0
  6
Continuous
 62
     7
370
     0
100
AcDbLine
 10
20.6322935275
 20
2.1921174932
 30
0.0
 11
23.1115139449
 21
2.1921174932
 31
0.0
  0
LINE
  5
2A7
330
29B
100
AcDbEntity
  8
0
  6
Continuous
 62
     7
370
     0
100
AcDbLine
 10
21.9118210866
 20
7.4283379656
 30
0.0
 11
23.1115139449
 21
7.4283379656
 31
0.0
  0
LINE
  5
2A8
330
29B
100
AcDbEntity
  8
0
  6
Continuous
 62
     7
370
     0
100
AcDbLine
 10
22.9240139449
 20
2.1921174932
 30
0.0
 11
22.9240139449
 21
4.4730532719
 31
0.0
  0
LINE
  5
2A9
330
29B
100
AcDbEntity
  8
0
  6
Continuous
 62
     7
370
     0
100
AcDbLine
 10
22.9240139449
 20
7.4283379656
 30
0.0
 11
22.9240139449
 21
5.1474021868
 31
0.0
  0
MTEXT
  5
2AA
330
29B
100
AcDbEntity
  8
0
  6
Continuous
 62
     7
370
     0
100
AcDbMText
 10
22.6029853132
 20
5.0914461497
 30
0.0
 40
0.1875
 41
0.0
 71
     1
 72
     1
  1

  7
SLDTEXTSTYLE0
 73
     1
 44
1.0
  0
MTEXT
  5
2AB
330
29B
100
AcDbEntity
  8
0
  6
Continuous
 62
     7
370
     0
100
AcDbMText
 10
22.6815660344
 20
5.0885815525
 30
0.0
 40
0.1875
 41
0.0
 71
     1
 72
     1
  1
5.24
  7
SLDTEXTSTYLE0
 73
     1
 44
1.0
  0
MTEXT
  5
2AC
330
29B
100
AcDbEntity
  8
0
  6
Continuous
 62
     7
370
     0
100
AcDbMText
 10
22.7162014581
 20
4.7528393713
 30
0.0
 40
0.1875
 41
0.0
 71
     1
 72
     1
  1
133
  7
SLDTEXTSTYLE0
 73
     1
 44
1.0
  0
MTEXT
  5
2AD
330
29B
100
AcDbEntity
  8
0
  6
Continuous
 62
     7
370
     0
100
AcDbMText
 10
23.3163967568
 20
5.0914461497
 30
0.0
 40
0.1875
 41
0.0
 71
     1
 72
     1
  1

  7
SLDTEXTSTYLE0
 73
     1
 44
1.0
  0
ENDBLK
  5
29D
330
29B
100
AcDbEntity
  8
0
100
AcDbBlockEnd
  0
BLOCK
  5
2B0
330
2AF
100
AcDbEntity
  8
0
100
AcDbBlockBegin
  2
_D_12
 70
     0
 10
0.0
 20
0.0
 30
0.0
  3
_D_12
  1

  0
SOLID
  5
2B2
330
2AF
100
AcDbEntity
  8
0
  6
Continuous
 62
     7
370
     0
100
AcDbTrace
 10
19.4364162424
 20
7.2452670994
 30
0.0
 11
19.4064162424
 21
7.0502670994
 31
0.0
 12
19.4664162424
 22
7.0502670994
 32
0.0
 13
19.4664162424
 23
7.0502670994
 33
0.0
  0
SOLID
  5
2B3
330
2AF
100
AcDbEntity
  8
0
  6
Continuous
 62
     7
370
     0
100
AcDbTrace
 10
19.4364162424
 20
7.5759757609
 30
0.0
 11
19.4664162424
 21
7.7709757609
 31
0.0
 12
19.4064162424
 22
7.7709757609
 32
0.0
 13
19.4064162424
 23
7.7709757609
 33
0.0
  0
LINE
  5
2B4
330
2AF
100
AcDbEntity
  8
0
  6
Continuous
 62
     7
370
     0
100
AcDbLine
 10
18.5574446096
 20
8.1640966675
 30
0.0
 11
18.5193586736
 21
8.1640966675
 31
0.0
  0
LINE
  5
2B5
330
2AF
100
AcDbEntity
  8
0
  6
Continuous
 62
     7
370
     0
100
AcDbLine
 10
18.5193586736
 20
8.1640966675
 30
0.0
 11
18.5193586736
 21
7.8664404085
 31
0.0
  0
LINE
  5
2B6
330
2AF
100
AcDbEntity
  8
0
  6
Continuous
 62
     7
370
     0
100
AcDbLine
 10
18.5193586736
 20
7.8664404085
 30
0.0
 11
18.5574446096
 21
7.8664404085
 31
0.0
  0
LINE
  5
2B7
330
2AF
100
AcDbEntity
  8
0
  6
Continuous
 62
     7
370
     0
100
AcDbLine
 10
18.9990136085
 20
8.1640966675
 30
0.0
 11
19.0370995445
 21
8.1640966675
 31
0.0
  0
LINE
  5
2B8
330
2AF
100
AcDbEntity
  8
0
  6
Continuous
 62
     7
370
     0
100
AcDbLine
 10
19.0370995445
 20
8.1640966675
 30
0.0
 11
19.0370995445
 21
7.8664404085
 31
0.0
  0
LINE
  5
2B9
330
2AF
100
AcDbEntity
  8
0
  6
Continuous
 62
     7
370
     0
100
AcDbLine
 10
19.0370995445
 20
7.8664404085
 30
0.0
 11
18.9990136085
 21
7.8664404085
 31
0.0
  0
LINE
  5
2BA
330
2AF
100
AcDbEntity
  8
0
  6
Continuous
 62
     7
370
     0
100
AcDbLine
 10
20.1082777795
 20
7.2452670994
 30
0.0
 11
19.2489162424
 21
7.2452670994
 31
0.0
  0
LINE
  5
2BB
330
2AF
100
AcDbEntity
  8
0
  6
Continuous
 62
     7
370
     0
100
AcDbLine
 10
20.7421360472
 20
7.5759757609
 30
0.0
 11
19.2489162424
 21
7.5759757609
 31
0.0
  0
LINE
  5
2BC
330
2AF
100
AcDbEntity
  8
0
  6
Continuous
 62
     7
370
     0
100
AcDbLine
 10
19.2489162424
 20
8.1655289884
 30
0.0
 11
19.4364162424
 21
8.1655289884
 31
0.0
  0
LINE
  5
2BD
330
2AF
100
AcDbEntity
  8
0
  6
Continuous
 62
     7
370
     0
100
AcDbLine
 10
19.4364162424
 20
8.1655289884
 30
0.0
 11
19.4364162424
 21
7.5759757609
 31
0.0
  0
LINE
  5
2BE
330
2AF
100
AcDbEntity
  8
0
  6
Continuous
 62
     7
370
     0
100
AcDbLine
 10
19.4364162424
 20
7.2452670994
 30
0.0
 11
19.4364162424
 21
6.8702670994
 31
0.0
  0
MTEXT
  5
2BF
330
2AF
100
AcDbEntity
  8
0
  6
Continuous
 62
     7
370
     0
100
AcDbMText
 10
18.4918358873
 20
8.4467474087
 30
0.0
 40
0.1875
 41
0.0
 71
     1
 72
     1
  1

  7
SLDTEXTSTYLE0
 73
     1
 44
1.0
  0
MTEXT
  5
2C0
330
2AF
100
AcDbEntity
  8
0
  6
Continuous
 62
     7
370
     0
100
AcDbMText
 10
18.6050520184
 20
8.4438828115
 30
0.0
 40
0.1875
 41
0.0
 71
     1
 72
     1
  1
.33
  7
SLDTEXTSTYLE0
 73
     1
 44
1.0
  0
MTEXT
  5
2C1
330
2AF
100
AcDbEntity
  8
0
  6
Continuous
 62
     7
370
     0
100
AcDbMText
 10
18.6050520321
 20
8.1081406303
 30
0.0
 40
0.1875
 41
0.0
 71
     1
 72
     1
  1
8.4
  7
SLDTEXTSTYLE0
 73
     1
 44
1.0
  0
MTEXT
  5
2C2
330
2AF
100
AcDbEntity
  8
0
  6
Continuous
 62
     7
370
     0
100
AcDbMText
 10
19.1359764561
 20
8.4467474087
 30
0.0
 40
0.1875
 41
0.0
 71
     1
 72
     1
  1

  7
SLDTEXTSTYLE0
 73
     1
 44
1.0
  0
ENDBLK
  5
2B1
330
2AF
100
AcDbEntity
  8
0
100
AcDbBlockEnd
  0
BLOCK
  5
2C5
330
2C4
100
AcDbEntity
  8
0
100
AcDbBlockBegin
  2
_D_13
 70
     0
 10
0.0
 20
0.0
 30
0.0
  3
_D_13
  1

  0
SOLID
  5
2C7
330
2C4
100
AcDbEntity
  8
0
  6
Continuous
 62
     7
370
     0
100
AcDbTrace
 10
20.7580809291
 20
8.2764520454
 30
0.0
 11
20.5630809291
 21
8.3064520454
 31
0.0
 12
20.5630809291
 22
8.2464520454
 32
0.0
 13
20.5630809291
 23
8.2464520454
 33
0.0
  0
SOLID
  5
2C8
330
2C4
100
AcDbEntity
  8
0
  6
Continuous
 62
     7
370
     0
100
AcDbTrace
 10
20.1242226614
 20
8.2764520454
 30
0.0
 11
20.3192226614
 21
8.2464520454
 31
0.0
 12
20.3192226614
 22
8.3064520454
 32
0.0
 13
20.3192226614
 23
8.3064520454
 33
0.0
  0
LINE
  5
2C9
330
2C4
100
AcDbEntity
  8
0
  6
Continuous
 62
     7
370
     0
100
AcDbLine
 10
21.2836049702
 20
8.2750197244
 30
0.0
 11
21.2455190342
 21
8.2750197244
 31
0.0
  0
LINE
  5
2CA
330
2C4
100
AcDbEntity
  8
0
  6
Continuous
 62
     7
370
     0
100
AcDbLine
 10
21.2455190342
 20
8.2750197244
 30
0.0
 11
21.2455190342
 21
7.9773634655
 31
0.0
  0
LINE
  5
2CB
330
2C4
100
AcDbEntity
  8
0
  6
Continuous
 62
     7
370
     0
100
AcDbLine
 10
21.2455190342
 20
7.9773634655
 30
0.0
 11
21.2836049702
 21
7.9773634655
 31
0.0
  0
LINE
  5
2CC
330
2C4
100
AcDbEntity
  8
0
  6
Continuous
 62
     7
370
     0
100
AcDbLine
 10
21.8637156637
 20
8.2750197244
 30
0.0
 11
21.9018015997
 21
8.2750197244
 31
0.0
  0
LINE
  5
2CD
330
2C4
100
AcDbEntity
  8
0
  6
Continuous
 62
     7
370
     0
100
AcDbLine
 10
21.9018015997
 20
8.2750197244
 30
0.0
 11
21.9018015997
 21
7.9773634655
 31
0.0
  0
LINE
  5
2CE
330
2C4
100
AcDbEntity
  8
0
  6
Continuous
 62
     7
370
     0
100
AcDbLine
 10
21.9018015997
 20
7.9773634655
 30
0.0
 11
21.8637156637
 21
7.9773634655
 31
0.0
  0
LINE
  5
2CF
330
2C4
100
AcDbEntity
  8
0
  6
Continuous
 62
     7
370
     0
100
AcDbLine
 10
20.7580809291
 20
7.5919206428
 30
0.0
 11
20.7580809291
 21
8.4639520454
 31
0.0
  0
LINE
  5
2D0
330
2C4
100
AcDbEntity
  8
0
  6
Continuous
 62
     7
370
     0
100
AcDbLine
 10
20.1242226614
 20
7.2612119813
 30
0.0
 11
20.1242226614
 21
8.4639520454
 31
0.0
  0
LINE
  5
2D1
330
2C4
100
AcDbEntity
  8
0
  6
Continuous
 62
     7
370
     0
100
AcDbLine
 10
20.7580809291
 20
8.2764520454
 30
0.0
 11
21.1096899257
 21
8.2764520454
 31
0.0
  0
LINE
  5
2D2
330
2C4
100
AcDbEntity
  8
0
  6
Continuous
 62
     7
370
     0
100
AcDbLine
 10
20.1242226614
 20
8.2764520454
 30
0.0
 11
20.7580809291
 21
8.2764520454
 31
0.0
  0
MTEXT
  5
2D3
330
2C4
100
AcDbEntity
  8
0
  6
Continuous
 62
     7
370
     0
100
AcDbMText
 10
21.2179962479
 20
8.5576704657
 30
0.0
 40
0.1875
 41
0.0
 71
     1
 72
     1
  1

  7
SLDTEXTSTYLE0
 73
     1
 44
1.0
  0
MTEXT
  5
2D4
330
2C4
100
AcDbEntity
  8
0
  6
Continuous
 62
     7
370
     0
100
AcDbMText
 10
21.4004832262
 20
8.5548058685
 30
0.0
 40
0.1875
 41
0.0
 71
     1
 72
     1
  1
.63
  7
SLDTEXTSTYLE0
 73
     1
 44
1.0
  0
MTEXT
  5
2D5
330
2C4
100
AcDbEntity
  8
0
  6
Continuous
 62
     7
370
     0
100
AcDbMText
 10
21.3312123927
 20
8.2190636873
 30
0.0
 40
0.1875
 41
0.0
 71
     1
 72
     1
  1
16.1
  7
SLDTEXTSTYLE0
 73
     1
 44
1.0
  0
MTEXT
  5
2D6
330
2C4
100
AcDbEntity
  8
0
  6
Continuous
 62
     7
370
     0
100
AcDbMText
 10
22.0006785112
 20
8.5576704657
 30
0.0
 40
0.1875
 41
0.0
 71
     1
 72
     1
  1

  7
SLDTEXTSTYLE0
 73
     1
 44
1.0
  0
ENDBLK
  5
2C6
330
2C4
100
AcDbEntity
  8
0
100
AcDbBlockEnd
  0
BLOCK
  5
2DA
330
2D9
100
AcDbEntity
  8
0
100
AcDbBlockBegin
  2
_D_14
 70
     0
 10
0.0
 20
0.0
 30
0.0
  3
_D_14
  1

  0
ARC
  5
2DC
330
2D9
100
AcDbEntity
  8
0
  6
Continuous
 62
     7
370
     0
100
AcDbCircle
 10
22.2226478582
 20
7.5287316664
 30
0.0
 40
0.2834645669291346
100
AcDbArc
 50
282.8438097217
 51
56.6148218835
  0
SOLID
  5
2DD
330
2D9
100
AcDbEntity
  8
0
  6
Continuous
 62
     7
370
     0
100
AcDbTrace
 10
22.4833228046
 20
7.640090245
 30
0.0
 11
22.6744308944
 21
7.6891075688
 31
0.0
 12
22.6508599952
 22
7.7442837657
 32
0.0
 13
22.6508599952
 23
7.7442837657
 33
0.0
  0
LINE
  5
2DE
330
2D9
100
AcDbEntity
  8
0
  6
Continuous
 62
     7
370
     0
100
AcDbLine
 10
23.773010455
 20
8.0963319359
 30
0.0
 11
23.734924519
 21
8.0963319359
 31
0.0
  0
LINE
  5
2DF
330
2D9
100
AcDbEntity
  8
0
  6
Continuous
 62
     7
370
     0
100
AcDbLine
 10
23.734924519
 20
8.0963319359
 30
0.0
 11
23.734924519
 21
7.798675677
 31
0.0
  0
LINE
  5
2E0
330
2D9
100
AcDbEntity
  8
0
  6
Continuous
 62
     7
370
     0
100
AcDbLine
 10
23.734924519
 20
7.798675677
 30
0.0
 11
23.773010455
 21
7.798675677
 31
0.0
  0
LINE
  5
2E1
330
2D9
100
AcDbEntity
  8
0
  6
Continuous
 62
     7
370
     0
100
AcDbLine
 10
24.214579454
 20
8.0963319359
 30
0.0
 11
24.2526653899
 21
8.0963319359
 31
0.0
  0
LINE
  5
2E2
330
2D9
100
AcDbEntity
  8
0
  6
Continuous
 62
     7
370
     0
100
AcDbLine
 10
24.2526653899
 20
8.0963319359
 30
0.0
 11
24.2526653899
 21
7.798675677
 31
0.0
  0
LINE
  5
2E3
330
2D9
100
AcDbEntity
  8
0
  6
Continuous
 62
     7
370
     0
100
AcDbLine
 10
24.2526653899
 20
7.798675677
 30
0.0
 11
24.214579454
 21
7.798675677
 31
0.0
  0
LINE
  5
2E4
330
2D9
100
AcDbEntity
  8
0
  6
Continuous
 62
     7
370
     0
100
AcDbLine
 10
22.4833228046
 20
7.640090245
 30
0.0
 11
23.5188600662
 21
8.0824647777
 31
0.0
  0
LINE
  5
2E5
330
2D9
100
AcDbEntity
  8
0
  6
Continuous
 62
     7
370
     0
100
AcDbLine
 10
23.5188600662
 20
8.0824647777
 30
0.0
 11
23.7063600662
 21
8.0824647777
 31
0.0
  0
MTEXT
  5
2E6
330
2D9
100
AcDbEntity
  8
0
  6
Continuous
 62
     7
370
     0
100
AcDbMText
 10
23.7447063932
 20
8.37611808
 30
0.0
 40
0.1875
 41
0.0
 71
     1
 72
     1
  1
R.28
  7
SLDTEXTSTYLE0
 73
     1
 44
1.0
  0
MTEXT
  5
2E7
330
2D9
100
AcDbEntity
  8
0
  6
Continuous
 62
     7
370
     0
100
AcDbMText
 10
23.8206178775
 20
8.0403758988
 30
0.0
 40
0.1875
 41
0.0
 71
     1
 72
     1
  1
7.2
  7
SLDTEXTSTYLE0
 73
     1
 44
1.0
  0
ENDBLK
  5
2DB
330
2D9
100
AcDbEntity
  8
0
100
AcDbBlockEnd
  0
BLOCK
  5
2EB
330
2EA
100
AcDbEntity
  8
0
100
AcDbBlockBegin
  2
_D_15
 70
     0
 10
0.0
 20
0.0
 30
0.0
  3
_D_15
  1

  0
SOLID
  5
2ED
330
2EA
100
AcDbEntity
  8
0
  6
Continuous
 62
     7
370
     0
100
AcDbTrace
 10
20.3874186124
 20
2.2753455677
 30
0.0
 11
20.5554087983
 21
2.3788071424
 31
0.0
 12
20.5165421892
 22
2.4245169521
 32
0.0
 13
20.5165421892
 23
2.4245169521
 33
0.0
  0
LINE
  5
2EE
330
2EA
100
AcDbEntity
  8
0
  6
Continuous
 62
     7
370
     0
100
AcDbLine
 10
18.2759569577
 20
1.0854207435
 30
0.0
 11
18.2378710217
 21
1.0854207435
 31
0.0
  0
LINE
  5
2EF
330
2EA
100
AcDbEntity
  8
0
  6
Continuous
 62
     7
370
     0
100
AcDbLine
 10
18.2378710217
 20
1.0854207435
 30
0.0
 11
18.2378710217
 21
0.7877644846
 31
0.0
  0
LINE
  5
2F0
330
2EA
100
AcDbEntity
  8
0
  6
Continuous
 62
     7
370
     0
100
AcDbLine
 10
18.2378710217
 20
0.7877644846
 30
0.0
 11
18.2759569577
 21
0.7877644846
 31
0.0
  0
LINE
  5
2F1
330
2EA
100
AcDbEntity
  8
0
  6
Continuous
 62
     7
370
     0
100
AcDbLine
 10
18.7175259566
 20
1.0854207435
 30
0.0
 11
18.7556118926
 21
1.0854207435
 31
0.0
  0
LINE
  5
2F2
330
2EA
100
AcDbEntity
  8
0
  6
Continuous
 62
     7
370
     0
100
AcDbLine
 10
18.7556118926
 20
1.0854207435
 30
0.0
 11
18.7556118926
 21
0.7877644846
 31
0.0
  0
LINE
  5
2F3
330
2EA
100
AcDbEntity
  8
0
  6
Continuous
 62
     7
370
     0
100
AcDbLine
 10
18.7556118926
 20
0.7877644846
 30
0.0
 11
18.7175259566
 21
0.7877644846
 31
0.0
  0
LINE
  5
2F4
330
2EA
100
AcDbEntity
  8
0
  6
Continuous
 62
     7
370
     0
100
AcDbLine
 10
20.3874186124
 20
2.2753455677
 30
0.0
 11
18.9716763179
 21
1.0715535853
 31
0.0
  0
LINE
  5
2F5
330
2EA
100
AcDbEntity
  8
0
  6
Continuous
 62
     7
370
     0
100
AcDbLine
 10
20.3874186124
 20
2.2753455677
 30
0.0
 11
20.6731049226
 21
2.5182618746
 31
0.0
  0
LINE
  5
2F6
330
2EA
100
AcDbEntity
  8
0
  6
Continuous
 62
     7
370
     0
100
AcDbLine
 10
18.9716763179
 20
1.0715535853
 30
0.0
 11
18.7841763179
 21
1.0715535853
 31
0.0
  0
MTEXT
  5
2F7
330
2EA
100
AcDbEntity
  8
0
  6
Continuous
 62
     7
370
     0
100
AcDbMText
 10
18.2476528959
 20
1.3652068876
 30
0.0
 40
0.1875
 41
0.0
 71
     1
 72
     1
  1
R.28
  7
SLDTEXTSTYLE0
 73
     1
 44
1.0
  0
MTEXT
  5
2F8
330
2EA
100
AcDbEntity
  8
0
  6
Continuous
 62
     7
370
     0
100
AcDbMText
 10
18.3235643802
 20
1.0294647064
 30
0.0
 40
0.1875
 41
0.0
 71
     1
 72
     1
  1
7.2
  7
SLDTEXTSTYLE0
 73
     1
 44
1.0
  0
ENDBLK
  5
2EC
330
2EA
100
AcDbEntity
  8
0
100
AcDbBlockEnd
  0
BLOCK
  5
2FB
330
2FA
100
AcDbEntity
  8
0
100
AcDbBlockBegin
  2
_D_16
 70
     0
 10
0.0
 20
0.0
 30
0.0
  3
_D_16
  1

  0
SOLID
  5
2FD
330
2FA
100
AcDbEntity
  8
0
  6
Continuous
 62
     7
370
     0
100
AcDbTrace
 10
21.6887824064
 20
2.2670368021
 30
0.0
 11
21.550084308
 21
2.4073501568
 31
0.0
 12
21.5143229805
 22
2.3591720761
 32
0.0
 13
21.5143229805
 23
2.3591720761
 33
0.0
  0
LINE
  5
2FE
330
2FA
100
AcDbEntity
  8
0
  6
Continuous
 62
     7
370
     0
100
AcDbLine
 10
23.5535018348
 20
1.0854207435
 30
0.0
 11
23.5154158989
 21
1.0854207435
 31
0.0
  0
LINE
  5
2FF
330
2FA
100
AcDbEntity
  8
0
  6
Continuous
 62
     7
370
     0
100
AcDbLine
 10
23.5154158989
 20
1.0854207435
 30
0.0
 11
23.5154158989
 21
0.7877644846
 31
0.0
  0
LINE
  5
300
330
2FA
100
AcDbEntity
  8
0
  6
Continuous
 62
     7
370
     0
100
AcDbLine
 10
23.5154158989
 20
0.7877644846
 30
0.0
 11
23.5535018348
 21
0.7877644846
 31
0.0
  0
LINE
  5
301
330
2FA
100
AcDbEntity
  8
0
  6
Continuous
 62
     7
370
     0
100
AcDbLine
 10
23.9950708338
 20
1.0854207435
 30
0.0
 11
24.0331567698
 21
1.0854207435
 31
0.0
  0
LINE
  5
302
330
2FA
100
AcDbEntity
  8
0
  6
Continuous
 62
     7
370
     0
100
AcDbLine
 10
24.0331567698
 20
1.0854207435
 30
0.0
 11
24.0331567698
 21
0.7877644846
 31
0.0
  0
LINE
  5
303
330
2FA
100
AcDbEntity
  8
0
  6
Continuous
 62
     7
370
     0
100
AcDbLine
 10
24.0331567698
 20
0.7877644846
 30
0.0
 11
23.9950708338
 21
0.7877644846
 31
0.0
  0
LINE
  5
304
330
2FA
100
AcDbEntity
  8
0
  6
Continuous
 62
     7
370
     0
100
AcDbLine
 10
21.6887824064
 20
2.2670368021
 30
0.0
 11
23.299351446
 21
1.0715535853
 31
0.0
  0
LINE
  5
305
330
2FA
100
AcDbEntity
  8
0
  6
Continuous
 62
     7
370
     0
100
AcDbLine
 10
21.6887824064
 20
2.2670368021
 30
0.0
 11
21.3876694023
 21
2.4905450989
 31
0.0
  0
LINE
  5
306
330
2FA
100
AcDbEntity
  8
0
  6
Continuous
 62
     7
370
     0
100
AcDbLine
 10
23.299351446
 20
1.0715535853
 30
0.0
 11
23.486851446
 21
1.0715535853
 31
0.0
  0
MTEXT
  5
307
330
2FA
100
AcDbEntity
  8
0
  6
Continuous
 62
     7
370
     0
100
AcDbMText
 10
23.5251977731
 20
1.3652068876
 30
0.0
 40
0.1875
 41
0.0
 71
     1
 72
     1
  1
R.27
  7
SLDTEXTSTYLE0
 73
     1
 44
1.0
  0
MTEXT
  5
308
330
2FA
100
AcDbEntity
  8
0
  6
Continuous
 62
     7
370
     0
100
AcDbMText
 10
23.6011092574
 20
1.0294647064
 30
0.0
 40
0.1875
 41
0.0
 71
     1
 72
     1
  1
6.8
  7
SLDTEXTSTYLE0
 73
     1
 44
1.0
  0
ENDBLK
  5
2FC
330
2FA
100
AcDbEntity
  8
0
100
AcDbBlockEnd
  0
BLOCK
  5
30B
330
30A
100
AcDbEntity
  8
0
100
AcDbBlockBegin
  2
_D_17
 70
     0
 10
0.0
 20
0.0
 30
0.0
  3
_D_17
  1

  0
SOLID
  5
30D
330
30A
100
AcDbEntity
  8
0
  6
Continuous
 62
     7
370
     0
100
AcDbTrace
 10
21.636033685
 20
3.2507827987
 30
0.0
 11
21.831033685
 21
3.2207827987
 31
0.0
 12
21.831033685
 22
3.2807827987
 32
0.0
 13
21.831033685
 23
3.2807827987
 33
0.0
  0
SOLID
  5
30E
330
30A
100
AcDbEntity
  8
0
  6
Continuous
 62
     7
370
     0
100
AcDbTrace
 10
22.2698919527
 20
3.2507827987
 30
0.0
 11
22.0748919527
 21
3.2807827987
 31
0.0
 12
22.0748919527
 22
3.2207827987
 32
0.0
 13
22.0748919527
 23
3.2207827987
 33
0.0
  0
LINE
  5
30F
330
30A
100
AcDbEntity
  8
0
  6
Continuous
 62
     7
370
     0
100
AcDbLine
 10
20.7218282543
 20
3.2493504777
 30
0.0
 11
20.6837423183
 21
3.2493504777
 31
0.0
  0
LINE
  5
310
330
30A
100
AcDbEntity
  8
0
  6
Continuous
 62
     7
370
     0
100
AcDbLine
 10
20.6837423183
 20
3.2493504777
 30
0.0
 11
20.6837423183
 21
2.9516942188
 31
0.0
  0
LINE
  5
311
330
30A
100
AcDbEntity
  8
0
  6
Continuous
 62
     7
370
     0
100
AcDbLine
 10
20.6837423183
 20
2.9516942188
 30
0.0
 11
20.7218282543
 21
2.9516942188
 31
0.0
  0
LINE
  5
312
330
30A
100
AcDbEntity
  8
0
  6
Continuous
 62
     7
370
     0
100
AcDbLine
 10
21.3019389478
 20
3.2493504777
 30
0.0
 11
21.3400248838
 21
3.2493504777
 31
0.0
  0
LINE
  5
313
330
30A
100
AcDbEntity
  8
0
  6
Continuous
 62
     7
370
     0
100
AcDbLine
 10
21.3400248838
 20
3.2493504777
 30
0.0
 11
21.3400248838
 21
2.9516942188
 31
0.0
  0
LINE
  5
314
330
30A
100
AcDbEntity
  8
0
  6
Continuous
 62
     7
370
     0
100
AcDbLine
 10
21.3400248838
 20
2.9516942188
 30
0.0
 11
21.3019389478
 21
2.9516942188
 31
0.0
  0
LINE
  5
315
330
30A
100
AcDbEntity
  8
0
  6
Continuous
 62
     7
370
     0
100
AcDbLine
 10
21.636033685
 20
2.178534816
 30
0.0
 11
21.636033685
 21
3.4382827987
 31
0.0
  0
LINE
  5
316
330
30A
100
AcDbEntity
  8
0
  6
Continuous
 62
     7
370
     0
100
AcDbLine
 10
21.636033685
 20
3.2507827987
 30
0.0
 11
21.4758539373
 21
3.2507827987
 31
0.0
  0
LINE
  5
317
330
30A
100
AcDbEntity
  8
0
  6
Continuous
 62
     7
370
     0
100
AcDbLine
 10
22.2698919527
 20
3.2507827987
 30
0.0
 11
21.636033685
 21
3.2507827987
 31
0.0
  0
MTEXT
  5
318
330
30A
100
AcDbEntity
  8
0
  6
Continuous
 62
     7
370
     0
100
AcDbMText
 10
20.656219532
 20
3.532001219
 30
0.0
 40
0.1875
 41
0.0
 71
     1
 72
     1
  1

  7
SLDTEXTSTYLE0
 73
     1
 44
1.0
  0
MTEXT
  5
319
330
30A
100
AcDbEntity
  8
0
  6
Continuous
 62
     7
370
     0
100
AcDbMText
 10
20.8387065104
 20
3.5291366218
 30
0.0
 40
0.1875
 41
0.0
 71
     1
 72
     1
  1
.63
  7
SLDTEXTSTYLE0
 73
     1
 44
1.0
  0
MTEXT
  5
31A
330
30A
100
AcDbEntity
  8
0
  6
Continuous
 62
     7
370
     0
100
AcDbMText
 10
20.7694356768
 20
3.1933944406
 30
0.0
 40
0.1875
 41
0.0
 71
     1
 72
     1
  1
16.1
  7
SLDTEXTSTYLE0
 73
     1
 44
1.0
  0
MTEXT
  5
31B
330
30A
100
AcDbEntity
  8
0
  6
Continuous
 62
     7
370
     0
100
AcDbMText
 10
21.4389017954
 20
3.532001219
 30
0.0
 40
0.1875
 41
0.0
 71
     1
 72
     1
  1

  7
SLDTEXTSTYLE0
 73
     1
 44
1.0
  0
ENDBLK
  5
30C
330
30A
100
AcDbEntity
  8
0
100
AcDbBlockEnd
  0
BLOCK
  5
31E
330
31D
100
AcDbEntity
  8
0
100
AcDbBlockBegin
  2
_D_18
 70
     0
 10
0.0
 20
0.0
 30
0.0
  3
_D_18
  1

  0
SOLID
  5
320
330
31D
100
AcDbEntity
  8
0
  6
Continuous
 62
     7
370
     0
100
AcDbTrace
 10
20.5572935275
 20
1.5236151988
 30
0.0
 11
20.7522935275
 21
1.4936151988
 31
0.0
 12
20.7522935275
 22
1.5536151988
 32
0.0
 13
20.7522935275
 23
1.5536151988
 33
0.0
  0
SOLID
  5
321
330
31D
100
AcDbEntity
  8
0
  6
Continuous
 62
     7
370
     0
100
AcDbTrace
 10
20.1242226614
 20
1.5236151988
 30
0.0
 11
19.9292226614
 21
1.5536151988
 31
0.0
 12
19.9292226614
 22
1.4936151988
 32
0.0
 13
19.9292226614
 23
1.4936151988
 33
0.0
  0
LINE
  5
322
330
31D
100
AcDbEntity
  8
0
  6
Continuous
 62
     7
370
     0
100
AcDbLine
 10
21.2272146257
 20
1.5221828778
 30
0.0
 11
21.1891286898
 21
1.5221828778
 31
0.0
  0
LINE
  5
323
330
31D
100
AcDbEntity
  8
0
  6
Continuous
 62
     7
370
     0
100
AcDbLine
 10
21.1891286898
 20
1.5221828778
 30
0.0
 11
21.1891286898
 21
1.2245266189
 31
0.0
  0
LINE
  5
324
330
31D
100
AcDbEntity
  8
0
  6
Continuous
 62
     7
370
     0
100
AcDbLine
 10
21.1891286898
 20
1.2245266189
 30
0.0
 11
21.2272146257
 21
1.2245266189
 31
0.0
  0
LINE
  5
325
330
31D
100
AcDbEntity
  8
0
  6
Continuous
 62
     7
370
     0
100
AcDbLine
 10
21.5995128049
 20
1.5221828778
 30
0.0
 11
21.6375987409
 21
1.5221828778
 31
0.0
  0
LINE
  5
326
330
31D
100
AcDbEntity
  8
0
  6
Continuous
 62
     7
370
     0
100
AcDbLine
 10
21.6375987409
 20
1.5221828778
 30
0.0
 11
21.6375987409
 21
1.2245266189
 31
0.0
  0
LINE
  5
327
330
31D
100
AcDbEntity
  8
0
  6
Continuous
 62
     7
370
     0
100
AcDbLine
 10
21.6375987409
 20
1.2245266189
 30
0.0
 11
21.5995128049
 21
1.2245266189
 31
0.0
  0
LINE
  5
328
330
31D
100
AcDbEntity
  8
0
  6
Continuous
 62
     7
370
     0
100
AcDbLine
 10
20.5572935275
 20
2.1171174932
 30
0.0
 11
20.5572935275
 21
1.3361151988
 31
0.0
  0
LINE
  5
329
330
31D
100
AcDbEntity
  8
0
  6
Continuous
 62
     7
370
     0
100
AcDbLine
 10
20.1242226614
 20
2.3590397785
 30
0.0
 11
20.1242226614
 21
1.3361151988
 31
0.0
  0
LINE
  5
32A
330
31D
100
AcDbEntity
  8
0
  6
Continuous
 62
     7
370
     0
100
AcDbLine
 10
20.5572935275
 20
1.5236151988
 30
0.0
 11
21.0532995812
 21
1.5236151988
 31
0.0
  0
LINE
  5
32B
330
31D
100
AcDbEntity
  8
0
  6
Continuous
 62
     7
370
     0
100
AcDbLine
 10
20.1242226614
 20
1.5236151988
 30
0.0
 11
19.7492226614
 21
1.5236151988
 31
0.0
  0
MTEXT
  5
32C
330
31D
100
AcDbEntity
  8
0
  6
Continuous
 62
     7
370
     0
100
AcDbMText
 10
21.1616059034
 20
1.8048336191
 30
0.0
 40
0.1875
 41
0.0
 71
     1
 72
     1
  1

  7
SLDTEXTSTYLE0
 73
     1
 44
1.0
  0
MTEXT
  5
32D
330
31D
100
AcDbEntity
  8
0
  6
Continuous
 62
     7
370
     0
100
AcDbMText
 10
21.2401866246
 20
1.8019690219
 30
0.0
 40
0.1875
 41
0.0
 71
     1
 72
     1
  1
.43
  7
SLDTEXTSTYLE0
 73
     1
 44
1.0
  0
MTEXT
  5
32E
330
31D
100
AcDbEntity
  8
0
  6
Continuous
 62
     7
370
     0
100
AcDbMText
 10
21.2748220483
 20
1.4662268407
 30
0.0
 40
0.1875
 41
0.0
 71
     1
 72
     1
  1
11
  7
SLDTEXTSTYLE0
 73
     1
 44
1.0
  0
MTEXT
  5
32F
330
31D
100
AcDbEntity
  8
0
  6
Continuous
 62
     7
370
     0
100
AcDbMText
 10
21.7364756525
 20
1.8048336191
 30
0.0
 40
0.1875
 41
0.0
 71
     1
 72
     1
  1

  7
SLDTEXTSTYLE0
 73
     1
 44
1.0
  0
ENDBLK
  5
31F
330
31D
100
AcDbEntity
  8
0
100
AcDbBlockEnd
  0
BLOCK
  5
332
330
331
100
AcDbEntity
  8
0
100
AcDbBlockBegin
  2
_D_19
 70
     0
 10
0.0
 20
0.0
 30
0.0
  3
_D_19
  1

  0
SOLID
  5
334
330
331
100
AcDbEntity
  8
0
  6
Continuous
 62
     7
370
     0
100
AcDbTrace
 10
19.4145882704
 20
2.0444796979
 30
0.0
 11
19.3845882704
 21
1.8494796979
 31
0.0
 12
19.4445882704
 22
1.8494796979
 32
0.0
 13
19.4445882704
 23
1.8494796979
 33
0.0
  0
SOLID
  5
335
330
331
100
AcDbEntity
  8
0
  6
Continuous
 62
     7
370
     0
100
AcDbTrace
 10
19.4145882704
 20
2.1921174932
 30
0.0
 11
19.4445882704
 21
2.3871174932
 31
0.0
 12
19.3845882704
 22
2.3871174932
 32
0.0
 13
19.3845882704
 23
2.3871174932
 33
0.0
  0
LINE
  5
336
330
331
100
AcDbEntity
  8
0
  6
Continuous
 62
     7
370
     0
100
AcDbLine
 10
18.5356166377
 20
2.697567992
 30
0.0
 11
18.4975307017
 21
2.697567992
 31
0.0
  0
LINE
  5
337
330
331
100
AcDbEntity
  8
0
  6
Continuous
 62
     7
370
     0
100
AcDbLine
 10
18.4975307017
 20
2.697567992
 30
0.0
 11
18.4975307017
 21
2.399911733
 31
0.0
  0
LINE
  5
338
330
331
100
AcDbEntity
  8
0
  6
Continuous
 62
     7
370
     0
100
AcDbLine
 10
18.4975307017
 20
2.399911733
 30
0.0
 11
18.5356166377
 21
2.399911733
 31
0.0
  0
LINE
  5
339
330
331
100
AcDbEntity
  8
0
  6
Continuous
 62
     7
370
     0
100
AcDbLine
 10
18.9771856366
 20
2.697567992
 30
0.0
 11
19.0152715726
 21
2.697567992
 31
0.0
  0
LINE
  5
33A
330
331
100
AcDbEntity
  8
0
  6
Continuous
 62
     7
370
     0
100
AcDbLine
 10
19.0152715726
 20
2.697567992
 30
0.0
 11
19.0152715726
 21
2.399911733
 31
0.0
  0
LINE
  5
33B
330
331
100
AcDbEntity
  8
0
  6
Continuous
 62
     7
370
     0
100
AcDbLine
 10
19.0152715726
 20
2.399911733
 30
0.0
 11
18.9771856366
 21
2.399911733
 31
0.0
  0
LINE
  5
33C
330
331
100
AcDbEntity
  8
0
  6
Continuous
 62
     7
370
     0
100
AcDbLine
 10
20.5347711761
 20
2.0444796979
 30
0.0
 11
19.2270882704
 21
2.0444796979
 31
0.0
  0
LINE
  5
33D
330
331
100
AcDbEntity
  8
0
  6
Continuous
 62
     7
370
     0
100
AcDbLine
 10
20.4822935275
 20
2.1921174932
 30
0.0
 11
19.2270882704
 21
2.1921174932
 31
0.0
  0
LINE
  5
33E
330
331
100
AcDbEntity
  8
0
  6
Continuous
 62
     7
370
     0
100
AcDbLine
 10
19.2270882704
 20
2.6990003129
 30
0.0
 11
19.4145882704
 21
2.6990003129
 31
0.0
  0
LINE
  5
33F
330
331
100
AcDbEntity
  8
0
  6
Continuous
 62
     7
370
     0
100
AcDbLine
 10
19.4145882704
 20
2.6990003129
 30
0.0
 11
19.4145882704
 21
2.1921174932
 31
0.0
  0
LINE
  5
340
330
331
100
AcDbEntity
  8
0
  6
Continuous
 62
     7
370
     0
100
AcDbLine
 10
19.4145882704
 20
2.0444796979
 30
0.0
 11
19.4145882704
 21
1.6694796979
 31
0.0
  0
MTEXT
  5
341
330
331
100
AcDbEntity
  8
0
  6
Continuous
 62
     7
370
     0
100
AcDbMText
 10
18.4700079153
 20
2.9802187332
 30
0.0
 40
0.1875
 41
0.0
 71
     1
 72
     1
  1

  7
SLDTEXTSTYLE0
 73
     1
 44
1.0
  0
MTEXT
  5
342
330
331
100
AcDbEntity
  8
0
  6
Continuous
 62
     7
370
     0
100
AcDbMText
 10
18.5832240464
 20
2.977354136
 30
0.0
 40
0.1875
 41
0.0
 71
     1
 72
     1
  1
.15
  7
SLDTEXTSTYLE0
 73
     1
 44
1.0
  0
MTEXT
  5
343
330
331
100
AcDbEntity
  8
0
  6
Continuous
 62
     7
370
     0
100
AcDbMText
 10
18.5832240602
 20
2.6416119548
 30
0.0
 40
0.1875
 41
0.0
 71
     1
 72
     1
  1
3.8
  7
SLDTEXTSTYLE0
 73
     1
 44
1.0
  0
MTEXT
  5
344
330
331
100
AcDbEntity
  8
0
  6
Continuous
 62
     7
370
     0
100
AcDbMText
 10
19.1141484842
 20
2.9802187332
 30
0.0
 40
0.1875
 41
0.0
 71
     1
 72
     1
  1

  7
SLDTEXTSTYLE0
 73
     1
 44
1.0
  0
ENDBLK
  5
333
330
331
100
AcDbEntity
  8
0
100
AcDbBlockEnd
  0
BLOCK
  5
347
330
346
100
AcDbEntity
  8
0
100
AcDbBlockBegin
  2
_D_20
 70
     0
 10
0.0
 20
0.0
 30
0.0
  3
_D_20
  1

  0
SOLID
  5
349
330
346
100
AcDbEntity
  8
0
  6
Continuous
 62
     7
370
     0
100
AcDbTrace
 10
21.7871656153
 20
7.3549811332
 30
0.0
 11
21.6530138572
 21
7.2103149457
 31
0.0
 12
21.702700885
 22
7.1766816398
 32
0.0
 13
21.702700885
 23
7.1766816398
 33
0.0
  0
LINE
  5
34A
330
346
100
AcDbEntity
  8
0
  6
Continuous
 62
     7
370
     0
100
AcDbLine
 10
22.9487384349
 20
8.7093981527
 30
0.0
 11
22.9106524989
 21
8.7093981527
 31
0.0
  0
LINE
  5
34B
330
346
100
AcDbEntity
  8
0
  6
Continuous
 62
     7
370
     0
100
AcDbLine
 10
22.9106524989
 20
8.7093981527
 30
0.0
 11
22.9106524989
 21
8.4117418937
 31
0.0
  0
LINE
  5
34C
330
346
100
AcDbEntity
  8
0
  6
Continuous
 62
     7
370
     0
100
AcDbLine
 10
22.9106524989
 20
8.4117418937
 30
0.0
 11
22.9487384349
 21
8.4117418937
 31
0.0
  0
LINE
  5
34D
330
346
100
AcDbEntity
  8
0
  6
Continuous
 62
     7
370
     0
100
AcDbLine
 10
23.3903074338
 20
8.7093981527
 30
0.0
 11
23.4283933698
 21
8.7093981527
 31
0.0
  0
LINE
  5
34E
330
346
100
AcDbEntity
  8
0
  6
Continuous
 62
     7
370
     0
100
AcDbLine
 10
23.4283933698
 20
8.7093981527
 30
0.0
 11
23.4283933698
 21
8.4117418937
 31
0.0
  0
LINE
  5
34F
330
346
100
AcDbEntity
  8
0
  6
Continuous
 62
     7
370
     0
100
AcDbLine
 10
23.4283933698
 20
8.4117418937
 30
0.0
 11
23.3903074338
 21
8.4117418937
 31
0.0
  0
LINE
  5
350
330
346
100
AcDbEntity
  8
0
  6
Continuous
 62
     7
370
     0
100
AcDbLine
 10
21.7871656153
 20
7.3549811332
 30
0.0
 11
22.6945880461
 21
8.6955309944
 31
0.0
  0
LINE
  5
351
330
346
100
AcDbEntity
  8
0
  6
Continuous
 62
     7
370
     0
100
AcDbLine
 10
21.7871656153
 20
7.3549811332
 30
0.0
 11
21.5769574533
 21
7.0444372093
 31
0.0
  0
LINE
  5
352
330
346
100
AcDbEntity
  8
0
  6
Continuous
 62
     7
370
     0
100
AcDbLine
 10
22.6945880461
 20
8.6955309944
 30
0.0
 11
22.8820880461
 21
8.6955309944
 31
0.0
  0
MTEXT
  5
353
330
346
100
AcDbEntity
  8
0
  6
Continuous
 62
     7
370
     0
100
AcDbMText
 10
22.9204343731
 20
8.9891842967
 30
0.0
 40
0.1875
 41
0.0
 71
     1
 72
     1
  1
R.09
  7
SLDTEXTSTYLE0
 73
     1
 44
1.0
  0
MTEXT
  5
354
330
346
100
AcDbEntity
  8
0
  6
Continuous
 62
     7
370
     0
100
AcDbMText
 10
22.9963458574
 20
8.6534421156
 30
0.0
 40
0.1875
 41
0.0
 71
     1
 72
     1
  1
2.3
  7
SLDTEXTSTYLE0
 73
     1
 44
1.0
  0
ENDBLK
  5
348
330
346
100
AcDbEntity
  8
0
100
AcDbBlockEnd
  0
BLOCK
  5
357
330
356
100
AcDbEntity
  8
0
100
AcDbBlockBegin
  2
_D_21
 70
     0
 10
0.0
 20
0.0
 30
0.0
  3
_D_21
  1

  0
SOLID
  5
359
330
356
100
AcDbEntity
  8
0
  6
Continuous
 62
     7
370
     0
100
AcDbTrace
 10
23.481490443
 20
2.0444796979
 30
0.0
 11
23.451490443
 21
1.8494796979
 31
0.0
 12
23.511490443
 22
1.8494796979
 32
0.0
 13
23.511490443
 23
1.8494796979
 33
0.0
  0
SOLID
  5
35A
330
356
100
AcDbEntity
  8
0
  6
Continuous
 62
     7
370
     0
100
AcDbTrace
 10
23.481490443
 20
2.3751883593
 30
0.0
 11
23.511490443
 21
2.5701883593
 31
0.0
 12
23.451490443
 22
2.5701883593
 32
0.0
 13
23.451490443
 23
2.5701883593
 33
0.0
  0
LINE
  5
35B
330
356
100
AcDbEntity
  8
0
  6
Continuous
 62
     7
370
     0
100
AcDbLine
 10
24.3921048006
 20
3.0175350432
 30
0.0
 11
24.3540188646
 21
3.0175350432
 31
0.0
  0
LINE
  5
35C
330
356
100
AcDbEntity
  8
0
  6
Continuous
 62
     7
370
     0
100
AcDbLine
 10
24.3540188646
 20
3.0175350432
 30
0.0
 11
24.3540188646
 21
2.7198787843
 31
0.0
  0
LINE
  5
35D
330
356
100
AcDbEntity
  8
0
  6
Continuous
 62
     7
370
     0
100
AcDbLine
 10
24.3540188646
 20
2.7198787843
 30
0.0
 11
24.3921048006
 21
2.7198787843
 31
0.0
  0
LINE
  5
35E
330
356
100
AcDbEntity
  8
0
  6
Continuous
 62
     7
370
     0
100
AcDbLine
 10
24.8336737996
 20
3.0175350432
 30
0.0
 11
24.8717597355
 21
3.0175350432
 31
0.0
  0
LINE
  5
35F
330
356
100
AcDbEntity
  8
0
  6
Continuous
 62
     7
370
     0
100
AcDbLine
 10
24.8717597355
 20
3.0175350432
 30
0.0
 11
24.8717597355
 21
2.7198787843
 31
0.0
  0
LINE
  5
360
330
356
100
AcDbEntity
  8
0
  6
Continuous
 62
     7
370
     0
100
AcDbLine
 10
24.8717597355
 20
2.7198787843
 30
0.0
 11
24.8336737996
 21
2.7198787843
 31
0.0
  0
LINE
  5
361
330
356
100
AcDbEntity
  8
0
  6
Continuous
 62
     7
370
     0
100
AcDbLine
 10
21.6519785669
 20
2.0444796979
 30
0.0
 11
23.668990443
 21
2.0444796979
 31
0.0
  0
LINE
  5
362
330
356
100
AcDbEntity
  8
0
  6
Continuous
 62
     7
370
     0
100
AcDbLine
 10
22.2858368346
 20
2.3751883593
 30
0.0
 11
23.668990443
 21
2.3751883593
 31
0.0
  0
LINE
  5
363
330
356
100
AcDbEntity
  8
0
  6
Continuous
 62
     7
370
     0
100
AcDbLine
 10
24.1422021118
 20
3.0189673642
 30
0.0
 11
23.481490443
 21
3.0189673642
 31
0.0
  0
LINE
  5
364
330
356
100
AcDbEntity
  8
0
  6
Continuous
 62
     7
370
     0
100
AcDbLine
 10
23.481490443
 20
3.0189673642
 30
0.0
 11
23.481490443
 21
2.3751883593
 31
0.0
  0
LINE
  5
365
330
356
100
AcDbEntity
  8
0
  6
Continuous
 62
     7
370
     0
100
AcDbLine
 10
23.481490443
 20
2.0444796979
 30
0.0
 11
23.481490443
 21
1.6694796979
 31
0.0
  0
MTEXT
  5
366
330
356
100
AcDbEntity
  8
0
  6
Continuous
 62
     7
370
     0
100
AcDbMText
 10
24.3264960783
 20
3.3001857845
 30
0.0
 40
0.1875
 41
0.0
 71
     1
 72
     1
  1

  7
SLDTEXTSTYLE0
 73
     1
 44
1.0
  0
MTEXT
  5
367
330
356
100
AcDbEntity
  8
0
  6
Continuous
 62
     7
370
     0
100
AcDbMText
 10
24.4397122094
 20
3.2973211873
 30
0.0
 40
0.1875
 41
0.0
 71
     1
 72
     1
  1
.33
  7
SLDTEXTSTYLE0
 73
     1
 44
1.0
  0
MTEXT
  5
368
330
356
100
AcDbEntity
  8
0
  6
Continuous
 62
     7
370
     0
100
AcDbMText
 10
24.4397122231
 20
2.9615790061
 30
0.0
 40
0.1875
 41
0.0
 71
     1
 72
     1
  1
8.4
  7
SLDTEXTSTYLE0
 73
     1
 44
1.0
  0
MTEXT
  5
369
330
356
100
AcDbEntity
  8
0
  6
Continuous
 62
     7
370
     0
100
AcDbMText
 10
24.9706366471
 20
3.3001857845
 30
0.0
 40
0.1875
 41
0.0
 71
     1
 72
     1
  1

  7
SLDTEXTSTYLE0
 73
     1
 44
1.0
  0
ENDBLK
  5
358
330
356
100
AcDbEntity
  8
0
100
AcDbBlockEnd
  0
BLOCK
  5
36B
330
36A
100
AcDbEntity
  8
0
100
AcDbBlockBegin
  2
SW_CENTERMARKSYMBOL_0
 70
     0
 10
0.0
 20
0.0
 30
0.0
  3
SW_CENTERMARKSYMBOL_0
  1

  0
LINE
  5
36D
330
36A
100
AcDbEntity
  8
0
  6
Continuous
 62
     0
370
     0
100
AcDbLine
 10
0.0
 20
0.0
 30
0.0
 11
0.0
 21
0.1
 31
0.0
  0
LINE
  5
36E
330
36A
100
AcDbEntity
  8
0
  6
Continuous
 62
     0
370
     0
100
AcDbLine
 10
0.0
 20
0.0
 30
0.0
 11
-0.1
 21
0.0
 31
0.0
  0
LINE
  5
36F
330
36A
100
AcDbEntity
  8
0
  6
Continuous
 62
     0
370
     0
100
AcDbLine
 10
0.0
 20
0.0
 30
0.0
 11
0.0
 21
-0.1
 31
0.0
  0
LINE
  5
370
330
36A
100
AcDbEntity
  8
0
  6
Continuous
 62
     0
370
     0
100
AcDbLine
 10
0.0
 20
0.0
 30
0.0
 11
0.1
 21
0.0
 31
0.0
  0
LINE
  5
371
330
36A
100
AcDbEntity
  8
0
  6
Continuous
 62
     0
370
     0
100
AcDbLine
 10
0.0
 20
0.1
 30
0.0
 11
0.0
 21
0.1885826772
 31
0.0
  0
LINE
  5
372
330
36A
100
AcDbEntity
  8
0
  6
Continuous
 62
     0
370
     0
100
AcDbLine
 10
-0.1
 20
0.0
 30
0.0
 11
-0.1885826772
 21
0.0
 31
0.0
  0
LINE
  5
373
330
36A
100
AcDbEntity
  8
0
  6
Continuous
 62
     0
370
     0
100
AcDbLine
 10
0.0
 20
-0.1
 30
0.0
 11
0.0
 21
-0.1885826772
 31
0.0
  0
LINE
  5
374
330
36A
100
AcDbEntity
  8
0
  6
Continuous
 62
     0
370
     0
100
AcDbLine
 10
0.1
 20
0.0
 30
0.0
 11
0.1885826772
 21
0.0
 31
0.0
  0
ENDBLK
  5
36C
330
36A
100
AcDbEntity
  8
0
100
AcDbBlockEnd
  0
BLOCK
  5
377
330
376
100
AcDbEntity
  8
0
100
AcDbBlockBegin
  2
SW_CENTERMARKSYMBOL_1
 70
     0
 10
0.0
 20
0.0
 30
0.0
  3
SW_CENTERMARKSYMBOL_1
  1

  0
LINE
  5
379
330
376
100
AcDbEntity
  8
0
  6
Continuous
 62
     0
370
     0
100
AcDbLine
 10
0.0
 20
0.0
 30
0.0
 11
0.0
 21
0.1
 31
0.0
  0
LINE
  5
37A
330
376
100
AcDbEntity
  8
0
  6
Continuous
 62
     0
370
     0
100
AcDbLine
 10
0.0
 20
0.0
 30
0.0
 11
-0.1
 21
0.0
 31
0.0
  0
LINE
  5
37B
330
376
100
AcDbEntity
  8
0
  6
Continuous
 62
     0
370
     0
100
AcDbLine
 10
0.0
 20
0.0
 30
0.0
 11
0.0
 21
-0.1
 31
0.0
  0
LINE
  5
37C
330
376
100
AcDbEntity
  8
0
  6
Continuous
 62
     0
370
     0
100
AcDbLine
 10
0.0
 20
0.0
 30
0.0
 11
0.1
 21
0.0
 31
0.0
  0
LINE
  5
37D
330
376
100
AcDbEntity
  8
0
  6
Continuous
 62
     0
370
     0
100
AcDbLine
 10
0.0
 20
0.1
 30
0.0
 11
0.0
 21
0.1885826772
 31
0.0
  0
LINE
  5
37E
330
376
100
AcDbEntity
  8
0
  6
Continuous
 62
     0
370
     0
100
AcDbLine
 10
-0.1
 20
0.0
 30
0.0
 11
-0.1885826772
 21
0.0
 31
0.0
  0
LINE
  5
37F
330
376
100
AcDbEntity
  8
0
  6
Continuous
 62
     0
370
     0
100
AcDbLine
 10
0.0
 20
-0.1
 30
0.0
 11
0.0
 21
-0.1885826772
 31
0.0
  0
LINE
  5
380
330
376
100
AcDbEntity
  8
0
  6
Continuous
 62
     0
370
     0
100
AcDbLine
 10
0.1
 20
0.0
 30
0.0
 11
0.1885826772
 21
0.0
 31
0.0
  0
ENDBLK
  5
378
330
376
100
AcDbEntity
  8
0
100
AcDbBlockEnd
  0
BLOCK
  5
4A6
330
4A5
100
AcDbEntity
  8
0
100
AcDbBlockBegin
  2
SW_NOTE_10
 70
     0
 10
0.0
 20
0.0
 30
0.0
  3
SW_NOTE_10
  1

  0
MTEXT
  5
4A8
330
4A5
100
AcDbEntity
  8
0
  6
Continuous
 62
     0
370
     0
100
AcDbMText
 10
-1.0121018138
 20
0.0965544837
 30
0.0
 40
0.1875
 41
0.0
 71
     1
 72
     1
  1
GASKET
  7
SLDTEXTSTYLE0
 73
     1
 44
1.0
  0
MTEXT
  5
4A9
330
4A5
100
AcDbEntity
  8
0
  6
Continuous
 62
     0
370
     0
100
AcDbMText
 10
-1.0121018138
 20
-0.1500006281
 30
0.0
 40
0.1875
 41
0.0
 71
     1
 72
     1
  1
(NOT INSTALLED)
  7
SLDTEXTSTYLE0
 73
     1
 44
1.0
  0
MTEXT
  5
4AA
330
4A5
100
AcDbEntity
  8
0
  6
Continuous
 62
     0
370
     0
100
AcDbMText
 10
-1.0121018138
 20
-0.3965557399
 30
0.0
 40
0.1875
 41
0.0
 71
     1
 72
     1
  1
MOLDED
  7
SLDTEXTSTYLE0
 73
     1
 44
1.0
  0
MTEXT
  5
4AB
330
4A5
100
AcDbEntity
  8
0
  6
Continuous
 62
     0
370
     0
100
AcDbMText
 10
-1.0121018138
 20
-0.6431108516
 30
0.0
 40
0.1875
 41
0.0
 71
     1
 72
     1
  1
SILICONE GRAY
  7
SLDTEXTSTYLE0
 73
     1
 44
1.0
  0
ENDBLK
  5
4A7
330
4A5
100
AcDbEntity
  8
0
100
AcDbBlockEnd
  0
BLOCK
  5
4DF
330
4DE
100
AcDbEntity
  8
0
100
AcDbBlockBegin
  2
_D_22
 70
     0
 10
0.0
 20
0.0
 30
0.0
  3
_D_22
  1

  0
SOLID
  5
4E1
330
4DE
100
AcDbEntity
  8
0
  6
Continuous
 62
     7
370
     0
100
AcDbTrace
 10
11.0124078281
 20
10.8281054365
 30
0.0
 11
10.8174078281
 21
10.8581054365
 31
0.0
 12
10.8174078281
 22
10.7981054365
 32
0.0
 13
10.8174078281
 23
10.7981054365
 33
0.0
  0
SOLID
  5
4E2
330
4DE
100
AcDbEntity
  8
0
  6
Continuous
 62
     7
370
     0
100
AcDbTrace
 10
11.169888143
 20
10.8281054365
 30
0.0
 11
11.364888143
 21
10.7981054365
 31
0.0
 12
11.364888143
 22
10.8581054365
 32
0.0
 13
11.364888143
 23
10.8581054365
 33
0.0
  0
LINE
  5
4E3
330
4DE
100
AcDbEntity
  8
0
  6
Continuous
 62
     7
370
     0
100
AcDbLine
 10
11.7384472014
 20
10.8266731156
 30
0.0
 11
11.7003612654
 21
10.8266731156
 31
0.0
  0
LINE
  5
4E4
330
4DE
100
AcDbEntity
  8
0
  6
Continuous
 62
     7
370
     0
100
AcDbLine
 10
11.7003612654
 20
10.8266731156
 30
0.0
 11
11.7003612654
 21
10.5290168566
 31
0.0
  0
LINE
  5
4E5
330
4DE
100
AcDbEntity
  8
0
  6
Continuous
 62
     7
370
     0
100
AcDbLine
 10
11.7003612654
 20
10.5290168566
 30
0.0
 11
11.7384472014
 21
10.5290168566
 31
0.0
  0
LINE
  5
4E6
330
4DE
100
AcDbEntity
  8
0
  6
Continuous
 62
     7
370
     0
100
AcDbLine
 10
11.9722037135
 20
10.8266731156
 30
0.0
 11
12.0102896495
 21
10.8266731156
 31
0.0
  0
LINE
  5
4E7
330
4DE
100
AcDbEntity
  8
0
  6
Continuous
 62
     7
370
     0
100
AcDbLine
 10
12.0102896495
 20
10.8266731156
 30
0.0
 11
12.0102896495
 21
10.5290168566
 31
0.0
  0
LINE
  5
4E8
330
4DE
100
AcDbEntity
  8
0
  6
Continuous
 62
     7
370
     0
100
AcDbLine
 10
12.0102896495
 20
10.5290168566
 30
0.0
 11
11.9722037135
 21
10.5290168566
 31
0.0
  0
LINE
  5
4E9
330
4DE
100
AcDbEntity
  8
0
  6
Continuous
 62
     7
370
     0
100
AcDbLine
 10
11.0124078281
 20
10.8281054365
 30
0.0
 11
10.6374078281
 21
10.8281054365
 31
0.0
  0
LINE
  5
4EA
330
4DE
100
AcDbEntity
  8
0
  6
Continuous
 62
     7
370
     0
100
AcDbLine
 10
11.169888143
 20
10.8281054365
 30
0.0
 11
11.5645321569
 21
10.8281054365
 31
0.0
  0
MTEXT
  5
4EB
330
4DE
100
AcDbEntity
  8
0
  6
Continuous
 62
     7
370
     0
100
AcDbMText
 10
11.6728384791
 20
11.1093238568
 30
0.0
 40
0.1875
 41
0.0
 71
     1
 72
     1
  1

  7
SLDTEXTSTYLE0
 73
     1
 44
1.0
  0
MTEXT
  5
4EC
330
4DE
100
AcDbEntity
  8
0
  6
Continuous
 62
     7
370
     0
100
AcDbMText
 10
11.6821483805
 20
11.1064592596
 30
0.0
 40
0.1875
 41
0.0
 71
     1
 72
     1
  1
.16
  7
SLDTEXTSTYLE0
 73
     1
 44
1.0
  0
MTEXT
  5
4ED
330
4DE
100
AcDbEntity
  8
0
  6
Continuous
 62
     7
370
     0
100
AcDbMText
 10
11.7860546239
 20
10.7707170784
 30
0.0
 40
0.1875
 41
0.0
 71
     1
 72
     1
  1
4
  7
SLDTEXTSTYLE0
 73
     1
 44
1.0
  0
MTEXT
  5
4EE
330
4DE
100
AcDbEntity
  8
0
  6
Continuous
 62
     7
370
     0
100
AcDbMText
 10
12.1091665886
 20
11.1093238568
 30
0.0
 40
0.1875
 41
0.0
 71
     1
 72
     1
  1

  7
SLDTEXTSTYLE0
 73
     1
 44
1.0
  0
ENDBLK
  5
4E0
330
4DE
100
AcDbEntity
  8
0
100
AcDbBlockEnd
  0
BLOCK
  5
4F1
330
4F0
100
AcDbEntity
  8
0
100
AcDbBlockBegin
  2
_D_23
 70
     0
 10
0.0
 20
0.0
 30
0.0
  3
_D_23
  1

  0
SOLID
  5
4F3
330
4F0
100
AcDbEntity
  8
0
  6
Continuous
 62
     7
370
     0
100
AcDbTrace
 10
10.6187070407
 20
8.2752481438
 30
0.0
 11
10.4237070407
 21
8.3052481438
 31
0.0
 12
10.4237070407
 22
8.2452481438
 32
0.0
 13
10.4237070407
 23
8.2452481438
 33
0.0
  0
SOLID
  5
4F4
330
4F0
100
AcDbEntity
  8
0
  6
Continuous
 62
     7
370
     0
100
AcDbTrace
 10
11.0124078281
 20
8.2752481438
 30
0.0
 11
11.2074078281
 21
8.2452481438
 31
0.0
 12
11.2074078281
 22
8.3052481438
 32
0.0
 13
11.2074078281
 23
8.3052481438
 33
0.0
  0
LINE
  5
4F5
330
4F0
100
AcDbEntity
  8
0
  6
Continuous
 62
     7
370
     0
100
AcDbLine
 10
11.8305878978
 20
8.2738158229
 30
0.0
 11
11.7925019618
 21
8.2738158229
 31
0.0
  0
LINE
  5
4F6
330
4F0
100
AcDbEntity
  8
0
  6
Continuous
 62
     7
370
     0
100
AcDbLine
 10
11.7925019618
 20
8.2738158229
 30
0.0
 11
11.7925019618
 21
7.9761595639
 31
0.0
  0
LINE
  5
4F7
330
4F0
100
AcDbEntity
  8
0
  6
Continuous
 62
     7
370
     0
100
AcDbLine
 10
11.7925019618
 20
7.9761595639
 30
0.0
 11
11.8305878978
 21
7.9761595639
 31
0.0
  0
LINE
  5
4F8
330
4F0
100
AcDbEntity
  8
0
  6
Continuous
 62
     7
370
     0
100
AcDbLine
 10
12.202886077
 20
8.2738158229
 30
0.0
 11
12.240972013
 21
8.2738158229
 31
0.0
  0
LINE
  5
4F9
330
4F0
100
AcDbEntity
  8
0
  6
Continuous
 62
     7
370
     0
100
AcDbLine
 10
12.240972013
 20
8.2738158229
 30
0.0
 11
12.240972013
 21
7.9761595639
 31
0.0
  0
LINE
  5
4FA
330
4F0
100
AcDbEntity
  8
0
  6
Continuous
 62
     7
370
     0
100
AcDbLine
 10
12.240972013
 20
7.9761595639
 30
0.0
 11
12.202886077
 21
7.9761595639
 31
0.0
  0
LINE
  5
4FB
330
4F0
100
AcDbEntity
  8
0
  6
Continuous
 62
     7
370
     0
100
AcDbLine
 10
10.6187070407
 20
7.5108039173
 30
0.0
 11
10.6187070407
 21
8.4627481438
 31
0.0
  0
LINE
  5
4FC
330
4F0
100
AcDbEntity
  8
0
  6
Continuous
 62
     7
370
     0
100
AcDbLine
 10
10.6187070407
 20
8.2752481438
 30
0.0
 11
10.2437070407
 21
8.2752481438
 31
0.0
  0
LINE
  5
4FD
330
4F0
100
AcDbEntity
  8
0
  6
Continuous
 62
     7
370
     0
100
AcDbLine
 10
11.0124078281
 20
8.2752481438
 30
0.0
 11
11.6566728533
 21
8.2752481438
 31
0.0
  0
MTEXT
  5
4FE
330
4F0
100
AcDbEntity
  8
0
  6
Continuous
 62
     7
370
     0
100
AcDbMText
 10
11.7649791755
 20
8.5564665641
 30
0.0
 40
0.1875
 41
0.0
 71
     1
 72
     1
  1

  7
SLDTEXTSTYLE0
 73
     1
 44
1.0
  0
MTEXT
  5
4FF
330
4F0
100
AcDbEntity
  8
0
  6
Continuous
 62
     7
370
     0
100
AcDbMText
 10
11.8435598967
 20
8.5536019669
 30
0.0
 40
0.1875
 41
0.0
 71
     1
 72
     1
  1
.39
  7
SLDTEXTSTYLE0
 73
     1
 44
1.0
  0
MTEXT
  5
500
330
4F0
100
AcDbEntity
  8
0
  6
Continuous
 62
     7
370
     0
100
AcDbMText
 10
11.8781953203
 20
8.2178597858
 30
0.0
 40
0.1875
 41
0.0
 71
     1
 72
     1
  1
10
  7
SLDTEXTSTYLE0
 73
     1
 44
1.0
  0
MTEXT
  5
501
330
4F0
100
AcDbEntity
  8
0
  6
Continuous
 62
     7
370
     0
100
AcDbMText
 10
12.3398489245
 20
8.5564665641
 30
0.0
 40
0.1875
 41
0.0
 71
     1
 72
     1
  1

  7
SLDTEXTSTYLE0
 73
     1
 44
1.0
  0
ENDBLK
  5
4F2
330
4F0
100
AcDbEntity
  8
0
100
AcDbBlockEnd
  0
BLOCK
  5
53F
330
53E
100
AcDbEntity
  8
0
100
AcDbBlockBegin
  2
_D_24
 70
     0
 10
0.0
 20
0.0
 30
0.0
  3
_D_24
  1

  0
SOLID
  5
541
330
53E
100
AcDbEntity
  8
0
  6
Continuous
 62
     7
370
     0
100
AcDbTrace
 10
16.8174529705
 20
13.7647098421
 30
0.0
 11
16.6224529705
 21
13.7947098421
 31
0.0
 12
16.6224529705
 22
13.7347098421
 32
0.0
 13
16.6224529705
 23
13.7347098421
 33
0.0
  0
SOLID
  5
542
330
53E
100
AcDbEntity
  8
0
  6
Continuous
 62
     7
370
     0
100
AcDbTrace
 10
14.2977679312
 20
13.7647098421
 30
0.0
 11
14.4927679312
 21
13.7347098421
 31
0.0
 12
14.4927679312
 22
13.7947098421
 32
0.0
 13
14.4927679312
 23
13.7947098421
 33
0.0
  0
LINE
  5
543
330
53E
100
AcDbEntity
  8
0
  6
Continuous
 62
     7
370
     0
100
AcDbLine
 10
15.3714613888
 20
13.7632775211
 30
0.0
 11
15.3333754528
 21
13.7632775211
 31
0.0
  0
LINE
  5
544
330
53E
100
AcDbEntity
  8
0
  6
Continuous
 62
     7
370
     0
100
AcDbLine
 10
15.3333754528
 20
13.7632775211
 30
0.0
 11
15.3333754528
 21
13.4656212622
 31
0.0
  0
LINE
  5
545
330
53E
100
AcDbEntity
  8
0
  6
Continuous
 62
     7
370
     0
100
AcDbLine
 10
15.3333754528
 20
13.4656212622
 30
0.0
 11
15.3714613888
 21
13.4656212622
 31
0.0
  0
LINE
  5
546
330
53E
100
AcDbEntity
  8
0
  6
Continuous
 62
     7
370
     0
100
AcDbLine
 10
15.7437595679
 20
13.7632775211
 30
0.0
 11
15.7818455039
 21
13.7632775211
 31
0.0
  0
LINE
  5
547
330
53E
100
AcDbEntity
  8
0
  6
Continuous
 62
     7
370
     0
100
AcDbLine
 10
15.7818455039
 20
13.7632775211
 30
0.0
 11
15.7818455039
 21
13.4656212622
 31
0.0
  0
LINE
  5
548
330
53E
100
AcDbEntity
  8
0
  6
Continuous
 62
     7
370
     0
100
AcDbLine
 10
15.7818455039
 20
13.4656212622
 30
0.0
 11
15.7437595679
 21
13.4656212622
 31
0.0
  0
LINE
  5
549
330
53E
100
AcDbEntity
  8
0
  6
Continuous
 62
     7
370
     0
100
AcDbLine
 10
16.8174529705
 20
12.7256224455
 30
0.0
 11
16.8174529705
 21
13.9522098421
 31
0.0
  0
LINE
  5
54A
330
53E
100
AcDbEntity
  8
0
  6
Continuous
 62
     7
370
     0
100
AcDbLine
 10
14.2977679312
 20
12.7256224455
 30
0.0
 11
14.2977679312
 21
13.9522098421
 31
0.0
  0
LINE
  5
54B
330
53E
100
AcDbEntity
  8
0
  6
Continuous
 62
     7
370
     0
100
AcDbLine
 10
16.8174529705
 20
13.7647098421
 30
0.0
 11
15.9176745574
 21
13.7647098421
 31
0.0
  0
LINE
  5
54C
330
53E
100
AcDbEntity
  8
0
  6
Continuous
 62
     7
370
     0
100
AcDbLine
 10
14.2977679312
 20
13.7647098421
 30
0.0
 11
15.1975463443
 21
13.7647098421
 31
0.0
  0
MTEXT
  5
54D
330
53E
100
AcDbEntity
  8
0
  6
Continuous
 62
     7
370
     0
100
AcDbMText
 10
15.3058526664
 20
14.0459282624
 30
0.0
 40
0.1875
 41
0.0
 71
     1
 72
     1
  1

  7
SLDTEXTSTYLE0
 73
     1
 44
1.0
  0
MTEXT
  5
54E
330
53E
100
AcDbEntity
  8
0
  6
Continuous
 62
     7
370
     0
100
AcDbMText
 10
15.3151625404
 20
14.0430636652
 30
0.0
 40
0.1875
 41
0.0
 71
     1
 72
     1
  1
2.52
  7
SLDTEXTSTYLE0
 73
     1
 44
1.0
  0
MTEXT
  5
54F
330
53E
100
AcDbEntity
  8
0
  6
Continuous
 62
     7
370
     0
100
AcDbMText
 10
15.4190688113
 20
13.707321484
 30
0.0
 40
0.1875
 41
0.0
 71
     1
 72
     1
  1
64
  7
SLDTEXTSTYLE0
 73
     1
 44
1.0
  0
MTEXT
  5
550
330
53E
100
AcDbEntity
  8
0
  6
Continuous
 62
     7
370
     0
100
AcDbMText
 10
15.8807224155
 20
14.0459282624
 30
0.0
 40
0.1875
 41
0.0
 71
     1
 72
     1
  1

  7
SLDTEXTSTYLE0
 73
     1
 44
1.0
  0
ENDBLK
  5
540
330
53E
100
AcDbEntity
  8
0
100
AcDbBlockEnd
  0
BLOCK
  5
553
330
552
100
AcDbEntity
  8
0
100
AcDbBlockBegin
  2
_D_25
 70
     0
 10
0.0
 20
0.0
 30
0.0
  3
_D_25
  1

  0
SOLID
  5
555
330
552
100
AcDbEntity
  8
0
  6
Continuous
 62
     7
370
     0
100
AcDbTrace
 10
13.6960880666
 20
12.8474428579
 30
0.0
 11
13.6660880666
 21
12.6524428579
 31
0.0
 12
13.7260880666
 22
12.6524428579
 32
0.0
 13
13.7260880666
 23
12.6524428579
 33
0.0
  0
SOLID
  5
556
330
552
100
AcDbEntity
  8
0
  6
Continuous
 62
     7
370
     0
100
AcDbTrace
 10
13.6960880666
 20
6.9419310469
 30
0.0
 11
13.7260880666
 21
7.1369310469
 31
0.0
 12
13.6660880666
 22
7.1369310469
 32
0.0
 13
13.6660880666
 23
7.1369310469
 33
0.0
  0
LINE
  5
557
330
552
100
AcDbEntity
  8
0
  6
Continuous
 62
     7
370
     0
100
AcDbLine
 10
13.4406681573
 20
9.8932546315
 30
0.0
 11
13.4025822213
 21
9.8932546315
 31
0.0
  0
LINE
  5
558
330
552
100
AcDbEntity
  8
0
  6
Continuous
 62
     7
370
     0
100
AcDbLine
 10
13.4025822213
 20
9.8932546315
 30
0.0
 11
13.4025822213
 21
9.5955983725
 31
0.0
  0
LINE
  5
559
330
552
100
AcDbEntity
  8
0
  6
Continuous
 62
     7
370
     0
100
AcDbLine
 10
13.4025822213
 20
9.5955983725
 30
0.0
 11
13.4406681573
 21
9.5955983725
 31
0.0
  0
LINE
  5
55A
330
552
100
AcDbEntity
  8
0
  6
Continuous
 62
     7
370
     0
100
AcDbLine
 10
13.9515080035
 20
9.8932546315
 30
0.0
 11
13.9895939395
 21
9.8932546315
 31
0.0
  0
LINE
  5
55B
330
552
100
AcDbEntity
  8
0
  6
Continuous
 62
     7
370
     0
100
AcDbLine
 10
13.9895939395
 20
9.8932546315
 30
0.0
 11
13.9895939395
 21
9.5955983725
 31
0.0
  0
LINE
  5
55C
330
552
100
AcDbEntity
  8
0
  6
Continuous
 62
     7
370
     0
100
AcDbLine
 10
13.9895939395
 20
9.5955983725
 30
0.0
 11
13.9515080035
 21
9.5955983725
 31
0.0
  0
LINE
  5
55D
330
552
100
AcDbEntity
  8
0
  6
Continuous
 62
     7
370
     0
100
AcDbLine
 10
14.4195883436
 20
12.8474428579
 30
0.0
 11
13.5085880666
 21
12.8474428579
 31
0.0
  0
LINE
  5
55E
330
552
100
AcDbEntity
  8
0
  6
Continuous
 62
     7
370
     0
100
AcDbLine
 10
14.4195883436
 20
6.9419310469
 30
0.0
 11
13.5085880666
 21
6.9419310469
 31
0.0
  0
LINE
  5
55F
330
552
100
AcDbEntity
  8
0
  6
Continuous
 62
     7
370
     0
100
AcDbLine
 10
13.6960880666
 20
12.8474428579
 30
0.0
 11
13.6960880666
 21
10.2318614099
 31
0.0
  0
LINE
  5
560
330
552
100
AcDbEntity
  8
0
  6
Continuous
 62
     7
370
     0
100
AcDbLine
 10
13.6960880666
 20
6.9419310469
 30
0.0
 11
13.6960880666
 21
9.557512495
 31
0.0
  0
MTEXT
  5
561
330
552
100
AcDbEntity
  8
0
  6
Continuous
 62
     7
370
     0
100
AcDbMText
 10
13.3750594349
 20
10.1759053727
 30
0.0
 40
0.1875
 41
0.0
 71
     1
 72
     1
  1

  7
SLDTEXTSTYLE0
 73
     1
 44
1.0
  0
MTEXT
  5
562
330
552
100
AcDbEntity
  8
0
  6
Continuous
 62
     7
370
     0
100
AcDbMText
 10
13.4536401562
 20
10.1730407755
 30
0.0
 40
0.1875
 41
0.0
 71
     1
 72
     1
  1
5.91
  7
SLDTEXTSTYLE0
 73
     1
 44
1.0
  0
MTEXT
  5
563
330
552
100
AcDbEntity
  8
0
  6
Continuous
 62
     7
370
     0
100
AcDbMText
 10
13.4882755798
 20
9.8372985943
 30
0.0
 40
0.1875
 41
0.0
 71
     1
 72
     1
  1
150
  7
SLDTEXTSTYLE0
 73
     1
 44
1.0
  0
MTEXT
  5
564
330
552
100
AcDbEntity
  8
0
  6
Continuous
 62
     7
370
     0
100
AcDbMText
 10
14.0884708786
 20
10.1759053727
 30
0.0
 40
0.1875
 41
0.0
 71
     1
 72
     1
  1

  7
SLDTEXTSTYLE0
 73
     1
 44
1.0
  0
ENDBLK
  5
554
330
552
100
AcDbEntity
  8
0
100
AcDbBlockEnd
  0
BLOCK
  5
567
330
566
100
AcDbEntity
  8
0
100
AcDbBlockBegin
  2
_D_26
 70
     0
 10
0.0
 20
0.0
 30
0.0
  3
_D_26
  1

  0
SOLID
  5
569
330
566
100
AcDbEntity
  8
0
  6
Continuous
 62
     7
370
     0
100
AcDbTrace
 10
14.8528860414
 20
10.046610939
 30
0.0
 11
14.6578860414
 21
10.076610939
 31
0.0
 12
14.6578860414
 22
10.016610939
 32
0.0
 13
14.6578860414
 23
10.016610939
 33
0.0
  0
SOLID
  5
56A
330
566
100
AcDbEntity
  8
0
  6
Continuous
 62
     7
370
     0
100
AcDbTrace
 10
16.2623348603
 20
10.046610939
 30
0.0
 11
16.4573348603
 21
10.016610939
 31
0.0
 12
16.4573348603
 22
10.076610939
 32
0.0
 13
16.4573348603
 23
10.076610939
 33
0.0
  0
LINE
  5
56B
330
566
100
AcDbEntity
  8
0
  6
Continuous
 62
     7
370
     0
100
AcDbLine
 10
15.2675551316
 20
10.0451786181
 30
0.0
 11
15.2294691956
 21
10.0451786181
 31
0.0
  0
LINE
  5
56C
330
566
100
AcDbEntity
  8
0
  6
Continuous
 62
     7
370
     0
100
AcDbLine
 10
15.2294691956
 20
10.0451786181
 30
0.0
 11
15.2294691956
 21
9.7475223591
 31
0.0
  0
LINE
  5
56D
330
566
100
AcDbEntity
  8
0
  6
Continuous
 62
     7
370
     0
100
AcDbLine
 10
15.2294691956
 20
9.7475223591
 30
0.0
 11
15.2675551316
 21
9.7475223591
 31
0.0
  0
LINE
  5
56E
330
566
100
AcDbEntity
  8
0
  6
Continuous
 62
     7
370
     0
100
AcDbLine
 10
15.8476658251
 20
10.0451786181
 30
0.0
 11
15.8857517611
 21
10.0451786181
 31
0.0
  0
LINE
  5
56F
330
566
100
AcDbEntity
  8
0
  6
Continuous
 62
     7
370
     0
100
AcDbLine
 10
15.8857517611
 20
10.0451786181
 30
0.0
 11
15.8857517611
 21
9.7475223591
 31
0.0
  0
LINE
  5
570
330
566
100
AcDbEntity
  8
0
  6
Continuous
 62
     7
370
     0
100
AcDbLine
 10
15.8857517611
 20
9.7475223591
 30
0.0
 11
15.8476658251
 21
9.7475223591
 31
0.0
  0
LINE
  5
571
330
566
100
AcDbEntity
  8
0
  6
Continuous
 62
     7
370
     0
100
AcDbLine
 10
14.8528860414
 20
7.2728365587
 30
0.0
 11
14.8528860414
 21
10.234110939
 31
0.0
  0
LINE
  5
572
330
566
100
AcDbEntity
  8
0
  6
Continuous
 62
     7
370
     0
100
AcDbLine
 10
16.2623348603
 20
12.5165373461
 30
0.0
 11
16.2623348603
 21
9.859110939
 31
0.0
  0
LINE
  5
573
330
566
100
AcDbEntity
  8
0
  6
Continuous
 62
     7
370
     0
100
AcDbLine
 10
14.8528860414
 20
10.046610939
 30
0.0
 11
14.4778860414
 21
10.046610939
 31
0.0
  0
LINE
  5
574
330
566
100
AcDbEntity
  8
0
  6
Continuous
 62
     7
370
     0
100
AcDbLine
 10
16.2623348603
 20
10.046610939
 30
0.0
 11
16.6373348603
 21
10.046610939
 31
0.0
  0
MTEXT
  5
575
330
566
100
AcDbEntity
  8
0
  6
Continuous
 62
     7
370
     0
100
AcDbMText
 10
15.2019464093
 20
10.3278293593
 30
0.0
 40
0.1875
 41
0.0
 71
     1
 72
     1
  1

  7
SLDTEXTSTYLE0
 73
     1
 44
1.0
  0
MTEXT
  5
576
330
566
100
AcDbEntity
  8
0
  6
Continuous
 62
     7
370
     0
100
AcDbMText
 10
15.3151625404
 20
10.3249647621
 30
0.0
 40
0.1875
 41
0.0
 71
     1
 72
     1
  1
1.41
  7
SLDTEXTSTYLE0
 73
     1
 44
1.0
  0
MTEXT
  5
577
330
566
100
AcDbEntity
  8
0
  6
Continuous
 62
     7
370
     0
100
AcDbMText
 10
15.3151625541
 20
9.989222581
 30
0.0
 40
0.1875
 41
0.0
 71
     1
 72
     1
  1
35.8
  7
SLDTEXTSTYLE0
 73
     1
 44
1.0
  0
MTEXT
  5
578
330
566
100
AcDbEntity
  8
0
  6
Continuous
 62
     7
370
     0
100
AcDbMText
 10
15.9846286727
 20
10.3278293593
 30
0.0
 40
0.1875
 41
0.0
 71
     1
 72
     1
  1

  7
SLDTEXTSTYLE0
 73
     1
 44
1.0
  0
ENDBLK
  5
568
330
566
100
AcDbEntity
  8
0
100
AcDbBlockEnd
  0
BLOCK
  5
57B
330
57A
100
AcDbEntity
  8
0
100
AcDbBlockBegin
  2
_D_27
 70
     0
 10
0.0
 20
0.0
 30
0.0
  3
_D_27
  1

  0
SOLID
  5
57D
330
57A
100
AcDbEntity
  8
0
  6
Continuous
 62
     7
370
     0
100
AcDbTrace
 10
17.4191328351
 20
12.5915373461
 30
0.0
 11
17.3891328351
 21
12.3965373461
 31
0.0
 12
17.4491328351
 22
12.3965373461
 32
0.0
 13
17.4491328351
 23
12.3965373461
 33
0.0
  0
SOLID
  5
57E
330
57A
100
AcDbEntity
  8
0
  6
Continuous
 62
     7
370
     0
100
AcDbTrace
 10
17.4191328351
 20
7.1978365587
 30
0.0
 11
17.4491328351
 21
7.3928365587
 31
0.0
 12
17.3891328351
 22
7.3928365587
 32
0.0
 13
17.3891328351
 23
7.3928365587
 33
0.0
  0
LINE
  5
57F
330
57A
100
AcDbEntity
  8
0
  6
Continuous
 62
     7
370
     0
100
AcDbLine
 10
17.1637129257
 20
9.8932546315
 30
0.0
 11
17.1256269897
 21
9.8932546315
 31
0.0
  0
LINE
  5
580
330
57A
100
AcDbEntity
  8
0
  6
Continuous
 62
     7
370
     0
100
AcDbLine
 10
17.1256269897
 20
9.8932546315
 30
0.0
 11
17.1256269897
 21
9.5955983725
 31
0.0
  0
LINE
  5
581
330
57A
100
AcDbEntity
  8
0
  6
Continuous
 62
     7
370
     0
100
AcDbLine
 10
17.1256269897
 20
9.5955983725
 30
0.0
 11
17.1637129257
 21
9.5955983725
 31
0.0
  0
LINE
  5
582
330
57A
100
AcDbEntity
  8
0
  6
Continuous
 62
     7
370
     0
100
AcDbLine
 10
17.6745527719
 20
9.8932546315
 30
0.0
 11
17.7126387079
 21
9.8932546315
 31
0.0
  0
LINE
  5
583
330
57A
100
AcDbEntity
  8
0
  6
Continuous
 62
     7
370
     0
100
AcDbLine
 10
17.7126387079
 20
9.8932546315
 30
0.0
 11
17.7126387079
 21
9.5955983725
 31
0.0
  0
LINE
  5
584
330
57A
100
AcDbEntity
  8
0
  6
Continuous
 62
     7
370
     0
100
AcDbLine
 10
17.7126387079
 20
9.5955983725
 30
0.0
 11
17.6745527719
 21
9.5955983725
 31
0.0
  0
LINE
  5
585
330
57A
100
AcDbEntity
  8
0
  6
Continuous
 62
     7
370
     0
100
AcDbLine
 10
16.3373348603
 20
12.5915373461
 30
0.0
 11
17.6066328351
 21
12.5915373461
 31
0.0
  0
LINE
  5
586
330
57A
100
AcDbEntity
  8
0
  6
Continuous
 62
     7
370
     0
100
AcDbLine
 10
14.9278860414
 20
7.1978365587
 30
0.0
 11
17.6066328351
 21
7.1978365587
 31
0.0
  0
LINE
  5
587
330
57A
100
AcDbEntity
  8
0
  6
Continuous
 62
     7
370
     0
100
AcDbLine
 10
17.4191328351
 20
12.5915373461
 30
0.0
 11
17.4191328351
 21
10.2318614099
 31
0.0
  0
LINE
  5
588
330
57A
100
AcDbEntity
  8
0
  6
Continuous
 62
     7
370
     0
100
AcDbLine
 10
17.4191328351
 20
7.1978365587
 30
0.0
 11
17.4191328351
 21
9.557512495
 31
0.0
  0
MTEXT
  5
589
330
57A
100
AcDbEntity
  8
0
  6
Continuous
 62
     7
370
     0
100
AcDbMText
 10
17.0981042034
 20
10.1759053727
 30
0.0
 40
0.1875
 41
0.0
 71
     1
 72
     1
  1

  7
SLDTEXTSTYLE0
 73
     1
 44
1.0
  0
MTEXT
  5
58A
330
57A
100
AcDbEntity
  8
0
  6
Continuous
 62
     7
370
     0
100
AcDbMText
 10
17.1766849246
 20
10.1730407755
 30
0.0
 40
0.1875
 41
0.0
 71
     1
 72
     1
  1
5.39
  7
SLDTEXTSTYLE0
 73
     1
 44
1.0
  0
MTEXT
  5
58B
330
57A
100
AcDbEntity
  8
0
  6
Continuous
 62
     7
370
     0
100
AcDbMText
 10
17.2113203482
 20
9.8372985943
 30
0.0
 40
0.1875
 41
0.0
 71
     1
 72
     1
  1
137
  7
SLDTEXTSTYLE0
 73
     1
 44
1.0
  0
MTEXT
  5
58C
330
57A
100
AcDbEntity
  8
0
  6
Continuous
 62
     7
370
     0
100
AcDbMText
 10
17.811515647
 20
10.1759053727
 30
0.0
 40
0.1875
 41
0.0
 71
     1
 72
     1
  1

  7
SLDTEXTSTYLE0
 73
     1
 44
1.0
  0
ENDBLK
  5
57C
330
57A
100
AcDbEntity
  8
0
100
AcDbBlockEnd
  0
BLOCK
  5
590
330
58F
100
AcDbEntity
  8
0
100
AcDbBlockBegin
  2
_D_28
 70
     0
 10
0.0
 20
0.0
 30
0.0
  3
_D_28
  1

  0
SOLID
  5
592
330
58F
100
AcDbEntity
  8
0
  6
Continuous
 62
     7
370
     0
100
AcDbTrace
 10
14.8867375693
 20
7.1159771381
 30
0.0
 11
14.933533009
 21
6.9243128826
 31
0.0
 12
14.9889791232
 22
6.9472416508
 32
0.0
 13
14.9889791232
 23
6.9472416508
 33
0.0
  0
LINE
  5
593
330
58F
100
AcDbEntity
  8
0
  6
Continuous
 62
     7
370
     0
100
AcDbLine
 10
15.5227558357
 20
6.2704556859
 30
0.0
 11
15.4846698997
 21
6.2704556859
 31
0.0
  0
LINE
  5
594
330
58F
100
AcDbEntity
  8
0
  6
Continuous
 62
     7
370
     0
100
AcDbLine
 10
15.4846698997
 20
6.2704556859
 30
0.0
 11
15.4846698997
 21
5.972799427
 31
0.0
  0
LINE
  5
595
330
58F
100
AcDbEntity
  8
0
  6
Continuous
 62
     7
370
     0
100
AcDbLine
 10
15.4846698997
 20
5.972799427
 30
0.0
 11
15.5227558357
 21
5.972799427
 31
0.0
  0
LINE
  5
596
330
58F
100
AcDbEntity
  8
0
  6
Continuous
 62
     7
370
     0
100
AcDbLine
 10
15.9643248346
 20
6.2704556859
 30
0.0
 11
16.0024107706
 21
6.2704556859
 31
0.0
  0
LINE
  5
597
330
58F
100
AcDbEntity
  8
0
  6
Continuous
 62
     7
370
     0
100
AcDbLine
 10
16.0024107706
 20
6.2704556859
 30
0.0
 11
16.0024107706
 21
5.972799427
 31
0.0
  0
LINE
  5
598
330
58F
100
AcDbEntity
  8
0
  6
Continuous
 62
     7
370
     0
100
AcDbLine
 10
16.0024107706
 20
5.972799427
 30
0.0
 11
15.9643248346
 21
5.972799427
 31
0.0
  0
LINE
  5
599
330
58F
100
AcDbEntity
  8
0
  6
Continuous
 62
     7
370
     0
100
AcDbLine
 10
14.8867375693
 20
7.1159771381
 30
0.0
 11
15.2414765153
 21
6.2581510252
 31
0.0
  0
LINE
  5
59A
330
58F
100
AcDbEntity
  8
0
  6
Continuous
 62
     7
370
     0
100
AcDbLine
 10
15.2414765153
 20
6.2581510252
 30
0.0
 11
15.4289765153
 21
6.2581510252
 31
0.0
  0
MTEXT
  5
59B
330
58F
100
AcDbEntity
  8
0
  6
Continuous
 62
     7
370
     0
100
AcDbMText
 10
15.4289765153
 20
6.55024183
 30
0.0
 40
0.1875
 41
0.0
 71
     1
 72
     1
  1
%%c
  7
SLDTEXTSTYLE0
 73
     1
 44
1.0
  0
MTEXT
  5
59C
330
58F
100
AcDbEntity
  8
0
  6
Continuous
 62
     7
370
     0
100
AcDbMText
 10
15.7117499461
 20
6.55024183
 30
0.0
 40
0.1875
 41
0.0
 71
     1
 72
     1
  1
.18
  7
SLDTEXTSTYLE0
 73
     1
 44
1.0
  0
MTEXT
  5
59D
330
58F
100
AcDbEntity
  8
0
  6
Continuous
 62
     7
370
     0
100
AcDbMText
 10
15.5703632582
 20
6.2144996488
 30
0.0
 40
0.1875
 41
0.0
 71
     1
 72
     1
  1
4.5
  7
SLDTEXTSTYLE0
 73
     1
 44
1.0
  0
MTEXT
  5
59E
330
58F
100
AcDbEntity
  8
0
  6
Continuous
 62
     7
370
     0
100
AcDbMText
 10
16.1284166275
 20
6.5531064272
 30
0.0
 40
0.1875
 41
0.0
 71
     1
 72
     1
  1
2X
  7
SLDTEXTSTYLE0
 73
     1
 44
1.0
  0
ENDBLK
  5
591
330
58F
100
AcDbEntity
  8
0
100
AcDbBlockEnd
  0
BLOCK
  5
5E2
330
5E1
100
AcDbEntity
  8
0
100
AcDbBlockBegin
  2
_D_29
 70
     0
 10
0.0
 20
0.0
 30
0.0
  3
_D_29
  1

  0
SOLID
  5
5E4
330
5E1
100
AcDbEntity
  8
0
  6
Continuous
 62
     7
370
     0
100
AcDbTrace
 10
4.304453244
 20
1.4600615464
 30
0.0
 11
4.334453244
 21
1.6550615464
 31
0.0
 12
4.274453244
 22
1.6550615464
 32
0.0
 13
4.274453244
 23
1.6550615464
 33
0.0
  0
SOLID
  5
5E5
330
5E1
100
AcDbEntity
  8
0
  6
Continuous
 62
     7
370
     0
100
AcDbTrace
 10
4.304453244
 20
2.5821087905
 30
0.0
 11
4.274453244
 21
2.3871087905
 31
0.0
 12
4.334453244
 22
2.3871087905
 32
0.0
 13
4.334453244
 23
2.3871087905
 33
0.0
  0
LINE
  5
5E6
330
5E1
100
AcDbEntity
  8
0
  6
Continuous
 62
     7
370
     0
100
AcDbLine
 10
3.2869399167
 20
3.3379822485
 30
0.0
 11
3.2488539807
 21
3.3379822485
 31
0.0
  0
LINE
  5
5E7
330
5E1
100
AcDbEntity
  8
0
  6
Continuous
 62
     7
370
     0
100
AcDbLine
 10
3.2488539807
 20
3.3379822485
 30
0.0
 11
3.2488539807
 21
3.0403259896
 31
0.0
  0
LINE
  5
5E8
330
5E1
100
AcDbEntity
  8
0
  6
Continuous
 62
     7
370
     0
100
AcDbLine
 10
3.2488539807
 20
3.0403259896
 30
0.0
 11
3.2869399167
 21
3.0403259896
 31
0.0
  0
LINE
  5
5E9
330
5E1
100
AcDbEntity
  8
0
  6
Continuous
 62
     7
370
     0
100
AcDbLine
 10
3.8670506102
 20
3.3379822485
 30
0.0
 11
3.9051365461
 21
3.3379822485
 31
0.0
  0
LINE
  5
5EA
330
5E1
100
AcDbEntity
  8
0
  6
Continuous
 62
     7
370
     0
100
AcDbLine
 10
3.9051365461
 20
3.3379822485
 30
0.0
 11
3.9051365461
 21
3.0403259896
 31
0.0
  0
LINE
  5
5EB
330
5E1
100
AcDbEntity
  8
0
  6
Continuous
 62
     7
370
     0
100
AcDbLine
 10
3.9051365461
 20
3.0403259896
 30
0.0
 11
3.8670506102
 21
3.0403259896
 31
0.0
  0
LINE
  5
5EC
330
5E1
100
AcDbEntity
  8
0
  6
Continuous
 62
     7
370
     0
100
AcDbLine
 10
4.116953244
 20
3.3394145695
 30
0.0
 11
4.304453244
 21
3.3394145695
 31
0.0
  0
LINE
  5
5ED
330
5E1
100
AcDbEntity
  8
0
  6
Continuous
 62
     7
370
     0
100
AcDbLine
 10
4.304453244
 20
3.3394145695
 30
0.0
 11
4.304453244
 21
2.5821087905
 31
0.0
  0
LINE
  5
5EE
330
5E1
100
AcDbEntity
  8
0
  6
Continuous
 62
     7
370
     0
100
AcDbLine
 10
4.304453244
 20
1.4600615464
 30
0.0
 11
4.304453244
 21
2.5821087905
 31
0.0
  0
MTEXT
  5
5EF
330
5E1
100
AcDbEntity
  8
0
  6
Continuous
 62
     7
370
     0
100
AcDbMText
 10
3.2213311943
 20
3.6206329898
 30
0.0
 40
0.1875
 41
0.0
 71
     1
 72
     1
  1

  7
SLDTEXTSTYLE0
 73
     1
 44
1.0
  0
MTEXT
  5
5F0
330
5E1
100
AcDbEntity
  8
0
  6
Continuous
 62
     7
370
     0
100
AcDbMText
 10
3.3345473254
 20
3.6177683926
 30
0.0
 40
0.1875
 41
0.0
 71
     1
 72
     1
  1
1.12
  7
SLDTEXTSTYLE0
 73
     1
 44
1.0
  0
MTEXT
  5
5F1
330
5E1
100
AcDbEntity
  8
0
  6
Continuous
 62
     7
370
     0
100
AcDbMText
 10
3.3345473392
 20
3.2820262114
 30
0.0
 40
0.1875
 41
0.0
 71
     1
 72
     1
  1
28.5
  7
SLDTEXTSTYLE0
 73
     1
 44
1.0
  0
MTEXT
  5
5F2
330
5E1
100
AcDbEntity
  8
0
  6
Continuous
 62
     7
370
     0
100
AcDbMText
 10
4.0040134577
 20
3.6206329898
 30
0.0
 40
0.1875
 41
0.0
 71
     1
 72
     1
  1

  7
SLDTEXTSTYLE0
 73
     1
 44
1.0
  0
ENDBLK
  5
5E3
330
5E1
100
AcDbEntity
  8
0
100
AcDbBlockEnd
  0
BLOCK
  5
5F5
330
5F4
100
AcDbEntity
  8
0
100
AcDbBlockBegin
  2
_D_30
 70
     0
 10
0.0
 20
0.0
 30
0.0
  3
_D_30
  1

  0
SOLID
  5
5F7
330
5F4
100
AcDbEntity
  8
0
  6
Continuous
 62
     7
370
     0
100
AcDbTrace
 10
4.8309421208
 20
2.5821087905
 30
0.0
 11
4.8009421208
 21
2.3871087905
 31
0.0
 12
4.8609421208
 22
2.3871087905
 32
0.0
 13
4.8609421208
 23
2.3871087905
 33
0.0
  0
SOLID
  5
5F8
330
5F4
100
AcDbEntity
  8
0
  6
Continuous
 62
     7
370
     0
100
AcDbTrace
 10
4.8309421208
 20
2.7395891054
 30
0.0
 11
4.8609421208
 21
2.9345891054
 31
0.0
 12
4.8009421208
 22
2.9345891054
 32
0.0
 13
4.8009421208
 23
2.9345891054
 33
0.0
  0
LINE
  5
5F9
330
5F4
100
AcDbEntity
  8
0
  6
Continuous
 62
     7
370
     0
100
AcDbLine
 10
4.1597829474
 20
3.9527196192
 30
0.0
 11
4.1216970114
 21
3.9527196192
 31
0.0
  0
LINE
  5
5FA
330
5F4
100
AcDbEntity
  8
0
  6
Continuous
 62
     7
370
     0
100
AcDbLine
 10
4.1216970114
 20
3.9527196192
 30
0.0
 11
4.1216970114
 21
3.6550633602
 31
0.0
  0
LINE
  5
5FB
330
5F4
100
AcDbEntity
  8
0
  6
Continuous
 62
     7
370
     0
100
AcDbLine
 10
4.1216970114
 20
3.6550633602
 30
0.0
 11
4.1597829474
 21
3.6550633602
 31
0.0
  0
LINE
  5
5FC
330
5F4
100
AcDbEntity
  8
0
  6
Continuous
 62
     7
370
     0
100
AcDbLine
 10
4.3935394595
 20
3.9527196192
 30
0.0
 11
4.4316253955
 21
3.9527196192
 31
0.0
  0
LINE
  5
5FD
330
5F4
100
AcDbEntity
  8
0
  6
Continuous
 62
     7
370
     0
100
AcDbLine
 10
4.4316253955
 20
3.9527196192
 30
0.0
 11
4.4316253955
 21
3.6550633602
 31
0.0
  0
LINE
  5
5FE
330
5F4
100
AcDbEntity
  8
0
  6
Continuous
 62
     7
370
     0
100
AcDbLine
 10
4.4316253955
 20
3.6550633602
 30
0.0
 11
4.3935394595
 21
3.6550633602
 31
0.0
  0
LINE
  5
5FF
330
5F4
100
AcDbEntity
  8
0
  6
Continuous
 62
     7
370
     0
100
AcDbLine
 10
4.6434421208
 20
3.9541519401
 30
0.0
 11
4.8309421208
 21
3.9541519401
 31
0.0
  0
LINE
  5
600
330
5F4
100
AcDbEntity
  8
0
  6
Continuous
 62
     7
370
     0
100
AcDbLine
 10
4.8309421208
 20
3.9541519401
 30
0.0
 11
4.8309421208
 21
2.7395891054
 31
0.0
  0
LINE
  5
601
330
5F4
100
AcDbEntity
  8
0
  6
Continuous
 62
     7
370
     0
100
AcDbLine
 10
4.8309421208
 20
2.5821087905
 30
0.0
 11
4.8309421208
 21
2.2071087905
 31
0.0
  0
MTEXT
  5
602
330
5F4
100
AcDbEntity
  8
0
  6
Continuous
 62
     7
370
     0
100
AcDbMText
 10
4.094174225
 20
4.2353703604
 30
0.0
 40
0.1875
 41
0.0
 71
     1
 72
     1
  1

  7
SLDTEXTSTYLE0
 73
     1
 44
1.0
  0
MTEXT
  5
603
330
5F4
100
AcDbEntity
  8
0
  6
Continuous
 62
     7
370
     0
100
AcDbMText
 10
4.1034841265
 20
4.2325057632
 30
0.0
 40
0.1875
 41
0.0
 71
     1
 72
     1
  1
.16
  7
SLDTEXTSTYLE0
 73
     1
 44
1.0
  0
MTEXT
  5
604
330
5F4
100
AcDbEntity
  8
0
  6
Continuous
 62
     7
370
     0
100
AcDbMText
 10
4.2073903699
 20
3.896763582
 30
0.0
 40
0.1875
 41
0.0
 71
     1
 72
     1
  1
4
  7
SLDTEXTSTYLE0
 73
     1
 44
1.0
  0
MTEXT
  5
605
330
5F4
100
AcDbEntity
  8
0
  6
Continuous
 62
     7
370
     0
100
AcDbMText
 10
4.5305023345
 20
4.2353703604
 30
0.0
 40
0.1875
 41
0.0
 71
     1
 72
     1
  1

  7
SLDTEXTSTYLE0
 73
     1
 44
1.0
  0
ENDBLK
  5
5F6
330
5F4
100
AcDbEntity
  8
0
100
AcDbBlockEnd
  0
BLOCK
  5
608
330
607
100
AcDbEntity
  8
0
100
AcDbBlockBegin
  2
_D_31
 70
     0
 10
0.0
 20
0.0
 30
0.0
  3
_D_31
  1

  0
SOLID
  5
60A
330
607
100
AcDbEntity
  8
0
  6
Continuous
 62
     7
370
     0
100
AcDbTrace
 10
6.9713889463
 20
1.3025812314
 30
0.0
 11
7.0013889463
 21
1.4975812314
 31
0.0
 12
6.9413889463
 22
1.4975812314
 32
0.0
 13
6.9413889463
 23
1.4975812314
 33
0.0
  0
SOLID
  5
60B
330
607
100
AcDbEntity
  8
0
  6
Continuous
 62
     7
370
     0
100
AcDbTrace
 10
6.9713889463
 20
2.7395891054
 30
0.0
 11
6.9413889463
 21
2.5445891054
 31
0.0
 12
7.0013889463
 22
2.5445891054
 32
0.0
 13
7.0013889463
 23
2.5445891054
 33
0.0
  0
LINE
  5
60C
330
607
100
AcDbEntity
  8
0
  6
Continuous
 62
     7
370
     0
100
AcDbLine
 10
6.681333627
 20
2.0196528475
 30
0.0
 11
6.6432476911
 21
2.0196528475
 31
0.0
  0
LINE
  5
60D
330
607
100
AcDbEntity
  8
0
  6
Continuous
 62
     7
370
     0
100
AcDbLine
 10
6.6432476911
 20
2.0196528475
 30
0.0
 11
6.6432476911
 21
1.7219965885
 31
0.0
  0
LINE
  5
60E
330
607
100
AcDbEntity
  8
0
  6
Continuous
 62
     7
370
     0
100
AcDbLine
 10
6.6432476911
 20
1.7219965885
 30
0.0
 11
6.681333627
 21
1.7219965885
 31
0.0
  0
LINE
  5
60F
330
607
100
AcDbEntity
  8
0
  6
Continuous
 62
     7
370
     0
100
AcDbLine
 10
7.2614443205
 20
2.0196528475
 30
0.0
 11
7.2995302565
 21
2.0196528475
 31
0.0
  0
LINE
  5
610
330
607
100
AcDbEntity
  8
0
  6
Continuous
 62
     7
370
     0
100
AcDbLine
 10
7.2995302565
 20
2.0196528475
 30
0.0
 11
7.2995302565
 21
1.7219965885
 31
0.0
  0
LINE
  5
611
330
607
100
AcDbEntity
  8
0
  6
Continuous
 62
     7
370
     0
100
AcDbLine
 10
7.2995302565
 20
1.7219965885
 30
0.0
 11
7.2614443205
 21
1.7219965885
 31
0.0
  0
LINE
  5
612
330
607
100
AcDbEntity
  8
0
  6
Continuous
 62
     7
370
     0
100
AcDbLine
 10
5.6404589342
 20
1.3025812314
 30
0.0
 11
7.1588889463
 21
1.3025812314
 31
0.0
  0
LINE
  5
613
330
607
100
AcDbEntity
  8
0
  6
Continuous
 62
     7
370
     0
100
AcDbLine
 10
5.6517978544
 20
2.7395891054
 30
0.0
 11
7.1588889463
 21
2.7395891054
 31
0.0
  0
LINE
  5
614
330
607
100
AcDbEntity
  8
0
  6
Continuous
 62
     7
370
     0
100
AcDbLine
 10
6.9713889463
 20
1.3025812314
 30
0.0
 11
6.9713889463
 21
1.683910711
 31
0.0
  0
LINE
  5
615
330
607
100
AcDbEntity
  8
0
  6
Continuous
 62
     7
370
     0
100
AcDbLine
 10
6.9713889463
 20
2.7395891054
 30
0.0
 11
6.9713889463
 21
2.3582596259
 31
0.0
  0
MTEXT
  5
616
330
607
100
AcDbEntity
  8
0
  6
Continuous
 62
     7
370
     0
100
AcDbMText
 10
6.6157249047
 20
2.3023035888
 30
0.0
 40
0.1875
 41
0.0
 71
     1
 72
     1
  1

  7
SLDTEXTSTYLE0
 73
     1
 44
1.0
  0
MTEXT
  5
617
330
607
100
AcDbEntity
  8
0
  6
Continuous
 62
     7
370
     0
100
AcDbMText
 10
6.7289410358
 20
2.2994389915
 30
0.0
 40
0.1875
 41
0.0
 71
     1
 72
     1
  1
1.44
  7
SLDTEXTSTYLE0
 73
     1
 44
1.0
  0
MTEXT
  5
618
330
607
100
AcDbEntity
  8
0
  6
Continuous
 62
     7
370
     0
100
AcDbMText
 10
6.7289410496
 20
1.9636968104
 30
0.0
 40
0.1875
 41
0.0
 71
     1
 72
     1
  1
36.5
  7
SLDTEXTSTYLE0
 73
     1
 44
1.0
  0
MTEXT
  5
619
330
607
100
AcDbEntity
  8
0
  6
Continuous
 62
     7
370
     0
100
AcDbMText
 10
7.3984071681
 20
2.3023035888
 30
0.0
 40
0.1875
 41
0.0
 71
     1
 72
     1
  1

  7
SLDTEXTSTYLE0
 73
     1
 44
1.0
  0
ENDBLK
  5
609
330
607
100
AcDbEntity
  8
0
100
AcDbBlockEnd
  0
BLOCK
  5
61C
330
61B
100
AcDbEntity
  8
0
100
AcDbBlockBegin
  2
_D_32
 70
     0
 10
0.0
 20
0.0
 30
0.0
  3
_D_32
  1

  0
SOLID
  5
61E
330
61B
100
AcDbEntity
  8
0
  6
Continuous
 62
     7
370
     0
100
AcDbTrace
 10
6.3330269566
 20
2.345888318
 30
0.0
 11
6.3030269566
 21
2.150888318
 31
0.0
 12
6.3630269566
 22
2.150888318
 32
0.0
 13
6.3630269566
 23
2.150888318
 33
0.0
  0
SOLID
  5
61F
330
61B
100
AcDbEntity
  8
0
  6
Continuous
 62
     7
370
     0
100
AcDbTrace
 10
6.3330269566
 20
2.7395891054
 30
0.0
 11
6.3630269566
 21
2.9345891054
 31
0.0
 12
6.3030269566
 22
2.9345891054
 32
0.0
 13
6.3030269566
 23
2.9345891054
 33
0.0
  0
LINE
  5
620
330
61B
100
AcDbEntity
  8
0
  6
Continuous
 62
     7
370
     0
100
AcDbLine
 10
6.7011588119
 20
3.3379822485
 30
0.0
 11
6.6630728759
 21
3.3379822485
 31
0.0
  0
LINE
  5
621
330
61B
100
AcDbEntity
  8
0
  6
Continuous
 62
     7
370
     0
100
AcDbLine
 10
6.6630728759
 20
3.3379822485
 30
0.0
 11
6.6630728759
 21
3.0403259896
 31
0.0
  0
LINE
  5
622
330
61B
100
AcDbEntity
  8
0
  6
Continuous
 62
     7
370
     0
100
AcDbLine
 10
6.6630728759
 20
3.0403259896
 30
0.0
 11
6.7011588119
 21
3.0403259896
 31
0.0
  0
LINE
  5
623
330
61B
100
AcDbEntity
  8
0
  6
Continuous
 62
     7
370
     0
100
AcDbLine
 10
7.0734569911
 20
3.3379822485
 30
0.0
 11
7.111542927
 21
3.3379822485
 31
0.0
  0
LINE
  5
624
330
61B
100
AcDbEntity
  8
0
  6
Continuous
 62
     7
370
     0
100
AcDbLine
 10
7.111542927
 20
3.3379822485
 30
0.0
 11
7.111542927
 21
3.0403259896
 31
0.0
  0
LINE
  5
625
330
61B
100
AcDbEntity
  8
0
  6
Continuous
 62
     7
370
     0
100
AcDbLine
 10
7.111542927
 20
3.0403259896
 30
0.0
 11
7.0734569911
 21
3.0403259896
 31
0.0
  0
LINE
  5
626
330
61B
100
AcDbEntity
  8
0
  6
Continuous
 62
     7
370
     0
100
AcDbLine
 10
5.7360476644
 20
2.345888318
 30
0.0
 11
6.5205269566
 21
2.345888318
 31
0.0
  0
LINE
  5
627
330
61B
100
AcDbEntity
  8
0
  6
Continuous
 62
     7
370
     0
100
AcDbLine
 10
5.6517978544
 20
2.7395891054
 30
0.0
 11
6.5205269566
 21
2.7395891054
 31
0.0
  0
LINE
  5
628
330
61B
100
AcDbEntity
  8
0
  6
Continuous
 62
     7
370
     0
100
AcDbLine
 10
6.5205269566
 20
3.3394145695
 30
0.0
 11
6.3330269566
 21
3.3394145695
 31
0.0
  0
LINE
  5
629
330
61B
100
AcDbEntity
  8
0
  6
Continuous
 62
     7
370
     0
100
AcDbLine
 10
6.3330269566
 20
3.3394145695
 30
0.0
 11
6.3330269566
 21
2.7395891054
 31
0.0
  0
LINE
  5
62A
330
61B
100
AcDbEntity
  8
0
  6
Continuous
 62
     7
370
     0
100
AcDbLine
 10
6.3330269566
 20
2.345888318
 30
0.0
 11
6.3330269566
 21
1.970888318
 31
0.0
  0
MTEXT
  5
62B
330
61B
100
AcDbEntity
  8
0
  6
Continuous
 62
     7
370
     0
100
AcDbMText
 10
6.7141308108
 20
3.6177683926
 30
0.0
 40
0.1875
 41
0.0
 71
     1
 72
     1
  1
.39
  7
SLDTEXTSTYLE0
 73
     1
 44
1.0
  0
MTEXT
  5
62C
330
61B
100
AcDbEntity
  8
0
  6
Continuous
 62
     7
370
     0
100
AcDbMText
 10
6.7487662344
 20
3.2820262114
 30
0.0
 40
0.1875
 41
0.0
 71
     1
 72
     1
  1
10
  7
SLDTEXTSTYLE0
 73
     1
 44
1.0
  0
MTEXT
  5
62D
330
61B
100
AcDbEntity
  8
0
  6
Continuous
 62
     7
370
     0
100
AcDbMText
 10
7.2104198524
 20
3.6206329898
 30
0.0
 40
0.1875
 41
0.0
 71
     1
 72
     1
  1
COVER
  7
SLDTEXTSTYLE0
 73
     1
 44
1.0
  0
ENDBLK
  5
61D
330
61B
100
AcDbEntity
  8
0
100
AcDbBlockEnd
  0
ENDSEC
  0
SECTION
  2
ENTITIES
  0
LINE
  5
73
330
1F
100
AcDbEntity
  8
0
  6
Continuous
 62
     7
370
     0
100
AcDbLine
 10
0.4698774069
 20
16.0576097561
 30
0.0
 11
25.0338774069
 21
16.0576097561
 31
0.0
  0
LINE
  5
74
330
1F
100
AcDbEntity
  8
0
  6
Continuous
 62
     7
370
     0
100
AcDbLine
 10
25.0338774069
 20
0.4936097561
 30
0.0
 11
25.0338774069
 21
16.0576097561
 31
0.0
  0
LINE
  5
75
330
1F
100
AcDbEntity
  8
0
  6
Continuous
 62
     7
370
     0
100
AcDbLine
 10
25.0338774069
 20
0.4936097561
 30
0.0
 11
0.4698774069
 21
0.4936097561
 31
0.0
  0
LINE
  5
76
330
1F
100
AcDbEntity
  8
0
  6
Continuous
 62
     7
370
     0
100
AcDbLine
 10
0.4698774069
 20
16.0576097561
 30
0.0
 11
0.4698774069
 21
0.4936097561
 31
0.0
  0
LINE
  5
77
330
1F
100
AcDbEntity
  8
0
  6
Continuous
 62
     7
370
     0
100
AcDbLine
 10
0.3768774069
 20
16.1506097561
 30
0.0
 11
25.1268774069
 21
16.1506097561
 31
0.0
  0
LINE
  5
78
330
1F
100
AcDbEntity
  8
0
  6
Continuous
 62
     7
370
     0
100
AcDbLine
 10
25.1268774069
 20
0.4006097561
 30
0.0
 11
0.3768774069
 21
0.4006097561
 31
0.0
  0
LINE
  5
79
330
1F
100
AcDbEntity
  8
0
  6
Continuous
 62
     7
370
     0
100
AcDbLine
 10
0.3768774069
 20
16.1506097561
 30
0.0
 11
0.3768774069
 21
0.4006097561
 31
0.0
  0
LINE
  5
7A
330
1F
100
AcDbEntity
  8
0
  6
Continuous
 62
     7
370
     0
100
AcDbLine
 10
25.1268774069
 20
0.4006097561
 30
0.0
 11
25.1268774069
 21
16.1506097561
 31
0.0
  0
LINE
  5
7B
330
1F
100
AcDbEntity
  8
0
  6
Continuous
 62
     7
370
     0
100
AcDbLine
 10
0.4698774069
 20
15.4486097561
 30
0.0
 11
25.0338774069
 21
15.4486097561
 31
0.0
  0
LINE
  5
7C
330
1F
100
AcDbEntity
  8
0
  6
Continuous
 62
     7
370
     0
100
AcDbLine
 10
2.765578831
 20
16.0576097561
 30
0.0
 11
2.765578831
 21
15.4486097561
 31
0.0
  0
LINE
  5
7D
330
1F
100
AcDbEntity
  8
0
  6
Continuous
 62
     7
370
     0
100
AcDbLine
 10
1.6662478256
 20
16.0576097561
 30
0.0
 11
1.6662478256
 21
15.4486097561
 31
0.0
  0
LINE
  5
7E
330
1F
100
AcDbEntity
  8
0
  6
Continuous
 62
     7
370
     0
100
AcDbLine
 10
23.1588774069
 20
15.4486097561
 30
0.0
 11
23.1588774069
 21
16.0576097561
 31
0.0
  0
LINE
  5
7F
330
1F
100
AcDbEntity
  8
0
  6
Continuous
 62
     7
370
     0
100
AcDbLine
 10
22.0338774069
 20
15.4486097561
 30
0.0
 11
22.0338774069
 21
16.0576097561
 31
0.0
  0
LINE
  5
80
330
1F
100
AcDbEntity
  8
0
  6
Continuous
 62
     7
370
     0
100
AcDbLine
 10
21.9408774069
 20
15.4486097561
 30
0.0
 11
21.9408774069
 21
16.0576097561
 31
0.0
  0
LINE
  5
81
330
1F
100
AcDbEntity
  8
0
  6
Continuous
 62
     7
370
     0
100
AcDbLine
 10
0.6715168758
 20
15.5642401737
 30
0.0
 11
0.6715168758
 21
15.9625423049
 31
0.0
  0
LINE
  5
82
330
1F
100
AcDbEntity
  8
0
  6
Continuous
 62
     7
370
     0
100
AcDbLine
 10
0.9488747165
 20
15.5891340569
 30
0.0
 11
0.9488747165
 21
15.9625423049
 31
0.0
  0
LINE
  5
83
330
1F
100
AcDbEntity
  8
0
  6
Continuous
 62
     7
370
     0
100
AcDbLine
 10
1.0563508797
 20
15.6292259294
 30
0.0
 11
1.0563508797
 21
15.9625423049
 31
0.0
  0
LINE
  5
84
330
1F
100
AcDbEntity
  8
0
  6
Continuous
 62
     7
370
     0
100
AcDbLine
 10
1.0216811497
 20
15.6292259294
 30
0.0
 11
1.0216811497
 21
15.9625423049
 31
0.0
  0
LINE
  5
85
330
1F
100
AcDbEntity
  8
0
  6
Continuous
 62
     7
370
     0
100
AcDbLine
 10
1.2106231823
 20
15.5642401737
 30
0.0
 11
1.2106231823
 21
15.9625423049
 31
0.0
  0
LINE
  5
86
330
1F
100
AcDbEntity
  8
0
  6
Continuous
 62
     7
370
     0
100
AcDbLine
 10
1.1291573129
 20
15.5891340569
 30
0.0
 11
1.1291573129
 21
15.9625423049
 31
0.0
  0
LINE
  5
87
330
1F
100
AcDbEntity
  8
0
  6
Continuous
 62
     7
370
     0
100
AcDbLine
 10
0.9737685997
 20
15.5642401737
 30
0.0
 11
1.1042634297
 21
15.5642401737
 31
0.0
  0
LINE
  5
88
330
1F
100
AcDbEntity
  8
0
  6
Continuous
 62
     7
370
     0
100
AcDbLine
 10
0.6715168758
 20
15.5642401737
 30
0.0
 11
0.7997948771
 21
15.5642401737
 31
0.0
  0
LINE
  5
89
330
1F
100
AcDbEntity
  8
0
  6
Continuous
 62
     7
370
     0
100
AcDbLine
 10
0.7997948771
 20
15.753433686
 30
0.0
 11
0.6905852273
 21
15.753433686
 31
0.0
  0
LINE
  5
8A
330
1F
100
AcDbEntity
  8
0
  6
Continuous
 62
     7
370
     0
100
AcDbLine
 10
0.7997948771
 20
15.7733487926
 30
0.0
 11
0.6905852273
 21
15.7733487926
 31
0.0
  0
LINE
  5
8B
330
1F
100
AcDbEntity
  8
0
  6
Continuous
 62
     7
370
     0
100
AcDbLine
 10
0.6905852273
 20
15.7733487926
 30
0.0
 11
0.6905852273
 21
15.7633912393
 31
0.0
  0
LINE
  5
8C
330
1F
100
AcDbEntity
  8
0
  6
Continuous
 62
     7
370
     0
100
AcDbLine
 10
0.6905852273
 20
15.753433686
 30
0.0
 11
0.6905852273
 21
15.7633912393
 31
0.0
  0
LINE
  5
8D
330
1F
100
AcDbEntity
  8
0
  6
Continuous
 62
     7
370
     0
100
AcDbLine
 10
1.2106231823
 20
15.5642401737
 30
0.0
 11
1.2601674653
 21
15.5642401737
 31
0.0
  0
LINE
  5
8E
330
1F
100
AcDbEntity
  8
0
  6
Continuous
 62
     7
370
     0
100
AcDbLine
 10
1.3995732113
 20
15.7036459196
 30
0.0
 11
1.3995732113
 21
15.823136559
 31
0.0
  0
LINE
  5
8F
330
1F
100
AcDbEntity
  8
0
  6
Continuous
 62
     7
370
     0
100
AcDbLine
 10
1.3263156445
 20
15.753433686
 30
0.0
 11
1.3263156445
 21
15.7733487926
 31
0.0
  0
LINE
  5
90
330
1F
100
AcDbEntity
  8
0
  6
Continuous
 62
     7
370
     0
100
AcDbLine
 10
1.2643692603
 20
15.753433686
 30
0.0
 11
1.2643692603
 21
15.7733487926
 31
0.0
  0
LINE
  5
91
330
1F
100
AcDbEntity
  8
0
  6
Continuous
 62
     7
370
     0
100
AcDbLine
 10
1.3263156445
 20
15.753433686
 30
0.0
 11
1.2643692603
 21
15.753433686
 31
0.0
  0
LINE
  5
92
330
1F
100
AcDbEntity
  8
0
  6
Continuous
 62
     7
370
     0
100
AcDbLine
 10
1.3263156445
 20
15.7733487926
 30
0.0
 11
1.2643692603
 21
15.7733487926
 31
0.0
  0
LINE
  5
93
330
1F
100
AcDbEntity
  8
0
  6
Continuous
 62
     7
370
     0
100
AcDbLine
 10
1.0563508797
 20
15.9625423049
 30
0.0
 11
1.1291573129
 21
15.9625423049
 31
0.0
  0
LINE
  5
94
330
1F
100
AcDbEntity
  8
0
  6
Continuous
 62
     7
370
     0
100
AcDbLine
 10
0.6715168758
 20
15.9625423049
 30
0.0
 11
0.7997948771
 21
15.9625423049
 31
0.0
  0
LINE
  5
95
330
1F
100
AcDbEntity
  8
0
  6
Continuous
 62
     7
370
     0
100
AcDbLine
 10
0.9488747165
 20
15.9625423049
 30
0.0
 11
1.0216811497
 21
15.9625423049
 31
0.0
  0
LINE
  5
96
330
1F
100
AcDbEntity
  8
0
  6
Continuous
 62
     7
370
     0
100
AcDbLine
 10
1.2106231823
 20
15.9625423049
 30
0.0
 11
1.2601674653
 21
15.9625423049
 31
0.0
  0
LINE
  5
97
330
1F
100
AcDbEntity
  8
0
  6
Continuous
 62
     7
370
     0
100
AcDbLine
 10
1.575150039
 20
16.0576097561
 30
0.0
 11
1.575150039
 21
15.4486097561
 31
0.0
  0
LINE
  5
98
330
1F
100
AcDbEntity
  8
0
  6
Continuous
 62
     7
370
     0
100
AcDbLine
 10
12.5747930654
 20
15.4486097561
 30
0.0
 11
12.5747930654
 21
16.0576097561
 31
0.0
  0
LINE
  5
99
330
1F
100
AcDbEntity
  8
0
  6
Continuous
 62
     7
370
     0
100
AcDbLine
 10
12.6677930654
 20
15.4486097561
 30
0.0
 11
12.6677930654
 21
16.0576097561
 31
0.0
  0
LINE
  5
9A
330
1F
100
AcDbEntity
  8
0
  6
Continuous
 62
     7
370
     0
100
AcDbLine
 10
13.7927930654
 20
15.4486097561
 30
0.0
 11
13.7927930654
 21
16.0576097561
 31
0.0
  0
ARC
  5
9B
330
1F
100
AcDbEntity
  8
0
  6
Continuous
 62
     7
370
     0
100
AcDbCircle
 10
0.7997948771
 20
15.8679455487
 30
0.0
 40
0.0945967561478671
100
AcDbArc
 50
270.0
 51
90.0
  0
ARC
  5
9C
330
1F
100
AcDbEntity
  8
0
  6
Continuous
 62
     7
370
     0
100
AcDbCircle
 10
1.2601674653
 20
15.823136559
 30
0.0
 40
0.1394057459021187
100
AcDbArc
 50
0.0
 51
90.0
  0
ARC
  5
9D
330
1F
100
AcDbEntity
  8
0
  6
Continuous
 62
     7
370
     0
100
AcDbCircle
 10
0.7997948771
 20
15.6588369299
 30
0.0
 40
0.0945967561478671
100
AcDbArc
 50
270.0
 51
90.0
  0
ARC
  5
9E
330
1F
100
AcDbEntity
  8
0
  6
Continuous
 62
     7
370
     0
100
AcDbCircle
 10
0.9737685997
 20
15.5891340569
 30
0.0
 40
0.0248938831968141
100
AcDbArc
 50
180.0
 51
270.0
  0
ARC
  5
9F
330
1F
100
AcDbEntity
  8
0
  6
Continuous
 62
     7
370
     0
100
AcDbCircle
 10
1.0364357732
 20
15.6292259294
 30
0.0
 40
0.0199151065574398
100
AcDbArc
 50
277.4442840975
 51
0.0
  0
ARC
  5
A0
330
1F
100
AcDbEntity
  8
0
  6
Continuous
 62
     7
370
     0
100
AcDbCircle
 10
1.0415962562
 20
15.6292259294
 30
0.0
 40
0.0199151065574563
100
AcDbArc
 50
180.0
 51
262.5557159021
  0
ARC
  5
A1
330
1F
100
AcDbEntity
  8
0
  6
Continuous
 62
     7
370
     0
100
AcDbCircle
 10
1.2601674653
 20
15.7036459196
 30
0.0
 40
0.1394057459021187
100
AcDbArc
 50
270.0
 51
0.0
  0
ARC
  5
A2
330
1F
100
AcDbEntity
  8
0
  6
Continuous
 62
     7
370
     0
100
AcDbCircle
 10
1.1042634297
 20
15.5891340569
 30
0.0
 40
0.0248938831968104
100
AcDbArc
 50
270.0
 51
0.0
  0
INSERT
  5
A9
330
1F
100
AcDbEntity
  8
0
  6
Continuous
 62
     7
370
     0
100
AcDbBlockReference
  2
SW_NOTE_0
 10
19.2966191201
 20
0.7626932561
 30
0.0
  0
INSERT
  5
AF
330
1F
100
AcDbEntity
  8
0
  6
Continuous
 62
     7
370
     0
100
AcDbBlockReference
  2
SW_NOTE_1
 10
10.2016970738
 20
13.5209079481
 30
0.0
  0
INSERT
  5
C0
330
1F
100
AcDbEntity
  8
0
  6
Continuous
 62
     7
370
     0
100
AcDbBlockReference
  2
SW_NOTE_2
 10
10.5103023708
 20
5.3453568932
 30
0.0
  0
INSERT
  5
CA
330
1F
100
AcDbEntity
  8
0
  6
Continuous
 62
     7
370
     0
100
AcDbBlockReference
  2
SW_NOTE_3
 10
0.6503041561
 20
15.0424719248
 30
0.0
  0
MTEXT
  5
CB
330
1F
100
AcDbEntity
  8
0
  6
Continuous
 62
     7
370
     0
100
AcDbMText
 10
10.9159822255
 20
15.2749210404
 30
0.0
 40
0.1875
 41
0.0
 71
     1
 72
     1
  1
UPDATE REPLACES PART NO. AN-1315 (NATURAL) & AN-1315-G (DISCONTINUED GRAY)
  7
SLDTEXTSTYLE0
 73
     1
 44
1.0
  0
INSERT
  5
D4
330
1F
100
AcDbEntity
  8
0
  6
Continuous
 62
     7
370
     0
100
AcDbBlockReference
  2
SW_NOTE_4
 10
10.399019826
 20
1.8274235631
 30
0.0
  0
INSERT
  5
DC
330
1F
100
AcDbEntity
  8
0
  6
Continuous
 62
     7
370
     0
100
AcDbBlockReference
  2
SW_NOTE_5
 10
21.5789303327
 20
15.0903251025
 30
0.0
  0
MTEXT
  5
DD
330
1F
100
AcDbEntity
  8
0
  6
Continuous
 62
     7
370
     0
100
AcDbMText
 10
6.6904253081
 20
5.8154407142
 30
0.0
 40
0.1875
 41
0.0
 71
     1
 72
     1
  1
[9.9]
  7
SLDTEXTSTYLE0
 73
     1
 44
1.0
  0
MTEXT
  5
DE
330
1F
100
AcDbEntity
  8
0
  6
Continuous
 62
     7
370
     0
100
AcDbMText
 10
24.1035157217
 20
15.9139745161
 30
0.0
 40
0.28125
 41
0.0
 71
     2
 72
     1
  1
9-30-15
  7
SLDTEXTSTYLE0
 73
     1
 44
1.0
  0
MTEXT
  5
DF
330
1F
100
AcDbEntity
  8
0
  6
Continuous
 62
     7
370
     0
100
AcDbMText
 10
7.7143569507
 20
15.9371571412
 30
0.0
 40
0.28125
 41
0.0
 71
     2
 72
     1
  1
NEMA DIE CAST ALUM. ENCLOSURE
  7
SLDTEXTSTYLE0
 73
     1
 44
1.0
  0
MTEXT
  5
E0
330
1F
100
AcDbEntity
  8
0
  6
Continuous
 62
     7
370
     0
100
AcDbMText
 10
16.1581780474
 20
15.8939843181
 30
0.0
 40
0.28125
 41
0.0
 71
     2
 72
     1
  1
AN-1315-A
  7
SLDTEXTSTYLE0
 73
     1
 44
1.0
  0
INSERT
  5
E6
330
1F
100
AcDbEntity
  8
0
  6
Continuous
 62
     7
370
     0
100
AcDbBlockReference
  2
SW_NOTE_6
 10
1.9026511869
 20
15.7592073569
 30
0.0
  0
INSERT
  5
EC
330
1F
100
AcDbEntity
  8
0
  6
Continuous
 62
     7
370
     0
100
AcDbBlockReference
  2
SW_NOTE_7
 10
12.9657697845
 20
15.7481817837
 30
0.0
  0
INSERT
  5
F2
330
1F
100
AcDbEntity
  8
0
  6
Continuous
 62
     7
370
     0
100
AcDbBlockReference
  2
SW_NOTE_8
 10
22.0629579411
 20
15.7550752943
 30
0.0
  0
MTEXT
  5
F3
330
1F
100
AcDbEntity
  8
0
  6
Continuous
 62
     7
370
     0
100
AcDbMText
 10
19.5909881847
 20
15.9139745299
 30
0.0
 40
0.28125
 41
0.0
 71
     2
 72
     1
  1
AN-1315-AB
  7
SLDTEXTSTYLE0
 73
     1
 44
1.0
  0
MTEXT
  5
F4
330
1F
100
AcDbEntity
  8
0
  6
Continuous
 62
     7
370
     0
100
AcDbMText
 10
17.7339878158
 20
15.8939843043
 30
0.0
 40
0.28125
 41
0.0
 71
     2
 72
     1
  1
&
  7
SLDTEXTSTYLE0
 73
     1
 44
1.0
  0
LINE
  5
F5
330
1F
100
AcDbEntity
  8
0
  6
Continuous
 62
     7
370
    15
100
AcDbLine
 10
3.9452571852
 20
12.6013799245
 30
0.0
 11
3.9287641958
 21
12.6013799245
 31
0.0
  0
LINE
  5
F6
330
1F
100
AcDbEntity
  8
0
  6
Continuous
 62
     7
370
    15
100
AcDbLine
 10
3.9452571852
 20
12.6013799245
 30
0.0
 11
3.9452571852
 21
12.5994113872
 31
0.0
  0
LINE
  5
F7
330
1F
100
AcDbEntity
  8
0
  6
Continuous
 62
     7
370
    15
100
AcDbLine
 10
3.9452571852
 20
12.5994113872
 30
0.0
 11
3.9287641958
 21
12.5994113872
 31
0.0
  0
LINE
  5
F8
330
1F
100
AcDbEntity
  8
0
  6
Continuous
 62
     7
370
    15
100
AcDbLine
 10
3.9287641958
 20
12.6013799245
 30
0.0
 11
3.9287641958
 21
12.5994113872
 31
0.0
  0
LINE
  5
F9
330
1F
100
AcDbEntity
  8
0
  6
Continuous
 62
     7
370
    15
100
AcDbLine
 10
3.3893941533
 20
7.4358039576
 30
0.0
 11
3.3893941533
 21
7.4261828821
 31
0.0
  0
ARC
  5
FA
330
1F
100
AcDbEntity
  8
0
  6
Continuous
 62
     7
370
    15
100
AcDbCircle
 10
3.3893941211
 20
7.189962543
 30
0.0
 40
0.2458413743698946
100
AcDbArc
 50
0.0000000006
 51
90.0
  0
LINE
  5
FB
330
1F
100
AcDbEntity
  8
0
  6
Continuous
 62
     7
370
    15
100
AcDbLine
 10
3.6256145911
 20
7.1899625176
 30
0.0
 11
3.63523552
 21
7.1899625176
 31
0.0
  0
ARC
  5
FC
330
1F
100
AcDbEntity
  8
0
  6
Continuous
 62
     7
370
    15
100
AcDbCircle
 10
3.3893941211
 20
7.189962543
 30
0.0
 40
0.2362204724409711
100
AcDbArc
 50
0.0000000005
 51
90.0
  0
LINE
  5
FD
330
1F
100
AcDbEntity
  8
0
  6
Continuous
 62
     7
370
    15
100
AcDbLine
 10
5.4149846735
 20
7.4261828821
 30
0.0
 11
5.1098665316
 21
7.4261828821
 31
0.0
  0
LINE
  5
FE
330
1F
100
AcDbEntity
  8
0
  6
Continuous
 62
     7
370
    15
100
AcDbLine
 10
5.1098665316
 20
7.4261828821
 30
0.0
 11
5.1098665316
 21
7.4426759449
 31
0.0
  0
LINE
  5
FF
330
1F
100
AcDbEntity
  8
0
  6
Continuous
 62
     7
370
    15
100
AcDbLine
 10
5.4149846735
 20
7.4426759449
 30
0.0
 11
5.1098665316
 21
7.4426759449
 31
0.0
  0
LINE
  5
100
330
1F
100
AcDbEntity
  8
0
  6
Continuous
 62
     7
370
    15
100
AcDbLine
 10
5.4149846735
 20
7.4261828821
 30
0.0
 11
5.4149846735
 21
7.4426759449
 31
0.0
  0
LINE
  5
101
330
1F
100
AcDbEntity
  8
0
  6
Continuous
 62
     7
370
    15
100
AcDbLine
 10
4.8571531043
 20
7.1899625176
 30
0.0
 11
4.8736460937
 21
7.1899625176
 31
0.0
  0
ARC
  5
102
330
1F
100
AcDbEntity
  8
0
  6
Continuous
 62
     7
370
    15
100
AcDbCircle
 10
5.1098665621
 20
7.189962543
 30
0.0
 40
0.25271344717624
100
AcDbArc
 50
90.0
 51
180.0000000003
  0
ARC
  5
103
330
1F
100
AcDbEntity
  8
0
  6
Continuous
 62
     7
370
    15
100
AcDbCircle
 10
5.1098665621
 20
7.189962543
 30
0.0
 40
0.2362204724409622
100
AcDbArc
 50
90.0
 51
180.0000000005
  0
LINE
  5
104
330
1F
100
AcDbEntity
  8
0
  6
Continuous
 62
     7
370
    15
100
AcDbLine
 10
5.4149846735
 20
12.3466979599
 30
0.0
 11
5.4149846735
 21
12.3631910227
 31
0.0
  0
LINE
  5
105
330
1F
100
AcDbEntity
  8
0
  6
Continuous
 62
     7
370
    15
100
AcDbLine
 10
5.4149846735
 20
12.3466979599
 30
0.0
 11
5.0224882343
 21
12.3466979599
 31
0.0
  0
LINE
  5
106
330
1F
100
AcDbEntity
  8
0
  6
Continuous
 62
     7
370
    15
100
AcDbLine
 10
5.0293602949
 20
12.3535699472
 30
0.0
 11
5.0224882343
 21
12.3466979599
 31
0.0
  0
LINE
  5
107
330
1F
100
AcDbEntity
  8
0
  6
Continuous
 62
     7
370
    15
100
AcDbLine
 10
5.4130161362
 20
12.3535699472
 30
0.0
 11
5.0293602949
 21
12.3535699472
 31
0.0
  0
LINE
  5
108
330
1F
100
AcDbEntity
  8
0
  6
Continuous
 62
     7
370
    15
100
AcDbLine
 10
5.4130161362
 20
12.3535699472
 30
0.0
 11
5.4130161362
 21
12.3631910227
 31
0.0
  0
LINE
  5
109
330
1F
100
AcDbEntity
  8
0
  6
Continuous
 62
     7
370
    15
100
AcDbLine
 10
5.4149846735
 20
12.3631910227
 30
0.0
 11
5.4130161362
 21
12.3631910227
 31
0.0
  0
LINE
  5
10A
330
1F
100
AcDbEntity
  8
0
  6
Continuous
 62
     7
370
    15
100
AcDbLine
 10
3.387425616
 20
12.3631910227
 30
0.0
 11
3.6925437579
 21
12.3631910227
 31
0.0
  0
LINE
  5
10B
330
1F
100
AcDbEntity
  8
0
  6
Continuous
 62
     7
370
    15
100
AcDbLine
 10
3.6925437579
 20
12.3631910227
 30
0.0
 11
3.6925437579
 21
12.3466979599
 31
0.0
  0
LINE
  5
10C
330
1F
100
AcDbEntity
  8
0
  6
Continuous
 62
     7
370
    15
100
AcDbLine
 10
3.387425616
 20
12.3466979599
 30
0.0
 11
3.6925437579
 21
12.3466979599
 31
0.0
  0
LINE
  5
10D
330
1F
100
AcDbEntity
  8
0
  6
Continuous
 62
     7
370
    15
100
AcDbLine
 10
3.387425616
 20
12.3631910227
 30
0.0
 11
3.387425616
 21
12.3466979599
 31
0.0
  0
ARC
  5
10E
330
1F
100
AcDbEntity
  8
0
  6
Continuous
 62
     7
370
    15
100
AcDbCircle
 10
3.6925437274
 20
12.5994113619
 30
0.0
 40
0.25271344717624
100
AcDbArc
 50
270.0
 51
0.0000000003
  0
ARC
  5
10F
330
1F
100
AcDbEntity
  8
0
  6
Continuous
 62
     7
370
    15
100
AcDbCircle
 10
3.6925437274
 20
12.5994113619
 30
0.0
 40
0.2362204724409622
100
AcDbArc
 50
270.0
 51
0.0000000005
  0
ARC
  5
110
330
1F
100
AcDbEntity
  8
0
  6
Continuous
 62
     7
370
    15
100
AcDbCircle
 10
5.4130161684
 20
12.5994113619
 30
0.0
 40
0.2458413743699399
100
AcDbArc
 50
179.9999999994
 51
270.0
  0
LINE
  5
111
330
1F
100
AcDbEntity
  8
0
  6
Continuous
 62
     7
370
    15
100
AcDbLine
 10
5.1767956984
 20
12.5994113872
 30
0.0
 11
5.1671747695
 21
12.5994113872
 31
0.0
  0
ARC
  5
112
330
1F
100
AcDbEntity
  8
0
  6
Continuous
 62
     7
370
    15
100
AcDbCircle
 10
5.4130161684
 20
12.5994113619
 30
0.0
 40
0.2362204724410155
100
AcDbArc
 50
179.9999999995
 51
270.0
  0
LINE
  5
113
330
1F
100
AcDbEntity
  8
0
  6
Continuous
 62
     7
370
    15
100
AcDbLine
 10
3.63523552
 20
7.1879939804
 30
0.0
 11
3.63523552
 21
7.1899625176
 31
0.0
  0
LINE
  5
114
330
1F
100
AcDbEntity
  8
0
  6
Continuous
 62
     7
370
    15
100
AcDbLine
 10
3.6256145911
 20
7.1879939804
 30
0.0
 11
3.63523552
 21
7.1879939804
 31
0.0
  0
LINE
  5
115
330
1F
100
AcDbEntity
  8
0
  6
Continuous
 62
     7
370
    15
100
AcDbLine
 10
3.6256145911
 20
7.1899625176
 30
0.0
 11
3.6256145911
 21
7.1879939804
 31
0.0
  0
LINE
  5
116
330
1F
100
AcDbEntity
  8
0
  6
Continuous
 62
     7
370
    15
100
AcDbLine
 10
5.1671747695
 20
12.6013799245
 30
0.0
 11
5.1671747695
 21
12.5994113872
 31
0.0
  0
LINE
  5
117
330
1F
100
AcDbEntity
  8
0
  6
Continuous
 62
     7
370
    15
100
AcDbLine
 10
5.1767956984
 20
12.6013799245
 30
0.0
 11
5.1671747695
 21
12.6013799245
 31
0.0
  0
LINE
  5
118
330
1F
100
AcDbEntity
  8
0
  6
Continuous
 62
     7
370
    15
100
AcDbLine
 10
5.1767956984
 20
12.5994113872
 30
0.0
 11
5.1767956984
 21
12.6013799245
 31
0.0
  0
LINE
  5
119
330
1F
100
AcDbEntity
  8
0
  6
Continuous
 62
     7
370
    15
100
AcDbLine
 10
4.8571531043
 20
7.1879939804
 30
0.0
 11
4.8736460937
 21
7.1879939804
 31
0.0
  0
LINE
  5
11A
330
1F
100
AcDbEntity
  8
0
  6
Continuous
 62
     7
370
    15
100
AcDbLine
 10
4.8571531043
 20
7.1879939804
 30
0.0
 11
4.8571531043
 21
7.1899625176
 31
0.0
  0
LINE
  5
11B
330
1F
100
AcDbEntity
  8
0
  6
Continuous
 62
     7
370
    15
100
AcDbLine
 10
4.8736460937
 20
7.1879939804
 30
0.0
 11
4.8736460937
 21
7.1899625176
 31
0.0
  0
LINE
  5
11C
330
1F
100
AcDbEntity
  8
0
  6
Continuous
 62
     7
370
    15
100
AcDbLine
 10
3.387425616
 20
7.4426759449
 30
0.0
 11
3.387425616
 21
7.4261828821
 31
0.0
  0
LINE
  5
11D
330
1F
100
AcDbEntity
  8
0
  6
Continuous
 62
     7
370
    15
100
AcDbLine
 10
3.387425616
 20
7.4426759449
 30
0.0
 11
3.7799220552
 21
7.4426759449
 31
0.0
  0
LINE
  5
11E
330
1F
100
AcDbEntity
  8
0
  6
Continuous
 62
     7
370
    15
100
AcDbLine
 10
3.7730499946
 20
7.4358039576
 30
0.0
 11
3.7799220552
 21
7.4426759449
 31
0.0
  0
LINE
  5
11F
330
1F
100
AcDbEntity
  8
0
  6
Continuous
 62
     7
370
    15
100
AcDbLine
 10
3.3893941533
 20
7.4358039576
 30
0.0
 11
3.7730499946
 21
7.4358039576
 31
0.0
  0
LINE
  5
120
330
1F
100
AcDbEntity
  8
0
  6
Continuous
 62
     7
370
    15
100
AcDbLine
 10
3.387425616
 20
7.4261828821
 30
0.0
 11
3.3893941533
 21
7.4261828821
 31
0.0
  0
LINE
  5
121
330
1F
100
AcDbEntity
  8
0
  6
Continuous
 62
     7
370
    15
100
AcDbLine
 10
5.0783705221
 20
12.7588602652
 30
0.0
 11
4.0271894087
 21
12.7588602652
 31
0.0
  0
ARC
  5
122
330
1F
100
AcDbEntity
  8
0
  6
Continuous
 62
     7
370
    15
100
AcDbCircle
 10
5.0783704991
 20
12.6013798658
 30
0.0
 40
0.1574803149606314
100
AcDbArc
 50
0.0
 51
90.0
  0
LINE
  5
123
330
1F
100
AcDbEntity
  8
0
  6
Continuous
 62
     7
370
    15
100
AcDbLine
 10
5.2358507895
 20
12.5994113872
 30
0.0
 11
5.2358507895
 21
12.6013799245
 31
0.0
  0
ARC
  5
124
330
1F
100
AcDbEntity
  8
0
  6
Continuous
 62
     7
370
    15
100
AcDbCircle
 10
5.4130161684
 20
12.5994113619
 30
0.0
 40
0.1771653543307092
100
AcDbArc
 50
180.0
 51
270.0
  0
LINE
  5
125
330
1F
100
AcDbEntity
  8
0
  6
Continuous
 62
     7
370
    15
100
AcDbLine
 10
5.4149846735
 20
12.4222459672
 30
0.0
 11
5.4130161362
 21
12.4222459672
 31
0.0
  0
ARC
  5
126
330
1F
100
AcDbEntity
  8
0
  6
Continuous
 62
     7
370
    15
100
AcDbCircle
 10
5.4149846723
 20
12.2647656926
 30
0.0
 40
0.1574803149606296
100
AcDbArc
 50
0.0
 51
90.0
  0
LINE
  5
127
330
1F
100
AcDbEntity
  8
0
  6
Continuous
 62
     7
370
    15
100
AcDbLine
 10
5.5724650143
 20
7.5246082784
 30
0.0
 11
5.5724650143
 21
12.2647656264
 31
0.0
  0
ARC
  5
128
330
1F
100
AcDbEntity
  8
0
  6
Continuous
 62
     7
370
    15
100
AcDbCircle
 10
5.4149846723
 20
7.5246082123
 30
0.0
 40
0.1574803149606305
100
AcDbArc
 50
270.0
 51
0.0
  0
LINE
  5
129
330
1F
100
AcDbEntity
  8
0
  6
Continuous
 62
     7
370
    15
100
AcDbLine
 10
5.1098665316
 20
7.3671279377
 30
0.0
 11
5.4149846735
 21
7.3671279377
 31
0.0
  0
ARC
  5
12A
330
1F
100
AcDbEntity
  8
0
  6
Continuous
 62
     7
370
    15
100
AcDbCircle
 10
5.1098665621
 20
7.189962543
 30
0.0
 40
0.1771653543307083
100
AcDbArc
 50
90.0
 51
180.0
  0
LINE
  5
12B
330
1F
100
AcDbEntity
  8
0
  6
Continuous
 62
     7
370
    15
100
AcDbLine
 10
4.9327012215
 20
7.1879939804
 30
0.0
 11
4.9327012215
 21
7.1899625176
 31
0.0
  0
ARC
  5
12C
330
1F
100
AcDbEntity
  8
0
  6
Continuous
 62
     7
370
    15
100
AcDbCircle
 10
4.7752208928
 20
7.187994039
 30
0.0
 40
0.1574803149606296
100
AcDbArc
 50
270.0
 51
0.0
  0
LINE
  5
12D
330
1F
100
AcDbEntity
  8
0
  6
Continuous
 62
     7
370
    15
100
AcDbLine
 10
3.7240397674
 20
7.0305136396
 30
0.0
 11
4.7752208807
 21
7.0305136396
 31
0.0
  0
ARC
  5
12E
330
1F
100
AcDbEntity
  8
0
  6
Continuous
 62
     7
370
    15
100
AcDbCircle
 10
3.7240397904
 20
7.187994039
 30
0.0
 40
0.1574803149606296
100
AcDbArc
 50
180.0
 51
270.0
  0
LINE
  5
12F
330
1F
100
AcDbEntity
  8
0
  6
Continuous
 62
     7
370
    15
100
AcDbLine
 10
3.5665595
 20
7.1899625176
 30
0.0
 11
3.5665595
 21
7.1879939804
 31
0.0
  0
ARC
  5
130
330
1F
100
AcDbEntity
  8
0
  6
Continuous
 62
     7
370
    15
100
AcDbCircle
 10
3.3893941211
 20
7.189962543
 30
0.0
 40
0.1771653543307088
100
AcDbArc
 50
0.0
 51
90.0
  0
LINE
  5
131
330
1F
100
AcDbEntity
  8
0
  6
Continuous
 62
     7
370
    15
100
AcDbLine
 10
3.387425616
 20
7.3671279377
 30
0.0
 11
3.3893941533
 21
7.3671279377
 31
0.0
  0
ARC
  5
132
330
1F
100
AcDbEntity
  8
0
  6
Continuous
 62
     7
370
    15
100
AcDbCircle
 10
3.3874256172
 20
7.5246082123
 30
0.0
 40
0.1574803149606305
100
AcDbArc
 50
180.0
 51
270.0
  0
LINE
  5
133
330
1F
100
AcDbEntity
  8
0
  6
Continuous
 62
     7
370
    15
100
AcDbLine
 10
3.2299452752
 20
12.2647656264
 30
0.0
 11
3.2299452752
 21
7.5246082784
 31
0.0
  0
ARC
  5
134
330
1F
100
AcDbEntity
  8
0
  6
Continuous
 62
     7
370
    15
100
AcDbCircle
 10
3.3874256172
 20
12.2647656926
 30
0.0
 40
0.1574803149606296
100
AcDbArc
 50
90.0
 51
180.0
  0
LINE
  5
135
330
1F
100
AcDbEntity
  8
0
  6
Continuous
 62
     7
370
    15
100
AcDbLine
 10
3.6925437579
 20
12.4222459672
 30
0.0
 11
3.387425616
 21
12.4222459672
 31
0.0
  0
ARC
  5
136
330
1F
100
AcDbEntity
  8
0
  6
Continuous
 62
     7
370
    15
100
AcDbCircle
 10
3.6925437274
 20
12.5994113619
 30
0.0
 40
0.1771653543307092
100
AcDbArc
 50
270.0
 51
0.0
  0
LINE
  5
137
330
1F
100
AcDbEntity
  8
0
  6
Continuous
 62
     7
370
    15
100
AcDbLine
 10
3.869709068
 20
12.6013799245
 30
0.0
 11
3.869709068
 21
12.5994113872
 31
0.0
  0
ARC
  5
138
330
1F
100
AcDbEntity
  8
0
  6
Continuous
 62
     7
370
    15
100
AcDbCircle
 10
4.0271893967
 20
12.6013798658
 30
0.0
 40
0.1574803149606314
100
AcDbArc
 50
90.0
 51
180.0
  0
ARC
  5
139
330
1F
100
AcDbEntity
  8
0
  6
Continuous
 62
     7
370
    15
100
AcDbCircle
 10
3.3874256172
 20
7.5246082123
 30
0.0
 40
0.0984251968504002
100
AcDbArc
 50
179.9999999997
 51
270.0
  0
ARC
  5
13A
330
1F
100
AcDbEntity
  8
0
  6
Continuous
 62
     7
370
    15
100
AcDbCircle
 10
3.7240397904
 20
7.187994039
 30
0.0
 40
0.0984251968503935
100
AcDbArc
 50
179.9999999984
 51
270.0
  0
LINE
  5
13B
330
1F
100
AcDbEntity
  8
0
  6
Continuous
 62
     7
370
    15
100
AcDbLine
 10
4.7752208807
 20
7.0895688774
 30
0.0
 11
3.7240397674
 21
7.0895688774
 31
0.0
  0
ARC
  5
13C
330
1F
100
AcDbEntity
  8
0
  6
Continuous
 62
     7
370
    15
100
AcDbCircle
 10
4.7752208928
 20
7.187994039
 30
0.0
 40
0.0984251968504406
100
AcDbArc
 50
270.0
 51
0.0000000016
  0
ARC
  5
13D
330
1F
100
AcDbEntity
  8
0
  6
Continuous
 62
     7
370
    15
100
AcDbCircle
 10
5.4149846723
 20
7.5246082123
 30
0.0
 40
0.0984251968504006
100
AcDbArc
 50
270.0
 51
0.0000000016
  0
LINE
  5
13E
330
1F
100
AcDbEntity
  8
0
  6
Continuous
 62
     7
370
    15
100
AcDbLine
 10
5.5134098498
 20
12.2647656264
 30
0.0
 11
5.5134098498
 21
7.5246082784
 31
0.0
  0
ARC
  5
13F
330
1F
100
AcDbEntity
  8
0
  6
Continuous
 62
     7
370
    15
100
AcDbCircle
 10
5.4149846723
 20
12.2647656926
 30
0.0
 40
0.0984251968504006
100
AcDbArc
 50
359.9999999997
 51
90.0
  0
ARC
  5
140
330
1F
100
AcDbEntity
  8
0
  6
Continuous
 62
     7
370
    15
100
AcDbCircle
 10
5.0783704991
 20
12.6013798658
 30
0.0
 40
0.0984251968504477
100
AcDbArc
 50
0.0000000016
 51
90.0
  0
LINE
  5
141
330
1F
100
AcDbEntity
  8
0
  6
Continuous
 62
     7
370
    15
100
AcDbLine
 10
4.0271894087
 20
12.6998050275
 30
0.0
 11
5.0783705221
 21
12.6998050275
 31
0.0
  0
ARC
  5
142
330
1F
100
AcDbEntity
  8
0
  6
Continuous
 62
     7
370
    15
100
AcDbCircle
 10
4.0271893967
 20
12.6013798658
 30
0.0
 40
0.0984251968504406
100
AcDbArc
 50
90.0
 51
179.9999999984
  0
ARC
  5
143
330
1F
100
AcDbEntity
  8
0
  6
Continuous
 62
     7
370
    15
100
AcDbCircle
 10
3.3874256172
 20
12.2647656926
 30
0.0
 40
0.0984251968504157
100
AcDbArc
 50
90.0
 51
179.9999999984
  0
LINE
  5
144
330
1F
100
AcDbEntity
  8
0
  6
Continuous
 62
     7
370
    15
100
AcDbLine
 10
3.2890004397
 20
7.5246082784
 30
0.0
 11
3.2890004397
 21
12.2647656264
 31
0.0
  0
ARC
  5
145
330
1F
100
AcDbEntity
  8
0
  6
Continuous
 62
     7
370
    15
100
AcDbCircle
 10
5.4149846723
 20
7.5246082123
 30
0.0
 40
0.0819322221150944
100
AcDbArc
 50
270.0
 51
0.000000002
  0
LINE
  5
146
330
1F
100
AcDbEntity
  8
0
  6
Continuous
 62
     7
370
    15
100
AcDbLine
 10
5.4969168603
 20
7.5246082784
 30
0.0
 11
5.5134098498
 21
7.5246082784
 31
0.0
  0
ARC
  5
147
330
1F
100
AcDbEntity
  8
0
  6
Continuous
 62
     7
370
    15
100
AcDbCircle
 10
4.0271893967
 20
12.6013798658
 30
0.0
 40
0.0819322221151522
100
AcDbArc
 50
90.0
 51
179.9999999992
  0
LINE
  5
148
330
1F
100
AcDbEntity
  8
0
  6
Continuous
 62
     7
370
    15
100
AcDbLine
 10
4.0271894087
 20
12.6998050275
 30
0.0
 11
4.0271894087
 21
12.6833119647
 31
0.0
  0
LINE
  5
149
330
1F
100
AcDbEntity
  8
0
  6
Continuous
 62
     7
370
    15
100
AcDbLine
 10
5.4969168603
 20
12.2647656264
 30
0.0
 11
5.4969168603
 21
7.5246082784
 31
0.0
  0
LINE
  5
14A
330
1F
100
AcDbEntity
  8
0
  6
Continuous
 62
     7
370
    15
100
AcDbLine
 10
5.5134098498
 20
12.2647656264
 30
0.0
 11
5.4969168603
 21
12.2647656264
 31
0.0
  0
ARC
  5
14B
330
1F
100
AcDbEntity
  8
0
  6
Continuous
 62
     7
370
    15
100
AcDbCircle
 10
4.7752208928
 20
7.187994039
 30
0.0
 40
0.0819322221151522
100
AcDbArc
 50
270.0
 51
0.0000000008
  0
LINE
  5
14C
330
1F
100
AcDbEntity
  8
0
  6
Continuous
 62
     7
370
    15
100
AcDbLine
 10
4.7752208807
 20
7.0895688774
 30
0.0
 11
4.7752208807
 21
7.1060619402
 31
0.0
  0
ARC
  5
14D
330
1F
100
AcDbEntity
  8
0
  6
Continuous
 62
     7
370
    15
100
AcDbCircle
 10
3.3874256172
 20
7.5246082123
 30
0.0
 40
0.0819322221151104
100
AcDbArc
 50
179.9999999996
 51
270.0
  0
LINE
  5
14E
330
1F
100
AcDbEntity
  8
0
  6
Continuous
 62
     7
370
    15
100
AcDbLine
 10
3.2890004397
 20
7.5246082784
 30
0.0
 11
3.3054934292
 21
7.5246082784
 31
0.0
  0
LINE
  5
14F
330
1F
100
AcDbEntity
  8
0
  6
Continuous
 62
     7
370
    15
100
AcDbLine
 10
3.3054934292
 20
12.2647656264
 30
0.0
 11
3.2890004397
 21
12.2647656264
 31
0.0
  0
LINE
  5
150
330
1F
100
AcDbEntity
  8
0
  6
Continuous
 62
     7
370
    15
100
AcDbLine
 10
3.3054934292
 20
7.5246082784
 30
0.0
 11
3.3054934292
 21
12.2647656264
 31
0.0
  0
LINE
  5
151
330
1F
100
AcDbEntity
  8
0
  6
Continuous
 62
     7
370
    15
100
AcDbLine
 10
5.0783705221
 20
12.6901840986
 30
0.0
 11
5.0783705221
 21
12.6998050275
 31
0.0
  0
LINE
  5
152
330
1F
100
AcDbEntity
  8
0
  6
Continuous
 62
     7
370
    15
100
AcDbLine
 10
4.9033952501
 20
12.6901840986
 30
0.0
 11
5.0783705221
 21
12.6901840986
 31
0.0
  0
LINE
  5
153
330
1F
100
AcDbEntity
  8
0
  6
Continuous
 62
     7
370
    15
100
AcDbLine
 10
4.8965231895
 20
12.6833119647
 30
0.0
 11
4.9033952501
 21
12.6901840986
 31
0.0
  0
LINE
  5
154
330
1F
100
AcDbEntity
  8
0
  6
Continuous
 62
     7
370
    15
100
AcDbLine
 10
4.0271894087
 20
12.6833119647
 30
0.0
 11
4.8965231895
 21
12.6833119647
 31
0.0
  0
ARC
  5
155
330
1F
100
AcDbEntity
  8
0
  6
Continuous
 62
     7
370
    15
100
AcDbCircle
 10
5.4149846723
 20
12.2647656926
 30
0.0
 40
0.0819322221151086
100
AcDbArc
 50
359.9999999996
 51
90.0
  0
LINE
  5
156
330
1F
100
AcDbEntity
  8
0
  6
Continuous
 62
     7
370
    15
100
AcDbLine
 10
3.7240397674
 20
7.0991898062
 30
0.0
 11
3.7240397674
 21
7.0895688774
 31
0.0
  0
LINE
  5
157
330
1F
100
AcDbEntity
  8
0
  6
Continuous
 62
     7
370
    15
100
AcDbLine
 10
3.8990150394
 20
7.0991898062
 30
0.0
 11
3.7240397674
 21
7.0991898062
 31
0.0
  0
LINE
  5
158
330
1F
100
AcDbEntity
  8
0
  6
Continuous
 62
     7
370
    15
100
AcDbLine
 10
3.9058871
 20
7.1060619402
 30
0.0
 11
3.8990150394
 21
7.0991898062
 31
0.0
  0
LINE
  5
159
330
1F
100
AcDbEntity
  8
0
  6
Continuous
 62
     7
370
    15
100
AcDbLine
 10
4.7752208807
 20
7.1060619402
 30
0.0
 11
3.9058871
 21
7.1060619402
 31
0.0
  0
ARC
  5
15A
330
1F
100
AcDbEntity
  8
0
  6
Continuous
 62
     7
370
    15
100
AcDbCircle
 10
3.3874256172
 20
12.2647656926
 30
0.0
 40
0.0819322221150944
100
AcDbArc
 50
90.0
 51
179.999999998
  0
ARC
  5
15B
330
1F
100
AcDbEntity
  8
0
  6
Continuous
 62
     7
370
    15
100
AcDbCircle
 10
3.7240397904
 20
7.187994039
 30
0.0
 40
0.0888042949214682
100
AcDbArc
 50
179.9999999983
 51
270.0
  0
ARC
  5
15C
330
1F
100
AcDbEntity
  8
0
  6
Continuous
 62
     7
370
    15
100
AcDbCircle
 10
5.0783704991
 20
12.6013798658
 30
0.0
 40
0.0888042949215215
100
AcDbArc
 50
0.0000000017
 51
90.0
  0
CIRCLE
  5
15D
330
1F
100
AcDbEntity
  8
0
  6
Continuous
 62
     7
370
    15
100
AcDbCircle
 10
3.6964807353
 20
12.5915373461
 30
0.0
 40
0.1614173228346614
  0
CIRCLE
  5
15E
330
1F
100
AcDbEntity
  8
0
  6
Continuous
 62
     7
370
    15
100
AcDbCircle
 10
5.1059295542
 20
7.1978365587
 30
0.0
 40
0.1614173228346631
  0
CIRCLE
  5
15F
330
1F
100
AcDbEntity
  8
0
  6
Continuous
 62
     7
370
    15
100
AcDbCircle
 10
5.424827192
 20
7.1781515193
 30
0.0
 40
0.0669291338582685
  0
CIRCLE
  5
160
330
1F
100
AcDbEntity
  8
0
  6
Continuous
 62
     7
370
    15
100
AcDbCircle
 10
3.3775830975
 20
12.6112223855
 30
0.0
 40
0.0669291338582672
  0
CIRCLE
  5
161
330
1F
100
AcDbEntity
  8
0
  6
Continuous
 62
     7
370
    15
100
AcDbCircle
 10
3.3775830975
 20
7.1781515193
 30
0.0
 40
0.0669291338582672
  0
CIRCLE
  5
162
330
1F
100
AcDbEntity
  8
0
  6
Continuous
 62
     7
370
    15
100
AcDbCircle
 10
5.424827192
 20
12.6112223855
 30
0.0
 40
0.0669291338582685
  0
ELLIPSE
  5
163
330
1F
100
AcDbEntity
  8
0
  6
Continuous
 62
     7
370
    15
100
AcDbEllipse
 10
3.3382430046
 20
7.1388114264
 30
0.0
 11
0.1392366514113355
 21
0.1392366514113341
 31
0.0
210
0.0
220
0.0
230
1.0
 40
0.9996954599
 41
2.356346783439931
 42
3.926838523739679
  0
LINE
  5
164
330
1F
100
AcDbEntity
  8
0
  6
Continuous
 62
     7
370
    15
100
AcDbLine
 10
3.3381830715
 20
12.8474429753
 30
0.0
 11
5.464227218
 21
12.8474429753
 31
0.0
  0
ELLIPSE
  5
165
330
1F
100
AcDbEntity
  8
0
  6
Continuous
 62
     7
370
    15
100
AcDbEllipse
 10
3.3382430046
 20
12.6505624784
 30
0.0
 11
0.139236651411335
 21
-0.1392366514113341
 31
0.0
210
0.0
220
0.0
230
1.0
 40
0.9996954599
 41
2.35634678343992
 42
3.92683852373966
  0
LINE
  5
166
330
1F
100
AcDbEntity
  8
0
  6
Continuous
 62
     7
370
    15
100
AcDbLine
 10
5.6610477243
 20
12.6506223956
 30
0.0
 11
5.6610477243
 21
7.1387515092
 31
0.0
  0
LINE
  5
167
330
1F
100
AcDbEntity
  8
0
  6
Continuous
 62
     7
370
    15
100
AcDbLine
 10
3.1413625652
 20
7.1387515092
 30
0.0
 11
3.1413625652
 21
12.6506223956
 31
0.0
  0
LINE
  5
168
330
1F
100
AcDbEntity
  8
0
  6
Continuous
 62
     7
370
    15
100
AcDbLine
 10
5.464227218
 20
6.9419309296
 30
0.0
 11
3.3381830715
 21
6.9419309296
 31
0.0
  0
ELLIPSE
  5
169
330
1F
100
AcDbEntity
  8
0
  6
Continuous
 62
     7
370
    15
100
AcDbEllipse
 10
5.4641672849
 20
12.6505624784
 30
0.0
 11
-0.1392366514113341
 21
-0.1392366514113359
 31
0.0
210
0.0
220
0.0
230
1.0
 40
0.9996954599
 41
2.356346783439923
 42
3.92683852373967
  0
ELLIPSE
  5
16A
330
1F
100
AcDbEntity
  8
0
  6
Continuous
 62
     7
370
    15
100
AcDbEllipse
 10
5.4641672849
 20
7.1388114264
 30
0.0
 11
-0.139236651411335
 21
0.139236651411335
 31
0.0
210
0.0
220
0.0
230
1.0
 40
0.9996954599
 41
2.356346783439924
 42
3.926838523739676
  0
CIRCLE
  5
16B
330
1F
100
AcDbEntity
  8
0
  6
Continuous
 62
     7
370
    15
100
AcDbCircle
 10
3.6964807353
 20
12.5915373461
 30
0.0
 40
0.1466423663009437
  0
CIRCLE
  5
16C
330
1F
100
AcDbEntity
  8
0
  6
Continuous
 62
     7
370
    15
100
AcDbCircle
 10
5.1059295542
 20
7.1978365587
 30
0.0
 40
0.1466423663009451
  0
ELLIPSE
  5
16D
330
1F
100
AcDbEntity
  8
0
  6
Continuous
 62
     7
370
    15
100
AcDbEllipse
 10
3.7730115801
 20
7.3098004744
 30
0.0
 11
0.08911145690325384
 21
0.08911145690325384
 31
0.0
210
0.0
220
0.0
230
1.0
 40
0.9996954599
 41
5.497939437029733
 42
7.06843117732945
  0
LINE
  5
16E
330
1F
100
AcDbEntity
  8
0
  6
Continuous
 62
     7
370
    15
100
AcDbLine
 10
3.8990150394
 20
7.0991898062
 30
0.0
 11
3.8990150394
 21
7.3098388395
 31
0.0
  0
CIRCLE
  5
16F
330
1F
100
AcDbEntity
  8
0
  6
Continuous
 62
     7
370
    15
100
AcDbCircle
 10
3.7634098692
 20
7.2765767162
 30
0.0
 40
0.0629921259842519
  0
LINE
  5
170
330
1F
100
AcDbEntity
  8
0
  6
Continuous
 62
     7
370
    15
100
AcDbLine
 10
3.9058871
 20
7.3167109734
 30
0.0
 11
3.8990150394
 21
7.3098388395
 31
0.0
  0
LINE
  5
171
330
1F
100
AcDbEntity
  8
0
  6
Continuous
 62
     7
370
    15
100
AcDbLine
 10
3.9058871
 20
7.3167109734
 30
0.0
 11
3.9058871
 21
7.1060619402
 31
0.0
  0
LINE
  5
172
330
1F
100
AcDbEntity
  8
0
  6
Continuous
 62
     7
370
    15
100
AcDbLine
 10
4.8965231895
 20
12.4726629314
 30
0.0
 11
4.9033952501
 21
12.4795350654
 31
0.0
  0
LINE
  5
173
330
1F
100
AcDbEntity
  8
0
  6
Continuous
 62
     7
370
    15
100
AcDbLine
 10
4.8965231895
 20
12.4726629314
 30
0.0
 11
4.8965231895
 21
12.6833119647
 31
0.0
  0
LINE
  5
174
330
1F
100
AcDbEntity
  8
0
  6
Continuous
 62
     7
370
    15
100
AcDbLine
 10
4.9033952501
 20
12.6901840986
 30
0.0
 11
4.9033952501
 21
12.4795350654
 31
0.0
  0
ELLIPSE
  5
175
330
1F
100
AcDbEntity
  8
0
  6
Continuous
 62
     7
370
    15
100
AcDbEllipse
 10
5.0293987093
 20
12.4795734304
 30
0.0
 11
-0.0891114569032556
 21
-0.08911145690325382
 31
0.0
210
0.0
220
0.0
230
1.0
 40
0.9996954599
 41
5.497939437029747
 42
7.068431177329466
  0
CIRCLE
  5
176
330
1F
100
AcDbEntity
  8
0
  6
Continuous
 62
     7
370
    15
100
AcDbCircle
 10
5.0390004203
 20
12.5127971886
 30
0.0
 40
0.0629921259842527
  0
ELLIPSE
  5
177
330
1F
100
AcDbEntity
  8
0
  6
Continuous
 62
     7
370
    15
100
AcDbEllipse
 10
5.0225266365
 20
12.4727013576
 30
0.0
 11
-0.08911145690325473
 21
-0.08911145690325384
 31
0.0
210
0.0
220
0.0
230
1.0
 40
0.9996954599
 41
5.497939437029736
 42
7.068431177329454
  0
ELLIPSE
  5
178
330
1F
100
AcDbEntity
  8
0
  6
Continuous
 62
     7
370
    15
100
AcDbEllipse
 10
3.779883653
 20
7.3166725472
 30
0.0
 11
0.08911145690325384
 21
0.08911145690325384
 31
0.0
210
0.0
220
0.0
230
1.0
 40
0.9996954599
 41
5.497939437029731
 42
7.068431177329451
  0
CIRCLE
  5
179
330
1F
100
AcDbEntity
  8
0
  6
Continuous
 62
     7
370
    15
100
AcDbCircle
 10
5.1059295542
 20
7.1978365587
 30
0.0
 40
0.0885826771653537
  0
CIRCLE
  5
17A
330
1F
100
AcDbEntity
  8
0
  6
Continuous
 62
     7
370
    15
100
AcDbCircle
 10
3.6964807353
 20
12.5915373461
 30
0.0
 40
0.0885826771653542
  0
DIMENSION
  5
17B
330
1F
100
AcDbEntity
  8
0
  6
Continuous
 62
     7
370
     0
100
AcDbDimension
  2
_D
 10
7.6800503636
 20
12.5127971886
 30
0.0
 11
7.6800503636
 21
9.8946869524
 31
0.0
 70
   160
  1
<>
 71
     2
 42
-1.0
  3
SLDDIMSTYLE0
100
AcDbAlignedDimension
 13
3.7634098692
 23
7.2765767162
 33
0.0
 14
5.0390004203
 24
12.5127971886
 34
0.0
 50
90.0
100
AcDbRotatedDimension
  0
DIMENSION
  5
190
330
1F
100
AcDbEntity
  8
0
  6
Continuous
 62
     7
370
     0
100
AcDbDimension
  2
_D_1
 10
3.7634098692
 20
13.6832387488
 30
0.0
 11
4.4012051447
 21
13.6832387488
 31
0.0
 70
   160
  1
<>
 71
     2
 42
-1.0
  3
SLDDIMSTYLE0
100
AcDbAlignedDimension
 13
5.0390004203
 23
12.5127971886
 33
0.0
 14
3.7634098692
 24
7.2765767162
 34
0.0
100
AcDbRotatedDimension
  0
DIMENSION
  5
1A4
330
1F
100
AcDbEntity
  8
0
  6
Continuous
 62
     7
370
     0
100
AcDbDimension
  2
_D_2
 10
4.6820821474
 20
12.6833120879
 30
0.0
 11
4.6820821474
 21
9.9477277587
 31
0.0
 70
   160
  1
<>
 71
     2
 42
-1.0
  3
SLDDIMSTYLE0
100
AcDbAlignedDimension
 13
4.7752208928
 23
7.1060618169
 33
0.0
 14
4.0271893967
 24
12.6833120879
 34
0.0
 50
90.0
100
AcDbRotatedDimension
  0
DIMENSION
  5
1B8
330
1F
100
AcDbEntity
  8
0
  6
Continuous
 62
     7
370
     0
100
AcDbDimension
  2
_D_3
 10
5.4969168944
 20
11.2188300418
 30
0.0
 11
4.2279428123
 21
11.2188300418
 31
0.0
 70
   160
  1
<>
 71
     2
 42
-1.0
  3
SLDDIMSTYLE0
100
AcDbAlignedDimension
 13
3.3054933951
 23
12.2647656926
 33
0.0
 14
5.4969168944
 24
12.2647656926
 34
0.0
 50
0.0
100
AcDbRotatedDimension
  0
DIMENSION
  5
1CC
330
1F
100
AcDbEntity
  8
0
  6
Continuous
 62
     7
370
     0
100
AcDbDimension
  2
_D_4
 10
6.8389853732
 20
7.4426759901
 30
0.0
 11
6.8389853732
 21
9.8946869524
 31
0.0
 70
   160
  1
<>
 71
     2
 42
-1.0
  3
SLDDIMSTYLE1
100
AcDbAlignedDimension
 13
5.4149846723
 23
12.3466979147
 33
0.0
 14
5.1098665621
 24
7.4426759901
 34
0.0
 50
90.0
100
AcDbRotatedDimension
  0
DIMENSION
  5
1E1
330
1F
100
AcDbEntity
  8
0
  6
Continuous
 62
     7
370
     0
100
AcDbDimension
  2
_D_5
 10
4.8571531149
 20
5.7095509303
 30
0.0
 11
4.3815201054
 21
5.7095509303
 31
0.0
 70
   160
  1
<>
 71
     2
 42
-1.0
  3
SLDDIMSTYLE2
100
AcDbAlignedDimension
 13
3.9058870959
 23
7.3167109262
 33
0.0
 14
4.8571531149
 24
7.189962543
 34
0.0
100
AcDbRotatedDimension
  0
DIMENSION
  5
1F6
330
1F
100
AcDbEntity
  8
0
  6
Continuous
 62
     7
370
     0
100
AcDbDimension
  2
_D_6
 10
4.8571531149
 20
4.9229283477
 30
0.0
 11
4.2461943052
 21
4.9229283477
 31
0.0
 70
   160
  1
<>
 71
     2
 42
-1.0
  3
SLDDIMSTYLE2
100
AcDbAlignedDimension
 13
3.6352354955
 23
7.189962543
 33
0.0
 14
4.8571531149
 24
7.189962543
 34
0.0
 50
0.0
100
AcDbRotatedDimension
  0
DIMENSION
  5
20A
330
1F
100
AcDbEntity
  8
0
  6
Continuous
 62
     7
370
     0
100
AcDbDimension
  2
_D_7
 10
1.8310213432
 20
7.4426759901
 30
0.0
 11
1.8310213432
 21
9.8946869524
 31
0.0
 70
   160
  1
<>
 71
     2
 42
-1.0
  3
SLDDIMSTYLE1
100
AcDbAlignedDimension
 13
3.3874256172
 23
12.3466979147
 33
0.0
 14
3.3874256172
 24
7.4426759901
 34
0.0
 50
90.0
100
AcDbRotatedDimension
  0
INSERT
  5
231
102
{ACAD_REACTORS
330
233
102
}
330
1F
100
AcDbEntity
  8
0
  6
Continuous
 62
     7
370
     0
100
AcDbBlockReference
  2
SW_NOTE_9
 10
5.6270798858
 20
6.0074678449
 30
0.0
  0
LEADER
  5
233
330
1F
100
AcDbEntity
  8
0
  6
Continuous
 62
     7
370
     0
100
AcDbLeader
  3
SLDDIMSTYLE3
 73
     2
 76
     3
 10
3.8224859221
 20
7.2547128671
 30
0.0
 10
5.2520798858
 20
6.0074678449
 30
0.0
 10
5.6270798858
 20
6.0074678449
 30
0.0
340
231
  0
LINE
  5
234
330
1F
100
AcDbEntity
  8
0
  6
PHANTOM
 62
     7
370
    30
100
AcDbLine
 10
3.7653699277
 20
6.2168947997
 30
0.0
 11
3.7653699277
 21
13.4406354945
 31
0.0
  0
LINE
  5
235
330
1F
100
AcDbEntity
  8
0
  6
Continuous
 62
     7
370
    30
100
AcDbLine
 10
3.7653699277
 20
6.2168947997
 30
0.0
 11
3.0153699277
 21
6.2168947997
 31
0.0
  0
SOLID
  5
236
330
1F
100
AcDbEntity
  8
0
  6
Continuous
 62
     7
370
    30
100
AcDbTrace
 10
3.0153699277
 20
6.2168947997
 30
0.0
 11
3.3903699277
 21
6.1568947997
 31
0.0
 12
3.3903699277
 22
6.2768947997
 32
0.0
 13
3.3903699277
 23
6.2768947997
 33
0.0
  0
LINE
  5
237
330
1F
100
AcDbEntity
  8
0
  6
Continuous
 62
     7
370
    30
100
AcDbLine
 10
3.7653699277
 20
13.4406354945
 30
0.0
 11
3.0153699277
 21
13.4406354945
 31
0.0
  0
SOLID
  5
238
330
1F
100
AcDbEntity
  8
0
  6
Continuous
 62
     7
370
    30
100
AcDbTrace
 10
3.0153699277
 20
13.4406354945
 30
0.0
 11
3.3903699277
 21
13.3806354945
 31
0.0
 12
3.3903699277
 22
13.5006354945
 32
0.0
 13
3.3903699277
 23
13.5006354945
 33
0.0
  0
MTEXT
  5
239
330
1F
100
AcDbEntity
  8
0
  6
Continuous
 62
     7
100
AcDbMText
 10
2.8639776644
 20
6.2758775364
 30
0.0
 40
0.1875
 41
0.0
 71
     1
 72
     1
  1
A
  7
SLDTEXTSTYLE0
 73
     1
 44
1.0
  0
MTEXT
  5
23A
330
1F
100
AcDbEntity
  8
0
  6
Continuous
 62
     7
100
AcDbMText
 10
2.8639776644
 20
13.4996182312
 30
0.0
 40
0.1875
 41
0.0
 71
     1
 72
     1
  1
A
  7
SLDTEXTSTYLE0
 73
     1
 44
1.0
  0
LINE
  5
23B
330
1F
100
AcDbEntity
  8
0
  6
PHANTOM
 62
     7
370
    30
100
AcDbLine
 10
2.492428533
 20
9.9845550469
 30
0.0
 11
6.1908543408
 21
9.9845550469
 31
0.0
  0
LINE
  5
23C
330
1F
100
AcDbEntity
  8
0
  6
Continuous
 62
     7
370
    30
100
AcDbLine
 10
2.492428533
 20
9.9845550469
 30
0.0
 11
2.492428533
 21
10.7345550469
 31
0.0
  0
SOLID
  5
23D
330
1F
100
AcDbEntity
  8
0
  6
Continuous
 62
     7
370
    30
100
AcDbTrace
 10
2.492428533
 20
10.7345550469
 30
0.0
 11
2.432428533
 21
10.3595550469
 31
0.0
 12
2.552428533
 22
10.3595550469
 32
0.0
 13
2.552428533
 23
10.3595550469
 33
0.0
  0
LINE
  5
23E
330
1F
100
AcDbEntity
  8
0
  6
Continuous
 62
     7
370
    30
100
AcDbLine
 10
6.1908543408
 20
9.9845550469
 30
0.0
 11
6.1908543408
 21
10.7345550469
 31
0.0
  0
SOLID
  5
23F
330
1F
100
AcDbEntity
  8
0
  6
Continuous
 62
     7
370
    30
100
AcDbTrace
 10
6.1908543408
 20
10.7345550469
 30
0.0
 11
6.1308543408
 21
10.3595550469
 31
0.0
 12
6.2508543408
 22
10.3595550469
 32
0.0
 13
6.2508543408
 23
10.3595550469
 33
0.0
  0
MTEXT
  5
240
330
1F
100
AcDbEntity
  8
0
  6
Continuous
 62
     7
100
AcDbMText
 10
2.4185623433
 20
10.9896013022
 30
0.0
 40
0.1875
 41
0.0
 71
     1
 72
     1
  1
B
  7
SLDTEXTSTYLE0
 73
     1
 44
1.0
  0
MTEXT
  5
241
330
1F
100
AcDbEntity
  8
0
  6
Continuous
 62
     7
100
AcDbMText
 10
6.1343024757
 20
10.9982325221
 30
0.0
 40
0.1875
 41
0.0
 71
     1
 72
     1
  1
B
  7
SLDTEXTSTYLE0
 73
     1
 44
1.0
  0
ARC
  5
242
330
1F
100
AcDbEntity
  8
0
  6
Continuous
 62
     7
370
    15
100
AcDbCircle
 10
20.8171360472
 20
7.5169206428
 30
0.0
 40
0.059055118110237
100
AcDbArc
 50
90.0
 51
180.0
  0
ARC
  5
243
330
1F
100
AcDbEntity
  8
0
  6
Continuous
 62
     7
370
    15
100
AcDbCircle
 10
21.784343438
 20
7.5449757609
 30
0.0
 40
0.0310000000000006
100
AcDbArc
 50
315.0
 51
90.0
  0
ARC
  5
244
330
1F
100
AcDbEntity
  8
0
  6
Continuous
 62
     7
370
    15
100
AcDbCircle
 10
21.9498695341
 20
7.3722709693
 30
0.0
 40
0.0310000000000002
100
AcDbArc
 50
29.8378000838
 51
135.0
  0
ARC
  5
245
330
1F
100
AcDbEntity
  8
0
  6
Continuous
 62
     7
370
    15
100
AcDbCircle
 10
22.2108368346
 20
7.1864156802
 30
0.0
 40
0.0590551181102361
100
AcDbArc
 50
0.0
 51
88.0238917143
  0
ARC
  5
246
330
1F
100
AcDbEntity
  8
0
  6
Continuous
 62
     7
370
    15
100
AcDbCircle
 10
22.2108368346
 20
2.4342434774
 30
0.0
 40
0.059055118110237
100
AcDbArc
 50
270.0
 51
0.0
  0
ARC
  5
247
330
1F
100
AcDbEntity
  8
0
  6
Continuous
 62
     7
370
    15
100
AcDbCircle
 10
21.5769785669
 20
2.103534816
 30
0.0
 40
0.059055118110237
100
AcDbArc
 50
270.0
 51
0.0
  0
ARC
  5
248
330
1F
100
AcDbEntity
  8
0
  6
Continuous
 62
     7
370
    15
100
AcDbCircle
 10
20.6097711761
 20
2.0754796979
 30
0.0
 40
0.0310000000000017
100
AcDbArc
 50
135.0
 51
270.0
  0
ARC
  5
249
330
1F
100
AcDbEntity
  8
0
  6
Continuous
 62
     7
370
    15
100
AcDbCircle
 10
20.44424508
 20
2.2481844895
 30
0.0
 40
0.0310000000000018
100
AcDbArc
 50
209.8378000838
 51
315.0
  0
ARC
  5
24A
330
1F
100
AcDbEntity
  8
0
  6
Continuous
 62
     7
370
    15
100
AcDbCircle
 10
20.1832777795
 20
2.4340397785
 30
0.0
 40
0.059055118110237
100
AcDbArc
 50
180.0
 51
268.0238917143
  0
ARC
  5
24B
330
1F
100
AcDbEntity
  8
0
  6
Continuous
 62
     7
370
    15
100
AcDbCircle
 10
20.1832777795
 20
7.1862119813
 30
0.0
 40
0.059055118110237
100
AcDbArc
 50
90.0
 51
180.0
  0
LINE
  5
24C
330
1F
100
AcDbEntity
  8
0
  6
Continuous
 62
     7
370
    15
100
AcDbLine
 10
20.4903643842
 20
7.2452671063
 30
0.0
 11
20.1832777783
 21
7.2452671063
 31
0.0
  0
LINE
  5
24D
330
1F
100
AcDbEntity
  8
0
  6
Continuous
 62
     7
370
    15
100
AcDbLine
 10
20.1242226872
 20
7.1862120151
 30
0.0
 11
20.1242226872
 21
2.434039726
 31
0.0
  0
ARC
  5
24E
330
1F
100
AcDbEntity
  8
0
  6
Continuous
 62
     7
370
    15
100
AcDbCircle
 10
20.1714667559
 20
2.0917237924
 30
0.0
 40
0.2834645669291341
100
AcDbArc
 50
29.8378000838
 51
88.0238917143
  0
LINE
  5
24F
330
1F
100
AcDbEntity
  8
0
  6
Continuous
 62
     7
370
    15
100
AcDbLine
 10
20.466165397
 20
2.2262642995
 30
0.0
 11
20.4946560946
 21
2.2547548504
 31
0.0
  0
ARC
  5
250
330
1F
100
AcDbEntity
  8
0
  6
Continuous
 62
     7
370
    15
100
AcDbCircle
 10
20.5572935275
 20
2.1921174932
 30
0.0
 40
0.0885826771653536
100
AcDbArc
 50
315.0
 51
135.0
  0
LINE
  5
251
330
1F
100
AcDbEntity
  8
0
  6
Continuous
 62
     7
370
    15
100
AcDbLine
 10
20.6199309341
 20
2.1294800843
 30
0.0
 11
20.587850868
 21
2.0974000549
 31
0.0
  0
LINE
  5
252
330
1F
100
AcDbEntity
  8
0
  6
Continuous
 62
     7
370
    15
100
AcDbLine
 10
20.6097711581
 20
2.0444798129
 30
0.0
 11
21.5769785815
 21
2.0444798129
 31
0.0
  0
LINE
  5
253
330
1F
100
AcDbEntity
  8
0
  6
Continuous
 62
     7
370
    15
100
AcDbLine
 10
21.6360336726
 20
2.1035347573
 30
0.0
 11
21.6360336726
 21
2.1074718318
 31
0.0
  0
ARC
  5
254
330
1F
100
AcDbEntity
  8
0
  6
Continuous
 62
     7
370
    15
100
AcDbCircle
 10
21.9037502204
 20
2.1074718239
 30
0.0
 40
0.2677165354330713
100
AcDbArc
 50
90.0
 51
180.0
  0
LINE
  5
255
330
1F
100
AcDbEntity
  8
0
  6
Continuous
 62
     7
370
    15
100
AcDbLine
 10
21.9037502299
 20
2.3751883525
 30
0.0
 11
22.2108368358
 21
2.3751883525
 31
0.0
  0
LINE
  5
256
330
1F
100
AcDbEntity
  8
0
  6
Continuous
 62
     7
370
    15
100
AcDbLine
 10
22.2698919269
 20
2.4342434436
 30
0.0
 11
22.2698919269
 21
7.1864157328
 31
0.0
  0
ARC
  5
257
330
1F
100
AcDbEntity
  8
0
  6
Continuous
 62
     7
370
    15
100
AcDbCircle
 10
22.2226478582
 20
7.5287316664
 30
0.0
 40
0.2834645669291379
100
AcDbArc
 50
209.8378000838
 51
268.0238917143
  0
LINE
  5
258
330
1F
100
AcDbEntity
  8
0
  6
Continuous
 62
     7
370
    15
100
AcDbLine
 10
21.9279492171
 20
7.3941911592
 30
0.0
 11
21.8994585195
 21
7.3657006083
 31
0.0
  0
ARC
  5
259
330
1F
100
AcDbEntity
  8
0
  6
Continuous
 62
     7
370
    15
100
AcDbCircle
 10
21.8368210866
 20
7.4283379656
 30
0.0
 40
0.0885826771653539
100
AcDbArc
 50
135.0
 51
315.0
  0
LINE
  5
25A
330
1F
100
AcDbEntity
  8
0
  6
Continuous
 62
     7
370
    15
100
AcDbLine
 10
21.77418368
 20
7.4909753745
 30
0.0
 11
21.8062637461
 21
7.5230554039
 31
0.0
  0
LINE
  5
25B
330
1F
100
AcDbEntity
  8
0
  6
Continuous
 62
     7
370
    15
100
AcDbLine
 10
21.784343456
 20
7.5759756459
 30
0.0
 11
20.8171360326
 21
7.5759756459
 31
0.0
  0
LINE
  5
25C
330
1F
100
AcDbEntity
  8
0
  6
Continuous
 62
     7
370
    15
100
AcDbLine
 10
20.7580809415
 20
7.5169207014
 30
0.0
 11
20.7580809415
 21
7.5129836269
 31
0.0
  0
ARC
  5
25D
330
1F
100
AcDbEntity
  8
0
  6
Continuous
 62
     7
370
    15
100
AcDbCircle
 10
20.4903643937
 20
7.5129836349
 30
0.0
 40
0.2677165354330704
100
AcDbArc
 50
270.0
 51
0.0
  0
DIMENSION
  5
25E
330
1F
100
AcDbEntity
  8
0
  6
Continuous
 62
     7
370
     0
100
AcDbDimension
  2
_D_8
 10
22.2698919527
 20
9.0570808069
 30
0.0
 11
21.1970573071
 21
9.0570808069
 31
0.0
 70
   160
  1
<>
 71
     2
 42
-1.0
  3
SLDDIMSTYLE0
100
AcDbAlignedDimension
 13
20.1242226614
 23
7.1862119813
 33
0.0
 14
22.2698919527
 24
7.1864156802
 34
0.0
 50
0.0
100
AcDbRotatedDimension
  0
DIMENSION
  5
272
330
1F
100
AcDbEntity
  8
0
  6
Continuous
 62
     7
370
     0
100
AcDbDimension
  2
_D_9
 10
23.8750154776
 20
2.0444796979
 30
0.0
 11
23.8750154776
 21
4.8102277294
 31
0.0
 70
   160
  1
<>
 71
     2
 42
-1.0
  3
SLDDIMSTYLE0
100
AcDbAlignedDimension
 13
21.784343438
 23
7.5759757609
 33
0.0
 14
21.5769785669
 24
2.0444796979
 34
0.0
 50
90.0
100
AcDbRotatedDimension
  0
DIMENSION
  5
286
330
1F
100
AcDbEntity
  8
0
  6
Continuous
 62
     7
370
     0
100
AcDbDimension
  2
_D_10
 10
21.8368210866
 20
5.1597817809
 30
0.0
 11
21.1970573071
 21
5.1597817809
 31
0.0
 70
   160
  1
<>
 71
     2
 42
-1.0
  3
SLDDIMSTYLE2
100
AcDbAlignedDimension
 13
20.5572935275
 23
2.1921174932
 33
0.0
 14
21.8368210866
 24
7.4283379656
 34
0.0
100
AcDbRotatedDimension
  0
DIMENSION
  5
29A
330
1F
100
AcDbEntity
  8
0
  6
Continuous
 62
     7
370
     0
100
AcDbDimension
  2
_D_11
 10
22.9240139449
 20
7.4283379656
 30
0.0
 11
22.9240139449
 21
4.8102277294
 31
0.0
 70
   160
  1
<>
 71
     2
 42
-1.0
  3
SLDDIMSTYLE0
100
AcDbAlignedDimension
 13
20.5572935275
 23
2.1921174932
 33
0.0
 14
21.8368210866
 24
7.4283379656
 34
0.0
 50
90.0
100
AcDbRotatedDimension
  0
DIMENSION
  5
2AE
330
1F
100
AcDbEntity
  8
0
  6
Continuous
 62
     7
370
     0
100
AcDbDimension
  2
_D_12
 10
19.4364162424
 20
7.5759757609
 30
0.0
 11
19.4364162424
 21
8.1655289884
 31
0.0
 70
   160
  1
<>
 71
     2
 42
-1.0
  3
SLDDIMSTYLE2
100
AcDbAlignedDimension
 13
20.1832777795
 23
7.2452670994
 33
0.0
 14
20.8171360472
 24
7.5759757609
 34
0.0
 50
90.0
100
AcDbRotatedDimension
  0
DIMENSION
  5
2C3
330
1F
100
AcDbEntity
  8
0
  6
Continuous
 62
     7
370
     0
100
AcDbDimension
  2
_D_13
 10
20.1242226614
 20
8.2764520454
 30
0.0
 11
21.5736602894
 21
8.2764520454
 31
0.0
 70
   160
  1
<>
 71
     2
 42
-1.0
  3
SLDDIMSTYLE0
100
AcDbAlignedDimension
 13
20.7580809291
 23
7.5169206428
 33
0.0
 14
20.1242226614
 24
7.1862119813
 34
0.0
 50
0.0
100
AcDbRotatedDimension
  0
DIMENSION
  5
2D7
330
1F
100
AcDbEntity
  8
0
  6
Continuous
 62
     7
370
     0
100
AcDbDimension
  2
_D_14
 10
22.2226478582
 20
7.5287316664
 30
0.0
 11
23.9937949407
 21
8.0687277961
 31
0.0
 70
   164
  1
<>
 71
     1
 42
-1.0
  3
SLDDIMSTYLE4
100
AcDbRadialDimension
 15
22.4833228046
 25
7.640090245
 35
0.0
 40
0.0
  0
DIMENSION
  5
2E8
330
1F
100
AcDbEntity
  8
0
  6
Continuous
 62
     7
370
     0
100
AcDbDimension
  2
_D_15
 10
20.1714667559
 20
2.0917237924
 30
0.0
 11
18.4967414434
 21
1.0578166037
 31
0.0
 70
   164
  1
<>
 71
     1
 42
-1.0
  3
SLDDIMSTYLE5
100
AcDbRadialDimension
 15
20.3874186124
 25
2.2753455677
 35
0.0
 40
0.0
  0
DIMENSION
  5
2F9
330
1F
100
AcDbEntity
  8
0
  6
Continuous
 62
     7
370
     0
100
AcDbDimension
  2
_D_16
 10
21.9037502204
 20
2.1074718239
 30
0.0
 11
23.7742863206
 21
1.0578166037
 31
0.0
 70
   164
  1
<>
 71
     1
 42
-1.0
  3
SLDDIMSTYLE5
100
AcDbRadialDimension
 15
21.6887824064
 25
2.2670368021
 35
0.0
 40
0.0
  0
DIMENSION
  5
309
330
1F
100
AcDbEntity
  8
0
  6
Continuous
 62
     7
370
     0
100
AcDbDimension
  2
_D_17
 10
22.2698919527
 20
3.2507827987
 30
0.0
 11
21.0118835736
 21
3.2507827987
 31
0.0
 70
   160
  1
<>
 71
     2
 42
-1.0
  3
SLDDIMSTYLE0
100
AcDbAlignedDimension
 13
21.636033685
 23
2.103534816
 33
0.0
 14
22.2698919527
 24
2.4342434774
 34
0.0
 50
0.0
100
AcDbRotatedDimension
  0
DIMENSION
  5
31C
330
1F
100
AcDbEntity
  8
0
  6
Continuous
 62
     7
370
     0
100
AcDbDimension
  2
_D_18
 10
20.1242226614
 20
1.5236151988
 30
0.0
 11
21.4133636878
 21
1.5236151988
 31
0.0
 70
   160
  1
<>
 71
     2
 42
-1.0
  3
SLDDIMSTYLE2
100
AcDbAlignedDimension
 13
20.5572935275
 23
2.1921174932
 33
0.0
 14
20.1242226614
 24
2.4340397785
 34
0.0
 50
0.0
100
AcDbRotatedDimension
  0
DIMENSION
  5
330
330
1F
100
AcDbEntity
  8
0
  6
Continuous
 62
     7
370
     0
100
AcDbDimension
  2
_D_19
 10
19.4145882704
 20
2.1921174932
 30
0.0
 11
19.4145882704
 21
2.6990003129
 31
0.0
 70
   160
  1
<>
 71
     2
 42
-1.0
  3
SLDDIMSTYLE2
100
AcDbAlignedDimension
 13
20.6097711761
 23
2.0444796979
 33
0.0
 14
20.5572935275
 24
2.1921174932
 34
0.0
 50
90.0
100
AcDbRotatedDimension
  0
DIMENSION
  5
345
330
1F
100
AcDbEntity
  8
0
  6
Continuous
 62
     7
370
     0
100
AcDbDimension
  2
_D_20
 10
21.8368210866
 20
7.4283379656
 30
0.0
 11
23.1695229206
 21
8.6817940128
 31
0.0
 70
   164
  1
<>
 71
     1
 42
-1.0
  3
SLDDIMSTYLE5
100
AcDbRadialDimension
 15
21.7871656153
 25
7.3549811332
 35
0.0
 40
0.0
  0
DIMENSION
  5
355
330
1F
100
AcDbEntity
  8
0
  6
Continuous
 62
     7
370
     0
100
AcDbDimension
  2
_D_21
 10
23.481490443
 20
2.3751883593
 30
0.0
 11
23.481490443
 21
3.0189673642
 31
0.0
 70
   160
  1
<>
 71
     2
 42
-1.0
  3
SLDDIMSTYLE2
100
AcDbAlignedDimension
 13
21.5769785669
 23
2.0444796979
 33
0.0
 14
22.2108368346
 24
2.3751883593
 34
0.0
 50
90.0
100
AcDbRotatedDimension
  0
INSERT
  5
375
330
1F
100
AcDbEntity
  8
0
  6
Continuous
 62
     7
370
     0
100
AcDbBlockReference
  2
SW_CENTERMARKSYMBOL_0
 10
21.8368210866
 20
7.4283379656
 30
0.0
  0
INSERT
  5
381
330
1F
100
AcDbEntity
  8
0
  6
Continuous
 62
     7
370
     0
100
AcDbBlockReference
  2
SW_CENTERMARKSYMBOL_1
 10
20.5572935275
 20
2.1921174932
 30
0.0
  0
LINE
  5
382
330
1F
100
AcDbEntity
  8
0
  6
Continuous
 62
     7
370
    15
100
AcDbLine
 10
24.3218820445
 20
11.6584958673
 30
0.0
 11
24.3218820445
 21
11.6946614465
 31
0.0
  0
LINE
  5
383
330
1F
100
AcDbEntity
  8
0
  6
Continuous
 62
     7
370
    15
100
AcDbLine
 10
24.1794091357
 20
11.7977145019
 30
0.0
 11
24.1794091357
 21
11.7615489227
 31
0.0
  0
LINE
  5
384
330
1F
100
AcDbEntity
  8
0
  6
Continuous
 62
     7
370
    15
100
AcDbLine
 10
24.4826514976
 20
11.9574169
 30
0.0
 11
24.4826514976
 21
11.9935824793
 31
0.0
  0
LINE
  5
385
330
1F
100
AcDbEntity
  8
0
  6
Continuous
 62
     7
370
    15
100
AcDbLine
 10
20.6336852426
 20
12.8240527872
 30
0.0
 11
20.6336852426
 21
12.787887208
 31
0.0
  0
LINE
  5
386
330
1F
100
AcDbEntity
  8
0
  6
Continuous
 62
     7
370
    15
100
AcDbLine
 10
20.9369275851
 20
12.9837551742
 30
0.0
 11
20.9369275851
 21
13.0199207534
 31
0.0
  0
LINE
  5
387
330
1F
100
AcDbEntity
  8
0
  6
Continuous
 62
     7
370
    15
100
AcDbLine
 10
20.7944546763
 20
13.1229738088
 30
0.0
 11
20.7944546763
 21
13.0868082296
 31
0.0
  0
ARC
  5
388
330
1F
100
AcDbEntity
  8
0
  6
Continuous
 62
     7
370
    15
100
AcDbCircle
 10
24.6232382543
 20
12.5543006313
 30
0.0
 40
0.102093724575814
100
AcDbArc
 50
3.6868247613
 51
62.1755358086
  0
LINE
  5
389
330
1F
100
AcDbEntity
  8
0
  6
Continuous
 62
     7
370
    15
100
AcDbLine
 10
24.7292618579
 20
12.3671642155
 30
0.0
 11
24.7251209611
 21
12.5608595977
 31
0.0
  0
LINE
  5
38A
330
1F
100
AcDbEntity
  8
0
  6
Continuous
 62
     7
370
    15
100
AcDbLine
 10
24.6708789705
 20
12.6445980497
 30
0.0
 11
21.7477680099
 21
14.3320740883
 31
0.0
  0
ARC
  5
38B
330
1F
100
AcDbEntity
  8
0
  6
Continuous
 62
     7
370
    15
100
AcDbCircle
 10
20.4893879464
 20
13.5909241699
 30
0.0
 40
0.1020254622621651
100
AcDbArc
 50
117.8027881498
 51
176.3348082378
  0
LINE
  5
38C
330
1F
100
AcDbEntity
  8
0
  6
Continuous
 62
     7
370
    15
100
AcDbLine
 10
20.3875713186
 20
13.597440776
 30
0.0
 11
20.383430383
 21
13.4037453714
 31
0.0
  0
LINE
  5
38D
330
1F
100
AcDbEntity
  8
0
  6
Continuous
 62
     7
370
    15
100
AcDbLine
 10
21.569318484
 20
14.3320740658
 30
0.0
 11
20.4418133093
 21
13.6811791831
 31
0.0
  0
ARC
  5
38E
330
1F
100
AcDbEntity
  8
0
  6
Continuous
 62
     7
370
    15
100
AcDbCircle
 10
21.6585431042
 20
14.1598472094
 30
0.0
 40
0.1939661200257939
100
AcDbArc
 50
62.6084338288
 51
117.3915229268
  0
ARC
  5
38F
330
1F
100
AcDbEntity
  8
0
  6
Continuous
 62
     7
370
    15
100
AcDbCircle
 10
23.4541489744
 20
9.6175493195
 30
0.0
 40
0.2000706891830394
100
AcDbArc
 50
242.5723083031
 51
297.4276916969
  0
LINE
  5
390
330
1F
100
AcDbEntity
  8
0
  6
Continuous
 62
     7
370
    15
100
AcDbLine
 10
20.4567683495
 20
11.1171171328
 30
0.0
 11
23.3619959376
 21
9.4399649454
 31
0.0
  0
LINE
  5
391
330
1F
100
AcDbEntity
  8
0
  6
Continuous
 62
     7
370
    15
100
AcDbLine
 10
23.5463020113
 20
9.4399649454
 30
0.0
 11
24.6559238914
 21
10.0805360218
 31
0.0
  0
LINE
  5
392
330
1F
100
AcDbEntity
  8
0
  6
Continuous
 62
     7
370
    15
100
AcDbLine
 10
24.3082488704
 20
10.5626754689
 30
0.0
 11
24.3082488704
 21
10.5988411829
 31
0.0
  0
LINE
  5
393
330
1F
100
AcDbEntity
  8
0
  6
Continuous
 62
     7
370
    15
100
AcDbLine
 10
24.189415389
 20
10.7031588337
 30
0.0
 11
24.1858438675
 21
10.5360955775
 31
0.0
  0
LINE
  5
394
330
1F
100
AcDbEntity
  8
0
  6
Continuous
 62
     7
370
    15
100
AcDbLine
 10
24.711303038
 20
10.1633692151
 30
0.0
 11
24.7292508908
 21
10.7570543637
 31
0.0
  0
LINE
  5
395
330
1F
100
AcDbEntity
  8
0
  6
Continuous
 62
     7
370
    15
100
AcDbLine
 10
24.4690181485
 20
10.8615965803
 30
0.0
 11
24.4690181485
 21
10.8977622942
 31
0.0
  0
ARC
  5
396
330
1F
100
AcDbEntity
  8
0
  6
Continuous
 62
     7
370
    15
100
AcDbCircle
 10
24.6073241287
 20
10.1728399484
 30
0.0
 40
0.1043163756736658
100
AcDbArc
 50
297.7709995611
 51
355.7718198704
  0
LINE
  5
397
330
1F
100
AcDbEntity
  8
0
  6
Continuous
 62
     7
370
    15
100
AcDbLine
 10
20.6436740924
 20
11.7282325124
 30
0.0
 11
20.6436740924
 21
11.6920667984
 31
0.0
  0
LINE
  5
398
330
1F
100
AcDbEntity
  8
0
  6
Continuous
 62
     7
370
    15
100
AcDbLine
 10
20.3834412334
 20
11.793635542
 30
0.0
 11
20.4013892417
 21
11.1999503934
 31
0.0
  0
LINE
  5
399
330
1F
100
AcDbEntity
  8
0
  6
Continuous
 62
     7
370
    15
100
AcDbLine
 10
20.9308662597
 20
11.5703572201
 30
0.0
 11
20.9232767741
 21
11.9253603144
 31
0.0
  0
LINE
  5
39A
330
1F
100
AcDbEntity
  8
0
  6
Continuous
 62
     7
370
    15
100
AcDbLine
 10
20.8044433705
 20
12.0271536237
 30
0.0
 11
20.8044433705
 21
11.9909879098
 31
0.0
  0
ARC
  5
39B
330
1F
100
AcDbEntity
  8
0
  6
Continuous
 62
     7
370
    15
100
AcDbCircle
 10
20.5053672408
 20
11.2094203859
 30
0.0
 40
0.104315335685561
100
AcDbArc
 50
184.2278142885
 51
242.2292646944
  0
LINE
  5
39C
330
1F
100
AcDbEntity
  8
0
  6
Continuous
 62
     7
370
    15
100
AcDbLine
 10
24.3965764118
 20
11.9682706341
 30
0.0
 11
24.2347630814
 21
11.8748577868
 31
0.0
  0
ARC
  5
39D
330
1F
100
AcDbEntity
  8
0
  6
Continuous
 62
     7
370
    15
100
AcDbCircle
 10
24.3869697001
 20
11.9935825056
 30
0.0
 40
0.027073598670379
100
AcDbArc
 50
290.7834484645
 51
69.2166395676
  0
LINE
  5
39E
330
1F
100
AcDbEntity
  8
0
  6
Continuous
 62
     7
370
    15
100
AcDbLine
 10
24.2927685761
 20
12.0788213572
 30
0.0
 11
24.3965763729
 21
12.0188943917
 31
0.0
  0
LWPOLYLINE
  5
39F
330
1F
100
AcDbEntity
  8
0
  6
Continuous
 62
     7
370
    15
100
AcDbPolyline
 90
        8
 70
   128
 43
0.0
 10
20.88157362
 20
12.9427774572
 10
20.902842676
 20
12.9574223331
 10
20.9193585834
 20
12.9739850826
 10
20.930614172
 20
12.9919575729
 10
20.9362642117
 20
13.0107882065
 10
20.9361354649
 20
13.0298990393
 10
20.9302316847
 20
13.0487036635
 10
20.9280359314
 20
13.0529906301
  0
LINE
  5
3A0
330
1F
100
AcDbEntity
  8
0
  6
Continuous
 62
     7
370
    15
100
AcDbLine
 10
20.7197603284
 20
12.8493646324
 30
0.0
 11
20.88157362
 21
12.9427774572
 31
0.0
  0
ARC
  5
3A1
330
1F
100
AcDbEntity
  8
0
  6
Continuous
 62
     7
370
    15
100
AcDbCircle
 10
20.7293669627
 20
12.8240527686
 30
0.0
 40
0.0270735639784387
100
AcDbArc
 50
110.783300889
 51
249.2166110789
  0
LINE
  5
3A2
330
1F
100
AcDbEntity
  8
0
  6
Continuous
 62
     7
370
    15
100
AcDbLine
 10
23.2336084208
 20
11.3475272834
 30
0.0
 11
20.7197602896
 21
12.7987409197
 31
0.0
  0
ARC
  5
3A3
330
1F
100
AcDbEntity
  8
0
  6
Continuous
 62
     7
370
    15
100
AcDbCircle
 10
23.2774546534
 20
11.43214988
 30
0.0
 40
0.095307271322292
100
AcDbArc
 50
242.6095831411
 51
297.3903875212
  0
ARC
  5
3A4
330
1F
100
AcDbEntity
  8
0
  6
Continuous
 62
     7
370
    15
100
AcDbCircle
 10
23.4560238225
 20
11.0920522776
 30
0.0
 40
0.2888213088734005
100
AcDbArc
 50
62.4527808896
 51
117.8046153953
  0
LINE
  5
3A5
330
1F
100
AcDbEntity
  8
0
  6
Continuous
 62
     7
370
    15
100
AcDbLine
 10
23.5906417222
 20
11.3475272385
 30
0.0
 11
23.5895977477
 21
11.3481299122
 31
0.0
  0
ARC
  5
3A6
330
1F
100
AcDbEntity
  8
0
  6
Continuous
 62
     7
370
    15
100
AcDbCircle
 10
23.6344878726
 20
11.4321500789
 30
0.0
 40
0.0953074499644548
100
AcDbArc
 50
242.6096944553
 51
297.3903348823
  0
LINE
  5
3A7
330
1F
100
AcDbEntity
  8
0
  6
Continuous
 62
     7
370
    15
100
AcDbLine
 10
24.2358070365
 20
11.6693495565
 30
0.0
 11
23.6783340664
 21
11.347527261
 31
0.0
  0
ARC
  5
3A8
330
1F
100
AcDbEntity
  8
0
  6
Continuous
 62
     7
370
    15
100
AcDbCircle
 10
24.22620037
 20
11.6946614202
 30
0.0
 40
0.0270735754290402
100
AcDbArc
 50
290.7833647383
 51
69.2165472295
  0
LWPOLYLINE
  5
3A9
330
1F
100
AcDbEntity
  8
0
  6
Continuous
 62
     7
370
    15
100
AcDbPolyline
 90
       10
 70
   128
 43
0.0
 10
24.2347630814
 20
11.8748577868
 10
24.2134939476
 20
11.8602129559
 10
24.1969781569
 20
11.8436501839
 10
24.1857225488
 20
11.8256776823
 10
24.1800723536
 20
11.8068471386
 10
24.1802012753
 20
11.7877362272
 10
24.1861050361
 20
11.7689315918
 10
24.1976026787
 20
11.7510101998
 10
24.2143412532
 20
11.7345221111
 10
24.2358070754
 20
11.7199732692
  0
LINE
  5
3AA
330
1F
100
AcDbEntity
  8
0
  6
Continuous
 62
     7
370
    15
100
AcDbLine
 10
24.340790588
 20
12.1065438746
 30
0.0
 11
24.4445983848
 21
12.0466169091
 31
0.0
  0
ARC
  5
3AB
330
1F
100
AcDbEntity
  8
0
  6
Continuous
 62
     7
370
    15
100
AcDbCircle
 10
24.4244701851
 20
11.9935825242
 30
0.0
 40
0.0567255710150628
100
AcDbArc
 50
290.7833124651
 51
69.2166875349
  0
LINE
  5
3AC
330
1F
100
AcDbEntity
  8
0
  6
Continuous
 62
     7
370
    15
100
AcDbLine
 10
24.4445983848
 20
11.9405481392
 30
0.0
 11
24.2827850544
 21
11.8471352919
 31
0.0
  0
ARC
  5
3AD
330
1F
100
AcDbEntity
  8
0
  6
Continuous
 62
     7
370
    15
100
AcDbCircle
 10
24.3017052273
 20
11.7976313699
 30
0.0
 40
0.0529963323798841
100
AcDbArc
 50
110.9166278393
 51
250.0474174737
  0
LINE
  5
3AE
330
1F
100
AcDbEntity
  8
0
  6
Continuous
 62
     7
370
    15
100
AcDbLine
 10
24.2836206345
 20
11.7478161237
 30
0.0
 11
24.2838290872
 21
11.7476957865
 31
0.0
  0
ARC
  5
3AF
330
1F
100
AcDbEntity
  8
0
  6
Continuous
 62
     7
370
    15
100
AcDbCircle
 10
24.2637006898
 20
11.6946614016
 30
0.0
 40
0.0567256411773343
100
AcDbArc
 50
290.783499188
 51
69.216500812
  0
LINE
  5
3B0
330
1F
100
AcDbEntity
  8
0
  6
Continuous
 62
     7
370
    15
100
AcDbLine
 10
24.2838290872
 20
11.6416270167
 30
0.0
 11
23.7263561171
 21
11.3198047212
 31
0.0
  0
ARC
  5
3B1
330
1F
100
AcDbEntity
  8
0
  6
Continuous
 62
     7
370
    15
100
AcDbCircle
 10
23.6344879137
 20
11.4971100386
 30
0.0
 40
0.1996921189921794
100
AcDbArc
 50
242.6097164482
 51
297.3902835518
  0
LINE
  5
3B2
330
1F
100
AcDbEntity
  8
0
  6
Continuous
 62
     7
370
    15
100
AcDbLine
 10
23.5426197104
 20
11.3198047212
 30
0.0
 11
23.5415757359
 21
11.3204073949
 31
0.0
  0
ARC
  5
3B3
330
1F
100
AcDbEntity
  8
0
  6
Continuous
 62
     7
370
    15
100
AcDbCircle
 10
23.4559197789
 20
11.1549156995
 30
0.0
 40
0.1863449602451346
100
AcDbArc
 50
62.6346108942
 51
117.0409296111
  0
LINE
  5
3B4
330
1F
100
AcDbEntity
  8
0
  6
Continuous
 62
     7
370
    15
100
AcDbLine
 10
23.371202351
 20
11.3208897987
 30
0.0
 11
23.3693228157
 21
11.3198047661
 31
0.0
  0
ARC
  5
3B5
330
1F
100
AcDbEntity
  8
0
  6
Continuous
 62
     7
370
    15
100
AcDbCircle
 10
23.2774546123
 20
11.4971092954
 30
0.0
 40
0.1996914191700214
100
AcDbArc
 50
242.6096124096
 51
297.3903875904
  0
LINE
  5
3B6
330
1F
100
AcDbEntity
  8
0
  6
Continuous
 62
     7
370
    15
100
AcDbLine
 10
23.185586409
 20
11.3198047661
 30
0.0
 11
20.6717382777
 21
12.7710184023
 31
0.0
  0
ARC
  5
3B7
330
1F
100
AcDbEntity
  8
0
  6
Continuous
 62
     7
370
    15
100
AcDbCircle
 10
20.6918665422
 20
12.82405275
 30
0.0
 40
0.0567255592242898
100
AcDbArc
 50
110.7833029783
 51
249.216612991
  0
LINE
  5
3B8
330
1F
100
AcDbEntity
  8
0
  6
Continuous
 62
     7
370
    15
100
AcDbLine
 10
20.6717383555
 20
12.8770871273
 30
0.0
 11
20.833551647
 21
12.9704999521
 31
0.0
  0
ARC
  5
3B9
330
1F
100
AcDbEntity
  8
0
  6
Continuous
 62
     7
370
    15
100
AcDbCircle
 10
20.8146314235
 20
13.0200038829
 30
0.0
 40
0.0529963585816143
100
AcDbArc
 50
290.9166754711
 51
70.0473472993
  0
LINE
  5
3BA
330
1F
100
AcDbEntity
  8
0
  6
Continuous
 62
     7
370
    15
100
AcDbLine
 10
20.8327160862
 20
13.0698191316
 30
0.0
 11
20.8325076336
 21
13.0699394688
 31
0.0
  0
ARC
  5
3BB
330
1F
100
AcDbEntity
  8
0
  6
Continuous
 62
     7
370
    15
100
AcDbCircle
 10
20.8550626843
 20
13.125759825
 30
0.0
 40
0.060205003833234
100
AcDbArc
 50
176.1572573314
 51
247.9980914881
  0
LINE
  5
3BC
330
1F
100
AcDbEntity
  8
0
  6
Continuous
 62
     7
370
    15
100
AcDbLine
 10
23.7263561171
 20
11.283639142
 30
0.0
 11
23.7263561171
 21
11.3198047212
 31
0.0
  0
LINE
  5
3BD
330
1F
100
AcDbEntity
  8
0
  6
Continuous
 62
     7
370
    15
100
AcDbLine
 10
23.5426197104
 20
11.283639142
 30
0.0
 11
23.5426197104
 21
11.3198047212
 31
0.0
  0
ARC
  5
3BE
330
1F
100
AcDbEntity
  8
0
  6
Continuous
 62
     7
370
    15
100
AcDbCircle
 10
23.6344879137
 20
11.4609444594
 30
0.0
 40
0.1996921189921857
100
AcDbArc
 50
242.6097164482
 51
297.3902835518
  0
LINE
  5
3BF
330
1F
100
AcDbEntity
  8
0
  6
Continuous
 62
     7
370
    15
100
AcDbLine
 10
23.3693228157
 20
11.2836391869
 30
0.0
 11
23.3693228157
 21
11.3198047661
 31
0.0
  0
LINE
  5
3C0
330
1F
100
AcDbEntity
  8
0
  6
Continuous
 62
     7
370
    15
100
AcDbLine
 10
23.185586409
 20
11.2836391869
 30
0.0
 11
23.185586409
 21
11.3198047661
 31
0.0
  0
ARC
  5
3C1
330
1F
100
AcDbEntity
  8
0
  6
Continuous
 62
     7
370
    15
100
AcDbCircle
 10
23.2774546123
 20
11.4609437161
 30
0.0
 40
0.1996914191700151
100
AcDbArc
 50
242.6096124096
 51
297.3903875904
  0
LINE
  5
3C2
330
1F
100
AcDbEntity
  8
0
  6
Continuous
 62
     7
370
    15
100
AcDbLine
 10
23.5415757359
 20
11.2842418156
 30
0.0
 11
23.5415757359
 21
11.3204073949
 31
0.0
  0
LINE
  5
3C3
330
1F
100
AcDbEntity
  8
0
  6
Continuous
 62
     7
370
    15
100
AcDbLine
 10
23.371202351
 20
11.2847242195
 30
0.0
 11
23.371202351
 21
11.3208897987
 31
0.0
  0
ARC
  5
3C4
330
1F
100
AcDbEntity
  8
0
  6
Continuous
 62
     7
370
    15
100
AcDbCircle
 10
23.4559197789
 20
11.1187501203
 30
0.0
 40
0.1863449602451346
100
AcDbArc
 50
62.6346108942
 51
117.0409296111
  0
LINE
  5
3C5
330
1F
100
AcDbEntity
  8
0
  6
Continuous
 62
     7
370
    15
100
AcDbLine
 10
23.371202351
 20
11.2847242195
 30
0.0
 11
23.3693228157
 21
11.2836391869
 31
0.0
  0
LINE
  5
3C6
330
1F
100
AcDbEntity
  8
0
  6
Continuous
 62
     7
370
    15
100
AcDbLine
 10
24.2838290872
 20
11.6054614374
 30
0.0
 11
24.2838290872
 21
11.6416270167
 31
0.0
  0
LINE
  5
3C7
330
1F
100
AcDbEntity
  8
0
  6
Continuous
 62
     7
370
    15
100
AcDbLine
 10
24.2838290872
 20
11.6054614374
 30
0.0
 11
23.7263561171
 21
11.283639142
 31
0.0
  0
LINE
  5
3C8
330
1F
100
AcDbEntity
  8
0
  6
Continuous
 62
     7
370
    15
100
AcDbLine
 10
23.5426197104
 20
11.283639142
 30
0.0
 11
23.5415757359
 21
11.2842418156
 31
0.0
  0
LINE
  5
3C9
330
1F
100
AcDbEntity
  8
0
  6
Continuous
 62
     7
370
    15
100
AcDbLine
 10
20.6717382777
 20
12.7348528231
 30
0.0
 11
20.6717382777
 21
12.7710184023
 31
0.0
  0
LINE
  5
3CA
330
1F
100
AcDbEntity
  8
0
  6
Continuous
 62
     7
370
    15
100
AcDbLine
 10
23.185586409
 20
11.2836391869
 30
0.0
 11
20.6717382777
 21
12.7348528231
 31
0.0
  0
ARC
  5
3CB
330
1F
100
AcDbEntity
  8
0
  6
Continuous
 62
     7
370
    15
100
AcDbCircle
 10
24.2568619663
 20
11.6649797139
 30
0.0
 40
0.0653425652978531
100
AcDbArc
 50
294.3747929029
 51
354.305252542
  0
LINE
  5
3CC
330
1F
100
AcDbEntity
  8
0
  6
Continuous
 62
     7
370
    15
100
AcDbLine
 10
24.2358070754
 20
11.6838076899
 30
0.0
 11
24.2358070754
 21
11.7199732692
 31
0.0
  0
LWPOLYLINE
  5
3CD
330
1F
100
AcDbEntity
  8
0
  6
Continuous
 62
     7
370
    15
100
AcDbPolyline
 90
        3
 70
   128
 43
0.0
 10
24.2358070754
 20
11.6838076899
 10
24.2435184436
 20
11.6783832789
 10
24.245475293
 20
11.6765786929
  0
ARC
  5
3CE
330
1F
100
AcDbEntity
  8
0
  6
Continuous
 62
     7
370
    15
100
AcDbCircle
 10
24.2745081835
 20
11.7712114518
 30
0.0
 40
0.0955886674615768
100
AcDbArc
 50
185.8016220811
 51
246.1169375903
  0
LINE
  5
3CF
330
1F
100
AcDbEntity
  8
0
  6
Continuous
 62
     7
370
    15
100
AcDbLine
 10
24.2827850544
 20
11.8109697127
 30
0.0
 11
24.2827850544
 21
11.8471352919
 31
0.0
  0
ARC
  5
3D0
330
1F
100
AcDbEntity
  8
0
  6
Continuous
 62
     7
370
    15
100
AcDbCircle
 10
24.3162059403
 20
11.7462065323
 30
0.0
 40
0.0728781527632614
100
AcDbArc
 50
117.2958892962
 51
152.7002500737
  0
LINE
  5
3D1
330
1F
100
AcDbEntity
  8
0
  6
Continuous
 62
     7
370
    15
100
AcDbLine
 10
24.4445983848
 20
11.90438256
 30
0.0
 11
24.4445983848
 21
11.9405481392
 31
0.0
  0
LINE
  5
3D2
330
1F
100
AcDbEntity
  8
0
  6
Continuous
 62
     7
370
    15
100
AcDbLine
 10
24.4445983848
 20
11.90438256
 30
0.0
 11
24.2827850544
 21
11.8109697127
 31
0.0
  0
ARC
  5
3D3
330
1F
100
AcDbEntity
  8
0
  6
Continuous
 62
     7
370
    15
100
AcDbCircle
 10
24.4176316162
 20
11.9639007854
 30
0.0
 40
0.0653423733587948
100
AcDbArc
 50
294.3745300013
 51
354.3052016466
  0
LINE
  5
3D4
330
1F
100
AcDbEntity
  8
0
  6
Continuous
 62
     7
370
    15
100
AcDbLine
 10
24.3965763729
 20
11.9827288125
 30
0.0
 11
24.3965763729
 21
12.0188943917
 31
0.0
  0
LWPOLYLINE
  5
3D5
330
1F
100
AcDbEntity
  8
0
  6
Continuous
 62
     7
370
    15
100
AcDbPolyline
 90
        3
 70
   128
 43
0.0
 10
24.3965763729
 20
11.9827288125
 10
24.4042878772
 20
11.9773043005
 10
24.4062446489
 20
11.9754997594
  0
LINE
  5
3D6
330
1F
100
AcDbEntity
  8
0
  6
Continuous
 62
     7
370
    15
100
AcDbLine
 10
24.2614448288
 20
12.0607385924
 30
0.0
 11
24.3965763729
 21
11.9827288125
 31
0.0
  0
ARC
  5
3D7
330
1F
100
AcDbEntity
  8
0
  6
Continuous
 62
     7
370
    15
100
AcDbCircle
 10
20.6987051248
 20
12.7943710039
 30
0.0
 40
0.0653423652558732
100
AcDbArc
 50
185.6947202926
 51
245.625391161
  0
LINE
  5
3D8
330
1F
100
AcDbEntity
  8
0
  6
Continuous
 62
     7
370
    15
100
AcDbLine
 10
20.7197603284
 20
12.8131990531
 30
0.0
 11
20.7197603284
 21
12.8493646324
 31
0.0
  0
LWPOLYLINE
  5
3D9
330
1F
100
AcDbEntity
  8
0
  6
Continuous
 62
     7
370
    15
100
AcDbPolyline
 90
        3
 70
   128
 43
0.0
 10
20.7100920524
 20
12.8059700449
 10
20.712048863
 20
12.8077745635
 10
20.7197603284
 20
12.8131990531
  0
LINE
  5
3DA
330
1F
100
AcDbEntity
  8
0
  6
Continuous
 62
     7
370
    15
100
AcDbLine
 10
20.88157362
 20
12.906611878
 30
0.0
 11
20.88157362
 21
12.9427774572
 31
0.0
  0
LINE
  5
3DB
330
1F
100
AcDbEntity
  8
0
  6
Continuous
 62
     7
370
    15
100
AcDbLine
 10
20.7197603284
 20
12.8131990531
 30
0.0
 11
20.88157362
 21
12.906611878
 31
0.0
  0
ARC
  5
3DC
330
1F
100
AcDbEntity
  8
0
  6
Continuous
 62
     7
370
    15
100
AcDbCircle
 10
20.8448226579
 20
12.9914136248
 30
0.0
 40
0.0924227757782804
100
AcDbArc
 50
293.4307055724
 51
355.2468360006
  0
LINE
  5
3DD
330
1F
100
AcDbEntity
  8
0
  6
Continuous
 62
     7
370
    15
100
AcDbLine
 10
20.8327160862
 20
13.0336535524
 30
0.0
 11
20.8327160862
 21
13.0698191316
 31
0.0
  0
ARC
  5
3DE
330
1F
100
AcDbEntity
  8
0
  6
Continuous
 62
     7
370
    15
100
AcDbCircle
 10
20.7995095296
 20
12.967893479
 30
0.0
 40
0.0736686002288308
100
AcDbArc
 50
27.4369861029
 51
63.2078075313
  0
LINE
  5
3DF
330
1F
100
AcDbEntity
  8
0
  6
Continuous
 62
     7
370
    15
100
AcDbLine
 10
20.8325076336
 20
13.0337738895
 30
0.0
 11
20.8325076336
 21
13.0699394688
 31
0.0
  0
LINE
  5
3E0
330
1F
100
AcDbEntity
  8
0
  6
Continuous
 62
     7
370
    15
100
AcDbLine
 10
20.8327160862
 20
13.0336535524
 30
0.0
 11
20.8325076336
 21
13.0337738895
 31
0.0
  0
ARC
  5
3E1
330
1F
100
AcDbEntity
  8
0
  6
Continuous
 62
     7
370
    15
100
AcDbCircle
 10
20.8594744101
 20
13.0932919298
 30
0.0
 40
0.0653422080450339
100
AcDbArc
 50
185.694649731
 51
245.625396733
  0
ARC
  5
3E2
330
1F
100
AcDbEntity
  8
0
  6
Continuous
 62
     7
370
    15
100
AcDbCircle
 10
23.4449286242
 20
11.8447337257
 30
0.0
 40
0.0924031719851973
100
AcDbArc
 50
127.1311121831
 51
176.5033742767
  0
ARC
  5
3E3
330
1F
100
AcDbEntity
  8
0
  6
Continuous
 62
     7
370
    15
100
AcDbCircle
 10
23.4508530358
 20
12.0996051696
 30
0.0
 40
0.1914198339441514
100
AcDbArc
 50
251.1953493012
 51
265.2882751587
  0
ARC
  5
3E4
330
1F
100
AcDbEntity
  8
0
  6
Continuous
 62
     7
370
    15
100
AcDbCircle
 10
23.4541493067
 20
12.1244014336
 30
0.0
 40
0.2164066655619114
100
AcDbArc
 50
264.9577722533
 51
275.0420924823
  0
ARC
  5
3E5
330
1F
100
AcDbEntity
  8
0
  6
Continuous
 62
     7
370
    15
100
AcDbCircle
 10
23.4567079556
 20
12.1031436457
 30
0.0
 40
0.1950074505228269
100
AcDbArc
 50
274.842166083
 51
288.6745013259
  0
ARC
  5
3E6
330
1F
100
AcDbEntity
  8
0
  6
Continuous
 62
     7
370
    15
100
AcDbCircle
 10
23.4633692631
 20
11.8447335849
 30
0.0
 40
0.0924033572080086
100
AcDbArc
 50
3.4966921829
 51
52.8689268118
  0
ARC
  5
3E7
330
1F
100
AcDbEntity
  8
0
  6
Continuous
 62
     7
370
    15
100
AcDbCircle
 10
23.4541490544
 20
12.0461626331
 30
0.0
 40
0.2205162685576086
100
AcDbArc
 50
242.6087663614
 51
297.3912209592
  0
LINE
  5
3E8
330
1F
100
AcDbEntity
  8
0
  6
Continuous
 62
     7
370
    15
100
AcDbLine
 10
23.5556005949
 20
11.8503693502
 30
0.0
 11
23.5585288882
 21
11.6549537752
 31
0.0
  0
ARC
  5
3E9
330
1F
100
AcDbEntity
  8
0
  6
Continuous
 62
     7
370
    15
100
AcDbCircle
 10
23.4541490541
 20
11.8528546209
 30
0.0
 40
0.2237406858812509
100
AcDbArc
 50
242.1912540384
 51
297.8087336379
  0
LINE
  5
3EA
330
1F
100
AcDbEntity
  8
0
  6
Continuous
 62
     7
370
    15
100
AcDbLine
 10
23.3497691773
 20
11.6549537977
 30
0.0
 11
23.3526974707
 21
11.8503693727
 31
0.0
  0
ARC
  5
3EB
330
1F
100
AcDbEntity
  8
0
  6
Continuous
 62
     7
370
    15
100
AcDbCircle
 10
23.4890297407
 20
12.017480298
 30
0.0
 40
0.10355406530027
100
AcDbArc
 50
286.9084039853
 51
323.1307988384
  0
ARC
  5
3EC
330
1F
100
AcDbEntity
  8
0
  6
Continuous
 62
     7
370
    15
100
AcDbCircle
 10
23.4159429367
 20
12.0127344923
 30
0.0
 40
0.0980628733403676
100
AcDbArc
 50
215.8165676572
 51
254.1440846241
  0
LWPOLYLINE
  5
3ED
330
1F
100
AcDbEntity
  8
0
  6
Continuous
 62
     7
370
    15
100
AcDbPolyline
 90
       20
 70
   128
 43
0.0
 10
23.3364242784
 20
11.9553488658
 10
23.3300868506
 20
11.9695352706
 10
23.3288230673
 20
11.9841677311
 10
23.3326849253
 20
11.9986476373
 10
23.3415141015
 20
12.0123830247
 10
23.3549498873
 20
12.0248120129
 10
23.3724425277
 20
12.0354263122
 10
23.3932768277
 20
12.0437918556
 10
23.4166004648
 20
12.0495665802
 10
23.4414598848
 20
12.0525141448
 10
23.4668381808
 20
12.0525141223
 10
23.491697523
 20
12.0495665577
 10
23.5150212768
 20
12.0437918556
 10
23.5358554601
 20
12.0354263346
 10
23.5533482171
 20
12.024811968
 10
23.5667838862
 20
12.0123830022
 10
23.575613218
 20
11.9986476598
 10
23.5794749204
 20
11.9841677087
 10
23.578211215
 20
11.9695352931
 10
23.5718737482
 20
11.9553488658
  0
LWPOLYLINE
  5
3EE
330
1F
100
AcDbEntity
  8
0
  6
Continuous
 62
     7
370
    15
100
AcDbPolyline
 90
       16
 70
   128
 43
0.0
 10
23.5150132265
 20
11.9168434188
 10
23.5196200305
 20
11.9257029283
 10
23.5202376493
 20
11.9361417509
 10
23.5159538691
 20
11.9462896314
 10
23.507086347
 20
11.9553940135
 10
23.494292642
 20
11.9627796621
 10
23.4785216808
 20
11.9678987737
 10
23.4609431315
 20
11.9703717474
 10
23.4428607567
 20
11.9700151138
 10
23.4256154206
 20
11.9668554101
 10
23.4104863069
 20
11.9611269345
 10
23.3985956376
 20
11.9532544591
 10
23.390824942
 20
11.9438219561
 10
23.3877507318
 20
11.9335289975
 10
23.3896009826
 20
11.9231388711
 10
23.3935142537
 20
11.916544372
  0
LWPOLYLINE
  5
3EF
330
1F
100
AcDbEntity
  8
0
  6
Continuous
 62
     7
370
    15
100
AcDbPolyline
 90
       20
 70
   128
 43
0.0
 10
24.5833286542
 20
12.5392493544
 10
24.5587543788
 20
12.5355908127
 10
24.5334075452
 20
12.5348612911
 10
24.5083248164
 20
12.5370906044
 10
24.4845319274
 20
12.5421876692
 10
24.4630019944
 20
12.5499439159
 10
24.4446153799
 20
12.5600422695
 10
24.4301243024
 20
12.5720695876
 10
24.420121141
 20
12.585534104
 10
24.4150152562
 20
12.5998850968
 10
24.4150152173
 20
12.6145356752
 10
24.4201211021
 20
12.6288867129
 10
24.4301243024
 20
12.642351162
 10
24.4446154188
 20
12.6543785474
 10
24.4630019166
 20
12.6644768337
 10
24.4845318885
 20
12.6722331478
 10
24.5083248553
 20
12.6773301227
 10
24.5334075063
 20
12.6795595259
 10
24.5587544177
 20
12.6788299594
 10
24.5833286542
 20
12.6751714401
  0
LINE
  5
3F0
330
1F
100
AcDbEntity
  8
0
  6
Continuous
 62
     7
370
    15
100
AcDbLine
 10
23.5718737482
 20
11.9553488658
 30
0.0
 11
24.5833286542
 21
12.5392493544
 31
0.0
  0
LINE
  5
3F1
330
1F
100
AcDbEntity
  8
0
  6
Continuous
 62
     7
370
    15
100
AcDbLine
 10
20.5293635867
 20
13.5758305103
 30
0.0
 11
23.3364242784
 21
11.9553488658
 31
0.0
  0
LWPOLYLINE
  5
3F2
330
1F
100
AcDbEntity
  8
0
  6
Continuous
 62
     7
370
    15
100
AcDbPolyline
 90
       20
 70
   128
 43
0.0
 10
20.5293635867
 20
13.711752596
 10
20.553937862
 20
13.7154111377
 10
20.5792846957
 20
13.7161406593
 10
20.6043674245
 20
13.713911346
 10
20.6281603134
 20
13.7088142812
 10
20.6496902465
 20
13.7010580346
 10
20.668076861
 20
13.6909596809
 10
20.6825679384
 20
13.6789323628
 10
20.6925710999
 20
13.6654678464
 10
20.6976769847
 20
13.6511168536
 10
20.6976770236
 20
13.6364662752
 10
20.6925711388
 20
13.6221152375
 10
20.6825679384
 20
13.6086507884
 10
20.6680768221
 20
13.596623403
 10
20.6496903242
 20
13.5865251167
 10
20.6281603523
 20
13.5787688026
 10
20.6043673856
 20
13.5736718277
 10
20.5792847346
 20
13.5714424245
 10
20.5539378231
 20
13.572171991
 10
20.5293635867
 20
13.5758305103
  0
LINE
  5
3F3
330
1F
100
AcDbEntity
  8
0
  6
Continuous
 62
     7
370
    15
100
AcDbLine
 10
21.5408184926
 20
14.2956530846
 30
0.0
 11
20.5293635867
 21
13.711752596
 31
0.0
  0
LWPOLYLINE
  5
3F4
330
1F
100
AcDbEntity
  8
0
  6
Continuous
 62
     7
370
    15
100
AcDbPolyline
 90
       20
 70
   128
 43
0.0
 10
21.7762679624
 20
14.2956530846
 10
21.7826053903
 20
14.2814666798
 10
21.7838691735
 20
14.2668342193
 10
21.7800073155
 20
14.2523543131
 10
21.7711781393
 20
14.2386189257
 10
21.7577423535
 20
14.2261899375
 10
21.7402497132
 20
14.2155756382
 10
21.7194154132
 20
14.2072100948
 10
21.696091776
 20
14.2014353702
 10
21.6712323561
 20
14.1984878056
 10
21.6458540601
 20
14.1984878281
 10
21.6209947179
 20
14.2014353927
 10
21.5976709641
 20
14.2072100948
 10
21.5768367807
 20
14.2155756158
 10
21.5593440237
 20
14.2261899824
 10
21.5459083546
 20
14.2386189482
 10
21.5370790228
 20
14.2523542906
 10
21.5332173204
 20
14.2668342417
 10
21.5344810258
 20
14.2814666574
 10
21.5408184926
 20
14.2956530846
  0
LINE
  5
3F5
330
1F
100
AcDbEntity
  8
0
  6
Continuous
 62
     7
370
    15
100
AcDbLine
 10
24.5833286542
 20
12.6751714401
 30
0.0
 11
21.7762679624
 21
14.2956530846
 31
0.0
  0
LINE
  5
3F6
330
1F
100
AcDbEntity
  8
0
  6
Continuous
 62
     7
370
    15
100
AcDbLine
 10
20.4295865101
 20
13.5378454113
 30
0.0
 11
23.3526974707
 21
11.8503693727
 31
0.0
  0
ARC
  5
3F7
330
1F
100
AcDbEntity
  8
0
  6
Continuous
 62
     7
370
    15
100
AcDbCircle
 10
20.5218176636
 20
13.5322097643
 30
0.0
 40
0.0924031719852157
100
AcDbArc
 50
127.1311121831
 51
176.5033742766
  0
ARC
  5
3F8
330
1F
100
AcDbEntity
  8
0
  6
Continuous
 62
     7
370
    15
100
AcDbCircle
 10
20.5529856318
 20
13.7073615469
 30
0.0
 40
0.1336353793140145
100
AcDbArc
 50
229.4113765074
 51
259.8186189263
  0
ARC
  5
3F9
330
1F
100
AcDbEntity
  8
0
  6
Continuous
 62
     7
370
    15
100
AcDbCircle
 10
24.5599729274
 20
12.6702187715
 30
0.0
 40
0.1330356274860463
100
AcDbArc
 50
280.1112447881
 51
310.6588806139
  0
ARC
  5
3FA
330
1F
100
AcDbEntity
  8
0
  6
Continuous
 62
     7
370
    15
100
AcDbCircle
 10
24.5908744378
 20
12.4956284676
 30
0.0
 40
0.0924033572080285
100
AcDbArc
 50
3.4966921829
 51
52.8689268118
  0
LINE
  5
3FB
330
1F
100
AcDbEntity
  8
0
  6
Continuous
 62
     7
370
    15
100
AcDbLine
 10
23.5556005949
 20
11.8503693502
 30
0.0
 11
24.6831057697
 21
12.5012642329
 31
0.0
  0
LINE
  5
3FC
330
1F
100
AcDbEntity
  8
0
  6
Continuous
 62
     7
370
    15
100
AcDbLine
 10
20.4266582167
 20
13.3424298363
 30
0.0
 11
23.3497691773
 21
11.6549537977
 31
0.0
  0
LINE
  5
3FD
330
1F
100
AcDbEntity
  8
0
  6
Continuous
 62
     7
370
    15
100
AcDbLine
 10
20.4295865101
 20
13.5378454113
 30
0.0
 11
20.4266582167
 21
13.3424298363
 31
0.0
  0
LINE
  5
3FE
330
1F
100
AcDbEntity
  8
0
  6
Continuous
 62
     7
370
    15
100
AcDbLine
 10
24.686034063
 20
12.3058486579
 30
0.0
 11
24.6831057697
 21
12.5012642329
 31
0.0
  0
LINE
  5
3FF
330
1F
100
AcDbEntity
  8
0
  6
Continuous
 62
     7
370
    15
100
AcDbLine
 10
23.5585288882
 20
11.6549537752
 30
0.0
 11
24.686034063
 21
12.3058486579
 31
0.0
  0
LWPOLYLINE
  5
400
330
1F
100
AcDbEntity
  8
0
  6
Continuous
 62
     7
370
    15
100
AcDbPolyline
 90
       16
 70
   128
 43
0.0
 10
24.6005118046
 20
12.5433308935
 10
24.6053351505
 20
12.5524729259
 10
24.6059528082
 20
12.5629117709
 10
24.601669028
 20
12.5730596514
 10
24.5928014669
 20
12.5821640111
 10
24.580007762
 20
12.5895496597
 10
24.5642368396
 20
12.5946687938
 10
24.5466582903
 20
12.5971417674
 10
24.5285758767
 20
12.5967851114
 10
24.5113305795
 20
12.5936254301
 10
24.4962014657
 20
12.5878969545
 10
24.4843107576
 20
12.5800244567
 10
24.4765401009
 20
12.5705919762
 10
24.4734658518
 20
12.5602989951
 10
24.4753161415
 20
12.5499088911
 10
24.4787605107
 20
12.5439332977
  0
ARC
  5
401
330
1F
100
AcDbEntity
  8
0
  6
Continuous
 62
     7
370
    15
100
AcDbCircle
 10
24.6140479013
 20
12.6040657574
 30
0.0
 40
0.0518207311086271
100
AcDbArc
 50
15.816894081
 51
51.0097080277
  0
ARC
  5
402
330
1F
100
AcDbEntity
  8
0
  6
Continuous
 62
     7
370
    15
100
AcDbCircle
 10
24.6229705803
 20
12.6072102298
 30
0.0
 40
0.0423829702075531
100
AcDbArc
 50
344.9857507472
 51
15.0146551342
  0
ARC
  5
403
330
1F
100
AcDbEntity
  8
0
  6
Continuous
 62
     7
370
    15
100
AcDbCircle
 10
24.6073484821
 20
12.6134699663
 30
0.0
 40
0.0591271958093848
100
AcDbArc
 50
311.6625738953
 51
343.0483097691
  0
ARC
  5
404
330
1F
100
AcDbEntity
  8
0
  6
Continuous
 62
     7
370
    15
100
AcDbCircle
 10
24.5466848039
 20
12.5194486138
 30
0.0
 40
0.1599761557636349
100
AcDbArc
 50
51.3256031825
 51
76.7583696088
  0
LWPOLYLINE
  5
405
330
1F
100
AcDbEntity
  8
0
  6
Continuous
 62
     7
370
    15
100
AcDbPolyline
 90
        4
 70
   128
 43
0.0
 10
24.686034063
 20
12.3058486579
 10
24.7146828492
 20
12.3291704945
 10
24.7283561777
 20
12.3566526743
 10
24.727312981
 20
12.3670993772
  0
ARC
  5
406
330
1F
100
AcDbEntity
  8
0
  6
Continuous
 62
     7
370
    15
100
AcDbCircle
 10
21.6905048528
 20
14.2271388092
 30
0.0
 40
0.1097702914986196
100
AcDbArc
 50
38.6205937378
 51
72.484377835
  0
ARC
  5
407
330
1F
100
AcDbEntity
  8
0
  6
Continuous
 62
     7
370
    15
100
AcDbCircle
 10
20.5032349037
 20
13.6486997786
 30
0.0
 40
0.0567199259093208
100
AcDbArc
 50
196.2670124073
 51
229.0214610987
  0
ARC
  5
408
330
1F
100
AcDbEntity
  8
0
  6
Continuous
 62
     7
370
    15
100
AcDbCircle
 10
20.4897216606
 20
13.6437917206
 30
0.0
 40
0.0423829702076271
100
AcDbArc
 50
164.9857507472
 51
195.0146551341
  0
ARC
  5
409
330
1F
100
AcDbEntity
  8
0
  6
Continuous
 62
     7
370
    15
100
AcDbCircle
 10
20.4998636084
 20
13.6398421988
 30
0.0
 40
0.0532150939906585
100
AcDbArc
 50
129.4654702679
 51
163.7072718493
  0
ARC
  5
40A
330
1F
100
AcDbEntity
  8
0
  6
Continuous
 62
     7
370
    15
100
AcDbCircle
 10
20.5655812272
 20
13.5569056886
 30
0.0
 40
0.1590260425462059
100
AcDbArc
 50
103.1644408873
 51
128.7517074018
  0
LWPOLYLINE
  5
40B
330
1F
100
AcDbEntity
  8
0
  6
Continuous
 62
     7
370
    15
100
AcDbPolyline
 90
       16
 70
   128
 43
0.0
 10
20.6339316523
 20
13.5805144536
 10
20.638299008
 20
13.5890541492
 10
20.6389167824
 20
13.5994928819
 10
20.6346330022
 20
13.6096407624
 10
20.62576548
 20
13.6187451446
 10
20.6129717751
 20
13.6261307932
 10
20.5972008139
 20
13.6312499048
 10
20.5796222646
 20
13.6337228784
 10
20.5615397343
 20
13.6333663347
 10
20.5442943981
 20
13.6302066309
 10
20.5291654399
 20
13.6244780655
 10
20.5172746151
 20
13.61660568
 10
20.5095039196
 20
13.607173177
 10
20.5064298649
 20
13.5968801285
 10
20.5082801157
 20
13.5864900021
 10
20.5122027594
 20
13.5798833121
  0
ARC
  5
40C
330
1F
100
AcDbEntity
  8
0
  6
Continuous
 62
     7
370
    15
100
AcDbCircle
 10
20.4522329719
 20
13.4044294767
 30
0.0
 40
0.067067305827549
100
AcDbArc
 50
180.5350524108
 51
247.5839286712
  0
ARC
  5
40D
330
1F
100
AcDbEntity
  8
0
  6
Continuous
 62
     7
370
    15
100
AcDbCircle
 10
21.6326913913
 20
14.2182313168
 30
0.0
 40
0.1201447444875749
100
AcDbArc
 50
109.0158959682
 51
139.8789872434
  0
ARC
  5
40E
330
1F
100
AcDbEntity
  8
0
  6
Continuous
 62
     7
370
    15
100
AcDbCircle
 10
21.6526388209
 20
14.1766060142
 30
0.0
 40
0.1660824228659499
100
AcDbArc
 50
94.5292997579
 51
110.8432655722
  0
ARC
  5
40F
330
1F
100
AcDbEntity
  8
0
  6
Continuous
 62
     7
370
    15
100
AcDbCircle
 10
21.6585429342
 20
14.1266005168
 30
0.0
 40
0.2164066655623251
100
AcDbArc
 50
84.9577722533
 51
95.0420924823
  0
ARC
  5
410
330
1F
100
AcDbEntity
  8
0
  6
Continuous
 62
     7
370
    15
100
AcDbCircle
 10
21.6656606309
 20
14.1819926507
 30
0.0
 40
0.1606186814007869
100
AcDbArc
 50
68.8773950489
 51
85.7503357059
  0
LWPOLYLINE
  5
411
330
1F
100
AcDbEntity
  8
0
  6
Continuous
 62
     7
370
    15
100
AcDbPolyline
 90
       16
 70
   128
 43
0.0
 10
21.7196467723
 20
14.2072844512
 10
21.724014128
 20
14.2158241467
 10
21.7246319413
 20
14.2262629019
 10
21.7203481611
 20
14.2364107824
 10
21.7114806
 20
14.2455151421
 10
21.6986868951
 20
14.2529007908
 10
21.6829159727
 20
14.2580199248
 10
21.6653374234
 20
14.2604928985
 10
21.6472548542
 20
14.2601363323
 10
21.630009557
 20
14.256976651
 10
21.6148805988
 20
14.2512480855
 10
21.6029897351
 20
14.2433756776
 10
21.5952190784
 20
14.233943197
 10
21.5921449849
 20
14.2236501261
 10
21.5939952746
 20
14.2132600222
 10
21.5974396438
 20
14.2072844288
  0
ARC
  5
412
330
1F
100
AcDbEntity
  8
0
  6
Continuous
 62
     7
370
    15
100
AcDbCircle
 10
23.4541490561
 20
9.6648035607
 30
0.0
 40
0.2243933765001737
100
AcDbArc
 50
242.2791180183
 51
297.7208573343
  0
LINE
  5
413
330
1F
100
AcDbEntity
  8
0
  6
Continuous
 62
     7
370
    15
100
AcDbLine
 10
23.3497691773
 20
9.4661651245
 30
0.0
 11
23.3497691773
 21
10.047389032
 31
0.0
  0
ELLIPSE
  5
414
330
1F
100
AcDbEntity
  8
0
  6
Continuous
 62
     7
370
    15
100
AcDbEllipse
 10
23.4541490217
 20
10.1076829288
 30
0.0
 11
0.1476377952755925
 21
0.0
 31
0.0
210
0.0
220
0.0
230
1.0
 40
0.5774635729
 41
3.927143110234848
 42
5.497634850534595
  0
LINE
  5
415
330
1F
100
AcDbEntity
  8
0
  6
Continuous
 62
     7
370
    15
100
AcDbLine
 10
23.5585288882
 20
10.0473890095
 30
0.0
 11
23.5585288494
 21
9.4661650796
 31
0.0
  0
LWPOLYLINE
  5
416
330
1F
100
AcDbEntity
  8
0
  6
Continuous
 62
     7
370
    15
100
AcDbPolyline
 90
       27
 70
   128
 43
0.0
 10
24.240619532
 20
10.6774544157
 10
24.2423742095
 20
10.6827343098
 10
24.2502968889
 20
10.6961152189
 10
24.2627233126
 20
10.7083015122
 10
24.279144794
 20
10.7187942395
 10
24.2988888788
 20
10.7271638915
 10
24.3211471905
 20
10.7330679112
 10
24.3450086044
 20
10.736264457
 10
24.3694963097
 20
10.7366226621
 10
24.3936075168
 20
10.7341279559
 10
24.4163553424
 20
10.7288823556
 10
24.4368083607
 20
10.7211007168
 10
24.4541293776
 20
10.7111015066
 10
24.4676090318
 20
10.6992942305
 10
24.476695507
 20
10.6861622801
 10
24.4810170887
 20
10.6722430868
 10
24.4803964364
 20
10.6581067252
 10
24.4748594123
 20
10.6443317343
 10
24.4646322421
 20
10.6314822845
 10
24.4501340088
 20
10.620084267
 10
24.431957947
 20
10.6106044373
 10
24.4108485362
 20
10.6034307258
 10
24.3876696103
 20
10.5988570604
 10
24.3633705041
 20
10.5970704688
 10
24.3389456652
 20
10.5981442872
 10
24.3153953941
 20
10.6020343544
 10
24.3079195074
 20
10.6039294515
  0
LWPOLYLINE
  5
417
330
1F
100
AcDbEntity
  8
0
  6
Continuous
 62
     7
370
    15
100
AcDbPolyline
 90
       20
 70
   128
 43
0.0
 10
20.66678426
 20
11.8373086833
 10
20.6513045491
 20
11.8482681213
 10
20.6399630904
 20
11.86080218
 10
20.6332245466
 20
11.8743974509
 10
20.6313644566
 20
11.8884976215
 10
20.6344592787
 20
11.9025252081
 10
20.642381958
 20
11.9159061172
 10
20.6548084985
 20
11.9280922983
 10
20.6712298243
 20
11.9385851154
 10
20.6909739479
 20
11.9469547897
 10
20.7132322208
 20
11.952858787
 10
20.7370938097
 20
11.9560552542
 10
20.76158134
 20
11.9564135379
 10
20.7856927027
 20
11.9539187419
 10
20.8084403726
 20
11.9486732314
 10
20.8288933909
 20
11.9408915927
 10
20.8462144078
 20
11.9308923824
 10
20.859694062
 20
11.9190851063
 10
20.8687806929
 20
11.9059530662
 10
20.871609135
 20
11.8988738395
  0
ARC
  5
418
330
1F
100
AcDbEntity
  8
0
  6
Continuous
 62
     7
370
    15
100
AcDbCircle
 10
20.7486016019
 20
11.9909206327
 30
0.0
 40
0.1740422605140111
100
AcDbArc
 50
241.9591839729
 51
269.903190609
  0
LWPOLYLINE
  5
419
330
1F
100
AcDbEntity
  8
0
  6
Continuous
 62
     7
370
    15
100
AcDbPolyline
 90
       21
 70
   128
 43
0.0
 10
20.5373335956
 20
11.7746316993
 10
20.5281023313
 20
11.7819665638
 10
20.5232492731
 20
11.790589081
 10
20.5232491953
 20
11.7996554536
 10
20.5281023313
 20
11.8082780157
 10
20.5373335956
 20
11.8156127904
 10
20.5500391748
 20
11.8209418859
 10
20.5649755087
 20
11.8237435416
 10
20.5806806285
 20
11.8237434967
 10
20.5956169236
 20
11.8209419083
 10
20.6083226583
 20
11.8156128129
 10
20.6175537671
 20
11.8082780381
 10
20.6224069419
 20
11.7996554087
 10
20.6224068642
 20
11.7905891259
 10
20.6175537282
 20
11.7819665638
 10
20.6083226194
 20
11.7746316993
 10
20.5956168847
 20
11.7693026936
 10
20.5806805508
 20
11.7665010379
 10
20.5649755865
 20
11.766500993
 10
20.5500391748
 20
11.7693026936
 10
20.5373335956
 20
11.7746316993
  0
LWPOLYLINE
  5
41A
330
1F
100
AcDbEntity
  8
0
  6
Continuous
 62
     7
370
    15
100
AcDbPolyline
 90
       21
 70
   128
 43
0.0
 10
23.4186544625
 20
10.1112805682
 10
23.4094233538
 20
10.118615343
 10
23.40457014
 20
10.1272379499
 10
23.4045702178
 20
10.1363042328
 10
23.4094233538
 20
10.1449267948
 10
23.4186544625
 20
10.1522616594
 10
23.4313601973
 20
10.157590665
 10
23.4462965312
 20
10.1603923208
 10
23.4620014955
 20
10.1603923657
 10
23.476937946
 20
10.1575906875
 10
23.4896435252
 20
10.1522616818
 10
23.4988747895
 20
10.1449268173
 10
23.5037278089
 20
10.1363042777
 10
23.5037278866
 20
10.127237905
 10
23.4988747507
 20
10.118615343
 10
23.4896434863
 20
10.1112805682
 10
23.4769379071
 20
10.1059514728
 10
23.4620015732
 20
10.103149817
 10
23.4462964534
 20
10.1031498619
 10
23.4313601973
 20
10.1059514728
 10
23.4186544625
 20
10.1112805682
  0
LWPOLYLINE
  5
41B
330
1F
100
AcDbEntity
  8
0
  6
Continuous
 62
     7
370
    15
100
AcDbPolyline
 90
       21
 70
   128
 43
0.0
 10
24.5043695825
 20
10.7380505658
 10
24.4951384738
 20
10.7453853406
 10
24.4902852989
 20
10.75400797
 10
24.4902853767
 20
10.7630742528
 10
24.4951385127
 20
10.7716968149
 10
24.5043696214
 20
10.7790316794
 10
24.5170753562
 20
10.7843606851
 10
24.5320116901
 20
10.7871623408
 10
24.5477166543
 20
10.7871623857
 10
24.562653066
 20
10.7843606851
 10
24.5753586452
 20
10.7790316794
 10
24.5845899095
 20
10.7716968149
 10
24.5894429677
 20
10.7630742977
 10
24.5894430455
 20
10.7540079251
 10
24.5845899095
 20
10.745385363
 10
24.5753586452
 20
10.7380505883
 10
24.562653066
 20
10.7327214928
 10
24.5477167321
 20
10.7299198371
 10
24.5320116123
 20
10.729919882
 10
24.5170753173
 20
10.7327214704
 10
24.5043695825
 20
10.7380505658
  0
LWPOLYLINE
  5
41C
330
1F
100
AcDbEntity
  8
0
  6
Continuous
 62
     7
370
    15
100
AcDbPolyline
 90
       21
 70
   128
 43
0.0
 10
21.6230487156
 20
12.4014016969
 10
21.6138174513
 20
12.4087365614
 10
21.608964432
 20
12.417359101
 10
21.6089643542
 20
12.4264254737
 10
21.6138174902
 20
12.4350480357
 10
21.6230487545
 20
12.4423828104
 10
21.6357543337
 20
12.4477119059
 10
21.6506906676
 20
12.4505135617
 10
21.6663957874
 20
12.4505135168
 10
21.6813320435
 20
12.4477119059
 10
21.6940377783
 20
12.4423828104
 10
21.7032688871
 20
12.4350480357
 10
21.7081221008
 20
12.4264254288
 10
21.708122023
 20
12.4173591459
 10
21.7032688871
 20
12.4087365839
 10
21.6940377783
 20
12.4014017193
 10
21.6813320435
 20
12.3960727137
 10
21.6663957096
 20
12.3932710579
 10
21.6506907454
 20
12.393271013
 10
21.6357542948
 20
12.3960726912
 10
21.6230487156
 20
12.4014016969
  0
ELLIPSE
  5
41D
330
1F
100
AcDbEntity
  8
0
  6
Continuous
 62
     7
370
    15
100
AcDbEllipse
 10
24.5815906279
 20
10.7585411141
 30
0.0
 11
0.1476827706039963
 21
0.0
 31
0.0
210
0.0
220
0.0
230
1.0
 40
0.5771119048
 41
5.497939437029735
 42
7.068431177329454
  0
LINE
  5
41E
330
1F
100
AcDbEntity
  8
0
  6
Continuous
 62
     7
370
    15
100
AcDbLine
 10
24.686034063
 20
10.6982838922
 30
0.0
 11
23.5585288882
 21
10.0473890095
 31
0.0
  0
LINE
  5
41F
330
1F
100
AcDbEntity
  8
0
  6
Continuous
 62
     7
370
    15
100
AcDbLine
 10
23.3497691773
 20
10.047389032
 30
0.0
 11
20.4266582167
 21
11.7348650706
 31
0.0
  0
ELLIPSE
  5
420
330
1F
100
AcDbEntity
  8
0
  6
Continuous
 62
     7
370
    15
100
AcDbEllipse
 10
20.5311016129
 20
11.7951222797
 30
0.0
 11
0.1476827706039963
 21
0.0
 31
0.0
210
0.0
220
0.0
230
1.0
 40
0.5771119048
 41
2.356346783439929
 42
3.926838523739671
  0
LINE
  5
421
330
1F
100
AcDbEntity
  8
0
  6
Continuous
 62
     7
370
    15
100
AcDbLine
 10
20.4266581778
 20
11.8553794865
 30
0.0
 11
21.3109269311
 21
12.3658569719
 31
0.0
  0
LINE
  5
422
330
1F
100
AcDbEntity
  8
0
  6
Continuous
 62
     7
370
    15
100
AcDbLine
 10
21.3902727291
 20
12.4116623261
 30
0.0
 11
21.5541633526
 21
12.5062743692
 31
0.0
  0
ELLIPSE
  5
423
330
1F
100
AcDbEntity
  8
0
  6
Continuous
 62
     7
370
    15
100
AcDbEllipse
 10
21.6585432191
 20
12.445980465
 30
0.0
 11
0.147637795275589
 21
0.0
 31
0.0
210
0.0
220
0.0
230
1.0
 40
0.5774635729
 41
0.7855504566450098
 42
2.356042196944766
  0
LINE
  5
424
330
1F
100
AcDbEntity
  8
0
  6
Continuous
 62
     7
370
    15
100
AcDbLine
 10
21.7629230635
 20
12.5062743467
 30
0.0
 11
23.7242417225
 21
11.3740291854
 31
0.0
  0
LINE
  5
425
330
1F
100
AcDbEntity
  8
0
  6
Continuous
 62
     7
370
    15
100
AcDbLine
 10
23.8035875206
 20
11.3282238312
 30
0.0
 11
24.6860340241
 21
10.8187983081
 31
0.0
  0
ARC
  5
426
330
1F
100
AcDbEntity
  8
0
  6
Continuous
 62
     7
370
    15
100
AcDbCircle
 10
20.8635527624
 20
11.9968825686
 30
0.0
 40
0.0594025859099936
100
AcDbArc
 50
185.694968118
 51
245.625155103
  0
LINE
  5
427
330
1F
100
AcDbEntity
  8
0
  6
Continuous
 62
     7
370
    15
100
AcDbLine
 10
20.8400810186
 20
11.942172162
 30
0.0
 11
20.839037044
 21
11.9427748356
 31
0.0
  0
ARC
  5
428
330
1F
100
AcDbEntity
  8
0
  6
Continuous
 62
     7
370
    15
100
AcDbCircle
 10
20.8039942578
 20
11.871880943
 30
0.0
 40
0.0790133518698279
100
AcDbArc
 50
25.5950080213
 51
62.8245203255
  0
ARC
  5
429
330
1F
100
AcDbEntity
  8
0
  6
Continuous
 62
     7
370
    15
100
AcDbCircle
 10
20.7027831793
 20
11.697961216
 30
0.0
 40
0.0594022585219879
100
AcDbArc
 50
185.6947657193
 51
245.6253143546
  0
LINE
  5
42A
330
1F
100
AcDbEntity
  8
0
  6
Continuous
 62
     7
370
    15
100
AcDbLine
 10
23.1921158
 20
10.1926401217
 30
0.0
 11
20.6782677465
 21
11.6438537131
 31
0.0
  0
ARC
  5
42B
330
1F
100
AcDbEntity
  8
0
  6
Continuous
 62
     7
370
    15
100
AcDbCircle
 10
23.2756323626
 20
10.3538266533
 30
0.0
 40
0.1815381893881058
100
AcDbArc
 50
242.6096949693
 51
297.3903050307
  0
LINE
  5
42C
330
1F
100
AcDbEntity
  8
0
  6
Continuous
 62
     7
370
    15
100
AcDbLine
 10
23.3601928998
 20
10.1932427954
 30
0.0
 11
23.3591489253
 21
10.1926401217
 31
0.0
  0
ARC
  5
42D
330
1F
100
AcDbEntity
  8
0
  6
Continuous
 62
     7
370
    15
100
AcDbCircle
 10
23.4541490111
 20
10.0119080377
 30
0.0
 40
0.2042303729118134
100
AcDbArc
 50
62.6096750197
 51
117.3903112894
  0
LINE
  5
42E
330
1F
100
AcDbEntity
  8
0
  6
Continuous
 62
     7
370
    15
100
AcDbLine
 10
23.5491491403
 20
10.1926400993
 30
0.0
 11
23.5481051658
 21
10.193242773
 31
0.0
  0
ARC
  5
42F
330
1F
100
AcDbEntity
  8
0
  6
Continuous
 62
     7
370
    15
100
AcDbCircle
 10
23.6326657052
 20
10.3538265908
 30
0.0
 40
0.1815381548183007
100
AcDbArc
 50
242.609688527
 51
297.3902960707
  0
LINE
  5
430
330
1F
100
AcDbEntity
  8
0
  6
Continuous
 62
     7
370
    15
100
AcDbLine
 10
24.2736551968
 20
10.5144623723
 30
0.0
 11
23.7161822267
 21
10.1926400768
 31
0.0
  0
ARC
  5
431
330
1F
100
AcDbEntity
  8
0
  6
Continuous
 62
     7
370
    15
100
AcDbCircle
 10
24.2491397325
 20
10.5685699203
 30
0.0
 40
0.0594023125385774
100
AcDbArc
 50
294.3746953599
 51
354.305206694
  0
ARC
  5
432
330
1F
100
AcDbEntity
  8
0
  6
Continuous
 62
     7
370
    15
100
AcDbCircle
 10
24.3086967942
 20
10.6496807306
 30
0.0
 40
0.0790116772605363
100
AcDbArc
 50
117.1751815602
 51
154.4054661929
  0
LINE
  5
433
330
1F
100
AcDbEntity
  8
0
  6
Continuous
 62
     7
370
    15
100
AcDbLine
 10
24.4344244944
 20
10.8133834949
 30
0.0
 11
24.2726111639
 21
10.7199706476
 31
0.0
  0
ARC
  5
434
330
1F
100
AcDbEntity
  8
0
  6
Continuous
 62
     7
370
    15
100
AcDbCircle
 10
24.4099090563
 20
10.8674910016
 30
0.0
 40
0.0594022641249947
100
AcDbArc
 50
294.3746887612
 51
354.3052311649
  0
LINE
  5
435
330
1F
100
AcDbEntity
  8
0
  6
Continuous
 62
     7
370
    15
100
AcDbLine
 10
23.7161822267
 20
10.2288057908
 30
0.0
 11
24.2736551968
 21
10.5506280863
 31
0.0
  0
ARC
  5
436
330
1F
100
AcDbEntity
  8
0
  6
Continuous
 62
     7
370
    15
100
AcDbCircle
 10
23.6326657052
 20
10.3899923048
 30
0.0
 40
0.1815381548182991
100
AcDbArc
 50
242.609688527
 51
297.3902960707
  0
LINE
  5
437
330
1F
100
AcDbEntity
  8
0
  6
Continuous
 62
     7
370
    15
100
AcDbLine
 10
23.5481051658
 20
10.2294084869
 30
0.0
 11
23.5491491403
 21
10.2288058132
 31
0.0
  0
ARC
  5
438
330
1F
100
AcDbEntity
  8
0
  6
Continuous
 62
     7
370
    15
100
AcDbCircle
 10
23.4541490111
 20
10.0480737516
 30
0.0
 40
0.2042303729118283
100
AcDbArc
 50
62.6096750197
 51
117.3903112894
  0
LINE
  5
439
330
1F
100
AcDbEntity
  8
0
  6
Continuous
 62
     7
370
    15
100
AcDbLine
 10
23.3591489253
 20
10.2288058357
 30
0.0
 11
23.3601928998
 21
10.2294085094
 31
0.0
  0
ARC
  5
43A
330
1F
100
AcDbEntity
  8
0
  6
Continuous
 62
     7
370
    15
100
AcDbCircle
 10
23.2756323626
 20
10.3899923673
 30
0.0
 40
0.1815381893881074
100
AcDbArc
 50
242.6096949693
 51
297.3903050307
  0
LINE
  5
43B
330
1F
100
AcDbEntity
  8
0
  6
Continuous
 62
     7
370
    15
100
AcDbLine
 10
20.6782677465
 20
11.680019427
 30
0.0
 11
23.1921158
 21
10.2288058357
 31
0.0
  0
ARC
  5
43C
330
1F
100
AcDbEntity
  8
0
  6
Continuous
 62
     7
370
    15
100
AcDbCircle
 10
20.6965662538
 20
11.7282325124
 30
0.0
 40
0.0515687596433381
100
AcDbArc
 50
110.7834588027
 51
249.2165411973
  0
LINE
  5
43D
330
1F
100
AcDbEntity
  8
0
  6
Continuous
 62
     7
370
    15
100
AcDbLine
 10
20.8400810769
 20
11.869858445
 30
0.0
 11
20.6782677465
 21
11.7764455978
 31
0.0
  0
ARC
  5
43E
330
1F
100
AcDbEntity
  8
0
  6
Continuous
 62
     7
370
    15
100
AcDbCircle
 10
20.8194952775
 20
11.9240981494
 30
0.0
 40
0.058014831418921
100
AcDbArc
 50
290.7834449181
 51
69.2166167044
  0
LINE
  5
43F
330
1F
100
AcDbEntity
  8
0
  6
Continuous
 62
     7
370
    15
100
AcDbLine
 10
20.839037044
 20
11.9789405496
 30
0.0
 11
20.8400810186
 21
11.9783378759
 31
0.0
  0
ARC
  5
440
330
1F
100
AcDbEntity
  8
0
  6
Continuous
 62
     7
370
    15
100
AcDbCircle
 10
20.8573355795
 20
12.027153635
 30
0.0
 40
0.0515687696355385
100
AcDbArc
 50
110.783488054
 51
249.216511946
  0
LINE
  5
441
330
1F
100
AcDbEntity
  8
0
  6
Continuous
 62
     7
370
    15
100
AcDbLine
 10
21.3265812016
 20
12.3568199716
 30
0.0
 11
20.839037044
 21
12.0753667203
 31
0.0
  0
ARC
  5
442
330
1F
100
AcDbEntity
  8
0
  6
Continuous
 62
     7
370
    15
100
AcDbCircle
 10
21.479577819
 20
12.2336438719
 30
0.0
 40
0.1838400807070359
100
AcDbArc
 50
62.8236986347
 51
113.4361565266
  0
LINE
  5
443
330
1F
100
AcDbEntity
  8
0
  6
Continuous
 62
     7
370
    15
100
AcDbLine
 10
21.5645870751
 20
12.3965863197
 30
0.0
 11
21.5635431006
 21
12.3971889933
 31
0.0
  0
ARC
  5
444
330
1F
100
AcDbEntity
  8
0
  6
Continuous
 62
     7
370
    15
100
AcDbCircle
 10
21.6585432297
 20
12.577921055
 30
0.0
 40
0.2042303729118267
100
AcDbArc
 50
242.6096750197
 51
297.3903112894
  0
LINE
  5
445
330
1F
100
AcDbEntity
  8
0
  6
Continuous
 62
     7
370
    15
100
AcDbLine
 10
21.7535433156
 20
12.3971889709
 30
0.0
 11
21.7524993411
 21
12.3965862972
 31
0.0
  0
ARC
  5
446
330
1F
100
AcDbEntity
  8
0
  6
Continuous
 62
     7
370
    15
100
AcDbCircle
 10
21.8370598782
 20
12.2360024393
 30
0.0
 40
0.1815381893881137
100
AcDbArc
 50
62.6096949693
 51
117.3903050307
  0
LINE
  5
447
330
1F
100
AcDbEntity
  8
0
  6
Continuous
 62
     7
370
    15
100
AcDbLine
 10
24.4344244944
 20
10.9459753796
 30
0.0
 11
23.7879332306
 21
11.3191868421
 31
0.0
  0
LINE
  5
448
330
1F
100
AcDbEntity
  8
0
  6
Continuous
 62
     7
370
    15
100
AcDbLine
 10
23.7085874325
 20
11.3649921963
 30
0.0
 11
21.9205764409
 21
12.3971889709
 31
0.0
  0
ARC
  5
449
330
1F
100
AcDbEntity
  8
0
  6
Continuous
 62
     7
370
    15
100
AcDbCircle
 10
24.416125987
 20
10.8977622942
 30
0.0
 40
0.0515687596433439
100
AcDbArc
 50
290.7834588027
 51
69.2165411973
  0
LINE
  5
44A
330
1F
100
AcDbEntity
  8
0
  6
Continuous
 62
     7
370
    15
100
AcDbLine
 10
24.2726111639
 20
10.7561363615
 30
0.0
 11
24.4344244944
 21
10.8495492088
 31
0.0
  0
ARC
  5
44B
330
1F
100
AcDbEntity
  8
0
  6
Continuous
 62
     7
370
    15
100
AcDbCircle
 10
24.2931969633
 20
10.7018966572
 30
0.0
 40
0.0580148314189234
100
AcDbArc
 50
110.7834449181
 51
249.2166167044
  0
LINE
  5
44C
330
1F
100
AcDbEntity
  8
0
  6
Continuous
 62
     7
370
    15
100
AcDbLine
 10
24.2736551968
 20
10.647054257
 30
0.0
 11
24.2726112223
 21
10.6476569307
 31
0.0
  0
ARC
  5
44D
330
1F
100
AcDbEntity
  8
0
  6
Continuous
 62
     7
370
    15
100
AcDbCircle
 10
24.2553566613
 20
10.5988411716
 30
0.0
 40
0.0515687696355347
100
AcDbArc
 50
290.783488054
 51
69.216511946
  0
ARC
  5
44E
330
1F
100
AcDbEntity
  8
0
  6
Continuous
 62
     7
370
    15
100
AcDbCircle
 10
21.8370597549
 20
12.278367464
 30
0.0
 40
0.1134614218644912
100
AcDbArc
 50
62.6096498827
 51
117.3902761864
  0
LINE
  5
44F
330
1F
100
AcDbEntity
  8
0
  6
Continuous
 62
     7
370
    15
100
AcDbLine
 10
21.7848619294
 20
12.37910912
 30
0.0
 11
21.7838179548
 21
12.3785064463
 31
0.0
  0
ARC
  5
450
330
1F
100
AcDbEntity
  8
0
  6
Continuous
 62
     7
370
    15
100
AcDbCircle
 10
21.6585431476
 20
12.6189569155
 30
0.0
 40
0.2711276552624396
100
AcDbArc
 50
242.480475394
 51
297.5195348742
  0
LINE
  5
451
330
1F
100
AcDbEntity
  8
0
  6
Continuous
 62
     7
370
    15
100
AcDbLine
 10
21.5332683835
 20
12.3785064239
 30
0.0
 11
21.532224409
 21
12.3791090976
 31
0.0
  0
ARC
  5
452
330
1F
100
AcDbEntity
  8
0
  6
Continuous
 62
     7
370
    15
100
AcDbCircle
 10
21.4796318907
 20
12.2762278336
 30
0.0
 40
0.1155444825735553
100
AcDbArc
 50
62.9240512833
 51
111.0648895682
  0
LINE
  5
453
330
1F
100
AcDbEntity
  8
0
  6
Continuous
 62
     7
370
    15
100
AcDbLine
 10
20.8703558134
 20
12.0572867796
 30
0.0
 11
21.357899971
 21
12.3387400309
 31
0.0
  0
ARC
  5
454
330
1F
100
AcDbEntity
  8
0
  6
Continuous
 62
     7
370
    15
100
AcDbCircle
 10
20.881792384
 20
12.027153607
 30
0.0
 40
0.0322304706580114
100
AcDbArc
 50
110.7834684064
 51
249.2164206731
  0
LINE
  5
455
330
1F
100
AcDbEntity
  8
0
  6
Continuous
 62
     7
370
    15
100
AcDbLine
 10
20.870355755
 20
11.9970204566
 30
0.0
 11
20.8713997296
 21
11.9964177829
 31
0.0
  0
ARC
  5
456
330
1F
100
AcDbEntity
  8
0
  6
Continuous
 62
     7
370
    15
100
AcDbCircle
 10
20.8431853795
 20
11.9240981961
 30
0.0
 40
0.0776284238288065
100
AcDbArc
 50
291.3124305857
 51
68.687538603
  0
LINE
  5
457
330
1F
100
AcDbEntity
  8
0
  6
Continuous
 62
     7
370
    15
100
AcDbLine
 10
20.7095863603
 20
11.7583657469
 30
0.0
 11
20.8713996907
 21
11.8517785942
 31
0.0
  0
ARC
  5
458
330
1F
100
AcDbEntity
  8
0
  6
Continuous
 62
     7
370
    15
100
AcDbCircle
 10
20.7210229862
 20
11.7282325682
 30
0.0
 40
0.0322304959491055
100
AcDbArc
 50
110.7835564133
 51
249.2166654274
  0
LINE
  5
459
330
1F
100
AcDbEntity
  8
0
  6
Continuous
 62
     7
370
    15
100
AcDbLine
 10
23.2234345304
 20
10.2468857539
 30
0.0
 11
20.7095864769
 21
11.6980993452
 31
0.0
  0
ARC
  5
45A
330
1F
100
AcDbEntity
  8
0
  6
Continuous
 62
     7
370
    15
100
AcDbCircle
 10
23.2756324859
 20
10.3476273426
 30
0.0
 40
0.1134614218644898
100
AcDbArc
 50
242.6096498827
 51
297.3902761864
  0
LINE
  5
45B
330
1F
100
AcDbEntity
  8
0
  6
Continuous
 62
     7
370
    15
100
AcDbLine
 10
23.3278303115
 20
10.2468856866
 30
0.0
 11
23.328874286
 21
10.2474883602
 31
0.0
  0
ARC
  5
45C
330
1F
100
AcDbEntity
  8
0
  6
Continuous
 62
     7
370
    15
100
AcDbCircle
 10
23.4541490932
 20
10.0070378911
 30
0.0
 40
0.271127655262445
100
AcDbArc
 50
62.480475394
 51
117.5195348742
  0
LINE
  5
45D
330
1F
100
AcDbEntity
  8
0
  6
Continuous
 62
     7
370
    15
100
AcDbLine
 10
23.5794238573
 20
10.2474883827
 30
0.0
 11
23.5804678318
 21
10.246885709
 31
0.0
  0
ARC
  5
45E
330
1F
100
AcDbEntity
  8
0
  6
Continuous
 62
     7
370
    15
100
AcDbCircle
 10
23.6326656229
 20
10.3476274044
 30
0.0
 40
0.1134614409954866
100
AcDbArc
 50
242.6097484127
 51
297.390276231
  0
LINE
  5
45F
330
1F
100
AcDbEntity
  8
0
  6
Continuous
 62
     7
370
    15
100
AcDbLine
 10
24.2423364275
 20
10.5687080269
 30
0.0
 11
23.6848634574
 21
10.2468857315
 31
0.0
  0
ARC
  5
460
330
1F
100
AcDbEntity
  8
0
  6
Continuous
 62
     7
370
    15
100
AcDbCircle
 10
24.2308998568
 20
10.5988411995
 30
0.0
 40
0.0322304706580105
100
AcDbArc
 50
290.7834684064
 51
69.2164206731
  0
LINE
  5
461
330
1F
100
AcDbEntity
  8
0
  6
Continuous
 62
     7
370
    15
100
AcDbLine
 10
24.2423364858
 20
10.62897435
 30
0.0
 11
24.2412925113
 21
10.6295770237
 31
0.0
  0
ARC
  5
462
330
1F
100
AcDbEntity
  8
0
  6
Continuous
 62
     7
370
    15
100
AcDbCircle
 10
24.2695068614
 20
10.7018966104
 30
0.0
 40
0.0776284238288014
100
AcDbArc
 50
111.3124305857
 51
248.687538603
  0
LINE
  5
463
330
1F
100
AcDbEntity
  8
0
  6
Continuous
 62
     7
370
    15
100
AcDbLine
 10
24.4031058806
 20
10.8676290597
 30
0.0
 11
24.2412925502
 21
10.7742162124
 31
0.0
  0
ARC
  5
464
330
1F
100
AcDbEntity
  8
0
  6
Continuous
 62
     7
370
    15
100
AcDbCircle
 10
24.3916692547
 20
10.8977622384
 30
0.0
 40
0.0322304959491072
100
AcDbArc
 50
290.7835564133
 51
69.2166654274
  0
LINE
  5
465
330
1F
100
AcDbEntity
  8
0
  6
Continuous
 62
     7
370
    15
100
AcDbLine
 10
21.8892577104
 20
12.3791090527
 30
0.0
 11
23.6772557516
 21
11.3469197543
 31
0.0
  0
LINE
  5
466
330
1F
100
AcDbEntity
  8
0
  6
Continuous
 62
     7
370
    15
100
AcDbLine
 10
23.7566145001
 20
11.3011069239
 30
0.0
 11
24.4031057639
 21
10.9278954613
 31
0.0
  0
LINE
  5
467
330
1F
100
AcDbEntity
  8
0
  6
Continuous
 62
     7
370
    15
100
AcDbLine
 10
24.6681507295
 20
10.1067361561
 30
0.0
 11
23.5585288494
 21
9.4661650796
 31
0.0
  0
LINE
  5
468
330
1F
100
AcDbEntity
  8
0
  6
Continuous
 62
     7
370
    15
100
AcDbLine
 10
24.686034063
 20
10.6982838922
 30
0.0
 11
24.6681507295
 21
10.1067361561
 31
0.0
  0
LINE
  5
469
330
1F
100
AcDbEntity
  8
0
  6
Continuous
 62
     7
370
    15
100
AcDbLine
 10
23.3497691773
 20
9.4661651245
 30
0.0
 11
20.4445415892
 21
11.143317312
 31
0.0
  0
LINE
  5
46A
330
1F
100
AcDbEntity
  8
0
  6
Continuous
 62
     7
370
    15
100
AcDbLine
 10
20.4266582167
 20
11.7348650706
 30
0.0
 11
20.4445415892
 21
11.143317312
 31
0.0
  0
LINE
  5
46B
330
1F
100
AcDbEntity
  8
0
  6
Continuous
 62
     7
370
    15
100
AcDbLine
 10
23.3601928998
 20
10.1932427954
 30
0.0
 11
23.3601928998
 21
10.2294085094
 31
0.0
  0
LINE
  5
46C
330
1F
100
AcDbEntity
  8
0
  6
Continuous
 62
     7
370
    15
100
AcDbLine
 10
23.5481051658
 20
10.2294084869
 30
0.0
 11
23.5481051658
 21
10.193242773
 31
0.0
  0
LINE
  5
46D
330
1F
100
AcDbEntity
  8
0
  6
Continuous
 62
     7
370
    15
100
AcDbLine
 10
23.7161822267
 20
10.1926400768
 30
0.0
 11
23.7161822267
 21
10.2288057908
 31
0.0
  0
LINE
  5
46E
330
1F
100
AcDbEntity
  8
0
  6
Continuous
 62
     7
370
    15
100
AcDbLine
 10
23.5491491403
 20
10.2288058132
 30
0.0
 11
23.5491491403
 21
10.1926400993
 31
0.0
  0
LINE
  5
46F
330
1F
100
AcDbEntity
  8
0
  6
Continuous
 62
     7
370
    15
100
AcDbLine
 10
23.3591489253
 20
10.1926401217
 30
0.0
 11
23.3591489253
 21
10.2288058357
 31
0.0
  0
LINE
  5
470
330
1F
100
AcDbEntity
  8
0
  6
Continuous
 62
     7
370
    15
100
AcDbLine
 10
23.1921158
 20
10.2288058357
 30
0.0
 11
23.1921158
 21
10.1926401217
 31
0.0
  0
LINE
  5
471
330
1F
100
AcDbEntity
  8
0
  6
Continuous
 62
     7
370
    15
100
AcDbLine
 10
24.2736551968
 20
10.5506280863
 30
0.0
 11
24.2736551968
 21
10.5144623723
 31
0.0
  0
LINE
  5
472
330
1F
100
AcDbEntity
  8
0
  6
Continuous
 62
     7
370
    15
100
AcDbLine
 10
20.6782677465
 20
11.6438537131
 30
0.0
 11
20.6782677465
 21
11.680019427
 31
0.0
  0
LINE
  5
473
330
1F
100
AcDbEntity
  8
0
  6
Continuous
 62
     7
370
    15
100
AcDbLine
 10
20.9887994961
 20
11.5369130742
 30
0.0
 11
21.3401364394
 21
11.7397355744
 31
0.0
  0
LINE
  5
474
330
1F
100
AcDbEntity
  8
0
  6
Continuous
 62
     7
370
    15
100
AcDbLine
 10
21.4518499593
 20
11.6752447321
 30
0.0
 11
21.3401364394
 21
11.7397355744
 31
0.0
  0
ELLIPSE
  5
475
330
1F
100
AcDbEntity
  8
0
  6
Continuous
 62
     7
370
    15
100
AcDbEllipse
 10
21.5186529996
 20
11.7138328304
 30
0.0
 11
0.09448818897638134
 21
0.0
 31
0.0
210
0.0
220
0.0
230
1.0
 40
0.5774635729
 41
3.927143110234846
 42
5.497634850534565
  0
LINE
  5
476
330
1F
100
AcDbEntity
  8
0
  6
Continuous
 62
     7
370
    15
100
AcDbLine
 10
21.7936086968
 20
11.7954087334
 30
0.0
 11
21.5854560265
 21
11.6752447545
 31
0.0
  0
ARC
  5
477
330
1F
100
AcDbEntity
  8
0
  6
Continuous
 62
     7
370
    15
100
AcDbCircle
 10
21.837059796
 20
11.7115482866
 30
0.0
 40
0.0944487827168592
100
AcDbArc
 50
62.6096500416
 51
117.3902907496
  0
LINE
  5
478
330
1F
100
AcDbEntity
  8
0
  6
Continuous
 62
     7
370
    15
100
AcDbLine
 10
21.8805109819
 20
11.7954086884
 30
0.0
 11
24.1238927837
 21
10.5003319408
 31
0.0
  0
LINE
  5
479
330
1F
100
AcDbEntity
  8
0
  6
Continuous
 62
     7
370
    15
100
AcDbLine
 10
24.2726111639
 20
10.7561363615
 30
0.0
 11
24.2726111639
 21
10.7199706476
 31
0.0
  0
LINE
  5
47A
330
1F
100
AcDbEntity
  8
0
  6
Continuous
 62
     7
370
    15
100
AcDbLine
 10
24.4344244944
 20
10.8495492088
 30
0.0
 11
24.4344244944
 21
10.8133834949
 31
0.0
  0
LINE
  5
47B
330
1F
100
AcDbEntity
  8
0
  6
Continuous
 62
     7
370
    15
100
AcDbLine
 10
20.8400810186
 20
11.942172162
 30
0.0
 11
20.8400810186
 21
11.9783378759
 31
0.0
  0
LINE
  5
47C
330
1F
100
AcDbEntity
  8
0
  6
Continuous
 62
     7
370
    15
100
AcDbLine
 10
20.839037044
 20
11.9427748356
 30
0.0
 11
20.839037044
 21
11.9789405496
 31
0.0
  0
LINE
  5
47D
330
1F
100
AcDbEntity
  8
0
  6
Continuous
 62
     7
370
    15
100
AcDbLine
 10
21.3401364005
 20
11.9850479776
 30
0.0
 11
21.4329310515
 21
12.0386171894
 31
0.0
  0
LINE
  5
47E
330
1F
100
AcDbEntity
  8
0
  6
Continuous
 62
     7
370
    15
100
AcDbLine
 10
21.3401364394
 20
11.7397355744
 30
0.0
 11
21.3401364005
 21
11.9850479776
 31
0.0
  0
LINE
  5
47F
330
1F
100
AcDbEntity
  8
0
  6
Continuous
 62
     7
370
    15
100
AcDbLine
 10
21.5854560654
 20
11.9205571129
 30
0.0
 11
21.5854560265
 21
11.6752447545
 31
0.0
  0
LINE
  5
480
330
1F
100
AcDbEntity
  8
0
  6
Continuous
 62
     7
370
    15
100
AcDbLine
 10
21.7889203006
 20
12.0380145158
 30
0.0
 11
21.5854560654
 21
11.9205571129
 31
0.0
  0
ARC
  5
481
330
1F
100
AcDbEntity
  8
0
  6
Continuous
 62
     7
370
    15
100
AcDbCircle
 10
21.6585432296
 20
12.2882594603
 30
0.0
 40
0.2821714247232176
100
AcDbArc
 50
242.4805745509
 51
297.5194155827
  0
ARC
  5
482
330
1F
100
AcDbEntity
  8
0
  6
Continuous
 62
     7
370
    15
100
AcDbCircle
 10
21.4800266179
 20
11.9477231179
 30
0.0
 40
0.1023705260753053
100
AcDbArc
 50
62.6096896482
 51
117.3903376654
  0
LINE
  5
483
330
1F
100
AcDbEntity
  8
0
  6
Continuous
 62
     7
370
    15
100
AcDbLine
 10
21.527122141
 20
12.0386172119
 30
0.0
 11
21.5281661155
 21
12.0380145382
 31
0.0
  0
LINE
  5
484
330
1F
100
AcDbEntity
  8
0
  6
Continuous
 62
     7
370
    15
100
AcDbLine
 10
21.4518499593
 20
11.6752447321
 30
0.0
 11
21.4518499204
 21
11.9205571353
 31
0.0
  0
ELLIPSE
  5
485
330
1F
100
AcDbEntity
  8
0
  6
Continuous
 62
     7
370
    15
100
AcDbEllipse
 10
21.5186529996
 20
11.9591452128
 30
0.0
 11
0.09448818897638134
 21
0.0
 31
0.0
210
0.0
220
0.0
230
1.0
 40
0.5774635729
 41
3.927143110234869
 42
5.497634850534543
  0
LINE
  5
486
330
1F
100
AcDbEntity
  8
0
  6
Continuous
 62
     7
370
    15
100
AcDbLine
 10
21.3401364005
 20
11.9850479776
 30
0.0
 11
21.4518499204
 21
11.9205571353
 31
0.0
  0
LWPOLYLINE
  5
487
330
1F
100
AcDbEntity
  8
0
  6
Continuous
 62
     7
370
    15
100
AcDbPolyline
 90
       20
 70
   128
 43
0.0
 10
21.5395321141
 20
11.9915416046
 10
21.5485692374
 20
11.9842347588
 10
21.5530067514
 20
11.9756299106
 10
21.5523640872
 20
11.9666594709
 10
21.5467107029
 20
11.9582955215
 10
21.5366593563
 20
11.9514444528
 10
21.5232991346
 20
11.9468486732
 10
21.5080779477
 20
11.9450062012
 10
21.4926450609
 20
11.9461167605
 10
21.4786731512
 20
11.9500598794
 10
21.4676760283
 20
11.9564083833
 10
21.4608454504
 20
11.9644742849
 10
21.4589218522
 20
11.9733834111
 10
21.4621132976
 20
11.982170505
 10
21.470074284
 20
11.9898831968
 10
21.4819419691
 20
11.9956857157
 10
21.4964303242
 20
11.998949345
 10
21.5119692652
 20
11.9993203471
 10
21.5268749146
 20
11.9967586248
 10
21.5395321141
 20
11.9915416046
  0
ARC
  5
488
330
1F
100
AcDbEntity
  8
0
  6
Continuous
 62
     8
370
    15
100
AcDbCircle
 10
24.6590102179
 20
12.6208213563
 30
0.0
 40
0.0265705968317525
100
AcDbArc
 50
63.3439145488
 51
117.7150215447
  0
ARC
  5
489
330
1F
100
AcDbEntity
  8
0
  6
Continuous
 62
     8
370
    15
100
AcDbCircle
 10
24.6608706622
 20
12.5613674707
 30
0.0
 40
0.0640843131738115
100
AcDbArc
 50
290.3018823095
 51
359.5720573231
  0
ARC
  5
48A
330
1F
100
AcDbEntity
  8
0
  6
Continuous
 62
     8
370
    15
100
AcDbCircle
 10
21.7359036287
 20
14.3082777827
 30
0.0
 40
0.0265899924598354
100
AcDbArc
 50
63.5000368252
 51
117.7037062146
  0
ARC
  5
48B
330
1F
100
AcDbEntity
  8
0
  6
Continuous
 62
     8
370
    15
100
AcDbCircle
 10
20.4536783994
 20
13.6573868956
 30
0.0
 40
0.0265861036417135
100
AcDbArc
 50
62.2935241371
 51
116.5212099594
  0
ARC
  5
48C
330
1F
100
AcDbEntity
  8
0
  6
Continuous
 62
     8
370
    15
100
AcDbCircle
 10
20.4538292517
 20
13.599353212
 30
0.0
 40
0.0661129341996115
100
AcDbArc
 50
181.6320382877
 51
248.4885705552
  0
ARC
  5
48D
330
1F
100
AcDbEntity
  8
0
  6
Continuous
 62
     8
370
    15
100
AcDbCircle
 10
21.5811828698
 20
14.3082783784
 30
0.0
 40
0.0265894412795692
100
AcDbArc
 50
62.2955864804
 51
116.5005662287
  0
ARC
  5
48E
330
1F
100
AcDbEntity
  8
0
  6
Continuous
 62
     8
370
    15
100
AcDbCircle
 10
23.5293806431
 20
9.4638153957
 30
0.0
 40
0.0292427587657754
100
AcDbArc
 50
305.341930334
 51
4.6087397059
  0
ARC
  5
48F
330
1F
100
AcDbEntity
  8
0
  6
Continuous
 62
     8
370
    15
100
AcDbCircle
 10
23.37892453
 20
9.4638167078
 30
0.0
 40
0.0292497804036798
100
AcDbArc
 50
175.3948594668
 51
234.6116110847
  0
ARC
  5
490
330
1F
100
AcDbEntity
  8
0
  6
Continuous
 62
     8
370
    15
100
AcDbCircle
 10
20.4736922743
 20
11.1409679736
 30
0.0
 40
0.029245201916622
100
AcDbArc
 50
175.3923253023
 51
234.6414976463
  0
ARC
  5
491
330
1F
100
AcDbEntity
  8
0
  6
Continuous
 62
     8
370
    15
100
AcDbCircle
 10
24.6389998257
 20
10.1043870108
 30
0.0
 40
0.0292454043094937
100
AcDbArc
 50
305.3585593114
 51
4.6072631293
  0
LINE
  5
492
330
1F
100
AcDbEntity
  8
0
  6
Continuous
 62
     8
370
    15
100
AcDbLine
 10
24.2414255165
 20
10.5681820739
 30
0.0
 11
24.2423364858
 21
10.62897435
 31
0.0
  0
LINE
  5
493
330
1F
100
AcDbEntity
  8
0
  6
Continuous
 62
     8
370
    15
100
AcDbLine
 10
24.2403633218
 20
10.5675689106
 30
0.0
 11
24.2412925113
 21
10.6295770237
 31
0.0
  0
ARC
  5
494
330
1F
100
AcDbEntity
  8
0
  6
Continuous
 62
     8
370
    15
100
AcDbCircle
 10
24.6389542939
 20
10.1732436887
 30
0.0
 40
0.0726339021797581
100
AcDbArc
 50
293.7012061524
 51
353.6195789106
  0
LINE
  5
495
330
1F
100
AcDbEntity
  8
0
  6
Continuous
 62
     8
370
    15
100
AcDbLine
 10
24.4021947946
 20
10.8671031852
 30
0.0
 11
24.4031057639
 21
10.9278954613
 31
0.0
  0
LINE
  5
496
330
1F
100
AcDbEntity
  8
0
  6
Continuous
 62
     8
370
    15
100
AcDbLine
 10
21.8892577104
 20
12.3791090527
 30
0.0
 11
21.8854618495
 21
12.1257957767
 31
0.0
  0
LINE
  5
497
330
1F
100
AcDbEntity
  8
0
  6
Continuous
 62
     8
370
    15
100
AcDbLine
 10
21.8841008403
 20
12.0349707451
 30
0.0
 11
21.8805109819
 21
11.7954086884
 31
0.0
  0
LINE
  5
498
330
1F
100
AcDbEntity
  8
0
  6
Continuous
 62
     8
370
    15
100
AcDbLine
 10
20.7095863603
 20
11.7583657469
 30
0.0
 11
20.7104973295
 21
11.6975734708
 31
0.0
  0
LINE
  5
499
330
1F
100
AcDbEntity
  8
0
  6
Continuous
 62
     8
370
    15
100
AcDbLine
 10
20.8713996907
 20
11.8517785942
 30
0.0
 11
20.875134727
 21
11.6025303609
 31
0.0
  0
ARC
  5
49A
330
1F
100
AcDbEntity
  8
0
  6
Continuous
 62
     8
370
    15
100
AcDbCircle
 10
20.4737374406
 20
11.209824511
 30
0.0
 40
0.0726333618549617
100
AcDbArc
 50
186.3802039129
 51
246.2991099928
  0
LINE
  5
49B
330
1F
100
AcDbEntity
  8
0
  6
Continuous
 62
     8
370
    15
100
AcDbLine
 10
20.8703558134
 20
12.0572867796
 30
0.0
 11
20.8712667826
 21
11.9964945035
 31
0.0
  0
LINE
  5
49C
330
1F
100
AcDbEntity
  8
0
  6
Continuous
 62
     8
370
    15
100
AcDbLine
 10
21.4329310515
 20
12.0386171894
 30
0.0
 11
21.429049165
 21
12.2976664882
 31
0.0
  0
LINE
  5
49D
330
1F
100
AcDbEntity
  8
0
  6
Continuous
 62
     8
370
    15
100
AcDbLine
 10
21.7936086968
 20
11.7954087334
 30
0.0
 11
21.7891979005
 21
12.0897570045
 31
0.0
  0
LINE
  5
49E
330
1F
100
AcDbEntity
  8
0
  6
Continuous
 62
     8
370
    15
100
AcDbLine
 10
21.7878130903
 20
12.1821671724
 30
0.0
 11
21.7848619294
 21
12.37910912
 31
0.0
  0
LINE
  5
49F
330
1F
100
AcDbEntity
  8
0
  6
Continuous
 62
     8
370
    15
100
AcDbLine
 10
21.7889203006
 20
12.0380145158
 30
0.0
 11
21.7881357252
 21
12.0903702015
 31
0.0
  0
LINE
  5
4A0
330
1F
100
AcDbEntity
  8
0
  6
Continuous
 62
     8
370
    15
100
AcDbLine
 10
21.786750915
 20
12.1827803245
 30
0.0
 11
21.7838179548
 21
12.3785064463
 31
0.0
  0
LINE
  5
4A1
330
1F
100
AcDbEntity
  8
0
  6
Continuous
 62
     8
370
    15
100
AcDbLine
 10
21.5332683835
 20
12.3785064239
 30
0.0
 11
21.5325345601
 21
12.3295363277
 31
0.0
  0
LINE
  5
4A2
330
1F
100
AcDbEntity
  8
0
  6
Continuous
 62
     8
370
    15
100
AcDbLine
 10
21.5311735509
 20
12.2387113185
 30
0.0
 11
21.5281661155
 21
12.0380145382
 31
0.0
  0
LINE
  5
4A3
330
1F
100
AcDbEntity
  8
0
  6
Continuous
 62
     8
370
    15
100
AcDbLine
 10
21.532224409
 20
12.3791090976
 30
0.0
 11
21.5314905856
 21
12.3301390014
 31
0.0
  0
LINE
  5
4A4
330
1F
100
AcDbEntity
  8
0
  6
Continuous
 62
     8
370
    15
100
AcDbLine
 10
21.5301295763
 20
12.2393139921
 30
0.0
 11
21.527122141
 21
12.0386172119
 31
0.0
  0
INSERT
  5
4AC
102
{ACAD_REACTORS
330
4AD
102
}
330
1F
100
AcDbEntity
  8
0
  6
Continuous
 62
     7
370
     0
100
AcDbBlockReference
  2
SW_NOTE_10
 10
18.9525860099
 20
13.1813690287
 30
0.0
  0
LEADER
  5
4AD
330
1F
100
AcDbEntity
  8
0
  6
Continuous
 62
     7
370
     0
100
AcDbLeader
  3
SLDDIMSTYLE3
 73
     2
 76
     3
 10
20.6336852483
 20
12.8240527848
 30
0.0
 10
20.3130028063
 20
13.1813690287
 30
0.0
 10
18.9525860099
 20
13.1813690287
 30
0.0
340
4AC
  0
LINE
  5
4AE
330
1F
100
AcDbEntity
  8
0
  6
Continuous
 62
     7
370
    15
100
AcDbLine
 10
11.169888143
 20
12.6472254945
 30
0.0
 11
10.9730377493
 21
12.6472254945
 31
0.0
  0
LINE
  5
4AF
330
1F
100
AcDbEntity
  8
0
  6
Continuous
 62
     7
370
    15
100
AcDbLine
 10
10.9730377493
 20
12.5358491978
 30
0.0
 11
11.169888143
 21
12.5358491978
 31
0.0
  0
LINE
  5
4B0
330
1F
100
AcDbEntity
  8
0
  6
Continuous
 62
     7
370
    15
100
AcDbLine
 10
10.9730377493
 20
12.5358491978
 30
0.0
 11
10.9730377493
 21
12.6472254945
 31
0.0
  0
LINE
  5
4B1
330
1F
100
AcDbEntity
  8
0
  6
Continuous
 62
     7
370
    15
100
AcDbLine
 10
11.169888143
 20
12.5358491978
 30
0.0
 11
11.169888143
 21
12.6472254945
 31
0.0
  0
LINE
  5
4B2
330
1F
100
AcDbEntity
  8
0
  6
Continuous
 62
     7
370
    15
100
AcDbLine
 10
10.6187070407
 20
7.4358039173
 30
0.0
 11
10.6187070407
 21
7.3395383403
 31
0.0
  0
LINE
  5
4B3
330
1F
100
AcDbEntity
  8
0
  6
Continuous
 62
     7
370
    15
100
AcDbLine
 10
11.0124078281
 20
7.4426759901
 30
0.0
 11
10.6187070407
 21
7.4358039173
 31
0.0
  0
LINE
  5
4B4
330
1F
100
AcDbEntity
  8
0
  6
Continuous
 62
     7
370
    15
100
AcDbLine
 10
11.0124078281
 20
12.3574187361
 30
0.0
 11
11.0124078281
 21
7.4426759901
 31
0.0
  0
LWPOLYLINE
  5
4B5
330
1F
100
AcDbEntity
  8
0
  6
Continuous
 62
     7
370
    15
100
AcDbPolyline
 90
        4
 70
   128
 43
0.0
 10
10.0675259383
 20
12.3746971964
 10
10.5980764593
 20
12.3649814222
 10
10.8933582132
 20
12.3595896311
 10
11.0124078281
 20
12.3574187361
  0
LINE
  5
4B6
330
1F
100
AcDbEntity
  8
0
  6
Continuous
 62
     7
370
    15
100
AcDbLine
 10
10.0675259383
 20
12.4379062309
 30
0.0
 11
10.0675259383
 21
12.3746971964
 31
0.0
  0
LINE
  5
4B7
330
1F
100
AcDbEntity
  8
0
  6
Continuous
 62
     7
370
    15
100
AcDbLine
 10
10.0675259383
 20
12.4379062309
 30
0.0
 11
10.1265810564
 21
12.4379062309
 31
0.0
  0
LINE
  5
4B8
330
1F
100
AcDbEntity
  8
0
  6
Continuous
 62
     7
370
    15
100
AcDbLine
 10
10.1265810564
 20
12.4455584734
 30
0.0
 11
10.1265810564
 21
12.4379062309
 31
0.0
  0
LWPOLYLINE
  5
4B9
330
1F
100
AcDbEntity
  8
0
  6
Continuous
 62
     7
370
    15
100
AcDbPolyline
 90
        3
 70
   128
 43
0.0
 10
10.1265810564
 20
12.4455584734
 10
10.9203235934
 20
12.4610422535
 10
10.9730377493
 20
12.4620836372
  0
LINE
  5
4BA
330
1F
100
AcDbEntity
  8
0
  6
Continuous
 62
     7
370
    15
100
AcDbLine
 10
10.9730377493
 20
12.5358491978
 30
0.0
 11
10.9730377493
 21
12.4620836372
 31
0.0
  0
LINE
  5
4BB
330
1F
100
AcDbEntity
  8
0
  6
Continuous
 62
     7
370
    15
100
AcDbLine
 10
10.1265810564
 20
7.0305137241
 30
0.0
 11
10.1265810564
 21
6.9419310469
 31
0.0
  0
LINE
  5
4BC
330
1F
100
AcDbEntity
  8
0
  6
Continuous
 62
     7
370
    15
100
AcDbLine
 10
10.1265810564
 20
7.0305137241
 30
0.0
 11
10.0675259383
 21
7.0305137241
 31
0.0
  0
LINE
  5
4BD
330
1F
100
AcDbEntity
  8
0
  6
Continuous
 62
     7
370
    15
100
AcDbLine
 10
10.0675259383
 20
7.0895688422
 30
0.0
 11
10.0675259383
 21
7.0305137241
 31
0.0
  0
LINE
  5
4BE
330
1F
100
AcDbEntity
  8
0
  6
Continuous
 62
     7
370
    15
100
AcDbLine
 10
10.6187070407
 20
7.0991897441
 30
0.0
 11
10.0675259383
 21
7.0895688422
 31
0.0
  0
LINE
  5
4BF
330
1F
100
AcDbEntity
  8
0
  6
Continuous
 62
     7
370
    15
100
AcDbLine
 10
10.6187070407
 20
7.2136150921
 30
0.0
 11
10.6187070407
 21
7.0991897441
 31
0.0
  0
LINE
  5
4C0
330
1F
100
AcDbEntity
  8
0
  6
Continuous
 62
     7
370
    15
100
AcDbLine
 10
10.6187070407
 20
7.2136150921
 30
0.0
 11
11.0124078281
 21
7.2136150921
 31
0.0
  0
LINE
  5
4C1
330
1F
100
AcDbEntity
  8
0
  6
Continuous
 62
     7
370
    15
100
AcDbLine
 10
11.0124078281
 20
7.3395383403
 30
0.0
 11
11.0124078281
 21
7.2136150921
 31
0.0
  0
LINE
  5
4C2
330
1F
100
AcDbEntity
  8
0
  6
Continuous
 62
     7
370
    15
100
AcDbLine
 10
11.0124078281
 20
7.3395383403
 30
0.0
 11
10.6187070407
 21
7.3395383403
 31
0.0
  0
LINE
  5
4C3
330
1F
100
AcDbEntity
  8
0
  6
Continuous
 62
     7
370
    15
100
AcDbLine
 10
10.1265810564
 20
6.9419310469
 30
0.0
 11
11.0925221908
 21
6.9587916121
 31
0.0
  0
LINE
  5
4C4
330
1F
100
AcDbEntity
  8
0
  6
Continuous
 62
     7
370
    15
100
AcDbLine
 10
11.169888143
 20
12.5358491978
 30
0.0
 11
11.169888143
 21
7.0375197771
 31
0.0
  0
ARC
  5
4C5
330
1F
100
AcDbEntity
  8
0
  6
Continuous
 62
     7
370
    15
100
AcDbCircle
 10
11.0911479855
 20
7.0375197771
 30
0.0
 40
0.0787401574803153
100
AcDbArc
 50
271.0
 51
0.0
  0
LINE
  5
4C6
330
1F
100
AcDbEntity
  8
0
  6
Continuous
 62
     7
370
    15
100
AcDbLine
 10
10.9730377493
 20
12.7209910551
 30
0.0
 11
10.9730377493
 21
12.6472254945
 31
0.0
  0
LWPOLYLINE
  5
4C7
330
1F
100
AcDbEntity
  8
0
  6
Continuous
 62
     7
370
    15
100
AcDbPolyline
 90
        4
 70
   128
 43
0.0
 10
10.9730377493
 20
12.7209910551
 10
10.9203235934
 20
12.7220324387
 10
10.6303168638
 20
12.7277303786
 10
10.1265810564
 20
12.7375162188
  0
LINE
  5
4C8
330
1F
100
AcDbEntity
  8
0
  6
Continuous
 62
     7
370
    15
100
AcDbLine
 10
10.1265810564
 20
12.8474428579
 30
0.0
 11
10.1265810564
 21
12.7375162188
 31
0.0
  0
LINE
  5
4C9
330
1F
100
AcDbEntity
  8
0
  6
Continuous
 62
     7
370
    15
100
AcDbLine
 10
11.0925221908
 20
12.8305822927
 30
0.0
 11
10.1265810564
 21
12.8474428579
 31
0.0
  0
LINE
  5
4CA
330
1F
100
AcDbEntity
  8
0
  6
Continuous
 62
     7
370
    15
100
AcDbLine
 10
11.169888143
 20
12.7518541277
 30
0.0
 11
11.169888143
 21
12.6472254945
 31
0.0
  0
ARC
  5
4CB
330
1F
100
AcDbEntity
  8
0
  6
Continuous
 62
     7
370
    15
100
AcDbCircle
 10
11.0911479855
 20
12.7518541277
 30
0.0
 40
0.0787401574803144
100
AcDbArc
 50
0.0
 51
89.0
  0
LINE
  5
4CC
330
1F
100
AcDbEntity
  8
0
  6
Continuous
 62
     7
370
    15
100
AcDbLine
 10
10.6187070407
 20
7.2136150921
 30
0.0
 11
10.6187070407
 21
7.3395383403
 31
0.0
  0
LINE
  5
4CD
330
1F
100
AcDbEntity
  8
0
  6
Continuous
 62
     7
370
    15
100
AcDbLine
 10
10.0675259383
 20
12.3631908894
 30
0.0
 11
11.0124078281
 21
12.3466979147
 31
0.0
  0
LINE
  5
4CE
330
1F
100
AcDbEntity
  8
0
  6
Continuous
 62
     7
370
    15
100
AcDbLine
 10
10.0675259383
 20
12.3631908894
 30
0.0
 11
10.0675259383
 21
12.3746971964
 31
0.0
  0
LINE
  5
4CF
330
1F
100
AcDbEntity
  8
0
  6
Continuous
 62
     7
370
    15
100
AcDbLine
 10
10.1265810564
 20
12.4455584734
 30
0.0
 11
10.1265810564
 21
12.7375162188
 31
0.0
  0
LINE
  5
4D0
330
1F
100
AcDbEntity
  8
0
  6
Continuous
 62
     7
370
    15
100
AcDbLine
 10
10.0675259383
 20
7.187994039
 30
0.0
 11
10.6187070407
 21
7.187994039
 31
0.0
  0
LINE
  5
4D1
330
1F
100
AcDbEntity
  8
0
  6
Continuous
 62
     7
370
    15
100
AcDbLine
 10
10.0675259383
 20
7.0895688422
 30
0.0
 11
10.0675259383
 21
7.187994039
 31
0.0
  0
LINE
  5
4D2
330
1F
100
AcDbEntity
  8
0
  6
Continuous
 62
     7
370
    15
100
AcDbLine
 10
10.0675259383
 20
7.189962543
 30
0.0
 11
10.6187070407
 21
7.189962543
 31
0.0
  0
LINE
  5
4D3
330
1F
100
AcDbEntity
  8
0
  6
Continuous
 62
     7
370
    15
100
AcDbLine
 10
10.0675259383
 20
7.189962543
 30
0.0
 11
10.0675259383
 21
7.187994039
 31
0.0
  0
LINE
  5
4D4
330
1F
100
AcDbEntity
  8
0
  6
Continuous
 62
     7
370
    15
100
AcDbLine
 10
10.0675259383
 20
7.189962543
 30
0.0
 11
10.0675259383
 21
7.4261830154
 31
0.0
  0
LINE
  5
4D5
330
1F
100
AcDbEntity
  8
0
  6
Continuous
 62
     7
370
    15
100
AcDbLine
 10
10.6187070407
 20
7.4358039173
 30
0.0
 11
10.0675259383
 21
7.4261830154
 31
0.0
  0
LINE
  5
4D6
330
1F
100
AcDbEntity
  8
0
  6
Continuous
 62
     7
370
    15
100
AcDbLine
 10
11.0124078281
 20
12.2647656926
 30
0.0
 11
10.0675259383
 21
12.2647656926
 31
0.0
  0
LINE
  5
4D7
330
1F
100
AcDbEntity
  8
0
  6
Continuous
 62
     7
370
    15
100
AcDbLine
 10
10.0675259383
 20
12.2647656926
 30
0.0
 11
10.0675259383
 21
12.3631908894
 31
0.0
  0
LINE
  5
4D8
330
1F
100
AcDbEntity
  8
0
  6
Continuous
 62
     7
370
    15
100
AcDbLine
 10
10.0675259383
 20
7.5246082123
 30
0.0
 11
11.0124078281
 21
7.5246082123
 31
0.0
  0
LINE
  5
4D9
330
1F
100
AcDbEntity
  8
0
  6
Continuous
 62
     7
370
    15
100
AcDbLine
 10
10.0675259383
 20
7.4261830154
 30
0.0
 11
10.0675259383
 21
7.5246082123
 31
0.0
  0
LINE
  5
4DA
330
1F
100
AcDbEntity
  8
0
  6
Continuous
 62
     7
370
    15
100
AcDbLine
 10
10.0675259383
 20
7.5246082123
 30
0.0
 11
10.0675259383
 21
12.2647656926
 31
0.0
  0
HATCH
  5
4DB
330
1F
100
AcDbEntity
  8
0
  6
Continuous
 62
     7
370
     0
100
AcDbHatch
 10
0.0
 20
0.0
 30
0.0
210
0.0
220
0.0
230
1.0
  2
ANSI31
 70
     0
 71
     0
 91
        1
 92
        0
 93
        7
 72
     1
 10
11.09252219078054
 20
12.83058229271382
 11
10.12658105641539
 21
12.847442857931
 72
     1
 10
10.12658105641539
 20
12.847442857931
 11
10.12658105641545
 21
12.73751621884533
 72
     4
 94
        3
 73
     1
 74
     0
 95
       14
 96
       10
 40
0.0166730678972428
 40
0.0166730678972428
 40
0.0166730678972428
 40
0.0166730678972428
 40
0.0294703713647754
 40
0.0294703713647754
 40
0.0294703713647754
 40
0.0368379636662226
 40
0.0368379636662226
 40
0.0368379636662226
 40
0.0381771644226133
 40
0.0381771644226133
 40
0.0381771644226133
 40
0.0381771644226133
 10
10.12658105641545
 20
12.73751621884533
 42
1.0
 10
10.29449339995197
 20
12.73427532932745
 42
1.0
 10
10.4624053679678
 20
12.73101489541238
 42
1.0
 10
10.63031686377968
 20
12.72773037855124
 42
1.0
 10
10.72698593774098
 20
12.72583943474278
 42
1.0
 10
10.82365485556115
 20
12.72394048686707
 42
1.0
 10
10.92032359343083
 20
12.72203243872725
 42
1.0
 10
10.9378949847263
 20
12.7216856144983
 42
1.0
 10
10.95546637007922
 20
12.72133848906071
 42
1.0
 10
10.97303774932896
 20
12.7209910550873
 42
1.0
 72
     1
 10
10.97303774932896
 20
12.7209910550873
 11
10.97303774932878
 21
12.6472254944537
 72
     1
 10
10.97303774932878
 20
12.6472254944537
 11
11.16988814302957
 21
12.6472254944537
 72
     1
 10
11.16988814302957
 20
12.6472254944537
 11
11.16988814302957
 21
12.75185412774088
 72
     2
 10
11.09114798554925
 20
12.75185412774088
 40
0.078740157480315
 50
0.0
 51
88.99999999999952
 73
     1
 97
        0
 75
     0
 76
     1
 52
0.0
 41
1.5
 77
     0
 78
     1
 53
45.0
 43
0.0
 44
0.0
 45
-0.1325825214724776
 46
0.1325825214724777
 79
     0
 98
        1
 10
0.0
 20
0.0
  0
HATCH
  5
4DC
330
1F
100
AcDbEntity
  8
0
  6
Continuous
 62
     7
370
     0
100
AcDbHatch
 10
0.0
 20
0.0
 30
0.0
210
0.0
220
0.0
230
1.0
  2
ANSI31
 70
     0
 71
     0
 91
        1
 92
        0
 93
       21
 72
     1
 10
10.61870704066738
 20
7.339538340276763
 11
11.01240782806896
 21
7.339538340276764
 72
     1
 10
11.01240782806896
 20
7.339538340276764
 11
11.01240782806896
 21
7.213615092120669
 72
     1
 10
11.01240782806896
 20
7.213615092120669
 11
10.61870704066738
 21
7.213615092120667
 72
     1
 10
10.61870704066738
 20
7.213615092120667
 11
10.61870704066738
 21
7.099189744111906
 72
     1
 10
10.61870704066738
 20
7.099189744111906
 11
10.06752593830518
 21
7.089568842182961
 72
     1
 10
10.06752593830518
 20
7.089568842182961
 11
10.06752593830518
 21
7.03051372407273
 72
     1
 10
10.06752593830518
 20
7.03051372407273
 11
10.12658105641541
 21
7.03051372407273
 72
     1
 10
10.12658105641541
 20
7.03051372407273
 11
10.12658105641541
 21
6.941931046907375
 72
     1
 10
10.12658105641541
 20
6.941931046907375
 11
11.09252219078056
 21
6.958791612124558
 72
     2
 10
11.09114798554927
 20
7.037519777097502
 40
0.078740157480315
 50
271.0000000000013
 51
360.0000000000014
 73
     1
 72
     1
 10
11.16988814302959
 20
7.037519777097502
 11
11.16988814302957
 21
12.53584919778626
 72
     1
 10
11.16988814302957
 20
12.53584919778626
 11
10.97303774932878
 21
12.53584919778626
 72
     1
 10
10.97303774932878
 20
12.53584919778626
 11
10.97303774932896
 21
12.46208363715265
 72
     4
 94
        3
 73
     1
 74
     0
 95
       11
 96
        7
 40
0.0354987652901866
 40
0.0354987652901866
 40
0.0354987652901866
 40
0.0354987652901866
 40
0.0368379659129059
 40
0.0368379659129059
 40
0.0368379659129059
 40
0.0570028600443771
 40
0.0570028600443771
 40
0.0570028600443771
 40
0.0570028600443771
 10
10.97303774932896
 20
12.46208363715265
 42
1.0
 10
10.95546637007922
 20
12.46173620317924
 42
1.0
 10
10.9378949847263
 20
12.46138907774165
 42
1.0
 10
10.92032359343083
 20
12.46104225351269
 42
1.0
 10
10.65574394502917
 20
12.45581997879296
 42
1.0
 10
10.39116296046247
 20
12.45066518980026
 42
1.0
 10
10.12658105641545
 20
12.44555847339461
 42
1.0
 72
     1
 10
10.12658105641545
 20
12.44555847339461
 11
10.1265810564154
 21
12.43790623089877
 72
     1
 10
10.1265810564154
 20
12.43790623089877
 11
10.06752593830516
 21
12.43790623089877
 72
     1
 10
10.06752593830516
 20
12.43790623089877
 11
10.06752593830437
 21
12.37469719641665
 72
     4
 94
        3
 73
     1
 74
     0
 95
       14
 96
       10
 40
0.0388318522924634
 40
0.0388318522924634
 40
0.0388318522924634
 40
0.0388318522924634
 40
0.0523100950042627
 40
0.0523100950042627
 40
0.0523100950042627
 40
0.0598115018153812
 40
0.0598115018153812
 40
0.0598115018153812
 40
0.0628358647475397
 40
0.0628358647475397
 40
0.0628358647475397
 40
0.0628358647475397
 10
10.06752593830437
 20
12.37469719641665
 42
1.0
 10
10.24437599462866
 20
12.3714522034886
 42
1.0
 10
10.42122617337799
 20
12.36821387736797
 42
1.0
 10
10.59807645931052
 20
12.36498142217275
 42
1.0
 10
10.69650367806968
 20
12.36318237744431
 42
1.0
 10
10.79493093012924
 20
12.36138515380487
 42
1.0
 10
10.89335821320122
 20
12.3595896311323
 42
1.0
 10
10.93304141315663
 20
12.35886572529018
 42
1.0
 10
10.97272461815901
 20
12.35814209606391
 42
1.0
 10
11.01240782806819
 20
12.35741873607549
 42
1.0
 72
     1
 10
11.01240782806819
 20
12.35741873607549
 11
11.01240782806896
 21
7.44267599014662
 72
     1
 10
11.01240782806896
 20
7.44267599014662
 11
10.6187070406664
 21
7.435803917340236
 72
     1
 10
10.6187070406664
 20
7.435803917340236
 11
10.61870704066738
 21
7.339538340276763
 97
        0
 75
     0
 76
     1
 52
0.0
 41
1.5
 77
     0
 78
     1
 53
45.0
 43
0.0
 44
0.0
 45
-0.1325825214724776
 46
0.1325825214724777
 79
     0
 98
        1
 10
0.0
 20
0.0
  0
DIMENSION
  5
4DD
330
1F
100
AcDbEntity
  8
0
  6
Continuous
 62
     7
370
     0
100
AcDbDimension
  2
_D_22
 10
11.169888143
 20
10.8281054365
 30
0.0
 11
11.8553254437
 21
10.8281054365
 31
0.0
 70
   160
  1
<>
 71
     2
 42
-1.0
  3
SLDDIMSTYLE2
100
AcDbAlignedDimension
 13
11.0124078281
 23
12.3574187361
 33
0.0
 14
11.169888143
 24
12.5358491978
 34
0.0
 50
0.0
100
AcDbRotatedDimension
  0
DIMENSION
  5
4EF
330
1F
100
AcDbEntity
  8
0
  6
Continuous
 62
     7
370
     0
100
AcDbDimension
  2
_D_23
 10
11.0124078281
 20
8.2752481438
 30
0.0
 11
12.0167369599
 21
8.2752481438
 31
0.0
 70
   160
  1
<>
 71
     2
 42
-1.0
  3
SLDDIMSTYLE2
100
AcDbAlignedDimension
 13
10.6187070407
 23
7.4358039173
 33
0.0
 14
11.0124078281
 24
7.4426759901
 34
0.0
 50
0.0
100
AcDbRotatedDimension
  0
MTEXT
  5
502
330
1F
100
AcDbEntity
  8
0
  6
Continuous
 62
     7
370
     0
100
AcDbMText
 10
10.6727002612
 20
6.6077927575
 30
0.0
 40
0.1875
 41
0.0
 71
     2
 72
     1
  1
SECTION A-A
  7
SLDTEXTSTYLE0
 73
     1
 44
1.0
  0
ARC
  5
503
330
1F
100
AcDbEntity
  8
0
  6
Continuous
 62
     7
370
    15
100
AcDbCircle
 10
14.4946351576
 20
12.6505756315
 30
0.0
 40
0.196867232039452
100
AcDbArc
 50
90.0136246493
 51
179.9863753507
  0
LINE
  5
504
330
1F
100
AcDbEntity
  8
0
  6
Continuous
 62
     7
370
    15
100
AcDbLine
 10
14.4945883436
 20
12.8474428579
 30
0.0
 11
16.6206325581
 21
12.8474428579
 31
0.0
  0
ARC
  5
505
330
1F
100
AcDbEntity
  8
0
  6
Continuous
 62
     7
370
    15
100
AcDbCircle
 10
16.6205857441
 20
12.6505756315
 30
0.0
 40
0.1968672320393862
100
AcDbArc
 50
0.0136246493
 51
89.9863753507
  0
LINE
  5
506
330
1F
100
AcDbEntity
  8
0
  6
Continuous
 62
     7
370
    15
100
AcDbLine
 10
14.2977679312
 20
7.1387514593
 30
0.0
 11
14.2977679312
 21
12.6506224455
 31
0.0
  0
ARC
  5
507
330
1F
100
AcDbEntity
  8
0
  6
Continuous
 62
     7
370
    15
100
AcDbCircle
 10
14.4946351576
 20
7.1387982734
 30
0.0
 40
0.1968672320394315
100
AcDbArc
 50
180.0136246493
 51
269.9863753507
  0
LINE
  5
508
330
1F
100
AcDbEntity
  8
0
  6
Continuous
 62
     7
370
    15
100
AcDbLine
 10
16.6206325581
 20
6.9419310469
 30
0.0
 11
14.4945883436
 21
6.9419310469
 31
0.0
  0
LINE
  5
509
330
1F
100
AcDbEntity
  8
0
  6
Continuous
 62
     7
370
    15
100
AcDbLine
 10
16.8174529705
 20
12.6506224455
 30
0.0
 11
16.8174529705
 21
7.1387514593
 31
0.0
  0
ARC
  5
50A
330
1F
100
AcDbEntity
  8
0
  6
Continuous
 62
     7
370
    15
100
AcDbCircle
 10
16.6205857441
 20
7.1387982734
 30
0.0
 40
0.1968672320394413
100
AcDbArc
 50
270.0136246493
 51
359.9863753507
  0
LINE
  5
50B
330
1F
100
AcDbEntity
  8
0
  6
Continuous
 62
     7
370
    15
100
AcDbLine
 10
16.7218642404
 20
12.6337618803
 30
0.0
 11
16.7218642404
 21
7.1556120246
 31
0.0
  0
LINE
  5
50C
330
1F
100
AcDbEntity
  8
0
  6
Continuous
 62
     7
370
    15
100
AcDbLine
 10
16.8005924053
 20
12.6337618803
 30
0.0
 11
16.7218642404
 21
12.6337618803
 31
0.0
  0
LINE
  5
50D
330
1F
100
AcDbEntity
  8
0
  6
Continuous
 62
     7
370
    15
100
AcDbLine
 10
16.8005924053
 20
7.1556120246
 30
0.0
 11
16.8005924053
 21
12.6337618803
 31
0.0
  0
LINE
  5
50E
330
1F
100
AcDbEntity
  8
0
  6
Continuous
 62
     7
370
    15
100
AcDbLine
 10
16.8005924053
 20
7.1556120246
 30
0.0
 11
16.7218642404
 21
7.1556120246
 31
0.0
  0
LINE
  5
50F
330
1F
100
AcDbEntity
  8
0
  6
Continuous
 62
     7
370
    15
100
AcDbLine
 10
14.3933566614
 20
7.1556120246
 30
0.0
 11
14.3933566614
 21
12.6337618803
 31
0.0
  0
ARC
  5
510
330
1F
100
AcDbEntity
  8
0
  6
Continuous
 62
     7
370
    15
100
AcDbCircle
 10
14.5114428554
 20
12.6337679338
 30
0.0
 40
0.1180861941447203
100
AcDbArc
 50
89.9970628381
 51
180.0029371619
  0
LINE
  5
511
330
1F
100
AcDbEntity
  8
0
  6
Continuous
 62
     7
370
    15
100
AcDbLine
 10
14.5114489088
 20
12.7518541277
 30
0.0
 11
16.6037719929
 21
12.7518541277
 31
0.0
  0
ARC
  5
512
330
1F
100
AcDbEntity
  8
0
  6
Continuous
 62
     7
370
    15
100
AcDbCircle
 10
16.6037780464
 20
12.6337679338
 30
0.0
 40
0.118086194144715
100
AcDbArc
 50
359.9970628381
 51
90.0029371619
  0
ARC
  5
513
330
1F
100
AcDbEntity
  8
0
  6
Continuous
 62
     7
370
    15
100
AcDbCircle
 10
16.6037780464
 20
7.1556059711
 30
0.0
 40
0.118086194144715
100
AcDbArc
 50
269.9970628381
 51
0.0029371619
  0
LINE
  5
514
330
1F
100
AcDbEntity
  8
0
  6
Continuous
 62
     7
370
    15
100
AcDbLine
 10
16.6037719929
 20
7.0375197771
 30
0.0
 11
14.5114489088
 21
7.0375197771
 31
0.0
  0
ARC
  5
515
330
1F
100
AcDbEntity
  8
0
  6
Continuous
 62
     7
370
    15
100
AcDbCircle
 10
14.5114428554
 20
7.1556059711
 30
0.0
 40
0.1180861941447256
100
AcDbArc
 50
179.9970628381
 51
270.0029371619
  0
CIRCLE
  5
516
330
1F
100
AcDbEntity
  8
0
  6
Continuous
 62
     7
370
    15
100
AcDbCircle
 10
16.2623348603
 20
12.5915373461
 30
0.0
 40
0.0885826771653555
  0
CIRCLE
  5
517
330
1F
100
AcDbEntity
  8
0
  6
Continuous
 62
     7
370
    15
100
AcDbCircle
 10
14.8528860414
 20
7.1978365587
 30
0.0
 40
0.0885826771653537
  0
CIRCLE
  5
518
330
1F
100
AcDbEntity
  8
0
  6
Continuous
 62
     7
370
    15
100
AcDbCircle
 10
16.5812324981
 20
12.6112223855
 30
0.0
 40
0.1377952755906122
  0
CIRCLE
  5
519
330
1F
100
AcDbEntity
  8
0
  6
Continuous
 62
     7
370
    15
100
AcDbCircle
 10
14.5339884036
 20
12.6112223855
 30
0.0
 40
0.1377952755905572
  0
CIRCLE
  5
51A
330
1F
100
AcDbEntity
  8
0
  6
Continuous
 62
     7
370
    15
100
AcDbCircle
 10
16.5812324981
 20
7.1781515193
 30
0.0
 40
0.1377952755906122
  0
CIRCLE
  5
51B
330
1F
100
AcDbEntity
  8
0
  6
Continuous
 62
     7
370
    15
100
AcDbCircle
 10
14.5339884036
 20
7.1781515193
 30
0.0
 40
0.1377952755905572
  0
LINE
  5
51C
330
1F
100
AcDbEntity
  8
0
  6
Continuous
 62
     7
370
    15
100
AcDbLine
 10
16.6037719929
 20
12.8305822927
 30
0.0
 11
14.5114489088
 21
12.8305822927
 31
0.0
  0
LINE
  5
51D
330
1F
100
AcDbEntity
  8
0
  6
Continuous
 62
     7
370
    15
100
AcDbLine
 10
16.6037719929
 20
12.8305822927
 30
0.0
 11
16.6037719929
 21
12.7518541277
 31
0.0
  0
LINE
  5
51E
330
1F
100
AcDbEntity
  8
0
  6
Continuous
 62
     7
370
    15
100
AcDbLine
 10
14.5114489088
 20
12.8305822927
 30
0.0
 11
14.5114489088
 21
12.7518541277
 31
0.0
  0
LINE
  5
51F
330
1F
100
AcDbEntity
  8
0
  6
Continuous
 62
     7
370
    15
100
AcDbLine
 10
16.6037719929
 20
6.9587916121
 30
0.0
 11
16.6037719929
 21
7.0375197771
 31
0.0
  0
LINE
  5
520
330
1F
100
AcDbEntity
  8
0
  6
Continuous
 62
     7
370
    15
100
AcDbLine
 10
14.5114489088
 20
6.9587916121
 30
0.0
 11
16.6037719929
 21
6.9587916121
 31
0.0
  0
LINE
  5
521
330
1F
100
AcDbEntity
  8
0
  6
Continuous
 62
     7
370
    15
100
AcDbLine
 10
14.5114489088
 20
6.9587916121
 30
0.0
 11
14.5114489088
 21
7.0375197771
 31
0.0
  0
LINE
  5
522
330
1F
100
AcDbEntity
  8
0
  6
Continuous
 62
     7
370
    15
100
AcDbLine
 10
14.3146284964
 20
12.6337618803
 30
0.0
 11
14.3146284964
 21
7.1556120246
 31
0.0
  0
LINE
  5
523
330
1F
100
AcDbEntity
  8
0
  6
Continuous
 62
     7
370
    15
100
AcDbLine
 10
14.3933566614
 20
12.6337618803
 30
0.0
 11
14.3146284964
 21
12.6337618803
 31
0.0
  0
LINE
  5
524
330
1F
100
AcDbEntity
  8
0
  6
Continuous
 62
     7
370
    15
100
AcDbLine
 10
14.3146284964
 20
7.1556120246
 30
0.0
 11
14.3933566614
 21
7.1556120246
 31
0.0
  0
ARC
  5
525
330
1F
100
AcDbEntity
  8
0
  6
Continuous
 62
     7
370
    15
100
AcDbCircle
 10
16.6037499256
 20
7.1556340918
 30
0.0
 40
0.1968424809459239
100
AcDbArc
 50
270.0064232162
 51
359.9935767838
  0
ARC
  5
526
330
1F
100
AcDbEntity
  8
0
  6
Continuous
 62
     7
370
    15
100
AcDbCircle
 10
16.6037499257
 20
12.633739813
 30
0.0
 40
0.1968424809035957
100
AcDbArc
 50
0.0064232039
 51
89.9935767961
  0
ARC
  5
527
330
1F
100
AcDbEntity
  8
0
  6
Continuous
 62
     7
370
    15
100
AcDbCircle
 10
14.5114709761
 20
7.1556340918
 30
0.0
 40
0.1968424809459186
100
AcDbArc
 50
180.0064232162
 51
269.9935767838
  0
ARC
  5
528
330
1F
100
AcDbEntity
  8
0
  6
Continuous
 62
     7
370
    15
100
AcDbCircle
 10
14.5114709761
 20
12.633739813
 30
0.0
 40
0.1968424809459807
100
AcDbArc
 50
90.0064232162
 51
179.9935767838
  0
CIRCLE
  5
529
330
1F
100
AcDbEntity
  8
0
  6
Continuous
 62
     7
370
    15
100
AcDbCircle
 10
16.5812324981
 20
7.1781515193
 30
0.0
 40
0.1254255445391124
  0
CIRCLE
  5
52A
330
1F
100
AcDbEntity
  8
0
  6
Continuous
 62
     7
370
    15
100
AcDbCircle
 10
14.5339884036
 20
7.1781515193
 30
0.0
 40
0.1254255445390609
  0
CIRCLE
  5
52B
330
1F
100
AcDbEntity
  8
0
  6
Continuous
 62
     7
370
    15
100
AcDbCircle
 10
16.5812324981
 20
12.6112223855
 30
0.0
 40
0.1254255445391124
  0
CIRCLE
  5
52C
330
1F
100
AcDbEntity
  8
0
  6
Continuous
 62
     7
370
    15
100
AcDbCircle
 10
14.5339884036
 20
12.6112223855
 30
0.0
 40
0.1254255445390609
  0
LINE
  5
52D
330
1F
100
AcDbEntity
  8
0
  6
Continuous
 62
     7
370
    15
100
AcDbLine
 10
14.4945883436
 20
6.9419310469
 30
0.0
 11
14.5114489088
 21
6.9587916121
 31
0.0
  0
ELLIPSE
  5
52E
330
1F
100
AcDbEntity
  8
0
  6
Continuous
 62
     7
370
    15
100
AcDbEllipse
 10
14.4946483107
 20
7.1388114264
 30
0.0
 11
0.1392366514113341
 21
0.139236651411335
 31
0.0
210
0.0
220
0.0
230
1.0
 40
0.9996954599
 41
2.356346783439929
 42
3.926838523739674
  0
LINE
  5
52F
330
1F
100
AcDbEntity
  8
0
  6
Continuous
 62
     7
370
    15
100
AcDbLine
 10
14.2977679312
 20
7.1387514593
 30
0.0
 11
14.3146284964
 21
7.1556120246
 31
0.0
  0
LINE
  5
530
330
1F
100
AcDbEntity
  8
0
  6
Continuous
 62
     7
370
    15
100
AcDbLine
 10
14.3146284964
 20
12.6337618803
 30
0.0
 11
14.2977679312
 21
12.6506224455
 31
0.0
  0
ELLIPSE
  5
531
330
1F
100
AcDbEntity
  8
0
  6
Continuous
 62
     7
370
    15
100
AcDbEllipse
 10
14.4946483107
 20
12.6505624784
 30
0.0
 11
0.1392366514113341
 21
-0.1392366514113341
 31
0.0
210
0.0
220
0.0
230
1.0
 40
0.9996954599
 41
2.356346783439924
 42
3.926838523739667
  0
LINE
  5
532
330
1F
100
AcDbEntity
  8
0
  6
Continuous
 62
     7
370
    15
100
AcDbLine
 10
14.4945883436
 20
12.8474428579
 30
0.0
 11
14.5114489088
 21
12.8305822927
 31
0.0
  0
LINE
  5
533
330
1F
100
AcDbEntity
  8
0
  6
Continuous
 62
     7
370
    15
100
AcDbLine
 10
16.8174529705
 20
7.1387514593
 30
0.0
 11
16.8005924053
 21
7.1556120246
 31
0.0
  0
ELLIPSE
  5
534
330
1F
100
AcDbEntity
  8
0
  6
Continuous
 62
     7
370
    15
100
AcDbEllipse
 10
16.620572591
 20
7.1388114264
 30
0.0
 11
-0.1392366514113377
 21
0.139236651411335
 31
0.0
210
0.0
220
0.0
230
1.0
 40
0.9996954599
 41
2.356346783439915
 42
3.926838523739661
  0
LINE
  5
535
330
1F
100
AcDbEntity
  8
0
  6
Continuous
 62
     7
370
    15
100
AcDbLine
 10
16.6206325581
 20
6.9419310469
 30
0.0
 11
16.6037719929
 21
6.9587916121
 31
0.0
  0
LINE
  5
536
330
1F
100
AcDbEntity
  8
0
  6
Continuous
 62
     7
370
    15
100
AcDbLine
 10
16.6206325581
 20
12.8474428579
 30
0.0
 11
16.6037719929
 21
12.8305822927
 31
0.0
  0
ELLIPSE
  5
537
330
1F
100
AcDbEntity
  8
0
  6
Continuous
 62
     7
370
    15
100
AcDbEllipse
 10
16.620572591
 20
12.6505624784
 30
0.0
 11
-0.1392366514113377
 21
-0.1392366514113359
 31
0.0
210
0.0
220
0.0
230
1.0
 40
0.9996954599
 41
2.356346783439927
 42
3.926838523739695
  0
LINE
  5
538
330
1F
100
AcDbEntity
  8
0
  6
Continuous
 62
     7
370
    15
100
AcDbLine
 10
16.8174529705
 20
12.6506224455
 30
0.0
 11
16.8005924053
 21
12.6337618803
 31
0.0
  0
CIRCLE
  5
539
330
1F
100
AcDbEntity
  8
0
  6
Continuous
 62
     7
370
    15
100
AcDbCircle
 10
16.5812324981
 20
7.1781515193
 30
0.0
 40
0.0669291338582667
  0
CIRCLE
  5
53A
330
1F
100
AcDbEntity
  8
0
  6
Continuous
 62
     7
370
    15
100
AcDbCircle
 10
14.5339884036
 20
7.1781515193
 30
0.0
 40
0.0669291338582667
  0
CIRCLE
  5
53B
330
1F
100
AcDbEntity
  8
0
  6
Continuous
 62
     7
370
    15
100
AcDbCircle
 10
16.5812324981
 20
12.6112223855
 30
0.0
 40
0.0669291338582667
  0
CIRCLE
  5
53C
330
1F
100
AcDbEntity
  8
0
  6
Continuous
 62
     7
370
    15
100
AcDbCircle
 10
14.5339884036
 20
12.6112223855
 30
0.0
 40
0.0669291338582667
  0
DIMENSION
  5
53D
330
1F
100
AcDbEntity
  8
0
  6
Continuous
 62
     7
370
     0
100
AcDbDimension
  2
_D_24
 10
14.2977679312
 20
13.7647098421
 30
0.0
 11
15.5576104509
 21
13.7647098421
 31
0.0
 70
   160
  1
<>
 71
     2
 42
-1.0
  3
SLDDIMSTYLE0
100
AcDbAlignedDimension
 13
16.8174529705
 23
12.6506224455
 33
0.0
 14
14.2977679312
 24
12.6506224455
 34
0.0
100
AcDbRotatedDimension
  0
DIMENSION
  5
551
330
1F
100
AcDbEntity
  8
0
  6
Continuous
 62
     7
370
     0
100
AcDbDimension
  2
_D_25
 10
13.6960880666
 20
6.9419310469
 30
0.0
 11
13.6960880666
 21
9.8946869524
 31
0.0
 70
   160
  1
<>
 71
     2
 42
-1.0
  3
SLDDIMSTYLE0
100
AcDbAlignedDimension
 13
14.4945883436
 23
12.8474428579
 33
0.0
 14
14.4945883436
 24
6.9419310469
 34
0.0
 50
90.0
100
AcDbRotatedDimension
  0
DIMENSION
  5
565
330
1F
100
AcDbEntity
  8
0
  6
Continuous
 62
     7
370
     0
100
AcDbDimension
  2
_D_26
 10
16.2623348603
 20
10.046610939
 30
0.0
 11
15.5576104509
 21
10.046610939
 31
0.0
 70
   160
  1
<>
 71
     2
 42
-1.0
  3
SLDDIMSTYLE2
100
AcDbAlignedDimension
 13
14.8528860414
 23
7.1978365587
 33
0.0
 14
16.2623348603
 24
12.5915373461
 34
0.0
100
AcDbRotatedDimension
  0
DIMENSION
  5
579
330
1F
100
AcDbEntity
  8
0
  6
Continuous
 62
     7
370
     0
100
AcDbDimension
  2
_D_27
 10
17.4191328351
 20
7.1978365587
 30
0.0
 11
17.4191328351
 21
9.8946869524
 31
0.0
 70
   160
  1
<>
 71
     2
 42
-1.0
  3
SLDDIMSTYLE0
100
AcDbAlignedDimension
 13
16.2623348603
 23
12.5915373461
 33
0.0
 14
14.8528860414
 24
7.1978365587
 34
0.0
 50
90.0
100
AcDbRotatedDimension
  0
DIMENSION
  5
58D
330
1F
100
AcDbEntity
  8
0
  6
Continuous
 62
     7
370
     0
100
AcDbDimension
  2
_D_28
 10
14.8190345135
 20
7.2796959794
 30
0.0
 11
15.9236184161
 21
6.2718880069
 31
0.0
 70
   163
  1
<> 2X
 71
     1
 42
-1.0
  3
SLDDIMSTYLE6
100
AcDbDiametricDimension
 15
14.8867375693
 25
7.1159771381
 35
0.0
 40
0.0
  0
LINE
  5
59F
330
1F
100
AcDbEntity
  8
0
  6
Continuous
 62
     7
370
    15
100
AcDbLine
 10
3.2159152889
 20
2.4443135149
 30
0.0
 11
3.3030304336
 21
2.4443135149
 31
0.0
  0
LINE
  5
5A0
330
1F
100
AcDbEntity
  8
0
  6
Continuous
 62
     7
370
    15
100
AcDbLine
 10
5.5767978544
 20
2.7395891054
 30
0.0
 11
3.2256124351
 21
2.7395891054
 31
0.0
  0
LINE
  5
5A1
330
1F
100
AcDbEntity
  8
0
  6
Continuous
 62
     7
370
    15
100
AcDbLine
 10
5.4993798559
 20
2.4443135149
 30
0.0
 11
5.5864950006
 21
2.4443135149
 31
0.0
  0
LINE
  5
5A2
330
1F
100
AcDbEntity
  8
0
  6
Continuous
 62
     7
370
    15
100
AcDbLine
 10
3.3600527979
 20
2.5821087905
 30
0.0
 11
5.4423574916
 21
2.5821087905
 31
0.0
  0
LINE
  5
5A3
330
1F
100
AcDbEntity
  8
0
  6
Continuous
 62
     7
370
    15
100
AcDbLine
 10
3.3030304336
 20
2.4443135149
 30
0.0
 11
3.3047484518
 21
2.345888318
 31
0.0
  0
LINE
  5
5A4
330
1F
100
AcDbEntity
  8
0
  6
Continuous
 62
     7
370
    15
100
AcDbLine
 10
3.3559295542
 20
2.345888318
 30
0.0
 11
3.3600527979
 21
2.5821087905
 31
0.0
  0
LINE
  5
5A5
330
1F
100
AcDbEntity
  8
0
  6
Continuous
 62
     7
370
    15
100
AcDbLine
 10
3.3559295542
 20
2.345888318
 30
0.0
 11
3.3047484518
 21
2.345888318
 31
0.0
  0
LINE
  5
5A6
330
1F
100
AcDbEntity
  8
0
  6
Continuous
 62
     7
370
    15
100
AcDbLine
 10
5.4976618377
 20
2.345888318
 30
0.0
 11
5.4464807353
 21
2.345888318
 31
0.0
  0
LINE
  5
5A7
330
1F
100
AcDbEntity
  8
0
  6
Continuous
 62
     7
370
    15
100
AcDbLine
 10
5.4423574916
 20
2.5821087905
 30
0.0
 11
5.4464807353
 21
2.345888318
 31
0.0
  0
LINE
  5
5A8
330
1F
100
AcDbEntity
  8
0
  6
Continuous
 62
     7
370
    15
100
AcDbLine
 10
5.4976618377
 20
2.345888318
 30
0.0
 11
5.4993798559
 21
2.4443135149
 31
0.0
  0
LINE
  5
5A9
330
1F
100
AcDbEntity
  8
0
  6
Continuous
 62
     7
370
    15
100
AcDbLine
 10
3.2141972707
 20
2.345888318
 30
0.0
 11
3.2159152889
 21
2.4443135149
 31
0.0
  0
LINE
  5
5AA
330
1F
100
AcDbEntity
  8
0
  6
Continuous
 62
     7
370
    15
100
AcDbLine
 10
3.2141972707
 20
2.345888318
 30
0.0
 11
3.1413626251
 21
2.345888318
 31
0.0
  0
LINE
  5
5AB
330
1F
100
AcDbEntity
  8
0
  6
Continuous
 62
     7
370
    15
100
AcDbLine
 10
5.6610476644
 20
2.345888318
 30
0.0
 11
5.5882130188
 21
2.345888318
 31
0.0
  0
LINE
  5
5AC
330
1F
100
AcDbEntity
  8
0
  6
Continuous
 62
     7
370
    15
100
AcDbLine
 10
5.5864950006
 20
2.4443135149
 30
0.0
 11
5.5882130188
 21
2.345888318
 31
0.0
  0
ARC
  5
5AD
330
1F
100
AcDbEntity
  8
0
  6
Continuous
 62
     7
370
    15
100
AcDbCircle
 10
3.2256124351
 20
2.660848948
 30
0.0
 40
0.0787401574803153
100
AcDbArc
 50
90.0000000002
 51
179.0
  0
ARC
  5
5AE
330
1F
100
AcDbEntity
  8
0
  6
Continuous
 62
     7
370
    15
100
AcDbCircle
 10
5.5767978544
 20
2.660848948
 30
0.0
 40
0.0787401574803153
100
AcDbArc
 50
1.0
 51
90.0
  0
LINE
  5
5AF
330
1F
100
AcDbEntity
  8
0
  6
Continuous
 62
     7
370
    15
100
AcDbLine
 10
3.1468842701
 20
2.6622231532
 30
0.0
 11
3.1413626251
 21
2.345888318
 31
0.0
  0
LINE
  5
5B0
330
1F
100
AcDbEntity
  8
0
  6
Continuous
 62
     7
370
    15
100
AcDbLine
 10
5.6610476644
 20
2.345888318
 30
0.0
 11
5.6555260193
 21
2.6622231532
 31
0.0
  0
LINE
  5
5B1
330
1F
100
AcDbEntity
  8
0
  6
Continuous
 62
     7
370
    15
100
AcDbLine
 10
3.3874256172
 20
2.5821087905
 30
0.0
 11
3.3874256172
 21
2.345888318
 31
0.0
  0
LINE
  5
5B2
330
1F
100
AcDbEntity
  8
0
  6
Continuous
 62
     7
370
    15
100
AcDbLine
 10
3.3874256172
 20
2.345888318
 30
0.0
 11
3.3559295542
 21
2.345888318
 31
0.0
  0
LINE
  5
5B3
330
1F
100
AcDbEntity
  8
0
  6
Continuous
 62
     7
370
    15
100
AcDbLine
 10
5.4149846723
 20
2.345888318
 30
0.0
 11
5.4149846723
 21
2.5821087905
 31
0.0
  0
LINE
  5
5B4
330
1F
100
AcDbEntity
  8
0
  6
Continuous
 62
     7
370
    15
100
AcDbLine
 10
5.4464807353
 20
2.345888318
 30
0.0
 11
5.4149846723
 21
2.345888318
 31
0.0
  0
LINE
  5
5B5
330
1F
100
AcDbEntity
  8
0
  6
Continuous
 62
     7
370
    15
100
AcDbLine
 10
5.4130161684
 20
2.345888318
 30
0.0
 11
5.4130161684
 21
2.5821087905
 31
0.0
  0
LINE
  5
5B6
330
1F
100
AcDbEntity
  8
0
  6
Continuous
 62
     7
370
    15
100
AcDbLine
 10
5.4130161684
 20
2.345888318
 30
0.0
 11
5.4149846723
 21
2.345888318
 31
0.0
  0
LINE
  5
5B7
330
1F
100
AcDbEntity
  8
0
  6
Continuous
 62
     7
370
    15
100
AcDbLine
 10
3.6925437274
 20
2.345888318
 30
0.0
 11
3.6925437274
 21
2.5821087905
 31
0.0
  0
LINE
  5
5B8
330
1F
100
AcDbEntity
  8
0
  6
Continuous
 62
     7
370
    15
100
AcDbLine
 10
3.3874256172
 20
2.345888318
 30
0.0
 11
3.6925437274
 21
2.345888318
 31
0.0
  0
LINE
  5
5B9
330
1F
100
AcDbEntity
  8
0
  6
Continuous
 62
     7
370
    15
100
AcDbLine
 10
3.9956933337
 20
2.345888318
 30
0.0
 11
3.9998165774
 21
2.5821087905
 31
0.0
  0
LINE
  5
5BA
330
1F
100
AcDbEntity
  8
0
  6
Continuous
 62
     7
370
    15
100
AcDbLine
 10
3.6925437274
 20
2.345888318
 30
0.0
 11
3.9956933337
 21
2.345888318
 31
0.0
  0
LINE
  5
5BB
330
1F
100
AcDbEntity
  8
0
  6
Continuous
 62
     7
370
    15
100
AcDbLine
 10
5.1057433184
 20
2.5821087905
 30
0.0
 11
5.1098665621
 21
2.345888318
 31
0.0
  0
LINE
  5
5BC
330
1F
100
AcDbEntity
  8
0
  6
Continuous
 62
     7
370
    15
100
AcDbLine
 10
5.1098665621
 20
2.345888318
 30
0.0
 11
5.4130161684
 21
2.345888318
 31
0.0
  0
LINE
  5
5BD
330
1F
100
AcDbEntity
  8
0
  6
Continuous
 62
     7
370
    15
100
AcDbLine
 10
4.0271893967
 20
2.5821087905
 30
0.0
 11
4.0271893967
 21
2.345888318
 31
0.0
  0
LINE
  5
5BE
330
1F
100
AcDbEntity
  8
0
  6
Continuous
 62
     7
370
    15
100
AcDbLine
 10
4.0271893967
 20
2.345888318
 30
0.0
 11
3.9956933337
 21
2.345888318
 31
0.0
  0
LINE
  5
5BF
330
1F
100
AcDbEntity
  8
0
  6
Continuous
 62
     7
370
    15
100
AcDbLine
 10
5.0783704991
 20
2.345888318
 30
0.0
 11
5.0783704991
 21
2.5821087905
 31
0.0
  0
LINE
  5
5C0
330
1F
100
AcDbEntity
  8
0
  6
Continuous
 62
     7
370
    15
100
AcDbLine
 10
5.1098665621
 20
2.345888318
 30
0.0
 11
5.0783704991
 21
2.345888318
 31
0.0
  0
LINE
  5
5C1
330
1F
100
AcDbEntity
  8
0
  6
Continuous
 62
     7
370
    15
100
AcDbLine
 10
4.0271893967
 20
2.345888318
 30
0.0
 11
5.0783704991
 21
2.345888318
 31
0.0
  0
LINE
  5
5C2
330
1F
100
AcDbEntity
  8
0
  6
Continuous
 62
     7
370
    15
100
AcDbLine
 10
5.5724649873
 20
2.4049434362
 30
0.0
 11
5.5134098692
 21
2.4049434362
 31
0.0
  0
LINE
  5
5C3
330
1F
100
AcDbEntity
  8
0
  6
Continuous
 62
     7
370
    15
100
AcDbLine
 10
5.5724649873
 20
2.4049434362
 30
0.0
 11
5.5724649873
 21
2.345888318
 31
0.0
  0
LINE
  5
5C4
330
1F
100
AcDbEntity
  8
0
  6
Continuous
 62
     7
370
    15
100
AcDbLine
 10
5.6610476644
 20
2.345888318
 30
0.0
 11
5.5724649873
 21
2.345888318
 31
0.0
  0
LINE
  5
5C5
330
1F
100
AcDbEntity
  8
0
  6
Continuous
 62
     7
370
    15
100
AcDbLine
 10
3.2299453022
 20
2.345888318
 30
0.0
 11
3.1413626251
 21
2.345888318
 31
0.0
  0
LINE
  5
5C6
330
1F
100
AcDbEntity
  8
0
  6
Continuous
 62
     7
370
    15
100
AcDbLine
 10
3.2299453022
 20
2.345888318
 30
0.0
 11
3.2299453022
 21
2.4049434362
 31
0.0
  0
LINE
  5
5C7
330
1F
100
AcDbEntity
  8
0
  6
Continuous
 62
     7
370
    15
100
AcDbLine
 10
3.2890004203
 20
2.4049434362
 30
0.0
 11
3.2299453022
 21
2.4049434362
 31
0.0
  0
LINE
  5
5C8
330
1F
100
AcDbEntity
  8
0
  6
Continuous
 62
     7
370
    15
100
AcDbLine
 10
3.3054933951
 20
1.4600615464
 30
0.0
 11
3.2890004203
 21
2.4049434362
 31
0.0
  0
LINE
  5
5C9
330
1F
100
AcDbEntity
  8
0
  6
Continuous
 62
     7
370
    15
100
AcDbLine
 10
5.4969168944
 20
1.4600615464
 30
0.0
 11
3.3054933951
 21
1.4600615464
 31
0.0
  0
LINE
  5
5CA
330
1F
100
AcDbEntity
  8
0
  6
Continuous
 62
     7
370
    15
100
AcDbLine
 10
5.5134098692
 20
2.4049434362
 30
0.0
 11
5.4969168944
 21
1.4600615464
 31
0.0
  0
LINE
  5
5CB
330
1F
100
AcDbEntity
  8
0
  6
Continuous
 62
     7
370
    15
100
AcDbLine
 10
3.1413626251
 20
2.345888318
 30
0.0
 11
3.1582231903
 21
1.3799471837
 31
0.0
  0
LINE
  5
5CC
330
1F
100
AcDbEntity
  8
0
  6
Continuous
 62
     7
370
    15
100
AcDbLine
 10
5.6441870992
 20
1.3799471837
 30
0.0
 11
5.6610476644
 21
2.345888318
 31
0.0
  0
ARC
  5
5CD
330
1F
100
AcDbEntity
  8
0
  6
Continuous
 62
     7
370
    15
100
AcDbCircle
 10
5.5654589342
 20
1.3813213889
 30
0.0
 40
0.0787401574803153
100
AcDbArc
 50
270.0
 51
359.0
  0
ARC
  5
5CE
330
1F
100
AcDbEntity
  8
0
  6
Continuous
 62
     7
370
    15
100
AcDbCircle
 10
3.2369513552
 20
1.3813213889
 30
0.0
 40
0.078740157480315
100
AcDbArc
 50
181.0
 51
270.0
  0
LINE
  5
5CF
330
1F
100
AcDbEntity
  8
0
  6
Continuous
 62
     7
370
    15
100
AcDbLine
 10
5.5654589342
 20
1.3025812314
 30
0.0
 11
3.2369513552
 21
1.3025812314
 31
0.0
  0
LINE
  5
5D0
330
1F
100
AcDbEntity
  8
0
  6
Continuous
 62
     7
370
    15
100
AcDbLine
 10
3.2890004203
 20
2.4049434362
 30
0.0
 11
3.3037176409
 21
2.4049434362
 31
0.0
  0
LINE
  5
5D1
330
1F
100
AcDbEntity
  8
0
  6
Continuous
 62
     7
370
    15
100
AcDbLine
 10
5.4986926486
 20
2.4049434362
 30
0.0
 11
5.5134098692
 21
2.4049434362
 31
0.0
  0
LINE
  5
5D2
330
1F
100
AcDbEntity
  8
0
  6
Continuous
 62
     7
370
    15
100
AcDbLine
 10
5.0293603304
 20
1.8537623338
 30
0.0
 11
5.0224882576
 21
1.4600615464
 31
0.0
  0
LINE
  5
5D3
330
1F
100
AcDbEntity
  8
0
  6
Continuous
 62
     7
370
    15
100
AcDbLine
 10
5.4130161684
 20
1.8537623338
 30
0.0
 11
5.0293603304
 21
1.8537623338
 31
0.0
  0
LINE
  5
5D4
330
1F
100
AcDbEntity
  8
0
  6
Continuous
 62
     7
370
    15
100
AcDbLine
 10
4.8965231936
 20
1.4600615464
 30
0.0
 11
4.9033952664
 21
1.8537623338
 31
0.0
  0
LINE
  5
5D5
330
1F
100
AcDbEntity
  8
0
  6
Continuous
 62
     7
370
    15
100
AcDbLine
 10
4.9033952664
 20
1.8537623338
 30
0.0
 11
5.0293603304
 21
1.8537623338
 31
0.0
  0
LINE
  5
5D6
330
1F
100
AcDbEntity
  8
0
  6
Continuous
 62
     7
370
    15
100
AcDbLine
 10
3.9452571746
 20
1.4600615464
 30
0.0
 11
3.9297950108
 21
2.3458883181
 31
0.0
  0
LINE
  5
5D7
330
1F
100
AcDbEntity
  8
0
  6
Continuous
 62
     7
370
    15
100
AcDbLine
 10
5.175764885
 20
2.3458883181
 30
0.0
 11
5.167174794
 21
1.8537623338
 31
0.0
  0
LINE
  5
5D8
330
1F
100
AcDbEntity
  8
0
  6
Continuous
 62
     8
370
    15
100
AcDbLine
 10
3.3874256172
 20
2.345888318
 30
0.0
 11
3.3874256172
 21
1.4600615464
 31
0.0
  0
LINE
  5
5D9
330
1F
100
AcDbEntity
  8
0
  6
Continuous
 62
     8
370
    15
100
AcDbLine
 10
5.4149846723
 20
1.4600615464
 30
0.0
 11
5.4149846723
 21
2.345888318
 31
0.0
  0
LINE
  5
5DA
330
1F
100
AcDbEntity
  8
0
  6
Continuous
 62
     8
370
    15
100
AcDbLine
 10
5.4130161684
 20
1.8537623338
 30
0.0
 11
5.4130161684
 21
2.3458883181
 31
0.0
  0
LINE
  5
5DB
330
1F
100
AcDbEntity
  8
0
  6
Continuous
 62
     8
370
    15
100
AcDbLine
 10
3.6925437274
 20
2.3458883181
 30
0.0
 11
3.6925437274
 21
1.4600615464
 31
0.0
  0
LINE
  5
5DC
330
1F
100
AcDbEntity
  8
0
  6
Continuous
 62
     8
370
    15
100
AcDbLine
 10
4.0271893967
 20
2.345888318
 30
0.0
 11
4.0271893967
 21
1.4600615464
 31
0.0
  0
LINE
  5
5DD
330
1F
100
AcDbEntity
  8
0
  6
Continuous
 62
     8
370
    15
100
AcDbLine
 10
5.0783704991
 20
1.8537623338
 30
0.0
 11
5.0783704991
 21
2.345888318
 31
0.0
  0
HATCH
  5
5DE
330
1F
100
AcDbEntity
  8
0
  6
Continuous
 62
     7
370
     0
100
AcDbHatch
 10
0.0
 20
0.0
 30
0.0
210
0.0
220
0.0
230
1.0
  2
ANSI31
 70
     0
 71
     0
 91
        1
 92
        0
 93
       14
 72
     1
 10
5.513409869154309
 20
2.404943436155968
 11
5.496916894418962
 21
1.460061546391074
 72
     1
 10
5.496916894418962
 20
1.460061546391074
 11
3.305493395070751
 21
1.460061546391066
 72
     1
 10
3.305493395070751
 20
1.460061546391066
 11
3.289000420335397
 21
2.404943436155961
 72
     1
 10
3.289000420335397
 20
2.404943436155961
 11
3.229945302225168
 21
2.40494343615596
 72
     1
 10
3.229945302225168
 20
2.40494343615596
 11
3.229945302225168
 21
2.345888318045724
 72
     1
 10
3.229945302225168
 20
2.345888318045724
 11
3.141362625059815
 21
2.345888318045724
 72
     1
 10
3.141362625059815
 20
2.345888318045724
 11
3.158223190276997
 21
1.379947183680583
 72
     2
 10
3.236951355249941
 20
1.381321388911865
 40
0.0787401574803149
 50
181.0000000000013
 51
270.0000000000011
 73
     1
 72
     1
 10
3.236951355249942
 20
1.302581231431551
 11
5.565458934239772
 21
1.302581231431559
 72
     2
 10
5.565458934239772
 20
1.381321388911873
 40
0.0787401574803149
 50
270.0000000000008
 51
359.000000000001
 73
     1
 72
     1
 10
5.644187099212716
 20
1.379947183680591
 11
5.661047664429892
 21
2.345888318045732
 72
     1
 10
5.661047664429892
 20
2.345888318045732
 11
5.572464987264539
 21
2.345888318045732
 72
     1
 10
5.572464987264539
 20
2.345888318045732
 11
5.572464987264539
 21
2.404943436155968
 72
     1
 10
5.572464987264539
 20
2.404943436155968
 11
5.513409869154309
 21
2.404943436155968
 97
        0
 75
     0
 76
     1
 52
0.0
 41
1.5
 77
     0
 78
     1
 53
45.0
 43
0.0
 44
0.0
 45
-0.1325825214724776
 46
0.1325825214724777
 79
     0
 98
        1
 10
0.0
 20
0.0
  0
HATCH
  5
5DF
330
1F
100
AcDbEntity
  8
0
  6
Continuous
 62
     7
370
     0
100
AcDbHatch
 10
0.0
 20
0.0
 30
0.0
210
0.0
220
0.0
230
1.0
  2
ANSI31
 70
     0
 71
     0
 91
        1
 92
        0
 93
       18
 72
     1
 10
3.355929554193672
 20
2.345888318045724
 11
3.360052797877502
 21
2.582108790486669
 72
     1
 10
3.360052797877502
 20
2.582108790486669
 11
5.442357491612203
 21
2.582108790486676
 72
     1
 10
5.442357491612203
 20
2.582108790486676
 11
5.446480735296033
 21
2.345888318045732
 72
     1
 10
5.446480735296033
 20
2.345888318045732
 11
5.497661837658239
 21
2.345888318045732
 72
     1
 10
5.497661837658239
 20
2.345888318045732
 11
5.499379855859836
 21
2.444313514896125
 72
     1
 10
5.499379855859836
 20
2.444313514896125
 11
5.586495000559005
 21
2.444313514896126
 72
     1
 10
5.586495000559005
 20
2.444313514896126
 11
5.588213018760602
 21
2.345888318045732
 72
     1
 10
5.588213018760602
 20
2.345888318045732
 11
5.661047664429892
 21
2.345888318045732
 72
     1
 10
5.661047664429892
 20
2.345888318045732
 11
5.655526019343246
 21
2.662223153198274
 72
     2
 10
5.576797854370303
 20
2.660848947966992
 40
0.0787401574803149
 50
1.000000000000176
 51
90.0
 73
     1
 72
     1
 10
5.576797854370303
 20
2.739589105447306
 11
3.225612435119166
 21
2.739589105447298
 72
     2
 10
3.225612435119402
 20
2.660848947966984
 40
0.0787401574803149
 50
90.00000000017192
 51
179.0000000000005
 73
     1
 72
     1
 10
3.146884270146457
 20
2.662223153198265
 11
3.141362625059815
 21
2.345888318045724
 72
     1
 10
3.141362625059815
 20
2.345888318045724
 11
3.214197270729105
 21
2.345888318045724
 72
     1
 10
3.214197270729105
 20
2.345888318045724
 11
3.215915288930701
 21
2.444313514896117
 72
     1
 10
3.215915288930701
 20
2.444313514896117
 11
3.30303043362987
 21
2.444313514896117
 72
     1
 10
3.30303043362987
 20
2.444313514896117
 11
3.304748451831467
 21
2.345888318045724
 72
     1
 10
3.304748451831467
 20
2.345888318045724
 11
3.355929554193672
 21
2.345888318045724
 97
        0
 75
     0
 76
     1
 52
0.0
 41
1.5
 77
     0
 78
     1
 53
45.0
 43
0.0
 44
0.0
 45
-0.1325825214724776
 46
0.1325825214724777
 79
     0
 98
        1
 10
0.0
 20
0.0
  0
DIMENSION
  5
5E0
330
1F
100
AcDbEntity
  8
0
  6
Continuous
 62
     7
370
     0
100
AcDbDimension
  2
_D_29
 10
4.304453244
 20
2.5821087905
 30
0.0
 11
4.304453244
 21
3.3394145695
 31
0.0
 70
   160
  1
<>
 71
     2
 42
-1.0
  3
SLDDIMSTYLE0
100
AcDbAlignedDimension
 13
3.3054933951
 23
1.4600615464
 33
0.0
 14
3.3600527979
 24
2.5821087905
 34
0.0
 50
90.0
100
AcDbRotatedDimension
  0
DIMENSION
  5
5F3
330
1F
100
AcDbEntity
  8
0
  6
Continuous
 62
     7
370
     0
100
AcDbDimension
  2
_D_30
 10
4.8309421208
 20
2.7395891054
 30
0.0
 11
4.8309421208
 21
3.9541519401
 31
0.0
 70
   160
  1
<>
 71
     2
 42
-1.0
  3
SLDDIMSTYLE2
100
AcDbAlignedDimension
 13
5.4423574916
 23
2.5821087905
 33
0.0
 14
5.5767978544
 24
2.7395891054
 34
0.0
 50
90.0
100
AcDbRotatedDimension
  0
DIMENSION
  5
606
330
1F
100
AcDbEntity
  8
0
  6
Continuous
 62
     7
370
     0
100
AcDbDimension
  2
_D_31
 10
6.9713889463
 20
2.7395891054
 30
0.0
 11
6.9713889463
 21
2.0210851684
 31
0.0
 70
   160
  1
<>
 71
     2
 42
-1.0
  3
SLDDIMSTYLE0
100
AcDbAlignedDimension
 13
5.5654589342
 23
1.3025812314
 33
0.0
 14
5.5767978544
 24
2.7395891054
 34
0.0
 50
90.0
100
AcDbRotatedDimension
  0
DIMENSION
  5
61A
330
1F
100
AcDbEntity
  8
0
  6
Continuous
 62
     7
370
     0
100
AcDbDimension
  2
_D_32
 10
6.3330269566
 20
2.7395891054
 30
0.0
 11
6.3330269566
 21
3.3394145695
 31
0.0
 70
   160
  1
<> COVER
 71
     2
 42
-1.0
  3
SLDDIMSTYLE2
100
AcDbAlignedDimension
 13
5.6610476644
 23
2.345888318
 33
0.0
 14
5.5767978544
 24
2.7395891054
 34
0.0
 50
90.0
100
AcDbRotatedDimension
  0
MTEXT
  5
62E
330
1F
100
AcDbEntity
  8
0
  6
Continuous
 62
     7
370
     0
100
AcDbMText
 10
4.4504914418
 20
0.9240561936
 30
0.0
 40
0.1875
 41
0.0
 71
     2
 72
     1
  1
SECTION B-B
  7
SLDTEXTSTYLE0
 73
     1
 44
1.0
  0
ENDSEC
  0
SECTION
  2
OBJECTS
  0
DICTIONARY
  5
C
330
0
100
AcDbDictionary
281
     1
  3
ACAD_GROUP
350
D
  3
ACAD_LAYOUT
350
1A
  3
ACAD_MLINESTYLE
350
17
  3
ACAD_PLOTSETTINGS
350
19
  3
ACAD_PLOTSTYLENAME
350
E
  3
ACAD_SCALELIST
350
47
  0
DICTIONARY
  5
D
102
{ACAD_REACTORS
330
C
102
}
330
C
100
AcDbDictionary
281
     1
  0
DICTIONARY
  5
1A
102
{ACAD_REACTORS
330
C
102
}
330
C
100
AcDbDictionary
281
     1
  3
Layout1
350
1E
  3
Layout2
350
26
  3
Model
350
22
  0
DICTIONARY
  5
17
102
{ACAD_REACTORS
330
C
102
}
330
C
100
AcDbDictionary
281
     1
  3
Standard
350
18
  0
DICTIONARY
  5
19
102
{ACAD_REACTORS
330
C
102
}
330
C
100
AcDbDictionary
281
     1
  0
ACDBDICTIONARYWDFLT
  5
E
102
{ACAD_REACTORS
330
C
102
}
330
C
100
AcDbDictionary
281
     1
  3
Normal
350
F
100
AcDbDictionaryWithDefault
340
F
  0
DICTIONARY
  5
47
102
{ACAD_REACTORS
330
C
102
}
330
C
100
AcDbDictionary
281
     1
  3
A0
350
48
  3
A1
350
49
  3
A2
350
4A
  3
A3
350
4B
  3
A4
350
4C
  3
A5
350
4D
  3
A6
350
4E
  3
A7
350
4F
  3
A8
350
50
  3
A9
350
51
  3
B0
350
52
  3
B1
350
53
  3
B2
350
54
  3
B3
350
55
  3
B4
350
56
  3
B5
350
57
  3
B6
350
58
  3
B7
350
59
  3
B8
350
5A
  3
B9
350
5B
  3
C0
350
5C
  3
C1
350
5D
  3
C2
350
5E
  3
C3
350
5F
  3
C4
350
60
  3
C5
350
61
  3
C6
350
62
  3
C7
350
63
  3
C8
350
64
  3
C9
350
65
  3
D0
350
66
  3
D1
350
67
  3
D2
350
68
  0
LAYOUT
  5
1E
102
{ACAD_REACTORS
330
1A
102
}
330
1A
100
AcDbPlotSettings
  1

  2
none_device
  4

  6

 40
0.0
 41
0.0
 42
0.0
 43
0.0
 44
0.0
 45
0.0
 46
0.0
 47
0.0
 48
0.0
 49
0.0
140
0.0
141
0.0
142
1.0
143
1.0
 70
   688
 72
     0
 73
     0
 74
     5
  7

 75
    16
147
1.0
148
0.0
149
0.0
100
AcDbLayout
  1
Layout1
 70
     1
 71
     1
 10
0.0
 20
0.0
 11
12.0
 21
9.0
 12
0.0
 22
0.0
 32
0.0
 14
1.0000000000E+20
 24
1.0000000000E+20
 34
1.0000000000E+20
 15
-1.0000000000E+20
 25
-1.0000000000E+20
 35
-1.0000000000E+20
146
0.0
 13
0.0
 23
0.0
 33
0.0
 16
1.0
 26
0.0
 36
0.0
 17
0.0
 27
1.0
 37
0.0
 76
     0
330
1B
  0
LAYOUT
  5
26
102
{ACAD_REACTORS
330
1A
102
}
330
1A
100
AcDbPlotSettings
  1

  2
none_device
  4

  6

 40
0.0
 41
0.0
 42
0.0
 43
0.0
 44
0.0
 45
0.0
 46
0.0
 47
0.0
 48
0.0
 49
0.0
140
0.0
141
0.0
142
1.0
143
1.0
 70
   688
 72
     0
 73
     0
 74
     5
  7

 75
    16
147
1.0
148
0.0
149
0.0
100
AcDbLayout
  1
Layout2
 70
     1
 71
     2
 10
0.0
 20
0.0
 11
0.0
 21
0.0
 12
0.0
 22
0.0
 32
0.0
 14
0.0
 24
0.0
 34
0.0
 15
0.0
 25
0.0
 35
0.0
146
0.0
 13
0.0
 23
0.0
 33
0.0
 16
1.0
 26
0.0
 36
0.0
 17
0.0
 27
1.0
 37
0.0
 76
     0
330
23
  0
LAYOUT
  5
22
102
{ACAD_REACTORS
330
1A
102
}
330
1A
100
AcDbPlotSettings
  1

  2
none_device
  4
Letter_(8.50_x_11.00_Inches)
  6

 40
6.35
 41
6.35
 42
6.35000508
 43
6.35000508
 44
215.9
 45
279.4
 46
0.0
 47
0.0
 48
0.0
 49
0.0
140
0.0
141
0.0
142
1.0
143
1.0
 70
  1712
 72
     0
 73
     0
 74
     0
  7

 75
     0
147
1.0
148
0.0
149
0.0
100
AcDbLayout
  1
Model
 70
     1
 71
     0
 10
0.0
 20
0.0
 11
25.5
 21
16.5
 12
0.0
 22
0.0
 32
0.0
 14
0.0
 24
0.0
 34
0.0
 15
25.5
 25
16.5
 35
0.0
146
0.0
 13
0.0
 23
0.0
 33
0.0
 16
1.0
 26
0.0
 36
0.0
 17
0.0
 27
1.0
 37
0.0
 76
     0
330
1F
331
29
  0
MLINESTYLE
  5
18
102
{ACAD_REACTORS
330
17
102
}
330
17
100
AcDbMlineStyle
  2
Standard
 70
     0
  3

 62
   256
 51
90.0
 52
90.0
 71
     2
 49
0.5
 62
   256
  6
BYLAYER
 49
-0.5
 62
   256
  6
BYLAYER
  0
ACDBPLACEHOLDER
  5
F
102
{ACAD_REACTORS
330
E
102
}
330
E
  0
SCALE
  5
48
102
{ACAD_REACTORS
330
47
102
}
330
47
100
AcDbScale
 70
     0
300
1:1
140
1.0
141
1.0
290
     1
  0
SCALE
  5
49
102
{ACAD_REACTORS
330
47
102
}
330
47
100
AcDbScale
 70
     0
300
1:2
140
1.0
141
2.0
290
     0
  0
SCALE
  5
4A
102
{ACAD_REACTORS
330
47
102
}
330
47
100
AcDbScale
 70
     0
300
1:4
140
1.0
141
4.0
290
     0
  0
SCALE
  5
4B
102
{ACAD_REACTORS
330
47
102
}
330
47
100
AcDbScale
 70
     0
300
1:5
140
1.0
141
5.0
290
     0
  0
SCALE
  5
4C
102
{ACAD_REACTORS
330
47
102
}
330
47
100
AcDbScale
 70
     0
300
1:8
140
1.0
141
8.0
290
     0
  0
SCALE
  5
4D
102
{ACAD_REACTORS
330
47
102
}
330
47
100
AcDbScale
 70
     0
300
1:10
140
1.0
141
10.0
290
     0
  0
SCALE
  5
4E
102
{ACAD_REACTORS
330
47
102
}
330
47
100
AcDbScale
 70
     0
300
1:16
140
1.0
141
16.0
290
     0
  0
SCALE
  5
4F
102
{ACAD_REACTORS
330
47
102
}
330
47
100
AcDbScale
 70
     0
300
1:20
140
1.0
141
20.0
290
     0
  0
SCALE
  5
50
102
{ACAD_REACTORS
330
47
102
}
330
47
100
AcDbScale
 70
     0
300
1:30
140
1.0
141
30.0
290
     0
  0
SCALE
  5
51
102
{ACAD_REACTORS
330
47
102
}
330
47
100
AcDbScale
 70
     0
300
1:40
140
1.0
141
40.0
290
     0
  0
SCALE
  5
52
102
{ACAD_REACTORS
330
47
102
}
330
47
100
AcDbScale
 70
     0
300
1:50
140
1.0
141
50.0
290
     0
  0
SCALE
  5
53
102
{ACAD_REACTORS
330
47
102
}
330
47
100
AcDbScale
 70
     0
300
1:100
140
1.0
141
100.0
290
     0
  0
SCALE
  5
54
102
{ACAD_REACTORS
330
47
102
}
330
47
100
AcDbScale
 70
     0
300
2:1
140
2.0
141
1.0
290
     0
  0
SCALE
  5
55
102
{ACAD_REACTORS
330
47
102
}
330
47
100
AcDbScale
 70
     0
300
4:1
140
4.0
141
1.0
290
     0
  0
SCALE
  5
56
102
{ACAD_REACTORS
330
47
102
}
330
47
100
AcDbScale
 70
     0
300
8:1
140
8.0
141
1.0
290
     0
  0
SCALE
  5
57
102
{ACAD_REACTORS
330
47
102
}
330
47
100
AcDbScale
 70
     0
300
10:1
140
10.0
141
1.0
290
     0
  0
SCALE
  5
58
102
{ACAD_REACTORS
330
47
102
}
330
47
100
AcDbScale
 70
     0
300
100:1
140
100.0
141
1.0
290
     0
  0
SCALE
  5
59
102
{ACAD_REACTORS
330
47
102
}
330
47
100
AcDbScale
 70
     0
300
1/128" = 1'-0"
140
0.0078125
141
12.0
290
     0
  0
SCALE
  5
5A
102
{ACAD_REACTORS
330
47
102
}
330
47
100
AcDbScale
 70
     0
300
1/64" = 1'-0"
140
0.015625
141
12.0
290
     0
  0
SCALE
  5
5B
102
{ACAD_REACTORS
330
47
102
}
330
47
100
AcDbScale
 70
     0
300
1/32" = 1'-0"
140
0.03125
141
12.0
290
     0
  0
SCALE
  5
5C
102
{ACAD_REACTORS
330
47
102
}
330
47
100
AcDbScale
 70
     0
300
1/16" = 1'-0"
140
0.0625
141
12.0
290
     0
  0
SCALE
  5
5D
102
{ACAD_REACTORS
330
47
102
}
330
47
100
AcDbScale
 70
     0
300
3/32" = 1'-0"
140
0.09375
141
12.0
290
     0
  0
SCALE
  5
5E
102
{ACAD_REACTORS
330
47
102
}
330
47
100
AcDbScale
 70
     0
300
1/8" = 1'-0"
140
0.125
141
12.0
290
     0
  0
SCALE
  5
5F
102
{ACAD_REACTORS
330
47
102
}
330
47
100
AcDbScale
 70
     0
300
3/16" = 1'-0"
140
0.1875
141
12.0
290
     0
  0
SCALE
  5
60
102
{ACAD_REACTORS
330
47
102
}
330
47
100
AcDbScale
 70
     0
300
1/4" = 1'-0"
140
0.25
141
12.0
290
     0
  0
SCALE
  5
61
102
{ACAD_REACTORS
330
47
102
}
330
47
100
AcDbScale
 70
     0
300
3/8" = 1'-0"
140
0.375
141
12.0
290
     0
  0
SCALE
  5
62
102
{ACAD_REACTORS
330
47
102
}
330
47
100
AcDbScale
 70
     0
300
1/2" = 1'-0"
140
0.5
141
12.0
290
     0
  0
SCALE
  5
63
102
{ACAD_REACTORS
330
47
102
}
330
47
100
AcDbScale
 70
     0
300
3/4" = 1'-0"
140
0.75
141
12.0
290
     0
  0
SCALE
  5
64
102
{ACAD_REACTORS
330
47
102
}
330
47
100
AcDbScale
 70
     0
300
1" = 1'-0"
140
1.0
141
12.0
290
     0
  0
SCALE
  5
65
102
{ACAD_REACTORS
330
47
102
}
330
47
100
AcDbScale
 70
     0
300
1-1/2" = 1'-0"
140
1.5
141
12.0
290
     0
  0
SCALE
  5
66
102
{ACAD_REACTORS
330
47
102
}
330
47
100
AcDbScale
 70
     0
300
3" = 1'-0"
140
3.0
141
12.0
290
     0
  0
SCALE
  5
67
102
{ACAD_REACTORS
330
47
102
}
330
47
100
AcDbScale
 70
     0
300
6" = 1'-0"
140
6.0
141
12.0
290
     0
  0
SCALE
  5
68
102
{ACAD_REACTORS
330
47
102
}
330
47
100
AcDbScale
 70
     0
300
1'-0" = 1'-0"
140
12.0
141
12.0
290
     0
  0
ENDSEC
  0
EOF
