  0
SECTION
  2
HEADER
  9
$ACADVER
  1
AC1015
  9
$ACADMAINTVER
 70
     6
  9
$DWGCODEPAGE
  3
ANSI_1252
  9
$INSBASE
 10
0.0
 20
0.0
 30
0.0
  9
$EXTMIN
 10
0.0
 20
0.0
 30
0.0
  9
$EXTMAX
 10
29.75
 20
19.25
 30
0.0
  9
$LIMMIN
 10
0.0
 20
0.0
  9
$LIMMAX
 10
29.75
 20
19.25
  9
$ORTHOMODE
 70
     0
  9
$REGENMODE
 70
     1
  9
$FILLMODE
 70
     1
  9
$QTEXTMODE
 70
     0
  9
$MIRRTEXT
 70
     1
  9
$LTSCALE
 40
1.75
  9
$ATTMODE
 70
     1
  9
$TEXTSIZE
 40
0.21875
  9
$TRACEWID
 40
0.05
  9
$TEXTSTYLE
  7
Standard
  9
$CLAYER
  8
0
  9
$CELTYPE
  6
ByLayer
  9
$CECOLOR
 62
   256
  9
$CELTSCALE
 40
1.0
  9
$DISPSILH
 70
     0
  9
$DIMSCALE
 40
1.0
  9
$DIMASZ
 40
0.2275
  9
$DIMEXO
 40
0.0875
  9
$DIMDLI
 40
0.38
  9
$DIMRND
 40
0.0
  9
$DIMDLE
 40
0.0
  9
$DIMEXE
 40
0.21875
  9
$DIMTP
 40
0.0
  9
$DIMTM
 40
0.0
  9
$DIMTXT
 40
0.21875
  9
$DIMCEN
 40
0.09
  9
$DIMTSZ
 40
0.0
  9
$DIMTOL
 70
     0
  9
$DIMLIM
 70
     0
  9
$DIMTIH
 70
     1
  9
$DIMTOH
 70
     1
  9
$DIMSE1
 70
     0
  9
$DIMSE2
 70
     0
  9
$DIMTAD
 70
     0
  9
$DIMZIN
 70
     0
  9
$DIMBLK
  1

  9
$DIMASO
 70
     1
  9
$DIMSHO
 70
     1
  9
$DIMPOST
  1

  9
$DIMAPOST
  1

  9
$DIMALT
 70
     0
  9
$DIMALTD
 70
     2
  9
$DIMALTF
 40
25.4
  9
$DIMLFAC
 40
1.0
  9
$DIMTOFL
 70
     0
  9
$DIMTVP
 40
0.0
  9
$DIMTIX
 70
     0
  9
$DIMSOXD
 70
     0
  9
$DIMSAH
 70
     0
  9
$DIMBLK1
  1

  9
$DIMBLK2
  1

  9
$DIMSTYLE
  2
Standard
  9
$DIMCLRD
 70
     0
  9
$DIMCLRE
 70
     0
  9
$DIMCLRT
 70
     0
  9
$DIMTFAC
 40
1.0
  9
$DIMGAP
 40
0.105
  9
$DIMJUST
 70
     0
  9
$DIMSD1
 70
     0
  9
$DIMSD2
 70
     0
  9
$DIMTOLJ
 70
     1
  9
$DIMTZIN
 70
     0
  9
$DIMALTZ
 70
     0
  9
$DIMALTTZ
 70
     0
  9
$DIMUPT
 70
     0
  9
$DIMDEC
 70
     2
  9
$DIMTDEC
 70
     2
  9
$DIMALTU
 70
     2
  9
$DIMALTTD
 70
     2
  9
$DIMTXSTY
  7
Standard
  9
$DIMAUNIT
 70
     0
  9
$DIMADEC
 70
     2
  9
$DIMALTRND
 40
0.0
  9
$DIMAZIN
 70
     0
  9
$DIMDSEP
 70
    46
  9
$DIMATFIT
 70
     3
  9
$DIMFRAC
 70
     0
  9
$DIMLDRBLK
  1

  9
$DIMLUNIT
 70
     2
  9
$DIMLWD
 70
    -2
  9
$DIMLWE
 70
    -2
  9
$DIMTMOVE
 70
     0
  9
$LUNITS
 70
     2
  9
$LUPREC
 70
     2
  9
$SKETCHINC
 40
0.1
  9
$FILLETRAD
 40
0.5
  9
$AUNITS
 70
     0
  9
$AUPREC
 70
     2
  9
$MENU
  1
.
  9
$ELEVATION
 40
0.0
  9
$PELEVATION
 40
0.0
  9
$THICKNESS
 40
0.0
  9
$LIMCHECK
 70
     0
  9
$CHAMFERA
 40
0.0
  9
$CHAMFERB
 40
0.0
  9
$CHAMFERC
 40
0.0
  9
$CHAMFERD
 40
0.0
  9
$SKPOLY
 70
     0
  9
$TDCREATE
 40
2457308.622518912
  9
$TDUCREATE
 40
2457308.789185579
  9
$TDUPDATE
 40
2457308.622522153
  9
$TDUUPDATE
 40
2457308.789188819
  9
$TDINDWG
 40
0.0000000116
  9
$TDUSRTIMER
 40
0.0000000116
  9
$USRTIMER
 70
     1
  9
$ANGBASE
 50
0.0
  9
$ANGDIR
 70
     0
  9
$PDMODE
 70
     0
  9
$PDSIZE
 40
-1.0
  9
$PLINEWID
 40
0.0
  9
$SPLFRAME
 70
     0
  9
$SPLINETYPE
 70
     6
  9
$SPLINESEGS
 70
     8
  9
$HANDSEED
  5
680
  9
$SURFTAB1
 70
     6
  9
$SURFTAB2
 70
     6
  9
$SURFTYPE
 70
     6
  9
$SURFU
 70
     6
  9
$SURFV
 70
     6
  9
$UCSBASE
  2

  9
$UCSNAME
  2

  9
$UCSORG
 10
0.0
 20
0.0
 30
0.0
  9
$UCSXDIR
 10
1.0
 20
0.0
 30
0.0
  9
$UCSYDIR
 10
0.0
 20
1.0
 30
0.0
  9
$UCSORTHOREF
  2

  9
$UCSORTHOVIEW
 70
     0
  9
$UCSORGTOP
 10
0.0
 20
0.0
 30
0.0
  9
$UCSORGBOTTOM
 10
0.0
 20
0.0
 30
0.0
  9
$UCSORGLEFT
 10
0.0
 20
0.0
 30
0.0
  9
$UCSORGRIGHT
 10
0.0
 20
0.0
 30
0.0
  9
$UCSORGFRONT
 10
0.0
 20
0.0
 30
0.0
  9
$UCSORGBACK
 10
0.0
 20
0.0
 30
0.0
  9
$PUCSBASE
  2

  9
$PUCSNAME
  2

  9
$PUCSORG
 10
0.0
 20
0.0
 30
0.0
  9
$PUCSXDIR
 10
1.0
 20
0.0
 30
0.0
  9
$PUCSYDIR
 10
0.0
 20
1.0
 30
0.0
  9
$PUCSORTHOREF
  2

  9
$PUCSORTHOVIEW
 70
     0
  9
$PUCSORGTOP
 10
0.0
 20
0.0
 30
0.0
  9
$PUCSORGBOTTOM
 10
0.0
 20
0.0
 30
0.0
  9
$PUCSORGLEFT
 10
0.0
 20
0.0
 30
0.0
  9
$PUCSORGRIGHT
 10
0.0
 20
0.0
 30
0.0
  9
$PUCSORGFRONT
 10
0.0
 20
0.0
 30
0.0
  9
$PUCSORGBACK
 10
0.0
 20
0.0
 30
0.0
  9
$USERI1
 70
     0
  9
$USERI2
 70
     0
  9
$USERI3
 70
     0
  9
$USERI4
 70
     0
  9
$USERI5
 70
     0
  9
$USERR1
 40
0.0
  9
$USERR2
 40
0.0
  9
$USERR3
 40
0.0
  9
$USERR4
 40
0.0
  9
$USERR5
 40
0.0
  9
$WORLDVIEW
 70
     1
  9
$SHADEDGE
 70
     3
  9
$SHADEDIF
 70
    70
  9
$TILEMODE
 70
     1
  9
$MAXACTVP
 70
    64
  9
$PINSBASE
 10
0.0
 20
0.0
 30
0.0
  9
$PLIMCHECK
 70
     0
  9
$PEXTMIN
 10
1.0000000000E+20
 20
1.0000000000E+20
 30
1.0000000000E+20
  9
$PEXTMAX
 10
-1.0000000000E+20
 20
-1.0000000000E+20
 30
-1.0000000000E+20
  9
$PLIMMIN
 10
0.0
 20
0.0
  9
$PLIMMAX
 10
12.0
 20
9.0
  9
$UNITMODE
 70
     0
  9
$VISRETAIN
 70
     1
  9
$PLINEGEN
 70
     0
  9
$PSLTSCALE
 70
     1
  9
$TREEDEPTH
 70
  3020
  9
$CMLSTYLE
  2
Standard
  9
$CMLJUST
 70
     0
  9
$CMLSCALE
 40
1.0
  9
$PROXYGRAPHICS
 70
     1
  9
$MEASUREMENT
 70
     0
  9
$CELWEIGHT
370
    -1
  9
$ENDCAPS
280
     0
  9
$JOINSTYLE
280
     0
  9
$LWDISPLAY
290
     1
  9
$INSUNITS
 70
     1
  9
$HYPERLINKBASE
  1

  9
$STYLESHEET
  1

  9
$XEDIT
290
     1
  9
$CEPSNTYPE
380
     0
  9
$PSTYLEMODE
290
     1
  9
$FINGERPRINTGUID
  2
{978CE60D-2436-48BA-A3EE-F3740175B016}
  9
$VERSIONGUID
  2
{FAEB1C32-E019-11D5-929B-00C0DF256EC4}
  9
$EXTNAMES
290
     1
  9
$PSVPSCALE
 40
0.0
  9
$OLESTARTUP
290
     0
  0
ENDSEC
  0
SECTION
  2
CLASSES
  0
CLASS
  1
ACDBDICTIONARYWDFLT
  2
AcDbDictionaryWithDefault
  3
ObjectDBX Classes
 90
        0
280
     0
281
     0
  0
CLASS
  1
VISUALSTYLE
  2
AcDbVisualStyle
  3
ObjectDBX Classes
 90
     4095
280
     0
281
     0
  0
CLASS
  1
MATERIAL
  2
AcDbMaterial
  3
ObjectDBX Classes
 90
     1153
280
     0
281
     0
  0
CLASS
  1
SCALE
  2
AcDbScale
  3
ObjectDBX Classes
 90
     1153
280
     0
281
     0
  0
CLASS
  1
TABLESTYLE
  2
AcDbTableStyle
  3
ObjectDBX Classes
 90
     4095
280
     0
281
     0
  0
CLASS
  1
MLEADERSTYLE
  2
AcDbMLeaderStyle
  3
ACDB_MLEADERSTYLE_CLASS
 90
     4095
280
     0
281
     0
  0
CLASS
  1
SUN
  2
AcDbSun
  3
SCENEOE
 90
     1153
280
     0
281
     0
  0
CLASS
  1
ACDBPLACEHOLDER
  2
AcDbPlaceHolder
  3
ObjectDBX Classes
 90
        0
280
     0
281
     0
  0
CLASS
  1
LAYOUT
  2
AcDbLayout
  3
ObjectDBX Classes
 90
        0
280
     0
281
     0
  0
ENDSEC
  0
SECTION
  2
TABLES
  0
TABLE
  2
VPORT
  5
8
330
0
100
AcDbSymbolTable
 70
     1
  0
VPORT
  5
29
330
8
100
AcDbSymbolTableRecord
100
AcDbViewportTableRecord
  2
*Active
 70
     0
 10
0.0
 20
0.0
 11
1.0
 21
1.0
 12
14.875
 22
9.625
 13
0.0
 23
0.0
 14
0.5
 24
0.5
 15
0.5
 25
0.5
 16
0.0
 26
0.0
 36
1.0
 17
0.0
 27
0.0
 37
0.0
 40
19.25
 41
1.5454545455
 42
50.0
 43
0.0
 44
0.0
 50
0.0
 51
0.0
 71
     0
 72
  2000
 73
     1
 74
     3
 75
     0
 76
     0
 77
     0
 78
     0
281
     0
 65
     1
110
0.0
120
0.0
130
0.0
111
1.0
121
0.0
131
0.0
112
0.0
122
1.0
132
0.0
 79
     0
146
0.0
  0
ENDTAB
  0
TABLE
  2
LTYPE
  5
5
330
0
100
AcDbSymbolTable
 70
     6
  0
LTYPE
  5
14
330
5
100
AcDbSymbolTableRecord
100
AcDbLinetypeTableRecord
  2
ByBlock
 70
     0
  3

 72
    65
 73
     0
 40
0.0
  0
LTYPE
  5
15
330
5
100
AcDbSymbolTableRecord
100
AcDbLinetypeTableRecord
  2
ByLayer
 70
     0
  3

 72
    65
 73
     0
 40
0.0
  0
LTYPE
  5
16
330
5
100
AcDbSymbolTableRecord
100
AcDbLinetypeTableRecord
  2
Continuous
 70
     0
  3
Solid line
 72
    65
 73
     0
 40
0.0
  0
LTYPE
  5
6E
330
5
100
AcDbSymbolTableRecord
100
AcDbLinetypeTableRecord
  2
HIDDEN
 70
     0
  3
Hidden __ __ __ __ __ __ __ __ __ __ __ __ __ __
 72
    65
 73
     2
 40
0.075
 49
0.05
 74
     0
 49
-0.025
 74
     0
  0
LTYPE
  5
6F
330
5
100
AcDbSymbolTableRecord
100
AcDbLinetypeTableRecord
  2
PHANTOM
 70
     0
  3
Phantom ______  __  __  ______  __  __  ______
 72
    65
 73
     6
 40
0.5
 49
0.25
 74
     0
 49
-0.05
 74
     0
 49
0.05
 74
     0
 49
-0.05
 74
     0
 49
0.05
 74
     0
 49
-0.05
 74
     0
  0
LTYPE
  5
70
330
5
100
AcDbSymbolTableRecord
100
AcDbLinetypeTableRecord
  2
CENTER
 70
     0
  3
Center ____ _ ____ _ ____ _ ____ _ ____ _ ____
 72
    65
 73
     4
 40
0.4
 49
0.25
 74
     0
 49
-0.05
 74
     0
 49
0.05
 74
     0
 49
-0.05
 74
     0
  0
LTYPE
  5
71
330
5
100
AcDbSymbolTableRecord
100
AcDbLinetypeTableRecord
  2
CENTERX2
 70
     0
  3
Center (2x) ________  __  ________  __  _____
 72
    65
 73
     4
 40
0.8
 49
0.5
 74
     0
 49
-0.1
 74
     0
 49
0.1
 74
     0
 49
-0.1
 74
     0
  0
LTYPE
  5
72
330
5
100
AcDbSymbolTableRecord
100
AcDbLinetypeTableRecord
  2
DOT2
 70
     0
  3
Dot (.5x) ........................................
 72
    65
 73
     2
 40
0.025
 49
0.0
 74
     0
 49
-0.025
 74
     0
  0
ENDTAB
  0
TABLE
  2
LAYER
  5
2
330
0
100
AcDbSymbolTable
 70
     1
  0
LAYER
  5
10
330
2
100
AcDbSymbolTableRecord
100
AcDbLayerTableRecord
  2
0
 70
     0
 62
     7
  6
Continuous
370
    -3
390
F
  0
ENDTAB
  0
TABLE
  2
STYLE
  5
3
330
0
100
AcDbSymbolTable
 70
     5
  0
STYLE
  5
11
330
3
100
AcDbSymbolTableRecord
100
AcDbTextStyleTableRecord
  2
Standard
 70
     0
 40
0.0
 41
1.0
 50
0.0
 71
     0
 42
0.21875
  3
txt
  4

  0
STYLE
  5
A6
330
3
100
AcDbSymbolTableRecord
100
AcDbTextStyleTableRecord
  2
SLDTEXTSTYLE0
 70
     0
 40
0.0
 41
0.75
 50
0.0
 71
     0
 42
0.21875
  3
TXT
  4

  0
STYLE
  5
BB
330
3
100
AcDbSymbolTableRecord
100
AcDbTextStyleTableRecord
  2
SLDTEXTSTYLE1
 70
     0
 40
0.0
 41
0.7
 50
0.0
 71
     0
 42
0.21875
  3
TXT
  4

  0
STYLE
  5
C6
330
3
100
AcDbSymbolTableRecord
100
AcDbTextStyleTableRecord
  2
SLDTEXTSTYLE2
 70
     0
 40
0.0
 41
0.6981132075
 50
0.0
 71
     0
 42
0.21875
  3
TXT
  4

  0
STYLE
  5
25C
330
3
100
AcDbSymbolTableRecord
100
AcDbTextStyleTableRecord
  2
SLDTEXTSTYLE3
 70
     0
 40
0.0
 41
0.6875
 50
0.0
 71
     0
 42
0.21875
  3
TXT
  4

  0
ENDTAB
  0
TABLE
  2
VIEW
  5
6
330
0
100
AcDbSymbolTable
 70
     0
  0
ENDTAB
  0
TABLE
  2
UCS
  5
7
330
0
100
AcDbSymbolTable
 70
     0
  0
ENDTAB
  0
TABLE
  2
APPID
  5
9
330
0
100
AcDbSymbolTable
 70
     1
  0
APPID
  5
12
330
9
100
AcDbSymbolTableRecord
100
AcDbRegAppTableRecord
  2
ACAD
 70
     0
  0
ENDTAB
  0
TABLE
  2
DIMSTYLE
  5
A
330
0
100
AcDbSymbolTable
 70
     8
100
AcDbDimStyleTable
  0
DIMSTYLE
105
27
330
A
100
AcDbSymbolTableRecord
100
AcDbDimStyleTableRecord
  2
Standard
 70
     0
178
     0
340
11
  0
DIMSTYLE
105
17D
102
{ACAD_REACTORS
330
17C
330
1BA
330
1CD
330
1E1
330
1F4
330
21D
330
231
330
2D4
330
2E8
330
310
330
338
330
551
330
565
330
579
330
62D
330
657
102
}
330
A
100
AcDbSymbolTableRecord
100
AcDbDimStyleTableRecord
  2
SLDDIMSTYLE0
 70
     0
 41
0.2275
 44
0.0
 45
0.000000001
 78
    12
 79
     3
140
0.21875
147
0.0546875
148
0.000000001
170
     1
173
     1
178
     0
271
     2
272
     2
276
     2
284
    12
340
A6
  0
DIMSTYLE
105
192
102
{ACAD_REACTORS
330
191
330
1A6
330
2FC
330
324
330
4F3
330
505
330
619
330
66B
102
}
330
A
100
AcDbSymbolTableRecord
100
AcDbDimStyleTableRecord
  2
SLDDIMSTYLE1
 70
     0
 41
0.2275
 44
0.0
 45
0.000000001
 78
    12
 79
     3
140
0.21875
147
0.0546875
148
0.000000001
170
     1
172
     1
173
     1
178
     0
271
     2
272
     2
276
     2
284
    12
289
     0
340
A6
  0
DIMSTYLE
105
209
102
{ACAD_REACTORS
330
208
330
53D
102
}
330
A
100
AcDbSymbolTableRecord
100
AcDbDimStyleTableRecord
  2
SLDDIMSTYLE2
 70
     0
 41
0.2275
 44
0.0
 45
0.000000001
 78
     4
 79
     1
140
0.21875
147
0.0546875
148
0.000000001
170
     1
173
     1
178
     0
271
     2
272
     2
276
     2
284
    12
340
A6
  0
DIMSTYLE
105
262
330
A
100
AcDbSymbolTableRecord
100
AcDbDimStyleTableRecord
  2
SLDDIMSTYLE3
 70
     0
 41
0.2275
 44
0.0
 45
0.000000001
146
0.2275
147
0.0
173
     1
178
     0
271
     0
272
     0
276
     2
340
11
  0
DIMSTYLE
105
34C
102
{ACAD_REACTORS
330
34B
330
35D
102
}
330
A
100
AcDbSymbolTableRecord
100
AcDbDimStyleTableRecord
  2
SLDDIMSTYLE4
 70
     0
 41
0.2275
 44
0.0
 45
0.000000001
 78
    12
 79
     3
140
0.21875
141
0.0
147
0.0546875
148
0.000000001
170
     1
173
     1
178
     0
271
     2
272
     2
276
     2
279
     1
284
    12
340
A6
  0
DIMSTYLE
105
36F
102
{ACAD_REACTORS
330
36E
330
58D
102
}
330
A
100
AcDbSymbolTableRecord
100
AcDbDimStyleTableRecord
  2
SLDDIMSTYLE5
 70
     0
 41
0.2275
 44
0.0
 45
0.000000001
 78
    12
 79
     3
140
0.21875
141
0.0
147
0.0546875
148
0.000000001
170
     1
173
     1
178
     0
271
     3
272
     3
276
     2
284
    12
340
A6
  0
DIMSTYLE
105
642
102
{ACAD_REACTORS
330
641
102
}
330
A
100
AcDbSymbolTableRecord
100
AcDbDimStyleTableRecord
  2
SLDDIMSTYLE6
 70
     0
 41
0.2275
 44
0.0
 45
0.000000001
 78
     4
 79
     1
140
0.21875
147
0.0546875
148
0.000000001
170
     1
172
     1
173
     1
178
     0
271
     2
272
     2
276
     2
284
    12
289
     0
340
A6
  0
ENDTAB
  0
TABLE
  2
BLOCK_RECORD
  5
1
330
0
100
AcDbSymbolTable
 70
    53
  0
BLOCK_RECORD
  5
1F
330
1
100
AcDbSymbolTableRecord
100
AcDbBlockTableRecord
  2
*Model_Space
340
22
  0
BLOCK_RECORD
  5
1B
330
1
100
AcDbSymbolTableRecord
100
AcDbBlockTableRecord
  2
*Paper_Space
340
1E
  0
BLOCK_RECORD
  5
23
330
1
100
AcDbSymbolTableRecord
100
AcDbBlockTableRecord
  2
*Paper_Space0
340
26
  0
BLOCK_RECORD
  5
A3
330
1
100
AcDbSymbolTableRecord
100
AcDbBlockTableRecord
  2
SW_NOTE_0
340
0
102
{BLKREFS
331
A9
102
}
  0
BLOCK_RECORD
  5
AA
330
1
100
AcDbSymbolTableRecord
100
AcDbBlockTableRecord
  2
SW_NOTE_1
340
0
102
{BLKREFS
331
AF
102
}
  0
BLOCK_RECORD
  5
B0
330
1
100
AcDbSymbolTableRecord
100
AcDbBlockTableRecord
  2
SW_NOTE_2
340
0
102
{BLKREFS
331
C1
102
}
  0
BLOCK_RECORD
  5
C2
330
1
100
AcDbSymbolTableRecord
100
AcDbBlockTableRecord
  2
SW_NOTE_3
340
0
102
{BLKREFS
331
CB
102
}
  0
BLOCK_RECORD
  5
CD
330
1
100
AcDbSymbolTableRecord
100
AcDbBlockTableRecord
  2
SW_NOTE_4
340
0
102
{BLKREFS
331
D4
102
}
  0
BLOCK_RECORD
  5
D5
330
1
100
AcDbSymbolTableRecord
100
AcDbBlockTableRecord
  2
SW_NOTE_5
340
0
102
{BLKREFS
331
DC
102
}
  0
BLOCK_RECORD
  5
E0
330
1
100
AcDbSymbolTableRecord
100
AcDbBlockTableRecord
  2
SW_NOTE_6
340
0
102
{BLKREFS
331
E5
102
}
  0
BLOCK_RECORD
  5
E6
330
1
100
AcDbSymbolTableRecord
100
AcDbBlockTableRecord
  2
SW_NOTE_7
340
0
102
{BLKREFS
331
EB
102
}
  0
BLOCK_RECORD
  5
EC
330
1
100
AcDbSymbolTableRecord
100
AcDbBlockTableRecord
  2
SW_NOTE_8
340
0
102
{BLKREFS
331
F1
102
}
  0
BLOCK_RECORD
  5
17E
330
1
100
AcDbSymbolTableRecord
100
AcDbBlockTableRecord
  2
_D
340
0
  0
BLOCK_RECORD
  5
193
330
1
100
AcDbSymbolTableRecord
100
AcDbBlockTableRecord
  2
_D_1
340
0
  0
BLOCK_RECORD
  5
1A7
330
1
100
AcDbSymbolTableRecord
100
AcDbBlockTableRecord
  2
_D_2
340
0
  0
BLOCK_RECORD
  5
1BB
330
1
100
AcDbSymbolTableRecord
100
AcDbBlockTableRecord
  2
_D_3
340
0
  0
BLOCK_RECORD
  5
1CE
330
1
100
AcDbSymbolTableRecord
100
AcDbBlockTableRecord
  2
_D_4
340
0
  0
BLOCK_RECORD
  5
1E2
330
1
100
AcDbSymbolTableRecord
100
AcDbBlockTableRecord
  2
_D_5
340
0
  0
BLOCK_RECORD
  5
1F5
330
1
100
AcDbSymbolTableRecord
100
AcDbBlockTableRecord
  2
_D_6
340
0
  0
BLOCK_RECORD
  5
20A
330
1
100
AcDbSymbolTableRecord
100
AcDbBlockTableRecord
  2
_D_7
340
0
  0
BLOCK_RECORD
  5
21E
330
1
100
AcDbSymbolTableRecord
100
AcDbBlockTableRecord
  2
_D_8
340
0
  0
BLOCK_RECORD
  5
232
330
1
100
AcDbSymbolTableRecord
100
AcDbBlockTableRecord
  2
_D_9
340
0
  0
BLOCK_RECORD
  5
245
330
1
100
AcDbSymbolTableRecord
100
AcDbBlockTableRecord
  2
SW_NOTE_9
340
0
102
{BLKREFS
331
261
102
}
  0
BLOCK_RECORD
  5
264
330
1
100
AcDbSymbolTableRecord
100
AcDbBlockTableRecord
  2
SW_CENTERMARKSYMBOL_0
340
0
102
{BLKREFS
331
26F
102
}
  0
BLOCK_RECORD
  5
270
330
1
100
AcDbSymbolTableRecord
100
AcDbBlockTableRecord
  2
SW_CENTERMARKSYMBOL_1
340
0
102
{BLKREFS
331
27B
102
}
  0
BLOCK_RECORD
  5
27C
330
1
100
AcDbSymbolTableRecord
100
AcDbBlockTableRecord
  2
SW_CENTERMARKSYMBOL_2
340
0
102
{BLKREFS
331
287
102
}
  0
BLOCK_RECORD
  5
288
330
1
100
AcDbSymbolTableRecord
100
AcDbBlockTableRecord
  2
SW_CENTERMARKSYMBOL_3
340
0
102
{BLKREFS
331
293
102
}
  0
BLOCK_RECORD
  5
294
330
1
100
AcDbSymbolTableRecord
100
AcDbBlockTableRecord
  2
SW_CENTERMARKSYMBOL_4
340
0
102
{BLKREFS
331
29F
102
}
  0
BLOCK_RECORD
  5
2A0
330
1
100
AcDbSymbolTableRecord
100
AcDbBlockTableRecord
  2
SW_CENTERMARKSYMBOL_5
340
0
102
{BLKREFS
331
2AB
102
}
  0
BLOCK_RECORD
  5
2D5
330
1
100
AcDbSymbolTableRecord
100
AcDbBlockTableRecord
  2
_D_10
340
0
  0
BLOCK_RECORD
  5
2E9
330
1
100
AcDbSymbolTableRecord
100
AcDbBlockTableRecord
  2
_D_11
340
0
  0
BLOCK_RECORD
  5
2FD
330
1
100
AcDbSymbolTableRecord
100
AcDbBlockTableRecord
  2
_D_12
340
0
  0
BLOCK_RECORD
  5
311
330
1
100
AcDbSymbolTableRecord
100
AcDbBlockTableRecord
  2
_D_13
340
0
  0
BLOCK_RECORD
  5
325
330
1
100
AcDbSymbolTableRecord
100
AcDbBlockTableRecord
  2
_D_14
340
0
  0
BLOCK_RECORD
  5
339
330
1
100
AcDbSymbolTableRecord
100
AcDbBlockTableRecord
  2
_D_15
340
0
  0
BLOCK_RECORD
  5
34D
330
1
100
AcDbSymbolTableRecord
100
AcDbBlockTableRecord
  2
_D_16
340
0
  0
BLOCK_RECORD
  5
35E
330
1
100
AcDbSymbolTableRecord
100
AcDbBlockTableRecord
  2
_D_17
340
0
  0
BLOCK_RECORD
  5
370
330
1
100
AcDbSymbolTableRecord
100
AcDbBlockTableRecord
  2
_D_18
340
0
  0
BLOCK_RECORD
  5
4B9
330
1
100
AcDbSymbolTableRecord
100
AcDbBlockTableRecord
  2
SW_NOTE_10
340
0
102
{BLKREFS
331
4C0
102
}
  0
BLOCK_RECORD
  5
4F4
330
1
100
AcDbSymbolTableRecord
100
AcDbBlockTableRecord
  2
_D_19
340
0
  0
BLOCK_RECORD
  5
506
330
1
100
AcDbSymbolTableRecord
100
AcDbBlockTableRecord
  2
_D_20
340
0
  0
BLOCK_RECORD
  5
53E
330
1
100
AcDbSymbolTableRecord
100
AcDbBlockTableRecord
  2
_D_21
340
0
  0
BLOCK_RECORD
  5
552
330
1
100
AcDbSymbolTableRecord
100
AcDbBlockTableRecord
  2
_D_22
340
0
  0
BLOCK_RECORD
  5
566
330
1
100
AcDbSymbolTableRecord
100
AcDbBlockTableRecord
  2
_D_23
340
0
  0
BLOCK_RECORD
  5
57A
330
1
100
AcDbSymbolTableRecord
100
AcDbBlockTableRecord
  2
_D_24
340
0
  0
BLOCK_RECORD
  5
58E
330
1
100
AcDbSymbolTableRecord
100
AcDbBlockTableRecord
  2
_D_25
340
0
  0
BLOCK_RECORD
  5
5A0
330
1
100
AcDbSymbolTableRecord
100
AcDbBlockTableRecord
  2
SW_CENTERMARKSYMBOL_6
340
0
102
{BLKREFS
331
5AB
102
}
  0
BLOCK_RECORD
  5
5AC
330
1
100
AcDbSymbolTableRecord
100
AcDbBlockTableRecord
  2
SW_CENTERMARKSYMBOL_7
340
0
102
{BLKREFS
331
5B7
102
}
  0
BLOCK_RECORD
  5
5B8
330
1
100
AcDbSymbolTableRecord
100
AcDbBlockTableRecord
  2
SW_CENTERMARKSYMBOL_8
340
0
102
{BLKREFS
331
5C3
102
}
  0
BLOCK_RECORD
  5
5C4
330
1
100
AcDbSymbolTableRecord
100
AcDbBlockTableRecord
  2
SW_CENTERMARKSYMBOL_9
340
0
102
{BLKREFS
331
5CF
102
}
  0
BLOCK_RECORD
  5
61A
330
1
100
AcDbSymbolTableRecord
100
AcDbBlockTableRecord
  2
_D_26
340
0
  0
BLOCK_RECORD
  5
62E
330
1
100
AcDbSymbolTableRecord
100
AcDbBlockTableRecord
  2
_D_27
340
0
  0
BLOCK_RECORD
  5
643
330
1
100
AcDbSymbolTableRecord
100
AcDbBlockTableRecord
  2
_D_28
340
0
  0
BLOCK_RECORD
  5
658
330
1
100
AcDbSymbolTableRecord
100
AcDbBlockTableRecord
  2
_D_29
340
0
  0
BLOCK_RECORD
  5
66C
330
1
100
AcDbSymbolTableRecord
100
AcDbBlockTableRecord
  2
_D_30
340
0
  0
ENDTAB
  0
ENDSEC
  0
SECTION
  2
BLOCKS
  0
BLOCK
  5
20
330
1F
100
AcDbEntity
  8
0
100
AcDbBlockBegin
  2
*Model_Space
 70
     0
 10
0.0
 20
0.0
 30
0.0
  3
*Model_Space
  1

  0
ENDBLK
  5
21
330
1F
100
AcDbEntity
  8
0
100
AcDbBlockEnd
  0
BLOCK
  5
1C
330
1B
100
AcDbEntity
 67
     1
  8
0
100
AcDbBlockBegin
  2
*Paper_Space
 70
     0
 10
0.0
 20
0.0
 30
0.0
  3
*Paper_Space
  1

  0
ENDBLK
  5
1D
330
1B
100
AcDbEntity
 67
     1
  8
0
100
AcDbBlockEnd
  0
BLOCK
  5
24
330
23
100
AcDbEntity
  8
0
100
AcDbBlockBegin
  2
*Paper_Space0
 70
     0
 10
0.0
 20
0.0
 30
0.0
  3
*Paper_Space0
  1

  0
ENDBLK
  5
25
330
23
100
AcDbEntity
  8
0
100
AcDbBlockEnd
  0
BLOCK
  5
A4
330
A3
100
AcDbEntity
  8
0
100
AcDbBlockBegin
  2
SW_NOTE_0
 70
     0
 10
0.0
 20
0.0
 30
0.0
  3
SW_NOTE_0
  1

  0
MTEXT
  5
A7
330
A3
100
AcDbEntity
  8
0
  6
Continuous
 62
     0
370
     0
100
AcDbMText
 10
2.201171875
 20
0.2819835681
 30
0.0
 40
0.21875
 41
0.0
 71
     2
 72
     1
  1
OPTIONAL INTERNAL PANEL AND
  7
SLDTEXTSTYLE0
 73
     1
 44
1.0
  0
MTEXT
  5
A8
330
A3
100
AcDbEntity
  8
0
  6
Continuous
 62
     0
370
     0
100
AcDbMText
 10
2.2018553142
 20
-0.0056640623
 30
0.0
 40
0.21875
 41
0.0
 71
     2
 72
     1
  1
SUGGESTED PC BOARD LAYOUT
  7
SLDTEXTSTYLE0
 73
     1
 44
1.0
  0
ENDBLK
  5
A5
330
A3
100
AcDbEntity
  8
0
100
AcDbBlockEnd
  0
BLOCK
  5
AB
330
AA
100
AcDbEntity
  8
0
100
AcDbBlockBegin
  2
SW_NOTE_1
 70
     0
 10
0.0
 20
0.0
 30
0.0
  3
SW_NOTE_1
  1

  0
MTEXT
  5
AD
330
AA
100
AcDbEntity
  8
0
  6
Continuous
 62
     0
370
     0
100
AcDbMText
 10
0.724609375
 20
0.3759780908
 30
0.0
 40
0.2916666667
 41
0.0
 71
     2
 72
     1
  1
\LBODY
  7
SLDTEXTSTYLE0
 73
     1
 44
1.0
  0
MTEXT
  5
AE
330
AA
100
AcDbEntity
  8
0
  6
Continuous
 62
     0
370
     0
100
AcDbMText
 10
0.6436624192
 20
-0.0080692339
 30
0.0
 40
0.1822916667
 41
0.0
 71
     2
 72
     1
  1
\LCOVER NOT SHOWN
  7
SLDTEXTSTYLE0
 73
     1
 44
1.0
  0
ENDBLK
  5
AC
330
AA
100
AcDbEntity
  8
0
100
AcDbBlockEnd
  0
BLOCK
  5
B1
330
B0
100
AcDbEntity
  8
0
100
AcDbBlockBegin
  2
SW_NOTE_2
 70
     0
 10
0.0
 20
0.0
 30
0.0
  3
SW_NOTE_2
  1

  0
MTEXT
  5
B3
330
B0
100
AcDbEntity
  8
0
  6
Continuous
 62
     0
370
     0
100
AcDbMText
 10
0.0
 20
0.2819835681
 30
0.0
 40
0.21875
 41
0.0
 71
     1
 72
     1
  1
MATERIAL: BODY & COVER - ALUMINUM ALLOY #ADC-12
  7
SLDTEXTSTYLE0
 73
     1
 44
1.0
  0
MTEXT
  5
B4
330
B0
100
AcDbEntity
  8
0
  6
Continuous
 62
     0
370
     0
100
AcDbMText
 10
0.24609375
 20
-0.0056640623
 30
0.0
 40
0.21875
 41
0.0
 71
     1
 72
     1
  1
MOUNTING BRACKET - .09 THK ALUMINUM (3003-H14)
  7
SLDTEXTSTYLE0
 73
     1
 44
1.0
  0
MTEXT
  5
B5
330
B0
100
AcDbEntity
  8
0
  6
Continuous
 62
     0
370
     0
100
AcDbMText
 10
0.0
 20
-0.5809593231
 30
0.0
 40
0.21875
 41
0.0
 71
     1
 72
     1
  1
FINISH: NATURAL (SUFFIX -A)
  7
SLDTEXTSTYLE0
 73
     1
 44
1.0
  0
MTEXT
  5
B6
330
B0
100
AcDbEntity
  8
0
  6
Continuous
 62
     0
370
     0
100
AcDbMText
 10
0.984375
 20
-0.8686069535
 30
0.0
 40
0.21875
 41
0.0
 71
     1
 72
     1
  1
SMOOTH BLACK POWDERCOAT (SUFFIX -AB)
  7
SLDTEXTSTYLE0
 73
     1
 44
1.0
  0
MTEXT
  5
B7
330
B0
100
AcDbEntity
  8
0
  6
Continuous
 62
     0
370
     0
100
AcDbMText
 10
0.0
 20
-1.4439022143
 30
0.0
 40
0.21875
 41
0.0
 71
     1
 72
     1
  1
FOUR (4) M4x0.7 x 25mm (.98") LG. 90
  7
SLDTEXTSTYLE0
 73
     1
 44
1.0
  0
MTEXT
  5
B8
330
B0
100
AcDbEntity
  8
0
  6
Continuous
 62
     0
370
     0
100
AcDbMText
 10
5.1916665654
 20
-1.4439022143
 30
0.0
 40
0.21875
 41
0.0
 71
     1
 72
     1
  1
%%d
  7
SLDTEXTSTYLE0
 73
     1
 44
1.0
  0
MTEXT
  5
B9
330
B0
100
AcDbEntity
  8
0
  6
Continuous
 62
     0
370
     0
100
AcDbMText
 10
5.3305729608
 20
-1.4439022143
 30
0.0
 40
0.21875
 41
0.0
 71
     1
 72
     1
  1
CSK. HEAD
  7
SLDTEXTSTYLE0
 73
     1
 44
1.0
  0
MTEXT
  5
BA
330
B0
100
AcDbEntity
  8
0
  6
Continuous
 62
     0
370
     0
100
AcDbMText
 10
0.57421875
 20
-1.7315498447
 30
0.0
 40
0.21875
 41
0.0
 71
     1
 72
     1
  1
STAINLESS STEEL SCREWS SUPPLIED FOR ASSEMBLY
  7
SLDTEXTSTYLE0
 73
     1
 44
1.0
  0
MTEXT
  5
BC
330
B0
100
AcDbEntity
  8
0
  6
Continuous
 62
     0
370
     0
100
AcDbMText
 10
0.57421875
 20
-2.0191974752
 30
0.0
 40
0.21875
 41
0.0
 71
     1
 72
     1
  1
OF COVER TO BODY. APPLY AT 12 IN./LB. OF
  7
SLDTEXTSTYLE1
 73
     1
 44
1.0
  0
MTEXT
  5
BD
330
B0
100
AcDbEntity
  8
0
  6
Continuous
 62
     0
370
     0
100
AcDbMText
 10
0.57421875
 20
-2.3068451056
 30
0.0
 40
0.21875
 41
0.0
 71
     1
 72
     1
  1
TORQUE.
  7
SLDTEXTSTYLE0
 73
     1
 44
1.0
  0
MTEXT
  5
BE
330
B0
100
AcDbEntity
  8
0
  6
Continuous
 62
     0
370
     0
100
AcDbMText
 10
0.0
 20
-2.8821403664
 30
0.0
 40
0.21875
 41
0.0
 71
     1
 72
     1
  1
OUTSIDE AND INSIDE DRAFT ANGLE: 1
  7
SLDTEXTSTYLE0
 73
     1
 44
1.0
  0
MTEXT
  5
BF
330
B0
100
AcDbEntity
  8
0
  6
Continuous
 62
     0
370
     0
100
AcDbMText
 10
5.1664498701
 20
-2.8821403664
 30
0.0
 40
0.21875
 41
0.0
 71
     1
 72
     1
  1
%%d
  7
SLDTEXTSTYLE0
 73
     1
 44
1.0
  0
MTEXT
  5
C0
330
B0
100
AcDbEntity
  8
0
  6
Continuous
 62
     0
370
     0
100
AcDbMText
 10
0.0
 20
-3.1697879968
 30
0.0
 40
0.21875
 41
0.0
 71
     1
 72
     1
  1
DIMENSIONS ARE INCH[MM]
  7
SLDTEXTSTYLE0
 73
     1
 44
1.0
  0
ENDBLK
  5
B2
330
B0
100
AcDbEntity
  8
0
100
AcDbBlockEnd
  0
BLOCK
  5
C3
330
C2
100
AcDbEntity
  8
0
100
AcDbBlockBegin
  2
SW_NOTE_3
 70
     0
 10
0.0
 20
0.0
 30
0.0
  3
SW_NOTE_3
  1

  0
MTEXT
  5
C5
330
C2
100
AcDbEntity
  8
0
  6
Continuous
 62
     0
370
     0
100
AcDbMText
 10
0.0
 20
0.2819835681
 30
0.0
 40
0.21875
 41
0.0
 71
     1
 72
     1
  1
UL LISTED FOR U.S. AND CANADA - FILE #E194432
  7
SLDTEXTSTYLE0
 73
     1
 44
1.0
  0
MTEXT
  5
C7
330
C2
100
AcDbEntity
  8
0
  6
Continuous
 62
     0
370
     0
100
AcDbMText
 10
0.0
 20
-0.2933116927
 30
0.0
 40
0.21875
 41
0.0
 71
     1
 72
     1
  1
TYPE RATING 4, 4X, 6, 6P, 12 AND 13, COMPARE TO IP-68
  7
SLDTEXTSTYLE2
 73
     1
 44
1.0
  0
MTEXT
  5
C8
330
C2
100
AcDbEntity
  8
0
  6
Continuous
 62
     0
370
     0
100
AcDbMText
 10
0.0
 20
-0.8686069535
 30
0.0
 40
0.21875
 41
0.0
 71
     1
 72
     1
  1
80
  7
SLDTEXTSTYLE0
 73
     1
 44
1.0
  0
MTEXT
  5
C9
330
C2
100
AcDbEntity
  8
0
  6
Continuous
 62
     0
370
     0
100
AcDbMText
 10
0.3232638898
 20
-0.8686069535
 30
0.0
 40
0.21875
 41
0.0
 71
     1
 72
     1
  1
%%d
  7
SLDTEXTSTYLE0
 73
     1
 44
1.0
  0
MTEXT
  5
CA
330
C2
100
AcDbEntity
  8
0
  6
Continuous
 62
     0
370
     0
100
AcDbMText
 10
0.4621701568
 20
-0.8686069535
 30
0.0
 40
0.21875
 41
0.0
 71
     1
 72
     1
  1
C. MAXIMUM OPERATING TEMPERATURE
  7
SLDTEXTSTYLE0
 73
     1
 44
1.0
  0
ENDBLK
  5
C4
330
C2
100
AcDbEntity
  8
0
100
AcDbBlockEnd
  0
BLOCK
  5
CE
330
CD
100
AcDbEntity
  8
0
100
AcDbBlockBegin
  2
SW_NOTE_4
 70
     0
 10
0.0
 20
0.0
 30
0.0
  3
SW_NOTE_4
  1

  0
MTEXT
  5
D0
330
CD
100
AcDbEntity
  8
0
  6
Continuous
 62
     0
370
     0
100
AcDbMText
 10
0.0
 20
0.2819835681
 30
0.0
 40
0.21875
 41
0.0
 71
     1
 72
     1
  1
OPTIONAL ACCESSORIES:
  7
SLDTEXTSTYLE0
 73
     1
 44
1.0
  0
MTEXT
  5
D1
330
CD
100
AcDbEntity
  8
0
  6
Continuous
 62
     0
370
     0
100
AcDbMText
 10
0.1640625
 20
-0.0056640623
 30
0.0
 40
0.21875
 41
0.0
 71
     1
 72
     1
  1
PCB MOUNTING KIT #57-58
  7
SLDTEXTSTYLE0
 73
     1
 44
1.0
  0
MTEXT
  5
D2
330
CD
100
AcDbEntity
  8
0
  6
Continuous
 62
     0
370
     0
100
AcDbMText
 10
0.1640625
 20
-0.2933116927
 30
0.0
 40
0.21875
 41
0.0
 71
     1
 72
     1
  1
INTERNAL PANEL #ANX-91313
  7
SLDTEXTSTYLE0
 73
     1
 44
1.0
  0
MTEXT
  5
D3
330
CD
100
AcDbEntity
  8
0
  6
Continuous
 62
     0
370
     0
100
AcDbMText
 10
0.1640625
 20
-0.5809593231
 30
0.0
 40
0.21875
 41
0.0
 71
     1
 72
     1
  1
REPLACEMENT GASKET #1313GSKTSC
  7
SLDTEXTSTYLE0
 73
     1
 44
1.0
  0
ENDBLK
  5
CF
330
CD
100
AcDbEntity
  8
0
100
AcDbBlockEnd
  0
BLOCK
  5
D6
330
D5
100
AcDbEntity
  8
0
100
AcDbBlockBegin
  2
SW_NOTE_5
 70
     0
 10
0.0
 20
0.0
 30
0.0
  3
SW_NOTE_5
  1

  0
MTEXT
  5
D8
330
D5
100
AcDbEntity
  8
0
  6
Continuous
 62
     0
370
     0
100
AcDbMText
 10
1.7875976562
 20
0.2819835681
 30
0.0
 40
0.21875
 41
0.0
 71
     2
 72
     1
  1
DRAWING FOR REFERENCE
  7
SLDTEXTSTYLE0
 73
     1
 44
1.0
  0
MTEXT
  5
D9
330
D5
100
AcDbEntity
  8
0
  6
Continuous
 62
     0
370
     0
100
AcDbMText
 10
1.799572126
 20
-0.0375337893
 30
0.0
 40
0.1085
 41
0.0
 71
     2
 72
     1
  1
WE RESERVE THE RIGHT TO MAKE CHANGES TO OUR
  7
SLDTEXTSTYLE0
 73
     1
 44
1.0
  0
MTEXT
  5
DA
330
D5
100
AcDbEntity
  8
0
  6
Continuous
 62
     0
370
     0
100
AcDbMText
 10
1.7906811381
 20
-0.2149314304
 30
0.0
 40
0.1085
 41
0.0
 71
     2
 72
     1
  1
STANDARD PRODUCTS. PLEASE CONSULT WITH BUD INDUSTRIES
  7
SLDTEXTSTYLE0
 73
     1
 44
1.0
  0
MTEXT
  5
DB
330
D5
100
AcDbEntity
  8
0
  6
Continuous
 62
     0
370
     0
100
AcDbMText
 10
1.8089149198
 20
-0.3923290715
 30
0.0
 40
0.1085
 41
0.0
 71
     2
 72
     1
  1
PRIOR TO USING THIS DRAWING FOR DESIGN PURPOSE.
  7
SLDTEXTSTYLE0
 73
     1
 44
1.0
  0
ENDBLK
  5
D7
330
D5
100
AcDbEntity
  8
0
100
AcDbBlockEnd
  0
BLOCK
  5
E1
330
E0
100
AcDbEntity
  8
0
100
AcDbBlockBegin
  2
SW_NOTE_6
 70
     0
 10
0.0
 20
0.0
 30
0.0
  3
SW_NOTE_6
  1

  0
MTEXT
  5
E3
330
E0
100
AcDbEntity
  8
0
  6
Continuous
 62
     0
370
     0
100
AcDbMText
 10
0.3315429687
 20
0.2819835681
 30
0.0
 40
0.21875
 41
0.0
 71
     2
 72
     1
  1
PART
  7
SLDTEXTSTYLE0
 73
     1
 44
1.0
  0
MTEXT
  5
E4
330
E0
100
AcDbEntity
  8
0
  6
Continuous
 62
     0
370
     0
100
AcDbMText
 10
0.3285997226
 20
-0.0056640623
 30
0.0
 40
0.21875
 41
0.0
 71
     2
 72
     1
  1
NAME
  7
SLDTEXTSTYLE0
 73
     1
 44
1.0
  0
ENDBLK
  5
E2
330
E0
100
AcDbEntity
  8
0
100
AcDbBlockEnd
  0
BLOCK
  5
E7
330
E6
100
AcDbEntity
  8
0
100
AcDbBlockBegin
  2
SW_NOTE_7
 70
     0
 10
0.0
 20
0.0
 30
0.0
  3
SW_NOTE_7
  1

  0
MTEXT
  5
E9
330
E6
100
AcDbEntity
  8
0
  6
Continuous
 62
     0
370
     0
100
AcDbMText
 10
0.3315429688
 20
0.2819835681
 30
0.0
 40
0.21875
 41
0.0
 71
     2
 72
     1
  1
PART
  7
SLDTEXTSTYLE0
 73
     1
 44
1.0
  0
MTEXT
  5
EA
330
E6
100
AcDbEntity
  8
0
  6
Continuous
 62
     0
370
     0
100
AcDbMText
 10
0.3414171042
 20
-0.0056640623
 30
0.0
 40
0.21875
 41
0.0
 71
     2
 72
     1
  1
No.
  7
SLDTEXTSTYLE0
 73
     1
 44
1.0
  0
ENDBLK
  5
E8
330
E6
100
AcDbEntity
  8
0
100
AcDbBlockEnd
  0
BLOCK
  5
ED
330
EC
100
AcDbEntity
  8
0
100
AcDbBlockBegin
  2
SW_NOTE_8
 70
     0
 10
0.0
 20
0.0
 30
0.0
  3
SW_NOTE_8
  1

  0
MTEXT
  5
EF
330
EC
100
AcDbEntity
  8
0
  6
Continuous
 62
     0
370
     0
100
AcDbMText
 10
0.642578125
 20
0.2819835681
 30
0.0
 40
0.21875
 41
0.0
 71
     2
 72
     1
  1
REVISION
  7
SLDTEXTSTYLE0
 73
     1
 44
1.0
  0
MTEXT
  5
F0
330
EC
100
AcDbEntity
  8
0
  6
Continuous
 62
     0
370
     0
100
AcDbMText
 10
0.6186143662
 20
-0.0056640623
 30
0.0
 40
0.21875
 41
0.0
 71
     2
 72
     1
  1
DATE
  7
SLDTEXTSTYLE0
 73
     1
 44
1.0
  0
ENDBLK
  5
EE
330
EC
100
AcDbEntity
  8
0
100
AcDbBlockEnd
  0
BLOCK
  5
17F
330
17E
100
AcDbEntity
  8
0
100
AcDbBlockBegin
  2
_D
 70
     0
 10
0.0
 20
0.0
 30
0.0
  3
_D
  1

  0
SOLID
  5
181
330
17E
100
AcDbEntity
  8
0
  6
Continuous
 62
     7
370
     0
100
AcDbTrace
 10
2.699463197
 20
13.2499737418
 30
0.0
 11
2.664463197
 21
13.0224737418
 31
0.0
 12
2.734463197
 22
13.0224737418
 32
0.0
 13
2.734463197
 23
13.0224737418
 33
0.0
  0
SOLID
  5
182
330
17E
100
AcDbEntity
  8
0
  6
Continuous
 62
     7
370
     0
100
AcDbTrace
 10
2.699463197
 20
9.0767453953
 30
0.0
 11
2.734463197
 21
9.3042453953
 31
0.0
 12
2.664463197
 22
9.3042453953
 32
0.0
 13
2.664463197
 23
9.3042453953
 33
0.0
  0
LINE
  5
183
330
17E
100
AcDbEntity
  8
0
  6
Continuous
 62
     7
370
     0
100
AcDbLine
 10
2.4014733028
 20
11.1616885274
 30
0.0
 11
2.3570397108
 21
11.1616885274
 31
0.0
  0
LINE
  5
184
330
17E
100
AcDbEntity
  8
0
  6
Continuous
 62
     7
370
     0
100
AcDbLine
 10
2.3570397108
 20
11.1616885274
 30
0.0
 11
2.3570397108
 21
10.814422892
 31
0.0
  0
LINE
  5
185
330
17E
100
AcDbEntity
  8
0
  6
Continuous
 62
     7
370
     0
100
AcDbLine
 10
2.3570397108
 20
10.814422892
 30
0.0
 11
2.4014733028
 21
10.814422892
 31
0.0
  0
LINE
  5
186
330
17E
100
AcDbEntity
  8
0
  6
Continuous
 62
     7
370
     0
100
AcDbLine
 10
2.9974531234
 20
11.1616885274
 30
0.0
 11
3.0418867153
 21
11.1616885274
 31
0.0
  0
LINE
  5
187
330
17E
100
AcDbEntity
  8
0
  6
Continuous
 62
     7
370
     0
100
AcDbLine
 10
3.0418867153
 20
11.1616885274
 30
0.0
 11
3.0418867153
 21
10.814422892
 31
0.0
  0
LINE
  5
188
330
17E
100
AcDbEntity
  8
0
  6
Continuous
 62
     7
370
     0
100
AcDbLine
 10
3.0418867153
 20
10.814422892
 30
0.0
 11
2.9974531234
 21
10.814422892
 31
0.0
  0
LINE
  5
189
330
17E
100
AcDbEntity
  8
0
  6
Continuous
 62
     7
370
     0
100
AcDbLine
 10
5.1191548573
 20
13.2499737418
 30
0.0
 11
2.480713197
 21
13.2499737418
 31
0.0
  0
LINE
  5
18A
330
17E
100
AcDbEntity
  8
0
  6
Continuous
 62
     7
370
     0
100
AcDbLine
 10
4.7648241486
 20
9.0767453953
 30
0.0
 11
2.480713197
 21
9.0767453953
 31
0.0
  0
LINE
  5
18B
330
17E
100
AcDbEntity
  8
0
  6
Continuous
 62
     7
370
     0
100
AcDbLine
 10
2.699463197
 20
13.2499737418
 30
0.0
 11
2.699463197
 21
11.5567297689
 31
0.0
  0
LINE
  5
18C
330
17E
100
AcDbEntity
  8
0
  6
Continuous
 62
     7
370
     0
100
AcDbLine
 10
2.699463197
 20
9.0767453953
 30
0.0
 11
2.699463197
 21
10.7699893682
 31
0.0
  0
MTEXT
  5
18D
330
17E
100
AcDbEntity
  8
0
  6
Continuous
 62
     7
370
     0
100
AcDbMText
 10
2.3249297934
 20
11.4914477256
 30
0.0
 40
0.21875
 41
0.0
 71
     1
 72
     1
  1

  7
SLDTEXTSTYLE0
 73
     1
 44
1.0
  0
MTEXT
  5
18E
330
17E
100
AcDbEntity
  8
0
  6
Continuous
 62
     7
370
     0
100
AcDbMText
 10
2.4166073015
 20
11.4881056955
 30
0.0
 40
0.21875
 41
0.0
 71
     1
 72
     1
  1
4.17
  7
SLDTEXTSTYLE0
 73
     1
 44
1.0
  0
MTEXT
  5
18F
330
17E
100
AcDbEntity
  8
0
  6
Continuous
 62
     7
370
     0
100
AcDbMText
 10
2.4570152957
 20
11.0964064841
 30
0.0
 40
0.21875
 41
0.0
 71
     1
 72
     1
  1
106
  7
SLDTEXTSTYLE0
 73
     1
 44
1.0
  0
MTEXT
  5
190
330
17E
100
AcDbEntity
  8
0
  6
Continuous
 62
     7
370
     0
100
AcDbMText
 10
3.1572431443
 20
11.4914477256
 30
0.0
 40
0.21875
 41
0.0
 71
     1
 72
     1
  1

  7
SLDTEXTSTYLE0
 73
     1
 44
1.0
  0
ENDBLK
  5
180
330
17E
100
AcDbEntity
  8
0
100
AcDbBlockEnd
  0
BLOCK
  5
194
330
193
100
AcDbEntity
  8
0
100
AcDbBlockBegin
  2
_D_1
 70
     0
 10
0.0
 20
0.0
 30
0.0
  3
_D_1
  1

  0
SOLID
  5
196
330
193
100
AcDbEntity
  8
0
  6
Continuous
 62
     7
370
     0
100
AcDbTrace
 10
4.8523241486
 20
7.0595797491
 30
0.0
 11
4.6248241486
 21
7.0945797491
 31
0.0
 12
4.6248241486
 22
7.0245797491
 32
0.0
 13
4.6248241486
 23
7.0245797491
 33
0.0
  0
SOLID
  5
197
330
193
100
AcDbEntity
  8
0
  6
Continuous
 62
     7
370
     0
100
AcDbTrace
 10
5.2066548573
 20
7.0595797491
 30
0.0
 11
5.4341548573
 21
7.0245797491
 31
0.0
 12
5.4341548573
 22
7.0945797491
 32
0.0
 13
5.4341548573
 23
7.0945797491
 33
0.0
  0
LINE
  5
198
330
193
100
AcDbEntity
  8
0
  6
Continuous
 62
     7
370
     0
100
AcDbLine
 10
3.9195798814
 20
7.057908708
 30
0.0
 11
3.8751462895
 21
7.057908708
 31
0.0
  0
LINE
  5
199
330
193
100
AcDbEntity
  8
0
  6
Continuous
 62
     7
370
     0
100
AcDbLine
 10
3.8751462895
 20
7.057908708
 30
0.0
 11
3.8751462895
 21
6.7106430726
 31
0.0
  0
LINE
  5
19A
330
193
100
AcDbEntity
  8
0
  6
Continuous
 62
     7
370
     0
100
AcDbLine
 10
3.8751462895
 20
6.7106430726
 30
0.0
 11
3.9195798814
 21
6.7106430726
 31
0.0
  0
LINE
  5
19B
330
193
100
AcDbEntity
  8
0
  6
Continuous
 62
     7
370
     0
100
AcDbLine
 10
4.1922958122
 20
7.057908708
 30
0.0
 11
4.2367294042
 21
7.057908708
 31
0.0
  0
LINE
  5
19C
330
193
100
AcDbEntity
  8
0
  6
Continuous
 62
     7
370
     0
100
AcDbLine
 10
4.2367294042
 20
7.057908708
 30
0.0
 11
4.2367294042
 21
6.7106430726
 31
0.0
  0
LINE
  5
19D
330
193
100
AcDbEntity
  8
0
  6
Continuous
 62
     7
370
     0
100
AcDbLine
 10
4.2367294042
 20
6.7106430726
 30
0.0
 11
4.1922958122
 21
6.7106430726
 31
0.0
  0
LINE
  5
19E
330
193
100
AcDbEntity
  8
0
  6
Continuous
 62
     7
370
     0
100
AcDbLine
 10
4.8523241486
 20
8.9892453953
 30
0.0
 11
4.8523241486
 21
6.8408297491
 31
0.0
  0
LINE
  5
19F
330
193
100
AcDbEntity
  8
0
  6
Continuous
 62
     7
370
     0
100
AcDbLine
 10
5.2066548573
 20
8.9892453953
 30
0.0
 11
5.2066548573
 21
6.8408297491
 31
0.0
  0
LINE
  5
1A0
330
193
100
AcDbEntity
  8
0
  6
Continuous
 62
     7
370
     0
100
AcDbLine
 10
4.8523241486
 20
7.0595797491
 30
0.0
 11
4.3951966654
 21
7.0595797491
 31
0.0
  0
LINE
  5
1A1
330
193
100
AcDbEntity
  8
0
  6
Continuous
 62
     7
370
     0
100
AcDbLine
 10
5.2066548573
 20
7.0595797491
 30
0.0
 11
5.6441548573
 21
7.0595797491
 31
0.0
  0
MTEXT
  5
1A2
330
193
100
AcDbEntity
  8
0
  6
Continuous
 62
     7
370
     0
100
AcDbMText
 10
3.8430363721
 20
7.3876679062
 30
0.0
 40
0.21875
 41
0.0
 71
     1
 72
     1
  1

  7
SLDTEXTSTYLE0
 73
     1
 44
1.0
  0
MTEXT
  5
1A3
330
193
100
AcDbEntity
  8
0
  6
Continuous
 62
     7
370
     0
100
AcDbMText
 10
3.8538979237
 20
7.3843258761
 30
0.0
 40
0.21875
 41
0.0
 71
     1
 72
     1
  1
.35
  7
SLDTEXTSTYLE0
 73
     1
 44
1.0
  0
MTEXT
  5
1A4
330
193
100
AcDbEntity
  8
0
  6
Continuous
 62
     7
370
     0
100
AcDbMText
 10
3.9751218744
 20
6.9926266647
 30
0.0
 40
0.21875
 41
0.0
 71
     1
 72
     1
  1
9
  7
SLDTEXTSTYLE0
 73
     1
 44
1.0
  0
MTEXT
  5
1A5
330
193
100
AcDbEntity
  8
0
  6
Continuous
 62
     7
370
     0
100
AcDbMText
 10
4.3520858331
 20
7.3876679062
 30
0.0
 40
0.21875
 41
0.0
 71
     1
 72
     1
  1

  7
SLDTEXTSTYLE0
 73
     1
 44
1.0
  0
ENDBLK
  5
195
330
193
100
AcDbEntity
  8
0
100
AcDbBlockEnd
  0
BLOCK
  5
1A8
330
1A7
100
AcDbEntity
  8
0
100
AcDbBlockBegin
  2
_D_2
 70
     0
 10
0.0
 20
0.0
 30
0.0
  3
_D_2
  1

  0
SOLID
  5
1AA
330
1A7
100
AcDbEntity
  8
0
  6
Continuous
 62
     7
370
     0
100
AcDbTrace
 10
6.3877572195
 20
6.4687856214
 30
0.0
 11
6.6152572195
 21
6.4337856214
 31
0.0
 12
6.6152572195
 22
6.5037856214
 32
0.0
 13
6.6152572195
 23
6.5037856214
 33
0.0
  0
SOLID
  5
1AB
330
1A7
100
AcDbEntity
  8
0
  6
Continuous
 62
     7
370
     0
100
AcDbTrace
 10
5.2066548573
 20
6.4687856214
 30
0.0
 11
4.9791548573
 21
6.5037856214
 31
0.0
 12
4.9791548573
 22
6.4337856214
 32
0.0
 13
4.9791548573
 23
6.4337856214
 33
0.0
  0
LINE
  5
1AC
330
1A7
100
AcDbEntity
  8
0
  6
Continuous
 62
     7
370
     0
100
AcDbLine
 10
5.5800321326
 20
6.4671145803
 30
0.0
 11
5.5355985406
 21
6.4671145803
 31
0.0
  0
LINE
  5
1AD
330
1A7
100
AcDbEntity
  8
0
  6
Continuous
 62
     7
370
     0
100
AcDbLine
 10
5.5355985406
 20
6.4671145803
 30
0.0
 11
5.5355985406
 21
6.1198489449
 31
0.0
  0
LINE
  5
1AE
330
1A7
100
AcDbEntity
  8
0
  6
Continuous
 62
     7
370
     0
100
AcDbLine
 10
5.5355985406
 20
6.1198489449
 30
0.0
 11
5.5800321326
 21
6.1198489449
 31
0.0
  0
LINE
  5
1AF
330
1A7
100
AcDbEntity
  8
0
  6
Continuous
 62
     7
370
     0
100
AcDbLine
 10
6.0143800083
 20
6.4671145803
 30
0.0
 11
6.0588136003
 21
6.4671145803
 31
0.0
  0
LINE
  5
1B0
330
1A7
100
AcDbEntity
  8
0
  6
Continuous
 62
     7
370
     0
100
AcDbLine
 10
6.0588136003
 20
6.4671145803
 30
0.0
 11
6.0588136003
 21
6.1198489449
 31
0.0
  0
LINE
  5
1B1
330
1A7
100
AcDbEntity
  8
0
  6
Continuous
 62
     7
370
     0
100
AcDbLine
 10
6.0588136003
 20
6.1198489449
 30
0.0
 11
6.0143800083
 21
6.1198489449
 31
0.0
  0
LINE
  5
1B2
330
1A7
100
AcDbEntity
  8
0
  6
Continuous
 62
     7
370
     0
100
AcDbLine
 10
6.3877572195
 20
8.9892453953
 30
0.0
 11
6.3877572195
 21
6.2500356214
 31
0.0
  0
LINE
  5
1B3
330
1A7
100
AcDbEntity
  8
0
  6
Continuous
 62
     7
370
     0
100
AcDbLine
 10
5.2066548573
 20
8.9892453953
 30
0.0
 11
5.2066548573
 21
6.2500356214
 31
0.0
  0
LINE
  5
1B4
330
1A7
100
AcDbEntity
  8
0
  6
Continuous
 62
     7
370
     0
100
AcDbLine
 10
6.3877572195
 20
6.4687856214
 30
0.0
 11
6.8252572195
 21
6.4687856214
 31
0.0
  0
LINE
  5
1B5
330
1A7
100
AcDbEntity
  8
0
  6
Continuous
 62
     7
370
     0
100
AcDbLine
 10
5.2066548573
 20
6.4687856214
 30
0.0
 11
4.7691548573
 21
6.4687856214
 31
0.0
  0
MTEXT
  5
1B6
330
1A7
100
AcDbEntity
  8
0
  6
Continuous
 62
     7
370
     0
100
AcDbMText
 10
5.5034886232
 20
6.7968737784
 30
0.0
 40
0.21875
 41
0.0
 71
     1
 72
     1
  1

  7
SLDTEXTSTYLE0
 73
     1
 44
1.0
  0
MTEXT
  5
1B7
330
1A7
100
AcDbEntity
  8
0
  6
Continuous
 62
     7
370
     0
100
AcDbMText
 10
5.5143501428
 20
6.7935317483
 30
0.0
 40
0.21875
 41
0.0
 71
     1
 72
     1
  1
1.18
  7
SLDTEXTSTYLE0
 73
     1
 44
1.0
  0
MTEXT
  5
1B8
330
1A7
100
AcDbEntity
  8
0
  6
Continuous
 62
     7
370
     0
100
AcDbMText
 10
5.6355741255
 20
6.401832537
 30
0.0
 40
0.21875
 41
0.0
 71
     1
 72
     1
  1
30
  7
SLDTEXTSTYLE0
 73
     1
 44
1.0
  0
MTEXT
  5
1B9
330
1A7
100
AcDbEntity
  8
0
  6
Continuous
 62
     7
370
     0
100
AcDbMText
 10
6.1741699971
 20
6.7968737784
 30
0.0
 40
0.21875
 41
0.0
 71
     1
 72
     1
  1

  7
SLDTEXTSTYLE0
 73
     1
 44
1.0
  0
ENDBLK
  5
1A9
330
1A7
100
AcDbEntity
  8
0
100
AcDbBlockEnd
  0
BLOCK
  5
1BC
330
1BB
100
AcDbEntity
  8
0
100
AcDbBlockBegin
  2
_D_3
 70
     0
 10
0.0
 20
0.0
 30
0.0
  3
_D_3
  1

  0
SOLID
  5
1BE
330
1BB
100
AcDbEntity
  8
0
  6
Continuous
 62
     7
370
     0
100
AcDbTrace
 10
6.1700948496
 20
8.8758982146
 30
0.0
 11
6.2050948496
 21
9.1033982146
 31
0.0
 12
6.1350948496
 22
9.1033982146
 32
0.0
 13
6.1350948496
 23
9.1033982146
 33
0.0
  0
SOLID
  5
1BF
330
1BB
100
AcDbEntity
  8
0
  6
Continuous
 62
     7
370
     0
100
AcDbTrace
 10
6.1700948496
 20
13.4508209225
 30
0.0
 11
6.1350948496
 21
13.2233209225
 31
0.0
 12
6.2050948496
 22
13.2233209225
 32
0.0
 13
6.2050948496
 23
13.2233209225
 33
0.0
  0
LINE
  5
1C0
330
1BB
100
AcDbEntity
  8
0
  6
Continuous
 62
     7
370
     0
100
AcDbLine
 10
5.7508809886
 20
11.8146880953
 30
0.0
 11
5.7064473966
 21
11.8146880953
 31
0.0
  0
LINE
  5
1C1
330
1BB
100
AcDbEntity
  8
0
  6
Continuous
 62
     7
370
     0
100
AcDbLine
 10
5.7064473966
 20
11.8146880953
 30
0.0
 11
5.7064473966
 21
11.4674224598
 31
0.0
  0
LINE
  5
1C2
330
1BB
100
AcDbEntity
  8
0
  6
Continuous
 62
     7
370
     0
100
AcDbLine
 10
5.7064473966
 20
11.4674224598
 30
0.0
 11
5.7508809886
 21
11.4674224598
 31
0.0
  0
LINE
  5
1C3
330
1BB
100
AcDbEntity
  8
0
  6
Continuous
 62
     7
370
     0
100
AcDbLine
 10
6.5893087105
 20
11.8146880953
 30
0.0
 11
6.6337423025
 21
11.8146880953
 31
0.0
  0
LINE
  5
1C4
330
1BB
100
AcDbEntity
  8
0
  6
Continuous
 62
     7
370
     0
100
AcDbLine
 10
6.6337423025
 20
11.8146880953
 30
0.0
 11
6.6337423025
 21
11.4674224598
 31
0.0
  0
LINE
  5
1C5
330
1BB
100
AcDbEntity
  8
0
  6
Continuous
 62
     7
370
     0
100
AcDbLine
 10
6.6337423025
 20
11.4674224598
 30
0.0
 11
6.5893087105
 21
11.4674224598
 31
0.0
  0
LINE
  5
1C6
330
1BB
100
AcDbEntity
  8
0
  6
Continuous
 62
     7
370
     0
100
AcDbLine
 10
6.7687679916
 20
13.4508209225
 30
0.0
 11
5.9513448496
 21
13.4508209225
 31
0.0
  0
LINE
  5
1C7
330
1BB
100
AcDbEntity
  8
0
  6
Continuous
 62
     7
370
     0
100
AcDbLine
 10
6.1700948496
 20
8.8758982146
 30
0.0
 11
6.1700948496
 21
11.422988936
 31
0.0
  0
LINE
  5
1C8
330
1BB
100
AcDbEntity
  8
0
  6
Continuous
 62
     7
370
     0
100
AcDbLine
 10
6.1700948496
 20
13.4508209225
 30
0.0
 11
6.1700948496
 21
12.2097293367
 31
0.0
  0
MTEXT
  5
1C9
330
1BB
100
AcDbEntity
  8
0
  6
Continuous
 62
     7
370
     0
100
AcDbMText
 10
5.6743374792
 20
12.1444472934
 30
0.0
 40
0.21875
 41
0.0
 71
     1
 72
     1
  1

  7
SLDTEXTSTYLE0
 73
     1
 44
1.0
  0
MTEXT
  5
1CA
330
1BB
100
AcDbEntity
  8
0
  6
Continuous
 62
     7
370
     0
100
AcDbMText
 10
5.8872389219
 20
12.1411052633
 30
0.0
 40
0.21875
 41
0.0
 71
     1
 72
     1
  1
4.57
  7
SLDTEXTSTYLE0
 73
     1
 44
1.0
  0
MTEXT
  5
1CB
330
1BB
100
AcDbEntity
  8
0
  6
Continuous
 62
     7
370
     0
100
AcDbMText
 10
5.8064229816
 20
11.749406052
 30
0.0
 40
0.21875
 41
0.0
 71
     1
 72
     1
  1
116.2
  7
SLDTEXTSTYLE0
 73
     1
 44
1.0
  0
MTEXT
  5
1CC
330
1BB
100
AcDbEntity
  8
0
  6
Continuous
 62
     7
370
     0
100
AcDbMText
 10
6.7490986993
 20
12.1444472934
 30
0.0
 40
0.21875
 41
0.0
 71
     1
 72
     1
  1

  7
SLDTEXTSTYLE0
 73
     1
 44
1.0
  0
ENDBLK
  5
1BD
330
1BB
100
AcDbEntity
  8
0
100
AcDbBlockEnd
  0
BLOCK
  5
1CF
330
1CE
100
AcDbEntity
  8
0
100
AcDbBlockBegin
  2
_D_4
 70
     0
 10
0.0
 20
0.0
 30
0.0
  3
_D_4
  1

  0
SOLID
  5
1D1
330
1CE
100
AcDbEntity
  8
0
  6
Continuous
 62
     7
370
     0
100
AcDbTrace
 10
7.2006228888
 20
10.5663120303
 30
0.0
 11
6.9731228888
 21
10.6013120303
 31
0.0
 12
6.9731228888
 22
10.5313120303
 32
0.0
 13
6.9731228888
 23
10.5313120303
 33
0.0
  0
SOLID
  5
1D2
330
1CE
100
AcDbEntity
  8
0
  6
Continuous
 62
     7
370
     0
100
AcDbTrace
 10
4.393789188
 20
10.5663120303
 30
0.0
 11
4.621289188
 21
10.5313120303
 31
0.0
 12
4.621289188
 22
10.6013120303
 32
0.0
 13
4.621289188
 23
10.6013120303
 33
0.0
  0
LINE
  5
1D3
330
1CE
100
AcDbEntity
  8
0
  6
Continuous
 62
     7
370
     0
100
AcDbLine
 10
5.328414411
 20
10.5646409892
 30
0.0
 11
5.283980819
 21
10.5646409892
 31
0.0
  0
LINE
  5
1D4
330
1CE
100
AcDbEntity
  8
0
  6
Continuous
 62
     7
370
     0
100
AcDbLine
 10
5.283980819
 20
10.5646409892
 30
0.0
 11
5.283980819
 21
10.2173753537
 31
0.0
  0
LINE
  5
1D5
330
1CE
100
AcDbEntity
  8
0
  6
Continuous
 62
     7
370
     0
100
AcDbLine
 10
5.283980819
 20
10.2173753537
 30
0.0
 11
5.328414411
 21
10.2173753537
 31
0.0
  0
LINE
  5
1D6
330
1CE
100
AcDbEntity
  8
0
  6
Continuous
 62
     7
370
     0
100
AcDbLine
 10
6.0052102201
 20
10.5646409892
 30
0.0
 11
6.049643812
 21
10.5646409892
 31
0.0
  0
LINE
  5
1D7
330
1CE
100
AcDbEntity
  8
0
  6
Continuous
 62
     7
370
     0
100
AcDbLine
 10
6.049643812
 20
10.5646409892
 30
0.0
 11
6.049643812
 21
10.2173753537
 31
0.0
  0
LINE
  5
1D8
330
1CE
100
AcDbEntity
  8
0
  6
Continuous
 62
     7
370
     0
100
AcDbLine
 10
6.049643812
 20
10.2173753537
 30
0.0
 11
6.0052102201
 21
10.2173753537
 31
0.0
  0
LINE
  5
1D9
330
1CE
100
AcDbEntity
  8
0
  6
Continuous
 62
     7
370
     0
100
AcDbLine
 10
7.2006228888
 20
9.33156823
 30
0.0
 11
7.2006228888
 21
10.7850620303
 31
0.0
  0
LINE
  5
1DA
330
1CE
100
AcDbEntity
  8
0
  6
Continuous
 62
     7
370
     0
100
AcDbLine
 10
4.393789188
 20
9.3394422457
 30
0.0
 11
4.393789188
 21
10.7850620303
 31
0.0
  0
LINE
  5
1DB
330
1CE
100
AcDbEntity
  8
0
  6
Continuous
 62
     7
370
     0
100
AcDbLine
 10
7.2006228888
 20
10.5663120303
 30
0.0
 11
6.2081110411
 21
10.5663120303
 31
0.0
  0
LINE
  5
1DC
330
1CE
100
AcDbEntity
  8
0
  6
Continuous
 62
     7
370
     0
100
AcDbLine
 10
4.393789188
 20
10.5663120303
 30
0.0
 11
5.1255135257
 21
10.5663120303
 31
0.0
  0
MTEXT
  5
1DD
330
1CE
100
AcDbEntity
  8
0
  6
Continuous
 62
     7
370
     0
100
AcDbMText
 10
5.2518709016
 20
10.8944001873
 30
0.0
 40
0.21875
 41
0.0
 71
     1
 72
     1
  1

  7
SLDTEXTSTYLE0
 73
     1
 44
1.0
  0
MTEXT
  5
1DE
330
1CE
100
AcDbEntity
  8
0
  6
Continuous
 62
     7
370
     0
100
AcDbMText
 10
5.3839563879
 20
10.8910581572
 30
0.0
 40
0.21875
 41
0.0
 71
     1
 72
     1
  1
2.81
  7
SLDTEXTSTYLE0
 73
     1
 44
1.0
  0
MTEXT
  5
1DF
330
1CE
100
AcDbEntity
  8
0
  6
Continuous
 62
     7
370
     0
100
AcDbMText
 10
5.3839564039
 20
10.4993589459
 30
0.0
 40
0.21875
 41
0.0
 71
     1
 72
     1
  1
71.3
  7
SLDTEXTSTYLE0
 73
     1
 44
1.0
  0
MTEXT
  5
1E0
330
1CE
100
AcDbEntity
  8
0
  6
Continuous
 62
     7
370
     0
100
AcDbMText
 10
6.1650002089
 20
10.8944001873
 30
0.0
 40
0.21875
 41
0.0
 71
     1
 72
     1
  1

  7
SLDTEXTSTYLE0
 73
     1
 44
1.0
  0
ENDBLK
  5
1D0
330
1CE
100
AcDbEntity
  8
0
100
AcDbBlockEnd
  0
BLOCK
  5
1E3
330
1E2
100
AcDbEntity
  8
0
100
AcDbBlockBegin
  2
_D_5
 70
     0
 10
0.0
 20
0.0
 30
0.0
  3
_D_5
  1

  0
SOLID
  5
1E5
330
1E2
100
AcDbEntity
  8
0
  6
Continuous
 62
     7
370
     0
100
AcDbTrace
 10
4.8523241486
 20
9.7331008674
 30
0.0
 11
4.6248241486
 21
9.7681008674
 31
0.0
 12
4.6248241486
 22
9.6981008674
 32
0.0
 13
4.6248241486
 23
9.6981008674
 33
0.0
  0
SOLID
  5
1E6
330
1E2
100
AcDbEntity
  8
0
  6
Continuous
 62
     7
370
     0
100
AcDbTrace
 10
4.2263398966
 20
9.7331008674
 30
0.0
 11
4.4538398966
 21
9.6981008674
 31
0.0
 12
4.4538398966
 22
9.7681008674
 32
0.0
 13
4.4538398966
 23
9.7681008674
 33
0.0
  0
LINE
  5
1E7
330
1E2
100
AcDbEntity
  8
0
  6
Continuous
 62
     7
370
     0
100
AcDbLine
 10
3.0636067566
 20
9.7314298263
 30
0.0
 11
3.0191731646
 21
9.7314298263
 31
0.0
  0
LINE
  5
1E8
330
1E2
100
AcDbEntity
  8
0
  6
Continuous
 62
     7
370
     0
100
AcDbLine
 10
3.0191731646
 20
9.7314298263
 30
0.0
 11
3.0191731646
 21
9.3841641909
 31
0.0
  0
LINE
  5
1E9
330
1E2
100
AcDbEntity
  8
0
  6
Continuous
 62
     7
370
     0
100
AcDbLine
 10
3.0191731646
 20
9.3841641909
 30
0.0
 11
3.0636067566
 21
9.3841641909
 31
0.0
  0
LINE
  5
1EA
330
1E2
100
AcDbEntity
  8
0
  6
Continuous
 62
     7
370
     0
100
AcDbLine
 10
3.7404025657
 20
9.7314298263
 30
0.0
 11
3.7848361576
 21
9.7314298263
 31
0.0
  0
LINE
  5
1EB
330
1E2
100
AcDbEntity
  8
0
  6
Continuous
 62
     7
370
     0
100
AcDbLine
 10
3.7848361576
 20
9.7314298263
 30
0.0
 11
3.7848361576
 21
9.3841641909
 31
0.0
  0
LINE
  5
1EC
330
1E2
100
AcDbEntity
  8
0
  6
Continuous
 62
     7
370
     0
100
AcDbLine
 10
3.7848361576
 20
9.3841641909
 30
0.0
 11
3.7404025657
 21
9.3841641909
 31
0.0
  0
LINE
  5
1ED
330
1E2
100
AcDbEntity
  8
0
  6
Continuous
 62
     7
370
     0
100
AcDbLine
 10
4.8523241486
 20
9.1642453953
 30
0.0
 11
4.8523241486
 21
9.9518508674
 31
0.0
  0
LINE
  5
1EE
330
1E2
100
AcDbEntity
  8
0
  6
Continuous
 62
     7
370
     0
100
AcDbLine
 10
4.8523241486
 20
9.7331008674
 30
0.0
 11
4.2263398966
 21
9.7331008674
 31
0.0
  0
LINE
  5
1EF
330
1E2
100
AcDbEntity
  8
0
  6
Continuous
 62
     7
370
     0
100
AcDbLine
 10
4.2263398966
 20
9.7331008674
 30
0.0
 11
3.9433033867
 21
9.7331008674
 31
0.0
  0
MTEXT
  5
1F0
330
1E2
100
AcDbEntity
  8
0
  6
Continuous
 62
     7
370
     0
100
AcDbMText
 10
2.9870632472
 20
10.0611890244
 30
0.0
 40
0.21875
 41
0.0
 71
     1
 72
     1
  1

  7
SLDTEXTSTYLE0
 73
     1
 44
1.0
  0
MTEXT
  5
1F1
330
1E2
100
AcDbEntity
  8
0
  6
Continuous
 62
     7
370
     0
100
AcDbMText
 10
3.199964722
 20
10.0578469944
 30
0.0
 40
0.21875
 41
0.0
 71
     1
 72
     1
  1
.63
  7
SLDTEXTSTYLE0
 73
     1
 44
1.0
  0
MTEXT
  5
1F2
330
1E2
100
AcDbEntity
  8
0
  6
Continuous
 62
     7
370
     0
100
AcDbMText
 10
3.1191487495
 20
9.666147783
 30
0.0
 40
0.21875
 41
0.0
 71
     1
 72
     1
  1
15.9
  7
SLDTEXTSTYLE0
 73
     1
 44
1.0
  0
MTEXT
  5
1F3
330
1E2
100
AcDbEntity
  8
0
  6
Continuous
 62
     7
370
     0
100
AcDbMText
 10
3.9001925545
 20
10.0611890244
 30
0.0
 40
0.21875
 41
0.0
 71
     1
 72
     1
  1

  7
SLDTEXTSTYLE0
 73
     1
 44
1.0
  0
ENDBLK
  5
1E4
330
1E2
100
AcDbEntity
  8
0
100
AcDbBlockEnd
  0
BLOCK
  5
1F6
330
1F5
100
AcDbEntity
  8
0
100
AcDbBlockBegin
  2
_D_6
 70
     0
 10
0.0
 20
0.0
 30
0.0
  3
_D_6
  1

  0
SOLID
  5
1F8
330
1F5
100
AcDbEntity
  8
0
  6
Continuous
 62
     7
370
     0
100
AcDbTrace
 10
4.2263398966
 20
15.6713052685
 30
0.0
 11
4.4538398966
 21
15.6363052685
 31
0.0
 12
4.4538398966
 22
15.7063052685
 32
0.0
 13
4.4538398966
 23
15.7063052685
 33
0.0
  0
SOLID
  5
1F9
330
1F5
100
AcDbEntity
  8
0
  6
Continuous
 62
     7
370
     0
100
AcDbTrace
 10
7.3680721801
 20
15.6713052685
 30
0.0
 11
7.1405721801
 21
15.7063052685
 31
0.0
 12
7.1405721801
 22
15.6363052685
 32
0.0
 13
7.1405721801
 23
15.6363052685
 33
0.0
  0
LINE
  5
1FA
330
1F5
100
AcDbEntity
  8
0
  6
Continuous
 62
     7
370
     0
100
AcDbLine
 10
5.4588081659
 20
15.6696342274
 30
0.0
 11
5.4143745739
 21
15.6696342274
 31
0.0
  0
LINE
  5
1FB
330
1F5
100
AcDbEntity
  8
0
  6
Continuous
 62
     7
370
     0
100
AcDbLine
 10
5.4143745739
 20
15.6696342274
 30
0.0
 11
5.4143745739
 21
15.322368592
 31
0.0
  0
LINE
  5
1FC
330
1F5
100
AcDbEntity
  8
0
  6
Continuous
 62
     7
370
     0
100
AcDbLine
 10
5.4143745739
 20
15.322368592
 30
0.0
 11
5.4588081659
 21
15.322368592
 31
0.0
  0
LINE
  5
1FD
330
1F5
100
AcDbEntity
  8
0
  6
Continuous
 62
     7
370
     0
100
AcDbLine
 10
6.135603975
 20
15.6696342274
 30
0.0
 11
6.180037567
 21
15.6696342274
 31
0.0
  0
LINE
  5
1FE
330
1F5
100
AcDbEntity
  8
0
  6
Continuous
 62
     7
370
     0
100
AcDbLine
 10
6.180037567
 20
15.6696342274
 30
0.0
 11
6.180037567
 21
15.322368592
 31
0.0
  0
LINE
  5
1FF
330
1F5
100
AcDbEntity
  8
0
  6
Continuous
 62
     7
370
     0
100
AcDbLine
 10
6.180037567
 20
15.322368592
 30
0.0
 11
6.135603975
 21
15.322368592
 31
0.0
  0
LINE
  5
200
330
1F5
100
AcDbEntity
  8
0
  6
Continuous
 62
     7
370
     0
100
AcDbLine
 10
4.2263398966
 20
13.5048265577
 30
0.0
 11
4.2263398966
 21
15.8900552685
 31
0.0
  0
LINE
  5
201
330
1F5
100
AcDbEntity
  8
0
  6
Continuous
 62
     7
370
     0
100
AcDbLine
 10
7.3680721801
 20
13.5048265577
 30
0.0
 11
7.3680721801
 21
15.8900552685
 31
0.0
  0
LINE
  5
202
330
1F5
100
AcDbEntity
  8
0
  6
Continuous
 62
     7
370
     0
100
AcDbLine
 10
4.2263398966
 20
15.6713052685
 30
0.0
 11
5.2559072806
 21
15.6713052685
 31
0.0
  0
LINE
  5
203
330
1F5
100
AcDbEntity
  8
0
  6
Continuous
 62
     7
370
     0
100
AcDbLine
 10
7.3680721801
 20
15.6713052685
 30
0.0
 11
6.3385047961
 21
15.6713052685
 31
0.0
  0
MTEXT
  5
204
330
1F5
100
AcDbEntity
  8
0
  6
Continuous
 62
     7
370
     0
100
AcDbMText
 10
5.3822646565
 20
15.9993934256
 30
0.0
 40
0.21875
 41
0.0
 71
     1
 72
     1
  1

  7
SLDTEXTSTYLE0
 73
     1
 44
1.0
  0
MTEXT
  5
205
330
1F5
100
AcDbEntity
  8
0
  6
Continuous
 62
     7
370
     0
100
AcDbMText
 10
5.5143501428
 20
15.9960513955
 30
0.0
 40
0.21875
 41
0.0
 71
     1
 72
     1
  1
3.14
  7
SLDTEXTSTYLE0
 73
     1
 44
1.0
  0
MTEXT
  5
206
330
1F5
100
AcDbEntity
  8
0
  6
Continuous
 62
     7
370
     0
100
AcDbMText
 10
5.5143501589
 20
15.6043521841
 30
0.0
 40
0.21875
 41
0.0
 71
     1
 72
     1
  1
79.8
  7
SLDTEXTSTYLE0
 73
     1
 44
1.0
  0
MTEXT
  5
207
330
1F5
100
AcDbEntity
  8
0
  6
Continuous
 62
     7
370
     0
100
AcDbMText
 10
6.2953939638
 20
15.9993934256
 30
0.0
 40
0.21875
 41
0.0
 71
     1
 72
     1
  1

  7
SLDTEXTSTYLE0
 73
     1
 44
1.0
  0
ENDBLK
  5
1F7
330
1F5
100
AcDbEntity
  8
0
100
AcDbBlockEnd
  0
BLOCK
  5
20B
330
20A
100
AcDbEntity
  8
0
100
AcDbBlockBegin
  2
_D_7
 70
     0
 10
0.0
 20
0.0
 30
0.0
  3
_D_7
  1

  0
SOLID
  5
20D
330
20A
100
AcDbEntity
  8
0
  6
Continuous
 62
     7
370
     0
100
AcDbTrace
 10
1.667566901
 20
8.712572167
 30
0.0
 11
1.702566901
 21
8.940072167
 31
0.0
 12
1.632566901
 22
8.940072167
 32
0.0
 13
1.632566901
 23
8.940072167
 33
0.0
  0
SOLID
  5
20E
330
20A
100
AcDbEntity
  8
0
  6
Continuous
 62
     7
370
     0
100
AcDbTrace
 10
1.667566901
 20
13.6141469701
 30
0.0
 11
1.632566901
 21
13.3866469701
 31
0.0
 12
1.702566901
 22
13.3866469701
 32
0.0
 13
1.702566901
 23
13.3866469701
 33
0.0
  0
LINE
  5
20F
330
20A
100
AcDbEntity
  8
0
  6
Continuous
 62
     7
370
     0
100
AcDbLine
 10
1.24835304
 20
11.1616885274
 30
0.0
 11
1.2039194481
 21
11.1616885274
 31
0.0
  0
LINE
  5
210
330
20A
100
AcDbEntity
  8
0
  6
Continuous
 62
     7
370
     0
100
AcDbLine
 10
1.2039194481
 20
11.1616885274
 30
0.0
 11
1.2039194481
 21
10.814422892
 31
0.0
  0
LINE
  5
211
330
20A
100
AcDbEntity
  8
0
  6
Continuous
 62
     7
370
     0
100
AcDbLine
 10
1.2039194481
 20
10.814422892
 30
0.0
 11
1.24835304
 21
10.814422892
 31
0.0
  0
LINE
  5
212
330
20A
100
AcDbEntity
  8
0
  6
Continuous
 62
     7
370
     0
100
AcDbLine
 10
2.0867807619
 20
11.1616885274
 30
0.0
 11
2.1312143539
 21
11.1616885274
 31
0.0
  0
LINE
  5
213
330
20A
100
AcDbEntity
  8
0
  6
Continuous
 62
     7
370
     0
100
AcDbLine
 10
2.1312143539
 20
11.1616885274
 30
0.0
 11
2.1312143539
 21
10.814422892
 31
0.0
  0
LINE
  5
214
330
20A
100
AcDbEntity
  8
0
  6
Continuous
 62
     7
370
     0
100
AcDbLine
 10
2.1312143539
 20
10.814422892
 30
0.0
 11
2.0867807619
 21
10.814422892
 31
0.0
  0
LINE
  5
215
330
20A
100
AcDbEntity
  8
0
  6
Continuous
 62
     7
370
     0
100
AcDbLine
 10
4.3356603091
 20
8.712572167
 30
0.0
 11
1.448816901
 21
8.712572167
 31
0.0
  0
LINE
  5
216
330
20A
100
AcDbEntity
  8
0
  6
Continuous
 62
     7
370
     0
100
AcDbLine
 10
4.3356603091
 20
13.6141469701
 30
0.0
 11
1.448816901
 21
13.6141469701
 31
0.0
  0
LINE
  5
217
330
20A
100
AcDbEntity
  8
0
  6
Continuous
 62
     7
370
     0
100
AcDbLine
 10
1.667566901
 20
8.712572167
 30
0.0
 11
1.667566901
 21
10.7699893682
 31
0.0
  0
LINE
  5
218
330
20A
100
AcDbEntity
  8
0
  6
Continuous
 62
     7
370
     0
100
AcDbLine
 10
1.667566901
 20
13.6141469701
 30
0.0
 11
1.667566901
 21
11.5567297689
 31
0.0
  0
MTEXT
  5
219
330
20A
100
AcDbEntity
  8
0
  6
Continuous
 62
     7
370
     0
100
AcDbMText
 10
1.1718095306
 20
11.4914477256
 30
0.0
 40
0.21875
 41
0.0
 71
     1
 72
     1
  1

  7
SLDTEXTSTYLE0
 73
     1
 44
1.0
  0
MTEXT
  5
21A
330
20A
100
AcDbEntity
  8
0
  6
Continuous
 62
     7
370
     0
100
AcDbMText
 10
1.3847109734
 20
11.4881056955
 30
0.0
 40
0.21875
 41
0.0
 71
     1
 72
     1
  1
4.90
  7
SLDTEXTSTYLE0
 73
     1
 44
1.0
  0
MTEXT
  5
21B
330
20A
100
AcDbEntity
  8
0
  6
Continuous
 62
     7
370
     0
100
AcDbMText
 10
1.303895033
 20
11.0964064841
 30
0.0
 40
0.21875
 41
0.0
 71
     1
 72
     1
  1
124.5
  7
SLDTEXTSTYLE0
 73
     1
 44
1.0
  0
MTEXT
  5
21C
330
20A
100
AcDbEntity
  8
0
  6
Continuous
 62
     7
370
     0
100
AcDbMText
 10
2.2465707507
 20
11.4914477256
 30
0.0
 40
0.21875
 41
0.0
 71
     1
 72
     1
  1

  7
SLDTEXTSTYLE0
 73
     1
 44
1.0
  0
ENDBLK
  5
20C
330
20A
100
AcDbEntity
  8
0
100
AcDbBlockEnd
  0
BLOCK
  5
21F
330
21E
100
AcDbEntity
  8
0
100
AcDbBlockBegin
  2
_D_8
 70
     0
 10
0.0
 20
0.0
 30
0.0
  3
_D_8
  1

  0
SOLID
  5
221
330
21E
100
AcDbEntity
  8
0
  6
Continuous
 62
     7
370
     0
100
AcDbTrace
 10
8.2271412893
 20
13.0747768914
 30
0.0
 11
8.1921412893
 21
12.8472768914
 31
0.0
 12
8.2621412893
 22
12.8472768914
 32
0.0
 13
8.2621412893
 23
12.8472768914
 33
0.0
  0
SOLID
  5
222
330
21E
100
AcDbEntity
  8
0
  6
Continuous
 62
     7
370
     0
100
AcDbTrace
 10
8.2271412893
 20
9.2519422457
 30
0.0
 11
8.2621412893
 21
9.4794422457
 31
0.0
 12
8.1921412893
 22
9.4794422457
 32
0.0
 13
8.1921412893
 23
9.4794422457
 33
0.0
  0
LINE
  5
223
330
21E
100
AcDbEntity
  8
0
  6
Continuous
 62
     7
370
     0
100
AcDbLine
 10
7.8887434169
 20
11.1616885274
 30
0.0
 11
7.8443098249
 21
11.1616885274
 31
0.0
  0
LINE
  5
224
330
21E
100
AcDbEntity
  8
0
  6
Continuous
 62
     7
370
     0
100
AcDbLine
 10
7.8443098249
 20
11.1616885274
 30
0.0
 11
7.8443098249
 21
10.814422892
 31
0.0
  0
LINE
  5
225
330
21E
100
AcDbEntity
  8
0
  6
Continuous
 62
     7
370
     0
100
AcDbLine
 10
7.8443098249
 20
10.814422892
 30
0.0
 11
7.8887434169
 21
10.814422892
 31
0.0
  0
LINE
  5
226
330
21E
100
AcDbEntity
  8
0
  6
Continuous
 62
     7
370
     0
100
AcDbLine
 10
8.565539226
 20
11.1616885274
 30
0.0
 11
8.6099728179
 21
11.1616885274
 31
0.0
  0
LINE
  5
227
330
21E
100
AcDbEntity
  8
0
  6
Continuous
 62
     7
370
     0
100
AcDbLine
 10
8.6099728179
 20
11.1616885274
 30
0.0
 11
8.6099728179
 21
10.814422892
 31
0.0
  0
LINE
  5
228
330
21E
100
AcDbEntity
  8
0
  6
Continuous
 62
     7
370
     0
100
AcDbLine
 10
8.6099728179
 20
10.814422892
 30
0.0
 11
8.565539226
 21
10.814422892
 31
0.0
  0
LINE
  5
229
330
21E
100
AcDbEntity
  8
0
  6
Continuous
 62
     7
370
     0
100
AcDbLine
 10
5.3204468227
 20
13.0747768914
 30
0.0
 11
8.4458912893
 21
13.0747768914
 31
0.0
  0
LINE
  5
22A
330
21E
100
AcDbEntity
  8
0
  6
Continuous
 62
     7
370
     0
100
AcDbLine
 10
4.481289188
 20
9.2519422457
 30
0.0
 11
8.4458912893
 21
9.2519422457
 31
0.0
  0
LINE
  5
22B
330
21E
100
AcDbEntity
  8
0
  6
Continuous
 62
     7
370
     0
100
AcDbLine
 10
8.2271412893
 20
13.0747768914
 30
0.0
 11
8.2271412893
 21
11.5567297689
 31
0.0
  0
LINE
  5
22C
330
21E
100
AcDbEntity
  8
0
  6
Continuous
 62
     7
370
     0
100
AcDbLine
 10
8.2271412893
 20
9.2519422457
 30
0.0
 11
8.2271412893
 21
10.7699893682
 31
0.0
  0
MTEXT
  5
22D
330
21E
100
AcDbEntity
  8
0
  6
Continuous
 62
     7
370
     0
100
AcDbMText
 10
7.8121999075
 20
11.4914477256
 30
0.0
 40
0.21875
 41
0.0
 71
     1
 72
     1
  1

  7
SLDTEXTSTYLE0
 73
     1
 44
1.0
  0
MTEXT
  5
22E
330
21E
100
AcDbEntity
  8
0
  6
Continuous
 62
     7
370
     0
100
AcDbMText
 10
7.9442853938
 20
11.4881056955
 30
0.0
 40
0.21875
 41
0.0
 71
     1
 72
     1
  1
3.82
  7
SLDTEXTSTYLE0
 73
     1
 44
1.0
  0
MTEXT
  5
22F
330
21E
100
AcDbEntity
  8
0
  6
Continuous
 62
     7
370
     0
100
AcDbMText
 10
7.9442854098
 20
11.0964064841
 30
0.0
 40
0.21875
 41
0.0
 71
     1
 72
     1
  1
97.1
  7
SLDTEXTSTYLE0
 73
     1
 44
1.0
  0
MTEXT
  5
230
330
21E
100
AcDbEntity
  8
0
  6
Continuous
 62
     7
370
     0
100
AcDbMText
 10
8.7253292148
 20
11.4914477256
 30
0.0
 40
0.21875
 41
0.0
 71
     1
 72
     1
  1

  7
SLDTEXTSTYLE0
 73
     1
 44
1.0
  0
ENDBLK
  5
220
330
21E
100
AcDbEntity
  8
0
100
AcDbBlockEnd
  0
BLOCK
  5
233
330
232
100
AcDbEntity
  8
0
100
AcDbBlockBegin
  2
_D_9
 70
     0
 10
0.0
 20
0.0
 30
0.0
  3
_D_9
  1

  0
SOLID
  5
235
330
232
100
AcDbEntity
  8
0
  6
Continuous
 62
     7
370
     0
100
AcDbTrace
 10
5.0058076766
 20
14.8328558409
 30
0.0
 11
5.2333076766
 21
14.7978558409
 31
0.0
 12
5.2333076766
 22
14.8678558409
 32
0.0
 13
5.2333076766
 23
14.8678558409
 33
0.0
  0
SOLID
  5
236
330
232
100
AcDbEntity
  8
0
  6
Continuous
 62
     7
370
     0
100
AcDbTrace
 10
6.9232552893
 20
14.8328558409
 30
0.0
 11
6.6957552893
 21
14.8678558409
 31
0.0
 12
6.6957552893
 22
14.7978558409
 32
0.0
 13
6.6957552893
 23
14.7978558409
 33
0.0
  0
LINE
  5
237
330
232
100
AcDbEntity
  8
0
  6
Continuous
 62
     7
370
     0
100
AcDbLine
 10
5.6261336105
 20
14.8311847998
 30
0.0
 11
5.5817000185
 21
14.8311847998
 31
0.0
  0
LINE
  5
238
330
232
100
AcDbEntity
  8
0
  6
Continuous
 62
     7
370
     0
100
AcDbLine
 10
5.5817000185
 20
14.8311847998
 30
0.0
 11
5.5817000185
 21
14.4839191643
 31
0.0
  0
LINE
  5
239
330
232
100
AcDbEntity
  8
0
  6
Continuous
 62
     7
370
     0
100
AcDbLine
 10
5.5817000185
 20
14.4839191643
 30
0.0
 11
5.6261336105
 21
14.4839191643
 31
0.0
  0
LINE
  5
23A
330
232
100
AcDbEntity
  8
0
  6
Continuous
 62
     7
370
     0
100
AcDbLine
 10
6.3029294196
 20
14.8311847998
 30
0.0
 11
6.3473630115
 21
14.8311847998
 31
0.0
  0
LINE
  5
23B
330
232
100
AcDbEntity
  8
0
  6
Continuous
 62
     7
370
     0
100
AcDbLine
 10
6.3473630115
 20
14.8311847998
 30
0.0
 11
6.3473630115
 21
14.4839191643
 31
0.0
  0
LINE
  5
23C
330
232
100
AcDbEntity
  8
0
  6
Continuous
 62
     7
370
     0
100
AcDbLine
 10
6.3473630115
 20
14.4839191643
 30
0.0
 11
6.3029294196
 21
14.4839191643
 31
0.0
  0
LINE
  5
23D
330
232
100
AcDbEntity
  8
0
  6
Continuous
 62
     7
370
     0
100
AcDbLine
 10
5.0058076766
 20
13.4536154741
 30
0.0
 11
5.0058076766
 21
15.0516058409
 31
0.0
  0
LINE
  5
23E
330
232
100
AcDbEntity
  8
0
  6
Continuous
 62
     7
370
     0
100
AcDbLine
 10
6.9232552893
 20
13.4717972103
 30
0.0
 11
6.9232552893
 21
15.0516058409
 31
0.0
  0
LINE
  5
23F
330
232
100
AcDbEntity
  8
0
  6
Continuous
 62
     7
370
     0
100
AcDbLine
 10
5.0058076766
 20
14.8328558409
 30
0.0
 11
5.4232327252
 21
14.8328558409
 31
0.0
  0
LINE
  5
240
330
232
100
AcDbEntity
  8
0
  6
Continuous
 62
     7
370
     0
100
AcDbLine
 10
6.9232552893
 20
14.8328558409
 30
0.0
 11
6.5058302407
 21
14.8328558409
 31
0.0
  0
MTEXT
  5
241
330
232
100
AcDbEntity
  8
0
  6
Continuous
 62
     7
370
     0
100
AcDbMText
 10
5.5495901011
 20
15.1609439979
 30
0.0
 40
0.21875
 41
0.0
 71
     1
 72
     1
  1

  7
SLDTEXTSTYLE0
 73
     1
 44
1.0
  0
MTEXT
  5
242
330
232
100
AcDbEntity
  8
0
  6
Continuous
 62
     7
370
     0
100
AcDbMText
 10
5.6816755874
 20
15.1576019678
 30
0.0
 40
0.21875
 41
0.0
 71
     1
 72
     1
  1
1.92
  7
SLDTEXTSTYLE0
 73
     1
 44
1.0
  0
MTEXT
  5
243
330
232
100
AcDbEntity
  8
0
  6
Continuous
 62
     7
370
     0
100
AcDbMText
 10
5.6816756034
 20
14.7659027565
 30
0.0
 40
0.21875
 41
0.0
 71
     1
 72
     1
  1
48.7
  7
SLDTEXTSTYLE0
 73
     1
 44
1.0
  0
MTEXT
  5
244
330
232
100
AcDbEntity
  8
0
  6
Continuous
 62
     7
370
     0
100
AcDbMText
 10
6.4627194084
 20
15.1609439979
 30
0.0
 40
0.21875
 41
0.0
 71
     1
 72
     1
  1

  7
SLDTEXTSTYLE0
 73
     1
 44
1.0
  0
ENDBLK
  5
234
330
232
100
AcDbEntity
  8
0
100
AcDbBlockEnd
  0
BLOCK
  5
246
330
245
100
AcDbEntity
  8
0
100
AcDbBlockBegin
  2
SW_NOTE_9
 70
     0
 10
0.0
 20
0.0
 30
0.0
  3
SW_NOTE_9
  1

  0
LINE
  5
248
330
245
100
AcDbEntity
  8
0
  6
Continuous
 62
     0
370
     0
100
AcDbLine
 10
0.228693528
 20
-0.2459658068
 30
0.0
 11
0.184259936
 21
-0.2459658068
 31
0.0
  0
LINE
  5
249
330
245
100
AcDbEntity
  8
0
  6
Continuous
 62
     0
370
     0
100
AcDbLine
 10
0.184259936
 20
-0.2459658068
 30
0.0
 11
0.184259936
 21
-0.5932314423
 31
0.0
  0
LINE
  5
24A
330
245
100
AcDbEntity
  8
0
  6
Continuous
 62
     0
370
     0
100
AcDbLine
 10
0.184259936
 20
-0.5932314423
 30
0.0
 11
0.228693528
 21
-0.5932314423
 31
0.0
  0
LINE
  5
24B
330
245
100
AcDbEntity
  8
0
  6
Continuous
 62
     0
370
     0
100
AcDbLine
 10
0.7438573601
 20
-0.2459658068
 30
0.0
 11
0.7882909521
 21
-0.2459658068
 31
0.0
  0
LINE
  5
24C
330
245
100
AcDbEntity
  8
0
  6
Continuous
 62
     0
370
     0
100
AcDbLine
 10
0.7882909521
 20
-0.2459658068
 30
0.0
 11
0.7882909521
 21
-0.5932314423
 31
0.0
  0
LINE
  5
24D
330
245
100
AcDbEntity
  8
0
  6
Continuous
 62
     0
370
     0
100
AcDbLine
 10
0.7882909521
 20
-0.5932314423
 30
0.0
 11
0.7438573601
 21
-0.5932314423
 31
0.0
  0
LINE
  5
24E
330
245
100
AcDbEntity
  8
0
  6
Continuous
 62
     0
370
     0
100
AcDbLine
 10
1.4630890634
 20
-0.2459658068
 30
0.0
 11
1.4186554714
 21
-0.2459658068
 31
0.0
  0
LINE
  5
24F
330
245
100
AcDbEntity
  8
0
  6
Continuous
 62
     0
370
     0
100
AcDbLine
 10
1.4186554714
 20
-0.2459658068
 30
0.0
 11
1.4186554714
 21
-0.5932314423
 31
0.0
  0
LINE
  5
250
330
245
100
AcDbEntity
  8
0
  6
Continuous
 62
     0
370
     0
100
AcDbLine
 10
1.4186554714
 20
-0.5932314423
 30
0.0
 11
1.4630890634
 21
-0.5932314423
 31
0.0
  0
LINE
  5
251
330
245
100
AcDbEntity
  8
0
  6
Continuous
 62
     0
370
     0
100
AcDbLine
 10
1.7358049942
 20
-0.2459658068
 30
0.0
 11
1.7802385861
 21
-0.2459658068
 31
0.0
  0
LINE
  5
252
330
245
100
AcDbEntity
  8
0
  6
Continuous
 62
     0
370
     0
100
AcDbLine
 10
1.7802385861
 20
-0.2459658068
 30
0.0
 11
1.7802385861
 21
-0.5932314423
 31
0.0
  0
LINE
  5
253
330
245
100
AcDbEntity
  8
0
  6
Continuous
 62
     0
370
     0
100
AcDbLine
 10
1.7802385861
 20
-0.5932314423
 30
0.0
 11
1.7358049942
 21
-0.5932314423
 31
0.0
  0
MTEXT
  5
254
330
245
100
AcDbEntity
  8
0
  6
Continuous
 62
     0
370
     0
100
AcDbMText
 10
0.0384683644
 20
0.0804513612
 30
0.0
 40
0.21875
 41
0.0
 71
     1
 72
     1
  1
%%c
  7
SLDTEXTSTYLE0
 73
     1
 44
1.0
  0
MTEXT
  5
255
330
245
100
AcDbEntity
  8
0
  6
Continuous
 62
     0
370
     0
100
AcDbMText
 10
0.3683707005
 20
0.0804513612
 30
0.0
 40
0.21875
 41
0.0
 71
     1
 72
     1
  1
.126
  7
SLDTEXTSTYLE0
 73
     1
 44
1.0
  0
MTEXT
  5
256
330
245
100
AcDbEntity
  8
0
  6
Continuous
 62
     0
370
     0
100
AcDbMText
 10
0.284235521
 20
-0.3112478501
 30
0.0
 40
0.21875
 41
0.0
 71
     1
 72
     1
  1
3.2
  7
SLDTEXTSTYLE0
 73
     1
 44
1.0
  0
MTEXT
  5
257
330
245
100
AcDbEntity
  8
0
  6
Continuous
 62
     0
370
     0
100
AcDbMText
 10
1.0161137416
 20
0.0804513773
 30
0.0
 40
0.21875
 41
0.0
 71
     1
 72
     1
  1
x
  7
SLDTEXTSTYLE0
 73
     1
 44
1.0
  0
MTEXT
  5
258
330
245
100
AcDbEntity
  8
0
  6
Continuous
 62
     0
370
     0
100
AcDbMText
 10
1.3165911172
 20
0.0804513612
 30
0.0
 40
0.21875
 41
0.0
 71
     1
 72
     1
  1
.236
  7
SLDTEXTSTYLE0
 73
     1
 44
1.0
  0
MTEXT
  5
259
330
245
100
AcDbEntity
  8
0
  6
Continuous
 62
     0
370
     0
100
AcDbMText
 10
1.5186310563
 20
-0.3112478501
 30
0.0
 40
0.21875
 41
0.0
 71
     1
 72
     1
  1
6
  7
SLDTEXTSTYLE0
 73
     1
 44
1.0
  0
MTEXT
  5
25A
330
245
100
AcDbEntity
  8
0
  6
Continuous
 62
     0
370
     0
100
AcDbMText
 10
2.0451501307
 20
0.0804513773
 30
0.0
 40
0.21875
 41
0.0
 71
     1
 72
     1
  1
DEEP (6X)
  7
SLDTEXTSTYLE0
 73
     1
 44
1.0
  0
MTEXT
  5
25B
330
245
100
AcDbEntity
  8
0
  6
Continuous
 62
     0
370
     0
100
AcDbMText
 10
0.0384683644
 20
-0.6433290324
 30
0.0
 40
0.21875
 41
0.0
 71
     1
 72
     1
  1
ACCEPTS M3.5 x 6mm LG.
  7
SLDTEXTSTYLE0
 73
     1
 44
1.0
  0
MTEXT
  5
25D
330
245
100
AcDbEntity
  8
0
  6
Continuous
 62
     0
370
     0
100
AcDbMText
 10
0.0384683644
 20
-0.9309766628
 30
0.0
 40
0.21875
 41
0.0
 71
     1
 72
     1
  1
OR #6 x 1/4" LG.
  7
SLDTEXTSTYLE3
 73
     1
 44
1.0
  0
MTEXT
  5
25E
330
245
100
AcDbEntity
  8
0
  6
Continuous
 62
     0
370
     0
100
AcDbMText
 10
0.0384683644
 20
-1.2186242932
 30
0.0
 40
0.21875
 41
0.0
 71
     1
 72
     1
  1
SELF-TAPPING SCREW
  7
SLDTEXTSTYLE0
 73
     1
 44
1.0
  0
MTEXT
  5
25F
330
245
100
AcDbEntity
  8
0
  6
Continuous
 62
     0
370
     0
100
AcDbMText
 10
0.0384683644
 20
-1.5062719236
 30
0.0
 40
0.21875
 41
0.0
 71
     1
 72
     1
  1
(NOT SUPPLIED - FOR PCB
  7
SLDTEXTSTYLE0
 73
     1
 44
1.0
  0
MTEXT
  5
260
330
245
100
AcDbEntity
  8
0
  6
Continuous
 62
     0
370
     0
100
AcDbMText
 10
0.0384683644
 20
-1.793919554
 30
0.0
 40
0.21875
 41
0.0
 71
     1
 72
     1
  1
MOUNTING)
  7
SLDTEXTSTYLE0
 73
     1
 44
1.0
  0
ENDBLK
  5
247
330
245
100
AcDbEntity
  8
0
100
AcDbBlockEnd
  0
BLOCK
  5
265
330
264
100
AcDbEntity
  8
0
100
AcDbBlockBegin
  2
SW_CENTERMARKSYMBOL_0
 70
     0
 10
0.0
 20
0.0
 30
0.0
  3
SW_CENTERMARKSYMBOL_0
  1

  0
LINE
  5
267
330
264
100
AcDbEntity
  8
0
  6
Continuous
 62
     0
370
     0
100
AcDbLine
 10
0.0
 20
0.0
 30
0.0
 11
0.0
 21
0.1
 31
0.0
  0
LINE
  5
268
330
264
100
AcDbEntity
  8
0
  6
Continuous
 62
     0
370
     0
100
AcDbLine
 10
0.0
 20
0.0
 30
0.0
 11
-0.1
 21
0.0
 31
0.0
  0
LINE
  5
269
330
264
100
AcDbEntity
  8
0
  6
Continuous
 62
     0
370
     0
100
AcDbLine
 10
0.0
 20
0.0
 30
0.0
 11
0.0
 21
-0.1
 31
0.0
  0
LINE
  5
26A
330
264
100
AcDbEntity
  8
0
  6
Continuous
 62
     0
370
     0
100
AcDbLine
 10
0.0
 20
0.0
 30
0.0
 11
0.1
 21
0.0
 31
0.0
  0
LINE
  5
26B
330
264
100
AcDbEntity
  8
0
  6
Continuous
 62
     0
370
     0
100
AcDbLine
 10
0.0
 20
0.1
 30
0.0
 11
0.0
 21
0.162992126
 31
0.0
  0
LINE
  5
26C
330
264
100
AcDbEntity
  8
0
  6
Continuous
 62
     0
370
     0
100
AcDbLine
 10
-0.1
 20
0.0
 30
0.0
 11
-0.162992126
 21
0.0
 31
0.0
  0
LINE
  5
26D
330
264
100
AcDbEntity
  8
0
  6
Continuous
 62
     0
370
     0
100
AcDbLine
 10
0.0
 20
-0.1
 30
0.0
 11
0.0
 21
-0.162992126
 31
0.0
  0
LINE
  5
26E
330
264
100
AcDbEntity
  8
0
  6
Continuous
 62
     0
370
     0
100
AcDbLine
 10
0.1
 20
0.0
 30
0.0
 11
0.162992126
 21
0.0
 31
0.0
  0
ENDBLK
  5
266
330
264
100
AcDbEntity
  8
0
100
AcDbBlockEnd
  0
BLOCK
  5
271
330
270
100
AcDbEntity
  8
0
100
AcDbBlockBegin
  2
SW_CENTERMARKSYMBOL_1
 70
     0
 10
0.0
 20
0.0
 30
0.0
  3
SW_CENTERMARKSYMBOL_1
  1

  0
LINE
  5
273
330
270
100
AcDbEntity
  8
0
  6
Continuous
 62
     0
370
     0
100
AcDbLine
 10
0.0
 20
0.0
 30
0.0
 11
0.0
 21
0.1
 31
0.0
  0
LINE
  5
274
330
270
100
AcDbEntity
  8
0
  6
Continuous
 62
     0
370
     0
100
AcDbLine
 10
0.0
 20
0.0
 30
0.0
 11
-0.1
 21
0.0
 31
0.0
  0
LINE
  5
275
330
270
100
AcDbEntity
  8
0
  6
Continuous
 62
     0
370
     0
100
AcDbLine
 10
0.0
 20
0.0
 30
0.0
 11
0.0
 21
-0.1
 31
0.0
  0
LINE
  5
276
330
270
100
AcDbEntity
  8
0
  6
Continuous
 62
     0
370
     0
100
AcDbLine
 10
0.0
 20
0.0
 30
0.0
 11
0.1
 21
0.0
 31
0.0
  0
LINE
  5
277
330
270
100
AcDbEntity
  8
0
  6
Continuous
 62
     0
370
     0
100
AcDbLine
 10
0.0
 20
0.1
 30
0.0
 11
0.0
 21
0.162992126
 31
0.0
  0
LINE
  5
278
330
270
100
AcDbEntity
  8
0
  6
Continuous
 62
     0
370
     0
100
AcDbLine
 10
-0.1
 20
0.0
 30
0.0
 11
-0.162992126
 21
0.0
 31
0.0
  0
LINE
  5
279
330
270
100
AcDbEntity
  8
0
  6
Continuous
 62
     0
370
     0
100
AcDbLine
 10
0.0
 20
-0.1
 30
0.0
 11
0.0
 21
-0.162992126
 31
0.0
  0
LINE
  5
27A
330
270
100
AcDbEntity
  8
0
  6
Continuous
 62
     0
370
     0
100
AcDbLine
 10
0.1
 20
0.0
 30
0.0
 11
0.162992126
 21
0.0
 31
0.0
  0
ENDBLK
  5
272
330
270
100
AcDbEntity
  8
0
100
AcDbBlockEnd
  0
BLOCK
  5
27D
330
27C
100
AcDbEntity
  8
0
100
AcDbBlockBegin
  2
SW_CENTERMARKSYMBOL_2
 70
     0
 10
0.0
 20
0.0
 30
0.0
  3
SW_CENTERMARKSYMBOL_2
  1

  0
LINE
  5
27F
330
27C
100
AcDbEntity
  8
0
  6
Continuous
 62
     0
370
     0
100
AcDbLine
 10
0.0
 20
0.0
 30
0.0
 11
0.0
 21
0.1
 31
0.0
  0
LINE
  5
280
330
27C
100
AcDbEntity
  8
0
  6
Continuous
 62
     0
370
     0
100
AcDbLine
 10
0.0
 20
0.0
 30
0.0
 11
-0.1
 21
0.0
 31
0.0
  0
LINE
  5
281
330
27C
100
AcDbEntity
  8
0
  6
Continuous
 62
     0
370
     0
100
AcDbLine
 10
0.0
 20
0.0
 30
0.0
 11
0.0
 21
-0.1
 31
0.0
  0
LINE
  5
282
330
27C
100
AcDbEntity
  8
0
  6
Continuous
 62
     0
370
     0
100
AcDbLine
 10
0.0
 20
0.0
 30
0.0
 11
0.1
 21
0.0
 31
0.0
  0
LINE
  5
283
330
27C
100
AcDbEntity
  8
0
  6
Continuous
 62
     0
370
     0
100
AcDbLine
 10
0.0
 20
0.1
 30
0.0
 11
0.0
 21
0.162992126
 31
0.0
  0
LINE
  5
284
330
27C
100
AcDbEntity
  8
0
  6
Continuous
 62
     0
370
     0
100
AcDbLine
 10
-0.1
 20
0.0
 30
0.0
 11
-0.162992126
 21
0.0
 31
0.0
  0
LINE
  5
285
330
27C
100
AcDbEntity
  8
0
  6
Continuous
 62
     0
370
     0
100
AcDbLine
 10
0.0
 20
-0.1
 30
0.0
 11
0.0
 21
-0.162992126
 31
0.0
  0
LINE
  5
286
330
27C
100
AcDbEntity
  8
0
  6
Continuous
 62
     0
370
     0
100
AcDbLine
 10
0.1
 20
0.0
 30
0.0
 11
0.162992126
 21
0.0
 31
0.0
  0
ENDBLK
  5
27E
330
27C
100
AcDbEntity
  8
0
100
AcDbBlockEnd
  0
BLOCK
  5
289
330
288
100
AcDbEntity
  8
0
100
AcDbBlockBegin
  2
SW_CENTERMARKSYMBOL_3
 70
     0
 10
0.0
 20
0.0
 30
0.0
  3
SW_CENTERMARKSYMBOL_3
  1

  0
LINE
  5
28B
330
288
100
AcDbEntity
  8
0
  6
Continuous
 62
     0
370
     0
100
AcDbLine
 10
0.0
 20
0.0
 30
0.0
 11
0.0
 21
0.1
 31
0.0
  0
LINE
  5
28C
330
288
100
AcDbEntity
  8
0
  6
Continuous
 62
     0
370
     0
100
AcDbLine
 10
0.0
 20
0.0
 30
0.0
 11
-0.1
 21
0.0
 31
0.0
  0
LINE
  5
28D
330
288
100
AcDbEntity
  8
0
  6
Continuous
 62
     0
370
     0
100
AcDbLine
 10
0.0
 20
0.0
 30
0.0
 11
0.0
 21
-0.1
 31
0.0
  0
LINE
  5
28E
330
288
100
AcDbEntity
  8
0
  6
Continuous
 62
     0
370
     0
100
AcDbLine
 10
0.0
 20
0.0
 30
0.0
 11
0.1
 21
0.0
 31
0.0
  0
LINE
  5
28F
330
288
100
AcDbEntity
  8
0
  6
Continuous
 62
     0
370
     0
100
AcDbLine
 10
0.0
 20
0.1
 30
0.0
 11
0.0
 21
0.162992126
 31
0.0
  0
LINE
  5
290
330
288
100
AcDbEntity
  8
0
  6
Continuous
 62
     0
370
     0
100
AcDbLine
 10
-0.1
 20
0.0
 30
0.0
 11
-0.162992126
 21
0.0
 31
0.0
  0
LINE
  5
291
330
288
100
AcDbEntity
  8
0
  6
Continuous
 62
     0
370
     0
100
AcDbLine
 10
0.0
 20
-0.1
 30
0.0
 11
0.0
 21
-0.162992126
 31
0.0
  0
LINE
  5
292
330
288
100
AcDbEntity
  8
0
  6
Continuous
 62
     0
370
     0
100
AcDbLine
 10
0.1
 20
0.0
 30
0.0
 11
0.162992126
 21
0.0
 31
0.0
  0
ENDBLK
  5
28A
330
288
100
AcDbEntity
  8
0
100
AcDbBlockEnd
  0
BLOCK
  5
295
330
294
100
AcDbEntity
  8
0
100
AcDbBlockBegin
  2
SW_CENTERMARKSYMBOL_4
 70
     0
 10
0.0
 20
0.0
 30
0.0
  3
SW_CENTERMARKSYMBOL_4
  1

  0
LINE
  5
297
330
294
100
AcDbEntity
  8
0
  6
Continuous
 62
     0
370
     0
100
AcDbLine
 10
0.0
 20
0.0
 30
0.0
 11
0.0
 21
0.1
 31
0.0
  0
LINE
  5
298
330
294
100
AcDbEntity
  8
0
  6
Continuous
 62
     0
370
     0
100
AcDbLine
 10
0.0
 20
0.0
 30
0.0
 11
-0.1
 21
0.0
 31
0.0
  0
LINE
  5
299
330
294
100
AcDbEntity
  8
0
  6
Continuous
 62
     0
370
     0
100
AcDbLine
 10
0.0
 20
0.0
 30
0.0
 11
0.0
 21
-0.1
 31
0.0
  0
LINE
  5
29A
330
294
100
AcDbEntity
  8
0
  6
Continuous
 62
     0
370
     0
100
AcDbLine
 10
0.0
 20
0.0
 30
0.0
 11
0.1
 21
0.0
 31
0.0
  0
LINE
  5
29B
330
294
100
AcDbEntity
  8
0
  6
Continuous
 62
     0
370
     0
100
AcDbLine
 10
0.0
 20
0.1
 30
0.0
 11
0.0
 21
0.162992126
 31
0.0
  0
LINE
  5
29C
330
294
100
AcDbEntity
  8
0
  6
Continuous
 62
     0
370
     0
100
AcDbLine
 10
-0.1
 20
0.0
 30
0.0
 11
-0.162992126
 21
0.0
 31
0.0
  0
LINE
  5
29D
330
294
100
AcDbEntity
  8
0
  6
Continuous
 62
     0
370
     0
100
AcDbLine
 10
0.0
 20
-0.1
 30
0.0
 11
0.0
 21
-0.162992126
 31
0.0
  0
LINE
  5
29E
330
294
100
AcDbEntity
  8
0
  6
Continuous
 62
     0
370
     0
100
AcDbLine
 10
0.1
 20
0.0
 30
0.0
 11
0.162992126
 21
0.0
 31
0.0
  0
ENDBLK
  5
296
330
294
100
AcDbEntity
  8
0
100
AcDbBlockEnd
  0
BLOCK
  5
2A1
330
2A0
100
AcDbEntity
  8
0
100
AcDbBlockBegin
  2
SW_CENTERMARKSYMBOL_5
 70
     0
 10
0.0
 20
0.0
 30
0.0
  3
SW_CENTERMARKSYMBOL_5
  1

  0
LINE
  5
2A3
330
2A0
100
AcDbEntity
  8
0
  6
Continuous
 62
     0
370
     0
100
AcDbLine
 10
0.0
 20
0.0
 30
0.0
 11
0.0
 21
0.1
 31
0.0
  0
LINE
  5
2A4
330
2A0
100
AcDbEntity
  8
0
  6
Continuous
 62
     0
370
     0
100
AcDbLine
 10
0.0
 20
0.0
 30
0.0
 11
-0.1
 21
0.0
 31
0.0
  0
LINE
  5
2A5
330
2A0
100
AcDbEntity
  8
0
  6
Continuous
 62
     0
370
     0
100
AcDbLine
 10
0.0
 20
0.0
 30
0.0
 11
0.0
 21
-0.1
 31
0.0
  0
LINE
  5
2A6
330
2A0
100
AcDbEntity
  8
0
  6
Continuous
 62
     0
370
     0
100
AcDbLine
 10
0.0
 20
0.0
 30
0.0
 11
0.1
 21
0.0
 31
0.0
  0
LINE
  5
2A7
330
2A0
100
AcDbEntity
  8
0
  6
Continuous
 62
     0
370
     0
100
AcDbLine
 10
0.0
 20
0.1
 30
0.0
 11
0.0
 21
0.162992126
 31
0.0
  0
LINE
  5
2A8
330
2A0
100
AcDbEntity
  8
0
  6
Continuous
 62
     0
370
     0
100
AcDbLine
 10
-0.1
 20
0.0
 30
0.0
 11
-0.162992126
 21
0.0
 31
0.0
  0
LINE
  5
2A9
330
2A0
100
AcDbEntity
  8
0
  6
Continuous
 62
     0
370
     0
100
AcDbLine
 10
0.0
 20
-0.1
 30
0.0
 11
0.0
 21
-0.162992126
 31
0.0
  0
LINE
  5
2AA
330
2A0
100
AcDbEntity
  8
0
  6
Continuous
 62
     0
370
     0
100
AcDbLine
 10
0.1
 20
0.0
 30
0.0
 11
0.162992126
 21
0.0
 31
0.0
  0
ENDBLK
  5
2A2
330
2A0
100
AcDbEntity
  8
0
100
AcDbBlockEnd
  0
BLOCK
  5
2D6
330
2D5
100
AcDbEntity
  8
0
100
AcDbBlockBegin
  2
_D_10
 70
     0
 10
0.0
 20
0.0
 30
0.0
  3
_D_10
  1

  0
SOLID
  5
2D8
330
2D5
100
AcDbEntity
  8
0
  6
Continuous
 62
     7
370
     0
100
AcDbTrace
 10
23.5015379161
 20
8.5187837414
 30
0.0
 11
23.7290379161
 21
8.4837837414
 31
0.0
 12
23.7290379161
 22
8.5537837414
 32
0.0
 13
23.7290379161
 23
8.5537837414
 33
0.0
  0
SOLID
  5
2D9
330
2D5
100
AcDbEntity
  8
0
  6
Continuous
 62
     7
370
     0
100
AcDbTrace
 10
26.222010357
 20
8.5187837414
 30
0.0
 11
25.994510357
 21
8.5537837414
 31
0.0
 12
25.994510357
 22
8.4837837414
 32
0.0
 13
25.994510357
 23
8.4837837414
 33
0.0
  0
LINE
  5
2DA
330
2D5
100
AcDbEntity
  8
0
  6
Continuous
 62
     7
370
     0
100
AcDbLine
 10
24.5233762641
 20
8.5171127003
 30
0.0
 11
24.4789426721
 21
8.5171127003
 31
0.0
  0
LINE
  5
2DB
330
2D5
100
AcDbEntity
  8
0
  6
Continuous
 62
     7
370
     0
100
AcDbLine
 10
24.4789426721
 20
8.5171127003
 30
0.0
 11
24.4789426721
 21
8.1698470648
 31
0.0
  0
LINE
  5
2DC
330
2D5
100
AcDbEntity
  8
0
  6
Continuous
 62
     7
370
     0
100
AcDbLine
 10
24.4789426721
 20
8.1698470648
 30
0.0
 11
24.5233762641
 21
8.1698470648
 31
0.0
  0
LINE
  5
2DD
330
2D5
100
AcDbEntity
  8
0
  6
Continuous
 62
     7
370
     0
100
AcDbLine
 10
25.2001720732
 20
8.5171127003
 30
0.0
 11
25.2446056652
 21
8.5171127003
 31
0.0
  0
LINE
  5
2DE
330
2D5
100
AcDbEntity
  8
0
  6
Continuous
 62
     7
370
     0
100
AcDbLine
 10
25.2446056652
 20
8.5171127003
 30
0.0
 11
25.2446056652
 21
8.1698470648
 31
0.0
  0
LINE
  5
2DF
330
2D5
100
AcDbEntity
  8
0
  6
Continuous
 62
     7
370
     0
100
AcDbLine
 10
25.2446056652
 20
8.1698470648
 30
0.0
 11
25.2001720732
 21
8.1698470648
 31
0.0
  0
LINE
  5
2E0
330
2D5
100
AcDbEntity
  8
0
  6
Continuous
 62
     7
370
     0
100
AcDbLine
 10
23.5015379161
 20
6.8337049577
 30
0.0
 11
23.5015379161
 21
8.7375337414
 31
0.0
  0
LINE
  5
2E1
330
2D5
100
AcDbEntity
  8
0
  6
Continuous
 62
     7
370
     0
100
AcDbLine
 10
26.222010357
 20
6.8494529892
 30
0.0
 11
26.222010357
 21
8.7375337414
 31
0.0
  0
LINE
  5
2E2
330
2D5
100
AcDbEntity
  8
0
  6
Continuous
 62
     7
370
     0
100
AcDbLine
 10
23.5015379161
 20
8.5187837414
 30
0.0
 11
24.3204753788
 21
8.5187837414
 31
0.0
  0
LINE
  5
2E3
330
2D5
100
AcDbEntity
  8
0
  6
Continuous
 62
     7
370
     0
100
AcDbLine
 10
26.222010357
 20
8.5187837414
 30
0.0
 11
25.4030728943
 21
8.5187837414
 31
0.0
  0
MTEXT
  5
2E4
330
2D5
100
AcDbEntity
  8
0
  6
Continuous
 62
     7
370
     0
100
AcDbMText
 10
24.4468327547
 20
8.8468718984
 30
0.0
 40
0.21875
 41
0.0
 71
     1
 72
     1
  1

  7
SLDTEXTSTYLE0
 73
     1
 44
1.0
  0
MTEXT
  5
2E5
330
2D5
100
AcDbEntity
  8
0
  6
Continuous
 62
     7
370
     0
100
AcDbMText
 10
24.578918241
 20
8.8435298683
 30
0.0
 40
0.21875
 41
0.0
 71
     1
 72
     1
  1
2.72
  7
SLDTEXTSTYLE0
 73
     1
 44
1.0
  0
MTEXT
  5
2E6
330
2D5
100
AcDbEntity
  8
0
  6
Continuous
 62
     7
370
     0
100
AcDbMText
 10
24.5789182571
 20
8.451830657
 30
0.0
 40
0.21875
 41
0.0
 71
     1
 72
     1
  1
69.1
  7
SLDTEXTSTYLE0
 73
     1
 44
1.0
  0
MTEXT
  5
2E7
330
2D5
100
AcDbEntity
  8
0
  6
Continuous
 62
     7
370
     0
100
AcDbMText
 10
25.359962062
 20
8.8468718984
 30
0.0
 40
0.21875
 41
0.0
 71
     1
 72
     1
  1

  7
SLDTEXTSTYLE0
 73
     1
 44
1.0
  0
ENDBLK
  5
2D7
330
2D5
100
AcDbEntity
  8
0
100
AcDbBlockEnd
  0
BLOCK
  5
2EA
330
2E9
100
AcDbEntity
  8
0
100
AcDbBlockBegin
  2
_D_11
 70
     0
 10
0.0
 20
0.0
 30
0.0
  3
_D_11
  1

  0
SOLID
  5
2EC
330
2E9
100
AcDbEntity
  8
0
  6
Continuous
 62
     7
370
     0
100
AcDbTrace
 10
22.177417122
 20
7.0961025955
 30
0.0
 11
22.142417122
 21
6.8686025955
 31
0.0
 12
22.212417122
 22
6.8686025955
 32
0.0
 13
22.212417122
 23
6.8686025955
 33
0.0
  0
SOLID
  5
2ED
330
2E9
100
AcDbEntity
  8
0
  6
Continuous
 62
     7
370
     0
100
AcDbTrace
 10
22.177417122
 20
2.6157876349
 30
0.0
 11
22.212417122
 21
2.8432876349
 31
0.0
 12
22.142417122
 22
2.8432876349
 32
0.0
 13
22.142417122
 23
2.8432876349
 33
0.0
  0
LINE
  5
2EE
330
2E9
100
AcDbEntity
  8
0
  6
Continuous
 62
     7
370
     0
100
AcDbLine
 10
21.758203261
 20
4.8542740741
 30
0.0
 11
21.7137696691
 21
4.8542740741
 31
0.0
  0
LINE
  5
2EF
330
2E9
100
AcDbEntity
  8
0
  6
Continuous
 62
     7
370
     0
100
AcDbLine
 10
21.7137696691
 20
4.8542740741
 30
0.0
 11
21.7137696691
 21
4.5070084386
 31
0.0
  0
LINE
  5
2F0
330
2E9
100
AcDbEntity
  8
0
  6
Continuous
 62
     7
370
     0
100
AcDbLine
 10
21.7137696691
 20
4.5070084386
 30
0.0
 11
21.758203261
 21
4.5070084386
 31
0.0
  0
LINE
  5
2F1
330
2E9
100
AcDbEntity
  8
0
  6
Continuous
 62
     7
370
     0
100
AcDbLine
 10
22.596630983
 20
4.8542740741
 30
0.0
 11
22.6410645749
 21
4.8542740741
 31
0.0
  0
LINE
  5
2F2
330
2E9
100
AcDbEntity
  8
0
  6
Continuous
 62
     7
370
     0
100
AcDbLine
 10
22.6410645749
 20
4.8542740741
 30
0.0
 11
22.6410645749
 21
4.5070084386
 31
0.0
  0
LINE
  5
2F3
330
2E9
100
AcDbEntity
  8
0
  6
Continuous
 62
     7
370
     0
100
AcDbLine
 10
22.6410645749
 20
4.5070084386
 30
0.0
 11
22.596630983
 21
4.5070084386
 31
0.0
  0
LINE
  5
2F4
330
2E9
100
AcDbEntity
  8
0
  6
Continuous
 62
     7
370
     0
100
AcDbLine
 10
24.0828331917
 20
7.0961025955
 30
0.0
 11
21.958667122
 21
7.0961025955
 31
0.0
  0
LINE
  5
2F5
330
2E9
100
AcDbEntity
  8
0
  6
Continuous
 62
     7
370
     0
100
AcDbLine
 10
23.7481875224
 20
2.6157876349
 30
0.0
 11
21.958667122
 21
2.6157876349
 31
0.0
  0
LINE
  5
2F6
330
2E9
100
AcDbEntity
  8
0
  6
Continuous
 62
     7
370
     0
100
AcDbLine
 10
22.177417122
 20
7.0961025955
 30
0.0
 11
22.177417122
 21
5.2493153155
 31
0.0
  0
LINE
  5
2F7
330
2E9
100
AcDbEntity
  8
0
  6
Continuous
 62
     7
370
     0
100
AcDbLine
 10
22.177417122
 20
2.6157876349
 30
0.0
 11
22.177417122
 21
4.4625749148
 31
0.0
  0
MTEXT
  5
2F8
330
2E9
100
AcDbEntity
  8
0
  6
Continuous
 62
     7
370
     0
100
AcDbMText
 10
21.6816597517
 20
5.1840332722
 30
0.0
 40
0.21875
 41
0.0
 71
     1
 72
     1
  1

  7
SLDTEXTSTYLE0
 73
     1
 44
1.0
  0
MTEXT
  5
2F9
330
2E9
100
AcDbEntity
  8
0
  6
Continuous
 62
     7
370
     0
100
AcDbMText
 10
21.8945611944
 20
5.1806912421
 30
0.0
 40
0.21875
 41
0.0
 71
     1
 72
     1
  1
4.48
  7
SLDTEXTSTYLE0
 73
     1
 44
1.0
  0
MTEXT
  5
2FA
330
2E9
100
AcDbEntity
  8
0
  6
Continuous
 62
     7
370
     0
100
AcDbMText
 10
21.813745254
 20
4.7889920308
 30
0.0
 40
0.21875
 41
0.0
 71
     1
 72
     1
  1
113.8
  7
SLDTEXTSTYLE0
 73
     1
 44
1.0
  0
MTEXT
  5
2FB
330
2E9
100
AcDbEntity
  8
0
  6
Continuous
 62
     7
370
     0
100
AcDbMText
 10
22.7564209718
 20
5.1840332722
 30
0.0
 40
0.21875
 41
0.0
 71
     1
 72
     1
  1

  7
SLDTEXTSTYLE0
 73
     1
 44
1.0
  0
ENDBLK
  5
2EB
330
2E9
100
AcDbEntity
  8
0
100
AcDbBlockEnd
  0
BLOCK
  5
2FE
330
2FD
100
AcDbEntity
  8
0
100
AcDbBlockBegin
  2
_D_12
 70
     0
 10
0.0
 20
0.0
 30
0.0
  3
_D_12
  1

  0
SOLID
  5
300
330
2FD
100
AcDbEntity
  8
0
  6
Continuous
 62
     7
370
     0
100
AcDbTrace
 10
24.2692544515
 20
6.2885063231
 30
0.0
 11
24.0417544515
 21
6.3235063231
 31
0.0
 12
24.0417544515
 22
6.2535063231
 32
0.0
 13
24.0417544515
 23
6.2535063231
 33
0.0
  0
SOLID
  5
301
330
2FD
100
AcDbEntity
  8
0
  6
Continuous
 62
     7
370
     0
100
AcDbTrace
 10
25.4542938216
 20
6.2885063231
 30
0.0
 11
25.6817938216
 21
6.2535063231
 31
0.0
 12
25.6817938216
 22
6.3235063231
 32
0.0
 13
25.6817938216
 23
6.3235063231
 33
0.0
  0
LINE
  5
302
330
2FD
100
AcDbEntity
  8
0
  6
Continuous
 62
     7
370
     0
100
AcDbLine
 10
24.5233762641
 20
6.286835282
 30
0.0
 11
24.4789426721
 21
6.286835282
 31
0.0
  0
LINE
  5
303
330
2FD
100
AcDbEntity
  8
0
  6
Continuous
 62
     7
370
     0
100
AcDbLine
 10
24.4789426721
 20
6.286835282
 30
0.0
 11
24.4789426721
 21
5.9395696466
 31
0.0
  0
LINE
  5
304
330
2FD
100
AcDbEntity
  8
0
  6
Continuous
 62
     7
370
     0
100
AcDbLine
 10
24.4789426721
 20
5.9395696466
 30
0.0
 11
24.5233762641
 21
5.9395696466
 31
0.0
  0
LINE
  5
305
330
2FD
100
AcDbEntity
  8
0
  6
Continuous
 62
     7
370
     0
100
AcDbLine
 10
25.2001720732
 20
6.286835282
 30
0.0
 11
25.2446056652
 21
6.286835282
 31
0.0
  0
LINE
  5
306
330
2FD
100
AcDbEntity
  8
0
  6
Continuous
 62
     7
370
     0
100
AcDbLine
 10
25.2446056652
 20
6.286835282
 30
0.0
 11
25.2446056652
 21
5.9395696466
 31
0.0
  0
LINE
  5
307
330
2FD
100
AcDbEntity
  8
0
  6
Continuous
 62
     7
370
     0
100
AcDbLine
 10
25.2446056652
 20
5.9395696466
 30
0.0
 11
25.2001720732
 21
5.9395696466
 31
0.0
  0
LINE
  5
308
330
2FD
100
AcDbEntity
  8
0
  6
Continuous
 62
     7
370
     0
100
AcDbLine
 10
24.2692544515
 20
2.854862438
 30
0.0
 11
24.2692544515
 21
6.5072563231
 31
0.0
  0
LINE
  5
309
330
2FD
100
AcDbEntity
  8
0
  6
Continuous
 62
     7
370
     0
100
AcDbLine
 10
25.4542938216
 20
6.8570277923
 30
0.0
 11
25.4542938216
 21
6.0697563231
 31
0.0
  0
LINE
  5
30A
330
2FD
100
AcDbEntity
  8
0
  6
Continuous
 62
     7
370
     0
100
AcDbLine
 10
24.2692544515
 20
6.2885063231
 30
0.0
 11
23.8317544515
 21
6.2885063231
 31
0.0
  0
LINE
  5
30B
330
2FD
100
AcDbEntity
  8
0
  6
Continuous
 62
     7
370
     0
100
AcDbLine
 10
25.4542938216
 20
6.2885063231
 30
0.0
 11
25.8917938216
 21
6.2885063231
 31
0.0
  0
MTEXT
  5
30C
330
2FD
100
AcDbEntity
  8
0
  6
Continuous
 62
     7
370
     0
100
AcDbMText
 10
24.4468327547
 20
6.6165944802
 30
0.0
 40
0.21875
 41
0.0
 71
     1
 72
     1
  1

  7
SLDTEXTSTYLE0
 73
     1
 44
1.0
  0
MTEXT
  5
30D
330
2FD
100
AcDbEntity
  8
0
  6
Continuous
 62
     7
370
     0
100
AcDbMText
 10
24.578918241
 20
6.6132524501
 30
0.0
 40
0.21875
 41
0.0
 71
     1
 72
     1
  1
1.19
  7
SLDTEXTSTYLE0
 73
     1
 44
1.0
  0
MTEXT
  5
30E
330
2FD
100
AcDbEntity
  8
0
  6
Continuous
 62
     7
370
     0
100
AcDbMText
 10
24.5789182571
 20
6.2215532387
 30
0.0
 40
0.21875
 41
0.0
 71
     1
 72
     1
  1
30.1
  7
SLDTEXTSTYLE0
 73
     1
 44
1.0
  0
MTEXT
  5
30F
330
2FD
100
AcDbEntity
  8
0
  6
Continuous
 62
     7
370
     0
100
AcDbMText
 10
25.359962062
 20
6.6165944802
 30
0.0
 40
0.21875
 41
0.0
 71
     1
 72
     1
  1

  7
SLDTEXTSTYLE0
 73
     1
 44
1.0
  0
ENDBLK
  5
2FF
330
2FD
100
AcDbEntity
  8
0
100
AcDbBlockEnd
  0
BLOCK
  5
312
330
311
100
AcDbEntity
  8
0
100
AcDbBlockBegin
  2
_D_13
 70
     0
 10
0.0
 20
0.0
 30
0.0
  3
_D_13
  1

  0
SOLID
  5
314
330
311
100
AcDbEntity
  8
0
  6
Continuous
 62
     7
370
     0
100
AcDbTrace
 10
26.9434804968
 20
2.767362438
 30
0.0
 11
26.9784804968
 21
2.994862438
 31
0.0
 12
26.9084804968
 22
2.994862438
 32
0.0
 13
26.9084804968
 23
2.994862438
 33
0.0
  0
SOLID
  5
315
330
311
100
AcDbEntity
  8
0
  6
Continuous
 62
     7
370
     0
100
AcDbTrace
 10
26.9434804968
 20
6.9445277923
 30
0.0
 11
26.9084804968
 21
6.7170277923
 31
0.0
 12
26.9784804968
 22
6.7170277923
 32
0.0
 13
26.9784804968
 23
6.7170277923
 33
0.0
  0
LINE
  5
316
330
311
100
AcDbEntity
  8
0
  6
Continuous
 62
     7
370
     0
100
AcDbLine
 10
26.5242666358
 20
4.8542740741
 30
0.0
 11
26.4798330438
 21
4.8542740741
 31
0.0
  0
LINE
  5
317
330
311
100
AcDbEntity
  8
0
  6
Continuous
 62
     7
370
     0
100
AcDbLine
 10
26.4798330438
 20
4.8542740741
 30
0.0
 11
26.4798330438
 21
4.5070084386
 31
0.0
  0
LINE
  5
318
330
311
100
AcDbEntity
  8
0
  6
Continuous
 62
     7
370
     0
100
AcDbLine
 10
26.4798330438
 20
4.5070084386
 30
0.0
 11
26.5242666358
 21
4.5070084386
 31
0.0
  0
LINE
  5
319
330
311
100
AcDbEntity
  8
0
  6
Continuous
 62
     7
370
     0
100
AcDbLine
 10
27.3626943577
 20
4.8542740741
 30
0.0
 11
27.4071279497
 21
4.8542740741
 31
0.0
  0
LINE
  5
31A
330
311
100
AcDbEntity
  8
0
  6
Continuous
 62
     7
370
     0
100
AcDbLine
 10
27.4071279497
 20
4.8542740741
 30
0.0
 11
27.4071279497
 21
4.5070084386
 31
0.0
  0
LINE
  5
31B
330
311
100
AcDbEntity
  8
0
  6
Continuous
 62
     7
370
     0
100
AcDbLine
 10
27.4071279497
 20
4.5070084386
 30
0.0
 11
27.3626943577
 21
4.5070084386
 31
0.0
  0
LINE
  5
31C
330
311
100
AcDbEntity
  8
0
  6
Continuous
 62
     7
370
     0
100
AcDbLine
 10
24.3567544515
 20
2.767362438
 30
0.0
 11
27.1622304968
 21
2.767362438
 31
0.0
  0
LINE
  5
31D
330
311
100
AcDbEntity
  8
0
  6
Continuous
 62
     7
370
     0
100
AcDbLine
 10
25.5417938216
 20
6.9445277923
 30
0.0
 11
27.1622304968
 21
6.9445277923
 31
0.0
  0
LINE
  5
31E
330
311
100
AcDbEntity
  8
0
  6
Continuous
 62
     7
370
     0
100
AcDbLine
 10
26.9434804968
 20
2.767362438
 30
0.0
 11
26.9434804968
 21
4.4625749148
 31
0.0
  0
LINE
  5
31F
330
311
100
AcDbEntity
  8
0
  6
Continuous
 62
     7
370
     0
100
AcDbLine
 10
26.9434804968
 20
6.9445277923
 30
0.0
 11
26.9434804968
 21
5.2493153155
 31
0.0
  0
MTEXT
  5
320
330
311
100
AcDbEntity
  8
0
  6
Continuous
 62
     7
370
     0
100
AcDbMText
 10
26.4477231264
 20
5.1840332722
 30
0.0
 40
0.21875
 41
0.0
 71
     1
 72
     1
  1

  7
SLDTEXTSTYLE0
 73
     1
 44
1.0
  0
MTEXT
  5
321
330
311
100
AcDbEntity
  8
0
  6
Continuous
 62
     7
370
     0
100
AcDbMText
 10
26.6606245691
 20
5.1806912421
 30
0.0
 40
0.21875
 41
0.0
 71
     1
 72
     1
  1
4.18
  7
SLDTEXTSTYLE0
 73
     1
 44
1.0
  0
MTEXT
  5
322
330
311
100
AcDbEntity
  8
0
  6
Continuous
 62
     7
370
     0
100
AcDbMText
 10
26.5798086288
 20
4.7889920308
 30
0.0
 40
0.21875
 41
0.0
 71
     1
 72
     1
  1
106.1
  7
SLDTEXTSTYLE0
 73
     1
 44
1.0
  0
MTEXT
  5
323
330
311
100
AcDbEntity
  8
0
  6
Continuous
 62
     7
370
     0
100
AcDbMText
 10
27.5224843465
 20
5.1840332722
 30
0.0
 40
0.21875
 41
0.0
 71
     1
 72
     1
  1

  7
SLDTEXTSTYLE0
 73
     1
 44
1.0
  0
ENDBLK
  5
313
330
311
100
AcDbEntity
  8
0
100
AcDbBlockEnd
  0
BLOCK
  5
326
330
325
100
AcDbEntity
  8
0
100
AcDbBlockBegin
  2
_D_14
 70
     0
 10
0.0
 20
0.0
 30
0.0
  3
_D_14
  1

  0
SOLID
  5
328
330
325
100
AcDbEntity
  8
0
  6
Continuous
 62
     7
370
     0
100
AcDbTrace
 10
23.0297611301
 20
6.7772049577
 30
0.0
 11
22.9947611301
 21
6.5497049577
 31
0.0
 12
23.0647611301
 22
6.5497049577
 32
0.0
 13
23.0647611301
 23
6.5497049577
 33
0.0
  0
SOLID
  5
329
330
325
100
AcDbEntity
  8
0
  6
Continuous
 62
     7
370
     0
100
AcDbTrace
 10
23.0297611301
 20
7.0961025955
 30
0.0
 11
23.0647611301
 21
7.3236025955
 31
0.0
 12
22.9947611301
 22
7.3236025955
 32
0.0
 13
22.9947611301
 23
7.3236025955
 33
0.0
  0
LINE
  5
32A
330
325
100
AcDbEntity
  8
0
  6
Continuous
 62
     7
370
     0
100
AcDbLine
 10
21.4540771737
 20
7.6629293095
 30
0.0
 11
21.4096435817
 21
7.6629293095
 31
0.0
  0
LINE
  5
32B
330
325
100
AcDbEntity
  8
0
  6
Continuous
 62
     7
370
     0
100
AcDbLine
 10
21.4096435817
 20
7.6629293095
 30
0.0
 11
21.4096435817
 21
7.3156636741
 31
0.0
  0
LINE
  5
32C
330
325
100
AcDbEntity
  8
0
  6
Continuous
 62
     7
370
     0
100
AcDbLine
 10
21.4096435817
 20
7.3156636741
 30
0.0
 11
21.4540771737
 21
7.3156636741
 31
0.0
  0
LINE
  5
32D
330
325
100
AcDbEntity
  8
0
  6
Continuous
 62
     7
370
     0
100
AcDbLine
 10
21.9692410058
 20
7.6629293095
 30
0.0
 11
22.0136745977
 21
7.6629293095
 31
0.0
  0
LINE
  5
32E
330
325
100
AcDbEntity
  8
0
  6
Continuous
 62
     7
370
     0
100
AcDbLine
 10
22.0136745977
 20
7.6629293095
 30
0.0
 11
22.0136745977
 21
7.3156636741
 31
0.0
  0
LINE
  5
32F
330
325
100
AcDbEntity
  8
0
  6
Continuous
 62
     7
370
     0
100
AcDbLine
 10
22.0136745977
 20
7.3156636741
 30
0.0
 11
21.9692410058
 21
7.3156636741
 31
0.0
  0
LINE
  5
330
330
325
100
AcDbEntity
  8
0
  6
Continuous
 62
     7
370
     0
100
AcDbLine
 10
23.4450379161
 20
6.7772049577
 30
0.0
 11
22.8110111301
 21
6.7772049577
 31
0.0
  0
LINE
  5
331
330
325
100
AcDbEntity
  8
0
  6
Continuous
 62
     7
370
     0
100
AcDbLine
 10
24.0828331917
 20
7.0961025955
 30
0.0
 11
22.8110111301
 21
7.0961025955
 31
0.0
  0
LINE
  5
332
330
325
100
AcDbEntity
  8
0
  6
Continuous
 62
     7
370
     0
100
AcDbLine
 10
22.8110111301
 20
7.6646003506
 30
0.0
 11
23.0297611301
 21
7.6646003506
 31
0.0
  0
LINE
  5
333
330
325
100
AcDbEntity
  8
0
  6
Continuous
 62
     7
370
     0
100
AcDbLine
 10
23.0297611301
 20
7.6646003506
 30
0.0
 11
23.0297611301
 21
7.0961025955
 31
0.0
  0
LINE
  5
334
330
325
100
AcDbEntity
  8
0
  6
Continuous
 62
     7
370
     0
100
AcDbLine
 10
23.0297611301
 20
6.7772049577
 30
0.0
 11
23.0297611301
 21
6.3397049577
 31
0.0
  0
MTEXT
  5
335
330
325
100
AcDbEntity
  8
0
  6
Continuous
 62
     7
370
     0
100
AcDbMText
 10
21.5096191506
 20
7.9893464776
 30
0.0
 40
0.21875
 41
0.0
 71
     1
 72
     1
  1
.32
  7
SLDTEXTSTYLE0
 73
     1
 44
1.0
  0
MTEXT
  5
336
330
325
100
AcDbEntity
  8
0
  6
Continuous
 62
     7
370
     0
100
AcDbMText
 10
21.5096191666
 20
7.5976472662
 30
0.0
 40
0.21875
 41
0.0
 71
     1
 72
     1
  1
8.1
  7
SLDTEXTSTYLE0
 73
     1
 44
1.0
  0
MTEXT
  5
337
330
325
100
AcDbEntity
  8
0
  6
Continuous
 62
     7
370
     0
100
AcDbMText
 10
22.1290310106
 20
7.9926885076
 30
0.0
 40
0.21875
 41
0.0
 71
     1
 72
     1
  1
TYP.
  7
SLDTEXTSTYLE0
 73
     1
 44
1.0
  0
ENDBLK
  5
327
330
325
100
AcDbEntity
  8
0
100
AcDbBlockEnd
  0
BLOCK
  5
33A
330
339
100
AcDbEntity
  8
0
100
AcDbBlockBegin
  2
_D_15
 70
     0
 10
0.0
 20
0.0
 30
0.0
  3
_D_15
  1

  0
SOLID
  5
33C
330
339
100
AcDbEntity
  8
0
  6
Continuous
 62
     7
370
     0
100
AcDbTrace
 10
24.1393331917
 20
7.6646003506
 30
0.0
 11
23.9118331917
 21
7.6996003506
 31
0.0
 12
23.9118331917
 22
7.6296003506
 32
0.0
 13
23.9118331917
 23
7.6296003506
 33
0.0
  0
SOLID
  5
33D
330
339
100
AcDbEntity
  8
0
  6
Continuous
 62
     7
370
     0
100
AcDbTrace
 10
23.5015379161
 20
7.6646003506
 30
0.0
 11
23.7290379161
 21
7.6296003506
 31
0.0
 12
23.7290379161
 22
7.6996003506
 32
0.0
 13
23.7290379161
 23
7.6996003506
 33
0.0
  0
LINE
  5
33E
330
339
100
AcDbEntity
  8
0
  6
Continuous
 62
     7
370
     0
100
AcDbLine
 10
24.5474699805
 20
7.6629293095
 30
0.0
 11
24.5030363885
 21
7.6629293095
 31
0.0
  0
LINE
  5
33F
330
339
100
AcDbEntity
  8
0
  6
Continuous
 62
     7
370
     0
100
AcDbLine
 10
24.5030363885
 20
7.6629293095
 30
0.0
 11
24.5030363885
 21
7.3156636741
 31
0.0
  0
LINE
  5
340
330
339
100
AcDbEntity
  8
0
  6
Continuous
 62
     7
370
     0
100
AcDbLine
 10
24.5030363885
 20
7.3156636741
 30
0.0
 11
24.5474699805
 21
7.3156636741
 31
0.0
  0
LINE
  5
341
330
339
100
AcDbEntity
  8
0
  6
Continuous
 62
     7
370
     0
100
AcDbLine
 10
25.2242657896
 20
7.6629293095
 30
0.0
 11
25.2686993816
 21
7.6629293095
 31
0.0
  0
LINE
  5
342
330
339
100
AcDbEntity
  8
0
  6
Continuous
 62
     7
370
     0
100
AcDbLine
 10
25.2686993816
 20
7.6629293095
 30
0.0
 11
25.2686993816
 21
7.3156636741
 31
0.0
  0
LINE
  5
343
330
339
100
AcDbEntity
  8
0
  6
Continuous
 62
     7
370
     0
100
AcDbLine
 10
25.2686993816
 20
7.3156636741
 30
0.0
 11
25.2242657896
 21
7.3156636741
 31
0.0
  0
LINE
  5
344
330
339
100
AcDbEntity
  8
0
  6
Continuous
 62
     7
370
     0
100
AcDbLine
 10
24.1393331917
 20
7.1526025955
 30
0.0
 11
24.1393331917
 21
7.8833503506
 31
0.0
  0
LINE
  5
345
330
339
100
AcDbEntity
  8
0
  6
Continuous
 62
     7
370
     0
100
AcDbLine
 10
23.5015379161
 20
6.8337049577
 30
0.0
 11
23.5015379161
 21
7.8833503506
 31
0.0
  0
LINE
  5
346
330
339
100
AcDbEntity
  8
0
  6
Continuous
 62
     7
370
     0
100
AcDbLine
 10
24.1393331917
 20
7.6646003506
 30
0.0
 11
24.4253850677
 21
7.6646003506
 31
0.0
  0
LINE
  5
347
330
339
100
AcDbEntity
  8
0
  6
Continuous
 62
     7
370
     0
100
AcDbLine
 10
23.5015379161
 20
7.6646003506
 30
0.0
 11
24.1393331917
 21
7.6646003506
 31
0.0
  0
MTEXT
  5
348
330
339
100
AcDbEntity
  8
0
  6
Continuous
 62
     7
370
     0
100
AcDbMText
 10
24.6838279459
 20
7.9893464776
 30
0.0
 40
0.21875
 41
0.0
 71
     1
 72
     1
  1
.64
  7
SLDTEXTSTYLE0
 73
     1
 44
1.0
  0
MTEXT
  5
349
330
339
100
AcDbEntity
  8
0
  6
Continuous
 62
     7
370
     0
100
AcDbMText
 10
24.6030119735
 20
7.5976472662
 30
0.0
 40
0.21875
 41
0.0
 71
     1
 72
     1
  1
16.2
  7
SLDTEXTSTYLE0
 73
     1
 44
1.0
  0
MTEXT
  5
34A
330
339
100
AcDbEntity
  8
0
  6
Continuous
 62
     7
370
     0
100
AcDbMText
 10
25.3840557944
 20
7.9926885076
 30
0.0
 40
0.21875
 41
0.0
 71
     1
 72
     1
  1
TYP.
  7
SLDTEXTSTYLE0
 73
     1
 44
1.0
  0
ENDBLK
  5
33B
330
339
100
AcDbEntity
  8
0
100
AcDbBlockEnd
  0
BLOCK
  5
34E
330
34D
100
AcDbEntity
  8
0
100
AcDbBlockBegin
  2
_D_16
 70
     0
 10
0.0
 20
0.0
 30
0.0
  3
_D_16
  1

  0
SOLID
  5
350
330
34D
100
AcDbEntity
  8
0
  6
Continuous
 62
     7
370
     0
100
AcDbTrace
 10
23.6846087822
 20
2.8867622397
 30
0.0
 11
23.8286696714
 21
3.0662830191
 31
0.0
 12
23.7680478931
 22
3.1012830191
 32
0.0
 13
23.7680478931
 23
3.1012830191
 33
0.0
  0
LINE
  5
351
330
34D
100
AcDbEntity
  8
0
  6
Continuous
 62
     7
370
     0
100
AcDbLine
 10
21.7233083559
 20
1.9781992541
 30
0.0
 11
21.6788747639
 21
1.9781992541
 31
0.0
  0
LINE
  5
352
330
34D
100
AcDbEntity
  8
0
  6
Continuous
 62
     7
370
     0
100
AcDbLine
 10
21.6788747639
 20
1.9781992541
 30
0.0
 11
21.6788747639
 21
1.6309336186
 31
0.0
  0
LINE
  5
353
330
34D
100
AcDbEntity
  8
0
  6
Continuous
 62
     7
370
     0
100
AcDbLine
 10
21.6788747639
 20
1.6309336186
 30
0.0
 11
21.7233083559
 21
1.6309336186
 31
0.0
  0
LINE
  5
354
330
34D
100
AcDbEntity
  8
0
  6
Continuous
 62
     7
370
     0
100
AcDbLine
 10
22.238472188
 20
1.9781992541
 30
0.0
 11
22.28290578
 21
1.9781992541
 31
0.0
  0
LINE
  5
355
330
34D
100
AcDbEntity
  8
0
  6
Continuous
 62
     7
370
     0
100
AcDbLine
 10
22.28290578
 20
1.9781992541
 30
0.0
 11
22.28290578
 21
1.6309336186
 31
0.0
  0
LINE
  5
356
330
34D
100
AcDbEntity
  8
0
  6
Continuous
 62
     7
370
     0
100
AcDbLine
 10
22.28290578
 20
1.6309336186
 30
0.0
 11
22.238472188
 21
1.6309336186
 31
0.0
  0
LINE
  5
357
330
34D
100
AcDbEntity
  8
0
  6
Continuous
 62
     7
370
     0
100
AcDbLine
 10
23.6846087822
 20
2.8867622397
 30
0.0
 11
23.1702673656
 21
1.9958967737
 31
0.0
  0
LINE
  5
358
330
34D
100
AcDbEntity
  8
0
  6
Continuous
 62
     7
370
     0
100
AcDbLine
 10
23.6846087822
 20
2.8867622397
 30
0.0
 11
23.9033587822
 21
3.2656483539
 31
0.0
  0
LINE
  5
359
330
34D
100
AcDbEntity
  8
0
  6
Continuous
 62
     7
370
     0
100
AcDbLine
 10
23.1702673656
 20
1.9958967737
 30
0.0
 11
22.9515173656
 21
1.9958967737
 31
0.0
  0
MTEXT
  5
35A
330
34D
100
AcDbEntity
  8
0
  6
Continuous
 62
     7
370
     0
100
AcDbMText
 10
21.6902869505
 20
2.3046164221
 30
0.0
 40
0.21875
 41
0.0
 71
     1
 72
     1
  1
R.24
  7
SLDTEXTSTYLE0
 73
     1
 44
1.0
  0
MTEXT
  5
35B
330
34D
100
AcDbEntity
  8
0
  6
Continuous
 62
     7
370
     0
100
AcDbMText
 10
21.7788503489
 20
1.9129172108
 30
0.0
 40
0.21875
 41
0.0
 71
     1
 72
     1
  1
6.1
  7
SLDTEXTSTYLE0
 73
     1
 44
1.0
  0
MTEXT
  5
35C
330
34D
100
AcDbEntity
  8
0
  6
Continuous
 62
     7
370
     0
100
AcDbMText
 10
22.3982621929
 20
2.3079584522
 30
0.0
 40
0.21875
 41
0.0
 71
     1
 72
     1
  1
(2X)
  7
SLDTEXTSTYLE0
 73
     1
 44
1.0
  0
ENDBLK
  5
34F
330
34D
100
AcDbEntity
  8
0
100
AcDbBlockEnd
  0
BLOCK
  5
35F
330
35E
100
AcDbEntity
  8
0
100
AcDbBlockBegin
  2
_D_17
 70
     0
 10
0.0
 20
0.0
 30
0.0
  3
_D_17
  1

  0
SOLID
  5
361
330
35E
100
AcDbEntity
  8
0
  6
Continuous
 62
     7
370
     0
100
AcDbTrace
 10
25.7161048452
 20
2.899345517
 30
0.0
 11
25.6326657344
 21
3.1138662963
 31
0.0
 12
25.5720439561
 22
3.0788662963
 32
0.0
 13
25.5720439561
 23
3.0788662963
 33
0.0
  0
LINE
  5
362
330
35E
100
AcDbEntity
  8
0
  6
Continuous
 62
     7
370
     0
100
AcDbLine
 10
26.5342200073
 20
1.9781992541
 30
0.0
 11
26.4897864153
 21
1.9781992541
 31
0.0
  0
LINE
  5
363
330
35E
100
AcDbEntity
  8
0
  6
Continuous
 62
     7
370
     0
100
AcDbLine
 10
26.4897864153
 20
1.9781992541
 30
0.0
 11
26.4897864153
 21
1.6309336186
 31
0.0
  0
LINE
  5
364
330
35E
100
AcDbEntity
  8
0
  6
Continuous
 62
     7
370
     0
100
AcDbLine
 10
26.4897864153
 20
1.6309336186
 30
0.0
 11
26.5342200073
 21
1.6309336186
 31
0.0
  0
LINE
  5
365
330
35E
100
AcDbEntity
  8
0
  6
Continuous
 62
     7
370
     0
100
AcDbLine
 10
27.0493838394
 20
1.9781992541
 30
0.0
 11
27.0938174313
 21
1.9781992541
 31
0.0
  0
LINE
  5
366
330
35E
100
AcDbEntity
  8
0
  6
Continuous
 62
     7
370
     0
100
AcDbLine
 10
27.0938174313
 20
1.9781992541
 30
0.0
 11
27.0938174313
 21
1.6309336186
 31
0.0
  0
LINE
  5
367
330
35E
100
AcDbEntity
  8
0
  6
Continuous
 62
     7
370
     0
100
AcDbLine
 10
27.0938174313
 20
1.6309336186
 30
0.0
 11
27.0493838394
 21
1.6309336186
 31
0.0
  0
LINE
  5
368
330
35E
100
AcDbEntity
  8
0
  6
Continuous
 62
     7
370
     0
100
AcDbLine
 10
25.7161048452
 20
2.899345517
 30
0.0
 11
26.2377112203
 21
1.9958967737
 31
0.0
  0
LINE
  5
369
330
35E
100
AcDbEntity
  8
0
  6
Continuous
 62
     7
370
     0
100
AcDbLine
 10
25.7161048452
 20
2.899345517
 30
0.0
 11
25.4973548452
 21
3.2782316311
 31
0.0
  0
LINE
  5
36A
330
35E
100
AcDbEntity
  8
0
  6
Continuous
 62
     7
370
     0
100
AcDbLine
 10
26.2377112203
 20
1.9958967737
 30
0.0
 11
26.4564612203
 21
1.9958967737
 31
0.0
  0
MTEXT
  5
36B
330
35E
100
AcDbEntity
  8
0
  6
Continuous
 62
     7
370
     0
100
AcDbMText
 10
26.5011986018
 20
2.3046164221
 30
0.0
 40
0.21875
 41
0.0
 71
     1
 72
     1
  1
R.26
  7
SLDTEXTSTYLE0
 73
     1
 44
1.0
  0
MTEXT
  5
36C
330
35E
100
AcDbEntity
  8
0
  6
Continuous
 62
     7
370
     0
100
AcDbMText
 10
26.5897620002
 20
1.9129172108
 30
0.0
 40
0.21875
 41
0.0
 71
     1
 72
     1
  1
6.7
  7
SLDTEXTSTYLE0
 73
     1
 44
1.0
  0
MTEXT
  5
36D
330
35E
100
AcDbEntity
  8
0
  6
Continuous
 62
     7
370
     0
100
AcDbMText
 10
27.2091738442
 20
2.3079584522
 30
0.0
 40
0.21875
 41
0.0
 71
     1
 72
     1
  1
(2X)
  7
SLDTEXTSTYLE0
 73
     1
 44
1.0
  0
ENDBLK
  5
360
330
35E
100
AcDbEntity
  8
0
100
AcDbBlockEnd
  0
BLOCK
  5
371
330
370
100
AcDbEntity
  8
0
100
AcDbBlockBegin
  2
_D_18
 70
     0
 10
0.0
 20
0.0
 30
0.0
  3
_D_18
  1

  0
SOLID
  5
373
330
370
100
AcDbEntity
  8
0
  6
Continuous
 62
     7
370
     0
100
AcDbTrace
 10
25.5169312333
 20
7.0071652041
 30
0.0
 11
25.7025467634
 21
7.1432832594
 31
0.0
 12
25.6530492887
 22
7.1927807341
 32
0.0
 13
25.6530492887
 23
7.1927807341
 33
0.0
  0
LINE
  5
374
330
370
100
AcDbEntity
  8
0
  6
Continuous
 62
     7
370
     0
100
AcDbLine
 10
26.97725206
 20
8.0728663046
 30
0.0
 11
26.932818468
 21
8.0728663046
 31
0.0
  0
LINE
  5
375
330
370
100
AcDbEntity
  8
0
  6
Continuous
 62
     7
370
     0
100
AcDbLine
 10
26.932818468
 20
8.0728663046
 30
0.0
 11
26.932818468
 21
7.7256006692
 31
0.0
  0
LINE
  5
376
330
370
100
AcDbEntity
  8
0
  6
Continuous
 62
     7
370
     0
100
AcDbLine
 10
26.932818468
 20
7.7256006692
 30
0.0
 11
26.97725206
 21
7.7256006692
 31
0.0
  0
LINE
  5
377
330
370
100
AcDbEntity
  8
0
  6
Continuous
 62
     7
370
     0
100
AcDbLine
 10
27.4924158921
 20
8.0728663046
 30
0.0
 11
27.536849484
 21
8.0728663046
 31
0.0
  0
LINE
  5
378
330
370
100
AcDbEntity
  8
0
  6
Continuous
 62
     7
370
     0
100
AcDbLine
 10
27.536849484
 20
8.0728663046
 30
0.0
 11
27.536849484
 21
7.7256006692
 31
0.0
  0
LINE
  5
379
330
370
100
AcDbEntity
  8
0
  6
Continuous
 62
     7
370
     0
100
AcDbLine
 10
27.536849484
 20
7.7256006692
 30
0.0
 11
27.4924158921
 21
7.7256006692
 31
0.0
  0
LINE
  5
37A
330
370
100
AcDbEntity
  8
0
  6
Continuous
 62
     7
370
     0
100
AcDbLine
 10
25.5169312333
 20
7.0071652041
 30
0.0
 11
26.5682768964
 21
8.0585108671
 31
0.0
  0
LINE
  5
37B
330
370
100
AcDbEntity
  8
0
  6
Continuous
 62
     7
370
     0
100
AcDbLine
 10
26.5682768964
 20
8.0585108671
 30
0.0
 11
26.7870268964
 21
8.0585108671
 31
0.0
  0
MTEXT
  5
37C
330
370
100
AcDbEntity
  8
0
  6
Continuous
 62
     7
370
     0
100
AcDbMText
 10
26.7870268964
 20
8.3992834727
 30
0.0
 40
0.21875
 41
0.0
 71
     1
 72
     1
  1
%%c
  7
SLDTEXTSTYLE0
 73
     1
 44
1.0
  0
MTEXT
  5
37D
330
370
100
AcDbEntity
  8
0
  6
Continuous
 62
     7
370
     0
100
AcDbMText
 10
27.1169292324
 20
8.3992834727
 30
0.0
 40
0.21875
 41
0.0
 71
     1
 72
     1
  1
.177
  7
SLDTEXTSTYLE0
 73
     1
 44
1.0
  0
MTEXT
  5
37E
330
370
100
AcDbEntity
  8
0
  6
Continuous
 62
     7
370
     0
100
AcDbMText
 10
27.0327940529
 20
8.0075842613
 30
0.0
 40
0.21875
 41
0.0
 71
     1
 72
     1
  1
4.5
  7
SLDTEXTSTYLE0
 73
     1
 44
1.0
  0
MTEXT
  5
37F
330
370
100
AcDbEntity
  8
0
  6
Continuous
 62
     7
370
     0
100
AcDbMText
 10
27.7646722735
 20
8.4026255027
 30
0.0
 40
0.21875
 41
0.0
 71
     1
 72
     1
  1
(2X)
  7
SLDTEXTSTYLE0
 73
     1
 44
1.0
  0
ENDBLK
  5
372
330
370
100
AcDbEntity
  8
0
100
AcDbBlockEnd
  0
BLOCK
  5
4BA
330
4B9
100
AcDbEntity
  8
0
100
AcDbBlockBegin
  2
SW_NOTE_10
 70
     0
 10
0.0
 20
0.0
 30
0.0
  3
SW_NOTE_10
  1

  0
MTEXT
  5
4BC
330
4B9
100
AcDbEntity
  8
0
  6
Continuous
 62
     0
370
     0
100
AcDbMText
 10
-1.1794659821
 20
0.1062186558
 30
0.0
 40
0.21875
 41
0.0
 71
     1
 72
     1
  1
GASKET
  7
SLDTEXTSTYLE0
 73
     1
 44
1.0
  0
MTEXT
  5
4BD
330
4B9
100
AcDbEntity
  8
0
  6
Continuous
 62
     0
370
     0
100
AcDbMText
 10
-1.1794659821
 20
-0.1814289746
 30
0.0
 40
0.21875
 41
0.0
 71
     1
 72
     1
  1
(NOT INSTALLED)
  7
SLDTEXTSTYLE0
 73
     1
 44
1.0
  0
MTEXT
  5
4BE
330
4B9
100
AcDbEntity
  8
0
  6
Continuous
 62
     0
370
     0
100
AcDbMText
 10
-1.1794659821
 20
-0.469076605
 30
0.0
 40
0.21875
 41
0.0
 71
     1
 72
     1
  1
MOLDED
  7
SLDTEXTSTYLE0
 73
     1
 44
1.0
  0
MTEXT
  5
4BF
330
4B9
100
AcDbEntity
  8
0
  6
Continuous
 62
     0
370
     0
100
AcDbMText
 10
-1.1794659821
 20
-0.7567242354
 30
0.0
 40
0.21875
 41
0.0
 71
     1
 72
     1
  1
SILICONE GRAY
  7
SLDTEXTSTYLE0
 73
     1
 44
1.0
  0
ENDBLK
  5
4BB
330
4B9
100
AcDbEntity
  8
0
100
AcDbBlockEnd
  0
BLOCK
  5
4F5
330
4F4
100
AcDbEntity
  8
0
100
AcDbBlockBegin
  2
_D_19
 70
     0
 10
0.0
 20
0.0
 30
0.0
  3
_D_19
  1

  0
SOLID
  5
4F7
330
4F4
100
AcDbEntity
  8
0
  6
Continuous
 62
     7
370
     0
100
AcDbTrace
 10
11.6915227148
 20
12.3631563716
 30
0.0
 11
11.4640227148
 21
12.3981563716
 31
0.0
 12
11.4640227148
 22
12.3281563716
 32
0.0
 13
11.4640227148
 23
12.3281563716
 33
0.0
  0
SOLID
  5
4F8
330
4F4
100
AcDbEntity
  8
0
  6
Continuous
 62
     7
370
     0
100
AcDbTrace
 10
11.809632951
 20
12.3631563716
 30
0.0
 11
12.037132951
 21
12.3281563716
 31
0.0
 12
12.037132951
 22
12.3981563716
 32
0.0
 13
12.037132951
 23
12.3981563716
 33
0.0
  0
LINE
  5
4F9
330
4F4
100
AcDbEntity
  8
0
  6
Continuous
 62
     7
370
     0
100
AcDbLine
 10
12.4522513796
 20
12.3614853305
 30
0.0
 11
12.4078177876
 21
12.3614853305
 31
0.0
  0
LINE
  5
4FA
330
4F4
100
AcDbEntity
  8
0
  6
Continuous
 62
     7
370
     0
100
AcDbLine
 10
12.4078177876
 20
12.3614853305
 30
0.0
 11
12.4078177876
 21
12.0142196951
 31
0.0
  0
LINE
  5
4FB
330
4F4
100
AcDbEntity
  8
0
  6
Continuous
 62
     7
370
     0
100
AcDbLine
 10
12.4078177876
 20
12.0142196951
 30
0.0
 11
12.4522513796
 21
12.0142196951
 31
0.0
  0
LINE
  5
4FC
330
4F4
100
AcDbEntity
  8
0
  6
Continuous
 62
     7
370
     0
100
AcDbLine
 10
12.7249673104
 20
12.3614853305
 30
0.0
 11
12.7694009023
 21
12.3614853305
 31
0.0
  0
LINE
  5
4FD
330
4F4
100
AcDbEntity
  8
0
  6
Continuous
 62
     7
370
     0
100
AcDbLine
 10
12.7694009023
 20
12.3614853305
 30
0.0
 11
12.7694009023
 21
12.0142196951
 31
0.0
  0
LINE
  5
4FE
330
4F4
100
AcDbEntity
  8
0
  6
Continuous
 62
     7
370
     0
100
AcDbLine
 10
12.7694009023
 20
12.0142196951
 30
0.0
 11
12.7249673104
 21
12.0142196951
 31
0.0
  0
LINE
  5
4FF
330
4F4
100
AcDbEntity
  8
0
  6
Continuous
 62
     7
370
     0
100
AcDbLine
 10
11.6915227148
 20
12.3631563716
 30
0.0
 11
11.2540227148
 21
12.3631563716
 31
0.0
  0
LINE
  5
500
330
4F4
100
AcDbEntity
  8
0
  6
Continuous
 62
     7
370
     0
100
AcDbLine
 10
11.809632951
 20
12.3631563716
 30
0.0
 11
12.2493504943
 21
12.3631563716
 31
0.0
  0
MTEXT
  5
501
330
4F4
100
AcDbEntity
  8
0
  6
Continuous
 62
     7
370
     0
100
AcDbMText
 10
12.3757078702
 20
12.6912445287
 30
0.0
 40
0.21875
 41
0.0
 71
     1
 72
     1
  1

  7
SLDTEXTSTYLE0
 73
     1
 44
1.0
  0
MTEXT
  5
502
330
4F4
100
AcDbEntity
  8
0
  6
Continuous
 62
     7
370
     0
100
AcDbMText
 10
12.3865694219
 20
12.6879024986
 30
0.0
 40
0.21875
 41
0.0
 71
     1
 72
     1
  1
.12
  7
SLDTEXTSTYLE0
 73
     1
 44
1.0
  0
MTEXT
  5
503
330
4F4
100
AcDbEntity
  8
0
  6
Continuous
 62
     7
370
     0
100
AcDbMText
 10
12.5077933725
 20
12.2962032872
 30
0.0
 40
0.21875
 41
0.0
 71
     1
 72
     1
  1
3
  7
SLDTEXTSTYLE0
 73
     1
 44
1.0
  0
MTEXT
  5
504
330
4F4
100
AcDbEntity
  8
0
  6
Continuous
 62
     7
370
     0
100
AcDbMText
 10
12.8847573313
 20
12.6912445287
 30
0.0
 40
0.21875
 41
0.0
 71
     1
 72
     1
  1

  7
SLDTEXTSTYLE0
 73
     1
 44
1.0
  0
ENDBLK
  5
4F6
330
4F4
100
AcDbEntity
  8
0
100
AcDbBlockEnd
  0
BLOCK
  5
507
330
506
100
AcDbEntity
  8
0
100
AcDbBlockBegin
  2
_D_20
 70
     0
 10
0.0
 20
0.0
 30
0.0
  3
_D_20
  1

  0
SOLID
  5
509
330
506
100
AcDbEntity
  8
0
  6
Continuous
 62
     7
370
     0
100
AcDbTrace
 10
11.4553022423
 20
9.9192015821
 30
0.0
 11
11.2278022423
 21
9.9542015821
 31
0.0
 12
11.2278022423
 22
9.8842015821
 32
0.0
 13
11.2278022423
 23
9.8842015821
 33
0.0
  0
SOLID
  5
50A
330
506
100
AcDbEntity
  8
0
  6
Continuous
 62
     7
370
     0
100
AcDbTrace
 10
11.6915227148
 20
9.9192015821
 30
0.0
 11
11.9190227148
 21
9.8842015821
 31
0.0
 12
11.9190227148
 22
9.9542015821
 32
0.0
 13
11.9190227148
 23
9.9542015821
 33
0.0
  0
LINE
  5
50B
330
506
100
AcDbEntity
  8
0
  6
Continuous
 62
     7
370
     0
100
AcDbLine
 10
12.3538261827
 20
9.9175305409
 30
0.0
 11
12.3093925908
 21
9.9175305409
 31
0.0
  0
LINE
  5
50C
330
506
100
AcDbEntity
  8
0
  6
Continuous
 62
     7
370
     0
100
AcDbLine
 10
12.3093925908
 20
9.9175305409
 30
0.0
 11
12.3093925908
 21
9.5702649055
 31
0.0
  0
LINE
  5
50D
330
506
100
AcDbEntity
  8
0
  6
Continuous
 62
     7
370
     0
100
AcDbLine
 10
12.3093925908
 20
9.5702649055
 30
0.0
 11
12.3538261827
 21
9.5702649055
 31
0.0
  0
LINE
  5
50E
330
506
100
AcDbEntity
  8
0
  6
Continuous
 62
     7
370
     0
100
AcDbLine
 10
12.6265421135
 20
9.9175305409
 30
0.0
 11
12.6709757055
 21
9.9175305409
 31
0.0
  0
LINE
  5
50F
330
506
100
AcDbEntity
  8
0
  6
Continuous
 62
     7
370
     0
100
AcDbLine
 10
12.6709757055
 20
9.9175305409
 30
0.0
 11
12.6709757055
 21
9.5702649055
 31
0.0
  0
LINE
  5
510
330
506
100
AcDbEntity
  8
0
  6
Continuous
 62
     7
370
     0
100
AcDbLine
 10
12.6709757055
 20
9.5702649055
 30
0.0
 11
12.6265421135
 21
9.5702649055
 31
0.0
  0
LINE
  5
511
330
506
100
AcDbEntity
  8
0
  6
Continuous
 62
     7
370
     0
100
AcDbLine
 10
11.4553022423
 20
9.335319002
 30
0.0
 11
11.4553022423
 21
10.1379515821
 31
0.0
  0
LINE
  5
512
330
506
100
AcDbEntity
  8
0
  6
Continuous
 62
     7
370
     0
100
AcDbLine
 10
11.4553022423
 20
9.9192015821
 30
0.0
 11
11.0178022423
 21
9.9192015821
 31
0.0
  0
LINE
  5
513
330
506
100
AcDbEntity
  8
0
  6
Continuous
 62
     7
370
     0
100
AcDbLine
 10
11.6915227148
 20
9.9192015821
 30
0.0
 11
12.1509252975
 21
9.9192015821
 31
0.0
  0
MTEXT
  5
514
330
506
100
AcDbEntity
  8
0
  6
Continuous
 62
     7
370
     0
100
AcDbMText
 10
12.2772826733
 20
10.2472897391
 30
0.0
 40
0.21875
 41
0.0
 71
     1
 72
     1
  1

  7
SLDTEXTSTYLE0
 73
     1
 44
1.0
  0
MTEXT
  5
515
330
506
100
AcDbEntity
  8
0
  6
Continuous
 62
     7
370
     0
100
AcDbMText
 10
12.288144225
 20
10.243947709
 30
0.0
 40
0.21875
 41
0.0
 71
     1
 72
     1
  1
.24
  7
SLDTEXTSTYLE0
 73
     1
 44
1.0
  0
MTEXT
  5
516
330
506
100
AcDbEntity
  8
0
  6
Continuous
 62
     7
370
     0
100
AcDbMText
 10
12.4093681757
 20
9.8522484976
 30
0.0
 40
0.21875
 41
0.0
 71
     1
 72
     1
  1
6
  7
SLDTEXTSTYLE0
 73
     1
 44
1.0
  0
MTEXT
  5
517
330
506
100
AcDbEntity
  8
0
  6
Continuous
 62
     7
370
     0
100
AcDbMText
 10
12.7863321344
 20
10.2472897391
 30
0.0
 40
0.21875
 41
0.0
 71
     1
 72
     1
  1

  7
SLDTEXTSTYLE0
 73
     1
 44
1.0
  0
ENDBLK
  5
508
330
506
100
AcDbEntity
  8
0
100
AcDbBlockEnd
  0
BLOCK
  5
53F
330
53E
100
AcDbEntity
  8
0
100
AcDbBlockBegin
  2
_D_21
 70
     0
 10
0.0
 20
0.0
 30
0.0
  3
_D_21
  1

  0
SOLID
  5
541
330
53E
100
AcDbEntity
  8
0
  6
Continuous
 62
     7
370
     0
100
AcDbTrace
 10
14.4157988923
 20
15.4889805971
 30
0.0
 11
14.6432988923
 21
15.4539805971
 31
0.0
 12
14.6432988923
 22
15.5239805971
 32
0.0
 13
14.6432988923
 23
15.5239805971
 33
0.0
  0
SOLID
  5
542
330
53E
100
AcDbEntity
  8
0
  6
Continuous
 62
     7
370
     0
100
AcDbTrace
 10
17.4157988923
 20
15.4889805971
 30
0.0
 11
17.1882988923
 21
15.5239805971
 31
0.0
 12
17.1882988923
 22
15.4539805971
 32
0.0
 13
17.1882988923
 23
15.4539805971
 33
0.0
  0
LINE
  5
543
330
53E
100
AcDbEntity
  8
0
  6
Continuous
 62
     7
370
     0
100
AcDbLine
 10
15.5774010199
 20
15.487309556
 30
0.0
 11
15.5329674279
 21
15.487309556
 31
0.0
  0
LINE
  5
544
330
53E
100
AcDbEntity
  8
0
  6
Continuous
 62
     7
370
     0
100
AcDbLine
 10
15.5329674279
 20
15.487309556
 30
0.0
 11
15.5329674279
 21
15.1400439205
 31
0.0
  0
LINE
  5
545
330
53E
100
AcDbEntity
  8
0
  6
Continuous
 62
     7
370
     0
100
AcDbLine
 10
15.5329674279
 20
15.1400439205
 30
0.0
 11
15.5774010199
 21
15.1400439205
 31
0.0
  0
LINE
  5
546
330
53E
100
AcDbEntity
  8
0
  6
Continuous
 62
     7
370
     0
100
AcDbLine
 10
16.254196829
 20
15.487309556
 30
0.0
 11
16.2986304209
 21
15.487309556
 31
0.0
  0
LINE
  5
547
330
53E
100
AcDbEntity
  8
0
  6
Continuous
 62
     7
370
     0
100
AcDbLine
 10
16.2986304209
 20
15.487309556
 30
0.0
 11
16.2986304209
 21
15.1400439205
 31
0.0
  0
LINE
  5
548
330
53E
100
AcDbEntity
  8
0
  6
Continuous
 62
     7
370
     0
100
AcDbLine
 10
16.2986304209
 20
15.1400439205
 30
0.0
 11
16.254196829
 21
15.1400439205
 31
0.0
  0
LINE
  5
549
330
53E
100
AcDbEntity
  8
0
  6
Continuous
 62
     7
370
     0
100
AcDbLine
 10
14.4157988923
 20
14.1568595685
 30
0.0
 11
14.4157988923
 21
15.7077305971
 31
0.0
  0
LINE
  5
54A
330
53E
100
AcDbEntity
  8
0
  6
Continuous
 62
     7
370
     0
100
AcDbLine
 10
17.4157988923
 20
14.1568595685
 30
0.0
 11
17.4157988923
 21
15.7077305971
 31
0.0
  0
LINE
  5
54B
330
53E
100
AcDbEntity
  8
0
  6
Continuous
 62
     7
370
     0
100
AcDbLine
 10
14.4157988923
 20
15.4889805971
 30
0.0
 11
15.3745001346
 21
15.4889805971
 31
0.0
  0
LINE
  5
54C
330
53E
100
AcDbEntity
  8
0
  6
Continuous
 62
     7
370
     0
100
AcDbLine
 10
17.4157988923
 20
15.4889805971
 30
0.0
 11
16.45709765
 21
15.4889805971
 31
0.0
  0
MTEXT
  5
54D
330
53E
100
AcDbEntity
  8
0
  6
Continuous
 62
     7
370
     0
100
AcDbMText
 10
15.5008575105
 20
15.8170687541
 30
0.0
 40
0.21875
 41
0.0
 71
     1
 72
     1
  1

  7
SLDTEXTSTYLE0
 73
     1
 44
1.0
  0
MTEXT
  5
54E
330
53E
100
AcDbEntity
  8
0
  6
Continuous
 62
     7
370
     0
100
AcDbMText
 10
15.6329429968
 20
15.813726724
 30
0.0
 40
0.21875
 41
0.0
 71
     1
 72
     1
  1
3.00
  7
SLDTEXTSTYLE0
 73
     1
 44
1.0
  0
MTEXT
  5
54F
330
53E
100
AcDbEntity
  8
0
  6
Continuous
 62
     7
370
     0
100
AcDbMText
 10
15.6329430128
 20
15.4220275127
 30
0.0
 40
0.21875
 41
0.0
 71
     1
 72
     1
  1
76.2
  7
SLDTEXTSTYLE0
 73
     1
 44
1.0
  0
MTEXT
  5
550
330
53E
100
AcDbEntity
  8
0
  6
Continuous
 62
     7
370
     0
100
AcDbMText
 10
16.4139868178
 20
15.8170687541
 30
0.0
 40
0.21875
 41
0.0
 71
     1
 72
     1
  1

  7
SLDTEXTSTYLE0
 73
     1
 44
1.0
  0
ENDBLK
  5
540
330
53E
100
AcDbEntity
  8
0
100
AcDbBlockEnd
  0
BLOCK
  5
553
330
552
100
AcDbEntity
  8
0
100
AcDbBlockBegin
  2
_D_22
 70
     0
 10
0.0
 20
0.0
 30
0.0
  3
_D_22
  1

  0
SOLID
  5
555
330
552
100
AcDbEntity
  8
0
  6
Continuous
 62
     7
370
     0
100
AcDbTrace
 10
19.1513370093
 20
14.2563595685
 30
0.0
 11
19.1163370093
 21
14.0288595685
 31
0.0
 12
19.1863370093
 22
14.0288595685
 32
0.0
 13
19.1863370093
 23
14.0288595685
 33
0.0
  0
SOLID
  5
556
330
552
100
AcDbEntity
  8
0
  6
Continuous
 62
     7
370
     0
100
AcDbTrace
 10
19.1513370093
 20
8.0703595685
 30
0.0
 11
19.1863370093
 21
8.2978595685
 31
0.0
 12
19.1163370093
 22
8.2978595685
 32
0.0
 13
19.1163370093
 23
8.2978595685
 33
0.0
  0
LINE
  5
557
330
552
100
AcDbEntity
  8
0
  6
Continuous
 62
     7
370
     0
100
AcDbLine
 10
18.7321231483
 20
11.1616885274
 30
0.0
 11
18.6876895563
 21
11.1616885274
 31
0.0
  0
LINE
  5
558
330
552
100
AcDbEntity
  8
0
  6
Continuous
 62
     7
370
     0
100
AcDbLine
 10
18.6876895563
 20
11.1616885274
 30
0.0
 11
18.6876895563
 21
10.814422892
 31
0.0
  0
LINE
  5
559
330
552
100
AcDbEntity
  8
0
  6
Continuous
 62
     7
370
     0
100
AcDbLine
 10
18.6876895563
 20
10.814422892
 30
0.0
 11
18.7321231483
 21
10.814422892
 31
0.0
  0
LINE
  5
55A
330
552
100
AcDbEntity
  8
0
  6
Continuous
 62
     7
370
     0
100
AcDbLine
 10
19.5705508702
 20
11.1616885274
 30
0.0
 11
19.6149844622
 21
11.1616885274
 31
0.0
  0
LINE
  5
55B
330
552
100
AcDbEntity
  8
0
  6
Continuous
 62
     7
370
     0
100
AcDbLine
 10
19.6149844622
 20
11.1616885274
 30
0.0
 11
19.6149844622
 21
10.814422892
 31
0.0
  0
LINE
  5
55C
330
552
100
AcDbEntity
  8
0
  6
Continuous
 62
     7
370
     0
100
AcDbLine
 10
19.6149844622
 20
10.814422892
 30
0.0
 11
19.5705508702
 21
10.814422892
 31
0.0
  0
LINE
  5
55D
330
552
100
AcDbEntity
  8
0
  6
Continuous
 62
     7
370
     0
100
AcDbLine
 10
17.3162988923
 20
14.2563595685
 30
0.0
 11
19.3700870093
 21
14.2563595685
 31
0.0
  0
LINE
  5
55E
330
552
100
AcDbEntity
  8
0
  6
Continuous
 62
     7
370
     0
100
AcDbLine
 10
17.3162988923
 20
8.0703595685
 30
0.0
 11
19.3700870093
 21
8.0703595685
 31
0.0
  0
LINE
  5
55F
330
552
100
AcDbEntity
  8
0
  6
Continuous
 62
     7
370
     0
100
AcDbLine
 10
19.1513370093
 20
14.2563595685
 30
0.0
 11
19.1513370093
 21
11.5567297689
 31
0.0
  0
LINE
  5
560
330
552
100
AcDbEntity
  8
0
  6
Continuous
 62
     7
370
     0
100
AcDbLine
 10
19.1513370093
 20
8.0703595685
 30
0.0
 11
19.1513370093
 21
10.7699893682
 31
0.0
  0
MTEXT
  5
561
330
552
100
AcDbEntity
  8
0
  6
Continuous
 62
     7
370
     0
100
AcDbMText
 10
18.6555796389
 20
11.4914477256
 30
0.0
 40
0.21875
 41
0.0
 71
     1
 72
     1
  1

  7
SLDTEXTSTYLE0
 73
     1
 44
1.0
  0
MTEXT
  5
562
330
552
100
AcDbEntity
  8
0
  6
Continuous
 62
     7
370
     0
100
AcDbMText
 10
18.8684810816
 20
11.4881056955
 30
0.0
 40
0.21875
 41
0.0
 71
     1
 72
     1
  1
6.19
  7
SLDTEXTSTYLE0
 73
     1
 44
1.0
  0
MTEXT
  5
563
330
552
100
AcDbEntity
  8
0
  6
Continuous
 62
     7
370
     0
100
AcDbMText
 10
18.7876651413
 20
11.0964064841
 30
0.0
 40
0.21875
 41
0.0
 71
     1
 72
     1
  1
157.1
  7
SLDTEXTSTYLE0
 73
     1
 44
1.0
  0
MTEXT
  5
564
330
552
100
AcDbEntity
  8
0
  6
Continuous
 62
     7
370
     0
100
AcDbMText
 10
19.730340859
 20
11.4914477256
 30
0.0
 40
0.21875
 41
0.0
 71
     1
 72
     1
  1

  7
SLDTEXTSTYLE0
 73
     1
 44
1.0
  0
ENDBLK
  5
554
330
552
100
AcDbEntity
  8
0
100
AcDbBlockEnd
  0
BLOCK
  5
567
330
566
100
AcDbEntity
  8
0
100
AcDbBlockBegin
  2
_D_23
 70
     0
 10
0.0
 20
0.0
 30
0.0
  3
_D_23
  1

  0
SOLID
  5
569
330
566
100
AcDbEntity
  8
0
  6
Continuous
 62
     7
370
     0
100
AcDbTrace
 10
14.7907988923
 20
14.8073600455
 30
0.0
 11
15.0182988923
 21
14.7723600455
 31
0.0
 12
15.0182988923
 22
14.8423600455
 32
0.0
 13
15.0182988923
 23
14.8423600455
 33
0.0
  0
SOLID
  5
56A
330
566
100
AcDbEntity
  8
0
  6
Continuous
 62
     7
370
     0
100
AcDbTrace
 10
17.0407988923
 20
14.8073600455
 30
0.0
 11
16.8132988923
 21
14.8423600455
 31
0.0
 12
16.8132988923
 22
14.7723600455
 32
0.0
 13
16.8132988923
 23
14.7723600455
 33
0.0
  0
LINE
  5
56B
330
566
100
AcDbEntity
  8
0
  6
Continuous
 62
     7
370
     0
100
AcDbLine
 10
15.5774010199
 20
14.8056890044
 30
0.0
 11
15.5329674279
 21
14.8056890044
 31
0.0
  0
LINE
  5
56C
330
566
100
AcDbEntity
  8
0
  6
Continuous
 62
     7
370
     0
100
AcDbLine
 10
15.5329674279
 20
14.8056890044
 30
0.0
 11
15.5329674279
 21
14.458423369
 31
0.0
  0
LINE
  5
56D
330
566
100
AcDbEntity
  8
0
  6
Continuous
 62
     7
370
     0
100
AcDbLine
 10
15.5329674279
 20
14.458423369
 30
0.0
 11
15.5774010199
 21
14.458423369
 31
0.0
  0
LINE
  5
56E
330
566
100
AcDbEntity
  8
0
  6
Continuous
 62
     7
370
     0
100
AcDbLine
 10
16.254196829
 20
14.8056890044
 30
0.0
 11
16.2986304209
 21
14.8056890044
 31
0.0
  0
LINE
  5
56F
330
566
100
AcDbEntity
  8
0
  6
Continuous
 62
     7
370
     0
100
AcDbLine
 10
16.2986304209
 20
14.8056890044
 30
0.0
 11
16.2986304209
 21
14.458423369
 31
0.0
  0
LINE
  5
570
330
566
100
AcDbEntity
  8
0
  6
Continuous
 62
     7
370
     0
100
AcDbLine
 10
16.2986304209
 20
14.458423369
 30
0.0
 11
16.254196829
 21
14.458423369
 31
0.0
  0
LINE
  5
571
330
566
100
AcDbEntity
  8
0
  6
Continuous
 62
     7
370
     0
100
AcDbLine
 10
14.7907988923
 20
14.0318595685
 30
0.0
 11
14.7907988923
 21
15.0261100455
 31
0.0
  0
LINE
  5
572
330
566
100
AcDbEntity
  8
0
  6
Continuous
 62
     7
370
     0
100
AcDbLine
 10
17.0407988923
 20
14.0318595685
 30
0.0
 11
17.0407988923
 21
15.0261100455
 31
0.0
  0
LINE
  5
573
330
566
100
AcDbEntity
  8
0
  6
Continuous
 62
     7
370
     0
100
AcDbLine
 10
14.7907988923
 20
14.8073600455
 30
0.0
 11
15.3745001346
 21
14.8073600455
 31
0.0
  0
LINE
  5
574
330
566
100
AcDbEntity
  8
0
  6
Continuous
 62
     7
370
     0
100
AcDbLine
 10
17.0407988923
 20
14.8073600455
 30
0.0
 11
16.45709765
 21
14.8073600455
 31
0.0
  0
MTEXT
  5
575
330
566
100
AcDbEntity
  8
0
  6
Continuous
 62
     7
370
     0
100
AcDbMText
 10
15.5008575105
 20
15.1354482026
 30
0.0
 40
0.21875
 41
0.0
 71
     1
 72
     1
  1

  7
SLDTEXTSTYLE0
 73
     1
 44
1.0
  0
MTEXT
  5
576
330
566
100
AcDbEntity
  8
0
  6
Continuous
 62
     7
370
     0
100
AcDbMText
 10
15.6329429968
 20
15.1321061725
 30
0.0
 40
0.21875
 41
0.0
 71
     1
 72
     1
  1
2.25
  7
SLDTEXTSTYLE0
 73
     1
 44
1.0
  0
MTEXT
  5
577
330
566
100
AcDbEntity
  8
0
  6
Continuous
 62
     7
370
     0
100
AcDbMText
 10
15.6329430128
 20
14.7404069611
 30
0.0
 40
0.21875
 41
0.0
 71
     1
 72
     1
  1
57.2
  7
SLDTEXTSTYLE0
 73
     1
 44
1.0
  0
MTEXT
  5
578
330
566
100
AcDbEntity
  8
0
  6
Continuous
 62
     7
370
     0
100
AcDbMText
 10
16.4139868178
 20
15.1354482026
 30
0.0
 40
0.21875
 41
0.0
 71
     1
 72
     1
  1

  7
SLDTEXTSTYLE0
 73
     1
 44
1.0
  0
ENDBLK
  5
568
330
566
100
AcDbEntity
  8
0
100
AcDbBlockEnd
  0
BLOCK
  5
57B
330
57A
100
AcDbEntity
  8
0
100
AcDbBlockBegin
  2
_D_24
 70
     0
 10
0.0
 20
0.0
 30
0.0
  3
_D_24
  1

  0
SOLID
  5
57D
330
57A
100
AcDbEntity
  8
0
  6
Continuous
 62
     7
370
     0
100
AcDbTrace
 10
18.0883448833
 20
13.9443595685
 30
0.0
 11
18.0533448833
 21
13.7168595685
 31
0.0
 12
18.1233448833
 22
13.7168595685
 32
0.0
 13
18.1233448833
 23
13.7168595685
 33
0.0
  0
SOLID
  5
57E
330
57A
100
AcDbEntity
  8
0
  6
Continuous
 62
     7
370
     0
100
AcDbTrace
 10
18.0883448833
 20
8.3823595685
 30
0.0
 11
18.1233448833
 21
8.6098595685
 31
0.0
 12
18.0533448833
 22
8.6098595685
 32
0.0
 13
18.0533448833
 23
8.6098595685
 33
0.0
  0
LINE
  5
57F
330
57A
100
AcDbEntity
  8
0
  6
Continuous
 62
     7
370
     0
100
AcDbLine
 10
17.6691310223
 20
11.1616885274
 30
0.0
 11
17.6246974304
 21
11.1616885274
 31
0.0
  0
LINE
  5
580
330
57A
100
AcDbEntity
  8
0
  6
Continuous
 62
     7
370
     0
100
AcDbLine
 10
17.6246974304
 20
11.1616885274
 30
0.0
 11
17.6246974304
 21
10.814422892
 31
0.0
  0
LINE
  5
581
330
57A
100
AcDbEntity
  8
0
  6
Continuous
 62
     7
370
     0
100
AcDbLine
 10
17.6246974304
 20
10.814422892
 30
0.0
 11
17.6691310223
 21
10.814422892
 31
0.0
  0
LINE
  5
582
330
57A
100
AcDbEntity
  8
0
  6
Continuous
 62
     7
370
     0
100
AcDbLine
 10
18.5075587442
 20
11.1616885274
 30
0.0
 11
18.5519923362
 21
11.1616885274
 31
0.0
  0
LINE
  5
583
330
57A
100
AcDbEntity
  8
0
  6
Continuous
 62
     7
370
     0
100
AcDbLine
 10
18.5519923362
 20
11.1616885274
 30
0.0
 11
18.5519923362
 21
10.814422892
 31
0.0
  0
LINE
  5
584
330
57A
100
AcDbEntity
  8
0
  6
Continuous
 62
     7
370
     0
100
AcDbLine
 10
18.5519923362
 20
10.814422892
 30
0.0
 11
18.5075587442
 21
10.814422892
 31
0.0
  0
LINE
  5
585
330
57A
100
AcDbEntity
  8
0
  6
Continuous
 62
     7
370
     0
100
AcDbLine
 10
17.1282988923
 20
13.9443595685
 30
0.0
 11
18.3070948833
 21
13.9443595685
 31
0.0
  0
LINE
  5
586
330
57A
100
AcDbEntity
  8
0
  6
Continuous
 62
     7
370
     0
100
AcDbLine
 10
17.1282988923
 20
8.3823595685
 30
0.0
 11
18.3070948833
 21
8.3823595685
 31
0.0
  0
LINE
  5
587
330
57A
100
AcDbEntity
  8
0
  6
Continuous
 62
     7
370
     0
100
AcDbLine
 10
18.0883448833
 20
13.9443595685
 30
0.0
 11
18.0883448833
 21
11.5567297689
 31
0.0
  0
LINE
  5
588
330
57A
100
AcDbEntity
  8
0
  6
Continuous
 62
     7
370
     0
100
AcDbLine
 10
18.0883448833
 20
8.3823595685
 30
0.0
 11
18.0883448833
 21
10.7699893682
 31
0.0
  0
MTEXT
  5
589
330
57A
100
AcDbEntity
  8
0
  6
Continuous
 62
     7
370
     0
100
AcDbMText
 10
17.5925875129
 20
11.4914477256
 30
0.0
 40
0.21875
 41
0.0
 71
     1
 72
     1
  1

  7
SLDTEXTSTYLE0
 73
     1
 44
1.0
  0
MTEXT
  5
58A
330
57A
100
AcDbEntity
  8
0
  6
Continuous
 62
     7
370
     0
100
AcDbMText
 10
17.8054889556
 20
11.4881056955
 30
0.0
 40
0.21875
 41
0.0
 71
     1
 72
     1
  1
5.56
  7
SLDTEXTSTYLE0
 73
     1
 44
1.0
  0
MTEXT
  5
58B
330
57A
100
AcDbEntity
  8
0
  6
Continuous
 62
     7
370
     0
100
AcDbMText
 10
17.7246730153
 20
11.0964064841
 30
0.0
 40
0.21875
 41
0.0
 71
     1
 72
     1
  1
141.3
  7
SLDTEXTSTYLE0
 73
     1
 44
1.0
  0
MTEXT
  5
58C
330
57A
100
AcDbEntity
  8
0
  6
Continuous
 62
     7
370
     0
100
AcDbMText
 10
18.667348733
 20
11.4914477256
 30
0.0
 40
0.21875
 41
0.0
 71
     1
 72
     1
  1

  7
SLDTEXTSTYLE0
 73
     1
 44
1.0
  0
ENDBLK
  5
57C
330
57A
100
AcDbEntity
  8
0
100
AcDbBlockEnd
  0
BLOCK
  5
58F
330
58E
100
AcDbEntity
  8
0
100
AcDbBlockBegin
  2
_D_25
 70
     0
 10
0.0
 20
0.0
 30
0.0
  3
_D_25
  1

  0
SOLID
  5
591
330
58E
100
AcDbEntity
  8
0
  6
Continuous
 62
     7
370
     0
100
AcDbTrace
 10
17.0890488923
 20
14.02793102
 30
0.0
 11
17.2331097815
 21
14.2074517994
 31
0.0
 12
17.1724880032
 22
14.2424517994
 32
0.0
 13
17.1724880032
 23
14.2424517994
 33
0.0
  0
LINE
  5
592
330
58E
100
AcDbEntity
  8
0
  6
Continuous
 62
     7
370
     0
100
AcDbLine
 10
18.4642573757
 20
15.6894693528
 30
0.0
 11
18.4198237837
 21
15.6894693528
 31
0.0
  0
LINE
  5
593
330
58E
100
AcDbEntity
  8
0
  6
Continuous
 62
     7
370
     0
100
AcDbLine
 10
18.4198237837
 20
15.6894693528
 30
0.0
 11
18.4198237837
 21
15.3422037173
 31
0.0
  0
LINE
  5
594
330
58E
100
AcDbEntity
  8
0
  6
Continuous
 62
     7
370
     0
100
AcDbLine
 10
18.4198237837
 20
15.3422037173
 30
0.0
 11
18.4642573757
 21
15.3422037173
 31
0.0
  0
LINE
  5
595
330
58E
100
AcDbEntity
  8
0
  6
Continuous
 62
     7
370
     0
100
AcDbLine
 10
18.9794212078
 20
15.6894693528
 30
0.0
 11
19.0238547998
 21
15.6894693528
 31
0.0
  0
LINE
  5
596
330
58E
100
AcDbEntity
  8
0
  6
Continuous
 62
     7
370
     0
100
AcDbLine
 10
19.0238547998
 20
15.6894693528
 30
0.0
 11
19.0238547998
 21
15.3422037173
 31
0.0
  0
LINE
  5
597
330
58E
100
AcDbEntity
  8
0
  6
Continuous
 62
     7
370
     0
100
AcDbLine
 10
19.0238547998
 20
15.3422037173
 30
0.0
 11
18.9794212078
 21
15.3422037173
 31
0.0
  0
LINE
  5
598
330
58E
100
AcDbEntity
  8
0
  6
Continuous
 62
     7
370
     0
100
AcDbLine
 10
17.0890488923
 20
14.02793102
 30
0.0
 11
18.1130610887
 21
15.8015721718
 31
0.0
  0
LINE
  5
599
330
58E
100
AcDbEntity
  8
0
  6
Continuous
 62
     7
370
     0
100
AcDbLine
 10
18.1130610887
 20
15.8015721718
 30
0.0
 11
18.3318110887
 21
15.8015721718
 31
0.0
  0
MTEXT
  5
59A
330
58E
100
AcDbEntity
  8
0
  6
Continuous
 62
     7
370
     0
100
AcDbMText
 10
18.3864985887
 20
16.0158865208
 30
0.0
 40
0.21875
 41
0.0
 71
     1
 72
     1
  1
%%c
  7
SLDTEXTSTYLE0
 73
     1
 44
1.0
  0
MTEXT
  5
59B
330
58E
100
AcDbEntity
  8
0
  6
Continuous
 62
     7
370
     0
100
AcDbMText
 10
18.7164009248
 20
16.0158865208
 30
0.0
 40
0.21875
 41
0.0
 71
     1
 72
     1
  1
.193
  7
SLDTEXTSTYLE0
 73
     1
 44
1.0
  0
MTEXT
  5
59C
330
58E
100
AcDbEntity
  8
0
  6
Continuous
 62
     7
370
     0
100
AcDbMText
 10
18.5197993686
 20
15.6241873095
 30
0.0
 40
0.21875
 41
0.0
 71
     1
 72
     1
  1
4.9
  7
SLDTEXTSTYLE0
 73
     1
 44
1.0
  0
MTEXT
  5
59D
330
58E
100
AcDbEntity
  8
0
  6
Continuous
 62
     7
370
     0
100
AcDbMText
 10
19.3641439659
 20
16.0192285509
 30
0.0
 40
0.21875
 41
0.0
 71
     1
 72
     1
  1
(4X)
  7
SLDTEXTSTYLE0
 73
     1
 44
1.0
  0
MTEXT
  5
59E
330
58E
100
AcDbEntity
  8
0
  6
Continuous
 62
     7
370
     0
100
AcDbMText
 10
18.3864985887
 20
15.2324881503
 30
0.0
 40
0.21875
 41
0.0
 71
     1
 72
     1
  1
ACCEPTS #10 SCREW
  7
SLDTEXTSTYLE0
 73
     1
 44
1.0
  0
MTEXT
  5
59F
330
58E
100
AcDbEntity
  8
0
  6
Continuous
 62
     7
370
     0
100
AcDbMText
 10
18.3864985887
 20
14.8852225148
 30
0.0
 40
0.21875
 41
0.0
 71
     1
 72
     1
  1
(NOT SUPPLIED)
  7
SLDTEXTSTYLE0
 73
     1
 44
1.0
  0
ENDBLK
  5
590
330
58E
100
AcDbEntity
  8
0
100
AcDbBlockEnd
  0
BLOCK
  5
5A1
330
5A0
100
AcDbEntity
  8
0
100
AcDbBlockBegin
  2
SW_CENTERMARKSYMBOL_6
 70
     0
 10
0.0
 20
0.0
 30
0.0
  3
SW_CENTERMARKSYMBOL_6
  1

  0
LINE
  5
5A3
330
5A0
100
AcDbEntity
  8
0
  6
Continuous
 62
     0
370
     0
100
AcDbLine
 10
0.0
 20
0.0
 30
0.0
 11
0.0
 21
0.1
 31
0.0
  0
LINE
  5
5A4
330
5A0
100
AcDbEntity
  8
0
  6
Continuous
 62
     0
370
     0
100
AcDbLine
 10
0.0
 20
0.0
 30
0.0
 11
-0.1
 21
0.0
 31
0.0
  0
LINE
  5
5A5
330
5A0
100
AcDbEntity
  8
0
  6
Continuous
 62
     0
370
     0
100
AcDbLine
 10
0.0
 20
0.0
 30
0.0
 11
0.0
 21
-0.1
 31
0.0
  0
LINE
  5
5A6
330
5A0
100
AcDbEntity
  8
0
  6
Continuous
 62
     0
370
     0
100
AcDbLine
 10
0.0
 20
0.0
 30
0.0
 11
0.1
 21
0.0
 31
0.0
  0
LINE
  5
5A7
330
5A0
100
AcDbEntity
  8
0
  6
Continuous
 62
     0
370
     0
100
AcDbLine
 10
0.0
 20
0.1
 30
0.0
 11
0.0
 21
0.1965
 31
0.0
  0
LINE
  5
5A8
330
5A0
100
AcDbEntity
  8
0
  6
Continuous
 62
     0
370
     0
100
AcDbLine
 10
-0.1
 20
0.0
 30
0.0
 11
-0.1965
 21
0.0
 31
0.0
  0
LINE
  5
5A9
330
5A0
100
AcDbEntity
  8
0
  6
Continuous
 62
     0
370
     0
100
AcDbLine
 10
0.0
 20
-0.1
 30
0.0
 11
0.0
 21
-0.1965
 31
0.0
  0
LINE
  5
5AA
330
5A0
100
AcDbEntity
  8
0
  6
Continuous
 62
     0
370
     0
100
AcDbLine
 10
0.1
 20
0.0
 30
0.0
 11
0.1965
 21
0.0
 31
0.0
  0
ENDBLK
  5
5A2
330
5A0
100
AcDbEntity
  8
0
100
AcDbBlockEnd
  0
BLOCK
  5
5AD
330
5AC
100
AcDbEntity
  8
0
100
AcDbBlockBegin
  2
SW_CENTERMARKSYMBOL_7
 70
     0
 10
0.0
 20
0.0
 30
0.0
  3
SW_CENTERMARKSYMBOL_7
  1

  0
LINE
  5
5AF
330
5AC
100
AcDbEntity
  8
0
  6
Continuous
 62
     0
370
     0
100
AcDbLine
 10
0.0
 20
0.0
 30
0.0
 11
0.0
 21
0.1
 31
0.0
  0
LINE
  5
5B0
330
5AC
100
AcDbEntity
  8
0
  6
Continuous
 62
     0
370
     0
100
AcDbLine
 10
0.0
 20
0.0
 30
0.0
 11
-0.1
 21
0.0
 31
0.0
  0
LINE
  5
5B1
330
5AC
100
AcDbEntity
  8
0
  6
Continuous
 62
     0
370
     0
100
AcDbLine
 10
0.0
 20
0.0
 30
0.0
 11
0.0
 21
-0.1
 31
0.0
  0
LINE
  5
5B2
330
5AC
100
AcDbEntity
  8
0
  6
Continuous
 62
     0
370
     0
100
AcDbLine
 10
0.0
 20
0.0
 30
0.0
 11
0.1
 21
0.0
 31
0.0
  0
LINE
  5
5B3
330
5AC
100
AcDbEntity
  8
0
  6
Continuous
 62
     0
370
     0
100
AcDbLine
 10
0.0
 20
0.1
 30
0.0
 11
0.0
 21
0.1965
 31
0.0
  0
LINE
  5
5B4
330
5AC
100
AcDbEntity
  8
0
  6
Continuous
 62
     0
370
     0
100
AcDbLine
 10
-0.1
 20
0.0
 30
0.0
 11
-0.1965
 21
0.0
 31
0.0
  0
LINE
  5
5B5
330
5AC
100
AcDbEntity
  8
0
  6
Continuous
 62
     0
370
     0
100
AcDbLine
 10
0.0
 20
-0.1
 30
0.0
 11
0.0
 21
-0.1965
 31
0.0
  0
LINE
  5
5B6
330
5AC
100
AcDbEntity
  8
0
  6
Continuous
 62
     0
370
     0
100
AcDbLine
 10
0.1
 20
0.0
 30
0.0
 11
0.1965
 21
0.0
 31
0.0
  0
ENDBLK
  5
5AE
330
5AC
100
AcDbEntity
  8
0
100
AcDbBlockEnd
  0
BLOCK
  5
5B9
330
5B8
100
AcDbEntity
  8
0
100
AcDbBlockBegin
  2
SW_CENTERMARKSYMBOL_8
 70
     0
 10
0.0
 20
0.0
 30
0.0
  3
SW_CENTERMARKSYMBOL_8
  1

  0
LINE
  5
5BB
330
5B8
100
AcDbEntity
  8
0
  6
Continuous
 62
     0
370
     0
100
AcDbLine
 10
0.0
 20
0.0
 30
0.0
 11
0.0
 21
0.1
 31
0.0
  0
LINE
  5
5BC
330
5B8
100
AcDbEntity
  8
0
  6
Continuous
 62
     0
370
     0
100
AcDbLine
 10
0.0
 20
0.0
 30
0.0
 11
-0.1
 21
0.0
 31
0.0
  0
LINE
  5
5BD
330
5B8
100
AcDbEntity
  8
0
  6
Continuous
 62
     0
370
     0
100
AcDbLine
 10
0.0
 20
0.0
 30
0.0
 11
0.0
 21
-0.1
 31
0.0
  0
LINE
  5
5BE
330
5B8
100
AcDbEntity
  8
0
  6
Continuous
 62
     0
370
     0
100
AcDbLine
 10
0.0
 20
0.0
 30
0.0
 11
0.1
 21
0.0
 31
0.0
  0
LINE
  5
5BF
330
5B8
100
AcDbEntity
  8
0
  6
Continuous
 62
     0
370
     0
100
AcDbLine
 10
0.0
 20
0.1
 30
0.0
 11
0.0
 21
0.1965
 31
0.0
  0
LINE
  5
5C0
330
5B8
100
AcDbEntity
  8
0
  6
Continuous
 62
     0
370
     0
100
AcDbLine
 10
-0.1
 20
0.0
 30
0.0
 11
-0.1965
 21
0.0
 31
0.0
  0
LINE
  5
5C1
330
5B8
100
AcDbEntity
  8
0
  6
Continuous
 62
     0
370
     0
100
AcDbLine
 10
0.0
 20
-0.1
 30
0.0
 11
0.0
 21
-0.1965
 31
0.0
  0
LINE
  5
5C2
330
5B8
100
AcDbEntity
  8
0
  6
Continuous
 62
     0
370
     0
100
AcDbLine
 10
0.1
 20
0.0
 30
0.0
 11
0.1965
 21
0.0
 31
0.0
  0
ENDBLK
  5
5BA
330
5B8
100
AcDbEntity
  8
0
100
AcDbBlockEnd
  0
BLOCK
  5
5C5
330
5C4
100
AcDbEntity
  8
0
100
AcDbBlockBegin
  2
SW_CENTERMARKSYMBOL_9
 70
     0
 10
0.0
 20
0.0
 30
0.0
  3
SW_CENTERMARKSYMBOL_9
  1

  0
LINE
  5
5C7
330
5C4
100
AcDbEntity
  8
0
  6
Continuous
 62
     0
370
     0
100
AcDbLine
 10
0.0
 20
0.0
 30
0.0
 11
0.0
 21
0.1
 31
0.0
  0
LINE
  5
5C8
330
5C4
100
AcDbEntity
  8
0
  6
Continuous
 62
     0
370
     0
100
AcDbLine
 10
0.0
 20
0.0
 30
0.0
 11
-0.1
 21
0.0
 31
0.0
  0
LINE
  5
5C9
330
5C4
100
AcDbEntity
  8
0
  6
Continuous
 62
     0
370
     0
100
AcDbLine
 10
0.0
 20
0.0
 30
0.0
 11
0.0
 21
-0.1
 31
0.0
  0
LINE
  5
5CA
330
5C4
100
AcDbEntity
  8
0
  6
Continuous
 62
     0
370
     0
100
AcDbLine
 10
0.0
 20
0.0
 30
0.0
 11
0.1
 21
0.0
 31
0.0
  0
LINE
  5
5CB
330
5C4
100
AcDbEntity
  8
0
  6
Continuous
 62
     0
370
     0
100
AcDbLine
 10
0.0
 20
0.1
 30
0.0
 11
0.0
 21
0.1965
 31
0.0
  0
LINE
  5
5CC
330
5C4
100
AcDbEntity
  8
0
  6
Continuous
 62
     0
370
     0
100
AcDbLine
 10
-0.1
 20
0.0
 30
0.0
 11
-0.1965
 21
0.0
 31
0.0
  0
LINE
  5
5CD
330
5C4
100
AcDbEntity
  8
0
  6
Continuous
 62
     0
370
     0
100
AcDbLine
 10
0.0
 20
-0.1
 30
0.0
 11
0.0
 21
-0.1965
 31
0.0
  0
LINE
  5
5CE
330
5C4
100
AcDbEntity
  8
0
  6
Continuous
 62
     0
370
     0
100
AcDbLine
 10
0.1
 20
0.0
 30
0.0
 11
0.1965
 21
0.0
 31
0.0
  0
ENDBLK
  5
5C6
330
5C4
100
AcDbEntity
  8
0
100
AcDbBlockEnd
  0
BLOCK
  5
61B
330
61A
100
AcDbEntity
  8
0
100
AcDbBlockBegin
  2
_D_26
 70
     0
 10
0.0
 20
0.0
 30
0.0
  3
_D_26
  1

  0
SOLID
  5
61D
330
61A
100
AcDbEntity
  8
0
  6
Continuous
 62
     7
370
     0
100
AcDbTrace
 10
7.9127469156
 20
3.1911589432
 30
0.0
 11
7.8777469156
 21
2.9636589432
 31
0.0
 12
7.9477469156
 22
2.9636589432
 32
0.0
 13
7.9477469156
 23
2.9636589432
 33
0.0
  0
SOLID
  5
61E
330
61A
100
AcDbEntity
  8
0
  6
Continuous
 62
     7
370
     0
100
AcDbTrace
 10
7.9127469156
 20
3.7817101243
 30
0.0
 11
7.9477469156
 21
4.0092101243
 31
0.0
 12
7.8777469156
 22
4.0092101243
 32
0.0
 13
7.8777469156
 23
4.0092101243
 33
0.0
  0
LINE
  5
61F
330
61A
100
AcDbEntity
  8
0
  6
Continuous
 62
     7
370
     0
100
AcDbLine
 10
8.3422340801
 20
4.2718743841
 30
0.0
 11
8.2978004882
 21
4.2718743841
 31
0.0
  0
LINE
  5
620
330
61A
100
AcDbEntity
  8
0
  6
Continuous
 62
     7
370
     0
100
AcDbLine
 10
8.2978004882
 20
4.2718743841
 30
0.0
 11
8.2978004882
 21
3.9246087487
 31
0.0
  0
LINE
  5
621
330
61A
100
AcDbEntity
  8
0
  6
Continuous
 62
     7
370
     0
100
AcDbLine
 10
8.2978004882
 20
3.9246087487
 30
0.0
 11
8.3422340801
 21
3.9246087487
 31
0.0
  0
LINE
  5
622
330
61A
100
AcDbEntity
  8
0
  6
Continuous
 62
     7
370
     0
100
AcDbLine
 10
8.7765819558
 20
4.2718743841
 30
0.0
 11
8.8210155478
 21
4.2718743841
 31
0.0
  0
LINE
  5
623
330
61A
100
AcDbEntity
  8
0
  6
Continuous
 62
     7
370
     0
100
AcDbLine
 10
8.8210155478
 20
4.2718743841
 30
0.0
 11
8.8210155478
 21
3.9246087487
 31
0.0
  0
LINE
  5
624
330
61A
100
AcDbEntity
  8
0
  6
Continuous
 62
     7
370
     0
100
AcDbLine
 10
8.8210155478
 20
3.9246087487
 30
0.0
 11
8.7765819558
 21
3.9246087487
 31
0.0
  0
LINE
  5
625
330
61A
100
AcDbEntity
  8
0
  6
Continuous
 62
     7
370
     0
100
AcDbLine
 10
7.4555721801
 20
3.1911589432
 30
0.0
 11
8.1314969156
 21
3.1911589432
 31
0.0
  0
LINE
  5
626
330
61A
100
AcDbEntity
  8
0
  6
Continuous
 62
     7
370
     0
100
AcDbLine
 10
7.3678863336
 20
3.7817101243
 30
0.0
 11
8.1314969156
 21
3.7817101243
 31
0.0
  0
LINE
  5
627
330
61A
100
AcDbEntity
  8
0
  6
Continuous
 62
     7
370
     0
100
AcDbLine
 10
8.1314969156
 20
4.2735454252
 30
0.0
 11
7.9127469156
 21
4.2735454252
 31
0.0
  0
LINE
  5
628
330
61A
100
AcDbEntity
  8
0
  6
Continuous
 62
     7
370
     0
100
AcDbLine
 10
7.9127469156
 20
4.2735454252
 30
0.0
 11
7.9127469156
 21
3.7817101243
 31
0.0
  0
LINE
  5
629
330
61A
100
AcDbEntity
  8
0
  6
Continuous
 62
     7
370
     0
100
AcDbLine
 10
7.9127469156
 20
3.1911589432
 30
0.0
 11
7.9127469156
 21
2.7536589432
 31
0.0
  0
MTEXT
  5
62A
330
61A
100
AcDbEntity
  8
0
  6
Continuous
 62
     7
370
     0
100
AcDbMText
 10
8.3573680788
 20
4.5982915522
 30
0.0
 40
0.21875
 41
0.0
 71
     1
 72
     1
  1
.59
  7
SLDTEXTSTYLE0
 73
     1
 44
1.0
  0
MTEXT
  5
62B
330
61A
100
AcDbEntity
  8
0
  6
Continuous
 62
     7
370
     0
100
AcDbMText
 10
8.3977760731
 20
4.2065923408
 30
0.0
 40
0.21875
 41
0.0
 71
     1
 72
     1
  1
15
  7
SLDTEXTSTYLE0
 73
     1
 44
1.0
  0
MTEXT
  5
62C
330
61A
100
AcDbEntity
  8
0
  6
Continuous
 62
     7
370
     0
100
AcDbMText
 10
8.9363719607
 20
4.6016335823
 30
0.0
 40
0.21875
 41
0.0
 71
     1
 72
     1
  1
COVER
  7
SLDTEXTSTYLE0
 73
     1
 44
1.0
  0
ENDBLK
  5
61C
330
61A
100
AcDbEntity
  8
0
100
AcDbBlockEnd
  0
BLOCK
  5
62F
330
62E
100
AcDbEntity
  8
0
100
AcDbBlockBegin
  2
_D_27
 70
     0
 10
0.0
 20
0.0
 30
0.0
  3
_D_27
  1

  0
SOLID
  5
631
330
62E
100
AcDbEntity
  8
0
  6
Continuous
 62
     7
370
     0
100
AcDbTrace
 10
3.5262348506
 20
2.3250172109
 30
0.0
 11
3.5612348506
 21
2.5525172109
 31
0.0
 12
3.4912348506
 22
2.5525172109
 32
0.0
 13
3.4912348506
 23
2.5525172109
 33
0.0
  0
SOLID
  5
632
330
62E
100
AcDbEntity
  8
0
  6
Continuous
 62
     7
370
     0
100
AcDbTrace
 10
3.5262348506
 20
3.6832849274
 30
0.0
 11
3.4912348506
 21
3.4557849274
 31
0.0
 12
3.5612348506
 22
3.4557849274
 32
0.0
 13
3.5612348506
 23
3.4557849274
 33
0.0
  0
LINE
  5
633
330
62E
100
AcDbEntity
  8
0
  6
Continuous
 62
     7
370
     0
100
AcDbLine
 10
3.1878369781
 20
3.002480028
 30
0.0
 11
3.1434033861
 21
3.002480028
 31
0.0
  0
LINE
  5
634
330
62E
100
AcDbEntity
  8
0
  6
Continuous
 62
     7
370
     0
100
AcDbLine
 10
3.1434033861
 20
3.002480028
 30
0.0
 11
3.1434033861
 21
2.6552143926
 31
0.0
  0
LINE
  5
635
330
62E
100
AcDbEntity
  8
0
  6
Continuous
 62
     7
370
     0
100
AcDbLine
 10
3.1434033861
 20
2.6552143926
 30
0.0
 11
3.1878369781
 21
2.6552143926
 31
0.0
  0
LINE
  5
636
330
62E
100
AcDbEntity
  8
0
  6
Continuous
 62
     7
370
     0
100
AcDbLine
 10
3.8646327872
 20
3.002480028
 30
0.0
 11
3.9090663792
 21
3.002480028
 31
0.0
  0
LINE
  5
637
330
62E
100
AcDbEntity
  8
0
  6
Continuous
 62
     7
370
     0
100
AcDbLine
 10
3.9090663792
 20
3.002480028
 30
0.0
 11
3.9090663792
 21
2.6552143926
 31
0.0
  0
LINE
  5
638
330
62E
100
AcDbEntity
  8
0
  6
Continuous
 62
     7
370
     0
100
AcDbLine
 10
3.9090663792
 20
2.6552143926
 30
0.0
 11
3.8646327872
 21
2.6552143926
 31
0.0
  0
LINE
  5
639
330
62E
100
AcDbEntity
  8
0
  6
Continuous
 62
     7
370
     0
100
AcDbLine
 10
4.306289188
 20
2.3250172109
 30
0.0
 11
3.3074848506
 21
2.3250172109
 31
0.0
  0
LINE
  5
63A
330
62E
100
AcDbEntity
  8
0
  6
Continuous
 62
     7
370
     0
100
AcDbLine
 10
4.3619969168
 20
3.6832849274
 30
0.0
 11
3.3074848506
 21
3.6832849274
 31
0.0
  0
LINE
  5
63B
330
62E
100
AcDbEntity
  8
0
  6
Continuous
 62
     7
370
     0
100
AcDbLine
 10
3.5262348506
 20
2.3250172109
 30
0.0
 11
3.5262348506
 21
2.6107808688
 31
0.0
  0
LINE
  5
63C
330
62E
100
AcDbEntity
  8
0
  6
Continuous
 62
     7
370
     0
100
AcDbLine
 10
3.5262348506
 20
3.6832849274
 30
0.0
 11
3.5262348506
 21
3.3975212695
 31
0.0
  0
MTEXT
  5
63D
330
62E
100
AcDbEntity
  8
0
  6
Continuous
 62
     7
370
     0
100
AcDbMText
 10
3.1112934687
 20
3.3322392262
 30
0.0
 40
0.21875
 41
0.0
 71
     1
 72
     1
  1

  7
SLDTEXTSTYLE0
 73
     1
 44
1.0
  0
MTEXT
  5
63E
330
62E
100
AcDbEntity
  8
0
  6
Continuous
 62
     7
370
     0
100
AcDbMText
 10
3.243378955
 20
3.3288971961
 30
0.0
 40
0.21875
 41
0.0
 71
     1
 72
     1
  1
1.36
  7
SLDTEXTSTYLE0
 73
     1
 44
1.0
  0
MTEXT
  5
63F
330
62E
100
AcDbEntity
  8
0
  6
Continuous
 62
     7
370
     0
100
AcDbMText
 10
3.2433789711
 20
2.9371979847
 30
0.0
 40
0.21875
 41
0.0
 71
     1
 72
     1
  1
34.5
  7
SLDTEXTSTYLE0
 73
     1
 44
1.0
  0
MTEXT
  5
640
330
62E
100
AcDbEntity
  8
0
  6
Continuous
 62
     7
370
     0
100
AcDbMText
 10
4.024422776
 20
3.3322392262
 30
0.0
 40
0.21875
 41
0.0
 71
     1
 72
     1
  1

  7
SLDTEXTSTYLE0
 73
     1
 44
1.0
  0
ENDBLK
  5
630
330
62E
100
AcDbEntity
  8
0
100
AcDbBlockEnd
  0
BLOCK
  5
644
330
643
100
AcDbEntity
  8
0
100
AcDbBlockBegin
  2
_D_28
 70
     0
 10
0.0
 20
0.0
 30
0.0
  3
_D_28
  1

  0
SOLID
  5
646
330
643
100
AcDbEntity
  8
0
  6
Continuous
 62
     7
370
     0
100
AcDbTrace
 10
3.5262348506
 20
3.6832849274
 30
0.0
 11
3.4912348506
 21
3.4557849274
 31
0.0
 12
3.5612348506
 22
3.4557849274
 32
0.0
 13
3.5612348506
 23
3.4557849274
 33
0.0
  0
SOLID
  5
647
330
643
100
AcDbEntity
  8
0
  6
Continuous
 62
     7
370
     0
100
AcDbTrace
 10
3.5262348506
 20
3.7817101243
 30
0.0
 11
3.5612348506
 21
4.0092101243
 31
0.0
 12
3.4912348506
 22
4.0092101243
 32
0.0
 13
3.4912348506
 23
4.0092101243
 33
0.0
  0
LINE
  5
648
330
643
100
AcDbEntity
  8
0
  6
Continuous
 62
     7
370
     0
100
AcDbLine
 10
2.5007679456
 20
4.2476041003
 30
0.0
 11
2.4563343537
 21
4.2476041003
 31
0.0
  0
LINE
  5
649
330
643
100
AcDbEntity
  8
0
  6
Continuous
 62
     7
370
     0
100
AcDbLine
 10
2.4563343537
 20
4.2476041003
 30
0.0
 11
2.4563343537
 21
3.9003384648
 31
0.0
  0
LINE
  5
64A
330
643
100
AcDbEntity
  8
0
  6
Continuous
 62
     7
370
     0
100
AcDbLine
 10
2.4563343537
 20
3.9003384648
 30
0.0
 11
2.5007679456
 21
3.9003384648
 31
0.0
  0
LINE
  5
64B
330
643
100
AcDbEntity
  8
0
  6
Continuous
 62
     7
370
     0
100
AcDbLine
 10
3.0159317778
 20
4.2476041003
 30
0.0
 11
3.0603653697
 21
4.2476041003
 31
0.0
  0
LINE
  5
64C
330
643
100
AcDbEntity
  8
0
  6
Continuous
 62
     7
370
     0
100
AcDbLine
 10
3.0603653697
 20
4.2476041003
 30
0.0
 11
3.0603653697
 21
3.9003384648
 31
0.0
  0
LINE
  5
64D
330
643
100
AcDbEntity
  8
0
  6
Continuous
 62
     7
370
     0
100
AcDbLine
 10
3.0603653697
 20
3.9003384648
 30
0.0
 11
3.0159317778
 21
3.9003384648
 31
0.0
  0
LINE
  5
64E
330
643
100
AcDbEntity
  8
0
  6
Continuous
 62
     7
370
     0
100
AcDbLine
 10
4.3619969168
 20
3.6832849274
 30
0.0
 11
3.3074848506
 21
3.6832849274
 31
0.0
  0
LINE
  5
64F
330
643
100
AcDbEntity
  8
0
  6
Continuous
 62
     7
370
     0
100
AcDbLine
 10
4.2265257431
 20
3.7817101243
 30
0.0
 11
3.3074848506
 21
3.7817101243
 31
0.0
  0
LINE
  5
650
330
643
100
AcDbEntity
  8
0
  6
Continuous
 62
     7
370
     0
100
AcDbLine
 10
3.3074848506
 20
4.2492751414
 30
0.0
 11
3.5262348506
 21
4.2492751414
 31
0.0
  0
LINE
  5
651
330
643
100
AcDbEntity
  8
0
  6
Continuous
 62
     7
370
     0
100
AcDbLine
 10
3.5262348506
 20
4.2492751414
 30
0.0
 11
3.5262348506
 21
3.7817101243
 31
0.0
  0
LINE
  5
652
330
643
100
AcDbEntity
  8
0
  6
Continuous
 62
     7
370
     0
100
AcDbLine
 10
3.5262348506
 20
3.6832849274
 30
0.0
 11
3.5262348506
 21
3.2457849274
 31
0.0
  0
MTEXT
  5
653
330
643
100
AcDbEntity
  8
0
  6
Continuous
 62
     7
370
     0
100
AcDbMText
 10
2.4242244363
 20
4.5773632984
 30
0.0
 40
0.21875
 41
0.0
 71
     1
 72
     1
  1

  7
SLDTEXTSTYLE0
 73
     1
 44
1.0
  0
MTEXT
  5
654
330
643
100
AcDbEntity
  8
0
  6
Continuous
 62
     7
370
     0
100
AcDbMText
 10
2.5563099226
 20
4.5740212683
 30
0.0
 40
0.21875
 41
0.0
 71
     1
 72
     1
  1
.10
  7
SLDTEXTSTYLE0
 73
     1
 44
1.0
  0
MTEXT
  5
655
330
643
100
AcDbEntity
  8
0
  6
Continuous
 62
     7
370
     0
100
AcDbMText
 10
2.5563099386
 20
4.1823220569
 30
0.0
 40
0.21875
 41
0.0
 71
     1
 72
     1
  1
2.5
  7
SLDTEXTSTYLE0
 73
     1
 44
1.0
  0
MTEXT
  5
656
330
643
100
AcDbEntity
  8
0
  6
Continuous
 62
     7
370
     0
100
AcDbMText
 10
3.1757217666
 20
4.5773632984
 30
0.0
 40
0.21875
 41
0.0
 71
     1
 72
     1
  1

  7
SLDTEXTSTYLE0
 73
     1
 44
1.0
  0
ENDBLK
  5
645
330
643
100
AcDbEntity
  8
0
100
AcDbBlockEnd
  0
BLOCK
  5
659
330
658
100
AcDbEntity
  8
0
100
AcDbBlockBegin
  2
_D_29
 70
     0
 10
0.0
 20
0.0
 30
0.0
  3
_D_29
  1

  0
SOLID
  5
65B
330
658
100
AcDbEntity
  8
0
  6
Continuous
 62
     7
370
     0
100
AcDbTrace
 10
8.731698943
 20
2.2069069746
 30
0.0
 11
8.766698943
 21
2.4344069746
 31
0.0
 12
8.696698943
 22
2.4344069746
 32
0.0
 13
8.696698943
 23
2.4344069746
 33
0.0
  0
SOLID
  5
65C
330
658
100
AcDbEntity
  8
0
  6
Continuous
 62
     7
370
     0
100
AcDbTrace
 10
8.731698943
 20
3.7817101243
 30
0.0
 11
8.696698943
 21
3.5542101243
 31
0.0
 12
8.766698943
 22
3.5542101243
 32
0.0
 13
8.766698943
 23
3.5542101243
 33
0.0
  0
LINE
  5
65D
330
658
100
AcDbEntity
  8
0
  6
Continuous
 62
     7
370
     0
100
AcDbLine
 10
8.5145250372
 20
2.9926375083
 30
0.0
 11
8.4700914453
 21
2.9926375083
 31
0.0
  0
LINE
  5
65E
330
658
100
AcDbEntity
  8
0
  6
Continuous
 62
     7
370
     0
100
AcDbLine
 10
8.4700914453
 20
2.9926375083
 30
0.0
 11
8.4700914453
 21
2.6453718729
 31
0.0
  0
LINE
  5
65F
330
658
100
AcDbEntity
  8
0
  6
Continuous
 62
     7
370
     0
100
AcDbLine
 10
8.4700914453
 20
2.6453718729
 30
0.0
 11
8.5145250372
 21
2.6453718729
 31
0.0
  0
LINE
  5
660
330
658
100
AcDbEntity
  8
0
  6
Continuous
 62
     7
370
     0
100
AcDbLine
 10
8.9488729129
 20
2.9926375083
 30
0.0
 11
8.9933065049
 21
2.9926375083
 31
0.0
  0
LINE
  5
661
330
658
100
AcDbEntity
  8
0
  6
Continuous
 62
     7
370
     0
100
AcDbLine
 10
8.9933065049
 20
2.9926375083
 30
0.0
 11
8.9933065049
 21
2.6453718729
 31
0.0
  0
LINE
  5
662
330
658
100
AcDbEntity
  8
0
  6
Continuous
 62
     7
370
     0
100
AcDbLine
 10
8.9933065049
 20
2.6453718729
 30
0.0
 11
8.9488729129
 21
2.6453718729
 31
0.0
  0
LINE
  5
663
330
658
100
AcDbEntity
  8
0
  6
Continuous
 62
     7
370
     0
100
AcDbLine
 10
7.3847060384
 20
2.2069069746
 30
0.0
 11
8.950448943
 21
2.2069069746
 31
0.0
  0
LINE
  5
664
330
658
100
AcDbEntity
  8
0
  6
Continuous
 62
     7
370
     0
100
AcDbLine
 10
7.3678863336
 20
3.7817101243
 30
0.0
 11
8.950448943
 21
3.7817101243
 31
0.0
  0
LINE
  5
665
330
658
100
AcDbEntity
  8
0
  6
Continuous
 62
     7
370
     0
100
AcDbLine
 10
8.731698943
 20
2.2069069746
 30
0.0
 11
8.731698943
 21
2.6009383491
 31
0.0
  0
LINE
  5
666
330
658
100
AcDbEntity
  8
0
  6
Continuous
 62
     7
370
     0
100
AcDbLine
 10
8.731698943
 20
3.7817101243
 30
0.0
 11
8.731698943
 21
3.3876787498
 31
0.0
  0
MTEXT
  5
667
330
658
100
AcDbEntity
  8
0
  6
Continuous
 62
     7
370
     0
100
AcDbMText
 10
8.4379815279
 20
3.3223967065
 30
0.0
 40
0.21875
 41
0.0
 71
     1
 72
     1
  1

  7
SLDTEXTSTYLE0
 73
     1
 44
1.0
  0
MTEXT
  5
668
330
658
100
AcDbEntity
  8
0
  6
Continuous
 62
     7
370
     0
100
AcDbMText
 10
8.4488430475
 20
3.3190546764
 30
0.0
 40
0.21875
 41
0.0
 71
     1
 72
     1
  1
1.57
  7
SLDTEXTSTYLE0
 73
     1
 44
1.0
  0
MTEXT
  5
669
330
658
100
AcDbEntity
  8
0
  6
Continuous
 62
     7
370
     0
100
AcDbMText
 10
8.5700670302
 20
2.927355465
 30
0.0
 40
0.21875
 41
0.0
 71
     1
 72
     1
  1
40
  7
SLDTEXTSTYLE0
 73
     1
 44
1.0
  0
MTEXT
  5
66A
330
658
100
AcDbEntity
  8
0
  6
Continuous
 62
     7
370
     0
100
AcDbMText
 10
9.1086629018
 20
3.3223967065
 30
0.0
 40
0.21875
 41
0.0
 71
     1
 72
     1
  1

  7
SLDTEXTSTYLE0
 73
     1
 44
1.0
  0
ENDBLK
  5
65A
330
658
100
AcDbEntity
  8
0
100
AcDbBlockEnd
  0
BLOCK
  5
66D
330
66C
100
AcDbEntity
  8
0
100
AcDbBlockBegin
  2
_D_30
 70
     0
 10
0.0
 20
0.0
 30
0.0
  3
_D_30
  1

  0
SOLID
  5
66F
330
66C
100
AcDbEntity
  8
0
  6
Continuous
 62
     7
370
     0
100
AcDbTrace
 10
8.731698943
 20
2.2069069746
 30
0.0
 11
8.766698943
 21
2.4344069746
 31
0.0
 12
8.696698943
 22
2.4344069746
 32
0.0
 13
8.696698943
 23
2.4344069746
 33
0.0
  0
SOLID
  5
670
330
66C
100
AcDbEntity
  8
0
  6
Continuous
 62
     7
370
     0
100
AcDbTrace
 10
8.731698943
 20
2.1169069746
 30
0.0
 11
8.696698943
 21
1.8894069746
 31
0.0
 12
8.766698943
 22
1.8894069746
 32
0.0
 13
8.766698943
 23
1.8894069746
 33
0.0
  0
LINE
  5
671
330
66C
100
AcDbEntity
  8
0
  6
Continuous
 62
     7
370
     0
100
AcDbLine
 10
9.1611861075
 20
1.6822909035
 30
0.0
 11
9.1167525156
 21
1.6822909035
 31
0.0
  0
LINE
  5
672
330
66C
100
AcDbEntity
  8
0
  6
Continuous
 62
     7
370
     0
100
AcDbLine
 10
9.1167525156
 20
1.6822909035
 30
0.0
 11
9.1167525156
 21
1.335025268
 31
0.0
  0
LINE
  5
673
330
66C
100
AcDbEntity
  8
0
  6
Continuous
 62
     7
370
     0
100
AcDbLine
 10
9.1167525156
 20
1.335025268
 30
0.0
 11
9.1611861075
 21
1.335025268
 31
0.0
  0
LINE
  5
674
330
66C
100
AcDbEntity
  8
0
  6
Continuous
 62
     7
370
     0
100
AcDbLine
 10
9.6763499397
 20
1.6822909035
 30
0.0
 11
9.7207835316
 21
1.6822909035
 31
0.0
  0
LINE
  5
675
330
66C
100
AcDbEntity
  8
0
  6
Continuous
 62
     7
370
     0
100
AcDbLine
 10
9.7207835316
 20
1.6822909035
 30
0.0
 11
9.7207835316
 21
1.335025268
 31
0.0
  0
LINE
  5
676
330
66C
100
AcDbEntity
  8
0
  6
Continuous
 62
     7
370
     0
100
AcDbLine
 10
9.7207835316
 20
1.335025268
 30
0.0
 11
9.6763499397
 21
1.335025268
 31
0.0
  0
LINE
  5
677
330
66C
100
AcDbEntity
  8
0
  6
Continuous
 62
     7
370
     0
100
AcDbLine
 10
7.3847060384
 20
2.2069069746
 30
0.0
 11
8.950448943
 21
2.2069069746
 31
0.0
  0
LINE
  5
678
330
66C
100
AcDbEntity
  8
0
  6
Continuous
 62
     7
370
     0
100
AcDbLine
 10
7.3847060384
 20
2.1169069746
 30
0.0
 11
8.950448943
 21
2.1169069746
 31
0.0
  0
LINE
  5
679
330
66C
100
AcDbEntity
  8
0
  6
Continuous
 62
     7
370
     0
100
AcDbLine
 10
8.950448943
 20
1.6839619446
 30
0.0
 11
8.731698943
 21
1.6839619446
 31
0.0
  0
LINE
  5
67A
330
66C
100
AcDbEntity
  8
0
  6
Continuous
 62
     7
370
     0
100
AcDbLine
 10
8.731698943
 20
1.6839619446
 30
0.0
 11
8.731698943
 21
2.1169069746
 31
0.0
  0
LINE
  5
67B
330
66C
100
AcDbEntity
  8
0
  6
Continuous
 62
     7
370
     0
100
AcDbLine
 10
8.731698943
 20
2.2069069746
 30
0.0
 11
8.731698943
 21
2.6444069746
 31
0.0
  0
MTEXT
  5
67C
330
66C
100
AcDbEntity
  8
0
  6
Continuous
 62
     7
370
     0
100
AcDbMText
 10
9.2167280845
 20
2.0087080715
 30
0.0
 40
0.21875
 41
0.0
 71
     1
 72
     1
  1
.09
  7
SLDTEXTSTYLE0
 73
     1
 44
1.0
  0
MTEXT
  5
67D
330
66C
100
AcDbEntity
  8
0
  6
Continuous
 62
     7
370
     0
100
AcDbMText
 10
9.2167281005
 20
1.6170088602
 30
0.0
 40
0.21875
 41
0.0
 71
     1
 72
     1
  1
2.3
  7
SLDTEXTSTYLE0
 73
     1
 44
1.0
  0
MTEXT
  5
67E
330
66C
100
AcDbEntity
  8
0
  6
Continuous
 62
     7
370
     0
100
AcDbMText
 10
9.8361399445
 20
2.0120501016
 30
0.0
 40
0.21875
 41
0.0
 71
     1
 72
     1
  1
REF.
  7
SLDTEXTSTYLE0
 73
     1
 44
1.0
  0
ENDBLK
  5
66E
330
66C
100
AcDbEntity
  8
0
100
AcDbBlockEnd
  0
ENDSEC
  0
SECTION
  2
ENTITIES
  0
LINE
  5
73
330
1F
100
AcDbEntity
  8
0
  6
Continuous
 62
     7
370
     0
100
AcDbLine
 10
0.5481903081
 20
18.7338780488
 30
0.0
 11
29.2061903081
 21
18.7338780488
 31
0.0
  0
LINE
  5
74
330
1F
100
AcDbEntity
  8
0
  6
Continuous
 62
     7
370
     0
100
AcDbLine
 10
29.2061903081
 20
0.5758780488
 30
0.0
 11
29.2061903081
 21
18.7338780488
 31
0.0
  0
LINE
  5
75
330
1F
100
AcDbEntity
  8
0
  6
Continuous
 62
     7
370
     0
100
AcDbLine
 10
29.2061903081
 20
0.5758780488
 30
0.0
 11
0.5481903081
 21
0.5758780488
 31
0.0
  0
LINE
  5
76
330
1F
100
AcDbEntity
  8
0
  6
Continuous
 62
     7
370
     0
100
AcDbLine
 10
0.5481903081
 20
18.7338780488
 30
0.0
 11
0.5481903081
 21
0.5758780488
 31
0.0
  0
LINE
  5
77
330
1F
100
AcDbEntity
  8
0
  6
Continuous
 62
     7
370
     0
100
AcDbLine
 10
0.4396903081
 20
18.8423780488
 30
0.0
 11
29.3146903081
 21
18.8423780488
 31
0.0
  0
LINE
  5
78
330
1F
100
AcDbEntity
  8
0
  6
Continuous
 62
     7
370
     0
100
AcDbLine
 10
29.3146903081
 20
0.4673780488
 30
0.0
 11
0.4396903081
 21
0.4673780488
 31
0.0
  0
LINE
  5
79
330
1F
100
AcDbEntity
  8
0
  6
Continuous
 62
     7
370
     0
100
AcDbLine
 10
0.4396903081
 20
18.8423780488
 30
0.0
 11
0.4396903081
 21
0.4673780488
 31
0.0
  0
LINE
  5
7A
330
1F
100
AcDbEntity
  8
0
  6
Continuous
 62
     7
370
     0
100
AcDbLine
 10
29.3146903081
 20
0.4673780488
 30
0.0
 11
29.3146903081
 21
18.8423780488
 31
0.0
  0
LINE
  5
7B
330
1F
100
AcDbEntity
  8
0
  6
Continuous
 62
     7
370
     0
100
AcDbLine
 10
0.5481903081
 20
18.0233780488
 30
0.0
 11
29.2061903081
 21
18.0233780488
 31
0.0
  0
LINE
  5
7C
330
1F
100
AcDbEntity
  8
0
  6
Continuous
 62
     7
370
     0
100
AcDbLine
 10
3.2265086362
 20
18.7338780488
 30
0.0
 11
3.2265086362
 21
18.0233780488
 31
0.0
  0
LINE
  5
7D
330
1F
100
AcDbEntity
  8
0
  6
Continuous
 62
     7
370
     0
100
AcDbLine
 10
1.9439557965
 20
18.7338780488
 30
0.0
 11
1.9439557965
 21
18.0233780488
 31
0.0
  0
LINE
  5
7E
330
1F
100
AcDbEntity
  8
0
  6
Continuous
 62
     7
370
     0
100
AcDbLine
 10
27.0186903081
 20
18.0233780488
 30
0.0
 11
27.0186903081
 21
18.7338780488
 31
0.0
  0
LINE
  5
7F
330
1F
100
AcDbEntity
  8
0
  6
Continuous
 62
     7
370
     0
100
AcDbLine
 10
25.7061903081
 20
18.0233780488
 30
0.0
 11
25.7061903081
 21
18.7338780488
 31
0.0
  0
LINE
  5
80
330
1F
100
AcDbEntity
  8
0
  6
Continuous
 62
     7
370
     0
100
AcDbLine
 10
25.5976903081
 20
18.0233780488
 30
0.0
 11
25.5976903081
 21
18.7338780488
 31
0.0
  0
LINE
  5
81
330
1F
100
AcDbEntity
  8
0
  6
Continuous
 62
     7
370
     0
100
AcDbLine
 10
0.7834363551
 20
18.1582802027
 30
0.0
 11
0.7834363551
 21
18.6229660223
 31
0.0
  0
LINE
  5
82
330
1F
100
AcDbEntity
  8
0
  6
Continuous
 62
     7
370
     0
100
AcDbLine
 10
1.1070205026
 20
18.1873230664
 30
0.0
 11
1.1070205026
 21
18.6229660223
 31
0.0
  0
LINE
  5
83
330
1F
100
AcDbEntity
  8
0
  6
Continuous
 62
     7
370
     0
100
AcDbLine
 10
1.2324093597
 20
18.2340969176
 30
0.0
 11
1.2324093597
 21
18.6229660223
 31
0.0
  0
LINE
  5
84
330
1F
100
AcDbEntity
  8
0
  6
Continuous
 62
     7
370
     0
100
AcDbLine
 10
1.1919613413
 20
18.2340969176
 30
0.0
 11
1.1919613413
 21
18.6229660223
 31
0.0
  0
LINE
  5
85
330
1F
100
AcDbEntity
  8
0
  6
Continuous
 62
     7
370
     0
100
AcDbLine
 10
1.4123937126
 20
18.1582802027
 30
0.0
 11
1.4123937126
 21
18.6229660223
 31
0.0
  0
LINE
  5
86
330
1F
100
AcDbEntity
  8
0
  6
Continuous
 62
     7
370
     0
100
AcDbLine
 10
1.3173501984
 20
18.1873230664
 30
0.0
 11
1.3173501984
 21
18.6229660223
 31
0.0
  0
LINE
  5
87
330
1F
100
AcDbEntity
  8
0
  6
Continuous
 62
     7
370
     0
100
AcDbLine
 10
1.1360633663
 20
18.1582802027
 30
0.0
 11
1.2883073347
 21
18.1582802027
 31
0.0
  0
LINE
  5
88
330
1F
100
AcDbEntity
  8
0
  6
Continuous
 62
     7
370
     0
100
AcDbLine
 10
0.7834363551
 20
18.1582802027
 30
0.0
 11
0.9330940233
 21
18.1582802027
 31
0.0
  0
LINE
  5
89
330
1F
100
AcDbEntity
  8
0
  6
Continuous
 62
     7
370
     0
100
AcDbLine
 10
0.9330940233
 20
18.379005967
 30
0.0
 11
0.8056827652
 21
18.379005967
 31
0.0
  0
LINE
  5
8A
330
1F
100
AcDbEntity
  8
0
  6
Continuous
 62
     7
370
     0
100
AcDbLine
 10
0.9330940233
 20
18.402240258
 30
0.0
 11
0.8056827652
 21
18.402240258
 31
0.0
  0
LINE
  5
8B
330
1F
100
AcDbEntity
  8
0
  6
Continuous
 62
     7
370
     0
100
AcDbLine
 10
0.8056827652
 20
18.402240258
 30
0.0
 11
0.8056827652
 21
18.3906231125
 31
0.0
  0
LINE
  5
8C
330
1F
100
AcDbEntity
  8
0
  6
Continuous
 62
     7
370
     0
100
AcDbLine
 10
0.8056827652
 20
18.379005967
 30
0.0
 11
0.8056827652
 21
18.3906231125
 31
0.0
  0
LINE
  5
8D
330
1F
100
AcDbEntity
  8
0
  6
Continuous
 62
     7
370
     0
100
AcDbLine
 10
1.4123937126
 20
18.1582802027
 30
0.0
 11
1.4701953762
 21
18.1582802027
 31
0.0
  0
LINE
  5
8E
330
1F
100
AcDbEntity
  8
0
  6
Continuous
 62
     7
370
     0
100
AcDbLine
 10
1.6328354131
 20
18.3209202395
 30
0.0
 11
1.6328354131
 21
18.4603259854
 31
0.0
  0
LINE
  5
8F
330
1F
100
AcDbEntity
  8
0
  6
Continuous
 62
     7
370
     0
100
AcDbLine
 10
1.547368252
 20
18.379005967
 30
0.0
 11
1.547368252
 21
18.402240258
 31
0.0
  0
LINE
  5
90
330
1F
100
AcDbEntity
  8
0
  6
Continuous
 62
     7
370
     0
100
AcDbLine
 10
1.4750974703
 20
18.379005967
 30
0.0
 11
1.4750974703
 21
18.402240258
 31
0.0
  0
LINE
  5
91
330
1F
100
AcDbEntity
  8
0
  6
Continuous
 62
     7
370
     0
100
AcDbLine
 10
1.547368252
 20
18.379005967
 30
0.0
 11
1.4750974703
 21
18.379005967
 31
0.0
  0
LINE
  5
92
330
1F
100
AcDbEntity
  8
0
  6
Continuous
 62
     7
370
     0
100
AcDbLine
 10
1.547368252
 20
18.402240258
 30
0.0
 11
1.4750974703
 21
18.402240258
 31
0.0
  0
LINE
  5
93
330
1F
100
AcDbEntity
  8
0
  6
Continuous
 62
     7
370
     0
100
AcDbLine
 10
1.2324093597
 20
18.6229660223
 30
0.0
 11
1.3173501984
 21
18.6229660223
 31
0.0
  0
LINE
  5
94
330
1F
100
AcDbEntity
  8
0
  6
Continuous
 62
     7
370
     0
100
AcDbLine
 10
0.7834363551
 20
18.6229660223
 30
0.0
 11
0.9330940233
 21
18.6229660223
 31
0.0
  0
LINE
  5
95
330
1F
100
AcDbEntity
  8
0
  6
Continuous
 62
     7
370
     0
100
AcDbLine
 10
1.1070205026
 20
18.6229660223
 30
0.0
 11
1.1919613413
 21
18.6229660223
 31
0.0
  0
LINE
  5
96
330
1F
100
AcDbEntity
  8
0
  6
Continuous
 62
     7
370
     0
100
AcDbLine
 10
1.4123937126
 20
18.6229660223
 30
0.0
 11
1.4701953762
 21
18.6229660223
 31
0.0
  0
LINE
  5
97
330
1F
100
AcDbEntity
  8
0
  6
Continuous
 62
     7
370
     0
100
AcDbLine
 10
1.8376750455
 20
18.7338780488
 30
0.0
 11
1.8376750455
 21
18.0233780488
 31
0.0
  0
LINE
  5
98
330
1F
100
AcDbEntity
  8
0
  6
Continuous
 62
     7
370
     0
100
AcDbLine
 10
14.6705919096
 20
18.0233780488
 30
0.0
 11
14.6705919096
 21
18.7338780488
 31
0.0
  0
LINE
  5
99
330
1F
100
AcDbEntity
  8
0
  6
Continuous
 62
     7
370
     0
100
AcDbLine
 10
14.7790919096
 20
18.0233780488
 30
0.0
 11
14.7790919096
 21
18.7338780488
 31
0.0
  0
LINE
  5
9A
330
1F
100
AcDbEntity
  8
0
  6
Continuous
 62
     7
370
     0
100
AcDbLine
 10
16.0915919096
 20
18.0233780488
 30
0.0
 11
16.0915919096
 21
18.7338780488
 31
0.0
  0
ARC
  5
9B
330
1F
100
AcDbEntity
  8
0
  6
Continuous
 62
     7
370
     0
100
AcDbCircle
 10
0.9330940233
 20
18.5126031402
 30
0.0
 40
0.1103628821725131
100
AcDbArc
 50
270.0
 51
90.0
  0
ARC
  5
9C
330
1F
100
AcDbEntity
  8
0
  6
Continuous
 62
     7
370
     0
100
AcDbCircle
 10
1.4701953762
 20
18.4603259854
 30
0.0
 40
0.1626400368858043
100
AcDbArc
 50
0.0
 51
90.0
  0
ARC
  5
9D
330
1F
100
AcDbEntity
  8
0
  6
Continuous
 62
     7
370
     0
100
AcDbCircle
 10
0.9330940233
 20
18.2686430848
 30
0.0
 40
0.1103628821725131
100
AcDbArc
 50
270.0
 51
90.0
  0
ARC
  5
9E
330
1F
100
AcDbEntity
  8
0
  6
Continuous
 62
     7
370
     0
100
AcDbCircle
 10
1.1360633663
 20
18.1873230664
 30
0.0
 40
0.0290428637296163
100
AcDbArc
 50
180.0
 51
270.0
  0
ARC
  5
9F
330
1F
100
AcDbEntity
  8
0
  6
Continuous
 62
     7
370
     0
100
AcDbCircle
 10
1.2091750687
 20
18.2340969176
 30
0.0
 40
0.0232342909836866
100
AcDbArc
 50
277.4442840975
 51
0.0
  0
ARC
  5
A0
330
1F
100
AcDbEntity
  8
0
  6
Continuous
 62
     7
370
     0
100
AcDbCircle
 10
1.2151956323
 20
18.2340969176
 30
0.0
 40
0.0232342909837057
100
AcDbArc
 50
180.0
 51
262.5557159021
  0
ARC
  5
A1
330
1F
100
AcDbEntity
  8
0
  6
Continuous
 62
     7
370
     0
100
AcDbCircle
 10
1.4701953762
 20
18.3209202395
 30
0.0
 40
0.1626400368858079
100
AcDbArc
 50
270.0
 51
0.0
  0
ARC
  5
A2
330
1F
100
AcDbEntity
  8
0
  6
Continuous
 62
     7
370
     0
100
AcDbCircle
 10
1.2883073347
 20
18.1873230664
 30
0.0
 40
0.029042863729611
100
AcDbArc
 50
270.0
 51
0.0
  0
INSERT
  5
A9
330
1F
100
AcDbEntity
  8
0
  6
Continuous
 62
     7
370
     0
100
AcDbBlockReference
  2
SW_NOTE_0
 10
22.8224026478
 20
1.0724859963
 30
0.0
  0
INSERT
  5
AF
330
1F
100
AcDbEntity
  8
0
  6
Continuous
 62
     7
370
     0
100
AcDbBlockReference
  2
SW_NOTE_1
 10
10.5465302394
 20
15.2947676099
 30
0.0
  0
INSERT
  5
C1
330
1F
100
AcDbEntity
  8
0
  6
Continuous
 62
     7
370
     0
100
AcDbBlockReference
  2
SW_NOTE_2
 10
12.2620194326
 20
6.2362497087
 30
0.0
  0
INSERT
  5
CB
330
1F
100
AcDbEntity
  8
0
  6
Continuous
 62
     7
370
     0
100
AcDbBlockReference
  2
SW_NOTE_3
 10
0.7586881821
 20
17.549550579
 30
0.0
  0
MTEXT
  5
CC
330
1F
100
AcDbEntity
  8
0
  6
Continuous
 62
     7
370
     0
100
AcDbMText
 10
16.9243810209
 20
17.9259893439
 30
0.0
 40
0.21875
 41
0.0
 71
     1
 72
     1
  1
UPDATE REPLACES PART NO. AN-2813  & AN-2813-B
  7
SLDTEXTSTYLE0
 73
     1
 44
1.0
  0
INSERT
  5
D4
330
1F
100
AcDbEntity
  8
0
  6
Continuous
 62
     7
370
     0
100
AcDbBlockReference
  2
SW_NOTE_4
 10
12.132189797
 20
2.131994157
 30
0.0
  0
INSERT
  5
DC
330
1F
100
AcDbEntity
  8
0
  6
Continuous
 62
     7
370
     0
100
AcDbBlockReference
  2
SW_NOTE_5
 10
25.1386241313
 20
17.5387576457
 30
0.0
  0
MTEXT
  5
DD
330
1F
100
AcDbEntity
  8
0
  6
Continuous
 62
     7
370
     0
100
AcDbMText
 10
28.120768342
 20
18.5663036022
 30
0.0
 40
0.328125
 41
0.0
 71
     2
 72
     1
  1
9-30-15
  7
SLDTEXTSTYLE0
 73
     1
 44
1.0
  0
MTEXT
  5
DE
330
1F
100
AcDbEntity
  8
0
  6
Continuous
 62
     7
370
     0
100
AcDbMText
 10
8.9997791265
 20
18.593349998
 30
0.0
 40
0.328125
 41
0.0
 71
     2
 72
     1
  1
NEMA DIE CAST ALUM. ENCLOSURE W/MTG. BRKT
  7
SLDTEXTSTYLE0
 73
     1
 44
1.0
  0
MTEXT
  5
DF
330
1F
100
AcDbEntity
  8
0
  6
Continuous
 62
     7
370
     0
100
AcDbMText
 10
18.8424729429
 20
18.5429817044
 30
0.0
 40
0.328125
 41
0.0
 71
     2
 72
     1
  1
AN-2813-A
  7
SLDTEXTSTYLE0
 73
     1
 44
1.0
  0
INSERT
  5
E5
330
1F
100
AcDbEntity
  8
0
  6
Continuous
 62
     7
370
     0
100
AcDbBlockReference
  2
SW_NOTE_6
 10
2.2197597181
 20
18.3857419164
 30
0.0
  0
INSERT
  5
EB
330
1F
100
AcDbEntity
  8
0
  6
Continuous
 62
     7
370
     0
100
AcDbBlockReference
  2
SW_NOTE_7
 10
15.1267314152
 20
18.3728787477
 30
0.0
  0
INSERT
  5
F1
330
1F
100
AcDbEntity
  8
0
  6
Continuous
 62
     7
370
     0
100
AcDbBlockReference
  2
SW_NOTE_8
 10
25.740117598
 20
18.3809211767
 30
0.0
  0
MTEXT
  5
F2
330
1F
100
AcDbEntity
  8
0
  6
Continuous
 62
     7
370
     0
100
AcDbMText
 10
22.847418103
 20
18.5663036182
 30
0.0
 40
0.328125
 41
0.0
 71
     2
 72
     1
  1
AN-2813-AB
  7
SLDTEXTSTYLE0
 73
     1
 44
1.0
  0
MTEXT
  5
F3
330
1F
100
AcDbEntity
  8
0
  6
Continuous
 62
     7
370
     0
100
AcDbMText
 10
20.6896524518
 20
18.5429816884
 30
0.0
 40
0.328125
 41
0.0
 71
     2
 72
     1
  1
&
  7
SLDTEXTSTYLE0
 73
     1
 44
1.0
  0
CIRCLE
  5
F4
330
1F
100
AcDbEntity
  8
0
  6
Continuous
 62
     7
370
    15
100
AcDbCircle
 10
4.6722060384
 20
13.9443595685
 30
0.0
 40
0.0965000000000007
  0
CIRCLE
  5
F5
330
1F
100
AcDbEntity
  8
0
  6
Continuous
 62
     7
370
    15
100
AcDbCircle
 10
4.6722060384
 20
8.3823595685
 30
0.0
 40
0.0964999999999989
  0
CIRCLE
  5
F6
330
1F
100
AcDbEntity
  8
0
  6
Continuous
 62
     7
370
    15
100
AcDbCircle
 10
6.9222060384
 20
13.9443595685
 30
0.0
 40
0.0965000000000007
  0
ARC
  5
F7
330
1F
100
AcDbEntity
  8
0
  6
Continuous
 62
     7
370
    15
100
AcDbCircle
 10
4.4842060384
 20
8.2573595685
 30
0.0
 40
0.1870000000000003
100
AcDbArc
 50
180.0
 51
270.0
  0
LINE
  5
F8
330
1F
100
AcDbEntity
  8
0
  6
Continuous
 62
     7
370
    15
100
AcDbLine
 10
4.2972060198
 20
14.0693596782
 30
0.0
 11
4.2972060198
 21
13.56857389
 31
0.0
  0
LINE
  5
F9
330
1F
100
AcDbEntity
  8
0
  6
Continuous
 62
     7
370
    15
100
AcDbLine
 10
4.2972060198
 20
8.7581452471
 30
0.0
 11
4.2972060198
 21
8.2573594589
 31
0.0
  0
ARC
  5
FA
330
1F
100
AcDbEntity
  8
0
  6
Continuous
 62
     7
370
    15
100
AcDbCircle
 10
4.4842060384
 20
14.0693595685
 30
0.0
 40
0.1870000000000012
100
AcDbArc
 50
90.0
 51
180.0
  0
LINE
  5
FB
330
1F
100
AcDbEntity
  8
0
  6
Continuous
 62
     7
370
    15
100
AcDbLine
 10
7.1102060171
 20
14.2563595713
 30
0.0
 11
4.4842060596
 21
14.2563595713
 31
0.0
  0
ARC
  5
FC
330
1F
100
AcDbEntity
  8
0
  6
Continuous
 62
     7
370
    15
100
AcDbCircle
 10
7.1102060384
 20
14.0693595685
 30
0.0
 40
0.1870000000000012
100
AcDbArc
 50
0.0
 51
90.0
  0
LINE
  5
FD
330
1F
100
AcDbEntity
  8
0
  6
Continuous
 62
     7
370
    15
100
AcDbLine
 10
7.2972060569
 20
14.0693596782
 30
0.0
 11
7.2972060569
 21
13.56857389
 31
0.0
  0
LINE
  5
FE
330
1F
100
AcDbEntity
  8
0
  6
Continuous
 62
     7
370
    15
100
AcDbLine
 10
7.2972060569
 20
8.7581452471
 30
0.0
 11
7.2972060569
 21
8.2573594589
 31
0.0
  0
ARC
  5
FF
330
1F
100
AcDbEntity
  8
0
  6
Continuous
 62
     7
370
    15
100
AcDbCircle
 10
7.1102060384
 20
8.2573595685
 30
0.0
 40
0.1870000000000003
100
AcDbArc
 50
270.0
 51
0.0
  0
LINE
  5
100
330
1F
100
AcDbEntity
  8
0
  6
Continuous
 62
     7
370
    15
100
AcDbLine
 10
7.1102060171
 20
8.0703595658
 30
0.0
 11
4.4842060596
 21
8.0703595658
 31
0.0
  0
CIRCLE
  5
101
330
1F
100
AcDbEntity
  8
0
  6
Continuous
 62
     7
370
    15
100
AcDbCircle
 10
6.9222060384
 20
8.3823595685
 30
0.0
 40
0.0964999999999989
  0
LINE
  5
102
330
1F
100
AcDbEntity
  8
0
  6
Continuous
 62
     7
370
    15
100
AcDbLine
 10
5.0058076407
 20
13.3838320508
 30
0.0
 11
5.0058076407
 21
13.3661155088
 31
0.0
  0
LINE
  5
103
330
1F
100
AcDbEntity
  8
0
  6
Continuous
 62
     7
370
    15
100
AcDbLine
 10
5.0058076407
 20
13.3661155088
 30
0.0
 11
4.9940564031
 21
13.3661155088
 31
0.0
  0
LINE
  5
104
330
1F
100
AcDbEntity
  8
0
  6
Continuous
 62
     7
370
    15
100
AcDbLine
 10
4.9940564031
 20
13.3838320508
 30
0.0
 11
4.9940564031
 21
13.3661155088
 31
0.0
  0
LINE
  5
105
330
1F
100
AcDbEntity
  8
0
  6
Continuous
 62
     7
370
    15
100
AcDbLine
 10
5.0058076407
 20
13.3838320508
 30
0.0
 11
4.9940564031
 21
13.3838320508
 31
0.0
  0
LINE
  5
106
330
1F
100
AcDbEntity
  8
0
  6
Continuous
 62
     7
370
    15
100
AcDbLine
 10
6.8562680107
 20
13.5098162354
 30
0.0
 11
5.0727965735
 21
13.5098162354
 31
0.0
  0
ARC
  5
107
330
1F
100
AcDbEntity
  8
0
  6
Continuous
 62
     7
370
    15
100
AcDbCircle
 10
6.8562679916
 20
13.3838320095
 30
0.0
 40
0.1259842519685037
100
AcDbArc
 50
0.3978905558
 51
90.0
  0
ARC
  5
108
330
1F
100
AcDbEntity
  8
0
  6
Continuous
 62
     7
370
    15
100
AcDbCircle
 10
7.1397257234
 20
13.3858005134
 30
0.0
 40
0.1574803149606302
100
AcDbArc
 50
180.3978905558
 51
269.6021094442
  0
ARC
  5
109
330
1F
100
AcDbEntity
  8
0
  6
Continuous
 62
     7
370
    15
100
AcDbCircle
 10
7.1377572195
 20
13.1023427817
 30
0.0
 40
0.1259842519685046
100
AcDbArc
 50
0.0
 51
89.6021094442
  0
LINE
  5
10A
330
1F
100
AcDbEntity
  8
0
  6
Continuous
 62
     7
370
    15
100
AcDbLine
 10
7.2637415102
 20
9.2440683004
 30
0.0
 11
7.2637415102
 21
13.1023428092
 31
0.0
  0
ARC
  5
10B
330
1F
100
AcDbEntity
  8
0
  6
Continuous
 62
     7
370
    15
100
AcDbCircle
 10
7.1377572195
 20
9.24406823
 30
0.0
 40
0.1259842519685055
100
AcDbArc
 50
270.0
 51
0.0
  0
LINE
  5
10C
330
1F
100
AcDbEntity
  8
0
  6
Continuous
 62
     7
370
    15
100
AcDbLine
 10
6.8050800286
 20
9.1180839691
 30
0.0
 11
7.1377571789
 21
9.1180839691
 31
0.0
  0
ARC
  5
10D
330
1F
100
AcDbEntity
  8
0
  6
Continuous
 62
     7
370
    15
100
AcDbCircle
 10
6.8050800541
 20
8.960603663
 30
0.0
 40
0.1574803149606296
100
AcDbArc
 50
90.0
 51
180.0
  0
LINE
  5
10E
330
1F
100
AcDbEntity
  8
0
  6
Continuous
 62
     7
370
    15
100
AcDbLine
 10
6.6475997612
 20
8.9428870863
 30
0.0
 11
6.6475997612
 21
8.9606036283
 31
0.0
  0
ARC
  5
10F
330
1F
100
AcDbEntity
  8
0
  6
Continuous
 62
     7
370
    15
100
AcDbCircle
 10
6.5216154872
 20
8.9428871276
 30
0.0
 40
0.1259842519685037
100
AcDbArc
 50
270.0
 51
0.0
  0
LINE
  5
110
330
1F
100
AcDbEntity
  8
0
  6
Continuous
 62
     7
370
    15
100
AcDbLine
 10
4.7381440661
 20
8.8169029017
 30
0.0
 11
6.5216155033
 21
8.8169029017
 31
0.0
  0
ARC
  5
111
330
1F
100
AcDbEntity
  8
0
  6
Continuous
 62
     7
370
    15
100
AcDbCircle
 10
4.7381440851
 20
8.9428871276
 30
0.0
 40
0.1259842519685042
100
AcDbArc
 50
180.3978905558
 51
270.0
  0
ARC
  5
112
330
1F
100
AcDbEntity
  8
0
  6
Continuous
 62
     7
370
    15
100
AcDbCircle
 10
4.4546863533
 20
8.9409186237
 30
0.0
 40
0.1574803149606302
100
AcDbArc
 50
0.3978905558
 51
89.6021094442
  0
ARC
  5
113
330
1F
100
AcDbEntity
  8
0
  6
Continuous
 62
     7
370
    15
100
AcDbCircle
 10
4.4566548573
 20
9.2243763554
 30
0.0
 40
0.1259842519685042
100
AcDbArc
 50
180.0
 51
269.6021094442
  0
LINE
  5
114
330
1F
100
AcDbEntity
  8
0
  6
Continuous
 62
     7
370
    15
100
AcDbLine
 10
4.3306705666
 20
13.0826508367
 30
0.0
 11
4.3306705666
 21
9.2243763278
 31
0.0
  0
ARC
  5
115
330
1F
100
AcDbEntity
  8
0
  6
Continuous
 62
     7
370
    15
100
AcDbCircle
 10
4.4566548573
 20
13.0826509071
 30
0.0
 40
0.1259842519685037
100
AcDbArc
 50
90.0
 51
180.0
  0
LINE
  5
116
330
1F
100
AcDbEntity
  8
0
  6
Continuous
 62
     7
370
    15
100
AcDbLine
 10
4.7893320481
 20
13.208635168
 30
0.0
 11
4.4566548979
 21
13.208635168
 31
0.0
  0
ARC
  5
117
330
1F
100
AcDbEntity
  8
0
  6
Continuous
 62
     7
370
    15
100
AcDbCircle
 10
4.7893320226
 20
13.3661154741
 30
0.0
 40
0.1574803149606314
100
AcDbArc
 50
270.0
 51
0.0
  0
LINE
  5
118
330
1F
100
AcDbEntity
  8
0
  6
Continuous
 62
     7
370
    15
100
AcDbLine
 10
4.9468123155
 20
13.3838320508
 30
0.0
 11
4.9468123155
 21
13.3661155088
 31
0.0
  0
ARC
  5
119
330
1F
100
AcDbEntity
  8
0
  6
Continuous
 62
     7
370
    15
100
AcDbCircle
 10
5.0727965895
 20
13.3838320095
 30
0.0
 40
0.1259842519685037
100
AcDbArc
 50
90.0
 51
180.0
  0
ARC
  5
11A
330
1F
100
AcDbEntity
  8
0
  6
Continuous
 62
     7
370
    15
100
AcDbCircle
 10
4.4566548573
 20
9.2243763554
 30
0.0
 40
0.0787401574803104
100
AcDbArc
 50
179.9999999996
 51
269.6021094442
  0
ARC
  5
11B
330
1F
100
AcDbEntity
  8
0
  6
Continuous
 62
     7
370
    15
100
AcDbCircle
 10
4.4546863533
 20
8.9409186237
 30
0.0
 40
0.2047244094489632
100
AcDbArc
 50
0.3978905558
 51
89.6021094442
  0
ARC
  5
11C
330
1F
100
AcDbEntity
  8
0
  6
Continuous
 62
     7
370
    15
100
AcDbCircle
 10
4.7381440851
 20
8.9428871276
 30
0.0
 40
0.0787401574802828
100
AcDbArc
 50
180.3978905558
 51
270.0
  0
LINE
  5
11D
330
1F
100
AcDbEntity
  8
0
  6
Continuous
 62
     7
370
    15
100
AcDbLine
 10
6.5216155033
 20
8.8641469159
 30
0.0
 11
4.7381440661
 21
8.8641469159
 31
0.0
  0
ARC
  5
11E
330
1F
100
AcDbEntity
  8
0
  6
Continuous
 62
     7
370
    15
100
AcDbCircle
 10
6.5216154872
 20
8.9428871276
 30
0.0
 40
0.0787401574803113
100
AcDbArc
 50
270.0
 51
0.0000000002
  0
LINE
  5
11F
330
1F
100
AcDbEntity
  8
0
  6
Continuous
 62
     7
370
    15
100
AcDbLine
 10
6.6003556736
 20
8.9428870863
 30
0.0
 11
6.6003556736
 21
8.9606036283
 31
0.0
  0
ARC
  5
120
330
1F
100
AcDbEntity
  8
0
  6
Continuous
 62
     7
370
    15
100
AcDbCircle
 10
6.8050800541
 20
8.960603663
 30
0.0
 40
0.2047244094488558
100
AcDbArc
 50
90.0
 51
179.9999999997
  0
LINE
  5
121
330
1F
100
AcDbEntity
  8
0
  6
Continuous
 62
     7
370
    15
100
AcDbLine
 10
7.1377571789
 20
9.16532813
 30
0.0
 11
6.8050800286
 21
9.16532813
 31
0.0
  0
ARC
  5
122
330
1F
100
AcDbEntity
  8
0
  6
Continuous
 62
     7
370
    15
100
AcDbCircle
 10
7.1377572195
 20
9.24406823
 30
0.0
 40
0.0787401574803095
100
AcDbArc
 50
270.0
 51
0.0000000002
  0
LINE
  5
123
330
1F
100
AcDbEntity
  8
0
  6
Continuous
 62
     7
370
    15
100
AcDbLine
 10
7.2164973493
 20
13.1023428092
 30
0.0
 11
7.2164973493
 21
9.2440683004
 31
0.0
  0
ARC
  5
124
330
1F
100
AcDbEntity
  8
0
  6
Continuous
 62
     7
370
    15
100
AcDbCircle
 10
7.1377572195
 20
13.1023427817
 30
0.0
 40
0.0787401574803104
100
AcDbArc
 50
0.0000000004
 51
89.6021094442
  0
ARC
  5
125
330
1F
100
AcDbEntity
  8
0
  6
Continuous
 62
     7
370
    15
100
AcDbCircle
 10
7.1397257234
 20
13.3858005134
 30
0.0
 40
0.2047244094488903
100
AcDbArc
 50
180.3978905558
 51
269.6021094442
  0
ARC
  5
126
330
1F
100
AcDbEntity
  8
0
  6
Continuous
 62
     7
370
    15
100
AcDbCircle
 10
6.8562679916
 20
13.3838320095
 30
0.0
 40
0.0787401574802864
100
AcDbArc
 50
0.3978905558
 51
90.0
  0
LINE
  5
127
330
1F
100
AcDbEntity
  8
0
  6
Continuous
 62
     7
370
    15
100
AcDbLine
 10
5.0727965735
 20
13.4625722212
 30
0.0
 11
6.8562680107
 21
13.4625722212
 31
0.0
  0
ARC
  5
128
330
1F
100
AcDbEntity
  8
0
  6
Continuous
 62
     7
370
    15
100
AcDbCircle
 10
5.0727965895
 20
13.3838320095
 30
0.0
 40
0.0787401574803095
100
AcDbArc
 50
90.0
 51
179.9999999998
  0
ARC
  5
129
330
1F
100
AcDbEntity
  8
0
  6
Continuous
 62
     7
370
    15
100
AcDbCircle
 10
4.7893320226
 20
13.3661154741
 30
0.0
 40
0.2047244094488034
100
AcDbArc
 50
270.0
 51
0.0000000003
  0
LINE
  5
12A
330
1F
100
AcDbEntity
  8
0
  6
Continuous
 62
     7
370
    15
100
AcDbLine
 10
4.4566548979
 20
13.1613910071
 30
0.0
 11
4.7893320481
 21
13.1613910071
 31
0.0
  0
ARC
  5
12B
330
1F
100
AcDbEntity
  8
0
  6
Continuous
 62
     7
370
    15
100
AcDbCircle
 10
4.4566548573
 20
13.0826509071
 30
0.0
 40
0.0787401574802828
100
AcDbArc
 50
90.0
 51
179.9999999998
  0
LINE
  5
12C
330
1F
100
AcDbEntity
  8
0
  6
Continuous
 62
     7
370
    15
100
AcDbLine
 10
4.3779147275
 20
9.2243763278
 30
0.0
 11
4.3779147275
 21
13.0826508367
 31
0.0
  0
LINE
  5
12D
330
1F
100
AcDbEntity
  8
0
  6
Continuous
 62
     7
370
    15
100
AcDbLine
 10
4.7893320481
 20
13.1613910071
 30
0.0
 11
4.7893320481
 21
13.1496397695
 31
0.0
  0
LINE
  5
12E
330
1F
100
AcDbEntity
  8
0
  6
Continuous
 62
     7
370
    15
100
AcDbLine
 10
5.093384009
 20
13.1496397695
 30
0.0
 11
4.7893320481
 21
13.1496397695
 31
0.0
  0
LINE
  5
12F
330
1F
100
AcDbEntity
  8
0
  6
Continuous
 62
     7
370
    15
100
AcDbLine
 10
5.0913095063
 20
13.1455165772
 30
0.0
 11
5.093384009
 21
13.1496397695
 31
0.0
  0
LINE
  5
130
330
1F
100
AcDbEntity
  8
0
  6
Continuous
 62
     7
370
    15
100
AcDbLine
 10
4.4566548979
 20
13.1455165772
 30
0.0
 11
5.0913095063
 21
13.1455165772
 31
0.0
  0
LINE
  5
131
330
1F
100
AcDbEntity
  8
0
  6
Continuous
 62
     7
370
    15
100
AcDbLine
 10
4.4566548979
 20
13.1613910071
 30
0.0
 11
4.4566548979
 21
13.1455165772
 31
0.0
  0
ARC
  5
132
330
1F
100
AcDbEntity
  8
0
  6
Continuous
 62
     7
370
    15
100
AcDbCircle
 10
4.7893320226
 20
13.3661154741
 30
0.0
 40
0.2164756539477199
100
AcDbArc
 50
270.0
 51
0.0000000002
  0
LINE
  5
133
330
1F
100
AcDbEntity
  8
0
  6
Continuous
 62
     7
370
    15
100
AcDbLine
 10
6.5886044361
 20
8.9428870863
 30
0.0
 11
6.5886044361
 21
8.9606036283
 31
0.0
  0
LINE
  5
134
330
1F
100
AcDbEntity
  8
0
  6
Continuous
 62
     7
370
    15
100
AcDbLine
 10
6.5886044361
 20
8.9606036283
 30
0.0
 11
6.6003556736
 21
8.9606036283
 31
0.0
  0
LINE
  5
135
330
1F
100
AcDbEntity
  8
0
  6
Continuous
 62
     7
370
    15
100
AcDbLine
 10
6.5886044361
 20
8.9428870863
 30
0.0
 11
6.6003556736
 21
8.9428870863
 31
0.0
  0
ARC
  5
136
330
1F
100
AcDbEntity
  8
0
  6
Continuous
 62
     7
370
    15
100
AcDbCircle
 10
6.8050800541
 20
8.960603663
 30
0.0
 40
0.2164756539477724
100
AcDbArc
 50
90.0
 51
179.9999999998
  0
LINE
  5
137
330
1F
100
AcDbEntity
  8
0
  6
Continuous
 62
     7
370
    15
100
AcDbLine
 10
6.8050800286
 20
9.16532813
 30
0.0
 11
6.8050800286
 21
9.1770793676
 31
0.0
  0
LINE
  5
138
330
1F
100
AcDbEntity
  8
0
  6
Continuous
 62
     7
370
    15
100
AcDbLine
 10
6.5010280677
 20
9.1770793676
 30
0.0
 11
6.8050800286
 21
9.1770793676
 31
0.0
  0
LINE
  5
139
330
1F
100
AcDbEntity
  8
0
  6
Continuous
 62
     7
370
    15
100
AcDbLine
 10
6.5031025705
 20
9.1812025599
 30
0.0
 11
6.5010280677
 21
9.1770793676
 31
0.0
  0
LINE
  5
13A
330
1F
100
AcDbEntity
  8
0
  6
Continuous
 62
     7
370
    15
100
AcDbLine
 10
7.1377571789
 20
9.1812025599
 30
0.0
 11
6.5031025705
 21
9.1812025599
 31
0.0
  0
LINE
  5
13B
330
1F
100
AcDbEntity
  8
0
  6
Continuous
 62
     7
370
    15
100
AcDbLine
 10
7.1377571789
 20
9.16532813
 30
0.0
 11
7.1377571789
 21
9.1812025599
 31
0.0
  0
LINE
  5
13C
330
1F
100
AcDbEntity
  8
0
  6
Continuous
 62
     7
370
    15
100
AcDbLine
 10
4.3937891574
 20
9.2519423027
 30
0.0
 11
4.3937891574
 21
13.0826508367
 31
0.0
  0
LINE
  5
13D
330
1F
100
AcDbEntity
  8
0
  6
Continuous
 62
     7
370
    15
100
AcDbLine
 10
4.3896659651
 20
9.2478189637
 30
0.0
 11
4.3937891574
 21
9.2519423027
 31
0.0
  0
LINE
  5
13E
330
1F
100
AcDbEntity
  8
0
  6
Continuous
 62
     7
370
    15
100
AcDbLine
 10
4.3896659651
 20
9.2478189637
 30
0.0
 11
4.3896659651
 21
9.2243763278
 31
0.0
  0
LINE
  5
13F
330
1F
100
AcDbEntity
  8
0
  6
Continuous
 62
     7
370
    15
100
AcDbLine
 10
4.3779147275
 20
9.2243763278
 30
0.0
 11
4.3896659651
 21
9.2243763278
 31
0.0
  0
LINE
  5
140
330
1F
100
AcDbEntity
  8
0
  6
Continuous
 62
     7
370
    15
100
AcDbLine
 10
4.3937891574
 20
13.0826508367
 30
0.0
 11
4.3779147275
 21
13.0826508367
 31
0.0
  0
ARC
  5
141
330
1F
100
AcDbEntity
  8
0
  6
Continuous
 62
     7
370
    15
100
AcDbCircle
 10
7.1377572195
 20
9.24406823
 30
0.0
 40
0.0628656692975671
100
AcDbArc
 50
270.0
 51
0.0000000007
  0
LINE
  5
142
330
1F
100
AcDbEntity
  8
0
  6
Continuous
 62
     7
370
    15
100
AcDbLine
 10
7.2006229193
 20
9.2440683004
 30
0.0
 11
7.2164973493
 21
9.2440683004
 31
0.0
  0
LINE
  5
143
330
1F
100
AcDbEntity
  8
0
  6
Continuous
 62
     7
370
    15
100
AcDbLine
 10
7.2006229193
 20
13.0747768344
 30
0.0
 11
7.2006229193
 21
9.2440683004
 31
0.0
  0
LINE
  5
144
330
1F
100
AcDbEntity
  8
0
  6
Continuous
 62
     7
370
    15
100
AcDbLine
 10
7.2047461117
 20
13.0789001734
 30
0.0
 11
7.2006229193
 21
13.0747768344
 31
0.0
  0
LINE
  5
145
330
1F
100
AcDbEntity
  8
0
  6
Continuous
 62
     7
370
    15
100
AcDbLine
 10
7.2047461117
 20
13.0789001734
 30
0.0
 11
7.2047461117
 21
13.1023428092
 31
0.0
  0
LINE
  5
146
330
1F
100
AcDbEntity
  8
0
  6
Continuous
 62
     7
370
    15
100
AcDbLine
 10
7.2164973493
 20
13.1023428092
 30
0.0
 11
7.2047461117
 21
13.1023428092
 31
0.0
  0
LINE
  5
147
330
1F
100
AcDbEntity
  8
0
  6
Continuous
 62
     7
370
    15
100
AcDbLine
 10
4.4561896766
 20
9.1573890084
 30
0.0
 11
4.4561079842
 21
9.1456380641
 31
0.0
  0
ARC
  5
148
330
1F
100
AcDbEntity
  8
0
  6
Continuous
 62
     7
370
    15
100
AcDbCircle
 10
4.4566548573
 20
9.2243763554
 30
0.0
 40
0.0669889129814019
100
AcDbArc
 50
179.9999999996
 51
269.6021094442
  0
LINE
  5
149
330
1F
100
AcDbEntity
  8
0
  6
Continuous
 62
     7
370
    15
100
AcDbLine
 10
6.5216155033
 20
8.8758981535
 30
0.0
 11
4.7381440661
 21
8.8758981535
 31
0.0
  0
LINE
  5
14A
330
1F
100
AcDbEntity
  8
0
  6
Continuous
 62
     7
370
    15
100
AcDbLine
 10
6.5216155033
 20
8.8641469159
 30
0.0
 11
6.5216155033
 21
8.8758981535
 31
0.0
  0
LINE
  5
14B
330
1F
100
AcDbEntity
  8
0
  6
Continuous
 62
     7
370
    15
100
AcDbLine
 10
4.7381440661
 20
8.8758981535
 30
0.0
 11
4.7381440661
 21
8.8641469159
 31
0.0
  0
LINE
  5
14C
330
1F
100
AcDbEntity
  8
0
  6
Continuous
 62
     7
370
    15
100
AcDbLine
 10
7.1382224002
 20
13.1693301287
 30
0.0
 11
7.1383040925
 21
13.181081073
 31
0.0
  0
ARC
  5
14D
330
1F
100
AcDbEntity
  8
0
  6
Continuous
 62
     7
370
    15
100
AcDbCircle
 10
7.1377572195
 20
13.1023427817
 30
0.0
 40
0.0669889129814027
100
AcDbArc
 50
0.0000000004
 51
89.6021094442
  0
ARC
  5
14E
330
1F
100
AcDbEntity
  8
0
  6
Continuous
 62
     7
370
    15
100
AcDbCircle
 10
6.5216154872
 20
8.9428871276
 30
0.0
 40
0.0669889129814152
100
AcDbArc
 50
270.0
 51
0.0000000002
  0
LINE
  5
14F
330
1F
100
AcDbEntity
  8
0
  6
Continuous
 62
     7
370
    15
100
AcDbLine
 10
5.0727965735
 20
13.4508209836
 30
0.0
 11
6.8562680107
 21
13.4508209836
 31
0.0
  0
LINE
  5
150
330
1F
100
AcDbEntity
  8
0
  6
Continuous
 62
     7
370
    15
100
AcDbLine
 10
5.0727965735
 20
13.4625722212
 30
0.0
 11
5.0727965735
 21
13.4508209836
 31
0.0
  0
LINE
  5
151
330
1F
100
AcDbEntity
  8
0
  6
Continuous
 62
     7
370
    15
100
AcDbLine
 10
6.8562680107
 20
13.4508209836
 30
0.0
 11
6.8562680107
 21
13.4625722212
 31
0.0
  0
ARC
  5
152
330
1F
100
AcDbEntity
  8
0
  6
Continuous
 62
     7
370
    15
100
AcDbCircle
 10
5.0727965895
 20
13.3838320095
 30
0.0
 40
0.066988912981401
100
AcDbArc
 50
90.0
 51
179.9999999998
  0
LINE
  5
153
330
1F
100
AcDbEntity
  8
0
  6
Continuous
 62
     7
370
    15
100
AcDbLine
 10
4.6594058023
 20
8.9423403193
 30
0.0
 11
4.6711568199
 21
8.942421865
 31
0.0
  0
ARC
  5
154
330
1F
100
AcDbEntity
  8
0
  6
Continuous
 62
     7
370
    15
100
AcDbCircle
 10
4.7381440851
 20
8.9428871276
 30
0.0
 40
0.0669889129814027
100
AcDbArc
 50
180.3978905558
 51
270.0
  0
LINE
  5
155
330
1F
100
AcDbEntity
  8
0
  6
Continuous
 62
     7
370
    15
100
AcDbLine
 10
6.9350062744
 20
13.3843788178
 30
0.0
 11
6.9232552568
 21
13.3842972721
 31
0.0
  0
ARC
  5
156
330
1F
100
AcDbEntity
  8
0
  6
Continuous
 62
     7
370
    15
100
AcDbCircle
 10
6.8562679916
 20
13.3838320095
 30
0.0
 40
0.066988912981389
100
AcDbArc
 50
0.3978905558
 51
90.0
  0
ARC
  5
157
330
1F
100
AcDbEntity
  8
0
  6
Continuous
 62
     7
370
    15
100
AcDbCircle
 10
4.4566548573
 20
13.0826509071
 30
0.0
 40
0.0628656692975618
100
AcDbArc
 50
90.0
 51
179.9999999993
  0
ARC
  5
158
330
1F
100
AcDbEntity
  8
0
  6
Continuous
 62
     7
370
    15
100
AcDbCircle
 10
7.1397257234
 20
13.3858005134
 30
0.0
 40
0.2164756539477765
100
AcDbArc
 50
180.3978905558
 51
269.6021094442
  0
ARC
  5
159
330
1F
100
AcDbEntity
  8
0
  6
Continuous
 62
     7
370
    15
100
AcDbCircle
 10
4.4546863533
 20
8.9409186237
 30
0.0
 40
0.2164756539478156
100
AcDbArc
 50
0.3978905558
 51
89.6021094442
  0
CIRCLE
  5
15A
330
1F
100
AcDbEntity
  8
0
  6
Continuous
 62
     7
370
    15
100
AcDbCircle
 10
4.7814580069
 20
13.3779264977
 30
0.0
 40
0.1574803149605497
  0
CIRCLE
  5
15B
330
1F
100
AcDbEntity
  8
0
  6
Continuous
 62
     7
370
    15
100
AcDbCircle
 10
6.8129540699
 20
8.9487926394
 30
0.0
 40
0.1574803149607096
  0
CIRCLE
  5
15C
330
1F
100
AcDbEntity
  8
0
  6
Continuous
 62
     7
370
    15
100
AcDbCircle
 10
7.1357887155
 20
8.9487926394
 30
0.0
 40
0.0669291338582676
  0
CIRCLE
  5
15D
330
1F
100
AcDbEntity
  8
0
  6
Continuous
 62
     7
370
    15
100
AcDbCircle
 10
4.4586233612
 20
13.3779264977
 30
0.0
 40
0.0669291338582685
  0
CIRCLE
  5
15E
330
1F
100
AcDbEntity
  8
0
  6
Continuous
 62
     7
370
    15
100
AcDbCircle
 10
7.1357887155
 20
13.3779264977
 30
0.0
 40
0.0669291338582676
  0
CIRCLE
  5
15F
330
1F
100
AcDbEntity
  8
0
  6
Continuous
 62
     7
370
    15
100
AcDbCircle
 10
4.4586233612
 20
8.9487926394
 30
0.0
 40
0.0669291338582676
  0
LINE
  5
160
330
1F
100
AcDbEntity
  8
0
  6
Continuous
 62
     7
370
    15
100
AcDbLine
 10
4.4231602848
 20
13.6141469502
 30
0.0
 11
7.1712517919
 21
13.6141469502
 31
0.0
  0
ELLIPSE
  5
161
330
1F
100
AcDbEntity
  8
0
  6
Continuous
 62
     7
370
    15
100
AcDbEllipse
 10
4.4232202762
 20
8.9094525465
 30
0.0
 11
0.1392366514113359
 21
0.1392366514113341
 31
0.0
210
0.0
220
0.0
230
1.0
 40
0.9996954599
 41
2.356346783439939
 42
3.926838523739679
  0
LINE
  5
162
330
1F
100
AcDbEntity
  8
0
  6
Continuous
 62
     7
370
    15
100
AcDbLine
 10
4.2263398518
 20
8.9093926199
 30
0.0
 11
4.2263398518
 21
13.4173265172
 31
0.0
  0
ELLIPSE
  5
163
330
1F
100
AcDbEntity
  8
0
  6
Continuous
 62
     7
370
    15
100
AcDbEllipse
 10
4.4232202762
 20
13.4172665906
 30
0.0
 11
0.1392366514113359
 21
-0.1392366514113359
 31
0.0
210
0.0
220
0.0
230
1.0
 40
0.9996954599
 41
2.356346783439916
 42
3.926838523739684
  0
ELLIPSE
  5
164
330
1F
100
AcDbEntity
  8
0
  6
Continuous
 62
     7
370
    15
100
AcDbEllipse
 10
7.1711918006
 20
8.9094525465
 30
0.0
 11
-0.1392366514113341
 21
0.1392366514113341
 31
0.0
210
0.0
220
0.0
230
1.0
 40
0.9996954599
 41
2.356346783439935
 42
3.926838523739665
  0
LINE
  5
165
330
1F
100
AcDbEntity
  8
0
  6
Continuous
 62
     7
370
    15
100
AcDbLine
 10
7.1712517919
 20
8.7125721869
 30
0.0
 11
4.4231602848
 21
8.7125721869
 31
0.0
  0
ELLIPSE
  5
166
330
1F
100
AcDbEntity
  8
0
  6
Continuous
 62
     7
370
    15
100
AcDbEllipse
 10
7.1711918006
 20
13.4172665906
 30
0.0
 11
-0.1392366514113341
 21
-0.1392366514113341
 31
0.0
210
0.0
220
0.0
230
1.0
 40
0.9996954599
 41
2.356346783439929
 42
3.926838523739672
  0
LINE
  5
167
330
1F
100
AcDbEntity
  8
0
  6
Continuous
 62
     7
370
    15
100
AcDbLine
 10
7.3680722249
 20
13.4173265172
 30
0.0
 11
7.3680722249
 21
8.9093926199
 31
0.0
  0
CIRCLE
  5
168
330
1F
100
AcDbEntity
  8
0
  6
Continuous
 62
     7
370
    15
100
AcDbCircle
 10
6.8129540699
 20
8.9487926394
 30
0.0
 40
0.1368578132924476
  0
CIRCLE
  5
169
330
1F
100
AcDbEntity
  8
0
  6
Continuous
 62
     7
370
    15
100
AcDbCircle
 10
4.7814580069
 20
13.3779264977
 30
0.0
 40
0.1368578132922895
  0
CIRCLE
  5
16A
330
1F
100
AcDbEntity
  8
0
  6
Continuous
 62
     7
370
    15
100
AcDbCircle
 10
4.7814580069
 20
13.3779264977
 30
0.0
 40
0.0885826771653537
  0
CIRCLE
  5
16B
330
1F
100
AcDbEntity
  8
0
  6
Continuous
 62
     7
370
    15
100
AcDbCircle
 10
6.8129540699
 20
8.9487926394
 30
0.0
 40
0.0885826771653546
  0
LINE
  5
16C
330
1F
100
AcDbEntity
  8
0
  6
Continuous
 62
     7
370
    15
100
AcDbLine
 10
6.3614652367
 20
9.2478189637
 30
0.0
 11
6.3614652367
 21
9.2519423027
 31
0.0
  0
LINE
  5
16D
330
1F
100
AcDbEntity
  8
0
  6
Continuous
 62
     7
370
    15
100
AcDbLine
 10
4.3896659651
 20
9.2478189637
 30
0.0
 11
6.3614652367
 21
9.2478189637
 31
0.0
  0
LINE
  5
16E
330
1F
100
AcDbEntity
  8
0
  6
Continuous
 62
     7
370
    15
100
AcDbLine
 10
4.3937891574
 20
9.2519423027
 30
0.0
 11
6.3614652367
 21
9.2519423027
 31
0.0
  0
LINE
  5
16F
330
1F
100
AcDbEntity
  8
0
  6
Continuous
 62
     7
370
    15
100
AcDbLine
 10
5.2329468401
 20
13.0789001734
 30
0.0
 11
5.2329468401
 21
13.0747768344
 31
0.0
  0
LINE
  5
170
330
1F
100
AcDbEntity
  8
0
  6
Continuous
 62
     7
370
    15
100
AcDbLine
 10
7.2047461117
 20
13.0789001734
 30
0.0
 11
5.2329468401
 21
13.0789001734
 31
0.0
  0
LINE
  5
171
330
1F
100
AcDbEntity
  8
0
  6
Continuous
 62
     7
370
    15
100
AcDbLine
 10
7.2006229193
 20
13.0747768344
 30
0.0
 11
5.2329468401
 21
13.0747768344
 31
0.0
  0
CIRCLE
  5
172
330
1F
100
AcDbEntity
  8
0
  6
Continuous
 62
     7
370
    15
100
AcDbCircle
 10
5.2066548573
 20
9.0767453953
 30
0.0
 40
0.0629921259842519
  0
ARC
  5
173
330
1F
100
AcDbEntity
  8
0
  6
Continuous
 62
     7
370
    15
100
AcDbCircle
 10
6.3614652541
 20
9.0747768914
 30
0.0
 40
0.1730421106468718
100
AcDbArc
 50
36.2421813337
 51
90.0
  0
CIRCLE
  5
174
330
1F
100
AcDbEntity
  8
0
  6
Continuous
 62
     7
370
    15
100
AcDbCircle
 10
4.8523241486
 20
9.0767453953
 30
0.0
 40
0.0629921259842519
  0
CIRCLE
  5
175
330
1F
100
AcDbEntity
  8
0
  6
Continuous
 62
     7
370
    15
100
AcDbCircle
 10
6.3877572195
 20
9.0767453953
 30
0.0
 40
0.062992125984251
  0
CIRCLE
  5
176
330
1F
100
AcDbEntity
  8
0
  6
Continuous
 62
     7
370
    15
100
AcDbCircle
 10
6.3877572195
 20
13.2499737418
 30
0.0
 40
0.0629921259842519
  0
ARC
  5
177
330
1F
100
AcDbEntity
  8
0
  6
Continuous
 62
     7
370
    15
100
AcDbCircle
 10
5.2329468227
 20
13.2519422457
 30
0.0
 40
0.1730421106468736
100
AcDbArc
 50
216.2421813337
 51
270.0
  0
CIRCLE
  5
178
330
1F
100
AcDbEntity
  8
0
  6
Continuous
 62
     7
370
    15
100
AcDbCircle
 10
5.2066548573
 20
13.2499737418
 30
0.0
 40
0.0629921259842519
  0
CIRCLE
  5
179
330
1F
100
AcDbEntity
  8
0
  6
Continuous
 62
     7
370
    15
100
AcDbCircle
 10
6.7420879281
 20
13.2499737418
 30
0.0
 40
0.0629921259842519
  0
ARC
  5
17A
330
1F
100
AcDbEntity
  8
0
  6
Continuous
 62
     7
370
    15
100
AcDbCircle
 10
5.2329468227
 20
13.2519422457
 30
0.0
 40
0.1771653543307146
100
AcDbArc
 50
216.9210353334
 51
270.0
  0
ARC
  5
17B
330
1F
100
AcDbEntity
  8
0
  6
Continuous
 62
     7
370
    15
100
AcDbCircle
 10
6.3614652541
 20
9.0747768914
 30
0.0
 40
0.1771653543307146
100
AcDbArc
 50
36.9210353334
 51
90.0
  0
DIMENSION
  5
17C
330
1F
100
AcDbEntity
  8
0
  6
Continuous
 62
     7
370
     0
100
AcDbDimension
  2
_D
 10
2.699463197
 20
9.0767453953
 30
0.0
 11
2.699463197
 21
11.1633595685
 31
0.0
 70
   160
  1
<>
 71
     2
 42
-1.0
  3
SLDDIMSTYLE0
100
AcDbAlignedDimension
 13
5.2066548573
 23
13.2499737418
 33
0.0
 14
4.8523241486
 24
9.0767453953
 34
0.0
 50
90.0
100
AcDbRotatedDimension
  0
DIMENSION
  5
191
330
1F
100
AcDbEntity
  8
0
  6
Continuous
 62
     7
370
     0
100
AcDbDimension
  2
_D_1
 10
5.2066548573
 20
7.0595797491
 30
0.0
 11
4.0559378308
 21
7.0595797491
 31
0.0
 70
   160
  1
<>
 71
     2
 42
-1.0
  3
SLDDIMSTYLE1
100
AcDbAlignedDimension
 13
4.8523241486
 23
9.0767453953
 33
0.0
 14
5.2066548573
 24
9.0767453953
 34
0.0
 50
0.0
100
AcDbRotatedDimension
  0
DIMENSION
  5
1A6
330
1F
100
AcDbEntity
  8
0
  6
Continuous
 62
     7
370
     0
100
AcDbDimension
  2
_D_2
 10
5.2066548573
 20
6.4687856214
 30
0.0
 11
5.7972060384
 21
6.4687856214
 31
0.0
 70
   160
  1
<>
 71
     2
 42
-1.0
  3
SLDDIMSTYLE1
100
AcDbAlignedDimension
 13
6.3877572195
 23
9.0767453953
 33
0.0
 14
5.2066548573
 24
9.0767453953
 34
0.0
 50
0.0
100
AcDbRotatedDimension
  0
DIMENSION
  5
1BA
330
1F
100
AcDbEntity
  8
0
  6
Continuous
 62
     7
370
     0
100
AcDbDimension
  2
_D_3
 10
6.1700948496
 20
13.4508209225
 30
0.0
 11
6.1700948496
 21
11.8163591364
 31
0.0
 70
   160
  1
<>
 71
     2
 42
-1.0
  3
SLDDIMSTYLE0
100
AcDbAlignedDimension
 13
6.5216154872
 23
8.8758982146
 33
0.0
 14
6.8562679916
 24
13.4508209225
 34
0.0
 50
90.0
100
AcDbRotatedDimension
  0
DIMENSION
  5
1CD
330
1F
100
AcDbEntity
  8
0
  6
Continuous
 62
     7
370
     0
100
AcDbDimension
  2
_D_4
 10
4.393789188
 20
10.5663120303
 30
0.0
 11
5.6668122834
 21
10.5663120303
 31
0.0
 70
   160
  1
<>
 71
     2
 42
-1.0
  3
SLDDIMSTYLE0
100
AcDbAlignedDimension
 13
7.2006228888
 23
9.24406823
 33
0.0
 14
4.393789188
 24
9.2519422457
 34
0.0
100
AcDbRotatedDimension
  0
DIMENSION
  5
1E1
330
1F
100
AcDbEntity
  8
0
  6
Continuous
 62
     7
370
     0
100
AcDbDimension
  2
_D_5
 10
4.2263398966
 20
9.7331008674
 30
0.0
 11
3.402004629
 21
9.7331008674
 31
0.0
 70
   160
  1
<>
 71
     2
 42
-1.0
  3
SLDDIMSTYLE0
100
AcDbAlignedDimension
 13
4.8523241486
 23
9.0767453953
 33
0.0
 14
4.2263398966
 24
8.9093925794
 34
0.0
 50
0.0
100
AcDbRotatedDimension
  0
DIMENSION
  5
1F4
330
1F
100
AcDbEntity
  8
0
  6
Continuous
 62
     7
370
     0
100
AcDbDimension
  2
_D_6
 10
7.3680721801
 20
15.6713052685
 30
0.0
 11
5.7972060384
 21
15.6713052685
 31
0.0
 70
   160
  1
<>
 71
     2
 42
-1.0
  3
SLDDIMSTYLE0
100
AcDbAlignedDimension
 13
4.2263398966
 23
13.4173265577
 33
0.0
 14
7.3680721801
 24
13.4173265577
 34
0.0
 50
0.0
100
AcDbRotatedDimension
  0
DIMENSION
  5
208
330
1F
100
AcDbEntity
  8
0
  6
Continuous
 62
     7
370
     0
100
AcDbDimension
  2
_D_7
 10
1.667566901
 20
13.6141469701
 30
0.0
 11
1.667566901
 21
11.1633595685
 31
0.0
 70
   160
  1
<>
 71
     2
 42
-1.0
  3
SLDDIMSTYLE2
100
AcDbAlignedDimension
 13
4.4231603091
 23
8.712572167
 33
0.0
 14
4.4231603091
 24
13.6141469701
 34
0.0
 50
90.0
100
AcDbRotatedDimension
  0
DIMENSION
  5
21D
330
1F
100
AcDbEntity
  8
0
  6
Continuous
 62
     7
370
     0
100
AcDbDimension
  2
_D_8
 10
8.2271412893
 20
9.2519422457
 30
0.0
 11
8.2271412893
 21
11.1633595685
 31
0.0
 70
   160
  1
<>
 71
     2
 42
-1.0
  3
SLDDIMSTYLE0
100
AcDbAlignedDimension
 13
5.2329468227
 23
13.0747768914
 33
0.0
 14
4.393789188
 24
9.2519422457
 34
0.0
 50
90.0
100
AcDbRotatedDimension
  0
DIMENSION
  5
231
330
1F
100
AcDbEntity
  8
0
  6
Continuous
 62
     7
370
     0
100
AcDbDimension
  2
_D_9
 10
6.9232552893
 20
14.8328558409
 30
0.0
 11
5.9645314829
 21
14.8328558409
 31
0.0
 70
   160
  1
<>
 71
     2
 42
-1.0
  3
SLDDIMSTYLE0
100
AcDbAlignedDimension
 13
5.0058076766
 23
13.3661154741
 33
0.0
 14
6.9232552893
 24
13.3842972103
 34
0.0
100
AcDbRotatedDimension
  0
INSERT
  5
261
102
{ACAD_REACTORS
330
263
102
}
330
1F
100
AcDbEntity
  8
0
  6
Continuous
 62
     7
370
     0
100
AcDbBlockReference
  2
SW_NOTE_9
 10
7.7105685476
 20
7.2795546884
 30
0.0
  0
LEADER
  5
263
330
1F
100
AcDbEntity
  8
0
  6
Continuous
 62
     7
370
     0
100
AcDbLeader
  3
SLDDIMSTYLE3
 73
     2
 76
     3
 10
6.4222524754
 20
9.0240378507
 30
0.0
 10
7.2730685476
 20
7.2795546884
 30
0.0
 10
7.7105685476
 20
7.2795546884
 30
0.0
340
261
  0
INSERT
  5
26F
330
1F
100
AcDbEntity
  8
0
  6
Continuous
 62
     7
370
     0
100
AcDbBlockReference
  2
SW_CENTERMARKSYMBOL_0
 10
4.8523241486
 20
9.0767453953
 30
0.0
  0
INSERT
  5
27B
330
1F
100
AcDbEntity
  8
0
  6
Continuous
 62
     7
370
     0
100
AcDbBlockReference
  2
SW_CENTERMARKSYMBOL_1
 10
5.2066548573
 20
9.0767453953
 30
0.0
  0
INSERT
  5
287
330
1F
100
AcDbEntity
  8
0
  6
Continuous
 62
     7
370
     0
100
AcDbBlockReference
  2
SW_CENTERMARKSYMBOL_2
 10
6.3877572195
 20
9.0767453953
 30
0.0
  0
INSERT
  5
293
330
1F
100
AcDbEntity
  8
0
  6
Continuous
 62
     7
370
     0
100
AcDbBlockReference
  2
SW_CENTERMARKSYMBOL_3
 10
5.2066548573
 20
13.2499737418
 30
0.0
  0
INSERT
  5
29F
330
1F
100
AcDbEntity
  8
0
  6
Continuous
 62
     7
370
     0
100
AcDbBlockReference
  2
SW_CENTERMARKSYMBOL_4
 10
6.3877572195
 20
13.2499737418
 30
0.0
  0
INSERT
  5
2AB
330
1F
100
AcDbEntity
  8
0
  6
Continuous
 62
     7
370
     0
100
AcDbBlockReference
  2
SW_CENTERMARKSYMBOL_5
 10
6.7420879281
 20
13.2499737418
 30
0.0
  0
LINE
  5
2AC
330
1F
100
AcDbEntity
  8
0
  6
PHANTOM
 62
     7
370
    30
100
AcDbLine
 10
5.1897157156
 20
7.7001824002
 30
0.0
 11
5.1897157156
 21
14.5635953315
 31
0.0
  0
LINE
  5
2AD
330
1F
100
AcDbEntity
  8
0
  6
Continuous
 62
     7
370
    30
100
AcDbLine
 10
5.1897157156
 20
7.7001824002
 30
0.0
 11
4.3147157156
 21
7.7001824002
 31
0.0
  0
SOLID
  5
2AE
330
1F
100
AcDbEntity
  8
0
  6
Continuous
 62
     7
370
    30
100
AcDbTrace
 10
4.3147157156
 20
7.7001824002
 30
0.0
 11
4.7522157156
 21
7.6301824002
 31
0.0
 12
4.7522157156
 22
7.7701824002
 32
0.0
 13
4.7522157156
 23
7.7701824002
 33
0.0
  0
LINE
  5
2AF
330
1F
100
AcDbEntity
  8
0
  6
Continuous
 62
     7
370
    30
100
AcDbLine
 10
5.1897157156
 20
14.5635953315
 30
0.0
 11
4.3147157156
 21
14.5635953315
 31
0.0
  0
SOLID
  5
2B0
330
1F
100
AcDbEntity
  8
0
  6
Continuous
 62
     7
370
    30
100
AcDbTrace
 10
4.3147157156
 20
14.5635953315
 30
0.0
 11
4.7522157156
 21
14.4935953315
 31
0.0
 12
4.7522157156
 22
14.6335953315
 32
0.0
 13
4.7522157156
 23
14.6335953315
 33
0.0
  0
MTEXT
  5
2B1
330
1F
100
AcDbEntity
  8
0
  6
Continuous
 62
     7
100
AcDbMText
 10
4.0520097526
 20
7.8088013062
 30
0.0
 40
0.21875
 41
0.0
 71
     1
 72
     1
  1
A
  7
SLDTEXTSTYLE0
 73
     1
 44
1.0
  0
MTEXT
  5
2B2
330
1F
100
AcDbEntity
  8
0
  6
Continuous
 62
     7
100
AcDbMText
 10
4.0330080493
 20
14.6877166369
 30
0.0
 40
0.21875
 41
0.0
 71
     1
 72
     1
  1
A
  7
SLDTEXTSTYLE0
 73
     1
 44
1.0
  0
LINE
  5
2B3
330
1F
100
AcDbEntity
  8
0
  6
PHANTOM
 62
     7
370
    30
100
AcDbLine
 10
3.8884294267
 20
11.253227663
 30
0.0
 11
7.5868552344
 21
11.253227663
 31
0.0
  0
LINE
  5
2B4
330
1F
100
AcDbEntity
  8
0
  6
Continuous
 62
     7
370
    30
100
AcDbLine
 10
3.8884294267
 20
11.253227663
 30
0.0
 11
3.8884294267
 21
12.128227663
 31
0.0
  0
SOLID
  5
2B5
330
1F
100
AcDbEntity
  8
0
  6
Continuous
 62
     7
370
    30
100
AcDbTrace
 10
3.8884294267
 20
12.128227663
 30
0.0
 11
3.8184294267
 21
11.690727663
 31
0.0
 12
3.9584294267
 22
11.690727663
 32
0.0
 13
3.9584294267
 23
11.690727663
 33
0.0
  0
LINE
  5
2B6
330
1F
100
AcDbEntity
  8
0
  6
Continuous
 62
     7
370
    30
100
AcDbLine
 10
7.5868552344
 20
11.253227663
 30
0.0
 11
7.5868552344
 21
12.128227663
 31
0.0
  0
SOLID
  5
2B7
330
1F
100
AcDbEntity
  8
0
  6
Continuous
 62
     7
370
    30
100
AcDbTrace
 10
7.5868552344
 20
12.128227663
 30
0.0
 11
7.5168552344
 21
11.690727663
 31
0.0
 12
7.6568552344
 22
11.690727663
 32
0.0
 13
7.6568552344
 23
11.690727663
 33
0.0
  0
MTEXT
  5
2B8
330
1F
100
AcDbEntity
  8
0
  6
Continuous
 62
     7
100
AcDbMText
 10
3.8022522053
 20
12.4257816276
 30
0.0
 40
0.21875
 41
0.0
 71
     1
 72
     1
  1
B
  7
SLDTEXTSTYLE0
 73
     1
 44
1.0
  0
MTEXT
  5
2B9
330
1F
100
AcDbEntity
  8
0
  6
Continuous
 62
     7
100
AcDbMText
 10
7.5208780585
 20
12.4358513841
 30
0.0
 40
0.21875
 41
0.0
 71
     1
 72
     1
  1
B
  7
SLDTEXTSTYLE0
 73
     1
 44
1.0
  0
ARC
  5
2BA
330
1F
100
AcDbEntity
  8
0
  6
Continuous
 62
     7
370
    15
100
AcDbCircle
 10
23.5325379161
 20
2.9499372412
 30
0.0
 40
0.0309999999999997
100
AcDbArc
 50
180.0
 51
270.0
  0
ARC
  5
2BB
330
1F
100
AcDbEntity
  8
0
  6
Continuous
 62
     7
370
    15
100
AcDbCircle
 10
23.5325379161
 20
6.7462049577
 30
0.0
 40
0.0309999999999997
100
AcDbArc
 50
90.0
 51
180.0
  0
ARC
  5
2BC
330
1F
100
AcDbEntity
  8
0
  6
Continuous
 62
     7
370
    15
100
AcDbCircle
 10
25.8878607507
 20
7.0651025955
 30
0.0
 40
0.0310000000000006
100
AcDbArc
 50
0.0
 51
90.0
  0
ARC
  5
2BD
330
1F
100
AcDbEntity
  8
0
  6
Continuous
 62
     7
370
    15
100
AcDbCircle
 10
26.191010357
 20
6.7619529892
 30
0.0
 40
0.0310000000000024
100
AcDbArc
 50
0.0
 51
90.0
  0
ARC
  5
2BE
330
1F
100
AcDbEntity
  8
0
  6
Continuous
 62
     7
370
    15
100
AcDbCircle
 10
26.191010357
 20
2.9656852727
 30
0.0
 40
0.0310000000000001
100
AcDbArc
 50
270.0
 51
0.0
  0
ARC
  5
2BF
330
1F
100
AcDbEntity
  8
0
  6
Continuous
 62
     7
370
    15
100
AcDbCircle
 10
25.5532150814
 20
2.6467876349
 30
0.0
 40
0.0310000000000001
100
AcDbArc
 50
270.0
 51
0.0
  0
ARC
  5
2C0
330
1F
100
AcDbEntity
  8
0
  6
Continuous
 62
     7
370
    15
100
AcDbCircle
 10
23.8356875224
 20
2.6467876349
 30
0.0
 40
0.0309999999999997
100
AcDbArc
 50
180.0
 51
270.0
  0
CIRCLE
  5
2C1
330
1F
100
AcDbEntity
  8
0
  6
Continuous
 62
     7
370
    15
100
AcDbCircle
 10
25.4542938216
 20
6.9445277923
 30
0.0
 40
0.0885826771653555
  0
CIRCLE
  5
2C2
330
1F
100
AcDbEntity
  8
0
  6
Continuous
 62
     7
370
    15
100
AcDbCircle
 10
24.2692544515
 20
2.767362438
 30
0.0
 40
0.088582677165352
  0
ARC
  5
2C3
330
1F
100
AcDbEntity
  8
0
  6
Continuous
 62
     7
370
    15
100
AcDbCircle
 10
24.1703331917
 20
7.0651025955
 30
0.0
 40
0.0310000000000006
100
AcDbArc
 50
90.0
 51
180.0
  0
LINE
  5
2C4
330
1F
100
AcDbEntity
  8
0
  6
Continuous
 62
     7
370
    15
100
AcDbLine
 10
23.8755536895
 20
6.7772049206
 30
0.0
 11
23.5325379053
 21
6.7772049206
 31
0.0
  0
LINE
  5
2C5
330
1F
100
AcDbEntity
  8
0
  6
Continuous
 62
     7
370
    15
100
AcDbLine
 10
23.5015379168
 20
6.7462049321
 30
0.0
 11
23.5015379168
 21
2.9499372935
 31
0.0
  0
LINE
  5
2C6
330
1F
100
AcDbEntity
  8
0
  6
Continuous
 62
     7
370
    15
100
AcDbLine
 10
23.5325379053
 20
2.918937305
 30
0.0
 11
23.5645300824
 21
2.918937305
 31
0.0
  0
ARC
  5
2C7
330
1F
100
AcDbEntity
  8
0
  6
Continuous
 62
     7
370
    15
100
AcDbCircle
 10
23.5645300421
 20
2.6787797608
 30
0.0
 40
0.2401574803149606
100
AcDbArc
 50
0.0
 51
90.0
  0
LINE
  5
2C8
330
1F
100
AcDbEntity
  8
0
  6
Continuous
 62
     7
370
    15
100
AcDbLine
 10
23.8046875215
 20
2.6787797193
 30
0.0
 11
23.8046875215
 21
2.6467876889
 31
0.0
  0
LINE
  5
2C9
330
1F
100
AcDbEntity
  8
0
  6
Continuous
 62
     7
370
    15
100
AcDbLine
 10
23.83568751
 20
2.6157877003
 30
0.0
 11
25.5532150756
 21
2.6157877003
 31
0.0
  0
LINE
  5
2CA
330
1F
100
AcDbEntity
  8
0
  6
Continuous
 62
     7
370
    15
100
AcDbLine
 10
25.5842150642
 20
2.6467876889
 30
0.0
 11
25.5842150642
 21
2.6709057169
 31
0.0
  0
ARC
  5
2CB
330
1F
100
AcDbEntity
  8
0
  6
Continuous
 62
     7
370
    15
100
AcDbCircle
 10
25.847994609
 20
2.6709057451
 30
0.0
 40
0.2637795275590555
100
AcDbArc
 50
90.0
 51
180.0
  0
LINE
  5
2CC
330
1F
100
AcDbEntity
  8
0
  6
Continuous
 62
     7
370
    15
100
AcDbLine
 10
25.8479945837
 20
2.9346853097
 30
0.0
 11
26.1910103678
 21
2.9346853097
 31
0.0
  0
LINE
  5
2CD
330
1F
100
AcDbEntity
  8
0
  6
Continuous
 62
     7
370
    15
100
AcDbLine
 10
26.2220103563
 20
2.9656852983
 30
0.0
 11
26.2220103563
 21
6.7619529368
 31
0.0
  0
LINE
  5
2CE
330
1F
100
AcDbEntity
  8
0
  6
Continuous
 62
     7
370
    15
100
AcDbLine
 10
26.1910103678
 20
6.7929529254
 30
0.0
 11
26.1590181907
 21
6.7929529254
 31
0.0
  0
ARC
  5
2CF
330
1F
100
AcDbEntity
  8
0
  6
Continuous
 62
     7
370
    15
100
AcDbCircle
 10
26.1590182311
 20
7.0331104695
 30
0.0
 40
0.2401574803149629
100
AcDbArc
 50
180.0
 51
270.0
  0
LINE
  5
2D0
330
1F
100
AcDbEntity
  8
0
  6
Continuous
 62
     7
370
    15
100
AcDbLine
 10
25.9188607517
 20
7.033110511
 30
0.0
 11
25.9188607517
 21
7.0651025415
 31
0.0
  0
LINE
  5
2D1
330
1F
100
AcDbEntity
  8
0
  6
Continuous
 62
     7
370
    15
100
AcDbLine
 10
25.8878607631
 20
7.09610253
 30
0.0
 11
24.1703331975
 21
7.09610253
 31
0.0
  0
LINE
  5
2D2
330
1F
100
AcDbEntity
  8
0
  6
Continuous
 62
     7
370
    15
100
AcDbLine
 10
24.1393332089
 20
7.0651025415
 30
0.0
 11
24.1393332089
 21
7.0409845134
 31
0.0
  0
ARC
  5
2D3
330
1F
100
AcDbEntity
  8
0
  6
Continuous
 62
     7
370
    15
100
AcDbCircle
 10
23.8755536641
 20
7.0409844853
 30
0.0
 40
0.2637795275590591
100
AcDbArc
 50
270.0
 51
0.0
  0
DIMENSION
  5
2D4
330
1F
100
AcDbEntity
  8
0
  6
Continuous
 62
     7
370
     0
100
AcDbDimension
  2
_D_10
 10
26.222010357
 20
8.5187837414
 30
0.0
 11
24.8617741366
 21
8.5187837414
 31
0.0
 70
   160
  1
<>
 71
     2
 42
-1.0
  3
SLDDIMSTYLE0
100
AcDbAlignedDimension
 13
23.5015379161
 23
6.7462049577
 33
0.0
 14
26.222010357
 24
6.7619529892
 34
0.0
 50
0.0
100
AcDbRotatedDimension
  0
DIMENSION
  5
2E8
330
1F
100
AcDbEntity
  8
0
  6
Continuous
 62
     7
370
     0
100
AcDbDimension
  2
_D_11
 10
22.177417122
 20
2.6157876349
 30
0.0
 11
22.177417122
 21
4.8559451152
 31
0.0
 70
   160
  1
<>
 71
     2
 42
-1.0
  3
SLDDIMSTYLE0
100
AcDbAlignedDimension
 13
24.1703331917
 23
7.0961025955
 33
0.0
 14
23.8356875224
 24
2.6157876349
 34
0.0
 50
90.0
100
AcDbRotatedDimension
  0
DIMENSION
  5
2FC
330
1F
100
AcDbEntity
  8
0
  6
Continuous
 62
     7
370
     0
100
AcDbDimension
  2
_D_12
 10
25.4542938216
 20
6.2885063231
 30
0.0
 11
24.8617741366
 21
6.2885063231
 31
0.0
 70
   160
  1
<>
 71
     2
 42
-1.0
  3
SLDDIMSTYLE1
100
AcDbAlignedDimension
 13
24.2692544515
 23
2.767362438
 33
0.0
 14
25.4542938216
 24
6.9445277923
 34
0.0
100
AcDbRotatedDimension
  0
DIMENSION
  5
310
330
1F
100
AcDbEntity
  8
0
  6
Continuous
 62
     7
370
     0
100
AcDbDimension
  2
_D_13
 10
26.9434804968
 20
6.9445277923
 30
0.0
 11
26.9434804968
 21
4.8559451152
 31
0.0
 70
   160
  1
<>
 71
     2
 42
-1.0
  3
SLDDIMSTYLE0
100
AcDbAlignedDimension
 13
24.2692544515
 23
2.767362438
 33
0.0
 14
25.4542938216
 24
6.9445277923
 34
0.0
 50
90.0
100
AcDbRotatedDimension
  0
DIMENSION
  5
324
330
1F
100
AcDbEntity
  8
0
  6
Continuous
 62
     7
370
     0
100
AcDbDimension
  2
_D_14
 10
23.0297611301
 20
7.0961025955
 30
0.0
 11
23.0297611301
 21
7.6646003506
 31
0.0
 70
   160
  1
<> TYP.
 71
     2
 42
-1.0
  3
SLDDIMSTYLE1
100
AcDbAlignedDimension
 13
23.5325379161
 23
6.7772049577
 33
0.0
 14
24.1703331917
 24
7.0961025955
 34
0.0
 50
90.0
100
AcDbRotatedDimension
  0
DIMENSION
  5
338
330
1F
100
AcDbEntity
  8
0
  6
Continuous
 62
     7
370
     0
100
AcDbDimension
  2
_D_15
 10
23.5015379161
 20
7.6646003506
 30
0.0
 11
25.2013843329
 21
7.6646003506
 31
0.0
 70
   160
  1
<> TYP.
 71
     2
 42
-1.0
  3
SLDDIMSTYLE0
100
AcDbAlignedDimension
 13
24.1393331917
 23
7.0651025955
 33
0.0
 14
23.5015379161
 24
6.7462049577
 34
0.0
 50
0.0
100
AcDbRotatedDimension
  0
DIMENSION
  5
34B
330
1F
100
AcDbEntity
  8
0
  6
Continuous
 62
     7
370
     0
100
AcDbDimension
  2
_D_16
 10
23.5645300421
 20
2.6787797608
 30
0.0
 11
22.2985334673
 21
1.9798702952
 31
0.0
 70
   164
  1
<> (2X)
 71
     1
 42
-1.0
  3
SLDDIMSTYLE4
100
AcDbRadialDimension
 15
23.6846087822
 25
2.8867622397
 35
0.0
 40
0.0
  0
DIMENSION
  5
35D
330
1F
100
AcDbEntity
  8
0
  6
Continuous
 62
     7
370
     0
100
AcDbDimension
  2
_D_17
 10
25.847994609
 20
2.6709057451
 30
0.0
 11
27.1094451187
 21
1.9798702952
 31
0.0
 70
   164
  1
<> (2X)
 71
     1
 42
-1.0
  3
SLDDIMSTYLE4
100
AcDbRadialDimension
 15
25.7161048452
 25
2.899345517
 35
0.0
 40
0.0
  0
DIMENSION
  5
36E
330
1F
100
AcDbEntity
  8
0
  6
Continuous
 62
     7
370
     0
100
AcDbDimension
  2
_D_18
 10
25.3916564099
 20
6.8818903806
 30
0.0
 11
27.5524771714
 21
8.0745373457
 31
0.0
 70
   163
  1
<> (2X)
 71
     1
 42
-1.0
  3
SLDDIMSTYLE5
100
AcDbDiametricDimension
 15
25.5169312333
 25
7.0071652041
 35
0.0
 40
0.0
  0
LINE
  5
380
330
1F
100
AcDbEntity
  8
0
  6
Continuous
 62
     7
370
    15
100
AcDbLine
 10
28.0327609304
 20
13.2691715979
 30
0.0
 11
28.0327609304
 21
13.3226165107
 31
0.0
  0
LINE
  5
381
330
1F
100
AcDbEntity
  8
0
  6
Continuous
 62
     7
370
    15
100
AcDbLine
 10
27.875590086
 20
13.4301919535
 30
0.0
 11
27.875590086
 21
13.3767470407
 31
0.0
  0
LINE
  5
382
330
1F
100
AcDbEntity
  8
0
  6
Continuous
 62
     7
370
    15
100
AcDbLine
 10
28.2276328646
 20
13.5968196041
 30
0.0
 11
28.2276328646
 21
13.650264517
 31
0.0
  0
LINE
  5
383
330
1F
100
AcDbEntity
  8
0
  6
Continuous
 62
     7
370
    15
100
AcDbLine
 10
23.9419890649
 20
14.0636917398
 30
0.0
 11
23.9419890649
 21
14.0102468269
 31
0.0
  0
LINE
  5
384
330
1F
100
AcDbEntity
  8
0
  6
Continuous
 62
     7
370
    15
100
AcDbLine
 10
24.2940318435
 20
14.2303193904
 30
0.0
 11
24.2940318435
 21
14.2837643032
 31
0.0
  0
LINE
  5
385
330
1F
100
AcDbEntity
  8
0
  6
Continuous
 62
     7
370
    15
100
AcDbLine
 10
24.1368609991
 20
14.391339746
 30
0.0
 11
24.1368609991
 21
14.3378948332
 31
0.0
  0
ARC
  5
386
330
1F
100
AcDbEntity
  8
0
  6
Continuous
 62
     7
370
    15
100
AcDbCircle
 10
28.3739242297
 20
14.7226580399
 30
0.0
 40
0.1202372774204401
100
AcDbArc
 50
3.7950569416
 51
59.8230713898
  0
LINE
  5
387
330
1F
100
AcDbEntity
  8
0
  6
Continuous
 62
     7
370
    15
100
AcDbLine
 10
28.5017382488
 20
14.3638803888
 30
0.0
 11
28.4938981209
 21
14.7306115165
 31
0.0
  0
LWPOLYLINE
  5
388
330
1F
100
AcDbEntity
  8
0
  6
Continuous
 62
     7
370
    15
100
AcDbPolyline
 90
        3
 70
   128
 43
0.0
 10
28.4343642195
 20
14.8266002777
 10
28.3950291875
 20
14.8496533039
 10
28.3550466041
 20
14.871104928
  0
LINE
  5
389
330
1F
100
AcDbEntity
  8
0
  6
Continuous
 62
     7
370
    15
100
AcDbLine
 10
28.3550296349
 20
14.871114832
 30
0.0
 11
25.7188263193
 21
16.3929626127
 31
0.0
  0
ARC
  5
38A
330
1F
100
AcDbEntity
  8
0
  6
Continuous
 62
     7
370
    15
100
AcDbCircle
 10
23.7947957821
 20
15.3513974406
 30
0.0
 40
0.1193269640851625
100
AcDbArc
 50
119.5193183535
 51
176.2556561914
  0
LINE
  5
38B
330
1F
100
AcDbEntity
  8
0
  6
Continuous
 62
     7
370
    15
100
AcDbLine
 10
23.6757237179
 20
15.3591867957
 30
0.0
 11
23.6678836807
 21
14.9924583401
 31
0.0
  0
LWPOLYLINE
  5
38C
330
1F
100
AcDbEntity
  8
0
  6
Continuous
 62
     7
370
    15
100
AcDbPolyline
 90
        3
 70
   128
 43
0.0
 10
23.8077136935
 20
15.4957218488
 10
23.7714066181
 20
15.4758841462
 10
23.7360010875
 20
15.4552342638
  0
LINE
  5
38D
330
1F
100
AcDbEntity
  8
0
  6
Continuous
 62
     7
370
    15
100
AcDbLine
 10
25.3688133097
 20
16.3969254772
 30
0.0
 11
23.8077276681
 21
15.4957299188
 31
0.0
  0
LWPOLYLINE
  5
38E
330
1F
100
AcDbEntity
  8
0
  6
Continuous
 62
     7
370
    15
100
AcDbPolyline
 90
        3
 70
   128
 43
0.0
 10
25.7188288601
 20
16.3929611454
 10
25.6840654364
 20
16.4148405053
 10
25.639090191
 20
16.4402593602
  0
LWPOLYLINE
  5
38F
330
1F
100
AcDbEntity
  8
0
  6
Continuous
 62
     7
370
    15
100
AcDbPolyline
 90
        3
 70
   128
 43
0.0
 10
25.4407960617
 20
16.4393826214
 10
25.4008622986
 20
16.4166578919
 10
25.3688077743
 20
16.3969223854
  0
ARC
  5
390
330
1F
100
AcDbEntity
  8
0
  6
Continuous
 62
     7
370
    15
100
AcDbCircle
 10
25.5408417944
 20
16.2365518068
 30
0.0
 40
0.2261624982132249
100
AcDbArc
 50
64.2519460577
 51
116.2547966095
  0
LINE
  5
391
330
1F
100
AcDbEntity
  8
0
  6
Continuous
 62
     7
370
    15
100
AcDbLine
 10
28.8588089887
 20
11.0183870068
 30
0.0
 11
28.8588089887
 21
11.0826895942
 31
0.0
  0
LINE
  5
392
330
1F
100
AcDbEntity
  8
0
  6
Continuous
 62
     7
370
    15
100
AcDbLine
 10
23.3108129407
 20
12.220660335
 30
0.0
 11
23.3108129407
 21
12.1563577476
 31
0.0
  0
ARC
  5
393
330
1F
100
AcDbEntity
  8
0
  6
Continuous
 62
     7
370
    15
100
AcDbCircle
 10
26.6292345189
 20
10.5287257593
 30
0.0
 40
0.2334160150400957
100
AcDbArc
 50
242.5723351811
 51
297.4276648189
  0
LINE
  5
394
330
1F
100
AcDbEntity
  8
0
  6
Continuous
 62
     7
370
    15
100
AcDbLine
 10
23.752169094
 20
11.9203729834
 30
0.0
 11
26.5217226426
 21
10.3215437518
 31
0.0
  0
LINE
  5
395
330
1F
100
AcDbEntity
  8
0
  6
Continuous
 62
     7
370
    15
100
AcDbLine
 10
26.7367463952
 20
10.3215437518
 30
0.0
 11
28.4174528354
 21
11.2917949274
 31
0.0
  0
LINE
  5
396
330
1F
100
AcDbEntity
  8
0
  6
Continuous
 62
     7
370
    15
100
AcDbLine
 10
28.0170999124
 20
11.8205350212
 30
0.0
 11
28.0170999124
 21
11.8514767743
 31
0.0
  0
LINE
  5
397
330
1F
100
AcDbEntity
  8
0
  6
Continuous
 62
     7
370
    15
100
AcDbLine
 10
27.8921666235
 20
11.9603283822
 30
0.0
 11
27.8884093095
 21
11.7845747116
 31
0.0
  0
LINE
  5
398
330
1F
100
AcDbEntity
  8
0
  6
Continuous
 62
     7
370
    15
100
AcDbLine
 10
28.4820617945
 20
11.3884337314
 30
0.0
 11
28.5017254538
 21
12.0388731242
 31
0.0
  0
LINE
  5
399
330
1F
100
AcDbEntity
  8
0
  6
Continuous
 62
     7
370
    15
100
AcDbLine
 10
28.2119718465
 20
12.1481830275
 30
0.0
 11
28.2119718465
 21
12.1791247805
 31
0.0
  0
ARC
  5
39A
330
1F
100
AcDbEntity
  8
0
  6
Continuous
 62
     7
370
    15
100
AcDbCircle
 10
28.3607535073
 20
11.3994823503
 30
0.0
 40
0.1217018193623324
100
AcDbArc
 50
297.7709428073
 51
355.7720797955
  0
LINE
  5
39B
330
1F
100
AcDbEntity
  8
0
  6
Continuous
 62
     7
370
    15
100
AcDbLine
 10
23.957650083
 20
12.5925520033
 30
0.0
 11
23.957650083
 21
12.5616102503
 31
0.0
  0
LINE
  5
39C
330
1F
100
AcDbEntity
  8
0
  6
Continuous
 62
     7
370
    15
100
AcDbLine
 10
23.6678964756
 20
12.6674510755
 30
0.0
 11
23.6875602257
 21
12.017011735
 31
0.0
  0
LINE
  5
39D
330
1F
100
AcDbEntity
  8
0
  6
Continuous
 62
     7
370
    15
100
AcDbLine
 10
24.2860827316
 20
12.4103412687
 30
0.0
 11
24.277455306
 21
12.8139007319
 31
0.0
  0
LINE
  5
39E
330
1F
100
AcDbEntity
  8
0
  6
Continuous
 62
     7
370
    15
100
AcDbLine
 10
24.1525220171
 20
12.9202000095
 30
0.0
 11
24.1525220171
 21
12.8892582565
 31
0.0
  0
ARC
  5
39F
330
1F
100
AcDbEntity
  8
0
  6
Continuous
 62
     7
370
    15
100
AcDbCircle
 10
23.8088682281
 20
12.0280603955
 30
0.0
 40
0.1217017193335226
100
AcDbArc
 50
184.2279433035
 51
242.2291356794
  0
ARC
  5
3A0
330
1F
100
AcDbEntity
  8
0
  6
Continuous
 62
     7
370
    15
100
AcDbCircle
 10
28.1306337071
 20
13.6502645694
 30
0.0
 40
0.0228501695499904
100
AcDbArc
 50
290.7835115018
 51
69.2164884982
  0
LINE
  5
3A1
330
1F
100
AcDbEntity
  8
0
  6
Continuous
 62
     7
370
    15
100
AcDbLine
 10
28.1387418139
 20
13.6716278288
 30
0.0
 11
27.7574082201
 21
13.8917670267
 31
0.0
  0
LINE
  5
3A2
330
1F
100
AcDbEntity
  8
0
  6
Continuous
 62
     7
370
    15
100
AcDbLine
 10
24.4122137774
 20
14.5203450172
 30
0.0
 11
24.2257520497
 21
14.4127029531
 31
0.0
  0
ARC
  5
3A3
330
1F
100
AcDbEntity
  8
0
  6
Continuous
 62
     7
370
    15
100
AcDbCircle
 10
24.2338600755
 20
14.391339746
 30
0.0
 40
0.0228500918237306
100
AcDbArc
 50
110.7833681723
 51
249.2166318277
  0
LINE
  5
3A4
330
1F
100
AcDbEntity
  8
0
  6
Continuous
 62
     7
370
    15
100
AcDbLine
 10
24.2257520497
 20
14.369976539
 30
0.0
 11
24.2367136009
 21
14.3636485702
 31
0.0
  0
ARC
  5
3A5
330
1F
100
AcDbEntity
  8
0
  6
Continuous
 62
     7
370
    15
100
AcDbCircle
 10
24.2063948588
 20
14.2837643294
 30
0.0
 40
0.0854442394235996
100
AcDbArc
 50
290.7834293557
 51
69.2165706443
  0
LINE
  5
3A6
330
1F
100
AcDbEntity
  8
0
  6
Continuous
 62
     7
370
    15
100
AcDbLine
 10
24.2367136009
 20
14.2038800886
 30
0.0
 11
24.0308801156
 21
14.0850549468
 31
0.0
  0
ARC
  5
3A7
330
1F
100
AcDbEntity
  8
0
  6
Continuous
 62
     7
370
    15
100
AcDbCircle
 10
24.0389882224
 20
14.0636916874
 30
0.0
 40
0.0228501695499904
100
AcDbArc
 50
110.7835115018
 51
249.2164884982
  0
LINE
  5
3A8
330
1F
100
AcDbEntity
  8
0
  6
Continuous
 62
     7
370
    15
100
AcDbLine
 10
24.0308801156
 20
14.042328428
 30
0.0
 11
26.4180656759
 21
12.6642355375
 31
0.0
  0
ARC
  5
3A9
330
1F
100
AcDbEntity
  8
0
  6
Continuous
 62
     7
370
    15
100
AcDbCircle
 10
26.4550863702
 20
12.735743764
 30
0.0
 40
0.0805230293969646
100
AcDbArc
 50
242.6288378331
 51
297.1415588391
  0
ARC
  5
3AA
330
1F
100
AcDbEntity
  8
0
  6
Continuous
 62
     7
370
    15
100
AcDbCircle
 10
26.6292344224
 20
12.395812398
 30
0.0
 40
0.3014205272986838
100
AcDbArc
 50
62.8778489478
 51
117.1221292097
  0
ARC
  5
3AB
330
1F
100
AcDbEntity
  8
0
  6
Continuous
 62
     7
370
    15
100
AcDbCircle
 10
26.8033824781
 20
12.73574366
 30
0.0
 40
0.0805229383634821
100
AcDbArc
 50
242.8584869996
 51
297.3712385553
  0
LINE
  5
3AC
330
1F
100
AcDbEntity
  8
0
  6
Continuous
 62
     7
370
    15
100
AcDbLine
 10
26.8404032259
 20
12.6642355637
 30
0.0
 11
27.9438698797
 21
13.3012533037
 31
0.0
  0
ARC
  5
3AD
330
1F
100
AcDbEntity
  8
0
  6
Continuous
 62
     7
370
    15
100
AcDbCircle
 10
27.935761854
 20
13.3226165107
 30
0.0
 40
0.0228500918237298
100
AcDbArc
 50
290.7833681724
 51
69.2166318276
  0
LINE
  5
3AE
330
1F
100
AcDbEntity
  8
0
  6
Continuous
 62
     7
370
    15
100
AcDbLine
 10
27.9438698797
 20
13.3439797178
 30
0.0
 11
27.9329083286
 21
13.3503076865
 31
0.0
  0
ARC
  5
3AF
330
1F
100
AcDbEntity
  8
0
  6
Continuous
 62
     7
370
    15
100
AcDbCircle
 10
27.9632270707
 20
13.4301919274
 30
0.0
 40
0.0854442394235996
100
AcDbArc
 50
110.7834293557
 51
249.2165706443
  0
LINE
  5
3B0
330
1F
100
AcDbEntity
  8
0
  6
Continuous
 62
     7
370
    15
100
AcDbLine
 10
27.9329083286
 20
13.5100761682
 30
0.0
 11
28.1387418139
 21
13.6289013099
 31
0.0
  0
LINE
  5
3B1
330
1F
100
AcDbEntity
  8
0
  6
Continuous
 62
     7
370
    15
100
AcDbLine
 10
26.8924197768
 20
12.634207048
 30
0.0
 11
27.9958864307
 21
13.271224788
 31
0.0
  0
ARC
  5
3B2
330
1F
100
AcDbEntity
  8
0
  6
Continuous
 62
     7
370
    15
100
AcDbCircle
 10
26.8033620054
 20
12.8062280341
 30
0.0
 40
0.1937072696149501
100
AcDbArc
 50
242.8584352971
 51
297.3712611699
  0
ARC
  5
3B3
330
1F
100
AcDbEntity
  8
0
  6
Continuous
 62
     7
370
    15
100
AcDbCircle
 10
26.6292344765
 20
12.4664213046
 30
0.0
 40
0.1881160061304953
100
AcDbArc
 50
62.8778244717
 51
117.1221930275
  0
ARC
  5
3B4
330
1F
100
AcDbEntity
  8
0
  6
Continuous
 62
     7
370
    15
100
AcDbCircle
 10
26.4551068969
 20
12.8062282752
 30
0.0
 40
0.1937075072359629
100
AcDbArc
 50
242.628775039
 51
297.1415284939
  0
LINE
  5
3B5
330
1F
100
AcDbEntity
  8
0
  6
Continuous
 62
     7
370
    15
100
AcDbLine
 10
23.9788635646
 20
14.0122999122
 30
0.0
 11
26.3660491249
 21
12.6342070218
 31
0.0
  0
ARC
  5
3B6
330
1F
100
AcDbEntity
  8
0
  6
Continuous
 62
     7
370
    15
100
AcDbCircle
 10
23.9983683456
 20
14.0636916874
 30
0.0
 40
0.0549686368236742
100
AcDbArc
 50
110.7833152757
 51
249.2166847243
  0
LINE
  5
3B7
330
1F
100
AcDbEntity
  8
0
  6
Continuous
 62
     7
370
    15
100
AcDbLine
 10
24.1846970499
 20
14.2339086043
 30
0.0
 11
23.9788635646
 21
14.1150834625
 31
0.0
  0
ARC
  5
3B8
330
1F
100
AcDbEntity
  8
0
  6
Continuous
 62
     7
370
    15
100
AcDbCircle
 10
24.1657750504
 20
14.2837643077
 30
0.0
 40
0.0533257276263726
100
AcDbArc
 50
290.7835218325
 51
69.2165303107
  0
LINE
  5
3B9
330
1F
100
AcDbEntity
  8
0
  6
Continuous
 62
     7
370
    15
100
AcDbLine
 10
24.1737354534
 20
14.3399479971
 30
0.0
 11
24.1846970045
 21
14.3336200283
 31
0.0
  0
ARC
  5
3BA
330
1F
100
AcDbEntity
  8
0
  6
Continuous
 62
     7
370
    15
100
AcDbCircle
 10
24.1932402802
 20
14.3913397243
 30
0.0
 40
0.0549686082945755
100
AcDbArc
 50
110.7833270446
 51
249.2166223707
  0
LINE
  5
3BB
330
1F
100
AcDbEntity
  8
0
  6
Continuous
 62
     7
370
    15
100
AcDbLine
 10
24.3601972265
 20
14.5503735329
 30
0.0
 11
24.1737354988
 21
14.4427314688
 31
0.0
  0
LINE
  5
3BC
330
1F
100
AcDbEntity
  8
0
  6
Continuous
 62
     7
370
    15
100
AcDbLine
 10
28.1907583649
 20
13.7016563445
 30
0.0
 11
27.8094247711
 21
13.9217955424
 31
0.0
  0
ARC
  5
3BD
330
1F
100
AcDbEntity
  8
0
  6
Continuous
 62
     7
370
    15
100
AcDbCircle
 10
28.1712535838
 20
13.6502645694
 30
0.0
 40
0.054968636823675
100
AcDbArc
 50
290.7833152757
 51
69.2166847243
  0
LINE
  5
3BE
330
1F
100
AcDbEntity
  8
0
  6
Continuous
 62
     7
370
    15
100
AcDbLine
 10
27.9849248796
 20
13.4800476525
 30
0.0
 11
28.1907583649
 21
13.5988727942
 31
0.0
  0
ARC
  5
3BF
330
1F
100
AcDbEntity
  8
0
  6
Continuous
 62
     7
370
    15
100
AcDbCircle
 10
28.0038468791
 20
13.4301919491
 30
0.0
 40
0.0533257276263684
100
AcDbArc
 50
110.7835218324
 51
249.2165303107
  0
LINE
  5
3C0
330
1F
100
AcDbEntity
  8
0
  6
Continuous
 62
     7
370
    15
100
AcDbLine
 10
27.9958864761
 20
13.3740082597
 30
0.0
 11
27.984924925
 21
13.3803362284
 31
0.0
  0
ARC
  5
3C1
330
1F
100
AcDbEntity
  8
0
  6
Continuous
 62
     7
370
    15
100
AcDbCircle
 10
27.9763816493
 20
13.3226165324
 30
0.0
 40
0.0549686082945777
100
AcDbArc
 50
290.7833270446
 51
69.2166223707
  0
LINE
  5
3C2
330
1F
100
AcDbEntity
  8
0
  6
Continuous
 62
     7
370
    15
100
AcDbLine
 10
26.3660491249
 20
12.6342070218
 30
0.0
 11
26.3660491249
 21
12.580762109
 31
0.0
  0
LINE
  5
3C3
330
1F
100
AcDbEntity
  8
0
  6
Continuous
 62
     7
370
    15
100
AcDbLine
 10
26.5434743289
 20
12.6338513761
 30
0.0
 11
26.5434743289
 21
12.5804064633
 31
0.0
  0
ARC
  5
3C4
330
1F
100
AcDbEntity
  8
0
  6
Continuous
 62
     7
370
    15
100
AcDbCircle
 10
26.4551068969
 20
12.7527833623
 30
0.0
 40
0.1937075072359396
100
AcDbArc
 50
242.628775039
 51
297.1415284939
  0
LINE
  5
3C5
330
1F
100
AcDbEntity
  8
0
  6
Continuous
 62
     7
370
    15
100
AcDbLine
 10
26.7149945729
 20
12.6338514023
 30
0.0
 11
26.7149945729
 21
12.5804064895
 31
0.0
  0
LINE
  5
3C6
330
1F
100
AcDbEntity
  8
0
  6
Continuous
 62
     7
370
    15
100
AcDbLine
 10
26.8924197768
 20
12.634207048
 30
0.0
 11
26.8924197768
 21
12.5807621352
 31
0.0
  0
ARC
  5
3C7
330
1F
100
AcDbEntity
  8
0
  6
Continuous
 62
     7
370
    15
100
AcDbCircle
 10
26.8033620054
 20
12.7527831212
 30
0.0
 40
0.1937072696149311
100
AcDbArc
 50
242.8584352971
 51
297.3712611699
  0
ARC
  5
3C8
330
1F
100
AcDbEntity
  8
0
  6
Continuous
 62
     7
370
    15
100
AcDbCircle
 10
26.6292344765
 20
12.4129763917
 30
0.0
 40
0.1881160061305001
100
AcDbArc
 50
62.8778244718
 51
117.1221930275
  0
LINE
  5
3C9
330
1F
100
AcDbEntity
  8
0
  6
Continuous
 62
     7
370
    15
100
AcDbLine
 10
23.9788635646
 20
14.0122999122
 30
0.0
 11
23.9788635646
 21
13.9588549994
 31
0.0
  0
LINE
  5
3CA
330
1F
100
AcDbEntity
  8
0
  6
Continuous
 62
     7
370
    15
100
AcDbLine
 10
23.9788635646
 20
13.9588549994
 30
0.0
 11
26.3660491249
 21
12.580762109
 31
0.0
  0
LINE
  5
3CB
330
1F
100
AcDbEntity
  8
0
  6
Continuous
 62
     7
370
    15
100
AcDbLine
 10
27.9958864307
 20
13.271224788
 30
0.0
 11
27.9958864307
 21
13.2177798751
 31
0.0
  0
LINE
  5
3CC
330
1F
100
AcDbEntity
  8
0
  6
Continuous
 62
     7
370
    15
100
AcDbLine
 10
26.8924197768
 20
12.5807621352
 30
0.0
 11
27.9958864307
 21
13.2177798751
 31
0.0
  0
ARC
  5
3CD
330
1F
100
AcDbEntity
  8
0
  6
Continuous
 62
     7
370
    15
100
AcDbCircle
 10
27.9697547151
 20
13.2754547832
 30
0.0
 40
0.0633187301078086
100
AcDbArc
 50
294.374632982
 51
354.3051062022
  0
LINE
  5
3CE
330
1F
100
AcDbEntity
  8
0
  6
Continuous
 62
     7
370
    15
100
AcDbLine
 10
27.9329083286
 20
13.3503076865
 30
0.0
 11
27.9329083286
 21
13.2968627737
 31
0.0
  0
LINE
  5
3CF
330
1F
100
AcDbEntity
  8
0
  6
Continuous
 62
     7
370
    15
100
AcDbLine
 10
27.9345864634
 20
13.2958940071
 30
0.0
 11
27.9329083286
 21
13.2968627737
 31
0.0
  0
ARC
  5
3D0
330
1F
100
AcDbEntity
  8
0
  6
Continuous
 62
     7
370
    15
100
AcDbCircle
 10
27.973527937
 20
13.3865135068
 30
0.0
 40
0.0984236075648062
100
AcDbArc
 50
185.6947687023
 51
245.6253235886
  0
LINE
  5
3D1
330
1F
100
AcDbEntity
  8
0
  6
Continuous
 62
     7
370
    15
100
AcDbLine
 10
27.9849248796
 20
13.4800476525
 30
0.0
 11
27.9849248796
 21
13.4266027396
 31
0.0
  0
ARC
  5
3D2
330
1F
100
AcDbEntity
  8
0
  6
Continuous
 62
     7
370
    15
100
AcDbCircle
 10
28.0221119771
 20
13.3568165726
 30
0.0
 40
0.0790758453815722
100
AcDbArc
 50
118.0519060603
 51
143.8446712166
  0
LINE
  5
3D3
330
1F
100
AcDbEntity
  8
0
  6
Continuous
 62
     7
370
    15
100
AcDbLine
 10
28.1907583649
 20
13.5988727942
 30
0.0
 11
28.1907583649
 21
13.5454278814
 31
0.0
  0
LINE
  5
3D4
330
1F
100
AcDbEntity
  8
0
  6
Continuous
 62
     7
370
    15
100
AcDbLine
 10
27.9849248796
 20
13.4266027396
 30
0.0
 11
28.1907583649
 21
13.5454278814
 31
0.0
  0
ARC
  5
3D5
330
1F
100
AcDbEntity
  8
0
  6
Continuous
 62
     7
370
    15
100
AcDbCircle
 10
28.1646267874
 20
13.6031026904
 30
0.0
 40
0.063318582846186
100
AcDbArc
 50
294.3745561553
 51
354.3051830288
  0
LINE
  5
3D6
330
1F
100
AcDbEntity
  8
0
  6
Continuous
 62
     7
370
    15
100
AcDbLine
 10
28.1294584883
 20
13.6235420658
 30
0.0
 11
27.7111185887
 21
13.8650445493
 31
0.0
  0
ARC
  5
3D7
330
1F
100
AcDbEntity
  8
0
  6
Continuous
 62
     7
370
    15
100
AcDbCircle
 10
24.004995044
 20
14.0165297252
 30
0.0
 40
0.0633184665307504
100
AcDbArc
 50
185.6946565047
 51
245.6254936566
  0
LINE
  5
3D8
330
1F
100
AcDbEntity
  8
0
  6
Continuous
 62
     7
370
    15
100
AcDbLine
 10
24.2367136009
 20
14.2038800886
 30
0.0
 11
24.2367136009
 21
14.1504351757
 31
0.0
  0
LINE
  5
3D9
330
1F
100
AcDbEntity
  8
0
  6
Continuous
 62
     7
370
    15
100
AcDbLine
 10
24.2367136009
 20
14.1504351757
 30
0.0
 11
24.040163532
 21
14.0369692362
 31
0.0
  0
ARC
  5
3DA
330
1F
100
AcDbEntity
  8
0
  6
Continuous
 62
     7
370
    15
100
AcDbCircle
 10
24.1960943143
 20
14.2400856843
 30
0.0
 40
0.0984232702452042
100
AcDbArc
 50
294.3745597014
 51
354.3053124141
  0
LINE
  5
3DB
330
1F
100
AcDbEntity
  8
0
  6
Continuous
 62
     7
370
    15
100
AcDbLine
 10
24.1846970045
 20
14.3336200283
 30
0.0
 11
24.1846970045
 21
14.2801751155
 31
0.0
  0
ARC
  5
3DC
330
1F
100
AcDbEntity
  8
0
  6
Continuous
 62
     7
370
    15
100
AcDbCircle
 10
24.1475341509
 20
14.2104168163
 30
0.0
 40
0.0790398506115784
100
AcDbArc
 50
36.1493514916
 51
61.9541035414
  0
LINE
  5
3DD
330
1F
100
AcDbEntity
  8
0
  6
Continuous
 62
     7
370
    15
100
AcDbLine
 10
24.1737354534
 20
14.3399479971
 30
0.0
 11
24.1737354534
 21
14.2865030842
 31
0.0
  0
LINE
  5
3DE
330
1F
100
AcDbEntity
  8
0
  6
Continuous
 62
     7
370
    15
100
AcDbLine
 10
24.1737354534
 20
14.2865030842
 30
0.0
 11
24.1846970045
 21
14.2801751155
 31
0.0
  0
ARC
  5
3DF
330
1F
100
AcDbEntity
  8
0
  6
Continuous
 62
     7
370
    15
100
AcDbCircle
 10
24.199867148
 20
14.3441779184
 30
0.0
 40
0.0633186541114483
100
AcDbArc
 50
185.6948096255
 51
245.6253567409
  0
LINE
  5
3E0
330
1F
100
AcDbEntity
  8
0
  6
Continuous
 62
     7
370
    15
100
AcDbLine
 10
24.4585033862
 20
14.4936225267
 30
0.0
 11
24.2350354661
 21
14.3646172424
 31
0.0
  0
ARC
  5
3E1
330
1F
100
AcDbEntity
  8
0
  6
Continuous
 62
     7
370
    15
100
AcDbCircle
 10
26.6296321259
 20
13.89601664
 30
0.0
 40
0.2436709450112203
100
AcDbArc
 50
241.4087582345
 51
298.3801784597
  0
ARC
  5
3E2
330
1F
100
AcDbEntity
  8
0
  6
Continuous
 62
     7
370
    15
100
AcDbCircle
 10
26.6260413266
 20
13.6680695738
 30
0.0
 40
0.1138824053564424
100
AcDbArc
 50
129.1517841406
 51
172.9434663136
  0
ARC
  5
3E3
330
1F
100
AcDbEntity
  8
0
  6
Continuous
 62
     7
370
    15
100
AcDbCircle
 10
26.6267238737
 20
13.9833603362
 30
0.0
 40
0.2383012574242767
100
AcDbArc
 50
252.2662252914
 51
288.7817206971
  0
ARC
  5
3E4
330
1F
100
AcDbEntity
  8
0
  6
Continuous
 62
     7
370
    15
100
AcDbCircle
 10
26.6338540212
 20
13.6696931489
 30
0.0
 40
0.112236507477393
100
AcDbArc
 50
6.1061106728
 51
51.6789438104
  0
LINE
  5
3E5
330
1F
100
AcDbEntity
  8
0
  6
Continuous
 62
     7
370
    15
100
AcDbLine
 10
26.7454537666
 20
13.6816317595
 30
0.0
 11
26.7510108582
 21
13.3107862872
 31
0.0
  0
ARC
  5
3E6
330
1F
100
AcDbEntity
  8
0
  6
Continuous
 62
     7
370
    15
100
AcDbCircle
 10
26.6292344282
 20
13.5416700629
 30
0.0
 40
0.2610302985662565
100
AcDbArc
 50
242.1912190153
 51
297.8087809847
  0
LINE
  5
3E7
330
1F
100
AcDbEntity
  8
0
  6
Continuous
 62
     7
370
    15
100
AcDbLine
 10
26.5074579982
 20
13.3107862872
 30
0.0
 11
26.5130215326
 21
13.682059871
 31
0.0
  0
LWPOLYLINE
  5
3E8
330
1F
100
AcDbEntity
  8
0
  6
Continuous
 62
     7
370
    15
100
AcDbPolyline
 90
       18
 70
   128
 43
0.0
 10
26.4852416103
 20
13.8081835619
 10
26.4805086587
 20
13.8263715741
 10
26.4827031287
 20
13.8447199909
 10
26.4917209364
 20
13.8623598927
 10
26.5071350392
 20
13.8784560438
 10
26.5282156711
 20
13.8922462339
 10
26.553964554
 20
13.9030774769
 10
26.5831623563
 20
13.9104367606
 10
26.6144264068
 20
13.9139757733
 10
26.646276348
 20
13.9135268027
 10
26.6772039639
 20
13.909111091
 10
26.7057447773
 20
13.9009378401
 10
26.7305471515
 20
13.8893940223
 10
26.7504366735
 20
13.8750263335
 10
26.7644715533
 20
13.8585150267
 10
26.7719871795
 20
13.8406420091
 10
26.7726276983
 20
13.8222536482
 10
26.7663626196
 20
13.8042206974
  0
ARC
  5
3E9
330
1F
100
AcDbEntity
  8
0
  6
Continuous
 62
     7
370
    15
100
AcDbCircle
 10
26.6702069476
 20
13.8685729986
 30
0.0
 40
0.115702774065812
100
AcDbArc
 50
286.6963102371
 51
326.2075348765
  0
ARC
  5
3EA
330
1F
100
AcDbEntity
  8
0
  6
Continuous
 62
     7
370
    15
100
AcDbCircle
 10
26.5804786872
 20
13.8631340171
 30
0.0
 40
0.1099529595941791
100
AcDbArc
 50
209.9843420028
 51
256.1395590403
  0
LWPOLYLINE
  5
3EB
330
1F
100
AcDbEntity
  8
0
  6
Continuous
 62
     7
370
    15
100
AcDbPolyline
 90
       15
 70
   128
 43
0.0
 10
26.6983391332
 20
13.7562816284
 10
26.7016672719
 20
13.7619199933
 10
26.7042542111
 20
13.7751740694
 10
26.6999587378
 20
13.7882794752
 10
26.6891627951
 20
13.8000717317
 10
26.6728254596
 20
13.8095030747
 10
26.6523983683
 20
13.8157354922
 10
26.6296967705
 20
13.8182151637
 10
26.6067375496
 20
13.8167217555
 10
26.5855609102
 20
13.8113880651
 10
26.5680482542
 20
13.80268792
 10
26.5557559376
 20
13.7913943743
 10
26.5497760683
 20
13.7785108738
 10
26.5506399542
 20
13.7651823054
 10
26.5560149219
 20
13.7552687531
  0
LWPOLYLINE
  5
3EC
330
1F
100
AcDbEntity
  8
0
  6
Continuous
 62
     7
370
    15
100
AcDbPolyline
 90
       18
 70
   128
 43
0.0
 10
28.3274482612
 20
14.7054162558
 10
28.2962108895
 20
14.7017995029
 10
28.264357863
 20
14.7021692665
 10
28.2333975337
 20
14.7065079452
 10
28.2047960124
 20
14.7146101088
 10
28.1799077487
 20
14.7260920855
 10
28.159911103
 20
14.7404101913
 10
28.1457530832
 20
14.7568864522
 10
28.1381040174
 20
14.7747405848
 10
28.1373262932
 20
14.7931271645
 10
28.1434567074
 20
14.8111755167
 10
28.1562047419
 20
14.8280310492
 10
28.174967038
 20
14.8428955629
 10
28.1988549362
 20
14.8550651526
 10
28.2267373088
 20
14.8639635248
 10
28.2572938259
 20
14.8691693944
 10
28.2890776598
 20
14.8704362349
 10
28.3205836347
 20
14.8677039601
  0
LINE
  5
3ED
330
1F
100
AcDbEntity
  8
0
  6
Continuous
 62
     7
370
    15
100
AcDbLine
 10
26.7663626196
 20
13.8042206974
 30
0.0
 11
28.3274482612
 21
14.7054162558
 31
0.0
  0
LINE
  5
3EE
330
1F
100
AcDbEntity
  8
0
  6
Continuous
 62
     7
370
    15
100
AcDbLine
 10
23.8490382948
 20
15.3300313426
 30
0.0
 11
26.4852416103
 21
13.8081835619
 31
0.0
  0
LWPOLYLINE
  5
3EF
330
1F
100
AcDbEntity
  8
0
  6
Continuous
 62
     7
370
    15
100
AcDbPolyline
 90
       18
 70
   128
 43
0.0
 10
23.8421736683
 20
15.4923190468
 10
23.87341104
 20
15.4959357998
 10
23.9052640665
 20
15.4955660362
 10
23.9362243958
 20
15.4912273575
 10
23.9648259171
 20
15.4831251938
 10
23.9897141808
 20
15.4716432172
 10
24.0097108265
 20
15.4573251113
 10
24.0238688463
 20
15.4408488505
 10
24.0315179121
 20
15.4229947178
 10
24.0322956363
 20
15.4046081381
 10
24.0261652221
 20
15.3865597859
 10
24.0134171875
 20
15.3697042535
 10
23.9946548915
 20
15.3548397398
 10
23.9707669932
 20
15.34267015
 10
23.9428846206
 20
15.3337717779
 10
23.9123281036
 20
15.3285659083
 10
23.8805442696
 20
15.3272990678
 10
23.8490382948
 20
15.3300313426
  0
LINE
  5
3F0
330
1F
100
AcDbEntity
  8
0
  6
Continuous
 62
     7
370
    15
100
AcDbLine
 10
25.4032593099
 20
16.3935146052
 30
0.0
 11
23.8421736683
 21
15.4923190468
 31
0.0
  0
LWPOLYLINE
  5
3F1
330
1F
100
AcDbEntity
  8
0
  6
Continuous
 62
     7
370
    15
100
AcDbPolyline
 90
       18
 70
   128
 43
0.0
 10
25.6843803192
 20
16.3895517407
 10
25.6891132708
 20
16.3713637286
 10
25.6869188008
 20
16.3530153118
 10
25.6779009931
 20
16.33537541
 10
25.6624868903
 20
16.3192792589
 10
25.6414062584
 20
16.3054890687
 10
25.6156573755
 20
16.2946578258
 10
25.5864595732
 20
16.2872985421
 10
25.5551955227
 20
16.2837595293
 10
25.5233455815
 20
16.2842084999
 10
25.4924179656
 20
16.2886242116
 10
25.4638771522
 20
16.2967974625
 10
25.439074778
 20
16.3083412803
 10
25.419185256
 20
16.3227089691
 10
25.4051503762
 20
16.339220276
 10
25.39763475
 20
16.3570932936
 10
25.3969942312
 20
16.3754816544
 10
25.4032593099
 20
16.3935146052
  0
LINE
  5
3F2
330
1F
100
AcDbEntity
  8
0
  6
Continuous
 62
     7
370
    15
100
AcDbLine
 10
28.3205836347
 20
14.8677039601
 30
0.0
 11
25.6843803192
 21
16.3895517407
 31
0.0
  0
LINE
  5
3F3
330
1F
100
AcDbEntity
  8
0
  6
Continuous
 62
     7
370
    15
100
AcDbLine
 10
26.4365310565
 20
13.724787576
 30
0.0
 11
26.5130215326
 21
13.682059871
 31
0.0
  0
ARC
  5
3F4
330
1F
100
AcDbEntity
  8
0
  6
Continuous
 62
     7
370
    15
100
AcDbCircle
 10
26.542515591
 20
13.7188069391
 30
0.0
 40
0.1061531420996016
100
AcDbArc
 50
122.6524034779
 51
176.7702624024
  0
ARC
  5
3F5
330
1F
100
AcDbEntity
  8
0
  6
Continuous
 62
     7
370
    15
100
AcDbCircle
 10
27.4978585207
 20
12.4265464582
 30
0.0
 40
1.463335924318057
100
AcDbArc
 50
117.8135020248
 51
120.9420530981
  0
ARC
  5
3F6
330
1F
100
AcDbEntity
  8
0
  6
Continuous
 62
     7
370
    15
100
AcDbCircle
 10
26.7090887378
 20
13.7148441323
 30
0.0
 40
0.1061530401124916
100
AcDbArc
 50
3.2297094783
 51
57.3476246415
  0
LINE
  5
3F7
330
1F
100
AcDbEntity
  8
0
  6
Continuous
 62
     7
370
    15
100
AcDbLine
 10
23.8003277409
 20
15.2466353566
 30
0.0
 11
23.7238797332
 21
15.2921971591
 31
0.0
  0
LINE
  5
3F8
330
1F
100
AcDbEntity
  8
0
  6
Continuous
 62
     7
370
    15
100
AcDbLine
 10
23.8003277409
 20
15.2466353566
 30
0.0
 11
26.4365310565
 21
13.724787576
 31
0.0
  0
LINE
  5
3F9
330
1F
100
AcDbEntity
  8
0
  6
Continuous
 62
     7
370
    15
100
AcDbLine
 10
23.7183161988
 20
14.9209235753
 30
0.0
 11
26.5074579982
 21
13.3107862872
 31
0.0
  0
LINE
  5
3FA
330
1F
100
AcDbEntity
  8
0
  6
Continuous
 62
     7
370
    15
100
AcDbLine
 10
23.7238797332
 20
15.2921971591
 30
0.0
 11
23.7183161988
 21
14.9209235753
 31
0.0
  0
LINE
  5
3FB
330
1F
100
AcDbEntity
  8
0
  6
Continuous
 62
     7
370
    15
100
AcDbLine
 10
26.8150731734
 20
13.7208247115
 30
0.0
 11
28.376158815
 21
14.6220202699
 31
0.0
  0
ARC
  5
3FC
330
1F
100
AcDbEntity
  8
0
  6
Continuous
 62
     7
370
    15
100
AcDbCircle
 10
29.1873626644
 20
13.3302647338
 30
0.0
 40
1.525347190101136
100
AcDbArc
 50
119.090702761
 51
122.1282284273
  0
LINE
  5
3FD
330
1F
100
AcDbEntity
  8
0
  6
Continuous
 62
     7
370
    15
100
AcDbLine
 10
28.4513057307
 20
14.292345624
 30
0.0
 11
28.4457486392
 21
14.6631910963
 31
0.0
  0
LINE
  5
3FE
330
1F
100
AcDbEntity
  8
0
  6
Continuous
 62
     7
370
    15
100
AcDbLine
 10
26.7510108582
 20
13.3107862872
 30
0.0
 11
28.4513057307
 21
14.292345624
 31
0.0
  0
ARC
  5
3FF
330
1F
100
AcDbEntity
  8
0
  6
Continuous
 62
     7
370
    15
100
AcDbCircle
 10
28.2701743794
 20
14.6160396907
 30
0.0
 40
0.1061530401125056
100
AcDbArc
 50
3.2297094783
 51
57.3476246414
  0
ARC
  5
400
330
1F
100
AcDbEntity
  8
0
  6
Continuous
 62
     7
370
    15
100
AcDbCircle
 10
23.9063122755
 20
15.2406547197
 30
0.0
 40
0.1061531420996319
100
AcDbArc
 50
122.6524034779
 51
176.7702624023
  0
LWPOLYLINE
  5
401
330
1F
100
AcDbEntity
  8
0
  6
Continuous
 62
     7
370
    15
100
AcDbPolyline
 90
       15
 70
   128
 43
0.0
 10
28.3540306306
 20
14.7115426696
 10
28.3580788256
 20
14.7181460294
 10
28.3606657647
 20
14.7314001055
 10
28.3563702915
 20
14.7445055113
 10
28.3455743487
 20
14.7562977677
 10
28.3292370133
 20
14.7657291108
 10
28.3088099219
 20
14.7719615282
 10
28.2861083241
 20
14.7744411998
 10
28.2631491032
 20
14.7729477916
 10
28.2419724638
 20
14.7676141012
 10
28.2244598079
 20
14.7589139561
 10
28.2121674913
 20
14.7476204104
 10
28.2061876219
 20
14.7347369099
 10
28.2070515079
 20
14.7214083415
 10
28.2119225723
 20
14.7121612909
  0
ARC
  5
402
330
1F
100
AcDbEntity
  8
0
  6
Continuous
 62
     7
370
    15
100
AcDbCircle
 10
28.3714695629
 20
14.7858668109
 30
0.0
 40
0.0572567943179943
100
AcDbArc
 50
309.5784453614
 51
47.2777366148
  0
ARC
  5
403
330
1F
100
AcDbEntity
  8
0
  6
Continuous
 62
     7
370
    15
100
AcDbCircle
 10
28.3028779837
 20
14.8672500532
 30
0.0
 40
0.1636883518237942
100
AcDbArc
 50
278.6329539689
 51
309.9337723825
  0
ARC
  5
404
330
1F
100
AcDbEntity
  8
0
  6
Continuous
 62
     7
370
    15
100
AcDbCircle
 10
28.3039988024
 20
14.7091804539
 30
0.0
 40
0.1593887031016244
100
AcDbArc
 50
48.1620822562
 51
84.0274060279
  0
ARC
  5
405
330
1F
100
AcDbEntity
  8
0
  6
Continuous
 62
     7
370
    15
100
AcDbCircle
 10
28.341159651
 20
14.6612264004
 30
0.0
 40
0.1046074398529802
100
AcDbArc
 50
1.0761701382
 51
50.321139137
  0
LWPOLYLINE
  5
406
330
1F
100
AcDbEntity
  8
0
  6
Continuous
 62
     7
370
    15
100
AcDbPolyline
 90
        4
 70
   128
 43
0.0
 10
28.4513057307
 20
14.292345624
 10
28.4847282256
 20
14.3195530714
 10
28.5006810774
 20
14.3516140953
 10
28.4994642868
 20
14.3638046917
  0
ARC
  5
407
330
1F
100
AcDbEntity
  8
0
  6
Continuous
 62
     7
370
    15
100
AcDbCircle
 10
23.867581999
 20
15.3286277296
 30
0.0
 40
0.1656515336749577
100
AcDbArc
 50
98.8230981025
 51
129.7436282489
  0
ARC
  5
408
330
1F
100
AcDbEntity
  8
0
  6
Continuous
 62
     7
370
    15
100
AcDbCircle
 10
23.8658809329
 20
15.4891364767
 30
0.0
 40
0.1599941191882131
100
AcDbArc
 50
228.2322315224
 51
263.9572567617
  0
ARC
  5
409
330
1F
100
AcDbEntity
  8
0
  6
Continuous
 62
     7
370
    15
100
AcDbCircle
 10
23.7981523665
 20
15.4118684918
 30
0.0
 40
0.0572567943179821
100
AcDbArc
 50
129.5784453614
 51
227.2777366148
  0
LWPOLYLINE
  5
40A
330
1F
100
AcDbEntity
  8
0
  6
Continuous
 62
     7
370
    15
100
AcDbPolyline
 90
       15
 70
   128
 43
0.0
 10
23.9576993572
 20
15.3379268698
 10
23.9612804911
 20
15.3439116083
 10
23.9638674302
 20
15.3571656844
 10
23.9595720477
 20
15.3702710378
 10
23.9487760143
 20
15.3820633466
 10
23.9324386788
 20
15.3914946897
 10
23.9120116782
 20
15.3977270547
 10
23.8893099896
 20
15.4002067787
 10
23.8663507687
 20
15.3987133705
 10
23.8451741293
 20
15.3933796801
 10
23.8276615641
 20
15.3846794826
 10
23.8153692475
 20
15.3733859369
 10
23.8093892874
 20
15.3605024888
 10
23.8102532641
 20
15.347173868
 10
23.8153516431
 20
15.3376225096
  0
ARC
  5
40B
330
1F
100
AcDbEntity
  8
0
  6
Continuous
 62
     7
370
    15
100
AcDbCircle
 10
23.8275139507
 20
15.2917790513
 30
0.0
 40
0.1036350609673514
100
AcDbArc
 50
131.1587609852
 51
179.7688438719
  0
ARC
  5
40C
330
1F
100
AcDbEntity
  8
0
  6
Continuous
 62
     7
370
    15
100
AcDbCircle
 10
23.7504011373
 20
14.9964252977
 30
0.0
 40
0.0820362930253166
100
AcDbArc
 50
182.7782398269
 51
246.9766249796
  0
ARC
  5
40D
330
1F
100
AcDbEntity
  8
0
  6
Continuous
 62
     7
370
    15
100
AcDbCircle
 10
25.5002707823
 20
16.3280037242
 30
0.0
 40
0.1170593922915025
100
AcDbArc
 50
106.934609993
 51
145.9692351206
  0
ARC
  5
40E
330
1F
100
AcDbEntity
  8
0
  6
Continuous
 62
     7
370
    15
100
AcDbCircle
 10
25.5428980558
 20
16.2143749665
 30
0.0
 40
0.2383012574242168
100
AcDbArc
 50
72.2662252914
 51
108.7817206971
  0
ARC
  5
40F
330
1F
100
AcDbEntity
  8
0
  6
Continuous
 62
     7
370
    15
100
AcDbCircle
 10
25.5897767114
 20
16.3354438214
 30
0.0
 40
0.108983987486179
100
AcDbArc
 50
29.7671176425
 51
76.3567834006
  0
LWPOLYLINE
  5
410
330
1F
100
AcDbEntity
  8
0
  6
Continuous
 62
     7
370
    15
100
AcDbPolyline
 90
       15
 70
   128
 43
0.0
 10
25.6141109108
 20
16.2941529059
 10
25.6176920447
 20
16.3001376443
 10
25.6202789838
 20
16.3133917204
 10
25.6159836014
 20
16.3264970739
 10
25.6051875679
 20
16.3382893827
 10
25.5888502324
 20
16.3477207257
 10
25.5684232318
 20
16.3539530908
 10
25.5457215433
 20
16.3564328147
 10
25.5227623224
 20
16.3549394065
 10
25.5015856829
 20
16.3496057161
 10
25.4840731177
 20
16.3409055187
 10
25.4717808011
 20
16.329611973
 10
25.4658008411
 20
16.3167285249
 10
25.4666648177
 20
16.3033999041
 10
25.4715357915
 20
16.2941529059
  0
LWPOLYLINE
  5
411
330
1F
100
AcDbEntity
  8
0
  6
Continuous
 62
     7
370
    15
100
AcDbPolyline
 90
       23
 70
   128
 43
0.0
 10
28.561231406
 20
11.0257195928
 10
28.5756341179
 20
11.0368264624
 10
28.5840330493
 20
11.0498258398
 10
28.5857475272
 20
11.0636647224
 10
28.5806388487
 20
11.0772218229
 10
28.569120808
 20
11.08939893
 10
28.5521265744
 20
11.0992094923
 10
28.5310331021
 20
11.1058586108
 10
28.5075489707
 20
11.1088077881
 10
28.4835767256
 20
11.1078180411
 10
28.4610585221
 20
11.102969546
 10
28.4418187748
 20
11.0946550374
 10
28.4274161083
 20
11.0835481939
 10
28.4190173583
 20
11.0705487117
 10
28.4173028804
 20
11.0567098292
 10
28.4224115135
 20
11.0431527025
 10
28.4339293727
 20
11.0309757001
 10
28.4509236064
 20
11.0211651379
 10
28.4720172601
 20
11.0145159145
 10
28.4955014369
 20
11.0115667634
 10
28.5194736821
 20
11.0125565104
 10
28.5419917041
 20
11.0174051103
 10
28.561231406
 20
11.0257195928
  0
LWPOLYLINE
  5
412
330
1F
100
AcDbEntity
  8
0
  6
Continuous
 62
     7
370
    15
100
AcDbPolyline
 90
       23
 70
   128
 43
0.0
 10
27.1691149587
 20
10.2220678739
 10
27.1498752114
 20
10.2137533653
 10
27.1273571894
 20
10.2089047654
 10
27.1033849443
 20
10.2079150184
 10
27.0799008128
 20
10.2108641957
 10
27.0588071591
 20
10.2175134191
 10
27.0418129254
 20
10.2273239813
 10
27.0302950662
 20
10.2395009837
 10
27.0251863878
 20
10.2530580842
 10
27.0269008656
 20
10.2668969667
 10
27.0352996156
 20
10.2798964489
 10
27.0497023275
 20
10.2910033186
 10
27.0689420294
 20
10.299317801
 10
27.0914602329
 20
10.3041662961
 10
27.115432478
 20
10.3051560431
 10
27.1389166548
 20
10.302206892
 10
27.1600101271
 20
10.2955577734
 10
27.1770043608
 20
10.2857472112
 10
27.1885224014
 20
10.2735701041
 10
27.1936310345
 20
10.2600129774
 10
27.1919165567
 20
10.2461740948
 10
27.1835176252
 20
10.2331747174
 10
27.1691149587
 20
10.2220678739
  0
LINE
  5
413
330
1F
100
AcDbEntity
  8
0
  6
Continuous
 62
     7
370
    15
100
AcDbLine
 10
28.8108844622
 20
11.1494818923
 30
0.0
 11
28.4695531434
 21
11.3465282684
 31
0.0
  0
ARC
  5
414
330
1F
100
AcDbEntity
  8
0
  6
Continuous
 62
     7
370
    15
100
AcDbCircle
 10
28.7855344495
 20
11.0826895328
 30
0.0
 40
0.0714411815854607
100
AcDbArc
 50
290.7834097601
 51
69.2165123977
  0
LINE
  5
415
330
1F
100
AcDbEntity
  8
0
  6
Continuous
 62
     7
370
    15
100
AcDbLine
 10
27.1861297913
 20
10.0779462847
 30
0.0
 11
28.8108843715
 21
11.015897139
 31
0.0
  0
ARC
  5
416
330
1F
100
AcDbEntity
  8
0
  6
Continuous
 62
     7
370
    15
100
AcDbCircle
 10
27.0704294144
 20
10.3012471757
 30
0.0
 40
0.251495258653309
100
AcDbArc
 50
242.609696318
 51
297.3903296238
  0
LINE
  5
417
330
1F
100
AcDbEntity
  8
0
  6
Continuous
 62
     7
370
    15
100
AcDbLine
 10
26.9547291387
 20
10.0779462323
 30
0.0
 11
26.5379914662
 21
10.3185237698
 31
0.0
  0
LINE
  5
418
330
1F
100
AcDbEntity
  8
0
  6
Continuous
 62
     7
370
    15
100
AcDbLine
 10
23.7223915263
 20
11.9439350172
 30
0.0
 11
23.3587374673
 21
12.1538680369
 31
0.0
  0
ARC
  5
419
330
1F
100
AcDbEntity
  8
0
  6
Continuous
 62
     7
370
    15
100
AcDbCircle
 10
23.38408748
 20
12.2206603964
 30
0.0
 40
0.0714411815854582
100
AcDbArc
 50
110.7834097601
 51
249.2165123977
  0
LINE
  5
41A
330
1F
100
AcDbEntity
  8
0
  6
Continuous
 62
     7
370
    15
100
AcDbLine
 10
23.358737558
 20
12.2874527902
 30
0.0
 11
23.6738843305
 21
12.4693831495
 31
0.0
  0
LWPOLYLINE
  5
41B
330
1F
100
AcDbEntity
  8
0
  6
Continuous
 62
     7
370
    15
100
AcDbPolyline
 90
       10
 70
   128
 43
0.0
 10
23.6083905235
 20
12.2776303365
 10
23.5939878116
 20
12.2665234668
 10
23.5855888801
 20
12.2535240894
 10
23.5838744023
 20
12.2396852068
 10
23.5889830808
 20
12.2261281063
 10
23.6005011214
 20
12.2139509992
 10
23.6174953551
 20
12.2041404369
 10
23.6385888273
 20
12.1974913184
 10
23.6620729588
 20
12.1945421411
 10
23.6821763651
 20
12.1951003094
  0
ARC
  5
41C
330
1F
100
AcDbEntity
  8
0
  6
Continuous
 62
     7
370
    15
100
AcDbCircle
 10
23.6675350494
 20
12.1632264964
 30
0.0
 40
0.1287878625801811
100
AcDbArc
 50
84.7753066894
 51
117.3380708563
  0
LINE
  5
41D
330
1F
100
AcDbEntity
  8
0
  6
Continuous
 62
     7
370
    15
100
AcDbLine
 10
26.9547291387
 20
10.0779462323
 30
0.0
 11
26.9547291387
 21
10.0136436449
 31
0.0
  0
LINE
  5
41E
330
1F
100
AcDbEntity
  8
0
  6
Continuous
 62
     7
370
    15
100
AcDbLine
 10
27.1861297913
 20
10.0136436973
 30
0.0
 11
27.1861297913
 21
10.0779462847
 31
0.0
  0
ARC
  5
41F
330
1F
100
AcDbEntity
  8
0
  6
Continuous
 62
     7
370
    15
100
AcDbCircle
 10
27.0704294144
 20
10.2369445883
 30
0.0
 40
0.2514952586533184
100
AcDbArc
 50
242.609696318
 51
297.3903296238
  0
LINE
  5
420
330
1F
100
AcDbEntity
  8
0
  6
Continuous
 62
     7
370
    15
100
AcDbLine
 10
28.8108843715
 20
10.9515945516
 30
0.0
 11
28.8108843715
 21
11.015897139
 31
0.0
  0
LINE
  5
421
330
1F
100
AcDbEntity
  8
0
  6
Continuous
 62
     7
370
    15
100
AcDbLine
 10
27.1861297913
 20
10.0136436973
 30
0.0
 11
28.8108843715
 21
10.9515945516
 31
0.0
  0
LINE
  5
422
330
1F
100
AcDbEntity
  8
0
  6
Continuous
 62
     7
370
    15
100
AcDbLine
 10
23.3587374673
 20
12.1538680369
 30
0.0
 11
23.3587374673
 21
12.0895654496
 31
0.0
  0
LINE
  5
423
330
1F
100
AcDbEntity
  8
0
  6
Continuous
 62
     7
370
    15
100
AcDbLine
 10
26.9547291387
 20
10.0136436449
 30
0.0
 11
23.3587374673
 21
12.0895654496
 31
0.0
  0
ARC
  5
424
330
1F
100
AcDbEntity
  8
0
  6
Continuous
 62
     7
370
    15
100
AcDbCircle
 10
27.109408733
 20
10.1165824012
 30
0.0
 40
0.1250965205660566
100
AcDbArc
 50
59.5136129993
 51
120.4864342935
  0
ARC
  5
425
330
1F
100
AcDbEntity
  8
0
  6
Continuous
 62
     7
370
    15
100
AcDbCircle
 10
28.5015251805
 20
10.9211206231
 30
0.0
 40
0.1243333901032425
100
AcDbArc
 50
59.3063558637
 51
120.6936677827
  0
ARC
  5
426
330
1F
100
AcDbEntity
  8
0
  6
Continuous
 62
     7
370
    15
100
AcDbCircle
 10
28.7769218829
 20
11.026552715
 30
0.0
 40
0.0822932372785329
100
AcDbArc
 50
294.3746110027
 51
354.305342534
  0
ARC
  5
427
330
1F
100
AcDbEntity
  8
0
  6
Continuous
 62
     7
370
    15
100
AcDbCircle
 10
23.3927000282
 20
12.1645235729
 30
0.0
 40
0.0822932305423351
100
AcDbArc
 50
185.6947397975
 51
245.6253316026
  0
LINE
  5
428
330
1F
100
AcDbEntity
  8
0
  6
Continuous
 62
     7
370
    15
100
AcDbLine
 10
23.6083905235
 20
12.2133277491
 30
0.0
 11
23.6046309863
 21
12.2110113634
 31
0.0
  0
ARC
  5
429
330
1F
100
AcDbEntity
  8
0
  6
Continuous
 62
     7
370
    15
100
AcDbCircle
 10
23.6676505528
 20
12.098587375
 30
0.0
 40
0.1291398641708878
100
AcDbArc
 50
83.9722589815
 51
117.3150234993
  0
ARC
  5
42A
330
1F
100
AcDbEntity
  8
0
  6
Continuous
 62
     7
370
    15
100
AcDbCircle
 10
26.6292345189
 20
10.5838549278
 30
0.0
 40
0.261791748527979
100
AcDbArc
 50
242.2790812902
 51
297.7209187098
  0
LINE
  5
42B
330
1F
100
AcDbEntity
  8
0
  6
Continuous
 62
     7
370
    15
100
AcDbLine
 10
26.5074579982
 20
10.9887482898
 30
0.0
 11
26.507458089
 21
10.3521106275
 31
0.0
  0
ELLIPSE
  5
42C
330
1F
100
AcDbEntity
  8
0
  6
Continuous
 62
     7
370
    15
100
AcDbEllipse
 10
26.6292344683
 20
11.0590911481
 30
0.0
 11
0.1722440944881889
 21
0.0
 31
0.0
210
0.0
220
0.0
230
1.0
 40
0.5774635729
 41
3.927143110234859
 42
5.497634850534582
  0
LINE
  5
42D
330
1F
100
AcDbEntity
  8
0
  6
Continuous
 62
     7
370
    15
100
AcDbLine
 10
26.7510108582
 20
10.9887482898
 30
0.0
 11
26.7510109489
 21
10.3521106275
 31
0.0
  0
LWPOLYLINE
  5
42E
330
1F
100
AcDbEntity
  8
0
  6
Continuous
 62
     7
370
    15
100
AcDbPolyline
 90
       22
 70
   128
 43
0.0
 10
27.9860304631
 20
11.9829528251
 10
28.009254249
 20
11.9937295608
 10
28.035948234
 20
12.0013722505
 10
28.0648640029
 20
12.005523546
 10
28.0946496923
 20
12.0059893324
 10
28.1239124222
 20
12.0027478435
 10
28.1512839042
 20
11.9959506571
 10
28.1754843713
 20
11.9859155964
 10
28.1953821057
 20
11.973111853
 10
28.2100468872
 20
11.9581381416
 10
28.2187928249
 20
11.9416946217
 10
28.2212111158
 20
11.9245501565
 10
28.2171886014
 20
11.9075064027
 10
28.2069133043
 20
11.8913603543
 10
28.1908658515
 20
11.8768669139
 10
28.1697965172
 20
11.8647038461
 10
28.1446904218
 20
11.8554398488
 10
28.1167216152
 20
11.849508046
 10
28.0871977686
 20
11.847185898
 10
28.057499466
 20
11.8485819475
 10
28.0290153678
 20
11.8536308699
 10
28.0166641581
 20
11.8571297029
  0
ARC
  5
42F
330
1F
100
AcDbEntity
  8
0
  6
Continuous
 62
     7
370
    15
100
AcDbCircle
 10
28.0134492304
 20
11.9207137762
 30
0.0
 40
0.0680109403497965
100
AcDbArc
 50
113.775392797
 51
175.2443930406
  0
LWPOLYLINE
  5
430
330
1F
100
AcDbEntity
  8
0
  6
Continuous
 62
     7
370
    15
100
AcDbPolyline
 90
       12
 70
   128
 43
0.0
 10
23.9887195777
 20
12.8393375995
 10
24.011943409
 20
12.8501143614
 10
24.0386373486
 20
12.8577570249
 10
24.0675531629
 20
12.8619083466
 10
24.0973388523
 20
12.862374133
 10
24.1266015821
 20
12.8591326441
 10
24.1539730642
 20
12.8523354577
 10
24.1781735313
 20
12.842300397
 10
24.1980713564
 20
12.8294966012
 10
24.2127360472
 20
12.8145229422
 10
24.2214820757
 20
12.7980793699
 10
24.2239088057
 20
12.7811251168
  0
LWPOLYLINE
  5
431
330
1F
100
AcDbEntity
  8
0
  6
Continuous
 62
     7
370
    15
100
AcDbPolyline
 90
       13
 70
   128
 43
0.0
 10
24.1056325657
 20
12.7043401642
 10
24.0898869286
 20
12.7035706985
 10
24.0601887167
 20
12.7049666957
 10
24.0317045278
 20
12.7100156705
 10
24.0057665791
 20
12.7184814163
 10
23.983587351
 20
12.7299681862
 10
23.9662042326
 20
12.7439388185
 10
23.9544298846
 20
12.7597400388
 10
23.9488148528
 20
12.7766330531
 10
23.949621706
 20
12.7938279656
 10
23.9568127398
 20
12.8105206837
 10
23.9700517011
 20
12.8259307932
 10
23.9887195777
 20
12.8393375995
  0
LWPOLYLINE
  5
432
330
1F
100
AcDbEntity
  8
0
  6
Continuous
 62
     7
370
    15
100
AcDbPolyline
 90
       20
 70
   128
 43
0.0
 10
23.8450015336
 20
12.6438737394
 10
23.8337993285
 20
12.6529312066
 10
23.8282985892
 20
12.6635976445
 10
23.8290952336
 20
12.67471727
 10
23.8361030547
 20
12.6850851101
 10
23.848562613
 20
12.6935775463
 10
23.8651236333
 20
12.6992743736
 10
23.8839916464
 20
12.7015582278
 10
23.9031220014
 20
12.7001816395
 10
23.920441372
 20
12.6952938028
 10
23.9340732562
 20
12.6874242835
 10
23.9425402459
 20
12.6774259713
 10
23.9449247345
 20
12.6663823048
 10
23.9409685543
 20
12.6554900327
 10
23.9311002908
 20
12.6459295592
 10
23.9163893657
 20
12.6387368093
 10
23.898429794
 20
12.6346912803
 10
23.8791680412
 20
12.6342313349
 10
23.8606911361
 20
12.6374068965
 10
23.8450015336
 20
12.6438737394
  0
LWPOLYLINE
  5
433
330
1F
100
AcDbEntity
  8
0
  6
Continuous
 62
     7
370
    15
100
AcDbPolyline
 90
       20
 70
   128
 43
0.0
 10
26.5853882237
 20
11.0618821769
 10
26.5741861094
 20
11.0709395916
 10
26.5686852794
 20
11.0816060819
 10
26.5694820145
 20
11.0927256551
 10
26.5764898355
 20
11.1030934951
 10
26.5889493939
 20
11.1115859314
 10
26.6055104141
 20
11.1172827587
 10
26.6243784273
 20
11.1195666129
 10
26.6435086915
 20
11.1181900769
 10
26.6608281528
 20
11.1133021878
 10
26.6744600371
 20
11.1054326685
 10
26.6829269361
 20
11.0954344087
 10
26.6853115154
 20
11.0843906899
 10
26.6813553351
 20
11.0734984177
 10
26.6714870716
 20
11.0639379443
 10
26.6567761466
 20
11.0567451943
 10
26.6388165749
 20
11.0526996653
 10
26.6195547314
 20
11.0522397723
 10
26.601077917
 20
11.0554152815
 10
26.5853882237
 20
11.0618821769
  0
LWPOLYLINE
  5
434
330
1F
100
AcDbEntity
  8
0
  6
Continuous
 62
     7
370
    15
100
AcDbPolyline
 90
       20
 70
   128
 43
0.0
 10
28.2417997774
 20
12.0181082129
 10
28.230597663
 20
12.0271656277
 10
28.225096833
 20
12.0378321179
 10
28.2258935681
 20
12.0489516911
 10
28.2329013891
 20
12.0593195312
 10
28.2453609475
 20
12.0678119674
 10
28.2619219678
 20
12.0735087947
 10
28.2807899809
 20
12.0757926489
 10
28.2999202452
 20
12.074416113
 10
28.3172397064
 20
12.0695282239
 10
28.3308715907
 20
12.0616587046
 10
28.3393384897
 20
12.0516604448
 10
28.341723069
 20
12.0406167259
 10
28.3377668888
 20
12.0297244538
 10
28.3278986253
 20
12.0201639803
 10
28.3131877002
 20
12.0129712304
 10
28.2952281285
 20
12.0089257014
 10
28.275966285
 20
12.0084658084
 10
28.2574894706
 20
12.0116413176
 10
28.2417997774
 20
12.0181082129
  0
LWPOLYLINE
  5
435
330
1F
100
AcDbEntity
  8
0
  6
Continuous
 62
     7
370
    15
100
AcDbPolyline
 90
       20
 70
   128
 43
0.0
 10
25.5014130872
 20
13.6000997755
 10
25.4902108822
 20
13.6091572426
 10
25.4847101429
 20
13.6198236805
 10
25.4855067873
 20
13.6309433061
 10
25.4925146083
 20
13.6413111462
 10
25.5049741667
 20
13.6498035824
 10
25.5215351869
 20
13.6555004097
 10
25.5404032001
 20
13.6577842639
 10
25.559533555
 20
13.6564076756
 10
25.5768529256
 20
13.6515198388
 10
25.5904848099
 20
13.6436503196
 10
25.5989517996
 20
13.6336520074
 10
25.6013362881
 20
13.6226083409
 10
25.5973801079
 20
13.6117160688
 10
25.5875118444
 20
13.6021555953
 10
25.5728009194
 20
13.5949628453
 10
25.5548413476
 20
13.5909173164
 10
25.5355795949
 20
13.590457371
 10
25.5171026898
 20
13.5936329326
 10
25.5014130872
 20
13.6000997755
  0
ELLIPSE
  5
436
330
1F
100
AcDbEntity
  8
0
  6
Continuous
 62
     7
370
    15
100
AcDbEllipse
 10
28.3294551052
 20
12.0406076296
 30
0.0
 11
0.1722965657046593
 21
0.0
 31
0.0
210
0.0
220
0.0
230
1.0
 40
0.5771119048
 41
5.497939437029721
 42
7.068431177329465
  0
LINE
  5
437
330
1F
100
AcDbEntity
  8
0
  6
Continuous
 62
     7
370
    15
100
AcDbLine
 10
28.4513057307
 20
11.9703076266
 30
0.0
 11
26.7510108582
 21
10.9887482898
 31
0.0
  0
LINE
  5
438
330
1F
100
AcDbEntity
  8
0
  6
Continuous
 62
     7
370
    15
100
AcDbLine
 10
26.5074579982
 20
10.9887482898
 30
0.0
 11
23.7183161988
 21
12.5988855778
 31
0.0
  0
ELLIPSE
  5
439
330
1F
100
AcDbEntity
  8
0
  6
Continuous
 62
     7
370
    15
100
AcDbEllipse
 10
23.8401668242
 20
12.6691856271
 30
0.0
 11
0.1722965657046593
 21
0.0
 31
0.0
210
0.0
220
0.0
230
1.0
 40
0.5771119048
 41
2.356346783439941
 42
3.926838523739661
  0
LINE
  5
43A
330
1F
100
AcDbEntity
  8
0
  6
Continuous
 62
     7
370
    15
100
AcDbLine
 10
23.7183161988
 20
12.7394856511
 30
0.0
 11
24.9047091883
 21
13.4243757457
 31
0.0
  0
LINE
  5
43B
330
1F
100
AcDbEntity
  8
0
  6
Continuous
 62
     7
370
    15
100
AcDbLine
 10
25.0030153707
 20
13.4811266968
 30
0.0
 11
25.4186110713
 21
13.721044988
 31
0.0
  0
ELLIPSE
  5
43C
330
1F
100
AcDbEntity
  8
0
  6
Continuous
 62
     7
370
    15
100
AcDbEllipse
 10
25.5403874612
 20
13.6507021087
 30
0.0
 11
0.1722440944881889
 21
0.0
 31
0.0
210
0.0
220
0.0
230
1.0
 40
0.5774635729
 41
0.7855504566450261
 42
2.356042196944767
  0
LINE
  5
43D
330
1F
100
AcDbEntity
  8
0
  6
Continuous
 62
     7
370
    15
100
AcDbLine
 10
25.6621639313
 20
13.721044988
 30
0.0
 11
27.1666065814
 21
12.8525487325
 31
0.0
  0
LINE
  5
43E
330
1F
100
AcDbEntity
  8
0
  6
Continuous
 62
     7
370
    15
100
AcDbLine
 10
27.2649127865
 20
12.7957977683
 30
0.0
 11
28.4513057307
 21
12.1109076999
 31
0.0
  0
ARC
  5
43F
330
1F
100
AcDbEntity
  8
0
  6
Continuous
 62
     7
370
    15
100
AcDbCircle
 10
24.2076905862
 20
12.8947597864
 30
0.0
 40
0.0554422027210443
100
AcDbArc
 50
185.6948323534
 51
245.6252692941
  0
LINE
  5
440
330
1F
100
AcDbEntity
  8
0
  6
Continuous
 62
     7
370
    15
100
AcDbLine
 10
24.1957709878
 20
12.8379314133
 30
0.0
 11
24.1848094367
 21
12.8442593821
 31
0.0
  0
ARC
  5
441
330
1F
100
AcDbEntity
  8
0
  6
Continuous
 62
     7
370
    15
100
AcDbCircle
 10
24.1624707664
 20
12.7692793115
 30
0.0
 40
0.0763021351648526
100
AcDbArc
 50
21.4270427815
 51
64.123944653
  0
ARC
  5
442
330
1F
100
AcDbEntity
  8
0
  6
Continuous
 62
     7
370
    15
100
AcDbCircle
 10
24.0128187584
 20
12.5671117914
 30
0.0
 40
0.0554423096536421
100
AcDbArc
 50
185.6948329561
 51
245.6252501843
  0
LINE
  5
443
330
1F
100
AcDbEntity
  8
0
  6
Continuous
 62
     7
370
    15
100
AcDbLine
 10
26.3771231083
 20
11.1385184068
 30
0.0
 11
23.989937548
 21
12.5166112972
 31
0.0
  0
ARC
  5
444
330
1F
100
AcDbEntity
  8
0
  6
Continuous
 62
     7
370
    15
100
AcDbCircle
 10
26.4551025534
 20
11.2891416429
 30
0.0
 40
0.1696117716919419
100
AcDbArc
 50
242.6288586231
 51
297.1414248696
  0
ARC
  5
445
330
1F
100
AcDbEntity
  8
0
  6
Continuous
 62
     7
370
    15
100
AcDbCircle
 10
26.6292345247
 20
10.9493077809
 30
0.0
 40
0.2122376766340396
100
AcDbArc
 50
62.8778143227
 51
117.1222166981
  0
ARC
  5
446
330
1F
100
AcDbEntity
  8
0
  6
Continuous
 62
     7
370
    15
100
AcDbCircle
 10
26.803366398
 20
11.2891408879
 30
0.0
 40
0.1696110551802423
100
AcDbArc
 50
242.8584494408
 51
297.3712478135
  0
LINE
  5
447
330
1F
100
AcDbEntity
  8
0
  6
Continuous
 62
     7
370
    15
100
AcDbLine
 10
27.9848124474
 20
11.775536173
 30
0.0
 11
26.8813457935
 21
11.138518433
 31
0.0
  0
ARC
  5
448
330
1F
100
AcDbEntity
  8
0
  6
Continuous
 62
     7
370
    15
100
AcDbCircle
 10
27.9619314639
 20
11.8260365171
 30
0.0
 40
0.0554420793312645
100
AcDbArc
 50
294.3746001709
 51
354.3051903139
  0
ARC
  5
449
330
1F
100
AcDbEntity
  8
0
  6
Continuous
 62
     7
370
    15
100
AcDbCircle
 10
28.0071092652
 20
11.915745755
 30
0.0
 40
0.0762489450789232
100
AcDbArc
 50
115.8604898086
 51
158.5886281456
  0
LINE
  5
44A
330
1F
100
AcDbEntity
  8
0
  6
Continuous
 62
     7
370
    15
100
AcDbLine
 10
28.1796843815
 20
12.1031841792
 30
0.0
 11
27.9738508963
 21
11.9843590374
 31
0.0
  0
ARC
  5
44B
330
1F
100
AcDbEntity
  8
0
  6
Continuous
 62
     7
370
    15
100
AcDbCircle
 10
28.1568032636
 20
12.1536846198
 30
0.0
 40
0.0554422226633806
100
AcDbArc
 50
294.3746855707
 51
354.3051049141
  0
LINE
  5
44C
330
1F
100
AcDbEntity
  8
0
  6
Continuous
 62
     7
370
    15
100
AcDbLine
 10
26.8813457935
 20
11.169460186
 30
0.0
 11
27.9848124474
 21
11.806477926
 31
0.0
  0
ARC
  5
44D
330
1F
100
AcDbEntity
  8
0
  6
Continuous
 62
     7
370
    15
100
AcDbCircle
 10
26.803366398
 20
11.3200826409
 30
0.0
 40
0.169611055180266
100
AcDbArc
 50
242.8584494408
 51
297.3712478135
  0
ARC
  5
44E
330
1F
100
AcDbEntity
  8
0
  6
Continuous
 62
     7
370
    15
100
AcDbCircle
 10
26.6292345247
 20
10.980249534
 30
0.0
 40
0.2122376766340222
100
AcDbArc
 50
62.8778143227
 51
117.1222166981
  0
ARC
  5
44F
330
1F
100
AcDbEntity
  8
0
  6
Continuous
 62
     7
370
    15
100
AcDbCircle
 10
26.4551025534
 20
11.3200833959
 30
0.0
 40
0.1696117716919451
100
AcDbArc
 50
242.6288586231
 51
297.1414248695
  0
LINE
  5
450
330
1F
100
AcDbEntity
  8
0
  6
Continuous
 62
     7
370
    15
100
AcDbLine
 10
23.989937548
 20
12.5475530503
 30
0.0
 11
26.3771231083
 21
11.1694601598
 31
0.0
  0
ARC
  5
451
330
1F
100
AcDbEntity
  8
0
  6
Continuous
 62
     7
370
    15
100
AcDbCircle
 10
24.0070161074
 20
12.5925519509
 30
0.0
 40
0.0481308451286517
100
AcDbArc
 50
110.7833972709
 51
249.2166027291
  0
LINE
  5
452
330
1F
100
AcDbEntity
  8
0
  6
Continuous
 62
     7
370
    15
100
AcDbLine
 10
24.1957710332
 20
12.7563759933
 30
0.0
 11
23.989937548
 21
12.6375508515
 31
0.0
  0
ARC
  5
453
330
1F
100
AcDbEntity
  8
0
  6
Continuous
 62
     7
370
    15
100
AcDbCircle
 10
24.1744227769
 20
12.8126245712
 30
0.0
 40
0.0601635318294431
100
AcDbArc
 50
290.7834641461
 51
69.2165820707
  0
LINE
  5
454
330
1F
100
AcDbEntity
  8
0
  6
Continuous
 62
     7
370
    15
100
AcDbLine
 10
24.1848094367
 20
12.8752011351
 30
0.0
 11
24.1957709878
 21
12.8688731663
 31
0.0
  0
ARC
  5
455
330
1F
100
AcDbEntity
  8
0
  6
Continuous
 62
     7
370
    15
100
AcDbCircle
 10
24.201888042
 20
12.9201999878
 30
0.0
 40
0.0481308165996547
100
AcDbArc
 50
110.783410712
 51
249.2165315169
  0
LINE
  5
456
330
1F
100
AcDbEntity
  8
0
  6
Continuous
 62
     7
370
    15
100
AcDbLine
 10
25.288276136
 20
13.6022165978
 30
0.0
 11
25.0407674588
 21
13.4593328798
 31
0.0
  0
LINE
  5
457
330
1F
100
AcDbEntity
  8
0
  6
Continuous
 62
     7
370
    15
100
AcDbLine
 10
24.9424612763
 20
13.4025819286
 30
0.0
 11
24.1848094821
 21
12.9651988578
 31
0.0
  0
ARC
  5
458
330
1F
100
AcDbEntity
  8
0
  6
Continuous
 62
     7
370
    15
100
AcDbCircle
 10
25.3662555315
 20
13.4515941429
 30
0.0
 40
0.169611055180266
100
AcDbArc
 50
62.8584494408
 51
117.3712478135
  0
ARC
  5
459
330
1F
100
AcDbEntity
  8
0
  6
Continuous
 62
     7
370
    15
100
AcDbCircle
 10
25.5403874048
 20
13.7914272498
 30
0.0
 40
0.2122376766340269
100
AcDbArc
 50
242.8778143227
 51
297.1222166981
  0
ARC
  5
45A
330
1F
100
AcDbEntity
  8
0
  6
Continuous
 62
     7
370
    15
100
AcDbCircle
 10
25.7145193761
 20
13.4515933879
 30
0.0
 40
0.1696117716919356
100
AcDbArc
 50
62.6288586231
 51
117.1414248696
  0
LINE
  5
45B
330
1F
100
AcDbEntity
  8
0
  6
Continuous
 62
     7
370
    15
100
AcDbLine
 10
28.1796843815
 20
12.2241237335
 30
0.0
 11
27.2271606985
 21
12.7740039512
 31
0.0
  0
LINE
  5
45C
330
1F
100
AcDbEntity
  8
0
  6
Continuous
 62
     7
370
    15
100
AcDbLine
 10
27.1288544934
 20
12.8307549154
 30
0.0
 11
25.7924988212
 21
13.602216624
 31
0.0
  0
ARC
  5
45D
330
1F
100
AcDbEntity
  8
0
  6
Continuous
 62
     7
370
    15
100
AcDbCircle
 10
28.162605822
 20
12.1791248329
 30
0.0
 40
0.0481308451286525
100
AcDbArc
 50
290.7833972709
 51
69.2166027291
  0
LINE
  5
45E
330
1F
100
AcDbEntity
  8
0
  6
Continuous
 62
     7
370
    15
100
AcDbLine
 10
27.9738508963
 20
12.0153007905
 30
0.0
 11
28.1796843815
 21
12.1341259323
 31
0.0
  0
ARC
  5
45F
330
1F
100
AcDbEntity
  8
0
  6
Continuous
 62
     7
370
    15
100
AcDbCircle
 10
27.9951991526
 20
11.9590522126
 30
0.0
 40
0.0601635318294415
100
AcDbArc
 50
110.7834641462
 51
249.2165820707
  0
LINE
  5
460
330
1F
100
AcDbEntity
  8
0
  6
Continuous
 62
     7
370
    15
100
AcDbLine
 10
27.9848124928
 20
11.8964756487
 30
0.0
 11
27.9738509416
 21
11.9028036175
 31
0.0
  0
ARC
  5
461
330
1F
100
AcDbEntity
  8
0
  6
Continuous
 62
     7
370
    15
100
AcDbCircle
 10
27.9677338875
 20
11.851476796
 30
0.0
 40
0.0481308165996547
100
AcDbArc
 50
290.783410712
 51
69.2165315169
  0
ARC
  5
462
330
1F
100
AcDbEntity
  8
0
  6
Continuous
 62
     7
370
    15
100
AcDbCircle
 10
25.7145308441
 20
13.4912025712
 30
0.0
 40
0.1060072903571214
100
AcDbArc
 50
62.6288455512
 51
117.1414146231
  0
ARC
  5
463
330
1F
100
AcDbEntity
  8
0
  6
Continuous
 62
     7
370
    15
100
AcDbCircle
 10
25.540387453
 20
13.8311059856
 30
0.0
 40
0.2759092648014488
100
AcDbArc
 50
242.8778372286
 51
297.1221747024
  0
ARC
  5
464
330
1F
100
AcDbEntity
  8
0
  6
Continuous
 62
     7
370
    15
100
AcDbCircle
 10
25.3662440164
 20
13.4912027076
 30
0.0
 40
0.1060071897450791
100
AcDbArc
 50
62.8584987883
 51
117.3711789984
  0
LINE
  5
465
330
1F
100
AcDbEntity
  8
0
  6
Continuous
 62
     7
370
    15
100
AcDbLine
 10
24.2140402246
 20
12.9483243093
 30
0.0
 11
24.9716920188
 21
13.3857073802
 31
0.0
  0
LINE
  5
466
330
1F
100
AcDbEntity
  8
0
  6
Continuous
 62
     7
370
    15
100
AcDbLine
 10
25.0699982013
 20
13.4424583313
 30
0.0
 11
25.3175068785
 21
13.5853420493
 31
0.0
  0
ARC
  5
467
330
1F
100
AcDbEntity
  8
0
  6
Continuous
 62
     7
370
    15
100
AcDbCircle
 10
24.2247143891
 20
12.9202000095
 30
0.0
 40
0.0300817889669801
100
AcDbArc
 50
110.783521575
 51
249.216478425
  0
LINE
  5
468
330
1F
100
AcDbEntity
  8
0
  6
Continuous
 62
     7
370
    15
100
AcDbLine
 10
24.2140402246
 20
12.8920757097
 30
0.0
 11
24.2250017757
 21
12.885747741
 31
0.0
  0
ARC
  5
469
330
1F
100
AcDbEntity
  8
0
  6
Continuous
 62
     7
370
    15
100
AcDbCircle
 10
24.1972491198
 20
12.8126245495
 30
0.0
 40
0.0782126015168405
100
AcDbArc
 50
290.7834718244
 51
69.2165992785
  0
LINE
  5
46A
330
1F
100
AcDbEntity
  8
0
  6
Continuous
 62
     7
370
    15
100
AcDbLine
 10
24.0191683812
 20
12.6206762507
 30
0.0
 11
24.2250018664
 21
12.7395013925
 31
0.0
  0
ARC
  5
46B
330
1F
100
AcDbEntity
  8
0
  6
Continuous
 62
     7
370
    15
100
AcDbCircle
 10
24.0298423775
 20
12.5925519509
 30
0.0
 40
0.030081729276782
100
AcDbArc
 50
110.783222022
 51
249.216777978
  0
LINE
  5
46C
330
1F
100
AcDbEntity
  8
0
  6
Continuous
 62
     7
370
    15
100
AcDbLine
 10
26.4063539415
 20
11.1863347607
 30
0.0
 11
24.0191683812
 21
12.5644276511
 31
0.0
  0
ARC
  5
46D
330
1F
100
AcDbEntity
  8
0
  6
Continuous
 62
     7
370
    15
100
AcDbCircle
 10
26.4550910854
 20
11.2804742126
 30
0.0
 40
0.1060072903571358
100
AcDbArc
 50
242.6288455512
 51
297.1414146231
  0
ARC
  5
46E
330
1F
100
AcDbEntity
  8
0
  6
Continuous
 62
     7
370
    15
100
AcDbCircle
 10
26.6292344765
 20
10.9405707982
 30
0.0
 40
0.2759092648014393
100
AcDbArc
 50
62.8778372286
 51
117.1221747024
  0
ARC
  5
46F
330
1F
100
AcDbEntity
  8
0
  6
Continuous
 62
     7
370
    15
100
AcDbCircle
 10
26.8033779131
 20
11.2804740762
 30
0.0
 40
0.1060071897450879
100
AcDbArc
 50
242.8584987883
 51
297.3711789984
  0
LINE
  5
470
330
1F
100
AcDbEntity
  8
0
  6
Continuous
 62
     7
370
    15
100
AcDbLine
 10
27.9555817049
 20
11.8233524745
 30
0.0
 11
26.852115051
 21
11.1863347345
 31
0.0
  0
ARC
  5
471
330
1F
100
AcDbEntity
  8
0
  6
Continuous
 62
     7
370
    15
100
AcDbCircle
 10
27.9449075404
 20
11.8514767743
 30
0.0
 40
0.0300817889669868
100
AcDbArc
 50
290.783521575
 51
69.216478425
  0
LINE
  5
472
330
1F
100
AcDbEntity
  8
0
  6
Continuous
 62
     7
370
    15
100
AcDbLine
 10
27.9555817049
 20
11.8796010741
 30
0.0
 11
27.9446201538
 21
11.8859290428
 31
0.0
  0
ARC
  5
473
330
1F
100
AcDbEntity
  8
0
  6
Continuous
 62
     7
370
    15
100
AcDbCircle
 10
27.9723728096
 20
11.9590522343
 30
0.0
 40
0.0782126015168384
100
AcDbArc
 50
110.7834718244
 51
249.2165992785
  0
LINE
  5
474
330
1F
100
AcDbEntity
  8
0
  6
Continuous
 62
     7
370
    15
100
AcDbLine
 10
28.1504535483
 20
12.1510005331
 30
0.0
 11
27.944620063
 21
12.0321753913
 31
0.0
  0
ARC
  5
475
330
1F
100
AcDbEntity
  8
0
  6
Continuous
 62
     7
370
    15
100
AcDbCircle
 10
28.139779552
 20
12.1791248329
 30
0.0
 40
0.0300817292767824
100
AcDbArc
 50
290.783222022
 51
69.216777978
  0
LINE
  5
476
330
1F
100
AcDbEntity
  8
0
  6
Continuous
 62
     7
370
    15
100
AcDbLine
 10
25.763267988
 20
13.5853420231
 30
0.0
 11
27.0996236602
 21
12.8138803146
 31
0.0
  0
LINE
  5
477
330
1F
100
AcDbEntity
  8
0
  6
Continuous
 62
     7
370
    15
100
AcDbLine
 10
27.1979298653
 20
12.7571293504
 30
0.0
 11
28.1504535483
 21
12.2072491327
 31
0.0
  0
LINE
  5
478
330
1F
100
AcDbEntity
  8
0
  6
Continuous
 62
     7
370
    15
100
AcDbLine
 10
28.4317173891
 20
11.3223618031
 30
0.0
 11
26.7510109489
 21
10.3521106275
 31
0.0
  0
LINE
  5
479
330
1F
100
AcDbEntity
  8
0
  6
Continuous
 62
     7
370
    15
100
AcDbLine
 10
28.4513057307
 20
11.9703076266
 30
0.0
 11
28.4317173891
 21
11.3223618031
 31
0.0
  0
LINE
  5
47A
330
1F
100
AcDbEntity
  8
0
  6
Continuous
 62
     7
370
    15
100
AcDbLine
 10
26.507458089
 20
10.3521106275
 30
0.0
 11
23.7379045404
 21
11.9509398591
 31
0.0
  0
LINE
  5
47B
330
1F
100
AcDbEntity
  8
0
  6
Continuous
 62
     7
370
    15
100
AcDbLine
 10
23.7183161988
 20
12.5988855778
 30
0.0
 11
23.7379045404
 21
11.9509398591
 31
0.0
  0
LINE
  5
47C
330
1F
100
AcDbEntity
  8
0
  6
Continuous
 62
     7
370
    15
100
AcDbLine
 10
26.5324774782
 20
11.1382069745
 30
0.0
 11
26.5324774782
 21
11.1691487276
 31
0.0
  0
LINE
  5
47D
330
1F
100
AcDbEntity
  8
0
  6
Continuous
 62
     7
370
    15
100
AcDbLine
 10
26.7259914689
 20
11.1691487799
 30
0.0
 11
26.7259914689
 21
11.1382070269
 31
0.0
  0
LINE
  5
47E
330
1F
100
AcDbEntity
  8
0
  6
Continuous
 62
     7
370
    15
100
AcDbLine
 10
26.8813457935
 20
11.138518433
 30
0.0
 11
26.8813457935
 21
11.169460186
 31
0.0
  0
LINE
  5
47F
330
1F
100
AcDbEntity
  8
0
  6
Continuous
 62
     7
370
    15
100
AcDbLine
 10
26.3771231083
 20
11.1694601598
 30
0.0
 11
26.3771231083
 21
11.1385184068
 31
0.0
  0
LINE
  5
480
330
1F
100
AcDbEntity
  8
0
  6
Continuous
 62
     7
370
    15
100
AcDbLine
 10
23.989937548
 20
12.5166112972
 30
0.0
 11
23.989937548
 21
12.5475530503
 31
0.0
  0
LINE
  5
481
330
1F
100
AcDbEntity
  8
0
  6
Continuous
 62
     7
370
    15
100
AcDbLine
 10
27.9848124474
 20
11.806477926
 30
0.0
 11
27.9848124474
 21
11.775536173
 31
0.0
  0
LINE
  5
482
330
1F
100
AcDbEntity
  8
0
  6
Continuous
 62
     7
370
    15
100
AcDbLine
 10
25.7705017624
 20
12.9200492154
 30
0.0
 11
24.5868243647
 21
12.2367267987
 31
0.0
  0
LINE
  5
483
330
1F
100
AcDbEntity
  8
0
  6
Continuous
 62
     7
370
    15
100
AcDbLine
 10
25.7705017624
 20
12.9200492154
 30
0.0
 11
27.8129118939
 21
11.7409909435
 31
0.0
  0
LINE
  5
484
330
1F
100
AcDbEntity
  8
0
  6
Continuous
 62
     7
370
    15
100
AcDbLine
 10
27.9738508963
 20
12.0153007905
 30
0.0
 11
27.9738508963
 21
11.9843590374
 31
0.0
  0
LINE
  5
485
330
1F
100
AcDbEntity
  8
0
  6
Continuous
 62
     7
370
    15
100
AcDbLine
 10
28.1796843815
 20
12.1341259323
 30
0.0
 11
28.1796843815
 21
12.1031841792
 31
0.0
  0
LINE
  5
486
330
1F
100
AcDbEntity
  8
0
  6
Continuous
 62
     7
370
    15
100
AcDbLine
 10
25.7705016716
 20
13.0917678872
 30
0.0
 11
25.7705016716
 21
13.0380662752
 31
0.0
  0
LINE
  5
487
330
1F
100
AcDbEntity
  8
0
  6
Continuous
 62
     7
370
    15
100
AcDbLine
 10
25.7705016716
 20
12.9245643755
 30
0.0
 11
25.7705017624
 21
12.9200492154
 31
0.0
  0
LINE
  5
488
330
1F
100
AcDbEntity
  8
0
  6
Continuous
 62
     7
370
    15
100
AcDbLine
 10
25.7705016716
 20
13.0917678872
 30
0.0
 11
25.7559972807
 21
13.1001410939
 31
0.0
  0
LINE
  5
489
330
1F
100
AcDbEntity
  8
0
  6
Continuous
 62
     7
370
    15
100
AcDbLine
 10
25.763267988
 20
13.5853420231
 30
0.0
 11
25.7559972807
 21
13.1001410939
 31
0.0
  0
LINE
  5
48A
330
1F
100
AcDbEntity
  8
0
  6
Continuous
 62
     7
370
    15
100
AcDbLine
 10
24.4203951267
 20
12.3629013015
 30
0.0
 11
24.3943275498
 21
12.3478528096
 31
0.0
  0
LINE
  5
48B
330
1F
100
AcDbEntity
  8
0
  6
Continuous
 62
     7
370
    15
100
AcDbLine
 10
24.4206191291
 20
12.3326750534
 30
0.0
 11
24.4203951267
 21
12.3629013015
 31
0.0
  0
LINE
  5
48C
330
1F
100
AcDbEntity
  8
0
  6
Continuous
 62
     7
370
    15
100
AcDbLine
 10
24.1957709878
 20
12.8688731663
 30
0.0
 11
24.1957709878
 21
12.8379314133
 31
0.0
  0
LINE
  5
48D
330
1F
100
AcDbEntity
  8
0
  6
Continuous
 62
     7
370
    15
100
AcDbLine
 10
24.1848094367
 20
12.8442593821
 30
0.0
 11
24.1848094367
 21
12.8752011351
 31
0.0
  0
LINE
  5
48E
330
1F
100
AcDbEntity
  8
0
  6
Continuous
 62
     7
370
    15
100
AcDbLine
 10
24.2841784167
 20
12.4994160066
 30
0.0
 11
25.3247775858
 21
13.1001411201
 31
0.0
  0
LWPOLYLINE
  5
48F
330
1F
100
AcDbEntity
  8
0
  6
Continuous
 62
     7
370
    15
100
AcDbPolyline
 90
       19
 70
   128
 43
0.0
 10
25.1981436122
 20
12.8835602129
 10
25.2091231307
 20
12.8745080891
 10
25.2140775892
 20
12.8638340029
 10
25.2124092095
 20
12.8528254085
 10
25.2043193759
 20
12.8428101365
 10
25.1907837032
 20
12.8349961591
 10
25.1734348408
 20
12.8303259844
 10
25.1543653526
 20
12.8293628624
 10
25.1358752668
 20
12.8322229973
 10
25.1201948295
 20
12.8385613384
 10
25.1092152203
 20
12.8476135146
 10
25.1042608752
 20
12.8582875615
 10
25.1059292322
 20
12.8692961427
 10
25.1140190885
 20
12.8793114278
 10
25.1275547612
 20
12.8871254053
 10
25.1449036009
 20
12.8917955669
 10
25.1639731118
 20
12.892758702
 10
25.1824630841
 20
12.8898986064
 10
25.1981436122
 20
12.8835602129
  0
ARC
  5
490
330
1F
100
AcDbEntity
  8
0
  6
Continuous
 62
     7
370
    15
100
AcDbCircle
 10
25.3662411187
 20
13.0200514851
 30
0.0
 40
0.0901863304387258
100
AcDbArc
 50
62.8584332595
 51
117.3712395845
  0
ARC
  5
491
330
1F
100
AcDbEntity
  8
0
  6
Continuous
 62
     7
370
    15
100
AcDbCircle
 10
25.5327520849
 20
13.336992306
 30
0.0
 40
0.2678384241745259
100
AcDbArc
 50
242.0905051283
 51
267.1569155435
  0
LINE
  5
492
330
1F
100
AcDbEntity
  8
0
  6
Continuous
 62
     7
370
    15
100
AcDbLine
 10
25.6678947982
 20
13.0972999619
 30
0.0
 11
25.6733915447
 21
13.1003066847
 31
0.0
  0
ARC
  5
493
330
1F
100
AcDbEntity
  8
0
  6
Continuous
 62
     7
370
    15
100
AcDbCircle
 10
25.7145336994
 20
13.0200513264
 30
0.0
 40
0.0901864703286457
100
AcDbArc
 50
62.6287718646
 51
117.1415190827
  0
LINE
  5
494
330
1F
100
AcDbEntity
  8
0
  6
Continuous
 62
     7
370
    15
100
AcDbLine
 10
25.7705016716
 20
13.0917678872
 30
0.0
 11
25.7239896712
 21
13.0649170809
 31
0.0
  0
LINE
  5
495
330
1F
100
AcDbEntity
  8
0
  6
Continuous
 62
     7
370
    15
100
AcDbLine
 10
25.6256834888
 20
13.0081661298
 30
0.0
 11
24.5505131151
 21
12.3874834846
 31
0.0
  0
ARC
  5
496
330
1F
100
AcDbEntity
  8
0
  6
Continuous
 62
     7
370
    15
100
AcDbCircle
 10
24.4450211897
 20
12.5892112872
 30
0.0
 40
0.2276458931034465
100
AcDbArc
 50
263.7897583936
 51
297.6069543155
  0
LWPOLYLINE
  5
497
330
1F
100
AcDbEntity
  8
0
  6
Continuous
 62
     7
370
    15
100
AcDbPolyline
 90
       19
 70
   128
 43
0.0
 10
25.4173745438
 20
13.0101195358
 10
25.4283541077
 20
13.0010674382
 10
25.4333085208
 20
12.9903933258
 10
25.4316401864
 20
12.9793847576
 10
25.4235503301
 20
12.9693694725
 10
25.4100146348
 20
12.961555482
 10
25.3926657724
 20
12.9568853073
 10
25.3735963068
 20
12.9559221984
 10
25.3551061984
 20
12.9587823202
 10
25.3394257611
 20
12.9651206613
 10
25.3284461518
 20
12.9741728375
 10
25.3234918295
 20
12.9848468975
 10
25.3251601638
 20
12.9958554656
 10
25.3332500201
 20
13.0058707508
 10
25.3467857154
 20
13.0136847413
 10
25.3641345779
 20
13.018354916
 10
25.3832040434
 20
13.0193180249
 10
25.4016940611
 20
13.0164579555
 10
25.4173745438
 20
13.0101195358
  0
LWPOLYLINE
  5
498
330
1F
100
AcDbEntity
  8
0
  6
Continuous
 62
     7
370
    15
100
AcDbPolyline
 90
       19
 70
   128
 43
0.0
 10
24.4673738252
 20
12.4616957944
 10
24.4783533437
 20
12.4526436706
 10
24.4833077795
 20
12.4419695713
 10
24.4816394224
 20
12.4309609901
 10
24.4735495661
 20
12.420945705
 10
24.4600138935
 20
12.4131317275
 10
24.4426650537
 20
12.408461566
 10
24.4235955428
 20
12.4074984309
 10
24.4051054798
 20
12.4103585789
 10
24.3894250424
 20
12.41669692
 10
24.3784454332
 20
12.4257490962
 10
24.3734910655
 20
12.43642313
 10
24.3751594452
 20
12.4474317243
 10
24.3832492788
 20
12.4574469963
 10
24.3967849514
 20
12.4652609738
 10
24.4141338139
 20
12.4699311484
 10
24.4332033021
 20
12.4708942704
 10
24.4516932971
 20
12.4680341879
 10
24.4673738252
 20
12.4616957944
  0
LINE
  5
499
330
1F
100
AcDbEntity
  8
0
  6
Continuous
 62
     7
370
    15
100
AcDbLine
 10
25.6733915447
 20
13.1003066847
 30
0.0
 11
25.6661715635
 21
13.5855366879
 31
0.0
  0
LINE
  5
49A
330
1F
100
AcDbEntity
  8
0
  6
Continuous
 62
     8
370
    15
100
AcDbLine
 10
27.9438698797
 20
13.3439797178
 30
0.0
 11
27.9438698797
 21
13.3012531701
 31
0.0
  0
LINE
  5
49B
330
1F
100
AcDbEntity
  8
0
  6
Continuous
 62
     8
370
    15
100
AcDbLine
 10
28.1387418139
 20
13.6716278288
 30
0.0
 11
28.1387418139
 21
13.6289012811
 31
0.0
  0
LINE
  5
49C
330
1F
100
AcDbEntity
  8
0
  6
Continuous
 62
     8
370
    15
100
AcDbLine
 10
24.0308801156
 20
14.0850549468
 30
0.0
 11
24.0308801156
 21
14.0423283991
 31
0.0
  0
LINE
  5
49D
330
1F
100
AcDbEntity
  8
0
  6
Continuous
 62
     8
370
    15
100
AcDbLine
 10
24.2257520497
 20
14.4127029531
 30
0.0
 11
24.2257520497
 21
14.3699764054
 31
0.0
  0
ARC
  5
49E
330
1F
100
AcDbEntity
  8
0
  6
Continuous
 62
     8
370
    15
100
AcDbCircle
 10
28.4219953868
 20
14.7308479021
 30
0.0
 40
0.0717053719520272
100
AcDbArc
 50
289.3453810346
 51
359.8401666323
  0
ARC
  5
49F
330
1F
100
AcDbEntity
  8
0
  6
Continuous
 62
     8
370
    15
100
AcDbCircle
 10
28.4209936917
 20
14.8029526589
 30
0.0
 40
0.0271648169462558
100
AcDbArc
 50
60.4748988257
 51
113.1476267352
  0
ARC
  5
4A0
330
1F
100
AcDbEntity
  8
0
  6
Continuous
 62
     8
370
    15
100
AcDbCircle
 10
28.3405713196
 20
14.8413858348
 30
0.0
 40
0.0330477119078996
100
AcDbArc
 50
63.8078055167
 51
127.2153847134
  0
ARC
  5
4A1
330
1F
100
AcDbEntity
  8
0
  6
Continuous
 62
     8
370
    15
100
AcDbCircle
 10
25.7044892261
 20
16.3621127376
 30
0.0
 40
0.034018627686864
100
AcDbArc
 50
65.0739408052
 51
126.2361424936
  0
ARC
  5
4A2
330
1F
100
AcDbEntity
  8
0
  6
Continuous
 62
     8
370
    15
100
AcDbCircle
 10
23.7488807374
 20
15.3607612239
 30
0.0
 40
0.0729800054209
100
AcDbArc
 50
181.2099168687
 51
249.9662664015
  0
ARC
  5
4A3
330
1F
100
AcDbEntity
  8
0
  6
Continuous
 62
     8
370
    15
100
AcDbCircle
 10
23.7495933382
 20
15.4301932223
 30
0.0
 40
0.0284930224130225
100
AcDbArc
 50
64.9176525268
 51
118.4688675895
  0
ARC
  5
4A4
330
1F
100
AcDbEntity
  8
0
  6
Continuous
 62
     8
370
    15
100
AcDbCircle
 10
23.8220776952
 20
15.464918819
 30
0.0
 40
0.0339797089520922
100
AcDbArc
 50
53.7427999498
 51
115.147677102
  0
ARC
  5
4A5
330
1F
100
AcDbEntity
  8
0
  6
Continuous
 62
     8
370
    15
100
AcDbCircle
 10
25.3832565672
 20
16.3671477428
 30
0.0
 40
0.0330956364485936
100
AcDbArc
 50
52.8148861904
 51
115.8750305108
  0
ARC
  5
4A6
330
1F
100
AcDbEntity
  8
0
  6
Continuous
 62
     8
370
    15
100
AcDbCircle
 10
25.6259837271
 20
16.4126721441
 30
0.0
 40
0.0305422600237723
100
AcDbArc
 50
64.5884877657
 51
110.1085010695
  0
ARC
  5
4A7
330
1F
100
AcDbEntity
  8
0
  6
Continuous
 62
     8
370
    15
100
AcDbCircle
 10
25.4541536713
 20
16.4116076059
 30
0.0
 40
0.0308201342640184
100
AcDbArc
 50
67.0451254172
 51
115.6780613608
  0
ARC
  5
4A8
330
1F
100
AcDbEntity
  8
0
  6
Continuous
 62
     8
370
    15
100
AcDbCircle
 10
26.7170059353
 20
10.349368961
 30
0.0
 40
0.0341153584821638
100
AcDbArc
 50
305.3350338695
 51
4.6095222713
  0
ARC
  5
4A9
330
1F
100
AcDbEntity
  8
0
  6
Continuous
 62
     8
370
    15
100
AcDbCircle
 10
26.5414628068
 20
10.3493688229
 30
0.0
 40
0.0341150747670181
100
AcDbArc
 50
175.3902066314
 51
234.6652372279
  0
ARC
  5
4AA
330
1F
100
AcDbEntity
  8
0
  6
Continuous
 62
     8
370
    15
100
AcDbCircle
 10
23.7719135249
 20
11.9481988951
 30
0.0
 40
0.0341192601233771
100
AcDbArc
 50
175.3921895964
 51
234.6416333522
  0
ARC
  5
4AB
330
1F
100
AcDbEntity
  8
0
  6
Continuous
 62
     8
370
    15
100
AcDbCircle
 10
28.3977081083
 20
11.3196209774
 30
0.0
 40
0.0341195443532443
100
AcDbArc
 50
305.3586380626
 51
4.6075389888
  0
LINE
  5
4AC
330
1F
100
AcDbEntity
  8
0
  6
Continuous
 62
     8
370
    15
100
AcDbLine
 10
27.9547314306
 20
11.8228615954
 30
0.0
 11
27.9555817049
 21
11.8796010741
 31
0.0
  0
LINE
  5
4AD
330
1F
100
AcDbEntity
  8
0
  6
Continuous
 62
     8
370
    15
100
AcDbLine
 10
27.9435785905
 20
11.8164232365
 30
0.0
 11
27.9446201538
 21
11.8859290428
 31
0.0
  0
ARC
  5
4AE
330
1F
100
AcDbEntity
  8
0
  6
Continuous
 62
     8
370
    15
100
AcDbCircle
 10
28.3976547809
 20
11.3999541698
 30
0.0
 40
0.084739817395398
100
AcDbArc
 50
293.7012013977
 51
353.6194141975
  0
LINE
  5
4AF
330
1F
100
AcDbEntity
  8
0
  6
Continuous
 62
     8
370
    15
100
AcDbLine
 10
28.1496033648
 20
12.1505097064
 30
0.0
 11
28.1504535483
 21
12.2072491327
 31
0.0
  0
LINE
  5
4B0
330
1F
100
AcDbEntity
  8
0
  6
Continuous
 62
     8
370
    15
100
AcDbLine
 10
24.0191683812
 20
12.6206762507
 30
0.0
 11
24.0200185647
 21
12.5639368244
 31
0.0
  0
LINE
  5
4B1
330
1F
100
AcDbEntity
  8
0
  6
Continuous
 62
     8
370
    15
100
AcDbLine
 10
24.2250018664
 20
12.7395013925
 30
0.0
 11
24.2294443455
 21
12.4430379335
 31
0.0
  0
ARC
  5
4B2
330
1F
100
AcDbEntity
  8
0
  6
Continuous
 62
     8
370
    15
100
AcDbCircle
 10
23.7719666533
 20
12.0285318615
 30
0.0
 40
0.0847392847135765
100
AcDbArc
 50
186.3803782015
 51
246.2990062033
  0
LINE
  5
4B3
330
1F
100
AcDbEntity
  8
0
  6
Continuous
 62
     8
370
    15
100
AcDbLine
 10
24.2140402246
 20
12.9483243093
 30
0.0
 11
24.2148904989
 21
12.8915848307
 31
0.0
  0
LINE
  5
4B4
330
1F
100
AcDbEntity
  8
0
  6
Continuous
 62
     8
370
    15
100
AcDbLine
 10
25.3247775858
 20
13.1001411201
 30
0.0
 11
25.3235421926
 21
13.1825885907
 31
0.0
  0
LINE
  5
4B5
330
1F
100
AcDbEntity
  8
0
  6
Continuous
 62
     8
370
    15
100
AcDbLine
 10
25.3218264897
 20
13.2970809794
 30
0.0
 11
25.3175068785
 21
13.5853420493
 31
0.0
  0
LINE
  5
4B6
330
1F
100
AcDbEntity
  8
0
  6
Continuous
 62
     8
370
    15
100
AcDbLine
 10
24.5505131151
 20
12.3874834846
 30
0.0
 11
24.552475098
 21
12.2565562173
 31
0.0
  0
LINE
  5
4B7
330
1F
100
AcDbEntity
  8
0
  6
Continuous
 62
     8
370
    15
100
AcDbLine
 10
25.4146033937
 20
13.5855366618
 30
0.0
 11
25.4095576918
 21
13.2464348452
 31
0.0
  0
LINE
  5
4B8
330
1F
100
AcDbEntity
  8
0
  6
Continuous
 62
     8
370
    15
100
AcDbLine
 10
25.4078831868
 20
13.1338995577
 30
0.0
 11
25.4073832763
 21
13.1003066847
 31
0.0
  0
INSERT
  5
4C0
102
{ACAD_REACTORS
330
4C1
102
}
330
1F
100
AcDbEntity
  8
0
  6
Continuous
 62
     7
370
     0
100
AcDbBlockReference
  2
SW_NOTE_10
 10
21.8488073833
 20
14.4235621884
 30
0.0
  0
LEADER
  5
4C1
330
1F
100
AcDbEntity
  8
0
  6
Continuous
 62
     7
370
     0
100
AcDbLeader
  3
SLDDIMSTYLE3
 73
     2
 76
     3
 10
23.9788635199
 20
14.0122999106
 30
0.0
 10
23.4359603124
 20
14.4235621884
 30
0.0
 10
21.8488073833
 20
14.4235621884
 30
0.0
340
4C0
  0
LINE
  5
4C2
330
1F
100
AcDbEntity
  8
0
  6
Continuous
 62
     7
370
    15
100
AcDbLine
 10
11.809632951
 20
8.0703595658
 30
0.0
 11
11.809632951
 21
14.2563595713
 31
0.0
  0
LINE
  5
4C3
330
1F
100
AcDbEntity
  8
0
  6
Continuous
 62
     7
370
    15
100
AcDbLine
 10
11.809632951
 20
8.0703595658
 30
0.0
 11
11.8996329488
 21
8.0703595658
 31
0.0
  0
LINE
  5
4C4
330
1F
100
AcDbEntity
  8
0
  6
Continuous
 62
     7
370
    15
100
AcDbLine
 10
11.8996329488
 20
14.2563595713
 30
0.0
 11
11.809632951
 21
14.2563595713
 31
0.0
  0
LINE
  5
4C5
330
1F
100
AcDbEntity
  8
0
  6
Continuous
 62
     7
370
    15
100
AcDbLine
 10
11.8996329488
 20
8.0703595658
 30
0.0
 11
11.8996329488
 21
14.2563595713
 31
0.0
  0
LWPOLYLINE
  5
4C6
330
1F
100
AcDbEntity
  8
0
  6
Continuous
 62
     7
370
    15
100
AcDbPolyline
 90
        3
 70
   128
 43
0.0
 10
11.4553022576
 20
13.08438735
 10
11.661419279
 20
13.0806742329
 10
11.6915227137
 20
13.0801323058
  0
LINE
  5
4C7
330
1F
100
AcDbEntity
  8
0
  6
Continuous
 62
     7
370
    15
100
AcDbLine
 10
11.4553022576
 20
13.189301938
 30
0.0
 11
11.4553022576
 21
13.08438735
 31
0.0
  0
LINE
  5
4C8
330
1F
100
AcDbEntity
  8
0
  6
Continuous
 62
     7
370
    15
100
AcDbLine
 10
11.4553022576
 20
13.189301938
 30
0.0
 11
11.6915227137
 21
13.189301938
 31
0.0
  0
LINE
  5
4C9
330
1F
100
AcDbEntity
  8
0
  6
Continuous
 62
     7
370
    15
100
AcDbLine
 10
11.6915227137
 20
13.3106456429
 30
0.0
 11
11.6915227137
 21
13.189301938
 31
0.0
  0
LINE
  5
4CA
330
1F
100
AcDbEntity
  8
0
  6
Continuous
 62
     7
370
    15
100
AcDbLine
 10
11.6915227137
 20
13.3106456429
 30
0.0
 11
11.4553022576
 21
13.3106456429
 31
0.0
  0
LINE
  5
4CB
330
1F
100
AcDbEntity
  8
0
  6
Continuous
 62
     7
370
    15
100
AcDbLine
 10
11.4553022576
 20
13.4508209836
 30
0.0
 11
11.4553022576
 21
13.3106456429
 31
0.0
  0
LINE
  5
4CC
330
1F
100
AcDbEntity
  8
0
  6
Continuous
 62
     7
370
    15
100
AcDbLine
 10
10.7820738814
 20
13.4625722212
 30
0.0
 11
11.4553022576
 21
13.4508209836
 31
0.0
  0
LINE
  5
4CD
330
1F
100
AcDbEntity
  8
0
  6
Continuous
 62
     7
370
    15
100
AcDbLine
 10
10.7820738814
 20
13.5098162354
 30
0.0
 11
10.7820738814
 21
13.4625722212
 31
0.0
  0
LINE
  5
4CE
330
1F
100
AcDbEntity
  8
0
  6
Continuous
 62
     7
370
    15
100
AcDbLine
 10
10.7820738814
 20
13.5098162354
 30
0.0
 11
10.8253809678
 21
13.5098162354
 31
0.0
  0
LINE
  5
4CF
330
1F
100
AcDbEntity
  8
0
  6
Continuous
 62
     7
370
    15
100
AcDbLine
 10
10.8253809678
 20
13.6141469502
 30
0.0
 11
10.8253809678
 21
13.5098162354
 31
0.0
  0
LINE
  5
4D0
330
1F
100
AcDbEntity
  8
0
  6
Continuous
 62
     7
370
    15
100
AcDbLine
 10
10.8253809678
 20
8.8169029017
 30
0.0
 11
10.8253809678
 21
8.7125721869
 31
0.0
  0
LINE
  5
4D1
330
1F
100
AcDbEntity
  8
0
  6
Continuous
 62
     7
370
    15
100
AcDbLine
 10
10.8253809678
 20
8.8169029017
 30
0.0
 11
10.7820738814
 21
8.8169029017
 31
0.0
  0
LINE
  5
4D2
330
1F
100
AcDbEntity
  8
0
  6
Continuous
 62
     7
370
    15
100
AcDbLine
 10
10.7820738814
 20
8.8641469159
 30
0.0
 11
10.7820738814
 21
8.8169029017
 31
0.0
  0
LINE
  5
4D3
330
1F
100
AcDbEntity
  8
0
  6
Continuous
 62
     7
370
    15
100
AcDbLine
 10
11.4553022576
 20
8.8758981535
 30
0.0
 11
10.7820738814
 21
8.8641469159
 31
0.0
  0
LINE
  5
4D4
330
1F
100
AcDbEntity
  8
0
  6
Continuous
 62
     7
370
    15
100
AcDbLine
 10
11.4553022576
 20
9.0160734942
 30
0.0
 11
11.6915227137
 21
9.0160734942
 31
0.0
  0
LINE
  5
4D5
330
1F
100
AcDbEntity
  8
0
  6
Continuous
 62
     7
370
    15
100
AcDbLine
 10
11.6915227137
 20
9.1374171991
 30
0.0
 11
11.6915227137
 21
9.0160734942
 31
0.0
  0
LINE
  5
4D6
330
1F
100
AcDbEntity
  8
0
  6
Continuous
 62
     7
370
    15
100
AcDbLine
 10
11.6915227137
 20
9.1374171991
 30
0.0
 11
11.4553022576
 21
9.1374171991
 31
0.0
  0
LINE
  5
4D7
330
1F
100
AcDbEntity
  8
0
  6
Continuous
 62
     7
370
    15
100
AcDbLine
 10
11.4553022576
 20
9.0160734942
 30
0.0
 11
11.4553022576
 21
8.8758981535
 31
0.0
  0
LINE
  5
4D8
330
1F
100
AcDbEntity
  8
0
  6
Continuous
 62
     7
370
    15
100
AcDbLine
 10
11.4553022576
 20
9.2478189637
 30
0.0
 11
11.4553022576
 21
9.1374171991
 31
0.0
  0
LINE
  5
4D9
330
1F
100
AcDbEntity
  8
0
  6
Continuous
 62
     7
370
    15
100
AcDbLine
 10
11.6915227137
 20
13.0801323058
 30
0.0
 11
11.6915227137
 21
9.2519423027
 31
0.0
  0
LINE
  5
4DA
330
1F
100
AcDbEntity
  8
0
  6
Continuous
 62
     7
370
    15
100
AcDbLine
 10
11.6915227137
 20
9.2519423027
 30
0.0
 11
11.4553022576
 21
9.2478189637
 31
0.0
  0
LINE
  5
4DB
330
1F
100
AcDbEntity
  8
0
  6
Continuous
 62
     7
370
    15
100
AcDbLine
 10
10.8253809678
 20
8.7125721869
 30
0.0
 11
11.7322669947
 21
8.7284018841
 31
0.0
  0
LINE
  5
4DC
330
1F
100
AcDbEntity
  8
0
  6
Continuous
 62
     7
370
    15
100
AcDbLine
 10
11.7322669947
 20
13.598317253
 30
0.0
 11
10.8253809678
 21
13.6141469502
 31
0.0
  0
ARC
  5
4DD
330
1F
100
AcDbEntity
  8
0
  6
Continuous
 62
     7
370
    15
100
AcDbCircle
 10
11.7308927935
 20
8.8071300862
 30
0.0
 40
0.0787401574803148
100
AcDbArc
 50
271.0
 51
0.0
  0
LINE
  5
4DE
330
1F
100
AcDbEntity
  8
0
  6
Continuous
 62
     7
370
    15
100
AcDbLine
 10
11.809632951
 20
13.5195891092
 30
0.0
 11
11.809632951
 21
8.8071300279
 31
0.0
  0
ARC
  5
4DF
330
1F
100
AcDbEntity
  8
0
  6
Continuous
 62
     7
370
    15
100
AcDbCircle
 10
11.7308927935
 20
13.5195890509
 30
0.0
 40
0.0787401574803148
100
AcDbArc
 50
0.0
 51
89.0
  0
LINE
  5
4E0
330
1F
100
AcDbEntity
  8
0
  6
Continuous
 62
     7
370
    15
100
AcDbLine
 10
11.4553022576
 20
9.0160734942
 30
0.0
 11
11.4553022576
 21
9.1374171991
 31
0.0
  0
LINE
  5
4E1
330
1F
100
AcDbEntity
  8
0
  6
Continuous
 62
     7
370
    15
100
AcDbLine
 10
11.4553022576
 20
13.189301938
 30
0.0
 11
11.4553022576
 21
13.3106456429
 31
0.0
  0
LINE
  5
4E2
330
1F
100
AcDbEntity
  8
0
  6
Continuous
 62
     7
370
    15
100
AcDbLine
 10
11.4553022576
 20
13.3838320508
 30
0.0
 11
10.7820738814
 21
13.3838320508
 31
0.0
  0
LINE
  5
4E3
330
1F
100
AcDbEntity
  8
0
  6
Continuous
 62
     7
370
    15
100
AcDbLine
 10
10.7820738814
 20
13.3838320508
 30
0.0
 11
10.7820738814
 21
13.4625722212
 31
0.0
  0
LINE
  5
4E4
330
1F
100
AcDbEntity
  8
0
  6
Continuous
 62
     7
370
    15
100
AcDbLine
 10
11.4553022576
 20
13.3661155088
 30
0.0
 11
10.7820738814
 21
13.3661155088
 31
0.0
  0
LINE
  5
4E5
330
1F
100
AcDbEntity
  8
0
  6
Continuous
 62
     7
370
    15
100
AcDbLine
 10
10.7820738814
 20
13.3838320508
 30
0.0
 11
10.7820738814
 21
13.3661155088
 31
0.0
  0
LINE
  5
4E6
330
1F
100
AcDbEntity
  8
0
  6
Continuous
 62
     7
370
    15
100
AcDbLine
 10
10.7820738814
 20
13.1613910071
 30
0.0
 11
11.4553022576
 21
13.1496397695
 31
0.0
  0
LINE
  5
4E7
330
1F
100
AcDbEntity
  8
0
  6
Continuous
 62
     7
370
    15
100
AcDbLine
 10
10.7820738814
 20
13.1613910071
 30
0.0
 11
10.7820738814
 21
13.3661155088
 31
0.0
  0
LINE
  5
4E8
330
1F
100
AcDbEntity
  8
0
  6
Continuous
 62
     7
370
    15
100
AcDbLine
 10
10.7820738814
 20
8.9423403193
 30
0.0
 11
11.4553022576
 21
8.942421865
 31
0.0
  0
LINE
  5
4E9
330
1F
100
AcDbEntity
  8
0
  6
Continuous
 62
     7
370
    15
100
AcDbLine
 10
10.7820738814
 20
8.8641469159
 30
0.0
 11
10.7820738814
 21
8.9423403193
 31
0.0
  0
LINE
  5
4EA
330
1F
100
AcDbEntity
  8
0
  6
Continuous
 62
     7
370
    15
100
AcDbLine
 10
11.4553022576
 20
9.1573890084
 30
0.0
 11
10.7820738814
 21
9.1456380641
 31
0.0
  0
LINE
  5
4EB
330
1F
100
AcDbEntity
  8
0
  6
Continuous
 62
     7
370
    15
100
AcDbLine
 10
10.7820738814
 20
8.9423403193
 30
0.0
 11
10.7820738814
 21
9.1456380641
 31
0.0
  0
LINE
  5
4EC
330
1F
100
AcDbEntity
  8
0
  6
Continuous
 62
     7
370
    15
100
AcDbLine
 10
10.7820738814
 20
13.0826508367
 30
0.0
 11
10.7820738814
 21
13.1613910071
 31
0.0
  0
LINE
  5
4ED
330
1F
100
AcDbEntity
  8
0
  6
Continuous
 62
     7
370
    15
100
AcDbLine
 10
10.7820738814
 20
9.2243763278
 30
0.0
 11
11.4553022576
 21
9.2243763278
 31
0.0
  0
LINE
  5
4EE
330
1F
100
AcDbEntity
  8
0
  6
Continuous
 62
     7
370
    15
100
AcDbLine
 10
10.7820738814
 20
9.1456380641
 30
0.0
 11
10.7820738814
 21
9.2243763278
 31
0.0
  0
LINE
  5
4EF
330
1F
100
AcDbEntity
  8
0
  6
Continuous
 62
     7
370
    15
100
AcDbLine
 10
10.7820738814
 20
9.2243763278
 30
0.0
 11
10.7820738814
 21
13.0826508367
 31
0.0
  0
LINE
  5
4F0
330
1F
100
AcDbEntity
  8
0
  6
Continuous
 62
     8
370
    15
100
AcDbLine
 10
11.5516936307
 20
13.0826508367
 30
0.0
 11
10.7820738814
 21
13.0826508367
 31
0.0
  0
HATCH
  5
4F1
330
1F
100
AcDbEntity
  8
0
  6
Continuous
 62
     7
370
     0
100
AcDbHatch
 10
0.0
 20
0.0
 30
0.0
210
0.0
220
0.0
230
1.0
  2
ANSI31
 70
     0
 71
     0
 91
        1
 92
        0
 93
       26
 72
     1
 10
11.69152271476798
 20
13.08013236777681
 11
11.69152271476743
 21
9.251942245713408
 72
     1
 10
11.69152271476743
 20
9.251942245713408
 11
11.45530224232649
 21
9.247819002029578
 72
     1
 10
11.45530224232649
 20
9.247819002029578
 11
11.45530224232649
 21
9.137417245592214
 72
     1
 10
11.45530224232649
 20
9.137417245592214
 11
11.69152271476743
 21
9.137417245592214
 72
     1
 10
11.69152271476743
 20
9.137417245592214
 11
11.69152271476743
 21
9.0160735450472
 72
     1
 10
11.69152271476743
 20
9.0160735450472
 11
11.45530224232649
 21
9.0160735450472
 72
     1
 10
11.45530224232649
 20
9.0160735450472
 11
11.4553022423262
 21
8.87589821462177
 72
     1
 10
11.4553022423262
 20
8.87589821462177
 11
10.7820738958698
 21
8.864146970122873
 72
     1
 10
10.7820738958698
 20
8.864146970122873
 11
10.7820738958698
 21
8.816902875634666
 72
     1
 10
10.7820738958698
 20
8.816902875634666
 11
10.82538098248397
 21
8.816902875634666
 72
     1
 10
10.82538098248397
 20
8.816902875634666
 11
10.82538098248397
 21
8.71257216697325
 72
     1
 10
10.82538098248397
 20
8.71257216697325
 11
11.73226699873888
 21
8.728401921269473
 72
     2
 10
11.73089279350759
 20
8.807130086242417
 40
0.078740157480315
 50
271.0000000000026
 51
360.0000000000008
 73
     1
 72
     1
 10
11.80963295098791
 20
8.807130086242417
 11
11.80963295098789
 21
13.51958905085369
 72
     2
 10
11.73089279350758
 20
13.51958905085369
 40
0.078740157480315
 50
0.0000000000012926
 51
89.00000000000081
 73
     1
 72
     1
 10
11.73226699873886
 20
13.59831721582664
 11
10.82538098248395
 21
13.61414697012285
 72
     1
 10
10.82538098248395
 20
13.61414697012285
 11
10.82538098248395
 21
13.50981626146144
 72
     1
 10
10.82538098248395
 20
13.50981626146144
 11
10.78207389586978
 21
13.50981626146144
 72
     1
 10
10.78207389586978
 20
13.50981626146144
 11
10.78207389586978
 21
13.46257216697323
 72
     1
 10
10.78207389586978
 20
13.46257216697323
 11
11.45530224232619
 21
13.45082092247434
 72
     1
 10
11.45530224232619
 20
13.45082092247434
 11
11.45530224232647
 21
13.31064559204891
 72
     1
 10
11.45530224232647
 20
13.31064559204891
 11
11.69152271476742
 21
13.31064559204891
 72
     1
 10
11.69152271476742
 20
13.31064559204891
 11
11.69152271476742
 21
13.18930189150389
 72
     1
 10
11.69152271476742
 20
13.18930189150389
 11
11.45530224232647
 21
13.18930189150389
 72
     1
 10
11.45530224232647
 20
13.18930189150389
 11
11.4553022423259
 21
13.08438734892258
 72
     4
 94
        3
 73
     1
 74
     0
 95
       11
 96
        7
 40
0.0035831650309446
 40
0.0035831650309446
 40
0.0035831650309446
 40
0.0035831650309446
 40
0.0088193872356643
 40
0.0088193872356643
 40
0.0088193872356643
 40
0.0095841383296366
 40
0.0095841383296366
 40
0.0095841383296366
 40
0.0095841383296366
 10
11.4553022423259
 20
13.08438734892258
 42
1.0
 10
11.52400790671097
 20
13.08314881276079
 42
1.0
 10
11.59271358653932
 20
13.08191113302948
 42
1.0
 10
11.66141928079879
 20
13.08067425520993
 42
1.0
 10
11.67145375848141
 20
13.08049360900571
 42
1.0
 10
11.68148823647214
 20
13.08031297991514
 42
1.0
 10
11.69152271476798
 20
13.08013236777681
 42
1.0
 97
        0
 75
     0
 76
     1
 52
0.0
 41
1.75
 77
     0
 78
     1
 53
45.0
 43
0.0
 44
0.0
 45
-0.1546796083845572
 46
0.1546796083845573
 79
     0
 98
        1
 10
0.0
 20
0.0
  0
HATCH
  5
4F2
330
1F
100
AcDbEntity
  8
0
  6
Continuous
 62
     7
370
     0
100
AcDbHatch
 10
0.0
 20
0.0
 30
0.0
210
0.0
220
0.0
230
1.0
  2
ANSI31
 70
     0
 71
     0
 91
        1
 92
        0
 93
        4
 72
     1
 10
11.80963295098789
 20
14.25635956854805
 11
11.80963295098791
 21
8.070359568548056
 72
     1
 10
11.80963295098791
 20
8.070359568548056
 11
11.89963295098791
 21
8.070359568548056
 72
     1
 10
11.89963295098791
 20
8.070359568548056
 11
11.89963295098789
 21
14.25635956854806
 72
     1
 10
11.89963295098789
 20
14.25635956854806
 11
11.80963295098789
 21
14.25635956854805
 97
        0
 75
     0
 76
     1
 52
0.0
 41
1.75
 77
     0
 78
     1
 53
45.0
 43
0.0
 44
0.0
 45
-0.1546796083845572
 46
0.1546796083845573
 79
     0
 98
        1
 10
0.0
 20
0.0
  0
DIMENSION
  5
4F3
330
1F
100
AcDbEntity
  8
0
  6
Continuous
 62
     7
370
     0
100
AcDbDimension
  2
_D_19
 10
11.809632951
 20
12.3631563716
 30
0.0
 11
12.5886093289
 21
12.3631563716
 31
0.0
 70
   160
  1
<>
 71
     2
 42
-1.0
  3
SLDDIMSTYLE1
100
AcDbAlignedDimension
 13
11.6915227148
 23
13.0765508369
 33
0.0
 14
11.809632951
 24
13.5195890509
 34
0.0
100
AcDbRotatedDimension
  0
DIMENSION
  5
505
330
1F
100
AcDbEntity
  8
0
  6
Continuous
 62
     7
370
     0
100
AcDbDimension
  2
_D_20
 10
11.6915227148
 20
9.9192015821
 30
0.0
 11
12.4901841321
 21
9.9192015821
 31
0.0
 70
   160
  1
<>
 71
     2
 42
-1.0
  3
SLDDIMSTYLE1
100
AcDbAlignedDimension
 13
11.4553022423
 23
9.247819002
 33
0.0
 14
11.6915227148
 24
9.2519422457
 34
0.0
 50
0.0
100
AcDbRotatedDimension
  0
MTEXT
  5
518
330
1F
100
AcDbEntity
  8
0
  6
Continuous
 62
     7
370
     0
100
AcDbMText
 10
11.2132421237
 20
7.9542275867
 30
0.0
 40
0.21875
 41
0.0
 71
     2
 72
     1
  1
SECTION A-A
  7
SLDTEXTSTYLE0
 73
     1
 44
1.0
  0
ARC
  5
519
330
1F
100
AcDbEntity
  8
0
  6
Continuous
 62
     7
370
    15
100
AcDbCircle
 10
17.2994652892
 20
8.9054493706
 30
0.0
 40
0.1872413161229276
100
AcDbArc
 50
308.4113607939
 51
1.2067221654
  0
ARC
  5
51A
330
1F
100
AcDbEntity
  8
0
  6
Continuous
 62
     7
370
    15
100
AcDbCircle
 10
14.5395536564
 20
8.908773908
 30
0.0
 40
0.1946219340507412
100
AcDbArc
 50
179.8178538349
 51
230.515255902
  0
LINE
  5
51B
330
1F
100
AcDbEntity
  8
0
  6
Continuous
 62
     7
370
    15
100
AcDbLine
 10
14.3449327058
 20
8.9093926199
 30
0.0
 11
14.3449327058
 21
13.4173265172
 31
0.0
  0
ARC
  5
51C
330
1F
100
AcDbEntity
  8
0
  6
Continuous
 62
     7
370
    15
100
AcDbCircle
 10
14.5321324954
 20
13.4212697665
 30
0.0
 40
0.1872413161229345
100
AcDbArc
 50
128.4113607939
 51
181.2067221654
  0
ARC
  5
51D
330
1F
100
AcDbEntity
  8
0
  6
Continuous
 62
     7
370
    15
100
AcDbCircle
 10
17.2920441283
 20
13.4179452291
 30
0.0
 40
0.1946219340507291
100
AcDbArc
 50
359.8178538349
 51
50.515255902
  0
LINE
  5
51E
330
1F
100
AcDbEntity
  8
0
  6
Continuous
 62
     7
370
    15
100
AcDbLine
 10
17.4866650789
 20
13.4173265172
 30
0.0
 11
17.4866650789
 21
8.9093926199
 31
0.0
  0
CIRCLE
  5
51F
330
1F
100
AcDbEntity
  8
0
  6
Continuous
 62
     7
370
    15
100
AcDbCircle
 10
17.0407988923
 20
13.9443595685
 30
0.0
 40
0.0964999999999989
  0
CIRCLE
  5
520
330
1F
100
AcDbEntity
  8
0
  6
Continuous
 62
     7
370
    15
100
AcDbCircle
 10
17.0407988923
 20
8.3823595685
 30
0.0
 40
0.0965000000000007
  0
CIRCLE
  5
521
330
1F
100
AcDbEntity
  8
0
  6
Continuous
 62
     7
370
    15
100
AcDbCircle
 10
14.7907988923
 20
13.9443595685
 30
0.0
 40
0.0964999999999989
  0
ARC
  5
522
330
1F
100
AcDbEntity
  8
0
  6
Continuous
 62
     7
370
    15
100
AcDbCircle
 10
14.6027988923
 20
14.0693595685
 30
0.0
 40
0.1870000000000012
100
AcDbArc
 50
90.0
 51
180.0
  0
LINE
  5
523
330
1F
100
AcDbEntity
  8
0
  6
Continuous
 62
     7
370
    15
100
AcDbLine
 10
14.6027989136
 20
14.2563595713
 30
0.0
 11
17.2287988711
 21
14.2563595713
 31
0.0
  0
ARC
  5
524
330
1F
100
AcDbEntity
  8
0
  6
Continuous
 62
     7
370
    15
100
AcDbCircle
 10
17.2287988923
 20
14.0693595685
 30
0.0
 40
0.1870000000000012
100
AcDbArc
 50
0.0
 51
90.0
  0
LINE
  5
525
330
1F
100
AcDbEntity
  8
0
  6
Continuous
 62
     7
370
    15
100
AcDbLine
 10
17.4157989109
 20
14.0693596782
 30
0.0
 11
17.4157989109
 21
8.2573594589
 31
0.0
  0
LINE
  5
526
330
1F
100
AcDbEntity
  8
0
  6
Continuous
 62
     7
370
    15
100
AcDbLine
 10
14.6027989136
 20
8.0703595658
 30
0.0
 11
17.2287988711
 21
8.0703595658
 31
0.0
  0
ARC
  5
527
330
1F
100
AcDbEntity
  8
0
  6
Continuous
 62
     7
370
    15
100
AcDbCircle
 10
14.6027988923
 20
8.2573595685
 30
0.0
 40
0.1870000000000012
100
AcDbArc
 50
180.0
 51
270.0
  0
LINE
  5
528
330
1F
100
AcDbEntity
  8
0
  6
Continuous
 62
     7
370
    15
100
AcDbLine
 10
14.4157988738
 20
14.0693596782
 30
0.0
 11
14.4157988738
 21
8.2573594589
 31
0.0
  0
CIRCLE
  5
529
330
1F
100
AcDbEntity
  8
0
  6
Continuous
 62
     7
370
    15
100
AcDbCircle
 10
14.7907988923
 20
8.3823595685
 30
0.0
 40
0.0965000000000007
  0
ARC
  5
52A
330
1F
100
AcDbEntity
  8
0
  6
Continuous
 62
     7
370
    15
100
AcDbCircle
 10
17.2287988923
 20
8.2573595685
 30
0.0
 40
0.1870000000000012
100
AcDbArc
 50
270.0
 51
0.0
  0
LINE
  5
52B
330
1F
100
AcDbEntity
  8
0
  6
Continuous
 62
     7
370
    15
100
AcDbLine
 10
14.3607625496
 20
13.4014968201
 30
0.0
 11
14.3607625496
 21
8.925222317
 31
0.0
  0
LINE
  5
52C
330
1F
100
AcDbEntity
  8
0
  6
Continuous
 62
     7
370
    15
100
AcDbLine
 10
17.4708352351
 20
8.925222317
 30
0.0
 11
17.4708352351
 21
13.4014968201
 31
0.0
  0
ELLIPSE
  5
52D
330
1F
100
AcDbEntity
  8
0
  6
Continuous
 62
     7
370
    15
100
AcDbEllipse
 10
14.5418131301
 20
8.9094525465
 30
0.0
 11
0.1392366514113359
 21
0.1392366514113359
 31
0.0
210
0.0
220
0.0
230
1.0
 40
0.9996954599
 41
2.356346783439915
 42
3.232573484426279
  0
LINE
  5
52E
330
1F
100
AcDbEntity
  8
0
  6
Continuous
 62
     7
370
    15
100
AcDbLine
 10
14.3449327058
 20
8.9093926199
 30
0.0
 11
14.3607625496
 21
8.925222317
 31
0.0
  0
ELLIPSE
  5
52F
330
1F
100
AcDbEntity
  8
0
  6
Continuous
 62
     7
370
    15
100
AcDbEllipse
 10
17.2897846545
 20
13.4172665906
 30
0.0
 11
-0.1392366514113341
 21
-0.1392366514113359
 31
0.0
210
0.0
220
0.0
230
1.0
 40
0.9996954599
 41
2.356346783439918
 42
3.232573484426368
  0
LINE
  5
530
330
1F
100
AcDbEntity
  8
0
  6
Continuous
 62
     7
370
    15
100
AcDbLine
 10
17.4866650789
 20
13.4173265172
 30
0.0
 11
17.4708352351
 21
13.4014968201
 31
0.0
  0
LINE
  5
531
330
1F
100
AcDbEntity
  8
0
  6
Continuous
 62
     7
370
    15
100
AcDbLine
 10
14.3449327058
 20
13.4173265172
 30
0.0
 11
14.3607625496
 21
13.4014968201
 31
0.0
  0
ELLIPSE
  5
532
330
1F
100
AcDbEntity
  8
0
  6
Continuous
 62
     7
370
    15
100
AcDbEllipse
 10
14.5418131301
 20
13.4172665906
 30
0.0
 11
0.1392366514113341
 21
-0.1392366514113359
 31
0.0
210
0.0
220
0.0
230
1.0
 40
0.9996954599
 41
3.050611822753335
 42
3.926838523739698
  0
LINE
  5
533
330
1F
100
AcDbEntity
  8
0
  6
Continuous
 62
     7
370
    15
100
AcDbLine
 10
17.4708352351
 20
8.925222317
 30
0.0
 11
17.4866650789
 21
8.9093926199
 31
0.0
  0
ELLIPSE
  5
534
330
1F
100
AcDbEntity
  8
0
  6
Continuous
 62
     7
370
    15
100
AcDbEllipse
 10
17.2897846545
 20
8.9094525465
 30
0.0
 11
-0.1392366514113341
 21
0.1392366514113359
 31
0.0
210
0.0
220
0.0
230
1.0
 40
0.9996954599
 41
3.050611822753225
 42
3.926838523739698
  0
LINE
  5
535
330
1F
100
AcDbEntity
  8
0
  6
Continuous
 62
     8
370
    15
100
AcDbLine
 10
14.3607625496
 20
8.925222317
 30
0.0
 11
14.4157988738
 21
8.925222317
 31
0.0
  0
LINE
  5
536
330
1F
100
AcDbEntity
  8
0
  6
Continuous
 62
     8
370
    15
100
AcDbLine
 10
14.3607625496
 20
13.4014968201
 30
0.0
 11
14.4157988738
 21
13.4014968201
 31
0.0
  0
LINE
  5
537
330
1F
100
AcDbEntity
  8
0
  6
Continuous
 62
     8
370
    15
100
AcDbLine
 10
17.4708352351
 20
13.4014968201
 30
0.0
 11
17.4157989109
 21
13.4014968201
 31
0.0
  0
LINE
  5
538
330
1F
100
AcDbEntity
  8
0
  6
Continuous
 62
     8
370
    15
100
AcDbLine
 10
17.4157989109
 20
8.925222317
 30
0.0
 11
17.4708352351
 21
8.925222317
 31
0.0
  0
ARC
  5
539
330
1F
100
AcDbEntity
  8
0
  6
Continuous
 62
     8
370
    15
100
AcDbCircle
 10
14.55452296
 20
8.9244933108
 30
0.0
 40
0.1937617817752009
100
AcDbArc
 50
179.7844307669
 51
224.2787473335
  0
ARC
  5
53A
330
1F
100
AcDbEntity
  8
0
  6
Continuous
 62
     8
370
    15
100
AcDbCircle
 10
17.2770748026
 20
13.4022258174
 30
0.0
 40
0.1937618038148777
100
AcDbArc
 50
359.7844334328
 51
44.2787446676
  0
ARC
  5
53B
330
1F
100
AcDbEntity
  8
0
  6
Continuous
 62
     8
370
    15
100
AcDbCircle
 10
17.2770740517
 20
8.9244936236
 30
0.0
 40
0.1937625536255924
100
AcDbArc
 50
315.7213460274
 51
0.2154758721
  0
ARC
  5
53C
330
1F
100
AcDbEntity
  8
0
  6
Continuous
 62
     8
370
    15
100
AcDbCircle
 10
14.5545238722
 20
13.4022254571
 30
0.0
 40
0.1937626926491286
100
AcDbArc
 50
135.7213628433
 51
180.2154590563
  0
DIMENSION
  5
53D
330
1F
100
AcDbEntity
  8
0
  6
Continuous
 62
     7
370
     0
100
AcDbDimension
  2
_D_21
 10
17.4157988923
 20
15.4889805971
 30
0.0
 11
15.9157988923
 21
15.4889805971
 31
0.0
 70
   160
  1
<>
 71
     2
 42
-1.0
  3
SLDDIMSTYLE2
100
AcDbAlignedDimension
 13
14.4157988923
 23
14.0693595685
 33
0.0
 14
17.4157988923
 24
14.0693595685
 34
0.0
100
AcDbRotatedDimension
  0
DIMENSION
  5
551
330
1F
100
AcDbEntity
  8
0
  6
Continuous
 62
     7
370
     0
100
AcDbDimension
  2
_D_22
 10
19.1513370093
 20
8.0703595685
 30
0.0
 11
19.1513370093
 21
11.1633595685
 31
0.0
 70
   160
  1
<>
 71
     2
 42
-1.0
  3
SLDDIMSTYLE0
100
AcDbAlignedDimension
 13
17.2287988923
 23
14.2563595685
 33
0.0
 14
17.2287988923
 24
8.0703595685
 34
0.0
 50
90.0
100
AcDbRotatedDimension
  0
DIMENSION
  5
565
330
1F
100
AcDbEntity
  8
0
  6
Continuous
 62
     7
370
     0
100
AcDbDimension
  2
_D_23
 10
17.0407988923
 20
14.8073600455
 30
0.0
 11
15.9157988923
 21
14.8073600455
 31
0.0
 70
   160
  1
<>
 71
     2
 42
-1.0
  3
SLDDIMSTYLE0
100
AcDbAlignedDimension
 13
14.7907988923
 23
13.9443595685
 33
0.0
 14
17.0407988923
 24
13.9443595685
 34
0.0
100
AcDbRotatedDimension
  0
DIMENSION
  5
579
330
1F
100
AcDbEntity
  8
0
  6
Continuous
 62
     7
370
     0
100
AcDbDimension
  2
_D_24
 10
18.0883448833
 20
8.3823595685
 30
0.0
 11
18.0883448833
 21
11.1633595685
 31
0.0
 70
   160
  1
<>
 71
     2
 42
-1.0
  3
SLDDIMSTYLE0
100
AcDbAlignedDimension
 13
17.0407988923
 23
13.9443595685
 33
0.0
 14
17.0407988923
 24
8.3823595685
 34
0.0
 50
90.0
100
AcDbRotatedDimension
  0
DIMENSION
  5
58D
330
1F
100
AcDbEntity
  8
0
  6
Continuous
 62
     7
370
     0
100
AcDbDimension
  2
_D_25
 10
16.9925488923
 20
13.8607881171
 30
0.0
 11
19.8759733605
 21
15.9109471704
 31
0.0
 70
   163
  1
<> (4X)\PACCEPTS #10 SCREW\P(NOT SUPPLIED)
 71
     1
 42
-1.0
  3
SLDDIMSTYLE5
100
AcDbDiametricDimension
 15
17.0890488923
 25
14.02793102
 35
0.0
 40
0.0
  0
INSERT
  5
5AB
330
1F
100
AcDbEntity
  8
0
  6
Continuous
 62
     7
370
     0
100
AcDbBlockReference
  2
SW_CENTERMARKSYMBOL_6
 10
14.7907988923
 20
8.3823595685
 30
0.0
  0
INSERT
  5
5B7
330
1F
100
AcDbEntity
  8
0
  6
Continuous
 62
     7
370
     0
100
AcDbBlockReference
  2
SW_CENTERMARKSYMBOL_7
 10
14.7907988923
 20
13.9443595685
 30
0.0
  0
INSERT
  5
5C3
330
1F
100
AcDbEntity
  8
0
  6
Continuous
 62
     7
370
     0
100
AcDbBlockReference
  2
SW_CENTERMARKSYMBOL_8
 10
17.0407988923
 20
13.9443595685
 30
0.0
  0
INSERT
  5
5CF
330
1F
100
AcDbEntity
  8
0
  6
Continuous
 62
     7
370
     0
100
AcDbBlockReference
  2
SW_CENTERMARKSYMBOL_9
 10
17.0407988923
 20
8.3823595685
 30
0.0
  0
ARC
  5
5D0
330
1F
100
AcDbEntity
  8
0
  6
Continuous
 62
     7
370
    15
100
AcDbCircle
 10
7.2802665147
 20
3.7062924155
 30
0.0
 40
0.0788019788020653
100
AcDbArc
 50
0.9776352137
 51
73.5578336704
  0
ARC
  5
5D1
330
1F
100
AcDbEntity
  8
0
  6
Continuous
 62
     7
370
    15
100
AcDbCircle
 10
4.314145562
 20
3.7062924155
 30
0.0
 40
0.0788019788020662
100
AcDbArc
 50
106.4421663296
 51
179.0223647863
  0
LINE
  5
5D2
330
1F
100
AcDbEntity
  8
0
  6
Continuous
 62
     7
370
    15
100
AcDbLine
 10
4.4409068931
 20
3.1911589578
 30
0.0
 11
4.3975998067
 21
3.1911589578
 31
0.0
  0
LINE
  5
5D3
330
1F
100
AcDbEntity
  8
0
  6
Continuous
 62
     7
370
    15
100
AcDbLine
 10
4.3127723067
 20
3.2935211353
 30
0.0
 11
4.3958129874
 21
3.2935211353
 31
0.0
  0
LINE
  5
5D4
330
1F
100
AcDbEntity
  8
0
  6
Continuous
 62
     7
370
    15
100
AcDbLine
 10
7.2803863712
 20
3.7817100891
 30
0.0
 11
4.3140257055
 21
3.7817100891
 31
0.0
  0
LINE
  5
5D5
330
1F
100
AcDbEntity
  8
0
  6
Continuous
 62
     7
370
    15
100
AcDbLine
 10
7.1985990893
 20
3.2935211353
 30
0.0
 11
7.2816397701
 21
3.2935211353
 31
0.0
  0
LINE
  5
5D6
330
1F
100
AcDbEntity
  8
0
  6
Continuous
 62
     7
370
    15
100
AcDbLine
 10
7.19681227
 20
3.1911589578
 30
0.0
 11
7.1985990893
 21
3.2935211353
 31
0.0
  0
LINE
  5
5D7
330
1F
100
AcDbEntity
  8
0
  6
Continuous
 62
     7
370
    15
100
AcDbLine
 10
7.19681227
 20
3.1911589578
 30
0.0
 11
7.1535051836
 21
3.1911589578
 31
0.0
  0
LINE
  5
5D8
330
1F
100
AcDbEntity
  8
0
  6
Continuous
 62
     7
370
    15
100
AcDbLine
 10
7.1449151628
 20
3.6832849861
 30
0.0
 11
7.1535051836
 21
3.1911589578
 31
0.0
  0
LINE
  5
5D9
330
1F
100
AcDbEntity
  8
0
  6
Continuous
 62
     7
370
    15
100
AcDbLine
 10
4.4494969139
 20
3.6832849861
 30
0.0
 11
7.1449151628
 21
3.6832849861
 31
0.0
  0
LINE
  5
5DA
330
1F
100
AcDbEntity
  8
0
  6
Continuous
 62
     7
370
    15
100
AcDbLine
 10
4.3958129874
 20
3.2935211353
 30
0.0
 11
4.3975998067
 21
3.1911589578
 31
0.0
  0
LINE
  5
5DB
330
1F
100
AcDbEntity
  8
0
  6
Continuous
 62
     7
370
    15
100
AcDbLine
 10
7.2816397701
 20
3.2935211353
 30
0.0
 11
7.2834264427
 21
3.1911589578
 31
0.0
  0
LINE
  5
5DC
330
1F
100
AcDbEntity
  8
0
  6
Continuous
 62
     7
370
    15
100
AcDbLine
 10
4.4409068931
 20
3.1911589578
 30
0.0
 11
4.4494969139
 21
3.6832849861
 31
0.0
  0
LINE
  5
5DD
330
1F
100
AcDbEntity
  8
0
  6
Continuous
 62
     7
370
    15
100
AcDbLine
 10
4.310985634
 20
3.1911589578
 30
0.0
 11
4.2263398518
 21
3.1911589578
 31
0.0
  0
LINE
  5
5DE
330
1F
100
AcDbEntity
  8
0
  6
Continuous
 62
     7
370
    15
100
AcDbLine
 10
7.3680722249
 20
3.1911589578
 30
0.0
 11
7.2834264427
 21
3.1911589578
 31
0.0
  0
LINE
  5
5DF
330
1F
100
AcDbEntity
  8
0
  6
Continuous
 62
     7
370
    15
100
AcDbLine
 10
4.310985634
 20
3.1911589578
 30
0.0
 11
4.3127723067
 21
3.2935211353
 31
0.0
  0
ARC
  5
5E0
330
1F
100
AcDbEntity
  8
0
  6
Continuous
 62
     7
370
    15
100
AcDbCircle
 10
4.3140257431
 20
3.7029699668
 30
0.0
 40
0.0787401574803153
100
AcDbArc
 50
90.0
 51
179.0
  0
ARC
  5
5E1
330
1F
100
AcDbEntity
  8
0
  6
Continuous
 62
     7
370
    15
100
AcDbCircle
 10
7.2803863336
 20
3.7029699668
 30
0.0
 40
0.0787401574803153
100
AcDbArc
 50
1.0
 51
90.0
  0
LINE
  5
5E2
330
1F
100
AcDbEntity
  8
0
  6
Continuous
 62
     7
370
    15
100
AcDbLine
 10
7.3680722249
 20
3.1911589578
 30
0.0
 11
7.3591145151
 21
3.7043441695
 31
0.0
  0
LINE
  5
5E3
330
1F
100
AcDbEntity
  8
0
  6
Continuous
 62
     7
370
    15
100
AcDbLine
 10
4.2352975617
 20
3.7043441695
 30
0.0
 11
4.2263398518
 21
3.1911589578
 31
0.0
  0
LINE
  5
5E4
330
1F
100
AcDbEntity
  8
0
  6
Continuous
 62
     7
370
    15
100
AcDbLine
 10
4.4566548979
 20
3.6832849861
 30
0.0
 11
4.4566548979
 21
3.1911589578
 31
0.0
  0
LINE
  5
5E5
330
1F
100
AcDbEntity
  8
0
  6
Continuous
 62
     7
370
    15
100
AcDbLine
 10
4.4566548979
 20
3.1911589578
 30
0.0
 11
4.4409068931
 21
3.1911589578
 31
0.0
  0
LINE
  5
5E6
330
1F
100
AcDbEntity
  8
0
  6
Continuous
 62
     7
370
    15
100
AcDbLine
 10
5.0570485687
 20
3.1911589578
 30
0.0
 11
5.0656386628
 21
3.6832849861
 31
0.0
  0
LINE
  5
5E7
330
1F
100
AcDbEntity
  8
0
  6
Continuous
 62
     7
370
    15
100
AcDbLine
 10
4.7893320481
 20
3.6832849861
 30
0.0
 11
4.7893320481
 21
3.1911589578
 31
0.0
  0
LINE
  5
5E8
330
1F
100
AcDbEntity
  8
0
  6
Continuous
 62
     7
370
    15
100
AcDbLine
 10
4.7893320481
 20
3.1911589578
 30
0.0
 11
5.0570485687
 21
3.1911589578
 31
0.0
  0
LINE
  5
5E9
330
1F
100
AcDbEntity
  8
0
  6
Continuous
 62
     7
370
    15
100
AcDbLine
 10
4.4566548979
 20
3.1911589578
 30
0.0
 11
4.7893320481
 21
3.1911589578
 31
0.0
  0
LINE
  5
5EA
330
1F
100
AcDbEntity
  8
0
  6
Continuous
 62
     7
370
    15
100
AcDbLine
 10
7.1378665909
 20
3.1911589578
 30
0.0
 11
7.1378068983
 21
3.6832849861
 31
0.0
  0
LINE
  5
5EB
330
1F
100
AcDbEntity
  8
0
  6
Continuous
 62
     7
370
    15
100
AcDbLine
 10
7.1535051836
 20
3.1911589578
 30
0.0
 11
7.1378665909
 21
3.1911589578
 31
0.0
  0
LINE
  5
5EC
330
1F
100
AcDbEntity
  8
0
  6
Continuous
 62
     7
370
    15
100
AcDbLine
 10
6.8634257746
 20
3.6832849861
 30
0.0
 11
6.8720156487
 21
3.1911589578
 31
0.0
  0
LINE
  5
5ED
330
1F
100
AcDbEntity
  8
0
  6
Continuous
 62
     7
370
    15
100
AcDbLine
 10
6.8720156487
 20
3.1911589578
 30
0.0
 11
7.1378665909
 21
3.1911589578
 31
0.0
  0
LWPOLYLINE
  5
5EE
330
1F
100
AcDbEntity
  8
0
  6
Continuous
 62
     7
370
    15
100
AcDbPolyline
 90
        5
 70
   128
 43
0.0
 10
4.3140257055
 20
3.7817100891
 10
4.3020884968
 20
3.7817100891
 10
4.2943118799
 20
3.7817097957
 10
4.291301728
 20
3.7817089157
 10
4.29718886
 20
3.7817100891
  0
LINE
  5
5EF
330
1F
100
AcDbEntity
  8
0
  6
Continuous
 62
     7
370
    15
100
AcDbLine
 10
7.2972232167
 20
3.7817100891
 30
0.0
 11
7.2975042268
 21
3.7817100891
 31
0.0
  0
LWPOLYLINE
  5
5F0
330
1F
100
AcDbEntity
  8
0
  6
Continuous
 62
     7
370
    15
100
AcDbPolyline
 90
        4
 70
   128
 43
0.0
 10
7.3031103487
 20
3.7817089157
 10
7.3008016954
 20
3.7817100891
 10
7.2936699644
 20
3.7817100891
 10
7.2803863712
 20
3.7817100891
  0
LINE
  5
5F1
330
1F
100
AcDbEntity
  8
0
  6
Continuous
 62
     7
370
    15
100
AcDbLine
 10
5.0727965735
 20
3.6832849861
 30
0.0
 11
5.0727965735
 21
3.1911589578
 31
0.0
  0
LINE
  5
5F2
330
1F
100
AcDbEntity
  8
0
  6
Continuous
 62
     7
370
    15
100
AcDbLine
 10
5.0727965735
 20
3.1911589578
 30
0.0
 11
5.0570485687
 21
3.1911589578
 31
0.0
  0
LINE
  5
5F3
330
1F
100
AcDbEntity
  8
0
  6
Continuous
 62
     7
370
    15
100
AcDbLine
 10
6.8562680107
 20
3.1911589578
 30
0.0
 11
6.8562680107
 21
3.6832849861
 31
0.0
  0
LINE
  5
5F4
330
1F
100
AcDbEntity
  8
0
  6
Continuous
 62
     7
370
    15
100
AcDbLine
 10
6.8720156487
 20
3.1911589578
 30
0.0
 11
6.8562680107
 21
3.1911589578
 31
0.0
  0
LINE
  5
5F5
330
1F
100
AcDbEntity
  8
0
  6
Continuous
 62
     7
370
    15
100
AcDbLine
 10
5.0727965735
 20
3.1911589578
 30
0.0
 11
6.8562680107
 21
3.1911589578
 31
0.0
  0
LINE
  5
5F6
330
1F
100
AcDbEntity
  8
0
  6
Continuous
 62
     7
370
    15
100
AcDbLine
 10
4.2972060198
 20
2.2069069746
 30
0.0
 11
7.2972060569
 21
2.2069069746
 31
0.0
  0
LINE
  5
5F7
330
1F
100
AcDbEntity
  8
0
  6
Continuous
 62
     7
370
    15
100
AcDbLine
 10
4.2972060198
 20
2.1169069768
 30
0.0
 11
4.2972060198
 21
2.2069069746
 31
0.0
  0
LINE
  5
5F8
330
1F
100
AcDbEntity
  8
0
  6
Continuous
 62
     7
370
    15
100
AcDbLine
 10
7.2972060569
 20
2.2069069746
 30
0.0
 11
7.2972060569
 21
2.1169069768
 31
0.0
  0
LINE
  5
5F9
330
1F
100
AcDbEntity
  8
0
  6
Continuous
 62
     7
370
    15
100
AcDbLine
 10
4.2972060198
 20
2.1169069768
 30
0.0
 11
7.2972060569
 21
2.1169069768
 31
0.0
  0
LINE
  5
5FA
330
1F
100
AcDbEntity
  8
0
  6
Continuous
 62
     7
370
    15
100
AcDbLine
 10
7.2637415102
 20
3.2344660442
 30
0.0
 11
7.2164973493
 21
3.2344660442
 31
0.0
  0
LINE
  5
5FB
330
1F
100
AcDbEntity
  8
0
  6
Continuous
 62
     7
370
    15
100
AcDbLine
 10
7.2637415102
 20
3.2344660442
 30
0.0
 11
7.2637415102
 21
3.1911589578
 31
0.0
  0
LINE
  5
5FC
330
1F
100
AcDbEntity
  8
0
  6
Continuous
 62
     7
370
    15
100
AcDbLine
 10
7.3680722249
 20
3.1911589578
 30
0.0
 11
7.2637415102
 21
3.1911589578
 31
0.0
  0
LINE
  5
5FD
330
1F
100
AcDbEntity
  8
0
  6
Continuous
 62
     7
370
    15
100
AcDbLine
 10
4.3306705666
 20
3.1911589578
 30
0.0
 11
4.2263398518
 21
3.1911589578
 31
0.0
  0
LINE
  5
5FE
330
1F
100
AcDbEntity
  8
0
  6
Continuous
 62
     7
370
    15
100
AcDbLine
 10
4.3306705666
 20
3.1911589578
 30
0.0
 11
4.3306705666
 21
3.2344660442
 31
0.0
  0
LINE
  5
5FF
330
1F
100
AcDbEntity
  8
0
  6
Continuous
 62
     7
370
    15
100
AcDbLine
 10
4.3779147275
 20
3.2344660442
 30
0.0
 11
4.3306705666
 21
3.2344660442
 31
0.0
  0
LINE
  5
600
330
1F
100
AcDbEntity
  8
0
  6
Continuous
 62
     7
370
    15
100
AcDbLine
 10
4.3937891574
 20
2.3250172119
 30
0.0
 11
4.3779147275
 21
3.2344660442
 31
0.0
  0
LINE
  5
601
330
1F
100
AcDbEntity
  8
0
  6
Continuous
 62
     7
370
    15
100
AcDbLine
 10
7.2735142373
 20
2.2069069746
 30
0.0
 11
4.3208978395
 21
2.2069069746
 31
0.0
  0
LINE
  5
602
330
1F
100
AcDbEntity
  8
0
  6
Continuous
 62
     7
370
    15
100
AcDbLine
 10
7.2006229193
 20
2.3250172119
 30
0.0
 11
4.3937891574
 21
2.3250172119
 31
0.0
  0
LINE
  5
603
330
1F
100
AcDbEntity
  8
0
  6
Continuous
 62
     7
370
    15
100
AcDbLine
 10
7.2164973493
 20
3.2344660442
 30
0.0
 11
7.2006229193
 21
2.3250172119
 31
0.0
  0
LINE
  5
604
330
1F
100
AcDbEntity
  8
0
  6
Continuous
 62
     7
370
    15
100
AcDbLine
 10
4.2263398518
 20
3.1911589578
 30
0.0
 11
4.2421696956
 21
2.2842729309
 31
0.0
  0
LINE
  5
605
330
1F
100
AcDbEntity
  8
0
  6
Continuous
 62
     7
370
    15
100
AcDbLine
 10
7.3522423811
 20
2.2842729309
 30
0.0
 11
7.3680722249
 21
3.1911589578
 31
0.0
  0
ARC
  5
606
330
1F
100
AcDbEntity
  8
0
  6
Continuous
 62
     7
370
    15
100
AcDbCircle
 10
4.3208978159
 20
2.2856471321
 30
0.0
 40
0.0787401574803148
100
AcDbArc
 50
181.0
 51
270.0
  0
ARC
  5
607
330
1F
100
AcDbEntity
  8
0
  6
Continuous
 62
     7
370
    15
100
AcDbCircle
 10
7.2735142608
 20
2.2856471321
 30
0.0
 40
0.0787401574803153
100
AcDbArc
 50
270.0
 51
359.0
  0
LINE
  5
608
330
1F
100
AcDbEntity
  8
0
  6
Continuous
 62
     7
370
    15
100
AcDbLine
 10
5.2329468401
 20
2.5612376681
 30
0.0
 11
5.2329468401
 21
2.3250172119
 31
0.0
  0
LINE
  5
609
330
1F
100
AcDbEntity
  8
0
  6
Continuous
 62
     7
370
    15
100
AcDbLine
 10
7.2047461117
 20
2.5612376681
 30
0.0
 11
5.2329468401
 21
2.5612376681
 31
0.0
  0
LINE
  5
60A
330
1F
100
AcDbEntity
  8
0
  6
Continuous
 62
     7
370
    15
100
AcDbLine
 10
5.0913095063
 20
2.3250172119
 30
0.0
 11
5.093384009
 21
2.5612376681
 31
0.0
  0
LINE
  5
60B
330
1F
100
AcDbEntity
  8
0
  6
Continuous
 62
     7
370
    15
100
AcDbLine
 10
5.093384009
 20
2.5612376681
 30
0.0
 11
5.2329468401
 21
2.5612376681
 31
0.0
  0
LINE
  5
60C
330
1F
100
AcDbEntity
  8
0
  6
Continuous
 62
     7
370
    15
100
AcDbLine
 10
4.3779147275
 20
3.2344660442
 30
0.0
 11
4.3968437488
 21
3.2344660442
 31
0.0
  0
LINE
  5
60D
330
1F
100
AcDbEntity
  8
0
  6
Continuous
 62
     7
370
    15
100
AcDbLine
 10
7.1975683279
 20
3.2344660442
 30
0.0
 11
7.2164973493
 21
3.2344660442
 31
0.0
  0
LINE
  5
60E
330
1F
100
AcDbEntity
  8
0
  6
Continuous
 62
     7
370
    15
100
AcDbLine
 10
5.093384009
 20
2.5612376681
 30
0.0
 11
4.7893320481
 21
2.5612376681
 31
0.0
  0
LINE
  5
60F
330
1F
100
AcDbEntity
  8
0
  6
Continuous
 62
     7
370
    15
100
AcDbLine
 10
5.0058076407
 20
2.5612376681
 30
0.0
 11
4.9948123877
 21
3.1911589578
 31
0.0
  0
LINE
  5
610
330
1F
100
AcDbEntity
  8
0
  6
Continuous
 62
     8
370
    15
100
AcDbLine
 10
4.4566548979
 20
3.1911589578
 30
0.0
 11
4.4566548979
 21
2.3250172119
 31
0.0
  0
LINE
  5
611
330
1F
100
AcDbEntity
  8
0
  6
Continuous
 62
     8
370
    15
100
AcDbLine
 10
7.1382224002
 20
2.5612376681
 30
0.0
 11
7.1382988126
 21
3.1911589578
 31
0.0
  0
LINE
  5
612
330
1F
100
AcDbEntity
  8
0
  6
Continuous
 62
     8
370
    15
100
AcDbLine
 10
4.7893320481
 20
3.1911589578
 30
0.0
 11
4.7893320481
 21
2.5612376681
 31
0.0
  0
LINE
  5
613
330
1F
100
AcDbEntity
  8
0
  6
Continuous
 62
     8
370
    15
100
AcDbLine
 10
6.9342503631
 20
3.1911589578
 30
0.0
 11
6.9232552568
 21
2.5612376681
 31
0.0
  0
LINE
  5
614
330
1F
100
AcDbEntity
  8
0
  6
Continuous
 62
     8
370
    15
100
AcDbLine
 10
5.0727965735
 20
3.1911589578
 30
0.0
 11
5.0727965735
 21
2.5612376681
 31
0.0
  0
LINE
  5
615
330
1F
100
AcDbEntity
  8
0
  6
Continuous
 62
     8
370
    15
100
AcDbLine
 10
6.8562680107
 20
2.5612376681
 30
0.0
 11
6.8562680107
 21
3.1911589578
 31
0.0
  0
HATCH
  5
616
330
1F
100
AcDbEntity
  8
0
  6
Continuous
 62
     7
370
     0
100
AcDbHatch
 10
0.0
 20
0.0
 30
0.0
210
0.0
220
0.0
230
1.0
  2
ANSI31
 70
     0
 71
     0
 91
        1
 92
        0
 93
       14
 72
     1
 10
7.216497376943923
 20
3.234466029766867
 11
7.200622888761218
 21
2.325017210869229
 72
     1
 10
7.200622888761218
 20
2.325017210869229
 11
4.393789187961362
 21
2.325017210869219
 72
     1
 10
4.393789187961362
 20
2.325017210869219
 11
4.377914699778652
 21
3.234466029766857
 72
     1
 10
4.377914699778652
 20
3.234466029766857
 11
4.330670605290422
 21
3.234466029766857
 72
     1
 10
4.330670605290422
 20
3.234466029766857
 11
4.330670605290421
 21
3.191158943152684
 72
     1
 10
4.330670605290421
 20
3.191158943152684
 11
4.226339896629004
 21
3.191158943152683
 72
     1
 10
4.226339896629004
 20
3.191158943152683
 11
4.242169650925229
 21
2.284272926897779
 72
     2
 10
4.320897815898173
 20
2.285647132129061
 40
0.078740157480315
 50
181.000000000001
 51
270.0000000000008
 73
     1
 72
     1
 10
4.320897815898173
 20
2.206906974648746
 11
7.273514260824377
 21
2.206906974648756
 72
     2
 10
7.273514260824408
 20
2.285647132129072
 40
0.078740157480315
 50
269.9999999999782
 51
359.0000000000006
 73
     1
 72
     1
 10
7.352242425797352
 20
2.284272926897789
 11
7.36807218009357
 21
3.191158943152694
 72
     1
 10
7.36807218009357
 20
3.191158943152694
 11
7.263741471432152
 21
3.191158943152693
 72
     1
 10
7.263741471432152
 20
3.191158943152693
 11
7.263741471432152
 21
3.234466029766867
 72
     1
 10
7.263741471432152
 20
3.234466029766867
 11
7.216497376943923
 21
3.234466029766867
 97
        0
 75
     0
 76
     1
 52
0.0
 41
1.75
 77
     0
 78
     1
 53
45.0
 43
0.0
 44
0.0
 45
-0.1546796083845572
 46
0.1546796083845573
 79
     0
 98
        1
 10
0.0
 20
0.0
  0
HATCH
  5
617
330
1F
100
AcDbEntity
  8
0
  6
Continuous
 62
     7
370
     0
100
AcDbHatch
 10
0.0
 20
0.0
 30
0.0
210
0.0
220
0.0
230
1.0
  2
ANSI31
 70
     0
 71
     0
 91
        1
 92
        0
 93
        4
 72
     1
 10
7.297206038361291
 20
2.116906974648756
 11
7.29720603836129
 21
2.206906974648756
 72
     1
 10
7.29720603836129
 20
2.206906974648756
 11
4.297206038361291
 21
2.206906974648746
 72
     1
 10
4.297206038361291
 20
2.206906974648746
 11
4.297206038361291
 21
2.116906974648745
 72
     1
 10
4.297206038361291
 20
2.116906974648745
 11
7.297206038361291
 21
2.116906974648756
 97
        0
 75
     0
 76
     1
 52
0.0
 41
1.75
 77
     0
 78
     1
 53
45.0
 43
0.0
 44
0.0
 45
-0.1546796083845572
 46
0.1546796083845573
 79
     0
 98
        1
 10
0.0
 20
0.0
  0
HATCH
  5
618
330
1F
100
AcDbEntity
  8
0
  6
Continuous
 62
     7
370
     0
100
AcDbHatch
 10
0.0
 20
0.0
 30
0.0
210
0.0
220
0.0
230
1.0
  2
ANSI31
 70
     0
 71
     0
 91
        1
 92
        0
 93
       18
 72
     1
 10
4.440906825762863
 20
3.191158943152684
 11
4.449496916770841
 21
3.683284927404652
 72
     1
 10
4.449496916770841
 20
3.683284927404652
 11
7.144915159951729
 21
3.683284927404661
 72
     1
 10
7.144915159951729
 20
3.683284927404661
 11
7.153505250959713
 21
3.191158943152693
 72
     1
 10
7.153505250959713
 20
3.191158943152693
 11
7.196812337573885
 21
3.191158943152693
 72
     1
 10
7.196812337573885
 20
3.191158943152693
 11
7.198599076503545
 21
3.293521147877103
 72
     1
 10
7.198599076503545
 20
3.293521147877103
 11
7.281639771872571
 21
3.293521147877103
 72
     1
 10
7.281639771872571
 20
3.293521147877103
 11
7.283426510802232
 21
3.191158943152693
 72
     1
 10
7.283426510802232
 20
3.191158943152693
 11
7.36807218009357
 21
3.191158943152694
 72
     1
 10
7.36807218009357
 20
3.191158943152694
 11
7.359114498603732
 21
3.704344172006024
 72
     2
 10
7.280386333630786
 20
3.70296996677474
 40
0.078740157480315
 50
1.0000000000008
 51
90.0
 73
     1
 72
     1
 10
7.280386333630786
 20
3.781710124255055
 11
4.314025743091784
 21
3.781710124255046
 72
     2
 10
4.314025743091785
 20
3.70296996677473
 40
0.078740157480315
 50
90.00000000000064
 51
179.0000000000005
 73
     1
 72
     1
 10
4.23529757811884
 20
3.704344172006012
 11
4.226339896629004
 21
3.191158943152683
 72
     1
 10
4.226339896629004
 20
3.191158943152683
 11
4.310985565920343
 21
3.191158943152683
 72
     1
 10
4.310985565920343
 20
3.191158943152683
 11
4.312772304850002
 21
3.293521147877092
 72
     1
 10
4.312772304850002
 20
3.293521147877092
 11
4.395813000219029
 21
3.293521147877093
 72
     1
 10
4.395813000219029
 20
3.293521147877093
 11
4.397599739148689
 21
3.191158943152684
 72
     1
 10
4.397599739148689
 20
3.191158943152684
 11
4.440906825762863
 21
3.191158943152684
 97
        0
 75
     0
 76
     1
 52
0.0
 41
1.75
 77
     0
 78
     1
 53
45.0
 43
0.0
 44
0.0
 45
-0.1546796083845572
 46
0.1546796083845573
 79
     0
 98
        1
 10
0.0
 20
0.0
  0
DIMENSION
  5
619
330
1F
100
AcDbEntity
  8
0
  6
Continuous
 62
     7
370
     0
100
AcDbDimension
  2
_D_26
 10
7.9127469156
 20
3.7817101243
 30
0.0
 11
7.9127469156
 21
4.2735454252
 31
0.0
 70
   160
  1
<> COVER
 71
     2
 42
-1.0
  3
SLDDIMSTYLE1
100
AcDbAlignedDimension
 13
7.3680721801
 23
3.1911589432
 33
0.0
 14
7.2803863336
 24
3.7817101243
 34
0.0
 50
90.0
100
AcDbRotatedDimension
  0
DIMENSION
  5
62D
330
1F
100
AcDbEntity
  8
0
  6
Continuous
 62
     7
370
     0
100
AcDbDimension
  2
_D_27
 10
3.5262348506
 20
3.6832849274
 30
0.0
 11
3.5262348506
 21
3.0041510691
 31
0.0
 70
   160
  1
<>
 71
     2
 42
-1.0
  3
SLDDIMSTYLE0
100
AcDbAlignedDimension
 13
4.393789188
 23
2.3250172109
 33
0.0
 14
4.4494969168
 24
3.6832849274
 34
0.0
 50
90.0
100
AcDbRotatedDimension
  0
DIMENSION
  5
641
330
1F
100
AcDbEntity
  8
0
  6
Continuous
 62
     7
370
     0
100
AcDbDimension
  2
_D_28
 10
3.5262348506
 20
3.7817101243
 30
0.0
 11
3.5262348506
 21
4.2492751414
 31
0.0
 70
   160
  1
<>
 71
     2
 42
-1.0
  3
SLDDIMSTYLE6
100
AcDbAlignedDimension
 13
4.4494969168
 23
3.6832849274
 33
0.0
 14
4.3140257431
 24
3.7817101243
 34
0.0
 50
90.0
100
AcDbRotatedDimension
  0
DIMENSION
  5
657
330
1F
100
AcDbEntity
  8
0
  6
Continuous
 62
     7
370
     0
100
AcDbDimension
  2
_D_29
 10
8.731698943
 20
3.7817101243
 30
0.0
 11
8.731698943
 21
2.9943085495
 31
0.0
 70
   160
  1
<>
 71
     2
 42
-1.0
  3
SLDDIMSTYLE0
100
AcDbAlignedDimension
 13
7.2972060384
 23
2.2069069746
 33
0.0
 14
7.2803863336
 24
3.7817101243
 34
0.0
 50
90.0
100
AcDbRotatedDimension
  0
DIMENSION
  5
66B
330
1F
100
AcDbEntity
  8
0
  6
Continuous
 62
     7
370
     0
100
AcDbDimension
  2
_D_30
 10
8.731698943
 20
2.1169069746
 30
0.0
 11
8.731698943
 21
1.6839619446
 31
0.0
 70
   160
  1
<> REF.
 71
     2
 42
-1.0
  3
SLDDIMSTYLE1
100
AcDbAlignedDimension
 13
7.2972060384
 23
2.2069069746
 33
0.0
 14
7.2972060384
 24
2.1169069746
 34
0.0
 50
90.0
100
AcDbRotatedDimension
  0
MTEXT
  5
67F
330
1F
100
AcDbEntity
  8
0
  6
Continuous
 62
     7
370
     0
100
AcDbMText
 10
5.8583534314
 20
1.6754794186
 30
0.0
 40
0.21875
 41
0.0
 71
     2
 72
     1
  1
SECTION B-B
  7
SLDTEXTSTYLE0
 73
     1
 44
1.0
  0
ENDSEC
  0
SECTION
  2
OBJECTS
  0
DICTIONARY
  5
C
330
0
100
AcDbDictionary
281
     1
  3
ACAD_GROUP
350
D
  3
ACAD_LAYOUT
350
1A
  3
ACAD_MLINESTYLE
350
17
  3
ACAD_PLOTSETTINGS
350
19
  3
ACAD_PLOTSTYLENAME
350
E
  3
ACAD_SCALELIST
350
47
  0
DICTIONARY
  5
D
102
{ACAD_REACTORS
330
C
102
}
330
C
100
AcDbDictionary
281
     1
  0
DICTIONARY
  5
1A
102
{ACAD_REACTORS
330
C
102
}
330
C
100
AcDbDictionary
281
     1
  3
Layout1
350
1E
  3
Layout2
350
26
  3
Model
350
22
  0
DICTIONARY
  5
17
102
{ACAD_REACTORS
330
C
102
}
330
C
100
AcDbDictionary
281
     1
  3
Standard
350
18
  0
DICTIONARY
  5
19
102
{ACAD_REACTORS
330
C
102
}
330
C
100
AcDbDictionary
281
     1
  0
ACDBDICTIONARYWDFLT
  5
E
102
{ACAD_REACTORS
330
C
102
}
330
C
100
AcDbDictionary
281
     1
  3
Normal
350
F
100
AcDbDictionaryWithDefault
340
F
  0
DICTIONARY
  5
47
102
{ACAD_REACTORS
330
C
102
}
330
C
100
AcDbDictionary
281
     1
  3
A0
350
48
  3
A1
350
49
  3
A2
350
4A
  3
A3
350
4B
  3
A4
350
4C
  3
A5
350
4D
  3
A6
350
4E
  3
A7
350
4F
  3
A8
350
50
  3
A9
350
51
  3
B0
350
52
  3
B1
350
53
  3
B2
350
54
  3
B3
350
55
  3
B4
350
56
  3
B5
350
57
  3
B6
350
58
  3
B7
350
59
  3
B8
350
5A
  3
B9
350
5B
  3
C0
350
5C
  3
C1
350
5D
  3
C2
350
5E
  3
C3
350
5F
  3
C4
350
60
  3
C5
350
61
  3
C6
350
62
  3
C7
350
63
  3
C8
350
64
  3
C9
350
65
  3
D0
350
66
  3
D1
350
67
  3
D2
350
68
  0
LAYOUT
  5
1E
102
{ACAD_REACTORS
330
1A
102
}
330
1A
100
AcDbPlotSettings
  1

  2
none_device
  4

  6

 40
0.0
 41
0.0
 42
0.0
 43
0.0
 44
0.0
 45
0.0
 46
0.0
 47
0.0
 48
0.0
 49
0.0
140
0.0
141
0.0
142
1.0
143
1.0
 70
   688
 72
     0
 73
     0
 74
     5
  7

 75
    16
147
1.0
148
0.0
149
0.0
100
AcDbLayout
  1
Layout1
 70
     1
 71
     1
 10
0.0
 20
0.0
 11
12.0
 21
9.0
 12
0.0
 22
0.0
 32
0.0
 14
1.0000000000E+20
 24
1.0000000000E+20
 34
1.0000000000E+20
 15
-1.0000000000E+20
 25
-1.0000000000E+20
 35
-1.0000000000E+20
146
0.0
 13
0.0
 23
0.0
 33
0.0
 16
1.0
 26
0.0
 36
0.0
 17
0.0
 27
1.0
 37
0.0
 76
     0
330
1B
  0
LAYOUT
  5
26
102
{ACAD_REACTORS
330
1A
102
}
330
1A
100
AcDbPlotSettings
  1

  2
none_device
  4

  6

 40
0.0
 41
0.0
 42
0.0
 43
0.0
 44
0.0
 45
0.0
 46
0.0
 47
0.0
 48
0.0
 49
0.0
140
0.0
141
0.0
142
1.0
143
1.0
 70
   688
 72
     0
 73
     0
 74
     5
  7

 75
    16
147
1.0
148
0.0
149
0.0
100
AcDbLayout
  1
Layout2
 70
     1
 71
     2
 10
0.0
 20
0.0
 11
0.0
 21
0.0
 12
0.0
 22
0.0
 32
0.0
 14
0.0
 24
0.0
 34
0.0
 15
0.0
 25
0.0
 35
0.0
146
0.0
 13
0.0
 23
0.0
 33
0.0
 16
1.0
 26
0.0
 36
0.0
 17
0.0
 27
1.0
 37
0.0
 76
     0
330
23
  0
LAYOUT
  5
22
102
{ACAD_REACTORS
330
1A
102
}
330
1A
100
AcDbPlotSettings
  1

  2
none_device
  4
Letter_(8.50_x_11.00_Inches)
  6

 40
6.35
 41
6.35
 42
6.35000508
 43
6.35000508
 44
215.9
 45
279.4
 46
0.0
 47
0.0
 48
0.0
 49
0.0
140
0.0
141
0.0
142
1.0
143
1.0
 70
  1712
 72
     0
 73
     0
 74
     0
  7

 75
     0
147
1.0
148
0.0
149
0.0
100
AcDbLayout
  1
Model
 70
     1
 71
     0
 10
0.0
 20
0.0
 11
29.75
 21
19.25
 12
0.0
 22
0.0
 32
0.0
 14
0.0
 24
0.0
 34
0.0
 15
29.75
 25
19.25
 35
0.0
146
0.0
 13
0.0
 23
0.0
 33
0.0
 16
1.0
 26
0.0
 36
0.0
 17
0.0
 27
1.0
 37
0.0
 76
     0
330
1F
331
29
  0
MLINESTYLE
  5
18
102
{ACAD_REACTORS
330
17
102
}
330
17
100
AcDbMlineStyle
  2
Standard
 70
     0
  3

 62
   256
 51
90.0
 52
90.0
 71
     2
 49
0.5
 62
   256
  6
BYLAYER
 49
-0.5
 62
   256
  6
BYLAYER
  0
ACDBPLACEHOLDER
  5
F
102
{ACAD_REACTORS
330
E
102
}
330
E
  0
SCALE
  5
48
102
{ACAD_REACTORS
330
47
102
}
330
47
100
AcDbScale
 70
     0
300
1:1
140
1.0
141
1.0
290
     1
  0
SCALE
  5
49
102
{ACAD_REACTORS
330
47
102
}
330
47
100
AcDbScale
 70
     0
300
1:2
140
1.0
141
2.0
290
     0
  0
SCALE
  5
4A
102
{ACAD_REACTORS
330
47
102
}
330
47
100
AcDbScale
 70
     0
300
1:4
140
1.0
141
4.0
290
     0
  0
SCALE
  5
4B
102
{ACAD_REACTORS
330
47
102
}
330
47
100
AcDbScale
 70
     0
300
1:5
140
1.0
141
5.0
290
     0
  0
SCALE
  5
4C
102
{ACAD_REACTORS
330
47
102
}
330
47
100
AcDbScale
 70
     0
300
1:8
140
1.0
141
8.0
290
     0
  0
SCALE
  5
4D
102
{ACAD_REACTORS
330
47
102
}
330
47
100
AcDbScale
 70
     0
300
1:10
140
1.0
141
10.0
290
     0
  0
SCALE
  5
4E
102
{ACAD_REACTORS
330
47
102
}
330
47
100
AcDbScale
 70
     0
300
1:16
140
1.0
141
16.0
290
     0
  0
SCALE
  5
4F
102
{ACAD_REACTORS
330
47
102
}
330
47
100
AcDbScale
 70
     0
300
1:20
140
1.0
141
20.0
290
     0
  0
SCALE
  5
50
102
{ACAD_REACTORS
330
47
102
}
330
47
100
AcDbScale
 70
     0
300
1:30
140
1.0
141
30.0
290
     0
  0
SCALE
  5
51
102
{ACAD_REACTORS
330
47
102
}
330
47
100
AcDbScale
 70
     0
300
1:40
140
1.0
141
40.0
290
     0
  0
SCALE
  5
52
102
{ACAD_REACTORS
330
47
102
}
330
47
100
AcDbScale
 70
     0
300
1:50
140
1.0
141
50.0
290
     0
  0
SCALE
  5
53
102
{ACAD_REACTORS
330
47
102
}
330
47
100
AcDbScale
 70
     0
300
1:100
140
1.0
141
100.0
290
     0
  0
SCALE
  5
54
102
{ACAD_REACTORS
330
47
102
}
330
47
100
AcDbScale
 70
     0
300
2:1
140
2.0
141
1.0
290
     0
  0
SCALE
  5
55
102
{ACAD_REACTORS
330
47
102
}
330
47
100
AcDbScale
 70
     0
300
4:1
140
4.0
141
1.0
290
     0
  0
SCALE
  5
56
102
{ACAD_REACTORS
330
47
102
}
330
47
100
AcDbScale
 70
     0
300
8:1
140
8.0
141
1.0
290
     0
  0
SCALE
  5
57
102
{ACAD_REACTORS
330
47
102
}
330
47
100
AcDbScale
 70
     0
300
10:1
140
10.0
141
1.0
290
     0
  0
SCALE
  5
58
102
{ACAD_REACTORS
330
47
102
}
330
47
100
AcDbScale
 70
     0
300
100:1
140
100.0
141
1.0
290
     0
  0
SCALE
  5
59
102
{ACAD_REACTORS
330
47
102
}
330
47
100
AcDbScale
 70
     0
300
1/128" = 1'-0"
140
0.0078125
141
12.0
290
     0
  0
SCALE
  5
5A
102
{ACAD_REACTORS
330
47
102
}
330
47
100
AcDbScale
 70
     0
300
1/64" = 1'-0"
140
0.015625
141
12.0
290
     0
  0
SCALE
  5
5B
102
{ACAD_REACTORS
330
47
102
}
330
47
100
AcDbScale
 70
     0
300
1/32" = 1'-0"
140
0.03125
141
12.0
290
     0
  0
SCALE
  5
5C
102
{ACAD_REACTORS
330
47
102
}
330
47
100
AcDbScale
 70
     0
300
1/16" = 1'-0"
140
0.0625
141
12.0
290
     0
  0
SCALE
  5
5D
102
{ACAD_REACTORS
330
47
102
}
330
47
100
AcDbScale
 70
     0
300
3/32" = 1'-0"
140
0.09375
141
12.0
290
     0
  0
SCALE
  5
5E
102
{ACAD_REACTORS
330
47
102
}
330
47
100
AcDbScale
 70
     0
300
1/8" = 1'-0"
140
0.125
141
12.0
290
     0
  0
SCALE
  5
5F
102
{ACAD_REACTORS
330
47
102
}
330
47
100
AcDbScale
 70
     0
300
3/16" = 1'-0"
140
0.1875
141
12.0
290
     0
  0
SCALE
  5
60
102
{ACAD_REACTORS
330
47
102
}
330
47
100
AcDbScale
 70
     0
300
1/4" = 1'-0"
140
0.25
141
12.0
290
     0
  0
SCALE
  5
61
102
{ACAD_REACTORS
330
47
102
}
330
47
100
AcDbScale
 70
     0
300
3/8" = 1'-0"
140
0.375
141
12.0
290
     0
  0
SCALE
  5
62
102
{ACAD_REACTORS
330
47
102
}
330
47
100
AcDbScale
 70
     0
300
1/2" = 1'-0"
140
0.5
141
12.0
290
     0
  0
SCALE
  5
63
102
{ACAD_REACTORS
330
47
102
}
330
47
100
AcDbScale
 70
     0
300
3/4" = 1'-0"
140
0.75
141
12.0
290
     0
  0
SCALE
  5
64
102
{ACAD_REACTORS
330
47
102
}
330
47
100
AcDbScale
 70
     0
300
1" = 1'-0"
140
1.0
141
12.0
290
     0
  0
SCALE
  5
65
102
{ACAD_REACTORS
330
47
102
}
330
47
100
AcDbScale
 70
     0
300
1-1/2" = 1'-0"
140
1.5
141
12.0
290
     0
  0
SCALE
  5
66
102
{ACAD_REACTORS
330
47
102
}
330
47
100
AcDbScale
 70
     0
300
3" = 1'-0"
140
3.0
141
12.0
290
     0
  0
SCALE
  5
67
102
{ACAD_REACTORS
330
47
102
}
330
47
100
AcDbScale
 70
     0
300
6" = 1'-0"
140
6.0
141
12.0
290
     0
  0
SCALE
  5
68
102
{ACAD_REACTORS
330
47
102
}
330
47
100
AcDbScale
 70
     0
300
1'-0" = 1'-0"
140
12.0
141
12.0
290
     0
  0
ENDSEC
  0
EOF
