  0
SECTION
  2
HEADER
  9
$ACADVER
  1
AC1015
  9
$ACADMAINTVER
 70
     6
  9
$DWGCODEPAGE
  3
ANSI_1252
  9
$INSBASE
 10
0.0
 20
0.0
 30
0.0
  9
$EXTMIN
 10
0.0
 20
0.0
 30
0.0
  9
$EXTMAX
 10
24.89999999999999
 20
15.49199999999999
 30
0.0625
  9
$LIMMIN
 10
0.0
 20
0.0
  9
$LIMMAX
 10
23.25
 20
15.17999999999999
  9
$ORTHOMODE
 70
     1
  9
$REGENMODE
 70
     1
  9
$FILLMODE
 70
     1
  9
$QTEXTMODE
 70
     0
  9
$MIRRTEXT
 70
     0
  9
$LTSCALE
 40
0.375
  9
$ATTMODE
 70
     1
  9
$TEXTSIZE
 40
0.188
  9
$TRACEWID
 40
0.05
  9
$TEXTSTYLE
  7
TXT
  9
$CLAYER
  8
DIM
  9
$CELTYPE
  6
ByLayer
  9
$CECOLOR
 62
   256
  9
$CELTSCALE
 40
1.0
  9
$DISPSILH
 70
     0
  9
$DIMSCALE
 40
1.5
  9
$DIMASZ
 40
0.18
  9
$DIMEXO
 40
0.063
  9
$DIMDLI
 40
0.281
  9
$DIMRND
 40
0.0
  9
$DIMDLE
 40
0.0
  9
$DIMEXE
 40
0.093
  9
$DIMTP
 40
0.0
  9
$DIMTM
 40
0.0
  9
$DIMTXT
 40
0.125
  9
$DIMCEN
 40
0.09
  9
$DIMTSZ
 40
0.0
  9
$DIMTOL
 70
     0
  9
$DIMLIM
 70
     0
  9
$DIMTIH
 70
     1
  9
$DIMTOH
 70
     1
  9
$DIMSE1
 70
     0
  9
$DIMSE2
 70
     0
  9
$DIMTAD
 70
     0
  9
$DIMZIN
 70
     0
  9
$DIMBLK
  1

  9
$DIMASO
 70
     1
  9
$DIMSHO
 70
     1
  9
$DIMPOST
  1

  9
$DIMAPOST
  1

  9
$DIMALT
 70
     0
  9
$DIMALTD
 70
     2
  9
$DIMALTF
 40
25.4
  9
$DIMLFAC
 40
1.0
  9
$DIMTOFL
 70
     0
  9
$DIMTVP
 40
0.0
  9
$DIMTIX
 70
     0
  9
$DIMSOXD
 70
     0
  9
$DIMSAH
 70
     0
  9
$DIMBLK1
  1

  9
$DIMBLK2
  1

  9
$DIMSTYLE
  2
23NSTD
  9
$DIMCLRD
 70
     0
  9
$DIMCLRE
 70
     0
  9
$DIMCLRT
 70
     0
  9
$DIMTFAC
 40
1.0
  9
$DIMGAP
 40
0.09
  9
$DIMJUST
 70
     0
  9
$DIMSD1
 70
     0
  9
$DIMSD2
 70
     0
  9
$DIMTOLJ
 70
     1
  9
$DIMTZIN
 70
     0
  9
$DIMALTZ
 70
     0
  9
$DIMALTTZ
 70
     0
  9
$DIMUPT
 70
     0
  9
$DIMDEC
 70
     3
  9
$DIMTDEC
 70
     3
  9
$DIMALTU
 70
     2
  9
$DIMALTTD
 70
     2
  9
$DIMTXSTY
  7
TXT
  9
$DIMAUNIT
 70
     1
  9
$DIMADEC
 70
     0
  9
$DIMALTRND
 40
0.0
  9
$DIMAZIN
 70
     0
  9
$DIMDSEP
 70
    46
  9
$DIMATFIT
 70
     1
  9
$DIMFRAC
 70
     0
  9
$DIMLDRBLK
  1

  9
$DIMLUNIT
 70
     2
  9
$DIMLWD
 70
    -2
  9
$DIMLWE
 70
    -2
  9
$DIMTMOVE
 70
     0
  9
$LUNITS
 70
     2
  9
$LUPREC
 70
     3
  9
$SKETCHINC
 40
0.1
  9
$FILLETRAD
 40
0.0
  9
$AUNITS
 70
     1
  9
$AUPREC
 70
     1
  9
$MENU
  1
acad
  9
$ELEVATION
 40
0.0
  9
$PELEVATION
 40
0.0
  9
$THICKNESS
 40
0.0
  9
$LIMCHECK
 70
     0
  9
$CHAMFERA
 40
0.0
  9
$CHAMFERB
 40
0.0
  9
$CHAMFERC
 40
0.0
  9
$CHAMFERD
 40
0.0
  9
$SKPOLY
 70
     0
  9
$TDCREATE
 40
2450757.434016666
  9
$TDUCREATE
 40
2450757.642350000
  9
$TDUPDATE
 40
2456672.448316331
  9
$TDUUPDATE
 40
2456672.656649664
  9
$TDINDWG
 40
0.0930206944
  9
$TDUSRTIMER
 40
0.0930206944
  9
$USRTIMER
 70
     1
  9
$ANGBASE
 50
0.0
  9
$ANGDIR
 70
     0
  9
$PDMODE
 70
     0
  9
$PDSIZE
 40
0.0
  9
$PLINEWID
 40
0.0
  9
$SPLFRAME
 70
     0
  9
$SPLINETYPE
 70
     6
  9
$SPLINESEGS
 70
     8
  9
$HANDSEED
  5
E3C
  9
$SURFTAB1
 70
     6
  9
$SURFTAB2
 70
     6
  9
$SURFTYPE
 70
     6
  9
$SURFU
 70
     6
  9
$SURFV
 70
     6
  9
$UCSBASE
  2

  9
$UCSNAME
  2

  9
$UCSORG
 10
0.0
 20
0.0
 30
0.0
  9
$UCSXDIR
 10
1.0
 20
0.0
 30
0.0
  9
$UCSYDIR
 10
0.0
 20
1.0
 30
0.0
  9
$UCSORTHOREF
  2

  9
$UCSORTHOVIEW
 70
     0
  9
$UCSORGTOP
 10
0.0
 20
0.0
 30
0.0
  9
$UCSORGBOTTOM
 10
0.0
 20
0.0
 30
0.0
  9
$UCSORGLEFT
 10
0.0
 20
0.0
 30
0.0
  9
$UCSORGRIGHT
 10
0.0
 20
0.0
 30
0.0
  9
$UCSORGFRONT
 10
0.0
 20
0.0
 30
0.0
  9
$UCSORGBACK
 10
0.0
 20
0.0
 30
0.0
  9
$PUCSBASE
  2

  9
$PUCSNAME
  2

  9
$PUCSORG
 10
0.0
 20
0.0
 30
0.0
  9
$PUCSXDIR
 10
1.0
 20
0.0
 30
0.0
  9
$PUCSYDIR
 10
0.0
 20
1.0
 30
0.0
  9
$PUCSORTHOREF
  2

  9
$PUCSORTHOVIEW
 70
     0
  9
$PUCSORGTOP
 10
0.0
 20
0.0
 30
0.0
  9
$PUCSORGBOTTOM
 10
0.0
 20
0.0
 30
0.0
  9
$PUCSORGLEFT
 10
0.0
 20
0.0
 30
0.0
  9
$PUCSORGRIGHT
 10
0.0
 20
0.0
 30
0.0
  9
$PUCSORGFRONT
 10
0.0
 20
0.0
 30
0.0
  9
$PUCSORGBACK
 10
0.0
 20
0.0
 30
0.0
  9
$USERI1
 70
     0
  9
$USERI2
 70
     0
  9
$USERI3
 70
     0
  9
$USERI4
 70
     0
  9
$USERI5
 70
     0
  9
$USERR1
 40
0.0
  9
$USERR2
 40
0.0
  9
$USERR3
 40
0.0
  9
$USERR4
 40
0.0
  9
$USERR5
 40
0.0
  9
$WORLDVIEW
 70
     1
  9
$SHADEDGE
 70
     3
  9
$SHADEDIF
 70
    70
  9
$TILEMODE
 70
     1
  9
$MAXACTVP
 70
    16
  9
$PINSBASE
 10
-3.100979
 20
50.0
 30
10.277186
  9
$PLIMCHECK
 70
     0
  9
$PEXTMIN
 10
1.000000000000000E+20
 20
1.000000000000000E+20
 30
1.000000000000000E+20
  9
$PEXTMAX
 10
-1.000000000000000E+20
 20
-1.000000000000000E+20
 30
-1.000000000000000E+20
  9
$PLIMMIN
 10
0.0
 20
0.0
  9
$PLIMMAX
 10
12.0
 20
9.0
  9
$UNITMODE
 70
     0
  9
$VISRETAIN
 70
     0
  9
$PLINEGEN
 70
     0
  9
$PSLTSCALE
 70
     0
  9
$TREEDEPTH
 70
  3020
  9
$CMLSTYLE
  2
Standard
  9
$CMLJUST
 70
     0
  9
$CMLSCALE
 40
1.0
  9
$PROXYGRAPHICS
 70
     1
  9
$MEASUREMENT
 70
     0
  9
$CELWEIGHT
370
    -1
  9
$ENDCAPS
280
     0
  9
$JOINSTYLE
280
     0
  9
$LWDISPLAY
290
     0
  9
$INSUNITS
 70
     0
  9
$HYPERLINKBASE
  1

  9
$STYLESHEET
  1
monochrome.ctb
  9
$XEDIT
290
     1
  9
$CEPSNTYPE
380
     0
  9
$PSTYLEMODE
290
     1
  9
$FINGERPRINTGUID
  2
{7921E6F4-3426-4FD4-9A2B-5E0F6BC6F955}
  9
$VERSIONGUID
  2
{7A65E286-0126-4F3D-BA53-1CFB3C982571}
  9
$EXTNAMES
290
     1
  9
$PSVPSCALE
 40
0.0
  9
$OLESTARTUP
290
     0
  0
ENDSEC
  0
SECTION
  2
CLASSES
  0
CLASS
  1
ACDBDICTIONARYWDFLT
  2
AcDbDictionaryWithDefault
  3
AutoCAD 2000
 90
        0
280
     0
281
     0
  0
CLASS
  1
ACDBPLACEHOLDER
  2
AcDbPlaceHolder
  3
AutoCAD 2000
 90
        0
280
     0
281
     0
  0
CLASS
  1
LAYOUT
  2
AcDbLayout
  3
AutoCAD 2000
 90
        0
280
     0
281
     0
  0
ENDSEC
  0
SECTION
  2
TABLES
  0
TABLE
  2
VPORT
  5
8
330
0
100
AcDbSymbolTable
 70
     2
  0
VPORT
  5
E3B
330
8
100
AcDbSymbolTableRecord
100
AcDbViewportTableRecord
  2
*Active
 70
     0
 10
0.0
 20
0.0
 11
1.0
 21
1.0
 12
12.44983297135312
 22
7.74577014660902
 13
0.0
 23
0.0
 14
1.0
 24
1.0
 15
0.25
 25
0.25
 16
0.0
 26
0.0
 36
1.0
 17
0.0
 27
0.0
 37
0.0
 40
15.64843116643384
 41
1.836974789915966
 42
50.0
 43
0.0
 44
0.0
 50
0.0
 51
0.0
 71
     0
 72
   100
 73
     1
 74
     0
 75
     0
 76
     0
 77
     0
 78
     0
281
     0
 65
     1
110
0.0
120
0.0
130
0.0
111
1.0
121
0.0
131
0.0
112
0.0
122
1.0
132
0.0
 79
     0
146
0.0
  0
ENDTAB
  0
TABLE
  2
LTYPE
  5
5
330
0
100
AcDbSymbolTable
 70
     6
  0
LTYPE
  5
13
330
5
100
AcDbSymbolTableRecord
100
AcDbLinetypeTableRecord
  2
ByBlock
 70
     0
  3

 72
    65
 73
     0
 40
0.0
  0
LTYPE
  5
14
330
5
100
AcDbSymbolTableRecord
100
AcDbLinetypeTableRecord
  2
ByLayer
 70
     0
  3

 72
    65
 73
     0
 40
0.0
  0
LTYPE
  5
15
330
5
100
AcDbSymbolTableRecord
100
AcDbLinetypeTableRecord
  2
CONTINUOUS
 70
     0
  3
Solid line
 72
    65
 73
     0
 40
0.0
  0
LTYPE
  5
25
330
5
100
AcDbSymbolTableRecord
100
AcDbLinetypeTableRecord
  2
HIDDEN
 70
     0
  3
_ _ _ _ _ _ _ _ _ _ _ _ _ _ _ _ _ _ _ _ _ _ _
 72
    65
 73
     2
 40
0.375
 49
0.25
 74
     0
 49
-0.125
 74
     0
  0
LTYPE
  5
26
330
5
100
AcDbSymbolTableRecord
100
AcDbLinetypeTableRecord
  2
CENTER
 70
     0
  3
____ _ ____ _ ____ _ ____ _ ____ _ ____ _ ____
 72
    65
 73
     4
 40
2.0
 49
1.25
 74
     0
 49
-0.25
 74
     0
 49
0.25
 74
     0
 49
-0.25
 74
     0
  0
LTYPE
  5
27
330
5
100
AcDbSymbolTableRecord
100
AcDbLinetypeTableRecord
  2
PHANTOM
 70
     0
  3
_____ _ _ _____ _ _ _____ _ _ _____ _ _ ____
 72
    65
 73
     6
 40
2.5
 49
1.25
 74
     0
 49
-0.25
 74
     0
 49
0.25
 74
     0
 49
-0.25
 74
     0
 49
0.25
 74
     0
 49
-0.25
 74
     0
  0
LTYPE
  5
88A
330
5
100
AcDbSymbolTableRecord
100
AcDbLinetypeTableRecord
  2
HIDDEN2
 70
     0
  3
_ _ _ _ _ _ _ _ _ _ _ _ _ _ _ _ _ _ _ _ _ _ _ _
 72
    65
 73
     2
 40
0.1875
 49
0.125
 74
     0
 49
-0.0625
 74
     0
  0
LTYPE
  5
88B
330
5
100
AcDbSymbolTableRecord
100
AcDbLinetypeTableRecord
  2
PHANTOM2
 70
     0
  3
___ _ _ ___ _ _ ___ _ _ ___ _ _ ___ _ _ ___ _ _
 72
    65
 73
     6
 40
1.25
 49
0.625
 74
     0
 49
-0.125
 74
     0
 49
0.125
 74
     0
 49
-0.125
 74
     0
 49
0.125
 74
     0
 49
-0.125
 74
     0
  0
ENDTAB
  0
TABLE
  2
LAYER
  5
2
330
0
100
AcDbSymbolTable
 70
     9
  0
LAYER
  5
10
330
2
100
AcDbSymbolTableRecord
100
AcDbLayerTableRecord
  2
0
 70
     0
 62
     7
  6
CONTINUOUS
370
    -3
390
F
  0
LAYER
  5
22
330
2
100
AcDbSymbolTableRecord
100
AcDbLayerTableRecord
  2
DIM
 70
     0
 62
     7
  6
CONTINUOUS
370
    -3
390
F
  0
LAYER
  5
28
330
2
100
AcDbSymbolTableRecord
100
AcDbLayerTableRecord
  2
OBJECT
 70
     0
 62
     7
  6
CONTINUOUS
370
    -3
390
F
  0
LAYER
  5
29
330
2
100
AcDbSymbolTableRecord
100
AcDbLayerTableRecord
  2
HIDDEN
 70
     0
 62
     7
  6
HIDDEN
370
    -3
390
F
  0
LAYER
  5
2A
330
2
100
AcDbSymbolTableRecord
100
AcDbLayerTableRecord
  2
TEXT
 70
     0
 62
     7
  6
CONTINUOUS
370
    -3
390
F
  0
LAYER
  5
2B
330
2
100
AcDbSymbolTableRecord
100
AcDbLayerTableRecord
  2
TITLE
 70
     0
 62
     7
  6
CONTINUOUS
370
    -3
390
F
  0
LAYER
  5
2C
330
2
100
AcDbSymbolTableRecord
100
AcDbLayerTableRecord
  2
CENTER
 70
     0
 62
     7
  6
CENTER
370
    -3
390
F
  0
LAYER
  5
2D
330
2
100
AcDbSymbolTableRecord
100
AcDbLayerTableRecord
  2
DEFPOINTS
 70
     0
 62
     7
  6
CONTINUOUS
290
     0
370
    -3
390
F
  0
LAYER
  5
2E
330
2
100
AcDbSymbolTableRecord
100
AcDbLayerTableRecord
  2
BEND
 70
     0
 62
     7
  6
PHANTOM
370
    -3
390
F
  0
ENDTAB
  0
TABLE
  2
STYLE
  5
3
330
0
100
AcDbSymbolTable
 70
     2
  0
STYLE
  5
11
330
3
100
AcDbSymbolTableRecord
100
AcDbTextStyleTableRecord
  2
Standard
 70
     0
 40
0.0
 41
1.0
 50
0.0
 71
     0
 42
0.2
  3
txt
  4

  0
STYLE
  5
23
330
3
100
AcDbSymbolTableRecord
100
AcDbTextStyleTableRecord
  2
TXT
 70
     0
 40
0.0
 41
0.75
 50
0.0
 71
     0
 42
0.188
  3
TXT.shx
  4

  0
ENDTAB
  0
TABLE
  2
VIEW
  5
6
330
0
100
AcDbSymbolTable
 70
     0
  0
ENDTAB
  0
TABLE
  2
UCS
  5
7
330
0
100
AcDbSymbolTable
 70
     0
  0
ENDTAB
  0
TABLE
  2
APPID
  5
9
330
0
100
AcDbSymbolTable
 70
     1
  0
APPID
  5
12
330
9
100
AcDbSymbolTableRecord
100
AcDbRegAppTableRecord
  2
ACAD
 70
     0
  0
ENDTAB
  0
TABLE
  2
DIMSTYLE
  5
A
330
0
100
AcDbSymbolTable
 70
     2
100
AcDbDimStyleTable
 71
     2
340
2F
340
30
  0
DIMSTYLE
105
2F
102
{ACAD_REACTORS
330
707
330
610
330
4A3
330
404
330
3F6
330
341
330
325
330
24B
330
360
330
352
330
2F9
330
259
330
23D
330
307
330
6F9
330
68E
330
333
330
267
330
275
330
3DA
330
3BE
330
3B0
330
394
330
386
330
5F4
330
4BF
330
3E8
330
587
330
575
330
4DB
330
4CD
330
602
330
4B1
330
3A2
330
412
330
3CC
102
}
330
A
100
AcDbSymbolTableRecord
100
AcDbDimStyleTableRecord
  2
23NSTD
 70
     0
 40
1.5
 42
0.063
 43
0.281
 44
0.093
140
0.125
271
     3
272
     3
275
     1
289
     1
340
23
  0
DIMSTYLE
105
30
330
A
100
AcDbSymbolTableRecord
100
AcDbDimStyleTableRecord
  2
23NSTDI
 70
     0
 40
1.5
 42
0.063
 43
0.281
 44
0.093
140
0.125
174
     1
271
     3
272
     3
275
     1
340
23
  0
ENDTAB
  0
TABLE
  2
BLOCK_RECORD
  5
1
330
0
100
AcDbSymbolTable
 70
    37
  0
BLOCK_RECORD
  5
1E
330
1
100
AcDbSymbolTableRecord
100
AcDbBlockTableRecord
  2
*Model_Space
340
21
  0
BLOCK_RECORD
  5
1A
330
1
100
AcDbSymbolTableRecord
100
AcDbBlockTableRecord
  2
*Paper_Space
340
1D
  0
BLOCK_RECORD
  5
32
330
1
100
AcDbSymbolTableRecord
100
AcDbBlockTableRecord
  2
HBS
340
0
102
{BLKREFS
331
22A
331
8C1
102
}
  0
BLOCK_RECORD
  5
23E
330
1
100
AcDbSymbolTableRecord
100
AcDbBlockTableRecord
  2
*D1
340
0
  0
BLOCK_RECORD
  5
24C
330
1
100
AcDbSymbolTableRecord
100
AcDbBlockTableRecord
  2
*D2
340
0
  0
BLOCK_RECORD
  5
25A
330
1
100
AcDbSymbolTableRecord
100
AcDbBlockTableRecord
  2
*D3
340
0
  0
BLOCK_RECORD
  5
268
330
1
100
AcDbSymbolTableRecord
100
AcDbBlockTableRecord
  2
*D4
340
0
  0
BLOCK_RECORD
  5
276
330
1
100
AcDbSymbolTableRecord
100
AcDbBlockTableRecord
  2
*D5
340
0
  0
BLOCK_RECORD
  5
2FA
330
1
100
AcDbSymbolTableRecord
100
AcDbBlockTableRecord
  2
*D6
340
0
  0
BLOCK_RECORD
  5
308
330
1
100
AcDbSymbolTableRecord
100
AcDbBlockTableRecord
  2
*D7
340
0
  0
BLOCK_RECORD
  5
326
330
1
100
AcDbSymbolTableRecord
100
AcDbBlockTableRecord
  2
*D8
340
0
  0
BLOCK_RECORD
  5
334
330
1
100
AcDbSymbolTableRecord
100
AcDbBlockTableRecord
  2
*D9
340
0
  0
BLOCK_RECORD
  5
342
330
1
100
AcDbSymbolTableRecord
100
AcDbBlockTableRecord
  2
*D10
340
0
  0
BLOCK_RECORD
  5
353
330
1
100
AcDbSymbolTableRecord
100
AcDbBlockTableRecord
  2
*D11
340
0
  0
BLOCK_RECORD
  5
361
330
1
100
AcDbSymbolTableRecord
100
AcDbBlockTableRecord
  2
*D12
340
0
  0
BLOCK_RECORD
  5
387
330
1
100
AcDbSymbolTableRecord
100
AcDbBlockTableRecord
  2
*D13
340
0
  0
BLOCK_RECORD
  5
395
330
1
100
AcDbSymbolTableRecord
100
AcDbBlockTableRecord
  2
*D14
340
0
  0
BLOCK_RECORD
  5
3A3
330
1
100
AcDbSymbolTableRecord
100
AcDbBlockTableRecord
  2
*D15
340
0
  0
BLOCK_RECORD
  5
3B1
330
1
100
AcDbSymbolTableRecord
100
AcDbBlockTableRecord
  2
*D16
340
0
  0
BLOCK_RECORD
  5
3BF
330
1
100
AcDbSymbolTableRecord
100
AcDbBlockTableRecord
  2
*D17
340
0
  0
BLOCK_RECORD
  5
3CD
330
1
100
AcDbSymbolTableRecord
100
AcDbBlockTableRecord
  2
*D18
340
0
  0
BLOCK_RECORD
  5
3DB
330
1
100
AcDbSymbolTableRecord
100
AcDbBlockTableRecord
  2
*D19
340
0
  0
BLOCK_RECORD
  5
3E9
330
1
100
AcDbSymbolTableRecord
100
AcDbBlockTableRecord
  2
*D20
340
0
  0
BLOCK_RECORD
  5
3F7
330
1
100
AcDbSymbolTableRecord
100
AcDbBlockTableRecord
  2
*D21
340
0
  0
BLOCK_RECORD
  5
405
330
1
100
AcDbSymbolTableRecord
100
AcDbBlockTableRecord
  2
*D22
340
0
  0
BLOCK_RECORD
  5
413
330
1
100
AcDbSymbolTableRecord
100
AcDbBlockTableRecord
  2
*D23
340
0
  0
BLOCK_RECORD
  5
4A4
330
1
100
AcDbSymbolTableRecord
100
AcDbBlockTableRecord
  2
*D24
340
0
  0
BLOCK_RECORD
  5
4B2
330
1
100
AcDbSymbolTableRecord
100
AcDbBlockTableRecord
  2
*D25
340
0
  0
BLOCK_RECORD
  5
4C0
330
1
100
AcDbSymbolTableRecord
100
AcDbBlockTableRecord
  2
*D26
340
0
  0
BLOCK_RECORD
  5
4CE
330
1
100
AcDbSymbolTableRecord
100
AcDbBlockTableRecord
  2
*D27
340
0
  0
BLOCK_RECORD
  5
4DC
330
1
100
AcDbSymbolTableRecord
100
AcDbBlockTableRecord
  2
*D28
340
0
  0
BLOCK_RECORD
  5
576
330
1
100
AcDbSymbolTableRecord
100
AcDbBlockTableRecord
  2
*D29
340
0
  0
BLOCK_RECORD
  5
588
330
1
100
AcDbSymbolTableRecord
100
AcDbBlockTableRecord
  2
*D30
340
0
  0
BLOCK_RECORD
  5
5F5
330
1
100
AcDbSymbolTableRecord
100
AcDbBlockTableRecord
  2
*D31
340
0
  0
BLOCK_RECORD
  5
603
330
1
100
AcDbSymbolTableRecord
100
AcDbBlockTableRecord
  2
*D32
340
0
  0
BLOCK_RECORD
  5
611
330
1
100
AcDbSymbolTableRecord
100
AcDbBlockTableRecord
  2
*D33
340
0
  0
BLOCK_RECORD
  5
68F
330
1
100
AcDbSymbolTableRecord
100
AcDbBlockTableRecord
  2
*D34
340
0
  0
BLOCK_RECORD
  5
6FA
330
1
100
AcDbSymbolTableRecord
100
AcDbBlockTableRecord
  2
*D35
340
0
  0
BLOCK_RECORD
  5
708
330
1
100
AcDbSymbolTableRecord
100
AcDbBlockTableRecord
  2
*D36
340
0
  0
ENDTAB
  0
ENDSEC
  0
SECTION
  2
BLOCKS
  0
BLOCK
  5
1F
330
1E
100
AcDbEntity
  8
0
100
AcDbBlockBegin
  2
*Model_Space
 70
     0
 10
0.0
 20
0.0
 30
0.0
  3
*Model_Space
  1

  0
ENDBLK
  5
20
330
1E
100
AcDbEntity
  8
0
100
AcDbBlockEnd
  0
BLOCK
  5
1B
330
1A
100
AcDbEntity
 67
     1
  8
0
100
AcDbBlockBegin
  2
*Paper_Space
 70
     0
 10
0.0
 20
0.0
 30
0.0
  3
*Paper_Space
  1

  0
ENDBLK
  5
1C
330
1A
100
AcDbEntity
 67
     1
  8
0
100
AcDbBlockEnd
  0
BLOCK
  5
33
330
32
100
AcDbEntity
  8
0
100
AcDbBlockBegin
  2
HBS
 70
     0
 10
0.0
 20
0.0
 30
0.0
  3
HBS
  1

  0
LINE
  5
88C
330
32
100
AcDbEntity
  8
TITLE
100
AcDbLine
 10
0.0620000000000118
 20
10.266
 30
0.0
 11
16.53800000000001
 21
10.266
 31
0.0
  0
LINE
  5
88D
330
32
100
AcDbEntity
  8
TITLE
100
AcDbLine
 10
16.53800000000001
 20
0.0620000000000012
 30
0.0
 11
0.0620000000000118
 21
0.0620000000000012
 31
0.0
  0
LINE
  5
88E
330
32
100
AcDbEntity
  8
TITLE
100
AcDbLine
 10
0.0
 20
10.32799999999999
 30
0.0
 11
16.59999999999999
 21
10.32799999999999
 31
0.0
  0
LINE
  5
88F
330
32
100
AcDbEntity
  8
TITLE
100
AcDbLine
 10
16.59999999999999
 20
0.0
 30
0.0
 11
0.0
 21
0.0
 31
0.0
  0
LINE
  5
890
330
32
100
AcDbEntity
  8
TITLE
100
AcDbLine
 10
0.0620000000000118
 20
9.848000000000002
 30
0.0
 11
16.53800000000001
 21
9.848000000000006
 31
0.0
  0
LINE
  5
891
330
32
100
AcDbEntity
  8
TITLE
100
AcDbLine
 10
0.0620000000000118
 20
0.0620000000000012
 30
0.0
 11
0.0620000000000118
 21
10.266
 31
0.0
  0
LINE
  5
892
330
32
100
AcDbEntity
  8
TITLE
100
AcDbLine
 10
0.0
 20
0.0
 30
0.0
 11
0.0
 21
10.32799999999999
 31
0.0
  0
LINE
  5
893
330
32
100
AcDbEntity
  8
TITLE
100
AcDbLine
 10
0.6832256297567483
 20
9.848000000000002
 30
0.0
 11
0.6832256297567483
 21
10.266
 31
0.0
  0
LINE
  5
894
330
32
100
AcDbEntity
  8
TITLE
100
AcDbLine
 10
7.394499999999993
 20
10.266
 30
0.0
 11
7.394499999999993
 21
9.848000000000002
 31
0.0
  0
LINE
  5
895
330
32
100
AcDbEntity
  8
TITLE
100
AcDbLine
 10
7.456500000000005
 20
10.266
 30
0.0
 11
7.456500000000005
 21
9.848000000000002
 31
0.0
  0
LINE
  5
896
330
32
100
AcDbEntity
  8
TITLE
100
AcDbLine
 10
8.052745547125624
 20
10.266
 30
0.0
 11
8.052745547125624
 21
9.848000000000002
 31
0.0
  0
TEXT
  5
897
330
32
100
AcDbEntity
  8
TEXT
100
AcDbText
 10
7.632697851596219
 20
9.888079195640081
 30
0.0
 40
0.125
  1
No.
  7
TXT
 72
     1
 11
7.757697851596219
 21
9.888079195640081
 31
0.0
100
AcDbText
  0
TEXT
  5
898
330
32
100
AcDbEntity
  8
TEXT
100
AcDbText
 10
7.528531184929552
 20
10.09641252897341
 30
0.0
 40
0.125
  1
PART
  7
TXT
 72
     1
 11
7.757697851596219
 21
10.09641252897341
 31
0.0
100
AcDbText
  0
LINE
  5
899
330
32
100
AcDbEntity
  8
TITLE
100
AcDbLine
 10
16.53800000000001
 20
10.266
 30
0.0
 11
16.53800000000001
 21
0.0620000000000012
 31
0.0
  0
LINE
  5
89A
330
32
100
AcDbEntity
  8
TITLE
100
AcDbLine
 10
16.59999999999999
 20
10.32799999999999
 30
0.0
 11
16.59999999999999
 21
0.0
 31
0.0
  0
TEXT
  5
89B
330
32
100
AcDbEntity
  8
TEXT
100
AcDbText
 10
14.30829876551267
 20
10.09641252897341
 30
0.0
 40
0.125
  1
REV.
  7
TXT
 72
     1
 11
14.516632098846
 21
10.09641252897341
 31
0.0
100
AcDbText
  0
TEXT
  5
89C
330
32
100
AcDbEntity
  8
TEXT
100
AcDbText
 10
14.28746543217933
 20
9.888079195640081
 30
0.0
 40
0.125
  1
DATE
  7
TXT
 72
     1
 11
14.516632098846
 21
9.888079195640081
 31
0.0
100
AcDbText
  0
LINE
  5
89D
330
32
100
AcDbEntity
  8
TITLE
100
AcDbLine
 10
14.23053366769755
 20
10.266
 30
0.0
 11
14.23053366769755
 21
9.848000000000002
 31
0.0
  0
LINE
  5
89E
330
32
100
AcDbEntity
  8
TITLE
100
AcDbLine
 10
14.81199113305001
 20
10.266
 30
0.0
 11
14.81199113305001
 21
9.848000000000002
 31
0.0
  0
LINE
  5
89F
330
32
100
AcDbEntity
  8
TITLE
100
AcDbLine
 10
14.16853366769754
 20
10.266
 30
0.0
 11
14.16853366769754
 21
9.848000000000002
 31
0.0
  0
LINE
  5
8A0
330
32
100
AcDbEntity
  8
TITLE
100
AcDbLine
 10
1.278807051939764
 20
9.848000000000002
 30
0.0
 11
1.278807051939764
 21
10.266
 31
0.0
  0
TEXT
  5
8A1
330
32
100
AcDbEntity
  8
TEXT
100
AcDbText
 10
0.7511001661695977
 20
10.09641252897341
 30
0.0
 40
0.125
  1
PART
  7
TXT
 72
     1
 11
0.9802668328362642
 21
10.09641252897341
 31
0.0
100
AcDbText
  0
TEXT
  5
8A2
330
32
100
AcDbEntity
  8
TEXT
100
AcDbText
 10
0.7511001661695977
 20
9.888079195640081
 30
0.0
 40
0.125
  1
NAME
  7
TXT
 72
     1
 11
0.9802668328362642
 21
9.888079195640081
 31
0.0
100
AcDbText
  0
LINE
  5
8A3
330
32
100
AcDbEntity
  8
TITLE
100
AcDbLine
 10
0.1285380773901465
 20
9.927976666428889
 30
0.0
 11
0.1285380773901465
 21
10.19351142052816
 31
0.0
  0
ARC
  5
8A4
330
32
100
AcDbEntity
  8
TITLE
100
AcDbCircle
 10
0.2140567449432638
 20
10.13044691642958
 30
0.0
 40
0.063064504098577
100
AcDbArc
 50
270.0
 51
90.0
  0
LINE
  5
8A5
330
32
100
AcDbEntity
  8
TITLE
100
AcDbLine
 10
0.3134433045320293
 20
9.944572588560095
 30
0.0
 11
0.3134433045320293
 21
10.19351142052816
 31
0.0
  0
LINE
  5
8A6
330
32
100
AcDbEntity
  8
TITLE
100
AcDbLine
 10
0.3850940800495266
 20
9.97130050354441
 30
0.0
 11
0.3850940800495266
 21
10.19351142052816
 31
0.0
  0
LINE
  5
8A7
330
32
100
AcDbEntity
  8
TITLE
100
AcDbLine
 10
0.3619809266567984
 20
9.97130050354441
 30
0.0
 11
0.3619809266567984
 21
10.19351142052816
 31
0.0
  0
LINE
  5
8A8
330
32
100
AcDbEntity
  8
TITLE
100
AcDbLine
 10
0.4879422817271575
 20
9.927976666428889
 30
0.0
 11
0.4879422817271575
 21
10.19351142052816
 31
0.0
  0
ARC
  5
8A9
330
32
100
AcDbEntity
  8
TITLE
100
AcDbCircle
 10
0.5209718037827998
 20
10.10057425659341
 30
0.0
 40
0.0929371639347451
100
AcDbArc
 50
0.0
 51
90.0
  0
LINE
  5
8AA
330
32
100
AcDbEntity
  8
TITLE
100
AcDbLine
 10
0.4336317021742673
 20
9.944572588560095
 30
0.0
 11
0.4336317021742673
 21
10.19351142052816
 31
0.0
  0
LINE
  5
8AB
330
32
100
AcDbEntity
  8
TITLE
100
AcDbLine
 10
0.3300392266632457
 20
9.927976666428889
 30
0.0
 11
0.4170357800430793
 21
9.927976666428889
 31
0.0
  0
LINE
  5
8AC
330
32
100
AcDbEntity
  8
TITLE
100
AcDbLine
 10
0.1285380773901465
 20
9.927976666428889
 30
0.0
 11
0.2140567449432638
 21
9.927976666428889
 31
0.0
  0
LINE
  5
8AD
330
32
100
AcDbEntity
  8
TITLE
100
AcDbLine
 10
0.2140567449432638
 20
10.05410567462604
 30
0.0
 11
0.1412503117561528
 21
10.05410567462604
 31
0.0
  0
LINE
  5
8AE
330
32
100
AcDbEntity
  8
TITLE
100
AcDbLine
 10
0.2140567449432638
 20
10.067382412331
 30
0.0
 11
0.1412503117561528
 21
10.067382412331
 31
0.0
  0
LINE
  5
8AF
330
32
100
AcDbEntity
  8
TITLE
100
AcDbLine
 10
0.1412503117561528
 20
10.067382412331
 30
0.0
 11
0.1412503117561528
 21
10.06074404347852
 31
0.0
  0
LINE
  5
8B0
330
32
100
AcDbEntity
  8
TITLE
100
AcDbLine
 10
0.1412503117561528
 20
10.05410567462604
 30
0.0
 11
0.1412503117561528
 21
10.06074404347852
 31
0.0
  0
ARC
  5
8B1
330
32
100
AcDbEntity
  8
TITLE
100
AcDbCircle
 10
0.2140567449432638
 20
9.991041170527466
 30
0.0
 40
0.063064504098577
100
AcDbArc
 50
270.0
 51
90.0
  0
ARC
  5
8B2
330
32
100
AcDbEntity
  8
TITLE
100
AcDbCircle
 10
0.3300392266632457
 20
9.944572588560095
 30
0.0
 40
0.0165959221312045
100
AcDbArc
 50
180.0
 51
270.0
  0
ARC
  5
8B3
330
32
100
AcDbEntity
  8
TITLE
100
AcDbCircle
 10
0.3718173423445705
 20
9.97130050354441
 30
0.0
 40
0.0132767377049636
100
AcDbArc
 50
277.444284097714
 51
0.0
  0
ARC
  5
8B4
330
32
100
AcDbEntity
  8
TITLE
100
AcDbCircle
 10
0.3752576643617544
 20
9.97130050354441
 30
0.0
 40
0.0132767377049636
100
AcDbArc
 50
180.0
 51
262.5557159022859
  0
ARC
  5
8B5
330
32
100
AcDbEntity
  8
TITLE
100
AcDbCircle
 10
0.5209718037827998
 20
10.02091383036363
 30
0.0
 40
0.0929371639347451
100
AcDbArc
 50
270.0
 51
0.0
  0
ARC
  5
8B6
330
32
100
AcDbEntity
  8
TITLE
100
AcDbCircle
 10
0.4170357800430793
 20
9.944572588560095
 30
0.0
 40
0.0165959221312045
100
AcDbArc
 50
270.0
 51
0.0
  0
LINE
  5
8B7
330
32
100
AcDbEntity
  8
TITLE
100
AcDbLine
 10
0.4879422817271575
 20
9.927976666428889
 30
0.0
 11
0.5209718037827998
 21
9.927976666428889
 31
0.0
  0
LINE
  5
8B8
330
32
100
AcDbEntity
  8
TITLE
100
AcDbLine
 10
0.6139089677175776
 20
10.02091383036363
 30
0.0
 11
0.6139089677175776
 21
10.10057425659341
 31
0.0
  0
LINE
  5
8B9
330
32
100
AcDbEntity
  8
TITLE
100
AcDbLine
 10
0.5650705899142281
 20
10.05410567462604
 30
0.0
 11
0.5650705899142281
 21
10.067382412331
 31
0.0
  0
LINE
  5
8BA
330
32
100
AcDbEntity
  8
TITLE
100
AcDbLine
 10
0.5237730004059529
 20
10.05410567462604
 30
0.0
 11
0.5237730004059529
 21
10.067382412331
 31
0.0
  0
LINE
  5
8BB
330
32
100
AcDbEntity
  8
TITLE
100
AcDbLine
 10
0.5650705899142281
 20
10.05410567462604
 30
0.0
 11
0.5237730004059529
 21
10.05410567462604
 31
0.0
  0
LINE
  5
8BC
330
32
100
AcDbEntity
  8
TITLE
100
AcDbLine
 10
0.5650705899142281
 20
10.067382412331
 30
0.0
 11
0.5237730004059529
 21
10.067382412331
 31
0.0
  0
LINE
  5
8BD
330
32
100
AcDbEntity
  8
TITLE
100
AcDbLine
 10
0.3850940800495266
 20
10.19351142052816
 30
0.0
 11
0.4336317021742673
 21
10.19351142052816
 31
0.0
  0
LINE
  5
8BE
330
32
100
AcDbEntity
  8
TITLE
100
AcDbLine
 10
0.1285380773901465
 20
10.19351142052816
 30
0.0
 11
0.2140567449432638
 21
10.19351142052816
 31
0.0
  0
LINE
  5
8BF
330
32
100
AcDbEntity
  8
TITLE
100
AcDbLine
 10
0.3134433045320293
 20
10.19351142052816
 30
0.0
 11
0.3619809266567984
 21
10.19351142052816
 31
0.0
  0
LINE
  5
8C0
330
32
100
AcDbEntity
  8
TITLE
100
AcDbLine
 10
0.4879422817271575
 20
10.19351142052816
 30
0.0
 11
0.5209718037827998
 21
10.19351142052816
 31
0.0
  0
ENDBLK
  5
49
330
32
100
AcDbEntity
  8
0
100
AcDbBlockEnd
  0
BLOCK
  5
249
330
23E
100
AcDbEntity
  8
0
100
AcDbBlockBegin
  2
*D1
 70
     1
 10
0.0
 20
0.0
 30
0.0
  3
*D1
  1

  0
LINE
  5
D3D
330
23E
100
AcDbEntity
  8
DIM
 62
     0
370
    -2
100
AcDbLine
 10
1.413856999999999
 20
5.361863999999999
 30
0.0
 11
1.413856999999999
 21
4.497863999999999
 31
0.0
  0
LINE
  5
D3E
330
23E
100
AcDbEntity
  8
DIM
 62
     0
370
    -2
100
AcDbLine
 10
5.887056999999999
 20
5.361863999999999
 30
0.0
 11
5.887056999999999
 21
4.497863999999999
 31
0.0
  0
LINE
  5
D3F
330
23E
100
AcDbEntity
  8
DIM
 62
     0
370
    -2
100
AcDbLine
 10
1.683856999999999
 20
4.637363999999999
 30
0.0
 11
3.234206999999999
 21
4.637363999999999
 31
0.0
  0
LINE
  5
D40
330
23E
100
AcDbEntity
  8
DIM
 62
     0
370
    -2
100
AcDbLine
 10
5.617056999999999
 20
4.637363999999999
 30
0.0
 11
4.066706999999999
 21
4.637363999999999
 31
0.0
  0
SOLID
  5
D41
330
23E
100
AcDbEntity
  8
DIM
 62
     0
100
AcDbTrace
 10
1.683856999999999
 20
4.682363999999999
 30
0.0
 11
1.683856999999999
 21
4.592363999999999
 31
0.0
 12
1.413856999999999
 22
4.637363999999999
 32
0.0
 13
1.413856999999999
 23
4.637363999999999
 33
0.0
  0
SOLID
  5
D42
330
23E
100
AcDbEntity
  8
DIM
 62
     0
100
AcDbTrace
 10
5.617056999999999
 20
4.682363999999999
 30
0.0
 11
5.617056999999999
 21
4.592363999999999
 31
0.0
 12
5.887056999999999
 22
4.637363999999999
 32
0.0
 13
5.887056999999999
 23
4.637363999999999
 33
0.0
  0
MTEXT
  5
D43
330
23E
100
AcDbEntity
  8
DIM
 62
     0
100
AcDbMText
 10
3.650456999999999
 20
4.637363999999999
 30
0.0
 40
0.1875
 41
0.0
 71
     5
 72
     1
  1
\A1;4.473
  7
TXT
 73
     1
 44
1.0
  0
POINT
  5
D44
330
23E
100
AcDbEntity
  8
DEFPOINTS
 62
     0
100
AcDbPoint
 10
1.413856999999999
 20
5.456363999999999
 30
0.0
  0
POINT
  5
D45
330
23E
100
AcDbEntity
  8
DEFPOINTS
 62
     0
100
AcDbPoint
 10
5.887056999999999
 20
5.456363999999999
 30
0.0
  0
POINT
  5
D46
330
23E
100
AcDbEntity
  8
DEFPOINTS
 62
     0
100
AcDbPoint
 10
5.887056999999999
 20
4.637363999999999
 30
0.0
  0
ENDBLK
  5
24A
330
23E
100
AcDbEntity
  8
0
100
AcDbBlockEnd
  0
BLOCK
  5
257
330
24C
100
AcDbEntity
  8
0
100
AcDbBlockBegin
  2
*D2
 70
     1
 10
0.0
 20
0.0
 30
0.0
  3
*D2
  1

  0
LINE
  5
D0A
330
24C
100
AcDbEntity
  8
DIM
 62
     0
370
    -2
100
AcDbLine
 10
1.462469
 20
7.407291
 30
0.0
 11
1.462469
 21
7.973364
 31
0.0
  0
LINE
  5
D0B
330
24C
100
AcDbEntity
  8
DIM
 62
     0
370
    -2
100
AcDbLine
 10
5.838443999999999
 20
7.407291
 30
0.0
 11
5.838443999999999
 21
7.973364
 31
0.0
  0
LINE
  5
D0C
330
24C
100
AcDbEntity
  8
DIM
 62
     0
370
    -2
100
AcDbLine
 10
1.732469
 20
7.833864
 30
0.0
 11
3.234206499999999
 21
7.833864
 31
0.0
  0
LINE
  5
D0D
330
24C
100
AcDbEntity
  8
DIM
 62
     0
370
    -2
100
AcDbLine
 10
5.568443999999999
 20
7.833864
 30
0.0
 11
4.066706499999999
 21
7.833864
 31
0.0
  0
SOLID
  5
D0E
330
24C
100
AcDbEntity
  8
DIM
 62
     0
100
AcDbTrace
 10
1.732469
 20
7.878864
 30
0.0
 11
1.732469
 21
7.788864
 31
0.0
 12
1.462469
 22
7.833864
 32
0.0
 13
1.462469
 23
7.833864
 33
0.0
  0
SOLID
  5
D0F
330
24C
100
AcDbEntity
  8
DIM
 62
     0
100
AcDbTrace
 10
5.568443999999999
 20
7.878864
 30
0.0
 11
5.568443999999999
 21
7.788864
 31
0.0
 12
5.838443999999999
 22
7.833864
 32
0.0
 13
5.838443999999999
 23
7.833864
 33
0.0
  0
MTEXT
  5
D10
330
24C
100
AcDbEntity
  8
DIM
 62
     0
100
AcDbMText
 10
3.650456499999999
 20
7.833864
 30
0.0
 40
0.1875
 41
0.0
 71
     5
 72
     1
  1
\A1;4.376
  7
TXT
 73
     1
 44
1.0
  0
POINT
  5
D11
330
24C
100
AcDbEntity
  8
DEFPOINTS
 62
     0
100
AcDbPoint
 10
1.462469
 20
7.312791
 30
0.0
  0
POINT
  5
D12
330
24C
100
AcDbEntity
  8
DEFPOINTS
 62
     0
100
AcDbPoint
 10
5.838443999999999
 20
7.312791
 30
0.0
  0
POINT
  5
D13
330
24C
100
AcDbEntity
  8
DEFPOINTS
 62
     0
100
AcDbPoint
 10
5.838443999999999
 20
7.833864
 30
0.0
  0
ENDBLK
  5
258
330
24C
100
AcDbEntity
  8
0
100
AcDbBlockEnd
  0
BLOCK
  5
265
330
25A
100
AcDbEntity
  8
0
100
AcDbBlockBegin
  2
*D3
 70
     1
 10
0.0
 20
0.0
 30
0.0
  3
*D3
  1

  0
LINE
  5
D32
330
25A
100
AcDbEntity
  8
DIM
 62
     0
370
    -2
100
AcDbLine
 10
2.044172999999999
 20
5.456363999999999
 30
0.0
 11
1.904672999999999
 21
5.456364
 31
0.0
  0
LINE
  5
D33
330
25A
100
AcDbEntity
  8
DIM
 62
     0
370
    -2
100
AcDbLine
 10
2.044172999999999
 20
5.643364
 30
0.0
 11
1.904672999999999
 21
5.643364
 31
0.0
  0
LINE
  5
D34
330
25A
100
AcDbEntity
  8
DIM
 62
     0
370
    -2
100
AcDbLine
 10
2.044172999999999
 20
5.186364
 30
0.0
 11
2.044172999999999
 21
4.916363999999999
 31
0.0
  0
LINE
  5
D35
330
25A
100
AcDbEntity
  8
DIM
 62
     0
370
    -2
100
AcDbLine
 10
2.044172999999999
 20
5.913364
 30
0.0
 11
2.044172999999999
 21
6.183364
 31
0.0
  0
LINE
  5
D36
330
25A
100
AcDbEntity
  8
DIM
 62
     0
370
    -2
100
AcDbLine
 10
2.044172999999999
 20
6.183364
 30
0.0
 11
2.314172999999999
 21
6.183364
 31
0.0
  0
SOLID
  5
D37
330
25A
100
AcDbEntity
  8
DIM
 62
     0
100
AcDbTrace
 10
1.999172999999999
 20
5.186364000000001
 30
0.0
 11
2.089172999999999
 21
5.186364
 31
0.0
 12
2.044172999999999
 22
5.456363999999999
 32
0.0
 13
2.044172999999999
 23
5.456363999999999
 33
0.0
  0
SOLID
  5
D38
330
25A
100
AcDbEntity
  8
DIM
 62
     0
100
AcDbTrace
 10
1.999172999999999
 20
5.913364000000001
 30
0.0
 11
2.089172999999999
 21
5.913364
 31
0.0
 12
2.044172999999999
 22
5.643364
 32
0.0
 13
2.044172999999999
 23
5.643364
 33
0.0
  0
MTEXT
  5
D39
330
25A
100
AcDbEntity
  8
DIM
 62
     0
100
AcDbMText
 10
3.656204249999998
 20
6.183364
 30
0.0
 40
0.1875
 41
0.0
 71
     5
 72
     1
  1
\A1;0.187 POLISHED BAND
  7
TXT
 73
     1
 44
1.0
  0
POINT
  5
D3A
330
25A
100
AcDbEntity
  8
DEFPOINTS
 62
     0
100
AcDbPoint
 10
2.138672999999999
 20
5.456363999999999
 30
0.0
  0
POINT
  5
D3B
330
25A
100
AcDbEntity
  8
DEFPOINTS
 62
     0
100
AcDbPoint
 10
2.138672999999999
 20
5.643364
 30
0.0
  0
POINT
  5
D3C
330
25A
100
AcDbEntity
  8
DEFPOINTS
 62
     0
100
AcDbPoint
 10
2.044172999999999
 20
5.643364
 30
0.0
  0
ENDBLK
  5
266
330
25A
100
AcDbEntity
  8
0
100
AcDbBlockEnd
  0
BLOCK
  5
273
330
268
100
AcDbEntity
  8
0
100
AcDbBlockBegin
  2
*D4
 70
     1
 10
0.0
 20
0.0
 30
0.0
  3
*D4
  1

  0
LINE
  5
D70
330
268
100
AcDbEntity
  8
DIM
 62
     0
370
    -2
100
AcDbLine
 10
1.663595
 20
9.019530999999998
 30
0.0
 11
1.663595
 21
8.880031
 31
0.0
  0
LINE
  5
D71
330
268
100
AcDbEntity
  8
DIM
 62
     0
370
    -2
100
AcDbLine
 10
5.637319
 20
9.019530999999998
 30
0.0
 11
5.637319
 21
8.880031
 31
0.0
  0
LINE
  5
D72
330
268
100
AcDbEntity
  8
DIM
 62
     0
370
    -2
100
AcDbLine
 10
1.933595
 20
9.019531
 30
0.0
 11
3.234207
 21
9.019531
 31
0.0
  0
LINE
  5
D73
330
268
100
AcDbEntity
  8
DIM
 62
     0
370
    -2
100
AcDbLine
 10
5.367319
 20
9.019531
 30
0.0
 11
4.066707
 21
9.019531
 31
0.0
  0
SOLID
  5
D74
330
268
100
AcDbEntity
  8
DIM
 62
     0
100
AcDbTrace
 10
1.933595
 20
9.064531
 30
0.0
 11
1.933595
 21
8.974531
 31
0.0
 12
1.663595
 22
9.019531
 32
0.0
 13
1.663595
 23
9.019531
 33
0.0
  0
SOLID
  5
D75
330
268
100
AcDbEntity
  8
DIM
 62
     0
100
AcDbTrace
 10
5.367319
 20
9.064531
 30
0.0
 11
5.367319
 21
8.974531
 31
0.0
 12
5.637319
 22
9.019531
 32
0.0
 13
5.637319
 23
9.019531
 33
0.0
  0
MTEXT
  5
D76
330
268
100
AcDbEntity
  8
DIM
 62
     0
100
AcDbMText
 10
3.650457
 20
9.019531
 30
0.0
 40
0.1875
 41
0.0
 71
     5
 72
     1
  1
\A1;3.974
  7
TXT
 73
     1
 44
1.0
  0
POINT
  5
D77
330
268
100
AcDbEntity
  8
DEFPOINTS
 62
     0
100
AcDbPoint
 10
1.663595
 20
9.114030999999998
 30
0.0
  0
POINT
  5
D78
330
268
100
AcDbEntity
  8
DEFPOINTS
 62
     0
100
AcDbPoint
 10
5.637319
 20
9.114030999999998
 30
0.0
  0
POINT
  5
D79
330
268
100
AcDbEntity
  8
DEFPOINTS
 62
     0
100
AcDbPoint
 10
5.637319
 20
9.019531
 30
0.0
  0
ENDBLK
  5
274
330
268
100
AcDbEntity
  8
0
100
AcDbBlockEnd
  0
BLOCK
  5
281
330
276
100
AcDbEntity
  8
0
100
AcDbBlockBegin
  2
*D5
 70
     1
 10
0.0
 20
0.0
 30
0.0
  3
*D5
  1

  0
LINE
  5
D7A
330
276
100
AcDbEntity
  8
DIM
 62
     0
370
    -2
100
AcDbLine
 10
2.845461999999999
 20
8.440874
 30
0.0
 11
2.705961999999999
 21
8.440874
 31
0.0
  0
LINE
  5
D7B
330
276
100
AcDbEntity
  8
DIM
 62
     0
370
    -2
100
AcDbLine
 10
2.845461999999999
 20
11.164074
 30
0.0
 11
2.705961999999999
 21
11.164074
 31
0.0
  0
LINE
  5
D7C
330
276
100
AcDbEntity
  8
DIM
 62
     0
370
    -2
100
AcDbLine
 10
2.845461999999999
 20
8.710874
 30
0.0
 11
2.845461999999999
 21
9.573724
 31
0.0
  0
LINE
  5
D7D
330
276
100
AcDbEntity
  8
DIM
 62
     0
370
    -2
100
AcDbLine
 10
2.845461999999999
 20
10.894074
 30
0.0
 11
2.845461999999999
 21
10.031224
 31
0.0
  0
SOLID
  5
D7E
330
276
100
AcDbEntity
  8
DIM
 62
     0
100
AcDbTrace
 10
2.800461999999999
 20
8.710874
 30
0.0
 11
2.890461999999999
 21
8.710874
 31
0.0
 12
2.845461999999999
 22
8.440874
 32
0.0
 13
2.845461999999999
 23
8.440874
 33
0.0
  0
SOLID
  5
D7F
330
276
100
AcDbEntity
  8
DIM
 62
     0
100
AcDbTrace
 10
2.800461999999999
 20
10.894074
 30
0.0
 11
2.890461999999999
 21
10.894074
 31
0.0
 12
2.845461999999999
 22
11.164074
 32
0.0
 13
2.845461999999999
 23
11.164074
 33
0.0
  0
MTEXT
  5
D80
330
276
100
AcDbEntity
  8
DIM
 62
     0
100
AcDbMText
 10
2.845461999999997
 20
9.802474
 30
0.0
 40
0.1875
 41
0.0
 71
     5
 72
     1
  1
\A1;2.723
  7
TXT
 73
     1
 44
1.0
  0
POINT
  5
D81
330
276
100
AcDbEntity
  8
DEFPOINTS
 62
     0
100
AcDbPoint
 10
2.939961999999999
 20
8.440874
 30
0.0
  0
POINT
  5
D82
330
276
100
AcDbEntity
  8
DEFPOINTS
 62
     0
100
AcDbPoint
 10
2.939961999999999
 20
11.164074
 30
0.0
  0
POINT
  5
D83
330
276
100
AcDbEntity
  8
DEFPOINTS
 62
     0
100
AcDbPoint
 10
2.845461999999999
 20
11.164074
 30
0.0
  0
ENDBLK
  5
282
330
276
100
AcDbEntity
  8
0
100
AcDbBlockEnd
  0
BLOCK
  5
305
330
2FA
100
AcDbEntity
  8
0
100
AcDbBlockBegin
  2
*D6
 70
     1
 10
0.0
 20
0.0
 30
0.0
  3
*D6
  1

  0
LINE
  5
D28
330
2FA
100
AcDbEntity
  8
DIM
  6
Continuous
 62
     0
370
    -2
100
AcDbLine
 10
5.574563999999999
 20
3.608017999999999
 30
0.0
 11
5.574563999999999
 21
3.032715
 31
0.0
  0
LINE
  5
D29
330
2FA
100
AcDbEntity
  8
DIM
  6
Continuous
 62
     0
370
    -2
100
AcDbLine
 10
1.726349
 20
3.608017999999999
 30
0.0
 11
1.726349
 21
3.032715
 31
0.0
  0
LINE
  5
D2A
330
2FA
100
AcDbEntity
  8
DIM
  6
Continuous
 62
     0
370
    -2
100
AcDbLine
 10
5.304563999999999
 20
3.172215
 30
0.0
 11
4.066706499999999
 21
3.172215
 31
0.0
  0
LINE
  5
D2B
330
2FA
100
AcDbEntity
  8
DIM
  6
Continuous
 62
     0
370
    -2
100
AcDbLine
 10
1.996349
 20
3.172215
 30
0.0
 11
3.234206499999999
 21
3.172215
 31
0.0
  0
SOLID
  5
D2C
330
2FA
100
AcDbEntity
  8
DIM
  6
Continuous
 62
     0
100
AcDbTrace
 10
5.304563999999999
 20
3.217214999999999
 30
0.0
 11
5.304563999999999
 21
3.127215
 31
0.0
 12
5.574563999999999
 22
3.172215
 32
0.0
 13
5.574563999999999
 23
3.172215
 33
0.0
  0
SOLID
  5
D2D
330
2FA
100
AcDbEntity
  8
DIM
  6
Continuous
 62
     0
100
AcDbTrace
 10
1.996349
 20
3.217214999999999
 30
0.0
 11
1.996349
 21
3.127215
 31
0.0
 12
1.726349
 22
3.172215
 32
0.0
 13
1.726349
 23
3.172215
 33
0.0
  0
MTEXT
  5
D2E
330
2FA
100
AcDbEntity
  8
DIM
  6
Continuous
 62
     0
100
AcDbMText
 10
3.650456499999999
 20
3.172215
 30
0.0
 40
0.1875
 41
0.0
 71
     5
 72
     1
  1
\A1;3.848
  7
TXT
 73
     1
 44
1.0
  0
POINT
  5
D2F
330
2FA
100
AcDbEntity
  8
DEFPOINTS
  6
Continuous
 62
     0
100
AcDbPoint
 10
5.574563999999999
 20
3.702517999999999
 30
0.0
  0
POINT
  5
D30
330
2FA
100
AcDbEntity
  8
DEFPOINTS
  6
Continuous
 62
     0
100
AcDbPoint
 10
1.726349
 20
3.702517999999999
 30
0.0
  0
POINT
  5
D31
330
2FA
100
AcDbEntity
  8
DEFPOINTS
  6
Continuous
 62
     0
100
AcDbPoint
 10
1.726349
 20
3.172215
 30
0.0
  0
ENDBLK
  5
306
330
2FA
100
AcDbEntity
  8
0
100
AcDbBlockEnd
  0
BLOCK
  5
313
330
308
100
AcDbEntity
  8
0
100
AcDbBlockBegin
  2
*D7
 70
     1
 10
0.0
 20
0.0
 30
0.0
  3
*D7
  1

  0
LINE
  5
D47
330
308
100
AcDbEntity
  8
DIM
  6
Continuous
 62
     0
370
    -2
100
AcDbLine
 10
1.820849
 20
1.104055
 30
0.0
 11
2.663863999999999
 21
1.104054999999999
 31
0.0
  0
LINE
  5
D48
330
308
100
AcDbEntity
  8
DIM
  6
Continuous
 62
     0
370
    -2
100
AcDbLine
 10
1.820849
 20
3.702517999999999
 30
0.0
 11
2.663863999999999
 21
3.702517999999999
 31
0.0
  0
LINE
  5
D49
330
308
100
AcDbEntity
  8
DIM
  6
Continuous
 62
     0
370
    -2
100
AcDbLine
 10
2.524363999999999
 20
1.374054999999999
 30
0.0
 11
2.524363999999999
 21
2.174536499999999
 31
0.0
  0
LINE
  5
D4A
330
308
100
AcDbEntity
  8
DIM
  6
Continuous
 62
     0
370
    -2
100
AcDbLine
 10
2.524363999999999
 20
3.432517999999999
 30
0.0
 11
2.524363999999999
 21
2.6320365
 31
0.0
  0
SOLID
  5
D4B
330
308
100
AcDbEntity
  8
DIM
  6
Continuous
 62
     0
100
AcDbTrace
 10
2.479363999999999
 20
1.374055
 30
0.0
 11
2.569363999999999
 21
1.374054999999999
 31
0.0
 12
2.524363999999999
 22
1.104054999999999
 32
0.0
 13
2.524363999999999
 23
1.104054999999999
 33
0.0
  0
SOLID
  5
D4C
330
308
100
AcDbEntity
  8
DIM
  6
Continuous
 62
     0
100
AcDbTrace
 10
2.479363999999999
 20
3.432517999999999
 30
0.0
 11
2.569363999999999
 21
3.432517999999999
 31
0.0
 12
2.524363999999999
 22
3.702517999999999
 32
0.0
 13
2.524363999999999
 23
3.702517999999999
 33
0.0
  0
MTEXT
  5
D4D
330
308
100
AcDbEntity
  8
DIM
  6
Continuous
 62
     0
100
AcDbMText
 10
2.524363999999998
 20
2.4032865
 30
0.0
 40
0.1875
 41
0.0
 71
     5
 72
     1
  1
\A1;2.598
  7
TXT
 73
     1
 44
1.0
  0
POINT
  5
D4E
330
308
100
AcDbEntity
  8
DEFPOINTS
  6
Continuous
 62
     0
100
AcDbPoint
 10
1.726349
 20
1.104055
 30
0.0
  0
POINT
  5
D4F
330
308
100
AcDbEntity
  8
DEFPOINTS
  6
Continuous
 62
     0
100
AcDbPoint
 10
1.726349
 20
3.702517999999999
 30
0.0
  0
POINT
  5
D50
330
308
100
AcDbEntity
  8
DEFPOINTS
  6
Continuous
 62
     0
100
AcDbPoint
 10
2.524363999999999
 20
3.702517999999999
 30
0.0
  0
ENDBLK
  5
314
330
308
100
AcDbEntity
  8
0
100
AcDbBlockEnd
  0
BLOCK
  5
331
330
326
100
AcDbEntity
  8
0
100
AcDbBlockBegin
  2
*D8
 70
     1
 10
0.0
 20
0.0
 30
0.0
  3
*D8
  1

  0
LINE
  5
D00
330
326
100
AcDbEntity
  8
DIM
 62
     0
370
    -2
100
AcDbLine
 10
10.477876
 20
7.407291
 30
0.0
 11
10.477876
 21
7.973364
 31
0.0
  0
LINE
  5
D01
330
326
100
AcDbEntity
  8
DIM
 62
     0
370
    -2
100
AcDbLine
 10
7.352424
 20
7.407291
 30
0.0
 11
7.352424
 21
7.973364
 31
0.0
  0
LINE
  5
D02
330
326
100
AcDbEntity
  8
DIM
 62
     0
370
    -2
100
AcDbLine
 10
10.207876
 20
7.833864
 30
0.0
 11
9.3079625
 21
7.833864
 31
0.0
  0
LINE
  5
D03
330
326
100
AcDbEntity
  8
DIM
 62
     0
370
    -2
100
AcDbLine
 10
7.622424
 20
7.833864
 30
0.0
 11
8.5223375
 21
7.833864
 31
0.0
  0
SOLID
  5
D04
330
326
100
AcDbEntity
  8
DIM
 62
     0
100
AcDbTrace
 10
10.207876
 20
7.878864
 30
0.0
 11
10.207876
 21
7.788864
 31
0.0
 12
10.477876
 22
7.833864
 32
0.0
 13
10.477876
 23
7.833864
 33
0.0
  0
SOLID
  5
D05
330
326
100
AcDbEntity
  8
DIM
 62
     0
100
AcDbTrace
 10
7.622424
 20
7.878864
 30
0.0
 11
7.622424
 21
7.788864
 31
0.0
 12
7.352424
 22
7.833864
 32
0.0
 13
7.352424
 23
7.833864
 33
0.0
  0
MTEXT
  5
D06
330
326
100
AcDbEntity
  8
DIM
 62
     0
100
AcDbMText
 10
8.91515
 20
7.833864
 30
0.0
 40
0.1875
 41
0.0
 71
     5
 72
     1
  1
\A1;3.125
  7
TXT
 73
     1
 44
1.0
  0
POINT
  5
D07
330
326
100
AcDbEntity
  8
DEFPOINTS
 62
     0
100
AcDbPoint
 10
10.477876
 20
7.312791
 30
0.0
  0
POINT
  5
D08
330
326
100
AcDbEntity
  8
DEFPOINTS
 62
     0
100
AcDbPoint
 10
7.352424
 20
7.312791
 30
0.0
  0
POINT
  5
D09
330
326
100
AcDbEntity
  8
DEFPOINTS
 62
     0
100
AcDbPoint
 10
7.352424
 20
7.833864
 30
0.0
  0
ENDBLK
  5
332
330
326
100
AcDbEntity
  8
0
100
AcDbBlockEnd
  0
BLOCK
  5
33F
330
334
100
AcDbEntity
  8
0
100
AcDbBlockBegin
  2
*D9
 70
     1
 10
0.0
 20
0.0
 30
0.0
  3
*D9
  1

  0
LINE
  5
D66
330
334
100
AcDbEntity
  8
DIM
 62
     0
370
    -2
100
AcDbLine
 10
10.620988
 20
5.456363999999999
 30
0.0
 11
11.039488
 21
5.456363999999999
 31
0.0
  0
LINE
  5
D67
330
334
100
AcDbEntity
  8
DIM
 62
     0
370
    -2
100
AcDbLine
 10
10.422427
 20
7.458864
 30
0.0
 11
11.039488
 21
7.458864
 31
0.0
  0
LINE
  5
D68
330
334
100
AcDbEntity
  8
DIM
 62
     0
370
    -2
100
AcDbLine
 10
10.899988
 20
5.726363999999999
 30
0.0
 11
10.899988
 21
6.228863999999999
 31
0.0
  0
LINE
  5
D69
330
334
100
AcDbEntity
  8
DIM
 62
     0
370
    -2
100
AcDbLine
 10
10.899988
 20
7.188863999999999
 30
0.0
 11
10.899988
 21
6.686363999999999
 31
0.0
  0
SOLID
  5
D6A
330
334
100
AcDbEntity
  8
DIM
 62
     0
100
AcDbTrace
 10
10.854988
 20
5.726363999999999
 30
0.0
 11
10.944988
 21
5.726363999999999
 31
0.0
 12
10.899988
 22
5.456363999999999
 32
0.0
 13
10.899988
 23
5.456363999999999
 33
0.0
  0
SOLID
  5
D6B
330
334
100
AcDbEntity
  8
DIM
 62
     0
100
AcDbTrace
 10
10.854988
 20
7.188863999999999
 30
0.0
 11
10.944988
 21
7.188863999999999
 31
0.0
 12
10.899988
 22
7.458864
 32
0.0
 13
10.899988
 23
7.458864
 33
0.0
  0
MTEXT
  5
D6C
330
334
100
AcDbEntity
  8
DIM
 62
     0
100
AcDbMText
 10
10.89998799999999
 20
6.457614000000001
 30
0.0
 40
0.1875
 41
0.0
 71
     5
 72
     1
  1
\A1;2.003
  7
TXT
 73
     1
 44
1.0
  0
POINT
  5
D6D
330
334
100
AcDbEntity
  8
DEFPOINTS
 62
     0
100
AcDbPoint
 10
10.526488
 20
5.456363999999999
 30
0.0
  0
POINT
  5
D6E
330
334
100
AcDbEntity
  8
DEFPOINTS
 62
     0
100
AcDbPoint
 10
10.327927
 20
7.458864
 30
0.0
  0
POINT
  5
D6F
330
334
100
AcDbEntity
  8
DEFPOINTS
 62
     0
100
AcDbPoint
 10
10.899988
 20
7.458864
 30
0.0
  0
ENDBLK
  5
340
330
334
100
AcDbEntity
  8
0
100
AcDbBlockEnd
  0
BLOCK
  5
350
330
342
100
AcDbEntity
  8
0
100
AcDbBlockBegin
  2
*D10
 70
     1
 10
0.0
 20
0.0
 30
0.0
  3
*D10
  1

  0
LINE
  5
CF4
330
342
100
AcDbEntity
  8
DIM
 62
     0
370
    -2
100
AcDbLine
 10
7.329852687062349
 20
6.450831618114978
 30
0.0
 11
7.386059269703088
 21
8.597304413832189
 31
0.0
  0
LINE
  5
CF5
330
342
100
AcDbEntity
  8
DIM
 62
     0
370
    -2
100
AcDbLine
 10
7.303812
 20
5.877419999999999
 30
0.0
 11
7.303812000000004
 21
8.598381074526797
 31
0.0
  0
ARC
  5
CF6
330
342
100
AcDbEntity
  8
DIM
 62
     0
370
    -2
100
AcDbCircle
 10
7.303811999999998
 20
5.456363999999999
 30
0.0
 40
3.002517074526798
100
AcDbArc
 50
78.19195132069134
 51
83.34598613867894
  0
ARC
  5
CF7
330
342
100
AcDbEntity
  8
DIM
 62
     0
370
    -2
100
AcDbCircle
 10
7.303811999999998
 20
5.456363999999999
 30
0.0
 40
3.002517074526798
100
AcDbArc
 50
95.15403481798749
 51
100.308069635975
  0
SOLID
  5
CF8
330
342
100
AcDbEntity
  8
DIM
 62
     0
100
AcDbTrace
 10
7.648525012519136
 20
8.39376990813211
 30
0.0
 11
7.654923740577705
 21
8.483542154841394
 31
0.0
 12
7.38240763642057
 22
8.457852215662455
 32
0.0
 13
7.38240763642057
 23
8.457852215662455
 33
0.0
  0
SOLID
  5
CF9
330
342
100
AcDbEntity
  8
DIM
 62
     0
100
AcDbTrace
 10
7.032061752513033
 20
8.491695750980644
 30
0.0
 11
7.036108357311081
 21
8.401786769284663
 31
0.0
 12
7.303812000000003
 22
8.458881074526797
 32
0.0
 13
7.303812000000003
 23
8.458881074526797
 33
0.0
  0
MTEXT
  5
CFA
330
342
100
AcDbEntity
  8
DIM
 62
     0
100
AcDbMText
 10
8.549047999999995
 20
8.188486999999996
 30
0.0
 40
0.1875
 41
0.0
 71
     5
 72
     1
  1
\A1;1° REF.
  7
TXT
 73
     1
 44
1.0
  0
POINT
  5
CFB
330
342
100
AcDbEntity
  8
DEFPOINTS
 62
     0
100
AcDbPoint
 10
7.330013205779557
 20
8.458766751071323
 30
0.0
  0
POINT
  5
CFC
330
342
100
AcDbEntity
  8
DEFPOINTS
 62
     0
100
AcDbPoint
 10
7.327378999999999
 20
6.356363999999999
 30
0.0
  0
POINT
  5
CFD
330
342
100
AcDbEntity
  8
DEFPOINTS
 62
     0
100
AcDbPoint
 10
7.303811999999998
 20
5.456363999999999
 30
0.0
  0
POINT
  5
CFE
330
342
100
AcDbEntity
  8
DEFPOINTS
 62
     0
100
AcDbPoint
 10
7.303811999999999
 20
5.782919999999999
 30
0.0
  0
POINT
  5
CFF
330
342
100
AcDbEntity
  8
DEFPOINTS
 62
     0
100
AcDbPoint
 10
7.303811999999998
 20
5.456363999999999
 30
0.0
  0
ENDBLK
  5
351
330
342
100
AcDbEntity
  8
0
100
AcDbBlockEnd
  0
BLOCK
  5
35E
330
353
100
AcDbEntity
  8
0
100
AcDbBlockBegin
  2
*D11
 70
     1
 10
0.0
 20
0.0
 30
0.0
  3
*D11
  1

  0
LINE
  5
D1E
330
353
100
AcDbEntity
  8
DIM
  6
Continuous
 62
     0
370
    -2
100
AcDbLine
 10
5.854209996813394
 20
6.71071960983656
 30
0.0
 11
5.851315191682699
 21
6.821255167397645
 31
0.0
  0
LINE
  5
D1F
330
353
100
AcDbEntity
  8
DIM
  6
Continuous
 62
     0
370
    -2
100
AcDbLine
 10
5.754243996813395
 20
6.70810160983656
 30
0.0
 11
5.7513491916827
 21
6.818637167397644
 31
0.0
  0
LINE
  5
D20
330
353
100
AcDbEntity
  8
DIM
  6
Continuous
 62
     0
370
    -2
100
AcDbLine
 10
6.124874748300718
 20
6.688871561981596
 30
0.0
 11
6.394782204976606
 21
6.695940142514754
 31
0.0
  0
LINE
  5
D21
330
353
100
AcDbEntity
  8
DIM
  6
Continuous
 62
     0
370
    -2
100
AcDbLine
 10
5.485093834948942
 20
6.672116400915277
 30
0.0
 11
5.215186378273055
 21
6.665047820382119
 31
0.0
  0
SOLID
  5
D22
330
353
100
AcDbEntity
  8
DIM
  6
Continuous
 62
     0
100
AcDbTrace
 10
6.123696651545191
 20
6.733856138094243
 30
0.0
 11
6.126052845056245
 21
6.643886985868948
 31
0.0
 12
5.854967291624831
 22
6.681802981448437
 32
0.0
 13
5.854967291624831
 23
6.681802981448437
 33
0.0
  0
SOLID
  5
D23
330
353
100
AcDbEntity
  8
DIM
  6
Continuous
 62
     0
100
AcDbTrace
 10
5.483915738193416
 20
6.717100977027925
 30
0.0
 11
5.486271931704469
 21
6.62713182480263
 31
0.0
 12
5.755001291624831
 22
6.679184981448436
 32
0.0
 13
5.755001291624831
 23
6.679184981448436
 33
0.0
  0
MTEXT
  5
D24
330
353
100
AcDbEntity
  8
DIM
  6
Continuous
 62
     0
100
AcDbMText
 10
4.552842628273055
 20
6.665047820382118
 30
0.0
 40
0.1875
 41
0.0
 71
     5
 72
     1
  1
\A1;0.100 TYP.
  7
TXT
 73
     1
 44
1.0
  0
POINT
  5
D25
330
353
100
AcDbEntity
  8
DEFPOINTS
  6
Continuous
 62
     0
100
AcDbPoint
 10
5.856683999999999
 20
6.616252
 30
0.0
  0
POINT
  5
D26
330
353
100
AcDbEntity
  8
DEFPOINTS
  6
Continuous
 62
     0
100
AcDbPoint
 10
5.756718
 20
6.613634
 30
0.0
  0
POINT
  5
D27
330
353
100
AcDbEntity
  8
DEFPOINTS
  6
Continuous
 62
     0
100
AcDbPoint
 10
5.755001291624831
 20
6.679184981448436
 30
0.0
  0
ENDBLK
  5
35F
330
353
100
AcDbEntity
  8
0
100
AcDbBlockEnd
  0
BLOCK
  5
36C
330
361
100
AcDbEntity
  8
0
100
AcDbBlockBegin
  2
*D12
 70
     1
 10
0.0
 20
0.0
 30
0.0
  3
*D12
  1

  0
LINE
  5
D14
330
361
100
AcDbEntity
  8
DIM
  6
Continuous
 62
     0
370
    -2
100
AcDbLine
 10
5.887056999999999
 20
5.361863999999999
 30
0.0
 11
5.887056999999999
 21
4.941863999999999
 31
0.0
  0
LINE
  5
D15
330
361
100
AcDbEntity
  8
DIM
  6
Continuous
 62
     0
370
    -2
100
AcDbLine
 10
5.839674999999999
 20
5.361863999999999
 30
0.0
 11
5.839674999999999
 21
4.941863999999999
 31
0.0
  0
LINE
  5
D16
330
361
100
AcDbEntity
  8
DIM
  6
Continuous
 62
     0
370
    -2
100
AcDbLine
 10
6.157057
 20
5.081363999999999
 30
0.0
 11
6.427056999999999
 21
5.081363999999999
 31
0.0
  0
LINE
  5
D17
330
361
100
AcDbEntity
  8
DIM
  6
Continuous
 62
     0
370
    -2
100
AcDbLine
 10
5.569675
 20
5.081363999999999
 30
0.0
 11
5.299674999999999
 21
5.081363999999999
 31
0.0
  0
SOLID
  5
D18
330
361
100
AcDbEntity
  8
DIM
  6
Continuous
 62
     0
100
AcDbTrace
 10
6.157057
 20
5.126363999999999
 30
0.0
 11
6.157057
 21
5.036363999999999
 31
0.0
 12
5.887056999999999
 22
5.081363999999999
 32
0.0
 13
5.887056999999999
 23
5.081363999999999
 33
0.0
  0
SOLID
  5
D19
330
361
100
AcDbEntity
  8
DIM
  6
Continuous
 62
     0
100
AcDbTrace
 10
5.569675
 20
5.126363999999999
 30
0.0
 11
5.569675
 21
5.036363999999999
 31
0.0
 12
5.839674999999999
 22
5.081363999999999
 32
0.0
 13
5.839674999999999
 23
5.081363999999999
 33
0.0
  0
MTEXT
  5
D1A
330
361
100
AcDbEntity
  8
DIM
  6
Continuous
 62
     0
100
AcDbMText
 10
4.602174999999999
 20
5.081363999999999
 30
0.0
 40
0.1875
 41
0.0
 71
     5
 72
     1
  1
\A1;0.047 TYP.
  7
TXT
 73
     1
 44
1.0
  0
POINT
  5
D1B
330
361
100
AcDbEntity
  8
DEFPOINTS
  6
Continuous
 62
     0
100
AcDbPoint
 10
5.887056999999999
 20
5.456363999999999
 30
0.0
  0
POINT
  5
D1C
330
361
100
AcDbEntity
  8
DEFPOINTS
  6
Continuous
 62
     0
100
AcDbPoint
 10
5.839674999999999
 20
5.456363999999999
 30
0.0
  0
POINT
  5
D1D
330
361
100
AcDbEntity
  8
DEFPOINTS
  6
Continuous
 62
     0
100
AcDbPoint
 10
5.839674999999999
 20
5.081363999999999
 30
0.0
  0
ENDBLK
  5
36D
330
361
100
AcDbEntity
  8
0
100
AcDbBlockEnd
  0
BLOCK
  5
392
330
387
100
AcDbEntity
  8
0
100
AcDbBlockBegin
  2
*D13
 70
     1
 10
0.0
 20
0.0
 30
0.0
  3
*D13
  1

  0
LINE
  5
DAE
330
387
100
AcDbEntity
  8
DIM
 62
     0
370
    -2
100
AcDbLine
 10
18.883032
 20
5.650864
 30
0.0
 11
18.883032
 21
6.098519
 31
0.0
  0
LINE
  5
DAF
330
387
100
AcDbEntity
  8
DIM
 62
     0
370
    -2
100
AcDbLine
 10
19.691032
 20
5.650864
 30
0.0
 11
19.691032
 21
6.098519
 31
0.0
  0
LINE
  5
DB0
330
387
100
AcDbEntity
  8
DIM
 62
     0
370
    -2
100
AcDbLine
 10
18.613032
 20
5.959019
 30
0.0
 11
18.343032
 21
5.959019
 31
0.0
  0
LINE
  5
DB1
330
387
100
AcDbEntity
  8
DIM
 62
     0
370
    -2
100
AcDbLine
 10
19.961032
 20
5.959019
 30
0.0
 11
20.23103199999999
 21
5.959019
 31
0.0
  0
SOLID
  5
DB2
330
387
100
AcDbEntity
  8
DIM
 62
     0
100
AcDbTrace
 10
18.613032
 20
6.004019
 30
0.0
 11
18.613032
 21
5.914019
 31
0.0
 12
18.883032
 22
5.959019
 32
0.0
 13
18.883032
 23
5.959019
 33
0.0
  0
SOLID
  5
DB3
330
387
100
AcDbEntity
  8
DIM
 62
     0
100
AcDbTrace
 10
19.961032
 20
6.004019
 30
0.0
 11
19.961032
 21
5.914019
 31
0.0
 12
19.691032
 22
5.959019
 32
0.0
 13
19.691032
 23
5.959019
 33
0.0
  0
MTEXT
  5
DB4
330
387
100
AcDbEntity
  8
DIM
 62
     0
100
AcDbMText
 10
19.287032
 20
5.959019
 30
0.0
 40
0.1875
 41
0.0
 71
     5
 72
     1
  1
\A1;0.808
  7
TXT
 73
     1
 44
1.0
  0
POINT
  5
DB5
330
387
100
AcDbEntity
  8
DEFPOINTS
 62
     0
100
AcDbPoint
 10
18.883032
 20
5.556364
 30
0.0625
  0
POINT
  5
DB6
330
387
100
AcDbEntity
  8
DEFPOINTS
 62
     0
100
AcDbPoint
 10
19.691032
 20
5.556364
 30
0.0625
  0
POINT
  5
DB7
330
387
100
AcDbEntity
  8
DEFPOINTS
 62
     0
100
AcDbPoint
 10
19.691032
 20
5.959019
 30
0.0
  0
ENDBLK
  5
393
330
387
100
AcDbEntity
  8
0
100
AcDbBlockEnd
  0
BLOCK
  5
3A0
330
395
100
AcDbEntity
  8
0
100
AcDbBlockBegin
  2
*D14
 70
     1
 10
0.0
 20
0.0
 30
0.0
  3
*D14
  1

  0
LINE
  5
DA4
330
395
100
AcDbEntity
  8
DIM
 62
     0
370
    -2
100
AcDbLine
 10
20.384032
 20
5.650864
 30
0.0
 11
20.384032
 21
6.415883999999999
 31
0.0
  0
LINE
  5
DA5
330
395
100
AcDbEntity
  8
DIM
 62
     0
370
    -2
100
AcDbLine
 10
21.192032
 20
5.650864
 30
0.0
 11
21.192032
 21
6.415883999999999
 31
0.0
  0
LINE
  5
DA6
330
395
100
AcDbEntity
  8
DIM
 62
     0
370
    -2
100
AcDbLine
 10
20.114032
 20
6.276383999999999
 30
0.0
 11
19.844032
 21
6.276383999999999
 31
0.0
  0
LINE
  5
DA7
330
395
100
AcDbEntity
  8
DIM
 62
     0
370
    -2
100
AcDbLine
 10
21.46203199999999
 20
6.276383999999999
 30
0.0
 11
21.732032
 21
6.276383999999999
 31
0.0
  0
SOLID
  5
DA8
330
395
100
AcDbEntity
  8
DIM
 62
     0
100
AcDbTrace
 10
20.114032
 20
6.321383999999999
 30
0.0
 11
20.114032
 21
6.231383999999999
 31
0.0
 12
20.384032
 22
6.276383999999999
 32
0.0
 13
20.384032
 23
6.276383999999999
 33
0.0
  0
SOLID
  5
DA9
330
395
100
AcDbEntity
  8
DIM
 62
     0
100
AcDbTrace
 10
21.46203199999999
 20
6.321383999999999
 30
0.0
 11
21.46203199999999
 21
6.231383999999999
 31
0.0
 12
21.192032
 22
6.276383999999999
 32
0.0
 13
21.192032
 23
6.276383999999999
 33
0.0
  0
MTEXT
  5
DAA
330
395
100
AcDbEntity
  8
DIM
 62
     0
100
AcDbMText
 10
20.788032
 20
6.276383999999999
 30
0.0
 40
0.1875
 41
0.0
 71
     5
 72
     1
  1
\A1;0.808
  7
TXT
 73
     1
 44
1.0
  0
POINT
  5
DAB
330
395
100
AcDbEntity
  8
DEFPOINTS
 62
     0
100
AcDbPoint
 10
20.384032
 20
5.556364
 30
0.0625
  0
POINT
  5
DAC
330
395
100
AcDbEntity
  8
DEFPOINTS
 62
     0
100
AcDbPoint
 10
21.192032
 20
5.556364
 30
0.0625
  0
POINT
  5
DAD
330
395
100
AcDbEntity
  8
DEFPOINTS
 62
     0
100
AcDbPoint
 10
21.192032
 20
6.276383999999999
 30
0.0
  0
ENDBLK
  5
3A1
330
395
100
AcDbEntity
  8
0
100
AcDbBlockEnd
  0
BLOCK
  5
3AE
330
3A3
100
AcDbEntity
  8
0
100
AcDbBlockBegin
  2
*D15
 70
     1
 10
0.0
 20
0.0
 30
0.0
  3
*D15
  1

  0
LINE
  5
E14
330
3A3
100
AcDbEntity
  8
DIM
 62
     0
370
    -2
100
AcDbLine
 10
19.691032
 20
5.650864
 30
0.0
 11
19.691032
 21
6.979883999999999
 31
0.0
  0
LINE
  5
E15
330
3A3
100
AcDbEntity
  8
DIM
 62
     0
370
    -2
100
AcDbLine
 10
20.384032
 20
5.650864
 30
0.0
 11
20.384032
 21
6.979883999999999
 31
0.0
  0
LINE
  5
E16
330
3A3
100
AcDbEntity
  8
DIM
 62
     0
370
    -2
100
AcDbLine
 10
19.421032
 20
6.840383999999999
 30
0.0
 11
19.151032
 21
6.840383999999999
 31
0.0
  0
LINE
  5
E17
330
3A3
100
AcDbEntity
  8
DIM
 62
     0
370
    -2
100
AcDbLine
 10
20.65403199999999
 20
6.840383999999999
 30
0.0
 11
20.924032
 21
6.840383999999999
 31
0.0
  0
SOLID
  5
E18
330
3A3
100
AcDbEntity
  8
DIM
 62
     0
100
AcDbTrace
 10
19.421032
 20
6.885383999999999
 30
0.0
 11
19.421032
 21
6.795383999999999
 31
0.0
 12
19.691032
 22
6.840383999999999
 32
0.0
 13
19.691032
 23
6.840383999999999
 33
0.0
  0
SOLID
  5
E19
330
3A3
100
AcDbEntity
  8
DIM
 62
     0
100
AcDbTrace
 10
20.65403199999999
 20
6.885383999999999
 30
0.0
 11
20.65403199999999
 21
6.795383999999999
 31
0.0
 12
20.384032
 22
6.840383999999999
 32
0.0
 13
20.384032
 23
6.840383999999999
 33
0.0
  0
MTEXT
  5
E1A
330
3A3
100
AcDbEntity
  8
DIM
 62
     0
100
AcDbMText
 10
21.32856325
 20
6.840383999999999
 30
0.0
 40
0.1875
 41
0.0
 71
     5
 72
     1
  1
\A1;0.693
  7
TXT
 73
     1
 44
1.0
  0
POINT
  5
E1B
330
3A3
100
AcDbEntity
  8
DEFPOINTS
 62
     0
100
AcDbPoint
 10
19.691032
 20
5.556364
 30
0.0
  0
POINT
  5
E1C
330
3A3
100
AcDbEntity
  8
DEFPOINTS
 62
     0
100
AcDbPoint
 10
20.384032
 20
5.556364
 30
0.0
  0
POINT
  5
E1D
330
3A3
100
AcDbEntity
  8
DEFPOINTS
 62
     0
100
AcDbPoint
 10
20.384032
 20
6.840383999999999
 30
0.0
  0
ENDBLK
  5
3AF
330
3A3
100
AcDbEntity
  8
0
100
AcDbBlockEnd
  0
BLOCK
  5
3BC
330
3B1
100
AcDbEntity
  8
0
100
AcDbBlockBegin
  2
*D16
 70
     1
 10
0.0
 20
0.0
 30
0.0
  3
*D16
  1

  0
LINE
  5
D99
330
3B1
100
AcDbEntity
  8
DIM
 62
     0
370
    -2
100
AcDbLine
 10
21.286532
 20
5.480363999999999
 30
0.0
 11
22.152757
 21
5.480363999999998
 31
0.0
  0
LINE
  5
D9A
330
3B1
100
AcDbEntity
  8
DIM
 62
     0
370
    -2
100
AcDbLine
 10
21.69137
 20
5.556364
 30
0.0
 11
22.152757
 21
5.556363999999999
 31
0.0
  0
LINE
  5
D9B
330
3B1
100
AcDbEntity
  8
DIM
 62
     0
370
    -2
100
AcDbLine
 10
22.01325699999999
 20
5.210363999999998
 30
0.0
 11
22.01325699999999
 21
4.940363999999998
 31
0.0
  0
LINE
  5
D9C
330
3B1
100
AcDbEntity
  8
DIM
 62
     0
370
    -2
100
AcDbLine
 10
22.01325699999999
 20
5.826363999999999
 30
0.0
 11
22.01325699999999
 21
6.096363999999999
 31
0.0
  0
LINE
  5
D9D
330
3B1
100
AcDbEntity
  8
DIM
 62
     0
370
    -2
100
AcDbLine
 10
22.01325699999999
 20
6.096363999999999
 30
0.0
 11
22.283257
 21
6.096363999999999
 31
0.0
  0
SOLID
  5
D9E
330
3B1
100
AcDbEntity
  8
DIM
 62
     0
100
AcDbTrace
 10
21.96825699999999
 20
5.210363999999999
 30
0.0
 11
22.058257
 21
5.210363999999998
 31
0.0
 12
22.01325699999999
 22
5.480363999999998
 32
0.0
 13
22.01325699999999
 23
5.480363999999998
 33
0.0
  0
SOLID
  5
D9F
330
3B1
100
AcDbEntity
  8
DIM
 62
     0
100
AcDbTrace
 10
21.96825699999999
 20
5.826364
 30
0.0
 11
22.058257
 21
5.826363999999999
 31
0.0
 12
22.01325699999999
 22
5.556363999999999
 32
0.0
 13
22.01325699999999
 23
5.556363999999999
 33
0.0
  0
MTEXT
  5
DA0
330
3B1
100
AcDbEntity
  8
DIM
 62
     0
100
AcDbMText
 10
22.6760695
 20
6.096364000000003
 30
0.0
 40
0.1875
 41
0.0
 71
     5
 72
     1
  1
\A1;0.076
  7
TXT
 73
     1
 44
1.0
  0
POINT
  5
DA1
330
3B1
100
AcDbEntity
  8
DEFPOINTS
 62
     0
100
AcDbPoint
 10
21.192032
 20
5.480363999999999
 30
0.0625
  0
POINT
  5
DA2
330
3B1
100
AcDbEntity
  8
DEFPOINTS
 62
     0
100
AcDbPoint
 10
21.59687
 20
5.556364
 30
0.0
  0
POINT
  5
DA3
330
3B1
100
AcDbEntity
  8
DEFPOINTS
 62
     0
100
AcDbPoint
 10
22.01325699999999
 20
5.556363999999999
 30
0.0
  0
ENDBLK
  5
3BD
330
3B1
100
AcDbEntity
  8
0
100
AcDbBlockEnd
  0
BLOCK
  5
3CA
330
3BF
100
AcDbEntity
  8
0
100
AcDbBlockBegin
  2
*D17
 70
     1
 10
0.0
 20
0.0
 30
0.0
  3
*D17
  1

  0
LINE
  5
D8E
330
3BF
100
AcDbEntity
  8
DIM
 62
     0
370
    -2
100
AcDbLine
 10
20.87553199999999
 20
5.108863999999999
 30
0.0
 11
20.602048
 21
5.108863999999999
 31
0.0
  0
LINE
  5
D8F
330
3BF
100
AcDbEntity
  8
DIM
 62
     0
370
    -2
100
AcDbLine
 10
20.87553199999999
 20
4.858863999999999
 30
0.0
 11
20.602048
 21
4.858863999999999
 31
0.0
  0
LINE
  5
D90
330
3BF
100
AcDbEntity
  8
DIM
 62
     0
370
    -2
100
AcDbLine
 10
20.741548
 20
5.378863999999999
 30
0.0
 11
20.741548
 21
5.648863999999999
 31
0.0
  0
LINE
  5
D91
330
3BF
100
AcDbEntity
  8
DIM
 62
     0
370
    -2
100
AcDbLine
 10
20.741548
 20
4.588864
 30
0.0
 11
20.741548
 21
4.318863999999999
 31
0.0
  0
LINE
  5
D92
330
3BF
100
AcDbEntity
  8
DIM
 62
     0
370
    -2
100
AcDbLine
 10
20.741548
 20
4.318863999999999
 30
0.0
 11
20.471548
 21
4.318863999999999
 31
0.0
  0
SOLID
  5
D93
330
3BF
100
AcDbEntity
  8
DIM
 62
     0
100
AcDbTrace
 10
20.69654799999999
 20
5.378863999999999
 30
0.0
 11
20.786548
 21
5.378863999999999
 31
0.0
 12
20.741548
 22
5.108863999999999
 32
0.0
 13
20.741548
 23
5.108863999999999
 33
0.0
  0
SOLID
  5
D94
330
3BF
100
AcDbEntity
  8
DIM
 62
     0
100
AcDbTrace
 10
20.69654799999999
 20
4.588864
 30
0.0
 11
20.786548
 21
4.588864
 31
0.0
 12
20.741548
 22
4.858863999999999
 32
0.0
 13
20.741548
 23
4.858863999999999
 33
0.0
  0
MTEXT
  5
D95
330
3BF
100
AcDbEntity
  8
DIM
 62
     0
100
AcDbMText
 10
20.0787355
 20
4.318864000000003
 30
0.0
 40
0.1875
 41
0.0
 71
     5
 72
     1
  1
\A1;0.250
  7
TXT
 73
     1
 44
1.0
  0
POINT
  5
D96
330
3BF
100
AcDbEntity
  8
DEFPOINTS
 62
     0
100
AcDbPoint
 10
20.970032
 20
5.108863999999999
 30
0.0625
  0
POINT
  5
D97
330
3BF
100
AcDbEntity
  8
DEFPOINTS
 62
     0
100
AcDbPoint
 10
20.970032
 20
4.858863999999999
 30
0.0
  0
POINT
  5
D98
330
3BF
100
AcDbEntity
  8
DEFPOINTS
 62
     0
100
AcDbPoint
 10
20.741548
 20
4.858863999999999
 30
0.0
  0
ENDBLK
  5
3CB
330
3BF
100
AcDbEntity
  8
0
100
AcDbBlockEnd
  0
BLOCK
  5
3D8
330
3CD
100
AcDbEntity
  8
0
100
AcDbBlockBegin
  2
*D18
 70
     1
 10
0.0
 20
0.0
 30
0.0
  3
*D18
  1

  0
LINE
  5
E28
330
3CD
100
AcDbEntity
  8
DIM
 62
     0
370
    -2
100
AcDbLine
 10
13.162934
 20
11.065888
 30
0.0
 11
13.707595
 21
11.065888
 31
0.0
  0
LINE
  5
E29
330
3CD
100
AcDbEntity
  8
DIM
 62
     0
370
    -2
100
AcDbLine
 10
13.162934
 20
9.020888000000001
 30
0.0
 11
13.707595
 21
9.020888000000001
 31
0.0
  0
LINE
  5
E2A
330
3CD
100
AcDbEntity
  8
DIM
 62
     0
370
    -2
100
AcDbLine
 10
13.568095
 20
10.795888
 30
0.0
 11
13.568095
 21
10.27213799999999
 31
0.0
  0
LINE
  5
E2B
330
3CD
100
AcDbEntity
  8
DIM
 62
     0
370
    -2
100
AcDbLine
 10
13.568095
 20
9.290888
 30
0.0
 11
13.568095
 21
9.814638
 31
0.0
  0
SOLID
  5
E2C
330
3CD
100
AcDbEntity
  8
DIM
 62
     0
100
AcDbTrace
 10
13.523095
 20
10.795888
 30
0.0
 11
13.613095
 21
10.795888
 31
0.0
 12
13.568095
 22
11.065888
 32
0.0
 13
13.568095
 23
11.065888
 33
0.0
  0
SOLID
  5
E2D
330
3CD
100
AcDbEntity
  8
DIM
 62
     0
100
AcDbTrace
 10
13.523095
 20
9.290888
 30
0.0
 11
13.613095
 21
9.290888
 31
0.0
 12
13.568095
 22
9.020888000000001
 32
0.0
 13
13.568095
 23
9.020888000000001
 33
0.0
  0
MTEXT
  5
E2E
330
3CD
100
AcDbEntity
  8
DIM
 62
     0
100
AcDbMText
 10
13.568095
 20
10.043388
 30
0.0
 40
0.1875
 41
0.0
 71
     5
 72
     1
  1
\A1;2.045
  7
TXT
 73
     1
 44
1.0
  0
POINT
  5
E2F
330
3CD
100
AcDbEntity
  8
DEFPOINTS
 62
     0
100
AcDbPoint
 10
13.06843399999999
 20
11.065888
 30
0.0
  0
POINT
  5
E30
330
3CD
100
AcDbEntity
  8
DEFPOINTS
 62
     0
100
AcDbPoint
 10
13.06843399999999
 20
9.020888000000001
 30
0.0
  0
POINT
  5
E31
330
3CD
100
AcDbEntity
  8
DEFPOINTS
 62
     0
100
AcDbPoint
 10
13.568095
 20
9.020888000000001
 30
0.0
  0
ENDBLK
  5
3D9
330
3CD
100
AcDbEntity
  8
0
100
AcDbBlockEnd
  0
BLOCK
  5
3E6
330
3DB
100
AcDbEntity
  8
0
100
AcDbBlockBegin
  2
*D19
 70
     1
 10
0.0
 20
0.0
 30
0.0
  3
*D19
  1

  0
LINE
  5
D84
330
3DB
100
AcDbEntity
  8
DIM
 62
     0
370
    -2
100
AcDbLine
 10
10.874147
 20
11.697774
 30
0.0
 11
10.874147
 21
12.116274
 31
0.0
  0
LINE
  5
D85
330
3DB
100
AcDbEntity
  8
DIM
 62
     0
370
    -2
100
AcDbLine
 10
10.818147
 20
10.541888
 30
0.0
 11
10.818147
 21
12.116274
 31
0.0
  0
LINE
  5
D86
330
3DB
100
AcDbEntity
  8
DIM
 62
     0
370
    -2
100
AcDbLine
 10
11.14414699999999
 20
11.976774
 30
0.0
 11
11.414147
 21
11.976774
 31
0.0
  0
LINE
  5
D87
330
3DB
100
AcDbEntity
  8
DIM
 62
     0
370
    -2
100
AcDbLine
 10
10.548147
 20
11.976774
 30
0.0
 11
10.27814699999999
 21
11.976774
 31
0.0
  0
SOLID
  5
D88
330
3DB
100
AcDbEntity
  8
DIM
 62
     0
100
AcDbTrace
 10
11.14414699999999
 20
12.021774
 30
0.0
 11
11.14414699999999
 21
11.931774
 31
0.0
 12
10.874147
 22
11.976774
 32
0.0
 13
10.874147
 23
11.976774
 33
0.0
  0
SOLID
  5
D89
330
3DB
100
AcDbEntity
  8
DIM
 62
     0
100
AcDbTrace
 10
10.548147
 20
12.021774
 30
0.0
 11
10.548147
 21
11.931774
 31
0.0
 12
10.818147
 22
11.976774
 32
0.0
 13
10.818147
 23
11.976774
 33
0.0
  0
MTEXT
  5
D8A
330
3DB
100
AcDbEntity
  8
DIM
 62
     0
100
AcDbMText
 10
9.885334499999999
 20
11.976774
 30
0.0
 40
0.1875
 41
0.0
 71
     5
 72
     1
  1
\A1;0.056
  7
TXT
 73
     1
 44
1.0
  0
POINT
  5
D8B
330
3DB
100
AcDbEntity
  8
DEFPOINTS
 62
     0
100
AcDbPoint
 10
10.874147
 20
11.603274
 30
0.0
  0
POINT
  5
D8C
330
3DB
100
AcDbEntity
  8
DEFPOINTS
 62
     0
100
AcDbPoint
 10
10.818147
 20
10.44738799999999
 30
0.0
  0
POINT
  5
D8D
330
3DB
100
AcDbEntity
  8
DEFPOINTS
 62
     0
100
AcDbPoint
 10
10.818147
 20
11.976774
 30
0.0
  0
ENDBLK
  5
3E7
330
3DB
100
AcDbEntity
  8
0
100
AcDbBlockEnd
  0
BLOCK
  5
3F4
330
3E9
100
AcDbEntity
  8
0
100
AcDbBlockBegin
  2
*D20
 70
     1
 10
0.0
 20
0.0
 30
0.0
  3
*D20
  1

  0
LINE
  5
DCD
330
3E9
100
AcDbEntity
  8
DIM
 62
     0
370
    -2
100
AcDbLine
 10
18.41238099999999
 20
4.818291
 30
0.0
 11
18.41238099999999
 21
3.800364
 31
0.0
  0
LINE
  5
DCE
330
3E9
100
AcDbEntity
  8
DIM
 62
     0
370
    -2
100
AcDbLine
 10
21.66258099999999
 20
4.818291
 30
0.0
 11
21.66258099999999
 21
3.800364
 31
0.0
  0
LINE
  5
DCF
330
3E9
100
AcDbEntity
  8
DIM
 62
     0
370
    -2
100
AcDbLine
 10
18.682381
 20
3.939864
 30
0.0
 11
19.63294974999999
 21
3.939864
 31
0.0
  0
LINE
  5
DD0
330
3E9
100
AcDbEntity
  8
DIM
 62
     0
370
    -2
100
AcDbLine
 10
21.392581
 20
3.939864
 30
0.0
 11
20.44201225
 21
3.939864
 31
0.0
  0
SOLID
  5
DD1
330
3E9
100
AcDbEntity
  8
DIM
 62
     0
100
AcDbTrace
 10
18.682381
 20
3.984863999999999
 30
0.0
 11
18.682381
 21
3.894864
 31
0.0
 12
18.41238099999999
 22
3.939864
 32
0.0
 13
18.41238099999999
 23
3.939864
 33
0.0
  0
SOLID
  5
DD2
330
3E9
100
AcDbEntity
  8
DIM
 62
     0
100
AcDbTrace
 10
21.392581
 20
3.984863999999999
 30
0.0
 11
21.392581
 21
3.894864
 31
0.0
 12
21.66258099999999
 22
3.939864
 32
0.0
 13
21.66258099999999
 23
3.939864
 33
0.0
  0
MTEXT
  5
DD3
330
3E9
100
AcDbEntity
  8
DIM
 62
     0
100
AcDbMText
 10
20.037481
 20
3.939864
 30
0.0
 40
0.1875
 41
0.0
 71
     5
 72
     1
  1
\A1;3.250
  7
TXT
 73
     1
 44
1.0
  0
POINT
  5
DD4
330
3E9
100
AcDbEntity
  8
DEFPOINTS
 62
     0
100
AcDbPoint
 10
18.41238099999999
 20
4.912791
 30
0.0
  0
POINT
  5
DD5
330
3E9
100
AcDbEntity
  8
DEFPOINTS
 62
     0
100
AcDbPoint
 10
21.66258099999999
 20
4.912791
 30
0.0
  0
POINT
  5
DD6
330
3E9
100
AcDbEntity
  8
DEFPOINTS
 62
     0
100
AcDbPoint
 10
21.66258099999999
 20
3.939864
 30
0.0
  0
ENDBLK
  5
3F5
330
3E9
100
AcDbEntity
  8
0
100
AcDbBlockEnd
  0
BLOCK
  5
402
330
3F7
100
AcDbEntity
  8
0
100
AcDbBlockBegin
  2
*D21
 70
     1
 10
0.0
 20
0.0
 30
0.0
  3
*D21
  1

  0
LINE
  5
CEA
330
3F7
100
AcDbEntity
  8
DIM
 62
     0
370
    -2
100
AcDbLine
 10
10.968647
 20
9.639388
 30
0.0
 11
11.422673
 21
9.639388
 31
0.0
  0
LINE
  5
CEB
330
3F7
100
AcDbEntity
  8
DIM
 62
     0
370
    -2
100
AcDbLine
 10
10.968647
 20
10.44738799999999
 30
0.0
 11
11.422673
 21
10.44738799999999
 31
0.0
  0
LINE
  5
CEC
330
3F7
100
AcDbEntity
  8
DIM
 62
     0
370
    -2
100
AcDbLine
 10
11.28317299999999
 20
9.369388
 30
0.0
 11
11.28317299999999
 21
9.099387999999999
 31
0.0
  0
LINE
  5
CED
330
3F7
100
AcDbEntity
  8
DIM
 62
     0
370
    -2
100
AcDbLine
 10
11.28317299999999
 20
10.717388
 30
0.0
 11
11.28317299999999
 21
10.987388
 31
0.0
  0
SOLID
  5
CEE
330
3F7
100
AcDbEntity
  8
DIM
 62
     0
100
AcDbTrace
 10
11.238173
 20
9.369388
 30
0.0
 11
11.32817299999999
 21
9.369388
 31
0.0
 12
11.28317299999999
 22
9.639388
 32
0.0
 13
11.28317299999999
 23
9.639388
 33
0.0
  0
SOLID
  5
CEF
330
3F7
100
AcDbEntity
  8
DIM
 62
     0
100
AcDbTrace
 10
11.238173
 20
10.717388
 30
0.0
 11
11.32817299999999
 21
10.717388
 31
0.0
 12
11.28317299999999
 22
10.44738799999999
 32
0.0
 13
11.28317299999999
 23
10.44738799999999
 33
0.0
  0
MTEXT
  5
CF0
330
3F7
100
AcDbEntity
  8
DIM
 62
     0
100
AcDbMText
 10
11.28317299999999
 20
10.043388
 30
0.0
 40
0.1875
 41
0.0
 71
     5
 72
     1
  1
\A1;0.808
  7
TXT
 73
     1
 44
1.0
  0
POINT
  5
CF1
330
3F7
100
AcDbEntity
  8
DEFPOINTS
 62
     0
100
AcDbPoint
 10
10.874147
 20
9.639388
 30
0.0625
  0
POINT
  5
CF2
330
3F7
100
AcDbEntity
  8
DEFPOINTS
 62
     0
100
AcDbPoint
 10
10.874147
 20
10.44738799999999
 30
0.0
  0
POINT
  5
CF3
330
3F7
100
AcDbEntity
  8
DEFPOINTS
 62
     0
100
AcDbPoint
 10
11.28317299999999
 20
10.44738799999999
 30
0.0
  0
ENDBLK
  5
403
330
3F7
100
AcDbEntity
  8
0
100
AcDbBlockEnd
  0
BLOCK
  5
410
330
405
100
AcDbEntity
  8
0
100
AcDbBlockBegin
  2
*D22
 70
     1
 10
0.0
 20
0.0
 30
0.0
  3
*D22
  1

  0
LINE
  5
CE0
330
405
100
AcDbEntity
  8
DIM
 62
     0
370
    -2
100
AcDbLine
 10
10.968647
 20
11.60272599999999
 30
0.0
 11
11.84417299999999
 21
11.60272599999999
 31
0.0
  0
LINE
  5
CE1
330
405
100
AcDbEntity
  8
DIM
 62
     0
370
    -2
100
AcDbLine
 10
10.968647
 20
10.44738799999999
 30
0.0
 11
11.84417299999999
 21
10.44738799999999
 31
0.0
  0
LINE
  5
CE2
330
405
100
AcDbEntity
  8
DIM
 62
     0
370
    -2
100
AcDbLine
 10
11.704673
 20
11.87272599999999
 30
0.0
 11
11.704673
 21
12.14272599999999
 31
0.0
  0
LINE
  5
CE3
330
405
100
AcDbEntity
  8
DIM
 62
     0
370
    -2
100
AcDbLine
 10
11.704673
 20
10.177388
 30
0.0
 11
11.704673
 21
9.907387999999999
 31
0.0
  0
SOLID
  5
CE4
330
405
100
AcDbEntity
  8
DIM
 62
     0
100
AcDbTrace
 10
11.65967299999999
 20
11.87272599999999
 30
0.0
 11
11.749673
 21
11.87272599999999
 31
0.0
 12
11.704673
 22
11.60272599999999
 32
0.0
 13
11.704673
 23
11.60272599999999
 33
0.0
  0
SOLID
  5
CE5
330
405
100
AcDbEntity
  8
DIM
 62
     0
100
AcDbTrace
 10
11.65967299999999
 20
10.177388
 30
0.0
 11
11.749673
 21
10.177388
 31
0.0
 12
11.704673
 22
10.44738799999999
 32
0.0
 13
11.704673
 23
10.44738799999999
 33
0.0
  0
MTEXT
  5
CE6
330
405
100
AcDbEntity
  8
DIM
 62
     0
100
AcDbMText
 10
11.70467299999999
 20
11.025057
 30
0.0
 40
0.1875
 41
0.0
 71
     5
 72
     1
  1
\A1;1.155
  7
TXT
 73
     1
 44
1.0
  0
POINT
  5
CE7
330
405
100
AcDbEntity
  8
DEFPOINTS
 62
     0
100
AcDbPoint
 10
10.874147
 20
11.60272599999999
 30
0.0
  0
POINT
  5
CE8
330
405
100
AcDbEntity
  8
DEFPOINTS
 62
     0
100
AcDbPoint
 10
10.874147
 20
10.44738799999999
 30
0.0
  0
POINT
  5
CE9
330
405
100
AcDbEntity
  8
DEFPOINTS
 62
     0
100
AcDbPoint
 10
11.704673
 20
10.44738799999999
 30
0.0
  0
ENDBLK
  5
411
330
405
100
AcDbEntity
  8
0
100
AcDbBlockEnd
  0
BLOCK
  5
41E
330
413
100
AcDbEntity
  8
0
100
AcDbBlockBegin
  2
*D23
 70
     1
 10
0.0
 20
0.0
 30
0.0
  3
*D23
  1

  0
LINE
  5
E1E
330
413
100
AcDbEntity
  8
DIM
 62
     0
370
    -2
100
AcDbLine
 10
13.06843399999999
 20
10.971388
 30
0.0
 11
13.06843399999999
 21
10.46515899999999
 31
0.0
  0
LINE
  5
E1F
330
413
100
AcDbEntity
  8
DIM
 62
     0
370
    -2
100
AcDbLine
 10
16.36343399999999
 20
10.971388
 30
0.0
 11
16.36343399999999
 21
10.46515899999999
 31
0.0
  0
LINE
  5
E20
330
413
100
AcDbEntity
  8
DIM
 62
     0
370
    -2
100
AcDbLine
 10
13.338434
 20
10.604659
 30
0.0
 11
14.29968399999999
 21
10.604659
 31
0.0
  0
LINE
  5
E21
330
413
100
AcDbEntity
  8
DIM
 62
     0
370
    -2
100
AcDbLine
 10
16.093434
 20
10.604659
 30
0.0
 11
15.13218399999999
 21
10.604659
 31
0.0
  0
SOLID
  5
E22
330
413
100
AcDbEntity
  8
DIM
 62
     0
100
AcDbTrace
 10
13.338434
 20
10.649659
 30
0.0
 11
13.338434
 21
10.559659
 31
0.0
 12
13.06843399999999
 22
10.604659
 32
0.0
 13
13.06843399999999
 23
10.604659
 33
0.0
  0
SOLID
  5
E23
330
413
100
AcDbEntity
  8
DIM
 62
     0
100
AcDbTrace
 10
16.093434
 20
10.649659
 30
0.0
 11
16.093434
 21
10.559659
 31
0.0
 12
16.36343399999999
 22
10.604659
 32
0.0
 13
16.36343399999999
 23
10.604659
 33
0.0
  0
MTEXT
  5
E24
330
413
100
AcDbEntity
  8
DIM
 62
     0
100
AcDbMText
 10
14.71593399999999
 20
10.604659
 30
0.0
 40
0.1875
 41
0.0
 71
     5
 72
     1
  1
\A1;3.295
  7
TXT
 73
     1
 44
1.0
  0
POINT
  5
E25
330
413
100
AcDbEntity
  8
DEFPOINTS
 62
     0
100
AcDbPoint
 10
13.06843399999999
 20
11.065888
 30
0.0
  0
POINT
  5
E26
330
413
100
AcDbEntity
  8
DEFPOINTS
 62
     0
100
AcDbPoint
 10
16.36343399999999
 20
11.065888
 30
0.0
  0
POINT
  5
E27
330
413
100
AcDbEntity
  8
DEFPOINTS
 62
     0
100
AcDbPoint
 10
16.36343399999999
 20
10.604659
 30
0.0
  0
ENDBLK
  5
41F
330
413
100
AcDbEntity
  8
0
100
AcDbBlockEnd
  0
BLOCK
  5
4AF
330
4A4
100
AcDbEntity
  8
0
100
AcDbBlockBegin
  2
*D24
 70
     1
 10
0.0
 20
0.0
 30
0.0
  3
*D24
  1

  0
LINE
  5
CD6
330
4A4
100
AcDbEntity
  8
DIM
 62
     0
370
    -2
100
AcDbLine
 10
10.968647
 20
9.639388
 30
0.0
 11
12.126173
 21
9.639387999999998
 31
0.0
  0
LINE
  5
CD7
330
4A4
100
AcDbEntity
  8
DIM
 62
     0
370
    -2
100
AcDbLine
 10
10.968647
 20
8.484049999999999
 30
0.0
 11
12.126173
 21
8.484049999999998
 31
0.0
  0
LINE
  5
CD8
330
4A4
100
AcDbEntity
  8
DIM
 62
     0
370
    -2
100
AcDbLine
 10
11.986673
 20
9.909387999999999
 30
0.0
 11
11.986673
 21
10.179388
 31
0.0
  0
LINE
  5
CD9
330
4A4
100
AcDbEntity
  8
DIM
 62
     0
370
    -2
100
AcDbLine
 10
11.986673
 20
8.21405
 30
0.0
 11
11.986673
 21
7.944049999999998
 31
0.0
  0
SOLID
  5
CDA
330
4A4
100
AcDbEntity
  8
DIM
 62
     0
100
AcDbTrace
 10
11.94167299999999
 20
9.909387999999999
 30
0.0
 11
12.031673
 21
9.909387999999998
 31
0.0
 12
11.986673
 22
9.639388
 32
0.0
 13
11.986673
 23
9.639388
 33
0.0
  0
SOLID
  5
CDB
330
4A4
100
AcDbEntity
  8
DIM
 62
     0
100
AcDbTrace
 10
11.94167299999999
 20
8.21405
 30
0.0
 11
12.031673
 21
8.214049999999998
 31
0.0
 12
11.986673
 22
8.484049999999999
 32
0.0
 13
11.986673
 23
8.484049999999999
 33
0.0
  0
MTEXT
  5
CDC
330
4A4
100
AcDbEntity
  8
DIM
 62
     0
100
AcDbMText
 10
11.98667299999999
 20
9.061719000000001
 30
0.0
 40
0.1875
 41
0.0
 71
     5
 72
     1
  1
\A1;1.155
  7
TXT
 73
     1
 44
1.0
  0
POINT
  5
CDD
330
4A4
100
AcDbEntity
  8
DEFPOINTS
 62
     0
100
AcDbPoint
 10
10.874147
 20
9.639388
 30
0.0
  0
POINT
  5
CDE
330
4A4
100
AcDbEntity
  8
DEFPOINTS
 62
     0
100
AcDbPoint
 10
10.874147
 20
8.484049999999999
 30
0.0
  0
POINT
  5
CDF
330
4A4
100
AcDbEntity
  8
DEFPOINTS
 62
     0
100
AcDbPoint
 10
11.986673
 20
8.484049999999999
 30
0.0
  0
ENDBLK
  5
4B0
330
4A4
100
AcDbEntity
  8
0
100
AcDbBlockEnd
  0
BLOCK
  5
4BD
330
4B2
100
AcDbEntity
  8
0
100
AcDbBlockBegin
  2
*D25
 70
     1
 10
0.0
 20
0.0
 30
0.0
  3
*D25
  1

  0
LINE
  5
E0A
330
4B2
100
AcDbEntity
  8
DIM
 62
     0
370
    -2
100
AcDbLine
 10
21.192032
 20
5.650864
 30
0.0
 11
21.192032
 21
6.697883999999999
 31
0.0
  0
LINE
  5
E0B
330
4B2
100
AcDbEntity
  8
DIM
 62
     0
370
    -2
100
AcDbLine
 10
21.59687
 20
5.650864
 30
0.0
 11
21.59687
 21
6.697883999999999
 31
0.0
  0
LINE
  5
E0C
330
4B2
100
AcDbEntity
  8
DIM
 62
     0
370
    -2
100
AcDbLine
 10
20.922032
 20
6.558383999999999
 30
0.0
 11
20.652032
 21
6.558383999999999
 31
0.0
  0
LINE
  5
E0D
330
4B2
100
AcDbEntity
  8
DIM
 62
     0
370
    -2
100
AcDbLine
 10
21.86687
 20
6.558383999999999
 30
0.0
 11
22.13687
 21
6.558383999999999
 31
0.0
  0
SOLID
  5
E0E
330
4B2
100
AcDbEntity
  8
DIM
 62
     0
100
AcDbTrace
 10
20.922032
 20
6.603383999999999
 30
0.0
 11
20.922032
 21
6.513383999999999
 31
0.0
 12
21.192032
 22
6.558383999999999
 32
0.0
 13
21.192032
 23
6.558383999999999
 33
0.0
  0
SOLID
  5
E0F
330
4B2
100
AcDbEntity
  8
DIM
 62
     0
100
AcDbTrace
 10
21.86687
 20
6.603383999999999
 30
0.0
 11
21.86687
 21
6.513383999999999
 31
0.0
 12
21.59687
 22
6.558383999999999
 32
0.0
 13
21.59687
 23
6.558383999999999
 33
0.0
  0
MTEXT
  5
E10
330
4B2
100
AcDbEntity
  8
DIM
 62
     0
100
AcDbMText
 10
22.5296825
 20
6.558383999999999
 30
0.0
 40
0.1875
 41
0.0
 71
     5
 72
     1
  1
\A1;0.405
  7
TXT
 73
     1
 44
1.0
  0
POINT
  5
E11
330
4B2
100
AcDbEntity
  8
DEFPOINTS
 62
     0
100
AcDbPoint
 10
21.192032
 20
5.556364
 30
0.0
  0
POINT
  5
E12
330
4B2
100
AcDbEntity
  8
DEFPOINTS
 62
     0
100
AcDbPoint
 10
21.59687
 20
5.556364
 30
0.0
  0
POINT
  5
E13
330
4B2
100
AcDbEntity
  8
DEFPOINTS
 62
     0
100
AcDbPoint
 10
21.59687
 20
6.558383999999999
 30
0.0
  0
ENDBLK
  5
4BE
330
4B2
100
AcDbEntity
  8
0
100
AcDbBlockEnd
  0
BLOCK
  5
4CB
330
4C0
100
AcDbEntity
  8
0
100
AcDbBlockBegin
  2
*D26
 70
     1
 10
0.0
 20
0.0
 30
0.0
  3
*D26
  1

  0
LINE
  5
DC3
330
4C0
100
AcDbEntity
  8
DIM
 62
     0
370
    -2
100
AcDbLine
 10
18.883032
 20
5.650864
 30
0.0
 11
18.883032
 21
6.697883999999999
 31
0.0
  0
LINE
  5
DC4
330
4C0
100
AcDbEntity
  8
DIM
 62
     0
370
    -2
100
AcDbLine
 10
18.478194
 20
5.650864
 30
0.0
 11
18.478194
 21
6.697883999999999
 31
0.0
  0
LINE
  5
DC5
330
4C0
100
AcDbEntity
  8
DIM
 62
     0
370
    -2
100
AcDbLine
 10
19.153032
 20
6.558383999999999
 30
0.0
 11
19.42303199999999
 21
6.558383999999999
 31
0.0
  0
LINE
  5
DC6
330
4C0
100
AcDbEntity
  8
DIM
 62
     0
370
    -2
100
AcDbLine
 10
18.208194
 20
6.558383999999999
 30
0.0
 11
17.938194
 21
6.558383999999999
 31
0.0
  0
SOLID
  5
DC7
330
4C0
100
AcDbEntity
  8
DIM
 62
     0
100
AcDbTrace
 10
19.153032
 20
6.603383999999999
 30
0.0
 11
19.153032
 21
6.513383999999999
 31
0.0
 12
18.883032
 22
6.558383999999999
 32
0.0
 13
18.883032
 23
6.558383999999999
 33
0.0
  0
SOLID
  5
DC8
330
4C0
100
AcDbEntity
  8
DIM
 62
     0
100
AcDbTrace
 10
18.208194
 20
6.603383999999999
 30
0.0
 11
18.208194
 21
6.513383999999999
 31
0.0
 12
18.478194
 22
6.558383999999999
 32
0.0
 13
18.478194
 23
6.558383999999999
 33
0.0
  0
MTEXT
  5
DC9
330
4C0
100
AcDbEntity
  8
DIM
 62
     0
100
AcDbMText
 10
17.5453815
 20
6.558383999999999
 30
0.0
 40
0.1875
 41
0.0
 71
     5
 72
     1
  1
\A1;0.405
  7
TXT
 73
     1
 44
1.0
  0
POINT
  5
DCA
330
4C0
100
AcDbEntity
  8
DEFPOINTS
 62
     0
100
AcDbPoint
 10
18.883032
 20
5.556364
 30
0.0
  0
POINT
  5
DCB
330
4C0
100
AcDbEntity
  8
DEFPOINTS
 62
     0
100
AcDbPoint
 10
18.478194
 20
5.556364
 30
0.0
  0
POINT
  5
DCC
330
4C0
100
AcDbEntity
  8
DEFPOINTS
 62
     0
100
AcDbPoint
 10
18.478194
 20
6.558383999999999
 30
0.0
  0
ENDBLK
  5
4CC
330
4C0
100
AcDbEntity
  8
0
100
AcDbBlockEnd
  0
BLOCK
  5
4D9
330
4CE
100
AcDbEntity
  8
0
100
AcDbBlockBegin
  2
*D27
 70
     1
 10
0.0
 20
0.0
 30
0.0
  3
*D27
  1

  0
LINE
  5
DF5
330
4CE
100
AcDbEntity
  8
DIM
 62
     0
370
    -2
100
AcDbLine
 10
12.466173
 20
4.814364
 30
0.0
 11
12.466173
 21
4.281076999999999
 31
0.0
  0
LINE
  5
DF6
330
4CE
100
AcDbEntity
  8
DIM
 62
     0
370
    -2
100
AcDbLine
 10
16.96569599999999
 20
4.814364
 30
0.0
 11
16.96569599999999
 21
4.281076999999999
 31
0.0
  0
LINE
  5
DF7
330
4CE
100
AcDbEntity
  8
DIM
 62
     0
370
    -2
100
AcDbLine
 10
12.73617299999999
 20
4.420576999999999
 30
0.0
 11
14.323122
 21
4.420576999999999
 31
0.0
  0
LINE
  5
DF8
330
4CE
100
AcDbEntity
  8
DIM
 62
     0
370
    -2
100
AcDbLine
 10
16.69569599999999
 20
4.420576999999999
 30
0.0
 11
15.108747
 21
4.420576999999999
 31
0.0
  0
SOLID
  5
DF9
330
4CE
100
AcDbEntity
  8
DIM
 62
     0
100
AcDbTrace
 10
12.73617299999999
 20
4.465576999999999
 30
0.0
 11
12.73617299999999
 21
4.375576999999999
 31
0.0
 12
12.466173
 22
4.420576999999999
 32
0.0
 13
12.466173
 23
4.420576999999999
 33
0.0
  0
SOLID
  5
DFA
330
4CE
100
AcDbEntity
  8
DIM
 62
     0
100
AcDbTrace
 10
16.69569599999999
 20
4.465576999999999
 30
0.0
 11
16.69569599999999
 21
4.375576999999999
 31
0.0
 12
16.96569599999999
 22
4.420576999999999
 32
0.0
 13
16.96569599999999
 23
4.420576999999999
 33
0.0
  0
MTEXT
  5
DFB
330
4CE
100
AcDbEntity
  8
DIM
 62
     0
100
AcDbMText
 10
14.7159345
 20
4.420576999999999
 30
0.0
 40
0.1875
 41
0.0
 71
     5
 72
     1
  1
\A1;4.500
  7
TXT
 73
     1
 44
1.0
  0
POINT
  5
DFC
330
4CE
100
AcDbEntity
  8
DEFPOINTS
 62
     0
100
AcDbPoint
 10
12.466173
 20
4.908864
 30
0.0
  0
POINT
  5
DFD
330
4CE
100
AcDbEntity
  8
DEFPOINTS
 62
     0
100
AcDbPoint
 10
16.96569599999999
 20
4.908864
 30
0.0
  0
POINT
  5
DFE
330
4CE
100
AcDbEntity
  8
DEFPOINTS
 62
     0
100
AcDbPoint
 10
16.96569599999999
 20
4.420576999999999
 30
0.0
  0
ENDBLK
  5
4DA
330
4CE
100
AcDbEntity
  8
0
100
AcDbBlockEnd
  0
BLOCK
  5
4E7
330
4DC
100
AcDbEntity
  8
0
100
AcDbBlockBegin
  2
*D28
 70
     1
 10
0.0
 20
0.0
 30
0.0
  3
*D28
  1

  0
LINE
  5
DEB
330
4DC
100
AcDbEntity
  8
DIM
 62
     0
370
    -2
100
AcDbLine
 10
12.479934
 20
5.530864
 30
0.0
 11
12.479934
 21
6.098519
 31
0.0
  0
LINE
  5
DEC
330
4DC
100
AcDbEntity
  8
DIM
 62
     0
370
    -2
100
AcDbLine
 10
16.951934
 20
5.530864
 30
0.0
 11
16.951934
 21
6.098519
 31
0.0
  0
LINE
  5
DED
330
4DC
100
AcDbEntity
  8
DIM
 62
     0
370
    -2
100
AcDbLine
 10
12.749934
 20
5.959019
 30
0.0
 11
14.299684
 21
5.959019
 31
0.0
  0
LINE
  5
DEE
330
4DC
100
AcDbEntity
  8
DIM
 62
     0
370
    -2
100
AcDbLine
 10
16.681934
 20
5.959019
 30
0.0
 11
15.132184
 21
5.959019
 31
0.0
  0
SOLID
  5
DEF
330
4DC
100
AcDbEntity
  8
DIM
 62
     0
100
AcDbTrace
 10
12.749934
 20
6.004019
 30
0.0
 11
12.749934
 21
5.914019
 31
0.0
 12
12.479934
 22
5.959019
 32
0.0
 13
12.479934
 23
5.959019
 33
0.0
  0
SOLID
  5
DF0
330
4DC
100
AcDbEntity
  8
DIM
 62
     0
100
AcDbTrace
 10
16.681934
 20
6.004019
 30
0.0
 11
16.681934
 21
5.914019
 31
0.0
 12
16.951934
 22
5.959019
 32
0.0
 13
16.951934
 23
5.959019
 33
0.0
  0
MTEXT
  5
DF1
330
4DC
100
AcDbEntity
  8
DIM
 62
     0
100
AcDbMText
 10
14.715934
 20
5.959019
 30
0.0
 40
0.1875
 41
0.0
 71
     5
 72
     1
  1
\A1;4.472
  7
TXT
 73
     1
 44
1.0
  0
POINT
  5
DF2
330
4DC
100
AcDbEntity
  8
DEFPOINTS
 62
     0
100
AcDbPoint
 10
12.479934
 20
5.436364
 30
0.0
  0
POINT
  5
DF3
330
4DC
100
AcDbEntity
  8
DEFPOINTS
 62
     0
100
AcDbPoint
 10
16.951934
 20
5.436364
 30
0.0
  0
POINT
  5
DF4
330
4DC
100
AcDbEntity
  8
DEFPOINTS
 62
     0
100
AcDbPoint
 10
16.951934
 20
5.959019
 30
0.0
  0
ENDBLK
  5
4E8
330
4DC
100
AcDbEntity
  8
0
100
AcDbBlockEnd
  0
BLOCK
  5
581
330
576
100
AcDbEntity
  8
0
100
AcDbBlockBegin
  2
*D29
 70
     1
 10
0.0
 20
0.0
 30
0.0
  3
*D29
  1

  0
LINE
  5
DE1
330
576
100
AcDbEntity
  8
DIM
 62
     0
370
    -2
100
AcDbLine
 10
12.791934
 20
3.607526
 30
0.0
 11
12.791934
 21
3.032715
 31
0.0
  0
LINE
  5
DE2
330
576
100
AcDbEntity
  8
DIM
 62
     0
370
    -2
100
AcDbLine
 10
16.639934
 20
3.607526
 30
0.0
 11
16.639934
 21
3.032715
 31
0.0
  0
LINE
  5
DE3
330
576
100
AcDbEntity
  8
DIM
 62
     0
370
    -2
100
AcDbLine
 10
13.06193399999999
 20
3.172215
 30
0.0
 11
14.299684
 21
3.172215
 31
0.0
  0
LINE
  5
DE4
330
576
100
AcDbEntity
  8
DIM
 62
     0
370
    -2
100
AcDbLine
 10
16.369934
 20
3.172215
 30
0.0
 11
15.132184
 21
3.172215
 31
0.0
  0
SOLID
  5
DE5
330
576
100
AcDbEntity
  8
DIM
 62
     0
100
AcDbTrace
 10
13.06193399999999
 20
3.217214999999999
 30
0.0
 11
13.06193399999999
 21
3.127215
 31
0.0
 12
12.791934
 22
3.172215
 32
0.0
 13
12.791934
 23
3.172215
 33
0.0
  0
SOLID
  5
DE6
330
576
100
AcDbEntity
  8
DIM
 62
     0
100
AcDbTrace
 10
16.369934
 20
3.217214999999999
 30
0.0
 11
16.369934
 21
3.127215
 31
0.0
 12
16.639934
 22
3.172215
 32
0.0
 13
16.639934
 23
3.172215
 33
0.0
  0
MTEXT
  5
DE7
330
576
100
AcDbEntity
  8
DIM
 62
     0
100
AcDbMText
 10
14.715934
 20
3.172215
 30
0.0
 40
0.1875
 41
0.0
 71
     5
 72
     1
  1
\A1;3.848
  7
TXT
 73
     1
 44
1.0
  0
POINT
  5
DE8
330
576
100
AcDbEntity
  8
DEFPOINTS
 62
     0
100
AcDbPoint
 10
12.791934
 20
3.702026
 30
0.0
  0
POINT
  5
DE9
330
576
100
AcDbEntity
  8
DEFPOINTS
 62
     0
100
AcDbPoint
 10
16.639934
 20
3.702026
 30
0.0
  0
POINT
  5
DEA
330
576
100
AcDbEntity
  8
DEFPOINTS
 62
     0
100
AcDbPoint
 10
16.639934
 20
3.172215
 30
0.0
  0
ENDBLK
  5
582
330
576
100
AcDbEntity
  8
0
100
AcDbBlockEnd
  0
BLOCK
  5
593
330
588
100
AcDbEntity
  8
0
100
AcDbBlockBegin
  2
*D30
 70
     1
 10
0.0
 20
0.0
 30
0.0
  3
*D30
  1

  0
LINE
  5
DD7
330
588
100
AcDbEntity
  8
DIM
 62
     0
370
    -2
100
AcDbLine
 10
12.88643399999999
 20
3.702026
 30
0.0
 11
13.761485
 21
3.702025999999999
 31
0.0
  0
LINE
  5
DD8
330
588
100
AcDbEntity
  8
DIM
 62
     0
370
    -2
100
AcDbLine
 10
12.88643399999999
 20
1.104025999999999
 30
0.0
 11
13.761485
 21
1.104025999999999
 31
0.0
  0
LINE
  5
DD9
330
588
100
AcDbEntity
  8
DIM
 62
     0
370
    -2
100
AcDbLine
 10
13.621985
 20
3.432025999999999
 30
0.0
 11
13.621985
 21
2.631775999999999
 31
0.0
  0
LINE
  5
DDA
330
588
100
AcDbEntity
  8
DIM
 62
     0
370
    -2
100
AcDbLine
 10
13.621985
 20
1.374025999999999
 30
0.0
 11
13.621985
 21
2.174275999999999
 31
0.0
  0
SOLID
  5
DDB
330
588
100
AcDbEntity
  8
DIM
 62
     0
100
AcDbTrace
 10
13.576985
 20
3.432025999999999
 30
0.0
 11
13.666985
 21
3.432025999999999
 31
0.0
 12
13.621985
 22
3.702025999999999
 32
0.0
 13
13.621985
 23
3.702025999999999
 33
0.0
  0
SOLID
  5
DDC
330
588
100
AcDbEntity
  8
DIM
 62
     0
100
AcDbTrace
 10
13.576985
 20
1.374025999999999
 30
0.0
 11
13.666985
 21
1.374025999999999
 31
0.0
 12
13.621985
 22
1.104025999999999
 32
0.0
 13
13.621985
 23
1.104025999999999
 33
0.0
  0
MTEXT
  5
DDD
330
588
100
AcDbEntity
  8
DIM
 62
     0
100
AcDbMText
 10
13.621985
 20
2.403026000000001
 30
0.0
 40
0.1875
 41
0.0
 71
     5
 72
     1
  1
\A1;2.598
  7
TXT
 73
     1
 44
1.0
  0
POINT
  5
DDE
330
588
100
AcDbEntity
  8
DEFPOINTS
 62
     0
100
AcDbPoint
 10
12.791934
 20
3.702026
 30
0.0
  0
POINT
  5
DDF
330
588
100
AcDbEntity
  8
DEFPOINTS
 62
     0
100
AcDbPoint
 10
12.791934
 20
1.104025999999999
 30
0.0
  0
POINT
  5
DE0
330
588
100
AcDbEntity
  8
DEFPOINTS
 62
     0
100
AcDbPoint
 10
13.621985
 20
1.104025999999999
 30
0.0
  0
ENDBLK
  5
594
330
588
100
AcDbEntity
  8
0
100
AcDbBlockEnd
  0
BLOCK
  5
600
330
5F5
100
AcDbEntity
  8
0
100
AcDbBlockBegin
  2
*D31
 70
     1
 10
0.0
 20
0.0
 30
0.0
  3
*D31
  1

  0
LINE
  5
DB8
330
5F5
100
AcDbEntity
  8
DIM
 62
     0
370
    -2
100
AcDbLine
 10
19.422473
 20
4.858863999999999
 30
0.0
 11
19.590353
 21
4.858863999999999
 31
0.0
  0
LINE
  5
DB9
330
5F5
100
AcDbEntity
  8
DIM
 62
     0
370
    -2
100
AcDbLine
 10
19.45085299999999
 20
4.758863999999999
 30
0.0
 11
19.590353
 21
4.758863999999999
 31
0.0
  0
LINE
  5
DBA
330
5F5
100
AcDbEntity
  8
DIM
 62
     0
370
    -2
100
AcDbLine
 10
19.45085299999999
 20
5.128863999999999
 30
0.0
 11
19.45085299999999
 21
5.398863999999999
 31
0.0
  0
LINE
  5
DBB
330
5F5
100
AcDbEntity
  8
DIM
 62
     0
370
    -2
100
AcDbLine
 10
19.45085299999999
 20
4.488864
 30
0.0
 11
19.45085299999999
 21
4.218863999999999
 31
0.0
  0
LINE
  5
DBC
330
5F5
100
AcDbEntity
  8
DIM
 62
     0
370
    -2
100
AcDbLine
 10
19.45085299999999
 20
4.218863999999999
 30
0.0
 11
19.18085299999999
 21
4.218863999999999
 31
0.0
  0
SOLID
  5
DBD
330
5F5
100
AcDbEntity
  8
DIM
 62
     0
100
AcDbTrace
 10
19.40585299999999
 20
5.128863999999999
 30
0.0
 11
19.495853
 21
5.128863999999999
 31
0.0
 12
19.45085299999999
 22
4.858863999999999
 32
0.0
 13
19.45085299999999
 23
4.858863999999999
 33
0.0
  0
SOLID
  5
DBE
330
5F5
100
AcDbEntity
  8
DIM
 62
     0
100
AcDbTrace
 10
19.40585299999999
 20
4.488864
 30
0.0
 11
19.495853
 21
4.488864
 31
0.0
 12
19.45085299999999
 22
4.758863999999999
 32
0.0
 13
19.45085299999999
 23
4.758863999999999
 33
0.0
  0
MTEXT
  5
DBF
330
5F5
100
AcDbEntity
  8
DIM
 62
     0
100
AcDbMText
 10
18.82319674999999
 20
4.218864000000003
 30
0.0
 40
0.1875
 41
0.0
 71
     5
 72
     1
  1
\A1;0.100
  7
TXT
 73
     1
 44
1.0
  0
POINT
  5
DC0
330
5F5
100
AcDbEntity
  8
DEFPOINTS
 62
     0
100
AcDbPoint
 10
19.327973
 20
4.858863999999999
 30
0.0
  0
POINT
  5
DC1
330
5F5
100
AcDbEntity
  8
DEFPOINTS
 62
     0
100
AcDbPoint
 10
19.35635299999999
 20
4.758863999999999
 30
0.0
  0
POINT
  5
DC2
330
5F5
100
AcDbEntity
  8
DEFPOINTS
 62
     0
100
AcDbPoint
 10
19.45085299999999
 20
4.758863999999999
 30
0.0
  0
ENDBLK
  5
601
330
5F5
100
AcDbEntity
  8
0
100
AcDbBlockEnd
  0
BLOCK
  5
60E
330
603
100
AcDbEntity
  8
0
100
AcDbBlockBegin
  2
*D32
 70
     1
 10
0.0
 20
0.0
 30
0.0
  3
*D32
  1

  0
LINE
  5
DFF
330
603
100
AcDbEntity
  8
DIM
 62
     0
370
    -2
100
AcDbLine
 10
17.046434
 20
5.436364
 30
0.0
 11
17.369281
 21
5.436364
 31
0.0
  0
LINE
  5
E00
330
603
100
AcDbEntity
  8
DIM
 62
     0
370
    -2
100
AcDbLine
 10
16.99443399999999
 20
5.556364
 30
0.0
 11
17.369281
 21
5.556364
 31
0.0
  0
LINE
  5
E01
330
603
100
AcDbEntity
  8
DIM
 62
     0
370
    -2
100
AcDbLine
 10
17.22978099999999
 20
5.166363999999999
 30
0.0
 11
17.22978099999999
 21
4.896364
 31
0.0
  0
LINE
  5
E02
330
603
100
AcDbEntity
  8
DIM
 62
     0
370
    -2
100
AcDbLine
 10
17.22978099999999
 20
5.826363999999999
 30
0.0
 11
17.22978099999999
 21
6.096364
 31
0.0
  0
LINE
  5
E03
330
603
100
AcDbEntity
  8
DIM
 62
     0
370
    -2
100
AcDbLine
 10
17.22978099999999
 20
6.096364
 30
0.0
 11
17.49978099999999
 21
6.096364
 31
0.0
  0
SOLID
  5
E04
330
603
100
AcDbEntity
  8
DIM
 62
     0
100
AcDbTrace
 10
17.18478099999999
 20
5.166363999999999
 30
0.0
 11
17.274781
 21
5.166363999999999
 31
0.0
 12
17.22978099999999
 22
5.436364
 32
0.0
 13
17.22978099999999
 23
5.436364
 33
0.0
  0
SOLID
  5
E05
330
603
100
AcDbEntity
  8
DIM
 62
     0
100
AcDbTrace
 10
17.18478099999999
 20
5.826363999999999
 30
0.0
 11
17.274781
 21
5.826363999999999
 31
0.0
 12
17.22978099999999
 22
5.556364
 32
0.0
 13
17.22978099999999
 23
5.556364
 33
0.0
  0
MTEXT
  5
E06
330
603
100
AcDbEntity
  8
DIM
 62
     0
100
AcDbMText
 10
17.869156
 20
6.096364000000003
 30
0.0
 40
0.1875
 41
0.0
 71
     5
 72
     1
  1
\A1;0.120
  7
TXT
 73
     1
 44
1.0
  0
POINT
  5
E07
330
603
100
AcDbEntity
  8
DEFPOINTS
 62
     0
100
AcDbPoint
 10
16.951934
 20
5.436364
 30
0.0
  0
POINT
  5
E08
330
603
100
AcDbEntity
  8
DEFPOINTS
 62
     0
100
AcDbPoint
 10
16.89993399999999
 20
5.556364
 30
0.0
  0
POINT
  5
E09
330
603
100
AcDbEntity
  8
DEFPOINTS
 62
     0
100
AcDbPoint
 10
17.22978099999999
 20
5.556364
 30
0.0
  0
ENDBLK
  5
60F
330
603
100
AcDbEntity
  8
0
100
AcDbBlockEnd
  0
BLOCK
  5
61C
330
611
100
AcDbEntity
  8
0
100
AcDbBlockBegin
  2
*D33
 70
     1
 10
0.0
 20
0.0
 30
0.0
  3
*D33
  1

  0
LINE
  5
CCC
330
611
100
AcDbEntity
  8
DIM
 62
     0
370
    -2
100
AcDbLine
 10
12.437434
 20
5.556364
 30
0.0
 11
11.90207899999999
 21
5.556364
 31
0.0
  0
LINE
  5
CCD
330
611
100
AcDbEntity
  8
DIM
 62
     0
370
    -2
100
AcDbLine
 10
12.52167299999999
 20
4.758863999999999
 30
0.0
 11
11.90207899999999
 21
4.758863999999999
 31
0.0
  0
LINE
  5
CCE
330
611
100
AcDbEntity
  8
DIM
 62
     0
370
    -2
100
AcDbLine
 10
12.041579
 20
5.826364
 30
0.0
 11
12.041579
 21
6.096364
 31
0.0
  0
LINE
  5
CCF
330
611
100
AcDbEntity
  8
DIM
 62
     0
370
    -2
100
AcDbLine
 10
12.041579
 20
4.488864
 30
0.0
 11
12.041579
 21
4.218863999999999
 31
0.0
  0
SOLID
  5
CD0
330
611
100
AcDbEntity
  8
DIM
 62
     0
100
AcDbTrace
 10
11.99657899999999
 20
5.826364
 30
0.0
 11
12.08657899999999
 21
5.826364
 31
0.0
 12
12.041579
 22
5.556364
 32
0.0
 13
12.041579
 23
5.556364
 33
0.0
  0
SOLID
  5
CD1
330
611
100
AcDbEntity
  8
DIM
 62
     0
100
AcDbTrace
 10
11.99657899999999
 20
4.488864
 30
0.0
 11
12.08657899999999
 21
4.488864
 31
0.0
 12
12.041579
 22
4.758863999999999
 32
0.0
 13
12.041579
 23
4.758863999999999
 33
0.0
  0
MTEXT
  5
CD2
330
611
100
AcDbEntity
  8
DIM
 62
     0
100
AcDbMText
 10
12.04157899999999
 20
5.157614000000001
 30
0.0
 40
0.1875
 41
0.0
 71
     5
 72
     1
  1
\A1;0.798
  7
TXT
 73
     1
 44
1.0
  0
POINT
  5
CD3
330
611
100
AcDbEntity
  8
DEFPOINTS
 62
     0
100
AcDbPoint
 10
12.531934
 20
5.556364
 30
0.0
  0
POINT
  5
CD4
330
611
100
AcDbEntity
  8
DEFPOINTS
 62
     0
100
AcDbPoint
 10
12.616173
 20
4.758863999999999
 30
0.0
  0
POINT
  5
CD5
330
611
100
AcDbEntity
  8
DEFPOINTS
 62
     0
100
AcDbPoint
 10
12.041579
 20
4.758863999999999
 30
0.0
  0
ENDBLK
  5
61D
330
611
100
AcDbEntity
  8
0
100
AcDbBlockEnd
  0
BLOCK
  5
69A
330
68F
100
AcDbEntity
  8
0
100
AcDbBlockBegin
  2
*D34
 70
     1
 10
0.0
 20
0.0
 30
0.0
  3
*D34
  1

  0
LINE
  5
D5C
330
68F
100
AcDbEntity
  8
DIM
 62
     0
370
    -2
100
AcDbLine
 10
7.209311999999999
 20
5.436364
 30
0.0
 11
6.713111
 21
5.436364
 31
0.0
  0
LINE
  5
D5D
330
68F
100
AcDbEntity
  8
DIM
 62
     0
370
    -2
100
AcDbLine
 10
7.34555
 20
4.758863999999999
 30
0.0
 11
6.713111
 21
4.758863999999999
 31
0.0
  0
LINE
  5
D5E
330
68F
100
AcDbEntity
  8
DIM
 62
     0
370
    -2
100
AcDbLine
 10
6.852611
 20
5.706364
 30
0.0
 11
6.852611
 21
5.976364
 31
0.0
  0
LINE
  5
D5F
330
68F
100
AcDbEntity
  8
DIM
 62
     0
370
    -2
100
AcDbLine
 10
6.852611
 20
4.488863999999999
 30
0.0
 11
6.852611
 21
4.218863999999999
 31
0.0
  0
SOLID
  5
D60
330
68F
100
AcDbEntity
  8
DIM
 62
     0
100
AcDbTrace
 10
6.807611
 20
5.706364
 30
0.0
 11
6.897611
 21
5.706364
 31
0.0
 12
6.852611
 22
5.436364
 32
0.0
 13
6.852611
 23
5.436364
 33
0.0
  0
SOLID
  5
D61
330
68F
100
AcDbEntity
  8
DIM
 62
     0
100
AcDbTrace
 10
6.807611
 20
4.488863999999999
 30
0.0
 11
6.897611
 21
4.488863999999999
 31
0.0
 12
6.852611
 22
4.758863999999999
 32
0.0
 13
6.852611
 23
4.758863999999999
 33
0.0
  0
MTEXT
  5
D62
330
68F
100
AcDbEntity
  8
DIM
 62
     0
100
AcDbMText
 10
6.852610999999999
 20
5.097614000000001
 30
0.0
 40
0.1875
 41
0.0
 71
     5
 72
     1
  1
\A1;0.678
  7
TXT
 73
     1
 44
1.0
  0
POINT
  5
D63
330
68F
100
AcDbEntity
  8
DEFPOINTS
 62
     0
100
AcDbPoint
 10
7.303811999999999
 20
5.436364
 30
0.0
  0
POINT
  5
D64
330
68F
100
AcDbEntity
  8
DEFPOINTS
 62
     0
100
AcDbPoint
 10
7.44005
 20
4.758863999999999
 30
0.0
  0
POINT
  5
D65
330
68F
100
AcDbEntity
  8
DEFPOINTS
 62
     0
100
AcDbPoint
 10
6.852611
 20
4.758863999999999
 30
0.0
  0
ENDBLK
  5
69B
330
68F
100
AcDbEntity
  8
0
100
AcDbBlockEnd
  0
BLOCK
  5
705
330
6FA
100
AcDbEntity
  8
0
100
AcDbBlockBegin
  2
*D35
 70
     1
 10
0.0
 20
0.0
 30
0.0
  3
*D35
  1

  0
LINE
  5
D51
330
6FA
100
AcDbEntity
  8
DIM
 62
     0
370
    -2
100
AcDbLine
 10
1.369356999999999
 20
5.556364
 30
0.0
 11
1.011707
 21
5.556364
 31
0.0
  0
LINE
  5
D52
330
6FA
100
AcDbEntity
  8
DIM
 62
     0
370
    -2
100
AcDbLine
 10
1.319356999999999
 20
5.456363999999999
 30
0.0
 11
1.011706999999999
 21
5.456363999999999
 31
0.0
  0
LINE
  5
D53
330
6FA
100
AcDbEntity
  8
DIM
 62
     0
370
    -2
100
AcDbLine
 10
1.151207
 20
5.826363999999999
 30
0.0
 11
1.151207
 21
6.096364
 31
0.0
  0
LINE
  5
D54
330
6FA
100
AcDbEntity
  8
DIM
 62
     0
370
    -2
100
AcDbLine
 10
1.151206999999999
 20
5.186363999999999
 30
0.0
 11
1.151206999999999
 21
4.916363999999999
 31
0.0
  0
LINE
  5
D55
330
6FA
100
AcDbEntity
  8
DIM
 62
     0
370
    -2
100
AcDbLine
 10
1.151206999999999
 20
4.916363999999999
 30
0.0
 11
0.8812069999999998
 21
4.916363999999999
 31
0.0
  0
SOLID
  5
D56
330
6FA
100
AcDbEntity
  8
DIM
 62
     0
100
AcDbTrace
 10
1.106207
 20
5.826363999999999
 30
0.0
 11
1.196207
 21
5.826363999999999
 31
0.0
 12
1.151207
 22
5.556364
 32
0.0
 13
1.151207
 23
5.556364
 33
0.0
  0
SOLID
  5
D57
330
6FA
100
AcDbEntity
  8
DIM
 62
     0
100
AcDbTrace
 10
1.106206999999999
 20
5.186363999999999
 30
0.0
 11
1.196206999999999
 21
5.186363999999999
 31
0.0
 12
1.151206999999999
 22
5.456363999999999
 32
0.0
 13
1.151206999999999
 23
5.456363999999999
 33
0.0
  0
MTEXT
  5
D58
330
6FA
100
AcDbEntity
  8
DIM
 62
     0
100
AcDbMText
 10
0.5235507499999991
 20
4.916363999999999
 30
0.0
 40
0.1875
 41
0.0
 71
     5
 72
     1
  1
\A1;0.100
  7
TXT
 73
     1
 44
1.0
  0
POINT
  5
D59
330
6FA
100
AcDbEntity
  8
DEFPOINTS
 62
     0
100
AcDbPoint
 10
1.463856999999999
 20
5.556364
 30
0.0
  0
POINT
  5
D5A
330
6FA
100
AcDbEntity
  8
DEFPOINTS
 62
     0
100
AcDbPoint
 10
1.413856999999999
 20
5.456363999999999
 30
0.0
  0
POINT
  5
D5B
330
6FA
100
AcDbEntity
  8
DEFPOINTS
 62
     0
100
AcDbPoint
 10
1.151206999999999
 20
5.456363999999999
 30
0.0
  0
ENDBLK
  5
706
330
6FA
100
AcDbEntity
  8
0
100
AcDbBlockEnd
  0
BLOCK
  5
713
330
708
100
AcDbEntity
  8
0
100
AcDbBlockBegin
  2
*D36
 70
     1
 10
0.0
 20
0.0
 30
0.0
  3
*D36
  1

  0
LINE
  5
CC2
330
708
100
AcDbEntity
  8
DIM
 62
     0
370
    -2
100
AcDbLine
 10
10.48475
 20
4.758863999999999
 30
0.0
 11
11.554407
 21
4.758863999999999
 31
0.0
  0
LINE
  5
CC3
330
708
100
AcDbEntity
  8
DIM
 62
     0
370
    -2
100
AcDbLine
 10
10.422427
 20
7.458864
 30
0.0
 11
11.554407
 21
7.458864
 31
0.0
  0
LINE
  5
CC4
330
708
100
AcDbEntity
  8
DIM
 62
     0
370
    -2
100
AcDbLine
 10
11.414907
 20
5.028863999999999
 30
0.0
 11
11.414907
 21
5.880113999999999
 31
0.0
  0
LINE
  5
CC5
330
708
100
AcDbEntity
  8
DIM
 62
     0
370
    -2
100
AcDbLine
 10
11.414907
 20
7.188863999999999
 30
0.0
 11
11.414907
 21
6.337613999999999
 31
0.0
  0
SOLID
  5
CC6
330
708
100
AcDbEntity
  8
DIM
 62
     0
100
AcDbTrace
 10
11.369907
 20
5.028863999999999
 30
0.0
 11
11.459907
 21
5.028863999999999
 31
0.0
 12
11.414907
 22
4.758863999999999
 32
0.0
 13
11.414907
 23
4.758863999999999
 33
0.0
  0
SOLID
  5
CC7
330
708
100
AcDbEntity
  8
DIM
 62
     0
100
AcDbTrace
 10
11.369907
 20
7.188863999999999
 30
0.0
 11
11.459907
 21
7.188863999999999
 31
0.0
 12
11.414907
 22
7.458864
 32
0.0
 13
11.414907
 23
7.458864
 33
0.0
  0
MTEXT
  5
CC8
330
708
100
AcDbEntity
  8
DIM
 62
     0
100
AcDbMText
 10
11.414907
 20
6.108864000000001
 30
0.0
 40
0.1875
 41
0.0
 71
     5
 72
     1
  1
\A1;2.700
  7
TXT
 73
     1
 44
1.0
  0
POINT
  5
CC9
330
708
100
AcDbEntity
  8
DEFPOINTS
 62
     0
100
AcDbPoint
 10
10.39025
 20
4.758863999999999
 30
0.0
  0
POINT
  5
CCA
330
708
100
AcDbEntity
  8
DEFPOINTS
 62
     0
100
AcDbPoint
 10
10.327927
 20
7.458864
 30
0.0
  0
POINT
  5
CCB
330
708
100
AcDbEntity
  8
DEFPOINTS
 62
     0
100
AcDbPoint
 10
11.414907
 20
7.458864
 30
0.0
  0
ENDBLK
  5
714
330
708
100
AcDbEntity
  8
0
100
AcDbBlockEnd
  0
ENDSEC
  0
SECTION
  2
ENTITIES
  0
INSERT
  5
22A
330
1E
100
AcDbEntity
  8
TITLE
100
AcDbBlockReference
  2
HBS
 10
0.0
 20
0.0
 30
0.0
 41
1.5
 42
1.5
 43
1.5
  0
TEXT
  5
22B
330
1E
100
AcDbEntity
  8
TEXT
100
AcDbText
 10
3.325781999999999
 20
0.3345370000000001
 30
0.0
 40
0.234
  1
%%uBODY
 41
0.75
 72
     4
 11
3.650456999999999
 21
0.428137
 31
0.0
100
AcDbText
  0
TEXT
  5
22C
330
1E
100
AcDbEntity
  8
TEXT
100
AcDbText
 10
11.49307199999999
 20
13.103681
 30
0.0
 40
0.1875
  1
OPEN END DUE TO TAPER.
 41
0.75
100
AcDbText
  0
TEXT
  5
22D
330
1E
100
AcDbEntity
  8
TEXT
100
AcDbText
 10
11.49307199999999
 20
13.416181
 30
0.0
 40
0.1875
  1
DIMENSIONS INCREASE SLIGHTLY AT
 41
0.75
100
AcDbText
  0
TEXT
  5
22E
330
1E
100
AcDbEntity
  8
TEXT
100
AcDbText
 10
11.49307199999999
 20
13.728681
 30
0.0
 40
0.1875
  1
TAKEN FROM CLOSED END OF THE BOX.
 41
0.75
100
AcDbText
  0
TEXT
  5
22F
330
1E
100
AcDbEntity
  8
TEXT
100
AcDbText
 10
11.49307199999999
 20
14.04118099999999
 30
0.0
 40
0.1875
  1
LENGTH AND WIDTH DIMENSIONS ARE
 41
0.75
100
AcDbText
  0
TEXT
  5
230
330
1E
100
AcDbEntity
  8
TEXT
100
AcDbText
 10
14.274259
 20
0.334537
 30
0.0
 40
0.234
  1
%%uCOVER
 41
0.75
 72
     4
 11
14.71593399999999
 21
0.428137
 31
0.0
100
AcDbText
  0
TEXT
  5
231
330
1E
100
AcDbEntity
  8
TEXT
100
AcDbText
 10
0.353291
 20
11.86511799999999
 30
0.0
 40
0.1875
  1
%%uCOLOR:%%u BLACK
 41
0.75
100
AcDbText
  0
TEXT
  5
232
330
1E
100
AcDbEntity
  8
TEXT
100
AcDbText
 10
4.261733
 20
13.728681
 30
0.0
 40
0.1875
  1
AND CONTINUOUS USE TEMPERATURE OF 70%%d C.)
 41
0.75
100
AcDbText
  0
TEXT
  5
233
330
1E
100
AcDbEntity
  8
TEXT
100
AcDbText
 10
0.353291
 20
14.04118099999999
 30
0.0
 40
0.1875
  1
%%uMATERIAL:%%u ABS THERMOPLASTIC (FLAMMABILITY RATING OF 94-VO AT 0.070" THICKNESS
 41
0.75
100
AcDbText
  0
TEXT
  5
234
330
1E
100
AcDbEntity
  8
TEXT
100
AcDbText
 10
4.87725
 20
14.9669964010894
 30
0.0
 40
0.234
  1
UTILIBOX  (STYLE H)
 41
0.75
 72
     4
 11
6.398249999999999
 21
15.0839964010894
 31
0.0
100
AcDbText
  0
TEXT
  5
235
330
1E
100
AcDbEntity
  8
TEXT
100
AcDbText
 10
17.42099999999999
 20
14.9669964010894
 30
0.0
 40
0.234
  1
CU-1476
 41
0.75
 72
     4
 11
17.97674999999999
 21
15.0839964010894
 31
0.0
100
AcDbText
  0
TEXT
  5
236
330
1E
100
AcDbEntity
  8
TEXT
100
AcDbText
 10
17.334426
 20
12.789752
 30
0.0
 40
0.1875
  1
%%UNOTE:%%U ALL DIMENSIONS HAVE %%P0.010 TOLERANCE
 41
0.75
100
AcDbText
  0
TEXT
  5
237
330
1E
100
AcDbEntity
  8
TEXT
100
AcDbText
 10
18.165273
 20
12.48618999999999
 30
0.0
 40
0.1875
  1
UNLESS OTHERWISE SPECIFIED.
 41
0.75
100
AcDbText
  0
TEXT
  5
238
330
1E
100
AcDbEntity
  8
TEXT
100
AcDbText
 10
17.334426
 20
14.04118099999999
 30
0.0
 40
0.187714
  1
FOUR (4) #4 x 1" LG. SELF THREADING
 41
0.75
100
AcDbText
  0
TEXT
  5
239
330
1E
100
AcDbEntity
  8
TEXT
100
AcDbText
 10
17.334426
 20
13.728324
 30
0.0
 40
0.187714
  1
SCREWS WITH HI/LOW THREADS
 41
0.75
100
AcDbText
  0
TEXT
  5
23A
330
1E
100
AcDbEntity
  8
TEXT
100
AcDbText
 10
17.334426
 20
13.415466
 30
0.0
 40
0.187714
  1
ARE SUPPLIED FOR MOUNTING COVER.
 41
0.75
100
AcDbText
  0
TEXT
  5
23B
330
1E
100
AcDbEntity
  8
TEXT
100
AcDbText
 10
0.503386
 20
13.101681
 30
0.0
 40
0.1875
  1
BODY - OUTSIDE SURFACES ARE TEXTURED FINISH
 41
0.75
100
AcDbText
  0
TEXT
  5
23C
330
1E
100
AcDbEntity
  8
TEXT
100
AcDbText
 10
0.353291
 20
13.414181
 30
0.0
 40
0.1875
  1
%%uFINISH:
 41
0.75
100
AcDbText
  0
DIMENSION
  5
23D
330
1E
100
AcDbEntity
  8
DIM
100
AcDbDimension
  2
*D1
 10
5.887056999999999
 20
4.637363999999999
 30
0.0
 11
3.650456999999999
 21
4.637363999999999
 31
0.0
 70
    32
 71
     5
 42
4.473199999999999
  3
23NSTD
100
AcDbAlignedDimension
 13
1.413856999999999
 23
5.456363999999999
 33
0.0
 14
5.887056999999999
 24
5.456363999999999
 34
0.0
100
AcDbRotatedDimension
  0
DIMENSION
  5
24B
330
1E
100
AcDbEntity
  8
DIM
100
AcDbDimension
  2
*D2
 10
5.838443999999999
 20
7.833864
 30
0.0
 11
3.650456499999999
 21
7.833864
 31
0.0
 70
    32
 71
     5
 42
4.375975
  3
23NSTD
100
AcDbAlignedDimension
 13
1.462469
 23
7.312791
 33
0.0
 14
5.838443999999999
 24
7.312791
 34
0.0
100
AcDbRotatedDimension
  0
DIMENSION
  5
259
330
1E
100
AcDbEntity
  8
DIM
100
AcDbDimension
  2
*D3
 10
2.044172999999999
 20
5.643364
 30
0.0
 11
3.656204249999998
 21
6.183364
 31
0.0
 70
    32
  1
<> POLISHED BAND
 71
     5
 42
0.1870000000000003
  3
23NSTD
100
AcDbAlignedDimension
 13
2.138672999999999
 23
5.456363999999999
 33
0.0
 14
2.138672999999999
 24
5.643364
 34
0.0
 50
270.0
100
AcDbRotatedDimension
  0
DIMENSION
  5
267
330
1E
100
AcDbEntity
  8
DIM
100
AcDbDimension
  2
*D4
 10
5.637319
 20
9.019531
 30
0.0
 11
3.650457
 21
9.019531
 31
0.0
 70
    32
 71
     5
 42
3.973724
  3
23NSTD
100
AcDbAlignedDimension
 13
1.663595
 23
9.114030999999998
 33
0.0
 14
5.637319
 24
9.114030999999998
 34
0.0
 50
180.0
100
AcDbRotatedDimension
  0
DIMENSION
  5
275
330
1E
100
AcDbEntity
  8
DIM
100
AcDbDimension
  2
*D5
 10
2.845461999999999
 20
11.164074
 30
0.0
 11
2.845461999999997
 21
9.802474
 31
0.0
 70
    32
 71
     5
 42
2.7232
  3
23NSTD
100
AcDbAlignedDimension
 13
2.939961999999999
 23
8.440874
 33
0.0
 14
2.939961999999999
 24
11.164074
 34
0.0
 50
270.0
100
AcDbRotatedDimension
  0
LWPOLYLINE
  5
283
330
1E
100
AcDbEntity
  8
OBJECT
100
AcDbPolyline
 90
        4
 70
     1
 43
0.0
 10
1.694845
 20
11.132824
 10
1.694845
 20
8.472124
 10
5.606069
 20
8.472124
 10
5.606069
 20
11.132824
  0
LWPOLYLINE
  5
289
330
1E
100
AcDbEntity
  8
OBJECT
100
AcDbPolyline
 90
        4
 70
     1
 43
0.0
 10
5.637319
 20
8.440874
 10
5.637319
 20
11.164074
 10
1.663595
 20
11.164074
 10
1.663595
 20
8.440874
  0
LWPOLYLINE
  5
28F
330
1E
100
AcDbEntity
  8
OBJECT
100
AcDbPolyline
 90
        8
 70
     1
 43
0.0
 10
1.463778
 20
11.21388999999999
 10
1.463778
 20
8.391056999999999
 42
0.4142140000000001
 10
1.613778
 20
8.241057000000001
 10
5.687134999999999
 20
8.241057000000001
 42
0.4142140000000001
 10
5.837134999999999
 20
8.391056999999999
 10
5.837134999999999
 20
11.21388999999999
 42
0.4142140000000001
 10
5.687134999999999
 20
11.36389
 10
1.613778
 20
11.36389
 42
0.4142140000000001
  0
LWPOLYLINE
  5
299
330
1E
100
AcDbEntity
  8
OBJECT
100
AcDbPolyline
 90
        8
 70
     1
 43
0.0
 10
5.887056999999999
 20
11.26381199999999
 42
0.4142140000000001
 10
5.737057
 20
11.413812
 10
1.563857
 20
11.413812
 42
0.4142140000000001
 10
1.413856999999999
 20
11.26381199999999
 10
1.413856999999999
 20
8.341136
 42
0.4142140000000001
 10
1.563857
 20
8.191136
 10
5.737057
 20
8.191136
 42
0.4142140000000001
 10
5.887056999999999
 20
8.341136
  0
LWPOLYLINE
  5
2A3
330
1E
100
AcDbEntity
  8
OBJECT
100
AcDbPolyline
 90
        8
 70
     1
 43
0.0
 10
5.887056999999999
 20
0.9419489999999999
 42
-0.4142140000000001
 10
5.737057
 20
0.791949
 10
1.563857
 20
0.791949
 42
-0.4142140000000001
 10
1.413856999999999
 20
0.9419489999999999
 10
1.413856999999999
 20
3.864625
 42
-0.4142140000000001
 10
1.563857
 20
4.014624999999999
 10
5.737057
 20
4.014624999999999
 42
-0.4142140000000001
 10
5.887056999999999
 20
3.864625
  0
LINE
  5
2AD
330
1E
100
AcDbEntity
  8
HIDDEN
100
AcDbLine
 10
7.409803
 20
5.683863999999999
 30
0.0
 11
7.524388
 21
5.683863999999999
 31
0.0
  0
LINE
  5
2AE
330
1E
100
AcDbEntity
  8
HIDDEN
100
AcDbLine
 10
10.42049699999999
 20
5.683863999999999
 30
0.0
 11
10.30591199999999
 21
5.683863999999999
 31
0.0
  0
LWPOLYLINE
  5
2AF
330
1E
100
AcDbEntity
  8
OBJECT
100
AcDbPolyline
 90
        8
 70
     1
 43
0.0
 10
5.837056999999999
 20
0.9419489999999999
 42
-0.4142140000000001
 10
5.737057
 20
0.8419489999999999
 10
1.563857
 20
0.8419489999999999
 42
-0.4142140000000001
 10
1.463856999999999
 20
0.9419489999999999
 10
1.463856999999999
 20
3.864625
 42
-0.4142140000000001
 10
1.563857
 20
3.964624999999999
 10
5.737057
 20
3.964624999999999
 42
-0.4142140000000001
 10
5.837056999999999
 20
3.864625
  0
LWPOLYLINE
  5
2B9
330
1E
100
AcDbEntity
  8
OBJECT
100
AcDbPolyline
 90
        8
 70
     1
 43
0.0
 10
5.784056999999999
 20
0.9419489999999999
 42
-0.4142140000000001
 10
5.737057
 20
0.894949
 10
1.563857
 20
0.894949
 42
-0.4142140000000001
 10
1.516856999999999
 20
0.9419489999999999
 10
1.516856999999999
 20
3.864625
 42
-0.4142140000000001
 10
1.563857
 20
3.911624999999999
 10
5.737057
 20
3.911624999999999
 42
-0.4142140000000001
 10
5.784056999999999
 20
3.864625
  0
CIRCLE
  5
2C3
330
1E
100
AcDbEntity
  8
OBJECT
100
AcDbCircle
 10
1.726349
 20
3.702517999999999
 30
0.0
 40
0.045
  0
LINE
  5
2C4
330
1E
100
AcDbEntity
  8
HIDDEN
100
AcDbLine
 10
1.519847999999999
 20
5.683863999999999
 30
0.0
 11
1.635236
 21
5.683863999999999
 31
0.0
  0
LINE
  5
2C5
330
1E
100
AcDbEntity
  8
HIDDEN
100
AcDbLine
 10
5.665676999999999
 20
5.683863999999999
 30
0.0
 11
5.781064999999999
 21
5.683863999999999
 31
0.0
  0
LWPOLYLINE
  5
2C6
330
1E
100
AcDbEntity
  8
OBJECT
100
AcDbPolyline
 90
        4
 70
     0
 43
0.0
 10
1.544185
 20
3.907309999999999
 10
1.663761
 20
3.787733999999999
 42
-13.14017
 10
1.641134
 20
3.765105999999999
 10
1.521417999999999
 20
3.884823
  0
LWPOLYLINE
  5
2CC
330
1E
100
AcDbEntity
  8
OBJECT
100
AcDbPolyline
 90
        4
 70
     0
 43
0.0
 10
5.756728999999999
 20
3.907309999999999
 10
5.637151999999999
 20
3.787733999999999
 42
13.14017
 10
5.659779
 20
3.765105999999999
 10
5.779495999999999
 20
3.884823
  0
CIRCLE
  5
2D2
330
1E
100
AcDbEntity
  8
OBJECT
100
AcDbCircle
 10
5.574563999999999
 20
3.702517999999999
 30
0.0
 40
0.045
  0
LWPOLYLINE
  5
2D3
330
1E
100
AcDbEntity
  8
OBJECT
100
AcDbPolyline
 90
        4
 70
     0
 43
0.0
 10
1.544185
 20
0.8992639999999999
 10
1.663761
 20
1.018839999999999
 42
13.14017
 10
1.641134
 20
1.041468
 10
1.521417999999999
 20
0.921751
  0
CIRCLE
  5
2D9
330
1E
100
AcDbEntity
  8
OBJECT
100
AcDbCircle
 10
1.726349
 20
1.104055
 30
0.0
 40
0.045
  0
LWPOLYLINE
  5
2DA
330
1E
100
AcDbEntity
  8
OBJECT
100
AcDbPolyline
 90
        4
 70
     0
 43
0.0
 10
5.756728999999999
 20
0.8992639999999999
 10
5.637151999999999
 20
1.018839999999999
 42
-13.14017
 10
5.659779
 20
1.041468
 10
5.779495999999999
 20
0.921751
  0
CIRCLE
  5
2E0
330
1E
100
AcDbEntity
  8
OBJECT
100
AcDbCircle
 10
5.574563999999999
 20
1.104055
 30
0.0
 40
0.045
  0
LWPOLYLINE
  5
2E1
330
1E
100
AcDbEntity
  8
HIDDEN
100
AcDbPolyline
 90
        4
 70
     0
 43
0.0
 10
1.544185
 20
8.298451
 10
1.663761
 20
8.418027
 42
13.14017
 10
1.641134
 20
8.440654999999999
 10
1.521417999999999
 20
8.320937999999999
  0
CIRCLE
  5
2E7
330
1E
100
AcDbEntity
  8
HIDDEN
100
AcDbCircle
 10
1.726349
 20
8.503242
 30
0.0
 40
0.045
  0
LWPOLYLINE
  5
2E8
330
1E
100
AcDbEntity
  8
HIDDEN
100
AcDbPolyline
 90
        4
 70
     0
 43
0.0
 10
5.756728999999999
 20
8.298451
 10
5.637151999999999
 20
8.418027
 42
-13.14017
 10
5.659779
 20
8.440654999999999
 10
5.779495999999999
 20
8.320937999999999
  0
CIRCLE
  5
2EE
330
1E
100
AcDbEntity
  8
HIDDEN
100
AcDbCircle
 10
5.574563999999999
 20
8.503242
 30
0.0
 40
0.045
  0
LWPOLYLINE
  5
2EF
330
1E
100
AcDbEntity
  8
HIDDEN
100
AcDbPolyline
 90
        8
 70
     1
 43
0.0
 10
5.784056999999999
 20
8.341136
 42
-0.4142140000000001
 10
5.737057
 20
8.294135999999999
 10
1.563857
 20
8.294135999999999
 42
-0.4142140000000001
 10
1.516856999999999
 20
8.341136
 10
1.516856999999999
 20
11.26381199999999
 42
-0.4142140000000001
 10
1.563857
 20
11.310812
 10
5.737057
 20
11.310812
 42
-0.4142140000000001
 10
5.784056999999999
 20
11.26381199999999
  0
DIMENSION
  5
2F9
330
1E
100
AcDbEntity
  8
DIM
  6
Continuous
100
AcDbDimension
  2
*D6
 10
1.726349
 20
3.172215
 30
0.0
 11
3.650456499999999
 21
3.172215
 31
0.0
 70
    32
 71
     5
 42
3.848214999999999
  3
23NSTD
100
AcDbAlignedDimension
 13
5.574563999999999
 23
3.702517999999999
 33
0.0
 14
1.726349
 24
3.702517999999999
 34
0.0
100
AcDbRotatedDimension
  0
DIMENSION
  5
307
330
1E
100
AcDbEntity
  8
DIM
  6
Continuous
100
AcDbDimension
  2
*D7
 10
2.524363999999999
 20
3.702517999999999
 30
0.0
 11
2.524363999999998
 21
2.4032865
 31
0.0
 70
    32
 71
     5
 42
2.598462999999999
  3
23NSTD
100
AcDbAlignedDimension
 13
1.726349
 23
1.104055
 33
0.0
 14
1.726349
 24
3.702517999999999
 34
0.0
 50
90.0
100
AcDbRotatedDimension
  0
TEXT
  5
315
330
1E
100
AcDbEntity
  8
DIM
100
AcDbText
 10
6.960905
 20
1.707753999999999
 30
0.0
 40
0.1875
  1
(4) HOLES
 41
0.75
 11
6.960905
 21
1.801503999999999
 31
0.0
100
AcDbText
 73
     2
  0
TEXT
  5
316
330
1E
100
AcDbEntity
  8
DIM
100
AcDbText
 10
6.960905
 20
2.020253999999999
 30
0.0
 40
0.1875
  1
0.090 DIA. x 0.500 DEEP
 41
0.75
 11
6.960905
 21
2.114003999999999
 31
0.0
100
AcDbText
 73
     2
  0
TEXT
  5
317
330
1E
100
AcDbEntity
  8
DIM
100
AcDbText
 10
6.939977999999999
 20
1.246950999999999
 30
0.0
 40
0.1875
  1
0.180 DIA. BOSS
 41
0.75
 11
6.939977999999999
 21
1.340700999999999
 31
0.0
100
AcDbText
 73
     2
  0
TEXT
  5
318
330
1E
100
AcDbEntity
  8
DIM
100
AcDbText
 10
6.939977999999999
 20
0.9344509999999999
 30
0.0
 40
0.1875
  1
(4) PLACES
 41
0.75
 11
6.939977999999999
 21
1.028200999999999
 31
0.0
100
AcDbText
 73
     2
  0
LWPOLYLINE
  5
319
330
1E
100
AcDbEntity
  8
DIM
100
AcDbPolyline
 90
        4
 70
     0
 10
5.679134999999999
 20
1.088438
 40
0.0
 41
0.10125
 10
5.938119
 20
1.164773999999999
 40
0.0
 41
0.0
 10
6.534977999999999
 20
1.340700999999999
 40
0.0
 41
0.0
 10
6.804978
 20
1.340700999999999
 40
0.0
 41
0.0
  0
LWPOLYLINE
  5
31F
330
1E
100
AcDbEntity
  8
DIM
100
AcDbPolyline
 90
        4
 70
     0
 10
5.599122
 20
1.141764
 40
0.0
 41
0.10125
 10
5.788505
 20
1.334206
 40
0.0
 41
0.0
 10
6.555905
 20
2.114003999999999
 40
0.0
 41
0.0
 10
6.825905
 20
2.114003999999999
 40
0.0
 41
0.0
  0
DIMENSION
  5
325
330
1E
100
AcDbEntity
  8
DIM
100
AcDbDimension
  2
*D8
 10
7.352424
 20
7.833864
 30
0.0
 11
8.91515
 21
7.833864
 31
0.0
 70
    32
 71
     5
 42
3.125451999999999
  3
23NSTD
100
AcDbAlignedDimension
 13
10.477876
 23
7.312791
 33
0.0
 14
7.352424
 24
7.312791
 34
0.0
100
AcDbRotatedDimension
  0
DIMENSION
  5
333
330
1E
100
AcDbEntity
  8
DIM
100
AcDbDimension
  2
*D9
 10
10.899988
 20
7.458864
 30
0.0
 11
10.89998799999999
 21
6.457614000000001
 31
0.0
 70
    32
 71
     5
 42
2.0025
  3
23NSTD
100
AcDbAlignedDimension
 13
10.526488
 23
5.456363999999999
 33
0.0
 14
10.327927
 24
7.458864
 34
0.0
 50
270.0
100
AcDbRotatedDimension
  0
DIMENSION
  5
341
330
1E
100
AcDbEntity
  8
DIM
100
AcDbDimension
  2
*D10
 10
7.303811999999999
 20
5.456363999999999
 30
0.0
 11
8.549047999999995
 21
8.188486999999996
 31
0.0
 70
   162
  1
<> REF.
 71
     5
 42
0.0261795730170817
  3
23NSTD
100
AcDb2LineAngularDimension
 13
7.303811999999999
 23
5.456363999999999
 33
0.0
 14
7.303811999999999
 24
5.782919999999999
 34
0.0
 15
7.327378999999999
 25
6.356364
 35
0.0
 16
7.330013205779557
 26
8.458766751071323
 36
0.0
  0
DIMENSION
  5
352
330
1E
100
AcDbEntity
  8
DIM
  6
Continuous
100
AcDbDimension
  2
*D11
 10
5.755001291624831
 20
6.679184981448436
 30
0.0
 11
4.552842628273055
 21
6.665047820382118
 31
0.0
 70
    33
  1
<> TYP.
 71
     5
 42
0.1000002753996201
  3
23NSTD
100
AcDbAlignedDimension
 13
5.856683999999999
 23
6.616252
 33
0.0
 14
5.756718
 24
6.613633999999999
 34
0.0
  0
DIMENSION
  5
360
330
1E
100
AcDbEntity
  8
DIM
  6
Continuous
100
AcDbDimension
  2
*D12
 10
5.839674999999999
 20
5.081363999999999
 30
0.0
 11
4.602174999999999
 21
5.081363999999999
 31
0.0
 70
    32
  1
<> TYP.
 71
     5
 42
0.0473819999999998
  3
23NSTD
100
AcDbAlignedDimension
 13
5.887056999999999
 23
5.456363999999999
 33
0.0
 14
5.839674999999999
 24
5.456363999999999
 34
0.0
100
AcDbRotatedDimension
  0
LINE
  5
36E
330
1E
100
AcDbEntity
  8
OBJECT
100
AcDbLine
 10
1.418753
 20
5.643364
 30
0.0
 11
5.882159999999999
 21
5.643364
 31
0.0
  0
LINE
  5
36F
330
1E
100
AcDbEntity
  8
OBJECT
100
AcDbLine
 10
7.308708999999999
 20
5.643364
 30
0.0
 11
10.521591
 21
5.643364
 31
0.0
  0
TEXT
  5
370
330
1E
100
AcDbEntity
  8
DIM
100
AcDbText
 10
6.72321
 20
10.536536
 30
0.0
 40
0.1875
  1
INSERT AREA
 41
0.75
 11
6.72321
 21
10.63028599999999
 31
0.0
100
AcDbText
 73
     2
  0
LWPOLYLINE
  5
371
330
1E
100
AcDbEntity
  8
DIM
100
AcDbPolyline
 90
        4
 70
     0
 10
4.865508
 20
10.20209499999999
 40
0.0
 41
0.10125
 10
5.124492
 20
10.278432
 40
0.0
 41
0.0
 10
6.318209999999999
 20
10.63028599999999
 40
0.0
 41
0.0
 10
6.588210000000001
 20
10.63028599999999
 40
0.0
 41
0.0
  0
LWPOLYLINE
  5
377
330
1E
100
AcDbEntity
  8
HIDDEN
100
AcDbPolyline
 90
        4
 70
     0
 43
0.0
 10
1.544185
 20
11.30649699999999
 10
1.663761
 20
11.186921
 42
-13.14017
 10
1.641134
 20
11.16429299999999
 10
1.521417999999999
 20
11.28400899999999
  0
CIRCLE
  5
37D
330
1E
100
AcDbEntity
  8
HIDDEN
100
AcDbCircle
 10
1.726349
 20
11.101705
 30
0.0
 40
0.045
  0
LWPOLYLINE
  5
37E
330
1E
100
AcDbEntity
  8
HIDDEN
100
AcDbPolyline
 90
        4
 70
     0
 43
0.0
 10
5.756728999999999
 20
11.30649699999999
 10
5.637151999999999
 20
11.186921
 42
13.14017
 10
5.659779
 20
11.16429299999999
 10
5.779495999999999
 20
11.28400899999999
  0
CIRCLE
  5
384
330
1E
100
AcDbEntity
  8
HIDDEN
100
AcDbCircle
 10
5.574563999999999
 20
11.101705
 30
0.0
 40
0.045
  0
TEXT
  5
385
330
1E
100
AcDbEntity
  8
TEXT
100
AcDbText
 10
1.549868
 20
12.798118
 30
0.0
 40
0.1875
  1
WITH TEXTURED INSERT AREA.
 41
0.75
100
AcDbText
  0
DIMENSION
  5
386
330
1E
100
AcDbEntity
  8
DIM
100
AcDbDimension
  2
*D13
 10
19.691032
 20
5.959019
 30
0.0
 11
19.287032
 21
5.959019
 31
0.0
 70
    32
  1
<>
 71
     5
 42
0.8079999999999998
  3
23NSTD
100
AcDbAlignedDimension
 13
18.883032
 23
5.556364
 33
0.0625
 14
19.691032
 24
5.556364
 34
0.0625
100
AcDbRotatedDimension
  0
DIMENSION
  5
394
330
1E
100
AcDbEntity
  8
DIM
100
AcDbDimension
  2
*D14
 10
21.192032
 20
6.276383999999999
 30
0.0
 11
20.788032
 21
6.276383999999999
 31
0.0
 70
    32
  1
<>
 71
     5
 42
0.8079999999999998
  3
23NSTD
100
AcDbAlignedDimension
 13
20.384032
 23
5.556364
 33
0.0625
 14
21.192032
 24
5.556364
 34
0.0625
100
AcDbRotatedDimension
  0
DIMENSION
  5
3A2
330
1E
100
AcDbEntity
  8
DIM
100
AcDbDimension
  2
*D15
 10
20.384032
 20
6.840383999999999
 30
0.0
 11
21.32856325
 21
6.840383999999999
 31
0.0
 70
    32
  1
<>
 71
     5
 42
0.6930000000000014
  3
23NSTD
100
AcDbAlignedDimension
 13
19.691032
 23
5.556364
 33
0.0
 14
20.384032
 24
5.556364
 34
0.0
100
AcDbRotatedDimension
  0
DIMENSION
  5
3B0
330
1E
100
AcDbEntity
  8
DIM
100
AcDbDimension
  2
*D16
 10
22.01325699999999
 20
5.556363999999999
 30
0.0
 11
22.6760695
 21
6.096364000000003
 31
0.0
 70
    32
  1
<>
 71
     5
 42
0.0760000000000005
  3
23NSTD
100
AcDbAlignedDimension
 13
21.192032
 23
5.480363999999999
 33
0.0625
 14
21.59687
 24
5.556364
 34
0.0
 50
270.0
100
AcDbRotatedDimension
  0
DIMENSION
  5
3BE
330
1E
100
AcDbEntity
  8
DIM
100
AcDbDimension
  2
*D17
 10
20.741548
 20
4.858863999999999
 30
0.0
 11
20.0787355
 21
4.318864000000003
 31
0.0
 70
    32
  1
<>
 71
     5
 42
0.25
  3
23NSTD
100
AcDbAlignedDimension
 13
20.970032
 23
5.108863999999999
 33
0.0625
 14
20.970032
 24
4.858863999999999
 34
0.0
 50
90.0
100
AcDbRotatedDimension
  0
DIMENSION
  5
3CC
330
1E
100
AcDbEntity
  8
DIM
100
AcDbDimension
  2
*D18
 10
13.568095
 20
9.020888000000001
 30
0.0
 11
13.568095
 21
10.043388
 31
0.0
 70
    32
  1
<>
 71
     5
 42
2.044999999999999
  3
23NSTD
100
AcDbAlignedDimension
 13
13.06843399999999
 23
11.065888
 33
0.0
 14
13.06843399999999
 24
9.020888000000001
 34
0.0
 50
90.0
100
AcDbRotatedDimension
  0
DIMENSION
  5
3DA
330
1E
100
AcDbEntity
  8
DIM
100
AcDbDimension
  2
*D19
 10
10.818147
 20
11.976774
 30
0.0
 11
9.885334499999999
 21
11.976774
 31
0.0
 70
    32
  1
<>
 71
     5
 42
0.056000000000001
  3
23NSTD
100
AcDbAlignedDimension
 13
10.874147
 23
11.603274
 33
0.0
 14
10.818147
 24
10.44738799999999
 34
0.0
100
AcDbRotatedDimension
  0
DIMENSION
  5
3E8
330
1E
100
AcDbEntity
  8
DIM
100
AcDbDimension
  2
*D20
 10
21.66258099999999
 20
3.939864
 30
0.0
 11
20.037481
 21
3.939864
 31
0.0
 70
    32
  1
<>
 71
     5
 42
3.250199999999999
  3
23NSTD
100
AcDbAlignedDimension
 13
18.41238099999999
 23
4.912791
 33
0.0
 14
21.66258099999999
 24
4.912791
 34
0.0
 50
180.0
100
AcDbRotatedDimension
  0
DIMENSION
  5
3F6
330
1E
100
AcDbEntity
  8
DIM
100
AcDbDimension
  2
*D21
 10
11.28317299999999
 20
10.44738799999999
 30
0.0
 11
11.28317299999999
 21
10.043388
 31
0.0
 70
    32
  1
<>
 71
     5
 42
0.8079999999999998
  3
23NSTD
100
AcDbAlignedDimension
 13
10.874147
 23
9.639388
 33
0.0625
 14
10.874147
 24
10.44738799999999
 34
0.0
 50
90.0
100
AcDbRotatedDimension
  0
DIMENSION
  5
404
330
1E
100
AcDbEntity
  8
DIM
100
AcDbDimension
  2
*D22
 10
11.704673
 20
10.44738799999999
 30
0.0
 11
11.70467299999999
 21
11.025057
 31
0.0
 70
    32
  1
<>
 71
     5
 42
1.155337999999998
  3
23NSTD
100
AcDbAlignedDimension
 13
10.874147
 23
11.60272599999999
 33
0.0
 14
10.874147
 24
10.44738799999999
 34
0.0
 50
90.0
100
AcDbRotatedDimension
  0
DIMENSION
  5
412
330
1E
100
AcDbEntity
  8
DIM
100
AcDbDimension
  2
*D23
 10
16.36343399999999
 20
10.604659
 30
0.0
 11
14.71593399999999
 21
10.604659
 31
0.0
 70
    32
  1
<>
 71
     5
 42
3.294999999999998
  3
23NSTD
100
AcDbAlignedDimension
 13
13.06843399999999
 23
11.065888
 33
0.0
 14
16.36343399999999
 24
11.065888
 34
0.0
100
AcDbRotatedDimension
  0
LINE
  5
420
330
1E
100
AcDbEntity
  8
OBJECT
100
AcDbLine
 10
12.673668
 20
11.490107
 30
0.0
 11
12.699041
 21
11.490107
 31
0.0
  0
LINE
  5
421
330
1E
100
AcDbEntity
  8
OBJECT
100
AcDbLine
 10
12.673668
 20
8.596667999999999
 30
0.0
 11
12.699041
 21
8.596667999999999
 31
0.0
  0
LWPOLYLINE
  5
422
330
1E
100
AcDbEntity
  8
OBJECT
100
AcDbPolyline
 90
        8
 70
     1
 43
0.0
 10
16.809695
 20
8.484049
 10
12.622173
 20
8.484049
 42
-0.4142140000000001
 10
12.524173
 20
8.582049000000001
 10
12.524173
 20
11.504726
 42
-0.4142140000000001
 10
12.622173
 20
11.60272599999999
 10
16.809695
 20
11.60272599999999
 42
-0.4142140000000001
 10
16.907695
 20
11.504726
 10
16.907695
 20
8.582049000000001
 42
-0.4142140000000001
  0
LWPOLYLINE
  5
42C
330
1E
100
AcDbEntity
  8
OBJECT
100
AcDbPolyline
 90
        8
 70
     1
 43
0.0
 10
16.81569599999999
 20
8.418288
 10
12.616173
 20
8.418288
 42
-0.4142140000000001
 10
12.466173
 20
8.568288
 10
12.466173
 20
11.518487
 42
-0.4142140000000001
 10
12.616173
 20
11.66848699999999
 10
16.81569599999999
 20
11.66848699999999
 42
-0.4142140000000001
 10
16.96569599999999
 20
11.518487
 10
16.96569599999999
 20
8.568288
 42
-0.4142140000000001
  0
LWPOLYLINE
  5
436
330
1E
100
AcDbEntity
  8
OBJECT
100
AcDbPolyline
 90
        8
 70
     1
 43
0.0
 10
16.951934
 20
8.58205
 10
16.951934
 20
11.504726
 42
0.4142140000000001
 10
16.801934
 20
11.65472599999999
 10
12.629934
 20
11.65472599999999
 42
0.4142140000000001
 10
12.479934
 20
11.504726
 10
12.479934
 20
8.58205
 42
0.4142140000000001
 10
12.629934
 20
8.43205
 10
16.801934
 20
8.43205
 42
0.4142140000000001
  0
LINE
  5
440
330
1E
100
AcDbEntity
  8
OBJECT
100
AcDbLine
 10
10.818147
 20
9.639388
 30
0.0
 11
10.818147
 21
10.44738799999999
 31
0.0
  0
LINE
  5
441
330
1E
100
AcDbEntity
  8
OBJECT
100
AcDbLine
 10
10.754147
 20
11.65472599999999
 30
0.0
 11
10.754147
 21
8.43205
 31
0.0
  0
LINE
  5
442
330
1E
100
AcDbEntity
  8
OBJECT
100
AcDbLine
 10
10.874147
 20
8.484049999999999
 30
0.0
 11
10.874147
 21
9.639388
 31
0.0
  0
LINE
  5
443
330
1E
100
AcDbEntity
  8
OBJECT
100
AcDbLine
 10
10.818147
 20
9.639388
 30
0.0
 11
10.874147
 21
9.639388
 31
0.0
  0
LINE
  5
444
330
1E
100
AcDbEntity
  8
OBJECT
100
AcDbLine
 10
10.874147
 20
11.60272599999999
 30
0.0
 11
10.874147
 21
10.44738799999999
 31
0.0
  0
LINE
  5
445
330
1E
100
AcDbEntity
  8
OBJECT
100
AcDbLine
 10
10.818147
 20
10.44738799999999
 30
0.0
 11
10.874147
 21
10.44738799999999
 31
0.0
  0
CIRCLE
  5
446
330
1E
100
AcDbEntity
  8
OBJECT
100
AcDbCircle
 10
12.791934
 20
8.744388
 30
0.0
 40
0.1745
  0
LINE
  5
447
330
1E
100
AcDbEntity
  8
OBJECT
100
AcDbLine
 10
12.524173
 20
9.639388
 30
0.0
 11
12.57682599999999
 21
9.639388
 31
0.0
  0
CIRCLE
  5
448
330
1E
100
AcDbEntity
  8
OBJECT
100
AcDbCircle
 10
13.06843399999999
 20
9.020888000000001
 30
0.0
 40
0.09
  0
CIRCLE
  5
449
330
1E
100
AcDbEntity
  8
OBJECT
100
AcDbCircle
 10
13.06843399999999
 20
9.020888000000001
 30
0.0
 40
0.045
  0
CIRCLE
  5
44A
330
1E
100
AcDbEntity
  8
OBJECT
100
AcDbCircle
 10
12.791934
 20
8.744388
 30
0.0
 40
0.056044
  0
CIRCLE
  5
44B
330
1E
100
AcDbEntity
  8
OBJECT
100
AcDbCircle
 10
12.791934
 20
8.744388
 30
0.0
 40
0.110924
  0
ARC
  5
44C
330
1E
100
AcDbEntity
  8
HIDDEN
100
AcDbCircle
 10
14.71593399999999
 20
4.763656
 30
0.0
 40
0.160208
100
AcDbArc
 50
38.717988
 51
141.282012
  0
CIRCLE
  5
44D
330
1E
100
AcDbEntity
  8
OBJECT
100
AcDbCircle
 10
14.71593399999999
 20
10.04338799999999
 30
0.0
 40
0.125
  0
CIRCLE
  5
44E
330
1E
100
AcDbEntity
  8
OBJECT
100
AcDbCircle
 10
12.791934
 20
11.342388
 30
0.0
 40
0.1745
  0
LINE
  5
44F
330
1E
100
AcDbEntity
  8
OBJECT
100
AcDbLine
 10
12.524173
 20
10.44738799999999
 30
0.0
 11
12.57682599999999
 21
10.44738799999999
 31
0.0
  0
CIRCLE
  5
450
330
1E
100
AcDbEntity
  8
OBJECT
100
AcDbCircle
 10
12.791934
 20
11.342388
 30
0.0
 40
0.056044
  0
CIRCLE
  5
451
330
1E
100
AcDbEntity
  8
OBJECT
100
AcDbCircle
 10
12.791934
 20
11.342388
 30
0.0
 40
0.110924
  0
CIRCLE
  5
452
330
1E
100
AcDbEntity
  8
OBJECT
100
AcDbCircle
 10
13.06843399999999
 20
11.065888
 30
0.0
 40
0.09
  0
CIRCLE
  5
453
330
1E
100
AcDbEntity
  8
OBJECT
100
AcDbCircle
 10
13.06843399999999
 20
11.065888
 30
0.0
 40
0.045
  0
LINE
  5
454
330
1E
100
AcDbEntity
  8
OBJECT
100
AcDbLine
 10
16.788201
 20
8.626667999999998
 30
0.0
 11
16.788201
 21
8.652369999999999
 31
0.0
  0
CIRCLE
  5
455
330
1E
100
AcDbEntity
  8
OBJECT
100
AcDbCircle
 10
16.639934
 20
8.744388
 30
0.0
 40
0.110924
  0
CIRCLE
  5
456
330
1E
100
AcDbEntity
  8
OBJECT
100
AcDbCircle
 10
16.639934
 20
8.744388
 30
0.0
 40
0.1745
  0
CIRCLE
  5
457
330
1E
100
AcDbEntity
  8
OBJECT
100
AcDbCircle
 10
16.36343399999999
 20
9.020888000000001
 30
0.0
 40
0.045
  0
CIRCLE
  5
458
330
1E
100
AcDbEntity
  8
OBJECT
100
AcDbCircle
 10
16.36343399999999
 20
9.020888000000001
 30
0.0
 40
0.09
  0
LINE
  5
459
330
1E
100
AcDbEntity
  8
OBJECT
100
AcDbLine
 10
16.907695
 20
8.888887999999999
 30
0.0
 11
16.855042
 21
8.888887999999999
 31
0.0
  0
CIRCLE
  5
45A
330
1E
100
AcDbEntity
  8
OBJECT
100
AcDbCircle
 10
16.639934
 20
8.744388
 30
0.0
 40
0.056044
  0
LINE
  5
45B
330
1E
100
AcDbEntity
  8
OBJECT
100
AcDbLine
 10
16.907695
 20
9.696888000000001
 30
0.0
 11
16.855042
 21
9.696888000000001
 31
0.0
  0
CIRCLE
  5
45C
330
1E
100
AcDbEntity
  8
OBJECT
100
AcDbCircle
 10
16.639934
 20
11.342388
 30
0.0
 40
0.110924
  0
CIRCLE
  5
45D
330
1E
100
AcDbEntity
  8
OBJECT
100
AcDbCircle
 10
16.639934
 20
11.342388
 30
0.0
 40
0.1745
  0
CIRCLE
  5
45E
330
1E
100
AcDbEntity
  8
OBJECT
100
AcDbCircle
 10
16.36343399999999
 20
11.065888
 30
0.0
 40
0.09
  0
CIRCLE
  5
45F
330
1E
100
AcDbEntity
  8
OBJECT
100
AcDbCircle
 10
16.36343399999999
 20
11.065888
 30
0.0
 40
0.045
  0
CIRCLE
  5
460
330
1E
100
AcDbEntity
  8
OBJECT
100
AcDbCircle
 10
16.639934
 20
11.342388
 30
0.0
 40
0.056044
  0
LINE
  5
461
330
1E
100
AcDbEntity
  8
OBJECT
100
AcDbLine
 10
16.907695
 20
11.197888
 30
0.0
 11
16.855042
 21
11.197888
 31
0.0
  0
LINE
  5
462
330
1E
100
AcDbEntity
  8
OBJECT
100
AcDbLine
 10
16.907695
 20
10.389888
 30
0.0
 11
16.855042
 21
10.389888
 31
0.0
  0
LINE
  5
463
330
1E
100
AcDbEntity
  8
OBJECT
100
AcDbLine
 10
20.384032
 20
5.556364
 30
0.0
 11
19.691032
 21
5.556364
 31
0.0
  0
LINE
  5
464
330
1E
100
AcDbEntity
  8
OBJECT
100
AcDbLine
 10
18.562433
 20
4.758863999999999
 30
0.0
 11
21.512632
 21
4.758863999999999
 31
0.0
  0
LINE
  5
465
330
1E
100
AcDbEntity
  8
OBJECT
100
AcDbLine
 10
21.64887
 20
5.436364
 30
0.0
 11
18.426194
 21
5.436364
 31
0.0
  0
LINE
  5
466
330
1E
100
AcDbEntity
  8
OBJECT
100
AcDbLine
 10
18.412433
 20
4.908864
 30
0.0
 11
21.662632
 21
4.908864
 31
0.0
  0
LINE
  5
467
330
1E
100
AcDbEntity
  8
HIDDEN
100
AcDbLine
 10
21.48425199999999
 20
4.858863999999999
 30
0.0
 11
18.590813
 21
4.858863999999999
 31
0.0
  0
LINE
  5
468
330
1E
100
AcDbEntity
  8
HIDDEN
100
AcDbLine
 10
18.925032
 20
5.108863999999999
 30
0.0
 11
19.105032
 21
5.108863999999999
 31
0.0
  0
LINE
  5
469
330
1E
100
AcDbEntity
  8
OBJECT
100
AcDbLine
 10
19.691032
 20
5.480363999999999
 30
0.0
 11
18.883032
 21
5.480363999999999
 31
0.0
  0
LINE
  5
46A
330
1E
100
AcDbEntity
  8
HIDDEN
100
AcDbLine
 10
18.52383999999999
 20
5.556364
 30
0.0
 11
18.54083
 21
4.907555
 31
0.0
  0
LINE
  5
46B
330
1E
100
AcDbEntity
  8
OBJECT
100
AcDbLine
 10
18.426194
 20
5.436364
 30
0.0
 11
18.41248399999999
 21
4.912791
 31
0.0
  0
LINE
  5
46C
330
1E
100
AcDbEntity
  8
HIDDEN
100
AcDbLine
 10
18.85085499999999
 20
5.128864
 30
0.0
 11
18.847117
 21
5.556364
 31
0.0
  0
LINE
  5
46D
330
1E
100
AcDbEntity
  8
HIDDEN
100
AcDbLine
 10
18.62795799999999
 20
5.128864
 30
0.0
 11
18.631697
 21
5.556364
 31
0.0
  0
LINE
  5
46E
330
1E
100
AcDbEntity
  8
HIDDEN
100
AcDbLine
 10
18.68286
 20
5.556364
 30
0.0
 11
18.679129
 21
5.128864
 31
0.0
  0
LINE
  5
46F
330
1E
100
AcDbEntity
  8
HIDDEN
100
AcDbLine
 10
18.79420499999999
 20
5.556364
 30
0.0
 11
18.797936
 21
5.128864
 31
0.0
  0
LINE
  5
470
330
1E
100
AcDbEntity
  8
OBJECT
100
AcDbLine
 10
18.47505199999999
 20
5.436364
 30
0.0
 11
18.478194
 21
5.556364
 31
0.0
  0
LINE
  5
471
330
1E
100
AcDbEntity
  8
OBJECT
100
AcDbLine
 10
18.478194
 20
5.556364
 30
0.0
 11
18.883032
 21
5.556364
 31
0.0
  0
LINE
  5
472
330
1E
100
AcDbEntity
  8
OBJECT
100
AcDbLine
 10
18.883032
 20
5.556364
 30
0.0
 11
18.883032
 21
5.480363999999999
 31
0.0
  0
LINE
  5
473
330
1E
100
AcDbEntity
  8
HIDDEN
100
AcDbLine
 10
18.85288
 20
4.789841
 30
0.0
 11
18.624185
 21
4.789841
 31
0.0
  0
ARC
  5
474
330
1E
100
AcDbEntity
  8
HIDDEN
100
AcDbCircle
 10
18.884129
 20
4.790113999999999
 30
0.0
 40
0.03125
100
AcDbArc
 50
180.4999999999999
 51
270.0
  0
ARC
  5
475
330
1E
100
AcDbEntity
  8
HIDDEN
100
AcDbCircle
 10
18.59293599999999
 20
4.790113999999999
 30
0.0
 40
0.03125
100
AcDbArc
 50
270.0
 51
359.5
  0
LINE
  5
476
330
1E
100
AcDbEntity
  8
HIDDEN
100
AcDbLine
 10
18.564032
 20
5.128864
 30
0.0
 11
18.56176199999999
 21
4.868655999999999
 31
0.0
  0
LINE
  5
477
330
1E
100
AcDbEntity
  8
HIDDEN
100
AcDbLine
 10
18.626532
 20
5.058863999999999
 30
0.0
 11
18.624185
 21
4.789841
 31
0.0
  0
LINE
  5
478
330
1E
100
AcDbEntity
  8
HIDDEN
100
AcDbLine
 10
18.913032
 20
5.128864
 30
0.0
 11
18.915389
 21
4.858863999999999
 31
0.0
  0
LINE
  5
479
330
1E
100
AcDbEntity
  8
HIDDEN
100
AcDbLine
 10
18.850532
 20
5.058863999999999
 30
0.0
 11
18.85288
 21
4.789841
 31
0.0
  0
LINE
  5
47A
330
1E
100
AcDbEntity
  8
HIDDEN
100
AcDbLine
 10
18.850532
 20
5.058863999999999
 30
0.0
 11
18.798285
 21
5.128864
 31
0.0
  0
LINE
  5
47B
330
1E
100
AcDbEntity
  8
HIDDEN
100
AcDbLine
 10
18.626532
 20
5.058863999999999
 30
0.0
 11
18.67878
 21
5.128864
 31
0.0
  0
LINE
  5
47C
330
1E
100
AcDbEntity
  8
HIDDEN
100
AcDbLine
 10
18.850532
 20
5.058863999999999
 30
0.0
 11
18.626532
 21
5.058863999999999
 31
0.0
  0
LINE
  5
47D
330
1E
100
AcDbEntity
  8
HIDDEN
100
AcDbLine
 10
18.913032
 20
5.128864
 30
0.0
 11
18.564032
 21
5.128864
 31
0.0
  0
LINE
  5
47E
330
1E
100
AcDbEntity
  8
HIDDEN
100
AcDbLine
 10
18.925032
 20
5.108863999999999
 30
0.0
 11
18.922851
 21
4.858863999999999
 31
0.0
  0
LINE
  5
47F
330
1E
100
AcDbEntity
  8
HIDDEN
100
AcDbLine
 10
18.970032
 20
5.108863999999999
 30
0.0
 11
18.972214
 21
4.858863999999999
 31
0.0
  0
ARC
  5
480
330
1E
100
AcDbEntity
  8
OBJECT
100
AcDbCircle
 10
18.562433
 20
4.908864
 30
0.0
 40
0.15
100
AcDbArc
 50
178.5
 51
270.0
  0
ARC
  5
481
330
1E
100
AcDbEntity
  8
HIDDEN
100
AcDbCircle
 10
18.590813
 20
4.908864
 30
0.0
 40
0.05
100
AcDbArc
 50
181.4999999999999
 51
270.0
  0
LINE
  5
482
330
1E
100
AcDbEntity
  8
OBJECT
100
AcDbLine
 10
19.691032
 20
5.556364
 30
0.0
 11
19.691032
 21
5.480363999999999
 31
0.0
  0
ARC
  5
483
330
1E
100
AcDbEntity
  8
HIDDEN
100
AcDbCircle
 10
20.037532
 20
4.758655999999999
 30
0.0
 40
0.160208
100
AcDbArc
 50
38.717988
 51
141.282012
  0
LINE
  5
484
330
1E
100
AcDbEntity
  8
HIDDEN
100
AcDbLine
 10
19.105032
 20
5.108863999999999
 30
0.0
 11
19.107214
 21
4.858863999999999
 31
0.0
  0
LINE
  5
485
330
1E
100
AcDbEntity
  8
HIDDEN
100
AcDbLine
 10
19.06003199999999
 20
5.108863999999999
 30
0.0
 11
19.057851
 21
4.858863999999999
 31
0.0
  0
LINE
  5
486
330
1E
100
AcDbEntity
  8
HIDDEN
100
AcDbLine
 10
21.224532
 20
5.058863999999999
 30
0.0
 11
21.448532
 21
5.058863999999999
 31
0.0
  0
LINE
  5
487
330
1E
100
AcDbEntity
  8
HIDDEN
100
AcDbLine
 10
21.222185
 20
4.789841
 30
0.0
 11
21.45087999999999
 21
4.789841
 31
0.0
  0
LINE
  5
488
330
1E
100
AcDbEntity
  8
HIDDEN
100
AcDbLine
 10
21.162032
 20
5.128864
 30
0.0
 11
21.511032
 21
5.128864
 31
0.0
  0
LINE
  5
489
330
1E
100
AcDbEntity
  8
OBJECT
100
AcDbLine
 10
21.59687
 20
5.556364
 30
0.0
 11
21.192032
 21
5.556364
 31
0.0
  0
LINE
  5
48A
330
1E
100
AcDbEntity
  8
HIDDEN
100
AcDbLine
 10
21.28086
 20
5.556364
 30
0.0
 11
21.277129
 21
5.128864
 31
0.0
  0
LINE
  5
48B
330
1E
100
AcDbEntity
  8
HIDDEN
100
AcDbLine
 10
21.22420899999999
 20
5.128864
 30
0.0
 11
21.227948
 21
5.556364
 31
0.0
  0
LINE
  5
48C
330
1E
100
AcDbEntity
  8
OBJECT
100
AcDbLine
 10
21.192032
 20
5.556364
 30
0.0
 11
21.192032
 21
5.480363999999999
 31
0.0
  0
LINE
  5
48D
330
1E
100
AcDbEntity
  8
OBJECT
100
AcDbLine
 10
20.384032
 20
5.556364
 30
0.0
 11
20.384032
 21
5.480363999999999
 31
0.0
  0
LINE
  5
48E
330
1E
100
AcDbEntity
  8
OBJECT
100
AcDbLine
 10
21.192032
 20
5.480363999999999
 30
0.0
 11
20.384032
 21
5.480363999999999
 31
0.0
  0
LINE
  5
48F
330
1E
100
AcDbEntity
  8
HIDDEN
100
AcDbLine
 10
21.224532
 20
5.058863999999999
 30
0.0
 11
21.27677999999999
 21
5.128864
 31
0.0
  0
LINE
  5
490
330
1E
100
AcDbEntity
  8
HIDDEN
100
AcDbLine
 10
21.224532
 20
5.058863999999999
 30
0.0
 11
21.222185
 21
4.789841
 31
0.0
  0
LINE
  5
491
330
1E
100
AcDbEntity
  8
HIDDEN
100
AcDbLine
 10
21.162032
 20
5.128864
 30
0.0
 11
21.159676
 21
4.858863999999999
 31
0.0
  0
ARC
  5
492
330
1E
100
AcDbEntity
  8
HIDDEN
100
AcDbCircle
 10
21.19093599999999
 20
4.790113999999999
 30
0.0
 40
0.03125
100
AcDbArc
 50
270.0
 51
359.5
  0
LINE
  5
493
330
1E
100
AcDbEntity
  8
HIDDEN
100
AcDbLine
 10
21.015032
 20
5.108863999999999
 30
0.0
 11
21.017214
 21
4.858863999999999
 31
0.0
  0
LINE
  5
494
330
1E
100
AcDbEntity
  8
HIDDEN
100
AcDbLine
 10
21.105032
 20
5.108863999999999
 30
0.0
 11
21.102851
 21
4.858863999999999
 31
0.0
  0
LINE
  5
495
330
1E
100
AcDbEntity
  8
HIDDEN
100
AcDbLine
 10
21.15003199999999
 20
5.108863999999999
 30
0.0
 11
21.152214
 21
4.858863999999999
 31
0.0
  0
LINE
  5
496
330
1E
100
AcDbEntity
  8
HIDDEN
100
AcDbLine
 10
20.970032
 20
5.108863999999999
 30
0.0
 11
20.96785099999999
 21
4.858863999999999
 31
0.0
  0
LINE
  5
497
330
1E
100
AcDbEntity
  8
HIDDEN
100
AcDbLine
 10
21.15003199999999
 20
5.108863999999999
 30
0.0
 11
20.970032
 21
5.108863999999999
 31
0.0
  0
LINE
  5
498
330
1E
100
AcDbEntity
  8
HIDDEN
100
AcDbLine
 10
21.55122399999999
 20
5.556364
 30
0.0
 11
21.534235
 21
4.907555
 31
0.0
  0
LINE
  5
499
330
1E
100
AcDbEntity
  8
OBJECT
100
AcDbLine
 10
21.64887
 20
5.436364
 30
0.0
 11
21.66258099999999
 21
4.912791
 31
0.0
  0
LINE
  5
49A
330
1E
100
AcDbEntity
  8
HIDDEN
100
AcDbLine
 10
21.39220499999999
 20
5.556364
 30
0.0
 11
21.39593599999999
 21
5.128864
 31
0.0
  0
LINE
  5
49B
330
1E
100
AcDbEntity
  8
HIDDEN
100
AcDbLine
 10
21.44710599999999
 20
5.128864
 30
0.0
 11
21.443368
 21
5.556364
 31
0.0
  0
LINE
  5
49C
330
1E
100
AcDbEntity
  8
OBJECT
100
AcDbLine
 10
21.600013
 20
5.436364
 30
0.0
 11
21.59687
 21
5.556364
 31
0.0
  0
LINE
  5
49D
330
1E
100
AcDbEntity
  8
HIDDEN
100
AcDbLine
 10
21.448532
 20
5.058863999999999
 30
0.0
 11
21.396285
 21
5.128864
 31
0.0
  0
LINE
  5
49E
330
1E
100
AcDbEntity
  8
HIDDEN
100
AcDbLine
 10
21.448532
 20
5.058863999999999
 30
0.0
 11
21.45087999999999
 21
4.789841
 31
0.0
  0
LINE
  5
49F
330
1E
100
AcDbEntity
  8
HIDDEN
100
AcDbLine
 10
21.511032
 20
5.128864
 30
0.0
 11
21.513303
 21
4.868655999999999
 31
0.0
  0
ARC
  5
4A0
330
1E
100
AcDbEntity
  8
HIDDEN
100
AcDbCircle
 10
21.482129
 20
4.790113999999999
 30
0.0
 40
0.03125
100
AcDbArc
 50
180.4999999999999
 51
270.0
  0
ARC
  5
4A1
330
1E
100
AcDbEntity
  8
OBJECT
100
AcDbCircle
 10
21.512632
 20
4.908864
 30
0.0
 40
0.15
100
AcDbArc
 50
270.0
 51
1.5
  0
ARC
  5
4A2
330
1E
100
AcDbEntity
  8
HIDDEN
100
AcDbCircle
 10
21.48425199999999
 20
4.908864
 30
0.0
 40
0.05
100
AcDbArc
 50
270.0
 51
358.4999999999999
  0
DIMENSION
  5
4A3
330
1E
100
AcDbEntity
  8
DIM
100
AcDbDimension
  2
*D24
 10
11.986673
 20
8.484049999999999
 30
0.0
 11
11.98667299999999
 21
9.061719000000001
 31
0.0
 70
    32
 71
     5
 42
1.155338
  3
23NSTD
100
AcDbAlignedDimension
 13
10.874147
 23
9.639388
 33
0.0
 14
10.874147
 24
8.484049999999999
 34
0.0
 50
90.0
100
AcDbRotatedDimension
  0
DIMENSION
  5
4B1
330
1E
100
AcDbEntity
  8
DIM
100
AcDbDimension
  2
*D25
 10
21.59687
 20
6.558383999999999
 30
0.0
 11
22.5296825
 21
6.558383999999999
 31
0.0
 70
    32
 71
     5
 42
0.4048380000000016
  3
23NSTD
100
AcDbAlignedDimension
 13
21.192032
 23
5.556364
 33
0.0
 14
21.59687
 24
5.556364
 34
0.0
100
AcDbRotatedDimension
  0
DIMENSION
  5
4BF
330
1E
100
AcDbEntity
  8
DIM
100
AcDbDimension
  2
*D26
 10
18.478194
 20
6.558383999999999
 30
0.0
 11
17.5453815
 21
6.558383999999999
 31
0.0
 70
    32
 71
     5
 42
0.4048379999999981
  3
23NSTD
100
AcDbAlignedDimension
 13
18.883032
 23
5.556364
 33
0.0
 14
18.478194
 24
5.556364
 34
0.0
100
AcDbRotatedDimension
  0
DIMENSION
  5
4CD
330
1E
100
AcDbEntity
  8
DIM
100
AcDbDimension
  2
*D27
 10
16.96569599999999
 20
4.420576999999999
 30
0.0
 11
14.7159345
 21
4.420576999999999
 31
0.0
 70
    32
 71
     5
 42
4.499522999999998
  3
23NSTD
100
AcDbAlignedDimension
 13
12.466173
 23
4.908864
 33
0.0
 14
16.96569599999999
 24
4.908864
 34
0.0
100
AcDbRotatedDimension
  0
DIMENSION
  5
4DB
330
1E
100
AcDbEntity
  8
DIM
100
AcDbDimension
  2
*D28
 10
16.951934
 20
5.959019
 30
0.0
 11
14.715934
 21
5.959019
 31
0.0
 70
    32
 71
     5
 42
4.472000000000001
  3
23NSTD
100
AcDbAlignedDimension
 13
12.479934
 23
5.436364
 33
0.0
 14
16.951934
 24
5.436364
 34
0.0
100
AcDbRotatedDimension
  0
LINE
  5
4E9
330
1E
100
AcDbEntity
  8
OBJECT
100
AcDbLine
 10
12.479934
 20
5.436364
 30
0.0
 11
16.951934
 21
5.436364
 31
0.0
  0
LINE
  5
4EA
330
1E
100
AcDbEntity
  8
OBJECT
100
AcDbLine
 10
12.616173
 20
4.758863999999999
 30
0.0
 11
16.81569599999999
 21
4.758863999999999
 31
0.0
  0
LINE
  5
4EB
330
1E
100
AcDbEntity
  8
OBJECT
100
AcDbLine
 10
16.89993399999999
 20
5.556364
 30
0.0
 11
12.531934
 21
5.556364
 31
0.0
  0
LINE
  5
4EC
330
1E
100
AcDbEntity
  8
OBJECT
100
AcDbLine
 10
12.466173
 20
4.908864
 30
0.0
 11
16.96569599999999
 21
4.908864
 31
0.0
  0
LINE
  5
4ED
330
1E
100
AcDbEntity
  8
OBJECT
100
AcDbLine
 10
16.966004
 20
4.89908
 30
0.0
 11
16.951934
 21
5.436364
 31
0.0
  0
ARC
  5
4EE
330
1E
100
AcDbEntity
  8
OBJECT
100
AcDbCircle
 10
16.81569599999999
 20
4.908864
 30
0.0
 40
0.15
100
AcDbArc
 50
270.0
 51
1.5
  0
LINE
  5
4EF
330
1E
100
AcDbEntity
  8
OBJECT
100
AcDbLine
 10
16.90307699999999
 20
5.436364
 30
0.0
 11
16.89993399999999
 21
5.556364
 31
0.0
  0
LINE
  5
4F0
330
1E
100
AcDbEntity
  8
OBJECT
100
AcDbLine
 10
12.479934
 20
5.436364
 30
0.0
 11
12.466224
 21
4.912791
 31
0.0
  0
ARC
  5
4F1
330
1E
100
AcDbEntity
  8
OBJECT
100
AcDbCircle
 10
12.616173
 20
4.908864
 30
0.0
 40
0.15
100
AcDbArc
 50
178.5
 51
270.0
  0
LINE
  5
4F2
330
1E
100
AcDbEntity
  8
OBJECT
100
AcDbLine
 10
12.52879199999999
 20
5.436364
 30
0.0
 11
12.531934
 21
5.556364
 31
0.0
  0
LINE
  5
4F3
330
1E
100
AcDbEntity
  8
HIDDEN
100
AcDbLine
 10
10.176647
 20
11.490107
 30
0.0
 11
10.176647
 21
8.596667999999999
 31
0.0
  0
LINE
  5
4F4
330
1E
100
AcDbEntity
  8
OBJECT
100
AcDbLine
 10
10.22664699999999
 20
8.418288
 30
0.0
 11
10.22664699999999
 21
11.66848699999999
 31
0.0
  0
LINE
  5
4F5
330
1E
100
AcDbEntity
  8
OBJECT
100
AcDbLine
 10
10.076647
 20
8.568288
 30
0.0
 11
10.076647
 21
11.518487
 31
0.0
  0
LINE
  5
4F6
330
1E
100
AcDbEntity
  8
HIDDEN
100
AcDbLine
 10
10.446647
 20
8.918888
 30
0.0
 11
10.446647
 21
8.569888
 31
0.0
  0
LINE
  5
4F7
330
1E
100
AcDbEntity
  8
HIDDEN
100
AcDbLine
 10
10.376647
 20
8.856388
 30
0.0
 11
10.376647
 21
8.632388
 31
0.0
  0
LINE
  5
4F8
330
1E
100
AcDbEntity
  8
HIDDEN
100
AcDbLine
 10
10.376647
 20
8.856388
 30
0.0
 11
10.446647
 21
8.80414
 31
0.0
  0
LINE
  5
4F9
330
1E
100
AcDbEntity
  8
HIDDEN
100
AcDbLine
 10
10.107624
 20
8.858735000000001
 30
0.0
 11
10.107624
 21
8.630039999999999
 31
0.0
  0
LINE
  5
4FA
330
1E
100
AcDbEntity
  8
HIDDEN
100
AcDbLine
 10
10.376647
 20
8.632388
 30
0.0
 11
10.446647
 21
8.684635
 31
0.0
  0
LINE
  5
4FB
330
1E
100
AcDbEntity
  8
HIDDEN
100
AcDbLine
 10
10.446647
 20
8.569888
 30
0.0
 11
10.186439
 21
8.567617
 31
0.0
  0
LINE
  5
4FC
330
1E
100
AcDbEntity
  8
OBJECT
100
AcDbLine
 10
10.754147
 20
8.43205
 30
0.0
 11
10.230574
 21
8.418338999999999
 31
0.0
  0
LINE
  5
4FD
330
1E
100
AcDbEntity
  8
HIDDEN
100
AcDbLine
 10
10.874147
 20
8.529696000000001
 30
0.0
 11
10.225338
 21
8.546685
 31
0.0
  0
LINE
  5
4FE
330
1E
100
AcDbEntity
  8
HIDDEN
100
AcDbLine
 10
10.874147
 20
8.80006
 30
0.0
 11
10.446647
 21
8.803791
 31
0.0
  0
LINE
  5
4FF
330
1E
100
AcDbEntity
  8
HIDDEN
100
AcDbLine
 10
10.874147
 20
8.688715
 30
0.0
 11
10.446647
 21
8.684984
 31
0.0
  0
LINE
  5
500
330
1E
100
AcDbEntity
  8
HIDDEN
100
AcDbLine
 10
10.446647
 20
8.633813999999999
 30
0.0
 11
10.874147
 21
8.637552000000001
 31
0.0
  0
ARC
  5
501
330
1E
100
AcDbEntity
  8
OBJECT
100
AcDbCircle
 10
10.22664699999999
 20
8.568288
 30
0.0
 40
0.15
100
AcDbArc
 50
180.0
 51
271.4999999999999
  0
ARC
  5
502
330
1E
100
AcDbEntity
  8
HIDDEN
100
AcDbCircle
 10
10.22664699999999
 20
8.596667999999999
 30
0.0
 40
0.05
100
AcDbArc
 50
180.0
 51
268.5
  0
LINE
  5
503
330
1E
100
AcDbEntity
  8
HIDDEN
100
AcDbLine
 10
10.376647
 20
8.632388
 30
0.0
 11
10.107624
 21
8.630039999999999
 31
0.0
  0
ARC
  5
504
330
1E
100
AcDbEntity
  8
HIDDEN
100
AcDbCircle
 10
10.10789699999999
 20
8.598791
 30
0.0
 40
0.03125
100
AcDbArc
 50
90.5
 51
180.0
  0
LINE
  5
505
330
1E
100
AcDbEntity
  8
HIDDEN
100
AcDbLine
 10
10.446647
 20
8.918888
 30
0.0
 11
10.176647
 21
8.921243999999999
 31
0.0
  0
LINE
  5
506
330
1E
100
AcDbEntity
  8
HIDDEN
100
AcDbLine
 10
10.446647
 20
8.856711
 30
0.0
 11
10.874147
 21
8.852971999999999
 31
0.0
  0
LINE
  5
507
330
1E
100
AcDbEntity
  8
HIDDEN
100
AcDbLine
 10
10.426647
 20
8.930888000000001
 30
0.0
 11
10.426647
 21
9.110888
 31
0.0
  0
LINE
  5
508
330
1E
100
AcDbEntity
  8
HIDDEN
100
AcDbLine
 10
10.426647
 20
8.930888000000001
 30
0.0
 11
10.176647
 21
8.928706
 31
0.0
  0
LINE
  5
509
330
1E
100
AcDbEntity
  8
HIDDEN
100
AcDbLine
 10
10.426647
 20
8.975888000000001
 30
0.0
 11
10.176647
 21
8.978068999999999
 31
0.0
  0
LINE
  5
50A
330
1E
100
AcDbEntity
  8
HIDDEN
100
AcDbLine
 10
10.426647
 20
9.110888
 30
0.0
 11
10.176647
 21
9.113068999999999
 31
0.0
  0
LINE
  5
50B
330
1E
100
AcDbEntity
  8
HIDDEN
100
AcDbLine
 10
10.426647
 20
9.065888000000001
 30
0.0
 11
10.176647
 21
9.063705999999999
 31
0.0
  0
LINE
  5
50C
330
1E
100
AcDbEntity
  8
HIDDEN
100
AcDbLine
 10
10.376647
 20
8.856388
 30
0.0
 11
10.107624
 21
8.858735000000001
 31
0.0
  0
ARC
  5
50D
330
1E
100
AcDbEntity
  8
HIDDEN
100
AcDbCircle
 10
10.10789699999999
 20
8.889984
 30
0.0
 40
0.03125
100
AcDbArc
 50
180.0
 51
269.5
  0
ARC
  5
50E
330
1E
100
AcDbEntity
  8
HIDDEN
100
AcDbCircle
 10
10.076439
 20
10.04338799999999
 30
0.0
 40
0.160208
100
AcDbArc
 50
308.7179879999999
 51
51.282012
  0
LINE
  5
50F
330
1E
100
AcDbEntity
  8
HIDDEN
100
AcDbLine
 10
10.426647
 20
11.155888
 30
0.0
 11
10.426647
 21
10.975888
 31
0.0
  0
LINE
  5
510
330
1E
100
AcDbEntity
  8
HIDDEN
100
AcDbLine
 10
10.426647
 20
11.020888
 30
0.0
 11
10.176647
 21
11.023069
 31
0.0
  0
LINE
  5
511
330
1E
100
AcDbEntity
  8
HIDDEN
100
AcDbLine
 10
10.426647
 20
10.975888
 30
0.0
 11
10.176647
 21
10.973706
 31
0.0
  0
LINE
  5
512
330
1E
100
AcDbEntity
  8
HIDDEN
100
AcDbLine
 10
10.446647
 20
11.516888
 30
0.0
 11
10.186439
 21
11.519158
 31
0.0
  0
LINE
  5
513
330
1E
100
AcDbEntity
  8
HIDDEN
100
AcDbLine
 10
10.376647
 20
11.45438799999999
 30
0.0
 11
10.446647
 21
11.40214
 31
0.0
  0
LINE
  5
514
330
1E
100
AcDbEntity
  8
OBJECT
100
AcDbLine
 10
10.754147
 20
11.65472599999999
 30
0.0
 11
10.230574
 21
11.66843599999999
 31
0.0
  0
LINE
  5
515
330
1E
100
AcDbEntity
  8
HIDDEN
100
AcDbLine
 10
10.874147
 20
11.55708
 30
0.0
 11
10.225338
 21
11.54009
 31
0.0
  0
LINE
  5
516
330
1E
100
AcDbEntity
  8
HIDDEN
100
AcDbLine
 10
10.446647
 20
11.16788799999999
 30
0.0
 11
10.176647
 21
11.16553099999999
 31
0.0
  0
LINE
  5
517
330
1E
100
AcDbEntity
  8
HIDDEN
100
AcDbLine
 10
10.376647
 20
11.230388
 30
0.0
 11
10.446647
 21
11.282635
 31
0.0
  0
LINE
  5
518
330
1E
100
AcDbEntity
  8
HIDDEN
100
AcDbLine
 10
10.446647
 20
11.16788799999999
 30
0.0
 11
10.446647
 21
11.516888
 31
0.0
  0
LINE
  5
519
330
1E
100
AcDbEntity
  8
HIDDEN
100
AcDbLine
 10
10.446647
 20
11.45296199999999
 30
0.0
 11
10.874147
 21
11.44922299999999
 31
0.0
  0
LINE
  5
51A
330
1E
100
AcDbEntity
  8
HIDDEN
100
AcDbLine
 10
10.874147
 20
11.39806
 30
0.0
 11
10.446647
 21
11.401791
 31
0.0
  0
LINE
  5
51B
330
1E
100
AcDbEntity
  8
HIDDEN
100
AcDbLine
 10
10.446647
 20
11.230065
 30
0.0
 11
10.874147
 21
11.23380299999999
 31
0.0
  0
LINE
  5
51C
330
1E
100
AcDbEntity
  8
HIDDEN
100
AcDbLine
 10
10.874147
 20
11.286715
 30
0.0
 11
10.446647
 21
11.282984
 31
0.0
  0
ARC
  5
51D
330
1E
100
AcDbEntity
  8
HIDDEN
100
AcDbCircle
 10
10.10789699999999
 20
11.48798399999999
 30
0.0
 40
0.03125
100
AcDbArc
 50
180.0
 51
269.5
  0
LINE
  5
51E
330
1E
100
AcDbEntity
  8
HIDDEN
100
AcDbLine
 10
10.426647
 20
11.110888
 30
0.0
 11
10.176647
 21
11.10870599999999
 31
0.0
  0
LINE
  5
51F
330
1E
100
AcDbEntity
  8
HIDDEN
100
AcDbLine
 10
10.426647
 20
11.155888
 30
0.0
 11
10.176647
 21
11.15806899999999
 31
0.0
  0
LINE
  5
520
330
1E
100
AcDbEntity
  8
HIDDEN
100
AcDbLine
 10
10.376647
 20
11.45438799999999
 30
0.0
 11
10.107624
 21
11.456735
 31
0.0
  0
LINE
  5
521
330
1E
100
AcDbEntity
  8
HIDDEN
100
AcDbLine
 10
10.376647
 20
11.230388
 30
0.0
 11
10.107624
 21
11.22804
 31
0.0
  0
LINE
  5
522
330
1E
100
AcDbEntity
  8
HIDDEN
100
AcDbLine
 10
10.376647
 20
11.230388
 30
0.0
 11
10.376647
 21
11.45438799999999
 31
0.0
  0
ARC
  5
523
330
1E
100
AcDbEntity
  8
HIDDEN
100
AcDbCircle
 10
10.10789699999999
 20
11.196791
 30
0.0
 40
0.03125
100
AcDbArc
 50
90.5
 51
180.0
  0
LINE
  5
524
330
1E
100
AcDbEntity
  8
HIDDEN
100
AcDbLine
 10
10.107624
 20
11.22804
 30
0.0
 11
10.107624
 21
11.456735
 31
0.0
  0
ARC
  5
525
330
1E
100
AcDbEntity
  8
OBJECT
100
AcDbCircle
 10
10.22664699999999
 20
11.518487
 30
0.0
 40
0.15
100
AcDbArc
 50
88.49999999999999
 51
180.0
  0
ARC
  5
526
330
1E
100
AcDbEntity
  8
HIDDEN
100
AcDbCircle
 10
10.22664699999999
 20
11.490107
 30
0.0
 40
0.05
100
AcDbArc
 50
91.5
 51
180.0
  0
LINE
  5
527
330
1E
100
AcDbEntity
  8
OBJECT
100
AcDbLine
 10
12.643668
 20
8.626667999999998
 30
0.0
 11
12.643668
 21
8.652369999999999
 31
0.0
  0
ARC
  5
528
330
1E
100
AcDbEntity
  8
OBJECT
100
AcDbCircle
 10
12.673668
 20
11.460107
 30
0.0
 40
0.03
100
AcDbArc
 50
90.0
 51
180.0
  0
ARC
  5
529
330
1E
100
AcDbEntity
  8
OBJECT
100
AcDbCircle
 10
12.673668
 20
8.626667999999998
 30
0.0
 40
0.03
100
AcDbArc
 50
180.0
 51
270.0
  0
ARC
  5
52A
330
1E
100
AcDbEntity
  8
OBJECT
100
AcDbCircle
 10
16.758201
 20
8.626667999999998
 30
0.0
 40
0.03
100
AcDbArc
 50
270.0
 51
0.0
  0
ARC
  5
52B
330
1E
100
AcDbEntity
  8
OBJECT
100
AcDbCircle
 10
16.758201
 20
11.460107
 30
0.0
 40
0.03
100
AcDbArc
 50
0.0
 51
90.0
  0
LINE
  5
52C
330
1E
100
AcDbEntity
  8
OBJECT
100
AcDbLine
 10
16.732828
 20
11.490107
 30
0.0
 11
16.758201
 21
11.490107
 31
0.0
  0
LINE
  5
52D
330
1E
100
AcDbEntity
  8
OBJECT
100
AcDbLine
 10
16.788201
 20
11.43440599999999
 30
0.0
 11
16.788201
 21
11.460107
 31
0.0
  0
LINE
  5
52E
330
1E
100
AcDbEntity
  8
OBJECT
100
AcDbLine
 10
16.788201
 20
8.836406
 30
0.0
 11
16.788201
 21
11.25037
 31
0.0
  0
LINE
  5
52F
330
1E
100
AcDbEntity
  8
OBJECT
100
AcDbLine
 10
16.732828
 20
8.596667999999999
 30
0.0
 11
16.758201
 21
8.596667999999999
 31
0.0
  0
LINE
  5
530
330
1E
100
AcDbEntity
  8
OBJECT
100
AcDbLine
 10
12.884828
 20
8.596667999999999
 30
0.0
 11
16.547041
 21
8.596667999999999
 31
0.0
  0
LINE
  5
531
330
1E
100
AcDbEntity
  8
OBJECT
100
AcDbLine
 10
12.643668
 20
8.836406
 30
0.0
 11
12.643668
 21
11.25037
 31
0.0
  0
LINE
  5
532
330
1E
100
AcDbEntity
  8
OBJECT
100
AcDbLine
 10
12.884828
 20
11.490107
 30
0.0
 11
16.547041
 21
11.490107
 31
0.0
  0
LINE
  5
533
330
1E
100
AcDbEntity
  8
OBJECT
100
AcDbLine
 10
12.643668
 20
11.43440599999999
 30
0.0
 11
12.643668
 21
11.460107
 31
0.0
  0
LINE
  5
534
330
1E
100
AcDbEntity
  8
OBJECT
100
AcDbLine
 10
10.754147
 20
8.480907
 30
0.0
 11
10.874147
 21
8.484049999999999
 31
0.0
  0
LINE
  5
535
330
1E
100
AcDbEntity
  8
OBJECT
100
AcDbLine
 10
10.754147
 20
11.60586799999999
 30
0.0
 11
10.874147
 21
11.60272599999999
 31
0.0
  0
LWPOLYLINE
  5
536
330
1E
100
AcDbEntity
  8
OBJECT
100
AcDbPolyline
 90
        8
 70
     1
 43
0.0
 10
16.809695
 20
8.536049
 10
12.622173
 20
8.536049
 42
-0.4142140000000001
 10
12.57617299999999
 20
8.582049000000001
 10
12.57617299999999
 20
11.504726
 42
-0.4142140000000001
 10
12.622173
 20
11.550726
 10
16.809695
 20
11.550726
 42
-0.4142140000000001
 10
16.855695
 20
11.504726
 10
16.855695
 20
8.582049000000001
 42
-0.4142140000000001
  0
LWPOLYLINE
  5
540
330
1E
100
AcDbEntity
  8
HIDDEN
100
AcDbPolyline
 90
        8
 70
     1
 43
0.0
 10
16.809695
 20
0.8436879999999998
 10
12.622173
 20
0.8436879999999998
 42
-0.4142140000000001
 10
12.524173
 20
0.9416879999999999
 10
12.524173
 20
3.864364
 42
-0.4142140000000001
 10
12.622173
 20
3.962363999999999
 10
16.809695
 20
3.962363999999999
 42
-0.4142140000000001
 10
16.907695
 20
3.864364
 10
16.907695
 20
0.9416879999999999
 42
-0.4142140000000001
  0
LINE
  5
54A
330
1E
100
AcDbEntity
  8
HIDDEN
100
AcDbLine
 10
12.884828
 20
0.9563069999999999
 30
0.0
 11
16.547041
 21
0.9563069999999999
 31
0.0
  0
LINE
  5
54B
330
1E
100
AcDbEntity
  8
HIDDEN
100
AcDbLine
 10
12.884828
 20
3.849744999999999
 30
0.0
 11
16.547041
 21
3.849744999999999
 31
0.0
  0
LWPOLYLINE
  5
54C
330
1E
100
AcDbEntity
  8
HIDDEN
100
AcDbPolyline
 90
        8
 70
     1
 43
0.0
 10
16.809695
 20
0.8956879999999999
 10
12.622173
 20
0.8956879999999999
 42
-0.4142140000000001
 10
12.57617299999999
 20
0.9416879999999999
 10
12.57617299999999
 20
3.864364
 42
-0.4142140000000001
 10
12.622173
 20
3.910363999999999
 10
16.809695
 20
3.910363999999999
 42
-0.4142140000000001
 10
16.855695
 20
3.864364
 10
16.855695
 20
0.9416879999999999
 42
-0.4142140000000001
  0
LINE
  5
556
330
1E
100
AcDbEntity
  8
HIDDEN
100
AcDbLine
 10
12.643668
 20
1.196044
 30
0.0
 11
12.643668
 21
3.610008
 31
0.0
  0
CIRCLE
  5
557
330
1E
100
AcDbEntity
  8
HIDDEN
100
AcDbCircle
 10
12.791934
 20
1.104025999999999
 30
0.0
 40
0.1745
  0
CIRCLE
  5
558
330
1E
100
AcDbEntity
  8
OBJECT
100
AcDbCircle
 10
12.791934
 20
1.104025999999999
 30
0.0
 40
0.056044
  0
LINE
  5
559
330
1E
100
AcDbEntity
  8
HIDDEN
100
AcDbLine
 10
12.673668
 20
0.9563069999999999
 30
0.0
 11
12.699041
 21
0.9563069999999999
 31
0.0
  0
LINE
  5
55A
330
1E
100
AcDbEntity
  8
HIDDEN
100
AcDbLine
 10
12.643668
 20
0.9863069999999998
 30
0.0
 11
12.643668
 21
1.012008
 31
0.0
  0
ARC
  5
55B
330
1E
100
AcDbEntity
  8
HIDDEN
100
AcDbCircle
 10
12.673668
 20
0.9863069999999998
 30
0.0
 40
0.03
100
AcDbArc
 50
180.0
 51
270.0
  0
CIRCLE
  5
55C
330
1E
100
AcDbEntity
  8
HIDDEN
100
AcDbCircle
 10
13.06843399999999
 20
1.380525999999999
 30
0.0
 40
0.09
  0
CIRCLE
  5
55D
330
1E
100
AcDbEntity
  8
HIDDEN
100
AcDbCircle
 10
13.06843399999999
 20
1.380525999999999
 30
0.0
 40
0.045
  0
CIRCLE
  5
55E
330
1E
100
AcDbEntity
  8
HIDDEN
100
AcDbCircle
 10
12.791934
 20
3.702026
 30
0.0
 40
0.1745
  0
CIRCLE
  5
55F
330
1E
100
AcDbEntity
  8
OBJECT
100
AcDbCircle
 10
12.791934
 20
3.702026
 30
0.0
 40
0.056044
  0
LINE
  5
560
330
1E
100
AcDbEntity
  8
HIDDEN
100
AcDbLine
 10
12.643668
 20
3.794044
 30
0.0
 11
12.643668
 21
3.819744999999999
 31
0.0
  0
LINE
  5
561
330
1E
100
AcDbEntity
  8
HIDDEN
100
AcDbLine
 10
12.673668
 20
3.849744999999999
 30
0.0
 11
12.699041
 21
3.849744999999999
 31
0.0
  0
ARC
  5
562
330
1E
100
AcDbEntity
  8
HIDDEN
100
AcDbCircle
 10
12.673668
 20
3.819744999999999
 30
0.0
 40
0.03
100
AcDbArc
 50
90.0
 51
180.0
  0
CIRCLE
  5
563
330
1E
100
AcDbEntity
  8
HIDDEN
100
AcDbCircle
 10
13.06843399999999
 20
3.425526
 30
0.0
 40
0.09
  0
CIRCLE
  5
564
330
1E
100
AcDbEntity
  8
HIDDEN
100
AcDbCircle
 10
13.06843399999999
 20
3.425526
 30
0.0
 40
0.045
  0
LINE
  5
565
330
1E
100
AcDbEntity
  8
HIDDEN
100
AcDbLine
 10
16.788201
 20
1.196044
 30
0.0
 11
16.788201
 21
3.610008
 31
0.0
  0
CIRCLE
  5
566
330
1E
100
AcDbEntity
  8
HIDDEN
100
AcDbCircle
 10
16.639934
 20
1.104025999999999
 30
0.0
 40
0.1745
  0
CIRCLE
  5
567
330
1E
100
AcDbEntity
  8
HIDDEN
100
AcDbCircle
 10
16.36343399999999
 20
1.380525999999999
 30
0.0
 40
0.09
  0
CIRCLE
  5
568
330
1E
100
AcDbEntity
  8
HIDDEN
100
AcDbCircle
 10
16.36343399999999
 20
1.380525999999999
 30
0.0
 40
0.045
  0
CIRCLE
  5
569
330
1E
100
AcDbEntity
  8
OBJECT
100
AcDbCircle
 10
16.639934
 20
1.104025999999999
 30
0.0
 40
0.056044
  0
LINE
  5
56A
330
1E
100
AcDbEntity
  8
HIDDEN
100
AcDbLine
 10
16.788201
 20
0.9863069999999998
 30
0.0
 11
16.788201
 21
1.012008
 31
0.0
  0
LINE
  5
56B
330
1E
100
AcDbEntity
  8
HIDDEN
100
AcDbLine
 10
16.732828
 20
0.9563069999999999
 30
0.0
 11
16.758201
 21
0.9563069999999999
 31
0.0
  0
ARC
  5
56C
330
1E
100
AcDbEntity
  8
HIDDEN
100
AcDbCircle
 10
16.758201
 20
0.9863069999999998
 30
0.0
 40
0.03
100
AcDbArc
 50
270.0
 51
0.0
  0
CIRCLE
  5
56D
330
1E
100
AcDbEntity
  8
HIDDEN
100
AcDbCircle
 10
16.639934
 20
3.702026
 30
0.0
 40
0.1745
  0
CIRCLE
  5
56E
330
1E
100
AcDbEntity
  8
HIDDEN
100
AcDbCircle
 10
14.71593399999999
 20
2.403025999999999
 30
0.0
 40
0.125
  0
CIRCLE
  5
56F
330
1E
100
AcDbEntity
  8
HIDDEN
100
AcDbCircle
 10
16.36343399999999
 20
3.425526
 30
0.0
 40
0.045
  0
CIRCLE
  5
570
330
1E
100
AcDbEntity
  8
HIDDEN
100
AcDbCircle
 10
16.36343399999999
 20
3.425526
 30
0.0
 40
0.09
  0
LINE
  5
571
330
1E
100
AcDbEntity
  8
HIDDEN
100
AcDbLine
 10
16.788201
 20
3.794044
 30
0.0
 11
16.788201
 21
3.819744999999999
 31
0.0
  0
CIRCLE
  5
572
330
1E
100
AcDbEntity
  8
OBJECT
100
AcDbCircle
 10
16.639934
 20
3.702026
 30
0.0
 40
0.056044
  0
LINE
  5
573
330
1E
100
AcDbEntity
  8
HIDDEN
100
AcDbLine
 10
16.732828
 20
3.849744999999999
 30
0.0
 11
16.758201
 21
3.849744999999999
 31
0.0
  0
ARC
  5
574
330
1E
100
AcDbEntity
  8
HIDDEN
100
AcDbCircle
 10
16.758201
 20
3.819744999999999
 30
0.0
 40
0.03
100
AcDbArc
 50
0.0
 51
90.0
  0
DIMENSION
  5
575
330
1E
100
AcDbEntity
  8
DIM
100
AcDbDimension
  2
*D29
 10
16.639934
 20
3.172215
 30
0.0
 11
14.715934
 21
3.172215
 31
0.0
 70
    32
  1
<>
 71
     5
 42
3.848
  3
23NSTD
100
AcDbAlignedDimension
 13
12.791934
 23
3.702026
 33
0.0
 14
16.639934
 24
3.702026
 34
0.0
100
AcDbRotatedDimension
  0
ARC
  5
583
330
1E
100
AcDbEntity
  8
HIDDEN
100
AcDbCircle
 10
14.71593399999999
 20
4.715621999999999
 30
0.0
 40
0.103242
100
AcDbArc
 50
24.761514
 51
155.238486
  0
ARC
  5
584
330
1E
100
AcDbEntity
  8
HIDDEN
100
AcDbCircle
 10
10.028405
 20
10.04338799999999
 30
0.0
 40
0.103242
100
AcDbArc
 50
294.761514
 51
65.23848599999999
  0
ARC
  5
585
330
1E
100
AcDbEntity
  8
HIDDEN
100
AcDbCircle
 10
20.037532
 20
4.710621999999999
 30
0.0
 40
0.103242
100
AcDbArc
 50
24.761514
 51
155.238486
  0
CIRCLE
  5
586
330
1E
100
AcDbEntity
  8
OBJECT
100
AcDbCircle
 10
14.71593399999999
 20
2.403025999999999
 30
0.0
 40
0.094
  0
DIMENSION
  5
587
330
1E
100
AcDbEntity
  8
DIM
100
AcDbDimension
  2
*D30
 10
13.621985
 20
1.104025999999999
 30
0.0
 11
13.621985
 21
2.403026000000001
 31
0.0
 70
    32
  1
<>
 71
     5
 42
2.597999999999999
  3
23NSTD
100
AcDbAlignedDimension
 13
12.791934
 23
3.702026
 33
0.0
 14
12.791934
 24
1.104025999999999
 34
0.0
 50
90.0
100
AcDbRotatedDimension
  0
LWPOLYLINE
  5
595
330
1E
100
AcDbEntity
  8
DIM
100
AcDbPolyline
 90
        4
 70
     0
 10
16.400274
 20
9.046730999999999
 40
0.0
 41
0.105188
 10
16.634254
 20
9.201433999999999
 40
0.0
 41
0.0
 10
17.423883
 20
9.723520999999999
 40
0.0
 41
0.0
 10
17.693883
 20
9.723520999999999
 40
0.0
 41
0.0
  0
TEXT
  5
59B
330
1E
100
AcDbEntity
  8
DIM
100
AcDbText
 10
17.871427
 20
8.713839999999999
 30
0.0
 40
0.1875
  1
0.180 DIA. BOSS
 41
0.75
 11
17.871427
 21
8.807589999999999
 31
0.0
100
AcDbText
 73
     2
  0
TEXT
  5
59C
330
1E
100
AcDbEntity
  8
DIM
100
AcDbText
 10
17.871427
 20
8.401339999999999
 30
0.0
 40
0.1875
  1
(4) PLACES
 41
0.75
 11
17.871427
 21
8.495089999999999
 31
0.0
100
AcDbText
 73
     2
  0
TEXT
  5
59D
330
1E
100
AcDbEntity
  8
DIM
100
AcDbText
 10
17.82888299999999
 20
9.317270999999999
 30
0.0
 40
0.1875
  1
(4) HOLES
 41
0.75
 11
17.82888299999999
 21
9.411020999999999
 31
0.0
100
AcDbText
 73
     2
  0
LWPOLYLINE
  5
59E
330
1E
100
AcDbEntity
  8
DIM
100
AcDbPolyline
 90
        4
 70
     0
 10
16.442595
 20
8.978066999999999
 40
0.0
 41
0.105188
 10
16.71928499999999
 20
8.931995999999999
 40
0.0
 41
0.0
 10
17.46642699999999
 20
8.807589999999999
 40
0.0
 41
0.0
 10
17.73642699999999
 20
8.807589999999999
 40
0.0
 41
0.0
  0
TEXT
  5
5A4
330
1E
100
AcDbEntity
  8
DIM
100
AcDbText
 10
17.82888299999999
 20
9.629770999999999
 30
0.0
 40
0.1875
  1
0.090 DIA. x 0.250 DEEP
 41
0.75
 11
17.82888299999999
 21
9.723520999999999
 31
0.0
100
AcDbText
 73
     2
  0
CIRCLE
  5
5A5
330
1E
100
AcDbEntity
  8
OBJECT
100
AcDbCircle
 10
16.639934
 20
3.702026
 30
0.0
 40
0.114348
  0
CIRCLE
  5
5A6
330
1E
100
AcDbEntity
  8
OBJECT
100
AcDbCircle
 10
12.791934
 20
3.702026
 30
0.0
 40
0.114348
  0
CIRCLE
  5
5A7
330
1E
100
AcDbEntity
  8
OBJECT
100
AcDbCircle
 10
12.791934
 20
1.104025999999999
 30
0.0
 40
0.114348
  0
CIRCLE
  5
5A8
330
1E
100
AcDbEntity
  8
OBJECT
100
AcDbCircle
 10
16.639934
 20
1.104025999999999
 30
0.0
 40
0.114348
  0
TEXT
  5
5A9
330
1E
100
AcDbEntity
  8
TEXT
100
AcDbText
 10
0.503386
 20
12.478681
 30
0.0
 40
0.1875
  1
COVER - VERTICAL OUTSIDE SURFACES ARE TEXTURED
 41
0.75
100
AcDbText
  0
TEXT
  5
5AA
330
1E
100
AcDbEntity
  8
TEXT
100
AcDbText
 10
2.085720999999999
 20
12.166181
 30
0.0
 40
0.1875
  1
REMAINDER OF PART IS SMOOTH.
 41
0.75
100
AcDbText
  0
ARC
  5
5AB
330
1E
100
AcDbEntity
  8
HIDDEN
100
AcDbCircle
 10
20.037532
 20
4.758728999999999
 30
0.0
 40
0.160208
100
AcDbArc
 50
38.717988
 51
141.282012
  0
ARC
  5
5AC
330
1E
100
AcDbEntity
  8
HIDDEN
100
AcDbCircle
 10
20.037532
 20
4.710694999999999
 30
0.0
 40
0.103242
100
AcDbArc
 50
24.761514
 51
155.238486
  0
LWPOLYLINE
  5
5AD
330
1E
100
AcDbEntity
  8
OBJECT
100
AcDbPolyline
 90
        8
 70
     1
 43
0.0
 10
16.81569599999999
 20
0.777926
 10
12.616173
 20
0.777926
 42
-0.4142140000000001
 10
12.466173
 20
0.927926
 10
12.466173
 20
3.878126
 42
-0.4142140000000001
 10
12.616173
 20
4.028126
 10
16.81569599999999
 20
4.028126
 42
-0.4142140000000001
 10
16.96569599999999
 20
3.878126
 10
16.96569599999999
 20
0.927926
 42
-0.4142140000000001
  0
LINE
  5
5B7
330
1E
100
AcDbEntity
  8
HIDDEN
100
AcDbLine
 10
16.75428199999999
 20
4.789841
 30
0.0
 11
16.52558699999999
 21
4.789841
 31
0.0
  0
LINE
  5
5B8
330
1E
100
AcDbEntity
  8
HIDDEN
100
AcDbLine
 10
16.814434
 20
5.128864
 30
0.0
 11
16.46543399999999
 21
5.128864
 31
0.0
  0
LINE
  5
5B9
330
1E
100
AcDbEntity
  8
HIDDEN
100
AcDbLine
 10
16.75193399999999
 20
5.058863999999999
 30
0.0
 11
16.527934
 21
5.058863999999999
 31
0.0
  0
LINE
  5
5BA
330
1E
100
AcDbEntity
  8
HIDDEN
100
AcDbLine
 10
16.75193399999999
 20
5.058863999999999
 30
0.0
 11
16.75428199999999
 21
4.789841
 31
0.0
  0
ARC
  5
5BB
330
1E
100
AcDbEntity
  8
HIDDEN
100
AcDbCircle
 10
16.785531
 20
4.790113999999999
 30
0.0
 40
0.03125
100
AcDbArc
 50
180.4999999999999
 51
270.0
  0
LINE
  5
5BC
330
1E
100
AcDbEntity
  8
HIDDEN
100
AcDbLine
 10
16.69560699999999
 20
5.556364
 30
0.0
 11
16.699338
 21
5.128864
 31
0.0
  0
LINE
  5
5BD
330
1E
100
AcDbEntity
  8
HIDDEN
100
AcDbLine
 10
16.752257
 20
5.128864
 30
0.0
 11
16.748519
 21
5.556364
 31
0.0
  0
LINE
  5
5BE
330
1E
100
AcDbEntity
  8
HIDDEN
100
AcDbLine
 10
16.855042
 20
5.556364
 30
0.0
 11
16.83805299999999
 21
4.907555
 31
0.0
  0
LINE
  5
5BF
330
1E
100
AcDbEntity
  8
HIDDEN
100
AcDbLine
 10
16.75193399999999
 20
5.058863999999999
 30
0.0
 11
16.699687
 21
5.128864
 31
0.0
  0
LINE
  5
5C0
330
1E
100
AcDbEntity
  8
HIDDEN
100
AcDbLine
 10
16.814434
 20
5.128864
 30
0.0
 11
16.816712
 21
4.867880999999999
 31
0.0
  0
ARC
  5
5C1
330
1E
100
AcDbEntity
  8
HIDDEN
100
AcDbCircle
 10
16.78807
 20
4.908864
 30
0.0
 40
0.05
100
AcDbArc
 50
270.0
 51
358.4999999999999
  0
LINE
  5
5C2
330
1E
100
AcDbEntity
  8
HIDDEN
100
AcDbLine
 10
16.527934
 20
5.058863999999999
 30
0.0
 11
16.52558699999999
 21
4.789841
 31
0.0
  0
ARC
  5
5C3
330
1E
100
AcDbEntity
  8
HIDDEN
100
AcDbCircle
 10
16.49433799999999
 20
4.790113999999999
 30
0.0
 40
0.03125
100
AcDbArc
 50
270.0
 51
359.5
  0
LINE
  5
5C4
330
1E
100
AcDbEntity
  8
HIDDEN
100
AcDbLine
 10
16.52936
 20
5.128864
 30
0.0
 11
16.533098
 21
5.556364
 31
0.0
  0
LINE
  5
5C5
330
1E
100
AcDbEntity
  8
HIDDEN
100
AcDbLine
 10
16.58426099999999
 20
5.556364
 30
0.0
 11
16.580531
 21
5.128864
 31
0.0
  0
LINE
  5
5C6
330
1E
100
AcDbEntity
  8
HIDDEN
100
AcDbLine
 10
16.45343399999999
 20
5.108863999999999
 30
0.0
 11
16.27343399999999
 21
5.108863999999999
 31
0.0
  0
LINE
  5
5C7
330
1E
100
AcDbEntity
  8
HIDDEN
100
AcDbLine
 10
16.527934
 20
5.058863999999999
 30
0.0
 11
16.580182
 21
5.128864
 31
0.0
  0
LINE
  5
5C8
330
1E
100
AcDbEntity
  8
HIDDEN
100
AcDbLine
 10
16.46543399999999
 20
5.128864
 30
0.0
 11
16.46307799999999
 21
4.858863999999999
 31
0.0
  0
LINE
  5
5C9
330
1E
100
AcDbEntity
  8
HIDDEN
100
AcDbLine
 10
16.45343399999999
 20
5.108863999999999
 30
0.0
 11
16.45561599999999
 21
4.858863999999999
 31
0.0
  0
LINE
  5
5CA
330
1E
100
AcDbEntity
  8
HIDDEN
100
AcDbLine
 10
16.408434
 20
5.108863999999999
 30
0.0
 11
16.40625299999999
 21
4.858863999999999
 31
0.0
  0
LINE
  5
5CB
330
1E
100
AcDbEntity
  8
HIDDEN
100
AcDbLine
 10
16.318434
 20
5.108863999999999
 30
0.0
 11
16.320616
 21
4.858863999999999
 31
0.0
  0
LINE
  5
5CC
330
1E
100
AcDbEntity
  8
HIDDEN
100
AcDbLine
 10
16.27343399999999
 20
5.108863999999999
 30
0.0
 11
16.271253
 21
4.858863999999999
 31
0.0
  0
LINE
  5
5CD
330
1E
100
AcDbEntity
  8
HIDDEN
100
AcDbLine
 10
16.78807
 20
4.858863999999999
 30
0.0
 11
12.643799
 21
4.858863999999999
 31
0.0
  0
LINE
  5
5CE
330
1E
100
AcDbEntity
  8
HIDDEN
100
AcDbLine
 10
12.978434
 20
5.108863999999999
 30
0.0
 11
13.158434
 21
5.108863999999999
 31
0.0
  0
LINE
  5
5CF
330
1E
100
AcDbEntity
  8
HIDDEN
100
AcDbLine
 10
13.113434
 20
5.108863999999999
 30
0.0
 11
13.111253
 21
4.858863999999999
 31
0.0
  0
LINE
  5
5D0
330
1E
100
AcDbEntity
  8
HIDDEN
100
AcDbLine
 10
13.158434
 20
5.108863999999999
 30
0.0
 11
13.160616
 21
4.858863999999999
 31
0.0
  0
LINE
  5
5D1
330
1E
100
AcDbEntity
  8
HIDDEN
100
AcDbLine
 10
12.903934
 20
5.058863999999999
 30
0.0
 11
12.906282
 21
4.789841
 31
0.0
  0
LINE
  5
5D2
330
1E
100
AcDbEntity
  8
HIDDEN
100
AcDbLine
 10
12.67993399999999
 20
5.058863999999999
 30
0.0
 11
12.67758699999999
 21
4.789841
 31
0.0
  0
LINE
  5
5D3
330
1E
100
AcDbEntity
  8
HIDDEN
100
AcDbLine
 10
12.67758699999999
 20
4.789841
 30
0.0
 11
12.906282
 21
4.789841
 31
0.0
  0
ARC
  5
5D4
330
1E
100
AcDbEntity
  8
HIDDEN
100
AcDbCircle
 10
12.93753099999999
 20
4.790113999999999
 30
0.0
 40
0.03125
100
AcDbArc
 50
180.4999999999999
 51
270.0
  0
ARC
  5
5D5
330
1E
100
AcDbEntity
  8
HIDDEN
100
AcDbCircle
 10
12.646338
 20
4.790113999999999
 30
0.0
 40
0.03125
100
AcDbArc
 50
270.0
 51
359.5
  0
LINE
  5
5D6
330
1E
100
AcDbEntity
  8
HIDDEN
100
AcDbLine
 10
12.902508
 20
5.128864
 30
0.0
 11
12.89876999999999
 21
5.556364
 31
0.0
  0
LINE
  5
5D7
330
1E
100
AcDbEntity
  8
HIDDEN
100
AcDbLine
 10
12.847607
 20
5.556364
 30
0.0
 11
12.851338
 21
5.128864
 31
0.0
  0
LINE
  5
5D8
330
1E
100
AcDbEntity
  8
HIDDEN
100
AcDbLine
 10
12.67961099999999
 20
5.128864
 30
0.0
 11
12.68335
 21
5.556364
 31
0.0
  0
LINE
  5
5D9
330
1E
100
AcDbEntity
  8
HIDDEN
100
AcDbLine
 10
12.736261
 20
5.556364
 30
0.0
 11
12.732531
 21
5.128864
 31
0.0
  0
LINE
  5
5DA
330
1E
100
AcDbEntity
  8
HIDDEN
100
AcDbLine
 10
12.57682599999999
 20
5.556364
 30
0.0
 11
12.593816
 21
4.907555
 31
0.0
  0
LINE
  5
5DB
330
1E
100
AcDbEntity
  8
HIDDEN
100
AcDbLine
 10
12.67993399999999
 20
5.058863999999999
 30
0.0
 11
12.903934
 21
5.058863999999999
 31
0.0
  0
LINE
  5
5DC
330
1E
100
AcDbEntity
  8
HIDDEN
100
AcDbLine
 10
12.617434
 20
5.128864
 30
0.0
 11
12.96643399999999
 21
5.128864
 31
0.0
  0
LINE
  5
5DD
330
1E
100
AcDbEntity
  8
HIDDEN
100
AcDbLine
 10
12.903934
 20
5.058863999999999
 30
0.0
 11
12.851687
 21
5.128864
 31
0.0
  0
LINE
  5
5DE
330
1E
100
AcDbEntity
  8
HIDDEN
100
AcDbLine
 10
12.978434
 20
5.108863999999999
 30
0.0
 11
12.97625299999999
 21
4.858863999999999
 31
0.0
  0
LINE
  5
5DF
330
1E
100
AcDbEntity
  8
HIDDEN
100
AcDbLine
 10
13.023434
 20
5.108863999999999
 30
0.0
 11
13.025616
 21
4.858863999999999
 31
0.0
  0
LINE
  5
5E0
330
1E
100
AcDbEntity
  8
HIDDEN
100
AcDbLine
 10
12.96643399999999
 20
5.128864
 30
0.0
 11
12.96879
 21
4.858863999999999
 31
0.0
  0
LINE
  5
5E1
330
1E
100
AcDbEntity
  8
HIDDEN
100
AcDbLine
 10
12.67993399999999
 20
5.058863999999999
 30
0.0
 11
12.732182
 21
5.128864
 31
0.0
  0
LINE
  5
5E2
330
1E
100
AcDbEntity
  8
HIDDEN
100
AcDbLine
 10
12.617434
 20
5.128864
 30
0.0
 11
12.615157
 21
4.867880999999999
 31
0.0
  0
ARC
  5
5E3
330
1E
100
AcDbEntity
  8
HIDDEN
100
AcDbCircle
 10
12.643799
 20
4.908864
 30
0.0
 40
0.05
100
AcDbArc
 50
181.4999999999999
 51
270.0
  0
TEXT
  5
5E4
330
1E
100
AcDbEntity
  8
DIM
100
AcDbText
 10
17.993279
 20
10.45054
 30
0.0
 40
0.1875
  1
(4) PLACES
 41
0.75
 11
17.993279
 21
10.54429
 31
0.0
100
AcDbText
 73
     2
  0
TEXT
  5
5E5
330
1E
100
AcDbEntity
  8
DIM
100
AcDbText
 10
17.993279
 20
10.76304
 30
0.0
 40
0.1875
  1
0.215 DIA. BOSS
 41
0.75
 11
17.993279
 21
10.85679
 31
0.0
100
AcDbText
 73
     2
  0
TEXT
  5
5E6
330
1E
100
AcDbEntity
  8
DIM
100
AcDbText
 10
18.04880499999999
 20
11.767225
 30
0.0
 40
0.1875
  1
0.111 DIA. (AT TOP)
 41
0.75
 11
18.04880499999999
 21
11.860975
 31
0.0
100
AcDbText
 73
     2
  0
TEXT
  5
5E7
330
1E
100
AcDbEntity
  8
DIM
100
AcDbText
 10
18.04880499999999
 20
11.454725
 30
0.0
 40
0.1875
  1
(4) HOLES
 41
0.75
 11
18.04880499999999
 21
11.548475
 31
0.0
100
AcDbText
 73
     2
  0
LWPOLYLINE
  5
5E8
330
1E
100
AcDbEntity
  8
DIM
100
AcDbPolyline
 90
        4
 70
     0
 10
16.721882
 20
11.26763
 40
0.0
 41
0.105188
 10
16.97532999999999
 20
11.147446
 40
0.0
 41
0.0
 10
17.58827899999999
 20
10.85679
 40
0.0
 41
0.0
 10
17.858279
 20
10.85679
 40
0.0
 41
0.0
  0
LWPOLYLINE
  5
5EE
330
1E
100
AcDbEntity
  8
DIM
100
AcDbPolyline
 90
        4
 70
     0
 10
16.687243
 20
11.372434
 40
0.0
 41
0.105188
 10
16.937049
 20
11.500016
 40
0.0
 41
0.0
 10
17.643805
 20
11.860975
 40
0.0
 41
0.0
 10
17.91380499999999
 20
11.860975
 40
0.0
 41
0.0
  0
DIMENSION
  5
5F4
330
1E
100
AcDbEntity
  8
DIM
100
AcDbDimension
  2
*D31
 10
19.45085299999999
 20
4.758863999999999
 30
0.0
 11
18.82319674999999
 21
4.218864000000003
 31
0.0
 70
    32
  1
<>
 71
     5
 42
0.0999999999999997
  3
23NSTD
100
AcDbAlignedDimension
 13
19.327973
 23
4.858863999999999
 33
0.0
 14
19.35635299999999
 24
4.758863999999999
 34
0.0
 50
90.0
100
AcDbRotatedDimension
  0
DIMENSION
  5
602
330
1E
100
AcDbEntity
  8
DIM
100
AcDbDimension
  2
*D32
 10
17.22978099999999
 20
5.556364
 30
0.0
 11
17.869156
 21
6.096364000000003
 31
0.0
 70
    32
 71
     5
 42
0.1200000000000001
  3
23NSTD
100
AcDbAlignedDimension
 13
16.951934
 23
5.436364
 33
0.0
 14
16.89993399999999
 24
5.556364
 34
0.0
 50
90.0
100
AcDbRotatedDimension
  0
DIMENSION
  5
610
330
1E
100
AcDbEntity
  8
DIM
100
AcDbDimension
  2
*D33
 10
12.041579
 20
4.758863999999999
 30
0.0
 11
12.04157899999999
 21
5.157614000000001
 31
0.0
 70
    32
 71
     5
 42
0.7975000000000004
  3
23NSTD
100
AcDbAlignedDimension
 13
12.531934
 23
5.556364
 33
0.0
 14
12.616173
 24
4.758863999999999
 34
0.0
 50
90.0
100
AcDbRotatedDimension
  0
LWPOLYLINE
  5
61E
330
1E
100
AcDbEntity
  8
HIDDEN
100
AcDbPolyline
 90
        6
 70
     0
 43
0.0
 10
7.661044
 20
5.571363999999999
 10
7.661044
 20
6.154030999999999
 42
0.4142140000000001
 10
7.629794
 20
6.185280999999999
 10
7.600293999999999
 20
6.185280999999999
 42
0.4142140000000001
 10
7.569043999999999
 20
6.154030999999999
 10
7.569043999999999
 20
5.571363999999999
  0
LWPOLYLINE
  5
626
330
1E
100
AcDbEntity
  8
HIDDEN
100
AcDbPolyline
 90
        6
 70
     0
 43
0.0
 10
10.261256
 20
5.571363999999999
 10
10.261256
 20
6.154030999999999
 42
0.4142140000000001
 10
10.230006
 20
6.185280999999999
 10
10.200506
 20
6.185280999999999
 42
0.4142140000000001
 10
10.16925599999999
 20
6.154030999999999
 10
10.16925599999999
 20
5.571363999999999
  0
LWPOLYLINE
  5
62E
330
1E
100
AcDbEntity
  8
HIDDEN
100
AcDbPolyline
 90
        4
 70
     0
 43
0.0
 10
10.10916099999999
 20
7.358863999999999
 10
10.124792
 20
5.571363999999999
 10
10.303971
 20
5.571363999999999
 10
10.319602
 20
7.358863999999999
  0
LWPOLYLINE
  5
634
330
1E
100
AcDbEntity
  8
HIDDEN
100
AcDbPolyline
 90
        4
 70
     0
 43
0.0
 10
7.510697999999999
 20
7.358863999999999
 10
7.526328999999999
 20
5.571363999999999
 10
7.705508
 20
5.571363999999999
 10
7.721138999999999
 20
7.358863999999999
  0
LWPOLYLINE
  5
63A
330
1E
100
AcDbEntity
  8
HIDDEN
100
AcDbPolyline
 90
        4
 70
     0
 43
0.0
 10
7.540149999999999
 20
7.458864
 10
7.540149999999999
 20
7.448864
 10
10.27675
 20
7.448864
 10
10.27675
 20
7.458864
  0
LWPOLYLINE
  5
640
330
1E
100
AcDbEntity
  8
OBJECT
100
AcDbPolyline
 90
        6
 70
     1
 43
0.0
 10
7.303811999999999
 20
5.456363999999999
 10
10.526488
 20
5.456363999999999
 10
10.477876
 20
7.312791
 42
0.406566
 10
10.327927
 20
7.458864
 10
7.502372999999999
 20
7.458864
 42
0.406566
 10
7.352424
 20
7.312791
  0
LWPOLYLINE
  5
648
330
1E
100
AcDbEntity
  8
HIDDEN
100
AcDbPolyline
 90
        4
 70
     0
 43
0.0
 10
10.479107
 20
5.456363999999999
 10
10.47648799999999
 20
5.556364
 10
7.353811999999999
 20
5.556364
 10
7.351192999999999
 20
5.456363999999999
  0
LWPOLYLINE
  5
64E
330
1E
100
AcDbEntity
  8
HIDDEN
100
AcDbPolyline
 90
        6
 70
     0
 43
0.0
 10
10.423835
 20
5.556364
 10
10.37791
 20
7.310172999999999
 42
0.406566
 10
10.327927
 20
7.358863999999999
 10
7.502372999999999
 20
7.358863999999999
 42
0.406566
 10
7.452389999999999
 20
7.310172999999999
 10
7.406464999999999
 20
5.556364
  0
LWPOLYLINE
  5
656
330
1E
100
AcDbEntity
  8
HIDDEN
100
AcDbPolyline
 90
        4
 70
     0
 43
0.0
 10
1.676994999999999
 20
7.458864
 10
1.676994999999999
 20
7.448864
 10
5.637319
 20
7.448864
 10
5.637319
 20
7.458864
  0
LWPOLYLINE
  5
65C
330
1E
100
AcDbEntity
  8
HIDDEN
100
AcDbPolyline
 90
        6
 70
     0
 43
0.0
 10
1.51651
 20
5.556364
 10
1.562434999999999
 20
7.310172999999999
 42
-0.406566
 10
1.612418
 20
7.358863999999999
 10
5.688495999999999
 20
7.358863999999999
 42
-0.406566
 10
5.738478999999999
 20
7.310172999999999
 10
5.784404
 20
5.556364
  0
LWPOLYLINE
  5
664
330
1E
100
AcDbEntity
  8
OBJECT
100
AcDbPolyline
 90
        6
 70
     1
 43
0.0
 10
1.413856999999999
 20
5.456363999999999
 10
5.887056999999999
 20
5.456363999999999
 10
5.838443999999999
 20
7.312791
 42
0.406566
 10
5.688495999999999
 20
7.458864
 10
1.612418
 20
7.458864
 42
0.406566
 10
1.462469
 20
7.312791
  0
LWPOLYLINE
  5
66C
330
1E
100
AcDbEntity
  8
HIDDEN
100
AcDbPolyline
 90
        4
 70
     0
 43
0.0
 10
1.620619
 20
7.358863999999999
 10
1.636217999999999
 20
5.571363999999999
 10
1.816479999999999
 20
5.571363999999999
 10
1.832079
 20
7.358863999999999
  0
LWPOLYLINE
  5
672
330
1E
100
AcDbEntity
  8
HIDDEN
100
AcDbPolyline
 90
        4
 70
     0
 43
0.0
 10
5.680293999999999
 20
7.358863999999999
 10
5.664695
 20
5.571363999999999
 10
5.484433
 20
5.571363999999999
 10
5.468833999999999
 20
7.358863999999999
  0
LWPOLYLINE
  5
678
330
1E
100
AcDbEntity
  8
HIDDEN
100
AcDbPolyline
 90
        6
 70
     0
 43
0.0
 10
5.620563999999999
 20
5.571363999999999
 10
5.620563999999999
 20
6.154030999999999
 42
0.4142140000000001
 10
5.589313999999999
 20
6.185280999999999
 10
5.559814
 20
6.185280999999999
 42
0.4142140000000001
 10
5.528564
 20
6.154030999999999
 10
5.528564
 20
5.571363999999999
  0
LWPOLYLINE
  5
680
330
1E
100
AcDbEntity
  8
HIDDEN
100
AcDbPolyline
 90
        6
 70
     0
 43
0.0
 10
1.680452
 20
5.571363999999999
 10
1.680452
 20
6.154030999999999
 42
-0.4142140000000001
 10
1.711702
 20
6.185280999999999
 10
1.741202
 20
6.185280999999999
 42
-0.4142140000000001
 10
1.772452
 20
6.154030999999999
 10
1.772452
 20
5.571363999999999
  0
LWPOLYLINE
  5
688
330
1E
100
AcDbEntity
  8
HIDDEN
100
AcDbPolyline
 90
        4
 70
     0
 43
0.0
 10
1.461237999999999
 20
5.456363999999999
 10
1.463856999999999
 20
5.556364
 10
5.837056999999999
 20
5.556364
 10
5.839674999999999
 20
5.456363999999999
  0
DIMENSION
  5
68E
330
1E
100
AcDbEntity
  8
DIM
100
AcDbDimension
  2
*D34
 10
6.852611
 20
4.758863999999999
 30
0.0
 11
6.852610999999999
 21
5.097614000000001
 31
0.0
 70
    32
 71
     5
 42
0.6775000000000003
  3
23NSTD
100
AcDbAlignedDimension
 13
7.303811999999999
 23
5.436364
 33
0.0
 14
7.44005
 24
4.758863999999999
 34
0.0
 50
90.0
100
AcDbRotatedDimension
  0
ARC
  5
69C
330
1E
100
AcDbEntity
  8
HIDDEN
100
AcDbCircle
 10
8.91515
 20
4.710621999999999
 30
0.0
 40
0.103242
100
AcDbArc
 50
24.761514
 51
155.238486
  0
LINE
  5
69D
330
1E
100
AcDbEntity
  8
HIDDEN
100
AcDbLine
 10
10.09980199999999
 20
4.789841
 30
0.0
 11
10.32849799999999
 21
4.789841
 31
0.0
  0
LINE
  5
69E
330
1E
100
AcDbEntity
  8
OBJECT
100
AcDbLine
 10
10.54024999999999
 20
4.908864
 30
0.0
 11
7.290049999999999
 21
4.908864
 31
0.0
  0
LINE
  5
69F
330
1E
100
AcDbEntity
  8
HIDDEN
100
AcDbLine
 10
10.101827
 20
5.128864
 30
0.0
 11
10.10556499999999
 21
5.556364
 31
0.0
  0
LINE
  5
6A0
330
1E
100
AcDbEntity
  8
HIDDEN
100
AcDbLine
 10
10.324724
 20
5.128864
 30
0.0
 11
10.320986
 21
5.556364
 31
0.0
  0
LINE
  5
6A1
330
1E
100
AcDbEntity
  8
HIDDEN
100
AcDbLine
 10
9.982649999999999
 20
5.108863999999999
 30
0.0
 11
9.980468
 21
4.858863999999999
 31
0.0
  0
LINE
  5
6A2
330
1E
100
AcDbEntity
  8
HIDDEN
100
AcDbLine
 10
10.10215
 20
5.058863999999999
 30
0.0
 11
10.32615
 21
5.058863999999999
 31
0.0
  0
LINE
  5
6A3
330
1E
100
AcDbEntity
  8
HIDDEN
100
AcDbLine
 10
9.892649999999999
 20
5.108863999999999
 30
0.0
 11
9.894832
 21
4.858863999999999
 31
0.0
  0
ARC
  5
6A4
330
1E
100
AcDbEntity
  8
HIDDEN
100
AcDbCircle
 10
8.91515
 20
4.758655999999999
 30
0.0
 40
0.160208
100
AcDbArc
 50
38.717988
 51
141.282012
  0
LWPOLYLINE
  5
6A5
330
1E
100
AcDbEntity
  8
HIDDEN
100
AcDbPolyline
 90
        8
 70
     0
 43
0.0
 10
10.47762999999999
 20
5.436364
 10
10.474488
 20
5.556364
 10
9.31915
 20
5.556364
 10
9.31915
 20
5.500364
 10
8.51115
 20
5.500364
 10
8.51115
 20
5.556364
 10
7.355811999999999
 20
5.556364
 10
7.352669999999999
 20
5.436364
  0
LWPOLYLINE
  5
6AF
330
1E
100
AcDbEntity
  8
OBJECT
100
AcDbPolyline
 90
        6
 70
     1
 43
0.0
 10
7.303811999999999
 20
5.436364
 10
10.526488
 20
5.436364
 10
10.540198
 20
4.912791
 42
-0.4219020000000001
 10
10.39025
 20
4.758863999999999
 10
7.44005
 20
4.758863999999999
 42
-0.4219020000000001
 10
7.290102
 20
4.912791
  0
LWPOLYLINE
  5
6B7
330
1E
100
AcDbEntity
  8
HIDDEN
100
AcDbPolyline
 90
        6
 70
     0
 43
0.0
 10
7.401457999999999
 20
5.556364
 10
7.418447999999999
 20
4.907555
 42
0.406566
 10
7.468430999999999
 20
4.858863999999999
 10
10.361869
 20
4.858863999999999
 42
0.406566
 10
10.41185199999999
 20
4.907555
 10
10.428842
 20
5.556364
  0
LWPOLYLINE
  5
6BF
330
1E
100
AcDbEntity
  8
HIDDEN
100
AcDbPolyline
 90
        4
 70
     0
 43
0.0
 10
10.029832
 20
4.858863999999999
 10
10.02764999999999
 20
5.108863999999999
 10
9.847649999999999
 20
5.108863999999999
 10
9.845467999999998
 20
4.858863999999999
  0
LWPOLYLINE
  5
6C5
330
1E
100
AcDbEntity
  8
HIDDEN
100
AcDbPolyline
 90
        4
 70
     0
 43
0.0
 10
10.390921
 20
4.868655999999999
 10
10.38865
 20
5.128864
 10
10.03964999999999
 20
5.128864
 10
10.037294
 20
4.858863999999999
  0
LWPOLYLINE
  5
6CB
330
1E
100
AcDbEntity
  8
HIDDEN
100
AcDbPolyline
 90
        5
 70
     0
 43
0.0
 10
10.06855399999999
 20
4.758863999999999
 42
0.41166
 10
10.09980199999999
 20
4.789841
 10
10.10215
 20
5.058863999999999
 10
10.15475099999999
 20
5.129337
 10
10.15847699999999
 20
5.556364
  0
LWPOLYLINE
  5
6D2
330
1E
100
AcDbEntity
  8
HIDDEN
100
AcDbPolyline
 90
        5
 70
     0
 43
0.0
 10
10.269823
 20
5.556364
 10
10.273549
 20
5.129337
 10
10.32615
 20
5.058863999999999
 10
10.32849799999999
 20
4.789841
 42
0.41166
 10
10.359747
 20
4.758863999999999
  0
LWPOLYLINE
  5
6D9
330
1E
100
AcDbEntity
  8
HIDDEN
100
AcDbPolyline
 90
        5
 70
     0
 43
0.0
 10
7.560477
 20
5.556364
 10
7.556750999999999
 20
5.129337
 10
7.50415
 20
5.058863999999999
 10
7.501802
 20
4.789841
 42
-0.41166
 10
7.470553999999999
 20
4.758863999999999
  0
LWPOLYLINE
  5
6E0
330
1E
100
AcDbEntity
  8
HIDDEN
100
AcDbPolyline
 90
        5
 70
     0
 43
0.0
 10
7.761746999999999
 20
4.758863999999999
 42
-0.41166
 10
7.730497999999999
 20
4.789841
 10
7.72815
 20
5.058863999999999
 10
7.675549
 20
5.129337
 10
7.671822999999999
 20
5.556364
  0
LWPOLYLINE
  5
6E7
330
1E
100
AcDbEntity
  8
HIDDEN
100
AcDbPolyline
 90
        4
 70
     0
 43
0.0
 10
7.439378999999999
 20
4.868655999999999
 10
7.44165
 20
5.128864
 10
7.79065
 20
5.128864
 10
7.793006
 20
4.858863999999999
  0
LWPOLYLINE
  5
6ED
330
1E
100
AcDbEntity
  8
HIDDEN
100
AcDbPolyline
 90
        4
 70
     0
 43
0.0
 10
7.800467999999999
 20
4.858863999999999
 10
7.802649999999999
 20
5.108863999999999
 10
7.982649999999999
 20
5.108863999999999
 10
7.984832
 20
4.858863999999999
  0
LINE
  5
6F3
330
1E
100
AcDbEntity
  8
HIDDEN
100
AcDbLine
 10
7.937649999999999
 20
5.108863999999999
 30
0.0
 11
7.935467999999999
 21
4.858863999999999
 31
0.0
  0
LINE
  5
6F4
330
1E
100
AcDbEntity
  8
HIDDEN
100
AcDbLine
 10
7.847649999999999
 20
5.108863999999999
 30
0.0
 11
7.849832000000001
 21
4.858863999999999
 31
0.0
  0
LINE
  5
6F5
330
1E
100
AcDbEntity
  8
HIDDEN
100
AcDbLine
 10
7.730497999999999
 20
4.789841
 30
0.0
 11
7.501802
 21
4.789841
 31
0.0
  0
LINE
  5
6F6
330
1E
100
AcDbEntity
  8
HIDDEN
100
AcDbLine
 10
7.505575999999999
 20
5.128864
 30
0.0
 11
7.509313999999999
 21
5.556364
 31
0.0
  0
LINE
  5
6F7
330
1E
100
AcDbEntity
  8
HIDDEN
100
AcDbLine
 10
7.728472999999999
 20
5.128864
 30
0.0
 11
7.724735
 21
5.556364
 31
0.0
  0
LINE
  5
6F8
330
1E
100
AcDbEntity
  8
HIDDEN
100
AcDbLine
 10
7.72815
 20
5.058863999999999
 30
0.0
 11
7.50415
 21
5.058863999999999
 31
0.0
  0
DIMENSION
  5
6F9
330
1E
100
AcDbEntity
  8
DIM
100
AcDbDimension
  2
*D35
 10
1.151206999999999
 20
5.456363999999999
 30
0.0
 11
0.5235507499999991
 21
4.916363999999999
 31
0.0
 70
    32
 71
     5
 42
0.1000000000000005
  3
23NSTD
100
AcDbAlignedDimension
 13
1.463856999999999
 23
5.556364
 33
0.0
 14
1.413856999999999
 24
5.456363999999999
 34
0.0
 50
90.0
100
AcDbRotatedDimension
  0
DIMENSION
  5
707
330
1E
100
AcDbEntity
  8
DIM
100
AcDbDimension
  2
*D36
 10
11.414907
 20
7.458864
 30
0.0
 11
11.414907
 21
6.108864000000001
 31
0.0
 70
    32
 71
     5
 42
2.7
  3
23NSTD
100
AcDbAlignedDimension
 13
10.39025
 23
4.758863999999999
 33
0.0
 14
10.327927
 24
7.458864
 34
0.0
 50
90.0
100
AcDbRotatedDimension
  0
INSERT
  5
8C1
330
1E
100
AcDbEntity
  8
DIM
100
AcDbBlockReference
  2
HBS
 10
0.0
 20
0.0
 30
0.0
 41
1.5
 42
1.5
 43
1.5
  0
TEXT
  5
E33
330
1E
100
AcDbEntity
  8
TEXT
100
AcDbText
 10
23.15508238270071
 20
14.9669964010894
 30
0.0
 40
0.234
  1
1-14-14
 41
0.75
 72
     4
 11
23.65233238270071
 21
15.0839964010894
 31
0.0
100
AcDbText
  0
ENDSEC
  0
SECTION
  2
OBJECTS
  0
DICTIONARY
  5
C
330
0
100
AcDbDictionary
281
     1
  3
ACAD_GROUP
350
D
  3
ACAD_LAYOUT
350
19
  3
ACAD_MLINESTYLE
350
16
  3
ACAD_PLOTSETTINGS
350
18
  3
ACAD_PLOTSTYLENAME
350
E
  0
DICTIONARY
  5
D
102
{ACAD_REACTORS
330
C
102
}
330
C
100
AcDbDictionary
281
     1
  0
DICTIONARY
  5
19
102
{ACAD_REACTORS
330
C
102
}
330
C
100
AcDbDictionary
281
     1
  3
Layout1
350
1D
  3
Model
350
21
  0
DICTIONARY
  5
16
102
{ACAD_REACTORS
330
C
102
}
330
C
100
AcDbDictionary
281
     1
  3
Standard
350
17
  0
DICTIONARY
  5
18
102
{ACAD_REACTORS
330
C
102
}
330
C
100
AcDbDictionary
281
     1
  0
ACDBDICTIONARYWDFLT
  5
E
102
{ACAD_REACTORS
330
C
102
}
330
C
100
AcDbDictionary
281
     1
  3
Normal
350
F
100
AcDbDictionaryWithDefault
340
F
  0
LAYOUT
  5
1D
102
{ACAD_REACTORS
330
19
102
}
330
19
100
AcDbPlotSettings
  1

  2
None
  4

  6

 40
0.0
 41
0.0
 42
0.0
 43
0.0
 44
0.0
 45
0.0
 46
0.0
 47
0.0
 48
0.0
 49
0.0
140
0.0
141
0.0
142
1.0
143
1.0
 70
   688
 72
     0
 73
     0
 74
     5
  7
monochrome.ctb
 75
    16
147
1.0
148
0.0
149
0.0
100
AcDbLayout
  1
Layout1
 70
     0
 71
     1
 10
0.0
 20
0.0
 11
12.0
 21
9.0
 12
-3.100979
 22
50.0
 32
10.277186
 14
1.000000000000000E+20
 24
1.000000000000000E+20
 34
1.000000000000000E+20
 15
-1.000000000000000E+20
 25
-1.000000000000000E+20
 35
-1.000000000000000E+20
146
0.0
 13
0.0
 23
0.0
 33
0.0
 16
1.0
 26
0.0
 36
0.0
 17
0.0
 27
1.0
 37
0.0
 76
     0
330
1A
  0
LAYOUT
  5
21
102
{ACAD_REACTORS
330
19
102
}
330
19
100
AcDbPlotSettings
  1

  2
none_device
  4
Letter_(8.50_x_11.00_Inches)
  6

 40
6.349999904632568
 41
6.349999904632568
 42
6.350006103515625
 43
6.350006103515625
 44
215.8999938964843
 45
279.3999938964843
 46
0.0
 47
0.0
 48
0.0
 49
0.0
140
0.0
141
0.0
142
1.0
143
1.0
 70
 11952
 72
     0
 73
     1
 74
     0
  7

 75
     0
147
1.0
148
-117.4906816586594
149
1.992514089840714
100
AcDbLayout
  1
Model
 70
     1
 71
     0
 10
0.0
 20
0.0
 11
12.0
 21
9.0
 12
0.0
 22
0.0
 32
0.0
 14
0.0
 24
0.0
 34
0.0
 15
0.0
 25
0.0
 35
0.0
146
0.0
 13
0.0
 23
0.0
 33
0.0
 16
1.0
 26
0.0
 36
0.0
 17
0.0
 27
1.0
 37
0.0
 76
     0
330
1E
  0
MLINESTYLE
  5
17
102
{ACAD_REACTORS
330
16
102
}
330
16
100
AcDbMlineStyle
  2
STANDARD
 70
     0
  3

 62
   256
 51
90.0
 52
90.0
 71
     2
 49
0.5
 62
   256
  6
BYLAYER
 49
-0.5
 62
   256
  6
BYLAYER
  0
ACDBPLACEHOLDER
  5
F
102
{ACAD_REACTORS
330
E
102
}
330
E
  0
ENDSEC
  0
EOF
