  0
SECTION
  2
HEADER
  9
$ACADVER
  1
AC1015
  9
$ACADMAINTVER
 70
     6
  9
$DWGCODEPAGE
  3
ANSI_1252
  9
$INSBASE
 10
0.0
 20
0.0
 30
0.0
  9
$EXTMIN
 10
0.0
 20
0.0
 30
0.0
  9
$EXTMAX
 10
12.75
 20
8.25
 30
0.0
  9
$LIMMIN
 10
0.0
 20
0.0
  9
$LIMMAX
 10
12.75
 20
8.25
  9
$ORTHOMODE
 70
     0
  9
$REGENMODE
 70
     1
  9
$FILLMODE
 70
     1
  9
$QTEXTMODE
 70
     0
  9
$MIRRTEXT
 70
     1
  9
$LTSCALE
 40
0.75
  9
$ATTMODE
 70
     1
  9
$TEXTSIZE
 40
0.09375
  9
$TRACEWID
 40
0.05
  9
$TEXTSTYLE
  7
Standard
  9
$CLAYER
  8
0
  9
$CELTYPE
  6
ByLayer
  9
$CECOLOR
 62
   256
  9
$CELTSCALE
 40
1.0
  9
$DISPSILH
 70
     0
  9
$DIMSCALE
 40
1.0
  9
$DIMASZ
 40
0.0975
  9
$DIMEXO
 40
0.0375
  9
$DIMDLI
 40
0.38
  9
$DIMRND
 40
0.0
  9
$DIMDLE
 40
0.0
  9
$DIMEXE
 40
0.09375
  9
$DIMTP
 40
0.0
  9
$DIMTM
 40
0.0
  9
$DIMTXT
 40
0.09375
  9
$DIMCEN
 40
0.09
  9
$DIMTSZ
 40
0.0
  9
$DIMTOL
 70
     0
  9
$DIMLIM
 70
     0
  9
$DIMTIH
 70
     1
  9
$DIMTOH
 70
     1
  9
$DIMSE1
 70
     0
  9
$DIMSE2
 70
     0
  9
$DIMTAD
 70
     1
  9
$DIMZIN
 70
     0
  9
$DIMBLK
  1

  9
$DIMASO
 70
     1
  9
$DIMSHO
 70
     1
  9
$DIMPOST
  1

  9
$DIMAPOST
  1

  9
$DIMALT
 70
     0
  9
$DIMALTD
 70
     2
  9
$DIMALTF
 40
25.4
  9
$DIMLFAC
 40
1.0
  9
$DIMTOFL
 70
     0
  9
$DIMTVP
 40
0.0
  9
$DIMTIX
 70
     0
  9
$DIMSOXD
 70
     0
  9
$DIMSAH
 70
     0
  9
$DIMBLK1
  1

  9
$DIMBLK2
  1

  9
$DIMSTYLE
  2
Standard
  9
$DIMCLRD
 70
     0
  9
$DIMCLRE
 70
     0
  9
$DIMCLRT
 70
     0
  9
$DIMTFAC
 40
1.0
  9
$DIMGAP
 40
0.045
  9
$DIMJUST
 70
     0
  9
$DIMSD1
 70
     0
  9
$DIMSD2
 70
     0
  9
$DIMTOLJ
 70
     1
  9
$DIMTZIN
 70
     0
  9
$DIMALTZ
 70
     0
  9
$DIMALTTZ
 70
     0
  9
$DIMUPT
 70
     0
  9
$DIMDEC
 70
     2
  9
$DIMTDEC
 70
     2
  9
$DIMALTU
 70
     2
  9
$DIMALTTD
 70
     2
  9
$DIMTXSTY
  7
Standard
  9
$DIMAUNIT
 70
     0
  9
$DIMADEC
 70
     2
  9
$DIMALTRND
 40
0.0
  9
$DIMAZIN
 70
     0
  9
$DIMDSEP
 70
    46
  9
$DIMATFIT
 70
     3
  9
$DIMFRAC
 70
     0
  9
$DIMLDRBLK
  1

  9
$DIMLUNIT
 70
     2
  9
$DIMLWD
 70
    -2
  9
$DIMLWE
 70
    -2
  9
$DIMTMOVE
 70
     0
  9
$LUNITS
 70
     2
  9
$LUPREC
 70
     2
  9
$SKETCHINC
 40
0.1
  9
$FILLETRAD
 40
0.5
  9
$AUNITS
 70
     0
  9
$AUPREC
 70
     2
  9
$MENU
  1
.
  9
$ELEVATION
 40
0.0
  9
$PELEVATION
 40
0.0
  9
$THICKNESS
 40
0.0
  9
$LIMCHECK
 70
     0
  9
$CHAMFERA
 40
0.5
  9
$CHAMFERB
 40
0.5
  9
$CHAMFERC
 40
1.0
  9
$CHAMFERD
 40
0.0
  9
$SKPOLY
 70
     0
  9
$TDCREATE
 40
2456966.623609074
  9
$TDUCREATE
 40
2456966.831942407
  9
$TDUPDATE
 40
2456966.623609086
  9
$TDUUPDATE
 40
2456966.831942419
  9
$TDINDWG
 40
0.0000000116
  9
$TDUSRTIMER
 40
0.0000000116
  9
$USRTIMER
 70
     1
  9
$ANGBASE
 50
0.0
  9
$ANGDIR
 70
     0
  9
$PDMODE
 70
     0
  9
$PDSIZE
 40
-1.0
  9
$PLINEWID
 40
0.0
  9
$SPLFRAME
 70
     0
  9
$SPLINETYPE
 70
     6
  9
$SPLINESEGS
 70
     8
  9
$HANDSEED
  5
5B0
  9
$SURFTAB1
 70
     6
  9
$SURFTAB2
 70
     6
  9
$SURFTYPE
 70
     6
  9
$SURFU
 70
     6
  9
$SURFV
 70
     6
  9
$UCSBASE
  2

  9
$UCSNAME
  2

  9
$UCSORG
 10
0.0
 20
0.0
 30
0.0
  9
$UCSXDIR
 10
1.0
 20
0.0
 30
0.0
  9
$UCSYDIR
 10
0.0
 20
1.0
 30
0.0
  9
$UCSORTHOREF
  2

  9
$UCSORTHOVIEW
 70
     0
  9
$UCSORGTOP
 10
0.0
 20
0.0
 30
0.0
  9
$UCSORGBOTTOM
 10
0.0
 20
0.0
 30
0.0
  9
$UCSORGLEFT
 10
0.0
 20
0.0
 30
0.0
  9
$UCSORGRIGHT
 10
0.0
 20
0.0
 30
0.0
  9
$UCSORGFRONT
 10
0.0
 20
0.0
 30
0.0
  9
$UCSORGBACK
 10
0.0
 20
0.0
 30
0.0
  9
$PUCSBASE
  2

  9
$PUCSNAME
  2

  9
$PUCSORG
 10
0.0
 20
0.0
 30
0.0
  9
$PUCSXDIR
 10
1.0
 20
0.0
 30
0.0
  9
$PUCSYDIR
 10
0.0
 20
1.0
 30
0.0
  9
$PUCSORTHOREF
  2

  9
$PUCSORTHOVIEW
 70
     0
  9
$PUCSORGTOP
 10
0.0
 20
0.0
 30
0.0
  9
$PUCSORGBOTTOM
 10
0.0
 20
0.0
 30
0.0
  9
$PUCSORGLEFT
 10
0.0
 20
0.0
 30
0.0
  9
$PUCSORGRIGHT
 10
0.0
 20
0.0
 30
0.0
  9
$PUCSORGFRONT
 10
0.0
 20
0.0
 30
0.0
  9
$PUCSORGBACK
 10
0.0
 20
0.0
 30
0.0
  9
$USERI1
 70
     0
  9
$USERI2
 70
     0
  9
$USERI3
 70
     0
  9
$USERI4
 70
     0
  9
$USERI5
 70
     0
  9
$USERR1
 40
0.0
  9
$USERR2
 40
0.0
  9
$USERR3
 40
0.0
  9
$USERR4
 40
0.0
  9
$USERR5
 40
0.0
  9
$WORLDVIEW
 70
     1
  9
$SHADEDGE
 70
     3
  9
$SHADEDIF
 70
    70
  9
$TILEMODE
 70
     1
  9
$MAXACTVP
 70
    64
  9
$PINSBASE
 10
0.0
 20
0.0
 30
0.0
  9
$PLIMCHECK
 70
     0
  9
$PEXTMIN
 10
1.0000000000E+20
 20
1.0000000000E+20
 30
1.0000000000E+20
  9
$PEXTMAX
 10
-1.0000000000E+20
 20
-1.0000000000E+20
 30
-1.0000000000E+20
  9
$PLIMMIN
 10
0.0
 20
0.0
  9
$PLIMMAX
 10
12.0
 20
9.0
  9
$UNITMODE
 70
     0
  9
$VISRETAIN
 70
     1
  9
$PLINEGEN
 70
     0
  9
$PSLTSCALE
 70
     1
  9
$TREEDEPTH
 70
  3020
  9
$CMLSTYLE
  2
Standard
  9
$CMLJUST
 70
     0
  9
$CMLSCALE
 40
1.0
  9
$PROXYGRAPHICS
 70
     1
  9
$MEASUREMENT
 70
     0
  9
$CELWEIGHT
370
    -1
  9
$ENDCAPS
280
     0
  9
$JOINSTYLE
280
     0
  9
$LWDISPLAY
290
     1
  9
$INSUNITS
 70
     1
  9
$HYPERLINKBASE
  1

  9
$STYLESHEET
  1

  9
$XEDIT
290
     1
  9
$CEPSNTYPE
380
     0
  9
$PSTYLEMODE
290
     1
  9
$FINGERPRINTGUID
  2
{EC5BEB18-C10A-453B-A856-A75F14494905}
  9
$VERSIONGUID
  2
{FAEB1C32-E019-11D5-929B-00C0DF256EC4}
  9
$EXTNAMES
290
     1
  9
$PSVPSCALE
 40
0.0
  9
$OLESTARTUP
290
     0
  0
ENDSEC
  0
SECTION
  2
CLASSES
  0
CLASS
  1
ACDBDICTIONARYWDFLT
  2
AcDbDictionaryWithDefault
  3
ObjectDBX Classes
 90
        0
280
     0
281
     0
  0
CLASS
  1
VISUALSTYLE
  2
AcDbVisualStyle
  3
ObjectDBX Classes
 90
     4095
280
     0
281
     0
  0
CLASS
  1
MATERIAL
  2
AcDbMaterial
  3
ObjectDBX Classes
 90
     1153
280
     0
281
     0
  0
CLASS
  1
ACDBPLACEHOLDER
  2
AcDbPlaceHolder
  3
ObjectDBX Classes
 90
        0
280
     0
281
     0
  0
CLASS
  1
LAYOUT
  2
AcDbLayout
  3
ObjectDBX Classes
 90
        0
280
     0
281
     0
  0
ENDSEC
  0
SECTION
  2
TABLES
  0
TABLE
  2
VPORT
  5
8
330
0
100
AcDbSymbolTable
 70
     1
  0
VPORT
  5
29
330
8
100
AcDbSymbolTableRecord
100
AcDbViewportTableRecord
  2
*Active
 70
     0
 10
0.0
 20
0.0
 11
1.0
 21
1.0
 12
6.375
 22
4.125
 13
0.0
 23
0.0
 14
0.5
 24
0.5
 15
0.5
 25
0.5
 16
0.0
 26
0.0
 36
1.0
 17
0.0
 27
0.0
 37
0.0
 40
8.25
 41
1.5454545455
 42
50.0
 43
0.0
 44
0.0
 50
0.0
 51
0.0
 71
     0
 72
  2000
 73
     1
 74
     3
 75
     0
 76
     0
 77
     0
 78
     0
281
     0
 65
     1
110
0.0
120
0.0
130
0.0
111
1.0
121
0.0
131
0.0
112
0.0
122
1.0
132
0.0
 79
     0
146
0.0
  0
ENDTAB
  0
TABLE
  2
LTYPE
  5
5
330
0
100
AcDbSymbolTable
 70
     6
  0
LTYPE
  5
14
330
5
100
AcDbSymbolTableRecord
100
AcDbLinetypeTableRecord
  2
ByBlock
 70
     0
  3

 72
    65
 73
     0
 40
0.0
  0
LTYPE
  5
15
330
5
100
AcDbSymbolTableRecord
100
AcDbLinetypeTableRecord
  2
ByLayer
 70
     0
  3

 72
    65
 73
     0
 40
0.0
  0
LTYPE
  5
16
330
5
100
AcDbSymbolTableRecord
100
AcDbLinetypeTableRecord
  2
Continuous
 70
     0
  3
Solid line
 72
    65
 73
     0
 40
0.0
  0
LTYPE
  5
3F
330
5
100
AcDbSymbolTableRecord
100
AcDbLinetypeTableRecord
  2
HIDDEN
 70
     0
  3
Hidden __ __ __ __ __ __ __ __ __ __ __ __ __ __
 72
    65
 73
     2
 40
0.075
 49
0.05
 74
     0
 49
-0.025
 74
     0
  0
LTYPE
  5
40
330
5
100
AcDbSymbolTableRecord
100
AcDbLinetypeTableRecord
  2
PHANTOM
 70
     0
  3
Phantom ______  __  __  ______  __  __  ______
 72
    65
 73
     6
 40
0.5
 49
0.25
 74
     0
 49
-0.05
 74
     0
 49
0.05
 74
     0
 49
-0.05
 74
     0
 49
0.05
 74
     0
 49
-0.05
 74
     0
  0
LTYPE
  5
41
330
5
100
AcDbSymbolTableRecord
100
AcDbLinetypeTableRecord
  2
CENTER
 70
     0
  3
Center ____ _ ____ _ ____ _ ____ _ ____ _ ____
 72
    65
 73
     4
 40
0.4
 49
0.25
 74
     0
 49
-0.05
 74
     0
 49
0.05
 74
     0
 49
-0.05
 74
     0
  0
LTYPE
  5
42
330
5
100
AcDbSymbolTableRecord
100
AcDbLinetypeTableRecord
  2
CENTERX2
 70
     0
  3
Center (2x) ________  __  ________  __  _____
 72
    65
 73
     4
 40
0.8
 49
0.5
 74
     0
 49
-0.1
 74
     0
 49
0.1
 74
     0
 49
-0.1
 74
     0
  0
LTYPE
  5
43
330
5
100
AcDbSymbolTableRecord
100
AcDbLinetypeTableRecord
  2
DOT2
 70
     0
  3
Dot (.5x) ........................................
 72
    65
 73
     2
 40
0.025
 49
0.0
 74
     0
 49
-0.025
 74
     0
  0
ENDTAB
  0
TABLE
  2
LAYER
  5
2
330
0
100
AcDbSymbolTable
 70
     1
  0
LAYER
  5
10
330
2
100
AcDbSymbolTableRecord
100
AcDbLayerTableRecord
  2
0
 70
     0
 62
     7
  6
Continuous
370
    -3
390
F
  0
ENDTAB
  0
TABLE
  2
STYLE
  5
3
330
0
100
AcDbSymbolTable
 70
     3
  0
STYLE
  5
11
330
3
100
AcDbSymbolTableRecord
100
AcDbTextStyleTableRecord
  2
Standard
 70
     0
 40
0.0
 41
1.0
 50
0.0
 71
     0
 42
0.2
  3
txt
  4

  0
STYLE
  5
77
330
3
100
AcDbSymbolTableRecord
100
AcDbTextStyleTableRecord
  2
SLDTEXTSTYLE0
 70
     0
 40
0.0
 41
0.75
 50
0.0
 71
     0
 42
0.2
  3
TXT
  4

  0
STYLE
  5
81
330
3
100
AcDbSymbolTableRecord
100
AcDbTextStyleTableRecord
  2
SLDTEXTSTYLE1
 70
     0
 40
0.0
 41
0.7
 50
0.0
 71
     0
 42
0.2
  3
TXT
  4

  0
ENDTAB
  0
TABLE
  2
VIEW
  5
6
330
0
100
AcDbSymbolTable
 70
     0
  0
ENDTAB
  0
TABLE
  2
UCS
  5
7
330
0
100
AcDbSymbolTable
 70
     0
  0
ENDTAB
  0
TABLE
  2
APPID
  5
9
330
0
100
AcDbSymbolTable
 70
     1
  0
APPID
  5
12
330
9
100
AcDbSymbolTableRecord
100
AcDbRegAppTableRecord
  2
ACAD
 70
     0
  0
ENDTAB
  0
TABLE
  2
DIMSTYLE
  5
A
330
0
100
AcDbSymbolTable
 70
    10
100
AcDbDimStyleTable
  0
DIMSTYLE
105
27
330
A
100
AcDbSymbolTableRecord
100
AcDbDimStyleTableRecord
  2
Standard
 70
     0
178
     0
340
11
  0
DIMSTYLE
105
F2
102
{ACAD_REACTORS
330
F1
330
17C
102
}
330
A
100
AcDbSymbolTableRecord
100
AcDbDimStyleTableRecord
  2
SLDDIMSTYLE0
 70
     0
 41
0.0975
 44
0.0
 45
0.000000001
 78
    12
 79
     3
140
0.09375
141
0.0
147
0.0234375
148
0.000000001
170
     1
173
     1
178
     0
271
     2
272
     2
276
     2
284
    12
340
77
  0
DIMSTYLE
105
103
102
{ACAD_REACTORS
330
102
330
12C
330
19E
330
411
102
}
330
A
100
AcDbSymbolTableRecord
100
AcDbDimStyleTableRecord
  2
SLDDIMSTYLE1
 70
     0
 41
0.0975
 44
0.0
 45
0.000000001
 78
     4
 79
     1
140
0.09375
147
0.0234375
148
0.000000001
170
     1
173
     1
178
     0
271
     2
272
     2
276
     2
284
    12
340
77
  0
DIMSTYLE
105
118
102
{ACAD_REACTORS
330
117
330
140
330
154
330
168
330
1B2
330
1C6
330
3FD
330
425
330
439
330
484
330
505
330
574
330
588
330
59C
102
}
330
A
100
AcDbSymbolTableRecord
100
AcDbDimStyleTableRecord
  2
SLDDIMSTYLE2
 70
     0
 41
0.0975
 44
0.0
 45
0.000000001
 78
    12
 79
     3
140
0.09375
147
0.0234375
148
0.000000001
170
     1
173
     1
178
     0
271
     2
272
     2
276
     2
284
    12
340
77
  0
DIMSTYLE
105
18D
102
{ACAD_REACTORS
330
18C
102
}
330
A
100
AcDbSymbolTableRecord
100
AcDbDimStyleTableRecord
  2
SLDDIMSTYLE3
 70
     0
 41
0.0975
 44
0.0
 45
0.000000001
 78
    12
 79
     3
140
0.09375
141
0.0
147
0.0234375
148
0.000000001
170
     1
173
     1
178
     0
271
     2
272
     2
276
     2
284
    12
340
77
  0
DIMSTYLE
105
1E1
330
A
100
AcDbSymbolTableRecord
100
AcDbDimStyleTableRecord
  2
SLDDIMSTYLE4
 70
     0
 41
0.0975
 44
0.0
 45
0.000000001
140
0.0
146
0.0975
147
0.0
173
     1
178
     0
271
     0
272
     0
276
     2
340
11
  0
DIMSTYLE
105
34A
102
{ACAD_REACTORS
330
349
330
35D
330
372
330
498
330
4DC
330
4F1
102
}
330
A
100
AcDbSymbolTableRecord
100
AcDbDimStyleTableRecord
  2
SLDDIMSTYLE5
 70
     0
 41
0.0975
 44
0.0
 45
0.000000001
 78
    12
 79
     3
140
0.09375
147
0.0234375
148
0.000000001
170
     1
172
     1
173
     1
178
     0
271
     2
272
     2
276
     2
284
    12
289
     0
340
77
  0
DIMSTYLE
105
387
102
{ACAD_REACTORS
330
386
102
}
330
A
100
AcDbSymbolTableRecord
100
AcDbDimStyleTableRecord
  2
SLDDIMSTYLE6
 70
     0
 41
0.0975
 44
0.0
 45
0.000000001
 78
     4
 79
     1
140
0.09375
147
0.0234375
148
0.000000001
170
     1
172
     1
173
     1
178
     0
271
     2
272
     2
276
     2
284
    12
289
     0
340
77
  0
DIMSTYLE
105
472
102
{ACAD_REACTORS
330
471
102
}
330
A
100
AcDbSymbolTableRecord
100
AcDbDimStyleTableRecord
  2
SLDDIMSTYLE7
 70
     0
 41
0.0975
 44
0.0
 78
    12
 79
     3
140
0.09375
144
0.75
147
0.0234375
148
0.000000001
170
     1
173
     1
178
     0
272
     0
276
     2
284
    12
340
77
  0
DIMSTYLE
105
520
330
A
100
AcDbSymbolTableRecord
100
AcDbDimStyleTableRecord
  2
SLDDIMSTYLE8
 70
     0
 41
0.03
 44
0.0
 45
0.000000001
140
0.0
146
0.03
147
0.0
173
     1
178
     0
271
     0
272
     0
276
     2
340
11
341
521
343
521
344
521
  0
ENDTAB
  0
TABLE
  2
BLOCK_RECORD
  5
1
330
0
100
AcDbSymbolTable
 70
    43
  0
BLOCK_RECORD
  5
1F
330
1
100
AcDbSymbolTableRecord
100
AcDbBlockTableRecord
  2
*Model_Space
340
22
  0
BLOCK_RECORD
  5
1B
330
1
100
AcDbSymbolTableRecord
100
AcDbBlockTableRecord
  2
*Paper_Space
340
1E
  0
BLOCK_RECORD
  5
23
330
1
100
AcDbSymbolTableRecord
100
AcDbBlockTableRecord
  2
*Paper_Space0
340
26
  0
BLOCK_RECORD
  5
74
330
1
100
AcDbSymbolTableRecord
100
AcDbBlockTableRecord
  2
SW_NOTE_0
340
0
102
{BLKREFS
331
7E
102
}
  0
BLOCK_RECORD
  5
83
330
1
100
AcDbSymbolTableRecord
100
AcDbBlockTableRecord
  2
SW_NOTE_1
340
0
102
{BLKREFS
331
88
102
}
  0
BLOCK_RECORD
  5
89
330
1
100
AcDbSymbolTableRecord
100
AcDbBlockTableRecord
  2
SW_NOTE_2
340
0
102
{BLKREFS
331
8E
102
}
  0
BLOCK_RECORD
  5
8F
330
1
100
AcDbSymbolTableRecord
100
AcDbBlockTableRecord
  2
SW_NOTE_3
340
0
102
{BLKREFS
331
94
102
}
  0
BLOCK_RECORD
  5
F3
330
1
100
AcDbSymbolTableRecord
100
AcDbBlockTableRecord
  2
*D5
340
0
  0
BLOCK_RECORD
  5
104
330
1
100
AcDbSymbolTableRecord
100
AcDbBlockTableRecord
  2
*D6
340
0
  0
BLOCK_RECORD
  5
119
330
1
100
AcDbSymbolTableRecord
100
AcDbBlockTableRecord
  2
*D7
340
0
  0
BLOCK_RECORD
  5
12D
330
1
100
AcDbSymbolTableRecord
100
AcDbBlockTableRecord
  2
*D8
340
0
  0
BLOCK_RECORD
  5
141
330
1
100
AcDbSymbolTableRecord
100
AcDbBlockTableRecord
  2
*D9
340
0
  0
BLOCK_RECORD
  5
155
330
1
100
AcDbSymbolTableRecord
100
AcDbBlockTableRecord
  2
*D10
340
0
  0
BLOCK_RECORD
  5
169
330
1
100
AcDbSymbolTableRecord
100
AcDbBlockTableRecord
  2
*D11
340
0
  0
BLOCK_RECORD
  5
17D
330
1
100
AcDbSymbolTableRecord
100
AcDbBlockTableRecord
  2
*D12
340
0
  0
BLOCK_RECORD
  5
18E
330
1
100
AcDbSymbolTableRecord
100
AcDbBlockTableRecord
  2
*D13
340
0
  0
BLOCK_RECORD
  5
19F
330
1
100
AcDbSymbolTableRecord
100
AcDbBlockTableRecord
  2
*D14
340
0
  0
BLOCK_RECORD
  5
1B3
330
1
100
AcDbSymbolTableRecord
100
AcDbBlockTableRecord
  2
*D15
340
0
  0
BLOCK_RECORD
  5
1C7
330
1
100
AcDbSymbolTableRecord
100
AcDbBlockTableRecord
  2
*D16
340
0
  0
BLOCK_RECORD
  5
1DA
330
1
100
AcDbSymbolTableRecord
100
AcDbBlockTableRecord
  2
SW_NOTE_4
340
0
102
{BLKREFS
331
1E0
102
}
  0
BLOCK_RECORD
  5
1E3
330
1
100
AcDbSymbolTableRecord
100
AcDbBlockTableRecord
  2
SW_CENTERMARKSYMBOL_0
340
0
102
{BLKREFS
331
1EE
102
}
  0
BLOCK_RECORD
  5
1EF
330
1
100
AcDbSymbolTableRecord
100
AcDbBlockTableRecord
  2
SW_CENTERMARKSYMBOL_1
340
0
102
{BLKREFS
331
1FA
102
}
  0
BLOCK_RECORD
  5
1FB
330
1
100
AcDbSymbolTableRecord
100
AcDbBlockTableRecord
  2
SW_CENTERMARKSYMBOL_2
340
0
102
{BLKREFS
331
206
102
}
  0
BLOCK_RECORD
  5
207
330
1
100
AcDbSymbolTableRecord
100
AcDbBlockTableRecord
  2
SW_CENTERMARKSYMBOL_3
340
0
102
{BLKREFS
331
212
102
}
  0
BLOCK_RECORD
  5
213
330
1
100
AcDbSymbolTableRecord
100
AcDbBlockTableRecord
  2
SW_CENTERMARKSYMBOL_4
340
0
102
{BLKREFS
331
21E
102
}
  0
BLOCK_RECORD
  5
21F
330
1
100
AcDbSymbolTableRecord
100
AcDbBlockTableRecord
  2
SW_CENTERMARKSYMBOL_5
340
0
102
{BLKREFS
331
22A
102
}
  0
BLOCK_RECORD
  5
34B
330
1
100
AcDbSymbolTableRecord
100
AcDbBlockTableRecord
  2
*D24
340
0
  0
BLOCK_RECORD
  5
35E
330
1
100
AcDbSymbolTableRecord
100
AcDbBlockTableRecord
  2
*D25
340
0
  0
BLOCK_RECORD
  5
373
330
1
100
AcDbSymbolTableRecord
100
AcDbBlockTableRecord
  2
*D26
340
0
  0
BLOCK_RECORD
  5
388
330
1
100
AcDbSymbolTableRecord
100
AcDbBlockTableRecord
  2
*D27
340
0
  0
BLOCK_RECORD
  5
3FE
330
1
100
AcDbSymbolTableRecord
100
AcDbBlockTableRecord
  2
*D28
340
0
  0
BLOCK_RECORD
  5
412
330
1
100
AcDbSymbolTableRecord
100
AcDbBlockTableRecord
  2
*D29
340
0
  0
BLOCK_RECORD
  5
426
330
1
100
AcDbSymbolTableRecord
100
AcDbBlockTableRecord
  2
*D30
340
0
  0
BLOCK_RECORD
  5
43A
330
1
100
AcDbSymbolTableRecord
100
AcDbBlockTableRecord
  2
*D31
340
0
  0
BLOCK_RECORD
  5
473
330
1
100
AcDbSymbolTableRecord
100
AcDbBlockTableRecord
  2
*D32
340
0
  0
BLOCK_RECORD
  5
485
330
1
100
AcDbSymbolTableRecord
100
AcDbBlockTableRecord
  2
*D33
340
0
  0
BLOCK_RECORD
  5
499
330
1
100
AcDbSymbolTableRecord
100
AcDbBlockTableRecord
  2
*D34
340
0
  0
BLOCK_RECORD
  5
4DD
330
1
100
AcDbSymbolTableRecord
100
AcDbBlockTableRecord
  2
*D35
340
0
  0
BLOCK_RECORD
  5
4F2
330
1
100
AcDbSymbolTableRecord
100
AcDbBlockTableRecord
  2
*D36
340
0
  0
BLOCK_RECORD
  5
506
330
1
100
AcDbSymbolTableRecord
100
AcDbBlockTableRecord
  2
*D37
340
0
  0
BLOCK_RECORD
  5
519
330
1
100
AcDbSymbolTableRecord
100
AcDbBlockTableRecord
  2
SW_NOTE_5
340
0
102
{BLKREFS
331
51F
102
}
  0
BLOCK_RECORD
  5
521
330
1
100
AcDbSymbolTableRecord
100
AcDbBlockTableRecord
  2
_DOT
340
0
  0
BLOCK_RECORD
  5
575
330
1
100
AcDbSymbolTableRecord
100
AcDbBlockTableRecord
  2
*D40
340
0
  0
BLOCK_RECORD
  5
589
330
1
100
AcDbSymbolTableRecord
100
AcDbBlockTableRecord
  2
*D41
340
0
  0
BLOCK_RECORD
  5
59D
330
1
100
AcDbSymbolTableRecord
100
AcDbBlockTableRecord
  2
*D42
340
0
  0
ENDTAB
  0
ENDSEC
  0
SECTION
  2
BLOCKS
  0
BLOCK
  5
20
330
1F
100
AcDbEntity
  8
0
100
AcDbBlockBegin
  2
*Model_Space
 70
     0
 10
0.0
 20
0.0
 30
0.0
  3
*Model_Space
  1

  0
ENDBLK
  5
21
330
1F
100
AcDbEntity
  8
0
100
AcDbBlockEnd
  0
BLOCK
  5
1C
330
1B
100
AcDbEntity
 67
     1
  8
0
100
AcDbBlockBegin
  2
*Paper_Space
 70
     0
 10
0.0
 20
0.0
 30
0.0
  3
*Paper_Space
  1

  0
ENDBLK
  5
1D
330
1B
100
AcDbEntity
 67
     1
  8
0
100
AcDbBlockEnd
  0
BLOCK
  5
24
330
23
100
AcDbEntity
  8
0
100
AcDbBlockBegin
  2
*Paper_Space0
 70
     0
 10
0.0
 20
0.0
 30
0.0
  3
*Paper_Space0
  1

  0
ENDBLK
  5
25
330
23
100
AcDbEntity
  8
0
100
AcDbBlockEnd
  0
BLOCK
  5
75
330
74
100
AcDbEntity
  8
0
100
AcDbBlockBegin
  2
SW_NOTE_0
 70
     0
 10
0.0
 20
0.0
 30
0.0
  3
SW_NOTE_0
  1

  0
MTEXT
  5
78
330
74
100
AcDbEntity
  8
0
  6
Continuous
 62
     0
370
     0
100
AcDbMText
 10
0.0
 20
0.1208501006
 30
0.0
 40
0.09375
 41
0.0
 71
     1
 72
     1
  1
MATERIAL:
  7
SLDTEXTSTYLE0
 73
     1
 44
1.0
  0
MTEXT
  5
79
330
74
100
AcDbEntity
  8
0
  6
Continuous
 62
     0
370
     0
100
AcDbMText
 10
0.03515625
 20
-0.0024274553
 30
0.0
 40
0.09375
 41
0.0
 71
     1
 72
     1
  1
ABS UL94-HB
  7
SLDTEXTSTYLE0
 73
     1
 44
1.0
  0
MTEXT
  5
7A
330
74
100
AcDbEntity
  8
0
  6
Continuous
 62
     0
370
     0
100
AcDbMText
 10
0.0
 20
-0.2489825671
 30
0.0
 40
0.09375
 41
0.0
 71
     1
 72
     1
  1
COLOR:
  7
SLDTEXTSTYLE0
 73
     1
 44
1.0
  0
MTEXT
  5
7B
330
74
100
AcDbEntity
  8
0
  6
Continuous
 62
     0
370
     0
100
AcDbMText
 10
0.03515625
 20
-0.3722601229
 30
0.0
 40
0.09375
 41
0.0
 71
     1
 72
     1
  1
BLACK OR WHITE
  7
SLDTEXTSTYLE0
 73
     1
 44
1.0
  0
MTEXT
  5
7C
330
74
100
AcDbEntity
  8
0
  6
Continuous
 62
     0
370
     0
100
AcDbMText
 10
0.0
 20
-0.7420927906
 30
0.0
 40
0.09375
 41
0.0
 71
     1
 72
     1
  1
DIMENSIONS IN INCH[MM]
  7
SLDTEXTSTYLE0
 73
     1
 44
1.0
  0
MTEXT
  5
7D
330
74
100
AcDbEntity
  8
0
  6
Continuous
 62
     0
370
     0
100
AcDbMText
 10
0.0
 20
-0.9886479024
 30
0.0
 40
0.09375
 41
0.0
 71
     1
 72
     1
  1
DRAWING FOR REFERENCE
  7
SLDTEXTSTYLE0
 73
     1
 44
1.0
  0
ENDBLK
  5
76
330
74
100
AcDbEntity
  8
0
100
AcDbBlockEnd
  0
BLOCK
  5
84
330
83
100
AcDbEntity
  8
0
100
AcDbBlockBegin
  2
SW_NOTE_1
 70
     0
 10
0.0
 20
0.0
 30
0.0
  3
SW_NOTE_1
  1

  0
MTEXT
  5
86
330
83
100
AcDbEntity
  8
0
  6
Continuous
 62
     0
370
     0
100
AcDbMText
 10
0.1420898437
 20
0.1208501006
 30
0.0
 40
0.09375
 41
0.0
 71
     2
 72
     1
  1
PART
  7
SLDTEXTSTYLE0
 73
     1
 44
1.0
  0
MTEXT
  5
87
330
83
100
AcDbEntity
  8
0
  6
Continuous
 62
     0
370
     0
100
AcDbMText
 10
0.1408284525
 20
-0.0024274553
 30
0.0
 40
0.09375
 41
0.0
 71
     2
 72
     1
  1
NAME
  7
SLDTEXTSTYLE0
 73
     1
 44
1.0
  0
ENDBLK
  5
85
330
83
100
AcDbEntity
  8
0
100
AcDbBlockEnd
  0
BLOCK
  5
8A
330
89
100
AcDbEntity
  8
0
100
AcDbBlockBegin
  2
SW_NOTE_2
 70
     0
 10
0.0
 20
0.0
 30
0.0
  3
SW_NOTE_2
  1

  0
MTEXT
  5
8C
330
89
100
AcDbEntity
  8
0
  6
Continuous
 62
     0
370
     0
100
AcDbMText
 10
0.1420898438
 20
0.1208501006
 30
0.0
 40
0.09375
 41
0.0
 71
     2
 72
     1
  1
PART
  7
SLDTEXTSTYLE0
 73
     1
 44
1.0
  0
MTEXT
  5
8D
330
89
100
AcDbEntity
  8
0
  6
Continuous
 62
     0
370
     0
100
AcDbMText
 10
0.1463216161
 20
-0.0024274553
 30
0.0
 40
0.09375
 41
0.0
 71
     2
 72
     1
  1
No.
  7
SLDTEXTSTYLE0
 73
     1
 44
1.0
  0
ENDBLK
  5
8B
330
89
100
AcDbEntity
  8
0
100
AcDbBlockEnd
  0
BLOCK
  5
90
330
8F
100
AcDbEntity
  8
0
100
AcDbBlockBegin
  2
SW_NOTE_3
 70
     0
 10
0.0
 20
0.0
 30
0.0
  3
SW_NOTE_3
  1

  0
MTEXT
  5
92
330
8F
100
AcDbEntity
  8
0
  6
Continuous
 62
     0
370
     0
100
AcDbMText
 10
0.275390625
 20
0.1208501006
 30
0.0
 40
0.09375
 41
0.0
 71
     2
 72
     1
  1
REVISION
  7
SLDTEXTSTYLE0
 73
     1
 44
1.0
  0
MTEXT
  5
93
330
8F
100
AcDbEntity
  8
0
  6
Continuous
 62
     0
370
     0
100
AcDbMText
 10
0.2651204427
 20
-0.0024274553
 30
0.0
 40
0.09375
 41
0.0
 71
     2
 72
     1
  1
DATE
  7
SLDTEXTSTYLE0
 73
     1
 44
1.0
  0
ENDBLK
  5
91
330
8F
100
AcDbEntity
  8
0
100
AcDbBlockEnd
  0
BLOCK
  5
F4
330
F3
100
AcDbEntity
  8
0
100
AcDbBlockBegin
  2
*D5
 70
     1
 10
0.0
 20
0.0
 30
0.0
  3
*D5
  1

  0
SOLID
  5
F6
330
F3
100
AcDbEntity
  8
0
  6
Continuous
 62
     7
370
     0
100
AcDbTrace
 10
2.1838600812
 20
5.2089932195
 30
0.0
 11
2.1362682822
 21
5.1225856349
 31
0.0
 12
2.164441281
 22
5.112276312
 32
0.0
 13
2.164441281
 23
5.112276312
 33
0.0
  0
LINE
  5
F7
330
F3
100
AcDbEntity
  8
0
  6
Continuous
 62
     7
370
     0
100
AcDbLine
 10
1.241899225
 20
3.740402631
 30
0.0
 11
1.2228562552
 21
3.740402631
 31
0.0
  0
LINE
  5
F8
330
F3
100
AcDbEntity
  8
0
  6
Continuous
 62
     7
370
     0
100
AcDbLine
 10
1.2228562552
 20
3.740402631
 30
0.0
 11
1.2228562552
 21
3.5915745015
 31
0.0
  0
LINE
  5
F9
330
F3
100
AcDbEntity
  8
0
  6
Continuous
 62
     7
370
     0
100
AcDbLine
 10
1.2228562552
 20
3.5915745015
 30
0.0
 11
1.241899225
 21
3.5915745015
 31
0.0
  0
LINE
  5
FA
330
F3
100
AcDbEntity
  8
0
  6
Continuous
 62
     7
370
     0
100
AcDbLine
 10
1.4626837261
 20
3.740402631
 30
0.0
 11
1.4817266959
 21
3.740402631
 31
0.0
  0
LINE
  5
FB
330
F3
100
AcDbEntity
  8
0
  6
Continuous
 62
     7
370
     0
100
AcDbLine
 10
1.4817266959
 20
3.740402631
 30
0.0
 11
1.4817266959
 21
3.5915745015
 31
0.0
  0
LINE
  5
FC
330
F3
100
AcDbEntity
  8
0
  6
Continuous
 62
     7
370
     0
100
AcDbLine
 10
1.4817266959
 20
3.5915745015
 30
0.0
 11
1.4626837261
 21
3.5915745015
 31
0.0
  0
LINE
  5
FD
330
F3
100
AcDbEntity
  8
0
  6
Continuous
 62
     7
370
     0
100
AcDbLine
 10
2.1838600812
 20
5.2089932195
 30
0.0
 11
1.6414093146
 21
3.7266005473
 31
0.0
  0
LINE
  5
FE
330
F3
100
AcDbEntity
  8
0
  6
Continuous
 62
     7
370
     0
100
AcDbLine
 10
1.6414093146
 20
3.7266005473
 30
0.0
 11
1.5476593146
 21
3.7266005473
 31
0.0
  0
MTEXT
  5
FF
330
F3
100
AcDbEntity
  8
0
  6
Continuous
 62
     7
370
     0
100
AcDbMText
 10
1.1569236434
 20
3.8802957013
 30
-0.4292028033
 40
0.09375
 41
0.0
 71
     1
 72
     1
  1
%%c
  7
SLDTEXTSTYLE0
 73
     1
 44
1.0
  0
MTEXT
  5
100
330
F3
100
AcDbEntity
  8
0
  6
Continuous
 62
     7
370
     0
100
AcDbMText
 10
1.2983103588
 20
3.8802957013
 30
-0.4292028033
 40
0.09375
 41
0.0
 71
     1
 72
     1
  1
.18
  7
SLDTEXTSTYLE0
 73
     1
 44
1.0
  0
MTEXT
  5
101
330
F3
100
AcDbEntity
  8
0
  6
Continuous
 62
     7
370
     0
100
AcDbMText
 10
1.2657029371
 20
3.7124245969
 30
-0.4292028033
 40
0.09375
 41
0.0
 71
     1
 72
     1
  1
4.5
  7
SLDTEXTSTYLE0
 73
     1
 44
1.0
  0
ENDBLK
  5
F5
330
F3
100
AcDbEntity
  8
0
100
AcDbBlockEnd
  0
BLOCK
  5
105
330
104
100
AcDbEntity
  8
0
100
AcDbBlockBegin
  2
*D6
 70
     1
 10
0.0
 20
0.0
 30
0.0
  3
*D6
  1

  0
SOLID
  5
107
330
104
100
AcDbEntity
  8
0
  6
Continuous
 62
     7
370
     0
100
AcDbTrace
 10
2.852096271
 20
3.9841466493
 30
0.0
 11
2.949596271
 21
3.9691466493
 31
0.0
 12
2.949596271
 22
3.9991466493
 32
0.0
 13
2.949596271
 23
3.9991466493
 33
0.0
  0
SOLID
  5
108
330
104
100
AcDbEntity
  8
0
  6
Continuous
 62
     7
370
     0
100
AcDbTrace
 10
3.9544584757
 20
3.9841466493
 30
0.0
 11
3.8569584757
 21
3.9991466493
 31
0.0
 12
3.8569584757
 22
3.9691466493
 32
0.0
 13
3.8569584757
 23
3.9691466493
 33
0.0
  0
LINE
  5
109
330
104
100
AcDbEntity
  8
0
  6
Continuous
 62
     7
370
     0
100
AcDbLine
 10
3.3102028311
 20
3.9834305026
 30
0.0
 11
3.2911598614
 21
3.9834305026
 31
0.0
  0
LINE
  5
10A
330
104
100
AcDbEntity
  8
0
  6
Continuous
 62
     7
370
     0
100
AcDbLine
 10
3.2911598614
 20
3.9834305026
 30
0.0
 11
3.2911598614
 21
3.8346023731
 31
0.0
  0
LINE
  5
10B
330
104
100
AcDbEntity
  8
0
  6
Continuous
 62
     7
370
     0
100
AcDbLine
 10
3.2911598614
 20
3.8346023731
 30
0.0
 11
3.3102028311
 21
3.8346023731
 31
0.0
  0
LINE
  5
10C
330
104
100
AcDbEntity
  8
0
  6
Continuous
 62
     7
370
     0
100
AcDbLine
 10
3.4963519224
 20
3.9834305026
 30
0.0
 11
3.5153948921
 21
3.9834305026
 31
0.0
  0
LINE
  5
10D
330
104
100
AcDbEntity
  8
0
  6
Continuous
 62
     7
370
     0
100
AcDbLine
 10
3.5153948921
 20
3.9834305026
 30
0.0
 11
3.5153948921
 21
3.8346023731
 31
0.0
  0
LINE
  5
10E
330
104
100
AcDbEntity
  8
0
  6
Continuous
 62
     7
370
     0
100
AcDbLine
 10
3.5153948921
 20
3.8346023731
 30
0.0
 11
3.4963519224
 21
3.8346023731
 31
0.0
  0
LINE
  5
10F
330
104
100
AcDbEntity
  8
0
  6
Continuous
 62
     7
370
     0
100
AcDbLine
 10
2.852096271
 20
4.7035001057
 30
0.0
 11
2.852096271
 21
3.8903966493
 31
0.0
  0
LINE
  5
110
330
104
100
AcDbEntity
  8
0
  6
Continuous
 62
     7
370
     0
100
AcDbLine
 10
3.9544584757
 20
4.7035001057
 30
0.0
 11
3.9544584757
 21
3.8903966493
 31
0.0
  0
LINE
  5
111
330
104
100
AcDbEntity
  8
0
  6
Continuous
 62
     7
370
     0
100
AcDbLine
 10
2.852096271
 20
3.9841466493
 30
0.0
 11
3.1903183104
 21
3.9841466493
 31
0.0
  0
LINE
  5
112
330
104
100
AcDbEntity
  8
0
  6
Continuous
 62
     7
370
     0
100
AcDbLine
 10
3.9544584757
 20
3.9841466493
 30
0.0
 11
3.6162364362
 21
3.9841466493
 31
0.0
  0
MTEXT
  5
113
330
104
100
AcDbEntity
  8
0
  6
Continuous
 62
     7
370
     0
100
AcDbMText
 10
3.2444883188
 20
4.1247558715
 30
-0.4292028033
 40
0.09375
 41
0.0
 71
     1
 72
     1
  1

  7
SLDTEXTSTYLE0
 73
     1
 44
1.0
  0
MTEXT
  5
114
330
104
100
AcDbEntity
  8
0
  6
Continuous
 62
     7
370
     0
100
AcDbMText
 10
3.2439674856
 20
4.1233235729
 30
-0.4292028033
 40
0.09375
 41
0.0
 71
     1
 72
     1
  1
1.10
  7
SLDTEXTSTYLE0
 73
     1
 44
1.0
  0
MTEXT
  5
115
330
104
100
AcDbEntity
  8
0
  6
Continuous
 62
     7
370
     0
100
AcDbMText
 10
3.3340065432
 20
3.9554524685
 30
-0.4292028033
 40
0.09375
 41
0.0
 71
     1
 72
     1
  1
28
  7
SLDTEXTSTYLE0
 73
     1
 44
1.0
  0
MTEXT
  5
116
330
104
100
AcDbEntity
  8
0
  6
Continuous
 62
     7
370
     0
100
AcDbMText
 10
3.597743518
 20
4.1247558715
 30
-0.4292028033
 40
0.09375
 41
0.0
 71
     1
 72
     1
  1

  7
SLDTEXTSTYLE0
 73
     1
 44
1.0
  0
ENDBLK
  5
106
330
104
100
AcDbEntity
  8
0
100
AcDbBlockEnd
  0
BLOCK
  5
11A
330
119
100
AcDbEntity
  8
0
100
AcDbBlockBegin
  2
*D7
 70
     1
 10
0.0
 20
0.0
 30
0.0
  3
*D7
  1

  0
SOLID
  5
11C
330
119
100
AcDbEntity
  8
0
  6
Continuous
 62
     7
370
     0
100
AcDbTrace
 10
2.2143009954
 20
3.6298159406
 30
0.0
 11
2.3118009954
 21
3.6148159406
 31
0.0
 12
2.3118009954
 22
3.6448159406
 32
0.0
 13
2.3118009954
 23
3.6448159406
 33
0.0
  0
SOLID
  5
11D
330
119
100
AcDbEntity
  8
0
  6
Continuous
 62
     7
370
     0
100
AcDbTrace
 10
4.5922537513
 20
3.6298159406
 30
0.0
 11
4.4947537513
 21
3.6448159406
 31
0.0
 12
4.4947537513
 22
3.6148159406
 32
0.0
 13
4.4947537513
 23
3.6148159406
 33
0.0
  0
LINE
  5
11E
330
119
100
AcDbEntity
  8
0
  6
Continuous
 62
     7
370
     0
100
AcDbLine
 10
3.2582497025
 20
3.6290997939
 30
0.0
 11
3.2392067328
 21
3.6290997939
 31
0.0
  0
LINE
  5
11F
330
119
100
AcDbEntity
  8
0
  6
Continuous
 62
     7
370
     0
100
AcDbLine
 10
3.2392067328
 20
3.6290997939
 30
0.0
 11
3.2392067328
 21
3.4802716644
 31
0.0
  0
LINE
  5
120
330
119
100
AcDbEntity
  8
0
  6
Continuous
 62
     7
370
     0
100
AcDbLine
 10
3.2392067328
 20
3.4802716644
 30
0.0
 11
3.2582497025
 21
3.4802716644
 31
0.0
  0
LINE
  5
121
330
119
100
AcDbEntity
  8
0
  6
Continuous
 62
     7
370
     0
100
AcDbLine
 10
3.548305051
 20
3.6290997939
 30
0.0
 11
3.5673480207
 21
3.6290997939
 31
0.0
  0
LINE
  5
122
330
119
100
AcDbEntity
  8
0
  6
Continuous
 62
     7
370
     0
100
AcDbLine
 10
3.5673480207
 20
3.6290997939
 30
0.0
 11
3.5673480207
 21
3.4802716644
 31
0.0
  0
LINE
  5
123
330
119
100
AcDbEntity
  8
0
  6
Continuous
 62
     7
370
     0
100
AcDbLine
 10
3.5673480207
 20
3.4802716644
 30
0.0
 11
3.548305051
 21
3.4802716644
 31
0.0
  0
LINE
  5
124
330
119
100
AcDbEntity
  8
0
  6
Continuous
 62
     7
370
     0
100
AcDbLine
 10
2.2143009954
 20
5.0660985309
 30
0.0
 11
2.2143009954
 21
3.5360659406
 31
0.0
  0
LINE
  5
125
330
119
100
AcDbEntity
  8
0
  6
Continuous
 62
     7
370
     0
100
AcDbLine
 10
4.5922537513
 20
5.0660985309
 30
0.0
 11
4.5922537513
 21
3.5360659406
 31
0.0
  0
LINE
  5
126
330
119
100
AcDbEntity
  8
0
  6
Continuous
 62
     7
370
     0
100
AcDbLine
 10
2.2143009954
 20
3.6298159406
 30
0.0
 11
3.1712753304
 21
3.6298159406
 31
0.0
  0
LINE
  5
127
330
119
100
AcDbEntity
  8
0
  6
Continuous
 62
     7
370
     0
100
AcDbLine
 10
4.5922537513
 20
3.6298159406
 30
0.0
 11
3.6352794163
 21
3.6298159406
 31
0.0
  0
MTEXT
  5
128
330
119
100
AcDbEntity
  8
0
  6
Continuous
 62
     7
370
     0
100
AcDbMText
 10
3.2254453388
 20
3.7704251628
 30
-0.4292028033
 40
0.09375
 41
0.0
 71
     1
 72
     1
  1

  7
SLDTEXTSTYLE0
 73
     1
 44
1.0
  0
MTEXT
  5
129
330
119
100
AcDbEntity
  8
0
  6
Continuous
 62
     7
370
     0
100
AcDbMText
 10
3.2439674856
 20
3.7689928642
 30
-0.4292028033
 40
0.09375
 41
0.0
 71
     1
 72
     1
  1
2.38
  7
SLDTEXTSTYLE0
 73
     1
 44
1.0
  0
MTEXT
  5
12A
330
119
100
AcDbEntity
  8
0
  6
Continuous
 62
     7
370
     0
100
AcDbMText
 10
3.2820534147
 20
3.6011217599
 30
-0.4292028033
 40
0.09375
 41
0.0
 71
     1
 72
     1
  1
60.4
  7
SLDTEXTSTYLE0
 73
     1
 44
1.0
  0
MTEXT
  5
12B
330
119
100
AcDbEntity
  8
0
  6
Continuous
 62
     7
370
     0
100
AcDbMText
 10
3.616786498
 20
3.7704251628
 30
-0.4292028033
 40
0.09375
 41
0.0
 71
     1
 72
     1
  1

  7
SLDTEXTSTYLE0
 73
     1
 44
1.0
  0
ENDBLK
  5
11B
330
119
100
AcDbEntity
  8
0
100
AcDbBlockEnd
  0
BLOCK
  5
12E
330
12D
100
AcDbEntity
  8
0
100
AcDbBlockBegin
  2
*D8
 70
     1
 10
0.0
 20
0.0
 30
0.0
  3
*D8
  1

  0
SOLID
  5
130
330
12D
100
AcDbEntity
  8
0
  6
Continuous
 62
     7
370
     0
100
AcDbTrace
 10
5.211245918
 20
4.7410001057
 30
0.0
 11
5.226245918
 21
4.8385001057
 31
0.0
 12
5.196245918
 22
4.8385001057
 32
0.0
 13
5.196245918
 23
4.8385001057
 33
0.0
  0
SOLID
  5
131
330
12D
100
AcDbEntity
  8
0
  6
Continuous
 62
     7
370
     0
100
AcDbTrace
 10
5.211245918
 20
5.8433623104
 30
0.0
 11
5.196245918
 21
5.7458623104
 31
0.0
 12
5.226245918
 22
5.7458623104
 32
0.0
 13
5.226245918
 23
5.7458623104
 33
0.0
  0
LINE
  5
132
330
12D
100
AcDbEntity
  8
0
  6
Continuous
 62
     7
370
     0
100
AcDbLine
 10
5.1181713758
 20
5.2914650613
 30
0.0
 11
5.0991284061
 21
5.2914650613
 31
0.0
  0
LINE
  5
133
330
12D
100
AcDbEntity
  8
0
  6
Continuous
 62
     7
370
     0
100
AcDbLine
 10
5.0991284061
 20
5.2914650613
 30
0.0
 11
5.0991284061
 21
5.1426369319
 31
0.0
  0
LINE
  5
134
330
12D
100
AcDbEntity
  8
0
  6
Continuous
 62
     7
370
     0
100
AcDbLine
 10
5.0991284061
 20
5.1426369319
 30
0.0
 11
5.1181713758
 21
5.1426369319
 31
0.0
  0
LINE
  5
135
330
12D
100
AcDbEntity
  8
0
  6
Continuous
 62
     7
370
     0
100
AcDbLine
 10
5.3043204671
 20
5.2914650613
 30
0.0
 11
5.3233634368
 21
5.2914650613
 31
0.0
  0
LINE
  5
136
330
12D
100
AcDbEntity
  8
0
  6
Continuous
 62
     7
370
     0
100
AcDbLine
 10
5.3233634368
 20
5.2914650613
 30
0.0
 11
5.3233634368
 21
5.1426369319
 31
0.0
  0
LINE
  5
137
330
12D
100
AcDbEntity
  8
0
  6
Continuous
 62
     7
370
     0
100
AcDbLine
 10
5.3233634368
 20
5.1426369319
 30
0.0
 11
5.3043204671
 21
5.1426369319
 31
0.0
  0
LINE
  5
138
330
12D
100
AcDbEntity
  8
0
  6
Continuous
 62
     7
370
     0
100
AcDbLine
 10
3.9919584757
 20
4.7410001057
 30
0.0
 11
5.304995918
 21
4.7410001057
 31
0.0
  0
LINE
  5
139
330
12D
100
AcDbEntity
  8
0
  6
Continuous
 62
     7
370
     0
100
AcDbLine
 10
3.9919584757
 20
5.8433623104
 30
0.0
 11
5.304995918
 21
5.8433623104
 31
0.0
  0
LINE
  5
13A
330
12D
100
AcDbEntity
  8
0
  6
Continuous
 62
     7
370
     0
100
AcDbLine
 10
5.211245918
 20
4.7410001057
 30
0.0
 11
5.211245918
 21
5.1235939518
 31
0.0
  0
LINE
  5
13B
330
12D
100
AcDbEntity
  8
0
  6
Continuous
 62
     7
370
     0
100
AcDbLine
 10
5.211245918
 20
5.8433623104
 30
0.0
 11
5.211245918
 21
5.4607684643
 31
0.0
  0
MTEXT
  5
13C
330
12D
100
AcDbEntity
  8
0
  6
Continuous
 62
     7
370
     0
100
AcDbMText
 10
5.0524568634
 20
5.4327904302
 30
-0.4292028033
 40
0.09375
 41
0.0
 71
     1
 72
     1
  1

  7
SLDTEXTSTYLE0
 73
     1
 44
1.0
  0
MTEXT
  5
13D
330
12D
100
AcDbEntity
  8
0
  6
Continuous
 62
     7
370
     0
100
AcDbMText
 10
5.0519360302
 20
5.4313581316
 30
-0.4292028033
 40
0.09375
 41
0.0
 71
     1
 72
     1
  1
1.10
  7
SLDTEXTSTYLE0
 73
     1
 44
1.0
  0
MTEXT
  5
13E
330
12D
100
AcDbEntity
  8
0
  6
Continuous
 62
     7
370
     0
100
AcDbMText
 10
5.1419750879
 20
5.2634870273
 30
-0.4292028033
 40
0.09375
 41
0.0
 71
     1
 72
     1
  1
28
  7
SLDTEXTSTYLE0
 73
     1
 44
1.0
  0
MTEXT
  5
13F
330
12D
100
AcDbEntity
  8
0
  6
Continuous
 62
     7
370
     0
100
AcDbMText
 10
5.4057120626
 20
5.4327904302
 30
-0.4292028033
 40
0.09375
 41
0.0
 71
     1
 72
     1
  1

  7
SLDTEXTSTYLE0
 73
     1
 44
1.0
  0
ENDBLK
  5
12F
330
12D
100
AcDbEntity
  8
0
100
AcDbBlockEnd
  0
BLOCK
  5
142
330
141
100
AcDbEntity
  8
0
100
AcDbBlockBegin
  2
*D9
 70
     1
 10
0.0
 20
0.0
 30
0.0
  3
*D9
  1

  0
SOLID
  5
144
330
141
100
AcDbEntity
  8
0
  6
Continuous
 62
     7
370
     0
100
AcDbTrace
 10
2.5087345257
 20
6.6002157668
 30
0.0
 11
2.6062345257
 21
6.5852157668
 31
0.0
 12
2.6062345257
 22
6.6152157668
 32
0.0
 13
2.6062345257
 23
6.6152157668
 33
0.0
  0
SOLID
  5
145
330
141
100
AcDbEntity
  8
0
  6
Continuous
 62
     7
370
     0
100
AcDbTrace
 10
4.297820221
 20
6.6002157668
 30
0.0
 11
4.200320221
 21
6.6152157668
 31
0.0
 12
4.200320221
 22
6.5852157668
 32
0.0
 13
4.200320221
 23
6.5852157668
 33
0.0
  0
LINE
  5
146
330
141
100
AcDbEntity
  8
0
  6
Continuous
 62
     7
370
     0
100
AcDbLine
 10
3.2582497025
 20
6.5994996201
 30
0.0
 11
3.2392067328
 21
6.5994996201
 31
0.0
  0
LINE
  5
147
330
141
100
AcDbEntity
  8
0
  6
Continuous
 62
     7
370
     0
100
AcDbLine
 10
3.2392067328
 20
6.5994996201
 30
0.0
 11
3.2392067328
 21
6.4506714906
 31
0.0
  0
LINE
  5
148
330
141
100
AcDbEntity
  8
0
  6
Continuous
 62
     7
370
     0
100
AcDbLine
 10
3.2392067328
 20
6.4506714906
 30
0.0
 11
3.2582497025
 21
6.4506714906
 31
0.0
  0
LINE
  5
149
330
141
100
AcDbEntity
  8
0
  6
Continuous
 62
     7
370
     0
100
AcDbLine
 10
3.548305051
 20
6.5994996201
 30
0.0
 11
3.5673480207
 21
6.5994996201
 31
0.0
  0
LINE
  5
14A
330
141
100
AcDbEntity
  8
0
  6
Continuous
 62
     7
370
     0
100
AcDbLine
 10
3.5673480207
 20
6.5994996201
 30
0.0
 11
3.5673480207
 21
6.4506714906
 31
0.0
  0
LINE
  5
14B
330
141
100
AcDbEntity
  8
0
  6
Continuous
 62
     7
370
     0
100
AcDbLine
 10
3.5673480207
 20
6.4506714906
 30
0.0
 11
3.548305051
 21
6.4506714906
 31
0.0
  0
LINE
  5
14C
330
141
100
AcDbEntity
  8
0
  6
Continuous
 62
     7
370
     0
100
AcDbLine
 10
2.5087345257
 20
6.2320980715
 30
0.0
 11
2.5087345257
 21
6.6939657668
 31
0.0
  0
LINE
  5
14D
330
141
100
AcDbEntity
  8
0
  6
Continuous
 62
     7
370
     0
100
AcDbLine
 10
4.297820221
 20
6.2320980715
 30
0.0
 11
4.297820221
 21
6.6939657668
 31
0.0
  0
LINE
  5
14E
330
141
100
AcDbEntity
  8
0
  6
Continuous
 62
     7
370
     0
100
AcDbLine
 10
2.5087345257
 20
6.6002157668
 30
0.0
 11
3.1712753304
 21
6.6002157668
 31
0.0
  0
LINE
  5
14F
330
141
100
AcDbEntity
  8
0
  6
Continuous
 62
     7
370
     0
100
AcDbLine
 10
4.297820221
 20
6.6002157668
 30
0.0
 11
3.6352794163
 21
6.6002157668
 31
0.0
  0
MTEXT
  5
150
330
141
100
AcDbEntity
  8
0
  6
Continuous
 62
     7
370
     0
100
AcDbMText
 10
3.2254453388
 20
6.740824989
 30
-0.4292028033
 40
0.09375
 41
0.0
 71
     1
 72
     1
  1

  7
SLDTEXTSTYLE0
 73
     1
 44
1.0
  0
MTEXT
  5
151
330
141
100
AcDbEntity
  8
0
  6
Continuous
 62
     7
370
     0
100
AcDbMText
 10
3.2439674856
 20
6.7393926904
 30
-0.4292028033
 40
0.09375
 41
0.0
 71
     1
 72
     1
  1
1.79
  7
SLDTEXTSTYLE0
 73
     1
 44
1.0
  0
MTEXT
  5
152
330
141
100
AcDbEntity
  8
0
  6
Continuous
 62
     7
370
     0
100
AcDbMText
 10
3.2820534147
 20
6.5715215861
 30
-0.4292028033
 40
0.09375
 41
0.0
 71
     1
 72
     1
  1
45.4
  7
SLDTEXTSTYLE0
 73
     1
 44
1.0
  0
MTEXT
  5
153
330
141
100
AcDbEntity
  8
0
  6
Continuous
 62
     7
370
     0
100
AcDbMText
 10
3.616786498
 20
6.740824989
 30
-0.4292028033
 40
0.09375
 41
0.0
 71
     1
 72
     1
  1

  7
SLDTEXTSTYLE0
 73
     1
 44
1.0
  0
ENDBLK
  5
143
330
141
100
AcDbEntity
  8
0
100
AcDbBlockEnd
  0
BLOCK
  5
156
330
155
100
AcDbEntity
  8
0
100
AcDbBlockBegin
  2
*D10
 70
     1
 10
0.0
 20
0.0
 30
0.0
  3
*D10
  1

  0
SOLID
  5
158
330
155
100
AcDbEntity
  8
0
  6
Continuous
 62
     7
370
     0
100
AcDbTrace
 10
2.4169621064
 20
7.0126647175
 30
0.0
 11
2.5144621064
 21
6.9976647175
 31
0.0
 12
2.5144621064
 22
7.0276647175
 32
0.0
 13
2.5144621064
 23
7.0276647175
 33
0.0
  0
SOLID
  5
159
330
155
100
AcDbEntity
  8
0
  6
Continuous
 62
     7
370
     0
100
AcDbTrace
 10
4.3895926402
 20
7.0126647175
 30
0.0
 11
4.2920926402
 21
7.0276647175
 31
0.0
 12
4.2920926402
 22
6.9976647175
 32
0.0
 13
4.2920926402
 23
6.9976647175
 33
0.0
  0
LINE
  5
15A
330
155
100
AcDbEntity
  8
0
  6
Continuous
 62
     7
370
     0
100
AcDbLine
 10
3.2582497025
 20
7.0119485708
 30
0.0
 11
3.2392067328
 21
7.0119485708
 31
0.0
  0
LINE
  5
15B
330
155
100
AcDbEntity
  8
0
  6
Continuous
 62
     7
370
     0
100
AcDbLine
 10
3.2392067328
 20
7.0119485708
 30
0.0
 11
3.2392067328
 21
6.8631204413
 31
0.0
  0
LINE
  5
15C
330
155
100
AcDbEntity
  8
0
  6
Continuous
 62
     7
370
     0
100
AcDbLine
 10
3.2392067328
 20
6.8631204413
 30
0.0
 11
3.2582497025
 21
6.8631204413
 31
0.0
  0
LINE
  5
15D
330
155
100
AcDbEntity
  8
0
  6
Continuous
 62
     7
370
     0
100
AcDbLine
 10
3.548305051
 20
7.0119485708
 30
0.0
 11
3.5673480207
 21
7.0119485708
 31
0.0
  0
LINE
  5
15E
330
155
100
AcDbEntity
  8
0
  6
Continuous
 62
     7
370
     0
100
AcDbLine
 10
3.5673480207
 20
7.0119485708
 30
0.0
 11
3.5673480207
 21
6.8631204413
 31
0.0
  0
LINE
  5
15F
330
155
100
AcDbEntity
  8
0
  6
Continuous
 62
     7
370
     0
100
AcDbLine
 10
3.5673480207
 20
6.8631204413
 30
0.0
 11
3.548305051
 21
6.8631204413
 31
0.0
  0
LINE
  5
160
330
155
100
AcDbEntity
  8
0
  6
Continuous
 62
     7
370
     0
100
AcDbLine
 10
2.4169621064
 20
6.2430670348
 30
0.0
 11
2.4169621064
 21
7.1064147175
 31
0.0
  0
LINE
  5
161
330
155
100
AcDbEntity
  8
0
  6
Continuous
 62
     7
370
     0
100
AcDbLine
 10
4.3895926402
 20
6.2430670348
 30
0.0
 11
4.3895926402
 21
7.1064147175
 31
0.0
  0
LINE
  5
162
330
155
100
AcDbEntity
  8
0
  6
Continuous
 62
     7
370
     0
100
AcDbLine
 10
2.4169621064
 20
7.0126647175
 30
0.0
 11
3.1712753304
 21
7.0126647175
 31
0.0
  0
LINE
  5
163
330
155
100
AcDbEntity
  8
0
  6
Continuous
 62
     7
370
     0
100
AcDbLine
 10
4.3895926402
 20
7.0126647175
 30
0.0
 11
3.6352794163
 21
7.0126647175
 31
0.0
  0
MTEXT
  5
164
330
155
100
AcDbEntity
  8
0
  6
Continuous
 62
     7
370
     0
100
AcDbMText
 10
3.2254453388
 20
7.1532739397
 30
-0.4292028033
 40
0.09375
 41
0.0
 71
     1
 72
     1
  1

  7
SLDTEXTSTYLE0
 73
     1
 44
1.0
  0
MTEXT
  5
165
330
155
100
AcDbEntity
  8
0
  6
Continuous
 62
     7
370
     0
100
AcDbMText
 10
3.2439674856
 20
7.1518416411
 30
-0.4292028033
 40
0.09375
 41
0.0
 71
     1
 72
     1
  1
1.97
  7
SLDTEXTSTYLE0
 73
     1
 44
1.0
  0
MTEXT
  5
166
330
155
100
AcDbEntity
  8
0
  6
Continuous
 62
     7
370
     0
100
AcDbMText
 10
3.2820534147
 20
6.9839705367
 30
-0.4292028033
 40
0.09375
 41
0.0
 71
     1
 72
     1
  1
50.1
  7
SLDTEXTSTYLE0
 73
     1
 44
1.0
  0
MTEXT
  5
167
330
155
100
AcDbEntity
  8
0
  6
Continuous
 62
     7
370
     0
100
AcDbMText
 10
3.616786498
 20
7.1532739397
 30
-0.4292028033
 40
0.09375
 41
0.0
 71
     1
 72
     1
  1

  7
SLDTEXTSTYLE0
 73
     1
 44
1.0
  0
ENDBLK
  5
157
330
155
100
AcDbEntity
  8
0
100
AcDbBlockEnd
  0
BLOCK
  5
16A
330
169
100
AcDbEntity
  8
0
100
AcDbBlockBegin
  2
*D11
 70
     1
 10
0.0
 20
0.0
 30
0.0
  3
*D11
  1

  0
SOLID
  5
16C
330
169
100
AcDbEntity
  8
0
  6
Continuous
 62
     7
370
     0
100
AcDbTrace
 10
2.0174506017
 20
7.3763690917
 30
0.0
 11
2.1149506017
 21
7.3613690917
 31
0.0
 12
2.1149506017
 22
7.3913690917
 32
0.0
 13
2.1149506017
 23
7.3913690917
 33
0.0
  0
SOLID
  5
16D
330
169
100
AcDbEntity
  8
0
  6
Continuous
 62
     7
370
     0
100
AcDbTrace
 10
4.789104145
 20
7.3763690917
 30
0.0
 11
4.691604145
 21
7.3913690917
 31
0.0
 12
4.691604145
 22
7.3613690917
 32
0.0
 13
4.691604145
 23
7.3613690917
 33
0.0
  0
LINE
  5
16E
330
169
100
AcDbEntity
  8
0
  6
Continuous
 62
     7
370
     0
100
AcDbLine
 10
3.2582497025
 20
7.375652945
 30
0.0
 11
3.2392067328
 21
7.375652945
 31
0.0
  0
LINE
  5
16F
330
169
100
AcDbEntity
  8
0
  6
Continuous
 62
     7
370
     0
100
AcDbLine
 10
3.2392067328
 20
7.375652945
 30
0.0
 11
3.2392067328
 21
7.2268248155
 31
0.0
  0
LINE
  5
170
330
169
100
AcDbEntity
  8
0
  6
Continuous
 62
     7
370
     0
100
AcDbLine
 10
3.2392067328
 20
7.2268248155
 30
0.0
 11
3.2582497025
 21
7.2268248155
 31
0.0
  0
LINE
  5
171
330
169
100
AcDbEntity
  8
0
  6
Continuous
 62
     7
370
     0
100
AcDbLine
 10
3.548305051
 20
7.375652945
 30
0.0
 11
3.5673480207
 21
7.375652945
 31
0.0
  0
LINE
  5
172
330
169
100
AcDbEntity
  8
0
  6
Continuous
 62
     7
370
     0
100
AcDbLine
 10
3.5673480207
 20
7.375652945
 30
0.0
 11
3.5673480207
 21
7.2268248155
 31
0.0
  0
LINE
  5
173
330
169
100
AcDbEntity
  8
0
  6
Continuous
 62
     7
370
     0
100
AcDbLine
 10
3.5673480207
 20
7.2268248155
 30
0.0
 11
3.548305051
 21
7.2268248155
 31
0.0
  0
LINE
  5
174
330
169
100
AcDbEntity
  8
0
  6
Continuous
 62
     7
370
     0
100
AcDbLine
 10
2.0174506017
 20
6.0524139305
 30
0.0
 11
2.0174506017
 21
7.4701190917
 31
0.0
  0
LINE
  5
175
330
169
100
AcDbEntity
  8
0
  6
Continuous
 62
     7
370
     0
100
AcDbLine
 10
4.789104145
 20
6.0524139305
 30
0.0
 11
4.789104145
 21
7.4701190917
 31
0.0
  0
LINE
  5
176
330
169
100
AcDbEntity
  8
0
  6
Continuous
 62
     7
370
     0
100
AcDbLine
 10
2.0174506017
 20
7.3763690917
 30
0.0
 11
3.1712753304
 21
7.3763690917
 31
0.0
  0
LINE
  5
177
330
169
100
AcDbEntity
  8
0
  6
Continuous
 62
     7
370
     0
100
AcDbLine
 10
4.789104145
 20
7.3763690917
 30
0.0
 11
3.6352794163
 21
7.3763690917
 31
0.0
  0
MTEXT
  5
178
330
169
100
AcDbEntity
  8
0
  6
Continuous
 62
     7
370
     0
100
AcDbMText
 10
3.2254453388
 20
7.5169783139
 30
-0.4292028033
 40
0.09375
 41
0.0
 71
     1
 72
     1
  1

  7
SLDTEXTSTYLE0
 73
     1
 44
1.0
  0
MTEXT
  5
179
330
169
100
AcDbEntity
  8
0
  6
Continuous
 62
     7
370
     0
100
AcDbMText
 10
3.2439674856
 20
7.5155460153
 30
-0.4292028033
 40
0.09375
 41
0.0
 71
     1
 72
     1
  1
2.77
  7
SLDTEXTSTYLE0
 73
     1
 44
1.0
  0
MTEXT
  5
17A
330
169
100
AcDbEntity
  8
0
  6
Continuous
 62
     7
370
     0
100
AcDbMText
 10
3.2820534147
 20
7.3476749109
 30
-0.4292028033
 40
0.09375
 41
0.0
 71
     1
 72
     1
  1
70.4
  7
SLDTEXTSTYLE0
 73
     1
 44
1.0
  0
MTEXT
  5
17B
330
169
100
AcDbEntity
  8
0
  6
Continuous
 62
     7
370
     0
100
AcDbMText
 10
3.616786498
 20
7.5169783139
 30
-0.4292028033
 40
0.09375
 41
0.0
 71
     1
 72
     1
  1

  7
SLDTEXTSTYLE0
 73
     1
 44
1.0
  0
ENDBLK
  5
16B
330
169
100
AcDbEntity
  8
0
100
AcDbBlockEnd
  0
BLOCK
  5
17E
330
17D
100
AcDbEntity
  8
0
100
AcDbBlockBegin
  2
*D12
 70
     1
 10
0.0
 20
0.0
 30
0.0
  3
*D12
  1

  0
SOLID
  5
180
330
17D
100
AcDbEntity
  8
0
  6
Continuous
 62
     7
370
     0
100
AcDbTrace
 10
2.8299828944
 20
5.8759353311
 30
0.0
 11
2.7876294381
 21
5.9650276133
 31
0.0
 12
2.7628087964
 22
5.9481772203
 32
0.0
 13
2.7628087964
 23
5.9481772203
 33
0.0
  0
LINE
  5
181
330
17D
100
AcDbEntity
  8
0
  6
Continuous
 62
     7
370
     0
100
AcDbLine
 10
1.5577604392
 20
7.2517703958
 30
0.0
 11
1.5387174695
 21
7.2517703958
 31
0.0
  0
LINE
  5
182
330
17D
100
AcDbEntity
  8
0
  6
Continuous
 62
     7
370
     0
100
AcDbLine
 10
1.5387174695
 20
7.2517703958
 30
0.0
 11
1.5387174695
 21
7.1029422663
 31
0.0
  0
LINE
  5
183
330
17D
100
AcDbEntity
  8
0
  6
Continuous
 62
     7
370
     0
100
AcDbLine
 10
1.5387174695
 20
7.1029422663
 30
0.0
 11
1.5577604392
 21
7.1029422663
 31
0.0
  0
LINE
  5
184
330
17D
100
AcDbEntity
  8
0
  6
Continuous
 62
     7
370
     0
100
AcDbLine
 10
1.674638697
 20
7.2517703958
 30
0.0
 11
1.6936816667
 21
7.2517703958
 31
0.0
  0
LINE
  5
185
330
17D
100
AcDbEntity
  8
0
  6
Continuous
 62
     7
370
     0
100
AcDbLine
 10
1.6936816667
 20
7.2517703958
 30
0.0
 11
1.6936816667
 21
7.1029422663
 31
0.0
  0
LINE
  5
186
330
17D
100
AcDbEntity
  8
0
  6
Continuous
 62
     7
370
     0
100
AcDbLine
 10
1.6936816667
 20
7.1029422663
 30
0.0
 11
1.674638697
 21
7.1029422663
 31
0.0
  0
LINE
  5
187
330
17D
100
AcDbEntity
  8
0
  6
Continuous
 62
     7
370
     0
100
AcDbLine
 10
2.8299828944
 20
5.8759353311
 30
0.0
 11
1.9053174003
 21
7.2379683121
 31
0.0
  0
LINE
  5
188
330
17D
100
AcDbEntity
  8
0
  6
Continuous
 62
     7
370
     0
100
AcDbLine
 10
1.9053174003
 20
7.2379683121
 30
0.0
 11
1.8115674003
 21
7.2379683121
 31
0.0
  0
MTEXT
  5
189
330
17D
100
AcDbEntity
  8
0
  6
Continuous
 62
     7
370
     0
100
AcDbMText
 10
1.4208317291
 20
7.3916634661
 30
-0.4292028033
 40
0.09375
 41
0.0
 71
     1
 72
     1
  1
%%c
  7
SLDTEXTSTYLE0
 73
     1
 44
1.0
  0
MTEXT
  5
18A
330
17D
100
AcDbEntity
  8
0
  6
Continuous
 62
     7
370
     0
100
AcDbMText
 10
1.5622184445
 20
7.3916634661
 30
-0.4292028033
 40
0.09375
 41
0.0
 71
     1
 72
     1
  1
.08
  7
SLDTEXTSTYLE0
 73
     1
 44
1.0
  0
MTEXT
  5
18B
330
17D
100
AcDbEntity
  8
0
  6
Continuous
 62
     7
370
     0
100
AcDbMText
 10
1.5815641514
 20
7.2237923618
 30
-0.4292028033
 40
0.09375
 41
0.0
 71
     1
 72
     1
  1
2
  7
SLDTEXTSTYLE0
 73
     1
 44
1.0
  0
ENDBLK
  5
17F
330
17D
100
AcDbEntity
  8
0
100
AcDbBlockEnd
  0
BLOCK
  5
18F
330
18E
100
AcDbEntity
  8
0
100
AcDbBlockBegin
  2
*D13
 70
     1
 10
0.0
 20
0.0
 30
0.0
  3
*D13
  1

  0
SOLID
  5
191
330
18E
100
AcDbEntity
  8
0
  6
Continuous
 62
     7
370
     0
100
AcDbTrace
 10
2.7645044862
 20
5.9173748184
 30
0.0
 11
2.6997121318
 21
5.9917603063
 31
0.0
 12
2.6803496663
 22
5.9688453564
 32
0.0
 13
2.6803496663
 23
5.9688453564
 33
0.0
  0
LINE
  5
192
330
18E
100
AcDbEntity
  8
0
  6
Continuous
 62
     7
370
     0
100
AcDbLine
 10
1.0375028637
 20
6.7515223284
 30
0.0
 11
1.018459894
 21
6.7515223284
 31
0.0
  0
LINE
  5
193
330
18E
100
AcDbEntity
  8
0
  6
Continuous
 62
     7
370
     0
100
AcDbLine
 10
1.018459894
 20
6.7515223284
 30
0.0
 11
1.018459894
 21
6.6026941989
 31
0.0
  0
LINE
  5
194
330
18E
100
AcDbEntity
  8
0
  6
Continuous
 62
     7
370
     0
100
AcDbLine
 10
1.018459894
 20
6.6026941989
 30
0.0
 11
1.0375028637
 21
6.6026941989
 31
0.0
  0
LINE
  5
195
330
18E
100
AcDbEntity
  8
0
  6
Continuous
 62
     7
370
     0
100
AcDbLine
 10
1.2582873649
 20
6.7515223284
 30
0.0
 11
1.2773303346
 21
6.7515223284
 31
0.0
  0
LINE
  5
196
330
18E
100
AcDbEntity
  8
0
  6
Continuous
 62
     7
370
     0
100
AcDbLine
 10
1.2773303346
 20
6.7515223284
 30
0.0
 11
1.2773303346
 21
6.6026941989
 31
0.0
  0
LINE
  5
197
330
18E
100
AcDbEntity
  8
0
  6
Continuous
 62
     7
370
     0
100
AcDbLine
 10
1.2773303346
 20
6.6026941989
 30
0.0
 11
1.2582873649
 21
6.6026941989
 31
0.0
  0
LINE
  5
198
330
18E
100
AcDbEntity
  8
0
  6
Continuous
 62
     7
370
     0
100
AcDbLine
 10
2.7645044862
 20
5.9173748184
 30
0.0
 11
1.7764661169
 21
6.7522384751
 31
0.0
  0
LINE
  5
199
330
18E
100
AcDbEntity
  8
0
  6
Continuous
 62
     7
370
     0
100
AcDbLine
 10
1.7764661169
 20
6.7522384751
 30
0.0
 11
1.6827161169
 21
6.7522384751
 31
0.0
  0
MTEXT
  5
19A
330
18E
100
AcDbEntity
  8
0
  6
Continuous
 62
     7
370
     0
100
AcDbMText
 10
0.9525272821
 20
6.8914153987
 30
-0.4292028033
 40
0.09375
 41
0.0
 71
     1
 72
     1
  1
%%c
  7
SLDTEXTSTYLE0
 73
     1
 44
1.0
  0
MTEXT
  5
19B
330
18E
100
AcDbEntity
  8
0
  6
Continuous
 62
     7
370
     0
100
AcDbMText
 10
1.0939139976
 20
6.8914153987
 30
-0.4292028033
 40
0.09375
 41
0.0
 71
     1
 72
     1
  1
.23
  7
SLDTEXTSTYLE0
 73
     1
 44
1.0
  0
MTEXT
  5
19C
330
18E
100
AcDbEntity
  8
0
  6
Continuous
 62
     7
370
     0
100
AcDbMText
 10
1.0613065758
 20
6.7235442943
 30
-0.4292028033
 40
0.09375
 41
0.0
 71
     1
 72
     1
  1
5.8
  7
SLDTEXTSTYLE0
 73
     1
 44
1.0
  0
MTEXT
  5
19D
330
18E
100
AcDbEntity
  8
0
  6
Continuous
 62
     7
370
     0
100
AcDbMText
 10
1.3784192033
 20
6.8928476973
 30
-0.4292028033
 40
0.09375
 41
0.0
 71
     1
 72
     1
  1
BOSS
  7
SLDTEXTSTYLE0
 73
     1
 44
1.0
  0
ENDBLK
  5
190
330
18E
100
AcDbEntity
  8
0
100
AcDbBlockEnd
  0
BLOCK
  5
1A0
330
19F
100
AcDbEntity
  8
0
100
AcDbBlockBegin
  2
*D14
 70
     1
 10
0.0
 20
0.0
 30
0.0
  3
*D14
  1

  0
SOLID
  5
1A2
330
19F
100
AcDbEntity
  8
0
  6
Continuous
 62
     7
370
     0
100
AcDbTrace
 10
1.5449937273
 20
6.1945980715
 30
0.0
 11
1.5299937273
 21
6.0970980715
 31
0.0
 12
1.5599937273
 22
6.0970980715
 32
0.0
 13
1.5599937273
 23
6.0970980715
 33
0.0
  0
SOLID
  5
1A3
330
19F
100
AcDbEntity
  8
0
  6
Continuous
 62
     7
370
     0
100
AcDbTrace
 10
1.5449937273
 20
4.3897643446
 30
0.0
 11
1.5599937273
 21
4.4872643446
 31
0.0
 12
1.5299937273
 22
4.4872643446
 32
0.0
 13
1.5299937273
 23
4.4872643446
 33
0.0
  0
LINE
  5
1A4
330
19F
100
AcDbEntity
  8
0
  6
Continuous
 62
     7
370
     0
100
AcDbLine
 10
1.3999660565
 20
5.2914650613
 30
0.0
 11
1.3809230868
 21
5.2914650613
 31
0.0
  0
LINE
  5
1A5
330
19F
100
AcDbEntity
  8
0
  6
Continuous
 62
     7
370
     0
100
AcDbLine
 10
1.3809230868
 20
5.2914650613
 30
0.0
 11
1.3809230868
 21
5.1426369319
 31
0.0
  0
LINE
  5
1A6
330
19F
100
AcDbEntity
  8
0
  6
Continuous
 62
     7
370
     0
100
AcDbLine
 10
1.3809230868
 20
5.1426369319
 30
0.0
 11
1.3999660565
 21
5.1426369319
 31
0.0
  0
LINE
  5
1A7
330
19F
100
AcDbEntity
  8
0
  6
Continuous
 62
     7
370
     0
100
AcDbLine
 10
1.690021405
 20
5.2914650613
 30
0.0
 11
1.7090643747
 21
5.2914650613
 31
0.0
  0
LINE
  5
1A8
330
19F
100
AcDbEntity
  8
0
  6
Continuous
 62
     7
370
     0
100
AcDbLine
 10
1.7090643747
 20
5.2914650613
 30
0.0
 11
1.7090643747
 21
5.1426369319
 31
0.0
  0
LINE
  5
1A9
330
19F
100
AcDbEntity
  8
0
  6
Continuous
 62
     7
370
     0
100
AcDbLine
 10
1.7090643747
 20
5.1426369319
 30
0.0
 11
1.690021405
 21
5.1426369319
 31
0.0
  0
LINE
  5
1AA
330
19F
100
AcDbEntity
  8
0
  6
Continuous
 62
     7
370
     0
100
AcDbLine
 10
2.4712345257
 20
6.1945980715
 30
0.0
 11
1.4512437273
 21
6.1945980715
 31
0.0
  0
LINE
  5
1AB
330
19F
100
AcDbEntity
  8
0
  6
Continuous
 62
     7
370
     0
100
AcDbLine
 10
2.4712345257
 20
4.3897643446
 30
0.0
 11
1.4512437273
 21
4.3897643446
 31
0.0
  0
LINE
  5
1AC
330
19F
100
AcDbEntity
  8
0
  6
Continuous
 62
     7
370
     0
100
AcDbLine
 10
1.5449937273
 20
6.1945980715
 30
0.0
 11
1.5449937273
 21
5.4607684643
 31
0.0
  0
LINE
  5
1AD
330
19F
100
AcDbEntity
  8
0
  6
Continuous
 62
     7
370
     0
100
AcDbLine
 10
1.5449937273
 20
4.3897643446
 30
0.0
 11
1.5449937273
 21
5.1235939518
 31
0.0
  0
MTEXT
  5
1AE
330
19F
100
AcDbEntity
  8
0
  6
Continuous
 62
     7
370
     0
100
AcDbMText
 10
1.3671616928
 20
5.4327904302
 30
-0.4292028033
 40
0.09375
 41
0.0
 71
     1
 72
     1
  1

  7
SLDTEXTSTYLE0
 73
     1
 44
1.0
  0
MTEXT
  5
1AF
330
19F
100
AcDbEntity
  8
0
  6
Continuous
 62
     7
370
     0
100
AcDbMText
 10
1.3856838396
 20
5.4313581316
 30
-0.4292028033
 40
0.09375
 41
0.0
 71
     1
 72
     1
  1
1.80
  7
SLDTEXTSTYLE0
 73
     1
 44
1.0
  0
MTEXT
  5
1B0
330
19F
100
AcDbEntity
  8
0
  6
Continuous
 62
     7
370
     0
100
AcDbMText
 10
1.4237697686
 20
5.2634870273
 30
-0.4292028033
 40
0.09375
 41
0.0
 71
     1
 72
     1
  1
45.8
  7
SLDTEXTSTYLE0
 73
     1
 44
1.0
  0
MTEXT
  5
1B1
330
19F
100
AcDbEntity
  8
0
  6
Continuous
 62
     7
370
     0
100
AcDbMText
 10
1.758502852
 20
5.4327904302
 30
-0.4292028033
 40
0.09375
 41
0.0
 71
     1
 72
     1
  1

  7
SLDTEXTSTYLE0
 73
     1
 44
1.0
  0
ENDBLK
  5
1A1
330
19F
100
AcDbEntity
  8
0
100
AcDbBlockEnd
  0
BLOCK
  5
1B4
330
1B3
100
AcDbEntity
  8
0
100
AcDbBlockBegin
  2
*D15
 70
     1
 10
0.0
 20
0.0
 30
0.0
  3
*D15
  1

  0
SOLID
  5
1B6
330
1B3
100
AcDbEntity
  8
0
  6
Continuous
 62
     7
370
     0
100
AcDbTrace
 10
1.1237541413
 20
6.2863704907
 30
0.0
 11
1.1087541413
 21
6.1888704907
 31
0.0
 12
1.1387541413
 22
6.1888704907
 32
0.0
 13
1.1387541413
 23
6.1888704907
 33
0.0
  0
SOLID
  5
1B7
330
1B3
100
AcDbEntity
  8
0
  6
Continuous
 62
     7
370
     0
100
AcDbTrace
 10
1.1237541413
 20
4.2979919254
 30
0.0
 11
1.1387541413
 21
4.3954919254
 31
0.0
 12
1.1087541413
 22
4.3954919254
 32
0.0
 13
1.1087541413
 23
4.3954919254
 33
0.0
  0
LINE
  5
1B8
330
1B3
100
AcDbEntity
  8
0
  6
Continuous
 62
     7
370
     0
100
AcDbLine
 10
0.9787264705
 20
5.2914650613
 30
0.0
 11
0.9596835008
 21
5.2914650613
 31
0.0
  0
LINE
  5
1B9
330
1B3
100
AcDbEntity
  8
0
  6
Continuous
 62
     7
370
     0
100
AcDbLine
 10
0.9596835008
 20
5.2914650613
 30
0.0
 11
0.9596835008
 21
5.1426369319
 31
0.0
  0
LINE
  5
1BA
330
1B3
100
AcDbEntity
  8
0
  6
Continuous
 62
     7
370
     0
100
AcDbLine
 10
0.9596835008
 20
5.1426369319
 30
0.0
 11
0.9787264705
 21
5.1426369319
 31
0.0
  0
LINE
  5
1BB
330
1B3
100
AcDbEntity
  8
0
  6
Continuous
 62
     7
370
     0
100
AcDbLine
 10
1.268781819
 20
5.2914650613
 30
0.0
 11
1.2878247887
 21
5.2914650613
 31
0.0
  0
LINE
  5
1BC
330
1B3
100
AcDbEntity
  8
0
  6
Continuous
 62
     7
370
     0
100
AcDbLine
 10
1.2878247887
 20
5.2914650613
 30
0.0
 11
1.2878247887
 21
5.1426369319
 31
0.0
  0
LINE
  5
1BD
330
1B3
100
AcDbEntity
  8
0
  6
Continuous
 62
     7
370
     0
100
AcDbLine
 10
1.2878247887
 20
5.1426369319
 30
0.0
 11
1.268781819
 21
5.1426369319
 31
0.0
  0
LINE
  5
1BE
330
1B3
100
AcDbEntity
  8
0
  6
Continuous
 62
     7
370
     0
100
AcDbLine
 10
2.4602655623
 20
6.2863704907
 30
0.0
 11
1.0300041413
 21
6.2863704907
 31
0.0
  0
LINE
  5
1BF
330
1B3
100
AcDbEntity
  8
0
  6
Continuous
 62
     7
370
     0
100
AcDbLine
 10
2.4602655623
 20
4.2979919254
 30
0.0
 11
1.0300041413
 21
4.2979919254
 31
0.0
  0
LINE
  5
1C0
330
1B3
100
AcDbEntity
  8
0
  6
Continuous
 62
     7
370
     0
100
AcDbLine
 10
1.1237541413
 20
6.2863704907
 30
0.0
 11
1.1237541413
 21
5.4607684643
 31
0.0
  0
LINE
  5
1C1
330
1B3
100
AcDbEntity
  8
0
  6
Continuous
 62
     7
370
     0
100
AcDbLine
 10
1.1237541413
 20
4.2979919254
 30
0.0
 11
1.1237541413
 21
5.1235939518
 31
0.0
  0
MTEXT
  5
1C2
330
1B3
100
AcDbEntity
  8
0
  6
Continuous
 62
     7
370
     0
100
AcDbMText
 10
0.9459221068
 20
5.4327904302
 30
-0.4292028033
 40
0.09375
 41
0.0
 71
     1
 72
     1
  1

  7
SLDTEXTSTYLE0
 73
     1
 44
1.0
  0
MTEXT
  5
1C3
330
1B3
100
AcDbEntity
  8
0
  6
Continuous
 62
     7
370
     0
100
AcDbMText
 10
0.9644442536
 20
5.4313581316
 30
-0.4292028033
 40
0.09375
 41
0.0
 71
     1
 72
     1
  1
1.99
  7
SLDTEXTSTYLE0
 73
     1
 44
1.0
  0
MTEXT
  5
1C4
330
1B3
100
AcDbEntity
  8
0
  6
Continuous
 62
     7
370
     0
100
AcDbMText
 10
1.0025301827
 20
5.2634870273
 30
-0.4292028033
 40
0.09375
 41
0.0
 71
     1
 72
     1
  1
50.5
  7
SLDTEXTSTYLE0
 73
     1
 44
1.0
  0
MTEXT
  5
1C5
330
1B3
100
AcDbEntity
  8
0
  6
Continuous
 62
     7
370
     0
100
AcDbMText
 10
1.337263266
 20
5.4327904302
 30
-0.4292028033
 40
0.09375
 41
0.0
 71
     1
 72
     1
  1

  7
SLDTEXTSTYLE0
 73
     1
 44
1.0
  0
ENDBLK
  5
1B5
330
1B3
100
AcDbEntity
  8
0
100
AcDbBlockEnd
  0
BLOCK
  5
1C8
330
1C7
100
AcDbEntity
  8
0
100
AcDbBlockBegin
  2
*D16
 70
     1
 10
0.0
 20
0.0
 30
0.0
  3
*D16
  1

  0
SOLID
  5
1CA
330
1C7
100
AcDbEntity
  8
0
  6
Continuous
 62
     7
370
     0
100
AcDbTrace
 10
0.7125846912
 20
6.3049401763
 30
0.0
 11
0.6975846912
 21
6.2074401763
 31
0.0
 12
0.7275846912
 22
6.2074401763
 32
0.0
 13
0.7275846912
 23
6.2074401763
 33
0.0
  0
SOLID
  5
1CB
330
1C7
100
AcDbEntity
  8
0
  6
Continuous
 62
     7
370
     0
100
AcDbTrace
 10
0.7125846912
 20
4.2794222398
 30
0.0
 11
0.7275846912
 21
4.3769222398
 31
0.0
 12
0.6975846912
 22
4.3769222398
 32
0.0
 13
0.6975846912
 23
4.3769222398
 33
0.0
  0
LINE
  5
1CC
330
1C7
100
AcDbEntity
  8
0
  6
Continuous
 62
     7
370
     0
100
AcDbLine
 10
0.5675570204
 20
5.2914650613
 30
0.0
 11
0.5485140507
 21
5.2914650613
 31
0.0
  0
LINE
  5
1CD
330
1C7
100
AcDbEntity
  8
0
  6
Continuous
 62
     7
370
     0
100
AcDbLine
 10
0.5485140507
 20
5.2914650613
 30
0.0
 11
0.5485140507
 21
5.1426369319
 31
0.0
  0
LINE
  5
1CE
330
1C7
100
AcDbEntity
  8
0
  6
Continuous
 62
     7
370
     0
100
AcDbLine
 10
0.5485140507
 20
5.1426369319
 30
0.0
 11
0.5675570204
 21
5.1426369319
 31
0.0
  0
LINE
  5
1CF
330
1C7
100
AcDbEntity
  8
0
  6
Continuous
 62
     7
370
     0
100
AcDbLine
 10
0.8576123689
 20
5.2914650613
 30
0.0
 11
0.8766553386
 21
5.2914650613
 31
0.0
  0
LINE
  5
1D0
330
1C7
100
AcDbEntity
  8
0
  6
Continuous
 62
     7
370
     0
100
AcDbLine
 10
0.8766553386
 20
5.2914650613
 30
0.0
 11
0.8766553386
 21
5.1426369319
 31
0.0
  0
LINE
  5
1D1
330
1C7
100
AcDbEntity
  8
0
  6
Continuous
 62
     7
370
     0
100
AcDbLine
 10
0.8766553386
 20
5.1426369319
 30
0.0
 11
0.8576123689
 21
5.1426369319
 31
0.0
  0
LINE
  5
1D2
330
1C7
100
AcDbEntity
  8
0
  6
Continuous
 62
     7
370
     0
100
AcDbLine
 10
2.4602655623
 20
6.3049401763
 30
0.0
 11
0.6188346912
 21
6.3049401763
 31
0.0
  0
LINE
  5
1D3
330
1C7
100
AcDbEntity
  8
0
  6
Continuous
 62
     7
370
     0
100
AcDbLine
 10
2.4602655623
 20
4.2794222398
 30
0.0
 11
0.6188346912
 21
4.2794222398
 31
0.0
  0
LINE
  5
1D4
330
1C7
100
AcDbEntity
  8
0
  6
Continuous
 62
     7
370
     0
100
AcDbLine
 10
0.7125846912
 20
6.3049401763
 30
0.0
 11
0.7125846912
 21
5.4607684643
 31
0.0
  0
LINE
  5
1D5
330
1C7
100
AcDbEntity
  8
0
  6
Continuous
 62
     7
370
     0
100
AcDbLine
 10
0.7125846912
 20
4.2794222398
 30
0.0
 11
0.7125846912
 21
5.1235939518
 31
0.0
  0
MTEXT
  5
1D6
330
1C7
100
AcDbEntity
  8
0
  6
Continuous
 62
     7
370
     0
100
AcDbMText
 10
0.5347526567
 20
5.4327904302
 30
-0.4292028033
 40
0.09375
 41
0.0
 71
     1
 72
     1
  1

  7
SLDTEXTSTYLE0
 73
     1
 44
1.0
  0
MTEXT
  5
1D7
330
1C7
100
AcDbEntity
  8
0
  6
Continuous
 62
     7
370
     0
100
AcDbMText
 10
0.5532748035
 20
5.4313581316
 30
-0.4292028033
 40
0.09375
 41
0.0
 71
     1
 72
     1
  1
2.03
  7
SLDTEXTSTYLE0
 73
     1
 44
1.0
  0
MTEXT
  5
1D8
330
1C7
100
AcDbEntity
  8
0
  6
Continuous
 62
     7
370
     0
100
AcDbMText
 10
0.5913607326
 20
5.2634870273
 30
-0.4292028033
 40
0.09375
 41
0.0
 71
     1
 72
     1
  1
51.4
  7
SLDTEXTSTYLE0
 73
     1
 44
1.0
  0
MTEXT
  5
1D9
330
1C7
100
AcDbEntity
  8
0
  6
Continuous
 62
     7
370
     0
100
AcDbMText
 10
0.9260938159
 20
5.4327904302
 30
-0.4292028033
 40
0.09375
 41
0.0
 71
     1
 72
     1
  1

  7
SLDTEXTSTYLE0
 73
     1
 44
1.0
  0
ENDBLK
  5
1C9
330
1C7
100
AcDbEntity
  8
0
100
AcDbBlockEnd
  0
BLOCK
  5
1DB
330
1DA
100
AcDbEntity
  8
0
100
AcDbBlockBegin
  2
SW_NOTE_4
 70
     0
 10
0.0
 20
0.0
 30
0.0
  3
SW_NOTE_4
  1

  0
MTEXT
  5
1DD
330
1DA
100
AcDbEntity
  8
0
  6
Continuous
 62
     0
370
     0
100
AcDbMText
 10
0.0148404893
 20
0.045442954
 30
0.0
 40
0.09375
 41
0.0
 71
     1
 72
     1
  1
HOLES ACCEPT M2.6 x 6mm LG.
  7
SLDTEXTSTYLE0
 73
     1
 44
1.0
  0
MTEXT
  5
1DE
330
1DA
100
AcDbEntity
  8
0
  6
Continuous
 62
     0
370
     0
100
AcDbMText
 10
0.0148404893
 20
-0.0778346019
 30
0.0
 40
0.09375
 41
0.0
 71
     1
 72
     1
  1
SELF-TAPPING SCREWS FOR
  7
SLDTEXTSTYLE0
 73
     1
 44
1.0
  0
MTEXT
  5
1DF
330
1DA
100
AcDbEntity
  8
0
  6
Continuous
 62
     0
370
     0
100
AcDbMText
 10
0.0148404893
 20
-0.2011121578
 30
0.0
 40
0.09375
 41
0.0
 71
     1
 72
     1
  1
PCB MOUNTING
  7
SLDTEXTSTYLE0
 73
     1
 44
1.0
  0
ENDBLK
  5
1DC
330
1DA
100
AcDbEntity
  8
0
100
AcDbBlockEnd
  0
BLOCK
  5
1E4
330
1E3
100
AcDbEntity
  8
0
100
AcDbBlockBegin
  2
SW_CENTERMARKSYMBOL_0
 70
     0
 10
0.0
 20
0.0
 30
0.0
  3
SW_CENTERMARKSYMBOL_0
  1

  0
LINE
  5
1E6
330
1E3
100
AcDbEntity
  8
0
  6
Continuous
 62
     0
370
     0
100
AcDbLine
 10
0.0
 20
0.0
 30
0.0
 11
0.0
 21
0.1
 31
0.0
  0
LINE
  5
1E7
330
1E3
100
AcDbEntity
  8
0
  6
Continuous
 62
     0
370
     0
100
AcDbLine
 10
0.0
 20
0.0
 30
0.0
 11
-0.1
 21
0.0
 31
0.0
  0
LINE
  5
1E8
330
1E3
100
AcDbEntity
  8
0
  6
Continuous
 62
     0
370
     0
100
AcDbLine
 10
0.0
 20
0.0
 30
0.0
 11
0.0
 21
-0.1
 31
0.0
  0
LINE
  5
1E9
330
1E3
100
AcDbEntity
  8
0
  6
Continuous
 62
     0
370
     0
100
AcDbLine
 10
0.0
 20
0.0
 30
0.0
 11
0.1
 21
0.0
 31
0.0
  0
LINE
  5
1EA
330
1E3
100
AcDbEntity
  8
0
  6
Continuous
 62
     0
370
     0
100
AcDbLine
 10
0.0
 20
0.1
 30
0.0
 11
0.0
 21
0.1885826772
 31
0.0
  0
LINE
  5
1EB
330
1E3
100
AcDbEntity
  8
0
  6
Continuous
 62
     0
370
     0
100
AcDbLine
 10
-0.1
 20
0.0
 30
0.0
 11
-0.1885826772
 21
0.0
 31
0.0
  0
LINE
  5
1EC
330
1E3
100
AcDbEntity
  8
0
  6
Continuous
 62
     0
370
     0
100
AcDbLine
 10
0.0
 20
-0.1
 30
0.0
 11
0.0
 21
-0.1885826772
 31
0.0
  0
LINE
  5
1ED
330
1E3
100
AcDbEntity
  8
0
  6
Continuous
 62
     0
370
     0
100
AcDbLine
 10
0.1
 20
0.0
 30
0.0
 11
0.1885826772
 21
0.0
 31
0.0
  0
ENDBLK
  5
1E5
330
1E3
100
AcDbEntity
  8
0
100
AcDbBlockEnd
  0
BLOCK
  5
1F0
330
1EF
100
AcDbEntity
  8
0
100
AcDbBlockBegin
  2
SW_CENTERMARKSYMBOL_1
 70
     0
 10
0.0
 20
0.0
 30
0.0
  3
SW_CENTERMARKSYMBOL_1
  1

  0
LINE
  5
1F2
330
1EF
100
AcDbEntity
  8
0
  6
Continuous
 62
     0
370
     0
100
AcDbLine
 10
0.0
 20
0.0
 30
0.0
 11
0.0
 21
0.1
 31
0.0
  0
LINE
  5
1F3
330
1EF
100
AcDbEntity
  8
0
  6
Continuous
 62
     0
370
     0
100
AcDbLine
 10
0.0
 20
0.0
 30
0.0
 11
-0.1
 21
0.0
 31
0.0
  0
LINE
  5
1F4
330
1EF
100
AcDbEntity
  8
0
  6
Continuous
 62
     0
370
     0
100
AcDbLine
 10
0.0
 20
0.0
 30
0.0
 11
0.0
 21
-0.1
 31
0.0
  0
LINE
  5
1F5
330
1EF
100
AcDbEntity
  8
0
  6
Continuous
 62
     0
370
     0
100
AcDbLine
 10
0.0
 20
0.0
 30
0.0
 11
0.1
 21
0.0
 31
0.0
  0
LINE
  5
1F6
330
1EF
100
AcDbEntity
  8
0
  6
Continuous
 62
     0
370
     0
100
AcDbLine
 10
0.0
 20
0.1
 30
0.0
 11
0.0
 21
0.1885826772
 31
0.0
  0
LINE
  5
1F7
330
1EF
100
AcDbEntity
  8
0
  6
Continuous
 62
     0
370
     0
100
AcDbLine
 10
-0.1
 20
0.0
 30
0.0
 11
-0.1885826772
 21
0.0
 31
0.0
  0
LINE
  5
1F8
330
1EF
100
AcDbEntity
  8
0
  6
Continuous
 62
     0
370
     0
100
AcDbLine
 10
0.0
 20
-0.1
 30
0.0
 11
0.0
 21
-0.1885826772
 31
0.0
  0
LINE
  5
1F9
330
1EF
100
AcDbEntity
  8
0
  6
Continuous
 62
     0
370
     0
100
AcDbLine
 10
0.1
 20
0.0
 30
0.0
 11
0.1885826772
 21
0.0
 31
0.0
  0
ENDBLK
  5
1F1
330
1EF
100
AcDbEntity
  8
0
100
AcDbBlockEnd
  0
BLOCK
  5
1FC
330
1FB
100
AcDbEntity
  8
0
100
AcDbBlockBegin
  2
SW_CENTERMARKSYMBOL_2
 70
     0
 10
0.0
 20
0.0
 30
0.0
  3
SW_CENTERMARKSYMBOL_2
  1

  0
LINE
  5
1FE
330
1FB
100
AcDbEntity
  8
0
  6
Continuous
 62
     0
370
     0
100
AcDbLine
 10
0.0
 20
0.0
 30
0.0
 11
0.0
 21
0.1
 31
0.0
  0
LINE
  5
1FF
330
1FB
100
AcDbEntity
  8
0
  6
Continuous
 62
     0
370
     0
100
AcDbLine
 10
0.0
 20
0.0
 30
0.0
 11
-0.1
 21
0.0
 31
0.0
  0
LINE
  5
200
330
1FB
100
AcDbEntity
  8
0
  6
Continuous
 62
     0
370
     0
100
AcDbLine
 10
0.0
 20
0.0
 30
0.0
 11
0.0
 21
-0.1
 31
0.0
  0
LINE
  5
201
330
1FB
100
AcDbEntity
  8
0
  6
Continuous
 62
     0
370
     0
100
AcDbLine
 10
0.0
 20
0.0
 30
0.0
 11
0.1
 21
0.0
 31
0.0
  0
LINE
  5
202
330
1FB
100
AcDbEntity
  8
0
  6
Continuous
 62
     0
370
     0
100
AcDbLine
 10
0.0
 20
0.1
 30
0.0
 11
0.0
 21
0.1393700787
 31
0.0
  0
LINE
  5
203
330
1FB
100
AcDbEntity
  8
0
  6
Continuous
 62
     0
370
     0
100
AcDbLine
 10
-0.1
 20
0.0
 30
0.0
 11
-0.1393700787
 21
0.0
 31
0.0
  0
LINE
  5
204
330
1FB
100
AcDbEntity
  8
0
  6
Continuous
 62
     0
370
     0
100
AcDbLine
 10
0.0
 20
-0.1
 30
0.0
 11
0.0
 21
-0.1393700787
 31
0.0
  0
LINE
  5
205
330
1FB
100
AcDbEntity
  8
0
  6
Continuous
 62
     0
370
     0
100
AcDbLine
 10
0.1
 20
0.0
 30
0.0
 11
0.1393700787
 21
0.0
 31
0.0
  0
ENDBLK
  5
1FD
330
1FB
100
AcDbEntity
  8
0
100
AcDbBlockEnd
  0
BLOCK
  5
208
330
207
100
AcDbEntity
  8
0
100
AcDbBlockBegin
  2
SW_CENTERMARKSYMBOL_3
 70
     0
 10
0.0
 20
0.0
 30
0.0
  3
SW_CENTERMARKSYMBOL_3
  1

  0
LINE
  5
20A
330
207
100
AcDbEntity
  8
0
  6
Continuous
 62
     0
370
     0
100
AcDbLine
 10
0.0
 20
0.0
 30
0.0
 11
0.0
 21
0.1
 31
0.0
  0
LINE
  5
20B
330
207
100
AcDbEntity
  8
0
  6
Continuous
 62
     0
370
     0
100
AcDbLine
 10
0.0
 20
0.0
 30
0.0
 11
-0.1
 21
0.0
 31
0.0
  0
LINE
  5
20C
330
207
100
AcDbEntity
  8
0
  6
Continuous
 62
     0
370
     0
100
AcDbLine
 10
0.0
 20
0.0
 30
0.0
 11
0.0
 21
-0.1
 31
0.0
  0
LINE
  5
20D
330
207
100
AcDbEntity
  8
0
  6
Continuous
 62
     0
370
     0
100
AcDbLine
 10
0.0
 20
0.0
 30
0.0
 11
0.1
 21
0.0
 31
0.0
  0
LINE
  5
20E
330
207
100
AcDbEntity
  8
0
  6
Continuous
 62
     0
370
     0
100
AcDbLine
 10
0.0
 20
0.1
 30
0.0
 11
0.0
 21
0.1393700787
 31
0.0
  0
LINE
  5
20F
330
207
100
AcDbEntity
  8
0
  6
Continuous
 62
     0
370
     0
100
AcDbLine
 10
-0.1
 20
0.0
 30
0.0
 11
-0.1393700787
 21
0.0
 31
0.0
  0
LINE
  5
210
330
207
100
AcDbEntity
  8
0
  6
Continuous
 62
     0
370
     0
100
AcDbLine
 10
0.0
 20
-0.1
 30
0.0
 11
0.0
 21
-0.1393700787
 31
0.0
  0
LINE
  5
211
330
207
100
AcDbEntity
  8
0
  6
Continuous
 62
     0
370
     0
100
AcDbLine
 10
0.1
 20
0.0
 30
0.0
 11
0.1393700787
 21
0.0
 31
0.0
  0
ENDBLK
  5
209
330
207
100
AcDbEntity
  8
0
100
AcDbBlockEnd
  0
BLOCK
  5
214
330
213
100
AcDbEntity
  8
0
100
AcDbBlockBegin
  2
SW_CENTERMARKSYMBOL_4
 70
     0
 10
0.0
 20
0.0
 30
0.0
  3
SW_CENTERMARKSYMBOL_4
  1

  0
LINE
  5
216
330
213
100
AcDbEntity
  8
0
  6
Continuous
 62
     0
370
     0
100
AcDbLine
 10
0.0
 20
0.0
 30
0.0
 11
0.0
 21
0.1
 31
0.0
  0
LINE
  5
217
330
213
100
AcDbEntity
  8
0
  6
Continuous
 62
     0
370
     0
100
AcDbLine
 10
0.0
 20
0.0
 30
0.0
 11
-0.1
 21
0.0
 31
0.0
  0
LINE
  5
218
330
213
100
AcDbEntity
  8
0
  6
Continuous
 62
     0
370
     0
100
AcDbLine
 10
0.0
 20
0.0
 30
0.0
 11
0.0
 21
-0.1
 31
0.0
  0
LINE
  5
219
330
213
100
AcDbEntity
  8
0
  6
Continuous
 62
     0
370
     0
100
AcDbLine
 10
0.0
 20
0.0
 30
0.0
 11
0.1
 21
0.0
 31
0.0
  0
LINE
  5
21A
330
213
100
AcDbEntity
  8
0
  6
Continuous
 62
     0
370
     0
100
AcDbLine
 10
0.0
 20
0.1
 30
0.0
 11
0.0
 21
0.1393700787
 31
0.0
  0
LINE
  5
21B
330
213
100
AcDbEntity
  8
0
  6
Continuous
 62
     0
370
     0
100
AcDbLine
 10
-0.1
 20
0.0
 30
0.0
 11
-0.1393700787
 21
0.0
 31
0.0
  0
LINE
  5
21C
330
213
100
AcDbEntity
  8
0
  6
Continuous
 62
     0
370
     0
100
AcDbLine
 10
0.0
 20
-0.1
 30
0.0
 11
0.0
 21
-0.1393700787
 31
0.0
  0
LINE
  5
21D
330
213
100
AcDbEntity
  8
0
  6
Continuous
 62
     0
370
     0
100
AcDbLine
 10
0.1
 20
0.0
 30
0.0
 11
0.1393700787
 21
0.0
 31
0.0
  0
ENDBLK
  5
215
330
213
100
AcDbEntity
  8
0
100
AcDbBlockEnd
  0
BLOCK
  5
220
330
21F
100
AcDbEntity
  8
0
100
AcDbBlockBegin
  2
SW_CENTERMARKSYMBOL_5
 70
     0
 10
0.0
 20
0.0
 30
0.0
  3
SW_CENTERMARKSYMBOL_5
  1

  0
LINE
  5
222
330
21F
100
AcDbEntity
  8
0
  6
Continuous
 62
     0
370
     0
100
AcDbLine
 10
0.0
 20
0.0
 30
0.0
 11
0.0
 21
0.1
 31
0.0
  0
LINE
  5
223
330
21F
100
AcDbEntity
  8
0
  6
Continuous
 62
     0
370
     0
100
AcDbLine
 10
0.0
 20
0.0
 30
0.0
 11
-0.1
 21
0.0
 31
0.0
  0
LINE
  5
224
330
21F
100
AcDbEntity
  8
0
  6
Continuous
 62
     0
370
     0
100
AcDbLine
 10
0.0
 20
0.0
 30
0.0
 11
0.0
 21
-0.1
 31
0.0
  0
LINE
  5
225
330
21F
100
AcDbEntity
  8
0
  6
Continuous
 62
     0
370
     0
100
AcDbLine
 10
0.0
 20
0.0
 30
0.0
 11
0.1
 21
0.0
 31
0.0
  0
LINE
  5
226
330
21F
100
AcDbEntity
  8
0
  6
Continuous
 62
     0
370
     0
100
AcDbLine
 10
0.0
 20
0.1
 30
0.0
 11
0.0
 21
0.1393700787
 31
0.0
  0
LINE
  5
227
330
21F
100
AcDbEntity
  8
0
  6
Continuous
 62
     0
370
     0
100
AcDbLine
 10
-0.1
 20
0.0
 30
0.0
 11
-0.1393700787
 21
0.0
 31
0.0
  0
LINE
  5
228
330
21F
100
AcDbEntity
  8
0
  6
Continuous
 62
     0
370
     0
100
AcDbLine
 10
0.0
 20
-0.1
 30
0.0
 11
0.0
 21
-0.1393700787
 31
0.0
  0
LINE
  5
229
330
21F
100
AcDbEntity
  8
0
  6
Continuous
 62
     0
370
     0
100
AcDbLine
 10
0.1
 20
0.0
 30
0.0
 11
0.1393700787
 21
0.0
 31
0.0
  0
ENDBLK
  5
221
330
21F
100
AcDbEntity
  8
0
100
AcDbBlockEnd
  0
BLOCK
  5
34C
330
34B
100
AcDbEntity
  8
0
100
AcDbBlockBegin
  2
*D24
 70
     1
 10
0.0
 20
0.0
 30
0.0
  3
*D24
  1

  0
SOLID
  5
34E
330
34B
100
AcDbEntity
  8
0
  6
Continuous
 62
     7
370
     0
100
AcDbTrace
 10
4.179212451
 20
2.6024928003
 30
0.0
 11
4.194212451
 21
2.6999928003
 31
0.0
 12
4.164212451
 22
2.6999928003
 32
0.0
 13
4.164212451
 23
2.6999928003
 33
0.0
  0
SOLID
  5
34F
330
34B
100
AcDbEntity
  8
0
  6
Continuous
 62
     7
370
     0
100
AcDbTrace
 10
4.179212451
 20
2.5237526428
 30
0.0
 11
4.164212451
 21
2.4262526428
 31
0.0
 12
4.194212451
 22
2.4262526428
 32
0.0
 13
4.194212451
 23
2.4262526428
 33
0.0
  0
LINE
  5
350
330
34B
100
AcDbEntity
  8
0
  6
Continuous
 62
     7
370
     0
100
AcDbLine
 10
4.4308745022
 20
2.2872074265
 30
0.0
 11
4.4118315325
 21
2.2872074265
 31
0.0
  0
LINE
  5
351
330
34B
100
AcDbEntity
  8
0
  6
Continuous
 62
     7
370
     0
100
AcDbLine
 10
4.4118315325
 20
2.2872074265
 30
0.0
 11
4.4118315325
 21
2.1383792971
 31
0.0
  0
LINE
  5
352
330
34B
100
AcDbEntity
  8
0
  6
Continuous
 62
     7
370
     0
100
AcDbLine
 10
4.4118315325
 20
2.1383792971
 30
0.0
 11
4.4308745022
 21
2.1383792971
 31
0.0
  0
LINE
  5
353
330
34B
100
AcDbEntity
  8
0
  6
Continuous
 62
     7
370
     0
100
AcDbLine
 10
4.54775276
 20
2.2872074265
 30
0.0
 11
4.5667957297
 21
2.2872074265
 31
0.0
  0
LINE
  5
354
330
34B
100
AcDbEntity
  8
0
  6
Continuous
 62
     7
370
     0
100
AcDbLine
 10
4.5667957297
 20
2.2872074265
 30
0.0
 11
4.5667957297
 21
2.1383792971
 31
0.0
  0
LINE
  5
355
330
34B
100
AcDbEntity
  8
0
  6
Continuous
 62
     7
370
     0
100
AcDbLine
 10
4.5667957297
 20
2.1383792971
 30
0.0
 11
4.54775276
 21
2.1383792971
 31
0.0
  0
LINE
  5
356
330
34B
100
AcDbEntity
  8
0
  6
Continuous
 62
     7
370
     0
100
AcDbLine
 10
4.272962451
 20
2.2879235733
 30
0.0
 11
4.179212451
 21
2.2879235733
 31
0.0
  0
LINE
  5
357
330
34B
100
AcDbEntity
  8
0
  6
Continuous
 62
     7
370
     0
100
AcDbLine
 10
4.179212451
 20
2.2879235733
 30
0.0
 11
4.179212451
 21
2.5237526428
 31
0.0
  0
LINE
  5
358
330
34B
100
AcDbEntity
  8
0
  6
Continuous
 62
     7
370
     0
100
AcDbLine
 10
4.179212451
 20
2.6024928003
 30
0.0
 11
4.179212451
 21
2.7899928003
 31
0.0
  0
MTEXT
  5
359
330
34B
100
AcDbEntity
  8
0
  6
Continuous
 62
     7
370
     0
100
AcDbMText
 10
4.3651599762
 20
2.4285327955
 30
0.3626782046
 40
0.09375
 41
0.0
 71
     1
 72
     1
  1

  7
SLDTEXTSTYLE0
 73
     1
 44
1.0
  0
MTEXT
  5
35A
330
34B
100
AcDbEntity
  8
0
  6
Continuous
 62
     7
370
     0
100
AcDbMText
 10
4.3646391429
 20
2.4271004968
 30
0.3626782046
 40
0.09375
 41
0.0
 71
     1
 72
     1
  1
.08
  7
SLDTEXTSTYLE0
 73
     1
 44
1.0
  0
MTEXT
  5
35B
330
34B
100
AcDbEntity
  8
0
  6
Continuous
 62
     7
370
     0
100
AcDbMText
 10
4.4546782144
 20
2.2592293925
 30
0.3626782046
 40
0.09375
 41
0.0
 71
     1
 72
     1
  1
2
  7
SLDTEXTSTYLE0
 73
     1
 44
1.0
  0
MTEXT
  5
35C
330
34B
100
AcDbEntity
  8
0
  6
Continuous
 62
     7
370
     0
100
AcDbMText
 10
4.6491443556
 20
2.4285327955
 30
0.3626782046
 40
0.09375
 41
0.0
 71
     1
 72
     1
  1

  7
SLDTEXTSTYLE0
 73
     1
 44
1.0
  0
ENDBLK
  5
34D
330
34B
100
AcDbEntity
  8
0
100
AcDbBlockEnd
  0
BLOCK
  5
35F
330
35E
100
AcDbEntity
  8
0
100
AcDbBlockBegin
  2
*D25
 70
     1
 10
0.0
 20
0.0
 30
0.0
  3
*D25
  1

  0
SOLID
  5
361
330
35E
100
AcDbEntity
  8
0
  6
Continuous
 62
     7
370
     0
100
AcDbTrace
 10
1.813500518
 20
2.6812329578
 30
0.0
 11
1.828500518
 21
2.7787329578
 31
0.0
 12
1.798500518
 22
2.7787329578
 32
0.0
 13
1.798500518
 23
2.7787329578
 33
0.0
  0
SOLID
  5
362
330
35E
100
AcDbEntity
  8
0
  6
Continuous
 62
     7
370
     0
100
AcDbTrace
 10
1.813500518
 20
2.5237526428
 30
0.0
 11
1.798500518
 21
2.4262526428
 31
0.0
 12
1.828500518
 22
2.4262526428
 32
0.0
 13
1.828500518
 23
2.4262526428
 33
0.0
  0
LINE
  5
363
330
35E
100
AcDbEntity
  8
0
  6
Continuous
 62
     7
370
     0
100
AcDbLine
 10
1.4449602296
 20
2.2872074265
 30
0.0
 11
1.4259172599
 21
2.2872074265
 31
0.0
  0
LINE
  5
364
330
35E
100
AcDbEntity
  8
0
  6
Continuous
 62
     7
370
     0
100
AcDbLine
 10
1.4259172599
 20
2.2872074265
 30
0.0
 11
1.4259172599
 21
2.1383792971
 31
0.0
  0
LINE
  5
365
330
35E
100
AcDbEntity
  8
0
  6
Continuous
 62
     7
370
     0
100
AcDbLine
 10
1.4259172599
 20
2.1383792971
 30
0.0
 11
1.4449602296
 21
2.1383792971
 31
0.0
  0
LINE
  5
366
330
35E
100
AcDbEntity
  8
0
  6
Continuous
 62
     7
370
     0
100
AcDbLine
 10
1.5618384874
 20
2.2872074265
 30
0.0
 11
1.5808814571
 21
2.2872074265
 31
0.0
  0
LINE
  5
367
330
35E
100
AcDbEntity
  8
0
  6
Continuous
 62
     7
370
     0
100
AcDbLine
 10
1.5808814571
 20
2.2872074265
 30
0.0
 11
1.5808814571
 21
2.1383792971
 31
0.0
  0
LINE
  5
368
330
35E
100
AcDbEntity
  8
0
  6
Continuous
 62
     7
370
     0
100
AcDbLine
 10
1.5808814571
 20
2.1383792971
 30
0.0
 11
1.5618384874
 21
2.1383792971
 31
0.0
  0
LINE
  5
369
330
35E
100
AcDbEntity
  8
0
  6
Continuous
 62
     7
370
     0
100
AcDbLine
 10
2.0193206804
 20
2.6812329578
 30
0.0
 11
1.719750518
 21
2.6812329578
 31
0.0
  0
LINE
  5
36A
330
35E
100
AcDbEntity
  8
0
  6
Continuous
 62
     7
370
     0
100
AcDbLine
 10
1.9799506017
 20
2.5237526428
 30
0.0
 11
1.719750518
 21
2.5237526428
 31
0.0
  0
LINE
  5
36B
330
35E
100
AcDbEntity
  8
0
  6
Continuous
 62
     7
370
     0
100
AcDbLine
 10
1.719750518
 20
2.2879235733
 30
0.0
 11
1.813500518
 21
2.2879235733
 31
0.0
  0
LINE
  5
36C
330
35E
100
AcDbEntity
  8
0
  6
Continuous
 62
     7
370
     0
100
AcDbLine
 10
1.813500518
 20
2.2879235733
 30
0.0
 11
1.813500518
 21
2.5237526428
 31
0.0
  0
LINE
  5
36D
330
35E
100
AcDbEntity
  8
0
  6
Continuous
 62
     7
370
     0
100
AcDbLine
 10
1.813500518
 20
2.6812329578
 30
0.0
 11
1.813500518
 21
2.8687329578
 31
0.0
  0
MTEXT
  5
36E
330
35E
100
AcDbEntity
  8
0
  6
Continuous
 62
     7
370
     0
100
AcDbMText
 10
1.3792457035
 20
2.4285327955
 30
0.3626782046
 40
0.09375
 41
0.0
 71
     1
 72
     1
  1

  7
SLDTEXTSTYLE0
 73
     1
 44
1.0
  0
MTEXT
  5
36F
330
35E
100
AcDbEntity
  8
0
  6
Continuous
 62
     7
370
     0
100
AcDbMText
 10
1.3787248703
 20
2.4271004968
 30
0.3626782046
 40
0.09375
 41
0.0
 71
     1
 72
     1
  1
.16
  7
SLDTEXTSTYLE0
 73
     1
 44
1.0
  0
MTEXT
  5
370
330
35E
100
AcDbEntity
  8
0
  6
Continuous
 62
     7
370
     0
100
AcDbMText
 10
1.4687639417
 20
2.2592293925
 30
0.3626782046
 40
0.09375
 41
0.0
 71
     1
 72
     1
  1
4
  7
SLDTEXTSTYLE0
 73
     1
 44
1.0
  0
MTEXT
  5
371
330
35E
100
AcDbEntity
  8
0
  6
Continuous
 62
     7
370
     0
100
AcDbMText
 10
1.6632300829
 20
2.4285327955
 30
0.3626782046
 40
0.09375
 41
0.0
 71
     1
 72
     1
  1

  7
SLDTEXTSTYLE0
 73
     1
 44
1.0
  0
ENDBLK
  5
360
330
35E
100
AcDbEntity
  8
0
100
AcDbBlockEnd
  0
BLOCK
  5
374
330
373
100
AcDbEntity
  8
0
100
AcDbBlockBegin
  2
*D26
 70
     1
 10
0.0
 20
0.0
 30
0.0
  3
*D26
  1

  0
SOLID
  5
376
330
373
100
AcDbEntity
  8
0
  6
Continuous
 62
     7
370
     0
100
AcDbTrace
 10
1.3225212828
 20
2.9174534302
 30
0.0
 11
1.3375212828
 21
3.0149534302
 31
0.0
 12
1.3075212828
 22
3.0149534302
 32
0.0
 13
1.3075212828
 23
3.0149534302
 33
0.0
  0
SOLID
  5
377
330
373
100
AcDbEntity
  8
0
  6
Continuous
 62
     7
370
     0
100
AcDbTrace
 10
1.3225212828
 20
2.5237526428
 30
0.0
 11
1.3075212828
 21
2.4262526428
 31
0.0
 12
1.3375212828
 22
2.4262526428
 32
0.0
 13
1.3375212828
 23
2.4262526428
 33
0.0
  0
LINE
  5
378
330
373
100
AcDbEntity
  8
0
  6
Continuous
 62
     7
370
     0
100
AcDbLine
 10
1.2294467406
 20
2.7198868898
 30
0.0
 11
1.2104037709
 21
2.7198868898
 31
0.0
  0
LINE
  5
379
330
373
100
AcDbEntity
  8
0
  6
Continuous
 62
     7
370
     0
100
AcDbLine
 10
1.2104037709
 20
2.7198868898
 30
0.0
 11
1.2104037709
 21
2.5710587603
 31
0.0
  0
LINE
  5
37A
330
373
100
AcDbEntity
  8
0
  6
Continuous
 62
     7
370
     0
100
AcDbLine
 10
1.2104037709
 20
2.5710587603
 30
0.0
 11
1.2294467406
 21
2.5710587603
 31
0.0
  0
LINE
  5
37B
330
373
100
AcDbEntity
  8
0
  6
Continuous
 62
     7
370
     0
100
AcDbLine
 10
1.4155958319
 20
2.7198868898
 30
0.0
 11
1.4346388016
 21
2.7198868898
 31
0.0
  0
LINE
  5
37C
330
373
100
AcDbEntity
  8
0
  6
Continuous
 62
     7
370
     0
100
AcDbLine
 10
1.4346388016
 20
2.7198868898
 30
0.0
 11
1.4346388016
 21
2.5710587603
 31
0.0
  0
LINE
  5
37D
330
373
100
AcDbEntity
  8
0
  6
Continuous
 62
     7
370
     0
100
AcDbLine
 10
1.4346388016
 20
2.5710587603
 30
0.0
 11
1.4155958319
 21
2.5710587603
 31
0.0
  0
LINE
  5
37E
330
373
100
AcDbEntity
  8
0
  6
Continuous
 62
     7
370
     0
100
AcDbLine
 10
2.4012104442
 20
2.9174534302
 30
0.0
 11
1.2287712828
 21
2.9174534302
 31
0.0
  0
LINE
  5
37F
330
373
100
AcDbEntity
  8
0
  6
Continuous
 62
     7
370
     0
100
AcDbLine
 10
1.9799506017
 20
2.5237526428
 30
0.0
 11
1.2287712828
 21
2.5237526428
 31
0.0
  0
LINE
  5
380
330
373
100
AcDbEntity
  8
0
  6
Continuous
 62
     7
370
     0
100
AcDbLine
 10
1.3225212828
 20
2.9174534302
 30
0.0
 11
1.3225212828
 21
3.1049534302
 31
0.0
  0
LINE
  5
381
330
373
100
AcDbEntity
  8
0
  6
Continuous
 62
     7
370
     0
100
AcDbLine
 10
1.3225212828
 20
2.5237526428
 30
0.0
 11
1.3225212828
 21
2.3362526428
 31
0.0
  0
MTEXT
  5
382
330
373
100
AcDbEntity
  8
0
  6
Continuous
 62
     7
370
     0
100
AcDbMText
 10
1.1966423769
 20
2.8612122587
 30
0.3626782046
 40
0.09375
 41
0.0
 71
     1
 72
     1
  1

  7
SLDTEXTSTYLE0
 73
     1
 44
1.0
  0
MTEXT
  5
383
330
373
100
AcDbEntity
  8
0
  6
Continuous
 62
     7
370
     0
100
AcDbMText
 10
1.197846805
 20
2.8597799601
 30
0.3626782046
 40
0.09375
 41
0.0
 71
     1
 72
     1
  1
.39
  7
SLDTEXTSTYLE0
 73
     1
 44
1.0
  0
MTEXT
  5
384
330
373
100
AcDbEntity
  8
0
  6
Continuous
 62
     7
370
     0
100
AcDbMText
 10
1.2532504527
 20
2.6919088558
 30
0.3626782046
 40
0.09375
 41
0.0
 71
     1
 72
     1
  1
10
  7
SLDTEXTSTYLE0
 73
     1
 44
1.0
  0
MTEXT
  5
385
330
373
100
AcDbEntity
  8
0
  6
Continuous
 62
     7
370
     0
100
AcDbMText
 10
1.4840772789
 20
2.8612122587
 30
0.3626782046
 40
0.09375
 41
0.0
 71
     1
 72
     1
  1

  7
SLDTEXTSTYLE0
 73
     1
 44
1.0
  0
ENDBLK
  5
375
330
373
100
AcDbEntity
  8
0
100
AcDbBlockEnd
  0
BLOCK
  5
389
330
388
100
AcDbEntity
  8
0
100
AcDbBlockBegin
  2
*D27
 70
     1
 10
0.0
 20
0.0
 30
0.0
  3
*D27
  1

  0
SOLID
  5
38B
330
388
100
AcDbEntity
  8
0
  6
Continuous
 62
     7
370
     0
100
AcDbTrace
 10
2.6510988962
 20
2.6024928003
 30
0.0
 11
2.6360988962
 21
2.5049928003
 31
0.0
 12
2.6660988962
 22
2.5049928003
 32
0.0
 13
2.6660988962
 23
2.5049928003
 33
0.0
  0
SOLID
  5
38C
330
388
100
AcDbEntity
  8
0
  6
Continuous
 62
     7
370
     0
100
AcDbTrace
 10
2.6510988962
 20
2.799343194
 30
0.0
 11
2.6660988962
 21
2.896843194
 31
0.0
 12
2.6360988962
 22
2.896843194
 32
0.0
 13
2.6360988962
 23
2.896843194
 33
0.0
  0
LINE
  5
38D
330
388
100
AcDbEntity
  8
0
  6
Continuous
 62
     7
370
     0
100
AcDbLine
 10
2.2825586078
 20
3.1327160465
 30
0.0
 11
2.2635156381
 21
3.1327160465
 31
0.0
  0
LINE
  5
38E
330
388
100
AcDbEntity
  8
0
  6
Continuous
 62
     7
370
     0
100
AcDbLine
 10
2.2635156381
 20
3.1327160465
 30
0.0
 11
2.2635156381
 21
2.983887917
 31
0.0
  0
LINE
  5
38F
330
388
100
AcDbEntity
  8
0
  6
Continuous
 62
     7
370
     0
100
AcDbLine
 10
2.2635156381
 20
2.983887917
 30
0.0
 11
2.2825586078
 21
2.983887917
 31
0.0
  0
LINE
  5
390
330
388
100
AcDbEntity
  8
0
  6
Continuous
 62
     7
370
     0
100
AcDbLine
 10
2.3994368656
 20
3.1327160465
 30
0.0
 11
2.4184798353
 21
3.1327160465
 31
0.0
  0
LINE
  5
391
330
388
100
AcDbEntity
  8
0
  6
Continuous
 62
     7
370
     0
100
AcDbLine
 10
2.4184798353
 20
3.1327160465
 30
0.0
 11
2.4184798353
 21
2.983887917
 31
0.0
  0
LINE
  5
392
330
388
100
AcDbEntity
  8
0
  6
Continuous
 62
     7
370
     0
100
AcDbLine
 10
2.4184798353
 20
2.983887917
 30
0.0
 11
2.3994368656
 21
2.983887917
 31
0.0
  0
LINE
  5
393
330
388
100
AcDbEntity
  8
0
  6
Continuous
 62
     7
370
     0
100
AcDbLine
 10
2.6999220712
 20
2.799343194
 30
0.0
 11
2.5573488962
 21
2.799343194
 31
0.0
  0
LINE
  5
394
330
388
100
AcDbEntity
  8
0
  6
Continuous
 62
     7
370
     0
100
AcDbLine
 10
2.5573488962
 20
3.1334321932
 30
0.0
 11
2.6510988962
 21
3.1334321932
 31
0.0
  0
LINE
  5
395
330
388
100
AcDbEntity
  8
0
  6
Continuous
 62
     7
370
     0
100
AcDbLine
 10
2.6510988962
 20
3.1334321932
 30
0.0
 11
2.6510988962
 21
2.799343194
 31
0.0
  0
LINE
  5
396
330
388
100
AcDbEntity
  8
0
  6
Continuous
 62
     7
370
     0
100
AcDbLine
 10
2.6510988962
 20
2.6024928003
 30
0.0
 11
2.6510988962
 21
2.4149928003
 31
0.0
  0
MTEXT
  5
397
330
388
100
AcDbEntity
  8
0
  6
Continuous
 62
     7
370
     0
100
AcDbMText
 10
2.2168440817
 20
3.2740414154
 30
0.3626782046
 40
0.09375
 41
0.0
 71
     1
 72
     1
  1

  7
SLDTEXTSTYLE0
 73
     1
 44
1.0
  0
MTEXT
  5
398
330
388
100
AcDbEntity
  8
0
  6
Continuous
 62
     7
370
     0
100
AcDbMText
 10
2.2163232485
 20
3.2726091168
 30
0.3626782046
 40
0.09375
 41
0.0
 71
     1
 72
     1
  1
.20
  7
SLDTEXTSTYLE0
 73
     1
 44
1.0
  0
MTEXT
  5
399
330
388
100
AcDbEntity
  8
0
  6
Continuous
 62
     7
370
     0
100
AcDbMText
 10
2.3063623199
 20
3.1047380124
 30
0.3626782046
 40
0.09375
 41
0.0
 71
     1
 72
     1
  1
5
  7
SLDTEXTSTYLE0
 73
     1
 44
1.0
  0
MTEXT
  5
39A
330
388
100
AcDbEntity
  8
0
  6
Continuous
 62
     7
370
     0
100
AcDbMText
 10
2.5008284611
 20
3.2740414154
 30
0.3626782046
 40
0.09375
 41
0.0
 71
     1
 72
     1
  1

  7
SLDTEXTSTYLE0
 73
     1
 44
1.0
  0
ENDBLK
  5
38A
330
388
100
AcDbEntity
  8
0
100
AcDbBlockEnd
  0
BLOCK
  5
3FF
330
3FE
100
AcDbEntity
  8
0
100
AcDbBlockBegin
  2
*D28
 70
     1
 10
0.0
 20
0.0
 30
0.0
  3
*D28
  1

  0
SOLID
  5
401
330
3FE
100
AcDbEntity
  8
0
  6
Continuous
 62
     7
370
     0
100
AcDbTrace
 10
6.5991495112
 20
7.0231230688
 30
0.0
 11
6.6966495112
 21
7.0081230688
 31
0.0
 12
6.6966495112
 22
7.0381230688
 32
0.0
 13
6.6966495112
 23
7.0381230688
 33
0.0
  0
SOLID
  5
402
330
3FE
100
AcDbEntity
  8
0
  6
Continuous
 62
     7
370
     0
100
AcDbTrace
 10
8.5676534482
 20
7.0231230688
 30
0.0
 11
8.4701534482
 21
7.0381230688
 31
0.0
 12
8.4701534482
 22
7.0081230688
 32
0.0
 13
8.4701534482
 23
7.0081230688
 33
0.0
  0
LINE
  5
403
330
3FE
100
AcDbEntity
  8
0
  6
Continuous
 62
     7
370
     0
100
AcDbLine
 10
7.4903269374
 20
7.0224069221
 30
0.0
 11
7.4712839677
 21
7.0224069221
 31
0.0
  0
LINE
  5
404
330
3FE
100
AcDbEntity
  8
0
  6
Continuous
 62
     7
370
     0
100
AcDbLine
 10
7.4712839677
 20
7.0224069221
 30
0.0
 11
7.4712839677
 21
6.8735787926
 31
0.0
  0
LINE
  5
405
330
3FE
100
AcDbEntity
  8
0
  6
Continuous
 62
     7
370
     0
100
AcDbLine
 10
7.4712839677
 20
6.8735787926
 30
0.0
 11
7.4903269374
 21
6.8735787926
 31
0.0
  0
LINE
  5
406
330
3FE
100
AcDbEntity
  8
0
  6
Continuous
 62
     7
370
     0
100
AcDbLine
 10
7.6764760288
 20
7.0224069221
 30
0.0
 11
7.6955189985
 21
7.0224069221
 31
0.0
  0
LINE
  5
407
330
3FE
100
AcDbEntity
  8
0
  6
Continuous
 62
     7
370
     0
100
AcDbLine
 10
7.6955189985
 20
7.0224069221
 30
0.0
 11
7.6955189985
 21
6.8735787926
 31
0.0
  0
LINE
  5
408
330
3FE
100
AcDbEntity
  8
0
  6
Continuous
 62
     7
370
     0
100
AcDbLine
 10
7.6955189985
 20
6.8735787926
 30
0.0
 11
7.6764760288
 21
6.8735787926
 31
0.0
  0
LINE
  5
409
330
3FE
100
AcDbEntity
  8
0
  6
Continuous
 62
     7
370
     0
100
AcDbLine
 10
6.5991495112
 20
6.2430670348
 30
0.0
 11
6.5991495112
 21
7.1168730688
 31
0.0
  0
LINE
  5
40A
330
3FE
100
AcDbEntity
  8
0
  6
Continuous
 62
     7
370
     0
100
AcDbLine
 10
8.5676534482
 20
6.2430670348
 30
0.0
 11
8.5676534482
 21
7.1168730688
 31
0.0
  0
LINE
  5
40B
330
3FE
100
AcDbEntity
  8
0
  6
Continuous
 62
     7
370
     0
100
AcDbLine
 10
6.5991495112
 20
7.0231230688
 30
0.0
 11
7.3704424167
 21
7.0231230688
 31
0.0
  0
LINE
  5
40C
330
3FE
100
AcDbEntity
  8
0
  6
Continuous
 62
     7
370
     0
100
AcDbLine
 10
8.5676534482
 20
7.0231230688
 30
0.0
 11
7.7963605426
 21
7.0231230688
 31
0.0
  0
MTEXT
  5
40D
330
3FE
100
AcDbEntity
  8
0
  6
Continuous
 62
     7
370
     0
100
AcDbMText
 10
7.4246124251
 20
7.163732291
 30
0.5709350868
 40
0.09375
 41
0.0
 71
     1
 72
     1
  1

  7
SLDTEXTSTYLE0
 73
     1
 44
1.0
  0
MTEXT
  5
40E
330
3FE
100
AcDbEntity
  8
0
  6
Continuous
 62
     7
370
     0
100
AcDbMText
 10
7.4240915919
 20
7.1622999924
 30
0.5709350868
 40
0.09375
 41
0.0
 71
     1
 72
     1
  1
1.97
  7
SLDTEXTSTYLE0
 73
     1
 44
1.0
  0
MTEXT
  5
40F
330
3FE
100
AcDbEntity
  8
0
  6
Continuous
 62
     7
370
     0
100
AcDbMText
 10
7.5141306496
 20
6.994428888
 30
0.5709350868
 40
0.09375
 41
0.0
 71
     1
 72
     1
  1
50
  7
SLDTEXTSTYLE0
 73
     1
 44
1.0
  0
MTEXT
  5
410
330
3FE
100
AcDbEntity
  8
0
  6
Continuous
 62
     7
370
     0
100
AcDbMText
 10
7.7778676243
 20
7.163732291
 30
0.5709350868
 40
0.09375
 41
0.0
 71
     1
 72
     1
  1

  7
SLDTEXTSTYLE0
 73
     1
 44
1.0
  0
ENDBLK
  5
400
330
3FE
100
AcDbEntity
  8
0
100
AcDbBlockEnd
  0
BLOCK
  5
413
330
412
100
AcDbEntity
  8
0
100
AcDbBlockBegin
  2
*D29
 70
     1
 10
0.0
 20
0.0
 30
0.0
  3
*D29
  1

  0
SOLID
  5
415
330
412
100
AcDbEntity
  8
0
  6
Continuous
 62
     7
370
     0
100
AcDbTrace
 10
6.6826687368
 20
6.6554403518
 30
0.0
 11
6.7801687368
 21
6.6404403518
 31
0.0
 12
6.7801687368
 22
6.6704403518
 32
0.0
 13
6.7801687368
 23
6.6704403518
 33
0.0
  0
SOLID
  5
416
330
412
100
AcDbEntity
  8
0
  6
Continuous
 62
     7
370
     0
100
AcDbTrace
 10
8.4841342225
 20
6.6554403518
 30
0.0
 11
8.3866342225
 21
6.6704403518
 31
0.0
 12
8.3866342225
 22
6.6404403518
 32
0.0
 13
8.3866342225
 23
6.6404403518
 33
0.0
  0
LINE
  5
417
330
412
100
AcDbEntity
  8
0
  6
Continuous
 62
     7
370
     0
100
AcDbLine
 10
7.4383738089
 20
6.6547242051
 30
0.0
 11
7.4193308392
 21
6.6547242051
 31
0.0
  0
LINE
  5
418
330
412
100
AcDbEntity
  8
0
  6
Continuous
 62
     7
370
     0
100
AcDbLine
 10
7.4193308392
 20
6.6547242051
 30
0.0
 11
7.4193308392
 21
6.5058960756
 31
0.0
  0
LINE
  5
419
330
412
100
AcDbEntity
  8
0
  6
Continuous
 62
     7
370
     0
100
AcDbLine
 10
7.4193308392
 20
6.5058960756
 30
0.0
 11
7.4383738089
 21
6.5058960756
 31
0.0
  0
LINE
  5
41A
330
412
100
AcDbEntity
  8
0
  6
Continuous
 62
     7
370
     0
100
AcDbLine
 10
7.7284291573
 20
6.6547242051
 30
0.0
 11
7.747472127
 21
6.6547242051
 31
0.0
  0
LINE
  5
41B
330
412
100
AcDbEntity
  8
0
  6
Continuous
 62
     7
370
     0
100
AcDbLine
 10
7.747472127
 20
6.6547242051
 30
0.0
 11
7.747472127
 21
6.5058960756
 31
0.0
  0
LINE
  5
41C
330
412
100
AcDbEntity
  8
0
  6
Continuous
 62
     7
370
     0
100
AcDbLine
 10
7.747472127
 20
6.5058960756
 30
0.0
 11
7.7284291573
 21
6.5058960756
 31
0.0
  0
LINE
  5
41D
330
412
100
AcDbEntity
  8
0
  6
Continuous
 62
     7
370
     0
100
AcDbLine
 10
6.6826687368
 20
6.2382879667
 30
0.0
 11
6.6826687368
 21
6.7491903518
 31
0.0
  0
LINE
  5
41E
330
412
100
AcDbEntity
  8
0
  6
Continuous
 62
     7
370
     0
100
AcDbLine
 10
8.4841342225
 20
6.2382879667
 30
0.0
 11
8.4841342225
 21
6.7491903518
 31
0.0
  0
LINE
  5
41F
330
412
100
AcDbEntity
  8
0
  6
Continuous
 62
     7
370
     0
100
AcDbLine
 10
6.6826687368
 20
6.6554403518
 30
0.0
 11
7.3513994367
 21
6.6554403518
 31
0.0
  0
LINE
  5
420
330
412
100
AcDbEntity
  8
0
  6
Continuous
 62
     7
370
     0
100
AcDbLine
 10
8.4841342225
 20
6.6554403518
 30
0.0
 11
7.8154035226
 21
6.6554403518
 31
0.0
  0
MTEXT
  5
421
330
412
100
AcDbEntity
  8
0
  6
Continuous
 62
     7
370
     0
100
AcDbMText
 10
7.4055694451
 20
6.796049574
 30
0.5709350868
 40
0.09375
 41
0.0
 71
     1
 72
     1
  1

  7
SLDTEXTSTYLE0
 73
     1
 44
1.0
  0
MTEXT
  5
422
330
412
100
AcDbEntity
  8
0
  6
Continuous
 62
     7
370
     0
100
AcDbMText
 10
7.4240915919
 20
6.7946172754
 30
0.5709350868
 40
0.09375
 41
0.0
 71
     1
 72
     1
  1
1.80
  7
SLDTEXTSTYLE0
 73
     1
 44
1.0
  0
MTEXT
  5
423
330
412
100
AcDbEntity
  8
0
  6
Continuous
 62
     7
370
     0
100
AcDbMText
 10
7.462177521
 20
6.626746171
 30
0.5709350868
 40
0.09375
 41
0.0
 71
     1
 72
     1
  1
45.8
  7
SLDTEXTSTYLE0
 73
     1
 44
1.0
  0
MTEXT
  5
424
330
412
100
AcDbEntity
  8
0
  6
Continuous
 62
     7
370
     0
100
AcDbMText
 10
7.7969106043
 20
6.796049574
 30
0.5709350868
 40
0.09375
 41
0.0
 71
     1
 72
     1
  1

  7
SLDTEXTSTYLE0
 73
     1
 44
1.0
  0
ENDBLK
  5
414
330
412
100
AcDbEntity
  8
0
100
AcDbBlockEnd
  0
BLOCK
  5
427
330
426
100
AcDbEntity
  8
0
100
AcDbBlockBegin
  2
*D30
 70
     1
 10
0.0
 20
0.0
 30
0.0
  3
*D30
  1

  0
SOLID
  5
429
330
426
100
AcDbEntity
  8
0
  6
Continuous
 62
     7
370
     0
100
AcDbTrace
 10
9.2713005326
 20
4.3000552238
 30
0.0
 11
9.2863005326
 21
4.3975552238
 31
0.0
 12
9.2563005326
 22
4.3975552238
 32
0.0
 13
9.2563005326
 23
4.3975552238
 33
0.0
  0
SOLID
  5
42A
330
426
100
AcDbEntity
  8
0
  6
Continuous
 62
     7
370
     0
100
AcDbTrace
 10
9.2713005326
 20
6.2843071923
 30
0.0
 11
9.2563005326
 21
6.1868071923
 31
0.0
 12
9.2863005326
 22
6.1868071923
 32
0.0
 13
9.2863005326
 23
6.1868071923
 33
0.0
  0
LINE
  5
42B
330
426
100
AcDbEntity
  8
0
  6
Continuous
 62
     7
370
     0
100
AcDbLine
 10
9.1262728618
 20
5.2914650613
 30
0.0
 11
9.1072298921
 21
5.2914650613
 31
0.0
  0
LINE
  5
42C
330
426
100
AcDbEntity
  8
0
  6
Continuous
 62
     7
370
     0
100
AcDbLine
 10
9.1072298921
 20
5.2914650613
 30
0.0
 11
9.1072298921
 21
5.1426369319
 31
0.0
  0
LINE
  5
42D
330
426
100
AcDbEntity
  8
0
  6
Continuous
 62
     7
370
     0
100
AcDbLine
 10
9.1072298921
 20
5.1426369319
 30
0.0
 11
9.1262728618
 21
5.1426369319
 31
0.0
  0
LINE
  5
42E
330
426
100
AcDbEntity
  8
0
  6
Continuous
 62
     7
370
     0
100
AcDbLine
 10
9.4163282103
 20
5.2914650613
 30
0.0
 11
9.43537118
 21
5.2914650613
 31
0.0
  0
LINE
  5
42F
330
426
100
AcDbEntity
  8
0
  6
Continuous
 62
     7
370
     0
100
AcDbLine
 10
9.43537118
 20
5.2914650613
 30
0.0
 11
9.43537118
 21
5.1426369319
 31
0.0
  0
LINE
  5
430
330
426
100
AcDbEntity
  8
0
  6
Continuous
 62
     7
370
     0
100
AcDbLine
 10
9.43537118
 20
5.1426369319
 30
0.0
 11
9.4163282103
 21
5.1426369319
 31
0.0
  0
LINE
  5
431
330
426
100
AcDbEntity
  8
0
  6
Continuous
 62
     7
370
     0
100
AcDbLine
 10
8.5264132907
 20
4.3000552238
 30
0.0
 11
9.3650505326
 21
4.3000552238
 31
0.0
  0
LINE
  5
432
330
426
100
AcDbEntity
  8
0
  6
Continuous
 62
     7
370
     0
100
AcDbLine
 10
8.5264132907
 20
6.2843071923
 30
0.0
 11
9.3650505326
 21
6.2843071923
 31
0.0
  0
LINE
  5
433
330
426
100
AcDbEntity
  8
0
  6
Continuous
 62
     7
370
     0
100
AcDbLine
 10
9.2713005326
 20
4.3000552238
 30
0.0
 11
9.2713005326
 21
5.1235939518
 31
0.0
  0
LINE
  5
434
330
426
100
AcDbEntity
  8
0
  6
Continuous
 62
     7
370
     0
100
AcDbLine
 10
9.2713005326
 20
6.2843071923
 30
0.0
 11
9.2713005326
 21
5.4607684643
 31
0.0
  0
MTEXT
  5
435
330
426
100
AcDbEntity
  8
0
  6
Continuous
 62
     7
370
     0
100
AcDbMText
 10
9.0934684981
 20
5.4327904302
 30
0.5709350868
 40
0.09375
 41
0.0
 71
     1
 72
     1
  1

  7
SLDTEXTSTYLE0
 73
     1
 44
1.0
  0
MTEXT
  5
436
330
426
100
AcDbEntity
  8
0
  6
Continuous
 62
     7
370
     0
100
AcDbMText
 10
9.1119906449
 20
5.4313581316
 30
0.5709350868
 40
0.09375
 41
0.0
 71
     1
 72
     1
  1
1.98
  7
SLDTEXTSTYLE0
 73
     1
 44
1.0
  0
MTEXT
  5
437
330
426
100
AcDbEntity
  8
0
  6
Continuous
 62
     7
370
     0
100
AcDbMText
 10
9.150076574
 20
5.2634870273
 30
0.5709350868
 40
0.09375
 41
0.0
 71
     1
 72
     1
  1
50.4
  7
SLDTEXTSTYLE0
 73
     1
 44
1.0
  0
MTEXT
  5
438
330
426
100
AcDbEntity
  8
0
  6
Continuous
 62
     7
370
     0
100
AcDbMText
 10
9.4848096573
 20
5.4327904302
 30
0.5709350868
 40
0.09375
 41
0.0
 71
     1
 72
     1
  1

  7
SLDTEXTSTYLE0
 73
     1
 44
1.0
  0
ENDBLK
  5
428
330
426
100
AcDbEntity
  8
0
100
AcDbBlockEnd
  0
BLOCK
  5
43B
330
43A
100
AcDbEntity
  8
0
100
AcDbBlockBegin
  2
*D31
 70
     1
 10
0.0
 20
0.0
 30
0.0
  3
*D31
  1

  0
SOLID
  5
43D
330
43A
100
AcDbEntity
  8
0
  6
Continuous
 62
     7
370
     0
100
AcDbTrace
 10
8.8629330969
 20
6.2007879667
 30
0.0
 11
8.8479330969
 21
6.1032879667
 31
0.0
 12
8.8779330969
 22
6.1032879667
 32
0.0
 13
8.8779330969
 23
6.1032879667
 33
0.0
  0
SOLID
  5
43E
330
43A
100
AcDbEntity
  8
0
  6
Continuous
 62
     7
370
     0
100
AcDbTrace
 10
8.8629330969
 20
4.3835744494
 30
0.0
 11
8.8779330969
 21
4.4810744494
 31
0.0
 12
8.8479330969
 22
4.4810744494
 32
0.0
 13
8.8479330969
 23
4.4810744494
 33
0.0
  0
LINE
  5
43F
330
43A
100
AcDbEntity
  8
0
  6
Continuous
 62
     7
370
     0
100
AcDbLine
 10
8.7179054261
 20
5.2914650613
 30
0.0
 11
8.6988624564
 21
5.2914650613
 31
0.0
  0
LINE
  5
440
330
43A
100
AcDbEntity
  8
0
  6
Continuous
 62
     7
370
     0
100
AcDbLine
 10
8.6988624564
 20
5.2914650613
 30
0.0
 11
8.6988624564
 21
5.1426369319
 31
0.0
  0
LINE
  5
441
330
43A
100
AcDbEntity
  8
0
  6
Continuous
 62
     7
370
     0
100
AcDbLine
 10
8.6988624564
 20
5.1426369319
 30
0.0
 11
8.7179054261
 21
5.1426369319
 31
0.0
  0
LINE
  5
442
330
43A
100
AcDbEntity
  8
0
  6
Continuous
 62
     7
370
     0
100
AcDbLine
 10
9.0079607746
 20
5.2914650613
 30
0.0
 11
9.0270037443
 21
5.2914650613
 31
0.0
  0
LINE
  5
443
330
43A
100
AcDbEntity
  8
0
  6
Continuous
 62
     7
370
     0
100
AcDbLine
 10
9.0270037443
 20
5.2914650613
 30
0.0
 11
9.0270037443
 21
5.1426369319
 31
0.0
  0
LINE
  5
444
330
43A
100
AcDbEntity
  8
0
  6
Continuous
 62
     7
370
     0
100
AcDbLine
 10
9.0270037443
 20
5.1426369319
 30
0.0
 11
9.0079607746
 21
5.1426369319
 31
0.0
  0
LINE
  5
445
330
43A
100
AcDbEntity
  8
0
  6
Continuous
 62
     7
370
     0
100
AcDbLine
 10
8.5216342225
 20
6.2007879667
 30
0.0
 11
8.9566830969
 21
6.2007879667
 31
0.0
  0
LINE
  5
446
330
43A
100
AcDbEntity
  8
0
  6
Continuous
 62
     7
370
     0
100
AcDbLine
 10
8.5216342225
 20
4.3835744494
 30
0.0
 11
8.9566830969
 21
4.3835744494
 31
0.0
  0
LINE
  5
447
330
43A
100
AcDbEntity
  8
0
  6
Continuous
 62
     7
370
     0
100
AcDbLine
 10
8.8629330969
 20
6.2007879667
 30
0.0
 11
8.8629330969
 21
5.4607684643
 31
0.0
  0
LINE
  5
448
330
43A
100
AcDbEntity
  8
0
  6
Continuous
 62
     7
370
     0
100
AcDbLine
 10
8.8629330969
 20
4.3835744494
 30
0.0
 11
8.8629330969
 21
5.1235939518
 31
0.0
  0
MTEXT
  5
449
330
43A
100
AcDbEntity
  8
0
  6
Continuous
 62
     7
370
     0
100
AcDbMText
 10
8.6851010624
 20
5.4327904302
 30
0.5709350868
 40
0.09375
 41
0.0
 71
     1
 72
     1
  1

  7
SLDTEXTSTYLE0
 73
     1
 44
1.0
  0
MTEXT
  5
44A
330
43A
100
AcDbEntity
  8
0
  6
Continuous
 62
     7
370
     0
100
AcDbMText
 10
8.7036232091
 20
5.4313581316
 30
0.5709350868
 40
0.09375
 41
0.0
 71
     1
 72
     1
  1
1.82
  7
SLDTEXTSTYLE0
 73
     1
 44
1.0
  0
MTEXT
  5
44B
330
43A
100
AcDbEntity
  8
0
  6
Continuous
 62
     7
370
     0
100
AcDbMText
 10
8.7417091382
 20
5.2634870273
 30
0.5709350868
 40
0.09375
 41
0.0
 71
     1
 72
     1
  1
46.2
  7
SLDTEXTSTYLE0
 73
     1
 44
1.0
  0
MTEXT
  5
44C
330
43A
100
AcDbEntity
  8
0
  6
Continuous
 62
     7
370
     0
100
AcDbMText
 10
9.0764422215
 20
5.4327904302
 30
0.5709350868
 40
0.09375
 41
0.0
 71
     1
 72
     1
  1

  7
SLDTEXTSTYLE0
 73
     1
 44
1.0
  0
ENDBLK
  5
43C
330
43A
100
AcDbEntity
  8
0
100
AcDbBlockEnd
  0
BLOCK
  5
474
330
473
100
AcDbEntity
  8
0
100
AcDbBlockBegin
  2
*D32
 70
     1
 10
0.0
 20
0.0
 30
0.0
  3
*D32
  1

  0
ARC
  5
476
330
473
100
AcDbEntity
  8
0
  6
Continuous
 62
     7
370
     0
100
AcDbCircle
 10
10.5667529293
 20
6.1667435431
 30
0.0
 40
0.9162988749964683
100
AcDbArc
 50
165.328040786
 51
177.0
  0
ARC
  5
477
330
473
100
AcDbEntity
  8
0
  6
Continuous
 62
     7
370
     0
100
AcDbCircle
 10
10.5667529293
 20
6.1667435431
 30
0.0
 40
0.9162988749964676
100
AcDbArc
 50
180.0
 51
192.7126912055
  0
SOLID
  5
478
330
473
100
AcDbEntity
  8
0
  6
Continuous
 62
     7
370
     0
100
AcDbTrace
 10
9.6517098101
 20
6.214698921
 30
0.0
 11
9.6768805801
 21
6.3100806925
 31
0.0
 12
9.6470469484
 22
6.3132357553
 32
0.0
 13
9.6470469484
 23
6.3132357553
 33
0.0
  0
SOLID
  5
479
330
473
100
AcDbEntity
  8
0
  6
Continuous
 62
     7
370
     0
100
AcDbTrace
 10
9.6504540543
 20
6.1667435431
 30
0.0
 11
9.6406405635
 21
6.0685857854
 31
0.0
 12
9.6705984325
 22
6.0701751527
 32
0.0
 13
9.6705984325
 23
6.0701751527
 33
0.0
  0
LINE
  5
47A
330
473
100
AcDbEntity
  8
0
  6
Continuous
 62
     7
370
     0
100
AcDbLine
 10
9.4230058931
 20
5.8899705058
 30
0.0
 11
9.4039629234
 21
5.8899705058
 31
0.0
  0
LINE
  5
47B
330
473
100
AcDbEntity
  8
0
  6
Continuous
 62
     7
370
     0
100
AcDbLine
 10
9.4039629234
 20
5.8899705058
 30
0.0
 11
9.4230058931
 21
5.8899705058
 31
0.0
  0
LINE
  5
47C
330
473
100
AcDbEntity
  8
0
  6
Continuous
 62
     7
370
     0
100
AcDbLine
 10
9.4706133173
 20
5.8899705058
 30
0.0
 11
9.489656287
 21
5.8899705058
 31
0.0
  0
LINE
  5
47D
330
473
100
AcDbEntity
  8
0
  6
Continuous
 62
     7
370
     0
100
AcDbLine
 10
9.489656287
 20
5.8899705058
 30
0.0
 11
9.4706133173
 21
5.8899705058
 31
0.0
  0
LINE
  5
47E
330
473
100
AcDbEntity
  8
0
  6
Continuous
 62
     7
370
     0
100
AcDbLine
 10
9.8127688887
 20
6.2062581723
 30
0.0
 11
9.5580882912
 21
6.2196054168
 31
0.0
  0
LINE
  5
47F
330
473
100
AcDbEntity
  8
0
  6
Continuous
 62
     7
370
     0
100
AcDbLine
 10
10.2147219157
 20
6.1667435431
 30
0.0
 11
9.5567040543
 21
6.1667435431
 31
0.0
  0
LINE
  5
480
330
473
100
AcDbEntity
  8
0
  6
Continuous
 62
     7
370
     0
100
AcDbLine
 10
9.6729163668
 20
5.9651007207
 30
0.0
 11
9.5791663668
 21
5.9651007207
 31
0.0
  0
MTEXT
  5
481
330
473
100
AcDbEntity
  8
0
  6
Continuous
 62
     7
370
     0
100
AcDbMText
 10
9.3496090798
 20
6.0312958713
 30
0.0039370079
 40
0.09375
 41
0.0
 71
     1
 72
     1
  1

  7
SLDTEXTSTYLE0
 73
     1
 44
1.0
  0
MTEXT
  5
482
330
473
100
AcDbEntity
  8
0
  6
Continuous
 62
     7
370
     0
100
AcDbMText
 10
9.3490882466
 20
6.0298635795
 30
0.0039370079
 40
0.09375
 41
0.0
 71
     1
 72
     1
  1
3°
  7
SLDTEXTSTYLE0
 73
     1
 44
1.0
  0
MTEXT
  5
483
330
473
100
AcDbEntity
  8
0
  6
Continuous
 62
     7
370
     0
100
AcDbMText
 10
9.5796872069
 20
6.0312958713
 30
0.0039370079
 40
0.09375
 41
0.0
 71
     1
 72
     1
  1

  7
SLDTEXTSTYLE0
 73
     1
 44
1.0
  0
ENDBLK
  5
475
330
473
100
AcDbEntity
  8
0
100
AcDbBlockEnd
  0
BLOCK
  5
486
330
485
100
AcDbEntity
  8
0
100
AcDbBlockBegin
  2
*D33
 70
     1
 10
0.0
 20
0.0
 30
0.0
  3
*D33
  1

  0
SOLID
  5
488
330
485
100
AcDbEntity
  8
0
  6
Continuous
 62
     7
370
     0
100
AcDbTrace
 10
9.9762017482
 20
6.5951485985
 30
0.0
 11
10.0737017482
 21
6.5801485985
 31
0.0
 12
10.0737017482
 22
6.6101485985
 32
0.0
 13
10.0737017482
 23
6.6101485985
 33
0.0
  0
SOLID
  5
489
330
485
100
AcDbEntity
  8
0
  6
Continuous
 62
     7
370
     0
100
AcDbTrace
 10
10.6454930868
 20
6.5951485985
 30
0.0
 11
10.5479930868
 21
6.6101485985
 31
0.0
 12
10.5479930868
 22
6.5801485985
 32
0.0
 13
10.5479930868
 23
6.5801485985
 33
0.0
  0
LINE
  5
48A
330
485
100
AcDbEntity
  8
0
  6
Continuous
 62
     7
370
     0
100
AcDbLine
 10
10.2177728753
 20
6.5944324518
 30
0.0
 11
10.1987299056
 21
6.5944324518
 31
0.0
  0
LINE
  5
48B
330
485
100
AcDbEntity
  8
0
  6
Continuous
 62
     7
370
     0
100
AcDbLine
 10
10.1987299056
 20
6.5944324518
 30
0.0
 11
10.1987299056
 21
6.4456043223
 31
0.0
  0
LINE
  5
48C
330
485
100
AcDbEntity
  8
0
  6
Continuous
 62
     7
370
     0
100
AcDbLine
 10
10.1987299056
 20
6.4456043223
 30
0.0
 11
10.2177728753
 21
6.4456043223
 31
0.0
  0
LINE
  5
48D
330
485
100
AcDbEntity
  8
0
  6
Continuous
 62
     7
370
     0
100
AcDbLine
 10
10.4039219666
 20
6.5944324518
 30
0.0
 11
10.4229649363
 21
6.5944324518
 31
0.0
  0
LINE
  5
48E
330
485
100
AcDbEntity
  8
0
  6
Continuous
 62
     7
370
     0
100
AcDbLine
 10
10.4229649363
 20
6.5944324518
 30
0.0
 11
10.4229649363
 21
6.4456043223
 31
0.0
  0
LINE
  5
48F
330
485
100
AcDbEntity
  8
0
  6
Continuous
 62
     7
370
     0
100
AcDbLine
 10
10.4229649363
 20
6.4456043223
 30
0.0
 11
10.4039219666
 21
6.4456043223
 31
0.0
  0
LINE
  5
490
330
485
100
AcDbEntity
  8
0
  6
Continuous
 62
     7
370
     0
100
AcDbLine
 10
9.9762017482
 20
6.3218071923
 30
0.0
 11
9.9762017482
 21
6.6888985985
 31
0.0
  0
LINE
  5
491
330
485
100
AcDbEntity
  8
0
  6
Continuous
 62
     7
370
     0
100
AcDbLine
 10
10.6454930868
 20
6.2493703098
 30
0.0
 11
10.6454930868
 21
6.6888985985
 31
0.0
  0
LINE
  5
492
330
485
100
AcDbEntity
  8
0
  6
Continuous
 62
     7
370
     0
100
AcDbLine
 10
9.9762017482
 20
6.5951485985
 30
0.0
 11
10.1307985032
 21
6.5951485985
 31
0.0
  0
LINE
  5
493
330
485
100
AcDbEntity
  8
0
  6
Continuous
 62
     7
370
     0
100
AcDbLine
 10
10.6454930868
 20
6.5951485985
 30
0.0
 11
10.4908963319
 21
6.5951485985
 31
0.0
  0
MTEXT
  5
494
330
485
100
AcDbEntity
  8
0
  6
Continuous
 62
     7
370
     0
100
AcDbMText
 10
10.1849685116
 20
6.7357578207
 30
0.4960645291
 40
0.09375
 41
0.0
 71
     1
 72
     1
  1

  7
SLDTEXTSTYLE0
 73
     1
 44
1.0
  0
MTEXT
  5
495
330
485
100
AcDbEntity
  8
0
  6
Continuous
 62
     7
370
     0
100
AcDbMText
 10
10.1861729397
 20
6.7343255221
 30
0.4960645291
 40
0.09375
 41
0.0
 71
     1
 72
     1
  1
.67
  7
SLDTEXTSTYLE0
 73
     1
 44
1.0
  0
MTEXT
  5
496
330
485
100
AcDbEntity
  8
0
  6
Continuous
 62
     7
370
     0
100
AcDbMText
 10
10.2415765874
 20
6.5664544177
 30
0.4960645291
 40
0.09375
 41
0.0
 71
     1
 72
     1
  1
17
  7
SLDTEXTSTYLE0
 73
     1
 44
1.0
  0
MTEXT
  5
497
330
485
100
AcDbEntity
  8
0
  6
Continuous
 62
     7
370
     0
100
AcDbMText
 10
10.4724034136
 20
6.7357578207
 30
0.4960645291
 40
0.09375
 41
0.0
 71
     1
 72
     1
  1

  7
SLDTEXTSTYLE0
 73
     1
 44
1.0
  0
ENDBLK
  5
487
330
485
100
AcDbEntity
  8
0
100
AcDbBlockEnd
  0
BLOCK
  5
49A
330
499
100
AcDbEntity
  8
0
100
AcDbBlockBegin
  2
*D34
 70
     1
 10
0.0
 20
0.0
 30
0.0
  3
*D34
  1

  0
SOLID
  5
49C
330
499
100
AcDbEntity
  8
0
  6
Continuous
 62
     7
370
     0
100
AcDbTrace
 10
10.5667529293
 20
5.9651007207
 30
0.0
 11
10.4692529293
 21
5.9801007207
 31
0.0
 12
10.4692529293
 22
5.9501007207
 32
0.0
 13
10.4692529293
 23
5.9501007207
 33
0.0
  0
SOLID
  5
49D
330
499
100
AcDbEntity
  8
0
  6
Continuous
 62
     7
370
     0
100
AcDbTrace
 10
10.6454930868
 20
5.9651007207
 30
0.0
 11
10.7429930868
 21
5.9501007207
 31
0.0
 12
10.7429930868
 22
5.9801007207
 32
0.0
 13
10.7429930868
 23
5.9801007207
 33
0.0
  0
LINE
  5
49E
330
499
100
AcDbEntity
  8
0
  6
Continuous
 62
     7
370
     0
100
AcDbLine
 10
10.8824179424
 20
5.964384574
 30
0.0
 11
10.8633749727
 21
5.964384574
 31
0.0
  0
LINE
  5
49F
330
499
100
AcDbEntity
  8
0
  6
Continuous
 62
     7
370
     0
100
AcDbLine
 10
10.8633749727
 20
5.964384574
 30
0.0
 11
10.8633749727
 21
5.8155564445
 31
0.0
  0
LINE
  5
4A0
330
499
100
AcDbEntity
  8
0
  6
Continuous
 62
     7
370
     0
100
AcDbLine
 10
10.8633749727
 20
5.8155564445
 30
0.0
 11
10.8824179424
 21
5.8155564445
 31
0.0
  0
LINE
  5
4A1
330
499
100
AcDbEntity
  8
0
  6
Continuous
 62
     7
370
     0
100
AcDbLine
 10
10.9992962002
 20
5.964384574
 30
0.0
 11
11.0183391699
 21
5.964384574
 31
0.0
  0
LINE
  5
4A2
330
499
100
AcDbEntity
  8
0
  6
Continuous
 62
     7
370
     0
100
AcDbLine
 10
11.0183391699
 20
5.964384574
 30
0.0
 11
11.0183391699
 21
5.8155564445
 31
0.0
  0
LINE
  5
4A3
330
499
100
AcDbEntity
  8
0
  6
Continuous
 62
     7
370
     0
100
AcDbLine
 10
11.0183391699
 20
5.8155564445
 30
0.0
 11
10.9992962002
 21
5.8155564445
 31
0.0
  0
LINE
  5
4A4
330
499
100
AcDbEntity
  8
0
  6
Continuous
 62
     7
370
     0
100
AcDbLine
 10
10.5667529293
 20
5.9651007207
 30
0.0
 11
10.3792529293
 21
5.9651007207
 31
0.0
  0
LINE
  5
4A5
330
499
100
AcDbEntity
  8
0
  6
Continuous
 62
     7
370
     0
100
AcDbLine
 10
10.6454930868
 20
5.9651007207
 30
0.0
 11
10.762533408
 21
5.9651007207
 31
0.0
  0
MTEXT
  5
4A6
330
499
100
AcDbEntity
  8
0
  6
Continuous
 62
     7
370
     0
100
AcDbMText
 10
10.8167034164
 20
6.1057099429
 30
0.4960645291
 40
0.09375
 41
0.0
 71
     1
 72
     1
  1

  7
SLDTEXTSTYLE0
 73
     1
 44
1.0
  0
MTEXT
  5
4A7
330
499
100
AcDbEntity
  8
0
  6
Continuous
 62
     7
370
     0
100
AcDbMText
 10
10.8161825831
 20
6.1042776443
 30
0.4960645291
 40
0.09375
 41
0.0
 71
     1
 72
     1
  1
.08
  7
SLDTEXTSTYLE0
 73
     1
 44
1.0
  0
MTEXT
  5
4A8
330
499
100
AcDbEntity
  8
0
  6
Continuous
 62
     7
370
     0
100
AcDbMText
 10
10.9062216545
 20
5.9364065399
 30
0.4960645291
 40
0.09375
 41
0.0
 71
     1
 72
     1
  1
2
  7
SLDTEXTSTYLE0
 73
     1
 44
1.0
  0
MTEXT
  5
4A9
330
499
100
AcDbEntity
  8
0
  6
Continuous
 62
     7
370
     0
100
AcDbMText
 10
11.1006877957
 20
6.1057099429
 30
0.4960645291
 40
0.09375
 41
0.0
 71
     1
 72
     1
  1

  7
SLDTEXTSTYLE0
 73
     1
 44
1.0
  0
ENDBLK
  5
49B
330
499
100
AcDbEntity
  8
0
100
AcDbBlockEnd
  0
BLOCK
  5
4DE
330
4DD
100
AcDbEntity
  8
0
100
AcDbBlockBegin
  2
*D35
 70
     1
 10
0.0
 20
0.0
 30
0.0
  3
*D35
  1

  0
SOLID
  5
4E0
330
4DD
100
AcDbEntity
  8
0
  6
Continuous
 62
     7
370
     0
100
AcDbTrace
 10
11.3514712738
 20
4.9378504994
 30
0.0
 11
11.3664712738
 21
5.0353504994
 31
0.0
 12
11.3364712738
 22
5.0353504994
 32
0.0
 13
11.3364712738
 23
5.0353504994
 33
0.0
  0
SOLID
  5
4E1
330
4DD
100
AcDbEntity
  8
0
  6
Continuous
 62
     7
370
     0
100
AcDbTrace
 10
11.3514712738
 20
4.701630027
 30
0.0
 11
11.3364712738
 21
4.604130027
 31
0.0
 12
11.3664712738
 22
4.604130027
 32
0.0
 13
11.3664712738
 23
4.604130027
 33
0.0
  0
LINE
  5
4E2
330
4DD
100
AcDbEntity
  8
0
  6
Continuous
 62
     7
370
     0
100
AcDbLine
 10
10.9829309854
 20
4.5236414273
 30
0.0
 11
10.9638880157
 21
4.5236414273
 31
0.0
  0
LINE
  5
4E3
330
4DD
100
AcDbEntity
  8
0
  6
Continuous
 62
     7
370
     0
100
AcDbLine
 10
10.9638880157
 20
4.5236414273
 30
0.0
 11
10.9638880157
 21
4.3748132978
 31
0.0
  0
LINE
  5
4E4
330
4DD
100
AcDbEntity
  8
0
  6
Continuous
 62
     7
370
     0
100
AcDbLine
 10
10.9638880157
 20
4.3748132978
 30
0.0
 11
10.9829309854
 21
4.3748132978
 31
0.0
  0
LINE
  5
4E5
330
4DD
100
AcDbEntity
  8
0
  6
Continuous
 62
     7
370
     0
100
AcDbLine
 10
11.0998092432
 20
4.5236414273
 30
0.0
 11
11.1188522129
 21
4.5236414273
 31
0.0
  0
LINE
  5
4E6
330
4DD
100
AcDbEntity
  8
0
  6
Continuous
 62
     7
370
     0
100
AcDbLine
 10
11.1188522129
 20
4.5236414273
 30
0.0
 11
11.1188522129
 21
4.3748132978
 31
0.0
  0
LINE
  5
4E7
330
4DD
100
AcDbEntity
  8
0
  6
Continuous
 62
     7
370
     0
100
AcDbLine
 10
11.1188522129
 20
4.3748132978
 30
0.0
 11
11.0998092432
 21
4.3748132978
 31
0.0
  0
LINE
  5
4E8
330
4DD
100
AcDbEntity
  8
0
  6
Continuous
 62
     7
370
     0
100
AcDbLine
 10
11.5051652862
 20
4.9378504994
 30
0.0
 11
11.2577212738
 21
4.9378504994
 31
0.0
  0
LINE
  5
4E9
330
4DD
100
AcDbEntity
  8
0
  6
Continuous
 62
     7
370
     0
100
AcDbLine
 10
11.5051652862
 20
4.701630027
 30
0.0
 11
11.2577212738
 21
4.701630027
 31
0.0
  0
LINE
  5
4EA
330
4DD
100
AcDbEntity
  8
0
  6
Continuous
 62
     7
370
     0
100
AcDbLine
 10
11.2577212738
 20
4.524357574
 30
0.0
 11
11.3514712738
 21
4.524357574
 31
0.0
  0
LINE
  5
4EB
330
4DD
100
AcDbEntity
  8
0
  6
Continuous
 62
     7
370
     0
100
AcDbLine
 10
11.3514712738
 20
4.524357574
 30
0.0
 11
11.3514712738
 21
4.701630027
 31
0.0
  0
LINE
  5
4EC
330
4DD
100
AcDbEntity
  8
0
  6
Continuous
 62
     7
370
     0
100
AcDbLine
 10
11.3514712738
 20
4.9378504994
 30
0.0
 11
11.3514712738
 21
5.1253504994
 31
0.0
  0
MTEXT
  5
4ED
330
4DD
100
AcDbEntity
  8
0
  6
Continuous
 62
     7
370
     0
100
AcDbMText
 10
10.9172164594
 20
4.6649667962
 30
0.0039370079
 40
0.09375
 41
0.0
 71
     1
 72
     1
  1

  7
SLDTEXTSTYLE0
 73
     1
 44
1.0
  0
MTEXT
  5
4EE
330
4DD
100
AcDbEntity
  8
0
  6
Continuous
 62
     7
370
     0
100
AcDbMText
 10
10.9166956261
 20
4.6635344976
 30
0.0039370079
 40
0.09375
 41
0.0
 71
     1
 72
     1
  1
.24
  7
SLDTEXTSTYLE0
 73
     1
 44
1.0
  0
MTEXT
  5
4EF
330
4DD
100
AcDbEntity
  8
0
  6
Continuous
 62
     7
370
     0
100
AcDbMText
 10
11.0067346976
 20
4.4956633932
 30
0.0039370079
 40
0.09375
 41
0.0
 71
     1
 72
     1
  1
6
  7
SLDTEXTSTYLE0
 73
     1
 44
1.0
  0
MTEXT
  5
4F0
330
4DD
100
AcDbEntity
  8
0
  6
Continuous
 62
     7
370
     0
100
AcDbMText
 10
11.2012008388
 20
4.6649667962
 30
0.0039370079
 40
0.09375
 41
0.0
 71
     1
 72
     1
  1

  7
SLDTEXTSTYLE0
 73
     1
 44
1.0
  0
ENDBLK
  5
4DF
330
4DD
100
AcDbEntity
  8
0
100
AcDbBlockEnd
  0
BLOCK
  5
4F3
330
4F2
100
AcDbEntity
  8
0
100
AcDbBlockBegin
  2
*D36
 70
     1
 10
0.0
 20
0.0
 30
0.0
  3
*D36
  1

  0
SOLID
  5
4F5
330
4F2
100
AcDbEntity
  8
0
  6
Continuous
 62
     7
370
     0
100
AcDbTrace
 10
11.6017204043
 20
4.0610777805
 30
0.0
 11
11.5042204043
 21
4.0760777805
 31
0.0
 12
11.5042204043
 22
4.0460777805
 32
0.0
 13
11.5042204043
 23
4.0460777805
 33
0.0
  0
SOLID
  5
4F6
330
4F2
100
AcDbEntity
  8
0
  6
Continuous
 62
     7
370
     0
100
AcDbTrace
 10
11.7222187729
 20
4.0610777805
 30
0.0
 11
11.8197187729
 21
4.0460777805
 31
0.0
 12
11.8197187729
 22
4.0760777805
 32
0.0
 13
11.8197187729
 23
4.0760777805
 33
0.0
  0
LINE
  5
4F7
330
4F2
100
AcDbEntity
  8
0
  6
Continuous
 62
     7
370
     0
100
AcDbLine
 10
11.995433639
 20
4.0603616337
 30
0.0
 11
11.9763906693
 21
4.0603616337
 31
0.0
  0
LINE
  5
4F8
330
4F2
100
AcDbEntity
  8
0
  6
Continuous
 62
     7
370
     0
100
AcDbLine
 10
11.9763906693
 20
4.0603616337
 30
0.0
 11
11.9763906693
 21
3.9115335043
 31
0.0
  0
LINE
  5
4F9
330
4F2
100
AcDbEntity
  8
0
  6
Continuous
 62
     7
370
     0
100
AcDbLine
 10
11.9763906693
 20
3.9115335043
 30
0.0
 11
11.995433639
 21
3.9115335043
 31
0.0
  0
LINE
  5
4FA
330
4F2
100
AcDbEntity
  8
0
  6
Continuous
 62
     7
370
     0
100
AcDbLine
 10
12.2162181402
 20
4.0603616337
 30
0.0
 11
12.2352611099
 21
4.0603616337
 31
0.0
  0
LINE
  5
4FB
330
4F2
100
AcDbEntity
  8
0
  6
Continuous
 62
     7
370
     0
100
AcDbLine
 10
12.2352611099
 20
4.0603616337
 30
0.0
 11
12.2352611099
 21
3.9115335043
 31
0.0
  0
LINE
  5
4FC
330
4F2
100
AcDbEntity
  8
0
  6
Continuous
 62
     7
370
     0
100
AcDbLine
 10
12.2352611099
 20
3.9115335043
 30
0.0
 11
12.2162181402
 21
3.9115335043
 31
0.0
  0
LINE
  5
4FD
330
4F2
100
AcDbEntity
  8
0
  6
Continuous
 62
     7
370
     0
100
AcDbLine
 10
11.6017204043
 20
4.2625552238
 30
0.0
 11
11.6017204043
 21
3.9673277805
 31
0.0
  0
LINE
  5
4FE
330
4F2
100
AcDbEntity
  8
0
  6
Continuous
 62
     7
370
     0
100
AcDbLine
 10
11.7222187729
 20
4.664130027
 30
0.0
 11
11.7222187729
 21
3.9673277805
 31
0.0
  0
LINE
  5
4FF
330
4F2
100
AcDbEntity
  8
0
  6
Continuous
 62
     7
370
     0
100
AcDbLine
 10
11.6017204043
 20
4.0610777805
 30
0.0
 11
11.4142204043
 21
4.0610777805
 31
0.0
  0
LINE
  5
500
330
4F2
100
AcDbEntity
  8
0
  6
Continuous
 62
     7
370
     0
100
AcDbLine
 10
11.7222187729
 20
4.0610777805
 30
0.0
 11
11.9084592669
 21
4.0610777805
 31
0.0
  0
MTEXT
  5
501
330
4F2
100
AcDbEntity
  8
0
  6
Continuous
 62
     7
370
     0
100
AcDbMText
 10
11.9626292752
 20
4.2016870027
 30
0.0039370079
 40
0.09375
 41
0.0
 71
     1
 72
     1
  1

  7
SLDTEXTSTYLE0
 73
     1
 44
1.0
  0
MTEXT
  5
502
330
4F2
100
AcDbEntity
  8
0
  6
Continuous
 62
     7
370
     0
100
AcDbMText
 10
11.9811514083
 20
4.2002547041
 30
0.0039370079
 40
0.09375
 41
0.0
 71
     1
 72
     1
  1
.12
  7
SLDTEXTSTYLE0
 73
     1
 44
1.0
  0
MTEXT
  5
503
330
4F2
100
AcDbEntity
  8
0
  6
Continuous
 62
     7
370
     0
100
AcDbMText
 10
12.0192373511
 20
4.0323835997
 30
0.0039370079
 40
0.09375
 41
0.0
 71
     1
 72
     1
  1
3.1
  7
SLDTEXTSTYLE0
 73
     1
 44
1.0
  0
MTEXT
  5
504
330
4F2
100
AcDbEntity
  8
0
  6
Continuous
 62
     7
370
     0
100
AcDbMText
 10
12.2846995872
 20
4.2016870027
 30
0.0039370079
 40
0.09375
 41
0.0
 71
     1
 72
     1
  1

  7
SLDTEXTSTYLE0
 73
     1
 44
1.0
  0
ENDBLK
  5
4F4
330
4F2
100
AcDbEntity
  8
0
100
AcDbBlockEnd
  0
BLOCK
  5
507
330
506
100
AcDbEntity
  8
0
100
AcDbBlockBegin
  2
*D37
 70
     1
 10
0.0
 20
0.0
 30
0.0
  3
*D37
  1

  0
SOLID
  5
509
330
506
100
AcDbEntity
  8
0
  6
Continuous
 62
     7
370
     0
100
AcDbTrace
 10
11.1358685644
 20
4.8197402632
 30
0.0
 11
11.1508685644
 21
4.9172402632
 31
0.0
 12
11.1208685644
 22
4.9172402632
 32
0.0
 13
11.1208685644
 23
4.9172402632
 33
0.0
  0
SOLID
  5
50A
330
506
100
AcDbEntity
  8
0
  6
Continuous
 62
     7
370
     0
100
AcDbTrace
 10
11.1358685644
 20
5.7646221529
 30
0.0
 11
11.1208685644
 21
5.6671221529
 31
0.0
 12
11.1508685644
 22
5.6671221529
 32
0.0
 13
11.1508685644
 23
5.6671221529
 33
0.0
  0
LINE
  5
50B
330
506
100
AcDbEntity
  8
0
  6
Continuous
 62
     7
370
     0
100
AcDbLine
 10
11.0427940222
 20
5.2914650613
 30
0.0
 11
11.0237510525
 21
5.2914650613
 31
0.0
  0
LINE
  5
50C
330
506
100
AcDbEntity
  8
0
  6
Continuous
 62
     7
370
     0
100
AcDbLine
 10
11.0237510525
 20
5.2914650613
 30
0.0
 11
11.0237510525
 21
5.1426369319
 31
0.0
  0
LINE
  5
50D
330
506
100
AcDbEntity
  8
0
  6
Continuous
 62
     7
370
     0
100
AcDbLine
 10
11.0237510525
 20
5.1426369319
 30
0.0
 11
11.0427940222
 21
5.1426369319
 31
0.0
  0
LINE
  5
50E
330
506
100
AcDbEntity
  8
0
  6
Continuous
 62
     7
370
     0
100
AcDbLine
 10
11.2289431135
 20
5.2914650613
 30
0.0
 11
11.2479860832
 21
5.2914650613
 31
0.0
  0
LINE
  5
50F
330
506
100
AcDbEntity
  8
0
  6
Continuous
 62
     7
370
     0
100
AcDbLine
 10
11.2479860832
 20
5.2914650613
 30
0.0
 11
11.2479860832
 21
5.1426369319
 31
0.0
  0
LINE
  5
510
330
506
100
AcDbEntity
  8
0
  6
Continuous
 62
     7
370
     0
100
AcDbLine
 10
11.2479860832
 20
5.1426369319
 30
0.0
 11
11.2289431135
 21
5.1426369319
 31
0.0
  0
LINE
  5
511
330
506
100
AcDbEntity
  8
0
  6
Continuous
 62
     7
370
     0
100
AcDbLine
 10
11.3176652862
 20
4.8197402632
 30
0.0
 11
11.0421185644
 21
4.8197402632
 31
0.0
  0
LINE
  5
512
330
506
100
AcDbEntity
  8
0
  6
Continuous
 62
     7
370
     0
100
AcDbLine
 10
11.3176652862
 20
5.7646221529
 30
0.0
 11
11.0421185644
 21
5.7646221529
 31
0.0
  0
LINE
  5
513
330
506
100
AcDbEntity
  8
0
  6
Continuous
 62
     7
370
     0
100
AcDbLine
 10
11.1358685644
 20
4.8197402632
 30
0.0
 11
11.1358685644
 21
5.1235939518
 31
0.0
  0
LINE
  5
514
330
506
100
AcDbEntity
  8
0
  6
Continuous
 62
     7
370
     0
100
AcDbLine
 10
11.1358685644
 20
5.7646221529
 30
0.0
 11
11.1358685644
 21
5.4607684643
 31
0.0
  0
MTEXT
  5
515
330
506
100
AcDbEntity
  8
0
  6
Continuous
 62
     7
370
     0
100
AcDbMText
 10
11.0099896584
 20
5.4327904302
 30
0.0039370079
 40
0.09375
 41
0.0
 71
     1
 72
     1
  1

  7
SLDTEXTSTYLE0
 73
     1
 44
1.0
  0
MTEXT
  5
516
330
506
100
AcDbEntity
  8
0
  6
Continuous
 62
     7
370
     0
100
AcDbMText
 10
11.0111940865
 20
5.4313581316
 30
0.0039370079
 40
0.09375
 41
0.0
 71
     1
 72
     1
  1
.94
  7
SLDTEXTSTYLE0
 73
     1
 44
1.0
  0
MTEXT
  5
517
330
506
100
AcDbEntity
  8
0
  6
Continuous
 62
     7
370
     0
100
AcDbMText
 10
11.0665977343
 20
5.2634870273
 30
0.0039370079
 40
0.09375
 41
0.0
 71
     1
 72
     1
  1
24
  7
SLDTEXTSTYLE0
 73
     1
 44
1.0
  0
MTEXT
  5
518
330
506
100
AcDbEntity
  8
0
  6
Continuous
 62
     7
370
     0
100
AcDbMText
 10
11.2974245605
 20
5.4327904302
 30
0.0039370079
 40
0.09375
 41
0.0
 71
     1
 72
     1
  1

  7
SLDTEXTSTYLE0
 73
     1
 44
1.0
  0
ENDBLK
  5
508
330
506
100
AcDbEntity
  8
0
100
AcDbBlockEnd
  0
BLOCK
  5
51A
330
519
100
AcDbEntity
  8
0
100
AcDbBlockBegin
  2
SW_NOTE_5
 70
     0
 10
0.0
 20
0.0
 30
0.0
  3
SW_NOTE_5
  1

  0
MTEXT
  5
51C
330
519
100
AcDbEntity
  8
0
  6
Continuous
 62
     0
370
     0
100
AcDbMText
 10
0.0147785578
 20
0.045461794
 30
0.0
 40
0.09375
 41
0.0
 71
     1
 72
     1
  1
CABLE OUTLET
  7
SLDTEXTSTYLE0
 73
     1
 44
1.0
  0
MTEXT
  5
51D
330
519
100
AcDbEntity
  8
0
  6
Continuous
 62
     0
370
     0
100
AcDbMText
 10
0.0147785578
 20
-0.0778157619
 30
0.0
 40
0.09375
 41
0.0
 71
     1
 72
     1
  1
MAY BE EASILY
  7
SLDTEXTSTYLE0
 73
     1
 44
1.0
  0
MTEXT
  5
51E
330
519
100
AcDbEntity
  8
0
  6
Continuous
 62
     0
370
     0
100
AcDbMText
 10
0.0147785578
 20
-0.2010933177
 30
0.0
 40
0.09375
 41
0.0
 71
     1
 72
     1
  1
CUT OPEN
  7
SLDTEXTSTYLE0
 73
     1
 44
1.0
  0
ENDBLK
  5
51B
330
519
100
AcDbEntity
  8
0
100
AcDbBlockEnd
  0
BLOCK
  5
522
330
521
100
AcDbEntity
  8
0
100
AcDbBlockBegin
  2
_DOT
 70
     0
 10
0.0
 20
0.0
 30
0.0
  3
_DOT
  1

  0
POLYLINE
  5
524
330
521
100
AcDbEntity
  8
0
  6
ByBlock
 62
     0
100
AcDb2dPolyline
 66
     1
 10
0.0
 20
0.0
 30
0.0
 70
     1
 40
0.5
 41
0.5
  0
VERTEX
  5
526
330
524
100
AcDbEntity
  8
0
  6
ByBlock
 62
     0
100
AcDbVertex
100
AcDb2dVertex
 10
-0.25
 20
0.0
 30
0.0
 42
1.0
  0
VERTEX
  5
527
330
524
100
AcDbEntity
  8
0
  6
ByBlock
 62
     0
100
AcDbVertex
100
AcDb2dVertex
 10
0.25
 20
0.0
 30
0.0
 42
1.0
  0
SEQEND
  5
528
330
524
100
AcDbEntity
  8
0
  6
ByBlock
 62
     0
  0
LINE
  5
525
330
521
100
AcDbEntity
  8
0
  6
ByBlock
 62
     0
370
    -2
100
AcDbLine
 10
-0.5
 20
0.0
 30
0.0
 11
-1.0
 21
0.0
 31
0.0
  0
ENDBLK
  5
523
330
521
100
AcDbEntity
  8
0
100
AcDbBlockEnd
  0
BLOCK
  5
576
330
575
100
AcDbEntity
  8
0
100
AcDbBlockBegin
  2
*D40
 70
     1
 10
0.0
 20
0.0
 30
0.0
  3
*D40
  1

  0
SOLID
  5
578
330
575
100
AcDbEntity
  8
0
  6
Continuous
 62
     7
370
     0
100
AcDbTrace
 10
1.7997551631
 20
0.8641671416
 30
0.0
 11
1.8147551631
 21
0.9616671416
 31
0.0
 12
1.7847551631
 22
0.9616671416
 32
0.0
 13
1.7847551631
 23
0.9616671416
 33
0.0
  0
SOLID
  5
579
330
575
100
AcDbEntity
  8
0
  6
Continuous
 62
     7
370
     0
100
AcDbTrace
 10
1.7997551631
 20
1.5728285589
 30
0.0
 11
1.7847551631
 21
1.4753285589
 31
0.0
 12
1.8147551631
 22
1.4753285589
 32
0.0
 13
1.8147551631
 23
1.4753285589
 33
0.0
  0
LINE
  5
57A
330
575
100
AcDbEntity
  8
0
  6
Continuous
 62
     7
370
     0
100
AcDbLine
 10
1.7066806208
 20
1.2177817035
 30
0.0
 11
1.6876376511
 21
1.2177817035
 31
0.0
  0
LINE
  5
57B
330
575
100
AcDbEntity
  8
0
  6
Continuous
 62
     7
370
     0
100
AcDbLine
 10
1.6876376511
 20
1.2177817035
 30
0.0
 11
1.6876376511
 21
1.068953574
 31
0.0
  0
LINE
  5
57C
330
575
100
AcDbEntity
  8
0
  6
Continuous
 62
     7
370
     0
100
AcDbLine
 10
1.6876376511
 20
1.068953574
 30
0.0
 11
1.7066806208
 21
1.068953574
 31
0.0
  0
LINE
  5
57D
330
575
100
AcDbEntity
  8
0
  6
Continuous
 62
     7
370
     0
100
AcDbLine
 10
1.8928297121
 20
1.2177817035
 30
0.0
 11
1.9118726818
 21
1.2177817035
 31
0.0
  0
LINE
  5
57E
330
575
100
AcDbEntity
  8
0
  6
Continuous
 62
     7
370
     0
100
AcDbLine
 10
1.9118726818
 20
1.2177817035
 30
0.0
 11
1.9118726818
 21
1.068953574
 31
0.0
  0
LINE
  5
57F
330
575
100
AcDbEntity
  8
0
  6
Continuous
 62
     7
370
     0
100
AcDbLine
 10
1.9118726818
 20
1.068953574
 30
0.0
 11
1.8928297121
 21
1.068953574
 31
0.0
  0
LINE
  5
580
330
575
100
AcDbEntity
  8
0
  6
Continuous
 62
     7
370
     0
100
AcDbLine
 10
2.6999220712
 20
0.8641671416
 30
0.0
 11
1.7060051631
 21
0.8641671416
 31
0.0
  0
LINE
  5
581
330
575
100
AcDbEntity
  8
0
  6
Continuous
 62
     7
370
     0
100
AcDbLine
 10
2.499089054
 20
1.5728285589
 30
0.0
 11
1.7060051631
 21
1.5728285589
 31
0.0
  0
LINE
  5
582
330
575
100
AcDbEntity
  8
0
  6
Continuous
 62
     7
370
     0
100
AcDbLine
 10
1.7997551631
 20
0.8641671416
 30
0.0
 11
1.7997551631
 21
1.049910594
 31
0.0
  0
LINE
  5
583
330
575
100
AcDbEntity
  8
0
  6
Continuous
 62
     7
370
     0
100
AcDbLine
 10
1.7997551631
 20
1.5728285589
 30
0.0
 11
1.7997551631
 21
1.3870851065
 31
0.0
  0
MTEXT
  5
584
330
575
100
AcDbEntity
  8
0
  6
Continuous
 62
     7
370
     0
100
AcDbMText
 10
1.6738762571
 20
1.3591070724
 30
0.3576051271
 40
0.09375
 41
0.0
 71
     1
 72
     1
  1

  7
SLDTEXTSTYLE0
 73
     1
 44
1.0
  0
MTEXT
  5
585
330
575
100
AcDbEntity
  8
0
  6
Continuous
 62
     7
370
     0
100
AcDbMText
 10
1.6750806852
 20
1.3576747738
 30
0.3576051271
 40
0.09375
 41
0.0
 71
     1
 72
     1
  1
.71
  7
SLDTEXTSTYLE0
 73
     1
 44
1.0
  0
MTEXT
  5
586
330
575
100
AcDbEntity
  8
0
  6
Continuous
 62
     7
370
     0
100
AcDbMText
 10
1.730484333
 20
1.1898036695
 30
0.3576051271
 40
0.09375
 41
0.0
 71
     1
 72
     1
  1
18
  7
SLDTEXTSTYLE0
 73
     1
 44
1.0
  0
MTEXT
  5
587
330
575
100
AcDbEntity
  8
0
  6
Continuous
 62
     7
370
     0
100
AcDbMText
 10
1.9613111591
 20
1.3591070724
 30
0.3576051271
 40
0.09375
 41
0.0
 71
     1
 72
     1
  1

  7
SLDTEXTSTYLE0
 73
     1
 44
1.0
  0
ENDBLK
  5
577
330
575
100
AcDbEntity
  8
0
100
AcDbBlockEnd
  0
BLOCK
  5
58A
330
589
100
AcDbEntity
  8
0
100
AcDbBlockBegin
  2
*D41
 70
     1
 10
0.0
 20
0.0
 30
0.0
  3
*D41
  1

  0
SOLID
  5
58C
330
589
100
AcDbEntity
  8
0
  6
Continuous
 62
     7
370
     0
100
AcDbTrace
 10
5.136944141
 20
0.6673167479
 30
0.0
 11
5.151944141
 21
0.7648167479
 31
0.0
 12
5.121944141
 22
0.7648167479
 32
0.0
 13
5.121944141
 23
0.7648167479
 33
0.0
  0
SOLID
  5
58D
330
589
100
AcDbEntity
  8
0
  6
Continuous
 62
     7
370
     0
100
AcDbTrace
 10
5.136944141
 20
1.5728285589
 30
0.0
 11
5.121944141
 21
1.4753285589
 31
0.0
 12
5.151944141
 22
1.4753285589
 32
0.0
 13
5.151944141
 23
1.4753285589
 33
0.0
  0
LINE
  5
58E
330
589
100
AcDbEntity
  8
0
  6
Continuous
 62
     7
370
     0
100
AcDbLine
 10
5.0438695988
 20
1.1193565067
 30
0.0
 11
5.0248266291
 21
1.1193565067
 31
0.0
  0
LINE
  5
58F
330
589
100
AcDbEntity
  8
0
  6
Continuous
 62
     7
370
     0
100
AcDbLine
 10
5.0248266291
 20
1.1193565067
 30
0.0
 11
5.0248266291
 21
0.9705283772
 31
0.0
  0
LINE
  5
590
330
589
100
AcDbEntity
  8
0
  6
Continuous
 62
     7
370
     0
100
AcDbLine
 10
5.0248266291
 20
0.9705283772
 30
0.0
 11
5.0438695988
 21
0.9705283772
 31
0.0
  0
LINE
  5
591
330
589
100
AcDbEntity
  8
0
  6
Continuous
 62
     7
370
     0
100
AcDbLine
 10
5.2300186901
 20
1.1193565067
 30
0.0
 11
5.2490616598
 21
1.1193565067
 31
0.0
  0
LINE
  5
592
330
589
100
AcDbEntity
  8
0
  6
Continuous
 62
     7
370
     0
100
AcDbLine
 10
5.2490616598
 20
1.1193565067
 30
0.0
 11
5.2490616598
 21
0.9705283772
 31
0.0
  0
LINE
  5
593
330
589
100
AcDbEntity
  8
0
  6
Continuous
 62
     7
370
     0
100
AcDbLine
 10
5.2490616598
 20
0.9705283772
 30
0.0
 11
5.2300186901
 21
0.9705283772
 31
0.0
  0
LINE
  5
594
330
589
100
AcDbEntity
  8
0
  6
Continuous
 62
     7
370
     0
100
AcDbLine
 10
4.3219087814
 20
0.6673167479
 30
0.0
 11
5.230694141
 21
0.6673167479
 31
0.0
  0
LINE
  5
595
330
589
100
AcDbEntity
  8
0
  6
Continuous
 62
     7
370
     0
100
AcDbLine
 10
4.3074656927
 20
1.5728285589
 30
0.0
 11
5.230694141
 21
1.5728285589
 31
0.0
  0
LINE
  5
596
330
589
100
AcDbEntity
  8
0
  6
Continuous
 62
     7
370
     0
100
AcDbLine
 10
5.136944141
 20
0.6673167479
 30
0.0
 11
5.136944141
 21
0.9514853972
 31
0.0
  0
LINE
  5
597
330
589
100
AcDbEntity
  8
0
  6
Continuous
 62
     7
370
     0
100
AcDbLine
 10
5.136944141
 20
1.5728285589
 30
0.0
 11
5.136944141
 21
1.2886599096
 31
0.0
  0
MTEXT
  5
598
330
589
100
AcDbEntity
  8
0
  6
Continuous
 62
     7
370
     0
100
AcDbMText
 10
5.0110652351
 20
1.2606818756
 30
0.3576051271
 40
0.09375
 41
0.0
 71
     1
 72
     1
  1

  7
SLDTEXTSTYLE0
 73
     1
 44
1.0
  0
MTEXT
  5
599
330
589
100
AcDbEntity
  8
0
  6
Continuous
 62
     7
370
     0
100
AcDbMText
 10
5.0122696632
 20
1.259249577
 30
0.3576051271
 40
0.09375
 41
0.0
 71
     1
 72
     1
  1
.91
  7
SLDTEXTSTYLE0
 73
     1
 44
1.0
  0
MTEXT
  5
59A
330
589
100
AcDbEntity
  8
0
  6
Continuous
 62
     7
370
     0
100
AcDbMText
 10
5.0676733109
 20
1.0913784726
 30
0.3576051271
 40
0.09375
 41
0.0
 71
     1
 72
     1
  1
23
  7
SLDTEXTSTYLE0
 73
     1
 44
1.0
  0
MTEXT
  5
59B
330
589
100
AcDbEntity
  8
0
  6
Continuous
 62
     7
370
     0
100
AcDbMText
 10
5.2985001371
 20
1.2606818756
 30
0.3576051271
 40
0.09375
 41
0.0
 71
     1
 72
     1
  1

  7
SLDTEXTSTYLE0
 73
     1
 44
1.0
  0
ENDBLK
  5
58B
330
589
100
AcDbEntity
  8
0
100
AcDbBlockEnd
  0
BLOCK
  5
59E
330
59D
100
AcDbEntity
  8
0
100
AcDbBlockBegin
  2
*D42
 70
     1
 10
0.0
 20
0.0
 30
0.0
  3
*D42
  1

  0
SOLID
  5
5A0
330
59D
100
AcDbEntity
  8
0
  6
Continuous
 62
     7
370
     0
100
AcDbTrace
 10
5.5263309367
 20
0.5885765904
 30
0.0
 11
5.5413309367
 21
0.6860765904
 31
0.0
 12
5.5113309367
 22
0.6860765904
 32
0.0
 13
5.5113309367
 23
0.6860765904
 33
0.0
  0
SOLID
  5
5A1
330
59D
100
AcDbEntity
  8
0
  6
Continuous
 62
     7
370
     0
100
AcDbTrace
 10
5.5263309367
 20
1.6515687164
 30
0.0
 11
5.5113309367
 21
1.5540687164
 31
0.0
 12
5.5413309367
 22
1.5540687164
 32
0.0
 13
5.5413309367
 23
1.5540687164
 33
0.0
  0
LINE
  5
5A2
330
59D
100
AcDbEntity
  8
0
  6
Continuous
 62
     7
370
     0
100
AcDbLine
 10
5.4332563945
 20
1.1193565067
 30
0.0
 11
5.4142134248
 21
1.1193565067
 31
0.0
  0
LINE
  5
5A3
330
59D
100
AcDbEntity
  8
0
  6
Continuous
 62
     7
370
     0
100
AcDbLine
 10
5.4142134248
 20
1.1193565067
 30
0.0
 11
5.4142134248
 21
0.9705283772
 31
0.0
  0
LINE
  5
5A4
330
59D
100
AcDbEntity
  8
0
  6
Continuous
 62
     7
370
     0
100
AcDbLine
 10
5.4142134248
 20
0.9705283772
 30
0.0
 11
5.4332563945
 21
0.9705283772
 31
0.0
  0
LINE
  5
5A5
330
59D
100
AcDbEntity
  8
0
  6
Continuous
 62
     7
370
     0
100
AcDbLine
 10
5.6194054858
 20
1.1193565067
 30
0.0
 11
5.6384484555
 21
1.1193565067
 31
0.0
  0
LINE
  5
5A6
330
59D
100
AcDbEntity
  8
0
  6
Continuous
 62
     7
370
     0
100
AcDbLine
 10
5.6384484555
 20
1.1193565067
 30
0.0
 11
5.6384484555
 21
0.9705283772
 31
0.0
  0
LINE
  5
5A7
330
59D
100
AcDbEntity
  8
0
  6
Continuous
 62
     7
370
     0
100
AcDbLine
 10
5.6384484555
 20
0.9705283772
 30
0.0
 11
5.6194054858
 21
0.9705283772
 31
0.0
  0
LINE
  5
5A8
330
59D
100
AcDbEntity
  8
0
  6
Continuous
 62
     7
370
     0
100
AcDbLine
 10
4.826604145
 20
0.5885765904
 30
0.0
 11
5.6200809367
 21
0.5885765904
 31
0.0
  0
LINE
  5
5A9
330
59D
100
AcDbEntity
  8
0
  6
Continuous
 62
     7
370
     0
100
AcDbLine
 10
4.3525924594
 20
1.6515687164
 30
0.0
 11
5.6200809367
 21
1.6515687164
 31
0.0
  0
LINE
  5
5AA
330
59D
100
AcDbEntity
  8
0
  6
Continuous
 62
     7
370
     0
100
AcDbLine
 10
5.5263309367
 20
0.5885765904
 30
0.0
 11
5.5263309367
 21
0.9514853972
 31
0.0
  0
LINE
  5
5AB
330
59D
100
AcDbEntity
  8
0
  6
Continuous
 62
     7
370
     0
100
AcDbLine
 10
5.5263309367
 20
1.6515687164
 30
0.0
 11
5.5263309367
 21
1.2886599096
 31
0.0
  0
MTEXT
  5
5AC
330
59D
100
AcDbEntity
  8
0
  6
Continuous
 62
     7
370
     0
100
AcDbMText
 10
5.3675418821
 20
1.2606818756
 30
0.3576051271
 40
0.09375
 41
0.0
 71
     1
 72
     1
  1

  7
SLDTEXTSTYLE0
 73
     1
 44
1.0
  0
MTEXT
  5
5AD
330
59D
100
AcDbEntity
  8
0
  6
Continuous
 62
     7
370
     0
100
AcDbMText
 10
5.3670210489
 20
1.259249577
 30
0.3576051271
 40
0.09375
 41
0.0
 71
     1
 72
     1
  1
1.06
  7
SLDTEXTSTYLE0
 73
     1
 44
1.0
  0
MTEXT
  5
5AE
330
59D
100
AcDbEntity
  8
0
  6
Continuous
 62
     7
370
     0
100
AcDbMText
 10
5.4570601066
 20
1.0913784726
 30
0.3576051271
 40
0.09375
 41
0.0
 71
     1
 72
     1
  1
27
  7
SLDTEXTSTYLE0
 73
     1
 44
1.0
  0
MTEXT
  5
5AF
330
59D
100
AcDbEntity
  8
0
  6
Continuous
 62
     7
370
     0
100
AcDbMText
 10
5.7207970813
 20
1.2606818756
 30
0.3576051271
 40
0.09375
 41
0.0
 71
     1
 72
     1
  1

  7
SLDTEXTSTYLE0
 73
     1
 44
1.0
  0
ENDBLK
  5
59F
330
59D
100
AcDbEntity
  8
0
100
AcDbBlockEnd
  0
ENDSEC
  0
SECTION
  2
ENTITIES
  0
LINE
  5
44
330
1F
100
AcDbEntity
  8
0
  6
Continuous
 62
     7
370
     0
100
AcDbLine
 10
0.2349387035
 20
8.028804878
 30
0.0
 11
12.5169387035
 21
8.028804878
 31
0.0
  0
LINE
  5
45
330
1F
100
AcDbEntity
  8
0
  6
Continuous
 62
     7
370
     0
100
AcDbLine
 10
12.5169387035
 20
0.246804878
 30
0.0
 11
12.5169387035
 21
8.028804878
 31
0.0
  0
LINE
  5
46
330
1F
100
AcDbEntity
  8
0
  6
Continuous
 62
     7
370
     0
100
AcDbLine
 10
12.5169387035
 20
0.246804878
 30
0.0
 11
0.2349387035
 21
0.246804878
 31
0.0
  0
LINE
  5
47
330
1F
100
AcDbEntity
  8
0
  6
Continuous
 62
     7
370
     0
100
AcDbLine
 10
0.2349387035
 20
8.028804878
 30
0.0
 11
0.2349387035
 21
0.246804878
 31
0.0
  0
LINE
  5
48
330
1F
100
AcDbEntity
  8
0
  6
Continuous
 62
     7
370
     0
100
AcDbLine
 10
0.1884387035
 20
8.075304878
 30
0.0
 11
12.5634387035
 21
8.075304878
 31
0.0
  0
LINE
  5
49
330
1F
100
AcDbEntity
  8
0
  6
Continuous
 62
     7
370
     0
100
AcDbLine
 10
12.5634387035
 20
0.200304878
 30
0.0
 11
0.1884387035
 21
0.200304878
 31
0.0
  0
LINE
  5
4A
330
1F
100
AcDbEntity
  8
0
  6
Continuous
 62
     7
370
     0
100
AcDbLine
 10
0.1884387035
 20
8.075304878
 30
0.0
 11
0.1884387035
 21
0.200304878
 31
0.0
  0
LINE
  5
4B
330
1F
100
AcDbEntity
  8
0
  6
Continuous
 62
     7
370
     0
100
AcDbLine
 10
12.5634387035
 20
0.200304878
 30
0.0
 11
12.5634387035
 21
8.075304878
 31
0.0
  0
LINE
  5
4C
330
1F
100
AcDbEntity
  8
0
  6
Continuous
 62
     7
370
     0
100
AcDbLine
 10
0.2349387035
 20
7.724304878
 30
0.0
 11
12.5169387035
 21
7.724304878
 31
0.0
  0
LINE
  5
4D
330
1F
100
AcDbEntity
  8
0
  6
Continuous
 62
     7
370
     0
100
AcDbLine
 10
1.3827894155
 20
8.028804878
 30
0.0
 11
1.3827894155
 21
7.724304878
 31
0.0
  0
LINE
  5
4E
330
1F
100
AcDbEntity
  8
0
  6
Continuous
 62
     7
370
     0
100
AcDbLine
 10
0.8331239128
 20
8.028804878
 30
0.0
 11
0.8331239128
 21
7.724304878
 31
0.0
  0
LINE
  5
4F
330
1F
100
AcDbEntity
  8
0
  6
Continuous
 62
     7
370
     0
100
AcDbLine
 10
11.5794387035
 20
7.724304878
 30
0.0
 11
11.5794387035
 21
8.028804878
 31
0.0
  0
LINE
  5
50
330
1F
100
AcDbEntity
  8
0
  6
Continuous
 62
     7
370
     0
100
AcDbLine
 10
11.0169387035
 20
7.724304878
 30
0.0
 11
11.0169387035
 21
8.028804878
 31
0.0
  0
LINE
  5
51
330
1F
100
AcDbEntity
  8
0
  6
Continuous
 62
     7
370
     0
100
AcDbLine
 10
10.9704387035
 20
7.724304878
 30
0.0
 11
10.9704387035
 21
8.028804878
 31
0.0
  0
LINE
  5
52
330
1F
100
AcDbEntity
  8
0
  6
Continuous
 62
     7
370
     0
100
AcDbLine
 10
0.3357584379
 20
7.7821200869
 30
0.0
 11
0.3357584379
 21
7.9812711524
 31
0.0
  0
LINE
  5
53
330
1F
100
AcDbEntity
  8
0
  6
Continuous
 62
     7
370
     0
100
AcDbLine
 10
0.4744373582
 20
7.7945670285
 30
0.0
 11
0.4744373582
 21
7.9812711524
 31
0.0
  0
LINE
  5
54
330
1F
100
AcDbEntity
  8
0
  6
Continuous
 62
     7
370
     0
100
AcDbLine
 10
0.5281754399
 20
7.8146129647
 30
0.0
 11
0.5281754399
 21
7.9812711524
 31
0.0
  0
LINE
  5
55
330
1F
100
AcDbEntity
  8
0
  6
Continuous
 62
     7
370
     0
100
AcDbLine
 10
0.5108405748
 20
7.8146129647
 30
0.0
 11
0.5108405748
 21
7.9812711524
 31
0.0
  0
LINE
  5
56
330
1F
100
AcDbEntity
  8
0
  6
Continuous
 62
     7
370
     0
100
AcDbLine
 10
0.6053115911
 20
7.7821200869
 30
0.0
 11
0.6053115911
 21
7.9812711524
 31
0.0
  0
LINE
  5
57
330
1F
100
AcDbEntity
  8
0
  6
Continuous
 62
     7
370
     0
100
AcDbLine
 10
0.5645786565
 20
7.7945670285
 30
0.0
 11
0.5645786565
 21
7.9812711524
 31
0.0
  0
LINE
  5
58
330
1F
100
AcDbEntity
  8
0
  6
Continuous
 62
     7
370
     0
100
AcDbLine
 10
0.4868842998
 20
7.7821200869
 30
0.0
 11
0.5521317149
 21
7.7821200869
 31
0.0
  0
LINE
  5
59
330
1F
100
AcDbEntity
  8
0
  6
Continuous
 62
     7
370
     0
100
AcDbLine
 10
0.3357584379
 20
7.7821200869
 30
0.0
 11
0.3998974385
 21
7.7821200869
 31
0.0
  0
LINE
  5
5A
330
1F
100
AcDbEntity
  8
0
  6
Continuous
 62
     7
370
     0
100
AcDbLine
 10
0.3998974385
 20
7.876716843
 30
0.0
 11
0.3452926137
 21
7.876716843
 31
0.0
  0
LINE
  5
5B
330
1F
100
AcDbEntity
  8
0
  6
Continuous
 62
     7
370
     0
100
AcDbLine
 10
0.3998974385
 20
7.8866743963
 30
0.0
 11
0.3452926137
 21
7.8866743963
 31
0.0
  0
LINE
  5
5C
330
1F
100
AcDbEntity
  8
0
  6
Continuous
 62
     7
370
     0
100
AcDbLine
 10
0.3452926137
 20
7.8866743963
 30
0.0
 11
0.3452926137
 21
7.8816956196
 31
0.0
  0
LINE
  5
5D
330
1F
100
AcDbEntity
  8
0
  6
Continuous
 62
     7
370
     0
100
AcDbLine
 10
0.3452926137
 20
7.876716843
 30
0.0
 11
0.3452926137
 21
7.8816956196
 31
0.0
  0
LINE
  5
5E
330
1F
100
AcDbEntity
  8
0
  6
Continuous
 62
     7
370
     0
100
AcDbLine
 10
0.6053115911
 20
7.7821200869
 30
0.0
 11
0.6300837327
 21
7.7821200869
 31
0.0
  0
LINE
  5
5F
330
1F
100
AcDbEntity
  8
0
  6
Continuous
 62
     7
370
     0
100
AcDbLine
 10
0.6997866056
 20
7.8518229598
 30
0.0
 11
0.6997866056
 21
7.9115682795
 31
0.0
  0
LINE
  5
60
330
1F
100
AcDbEntity
  8
0
  6
Continuous
 62
     7
370
     0
100
AcDbLine
 10
0.6631578223
 20
7.876716843
 30
0.0
 11
0.6631578223
 21
7.8866743963
 31
0.0
  0
LINE
  5
61
330
1F
100
AcDbEntity
  8
0
  6
Continuous
 62
     7
370
     0
100
AcDbLine
 10
0.6321846301
 20
7.876716843
 30
0.0
 11
0.6321846301
 21
7.8866743963
 31
0.0
  0
LINE
  5
62
330
1F
100
AcDbEntity
  8
0
  6
Continuous
 62
     7
370
     0
100
AcDbLine
 10
0.6631578223
 20
7.876716843
 30
0.0
 11
0.6321846301
 21
7.876716843
 31
0.0
  0
LINE
  5
63
330
1F
100
AcDbEntity
  8
0
  6
Continuous
 62
     7
370
     0
100
AcDbLine
 10
0.6631578223
 20
7.8866743963
 30
0.0
 11
0.6321846301
 21
7.8866743963
 31
0.0
  0
LINE
  5
64
330
1F
100
AcDbEntity
  8
0
  6
Continuous
 62
     7
370
     0
100
AcDbLine
 10
0.5281754399
 20
7.9812711524
 30
0.0
 11
0.5645786565
 21
7.9812711524
 31
0.0
  0
LINE
  5
65
330
1F
100
AcDbEntity
  8
0
  6
Continuous
 62
     7
370
     0
100
AcDbLine
 10
0.3357584379
 20
7.9812711524
 30
0.0
 11
0.3998974385
 21
7.9812711524
 31
0.0
  0
LINE
  5
66
330
1F
100
AcDbEntity
  8
0
  6
Continuous
 62
     7
370
     0
100
AcDbLine
 10
0.4744373582
 20
7.9812711524
 30
0.0
 11
0.5108405748
 21
7.9812711524
 31
0.0
  0
LINE
  5
67
330
1F
100
AcDbEntity
  8
0
  6
Continuous
 62
     7
370
     0
100
AcDbLine
 10
0.6053115911
 20
7.9812711524
 30
0.0
 11
0.6300837327
 21
7.9812711524
 31
0.0
  0
LINE
  5
68
330
1F
100
AcDbEntity
  8
0
  6
Continuous
 62
     7
370
     0
100
AcDbLine
 10
0.7875750195
 20
8.028804878
 30
0.0
 11
0.7875750195
 21
7.724304878
 31
0.0
  0
LINE
  5
69
330
1F
100
AcDbEntity
  8
0
  6
Continuous
 62
     7
370
     0
100
AcDbLine
 10
6.2873965327
 20
7.724304878
 30
0.0
 11
6.2873965327
 21
8.028804878
 31
0.0
  0
LINE
  5
6A
330
1F
100
AcDbEntity
  8
0
  6
Continuous
 62
     7
370
     0
100
AcDbLine
 10
6.3338965327
 20
7.724304878
 30
0.0
 11
6.3338965327
 21
8.028804878
 31
0.0
  0
LINE
  5
6B
330
1F
100
AcDbEntity
  8
0
  6
Continuous
 62
     7
370
     0
100
AcDbLine
 10
6.8963965327
 20
7.724304878
 30
0.0
 11
6.8963965327
 21
8.028804878
 31
0.0
  0
ARC
  5
6C
330
1F
100
AcDbEntity
  8
0
  6
Continuous
 62
     7
370
     0
100
AcDbCircle
 10
0.3998974385
 20
7.9339727744
 30
0.0
 40
0.0472983780739336
100
AcDbArc
 50
270.0
 51
90.0
  0
ARC
  5
6D
330
1F
100
AcDbEntity
  8
0
  6
Continuous
 62
     7
370
     0
100
AcDbCircle
 10
0.6300837327
 20
7.9115682795
 30
0.0
 40
0.0697028729510594
100
AcDbArc
 50
0.0
 51
90.0
  0
ARC
  5
6E
330
1F
100
AcDbEntity
  8
0
  6
Continuous
 62
     7
370
     0
100
AcDbCircle
 10
0.3998974385
 20
7.8294184649
 30
0.0
 40
0.0472983780739336
100
AcDbArc
 50
270.0
 51
90.0
  0
ARC
  5
6F
330
1F
100
AcDbEntity
  8
0
  6
Continuous
 62
     7
370
     0
100
AcDbCircle
 10
0.4868842998
 20
7.7945670285
 30
0.0
 40
0.012446941598407
100
AcDbArc
 50
180.0
 51
270.0
  0
ARC
  5
70
330
1F
100
AcDbEntity
  8
0
  6
Continuous
 62
     7
370
     0
100
AcDbCircle
 10
0.5182178866
 20
7.8146129647
 30
0.0
 40
0.0099575532787199
100
AcDbArc
 50
277.4442840975
 51
0.0
  0
ARC
  5
71
330
1F
100
AcDbEntity
  8
0
  6
Continuous
 62
     7
370
     0
100
AcDbCircle
 10
0.5207981281
 20
7.8146129647
 30
0.0
 40
0.0099575532787281
100
AcDbArc
 50
180.0
 51
262.5557159021
  0
ARC
  5
72
330
1F
100
AcDbEntity
  8
0
  6
Continuous
 62
     7
370
     0
100
AcDbCircle
 10
0.6300837327
 20
7.8518229598
 30
0.0
 40
0.0697028729510594
100
AcDbArc
 50
270.0
 51
0.0
  0
ARC
  5
73
330
1F
100
AcDbEntity
  8
0
  6
Continuous
 62
     7
370
     0
100
AcDbCircle
 10
0.5521317149
 20
7.7945670285
 30
0.0
 40
0.0124469415984052
100
AcDbArc
 50
270.0
 51
0.0
  0
INSERT
  5
7E
330
1F
100
AcDbEntity
  8
0
  6
Continuous
 62
     7
370
     0
100
AcDbBlockReference
  2
SW_NOTE_0
 10
7.3774580537
 20
1.6673600246
 30
0.0
  0
MTEXT
  5
7F
330
1F
100
AcDbEntity
  8
0
  6
Continuous
 62
     7
370
     0
100
AcDbMText
 10
12.0546549799
 20
7.9569872581
 30
0.0
 40
0.140625
 41
0.0
 71
     2
 72
     1
  1
10-7-14
  7
SLDTEXTSTYLE0
 73
     1
 44
1.0
  0
MTEXT
  5
80
330
1F
100
AcDbEntity
  8
0
  6
Continuous
 62
     7
370
     0
100
AcDbMText
 10
3.6907069551
 20
7.9498318868
 30
0.0
 40
0.140625
 41
0.0
 71
     2
 72
     1
  1
SNAP UTILITY BOX
  7
SLDTEXTSTYLE0
 73
     1
 44
1.0
  0
MTEXT
  5
82
330
1F
100
AcDbEntity
  8
0
  6
Continuous
 62
     7
370
     0
100
AcDbMText
 10
8.890196595
 20
7.9569872649
 30
0.0
 40
0.140625
 41
0.0
 71
     2
 72
     1
  1
CU-18422-B     CU-18422-W
  7
SLDTEXTSTYLE1
 73
     1
 44
1.0
  0
INSERT
  5
88
330
1F
100
AcDbEntity
  8
0
  6
Continuous
 62
     7
370
     0
100
AcDbBlockReference
  2
SW_NOTE_1
 10
0.9513255935
 20
7.8796036767
 30
0.0
  0
INSERT
  5
8E
330
1F
100
AcDbEntity
  8
0
  6
Continuous
 62
     7
370
     0
100
AcDbBlockReference
  2
SW_NOTE_2
 10
6.4828848922
 20
7.8740908901
 30
0.0
  0
INSERT
  5
94
330
1F
100
AcDbEntity
  8
0
  6
Continuous
 62
     7
370
     0
100
AcDbBlockReference
  2
SW_NOTE_3
 10
11.0314789706
 20
7.8775376454
 30
0.0
  0
LINE
  5
95
330
1F
100
AcDbEntity
  8
0
  6
Continuous
 62
     7
370
    15
100
AcDbLine
 10
2.4623324882
 20
4.3787953929
 30
0.0
 11
2.4623324882
 21
6.2055670232
 31
0.0
  0
ARC
  5
96
330
1F
100
AcDbEntity
  8
0
  6
Continuous
 62
     7
370
    15
100
AcDbCircle
 10
2.4977655623
 20
4.3787953813
 30
0.0
 40
0.0354330708661421
100
AcDbArc
 50
180.0
 51
270.0
  0
LINE
  5
97
330
1F
100
AcDbEntity
  8
0
  6
Continuous
 62
     7
370
    15
100
AcDbLine
 10
4.3087891978
 20
4.3433623089
 30
0.0
 11
2.4977655722
 21
4.3433623089
 31
0.0
  0
ARC
  5
98
330
1F
100
AcDbEntity
  8
0
  6
Continuous
 62
     7
370
    15
100
AcDbCircle
 10
4.3087891844
 20
4.3787953813
 30
0.0
 40
0.0354330708661426
100
AcDbArc
 50
270.0
 51
0.0
  0
LINE
  5
99
330
1F
100
AcDbEntity
  8
0
  6
Continuous
 62
     7
370
    15
100
AcDbLine
 10
4.3442222818
 20
6.2055670232
 30
0.0
 11
4.3442222818
 21
4.3787953929
 31
0.0
  0
ARC
  5
9A
330
1F
100
AcDbEntity
  8
0
  6
Continuous
 62
     7
370
    15
100
AcDbCircle
 10
4.3087891844
 20
6.2055670348
 30
0.0
 40
0.0354330708661426
100
AcDbArc
 50
0.0
 51
90.0
  0
ARC
  5
9B
330
1F
100
AcDbEntity
  8
0
  6
Continuous
 62
     7
370
    15
100
AcDbCircle
 10
2.4977655623
 20
6.2055670348
 30
0.0
 40
0.0354330708661426
100
AcDbArc
 50
90.0
 51
180.0
  0
ARC
  5
9C
330
1F
100
AcDbEntity
  8
0
  6
Continuous
 62
     7
370
    15
100
AcDbCircle
 10
2.4977655623
 20
4.3787953813
 30
0.0
 40
0.0590551181102361
100
AcDbArc
 50
180.0
 51
270.0
  0
LINE
  5
9D
330
1F
100
AcDbEntity
  8
0
  6
Continuous
 62
     7
370
    15
100
AcDbLine
 10
2.4387104078
 20
4.3787953929
 30
0.0
 11
2.4387104078
 21
6.2055670232
 31
0.0
  0
ARC
  5
9E
330
1F
100
AcDbEntity
  8
0
  6
Continuous
 62
     7
370
    15
100
AcDbCircle
 10
2.4977655623
 20
6.2055670348
 30
0.0
 40
0.0590551181102361
100
AcDbArc
 50
90.0
 51
180.0
  0
LINE
  5
9F
330
1F
100
AcDbEntity
  8
0
  6
Continuous
 62
     7
370
    15
100
AcDbLine
 10
2.4977655722
 20
6.2646221877
 30
0.0
 11
4.3087891978
 21
6.2646221877
 31
0.0
  0
ARC
  5
A0
330
1F
100
AcDbEntity
  8
0
  6
Continuous
 62
     7
370
    15
100
AcDbCircle
 10
4.3087891844
 20
6.2055670348
 30
0.0
 40
0.059055118110237
100
AcDbArc
 50
0.0
 51
90.0
  0
LINE
  5
A1
330
1F
100
AcDbEntity
  8
0
  6
Continuous
 62
     7
370
    15
100
AcDbLine
 10
4.3678442889
 20
6.2055670232
 30
0.0
 11
4.3678442889
 21
4.3787953929
 31
0.0
  0
ARC
  5
A2
330
1F
100
AcDbEntity
  8
0
  6
Continuous
 62
     7
370
    15
100
AcDbCircle
 10
4.3087891844
 20
4.3787953813
 30
0.0
 40
0.059055118110237
100
AcDbArc
 50
270.0
 51
0.0
  0
LINE
  5
A3
330
1F
100
AcDbEntity
  8
0
  6
Continuous
 62
     7
370
    15
100
AcDbLine
 10
4.3087891978
 20
4.3197402284
 30
0.0
 11
2.4977655722
 21
4.3197402284
 31
0.0
  0
LINE
  5
A4
330
1F
100
AcDbEntity
  8
0
  6
Continuous
 62
     7
370
    15
100
AcDbLine
 10
2.4977655722
 20
6.2410001072
 30
0.0
 11
4.3087891978
 21
6.2410001072
 31
0.0
  0
ARC
  5
A5
330
1F
100
AcDbEntity
  8
0
  6
Continuous
 62
     7
370
    15
100
AcDbCircle
 10
4.3087891844
 20
4.3787953813
 30
0.0
 40
0.0808034558772688
100
AcDbArc
 50
270.0
 51
0.0000000005
  0
LINE
  5
A6
330
1F
100
AcDbEntity
  8
0
  6
Continuous
 62
     7
370
    15
100
AcDbLine
 10
4.3087891978
 20
4.2979919397
 30
0.0
 11
2.4977655722
 21
4.2979919397
 31
0.0
  0
ARC
  5
A7
330
1F
100
AcDbEntity
  8
0
  6
Continuous
 62
     7
370
    15
100
AcDbCircle
 10
2.4977655623
 20
4.3787953813
 30
0.0
 40
0.0808034558772706
100
AcDbArc
 50
179.9999999989
 51
270.0
  0
LINE
  5
A8
330
1F
100
AcDbEntity
  8
0
  6
Continuous
 62
     7
370
    15
100
AcDbLine
 10
2.416962119
 20
6.2055670232
 30
0.0
 11
2.416962119
 21
4.3787953929
 31
0.0
  0
ARC
  5
A9
330
1F
100
AcDbEntity
  8
0
  6
Continuous
 62
     7
370
    15
100
AcDbCircle
 10
2.4977655623
 20
6.2055670348
 30
0.0
 40
0.080803455877196
100
AcDbArc
 50
90.0
 51
179.9999999995
  0
LINE
  5
AA
330
1F
100
AcDbEntity
  8
0
  6
Continuous
 62
     7
370
    15
100
AcDbLine
 10
2.4977655722
 20
6.2863704764
 30
0.0
 11
4.3087891978
 21
6.2863704764
 31
0.0
  0
ARC
  5
AB
330
1F
100
AcDbEntity
  8
0
  6
Continuous
 62
     7
370
    15
100
AcDbCircle
 10
4.3087891844
 20
6.2055670348
 30
0.0
 40
0.0808034558772706
100
AcDbArc
 50
0.0000000011
 51
90.0
  0
LINE
  5
AC
330
1F
100
AcDbEntity
  8
0
  6
Continuous
 62
     7
370
    15
100
AcDbLine
 10
4.389592651
 20
4.3787953929
 30
0.0
 11
4.389592651
 21
6.2055670232
 31
0.0
  0
LINE
  5
AD
330
1F
100
AcDbEntity
  8
0
  6
Continuous
 62
     7
370
    15
100
AcDbLine
 10
4.3999091385
 20
6.2055670232
 30
0.0
 11
4.3999091385
 21
4.3787953929
 31
0.0
  0
ARC
  5
AE
330
1F
100
AcDbEntity
  8
0
  6
Continuous
 62
     7
370
    15
100
AcDbCircle
 10
2.4977655623
 20
6.2055670348
 30
0.0
 40
0.0993731414499814
100
AcDbArc
 50
90.0
 51
135.0
  0
ARC
  5
AF
330
1F
100
AcDbEntity
  8
0
  6
Continuous
 62
     7
370
    15
100
AcDbCircle
 10
2.4977655623
 20
6.2055670348
 30
0.0
 40
0.0911199478621163
100
AcDbArc
 50
164.1763762381
 51
179.9999999993
  0
LWPOLYLINE
  5
B0
330
1F
100
AcDbEntity
  8
0
  6
Continuous
 62
     7
370
    15
100
AcDbPolyline
 90
        7
 70
   128
 43
0.0
 10
2.4409713216
 20
6.2794445898
 10
2.4409306221
 20
6.2790576142
 10
2.4395595246
 20
6.2776411239
 10
2.4349807908
 20
6.2731124029
 10
2.4240780101
 20
6.2599553816
 10
2.4139566604
 20
6.2414906282
 10
2.410098565
 20
6.2304133162
  0
ARC
  5
B1
330
1F
100
AcDbEntity
  8
0
  6
Continuous
 62
     7
370
    15
100
AcDbCircle
 10
4.3229660683
 20
6.2183751491
 30
0.0
 40
0.0744695754112908
100
AcDbArc
 50
9.3028060009
 51
55.090693732
  0
ARC
  5
B2
330
1F
100
AcDbEntity
  8
0
  6
Continuous
 62
     7
370
    15
100
AcDbCircle
 10
4.3087891844
 20
6.2055670348
 30
0.0
 40
0.0911199478621163
100
AcDbArc
 50
0.0000000002
 51
15.8236237619
  0
ARC
  5
B3
330
1F
100
AcDbEntity
  8
0
  6
Continuous
 62
     7
370
    15
100
AcDbCircle
 10
4.3087891844
 20
6.2055670348
 30
0.0
 40
0.0993731414500161
100
AcDbArc
 50
45.0
 51
90.0
  0
LINE
  5
B4
330
1F
100
AcDbEntity
  8
0
  6
Continuous
 62
     7
370
    15
100
AcDbLine
 10
4.3087891978
 20
6.3049401686
 30
0.0
 11
2.4977655722
 21
6.3049401686
 31
0.0
  0
LINE
  5
B5
330
1F
100
AcDbEntity
  8
0
  6
Continuous
 62
     7
370
    15
100
AcDbLine
 10
2.4066456315
 20
4.3787953929
 30
0.0
 11
2.4066456315
 21
6.2055670232
 31
0.0
  0
ARC
  5
B6
330
1F
100
AcDbEntity
  8
0
  6
Continuous
 62
     7
370
    15
100
AcDbCircle
 10
2.4835839067
 20
4.3659842478
 30
0.0
 40
0.0744643554835437
100
AcDbArc
 50
189.30110989
 51
235.0923898429
  0
ARC
  5
B7
330
1F
100
AcDbEntity
  8
0
  6
Continuous
 62
     7
370
    15
100
AcDbCircle
 10
2.4977655623
 20
4.3787953813
 30
0.0
 40
0.0911199478621556
100
AcDbArc
 50
179.9999999998
 51
195.8236237618
  0
ARC
  5
B8
330
1F
100
AcDbEntity
  8
0
  6
Continuous
 62
     7
370
    15
100
AcDbCircle
 10
2.4977655623
 20
4.3787953813
 30
0.0
 40
0.0993731414500599
100
AcDbArc
 50
225.0
 51
270.0
  0
ARC
  5
B9
330
1F
100
AcDbEntity
  8
0
  6
Continuous
 62
     7
370
    15
100
AcDbCircle
 10
4.3087891844
 20
4.3787953813
 30
0.0
 40
0.0993731414500623
100
AcDbArc
 50
270.0
 51
315.0
  0
ARC
  5
BA
330
1F
100
AcDbEntity
  8
0
  6
Continuous
 62
     7
370
    15
100
AcDbCircle
 10
4.3087891844
 20
4.3787953813
 30
0.0
 40
0.0911199478621964
100
AcDbArc
 50
344.1763762382
 51
0.0000000007
  0
LWPOLYLINE
  5
BB
330
1F
100
AcDbEntity
  8
0
  6
Continuous
 62
     7
370
    15
100
AcDbPolyline
 90
        7
 70
   128
 43
0.0
 10
4.3655834484
 20
4.3049178263
 10
4.3656241479
 20
4.3053048019
 10
4.3669951721
 20
4.3067212922
 10
4.3715739792
 20
4.3112500132
 10
4.3824767599
 20
4.3244070345
 10
4.3925981096
 20
4.3428717879
 10
4.396456205
 20
4.3539490999
  0
LINE
  5
BC
330
1F
100
AcDbEntity
  8
0
  6
Continuous
 62
     7
370
    15
100
AcDbLine
 10
2.4977655722
 20
4.2794222475
 30
0.0
 11
4.3087891978
 21
4.2794222475
 31
0.0
  0
LINE
  5
BD
330
1F
100
AcDbEntity
  8
0
  6
Continuous
 62
     7
370
    15
100
AcDbLine
 10
3.0883167401
 20
4.3897643195
 30
0.0
 11
2.5087344988
 21
4.3897643195
 31
0.0
  0
LINE
  5
BE
330
1F
100
AcDbEntity
  8
0
  6
Continuous
 62
     7
370
    15
100
AcDbLine
 10
3.0883167401
 20
6.1945980966
 30
0.0
 11
3.0883167401
 21
6.2410001072
 31
0.0
  0
LINE
  5
BF
330
1F
100
AcDbEntity
  8
0
  6
Continuous
 62
     7
370
    15
100
AcDbLine
 10
2.5087344988
 20
6.1945980966
 30
0.0
 11
3.0883167401
 21
6.1945980966
 31
0.0
  0
LINE
  5
C0
330
1F
100
AcDbEntity
  8
0
  6
Continuous
 62
     7
370
    15
100
AcDbLine
 10
2.5087344988
 20
4.3897643195
 30
0.0
 11
2.5087344988
 21
6.1945980966
 31
0.0
  0
LINE
  5
C1
330
1F
100
AcDbEntity
  8
0
  6
Continuous
 62
     7
370
    15
100
AcDbLine
 10
3.0883167401
 20
4.3433623089
 30
0.0
 11
3.0883167401
 21
4.3897643195
 31
0.0
  0
LINE
  5
C2
330
1F
100
AcDbEntity
  8
0
  6
Continuous
 62
     7
370
    15
100
AcDbLine
 10
3.7182379932
 20
6.1945980966
 30
0.0
 11
4.2978201978
 21
6.1945980966
 31
0.0
  0
LINE
  5
C3
330
1F
100
AcDbEntity
  8
0
  6
Continuous
 62
     7
370
    15
100
AcDbLine
 10
3.7182379932
 20
6.2410001072
 30
0.0
 11
3.7182379932
 21
6.1945980966
 31
0.0
  0
LINE
  5
C4
330
1F
100
AcDbEntity
  8
0
  6
Continuous
 62
     7
370
    15
100
AcDbLine
 10
3.7182379932
 20
4.3897643195
 30
0.0
 11
3.7182379932
 21
4.3433623089
 31
0.0
  0
LINE
  5
C5
330
1F
100
AcDbEntity
  8
0
  6
Continuous
 62
     7
370
    15
100
AcDbLine
 10
4.2978201978
 20
4.3897643195
 30
0.0
 11
3.7182379932
 21
4.3897643195
 31
0.0
  0
LINE
  5
C6
330
1F
100
AcDbEntity
  8
0
  6
Continuous
 62
     7
370
    15
100
AcDbLine
 10
4.2978201978
 20
6.1945980966
 30
0.0
 11
4.2978201978
 21
4.3897643195
 31
0.0
  0
LINE
  5
C7
330
1F
100
AcDbEntity
  8
0
  6
Continuous
 62
     7
370
    15
100
AcDbLine
 10
4.2978201978
 20
4.3897643195
 30
0.0
 11
4.2844087861
 21
4.4031758046
 31
0.0
  0
LINE
  5
C8
330
1F
100
AcDbEntity
  8
0
  6
Continuous
 62
     7
370
    15
100
AcDbLine
 10
3.0883167401
 20
4.3938909585
 30
0.0
 11
3.7182379932
 21
4.3938909585
 31
0.0
  0
LINE
  5
C9
330
1F
100
AcDbEntity
  8
0
  6
Continuous
 62
     7
370
    15
100
AcDbLine
 10
2.5087344988
 20
4.3897643195
 30
0.0
 11
2.5221459839
 21
4.4031758046
 31
0.0
  0
LINE
  5
CA
330
1F
100
AcDbEntity
  8
0
  6
Continuous
 62
     7
370
    15
100
AcDbLine
 10
4.2844087861
 20
4.4031758046
 30
0.0
 11
2.5221459839
 21
4.4031758046
 31
0.0
  0
LINE
  5
CB
330
1F
100
AcDbEntity
  8
0
  6
Continuous
 62
     7
370
    15
100
AcDbLine
 10
3.7182379932
 20
4.3938909585
 30
0.0
 11
3.7182379932
 21
4.3897643195
 31
0.0
  0
LINE
  5
CC
330
1F
100
AcDbEntity
  8
0
  6
Continuous
 62
     7
370
    15
100
AcDbLine
 10
3.0883167401
 20
4.3897643195
 30
0.0
 11
3.0883167401
 21
4.3938909585
 31
0.0
  0
LINE
  5
CD
330
1F
100
AcDbEntity
  8
0
  6
Continuous
 62
     7
370
    15
100
AcDbLine
 10
4.2844087861
 20
6.1811866115
 30
0.0
 11
4.2978201978
 21
6.1945980966
 31
0.0
  0
LINE
  5
CE
330
1F
100
AcDbEntity
  8
0
  6
Continuous
 62
     7
370
    15
100
AcDbLine
 10
2.5221459839
 20
6.1811866115
 30
0.0
 11
4.2844087861
 21
6.1811866115
 31
0.0
  0
LINE
  5
CF
330
1F
100
AcDbEntity
  8
0
  6
Continuous
 62
     7
370
    15
100
AcDbLine
 10
2.5087344988
 20
6.1945980966
 30
0.0
 11
2.5221459839
 21
6.1811866115
 31
0.0
  0
LINE
  5
D0
330
1F
100
AcDbEntity
  8
0
  6
Continuous
 62
     7
370
    15
100
AcDbLine
 10
3.7182379932
 20
6.1904714576
 30
0.0
 11
3.0883167401
 21
6.1904714576
 31
0.0
  0
LINE
  5
D1
330
1F
100
AcDbEntity
  8
0
  6
Continuous
 62
     7
370
    15
100
AcDbLine
 10
3.0883167401
 20
6.1904714576
 30
0.0
 11
3.0883167401
 21
6.1945980966
 31
0.0
  0
LINE
  5
D2
330
1F
100
AcDbEntity
  8
0
  6
Continuous
 62
     7
370
    15
100
AcDbLine
 10
3.7182379932
 20
6.1945980966
 30
0.0
 11
3.7182379932
 21
6.1904714576
 31
0.0
  0
LINE
  5
D3
330
1F
100
AcDbEntity
  8
0
  6
Continuous
 62
     7
370
    15
100
AcDbLine
 10
2.5221459839
 20
4.4031758046
 30
0.0
 11
2.5221459839
 21
6.1811866115
 31
0.0
  0
LINE
  5
D4
330
1F
100
AcDbEntity
  8
0
  6
Continuous
 62
     7
370
    15
100
AcDbLine
 10
4.2844087861
 20
6.1811866115
 30
0.0
 11
4.2844087861
 21
4.4031758046
 31
0.0
  0
CIRCLE
  5
D5
330
1F
100
AcDbEntity
  8
0
  6
Continuous
 62
     7
370
    15
100
AcDbCircle
 10
2.852096271
 20
5.8433623104
 30
0.0
 40
0.039370078740169
  0
CIRCLE
  5
D6
330
1F
100
AcDbEntity
  8
0
  6
Continuous
 62
     7
370
    15
100
AcDbCircle
 10
2.852096271
 20
5.8433623104
 30
0.0
 40
0.0428061151433639
  0
CIRCLE
  5
D7
330
1F
100
AcDbEntity
  8
0
  6
Continuous
 62
     7
370
    15
100
AcDbCircle
 10
2.852096271
 20
4.7410001057
 30
0.0
 40
0.1146741998172738
  0
CIRCLE
  5
D8
330
1F
100
AcDbEntity
  8
0
  6
Continuous
 62
     7
370
    15
100
AcDbCircle
 10
2.852096271
 20
4.7410001057
 30
0.0
 40
0.0428061151433825
  0
CIRCLE
  5
D9
330
1F
100
AcDbEntity
  8
0
  6
Continuous
 62
     7
370
    15
100
AcDbCircle
 10
3.9544584757
 20
5.8433623104
 30
0.0
 40
0.1146741998173253
  0
CIRCLE
  5
DA
330
1F
100
AcDbEntity
  8
0
  6
Continuous
 62
     7
370
    15
100
AcDbCircle
 10
3.9544584757
 20
5.8433623104
 30
0.0
 40
0.0428061151433639
  0
CIRCLE
  5
DB
330
1F
100
AcDbEntity
  8
0
  6
Continuous
 62
     7
370
    15
100
AcDbCircle
 10
3.9544584757
 20
5.8433623104
 30
0.0
 40
0.1181102362204802
  0
CIRCLE
  5
DC
330
1F
100
AcDbEntity
  8
0
  6
Continuous
 62
     7
370
    15
100
AcDbCircle
 10
2.852096271
 20
5.8433623104
 30
0.0
 40
0.1146741998173253
  0
CIRCLE
  5
DD
330
1F
100
AcDbEntity
  8
0
  6
Continuous
 62
     7
370
    15
100
AcDbCircle
 10
2.852096271
 20
5.8433623104
 30
0.0
 40
0.1181102362204802
  0
CIRCLE
  5
DE
330
1F
100
AcDbEntity
  8
0
  6
Continuous
 62
     7
370
    15
100
AcDbCircle
 10
3.9544584757
 20
4.7410001057
 30
0.0
 40
0.1146741998172738
  0
CIRCLE
  5
DF
330
1F
100
AcDbEntity
  8
0
  6
Continuous
 62
     7
370
    15
100
AcDbCircle
 10
3.9544584757
 20
4.7410001057
 30
0.0
 40
0.0428061151433825
  0
CIRCLE
  5
E0
330
1F
100
AcDbEntity
  8
0
  6
Continuous
 62
     7
370
    15
100
AcDbCircle
 10
3.9544584757
 20
4.7410001057
 30
0.0
 40
0.1181102362204287
  0
CIRCLE
  5
E1
330
1F
100
AcDbEntity
  8
0
  6
Continuous
 62
     7
370
    15
100
AcDbCircle
 10
2.852096271
 20
4.7410001057
 30
0.0
 40
0.1181102362204287
  0
CIRCLE
  5
E2
330
1F
100
AcDbEntity
  8
0
  6
Continuous
 62
     7
370
    15
100
AcDbCircle
 10
3.9544584757
 20
4.7410001057
 30
0.0
 40
0.0393700787401876
  0
CIRCLE
  5
E3
330
1F
100
AcDbEntity
  8
0
  6
Continuous
 62
     7
370
    15
100
AcDbCircle
 10
3.9544584757
 20
5.8433623104
 30
0.0
 40
0.039370078740169
  0
CIRCLE
  5
E4
330
1F
100
AcDbEntity
  8
0
  6
Continuous
 62
     7
370
    15
100
AcDbCircle
 10
2.852096271
 20
4.7410001057
 30
0.0
 40
0.0393700787401876
  0
LINE
  5
E5
330
1F
100
AcDbEntity
  8
0
  6
Continuous
 62
     7
370
    15
100
AcDbLine
 10
4.365587995
 20
4.304919073
 30
0.0
 11
4.643202348
 21
4.3793056403
 31
0.0
  0
LINE
  5
E6
330
1F
100
AcDbEntity
  8
0
  6
Continuous
 62
     7
370
    15
100
AcDbLine
 10
2.1633523487
 20
6.2050567758
 30
0.0
 11
2.440966775
 21
6.2794433431
 31
0.0
  0
LINE
  5
E7
330
1F
100
AcDbEntity
  8
0
  6
Continuous
 62
     7
370
    15
100
AcDbLine
 10
4.643202348
 20
6.2050567758
 30
0.0
 11
4.365587995
 21
6.2794433431
 31
0.0
  0
LINE
  5
E8
330
1F
100
AcDbEntity
  8
0
  6
Continuous
 62
     7
370
    15
100
AcDbLine
 10
2.440966775
 20
4.304919073
 30
0.0
 11
2.1633523487
 21
4.3793056403
 31
0.0
  0
CIRCLE
  5
E9
330
1F
100
AcDbEntity
  8
0
  6
Continuous
 62
     7
370
    15
100
AcDbCircle
 10
4.5922537513
 20
5.2921812081
 30
0.0
 40
0.0885826771653546
  0
LINE
  5
EA
330
1F
100
AcDbEntity
  8
0
  6
Continuous
 62
     7
370
    15
100
AcDbLine
 10
4.7891040758
 20
4.5694484905
 30
0.0
 11
4.7891040758
 21
6.0149139257
 31
0.0
  0
LINE
  5
EB
330
1F
100
AcDbEntity
  8
0
  6
Continuous
 62
     7
370
    15
100
AcDbLine
 10
2.0174505475
 20
4.5694484905
 30
0.0
 11
2.0174505475
 21
6.0149139257
 31
0.0
  0
CIRCLE
  5
EC
330
1F
100
AcDbEntity
  8
0
  6
Continuous
 62
     7
370
    15
100
AcDbCircle
 10
2.2143009954
 20
5.2921812081
 30
0.0
 40
0.0885826771653546
  0
ARC
  5
ED
330
1F
100
AcDbEntity
  8
0
  6
Continuous
 62
     7
370
    15
100
AcDbCircle
 10
4.5922537513
 20
6.0149139305
 30
0.0
 40
0.1968503937007875
100
AcDbArc
 50
0.0
 51
75.0
  0
ARC
  5
EE
330
1F
100
AcDbEntity
  8
0
  6
Continuous
 62
     7
370
    15
100
AcDbCircle
 10
2.2143009954
 20
4.5694484856
 30
0.0
 40
0.1968503937007875
100
AcDbArc
 50
180.0
 51
255.0
  0
ARC
  5
EF
330
1F
100
AcDbEntity
  8
0
  6
Continuous
 62
     7
370
    15
100
AcDbCircle
 10
2.2143009954
 20
6.0149139305
 30
0.0
 40
0.1968503937007876
100
AcDbArc
 50
105.0
 51
180.0
  0
ARC
  5
F0
330
1F
100
AcDbEntity
  8
0
  6
Continuous
 62
     7
370
    15
100
AcDbCircle
 10
4.5922537513
 20
4.5694484856
 30
0.0
 40
0.1968503937007879
100
AcDbArc
 50
285.0
 51
0.0
  0
DIMENSION
  5
F1
330
1F
100
AcDbEntity
  8
0
  6
Continuous
 62
     7
370
     0
100
AcDbDimension
  2
*D5
 10
2.2447419096
 20
5.3753691966
 30
0.0
 11
1.352291479
 21
3.7266005473
 31
0.0
 70
   163
  1
<>
 71
     1
 42
-1.0
  3
SLDDIMSTYLE0
100
AcDbDiametricDimension
 15
2.1838600812
 25
5.2089932195
 35
0.0
 40
0.0
  0
DIMENSION
  5
102
330
1F
100
AcDbEntity
  8
0
  6
Continuous
 62
     7
370
     0
100
AcDbDimension
  2
*D6
 10
3.9544584757
 20
3.9841466493
 30
0.0
 11
3.4032773733
 21
3.9841466493
 31
0.0
 70
   160
 71
     2
 42
-1.0
  3
SLDDIMSTYLE1
100
AcDbAlignedDimension
 13
2.852096271
 23
4.7410001057
 33
0.0
 14
3.9544584757
 24
4.7410001057
 34
0.0
100
AcDbRotatedDimension
  0
DIMENSION
  5
117
330
1F
100
AcDbEntity
  8
0
  6
Continuous
 62
     7
370
     0
100
AcDbDimension
  2
*D7
 10
4.5922537513
 20
3.6298159406
 30
0.0
 11
3.4032773733
 21
3.6298159406
 31
0.0
 70
   160
 71
     2
 42
-1.0
  3
SLDDIMSTYLE2
100
AcDbAlignedDimension
 13
2.2143009954
 23
5.1035985309
 33
0.0
 14
4.5922537513
 24
5.1035985309
 34
0.0
100
AcDbRotatedDimension
  0
DIMENSION
  5
12C
330
1F
100
AcDbEntity
  8
0
  6
Continuous
 62
     7
370
     0
100
AcDbDimension
  2
*D8
 10
5.211245918
 20
5.8433623104
 30
0.0
 11
5.211245918
 21
5.2921812081
 31
0.0
 70
   160
 71
     2
 42
-1.0
  3
SLDDIMSTYLE1
100
AcDbAlignedDimension
 13
3.9544584757
 23
4.7410001057
 33
0.0
 14
3.9544584757
 24
5.8433623104
 34
0.0
 50
90.0
100
AcDbRotatedDimension
  0
DIMENSION
  5
140
330
1F
100
AcDbEntity
  8
0
  6
Continuous
 62
     7
370
     0
100
AcDbDimension
  2
*D9
 10
4.297820221
 20
6.6002157668
 30
0.0
 11
3.4032773733
 21
6.6002157668
 31
0.0
 70
   160
 71
     2
 42
-1.0
  3
SLDDIMSTYLE2
100
AcDbAlignedDimension
 13
2.5087345257
 23
6.1945980715
 33
0.0
 14
4.297820221
 24
6.1945980715
 34
0.0
100
AcDbRotatedDimension
  0
DIMENSION
  5
154
330
1F
100
AcDbEntity
  8
0
  6
Continuous
 62
     7
370
     0
100
AcDbDimension
  2
*D10
 10
4.3895926402
 20
7.0126647175
 30
0.0
 11
3.4032773733
 21
7.0126647175
 31
0.0
 70
   160
 71
     2
 42
-1.0
  3
SLDDIMSTYLE2
100
AcDbAlignedDimension
 13
2.4169621064
 23
6.2055670348
 33
0.0
 14
4.3895926402
 24
6.2055670348
 34
0.0
 50
0.0
100
AcDbRotatedDimension
  0
DIMENSION
  5
168
330
1F
100
AcDbEntity
  8
0
  6
Continuous
 62
     7
370
     0
100
AcDbDimension
  2
*D11
 10
4.789104145
 20
7.3763690917
 30
0.0
 11
3.4032773733
 21
7.3763690917
 31
0.0
 70
   160
 71
     2
 42
-1.0
  3
SLDDIMSTYLE2
100
AcDbAlignedDimension
 13
2.0174506017
 23
6.0149139305
 33
0.0
 14
4.789104145
 24
6.0149139305
 34
0.0
100
AcDbRotatedDimension
  0
DIMENSION
  5
17C
330
1F
100
AcDbEntity
  8
0
  6
Continuous
 62
     7
370
     0
100
AcDbDimension
  2
*D12
 10
2.8742096476
 20
5.8107892897
 30
0.0
 11
1.6161995647
 21
7.2379683121
 31
0.0
 70
   163
  1
<>
 71
     1
 42
-1.0
  3
SLDDIMSTYLE0
100
AcDbDiametricDimension
 15
2.8299828944
 25
5.8759353311
 35
0.0
 40
0.0
  0
DIMENSION
  5
18C
330
1F
100
AcDbEntity
  8
0
  6
Continuous
 62
     7
370
     0
100
AcDbDimension
  2
*D13
 10
2.9396880557
 20
5.7693498024
 30
0.0
 11
1.3176216995
 21
6.7522384751
 31
0.0
 70
   163
  1
<> BOSS
 71
     1
 42
-1.0
  3
SLDDIMSTYLE3
100
AcDbDiametricDimension
 15
2.7645044862
 25
5.9173748184
 35
0.0
 40
0.0
  0
DIMENSION
  5
19E
330
1F
100
AcDbEntity
  8
0
  6
Continuous
 62
     7
370
     0
100
AcDbDimension
  2
*D14
 10
1.5449937273
 20
4.3897643446
 30
0.0
 11
1.5449937273
 21
5.2921812081
 31
0.0
 70
   160
 71
     2
 42
-1.0
  3
SLDDIMSTYLE1
100
AcDbAlignedDimension
 13
2.5087345257
 23
6.1945980715
 33
0.0
 14
2.5087345257
 24
4.3897643446
 34
0.0
 50
90.0
100
AcDbRotatedDimension
  0
DIMENSION
  5
1B2
330
1F
100
AcDbEntity
  8
0
  6
Continuous
 62
     7
370
     0
100
AcDbDimension
  2
*D15
 10
1.1237541413
 20
4.2979919254
 30
0.0
 11
1.1237541413
 21
5.2921812081
 31
0.0
 70
   160
 71
     2
 42
-1.0
  3
SLDDIMSTYLE2
100
AcDbAlignedDimension
 13
2.4977655623
 23
6.2863704907
 33
0.0
 14
2.4977655623
 24
4.2979919254
 34
0.0
 50
90.0
100
AcDbRotatedDimension
  0
DIMENSION
  5
1C6
330
1F
100
AcDbEntity
  8
0
  6
Continuous
 62
     7
370
     0
100
AcDbDimension
  2
*D16
 10
0.7125846912
 20
4.2794222398
 30
0.0
 11
0.7125846912
 21
5.2921812081
 31
0.0
 70
   160
 71
     2
 42
-1.0
  3
SLDDIMSTYLE2
100
AcDbAlignedDimension
 13
2.4977655623
 23
6.3049401763
 33
0.0
 14
2.4977655623
 24
4.2794222398
 34
0.0
 50
90.0
100
AcDbRotatedDimension
  0
INSERT
  5
1E0
102
{ACAD_REACTORS
330
1E2
102
}
330
1F
100
AcDbEntity
  8
0
  6
Continuous
 62
     7
370
     0
100
AcDbBlockReference
  2
SW_NOTE_4
 10
4.914578754
 20
3.9631006711
 30
0.0
  0
LEADER
  5
1E2
330
1F
100
AcDbEntity
  8
0
  6
Continuous
 62
     7
370
     0
100
AcDbLeader
  3
SLDDIMSTYLE4
 73
     2
 76
     3
 10
3.982586238
 20
4.7087325913
 30
0.0
 10
4.727078754
 20
3.9631006711
 30
0.0
 10
4.914578754
 20
3.9631006711
 30
0.0
340
1E0
  0
INSERT
  5
1EE
330
1F
100
AcDbEntity
  8
0
  6
Continuous
 62
     7
370
     0
100
AcDbBlockReference
  2
SW_CENTERMARKSYMBOL_0
 10
2.2143009954
 20
5.2921812081
 30
0.0
  0
INSERT
  5
1FA
330
1F
100
AcDbEntity
  8
0
  6
Continuous
 62
     7
370
     0
100
AcDbBlockReference
  2
SW_CENTERMARKSYMBOL_1
 10
4.5922537513
 20
5.2921812081
 30
0.0
  0
INSERT
  5
206
330
1F
100
AcDbEntity
  8
0
  6
Continuous
 62
     7
370
     0
100
AcDbBlockReference
  2
SW_CENTERMARKSYMBOL_2
 10
2.852096271
 20
5.8433623104
 30
0.0
  0
INSERT
  5
212
330
1F
100
AcDbEntity
  8
0
  6
Continuous
 62
     7
370
     0
100
AcDbBlockReference
  2
SW_CENTERMARKSYMBOL_3
 10
3.9544584757
 20
5.8433623104
 30
0.0
  0
INSERT
  5
21E
330
1F
100
AcDbEntity
  8
0
  6
Continuous
 62
     7
370
     0
100
AcDbBlockReference
  2
SW_CENTERMARKSYMBOL_4
 10
2.852096271
 20
4.7410001057
 30
0.0
  0
INSERT
  5
22A
330
1F
100
AcDbEntity
  8
0
  6
Continuous
 62
     7
370
     0
100
AcDbBlockReference
  2
SW_CENTERMARKSYMBOL_5
 10
3.9544584757
 20
4.7410001057
 30
0.0
  0
LINE
  5
22B
330
1F
100
AcDbEntity
  8
0
  6
PHANTOM
 62
     7
370
    30
100
AcDbLine
 10
1.8191228999
 20
5.2921812081
 30
0.0
 11
4.9466044041
 21
5.2921812081
 31
0.0
  0
LINE
  5
22C
330
1F
100
AcDbEntity
  8
0
  6
Continuous
 62
     7
370
    30
100
AcDbLine
 10
1.8191228999
 20
5.2921812081
 30
0.0
 11
1.8191228999
 21
5.6671812081
 31
0.0
  0
SOLID
  5
22D
330
1F
100
AcDbEntity
  8
0
  6
Continuous
 62
     7
370
    30
100
AcDbTrace
 10
1.8191228999
 20
5.6671812081
 30
0.0
 11
1.7891228999
 21
5.4796812081
 31
0.0
 12
1.8491228999
 22
5.4796812081
 32
0.0
 13
1.8491228999
 23
5.4796812081
 33
0.0
  0
LINE
  5
22E
330
1F
100
AcDbEntity
  8
0
  6
Continuous
 62
     7
370
    30
100
AcDbLine
 10
4.9466044041
 20
5.2921812081
 30
0.0
 11
4.9466044041
 21
5.6671812081
 31
0.0
  0
SOLID
  5
22F
330
1F
100
AcDbEntity
  8
0
  6
Continuous
 62
     7
370
    30
100
AcDbTrace
 10
4.9466044041
 20
5.6671812081
 30
0.0
 11
4.9166044041
 21
5.4796812081
 31
0.0
 12
4.9766044041
 22
5.4796812081
 32
0.0
 13
4.9766044041
 23
5.4796812081
 33
0.0
  0
MTEXT
  5
230
330
1F
100
AcDbEntity
  8
0
  6
Continuous
 62
     7
100
AcDbMText
 10
1.7729062891
 20
5.8186323826
 30
0.0
 40
0.09375
 41
0.0
 71
     1
 72
     1
  1
A
  7
SLDTEXTSTYLE0
 73
     1
 44
1.0
  0
MTEXT
  5
231
330
1F
100
AcDbEntity
  8
0
  6
Continuous
 62
     7
100
AcDbMText
 10
4.9003877933
 20
5.8186323826
 30
0.0
 40
0.09375
 41
0.0
 71
     1
 72
     1
  1
A
  7
SLDTEXTSTYLE0
 73
     1
 44
1.0
  0
LINE
  5
232
330
1F
100
AcDbEntity
  8
0
  6
Continuous
 62
     7
370
    15
100
AcDbLine
 10
10.4632275982
 20
2.3096097341
 30
0.0
 11
10.4621850627
 21
2.3090710335
 31
0.0
  0
LINE
  5
233
330
1F
100
AcDbEntity
  8
0
  6
Continuous
 62
     7
370
    15
100
AcDbLine
 10
10.4757409348
 20
2.2828390487
 30
0.0
 11
10.4767834704
 21
2.2833778391
 31
0.0
  0
ARC
  5
234
330
1F
100
AcDbEntity
  8
0
  6
Continuous
 62
     7
370
    15
100
AcDbCircle
 10
10.0254311294
 20
2.9604598474
 30
0.0
 40
0.0289031203805075
100
AcDbArc
 50
116.7533998779
 51
179.1539192561
  0
LINE
  5
235
330
1F
100
AcDbEntity
  8
0
  6
Continuous
 62
     7
370
    15
100
AcDbLine
 10
9.9962598218
 20
2.9608783113
 30
0.0
 11
9.9714363366
 21
2.5743804229
 31
0.0
  0
ARC
  5
236
330
1F
100
AcDbEntity
  8
0
  6
Continuous
 62
     7
370
    15
100
AcDbCircle
 10
11.9637319774
 20
2.9644461594
 30
0.0
 40
0.0300228119264375
100
AcDbArc
 50
2.4265448723
 51
62.3150432468
  0
LINE
  5
237
330
1F
100
AcDbEntity
  8
0
  6
Continuous
 62
     7
370
    15
100
AcDbLine
 10
12.0186977762
 20
2.5792017225
 30
0.0
 11
11.9938742521
 21
2.9656996333
 31
0.0
  0
LINE
  5
238
330
1F
100
AcDbEntity
  8
0
  6
Continuous
 62
     7
370
    15
100
AcDbLine
 10
10.9811374789
 20
3.5456583003
 30
0.0
 11
10.0123455233
 21
2.9863866088
 31
0.0
  0
LINE
  5
239
330
1F
100
AcDbEntity
  8
0
  6
Continuous
 62
     7
370
    15
100
AcDbLine
 10
11.9777885895
 20
2.9912079083
 30
0.0
 11
11.0173482746
 21
3.5456583003
 31
0.0
  0
LINE
  5
23A
330
1F
100
AcDbEntity
  8
0
  6
Continuous
 62
     7
370
    15
100
AcDbLine
 10
10.0068288778
 20
2.5385409104
 30
0.0
 11
10.0068288778
 21
2.5369515729
 31
0.0
  0
LINE
  5
23B
330
1F
100
AcDbEntity
  8
0
  6
Continuous
 62
     7
370
    15
100
AcDbLine
 10
11.983305235
 20
2.5417728724
 30
0.0
 11
11.983305235
 21
2.5433622099
 31
0.0
  0
ARC
  5
23C
330
1F
100
AcDbEntity
  8
0
  6
Continuous
 62
     7
370
    15
100
AcDbCircle
 10
10.9985698658
 20
3.517117956
 30
0.0
 40
0.0333018576236922
100
AcDbArc
 50
88.8420071771
 51
121.3694561239
  0
ARC
  5
23D
330
1F
100
AcDbEntity
  8
0
  6
Continuous
 62
     7
370
    15
100
AcDbCircle
 10
11.0002562876
 20
3.5187992363
 30
0.0
 40
0.0316300148185459
100
AcDbArc
 50
57.5527635897
 51
91.8360442398
  0
LINE
  5
23E
330
1F
100
AcDbEntity
  8
0
  6
Continuous
 62
     7
370
    15
100
AcDbLine
 10
11.083543062
 20
0.7980074205
 30
0.0
 11
11.0810661503
 21
0.9138673907
 31
0.0
  0
LINE
  5
23F
330
1F
100
AcDbEntity
  8
0
  6
Continuous
 62
     7
370
    15
100
AcDbLine
 10
10.9090679624
 20
0.9138673907
 30
0.0
 11
10.9064911218
 21
0.7933334478
 31
0.0
  0
ARC
  5
240
330
1F
100
AcDbEntity
  8
0
  6
Continuous
 62
     7
370
    15
100
AcDbCircle
 10
12.0852254565
 20
1.0129826675
 30
0.0
 40
0.0710305718121864
100
AcDbArc
 50
358.6214856979
 51
48.8683974588
  0
LINE
  5
241
330
1F
100
AcDbEntity
  8
0
  6
Continuous
 62
     7
370
    15
100
AcDbLine
 10
12.156541694
 20
0.9392310848
 30
0.0
 11
12.156541694
 21
1.0115624566
 31
0.0
  0
LINE
  5
242
330
1F
100
AcDbEntity
  8
0
  6
Continuous
 62
     7
370
    15
100
AcDbLine
 10
12.1320683782
 20
1.0665345454
 30
0.0
 11
12.0287507563
 21
1.1698409487
 31
0.0
  0
LINE
  5
243
330
1F
100
AcDbEntity
  8
0
  6
Continuous
 62
     7
370
    15
100
AcDbLine
 10
11.6681589033
 20
1.135498962
 30
0.0
 11
11.6656819722
 21
1.251358921
 31
0.0
  0
LINE
  5
244
330
1F
100
AcDbEntity
  8
0
  6
Continuous
 62
     7
370
    15
100
AcDbLine
 10
11.4936837843
 20
1.251358921
 30
0.0
 11
11.4911069632
 21
1.1308249893
 31
0.0
  0
LINE
  5
245
330
1F
100
AcDbEntity
  8
0
  6
Continuous
 62
     7
370
    15
100
AcDbLine
 10
10.4990271302
 20
1.1308250005
 30
0.0
 11
10.496450309
 21
1.2513589322
 31
0.0
  0
LINE
  5
246
330
1F
100
AcDbEntity
  8
0
  6
Continuous
 62
     7
370
    15
100
AcDbLine
 10
10.3244521211
 20
1.2513589322
 30
0.0
 11
10.3218752611
 21
1.1308250005
 31
0.0
  0
LINE
  5
247
330
1F
100
AcDbEntity
  8
0
  6
Continuous
 62
     7
370
    15
100
AcDbLine
 10
9.9698899367
 20
1.2978527268
 30
0.0
 11
9.9615435073
 21
1.1679000666
 31
0.0
  0
LINE
  5
248
330
1F
100
AcDbEntity
  8
0
  6
Continuous
 62
     7
370
    15
100
AcDbLine
 10
9.986159551
 20
1.3206669365
 30
0.0
 11
9.986159551
 21
1.2965564755
 31
0.0
  0
LINE
  5
249
330
1F
100
AcDbEntity
  8
0
  6
Continuous
 62
     7
370
    15
100
AcDbLine
 10
12.0039745229
 20
1.3013777975
 30
0.0
 11
12.0039745229
 21
1.3254882585
 31
0.0
  0
LINE
  5
24A
330
1F
100
AcDbEntity
  8
0
  6
Continuous
 62
     7
370
    15
100
AcDbLine
 10
12.0288155088
 20
1.1692196527
 30
0.0
 11
12.0202441372
 21
1.3026740488
 31
0.0
  0
ARC
  5
24B
330
1F
100
AcDbEntity
  8
0
  6
Continuous
 62
     7
370
    15
100
AcDbCircle
 10
9.9200493629
 20
1.2927612675
 30
0.0
 40
0.0862720399089877
100
AcDbArc
 50
115.3649635506
 51
176.9610893182
  0
LINE
  5
24C
330
1F
100
AcDbEntity
  8
0
  6
Continuous
 62
     7
370
    15
100
AcDbLine
 10
9.8335924188
 20
1.2970463069
 30
0.0
 11
9.8335924188
 21
1.2247149352
 31
0.0
  0
LINE
  5
24D
330
1F
100
AcDbEntity
  8
0
  6
Continuous
 62
     7
370
    15
100
AcDbLine
 10
10.6495249029
 20
1.813365318
 30
0.0
 11
9.8829510945
 21
1.370831678
 31
0.0
  0
LINE
  5
24E
330
1F
100
AcDbEntity
  8
0
  6
Continuous
 62
     7
370
    15
100
AcDbLine
 10
11.0836429909
 20
1.4683165532
 30
0.0
 11
11.0810661309
 21
1.5888504624
 31
0.0
  0
LINE
  5
24F
330
1F
100
AcDbEntity
  8
0
  6
Continuous
 62
     7
370
    15
100
AcDbLine
 10
10.909067943
 20
1.5888504624
 30
0.0
 11
10.9064911024
 21
1.468316542
 31
0.0
  0
LINE
  5
250
330
1F
100
AcDbEntity
  8
0
  6
Continuous
 62
     7
370
    15
100
AcDbLine
 10
10.834001511
 20
1.8207066435
 30
0.0
 11
10.8161956472
 21
1.8266412639
 31
0.0
  0
ARC
  5
251
330
1F
100
AcDbEntity
  8
0
  6
Continuous
 62
     7
370
    15
100
AcDbCircle
 10
10.743688356
 20
1.6417644782
 30
0.0
 40
0.1955699252376741
100
AcDbArc
 50
88.7941584869
 51
118.7344548095
  0
ARC
  5
252
330
1F
100
AcDbEntity
  8
0
  6
Continuous
 62
     7
370
    15
100
AcDbCircle
 10
10.7497160205
 20
1.627336691
 30
0.0
 40
0.2099631082033451
100
AcDbArc
 50
71.5692451994
 51
90.5217693986
  0
ARC
  5
253
330
1F
100
AcDbEntity
  8
0
  6
Continuous
 62
     7
370
    15
100
AcDbCircle
 10
10.990891236
 20
2.4384226147
 30
0.0
 40
0.0525885800144348
100
AcDbArc
 50
242.6097059909
 51
297.3902940091
  0
LINE
  5
254
330
1F
100
AcDbEntity
  8
0
  6
Continuous
 62
     7
370
    15
100
AcDbLine
 10
11.0150845797
 20
2.3917295653
 30
0.0
 11
11.0326495174
 21
1.9945603072
 31
0.0
  0
ARC
  5
255
330
1F
100
AcDbEntity
  8
0
  6
Continuous
 62
     7
370
    15
100
AcDbCircle
 10
10.990891236
 20
2.0751536216
 30
0.0
 40
0.090769137825565
100
AcDbArc
 50
242.609709076
 51
297.390290924
  0
LINE
  5
256
330
1F
100
AcDbEntity
  8
0
  6
Continuous
 62
     7
370
    15
100
AcDbLine
 10
10.9491329547
 20
1.9945603072
 30
0.0
 11
10.9666978924
 21
2.3917295653
 31
0.0
  0
ARC
  5
257
330
1F
100
AcDbEntity
  8
0
  6
Continuous
 62
     7
370
    15
100
AcDbCircle
 10
11.012261709
 20
2.3881703332
 30
0.0
 40
0.0457026205133029
100
AcDbArc
 50
122.7341239596
 51
175.5333923247
  0
ARC
  5
258
330
1F
100
AcDbEntity
  8
0
  6
Continuous
 62
     7
370
    15
100
AcDbCircle
 10
10.990891236
 20
2.4330165784
 30
0.0
 40
0.007221936471505
100
AcDbArc
 50
242.427463738
 51
297.572536262
  0
ARC
  5
259
330
1F
100
AcDbEntity
  8
0
  6
Continuous
 62
     7
370
    15
100
AcDbCircle
 10
10.969520648
 20
2.3881702645
 30
0.0
 40
0.0457027405113181
100
AcDbArc
 50
4.4666823516
 51
57.265801364
  0
LINE
  5
25A
330
1F
100
AcDbEntity
  8
0
  6
Continuous
 62
     7
370
    15
100
AcDbLine
 10
11.0150845797
 20
2.3917295653
 30
0.0
 11
11.9838765353
 21
2.9510012568
 31
0.0
  0
LINE
  5
25B
330
1F
100
AcDbEntity
  8
0
  6
Continuous
 62
     7
370
    15
100
AcDbLine
 10
10.9942340624
 20
2.4266148693
 30
0.0
 11
11.963026018
 21
2.9858865609
 31
0.0
  0
ARC
  5
25C
330
1F
100
AcDbEntity
  8
0
  6
Continuous
 62
     7
370
    15
100
AcDbCircle
 10
11.9383126037
 20
2.947441956
 30
0.0
 40
0.0457027405113161
100
AcDbArc
 50
4.4666823516
 51
57.265801364
  0
LINE
  5
25D
330
1F
100
AcDbEntity
  8
0
  6
Continuous
 62
     7
370
    15
100
AcDbLine
 10
10.0062575775
 20
2.9461799572
 30
0.0
 11
10.9666978924
 21
2.3917295653
 31
0.0
  0
ARC
  5
25E
330
1F
100
AcDbEntity
  8
0
  6
Continuous
 62
     7
370
    15
100
AcDbCircle
 10
10.0518213941
 20
2.9426207252
 30
0.0
 40
0.0457026205133032
100
AcDbArc
 50
122.7341239596
 51
175.5333923247
  0
LINE
  5
25F
330
1F
100
AcDbEntity
  8
0
  6
Continuous
 62
     7
370
    15
100
AcDbLine
 10
10.0271080948
 20
2.9810652613
 30
0.0
 11
10.9875484097
 21
2.4266148693
 31
0.0
  0
LINE
  5
260
330
1F
100
AcDbEntity
  8
0
  6
Continuous
 62
     7
370
    15
100
AcDbLine
 10
11.2038584436
 20
2.0933971165
 30
0.0
 11
11.2005093558
 21
2.1691244455
 31
0.0
  0
LINE
  5
261
330
1F
100
AcDbEntity
  8
0
  6
Continuous
 62
     7
370
    15
100
AcDbLine
 10
11.0326495174
 20
1.9945603072
 30
0.0
 11
11.2038584436
 21
2.0933971165
 31
0.0
  0
LINE
  5
262
330
1F
100
AcDbEntity
  8
0
  6
Continuous
 62
     7
370
    15
100
AcDbLine
 10
12.001441473
 20
2.5538319988
 30
0.0
 11
11.9838765353
 21
2.9510012568
 31
0.0
  0
LINE
  5
263
330
1F
100
AcDbEntity
  8
0
  6
Continuous
 62
     7
370
    15
100
AcDbLine
 10
11.8302325468
 20
2.4549951895
 30
0.0
 11
12.001441473
 21
2.5538319988
 31
0.0
  0
LINE
  5
264
330
1F
100
AcDbEntity
  8
0
  6
Continuous
 62
     7
370
    15
100
AcDbLine
 10
11.826883459
 20
2.5307225184
 30
0.0
 11
11.8302325468
 21
2.4549951895
 31
0.0
  0
LINE
  5
265
330
1F
100
AcDbEntity
  8
0
  6
Continuous
 62
     7
370
    15
100
AcDbLine
 10
11.7016086345
 20
2.4584029016
 30
0.0
 11
11.826883459
 21
2.5307225184
 31
0.0
  0
LINE
  5
266
330
1F
100
AcDbEntity
  8
0
  6
Continuous
 62
     7
370
    15
100
AcDbLine
 10
11.7049577222
 20
2.3826755726
 30
0.0
 11
11.7016086345
 21
2.4584029016
 31
0.0
  0
LINE
  5
267
330
1F
100
AcDbEntity
  8
0
  6
Continuous
 62
     7
370
    15
100
AcDbLine
 10
11.3291332681
 20
2.1657167334
 30
0.0
 11
11.7049577222
 21
2.3826755726
 31
0.0
  0
LINE
  5
268
330
1F
100
AcDbEntity
  8
0
  6
Continuous
 62
     7
370
    15
100
AcDbLine
 10
11.3257841804
 20
2.2414440623
 30
0.0
 11
11.3291332681
 21
2.1657167334
 31
0.0
  0
LINE
  5
269
330
1F
100
AcDbEntity
  8
0
  6
Continuous
 62
     7
370
    15
100
AcDbLine
 10
11.2005093558
 20
2.1691244455
 30
0.0
 11
11.3257841804
 21
2.2414440623
 31
0.0
  0
LINE
  5
26A
330
1F
100
AcDbEntity
  8
0
  6
Continuous
 62
     7
370
    15
100
AcDbLine
 10
9.9886926398
 20
2.5490106992
 30
0.0
 11
10.9491329547
 21
1.9945603072
 31
0.0
  0
LINE
  5
26B
330
1F
100
AcDbEntity
  8
0
  6
Continuous
 62
     7
370
    15
100
AcDbLine
 10
10.0062575775
 20
2.9461799572
 30
0.0
 11
9.9886926398
 21
2.5490106992
 31
0.0
  0
LWPOLYLINE
  5
26C
330
1F
100
AcDbEntity
  8
0
  6
Continuous
 62
     7
370
    15
100
AcDbPolyline
 90
        8
 70
   128
 43
0.0
 10
10.4705518682
 20
2.3088479034
 10
10.4745053423
 20
2.3056011936
 10
10.4777737615
 20
2.3009679738
 10
10.4798595133
 20
2.2956535664
 10
10.480445101
 20
2.2904671531
 10
10.4794413246
 20
2.2861981253
 10
10.4770010866
 20
2.2834966509
 10
10.4767834704
 20
2.2833778391
  0
LWPOLYLINE
  5
26D
330
1F
100
AcDbEntity
  8
0
  6
Continuous
 62
     7
370
    15
100
AcDbPolyline
 90
        3
 70
   128
 43
0.0
 10
10.4632275982
 20
2.3096097341
 10
10.466515244
 20
2.3102137792
 10
10.4705518682
 20
2.3088479034
  0
LINE
  5
26E
330
1F
100
AcDbEntity
  8
0
  6
Continuous
 62
     7
370
    15
100
AcDbLine
 10
10.9959000504
 20
3.544196498
 30
0.0
 11
10.0271080948
 21
2.9849248065
 31
0.0
  0
ARC
  5
26F
330
1F
100
AcDbEntity
  8
0
  6
Continuous
 62
     7
370
    15
100
AcDbCircle
 10
10.9992428767
 20
3.5377948365
 30
0.0
 40
0.0072218943646377
100
AcDbArc
 50
62.4272892994
 51
117.5727107007
  0
LINE
  5
270
330
1F
100
AcDbEntity
  8
0
  6
Continuous
 62
     7
370
    15
100
AcDbLine
 10
11.963026018
 20
2.9897461061
 30
0.0
 11
11.0025857031
 21
3.544196498
 31
0.0
  0
LWPOLYLINE
  5
271
330
1F
100
AcDbEntity
  8
0
  6
Continuous
 62
     7
370
    15
100
AcDbPolyline
 90
        5
 70
   128
 43
0.0
 10
11.963026018
 20
2.9897461061
 10
11.9640690203
 20
2.9888548252
 10
11.9644106338
 20
2.9878163335
 10
11.9640599199
 20
2.9867724984
 10
11.963026018
 20
2.9858865609
  0
LWPOLYLINE
  5
272
330
1F
100
AcDbEntity
  8
0
  6
Continuous
 62
     7
370
    15
100
AcDbPolyline
 90
        5
 70
   128
 43
0.0
 10
10.0271080948
 20
2.9810652613
 10
10.0260650536
 20
2.9819565646
 10
10.025723479
 20
2.9829950339
 10
10.0260741929
 20
2.984038869
 10
10.0271080948
 20
2.9849248065
  0
ARC
  5
273
330
1F
100
AcDbEntity
  8
0
  6
Continuous
 62
     7
370
    15
100
AcDbCircle
 10
10.990891236
 20
2.0050960449
 30
0.0
 40
0.0363078006334042
100
AcDbArc
 50
242.6098142222
 51
297.3901857778
  0
LINE
  5
274
330
1F
100
AcDbEntity
  8
0
  6
Continuous
 62
     7
370
    15
100
AcDbLine
 10
11.1788034825
 20
2.0716953686
 30
0.0
 11
11.0075945563
 21
1.9728585593
 31
0.0
  0
LINE
  5
275
330
1F
100
AcDbEntity
  8
0
  6
Continuous
 62
     7
370
    15
100
AcDbLine
 10
11.1788034825
 20
2.0716953686
 30
0.0
 11
11.1788034825
 21
2.0789332089
 31
0.0
  0
LINE
  5
276
330
1F
100
AcDbEntity
  8
0
  6
Continuous
 62
     7
370
    15
100
AcDbLine
 10
10.9741879157
 20
1.9728585593
 30
0.0
 11
10.6610008447
 21
2.153657607
 31
0.0
  0
LINE
  5
277
330
1F
100
AcDbEntity
  8
0
  6
Continuous
 62
     7
370
    15
100
AcDbLine
 10
10.6610008447
 20
2.1608954473
 30
0.0
 11
10.6610008447
 21
2.153657607
 31
0.0
  0
LINE
  5
278
330
1F
100
AcDbEntity
  8
0
  6
Continuous
 62
     7
370
    15
100
AcDbLine
 10
11.2890220351
 20
2.1527067862
 30
0.0
 11
11.2861105035
 21
2.2185409457
 31
0.0
  0
LINE
  5
279
330
1F
100
AcDbEntity
  8
0
  6
Continuous
 62
     7
370
    15
100
AcDbLine
 10
11.2890220351
 20
2.1527067862
 30
0.0
 11
11.203420868
 21
2.1032902843
 31
0.0
  0
LINE
  5
27A
330
1F
100
AcDbEntity
  8
0
  6
Continuous
 62
     7
370
    15
100
AcDbLine
 10
11.3291332681
 20
2.1657167334
 30
0.0
 11
11.3040783071
 21
2.1801806545
 31
0.0
  0
LINE
  5
27B
330
1F
100
AcDbEntity
  8
0
  6
Continuous
 62
     7
370
    15
100
AcDbLine
 10
11.3040783071
 20
2.1440149854
 30
0.0
 11
11.3040783071
 21
2.1801806545
 31
0.0
  0
LINE
  5
27C
330
1F
100
AcDbEntity
  8
0
  6
Continuous
 62
     7
370
    15
100
AcDbLine
 10
11.2890220351
 20
2.1527067862
 30
0.0
 11
11.3040783071
 21
2.1440149854
 31
0.0
  0
LINE
  5
27D
330
1F
100
AcDbEntity
  8
0
  6
Continuous
 62
     7
370
    15
100
AcDbLine
 10
11.6799027612
 20
2.368211665
 30
0.0
 11
11.6799027612
 21
2.3609738247
 31
0.0
  0
LINE
  5
27E
330
1F
100
AcDbEntity
  8
0
  6
Continuous
 62
     7
370
    15
100
AcDbLine
 10
11.6799027612
 20
2.3609738247
 30
0.0
 11
11.3040783071
 21
2.1440149854
 31
0.0
  0
LINE
  5
27F
330
1F
100
AcDbEntity
  8
0
  6
Continuous
 62
     7
370
    15
100
AcDbLine
 10
10.6300043214
 20
2.1586646944
 30
0.0
 11
10.640121704
 21
2.1645053351
 31
0.0
  0
LINE
  5
280
330
1F
100
AcDbEntity
  8
0
  6
Continuous
 62
     7
370
    15
100
AcDbLine
 10
10.640121704
 20
2.1645053351
 30
0.0
 11
10.640121704
 21
2.1729487186
 31
0.0
  0
LINE
  5
281
330
1F
100
AcDbEntity
  8
0
  6
Continuous
 62
     7
370
    15
100
AcDbLine
 10
10.6406368077
 20
2.1250204891
 30
0.0
 11
10.6574993065
 21
2.1347550025
 31
0.0
  0
LINE
  5
282
330
1F
100
AcDbEntity
  8
0
  6
Continuous
 62
     7
370
    15
100
AcDbLine
 10
10.6300043214
 20
2.1586646944
 30
0.0
 11
10.6406368077
 21
2.1250204891
 31
0.0
  0
LINE
  5
283
330
1F
100
AcDbEntity
  8
0
  6
Continuous
 62
     7
370
    15
100
AcDbLine
 10
10.6587137766
 20
2.1622158023
 30
0.0
 11
10.6574993065
 21
2.1347550025
 31
0.0
  0
LINE
  5
284
330
1F
100
AcDbEntity
  8
0
  6
Continuous
 62
     7
370
    15
100
AcDbLine
 10
10.640121704
 20
2.1645053351
 30
0.0
 11
10.3478137931
 21
2.3332511002
 31
0.0
  0
LINE
  5
285
330
1F
100
AcDbEntity
  8
0
  6
Continuous
 62
     7
370
    15
100
AcDbLine
 10
10.3478137931
 20
2.3416944838
 30
0.0
 11
10.3478137931
 21
2.3332511002
 31
0.0
  0
LINE
  5
286
330
1F
100
AcDbEntity
  8
0
  6
Continuous
 62
     7
370
    15
100
AcDbLine
 10
10.6406368077
 20
2.1250204891
 30
0.0
 11
10.3483288967
 21
2.2937662542
 31
0.0
  0
LINE
  5
287
330
1F
100
AcDbEntity
  8
0
  6
Continuous
 62
     7
370
    15
100
AcDbLine
 10
10.3483288967
 20
2.2937662542
 30
0.0
 11
10.3376964105
 21
2.3274104596
 31
0.0
  0
LINE
  5
288
330
1F
100
AcDbEntity
  8
0
  6
Continuous
 62
     7
370
    15
100
AcDbLine
 10
10.3376964105
 20
2.3274104596
 30
0.0
 11
10.6300043214
 21
2.1586646944
 31
0.0
  0
LINE
  5
289
330
1F
100
AcDbEntity
  8
0
  6
Continuous
 62
     7
370
    15
100
AcDbLine
 10
10.3478137931
 20
2.3332511002
 30
0.0
 11
10.3376964105
 21
2.3274104596
 31
0.0
  0
LWPOLYLINE
  5
28A
330
1F
100
AcDbEntity
  8
0
  6
Continuous
 62
     7
370
    15
100
AcDbPolyline
 90
       17
 70
   128
 43
0.0
 10
10.4695093715
 20
2.3083091354
 10
10.4734628067
 20
2.3050624032
 10
10.476731226
 20
2.3004292732
 10
10.4788169777
 20
2.2951148658
 10
10.4794025654
 20
2.2899283626
 10
10.4783988279
 20
2.2856594472
 10
10.475958551
 20
2.2829578605
 10
10.4724532502
 20
2.2822349812
 10
10.4684166284
 20
2.2836009454
 10
10.4644631519
 20
2.2868475668
 10
10.4611947715
 20
2.291480809
 10
10.4591090197
 20
2.2967952164
 10
10.4585234296
 20
2.3019816312
 10
10.4595271696
 20
2.306250635
 10
10.4619674464
 20
2.3089522217
 10
10.4654727084
 20
2.3096749887
 10
10.4695093715
 20
2.3083091354
  0
ARC
  5
28B
330
1F
100
AcDbEntity
  8
0
  6
Continuous
 62
     7
370
    15
100
AcDbCircle
 10
10.0000825371
 20
2.5753116937
 30
0.0
 40
0.0286613340738853
100
AcDbArc
 50
181.8619955888
 51
246.5845143504
  0
ARC
  5
28C
330
1F
100
AcDbEntity
  8
0
  6
Continuous
 62
     7
370
    15
100
AcDbCircle
 10
11.9907939802
 20
2.579628015
 30
0.0
 40
0.0279070521419256
100
AcDbArc
 50
292.4287424997
 51
359.1247475611
  0
LINE
  5
28D
330
1F
100
AcDbEntity
  8
0
  6
Continuous
 62
     7
370
    15
100
AcDbLine
 10
11.7872097822
 20
2.5078194018
 30
0.0
 11
11.7901213138
 21
2.4419852423
 31
0.0
  0
LINE
  5
28E
330
1F
100
AcDbEntity
  8
0
  6
Continuous
 62
     7
370
    15
100
AcDbLine
 10
11.7901213138
 20
2.4419852423
 30
0.0
 11
11.7045201661
 21
2.3925687516
 31
0.0
  0
LINE
  5
28F
330
1F
100
AcDbEntity
  8
0
  6
Continuous
 62
     7
370
    15
100
AcDbLine
 10
10.3332034776
 20
2.3501288306
 30
0.0
 11
10.3269346524
 21
2.3465099148
 31
0.0
  0
LINE
  5
290
330
1F
100
AcDbEntity
  8
0
  6
Continuous
 62
     7
370
    15
100
AcDbLine
 10
10.3269346524
 20
2.3537477551
 30
0.0
 11
10.3269346524
 21
2.3465099148
 31
0.0
  0
LINE
  5
291
330
1F
100
AcDbEntity
  8
0
  6
Continuous
 62
     7
370
    15
100
AcDbLine
 10
10.3269346524
 20
2.3465099148
 30
0.0
 11
10.0137476008
 21
2.5273089513
 31
0.0
  0
LINE
  5
292
330
1F
100
AcDbEntity
  8
0
  6
Continuous
 62
     7
370
    15
100
AcDbLine
 10
11.8051775857
 20
2.4694591106
 30
0.0
 11
11.8302325468
 21
2.4549951895
 31
0.0
  0
LINE
  5
293
330
1F
100
AcDbEntity
  8
0
  6
Continuous
 62
     7
370
    15
100
AcDbLine
 10
11.8051775857
 20
2.4332934415
 30
0.0
 11
11.8051775857
 21
2.4694591106
 31
0.0
  0
LINE
  5
294
330
1F
100
AcDbEntity
  8
0
  6
Continuous
 62
     7
370
    15
100
AcDbLine
 10
11.7901213138
 20
2.4419852423
 30
0.0
 11
11.8051775857
 21
2.4332934415
 31
0.0
  0
LINE
  5
295
330
1F
100
AcDbEntity
  8
0
  6
Continuous
 62
     7
370
    15
100
AcDbLine
 10
11.9763865119
 20
2.5321302508
 30
0.0
 11
11.8051775857
 21
2.4332934415
 31
0.0
  0
ARC
  5
296
330
1F
100
AcDbEntity
  8
0
  6
Continuous
 62
     7
370
    15
100
AcDbCircle
 10
10.018650667
 20
2.5381304271
 30
0.0
 40
0.0118804207659921
100
AcDbArc
 50
185.6946390147
 51
245.625354765
  0
ARC
  5
297
330
1F
100
AcDbEntity
  8
0
  6
Continuous
 62
     7
370
    15
100
AcDbCircle
 10
11.971483337
 20
2.5429518048
 30
0.0
 40
0.0118805367745445
100
AcDbArc
 50
294.3749677936
 51
354.3050384267
  0
ARC
  5
298
330
1F
100
AcDbEntity
  8
0
  6
Continuous
 62
     7
370
    15
100
AcDbCircle
 10
11.2416285103
 20
0.7096670511
 30
0.0
 40
0.1850195589749873
100
AcDbArc
 50
251.6155674773
 51
297.076838123
  0
ARC
  5
299
330
1F
100
AcDbEntity
  8
0
  6
Continuous
 62
     7
370
    15
100
AcDbCircle
 10
11.3013948158
 20
0.5066998379
 30
0.0
 40
0.0453778282344555
100
AcDbArc
 50
2.605299749
 51
57.3946426286
  0
ARC
  5
29A
330
1F
100
AcDbEntity
  8
0
  6
Continuous
 62
     7
370
    15
100
AcDbCircle
 10
11.241457132
 20
0.7146354495
 30
0.0
 40
0.2312253213263763
100
AcDbArc
 50
251.6104736542
 51
297.0819338357
  0
ARC
  5
29B
330
1F
100
AcDbEntity
  8
0
  6
Continuous
 62
     7
370
    15
100
AcDbCircle
 10
11.2297532241
 20
0.4941982362
 30
0.0
 40
0.0612505227232608
100
AcDbArc
 50
139.3604759516
 51
179.0460810986
  0
LINE
  5
29C
330
1F
100
AcDbEntity
  8
0
  6
Continuous
 62
     7
370
    15
100
AcDbLine
 10
12.1111903653
 20
1.0697647256
 30
0.0
 11
12.0193523798
 21
1.1615927369
 31
0.0
  0
LWPOLYLINE
  5
29D
330
1F
100
AcDbEntity
  8
0
  6
Continuous
 62
     7
370
    15
100
AcDbPolyline
 90
        9
 70
   128
 43
0.0
 10
12.0924204468
 20
0.9874598518
 10
12.1046073055
 20
0.9957077073
 10
12.1143592737
 20
1.0049669113
 10
12.1217819389
 20
1.0155804921
 10
12.1260036888
 20
1.0267731731
 10
12.1269445648
 20
1.0382062142
 10
12.1245326196
 20
1.0495762129
 10
12.1192680619
 20
1.0599731419
 10
12.1111903653
 20
1.0697647256
  0
LINE
  5
29E
330
1F
100
AcDbEntity
  8
0
  6
Continuous
 62
     7
370
    15
100
AcDbLine
 10
11.3258466384
 20
0.5449262119
 30
0.0
 11
12.0924204468
 21
0.9874598518
 31
0.0
  0
LINE
  5
29F
330
1F
100
AcDbEntity
  8
0
  6
Continuous
 62
     7
370
    15
100
AcDbLine
 10
11.0242069508
 20
0.5871075091
 30
0.0
 11
11.1832749673
 21
0.5340905685
 31
0.0
  0
ARC
  5
2A0
330
1F
100
AcDbEntity
  8
0
  6
Continuous
 62
     7
370
    15
100
AcDbCircle
 10
11.0007580652
 20
0.6613080776
 30
0.0
 40
0.0778175725983231
100
AcDbArc
 50
287.5375934912
 51
299.616479773
  0
LINE
  5
2A1
330
1F
100
AcDbEntity
  8
0
  6
Continuous
 62
     7
370
    15
100
AcDbLine
 10
12.0080068376
 20
1.1529288427
 30
0.0
 11
11.039214882
 21
0.5936571512
 31
0.0
  0
ARC
  5
2A2
330
1F
100
AcDbEntity
  8
0
  6
Continuous
 62
     7
370
    15
100
AcDbCircle
 10
11.9826307398
 20
1.1979199024
 30
0.0
 40
0.0516540588383614
100
AcDbArc
 50
299.4240997813
 51
315.3094027883
  0
LWPOLYLINE
  5
2A3
330
1F
100
AcDbEntity
  8
0
  6
Continuous
 62
     7
370
    15
100
AcDbPolyline
 90
       31
 70
   128
 43
0.0
 10
11.6725950367
 20
0.8415259721
 10
11.6813357858
 20
0.8352947801
 10
11.6876412944
 20
0.828150687
 10
11.6912360845
 20
0.8204058637
 10
11.6919629806
 20
0.8123988369
 10
11.6897902139
 20
0.8044795527
 10
11.6848127951
 20
0.7969940934
 10
11.6772482236
 20
0.7902696285
 10
11.667427135
 20
0.7846000347
 10
11.6557787579
 20
0.7802331005
 10
11.6428121572
 20
0.7773596978
 10
11.6290940682
 20
0.7761053863
 10
11.6152239882
 20
0.7765250145
 10
11.601808107
 20
0.7786002426
 10
11.5894328339
 20
0.7822403353
 10
11.5786389232
 20
0.7872862623
 10
11.5698982518
 20
0.7935174094
 10
11.5635926655
 20
0.8006615474
 10
11.5599979531
 20
0.8084063259
 10
11.5592710182
 20
0.8164133751
 10
11.5614437848
 20
0.8243326593
 10
11.5664212037
 20
0.8318181186
 10
11.5739857362
 20
0.838542606
 10
11.5838068249
 20
0.8442121998
 10
11.5954552408
 20
0.8485791115
 10
11.6084218416
 20
0.8514525142
 10
11.6221399306
 20
0.8527068257
 10
11.6360100495
 20
0.8522871751
 10
11.6494258529
 20
0.8502119918
 10
11.6618012038
 20
0.8465718543
 10
11.6725950367
 20
0.8415259721
  0
LINE
  5
2A4
330
1F
100
AcDbEntity
  8
0
  6
Continuous
 62
     7
370
    15
100
AcDbLine
 10
11.3467257402
 20
0.436431133
 30
0.0
 11
11.3467257402
 21
0.5087625048
 31
0.0
  0
ARC
  5
2A5
330
1F
100
AcDbEntity
  8
0
  6
Continuous
 62
     7
370
    15
100
AcDbCircle
 10
11.2415376766
 20
0.6412442995
 30
0.0
 40
0.2302454383815015
100
AcDbArc
 50
251.5082559959
 51
297.184151494
  0
LINE
  5
2A6
330
1F
100
AcDbEntity
  8
0
  6
Continuous
 62
     7
370
    15
100
AcDbLine
 10
11.1685111902
 20
0.4952179506
 30
0.0
 11
11.1685111902
 21
0.4228865789
 31
0.0
  0
LINE
  5
2A7
330
1F
100
AcDbEntity
  8
0
  6
Continuous
 62
     7
370
    15
100
AcDbLine
 10
10.9818345119
 20
0.5574146657
 30
0.0
 11
11.1685111902
 21
0.4952179506
 31
0.0
  0
LWPOLYLINE
  5
2A8
330
1F
100
AcDbEntity
  8
0
  6
Continuous
 62
     7
370
    15
100
AcDbPolyline
 90
        7
 70
   128
 43
0.0
 10
10.9818314396
 20
0.5574152718
 10
10.9820582485
 20
0.5608112678
 10
10.9835365513
 20
0.5638776394
 10
10.9883665475
 20
0.5688125932
 10
11.0011261844
 20
0.5768996558
 10
11.0162862549
 20
0.584153877
 10
11.0242069508
 20
0.5871075091
  0
LINE
  5
2A9
330
1F
100
AcDbEntity
  8
0
  6
Continuous
 62
     7
370
    15
100
AcDbLine
 10
10.990891236
 20
0.4820868067
 30
0.0
 11
10.9818314007
 21
0.5574152998
 31
0.0
  0
LINE
  5
2AA
330
1F
100
AcDbEntity
  8
0
  6
Continuous
 62
     7
370
    15
100
AcDbLine
 10
10.9480387337
 20
0.7173678605
 30
0.0
 11
10.9381906673
 21
0.4946885775
 31
0.0
  0
ARC
  5
2AB
330
1F
100
AcDbEntity
  8
0
  6
Continuous
 62
     7
370
    15
100
AcDbCircle
 10
10.990891236
 20
0.8000728774
 30
0.0
 40
0.0931475000891659
100
AcDbArc
 50
242.6096695963
 51
297.3903304037
  0
LINE
  5
2AC
330
1F
100
AcDbEntity
  8
0
  6
Continuous
 62
     7
370
    15
100
AcDbLine
 10
11.039214882
 20
0.5936571512
 30
0.0
 11
11.0337437383
 21
0.7173678605
 31
0.0
  0
ARC
  5
2AD
330
1F
100
AcDbEntity
  8
0
  6
Continuous
 62
     7
370
    15
100
AcDbCircle
 10
10.988743953
 20
0.5896045728
 30
0.0
 40
0.1075392061939355
100
AcDbArc
 50
241.9597523884
 51
271.144126263
  0
LINE
  5
2AE
330
1F
100
AcDbEntity
  8
0
  6
Continuous
 62
     7
370
    15
100
AcDbLine
 10
10.990891236
 20
0.4820868067
 30
0.0
 11
11.1685111902
 21
0.4228865789
 31
0.0
  0
LINE
  5
2AF
330
1F
100
AcDbEntity
  8
0
  6
Continuous
 62
     7
370
    15
100
AcDbLine
 10
10.9480387337
 20
0.7173678605
 30
0.0
 11
9.9875984188
 21
1.2718182525
 31
0.0
  0
ARC
  5
2B0
330
1F
100
AcDbEntity
  8
0
  6
Continuous
 62
     7
370
    15
100
AcDbCircle
 10
9.9967530961
 20
1.2964189562
 30
0.0
 40
0.0262488616416228
100
AcDbArc
 50
113.802150898
 51
249.5882207152
  0
ARC
  5
2B1
330
1F
100
AcDbEntity
  8
0
  6
Continuous
 62
     7
370
    15
100
AcDbCircle
 10
11.99338095
 20
1.3012402577
 30
0.0
 40
0.0262488867459927
100
AcDbArc
 50
290.4119141875
 51
66.1977141994
  0
LINE
  5
2B2
330
1F
100
AcDbEntity
  8
0
  6
Continuous
 62
     7
370
    15
100
AcDbLine
 10
11.0337437383
 20
0.7173678605
 30
0.0
 11
12.0025356939
 21
1.2766395521
 31
0.0
  0
ARC
  5
2B3
330
1F
100
AcDbEntity
  8
0
  6
Continuous
 62
     7
370
    15
100
AcDbCircle
 10
10.0083256108
 20
1.2987669886
 30
0.0
 40
0.0222760090278294
100
AcDbArc
 50
185.6949995353
 51
245.6251281976
  0
LINE
  5
2B4
330
1F
100
AcDbEntity
  8
0
  6
Continuous
 62
     7
370
    15
100
AcDbLine
 10
10.9595725056
 20
0.7240261653
 30
0.0
 11
9.9991321907
 21
1.2784765573
 31
0.0
  0
ARC
  5
2B5
330
1F
100
AcDbEntity
  8
0
  6
Continuous
 62
     7
370
    15
100
AcDbCircle
 10
10.9908911949
 20
0.784471138
 30
0.0
 40
0.068076831803769
100
AcDbArc
 50
242.6097202081
 51
297.3903208647
  0
LINE
  5
2B6
330
1F
100
AcDbEntity
  8
0
  6
Continuous
 62
     7
370
    15
100
AcDbLine
 10
11.9910018832
 20
1.2832978793
 30
0.0
 11
11.0222099276
 21
0.7240261877
 31
0.0
  0
ARC
  5
2B7
330
1F
100
AcDbEntity
  8
0
  6
Continuous
 62
     7
370
    15
100
AcDbCircle
 10
11.9818086626
 20
1.3035881674
 30
0.0
 40
0.0222757962612366
100
AcDbArc
 50
294.3745562865
 51
354.3053159805
  0
LINE
  5
2B8
330
1F
100
AcDbEntity
  8
0
  6
Continuous
 62
     7
370
    15
100
AcDbLine
 10
10.9595725056
 20
0.7240261653
 30
0.0
 11
10.9595725056
 21
0.7481366263
 31
0.0
  0
ARC
  5
2B9
330
1F
100
AcDbEntity
  8
0
  6
Continuous
 62
     7
370
    15
100
AcDbCircle
 10
10.9908911949
 20
0.808581599
 30
0.0
 40
0.0680768318037703
100
AcDbArc
 50
242.6097202081
 51
297.3903208647
  0
LINE
  5
2BA
330
1F
100
AcDbEntity
  8
0
  6
Continuous
 62
     7
370
    15
100
AcDbLine
 10
11.0222099276
 20
0.7240261877
 30
0.0
 11
11.0222099276
 21
0.7481366487
 31
0.0
  0
LINE
  5
2BB
330
1F
100
AcDbEntity
  8
0
  6
Continuous
 62
     7
370
    15
100
AcDbLine
 10
10.0116596906
 20
1.3315148829
 30
0.0
 11
10.9804516463
 21
1.8907865745
 31
0.0
  0
ARC
  5
2BC
330
1F
100
AcDbEntity
  8
0
  6
Continuous
 62
     7
370
    15
100
AcDbCircle
 10
10.0157768089
 20
1.3206669365
 30
0.0
 40
0.0116029567366374
100
AcDbArc
 50
110.7832430248
 51
249.2167569752
  0
LINE
  5
2BD
330
1F
100
AcDbEntity
  8
0
  6
Continuous
 62
     7
370
    15
100
AcDbLine
 10
10.9721000055
 20
0.7553685981
 30
0.0
 11
10.0116596906
 21
1.30981899
 31
0.0
  0
ARC
  5
2BE
330
1F
100
AcDbEntity
  8
0
  6
Continuous
 62
     7
370
    15
100
AcDbCircle
 10
10.990891236
 20
0.7916356452
 30
0.0
 40
0.0408461632068125
100
AcDbArc
 50
242.6097401334
 51
297.3902598666
  0
LINE
  5
2BF
330
1F
100
AcDbEntity
  8
0
  6
Continuous
 62
     7
370
    15
100
AcDbLine
 10
11.9784744221
 20
1.3146402896
 30
0.0
 11
11.0096824665
 21
0.7553685981
 31
0.0
  0
ARC
  5
2C0
330
1F
100
AcDbEntity
  8
0
  6
Continuous
 62
     7
370
    15
100
AcDbCircle
 10
11.9743572393
 20
1.3254882361
 30
0.0
 40
0.0116029796378479
100
AcDbArc
 50
290.7835409881
 51
69.2164590119
  0
LINE
  5
2C1
330
1F
100
AcDbEntity
  8
0
  6
Continuous
 62
     7
370
    15
100
AcDbLine
 10
11.0180341072
 20
1.8907865745
 30
0.0
 11
11.9784744221
 21
1.3363361825
 31
0.0
  0
ARC
  5
2C2
330
1F
100
AcDbEntity
  8
0
  6
Continuous
 62
     7
370
    15
100
AcDbCircle
 10
10.9992428767
 20
1.854519773
 30
0.0
 40
0.0408459451203728
100
AcDbArc
 50
62.6095816274
 51
117.3904183726
  0
ARC
  5
2C3
330
1F
100
AcDbEntity
  8
0
  6
Continuous
 62
     7
370
    15
100
AcDbCircle
 10
10.0059941521
 20
1.3206669365
 30
0.0
 40
0.0193383028750189
100
AcDbArc
 50
110.7835056568
 51
249.2164943432
  0
LINE
  5
2C4
330
1F
100
AcDbEntity
  8
0
  6
Continuous
 62
     7
370
    15
100
AcDbLine
 10
9.9991321907
 20
1.3387468547
 30
0.0
 11
10.9679241463
 21
1.8980185463
 31
0.0
  0
ARC
  5
2C5
330
1F
100
AcDbEntity
  8
0
  6
Continuous
 62
     7
370
    15
100
AcDbCircle
 10
10.9992428767
 20
1.8375734794
 30
0.0
 40
0.0680769343404186
100
AcDbArc
 50
62.6097259538
 51
117.3902740462
  0
LINE
  5
2C6
330
1F
100
AcDbEntity
  8
0
  6
Continuous
 62
     7
370
    15
100
AcDbLine
 10
11.0305616072
 20
1.8980185463
 30
0.0
 11
11.9910019221
 21
1.3435681543
 31
0.0
  0
ARC
  5
2C7
330
1F
100
AcDbEntity
  8
0
  6
Continuous
 62
     7
370
    15
100
AcDbCircle
 10
11.9841399586
 20
1.3254882547
 30
0.0
 40
0.0193382862064735
100
AcDbArc
 50
290.7834076425
 51
69.2164691126
  0
LINE
  5
2C8
330
1F
100
AcDbEntity
  8
0
  6
Continuous
 62
     7
370
    15
100
AcDbLine
 10
11.9910018832
 20
1.3074083403
 30
0.0
 11
11.0222099276
 21
0.7481366487
 31
0.0
  0
LINE
  5
2C9
330
1F
100
AcDbEntity
  8
0
  6
Continuous
 62
     7
370
    15
100
AcDbLine
 10
10.9595725056
 20
0.7481366263
 30
0.0
 11
9.9991321907
 21
1.3025870183
 31
0.0
  0
LINE
  5
2CA
330
1F
100
AcDbEntity
  8
0
  6
Continuous
 62
     7
370
    15
100
AcDbLine
 10
9.9875984188
 20
1.2718182525
 30
0.0
 11
9.9777503524
 21
1.0491389695
 31
0.0
  0
LINE
  5
2CB
330
1F
100
AcDbEntity
  8
0
  6
Continuous
 62
     7
370
    15
100
AcDbLine
 10
9.9777503524
 20
1.0491389695
 30
0.0
 11
10.9381906673
 21
0.4946885775
 31
0.0
  0
LINE
  5
2CC
330
1F
100
AcDbEntity
  8
0
  6
Continuous
 62
     7
370
    15
100
AcDbLine
 10
11.9910018832
 20
1.3074083403
 30
0.0
 11
11.9910018832
 21
1.2832978793
 31
0.0
  0
LINE
  5
2CD
330
1F
100
AcDbEntity
  8
0
  6
Continuous
 62
     7
370
    15
100
AcDbLine
 10
9.9991321907
 20
1.2784765573
 30
0.0
 11
9.9991321907
 21
1.3025870183
 31
0.0
  0
ARC
  5
2CE
330
1F
100
AcDbEntity
  8
0
  6
Continuous
 62
     7
370
    15
100
AcDbCircle
 10
12.0679686242
 20
0.9492334779
 30
0.0
 40
0.0453778282344467
100
AcDbArc
 50
2.605299749
 51
57.3946426286
  0
LINE
  5
2CF
330
1F
100
AcDbEntity
  8
0
  6
Continuous
 62
     7
370
    15
100
AcDbLine
 10
11.3467257402
 20
0.5087625048
 30
0.0
 11
12.1132995485
 21
0.9512961448
 31
0.0
  0
LINE
  5
2D0
330
1F
100
AcDbEntity
  8
0
  6
Continuous
 62
     7
370
    15
100
AcDbLine
 10
12.0025356939
 20
1.2766395521
 30
0.0
 11
12.0080068376
 21
1.1529288427
 31
0.0
  0
LINE
  5
2D1
330
1F
100
AcDbEntity
  8
0
  6
Continuous
 62
     7
370
    15
100
AcDbLine
 10
12.1132995485
 20
0.9512961448
 30
0.0
 11
12.1132995485
 21
0.878964773
 31
0.0
  0
LINE
  5
2D2
330
1F
100
AcDbEntity
  8
0
  6
Continuous
 62
     7
370
    15
100
AcDbLine
 10
11.3467257402
 20
0.436431133
 30
0.0
 11
12.1132995485
 21
0.878964773
 31
0.0
  0
LINE
  5
2D3
330
1F
100
AcDbEntity
  8
0
  6
Continuous
 62
     7
370
    15
100
AcDbLine
 10
11.6406789688
 20
1.4667634276
 30
0.0
 11
11.9413334452
 21
1.2931992928
 31
0.0
  0
LINE
  5
2D4
330
1F
100
AcDbEntity
  8
0
  6
Continuous
 62
     7
370
    15
100
AcDbLine
 10
11.6652873511
 20
1.4809695443
 30
0.0
 11
11.6406789688
 21
1.4667634276
 31
0.0
  0
LINE
  5
2D5
330
1F
100
AcDbEntity
  8
0
  6
Continuous
 62
     7
370
    15
100
AcDbLine
 10
11.9659418275
 20
1.3074054095
 30
0.0
 11
11.6652873511
 21
1.4809695443
 31
0.0
  0
LINE
  5
2D6
330
1F
100
AcDbEntity
  8
0
  6
Continuous
 62
     7
370
    15
100
AcDbLine
 10
10.9992428767
 20
1.6721266937
 30
0.0
 11
11.7984844855
 21
1.210734334
 31
0.0
  0
LINE
  5
2D7
330
1F
100
AcDbEntity
  8
0
  6
Continuous
 62
     7
370
    15
100
AcDbLine
 10
10.1916495884
 20
1.205913012
 30
0.0
 11
10.9992428767
 21
1.6721266937
 31
0.0
  0
LWPOLYLINE
  5
2D8
330
1F
100
AcDbEntity
  8
0
  6
Continuous
 62
     7
370
    15
100
AcDbPolyline
 90
       19
 70
   128
 43
0.0
 10
11.0836429909
 20
1.4683165532
 10
11.0830927303
 20
1.4619598547
 10
11.0799071768
 20
1.4529783018
 10
11.0739948018
 20
1.4444694426
 10
11.0655456045
 20
1.4367067638
 10
11.0548311761
 20
1.4299397739
 10
11.0421958719
 20
1.4243859443
 10
11.0280458051
 20
1.4202238162
 10
11.0128357993
 20
1.4175871302
 10
10.9970546682
 20
1.4165606609
 10
10.9812096595
 20
1.4171773664
 10
10.9658100434
 20
1.4194174674
 10
10.9513507783
 20
1.4232089188
 10
10.9382965854
 20
1.4284298904
 10
10.9270670339
 20
1.4349125725
 10
10.9180230464
 20
1.4424486089
 10
10.9114553483
 20
1.450795765
 10
10.9075749591
 20
1.4596857741
 10
10.9064911024
 20
1.468316542
  0
LWPOLYLINE
  5
2D9
330
1F
100
AcDbEntity
  8
0
  6
Continuous
 62
     7
370
    15
100
AcDbPolyline
 90
       11
 70
   128
 43
0.0
 10
10.4990271302
 20
1.1308250005
 10
10.4984769085
 20
1.1244683244
 10
10.4952913355
 20
1.1154867603
 10
10.4893789605
 20
1.1069779012
 10
10.4809297632
 20
1.0992152223
 10
10.4702153348
 20
1.0924482324
 10
10.4575800306
 20
1.0868944028
 10
10.4434299638
 20
1.0827322748
 10
10.4282199774
 20
1.0800955999
 10
10.4124388268
 20
1.0790691194
 10
10.4113908077
 20
1.0790591063
  0
LWPOLYLINE
  5
2DA
330
1F
100
AcDbEntity
  8
0
  6
Continuous
 62
     7
370
    15
100
AcDbPolyline
 90
       10
 70
   128
 43
0.0
 10
11.5708300955
 20
1.0793122521
 10
11.5658255008
 20
1.0796858249
 10
11.5504258847
 20
1.0819259259
 10
11.5359666197
 20
1.0857173773
 10
11.5229124267
 20
1.090938349
 10
11.5116828557
 20
1.0974210423
 10
11.5026389072
 20
1.1049570562
 10
11.4960711896
 20
1.1133042235
 10
11.4921908004
 20
1.1221942327
 10
11.4911069632
 20
1.1308249893
  0
LWPOLYLINE
  5
2DB
330
1F
100
AcDbEntity
  8
0
  6
Continuous
 62
     7
370
    15
100
AcDbPolyline
 90
       35
 70
   128
 43
0.0
 10
11.0558822481
 20
0.9483625219
 10
11.0660214872
 20
0.9413137051
 10
11.0737445031
 20
0.9333093528
 10
11.078788241
 20
0.9246220646
 10
11.080980922
 20
0.915547677
 10
11.0802479542
 20
0.9063952048
 10
11.0766142469
 20
0.8974763238
 10
11.0702034911
 20
0.8890947616
 10
11.0612341149
 20
0.8815359262
 10
11.0500114859
 20
0.8750572404
 10
11.0369177802
 20
0.8698793297
 10
11.0223989156
 20
0.8661784792
 10
11.0069492864
 20
0.8640807846
 10
10.9910950219
 20
0.8636576513
 10
10.9753760182
 20
0.8649234591
 10
10.9603275632
 20
0.867835147
 10
10.946462116
 20
0.8722935492
 10
10.9342518841
 20
0.8781468073
 10
10.9241126062
 20
0.8851956466
 10
10.9163896097
 20
0.8931999877
 10
10.9113458718
 20
0.9018872758
 10
10.9091531713
 20
0.9109616747
 10
10.9098861586
 20
0.9201141356
 10
10.9135198659
 20
0.9290330167
 10
10.9199306022
 20
0.9374145901
 10
10.9288999784
 20
0.9449734254
 10
10.9401226074
 20
0.9514521113
 10
10.9532163131
 20
0.9566300219
 10
10.9677351972
 20
0.9603308612
 10
10.9831848263
 20
0.9624285558
 10
10.9990390715
 20
0.9628517004
 10
11.0147580946
 20
0.9615858813
 10
11.0298065496
 20
0.9586741934
 10
11.0436719774
 20
0.9542158025
 10
11.0558822481
 20
0.9483625219
  0
LWPOLYLINE
  5
2DC
330
1F
100
AcDbEntity
  8
0
  6
Continuous
 62
     7
370
    15
100
AcDbPolyline
 90
       22
 70
   128
 43
0.0
 10
10.9723656855
 20
0.9001494365
 10
10.9666828806
 20
0.9045945141
 10
10.9635221781
 20
0.9098090647
 10
10.9631643279
 20
0.9153297679
 10
10.9656412006
 20
0.9206661038
 10
10.970732696
 20
0.9253438968
 10
10.9779863823
 20
0.928947501
 10
10.9867577673
 20
0.9311567432
 10
10.9962674871
 20
0.9317752897
 10
11.005670511
 20
0.9307482142
 10
11.0141314143
 20
0.9281667463
 10
11.020898348
 20
0.9242602786
 10
11.0253700273
 20
0.9193759255
 10
11.0271491669
 20
0.9139476753
 10
11.0260777163
 20
0.9084578198
 10
11.022250782
 20
0.903394207
 10
11.0160084801
 20
0.899206743
 10
11.0079054075
 20
0.8962674965
 10
10.998661601
 20
0.8948376283
 10
10.9890984264
 20
0.8950442109
 10
10.980065581
 20
0.8968688456
 10
10.9723656855
 20
0.9001494365
  0
LINE
  5
2DD
330
1F
100
AcDbEntity
  8
0
  6
Continuous
 62
     7
370
    15
100
AcDbLine
 10
10.9804516463
 20
1.8546208886
 30
0.0
 11
10.0241922464
 21
1.3025840875
 31
0.0
  0
ARC
  5
2DE
330
1F
100
AcDbEntity
  8
0
  6
Continuous
 62
     7
370
    15
100
AcDbCircle
 10
10.9992428767
 20
1.8183540871
 30
0.0
 40
0.0408459451203732
100
AcDbArc
 50
62.6095816274
 51
117.3904183726
  0
LINE
  5
2DF
330
1F
100
AcDbEntity
  8
0
  6
Continuous
 62
     7
370
    15
100
AcDbLine
 10
11.3312211588
 20
1.6738218521
 30
0.0
 11
11.0180341072
 21
1.8546208886
 31
0.0
  0
LINE
  5
2E0
330
1F
100
AcDbEntity
  8
0
  6
Continuous
 62
     7
370
    15
100
AcDbLine
 10
11.3066127765
 20
1.6596157354
 30
0.0
 11
11.3312211588
 21
1.6738218521
 31
0.0
  0
LINE
  5
2E1
330
1F
100
AcDbEntity
  8
0
  6
Continuous
 62
     7
370
    15
100
AcDbLine
 10
10.9992428767
 20
1.8370566016
 30
0.0
 11
11.3066127765
 21
1.6596157354
 31
0.0
  0
LINE
  5
2E2
330
1F
100
AcDbEntity
  8
0
  6
Continuous
 62
     7
370
    15
100
AcDbLine
 10
10.0488006286
 20
1.2883779708
 30
0.0
 11
10.9992428767
 21
1.8370566016
 31
0.0
  0
ARC
  5
2E3
330
1F
100
AcDbEntity
  8
0
  6
Continuous
 62
     7
370
    15
100
AcDbCircle
 10
12.0835001503
 20
0.945993027
 30
0.0
 40
0.0733538749533701
100
AcDbArc
 50
293.9689579629
 51
354.7108238925
  0
ARC
  5
2E4
330
1F
100
AcDbEntity
  8
0
  6
Continuous
 62
     7
370
    15
100
AcDbCircle
 10
12.0345636442
 20
1.1535128312
 30
0.0
 40
0.0172240367839986
100
AcDbArc
 50
110.4285146801
 51
152.0236937406
  0
LWPOLYLINE
  5
2E5
330
1F
100
AcDbEntity
  8
0
  6
Continuous
 62
     7
370
    15
100
AcDbPolyline
 90
       35
 70
   128
 43
0.0
 10
11.6404980894
 20
1.2858540634
 10
11.6506373285
 20
1.2788052466
 10
11.6583603444
 20
1.2708008943
 10
11.6634040823
 20
1.2621136061
 10
11.6655967633
 20
1.2530392184
 10
11.6648637955
 20
1.2438867463
 10
11.6612300882
 20
1.2349678652
 10
11.6548193324
 20
1.2265863031
 10
11.6458499562
 20
1.2190274677
 10
11.6346273272
 20
1.2125487819
 10
11.6215336216
 20
1.2073708712
 10
11.6070147569
 20
1.2036700207
 10
11.5915651277
 20
1.2015723261
 10
11.5757108632
 20
1.2011491928
 10
11.5599918595
 20
1.2024150006
 10
11.5449434045
 20
1.2053266885
 10
11.5310779573
 20
1.2097850907
 10
11.5188677254
 20
1.2156383488
 10
11.5087284475
 20
1.2226871881
 10
11.501005451
 20
1.2306915291
 10
11.4959617131
 20
1.2393788173
 10
11.4937690127
 20
1.2484532162
 10
11.4945019999
 20
1.2576056771
 10
11.4981357072
 20
1.2665245582
 10
11.5045464435
 20
1.2749061316
 10
11.5135158197
 20
1.2824649669
 10
11.5247384488
 20
1.2889436528
 10
11.5378321544
 20
1.2941215634
 10
11.5523510385
 20
1.2978224027
 10
11.5678006677
 20
1.2999200973
 10
11.5836549128
 20
1.3003432418
 10
11.5993739359
 20
1.2990774228
 10
11.6144223909
 20
1.2961657349
 10
11.6282878187
 20
1.2917073439
 10
11.6404980894
 20
1.2858540634
  0
LWPOLYLINE
  5
2E6
330
1F
100
AcDbEntity
  8
0
  6
Continuous
 62
     7
370
    15
100
AcDbPolyline
 90
       35
 70
   128
 43
0.0
 10
10.4712663874
 20
1.2858540746
 10
10.4814056458
 20
1.2788052466
 10
10.4891286617
 20
1.2708008943
 10
10.4941723802
 20
1.2621136173
 10
10.4963650807
 20
1.2530392184
 10
10.4956320934
 20
1.2438867575
 10
10.4919983861
 20
1.2349678765
 10
10.4855876692
 20
1.2265862919
 10
10.4766182736
 20
1.2190274677
 10
10.4653956446
 20
1.2125487819
 10
10.4523019584
 20
1.20737086
 10
10.4377830548
 20
1.2036700319
 10
10.4223334257
 20
1.2015723373
 10
10.4064791805
 20
1.2011491928
 10
10.3907601574
 20
1.2024150118
 10
10.3757117219
 20
1.2053266885
 10
10.3618462747
 20
1.2097850907
 10
10.3496360233
 20
1.21563836
 10
10.3394967649
 20
1.2226871881
 10
10.3317737684
 20
1.2306915291
 10
10.3267300305
 20
1.2393788173
 10
10.32453733
 20
1.2484532162
 10
10.3252703173
 20
1.2576056771
 10
10.3289040246
 20
1.2665245582
 10
10.3353147609
 20
1.2749061316
 10
10.3442841371
 20
1.2824649669
 10
10.3555067661
 20
1.2889436528
 10
10.3686004718
 20
1.2941215634
 10
10.3831193559
 20
1.2978224027
 10
10.398568985
 20
1.2999200973
 10
10.4144232302
 20
1.3003432418
 10
10.4301422533
 20
1.2990774228
 10
10.4451907083
 20
1.2961657349
 10
10.459056136
 20
1.2917073439
 10
10.4712663874
 20
1.2858540746
  0
LWPOLYLINE
  5
2E7
330
1F
100
AcDbEntity
  8
0
  6
Continuous
 62
     7
370
    15
100
AcDbPolyline
 90
       22
 70
   128
 43
0.0
 10
11.5569815462
 20
1.2376409892
 10
11.551298722
 20
1.2420860555
 10
11.5481380194
 20
1.2473006062
 10
11.5477801887
 20
1.2528213206
 10
11.550257042
 20
1.2581576453
 10
11.5553485373
 20
1.2628354383
 10
11.5626022236
 20
1.2664390425
 10
11.5713736087
 20
1.2686482846
 10
11.5808833284
 20
1.2692668311
 10
11.5902863523
 20
1.2682397557
 10
11.5987472556
 20
1.2656582877
 10
11.6055141894
 20
1.2617518201
 10
11.6099858686
 20
1.256867467
 10
11.6117650083
 20
1.2514392168
 10
11.6106935576
 20
1.2459493612
 10
11.6068666233
 20
1.2408857484
 10
11.6006243214
 20
1.2366982845
 10
11.5925212488
 20
1.233759038
 10
11.5832774618
 20
1.232329181
 10
11.5737142677
 20
1.2325357523
 10
11.5646814223
 20
1.2343603871
 10
11.5569815462
 20
1.2376409892
  0
LWPOLYLINE
  5
2E8
330
1F
100
AcDbEntity
  8
0
  6
Continuous
 62
     7
370
    15
100
AcDbPolyline
 90
       22
 70
   128
 43
0.0
 10
10.3877498247
 20
1.2376409892
 10
10.3820670393
 20
1.2420860555
 10
10.3789063174
 20
1.2473006174
 10
10.3785484866
 20
1.2528213094
 10
10.3810253593
 20
1.2581576453
 10
10.3861168547
 20
1.2628354383
 10
10.393370541
 20
1.2664390425
 10
10.402141926
 20
1.2686482846
 10
10.4116516263
 20
1.2692668424
 10
10.4210546696
 20
1.2682397557
 10
10.4295155536
 20
1.265658299
 10
10.4362824873
 20
1.2617518313
 10
10.440754186
 20
1.256867467
 10
10.4425333451
 20
1.2514392056
 10
10.4414618556
 20
1.2459493725
 10
10.4376349407
 20
1.2408857484
 10
10.4313926387
 20
1.2366982845
 10
10.4232895662
 20
1.233759038
 10
10.4140457792
 20
1.2323291586
 10
10.4044826045
 20
1.2325357411
 10
10.3954497397
 20
1.2343603871
 10
10.3877498247
 20
1.2376409892
  0
ARC
  5
2E9
330
1F
100
AcDbEntity
  8
0
  6
Continuous
 62
     7
370
    15
100
AcDbCircle
 10
9.6630912508
 20
1.1640180231
 30
0.0
 40
0.2985665802131361
100
AcDbArc
 50
356.6634388767
 51
0.7442302296
  0
LINE
  5
2EA
330
1F
100
AcDbEntity
  8
0
  6
Continuous
 62
     7
370
    15
100
AcDbLine
 10
9.9611517251
 20
1.1466411345
 30
0.0
 11
9.9559210798
 21
1.0795623602
 31
0.0
  0
ARC
  5
2EB
330
1F
100
AcDbEntity
  8
0
  6
Continuous
 62
     7
370
    15
100
AcDbCircle
 10
9.9932199101
 20
1.0832817488
 30
0.0
 40
0.037483817730188
100
AcDbArc
 50
185.6946314239
 51
245.6254655137
  0
LINE
  5
2EC
330
1F
100
AcDbEntity
  8
0
  6
Continuous
 62
     7
370
    15
100
AcDbLine
 10
10.9804516463
 20
1.8546208886
 30
0.0
 11
10.9804516463
 21
1.8907865745
 31
0.0
  0
LINE
  5
2ED
330
1F
100
AcDbEntity
  8
0
  6
Continuous
 62
     7
370
    15
100
AcDbLine
 10
10.9992428767
 20
1.8370566016
 30
0.0
 11
10.9992428767
 21
1.6721266937
 31
0.0
  0
LINE
  5
2EE
330
1F
100
AcDbEntity
  8
0
  6
Continuous
 62
     7
370
    15
100
AcDbLine
 10
11.6652873511
 20
1.4809695443
 30
0.0
 11
11.3312211588
 21
1.6738218521
 31
0.0
  0
LINE
  5
2EF
330
1F
100
AcDbEntity
  8
0
  6
Continuous
 62
     7
370
    15
100
AcDbLine
 10
11.0180341072
 20
1.8546208886
 30
0.0
 11
11.0180341072
 21
1.8907865745
 31
0.0
  0
LINE
  5
2F0
330
1F
100
AcDbEntity
  8
0
  6
Continuous
 62
     7
370
    15
100
AcDbLine
 10
11.3044242957
 20
1.610131436
 30
0.0
 11
11.3066127765
 21
1.6596157354
 31
0.0
  0
LINE
  5
2F1
330
1F
100
AcDbEntity
  8
0
  6
Continuous
 62
     7
370
    15
100
AcDbLine
 10
11.638490488
 20
1.4172791282
 30
0.0
 11
11.3044242957
 21
1.610131436
 31
0.0
  0
LINE
  5
2F2
330
1F
100
AcDbEntity
  8
0
  6
Continuous
 62
     7
370
    15
100
AcDbLine
 10
11.6406789688
 20
1.4667634276
 30
0.0
 11
11.638490488
 21
1.4172791282
 31
0.0
  0
LINE
  5
2F3
330
1F
100
AcDbEntity
  8
0
  6
Continuous
 62
     7
370
    15
100
AcDbLine
 10
9.9611499751
 20
1.1466433067
 30
0.0
 11
9.8533721272
 21
1.2544315714
 31
0.0
  0
ARC
  5
2F4
330
1F
100
AcDbEntity
  8
0
  6
Continuous
 62
     7
370
    15
100
AcDbCircle
 10
9.8907646095
 20
1.251466398
 30
0.0
 40
0.0375098652428193
100
AcDbArc
 50
108.3692707081
 51
175.4660096754
  0
LINE
  5
2F5
330
1F
100
AcDbEntity
  8
0
  6
Continuous
 62
     7
370
    15
100
AcDbLine
 10
9.8533721272
 20
1.2544315714
 30
0.0
 11
9.8533721272
 21
1.1821001997
 31
0.0
  0
LINE
  5
2F6
330
1F
100
AcDbEntity
  8
0
  6
Continuous
 62
     7
370
    15
100
AcDbLine
 10
9.8533721272
 20
1.1821001997
 30
0.0
 11
9.9559210798
 21
1.0795623602
 31
0.0
  0
LWPOLYLINE
  5
2F7
330
1F
100
AcDbEntity
  8
0
  6
Continuous
 62
     7
370
    15
100
AcDbPolyline
 90
       16
 70
   128
 43
0.0
 10
10.3116771274
 20
1.5191751996
 10
10.308798327
 20
1.5215348998
 10
10.3024928184
 20
1.5286789929
 10
10.2988980282
 20
1.5364238162
 10
10.2981711322
 20
1.544430843
 10
10.3003438989
 20
1.5523501272
 10
10.3053212788
 20
1.5598356089
 10
10.3128858502
 20
1.5665600739
 10
10.3227069389
 20
1.5722296677
 10
10.3343553159
 20
1.5765966018
 10
10.3473219556
 20
1.5794699821
 10
10.3610400446
 20
1.5807242936
 10
10.3749101246
 20
1.5803046654
 10
10.3883260058
 20
1.5782294373
 10
10.4007012789
 20
1.5745893446
 10
10.4047888423
 20
1.5729274485
  0
LWPOLYLINE
  5
2F8
330
1F
100
AcDbEntity
  8
0
  6
Continuous
 62
     7
370
    15
100
AcDbPolyline
 90
        9
 70
   128
 43
0.0
 10
9.897713666
 20
1.369369828
 10
9.8855268073
 20
1.3611219726
 10
9.8757748391
 20
1.3518627686
 10
9.8683521739
 20
1.3412491877
 10
9.864130424
 20
1.3300565067
 10
9.8631895868
 20
1.3186234433
 10
9.865601532
 20
1.3072534446
 10
9.870866012
 20
1.2968565604
 10
9.8789437475
 20
1.2870649543
  0
LINE
  5
2F9
330
1F
100
AcDbEntity
  8
0
  6
Continuous
 62
     7
370
    15
100
AcDbLine
 10
10.6642874744
 20
1.811903468
 30
0.0
 11
9.897713666
 21
1.369369828
 31
0.0
  0
ARC
  5
2FA
330
1F
100
AcDbEntity
  8
0
  6
Continuous
 62
     7
370
    15
100
AcDbCircle
 10
10.7485056106
 20
1.647162522
 30
0.0
 40
0.1850196578171222
100
AcDbArc
 50
71.6155803005
 51
117.0768252998
  0
ARC
  5
2FB
330
1F
100
AcDbEntity
  8
0
  6
Continuous
 62
     7
370
    15
100
AcDbCircle
 10
9.8937580549
 20
1.2267431647
 30
0.0
 40
0.0601998129817774
100
AcDbArc
 50
181.9307532878
 51
227.8661643628
  0
LINE
  5
2FC
330
1F
100
AcDbEntity
  8
0
  6
Continuous
 62
     7
370
    15
100
AcDbLine
 10
11.3475641205
 20
1.6350355267
 30
0.0
 11
11.3461583483
 21
1.6651987858
 31
0.0
  0
LINE
  5
2FD
330
1F
100
AcDbEntity
  8
0
  6
Continuous
 62
     7
370
    15
100
AcDbLine
 10
11.640638445
 20
1.4658473204
 30
0.0
 11
11.3475641205
 21
1.6350355267
 31
0.0
  0
LINE
  5
2FE
330
1F
100
AcDbEntity
  8
0
  6
Continuous
 62
     7
370
    15
100
AcDbLine
 10
11.3475641205
 20
1.6350355267
 30
0.0
 11
11.3044242957
 21
1.610131436
 31
0.0
  0
LWPOLYLINE
  5
2FF
330
1F
100
AcDbEntity
  8
0
  6
Continuous
 62
     7
370
    15
100
AcDbPolyline
 90
       35
 70
   128
 43
0.0
 10
11.0558822287
 20
1.6233456161
 10
11.0660214872
 20
1.616296788
 10
11.0737445031
 20
1.6082924357
 10
11.0787882216
 20
1.5996051588
 10
11.080980922
 20
1.5905307599
 10
11.0802479347
 20
1.581378299
 10
11.0766142274
 20
1.5724594179
 10
11.0702035105
 20
1.5640778333
 10
11.0612341149
 20
1.5565190092
 10
11.0500114859
 20
1.5500403234
 10
11.0369177997
 20
1.5448624015
 10
11.0223988961
 20
1.5411615734
 10
11.006949267
 20
1.5390638788
 10
10.9910950219
 20
1.5386407343
 10
10.9753759987
 20
1.5399065533
 10
10.9603275632
 20
1.54281823
 10
10.946462116
 20
1.5472766322
 10
10.9342518646
 20
1.5531299015
 10
10.9241126062
 20
1.5601787296
 10
10.9163896097
 20
1.5681830706
 10
10.9113458718
 20
1.5768703588
 10
10.9091531713
 20
1.5859447577
 10
10.9098861586
 20
1.5950972186
 10
10.9135198659
 20
1.6040160997
 10
10.9199306022
 20
1.612397673
 10
10.9288999784
 20
1.6199565084
 10
10.9401226074
 20
1.6264351942
 10
10.9532163131
 20
1.6316131049
 10
10.9677351972
 20
1.6353139442
 10
10.9831848263
 20
1.6374116388
 10
10.9990390715
 20
1.6378347833
 10
11.0147580946
 20
1.6365689643
 10
11.0298065496
 20
1.6336572764
 10
11.0436719774
 20
1.6291988854
 10
11.0558822287
 20
1.6233456161
  0
LWPOLYLINE
  5
300
330
1F
100
AcDbEntity
  8
0
  6
Continuous
 62
     7
370
    15
100
AcDbPolyline
 90
       22
 70
   128
 43
0.0
 10
10.9723656855
 20
1.5751325419
 10
10.9666828806
 20
1.579577597
 10
10.9635221587
 20
1.5847921589
 10
10.9631643473
 20
1.5903128621
 10
10.9656412006
 20
1.5956491868
 10
10.970732696
 20
1.6003269797
 10
10.9779863823
 20
1.6039305839
 10
10.9867577673
 20
1.6061398261
 10
10.9962674676
 20
1.6067583838
 10
11.005670511
 20
1.6057312972
 10
11.0141313949
 20
1.6031498404
 10
11.0208983286
 20
1.5992433728
 10
11.0253700273
 20
1.5943590084
 10
11.0271491864
 20
1.5889307471
 10
11.0260776969
 20
1.583440914
 10
11.022250782
 20
1.5783772899
 10
11.0160084801
 20
1.574189826
 10
11.0079054075
 20
1.5712505795
 10
10.9986616399
 20
1.5698207113
 10
10.9890984458
 20
1.5700272826
 10
10.980065581
 20
1.5718519285
 10
10.9723656855
 20
1.5751325419
  0
LINE
  5
301
330
1F
100
AcDbEntity
  8
0
  6
Continuous
 62
     8
370
    15
100
AcDbLine
 10
11.0075945563
 20
1.9728585593
 30
0.0
 11
11.0075945563
 21
1.9859672031
 31
0.0
  0
LINE
  5
302
330
1F
100
AcDbEntity
  8
0
  6
Continuous
 62
     8
370
    15
100
AcDbLine
 10
10.9741879157
 20
1.9859672031
 30
0.0
 11
10.9741879157
 21
1.9728585593
 31
0.0
  0
ARC
  5
303
330
1F
100
AcDbEntity
  8
0
  6
Continuous
 62
     8
370
    15
100
AcDbCircle
 10
10.0124185341
 20
2.9611170159
 30
0.0
 40
0.0161577569353668
100
AcDbArc
 50
180.7268949332
 51
247.5857541646
  0
ARC
  5
304
330
1F
100
AcDbEntity
  8
0
  6
Continuous
 62
     8
370
    15
100
AcDbCircle
 10
10.0185270414
 20
2.9735507403
 30
0.0
 40
0.0142479422449645
100
AcDbArc
 50
52.967628146
 51
115.6526600454
  0
ARC
  5
305
330
1F
100
AcDbEntity
  8
0
  6
Continuous
 62
     8
370
    15
100
AcDbCircle
 10
11.971650036
 20
2.9779232564
 30
0.0
 40
0.0146339831254926
100
AcDbArc
 50
65.1824399466
 51
126.1083761586
  0
ARC
  5
306
330
1F
100
AcDbEntity
  8
0
  6
Continuous
 62
     8
370
    15
100
AcDbCircle
 10
11.9772811034
 20
2.9662352189
 30
0.0
 40
0.0166004012599067
100
AcDbArc
 50
293.4098443105
 51
358.2005849125
  0
ARC
  5
307
330
1F
100
AcDbEntity
  8
0
  6
Continuous
 62
     8
370
    15
100
AcDbCircle
 10
10.9872755966
 20
3.5323727893
 30
0.0
 40
0.0146349339144309
100
AcDbArc
 50
53.8922274656
 51
114.7976892356
  0
ARC
  5
308
330
1F
100
AcDbEntity
  8
0
  6
Continuous
 62
     8
370
    15
100
AcDbCircle
 10
11.0111650752
 20
3.5328280639
 30
0.0
 40
0.0142424337713232
100
AcDbArc
 50
64.2694649621
 51
127.0406183367
  0
LINE
  5
309
330
1F
100
AcDbEntity
  8
0
  6
Continuous
 62
     8
370
    15
100
AcDbLine
 10
10.0137476008
 20
2.5273089513
 30
0.0
 11
10.0137476008
 21
2.5345467916
 31
0.0
  0
LINE
  5
30A
330
1F
100
AcDbEntity
  8
0
  6
Continuous
 62
     8
370
    15
100
AcDbLine
 10
11.9763865119
 20
2.5393680911
 30
0.0
 11
11.9763865119
 21
2.5321302508
 31
0.0
  0
ARC
  5
30B
330
1F
100
AcDbEntity
  8
0
  6
Continuous
 62
     8
370
    15
100
AcDbCircle
 10
12.1190618649
 20
1.0515398646
 30
0.0
 40
0.0198521047631989
100
AcDbArc
 50
49.1615482119
 51
113.3599982452
  0
ARC
  5
30C
330
1F
100
AcDbEntity
  8
0
  6
Continuous
 62
     8
370
    15
100
AcDbCircle
 10
12.0834491069
 20
1.0183834928
 30
0.0
 40
0.0734286125255798
100
AcDbArc
 50
293.9866200404
 51
354.5133384743
  0
LINE
  5
30D
330
1F
100
AcDbEntity
  8
0
  6
Continuous
 62
     8
370
    15
100
AcDbLine
 10
10.0116596906
 20
1.3098189945
 30
0.0
 11
10.0116596906
 21
1.3315148829
 31
0.0
  0
LINE
  5
30E
330
1F
100
AcDbEntity
  8
0
  6
Continuous
 62
     8
370
    15
100
AcDbLine
 10
11.9784744221
 20
1.3363361825
 30
0.0
 11
11.9784744221
 21
1.3146402941
 31
0.0
  0
LINE
  5
30F
330
1F
100
AcDbEntity
  8
0
  6
Continuous
 62
     8
370
    15
100
AcDbLine
 10
9.8789437475
 20
1.2870649543
 30
0.0
 11
9.9637507721
 21
1.2022671255
 31
0.0
  0
LINE
  5
310
330
1F
100
AcDbEntity
  8
0
  6
Continuous
 62
     8
370
    15
100
AcDbLine
 10
10.8262987571
 20
1.8162599428
 30
0.0
 11
10.8068591454
 21
1.8227391114
 31
0.0
  0
ARC
  5
311
330
1F
100
AcDbEntity
  8
0
  6
Continuous
 62
     8
370
    15
100
AcDbCircle
 10
9.8937190124
 20
1.2990469557
 30
0.0
 40
0.060153168313604
100
AcDbArc
 50
181.7155912264
 51
227.8761181552
  0
ARC
  5
312
330
1F
100
AcDbEntity
  8
0
  6
Continuous
 62
     8
370
    15
100
AcDbCircle
 10
9.8890575191
 20
1.3572772938
 30
0.0
 40
0.0148713907500696
100
AcDbArc
 50
54.4039388325
 51
114.0599240487
  0
ARC
  5
313
330
1F
100
AcDbEntity
  8
0
  6
Continuous
 62
     8
370
    15
100
AcDbCircle
 10
10.655638274
 20
1.7998302886
 30
0.0
 40
0.0148516103283612
100
AcDbArc
 50
54.3822680563
 51
114.307281855
  0
ARC
  5
314
330
1F
100
AcDbEntity
  8
0
  6
Continuous
 62
     8
370
    15
100
AcDbCircle
 10
10.8146334313
 20
1.8172585197
 30
0.0
 40
0.0095119086157194
100
AcDbArc
 50
80.5470345184
 51
144.8175415531
  0
LINE
  5
315
330
1F
100
AcDbEntity
  8
0
  6
Continuous
 62
     7
370
    15
100
AcDbLine
 10
2.9702065212
 20
2.602492799
 30
0.0
 11
2.9667704542
 21
2.7993431929
 31
0.0
  0
LINE
  5
316
330
1F
100
AcDbEntity
  8
0
  6
Continuous
 62
     7
370
    15
100
AcDbLine
 10
2.737422077
 20
2.7993431929
 30
0.0
 11
2.7339860467
 21
2.602492799
 31
0.0
  0
LINE
  5
317
330
1F
100
AcDbEntity
  8
0
  6
Continuous
 62
     7
370
    15
100
AcDbLine
 10
4.0725686866
 20
2.602492799
 30
0.0
 11
4.069132693
 21
2.7993431929
 31
0.0
  0
LINE
  5
318
330
1F
100
AcDbEntity
  8
0
  6
Continuous
 62
     7
370
    15
100
AcDbLine
 10
3.8397842791
 20
2.7993431929
 30
0.0
 11
3.8363482488
 21
2.602492799
 31
0.0
  0
LINE
  5
319
330
1F
100
AcDbEntity
  8
0
  6
Continuous
 62
     7
370
    15
100
AcDbLine
 10
4.3678442889
 20
2.9174534347
 30
0.0
 11
4.3442222818
 21
2.9174534347
 31
0.0
  0
LINE
  5
31A
330
1F
100
AcDbEntity
  8
0
  6
Continuous
 62
     7
370
    15
100
AcDbLine
 10
4.3999091385
 20
2.6812329556
 30
0.0
 11
4.389592651
 21
2.8780833495
 31
0.0
  0
LINE
  5
31B
330
1F
100
AcDbEntity
  8
0
  6
Continuous
 62
     7
370
    15
100
AcDbLine
 10
4.5036710865
 20
2.6812329556
 30
0.0
 11
4.5036710865
 21
2.5237526378
 31
0.0
  0
LINE
  5
31C
330
1F
100
AcDbEntity
  8
0
  6
Continuous
 62
     7
370
    15
100
AcDbLine
 10
2.3028836835
 20
2.5237526378
 30
0.0
 11
2.3028836835
 21
2.6812329556
 31
0.0
  0
LINE
  5
31D
330
1F
100
AcDbEntity
  8
0
  6
Continuous
 62
     7
370
    15
100
AcDbLine
 10
2.4623324882
 20
2.9174534347
 30
0.0
 11
2.4387104078
 21
2.9174534347
 31
0.0
  0
LINE
  5
31E
330
1F
100
AcDbEntity
  8
0
  6
Continuous
 62
     7
370
    15
100
AcDbLine
 10
2.5087344988
 20
2.8583983161
 30
0.0
 11
2.4623324882
 21
2.8583983161
 31
0.0
  0
LINE
  5
31F
330
1F
100
AcDbEntity
  8
0
  6
Continuous
 62
     7
370
    15
100
AcDbLine
 10
2.5221459839
 20
2.602492799
 30
0.0
 11
2.5087344988
 21
2.8583983161
 31
0.0
  0
LINE
  5
320
330
1F
100
AcDbEntity
  8
0
  6
Continuous
 62
     7
370
    15
100
AcDbLine
 10
4.2844087861
 20
2.602492799
 30
0.0
 11
2.5221459839
 21
2.602492799
 31
0.0
  0
LINE
  5
321
330
1F
100
AcDbEntity
  8
0
  6
Continuous
 62
     7
370
    15
100
AcDbLine
 10
2.4387104078
 20
2.8780833495
 30
0.0
 11
2.416962119
 21
2.8780833495
 31
0.0
  0
LINE
  5
322
330
1F
100
AcDbEntity
  8
0
  6
Continuous
 62
     7
370
    15
100
AcDbLine
 10
4.389592651
 20
2.8780833495
 30
0.0
 11
4.3678442889
 21
2.8780833495
 31
0.0
  0
LINE
  5
323
330
1F
100
AcDbEntity
  8
0
  6
Continuous
 62
     7
370
    15
100
AcDbLine
 10
4.5036710865
 20
2.5237526378
 30
0.0
 11
2.3028836835
 21
2.5237526378
 31
0.0
  0
LINE
  5
324
330
1F
100
AcDbEntity
  8
0
  6
Continuous
 62
     7
370
    15
100
AcDbLine
 10
4.2978201978
 20
2.8583983161
 30
0.0
 11
4.2844087861
 21
2.602492799
 31
0.0
  0
LINE
  5
325
330
1F
100
AcDbEntity
  8
0
  6
Continuous
 62
     7
370
    15
100
AcDbLine
 10
4.3442222818
 20
2.8583983161
 30
0.0
 11
4.3442222818
 21
2.9174534347
 31
0.0
  0
LINE
  5
326
330
1F
100
AcDbEntity
  8
0
  6
Continuous
 62
     7
370
    15
100
AcDbLine
 10
4.3442222818
 20
2.8583983161
 30
0.0
 11
4.2978201978
 21
2.8583983161
 31
0.0
  0
LINE
  5
327
330
1F
100
AcDbEntity
  8
0
  6
Continuous
 62
     7
370
    15
100
AcDbLine
 10
2.4387104078
 20
2.9174534347
 30
0.0
 11
2.4387104078
 21
2.8780833495
 31
0.0
  0
LINE
  5
328
330
1F
100
AcDbEntity
  8
0
  6
Continuous
 62
     7
370
    15
100
AcDbLine
 10
2.4623324882
 20
2.9174534347
 30
0.0
 11
2.4623324882
 21
2.8583983161
 31
0.0
  0
LINE
  5
329
330
1F
100
AcDbEntity
  8
0
  6
Continuous
 62
     7
370
    15
100
AcDbLine
 10
2.416962119
 20
2.8780833495
 30
0.0
 11
2.4066456315
 21
2.6812329556
 31
0.0
  0
LINE
  5
32A
330
1F
100
AcDbEntity
  8
0
  6
Continuous
 62
     7
370
    15
100
AcDbLine
 10
4.3678442889
 20
2.8780833495
 30
0.0
 11
4.3678442889
 21
2.9174534347
 31
0.0
  0
LINE
  5
32B
330
1F
100
AcDbEntity
  8
0
  6
Continuous
 62
     7
370
    15
100
AcDbLine
 10
4.5036710865
 20
2.6812329556
 30
0.0
 11
4.3999091385
 21
2.6812329556
 31
0.0
  0
LINE
  5
32C
330
1F
100
AcDbEntity
  8
0
  6
Continuous
 62
     7
370
    15
100
AcDbLine
 10
2.4066456315
 20
2.6812329556
 30
0.0
 11
2.3028836835
 21
2.6812329556
 31
0.0
  0
LINE
  5
32D
330
1F
100
AcDbEntity
  8
0
  6
Continuous
 62
     7
370
    15
100
AcDbLine
 10
2.1257183368
 20
2.6812329556
 30
0.0
 11
2.1257183368
 21
2.5237526378
 31
0.0
  0
LINE
  5
32E
330
1F
100
AcDbEntity
  8
0
  6
Continuous
 62
     7
370
    15
100
AcDbLine
 10
2.1257183368
 20
2.5237526378
 30
0.0
 11
2.3028836835
 21
2.5237526378
 31
0.0
  0
LINE
  5
32F
330
1F
100
AcDbEntity
  8
0
  6
Continuous
 62
     7
370
    15
100
AcDbLine
 10
2.1257183368
 20
2.6812329556
 30
0.0
 11
2.3028836835
 21
2.6812329556
 31
0.0
  0
LINE
  5
330
330
1F
100
AcDbEntity
  8
0
  6
Continuous
 62
     7
370
    15
100
AcDbLine
 10
4.6808364332
 20
2.5237526378
 30
0.0
 11
4.6808364332
 21
2.6812329556
 31
0.0
  0
LINE
  5
331
330
1F
100
AcDbEntity
  8
0
  6
Continuous
 62
     7
370
    15
100
AcDbLine
 10
4.5036710865
 20
2.5237526378
 30
0.0
 11
4.6808364332
 21
2.5237526378
 31
0.0
  0
LINE
  5
332
330
1F
100
AcDbEntity
  8
0
  6
Continuous
 62
     7
370
    15
100
AcDbLine
 10
4.5036710865
 20
2.6812329556
 30
0.0
 11
4.6808364332
 21
2.6812329556
 31
0.0
  0
LINE
  5
333
330
1F
100
AcDbEntity
  8
0
  6
Continuous
 62
     7
370
    15
100
AcDbLine
 10
2.1257183368
 20
2.5237526378
 30
0.0
 11
2.0174505475
 21
2.5237526378
 31
0.0
  0
LINE
  5
334
330
1F
100
AcDbEntity
  8
0
  6
Continuous
 62
     7
370
    15
100
AcDbLine
 10
2.0174505475
 20
2.641862875
 30
0.0
 11
2.0174505475
 21
2.5237526378
 31
0.0
  0
ARC
  5
335
330
1F
100
AcDbEntity
  8
0
  6
Continuous
 62
     7
370
    15
100
AcDbCircle
 10
2.0568206804
 20
2.641862879
 30
0.0
 40
0.0393700787401579
100
AcDbArc
 50
90.0
 51
180.0
  0
LINE
  5
336
330
1F
100
AcDbEntity
  8
0
  6
Continuous
 62
     7
370
    15
100
AcDbLine
 10
2.1257183368
 20
2.6812329556
 30
0.0
 11
2.0568207061
 21
2.6812329556
 31
0.0
  0
LINE
  5
337
330
1F
100
AcDbEntity
  8
0
  6
Continuous
 62
     7
370
    15
100
AcDbLine
 10
4.7891040758
 20
2.5237526378
 30
0.0
 11
4.6808364332
 21
2.5237526378
 31
0.0
  0
ARC
  5
338
330
1F
100
AcDbEntity
  8
0
  6
Continuous
 62
     7
370
    15
100
AcDbCircle
 10
4.7497340662
 20
2.641862879
 30
0.0
 40
0.0393700787401574
100
AcDbArc
 50
0.0
 51
90.0
  0
LINE
  5
339
330
1F
100
AcDbEntity
  8
0
  6
Continuous
 62
     7
370
    15
100
AcDbLine
 10
4.749734064
 20
2.6812329556
 30
0.0
 11
4.6808364332
 21
2.6812329556
 31
0.0
  0
LINE
  5
33A
330
1F
100
AcDbEntity
  8
0
  6
Continuous
 62
     7
370
    15
100
AcDbLine
 10
4.7891040758
 20
2.641862875
 30
0.0
 11
4.7891040758
 21
2.5237526378
 31
0.0
  0
LINE
  5
33B
330
1F
100
AcDbEntity
  8
0
  6
Continuous
 62
     7
370
    15
100
AcDbLine
 10
2.9667704542
 20
2.7993431929
 30
0.0
 11
2.737422077
 21
2.7993431929
 31
0.0
  0
LINE
  5
33C
330
1F
100
AcDbEntity
  8
0
  6
Continuous
 62
     7
370
    15
100
AcDbLine
 10
4.069132693
 20
2.7993431929
 30
0.0
 11
3.8397842791
 21
2.7993431929
 31
0.0
  0
LINE
  5
33D
330
1F
100
AcDbEntity
  8
0
  6
Continuous
 62
     7
370
    15
100
AcDbLine
 10
3.0883167401
 20
2.7796581549
 30
0.0
 11
3.0883167401
 21
2.8583983161
 31
0.0
  0
LINE
  5
33E
330
1F
100
AcDbEntity
  8
0
  6
Continuous
 62
     7
370
    15
100
AcDbLine
 10
3.7182379932
 20
2.7796581549
 30
0.0
 11
3.0883167401
 21
2.7796581549
 31
0.0
  0
LINE
  5
33F
330
1F
100
AcDbEntity
  8
0
  6
Continuous
 62
     7
370
    15
100
AcDbLine
 10
3.7182379932
 20
2.8583983161
 30
0.0
 11
3.7182379932
 21
2.7796581549
 31
0.0
  0
LINE
  5
340
330
1F
100
AcDbEntity
  8
0
  6
Continuous
 62
     7
370
    15
100
AcDbLine
 10
2.5087344988
 20
2.8583983161
 30
0.0
 11
3.0883167401
 21
2.8583983161
 31
0.0
  0
LINE
  5
341
330
1F
100
AcDbEntity
  8
0
  6
Continuous
 62
     7
370
    15
100
AcDbLine
 10
3.7182379932
 20
2.8583983161
 30
0.0
 11
4.2978201978
 21
2.8583983161
 31
0.0
  0
LINE
  5
342
330
1F
100
AcDbEntity
  8
0
  6
Continuous
 62
     7
370
    15
100
AcDbLine
 10
4.3087891978
 20
2.9174534347
 30
0.0
 11
4.3442222818
 21
2.9174534347
 31
0.0
  0
LINE
  5
343
330
1F
100
AcDbEntity
  8
0
  6
Continuous
 62
     7
370
    15
100
AcDbLine
 10
2.4623324882
 20
2.9174534347
 30
0.0
 11
2.4977655722
 21
2.9174534347
 31
0.0
  0
LINE
  5
344
330
1F
100
AcDbEntity
  8
0
  6
Continuous
 62
     7
370
    15
100
AcDbLine
 10
3.7182379932
 20
2.8583983161
 30
0.0
 11
3.0883167401
 21
2.8583983161
 31
0.0
  0
LINE
  5
345
330
1F
100
AcDbEntity
  8
0
  6
Continuous
 62
     7
370
    15
100
AcDbLine
 10
2.4977655722
 20
2.9174534347
 30
0.0
 11
4.3087891978
 21
2.9174534347
 31
0.0
  0
HATCH
  5
346
330
1F
100
AcDbEntity
  8
0
  6
Continuous
 62
     7
370
     0
100
AcDbHatch
 10
0.0
 20
0.0
 30
0.0
210
0.0
220
0.0
230
1.0
  2
ANSI31
 70
     0
 71
     0
 91
        1
 92
        0
 93
        5
 72
     1
 10
2.125718318213899
 20
2.681232957782102
 11
2.056820680418624
 21
2.681232957782102
 72
     2
 10
2.056820680418624
 20
2.641862879041945
 40
0.0393700787401575
 50
90.0
 51
180.0
 73
     1
 72
     1
 10
2.017450601678466
 20
2.641862879041945
 11
2.017450601678467
 21
2.523752642821472
 72
     1
 10
2.017450601678467
 20
2.523752642821472
 11
2.125718318213899
 21
2.523752642821472
 72
     1
 10
2.125718318213899
 20
2.523752642821472
 11
2.125718318213899
 21
2.681232957782102
 97
        0
 75
     0
 76
     1
 52
0.0
 41
0.75
 77
     0
 78
     1
 53
45.0
 43
0.0
 44
0.0
 45
-0.0662912607362388
 46
0.0662912607362388
 79
     0
 98
        1
 10
0.0
 20
0.0
  0
HATCH
  5
347
330
1F
100
AcDbEntity
  8
0
  6
Continuous
 62
     7
370
     0
100
AcDbHatch
 10
0.0
 20
0.0
 30
0.0
210
0.0
220
0.0
230
1.0
  2
ANSI31
 70
     0
 71
     0
 91
        1
 92
        0
 93
       20
 72
     1
 10
4.297820221012144
 20
2.85839831211281
 11
4.28440878143184
 21
2.602492800301787
 72
     1
 10
4.28440878143184
 20
2.602492800301787
 11
2.52214596523218
 21
2.602492800301787
 72
     1
 10
2.52214596523218
 20
2.602492800301787
 11
2.508734525651874
 21
2.85839831211281
 72
     1
 10
2.508734525651874
 20
2.85839831211281
 11
2.462332491442246
 21
2.85839831211281
 72
     1
 10
2.462332491442246
 20
2.85839831211281
 11
2.462332491442246
 21
2.917453430223047
 72
     1
 10
2.462332491442246
 20
2.917453430223047
 11
2.438710444198152
 21
2.917453430223047
 72
     1
 10
2.438710444198152
 20
2.917453430223047
 11
2.438710444198152
 21
2.87808335148289
 72
     1
 10
2.438710444198152
 20
2.87808335148289
 11
2.416962106431242
 21
2.878083351485557
 72
     1
 10
2.416962106431242
 20
2.878083351485557
 11
2.406645614446333
 21
2.681232957782102
 72
     1
 10
2.406645614446333
 20
2.681232957782102
 11
2.302883672544608
 21
2.681232957782102
 72
     1
 10
2.302883672544608
 20
2.681232957782102
 11
2.302883672544608
 21
2.523752642821472
 72
     1
 10
2.302883672544608
 20
2.523752642821472
 11
4.503671074119412
 21
2.523752642821472
 72
     1
 10
4.503671074119412
 20
2.523752642821472
 11
4.503671074119412
 21
2.681232957782102
 72
     1
 10
4.503671074119412
 20
2.681232957782102
 11
4.399909132217687
 21
2.681232957782102
 72
     1
 10
4.399909132217687
 20
2.681232957782102
 11
4.389592640232777
 21
2.878083351485557
 72
     1
 10
4.389592640232777
 20
2.878083351485557
 11
4.367844302465868
 21
2.87808335148289
 72
     1
 10
4.367844302465868
 20
2.87808335148289
 11
4.367844302465868
 21
2.917453430223047
 72
     1
 10
4.367844302465868
 20
2.917453430223047
 11
4.344222255221774
 21
2.917453430223047
 72
     1
 10
4.344222255221774
 20
2.917453430223047
 11
4.344222255221774
 21
2.85839831211281
 72
     1
 10
4.344222255221774
 20
2.85839831211281
 11
4.297820221012144
 21
2.85839831211281
 97
        0
 75
     0
 76
     1
 52
0.0
 41
0.75
 77
     0
 78
     1
 53
45.0
 43
0.0
 44
0.0
 45
-0.0662912607362388
 46
0.0662912607362388
 79
     0
 98
        1
 10
0.0
 20
0.0
  0
HATCH
  5
348
330
1F
100
AcDbEntity
  8
0
  6
Continuous
 62
     7
370
     0
100
AcDbHatch
 10
0.0
 20
0.0
 30
0.0
210
0.0
220
0.0
230
1.0
  2
ANSI31
 70
     0
 71
     0
 91
        1
 92
        0
 93
        5
 72
     1
 10
4.789104144985553
 20
2.523752642821472
 11
4.789104144985553
 21
2.641862879041945
 72
     2
 10
4.749734066245396
 20
2.641862879041945
 40
0.0393700787401575
 50
0.0
 51
90.0
 73
     1
 72
     1
 10
4.749734066245396
 20
2.681232957782102
 11
4.68083642845012
 21
2.681232957782102
 72
     1
 10
4.68083642845012
 20
2.681232957782102
 11
4.68083642845012
 21
2.523752642821472
 72
     1
 10
4.68083642845012
 20
2.523752642821472
 11
4.789104144985553
 21
2.523752642821472
 97
        0
 75
     0
 76
     1
 52
0.0
 41
0.75
 77
     0
 78
     1
 53
45.0
 43
0.0
 44
0.0
 45
-0.0662912607362388
 46
0.0662912607362388
 79
     0
 98
        1
 10
0.0
 20
0.0
  0
DIMENSION
  5
349
330
1F
100
AcDbEntity
  8
0
  6
Continuous
 62
     7
370
     0
100
AcDbDimension
  2
*D24
 10
4.179212451
 20
2.5237526428
 30
0.0
 11
4.179212451
 21
2.2879235733
 31
0.0
 70
   160
 71
     2
 42
-1.0
  3
SLDDIMSTYLE5
100
AcDbAlignedDimension
 13
4.2844087814
 23
2.6024928003
 33
0.0
 14
4.5036710741
 24
2.5237526428
 34
0.0
 50
90.0
100
AcDbRotatedDimension
  0
DIMENSION
  5
35D
330
1F
100
AcDbEntity
  8
0
  6
Continuous
 62
     7
370
     0
100
AcDbDimension
  2
*D25
 10
1.813500518
 20
2.5237526428
 30
0.0
 11
1.813500518
 21
2.2879235733
 31
0.0
 70
   160
 71
     2
 42
-1.0
  3
SLDDIMSTYLE5
100
AcDbAlignedDimension
 13
2.0568206804
 23
2.6812329578
 33
0.0
 14
2.0174506017
 24
2.5237526428
 34
0.0
 50
90.0
100
AcDbRotatedDimension
  0
DIMENSION
  5
372
330
1F
100
AcDbEntity
  8
0
  6
Continuous
 62
     7
370
     0
100
AcDbDimension
  2
*D26
 10
1.3225212828
 20
2.5237526428
 30
0.0
 11
1.3225212828
 21
2.7206030365
 31
0.0
 70
   160
 71
     2
 42
-1.0
  3
SLDDIMSTYLE5
100
AcDbAlignedDimension
 13
2.4387104442
 23
2.9174534302
 33
0.0
 14
2.0174506017
 24
2.5237526428
 34
0.0
 50
90.0
100
AcDbRotatedDimension
  0
DIMENSION
  5
386
330
1F
100
AcDbEntity
  8
0
  6
Continuous
 62
     7
370
     0
100
AcDbDimension
  2
*D27
 10
2.6510988962
 20
2.799343194
 30
0.0
 11
2.6510988962
 21
3.1334321932
 31
0.0
 70
   160
 71
     2
 42
-1.0
  3
SLDDIMSTYLE6
100
AcDbAlignedDimension
 13
2.5221459652
 23
2.6024928003
 33
0.0
 14
2.7374220712
 24
2.799343194
 34
0.0
 50
90.0
100
AcDbRotatedDimension
  0
MTEXT
  5
39B
330
1F
100
AcDbEntity
  8
0
  6
Continuous
 62
     7
370
     0
100
AcDbMText
 10
3.4649961162
 20
2.3253159349
 30
0.0
 40
0.09375
 41
0.0
 71
     2
 72
     1
  1
\LSECTION A-A
  7
SLDTEXTSTYLE0
 73
     1
 44
1.0
  0
LINE
  5
39C
330
1F
100
AcDbEntity
  8
0
  6
Continuous
 62
     7
370
    15
100
AcDbLine
 10
7.8589920394
 20
4.3482705989
 30
0.0
 11
7.30781092
 21
4.3482705989
 31
0.0
  0
LINE
  5
39D
330
1F
100
AcDbEntity
  8
0
  6
Continuous
 62
     7
370
    15
100
AcDbLine
 10
7.30781092
 20
4.3482705989
 30
0.0
 11
7.30781092
 21
4.3800668315
 31
0.0
  0
LINE
  5
39E
330
1F
100
AcDbEntity
  8
0
  6
Continuous
 62
     7
370
    15
100
AcDbLine
 10
7.30781092
 20
4.3800668315
 30
0.0
 11
7.8589920394
 21
4.3800668315
 31
0.0
  0
LINE
  5
39F
330
1F
100
AcDbEntity
  8
0
  6
Continuous
 62
     7
370
    15
100
AcDbLine
 10
7.8589920394
 20
4.3482705989
 30
0.0
 11
7.8589920394
 21
4.3800668315
 31
0.0
  0
LINE
  5
3A0
330
1F
100
AcDbEntity
  8
0
  6
Continuous
 62
     7
370
    15
100
AcDbLine
 10
7.8589920394
 20
4.3282217905
 30
0.0
 11
7.30781092
 21
4.3282217905
 31
0.0
  0
LINE
  5
3A1
330
1F
100
AcDbEntity
  8
0
  6
Continuous
 62
     7
370
    15
100
AcDbLine
 10
7.8589920394
 20
4.3282217905
 30
0.0
 11
7.8589920394
 21
4.3482705989
 31
0.0
  0
LINE
  5
3A2
330
1F
100
AcDbEntity
  8
0
  6
Continuous
 62
     7
370
    15
100
AcDbLine
 10
7.30781092
 20
4.3482705989
 30
0.0
 11
7.30781092
 21
4.3282217905
 31
0.0
  0
LINE
  5
3A3
330
1F
100
AcDbEntity
  8
0
  6
Continuous
 62
     7
370
    15
100
AcDbLine
 10
7.8589920394
 20
6.2360918173
 30
0.0
 11
7.8589920394
 21
6.2042955846
 31
0.0
  0
LINE
  5
3A4
330
1F
100
AcDbEntity
  8
0
  6
Continuous
 62
     7
370
    15
100
AcDbLine
 10
7.8589920394
 20
6.2042955846
 30
0.0
 11
7.30781092
 21
6.2042955846
 31
0.0
  0
LINE
  5
3A5
330
1F
100
AcDbEntity
  8
0
  6
Continuous
 62
     7
370
    15
100
AcDbLine
 10
7.30781092
 20
6.2042955846
 30
0.0
 11
7.30781092
 21
6.2360918173
 31
0.0
  0
LINE
  5
3A6
330
1F
100
AcDbEntity
  8
0
  6
Continuous
 62
     7
370
    15
100
AcDbLine
 10
7.8589920394
 20
6.2360918173
 30
0.0
 11
7.30781092
 21
6.2360918173
 31
0.0
  0
LINE
  5
3A7
330
1F
100
AcDbEntity
  8
0
  6
Continuous
 62
     7
370
    15
100
AcDbLine
 10
7.8983621245
 20
6.1976930208
 30
0.0
 11
7.8589920394
 21
6.1976930208
 31
0.0
  0
LINE
  5
3A8
330
1F
100
AcDbEntity
  8
0
  6
Continuous
 62
     7
370
    15
100
AcDbLine
 10
7.8983621245
 20
6.2007879451
 30
0.0
 11
7.8983621245
 21
6.1976930208
 31
0.0
  0
LINE
  5
3A9
330
1F
100
AcDbEntity
  8
0
  6
Continuous
 62
     7
370
    15
100
AcDbLine
 10
8.4841342143
 20
6.2007879451
 30
0.0
 11
7.8983621245
 21
6.2007879451
 31
0.0
  0
LINE
  5
3AA
330
1F
100
AcDbEntity
  8
0
  6
Continuous
 62
     7
370
    15
100
AcDbLine
 10
8.4500898276
 20
6.1667435584
 30
0.0
 11
8.4841342143
 21
6.2007879451
 31
0.0
  0
LINE
  5
3AB
330
1F
100
AcDbEntity
  8
0
  6
Continuous
 62
     7
370
    15
100
AcDbLine
 10
6.7167131317
 20
6.1667435584
 30
0.0
 11
8.4500898276
 21
6.1667435584
 31
0.0
  0
LINE
  5
3AC
330
1F
100
AcDbEntity
  8
0
  6
Continuous
 62
     7
370
    15
100
AcDbLine
 10
6.7167131317
 20
6.1667435584
 30
0.0
 11
6.682668745
 21
6.2007879451
 31
0.0
  0
LINE
  5
3AD
330
1F
100
AcDbEntity
  8
0
  6
Continuous
 62
     7
370
    15
100
AcDbLine
 10
7.2684408348
 20
6.2007879451
 30
0.0
 11
6.682668745
 21
6.2007879451
 31
0.0
  0
LINE
  5
3AE
330
1F
100
AcDbEntity
  8
0
  6
Continuous
 62
     7
370
    15
100
AcDbLine
 10
7.2684408348
 20
6.1976930208
 30
0.0
 11
7.2684408348
 21
6.2007879451
 31
0.0
  0
LINE
  5
3AF
330
1F
100
AcDbEntity
  8
0
  6
Continuous
 62
     7
370
    15
100
AcDbLine
 10
7.30781092
 20
6.1976930208
 30
0.0
 11
7.2684408348
 21
6.1976930208
 31
0.0
  0
LINE
  5
3B0
330
1F
100
AcDbEntity
  8
0
  6
Continuous
 62
     7
370
    15
100
AcDbLine
 10
7.8589920394
 20
6.1976930208
 30
0.0
 11
7.8589920394
 21
6.2042955846
 31
0.0
  0
LINE
  5
3B1
330
1F
100
AcDbEntity
  8
0
  6
Continuous
 62
     7
370
    15
100
AcDbLine
 10
7.30781092
 20
6.2042955846
 30
0.0
 11
7.30781092
 21
6.1976930208
 31
0.0
  0
LINE
  5
3B2
330
1F
100
AcDbEntity
  8
0
  6
Continuous
 62
     7
370
    15
100
AcDbLine
 10
6.7167131317
 20
4.4176188577
 30
0.0
 11
6.682668745
 21
4.383574471
 31
0.0
  0
LINE
  5
3B3
330
1F
100
AcDbEntity
  8
0
  6
Continuous
 62
     7
370
    15
100
AcDbLine
 10
8.4500898276
 20
4.4176188577
 30
0.0
 11
6.7167131317
 21
4.4176188577
 31
0.0
  0
LINE
  5
3B4
330
1F
100
AcDbEntity
  8
0
  6
Continuous
 62
     7
370
    15
100
AcDbLine
 10
8.4841342143
 20
4.383574471
 30
0.0
 11
8.4500898276
 21
4.4176188577
 31
0.0
  0
LINE
  5
3B5
330
1F
100
AcDbEntity
  8
0
  6
Continuous
 62
     7
370
    15
100
AcDbLine
 10
7.8983621245
 20
4.383574471
 30
0.0
 11
8.4841342143
 21
4.383574471
 31
0.0
  0
LINE
  5
3B6
330
1F
100
AcDbEntity
  8
0
  6
Continuous
 62
     7
370
    15
100
AcDbLine
 10
7.8983621245
 20
4.3866693953
 30
0.0
 11
7.8983621245
 21
4.383574471
 31
0.0
  0
LINE
  5
3B7
330
1F
100
AcDbEntity
  8
0
  6
Continuous
 62
     7
370
    15
100
AcDbLine
 10
7.8589920394
 20
4.3866693953
 30
0.0
 11
7.8983621245
 21
4.3866693953
 31
0.0
  0
LINE
  5
3B8
330
1F
100
AcDbEntity
  8
0
  6
Continuous
 62
     7
370
    15
100
AcDbLine
 10
7.8589920394
 20
4.3800668315
 30
0.0
 11
7.8589920394
 21
4.3866693953
 31
0.0
  0
LINE
  5
3B9
330
1F
100
AcDbEntity
  8
0
  6
Continuous
 62
     7
370
    15
100
AcDbLine
 10
7.2684408348
 20
4.3866693953
 30
0.0
 11
7.30781092
 21
4.3866693953
 31
0.0
  0
LINE
  5
3BA
330
1F
100
AcDbEntity
  8
0
  6
Continuous
 62
     7
370
    15
100
AcDbLine
 10
7.2684408348
 20
4.383574471
 30
0.0
 11
7.2684408348
 21
4.3866693953
 31
0.0
  0
LINE
  5
3BB
330
1F
100
AcDbEntity
  8
0
  6
Continuous
 62
     7
370
    15
100
AcDbLine
 10
6.682668745
 20
4.383574471
 30
0.0
 11
7.2684408348
 21
4.383574471
 31
0.0
  0
LINE
  5
3BC
330
1F
100
AcDbEntity
  8
0
  6
Continuous
 62
     7
370
    15
100
AcDbLine
 10
7.30781092
 20
4.3866693953
 30
0.0
 11
7.30781092
 21
4.3800668315
 31
0.0
  0
LINE
  5
3BD
330
1F
100
AcDbEntity
  8
0
  6
Continuous
 62
     7
370
    15
100
AcDbLine
 10
7.30781092
 20
6.2561406256
 30
0.0
 11
7.8589920394
 21
6.2561406256
 31
0.0
  0
LINE
  5
3BE
330
1F
100
AcDbEntity
  8
0
  6
Continuous
 62
     7
370
    15
100
AcDbLine
 10
7.8589920394
 20
6.2561406256
 30
0.0
 11
7.8589920394
 21
6.2360918173
 31
0.0
  0
LINE
  5
3BF
330
1F
100
AcDbEntity
  8
0
  6
Continuous
 62
     7
370
    15
100
AcDbLine
 10
7.30781092
 20
6.2360918173
 30
0.0
 11
7.30781092
 21
6.2561406256
 31
0.0
  0
LINE
  5
3C0
330
1F
100
AcDbEntity
  8
0
  6
Continuous
 62
     7
370
    15
100
AcDbLine
 10
6.6463935841
 20
5.6465119015
 30
0.0
 11
6.6747838894
 21
5.6465119015
 31
0.0
  0
LINE
  5
3C1
330
1F
100
AcDbEntity
  8
0
  6
Continuous
 62
     7
370
    15
100
AcDbLine
 10
6.6747838894
 20
5.882732376
 30
0.0
 11
6.6747838894
 21
5.6465119015
 31
0.0
  0
LINE
  5
3C2
330
1F
100
AcDbEntity
  8
0
  6
Continuous
 62
     7
370
    15
100
AcDbLine
 10
6.6747838894
 20
5.882732376
 30
0.0
 11
6.6463935841
 21
5.882732376
 31
0.0
  0
LINE
  5
3C3
330
1F
100
AcDbEntity
  8
0
  6
Continuous
 62
     7
370
    15
100
AcDbLine
 10
6.6463935841
 20
6.2055670232
 30
0.0
 11
6.6463935841
 21
5.882732376
 31
0.0
  0
ARC
  5
3C4
330
1F
100
AcDbEntity
  8
0
  6
Continuous
 62
     7
370
    15
100
AcDbCircle
 10
6.6778896686
 20
6.2055670348
 30
0.0
 40
0.0314960629921259
100
AcDbArc
 50
90.0
 51
180.0
  0
LINE
  5
3C5
330
1F
100
AcDbEntity
  8
0
  6
Continuous
 62
     7
370
    15
100
AcDbLine
 10
7.2684408348
 20
6.237063106
 30
0.0
 11
6.6778896669
 21
6.237063106
 31
0.0
  0
LINE
  5
3C6
330
1F
100
AcDbEntity
  8
0
  6
Continuous
 62
     7
370
    15
100
AcDbLine
 10
7.2684408348
 20
6.2007879451
 30
0.0
 11
7.2684408348
 21
6.237063106
 31
0.0
  0
LINE
  5
3C7
330
1F
100
AcDbEntity
  8
0
  6
Continuous
 62
     7
370
    15
100
AcDbLine
 10
6.682668745
 20
6.2007879451
 30
0.0
 11
6.682668745
 21
4.383574471
 31
0.0
  0
LINE
  5
3C8
330
1F
100
AcDbEntity
  8
0
  6
Continuous
 62
     7
370
    15
100
AcDbLine
 10
7.2684408348
 20
4.3472993101
 30
0.0
 11
7.2684408348
 21
4.383574471
 31
0.0
  0
LINE
  5
3C9
330
1F
100
AcDbEntity
  8
0
  6
Continuous
 62
     7
370
    15
100
AcDbLine
 10
6.6778896669
 20
4.3472993101
 30
0.0
 11
7.2684408348
 21
4.3472993101
 31
0.0
  0
ARC
  5
3CA
330
1F
100
AcDbEntity
  8
0
  6
Continuous
 62
     7
370
    15
100
AcDbCircle
 10
6.6778896686
 20
4.3787953813
 30
0.0
 40
0.0314960629921259
100
AcDbArc
 50
180.0
 51
270.0
  0
LINE
  5
3CB
330
1F
100
AcDbEntity
  8
0
  6
Continuous
 62
     7
370
    15
100
AcDbLine
 10
6.6463935841
 20
4.7016300402
 30
0.0
 11
6.6463935841
 21
4.3787953929
 31
0.0
  0
LINE
  5
3CC
330
1F
100
AcDbEntity
  8
0
  6
Continuous
 62
     7
370
    15
100
AcDbLine
 10
6.6463935841
 20
4.7016300402
 30
0.0
 11
6.6747838894
 21
4.7016300402
 31
0.0
  0
LINE
  5
3CD
330
1F
100
AcDbEntity
  8
0
  6
Continuous
 62
     7
370
    15
100
AcDbLine
 10
6.6747838894
 20
4.9378505146
 30
0.0
 11
6.6747838894
 21
4.7016300402
 31
0.0
  0
LINE
  5
3CE
330
1F
100
AcDbEntity
  8
0
  6
Continuous
 62
     7
370
    15
100
AcDbLine
 10
6.6747838894
 20
4.9378505146
 30
0.0
 11
6.6463935841
 21
4.9378505146
 31
0.0
  0
LINE
  5
3CF
330
1F
100
AcDbEntity
  8
0
  6
Continuous
 62
     7
370
    15
100
AcDbLine
 10
6.6463935841
 20
5.6465119015
 30
0.0
 11
6.6463935841
 21
4.9378505146
 31
0.0
  0
LINE
  5
3D0
330
1F
100
AcDbEntity
  8
0
  6
Continuous
 62
     7
370
    15
100
AcDbLine
 10
8.5204093753
 20
4.9378505146
 30
0.0
 11
8.4920190699
 21
4.9378505146
 31
0.0
  0
LINE
  5
3D1
330
1F
100
AcDbEntity
  8
0
  6
Continuous
 62
     7
370
    15
100
AcDbLine
 10
8.4920190699
 20
4.7016300402
 30
0.0
 11
8.4920190699
 21
4.9378505146
 31
0.0
  0
LINE
  5
3D2
330
1F
100
AcDbEntity
  8
0
  6
Continuous
 62
     7
370
    15
100
AcDbLine
 10
8.5204093753
 20
4.3787953929
 30
0.0
 11
8.5204093753
 21
4.7016300402
 31
0.0
  0
ARC
  5
3D3
330
1F
100
AcDbEntity
  8
0
  6
Continuous
 62
     7
370
    15
100
AcDbCircle
 10
8.4889132907
 20
4.3787953813
 30
0.0
 40
0.0314960629921259
100
AcDbArc
 50
270.0
 51
0.0
  0
LINE
  5
3D4
330
1F
100
AcDbEntity
  8
0
  6
Continuous
 62
     7
370
    15
100
AcDbLine
 10
7.8983621245
 20
4.3472993101
 30
0.0
 11
8.4889132924
 21
4.3472993101
 31
0.0
  0
LINE
  5
3D5
330
1F
100
AcDbEntity
  8
0
  6
Continuous
 62
     7
370
    15
100
AcDbLine
 10
7.8983621245
 20
4.383574471
 30
0.0
 11
7.8983621245
 21
4.3472993101
 31
0.0
  0
LINE
  5
3D6
330
1F
100
AcDbEntity
  8
0
  6
Continuous
 62
     7
370
    15
100
AcDbLine
 10
8.4841342143
 20
4.383574471
 30
0.0
 11
8.4841342143
 21
6.2007879451
 31
0.0
  0
LINE
  5
3D7
330
1F
100
AcDbEntity
  8
0
  6
Continuous
 62
     7
370
    15
100
AcDbLine
 10
7.8983621245
 20
6.2007879451
 30
0.0
 11
7.8983621245
 21
6.237063106
 31
0.0
  0
LINE
  5
3D8
330
1F
100
AcDbEntity
  8
0
  6
Continuous
 62
     7
370
    15
100
AcDbLine
 10
8.4889132924
 20
6.237063106
 30
0.0
 11
7.8983621245
 21
6.237063106
 31
0.0
  0
ARC
  5
3D9
330
1F
100
AcDbEntity
  8
0
  6
Continuous
 62
     7
370
    15
100
AcDbCircle
 10
8.4889132907
 20
6.2055670348
 30
0.0
 40
0.0314960629921259
100
AcDbArc
 50
0.0
 51
90.0
  0
LINE
  5
3DA
330
1F
100
AcDbEntity
  8
0
  6
Continuous
 62
     7
370
    15
100
AcDbLine
 10
8.5204093753
 20
5.882732376
 30
0.0
 11
8.5204093753
 21
6.2055670232
 31
0.0
  0
LINE
  5
3DB
330
1F
100
AcDbEntity
  8
0
  6
Continuous
 62
     7
370
    15
100
AcDbLine
 10
8.5204093753
 20
5.882732376
 30
0.0
 11
8.4920190699
 21
5.882732376
 31
0.0
  0
LINE
  5
3DC
330
1F
100
AcDbEntity
  8
0
  6
Continuous
 62
     7
370
    15
100
AcDbLine
 10
8.4920190699
 20
5.6465119015
 30
0.0
 11
8.4920190699
 21
5.882732376
 31
0.0
  0
LINE
  5
3DD
330
1F
100
AcDbEntity
  8
0
  6
Continuous
 62
     7
370
    15
100
AcDbLine
 10
8.4920190699
 20
5.6465119015
 30
0.0
 11
8.5204093753
 21
5.6465119015
 31
0.0
  0
LINE
  5
3DE
330
1F
100
AcDbEntity
  8
0
  6
Continuous
 62
     7
370
    15
100
AcDbLine
 10
8.5204093753
 20
4.9378505146
 30
0.0
 11
8.5204093753
 21
5.6465119015
 31
0.0
  0
LINE
  5
3DF
330
1F
100
AcDbEntity
  8
0
  6
Continuous
 62
     7
370
    15
100
AcDbLine
 10
8.4920190699
 20
4.7016300402
 30
0.0
 11
8.5204093753
 21
4.7016300402
 31
0.0
  0
LINE
  5
3E0
330
1F
100
AcDbEntity
  8
0
  6
Continuous
 62
     7
370
    15
100
AcDbLine
 10
8.4500898276
 20
6.1667435584
 30
0.0
 11
8.4500898276
 21
4.4176188577
 31
0.0
  0
LINE
  5
3E1
330
1F
100
AcDbEntity
  8
0
  6
Continuous
 62
     7
370
    15
100
AcDbLine
 10
6.7167131317
 20
4.4176188577
 30
0.0
 11
6.7167131317
 21
6.1667435584
 31
0.0
  0
LINE
  5
3E2
330
1F
100
AcDbEntity
  8
0
  6
Continuous
 62
     7
370
    15
100
AcDbLine
 10
6.5991494965
 20
5.882732376
 30
0.0
 11
6.5991494965
 21
6.2055670232
 31
0.0
  0
ARC
  5
3E3
330
1F
100
AcDbEntity
  8
0
  6
Continuous
 62
     7
370
    15
100
AcDbCircle
 10
6.6778896686
 20
6.2055670348
 30
0.0
 40
0.0787401574803246
100
AcDbArc
 50
90.0
 51
179.9999999999
  0
LINE
  5
3E4
330
1F
100
AcDbEntity
  8
0
  6
Continuous
 62
     7
370
    15
100
AcDbLine
 10
6.6778896669
 20
6.2843071936
 30
0.0
 11
8.4889132924
 21
6.2843071936
 31
0.0
  0
ARC
  5
3E5
330
1F
100
AcDbEntity
  8
0
  6
Continuous
 62
     7
370
    15
100
AcDbCircle
 10
8.4889132907
 20
6.2055670348
 30
0.0
 40
0.0787401574803237
100
AcDbArc
 50
0.0000000001
 51
90.0
  0
LINE
  5
3E6
330
1F
100
AcDbEntity
  8
0
  6
Continuous
 62
     7
370
    15
100
AcDbLine
 10
8.5676534628
 20
6.2055670232
 30
0.0
 11
8.5676534628
 21
5.882732376
 31
0.0
  0
LINE
  5
3E7
330
1F
100
AcDbEntity
  8
0
  6
Continuous
 62
     7
370
    15
100
AcDbLine
 10
8.5676534628
 20
5.882732376
 30
0.0
 11
8.5204093753
 21
5.882732376
 31
0.0
  0
LINE
  5
3E8
330
1F
100
AcDbEntity
  8
0
  6
Continuous
 62
     7
370
    15
100
AcDbLine
 10
6.6463935841
 20
5.882732376
 30
0.0
 11
6.5991494965
 21
5.882732376
 31
0.0
  0
LINE
  5
3E9
330
1F
100
AcDbEntity
  8
0
  6
Continuous
 62
     7
370
    15
100
AcDbLine
 10
8.5676534628
 20
4.7016300402
 30
0.0
 11
8.5676534628
 21
4.3787953929
 31
0.0
  0
ARC
  5
3EA
330
1F
100
AcDbEntity
  8
0
  6
Continuous
 62
     7
370
    15
100
AcDbCircle
 10
8.4889132907
 20
4.3787953813
 30
0.0
 40
0.0787401574803237
100
AcDbArc
 50
270.0
 51
0.0000000001
  0
LINE
  5
3EB
330
1F
100
AcDbEntity
  8
0
  6
Continuous
 62
     7
370
    15
100
AcDbLine
 10
8.4889132924
 20
4.3000552225
 30
0.0
 11
6.6778896669
 21
4.3000552225
 31
0.0
  0
ARC
  5
3EC
330
1F
100
AcDbEntity
  8
0
  6
Continuous
 62
     7
370
    15
100
AcDbCircle
 10
6.6778896686
 20
4.3787953813
 30
0.0
 40
0.0787401574803246
100
AcDbArc
 50
179.9999999999
 51
270.0
  0
LINE
  5
3ED
330
1F
100
AcDbEntity
  8
0
  6
Continuous
 62
     7
370
    15
100
AcDbLine
 10
6.5991494965
 20
4.3787953929
 30
0.0
 11
6.5991494965
 21
4.7016300402
 31
0.0
  0
LINE
  5
3EE
330
1F
100
AcDbEntity
  8
0
  6
Continuous
 62
     7
370
    15
100
AcDbLine
 10
6.6463935841
 20
4.7016300402
 30
0.0
 11
6.5991494965
 21
4.7016300402
 31
0.0
  0
LINE
  5
3EF
330
1F
100
AcDbEntity
  8
0
  6
Continuous
 62
     7
370
    15
100
AcDbLine
 10
8.5204093753
 20
4.7016300402
 30
0.0
 11
8.5676534628
 21
4.7016300402
 31
0.0
  0
LINE
  5
3F0
330
1F
100
AcDbEntity
  8
0
  6
Continuous
 62
     7
370
    15
100
AcDbLine
 10
8.5676534628
 20
5.6465119015
 30
0.0
 11
8.5676534628
 21
4.9378505146
 31
0.0
  0
LINE
  5
3F1
330
1F
100
AcDbEntity
  8
0
  6
Continuous
 62
     7
370
    15
100
AcDbLine
 10
8.5676534628
 20
5.6465119015
 30
0.0
 11
8.5204093753
 21
5.6465119015
 31
0.0
  0
LINE
  5
3F2
330
1F
100
AcDbEntity
  8
0
  6
Continuous
 62
     7
370
    15
100
AcDbLine
 10
8.5676534628
 20
4.9378505146
 30
0.0
 11
8.5204093753
 21
4.9378505146
 31
0.0
  0
LINE
  5
3F3
330
1F
100
AcDbEntity
  8
0
  6
Continuous
 62
     7
370
    15
100
AcDbLine
 10
6.5991494965
 20
4.9378505146
 30
0.0
 11
6.5991494965
 21
5.6465119015
 31
0.0
  0
LINE
  5
3F4
330
1F
100
AcDbEntity
  8
0
  6
Continuous
 62
     7
370
    15
100
AcDbLine
 10
6.5991494965
 20
5.6465119015
 30
0.0
 11
6.6463935841
 21
5.6465119015
 31
0.0
  0
LINE
  5
3F5
330
1F
100
AcDbEntity
  8
0
  6
Continuous
 62
     7
370
    15
100
AcDbLine
 10
6.5991494965
 20
4.9378505146
 30
0.0
 11
6.6463935841
 21
4.9378505146
 31
0.0
  0
ARC
  5
3F6
330
1F
100
AcDbEntity
  8
0
  6
Continuous
 62
     7
370
    15
100
AcDbCircle
 10
7.5886232648
 20
4.3955265798
 30
0.0
 40
0.0965482459660446
100
AcDbArc
 50
266.8996608696
 51
278.5655517331
  0
ARC
  5
3F7
330
1F
100
AcDbEntity
  8
0
  6
Continuous
 62
     7
370
    15
100
AcDbCircle
 10
7.5789052728
 20
4.4107285681
 30
0.0
 40
0.11169945044389
100
AcDbArc
 50
262.2278530793
 51
272.306934318
  0
ARC
  5
3F8
330
1F
100
AcDbEntity
  8
0
  6
Continuous
 62
     7
370
    15
100
AcDbCircle
 10
7.5834014797
 20
6.1206301496
 30
0.0
 40
0.1648466069269991
100
AcDbArc
 50
83.1708520151
 51
96.8291479849
  0
LINE
  5
3F9
330
1F
100
AcDbEntity
  8
0
  6
Continuous
 62
     7
370
    15
100
AcDbLine
 10
6.6054645969
 20
5.6465119015
 30
0.0
 11
6.6054645969
 21
5.882732376
 31
0.0
  0
LINE
  5
3FA
330
1F
100
AcDbEntity
  8
0
  6
Continuous
 62
     7
370
    15
100
AcDbLine
 10
8.5613383625
 20
4.9378505146
 30
0.0
 11
8.5613383625
 21
4.7016300402
 31
0.0
  0
LINE
  5
3FB
330
1F
100
AcDbEntity
  8
0
  6
Continuous
 62
     7
370
    15
100
AcDbLine
 10
8.5613383625
 20
5.882732376
 30
0.0
 11
8.5613383625
 21
5.6465119015
 31
0.0
  0
LINE
  5
3FC
330
1F
100
AcDbEntity
  8
0
  6
Continuous
 62
     7
370
    15
100
AcDbLine
 10
6.6054645969
 20
4.7016300402
 30
0.0
 11
6.6054645969
 21
4.9378505146
 31
0.0
  0
DIMENSION
  5
3FD
330
1F
100
AcDbEntity
  8
0
  6
Continuous
 62
     7
370
     0
100
AcDbDimension
  2
*D28
 10
8.5676534482
 20
7.0231230688
 30
0.0
 11
7.5834014797
 21
7.0231230688
 31
0.0
 70
   160
 71
     2
 42
-1.0
  3
SLDDIMSTYLE2
100
AcDbAlignedDimension
 13
6.5991495112
 23
6.2055670348
 33
0.0
 14
8.5676534482
 24
6.2055670348
 34
0.0
 50
0.0
100
AcDbRotatedDimension
  0
DIMENSION
  5
411
330
1F
100
AcDbEntity
  8
0
  6
Continuous
 62
     7
370
     0
100
AcDbDimension
  2
*D29
 10
8.4841342225
 20
6.6554403518
 30
0.0
 11
7.5834014797
 21
6.6554403518
 31
0.0
 70
   160
 71
     2
 42
-1.0
  3
SLDDIMSTYLE1
100
AcDbAlignedDimension
 13
6.6826687368
 23
6.2007879667
 33
0.0
 14
8.4841342225
 24
6.2007879667
 34
0.0
100
AcDbRotatedDimension
  0
DIMENSION
  5
425
330
1F
100
AcDbEntity
  8
0
  6
Continuous
 62
     7
370
     0
100
AcDbDimension
  2
*D30
 10
9.2713005326
 20
6.2843071923
 30
0.0
 11
9.2713005326
 21
5.2921812081
 31
0.0
 70
   160
 71
     2
 42
-1.0
  3
SLDDIMSTYLE2
100
AcDbAlignedDimension
 13
8.4889132907
 23
4.3000552238
 33
0.0
 14
8.4889132907
 24
6.2843071923
 34
0.0
 50
90.0
100
AcDbRotatedDimension
  0
DIMENSION
  5
439
330
1F
100
AcDbEntity
  8
0
  6
Continuous
 62
     7
370
     0
100
AcDbDimension
  2
*D31
 10
8.8629330969
 20
4.3835744494
 30
0.0
 11
8.8629330969
 21
5.2921812081
 31
0.0
 70
   160
 71
     2
 42
-1.0
  3
SLDDIMSTYLE2
100
AcDbAlignedDimension
 13
8.4841342225
 23
6.2007879667
 33
0.0
 14
8.4841342225
 24
4.3835744494
 34
0.0
 50
90.0
100
AcDbRotatedDimension
  0
LINE
  5
44D
330
1F
100
AcDbEntity
  8
0
  6
PHANTOM
 62
     7
370
    30
100
AcDbLine
 10
7.5834014797
 20
6.4049600806
 30
0.0
 11
7.5834014797
 21
4.2133682604
 31
0.0
  0
LINE
  5
44E
330
1F
100
AcDbEntity
  8
0
  6
Continuous
 62
     7
370
    30
100
AcDbLine
 10
7.5834014797
 20
6.4049600806
 30
0.0
 11
7.2084014797
 21
6.4049600806
 31
0.0
  0
SOLID
  5
44F
330
1F
100
AcDbEntity
  8
0
  6
Continuous
 62
     7
370
    30
100
AcDbTrace
 10
7.2084014797
 20
6.4049600806
 30
0.0
 11
7.3959014797
 21
6.3749600806
 31
0.0
 12
7.3959014797
 22
6.4349600806
 32
0.0
 13
7.3959014797
 23
6.4349600806
 33
0.0
  0
LINE
  5
450
330
1F
100
AcDbEntity
  8
0
  6
Continuous
 62
     7
370
    30
100
AcDbLine
 10
7.5834014797
 20
4.2133682604
 30
0.0
 11
7.2084014797
 21
4.2133682604
 31
0.0
  0
SOLID
  5
451
330
1F
100
AcDbEntity
  8
0
  6
Continuous
 62
     7
370
    30
100
AcDbTrace
 10
7.2084014797
 20
4.2133682604
 30
0.0
 11
7.3959014797
 21
4.1833682604
 31
0.0
 12
7.3959014797
 22
4.2433682604
 32
0.0
 13
7.3959014797
 23
4.2433682604
 33
0.0
  0
MTEXT
  5
452
330
1F
100
AcDbEntity
  8
0
  6
Continuous
 62
     7
100
AcDbMText
 10
7.0964367985
 20
6.4806856679
 30
0.0
 40
0.09375
 41
0.0
 71
     1
 72
     1
  1
B
  7
SLDTEXTSTYLE0
 73
     1
 44
1.0
  0
MTEXT
  5
453
330
1F
100
AcDbEntity
  8
0
  6
Continuous
 62
     7
100
AcDbMText
 10
7.0964367985
 20
4.2890938477
 30
0.0
 40
0.09375
 41
0.0
 71
     1
 72
     1
  1
B
  7
SLDTEXTSTYLE0
 73
     1
 44
1.0
  0
LINE
  5
454
330
1F
100
AcDbEntity
  8
0
  6
Continuous
 62
     7
370
    15
100
AcDbLine
 10
9.9151781111
 20
6.2561406256
 30
0.0
 11
9.9151781111
 21
6.237063106
 31
0.0
  0
LINE
  5
455
330
1F
100
AcDbEntity
  8
0
  6
Continuous
 62
     7
370
    15
100
AcDbLine
 10
9.9958597957
 20
6.2832769455
 30
0.0
 11
9.9959628278
 21
6.2852427695
 31
0.0
  0
LINE
  5
456
330
1F
100
AcDbEntity
  8
0
  6
Continuous
 62
     7
370
    15
100
AcDbLine
 10
9.9959628278
 20
6.2852427695
 30
0.0
 11
10.0352789403
 21
6.2831822733
 31
0.0
  0
LINE
  5
457
330
1F
100
AcDbEntity
  8
0
  6
Continuous
 62
     7
370
    15
100
AcDbLine
 10
10.0352789403
 20
6.2831822733
 30
0.0
 11
10.0351759448
 21
6.2812165226
 31
0.0
  0
LINE
  5
458
330
1F
100
AcDbEntity
  8
0
  6
Continuous
 62
     7
370
    15
100
AcDbLine
 10
10.0351759448
 20
4.3031458935
 30
0.0
 11
10.0352789403
 21
4.3011801428
 31
0.0
  0
LINE
  5
459
330
1F
100
AcDbEntity
  8
0
  6
Continuous
 62
     7
370
    15
100
AcDbLine
 10
10.0352789403
 20
4.3011801428
 30
0.0
 11
9.9959628278
 21
4.2991196467
 31
0.0
  0
LINE
  5
45A
330
1F
100
AcDbEntity
  8
0
  6
Continuous
 62
     7
370
    15
100
AcDbLine
 10
9.9959628278
 20
4.2991196467
 30
0.0
 11
9.9958597957
 21
4.3010854706
 31
0.0
  0
LINE
  5
45B
330
1F
100
AcDbEntity
  8
0
  6
Continuous
 62
     7
370
    15
100
AcDbLine
 10
9.8502174998
 20
4.3800668315
 30
0.0
 11
9.8502174998
 21
4.3482705989
 31
0.0
  0
LINE
  5
45C
330
1F
100
AcDbEntity
  8
0
  6
Continuous
 62
     7
370
    15
100
AcDbLine
 10
9.8502174998
 20
6.2360918173
 30
0.0
 11
9.8502174998
 21
6.2042955846
 31
0.0
  0
LINE
  5
45D
330
1F
100
AcDbEntity
  8
0
  6
Continuous
 62
     7
370
    15
100
AcDbLine
 10
9.9151781111
 20
4.3282217905
 30
0.0
 11
9.8502174998
 21
4.3482705989
 31
0.0
  0
LINE
  5
45E
330
1F
100
AcDbEntity
  8
0
  6
Continuous
 62
     7
370
    15
100
AcDbLine
 10
9.9151781111
 20
6.2561406256
 30
0.0
 11
9.8502174998
 21
6.2360918173
 31
0.0
  0
LINE
  5
45F
330
1F
100
AcDbEntity
  8
0
  6
Continuous
 62
     7
370
    15
100
AcDbLine
 10
9.9151781111
 20
4.3472993101
 30
0.0
 11
9.9151781111
 21
4.3282217905
 31
0.0
  0
LINE
  5
460
330
1F
100
AcDbEntity
  8
0
  6
Continuous
 62
     7
370
    15
100
AcDbLine
 10
9.9762017394
 20
4.3472993101
 30
0.0
 11
9.9762017394
 21
4.3000552225
 31
0.0
  0
LINE
  5
461
330
1F
100
AcDbEntity
  8
0
  6
Continuous
 62
     7
370
    15
100
AcDbLine
 10
9.9762017394
 20
6.237063106
 30
0.0
 11
9.9151781111
 21
6.237063106
 31
0.0
  0
LINE
  5
462
330
1F
100
AcDbEntity
  8
0
  6
Continuous
 62
     7
370
    15
100
AcDbLine
 10
9.9762017394
 20
6.2843071936
 30
0.0
 11
9.9762017394
 21
6.237063106
 31
0.0
  0
LINE
  5
463
330
1F
100
AcDbEntity
  8
0
  6
Continuous
 62
     7
370
    15
100
AcDbLine
 10
9.9151781111
 20
4.3472993101
 30
0.0
 11
9.9762017394
 21
4.3472993101
 31
0.0
  0
LINE
  5
464
330
1F
100
AcDbEntity
  8
0
  6
Continuous
 62
     7
370
    15
100
AcDbLine
 10
10.566752944
 20
6.1667435584
 30
0.0
 11
10.566752944
 21
4.4176188577
 31
0.0
  0
LINE
  5
465
330
1F
100
AcDbEntity
  8
0
  6
Continuous
 62
     7
370
    15
100
AcDbLine
 10
10.566752944
 20
6.1667435584
 30
0.0
 11
9.8502174998
 21
6.2042955846
 31
0.0
  0
LINE
  5
466
330
1F
100
AcDbEntity
  8
0
  6
Continuous
 62
     7
370
    15
100
AcDbLine
 10
9.8502174998
 20
4.3800668315
 30
0.0
 11
10.566752944
 21
4.4176188577
 31
0.0
  0
LINE
  5
467
330
1F
100
AcDbEntity
  8
0
  6
Continuous
 62
     7
370
    15
100
AcDbLine
 10
9.9958597957
 20
4.3010854706
 30
0.0
 11
9.9762017394
 21
4.3000552225
 31
0.0
  0
LINE
  5
468
330
1F
100
AcDbEntity
  8
0
  6
Continuous
 62
     7
370
    15
100
AcDbLine
 10
10.6081834521
 20
4.3331759866
 30
0.0
 11
10.0351759448
 21
4.3031458935
 31
0.0
  0
LINE
  5
469
330
1F
100
AcDbEntity
  8
0
  6
Continuous
 62
     7
370
    15
100
AcDbLine
 10
10.0351759448
 20
6.2812165226
 30
0.0
 11
10.6081834521
 21
6.2511864295
 31
0.0
  0
LINE
  5
46A
330
1F
100
AcDbEntity
  8
0
  6
Continuous
 62
     7
370
    15
100
AcDbLine
 10
9.9762017394
 20
6.2843071936
 30
0.0
 11
9.9958597957
 21
6.2832769455
 31
0.0
  0
ARC
  5
46B
330
1F
100
AcDbEntity
  8
0
  6
Continuous
 62
     7
370
    15
100
AcDbCircle
 10
10.6061230081
 20
6.2118703098
 30
0.0
 40
0.0393700787401581
100
AcDbArc
 50
0.0
 51
87.0
  0
LINE
  5
46C
330
1F
100
AcDbEntity
  8
0
  6
Continuous
 62
     7
370
    15
100
AcDbLine
 10
10.6454931144
 20
6.2118703171
 30
0.0
 11
10.6454931144
 21
4.372492099
 31
0.0
  0
ARC
  5
46D
330
1F
100
AcDbEntity
  8
0
  6
Continuous
 62
     7
370
    15
100
AcDbCircle
 10
10.6061230081
 20
4.3724921063
 30
0.0
 40
0.0393700787401574
100
AcDbArc
 50
273.0
 51
0.0
  0
LINE
  5
46E
330
1F
100
AcDbEntity
  8
0
  6
Continuous
 62
     7
370
    15
100
AcDbLine
 10
9.9171466483
 20
6.2007879451
 30
0.0
 11
9.9171466483
 21
4.383574471
 31
0.0
  0
LINE
  5
46F
330
1F
100
AcDbEntity
  8
0
  6
CENTERX2
 62
     7
370
     0
100
AcDbLine
 10
10.5667529293
 20
6.1667435431
 30
0.0
 11
10.2522219157
 21
6.1667435431
 31
0.0
  0
HATCH
  5
470
330
1F
100
AcDbEntity
  8
0
  6
Continuous
 62
     7
370
     0
100
AcDbHatch
 10
0.0
 20
0.0
 30
0.0
210
0.0
220
0.0
230
1.0
  2
ANSI31
 70
     0
 71
     0
 91
        1
 92
        0
 93
       26
 72
     1
 10
9.850217496269892
 20
6.20429557394762
 11
10.56675292934076
 21
6.166743543122763
 72
     1
 10
10.56675292934076
 20
6.166743543122763
 11
10.56675292934076
 21
4.417618872984624
 72
     1
 10
10.56675292934076
 20
4.417618872984624
 11
9.850217496269892
 21
4.380066842159767
 72
     1
 10
9.850217496269892
 20
4.380066842159767
 11
9.850217496269892
 21
4.348270582214405
 72
     1
 10
9.850217496269892
 20
4.348270582214405
 11
9.915178126191151
 21
4.328221817252029
 72
     1
 10
9.915178126191151
 20
4.328221817252029
 11
9.915178126191153
 21
4.347299318289914
 72
     1
 10
9.915178126191153
 20
4.347299318289914
 11
9.976201748238395
 21
4.347299318289914
 72
     1
 10
9.976201748238395
 20
4.347299318289914
 11
9.976201748238216
 21
4.300055223801715
 72
     1
 10
9.976201748238216
 20
4.300055223801715
 11
9.995859809946163
 21
4.301085459160839
 72
     1
 10
9.995859809946163
 20
4.301085459160839
 11
9.995962833482073
 21
4.299119652990061
 72
     1
 10
9.995962833482073
 20
4.299119652990061
 11
10.03527895689761
 21
4.301180123708288
 72
     1
 10
10.03527895689761
 20
4.301180123708288
 11
10.0351759333617
 21
4.303145929879065
 72
     1
 10
10.0351759333617
 20
4.303145929879065
 11
10.60818347879914
 21
4.333175982847868
 72
     2
 10
10.60612300808092
 20
4.372492106263402
 40
0.0393700787401575
 50
272.9999999999999
 51
360.0000000000008
 73
     1
 72
     1
 10
10.64549308682107
 20
4.372492106263402
 11
10.64549308682107
 21
6.211870309843986
 72
     2
 10
10.60612300808092
 20
6.211870309843985
 40
0.0393700787401575
 50
0.0000000000012926
 51
87.00000000000102
 73
     1
 72
     1
 10
10.60818347879914
 20
6.25118643325952
 11
10.0351759333617
 21
6.281216486228323
 72
     1
 10
10.0351759333617
 20
6.281216486228323
 11
10.03527895689761
 21
6.2831822923991
 72
     1
 10
10.03527895689761
 20
6.2831822923991
 11
9.995962833482073
 21
6.285242763117327
 72
     1
 10
9.995962833482073
 20
6.285242763117327
 11
9.995859809946163
 21
6.283276956946551
 72
     1
 10
9.995859809946163
 20
6.283276956946551
 11
9.976201748238216
 21
6.284307192305672
 72
     1
 10
9.976201748238216
 20
6.284307192305672
 11
9.976201748238395
 21
6.237063097817473
 72
     1
 10
9.976201748238395
 20
6.237063097817473
 11
9.915178126191153
 21
6.237063097817473
 72
     1
 10
9.915178126191153
 20
6.237063097817473
 11
9.915178126191151
 21
6.256140598855359
 72
     1
 10
9.915178126191151
 20
6.256140598855359
 11
9.850217496269892
 21
6.236091833892982
 72
     1
 10
9.850217496269892
 20
6.236091833892982
 11
9.850217496269892
 21
6.20429557394762
 97
        0
 75
     0
 76
     1
 52
0.0
 41
0.75
 77
     0
 78
     1
 53
45.0
 43
0.0
 44
0.0
 45
-0.0662912607362388
 46
0.0662912607362388
 79
     0
 98
        1
 10
0.0
 20
0.0
  0
DIMENSION
  5
471
330
1F
100
AcDbEntity
  8
0
  6
Continuous
 62
     7
370
     0
100
AcDbDimension
  2
*D32
 10
10.5667529293
 20
6.1667435431
 30
0.0
 11
9.6729163668
 21
5.9651007207
 31
0.0
 70
   162
 71
     1
 42
-1.0
  3
SLDDIMSTYLE7
100
AcDb2LineAngularDimension
 13
9.8502174963
 23
6.2042955739
 33
0.0
 14
10.5667529293
 24
6.1667435431
 34
0.0
 15
10.2522219157
 25
6.1667435431
 35
0.0
 16
9.661328582
 26
6.3074928931
 36
0.0
  0
DIMENSION
  5
484
330
1F
100
AcDbEntity
  8
0
  6
Continuous
 62
     7
370
     0
100
AcDbDimension
  2
*D33
 10
10.6454930868
 20
6.5951485985
 30
0.0
 11
10.3108474175
 21
6.5951485985
 31
0.0
 70
   160
 71
     2
 42
-1.0
  3
SLDDIMSTYLE2
100
AcDbAlignedDimension
 13
9.9762017482
 23
6.2843071923
 33
0.0
 14
10.6454930868
 24
6.2118703098
 34
0.0
100
AcDbRotatedDimension
  0
DIMENSION
  5
498
330
1F
100
AcDbEntity
  8
0
  6
Continuous
 62
     7
370
     0
100
AcDbDimension
  2
*D34
 10
10.6454930868
 20
5.9651007207
 30
0.0
 11
10.940857061
 21
5.9651007207
 31
0.0
 70
   160
 71
     2
 42
-1.0
  3
SLDDIMSTYLE5
100
AcDbAlignedDimension
 13
10.5667529293
 23
6.1667435431
 33
0.0
 14
10.6454930868
 24
6.2118703098
 34
0.0
100
AcDbRotatedDimension
  0
MTEXT
  5
4AA
330
1F
100
AcDbEntity
  8
0
  6
Continuous
 62
     7
370
     0
100
AcDbMText
 10
10.3090302545
 20
4.1098668401
 30
0.0
 40
0.09375
 41
0.0
 71
     2
 72
     1
  1
\LSECTION B-B
  7
SLDTEXTSTYLE0
 73
     1
 44
1.0
  0
LINE
  5
4AB
330
1F
100
AcDbEntity
  8
0
  6
Continuous
 62
     7
370
    15
100
AcDbLine
 10
11.6606946009
 20
6.2812165226
 30
0.0
 11
11.6607975963
 21
6.2831822733
 31
0.0
  0
LINE
  5
4AC
330
1F
100
AcDbEntity
  8
0
  6
Continuous
 62
     7
370
    15
100
AcDbLine
 10
11.6214814839
 20
6.2852427695
 30
0.0
 11
11.6213784517
 21
6.2832769455
 31
0.0
  0
LINE
  5
4AD
330
1F
100
AcDbEntity
  8
0
  6
Continuous
 62
     7
370
    15
100
AcDbLine
 10
11.6213784517
 20
4.3010854706
 30
0.0
 11
11.6214814839
 21
4.2991196467
 31
0.0
  0
LINE
  5
4AE
330
1F
100
AcDbEntity
  8
0
  6
Continuous
 62
     7
370
    15
100
AcDbLine
 10
11.6607975963
 20
4.3011801428
 30
0.0
 11
11.6606946009
 21
4.3031458935
 31
0.0
  0
LINE
  5
4AF
330
1F
100
AcDbEntity
  8
0
  6
Continuous
 62
     7
370
    15
100
AcDbLine
 10
11.6017203955
 20
5.882732376
 30
0.0
 11
11.7222187601
 21
5.882732376
 31
0.0
  0
LINE
  5
4B0
330
1F
100
AcDbEntity
  8
0
  6
Continuous
 62
     7
370
    15
100
AcDbLine
 10
11.6017203955
 20
6.2055670232
 30
0.0
 11
11.6017203955
 21
5.882732376
 31
0.0
  0
LINE
  5
4B1
330
1F
100
AcDbEntity
  8
0
  6
Continuous
 62
     7
370
    15
100
AcDbLine
 10
11.6017203955
 20
4.7016300402
 30
0.0
 11
11.6017203955
 21
4.3787953929
 31
0.0
  0
LINE
  5
4B2
330
1F
100
AcDbEntity
  8
0
  6
Continuous
 62
     7
370
    15
100
AcDbLine
 10
11.7222187601
 20
4.7016300402
 30
0.0
 11
11.6017203955
 21
4.7016300402
 31
0.0
  0
LINE
  5
4B3
330
1F
100
AcDbEntity
  8
0
  6
Continuous
 62
     7
370
    15
100
AcDbLine
 10
11.7222187601
 20
4.9378505146
 30
0.0
 11
11.7222187601
 21
4.7016300402
 31
0.0
  0
LINE
  5
4B4
330
1F
100
AcDbEntity
  8
0
  6
Continuous
 62
     7
370
    15
100
AcDbLine
 10
11.6017203955
 20
4.9378505146
 30
0.0
 11
11.7222187601
 21
4.9378505146
 31
0.0
  0
LINE
  5
4B5
330
1F
100
AcDbEntity
  8
0
  6
Continuous
 62
     7
370
    15
100
AcDbLine
 10
11.6017203955
 20
5.6465119015
 30
0.0
 11
11.6017203955
 21
4.9378505146
 31
0.0
  0
LINE
  5
4B6
330
1F
100
AcDbEntity
  8
0
  6
Continuous
 62
     7
370
    15
100
AcDbLine
 10
11.7222187601
 20
5.6465119015
 30
0.0
 11
11.6017203955
 21
5.6465119015
 31
0.0
  0
LINE
  5
4B7
330
1F
100
AcDbEntity
  8
0
  6
Continuous
 62
     7
370
    15
100
AcDbLine
 10
11.7222187601
 20
5.882732376
 30
0.0
 11
11.7222187601
 21
5.6465119015
 31
0.0
  0
LINE
  5
4B8
330
1F
100
AcDbEntity
  8
0
  6
Continuous
 62
     7
370
    15
100
AcDbLine
 10
11.6017203955
 20
6.2843071936
 30
0.0
 11
12.2337021081
 21
6.2511864295
 31
0.0
  0
LINE
  5
4B9
330
1F
100
AcDbEntity
  8
0
  6
Continuous
 62
     7
370
    15
100
AcDbLine
 10
11.6017203955
 20
6.2843071936
 30
0.0
 11
11.6017203955
 21
6.2055670232
 31
0.0
  0
LINE
  5
4BA
330
1F
100
AcDbEntity
  8
0
  6
Continuous
 62
     7
370
    15
100
AcDbLine
 10
12.2337021081
 20
4.3331759866
 30
0.0
 11
11.6017203955
 21
4.3000552225
 31
0.0
  0
LINE
  5
4BB
330
1F
100
AcDbEntity
  8
0
  6
Continuous
 62
     7
370
    15
100
AcDbLine
 10
11.6017203955
 20
4.3787953929
 30
0.0
 11
11.6017203955
 21
4.3000552225
 31
0.0
  0
LINE
  5
4BC
330
1F
100
AcDbEntity
  8
0
  6
Continuous
 62
     7
370
    15
100
AcDbLine
 10
11.7181040377
 20
4.9378505146
 30
0.0
 11
11.7181040377
 21
4.7016300402
 31
0.0
  0
LINE
  5
4BD
330
1F
100
AcDbEntity
  8
0
  6
Continuous
 62
     7
370
    15
100
AcDbLine
 10
11.7181040377
 20
5.6465119015
 30
0.0
 11
11.7181040377
 21
5.882732376
 31
0.0
  0
ARC
  5
4BE
330
1F
100
AcDbEntity
  8
0
  6
Continuous
 62
     7
370
    15
100
AcDbCircle
 10
12.2316416641
 20
6.2118703098
 30
0.0
 40
0.0393700787401582
100
AcDbArc
 50
0.0
 51
87.0
  0
LINE
  5
4BF
330
1F
100
AcDbEntity
  8
0
  6
Continuous
 62
     7
370
    15
100
AcDbLine
 10
12.2710117704
 20
6.2055670232
 30
0.0
 11
12.2710117704
 21
6.2118703171
 31
0.0
  0
LINE
  5
4C0
330
1F
100
AcDbEntity
  8
0
  6
Continuous
 62
     7
370
    15
100
AcDbLine
 10
12.2710117704
 20
4.372492099
 30
0.0
 11
12.2710117704
 21
4.3787953929
 31
0.0
  0
ARC
  5
4C1
330
1F
100
AcDbEntity
  8
0
  6
Continuous
 62
     7
370
    15
100
AcDbCircle
 10
12.2316416641
 20
4.3724921063
 30
0.0
 40
0.0393700787401574
100
AcDbArc
 50
273.0
 51
0.0
  0
LINE
  5
4C2
330
1F
100
AcDbEntity
  8
0
  6
Continuous
 62
     7
370
    15
100
AcDbLine
 10
12.2710117704
 20
6.2055670232
 30
0.0
 11
12.2710117704
 21
4.3787953929
 31
0.0
  0
LINE
  5
4C3
330
1F
100
AcDbEntity
  8
0
  6
Continuous
 62
     7
370
    15
100
AcDbLine
 10
11.5426653043
 20
4.3787953929
 30
0.0
 11
11.5426653043
 21
4.7016300402
 31
0.0
  0
LINE
  5
4C4
330
1F
100
AcDbEntity
  8
0
  6
Continuous
 62
     7
370
    15
100
AcDbLine
 10
11.5426653043
 20
4.7016300402
 30
0.0
 11
11.6017203955
 21
4.7016300402
 31
0.0
  0
LINE
  5
4C5
330
1F
100
AcDbEntity
  8
0
  6
Continuous
 62
     7
370
    15
100
AcDbLine
 10
11.5426653043
 20
5.882732376
 30
0.0
 11
11.5426653043
 21
6.2055670232
 31
0.0
  0
LINE
  5
4C6
330
1F
100
AcDbEntity
  8
0
  6
Continuous
 62
     7
370
    15
100
AcDbLine
 10
11.5426653043
 20
5.882732376
 30
0.0
 11
11.6017203955
 21
5.882732376
 31
0.0
  0
LINE
  5
4C7
330
1F
100
AcDbEntity
  8
0
  6
Continuous
 62
     7
370
    15
100
AcDbLine
 10
11.5426653043
 20
4.9378505146
 30
0.0
 11
11.5426653043
 21
5.6465119015
 31
0.0
  0
LINE
  5
4C8
330
1F
100
AcDbEntity
  8
0
  6
Continuous
 62
     7
370
    15
100
AcDbLine
 10
11.6017203955
 20
4.9378505146
 30
0.0
 11
11.5426653043
 21
4.9378505146
 31
0.0
  0
LINE
  5
4C9
330
1F
100
AcDbEntity
  8
0
  6
Continuous
 62
     7
370
    15
100
AcDbLine
 10
11.5426653043
 20
5.6465119015
 30
0.0
 11
11.6017203955
 21
5.6465119015
 31
0.0
  0
LINE
  5
4CA
330
1F
100
AcDbEntity
  8
0
  6
Continuous
 62
     7
370
    15
100
AcDbLine
 10
11.6017203955
 20
6.237063106
 30
0.0
 11
11.5426653043
 21
6.237063106
 31
0.0
  0
LINE
  5
4CB
330
1F
100
AcDbEntity
  8
0
  6
Continuous
 62
     7
370
    15
100
AcDbLine
 10
11.5426653043
 20
6.237063106
 30
0.0
 11
11.5426653043
 21
6.2055670232
 31
0.0
  0
LINE
  5
4CC
330
1F
100
AcDbEntity
  8
0
  6
Continuous
 62
     7
370
    15
100
AcDbLine
 10
11.5426653043
 20
4.3472993101
 30
0.0
 11
11.6017203955
 21
4.3472993101
 31
0.0
  0
LINE
  5
4CD
330
1F
100
AcDbEntity
  8
0
  6
Continuous
 62
     7
370
    15
100
AcDbLine
 10
11.5426653043
 20
4.3787953929
 30
0.0
 11
11.5426653043
 21
4.3472993101
 31
0.0
  0
LINE
  5
4CE
330
1F
100
AcDbEntity
  8
0
  6
Continuous
 62
     7
370
    15
100
AcDbLine
 10
11.5426653043
 20
5.6465119015
 30
0.0
 11
11.5426653043
 21
5.882732376
 31
0.0
  0
LINE
  5
4CF
330
1F
100
AcDbEntity
  8
0
  6
Continuous
 62
     7
370
    15
100
AcDbLine
 10
11.5426653043
 20
4.7016300402
 30
0.0
 11
11.5426653043
 21
4.9378505146
 31
0.0
  0
LINE
  5
4D0
330
1F
100
AcDbEntity
  8
0
  6
Continuous
 62
     7
370
    15
100
AcDbLine
 10
11.5406967671
 20
4.3282217905
 30
0.0
 11
11.4757361558
 21
4.3482705989
 31
0.0
  0
LINE
  5
4D1
330
1F
100
AcDbEntity
  8
0
  6
Continuous
 62
     7
370
    15
100
AcDbLine
 10
11.4757361558
 20
4.3482705989
 30
0.0
 11
11.4757361558
 21
4.3800668315
 31
0.0
  0
LINE
  5
4D2
330
1F
100
AcDbEntity
  8
0
  6
Continuous
 62
     7
370
    15
100
AcDbLine
 10
11.5426653043
 20
4.3472993101
 30
0.0
 11
11.5406967671
 21
4.3472993101
 31
0.0
  0
LINE
  5
4D3
330
1F
100
AcDbEntity
  8
0
  6
Continuous
 62
     7
370
    15
100
AcDbLine
 10
11.5406967671
 20
4.3472993101
 30
0.0
 11
11.5406967671
 21
4.3282217905
 31
0.0
  0
LINE
  5
4D4
330
1F
100
AcDbEntity
  8
0
  6
Continuous
 62
     7
370
    15
100
AcDbLine
 10
11.4757361558
 20
4.3800668315
 30
0.0
 11
11.5426653043
 21
4.383574471
 31
0.0
  0
LINE
  5
4D5
330
1F
100
AcDbEntity
  8
0
  6
Continuous
 62
     7
370
    15
100
AcDbLine
 10
11.5406967671
 20
6.2561406256
 30
0.0
 11
11.5406967671
 21
6.237063106
 31
0.0
  0
LINE
  5
4D6
330
1F
100
AcDbEntity
  8
0
  6
Continuous
 62
     7
370
    15
100
AcDbLine
 10
11.4757361558
 20
6.2360918173
 30
0.0
 11
11.4757361558
 21
6.2042955846
 31
0.0
  0
LINE
  5
4D7
330
1F
100
AcDbEntity
  8
0
  6
Continuous
 62
     7
370
    15
100
AcDbLine
 10
11.5406967671
 20
6.2561406256
 30
0.0
 11
11.4757361558
 21
6.2360918173
 31
0.0
  0
LINE
  5
4D8
330
1F
100
AcDbEntity
  8
0
  6
Continuous
 62
     7
370
    15
100
AcDbLine
 10
11.5406967671
 20
6.237063106
 30
0.0
 11
11.5426653043
 21
6.237063106
 31
0.0
  0
LINE
  5
4D9
330
1F
100
AcDbEntity
  8
0
  6
Continuous
 62
     7
370
    15
100
AcDbLine
 10
11.5426653043
 20
6.2007879451
 30
0.0
 11
11.4757361558
 21
6.2042955846
 31
0.0
  0
LWPOLYLINE
  5
4DA
330
1F
100
AcDbEntity
  8
0
  6
Continuous
 62
     7
370
    15
100
AcDbPolyline
 90
       11
 70
   128
 43
0.0
 10
11.6607975963
 20
6.2831822733
 10
11.6597324786
 20
6.2832380793
 10
11.6566525142
 20
6.2833995574
 10
11.6518914759
 20
6.2836490345
 10
11.645965331
 20
6.2839595976
 10
11.6395162155
 20
6.284297587
 10
11.633242988
 20
6.2846263366
 10
11.6278255139
 20
6.28491028
 10
11.6238508198
 20
6.2851186176
 10
11.6217495874
 20
6.2852286896
 10
11.6214814839
 20
6.2852427695
  0
LWPOLYLINE
  5
4DB
330
1F
100
AcDbEntity
  8
0
  6
Continuous
 62
     7
370
    15
100
AcDbPolyline
 90
       11
 70
   128
 43
0.0
 10
11.6214814839
 20
4.2991196467
 10
11.6225466015
 20
4.2991754527
 10
11.625626566
 20
4.2993368575
 10
11.6303876043
 20
4.2995864079
 10
11.6363137858
 20
4.299896971
 10
11.6427629013
 20
4.3002349604
 10
11.6490360922
 20
4.30056371
 10
11.654453603
 20
4.3008476534
 10
11.658428297
 20
4.3010559176
 10
11.6605294928
 20
4.301166063
 10
11.6607975963
 20
4.3011801428
  0
DIMENSION
  5
4DC
330
1F
100
AcDbEntity
  8
0
  6
Continuous
 62
     7
370
     0
100
AcDbDimension
  2
*D35
 10
11.3514712738
 20
4.701630027
 30
0.0
 11
11.3514712738
 21
4.524357574
 31
0.0
 70
   160
 71
     2
 42
-1.0
  3
SLDDIMSTYLE5
100
AcDbAlignedDimension
 13
11.5426652862
 23
4.9378504994
 33
0.0
 14
11.5426652862
 24
4.701630027
 34
0.0
 50
90.0
100
AcDbRotatedDimension
  0
DIMENSION
  5
4F1
330
1F
100
AcDbEntity
  8
0
  6
Continuous
 62
     7
370
     0
100
AcDbDimension
  2
*D36
 10
11.7222187729
 20
4.0610777805
 30
0.0
 11
12.1058258861
 21
4.0610777805
 31
0.0
 70
   160
 71
     2
 42
-1.0
  3
SLDDIMSTYLE5
100
AcDbAlignedDimension
 13
11.6017204043
 23
4.3000552238
 33
0.0
 14
11.7222187729
 24
4.701630027
 34
0.0
 50
0.0
100
AcDbRotatedDimension
  0
DIMENSION
  5
505
330
1F
100
AcDbEntity
  8
0
  6
Continuous
 62
     7
370
     0
100
AcDbDimension
  2
*D37
 10
11.1358685644
 20
5.7646221529
 30
0.0
 11
11.1358685644
 21
5.2921812081
 31
0.0
 70
   160
 71
     2
 42
-1.0
  3
SLDDIMSTYLE2
100
AcDbAlignedDimension
 13
11.3551652862
 23
4.8197402632
 33
0.0
 14
11.3551652862
 24
5.7646221529
 34
0.0
 50
90.0
100
AcDbRotatedDimension
  0
INSERT
  5
51F
102
{ACAD_REACTORS
330
529
102
}
330
1F
100
AcDbEntity
  8
0
  6
Continuous
 62
     7
370
     0
100
AcDbBlockReference
  2
SW_NOTE_5
 10
11.430556103
 20
6.7992568792
 30
0.0
  0
LEADER
  5
529
330
1F
100
AcDbEntity
  8
0
  6
Continuous
 62
     7
370
     0
100
AcDbLeader
  3
SLDDIMSTYLE8
 73
     2
 76
     3
 10
11.6111484781
 20
5.823987416
 30
0.0
 10
11.243056103
 20
6.7992568792
 30
0.0
 10
11.430556103
 20
6.7992568792
 30
0.0
340
51F
  0
LINE
  5
52A
330
1F
100
AcDbEntity
  8
0
  6
CENTERX2
 62
     7
370
     0
100
AcDbLine
 10
11.3551652862
 20
5.7646221529
 30
0.0
 11
11.9097187729
 21
5.7646221529
 31
0.0
  0
LINE
  5
52B
330
1F
100
AcDbEntity
  8
0
  6
CENTERX2
 62
     7
370
     0
100
AcDbLine
 10
11.9097187729
 20
4.8197402632
 30
0.0
 11
11.3551652862
 21
4.8197402632
 31
0.0
  0
LINE
  5
52C
330
1F
100
AcDbEntity
  8
0
  6
Continuous
 62
     7
370
    15
100
AcDbLine
 10
4.0725686866
 20
0.6673167466
 30
0.0
 11
4.069132693
 21
0.8641671405
 31
0.0
  0
LINE
  5
52D
330
1F
100
AcDbEntity
  8
0
  6
Continuous
 62
     7
370
    15
100
AcDbLine
 10
3.8397842791
 20
0.8641671405
 30
0.0
 11
3.8363482488
 21
0.6673167466
 31
0.0
  0
LINE
  5
52E
330
1F
100
AcDbEntity
  8
0
  6
Continuous
 62
     7
370
    15
100
AcDbLine
 10
2.9702065212
 20
0.6673167466
 30
0.0
 11
2.9667704542
 21
0.8641671405
 31
0.0
  0
LINE
  5
52F
330
1F
100
AcDbEntity
  8
0
  6
Continuous
 62
     7
370
    15
100
AcDbLine
 10
2.737422077
 20
0.8641671405
 30
0.0
 11
2.7339860467
 21
0.6673167466
 31
0.0
  0
LINE
  5
530
330
1F
100
AcDbEntity
  8
0
  6
Continuous
 62
     7
370
    15
100
AcDbLine
 10
4.3875293682
 20
0.9822773823
 30
0.0
 11
4.3402852806
 21
0.9822773823
 31
0.0
  0
LINE
  5
531
330
1F
100
AcDbEntity
  8
0
  6
Continuous
 62
     7
370
    15
100
AcDbLine
 10
4.3402852806
 20
0.9822773823
 30
0.0
 11
4.3402852806
 21
0.9232222637
 31
0.0
  0
LINE
  5
532
330
1F
100
AcDbEntity
  8
0
  6
Continuous
 62
     7
370
    15
100
AcDbLine
 10
4.3875293682
 20
0.9822773823
 30
0.0
 11
4.3544086041
 21
1.6142590766
 31
0.0
  0
ARC
  5
533
330
1F
100
AcDbEntity
  8
0
  6
Continuous
 62
     7
370
    15
100
AcDbCircle
 10
4.3150924594
 20
1.6121986376
 30
0.0
 40
0.0393700787401572
100
AcDbArc
 50
3.0
 51
90.0
  0
LINE
  5
534
330
1F
100
AcDbEntity
  8
0
  6
Continuous
 62
     7
370
    15
100
AcDbLine
 10
4.3402852806
 20
0.9232222637
 30
0.0
 11
4.3040101197
 21
0.9232222637
 31
0.0
  0
LINE
  5
535
330
1F
100
AcDbEntity
  8
0
  6
Continuous
 62
     7
370
    15
100
AcDbLine
 10
4.2699656596
 20
1.5728285685
 30
0.0
 11
4.3040101197
 21
0.9232222637
 31
0.0
  0
LINE
  5
536
330
1F
100
AcDbEntity
  8
0
  6
Continuous
 62
     7
370
    15
100
AcDbLine
 10
4.2699656596
 20
1.5728285685
 30
0.0
 11
2.5365890371
 21
1.5728285685
 31
0.0
  0
LINE
  5
537
330
1F
100
AcDbEntity
  8
0
  6
Continuous
 62
     7
370
    15
100
AcDbLine
 10
2.5025446503
 20
0.9232222637
 30
0.0
 11
2.5365890371
 21
1.5728285685
 31
0.0
  0
LINE
  5
538
330
1F
100
AcDbEntity
  8
0
  6
Continuous
 62
     7
370
    15
100
AcDbLine
 10
2.5025446503
 20
0.9232222637
 30
0.0
 11
2.4662694894
 21
0.9232222637
 31
0.0
  0
LINE
  5
539
330
1F
100
AcDbEntity
  8
0
  6
Continuous
 62
     7
370
    15
100
AcDbLine
 10
4.3150924916
 20
1.6515687389
 30
0.0
 11
2.4914622784
 21
1.6515687389
 31
0.0
  0
LINE
  5
53A
330
1F
100
AcDbEntity
  8
0
  6
Continuous
 62
     7
370
    15
100
AcDbLine
 10
2.4662694894
 20
0.9232222637
 30
0.0
 11
2.4662694894
 21
0.9822773823
 31
0.0
  0
LINE
  5
53B
330
1F
100
AcDbEntity
  8
0
  6
Continuous
 62
     7
370
    15
100
AcDbLine
 10
2.4662694894
 20
0.9822773823
 30
0.0
 11
2.4190254018
 21
0.9822773823
 31
0.0
  0
ARC
  5
53C
330
1F
100
AcDbEntity
  8
0
  6
Continuous
 62
     7
370
    15
100
AcDbCircle
 10
2.4914622873
 20
1.6121986376
 30
0.0
 40
0.0393700787401572
100
AcDbArc
 50
90.0
 51
177.0
  0
LINE
  5
53D
330
1F
100
AcDbEntity
  8
0
  6
Continuous
 62
     7
370
    15
100
AcDbLine
 10
2.4521461659
 20
1.6142590766
 30
0.0
 11
2.4190254018
 21
0.9822773823
 31
0.0
  0
LINE
  5
53E
330
1F
100
AcDbEntity
  8
0
  6
Continuous
 62
     7
370
    15
100
AcDbLine
 10
3.7182379932
 20
0.9822773823
 30
0.0
 11
3.7182379932
 21
0.9232222637
 31
0.0
  0
LINE
  5
53F
330
1F
100
AcDbEntity
  8
0
  6
Continuous
 62
     7
370
    15
100
AcDbLine
 10
3.678867908
 20
0.8562931266
 30
0.0
 11
3.678867908
 21
0.9822773823
 31
0.0
  0
LINE
  5
540
330
1F
100
AcDbEntity
  8
0
  6
Continuous
 62
     7
370
    15
100
AcDbLine
 10
3.1276868253
 20
0.8562931266
 30
0.0
 11
3.678867908
 21
0.8562931266
 31
0.0
  0
LINE
  5
541
330
1F
100
AcDbEntity
  8
0
  6
Continuous
 62
     7
370
    15
100
AcDbLine
 10
3.1276868253
 20
0.9822773823
 30
0.0
 11
3.1276868253
 21
0.8562931266
 31
0.0
  0
LINE
  5
542
330
1F
100
AcDbEntity
  8
0
  6
Continuous
 62
     7
370
    15
100
AcDbLine
 10
3.0883167401
 20
0.9232222637
 30
0.0
 11
3.0883167401
 21
0.9822773823
 31
0.0
  0
LINE
  5
543
330
1F
100
AcDbEntity
  8
0
  6
Continuous
 62
     7
370
    15
100
AcDbLine
 10
3.0883167401
 20
0.9822773823
 30
0.0
 11
3.1276868253
 21
0.9822773823
 31
0.0
  0
LINE
  5
544
330
1F
100
AcDbEntity
  8
0
  6
Continuous
 62
     7
370
    15
100
AcDbLine
 10
3.678867908
 20
0.9822773823
 30
0.0
 11
3.7182379932
 21
0.9822773823
 31
0.0
  0
LINE
  5
545
330
1F
100
AcDbEntity
  8
0
  6
Continuous
 62
     7
370
    15
100
AcDbLine
 10
2.1257724562
 20
0.7460569032
 30
0.0
 11
2.1257724562
 21
0.5885765854
 31
0.0
  0
LINE
  5
546
330
1F
100
AcDbEntity
  8
0
  6
Continuous
 62
     7
370
    15
100
AcDbLine
 10
2.1257724562
 20
0.5885765854
 30
0.0
 11
2.0174505475
 21
0.5885765854
 31
0.0
  0
LINE
  5
547
330
1F
100
AcDbEntity
  8
0
  6
Continuous
 62
     7
370
    15
100
AcDbLine
 10
2.1257724562
 20
0.7460569032
 30
0.0
 11
2.0568207061
 21
0.7460569032
 31
0.0
  0
LINE
  5
548
330
1F
100
AcDbEntity
  8
0
  6
Continuous
 62
     7
370
    15
100
AcDbLine
 10
2.0174505475
 20
0.7066868226
 30
0.0
 11
2.0174505475
 21
0.5885765854
 31
0.0
  0
ARC
  5
549
330
1F
100
AcDbEntity
  8
0
  6
Continuous
 62
     7
370
    15
100
AcDbCircle
 10
2.0568206804
 20
0.7066868266
 30
0.0
 40
0.0393700787401579
100
AcDbArc
 50
90.0
 51
180.0
  0
LINE
  5
54A
330
1F
100
AcDbEntity
  8
0
  6
Continuous
 62
     7
370
    15
100
AcDbLine
 10
2.3028294908
 20
0.5885765854
 30
0.0
 11
2.3028294908
 21
0.7460569032
 31
0.0
  0
LINE
  5
54B
330
1F
100
AcDbEntity
  8
0
  6
Continuous
 62
     7
370
    15
100
AcDbLine
 10
2.1257724562
 20
0.5885765854
 30
0.0
 11
2.3028294908
 21
0.5885765854
 31
0.0
  0
LINE
  5
54C
330
1F
100
AcDbEntity
  8
0
  6
Continuous
 62
     7
370
    15
100
AcDbLine
 10
2.1257724562
 20
0.7460569032
 30
0.0
 11
2.3028294908
 21
0.7460569032
 31
0.0
  0
LINE
  5
54D
330
1F
100
AcDbEntity
  8
0
  6
Continuous
 62
     7
370
    15
100
AcDbLine
 10
4.3442222818
 20
0.9232222637
 30
0.0
 11
4.2978201978
 21
0.9232222637
 31
0.0
  0
LINE
  5
54E
330
1F
100
AcDbEntity
  8
0
  6
Continuous
 62
     7
370
    15
100
AcDbLine
 10
4.3442222818
 20
0.9232222637
 30
0.0
 11
4.3442222818
 21
0.9822773823
 31
0.0
  0
LINE
  5
54F
330
1F
100
AcDbEntity
  8
0
  6
Continuous
 62
     7
370
    15
100
AcDbLine
 10
4.3678442889
 20
0.9822773823
 30
0.0
 11
4.3442222818
 21
0.9822773823
 31
0.0
  0
LINE
  5
550
330
1F
100
AcDbEntity
  8
0
  6
Continuous
 62
     7
370
    15
100
AcDbLine
 10
4.3678442889
 20
0.9429072971
 30
0.0
 11
4.3678442889
 21
0.9822773823
 31
0.0
  0
LINE
  5
551
330
1F
100
AcDbEntity
  8
0
  6
Continuous
 62
     7
370
    15
100
AcDbLine
 10
4.389592651
 20
0.9429072971
 30
0.0
 11
4.3678442889
 21
0.9429072971
 31
0.0
  0
LINE
  5
552
330
1F
100
AcDbEntity
  8
0
  6
Continuous
 62
     7
370
    15
100
AcDbLine
 10
4.3999091385
 20
0.7460569032
 30
0.0
 11
4.389592651
 21
0.9429072971
 31
0.0
  0
LINE
  5
553
330
1F
100
AcDbEntity
  8
0
  6
Continuous
 62
     7
370
    15
100
AcDbLine
 10
4.5037252059
 20
0.7460569032
 30
0.0
 11
4.5037252059
 21
0.5885765854
 31
0.0
  0
LINE
  5
554
330
1F
100
AcDbEntity
  8
0
  6
Continuous
 62
     7
370
    15
100
AcDbLine
 10
2.4387104078
 20
0.9429072971
 30
0.0
 11
2.416962119
 21
0.9429072971
 31
0.0
  0
LINE
  5
555
330
1F
100
AcDbEntity
  8
0
  6
Continuous
 62
     7
370
    15
100
AcDbLine
 10
2.4387104078
 20
0.9822773823
 30
0.0
 11
2.4387104078
 21
0.9429072971
 31
0.0
  0
LINE
  5
556
330
1F
100
AcDbEntity
  8
0
  6
Continuous
 62
     7
370
    15
100
AcDbLine
 10
2.4623324882
 20
0.9822773823
 30
0.0
 11
2.4387104078
 21
0.9822773823
 31
0.0
  0
LINE
  5
557
330
1F
100
AcDbEntity
  8
0
  6
Continuous
 62
     7
370
    15
100
AcDbLine
 10
2.4623324882
 20
0.9822773823
 30
0.0
 11
2.4623324882
 21
0.9232222637
 31
0.0
  0
LINE
  5
558
330
1F
100
AcDbEntity
  8
0
  6
Continuous
 62
     7
370
    15
100
AcDbLine
 10
2.5087344988
 20
0.9232222637
 30
0.0
 11
2.4623324882
 21
0.9232222637
 31
0.0
  0
LINE
  5
559
330
1F
100
AcDbEntity
  8
0
  6
Continuous
 62
     7
370
    15
100
AcDbLine
 10
2.5221459839
 20
0.6673167466
 30
0.0
 11
2.5087344988
 21
0.9232222637
 31
0.0
  0
LINE
  5
55A
330
1F
100
AcDbEntity
  8
0
  6
Continuous
 62
     7
370
    15
100
AcDbLine
 10
4.2844087861
 20
0.6673167466
 30
0.0
 11
2.5221459839
 21
0.6673167466
 31
0.0
  0
LINE
  5
55B
330
1F
100
AcDbEntity
  8
0
  6
Continuous
 62
     7
370
    15
100
AcDbLine
 10
4.2978201978
 20
0.9232222637
 30
0.0
 11
4.2844087861
 21
0.6673167466
 31
0.0
  0
LINE
  5
55C
330
1F
100
AcDbEntity
  8
0
  6
Continuous
 62
     7
370
    15
100
AcDbLine
 10
2.416962119
 20
0.9429072971
 30
0.0
 11
2.4066456315
 21
0.7460569032
 31
0.0
  0
LINE
  5
55D
330
1F
100
AcDbEntity
  8
0
  6
Continuous
 62
     7
370
    15
100
AcDbLine
 10
4.5037252059
 20
0.5885765854
 30
0.0
 11
2.3028294908
 21
0.5885765854
 31
0.0
  0
LINE
  5
55E
330
1F
100
AcDbEntity
  8
0
  6
Continuous
 62
     7
370
    15
100
AcDbLine
 10
4.5037252059
 20
0.7460569032
 30
0.0
 11
4.3999091385
 21
0.7460569032
 31
0.0
  0
LINE
  5
55F
330
1F
100
AcDbEntity
  8
0
  6
Continuous
 62
     7
370
    15
100
AcDbLine
 10
2.4066456315
 20
0.7460569032
 30
0.0
 11
2.3028294908
 21
0.7460569032
 31
0.0
  0
LINE
  5
560
330
1F
100
AcDbEntity
  8
0
  6
Continuous
 62
     7
370
    15
100
AcDbLine
 10
4.6807823138
 20
0.5885765854
 30
0.0
 11
4.6807823138
 21
0.7460569032
 31
0.0
  0
LINE
  5
561
330
1F
100
AcDbEntity
  8
0
  6
Continuous
 62
     7
370
    15
100
AcDbLine
 10
4.5037252059
 20
0.5885765854
 30
0.0
 11
4.6807823138
 21
0.5885765854
 31
0.0
  0
LINE
  5
562
330
1F
100
AcDbEntity
  8
0
  6
Continuous
 62
     7
370
    15
100
AcDbLine
 10
4.5037252059
 20
0.7460569032
 30
0.0
 11
4.6807823138
 21
0.7460569032
 31
0.0
  0
LINE
  5
563
330
1F
100
AcDbEntity
  8
0
  6
Continuous
 62
     7
370
    15
100
AcDbLine
 10
4.7891040758
 20
0.5885765854
 30
0.0
 11
4.6807823138
 21
0.5885765854
 31
0.0
  0
LINE
  5
564
330
1F
100
AcDbEntity
  8
0
  6
Continuous
 62
     7
370
    15
100
AcDbLine
 10
4.7891040758
 20
0.7066868226
 30
0.0
 11
4.7891040758
 21
0.5885765854
 31
0.0
  0
LINE
  5
565
330
1F
100
AcDbEntity
  8
0
  6
Continuous
 62
     7
370
    15
100
AcDbLine
 10
4.749734064
 20
0.7460569032
 30
0.0
 11
4.6807823138
 21
0.7460569032
 31
0.0
  0
ARC
  5
566
330
1F
100
AcDbEntity
  8
0
  6
Continuous
 62
     7
370
    15
100
AcDbCircle
 10
4.7497340662
 20
0.7066868266
 30
0.0
 40
0.0393700787401575
100
AcDbArc
 50
0.0
 51
90.0
  0
LINE
  5
567
330
1F
100
AcDbEntity
  8
0
  6
Continuous
 62
     7
370
    15
100
AcDbLine
 10
4.069132693
 20
0.8641671405
 30
0.0
 11
3.8397842791
 21
0.8641671405
 31
0.0
  0
LINE
  5
568
330
1F
100
AcDbEntity
  8
0
  6
Continuous
 62
     7
370
    15
100
AcDbLine
 10
2.9667704542
 20
0.8641671405
 30
0.0
 11
2.737422077
 21
0.8641671405
 31
0.0
  0
LINE
  5
569
330
1F
100
AcDbEntity
  8
0
  6
Continuous
 62
     7
370
    15
100
AcDbLine
 10
3.0883167401
 20
0.8444821024
 30
0.0
 11
3.0883167401
 21
0.9232222637
 31
0.0
  0
LINE
  5
56A
330
1F
100
AcDbEntity
  8
0
  6
Continuous
 62
     7
370
    15
100
AcDbLine
 10
3.7182379932
 20
0.8444821024
 30
0.0
 11
3.0883167401
 21
0.8444821024
 31
0.0
  0
LINE
  5
56B
330
1F
100
AcDbEntity
  8
0
  6
Continuous
 62
     7
370
    15
100
AcDbLine
 10
3.7182379932
 20
0.9232222637
 30
0.0
 11
3.7182379932
 21
0.8444821024
 31
0.0
  0
LINE
  5
56C
330
1F
100
AcDbEntity
  8
0
  6
Continuous
 62
     7
370
    15
100
AcDbLine
 10
3.7182379932
 20
0.9232222637
 30
0.0
 11
4.2978201978
 21
0.9232222637
 31
0.0
  0
LINE
  5
56D
330
1F
100
AcDbEntity
  8
0
  6
Continuous
 62
     7
370
    15
100
AcDbLine
 10
2.5087344988
 20
0.9232222637
 30
0.0
 11
3.0883167401
 21
0.9232222637
 31
0.0
  0
LINE
  5
56E
330
1F
100
AcDbEntity
  8
0
  6
Continuous
 62
     7
370
    15
100
AcDbLine
 10
3.7182379932
 20
0.9232222637
 30
0.0
 11
3.678867908
 21
0.9232222637
 31
0.0
  0
LINE
  5
56F
330
1F
100
AcDbEntity
  8
0
  6
Continuous
 62
     7
370
    15
100
AcDbLine
 10
3.1276868253
 20
0.9232222637
 30
0.0
 11
3.0883167401
 21
0.9232222637
 31
0.0
  0
HATCH
  5
570
330
1F
100
AcDbEntity
  8
0
  6
Continuous
 62
     7
370
     0
100
AcDbHatch
 10
0.0
 20
0.0
 30
0.0
210
0.0
220
0.0
230
1.0
  2
ANSI31
 70
     0
 71
     0
 91
        1
 92
        0
 93
        5
 72
     1
 10
2.125772475832115
 20
0.7460569053635755
 11
2.056820680418624
 21
0.7460569053635755
 72
     2
 10
2.056820680418624
 20
0.706686826623418
 40
0.0393700787401575
 50
90.0
 51
180.0
 73
     1
 72
     1
 10
2.017450601678466
 20
0.706686826623418
 11
2.017450601678467
 21
0.5885765904029456
 72
     1
 10
2.017450601678467
 20
0.5885765904029456
 11
2.125772475832115
 21
0.5885765904029456
 72
     1
 10
2.125772475832115
 20
0.5885765904029456
 11
2.125772475832115
 21
0.7460569053635755
 97
        0
 75
     0
 76
     1
 52
0.0
 41
0.75
 77
     0
 78
     1
 53
45.0
 43
0.0
 44
0.0
 45
-0.0662912607362388
 46
0.0662912607362388
 79
     0
 98
        1
 10
0.0
 20
0.0
  0
HATCH
  5
571
330
1F
100
AcDbEntity
  8
0
  6
Continuous
 62
     7
370
     0
100
AcDbHatch
 10
0.0
 20
0.0
 30
0.0
210
0.0
220
0.0
230
1.0
  2
ANSI31
 70
     0
 71
     0
 91
        1
 92
        0
 93
       20
 72
     1
 10
4.297820221012144
 20
0.9232222596942842
 11
4.284408781431839
 21
0.6673167478832605
 72
     1
 10
4.284408781431839
 20
0.6673167478832605
 11
2.52214596523218
 21
0.6673167478832605
 72
     1
 10
2.52214596523218
 20
0.6673167478832605
 11
2.508734525651874
 21
0.9232222596942842
 72
     1
 10
2.508734525651874
 20
0.9232222596942842
 11
2.462332491442246
 21
0.9232222596942842
 72
     1
 10
2.462332491442246
 20
0.9232222596942842
 11
2.462332491442246
 21
0.9822773778045203
 72
     1
 10
2.462332491442246
 20
0.9822773778045203
 11
2.438710444198152
 21
0.9822773778045203
 72
     1
 10
2.438710444198152
 20
0.9822773778045203
 11
2.438710444198152
 21
0.942907299064363
 72
     1
 10
2.438710444198152
 20
0.942907299064363
 11
2.416962106431242
 21
0.9429072990670304
 72
     1
 10
2.416962106431242
 20
0.9429072990670304
 11
2.406645614446333
 21
0.7460569053635755
 72
     1
 10
2.406645614446333
 20
0.7460569053635755
 11
2.302829514926392
 21
0.7460569053635755
 72
     1
 10
2.302829514926392
 20
0.7460569053635755
 11
2.302829514926392
 21
0.5885765904029456
 72
     1
 10
2.302829514926392
 20
0.5885765904029456
 11
4.503725231737627
 21
0.5885765904029456
 72
     1
 10
4.503725231737627
 20
0.5885765904029456
 11
4.503725231737627
 21
0.7460569053635755
 72
     1
 10
4.503725231737627
 20
0.7460569053635755
 11
4.399909132217687
 21
0.7460569053635755
 72
     1
 10
4.399909132217687
 20
0.7460569053635755
 11
4.389592640232777
 21
0.9429072990670304
 72
     1
 10
4.389592640232777
 20
0.9429072990670304
 11
4.367844302465868
 21
0.942907299064363
 72
     1
 10
4.367844302465868
 20
0.942907299064363
 11
4.367844302465868
 21
0.9822773778045203
 72
     1
 10
4.367844302465868
 20
0.9822773778045203
 11
4.344222255221774
 21
0.9822773778045203
 72
     1
 10
4.344222255221774
 20
0.9822773778045203
 11
4.344222255221774
 21
0.9232222596942842
 72
     1
 10
4.344222255221774
 20
0.9232222596942842
 11
4.297820221012144
 21
0.9232222596942842
 97
        0
 75
     0
 76
     1
 52
0.0
 41
0.75
 77
     0
 78
     1
 53
45.0
 43
0.0
 44
0.0
 45
-0.0662912607362388
 46
0.0662912607362388
 79
     0
 98
        1
 10
0.0
 20
0.0
  0
HATCH
  5
572
330
1F
100
AcDbEntity
  8
0
  6
Continuous
 62
     7
370
     0
100
AcDbHatch
 10
0.0
 20
0.0
 30
0.0
210
0.0
220
0.0
230
1.0
  2
ANSI31
 70
     0
 71
     0
 91
        1
 92
        0
 93
        5
 72
     1
 10
4.789104144985553
 20
0.5885765904029456
 11
4.789104144985553
 21
0.706686826623418
 72
     2
 10
4.749734066245396
 20
0.706686826623418
 40
0.0393700787401575
 50
0.0
 51
90.0
 73
     1
 72
     1
 10
4.749734066245396
 20
0.7460569053635755
 11
4.680782270831905
 21
0.7460569053635755
 72
     1
 10
4.680782270831905
 20
0.7460569053635755
 11
4.680782270831905
 21
0.5885765904029456
 72
     1
 10
4.680782270831905
 20
0.5885765904029456
 11
4.789104144985553
 21
0.5885765904029456
 97
        0
 75
     0
 76
     1
 52
0.0
 41
0.75
 77
     0
 78
     1
 53
45.0
 43
0.0
 44
0.0
 45
-0.0662912607362388
 46
0.0662912607362388
 79
     0
 98
        1
 10
0.0
 20
0.0
  0
HATCH
  5
573
330
1F
100
AcDbEntity
  8
0
  6
Continuous
 62
     7
370
     0
100
AcDbHatch
 10
0.0
 20
0.0
 30
0.0
210
0.0
220
0.0
230
1.0
  2
ANSI31
 70
     0
 71
     0
 91
        1
 92
        0
 93
       14
 72
     1
 10
2.536589054010971
 20
1.572828558906883
 11
4.269965692653048
 21
1.572828558906883
 72
     1
 10
4.269965692653048
 20
1.572828558906883
 11
4.304010116203055
 21
0.9232222596942842
 72
     1
 10
4.304010116203055
 20
0.9232222596942842
 11
4.340285247347757
 21
0.9232222596942844
 72
     1
 10
4.340285247347757
 20
0.9232222596942844
 11
4.340285247347757
 21
0.9822773778045203
 72
     1
 10
4.340285247347757
 20
0.9822773778045203
 11
4.387529341835947
 21
0.9822773778045203
 72
     1
 10
4.387529341835947
 20
0.9822773778045203
 11
4.354408582789805
 21
1.614259108365266
 72
     2
 10
4.31509245937427
 20
1.61219863764704
 40
0.0393700787401575
 50
2.999999999999294
 51
90.0
 73
     1
 72
     1
 10
4.31509245937427
 20
1.651568716387197
 11
2.491462287289749
 21
1.651568716387197
 72
     2
 10
2.491462287289749
 20
1.61219863764704
 40
0.0393700787401575
 50
90.0
 51
177.0000000000007
 73
     1
 72
     1
 10
2.452146163874215
 20
1.614259108365266
 11
2.419025404828073
 21
0.9822773778045203
 72
     1
 10
2.419025404828073
 20
0.9822773778045203
 11
2.466269499316262
 21
0.9822773778045203
 72
     1
 10
2.466269499316262
 20
0.9822773778045203
 11
2.466269499316262
 21
0.9232222596942844
 72
     1
 10
2.466269499316262
 20
0.9232222596942844
 11
2.502544630460964
 21
0.9232222596942842
 72
     1
 10
2.502544630460964
 20
0.9232222596942842
 11
2.536589054010971
 21
1.572828558906883
 97
        0
 75
     0
 76
     1
 52
0.0
 41
0.75
 77
     0
 78
     1
 53
45.0
 43
0.0
 44
0.0
 45
-0.0662912607362388
 46
0.0662912607362388
 79
     0
 98
        1
 10
0.0
 20
0.0
  0
DIMENSION
  5
574
330
1F
100
AcDbEntity
  8
0
  6
Continuous
 62
     7
370
     0
100
AcDbDimension
  2
*D40
 10
1.7997551631
 20
1.5728285589
 30
0.0
 11
1.7997551631
 21
1.2184978502
 31
0.0
 70
   160
 71
     2
 42
-1.0
  3
SLDDIMSTYLE2
100
AcDbAlignedDimension
 13
2.7374220712
 23
0.8641671416
 33
0.0
 14
2.536589054
 24
1.5728285589
 34
0.0
 50
90.0
100
AcDbRotatedDimension
  0
DIMENSION
  5
588
330
1F
100
AcDbEntity
  8
0
  6
Continuous
 62
     7
370
     0
100
AcDbDimension
  2
*D41
 10
5.136944141
 20
1.5728285589
 30
0.0
 11
5.136944141
 21
1.1200726534
 31
0.0
 70
   160
 71
     2
 42
-1.0
  3
SLDDIMSTYLE2
100
AcDbAlignedDimension
 13
4.2844087814
 23
0.6673167479
 33
0.0
 14
4.2699656927
 24
1.5728285589
 34
0.0
 50
90.0
100
AcDbRotatedDimension
  0
DIMENSION
  5
59C
330
1F
100
AcDbEntity
  8
0
  6
Continuous
 62
     7
370
     0
100
AcDbDimension
  2
*D42
 10
5.5263309367
 20
1.6515687164
 30
0.0
 11
5.5263309367
 21
1.1200726534
 31
0.0
 70
   160
 71
     2
 42
-1.0
  3
SLDDIMSTYLE2
100
AcDbAlignedDimension
 13
4.789104145
 23
0.5885765904
 33
0.0
 14
4.3150924594
 24
1.6515687164
 34
0.0
 50
90.0
100
AcDbRotatedDimension
  0
ENDSEC
  0
SECTION
  2
OBJECTS
  0
DICTIONARY
  5
C
330
0
100
AcDbDictionary
281
     1
  3
ACAD_GROUP
350
D
  3
ACAD_LAYOUT
350
1A
  3
ACAD_MLINESTYLE
350
17
  3
ACAD_PLOTSETTINGS
350
19
  3
ACAD_PLOTSTYLENAME
350
E
  0
DICTIONARY
  5
D
102
{ACAD_REACTORS
330
C
102
}
330
C
100
AcDbDictionary
281
     1
  0
DICTIONARY
  5
1A
102
{ACAD_REACTORS
330
C
102
}
330
C
100
AcDbDictionary
281
     1
  3
Layout1
350
1E
  3
Layout2
350
26
  3
Model
350
22
  0
DICTIONARY
  5
17
102
{ACAD_REACTORS
330
C
102
}
330
C
100
AcDbDictionary
281
     1
  3
Standard
350
18
  0
DICTIONARY
  5
19
102
{ACAD_REACTORS
330
C
102
}
330
C
100
AcDbDictionary
281
     1
  0
ACDBDICTIONARYWDFLT
  5
E
102
{ACAD_REACTORS
330
C
102
}
330
C
100
AcDbDictionary
281
     1
  3
Normal
350
F
100
AcDbDictionaryWithDefault
340
F
  0
LAYOUT
  5
1E
102
{ACAD_REACTORS
330
1A
102
}
330
1A
100
AcDbPlotSettings
  1

  2
none_device
  4

  6

 40
0.0
 41
0.0
 42
0.0
 43
0.0
 44
0.0
 45
0.0
 46
0.0
 47
0.0
 48
0.0
 49
0.0
140
0.0
141
0.0
142
1.0
143
1.0
 70
   688
 72
     0
 73
     0
 74
     5
  7

 75
    16
147
1.0
148
0.0
149
0.0
100
AcDbLayout
  1
Layout1
 70
     1
 71
     1
 10
0.0
 20
0.0
 11
12.0
 21
9.0
 12
0.0
 22
0.0
 32
0.0
 14
1.0000000000E+20
 24
1.0000000000E+20
 34
1.0000000000E+20
 15
-1.0000000000E+20
 25
-1.0000000000E+20
 35
-1.0000000000E+20
146
0.0
 13
0.0
 23
0.0
 33
0.0
 16
1.0
 26
0.0
 36
0.0
 17
0.0
 27
1.0
 37
0.0
 76
     0
330
1B
  0
LAYOUT
  5
26
102
{ACAD_REACTORS
330
1A
102
}
330
1A
100
AcDbPlotSettings
  1

  2
none_device
  4

  6

 40
0.0
 41
0.0
 42
0.0
 43
0.0
 44
0.0
 45
0.0
 46
0.0
 47
0.0
 48
0.0
 49
0.0
140
0.0
141
0.0
142
1.0
143
1.0
 70
   688
 72
     0
 73
     0
 74
     5
  7

 75
    16
147
1.0
148
0.0
149
0.0
100
AcDbLayout
  1
Layout2
 70
     1
 71
     2
 10
0.0
 20
0.0
 11
0.0
 21
0.0
 12
0.0
 22
0.0
 32
0.0
 14
0.0
 24
0.0
 34
0.0
 15
0.0
 25
0.0
 35
0.0
146
0.0
 13
0.0
 23
0.0
 33
0.0
 16
1.0
 26
0.0
 36
0.0
 17
0.0
 27
1.0
 37
0.0
 76
     0
330
23
  0
LAYOUT
  5
22
102
{ACAD_REACTORS
330
1A
102
}
330
1A
100
AcDbPlotSettings
  1

  2
none_device
  4

  6

 40
0.0
 41
0.0
 42
0.0
 43
0.0
 44
0.0
 45
0.0
 46
0.0
 47
0.0
 48
0.0
 49
0.0
140
0.0
141
0.0
142
1.0
143
1.0
 70
  1712
 72
     0
 73
     0
 74
     0
  7

 75
     0
147
1.0
148
0.0
149
0.0
100
AcDbLayout
  1
Model
 70
     1
 71
     0
 10
0.0
 20
0.0
 11
12.75
 21
8.25
 12
0.0
 22
0.0
 32
0.0
 14
0.0
 24
0.0
 34
0.0
 15
12.75
 25
8.25
 35
0.0
146
0.0
 13
0.0
 23
0.0
 33
0.0
 16
1.0
 26
0.0
 36
0.0
 17
0.0
 27
1.0
 37
0.0
 76
     0
330
1F
331
29
  0
MLINESTYLE
  5
18
102
{ACAD_REACTORS
330
17
102
}
330
17
100
AcDbMlineStyle
  2
Standard
 70
     0
  3

 62
   256
 51
90.0
 52
90.0
 71
     2
 49
0.5
 62
   256
  6
BYLAYER
 49
-0.5
 62
   256
  6
BYLAYER
  0
ACDBPLACEHOLDER
  5
F
102
{ACAD_REACTORS
330
E
102
}
330
E
  0
ENDSEC
  0
EOF
