  0
SECTION
  2
HEADER
  9
$ACADVER
  1
AC1015
  9
$ACADMAINTVER
 70
     6
  9
$DWGCODEPAGE
  3
ANSI_1252
  9
$INSBASE
 10
0.0
 20
0.0
 30
0.0
  9
$EXTMIN
 10
0.0
 20
0.0
 30
0.0
  9
$EXTMAX
 10
14.875
 20
9.625
 30
0.0
  9
$LIMMIN
 10
0.0
 20
0.0
  9
$LIMMAX
 10
14.875
 20
9.625
  9
$ORTHOMODE
 70
     0
  9
$REGENMODE
 70
     1
  9
$FILLMODE
 70
     1
  9
$QTEXTMODE
 70
     0
  9
$MIRRTEXT
 70
     1
  9
$LTSCALE
 40
0.875
  9
$ATTMODE
 70
     1
  9
$TEXTSIZE
 40
0.109375
  9
$TRACEWID
 40
0.05
  9
$TEXTSTYLE
  7
Standard
  9
$CLAYER
  8
0
  9
$CELTYPE
  6
ByLayer
  9
$CECOLOR
 62
   256
  9
$CELTSCALE
 40
1.0
  9
$DISPSILH
 70
     0
  9
$DIMSCALE
 40
1.0
  9
$DIMASZ
 40
0.11375
  9
$DIMEXO
 40
0.04375
  9
$DIMDLI
 40
0.38
  9
$DIMRND
 40
0.0
  9
$DIMDLE
 40
0.0
  9
$DIMEXE
 40
0.109375
  9
$DIMTP
 40
0.0
  9
$DIMTM
 40
0.0
  9
$DIMTXT
 40
0.109375
  9
$DIMCEN
 40
0.09
  9
$DIMTSZ
 40
0.0
  9
$DIMTOL
 70
     0
  9
$DIMLIM
 70
     0
  9
$DIMTIH
 70
     1
  9
$DIMTOH
 70
     1
  9
$DIMSE1
 70
     0
  9
$DIMSE2
 70
     0
  9
$DIMTAD
 70
     1
  9
$DIMZIN
 70
     0
  9
$DIMBLK
  1

  9
$DIMASO
 70
     1
  9
$DIMSHO
 70
     1
  9
$DIMPOST
  1

  9
$DIMAPOST
  1

  9
$DIMALT
 70
     0
  9
$DIMALTD
 70
     2
  9
$DIMALTF
 40
25.4
  9
$DIMLFAC
 40
1.0
  9
$DIMTOFL
 70
     0
  9
$DIMTVP
 40
0.0
  9
$DIMTIX
 70
     0
  9
$DIMSOXD
 70
     0
  9
$DIMSAH
 70
     0
  9
$DIMBLK1
  1

  9
$DIMBLK2
  1

  9
$DIMSTYLE
  2
Standard
  9
$DIMCLRD
 70
     0
  9
$DIMCLRE
 70
     0
  9
$DIMCLRT
 70
     0
  9
$DIMTFAC
 40
1.0
  9
$DIMGAP
 40
0.0525
  9
$DIMJUST
 70
     0
  9
$DIMSD1
 70
     0
  9
$DIMSD2
 70
     0
  9
$DIMTOLJ
 70
     1
  9
$DIMTZIN
 70
     0
  9
$DIMALTZ
 70
     0
  9
$DIMALTTZ
 70
     0
  9
$DIMUPT
 70
     0
  9
$DIMDEC
 70
     2
  9
$DIMTDEC
 70
     2
  9
$DIMALTU
 70
     2
  9
$DIMALTTD
 70
     2
  9
$DIMTXSTY
  7
Standard
  9
$DIMAUNIT
 70
     0
  9
$DIMADEC
 70
     2
  9
$DIMALTRND
 40
0.0
  9
$DIMAZIN
 70
     0
  9
$DIMDSEP
 70
    46
  9
$DIMATFIT
 70
     3
  9
$DIMFRAC
 70
     0
  9
$DIMLDRBLK
  1

  9
$DIMLUNIT
 70
     2
  9
$DIMLWD
 70
    -2
  9
$DIMLWE
 70
    -2
  9
$DIMTMOVE
 70
     0
  9
$LUNITS
 70
     2
  9
$LUPREC
 70
     2
  9
$SKETCHINC
 40
0.1
  9
$FILLETRAD
 40
0.5
  9
$AUNITS
 70
     0
  9
$AUPREC
 70
     2
  9
$MENU
  1
.
  9
$ELEVATION
 40
0.0
  9
$PELEVATION
 40
0.0
  9
$THICKNESS
 40
0.0
  9
$LIMCHECK
 70
     0
  9
$CHAMFERA
 40
0.5
  9
$CHAMFERB
 40
0.5
  9
$CHAMFERC
 40
1.0
  9
$CHAMFERD
 40
0.0
  9
$SKPOLY
 70
     0
  9
$TDCREATE
 40
2456966.624803484
  9
$TDUCREATE
 40
2456966.833136817
  9
$TDUPDATE
 40
2456966.624803496
  9
$TDUUPDATE
 40
2456966.833136829
  9
$TDINDWG
 40
0.0000000116
  9
$TDUSRTIMER
 40
0.0000000116
  9
$USRTIMER
 70
     1
  9
$ANGBASE
 50
0.0
  9
$ANGDIR
 70
     0
  9
$PDMODE
 70
     0
  9
$PDSIZE
 40
-1.0
  9
$PLINEWID
 40
0.0
  9
$SPLFRAME
 70
     0
  9
$SPLINETYPE
 70
     6
  9
$SPLINESEGS
 70
     8
  9
$HANDSEED
  5
5B3
  9
$SURFTAB1
 70
     6
  9
$SURFTAB2
 70
     6
  9
$SURFTYPE
 70
     6
  9
$SURFU
 70
     6
  9
$SURFV
 70
     6
  9
$UCSBASE
  2

  9
$UCSNAME
  2

  9
$UCSORG
 10
0.0
 20
0.0
 30
0.0
  9
$UCSXDIR
 10
1.0
 20
0.0
 30
0.0
  9
$UCSYDIR
 10
0.0
 20
1.0
 30
0.0
  9
$UCSORTHOREF
  2

  9
$UCSORTHOVIEW
 70
     0
  9
$UCSORGTOP
 10
0.0
 20
0.0
 30
0.0
  9
$UCSORGBOTTOM
 10
0.0
 20
0.0
 30
0.0
  9
$UCSORGLEFT
 10
0.0
 20
0.0
 30
0.0
  9
$UCSORGRIGHT
 10
0.0
 20
0.0
 30
0.0
  9
$UCSORGFRONT
 10
0.0
 20
0.0
 30
0.0
  9
$UCSORGBACK
 10
0.0
 20
0.0
 30
0.0
  9
$PUCSBASE
  2

  9
$PUCSNAME
  2

  9
$PUCSORG
 10
0.0
 20
0.0
 30
0.0
  9
$PUCSXDIR
 10
1.0
 20
0.0
 30
0.0
  9
$PUCSYDIR
 10
0.0
 20
1.0
 30
0.0
  9
$PUCSORTHOREF
  2

  9
$PUCSORTHOVIEW
 70
     0
  9
$PUCSORGTOP
 10
0.0
 20
0.0
 30
0.0
  9
$PUCSORGBOTTOM
 10
0.0
 20
0.0
 30
0.0
  9
$PUCSORGLEFT
 10
0.0
 20
0.0
 30
0.0
  9
$PUCSORGRIGHT
 10
0.0
 20
0.0
 30
0.0
  9
$PUCSORGFRONT
 10
0.0
 20
0.0
 30
0.0
  9
$PUCSORGBACK
 10
0.0
 20
0.0
 30
0.0
  9
$USERI1
 70
     0
  9
$USERI2
 70
     0
  9
$USERI3
 70
     0
  9
$USERI4
 70
     0
  9
$USERI5
 70
     0
  9
$USERR1
 40
0.0
  9
$USERR2
 40
0.0
  9
$USERR3
 40
0.0
  9
$USERR4
 40
0.0
  9
$USERR5
 40
0.0
  9
$WORLDVIEW
 70
     1
  9
$SHADEDGE
 70
     3
  9
$SHADEDIF
 70
    70
  9
$TILEMODE
 70
     1
  9
$MAXACTVP
 70
    64
  9
$PINSBASE
 10
0.0
 20
0.0
 30
0.0
  9
$PLIMCHECK
 70
     0
  9
$PEXTMIN
 10
1.0000000000E+20
 20
1.0000000000E+20
 30
1.0000000000E+20
  9
$PEXTMAX
 10
-1.0000000000E+20
 20
-1.0000000000E+20
 30
-1.0000000000E+20
  9
$PLIMMIN
 10
0.0
 20
0.0
  9
$PLIMMAX
 10
12.0
 20
9.0
  9
$UNITMODE
 70
     0
  9
$VISRETAIN
 70
     1
  9
$PLINEGEN
 70
     0
  9
$PSLTSCALE
 70
     1
  9
$TREEDEPTH
 70
  3020
  9
$CMLSTYLE
  2
Standard
  9
$CMLJUST
 70
     0
  9
$CMLSCALE
 40
1.0
  9
$PROXYGRAPHICS
 70
     1
  9
$MEASUREMENT
 70
     0
  9
$CELWEIGHT
370
    -1
  9
$ENDCAPS
280
     0
  9
$JOINSTYLE
280
     0
  9
$LWDISPLAY
290
     1
  9
$INSUNITS
 70
     1
  9
$HYPERLINKBASE
  1

  9
$STYLESHEET
  1

  9
$XEDIT
290
     1
  9
$CEPSNTYPE
380
     0
  9
$PSTYLEMODE
290
     1
  9
$FINGERPRINTGUID
  2
{001E3C48-9511-423A-8ABD-14C3AEA5F129}
  9
$VERSIONGUID
  2
{FAEB1C32-E019-11D5-929B-00C0DF256EC4}
  9
$EXTNAMES
290
     1
  9
$PSVPSCALE
 40
0.0
  9
$OLESTARTUP
290
     0
  0
ENDSEC
  0
SECTION
  2
CLASSES
  0
CLASS
  1
ACDBDICTIONARYWDFLT
  2
AcDbDictionaryWithDefault
  3
ObjectDBX Classes
 90
        0
280
     0
281
     0
  0
CLASS
  1
VISUALSTYLE
  2
AcDbVisualStyle
  3
ObjectDBX Classes
 90
     4095
280
     0
281
     0
  0
CLASS
  1
MATERIAL
  2
AcDbMaterial
  3
ObjectDBX Classes
 90
     1153
280
     0
281
     0
  0
CLASS
  1
ACDBPLACEHOLDER
  2
AcDbPlaceHolder
  3
ObjectDBX Classes
 90
        0
280
     0
281
     0
  0
CLASS
  1
LAYOUT
  2
AcDbLayout
  3
ObjectDBX Classes
 90
        0
280
     0
281
     0
  0
ENDSEC
  0
SECTION
  2
TABLES
  0
TABLE
  2
VPORT
  5
8
330
0
100
AcDbSymbolTable
 70
     1
  0
VPORT
  5
29
330
8
100
AcDbSymbolTableRecord
100
AcDbViewportTableRecord
  2
*Active
 70
     0
 10
0.0
 20
0.0
 11
1.0
 21
1.0
 12
7.4375
 22
4.8125
 13
0.0
 23
0.0
 14
0.5
 24
0.5
 15
0.5
 25
0.5
 16
0.0
 26
0.0
 36
1.0
 17
0.0
 27
0.0
 37
0.0
 40
9.625
 41
1.5454545455
 42
50.0
 43
0.0
 44
0.0
 50
0.0
 51
0.0
 71
     0
 72
  2000
 73
     1
 74
     3
 75
     0
 76
     0
 77
     0
 78
     0
281
     0
 65
     1
110
0.0
120
0.0
130
0.0
111
1.0
121
0.0
131
0.0
112
0.0
122
1.0
132
0.0
 79
     0
146
0.0
  0
ENDTAB
  0
TABLE
  2
LTYPE
  5
5
330
0
100
AcDbSymbolTable
 70
     6
  0
LTYPE
  5
14
330
5
100
AcDbSymbolTableRecord
100
AcDbLinetypeTableRecord
  2
ByBlock
 70
     0
  3

 72
    65
 73
     0
 40
0.0
  0
LTYPE
  5
15
330
5
100
AcDbSymbolTableRecord
100
AcDbLinetypeTableRecord
  2
ByLayer
 70
     0
  3

 72
    65
 73
     0
 40
0.0
  0
LTYPE
  5
16
330
5
100
AcDbSymbolTableRecord
100
AcDbLinetypeTableRecord
  2
Continuous
 70
     0
  3
Solid line
 72
    65
 73
     0
 40
0.0
  0
LTYPE
  5
3F
330
5
100
AcDbSymbolTableRecord
100
AcDbLinetypeTableRecord
  2
HIDDEN
 70
     0
  3
Hidden __ __ __ __ __ __ __ __ __ __ __ __ __ __
 72
    65
 73
     2
 40
0.075
 49
0.05
 74
     0
 49
-0.025
 74
     0
  0
LTYPE
  5
40
330
5
100
AcDbSymbolTableRecord
100
AcDbLinetypeTableRecord
  2
PHANTOM
 70
     0
  3
Phantom ______  __  __  ______  __  __  ______
 72
    65
 73
     6
 40
0.5
 49
0.25
 74
     0
 49
-0.05
 74
     0
 49
0.05
 74
     0
 49
-0.05
 74
     0
 49
0.05
 74
     0
 49
-0.05
 74
     0
  0
LTYPE
  5
41
330
5
100
AcDbSymbolTableRecord
100
AcDbLinetypeTableRecord
  2
CENTER
 70
     0
  3
Center ____ _ ____ _ ____ _ ____ _ ____ _ ____
 72
    65
 73
     4
 40
0.4
 49
0.25
 74
     0
 49
-0.05
 74
     0
 49
0.05
 74
     0
 49
-0.05
 74
     0
  0
LTYPE
  5
42
330
5
100
AcDbSymbolTableRecord
100
AcDbLinetypeTableRecord
  2
CENTERX2
 70
     0
  3
Center (2x) ________  __  ________  __  _____
 72
    65
 73
     4
 40
0.8
 49
0.5
 74
     0
 49
-0.1
 74
     0
 49
0.1
 74
     0
 49
-0.1
 74
     0
  0
LTYPE
  5
43
330
5
100
AcDbSymbolTableRecord
100
AcDbLinetypeTableRecord
  2
DOT2
 70
     0
  3
Dot (.5x) ........................................
 72
    65
 73
     2
 40
0.025
 49
0.0
 74
     0
 49
-0.025
 74
     0
  0
ENDTAB
  0
TABLE
  2
LAYER
  5
2
330
0
100
AcDbSymbolTable
 70
     1
  0
LAYER
  5
10
330
2
100
AcDbSymbolTableRecord
100
AcDbLayerTableRecord
  2
0
 70
     0
 62
     7
  6
Continuous
370
    -3
390
F
  0
ENDTAB
  0
TABLE
  2
STYLE
  5
3
330
0
100
AcDbSymbolTable
 70
     3
  0
STYLE
  5
11
330
3
100
AcDbSymbolTableRecord
100
AcDbTextStyleTableRecord
  2
Standard
 70
     0
 40
0.0
 41
1.0
 50
0.0
 71
     0
 42
0.2
  3
txt
  4

  0
STYLE
  5
77
330
3
100
AcDbSymbolTableRecord
100
AcDbTextStyleTableRecord
  2
SLDTEXTSTYLE0
 70
     0
 40
0.0
 41
0.75
 50
0.0
 71
     0
 42
0.2
  3
TXT
  4

  0
STYLE
  5
81
330
3
100
AcDbSymbolTableRecord
100
AcDbTextStyleTableRecord
  2
SLDTEXTSTYLE1
 70
     0
 40
0.0
 41
0.7
 50
0.0
 71
     0
 42
0.2
  3
TXT
  4

  0
ENDTAB
  0
TABLE
  2
VIEW
  5
6
330
0
100
AcDbSymbolTable
 70
     0
  0
ENDTAB
  0
TABLE
  2
UCS
  5
7
330
0
100
AcDbSymbolTable
 70
     0
  0
ENDTAB
  0
TABLE
  2
APPID
  5
9
330
0
100
AcDbSymbolTable
 70
     1
  0
APPID
  5
12
330
9
100
AcDbSymbolTableRecord
100
AcDbRegAppTableRecord
  2
ACAD
 70
     0
  0
ENDTAB
  0
TABLE
  2
DIMSTYLE
  5
A
330
0
100
AcDbSymbolTable
 70
    10
100
AcDbDimStyleTable
  0
DIMSTYLE
105
27
330
A
100
AcDbSymbolTableRecord
100
AcDbDimStyleTableRecord
  2
Standard
 70
     0
178
     0
340
11
  0
DIMSTYLE
105
F2
102
{ACAD_REACTORS
330
F1
330
106
330
11A
330
161
330
175
330
189
330
1B2
330
1C6
330
400
330
414
330
428
330
43C
330
487
330
4DF
330
577
330
59F
102
}
330
A
100
AcDbSymbolTableRecord
100
AcDbDimStyleTableRecord
  2
SLDDIMSTYLE0
 70
     0
 41
0.11375
 44
0.0
 45
0.000000001
 78
    12
 79
     3
140
0.109375
147
0.02734375
148
0.000000001
170
     1
173
     1
178
     0
271
     2
272
     2
276
     2
284
    12
340
77
  0
DIMSTYLE
105
12F
102
{ACAD_REACTORS
330
12E
330
151
102
}
330
A
100
AcDbSymbolTableRecord
100
AcDbDimStyleTableRecord
  2
SLDDIMSTYLE1
 70
     0
 41
0.11375
 44
0.0
 45
0.000000001
 78
    12
 79
     3
140
0.109375
141
0.0
147
0.02734375
148
0.000000001
170
     1
173
     1
178
     0
271
     2
272
     2
276
     2
284
    12
340
77
  0
DIMSTYLE
105
140
102
{ACAD_REACTORS
330
13F
102
}
330
A
100
AcDbSymbolTableRecord
100
AcDbDimStyleTableRecord
  2
SLDDIMSTYLE2
 70
     0
 41
0.11375
 44
0.0
 45
0.000000001
 78
    12
 79
     3
140
0.109375
141
0.0
147
0.02734375
148
0.000000001
170
     1
173
     1
178
     0
271
     2
272
     2
276
     2
284
    12
340
77
  0
DIMSTYLE
105
19E
102
{ACAD_REACTORS
330
19D
330
58B
102
}
330
A
100
AcDbSymbolTableRecord
100
AcDbDimStyleTableRecord
  2
SLDDIMSTYLE3
 70
     0
 41
0.11375
 44
0.0
 45
0.000000001
 78
     4
 79
     1
140
0.109375
147
0.02734375
148
0.000000001
170
     1
173
     1
178
     0
271
     2
272
     2
276
     2
284
    12
340
77
  0
DIMSTYLE
105
1E1
330
A
100
AcDbSymbolTableRecord
100
AcDbDimStyleTableRecord
  2
SLDDIMSTYLE4
 70
     0
 41
0.11375
 44
0.0
 45
0.000000001
140
0.0
146
0.11375
147
0.0
173
     1
178
     0
271
     0
272
     0
276
     2
340
11
  0
DIMSTYLE
105
34D
102
{ACAD_REACTORS
330
34C
330
362
330
38B
330
49B
330
4F3
330
508
102
}
330
A
100
AcDbSymbolTableRecord
100
AcDbDimStyleTableRecord
  2
SLDDIMSTYLE5
 70
     0
 41
0.11375
 44
0.0
 45
0.000000001
 78
    12
 79
     3
140
0.109375
147
0.02734375
148
0.000000001
170
     1
172
     1
173
     1
178
     0
271
     2
272
     2
276
     2
284
    12
289
     0
340
77
  0
DIMSTYLE
105
377
102
{ACAD_REACTORS
330
376
102
}
330
A
100
AcDbSymbolTableRecord
100
AcDbDimStyleTableRecord
  2
SLDDIMSTYLE6
 70
     0
 41
0.11375
 44
0.0
 45
0.000000001
 78
     4
 79
     1
140
0.109375
147
0.02734375
148
0.000000001
170
     1
172
     1
173
     1
178
     0
271
     2
272
     2
276
     2
284
    12
289
     0
340
77
  0
DIMSTYLE
105
475
102
{ACAD_REACTORS
330
474
102
}
330
A
100
AcDbSymbolTableRecord
100
AcDbDimStyleTableRecord
  2
SLDDIMSTYLE7
 70
     0
 41
0.11375
 44
0.0
 78
    12
 79
     3
140
0.109375
144
0.875
147
0.02734375
148
0.000000001
170
     1
173
     1
178
     0
272
     0
276
     2
284
    12
340
77
  0
DIMSTYLE
105
523
330
A
100
AcDbSymbolTableRecord
100
AcDbDimStyleTableRecord
  2
SLDDIMSTYLE8
 70
     0
 41
0.035
 44
0.0
 45
0.000000001
140
0.0
146
0.035
147
0.0
173
     1
178
     0
271
     0
272
     0
276
     2
340
11
341
524
343
524
344
524
  0
ENDTAB
  0
TABLE
  2
BLOCK_RECORD
  5
1
330
0
100
AcDbSymbolTable
 70
    43
  0
BLOCK_RECORD
  5
1F
330
1
100
AcDbSymbolTableRecord
100
AcDbBlockTableRecord
  2
*Model_Space
340
22
  0
BLOCK_RECORD
  5
1B
330
1
100
AcDbSymbolTableRecord
100
AcDbBlockTableRecord
  2
*Paper_Space
340
1E
  0
BLOCK_RECORD
  5
23
330
1
100
AcDbSymbolTableRecord
100
AcDbBlockTableRecord
  2
*Paper_Space0
340
26
  0
BLOCK_RECORD
  5
74
330
1
100
AcDbSymbolTableRecord
100
AcDbBlockTableRecord
  2
SW_NOTE_0
340
0
102
{BLKREFS
331
7E
102
}
  0
BLOCK_RECORD
  5
83
330
1
100
AcDbSymbolTableRecord
100
AcDbBlockTableRecord
  2
SW_NOTE_1
340
0
102
{BLKREFS
331
88
102
}
  0
BLOCK_RECORD
  5
89
330
1
100
AcDbSymbolTableRecord
100
AcDbBlockTableRecord
  2
SW_NOTE_2
340
0
102
{BLKREFS
331
8E
102
}
  0
BLOCK_RECORD
  5
8F
330
1
100
AcDbSymbolTableRecord
100
AcDbBlockTableRecord
  2
SW_NOTE_3
340
0
102
{BLKREFS
331
94
102
}
  0
BLOCK_RECORD
  5
F3
330
1
100
AcDbSymbolTableRecord
100
AcDbBlockTableRecord
  2
*D5
340
0
  0
BLOCK_RECORD
  5
107
330
1
100
AcDbSymbolTableRecord
100
AcDbBlockTableRecord
  2
*D6
340
0
  0
BLOCK_RECORD
  5
11B
330
1
100
AcDbSymbolTableRecord
100
AcDbBlockTableRecord
  2
*D7
340
0
  0
BLOCK_RECORD
  5
130
330
1
100
AcDbSymbolTableRecord
100
AcDbBlockTableRecord
  2
*D8
340
0
  0
BLOCK_RECORD
  5
141
330
1
100
AcDbSymbolTableRecord
100
AcDbBlockTableRecord
  2
*D9
340
0
  0
BLOCK_RECORD
  5
152
330
1
100
AcDbSymbolTableRecord
100
AcDbBlockTableRecord
  2
*D10
340
0
  0
BLOCK_RECORD
  5
162
330
1
100
AcDbSymbolTableRecord
100
AcDbBlockTableRecord
  2
*D11
340
0
  0
BLOCK_RECORD
  5
176
330
1
100
AcDbSymbolTableRecord
100
AcDbBlockTableRecord
  2
*D12
340
0
  0
BLOCK_RECORD
  5
18A
330
1
100
AcDbSymbolTableRecord
100
AcDbBlockTableRecord
  2
*D13
340
0
  0
BLOCK_RECORD
  5
19F
330
1
100
AcDbSymbolTableRecord
100
AcDbBlockTableRecord
  2
*D14
340
0
  0
BLOCK_RECORD
  5
1B3
330
1
100
AcDbSymbolTableRecord
100
AcDbBlockTableRecord
  2
*D15
340
0
  0
BLOCK_RECORD
  5
1C7
330
1
100
AcDbSymbolTableRecord
100
AcDbBlockTableRecord
  2
*D16
340
0
  0
BLOCK_RECORD
  5
1DA
330
1
100
AcDbSymbolTableRecord
100
AcDbBlockTableRecord
  2
SW_NOTE_4
340
0
102
{BLKREFS
331
1E0
102
}
  0
BLOCK_RECORD
  5
1E3
330
1
100
AcDbSymbolTableRecord
100
AcDbBlockTableRecord
  2
SW_CENTERMARKSYMBOL_0
340
0
102
{BLKREFS
331
1EE
102
}
  0
BLOCK_RECORD
  5
1EF
330
1
100
AcDbSymbolTableRecord
100
AcDbBlockTableRecord
  2
SW_CENTERMARKSYMBOL_1
340
0
102
{BLKREFS
331
1FA
102
}
  0
BLOCK_RECORD
  5
1FB
330
1
100
AcDbSymbolTableRecord
100
AcDbBlockTableRecord
  2
SW_CENTERMARKSYMBOL_2
340
0
102
{BLKREFS
331
206
102
}
  0
BLOCK_RECORD
  5
207
330
1
100
AcDbSymbolTableRecord
100
AcDbBlockTableRecord
  2
SW_CENTERMARKSYMBOL_3
340
0
102
{BLKREFS
331
212
102
}
  0
BLOCK_RECORD
  5
213
330
1
100
AcDbSymbolTableRecord
100
AcDbBlockTableRecord
  2
SW_CENTERMARKSYMBOL_4
340
0
102
{BLKREFS
331
21E
102
}
  0
BLOCK_RECORD
  5
21F
330
1
100
AcDbSymbolTableRecord
100
AcDbBlockTableRecord
  2
SW_CENTERMARKSYMBOL_5
340
0
102
{BLKREFS
331
22A
102
}
  0
BLOCK_RECORD
  5
34E
330
1
100
AcDbSymbolTableRecord
100
AcDbBlockTableRecord
  2
*D24
340
0
  0
BLOCK_RECORD
  5
363
330
1
100
AcDbSymbolTableRecord
100
AcDbBlockTableRecord
  2
*D25
340
0
  0
BLOCK_RECORD
  5
378
330
1
100
AcDbSymbolTableRecord
100
AcDbBlockTableRecord
  2
*D26
340
0
  0
BLOCK_RECORD
  5
38C
330
1
100
AcDbSymbolTableRecord
100
AcDbBlockTableRecord
  2
*D27
340
0
  0
BLOCK_RECORD
  5
401
330
1
100
AcDbSymbolTableRecord
100
AcDbBlockTableRecord
  2
*D28
340
0
  0
BLOCK_RECORD
  5
415
330
1
100
AcDbSymbolTableRecord
100
AcDbBlockTableRecord
  2
*D29
340
0
  0
BLOCK_RECORD
  5
429
330
1
100
AcDbSymbolTableRecord
100
AcDbBlockTableRecord
  2
*D30
340
0
  0
BLOCK_RECORD
  5
43D
330
1
100
AcDbSymbolTableRecord
100
AcDbBlockTableRecord
  2
*D31
340
0
  0
BLOCK_RECORD
  5
476
330
1
100
AcDbSymbolTableRecord
100
AcDbBlockTableRecord
  2
*D32
340
0
  0
BLOCK_RECORD
  5
488
330
1
100
AcDbSymbolTableRecord
100
AcDbBlockTableRecord
  2
*D33
340
0
  0
BLOCK_RECORD
  5
49C
330
1
100
AcDbSymbolTableRecord
100
AcDbBlockTableRecord
  2
*D34
340
0
  0
BLOCK_RECORD
  5
4E0
330
1
100
AcDbSymbolTableRecord
100
AcDbBlockTableRecord
  2
*D35
340
0
  0
BLOCK_RECORD
  5
4F4
330
1
100
AcDbSymbolTableRecord
100
AcDbBlockTableRecord
  2
*D36
340
0
  0
BLOCK_RECORD
  5
509
330
1
100
AcDbSymbolTableRecord
100
AcDbBlockTableRecord
  2
*D37
340
0
  0
BLOCK_RECORD
  5
51C
330
1
100
AcDbSymbolTableRecord
100
AcDbBlockTableRecord
  2
SW_NOTE_5
340
0
102
{BLKREFS
331
522
102
}
  0
BLOCK_RECORD
  5
524
330
1
100
AcDbSymbolTableRecord
100
AcDbBlockTableRecord
  2
_DOT
340
0
  0
BLOCK_RECORD
  5
578
330
1
100
AcDbSymbolTableRecord
100
AcDbBlockTableRecord
  2
*D40
340
0
  0
BLOCK_RECORD
  5
58C
330
1
100
AcDbSymbolTableRecord
100
AcDbBlockTableRecord
  2
*D41
340
0
  0
BLOCK_RECORD
  5
5A0
330
1
100
AcDbSymbolTableRecord
100
AcDbBlockTableRecord
  2
*D42
340
0
  0
ENDTAB
  0
ENDSEC
  0
SECTION
  2
BLOCKS
  0
BLOCK
  5
20
330
1F
100
AcDbEntity
  8
0
100
AcDbBlockBegin
  2
*Model_Space
 70
     0
 10
0.0
 20
0.0
 30
0.0
  3
*Model_Space
  1

  0
ENDBLK
  5
21
330
1F
100
AcDbEntity
  8
0
100
AcDbBlockEnd
  0
BLOCK
  5
1C
330
1B
100
AcDbEntity
 67
     1
  8
0
100
AcDbBlockBegin
  2
*Paper_Space
 70
     0
 10
0.0
 20
0.0
 30
0.0
  3
*Paper_Space
  1

  0
ENDBLK
  5
1D
330
1B
100
AcDbEntity
 67
     1
  8
0
100
AcDbBlockEnd
  0
BLOCK
  5
24
330
23
100
AcDbEntity
  8
0
100
AcDbBlockBegin
  2
*Paper_Space0
 70
     0
 10
0.0
 20
0.0
 30
0.0
  3
*Paper_Space0
  1

  0
ENDBLK
  5
25
330
23
100
AcDbEntity
  8
0
100
AcDbBlockEnd
  0
BLOCK
  5
75
330
74
100
AcDbEntity
  8
0
100
AcDbBlockBegin
  2
SW_NOTE_0
 70
     0
 10
0.0
 20
0.0
 30
0.0
  3
SW_NOTE_0
  1

  0
MTEXT
  5
78
330
74
100
AcDbEntity
  8
0
  6
Continuous
 62
     0
370
     0
100
AcDbMText
 10
0.0
 20
0.140991784
 30
0.0
 40
0.109375
 41
0.0
 71
     1
 72
     1
  1
MATERIAL:
  7
SLDTEXTSTYLE0
 73
     1
 44
1.0
  0
MTEXT
  5
79
330
74
100
AcDbEntity
  8
0
  6
Continuous
 62
     0
370
     0
100
AcDbMText
 10
0.041015625
 20
-0.0028320312
 30
0.0
 40
0.109375
 41
0.0
 71
     1
 72
     1
  1
ABS UL94-HB
  7
SLDTEXTSTYLE0
 73
     1
 44
1.0
  0
MTEXT
  5
7A
330
74
100
AcDbEntity
  8
0
  6
Continuous
 62
     0
370
     0
100
AcDbMText
 10
0.0
 20
-0.2904796616
 30
0.0
 40
0.109375
 41
0.0
 71
     1
 72
     1
  1
COLOR:
  7
SLDTEXTSTYLE0
 73
     1
 44
1.0
  0
MTEXT
  5
7B
330
74
100
AcDbEntity
  8
0
  6
Continuous
 62
     0
370
     0
100
AcDbMText
 10
0.041015625
 20
-0.4343034768
 30
0.0
 40
0.109375
 41
0.0
 71
     1
 72
     1
  1
BLACK OR WHITE
  7
SLDTEXTSTYLE0
 73
     1
 44
1.0
  0
MTEXT
  5
7C
330
74
100
AcDbEntity
  8
0
  6
Continuous
 62
     0
370
     0
100
AcDbMText
 10
0.0
 20
-0.8657749224
 30
0.0
 40
0.109375
 41
0.0
 71
     1
 72
     1
  1
DIMENSIONS IN INCH[MM]
  7
SLDTEXTSTYLE0
 73
     1
 44
1.0
  0
MTEXT
  5
7D
330
74
100
AcDbEntity
  8
0
  6
Continuous
 62
     0
370
     0
100
AcDbMText
 10
0.0
 20
-1.1534225528
 30
0.0
 40
0.109375
 41
0.0
 71
     1
 72
     1
  1
DRAWING FOR REFERENCE
  7
SLDTEXTSTYLE0
 73
     1
 44
1.0
  0
ENDBLK
  5
76
330
74
100
AcDbEntity
  8
0
100
AcDbBlockEnd
  0
BLOCK
  5
84
330
83
100
AcDbEntity
  8
0
100
AcDbBlockBegin
  2
SW_NOTE_1
 70
     0
 10
0.0
 20
0.0
 30
0.0
  3
SW_NOTE_1
  1

  0
MTEXT
  5
86
330
83
100
AcDbEntity
  8
0
  6
Continuous
 62
     0
370
     0
100
AcDbMText
 10
0.1657714844
 20
0.140991784
 30
0.0
 40
0.109375
 41
0.0
 71
     2
 72
     1
  1
PART
  7
SLDTEXTSTYLE0
 73
     1
 44
1.0
  0
MTEXT
  5
87
330
83
100
AcDbEntity
  8
0
  6
Continuous
 62
     0
370
     0
100
AcDbMText
 10
0.1642998613
 20
-0.0028320312
 30
0.0
 40
0.109375
 41
0.0
 71
     2
 72
     1
  1
NAME
  7
SLDTEXTSTYLE0
 73
     1
 44
1.0
  0
ENDBLK
  5
85
330
83
100
AcDbEntity
  8
0
100
AcDbBlockEnd
  0
BLOCK
  5
8A
330
89
100
AcDbEntity
  8
0
100
AcDbBlockBegin
  2
SW_NOTE_2
 70
     0
 10
0.0
 20
0.0
 30
0.0
  3
SW_NOTE_2
  1

  0
MTEXT
  5
8C
330
89
100
AcDbEntity
  8
0
  6
Continuous
 62
     0
370
     0
100
AcDbMText
 10
0.1657714844
 20
0.140991784
 30
0.0
 40
0.109375
 41
0.0
 71
     2
 72
     1
  1
PART
  7
SLDTEXTSTYLE0
 73
     1
 44
1.0
  0
MTEXT
  5
8D
330
89
100
AcDbEntity
  8
0
  6
Continuous
 62
     0
370
     0
100
AcDbMText
 10
0.1707085521
 20
-0.0028320312
 30
0.0
 40
0.109375
 41
0.0
 71
     2
 72
     1
  1
No.
  7
SLDTEXTSTYLE0
 73
     1
 44
1.0
  0
ENDBLK
  5
8B
330
89
100
AcDbEntity
  8
0
100
AcDbBlockEnd
  0
BLOCK
  5
90
330
8F
100
AcDbEntity
  8
0
100
AcDbBlockBegin
  2
SW_NOTE_3
 70
     0
 10
0.0
 20
0.0
 30
0.0
  3
SW_NOTE_3
  1

  0
MTEXT
  5
92
330
8F
100
AcDbEntity
  8
0
  6
Continuous
 62
     0
370
     0
100
AcDbMText
 10
0.3212890625
 20
0.140991784
 30
0.0
 40
0.109375
 41
0.0
 71
     2
 72
     1
  1
REVISION
  7
SLDTEXTSTYLE0
 73
     1
 44
1.0
  0
MTEXT
  5
93
330
8F
100
AcDbEntity
  8
0
  6
Continuous
 62
     0
370
     0
100
AcDbMText
 10
0.3093071831
 20
-0.0028320312
 30
0.0
 40
0.109375
 41
0.0
 71
     2
 72
     1
  1
DATE
  7
SLDTEXTSTYLE0
 73
     1
 44
1.0
  0
ENDBLK
  5
91
330
8F
100
AcDbEntity
  8
0
100
AcDbBlockEnd
  0
BLOCK
  5
F4
330
F3
100
AcDbEntity
  8
0
100
AcDbBlockBegin
  2
*D5
 70
     1
 10
0.0
 20
0.0
 30
0.0
  3
*D5
  1

  0
SOLID
  5
F6
330
F3
100
AcDbEntity
  8
0
  6
Continuous
 62
     7
370
     0
100
AcDbTrace
 10
3.2132217971
 20
4.8268034205
 30
0.0
 11
3.3269717971
 21
4.8093034205
 31
0.0
 12
3.3269717971
 22
4.8443034205
 32
0.0
 13
3.3269717971
 23
4.8443034205
 33
0.0
  0
SOLID
  5
F7
330
F3
100
AcDbEntity
  8
0
  6
Continuous
 62
     7
370
     0
100
AcDbTrace
 10
4.7880249467
 20
4.8268034205
 30
0.0
 11
4.6742749467
 21
4.8443034205
 31
0.0
 12
4.6742749467
 22
4.8093034205
 32
0.0
 13
4.6742749467
 23
4.8093034205
 33
0.0
  0
LINE
  5
F8
330
F3
100
AcDbEntity
  8
0
  6
Continuous
 62
     7
370
     0
100
AcDbLine
 10
3.892036406
 20
4.825967916
 30
0.0
 11
3.869819608
 21
4.825967916
 31
0.0
  0
LINE
  5
F9
330
F3
100
AcDbEntity
  8
0
  6
Continuous
 62
     7
370
     0
100
AcDbLine
 10
3.869819608
 20
4.825967916
 30
0.0
 11
3.869819608
 21
4.6523350982
 31
0.0
  0
LINE
  5
FA
330
F3
100
AcDbEntity
  8
0
  6
Continuous
 62
     7
370
     0
100
AcDbLine
 10
3.869819608
 20
4.6523350982
 30
0.0
 11
3.892036406
 21
4.6523350982
 31
0.0
  0
LINE
  5
FB
330
F3
100
AcDbEntity
  8
0
  6
Continuous
 62
     7
370
     0
100
AcDbLine
 10
4.1092103458
 20
4.825967916
 30
0.0
 11
4.1314271438
 21
4.825967916
 31
0.0
  0
LINE
  5
FC
330
F3
100
AcDbEntity
  8
0
  6
Continuous
 62
     7
370
     0
100
AcDbLine
 10
4.1314271438
 20
4.825967916
 30
0.0
 11
4.1314271438
 21
4.6523350982
 31
0.0
  0
LINE
  5
FD
330
F3
100
AcDbEntity
  8
0
  6
Continuous
 62
     7
370
     0
100
AcDbLine
 10
4.1314271438
 20
4.6523350982
 30
0.0
 11
4.1092103458
 21
4.6523350982
 31
0.0
  0
LINE
  5
FE
330
F3
100
AcDbEntity
  8
0
  6
Continuous
 62
     7
370
     0
100
AcDbLine
 10
3.2132217971
 20
5.5103793178
 30
0.0
 11
3.2132217971
 21
4.7174284205
 31
0.0
  0
LINE
  5
FF
330
F3
100
AcDbEntity
  8
0
  6
Continuous
 62
     7
370
     0
100
AcDbLine
 10
4.7880249467
 20
5.5103793178
 30
0.0
 11
4.7880249467
 21
4.7174284205
 31
0.0
  0
LINE
  5
100
330
F3
100
AcDbEntity
  8
0
  6
Continuous
 62
     7
370
     0
100
AcDbLine
 10
3.2132217971
 20
4.8268034205
 30
0.0
 11
3.7521711318
 21
4.8268034205
 31
0.0
  0
LINE
  5
101
330
F3
100
AcDbEntity
  8
0
  6
Continuous
 62
     7
370
     0
100
AcDbLine
 10
4.7880249467
 20
4.8268034205
 30
0.0
 11
4.249075612
 21
4.8268034205
 31
0.0
  0
MTEXT
  5
102
330
F3
100
AcDbEntity
  8
0
  6
Continuous
 62
     7
370
     0
100
AcDbMText
 10
3.815369475
 20
4.990847513
 30
-0.4292028033
 40
0.109375
 41
0.0
 71
     1
 72
     1
  1

  7
SLDTEXTSTYLE0
 73
     1
 44
1.0
  0
MTEXT
  5
103
330
F3
100
AcDbEntity
  8
0
  6
Continuous
 62
     7
370
     0
100
AcDbMText
 10
3.8147618362
 20
4.989176498
 30
-0.4292028033
 40
0.109375
 41
0.0
 71
     1
 72
     1
  1
1.57
  7
SLDTEXTSTYLE0
 73
     1
 44
1.0
  0
MTEXT
  5
104
330
F3
100
AcDbEntity
  8
0
  6
Continuous
 62
     7
370
     0
100
AcDbMText
 10
3.9198074035
 20
4.7933268763
 30
-0.4292028033
 40
0.109375
 41
0.0
 71
     1
 72
     1
  1
40
  7
SLDTEXTSTYLE0
 73
     1
 44
1.0
  0
MTEXT
  5
105
330
F3
100
AcDbEntity
  8
0
  6
Continuous
 62
     7
370
     0
100
AcDbMText
 10
4.2275005406
 20
4.990847513
 30
-0.4292028033
 40
0.109375
 41
0.0
 71
     1
 72
     1
  1

  7
SLDTEXTSTYLE0
 73
     1
 44
1.0
  0
ENDBLK
  5
F5
330
F3
100
AcDbEntity
  8
0
100
AcDbBlockEnd
  0
BLOCK
  5
108
330
107
100
AcDbEntity
  8
0
100
AcDbBlockBegin
  2
*D6
 70
     1
 10
0.0
 20
0.0
 30
0.0
  3
*D6
  1

  0
SOLID
  5
10A
330
107
100
AcDbEntity
  8
0
  6
Continuous
 62
     7
370
     0
100
AcDbTrace
 10
2.4179462065
 20
4.4477394517
 30
0.0
 11
2.5316962065
 21
4.4302394517
 31
0.0
 12
2.5316962065
 22
4.4652394517
 32
0.0
 13
2.5316962065
 23
4.4652394517
 33
0.0
  0
SOLID
  5
10B
330
107
100
AcDbEntity
  8
0
  6
Continuous
 62
     7
370
     0
100
AcDbTrace
 10
5.5833005373
 20
4.4477394517
 30
0.0
 11
5.4695505373
 21
4.4652394517
 31
0.0
 12
5.4695505373
 22
4.4302394517
 32
0.0
 13
5.4695505373
 23
4.4302394517
 33
0.0
  0
LINE
  5
10C
330
107
100
AcDbEntity
  8
0
  6
Continuous
 62
     7
370
     0
100
AcDbLine
 10
3.8314244226
 20
4.4469039472
 30
0.0
 11
3.8092076247
 21
4.4469039472
 31
0.0
  0
LINE
  5
10D
330
107
100
AcDbEntity
  8
0
  6
Continuous
 62
     7
370
     0
100
AcDbLine
 10
3.8092076247
 20
4.4469039472
 30
0.0
 11
3.8092076247
 21
4.2732711295
 31
0.0
  0
LINE
  5
10E
330
107
100
AcDbEntity
  8
0
  6
Continuous
 62
     7
370
     0
100
AcDbLine
 10
3.8092076247
 20
4.2732711295
 30
0.0
 11
3.8314244226
 21
4.2732711295
 31
0.0
  0
LINE
  5
10F
330
107
100
AcDbEntity
  8
0
  6
Continuous
 62
     7
370
     0
100
AcDbLine
 10
4.1698223292
 20
4.4469039472
 30
0.0
 11
4.1920391272
 21
4.4469039472
 31
0.0
  0
LINE
  5
110
330
107
100
AcDbEntity
  8
0
  6
Continuous
 62
     7
370
     0
100
AcDbLine
 10
4.1920391272
 20
4.4469039472
 30
0.0
 11
4.1920391272
 21
4.2732711295
 31
0.0
  0
LINE
  5
111
330
107
100
AcDbEntity
  8
0
  6
Continuous
 62
     7
370
     0
100
AcDbLine
 10
4.1920391272
 20
4.2732711295
 30
0.0
 11
4.1698223292
 21
4.2732711295
 31
0.0
  0
LINE
  5
112
330
107
100
AcDbEntity
  8
0
  6
Continuous
 62
     7
370
     0
100
AcDbLine
 10
2.4179462065
 20
5.9517179005
 30
0.0
 11
2.4179462065
 21
4.3383644517
 31
0.0
  0
LINE
  5
113
330
107
100
AcDbEntity
  8
0
  6
Continuous
 62
     7
370
     0
100
AcDbLine
 10
5.5833005373
 20
5.9517179005
 30
0.0
 11
5.5833005373
 21
4.3383644517
 31
0.0
  0
LINE
  5
114
330
107
100
AcDbEntity
  8
0
  6
Continuous
 62
     7
370
     0
100
AcDbLine
 10
2.4179462065
 20
4.4477394517
 30
0.0
 11
3.7299543218
 21
4.4477394517
 31
0.0
  0
LINE
  5
115
330
107
100
AcDbEntity
  8
0
  6
Continuous
 62
     7
370
     0
100
AcDbLine
 10
5.5833005373
 20
4.4477394517
 30
0.0
 11
4.271292422
 21
4.4477394517
 31
0.0
  0
MTEXT
  5
116
330
107
100
AcDbEntity
  8
0
  6
Continuous
 62
     7
370
     0
100
AcDbMText
 10
3.7931526649
 20
4.6117835443
 30
-0.4292028033
 40
0.109375
 41
0.0
 71
     1
 72
     1
  1

  7
SLDTEXTSTYLE0
 73
     1
 44
1.0
  0
MTEXT
  5
117
330
107
100
AcDbEntity
  8
0
  6
Continuous
 62
     7
370
     0
100
AcDbMText
 10
3.8147618362
 20
4.6101125293
 30
-0.4292028033
 40
0.109375
 41
0.0
 71
     1
 72
     1
  1
3.17
  7
SLDTEXTSTYLE0
 73
     1
 44
1.0
  0
MTEXT
  5
118
330
107
100
AcDbEntity
  8
0
  6
Continuous
 62
     7
370
     0
100
AcDbMText
 10
3.8591954201
 20
4.4142629075
 30
-0.4292028033
 40
0.109375
 41
0.0
 71
     1
 72
     1
  1
80.4
  7
SLDTEXTSTYLE0
 73
     1
 44
1.0
  0
MTEXT
  5
119
330
107
100
AcDbEntity
  8
0
  6
Continuous
 62
     7
370
     0
100
AcDbMText
 10
4.2497173507
 20
4.6117835443
 30
-0.4292028033
 40
0.109375
 41
0.0
 71
     1
 72
     1
  1

  7
SLDTEXTSTYLE0
 73
     1
 44
1.0
  0
ENDBLK
  5
109
330
107
100
AcDbEntity
  8
0
100
AcDbBlockEnd
  0
BLOCK
  5
11C
330
11B
100
AcDbEntity
  8
0
100
AcDbBlockBegin
  2
*D7
 70
     1
 10
0.0
 20
0.0
 30
0.0
  3
*D7
  1

  0
SOLID
  5
11E
330
11B
100
AcDbEntity
  8
0
  6
Continuous
 62
     7
370
     0
100
AcDbTrace
 10
6.3313479628
 20
5.5541293178
 30
0.0
 11
6.3488479628
 21
5.6678793178
 31
0.0
 12
6.3138479628
 22
5.6678793178
 32
0.0
 13
6.3138479628
 23
5.6678793178
 33
0.0
  0
SOLID
  5
11F
330
11B
100
AcDbEntity
  8
0
  6
Continuous
 62
     7
370
     0
100
AcDbTrace
 10
6.3313479628
 20
6.8139718375
 30
0.0
 11
6.3138479628
 21
6.7002218375
 31
0.0
 12
6.3488479628
 22
6.7002218375
 32
0.0
 13
6.3488479628
 23
6.7002218375
 33
0.0
  0
LINE
  5
120
330
11B
100
AcDbEntity
  8
0
  6
Continuous
 62
     7
370
     0
100
AcDbLine
 10
6.2227609969
 20
6.1832150732
 30
0.0
 11
6.2005441989
 21
6.1832150732
 31
0.0
  0
LINE
  5
121
330
11B
100
AcDbEntity
  8
0
  6
Continuous
 62
     7
370
     0
100
AcDbLine
 10
6.2005441989
 20
6.1832150732
 30
0.0
 11
6.2005441989
 21
6.0095822554
 31
0.0
  0
LINE
  5
122
330
11B
100
AcDbEntity
  8
0
  6
Continuous
 62
     7
370
     0
100
AcDbLine
 10
6.2005441989
 20
6.0095822554
 30
0.0
 11
6.2227609969
 21
6.0095822554
 31
0.0
  0
LINE
  5
123
330
11B
100
AcDbEntity
  8
0
  6
Continuous
 62
     7
370
     0
100
AcDbLine
 10
6.4399349367
 20
6.1832150732
 30
0.0
 11
6.4621517347
 21
6.1832150732
 31
0.0
  0
LINE
  5
124
330
11B
100
AcDbEntity
  8
0
  6
Continuous
 62
     7
370
     0
100
AcDbLine
 10
6.4621517347
 20
6.1832150732
 30
0.0
 11
6.4621517347
 21
6.0095822554
 31
0.0
  0
LINE
  5
125
330
11B
100
AcDbEntity
  8
0
  6
Continuous
 62
     7
370
     0
100
AcDbLine
 10
6.4621517347
 20
6.0095822554
 30
0.0
 11
6.4399349367
 21
6.0095822554
 31
0.0
  0
LINE
  5
126
330
11B
100
AcDbEntity
  8
0
  6
Continuous
 62
     7
370
     0
100
AcDbLine
 10
4.8317749467
 20
5.5541293178
 30
0.0
 11
6.4407229628
 21
5.5541293178
 31
0.0
  0
LINE
  5
127
330
11B
100
AcDbEntity
  8
0
  6
Continuous
 62
     7
370
     0
100
AcDbLine
 10
4.8317749467
 20
6.8139718375
 30
0.0
 11
6.4407229628
 21
6.8139718375
 31
0.0
  0
LINE
  5
128
330
11B
100
AcDbEntity
  8
0
  6
Continuous
 62
     7
370
     0
100
AcDbLine
 10
6.3313479628
 20
5.5541293178
 30
0.0
 11
6.3313479628
 21
5.9873654454
 31
0.0
  0
LINE
  5
129
330
11B
100
AcDbEntity
  8
0
  6
Continuous
 62
     7
370
     0
100
AcDbLine
 10
6.3313479628
 20
6.8139718375
 30
0.0
 11
6.3313479628
 21
6.3807357099
 31
0.0
  0
MTEXT
  5
12A
330
11B
100
AcDbEntity
  8
0
  6
Continuous
 62
     7
370
     0
100
AcDbMText
 10
6.1460940658
 20
6.3480946702
 30
-0.4292028033
 40
0.109375
 41
0.0
 71
     1
 72
     1
  1

  7
SLDTEXTSTYLE0
 73
     1
 44
1.0
  0
MTEXT
  5
12B
330
11B
100
AcDbEntity
  8
0
  6
Continuous
 62
     7
370
     0
100
AcDbMText
 10
6.1454864271
 20
6.3464236552
 30
-0.4292028033
 40
0.109375
 41
0.0
 71
     1
 72
     1
  1
1.26
  7
SLDTEXTSTYLE0
 73
     1
 44
1.0
  0
MTEXT
  5
12C
330
11B
100
AcDbEntity
  8
0
  6
Continuous
 62
     7
370
     0
100
AcDbMText
 10
6.2505319944
 20
6.1505740335
 30
-0.4292028033
 40
0.109375
 41
0.0
 71
     1
 72
     1
  1
32
  7
SLDTEXTSTYLE0
 73
     1
 44
1.0
  0
MTEXT
  5
12D
330
11B
100
AcDbEntity
  8
0
  6
Continuous
 62
     7
370
     0
100
AcDbMText
 10
6.5582251315
 20
6.3480946702
 30
-0.4292028033
 40
0.109375
 41
0.0
 71
     1
 72
     1
  1

  7
SLDTEXTSTYLE0
 73
     1
 44
1.0
  0
ENDBLK
  5
11D
330
11B
100
AcDbEntity
  8
0
100
AcDbBlockEnd
  0
BLOCK
  5
131
330
130
100
AcDbEntity
  8
0
100
AcDbBlockBegin
  2
*D8
 70
     1
 10
0.0
 20
0.0
 30
0.0
  3
*D8
  1

  0
SOLID
  5
133
330
130
100
AcDbEntity
  8
0
  6
Continuous
 62
     7
370
     0
100
AcDbTrace
 10
2.3905882559
 20
6.0997983775
 30
0.0
 11
2.3388131174
 21
5.9970139063
 31
0.0
 12
2.3721020978
 22
5.986204476
 32
0.0
 13
2.3721020978
 23
5.986204476
 33
0.0
  0
LINE
  5
134
330
130
100
AcDbEntity
  8
0
  6
Continuous
 62
     7
370
     0
100
AcDbLine
 10
1.4762380193
 20
4.7354435642
 30
0.0
 11
1.4540212213
 21
4.7354435642
 31
0.0
  0
LINE
  5
135
330
130
100
AcDbEntity
  8
0
  6
Continuous
 62
     7
370
     0
100
AcDbLine
 10
1.4540212213
 20
4.7354435642
 30
0.0
 11
1.4540212213
 21
4.5618107465
 31
0.0
  0
LINE
  5
136
330
130
100
AcDbEntity
  8
0
  6
Continuous
 62
     7
370
     0
100
AcDbLine
 10
1.4540212213
 20
4.5618107465
 30
0.0
 11
1.4762380193
 21
4.5618107465
 31
0.0
  0
LINE
  5
137
330
130
100
AcDbEntity
  8
0
  6
Continuous
 62
     7
370
     0
100
AcDbLine
 10
1.7338199374
 20
4.7354435642
 30
0.0
 11
1.7560367354
 21
4.7354435642
 31
0.0
  0
LINE
  5
138
330
130
100
AcDbEntity
  8
0
  6
Continuous
 62
     7
370
     0
100
AcDbLine
 10
1.7560367354
 20
4.7354435642
 30
0.0
 11
1.7560367354
 21
4.5618107465
 31
0.0
  0
LINE
  5
139
330
130
100
AcDbEntity
  8
0
  6
Continuous
 62
     7
370
     0
100
AcDbLine
 10
1.7560367354
 20
4.5618107465
 30
0.0
 11
1.7338199374
 21
4.5618107465
 31
0.0
  0
LINE
  5
13A
330
130
100
AcDbEntity
  8
0
  6
Continuous
 62
     7
370
     0
100
AcDbLine
 10
2.3905882559
 20
6.0997983775
 30
0.0
 11
1.9423331239
 21
4.7193411333
 31
0.0
  0
LINE
  5
13B
330
130
100
AcDbEntity
  8
0
  6
Continuous
 62
     7
370
     0
100
AcDbLine
 10
1.9423331239
 20
4.7193411333
 30
0.0
 11
1.8329581239
 21
4.7193411333
 31
0.0
  0
MTEXT
  5
13C
330
130
100
AcDbEntity
  8
0
  6
Continuous
 62
     7
370
     0
100
AcDbMText
 10
1.3770998408
 20
4.8986521463
 30
-0.4292028033
 40
0.109375
 41
0.0
 71
     1
 72
     1
  1
%%c
  7
SLDTEXTSTYLE0
 73
     1
 44
1.0
  0
MTEXT
  5
13D
330
130
100
AcDbEntity
  8
0
  6
Continuous
 62
     7
370
     0
100
AcDbMText
 10
1.5420510089
 20
4.8986521463
 30
-0.4292028033
 40
0.109375
 41
0.0
 71
     1
 72
     1
  1
.18
  7
SLDTEXTSTYLE0
 73
     1
 44
1.0
  0
MTEXT
  5
13E
330
130
100
AcDbEntity
  8
0
  6
Continuous
 62
     7
370
     0
100
AcDbMText
 10
1.5040090168
 20
4.7028025245
 30
-0.4292028033
 40
0.109375
 41
0.0
 71
     1
 72
     1
  1
4.5
  7
SLDTEXTSTYLE0
 73
     1
 44
1.0
  0
ENDBLK
  5
132
330
130
100
AcDbEntity
  8
0
100
AcDbBlockEnd
  0
BLOCK
  5
142
330
141
100
AcDbEntity
  8
0
100
AcDbBlockBegin
  2
*D9
 70
     1
 10
0.0
 20
0.0
 30
0.0
  3
*D9
  1

  0
SOLID
  5
144
330
141
100
AcDbEntity
  8
0
  6
Continuous
 62
     7
370
     0
100
AcDbTrace
 10
3.1092654892
 20
6.8623790492
 30
0.0
 11
3.013534245
 21
6.9262605128
 31
0.0
 12
2.9987597586
 22
6.8945317474
 32
0.0
 13
2.9987597586
 23
6.8945317474
 33
0.0
  0
LINE
  5
145
330
141
100
AcDbEntity
  8
0
  6
Continuous
 62
     7
370
     0
100
AcDbLine
 10
0.7587376992
 20
7.5546182476
 30
0.0
 11
0.7365209012
 21
7.5546182476
 31
0.0
  0
LINE
  5
146
330
141
100
AcDbEntity
  8
0
  6
Continuous
 62
     7
370
     0
100
AcDbLine
 10
0.7365209012
 20
7.5546182476
 30
0.0
 11
0.7365209012
 21
7.3809854298
 31
0.0
  0
LINE
  5
147
330
141
100
AcDbEntity
  8
0
  6
Continuous
 62
     7
370
     0
100
AcDbLine
 10
0.7365209012
 20
7.3809854298
 30
0.0
 11
0.7587376992
 21
7.3809854298
 31
0.0
  0
LINE
  5
148
330
141
100
AcDbEntity
  8
0
  6
Continuous
 62
     7
370
     0
100
AcDbLine
 10
1.0163196172
 20
7.5546182476
 30
0.0
 11
1.0385364152
 21
7.5546182476
 31
0.0
  0
LINE
  5
149
330
141
100
AcDbEntity
  8
0
  6
Continuous
 62
     7
370
     0
100
AcDbLine
 10
1.0385364152
 20
7.5546182476
 30
0.0
 11
1.0385364152
 21
7.3809854298
 31
0.0
  0
LINE
  5
14A
330
141
100
AcDbEntity
  8
0
  6
Continuous
 62
     7
370
     0
100
AcDbLine
 10
1.0385364152
 20
7.3809854298
 30
0.0
 11
1.0163196172
 21
7.3809854298
 31
0.0
  0
LINE
  5
14B
330
141
100
AcDbEntity
  8
0
  6
Continuous
 62
     7
370
     0
100
AcDbLine
 10
3.1092654892
 20
6.8623790492
 30
0.0
 11
1.6208614946
 21
7.5554537521
 31
0.0
  0
LINE
  5
14C
330
141
100
AcDbEntity
  8
0
  6
Continuous
 62
     7
370
     0
100
AcDbLine
 10
1.6208614946
 20
7.5554537521
 30
0.0
 11
1.5114864946
 21
7.5554537521
 31
0.0
  0
MTEXT
  5
14D
330
141
100
AcDbEntity
  8
0
  6
Continuous
 62
     7
370
     0
100
AcDbMText
 10
0.6595995207
 20
7.7178268296
 30
-0.4292028033
 40
0.109375
 41
0.0
 71
     1
 72
     1
  1
%%c
  7
SLDTEXTSTYLE0
 73
     1
 44
1.0
  0
MTEXT
  5
14E
330
141
100
AcDbEntity
  8
0
  6
Continuous
 62
     7
370
     0
100
AcDbMText
 10
0.8245506887
 20
7.7178268296
 30
-0.4292028033
 40
0.109375
 41
0.0
 71
     1
 72
     1
  1
.23
  7
SLDTEXTSTYLE0
 73
     1
 44
1.0
  0
MTEXT
  5
14F
330
141
100
AcDbEntity
  8
0
  6
Continuous
 62
     7
370
     0
100
AcDbMText
 10
0.7865086966
 20
7.5219772079
 30
-0.4292028033
 40
0.109375
 41
0.0
 71
     1
 72
     1
  1
5.8
  7
SLDTEXTSTYLE0
 73
     1
 44
1.0
  0
MTEXT
  5
150
330
141
100
AcDbEntity
  8
0
  6
Continuous
 62
     7
370
     0
100
AcDbMText
 10
1.1564734287
 20
7.7194978446
 30
-0.4292028033
 40
0.109375
 41
0.0
 71
     1
 72
     1
  1
BOSS
  7
SLDTEXTSTYLE0
 73
     1
 44
1.0
  0
ENDBLK
  5
143
330
141
100
AcDbEntity
  8
0
100
AcDbBlockEnd
  0
BLOCK
  5
153
330
152
100
AcDbEntity
  8
0
100
AcDbBlockBegin
  2
*D10
 70
     1
 10
0.0
 20
0.0
 30
0.0
  3
*D10
  1

  0
SOLID
  5
155
330
152
100
AcDbEntity
  8
0
  6
Continuous
 62
     7
370
     0
100
AcDbTrace
 10
3.1836868381
 20
6.8400043037
 30
0.0
 11
3.1099243889
 21
6.9283468958
 31
0.0
 12
3.0867815264
 22
6.9020903172
 32
0.0
 13
3.0867815264
 23
6.9020903172
 33
0.0
  0
LINE
  5
156
330
152
100
AcDbEntity
  8
0
  6
Continuous
 62
     7
370
     0
100
AcDbLine
 10
1.6585314022
 20
7.842999305
 30
0.0
 11
1.6363146042
 21
7.842999305
 31
0.0
  0
LINE
  5
157
330
152
100
AcDbEntity
  8
0
  6
Continuous
 62
     7
370
     0
100
AcDbLine
 10
1.6363146042
 20
7.842999305
 30
0.0
 11
1.6363146042
 21
7.6693664873
 31
0.0
  0
LINE
  5
158
330
152
100
AcDbEntity
  8
0
  6
Continuous
 62
     7
370
     0
100
AcDbLine
 10
1.6363146042
 20
7.6693664873
 30
0.0
 11
1.6585314022
 21
7.6693664873
 31
0.0
  0
LINE
  5
159
330
152
100
AcDbEntity
  8
0
  6
Continuous
 62
     7
370
     0
100
AcDbLine
 10
1.7948893696
 20
7.842999305
 30
0.0
 11
1.8171061676
 21
7.842999305
 31
0.0
  0
LINE
  5
15A
330
152
100
AcDbEntity
  8
0
  6
Continuous
 62
     7
370
     0
100
AcDbLine
 10
1.8171061676
 20
7.842999305
 30
0.0
 11
1.8171061676
 21
7.6693664873
 31
0.0
  0
LINE
  5
15B
330
152
100
AcDbEntity
  8
0
  6
Continuous
 62
     7
370
     0
100
AcDbLine
 10
1.8171061676
 20
7.6693664873
 30
0.0
 11
1.7948893696
 21
7.6693664873
 31
0.0
  0
LINE
  5
15C
330
152
100
AcDbEntity
  8
0
  6
Continuous
 62
     7
370
     0
100
AcDbLine
 10
3.1836868381
 20
6.8400043037
 30
0.0
 11
2.0640145234
 21
7.826896874
 31
0.0
  0
LINE
  5
15D
330
152
100
AcDbEntity
  8
0
  6
Continuous
 62
     7
370
     0
100
AcDbLine
 10
2.0640145234
 20
7.826896874
 30
0.0
 11
1.9546395234
 21
7.826896874
 31
0.0
  0
MTEXT
  5
15E
330
152
100
AcDbEntity
  8
0
  6
Continuous
 62
     7
370
     0
100
AcDbMText
 10
1.4987812403
 20
8.006207887
 30
-0.4292028033
 40
0.109375
 41
0.0
 71
     1
 72
     1
  1
%%c
  7
SLDTEXTSTYLE0
 73
     1
 44
1.0
  0
MTEXT
  5
15F
330
152
100
AcDbEntity
  8
0
  6
Continuous
 62
     7
370
     0
100
AcDbMText
 10
1.6637324083
 20
8.006207887
 30
-0.4292028033
 40
0.109375
 41
0.0
 71
     1
 72
     1
  1
.08
  7
SLDTEXTSTYLE0
 73
     1
 44
1.0
  0
MTEXT
  5
160
330
152
100
AcDbEntity
  8
0
  6
Continuous
 62
     7
370
     0
100
AcDbMText
 10
1.6863023996
 20
7.8103582653
 30
-0.4292028033
 40
0.109375
 41
0.0
 71
     1
 72
     1
  1
2
  7
SLDTEXTSTYLE0
 73
     1
 44
1.0
  0
ENDBLK
  5
154
330
152
100
AcDbEntity
  8
0
100
AcDbBlockEnd
  0
BLOCK
  5
163
330
162
100
AcDbEntity
  8
0
100
AcDbBlockBegin
  2
*D11
 70
     1
 10
0.0
 20
0.0
 30
0.0
  3
*D11
  1

  0
SOLID
  5
165
330
162
100
AcDbEntity
  8
0
  6
Continuous
 62
     7
370
     0
100
AcDbTrace
 10
2.2210958128
 20
8.3230656794
 30
0.0
 11
2.3348458128
 21
8.3055656794
 31
0.0
 12
2.3348458128
 22
8.3405656794
 32
0.0
 13
2.3348458128
 23
8.3405656794
 33
0.0
  0
SOLID
  5
166
330
162
100
AcDbEntity
  8
0
  6
Continuous
 62
     7
370
     0
100
AcDbTrace
 10
5.780150931
 20
8.3230656794
 30
0.0
 11
5.666400931
 21
8.3405656794
 31
0.0
 12
5.666400931
 22
8.3055656794
 32
0.0
 13
5.666400931
 23
8.3055656794
 33
0.0
  0
LINE
  5
167
330
162
100
AcDbEntity
  8
0
  6
Continuous
 62
     7
370
     0
100
AcDbLine
 10
3.8314244226
 20
8.3222301749
 30
0.0
 11
3.8092076247
 21
8.3222301749
 31
0.0
  0
LINE
  5
168
330
162
100
AcDbEntity
  8
0
  6
Continuous
 62
     7
370
     0
100
AcDbLine
 10
3.8092076247
 20
8.3222301749
 30
0.0
 11
3.8092076247
 21
8.1485973572
 31
0.0
  0
LINE
  5
169
330
162
100
AcDbEntity
  8
0
  6
Continuous
 62
     7
370
     0
100
AcDbLine
 10
3.8092076247
 20
8.1485973572
 30
0.0
 11
3.8314244226
 21
8.1485973572
 31
0.0
  0
LINE
  5
16A
330
162
100
AcDbEntity
  8
0
  6
Continuous
 62
     7
370
     0
100
AcDbLine
 10
4.1698223292
 20
8.3222301749
 30
0.0
 11
4.1920391272
 21
8.3222301749
 31
0.0
  0
LINE
  5
16B
330
162
100
AcDbEntity
  8
0
  6
Continuous
 62
     7
370
     0
100
AcDbLine
 10
4.1920391272
 20
8.3222301749
 30
0.0
 11
4.1920391272
 21
8.1485973572
 31
0.0
  0
LINE
  5
16C
330
162
100
AcDbEntity
  8
0
  6
Continuous
 62
     7
370
     0
100
AcDbLine
 10
4.1920391272
 20
8.1485973572
 30
0.0
 11
4.1698223292
 21
8.1485973572
 31
0.0
  0
LINE
  5
16D
330
162
100
AcDbEntity
  8
0
  6
Continuous
 62
     7
370
     0
100
AcDbLine
 10
2.2210958128
 20
6.9505333002
 30
0.0
 11
2.2210958128
 21
8.4324406794
 31
0.0
  0
LINE
  5
16E
330
162
100
AcDbEntity
  8
0
  6
Continuous
 62
     7
370
     0
100
AcDbLine
 10
5.780150931
 20
6.9505333002
 30
0.0
 11
5.780150931
 21
8.4324406794
 31
0.0
  0
LINE
  5
16F
330
162
100
AcDbEntity
  8
0
  6
Continuous
 62
     7
370
     0
100
AcDbLine
 10
2.2210958128
 20
8.3230656794
 30
0.0
 11
3.7299543218
 21
8.3230656794
 31
0.0
  0
LINE
  5
170
330
162
100
AcDbEntity
  8
0
  6
Continuous
 62
     7
370
     0
100
AcDbLine
 10
5.780150931
 20
8.3230656794
 30
0.0
 11
4.271292422
 21
8.3230656794
 31
0.0
  0
MTEXT
  5
171
330
162
100
AcDbEntity
  8
0
  6
Continuous
 62
     7
370
     0
100
AcDbMText
 10
3.7931526649
 20
8.487109772
 30
-0.4292028033
 40
0.109375
 41
0.0
 71
     1
 72
     1
  1

  7
SLDTEXTSTYLE0
 73
     1
 44
1.0
  0
MTEXT
  5
172
330
162
100
AcDbEntity
  8
0
  6
Continuous
 62
     7
370
     0
100
AcDbMText
 10
3.8147618362
 20
8.485438757
 30
-0.4292028033
 40
0.109375
 41
0.0
 71
     1
 72
     1
  1
3.56
  7
SLDTEXTSTYLE0
 73
     1
 44
1.0
  0
MTEXT
  5
173
330
162
100
AcDbEntity
  8
0
  6
Continuous
 62
     7
370
     0
100
AcDbMText
 10
3.8591954201
 20
8.2895891352
 30
-0.4292028033
 40
0.109375
 41
0.0
 71
     1
 72
     1
  1
90.4
  7
SLDTEXTSTYLE0
 73
     1
 44
1.0
  0
MTEXT
  5
174
330
162
100
AcDbEntity
  8
0
  6
Continuous
 62
     7
370
     0
100
AcDbMText
 10
4.2497173507
 20
8.487109772
 30
-0.4292028033
 40
0.109375
 41
0.0
 71
     1
 72
     1
  1

  7
SLDTEXTSTYLE0
 73
     1
 44
1.0
  0
ENDBLK
  5
164
330
162
100
AcDbEntity
  8
0
100
AcDbBlockEnd
  0
BLOCK
  5
177
330
176
100
AcDbEntity
  8
0
100
AcDbBlockBegin
  2
*D12
 70
     1
 10
0.0
 20
0.0
 30
0.0
  3
*D12
  1

  0
SOLID
  5
179
330
176
100
AcDbEntity
  8
0
  6
Continuous
 62
     7
370
     0
100
AcDbTrace
 10
2.7123797368
 20
7.4933232737
 30
0.0
 11
2.8261297368
 21
7.4758232737
 31
0.0
 12
2.8261297368
 22
7.5108232737
 32
0.0
 13
2.8261297368
 23
7.5108232737
 33
0.0
  0
SOLID
  5
17A
330
176
100
AcDbEntity
  8
0
  6
Continuous
 62
     7
370
     0
100
AcDbTrace
 10
5.288867007
 20
7.4933232737
 30
0.0
 11
5.175117007
 21
7.5108232737
 31
0.0
 12
5.175117007
 22
7.4758232737
 32
0.0
 13
5.175117007
 23
7.4758232737
 33
0.0
  0
LINE
  5
17B
330
176
100
AcDbEntity
  8
0
  6
Continuous
 62
     7
370
     0
100
AcDbLine
 10
3.8314244226
 20
7.4924877692
 30
0.0
 11
3.8092076247
 21
7.4924877692
 31
0.0
  0
LINE
  5
17C
330
176
100
AcDbEntity
  8
0
  6
Continuous
 62
     7
370
     0
100
AcDbLine
 10
3.8092076247
 20
7.4924877692
 30
0.0
 11
3.8092076247
 21
7.3188549515
 31
0.0
  0
LINE
  5
17D
330
176
100
AcDbEntity
  8
0
  6
Continuous
 62
     7
370
     0
100
AcDbLine
 10
3.8092076247
 20
7.3188549515
 30
0.0
 11
3.8314244226
 21
7.3188549515
 31
0.0
  0
LINE
  5
17E
330
176
100
AcDbEntity
  8
0
  6
Continuous
 62
     7
370
     0
100
AcDbLine
 10
4.1698223292
 20
7.4924877692
 30
0.0
 11
4.1920391272
 21
7.4924877692
 31
0.0
  0
LINE
  5
17F
330
176
100
AcDbEntity
  8
0
  6
Continuous
 62
     7
370
     0
100
AcDbLine
 10
4.1920391272
 20
7.4924877692
 30
0.0
 11
4.1920391272
 21
7.3188549515
 31
0.0
  0
LINE
  5
180
330
176
100
AcDbEntity
  8
0
  6
Continuous
 62
     7
370
     0
100
AcDbLine
 10
4.1920391272
 20
7.3188549515
 30
0.0
 11
4.1698223292
 21
7.3188549515
 31
0.0
  0
LINE
  5
181
330
176
100
AcDbEntity
  8
0
  6
Continuous
 62
     7
370
     0
100
AcDbLine
 10
2.7123797368
 20
7.1302174411
 30
0.0
 11
2.7123797368
 21
7.6026982737
 31
0.0
  0
LINE
  5
182
330
176
100
AcDbEntity
  8
0
  6
Continuous
 62
     7
370
     0
100
AcDbLine
 10
5.288867007
 20
7.1302174411
 30
0.0
 11
5.288867007
 21
7.6026982737
 31
0.0
  0
LINE
  5
183
330
176
100
AcDbEntity
  8
0
  6
Continuous
 62
     7
370
     0
100
AcDbLine
 10
2.7123797368
 20
7.4933232737
 30
0.0
 11
3.7299543218
 21
7.4933232737
 31
0.0
  0
LINE
  5
184
330
176
100
AcDbEntity
  8
0
  6
Continuous
 62
     7
370
     0
100
AcDbLine
 10
5.288867007
 20
7.4933232737
 30
0.0
 11
4.271292422
 21
7.4933232737
 31
0.0
  0
MTEXT
  5
185
330
176
100
AcDbEntity
  8
0
  6
Continuous
 62
     7
370
     0
100
AcDbMText
 10
3.7931526649
 20
7.6573673663
 30
-0.4292028033
 40
0.109375
 41
0.0
 71
     1
 72
     1
  1

  7
SLDTEXTSTYLE0
 73
     1
 44
1.0
  0
MTEXT
  5
186
330
176
100
AcDbEntity
  8
0
  6
Continuous
 62
     7
370
     0
100
AcDbMText
 10
3.8147618362
 20
7.6556963512
 30
-0.4292028033
 40
0.109375
 41
0.0
 71
     1
 72
     1
  1
2.58
  7
SLDTEXTSTYLE0
 73
     1
 44
1.0
  0
MTEXT
  5
187
330
176
100
AcDbEntity
  8
0
  6
Continuous
 62
     7
370
     0
100
AcDbMText
 10
3.8591954201
 20
7.4598467295
 30
-0.4292028033
 40
0.109375
 41
0.0
 71
     1
 72
     1
  1
65.4
  7
SLDTEXTSTYLE0
 73
     1
 44
1.0
  0
MTEXT
  5
188
330
176
100
AcDbEntity
  8
0
  6
Continuous
 62
     7
370
     0
100
AcDbMText
 10
4.2497173507
 20
7.6573673663
 30
-0.4292028033
 40
0.109375
 41
0.0
 71
     1
 72
     1
  1

  7
SLDTEXTSTYLE0
 73
     1
 44
1.0
  0
ENDBLK
  5
178
330
176
100
AcDbEntity
  8
0
100
AcDbBlockEnd
  0
BLOCK
  5
18B
330
18A
100
AcDbEntity
  8
0
100
AcDbBlockBegin
  2
*D13
 70
     1
 10
0.0
 20
0.0
 30
0.0
  3
*D13
  1

  0
SOLID
  5
18D
330
18A
100
AcDbEntity
  8
0
  6
Continuous
 62
     7
370
     0
100
AcDbTrace
 10
2.6206073176
 20
7.9172224322
 30
0.0
 11
2.7343573176
 21
7.8997224322
 31
0.0
 12
2.7343573176
 22
7.9347224322
 32
0.0
 13
2.7343573176
 23
7.9347224322
 33
0.0
  0
SOLID
  5
18E
330
18A
100
AcDbEntity
  8
0
  6
Continuous
 62
     7
370
     0
100
AcDbTrace
 10
5.3806394262
 20
7.9172224322
 30
0.0
 11
5.2668894262
 21
7.9347224322
 31
0.0
 12
5.2668894262
 22
7.8997224322
 32
0.0
 13
5.2668894262
 23
7.8997224322
 33
0.0
  0
LINE
  5
18F
330
18A
100
AcDbEntity
  8
0
  6
Continuous
 62
     7
370
     0
100
AcDbLine
 10
3.8314244226
 20
7.9163869277
 30
0.0
 11
3.8092076247
 21
7.9163869277
 31
0.0
  0
LINE
  5
190
330
18A
100
AcDbEntity
  8
0
  6
Continuous
 62
     7
370
     0
100
AcDbLine
 10
3.8092076247
 20
7.9163869277
 30
0.0
 11
3.8092076247
 21
7.74275411
 31
0.0
  0
LINE
  5
191
330
18A
100
AcDbEntity
  8
0
  6
Continuous
 62
     7
370
     0
100
AcDbLine
 10
3.8092076247
 20
7.74275411
 30
0.0
 11
3.8314244226
 21
7.74275411
 31
0.0
  0
LINE
  5
192
330
18A
100
AcDbEntity
  8
0
  6
Continuous
 62
     7
370
     0
100
AcDbLine
 10
4.1698223292
 20
7.9163869277
 30
0.0
 11
4.1920391272
 21
7.9163869277
 31
0.0
  0
LINE
  5
193
330
18A
100
AcDbEntity
  8
0
  6
Continuous
 62
     7
370
     0
100
AcDbLine
 10
4.1920391272
 20
7.9163869277
 30
0.0
 11
4.1920391272
 21
7.74275411
 31
0.0
  0
LINE
  5
194
330
18A
100
AcDbEntity
  8
0
  6
Continuous
 62
     7
370
     0
100
AcDbLine
 10
4.1920391272
 20
7.74275411
 30
0.0
 11
4.1698223292
 21
7.74275411
 31
0.0
  0
LINE
  5
195
330
18A
100
AcDbEntity
  8
0
  6
Continuous
 62
     7
370
     0
100
AcDbLine
 10
2.6206073176
 20
7.1411864044
 30
0.0
 11
2.6206073176
 21
8.0265974322
 31
0.0
  0
LINE
  5
196
330
18A
100
AcDbEntity
  8
0
  6
Continuous
 62
     7
370
     0
100
AcDbLine
 10
5.3806394262
 20
7.1411864044
 30
0.0
 11
5.3806394262
 21
8.0265974322
 31
0.0
  0
LINE
  5
197
330
18A
100
AcDbEntity
  8
0
  6
Continuous
 62
     7
370
     0
100
AcDbLine
 10
2.6206073176
 20
7.9172224322
 30
0.0
 11
3.7299543218
 21
7.9172224322
 31
0.0
  0
LINE
  5
198
330
18A
100
AcDbEntity
  8
0
  6
Continuous
 62
     7
370
     0
100
AcDbLine
 10
5.3806394262
 20
7.9172224322
 30
0.0
 11
4.271292422
 21
7.9172224322
 31
0.0
  0
MTEXT
  5
199
330
18A
100
AcDbEntity
  8
0
  6
Continuous
 62
     7
370
     0
100
AcDbMText
 10
3.7931526649
 20
8.0812665248
 30
-0.4292028033
 40
0.109375
 41
0.0
 71
     1
 72
     1
  1

  7
SLDTEXTSTYLE0
 73
     1
 44
1.0
  0
MTEXT
  5
19A
330
18A
100
AcDbEntity
  8
0
  6
Continuous
 62
     7
370
     0
100
AcDbMText
 10
3.8147618362
 20
8.0795955097
 30
-0.4292028033
 40
0.109375
 41
0.0
 71
     1
 72
     1
  1
2.76
  7
SLDTEXTSTYLE0
 73
     1
 44
1.0
  0
MTEXT
  5
19B
330
18A
100
AcDbEntity
  8
0
  6
Continuous
 62
     7
370
     0
100
AcDbMText
 10
3.8591954201
 20
7.883745888
 30
-0.4292028033
 40
0.109375
 41
0.0
 71
     1
 72
     1
  1
70.1
  7
SLDTEXTSTYLE0
 73
     1
 44
1.0
  0
MTEXT
  5
19C
330
18A
100
AcDbEntity
  8
0
  6
Continuous
 62
     7
370
     0
100
AcDbMText
 10
4.2497173507
 20
8.0812665248
 30
-0.4292028033
 40
0.109375
 41
0.0
 71
     1
 72
     1
  1

  7
SLDTEXTSTYLE0
 73
     1
 44
1.0
  0
ENDBLK
  5
18C
330
18A
100
AcDbEntity
  8
0
100
AcDbBlockEnd
  0
BLOCK
  5
1A0
330
19F
100
AcDbEntity
  8
0
100
AcDbBlockBegin
  2
*D14
 70
     1
 10
0.0
 20
0.0
 30
0.0
  3
*D14
  1

  0
SOLID
  5
1A2
330
19F
100
AcDbEntity
  8
0
  6
Continuous
 62
     7
370
     0
100
AcDbTrace
 10
1.7022598644
 20
7.0864674411
 30
0.0
 11
1.6847598644
 21
6.9727174411
 31
0.0
 12
1.7197598644
 22
6.9727174411
 32
0.0
 13
1.7197598644
 23
6.9727174411
 33
0.0
  0
SOLID
  5
1A3
330
19F
100
AcDbEntity
  8
0
  6
Continuous
 62
     7
370
     0
100
AcDbTrace
 10
1.7022598644
 20
5.2816337142
 30
0.0
 11
1.7197598644
 21
5.3953837142
 31
0.0
 12
1.6847598644
 22
5.3953837142
 32
0.0
 13
1.6847598644
 23
5.3953837142
 33
0.0
  0
LINE
  5
1A4
330
19F
100
AcDbEntity
  8
0
  6
Continuous
 62
     7
370
     0
100
AcDbLine
 10
1.5330609152
 20
6.1832150732
 30
0.0
 11
1.5108441172
 21
6.1832150732
 31
0.0
  0
LINE
  5
1A5
330
19F
100
AcDbEntity
  8
0
  6
Continuous
 62
     7
370
     0
100
AcDbLine
 10
1.5108441172
 20
6.1832150732
 30
0.0
 11
1.5108441172
 21
6.0095822554
 31
0.0
  0
LINE
  5
1A6
330
19F
100
AcDbEntity
  8
0
  6
Continuous
 62
     7
370
     0
100
AcDbLine
 10
1.5108441172
 20
6.0095822554
 30
0.0
 11
1.5330609152
 21
6.0095822554
 31
0.0
  0
LINE
  5
1A7
330
19F
100
AcDbEntity
  8
0
  6
Continuous
 62
     7
370
     0
100
AcDbLine
 10
1.8714588217
 20
6.1832150732
 30
0.0
 11
1.8936756197
 21
6.1832150732
 31
0.0
  0
LINE
  5
1A8
330
19F
100
AcDbEntity
  8
0
  6
Continuous
 62
     7
370
     0
100
AcDbLine
 10
1.8936756197
 20
6.1832150732
 30
0.0
 11
1.8936756197
 21
6.0095822554
 31
0.0
  0
LINE
  5
1A9
330
19F
100
AcDbEntity
  8
0
  6
Continuous
 62
     7
370
     0
100
AcDbLine
 10
1.8936756197
 20
6.0095822554
 30
0.0
 11
1.8714588217
 21
6.0095822554
 31
0.0
  0
LINE
  5
1AA
330
19F
100
AcDbEntity
  8
0
  6
Continuous
 62
     7
370
     0
100
AcDbLine
 10
2.6686297368
 20
7.0864674411
 30
0.0
 11
1.5928848644
 21
7.0864674411
 31
0.0
  0
LINE
  5
1AB
330
19F
100
AcDbEntity
  8
0
  6
Continuous
 62
     7
370
     0
100
AcDbLine
 10
2.6686297368
 20
5.2816337142
 30
0.0
 11
1.5928848644
 21
5.2816337142
 31
0.0
  0
LINE
  5
1AC
330
19F
100
AcDbEntity
  8
0
  6
Continuous
 62
     7
370
     0
100
AcDbLine
 10
1.7022598644
 20
7.0864674411
 30
0.0
 11
1.7022598644
 21
6.3807357099
 31
0.0
  0
LINE
  5
1AD
330
19F
100
AcDbEntity
  8
0
  6
Continuous
 62
     7
370
     0
100
AcDbLine
 10
1.7022598644
 20
5.2816337142
 30
0.0
 11
1.7022598644
 21
5.9873654454
 31
0.0
  0
MTEXT
  5
1AE
330
19F
100
AcDbEntity
  8
0
  6
Continuous
 62
     7
370
     0
100
AcDbMText
 10
1.4947891575
 20
6.3480946702
 30
-0.4292028033
 40
0.109375
 41
0.0
 71
     1
 72
     1
  1

  7
SLDTEXTSTYLE0
 73
     1
 44
1.0
  0
MTEXT
  5
1AF
330
19F
100
AcDbEntity
  8
0
  6
Continuous
 62
     7
370
     0
100
AcDbMText
 10
1.5163983287
 20
6.3464236552
 30
-0.4292028033
 40
0.109375
 41
0.0
 71
     1
 72
     1
  1
1.80
  7
SLDTEXTSTYLE0
 73
     1
 44
1.0
  0
MTEXT
  5
1B0
330
19F
100
AcDbEntity
  8
0
  6
Continuous
 62
     7
370
     0
100
AcDbMText
 10
1.5608319126
 20
6.1505740335
 30
-0.4292028033
 40
0.109375
 41
0.0
 71
     1
 72
     1
  1
45.8
  7
SLDTEXTSTYLE0
 73
     1
 44
1.0
  0
MTEXT
  5
1B1
330
19F
100
AcDbEntity
  8
0
  6
Continuous
 62
     7
370
     0
100
AcDbMText
 10
1.9513538432
 20
6.3480946702
 30
-0.4292028033
 40
0.109375
 41
0.0
 71
     1
 72
     1
  1

  7
SLDTEXTSTYLE0
 73
     1
 44
1.0
  0
ENDBLK
  5
1A1
330
19F
100
AcDbEntity
  8
0
100
AcDbBlockEnd
  0
BLOCK
  5
1B4
330
1B3
100
AcDbEntity
  8
0
100
AcDbBlockBegin
  2
*D15
 70
     1
 10
0.0
 20
0.0
 30
0.0
  3
*D15
  1

  0
SOLID
  5
1B6
330
1B3
100
AcDbEntity
  8
0
  6
Continuous
 62
     7
370
     0
100
AcDbTrace
 10
1.2242310594
 20
5.189861295
 30
0.0
 11
1.2417310594
 21
5.303611295
 31
0.0
 12
1.2067310594
 22
5.303611295
 32
0.0
 13
1.2067310594
 23
5.303611295
 33
0.0
  0
SOLID
  5
1B7
330
1B3
100
AcDbEntity
  8
0
  6
Continuous
 62
     7
370
     0
100
AcDbTrace
 10
1.2242310594
 20
7.1782398603
 30
0.0
 11
1.2067310594
 21
7.0644898603
 31
0.0
 12
1.2417310594
 22
7.0644898603
 32
0.0
 13
1.2417310594
 23
7.0644898603
 33
0.0
  0
LINE
  5
1B8
330
1B3
100
AcDbEntity
  8
0
  6
Continuous
 62
     7
370
     0
100
AcDbLine
 10
1.0550321101
 20
6.1832150732
 30
0.0
 11
1.0328153122
 21
6.1832150732
 31
0.0
  0
LINE
  5
1B9
330
1B3
100
AcDbEntity
  8
0
  6
Continuous
 62
     7
370
     0
100
AcDbLine
 10
1.0328153122
 20
6.1832150732
 30
0.0
 11
1.0328153122
 21
6.0095822554
 31
0.0
  0
LINE
  5
1BA
330
1B3
100
AcDbEntity
  8
0
  6
Continuous
 62
     7
370
     0
100
AcDbLine
 10
1.0328153122
 20
6.0095822554
 30
0.0
 11
1.0550321101
 21
6.0095822554
 31
0.0
  0
LINE
  5
1BB
330
1B3
100
AcDbEntity
  8
0
  6
Continuous
 62
     7
370
     0
100
AcDbLine
 10
1.3934300167
 20
6.1832150732
 30
0.0
 11
1.4156468147
 21
6.1832150732
 31
0.0
  0
LINE
  5
1BC
330
1B3
100
AcDbEntity
  8
0
  6
Continuous
 62
     7
370
     0
100
AcDbLine
 10
1.4156468147
 20
6.1832150732
 30
0.0
 11
1.4156468147
 21
6.0095822554
 31
0.0
  0
LINE
  5
1BD
330
1B3
100
AcDbEntity
  8
0
  6
Continuous
 62
     7
370
     0
100
AcDbLine
 10
1.4156468147
 20
6.0095822554
 30
0.0
 11
1.3934300167
 21
6.0095822554
 31
0.0
  0
LINE
  5
1BE
330
1B3
100
AcDbEntity
  8
0
  6
Continuous
 62
     7
370
     0
100
AcDbLine
 10
2.6576607735
 20
5.189861295
 30
0.0
 11
1.1148560594
 21
5.189861295
 31
0.0
  0
LINE
  5
1BF
330
1B3
100
AcDbEntity
  8
0
  6
Continuous
 62
     7
370
     0
100
AcDbLine
 10
2.6576607735
 20
7.1782398603
 30
0.0
 11
1.1148560594
 21
7.1782398603
 31
0.0
  0
LINE
  5
1C0
330
1B3
100
AcDbEntity
  8
0
  6
Continuous
 62
     7
370
     0
100
AcDbLine
 10
1.2242310594
 20
5.189861295
 30
0.0
 11
1.2242310594
 21
5.9873654454
 31
0.0
  0
LINE
  5
1C1
330
1B3
100
AcDbEntity
  8
0
  6
Continuous
 62
     7
370
     0
100
AcDbLine
 10
1.2242310594
 20
7.1782398603
 30
0.0
 11
1.2242310594
 21
6.3807357099
 31
0.0
  0
MTEXT
  5
1C2
330
1B3
100
AcDbEntity
  8
0
  6
Continuous
 62
     7
370
     0
100
AcDbMText
 10
1.0167603524
 20
6.3480946702
 30
-0.4292028033
 40
0.109375
 41
0.0
 71
     1
 72
     1
  1

  7
SLDTEXTSTYLE0
 73
     1
 44
1.0
  0
MTEXT
  5
1C3
330
1B3
100
AcDbEntity
  8
0
  6
Continuous
 62
     7
370
     0
100
AcDbMText
 10
1.0383695237
 20
6.3464236552
 30
-0.4292028033
 40
0.109375
 41
0.0
 71
     1
 72
     1
  1
1.99
  7
SLDTEXTSTYLE0
 73
     1
 44
1.0
  0
MTEXT
  5
1C4
330
1B3
100
AcDbEntity
  8
0
  6
Continuous
 62
     7
370
     0
100
AcDbMText
 10
1.0828031076
 20
6.1505740335
 30
-0.4292028033
 40
0.109375
 41
0.0
 71
     1
 72
     1
  1
50.5
  7
SLDTEXTSTYLE0
 73
     1
 44
1.0
  0
MTEXT
  5
1C5
330
1B3
100
AcDbEntity
  8
0
  6
Continuous
 62
     7
370
     0
100
AcDbMText
 10
1.4733250382
 20
6.3480946702
 30
-0.4292028033
 40
0.109375
 41
0.0
 71
     1
 72
     1
  1

  7
SLDTEXTSTYLE0
 73
     1
 44
1.0
  0
ENDBLK
  5
1B5
330
1B3
100
AcDbEntity
  8
0
100
AcDbBlockEnd
  0
BLOCK
  5
1C8
330
1C7
100
AcDbEntity
  8
0
100
AcDbBlockBegin
  2
*D16
 70
     1
 10
0.0
 20
0.0
 30
0.0
  3
*D16
  1

  0
SOLID
  5
1CA
330
1C7
100
AcDbEntity
  8
0
  6
Continuous
 62
     7
370
     0
100
AcDbTrace
 10
0.7529828048
 20
5.1712916095
 30
0.0
 11
0.7704828048
 21
5.2850416095
 31
0.0
 12
0.7354828048
 22
5.2850416095
 32
0.0
 13
0.7354828048
 23
5.2850416095
 33
0.0
  0
SOLID
  5
1CB
330
1C7
100
AcDbEntity
  8
0
  6
Continuous
 62
     7
370
     0
100
AcDbTrace
 10
0.7529828048
 20
7.1968095459
 30
0.0
 11
0.7354828048
 21
7.0830595459
 31
0.0
 12
0.7704828048
 22
7.0830595459
 32
0.0
 13
0.7704828048
 23
7.0830595459
 33
0.0
  0
LINE
  5
1CC
330
1C7
100
AcDbEntity
  8
0
  6
Continuous
 62
     7
370
     0
100
AcDbLine
 10
0.5837838556
 20
6.1832150732
 30
0.0
 11
0.5615670576
 21
6.1832150732
 31
0.0
  0
LINE
  5
1CD
330
1C7
100
AcDbEntity
  8
0
  6
Continuous
 62
     7
370
     0
100
AcDbLine
 10
0.5615670576
 20
6.1832150732
 30
0.0
 11
0.5615670576
 21
6.0095822554
 31
0.0
  0
LINE
  5
1CE
330
1C7
100
AcDbEntity
  8
0
  6
Continuous
 62
     7
370
     0
100
AcDbLine
 10
0.5615670576
 20
6.0095822554
 30
0.0
 11
0.5837838556
 21
6.0095822554
 31
0.0
  0
LINE
  5
1CF
330
1C7
100
AcDbEntity
  8
0
  6
Continuous
 62
     7
370
     0
100
AcDbLine
 10
0.9221817621
 20
6.1832150732
 30
0.0
 11
0.9443985601
 21
6.1832150732
 31
0.0
  0
LINE
  5
1D0
330
1C7
100
AcDbEntity
  8
0
  6
Continuous
 62
     7
370
     0
100
AcDbLine
 10
0.9443985601
 20
6.1832150732
 30
0.0
 11
0.9443985601
 21
6.0095822554
 31
0.0
  0
LINE
  5
1D1
330
1C7
100
AcDbEntity
  8
0
  6
Continuous
 62
     7
370
     0
100
AcDbLine
 10
0.9443985601
 20
6.0095822554
 30
0.0
 11
0.9221817621
 21
6.0095822554
 31
0.0
  0
LINE
  5
1D2
330
1C7
100
AcDbEntity
  8
0
  6
Continuous
 62
     7
370
     0
100
AcDbLine
 10
2.6576607735
 20
5.1712916095
 30
0.0
 11
0.6436078048
 21
5.1712916095
 31
0.0
  0
LINE
  5
1D3
330
1C7
100
AcDbEntity
  8
0
  6
Continuous
 62
     7
370
     0
100
AcDbLine
 10
2.6576607735
 20
7.1968095459
 30
0.0
 11
0.6436078048
 21
7.1968095459
 31
0.0
  0
LINE
  5
1D4
330
1C7
100
AcDbEntity
  8
0
  6
Continuous
 62
     7
370
     0
100
AcDbLine
 10
0.7529828048
 20
5.1712916095
 30
0.0
 11
0.7529828048
 21
5.9873654454
 31
0.0
  0
LINE
  5
1D5
330
1C7
100
AcDbEntity
  8
0
  6
Continuous
 62
     7
370
     0
100
AcDbLine
 10
0.7529828048
 20
7.1968095459
 30
0.0
 11
0.7529828048
 21
6.3807357099
 31
0.0
  0
MTEXT
  5
1D6
330
1C7
100
AcDbEntity
  8
0
  6
Continuous
 62
     7
370
     0
100
AcDbMText
 10
0.5455120979
 20
6.3480946702
 30
-0.4292028033
 40
0.109375
 41
0.0
 71
     1
 72
     1
  1

  7
SLDTEXTSTYLE0
 73
     1
 44
1.0
  0
MTEXT
  5
1D7
330
1C7
100
AcDbEntity
  8
0
  6
Continuous
 62
     7
370
     0
100
AcDbMText
 10
0.5671212691
 20
6.3464236552
 30
-0.4292028033
 40
0.109375
 41
0.0
 71
     1
 72
     1
  1
2.03
  7
SLDTEXTSTYLE0
 73
     1
 44
1.0
  0
MTEXT
  5
1D8
330
1C7
100
AcDbEntity
  8
0
  6
Continuous
 62
     7
370
     0
100
AcDbMText
 10
0.611554853
 20
6.1505740335
 30
-0.4292028033
 40
0.109375
 41
0.0
 71
     1
 72
     1
  1
51.4
  7
SLDTEXTSTYLE0
 73
     1
 44
1.0
  0
MTEXT
  5
1D9
330
1C7
100
AcDbEntity
  8
0
  6
Continuous
 62
     7
370
     0
100
AcDbMText
 10
1.0020767836
 20
6.3480946702
 30
-0.4292028033
 40
0.109375
 41
0.0
 71
     1
 72
     1
  1

  7
SLDTEXTSTYLE0
 73
     1
 44
1.0
  0
ENDBLK
  5
1C9
330
1C7
100
AcDbEntity
  8
0
100
AcDbBlockEnd
  0
BLOCK
  5
1DB
330
1DA
100
AcDbEntity
  8
0
100
AcDbBlockBegin
  2
SW_NOTE_4
 70
     0
 10
0.0
 20
0.0
 30
0.0
  3
SW_NOTE_4
  1

  0
MTEXT
  5
1DD
330
1DA
100
AcDbEntity
  8
0
  6
Continuous
 62
     0
370
     0
100
AcDbMText
 10
0.0172482371
 20
0.0529918146
 30
0.0
 40
0.109375
 41
0.0
 71
     1
 72
     1
  1
HOLES ACCEPT M2.6 x 6mm LG.
  7
SLDTEXTSTYLE0
 73
     1
 44
1.0
  0
MTEXT
  5
1DE
330
1DA
100
AcDbEntity
  8
0
  6
Continuous
 62
     0
370
     0
100
AcDbMText
 10
0.0172482371
 20
-0.0908320006
 30
0.0
 40
0.109375
 41
0.0
 71
     1
 72
     1
  1
SELF-TAPPING SCREWS FOR
  7
SLDTEXTSTYLE0
 73
     1
 44
1.0
  0
MTEXT
  5
1DF
330
1DA
100
AcDbEntity
  8
0
  6
Continuous
 62
     0
370
     0
100
AcDbMText
 10
0.0172482371
 20
-0.2346558158
 30
0.0
 40
0.109375
 41
0.0
 71
     1
 72
     1
  1
PCB MOUNTING
  7
SLDTEXTSTYLE0
 73
     1
 44
1.0
  0
ENDBLK
  5
1DC
330
1DA
100
AcDbEntity
  8
0
100
AcDbBlockEnd
  0
BLOCK
  5
1E4
330
1E3
100
AcDbEntity
  8
0
100
AcDbBlockBegin
  2
SW_CENTERMARKSYMBOL_0
 70
     0
 10
0.0
 20
0.0
 30
0.0
  3
SW_CENTERMARKSYMBOL_0
  1

  0
LINE
  5
1E6
330
1E3
100
AcDbEntity
  8
0
  6
Continuous
 62
     0
370
     0
100
AcDbLine
 10
0.0
 20
0.0
 30
0.0
 11
0.0
 21
0.1
 31
0.0
  0
LINE
  5
1E7
330
1E3
100
AcDbEntity
  8
0
  6
Continuous
 62
     0
370
     0
100
AcDbLine
 10
0.0
 20
0.0
 30
0.0
 11
-0.1
 21
0.0
 31
0.0
  0
LINE
  5
1E8
330
1E3
100
AcDbEntity
  8
0
  6
Continuous
 62
     0
370
     0
100
AcDbLine
 10
0.0
 20
0.0
 30
0.0
 11
0.0
 21
-0.1
 31
0.0
  0
LINE
  5
1E9
330
1E3
100
AcDbEntity
  8
0
  6
Continuous
 62
     0
370
     0
100
AcDbLine
 10
0.0
 20
0.0
 30
0.0
 11
0.1
 21
0.0
 31
0.0
  0
LINE
  5
1EA
330
1E3
100
AcDbEntity
  8
0
  6
Continuous
 62
     0
370
     0
100
AcDbLine
 10
0.0
 20
0.1
 30
0.0
 11
0.0
 21
0.1885826772
 31
0.0
  0
LINE
  5
1EB
330
1E3
100
AcDbEntity
  8
0
  6
Continuous
 62
     0
370
     0
100
AcDbLine
 10
-0.1
 20
0.0
 30
0.0
 11
-0.1885826772
 21
0.0
 31
0.0
  0
LINE
  5
1EC
330
1E3
100
AcDbEntity
  8
0
  6
Continuous
 62
     0
370
     0
100
AcDbLine
 10
0.0
 20
-0.1
 30
0.0
 11
0.0
 21
-0.1885826772
 31
0.0
  0
LINE
  5
1ED
330
1E3
100
AcDbEntity
  8
0
  6
Continuous
 62
     0
370
     0
100
AcDbLine
 10
0.1
 20
0.0
 30
0.0
 11
0.1885826772
 21
0.0
 31
0.0
  0
ENDBLK
  5
1E5
330
1E3
100
AcDbEntity
  8
0
100
AcDbBlockEnd
  0
BLOCK
  5
1F0
330
1EF
100
AcDbEntity
  8
0
100
AcDbBlockBegin
  2
SW_CENTERMARKSYMBOL_1
 70
     0
 10
0.0
 20
0.0
 30
0.0
  3
SW_CENTERMARKSYMBOL_1
  1

  0
LINE
  5
1F2
330
1EF
100
AcDbEntity
  8
0
  6
Continuous
 62
     0
370
     0
100
AcDbLine
 10
0.0
 20
0.0
 30
0.0
 11
0.0
 21
0.1
 31
0.0
  0
LINE
  5
1F3
330
1EF
100
AcDbEntity
  8
0
  6
Continuous
 62
     0
370
     0
100
AcDbLine
 10
0.0
 20
0.0
 30
0.0
 11
-0.1
 21
0.0
 31
0.0
  0
LINE
  5
1F4
330
1EF
100
AcDbEntity
  8
0
  6
Continuous
 62
     0
370
     0
100
AcDbLine
 10
0.0
 20
0.0
 30
0.0
 11
0.0
 21
-0.1
 31
0.0
  0
LINE
  5
1F5
330
1EF
100
AcDbEntity
  8
0
  6
Continuous
 62
     0
370
     0
100
AcDbLine
 10
0.0
 20
0.0
 30
0.0
 11
0.1
 21
0.0
 31
0.0
  0
LINE
  5
1F6
330
1EF
100
AcDbEntity
  8
0
  6
Continuous
 62
     0
370
     0
100
AcDbLine
 10
0.0
 20
0.1
 30
0.0
 11
0.0
 21
0.1885826772
 31
0.0
  0
LINE
  5
1F7
330
1EF
100
AcDbEntity
  8
0
  6
Continuous
 62
     0
370
     0
100
AcDbLine
 10
-0.1
 20
0.0
 30
0.0
 11
-0.1885826772
 21
0.0
 31
0.0
  0
LINE
  5
1F8
330
1EF
100
AcDbEntity
  8
0
  6
Continuous
 62
     0
370
     0
100
AcDbLine
 10
0.0
 20
-0.1
 30
0.0
 11
0.0
 21
-0.1885826772
 31
0.0
  0
LINE
  5
1F9
330
1EF
100
AcDbEntity
  8
0
  6
Continuous
 62
     0
370
     0
100
AcDbLine
 10
0.1
 20
0.0
 30
0.0
 11
0.1885826772
 21
0.0
 31
0.0
  0
ENDBLK
  5
1F1
330
1EF
100
AcDbEntity
  8
0
100
AcDbBlockEnd
  0
BLOCK
  5
1FC
330
1FB
100
AcDbEntity
  8
0
100
AcDbBlockBegin
  2
SW_CENTERMARKSYMBOL_2
 70
     0
 10
0.0
 20
0.0
 30
0.0
  3
SW_CENTERMARKSYMBOL_2
  1

  0
LINE
  5
1FE
330
1FB
100
AcDbEntity
  8
0
  6
Continuous
 62
     0
370
     0
100
AcDbLine
 10
0.0
 20
0.0
 30
0.0
 11
0.0
 21
0.1
 31
0.0
  0
LINE
  5
1FF
330
1FB
100
AcDbEntity
  8
0
  6
Continuous
 62
     0
370
     0
100
AcDbLine
 10
0.0
 20
0.0
 30
0.0
 11
-0.1
 21
0.0
 31
0.0
  0
LINE
  5
200
330
1FB
100
AcDbEntity
  8
0
  6
Continuous
 62
     0
370
     0
100
AcDbLine
 10
0.0
 20
0.0
 30
0.0
 11
0.0
 21
-0.1
 31
0.0
  0
LINE
  5
201
330
1FB
100
AcDbEntity
  8
0
  6
Continuous
 62
     0
370
     0
100
AcDbLine
 10
0.0
 20
0.0
 30
0.0
 11
0.1
 21
0.0
 31
0.0
  0
LINE
  5
202
330
1FB
100
AcDbEntity
  8
0
  6
Continuous
 62
     0
370
     0
100
AcDbLine
 10
0.0
 20
0.1
 30
0.0
 11
0.0
 21
0.1393700787
 31
0.0
  0
LINE
  5
203
330
1FB
100
AcDbEntity
  8
0
  6
Continuous
 62
     0
370
     0
100
AcDbLine
 10
-0.1
 20
0.0
 30
0.0
 11
-0.1393700787
 21
0.0
 31
0.0
  0
LINE
  5
204
330
1FB
100
AcDbEntity
  8
0
  6
Continuous
 62
     0
370
     0
100
AcDbLine
 10
0.0
 20
-0.1
 30
0.0
 11
0.0
 21
-0.1393700787
 31
0.0
  0
LINE
  5
205
330
1FB
100
AcDbEntity
  8
0
  6
Continuous
 62
     0
370
     0
100
AcDbLine
 10
0.1
 20
0.0
 30
0.0
 11
0.1393700787
 21
0.0
 31
0.0
  0
ENDBLK
  5
1FD
330
1FB
100
AcDbEntity
  8
0
100
AcDbBlockEnd
  0
BLOCK
  5
208
330
207
100
AcDbEntity
  8
0
100
AcDbBlockBegin
  2
SW_CENTERMARKSYMBOL_3
 70
     0
 10
0.0
 20
0.0
 30
0.0
  3
SW_CENTERMARKSYMBOL_3
  1

  0
LINE
  5
20A
330
207
100
AcDbEntity
  8
0
  6
Continuous
 62
     0
370
     0
100
AcDbLine
 10
0.0
 20
0.0
 30
0.0
 11
0.0
 21
0.1
 31
0.0
  0
LINE
  5
20B
330
207
100
AcDbEntity
  8
0
  6
Continuous
 62
     0
370
     0
100
AcDbLine
 10
0.0
 20
0.0
 30
0.0
 11
-0.1
 21
0.0
 31
0.0
  0
LINE
  5
20C
330
207
100
AcDbEntity
  8
0
  6
Continuous
 62
     0
370
     0
100
AcDbLine
 10
0.0
 20
0.0
 30
0.0
 11
0.0
 21
-0.1
 31
0.0
  0
LINE
  5
20D
330
207
100
AcDbEntity
  8
0
  6
Continuous
 62
     0
370
     0
100
AcDbLine
 10
0.0
 20
0.0
 30
0.0
 11
0.1
 21
0.0
 31
0.0
  0
LINE
  5
20E
330
207
100
AcDbEntity
  8
0
  6
Continuous
 62
     0
370
     0
100
AcDbLine
 10
0.0
 20
0.1
 30
0.0
 11
0.0
 21
0.1393700787
 31
0.0
  0
LINE
  5
20F
330
207
100
AcDbEntity
  8
0
  6
Continuous
 62
     0
370
     0
100
AcDbLine
 10
-0.1
 20
0.0
 30
0.0
 11
-0.1393700787
 21
0.0
 31
0.0
  0
LINE
  5
210
330
207
100
AcDbEntity
  8
0
  6
Continuous
 62
     0
370
     0
100
AcDbLine
 10
0.0
 20
-0.1
 30
0.0
 11
0.0
 21
-0.1393700787
 31
0.0
  0
LINE
  5
211
330
207
100
AcDbEntity
  8
0
  6
Continuous
 62
     0
370
     0
100
AcDbLine
 10
0.1
 20
0.0
 30
0.0
 11
0.1393700787
 21
0.0
 31
0.0
  0
ENDBLK
  5
209
330
207
100
AcDbEntity
  8
0
100
AcDbBlockEnd
  0
BLOCK
  5
214
330
213
100
AcDbEntity
  8
0
100
AcDbBlockBegin
  2
SW_CENTERMARKSYMBOL_4
 70
     0
 10
0.0
 20
0.0
 30
0.0
  3
SW_CENTERMARKSYMBOL_4
  1

  0
LINE
  5
216
330
213
100
AcDbEntity
  8
0
  6
Continuous
 62
     0
370
     0
100
AcDbLine
 10
0.0
 20
0.0
 30
0.0
 11
0.0
 21
0.1
 31
0.0
  0
LINE
  5
217
330
213
100
AcDbEntity
  8
0
  6
Continuous
 62
     0
370
     0
100
AcDbLine
 10
0.0
 20
0.0
 30
0.0
 11
-0.1
 21
0.0
 31
0.0
  0
LINE
  5
218
330
213
100
AcDbEntity
  8
0
  6
Continuous
 62
     0
370
     0
100
AcDbLine
 10
0.0
 20
0.0
 30
0.0
 11
0.0
 21
-0.1
 31
0.0
  0
LINE
  5
219
330
213
100
AcDbEntity
  8
0
  6
Continuous
 62
     0
370
     0
100
AcDbLine
 10
0.0
 20
0.0
 30
0.0
 11
0.1
 21
0.0
 31
0.0
  0
LINE
  5
21A
330
213
100
AcDbEntity
  8
0
  6
Continuous
 62
     0
370
     0
100
AcDbLine
 10
0.0
 20
0.1
 30
0.0
 11
0.0
 21
0.1393700787
 31
0.0
  0
LINE
  5
21B
330
213
100
AcDbEntity
  8
0
  6
Continuous
 62
     0
370
     0
100
AcDbLine
 10
-0.1
 20
0.0
 30
0.0
 11
-0.1393700787
 21
0.0
 31
0.0
  0
LINE
  5
21C
330
213
100
AcDbEntity
  8
0
  6
Continuous
 62
     0
370
     0
100
AcDbLine
 10
0.0
 20
-0.1
 30
0.0
 11
0.0
 21
-0.1393700787
 31
0.0
  0
LINE
  5
21D
330
213
100
AcDbEntity
  8
0
  6
Continuous
 62
     0
370
     0
100
AcDbLine
 10
0.1
 20
0.0
 30
0.0
 11
0.1393700787
 21
0.0
 31
0.0
  0
ENDBLK
  5
215
330
213
100
AcDbEntity
  8
0
100
AcDbBlockEnd
  0
BLOCK
  5
220
330
21F
100
AcDbEntity
  8
0
100
AcDbBlockBegin
  2
SW_CENTERMARKSYMBOL_5
 70
     0
 10
0.0
 20
0.0
 30
0.0
  3
SW_CENTERMARKSYMBOL_5
  1

  0
LINE
  5
222
330
21F
100
AcDbEntity
  8
0
  6
Continuous
 62
     0
370
     0
100
AcDbLine
 10
0.0
 20
0.0
 30
0.0
 11
0.0
 21
0.1
 31
0.0
  0
LINE
  5
223
330
21F
100
AcDbEntity
  8
0
  6
Continuous
 62
     0
370
     0
100
AcDbLine
 10
0.0
 20
0.0
 30
0.0
 11
-0.1
 21
0.0
 31
0.0
  0
LINE
  5
224
330
21F
100
AcDbEntity
  8
0
  6
Continuous
 62
     0
370
     0
100
AcDbLine
 10
0.0
 20
0.0
 30
0.0
 11
0.0
 21
-0.1
 31
0.0
  0
LINE
  5
225
330
21F
100
AcDbEntity
  8
0
  6
Continuous
 62
     0
370
     0
100
AcDbLine
 10
0.0
 20
0.0
 30
0.0
 11
0.1
 21
0.0
 31
0.0
  0
LINE
  5
226
330
21F
100
AcDbEntity
  8
0
  6
Continuous
 62
     0
370
     0
100
AcDbLine
 10
0.0
 20
0.1
 30
0.0
 11
0.0
 21
0.1393700787
 31
0.0
  0
LINE
  5
227
330
21F
100
AcDbEntity
  8
0
  6
Continuous
 62
     0
370
     0
100
AcDbLine
 10
-0.1
 20
0.0
 30
0.0
 11
-0.1393700787
 21
0.0
 31
0.0
  0
LINE
  5
228
330
21F
100
AcDbEntity
  8
0
  6
Continuous
 62
     0
370
     0
100
AcDbLine
 10
0.0
 20
-0.1
 30
0.0
 11
0.0
 21
-0.1393700787
 31
0.0
  0
LINE
  5
229
330
21F
100
AcDbEntity
  8
0
  6
Continuous
 62
     0
370
     0
100
AcDbLine
 10
0.1
 20
0.0
 30
0.0
 11
0.1393700787
 21
0.0
 31
0.0
  0
ENDBLK
  5
221
330
21F
100
AcDbEntity
  8
0
100
AcDbBlockEnd
  0
BLOCK
  5
34F
330
34E
100
AcDbEntity
  8
0
100
AcDbBlockBegin
  2
*D24
 70
     1
 10
0.0
 20
0.0
 30
0.0
  3
*D24
  1

  0
SOLID
  5
351
330
34E
100
AcDbEntity
  8
0
  6
Continuous
 62
     7
370
     0
100
AcDbTrace
 10
2.0060737974
 20
3.3767586131
 30
0.0
 11
2.0235737974
 21
3.4905086131
 31
0.0
 12
1.9885737974
 22
3.4905086131
 32
0.0
 13
1.9885737974
 23
3.4905086131
 33
0.0
  0
SOLID
  5
352
330
34E
100
AcDbEntity
  8
0
  6
Continuous
 62
     7
370
     0
100
AcDbTrace
 10
2.0060737974
 20
3.2192782981
 30
0.0
 11
1.9885737974
 21
3.1055282981
 31
0.0
 12
2.0235737974
 22
3.1055282981
 32
0.0
 13
2.0235737974
 23
3.1055282981
 33
0.0
  0
LINE
  5
353
330
34E
100
AcDbEntity
  8
0
  6
Continuous
 62
     7
370
     0
100
AcDbLine
 10
1.5761101276
 20
3.0068702417
 30
0.0
 11
1.5538933296
 21
3.0068702417
 31
0.0
  0
LINE
  5
354
330
34E
100
AcDbEntity
  8
0
  6
Continuous
 62
     7
370
     0
100
AcDbLine
 10
1.5538933296
 20
3.0068702417
 30
0.0
 11
1.5538933296
 21
2.833237424
 31
0.0
  0
LINE
  5
355
330
34E
100
AcDbEntity
  8
0
  6
Continuous
 62
     7
370
     0
100
AcDbLine
 10
1.5538933296
 20
2.833237424
 30
0.0
 11
1.5761101276
 21
2.833237424
 31
0.0
  0
LINE
  5
356
330
34E
100
AcDbEntity
  8
0
  6
Continuous
 62
     7
370
     0
100
AcDbLine
 10
1.712468095
 20
3.0068702417
 30
0.0
 11
1.734684893
 21
3.0068702417
 31
0.0
  0
LINE
  5
357
330
34E
100
AcDbEntity
  8
0
  6
Continuous
 62
     7
370
     0
100
AcDbLine
 10
1.734684893
 20
3.0068702417
 30
0.0
 11
1.734684893
 21
2.833237424
 31
0.0
  0
LINE
  5
358
330
34E
100
AcDbEntity
  8
0
  6
Continuous
 62
     7
370
     0
100
AcDbLine
 10
1.734684893
 20
2.833237424
 30
0.0
 11
1.712468095
 21
2.833237424
 31
0.0
  0
LINE
  5
359
330
34E
100
AcDbEntity
  8
0
  6
Continuous
 62
     7
370
     0
100
AcDbLine
 10
2.2167158916
 20
3.3767586131
 30
0.0
 11
1.8966987974
 21
3.3767586131
 31
0.0
  0
LINE
  5
35A
330
34E
100
AcDbEntity
  8
0
  6
Continuous
 62
     7
370
     0
100
AcDbLine
 10
2.1773458128
 20
3.2192782981
 30
0.0
 11
1.8966987974
 21
3.2192782981
 31
0.0
  0
LINE
  5
35B
330
34E
100
AcDbEntity
  8
0
  6
Continuous
 62
     7
370
     0
100
AcDbLine
 10
1.8966987974
 20
3.0077057462
 30
0.0
 11
2.0060737974
 21
3.0077057462
 31
0.0
  0
LINE
  5
35C
330
34E
100
AcDbEntity
  8
0
  6
Continuous
 62
     7
370
     0
100
AcDbLine
 10
2.0060737974
 20
3.0077057462
 30
0.0
 11
2.0060737974
 21
3.2192782981
 31
0.0
  0
LINE
  5
35D
330
34E
100
AcDbEntity
  8
0
  6
Continuous
 62
     7
370
     0
100
AcDbLine
 10
2.0060737974
 20
3.3767586131
 30
0.0
 11
2.0060737974
 21
3.5955086131
 31
0.0
  0
MTEXT
  5
35E
330
34E
100
AcDbEntity
  8
0
  6
Continuous
 62
     7
370
     0
100
AcDbMText
 10
1.4994431805
 20
3.1717498388
 30
0.3626782046
 40
0.109375
 41
0.0
 71
     1
 72
     1
  1

  7
SLDTEXTSTYLE0
 73
     1
 44
1.0
  0
MTEXT
  5
35F
330
34E
100
AcDbEntity
  8
0
  6
Continuous
 62
     7
370
     0
100
AcDbMText
 10
1.4988355417
 20
3.1700788237
 30
0.3626782046
 40
0.109375
 41
0.0
 71
     1
 72
     1
  1
.16
  7
SLDTEXTSTYLE0
 73
     1
 44
1.0
  0
MTEXT
  5
360
330
34E
100
AcDbEntity
  8
0
  6
Continuous
 62
     7
370
     0
100
AcDbMText
 10
1.6038811251
 20
2.974229202
 30
0.3626782046
 40
0.109375
 41
0.0
 71
     1
 72
     1
  1
4
  7
SLDTEXTSTYLE0
 73
     1
 44
1.0
  0
MTEXT
  5
361
330
34E
100
AcDbEntity
  8
0
  6
Continuous
 62
     7
370
     0
100
AcDbMText
 10
1.8307582898
 20
3.1717498388
 30
0.3626782046
 40
0.109375
 41
0.0
 71
     1
 72
     1
  1

  7
SLDTEXTSTYLE0
 73
     1
 44
1.0
  0
ENDBLK
  5
350
330
34E
100
AcDbEntity
  8
0
100
AcDbBlockEnd
  0
BLOCK
  5
364
330
363
100
AcDbEntity
  8
0
100
AcDbBlockBegin
  2
*D25
 70
     1
 10
0.0
 20
0.0
 30
0.0
  3
*D25
  1

  0
SOLID
  5
366
330
363
100
AcDbEntity
  8
0
  6
Continuous
 62
     7
370
     0
100
AcDbTrace
 10
1.538321106
 20
3.6129790855
 30
0.0
 11
1.555821106
 21
3.7267290855
 31
0.0
 12
1.520821106
 22
3.7267290855
 32
0.0
 13
1.520821106
 23
3.7267290855
 33
0.0
  0
SOLID
  5
367
330
363
100
AcDbEntity
  8
0
  6
Continuous
 62
     7
370
     0
100
AcDbTrace
 10
1.538321106
 20
3.2192782981
 30
0.0
 11
1.520821106
 21
3.1055282981
 31
0.0
 12
1.555821106
 22
3.1055282981
 32
0.0
 13
1.555821106
 23
3.1055282981
 33
0.0
  0
LINE
  5
368
330
363
100
AcDbEntity
  8
0
  6
Continuous
 62
     7
370
     0
100
AcDbLine
 10
1.4297341401
 20
3.4152931873
 30
0.0
 11
1.4075173421
 21
3.4152931873
 31
0.0
  0
LINE
  5
369
330
363
100
AcDbEntity
  8
0
  6
Continuous
 62
     7
370
     0
100
AcDbLine
 10
1.4075173421
 20
3.4152931873
 30
0.0
 11
1.4075173421
 21
3.2416603696
 31
0.0
  0
LINE
  5
36A
330
363
100
AcDbEntity
  8
0
  6
Continuous
 62
     7
370
     0
100
AcDbLine
 10
1.4075173421
 20
3.2416603696
 30
0.0
 11
1.4297341401
 21
3.2416603696
 31
0.0
  0
LINE
  5
36B
330
363
100
AcDbEntity
  8
0
  6
Continuous
 62
     7
370
     0
100
AcDbLine
 10
1.64690808
 20
3.4152931873
 30
0.0
 11
1.669124878
 21
3.4152931873
 31
0.0
  0
LINE
  5
36C
330
363
100
AcDbEntity
  8
0
  6
Continuous
 62
     7
370
     0
100
AcDbLine
 10
1.669124878
 20
3.4152931873
 30
0.0
 11
1.669124878
 21
3.2416603696
 31
0.0
  0
LINE
  5
36D
330
363
100
AcDbEntity
  8
0
  6
Continuous
 62
     7
370
     0
100
AcDbLine
 10
1.669124878
 20
3.2416603696
 30
0.0
 11
1.64690808
 21
3.2416603696
 31
0.0
  0
LINE
  5
36E
330
363
100
AcDbEntity
  8
0
  6
Continuous
 62
     7
370
     0
100
AcDbLine
 10
2.5986056554
 20
3.6129790855
 30
0.0
 11
1.428946106
 21
3.6129790855
 31
0.0
  0
LINE
  5
36F
330
363
100
AcDbEntity
  8
0
  6
Continuous
 62
     7
370
     0
100
AcDbLine
 10
2.1773458128
 20
3.2192782981
 30
0.0
 11
1.428946106
 21
3.2192782981
 31
0.0
  0
LINE
  5
370
330
363
100
AcDbEntity
  8
0
  6
Continuous
 62
     7
370
     0
100
AcDbLine
 10
1.538321106
 20
3.6129790855
 30
0.0
 11
1.538321106
 21
3.8317290855
 31
0.0
  0
LINE
  5
371
330
363
100
AcDbEntity
  8
0
  6
Continuous
 62
     7
370
     0
100
AcDbLine
 10
1.538321106
 20
3.2192782981
 30
0.0
 11
1.538321106
 21
3.0005282981
 31
0.0
  0
MTEXT
  5
372
330
363
100
AcDbEntity
  8
0
  6
Continuous
 62
     7
370
     0
100
AcDbMText
 10
1.3914623824
 20
3.5801727844
 30
0.3626782046
 40
0.109375
 41
0.0
 71
     1
 72
     1
  1

  7
SLDTEXTSTYLE0
 73
     1
 44
1.0
  0
MTEXT
  5
373
330
363
100
AcDbEntity
  8
0
  6
Continuous
 62
     7
370
     0
100
AcDbMText
 10
1.3928675485
 20
3.5785017693
 30
0.3626782046
 40
0.109375
 41
0.0
 71
     1
 72
     1
  1
.39
  7
SLDTEXTSTYLE0
 73
     1
 44
1.0
  0
MTEXT
  5
374
330
363
100
AcDbEntity
  8
0
  6
Continuous
 62
     7
370
     0
100
AcDbMText
 10
1.4575051376
 20
3.3826521476
 30
0.3626782046
 40
0.109375
 41
0.0
 71
     1
 72
     1
  1
10
  7
SLDTEXTSTYLE0
 73
     1
 44
1.0
  0
MTEXT
  5
375
330
363
100
AcDbEntity
  8
0
  6
Continuous
 62
     7
370
     0
100
AcDbMText
 10
1.7268031014
 20
3.5801727844
 30
0.3626782046
 40
0.109375
 41
0.0
 71
     1
 72
     1
  1

  7
SLDTEXTSTYLE0
 73
     1
 44
1.0
  0
ENDBLK
  5
365
330
363
100
AcDbEntity
  8
0
100
AcDbBlockEnd
  0
BLOCK
  5
379
330
378
100
AcDbEntity
  8
0
100
AcDbBlockBegin
  2
*D26
 70
     1
 10
0.0
 20
0.0
 30
0.0
  3
*D26
  1

  0
SOLID
  5
37B
330
378
100
AcDbEntity
  8
0
  6
Continuous
 62
     7
370
     0
100
AcDbTrace
 10
2.9367569873
 20
3.2980184556
 30
0.0
 11
2.9192569873
 21
3.1842684556
 31
0.0
 12
2.9542569873
 22
3.1842684556
 32
0.0
 13
2.9542569873
 23
3.1842684556
 33
0.0
  0
SOLID
  5
37C
330
378
100
AcDbEntity
  8
0
  6
Continuous
 62
     7
370
     0
100
AcDbTrace
 10
2.9367569873
 20
3.4948688493
 30
0.0
 11
2.9542569873
 21
3.6086188493
 31
0.0
 12
2.9192569873
 22
3.6086188493
 32
0.0
 13
2.9192569873
 23
3.6086188493
 33
0.0
  0
LINE
  5
37D
330
378
100
AcDbEntity
  8
0
  6
Continuous
 62
     7
370
     0
100
AcDbLine
 10
2.5067933175
 20
3.8507539631
 30
0.0
 11
2.4845765195
 21
3.8507539631
 31
0.0
  0
LINE
  5
37E
330
378
100
AcDbEntity
  8
0
  6
Continuous
 62
     7
370
     0
100
AcDbLine
 10
2.4845765195
 20
3.8507539631
 30
0.0
 11
2.4845765195
 21
3.6771211454
 31
0.0
  0
LINE
  5
37F
330
378
100
AcDbEntity
  8
0
  6
Continuous
 62
     7
370
     0
100
AcDbLine
 10
2.4845765195
 20
3.6771211454
 30
0.0
 11
2.5067933175
 21
3.6771211454
 31
0.0
  0
LINE
  5
380
330
378
100
AcDbEntity
  8
0
  6
Continuous
 62
     7
370
     0
100
AcDbLine
 10
2.6431512849
 20
3.8507539631
 30
0.0
 11
2.6653680829
 21
3.8507539631
 31
0.0
  0
LINE
  5
381
330
378
100
AcDbEntity
  8
0
  6
Continuous
 62
     7
370
     0
100
AcDbLine
 10
2.6653680829
 20
3.8507539631
 30
0.0
 11
2.6653680829
 21
3.6771211454
 31
0.0
  0
LINE
  5
382
330
378
100
AcDbEntity
  8
0
  6
Continuous
 62
     7
370
     0
100
AcDbLine
 10
2.6653680829
 20
3.6771211454
 30
0.0
 11
2.6431512849
 21
3.6771211454
 31
0.0
  0
LINE
  5
383
330
378
100
AcDbEntity
  8
0
  6
Continuous
 62
     7
370
     0
100
AcDbLine
 10
3.0547975973
 20
3.4948688493
 30
0.0
 11
2.8273819873
 21
3.4948688493
 31
0.0
  0
LINE
  5
384
330
378
100
AcDbEntity
  8
0
  6
Continuous
 62
     7
370
     0
100
AcDbLine
 10
2.8273819873
 20
3.8515894677
 30
0.0
 11
2.9367569873
 21
3.8515894677
 31
0.0
  0
LINE
  5
385
330
378
100
AcDbEntity
  8
0
  6
Continuous
 62
     7
370
     0
100
AcDbLine
 10
2.9367569873
 20
3.8515894677
 30
0.0
 11
2.9367569873
 21
3.4948688493
 31
0.0
  0
LINE
  5
386
330
378
100
AcDbEntity
  8
0
  6
Continuous
 62
     7
370
     0
100
AcDbLine
 10
2.9367569873
 20
3.2980184556
 30
0.0
 11
2.9367569873
 21
3.0792684556
 31
0.0
  0
MTEXT
  5
387
330
378
100
AcDbEntity
  8
0
  6
Continuous
 62
     7
370
     0
100
AcDbMText
 10
2.4301263704
 20
4.0156335602
 30
0.3626782046
 40
0.109375
 41
0.0
 71
     1
 72
     1
  1

  7
SLDTEXTSTYLE0
 73
     1
 44
1.0
  0
MTEXT
  5
388
330
378
100
AcDbEntity
  8
0
  6
Continuous
 62
     7
370
     0
100
AcDbMText
 10
2.4295187317
 20
4.0139625452
 30
0.3626782046
 40
0.109375
 41
0.0
 71
     1
 72
     1
  1
.20
  7
SLDTEXTSTYLE0
 73
     1
 44
1.0
  0
MTEXT
  5
389
330
378
100
AcDbEntity
  8
0
  6
Continuous
 62
     7
370
     0
100
AcDbMText
 10
2.534564315
 20
3.8181129234
 30
0.3626782046
 40
0.109375
 41
0.0
 71
     1
 72
     1
  1
5
  7
SLDTEXTSTYLE0
 73
     1
 44
1.0
  0
MTEXT
  5
38A
330
378
100
AcDbEntity
  8
0
  6
Continuous
 62
     7
370
     0
100
AcDbMText
 10
2.7614414797
 20
4.0156335602
 30
0.3626782046
 40
0.109375
 41
0.0
 71
     1
 72
     1
  1

  7
SLDTEXTSTYLE0
 73
     1
 44
1.0
  0
ENDBLK
  5
37A
330
378
100
AcDbEntity
  8
0
100
AcDbBlockEnd
  0
BLOCK
  5
38D
330
38C
100
AcDbEntity
  8
0
100
AcDbBlockBegin
  2
*D27
 70
     1
 10
0.0
 20
0.0
 30
0.0
  3
*D27
  1

  0
SOLID
  5
38F
330
38C
100
AcDbEntity
  8
0
  6
Continuous
 62
     7
370
     0
100
AcDbTrace
 10
5.0703561495
 20
3.2980184556
 30
0.0
 11
5.0878561495
 21
3.4117684556
 31
0.0
 12
5.0528561495
 22
3.4117684556
 32
0.0
 13
5.0528561495
 23
3.4117684556
 33
0.0
  0
SOLID
  5
390
330
38C
100
AcDbEntity
  8
0
  6
Continuous
 62
     7
370
     0
100
AcDbTrace
 10
5.0703561495
 20
3.2192782981
 30
0.0
 11
5.0528561495
 21
3.1055282981
 31
0.0
 12
5.0878561495
 22
3.1055282981
 32
0.0
 13
5.0878561495
 23
3.1055282981
 33
0.0
  0
LINE
  5
391
330
38C
100
AcDbEntity
  8
0
  6
Continuous
 62
     7
370
     0
100
AcDbLine
 10
5.3639618759
 20
2.9740519565
 30
0.0
 11
5.3417450779
 21
2.9740519565
 31
0.0
  0
LINE
  5
392
330
38C
100
AcDbEntity
  8
0
  6
Continuous
 62
     7
370
     0
100
AcDbLine
 10
5.3417450779
 20
2.9740519565
 30
0.0
 11
5.3417450779
 21
2.8004191388
 31
0.0
  0
LINE
  5
393
330
38C
100
AcDbEntity
  8
0
  6
Continuous
 62
     7
370
     0
100
AcDbLine
 10
5.3417450779
 20
2.8004191388
 30
0.0
 11
5.3639618759
 21
2.8004191388
 31
0.0
  0
LINE
  5
394
330
38C
100
AcDbEntity
  8
0
  6
Continuous
 62
     7
370
     0
100
AcDbLine
 10
5.5003198433
 20
2.9740519565
 30
0.0
 11
5.5225366413
 21
2.9740519565
 31
0.0
  0
LINE
  5
395
330
38C
100
AcDbEntity
  8
0
  6
Continuous
 62
     7
370
     0
100
AcDbLine
 10
5.5225366413
 20
2.9740519565
 30
0.0
 11
5.5225366413
 21
2.8004191388
 31
0.0
  0
LINE
  5
396
330
38C
100
AcDbEntity
  8
0
  6
Continuous
 62
     7
370
     0
100
AcDbLine
 10
5.5225366413
 20
2.8004191388
 30
0.0
 11
5.5003198433
 21
2.8004191388
 31
0.0
  0
LINE
  5
397
330
38C
100
AcDbEntity
  8
0
  6
Continuous
 62
     7
370
     0
100
AcDbLine
 10
5.1797311495
 20
2.974887461
 30
0.0
 11
5.0703561495
 21
2.974887461
 31
0.0
  0
LINE
  5
398
330
38C
100
AcDbEntity
  8
0
  6
Continuous
 62
     7
370
     0
100
AcDbLine
 10
5.0703561495
 20
2.974887461
 30
0.0
 11
5.0703561495
 21
3.2192782981
 31
0.0
  0
LINE
  5
399
330
38C
100
AcDbEntity
  8
0
  6
Continuous
 62
     7
370
     0
100
AcDbLine
 10
5.0703561495
 20
3.2980184556
 30
0.0
 11
5.0703561495
 21
3.5167684556
 31
0.0
  0
MTEXT
  5
39A
330
38C
100
AcDbEntity
  8
0
  6
Continuous
 62
     7
370
     0
100
AcDbMText
 10
5.2872949289
 20
3.1389315535
 30
0.3626782046
 40
0.109375
 41
0.0
 71
     1
 72
     1
  1

  7
SLDTEXTSTYLE0
 73
     1
 44
1.0
  0
MTEXT
  5
39B
330
38C
100
AcDbEntity
  8
0
  6
Continuous
 62
     7
370
     0
100
AcDbMText
 10
5.2866872901
 20
3.1372605385
 30
0.3626782046
 40
0.109375
 41
0.0
 71
     1
 72
     1
  1
.08
  7
SLDTEXTSTYLE0
 73
     1
 44
1.0
  0
MTEXT
  5
39C
330
38C
100
AcDbEntity
  8
0
  6
Continuous
 62
     7
370
     0
100
AcDbMText
 10
5.3917328734
 20
2.9414109168
 30
0.3626782046
 40
0.109375
 41
0.0
 71
     1
 72
     1
  1
2
  7
SLDTEXTSTYLE0
 73
     1
 44
1.0
  0
MTEXT
  5
39D
330
38C
100
AcDbEntity
  8
0
  6
Continuous
 62
     7
370
     0
100
AcDbMText
 10
5.6186100381
 20
3.1389315535
 30
0.3626782046
 40
0.109375
 41
0.0
 71
     1
 72
     1
  1

  7
SLDTEXTSTYLE0
 73
     1
 44
1.0
  0
ENDBLK
  5
38E
330
38C
100
AcDbEntity
  8
0
100
AcDbBlockEnd
  0
BLOCK
  5
402
330
401
100
AcDbEntity
  8
0
100
AcDbBlockBegin
  2
*D28
 70
     1
 10
0.0
 20
0.0
 30
0.0
  3
*D28
  1

  0
SOLID
  5
404
330
401
100
AcDbEntity
  8
0
  6
Continuous
 62
     7
370
     0
100
AcDbTrace
 10
7.5254756509
 20
8.0432775496
 30
0.0
 11
7.6392256509
 21
8.0257775496
 31
0.0
 12
7.6392256509
 22
8.0607775496
 32
0.0
 13
7.6392256509
 23
8.0607775496
 33
0.0
  0
SOLID
  5
405
330
401
100
AcDbEntity
  8
0
  6
Continuous
 62
     7
370
     0
100
AcDbTrace
 10
10.2813811627
 20
8.0432775496
 30
0.0
 11
10.1676311627
 21
8.0607775496
 31
0.0
 12
10.1676311627
 22
8.0257775496
 32
0.0
 13
10.1676311627
 23
8.0257775496
 33
0.0
  0
LINE
  5
406
330
401
100
AcDbEntity
  8
0
  6
Continuous
 62
     7
370
     0
100
AcDbLine
 10
8.7948414409
 20
8.0424420451
 30
0.0
 11
8.7726246429
 21
8.0424420451
 31
0.0
  0
LINE
  5
407
330
401
100
AcDbEntity
  8
0
  6
Continuous
 62
     7
370
     0
100
AcDbLine
 10
8.7726246429
 20
8.0424420451
 30
0.0
 11
8.7726246429
 21
7.8688092274
 31
0.0
  0
LINE
  5
408
330
401
100
AcDbEntity
  8
0
  6
Continuous
 62
     7
370
     0
100
AcDbLine
 10
8.7726246429
 20
7.8688092274
 30
0.0
 11
8.7948414409
 21
7.8688092274
 31
0.0
  0
LINE
  5
409
330
401
100
AcDbEntity
  8
0
  6
Continuous
 62
     7
370
     0
100
AcDbLine
 10
9.0120153807
 20
8.0424420451
 30
0.0
 11
9.0342321787
 21
8.0424420451
 31
0.0
  0
LINE
  5
40A
330
401
100
AcDbEntity
  8
0
  6
Continuous
 62
     7
370
     0
100
AcDbLine
 10
9.0342321787
 20
8.0424420451
 30
0.0
 11
9.0342321787
 21
7.8688092274
 31
0.0
  0
LINE
  5
40B
330
401
100
AcDbEntity
  8
0
  6
Continuous
 62
     7
370
     0
100
AcDbLine
 10
9.0342321787
 20
7.8688092274
 30
0.0
 11
9.0120153807
 21
7.8688092274
 31
0.0
  0
LINE
  5
40C
330
401
100
AcDbEntity
  8
0
  6
Continuous
 62
     7
370
     0
100
AcDbLine
 10
7.5254756509
 20
7.1411864044
 30
0.0
 11
7.5254756509
 21
8.1526525496
 31
0.0
  0
LINE
  5
40D
330
401
100
AcDbEntity
  8
0
  6
Continuous
 62
     7
370
     0
100
AcDbLine
 10
10.2813811627
 20
7.1411864044
 30
0.0
 11
10.2813811627
 21
8.1526525496
 31
0.0
  0
LINE
  5
40E
330
401
100
AcDbEntity
  8
0
  6
Continuous
 62
     7
370
     0
100
AcDbLine
 10
7.5254756509
 20
8.0432775496
 30
0.0
 11
8.6549761667
 21
8.0432775496
 31
0.0
  0
LINE
  5
40F
330
401
100
AcDbEntity
  8
0
  6
Continuous
 62
     7
370
     0
100
AcDbLine
 10
10.2813811627
 20
8.0432775496
 30
0.0
 11
9.1518806469
 21
8.0432775496
 31
0.0
  0
MTEXT
  5
410
330
401
100
AcDbEntity
  8
0
  6
Continuous
 62
     7
370
     0
100
AcDbMText
 10
8.7181745098
 20
8.2073216422
 30
0.5709350868
 40
0.109375
 41
0.0
 71
     1
 72
     1
  1

  7
SLDTEXTSTYLE0
 73
     1
 44
1.0
  0
MTEXT
  5
411
330
401
100
AcDbEntity
  8
0
  6
Continuous
 62
     7
370
     0
100
AcDbMText
 10
8.7175668711
 20
8.2056506271
 30
0.5709350868
 40
0.109375
 41
0.0
 71
     1
 72
     1
  1
2.76
  7
SLDTEXTSTYLE0
 73
     1
 44
1.0
  0
MTEXT
  5
412
330
401
100
AcDbEntity
  8
0
  6
Continuous
 62
     7
370
     0
100
AcDbMText
 10
8.8226124383
 20
8.0098010054
 30
0.5709350868
 40
0.109375
 41
0.0
 71
     1
 72
     1
  1
70
  7
SLDTEXTSTYLE0
 73
     1
 44
1.0
  0
MTEXT
  5
413
330
401
100
AcDbEntity
  8
0
  6
Continuous
 62
     7
370
     0
100
AcDbMText
 10
9.1303055755
 20
8.2073216422
 30
0.5709350868
 40
0.109375
 41
0.0
 71
     1
 72
     1
  1

  7
SLDTEXTSTYLE0
 73
     1
 44
1.0
  0
ENDBLK
  5
403
330
401
100
AcDbEntity
  8
0
100
AcDbBlockEnd
  0
BLOCK
  5
416
330
415
100
AcDbEntity
  8
0
100
AcDbBlockBegin
  2
*D29
 70
     1
 10
0.0
 20
0.0
 30
0.0
  3
*D29
  1

  0
SOLID
  5
418
330
415
100
AcDbEntity
  8
0
  6
Continuous
 62
     7
370
     0
100
AcDbTrace
 10
7.6089948765
 20
7.5919990722
 30
0.0
 11
7.7227448765
 21
7.5744990722
 31
0.0
 12
7.7227448765
 22
7.6094990722
 32
0.0
 13
7.7227448765
 23
7.6094990722
 33
0.0
  0
SOLID
  5
419
330
415
100
AcDbEntity
  8
0
  6
Continuous
 62
     7
370
     0
100
AcDbTrace
 10
10.1978619371
 20
7.5919990722
 30
0.0
 11
10.0841119371
 21
7.6094990722
 31
0.0
 12
10.0841119371
 22
7.5744990722
 32
0.0
 13
10.0841119371
 23
7.5744990722
 33
0.0
  0
LINE
  5
41A
330
415
100
AcDbEntity
  8
0
  6
Continuous
 62
     7
370
     0
100
AcDbLine
 10
8.7342294575
 20
7.5911635677
 30
0.0
 11
8.7120126595
 21
7.5911635677
 31
0.0
  0
LINE
  5
41B
330
415
100
AcDbEntity
  8
0
  6
Continuous
 62
     7
370
     0
100
AcDbLine
 10
8.7120126595
 20
7.5911635677
 30
0.0
 11
8.7120126595
 21
7.41753075
 31
0.0
  0
LINE
  5
41C
330
415
100
AcDbEntity
  8
0
  6
Continuous
 62
     7
370
     0
100
AcDbLine
 10
8.7120126595
 20
7.41753075
 30
0.0
 11
8.7342294575
 21
7.41753075
 31
0.0
  0
LINE
  5
41D
330
415
100
AcDbEntity
  8
0
  6
Continuous
 62
     7
370
     0
100
AcDbLine
 10
9.0726273641
 20
7.5911635677
 30
0.0
 11
9.0948441621
 21
7.5911635677
 31
0.0
  0
LINE
  5
41E
330
415
100
AcDbEntity
  8
0
  6
Continuous
 62
     7
370
     0
100
AcDbLine
 10
9.0948441621
 20
7.5911635677
 30
0.0
 11
9.0948441621
 21
7.41753075
 31
0.0
  0
LINE
  5
41F
330
415
100
AcDbEntity
  8
0
  6
Continuous
 62
     7
370
     0
100
AcDbLine
 10
9.0948441621
 20
7.41753075
 30
0.0
 11
9.0726273641
 21
7.41753075
 31
0.0
  0
LINE
  5
420
330
415
100
AcDbEntity
  8
0
  6
Continuous
 62
     7
370
     0
100
AcDbLine
 10
7.6089948765
 20
7.1364073363
 30
0.0
 11
7.6089948765
 21
7.7013740722
 31
0.0
  0
LINE
  5
421
330
415
100
AcDbEntity
  8
0
  6
Continuous
 62
     7
370
     0
100
AcDbLine
 10
10.1978619371
 20
7.1364073363
 30
0.0
 11
10.1978619371
 21
7.7013740722
 31
0.0
  0
LINE
  5
422
330
415
100
AcDbEntity
  8
0
  6
Continuous
 62
     7
370
     0
100
AcDbLine
 10
7.6089948765
 20
7.5919990722
 30
0.0
 11
8.6327593567
 21
7.5919990722
 31
0.0
  0
LINE
  5
423
330
415
100
AcDbEntity
  8
0
  6
Continuous
 62
     7
370
     0
100
AcDbLine
 10
10.1978619371
 20
7.5919990722
 30
0.0
 11
9.1740974569
 21
7.5919990722
 31
0.0
  0
MTEXT
  5
424
330
415
100
AcDbEntity
  8
0
  6
Continuous
 62
     7
370
     0
100
AcDbMText
 10
8.6959576998
 20
7.7560431647
 30
0.5709350868
 40
0.109375
 41
0.0
 71
     1
 72
     1
  1

  7
SLDTEXTSTYLE0
 73
     1
 44
1.0
  0
MTEXT
  5
425
330
415
100
AcDbEntity
  8
0
  6
Continuous
 62
     7
370
     0
100
AcDbMText
 10
8.7175668711
 20
7.7543721497
 30
0.5709350868
 40
0.109375
 41
0.0
 71
     1
 72
     1
  1
2.59
  7
SLDTEXTSTYLE0
 73
     1
 44
1.0
  0
MTEXT
  5
426
330
415
100
AcDbEntity
  8
0
  6
Continuous
 62
     7
370
     0
100
AcDbMText
 10
8.762000455
 20
7.558522528
 30
0.5709350868
 40
0.109375
 41
0.0
 71
     1
 72
     1
  1
65.8
  7
SLDTEXTSTYLE0
 73
     1
 44
1.0
  0
MTEXT
  5
427
330
415
100
AcDbEntity
  8
0
  6
Continuous
 62
     7
370
     0
100
AcDbMText
 10
9.1525223855
 20
7.7560431647
 30
0.5709350868
 40
0.109375
 41
0.0
 71
     1
 72
     1
  1

  7
SLDTEXTSTYLE0
 73
     1
 44
1.0
  0
ENDBLK
  5
417
330
415
100
AcDbEntity
  8
0
100
AcDbBlockEnd
  0
BLOCK
  5
42A
330
429
100
AcDbEntity
  8
0
100
AcDbBlockBegin
  2
*D30
 70
     1
 10
0.0
 20
0.0
 30
0.0
  3
*D30
  1

  0
SOLID
  5
42C
330
429
100
AcDbEntity
  8
0
  6
Continuous
 62
     7
370
     0
100
AcDbTrace
 10
11.0820469451
 20
7.1761765619
 30
0.0
 11
11.0645469451
 21
7.0624265619
 31
0.0
 12
11.0995469451
 22
7.0624265619
 32
0.0
 13
11.0995469451
 23
7.0624265619
 33
0.0
  0
SOLID
  5
42D
330
429
100
AcDbEntity
  8
0
  6
Continuous
 62
     7
370
     0
100
AcDbTrace
 10
11.0820469451
 20
5.1919245934
 30
0.0
 11
11.0995469451
 21
5.3056745934
 31
0.0
 12
11.0645469451
 22
5.3056745934
 32
0.0
 13
11.0645469451
 23
5.3056745934
 33
0.0
  0
LINE
  5
42E
330
429
100
AcDbEntity
  8
0
  6
Continuous
 62
     7
370
     0
100
AcDbLine
 10
10.9128479958
 20
6.1832150732
 30
0.0
 11
10.8906311978
 21
6.1832150732
 31
0.0
  0
LINE
  5
42F
330
429
100
AcDbEntity
  8
0
  6
Continuous
 62
     7
370
     0
100
AcDbLine
 10
10.8906311978
 20
6.1832150732
 30
0.0
 11
10.8906311978
 21
6.0095822554
 31
0.0
  0
LINE
  5
430
330
429
100
AcDbEntity
  8
0
  6
Continuous
 62
     7
370
     0
100
AcDbLine
 10
10.8906311978
 20
6.0095822554
 30
0.0
 11
10.9128479958
 21
6.0095822554
 31
0.0
  0
LINE
  5
431
330
429
100
AcDbEntity
  8
0
  6
Continuous
 62
     7
370
     0
100
AcDbLine
 10
11.2512459024
 20
6.1832150732
 30
0.0
 11
11.2734627004
 21
6.1832150732
 31
0.0
  0
LINE
  5
432
330
429
100
AcDbEntity
  8
0
  6
Continuous
 62
     7
370
     0
100
AcDbLine
 10
11.2734627004
 20
6.1832150732
 30
0.0
 11
11.2734627004
 21
6.0095822554
 31
0.0
  0
LINE
  5
433
330
429
100
AcDbEntity
  8
0
  6
Continuous
 62
     7
370
     0
100
AcDbLine
 10
11.2734627004
 20
6.0095822554
 30
0.0
 11
11.2512459024
 21
6.0095822554
 31
0.0
  0
LINE
  5
434
330
429
100
AcDbEntity
  8
0
  6
Continuous
 62
     7
370
     0
100
AcDbLine
 10
10.2463910052
 20
7.1761765619
 30
0.0
 11
11.1914219451
 21
7.1761765619
 31
0.0
  0
LINE
  5
435
330
429
100
AcDbEntity
  8
0
  6
Continuous
 62
     7
370
     0
100
AcDbLine
 10
10.2463910052
 20
5.1919245934
 30
0.0
 11
11.1914219451
 21
5.1919245934
 31
0.0
  0
LINE
  5
436
330
429
100
AcDbEntity
  8
0
  6
Continuous
 62
     7
370
     0
100
AcDbLine
 10
11.0820469451
 20
7.1761765619
 30
0.0
 11
11.0820469451
 21
6.3807357099
 31
0.0
  0
LINE
  5
437
330
429
100
AcDbEntity
  8
0
  6
Continuous
 62
     7
370
     0
100
AcDbLine
 10
11.0820469451
 20
5.1919245934
 30
0.0
 11
11.0820469451
 21
5.9873654454
 31
0.0
  0
MTEXT
  5
438
330
429
100
AcDbEntity
  8
0
  6
Continuous
 62
     7
370
     0
100
AcDbMText
 10
10.8745762381
 20
6.3480946702
 30
0.5709350868
 40
0.109375
 41
0.0
 71
     1
 72
     1
  1

  7
SLDTEXTSTYLE0
 73
     1
 44
1.0
  0
MTEXT
  5
439
330
429
100
AcDbEntity
  8
0
  6
Continuous
 62
     7
370
     0
100
AcDbMText
 10
10.8961854094
 20
6.3464236552
 30
0.5709350868
 40
0.109375
 41
0.0
 71
     1
 72
     1
  1
1.98
  7
SLDTEXTSTYLE0
 73
     1
 44
1.0
  0
MTEXT
  5
43A
330
429
100
AcDbEntity
  8
0
  6
Continuous
 62
     7
370
     0
100
AcDbMText
 10
10.9406189933
 20
6.1505740335
 30
0.5709350868
 40
0.109375
 41
0.0
 71
     1
 72
     1
  1
50.4
  7
SLDTEXTSTYLE0
 73
     1
 44
1.0
  0
MTEXT
  5
43B
330
429
100
AcDbEntity
  8
0
  6
Continuous
 62
     7
370
     0
100
AcDbMText
 10
11.3311409239
 20
6.3480946702
 30
0.5709350868
 40
0.109375
 41
0.0
 71
     1
 72
     1
  1

  7
SLDTEXTSTYLE0
 73
     1
 44
1.0
  0
ENDBLK
  5
42B
330
429
100
AcDbEntity
  8
0
100
AcDbBlockEnd
  0
BLOCK
  5
43E
330
43D
100
AcDbEntity
  8
0
100
AcDbBlockBegin
  2
*D31
 70
     1
 10
0.0
 20
0.0
 30
0.0
  3
*D31
  1

  0
SOLID
  5
440
330
43D
100
AcDbEntity
  8
0
  6
Continuous
 62
     7
370
     0
100
AcDbTrace
 10
10.5912874879
 20
7.0926573363
 30
0.0
 11
10.5737874879
 21
6.9789073363
 31
0.0
 12
10.6087874879
 22
6.9789073363
 32
0.0
 13
10.6087874879
 23
6.9789073363
 33
0.0
  0
SOLID
  5
441
330
43D
100
AcDbEntity
  8
0
  6
Continuous
 62
     7
370
     0
100
AcDbTrace
 10
10.5912874879
 20
5.2754438191
 30
0.0
 11
10.6087874879
 21
5.3891938191
 31
0.0
 12
10.5737874879
 22
5.3891938191
 32
0.0
 13
10.5737874879
 23
5.3891938191
 33
0.0
  0
LINE
  5
442
330
43D
100
AcDbEntity
  8
0
  6
Continuous
 62
     7
370
     0
100
AcDbLine
 10
10.4220885387
 20
6.1832150732
 30
0.0
 11
10.3998717407
 21
6.1832150732
 31
0.0
  0
LINE
  5
443
330
43D
100
AcDbEntity
  8
0
  6
Continuous
 62
     7
370
     0
100
AcDbLine
 10
10.3998717407
 20
6.1832150732
 30
0.0
 11
10.3998717407
 21
6.0095822554
 31
0.0
  0
LINE
  5
444
330
43D
100
AcDbEntity
  8
0
  6
Continuous
 62
     7
370
     0
100
AcDbLine
 10
10.3998717407
 20
6.0095822554
 30
0.0
 11
10.4220885387
 21
6.0095822554
 31
0.0
  0
LINE
  5
445
330
43D
100
AcDbEntity
  8
0
  6
Continuous
 62
     7
370
     0
100
AcDbLine
 10
10.7604864452
 20
6.1832150732
 30
0.0
 11
10.7827032432
 21
6.1832150732
 31
0.0
  0
LINE
  5
446
330
43D
100
AcDbEntity
  8
0
  6
Continuous
 62
     7
370
     0
100
AcDbLine
 10
10.7827032432
 20
6.1832150732
 30
0.0
 11
10.7827032432
 21
6.0095822554
 31
0.0
  0
LINE
  5
447
330
43D
100
AcDbEntity
  8
0
  6
Continuous
 62
     7
370
     0
100
AcDbLine
 10
10.7827032432
 20
6.0095822554
 30
0.0
 11
10.7604864452
 21
6.0095822554
 31
0.0
  0
LINE
  5
448
330
43D
100
AcDbEntity
  8
0
  6
Continuous
 62
     7
370
     0
100
AcDbLine
 10
10.2416119371
 20
7.0926573363
 30
0.0
 11
10.7006624879
 21
7.0926573363
 31
0.0
  0
LINE
  5
449
330
43D
100
AcDbEntity
  8
0
  6
Continuous
 62
     7
370
     0
100
AcDbLine
 10
10.2416119371
 20
5.2754438191
 30
0.0
 11
10.7006624879
 21
5.2754438191
 31
0.0
  0
LINE
  5
44A
330
43D
100
AcDbEntity
  8
0
  6
Continuous
 62
     7
370
     0
100
AcDbLine
 10
10.5912874879
 20
7.0926573363
 30
0.0
 11
10.5912874879
 21
6.3807357099
 31
0.0
  0
LINE
  5
44B
330
43D
100
AcDbEntity
  8
0
  6
Continuous
 62
     7
370
     0
100
AcDbLine
 10
10.5912874879
 20
5.2754438191
 30
0.0
 11
10.5912874879
 21
5.9873654454
 31
0.0
  0
MTEXT
  5
44C
330
43D
100
AcDbEntity
  8
0
  6
Continuous
 62
     7
370
     0
100
AcDbMText
 10
10.383816781
 20
6.3480946702
 30
0.5709350868
 40
0.109375
 41
0.0
 71
     1
 72
     1
  1

  7
SLDTEXTSTYLE0
 73
     1
 44
1.0
  0
MTEXT
  5
44D
330
43D
100
AcDbEntity
  8
0
  6
Continuous
 62
     7
370
     0
100
AcDbMText
 10
10.4054259522
 20
6.3464236552
 30
0.5709350868
 40
0.109375
 41
0.0
 71
     1
 72
     1
  1
1.82
  7
SLDTEXTSTYLE0
 73
     1
 44
1.0
  0
MTEXT
  5
44E
330
43D
100
AcDbEntity
  8
0
  6
Continuous
 62
     7
370
     0
100
AcDbMText
 10
10.4498595361
 20
6.1505740335
 30
0.5709350868
 40
0.109375
 41
0.0
 71
     1
 72
     1
  1
46.2
  7
SLDTEXTSTYLE0
 73
     1
 44
1.0
  0
MTEXT
  5
44F
330
43D
100
AcDbEntity
  8
0
  6
Continuous
 62
     7
370
     0
100
AcDbMText
 10
10.8403814667
 20
6.3480946702
 30
0.5709350868
 40
0.109375
 41
0.0
 71
     1
 72
     1
  1

  7
SLDTEXTSTYLE0
 73
     1
 44
1.0
  0
ENDBLK
  5
43F
330
43D
100
AcDbEntity
  8
0
100
AcDbBlockEnd
  0
BLOCK
  5
477
330
476
100
AcDbEntity
  8
0
100
AcDbBlockBegin
  2
*D32
 70
     1
 10
0.0
 20
0.0
 30
0.0
  3
*D32
  1

  0
ARC
  5
479
330
476
100
AcDbEntity
  8
0
  6
Continuous
 62
     7
370
     0
100
AcDbCircle
 10
12.4205188429
 20
7.0534546668
 30
0.0
 40
0.988735388241157
100
AcDbArc
 50
164.3898474484
 51
177.0
  0
ARC
  5
47A
330
476
100
AcDbEntity
  8
0
  6
Continuous
 62
     7
370
     0
100
AcDbCircle
 10
12.4205188429
 20
7.0534546668
 30
0.0
 40
0.9887353882411558
100
AcDbArc
 50
180.0
 51
190.7764239745
  0
SOLID
  5
47B
330
476
100
AcDbEntity
  8
0
  6
Continuous
 62
     7
370
     0
100
AcDbTrace
 10
11.4331384821
 20
7.1052010788
 30
0.0
 11
11.4629789896
 21
7.2163534814
 31
0.0
 12
11.428189111
 22
7.220182887
 32
0.0
 13
11.428189111
 23
7.220182887
 33
0.0
  0
SOLID
  5
47C
330
476
100
AcDbEntity
  8
0
  6
Continuous
 62
     7
370
     0
100
AcDbTrace
 10
11.4317834546
 20
7.0534546668
 30
0.0
 11
11.4208231835
 21
6.9388894672
 31
0.0
 12
11.4557657994
 22
6.9408928631
 32
0.0
 13
11.4557657994
 23
6.9408928631
 33
0.0
  0
LINE
  5
47D
330
476
100
AcDbEntity
  8
0
  6
Continuous
 62
     7
370
     0
100
AcDbLine
 10
11.1576583045
 20
6.780931866
 30
0.0
 11
11.1354415065
 21
6.780931866
 31
0.0
  0
LINE
  5
47E
330
476
100
AcDbEntity
  8
0
  6
Continuous
 62
     7
370
     0
100
AcDbLine
 10
11.1354415065
 20
6.780931866
 30
0.0
 11
11.1576583045
 21
6.780931866
 31
0.0
  0
LINE
  5
47F
330
476
100
AcDbEntity
  8
0
  6
Continuous
 62
     7
370
     0
100
AcDbLine
 10
11.2132002995
 20
6.780931866
 30
0.0
 11
11.2354170975
 21
6.780931866
 31
0.0
  0
LINE
  5
480
330
476
100
AcDbEntity
  8
0
  6
Continuous
 62
     7
370
     0
100
AcDbLine
 10
11.2354170975
 20
6.780931866
 30
0.0
 11
11.2132002995
 21
6.780931866
 31
0.0
  0
LINE
  5
481
330
476
100
AcDbEntity
  8
0
  6
Continuous
 62
     7
370
     0
100
AcDbLine
 10
11.5618681708
 20
7.0984546417
 30
0.0
 11
11.3239133768
 21
7.110925324
 31
0.0
  0
LINE
  5
482
330
476
100
AcDbEntity
  8
0
  6
Continuous
 62
     7
370
     0
100
AcDbLine
 10
12.1723943719
 20
7.0534546668
 30
0.0
 11
11.3224084546
 21
7.0534546668
 31
0.0
  0
LINE
  5
483
330
476
100
AcDbEntity
  8
0
  6
Continuous
 62
     7
370
     0
100
AcDbLine
 10
11.4492205239
 20
6.8685837834
 30
0.0
 11
11.3398455239
 21
6.8685837834
 31
0.0
  0
MTEXT
  5
484
330
476
100
AcDbEntity
  8
0
  6
Continuous
 62
     7
370
     0
100
AcDbMText
 10
11.0720286891
 20
6.9458114591
 30
0.0039370079
 40
0.109375
 41
0.0
 71
     1
 72
     1
  1

  7
SLDTEXTSTYLE0
 73
     1
 44
1.0
  0
MTEXT
  5
485
330
476
100
AcDbEntity
  8
0
  6
Continuous
 62
     7
370
     0
100
AcDbMText
 10
11.0714210503
 20
6.944140452
 30
0.0039370079
 40
0.109375
 41
0.0
 71
     1
 72
     1
  1
3°
  7
SLDTEXTSTYLE0
 73
     1
 44
1.0
  0
MTEXT
  5
486
330
476
100
AcDbEntity
  8
0
  6
Continuous
 62
     7
370
     0
100
AcDbMText
 10
11.3404531707
 20
6.9458114591
 30
0.0039370079
 40
0.109375
 41
0.0
 71
     1
 72
     1
  1

  7
SLDTEXTSTYLE0
 73
     1
 44
1.0
  0
ENDBLK
  5
478
330
476
100
AcDbEntity
  8
0
100
AcDbBlockEnd
  0
BLOCK
  5
489
330
488
100
AcDbEntity
  8
0
100
AcDbBlockBegin
  2
*D33
 70
     1
 10
0.0
 20
0.0
 30
0.0
  3
*D33
  1

  0
SOLID
  5
48B
330
488
100
AcDbEntity
  8
0
  6
Continuous
 62
     7
370
     0
100
AcDbTrace
 10
11.7315424649
 20
7.4463384814
 30
0.0
 11
11.8452924649
 21
7.4288384814
 31
0.0
 12
11.8452924649
 22
7.4638384814
 32
0.0
 13
11.8452924649
 23
7.4638384814
 33
0.0
  0
SOLID
  5
48C
330
488
100
AcDbEntity
  8
0
  6
Continuous
 62
     7
370
     0
100
AcDbTrace
 10
12.4992590004
 20
7.4463384814
 30
0.0
 11
12.3855090004
 21
7.4638384814
 31
0.0
 12
12.3855090004
 22
7.4288384814
 32
0.0
 13
12.3855090004
 23
7.4288384814
 33
0.0
  0
LINE
  5
48D
330
488
100
AcDbEntity
  8
0
  6
Continuous
 62
     7
370
     0
100
AcDbLine
 10
11.9462017834
 20
7.4455029769
 30
0.0
 11
11.9239849854
 21
7.4455029769
 31
0.0
  0
LINE
  5
48E
330
488
100
AcDbEntity
  8
0
  6
Continuous
 62
     7
370
     0
100
AcDbLine
 10
11.9239849854
 20
7.4455029769
 30
0.0
 11
11.9239849854
 21
7.2718701591
 31
0.0
  0
LINE
  5
48F
330
488
100
AcDbEntity
  8
0
  6
Continuous
 62
     7
370
     0
100
AcDbLine
 10
11.9239849854
 20
7.2718701591
 30
0.0
 11
11.9462017834
 21
7.2718701591
 31
0.0
  0
LINE
  5
490
330
488
100
AcDbEntity
  8
0
  6
Continuous
 62
     7
370
     0
100
AcDbLine
 10
12.2845996899
 20
7.4455029769
 30
0.0
 11
12.3068164879
 21
7.4455029769
 31
0.0
  0
LINE
  5
491
330
488
100
AcDbEntity
  8
0
  6
Continuous
 62
     7
370
     0
100
AcDbLine
 10
12.3068164879
 20
7.4455029769
 30
0.0
 11
12.3068164879
 21
7.2718701591
 31
0.0
  0
LINE
  5
492
330
488
100
AcDbEntity
  8
0
  6
Continuous
 62
     7
370
     0
100
AcDbLine
 10
12.3068164879
 20
7.2718701591
 30
0.0
 11
12.2845996899
 21
7.2718701591
 31
0.0
  0
LINE
  5
493
330
488
100
AcDbEntity
  8
0
  6
Continuous
 62
     7
370
     0
100
AcDbLine
 10
11.7315424649
 20
7.2199265619
 30
0.0
 11
11.7315424649
 21
7.5557134814
 31
0.0
  0
LINE
  5
494
330
488
100
AcDbEntity
  8
0
  6
Continuous
 62
     7
370
     0
100
AcDbLine
 10
12.4992590004
 20
7.1423314335
 30
0.0
 11
12.4992590004
 21
7.5557134814
 31
0.0
  0
LINE
  5
495
330
488
100
AcDbEntity
  8
0
  6
Continuous
 62
     7
370
     0
100
AcDbLine
 10
11.7315424649
 20
7.4463384814
 30
0.0
 11
11.8447316826
 21
7.4463384814
 31
0.0
  0
LINE
  5
496
330
488
100
AcDbEntity
  8
0
  6
Continuous
 62
     7
370
     0
100
AcDbLine
 10
12.4992590004
 20
7.4463384814
 30
0.0
 11
12.3860697827
 21
7.4463384814
 31
0.0
  0
MTEXT
  5
497
330
488
100
AcDbEntity
  8
0
  6
Continuous
 62
     7
370
     0
100
AcDbMText
 10
11.9079300257
 20
7.6103825739
 30
0.4960645291
 40
0.109375
 41
0.0
 71
     1
 72
     1
  1

  7
SLDTEXTSTYLE0
 73
     1
 44
1.0
  0
MTEXT
  5
498
330
488
100
AcDbEntity
  8
0
  6
Continuous
 62
     7
370
     0
100
AcDbMText
 10
11.9699471751
 20
7.6087115589
 30
0.4960645291
 40
0.109375
 41
0.0
 71
     1
 72
     1
  1
.77
  7
SLDTEXTSTYLE0
 73
     1
 44
1.0
  0
MTEXT
  5
499
330
488
100
AcDbEntity
  8
0
  6
Continuous
 62
     7
370
     0
100
AcDbMText
 10
11.9739727809
 20
7.4128619372
 30
0.4960645291
 40
0.109375
 41
0.0
 71
     1
 72
     1
  1
19.5
  7
SLDTEXTSTYLE0
 73
     1
 44
1.0
  0
MTEXT
  5
49A
330
488
100
AcDbEntity
  8
0
  6
Continuous
 62
     7
370
     0
100
AcDbMText
 10
12.3644947114
 20
7.6103825739
 30
0.4960645291
 40
0.109375
 41
0.0
 71
     1
 72
     1
  1

  7
SLDTEXTSTYLE0
 73
     1
 44
1.0
  0
ENDBLK
  5
48A
330
488
100
AcDbEntity
  8
0
100
AcDbBlockEnd
  0
BLOCK
  5
49D
330
49C
100
AcDbEntity
  8
0
100
AcDbBlockBegin
  2
*D34
 70
     1
 10
0.0
 20
0.0
 30
0.0
  3
*D34
  1

  0
SOLID
  5
49F
330
49C
100
AcDbEntity
  8
0
  6
Continuous
 62
     7
370
     0
100
AcDbTrace
 10
12.4205188429
 20
6.8685837834
 30
0.0
 11
12.3067688429
 21
6.8860837834
 31
0.0
 12
12.3067688429
 22
6.8510837834
 32
0.0
 13
12.3067688429
 23
6.8510837834
 33
0.0
  0
SOLID
  5
4A0
330
49C
100
AcDbEntity
  8
0
  6
Continuous
 62
     7
370
     0
100
AcDbTrace
 10
12.4992590004
 20
6.8685837834
 30
0.0
 11
12.6130090004
 21
6.8510837834
 31
0.0
 12
12.6130090004
 22
6.8860837834
 32
0.0
 13
12.6130090004
 23
6.8860837834
 33
0.0
  0
LINE
  5
4A1
330
49C
100
AcDbEntity
  8
0
  6
Continuous
 62
     7
370
     0
100
AcDbLine
 10
12.840452654
 20
6.8677482789
 30
0.0
 11
12.818235856
 21
6.8677482789
 31
0.0
  0
LINE
  5
4A2
330
49C
100
AcDbEntity
  8
0
  6
Continuous
 62
     7
370
     0
100
AcDbLine
 10
12.818235856
 20
6.8677482789
 30
0.0
 11
12.818235856
 21
6.6941154612
 31
0.0
  0
LINE
  5
4A3
330
49C
100
AcDbEntity
  8
0
  6
Continuous
 62
     7
370
     0
100
AcDbLine
 10
12.818235856
 20
6.6941154612
 30
0.0
 11
12.840452654
 21
6.6941154612
 31
0.0
  0
LINE
  5
4A4
330
49C
100
AcDbEntity
  8
0
  6
Continuous
 62
     7
370
     0
100
AcDbLine
 10
12.9768106214
 20
6.8677482789
 30
0.0
 11
12.9990274194
 21
6.8677482789
 31
0.0
  0
LINE
  5
4A5
330
49C
100
AcDbEntity
  8
0
  6
Continuous
 62
     7
370
     0
100
AcDbLine
 10
12.9990274194
 20
6.8677482789
 30
0.0
 11
12.9990274194
 21
6.6941154612
 31
0.0
  0
LINE
  5
4A6
330
49C
100
AcDbEntity
  8
0
  6
Continuous
 62
     7
370
     0
100
AcDbLine
 10
12.9990274194
 20
6.6941154612
 30
0.0
 11
12.9768106214
 21
6.6941154612
 31
0.0
  0
LINE
  5
4A7
330
49C
100
AcDbEntity
  8
0
  6
Continuous
 62
     7
370
     0
100
AcDbLine
 10
12.4205188429
 20
6.8685837834
 30
0.0
 11
12.2017688429
 21
6.8685837834
 31
0.0
  0
LINE
  5
4A8
330
49C
100
AcDbEntity
  8
0
  6
Continuous
 62
     7
370
     0
100
AcDbLine
 10
12.4992590004
 20
6.8685837834
 30
0.0
 11
12.7005873638
 21
6.8685837834
 31
0.0
  0
MTEXT
  5
4A9
330
49C
100
AcDbEntity
  8
0
  6
Continuous
 62
     7
370
     0
100
AcDbMText
 10
12.7637857069
 20
7.0326278759
 30
0.4960645291
 40
0.109375
 41
0.0
 71
     1
 72
     1
  1

  7
SLDTEXTSTYLE0
 73
     1
 44
1.0
  0
MTEXT
  5
4AA
330
49C
100
AcDbEntity
  8
0
  6
Continuous
 62
     7
370
     0
100
AcDbMText
 10
12.7631780681
 20
7.0309568609
 30
0.4960645291
 40
0.109375
 41
0.0
 71
     1
 72
     1
  1
.08
  7
SLDTEXTSTYLE0
 73
     1
 44
1.0
  0
MTEXT
  5
4AB
330
49C
100
AcDbEntity
  8
0
  6
Continuous
 62
     7
370
     0
100
AcDbMText
 10
12.8682236514
 20
6.8351072392
 30
0.4960645291
 40
0.109375
 41
0.0
 71
     1
 72
     1
  1
2
  7
SLDTEXTSTYLE0
 73
     1
 44
1.0
  0
MTEXT
  5
4AC
330
49C
100
AcDbEntity
  8
0
  6
Continuous
 62
     7
370
     0
100
AcDbMText
 10
13.0951008162
 20
7.0326278759
 30
0.4960645291
 40
0.109375
 41
0.0
 71
     1
 72
     1
  1

  7
SLDTEXTSTYLE0
 73
     1
 44
1.0
  0
ENDBLK
  5
49E
330
49C
100
AcDbEntity
  8
0
100
AcDbBlockEnd
  0
BLOCK
  5
4E1
330
4E0
100
AcDbEntity
  8
0
100
AcDbBlockBegin
  2
*D35
 70
     1
 10
0.0
 20
0.0
 30
0.0
  3
*D35
  1

  0
SOLID
  5
4E3
330
4E0
100
AcDbEntity
  8
0
  6
Continuous
 62
     7
370
     0
100
AcDbTrace
 10
13.0912867984
 20
5.7116096328
 30
0.0
 11
13.1087867984
 21
5.8253596328
 31
0.0
 12
13.0737867984
 22
5.8253596328
 32
0.0
 13
13.0737867984
 23
5.8253596328
 33
0.0
  0
SOLID
  5
4E4
330
4E0
100
AcDbEntity
  8
0
  6
Continuous
 62
     7
370
     0
100
AcDbTrace
 10
13.0912867984
 20
6.6564915226
 30
0.0
 11
13.0737867984
 21
6.5427415226
 31
0.0
 12
13.1087867984
 22
6.5427415226
 32
0.0
 13
13.1087867984
 23
6.5427415226
 33
0.0
  0
LINE
  5
4E5
330
4E0
100
AcDbEntity
  8
0
  6
Continuous
 62
     7
370
     0
100
AcDbLine
 10
12.9826998325
 20
6.1832150732
 30
0.0
 11
12.9604830345
 21
6.1832150732
 31
0.0
  0
LINE
  5
4E6
330
4E0
100
AcDbEntity
  8
0
  6
Continuous
 62
     7
370
     0
100
AcDbLine
 10
12.9604830345
 20
6.1832150732
 30
0.0
 11
12.9604830345
 21
6.0095822554
 31
0.0
  0
LINE
  5
4E7
330
4E0
100
AcDbEntity
  8
0
  6
Continuous
 62
     7
370
     0
100
AcDbLine
 10
12.9604830345
 20
6.0095822554
 30
0.0
 11
12.9826998325
 21
6.0095822554
 31
0.0
  0
LINE
  5
4E8
330
4E0
100
AcDbEntity
  8
0
  6
Continuous
 62
     7
370
     0
100
AcDbLine
 10
13.1998737723
 20
6.1832150732
 30
0.0
 11
13.2220905703
 21
6.1832150732
 31
0.0
  0
LINE
  5
4E9
330
4E0
100
AcDbEntity
  8
0
  6
Continuous
 62
     7
370
     0
100
AcDbLine
 10
13.2220905703
 20
6.1832150732
 30
0.0
 11
13.2220905703
 21
6.0095822554
 31
0.0
  0
LINE
  5
4EA
330
4E0
100
AcDbEntity
  8
0
  6
Continuous
 62
     7
370
     0
100
AcDbLine
 10
13.2220905703
 20
6.0095822554
 30
0.0
 11
13.1998737723
 21
6.0095822554
 31
0.0
  0
LINE
  5
4EB
330
4E0
100
AcDbEntity
  8
0
  6
Continuous
 62
     7
370
     0
100
AcDbLine
 10
13.2926993621
 20
5.7116096328
 30
0.0
 11
12.9819117984
 21
5.7116096328
 31
0.0
  0
LINE
  5
4EC
330
4E0
100
AcDbEntity
  8
0
  6
Continuous
 62
     7
370
     0
100
AcDbLine
 10
13.2926993621
 20
6.6564915226
 30
0.0
 11
12.9819117984
 21
6.6564915226
 31
0.0
  0
LINE
  5
4ED
330
4E0
100
AcDbEntity
  8
0
  6
Continuous
 62
     7
370
     0
100
AcDbLine
 10
13.0912867984
 20
5.7116096328
 30
0.0
 11
13.0912867984
 21
5.9873654454
 31
0.0
  0
LINE
  5
4EE
330
4E0
100
AcDbEntity
  8
0
  6
Continuous
 62
     7
370
     0
100
AcDbLine
 10
13.0912867984
 20
6.6564915226
 30
0.0
 11
13.0912867984
 21
6.3807357099
 31
0.0
  0
MTEXT
  5
4EF
330
4E0
100
AcDbEntity
  8
0
  6
Continuous
 62
     7
370
     0
100
AcDbMText
 10
12.9444280748
 20
6.3480946702
 30
0.0039370079
 40
0.109375
 41
0.0
 71
     1
 72
     1
  1

  7
SLDTEXTSTYLE0
 73
     1
 44
1.0
  0
MTEXT
  5
4F0
330
4E0
100
AcDbEntity
  8
0
  6
Continuous
 62
     7
370
     0
100
AcDbMText
 10
12.9458332409
 20
6.3464236552
 30
0.0039370079
 40
0.109375
 41
0.0
 71
     1
 72
     1
  1
.94
  7
SLDTEXTSTYLE0
 73
     1
 44
1.0
  0
MTEXT
  5
4F1
330
4E0
100
AcDbEntity
  8
0
  6
Continuous
 62
     7
370
     0
100
AcDbMText
 10
13.01047083
 20
6.1505740335
 30
0.0039370079
 40
0.109375
 41
0.0
 71
     1
 72
     1
  1
24
  7
SLDTEXTSTYLE0
 73
     1
 44
1.0
  0
MTEXT
  5
4F2
330
4E0
100
AcDbEntity
  8
0
  6
Continuous
 62
     7
370
     0
100
AcDbMText
 10
13.2797687938
 20
6.3480946702
 30
0.0039370079
 40
0.109375
 41
0.0
 71
     1
 72
     1
  1

  7
SLDTEXTSTYLE0
 73
     1
 44
1.0
  0
ENDBLK
  5
4E2
330
4E0
100
AcDbEntity
  8
0
100
AcDbBlockEnd
  0
BLOCK
  5
4F5
330
4F4
100
AcDbEntity
  8
0
100
AcDbBlockBegin
  2
*D36
 70
     1
 10
0.0
 20
0.0
 30
0.0
  3
*D36
  1

  0
SOLID
  5
4F7
330
4F4
100
AcDbEntity
  8
0
  6
Continuous
 62
     7
370
     0
100
AcDbTrace
 10
13.3708360578
 20
5.5934993966
 30
0.0
 11
13.3533360578
 21
5.4797493966
 31
0.0
 12
13.3883360578
 22
5.4797493966
 32
0.0
 13
13.3883360578
 23
5.4797493966
 33
0.0
  0
SOLID
  5
4F8
330
4F4
100
AcDbEntity
  8
0
  6
Continuous
 62
     7
370
     0
100
AcDbTrace
 10
13.3708360578
 20
5.829719869
 30
0.0
 11
13.3883360578
 21
5.943469869
 31
0.0
 12
13.3533360578
 22
5.943469869
 32
0.0
 13
13.3533360578
 23
5.943469869
 33
0.0
  0
LINE
  5
4F9
330
4F4
100
AcDbEntity
  8
0
  6
Continuous
 62
     7
370
     0
100
AcDbLine
 10
12.940872388
 20
5.3743324746
 30
0.0
 11
12.91865559
 21
5.3743324746
 31
0.0
  0
LINE
  5
4FA
330
4F4
100
AcDbEntity
  8
0
  6
Continuous
 62
     7
370
     0
100
AcDbLine
 10
12.91865559
 20
5.3743324746
 30
0.0
 11
12.91865559
 21
5.2006996569
 31
0.0
  0
LINE
  5
4FB
330
4F4
100
AcDbEntity
  8
0
  6
Continuous
 62
     7
370
     0
100
AcDbLine
 10
12.91865559
 20
5.2006996569
 30
0.0
 11
12.940872388
 21
5.2006996569
 31
0.0
  0
LINE
  5
4FC
330
4F4
100
AcDbEntity
  8
0
  6
Continuous
 62
     7
370
     0
100
AcDbLine
 10
13.0772303554
 20
5.3743324746
 30
0.0
 11
13.0994471534
 21
5.3743324746
 31
0.0
  0
LINE
  5
4FD
330
4F4
100
AcDbEntity
  8
0
  6
Continuous
 62
     7
370
     0
100
AcDbLine
 10
13.0994471534
 20
5.3743324746
 30
0.0
 11
13.0994471534
 21
5.2006996569
 31
0.0
  0
LINE
  5
4FE
330
4F4
100
AcDbEntity
  8
0
  6
Continuous
 62
     7
370
     0
100
AcDbLine
 10
13.0994471534
 20
5.2006996569
 30
0.0
 11
13.0772303554
 21
5.2006996569
 31
0.0
  0
LINE
  5
4FF
330
4F4
100
AcDbEntity
  8
0
  6
Continuous
 62
     7
370
     0
100
AcDbLine
 10
13.5114493621
 20
5.5934993966
 30
0.0
 11
13.2614610578
 21
5.5934993966
 31
0.0
  0
LINE
  5
500
330
4F4
100
AcDbEntity
  8
0
  6
Continuous
 62
     7
370
     0
100
AcDbLine
 10
13.5114493621
 20
5.829719869
 30
0.0
 11
13.2614610578
 21
5.829719869
 31
0.0
  0
LINE
  5
501
330
4F4
100
AcDbEntity
  8
0
  6
Continuous
 62
     7
370
     0
100
AcDbLine
 10
13.2614610578
 20
5.3751679791
 30
0.0
 11
13.3708360578
 21
5.3751679791
 31
0.0
  0
LINE
  5
502
330
4F4
100
AcDbEntity
  8
0
  6
Continuous
 62
     7
370
     0
100
AcDbLine
 10
13.3708360578
 20
5.3751679791
 30
0.0
 11
13.3708360578
 21
5.5934993966
 31
0.0
  0
LINE
  5
503
330
4F4
100
AcDbEntity
  8
0
  6
Continuous
 62
     7
370
     0
100
AcDbLine
 10
13.3708360578
 20
5.829719869
 30
0.0
 11
13.3708360578
 21
6.048469869
 31
0.0
  0
MTEXT
  5
504
330
4F4
100
AcDbEntity
  8
0
  6
Continuous
 62
     7
370
     0
100
AcDbMText
 10
12.8642054409
 20
5.5392120717
 30
0.0039370079
 40
0.109375
 41
0.0
 71
     1
 72
     1
  1

  7
SLDTEXTSTYLE0
 73
     1
 44
1.0
  0
MTEXT
  5
505
330
4F4
100
AcDbEntity
  8
0
  6
Continuous
 62
     7
370
     0
100
AcDbMText
 10
12.8635978021
 20
5.5375410566
 30
0.0039370079
 40
0.109375
 41
0.0
 71
     1
 72
     1
  1
.24
  7
SLDTEXTSTYLE0
 73
     1
 44
1.0
  0
MTEXT
  5
506
330
4F4
100
AcDbEntity
  8
0
  6
Continuous
 62
     7
370
     0
100
AcDbMText
 10
12.9686433855
 20
5.3416914349
 30
0.0039370079
 40
0.109375
 41
0.0
 71
     1
 72
     1
  1
6
  7
SLDTEXTSTYLE0
 73
     1
 44
1.0
  0
MTEXT
  5
507
330
4F4
100
AcDbEntity
  8
0
  6
Continuous
 62
     7
370
     0
100
AcDbMText
 10
13.1955205502
 20
5.5392120717
 30
0.0039370079
 40
0.109375
 41
0.0
 71
     1
 72
     1
  1

  7
SLDTEXTSTYLE0
 73
     1
 44
1.0
  0
ENDBLK
  5
4F6
330
4F4
100
AcDbEntity
  8
0
100
AcDbBlockEnd
  0
BLOCK
  5
50A
330
509
100
AcDbEntity
  8
0
100
AcDbBlockBegin
  2
*D37
 70
     1
 10
0.0
 20
0.0
 30
0.0
  3
*D37
  1

  0
SOLID
  5
50C
330
509
100
AcDbEntity
  8
0
  6
Continuous
 62
     7
370
     0
100
AcDbTrace
 10
13.6142544802
 20
4.9038489408
 30
0.0
 11
13.5005044802
 21
4.9213489408
 31
0.0
 12
13.5005044802
 22
4.8863489408
 32
0.0
 13
13.5005044802
 23
4.8863489408
 33
0.0
  0
SOLID
  5
50D
330
509
100
AcDbEntity
  8
0
  6
Continuous
 62
     7
370
     0
100
AcDbTrace
 10
13.7347528488
 20
4.9038489408
 30
0.0
 11
13.8485028488
 21
4.8863489408
 31
0.0
 12
13.8485028488
 22
4.9213489408
 32
0.0
 13
13.8485028488
 23
4.9213489408
 33
0.0
  0
LINE
  5
50E
330
509
100
AcDbEntity
  8
0
  6
Continuous
 62
     7
370
     0
100
AcDbLine
 10
14.0250394961
 20
4.9030134363
 30
0.0
 11
14.0028226981
 21
4.9030134363
 31
0.0
  0
LINE
  5
50F
330
509
100
AcDbEntity
  8
0
  6
Continuous
 62
     7
370
     0
100
AcDbLine
 10
14.0028226981
 20
4.9030134363
 30
0.0
 11
14.0028226981
 21
4.7293806185
 31
0.0
  0
LINE
  5
510
330
509
100
AcDbEntity
  8
0
  6
Continuous
 62
     7
370
     0
100
AcDbLine
 10
14.0028226981
 20
4.7293806185
 30
0.0
 11
14.0250394961
 21
4.7293806185
 31
0.0
  0
LINE
  5
511
330
509
100
AcDbEntity
  8
0
  6
Continuous
 62
     7
370
     0
100
AcDbLine
 10
14.2826214142
 20
4.9030134363
 30
0.0
 11
14.3048382122
 21
4.9030134363
 31
0.0
  0
LINE
  5
512
330
509
100
AcDbEntity
  8
0
  6
Continuous
 62
     7
370
     0
100
AcDbLine
 10
14.3048382122
 20
4.9030134363
 30
0.0
 11
14.3048382122
 21
4.7293806185
 31
0.0
  0
LINE
  5
513
330
509
100
AcDbEntity
  8
0
  6
Continuous
 62
     7
370
     0
100
AcDbLine
 10
14.3048382122
 20
4.7293806185
 30
0.0
 11
14.2826214142
 21
4.7293806185
 31
0.0
  0
LINE
  5
514
330
509
100
AcDbEntity
  8
0
  6
Continuous
 62
     7
370
     0
100
AcDbLine
 10
13.6142544802
 20
5.1481745934
 30
0.0
 11
13.6142544802
 21
4.7944739408
 31
0.0
  0
LINE
  5
515
330
509
100
AcDbEntity
  8
0
  6
Continuous
 62
     7
370
     0
100
AcDbLine
 10
13.7347528488
 20
5.5497493966
 30
0.0
 11
13.7347528488
 21
4.7944739408
 31
0.0
  0
LINE
  5
516
330
509
100
AcDbEntity
  8
0
  6
Continuous
 62
     7
370
     0
100
AcDbLine
 10
13.6142544802
 20
4.9038489408
 30
0.0
 11
13.3955044802
 21
4.9038489408
 31
0.0
  0
LINE
  5
517
330
509
100
AcDbEntity
  8
0
  6
Continuous
 62
     7
370
     0
100
AcDbLine
 10
13.7347528488
 20
4.9038489408
 30
0.0
 11
13.9235693953
 21
4.9038489408
 31
0.0
  0
MTEXT
  5
518
330
509
100
AcDbEntity
  8
0
  6
Continuous
 62
     7
370
     0
100
AcDbMText
 10
13.9867677384
 20
5.0678930333
 30
0.0039370079
 40
0.109375
 41
0.0
 71
     1
 72
     1
  1

  7
SLDTEXTSTYLE0
 73
     1
 44
1.0
  0
MTEXT
  5
519
330
509
100
AcDbEntity
  8
0
  6
Continuous
 62
     7
370
     0
100
AcDbMText
 10
14.0083768936
 20
5.0662220183
 30
0.0039370079
 40
0.109375
 41
0.0
 71
     1
 72
     1
  1
.12
  7
SLDTEXTSTYLE0
 73
     1
 44
1.0
  0
MTEXT
  5
51A
330
509
100
AcDbEntity
  8
0
  6
Continuous
 62
     7
370
     0
100
AcDbMText
 10
14.0528104936
 20
4.8703723966
 30
0.0039370079
 40
0.109375
 41
0.0
 71
     1
 72
     1
  1
3.1
  7
SLDTEXTSTYLE0
 73
     1
 44
1.0
  0
MTEXT
  5
51B
330
509
100
AcDbEntity
  8
0
  6
Continuous
 62
     7
370
     0
100
AcDbMText
 10
14.3625164356
 20
5.0678930333
 30
0.0039370079
 40
0.109375
 41
0.0
 71
     1
 72
     1
  1

  7
SLDTEXTSTYLE0
 73
     1
 44
1.0
  0
ENDBLK
  5
50B
330
509
100
AcDbEntity
  8
0
100
AcDbBlockEnd
  0
BLOCK
  5
51D
330
51C
100
AcDbEntity
  8
0
100
AcDbBlockBegin
  2
SW_NOTE_5
 70
     0
 10
0.0
 20
0.0
 30
0.0
  3
SW_NOTE_5
  1

  0
MTEXT
  5
51F
330
51C
100
AcDbEntity
  8
0
  6
Continuous
 62
     0
370
     0
100
AcDbMText
 10
0.0172667491
 20
0.0530132483
 30
0.0
 40
0.109375
 41
0.0
 71
     1
 72
     1
  1
CABLE OUTLET
  7
SLDTEXTSTYLE0
 73
     1
 44
1.0
  0
MTEXT
  5
520
330
51C
100
AcDbEntity
  8
0
  6
Continuous
 62
     0
370
     0
100
AcDbMText
 10
0.0172667491
 20
-0.0908105669
 30
0.0
 40
0.109375
 41
0.0
 71
     1
 72
     1
  1
MAY BE EASILY
  7
SLDTEXTSTYLE0
 73
     1
 44
1.0
  0
MTEXT
  5
521
330
51C
100
AcDbEntity
  8
0
  6
Continuous
 62
     0
370
     0
100
AcDbMText
 10
0.0172667491
 20
-0.2346343821
 30
0.0
 40
0.109375
 41
0.0
 71
     1
 72
     1
  1
CUT OPEN
  7
SLDTEXTSTYLE0
 73
     1
 44
1.0
  0
ENDBLK
  5
51E
330
51C
100
AcDbEntity
  8
0
100
AcDbBlockEnd
  0
BLOCK
  5
525
330
524
100
AcDbEntity
  8
0
100
AcDbBlockBegin
  2
_DOT
 70
     0
 10
0.0
 20
0.0
 30
0.0
  3
_DOT
  1

  0
POLYLINE
  5
527
330
524
100
AcDbEntity
  8
0
  6
ByBlock
 62
     0
100
AcDb2dPolyline
 66
     1
 10
0.0
 20
0.0
 30
0.0
 70
     1
 40
0.5
 41
0.5
  0
VERTEX
  5
529
330
527
100
AcDbEntity
  8
0
  6
ByBlock
 62
     0
100
AcDbVertex
100
AcDb2dVertex
 10
-0.25
 20
0.0
 30
0.0
 42
1.0
  0
VERTEX
  5
52A
330
527
100
AcDbEntity
  8
0
  6
ByBlock
 62
     0
100
AcDbVertex
100
AcDb2dVertex
 10
0.25
 20
0.0
 30
0.0
 42
1.0
  0
SEQEND
  5
52B
330
527
100
AcDbEntity
  8
0
  6
ByBlock
 62
     0
  0
LINE
  5
528
330
524
100
AcDbEntity
  8
0
  6
ByBlock
 62
     0
370
    -2
100
AcDbLine
 10
-0.5
 20
0.0
 30
0.0
 11
-1.0
 21
0.0
 31
0.0
  0
ENDBLK
  5
526
330
524
100
AcDbEntity
  8
0
100
AcDbBlockEnd
  0
BLOCK
  5
579
330
578
100
AcDbEntity
  8
0
100
AcDbBlockBegin
  2
*D40
 70
     1
 10
0.0
 20
0.0
 30
0.0
  3
*D40
  1

  0
SOLID
  5
57B
330
578
100
AcDbEntity
  8
0
  6
Continuous
 62
     7
370
     0
100
AcDbTrace
 10
1.9361831525
 20
0.9361175102
 30
0.0
 11
1.9536831525
 21
1.0498675102
 31
0.0
 12
1.9186831525
 22
1.0498675102
 32
0.0
 13
1.9186831525
 23
1.0498675102
 33
0.0
  0
SOLID
  5
57C
330
578
100
AcDbEntity
  8
0
  6
Continuous
 62
     7
370
     0
100
AcDbTrace
 10
1.9361831525
 20
1.7432041244
 30
0.0
 11
1.9186831525
 21
1.6294541244
 31
0.0
 12
1.9536831525
 22
1.6294541244
 32
0.0
 13
1.9536831525
 23
1.6294541244
 33
0.0
  0
LINE
  5
57D
330
578
100
AcDbEntity
  8
0
  6
Continuous
 62
     7
370
     0
100
AcDbLine
 10
1.7669842032
 20
1.3388253128
 30
0.0
 11
1.7447674052
 21
1.3388253128
 31
0.0
  0
LINE
  5
57E
330
578
100
AcDbEntity
  8
0
  6
Continuous
 62
     7
370
     0
100
AcDbLine
 10
1.7447674052
 20
1.3388253128
 30
0.0
 11
1.7447674052
 21
1.1651924951
 31
0.0
  0
LINE
  5
57F
330
578
100
AcDbEntity
  8
0
  6
Continuous
 62
     7
370
     0
100
AcDbLine
 10
1.7447674052
 20
1.1651924951
 30
0.0
 11
1.7669842032
 21
1.1651924951
 31
0.0
  0
LINE
  5
580
330
578
100
AcDbEntity
  8
0
  6
Continuous
 62
     7
370
     0
100
AcDbLine
 10
2.1053821098
 20
1.3388253128
 30
0.0
 11
2.1275989078
 21
1.3388253128
 31
0.0
  0
LINE
  5
581
330
578
100
AcDbEntity
  8
0
  6
Continuous
 62
     7
370
     0
100
AcDbLine
 10
2.1275989078
 20
1.3388253128
 30
0.0
 11
2.1275989078
 21
1.1651924951
 31
0.0
  0
LINE
  5
582
330
578
100
AcDbEntity
  8
0
  6
Continuous
 62
     7
370
     0
100
AcDbLine
 10
2.1275989078
 20
1.1651924951
 30
0.0
 11
2.1053821098
 21
1.1651924951
 31
0.0
  0
LINE
  5
583
330
578
100
AcDbEntity
  8
0
  6
Continuous
 62
     7
370
     0
100
AcDbLine
 10
3.0547975973
 20
0.9361175102
 30
0.0
 11
1.8268081525
 21
0.9361175102
 31
0.0
  0
LINE
  5
584
330
578
100
AcDbEntity
  8
0
  6
Continuous
 62
     7
370
     0
100
AcDbLine
 10
2.7016425112
 20
1.7432041244
 30
0.0
 11
1.8268081525
 21
1.7432041244
 31
0.0
  0
LINE
  5
585
330
578
100
AcDbEntity
  8
0
  6
Continuous
 62
     7
370
     0
100
AcDbLine
 10
1.9361831525
 20
0.9361175102
 30
0.0
 11
1.9361831525
 21
1.1429756851
 31
0.0
  0
LINE
  5
586
330
578
100
AcDbEntity
  8
0
  6
Continuous
 62
     7
370
     0
100
AcDbLine
 10
1.9361831525
 20
1.7432041244
 30
0.0
 11
1.9361831525
 21
1.5363459496
 31
0.0
  0
MTEXT
  5
587
330
578
100
AcDbEntity
  8
0
  6
Continuous
 62
     7
370
     0
100
AcDbMText
 10
1.7287124455
 20
1.5037049099
 30
0.3576051271
 40
0.109375
 41
0.0
 71
     1
 72
     1
  1

  7
SLDTEXTSTYLE0
 73
     1
 44
1.0
  0
MTEXT
  5
588
330
578
100
AcDbEntity
  8
0
  6
Continuous
 62
     7
370
     0
100
AcDbMText
 10
1.790729595
 20
1.5020338948
 30
0.3576051271
 40
0.109375
 41
0.0
 71
     1
 72
     1
  1
.81
  7
SLDTEXTSTYLE0
 73
     1
 44
1.0
  0
MTEXT
  5
589
330
578
100
AcDbEntity
  8
0
  6
Continuous
 62
     7
370
     0
100
AcDbMText
 10
1.7947552007
 20
1.3061842731
 30
0.3576051271
 40
0.109375
 41
0.0
 71
     1
 72
     1
  1
20.5
  7
SLDTEXTSTYLE0
 73
     1
 44
1.0
  0
MTEXT
  5
58A
330
578
100
AcDbEntity
  8
0
  6
Continuous
 62
     7
370
     0
100
AcDbMText
 10
2.1852771312
 20
1.5037049099
 30
0.3576051271
 40
0.109375
 41
0.0
 71
     1
 72
     1
  1

  7
SLDTEXTSTYLE0
 73
     1
 44
1.0
  0
ENDBLK
  5
57A
330
578
100
AcDbEntity
  8
0
100
AcDbBlockEnd
  0
BLOCK
  5
58D
330
58C
100
AcDbEntity
  8
0
100
AcDbBlockBegin
  2
*D41
 70
     1
 10
0.0
 20
0.0
 30
0.0
  3
*D41
  1

  0
SOLID
  5
58F
330
58C
100
AcDbEntity
  8
0
  6
Continuous
 62
     7
370
     0
100
AcDbTrace
 10
6.2001608451
 20
0.7392671165
 30
0.0
 11
6.2176608451
 21
0.8530171165
 31
0.0
 12
6.1826608451
 22
0.8530171165
 32
0.0
 13
6.1826608451
 23
0.8530171165
 33
0.0
  0
SOLID
  5
590
330
58C
100
AcDbEntity
  8
0
  6
Continuous
 62
     7
370
     0
100
AcDbTrace
 10
6.2001608451
 20
1.7432041244
 30
0.0
 11
6.1826608451
 21
1.6294541244
 31
0.0
 12
6.2176608451
 22
1.6294541244
 32
0.0
 13
6.2176608451
 23
1.6294541244
 33
0.0
  0
LINE
  5
591
330
58C
100
AcDbEntity
  8
0
  6
Continuous
 62
     7
370
     0
100
AcDbLine
 10
6.0309618958
 20
1.2404001159
 30
0.0
 11
6.0087450978
 21
1.2404001159
 31
0.0
  0
LINE
  5
592
330
58C
100
AcDbEntity
  8
0
  6
Continuous
 62
     7
370
     0
100
AcDbLine
 10
6.0087450978
 20
1.2404001159
 30
0.0
 11
6.0087450978
 21
1.0667672982
 31
0.0
  0
LINE
  5
593
330
58C
100
AcDbEntity
  8
0
  6
Continuous
 62
     7
370
     0
100
AcDbLine
 10
6.0087450978
 20
1.0667672982
 30
0.0
 11
6.0309618958
 21
1.0667672982
 31
0.0
  0
LINE
  5
594
330
58C
100
AcDbEntity
  8
0
  6
Continuous
 62
     7
370
     0
100
AcDbLine
 10
6.3693598024
 20
1.2404001159
 30
0.0
 11
6.3915766004
 21
1.2404001159
 31
0.0
  0
LINE
  5
595
330
58C
100
AcDbEntity
  8
0
  6
Continuous
 62
     7
370
     0
100
AcDbLine
 10
6.3915766004
 20
1.2404001159
 30
0.0
 11
6.3915766004
 21
1.0667672982
 31
0.0
  0
LINE
  5
596
330
58C
100
AcDbEntity
  8
0
  6
Continuous
 62
     7
370
     0
100
AcDbLine
 10
6.3915766004
 20
1.0667672982
 30
0.0
 11
6.3693598024
 21
1.0667672982
 31
0.0
  0
LINE
  5
597
330
58C
100
AcDbEntity
  8
0
  6
Continuous
 62
     7
370
     0
100
AcDbLine
 10
5.3192055674
 20
0.7392671165
 30
0.0
 11
6.3095358451
 21
0.7392671165
 31
0.0
  0
LINE
  5
598
330
58C
100
AcDbEntity
  8
0
  6
Continuous
 62
     7
370
     0
100
AcDbLine
 10
5.2996042326
 20
1.7432041244
 30
0.0
 11
6.3095358451
 21
1.7432041244
 31
0.0
  0
LINE
  5
599
330
58C
100
AcDbEntity
  8
0
  6
Continuous
 62
     7
370
     0
100
AcDbLine
 10
6.2001608451
 20
0.7392671165
 30
0.0
 11
6.2001608451
 21
1.0445504882
 31
0.0
  0
LINE
  5
59A
330
58C
100
AcDbEntity
  8
0
  6
Continuous
 62
     7
370
     0
100
AcDbLine
 10
6.2001608451
 20
1.7432041244
 30
0.0
 11
6.2001608451
 21
1.4379207527
 31
0.0
  0
MTEXT
  5
59B
330
58C
100
AcDbEntity
  8
0
  6
Continuous
 62
     7
370
     0
100
AcDbMText
 10
5.9926901381
 20
1.405279713
 30
0.3576051271
 40
0.109375
 41
0.0
 71
     1
 72
     1
  1

  7
SLDTEXTSTYLE0
 73
     1
 44
1.0
  0
MTEXT
  5
59C
330
58C
100
AcDbEntity
  8
0
  6
Continuous
 62
     7
370
     0
100
AcDbMText
 10
6.0142993094
 20
1.403608698
 30
0.3576051271
 40
0.109375
 41
0.0
 71
     1
 72
     1
  1
1.00
  7
SLDTEXTSTYLE0
 73
     1
 44
1.0
  0
MTEXT
  5
59D
330
58C
100
AcDbEntity
  8
0
  6
Continuous
 62
     7
370
     0
100
AcDbMText
 10
6.0587328933
 20
1.2077590762
 30
0.3576051271
 40
0.109375
 41
0.0
 71
     1
 72
     1
  1
25.5
  7
SLDTEXTSTYLE0
 73
     1
 44
1.0
  0
MTEXT
  5
59E
330
58C
100
AcDbEntity
  8
0
  6
Continuous
 62
     7
370
     0
100
AcDbMText
 10
6.4492548239
 20
1.405279713
 30
0.3576051271
 40
0.109375
 41
0.0
 71
     1
 72
     1
  1

  7
SLDTEXTSTYLE0
 73
     1
 44
1.0
  0
ENDBLK
  5
58E
330
58C
100
AcDbEntity
  8
0
100
AcDbBlockEnd
  0
BLOCK
  5
5A1
330
5A0
100
AcDbEntity
  8
0
100
AcDbBlockBegin
  2
*D42
 70
     1
 10
0.0
 20
0.0
 30
0.0
  3
*D42
  1

  0
SOLID
  5
5A3
330
5A0
100
AcDbEntity
  8
0
  6
Continuous
 62
     7
370
     0
100
AcDbTrace
 10
6.7176200249
 20
0.660526959
 30
0.0
 11
6.7351200249
 21
0.774276959
 31
0.0
 12
6.7001200249
 22
0.774276959
 32
0.0
 13
6.7001200249
 23
0.774276959
 33
0.0
  0
SOLID
  5
5A4
330
5A0
100
AcDbEntity
  8
0
  6
Continuous
 62
     7
370
     0
100
AcDbTrace
 10
6.7176200249
 20
1.8219442819
 30
0.0
 11
6.7001200249
 21
1.7081942819
 31
0.0
 12
6.7351200249
 22
1.7081942819
 32
0.0
 13
6.7351200249
 23
1.7081942819
 33
0.0
  0
LINE
  5
5A5
330
5A0
100
AcDbEntity
  8
0
  6
Continuous
 62
     7
370
     0
100
AcDbLine
 10
6.5484210756
 20
1.2404001159
 30
0.0
 11
6.5262042776
 21
1.2404001159
 31
0.0
  0
LINE
  5
5A6
330
5A0
100
AcDbEntity
  8
0
  6
Continuous
 62
     7
370
     0
100
AcDbLine
 10
6.5262042776
 20
1.2404001159
 30
0.0
 11
6.5262042776
 21
1.0667672982
 31
0.0
  0
LINE
  5
5A7
330
5A0
100
AcDbEntity
  8
0
  6
Continuous
 62
     7
370
     0
100
AcDbLine
 10
6.5262042776
 20
1.0667672982
 30
0.0
 11
6.5484210756
 21
1.0667672982
 31
0.0
  0
LINE
  5
5A8
330
5A0
100
AcDbEntity
  8
0
  6
Continuous
 62
     7
370
     0
100
AcDbLine
 10
6.8868189821
 20
1.2404001159
 30
0.0
 11
6.9090357801
 21
1.2404001159
 31
0.0
  0
LINE
  5
5A9
330
5A0
100
AcDbEntity
  8
0
  6
Continuous
 62
     7
370
     0
100
AcDbLine
 10
6.9090357801
 20
1.2404001159
 30
0.0
 11
6.9090357801
 21
1.0667672982
 31
0.0
  0
LINE
  5
5AA
330
5A0
100
AcDbEntity
  8
0
  6
Continuous
 62
     7
370
     0
100
AcDbLine
 10
6.9090357801
 20
1.0667672982
 30
0.0
 11
6.8868189821
 21
1.0667672982
 31
0.0
  0
LINE
  5
5AB
330
5A0
100
AcDbEntity
  8
0
  6
Continuous
 62
     7
370
     0
100
AcDbLine
 10
5.823900931
 20
0.660526959
 30
0.0
 11
6.8269950249
 21
0.660526959
 31
0.0
  0
LINE
  5
5AC
330
5A0
100
AcDbEntity
  8
0
  6
Continuous
 62
     7
370
     0
100
AcDbLine
 10
5.3447309994
 20
1.8219442819
 30
0.0
 11
6.8269950249
 21
1.8219442819
 31
0.0
  0
LINE
  5
5AD
330
5A0
100
AcDbEntity
  8
0
  6
Continuous
 62
     7
370
     0
100
AcDbLine
 10
6.7176200249
 20
0.660526959
 30
0.0
 11
6.7176200249
 21
1.0445504882
 31
0.0
  0
LINE
  5
5AE
330
5A0
100
AcDbEntity
  8
0
  6
Continuous
 62
     7
370
     0
100
AcDbLine
 10
6.7176200249
 20
1.8219442819
 30
0.0
 11
6.7176200249
 21
1.4379207527
 31
0.0
  0
MTEXT
  5
5AF
330
5A0
100
AcDbEntity
  8
0
  6
Continuous
 62
     7
370
     0
100
AcDbMText
 10
6.5101493179
 20
1.405279713
 30
0.3576051271
 40
0.109375
 41
0.0
 71
     1
 72
     1
  1

  7
SLDTEXTSTYLE0
 73
     1
 44
1.0
  0
MTEXT
  5
5B0
330
5A0
100
AcDbEntity
  8
0
  6
Continuous
 62
     7
370
     0
100
AcDbMText
 10
6.5317584891
 20
1.403608698
 30
0.3576051271
 40
0.109375
 41
0.0
 71
     1
 72
     1
  1
1.16
  7
SLDTEXTSTYLE0
 73
     1
 44
1.0
  0
MTEXT
  5
5B1
330
5A0
100
AcDbEntity
  8
0
  6
Continuous
 62
     7
370
     0
100
AcDbMText
 10
6.5761920731
 20
1.2077590762
 30
0.3576051271
 40
0.109375
 41
0.0
 71
     1
 72
     1
  1
29.5
  7
SLDTEXTSTYLE0
 73
     1
 44
1.0
  0
MTEXT
  5
5B2
330
5A0
100
AcDbEntity
  8
0
  6
Continuous
 62
     7
370
     0
100
AcDbMText
 10
6.9667140036
 20
1.405279713
 30
0.3576051271
 40
0.109375
 41
0.0
 71
     1
 72
     1
  1

  7
SLDTEXTSTYLE0
 73
     1
 44
1.0
  0
ENDBLK
  5
5A2
330
5A0
100
AcDbEntity
  8
0
100
AcDbBlockEnd
  0
ENDSEC
  0
SECTION
  2
ENTITIES
  0
LINE
  5
44
330
1F
100
AcDbEntity
  8
0
  6
Continuous
 62
     7
370
     0
100
AcDbLine
 10
0.274095154
 20
9.3669390244
 30
0.0
 11
14.603095154
 21
9.3669390244
 31
0.0
  0
LINE
  5
45
330
1F
100
AcDbEntity
  8
0
  6
Continuous
 62
     7
370
     0
100
AcDbLine
 10
14.603095154
 20
0.2879390244
 30
0.0
 11
14.603095154
 21
9.3669390244
 31
0.0
  0
LINE
  5
46
330
1F
100
AcDbEntity
  8
0
  6
Continuous
 62
     7
370
     0
100
AcDbLine
 10
14.603095154
 20
0.2879390244
 30
0.0
 11
0.274095154
 21
0.2879390244
 31
0.0
  0
LINE
  5
47
330
1F
100
AcDbEntity
  8
0
  6
Continuous
 62
     7
370
     0
100
AcDbLine
 10
0.274095154
 20
9.3669390244
 30
0.0
 11
0.274095154
 21
0.2879390244
 31
0.0
  0
LINE
  5
48
330
1F
100
AcDbEntity
  8
0
  6
Continuous
 62
     7
370
     0
100
AcDbLine
 10
0.219845154
 20
9.4211890244
 30
0.0
 11
14.657345154
 21
9.4211890244
 31
0.0
  0
LINE
  5
49
330
1F
100
AcDbEntity
  8
0
  6
Continuous
 62
     7
370
     0
100
AcDbLine
 10
14.657345154
 20
0.2336890244
 30
0.0
 11
0.219845154
 21
0.2336890244
 31
0.0
  0
LINE
  5
4A
330
1F
100
AcDbEntity
  8
0
  6
Continuous
 62
     7
370
     0
100
AcDbLine
 10
0.219845154
 20
9.4211890244
 30
0.0
 11
0.219845154
 21
0.2336890244
 31
0.0
  0
LINE
  5
4B
330
1F
100
AcDbEntity
  8
0
  6
Continuous
 62
     7
370
     0
100
AcDbLine
 10
14.657345154
 20
0.2336890244
 30
0.0
 11
14.657345154
 21
9.4211890244
 31
0.0
  0
LINE
  5
4C
330
1F
100
AcDbEntity
  8
0
  6
Continuous
 62
     7
370
     0
100
AcDbLine
 10
0.274095154
 20
9.0116890244
 30
0.0
 11
14.603095154
 21
9.0116890244
 31
0.0
  0
LINE
  5
4D
330
1F
100
AcDbEntity
  8
0
  6
Continuous
 62
     7
370
     0
100
AcDbLine
 10
1.6132543181
 20
9.3669390244
 30
0.0
 11
1.6132543181
 21
9.0116890244
 31
0.0
  0
LINE
  5
4E
330
1F
100
AcDbEntity
  8
0
  6
Continuous
 62
     7
370
     0
100
AcDbLine
 10
0.9719778982
 20
9.3669390244
 30
0.0
 11
0.9719778982
 21
9.0116890244
 31
0.0
  0
LINE
  5
4F
330
1F
100
AcDbEntity
  8
0
  6
Continuous
 62
     7
370
     0
100
AcDbLine
 10
13.509345154
 20
9.0116890244
 30
0.0
 11
13.509345154
 21
9.3669390244
 31
0.0
  0
LINE
  5
50
330
1F
100
AcDbEntity
  8
0
  6
Continuous
 62
     7
370
     0
100
AcDbLine
 10
12.853095154
 20
9.0116890244
 30
0.0
 11
12.853095154
 21
9.3669390244
 31
0.0
  0
LINE
  5
51
330
1F
100
AcDbEntity
  8
0
  6
Continuous
 62
     7
370
     0
100
AcDbLine
 10
12.798845154
 20
9.0116890244
 30
0.0
 11
12.798845154
 21
9.3669390244
 31
0.0
  0
LINE
  5
52
330
1F
100
AcDbEntity
  8
0
  6
Continuous
 62
     7
370
     0
100
AcDbLine
 10
0.3917181775
 20
9.0791401013
 30
0.0
 11
0.3917181775
 21
9.3114830112
 31
0.0
  0
LINE
  5
53
330
1F
100
AcDbEntity
  8
0
  6
Continuous
 62
     7
370
     0
100
AcDbLine
 10
0.5535102513
 20
9.0936615332
 30
0.0
 11
0.5535102513
 21
9.3114830112
 31
0.0
  0
LINE
  5
54
330
1F
100
AcDbEntity
  8
0
  6
Continuous
 62
     7
370
     0
100
AcDbLine
 10
0.6162046799
 20
9.1170484588
 30
0.0
 11
0.6162046799
 21
9.3114830112
 31
0.0
  0
LINE
  5
55
330
1F
100
AcDbEntity
  8
0
  6
Continuous
 62
     7
370
     0
100
AcDbLine
 10
0.5959806706
 20
9.1170484588
 30
0.0
 11
0.5959806706
 21
9.3114830112
 31
0.0
  0
LINE
  5
56
330
1F
100
AcDbEntity
  8
0
  6
Continuous
 62
     7
370
     0
100
AcDbLine
 10
0.7061968563
 20
9.0791401013
 30
0.0
 11
0.7061968563
 21
9.3114830112
 31
0.0
  0
LINE
  5
57
330
1F
100
AcDbEntity
  8
0
  6
Continuous
 62
     7
370
     0
100
AcDbLine
 10
0.6586750992
 20
9.0936615332
 30
0.0
 11
0.6586750992
 21
9.3114830112
 31
0.0
  0
LINE
  5
58
330
1F
100
AcDbEntity
  8
0
  6
Continuous
 62
     7
370
     0
100
AcDbLine
 10
0.5680316831
 20
9.0791401013
 30
0.0
 11
0.6441536673
 21
9.0791401013
 31
0.0
  0
LINE
  5
59
330
1F
100
AcDbEntity
  8
0
  6
Continuous
 62
     7
370
     0
100
AcDbLine
 10
0.3917181775
 20
9.0791401013
 30
0.0
 11
0.4665470116
 21
9.0791401013
 31
0.0
  0
LINE
  5
5A
330
1F
100
AcDbEntity
  8
0
  6
Continuous
 62
     7
370
     0
100
AcDbLine
 10
0.4665470116
 20
9.1895029835
 30
0.0
 11
0.4028413826
 21
9.1895029835
 31
0.0
  0
LINE
  5
5B
330
1F
100
AcDbEntity
  8
0
  6
Continuous
 62
     7
370
     0
100
AcDbLine
 10
0.4665470116
 20
9.201120129
 30
0.0
 11
0.4028413826
 21
9.201120129
 31
0.0
  0
LINE
  5
5C
330
1F
100
AcDbEntity
  8
0
  6
Continuous
 62
     7
370
     0
100
AcDbLine
 10
0.4028413826
 20
9.201120129
 30
0.0
 11
0.4028413826
 21
9.1953115562
 31
0.0
  0
LINE
  5
5D
330
1F
100
AcDbEntity
  8
0
  6
Continuous
 62
     7
370
     0
100
AcDbLine
 10
0.4028413826
 20
9.1895029835
 30
0.0
 11
0.4028413826
 21
9.1953115562
 31
0.0
  0
LINE
  5
5E
330
1F
100
AcDbEntity
  8
0
  6
Continuous
 62
     7
370
     0
100
AcDbLine
 10
0.7061968563
 20
9.0791401013
 30
0.0
 11
0.7350976881
 21
9.0791401013
 31
0.0
  0
LINE
  5
5F
330
1F
100
AcDbEntity
  8
0
  6
Continuous
 62
     7
370
     0
100
AcDbLine
 10
0.8164177066
 20
9.1604601198
 30
0.0
 11
0.8164177066
 21
9.2301629927
 31
0.0
  0
LINE
  5
60
330
1F
100
AcDbEntity
  8
0
  6
Continuous
 62
     7
370
     0
100
AcDbLine
 10
0.773684126
 20
9.1895029835
 30
0.0
 11
0.773684126
 21
9.201120129
 31
0.0
  0
LINE
  5
61
330
1F
100
AcDbEntity
  8
0
  6
Continuous
 62
     7
370
     0
100
AcDbLine
 10
0.7375487352
 20
9.1895029835
 30
0.0
 11
0.7375487352
 21
9.201120129
 31
0.0
  0
LINE
  5
62
330
1F
100
AcDbEntity
  8
0
  6
Continuous
 62
     7
370
     0
100
AcDbLine
 10
0.773684126
 20
9.1895029835
 30
0.0
 11
0.7375487352
 21
9.1895029835
 31
0.0
  0
LINE
  5
63
330
1F
100
AcDbEntity
  8
0
  6
Continuous
 62
     7
370
     0
100
AcDbLine
 10
0.773684126
 20
9.201120129
 30
0.0
 11
0.7375487352
 21
9.201120129
 31
0.0
  0
LINE
  5
64
330
1F
100
AcDbEntity
  8
0
  6
Continuous
 62
     7
370
     0
100
AcDbLine
 10
0.6162046799
 20
9.3114830112
 30
0.0
 11
0.6586750992
 21
9.3114830112
 31
0.0
  0
LINE
  5
65
330
1F
100
AcDbEntity
  8
0
  6
Continuous
 62
     7
370
     0
100
AcDbLine
 10
0.3917181775
 20
9.3114830112
 30
0.0
 11
0.4665470116
 21
9.3114830112
 31
0.0
  0
LINE
  5
66
330
1F
100
AcDbEntity
  8
0
  6
Continuous
 62
     7
370
     0
100
AcDbLine
 10
0.5535102513
 20
9.3114830112
 30
0.0
 11
0.5959806706
 21
9.3114830112
 31
0.0
  0
LINE
  5
67
330
1F
100
AcDbEntity
  8
0
  6
Continuous
 62
     7
370
     0
100
AcDbLine
 10
0.7061968563
 20
9.3114830112
 30
0.0
 11
0.7350976881
 21
9.3114830112
 31
0.0
  0
LINE
  5
68
330
1F
100
AcDbEntity
  8
0
  6
Continuous
 62
     7
370
     0
100
AcDbLine
 10
0.9188375228
 20
9.3669390244
 30
0.0
 11
0.9188375228
 21
9.0116890244
 31
0.0
  0
LINE
  5
69
330
1F
100
AcDbEntity
  8
0
  6
Continuous
 62
     7
370
     0
100
AcDbLine
 10
7.3352959548
 20
9.0116890244
 30
0.0
 11
7.3352959548
 21
9.3669390244
 31
0.0
  0
LINE
  5
6A
330
1F
100
AcDbEntity
  8
0
  6
Continuous
 62
     7
370
     0
100
AcDbLine
 10
7.3895459548
 20
9.0116890244
 30
0.0
 11
7.3895459548
 21
9.3669390244
 31
0.0
  0
LINE
  5
6B
330
1F
100
AcDbEntity
  8
0
  6
Continuous
 62
     7
370
     0
100
AcDbLine
 10
8.0457959548
 20
9.0116890244
 30
0.0
 11
8.0457959548
 21
9.3669390244
 31
0.0
  0
ARC
  5
6C
330
1F
100
AcDbEntity
  8
0
  6
Continuous
 62
     7
370
     0
100
AcDbCircle
 10
0.4665470116
 20
9.2563015701
 30
0.0
 40
0.0551814410862566
100
AcDbArc
 50
270.0
 51
90.0
  0
ARC
  5
6D
330
1F
100
AcDbEntity
  8
0
  6
Continuous
 62
     7
370
     0
100
AcDbCircle
 10
0.7350976881
 20
9.2301629927
 30
0.0
 40
0.0813200184429022
100
AcDbArc
 50
0.0
 51
90.0
  0
ARC
  5
6E
330
1F
100
AcDbEntity
  8
0
  6
Continuous
 62
     7
370
     0
100
AcDbCircle
 10
0.4665470116
 20
9.1343215424
 30
0.0
 40
0.0551814410862566
100
AcDbArc
 50
270.0
 51
90.0
  0
ARC
  5
6F
330
1F
100
AcDbEntity
  8
0
  6
Continuous
 62
     7
370
     0
100
AcDbCircle
 10
0.5680316831
 20
9.0936615332
 30
0.0
 40
0.0145214318648081
100
AcDbArc
 50
180.0
 51
270.0
  0
ARC
  5
70
330
1F
100
AcDbEntity
  8
0
  6
Continuous
 62
     7
370
     0
100
AcDbCircle
 10
0.6045875344
 20
9.1170484588
 30
0.0
 40
0.0116171454918433
100
AcDbArc
 50
277.4442840975
 51
0.0
  0
ARC
  5
71
330
1F
100
AcDbEntity
  8
0
  6
Continuous
 62
     7
370
     0
100
AcDbCircle
 10
0.6075978161
 20
9.1170484588
 30
0.0
 40
0.0116171454918529
100
AcDbArc
 50
180.0
 51
262.5557159021
  0
ARC
  5
72
330
1F
100
AcDbEntity
  8
0
  6
Continuous
 62
     7
370
     0
100
AcDbCircle
 10
0.7350976881
 20
9.1604601198
 30
0.0
 40
0.0813200184429039
100
AcDbArc
 50
270.0
 51
0.0
  0
ARC
  5
73
330
1F
100
AcDbEntity
  8
0
  6
Continuous
 62
     7
370
     0
100
AcDbCircle
 10
0.6441536673
 20
9.0936615332
 30
0.0
 40
0.0145214318648055
100
AcDbArc
 50
270.0
 51
0.0
  0
INSERT
  5
7E
330
1F
100
AcDbEntity
  8
0
  6
Continuous
 62
     7
370
     0
100
AcDbBlockReference
  2
SW_NOTE_0
 10
8.2446434564
 20
2.0880134291
 30
0.0
  0
MTEXT
  5
7F
330
1F
100
AcDbEntity
  8
0
  6
Continuous
 62
     7
370
     0
100
AcDbMText
 10
14.0637641432
 20
9.2831518011
 30
0.0
 40
0.1640625
 41
0.0
 71
     2
 72
     1
  1
10-7-14
  7
SLDTEXTSTYLE0
 73
     1
 44
1.0
  0
MTEXT
  5
80
330
1F
100
AcDbEntity
  8
0
  6
Continuous
 62
     7
370
     0
100
AcDbMText
 10
4.305824781
 20
9.274803868
 30
0.0
 40
0.1640625
 41
0.0
 71
     2
 72
     1
  1
SNAP UTILITY BOX
  7
SLDTEXTSTYLE0
 73
     1
 44
1.0
  0
MTEXT
  5
82
330
1F
100
AcDbEntity
  8
0
  6
Continuous
 62
     7
370
     0
100
AcDbMText
 10
10.3714783074
 20
9.2831518091
 30
0.0
 40
0.1640625
 41
0.0
 71
     2
 72
     1
  1
CU-18424-B     CU-18424-W
  7
SLDTEXTSTYLE1
 73
     1
 44
1.0
  0
INSERT
  5
88
330
1F
100
AcDbEntity
  8
0
  6
Continuous
 62
     7
370
     0
100
AcDbBlockReference
  2
SW_NOTE_1
 10
1.109879859
 20
9.1928709562
 30
0.0
  0
INSERT
  5
8E
330
1F
100
AcDbEntity
  8
0
  6
Continuous
 62
     7
370
     0
100
AcDbBlockReference
  2
SW_NOTE_2
 10
7.5633657076
 20
9.1864393718
 30
0.0
  0
INSERT
  5
94
330
1F
100
AcDbEntity
  8
0
  6
Continuous
 62
     7
370
     0
100
AcDbBlockReference
  2
SW_NOTE_3
 10
12.870058799
 20
9.1904605863
 30
0.0
  0
LINE
  5
95
330
1F
100
AcDbEntity
  8
0
  6
Continuous
 62
     7
370
    15
100
AcDbLine
 10
2.6659776709
 20
5.2706647625
 30
0.0
 11
2.6659776709
 21
7.0974363928
 31
0.0
  0
ARC
  5
96
330
1F
100
AcDbEntity
  8
0
  6
Continuous
 62
     7
370
    15
100
AcDbCircle
 10
2.7014107735
 20
5.2706647509
 30
0.0
 40
0.0354330708661421
100
AcDbArc
 50
180.0
 51
270.0
  0
LINE
  5
97
330
1F
100
AcDbEntity
  8
0
  6
Continuous
 62
     7
370
    15
100
AcDbLine
 10
5.2998359377
 20
5.2352316785
 30
0.0
 11
2.7014107549
 21
5.2352316785
 31
0.0
  0
ARC
  5
98
330
1F
100
AcDbEntity
  8
0
  6
Continuous
 62
     7
370
    15
100
AcDbCircle
 10
5.2998359703
 20
5.2706647509
 30
0.0
 40
0.0354330708661426
100
AcDbArc
 50
270.0
 51
0.0
  0
LINE
  5
99
330
1F
100
AcDbEntity
  8
0
  6
Continuous
 62
     7
370
    15
100
AcDbLine
 10
5.3352690217
 20
7.0974363928
 30
0.0
 11
5.3352690217
 21
5.2706647625
 31
0.0
  0
ARC
  5
9A
330
1F
100
AcDbEntity
  8
0
  6
Continuous
 62
     7
370
    15
100
AcDbCircle
 10
5.2998359703
 20
7.0974364044
 30
0.0
 40
0.0354330708661426
100
AcDbArc
 50
0.0
 51
90.0
  0
ARC
  5
9B
330
1F
100
AcDbEntity
  8
0
  6
Continuous
 62
     7
370
    15
100
AcDbCircle
 10
2.7014107735
 20
7.0974364044
 30
0.0
 40
0.0354330708661426
100
AcDbArc
 50
90.0
 51
180.0
  0
ARC
  5
9C
330
1F
100
AcDbEntity
  8
0
  6
Continuous
 62
     7
370
    15
100
AcDbCircle
 10
2.7014107735
 20
5.2706647509
 30
0.0
 40
0.0590551181102366
100
AcDbArc
 50
180.0
 51
270.0
  0
LINE
  5
9D
330
1F
100
AcDbEntity
  8
0
  6
Continuous
 62
     7
370
    15
100
AcDbLine
 10
2.6423556638
 20
5.2706647625
 30
0.0
 11
2.6423556638
 21
7.0974363928
 31
0.0
  0
ARC
  5
9E
330
1F
100
AcDbEntity
  8
0
  6
Continuous
 62
     7
370
    15
100
AcDbCircle
 10
2.7014107735
 20
7.0974364044
 30
0.0
 40
0.059055118110237
100
AcDbArc
 50
90.0
 51
180.0
  0
LINE
  5
9F
330
1F
100
AcDbEntity
  8
0
  6
Continuous
 62
     7
370
    15
100
AcDbLine
 10
2.7014107549
 20
7.1564915573
 30
0.0
 11
5.2998359377
 21
7.1564915573
 31
0.0
  0
ARC
  5
A0
330
1F
100
AcDbEntity
  8
0
  6
Continuous
 62
     7
370
    15
100
AcDbCircle
 10
5.2998359703
 20
7.0974364044
 30
0.0
 40
0.059055118110237
100
AcDbArc
 50
0.0
 51
90.0
  0
LINE
  5
A1
330
1F
100
AcDbEntity
  8
0
  6
Continuous
 62
     7
370
    15
100
AcDbLine
 10
5.3588910288
 20
7.0974363928
 30
0.0
 11
5.3588910288
 21
5.2706647625
 31
0.0
  0
ARC
  5
A2
330
1F
100
AcDbEntity
  8
0
  6
Continuous
 62
     7
370
    15
100
AcDbCircle
 10
5.2998359703
 20
5.2706647509
 30
0.0
 40
0.0590551181102361
100
AcDbArc
 50
270.0
 51
0.0
  0
LINE
  5
A3
330
1F
100
AcDbEntity
  8
0
  6
Continuous
 62
     7
370
    15
100
AcDbLine
 10
5.2998359377
 20
5.2116095981
 30
0.0
 11
2.7014107549
 21
5.2116095981
 31
0.0
  0
LINE
  5
A4
330
1F
100
AcDbEntity
  8
0
  6
Continuous
 62
     7
370
    15
100
AcDbLine
 10
2.7014107549
 20
7.1328694768
 30
0.0
 11
5.2998359377
 21
7.1328694768
 31
0.0
  0
LINE
  5
A5
330
1F
100
AcDbEntity
  8
0
  6
Continuous
 62
     7
370
    15
100
AcDbLine
 10
2.7014107549
 20
7.1782398461
 30
0.0
 11
5.2998359377
 21
7.1782398461
 31
0.0
  0
LINE
  5
A6
330
1F
100
AcDbEntity
  8
0
  6
Continuous
 62
     7
370
    15
100
AcDbLine
 10
5.2998359377
 20
7.1968095382
 30
0.0
 11
2.7014107549
 21
7.1968095382
 31
0.0
  0
LINE
  5
A7
330
1F
100
AcDbEntity
  8
0
  6
Continuous
 62
     7
370
    15
100
AcDbLine
 10
5.3806393909
 20
5.2706647625
 30
0.0
 11
5.3806393909
 21
7.0974363928
 31
0.0
  0
LINE
  5
A8
330
1F
100
AcDbEntity
  8
0
  6
Continuous
 62
     7
370
    15
100
AcDbLine
 10
5.3909559518
 20
7.0974363928
 30
0.0
 11
5.3909559518
 21
5.2706647625
 31
0.0
  0
LINE
  5
A9
330
1F
100
AcDbEntity
  8
0
  6
Continuous
 62
     7
370
    15
100
AcDbLine
 10
5.2998359377
 20
5.1898613093
 30
0.0
 11
2.7014107549
 21
5.1898613093
 31
0.0
  0
LINE
  5
AA
330
1F
100
AcDbEntity
  8
0
  6
Continuous
 62
     7
370
    15
100
AcDbLine
 10
2.7014107549
 20
5.1712916172
 30
0.0
 11
5.2998359377
 21
5.1712916172
 31
0.0
  0
ARC
  5
AB
330
1F
100
AcDbEntity
  8
0
  6
Continuous
 62
     7
370
    15
100
AcDbCircle
 10
5.2998359703
 20
5.2706647509
 30
0.0
 40
0.0993731414500623
100
AcDbArc
 50
270.0
 51
315.0
  0
ARC
  5
AC
330
1F
100
AcDbEntity
  8
0
  6
Continuous
 62
     7
370
    15
100
AcDbCircle
 10
5.2998359703
 20
5.2706647509
 30
0.0
 40
0.0808034558772297
100
AcDbArc
 50
270.0
 51
0.0000000006
  0
ARC
  5
AD
330
1F
100
AcDbEntity
  8
0
  6
Continuous
 62
     7
370
    15
100
AcDbCircle
 10
5.2998359703
 20
5.2706647509
 30
0.0
 40
0.0911199478621955
100
AcDbArc
 50
344.1763762382
 51
0.0000000008
  0
LWPOLYLINE
  5
AE
330
1F
100
AcDbEntity
  8
0
  6
Continuous
 62
     7
370
    15
100
AcDbPolyline
 90
        7
 70
   128
 43
0.0
 10
5.3566301883
 20
5.196787196
 10
5.3566709611
 20
5.1971741715
 10
5.3580419853
 20
5.1985906618
 10
5.3626207191
 20
5.2031193828
 10
5.3735234998
 20
5.2162764042
 10
5.3836448495
 20
5.2347411575
 10
5.3875030183
 20
5.2458184695
  0
ARC
  5
AF
330
1F
100
AcDbEntity
  8
0
  6
Continuous
 62
     7
370
    15
100
AcDbCircle
 10
2.7014107735
 20
5.2706647509
 30
0.0
 40
0.0808034558772706
100
AcDbArc
 50
179.9999999987
 51
270.0
  0
LINE
  5
B0
330
1F
100
AcDbEntity
  8
0
  6
Continuous
 62
     7
370
    15
100
AcDbLine
 10
2.6206073017
 20
7.0974363928
 30
0.0
 11
2.6206073017
 21
5.2706647625
 31
0.0
  0
ARC
  5
B1
330
1F
100
AcDbEntity
  8
0
  6
Continuous
 62
     7
370
    15
100
AcDbCircle
 10
2.7014107735
 20
7.0974364044
 30
0.0
 40
0.0808034558772106
100
AcDbArc
 50
90.0
 51
179.9999999994
  0
ARC
  5
B2
330
1F
100
AcDbEntity
  8
0
  6
Continuous
 62
     7
370
    15
100
AcDbCircle
 10
5.2998359703
 20
7.0974364044
 30
0.0
 40
0.0808034558772714
100
AcDbArc
 50
0.0000000013
 51
90.0
  0
LINE
  5
B3
330
1F
100
AcDbEntity
  8
0
  6
Continuous
 62
     7
370
    15
100
AcDbLine
 10
2.6102908876
 20
5.2706647625
 30
0.0
 11
2.6102908876
 21
7.0974363928
 31
0.0
  0
ARC
  5
B4
330
1F
100
AcDbEntity
  8
0
  6
Continuous
 62
     7
370
    15
100
AcDbCircle
 10
2.7014107735
 20
7.0974364044
 30
0.0
 40
0.0993731414499817
100
AcDbArc
 50
90.0
 51
135.0
  0
ARC
  5
B5
330
1F
100
AcDbEntity
  8
0
  6
Continuous
 62
     7
370
    15
100
AcDbCircle
 10
2.7014107735
 20
7.0974364044
 30
0.0
 40
0.0911199478621172
100
AcDbArc
 50
164.1763762381
 51
179.9999999992
  0
LWPOLYLINE
  5
B6
330
1F
100
AcDbEntity
  8
0
  6
Continuous
 62
     7
370
    15
100
AcDbPolyline
 90
        7
 70
   128
 43
0.0
 10
2.6446165044
 20
7.1713139594
 10
2.6445758782
 20
7.1709269839
 10
2.6432047073
 20
7.1695104936
 10
2.6386259736
 20
7.1649817725
 10
2.6277231929
 20
7.1518247512
 10
2.6176018431
 20
7.1333599978
 10
2.613743821
 20
7.1222826858
  0
ARC
  5
B7
330
1F
100
AcDbEntity
  8
0
  6
Continuous
 62
     7
370
    15
100
AcDbCircle
 10
5.3140207779
 20
7.110249427
 30
0.0
 40
0.0744609895844401
100
AcDbArc
 50
9.3000611166
 51
55.0935613449
  0
ARC
  5
B8
330
1F
100
AcDbEntity
  8
0
  6
Continuous
 62
     7
370
    15
100
AcDbCircle
 10
5.2998359703
 20
7.0974364044
 30
0.0
 40
0.0911199478621168
100
AcDbArc
 50
0.0000000002
 51
15.8236237619
  0
ARC
  5
B9
330
1F
100
AcDbEntity
  8
0
  6
Continuous
 62
     7
370
    15
100
AcDbCircle
 10
5.2998359703
 20
7.0974364044
 30
0.0
 40
0.099373141450017
100
AcDbArc
 50
45.0
 51
90.0
  0
ARC
  5
BA
330
1F
100
AcDbEntity
  8
0
  6
Continuous
 62
     7
370
    15
100
AcDbCircle
 10
2.6872333159
 20
5.2578561687
 30
0.0
 40
0.0744688663842217
100
AcDbArc
 50
189.3025305844
 51
235.0908464198
  0
ARC
  5
BB
330
1F
100
AcDbEntity
  8
0
  6
Continuous
 62
     7
370
    15
100
AcDbCircle
 10
2.7014107735
 20
5.2706647509
 30
0.0
 40
0.0911199478621555
100
AcDbArc
 50
179.9999999998
 51
195.8236237618
  0
ARC
  5
BC
330
1F
100
AcDbEntity
  8
0
  6
Continuous
 62
     7
370
    15
100
AcDbCircle
 10
2.7014107735
 20
5.2706647509
 30
0.0
 40
0.0993731414500602
100
AcDbArc
 50
225.0
 51
270.0
  0
LINE
  5
BD
330
1F
100
AcDbEntity
  8
0
  6
Continuous
 62
     7
370
    15
100
AcDbLine
 10
4.3155840095
 20
7.0864674662
 30
0.0
 11
5.2888670111
 21
7.0864674662
 31
0.0
  0
LINE
  5
BE
330
1F
100
AcDbEntity
  8
0
  6
Continuous
 62
     7
370
    15
100
AcDbLine
 10
4.3155840095
 20
7.1328694768
 30
0.0
 11
4.3155840095
 21
7.0864674662
 31
0.0
  0
LINE
  5
BF
330
1F
100
AcDbEntity
  8
0
  6
Continuous
 62
     7
370
    15
100
AcDbLine
 10
4.3155840095
 20
5.2816336891
 30
0.0
 11
4.3155840095
 21
5.2352316785
 31
0.0
  0
LINE
  5
C0
330
1F
100
AcDbEntity
  8
0
  6
Continuous
 62
     7
370
    15
100
AcDbLine
 10
5.2888670111
 20
5.2816336891
 30
0.0
 11
4.3155840095
 21
5.2816336891
 31
0.0
  0
LINE
  5
C1
330
1F
100
AcDbEntity
  8
0
  6
Continuous
 62
     7
370
    15
100
AcDbLine
 10
5.2888670111
 20
7.0864674662
 30
0.0
 11
5.2888670111
 21
5.2816336891
 31
0.0
  0
LINE
  5
C2
330
1F
100
AcDbEntity
  8
0
  6
Continuous
 62
     7
370
    15
100
AcDbLine
 10
3.6856627381
 20
5.2816336891
 30
0.0
 11
2.7123796816
 21
5.2816336891
 31
0.0
  0
LINE
  5
C3
330
1F
100
AcDbEntity
  8
0
  6
Continuous
 62
     7
370
    15
100
AcDbLine
 10
3.6856627381
 20
5.2352316785
 30
0.0
 11
3.6856627381
 21
5.2816336891
 31
0.0
  0
LINE
  5
C4
330
1F
100
AcDbEntity
  8
0
  6
Continuous
 62
     7
370
    15
100
AcDbLine
 10
3.6856627381
 20
7.0864674662
 30
0.0
 11
3.6856627381
 21
7.1328694768
 31
0.0
  0
LINE
  5
C5
330
1F
100
AcDbEntity
  8
0
  6
Continuous
 62
     7
370
    15
100
AcDbLine
 10
2.7123796816
 20
7.0864674662
 30
0.0
 11
3.6856627381
 21
7.0864674662
 31
0.0
  0
LINE
  5
C6
330
1F
100
AcDbEntity
  8
0
  6
Continuous
 62
     7
370
    15
100
AcDbLine
 10
2.7123796816
 20
5.2816336891
 30
0.0
 11
2.7123796816
 21
7.0864674662
 31
0.0
  0
LINE
  5
C7
330
1F
100
AcDbEntity
  8
0
  6
Continuous
 62
     7
370
    15
100
AcDbLine
 10
5.2888670111
 20
5.2816336891
 30
0.0
 11
5.2754555994
 21
5.2950451742
 31
0.0
  0
LINE
  5
C8
330
1F
100
AcDbEntity
  8
0
  6
Continuous
 62
     7
370
    15
100
AcDbLine
 10
3.6856627381
 20
5.2857603281
 30
0.0
 11
4.3155840095
 21
5.2857603281
 31
0.0
  0
LINE
  5
C9
330
1F
100
AcDbEntity
  8
0
  6
Continuous
 62
     7
370
    15
100
AcDbLine
 10
2.7123796816
 20
5.2816336891
 30
0.0
 11
2.7257911666
 21
5.2950451742
 31
0.0
  0
LINE
  5
CA
330
1F
100
AcDbEntity
  8
0
  6
Continuous
 62
     7
370
    15
100
AcDbLine
 10
5.2754555994
 20
5.2950451742
 30
0.0
 11
2.7257911666
 21
5.2950451742
 31
0.0
  0
LINE
  5
CB
330
1F
100
AcDbEntity
  8
0
  6
Continuous
 62
     7
370
    15
100
AcDbLine
 10
3.6856627381
 20
5.2816336891
 30
0.0
 11
3.6856627381
 21
5.2857603281
 31
0.0
  0
LINE
  5
CC
330
1F
100
AcDbEntity
  8
0
  6
Continuous
 62
     7
370
    15
100
AcDbLine
 10
4.3155840095
 20
5.2857603281
 30
0.0
 11
4.3155840095
 21
5.2816336891
 31
0.0
  0
LINE
  5
CD
330
1F
100
AcDbEntity
  8
0
  6
Continuous
 62
     7
370
    15
100
AcDbLine
 10
5.2754555994
 20
7.0730559811
 30
0.0
 11
5.2888670111
 21
7.0864674662
 31
0.0
  0
LINE
  5
CE
330
1F
100
AcDbEntity
  8
0
  6
Continuous
 62
     7
370
    15
100
AcDbLine
 10
2.7257911666
 20
7.0730559811
 30
0.0
 11
5.2754555994
 21
7.0730559811
 31
0.0
  0
LINE
  5
CF
330
1F
100
AcDbEntity
  8
0
  6
Continuous
 62
     7
370
    15
100
AcDbLine
 10
2.7123796816
 20
7.0864674662
 30
0.0
 11
2.7257911666
 21
7.0730559811
 31
0.0
  0
LINE
  5
D0
330
1F
100
AcDbEntity
  8
0
  6
Continuous
 62
     7
370
    15
100
AcDbLine
 10
4.3155840095
 20
7.0823408272
 30
0.0
 11
3.6856627381
 21
7.0823408272
 31
0.0
  0
LINE
  5
D1
330
1F
100
AcDbEntity
  8
0
  6
Continuous
 62
     7
370
    15
100
AcDbLine
 10
3.6856627381
 20
7.0823408272
 30
0.0
 11
3.6856627381
 21
7.0864674662
 31
0.0
  0
LINE
  5
D2
330
1F
100
AcDbEntity
  8
0
  6
Continuous
 62
     7
370
    15
100
AcDbLine
 10
4.3155840095
 20
7.0864674662
 30
0.0
 11
4.3155840095
 21
7.0823408272
 31
0.0
  0
LINE
  5
D3
330
1F
100
AcDbEntity
  8
0
  6
Continuous
 62
     7
370
    15
100
AcDbLine
 10
5.2754555994
 20
7.0730559811
 30
0.0
 11
5.2754555994
 21
5.2950451742
 31
0.0
  0
LINE
  5
D4
330
1F
100
AcDbEntity
  8
0
  6
Continuous
 62
     7
370
    15
100
AcDbLine
 10
2.7257911666
 20
5.2950451742
 30
0.0
 11
2.7257911666
 21
7.0730559811
 31
0.0
  0
CIRCLE
  5
D5
330
1F
100
AcDbEntity
  8
0
  6
Continuous
 62
     7
370
    15
100
AcDbCircle
 10
3.2132217971
 20
6.8139718375
 30
0.0
 40
0.1146741998172986
  0
CIRCLE
  5
D6
330
1F
100
AcDbEntity
  8
0
  6
Continuous
 62
     7
370
    15
100
AcDbCircle
 10
3.2132217971
 20
6.8139718375
 30
0.0
 40
0.0428061151433297
  0
CIRCLE
  5
D7
330
1F
100
AcDbEntity
  8
0
  6
Continuous
 62
     7
370
    15
100
AcDbCircle
 10
4.7880249467
 20
6.8139718375
 30
0.0
 40
0.1146741998172986
  0
CIRCLE
  5
D8
330
1F
100
AcDbEntity
  8
0
  6
Continuous
 62
     7
370
    15
100
AcDbCircle
 10
4.7880249467
 20
6.8139718375
 30
0.0
 40
0.0428061151433292
  0
CIRCLE
  5
D9
330
1F
100
AcDbEntity
  8
0
  6
Continuous
 62
     7
370
    15
100
AcDbCircle
 10
4.7880249467
 20
6.8139718375
 30
0.0
 40
0.0393700787401352
  0
CIRCLE
  5
DA
330
1F
100
AcDbEntity
  8
0
  6
Continuous
 62
     7
370
    15
100
AcDbCircle
 10
3.2132217971
 20
5.5541293178
 30
0.0
 40
0.1146741998172995
  0
CIRCLE
  5
DB
330
1F
100
AcDbEntity
  8
0
  6
Continuous
 62
     7
370
    15
100
AcDbCircle
 10
3.2132217971
 20
5.5541293178
 30
0.0
 40
0.042806115143331
  0
CIRCLE
  5
DC
330
1F
100
AcDbEntity
  8
0
  6
Continuous
 62
     7
370
    15
100
AcDbCircle
 10
3.2132217971
 20
5.5541293178
 30
0.0
 40
0.0393700787401357
  0
CIRCLE
  5
DD
330
1F
100
AcDbEntity
  8
0
  6
Continuous
 62
     7
370
    15
100
AcDbCircle
 10
3.2132217971
 20
6.8139718375
 30
0.0
 40
0.0393700787401348
  0
CIRCLE
  5
DE
330
1F
100
AcDbEntity
  8
0
  6
Continuous
 62
     7
370
    15
100
AcDbCircle
 10
4.7880249467
 20
5.5541293178
 30
0.0
 40
0.1146741998172995
  0
CIRCLE
  5
DF
330
1F
100
AcDbEntity
  8
0
  6
Continuous
 62
     7
370
    15
100
AcDbCircle
 10
4.7880249467
 20
5.5541293178
 30
0.0
 40
0.042806115143331
  0
CIRCLE
  5
E0
330
1F
100
AcDbEntity
  8
0
  6
Continuous
 62
     7
370
    15
100
AcDbCircle
 10
4.7880249467
 20
5.5541293178
 30
0.0
 40
0.0393700787401361
  0
CIRCLE
  5
E1
330
1F
100
AcDbEntity
  8
0
  6
Continuous
 62
     7
370
    15
100
AcDbCircle
 10
4.7880249467
 20
6.8139718375
 30
0.0
 40
0.1181102362204545
  0
CIRCLE
  5
E2
330
1F
100
AcDbEntity
  8
0
  6
Continuous
 62
     7
370
    15
100
AcDbCircle
 10
4.7880249467
 20
5.5541293178
 30
0.0
 40
0.1181102362205246
  0
CIRCLE
  5
E3
330
1F
100
AcDbEntity
  8
0
  6
Continuous
 62
     7
370
    15
100
AcDbCircle
 10
3.2132217971
 20
5.5541293178
 30
0.0
 40
0.1181102362205246
  0
CIRCLE
  5
E4
330
1F
100
AcDbEntity
  8
0
  6
Continuous
 62
     7
370
    15
100
AcDbCircle
 10
3.2132217971
 20
6.8139718375
 30
0.0
 40
0.1181102362204545
  0
LINE
  5
E5
330
1F
100
AcDbEntity
  8
0
  6
Continuous
 62
     7
370
    15
100
AcDbLine
 10
5.3566347349
 20
5.1967884426
 30
0.0
 11
5.6342492345
 21
5.27117501
 31
0.0
  0
LINE
  5
E6
330
1F
100
AcDbEntity
  8
0
  6
Continuous
 62
     7
370
    15
100
AcDbLine
 10
2.3669976048
 20
7.0969261454
 30
0.0
 11
2.6446119578
 21
7.1713127127
 31
0.0
  0
LINE
  5
E7
330
1F
100
AcDbEntity
  8
0
  6
Continuous
 62
     7
370
    15
100
AcDbLine
 10
5.6342492345
 20
7.0969261454
 30
0.0
 11
5.3566347349
 21
7.1713127127
 31
0.0
  0
LINE
  5
E8
330
1F
100
AcDbEntity
  8
0
  6
Continuous
 62
     7
370
    15
100
AcDbLine
 10
2.6446119578
 20
5.1967884426
 30
0.0
 11
2.3669976048
 21
5.27117501
 31
0.0
  0
LINE
  5
E9
330
1F
100
AcDbEntity
  8
0
  6
Continuous
 62
     7
370
    15
100
AcDbLine
 10
2.2210958769
 20
5.4613178601
 30
0.0
 11
2.2210958769
 21
6.9067832953
 31
0.0
  0
CIRCLE
  5
EA
330
1F
100
AcDbEntity
  8
0
  6
Continuous
 62
     7
370
    15
100
AcDbCircle
 10
2.4179462065
 20
6.1840505777
 30
0.0
 40
0.0885826771653546
  0
CIRCLE
  5
EB
330
1F
100
AcDbEntity
  8
0
  6
Continuous
 62
     7
370
    15
100
AcDbCircle
 10
5.5833005373
 20
6.1840505777
 30
0.0
 40
0.0885826771653546
  0
LINE
  5
EC
330
1F
100
AcDbEntity
  8
0
  6
Continuous
 62
     7
370
    15
100
AcDbLine
 10
5.7801509624
 20
5.4613178601
 30
0.0
 11
5.7801509624
 21
6.9067832953
 31
0.0
  0
ARC
  5
ED
330
1F
100
AcDbEntity
  8
0
  6
Continuous
 62
     7
370
    15
100
AcDbCircle
 10
2.4179462065
 20
6.9067833002
 30
0.0
 40
0.1968503937007876
100
AcDbArc
 50
105.0
 51
180.0
  0
ARC
  5
EE
330
1F
100
AcDbEntity
  8
0
  6
Continuous
 62
     7
370
    15
100
AcDbCircle
 10
5.5833005373
 20
6.9067833002
 30
0.0
 40
0.1968503937007875
100
AcDbArc
 50
0.0
 51
75.0
  0
ARC
  5
EF
330
1F
100
AcDbEntity
  8
0
  6
Continuous
 62
     7
370
    15
100
AcDbCircle
 10
5.5833005373
 20
5.4613178552
 30
0.0
 40
0.1968503937007879
100
AcDbArc
 50
285.0
 51
0.0
  0
ARC
  5
F0
330
1F
100
AcDbEntity
  8
0
  6
Continuous
 62
     7
370
    15
100
AcDbCircle
 10
2.4179462065
 20
5.4613178552
 30
0.0
 40
0.1968503937007878
100
AcDbArc
 50
180.0
 51
255.0
  0
DIMENSION
  5
F1
330
1F
100
AcDbEntity
  8
0
  6
Continuous
 62
     7
370
     0
100
AcDbDimension
  2
*D5
 10
4.7880249467
 20
4.8268034205
 30
0.0
 11
4.0006233719
 21
4.8268034205
 31
0.0
 70
   160
 71
     2
 42
-1.0
  3
SLDDIMSTYLE0
100
AcDbAlignedDimension
 13
3.2132217971
 23
5.5541293178
 33
0.0
 14
4.7880249467
 24
5.5541293178
 34
0.0
100
AcDbRotatedDimension
  0
DIMENSION
  5
106
330
1F
100
AcDbEntity
  8
0
  6
Continuous
 62
     7
370
     0
100
AcDbDimension
  2
*D6
 10
5.5833005373
 20
4.4477394517
 30
0.0
 11
4.0006233719
 21
4.4477394517
 31
0.0
 70
   160
 71
     2
 42
-1.0
  3
SLDDIMSTYLE0
100
AcDbAlignedDimension
 13
2.4179462065
 23
5.9954679005
 33
0.0
 14
5.5833005373
 24
5.9954679005
 34
0.0
100
AcDbRotatedDimension
  0
DIMENSION
  5
11A
330
1F
100
AcDbEntity
  8
0
  6
Continuous
 62
     7
370
     0
100
AcDbDimension
  2
*D7
 10
6.3313479628
 20
6.8139718375
 30
0.0
 11
6.3313479628
 21
6.1840505777
 31
0.0
 70
   160
 71
     2
 42
-1.0
  3
SLDDIMSTYLE0
100
AcDbAlignedDimension
 13
4.7880249467
 23
5.5541293178
 33
0.0
 14
4.7880249467
 24
6.8139718375
 34
0.0
 50
90.0
100
AcDbRotatedDimension
  0
DIMENSION
  5
12E
330
1F
100
AcDbEntity
  8
0
  6
Continuous
 62
     7
370
     0
100
AcDbDimension
  2
*D8
 10
2.4453041572
 20
6.2683027778
 30
0.0
 11
1.6050289824
 21
4.7193411333
 31
0.0
 70
   163
  1
<>
 71
     1
 42
-1.0
  3
SLDDIMSTYLE1
100
AcDbDiametricDimension
 15
2.3905882559
 25
6.0997983775
 35
0.0
 40
0.0
  0
DIMENSION
  5
13F
330
1F
100
AcDbEntity
  8
0
  6
Continuous
 62
     7
370
     0
100
AcDbDimension
  2
*D9
 10
3.317178105
 20
6.7655646258
 30
0.0
 11
1.0855430076
 21
7.5554537521
 31
0.0
 70
   163
  1
<> BOSS
 71
     1
 42
-1.0
  3
SLDDIMSTYLE2
100
AcDbDiametricDimension
 15
3.1092654892
 25
6.8623790492
 35
0.0
 40
0.0
  0
DIMENSION
  5
151
330
1F
100
AcDbEntity
  8
0
  6
Continuous
 62
     7
370
     0
100
AcDbDimension
  2
*D10
 10
3.2427567561
 20
6.7879393714
 30
0.0
 11
1.7267103819
 21
7.826896874
 31
0.0
 70
   163
  1
<>
 71
     1
 42
-1.0
  3
SLDDIMSTYLE1
100
AcDbDiametricDimension
 15
3.1836868381
 25
6.8400043037
 35
0.0
 40
0.0
  0
DIMENSION
  5
161
330
1F
100
AcDbEntity
  8
0
  6
Continuous
 62
     7
370
     0
100
AcDbDimension
  2
*D11
 10
5.780150931
 20
8.3230656794
 30
0.0
 11
4.0006233719
 21
8.3230656794
 31
0.0
 70
   160
 71
     2
 42
-1.0
  3
SLDDIMSTYLE0
100
AcDbAlignedDimension
 13
2.2210958128
 23
6.9067833002
 33
0.0
 14
5.780150931
 24
6.9067833002
 34
0.0
100
AcDbRotatedDimension
  0
DIMENSION
  5
175
330
1F
100
AcDbEntity
  8
0
  6
Continuous
 62
     7
370
     0
100
AcDbDimension
  2
*D12
 10
5.288867007
 20
7.4933232737
 30
0.0
 11
4.0006233719
 21
7.4933232737
 31
0.0
 70
   160
 71
     2
 42
-1.0
  3
SLDDIMSTYLE0
100
AcDbAlignedDimension
 13
2.7123797368
 23
7.0864674411
 33
0.0
 14
5.288867007
 24
7.0864674411
 34
0.0
100
AcDbRotatedDimension
  0
DIMENSION
  5
189
330
1F
100
AcDbEntity
  8
0
  6
Continuous
 62
     7
370
     0
100
AcDbDimension
  2
*D13
 10
5.3806394262
 20
7.9172224322
 30
0.0
 11
4.0006233719
 21
7.9172224322
 31
0.0
 70
   160
 71
     2
 42
-1.0
  3
SLDDIMSTYLE0
100
AcDbAlignedDimension
 13
2.6206073176
 23
7.0974364044
 33
0.0
 14
5.3806394262
 24
7.0974364044
 34
0.0
 50
0.0
100
AcDbRotatedDimension
  0
DIMENSION
  5
19D
330
1F
100
AcDbEntity
  8
0
  6
Continuous
 62
     7
370
     0
100
AcDbDimension
  2
*D14
 10
1.7022598644
 20
5.2816337142
 30
0.0
 11
1.7022598644
 21
6.1840505777
 31
0.0
 70
   160
 71
     2
 42
-1.0
  3
SLDDIMSTYLE3
100
AcDbAlignedDimension
 13
2.7123797368
 23
7.0864674411
 33
0.0
 14
2.7123797368
 24
5.2816337142
 34
0.0
 50
90.0
100
AcDbRotatedDimension
  0
DIMENSION
  5
1B2
330
1F
100
AcDbEntity
  8
0
  6
Continuous
 62
     7
370
     0
100
AcDbDimension
  2
*D15
 10
1.2242310594
 20
7.1782398603
 30
0.0
 11
1.2242310594
 21
6.1840505777
 31
0.0
 70
   160
 71
     2
 42
-1.0
  3
SLDDIMSTYLE0
100
AcDbAlignedDimension
 13
2.7014107735
 23
5.189861295
 33
0.0
 14
2.7014107735
 24
7.1782398603
 34
0.0
 50
90.0
100
AcDbRotatedDimension
  0
DIMENSION
  5
1C6
330
1F
100
AcDbEntity
  8
0
  6
Continuous
 62
     7
370
     0
100
AcDbDimension
  2
*D16
 10
0.7529828048
 20
7.1968095459
 30
0.0
 11
0.7529828048
 21
6.1840505777
 31
0.0
 70
   160
 71
     2
 42
-1.0
  3
SLDDIMSTYLE0
100
AcDbAlignedDimension
 13
2.7014107735
 23
5.1712916095
 33
0.0
 14
2.7014107735
 24
7.1968095459
 34
0.0
 50
90.0
100
AcDbRotatedDimension
  0
INSERT
  5
1E0
102
{ACAD_REACTORS
330
1E2
102
}
330
1F
100
AcDbEntity
  8
0
  6
Continuous
 62
     7
370
     0
100
AcDbBlockReference
  2
SW_NOTE_4
 10
6.2516746258
 20
4.6443725671
 30
0.0
  0
LEADER
  5
1E2
330
1F
100
AcDbEntity
  8
0
  6
Continuous
 62
     7
370
     0
100
AcDbLeader
  3
SLDDIMSTYLE4
 73
     2
 76
     3
 10
4.8215937407
 20
5.5275680761
 30
0.0
 10
6.0329246258
 20
4.6443725671
 30
0.0
 10
6.2516746258
 20
4.6443725671
 30
0.0
340
1E0
  0
INSERT
  5
1EE
330
1F
100
AcDbEntity
  8
0
  6
Continuous
 62
     7
370
     0
100
AcDbBlockReference
  2
SW_CENTERMARKSYMBOL_0
 10
2.4179462065
 20
6.1840505777
 30
0.0
  0
INSERT
  5
1FA
330
1F
100
AcDbEntity
  8
0
  6
Continuous
 62
     7
370
     0
100
AcDbBlockReference
  2
SW_CENTERMARKSYMBOL_1
 10
5.5833005373
 20
6.1840505777
 30
0.0
  0
INSERT
  5
206
330
1F
100
AcDbEntity
  8
0
  6
Continuous
 62
     7
370
     0
100
AcDbBlockReference
  2
SW_CENTERMARKSYMBOL_2
 10
3.2132217971
 20
6.8139718375
 30
0.0
  0
INSERT
  5
212
330
1F
100
AcDbEntity
  8
0
  6
Continuous
 62
     7
370
     0
100
AcDbBlockReference
  2
SW_CENTERMARKSYMBOL_3
 10
4.7880249467
 20
6.8139718375
 30
0.0
  0
INSERT
  5
21E
330
1F
100
AcDbEntity
  8
0
  6
Continuous
 62
     7
370
     0
100
AcDbBlockReference
  2
SW_CENTERMARKSYMBOL_4
 10
4.7880249467
 20
5.5541293178
 30
0.0
  0
INSERT
  5
22A
330
1F
100
AcDbEntity
  8
0
  6
Continuous
 62
     7
370
     0
100
AcDbBlockReference
  2
SW_CENTERMARKSYMBOL_5
 10
3.2132217971
 20
5.5541293178
 30
0.0
  0
LINE
  5
22B
330
1F
100
AcDbEntity
  8
0
  6
PHANTOM
 62
     7
370
    30
100
AcDbLine
 10
2.0933760163
 20
6.188497243
 30
0.0
 11
5.9015640671
 21
6.188497243
 31
0.0
  0
LINE
  5
22C
330
1F
100
AcDbEntity
  8
0
  6
Continuous
 62
     7
370
    30
100
AcDbLine
 10
2.0933760163
 20
6.188497243
 30
0.0
 11
2.0933760163
 21
6.625997243
 31
0.0
  0
SOLID
  5
22D
330
1F
100
AcDbEntity
  8
0
  6
Continuous
 62
     7
370
    30
100
AcDbTrace
 10
2.0933760163
 20
6.625997243
 30
0.0
 11
2.0583760163
 21
6.407247243
 31
0.0
 12
2.1283760163
 22
6.407247243
 32
0.0
 13
2.1283760163
 23
6.407247243
 33
0.0
  0
LINE
  5
22E
330
1F
100
AcDbEntity
  8
0
  6
Continuous
 62
     7
370
    30
100
AcDbLine
 10
5.9015640671
 20
6.188497243
 30
0.0
 11
5.9015640671
 21
6.625997243
 31
0.0
  0
SOLID
  5
22F
330
1F
100
AcDbEntity
  8
0
  6
Continuous
 62
     7
370
    30
100
AcDbTrace
 10
5.9015640671
 20
6.625997243
 30
0.0
 11
5.8665640671
 21
6.407247243
 31
0.0
 12
5.9365640671
 22
6.407247243
 32
0.0
 13
5.9365640671
 23
6.407247243
 33
0.0
  0
MTEXT
  5
230
330
1F
100
AcDbEntity
  8
0
  6
Continuous
 62
     7
100
AcDbMText
 10
2.0394566371
 20
6.8026902799
 30
0.0
 40
0.109375
 41
0.0
 71
     1
 72
     1
  1
A
  7
SLDTEXTSTYLE0
 73
     1
 44
1.0
  0
MTEXT
  5
231
330
1F
100
AcDbEntity
  8
0
  6
Continuous
 62
     7
100
AcDbMText
 10
5.8476446879
 20
6.8026902799
 30
0.0
 40
0.109375
 41
0.0
 71
     1
 72
     1
  1
A
  7
SLDTEXTSTYLE0
 73
     1
 44
1.0
  0
LINE
  5
232
330
1F
100
AcDbEntity
  8
0
  6
Continuous
 62
     7
370
    15
100
AcDbLine
 10
14.1403856396
 20
2.8835379954
 30
0.0
 11
14.1069145057
 21
3.4046778822
 31
0.0
  0
ARC
  5
233
330
1F
100
AcDbEntity
  8
0
  6
Continuous
 62
     7
370
    15
100
AcDbCircle
 10
14.0744734799
 20
3.404097372
 30
0.0
 40
0.0320996513917918
100
AcDbArc
 50
1.0336569055
 51
62.3694459161
  0
LINE
  5
234
330
1F
100
AcDbEntity
  8
0
  6
Continuous
 62
     7
370
    15
100
AcDbLine
 10
14.089466732
 20
3.4326917083
 30
0.0
 11
12.4817731732
 21
4.3607934445
 31
0.0
  0
LINE
  5
235
330
1F
100
AcDbEntity
  8
0
  6
Continuous
 62
     7
370
    15
100
AcDbLine
 10
12.0820804831
 20
2.7096354932
 30
0.0
 11
12.0808641916
 21
2.7090070092
 31
0.0
  0
LINE
  5
236
330
1F
100
AcDbEntity
  8
0
  6
Continuous
 62
     7
370
    15
100
AcDbLine
 10
12.0966793729
 20
2.6784030286
 30
0.0
 11
12.0978956645
 21
2.6790316174
 31
0.0
  0
LINE
  5
237
330
1F
100
AcDbEntity
  8
0
  6
Continuous
 62
     7
370
    15
100
AcDbLine
 10
11.2982051905
 20
3.6802960045
 30
0.0
 11
11.264734102
 21
3.1591560915
 31
0.0
  0
ARC
  5
238
330
1F
100
AcDbEntity
  8
0
  6
Continuous
 62
     7
370
    15
100
AcDbCircle
 10
11.3311919392
 20
3.679172095
 30
0.0
 40
0.0328096477777916
100
AcDbArc
 50
118.0462738874
 51
178.0132125641
  0
LINE
  5
239
330
1F
100
AcDbEntity
  8
0
  6
Continuous
 62
     7
370
    15
100
AcDbLine
 10
14.0990942962
 20
2.8398710298
 30
0.0
 11
14.0990942962
 21
2.8417252569
 31
0.0
  0
LINE
  5
23A
330
1F
100
AcDbEntity
  8
0
  6
Continuous
 62
     7
370
    15
100
AcDbLine
 10
12.4459102458
 20
4.3607934183
 30
0.0
 11
11.3156529643
 21
3.7083097782
 31
0.0
  0
LINE
  5
23B
330
1F
100
AcDbEntity
  8
0
  6
Continuous
 62
     7
370
    15
100
AcDbLine
 10
11.3060253547
 20
3.1173433531
 30
0.0
 11
11.3060253547
 21
3.115489126
 31
0.0
  0
ARC
  5
23C
330
1F
100
AcDbEntity
  8
0
  6
Continuous
 62
     7
370
    15
100
AcDbCircle
 10
12.4625302301
 20
4.335825513
 30
0.0
 40
0.0297806232685176
100
AcDbArc
 50
87.4760352011
 51
123.6334005277
  0
ARC
  5
23D
330
1F
100
AcDbEntity
  8
0
  6
Continuous
 62
     7
370
    15
100
AcDbCircle
 10
12.4648397328
 20
4.3345451026
 30
0.0
 40
0.0310481884486529
100
AcDbArc
 50
57.1824700186
 51
91.8420937954
  0
LINE
  5
23E
330
1F
100
AcDbEntity
  8
0
  6
Continuous
 62
     7
370
    15
100
AcDbLine
 10
12.9033344282
 20
0.7781288668
 30
0.0
 11
12.9003280915
 21
0.918751783
 31
0.0
  0
LINE
  5
23F
330
1F
100
AcDbEntity
  8
0
  6
Continuous
 62
     7
370
    15
100
AcDbLine
 10
12.6996635389
 20
0.918751783
 30
0.0
 11
12.6978428675
 21
0.8335884127
 31
0.0
  0
ARC
  5
240
330
1F
100
AcDbEntity
  8
0
  6
Continuous
 62
     7
370
    15
100
AcDbCircle
 10
14.2156928297
 20
1.0053603167
 30
0.0
 40
0.0851384978815343
100
AcDbArc
 50
358.8046148283
 51
48.0517161379
  0
LINE
  5
241
330
1F
100
AcDbEntity
  8
0
  6
Continuous
 62
     7
370
    15
100
AcDbLine
 10
14.3012034983
 20
0.9202184834
 30
0.0
 11
14.3012034983
 21
1.0046050904
 31
0.0
  0
LINE
  5
242
330
1F
100
AcDbEntity
  8
0
  6
Continuous
 62
     7
370
    15
100
AcDbLine
 10
14.2726512965
 20
1.0687391875
 30
0.0
 11
14.1521141164
 21
1.1892632985
 31
0.0
  0
LINE
  5
243
330
1F
100
AcDbEntity
  8
0
  6
Continuous
 62
     7
370
    15
100
AcDbLine
 10
14.1232085108
 20
1.3427229554
 30
0.0
 11
14.1232085108
 21
1.3708518265
 31
0.0
  0
LINE
  5
244
330
1F
100
AcDbEntity
  8
0
  6
Continuous
 62
     7
370
    15
100
AcDbLine
 10
14.1521896157
 20
1.1885384793
 30
0.0
 11
14.1421897275
 21
1.3442352486
 31
0.0
  0
LINE
  5
245
330
1F
100
AcDbEntity
  8
0
  6
Continuous
 62
     7
370
    15
100
AcDbLine
 10
13.6828221874
 20
1.228117572
 30
0.0
 11
13.6798158734
 21
1.3687405013
 31
0.0
  0
LINE
  5
246
330
1F
100
AcDbEntity
  8
0
  6
Continuous
 62
     7
370
    15
100
AcDbLine
 10
13.4791513209
 20
1.3687405013
 30
0.0
 11
13.4761450068
 21
1.2281175982
 31
0.0
  0
LINE
  5
247
330
1F
100
AcDbEntity
  8
0
  6
Continuous
 62
     7
370
    15
100
AcDbLine
 10
11.9289746667
 20
1.3406147843
 30
0.0
 11
11.9259683754
 21
1.4812376743
 31
0.0
  0
LINE
  5
248
330
1F
100
AcDbEntity
  8
0
  6
Continuous
 62
     7
370
    15
100
AcDbLine
 10
11.7253037775
 20
1.4812377005
 30
0.0
 11
11.7234831288
 21
1.396074317
 31
0.0
  0
LINE
  5
249
330
1F
100
AcDbEntity
  8
0
  6
Continuous
 62
     7
370
    15
100
AcDbLine
 10
11.2629299688
 20
1.6198533185
 30
0.0
 11
11.2531924678
 21
1.4682418816
 31
0.0
  0
LINE
  5
24A
330
1F
100
AcDbEntity
  8
0
  6
Continuous
 62
     7
370
    15
100
AcDbLine
 10
11.2819111401
 20
1.6464699227
 30
0.0
 11
11.2819111401
 21
1.6183410515
 31
0.0
  0
ARC
  5
24B
330
1F
100
AcDbEntity
  8
0
  6
Continuous
 62
     7
370
    15
100
AcDbCircle
 10
11.2024216213
 20
1.6156953317
 30
0.0
 40
0.0982061674281252
100
AcDbArc
 50
114.6149853343
 51
177.526643766
  0
LINE
  5
24C
330
1F
100
AcDbEntity
  8
0
  6
Continuous
 62
     7
370
    15
100
AcDbLine
 10
11.1039161526
 20
1.6189125281
 30
0.0
 11
11.1039161526
 21
1.5345259211
 31
0.0
  0
LINE
  5
24D
330
1F
100
AcDbEntity
  8
0
  6
Continuous
 62
     7
370
    15
100
AcDbLine
 10
12.055837384
 20
2.2212847011
 30
0.0
 11
11.1615012742
 21
1.7049954545
 31
0.0
  0
LINE
  5
24E
330
1F
100
AcDbEntity
  8
0
  6
Continuous
 62
     7
370
    15
100
AcDbLine
 10
12.708462426
 20
1.7906034894
 30
0.0
 11
12.7054561573
 21
1.9312263925
 31
0.0
  0
LINE
  5
24F
330
1F
100
AcDbEntity
  8
0
  6
Continuous
 62
     7
370
    15
100
AcDbLine
 10
12.5047915594
 20
1.9312264187
 30
0.0
 11
12.5017852681
 21
1.7906035025
 31
0.0
  0
LINE
  5
250
330
1F
100
AcDbEntity
  8
0
  6
Continuous
 62
     7
370
    15
100
AcDbLine
 10
12.2710601389
 20
2.2298495546
 30
0.0
 11
12.2502866311
 21
2.2367732784
 31
0.0
  0
ARC
  5
251
330
1F
100
AcDbEntity
  8
0
  6
Continuous
 62
     7
370
    15
100
AcDbCircle
 10
12.1657743582
 20
2.0193408289
 30
0.0
 40
0.2299057732466236
100
AcDbArc
 50
88.8231352829
 51
118.5623268983
  0
ARC
  5
252
330
1F
100
AcDbEntity
  8
0
  6
Continuous
 62
     7
370
    15
100
AcDbCircle
 10
12.1744718338
 20
2.0143830399
 30
0.0
 40
0.2348487165337881
100
AcDbArc
 50
71.1819597559
 51
90.96994593
  0
ARC
  5
253
330
1F
100
AcDbEntity
  8
0
  6
Continuous
 62
     7
370
    15
100
AcDbCircle
 10
12.9412779641
 20
2.7853009212
 30
0.0
 40
0.054416204212244
100
AcDbArc
 50
242.6097667517
 51
297.3902332483
  0
LINE
  5
254
330
1F
100
AcDbEntity
  8
0
  6
Continuous
 62
     7
370
    15
100
AcDbLine
 10
12.9663120539
 20
2.7369851098
 30
0.0
 11
12.9899959589
 21
2.2014563705
 31
0.0
  0
ARC
  5
255
330
1F
100
AcDbEntity
  8
0
  6
Continuous
 62
     7
370
    15
100
AcDbCircle
 10
12.9412779641
 20
2.2954818472
 30
0.0
 40
0.1058972771430492
100
AcDbArc
 50
242.6096949693
 51
297.3903050307
  0
LINE
  5
256
330
1F
100
AcDbEntity
  8
0
  6
Continuous
 62
     7
370
    15
100
AcDbLine
 10
12.8925599692
 20
2.2014563705
 30
0.0
 11
12.9162438742
 21
2.7369851098
 31
0.0
  0
ARC
  5
257
330
1F
100
AcDbEntity
  8
0
  6
Continuous
 62
     7
370
    15
100
AcDbCircle
 10
12.9694017807
 20
2.7328325973
 30
0.0
 40
0.0533198497401414
100
AcDbArc
 50
122.7341327944
 51
175.5333218425
  0
ARC
  5
258
330
1F
100
AcDbEntity
  8
0
  6
Continuous
 62
     7
370
    15
100
AcDbCircle
 10
12.9412780119
 20
2.7790478358
 30
0.0
 40
0.0015362980108155
100
AcDbArc
 50
242.5376102666
 51
297.4602714364
  0
ARC
  5
259
330
1F
100
AcDbEntity
  8
0
  6
Continuous
 62
     7
370
    15
100
AcDbCircle
 10
12.9131541336
 20
2.7328325923
 30
0.0
 40
0.0533198639298705
100
AcDbArc
 50
4.4666823516
 51
57.265801364
  0
LINE
  5
25A
330
1F
100
AcDbEntity
  8
0
  6
Continuous
 62
     7
370
    15
100
AcDbLine
 10
13.1897397062
 20
2.3167659813
 30
0.0
 11
13.1858324372
 21
2.4051145317
 31
0.0
  0
LINE
  5
25B
330
1F
100
AcDbEntity
  8
0
  6
Continuous
 62
     7
370
    15
100
AcDbLine
 10
12.9899959589
 20
2.2014563705
 30
0.0
 11
13.1897397062
 21
2.3167659813
 31
0.0
  0
LINE
  5
25C
330
1F
100
AcDbEntity
  8
0
  6
Continuous
 62
     7
370
    15
100
AcDbLine
 10
12.9663120539
 20
2.7369851098
 30
0.0
 11
14.0965693354
 21
3.38946875
 31
0.0
  0
LINE
  5
25D
330
1F
100
AcDbEntity
  8
0
  6
Continuous
 62
     7
370
    15
100
AcDbLine
 10
14.1202532405
 20
2.8539400106
 30
0.0
 11
14.0965693354
 21
3.38946875
 31
0.0
  0
LINE
  5
25E
330
1F
100
AcDbEntity
  8
0
  6
Continuous
 62
     7
370
    15
100
AcDbLine
 10
13.9205094932
 20
2.7386303997
 30
0.0
 11
14.1202532405
 21
2.8539400106
 31
0.0
  0
LINE
  5
25F
330
1F
100
AcDbEntity
  8
0
  6
Continuous
 62
     7
370
    15
100
AcDbLine
 10
13.9166022242
 20
2.8269789502
 30
0.0
 11
13.9205094932
 21
2.7386303997
 31
0.0
  0
LINE
  5
260
330
1F
100
AcDbEntity
  8
0
  6
Continuous
 62
     7
370
    15
100
AcDbLine
 10
13.7704482623
 20
2.7426060639
 30
0.0
 11
13.9166022242
 21
2.8269789502
 31
0.0
  0
LINE
  5
261
330
1F
100
AcDbEntity
  8
0
  6
Continuous
 62
     7
370
    15
100
AcDbLine
 10
13.7743555313
 20
2.6542575134
 30
0.0
 11
13.7704482623
 21
2.7426060639
 31
0.0
  0
LINE
  5
262
330
1F
100
AcDbEntity
  8
0
  6
Continuous
 62
     7
370
    15
100
AcDbLine
 10
13.3358936681
 20
2.4011388676
 30
0.0
 11
13.7743555313
 21
2.6542575134
 31
0.0
  0
LINE
  5
263
330
1F
100
AcDbEntity
  8
0
  6
Continuous
 62
     7
370
    15
100
AcDbLine
 10
13.3319863991
 20
2.489487418
 30
0.0
 11
13.3358936681
 21
2.4011388676
 31
0.0
  0
LINE
  5
264
330
1F
100
AcDbEntity
  8
0
  6
Continuous
 62
     7
370
    15
100
AcDbLine
 10
13.1858324372
 20
2.4051145317
 30
0.0
 11
13.3319863991
 21
2.489487418
 31
0.0
  0
LINE
  5
265
330
1F
100
AcDbEntity
  8
0
  6
Continuous
 62
     7
370
    15
100
AcDbLine
 10
11.3085503155
 20
3.6650868461
 30
0.0
 11
12.9162438742
 21
2.7369851098
 31
0.0
  0
LINE
  5
266
330
1F
100
AcDbEntity
  8
0
  6
Continuous
 62
     7
370
    15
100
AcDbLine
 10
11.2848664104
 20
3.1295581067
 30
0.0
 11
12.8925599692
 21
2.2014563705
 31
0.0
  0
LINE
  5
267
330
1F
100
AcDbEntity
  8
0
  6
Continuous
 62
     7
370
    15
100
AcDbLine
 10
11.3085503155
 20
3.6650868461
 30
0.0
 11
11.2848664104
 21
3.1295581067
 31
0.0
  0
LWPOLYLINE
  5
268
330
1F
100
AcDbEntity
  8
0
  6
Continuous
 62
     7
370
    15
100
AcDbPolyline
 90
        8
 70
   128
 43
0.0
 10
12.0906254619
 20
2.7087466924
 10
12.0952378483
 20
2.7049588642
 10
12.0990510041
 20
2.6995534412
 10
12.1014843812
 20
2.6933532992
 10
12.1021675668
 20
2.6873024836
 10
12.1009964944
 20
2.6823219513
 10
12.0981495501
 20
2.6791702311
 10
12.0978956645
 20
2.6790316174
  0
LWPOLYLINE
  5
269
330
1F
100
AcDbEntity
  8
0
  6
Continuous
 62
     7
370
    15
100
AcDbPolyline
 90
        3
 70
   128
 43
0.0
 10
12.0820804831
 20
2.7096354932
 10
12.0859160641
 20
2.7103402157
 10
12.0906254619
 20
2.7087466924
  0
ARC
  5
26A
330
1F
100
AcDbEntity
  8
0
  6
Continuous
 62
     7
370
    15
100
AcDbCircle
 10
11.3617082219
 20
3.6609343336
 30
0.0
 40
0.0533198497401584
100
AcDbArc
 50
122.7341327944
 51
175.5333218425
  0
LINE
  5
26B
330
1F
100
AcDbEntity
  8
0
  6
Continuous
 62
     7
370
    15
100
AcDbLine
 10
11.3328759644
 20
3.7057863937
 30
0.0
 11
12.9405695231
 21
2.7776846575
 31
0.0
  0
LINE
  5
26C
330
1F
100
AcDbEntity
  8
0
  6
Continuous
 62
     7
370
    15
100
AcDbLine
 10
12.9419864503
 20
2.7776846313
 30
0.0
 11
14.0722437319
 21
3.4301682714
 31
0.0
  0
ARC
  5
26D
330
1F
100
AcDbEntity
  8
0
  6
Continuous
 62
     7
370
    15
100
AcDbCircle
 10
14.0434114151
 20
3.3853162324
 30
0.0
 40
0.0533198639298717
100
AcDbArc
 50
4.4666823516
 51
57.265801364
  0
LINE
  5
26E
330
1F
100
AcDbEntity
  8
0
  6
Continuous
 62
     7
370
    15
100
AcDbLine
 10
12.4631332459
 20
4.3590879823
 30
0.0
 11
11.3328759644
 21
3.7066043422
 31
0.0
  0
ARC
  5
26F
330
1F
100
AcDbEntity
  8
0
  6
Continuous
 62
     7
370
    15
100
AcDbCircle
 10
12.4638416868
 20
4.3577248221
 30
0.0
 40
0.0015362598585682
100
AcDbArc
 50
62.5388834527
 51
117.4611165473
  0
LINE
  5
270
330
1F
100
AcDbEntity
  8
0
  6
Continuous
 62
     7
370
    15
100
AcDbLine
 10
14.0722436865
 20
3.4309862461
 30
0.0
 11
12.4645501278
 21
4.3590879823
 31
0.0
  0
LWPOLYLINE
  5
271
330
1F
100
AcDbEntity
  8
0
  6
Continuous
 62
     7
370
    15
100
AcDbPolyline
 90
        6
 70
   128
 43
0.0
 10
14.0722436865
 20
3.4309862461
 10
14.0724680065
 20
3.4307936243
 10
14.072521954
 20
3.4306884078
 10
14.0725371537
 20
3.4305772718
 10
14.0724594311
 20
3.4303557594
 10
14.0722437319
 20
3.4301682714
  0
LWPOLYLINE
  5
272
330
1F
100
AcDbEntity
  8
0
  6
Continuous
 62
     7
370
    15
100
AcDbPolyline
 90
        6
 70
   128
 43
0.0
 10
11.3328759644
 20
3.7057863937
 10
11.3326516898
 20
3.7059789893
 10
11.3325976969
 20
3.706084232
 10
11.3325825426
 20
3.7061953418
 10
11.3326602651
 20
3.7064168542
 10
11.3328759644
 20
3.7066043422
  0
ARC
  5
273
330
1F
100
AcDbEntity
  8
0
  6
Continuous
 62
     7
370
    15
100
AcDbCircle
 10
12.9412779641
 20
2.2137478586
 30
0.0
 40
0.0423589179676888
100
AcDbArc
 50
242.6096861286
 51
297.3903138714
  0
LINE
  5
274
330
1F
100
AcDbEntity
  8
0
  6
Continuous
 62
     7
370
    15
100
AcDbLine
 10
13.1605089183
 20
2.2914472754
 30
0.0
 11
12.9607651711
 21
2.1761376645
 31
0.0
  0
LINE
  5
275
330
1F
100
AcDbEntity
  8
0
  6
Continuous
 62
     7
370
    15
100
AcDbLine
 10
13.1605089183
 20
2.2914472754
 30
0.0
 11
13.1605089183
 21
2.2998914224
 31
0.0
  0
LINE
  5
276
330
1F
100
AcDbEntity
  8
0
  6
Continuous
 62
     7
370
    15
100
AcDbLine
 10
12.921790757
 20
2.1761376645
 30
0.0
 11
12.3128159458
 21
2.52769134
 31
0.0
  0
LINE
  5
277
330
1F
100
AcDbEntity
  8
0
  6
Continuous
 62
     7
370
    15
100
AcDbLine
 10
12.3128159458
 20
2.536135487
 30
0.0
 11
12.3128159458
 21
2.52769134
 31
0.0
  0
LINE
  5
278
330
1F
100
AcDbEntity
  8
0
  6
Continuous
 62
     7
370
    15
100
AcDbLine
 10
13.289097275
 20
2.3859605698
 30
0.0
 11
13.2857004882
 21
2.4627669843
 31
0.0
  0
LINE
  5
279
330
1F
100
AcDbEntity
  8
0
  6
Continuous
 62
     7
370
    15
100
AcDbLine
 10
13.289097275
 20
2.3859605698
 30
0.0
 11
13.1892292467
 21
2.3283079842
 31
0.0
  0
LINE
  5
27A
330
1F
100
AcDbEntity
  8
0
  6
Continuous
 62
     7
370
    15
100
AcDbLine
 10
13.3358936681
 20
2.4011388676
 30
0.0
 11
13.3066628803
 21
2.4180134422
 31
0.0
  0
LINE
  5
27B
330
1F
100
AcDbEntity
  8
0
  6
Continuous
 62
     7
370
    15
100
AcDbLine
 10
13.3066628803
 20
2.3758201617
 30
0.0
 11
13.3066628803
 21
2.4180134422
 31
0.0
  0
LINE
  5
27C
330
1F
100
AcDbEntity
  8
0
  6
Continuous
 62
     7
370
    15
100
AcDbLine
 10
13.289097275
 20
2.3859605698
 30
0.0
 11
13.3066628803
 21
2.3758201617
 31
0.0
  0
LINE
  5
27D
330
1F
100
AcDbEntity
  8
0
  6
Continuous
 62
     7
370
    15
100
AcDbLine
 10
13.7451247434
 20
2.6373829545
 30
0.0
 11
13.7451247434
 21
2.6289388075
 31
0.0
  0
LINE
  5
27E
330
1F
100
AcDbEntity
  8
0
  6
Continuous
 62
     7
370
    15
100
AcDbLine
 10
13.7451247434
 20
2.6289388075
 30
0.0
 11
13.3066628803
 21
2.3758201617
 31
0.0
  0
LINE
  5
27F
330
1F
100
AcDbEntity
  8
0
  6
Continuous
 62
     7
370
    15
100
AcDbLine
 10
12.2766533353
 20
2.533532942
 30
0.0
 11
12.2884569484
 21
2.5403470228
 31
0.0
  0
LINE
  5
280
330
1F
100
AcDbEntity
  8
0
  6
Continuous
 62
     7
370
    15
100
AcDbLine
 10
12.2884569484
 20
2.5403470228
 30
0.0
 11
12.2884569484
 21
2.5501976369
 31
0.0
  0
LINE
  5
281
330
1F
100
AcDbEntity
  8
0
  6
Continuous
 62
     7
370
    15
100
AcDbLine
 10
12.2890579027
 20
2.4942813691
 30
0.0
 11
12.3087308179
 21
2.5056383014
 31
0.0
  0
LINE
  5
282
330
1F
100
AcDbEntity
  8
0
  6
Continuous
 62
     7
370
    15
100
AcDbLine
 10
12.2766533353
 20
2.533532942
 30
0.0
 11
12.2890579027
 21
2.4942813691
 31
0.0
  0
LINE
  5
283
330
1F
100
AcDbEntity
  8
0
  6
Continuous
 62
     7
370
    15
100
AcDbLine
 10
12.3101476998
 20
2.5376759012
 30
0.0
 11
12.3087308179
 21
2.5056383014
 31
0.0
  0
LINE
  5
284
330
1F
100
AcDbEntity
  8
0
  6
Continuous
 62
     7
370
    15
100
AcDbLine
 10
12.2884569484
 20
2.5403470228
 30
0.0
 11
11.947431041
 21
2.7372170887
 31
0.0
  0
LINE
  5
285
330
1F
100
AcDbEntity
  8
0
  6
Continuous
 62
     7
370
    15
100
AcDbLine
 10
11.947431041
 20
2.7470677028
 30
0.0
 11
11.947431041
 21
2.7372170887
 31
0.0
  0
ARC
  5
286
330
1F
100
AcDbEntity
  8
0
  6
Continuous
 62
     7
370
    15
100
AcDbCircle
 10
14.1078306854
 20
2.8840357398
 30
0.0
 40
0.0325587591033632
100
AcDbArc
 50
292.4292704335
 51
359.1240523709
  0
LINE
  5
287
330
1F
100
AcDbEntity
  8
0
  6
Continuous
 62
     7
370
    15
100
AcDbLine
 10
12.2890579027
 20
2.4942813691
 30
0.0
 11
11.9480319952
 21
2.691151435
 31
0.0
  0
LINE
  5
288
330
1F
100
AcDbEntity
  8
0
  6
Continuous
 62
     7
370
    15
100
AcDbLine
 10
11.9480319952
 20
2.691151435
 30
0.0
 11
11.9356274279
 21
2.7304030079
 31
0.0
  0
LINE
  5
289
330
1F
100
AcDbEntity
  8
0
  6
Continuous
 62
     7
370
    15
100
AcDbLine
 10
11.9356274279
 20
2.7304030079
 30
0.0
 11
12.2766533353
 21
2.533532942
 31
0.0
  0
LINE
  5
28A
330
1F
100
AcDbEntity
  8
0
  6
Continuous
 62
     7
370
    15
100
AcDbLine
 10
11.947431041
 20
2.7372170887
 30
0.0
 11
11.9356274279
 21
2.7304030079
 31
0.0
  0
LWPOLYLINE
  5
28B
330
1F
100
AcDbEntity
  8
0
  6
Continuous
 62
     7
370
    15
100
AcDbPolyline
 90
       17
 70
   128
 43
0.0
 10
12.0894092158
 20
2.7081181297
 10
12.0940215568
 20
2.7043302754
 10
12.0978347126
 20
2.6989248524
 10
12.1002680897
 20
2.6927248152
 10
12.1009512753
 20
2.6866738948
 10
12.0997802482
 20
2.6816934934
 10
12.0969332585
 20
2.6785416423
 10
12.0928437409
 20
2.6776982831
 10
12.0881343488
 20
2.6792918032
 10
12.0835219567
 20
2.6830796346
 10
12.0797088519
 20
2.6884850806
 10
12.0772754749
 20
2.6946852225
 10
12.0765922836
 20
2.7007360414
 10
12.0777633163
 20
2.7057165443
 10
12.080610306
 20
2.7088682906
 10
12.0846997726
 20
2.7097116269
 10
12.0894092158
 20
2.7081181297
  0
LINE
  5
28C
330
1F
100
AcDbEntity
  8
0
  6
Continuous
 62
     7
370
    15
100
AcDbLine
 10
13.8703163133
 20
2.8002585165
 30
0.0
 11
13.8737131001
 21
2.7234521019
 31
0.0
  0
LINE
  5
28D
330
1F
100
AcDbEntity
  8
0
  6
Continuous
 62
     7
370
    15
100
AcDbLine
 10
13.8737131001
 20
2.7234521019
 30
0.0
 11
13.7738450945
 21
2.6657995294
 31
0.0
  0
LINE
  5
28E
330
1F
100
AcDbEntity
  8
0
  6
Continuous
 62
     7
370
    15
100
AcDbLine
 10
13.8912787054
 20
2.7555049744
 30
0.0
 11
13.9205094932
 21
2.7386303997
 31
0.0
  0
LINE
  5
28F
330
1F
100
AcDbEntity
  8
0
  6
Continuous
 62
     7
370
    15
100
AcDbLine
 10
13.8912787054
 20
2.7133116938
 30
0.0
 11
13.8912787054
 21
2.7555049744
 31
0.0
  0
LINE
  5
290
330
1F
100
AcDbEntity
  8
0
  6
Continuous
 62
     7
370
    15
100
AcDbLine
 10
13.8737131001
 20
2.7234521019
 30
0.0
 11
13.8912787054
 21
2.7133116938
 31
0.0
  0
LINE
  5
291
330
1F
100
AcDbEntity
  8
0
  6
Continuous
 62
     7
370
    15
100
AcDbLine
 10
14.0910224526
 20
2.8286213047
 30
0.0
 11
13.8912787054
 21
2.7133116938
 31
0.0
  0
LINE
  5
292
330
1F
100
AcDbEntity
  8
0
  6
Continuous
 62
     7
370
    15
100
AcDbLine
 10
11.9303856729
 20
2.7569077741
 30
0.0
 11
11.9230720435
 21
2.7526857057
 31
0.0
  0
LINE
  5
293
330
1F
100
AcDbEntity
  8
0
  6
Continuous
 62
     7
370
    15
100
AcDbLine
 10
11.9230720435
 20
2.7611298527
 30
0.0
 11
11.9230720435
 21
2.7526857057
 31
0.0
  0
LINE
  5
294
330
1F
100
AcDbEntity
  8
0
  6
Continuous
 62
     7
370
    15
100
AcDbLine
 10
11.9230720435
 20
2.7526857057
 30
0.0
 11
11.3140971983
 21
3.1042394008
 31
0.0
  0
ARC
  5
295
330
1F
100
AcDbEntity
  8
0
  6
Continuous
 62
     7
370
    15
100
AcDbCircle
 10
11.2981542273
 20
3.1602422802
 30
0.0
 40
0.03343777175081
100
AcDbArc
 50
181.861516908
 51
246.5849200916
  0
ARC
  5
296
330
1F
100
AcDbEntity
  8
0
  6
Continuous
 62
     7
370
    15
100
AcDbCircle
 10
14.0853024639
 20
2.8412461768
 30
0.0
 40
0.013860218849428
100
AcDbArc
 50
294.37399686
 51
354.3060093603
  0
ARC
  5
297
330
1F
100
AcDbEntity
  8
0
  6
Continuous
 62
     7
370
    15
100
AcDbCircle
 10
11.3198174285
 20
3.1168644462
 30
0.0
 40
0.0138604763762887
100
AcDbArc
 50
185.6946044156
 51
245.6253893641
  0
ARC
  5
298
330
1F
100
AcDbEntity
  8
0
  6
Continuous
 62
     7
370
    15
100
AcDbCircle
 10
13.2338047841
 20
0.6523937807
 30
0.0
 40
0.2158561521374823
100
AcDbArc
 50
251.6155674773
 51
297.076838123
  0
ARC
  5
299
330
1F
100
AcDbEntity
  8
0
  6
Continuous
 62
     7
370
    15
100
AcDbCircle
 10
13.3035317503
 20
0.4155983623
 30
0.0
 40
0.0529412931362384
100
AcDbArc
 50
2.6055865187
 51
57.3944829484
  0
ARC
  5
29A
330
1F
100
AcDbEntity
  8
0
  6
Continuous
 62
     7
370
    15
100
AcDbCircle
 10
13.233586066
 20
0.6584384468
 30
0.0
 40
0.2699925130749182
100
AcDbArc
 50
251.6308929213
 51
297.0615145686
  0
ARC
  5
29B
330
1F
100
AcDbEntity
  8
0
  6
Continuous
 62
     7
370
    15
100
AcDbCircle
 10
13.2199501722
 20
0.4010136832
 30
0.0
 40
0.0714587372173682
100
AcDbArc
 50
139.3605313086
 51
179.0462673132
  0
LINE
  5
29C
330
1F
100
AcDbEntity
  8
0
  6
Continuous
 62
     7
370
    15
100
AcDbLine
 10
14.2482936149
 20
1.0725077343
 30
0.0
 11
14.1411493438
 21
1.179640388
 31
0.0
  0
LWPOLYLINE
  5
29D
330
1F
100
AcDbEntity
  8
0
  6
Continuous
 62
     7
370
    15
100
AcDbPolyline
 90
        8
 70
   128
 43
0.0
 10
14.2263953766
 20
0.9764853816
 10
14.2406134692
 20
0.9861078272
 10
14.2519906747
 20
0.9969102843
 10
14.2606504507
 20
1.0092927953
 10
14.2655758256
 20
1.0223509231
 10
14.2666735143
 20
1.035689471
 10
14.2638595783
 20
1.0489544695
 10
14.2482936149
 20
1.0725077343
  0
LINE
  5
29E
330
1F
100
AcDbEntity
  8
0
  6
Continuous
 62
     7
370
    15
100
AcDbLine
 10
13.3320592668
 20
0.4601961349
 30
0.0
 11
14.2263953766
 21
0.9764853816
 31
0.0
  0
LINE
  5
29F
330
1F
100
AcDbEntity
  8
0
  6
Continuous
 62
     7
370
    15
100
AcDbLine
 10
12.9801463434
 20
0.5094076221
 30
0.0
 11
13.1657256506
 21
0.447554551
 31
0.0
  0
ARC
  5
2A0
330
1F
100
AcDbEntity
  8
0
  6
Continuous
 62
     7
370
    15
100
AcDbCircle
 10
12.9527906754
 20
0.5959718236
 30
0.0
 40
0.090783773552219
100
AcDbArc
 50
287.5373668314
 51
299.6167064329
  0
LINE
  5
2A1
330
1F
100
AcDbEntity
  8
0
  6
Continuous
 62
     7
370
    15
100
AcDbLine
 10
14.1279128779
 20
1.1695325114
 30
0.0
 11
12.9976555964
 21
0.5170488713
 31
0.0
  0
ARC
  5
2A2
330
1F
100
AcDbEntity
  8
0
  6
Continuous
 62
     7
370
    15
100
AcDbCircle
 10
14.0983088045
 20
1.2220202818
 30
0.0
 40
0.0602608264989283
100
AcDbArc
 50
299.4238023485
 51
315.3097002212
  0
LWPOLYLINE
  5
2A3
330
1F
100
AcDbEntity
  8
0
  6
Continuous
 62
     7
370
    15
100
AcDbPolyline
 90
       29
 70
   128
 43
0.0
 10
13.7365991556
 20
0.8062291362
 10
13.7474208697
 20
0.7983953439
 10
13.7549516729
 20
0.789367802
 10
13.7588138789
 20
0.7795992219
 10
13.7588138619
 20
0.7695794218
 10
13.7549515822
 20
0.7598108613
 10
13.7474208144
 20
0.7507833137
 10
13.7365990875
 20
0.742949514
 10
13.7230290781
 20
0.7367022641
 10
13.7073912126
 20
0.7323548444
 10
13.6904697361
 20
0.7301251978
 10
13.6731130526
 20
0.730125188
 10
13.656191542
 20
0.732354792
 10
13.6405536864
 20
0.7367022322
 10
13.6269836898
 20
0.7429494747
 10
13.6161618849
 20
0.7507833194
 10
13.6086311725
 20
0.7598108089
 10
13.6047688758
 20
0.7695794414
 10
13.6047688928
 20
0.7795992415
 10
13.6086311725
 20
0.789367802
 10
13.6161619402
 20
0.7983953496
 10
13.6269836671
 20
0.8062291493
 10
13.6405536765
 20
0.8124763992
 10
13.656191542
 20
0.8168238189
 10
13.6731130186
 20
0.8190534655
 10
13.690469702
 20
0.8190534754
 10
13.7073913034
 20
0.8168238189
 10
13.7230290682
 20
0.8124764312
 10
13.7365991556
 20
0.8062291362
  0
LINE
  5
2A4
330
1F
100
AcDbEntity
  8
0
  6
Continuous
 62
     7
370
    15
100
AcDbLine
 10
13.3564183096
 20
0.3336184873
 30
0.0
 11
13.3564183096
 21
0.4180050942
 31
0.0
  0
ARC
  5
2A5
330
1F
100
AcDbEntity
  8
0
  6
Continuous
 62
     7
370
    15
100
AcDbCircle
 10
13.233586066
 20
0.5740518399
 30
0.0
 40
0.2699925130749181
100
AcDbArc
 50
251.6308929213
 51
297.0615145686
  0
LINE
  5
2A6
330
1F
100
AcDbEntity
  8
0
  6
Continuous
 62
     7
370
    15
100
AcDbLine
 10
13.1485013347
 20
0.4022031144
 30
0.0
 11
13.1485013347
 21
0.3178165074
 31
0.0
  0
LINE
  5
2A7
330
1F
100
AcDbEntity
  8
0
  6
Continuous
 62
     7
370
    15
100
AcDbLine
 10
12.9307117859
 20
0.4747659944
 30
0.0
 11
13.1485013347
 21
0.4022031144
 31
0.0
  0
LWPOLYLINE
  5
2A8
330
1F
100
AcDbEntity
  8
0
  6
Continuous
 62
     7
370
    15
100
AcDbPolyline
 90
        7
 70
   128
 43
0.0
 10
12.9307082015
 20
0.4747667016
 10
12.9309728574
 20
0.4787286707
 10
12.9326975439
 20
0.4823061042
 10
12.9383324941
 20
0.4880635765
 10
12.9532187371
 20
0.4974984895
 10
12.9709054861
 20
0.5059617409
 10
12.9801463434
 20
0.5094076221
  0
LINE
  5
2A9
330
1F
100
AcDbEntity
  8
0
  6
Continuous
 62
     7
370
    15
100
AcDbLine
 10
12.9412780094
 20
0.3868834661
 30
0.0
 11
12.9307082015
 21
0.4747667081
 31
0.0
  0
LINE
  5
2AA
330
1F
100
AcDbEntity
  8
0
  6
Continuous
 62
     7
370
    15
100
AcDbLine
 10
12.8912833781
 20
0.6613780551
 30
0.0
 11
12.8797939672
 21
0.4015855582
 31
0.0
  0
ARC
  5
2AB
330
1F
100
AcDbEntity
  8
0
  6
Continuous
 62
     7
370
    15
100
AcDbCircle
 10
12.9412779641
 20
0.7578668057
 30
0.0
 40
0.1086716965546345
100
AcDbArc
 50
242.6095639072
 51
297.3904360928
  0
LINE
  5
2AC
330
1F
100
AcDbEntity
  8
0
  6
Continuous
 62
     7
370
    15
100
AcDbLine
 10
12.9976555964
 20
0.5170488713
 30
0.0
 11
12.9912725501
 21
0.6613780551
 31
0.0
  0
ARC
  5
2AD
330
1F
100
AcDbEntity
  8
0
  6
Continuous
 62
     7
370
    15
100
AcDbCircle
 10
12.938772877
 20
0.5123209747
 30
0.0
 40
0.1254625213241801
100
AcDbArc
 50
241.9597405792
 51
271.1441110224
  0
LINE
  5
2AE
330
1F
100
AcDbEntity
  8
0
  6
Continuous
 62
     7
370
    15
100
AcDbLine
 10
12.9412780094
 20
0.3868834661
 30
0.0
 11
13.1485013347
 21
0.3178165074
 31
0.0
  0
LINE
  5
2AF
330
1F
100
AcDbEntity
  8
0
  6
Continuous
 62
     7
370
    15
100
AcDbLine
 10
12.8912833781
 20
0.6613780551
 30
0.0
 11
11.2835898193
 21
1.5894797914
 31
0.0
  0
ARC
  5
2B0
330
1F
100
AcDbEntity
  8
0
  6
Continuous
 62
     7
370
    15
100
AcDbCircle
 10
11.2942702904
 20
1.6181805899
 30
0.0
 40
0.0306236559358418
100
AcDbArc
 50
113.8021007029
 51
249.5881808893
  0
ARC
  5
2B1
330
1F
100
AcDbEntity
  8
0
  6
Continuous
 62
     7
370
    15
100
AcDbCircle
 10
14.1108494165
 20
1.3425625119
 30
0.0
 40
0.030623653366
100
AcDbArc
 50
290.4117090154
 51
66.197826221
  0
LINE
  5
2B2
330
1F
100
AcDbEntity
  8
0
  6
Continuous
 62
     7
370
    15
100
AcDbLine
 10
12.9912725501
 20
0.6613780551
 30
0.0
 11
14.1215298316
 21
1.3138616952
 31
0.0
  0
ARC
  5
2B3
330
1F
100
AcDbEntity
  8
0
  6
Continuous
 62
     7
370
    15
100
AcDbCircle
 10
11.3077715433
 20
1.6209199835
 30
0.0
 40
0.0259886771991505
100
AcDbArc
 50
185.6949995353
 51
245.6251281976
  0
LINE
  5
2B4
330
1F
100
AcDbEntity
  8
0
  6
Continuous
 62
     7
370
    15
100
AcDbLine
 10
12.9047394452
 20
0.6691460773
 30
0.0
 11
11.2970458865
 21
1.5972478136
 31
0.0
  0
ARC
  5
2B5
330
1F
100
AcDbEntity
  8
0
  6
Continuous
 62
     7
370
    15
100
AcDbCircle
 10
12.9412779161
 20
0.7396650748
 30
0.0
 40
0.07942284845241
100
AcDbArc
 50
242.6096746119
 51
297.3903664609
  0
LINE
  5
2B6
330
1F
100
AcDbEntity
  8
0
  6
Continuous
 62
     7
370
    15
100
AcDbLine
 10
14.1080737191
 20
1.3216297436
 30
0.0
 11
12.9778164375
 21
0.6691461035
 31
0.0
  0
ARC
  5
2B7
330
1F
100
AcDbEntity
  8
0
  6
Continuous
 62
     7
370
    15
100
AcDbCircle
 10
14.0973484345
 20
1.3453017053
 30
0.0
 40
0.0259883338997
100
AcDbArc
 50
294.3743138048
 51
354.3053283447
  0
LINE
  5
2B8
330
1F
100
AcDbEntity
  8
0
  6
Continuous
 62
     7
370
    15
100
AcDbLine
 10
11.3116613031
 20
1.6591258602
 30
0.0
 11
12.4419185846
 21
2.3116095003
 31
0.0
  0
ARC
  5
2B9
330
1F
100
AcDbEntity
  8
0
  6
Continuous
 62
     7
370
    15
100
AcDbCircle
 10
11.3164646476
 20
1.6464699227
 30
0.0
 40
0.0135367970087206
100
AcDbArc
 50
110.7834008203
 51
249.2165991797
  0
LINE
  5
2BA
330
1F
100
AcDbEntity
  8
0
  6
Continuous
 62
     7
370
    15
100
AcDbLine
 10
12.9193548618
 20
0.7057122489
 30
0.0
 11
11.3116613031
 21
1.6338139852
 31
0.0
  0
ARC
  5
2BB
330
1F
100
AcDbEntity
  8
0
  6
Continuous
 62
     7
370
    15
100
AcDbCircle
 10
12.9412779641
 20
0.7480235173
 30
0.0
 40
0.0476536026404277
100
AcDbArc
 50
242.6095816274
 51
297.3904183726
  0
LINE
  5
2BC
330
1F
100
AcDbEntity
  8
0
  6
Continuous
 62
     7
370
    15
100
AcDbLine
 10
14.0934583478
 20
1.358195889
 30
0.0
 11
12.9632010663
 21
0.7057122489
 31
0.0
  0
ARC
  5
2BD
330
1F
100
AcDbEntity
  8
0
  6
Continuous
 62
     7
370
    15
100
AcDbCircle
 10
14.0886550432
 20
1.3708518265
 30
0.0
 40
0.0135367828594113
100
AcDbArc
 50
290.7832430248
 51
69.2167569752
  0
LINE
  5
2BE
330
1F
100
AcDbEntity
  8
0
  6
Continuous
 62
     7
370
    15
100
AcDbLine
 10
12.4857647891
 20
2.3116095003
 30
0.0
 11
14.0934583478
 21
1.3835077641
 31
0.0
  0
ARC
  5
2BF
330
1F
100
AcDbEntity
  8
0
  6
Continuous
 62
     7
370
    15
100
AcDbCircle
 10
12.4638416868
 20
2.2692980946
 30
0.0
 40
0.0476537246248104
100
AcDbArc
 50
62.6096576208
 51
117.3903423792
  0
ARC
  5
2C0
330
1F
100
AcDbEntity
  8
0
  6
Continuous
 62
     7
370
    15
100
AcDbCircle
 10
11.3050514706
 20
1.646469901
 30
0.0
 40
0.0225613197581136
100
AcDbArc
 50
110.7833129649
 51
249.2165637902
  0
LINE
  5
2C1
330
1F
100
AcDbEntity
  8
0
  6
Continuous
 62
     7
370
    15
100
AcDbLine
 10
11.2970459318
 20
1.6675631344
 30
0.0
 11
12.4273032134
 21
2.3200467746
 31
0.0
  0
ARC
  5
2C2
330
1F
100
AcDbEntity
  8
0
  6
Continuous
 62
     7
370
    15
100
AcDbCircle
 10
12.4638417348
 20
2.2495278033
 30
0.0
 40
0.0794228484524081
100
AcDbArc
 50
62.6096746119
 51
117.3903664609
  0
LINE
  5
2C3
330
1F
100
AcDbEntity
  8
0
  6
Continuous
 62
     7
370
    15
100
AcDbLine
 10
12.5003802057
 20
2.3200468008
 30
0.0
 11
14.1080737644
 21
1.3919450645
 31
0.0
  0
ARC
  5
2C4
330
1F
100
AcDbEntity
  8
0
  6
Continuous
 62
     7
370
    15
100
AcDbCircle
 10
14.1000681803
 20
1.3708518483
 30
0.0
 40
0.0225613197581137
100
AcDbArc
 50
290.7833129649
 51
69.2165637902
  0
LINE
  5
2C5
330
1F
100
AcDbEntity
  8
0
  6
Continuous
 62
     7
370
    15
100
AcDbLine
 10
14.1080737191
 20
1.3497586148
 30
0.0
 11
12.9778164375
 21
0.6972749747
 31
0.0
  0
ARC
  5
2C6
330
1F
100
AcDbEntity
  8
0
  6
Continuous
 62
     7
370
    15
100
AcDbCircle
 10
12.9412779161
 20
0.7677939459
 30
0.0
 40
0.0794228484524078
100
AcDbArc
 50
242.6096746119
 51
297.3903664609
  0
LINE
  5
2C7
330
1F
100
AcDbEntity
  8
0
  6
Continuous
 62
     7
370
    15
100
AcDbLine
 10
12.9047394452
 20
0.6972749485
 30
0.0
 11
11.2970458865
 21
1.6253766847
 31
0.0
  0
LINE
  5
2C8
330
1F
100
AcDbEntity
  8
0
  6
Continuous
 62
     7
370
    15
100
AcDbLine
 10
12.9047394452
 20
0.6691460773
 30
0.0
 11
12.9047394452
 21
0.6972749485
 31
0.0
  0
LINE
  5
2C9
330
1F
100
AcDbEntity
  8
0
  6
Continuous
 62
     7
370
    15
100
AcDbLine
 10
12.9778164375
 20
0.6691461035
 30
0.0
 11
12.9778164375
 21
0.6972749747
 31
0.0
  0
LINE
  5
2CA
330
1F
100
AcDbEntity
  8
0
  6
Continuous
 62
     7
370
    15
100
AcDbLine
 10
11.2835898193
 20
1.5894797914
 30
0.0
 11
11.2721004085
 21
1.3296872945
 31
0.0
  0
LINE
  5
2CB
330
1F
100
AcDbEntity
  8
0
  6
Continuous
 62
     7
370
    15
100
AcDbLine
 10
11.2721004085
 20
1.3296872945
 30
0.0
 11
12.8797939672
 21
0.4015855582
 31
0.0
  0
LINE
  5
2CC
330
1F
100
AcDbEntity
  8
0
  6
Continuous
 62
     7
370
    15
100
AcDbLine
 10
11.2970458865
 20
1.5972478136
 30
0.0
 11
11.2970458865
 21
1.6253766847
 31
0.0
  0
LINE
  5
2CD
330
1F
100
AcDbEntity
  8
0
  6
Continuous
 62
     7
370
    15
100
AcDbLine
 10
14.1080737191
 20
1.3497586148
 30
0.0
 11
14.1080737191
 21
1.3216297436
 31
0.0
  0
ARC
  5
2CE
330
1F
100
AcDbEntity
  8
0
  6
Continuous
 62
     7
370
    15
100
AcDbCircle
 10
14.19786786
 20
0.931887609
 30
0.0
 40
0.0529412931362347
100
AcDbArc
 50
2.6055865187
 51
57.3944829484
  0
LINE
  5
2CF
330
1F
100
AcDbEntity
  8
0
  6
Continuous
 62
     7
370
    15
100
AcDbLine
 10
13.3564183096
 20
0.4180050942
 30
0.0
 11
14.2507544194
 21
0.9342943409
 31
0.0
  0
LINE
  5
2D0
330
1F
100
AcDbEntity
  8
0
  6
Continuous
 62
     7
370
    15
100
AcDbLine
 10
14.1215298316
 20
1.3138616952
 30
0.0
 11
14.1279128779
 21
1.1695325114
 31
0.0
  0
LINE
  5
2D1
330
1F
100
AcDbEntity
  8
0
  6
Continuous
 62
     7
370
    15
100
AcDbLine
 10
14.2507544194
 20
0.9342943409
 30
0.0
 11
14.2507544194
 21
0.8499077339
 31
0.0
  0
LINE
  5
2D2
330
1F
100
AcDbEntity
  8
0
  6
Continuous
 62
     7
370
    15
100
AcDbLine
 10
13.3564183096
 20
0.3336184873
 30
0.0
 11
14.2507544194
 21
0.8499077339
 31
0.0
  0
LINE
  5
2D3
330
1F
100
AcDbEntity
  8
0
  6
Continuous
 62
     7
370
    15
100
AcDbLine
 10
13.4557737573
 20
1.6762943365
 30
0.0
 11
14.0501272535
 21
1.3331813665
 31
0.0
  0
LINE
  5
2D4
330
1F
100
AcDbEntity
  8
0
  6
Continuous
 62
     7
370
    15
100
AcDbLine
 10
13.4844835366
 20
1.6928681394
 30
0.0
 11
13.4557737573
 21
1.6762943365
 31
0.0
  0
LINE
  5
2D5
330
1F
100
AcDbEntity
  8
0
  6
Continuous
 62
     7
370
    15
100
AcDbLine
 10
14.0788370328
 20
1.3497551694
 30
0.0
 11
13.4844835366
 21
1.6928681394
 31
0.0
  0
LINE
  5
2D6
330
1F
100
AcDbEntity
  8
0
  6
Continuous
 62
     7
370
    15
100
AcDbLine
 10
12.4638416868
 20
2.0565063127
 30
0.0
 11
12.5840028225
 21
1.9871387656
 31
0.0
  0
LINE
  5
2D7
330
1F
100
AcDbEntity
  8
0
  6
Continuous
 62
     7
370
    15
100
AcDbLine
 10
12.7057635537
 20
1.9168477916
 30
0.0
 11
13.5583625613
 21
1.4246528612
 31
0.0
  0
LINE
  5
2D8
330
1F
100
AcDbEntity
  8
0
  6
Continuous
 62
     7
370
    15
100
AcDbLine
 10
13.6801232698
 20
1.3543619004
 30
0.0
 11
13.8834701338
 21
1.2369722545
 31
0.0
  0
LINE
  5
2D9
330
1F
100
AcDbEntity
  8
0
  6
Continuous
 62
     7
370
    15
100
AcDbLine
 10
11.5216495171
 20
1.5125903507
 30
0.0
 11
12.4638416868
 21
2.0565063127
 31
0.0
  0
LWPOLYLINE
  5
2DA
330
1F
100
AcDbEntity
  8
0
  6
Continuous
 62
     7
370
    15
100
AcDbPolyline
 90
       19
 70
   128
 43
0.0
 10
12.708462426
 20
1.7906034894
 10
12.7084703207
 20
1.7898672624
 10
12.7064845627
 20
1.7782280243
 10
12.700603514
 20
1.7670361066
 10
12.6910533093
 20
1.7567215951
 10
12.6782008734
 20
1.7476808127
 10
12.6625400595
 20
1.7402612463
 10
12.6446728428
 20
1.7347480174
 10
12.6252857721
 20
1.7313529602
 10
12.6051238584
 20
1.7302066196
 10
12.58496199
 20
1.7313529602
 10
12.5655748967
 20
1.7347480043
 10
12.5477076573
 20
1.7402612463
 10
12.5320468887
 20
1.7476808127
 10
12.5191944301
 20
1.756721582
 10
12.5096441801
 20
1.7670361197
 10
12.5037631994
 20
1.7782280243
 10
12.5017774187
 20
1.7898672494
 10
12.5017852681
 20
1.7906035025
  0
ARC
  5
2DB
330
1F
100
AcDbEntity
  8
0
  6
Continuous
 62
     7
370
    15
100
AcDbCircle
 10
12.8500468078
 20
0.7832605035
 30
0.0
 40
0.0535341403767707
100
AcDbArc
 50
292.6107176575
 51
354.4993368793
  0
ARC
  5
2DC
330
1F
100
AcDbEntity
  8
0
  6
Continuous
 62
     7
370
    15
100
AcDbCircle
 10
11.8756870268
 20
1.3457463851
 30
0.0
 40
0.0535341563610668
100
AcDbArc
 50
292.610785762
 51
354.4993771293
  0
LWPOLYLINE
  5
2DD
330
1F
100
AcDbEntity
  8
0
  6
Continuous
 62
     7
370
    15
100
AcDbPolyline
 90
       19
 70
   128
 43
0.0
 10
13.6828221874
 20
1.228117572
 10
13.6828300822
 20
1.227381345
 10
13.6808442788
 20
1.2157421331
 10
13.6749632754
 20
1.2045501892
 10
13.6654130708
 20
1.1942356776
 10
13.6525605895
 20
1.1851949215
 10
13.6368998209
 20
1.1777753289
 10
13.6190326042
 20
1.1722621
 10
13.5996454882
 20
1.168867069
 10
13.5794836198
 20
1.1677207022
 10
13.5593217061
 20
1.168867069
 10
13.5399346127
 20
1.1722621131
 10
13.5220674187
 20
1.1777753289
 10
13.5064066502
 20
1.1851948953
 10
13.4935541916
 20
1.1942356645
 10
13.4840039415
 20
1.2045502023
 10
13.4781229155
 20
1.2157421331
 10
13.4761371575
 20
1.227381345
 10
13.4761450068
 20
1.2281175982
  0
LWPOLYLINE
  5
2DE
330
1F
100
AcDbEntity
  8
0
  6
Continuous
 62
     7
370
    15
100
AcDbPolyline
 90
       33
 70
   128
 43
0.0
 10
12.8709468722
 20
0.9589961028
 10
12.8834253962
 20
0.9502183746
 10
12.8926978325
 20
0.9402038753
 10
12.8984077601
 20
0.9293375471
 10
12.9003357367
 20
0.9180369425
 10
12.8984077375
 20
0.9067363509
 10
12.8926978325
 20
0.8958700096
 10
12.8834254416
 20
0.8858555365
 10
12.8709468495
 20
0.8770777691
 10
12.855741731
 20
0.8698740706
 10
12.8383942297
 20
0.864521207
 10
12.819571135
 20
0.861224949
 10
12.7999958152
 20
0.8601119388
 10
12.7804204954
 20
0.861224949
 10
12.7615974007
 20
0.864521207
 10
12.7442498995
 20
0.8698740706
 10
12.7290447809
 20
0.8770777691
 10
12.7165662115
 20
0.8858555234
 10
12.7072938206
 20
0.8958699965
 10
12.701583893
 20
0.9067363509
 10
12.6996558937
 20
0.9180369425
 10
12.7015838703
 20
0.9293375471
 10
12.7072937979
 20
0.9402038753
 10
12.7165662342
 20
0.9502183746
 10
12.7290447582
 20
0.9589961028
 10
12.7442499448
 20
0.9661998406
 10
12.7615974007
 20
0.9715526779
 10
12.7804204728
 20
0.974848949
 10
12.7999958152
 20
0.9759619462
 10
12.8195711577
 20
0.974848949
 10
12.8383942524
 20
0.9715526648
 10
12.8557417083
 20
0.9661998275
 10
12.8709468722
 20
0.9589961028
  0
LWPOLYLINE
  5
2DF
330
1F
100
AcDbEntity
  8
0
  6
Continuous
 62
     7
370
    15
100
AcDbPolyline
 90
       20
 70
   128
 43
0.0
 10
12.7735108598
 20
0.9333263687
 10
12.7835455484
 20
0.9374624199
 10
12.7953628412
 20
0.9394934221
 10
12.8076821996
 20
0.939199277
 10
12.8191686385
 20
0.9366118614
 10
12.8285773728
 20
0.9320115692
 10
12.8348888899
 20
0.9258969014
 10
12.8374191819
 20
0.9189304964
 10
12.8358940648
 20
0.9118672567
 10
12.8304788293
 20
0.9054726142
 10
12.821760251
 20
0.9004394861
 10
12.8106831824
 20
0.8973133241
 10
12.7984479893
 20
0.8964329058
 10
12.7863804918
 20
0.8978935992
 10
12.7757884515
 20
0.9015371736
 10
12.7678196481
 20
0.9069687203
 10
12.7633376046
 20
0.9135996872
 10
12.7628280752
 20
0.9207115015
 10
12.766346278
 20
0.9275334925
 10
12.7735108598
 20
0.9333263687
  0
ARC
  5
2E0
330
1F
100
AcDbEntity
  8
0
  6
Continuous
 62
     7
370
    15
100
AcDbCircle
 10
14.216292914
 20
0.9278887934
 30
0.0
 40
0.0852563251620378
100
AcDbArc
 50
293.8416650687
 51
354.8382548574
  0
LINE
  5
2E1
330
1F
100
AcDbEntity
  8
0
  6
Continuous
 62
     7
370
    15
100
AcDbLine
 10
12.4419185846
 20
2.2694162001
 30
0.0
 11
11.3262826181
 21
1.6253732655
 31
0.0
  0
ARC
  5
2E2
330
1F
100
AcDbEntity
  8
0
  6
Continuous
 62
     7
370
    15
100
AcDbCircle
 10
12.4638416868
 20
2.2271047944
 30
0.0
 40
0.0476537246248111
100
AcDbArc
 50
62.6096576208
 51
117.3903423792
  0
LINE
  5
2E3
330
1F
100
AcDbEntity
  8
0
  6
Continuous
 62
     7
370
    15
100
AcDbLine
 10
13.0947396343
 20
1.917862505
 30
0.0
 11
12.4857647891
 21
2.2694162001
 31
0.0
  0
LINE
  5
2E4
330
1F
100
AcDbEntity
  8
0
  6
Continuous
 62
     7
370
    15
100
AcDbLine
 10
13.066029855
 20
1.9012887022
 30
0.0
 11
13.0947396343
 21
1.917862505
 31
0.0
  0
LINE
  5
2E5
330
1F
100
AcDbEntity
  8
0
  6
Continuous
 62
     7
370
    15
100
AcDbLine
 10
12.4638416868
 20
2.248924532
 30
0.0
 11
13.066029855
 21
1.9012887022
 31
0.0
  0
LINE
  5
2E6
330
1F
100
AcDbEntity
  8
0
  6
Continuous
 62
     7
370
    15
100
AcDbLine
 10
11.3549923974
 20
1.6087994627
 30
0.0
 11
12.4638416868
 21
2.248924532
 31
0.0
  0
ARC
  5
2E7
330
1F
100
AcDbEntity
  8
0
  6
Continuous
 62
     7
370
    15
100
AcDbCircle
 10
14.1588954373
 20
1.1702143466
 30
0.0
 40
0.0200941307196618
100
AcDbArc
 50
110.4281060511
 51
152.0244809071
  0
LINE
  5
2E8
330
1F
100
AcDbEntity
  8
0
  6
Continuous
 62
     7
370
    15
100
AcDbLine
 10
13.4844835366
 20
1.6928681394
 30
0.0
 11
13.0947396343
 21
1.917862505
 31
0.0
  0
LINE
  5
2E9
330
1F
100
AcDbEntity
  8
0
  6
Continuous
 62
     7
370
    15
100
AcDbLine
 10
12.4857647891
 20
2.2694162001
 30
0.0
 11
12.4857647891
 21
2.3116095003
 31
0.0
  0
LINE
  5
2EA
330
1F
100
AcDbEntity
  8
0
  6
Continuous
 62
     7
370
    15
100
AcDbLine
 10
12.4638416868
 20
2.248924532
 30
0.0
 11
12.4638416868
 21
2.0565063127
 31
0.0
  0
LINE
  5
2EB
330
1F
100
AcDbEntity
  8
0
  6
Continuous
 62
     7
370
    15
100
AcDbLine
 10
13.0634766274
 20
1.8435570211
 30
0.0
 11
13.066029855
 21
1.9012887022
 31
0.0
  0
LINE
  5
2EC
330
1F
100
AcDbEntity
  8
0
  6
Continuous
 62
     7
370
    15
100
AcDbLine
 10
13.4532205297
 20
1.6185626555
 30
0.0
 11
13.0634766274
 21
1.8435570211
 31
0.0
  0
LINE
  5
2ED
330
1F
100
AcDbEntity
  8
0
  6
Continuous
 62
     7
370
    15
100
AcDbLine
 10
13.4557737573
 20
1.6762943365
 30
0.0
 11
13.4532205297
 21
1.6185626555
 31
0.0
  0
LWPOLYLINE
  5
2EE
330
1F
100
AcDbEntity
  8
0
  6
Continuous
 62
     7
370
    15
100
AcDbPolyline
 90
       33
 70
   128
 43
0.0
 10
13.6504346769
 20
1.4089848341
 10
13.6629132008
 20
1.400207106
 10
13.6721856371
 20
1.3901926066
 10
13.6778955421
 20
1.3793262654
 10
13.6798235413
 20
1.3680256738
 10
13.6778955421
 20
1.3567250822
 10
13.6721856371
 20
1.345858741
 10
13.6629132008
 20
1.3358442416
 10
13.6504346769
 20
1.3270665135
 10
13.6352294902
 20
1.3198627757
 10
13.6178820343
 20
1.3145099383
 10
13.5990589396
 20
1.3112136804
 10
13.5794836198
 20
1.3101006701
 10
13.5599082774
 20
1.3112136673
 10
13.5410852054
 20
1.3145099383
 10
13.5237377041
 20
1.3198628019
 10
13.5085325855
 20
1.3270665004
 10
13.4960540162
 20
1.3358442547
 10
13.4867816252
 20
1.3458587279
 10
13.4810716749
 20
1.3567250692
 10
13.4791436983
 20
1.3680256738
 10
13.4810716749
 20
1.3793262785
 10
13.4867816025
 20
1.3901926066
 10
13.4960539935
 20
1.4002070798
 10
13.5085325855
 20
1.4089848472
 10
13.5237377041
 20
1.4161885457
 10
13.5410852054
 20
1.4215414093
 10
13.5599082774
 20
1.4248376803
 10
13.5794836198
 20
1.4259506775
 10
13.5990589396
 20
1.4248376672
 10
13.617882057
 20
1.4215413962
 10
13.6352295129
 20
1.4161885588
 10
13.6504346769
 20
1.4089848341
  0
LWPOLYLINE
  5
2EF
330
1F
100
AcDbEntity
  8
0
  6
Continuous
 62
     7
370
    15
100
AcDbPolyline
 90
       20
 70
   128
 43
0.0
 10
13.5529986871
 20
1.3833151131
 10
13.5630333303
 20
1.3874511382
 10
13.5748506458
 20
1.3894821534
 10
13.5871700042
 20
1.3891880083
 10
13.5986564205
 20
1.3866005797
 10
13.6080651547
 20
1.3820002874
 10
13.6143766946
 20
1.3758856327
 10
13.6169069639
 20
1.3689192147
 10
13.6153818694
 20
1.3618559881
 10
13.6099666113
 20
1.3554613325
 10
13.6012480329
 20
1.3504282043
 10
13.590170987
 20
1.3473020554
 10
13.5779357712
 20
1.346421624
 10
13.5658682964
 20
1.3478823305
 10
13.5552762335
 20
1.3515258918
 10
13.5473074301
 20
1.3569574385
 10
13.5428254092
 20
1.3635884186
 10
13.5423158799
 20
1.3707002328
 10
13.5458340599
 20
1.3775222107
 10
13.5529986871
 20
1.3833151131
  0
LWPOLYLINE
  5
2F0
330
1F
100
AcDbEntity
  8
0
  6
Continuous
 62
     7
370
    15
100
AcDbPolyline
 90
       33
 70
   128
 43
0.0
 10
11.8965871108
 20
1.5214820202
 10
11.9090656801
 20
1.5127042659
 10
11.918338071
 20
1.5026897927
 10
11.9240479987
 20
1.4918234646
 10
11.9259759752
 20
1.4805228599
 10
11.9240480214
 20
1.4692222422
 10
11.918338071
 20
1.4583559271
 10
11.9090656801
 20
1.4483414539
 10
11.8965870881
 20
1.4395636865
 10
11.8813819695
 20
1.432359988
 10
11.8640344682
 20
1.4270071245
 10
11.8452114189
 20
1.4237108403
 10
11.8256360538
 20
1.4225978562
 10
11.806060734
 20
1.4237108665
 10
11.7872376393
 20
1.4270071245
 10
11.7698901834
 20
1.4323599618
 10
11.7546850194
 20
1.4395636865
 10
11.7422064501
 20
1.4483414408
 10
11.7329340592
 20
1.458355914
 10
11.7272241542
 20
1.4692222553
 10
11.725296155
 20
1.4805228468
 10
11.7272241542
 20
1.4918234384
 10
11.7329340592
 20
1.5026897797
 10
11.7422064955
 20
1.512704279
 10
11.7546850194
 20
1.5214820071
 10
11.7698902061
 20
1.5286857449
 10
11.787237662
 20
1.5340385823
 10
11.8060607567
 20
1.5373348403
 10
11.8256360764
 20
1.5384478505
 10
11.8452114189
 20
1.5373348534
 10
11.8640344909
 20
1.5340385823
 10
11.8813819468
 20
1.5286857449
 10
11.8965871108
 20
1.5214820202
  0
LWPOLYLINE
  5
2F1
330
1F
100
AcDbEntity
  8
0
  6
Continuous
 62
     7
370
    15
100
AcDbPolyline
 90
       20
 70
   128
 43
0.0
 10
11.7991511437
 20
1.4958122599
 10
11.8091858323
 20
1.4999483112
 10
11.8210031251
 20
1.5019793133
 10
11.8333224835
 20
1.5016851682
 10
11.8448089225
 20
1.4990977527
 10
11.8542176567
 20
1.4944974604
 10
11.8605291285
 20
1.4883828188
 10
11.8630594205
 20
1.4814164139
 10
11.8615343034
 20
1.4743531742
 10
11.8561190679
 20
1.4679585317
 10
11.8474004895
 20
1.4629254035
 10
11.8363234209
 20
1.4597992415
 10
11.8240882279
 20
1.4589188233
 10
11.8120207303
 20
1.4603795166
 10
11.8014287355
 20
1.4640230648
 10
11.7934599321
 20
1.4694546115
 10
11.7889778885
 20
1.4760855785
 10
11.7884683592
 20
1.4831973927
 10
11.7919865619
 20
1.4900193837
 10
11.7991511437
 20
1.4958122599
  0
ARC
  5
2F2
330
1F
100
AcDbEntity
  8
0
  6
Continuous
 62
     7
370
    15
100
AcDbCircle
 10
10.9055448113
 20
1.463699856
 30
0.0
 40
0.3477811593408637
100
AcDbArc
 50
356.6603352317
 51
0.7475461738
  0
LINE
  5
2F3
330
1F
100
AcDbEntity
  8
0
  6
Continuous
 62
     7
370
    15
100
AcDbLine
 10
11.2527353433
 20
1.4434398204
 30
0.0
 11
11.2466329691
 21
1.3651812242
 31
0.0
  0
ARC
  5
2F4
330
1F
100
AcDbEntity
  8
0
  6
Continuous
 62
     7
370
    15
100
AcDbCircle
 10
11.2901480804
 20
1.3695203803
 30
0.0
 40
0.0437309179730717
100
AcDbArc
 50
185.6944860695
 51
245.6255542227
  0
LINE
  5
2F5
330
1F
100
AcDbEntity
  8
0
  6
Continuous
 62
     7
370
    15
100
AcDbLine
 10
12.4419185846
 20
2.2694162001
 30
0.0
 11
12.4419185846
 21
2.3116095003
 31
0.0
  0
LINE
  5
2F6
330
1F
100
AcDbEntity
  8
0
  6
Continuous
 62
     7
370
    15
100
AcDbLine
 10
11.2527333016
 20
1.4434423546
 30
0.0
 11
11.1269925244
 21
1.5691953105
 31
0.0
  0
ARC
  5
2F7
330
1F
100
AcDbEntity
  8
0
  6
Continuous
 62
     7
370
    15
100
AcDbCircle
 10
11.1706171236
 20
1.5657359543
 30
0.0
 40
0.043761544780236
100
AcDbArc
 50
108.3693682429
 51
175.4660302398
  0
LINE
  5
2F8
330
1F
100
AcDbEntity
  8
0
  6
Continuous
 62
     7
370
    15
100
AcDbLine
 10
11.1269925244
 20
1.5691953105
 30
0.0
 11
11.1269925244
 21
1.4848087035
 31
0.0
  0
LINE
  5
2F9
330
1F
100
AcDbEntity
  8
0
  6
Continuous
 62
     7
370
    15
100
AcDbLine
 10
11.1269925244
 20
1.4848087035
 30
0.0
 11
11.2466329691
 21
1.3651812242
 31
0.0
  0
LWPOLYLINE
  5
2FA
330
1F
100
AcDbEntity
  8
0
  6
Continuous
 62
     7
370
    15
100
AcDbPolyline
 90
       15
 70
   128
 43
0.0
 10
11.6616816459
 20
1.8780628996
 10
11.6576988719
 20
1.8813799514
 10
11.6501680687
 20
1.8904074933
 10
11.6463058628
 20
1.9001760734
 10
11.646305789
 20
1.9101959259
 10
11.6501680687
 20
1.9199644864
 10
11.6576988365
 20
1.928992034
 10
11.6685205634
 20
1.9368258336
 10
11.6820905728
 20
1.9430730836
 10
11.6977284383
 20
1.9474205033
 10
11.7146499148
 20
1.9496501499
 10
11.7320066891
 20
1.9496501073
 10
11.7489281996
 20
1.9474205033
 10
11.7645660552
 20
1.9430730631
 10
11.77031198
 20
1.9407738567
  0
LWPOLYLINE
  5
2FB
330
1F
100
AcDbEntity
  8
0
  6
Continuous
 62
     7
370
    15
100
AcDbPolyline
 90
        8
 70
   128
 43
0.0
 10
11.1787242743
 20
1.7032899661
 10
11.1645062724
 20
1.6936674681
 10
11.1531289762
 20
1.6828650634
 10
11.1444692002
 20
1.6704825524
 10
11.1395438253
 20
1.6574244246
 10
11.1384461366
 20
1.6440858767
 10
11.1412601634
 20
1.6308208258
 10
11.156826036
 20
1.6072676134
  0
LINE
  5
2FC
330
1F
100
AcDbEntity
  8
0
  6
Continuous
 62
     7
370
    15
100
AcDbLine
 10
12.0730603841
 20
2.2195792128
 30
0.0
 11
11.1787242743
 21
1.7032899661
 31
0.0
  0
ARC
  5
2FD
330
1F
100
AcDbEntity
  8
0
  6
Continuous
 62
     7
370
    15
100
AcDbCircle
 10
12.1713148858
 20
2.0273813177
 30
0.0
 40
0.2158563827696415
100
AcDbArc
 50
71.6155931237
 51
117.0768124765
  0
LINE
  5
2FE
330
1F
100
AcDbEntity
  8
0
  6
Continuous
 62
     7
370
    15
100
AcDbLine
 10
13.1138064229
 20
1.8726117936
 30
0.0
 11
13.1121663554
 21
1.9078022609
 31
0.0
  0
LINE
  5
2FF
330
1F
100
AcDbEntity
  8
0
  6
Continuous
 62
     7
370
    15
100
AcDbLine
 10
13.4557264738
 20
1.6752255497
 30
0.0
 11
13.1138064229
 21
1.8726117936
 31
0.0
  0
LINE
  5
300
330
1F
100
AcDbEntity
  8
0
  6
Continuous
 62
     7
370
    15
100
AcDbLine
 10
13.1138064229
 20
1.8726117936
 30
0.0
 11
13.0634766274
 21
1.8435570211
 31
0.0
  0
ARC
  5
301
330
1F
100
AcDbEntity
  8
0
  6
Continuous
 62
     7
370
    15
100
AcDbCircle
 10
11.1732843726
 20
1.5365092684
 30
0.0
 40
0.0693965677440543
100
AcDbArc
 50
181.6377308639
 51
228.1592497726
  0
LWPOLYLINE
  5
302
330
1F
100
AcDbEntity
  8
0
  6
Continuous
 62
     7
370
    15
100
AcDbPolyline
 90
       33
 70
   128
 43
0.0
 10
12.6760749154
 20
1.9714707515
 10
12.6885534847
 20
1.9626929972
 10
12.6978258757
 20
1.9526785241
 10
12.7035357806
 20
1.9418121828
 10
12.7054637799
 20
1.9305115912
 10
12.703535826
 20
1.9192109735
 10
12.6978258757
 20
1.9083446584
 10
12.6885534394
 20
1.8983301591
 10
12.6760749154
 20
1.889552431
 10
12.6608697288
 20
1.8823486931
 10
12.6435222728
 20
1.8769958558
 10
12.6246992235
 20
1.8736995716
 10
12.6051238584
 20
1.8725865875
 10
12.5855485159
 20
1.8736995847
 10
12.5667254439
 20
1.8769958558
 10
12.549377988
 20
1.8823486931
 10
12.534172824
 20
1.8895524179
 10
12.5216942547
 20
1.8983301722
 10
12.5124218638
 20
1.9083446453
 10
12.5067119361
 20
1.9192109735
 10
12.5047839596
 20
1.9305115781
 10
12.5067119588
 20
1.9418121697
 10
12.5124218638
 20
1.952678511
 10
12.5216942547
 20
1.9626929841
 10
12.5341728467
 20
1.9714707515
 10
12.5493779653
 20
1.9786744501
 10
12.5667254666
 20
1.9840273136
 10
12.5855485613
 20
1.9873235716
 10
12.6051238811
 20
1.9884365819
 10
12.6246992008
 20
1.9873235716
 10
12.6435222955
 20
1.9840273136
 10
12.6608697514
 20
1.9786744763
 10
12.6760749154
 20
1.9714707515
  0
LWPOLYLINE
  5
303
330
1F
100
AcDbEntity
  8
0
  6
Continuous
 62
     7
370
    15
100
AcDbPolyline
 90
       20
 70
   128
 43
0.0
 10
12.578638971
 20
1.9458010044
 10
12.5886736143
 20
1.9499370294
 10
12.6004909297
 20
1.9519680446
 10
12.6128102881
 20
1.9516738996
 10
12.6242967044
 20
1.9490864709
 10
12.6337054387
 20
1.9444861786
 10
12.6400169331
 20
1.9383715502
 10
12.6425472024
 20
1.9314051321
 10
12.641022108
 20
1.9243419055
 10
12.6356068498
 20
1.9179472499
 10
12.6268882715
 20
1.9129141218
 10
12.6158112255
 20
1.9097879729
 10
12.6035760098
 20
1.9089075415
 10
12.5915085349
 20
1.910368248
 10
12.5809165174
 20
1.9140117831
 10
12.572947714
 20
1.9194433297
 10
12.5684656931
 20
1.9260743098
 10
12.5679561638
 20
1.933186124
 10
12.5714743438
 20
1.9400081019
 10
12.578638971
 20
1.9458010044
  0
LINE
  5
304
330
1F
100
AcDbEntity
  8
0
  6
Continuous
 62
     8
370
    15
100
AcDbLine
 10
12.9607651711
 20
2.1761376645
 30
0.0
 11
12.9607651711
 21
2.1914310823
 31
0.0
  0
LINE
  5
305
330
1F
100
AcDbEntity
  8
0
  6
Continuous
 62
     8
370
    15
100
AcDbLine
 10
12.921790757
 20
2.1914310823
 30
0.0
 11
12.921790757
 21
2.1761376645
 31
0.0
  0
ARC
  5
306
330
1F
100
AcDbEntity
  8
0
  6
Continuous
 62
     8
370
    15
100
AcDbCircle
 10
14.0901859047
 20
3.4049336562
 30
0.0
 40
0.0167305562512012
100
AcDbArc
 50
292.429307571
 51
359.1240373439
  0
ARC
  5
307
330
1F
100
AcDbEntity
  8
0
  6
Continuous
 62
     8
370
    15
100
AcDbCircle
 10
14.0822553734
 20
3.4177144894
 30
0.0
 40
0.0166244818754715
100
AcDbArc
 50
64.36174685
 51
127.0294538853
  0
ARC
  5
308
330
1F
100
AcDbEntity
  8
0
  6
Continuous
 62
     8
370
    15
100
AcDbCircle
 10
12.4746121105
 20
4.3452928723
 30
0.0
 40
0.0170747930898859
100
AcDbArc
 50
65.2036772949
 51
126.1065489804
  0
LINE
  5
309
330
1F
100
AcDbEntity
  8
0
  6
Continuous
 62
     8
370
    15
100
AcDbLine
 10
14.0910224526
 20
2.8370654517
 30
0.0
 11
14.0910224526
 21
2.8286213047
 31
0.0
  0
LINE
  5
30A
330
1F
100
AcDbEntity
  8
0
  6
Continuous
 62
     8
370
    15
100
AcDbLine
 10
11.3140971983
 20
3.1042394008
 30
0.0
 11
11.3140971983
 21
3.1126835478
 31
0.0
  0
ARC
  5
30B
330
1F
100
AcDbEntity
  8
0
  6
Continuous
 62
     8
370
    15
100
AcDbCircle
 10
11.3153783686
 20
3.6808541299
 30
0.0
 40
0.0171822451588757
100
AcDbArc
 50
181.861448056
 51
246.5848815369
  0
ARC
  5
30C
330
1F
100
AcDbEntity
  8
0
  6
Continuous
 62
     8
370
    15
100
AcDbCircle
 10
11.3228148853
 20
3.6928132745
 30
0.0
 40
0.0170709947247544
100
AcDbArc
 50
53.8879063421
 51
114.8184721423
  0
ARC
  5
30D
330
1F
100
AcDbEntity
  8
0
  6
Continuous
 62
     8
370
    15
100
AcDbCircle
 10
12.4531239785
 20
4.3458248099
 30
0.0
 40
0.0166161721335382
100
AcDbArc
 50
52.9593804018
 51
115.7305362994
  0
ARC
  5
30E
330
1F
100
AcDbEntity
  8
0
  6
Continuous
 62
     8
370
    15
100
AcDbCircle
 10
14.2574764389
 20
1.0512511718
 30
0.0
 40
0.0231552522770577
100
AcDbArc
 50
49.0947592997
 51
113.3643195541
  0
ARC
  5
30F
330
1F
100
AcDbEntity
  8
0
  6
Continuous
 62
     8
370
    15
100
AcDbCircle
 10
14.2140882743
 20
1.0139533462
 30
0.0
 40
0.0876924359803855
100
AcDbArc
 50
294.7160841881
 51
353.3958688779
  0
LINE
  5
310
330
1F
100
AcDbEntity
  8
0
  6
Continuous
 62
     8
370
    15
100
AcDbLine
 10
14.0934583478
 20
1.3835077641
 30
0.0
 11
14.0934583478
 21
1.3581958943
 31
0.0
  0
LINE
  5
311
330
1F
100
AcDbEntity
  8
0
  6
Continuous
 62
     8
370
    15
100
AcDbLine
 10
11.3116613031
 20
1.6338139904
 30
0.0
 11
11.3116613031
 21
1.6591258602
 31
0.0
  0
LINE
  5
312
330
1F
100
AcDbEntity
  8
0
  6
Continuous
 62
     8
370
    15
100
AcDbLine
 10
11.156826036
 20
1.6072676134
 30
0.0
 11
11.2557676102
 21
1.5083367869
 31
0.0
  0
LINE
  5
313
330
1F
100
AcDbEntity
  8
0
  6
Continuous
 62
     8
370
    15
100
AcDbLine
 10
12.2620735472
 20
2.2246617667
 30
0.0
 11
12.2393940003
 21
2.2322207966
 31
0.0
  0
ARC
  5
314
330
1F
100
AcDbEntity
  8
0
  6
Continuous
 62
     8
370
    15
100
AcDbCircle
 10
11.173146143
 20
1.6208025255
 30
0.0
 40
0.0692348262076441
100
AcDbArc
 50
180.9541398622
 51
228.1929405616
  0
ARC
  5
315
330
1F
100
AcDbEntity
  8
0
  6
Continuous
 62
     8
370
    15
100
AcDbCircle
 10
11.1686325313
 20
1.6892017618
 30
0.0
 40
0.0173297656145379
100
AcDbArc
 50
54.3850011294
 51
114.2769272897
  0
ARC
  5
316
330
1F
100
AcDbEntity
  8
0
  6
Continuous
 62
     8
370
    15
100
AcDbCircle
 10
12.0629696538
 20
2.2054938409
 30
0.0
 40
0.0173268733021221
100
AcDbArc
 50
54.3822691389
 51
114.3073023482
  0
ARC
  5
317
330
1F
100
AcDbEntity
  8
0
  6
Continuous
 62
     8
370
    15
100
AcDbCircle
 10
12.2484640258
 20
2.2258266599
 30
0.0
 40
0.0110973126414908
100
AcDbArc
 50
80.547003337
 51
144.8171390033
  0
LINE
  5
318
330
1F
100
AcDbEntity
  8
0
  6
Continuous
 62
     7
370
    15
100
AcDbLine
 10
3.3313320447
 20
3.2980184609
 30
0.0
 11
3.3278959777
 21
3.4948688491
 31
0.0
  0
LINE
  5
319
330
1F
100
AcDbEntity
  8
0
  6
Continuous
 62
     7
370
    15
100
AcDbLine
 10
3.0985476005
 20
3.4948688491
 30
0.0
 11
3.0951115335
 21
3.2980184609
 31
0.0
  0
LINE
  5
31A
330
1F
100
AcDbEntity
  8
0
  6
Continuous
 62
     7
370
    15
100
AcDbLine
 10
4.9061351591
 20
3.2980184609
 30
0.0
 11
4.9026991655
 21
3.4948688491
 31
0.0
  0
LINE
  5
31B
330
1F
100
AcDbEntity
  8
0
  6
Continuous
 62
     7
370
    15
100
AcDbLine
 10
4.6733507516
 20
3.4948688491
 30
0.0
 11
4.6699147213
 21
3.2980184609
 31
0.0
  0
LINE
  5
31C
330
1F
100
AcDbEntity
  8
0
  6
Continuous
 62
     7
370
    15
100
AcDbLine
 10
5.6717715611
 20
3.2192782905
 30
0.0
 11
5.6717715611
 21
3.376758613
 31
0.0
  0
LINE
  5
31D
330
1F
100
AcDbEntity
  8
0
  6
Continuous
 62
     7
370
    15
100
AcDbLine
 10
5.7801509624
 20
3.2192782905
 30
0.0
 11
5.6717715611
 21
3.2192782905
 31
0.0
  0
LINE
  5
31E
330
1F
100
AcDbEntity
  8
0
  6
Continuous
 62
     7
370
    15
100
AcDbLine
 10
5.7801509624
 20
3.337388537
 30
0.0
 11
5.7801509624
 21
3.2192782905
 31
0.0
  0
LINE
  5
31F
330
1F
100
AcDbEntity
  8
0
  6
Continuous
 62
     7
370
    15
100
AcDbLine
 10
5.7407808039
 20
3.376758613
 30
0.0
 11
5.6717715611
 21
3.376758613
 31
0.0
  0
ARC
  5
320
330
1F
100
AcDbEntity
  8
0
  6
Continuous
 62
     7
370
    15
100
AcDbCircle
 10
5.7407808522
 20
3.3373885343
 30
0.0
 40
0.0393700787401574
100
AcDbArc
 50
0.0
 51
90.0
  0
LINE
  5
321
330
1F
100
AcDbEntity
  8
0
  6
Continuous
 62
     7
370
    15
100
AcDbLine
 10
2.3294752782
 20
3.376758613
 30
0.0
 11
2.3294752782
 21
3.2192782905
 31
0.0
  0
LINE
  5
322
330
1F
100
AcDbEntity
  8
0
  6
Continuous
 62
     7
370
    15
100
AcDbLine
 10
2.3294752782
 20
3.2192782905
 30
0.0
 11
2.2210958769
 21
3.2192782905
 31
0.0
  0
LINE
  5
323
330
1F
100
AcDbEntity
  8
0
  6
Continuous
 62
     7
370
    15
100
AcDbLine
 10
2.2210958769
 20
3.337388537
 30
0.0
 11
2.2210958769
 21
3.2192782905
 31
0.0
  0
LINE
  5
324
330
1F
100
AcDbEntity
  8
0
  6
Continuous
 62
     7
370
    15
100
AcDbLine
 10
2.3294752782
 20
3.376758613
 30
0.0
 11
2.2604658888
 21
3.376758613
 31
0.0
  0
ARC
  5
325
330
1F
100
AcDbEntity
  8
0
  6
Continuous
 62
     7
370
    15
100
AcDbCircle
 10
2.2604658916
 20
3.3373885343
 30
0.0
 40
0.0393700787401574
100
AcDbArc
 50
90.0
 51
180.0
  0
LINE
  5
326
330
1F
100
AcDbEntity
  8
0
  6
Continuous
 62
     7
370
    15
100
AcDbLine
 10
5.3352690217
 20
3.5539239689
 30
0.0
 11
5.2888670111
 21
3.5539239689
 31
0.0
  0
LINE
  5
327
330
1F
100
AcDbEntity
  8
0
  6
Continuous
 62
     7
370
    15
100
AcDbLine
 10
5.3352690217
 20
3.5539239689
 30
0.0
 11
5.3352690217
 21
3.6129790875
 31
0.0
  0
LINE
  5
328
330
1F
100
AcDbEntity
  8
0
  6
Continuous
 62
     7
370
    15
100
AcDbLine
 10
5.3588910288
 20
3.6129790875
 30
0.0
 11
5.3352690217
 21
3.6129790875
 31
0.0
  0
LINE
  5
329
330
1F
100
AcDbEntity
  8
0
  6
Continuous
 62
     7
370
    15
100
AcDbLine
 10
5.3588910288
 20
3.5736090023
 30
0.0
 11
5.3588910288
 21
3.6129790875
 31
0.0
  0
LINE
  5
32A
330
1F
100
AcDbEntity
  8
0
  6
Continuous
 62
     7
370
    15
100
AcDbLine
 10
5.3806393909
 20
3.5736090023
 30
0.0
 11
5.3588910288
 21
3.5736090023
 31
0.0
  0
LINE
  5
32B
330
1F
100
AcDbEntity
  8
0
  6
Continuous
 62
     7
370
    15
100
AcDbLine
 10
5.4948295118
 20
3.376758613
 30
0.0
 11
5.4948295118
 21
3.2192782905
 31
0.0
  0
LINE
  5
32C
330
1F
100
AcDbEntity
  8
0
  6
Continuous
 62
     7
370
    15
100
AcDbLine
 10
2.5064171809
 20
3.2192782905
 30
0.0
 11
2.5064171809
 21
3.376758613
 31
0.0
  0
LINE
  5
32D
330
1F
100
AcDbEntity
  8
0
  6
Continuous
 62
     7
370
    15
100
AcDbLine
 10
2.6423556638
 20
3.5736090023
 30
0.0
 11
2.6206073017
 21
3.5736090023
 31
0.0
  0
LINE
  5
32E
330
1F
100
AcDbEntity
  8
0
  6
Continuous
 62
     7
370
    15
100
AcDbLine
 10
2.6423556638
 20
3.6129790875
 30
0.0
 11
2.6423556638
 21
3.5736090023
 31
0.0
  0
LINE
  5
32F
330
1F
100
AcDbEntity
  8
0
  6
Continuous
 62
     7
370
    15
100
AcDbLine
 10
2.6659776709
 20
3.6129790875
 30
0.0
 11
2.6423556638
 21
3.6129790875
 31
0.0
  0
LINE
  5
330
330
1F
100
AcDbEntity
  8
0
  6
Continuous
 62
     7
370
    15
100
AcDbLine
 10
2.6659776709
 20
3.6129790875
 30
0.0
 11
2.6659776709
 21
3.5539239689
 31
0.0
  0
LINE
  5
331
330
1F
100
AcDbEntity
  8
0
  6
Continuous
 62
     7
370
    15
100
AcDbLine
 10
2.7123796816
 20
3.5539239689
 30
0.0
 11
2.6659776709
 21
3.5539239689
 31
0.0
  0
LINE
  5
332
330
1F
100
AcDbEntity
  8
0
  6
Continuous
 62
     7
370
    15
100
AcDbLine
 10
2.7257911666
 20
3.2980184609
 30
0.0
 11
2.7123796816
 21
3.5539239689
 31
0.0
  0
LINE
  5
333
330
1F
100
AcDbEntity
  8
0
  6
Continuous
 62
     7
370
    15
100
AcDbLine
 10
5.2754555994
 20
3.2980184609
 30
0.0
 11
2.7257911666
 21
3.2980184609
 31
0.0
  0
LINE
  5
334
330
1F
100
AcDbEntity
  8
0
  6
Continuous
 62
     7
370
    15
100
AcDbLine
 10
5.2888670111
 20
3.5539239689
 30
0.0
 11
5.2754555994
 21
3.2980184609
 31
0.0
  0
LINE
  5
335
330
1F
100
AcDbEntity
  8
0
  6
Continuous
 62
     7
370
    15
100
AcDbLine
 10
2.6206073017
 20
3.5736090023
 30
0.0
 11
2.6102908876
 21
3.376758613
 31
0.0
  0
LINE
  5
336
330
1F
100
AcDbEntity
  8
0
  6
Continuous
 62
     7
370
    15
100
AcDbLine
 10
5.4948295118
 20
3.2192782905
 30
0.0
 11
2.5064171809
 21
3.2192782905
 31
0.0
  0
LINE
  5
337
330
1F
100
AcDbEntity
  8
0
  6
Continuous
 62
     7
370
    15
100
AcDbLine
 10
5.3909559518
 20
3.376758613
 30
0.0
 11
5.3806393909
 21
3.5736090023
 31
0.0
  0
LINE
  5
338
330
1F
100
AcDbEntity
  8
0
  6
Continuous
 62
     7
370
    15
100
AcDbLine
 10
5.4948295118
 20
3.376758613
 30
0.0
 11
5.3909559518
 21
3.376758613
 31
0.0
  0
LINE
  5
339
330
1F
100
AcDbEntity
  8
0
  6
Continuous
 62
     7
370
    15
100
AcDbLine
 10
2.6102908876
 20
3.376758613
 30
0.0
 11
2.5064171809
 21
3.376758613
 31
0.0
  0
LINE
  5
33A
330
1F
100
AcDbEntity
  8
0
  6
Continuous
 62
     7
370
    15
100
AcDbLine
 10
2.3294752782
 20
3.2192782905
 30
0.0
 11
2.5064171809
 21
3.2192782905
 31
0.0
  0
LINE
  5
33B
330
1F
100
AcDbEntity
  8
0
  6
Continuous
 62
     7
370
    15
100
AcDbLine
 10
2.3294752782
 20
3.376758613
 30
0.0
 11
2.5064171809
 21
3.376758613
 31
0.0
  0
LINE
  5
33C
330
1F
100
AcDbEntity
  8
0
  6
Continuous
 62
     7
370
    15
100
AcDbLine
 10
5.4948295118
 20
3.2192782905
 30
0.0
 11
5.6717715611
 21
3.2192782905
 31
0.0
  0
LINE
  5
33D
330
1F
100
AcDbEntity
  8
0
  6
Continuous
 62
     7
370
    15
100
AcDbLine
 10
5.4948295118
 20
3.376758613
 30
0.0
 11
5.6717715611
 21
3.376758613
 31
0.0
  0
LINE
  5
33E
330
1F
100
AcDbEntity
  8
0
  6
Continuous
 62
     7
370
    15
100
AcDbLine
 10
3.3278959777
 20
3.4948688491
 30
0.0
 11
3.0985476005
 21
3.4948688491
 31
0.0
  0
LINE
  5
33F
330
1F
100
AcDbEntity
  8
0
  6
Continuous
 62
     7
370
    15
100
AcDbLine
 10
4.9026991655
 20
3.4948688491
 30
0.0
 11
4.6733507516
 21
3.4948688491
 31
0.0
  0
LINE
  5
340
330
1F
100
AcDbEntity
  8
0
  6
Continuous
 62
     7
370
    15
100
AcDbLine
 10
3.6856627381
 20
3.4751838099
 30
0.0
 11
3.6856627381
 21
3.5539239689
 31
0.0
  0
LINE
  5
341
330
1F
100
AcDbEntity
  8
0
  6
Continuous
 62
     7
370
    15
100
AcDbLine
 10
4.3155840095
 20
3.4751838099
 30
0.0
 11
3.6856627381
 21
3.4751838099
 31
0.0
  0
LINE
  5
342
330
1F
100
AcDbEntity
  8
0
  6
Continuous
 62
     7
370
    15
100
AcDbLine
 10
4.3155840095
 20
3.5539239689
 30
0.0
 11
4.3155840095
 21
3.4751838099
 31
0.0
  0
LINE
  5
343
330
1F
100
AcDbEntity
  8
0
  6
Continuous
 62
     7
370
    15
100
AcDbLine
 10
4.3155840095
 20
3.5539239689
 30
0.0
 11
5.2888670111
 21
3.5539239689
 31
0.0
  0
LINE
  5
344
330
1F
100
AcDbEntity
  8
0
  6
Continuous
 62
     7
370
    15
100
AcDbLine
 10
2.7123796816
 20
3.5539239689
 30
0.0
 11
3.6856627381
 21
3.5539239689
 31
0.0
  0
LINE
  5
345
330
1F
100
AcDbEntity
  8
0
  6
Continuous
 62
     7
370
    15
100
AcDbLine
 10
5.2998359377
 20
3.6129790875
 30
0.0
 11
5.3352690217
 21
3.6129790875
 31
0.0
  0
LINE
  5
346
330
1F
100
AcDbEntity
  8
0
  6
Continuous
 62
     7
370
    15
100
AcDbLine
 10
2.6659776709
 20
3.6129790875
 30
0.0
 11
2.7014107549
 21
3.6129790875
 31
0.0
  0
LINE
  5
347
330
1F
100
AcDbEntity
  8
0
  6
Continuous
 62
     7
370
    15
100
AcDbLine
 10
4.3155840095
 20
3.5539239689
 30
0.0
 11
3.6856627381
 21
3.5539239689
 31
0.0
  0
LINE
  5
348
330
1F
100
AcDbEntity
  8
0
  6
Continuous
 62
     7
370
    15
100
AcDbLine
 10
2.7014107549
 20
3.6129790875
 30
0.0
 11
5.2998359377
 21
3.6129790875
 31
0.0
  0
HATCH
  5
349
330
1F
100
AcDbEntity
  8
0
  6
Continuous
 62
     7
370
     0
100
AcDbHatch
 10
0.0
 20
0.0
 30
0.0
210
0.0
220
0.0
230
1.0
  2
ANSI31
 70
     0
 71
     0
 91
        1
 92
        0
 93
        5
 72
     1
 10
2.329475206433114
 20
3.376758613082587
 11
2.26046589158752
 21
3.376758613082587
 72
     2
 10
2.26046589158752
 20
3.33738853434243
 40
0.0393700787401575
 50
90.0
 51
180.0
 73
     1
 72
     1
 10
2.221095812847362
 20
3.33738853434243
 11
2.221095812847362
 21
3.219278298121957
 72
     1
 10
2.221095812847362
 20
3.219278298121957
 11
2.329475206433114
 21
3.219278298121957
 72
     1
 10
2.329475206433114
 20
3.219278298121957
 11
2.329475206433114
 21
3.376758613082587
 97
        0
 75
     0
 76
     1
 52
0.0
 41
0.875
 77
     0
 78
     1
 53
45.0
 43
0.0
 44
0.0
 45
-0.0773398041922786
 46
0.0773398041922786
 79
     0
 98
        1
 10
0.0
 20
0.0
  0
HATCH
  5
34A
330
1F
100
AcDbEntity
  8
0
  6
Continuous
 62
     7
370
     0
100
AcDbHatch
 10
0.0
 20
0.0
 30
0.0
210
0.0
220
0.0
230
1.0
  2
ANSI31
 70
     0
 71
     0
 91
        1
 92
        0
 93
       20
 72
     1
 10
5.288867006984191
 20
3.553923967413296
 11
5.275455567403884
 21
3.298018455602272
 72
     1
 10
5.275455567403884
 20
3.298018455602272
 11
2.725791176401076
 21
3.298018455602272
 72
     1
 10
2.725791176401076
 20
3.298018455602272
 11
2.71237973682077
 21
3.553923967413296
 72
     1
 10
2.71237973682077
 20
3.553923967413296
 11
2.665977702611142
 21
3.553923967413296
 72
     1
 10
2.665977702611142
 20
3.553923967413296
 11
2.665977702611142
 21
3.612979085523532
 72
     1
 10
2.665977702611142
 20
3.612979085523532
 11
2.642355655367048
 21
3.612979085523532
 72
     1
 10
2.642355655367048
 20
3.612979085523532
 11
2.642355655367048
 21
3.573609006783375
 72
     1
 10
2.642355655367048
 20
3.573609006783375
 11
2.620607317600138
 21
3.573609006786042
 72
     1
 10
2.620607317600138
 20
3.573609006786042
 11
2.610290825615231
 21
3.376758613082587
 72
     1
 10
2.610290825615231
 20
3.376758613082587
 11
2.506417206663184
 21
3.376758613082587
 72
     1
 10
2.506417206663184
 20
3.376758613082587
 11
2.506417206663184
 21
3.219278298121957
 72
     1
 10
2.506417206663184
 20
3.219278298121957
 11
5.494829537141776
 21
3.219278298121957
 72
     1
 10
5.494829537141776
 20
3.219278298121957
 11
5.494829537141776
 21
3.376758613082587
 72
     1
 10
5.494829537141776
 20
3.376758613082587
 11
5.39095591818973
 21
3.376758613082587
 72
     1
 10
5.39095591818973
 20
3.376758613082587
 11
5.380639426204822
 21
3.573609006786042
 72
     1
 10
5.380639426204822
 20
3.573609006786042
 11
5.358891088437913
 21
3.573609006783375
 72
     1
 10
5.358891088437913
 20
3.573609006783375
 11
5.358891088437913
 21
3.612979085523532
 72
     1
 10
5.358891088437913
 20
3.612979085523532
 11
5.335269041193819
 21
3.612979085523532
 72
     1
 10
5.335269041193819
 20
3.612979085523532
 11
5.335269041193818
 21
3.553923967413296
 72
     1
 10
5.335269041193818
 20
3.553923967413296
 11
5.288867006984191
 21
3.553923967413296
 97
        0
 75
     0
 76
     1
 52
0.0
 41
0.875
 77
     0
 78
     1
 53
45.0
 43
0.0
 44
0.0
 45
-0.0773398041922786
 46
0.0773398041922786
 79
     0
 98
        1
 10
0.0
 20
0.0
  0
HATCH
  5
34B
330
1F
100
AcDbEntity
  8
0
  6
Continuous
 62
     7
370
     0
100
AcDbHatch
 10
0.0
 20
0.0
 30
0.0
210
0.0
220
0.0
230
1.0
  2
ANSI31
 70
     0
 71
     0
 91
        1
 92
        0
 93
        5
 72
     1
 10
5.780150930957599
 20
3.219278298121957
 11
5.780150930957598
 21
3.33738853434243
 72
     2
 10
5.740780852217441
 20
3.33738853434243
 40
0.0393700787401575
 50
0.0
 51
90.0
 73
     1
 72
     1
 10
5.740780852217441
 20
3.376758613082587
 11
5.671771537371847
 21
3.376758613082587
 72
     1
 10
5.671771537371847
 20
3.376758613082587
 11
5.671771537371847
 21
3.219278298121957
 72
     1
 10
5.671771537371847
 20
3.219278298121957
 11
5.780150930957599
 21
3.219278298121957
 97
        0
 75
     0
 76
     1
 52
0.0
 41
0.875
 77
     0
 78
     1
 53
45.0
 43
0.0
 44
0.0
 45
-0.0773398041922786
 46
0.0773398041922786
 79
     0
 98
        1
 10
0.0
 20
0.0
  0
DIMENSION
  5
34C
330
1F
100
AcDbEntity
  8
0
  6
Continuous
 62
     7
370
     0
100
AcDbDimension
  2
*D24
 10
2.0060737974
 20
3.2192782981
 30
0.0
 11
2.0060737974
 21
3.0077057462
 31
0.0
 70
   160
 71
     2
 42
-1.0
  3
SLDDIMSTYLE5
100
AcDbAlignedDimension
 13
2.2604658916
 23
3.3767586131
 33
0.0
 14
2.2210958128
 24
3.2192782981
 34
0.0
 50
90.0
100
AcDbRotatedDimension
  0
DIMENSION
  5
362
330
1F
100
AcDbEntity
  8
0
  6
Continuous
 62
     7
370
     0
100
AcDbDimension
  2
*D25
 10
1.538321106
 20
3.2192782981
 30
0.0
 11
1.538321106
 21
3.4161286918
 31
0.0
 70
   160
 71
     2
 42
-1.0
  3
SLDDIMSTYLE5
100
AcDbAlignedDimension
 13
2.6423556554
 23
3.6129790855
 33
0.0
 14
2.2210958128
 24
3.2192782981
 34
0.0
 50
90.0
100
AcDbRotatedDimension
  0
DIMENSION
  5
376
330
1F
100
AcDbEntity
  8
0
  6
Continuous
 62
     7
370
     0
100
AcDbDimension
  2
*D26
 10
2.9367569873
 20
3.4948688493
 30
0.0
 11
2.9367569873
 21
3.8515894677
 31
0.0
 70
   160
 71
     2
 42
-1.0
  3
SLDDIMSTYLE6
100
AcDbAlignedDimension
 13
2.7257911764
 23
3.2980184556
 33
0.0
 14
3.0985475973
 24
3.4948688493
 34
0.0
 50
90.0
100
AcDbRotatedDimension
  0
DIMENSION
  5
38B
330
1F
100
AcDbEntity
  8
0
  6
Continuous
 62
     7
370
     0
100
AcDbDimension
  2
*D27
 10
5.0703561495
 20
3.2192782981
 30
0.0
 11
5.0703561495
 21
2.974887461
 31
0.0
 70
   160
 71
     2
 42
-1.0
  3
SLDDIMSTYLE5
100
AcDbAlignedDimension
 13
5.2754555674
 23
3.2980184556
 33
0.0
 14
5.4948295371
 24
3.2192782981
 34
0.0
 50
90.0
100
AcDbRotatedDimension
  0
MTEXT
  5
39E
330
1F
100
AcDbEntity
  8
0
  6
Continuous
 62
     7
370
     0
100
AcDbMText
 10
4.0726285719
 20
2.9877694819
 30
0.0
 40
0.109375
 41
0.0
 71
     2
 72
     1
  1
\LSECTION A-A
  7
SLDTEXTSTYLE0
 73
     1
 44
1.0
  0
LINE
  5
39F
330
1F
100
AcDbEntity
  8
0
  6
Continuous
 62
     7
370
    15
100
AcDbLine
 10
9.1790189665
 20
5.2401399685
 30
0.0
 11
8.6278378471
 21
5.2401399685
 31
0.0
  0
LINE
  5
3A0
330
1F
100
AcDbEntity
  8
0
  6
Continuous
 62
     7
370
    15
100
AcDbLine
 10
8.6278378471
 20
5.2401399685
 30
0.0
 11
8.6278378471
 21
5.2719362012
 31
0.0
  0
LINE
  5
3A1
330
1F
100
AcDbEntity
  8
0
  6
Continuous
 62
     7
370
    15
100
AcDbLine
 10
8.6278378471
 20
5.2719362012
 30
0.0
 11
9.1790189665
 21
5.2719362012
 31
0.0
  0
LINE
  5
3A2
330
1F
100
AcDbEntity
  8
0
  6
Continuous
 62
     7
370
    15
100
AcDbLine
 10
9.1790189665
 20
5.2401399685
 30
0.0
 11
9.1790189665
 21
5.2719362012
 31
0.0
  0
LINE
  5
3A3
330
1F
100
AcDbEntity
  8
0
  6
Continuous
 62
     7
370
    15
100
AcDbLine
 10
9.1790189665
 20
5.2200911601
 30
0.0
 11
8.6278378471
 21
5.2200911601
 31
0.0
  0
LINE
  5
3A4
330
1F
100
AcDbEntity
  8
0
  6
Continuous
 62
     7
370
    15
100
AcDbLine
 10
9.1790189665
 20
5.2200911601
 30
0.0
 11
9.1790189665
 21
5.2401399685
 31
0.0
  0
LINE
  5
3A5
330
1F
100
AcDbEntity
  8
0
  6
Continuous
 62
     7
370
    15
100
AcDbLine
 10
8.6278378471
 20
5.2401399685
 30
0.0
 11
8.6278378471
 21
5.2200911601
 31
0.0
  0
LINE
  5
3A6
330
1F
100
AcDbEntity
  8
0
  6
Continuous
 62
     7
370
    15
100
AcDbLine
 10
9.1790189665
 20
7.1279611869
 30
0.0
 11
9.1790189665
 21
7.0961649542
 31
0.0
  0
LINE
  5
3A7
330
1F
100
AcDbEntity
  8
0
  6
Continuous
 62
     7
370
    15
100
AcDbLine
 10
9.1790189665
 20
7.0961649542
 30
0.0
 11
8.6278378471
 21
7.0961649542
 31
0.0
  0
LINE
  5
3A8
330
1F
100
AcDbEntity
  8
0
  6
Continuous
 62
     7
370
    15
100
AcDbLine
 10
8.6278378471
 20
7.0961649542
 30
0.0
 11
8.6278378471
 21
7.1279611869
 31
0.0
  0
LINE
  5
3A9
330
1F
100
AcDbEntity
  8
0
  6
Continuous
 62
     7
370
    15
100
AcDbLine
 10
9.1790189665
 20
7.1279611869
 30
0.0
 11
8.6278378471
 21
7.1279611869
 31
0.0
  0
LINE
  5
3AA
330
1F
100
AcDbEntity
  8
0
  6
Continuous
 62
     7
370
    15
100
AcDbLine
 10
9.2183890517
 20
7.0895623905
 30
0.0
 11
9.1790189665
 21
7.0895623905
 31
0.0
  0
LINE
  5
3AB
330
1F
100
AcDbEntity
  8
0
  6
Continuous
 62
     7
370
    15
100
AcDbLine
 10
9.2183890517
 20
7.0926573147
 30
0.0
 11
9.2183890517
 21
7.0895623905
 31
0.0
  0
LINE
  5
3AC
330
1F
100
AcDbEntity
  8
0
  6
Continuous
 62
     7
370
    15
100
AcDbLine
 10
10.19786192
 20
7.0926573147
 30
0.0
 11
9.2183890517
 21
7.0926573147
 31
0.0
  0
LINE
  5
3AD
330
1F
100
AcDbEntity
  8
0
  6
Continuous
 62
     7
370
    15
100
AcDbLine
 10
10.1586592529
 20
7.0534546476
 30
0.0
 11
10.19786192
 21
7.0926573147
 31
0.0
  0
LINE
  5
3AE
330
1F
100
AcDbEntity
  8
0
  6
Continuous
 62
     7
370
    15
100
AcDbLine
 10
7.6481975607
 20
7.0534546476
 30
0.0
 11
10.1586592529
 21
7.0534546476
 31
0.0
  0
LINE
  5
3AF
330
1F
100
AcDbEntity
  8
0
  6
Continuous
 62
     7
370
    15
100
AcDbLine
 10
7.6481975607
 20
7.0534546476
 30
0.0
 11
7.6089948935
 21
7.0926573147
 31
0.0
  0
LINE
  5
3B0
330
1F
100
AcDbEntity
  8
0
  6
Continuous
 62
     7
370
    15
100
AcDbLine
 10
8.5884677619
 20
7.0926573147
 30
0.0
 11
7.6089948935
 21
7.0926573147
 31
0.0
  0
LINE
  5
3B1
330
1F
100
AcDbEntity
  8
0
  6
Continuous
 62
     7
370
    15
100
AcDbLine
 10
8.5884677619
 20
7.0895623905
 30
0.0
 11
8.5884677619
 21
7.0926573147
 31
0.0
  0
LINE
  5
3B2
330
1F
100
AcDbEntity
  8
0
  6
Continuous
 62
     7
370
    15
100
AcDbLine
 10
8.6278378471
 20
7.0895623905
 30
0.0
 11
8.5884677619
 21
7.0895623905
 31
0.0
  0
LINE
  5
3B3
330
1F
100
AcDbEntity
  8
0
  6
Continuous
 62
     7
370
    15
100
AcDbLine
 10
9.1790189665
 20
7.0895623905
 30
0.0
 11
9.1790189665
 21
7.0961649542
 31
0.0
  0
LINE
  5
3B4
330
1F
100
AcDbEntity
  8
0
  6
Continuous
 62
     7
370
    15
100
AcDbLine
 10
8.6278378471
 20
7.0961649542
 30
0.0
 11
8.6278378471
 21
7.0895623905
 31
0.0
  0
LINE
  5
3B5
330
1F
100
AcDbEntity
  8
0
  6
Continuous
 62
     7
370
    15
100
AcDbLine
 10
7.6481975607
 20
5.3146465078
 30
0.0
 11
7.6089948935
 21
5.2754438406
 31
0.0
  0
LINE
  5
3B6
330
1F
100
AcDbEntity
  8
0
  6
Continuous
 62
     7
370
    15
100
AcDbLine
 10
10.1586592529
 20
5.3146465078
 30
0.0
 11
7.6481975607
 21
5.3146465078
 31
0.0
  0
LINE
  5
3B7
330
1F
100
AcDbEntity
  8
0
  6
Continuous
 62
     7
370
    15
100
AcDbLine
 10
10.19786192
 20
5.2754438406
 30
0.0
 11
10.1586592529
 21
5.3146465078
 31
0.0
  0
LINE
  5
3B8
330
1F
100
AcDbEntity
  8
0
  6
Continuous
 62
     7
370
    15
100
AcDbLine
 10
9.2183890517
 20
5.2754438406
 30
0.0
 11
10.19786192
 21
5.2754438406
 31
0.0
  0
LINE
  5
3B9
330
1F
100
AcDbEntity
  8
0
  6
Continuous
 62
     7
370
    15
100
AcDbLine
 10
9.2183890517
 20
5.2785387649
 30
0.0
 11
9.2183890517
 21
5.2754438406
 31
0.0
  0
LINE
  5
3BA
330
1F
100
AcDbEntity
  8
0
  6
Continuous
 62
     7
370
    15
100
AcDbLine
 10
9.1790189665
 20
5.2785387649
 30
0.0
 11
9.2183890517
 21
5.2785387649
 31
0.0
  0
LINE
  5
3BB
330
1F
100
AcDbEntity
  8
0
  6
Continuous
 62
     7
370
    15
100
AcDbLine
 10
9.1790189665
 20
5.2719362012
 30
0.0
 11
9.1790189665
 21
5.2785387649
 31
0.0
  0
LINE
  5
3BC
330
1F
100
AcDbEntity
  8
0
  6
Continuous
 62
     7
370
    15
100
AcDbLine
 10
8.5884677619
 20
5.2785387649
 30
0.0
 11
8.6278378471
 21
5.2785387649
 31
0.0
  0
LINE
  5
3BD
330
1F
100
AcDbEntity
  8
0
  6
Continuous
 62
     7
370
    15
100
AcDbLine
 10
8.5884677619
 20
5.2754438406
 30
0.0
 11
8.5884677619
 21
5.2785387649
 31
0.0
  0
LINE
  5
3BE
330
1F
100
AcDbEntity
  8
0
  6
Continuous
 62
     7
370
    15
100
AcDbLine
 10
7.6089948935
 20
5.2754438406
 30
0.0
 11
8.5884677619
 21
5.2754438406
 31
0.0
  0
LINE
  5
3BF
330
1F
100
AcDbEntity
  8
0
  6
Continuous
 62
     7
370
    15
100
AcDbLine
 10
8.6278378471
 20
5.2785387649
 30
0.0
 11
8.6278378471
 21
5.2719362012
 31
0.0
  0
LINE
  5
3C0
330
1F
100
AcDbEntity
  8
0
  6
Continuous
 62
     7
370
    15
100
AcDbLine
 10
8.6278378471
 20
7.1480099953
 30
0.0
 11
9.1790189665
 21
7.1480099953
 31
0.0
  0
LINE
  5
3C1
330
1F
100
AcDbEntity
  8
0
  6
Continuous
 62
     7
370
    15
100
AcDbLine
 10
9.1790189665
 20
7.1480099953
 30
0.0
 11
9.1790189665
 21
7.1279611869
 31
0.0
  0
LINE
  5
3C2
330
1F
100
AcDbEntity
  8
0
  6
Continuous
 62
     7
370
    15
100
AcDbLine
 10
8.6278378471
 20
7.1279611869
 30
0.0
 11
8.6278378471
 21
7.1480099953
 31
0.0
  0
LINE
  5
3C3
330
1F
100
AcDbEntity
  8
0
  6
Continuous
 62
     7
370
    15
100
AcDbLine
 10
7.5727198059
 20
6.5383812711
 30
0.0
 11
7.6011100379
 21
6.5383812711
 31
0.0
  0
LINE
  5
3C4
330
1F
100
AcDbEntity
  8
0
  6
Continuous
 62
     7
370
    15
100
AcDbLine
 10
7.6011100379
 20
6.7746017456
 30
0.0
 11
7.6011100379
 21
6.5383812711
 31
0.0
  0
LINE
  5
3C5
330
1F
100
AcDbEntity
  8
0
  6
Continuous
 62
     7
370
    15
100
AcDbLine
 10
7.5727198059
 20
7.0974363928
 30
0.0
 11
7.5727198059
 21
6.7746017456
 31
0.0
  0
ARC
  5
3C6
330
1F
100
AcDbEntity
  8
0
  6
Continuous
 62
     7
370
    15
100
AcDbCircle
 10
7.6042158084
 20
7.0974364044
 30
0.0
 40
0.0314960629921259
100
AcDbArc
 50
90.0
 51
180.0
  0
LINE
  5
3C7
330
1F
100
AcDbEntity
  8
0
  6
Continuous
 62
     7
370
    15
100
AcDbLine
 10
8.5884677619
 20
7.1289324757
 30
0.0
 11
7.6042158154
 21
7.1289324757
 31
0.0
  0
LINE
  5
3C8
330
1F
100
AcDbEntity
  8
0
  6
Continuous
 62
     7
370
    15
100
AcDbLine
 10
8.5884677619
 20
7.0926573147
 30
0.0
 11
8.5884677619
 21
7.1289324757
 31
0.0
  0
LINE
  5
3C9
330
1F
100
AcDbEntity
  8
0
  6
Continuous
 62
     7
370
    15
100
AcDbLine
 10
7.6089948935
 20
7.0926573147
 30
0.0
 11
7.6089948935
 21
5.2754438406
 31
0.0
  0
LINE
  5
3CA
330
1F
100
AcDbEntity
  8
0
  6
Continuous
 62
     7
370
    15
100
AcDbLine
 10
8.5884677619
 20
5.2391686797
 30
0.0
 11
8.5884677619
 21
5.2754438406
 31
0.0
  0
LINE
  5
3CB
330
1F
100
AcDbEntity
  8
0
  6
Continuous
 62
     7
370
    15
100
AcDbLine
 10
7.6042158154
 20
5.2391686797
 30
0.0
 11
8.5884677619
 21
5.2391686797
 31
0.0
  0
ARC
  5
3CC
330
1F
100
AcDbEntity
  8
0
  6
Continuous
 62
     7
370
    15
100
AcDbCircle
 10
7.6042158084
 20
5.2706647509
 30
0.0
 40
0.0314960629921268
100
AcDbArc
 50
180.0
 51
270.0
  0
LINE
  5
3CD
330
1F
100
AcDbEntity
  8
0
  6
Continuous
 62
     7
370
    15
100
AcDbLine
 10
7.5727198059
 20
5.5934994098
 30
0.0
 11
7.5727198059
 21
5.2706647625
 31
0.0
  0
LINE
  5
3CE
330
1F
100
AcDbEntity
  8
0
  6
Continuous
 62
     7
370
    15
100
AcDbLine
 10
7.5727198059
 20
5.5934994098
 30
0.0
 11
7.6011100379
 21
5.5934994098
 31
0.0
  0
LINE
  5
3CF
330
1F
100
AcDbEntity
  8
0
  6
Continuous
 62
     7
370
    15
100
AcDbLine
 10
7.6011100379
 20
5.8297198843
 30
0.0
 11
7.6011100379
 21
5.5934994098
 31
0.0
  0
LINE
  5
3D0
330
1F
100
AcDbEntity
  8
0
  6
Continuous
 62
     7
370
    15
100
AcDbLine
 10
7.6011100379
 20
5.8297198843
 30
0.0
 11
7.5727198059
 21
5.8297198843
 31
0.0
  0
LINE
  5
3D1
330
1F
100
AcDbEntity
  8
0
  6
Continuous
 62
     7
370
    15
100
AcDbLine
 10
7.5727198059
 20
6.5383812711
 30
0.0
 11
7.5727198059
 21
5.8297198843
 31
0.0
  0
LINE
  5
3D2
330
1F
100
AcDbEntity
  8
0
  6
Continuous
 62
     7
370
    15
100
AcDbLine
 10
7.6011100379
 20
6.7746017456
 30
0.0
 11
7.5727198059
 21
6.7746017456
 31
0.0
  0
LINE
  5
3D3
330
1F
100
AcDbEntity
  8
0
  6
Continuous
 62
     7
370
    15
100
AcDbLine
 10
10.2341370077
 20
5.8297198843
 30
0.0
 11
10.2057467756
 21
5.8297198843
 31
0.0
  0
LINE
  5
3D4
330
1F
100
AcDbEntity
  8
0
  6
Continuous
 62
     7
370
    15
100
AcDbLine
 10
10.2057467756
 20
5.5934994098
 30
0.0
 11
10.2057467756
 21
5.8297198843
 31
0.0
  0
LINE
  5
3D5
330
1F
100
AcDbEntity
  8
0
  6
Continuous
 62
     7
370
    15
100
AcDbLine
 10
10.2057467756
 20
5.5934994098
 30
0.0
 11
10.2341370077
 21
5.5934994098
 31
0.0
  0
ARC
  5
3D6
330
1F
100
AcDbEntity
  8
0
  6
Continuous
 62
     7
370
    15
100
AcDbCircle
 10
10.2026410052
 20
5.2706647509
 30
0.0
 40
0.0314960629921277
100
AcDbArc
 50
270.0
 51
0.0
  0
LINE
  5
3D7
330
1F
100
AcDbEntity
  8
0
  6
Continuous
 62
     7
370
    15
100
AcDbLine
 10
9.2183890517
 20
5.2391686797
 30
0.0
 11
10.2026409982
 21
5.2391686797
 31
0.0
  0
LINE
  5
3D8
330
1F
100
AcDbEntity
  8
0
  6
Continuous
 62
     7
370
    15
100
AcDbLine
 10
9.2183890517
 20
5.2754438406
 30
0.0
 11
9.2183890517
 21
5.2391686797
 31
0.0
  0
LINE
  5
3D9
330
1F
100
AcDbEntity
  8
0
  6
Continuous
 62
     7
370
    15
100
AcDbLine
 10
10.19786192
 20
5.2754438406
 30
0.0
 11
10.19786192
 21
7.0926573147
 31
0.0
  0
LINE
  5
3DA
330
1F
100
AcDbEntity
  8
0
  6
Continuous
 62
     7
370
    15
100
AcDbLine
 10
9.2183890517
 20
7.0926573147
 30
0.0
 11
9.2183890517
 21
7.1289324757
 31
0.0
  0
LINE
  5
3DB
330
1F
100
AcDbEntity
  8
0
  6
Continuous
 62
     7
370
    15
100
AcDbLine
 10
10.2026409982
 20
7.1289324757
 30
0.0
 11
9.2183890517
 21
7.1289324757
 31
0.0
  0
ARC
  5
3DC
330
1F
100
AcDbEntity
  8
0
  6
Continuous
 62
     7
370
    15
100
AcDbCircle
 10
10.2026410052
 20
7.0974364044
 30
0.0
 40
0.0314960629921277
100
AcDbArc
 50
0.0
 51
90.0
  0
LINE
  5
3DD
330
1F
100
AcDbEntity
  8
0
  6
Continuous
 62
     7
370
    15
100
AcDbLine
 10
10.2341370077
 20
6.7746017456
 30
0.0
 11
10.2341370077
 21
7.0974363928
 31
0.0
  0
LINE
  5
3DE
330
1F
100
AcDbEntity
  8
0
  6
Continuous
 62
     7
370
    15
100
AcDbLine
 10
10.2341370077
 20
6.7746017456
 30
0.0
 11
10.2057467756
 21
6.7746017456
 31
0.0
  0
LINE
  5
3DF
330
1F
100
AcDbEntity
  8
0
  6
Continuous
 62
     7
370
    15
100
AcDbLine
 10
10.2057467756
 20
6.5383812711
 30
0.0
 11
10.2057467756
 21
6.7746017456
 31
0.0
  0
LINE
  5
3E0
330
1F
100
AcDbEntity
  8
0
  6
Continuous
 62
     7
370
    15
100
AcDbLine
 10
10.2057467756
 20
6.5383812711
 30
0.0
 11
10.2341370077
 21
6.5383812711
 31
0.0
  0
LINE
  5
3E1
330
1F
100
AcDbEntity
  8
0
  6
Continuous
 62
     7
370
    15
100
AcDbLine
 10
10.2341370077
 20
5.8297198843
 30
0.0
 11
10.2341370077
 21
6.5383812711
 31
0.0
  0
LINE
  5
3E2
330
1F
100
AcDbEntity
  8
0
  6
Continuous
 62
     7
370
    15
100
AcDbLine
 10
10.2341370077
 20
5.2706647625
 30
0.0
 11
10.2341370077
 21
5.5934994098
 31
0.0
  0
LINE
  5
3E3
330
1F
100
AcDbEntity
  8
0
  6
Continuous
 62
     7
370
    15
100
AcDbLine
 10
7.6481975607
 20
5.3146465078
 30
0.0
 11
7.6481975607
 21
7.0534546476
 31
0.0
  0
LINE
  5
3E4
330
1F
100
AcDbEntity
  8
0
  6
Continuous
 62
     7
370
    15
100
AcDbLine
 10
10.1586592529
 20
7.0534546476
 30
0.0
 11
10.1586592529
 21
5.3146465078
 31
0.0
  0
LINE
  5
3E5
330
1F
100
AcDbEntity
  8
0
  6
Continuous
 62
     7
370
    15
100
AcDbLine
 10
7.525475645
 20
6.7746017456
 30
0.0
 11
7.525475645
 21
7.0974363928
 31
0.0
  0
ARC
  5
3E6
330
1F
100
AcDbEntity
  8
0
  6
Continuous
 62
     7
370
    15
100
AcDbCircle
 10
7.6042158084
 20
7.0974364044
 30
0.0
 40
0.0787401574803246
100
AcDbArc
 50
90.0
 51
179.9999999999
  0
LINE
  5
3E7
330
1F
100
AcDbEntity
  8
0
  6
Continuous
 62
     7
370
    15
100
AcDbLine
 10
7.6042158154
 20
7.1761765632
 30
0.0
 11
10.2026409982
 21
7.1761765632
 31
0.0
  0
ARC
  5
3E8
330
1F
100
AcDbEntity
  8
0
  6
Continuous
 62
     7
370
    15
100
AcDbCircle
 10
10.2026410052
 20
7.0974364044
 30
0.0
 40
0.0787401574803255
100
AcDbArc
 50
0.0000000001
 51
90.0
  0
LINE
  5
3E9
330
1F
100
AcDbEntity
  8
0
  6
Continuous
 62
     7
370
    15
100
AcDbLine
 10
10.2813811686
 20
7.0974363928
 30
0.0
 11
10.2813811686
 21
6.7746017456
 31
0.0
  0
LINE
  5
3EA
330
1F
100
AcDbEntity
  8
0
  6
Continuous
 62
     7
370
    15
100
AcDbLine
 10
10.2813811686
 20
6.7746017456
 30
0.0
 11
10.2341370077
 21
6.7746017456
 31
0.0
  0
LINE
  5
3EB
330
1F
100
AcDbEntity
  8
0
  6
Continuous
 62
     7
370
    15
100
AcDbLine
 10
7.5727198059
 20
6.7746017456
 30
0.0
 11
7.525475645
 21
6.7746017456
 31
0.0
  0
LINE
  5
3EC
330
1F
100
AcDbEntity
  8
0
  6
Continuous
 62
     7
370
    15
100
AcDbLine
 10
10.2813811686
 20
5.5934994098
 30
0.0
 11
10.2813811686
 21
5.2706647625
 31
0.0
  0
ARC
  5
3ED
330
1F
100
AcDbEntity
  8
0
  6
Continuous
 62
     7
370
    15
100
AcDbCircle
 10
10.2026410052
 20
5.2706647509
 30
0.0
 40
0.0787401574803255
100
AcDbArc
 50
270.0
 51
0.0000000001
  0
LINE
  5
3EE
330
1F
100
AcDbEntity
  8
0
  6
Continuous
 62
     7
370
    15
100
AcDbLine
 10
10.2026409982
 20
5.1919245921
 30
0.0
 11
7.6042158154
 21
5.1919245921
 31
0.0
  0
ARC
  5
3EF
330
1F
100
AcDbEntity
  8
0
  6
Continuous
 62
     7
370
    15
100
AcDbCircle
 10
7.6042158084
 20
5.2706647509
 30
0.0
 40
0.0787401574803246
100
AcDbArc
 50
179.9999999999
 51
270.0
  0
LINE
  5
3F0
330
1F
100
AcDbEntity
  8
0
  6
Continuous
 62
     7
370
    15
100
AcDbLine
 10
7.525475645
 20
5.2706647625
 30
0.0
 11
7.525475645
 21
5.5934994098
 31
0.0
  0
LINE
  5
3F1
330
1F
100
AcDbEntity
  8
0
  6
Continuous
 62
     7
370
    15
100
AcDbLine
 10
7.5727198059
 20
5.5934994098
 30
0.0
 11
7.525475645
 21
5.5934994098
 31
0.0
  0
LINE
  5
3F2
330
1F
100
AcDbEntity
  8
0
  6
Continuous
 62
     7
370
    15
100
AcDbLine
 10
10.2341370077
 20
5.5934994098
 30
0.0
 11
10.2813811686
 21
5.5934994098
 31
0.0
  0
LINE
  5
3F3
330
1F
100
AcDbEntity
  8
0
  6
Continuous
 62
     7
370
    15
100
AcDbLine
 10
10.2813811686
 20
6.5383812711
 30
0.0
 11
10.2813811686
 21
5.8297198843
 31
0.0
  0
LINE
  5
3F4
330
1F
100
AcDbEntity
  8
0
  6
Continuous
 62
     7
370
    15
100
AcDbLine
 10
10.2813811686
 20
6.5383812711
 30
0.0
 11
10.2341370077
 21
6.5383812711
 31
0.0
  0
LINE
  5
3F5
330
1F
100
AcDbEntity
  8
0
  6
Continuous
 62
     7
370
    15
100
AcDbLine
 10
10.2813811686
 20
5.8297198843
 30
0.0
 11
10.2341370077
 21
5.8297198843
 31
0.0
  0
LINE
  5
3F6
330
1F
100
AcDbEntity
  8
0
  6
Continuous
 62
     7
370
    15
100
AcDbLine
 10
7.525475645
 20
5.8297198843
 30
0.0
 11
7.525475645
 21
6.5383812711
 31
0.0
  0
LINE
  5
3F7
330
1F
100
AcDbEntity
  8
0
  6
Continuous
 62
     7
370
    15
100
AcDbLine
 10
7.525475645
 20
6.5383812711
 30
0.0
 11
7.5727198059
 21
6.5383812711
 31
0.0
  0
LINE
  5
3F8
330
1F
100
AcDbEntity
  8
0
  6
Continuous
 62
     7
370
    15
100
AcDbLine
 10
7.525475645
 20
5.8297198843
 30
0.0
 11
7.5727198059
 21
5.8297198843
 31
0.0
  0
ARC
  5
3F9
330
1F
100
AcDbEntity
  8
0
  6
Continuous
 62
     7
370
    15
100
AcDbCircle
 10
8.9034284068
 20
7.0220442112
 30
0.0
 40
0.1553737784174257
100
AcDbArc
 50
82.7523227921
 51
97.2476772079
  0
ARC
  5
3FA
330
1F
100
AcDbEntity
  8
0
  6
Continuous
 62
     7
370
    15
100
AcDbCircle
 10
8.9092405223
 20
5.2750276155
 30
0.0
 40
0.0842393426010639
100
AcDbArc
 50
266.0437195735
 51
279.4214930292
  0
ARC
  5
3FB
330
1F
100
AcDbEntity
  8
0
  6
Continuous
 62
     7
370
    15
100
AcDbCircle
 10
8.8984231137
 20
5.2919317943
 30
0.0
 40
0.1010667967088125
100
AcDbArc
 50
261.696075408
 51
272.8387119893
  0
LINE
  5
3FC
330
1F
100
AcDbEntity
  8
0
  6
Continuous
 62
     7
370
    15
100
AcDbLine
 10
7.5317907454
 20
6.5383812711
 30
0.0
 11
7.5317907454
 21
6.7746017456
 31
0.0
  0
LINE
  5
3FD
330
1F
100
AcDbEntity
  8
0
  6
Continuous
 62
     7
370
    15
100
AcDbLine
 10
10.2750660682
 20
5.8297198843
 30
0.0
 11
10.2750660682
 21
5.5934994098
 31
0.0
  0
LINE
  5
3FE
330
1F
100
AcDbEntity
  8
0
  6
Continuous
 62
     7
370
    15
100
AcDbLine
 10
7.5317907454
 20
5.5934994098
 30
0.0
 11
7.5317907454
 21
5.8297198843
 31
0.0
  0
LINE
  5
3FF
330
1F
100
AcDbEntity
  8
0
  6
Continuous
 62
     7
370
    15
100
AcDbLine
 10
10.2750660682
 20
6.7746017456
 30
0.0
 11
10.2750660682
 21
6.5383812711
 31
0.0
  0
DIMENSION
  5
400
330
1F
100
AcDbEntity
  8
0
  6
Continuous
 62
     7
370
     0
100
AcDbDimension
  2
*D28
 10
10.2813811627
 20
8.0432775496
 30
0.0
 11
8.9034284068
 21
8.0432775496
 31
0.0
 70
   160
 71
     2
 42
-1.0
  3
SLDDIMSTYLE0
100
AcDbAlignedDimension
 13
7.5254756509
 23
7.0974364044
 33
0.0
 14
10.2813811627
 24
7.0974364044
 34
0.0
 50
0.0
100
AcDbRotatedDimension
  0
DIMENSION
  5
414
330
1F
100
AcDbEntity
  8
0
  6
Continuous
 62
     7
370
     0
100
AcDbDimension
  2
*D29
 10
10.1978619371
 20
7.5919990722
 30
0.0
 11
8.9034284068
 21
7.5919990722
 31
0.0
 70
   160
 71
     2
 42
-1.0
  3
SLDDIMSTYLE0
100
AcDbAlignedDimension
 13
7.6089948765
 23
7.0926573363
 33
0.0
 14
10.1978619371
 24
7.0926573363
 34
0.0
100
AcDbRotatedDimension
  0
DIMENSION
  5
428
330
1F
100
AcDbEntity
  8
0
  6
Continuous
 62
     7
370
     0
100
AcDbDimension
  2
*D30
 10
11.0820469451
 20
5.1919245934
 30
0.0
 11
11.0820469451
 21
6.1840505777
 31
0.0
 70
   160
 71
     2
 42
-1.0
  3
SLDDIMSTYLE0
100
AcDbAlignedDimension
 13
10.2026410052
 23
7.1761765619
 33
0.0
 14
10.2026410052
 24
5.1919245934
 34
0.0
 50
90.0
100
AcDbRotatedDimension
  0
DIMENSION
  5
43C
330
1F
100
AcDbEntity
  8
0
  6
Continuous
 62
     7
370
     0
100
AcDbDimension
  2
*D31
 10
10.5912874879
 20
5.2754438191
 30
0.0
 11
10.5912874879
 21
6.1840505777
 31
0.0
 70
   160
 71
     2
 42
-1.0
  3
SLDDIMSTYLE0
100
AcDbAlignedDimension
 13
10.1978619371
 23
7.0926573363
 33
0.0
 14
10.1978619371
 24
5.2754438191
 34
0.0
 50
90.0
100
AcDbRotatedDimension
  0
LINE
  5
450
330
1F
100
AcDbEntity
  8
0
  6
PHANTOM
 62
     7
370
    30
100
AcDbLine
 10
8.9034284068
 20
7.297479138
 30
0.0
 11
8.9034284068
 21
5.1052376301
 31
0.0
  0
LINE
  5
451
330
1F
100
AcDbEntity
  8
0
  6
Continuous
 62
     7
370
    30
100
AcDbLine
 10
8.9034284068
 20
7.297479138
 30
0.0
 11
8.4659284068
 21
7.297479138
 31
0.0
  0
SOLID
  5
452
330
1F
100
AcDbEntity
  8
0
  6
Continuous
 62
     7
370
    30
100
AcDbTrace
 10
8.4659284068
 20
7.297479138
 30
0.0
 11
8.6846784068
 21
7.262479138
 31
0.0
 12
8.6846784068
 22
7.332479138
 32
0.0
 13
8.6846784068
 23
7.332479138
 33
0.0
  0
LINE
  5
453
330
1F
100
AcDbEntity
  8
0
  6
Continuous
 62
     7
370
    30
100
AcDbLine
 10
8.9034284068
 20
5.1052376301
 30
0.0
 11
8.4659284068
 21
5.1052376301
 31
0.0
  0
SOLID
  5
454
330
1F
100
AcDbEntity
  8
0
  6
Continuous
 62
     7
370
    30
100
AcDbTrace
 10
8.4659284068
 20
5.1052376301
 30
0.0
 11
8.6846784068
 21
5.0702376301
 31
0.0
 12
8.6846784068
 22
5.1402376301
 32
0.0
 13
8.6846784068
 23
5.1402376301
 33
0.0
  0
MTEXT
  5
455
330
1F
100
AcDbEntity
  8
0
  6
Continuous
 62
     7
100
AcDbMText
 10
8.3353029454
 20
7.3858256564
 30
0.0
 40
0.109375
 41
0.0
 71
     1
 72
     1
  1
B
  7
SLDTEXTSTYLE0
 73
     1
 44
1.0
  0
MTEXT
  5
456
330
1F
100
AcDbEntity
  8
0
  6
Continuous
 62
     7
100
AcDbMText
 10
8.3353029454
 20
5.1935841485
 30
0.0
 40
0.109375
 41
0.0
 71
     1
 72
     1
  1
B
  7
SLDTEXTSTYLE0
 73
     1
 44
1.0
  0
LINE
  5
457
330
1F
100
AcDbEntity
  8
0
  6
Continuous
 62
     7
370
    15
100
AcDbLine
 10
11.6705188277
 20
7.1480099953
 30
0.0
 11
11.6705188277
 21
7.1289324757
 31
0.0
  0
LINE
  5
458
330
1F
100
AcDbEntity
  8
0
  6
Continuous
 62
     7
370
    15
100
AcDbLine
 10
11.7512005124
 20
7.1751463151
 30
0.0
 11
11.7513035445
 21
7.1771121391
 31
0.0
  0
LINE
  5
459
330
1F
100
AcDbEntity
  8
0
  6
Continuous
 62
     7
370
    15
100
AcDbLine
 10
11.7513035445
 20
7.1771121391
 30
0.0
 11
11.790619657
 21
7.1750516429
 31
0.0
  0
LINE
  5
45A
330
1F
100
AcDbEntity
  8
0
  6
Continuous
 62
     7
370
    15
100
AcDbLine
 10
11.790619657
 20
7.1750516429
 30
0.0
 11
11.7905166615
 21
7.1730858923
 31
0.0
  0
LINE
  5
45B
330
1F
100
AcDbEntity
  8
0
  6
Continuous
 62
     7
370
    15
100
AcDbLine
 10
11.7905166615
 20
5.1950152631
 30
0.0
 11
11.790619657
 21
5.1930495125
 31
0.0
  0
LINE
  5
45C
330
1F
100
AcDbEntity
  8
0
  6
Continuous
 62
     7
370
    15
100
AcDbLine
 10
11.790619657
 20
5.1930495125
 30
0.0
 11
11.7513035445
 21
5.1909890163
 31
0.0
  0
LINE
  5
45D
330
1F
100
AcDbEntity
  8
0
  6
Continuous
 62
     7
370
    15
100
AcDbLine
 10
11.7513035445
 20
5.1909890163
 30
0.0
 11
11.7512005124
 21
5.1929548402
 31
0.0
  0
LINE
  5
45E
330
1F
100
AcDbEntity
  8
0
  6
Continuous
 62
     7
370
    15
100
AcDbLine
 10
11.6055582165
 20
5.2719362012
 30
0.0
 11
11.6055582165
 21
5.2401399685
 31
0.0
  0
LINE
  5
45F
330
1F
100
AcDbEntity
  8
0
  6
Continuous
 62
     7
370
    15
100
AcDbLine
 10
11.6055582165
 20
7.1279611869
 30
0.0
 11
11.6055582165
 21
7.0961649542
 31
0.0
  0
LINE
  5
460
330
1F
100
AcDbEntity
  8
0
  6
Continuous
 62
     7
370
    15
100
AcDbLine
 10
11.6705188277
 20
5.2200911601
 30
0.0
 11
11.6055582165
 21
5.2401399685
 31
0.0
  0
LINE
  5
461
330
1F
100
AcDbEntity
  8
0
  6
Continuous
 62
     7
370
    15
100
AcDbLine
 10
11.6705188277
 20
7.1480099953
 30
0.0
 11
11.6055582165
 21
7.1279611869
 31
0.0
  0
LINE
  5
462
330
1F
100
AcDbEntity
  8
0
  6
Continuous
 62
     7
370
    15
100
AcDbLine
 10
11.6705188277
 20
5.2391686797
 30
0.0
 11
11.6705188277
 21
5.2200911601
 31
0.0
  0
LINE
  5
463
330
1F
100
AcDbEntity
  8
0
  6
Continuous
 62
     7
370
    15
100
AcDbLine
 10
11.7315424561
 20
5.2391686797
 30
0.0
 11
11.7315424561
 21
5.1919245921
 31
0.0
  0
LINE
  5
464
330
1F
100
AcDbEntity
  8
0
  6
Continuous
 62
     7
370
    15
100
AcDbLine
 10
11.7315424561
 20
7.1289324757
 30
0.0
 11
11.6705188277
 21
7.1289324757
 31
0.0
  0
LINE
  5
465
330
1F
100
AcDbEntity
  8
0
  6
Continuous
 62
     7
370
    15
100
AcDbLine
 10
11.7315424561
 20
7.1761765632
 30
0.0
 11
11.7315424561
 21
7.1289324757
 31
0.0
  0
LINE
  5
466
330
1F
100
AcDbEntity
  8
0
  6
Continuous
 62
     7
370
    15
100
AcDbLine
 10
11.6705188277
 20
5.2391686797
 30
0.0
 11
11.7315424561
 21
5.2391686797
 31
0.0
  0
LINE
  5
467
330
1F
100
AcDbEntity
  8
0
  6
Continuous
 62
     7
370
    15
100
AcDbLine
 10
12.420518837
 20
7.0534546476
 30
0.0
 11
12.420518837
 21
5.3146465078
 31
0.0
  0
LINE
  5
468
330
1F
100
AcDbEntity
  8
0
  6
Continuous
 62
     7
370
    15
100
AcDbLine
 10
12.420518837
 20
7.0534546476
 30
0.0
 11
11.6055582165
 21
7.0961649542
 31
0.0
  0
LINE
  5
469
330
1F
100
AcDbEntity
  8
0
  6
Continuous
 62
     7
370
    15
100
AcDbLine
 10
11.6055582165
 20
5.2719362012
 30
0.0
 11
12.420518837
 21
5.3146465078
 31
0.0
  0
LINE
  5
46A
330
1F
100
AcDbEntity
  8
0
  6
Continuous
 62
     7
370
    15
100
AcDbLine
 10
11.7512005124
 20
5.1929548402
 30
0.0
 11
11.7315424561
 21
5.1919245921
 31
0.0
  0
LINE
  5
46B
330
1F
100
AcDbEntity
  8
0
  6
Continuous
 62
     7
370
    15
100
AcDbLine
 10
12.4619494184
 20
5.2302035633
 30
0.0
 11
11.7905166615
 21
5.1950152631
 31
0.0
  0
LINE
  5
46C
330
1F
100
AcDbEntity
  8
0
  6
Continuous
 62
     7
370
    15
100
AcDbLine
 10
11.7905166615
 20
7.1730858923
 30
0.0
 11
12.4619494184
 21
7.1378975921
 31
0.0
  0
LINE
  5
46D
330
1F
100
AcDbEntity
  8
0
  6
Continuous
 62
     7
370
    15
100
AcDbLine
 10
11.7315424561
 20
7.1761765632
 30
0.0
 11
11.7512005124
 21
7.1751463151
 31
0.0
  0
ARC
  5
46E
330
1F
100
AcDbEntity
  8
0
  6
Continuous
 62
     7
370
    15
100
AcDbCircle
 10
12.4598889216
 20
7.0985814335
 30
0.0
 40
0.0393700787401592
100
AcDbArc
 50
0.0
 51
87.0
  0
LINE
  5
46F
330
1F
100
AcDbEntity
  8
0
  6
Continuous
 62
     7
370
    15
100
AcDbLine
 10
12.4992590074
 20
7.0985814063
 30
0.0
 11
12.4992590074
 21
5.2695197491
 31
0.0
  0
ARC
  5
470
330
1F
100
AcDbEntity
  8
0
  6
Continuous
 62
     7
370
    15
100
AcDbCircle
 10
12.4598889216
 20
5.2695197219
 30
0.0
 40
0.0393700787401592
100
AcDbArc
 50
273.0
 51
0.0
  0
LINE
  5
471
330
1F
100
AcDbEntity
  8
0
  6
Continuous
 62
     7
370
    15
100
AcDbLine
 10
11.672487365
 20
7.0926573147
 30
0.0
 11
11.672487365
 21
5.2754438406
 31
0.0
  0
LINE
  5
472
330
1F
100
AcDbEntity
  8
0
  6
CENTERX2
 62
     7
370
     0
100
AcDbLine
 10
12.4205188429
 20
7.0534546668
 30
0.0
 11
12.2161443719
 21
7.0534546668
 31
0.0
  0
HATCH
  5
473
330
1F
100
AcDbEntity
  8
0
  6
Continuous
 62
     7
370
     0
100
AcDbHatch
 10
0.0
 20
0.0
 30
0.0
210
0.0
220
0.0
230
1.0
  2
ANSI31
 70
     0
 71
     0
 91
        1
 92
        0
 93
       26
 72
     1
 10
11.60555821296208
 20
7.09616494357061
 11
12.42051884288334
 21
7.053454666753328
 72
     1
 10
12.42051884288334
 20
7.053454666753328
 11
12.42051884288334
 21
5.314646488600039
 72
     1
 10
12.42051884288334
 20
5.314646488600039
 11
11.60555821296208
 21
5.271936211782757
 72
     1
 10
11.60555821296208
 20
5.271936211782757
 11
11.60555821296208
 21
5.240139951837395
 72
     1
 10
11.60555821296208
 20
5.240139951837395
 11
11.67051884288334
 21
5.220091186875019
 72
     1
 10
11.67051884288334
 20
5.220091186875019
 11
11.67051884288334
 21
5.239168687912904
 72
     1
 10
11.67051884288334
 20
5.239168687912904
 11
11.73154246493059
 21
5.239168687912904
 72
     1
 10
11.73154246493059
 20
5.239168687912904
 11
11.73154246493041
 21
5.191924593424706
 72
     1
 10
11.73154246493041
 20
5.191924593424706
 11
11.75120052663836
 21
5.192954828783827
 72
     1
 10
11.75120052663836
 20
5.192954828783827
 11
11.75130355017427
 21
5.190989022613051
 72
     1
 10
11.75130355017427
 20
5.190989022613051
 11
11.7906196735898
 21
5.193049493331277
 72
     1
 10
11.7906196735898
 20
5.193049493331277
 11
11.79051665005389
 21
5.195015299502055
 72
     1
 10
11.79051665005389
 20
5.195015299502055
 11
12.46194939234173
 21
5.230203598463283
 72
     2
 10
12.4598889216235
 20
5.269519721878816
 40
0.0393700787401575
 50
273.0000000000025
 51
360.0000000000021
 73
     1
 72
     1
 10
12.49925900036366
 20
5.269519721878817
 11
12.49925900036366
 21
7.098581433474551
 72
     2
 10
12.4598889216235
 20
7.098581433474551
 40
0.0393700787401575
 50
0.0
 51
86.99999999999831
 73
     1
 72
     1
 10
12.46194939234173
 20
7.137897556890084
 11
11.79051665005389
 21
7.173085855851313
 72
     1
 10
11.79051665005389
 20
7.173085855851313
 11
11.7906196735898
 21
7.175051662022089
 72
     1
 10
11.7906196735898
 20
7.175051662022089
 11
11.75130355017427
 21
7.177112132740316
 72
     1
 10
11.75130355017427
 20
7.177112132740316
 11
11.75120052663836
 21
7.17514632656954
 72
     1
 10
11.75120052663836
 20
7.17514632656954
 11
11.73154246493041
 21
7.176176561928661
 72
     1
 10
11.73154246493041
 20
7.176176561928661
 11
11.73154246493059
 21
7.128932467440463
 72
     1
 10
11.73154246493059
 20
7.128932467440463
 11
11.67051884288334
 21
7.128932467440463
 72
     1
 10
11.67051884288334
 20
7.128932467440463
 11
11.67051884288334
 21
7.148009968478349
 72
     1
 10
11.67051884288334
 20
7.148009968478349
 11
11.60555821296208
 21
7.127961203515972
 72
     1
 10
11.60555821296208
 20
7.127961203515972
 11
11.60555821296208
 21
7.09616494357061
 97
        0
 75
     0
 76
     1
 52
0.0
 41
0.875
 77
     0
 78
     1
 53
45.0
 43
0.0
 44
0.0
 45
-0.0773398041922786
 46
0.0773398041922786
 79
     0
 98
        1
 10
0.0
 20
0.0
  0
DIMENSION
  5
474
330
1F
100
AcDbEntity
  8
0
  6
Continuous
 62
     7
370
     0
100
AcDbDimension
  2
*D32
 10
12.4205188429
 20
7.0534546668
 30
0.0
 11
11.4492205239
 21
6.8685837834
 31
0.0
 70
   162
 71
     1
 42
-1.0
  3
SLDDIMSTYLE7
100
AcDb2LineAngularDimension
 13
11.605558213
 23
7.0961649436
 33
0.0
 14
12.4205188429
 24
7.0534546668
 34
0.0
 15
12.2161443719
 25
7.0534546668
 35
0.0
 16
11.4447938333
 26
7.2133245312
 36
0.0
  0
DIMENSION
  5
487
330
1F
100
AcDbEntity
  8
0
  6
Continuous
 62
     7
370
     0
100
AcDbDimension
  2
*D33
 10
12.4992590004
 20
7.4463384814
 30
0.0
 11
12.1154007326
 21
7.4463384814
 31
0.0
 70
   160
 71
     2
 42
-1.0
  3
SLDDIMSTYLE0
100
AcDbAlignedDimension
 13
11.7315424649
 23
7.1761765619
 33
0.0
 14
12.4992590004
 24
7.0985814335
 34
0.0
100
AcDbRotatedDimension
  0
DIMENSION
  5
49B
330
1F
100
AcDbEntity
  8
0
  6
Continuous
 62
     7
370
     0
100
AcDbDimension
  2
*D34
 10
12.4992590004
 20
6.8685837834
 30
0.0
 11
12.9086316256
 21
6.8685837834
 31
0.0
 70
   160
 71
     2
 42
-1.0
  3
SLDDIMSTYLE5
100
AcDbAlignedDimension
 13
12.4205188429
 23
7.0534546668
 33
0.0
 14
12.4992590004
 24
7.0985814335
 34
0.0
100
AcDbRotatedDimension
  0
MTEXT
  5
4AD
330
1F
100
AcDbEntity
  8
0
  6
Continuous
 62
     7
370
     0
100
AcDbMText
 10
12.1237528627
 20
4.9701940743
 30
0.0
 40
0.109375
 41
0.0
 71
     2
 72
     1
  1
\LSECTION B-B
  7
SLDTEXTSTYLE0
 73
     1
 44
1.0
  0
LINE
  5
4AE
330
1F
100
AcDbEntity
  8
0
  6
Continuous
 62
     7
370
    15
100
AcDbLine
 10
13.6339125276
 20
5.1929548402
 30
0.0
 11
13.6340155597
 21
5.1909890163
 31
0.0
  0
LINE
  5
4AF
330
1F
100
AcDbEntity
  8
0
  6
Continuous
 62
     7
370
    15
100
AcDbLine
 10
13.6733316722
 20
5.1930495125
 30
0.0
 11
13.6732286768
 21
5.1950152631
 31
0.0
  0
LINE
  5
4B0
330
1F
100
AcDbEntity
  8
0
  6
Continuous
 62
     7
370
    15
100
AcDbLine
 10
13.6732286768
 20
7.1730858923
 30
0.0
 11
13.6733316722
 21
7.1750516429
 31
0.0
  0
LINE
  5
4B1
330
1F
100
AcDbEntity
  8
0
  6
Continuous
 62
     7
370
    15
100
AcDbLine
 10
13.6340155597
 20
7.1771121391
 30
0.0
 11
13.6339125276
 21
7.1751463151
 31
0.0
  0
LINE
  5
4B2
330
1F
100
AcDbEntity
  8
0
  6
Continuous
 62
     7
370
    15
100
AcDbLine
 10
13.6142544714
 20
6.7746017456
 30
0.0
 11
13.734752836
 21
6.7746017456
 31
0.0
  0
LINE
  5
4B3
330
1F
100
AcDbEntity
  8
0
  6
Continuous
 62
     7
370
    15
100
AcDbLine
 10
13.6142544714
 20
7.0974363928
 30
0.0
 11
13.6142544714
 21
6.7746017456
 31
0.0
  0
LINE
  5
4B4
330
1F
100
AcDbEntity
  8
0
  6
Continuous
 62
     7
370
    15
100
AcDbLine
 10
13.6142544714
 20
5.5934994098
 30
0.0
 11
13.6142544714
 21
5.2706647625
 31
0.0
  0
LINE
  5
4B5
330
1F
100
AcDbEntity
  8
0
  6
Continuous
 62
     7
370
    15
100
AcDbLine
 10
13.734752836
 20
5.5934994098
 30
0.0
 11
13.6142544714
 21
5.5934994098
 31
0.0
  0
LINE
  5
4B6
330
1F
100
AcDbEntity
  8
0
  6
Continuous
 62
     7
370
    15
100
AcDbLine
 10
13.734752836
 20
5.8297198843
 30
0.0
 11
13.734752836
 21
5.5934994098
 31
0.0
  0
LINE
  5
4B7
330
1F
100
AcDbEntity
  8
0
  6
Continuous
 62
     7
370
    15
100
AcDbLine
 10
13.6142544714
 20
5.8297198843
 30
0.0
 11
13.734752836
 21
5.8297198843
 31
0.0
  0
LINE
  5
4B8
330
1F
100
AcDbEntity
  8
0
  6
Continuous
 62
     7
370
    15
100
AcDbLine
 10
13.6142544714
 20
6.5383812711
 30
0.0
 11
13.6142544714
 21
5.8297198843
 31
0.0
  0
LINE
  5
4B9
330
1F
100
AcDbEntity
  8
0
  6
Continuous
 62
     7
370
    15
100
AcDbLine
 10
13.734752836
 20
6.5383812711
 30
0.0
 11
13.6142544714
 21
6.5383812711
 31
0.0
  0
LINE
  5
4BA
330
1F
100
AcDbEntity
  8
0
  6
Continuous
 62
     7
370
    15
100
AcDbLine
 10
13.734752836
 20
6.7746017456
 30
0.0
 11
13.734752836
 21
6.5383812711
 31
0.0
  0
LINE
  5
4BB
330
1F
100
AcDbEntity
  8
0
  6
Continuous
 62
     7
370
    15
100
AcDbLine
 10
13.6142544714
 20
7.1761765632
 30
0.0
 11
14.3446614336
 21
7.1378975921
 31
0.0
  0
LINE
  5
4BC
330
1F
100
AcDbEntity
  8
0
  6
Continuous
 62
     7
370
    15
100
AcDbLine
 10
13.6142544714
 20
7.1761765632
 30
0.0
 11
13.6142544714
 21
7.0974363928
 31
0.0
  0
LINE
  5
4BD
330
1F
100
AcDbEntity
  8
0
  6
Continuous
 62
     7
370
    15
100
AcDbLine
 10
14.3446614336
 20
5.2302035633
 30
0.0
 11
13.6142544714
 21
5.1919245921
 31
0.0
  0
LINE
  5
4BE
330
1F
100
AcDbEntity
  8
0
  6
Continuous
 62
     7
370
    15
100
AcDbLine
 10
13.6142544714
 20
5.2706647625
 30
0.0
 11
13.6142544714
 21
5.1919245921
 31
0.0
  0
LINE
  5
4BF
330
1F
100
AcDbEntity
  8
0
  6
Continuous
 62
     7
370
    15
100
AcDbLine
 10
13.7306381136
 20
5.8297198843
 30
0.0
 11
13.7306381136
 21
5.5934994098
 31
0.0
  0
LINE
  5
4C0
330
1F
100
AcDbEntity
  8
0
  6
Continuous
 62
     7
370
    15
100
AcDbLine
 10
13.7306381136
 20
6.5383812711
 30
0.0
 11
13.7306381136
 21
6.7746017456
 31
0.0
  0
ARC
  5
4C1
330
1F
100
AcDbEntity
  8
0
  6
Continuous
 62
     7
370
    15
100
AcDbCircle
 10
14.3426009369
 20
7.0985814335
 30
0.0
 40
0.0393700787401592
100
AcDbArc
 50
0.0
 51
87.0
  0
LINE
  5
4C2
330
1F
100
AcDbEntity
  8
0
  6
Continuous
 62
     7
370
    15
100
AcDbLine
 10
14.3819710226
 20
7.0974363928
 30
0.0
 11
14.3819710226
 21
7.0985814063
 31
0.0
  0
LINE
  5
4C3
330
1F
100
AcDbEntity
  8
0
  6
Continuous
 62
     7
370
    15
100
AcDbLine
 10
14.3819710226
 20
5.2695197491
 30
0.0
 11
14.3819710226
 21
5.2706647625
 31
0.0
  0
ARC
  5
4C4
330
1F
100
AcDbEntity
  8
0
  6
Continuous
 62
     7
370
    15
100
AcDbCircle
 10
14.3426009369
 20
5.2695197219
 30
0.0
 40
0.0393700787401592
100
AcDbArc
 50
273.0
 51
0.0
  0
LINE
  5
4C5
330
1F
100
AcDbEntity
  8
0
  6
Continuous
 62
     7
370
    15
100
AcDbLine
 10
14.3819710226
 20
7.0974363928
 30
0.0
 11
14.3819710226
 21
5.2706647625
 31
0.0
  0
LINE
  5
4C6
330
1F
100
AcDbEntity
  8
0
  6
Continuous
 62
     7
370
    15
100
AcDbLine
 10
13.5551993802
 20
5.2706647625
 30
0.0
 11
13.5551993802
 21
5.5934994098
 31
0.0
  0
LINE
  5
4C7
330
1F
100
AcDbEntity
  8
0
  6
Continuous
 62
     7
370
    15
100
AcDbLine
 10
13.5551993802
 20
5.5934994098
 30
0.0
 11
13.6142544714
 21
5.5934994098
 31
0.0
  0
LINE
  5
4C8
330
1F
100
AcDbEntity
  8
0
  6
Continuous
 62
     7
370
    15
100
AcDbLine
 10
13.5551993802
 20
5.8297198843
 30
0.0
 11
13.5551993802
 21
6.5383812711
 31
0.0
  0
LINE
  5
4C9
330
1F
100
AcDbEntity
  8
0
  6
Continuous
 62
     7
370
    15
100
AcDbLine
 10
13.6142544714
 20
5.8297198843
 30
0.0
 11
13.5551993802
 21
5.8297198843
 31
0.0
  0
LINE
  5
4CA
330
1F
100
AcDbEntity
  8
0
  6
Continuous
 62
     7
370
    15
100
AcDbLine
 10
13.5551993802
 20
6.5383812711
 30
0.0
 11
13.6142544714
 21
6.5383812711
 31
0.0
  0
LINE
  5
4CB
330
1F
100
AcDbEntity
  8
0
  6
Continuous
 62
     7
370
    15
100
AcDbLine
 10
13.5551993802
 20
6.7746017456
 30
0.0
 11
13.5551993802
 21
7.0974363928
 31
0.0
  0
LINE
  5
4CC
330
1F
100
AcDbEntity
  8
0
  6
Continuous
 62
     7
370
    15
100
AcDbLine
 10
13.5551993802
 20
6.7746017456
 30
0.0
 11
13.6142544714
 21
6.7746017456
 31
0.0
  0
LINE
  5
4CD
330
1F
100
AcDbEntity
  8
0
  6
Continuous
 62
     7
370
    15
100
AcDbLine
 10
13.6142544714
 20
7.1289324757
 30
0.0
 11
13.5551993802
 21
7.1289324757
 31
0.0
  0
LINE
  5
4CE
330
1F
100
AcDbEntity
  8
0
  6
Continuous
 62
     7
370
    15
100
AcDbLine
 10
13.5551993802
 20
7.1289324757
 30
0.0
 11
13.5551993802
 21
7.0974363928
 31
0.0
  0
LINE
  5
4CF
330
1F
100
AcDbEntity
  8
0
  6
Continuous
 62
     7
370
    15
100
AcDbLine
 10
13.5551993802
 20
5.2391686797
 30
0.0
 11
13.6142544714
 21
5.2391686797
 31
0.0
  0
LINE
  5
4D0
330
1F
100
AcDbEntity
  8
0
  6
Continuous
 62
     7
370
    15
100
AcDbLine
 10
13.5551993802
 20
5.2706647625
 30
0.0
 11
13.5551993802
 21
5.2391686797
 31
0.0
  0
LINE
  5
4D1
330
1F
100
AcDbEntity
  8
0
  6
Continuous
 62
     7
370
    15
100
AcDbLine
 10
13.5551993802
 20
6.5383812711
 30
0.0
 11
13.5551993802
 21
6.7746017456
 31
0.0
  0
LINE
  5
4D2
330
1F
100
AcDbEntity
  8
0
  6
Continuous
 62
     7
370
    15
100
AcDbLine
 10
13.5551993802
 20
5.5934994098
 30
0.0
 11
13.5551993802
 21
5.8297198843
 31
0.0
  0
LINE
  5
4D3
330
1F
100
AcDbEntity
  8
0
  6
Continuous
 62
     7
370
    15
100
AcDbLine
 10
13.553230843
 20
5.2200911601
 30
0.0
 11
13.4882702317
 21
5.2401399685
 31
0.0
  0
LINE
  5
4D4
330
1F
100
AcDbEntity
  8
0
  6
Continuous
 62
     7
370
    15
100
AcDbLine
 10
13.4882702317
 20
5.2401399685
 30
0.0
 11
13.4882702317
 21
5.2719362012
 31
0.0
  0
LINE
  5
4D5
330
1F
100
AcDbEntity
  8
0
  6
Continuous
 62
     7
370
    15
100
AcDbLine
 10
13.5551993802
 20
5.2391686797
 30
0.0
 11
13.553230843
 21
5.2391686797
 31
0.0
  0
LINE
  5
4D6
330
1F
100
AcDbEntity
  8
0
  6
Continuous
 62
     7
370
    15
100
AcDbLine
 10
13.553230843
 20
5.2391686797
 30
0.0
 11
13.553230843
 21
5.2200911601
 31
0.0
  0
LINE
  5
4D7
330
1F
100
AcDbEntity
  8
0
  6
Continuous
 62
     7
370
    15
100
AcDbLine
 10
13.4882702317
 20
5.2719362012
 30
0.0
 11
13.5551993802
 21
5.2754438406
 31
0.0
  0
LINE
  5
4D8
330
1F
100
AcDbEntity
  8
0
  6
Continuous
 62
     7
370
    15
100
AcDbLine
 10
13.553230843
 20
7.1480099953
 30
0.0
 11
13.553230843
 21
7.1289324757
 31
0.0
  0
LINE
  5
4D9
330
1F
100
AcDbEntity
  8
0
  6
Continuous
 62
     7
370
    15
100
AcDbLine
 10
13.4882702317
 20
7.1279611869
 30
0.0
 11
13.4882702317
 21
7.0961649542
 31
0.0
  0
LINE
  5
4DA
330
1F
100
AcDbEntity
  8
0
  6
Continuous
 62
     7
370
    15
100
AcDbLine
 10
13.553230843
 20
7.1480099953
 30
0.0
 11
13.4882702317
 21
7.1279611869
 31
0.0
  0
LINE
  5
4DB
330
1F
100
AcDbEntity
  8
0
  6
Continuous
 62
     7
370
    15
100
AcDbLine
 10
13.553230843
 20
7.1289324757
 30
0.0
 11
13.5551993802
 21
7.1289324757
 31
0.0
  0
LINE
  5
4DC
330
1F
100
AcDbEntity
  8
0
  6
Continuous
 62
     7
370
    15
100
AcDbLine
 10
13.5551993802
 20
7.0926573147
 30
0.0
 11
13.4882702317
 21
7.0961649542
 31
0.0
  0
LWPOLYLINE
  5
4DD
330
1F
100
AcDbEntity
  8
0
  6
Continuous
 62
     7
370
    15
100
AcDbPolyline
 90
       10
 70
   128
 43
0.0
 10
13.6340155597
 20
5.1909890163
 10
13.6353430244
 20
5.1910586088
 10
13.6391461571
 20
5.1912579265
 10
13.6449112639
 20
5.1915600563
 10
13.6518598103
 20
5.1919242255
 10
13.6590533238
 20
5.1923012278
 10
13.6655202591
 20
5.1926400972
 10
13.6703872629
 20
5.1928951476
 10
13.6729969828
 20
5.193031986
 10
13.6733316722
 20
5.1930495125
  0
LWPOLYLINE
  5
4DE
330
1F
100
AcDbEntity
  8
0
  6
Continuous
 62
     7
370
    15
100
AcDbPolyline
 90
       10
 70
   128
 43
0.0
 10
13.6733316722
 20
7.1750516429
 10
13.6720042076
 20
7.1751212354
 10
13.6682011115
 20
7.1753205531
 10
13.6624359681
 20
7.175622683
 10
13.6554874584
 20
7.1759868521
 10
13.6482939448
 20
7.1763638544
 10
13.6418270095
 20
7.1767027238
 10
13.6369600057
 20
7.1769578475
 10
13.6343502859
 20
7.1770946126
 10
13.6340155597
 20
7.1771121391
  0
DIMENSION
  5
4DF
330
1F
100
AcDbEntity
  8
0
  6
Continuous
 62
     7
370
     0
100
AcDbDimension
  2
*D35
 10
13.0912867984
 20
6.6564915226
 30
0.0
 11
13.0912867984
 21
6.1840505777
 31
0.0
 70
   160
 71
     2
 42
-1.0
  3
SLDDIMSTYLE0
100
AcDbAlignedDimension
 13
13.3364493621
 23
5.7116096328
 33
0.0
 14
13.3364493621
 24
6.6564915226
 34
0.0
 50
90.0
100
AcDbRotatedDimension
  0
DIMENSION
  5
4F3
330
1F
100
AcDbEntity
  8
0
  6
Continuous
 62
     7
370
     0
100
AcDbDimension
  2
*D36
 10
13.3708360578
 20
5.829719869
 30
0.0
 11
13.3708360578
 21
5.3751679791
 31
0.0
 70
   160
 71
     2
 42
-1.0
  3
SLDDIMSTYLE5
100
AcDbAlignedDimension
 13
13.5551993621
 23
5.5934993966
 33
0.0
 14
13.5551993621
 24
5.829719869
 34
0.0
 50
90.0
100
AcDbRotatedDimension
  0
DIMENSION
  5
508
330
1F
100
AcDbEntity
  8
0
  6
Continuous
 62
     7
370
     0
100
AcDbDimension
  2
*D37
 10
13.7347528488
 20
4.9038489408
 30
0.0
 11
14.1538304511
 21
4.9038489408
 31
0.0
 70
   160
 71
     2
 42
-1.0
  3
SLDDIMSTYLE5
100
AcDbAlignedDimension
 13
13.6142544802
 23
5.1919245934
 33
0.0
 14
13.7347528488
 24
5.5934993966
 34
0.0
 50
0.0
100
AcDbRotatedDimension
  0
INSERT
  5
522
102
{ACAD_REACTORS
330
52C
102
}
330
1F
100
AcDbEntity
  8
0
  6
Continuous
 62
     7
370
     0
100
AcDbBlockReference
  2
SW_NOTE_5
 10
13.2588877969
 20
7.8302281879
 30
0.0
  0
LEADER
  5
52C
330
1F
100
AcDbEntity
  8
0
  6
Continuous
 62
     7
370
     0
100
AcDbLeader
  3
SLDDIMSTYLE8
 73
     2
 76
     3
 10
13.6248933446
 20
6.7170292161
 30
0.0
 10
13.0401377969
 20
7.8302281879
 30
0.0
 10
13.2588877969
 20
7.8302281879
 30
0.0
340
522
  0
LINE
  5
52D
330
1F
100
AcDbEntity
  8
0
  6
CENTERX2
 62
     7
370
     0
100
AcDbLine
 10
13.9535028488
 20
5.7116096328
 30
0.0
 11
13.3364493621
 21
5.7116096328
 31
0.0
  0
LINE
  5
52E
330
1F
100
AcDbEntity
  8
0
  6
CENTERX2
 62
     7
370
     0
100
AcDbLine
 10
13.3364493621
 20
6.6564915226
 30
0.0
 11
13.9535028488
 21
6.6564915226
 31
0.0
  0
LINE
  5
52F
330
1F
100
AcDbEntity
  8
0
  6
Continuous
 62
     7
370
    15
100
AcDbLine
 10
4.9061351591
 20
0.7392671219
 30
0.0
 11
4.9026991655
 21
0.93611751
 31
0.0
  0
LINE
  5
530
330
1F
100
AcDbEntity
  8
0
  6
Continuous
 62
     7
370
    15
100
AcDbLine
 10
4.6733507516
 20
0.93611751
 30
0.0
 11
4.6699147213
 21
0.7392671219
 31
0.0
  0
LINE
  5
531
330
1F
100
AcDbEntity
  8
0
  6
Continuous
 62
     7
370
    15
100
AcDbLine
 10
3.3313320447
 20
0.7392671219
 30
0.0
 11
3.3278959777
 21
0.93611751
 31
0.0
  0
LINE
  5
532
330
1F
100
AcDbEntity
  8
0
  6
Continuous
 62
     7
370
    15
100
AcDbLine
 10
3.0985476005
 20
0.93611751
 30
0.0
 11
3.0951115335
 21
0.7392671219
 31
0.0
  0
LINE
  5
533
330
1F
100
AcDbEntity
  8
0
  6
Continuous
 62
     7
370
    15
100
AcDbLine
 10
5.3313320205
 20
1.0542277484
 30
0.0
 11
5.3313320205
 21
0.9951726298
 31
0.0
  0
LINE
  5
534
330
1F
100
AcDbEntity
  8
0
  6
Continuous
 62
     7
370
    15
100
AcDbLine
 10
5.3785761081
 20
1.0542277484
 30
0.0
 11
5.3313320205
 21
1.0542277484
 31
0.0
  0
LINE
  5
535
330
1F
100
AcDbEntity
  8
0
  6
Continuous
 62
     7
370
    15
100
AcDbLine
 10
5.3785761081
 20
1.0542277484
 30
0.0
 11
5.340297137
 21
1.7846346557
 31
0.0
  0
ARC
  5
536
330
1F
100
AcDbEntity
  8
0
  6
Continuous
 62
     7
370
    15
100
AcDbCircle
 10
5.3009809994
 20
1.7825742031
 30
0.0
 40
0.0393700787401581
100
AcDbArc
 50
3.0
 51
90.0
  0
LINE
  5
537
330
1F
100
AcDbEntity
  8
0
  6
Continuous
 62
     7
370
    15
100
AcDbLine
 10
5.3313320205
 20
0.9951726298
 30
0.0
 11
5.2950569329
 21
0.9951726298
 31
0.0
  0
LINE
  5
538
330
1F
100
AcDbEntity
  8
0
  6
Continuous
 62
     7
370
    15
100
AcDbLine
 10
5.2558542658
 20
1.7432041476
 30
0.0
 11
5.2950569329
 21
0.9951726298
 31
0.0
  0
LINE
  5
539
330
1F
100
AcDbEntity
  8
0
  6
Continuous
 62
     7
370
    15
100
AcDbLine
 10
5.2558542658
 20
1.7432041476
 30
0.0
 11
2.7453925002
 21
1.7432041476
 31
0.0
  0
LINE
  5
53A
330
1F
100
AcDbEntity
  8
0
  6
Continuous
 62
     7
370
    15
100
AcDbLine
 10
2.7061898331
 20
0.9951726298
 30
0.0
 11
2.7453925002
 21
1.7432041476
 31
0.0
  0
LINE
  5
53B
330
1F
100
AcDbEntity
  8
0
  6
Continuous
 62
     7
370
    15
100
AcDbLine
 10
5.3009810245
 20
1.821944318
 30
0.0
 11
2.7002657415
 21
1.821944318
 31
0.0
  0
LINE
  5
53C
330
1F
100
AcDbEntity
  8
0
  6
Continuous
 62
     7
370
    15
100
AcDbLine
 10
2.7061898331
 20
0.9951726298
 30
0.0
 11
2.6699147455
 21
0.9951726298
 31
0.0
  0
LINE
  5
53D
330
1F
100
AcDbEntity
  8
0
  6
Continuous
 62
     7
370
    15
100
AcDbLine
 10
2.6699147455
 20
0.9951726298
 30
0.0
 11
2.6699147455
 21
1.0542277484
 31
0.0
  0
LINE
  5
53E
330
1F
100
AcDbEntity
  8
0
  6
Continuous
 62
     7
370
    15
100
AcDbLine
 10
2.6609495557
 20
1.7846346557
 30
0.0
 11
2.6226705846
 21
1.0542277484
 31
0.0
  0
ARC
  5
53F
330
1F
100
AcDbEntity
  8
0
  6
Continuous
 62
     7
370
    15
100
AcDbCircle
 10
2.7002657445
 20
1.7825742031
 30
0.0
 40
0.0393700787401577
100
AcDbArc
 50
90.0
 51
177.0
  0
LINE
  5
540
330
1F
100
AcDbEntity
  8
0
  6
Continuous
 62
     7
370
    15
100
AcDbLine
 10
2.6699147455
 20
1.0542277484
 30
0.0
 11
2.6226705846
 21
1.0542277484
 31
0.0
  0
LINE
  5
541
330
1F
100
AcDbEntity
  8
0
  6
Continuous
 62
     7
370
    15
100
AcDbLine
 10
4.3155840095
 20
1.0542277484
 30
0.0
 11
4.3155840095
 21
0.9951726298
 31
0.0
  0
LINE
  5
542
330
1F
100
AcDbEntity
  8
0
  6
Continuous
 62
     7
370
    15
100
AcDbLine
 10
4.2762139243
 20
0.928243495
 30
0.0
 11
4.2762139243
 21
1.0542277484
 31
0.0
  0
LINE
  5
543
330
1F
100
AcDbEntity
  8
0
  6
Continuous
 62
     7
370
    15
100
AcDbLine
 10
3.7250328233
 20
0.928243495
 30
0.0
 11
4.2762139243
 21
0.928243495
 31
0.0
  0
LINE
  5
544
330
1F
100
AcDbEntity
  8
0
  6
Continuous
 62
     7
370
    15
100
AcDbLine
 10
3.7250328233
 20
1.0542277484
 30
0.0
 11
3.7250328233
 21
0.928243495
 31
0.0
  0
LINE
  5
545
330
1F
100
AcDbEntity
  8
0
  6
Continuous
 62
     7
370
    15
100
AcDbLine
 10
3.6856627381
 20
0.9951726298
 30
0.0
 11
3.6856627381
 21
1.0542277484
 31
0.0
  0
LINE
  5
546
330
1F
100
AcDbEntity
  8
0
  6
Continuous
 62
     7
370
    15
100
AcDbLine
 10
3.6856627381
 20
1.0542277484
 30
0.0
 11
3.7250328233
 21
1.0542277484
 31
0.0
  0
LINE
  5
547
330
1F
100
AcDbEntity
  8
0
  6
Continuous
 62
     7
370
    15
100
AcDbLine
 10
4.2762139243
 20
1.0542277484
 30
0.0
 11
4.3155840095
 21
1.0542277484
 31
0.0
  0
LINE
  5
548
330
1F
100
AcDbEntity
  8
0
  6
Continuous
 62
     7
370
    15
100
AcDbLine
 10
2.3294176389
 20
0.8180072739
 30
0.0
 11
2.3294176389
 21
0.6605269515
 31
0.0
  0
LINE
  5
549
330
1F
100
AcDbEntity
  8
0
  6
Continuous
 62
     7
370
    15
100
AcDbLine
 10
2.3294176389
 20
0.6605269515
 30
0.0
 11
2.2210958769
 21
0.6605269515
 31
0.0
  0
LINE
  5
54A
330
1F
100
AcDbEntity
  8
0
  6
Continuous
 62
     7
370
    15
100
AcDbLine
 10
2.3294176389
 20
0.8180072739
 30
0.0
 11
2.2604658888
 21
0.8180072739
 31
0.0
  0
ARC
  5
54B
330
1F
100
AcDbEntity
  8
0
  6
Continuous
 62
     7
370
    15
100
AcDbCircle
 10
2.2604658916
 20
0.7786371953
 30
0.0
 40
0.0393700787401575
100
AcDbArc
 50
90.0
 51
180.0
  0
LINE
  5
54C
330
1F
100
AcDbEntity
  8
0
  6
Continuous
 62
     7
370
    15
100
AcDbLine
 10
2.2210958769
 20
0.7786371979
 30
0.0
 11
2.2210958769
 21
0.6605269515
 31
0.0
  0
LINE
  5
54D
330
1F
100
AcDbEntity
  8
0
  6
Continuous
 62
     7
370
    15
100
AcDbLine
 10
2.5064746735
 20
0.6605269515
 30
0.0
 11
2.5064746735
 21
0.8180072739
 31
0.0
  0
LINE
  5
54E
330
1F
100
AcDbEntity
  8
0
  6
Continuous
 62
     7
370
    15
100
AcDbLine
 10
2.3294176389
 20
0.6605269515
 30
0.0
 11
2.5064746735
 21
0.6605269515
 31
0.0
  0
LINE
  5
54F
330
1F
100
AcDbEntity
  8
0
  6
Continuous
 62
     7
370
    15
100
AcDbLine
 10
2.3294176389
 20
0.8180072739
 30
0.0
 11
2.5064746735
 21
0.8180072739
 31
0.0
  0
LINE
  5
550
330
1F
100
AcDbEntity
  8
0
  6
Continuous
 62
     7
370
    15
100
AcDbLine
 10
5.3352690217
 20
0.9951726298
 30
0.0
 11
5.2888670111
 21
0.9951726298
 31
0.0
  0
LINE
  5
551
330
1F
100
AcDbEntity
  8
0
  6
Continuous
 62
     7
370
    15
100
AcDbLine
 10
5.3352690217
 20
0.9951726298
 30
0.0
 11
5.3352690217
 21
1.0542277484
 31
0.0
  0
LINE
  5
552
330
1F
100
AcDbEntity
  8
0
  6
Continuous
 62
     7
370
    15
100
AcDbLine
 10
5.3588910288
 20
1.0542277484
 30
0.0
 11
5.3352690217
 21
1.0542277484
 31
0.0
  0
LINE
  5
553
330
1F
100
AcDbEntity
  8
0
  6
Continuous
 62
     7
370
    15
100
AcDbLine
 10
5.3588910288
 20
1.0148576632
 30
0.0
 11
5.3588910288
 21
1.0542277484
 31
0.0
  0
LINE
  5
554
330
1F
100
AcDbEntity
  8
0
  6
Continuous
 62
     7
370
    15
100
AcDbLine
 10
5.3806393909
 20
1.0148576632
 30
0.0
 11
5.3588910288
 21
1.0148576632
 31
0.0
  0
LINE
  5
555
330
1F
100
AcDbEntity
  8
0
  6
Continuous
 62
     7
370
    15
100
AcDbLine
 10
5.3909559518
 20
0.8180072739
 30
0.0
 11
5.3806393909
 21
1.0148576632
 31
0.0
  0
LINE
  5
556
330
1F
100
AcDbEntity
  8
0
  6
Continuous
 62
     7
370
    15
100
AcDbLine
 10
5.4947720191
 20
0.8180072739
 30
0.0
 11
5.4947720191
 21
0.6605269515
 31
0.0
  0
LINE
  5
557
330
1F
100
AcDbEntity
  8
0
  6
Continuous
 62
     7
370
    15
100
AcDbLine
 10
2.6423556638
 20
1.0148576632
 30
0.0
 11
2.6206073017
 21
1.0148576632
 31
0.0
  0
LINE
  5
558
330
1F
100
AcDbEntity
  8
0
  6
Continuous
 62
     7
370
    15
100
AcDbLine
 10
2.6423556638
 20
1.0542277484
 30
0.0
 11
2.6423556638
 21
1.0148576632
 31
0.0
  0
LINE
  5
559
330
1F
100
AcDbEntity
  8
0
  6
Continuous
 62
     7
370
    15
100
AcDbLine
 10
2.6659776709
 20
1.0542277484
 30
0.0
 11
2.6423556638
 21
1.0542277484
 31
0.0
  0
LINE
  5
55A
330
1F
100
AcDbEntity
  8
0
  6
Continuous
 62
     7
370
    15
100
AcDbLine
 10
2.6659776709
 20
1.0542277484
 30
0.0
 11
2.6659776709
 21
0.9951726298
 31
0.0
  0
LINE
  5
55B
330
1F
100
AcDbEntity
  8
0
  6
Continuous
 62
     7
370
    15
100
AcDbLine
 10
2.7123796816
 20
0.9951726298
 30
0.0
 11
2.6659776709
 21
0.9951726298
 31
0.0
  0
LINE
  5
55C
330
1F
100
AcDbEntity
  8
0
  6
Continuous
 62
     7
370
    15
100
AcDbLine
 10
2.7257911666
 20
0.7392671219
 30
0.0
 11
2.7123796816
 21
0.9951726298
 31
0.0
  0
LINE
  5
55D
330
1F
100
AcDbEntity
  8
0
  6
Continuous
 62
     7
370
    15
100
AcDbLine
 10
5.2754555994
 20
0.7392671219
 30
0.0
 11
2.7257911666
 21
0.7392671219
 31
0.0
  0
LINE
  5
55E
330
1F
100
AcDbEntity
  8
0
  6
Continuous
 62
     7
370
    15
100
AcDbLine
 10
5.2888670111
 20
0.9951726298
 30
0.0
 11
5.2754555994
 21
0.7392671219
 31
0.0
  0
LINE
  5
55F
330
1F
100
AcDbEntity
  8
0
  6
Continuous
 62
     7
370
    15
100
AcDbLine
 10
2.6206073017
 20
1.0148576632
 30
0.0
 11
2.6102908876
 21
0.8180072739
 31
0.0
  0
LINE
  5
560
330
1F
100
AcDbEntity
  8
0
  6
Continuous
 62
     7
370
    15
100
AcDbLine
 10
5.4947720191
 20
0.6605269515
 30
0.0
 11
2.5064746735
 21
0.6605269515
 31
0.0
  0
LINE
  5
561
330
1F
100
AcDbEntity
  8
0
  6
Continuous
 62
     7
370
    15
100
AcDbLine
 10
5.4947720191
 20
0.8180072739
 30
0.0
 11
5.3909559518
 21
0.8180072739
 31
0.0
  0
LINE
  5
562
330
1F
100
AcDbEntity
  8
0
  6
Continuous
 62
     7
370
    15
100
AcDbLine
 10
2.6102908876
 20
0.8180072739
 30
0.0
 11
2.5064746735
 21
0.8180072739
 31
0.0
  0
LINE
  5
563
330
1F
100
AcDbEntity
  8
0
  6
Continuous
 62
     7
370
    15
100
AcDbLine
 10
5.6718290537
 20
0.6605269515
 30
0.0
 11
5.6718290537
 21
0.8180072739
 31
0.0
  0
LINE
  5
564
330
1F
100
AcDbEntity
  8
0
  6
Continuous
 62
     7
370
    15
100
AcDbLine
 10
5.4947720191
 20
0.6605269515
 30
0.0
 11
5.6718290537
 21
0.6605269515
 31
0.0
  0
LINE
  5
565
330
1F
100
AcDbEntity
  8
0
  6
Continuous
 62
     7
370
    15
100
AcDbLine
 10
5.4947720191
 20
0.8180072739
 30
0.0
 11
5.6718290537
 21
0.8180072739
 31
0.0
  0
LINE
  5
566
330
1F
100
AcDbEntity
  8
0
  6
Continuous
 62
     7
370
    15
100
AcDbLine
 10
5.7801509624
 20
0.6605269515
 30
0.0
 11
5.6718290537
 21
0.6605269515
 31
0.0
  0
LINE
  5
567
330
1F
100
AcDbEntity
  8
0
  6
Continuous
 62
     7
370
    15
100
AcDbLine
 10
5.7801509624
 20
0.7786371979
 30
0.0
 11
5.7801509624
 21
0.6605269515
 31
0.0
  0
LINE
  5
568
330
1F
100
AcDbEntity
  8
0
  6
Continuous
 62
     7
370
    15
100
AcDbLine
 10
5.7407808039
 20
0.8180072739
 30
0.0
 11
5.6718290537
 21
0.8180072739
 31
0.0
  0
ARC
  5
569
330
1F
100
AcDbEntity
  8
0
  6
Continuous
 62
     7
370
    15
100
AcDbCircle
 10
5.7407808522
 20
0.7786371953
 30
0.0
 40
0.0393700787401575
100
AcDbArc
 50
0.0
 51
90.0
  0
LINE
  5
56A
330
1F
100
AcDbEntity
  8
0
  6
Continuous
 62
     7
370
    15
100
AcDbLine
 10
4.9026991655
 20
0.93611751
 30
0.0
 11
4.6733507516
 21
0.93611751
 31
0.0
  0
LINE
  5
56B
330
1F
100
AcDbEntity
  8
0
  6
Continuous
 62
     7
370
    15
100
AcDbLine
 10
3.3278959777
 20
0.93611751
 30
0.0
 11
3.0985476005
 21
0.93611751
 31
0.0
  0
LINE
  5
56C
330
1F
100
AcDbEntity
  8
0
  6
Continuous
 62
     7
370
    15
100
AcDbLine
 10
3.6856627381
 20
0.9164324709
 30
0.0
 11
3.6856627381
 21
0.9951726298
 31
0.0
  0
LINE
  5
56D
330
1F
100
AcDbEntity
  8
0
  6
Continuous
 62
     7
370
    15
100
AcDbLine
 10
4.3155840095
 20
0.9164324709
 30
0.0
 11
3.6856627381
 21
0.9164324709
 31
0.0
  0
LINE
  5
56E
330
1F
100
AcDbEntity
  8
0
  6
Continuous
 62
     7
370
    15
100
AcDbLine
 10
4.3155840095
 20
0.9951726298
 30
0.0
 11
4.3155840095
 21
0.9164324709
 31
0.0
  0
LINE
  5
56F
330
1F
100
AcDbEntity
  8
0
  6
Continuous
 62
     7
370
    15
100
AcDbLine
 10
4.3155840095
 20
0.9951726298
 30
0.0
 11
5.2888670111
 21
0.9951726298
 31
0.0
  0
LINE
  5
570
330
1F
100
AcDbEntity
  8
0
  6
Continuous
 62
     7
370
    15
100
AcDbLine
 10
2.7123796816
 20
0.9951726298
 30
0.0
 11
3.6856627381
 21
0.9951726298
 31
0.0
  0
LINE
  5
571
330
1F
100
AcDbEntity
  8
0
  6
Continuous
 62
     7
370
    15
100
AcDbLine
 10
4.3155840095
 20
0.9951726298
 30
0.0
 11
4.2762139243
 21
0.9951726298
 31
0.0
  0
LINE
  5
572
330
1F
100
AcDbEntity
  8
0
  6
Continuous
 62
     7
370
    15
100
AcDbLine
 10
3.7250328233
 20
0.9951726298
 30
0.0
 11
3.6856627381
 21
0.9951726298
 31
0.0
  0
HATCH
  5
573
330
1F
100
AcDbEntity
  8
0
  6
Continuous
 62
     7
370
     0
100
AcDbHatch
 10
0.0
 20
0.0
 30
0.0
210
0.0
220
0.0
230
1.0
  2
ANSI31
 70
     0
 71
     0
 91
        1
 92
        0
 93
        5
 72
     1
 10
2.329417687001011
 20
0.8180072740045805
 11
2.26046589158752
 21
0.8180072740045805
 72
     2
 10
2.26046589158752
 20
0.778637195264423
 40
0.0393700787401575
 50
89.99999999999935
 51
180.0
 73
     1
 72
     1
 10
2.221095812847362
 20
0.778637195264423
 11
2.221095812847362
 21
0.6605269590439506
 72
     1
 10
2.221095812847362
 20
0.6605269590439506
 11
2.329417687001011
 21
0.6605269590439506
 72
     1
 10
2.329417687001011
 20
0.6605269590439506
 11
2.329417687001011
 21
0.8180072740045805
 97
        0
 75
     0
 76
     1
 52
0.0
 41
0.875
 77
     0
 78
     1
 53
45.0
 43
0.0
 44
0.0
 45
-0.0773398041922786
 46
0.0773398041922786
 79
     0
 98
        1
 10
0.0
 20
0.0
  0
HATCH
  5
574
330
1F
100
AcDbEntity
  8
0
  6
Continuous
 62
     7
370
     0
100
AcDbHatch
 10
0.0
 20
0.0
 30
0.0
210
0.0
220
0.0
230
1.0
  2
ANSI31
 70
     0
 71
     0
 91
        1
 92
        0
 93
       20
 72
     1
 10
5.288867006984191
 20
0.9951726283352892
 11
5.275455567403884
 21
0.7392671165242655
 72
     1
 10
5.275455567403884
 20
0.7392671165242655
 11
2.725791176401076
 21
0.7392671165242655
 72
     1
 10
2.725791176401076
 20
0.7392671165242655
 11
2.71237973682077
 21
0.9951726283352892
 72
     1
 10
2.71237973682077
 20
0.9951726283352892
 11
2.665977702611142
 21
0.9951726283352892
 72
     1
 10
2.665977702611142
 20
0.9951726283352892
 11
2.665977702611142
 21
1.054227746445525
 72
     1
 10
2.665977702611142
 20
1.054227746445525
 11
2.642355655367048
 21
1.054227746445525
 72
     1
 10
2.642355655367048
 20
1.054227746445525
 11
2.642355655367048
 21
1.014857667705368
 72
     1
 10
2.642355655367048
 20
1.014857667705368
 11
2.620607317600138
 21
1.014857667708035
 72
     1
 10
2.620607317600138
 20
1.014857667708035
 11
2.610290825615231
 21
0.8180072740045805
 72
     1
 10
2.610290825615231
 20
0.8180072740045805
 11
2.506474726095288
 21
0.8180072740045805
 72
     1
 10
2.506474726095288
 20
0.8180072740045805
 11
2.506474726095288
 21
0.6605269590439506
 72
     1
 10
2.506474726095288
 20
0.6605269590439506
 11
5.494772017709672
 21
0.6605269590439506
 72
     1
 10
5.494772017709672
 20
0.6605269590439506
 11
5.494772017709672
 21
0.8180072740045805
 72
     1
 10
5.494772017709672
 20
0.8180072740045805
 11
5.39095591818973
 21
0.8180072740045805
 72
     1
 10
5.39095591818973
 20
0.8180072740045805
 11
5.380639426204822
 21
1.014857667708035
 72
     1
 10
5.380639426204822
 20
1.014857667708035
 11
5.358891088437913
 21
1.014857667705368
 72
     1
 10
5.358891088437913
 20
1.014857667705368
 11
5.358891088437913
 21
1.054227746445525
 72
     1
 10
5.358891088437913
 20
1.054227746445525
 11
5.335269041193819
 21
1.054227746445525
 72
     1
 10
5.335269041193819
 20
1.054227746445525
 11
5.335269041193819
 21
0.9951726283352892
 72
     1
 10
5.335269041193819
 20
0.9951726283352892
 11
5.288867006984191
 21
0.9951726283352892
 97
        0
 75
     0
 76
     1
 52
0.0
 41
0.875
 77
     0
 78
     1
 53
45.0
 43
0.0
 44
0.0
 45
-0.0773398041922786
 46
0.0773398041922786
 79
     0
 98
        1
 10
0.0
 20
0.0
  0
HATCH
  5
575
330
1F
100
AcDbEntity
  8
0
  6
Continuous
 62
     7
370
     0
100
AcDbHatch
 10
0.0
 20
0.0
 30
0.0
210
0.0
220
0.0
230
1.0
  2
ANSI31
 70
     0
 71
     0
 91
        1
 92
        0
 93
        5
 72
     1
 10
5.780150930957599
 20
0.6605269590439506
 11
5.780150930957598
 21
0.778637195264423
 72
     2
 10
5.740780852217441
 20
0.778637195264423
 40
0.0393700787401575
 50
0.0
 51
90.0
 73
     1
 72
     1
 10
5.740780852217441
 20
0.8180072740045805
 11
5.671829056803951
 21
0.8180072740045805
 72
     1
 10
5.671829056803951
 20
0.8180072740045805
 11
5.671829056803951
 21
0.6605269590439506
 72
     1
 10
5.671829056803951
 20
0.6605269590439506
 11
5.780150930957599
 21
0.6605269590439506
 97
        0
 75
     0
 76
     1
 52
0.0
 41
0.875
 77
     0
 78
     1
 53
45.0
 43
0.0
 44
0.0
 45
-0.0773398041922786
 46
0.0773398041922786
 79
     0
 98
        1
 10
0.0
 20
0.0
  0
HATCH
  5
576
330
1F
100
AcDbEntity
  8
0
  6
Continuous
 62
     7
370
     0
100
AcDbHatch
 10
0.0
 20
0.0
 30
0.0
210
0.0
220
0.0
230
1.0
  2
ANSI31
 70
     0
 71
     0
 91
        1
 92
        0
 93
       14
 72
     1
 10
2.745392511172292
 20
1.743204124398281
 11
5.255854232632669
 21
1.743204124398281
 72
     1
 10
5.255854232632669
 20
1.743204124398281
 11
5.295056902175101
 21
0.9951726283352892
 72
     1
 10
5.295056902175101
 20
0.9951726283352892
 11
5.331332033319803
 21
0.9951726283352894
 72
     1
 10
5.331332033319803
 20
0.9951726283352894
 11
5.331332033319803
 21
1.054227746445525
 72
     1
 10
5.331332033319803
 20
1.054227746445525
 11
5.378576127807992
 21
1.054227746445525
 72
     1
 10
5.378576127807992
 20
1.054227746445525
 11
5.340297122769425
 21
1.784634673856665
 72
     2
 10
5.30098099935389
 20
1.782574203138439
 40
0.0393700787401575
 50
2.999999999999616
 51
90.0
 73
     1
 72
     1
 10
5.30098099935389
 20
1.821944281878596
 11
2.70026574445107
 21
1.821944281878596
 72
     2
 10
2.70026574445107
 20
1.782574203138439
 40
0.0393700787401575
 50
90.0
 51
177.0000000000004
 73
     1
 72
     1
 10
2.660949621035536
 20
1.784634673856665
 11
2.622670615996968
 21
1.054227746445525
 72
     1
 10
2.622670615996968
 20
1.054227746445525
 11
2.669914710485158
 21
1.054227746445525
 72
     1
 10
2.669914710485158
 20
1.054227746445525
 11
2.669914710485158
 21
0.9951726283352894
 72
     1
 10
2.669914710485158
 20
0.9951726283352894
 11
2.70618984162986
 21
0.9951726283352892
 72
     1
 10
2.70618984162986
 20
0.9951726283352892
 11
2.745392511172292
 21
1.743204124398281
 97
        0
 75
     0
 76
     1
 52
0.0
 41
0.875
 77
     0
 78
     1
 53
45.0
 43
0.0
 44
0.0
 45
-0.0773398041922786
 46
0.0773398041922786
 79
     0
 98
        1
 10
0.0
 20
0.0
  0
DIMENSION
  5
577
330
1F
100
AcDbEntity
  8
0
  6
Continuous
 62
     7
370
     0
100
AcDbDimension
  2
*D40
 10
1.9361831525
 20
1.7432041244
 30
0.0
 11
1.9361831525
 21
1.3396608173
 31
0.0
 70
   160
 71
     2
 42
-1.0
  3
SLDDIMSTYLE0
100
AcDbAlignedDimension
 13
3.0985475973
 23
0.9361175102
 33
0.0
 14
2.7453925112
 24
1.7432041244
 34
0.0
 50
90.0
100
AcDbRotatedDimension
  0
DIMENSION
  5
58B
330
1F
100
AcDbEntity
  8
0
  6
Continuous
 62
     7
370
     0
100
AcDbDimension
  2
*D41
 10
6.2001608451
 20
1.7432041244
 30
0.0
 11
6.2001608451
 21
1.2412356205
 31
0.0
 70
   160
 71
     2
 42
-1.0
  3
SLDDIMSTYLE3
100
AcDbAlignedDimension
 13
5.2754555674
 23
0.7392671165
 33
0.0
 14
5.2558542326
 24
1.7432041244
 34
0.0
 50
90.0
100
AcDbRotatedDimension
  0
DIMENSION
  5
59F
330
1F
100
AcDbEntity
  8
0
  6
Continuous
 62
     7
370
     0
100
AcDbDimension
  2
*D42
 10
6.7176200249
 20
1.8219442819
 30
0.0
 11
6.7176200249
 21
1.2412356205
 31
0.0
 70
   160
 71
     2
 42
-1.0
  3
SLDDIMSTYLE0
100
AcDbAlignedDimension
 13
5.780150931
 23
0.660526959
 33
0.0
 14
5.3009809994
 24
1.8219442819
 34
0.0
 50
90.0
100
AcDbRotatedDimension
  0
ENDSEC
  0
SECTION
  2
OBJECTS
  0
DICTIONARY
  5
C
330
0
100
AcDbDictionary
281
     1
  3
ACAD_GROUP
350
D
  3
ACAD_LAYOUT
350
1A
  3
ACAD_MLINESTYLE
350
17
  3
ACAD_PLOTSETTINGS
350
19
  3
ACAD_PLOTSTYLENAME
350
E
  0
DICTIONARY
  5
D
102
{ACAD_REACTORS
330
C
102
}
330
C
100
AcDbDictionary
281
     1
  0
DICTIONARY
  5
1A
102
{ACAD_REACTORS
330
C
102
}
330
C
100
AcDbDictionary
281
     1
  3
Layout1
350
1E
  3
Layout2
350
26
  3
Model
350
22
  0
DICTIONARY
  5
17
102
{ACAD_REACTORS
330
C
102
}
330
C
100
AcDbDictionary
281
     1
  3
Standard
350
18
  0
DICTIONARY
  5
19
102
{ACAD_REACTORS
330
C
102
}
330
C
100
AcDbDictionary
281
     1
  0
ACDBDICTIONARYWDFLT
  5
E
102
{ACAD_REACTORS
330
C
102
}
330
C
100
AcDbDictionary
281
     1
  3
Normal
350
F
100
AcDbDictionaryWithDefault
340
F
  0
LAYOUT
  5
1E
102
{ACAD_REACTORS
330
1A
102
}
330
1A
100
AcDbPlotSettings
  1

  2
none_device
  4

  6

 40
0.0
 41
0.0
 42
0.0
 43
0.0
 44
0.0
 45
0.0
 46
0.0
 47
0.0
 48
0.0
 49
0.0
140
0.0
141
0.0
142
1.0
143
1.0
 70
   688
 72
     0
 73
     0
 74
     5
  7

 75
    16
147
1.0
148
0.0
149
0.0
100
AcDbLayout
  1
Layout1
 70
     1
 71
     1
 10
0.0
 20
0.0
 11
12.0
 21
9.0
 12
0.0
 22
0.0
 32
0.0
 14
1.0000000000E+20
 24
1.0000000000E+20
 34
1.0000000000E+20
 15
-1.0000000000E+20
 25
-1.0000000000E+20
 35
-1.0000000000E+20
146
0.0
 13
0.0
 23
0.0
 33
0.0
 16
1.0
 26
0.0
 36
0.0
 17
0.0
 27
1.0
 37
0.0
 76
     0
330
1B
  0
LAYOUT
  5
26
102
{ACAD_REACTORS
330
1A
102
}
330
1A
100
AcDbPlotSettings
  1

  2
none_device
  4

  6

 40
0.0
 41
0.0
 42
0.0
 43
0.0
 44
0.0
 45
0.0
 46
0.0
 47
0.0
 48
0.0
 49
0.0
140
0.0
141
0.0
142
1.0
143
1.0
 70
   688
 72
     0
 73
     0
 74
     5
  7

 75
    16
147
1.0
148
0.0
149
0.0
100
AcDbLayout
  1
Layout2
 70
     1
 71
     2
 10
0.0
 20
0.0
 11
0.0
 21
0.0
 12
0.0
 22
0.0
 32
0.0
 14
0.0
 24
0.0
 34
0.0
 15
0.0
 25
0.0
 35
0.0
146
0.0
 13
0.0
 23
0.0
 33
0.0
 16
1.0
 26
0.0
 36
0.0
 17
0.0
 27
1.0
 37
0.0
 76
     0
330
23
  0
LAYOUT
  5
22
102
{ACAD_REACTORS
330
1A
102
}
330
1A
100
AcDbPlotSettings
  1

  2
none_device
  4

  6

 40
0.0
 41
0.0
 42
0.0
 43
0.0
 44
0.0
 45
0.0
 46
0.0
 47
0.0
 48
0.0
 49
0.0
140
0.0
141
0.0
142
1.0
143
1.0
 70
  1712
 72
     0
 73
     0
 74
     0
  7

 75
     0
147
1.0
148
0.0
149
0.0
100
AcDbLayout
  1
Model
 70
     1
 71
     0
 10
0.0
 20
0.0
 11
14.875
 21
9.625
 12
0.0
 22
0.0
 32
0.0
 14
0.0
 24
0.0
 34
0.0
 15
14.875
 25
9.625
 35
0.0
146
0.0
 13
0.0
 23
0.0
 33
0.0
 16
1.0
 26
0.0
 36
0.0
 17
0.0
 27
1.0
 37
0.0
 76
     0
330
1F
331
29
  0
MLINESTYLE
  5
18
102
{ACAD_REACTORS
330
17
102
}
330
17
100
AcDbMlineStyle
  2
Standard
 70
     0
  3

 62
   256
 51
90.0
 52
90.0
 71
     2
 49
0.5
 62
   256
  6
BYLAYER
 49
-0.5
 62
   256
  6
BYLAYER
  0
ACDBPLACEHOLDER
  5
F
102
{ACAD_REACTORS
330
E
102
}
330
E
  0
ENDSEC
  0
EOF
