  0
SECTION
  2
HEADER
  9
$ACADVER
  1
AC1015
  9
$ACADMAINTVER
 70
     6
  9
$DWGCODEPAGE
  3
ANSI_1252
  9
$INSBASE
 10
0.0
 20
0.0
 30
0.0
  9
$EXTMIN
 10
0.0
 20
0.0
 30
0.0
  9
$EXTMAX
 10
17.0
 20
11.0
 30
0.0
  9
$LIMMIN
 10
0.0
 20
0.0
  9
$LIMMAX
 10
17.0
 20
11.0
  9
$ORTHOMODE
 70
     0
  9
$REGENMODE
 70
     1
  9
$FILLMODE
 70
     1
  9
$QTEXTMODE
 70
     0
  9
$MIRRTEXT
 70
     1
  9
$LTSCALE
 40
1.0
  9
$ATTMODE
 70
     1
  9
$TEXTSIZE
 40
0.125
  9
$TRACEWID
 40
0.05
  9
$TEXTSTYLE
  7
Standard
  9
$CLAYER
  8
0
  9
$CELTYPE
  6
ByLayer
  9
$CECOLOR
 62
   256
  9
$CELTSCALE
 40
1.0
  9
$DISPSILH
 70
     0
  9
$DIMSCALE
 40
1.0
  9
$DIMASZ
 40
0.13
  9
$DIMEXO
 40
0.05
  9
$DIMDLI
 40
0.38
  9
$DIMRND
 40
0.0
  9
$DIMDLE
 40
0.0
  9
$DIMEXE
 40
0.125
  9
$DIMTP
 40
0.0
  9
$DIMTM
 40
0.0
  9
$DIMTXT
 40
0.125
  9
$DIMCEN
 40
0.09
  9
$DIMTSZ
 40
0.0
  9
$DIMTOL
 70
     0
  9
$DIMLIM
 70
     0
  9
$DIMTIH
 70
     1
  9
$DIMTOH
 70
     1
  9
$DIMSE1
 70
     0
  9
$DIMSE2
 70
     0
  9
$DIMTAD
 70
     1
  9
$DIMZIN
 70
     0
  9
$DIMBLK
  1

  9
$DIMASO
 70
     1
  9
$DIMSHO
 70
     1
  9
$DIMPOST
  1

  9
$DIMAPOST
  1

  9
$DIMALT
 70
     0
  9
$DIMALTD
 70
     2
  9
$DIMALTF
 40
25.4
  9
$DIMLFAC
 40
1.0
  9
$DIMTOFL
 70
     0
  9
$DIMTVP
 40
0.0
  9
$DIMTIX
 70
     0
  9
$DIMSOXD
 70
     0
  9
$DIMSAH
 70
     0
  9
$DIMBLK1
  1

  9
$DIMBLK2
  1

  9
$DIMSTYLE
  2
Standard
  9
$DIMCLRD
 70
     0
  9
$DIMCLRE
 70
     0
  9
$DIMCLRT
 70
     0
  9
$DIMTFAC
 40
1.0
  9
$DIMGAP
 40
0.06
  9
$DIMJUST
 70
     0
  9
$DIMSD1
 70
     0
  9
$DIMSD2
 70
     0
  9
$DIMTOLJ
 70
     1
  9
$DIMTZIN
 70
     0
  9
$DIMALTZ
 70
     0
  9
$DIMALTTZ
 70
     0
  9
$DIMUPT
 70
     0
  9
$DIMDEC
 70
     2
  9
$DIMTDEC
 70
     2
  9
$DIMALTU
 70
     2
  9
$DIMALTTD
 70
     2
  9
$DIMTXSTY
  7
Standard
  9
$DIMAUNIT
 70
     0
  9
$DIMADEC
 70
     2
  9
$DIMALTRND
 40
0.0
  9
$DIMAZIN
 70
     0
  9
$DIMDSEP
 70
    46
  9
$DIMATFIT
 70
     3
  9
$DIMFRAC
 70
     0
  9
$DIMLDRBLK
  1

  9
$DIMLUNIT
 70
     2
  9
$DIMLWD
 70
    -2
  9
$DIMLWE
 70
    -2
  9
$DIMTMOVE
 70
     0
  9
$LUNITS
 70
     2
  9
$LUPREC
 70
     2
  9
$SKETCHINC
 40
0.1
  9
$FILLETRAD
 40
0.5
  9
$AUNITS
 70
     0
  9
$AUPREC
 70
     2
  9
$MENU
  1
.
  9
$ELEVATION
 40
0.0
  9
$PELEVATION
 40
0.0
  9
$THICKNESS
 40
0.0
  9
$LIMCHECK
 70
     0
  9
$CHAMFERA
 40
0.5
  9
$CHAMFERB
 40
0.5
  9
$CHAMFERC
 40
1.0
  9
$CHAMFERD
 40
0.0
  9
$SKPOLY
 70
     0
  9
$TDCREATE
 40
2456966.625939676
  9
$TDUCREATE
 40
2456966.834273009
  9
$TDUPDATE
 40
2456966.625939688
  9
$TDUUPDATE
 40
2456966.834273021
  9
$TDINDWG
 40
0.0000000116
  9
$TDUSRTIMER
 40
0.0000000116
  9
$USRTIMER
 70
     1
  9
$ANGBASE
 50
0.0
  9
$ANGDIR
 70
     0
  9
$PDMODE
 70
     0
  9
$PDSIZE
 40
-1.0
  9
$PLINEWID
 40
0.0
  9
$SPLFRAME
 70
     0
  9
$SPLINETYPE
 70
     6
  9
$SPLINESEGS
 70
     8
  9
$HANDSEED
  5
5B4
  9
$SURFTAB1
 70
     6
  9
$SURFTAB2
 70
     6
  9
$SURFTYPE
 70
     6
  9
$SURFU
 70
     6
  9
$SURFV
 70
     6
  9
$UCSBASE
  2

  9
$UCSNAME
  2

  9
$UCSORG
 10
0.0
 20
0.0
 30
0.0
  9
$UCSXDIR
 10
1.0
 20
0.0
 30
0.0
  9
$UCSYDIR
 10
0.0
 20
1.0
 30
0.0
  9
$UCSORTHOREF
  2

  9
$UCSORTHOVIEW
 70
     0
  9
$UCSORGTOP
 10
0.0
 20
0.0
 30
0.0
  9
$UCSORGBOTTOM
 10
0.0
 20
0.0
 30
0.0
  9
$UCSORGLEFT
 10
0.0
 20
0.0
 30
0.0
  9
$UCSORGRIGHT
 10
0.0
 20
0.0
 30
0.0
  9
$UCSORGFRONT
 10
0.0
 20
0.0
 30
0.0
  9
$UCSORGBACK
 10
0.0
 20
0.0
 30
0.0
  9
$PUCSBASE
  2

  9
$PUCSNAME
  2

  9
$PUCSORG
 10
0.0
 20
0.0
 30
0.0
  9
$PUCSXDIR
 10
1.0
 20
0.0
 30
0.0
  9
$PUCSYDIR
 10
0.0
 20
1.0
 30
0.0
  9
$PUCSORTHOREF
  2

  9
$PUCSORTHOVIEW
 70
     0
  9
$PUCSORGTOP
 10
0.0
 20
0.0
 30
0.0
  9
$PUCSORGBOTTOM
 10
0.0
 20
0.0
 30
0.0
  9
$PUCSORGLEFT
 10
0.0
 20
0.0
 30
0.0
  9
$PUCSORGRIGHT
 10
0.0
 20
0.0
 30
0.0
  9
$PUCSORGFRONT
 10
0.0
 20
0.0
 30
0.0
  9
$PUCSORGBACK
 10
0.0
 20
0.0
 30
0.0
  9
$USERI1
 70
     0
  9
$USERI2
 70
     0
  9
$USERI3
 70
     0
  9
$USERI4
 70
     0
  9
$USERI5
 70
     0
  9
$USERR1
 40
0.0
  9
$USERR2
 40
0.0
  9
$USERR3
 40
0.0
  9
$USERR4
 40
0.0
  9
$USERR5
 40
0.0
  9
$WORLDVIEW
 70
     1
  9
$SHADEDGE
 70
     3
  9
$SHADEDIF
 70
    70
  9
$TILEMODE
 70
     1
  9
$MAXACTVP
 70
    64
  9
$PINSBASE
 10
0.0
 20
0.0
 30
0.0
  9
$PLIMCHECK
 70
     0
  9
$PEXTMIN
 10
1.0000000000E+20
 20
1.0000000000E+20
 30
1.0000000000E+20
  9
$PEXTMAX
 10
-1.0000000000E+20
 20
-1.0000000000E+20
 30
-1.0000000000E+20
  9
$PLIMMIN
 10
0.0
 20
0.0
  9
$PLIMMAX
 10
12.0
 20
9.0
  9
$UNITMODE
 70
     0
  9
$VISRETAIN
 70
     1
  9
$PLINEGEN
 70
     0
  9
$PSLTSCALE
 70
     1
  9
$TREEDEPTH
 70
  3020
  9
$CMLSTYLE
  2
Standard
  9
$CMLJUST
 70
     0
  9
$CMLSCALE
 40
1.0
  9
$PROXYGRAPHICS
 70
     1
  9
$MEASUREMENT
 70
     0
  9
$CELWEIGHT
370
    -1
  9
$ENDCAPS
280
     0
  9
$JOINSTYLE
280
     0
  9
$LWDISPLAY
290
     1
  9
$INSUNITS
 70
     1
  9
$HYPERLINKBASE
  1

  9
$STYLESHEET
  1

  9
$XEDIT
290
     1
  9
$CEPSNTYPE
380
     0
  9
$PSTYLEMODE
290
     1
  9
$FINGERPRINTGUID
  2
{8CDAAA88-8D50-4ED3-9E99-45758FC73458}
  9
$VERSIONGUID
  2
{FAEB1C32-E019-11D5-929B-00C0DF256EC4}
  9
$EXTNAMES
290
     1
  9
$PSVPSCALE
 40
0.0
  9
$OLESTARTUP
290
     0
  0
ENDSEC
  0
SECTION
  2
CLASSES
  0
CLASS
  1
ACDBDICTIONARYWDFLT
  2
AcDbDictionaryWithDefault
  3
ObjectDBX Classes
 90
        0
280
     0
281
     0
  0
CLASS
  1
VISUALSTYLE
  2
AcDbVisualStyle
  3
ObjectDBX Classes
 90
     4095
280
     0
281
     0
  0
CLASS
  1
MATERIAL
  2
AcDbMaterial
  3
ObjectDBX Classes
 90
     1153
280
     0
281
     0
  0
CLASS
  1
ACDBPLACEHOLDER
  2
AcDbPlaceHolder
  3
ObjectDBX Classes
 90
        0
280
     0
281
     0
  0
CLASS
  1
LAYOUT
  2
AcDbLayout
  3
ObjectDBX Classes
 90
        0
280
     0
281
     0
  0
ENDSEC
  0
SECTION
  2
TABLES
  0
TABLE
  2
VPORT
  5
8
330
0
100
AcDbSymbolTable
 70
     1
  0
VPORT
  5
29
330
8
100
AcDbSymbolTableRecord
100
AcDbViewportTableRecord
  2
*Active
 70
     0
 10
0.0
 20
0.0
 11
1.0
 21
1.0
 12
8.5
 22
5.5
 13
0.0
 23
0.0
 14
0.5
 24
0.5
 15
0.5
 25
0.5
 16
0.0
 26
0.0
 36
1.0
 17
0.0
 27
0.0
 37
0.0
 40
11.0
 41
1.5454545455
 42
50.0
 43
0.0
 44
0.0
 50
0.0
 51
0.0
 71
     0
 72
  2000
 73
     1
 74
     3
 75
     0
 76
     0
 77
     0
 78
     0
281
     0
 65
     1
110
0.0
120
0.0
130
0.0
111
1.0
121
0.0
131
0.0
112
0.0
122
1.0
132
0.0
 79
     0
146
0.0
  0
ENDTAB
  0
TABLE
  2
LTYPE
  5
5
330
0
100
AcDbSymbolTable
 70
     6
  0
LTYPE
  5
14
330
5
100
AcDbSymbolTableRecord
100
AcDbLinetypeTableRecord
  2
ByBlock
 70
     0
  3

 72
    65
 73
     0
 40
0.0
  0
LTYPE
  5
15
330
5
100
AcDbSymbolTableRecord
100
AcDbLinetypeTableRecord
  2
ByLayer
 70
     0
  3

 72
    65
 73
     0
 40
0.0
  0
LTYPE
  5
16
330
5
100
AcDbSymbolTableRecord
100
AcDbLinetypeTableRecord
  2
Continuous
 70
     0
  3
Solid line
 72
    65
 73
     0
 40
0.0
  0
LTYPE
  5
3F
330
5
100
AcDbSymbolTableRecord
100
AcDbLinetypeTableRecord
  2
HIDDEN
 70
     0
  3
Hidden __ __ __ __ __ __ __ __ __ __ __ __ __ __
 72
    65
 73
     2
 40
0.075
 49
0.05
 74
     0
 49
-0.025
 74
     0
  0
LTYPE
  5
40
330
5
100
AcDbSymbolTableRecord
100
AcDbLinetypeTableRecord
  2
PHANTOM
 70
     0
  3
Phantom ______  __  __  ______  __  __  ______
 72
    65
 73
     6
 40
0.5
 49
0.25
 74
     0
 49
-0.05
 74
     0
 49
0.05
 74
     0
 49
-0.05
 74
     0
 49
0.05
 74
     0
 49
-0.05
 74
     0
  0
LTYPE
  5
41
330
5
100
AcDbSymbolTableRecord
100
AcDbLinetypeTableRecord
  2
CENTER
 70
     0
  3
Center ____ _ ____ _ ____ _ ____ _ ____ _ ____
 72
    65
 73
     4
 40
0.4
 49
0.25
 74
     0
 49
-0.05
 74
     0
 49
0.05
 74
     0
 49
-0.05
 74
     0
  0
LTYPE
  5
42
330
5
100
AcDbSymbolTableRecord
100
AcDbLinetypeTableRecord
  2
CENTERX2
 70
     0
  3
Center (2x) ________  __  ________  __  _____
 72
    65
 73
     4
 40
0.8
 49
0.5
 74
     0
 49
-0.1
 74
     0
 49
0.1
 74
     0
 49
-0.1
 74
     0
  0
LTYPE
  5
43
330
5
100
AcDbSymbolTableRecord
100
AcDbLinetypeTableRecord
  2
DOT2
 70
     0
  3
Dot (.5x) ........................................
 72
    65
 73
     2
 40
0.025
 49
0.0
 74
     0
 49
-0.025
 74
     0
  0
ENDTAB
  0
TABLE
  2
LAYER
  5
2
330
0
100
AcDbSymbolTable
 70
     1
  0
LAYER
  5
10
330
2
100
AcDbSymbolTableRecord
100
AcDbLayerTableRecord
  2
0
 70
     0
 62
     7
  6
Continuous
370
    -3
390
F
  0
ENDTAB
  0
TABLE
  2
STYLE
  5
3
330
0
100
AcDbSymbolTable
 70
     3
  0
STYLE
  5
11
330
3
100
AcDbSymbolTableRecord
100
AcDbTextStyleTableRecord
  2
Standard
 70
     0
 40
0.0
 41
1.0
 50
0.0
 71
     0
 42
0.2
  3
txt
  4

  0
STYLE
  5
77
330
3
100
AcDbSymbolTableRecord
100
AcDbTextStyleTableRecord
  2
SLDTEXTSTYLE0
 70
     0
 40
0.0
 41
0.75
 50
0.0
 71
     0
 42
0.2
  3
TXT
  4

  0
STYLE
  5
81
330
3
100
AcDbSymbolTableRecord
100
AcDbTextStyleTableRecord
  2
SLDTEXTSTYLE1
 70
     0
 40
0.0
 41
0.7
 50
0.0
 71
     0
 42
0.2
  3
TXT
  4

  0
ENDTAB
  0
TABLE
  2
VIEW
  5
6
330
0
100
AcDbSymbolTable
 70
     0
  0
ENDTAB
  0
TABLE
  2
UCS
  5
7
330
0
100
AcDbSymbolTable
 70
     0
  0
ENDTAB
  0
TABLE
  2
APPID
  5
9
330
0
100
AcDbSymbolTable
 70
     1
  0
APPID
  5
12
330
9
100
AcDbSymbolTableRecord
100
AcDbRegAppTableRecord
  2
ACAD
 70
     0
  0
ENDTAB
  0
TABLE
  2
DIMSTYLE
  5
A
330
0
100
AcDbSymbolTable
 70
    10
100
AcDbDimStyleTable
  0
DIMSTYLE
105
27
330
A
100
AcDbSymbolTableRecord
100
AcDbDimStyleTableRecord
  2
Standard
 70
     0
178
     0
340
11
  0
DIMSTYLE
105
F2
102
{ACAD_REACTORS
330
F1
330
152
102
}
330
A
100
AcDbSymbolTableRecord
100
AcDbDimStyleTableRecord
  2
SLDDIMSTYLE0
 70
     0
 41
0.13
 44
0.0
 45
0.000000001
 78
    12
 79
     3
140
0.125
141
0.0
147
0.03125
148
0.000000001
170
     1
173
     1
178
     0
271
     2
272
     2
276
     2
284
    12
340
77
  0
DIMSTYLE
105
103
102
{ACAD_REACTORS
330
102
330
117
330
162
330
18A
330
19E
330
1B2
330
1C6
330
401
330
429
330
43D
330
4E0
330
58C
330
5A0
102
}
330
A
100
AcDbSymbolTableRecord
100
AcDbDimStyleTableRecord
  2
SLDDIMSTYLE1
 70
     0
 41
0.13
 44
0.0
 45
0.000000001
 78
    12
 79
     3
140
0.125
147
0.03125
148
0.000000001
170
     1
173
     1
178
     0
271
     2
272
     2
276
     2
284
    12
340
77
  0
DIMSTYLE
105
12C
102
{ACAD_REACTORS
330
12B
330
176
330
415
102
}
330
A
100
AcDbSymbolTableRecord
100
AcDbDimStyleTableRecord
  2
SLDDIMSTYLE2
 70
     0
 41
0.13
 44
0.0
 45
0.000000001
 78
     4
 79
     1
140
0.125
147
0.03125
148
0.000000001
170
     1
173
     1
178
     0
271
     2
272
     2
276
     2
284
    12
340
77
  0
DIMSTYLE
105
141
102
{ACAD_REACTORS
330
140
102
}
330
A
100
AcDbSymbolTableRecord
100
AcDbDimStyleTableRecord
  2
SLDDIMSTYLE3
 70
     0
 41
0.13
 44
0.0
 45
0.000000001
 78
    12
 79
     3
140
0.125
141
0.0
147
0.03125
148
0.000000001
170
     1
173
     1
178
     0
271
     2
272
     2
276
     2
284
    12
340
77
  0
DIMSTYLE
105
1E1
330
A
100
AcDbSymbolTableRecord
100
AcDbDimStyleTableRecord
  2
SLDDIMSTYLE4
 70
     0
 41
0.13
 44
0.0
 45
0.000000001
140
0.0
146
0.13
147
0.0
173
     1
178
     0
271
     0
272
     0
276
     2
340
11
  0
DIMSTYLE
105
34D
102
{ACAD_REACTORS
330
34C
330
375
330
38A
330
488
330
49A
330
4F4
330
509
330
578
102
}
330
A
100
AcDbSymbolTableRecord
100
AcDbDimStyleTableRecord
  2
SLDDIMSTYLE5
 70
     0
 41
0.13
 44
0.0
 45
0.000000001
 78
    12
 79
     3
140
0.125
147
0.03125
148
0.000000001
170
     1
172
     1
173
     1
178
     0
271
     2
272
     2
276
     2
284
    12
289
     0
340
77
  0
DIMSTYLE
105
361
102
{ACAD_REACTORS
330
360
102
}
330
A
100
AcDbSymbolTableRecord
100
AcDbDimStyleTableRecord
  2
SLDDIMSTYLE6
 70
     0
 41
0.13
 44
0.0
 45
0.000000001
 78
     4
 79
     1
140
0.125
147
0.03125
148
0.000000001
170
     1
172
     1
173
     1
178
     0
271
     2
272
     2
276
     2
284
    12
289
     0
340
77
  0
DIMSTYLE
105
476
102
{ACAD_REACTORS
330
475
102
}
330
A
100
AcDbSymbolTableRecord
100
AcDbDimStyleTableRecord
  2
SLDDIMSTYLE7
 70
     0
 41
0.13
 44
0.0
 78
    12
 79
     3
140
0.125
147
0.03125
148
0.000000001
170
     1
173
     1
178
     0
272
     0
276
     2
284
    12
340
77
  0
DIMSTYLE
105
524
330
A
100
AcDbSymbolTableRecord
100
AcDbDimStyleTableRecord
  2
SLDDIMSTYLE8
 70
     0
 41
0.04
 44
0.0
 45
0.000000001
140
0.0
146
0.04
147
0.0
173
     1
178
     0
271
     0
272
     0
276
     2
340
11
341
525
343
525
344
525
  0
ENDTAB
  0
TABLE
  2
BLOCK_RECORD
  5
1
330
0
100
AcDbSymbolTable
 70
    43
  0
BLOCK_RECORD
  5
1F
330
1
100
AcDbSymbolTableRecord
100
AcDbBlockTableRecord
  2
*Model_Space
340
22
  0
BLOCK_RECORD
  5
1B
330
1
100
AcDbSymbolTableRecord
100
AcDbBlockTableRecord
  2
*Paper_Space
340
1E
  0
BLOCK_RECORD
  5
23
330
1
100
AcDbSymbolTableRecord
100
AcDbBlockTableRecord
  2
*Paper_Space0
340
26
  0
BLOCK_RECORD
  5
74
330
1
100
AcDbSymbolTableRecord
100
AcDbBlockTableRecord
  2
SW_NOTE_0
340
0
102
{BLKREFS
331
7E
102
}
  0
BLOCK_RECORD
  5
83
330
1
100
AcDbSymbolTableRecord
100
AcDbBlockTableRecord
  2
SW_NOTE_1
340
0
102
{BLKREFS
331
88
102
}
  0
BLOCK_RECORD
  5
89
330
1
100
AcDbSymbolTableRecord
100
AcDbBlockTableRecord
  2
SW_NOTE_2
340
0
102
{BLKREFS
331
8E
102
}
  0
BLOCK_RECORD
  5
8F
330
1
100
AcDbSymbolTableRecord
100
AcDbBlockTableRecord
  2
SW_NOTE_3
340
0
102
{BLKREFS
331
94
102
}
  0
BLOCK_RECORD
  5
F3
330
1
100
AcDbSymbolTableRecord
100
AcDbBlockTableRecord
  2
*D5
340
0
  0
BLOCK_RECORD
  5
104
330
1
100
AcDbSymbolTableRecord
100
AcDbBlockTableRecord
  2
*D6
340
0
  0
BLOCK_RECORD
  5
118
330
1
100
AcDbSymbolTableRecord
100
AcDbBlockTableRecord
  2
*D7
340
0
  0
BLOCK_RECORD
  5
12D
330
1
100
AcDbSymbolTableRecord
100
AcDbBlockTableRecord
  2
*D8
340
0
  0
BLOCK_RECORD
  5
142
330
1
100
AcDbSymbolTableRecord
100
AcDbBlockTableRecord
  2
*D9
340
0
  0
BLOCK_RECORD
  5
153
330
1
100
AcDbSymbolTableRecord
100
AcDbBlockTableRecord
  2
*D10
340
0
  0
BLOCK_RECORD
  5
163
330
1
100
AcDbSymbolTableRecord
100
AcDbBlockTableRecord
  2
*D11
340
0
  0
BLOCK_RECORD
  5
177
330
1
100
AcDbSymbolTableRecord
100
AcDbBlockTableRecord
  2
*D12
340
0
  0
BLOCK_RECORD
  5
18B
330
1
100
AcDbSymbolTableRecord
100
AcDbBlockTableRecord
  2
*D13
340
0
  0
BLOCK_RECORD
  5
19F
330
1
100
AcDbSymbolTableRecord
100
AcDbBlockTableRecord
  2
*D14
340
0
  0
BLOCK_RECORD
  5
1B3
330
1
100
AcDbSymbolTableRecord
100
AcDbBlockTableRecord
  2
*D15
340
0
  0
BLOCK_RECORD
  5
1C7
330
1
100
AcDbSymbolTableRecord
100
AcDbBlockTableRecord
  2
*D16
340
0
  0
BLOCK_RECORD
  5
1DA
330
1
100
AcDbSymbolTableRecord
100
AcDbBlockTableRecord
  2
SW_NOTE_4
340
0
102
{BLKREFS
331
1E0
102
}
  0
BLOCK_RECORD
  5
1E3
330
1
100
AcDbSymbolTableRecord
100
AcDbBlockTableRecord
  2
SW_CENTERMARKSYMBOL_0
340
0
102
{BLKREFS
331
1EE
102
}
  0
BLOCK_RECORD
  5
1EF
330
1
100
AcDbSymbolTableRecord
100
AcDbBlockTableRecord
  2
SW_CENTERMARKSYMBOL_1
340
0
102
{BLKREFS
331
1FA
102
}
  0
BLOCK_RECORD
  5
1FB
330
1
100
AcDbSymbolTableRecord
100
AcDbBlockTableRecord
  2
SW_CENTERMARKSYMBOL_2
340
0
102
{BLKREFS
331
206
102
}
  0
BLOCK_RECORD
  5
207
330
1
100
AcDbSymbolTableRecord
100
AcDbBlockTableRecord
  2
SW_CENTERMARKSYMBOL_3
340
0
102
{BLKREFS
331
212
102
}
  0
BLOCK_RECORD
  5
213
330
1
100
AcDbSymbolTableRecord
100
AcDbBlockTableRecord
  2
SW_CENTERMARKSYMBOL_4
340
0
102
{BLKREFS
331
21E
102
}
  0
BLOCK_RECORD
  5
21F
330
1
100
AcDbSymbolTableRecord
100
AcDbBlockTableRecord
  2
SW_CENTERMARKSYMBOL_5
340
0
102
{BLKREFS
331
22A
102
}
  0
BLOCK_RECORD
  5
34E
330
1
100
AcDbSymbolTableRecord
100
AcDbBlockTableRecord
  2
*D24
340
0
  0
BLOCK_RECORD
  5
362
330
1
100
AcDbSymbolTableRecord
100
AcDbBlockTableRecord
  2
*D25
340
0
  0
BLOCK_RECORD
  5
376
330
1
100
AcDbSymbolTableRecord
100
AcDbBlockTableRecord
  2
*D26
340
0
  0
BLOCK_RECORD
  5
38B
330
1
100
AcDbSymbolTableRecord
100
AcDbBlockTableRecord
  2
*D27
340
0
  0
BLOCK_RECORD
  5
402
330
1
100
AcDbSymbolTableRecord
100
AcDbBlockTableRecord
  2
*D28
340
0
  0
BLOCK_RECORD
  5
416
330
1
100
AcDbSymbolTableRecord
100
AcDbBlockTableRecord
  2
*D29
340
0
  0
BLOCK_RECORD
  5
42A
330
1
100
AcDbSymbolTableRecord
100
AcDbBlockTableRecord
  2
*D30
340
0
  0
BLOCK_RECORD
  5
43E
330
1
100
AcDbSymbolTableRecord
100
AcDbBlockTableRecord
  2
*D31
340
0
  0
BLOCK_RECORD
  5
477
330
1
100
AcDbSymbolTableRecord
100
AcDbBlockTableRecord
  2
*D32
340
0
  0
BLOCK_RECORD
  5
489
330
1
100
AcDbSymbolTableRecord
100
AcDbBlockTableRecord
  2
*D33
340
0
  0
BLOCK_RECORD
  5
49B
330
1
100
AcDbSymbolTableRecord
100
AcDbBlockTableRecord
  2
*D34
340
0
  0
BLOCK_RECORD
  5
4E1
330
1
100
AcDbSymbolTableRecord
100
AcDbBlockTableRecord
  2
*D35
340
0
  0
BLOCK_RECORD
  5
4F5
330
1
100
AcDbSymbolTableRecord
100
AcDbBlockTableRecord
  2
*D36
340
0
  0
BLOCK_RECORD
  5
50A
330
1
100
AcDbSymbolTableRecord
100
AcDbBlockTableRecord
  2
*D37
340
0
  0
BLOCK_RECORD
  5
51D
330
1
100
AcDbSymbolTableRecord
100
AcDbBlockTableRecord
  2
SW_NOTE_5
340
0
102
{BLKREFS
331
523
102
}
  0
BLOCK_RECORD
  5
525
330
1
100
AcDbSymbolTableRecord
100
AcDbBlockTableRecord
  2
_DOT
340
0
  0
BLOCK_RECORD
  5
579
330
1
100
AcDbSymbolTableRecord
100
AcDbBlockTableRecord
  2
*D40
340
0
  0
BLOCK_RECORD
  5
58D
330
1
100
AcDbSymbolTableRecord
100
AcDbBlockTableRecord
  2
*D41
340
0
  0
BLOCK_RECORD
  5
5A1
330
1
100
AcDbSymbolTableRecord
100
AcDbBlockTableRecord
  2
*D42
340
0
  0
ENDTAB
  0
ENDSEC
  0
SECTION
  2
BLOCKS
  0
BLOCK
  5
20
330
1F
100
AcDbEntity
  8
0
100
AcDbBlockBegin
  2
*Model_Space
 70
     0
 10
0.0
 20
0.0
 30
0.0
  3
*Model_Space
  1

  0
ENDBLK
  5
21
330
1F
100
AcDbEntity
  8
0
100
AcDbBlockEnd
  0
BLOCK
  5
1C
330
1B
100
AcDbEntity
 67
     1
  8
0
100
AcDbBlockBegin
  2
*Paper_Space
 70
     0
 10
0.0
 20
0.0
 30
0.0
  3
*Paper_Space
  1

  0
ENDBLK
  5
1D
330
1B
100
AcDbEntity
 67
     1
  8
0
100
AcDbBlockEnd
  0
BLOCK
  5
24
330
23
100
AcDbEntity
  8
0
100
AcDbBlockBegin
  2
*Paper_Space0
 70
     0
 10
0.0
 20
0.0
 30
0.0
  3
*Paper_Space0
  1

  0
ENDBLK
  5
25
330
23
100
AcDbEntity
  8
0
100
AcDbBlockEnd
  0
BLOCK
  5
75
330
74
100
AcDbEntity
  8
0
100
AcDbBlockBegin
  2
SW_NOTE_0
 70
     0
 10
0.0
 20
0.0
 30
0.0
  3
SW_NOTE_0
  1

  0
MTEXT
  5
78
330
74
100
AcDbEntity
  8
0
  6
Continuous
 62
     0
370
     0
100
AcDbMText
 10
0.0
 20
0.1611334675
 30
0.0
 40
0.125
 41
0.0
 71
     1
 72
     1
  1
MATERIAL:
  7
SLDTEXTSTYLE0
 73
     1
 44
1.0
  0
MTEXT
  5
79
330
74
100
AcDbEntity
  8
0
  6
Continuous
 62
     0
370
     0
100
AcDbMText
 10
0.046875
 20
-0.003236607
 30
0.0
 40
0.125
 41
0.0
 71
     1
 72
     1
  1
ABS UL94-HB
  7
SLDTEXTSTYLE0
 73
     1
 44
1.0
  0
MTEXT
  5
7A
330
74
100
AcDbEntity
  8
0
  6
Continuous
 62
     0
370
     0
100
AcDbMText
 10
0.0
 20
-0.3319767561
 30
0.0
 40
0.125
 41
0.0
 71
     1
 72
     1
  1
COLOR:
  7
SLDTEXTSTYLE0
 73
     1
 44
1.0
  0
MTEXT
  5
7B
330
74
100
AcDbEntity
  8
0
  6
Continuous
 62
     0
370
     0
100
AcDbMText
 10
0.046875
 20
-0.4963468306
 30
0.0
 40
0.125
 41
0.0
 71
     1
 72
     1
  1
BLACK OR WHITE
  7
SLDTEXTSTYLE0
 73
     1
 44
1.0
  0
MTEXT
  5
7C
330
74
100
AcDbEntity
  8
0
  6
Continuous
 62
     0
370
     0
100
AcDbMText
 10
0.0
 20
-0.9894570541
 30
0.0
 40
0.125
 41
0.0
 71
     1
 72
     1
  1
DIMENSIONS IN INCH[MM]
  7
SLDTEXTSTYLE0
 73
     1
 44
1.0
  0
MTEXT
  5
7D
330
74
100
AcDbEntity
  8
0
  6
Continuous
 62
     0
370
     0
100
AcDbMText
 10
0.0
 20
-1.3181972032
 30
0.0
 40
0.125
 41
0.0
 71
     1
 72
     1
  1
DRAWING FOR REFERENCE
  7
SLDTEXTSTYLE0
 73
     1
 44
1.0
  0
ENDBLK
  5
76
330
74
100
AcDbEntity
  8
0
100
AcDbBlockEnd
  0
BLOCK
  5
84
330
83
100
AcDbEntity
  8
0
100
AcDbBlockBegin
  2
SW_NOTE_1
 70
     0
 10
0.0
 20
0.0
 30
0.0
  3
SW_NOTE_1
  1

  0
MTEXT
  5
86
330
83
100
AcDbEntity
  8
0
  6
Continuous
 62
     0
370
     0
100
AcDbMText
 10
0.189453125
 20
0.1611334675
 30
0.0
 40
0.125
 41
0.0
 71
     2
 72
     1
  1
PART
  7
SLDTEXTSTYLE0
 73
     1
 44
1.0
  0
MTEXT
  5
87
330
83
100
AcDbEntity
  8
0
  6
Continuous
 62
     0
370
     0
100
AcDbMText
 10
0.18777127
 20
-0.003236607
 30
0.0
 40
0.125
 41
0.0
 71
     2
 72
     1
  1
NAME
  7
SLDTEXTSTYLE0
 73
     1
 44
1.0
  0
ENDBLK
  5
85
330
83
100
AcDbEntity
  8
0
100
AcDbBlockEnd
  0
BLOCK
  5
8A
330
89
100
AcDbEntity
  8
0
100
AcDbBlockBegin
  2
SW_NOTE_2
 70
     0
 10
0.0
 20
0.0
 30
0.0
  3
SW_NOTE_2
  1

  0
MTEXT
  5
8C
330
89
100
AcDbEntity
  8
0
  6
Continuous
 62
     0
370
     0
100
AcDbMText
 10
0.189453125
 20
0.1611334675
 30
0.0
 40
0.125
 41
0.0
 71
     2
 72
     1
  1
PART
  7
SLDTEXTSTYLE0
 73
     1
 44
1.0
  0
MTEXT
  5
8D
330
89
100
AcDbEntity
  8
0
  6
Continuous
 62
     0
370
     0
100
AcDbMText
 10
0.1950954881
 20
-0.003236607
 30
0.0
 40
0.125
 41
0.0
 71
     2
 72
     1
  1
No.
  7
SLDTEXTSTYLE0
 73
     1
 44
1.0
  0
ENDBLK
  5
8B
330
89
100
AcDbEntity
  8
0
100
AcDbBlockEnd
  0
BLOCK
  5
90
330
8F
100
AcDbEntity
  8
0
100
AcDbBlockBegin
  2
SW_NOTE_3
 70
     0
 10
0.0
 20
0.0
 30
0.0
  3
SW_NOTE_3
  1

  0
MTEXT
  5
92
330
8F
100
AcDbEntity
  8
0
  6
Continuous
 62
     0
370
     0
100
AcDbMText
 10
0.3671875
 20
0.1611334675
 30
0.0
 40
0.125
 41
0.0
 71
     2
 72
     1
  1
REVISION
  7
SLDTEXTSTYLE0
 73
     1
 44
1.0
  0
MTEXT
  5
93
330
8F
100
AcDbEntity
  8
0
  6
Continuous
 62
     0
370
     0
100
AcDbMText
 10
0.3534939236
 20
-0.003236607
 30
0.0
 40
0.125
 41
0.0
 71
     2
 72
     1
  1
DATE
  7
SLDTEXTSTYLE0
 73
     1
 44
1.0
  0
ENDBLK
  5
91
330
8F
100
AcDbEntity
  8
0
100
AcDbBlockEnd
  0
BLOCK
  5
F4
330
F3
100
AcDbEntity
  8
0
100
AcDbBlockBegin
  2
*D5
 70
     1
 10
0.0
 20
0.0
 30
0.0
  3
*D5
  1

  0
SOLID
  5
F6
330
F3
100
AcDbEntity
  8
0
  6
Continuous
 62
     7
370
     0
100
AcDbTrace
 10
2.2910386798
 20
7.1841503293
 30
0.0
 11
2.2313948159
 21
7.0669214528
 31
0.0
 12
2.2693893389
 22
7.0544148059
 32
0.0
 13
2.2693893389
 23
7.0544148059
 33
0.0
  0
LINE
  5
F7
330
F3
100
AcDbEntity
  8
0
  6
Continuous
 62
     7
370
     0
100
AcDbLine
 10
1.3541940404
 20
5.9747229552
 30
0.0
 11
1.3288034141
 21
5.9747229552
 31
0.0
  0
LINE
  5
F8
330
F3
100
AcDbEntity
  8
0
  6
Continuous
 62
     7
370
     0
100
AcDbLine
 10
1.3288034141
 20
5.9747229552
 30
0.0
 11
1.3288034141
 21
5.7762854492
 31
0.0
  0
LINE
  5
F9
330
F3
100
AcDbEntity
  8
0
  6
Continuous
 62
     7
370
     0
100
AcDbLine
 10
1.3288034141
 20
5.7762854492
 30
0.0
 11
1.3541940404
 21
5.7762854492
 31
0.0
  0
LINE
  5
FA
330
F3
100
AcDbEntity
  8
0
  6
Continuous
 62
     7
370
     0
100
AcDbLine
 10
1.6485733753
 20
5.9747229552
 30
0.0
 11
1.6739640016
 21
5.9747229552
 31
0.0
  0
LINE
  5
FB
330
F3
100
AcDbEntity
  8
0
  6
Continuous
 62
     7
370
     0
100
AcDbLine
 10
1.6739640016
 20
5.9747229552
 30
0.0
 11
1.6739640016
 21
5.7762854492
 31
0.0
  0
LINE
  5
FC
330
F3
100
AcDbEntity
  8
0
  6
Continuous
 62
     7
370
     0
100
AcDbLine
 10
1.6739640016
 20
5.7762854492
 30
0.0
 11
1.6485733753
 21
5.7762854492
 31
0.0
  0
LINE
  5
FD
330
F3
100
AcDbEntity
  8
0
  6
Continuous
 62
     7
370
     0
100
AcDbLine
 10
2.2910386798
 20
7.1841503293
 30
0.0
 11
1.8868741599
 21
5.956320177
 31
0.0
  0
LINE
  5
FE
330
F3
100
AcDbEntity
  8
0
  6
Continuous
 62
     7
370
     0
100
AcDbLine
 10
1.8868741599
 20
5.956320177
 30
0.0
 11
1.7618741599
 21
5.956320177
 31
0.0
  0
MTEXT
  5
FF
330
F3
100
AcDbEntity
  8
0
  6
Continuous
 62
     7
370
     0
100
AcDbMText
 10
1.240893265
 20
6.161247049
 30
-0.4292028033
 40
0.125
 41
0.0
 71
     1
 72
     1
  1
%%c
  7
SLDTEXTSTYLE0
 73
     1
 44
1.0
  0
MTEXT
  5
100
330
F3
100
AcDbEntity
  8
0
  6
Continuous
 62
     7
370
     0
100
AcDbMText
 10
1.4294088855
 20
6.161247049
 30
-0.4292028033
 40
0.125
 41
0.0
 71
     1
 72
     1
  1
.18
  7
SLDTEXTSTYLE0
 73
     1
 44
1.0
  0
MTEXT
  5
101
330
F3
100
AcDbEntity
  8
0
  6
Continuous
 62
     7
370
     0
100
AcDbMText
 10
1.3859323232
 20
5.9374189098
 30
-0.4292028033
 40
0.125
 41
0.0
 71
     1
 72
     1
  1
4.5
  7
SLDTEXTSTYLE0
 73
     1
 44
1.0
  0
ENDBLK
  5
F5
330
F3
100
AcDbEntity
  8
0
100
AcDbBlockEnd
  0
BLOCK
  5
105
330
104
100
AcDbEntity
  8
0
100
AcDbBlockBegin
  2
*D6
 70
     1
 10
0.0
 20
0.0
 30
0.0
  3
*D6
  1

  0
SOLID
  5
107
330
104
100
AcDbEntity
  8
0
  6
Continuous
 62
     7
370
     0
100
AcDbTrace
 10
3.14550714
 20
5.956320177
 30
0.0
 11
3.27550714
 21
5.936320177
 31
0.0
 12
3.27550714
 22
5.976320177
 32
0.0
 13
3.27550714
 23
5.976320177
 33
0.0
  0
SOLID
  5
108
330
104
100
AcDbEntity
  8
0
  6
Continuous
 62
     7
370
     0
100
AcDbTrace
 10
5.4683417857
 20
5.956320177
 30
0.0
 11
5.3383417857
 21
5.976320177
 31
0.0
 12
5.3383417857
 22
5.936320177
 32
0.0
 13
5.3383417857
 23
5.936320177
 33
0.0
  0
LINE
  5
109
330
104
100
AcDbEntity
  8
0
  6
Continuous
 62
     7
370
     0
100
AcDbLine
 10
4.1828250732
 20
5.9553653147
 30
0.0
 11
4.157434447
 21
5.9553653147
 31
0.0
  0
LINE
  5
10A
330
104
100
AcDbEntity
  8
0
  6
Continuous
 62
     7
370
     0
100
AcDbLine
 10
4.157434447
 20
5.9553653147
 30
0.0
 11
4.157434447
 21
5.7569278087
 31
0.0
  0
LINE
  5
10B
330
104
100
AcDbEntity
  8
0
  6
Continuous
 62
     7
370
     0
100
AcDbLine
 10
4.157434447
 20
5.7569278087
 30
0.0
 11
4.1828250732
 21
5.7569278087
 31
0.0
  0
LINE
  5
10C
330
104
100
AcDbEntity
  8
0
  6
Continuous
 62
     7
370
     0
100
AcDbLine
 10
4.4310238617
 20
5.9553653147
 30
0.0
 11
4.4564144879
 21
5.9553653147
 31
0.0
  0
LINE
  5
10D
330
104
100
AcDbEntity
  8
0
  6
Continuous
 62
     7
370
     0
100
AcDbLine
 10
4.4564144879
 20
5.9553653147
 30
0.0
 11
4.4564144879
 21
5.7569278087
 31
0.0
  0
LINE
  5
10E
330
104
100
AcDbEntity
  8
0
  6
Continuous
 62
     7
370
     0
100
AcDbLine
 10
4.4564144879
 20
5.7569278087
 30
0.0
 11
4.4310238617
 21
5.7569278087
 31
0.0
  0
LINE
  5
10F
330
104
100
AcDbEntity
  8
0
  6
Continuous
 62
     7
370
     0
100
AcDbLine
 10
3.14550714
 20
6.6671106413
 30
0.0
 11
3.14550714
 21
5.831320177
 31
0.0
  0
LINE
  5
110
330
104
100
AcDbEntity
  8
0
  6
Continuous
 62
     7
370
     0
100
AcDbLine
 10
5.4683417857
 20
6.6671106413
 30
0.0
 11
5.4683417857
 21
5.831320177
 31
0.0
  0
LINE
  5
111
330
104
100
AcDbEntity
  8
0
  6
Continuous
 62
     7
370
     0
100
AcDbLine
 10
3.14550714
 20
5.956320177
 30
0.0
 11
4.0229790456
 21
5.956320177
 31
0.0
  0
LINE
  5
112
330
104
100
AcDbEntity
  8
0
  6
Continuous
 62
     7
370
     0
100
AcDbLine
 10
5.4683417857
 20
5.956320177
 30
0.0
 11
4.5908698801
 21
5.956320177
 31
0.0
  0
MTEXT
  5
113
330
104
100
AcDbEntity
  8
0
  6
Continuous
 62
     7
370
     0
100
AcDbMText
 10
4.0952057235
 20
6.1437991399
 30
-0.4292028033
 40
0.125
 41
0.0
 71
     1
 72
     1
  1

  7
SLDTEXTSTYLE0
 73
     1
 44
1.0
  0
MTEXT
  5
114
330
104
100
AcDbEntity
  8
0
  6
Continuous
 62
     7
370
     0
100
AcDbMText
 10
4.0945112792
 20
6.1418894084
 30
-0.4292028033
 40
0.125
 41
0.0
 71
     1
 72
     1
  1
2.32
  7
SLDTEXTSTYLE0
 73
     1
 44
1.0
  0
MTEXT
  5
115
330
104
100
AcDbEntity
  8
0
  6
Continuous
 62
     7
370
     0
100
AcDbMText
 10
4.2145633561
 20
5.9180612693
 30
-0.4292028033
 40
0.125
 41
0.0
 71
     1
 72
     1
  1
59
  7
SLDTEXTSTYLE0
 73
     1
 44
1.0
  0
MTEXT
  5
116
330
104
100
AcDbEntity
  8
0
  6
Continuous
 62
     7
370
     0
100
AcDbMText
 10
4.5662126557
 20
6.1437991399
 30
-0.4292028033
 40
0.125
 41
0.0
 71
     1
 72
     1
  1

  7
SLDTEXTSTYLE0
 73
     1
 44
1.0
  0
ENDBLK
  5
106
330
104
100
AcDbEntity
  8
0
100
AcDbBlockEnd
  0
BLOCK
  5
119
330
118
100
AcDbEntity
  8
0
100
AcDbBlockBegin
  2
*D7
 70
     1
 10
0.0
 20
0.0
 30
0.0
  3
*D7
  1

  0
SOLID
  5
11B
330
118
100
AcDbEntity
  8
0
  6
Continuous
 62
     7
370
     0
100
AcDbTrace
 10
2.3187354865
 20
5.4838792321
 30
0.0
 11
2.4487354865
 21
5.4638792321
 31
0.0
 12
2.4487354865
 22
5.5038792321
 32
0.0
 13
2.4487354865
 23
5.5038792321
 33
0.0
  0
SOLID
  5
11C
330
118
100
AcDbEntity
  8
0
  6
Continuous
 62
     7
370
     0
100
AcDbTrace
 10
6.2951134392
 20
5.4838792321
 30
0.0
 11
6.1651134392
 21
5.5038792321
 31
0.0
 12
6.1651134392
 22
5.4638792321
 32
0.0
 13
6.1651134392
 23
5.4638792321
 33
0.0
  0
LINE
  5
11D
330
118
100
AcDbEntity
  8
0
  6
Continuous
 62
     7
370
     0
100
AcDbLine
 10
4.1366445267
 20
5.4829243698
 30
0.0
 11
4.1112539005
 21
5.4829243698
 31
0.0
  0
LINE
  5
11E
330
118
100
AcDbEntity
  8
0
  6
Continuous
 62
     7
370
     0
100
AcDbLine
 10
4.1112539005
 20
5.4829243698
 30
0.0
 11
4.1112539005
 21
5.2844868638
 31
0.0
  0
LINE
  5
11F
330
118
100
AcDbEntity
  8
0
  6
Continuous
 62
     7
370
     0
100
AcDbLine
 10
4.1112539005
 20
5.2844868638
 30
0.0
 11
4.1366445267
 21
5.2844868638
 31
0.0
  0
LINE
  5
120
330
118
100
AcDbEntity
  8
0
  6
Continuous
 62
     7
370
     0
100
AcDbLine
 10
4.4772044265
 20
5.4829243698
 30
0.0
 11
4.5025950528
 21
5.4829243698
 31
0.0
  0
LINE
  5
121
330
118
100
AcDbEntity
  8
0
  6
Continuous
 62
     7
370
     0
100
AcDbLine
 10
4.5025950528
 20
5.4829243698
 30
0.0
 11
4.5025950528
 21
5.2844868638
 31
0.0
  0
LINE
  5
122
330
118
100
AcDbEntity
  8
0
  6
Continuous
 62
     7
370
     0
100
AcDbLine
 10
4.5025950528
 20
5.2844868638
 30
0.0
 11
4.4772044265
 21
5.2844868638
 31
0.0
  0
LINE
  5
123
330
118
100
AcDbEntity
  8
0
  6
Continuous
 62
     7
370
     0
100
AcDbLine
 10
2.3187354865
 20
7.0297090664
 30
0.0
 11
2.3187354865
 21
5.3588792321
 31
0.0
  0
LINE
  5
124
330
118
100
AcDbEntity
  8
0
  6
Continuous
 62
     7
370
     0
100
AcDbLine
 10
6.2951134392
 20
7.0297090664
 30
0.0
 11
6.2951134392
 21
5.3588792321
 31
0.0
  0
LINE
  5
125
330
118
100
AcDbEntity
  8
0
  6
Continuous
 62
     7
370
     0
100
AcDbLine
 10
2.3187354865
 20
5.4838792321
 30
0.0
 11
4.0206786972
 21
5.4838792321
 31
0.0
  0
LINE
  5
126
330
118
100
AcDbEntity
  8
0
  6
Continuous
 62
     7
370
     0
100
AcDbLine
 10
6.2951134392
 20
5.4838792321
 30
0.0
 11
4.5931702285
 21
5.4838792321
 31
0.0
  0
MTEXT
  5
127
330
118
100
AcDbEntity
  8
0
  6
Continuous
 62
     7
370
     0
100
AcDbMText
 10
4.0929053751
 20
5.671358195
 30
-0.4292028033
 40
0.125
 41
0.0
 71
     1
 72
     1
  1

  7
SLDTEXTSTYLE0
 73
     1
 44
1.0
  0
MTEXT
  5
128
330
118
100
AcDbEntity
  8
0
  6
Continuous
 62
     7
370
     0
100
AcDbMText
 10
4.0945112792
 20
5.6694484635
 30
-0.4292028033
 40
0.125
 41
0.0
 71
     1
 72
     1
  1
3.98
  7
SLDTEXTSTYLE0
 73
     1
 44
1.0
  0
MTEXT
  5
129
330
118
100
AcDbEntity
  8
0
  6
Continuous
 62
     7
370
     0
100
AcDbMText
 10
4.1683828096
 20
5.4456203244
 30
-0.4292028033
 40
0.125
 41
0.0
 71
     1
 72
     1
  1
101
  7
SLDTEXTSTYLE0
 73
     1
 44
1.0
  0
MTEXT
  5
12A
330
118
100
AcDbEntity
  8
0
  6
Continuous
 62
     7
370
     0
100
AcDbMText
 10
4.5685130041
 20
5.671358195
 30
-0.4292028033
 40
0.125
 41
0.0
 71
     1
 72
     1
  1

  7
SLDTEXTSTYLE0
 73
     1
 44
1.0
  0
ENDBLK
  5
11A
330
118
100
AcDbEntity
  8
0
100
AcDbBlockEnd
  0
BLOCK
  5
12E
330
12D
100
AcDbEntity
  8
0
100
AcDbBlockBegin
  2
*D8
 70
     1
 10
0.0
 20
0.0
 30
0.0
  3
*D8
  1

  0
SOLID
  5
130
330
12D
100
AcDbEntity
  8
0
  6
Continuous
 62
     7
370
     0
100
AcDbTrace
 10
7.1219010223
 20
6.7171106413
 30
0.0
 11
7.1419010223
 21
6.8471106413
 31
0.0
 12
7.1019010223
 22
6.8471106413
 32
0.0
 13
7.1019010223
 23
6.8471106413
 33
0.0
  0
SOLID
  5
131
330
12D
100
AcDbEntity
  8
0
  6
Continuous
 62
     7
370
     0
100
AcDbTrace
 10
7.1219010223
 20
7.819472846
 30
0.0
 11
7.1019010223
 21
7.689472846
 31
0.0
 12
7.1419010223
 22
7.689472846
 32
0.0
 13
7.1419010223
 23
7.689472846
 33
0.0
  0
LINE
  5
132
330
12D
100
AcDbEntity
  8
0
  6
Continuous
 62
     7
370
     0
100
AcDbLine
 10
6.9978016326
 20
7.2673368813
 30
0.0
 11
6.9724110064
 21
7.2673368813
 31
0.0
  0
LINE
  5
133
330
12D
100
AcDbEntity
  8
0
  6
Continuous
 62
     7
370
     0
100
AcDbLine
 10
6.9724110064
 20
7.2673368813
 30
0.0
 11
6.9724110064
 21
7.0688993753
 31
0.0
  0
LINE
  5
134
330
12D
100
AcDbEntity
  8
0
  6
Continuous
 62
     7
370
     0
100
AcDbLine
 10
6.9724110064
 20
7.0688993753
 30
0.0
 11
6.9978016326
 21
7.0688993753
 31
0.0
  0
LINE
  5
135
330
12D
100
AcDbEntity
  8
0
  6
Continuous
 62
     7
370
     0
100
AcDbLine
 10
7.2460004211
 20
7.2673368813
 30
0.0
 11
7.2713910473
 21
7.2673368813
 31
0.0
  0
LINE
  5
136
330
12D
100
AcDbEntity
  8
0
  6
Continuous
 62
     7
370
     0
100
AcDbLine
 10
7.2713910473
 20
7.2673368813
 30
0.0
 11
7.2713910473
 21
7.0688993753
 31
0.0
  0
LINE
  5
137
330
12D
100
AcDbEntity
  8
0
  6
Continuous
 62
     7
370
     0
100
AcDbLine
 10
7.2713910473
 20
7.0688993753
 30
0.0
 11
7.2460004211
 21
7.0688993753
 31
0.0
  0
LINE
  5
138
330
12D
100
AcDbEntity
  8
0
  6
Continuous
 62
     7
370
     0
100
AcDbLine
 10
5.5183417857
 20
6.7171106413
 30
0.0
 11
7.2469010223
 21
6.7171106413
 31
0.0
  0
LINE
  5
139
330
12D
100
AcDbEntity
  8
0
  6
Continuous
 62
     7
370
     0
100
AcDbLine
 10
5.5183417857
 20
7.819472846
 30
0.0
 11
7.2469010223
 21
7.819472846
 31
0.0
  0
LINE
  5
13A
330
12D
100
AcDbEntity
  8
0
  6
Continuous
 62
     7
370
     0
100
AcDbLine
 10
7.1219010223
 20
6.7171106413
 30
0.0
 11
7.1219010223
 21
7.0435087353
 31
0.0
  0
LINE
  5
13B
330
12D
100
AcDbEntity
  8
0
  6
Continuous
 62
     7
370
     0
100
AcDbLine
 10
7.1219010223
 20
7.819472846
 30
0.0
 11
7.1219010223
 21
7.4930747519
 31
0.0
  0
MTEXT
  5
13C
330
12D
100
AcDbEntity
  8
0
  6
Continuous
 62
     7
370
     0
100
AcDbMText
 10
6.9101822829
 20
7.4557707065
 30
-0.4292028033
 40
0.125
 41
0.0
 71
     1
 72
     1
  1

  7
SLDTEXTSTYLE0
 73
     1
 44
1.0
  0
MTEXT
  5
13D
330
12D
100
AcDbEntity
  8
0
  6
Continuous
 62
     7
370
     0
100
AcDbMText
 10
6.9094878386
 20
7.4538609751
 30
-0.4292028033
 40
0.125
 41
0.0
 71
     1
 72
     1
  1
1.10
  7
SLDTEXTSTYLE0
 73
     1
 44
1.0
  0
MTEXT
  5
13E
330
12D
100
AcDbEntity
  8
0
  6
Continuous
 62
     7
370
     0
100
AcDbMText
 10
7.0295399155
 20
7.2300328359
 30
-0.4292028033
 40
0.125
 41
0.0
 71
     1
 72
     1
  1
28
  7
SLDTEXTSTYLE0
 73
     1
 44
1.0
  0
MTEXT
  5
13F
330
12D
100
AcDbEntity
  8
0
  6
Continuous
 62
     7
370
     0
100
AcDbMText
 10
7.3811892151
 20
7.4557707065
 30
-0.4292028033
 40
0.125
 41
0.0
 71
     1
 72
     1
  1

  7
SLDTEXTSTYLE0
 73
     1
 44
1.0
  0
ENDBLK
  5
12F
330
12D
100
AcDbEntity
  8
0
100
AcDbBlockEnd
  0
BLOCK
  5
143
330
142
100
AcDbEntity
  8
0
100
AcDbBlockBegin
  2
*D9
 70
     1
 10
0.0
 20
0.0
 30
0.0
  3
*D9
  1

  0
SOLID
  5
145
330
142
100
AcDbEntity
  8
0
  6
Continuous
 62
     7
370
     0
100
AcDbTrace
 10
3.0473015283
 20
7.8786828951
 30
0.0
 11
2.9462977404
 21
7.962933918
 31
0.0
 12
2.925644429
 22
7.9286783969
 32
0.0
 13
2.925644429
 23
7.9286783969
 33
0.0
  0
LINE
  5
146
330
142
100
AcDbEntity
  8
0
  6
Continuous
 62
     7
370
     0
100
AcDbLine
 10
1.0135748855
 20
8.5098540317
 30
0.0
 11
0.9881842592
 21
8.5098540317
 31
0.0
  0
LINE
  5
147
330
142
100
AcDbEntity
  8
0
  6
Continuous
 62
     7
370
     0
100
AcDbLine
 10
0.9881842592
 20
8.5098540317
 30
0.0
 11
0.9881842592
 21
8.3114165257
 31
0.0
  0
LINE
  5
148
330
142
100
AcDbEntity
  8
0
  6
Continuous
 62
     7
370
     0
100
AcDbLine
 10
0.9881842592
 20
8.3114165257
 30
0.0
 11
1.0135748855
 21
8.3114165257
 31
0.0
  0
LINE
  5
149
330
142
100
AcDbEntity
  8
0
  6
Continuous
 62
     7
370
     0
100
AcDbLine
 10
1.3079542204
 20
8.5098540317
 30
0.0
 11
1.3333448467
 21
8.5098540317
 31
0.0
  0
LINE
  5
14A
330
142
100
AcDbEntity
  8
0
  6
Continuous
 62
     7
370
     0
100
AcDbLine
 10
1.3333448467
 20
8.5098540317
 30
0.0
 11
1.3333448467
 21
8.3114165257
 31
0.0
  0
LINE
  5
14B
330
142
100
AcDbEntity
  8
0
  6
Continuous
 62
     7
370
     0
100
AcDbLine
 10
1.3333448467
 20
8.3114165257
 30
0.0
 11
1.3079542204
 21
8.3114165257
 31
0.0
  0
LINE
  5
14C
330
142
100
AcDbEntity
  8
0
  6
Continuous
 62
     7
370
     0
100
AcDbLine
 10
3.0473015283
 20
7.8786828951
 30
0.0
 11
1.9988592231
 21
8.510808894
 31
0.0
  0
LINE
  5
14D
330
142
100
AcDbEntity
  8
0
  6
Continuous
 62
     7
370
     0
100
AcDbLine
 10
1.9988592231
 20
8.510808894
 30
0.0
 11
1.8738592231
 21
8.510808894
 31
0.0
  0
MTEXT
  5
14E
330
142
100
AcDbEntity
  8
0
  6
Continuous
 62
     7
370
     0
100
AcDbMText
 10
0.9002741101
 20
8.6963781254
 30
-0.4292028033
 40
0.125
 41
0.0
 71
     1
 72
     1
  1
%%c
  7
SLDTEXTSTYLE0
 73
     1
 44
1.0
  0
MTEXT
  5
14F
330
142
100
AcDbEntity
  8
0
  6
Continuous
 62
     7
370
     0
100
AcDbMText
 10
1.0887897307
 20
8.6963781254
 30
-0.4292028033
 40
0.125
 41
0.0
 71
     1
 72
     1
  1
.23
  7
SLDTEXTSTYLE0
 73
     1
 44
1.0
  0
MTEXT
  5
150
330
142
100
AcDbEntity
  8
0
  6
Continuous
 62
     7
370
     0
100
AcDbMText
 10
1.0453131683
 20
8.4725499863
 30
-0.4292028033
 40
0.125
 41
0.0
 71
     1
 72
     1
  1
5.8
  7
SLDTEXTSTYLE0
 73
     1
 44
1.0
  0
MTEXT
  5
151
330
142
100
AcDbEntity
  8
0
  6
Continuous
 62
     7
370
     0
100
AcDbMText
 10
1.468130005
 20
8.6982878569
 30
-0.4292028033
 40
0.125
 41
0.0
 71
     1
 72
     1
  1
BOSS
  7
SLDTEXTSTYLE0
 73
     1
 44
1.0
  0
ENDBLK
  5
144
330
142
100
AcDbEntity
  8
0
100
AcDbBlockEnd
  0
BLOCK
  5
154
330
153
100
AcDbEntity
  8
0
100
AcDbBlockBegin
  2
*D10
 70
     1
 10
0.0
 20
0.0
 30
0.0
  3
*D10
  1

  0
SOLID
  5
156
330
153
100
AcDbEntity
  8
0
  6
Continuous
 62
     7
370
     0
100
AcDbTrace
 10
3.1198223426
 20
7.8493106455
 30
0.0
 11
3.0501687436
 21
7.9608829366
 31
0.0
 12
3.0198535393
 22
7.9347871824
 32
0.0
 13
3.0198535393
 23
7.9347871824
 33
0.0
  0
LINE
  5
157
330
153
100
AcDbEntity
  8
0
  6
Continuous
 62
     7
370
     0
100
AcDbLine
 10
1.6351246023
 20
9.0541350946
 30
0.0
 11
1.609733976
 21
9.0541350946
 31
0.0
  0
LINE
  5
158
330
153
100
AcDbEntity
  8
0
  6
Continuous
 62
     7
370
     0
100
AcDbLine
 10
1.609733976
 20
9.0541350946
 30
0.0
 11
1.609733976
 21
8.8556975886
 31
0.0
  0
LINE
  5
159
330
153
100
AcDbEntity
  8
0
  6
Continuous
 62
     7
370
     0
100
AcDbLine
 10
1.609733976
 20
8.8556975886
 30
0.0
 11
1.6351246023
 21
8.8556975886
 31
0.0
  0
LINE
  5
15A
330
153
100
AcDbEntity
  8
0
  6
Continuous
 62
     7
370
     0
100
AcDbLine
 10
1.7909622794
 20
9.0541350946
 30
0.0
 11
1.8163529056
 21
9.0541350946
 31
0.0
  0
LINE
  5
15B
330
153
100
AcDbEntity
  8
0
  6
Continuous
 62
     7
370
     0
100
AcDbLine
 10
1.8163529056
 20
9.0541350946
 30
0.0
 11
1.8163529056
 21
8.8556975886
 31
0.0
  0
LINE
  5
15C
330
153
100
AcDbEntity
  8
0
  6
Continuous
 62
     7
370
     0
100
AcDbLine
 10
1.8163529056
 20
8.8556975886
 30
0.0
 11
1.7909622794
 21
8.8556975886
 31
0.0
  0
LINE
  5
15D
330
153
100
AcDbEntity
  8
0
  6
Continuous
 62
     7
370
     0
100
AcDbLine
 10
3.1198223426
 20
7.8493106455
 30
0.0
 11
2.0985338837
 21
9.0357323163
 31
0.0
  0
LINE
  5
15E
330
153
100
AcDbEntity
  8
0
  6
Continuous
 62
     7
370
     0
100
AcDbLine
 10
2.0985338837
 20
9.0357323163
 30
0.0
 11
1.9735338837
 21
9.0357323163
 31
0.0
  0
MTEXT
  5
15F
330
153
100
AcDbEntity
  8
0
  6
Continuous
 62
     7
370
     0
100
AcDbMText
 10
1.4525529888
 20
9.2406591883
 30
-0.4292028033
 40
0.125
 41
0.0
 71
     1
 72
     1
  1
%%c
  7
SLDTEXTSTYLE0
 73
     1
 44
1.0
  0
MTEXT
  5
160
330
153
100
AcDbEntity
  8
0
  6
Continuous
 62
     7
370
     0
100
AcDbMText
 10
1.6410686094
 20
9.2406591883
 30
-0.4292028033
 40
0.125
 41
0.0
 71
     1
 72
     1
  1
.08
  7
SLDTEXTSTYLE0
 73
     1
 44
1.0
  0
MTEXT
  5
161
330
153
100
AcDbEntity
  8
0
  6
Continuous
 62
     7
370
     0
100
AcDbMText
 10
1.6668628852
 20
9.0168310492
 30
-0.4292028033
 40
0.125
 41
0.0
 71
     1
 72
     1
  1
2
  7
SLDTEXTSTYLE0
 73
     1
 44
1.0
  0
ENDBLK
  5
155
330
153
100
AcDbEntity
  8
0
100
AcDbBlockEnd
  0
BLOCK
  5
164
330
163
100
AcDbEntity
  8
0
100
AcDbBlockBegin
  2
*D11
 70
     1
 10
0.0
 20
0.0
 30
0.0
  3
*D11
  1

  0
SOLID
  5
166
330
163
100
AcDbEntity
  8
0
  6
Continuous
 62
     7
370
     0
100
AcDbTrace
 10
1.7281683759
 20
8.0762204181
 30
0.0
 11
1.7081683759
 21
7.9462204181
 31
0.0
 12
1.7481683759
 22
7.9462204181
 32
0.0
 13
1.7481683759
 23
7.9462204181
 33
0.0
  0
SOLID
  5
167
330
163
100
AcDbEntity
  8
0
  6
Continuous
 62
     7
370
     0
100
AcDbTrace
 10
1.7281683759
 20
6.4603630692
 30
0.0
 11
1.7481683759
 21
6.5903630692
 31
0.0
 12
1.7081683759
 22
6.5903630692
 32
0.0
 13
1.7081683759
 23
6.5903630692
 33
0.0
  0
LINE
  5
168
330
163
100
AcDbEntity
  8
0
  6
Continuous
 62
     7
370
     0
100
AcDbLine
 10
1.6040689863
 20
7.2673368813
 30
0.0
 11
1.57867836
 21
7.2673368813
 31
0.0
  0
LINE
  5
169
330
163
100
AcDbEntity
  8
0
  6
Continuous
 62
     7
370
     0
100
AcDbLine
 10
1.57867836
 20
7.2673368813
 30
0.0
 11
1.57867836
 21
7.0688993753
 31
0.0
  0
LINE
  5
16A
330
163
100
AcDbEntity
  8
0
  6
Continuous
 62
     7
370
     0
100
AcDbLine
 10
1.57867836
 20
7.0688993753
 30
0.0
 11
1.6040689863
 21
7.0688993753
 31
0.0
  0
LINE
  5
16B
330
163
100
AcDbEntity
  8
0
  6
Continuous
 62
     7
370
     0
100
AcDbLine
 10
1.8522677747
 20
7.2673368813
 30
0.0
 11
1.877658401
 21
7.2673368813
 31
0.0
  0
LINE
  5
16C
330
163
100
AcDbEntity
  8
0
  6
Continuous
 62
     7
370
     0
100
AcDbLine
 10
1.877658401
 20
7.2673368813
 30
0.0
 11
1.877658401
 21
7.0688993753
 31
0.0
  0
LINE
  5
16D
330
163
100
AcDbEntity
  8
0
  6
Continuous
 62
     7
370
     0
100
AcDbLine
 10
1.877658401
 20
7.0688993753
 30
0.0
 11
1.8522677747
 21
7.0688993753
 31
0.0
  0
LINE
  5
16E
330
163
100
AcDbEntity
  8
0
  6
Continuous
 62
     7
370
     0
100
AcDbLine
 10
2.5749800404
 20
8.0762204181
 30
0.0
 11
1.6031683759
 21
8.0762204181
 31
0.0
  0
LINE
  5
16F
330
163
100
AcDbEntity
  8
0
  6
Continuous
 62
     7
370
     0
100
AcDbLine
 10
2.5749800404
 20
6.4603630692
 30
0.0
 11
1.6031683759
 21
6.4603630692
 31
0.0
  0
LINE
  5
170
330
163
100
AcDbEntity
  8
0
  6
Continuous
 62
     7
370
     0
100
AcDbLine
 10
1.7281683759
 20
8.0762204181
 30
0.0
 11
1.7281683759
 21
7.4930747519
 31
0.0
  0
LINE
  5
171
330
163
100
AcDbEntity
  8
0
  6
Continuous
 62
     7
370
     0
100
AcDbLine
 10
1.7281683759
 20
6.4603630692
 30
0.0
 11
1.7281683759
 21
7.0435087353
 31
0.0
  0
MTEXT
  5
172
330
163
100
AcDbEntity
  8
0
  6
Continuous
 62
     7
370
     0
100
AcDbMText
 10
1.5164496365
 20
7.4557707065
 30
-0.4292028033
 40
0.125
 41
0.0
 71
     1
 72
     1
  1

  7
SLDTEXTSTYLE0
 73
     1
 44
1.0
  0
MTEXT
  5
173
330
163
100
AcDbEntity
  8
0
  6
Continuous
 62
     7
370
     0
100
AcDbMText
 10
1.5157551922
 20
7.4538609751
 30
-0.4292028033
 40
0.125
 41
0.0
 71
     1
 72
     1
  1
1.62
  7
SLDTEXTSTYLE0
 73
     1
 44
1.0
  0
MTEXT
  5
174
330
163
100
AcDbEntity
  8
0
  6
Continuous
 62
     7
370
     0
100
AcDbMText
 10
1.6358072691
 20
7.2300328359
 30
-0.4292028033
 40
0.125
 41
0.0
 71
     1
 72
     1
  1
41
  7
SLDTEXTSTYLE0
 73
     1
 44
1.0
  0
MTEXT
  5
175
330
163
100
AcDbEntity
  8
0
  6
Continuous
 62
     7
370
     0
100
AcDbMText
 10
1.9874565688
 20
7.4557707065
 30
-0.4292028033
 40
0.125
 41
0.0
 71
     1
 72
     1
  1

  7
SLDTEXTSTYLE0
 73
     1
 44
1.0
  0
ENDBLK
  5
165
330
163
100
AcDbEntity
  8
0
100
AcDbBlockEnd
  0
BLOCK
  5
178
330
177
100
AcDbEntity
  8
0
100
AcDbBlockBegin
  2
*D12
 70
     1
 10
0.0
 20
0.0
 30
0.0
  3
*D12
  1

  0
SOLID
  5
17A
330
177
100
AcDbEntity
  8
0
  6
Continuous
 62
     7
370
     0
100
AcDbTrace
 10
1.2866338794
 20
8.1679928373
 30
0.0
 11
1.2666338794
 21
8.0379928373
 31
0.0
 12
1.3066338794
 22
8.0379928373
 32
0.0
 13
1.3066338794
 23
8.0379928373
 33
0.0
  0
SOLID
  5
17B
330
177
100
AcDbEntity
  8
0
  6
Continuous
 62
     7
370
     0
100
AcDbTrace
 10
1.2866338794
 20
6.3685906499
 30
0.0
 11
1.3066338794
 21
6.4985906499
 31
0.0
 12
1.2666338794
 22
6.4985906499
 32
0.0
 13
1.2666338794
 23
6.4985906499
 33
0.0
  0
LINE
  5
17C
330
177
100
AcDbEntity
  8
0
  6
Continuous
 62
     7
370
     0
100
AcDbLine
 10
1.0932636517
 20
7.2673368813
 30
0.0
 11
1.0678730254
 21
7.2673368813
 31
0.0
  0
LINE
  5
17D
330
177
100
AcDbEntity
  8
0
  6
Continuous
 62
     7
370
     0
100
AcDbLine
 10
1.0678730254
 20
7.2673368813
 30
0.0
 11
1.0678730254
 21
7.0688993753
 31
0.0
  0
LINE
  5
17E
330
177
100
AcDbEntity
  8
0
  6
Continuous
 62
     7
370
     0
100
AcDbLine
 10
1.0678730254
 20
7.0688993753
 30
0.0
 11
1.0932636517
 21
7.0688993753
 31
0.0
  0
LINE
  5
17F
330
177
100
AcDbEntity
  8
0
  6
Continuous
 62
     7
370
     0
100
AcDbLine
 10
1.4800041163
 20
7.2673368813
 30
0.0
 11
1.5053947426
 21
7.2673368813
 31
0.0
  0
LINE
  5
180
330
177
100
AcDbEntity
  8
0
  6
Continuous
 62
     7
370
     0
100
AcDbLine
 10
1.5053947426
 20
7.2673368813
 30
0.0
 11
1.5053947426
 21
7.0688993753
 31
0.0
  0
LINE
  5
181
330
177
100
AcDbEntity
  8
0
  6
Continuous
 62
     7
370
     0
100
AcDbLine
 10
1.5053947426
 20
7.0688993753
 30
0.0
 11
1.4800041163
 21
7.0688993753
 31
0.0
  0
LINE
  5
182
330
177
100
AcDbEntity
  8
0
  6
Continuous
 62
     7
370
     0
100
AcDbLine
 10
2.564011077
 20
8.1679928373
 30
0.0
 11
1.1616338794
 21
8.1679928373
 31
0.0
  0
LINE
  5
183
330
177
100
AcDbEntity
  8
0
  6
Continuous
 62
     7
370
     0
100
AcDbLine
 10
2.564011077
 20
6.3685906499
 30
0.0
 11
1.1616338794
 21
6.3685906499
 31
0.0
  0
LINE
  5
184
330
177
100
AcDbEntity
  8
0
  6
Continuous
 62
     7
370
     0
100
AcDbLine
 10
1.2866338794
 20
8.1679928373
 30
0.0
 11
1.2866338794
 21
7.4930747519
 31
0.0
  0
LINE
  5
185
330
177
100
AcDbEntity
  8
0
  6
Continuous
 62
     7
370
     0
100
AcDbLine
 10
1.2866338794
 20
6.3685906499
 30
0.0
 11
1.2866338794
 21
7.0435087353
 31
0.0
  0
MTEXT
  5
186
330
177
100
AcDbEntity
  8
0
  6
Continuous
 62
     7
370
     0
100
AcDbMText
 10
1.0495245
 20
7.4557707065
 30
-0.4292028033
 40
0.125
 41
0.0
 71
     1
 72
     1
  1

  7
SLDTEXTSTYLE0
 73
     1
 44
1.0
  0
MTEXT
  5
187
330
177
100
AcDbEntity
  8
0
  6
Continuous
 62
     7
370
     0
100
AcDbMText
 10
1.0742206957
 20
7.4538609751
 30
-0.4292028033
 40
0.125
 41
0.0
 71
     1
 72
     1
  1
1.80
  7
SLDTEXTSTYLE0
 73
     1
 44
1.0
  0
MTEXT
  5
188
330
177
100
AcDbEntity
  8
0
  6
Continuous
 62
     7
370
     0
100
AcDbMText
 10
1.1250019345
 20
7.2300328359
 30
-0.4292028033
 40
0.125
 41
0.0
 71
     1
 72
     1
  1
45.7
  7
SLDTEXTSTYLE0
 73
     1
 44
1.0
  0
MTEXT
  5
189
330
177
100
AcDbEntity
  8
0
  6
Continuous
 62
     7
370
     0
100
AcDbMText
 10
1.5713127123
 20
7.4557707065
 30
-0.4292028033
 40
0.125
 41
0.0
 71
     1
 72
     1
  1

  7
SLDTEXTSTYLE0
 73
     1
 44
1.0
  0
ENDBLK
  5
179
330
177
100
AcDbEntity
  8
0
100
AcDbBlockEnd
  0
BLOCK
  5
18C
330
18B
100
AcDbEntity
  8
0
100
AcDbBlockBegin
  2
*D13
 70
     1
 10
0.0
 20
0.0
 30
0.0
  3
*D13
  1

  0
SOLID
  5
18E
330
18B
100
AcDbEntity
  8
0
  6
Continuous
 62
     7
370
     0
100
AcDbTrace
 10
0.7832864861
 20
8.1865625229
 30
0.0
 11
0.7632864861
 21
8.0565625229
 31
0.0
 12
0.8032864861
 22
8.0565625229
 32
0.0
 13
0.8032864861
 23
8.0565625229
 33
0.0
  0
SOLID
  5
18F
330
18B
100
AcDbEntity
  8
0
  6
Continuous
 62
     7
370
     0
100
AcDbTrace
 10
0.7832864861
 20
6.3500209644
 30
0.0
 11
0.8032864861
 21
6.4800209644
 31
0.0
 12
0.7632864861
 22
6.4800209644
 32
0.0
 13
0.7632864861
 23
6.4800209644
 33
0.0
  0
LINE
  5
190
330
18B
100
AcDbEntity
  8
0
  6
Continuous
 62
     7
370
     0
100
AcDbLine
 10
0.5899162584
 20
7.2673368813
 30
0.0
 11
0.5645256321
 21
7.2673368813
 31
0.0
  0
LINE
  5
191
330
18B
100
AcDbEntity
  8
0
  6
Continuous
 62
     7
370
     0
100
AcDbLine
 10
0.5645256321
 20
7.2673368813
 30
0.0
 11
0.5645256321
 21
7.0688993753
 31
0.0
  0
LINE
  5
192
330
18B
100
AcDbEntity
  8
0
  6
Continuous
 62
     7
370
     0
100
AcDbLine
 10
0.5645256321
 20
7.0688993753
 30
0.0
 11
0.5899162584
 21
7.0688993753
 31
0.0
  0
LINE
  5
193
330
18B
100
AcDbEntity
  8
0
  6
Continuous
 62
     7
370
     0
100
AcDbLine
 10
0.976656723
 20
7.2673368813
 30
0.0
 11
1.0020473493
 21
7.2673368813
 31
0.0
  0
LINE
  5
194
330
18B
100
AcDbEntity
  8
0
  6
Continuous
 62
     7
370
     0
100
AcDbLine
 10
1.0020473493
 20
7.2673368813
 30
0.0
 11
1.0020473493
 21
7.0688993753
 31
0.0
  0
LINE
  5
195
330
18B
100
AcDbEntity
  8
0
  6
Continuous
 62
     7
370
     0
100
AcDbLine
 10
1.0020473493
 20
7.0688993753
 30
0.0
 11
0.976656723
 21
7.0688993753
 31
0.0
  0
LINE
  5
196
330
18B
100
AcDbEntity
  8
0
  6
Continuous
 62
     7
370
     0
100
AcDbLine
 10
2.564011077
 20
8.1865625229
 30
0.0
 11
0.6582864861
 21
8.1865625229
 31
0.0
  0
LINE
  5
197
330
18B
100
AcDbEntity
  8
0
  6
Continuous
 62
     7
370
     0
100
AcDbLine
 10
2.564011077
 20
6.3500209644
 30
0.0
 11
0.6582864861
 21
6.3500209644
 31
0.0
  0
LINE
  5
198
330
18B
100
AcDbEntity
  8
0
  6
Continuous
 62
     7
370
     0
100
AcDbLine
 10
0.7832864861
 20
8.1865625229
 30
0.0
 11
0.7832864861
 21
7.4930747519
 31
0.0
  0
LINE
  5
199
330
18B
100
AcDbEntity
  8
0
  6
Continuous
 62
     7
370
     0
100
AcDbLine
 10
0.7832864861
 20
6.3500209644
 30
0.0
 11
0.7832864861
 21
7.0435087353
 31
0.0
  0
MTEXT
  5
19A
330
18B
100
AcDbEntity
  8
0
  6
Continuous
 62
     7
370
     0
100
AcDbMText
 10
0.5461771068
 20
7.4557707065
 30
-0.4292028033
 40
0.125
 41
0.0
 71
     1
 72
     1
  1

  7
SLDTEXTSTYLE0
 73
     1
 44
1.0
  0
MTEXT
  5
19B
330
18B
100
AcDbEntity
  8
0
  6
Continuous
 62
     7
370
     0
100
AcDbMText
 10
0.5708733025
 20
7.4538609751
 30
-0.4292028033
 40
0.125
 41
0.0
 71
     1
 72
     1
  1
1.84
  7
SLDTEXTSTYLE0
 73
     1
 44
1.0
  0
MTEXT
  5
19C
330
18B
100
AcDbEntity
  8
0
  6
Continuous
 62
     7
370
     0
100
AcDbMText
 10
0.6216545412
 20
7.2300328359
 30
-0.4292028033
 40
0.125
 41
0.0
 71
     1
 72
     1
  1
46.6
  7
SLDTEXTSTYLE0
 73
     1
 44
1.0
  0
MTEXT
  5
19D
330
18B
100
AcDbEntity
  8
0
  6
Continuous
 62
     7
370
     0
100
AcDbMText
 10
1.067965319
 20
7.4557707065
 30
-0.4292028033
 40
0.125
 41
0.0
 71
     1
 72
     1
  1

  7
SLDTEXTSTYLE0
 73
     1
 44
1.0
  0
ENDBLK
  5
18D
330
18B
100
AcDbEntity
  8
0
100
AcDbBlockEnd
  0
BLOCK
  5
1A0
330
19F
100
AcDbEntity
  8
0
100
AcDbBlockBegin
  2
*D14
 70
     1
 10
0.0
 20
0.0
 30
0.0
  3
*D14
  1

  0
SOLID
  5
1A2
330
19F
100
AcDbEntity
  8
0
  6
Continuous
 62
     7
370
     0
100
AcDbTrace
 10
2.6249800404
 20
8.510808894
 30
0.0
 11
2.7549800404
 21
8.490808894
 31
0.0
 12
2.7549800404
 22
8.530808894
 32
0.0
 13
2.7549800404
 23
8.530808894
 33
0.0
  0
SOLID
  5
1A3
330
19F
100
AcDbEntity
  8
0
  6
Continuous
 62
     7
370
     0
100
AcDbTrace
 10
5.9888688853
 20
8.510808894
 30
0.0
 11
5.8588688853
 21
8.530808894
 31
0.0
 12
5.8588688853
 22
8.490808894
 32
0.0
 13
5.8588688853
 23
8.490808894
 33
0.0
  0
LINE
  5
1A4
330
19F
100
AcDbEntity
  8
0
  6
Continuous
 62
     7
370
     0
100
AcDbLine
 10
4.1135542351
 20
8.5098540317
 30
0.0
 11
4.0881636089
 21
8.5098540317
 31
0.0
  0
LINE
  5
1A5
330
19F
100
AcDbEntity
  8
0
  6
Continuous
 62
     7
370
     0
100
AcDbLine
 10
4.0881636089
 20
8.5098540317
 30
0.0
 11
4.0881636089
 21
8.3114165257
 31
0.0
  0
LINE
  5
1A6
330
19F
100
AcDbEntity
  8
0
  6
Continuous
 62
     7
370
     0
100
AcDbLine
 10
4.0881636089
 20
8.3114165257
 30
0.0
 11
4.1135542351
 21
8.3114165257
 31
0.0
  0
LINE
  5
1A7
330
19F
100
AcDbEntity
  8
0
  6
Continuous
 62
     7
370
     0
100
AcDbLine
 10
4.5002946998
 20
8.5098540317
 30
0.0
 11
4.525685326
 21
8.5098540317
 31
0.0
  0
LINE
  5
1A8
330
19F
100
AcDbEntity
  8
0
  6
Continuous
 62
     7
370
     0
100
AcDbLine
 10
4.525685326
 20
8.5098540317
 30
0.0
 11
4.525685326
 21
8.3114165257
 31
0.0
  0
LINE
  5
1A9
330
19F
100
AcDbEntity
  8
0
  6
Continuous
 62
     7
370
     0
100
AcDbLine
 10
4.525685326
 20
8.3114165257
 30
0.0
 11
4.5002946998
 21
8.3114165257
 31
0.0
  0
LINE
  5
1AA
330
19F
100
AcDbEntity
  8
0
  6
Continuous
 62
     7
370
     0
100
AcDbLine
 10
2.6249800404
 20
8.1262204181
 30
0.0
 11
2.6249800404
 21
8.635808894
 31
0.0
  0
LINE
  5
1AB
330
19F
100
AcDbEntity
  8
0
  6
Continuous
 62
     7
370
     0
100
AcDbLine
 10
5.9888688853
 20
8.1262204181
 30
0.0
 11
5.9888688853
 21
8.635808894
 31
0.0
  0
LINE
  5
1AC
330
19F
100
AcDbEntity
  8
0
  6
Continuous
 62
     7
370
     0
100
AcDbLine
 10
2.6249800404
 20
8.510808894
 30
0.0
 11
3.9975884056
 21
8.510808894
 31
0.0
  0
LINE
  5
1AD
330
19F
100
AcDbEntity
  8
0
  6
Continuous
 62
     7
370
     0
100
AcDbLine
 10
5.9888688853
 20
8.510808894
 30
0.0
 11
4.6162605201
 21
8.510808894
 31
0.0
  0
MTEXT
  5
1AE
330
19F
100
AcDbEntity
  8
0
  6
Continuous
 62
     7
370
     0
100
AcDbMText
 10
4.0698150835
 20
8.6982878569
 30
-0.4292028033
 40
0.125
 41
0.0
 71
     1
 72
     1
  1

  7
SLDTEXTSTYLE0
 73
     1
 44
1.0
  0
MTEXT
  5
1AF
330
19F
100
AcDbEntity
  8
0
  6
Continuous
 62
     7
370
     0
100
AcDbMText
 10
4.0945112792
 20
8.6963781254
 30
-0.4292028033
 40
0.125
 41
0.0
 71
     1
 72
     1
  1
3.36
  7
SLDTEXTSTYLE0
 73
     1
 44
1.0
  0
MTEXT
  5
1B0
330
19F
100
AcDbEntity
  8
0
  6
Continuous
 62
     7
370
     0
100
AcDbMText
 10
4.145292518
 20
8.4725499863
 30
-0.4292028033
 40
0.125
 41
0.0
 71
     1
 72
     1
  1
85.4
  7
SLDTEXTSTYLE0
 73
     1
 44
1.0
  0
MTEXT
  5
1B1
330
19F
100
AcDbEntity
  8
0
  6
Continuous
 62
     7
370
     0
100
AcDbMText
 10
4.5916032957
 20
8.6982878569
 30
-0.4292028033
 40
0.125
 41
0.0
 71
     1
 72
     1
  1

  7
SLDTEXTSTYLE0
 73
     1
 44
1.0
  0
ENDBLK
  5
1A1
330
19F
100
AcDbEntity
  8
0
100
AcDbBlockEnd
  0
BLOCK
  5
1B4
330
1B3
100
AcDbEntity
  8
0
100
AcDbBlockBegin
  2
*D15
 70
     1
 10
0.0
 20
0.0
 30
0.0
  3
*D15
  1

  0
SOLID
  5
1B6
330
1B3
100
AcDbEntity
  8
0
  6
Continuous
 62
     7
370
     0
100
AcDbTrace
 10
2.1218850928
 20
9.4704393226
 30
0.0
 11
2.2518850928
 21
9.4504393226
 31
0.0
 12
2.2518850928
 22
9.4904393226
 32
0.0
 13
2.2518850928
 23
9.4904393226
 33
0.0
  0
SOLID
  5
1B7
330
1B3
100
AcDbEntity
  8
0
  6
Continuous
 62
     7
370
     0
100
AcDbTrace
 10
6.4919638329
 20
9.4704393226
 30
0.0
 11
6.3619638329
 21
9.4904393226
 31
0.0
 12
6.3619638329
 22
9.4504393226
 32
0.0
 13
6.3619638329
 23
9.4504393226
 33
0.0
  0
LINE
  5
1B8
330
1B3
100
AcDbEntity
  8
0
  6
Continuous
 62
     7
370
     0
100
AcDbLine
 10
4.1366445267
 20
9.4694844603
 30
0.0
 11
4.1112539005
 21
9.4694844603
 31
0.0
  0
LINE
  5
1B9
330
1B3
100
AcDbEntity
  8
0
  6
Continuous
 62
     7
370
     0
100
AcDbLine
 10
4.1112539005
 20
9.4694844603
 30
0.0
 11
4.1112539005
 21
9.2710469543
 31
0.0
  0
LINE
  5
1BA
330
1B3
100
AcDbEntity
  8
0
  6
Continuous
 62
     7
370
     0
100
AcDbLine
 10
4.1112539005
 20
9.2710469543
 30
0.0
 11
4.1366445267
 21
9.2710469543
 31
0.0
  0
LINE
  5
1BB
330
1B3
100
AcDbEntity
  8
0
  6
Continuous
 62
     7
370
     0
100
AcDbLine
 10
4.4772044265
 20
9.4694844603
 30
0.0
 11
4.5025950528
 21
9.4694844603
 31
0.0
  0
LINE
  5
1BC
330
1B3
100
AcDbEntity
  8
0
  6
Continuous
 62
     7
370
     0
100
AcDbLine
 10
4.5025950528
 20
9.4694844603
 30
0.0
 11
4.5025950528
 21
9.2710469543
 31
0.0
  0
LINE
  5
1BD
330
1B3
100
AcDbEntity
  8
0
  6
Continuous
 62
     7
370
     0
100
AcDbLine
 10
4.5025950528
 20
9.2710469543
 30
0.0
 11
4.4772044265
 21
9.2710469543
 31
0.0
  0
LINE
  5
1BE
330
1B3
100
AcDbEntity
  8
0
  6
Continuous
 62
     7
370
     0
100
AcDbLine
 10
2.1218850928
 20
7.9433715229
 30
0.0
 11
2.1218850928
 21
9.5954393226
 31
0.0
  0
LINE
  5
1BF
330
1B3
100
AcDbEntity
  8
0
  6
Continuous
 62
     7
370
     0
100
AcDbLine
 10
6.4919638329
 20
7.9433715229
 30
0.0
 11
6.4919638329
 21
9.5954393226
 31
0.0
  0
LINE
  5
1C0
330
1B3
100
AcDbEntity
  8
0
  6
Continuous
 62
     7
370
     0
100
AcDbLine
 10
2.1218850928
 20
9.4704393226
 30
0.0
 11
4.0206786972
 21
9.4704393226
 31
0.0
  0
LINE
  5
1C1
330
1B3
100
AcDbEntity
  8
0
  6
Continuous
 62
     7
370
     0
100
AcDbLine
 10
6.4919638329
 20
9.4704393226
 30
0.0
 11
4.5931702285
 21
9.4704393226
 31
0.0
  0
MTEXT
  5
1C2
330
1B3
100
AcDbEntity
  8
0
  6
Continuous
 62
     7
370
     0
100
AcDbMText
 10
4.0929053751
 20
9.6579182855
 30
-0.4292028033
 40
0.125
 41
0.0
 71
     1
 72
     1
  1

  7
SLDTEXTSTYLE0
 73
     1
 44
1.0
  0
MTEXT
  5
1C3
330
1B3
100
AcDbEntity
  8
0
  6
Continuous
 62
     7
370
     0
100
AcDbMText
 10
4.0945112792
 20
9.656008554
 30
-0.4292028033
 40
0.125
 41
0.0
 71
     1
 72
     1
  1
4.37
  7
SLDTEXTSTYLE0
 73
     1
 44
1.0
  0
MTEXT
  5
1C4
330
1B3
100
AcDbEntity
  8
0
  6
Continuous
 62
     7
370
     0
100
AcDbMText
 10
4.1683828096
 20
9.4321804149
 30
-0.4292028033
 40
0.125
 41
0.0
 71
     1
 72
     1
  1
111
  7
SLDTEXTSTYLE0
 73
     1
 44
1.0
  0
MTEXT
  5
1C5
330
1B3
100
AcDbEntity
  8
0
  6
Continuous
 62
     7
370
     0
100
AcDbMText
 10
4.5685130041
 20
9.6579182855
 30
-0.4292028033
 40
0.125
 41
0.0
 71
     1
 72
     1
  1

  7
SLDTEXTSTYLE0
 73
     1
 44
1.0
  0
ENDBLK
  5
1B5
330
1B3
100
AcDbEntity
  8
0
100
AcDbBlockEnd
  0
BLOCK
  5
1C8
330
1C7
100
AcDbEntity
  8
0
100
AcDbBlockBegin
  2
*D16
 70
     1
 10
0.0
 20
0.0
 30
0.0
  3
*D16
  1

  0
SOLID
  5
1CA
330
1C7
100
AcDbEntity
  8
0
  6
Continuous
 62
     7
370
     0
100
AcDbTrace
 10
2.5332076212
 20
8.9726946984
 30
0.0
 11
2.6632076212
 21
8.9526946984
 31
0.0
 12
2.6632076212
 22
8.9926946984
 32
0.0
 13
2.6632076212
 23
8.9926946984
 33
0.0
  0
SOLID
  5
1CB
330
1C7
100
AcDbEntity
  8
0
  6
Continuous
 62
     7
370
     0
100
AcDbTrace
 10
6.0806413046
 20
8.9726946984
 30
0.0
 11
5.9506413046
 21
8.9926946984
 31
0.0
 12
5.9506413046
 22
8.9526946984
 32
0.0
 13
5.9506413046
 23
8.9526946984
 33
0.0
  0
LINE
  5
1CC
330
1C7
100
AcDbEntity
  8
0
  6
Continuous
 62
     7
370
     0
100
AcDbLine
 10
4.1135542351
 20
8.9717398361
 30
0.0
 11
4.0881636089
 21
8.9717398361
 31
0.0
  0
LINE
  5
1CD
330
1C7
100
AcDbEntity
  8
0
  6
Continuous
 62
     7
370
     0
100
AcDbLine
 10
4.0881636089
 20
8.9717398361
 30
0.0
 11
4.0881636089
 21
8.7733023302
 31
0.0
  0
LINE
  5
1CE
330
1C7
100
AcDbEntity
  8
0
  6
Continuous
 62
     7
370
     0
100
AcDbLine
 10
4.0881636089
 20
8.7733023302
 30
0.0
 11
4.1135542351
 21
8.7733023302
 31
0.0
  0
LINE
  5
1CF
330
1C7
100
AcDbEntity
  8
0
  6
Continuous
 62
     7
370
     0
100
AcDbLine
 10
4.5002946998
 20
8.9717398361
 30
0.0
 11
4.525685326
 21
8.9717398361
 31
0.0
  0
LINE
  5
1D0
330
1C7
100
AcDbEntity
  8
0
  6
Continuous
 62
     7
370
     0
100
AcDbLine
 10
4.525685326
 20
8.9717398361
 30
0.0
 11
4.525685326
 21
8.7733023302
 31
0.0
  0
LINE
  5
1D1
330
1C7
100
AcDbEntity
  8
0
  6
Continuous
 62
     7
370
     0
100
AcDbLine
 10
4.525685326
 20
8.7733023302
 30
0.0
 11
4.5002946998
 21
8.7733023302
 31
0.0
  0
LINE
  5
1D2
330
1C7
100
AcDbEntity
  8
0
  6
Continuous
 62
     7
370
     0
100
AcDbLine
 10
2.5332076212
 20
8.1371893814
 30
0.0
 11
2.5332076212
 21
9.0976946984
 31
0.0
  0
LINE
  5
1D3
330
1C7
100
AcDbEntity
  8
0
  6
Continuous
 62
     7
370
     0
100
AcDbLine
 10
6.0806413046
 20
8.1371893814
 30
0.0
 11
6.0806413046
 21
9.0976946984
 31
0.0
  0
LINE
  5
1D4
330
1C7
100
AcDbEntity
  8
0
  6
Continuous
 62
     7
370
     0
100
AcDbLine
 10
2.5332076212
 20
8.9726946984
 30
0.0
 11
3.9975884056
 21
8.9726946984
 31
0.0
  0
LINE
  5
1D5
330
1C7
100
AcDbEntity
  8
0
  6
Continuous
 62
     7
370
     0
100
AcDbLine
 10
6.0806413046
 20
8.9726946984
 30
0.0
 11
4.6162605201
 21
8.9726946984
 31
0.0
  0
MTEXT
  5
1D6
330
1C7
100
AcDbEntity
  8
0
  6
Continuous
 62
     7
370
     0
100
AcDbMText
 10
4.0698150835
 20
9.1601736614
 30
-0.4292028033
 40
0.125
 41
0.0
 71
     1
 72
     1
  1

  7
SLDTEXTSTYLE0
 73
     1
 44
1.0
  0
MTEXT
  5
1D7
330
1C7
100
AcDbEntity
  8
0
  6
Continuous
 62
     7
370
     0
100
AcDbMText
 10
4.0945112792
 20
9.1582639299
 30
-0.4292028033
 40
0.125
 41
0.0
 71
     1
 72
     1
  1
3.55
  7
SLDTEXTSTYLE0
 73
     1
 44
1.0
  0
MTEXT
  5
1D8
330
1C7
100
AcDbEntity
  8
0
  6
Continuous
 62
     7
370
     0
100
AcDbMText
 10
4.145292518
 20
8.9344357908
 30
-0.4292028033
 40
0.125
 41
0.0
 71
     1
 72
     1
  1
90.1
  7
SLDTEXTSTYLE0
 73
     1
 44
1.0
  0
MTEXT
  5
1D9
330
1C7
100
AcDbEntity
  8
0
  6
Continuous
 62
     7
370
     0
100
AcDbMText
 10
4.5916032957
 20
9.1601736614
 30
-0.4292028033
 40
0.125
 41
0.0
 71
     1
 72
     1
  1

  7
SLDTEXTSTYLE0
 73
     1
 44
1.0
  0
ENDBLK
  5
1C9
330
1C7
100
AcDbEntity
  8
0
100
AcDbBlockEnd
  0
BLOCK
  5
1DB
330
1DA
100
AcDbEntity
  8
0
100
AcDbBlockBegin
  2
SW_NOTE_4
 70
     0
 10
0.0
 20
0.0
 30
0.0
  3
SW_NOTE_4
  1

  0
MTEXT
  5
1DD
330
1DA
100
AcDbEntity
  8
0
  6
Continuous
 62
     0
370
     0
100
AcDbMText
 10
0.0197149766
 20
0.060543002
 30
0.0
 40
0.125
 41
0.0
 71
     1
 72
     1
  1
HOLES ACCEPT M2.6 x 6mm LG.
  7
SLDTEXTSTYLE0
 73
     1
 44
1.0
  0
MTEXT
  5
1DE
330
1DA
100
AcDbEntity
  8
0
  6
Continuous
 62
     0
370
     0
100
AcDbMText
 10
0.0197149766
 20
-0.1038270725
 30
0.0
 40
0.125
 41
0.0
 71
     1
 72
     1
  1
SELF-TAPPING SCREWS FOR
  7
SLDTEXTSTYLE0
 73
     1
 44
1.0
  0
MTEXT
  5
1DF
330
1DA
100
AcDbEntity
  8
0
  6
Continuous
 62
     0
370
     0
100
AcDbMText
 10
0.0197149766
 20
-0.2681971471
 30
0.0
 40
0.125
 41
0.0
 71
     1
 72
     1
  1
PCB MOUNTING
  7
SLDTEXTSTYLE0
 73
     1
 44
1.0
  0
ENDBLK
  5
1DC
330
1DA
100
AcDbEntity
  8
0
100
AcDbBlockEnd
  0
BLOCK
  5
1E4
330
1E3
100
AcDbEntity
  8
0
100
AcDbBlockBegin
  2
SW_CENTERMARKSYMBOL_0
 70
     0
 10
0.0
 20
0.0
 30
0.0
  3
SW_CENTERMARKSYMBOL_0
  1

  0
LINE
  5
1E6
330
1E3
100
AcDbEntity
  8
0
  6
Continuous
 62
     0
370
     0
100
AcDbLine
 10
0.0
 20
0.0
 30
0.0
 11
0.0
 21
0.1
 31
0.0
  0
LINE
  5
1E7
330
1E3
100
AcDbEntity
  8
0
  6
Continuous
 62
     0
370
     0
100
AcDbLine
 10
0.0
 20
0.0
 30
0.0
 11
-0.1
 21
0.0
 31
0.0
  0
LINE
  5
1E8
330
1E3
100
AcDbEntity
  8
0
  6
Continuous
 62
     0
370
     0
100
AcDbLine
 10
0.0
 20
0.0
 30
0.0
 11
0.0
 21
-0.1
 31
0.0
  0
LINE
  5
1E9
330
1E3
100
AcDbEntity
  8
0
  6
Continuous
 62
     0
370
     0
100
AcDbLine
 10
0.0
 20
0.0
 30
0.0
 11
0.1
 21
0.0
 31
0.0
  0
LINE
  5
1EA
330
1E3
100
AcDbEntity
  8
0
  6
Continuous
 62
     0
370
     0
100
AcDbLine
 10
0.0
 20
0.1
 30
0.0
 11
0.0
 21
0.1885826772
 31
0.0
  0
LINE
  5
1EB
330
1E3
100
AcDbEntity
  8
0
  6
Continuous
 62
     0
370
     0
100
AcDbLine
 10
-0.1
 20
0.0
 30
0.0
 11
-0.1885826772
 21
0.0
 31
0.0
  0
LINE
  5
1EC
330
1E3
100
AcDbEntity
  8
0
  6
Continuous
 62
     0
370
     0
100
AcDbLine
 10
0.0
 20
-0.1
 30
0.0
 11
0.0
 21
-0.1885826772
 31
0.0
  0
LINE
  5
1ED
330
1E3
100
AcDbEntity
  8
0
  6
Continuous
 62
     0
370
     0
100
AcDbLine
 10
0.1
 20
0.0
 30
0.0
 11
0.1885826772
 21
0.0
 31
0.0
  0
ENDBLK
  5
1E5
330
1E3
100
AcDbEntity
  8
0
100
AcDbBlockEnd
  0
BLOCK
  5
1F0
330
1EF
100
AcDbEntity
  8
0
100
AcDbBlockBegin
  2
SW_CENTERMARKSYMBOL_1
 70
     0
 10
0.0
 20
0.0
 30
0.0
  3
SW_CENTERMARKSYMBOL_1
  1

  0
LINE
  5
1F2
330
1EF
100
AcDbEntity
  8
0
  6
Continuous
 62
     0
370
     0
100
AcDbLine
 10
0.0
 20
0.0
 30
0.0
 11
0.0
 21
0.1
 31
0.0
  0
LINE
  5
1F3
330
1EF
100
AcDbEntity
  8
0
  6
Continuous
 62
     0
370
     0
100
AcDbLine
 10
0.0
 20
0.0
 30
0.0
 11
-0.1
 21
0.0
 31
0.0
  0
LINE
  5
1F4
330
1EF
100
AcDbEntity
  8
0
  6
Continuous
 62
     0
370
     0
100
AcDbLine
 10
0.0
 20
0.0
 30
0.0
 11
0.0
 21
-0.1
 31
0.0
  0
LINE
  5
1F5
330
1EF
100
AcDbEntity
  8
0
  6
Continuous
 62
     0
370
     0
100
AcDbLine
 10
0.0
 20
0.0
 30
0.0
 11
0.1
 21
0.0
 31
0.0
  0
LINE
  5
1F6
330
1EF
100
AcDbEntity
  8
0
  6
Continuous
 62
     0
370
     0
100
AcDbLine
 10
0.0
 20
0.1
 30
0.0
 11
0.0
 21
0.1885826772
 31
0.0
  0
LINE
  5
1F7
330
1EF
100
AcDbEntity
  8
0
  6
Continuous
 62
     0
370
     0
100
AcDbLine
 10
-0.1
 20
0.0
 30
0.0
 11
-0.1885826772
 21
0.0
 31
0.0
  0
LINE
  5
1F8
330
1EF
100
AcDbEntity
  8
0
  6
Continuous
 62
     0
370
     0
100
AcDbLine
 10
0.0
 20
-0.1
 30
0.0
 11
0.0
 21
-0.1885826772
 31
0.0
  0
LINE
  5
1F9
330
1EF
100
AcDbEntity
  8
0
  6
Continuous
 62
     0
370
     0
100
AcDbLine
 10
0.1
 20
0.0
 30
0.0
 11
0.1885826772
 21
0.0
 31
0.0
  0
ENDBLK
  5
1F1
330
1EF
100
AcDbEntity
  8
0
100
AcDbBlockEnd
  0
BLOCK
  5
1FC
330
1FB
100
AcDbEntity
  8
0
100
AcDbBlockBegin
  2
SW_CENTERMARKSYMBOL_2
 70
     0
 10
0.0
 20
0.0
 30
0.0
  3
SW_CENTERMARKSYMBOL_2
  1

  0
LINE
  5
1FE
330
1FB
100
AcDbEntity
  8
0
  6
Continuous
 62
     0
370
     0
100
AcDbLine
 10
0.0
 20
0.0
 30
0.0
 11
0.0
 21
0.1
 31
0.0
  0
LINE
  5
1FF
330
1FB
100
AcDbEntity
  8
0
  6
Continuous
 62
     0
370
     0
100
AcDbLine
 10
0.0
 20
0.0
 30
0.0
 11
-0.1
 21
0.0
 31
0.0
  0
LINE
  5
200
330
1FB
100
AcDbEntity
  8
0
  6
Continuous
 62
     0
370
     0
100
AcDbLine
 10
0.0
 20
0.0
 30
0.0
 11
0.0
 21
-0.1
 31
0.0
  0
LINE
  5
201
330
1FB
100
AcDbEntity
  8
0
  6
Continuous
 62
     0
370
     0
100
AcDbLine
 10
0.0
 20
0.0
 30
0.0
 11
0.1
 21
0.0
 31
0.0
  0
LINE
  5
202
330
1FB
100
AcDbEntity
  8
0
  6
Continuous
 62
     0
370
     0
100
AcDbLine
 10
0.0
 20
0.1
 30
0.0
 11
0.0
 21
0.1393700787
 31
0.0
  0
LINE
  5
203
330
1FB
100
AcDbEntity
  8
0
  6
Continuous
 62
     0
370
     0
100
AcDbLine
 10
-0.1
 20
0.0
 30
0.0
 11
-0.1393700787
 21
0.0
 31
0.0
  0
LINE
  5
204
330
1FB
100
AcDbEntity
  8
0
  6
Continuous
 62
     0
370
     0
100
AcDbLine
 10
0.0
 20
-0.1
 30
0.0
 11
0.0
 21
-0.1393700787
 31
0.0
  0
LINE
  5
205
330
1FB
100
AcDbEntity
  8
0
  6
Continuous
 62
     0
370
     0
100
AcDbLine
 10
0.1
 20
0.0
 30
0.0
 11
0.1393700787
 21
0.0
 31
0.0
  0
ENDBLK
  5
1FD
330
1FB
100
AcDbEntity
  8
0
100
AcDbBlockEnd
  0
BLOCK
  5
208
330
207
100
AcDbEntity
  8
0
100
AcDbBlockBegin
  2
SW_CENTERMARKSYMBOL_3
 70
     0
 10
0.0
 20
0.0
 30
0.0
  3
SW_CENTERMARKSYMBOL_3
  1

  0
LINE
  5
20A
330
207
100
AcDbEntity
  8
0
  6
Continuous
 62
     0
370
     0
100
AcDbLine
 10
0.0
 20
0.0
 30
0.0
 11
0.0
 21
0.1
 31
0.0
  0
LINE
  5
20B
330
207
100
AcDbEntity
  8
0
  6
Continuous
 62
     0
370
     0
100
AcDbLine
 10
0.0
 20
0.0
 30
0.0
 11
-0.1
 21
0.0
 31
0.0
  0
LINE
  5
20C
330
207
100
AcDbEntity
  8
0
  6
Continuous
 62
     0
370
     0
100
AcDbLine
 10
0.0
 20
0.0
 30
0.0
 11
0.0
 21
-0.1
 31
0.0
  0
LINE
  5
20D
330
207
100
AcDbEntity
  8
0
  6
Continuous
 62
     0
370
     0
100
AcDbLine
 10
0.0
 20
0.0
 30
0.0
 11
0.1
 21
0.0
 31
0.0
  0
LINE
  5
20E
330
207
100
AcDbEntity
  8
0
  6
Continuous
 62
     0
370
     0
100
AcDbLine
 10
0.0
 20
0.1
 30
0.0
 11
0.0
 21
0.1393700787
 31
0.0
  0
LINE
  5
20F
330
207
100
AcDbEntity
  8
0
  6
Continuous
 62
     0
370
     0
100
AcDbLine
 10
-0.1
 20
0.0
 30
0.0
 11
-0.1393700787
 21
0.0
 31
0.0
  0
LINE
  5
210
330
207
100
AcDbEntity
  8
0
  6
Continuous
 62
     0
370
     0
100
AcDbLine
 10
0.0
 20
-0.1
 30
0.0
 11
0.0
 21
-0.1393700787
 31
0.0
  0
LINE
  5
211
330
207
100
AcDbEntity
  8
0
  6
Continuous
 62
     0
370
     0
100
AcDbLine
 10
0.1
 20
0.0
 30
0.0
 11
0.1393700787
 21
0.0
 31
0.0
  0
ENDBLK
  5
209
330
207
100
AcDbEntity
  8
0
100
AcDbBlockEnd
  0
BLOCK
  5
214
330
213
100
AcDbEntity
  8
0
100
AcDbBlockBegin
  2
SW_CENTERMARKSYMBOL_4
 70
     0
 10
0.0
 20
0.0
 30
0.0
  3
SW_CENTERMARKSYMBOL_4
  1

  0
LINE
  5
216
330
213
100
AcDbEntity
  8
0
  6
Continuous
 62
     0
370
     0
100
AcDbLine
 10
0.0
 20
0.0
 30
0.0
 11
0.0
 21
0.1
 31
0.0
  0
LINE
  5
217
330
213
100
AcDbEntity
  8
0
  6
Continuous
 62
     0
370
     0
100
AcDbLine
 10
0.0
 20
0.0
 30
0.0
 11
-0.1
 21
0.0
 31
0.0
  0
LINE
  5
218
330
213
100
AcDbEntity
  8
0
  6
Continuous
 62
     0
370
     0
100
AcDbLine
 10
0.0
 20
0.0
 30
0.0
 11
0.0
 21
-0.1
 31
0.0
  0
LINE
  5
219
330
213
100
AcDbEntity
  8
0
  6
Continuous
 62
     0
370
     0
100
AcDbLine
 10
0.0
 20
0.0
 30
0.0
 11
0.1
 21
0.0
 31
0.0
  0
LINE
  5
21A
330
213
100
AcDbEntity
  8
0
  6
Continuous
 62
     0
370
     0
100
AcDbLine
 10
0.0
 20
0.1
 30
0.0
 11
0.0
 21
0.1393700787
 31
0.0
  0
LINE
  5
21B
330
213
100
AcDbEntity
  8
0
  6
Continuous
 62
     0
370
     0
100
AcDbLine
 10
-0.1
 20
0.0
 30
0.0
 11
-0.1393700787
 21
0.0
 31
0.0
  0
LINE
  5
21C
330
213
100
AcDbEntity
  8
0
  6
Continuous
 62
     0
370
     0
100
AcDbLine
 10
0.0
 20
-0.1
 30
0.0
 11
0.0
 21
-0.1393700787
 31
0.0
  0
LINE
  5
21D
330
213
100
AcDbEntity
  8
0
  6
Continuous
 62
     0
370
     0
100
AcDbLine
 10
0.1
 20
0.0
 30
0.0
 11
0.1393700787
 21
0.0
 31
0.0
  0
ENDBLK
  5
215
330
213
100
AcDbEntity
  8
0
100
AcDbBlockEnd
  0
BLOCK
  5
220
330
21F
100
AcDbEntity
  8
0
100
AcDbBlockBegin
  2
SW_CENTERMARKSYMBOL_5
 70
     0
 10
0.0
 20
0.0
 30
0.0
  3
SW_CENTERMARKSYMBOL_5
  1

  0
LINE
  5
222
330
21F
100
AcDbEntity
  8
0
  6
Continuous
 62
     0
370
     0
100
AcDbLine
 10
0.0
 20
0.0
 30
0.0
 11
0.0
 21
0.1
 31
0.0
  0
LINE
  5
223
330
21F
100
AcDbEntity
  8
0
  6
Continuous
 62
     0
370
     0
100
AcDbLine
 10
0.0
 20
0.0
 30
0.0
 11
-0.1
 21
0.0
 31
0.0
  0
LINE
  5
224
330
21F
100
AcDbEntity
  8
0
  6
Continuous
 62
     0
370
     0
100
AcDbLine
 10
0.0
 20
0.0
 30
0.0
 11
0.0
 21
-0.1
 31
0.0
  0
LINE
  5
225
330
21F
100
AcDbEntity
  8
0
  6
Continuous
 62
     0
370
     0
100
AcDbLine
 10
0.0
 20
0.0
 30
0.0
 11
0.1
 21
0.0
 31
0.0
  0
LINE
  5
226
330
21F
100
AcDbEntity
  8
0
  6
Continuous
 62
     0
370
     0
100
AcDbLine
 10
0.0
 20
0.1
 30
0.0
 11
0.0
 21
0.1393700787
 31
0.0
  0
LINE
  5
227
330
21F
100
AcDbEntity
  8
0
  6
Continuous
 62
     0
370
     0
100
AcDbLine
 10
-0.1
 20
0.0
 30
0.0
 11
-0.1393700787
 21
0.0
 31
0.0
  0
LINE
  5
228
330
21F
100
AcDbEntity
  8
0
  6
Continuous
 62
     0
370
     0
100
AcDbLine
 10
0.0
 20
-0.1
 30
0.0
 11
0.0
 21
-0.1393700787
 31
0.0
  0
LINE
  5
229
330
21F
100
AcDbEntity
  8
0
  6
Continuous
 62
     0
370
     0
100
AcDbLine
 10
0.1
 20
0.0
 30
0.0
 11
0.1393700787
 21
0.0
 31
0.0
  0
ENDBLK
  5
221
330
21F
100
AcDbEntity
  8
0
100
AcDbBlockEnd
  0
BLOCK
  5
34F
330
34E
100
AcDbEntity
  8
0
100
AcDbBlockBegin
  2
*D24
 70
     1
 10
0.0
 20
0.0
 30
0.0
  3
*D24
  1

  0
SOLID
  5
351
330
34E
100
AcDbEntity
  8
0
  6
Continuous
 62
     7
370
     0
100
AcDbTrace
 10
5.7874639656
 20
4.2057890124
 30
0.0
 11
5.8074639656
 21
4.3357890124
 31
0.0
 12
5.7674639656
 22
4.3357890124
 32
0.0
 13
5.7674639656
 23
4.3357890124
 33
0.0
  0
SOLID
  5
352
330
34E
100
AcDbEntity
  8
0
  6
Continuous
 62
     7
370
     0
100
AcDbTrace
 10
5.7874639656
 20
4.1270488549
 30
0.0
 11
5.7674639656
 21
3.9970488549
 31
0.0
 12
5.8074639656
 22
3.9970488549
 32
0.0
 13
5.8074639656
 23
3.9970488549
 33
0.0
  0
LINE
  5
353
330
34E
100
AcDbEntity
  8
0
  6
Continuous
 62
     7
370
     0
100
AcDbLine
 10
6.1230133672
 20
3.8040338769
 30
0.0
 11
6.097622741
 21
3.8040338769
 31
0.0
  0
LINE
  5
354
330
34E
100
AcDbEntity
  8
0
  6
Continuous
 62
     7
370
     0
100
AcDbLine
 10
6.097622741
 20
3.8040338769
 30
0.0
 11
6.097622741
 21
3.605596371
 31
0.0
  0
LINE
  5
355
330
34E
100
AcDbEntity
  8
0
  6
Continuous
 62
     7
370
     0
100
AcDbLine
 10
6.097622741
 20
3.605596371
 30
0.0
 11
6.1230133672
 21
3.605596371
 31
0.0
  0
LINE
  5
356
330
34E
100
AcDbEntity
  8
0
  6
Continuous
 62
     7
370
     0
100
AcDbLine
 10
6.2788510443
 20
3.8040338769
 30
0.0
 11
6.3042416705
 21
3.8040338769
 31
0.0
  0
LINE
  5
357
330
34E
100
AcDbEntity
  8
0
  6
Continuous
 62
     7
370
     0
100
AcDbLine
 10
6.3042416705
 20
3.8040338769
 30
0.0
 11
6.3042416705
 21
3.605596371
 31
0.0
  0
LINE
  5
358
330
34E
100
AcDbEntity
  8
0
  6
Continuous
 62
     7
370
     0
100
AcDbLine
 10
6.3042416705
 20
3.605596371
 30
0.0
 11
6.2788510443
 21
3.605596371
 31
0.0
  0
LINE
  5
359
330
34E
100
AcDbEntity
  8
0
  6
Continuous
 62
     7
370
     0
100
AcDbLine
 10
5.9124639656
 20
3.8049887392
 30
0.0
 11
5.7874639656
 21
3.8049887392
 31
0.0
  0
LINE
  5
35A
330
34E
100
AcDbEntity
  8
0
  6
Continuous
 62
     7
370
     0
100
AcDbLine
 10
5.7874639656
 20
3.8049887392
 30
0.0
 11
5.7874639656
 21
4.1270488549
 31
0.0
  0
LINE
  5
35B
330
34E
100
AcDbEntity
  8
0
  6
Continuous
 62
     7
370
     0
100
AcDbLine
 10
5.7874639656
 20
4.2057890124
 30
0.0
 11
5.7874639656
 21
4.4557890124
 31
0.0
  0
MTEXT
  5
35C
330
34E
100
AcDbEntity
  8
0
  6
Continuous
 62
     7
370
     0
100
AcDbMText
 10
6.0353939991
 20
3.9924677022
 30
0.3626782046
 40
0.125
 41
0.0
 71
     1
 72
     1
  1

  7
SLDTEXTSTYLE0
 73
     1
 44
1.0
  0
MTEXT
  5
35D
330
34E
100
AcDbEntity
  8
0
  6
Continuous
 62
     7
370
     0
100
AcDbMText
 10
6.0346995548
 20
3.9905579707
 30
0.3626782046
 40
0.125
 41
0.0
 71
     1
 72
     1
  1
.08
  7
SLDTEXTSTYLE0
 73
     1
 44
1.0
  0
MTEXT
  5
35E
330
34E
100
AcDbEntity
  8
0
  6
Continuous
 62
     7
370
     0
100
AcDbMText
 10
6.1547516501
 20
3.7667298316
 30
0.3626782046
 40
0.125
 41
0.0
 71
     1
 72
     1
  1
2
  7
SLDTEXTSTYLE0
 73
     1
 44
1.0
  0
MTEXT
  5
35F
330
34E
100
AcDbEntity
  8
0
  6
Continuous
 62
     7
370
     0
100
AcDbMText
 10
6.4140398383
 20
3.9924677022
 30
0.3626782046
 40
0.125
 41
0.0
 71
     1
 72
     1
  1

  7
SLDTEXTSTYLE0
 73
     1
 44
1.0
  0
ENDBLK
  5
350
330
34E
100
AcDbEntity
  8
0
100
AcDbBlockEnd
  0
BLOCK
  5
363
330
362
100
AcDbEntity
  8
0
100
AcDbBlockBegin
  2
*D25
 70
     1
 10
0.0
 20
0.0
 30
0.0
  3
*D25
  1

  0
SOLID
  5
365
330
362
100
AcDbEntity
  8
0
  6
Continuous
 62
     7
370
     0
100
AcDbTrace
 10
2.8674472997
 20
4.2057890124
 30
0.0
 11
2.8474472997
 21
4.0757890124
 31
0.0
 12
2.8874472997
 22
4.0757890124
 32
0.0
 13
2.8874472997
 23
4.0757890124
 33
0.0
  0
SOLID
  5
366
330
362
100
AcDbEntity
  8
0
  6
Continuous
 62
     7
370
     0
100
AcDbTrace
 10
2.8674472997
 20
4.4026394061
 30
0.0
 11
2.8874472997
 21
4.5326394061
 31
0.0
 12
2.8474472997
 22
4.5326394061
 32
0.0
 13
2.8474472997
 23
4.5326394061
 33
0.0
  0
LINE
  5
367
330
362
100
AcDbEntity
  8
0
  6
Continuous
 62
     7
370
     0
100
AcDbLine
 10
2.3760602485
 20
4.8000167156
 30
0.0
 11
2.3506696222
 21
4.8000167156
 31
0.0
  0
LINE
  5
368
330
362
100
AcDbEntity
  8
0
  6
Continuous
 62
     7
370
     0
100
AcDbLine
 10
2.3506696222
 20
4.8000167156
 30
0.0
 11
2.3506696222
 21
4.6015792096
 31
0.0
  0
LINE
  5
369
330
362
100
AcDbEntity
  8
0
  6
Continuous
 62
     7
370
     0
100
AcDbLine
 10
2.3506696222
 20
4.6015792096
 30
0.0
 11
2.3760602485
 21
4.6015792096
 31
0.0
  0
LINE
  5
36A
330
362
100
AcDbEntity
  8
0
  6
Continuous
 62
     7
370
     0
100
AcDbLine
 10
2.5318979255
 20
4.8000167156
 30
0.0
 11
2.5572885518
 21
4.8000167156
 31
0.0
  0
LINE
  5
36B
330
362
100
AcDbEntity
  8
0
  6
Continuous
 62
     7
370
     0
100
AcDbLine
 10
2.5572885518
 20
4.8000167156
 30
0.0
 11
2.5572885518
 21
4.6015792096
 31
0.0
  0
LINE
  5
36C
330
362
100
AcDbEntity
  8
0
  6
Continuous
 62
     7
370
     0
100
AcDbLine
 10
2.5572885518
 20
4.6015792096
 30
0.0
 11
2.5318979255
 21
4.6015792096
 31
0.0
  0
LINE
  5
36D
330
362
100
AcDbEntity
  8
0
  6
Continuous
 62
     7
370
     0
100
AcDbLine
 10
2.9808329402
 20
4.4026394061
 30
0.0
 11
2.7424472997
 21
4.4026394061
 31
0.0
  0
LINE
  5
36E
330
362
100
AcDbEntity
  8
0
  6
Continuous
 62
     7
370
     0
100
AcDbLine
 10
2.7424472997
 20
4.8009715779
 30
0.0
 11
2.8674472997
 21
4.8009715779
 31
0.0
  0
LINE
  5
36F
330
362
100
AcDbEntity
  8
0
  6
Continuous
 62
     7
370
     0
100
AcDbLine
 10
2.8674472997
 20
4.8009715779
 30
0.0
 11
2.8674472997
 21
4.4026394061
 31
0.0
  0
LINE
  5
370
330
362
100
AcDbEntity
  8
0
  6
Continuous
 62
     7
370
     0
100
AcDbLine
 10
2.8674472997
 20
4.2057890124
 30
0.0
 11
2.8674472997
 21
3.9557890124
 31
0.0
  0
MTEXT
  5
371
330
362
100
AcDbEntity
  8
0
  6
Continuous
 62
     7
370
     0
100
AcDbMText
 10
2.2884408804
 20
4.9884505408
 30
0.3626782046
 40
0.125
 41
0.0
 71
     1
 72
     1
  1

  7
SLDTEXTSTYLE0
 73
     1
 44
1.0
  0
MTEXT
  5
372
330
362
100
AcDbEntity
  8
0
  6
Continuous
 62
     7
370
     0
100
AcDbMText
 10
2.2877464361
 20
4.9865408093
 30
0.3626782046
 40
0.125
 41
0.0
 71
     1
 72
     1
  1
.20
  7
SLDTEXTSTYLE0
 73
     1
 44
1.0
  0
MTEXT
  5
373
330
362
100
AcDbEntity
  8
0
  6
Continuous
 62
     7
370
     0
100
AcDbMText
 10
2.4077985313
 20
4.7627126702
 30
0.3626782046
 40
0.125
 41
0.0
 71
     1
 72
     1
  1
5
  7
SLDTEXTSTYLE0
 73
     1
 44
1.0
  0
MTEXT
  5
374
330
362
100
AcDbEntity
  8
0
  6
Continuous
 62
     7
370
     0
100
AcDbMText
 10
2.6670867196
 20
4.9884505408
 30
0.3626782046
 40
0.125
 41
0.0
 71
     1
 72
     1
  1

  7
SLDTEXTSTYLE0
 73
     1
 44
1.0
  0
ENDBLK
  5
364
330
362
100
AcDbEntity
  8
0
100
AcDbBlockEnd
  0
BLOCK
  5
377
330
376
100
AcDbEntity
  8
0
100
AcDbBlockBegin
  2
*D26
 70
     1
 10
0.0
 20
0.0
 30
0.0
  3
*D26
  1

  0
SOLID
  5
379
330
376
100
AcDbEntity
  8
0
  6
Continuous
 62
     7
370
     0
100
AcDbTrace
 10
1.8364456556
 20
4.2845291699
 30
0.0
 11
1.8564456556
 21
4.4145291699
 31
0.0
 12
1.8164456556
 22
4.4145291699
 32
0.0
 13
1.8164456556
 23
4.4145291699
 33
0.0
  0
SOLID
  5
37A
330
376
100
AcDbEntity
  8
0
  6
Continuous
 62
     7
370
     0
100
AcDbTrace
 10
1.8364456556
 20
4.1270488549
 30
0.0
 11
1.8164456556
 21
3.9970488549
 31
0.0
 12
1.8564456556
 22
3.9970488549
 32
0.0
 13
1.8564456556
 23
3.9970488549
 33
0.0
  0
LINE
  5
37B
330
376
100
AcDbEntity
  8
0
  6
Continuous
 62
     7
370
     0
100
AcDbLine
 10
1.3450586044
 20
3.7957652554
 30
0.0
 11
1.3196679782
 21
3.7957652554
 31
0.0
  0
LINE
  5
37C
330
376
100
AcDbEntity
  8
0
  6
Continuous
 62
     7
370
     0
100
AcDbLine
 10
1.3196679782
 20
3.7957652554
 30
0.0
 11
1.3196679782
 21
3.5973277494
 31
0.0
  0
LINE
  5
37D
330
376
100
AcDbEntity
  8
0
  6
Continuous
 62
     7
370
     0
100
AcDbLine
 10
1.3196679782
 20
3.5973277494
 30
0.0
 11
1.3450586044
 21
3.5973277494
 31
0.0
  0
LINE
  5
37E
330
376
100
AcDbEntity
  8
0
  6
Continuous
 62
     7
370
     0
100
AcDbLine
 10
1.5008962815
 20
3.7957652554
 30
0.0
 11
1.5262869077
 21
3.7957652554
 31
0.0
  0
LINE
  5
37F
330
376
100
AcDbEntity
  8
0
  6
Continuous
 62
     7
370
     0
100
AcDbLine
 10
1.5262869077
 20
3.7957652554
 30
0.0
 11
1.5262869077
 21
3.5973277494
 31
0.0
  0
LINE
  5
380
330
376
100
AcDbEntity
  8
0
  6
Continuous
 62
     7
370
     0
100
AcDbLine
 10
1.5262869077
 20
3.5973277494
 30
0.0
 11
1.5008962815
 21
3.5973277494
 31
0.0
  0
LINE
  5
381
330
376
100
AcDbEntity
  8
0
  6
Continuous
 62
     7
370
     0
100
AcDbLine
 10
2.1112551715
 20
4.2845291699
 30
0.0
 11
1.7114456556
 21
4.2845291699
 31
0.0
  0
LINE
  5
382
330
376
100
AcDbEntity
  8
0
  6
Continuous
 62
     7
370
     0
100
AcDbLine
 10
2.0718850928
 20
4.1270488549
 30
0.0
 11
1.7114456556
 21
4.1270488549
 31
0.0
  0
LINE
  5
383
330
376
100
AcDbEntity
  8
0
  6
Continuous
 62
     7
370
     0
100
AcDbLine
 10
1.7114456556
 20
3.7967201177
 30
0.0
 11
1.8364456556
 21
3.7967201177
 31
0.0
  0
LINE
  5
384
330
376
100
AcDbEntity
  8
0
  6
Continuous
 62
     7
370
     0
100
AcDbLine
 10
1.8364456556
 20
3.7967201177
 30
0.0
 11
1.8364456556
 21
4.1270488549
 31
0.0
  0
LINE
  5
385
330
376
100
AcDbEntity
  8
0
  6
Continuous
 62
     7
370
     0
100
AcDbLine
 10
1.8364456556
 20
4.2845291699
 30
0.0
 11
1.8364456556
 21
4.5345291699
 31
0.0
  0
MTEXT
  5
386
330
376
100
AcDbEntity
  8
0
  6
Continuous
 62
     7
370
     0
100
AcDbMText
 10
1.2574392363
 20
3.9841990806
 30
0.3626782046
 40
0.125
 41
0.0
 71
     1
 72
     1
  1

  7
SLDTEXTSTYLE0
 73
     1
 44
1.0
  0
MTEXT
  5
387
330
376
100
AcDbEntity
  8
0
  6
Continuous
 62
     7
370
     0
100
AcDbMText
 10
1.256744792
 20
3.9822893491
 30
0.3626782046
 40
0.125
 41
0.0
 71
     1
 72
     1
  1
.16
  7
SLDTEXTSTYLE0
 73
     1
 44
1.0
  0
MTEXT
  5
388
330
376
100
AcDbEntity
  8
0
  6
Continuous
 62
     7
370
     0
100
AcDbMText
 10
1.3767968873
 20
3.75846121
 30
0.3626782046
 40
0.125
 41
0.0
 71
     1
 72
     1
  1
4
  7
SLDTEXTSTYLE0
 73
     1
 44
1.0
  0
MTEXT
  5
389
330
376
100
AcDbEntity
  8
0
  6
Continuous
 62
     7
370
     0
100
AcDbMText
 10
1.6360850755
 20
3.9841990806
 30
0.3626782046
 40
0.125
 41
0.0
 71
     1
 72
     1
  1

  7
SLDTEXTSTYLE0
 73
     1
 44
1.0
  0
ENDBLK
  5
378
330
376
100
AcDbEntity
  8
0
100
AcDbBlockEnd
  0
BLOCK
  5
38C
330
38B
100
AcDbEntity
  8
0
100
AcDbBlockBegin
  2
*D27
 70
     1
 10
0.0
 20
0.0
 30
0.0
  3
*D27
  1

  0
SOLID
  5
38E
330
38B
100
AcDbEntity
  8
0
  6
Continuous
 62
     7
370
     0
100
AcDbTrace
 10
1.2977639145
 20
4.1270488549
 30
0.0
 11
1.2777639145
 21
3.9970488549
 31
0.0
 12
1.3177639145
 22
3.9970488549
 32
0.0
 13
1.3177639145
 23
3.9970488549
 33
0.0
  0
SOLID
  5
38F
330
38B
100
AcDbEntity
  8
0
  6
Continuous
 62
     7
370
     0
100
AcDbTrace
 10
1.2977639145
 20
4.5207496423
 30
0.0
 11
1.3177639145
 21
4.6507496423
 31
0.0
 12
1.2777639145
 22
4.6507496423
 32
0.0
 13
1.2777639145
 23
4.6507496423
 33
0.0
  0
LINE
  5
390
330
38B
100
AcDbEntity
  8
0
  6
Continuous
 62
     7
370
     0
100
AcDbLine
 10
0.7578959501
 20
4.8000167156
 30
0.0
 11
0.7325053238
 21
4.8000167156
 31
0.0
  0
LINE
  5
391
330
38B
100
AcDbEntity
  8
0
  6
Continuous
 62
     7
370
     0
100
AcDbLine
 10
0.7325053238
 20
4.8000167156
 30
0.0
 11
0.7325053238
 21
4.6015792096
 31
0.0
  0
LINE
  5
392
330
38B
100
AcDbEntity
  8
0
  6
Continuous
 62
     7
370
     0
100
AcDbLine
 10
0.7325053238
 20
4.6015792096
 30
0.0
 11
0.7578959501
 21
4.6015792096
 31
0.0
  0
LINE
  5
393
330
38B
100
AcDbEntity
  8
0
  6
Continuous
 62
     7
370
     0
100
AcDbLine
 10
1.0060947385
 20
4.8000167156
 30
0.0
 11
1.0314853648
 21
4.8000167156
 31
0.0
  0
LINE
  5
394
330
38B
100
AcDbEntity
  8
0
  6
Continuous
 62
     7
370
     0
100
AcDbLine
 10
1.0314853648
 20
4.8000167156
 30
0.0
 11
1.0314853648
 21
4.6015792096
 31
0.0
  0
LINE
  5
395
330
38B
100
AcDbEntity
  8
0
  6
Continuous
 62
     7
370
     0
100
AcDbLine
 10
1.0314853648
 20
4.6015792096
 30
0.0
 11
1.0060947385
 21
4.6015792096
 31
0.0
  0
LINE
  5
396
330
38B
100
AcDbEntity
  8
0
  6
Continuous
 62
     7
370
     0
100
AcDbLine
 10
2.0718850928
 20
4.1270488549
 30
0.0
 11
1.1727639145
 21
4.1270488549
 31
0.0
  0
LINE
  5
397
330
38B
100
AcDbEntity
  8
0
  6
Continuous
 62
     7
370
     0
100
AcDbLine
 10
2.5049559589
 20
4.5207496423
 30
0.0
 11
1.1727639145
 21
4.5207496423
 31
0.0
  0
LINE
  5
398
330
38B
100
AcDbEntity
  8
0
  6
Continuous
 62
     7
370
     0
100
AcDbLine
 10
1.1727639145
 20
4.8009715779
 30
0.0
 11
1.2977639145
 21
4.8009715779
 31
0.0
  0
LINE
  5
399
330
38B
100
AcDbEntity
  8
0
  6
Continuous
 62
     7
370
     0
100
AcDbLine
 10
1.2977639145
 20
4.8009715779
 30
0.0
 11
1.2977639145
 21
4.5207496423
 31
0.0
  0
LINE
  5
39A
330
38B
100
AcDbEntity
  8
0
  6
Continuous
 62
     7
370
     0
100
AcDbLine
 10
1.2977639145
 20
4.1270488549
 30
0.0
 11
1.2977639145
 21
3.8770488549
 31
0.0
  0
MTEXT
  5
39B
330
38B
100
AcDbEntity
  8
0
  6
Continuous
 62
     7
370
     0
100
AcDbMText
 10
0.7141567984
 20
4.9884505408
 30
0.3626782046
 40
0.125
 41
0.0
 71
     1
 72
     1
  1

  7
SLDTEXTSTYLE0
 73
     1
 44
1.0
  0
MTEXT
  5
39C
330
38B
100
AcDbEntity
  8
0
  6
Continuous
 62
     7
370
     0
100
AcDbMText
 10
0.7157627025
 20
4.9865408093
 30
0.3626782046
 40
0.125
 41
0.0
 71
     1
 72
     1
  1
.39
  7
SLDTEXTSTYLE0
 73
     1
 44
1.0
  0
MTEXT
  5
39D
330
38B
100
AcDbEntity
  8
0
  6
Continuous
 62
     7
370
     0
100
AcDbMText
 10
0.7896342329
 20
4.7627126702
 30
0.3626782046
 40
0.125
 41
0.0
 71
     1
 72
     1
  1
10
  7
SLDTEXTSTYLE0
 73
     1
 44
1.0
  0
MTEXT
  5
39E
330
38B
100
AcDbEntity
  8
0
  6
Continuous
 62
     7
370
     0
100
AcDbMText
 10
1.0974033345
 20
4.9884505408
 30
0.3626782046
 40
0.125
 41
0.0
 71
     1
 72
     1
  1

  7
SLDTEXTSTYLE0
 73
     1
 44
1.0
  0
ENDBLK
  5
38D
330
38B
100
AcDbEntity
  8
0
100
AcDbBlockEnd
  0
BLOCK
  5
403
330
402
100
AcDbEntity
  8
0
100
AcDbBlockBegin
  2
*D28
 70
     1
 10
0.0
 20
0.0
 30
0.0
  3
*D28
  1

  0
SOLID
  5
405
330
402
100
AcDbEntity
  8
0
  6
Continuous
 62
     7
370
     0
100
AcDbTrace
 10
12.1160045321
 20
8.0824103133
 30
0.0
 11
12.0960045321
 21
7.9524103133
 31
0.0
 12
12.1360045321
 22
7.9524103133
 32
0.0
 13
12.1360045321
 23
7.9524103133
 33
0.0
  0
SOLID
  5
406
330
402
100
AcDbEntity
  8
0
  6
Continuous
 62
     7
370
     0
100
AcDbTrace
 10
12.1160045321
 20
6.4178980428
 30
0.0
 11
12.1360045321
 21
6.5478980428
 31
0.0
 12
12.0960045321
 22
6.5478980428
 32
0.0
 13
12.0960045321
 23
6.5478980428
 33
0.0
  0
LINE
  5
407
330
402
100
AcDbEntity
  8
0
  6
Continuous
 62
     7
370
     0
100
AcDbLine
 10
11.9226343043
 20
7.2491993157
 30
0.0
 11
11.8972436781
 21
7.2491993157
 31
0.0
  0
LINE
  5
408
330
402
100
AcDbEntity
  8
0
  6
Continuous
 62
     7
370
     0
100
AcDbLine
 10
11.8972436781
 20
7.2491993157
 30
0.0
 11
11.8972436781
 21
7.0507618098
 31
0.0
  0
LINE
  5
409
330
402
100
AcDbEntity
  8
0
  6
Continuous
 62
     7
370
     0
100
AcDbLine
 10
11.8972436781
 20
7.0507618098
 30
0.0
 11
11.9226343043
 21
7.0507618098
 31
0.0
  0
LINE
  5
40A
330
402
100
AcDbEntity
  8
0
  6
Continuous
 62
     7
370
     0
100
AcDbLine
 10
12.309374769
 20
7.2491993157
 30
0.0
 11
12.3347653952
 21
7.2491993157
 31
0.0
  0
LINE
  5
40B
330
402
100
AcDbEntity
  8
0
  6
Continuous
 62
     7
370
     0
100
AcDbLine
 10
12.3347653952
 20
7.2491993157
 30
0.0
 11
12.3347653952
 21
7.0507618098
 31
0.0
  0
LINE
  5
40C
330
402
100
AcDbEntity
  8
0
  6
Continuous
 62
     7
370
     0
100
AcDbLine
 10
12.3347653952
 20
7.0507618098
 30
0.0
 11
12.309374769
 21
7.0507618098
 31
0.0
  0
LINE
  5
40D
330
402
100
AcDbEntity
  8
0
  6
Continuous
 62
     7
370
     0
100
AcDbLine
 10
11.6887804609
 20
8.0824103133
 30
0.0
 11
12.2410045321
 21
8.0824103133
 31
0.0
  0
LINE
  5
40E
330
402
100
AcDbEntity
  8
0
  6
Continuous
 62
     7
370
     0
100
AcDbLine
 10
11.693559529
 20
6.4178980428
 30
0.0
 11
12.2410045321
 21
6.4178980428
 31
0.0
  0
LINE
  5
40F
330
402
100
AcDbEntity
  8
0
  6
Continuous
 62
     7
370
     0
100
AcDbLine
 10
12.1160045321
 20
8.0824103133
 30
0.0
 11
12.1160045321
 21
7.4749371863
 31
0.0
  0
LINE
  5
410
330
402
100
AcDbEntity
  8
0
  6
Continuous
 62
     7
370
     0
100
AcDbLine
 10
12.1160045321
 20
6.4178980428
 30
0.0
 11
12.1160045321
 21
7.0253711698
 31
0.0
  0
MTEXT
  5
411
330
402
100
AcDbEntity
  8
0
  6
Continuous
 62
     7
370
     0
100
AcDbMText
 10
11.8788951527
 20
7.437633141
 30
0.5709350868
 40
0.125
 41
0.0
 71
     1
 72
     1
  1

  7
SLDTEXTSTYLE0
 73
     1
 44
1.0
  0
MTEXT
  5
412
330
402
100
AcDbEntity
  8
0
  6
Continuous
 62
     7
370
     0
100
AcDbMText
 10
11.9035913484
 20
7.4357234095
 30
0.5709350868
 40
0.125
 41
0.0
 71
     1
 72
     1
  1
1.66
  7
SLDTEXTSTYLE0
 73
     1
 44
1.0
  0
MTEXT
  5
413
330
402
100
AcDbEntity
  8
0
  6
Continuous
 62
     7
370
     0
100
AcDbMText
 10
11.9543725872
 20
7.2118952704
 30
0.5709350868
 40
0.125
 41
0.0
 71
     1
 72
     1
  1
42.3
  7
SLDTEXTSTYLE0
 73
     1
 44
1.0
  0
MTEXT
  5
414
330
402
100
AcDbEntity
  8
0
  6
Continuous
 62
     7
370
     0
100
AcDbMText
 10
12.4006833649
 20
7.437633141
 30
0.5709350868
 40
0.125
 41
0.0
 71
     1
 72
     1
  1

  7
SLDTEXTSTYLE0
 73
     1
 44
1.0
  0
ENDBLK
  5
404
330
402
100
AcDbEntity
  8
0
100
AcDbBlockEnd
  0
BLOCK
  5
417
330
416
100
AcDbEntity
  8
0
100
AcDbBlockBegin
  2
*D29
 70
     1
 10
0.0
 20
0.0
 30
0.0
  3
*D29
  1

  0
SOLID
  5
419
330
416
100
AcDbEntity
  8
0
  6
Continuous
 62
     7
370
     0
100
AcDbTrace
 10
12.6544238638
 20
8.1659295389
 30
0.0
 11
12.6344238638
 21
8.0359295389
 31
0.0
 12
12.6744238638
 22
8.0359295389
 32
0.0
 13
12.6744238638
 23
8.0359295389
 33
0.0
  0
SOLID
  5
41A
330
416
100
AcDbEntity
  8
0
  6
Continuous
 62
     7
370
     0
100
AcDbTrace
 10
12.6544238638
 20
6.3706539483
 30
0.0
 11
12.6744238638
 21
6.5006539483
 31
0.0
 12
12.6344238638
 22
6.5006539483
 32
0.0
 13
12.6344238638
 23
6.5006539483
 33
0.0
  0
LINE
  5
41B
330
416
100
AcDbEntity
  8
0
  6
Continuous
 62
     7
370
     0
100
AcDbLine
 10
12.4610536361
 20
7.2673368813
 30
0.0
 11
12.4356630098
 21
7.2673368813
 31
0.0
  0
LINE
  5
41C
330
416
100
AcDbEntity
  8
0
  6
Continuous
 62
     7
370
     0
100
AcDbLine
 10
12.4356630098
 20
7.2673368813
 30
0.0
 11
12.4356630098
 21
7.0688993753
 31
0.0
  0
LINE
  5
41D
330
416
100
AcDbEntity
  8
0
  6
Continuous
 62
     7
370
     0
100
AcDbLine
 10
12.4356630098
 20
7.0688993753
 30
0.0
 11
12.4610536361
 21
7.0688993753
 31
0.0
  0
LINE
  5
41E
330
416
100
AcDbEntity
  8
0
  6
Continuous
 62
     7
370
     0
100
AcDbLine
 10
12.8477941007
 20
7.2673368813
 30
0.0
 11
12.873184727
 21
7.2673368813
 31
0.0
  0
LINE
  5
41F
330
416
100
AcDbEntity
  8
0
  6
Continuous
 62
     7
370
     0
100
AcDbLine
 10
12.873184727
 20
7.2673368813
 30
0.0
 11
12.873184727
 21
7.0688993753
 31
0.0
  0
LINE
  5
420
330
416
100
AcDbEntity
  8
0
  6
Continuous
 62
     7
370
     0
100
AcDbLine
 10
12.873184727
 20
7.0688993753
 30
0.0
 11
12.8477941007
 21
7.0688993753
 31
0.0
  0
LINE
  5
421
330
416
100
AcDbEntity
  8
0
  6
Continuous
 62
     7
370
     0
100
AcDbLine
 10
11.693559529
 20
8.1659295389
 30
0.0
 11
12.7794238638
 21
8.1659295389
 31
0.0
  0
LINE
  5
422
330
416
100
AcDbEntity
  8
0
  6
Continuous
 62
     7
370
     0
100
AcDbLine
 10
11.693559529
 20
6.3706539483
 30
0.0
 11
12.7794238638
 21
6.3706539483
 31
0.0
  0
LINE
  5
423
330
416
100
AcDbEntity
  8
0
  6
Continuous
 62
     7
370
     0
100
AcDbLine
 10
12.6544238638
 20
8.1659295389
 30
0.0
 11
12.6544238638
 21
7.4930747519
 31
0.0
  0
LINE
  5
424
330
416
100
AcDbEntity
  8
0
  6
Continuous
 62
     7
370
     0
100
AcDbLine
 10
12.6544238638
 20
6.3706539483
 30
0.0
 11
12.6544238638
 21
7.0435087353
 31
0.0
  0
MTEXT
  5
425
330
416
100
AcDbEntity
  8
0
  6
Continuous
 62
     7
370
     0
100
AcDbMText
 10
12.4173144844
 20
7.4557707065
 30
0.5709350868
 40
0.125
 41
0.0
 71
     1
 72
     1
  1

  7
SLDTEXTSTYLE0
 73
     1
 44
1.0
  0
MTEXT
  5
426
330
416
100
AcDbEntity
  8
0
  6
Continuous
 62
     7
370
     0
100
AcDbMText
 10
12.4420106801
 20
7.4538609751
 30
0.5709350868
 40
0.125
 41
0.0
 71
     1
 72
     1
  1
1.80
  7
SLDTEXTSTYLE0
 73
     1
 44
1.0
  0
MTEXT
  5
427
330
416
100
AcDbEntity
  8
0
  6
Continuous
 62
     7
370
     0
100
AcDbMText
 10
12.4927919189
 20
7.2300328359
 30
0.5709350868
 40
0.125
 41
0.0
 71
     1
 72
     1
  1
45.6
  7
SLDTEXTSTYLE0
 73
     1
 44
1.0
  0
MTEXT
  5
428
330
416
100
AcDbEntity
  8
0
  6
Continuous
 62
     7
370
     0
100
AcDbMText
 10
12.9391026967
 20
7.4557707065
 30
0.5709350868
 40
0.125
 41
0.0
 71
     1
 72
     1
  1

  7
SLDTEXTSTYLE0
 73
     1
 44
1.0
  0
ENDBLK
  5
418
330
416
100
AcDbEntity
  8
0
100
AcDbBlockEnd
  0
BLOCK
  5
42B
330
42A
100
AcDbEntity
  8
0
100
AcDbBlockBegin
  2
*D30
 70
     1
 10
0.0
 20
0.0
 30
0.0
  3
*D30
  1

  0
SOLID
  5
42D
330
42A
100
AcDbEntity
  8
0
  6
Continuous
 62
     7
370
     0
100
AcDbTrace
 10
11.7222996865
 20
9.1866961698
 30
0.0
 11
11.5922996865
 21
9.2066961698
 31
0.0
 12
11.5922996865
 22
9.1666961698
 32
0.0
 13
11.5922996865
 23
9.1666961698
 33
0.0
  0
SOLID
  5
42E
330
42A
100
AcDbEntity
  8
0
  6
Continuous
 62
     7
370
     0
100
AcDbTrace
 10
8.1789925999
 20
9.1866961698
 30
0.0
 11
8.3089925999
 21
9.1666961698
 31
0.0
 12
8.3089925999
 22
9.2066961698
 32
0.0
 13
8.3089925999
 23
9.2066961698
 33
0.0
  0
LINE
  5
42F
330
42A
100
AcDbEntity
  8
0
  6
Continuous
 62
     7
370
     0
100
AcDbLine
 10
9.8265467536
 20
9.1857413075
 30
0.0
 11
9.8011561273
 21
9.1857413075
 31
0.0
  0
LINE
  5
430
330
42A
100
AcDbEntity
  8
0
  6
Continuous
 62
     7
370
     0
100
AcDbLine
 10
9.8011561273
 20
9.1857413075
 30
0.0
 11
9.8011561273
 21
8.9873038016
 31
0.0
  0
LINE
  5
431
330
42A
100
AcDbEntity
  8
0
  6
Continuous
 62
     7
370
     0
100
AcDbLine
 10
9.8011561273
 20
8.9873038016
 30
0.0
 11
9.8265467536
 21
8.9873038016
 31
0.0
  0
LINE
  5
432
330
42A
100
AcDbEntity
  8
0
  6
Continuous
 62
     7
370
     0
100
AcDbLine
 10
10.074745542
 20
9.1857413075
 30
0.0
 11
10.1001361682
 21
9.1857413075
 31
0.0
  0
LINE
  5
433
330
42A
100
AcDbEntity
  8
0
  6
Continuous
 62
     7
370
     0
100
AcDbLine
 10
10.1001361682
 20
9.1857413075
 30
0.0
 11
10.1001361682
 21
8.9873038016
 31
0.0
  0
LINE
  5
434
330
42A
100
AcDbEntity
  8
0
  6
Continuous
 62
     7
370
     0
100
AcDbLine
 10
10.1001361682
 20
8.9873038016
 30
0.0
 11
10.074745542
 21
8.9873038016
 31
0.0
  0
LINE
  5
435
330
42A
100
AcDbEntity
  8
0
  6
Continuous
 62
     7
370
     0
100
AcDbLine
 10
11.7222996865
 20
8.1371893814
 30
0.0
 11
11.7222996865
 21
9.3116961698
 31
0.0
  0
LINE
  5
436
330
42A
100
AcDbEntity
  8
0
  6
Continuous
 62
     7
370
     0
100
AcDbLine
 10
8.1789925999
 20
8.1371893814
 30
0.0
 11
8.1789925999
 21
9.3116961698
 31
0.0
  0
LINE
  5
437
330
42A
100
AcDbEntity
  8
0
  6
Continuous
 62
     7
370
     0
100
AcDbLine
 10
11.7222996865
 20
9.1866961698
 30
0.0
 11
10.2345915604
 21
9.1866961698
 31
0.0
  0
LINE
  5
438
330
42A
100
AcDbEntity
  8
0
  6
Continuous
 62
     7
370
     0
100
AcDbLine
 10
8.1789925999
 20
9.1866961698
 30
0.0
 11
9.666700726
 21
9.1866961698
 31
0.0
  0
MTEXT
  5
439
330
42A
100
AcDbEntity
  8
0
  6
Continuous
 62
     7
370
     0
100
AcDbMText
 10
9.7389274038
 20
9.3741751328
 30
0.5709350868
 40
0.125
 41
0.0
 71
     1
 72
     1
  1

  7
SLDTEXTSTYLE0
 73
     1
 44
1.0
  0
MTEXT
  5
43A
330
42A
100
AcDbEntity
  8
0
  6
Continuous
 62
     7
370
     0
100
AcDbMText
 10
9.7382329595
 20
9.3722654013
 30
0.5709350868
 40
0.125
 41
0.0
 71
     1
 72
     1
  1
3.54
  7
SLDTEXTSTYLE0
 73
     1
 44
1.0
  0
MTEXT
  5
43B
330
42A
100
AcDbEntity
  8
0
  6
Continuous
 62
     7
370
     0
100
AcDbMText
 10
9.8582850364
 20
9.1484372622
 30
0.5709350868
 40
0.125
 41
0.0
 71
     1
 72
     1
  1
90
  7
SLDTEXTSTYLE0
 73
     1
 44
1.0
  0
MTEXT
  5
43C
330
42A
100
AcDbEntity
  8
0
  6
Continuous
 62
     7
370
     0
100
AcDbMText
 10
10.209934336
 20
9.3741751328
 30
0.5709350868
 40
0.125
 41
0.0
 71
     1
 72
     1
  1

  7
SLDTEXTSTYLE0
 73
     1
 44
1.0
  0
ENDBLK
  5
42C
330
42A
100
AcDbEntity
  8
0
100
AcDbBlockEnd
  0
BLOCK
  5
43F
330
43E
100
AcDbEntity
  8
0
100
AcDbBlockBegin
  2
*D31
 70
     1
 10
0.0
 20
0.0
 30
0.0
  3
*D31
  1

  0
SOLID
  5
441
330
43E
100
AcDbEntity
  8
0
  6
Continuous
 62
     7
370
     0
100
AcDbTrace
 10
8.2625118255
 20
8.6606164836
 30
0.0
 11
8.3925118255
 21
8.6406164836
 31
0.0
 12
8.3925118255
 22
8.6806164836
 32
0.0
 13
8.3925118255
 23
8.6806164836
 33
0.0
  0
SOLID
  5
442
330
43E
100
AcDbEntity
  8
0
  6
Continuous
 62
     7
370
     0
100
AcDbTrace
 10
11.6387804609
 20
8.6606164836
 30
0.0
 11
11.5087804609
 21
8.6806164836
 31
0.0
 12
11.5087804609
 22
8.6406164836
 32
0.0
 13
11.5087804609
 23
8.6406164836
 33
0.0
  0
LINE
  5
443
330
43E
100
AcDbEntity
  8
0
  6
Continuous
 62
     7
370
     0
100
AcDbLine
 10
9.7572759155
 20
8.6596616213
 30
0.0
 11
9.7318852892
 21
8.6596616213
 31
0.0
  0
LINE
  5
444
330
43E
100
AcDbEntity
  8
0
  6
Continuous
 62
     7
370
     0
100
AcDbLine
 10
9.7318852892
 20
8.6596616213
 30
0.0
 11
9.7318852892
 21
8.4612241154
 31
0.0
  0
LINE
  5
445
330
43E
100
AcDbEntity
  8
0
  6
Continuous
 62
     7
370
     0
100
AcDbLine
 10
9.7318852892
 20
8.4612241154
 30
0.0
 11
9.7572759155
 21
8.4612241154
 31
0.0
  0
LINE
  5
446
330
43E
100
AcDbEntity
  8
0
  6
Continuous
 62
     7
370
     0
100
AcDbLine
 10
10.1440163801
 20
8.6596616213
 30
0.0
 11
10.1694070064
 21
8.6596616213
 31
0.0
  0
LINE
  5
447
330
43E
100
AcDbEntity
  8
0
  6
Continuous
 62
     7
370
     0
100
AcDbLine
 10
10.1694070064
 20
8.6596616213
 30
0.0
 11
10.1694070064
 21
8.4612241154
 31
0.0
  0
LINE
  5
448
330
43E
100
AcDbEntity
  8
0
  6
Continuous
 62
     7
370
     0
100
AcDbLine
 10
10.1694070064
 20
8.4612241154
 30
0.0
 11
10.1440163801
 21
8.4612241154
 31
0.0
  0
LINE
  5
449
330
43E
100
AcDbEntity
  8
0
  6
Continuous
 62
     7
370
     0
100
AcDbLine
 10
8.2625118255
 20
8.1324103133
 30
0.0
 11
8.2625118255
 21
8.7856164836
 31
0.0
  0
LINE
  5
44A
330
43E
100
AcDbEntity
  8
0
  6
Continuous
 62
     7
370
     0
100
AcDbLine
 10
11.6387804609
 20
8.1324103133
 30
0.0
 11
11.6387804609
 21
8.7856164836
 31
0.0
  0
LINE
  5
44B
330
43E
100
AcDbEntity
  8
0
  6
Continuous
 62
     7
370
     0
100
AcDbLine
 10
8.2625118255
 20
8.6606164836
 30
0.0
 11
9.641310086
 21
8.6606164836
 31
0.0
  0
LINE
  5
44C
330
43E
100
AcDbEntity
  8
0
  6
Continuous
 62
     7
370
     0
100
AcDbLine
 10
11.6387804609
 20
8.6606164836
 30
0.0
 11
10.2599822004
 21
8.6606164836
 31
0.0
  0
MTEXT
  5
44D
330
43E
100
AcDbEntity
  8
0
  6
Continuous
 62
     7
370
     0
100
AcDbMText
 10
9.7135367638
 20
8.8480954466
 30
0.5709350868
 40
0.125
 41
0.0
 71
     1
 72
     1
  1

  7
SLDTEXTSTYLE0
 73
     1
 44
1.0
  0
MTEXT
  5
44E
330
43E
100
AcDbEntity
  8
0
  6
Continuous
 62
     7
370
     0
100
AcDbMText
 10
9.7382329595
 20
8.8461857151
 30
0.5709350868
 40
0.125
 41
0.0
 71
     1
 72
     1
  1
3.38
  7
SLDTEXTSTYLE0
 73
     1
 44
1.0
  0
MTEXT
  5
44F
330
43E
100
AcDbEntity
  8
0
  6
Continuous
 62
     7
370
     0
100
AcDbMText
 10
9.7890141983
 20
8.622357576
 30
0.5709350868
 40
0.125
 41
0.0
 71
     1
 72
     1
  1
85.8
  7
SLDTEXTSTYLE0
 73
     1
 44
1.0
  0
MTEXT
  5
450
330
43E
100
AcDbEntity
  8
0
  6
Continuous
 62
     7
370
     0
100
AcDbMText
 10
10.2353249761
 20
8.8480954466
 30
0.5709350868
 40
0.125
 41
0.0
 71
     1
 72
     1
  1

  7
SLDTEXTSTYLE0
 73
     1
 44
1.0
  0
ENDBLK
  5
440
330
43E
100
AcDbEntity
  8
0
100
AcDbBlockEnd
  0
BLOCK
  5
478
330
477
100
AcDbEntity
  8
0
100
AcDbBlockBegin
  2
*D32
 70
     1
 10
0.0
 20
0.0
 30
0.0
  3
*D32
  1

  0
ARC
  5
47A
330
477
100
AcDbEntity
  8
0
  6
Continuous
 62
     7
370
     0
100
AcDbCircle
 10
14.0608391473
 20
8.0473342405
 30
0.0
 40
0.940941926090067
100
AcDbArc
 50
161.8911878837
 51
177.0
  0
ARC
  5
47B
330
477
100
AcDbEntity
  8
0
  6
Continuous
 62
     7
370
     0
100
AcDbCircle
 10
14.0608391473
 20
8.0473342405
 30
0.0
 40
0.9409419260900673
100
AcDbArc
 50
180.0
 51
193.756929321
  0
SOLID
  5
47C
330
477
100
AcDbEntity
  8
0
  6
Continuous
 62
     7
370
     0
100
AcDbTrace
 10
13.1211867494
 20
8.096579336
 30
0.0
 11
13.1567327988
 21
8.2232145537
 31
0.0
 12
13.117025286
 22
8.2280429516
 32
0.0
 13
13.117025286
 23
8.2280429516
 33
0.0
  0
SOLID
  5
47D
330
477
100
AcDbEntity
  8
0
  6
Continuous
 62
     7
370
     0
100
AcDbTrace
 10
13.1198972212
 20
8.0473342405
 30
0.0
 11
13.1088611869
 21
7.9162685854
 31
0.0
 12
13.1487669808
 22
7.9190122354
 32
0.0
 13
13.1487669808
 23
7.9190122354
 33
0.0
  0
LINE
  5
47E
330
477
100
AcDbEntity
  8
0
  6
Continuous
 62
     7
370
     0
100
AcDbLine
 10
12.8136757589
 20
7.7234014651
 30
0.0
 11
12.7882851326
 21
7.7234014651
 31
0.0
  0
LINE
  5
47F
330
477
100
AcDbEntity
  8
0
  6
Continuous
 62
     7
370
     0
100
AcDbLine
 10
12.7882851326
 20
7.7234014651
 30
0.0
 11
12.8136757589
 21
7.7234014651
 31
0.0
  0
LINE
  5
480
330
477
100
AcDbEntity
  8
0
  6
Continuous
 62
     7
370
     0
100
AcDbLine
 10
12.8771523245
 20
7.7234014651
 30
0.0
 11
12.9025429508
 21
7.7234014651
 31
0.0
  0
LINE
  5
481
330
477
100
AcDbEntity
  8
0
  6
Continuous
 62
     7
370
     0
100
AcDbLine
 10
12.9025429508
 20
7.7234014651
 30
0.0
 11
12.8771523245
 21
7.7234014651
 31
0.0
  0
LINE
  5
482
330
477
100
AcDbEntity
  8
0
  6
Continuous
 62
     7
370
     0
100
AcDbLine
 10
13.2864982217
 20
8.0879157288
 30
0.0
 11
12.9963580576
 21
8.1031213305
 31
0.0
  0
LINE
  5
483
330
477
100
AcDbEntity
  8
0
  6
Continuous
 62
     7
370
     0
100
AcDbLine
 10
13.7006185095
 20
8.0473342405
 30
0.0
 11
12.9948972212
 21
8.0473342405
 31
0.0
  0
LINE
  5
484
330
477
100
AcDbEntity
  8
0
  6
Continuous
 62
     7
370
     0
100
AcDbLine
 10
13.1468897239
 20
7.823575085
 30
0.0
 11
13.0218897239
 21
7.823575085
 31
0.0
  0
MTEXT
  5
485
330
477
100
AcDbEntity
  8
0
  6
Continuous
 62
     7
370
     0
100
AcDbMText
 10
12.7158133412
 20
7.9118352858
 30
0.0039370079
 40
0.125
 41
0.0
 71
     1
 72
     1
  1

  7
SLDTEXTSTYLE0
 73
     1
 44
1.0
  0
MTEXT
  5
486
330
477
100
AcDbEntity
  8
0
  6
Continuous
 62
     7
370
     0
100
AcDbMText
 10
12.7151188969
 20
7.9099255634
 30
0.0039370079
 40
0.125
 41
0.0
 71
     1
 72
     1
  1
3°
  7
SLDTEXTSTYLE0
 73
     1
 44
1.0
  0
MTEXT
  5
487
330
477
100
AcDbEntity
  8
0
  6
Continuous
 62
     7
370
     0
100
AcDbMText
 10
13.0225841774
 20
7.9118352858
 30
0.0039370079
 40
0.125
 41
0.0
 71
     1
 72
     1
  1

  7
SLDTEXTSTYLE0
 73
     1
 44
1.0
  0
ENDBLK
  5
479
330
477
100
AcDbEntity
  8
0
100
AcDbBlockEnd
  0
BLOCK
  5
48A
330
489
100
AcDbEntity
  8
0
100
AcDbBlockBegin
  2
*D33
 70
     1
 10
0.0
 20
0.0
 30
0.0
  3
*D33
  1

  0
SOLID
  5
48C
330
489
100
AcDbEntity
  8
0
  6
Continuous
 62
     7
370
     0
100
AcDbTrace
 10
14.0608391473
 20
7.9192666997
 30
0.0
 11
13.9308391473
 21
7.9392666997
 31
0.0
 12
13.9308391473
 22
7.8992666997
 32
0.0
 13
13.9308391473
 23
7.8992666997
 33
0.0
  0
SOLID
  5
48D
330
489
100
AcDbEntity
  8
0
  6
Continuous
 62
     7
370
     0
100
AcDbTrace
 10
14.1395793048
 20
7.9192666997
 30
0.0
 11
14.2695793048
 21
7.8992666997
 31
0.0
 12
14.2695793048
 22
7.9392666997
 32
0.0
 13
14.2695793048
 23
7.9392666997
 33
0.0
  0
LINE
  5
48E
330
489
100
AcDbEntity
  8
0
  6
Continuous
 62
     7
370
     0
100
AcDbLine
 10
14.5350700803
 20
7.9183118374
 30
0.0
 11
14.509679454
 21
7.9183118374
 31
0.0
  0
LINE
  5
48F
330
489
100
AcDbEntity
  8
0
  6
Continuous
 62
     7
370
     0
100
AcDbLine
 10
14.509679454
 20
7.9183118374
 30
0.0
 11
14.509679454
 21
7.7198743314
 31
0.0
  0
LINE
  5
490
330
489
100
AcDbEntity
  8
0
  6
Continuous
 62
     7
370
     0
100
AcDbLine
 10
14.509679454
 20
7.7198743314
 30
0.0
 11
14.5350700803
 21
7.7198743314
 31
0.0
  0
LINE
  5
491
330
489
100
AcDbEntity
  8
0
  6
Continuous
 62
     7
370
     0
100
AcDbLine
 10
14.6909077573
 20
7.9183118374
 30
0.0
 11
14.7162983836
 21
7.9183118374
 31
0.0
  0
LINE
  5
492
330
489
100
AcDbEntity
  8
0
  6
Continuous
 62
     7
370
     0
100
AcDbLine
 10
14.7162983836
 20
7.9183118374
 30
0.0
 11
14.7162983836
 21
7.7198743314
 31
0.0
  0
LINE
  5
493
330
489
100
AcDbEntity
  8
0
  6
Continuous
 62
     7
370
     0
100
AcDbLine
 10
14.7162983836
 20
7.7198743314
 30
0.0
 11
14.6909077573
 21
7.7198743314
 31
0.0
  0
LINE
  5
494
330
489
100
AcDbEntity
  8
0
  6
Continuous
 62
     7
370
     0
100
AcDbLine
 10
14.0608391473
 20
7.9192666997
 30
0.0
 11
13.8108391473
 21
7.9192666997
 31
0.0
  0
LINE
  5
495
330
489
100
AcDbEntity
  8
0
  6
Continuous
 62
     7
370
     0
100
AcDbLine
 10
14.1395793048
 20
7.9192666997
 30
0.0
 11
14.3752240344
 21
7.9192666997
 31
0.0
  0
MTEXT
  5
496
330
489
100
AcDbEntity
  8
0
  6
Continuous
 62
     7
370
     0
100
AcDbMText
 10
14.4474507122
 20
8.1067456626
 30
0.4960645291
 40
0.125
 41
0.0
 71
     1
 72
     1
  1

  7
SLDTEXTSTYLE0
 73
     1
 44
1.0
  0
MTEXT
  5
497
330
489
100
AcDbEntity
  8
0
  6
Continuous
 62
     7
370
     0
100
AcDbMText
 10
14.4467562679
 20
8.1048359311
 30
0.4960645291
 40
0.125
 41
0.0
 71
     1
 72
     1
  1
.08
  7
SLDTEXTSTYLE0
 73
     1
 44
1.0
  0
MTEXT
  5
498
330
489
100
AcDbEntity
  8
0
  6
Continuous
 62
     7
370
     0
100
AcDbMText
 10
14.5668083631
 20
7.881007792
 30
0.4960645291
 40
0.125
 41
0.0
 71
     1
 72
     1
  1
2
  7
SLDTEXTSTYLE0
 73
     1
 44
1.0
  0
MTEXT
  5
499
330
489
100
AcDbEntity
  8
0
  6
Continuous
 62
     7
370
     0
100
AcDbMText
 10
14.8260965514
 20
8.1067456626
 30
0.4960645291
 40
0.125
 41
0.0
 71
     1
 72
     1
  1

  7
SLDTEXTSTYLE0
 73
     1
 44
1.0
  0
ENDBLK
  5
48B
330
489
100
AcDbEntity
  8
0
100
AcDbBlockEnd
  0
BLOCK
  5
49C
330
49B
100
AcDbEntity
  8
0
100
AcDbBlockBegin
  2
*D34
 70
     1
 10
0.0
 20
0.0
 30
0.0
  3
*D34
  1

  0
SOLID
  5
49E
330
49B
100
AcDbEntity
  8
0
  6
Continuous
 62
     7
370
     0
100
AcDbTrace
 10
13.4506029268
 20
8.5605658971
 30
0.0
 11
13.3206029268
 21
8.5805658971
 31
0.0
 12
13.3206029268
 22
8.5405658971
 32
0.0
 13
13.3206029268
 23
8.5405658971
 33
0.0
  0
SOLID
  5
49F
330
49B
100
AcDbEntity
  8
0
  6
Continuous
 62
     7
370
     0
100
AcDbTrace
 10
14.1395793048
 20
8.5605658971
 30
0.0
 11
14.2695793048
 21
8.5405658971
 31
0.0
 12
14.2695793048
 22
8.5805658971
 32
0.0
 13
14.2695793048
 23
8.5805658971
 33
0.0
  0
LINE
  5
4A0
330
49B
100
AcDbEntity
  8
0
  6
Continuous
 62
     7
370
     0
100
AcDbLine
 10
13.6017208881
 20
8.5596110348
 30
0.0
 11
13.5763302618
 21
8.5596110348
 31
0.0
  0
LINE
  5
4A1
330
49B
100
AcDbEntity
  8
0
  6
Continuous
 62
     7
370
     0
100
AcDbLine
 10
13.5763302618
 20
8.5596110348
 30
0.0
 11
13.5763302618
 21
8.3611735288
 31
0.0
  0
LINE
  5
4A2
330
49B
100
AcDbEntity
  8
0
  6
Continuous
 62
     7
370
     0
100
AcDbLine
 10
13.5763302618
 20
8.3611735288
 30
0.0
 11
13.6017208881
 21
8.3611735288
 31
0.0
  0
LINE
  5
4A3
330
49B
100
AcDbEntity
  8
0
  6
Continuous
 62
     7
370
     0
100
AcDbLine
 10
13.9884613527
 20
8.5596110348
 30
0.0
 11
14.013851979
 21
8.5596110348
 31
0.0
  0
LINE
  5
4A4
330
49B
100
AcDbEntity
  8
0
  6
Continuous
 62
     7
370
     0
100
AcDbLine
 10
14.013851979
 20
8.5596110348
 30
0.0
 11
14.013851979
 21
8.3611735288
 31
0.0
  0
LINE
  5
4A5
330
49B
100
AcDbEntity
  8
0
  6
Continuous
 62
     7
370
     0
100
AcDbLine
 10
14.013851979
 20
8.3611735288
 30
0.0
 11
13.9884613527
 21
8.3611735288
 31
0.0
  0
LINE
  5
4A6
330
49B
100
AcDbEntity
  8
0
  6
Continuous
 62
     7
370
     0
100
AcDbLine
 10
13.4506029268
 20
8.2159295389
 30
0.0
 11
13.4506029268
 21
8.6855658971
 31
0.0
  0
LINE
  5
4A7
330
49B
100
AcDbEntity
  8
0
  6
Continuous
 62
     7
370
     0
100
AcDbLine
 10
14.1395793048
 20
8.1424610072
 30
0.0
 11
14.1395793048
 21
8.6855658971
 31
0.0
  0
LINE
  5
4A8
330
49B
100
AcDbEntity
  8
0
  6
Continuous
 62
     7
370
     0
100
AcDbLine
 10
13.4506029268
 20
8.5605658971
 30
0.0
 11
13.2006029268
 21
8.5605658971
 31
0.0
  0
LINE
  5
4A9
330
49B
100
AcDbEntity
  8
0
  6
Continuous
 62
     7
370
     0
100
AcDbLine
 10
14.1395793048
 20
8.5605658971
 30
0.0
 11
14.3895793048
 21
8.5605658971
 31
0.0
  0
MTEXT
  5
4AA
330
49B
100
AcDbEntity
  8
0
  6
Continuous
 62
     7
370
     0
100
AcDbMText
 10
13.5579817364
 20
8.74804486
 30
0.4960645291
 40
0.125
 41
0.0
 71
     1
 72
     1
  1

  7
SLDTEXTSTYLE0
 73
     1
 44
1.0
  0
MTEXT
  5
4AB
330
49B
100
AcDbEntity
  8
0
  6
Continuous
 62
     7
370
     0
100
AcDbMText
 10
13.6288584786
 20
8.7461351285
 30
0.4960645291
 40
0.125
 41
0.0
 71
     1
 72
     1
  1
.69
  7
SLDTEXTSTYLE0
 73
     1
 44
1.0
  0
MTEXT
  5
4AC
330
49B
100
AcDbEntity
  8
0
  6
Continuous
 62
     7
370
     0
100
AcDbMText
 10
13.6334591709
 20
8.5223069894
 30
0.4960645291
 40
0.125
 41
0.0
 71
     1
 72
     1
  1
17.5
  7
SLDTEXTSTYLE0
 73
     1
 44
1.0
  0
MTEXT
  5
4AD
330
49B
100
AcDbEntity
  8
0
  6
Continuous
 62
     7
370
     0
100
AcDbMText
 10
14.0797699487
 20
8.74804486
 30
0.4960645291
 40
0.125
 41
0.0
 71
     1
 72
     1
  1

  7
SLDTEXTSTYLE0
 73
     1
 44
1.0
  0
ENDBLK
  5
49D
330
49B
100
AcDbEntity
  8
0
100
AcDbBlockEnd
  0
BLOCK
  5
4E2
330
4E1
100
AcDbEntity
  8
0
100
AcDbBlockBegin
  2
*D35
 70
     1
 10
0.0
 20
0.0
 30
0.0
  3
*D35
  1

  0
SOLID
  5
4E4
330
4E1
100
AcDbEntity
  8
0
  6
Continuous
 62
     7
370
     0
100
AcDbTrace
 10
14.9955616114
 20
6.7958507987
 30
0.0
 11
15.0155616114
 21
6.9258507987
 31
0.0
 12
14.9755616114
 22
6.9258507987
 32
0.0
 13
14.9755616114
 23
6.9258507987
 33
0.0
  0
SOLID
  5
4E5
330
4E1
100
AcDbEntity
  8
0
  6
Continuous
 62
     7
370
     0
100
AcDbTrace
 10
14.9955616114
 20
7.7407326885
 30
0.0
 11
14.9755616114
 21
7.6107326885
 31
0.0
 12
15.0155616114
 22
7.6107326885
 32
0.0
 13
15.0155616114
 23
7.6107326885
 33
0.0
  0
LINE
  5
4E6
330
4E1
100
AcDbEntity
  8
0
  6
Continuous
 62
     7
370
     0
100
AcDbLine
 10
14.8714622218
 20
7.2673368813
 30
0.0
 11
14.8460715955
 21
7.2673368813
 31
0.0
  0
LINE
  5
4E7
330
4E1
100
AcDbEntity
  8
0
  6
Continuous
 62
     7
370
     0
100
AcDbLine
 10
14.8460715955
 20
7.2673368813
 30
0.0
 11
14.8460715955
 21
7.0688993753
 31
0.0
  0
LINE
  5
4E8
330
4E1
100
AcDbEntity
  8
0
  6
Continuous
 62
     7
370
     0
100
AcDbLine
 10
14.8460715955
 20
7.0688993753
 30
0.0
 11
14.8714622218
 21
7.0688993753
 31
0.0
  0
LINE
  5
4E9
330
4E1
100
AcDbEntity
  8
0
  6
Continuous
 62
     7
370
     0
100
AcDbLine
 10
15.1196610102
 20
7.2673368813
 30
0.0
 11
15.1450516365
 21
7.2673368813
 31
0.0
  0
LINE
  5
4EA
330
4E1
100
AcDbEntity
  8
0
  6
Continuous
 62
     7
370
     0
100
AcDbLine
 10
15.1450516365
 20
7.2673368813
 30
0.0
 11
15.1450516365
 21
7.0688993753
 31
0.0
  0
LINE
  5
4EB
330
4E1
100
AcDbEntity
  8
0
  6
Continuous
 62
     7
370
     0
100
AcDbLine
 10
15.1450516365
 20
7.0688993753
 30
0.0
 11
15.1196610102
 21
7.0688993753
 31
0.0
  0
LINE
  5
4EC
330
4E1
100
AcDbEntity
  8
0
  6
Continuous
 62
     7
370
     0
100
AcDbLine
 10
15.1860343433
 20
6.7958507987
 30
0.0
 11
14.8705616114
 21
6.7958507987
 31
0.0
  0
LINE
  5
4ED
330
4E1
100
AcDbEntity
  8
0
  6
Continuous
 62
     7
370
     0
100
AcDbLine
 10
15.1860343433
 20
7.7407326885
 30
0.0
 11
14.8705616114
 21
7.7407326885
 31
0.0
  0
LINE
  5
4EE
330
4E1
100
AcDbEntity
  8
0
  6
Continuous
 62
     7
370
     0
100
AcDbLine
 10
14.9955616114
 20
6.7958507987
 30
0.0
 11
14.9955616114
 21
7.0435087353
 31
0.0
  0
LINE
  5
4EF
330
4E1
100
AcDbEntity
  8
0
  6
Continuous
 62
     7
370
     0
100
AcDbLine
 10
14.9955616114
 20
7.7407326885
 30
0.0
 11
14.9955616114
 21
7.4930747519
 31
0.0
  0
MTEXT
  5
4F0
330
4E1
100
AcDbEntity
  8
0
  6
Continuous
 62
     7
370
     0
100
AcDbMText
 10
14.8277230701
 20
7.4557707065
 30
0.0039370079
 40
0.125
 41
0.0
 71
     1
 72
     1
  1

  7
SLDTEXTSTYLE0
 73
     1
 44
1.0
  0
MTEXT
  5
4F1
330
4E1
100
AcDbEntity
  8
0
  6
Continuous
 62
     7
370
     0
100
AcDbMText
 10
14.8293289742
 20
7.4538609751
 30
0.0039370079
 40
0.125
 41
0.0
 71
     1
 72
     1
  1
.94
  7
SLDTEXTSTYLE0
 73
     1
 44
1.0
  0
MTEXT
  5
4F2
330
4E1
100
AcDbEntity
  8
0
  6
Continuous
 62
     7
370
     0
100
AcDbMText
 10
14.9032005046
 20
7.2300328359
 30
0.0039370079
 40
0.125
 41
0.0
 71
     1
 72
     1
  1
24
  7
SLDTEXTSTYLE0
 73
     1
 44
1.0
  0
MTEXT
  5
4F3
330
4E1
100
AcDbEntity
  8
0
  6
Continuous
 62
     7
370
     0
100
AcDbMText
 10
15.2109696062
 20
7.4557707065
 30
0.0039370079
 40
0.125
 41
0.0
 71
     1
 72
     1
  1

  7
SLDTEXTSTYLE0
 73
     1
 44
1.0
  0
ENDBLK
  5
4E3
330
4E1
100
AcDbEntity
  8
0
100
AcDbBlockEnd
  0
BLOCK
  5
4F6
330
4F5
100
AcDbEntity
  8
0
100
AcDbBlockBegin
  2
*D36
 70
     1
 10
0.0
 20
0.0
 30
0.0
  3
*D36
  1

  0
SOLID
  5
4F8
330
4F5
100
AcDbEntity
  8
0
  6
Continuous
 62
     7
370
     0
100
AcDbTrace
 10
15.2755600352
 20
6.913961035
 30
0.0
 11
15.2955600352
 21
7.043961035
 31
0.0
 12
15.2555600352
 22
7.043961035
 32
0.0
 13
15.2555600352
 23
7.043961035
 33
0.0
  0
SOLID
  5
4F9
330
4F5
100
AcDbEntity
  8
0
  6
Continuous
 62
     7
370
     0
100
AcDbTrace
 10
15.2755600352
 20
6.6777405625
 30
0.0
 11
15.2555600352
 21
6.5477405625
 31
0.0
 12
15.2955600352
 22
6.5477405625
 32
0.0
 13
15.2955600352
 23
6.5477405625
 33
0.0
  0
LINE
  5
4FA
330
4F5
100
AcDbEntity
  8
0
  6
Continuous
 62
     7
370
     0
100
AcDbLine
 10
14.784172984
 20
6.4112010698
 30
0.0
 11
14.7587823577
 21
6.4112010698
 31
0.0
  0
LINE
  5
4FB
330
4F5
100
AcDbEntity
  8
0
  6
Continuous
 62
     7
370
     0
100
AcDbLine
 10
14.7587823577
 20
6.4112010698
 30
0.0
 11
14.7587823577
 21
6.2127635638
 31
0.0
  0
LINE
  5
4FC
330
4F5
100
AcDbEntity
  8
0
  6
Continuous
 62
     7
370
     0
100
AcDbLine
 10
14.7587823577
 20
6.2127635638
 30
0.0
 11
14.784172984
 21
6.2127635638
 31
0.0
  0
LINE
  5
4FD
330
4F5
100
AcDbEntity
  8
0
  6
Continuous
 62
     7
370
     0
100
AcDbLine
 10
14.940010661
 20
6.4112010698
 30
0.0
 11
14.9654012873
 21
6.4112010698
 31
0.0
  0
LINE
  5
4FE
330
4F5
100
AcDbEntity
  8
0
  6
Continuous
 62
     7
370
     0
100
AcDbLine
 10
14.9654012873
 20
6.4112010698
 30
0.0
 11
14.9654012873
 21
6.2127635638
 31
0.0
  0
LINE
  5
4FF
330
4F5
100
AcDbEntity
  8
0
  6
Continuous
 62
     7
370
     0
100
AcDbLine
 10
14.9654012873
 20
6.2127635638
 30
0.0
 11
14.940010661
 21
6.2127635638
 31
0.0
  0
LINE
  5
500
330
4F5
100
AcDbEntity
  8
0
  6
Continuous
 62
     7
370
     0
100
AcDbLine
 10
15.4360343433
 20
6.913961035
 30
0.0
 11
15.1505600352
 21
6.913961035
 31
0.0
  0
LINE
  5
501
330
4F5
100
AcDbEntity
  8
0
  6
Continuous
 62
     7
370
     0
100
AcDbLine
 10
15.4360343433
 20
6.6777405625
 30
0.0
 11
15.1505600352
 21
6.6777405625
 31
0.0
  0
LINE
  5
502
330
4F5
100
AcDbEntity
  8
0
  6
Continuous
 62
     7
370
     0
100
AcDbLine
 10
15.1505600352
 20
6.4121559321
 30
0.0
 11
15.2755600352
 21
6.4121559321
 31
0.0
  0
LINE
  5
503
330
4F5
100
AcDbEntity
  8
0
  6
Continuous
 62
     7
370
     0
100
AcDbLine
 10
15.2755600352
 20
6.4121559321
 30
0.0
 11
15.2755600352
 21
6.6777405625
 31
0.0
  0
LINE
  5
504
330
4F5
100
AcDbEntity
  8
0
  6
Continuous
 62
     7
370
     0
100
AcDbLine
 10
15.2755600352
 20
6.913961035
 30
0.0
 11
15.2755600352
 21
7.163961035
 31
0.0
  0
MTEXT
  5
505
330
4F5
100
AcDbEntity
  8
0
  6
Continuous
 62
     7
370
     0
100
AcDbMText
 10
14.6965536159
 20
6.599634895
 30
0.0039370079
 40
0.125
 41
0.0
 71
     1
 72
     1
  1

  7
SLDTEXTSTYLE0
 73
     1
 44
1.0
  0
MTEXT
  5
506
330
4F5
100
AcDbEntity
  8
0
  6
Continuous
 62
     7
370
     0
100
AcDbMText
 10
14.6958591716
 20
6.5977251635
 30
0.0039370079
 40
0.125
 41
0.0
 71
     1
 72
     1
  1
.24
  7
SLDTEXTSTYLE0
 73
     1
 44
1.0
  0
MTEXT
  5
507
330
4F5
100
AcDbEntity
  8
0
  6
Continuous
 62
     7
370
     0
100
AcDbMText
 10
14.8159112668
 20
6.3738970244
 30
0.0039370079
 40
0.125
 41
0.0
 71
     1
 72
     1
  1
6
  7
SLDTEXTSTYLE0
 73
     1
 44
1.0
  0
MTEXT
  5
508
330
4F5
100
AcDbEntity
  8
0
  6
Continuous
 62
     7
370
     0
100
AcDbMText
 10
15.0751994551
 20
6.599634895
 30
0.0039370079
 40
0.125
 41
0.0
 71
     1
 72
     1
  1

  7
SLDTEXTSTYLE0
 73
     1
 44
1.0
  0
ENDBLK
  5
4F7
330
4F5
100
AcDbEntity
  8
0
100
AcDbBlockEnd
  0
BLOCK
  5
50B
330
50A
100
AcDbEntity
  8
0
100
AcDbBlockBegin
  2
*D37
 70
     1
 10
0.0
 20
0.0
 30
0.0
  3
*D37
  1

  0
SOLID
  5
50D
330
50A
100
AcDbEntity
  8
0
  6
Continuous
 62
     7
370
     0
100
AcDbTrace
 10
15.5450894614
 20
6.032366857
 30
0.0
 11
15.4150894614
 21
6.052366857
 31
0.0
 12
15.4150894614
 22
6.012366857
 32
0.0
 13
15.4150894614
 23
6.012366857
 33
0.0
  0
SOLID
  5
50E
330
50A
100
AcDbEntity
  8
0
  6
Continuous
 62
     7
370
     0
100
AcDbTrace
 10
15.66558783
 20
6.032366857
 30
0.0
 11
15.79558783
 21
6.012366857
 31
0.0
 12
15.79558783
 22
6.052366857
 32
0.0
 13
15.79558783
 23
6.052366857
 33
0.0
  0
LINE
  5
50F
330
50A
100
AcDbEntity
  8
0
  6
Continuous
 62
     7
370
     0
100
AcDbLine
 10
16.0239123997
 20
6.0314119946
 30
0.0
 11
15.9985217734
 21
6.0314119946
 31
0.0
  0
LINE
  5
510
330
50A
100
AcDbEntity
  8
0
  6
Continuous
 62
     7
370
     0
100
AcDbLine
 10
15.9985217734
 20
6.0314119946
 30
0.0
 11
15.9985217734
 21
5.8329744887
 31
0.0
  0
LINE
  5
511
330
50A
100
AcDbEntity
  8
0
  6
Continuous
 62
     7
370
     0
100
AcDbLine
 10
15.9985217734
 20
5.8329744887
 30
0.0
 11
16.0239123997
 21
5.8329744887
 31
0.0
  0
LINE
  5
512
330
50A
100
AcDbEntity
  8
0
  6
Continuous
 62
     7
370
     0
100
AcDbLine
 10
16.3182917346
 20
6.0314119946
 30
0.0
 11
16.3436823609
 21
6.0314119946
 31
0.0
  0
LINE
  5
513
330
50A
100
AcDbEntity
  8
0
  6
Continuous
 62
     7
370
     0
100
AcDbLine
 10
16.3436823609
 20
6.0314119946
 30
0.0
 11
16.3436823609
 21
5.8329744887
 31
0.0
  0
LINE
  5
514
330
50A
100
AcDbEntity
  8
0
  6
Continuous
 62
     7
370
     0
100
AcDbLine
 10
16.3436823609
 20
5.8329744887
 30
0.0
 11
16.3182917346
 21
5.8329744887
 31
0.0
  0
LINE
  5
515
330
50A
100
AcDbEntity
  8
0
  6
Continuous
 62
     7
370
     0
100
AcDbLine
 10
15.5450894614
 20
6.3206539483
 30
0.0
 11
15.5450894614
 21
5.907366857
 31
0.0
  0
LINE
  5
516
330
50A
100
AcDbEntity
  8
0
  6
Continuous
 62
     7
370
     0
100
AcDbLine
 10
15.66558783
 20
6.6277405625
 30
0.0
 11
15.66558783
 21
5.907366857
 31
0.0
  0
LINE
  5
517
330
50A
100
AcDbEntity
  8
0
  6
Continuous
 62
     7
370
     0
100
AcDbLine
 10
15.5450894614
 20
6.032366857
 30
0.0
 11
15.2950894614
 21
6.032366857
 31
0.0
  0
LINE
  5
518
330
50A
100
AcDbEntity
  8
0
  6
Continuous
 62
     7
370
     0
100
AcDbLine
 10
15.66558783
 20
6.032366857
 30
0.0
 11
15.9079465702
 21
6.032366857
 31
0.0
  0
MTEXT
  5
519
330
50A
100
AcDbEntity
  8
0
  6
Continuous
 62
     7
370
     0
100
AcDbMText
 10
15.9801732481
 20
6.2198458199
 30
0.0039370079
 40
0.125
 41
0.0
 71
     1
 72
     1
  1

  7
SLDTEXTSTYLE0
 73
     1
 44
1.0
  0
MTEXT
  5
51A
330
50A
100
AcDbEntity
  8
0
  6
Continuous
 62
     7
370
     0
100
AcDbMText
 10
16.0048694254
 20
6.2179360884
 30
0.0039370079
 40
0.125
 41
0.0
 71
     1
 72
     1
  1
.12
  7
SLDTEXTSTYLE0
 73
     1
 44
1.0
  0
MTEXT
  5
51B
330
50A
100
AcDbEntity
  8
0
  6
Continuous
 62
     7
370
     0
100
AcDbMText
 10
16.0556506825
 20
5.9941079493
 30
0.0039370079
 40
0.125
 41
0.0
 71
     1
 72
     1
  1
3.1
  7
SLDTEXTSTYLE0
 73
     1
 44
1.0
  0
MTEXT
  5
51C
330
50A
100
AcDbEntity
  8
0
  6
Continuous
 62
     7
370
     0
100
AcDbMText
 10
16.4096003306
 20
6.2198458199
 30
0.0039370079
 40
0.125
 41
0.0
 71
     1
 72
     1
  1

  7
SLDTEXTSTYLE0
 73
     1
 44
1.0
  0
ENDBLK
  5
50C
330
50A
100
AcDbEntity
  8
0
100
AcDbBlockEnd
  0
BLOCK
  5
51E
330
51D
100
AcDbEntity
  8
0
100
AcDbBlockBegin
  2
SW_NOTE_5
 70
     0
 10
0.0
 20
0.0
 30
0.0
  3
SW_NOTE_5
  1

  0
MTEXT
  5
520
330
51D
100
AcDbEntity
  8
0
  6
Continuous
 62
     0
370
     0
100
AcDbMText
 10
0.0197421093
 20
0.0606257786
 30
0.0
 40
0.125
 41
0.0
 71
     1
 72
     1
  1
CABLE OUTLET
  7
SLDTEXTSTYLE0
 73
     1
 44
1.0
  0
MTEXT
  5
521
330
51D
100
AcDbEntity
  8
0
  6
Continuous
 62
     0
370
     0
100
AcDbMText
 10
0.0197421093
 20
-0.1037442959
 30
0.0
 40
0.125
 41
0.0
 71
     1
 72
     1
  1
MAY BE EASILY
  7
SLDTEXTSTYLE0
 73
     1
 44
1.0
  0
MTEXT
  5
522
330
51D
100
AcDbEntity
  8
0
  6
Continuous
 62
     0
370
     0
100
AcDbMText
 10
0.0197421093
 20
-0.2681143704
 30
0.0
 40
0.125
 41
0.0
 71
     1
 72
     1
  1
CUT OPEN
  7
SLDTEXTSTYLE0
 73
     1
 44
1.0
  0
ENDBLK
  5
51F
330
51D
100
AcDbEntity
  8
0
100
AcDbBlockEnd
  0
BLOCK
  5
526
330
525
100
AcDbEntity
  8
0
100
AcDbBlockBegin
  2
_DOT
 70
     0
 10
0.0
 20
0.0
 30
0.0
  3
_DOT
  1

  0
POLYLINE
  5
528
330
525
100
AcDbEntity
  8
0
  6
ByBlock
 62
     0
100
AcDb2dPolyline
 66
     1
 10
0.0
 20
0.0
 30
0.0
 70
     1
 40
0.5
 41
0.5
  0
VERTEX
  5
52A
330
528
100
AcDbEntity
  8
0
  6
ByBlock
 62
     0
100
AcDbVertex
100
AcDb2dVertex
 10
-0.25
 20
0.0
 30
0.0
 42
1.0
  0
VERTEX
  5
52B
330
528
100
AcDbEntity
  8
0
  6
ByBlock
 62
     0
100
AcDbVertex
100
AcDb2dVertex
 10
0.25
 20
0.0
 30
0.0
 42
1.0
  0
SEQEND
  5
52C
330
528
100
AcDbEntity
  8
0
  6
ByBlock
 62
     0
  0
LINE
  5
529
330
525
100
AcDbEntity
  8
0
  6
ByBlock
 62
     0
370
    -2
100
AcDbLine
 10
-0.5
 20
0.0
 30
0.0
 11
-1.0
 21
0.0
 31
0.0
  0
ENDBLK
  5
527
330
525
100
AcDbEntity
  8
0
100
AcDbBlockEnd
  0
BLOCK
  5
57A
330
579
100
AcDbEntity
  8
0
100
AcDbBlockBegin
  2
*D40
 70
     1
 10
0.0
 20
0.0
 30
0.0
  3
*D40
  1

  0
SOLID
  5
57C
330
579
100
AcDbEntity
  8
0
  6
Continuous
 62
     7
370
     0
100
AcDbTrace
 10
1.6924958335
 20
1.261101371
 30
0.0
 11
1.6724958335
 21
1.131101371
 31
0.0
 12
1.7124958335
 22
1.131101371
 32
0.0
 13
1.7124958335
 23
1.131101371
 33
0.0
  0
SOLID
  5
57D
330
579
100
AcDbEntity
  8
0
  6
Continuous
 62
     7
370
     0
100
AcDbTrace
 10
1.6924958335
 20
1.9894478277
 30
0.0
 11
1.7124958335
 21
2.1194478277
 31
0.0
 12
1.6724958335
 22
2.1194478277
 32
0.0
 13
1.6724958335
 23
2.1194478277
 33
0.0
  0
LINE
  5
57E
330
579
100
AcDbEntity
  8
0
  6
Continuous
 62
     7
370
     0
100
AcDbLine
 10
1.4991256058
 20
1.624319737
 30
0.0
 11
1.4737349795
 21
1.624319737
 31
0.0
  0
LINE
  5
57F
330
579
100
AcDbEntity
  8
0
  6
Continuous
 62
     7
370
     0
100
AcDbLine
 10
1.4737349795
 20
1.624319737
 30
0.0
 11
1.4737349795
 21
1.4258822311
 31
0.0
  0
LINE
  5
580
330
579
100
AcDbEntity
  8
0
  6
Continuous
 62
     7
370
     0
100
AcDbLine
 10
1.4737349795
 20
1.4258822311
 30
0.0
 11
1.4991256058
 21
1.4258822311
 31
0.0
  0
LINE
  5
581
330
579
100
AcDbEntity
  8
0
  6
Continuous
 62
     7
370
     0
100
AcDbLine
 10
1.8858660704
 20
1.624319737
 30
0.0
 11
1.9112566967
 21
1.624319737
 31
0.0
  0
LINE
  5
582
330
579
100
AcDbEntity
  8
0
  6
Continuous
 62
     7
370
     0
100
AcDbLine
 10
1.9112566967
 20
1.624319737
 30
0.0
 11
1.9112566967
 21
1.4258822311
 31
0.0
  0
LINE
  5
583
330
579
100
AcDbEntity
  8
0
  6
Continuous
 62
     7
370
     0
100
AcDbLine
 10
1.9112566967
 20
1.4258822311
 30
0.0
 11
1.8858660704
 21
1.4258822311
 31
0.0
  0
LINE
  5
584
330
579
100
AcDbEntity
  8
0
  6
Continuous
 62
     7
370
     0
100
AcDbLine
 10
3.0527010249
 20
1.261101371
 30
0.0
 11
1.5674958335
 21
1.261101371
 31
0.0
  0
LINE
  5
585
330
579
100
AcDbEntity
  8
0
  6
Continuous
 62
     7
370
     0
100
AcDbLine
 10
2.6038662179
 20
1.9894478277
 30
0.0
 11
1.5674958335
 21
1.9894478277
 31
0.0
  0
LINE
  5
586
330
579
100
AcDbEntity
  8
0
  6
Continuous
 62
     7
370
     0
100
AcDbLine
 10
1.6924958335
 20
1.261101371
 30
0.0
 11
1.6924958335
 21
1.011101371
 31
0.0
  0
LINE
  5
587
330
579
100
AcDbEntity
  8
0
  6
Continuous
 62
     7
370
     0
100
AcDbLine
 10
1.6924958335
 20
1.9894478277
 30
0.0
 11
1.6924958335
 21
2.2394478277
 31
0.0
  0
MTEXT
  5
588
330
579
100
AcDbEntity
  8
0
  6
Continuous
 62
     7
370
     0
100
AcDbMText
 10
1.4553864541
 20
1.8127535623
 30
0.3576051271
 40
0.125
 41
0.0
 71
     1
 72
     1
  1

  7
SLDTEXTSTYLE0
 73
     1
 44
1.0
  0
MTEXT
  5
589
330
579
100
AcDbEntity
  8
0
  6
Continuous
 62
     7
370
     0
100
AcDbMText
 10
1.5262631964
 20
1.8108438308
 30
0.3576051271
 40
0.125
 41
0.0
 71
     1
 72
     1
  1
.73
  7
SLDTEXTSTYLE0
 73
     1
 44
1.0
  0
MTEXT
  5
58A
330
579
100
AcDbEntity
  8
0
  6
Continuous
 62
     7
370
     0
100
AcDbMText
 10
1.5308638886
 20
1.5870156917
 30
0.3576051271
 40
0.125
 41
0.0
 71
     1
 72
     1
  1
18.5
  7
SLDTEXTSTYLE0
 73
     1
 44
1.0
  0
MTEXT
  5
58B
330
579
100
AcDbEntity
  8
0
  6
Continuous
 62
     7
370
     0
100
AcDbMText
 10
1.9771746664
 20
1.8127535623
 30
0.3576051271
 40
0.125
 41
0.0
 71
     1
 72
     1
  1

  7
SLDTEXTSTYLE0
 73
     1
 44
1.0
  0
ENDBLK
  5
57B
330
579
100
AcDbEntity
  8
0
100
AcDbBlockEnd
  0
BLOCK
  5
58E
330
58D
100
AcDbEntity
  8
0
100
AcDbBlockBegin
  2
*D41
 70
     1
 10
0.0
 20
0.0
 30
0.0
  3
*D41
  1

  0
SOLID
  5
590
330
58D
100
AcDbEntity
  8
0
  6
Continuous
 62
     7
370
     0
100
AcDbTrace
 10
6.8856805498
 20
1.0642509773
 30
0.0
 11
6.9056805498
 21
1.1942509773
 31
0.0
 12
6.8656805498
 22
1.1942509773
 32
0.0
 13
6.8656805498
 23
1.1942509773
 33
0.0
  0
SOLID
  5
591
330
58D
100
AcDbEntity
  8
0
  6
Continuous
 62
     7
370
     0
100
AcDbTrace
 10
6.8856805498
 20
1.9894478277
 30
0.0
 11
6.8656805498
 21
1.8594478277
 31
0.0
 12
6.9056805498
 22
1.8594478277
 32
0.0
 13
6.9056805498
 23
1.8594478277
 33
0.0
  0
LINE
  5
592
330
58D
100
AcDbEntity
  8
0
  6
Continuous
 62
     7
370
     0
100
AcDbLine
 10
6.6923103221
 20
1.5258945402
 30
0.0
 11
6.6669196958
 21
1.5258945402
 31
0.0
  0
LINE
  5
593
330
58D
100
AcDbEntity
  8
0
  6
Continuous
 62
     7
370
     0
100
AcDbLine
 10
6.6669196958
 20
1.5258945402
 30
0.0
 11
6.6669196958
 21
1.3274570342
 31
0.0
  0
LINE
  5
594
330
58D
100
AcDbEntity
  8
0
  6
Continuous
 62
     7
370
     0
100
AcDbLine
 10
6.6669196958
 20
1.3274570342
 30
0.0
 11
6.6923103221
 21
1.3274570342
 31
0.0
  0
LINE
  5
595
330
58D
100
AcDbEntity
  8
0
  6
Continuous
 62
     7
370
     0
100
AcDbLine
 10
7.0790507867
 20
1.5258945402
 30
0.0
 11
7.104441413
 21
1.5258945402
 31
0.0
  0
LINE
  5
596
330
58D
100
AcDbEntity
  8
0
  6
Continuous
 62
     7
370
     0
100
AcDbLine
 10
7.104441413
 20
1.5258945402
 30
0.0
 11
7.104441413
 21
1.3274570342
 31
0.0
  0
LINE
  5
597
330
58D
100
AcDbEntity
  8
0
  6
Continuous
 62
     7
370
     0
100
AcDbLine
 10
7.104441413
 20
1.3274570342
 30
0.0
 11
7.0790507867
 21
1.3274570342
 31
0.0
  0
LINE
  5
598
330
58D
100
AcDbEntity
  8
0
  6
Continuous
 62
     7
370
     0
100
AcDbLine
 10
6.0254574458
 20
1.0642509773
 30
0.0
 11
7.0106805498
 21
1.0642509773
 31
0.0
  0
LINE
  5
599
330
58D
100
AcDbEntity
  8
0
  6
Continuous
 62
     7
370
     0
100
AcDbLine
 10
6.0099827078
 20
1.9894478277
 30
0.0
 11
7.0106805498
 21
1.9894478277
 31
0.0
  0
LINE
  5
59A
330
58D
100
AcDbEntity
  8
0
  6
Continuous
 62
     7
370
     0
100
AcDbLine
 10
6.8856805498
 20
1.0642509773
 30
0.0
 11
6.8856805498
 21
1.3020663942
 31
0.0
  0
LINE
  5
59B
330
58D
100
AcDbEntity
  8
0
  6
Continuous
 62
     7
370
     0
100
AcDbLine
 10
6.8856805498
 20
1.9894478277
 30
0.0
 11
6.8856805498
 21
1.7516324108
 31
0.0
  0
MTEXT
  5
59C
330
58D
100
AcDbEntity
  8
0
  6
Continuous
 62
     7
370
     0
100
AcDbMText
 10
6.6485711704
 20
1.7143283654
 30
0.3576051271
 40
0.125
 41
0.0
 71
     1
 72
     1
  1

  7
SLDTEXTSTYLE0
 73
     1
 44
1.0
  0
MTEXT
  5
59D
330
58D
100
AcDbEntity
  8
0
  6
Continuous
 62
     7
370
     0
100
AcDbMText
 10
6.7194479127
 20
1.7124186339
 30
0.3576051271
 40
0.125
 41
0.0
 71
     1
 72
     1
  1
.93
  7
SLDTEXTSTYLE0
 73
     1
 44
1.0
  0
MTEXT
  5
59E
330
58D
100
AcDbEntity
  8
0
  6
Continuous
 62
     7
370
     0
100
AcDbMText
 10
6.7240486049
 20
1.4885904948
 30
0.3576051271
 40
0.125
 41
0.0
 71
     1
 72
     1
  1
23.5
  7
SLDTEXTSTYLE0
 73
     1
 44
1.0
  0
MTEXT
  5
59F
330
58D
100
AcDbEntity
  8
0
  6
Continuous
 62
     7
370
     0
100
AcDbMText
 10
7.1703593827
 20
1.7143283654
 30
0.3576051271
 40
0.125
 41
0.0
 71
     1
 72
     1
  1

  7
SLDTEXTSTYLE0
 73
     1
 44
1.0
  0
ENDBLK
  5
58F
330
58D
100
AcDbEntity
  8
0
100
AcDbBlockEnd
  0
BLOCK
  5
5A2
330
5A1
100
AcDbEntity
  8
0
100
AcDbBlockBegin
  2
*D42
 70
     1
 10
0.0
 20
0.0
 30
0.0
  3
*D42
  1

  0
SOLID
  5
5A4
330
5A1
100
AcDbEntity
  8
0
  6
Continuous
 62
     7
370
     0
100
AcDbTrace
 10
7.3976692116
 20
0.9855108198
 30
0.0
 11
7.4176692116
 21
1.1155108198
 31
0.0
 12
7.3776692116
 22
1.1155108198
 32
0.0
 13
7.3776692116
 23
1.1155108198
 33
0.0
  0
SOLID
  5
5A5
330
5A1
100
AcDbEntity
  8
0
  6
Continuous
 62
     7
370
     0
100
AcDbTrace
 10
7.3976692116
 20
2.0681879852
 30
0.0
 11
7.3776692116
 21
1.9381879852
 31
0.0
 12
7.4176692116
 22
1.9381879852
 32
0.0
 13
7.4176692116
 23
1.9381879852
 33
0.0
  0
LINE
  5
5A6
330
5A1
100
AcDbEntity
  8
0
  6
Continuous
 62
     7
370
     0
100
AcDbLine
 10
7.2042989839
 20
1.5258945402
 30
0.0
 11
7.1789083576
 21
1.5258945402
 31
0.0
  0
LINE
  5
5A7
330
5A1
100
AcDbEntity
  8
0
  6
Continuous
 62
     7
370
     0
100
AcDbLine
 10
7.1789083576
 20
1.5258945402
 30
0.0
 11
7.1789083576
 21
1.3274570342
 31
0.0
  0
LINE
  5
5A8
330
5A1
100
AcDbEntity
  8
0
  6
Continuous
 62
     7
370
     0
100
AcDbLine
 10
7.1789083576
 20
1.3274570342
 30
0.0
 11
7.2042989839
 21
1.3274570342
 31
0.0
  0
LINE
  5
5A9
330
5A1
100
AcDbEntity
  8
0
  6
Continuous
 62
     7
370
     0
100
AcDbLine
 10
7.5910394485
 20
1.5258945402
 30
0.0
 11
7.6164300748
 21
1.5258945402
 31
0.0
  0
LINE
  5
5AA
330
5A1
100
AcDbEntity
  8
0
  6
Continuous
 62
     7
370
     0
100
AcDbLine
 10
7.6164300748
 20
1.5258945402
 30
0.0
 11
7.6164300748
 21
1.3274570342
 31
0.0
  0
LINE
  5
5AB
330
5A1
100
AcDbEntity
  8
0
  6
Continuous
 62
     7
370
     0
100
AcDbLine
 10
7.6164300748
 20
1.3274570342
 30
0.0
 11
7.5910394485
 21
1.3274570342
 31
0.0
  0
LINE
  5
5AC
330
5A1
100
AcDbEntity
  8
0
  6
Continuous
 62
     7
370
     0
100
AcDbLine
 10
6.5419638329
 20
0.9855108198
 30
0.0
 11
7.5226692116
 21
0.9855108198
 31
0.0
  0
LINE
  5
5AD
330
5A1
100
AcDbEntity
  8
0
  6
Continuous
 62
     7
370
     0
100
AcDbLine
 10
6.0551094745
 20
2.0681879852
 30
0.0
 11
7.5226692116
 21
2.0681879852
 31
0.0
  0
LINE
  5
5AE
330
5A1
100
AcDbEntity
  8
0
  6
Continuous
 62
     7
370
     0
100
AcDbLine
 10
7.3976692116
 20
0.9855108198
 30
0.0
 11
7.3976692116
 21
1.3020663942
 31
0.0
  0
LINE
  5
5AF
330
5A1
100
AcDbEntity
  8
0
  6
Continuous
 62
     7
370
     0
100
AcDbLine
 10
7.3976692116
 20
2.0681879852
 30
0.0
 11
7.3976692116
 21
1.7516324108
 31
0.0
  0
MTEXT
  5
5B0
330
5A1
100
AcDbEntity
  8
0
  6
Continuous
 62
     7
370
     0
100
AcDbMText
 10
7.1605598322
 20
1.7143283654
 30
0.3576051271
 40
0.125
 41
0.0
 71
     1
 72
     1
  1

  7
SLDTEXTSTYLE0
 73
     1
 44
1.0
  0
MTEXT
  5
5B1
330
5A1
100
AcDbEntity
  8
0
  6
Continuous
 62
     7
370
     0
100
AcDbMText
 10
7.1852560279
 20
1.7124186339
 30
0.3576051271
 40
0.125
 41
0.0
 71
     1
 72
     1
  1
1.08
  7
SLDTEXTSTYLE0
 73
     1
 44
1.0
  0
MTEXT
  5
5B2
330
5A1
100
AcDbEntity
  8
0
  6
Continuous
 62
     7
370
     0
100
AcDbMText
 10
7.2360372667
 20
1.4885904948
 30
0.3576051271
 40
0.125
 41
0.0
 71
     1
 72
     1
  1
27.5
  7
SLDTEXTSTYLE0
 73
     1
 44
1.0
  0
MTEXT
  5
5B3
330
5A1
100
AcDbEntity
  8
0
  6
Continuous
 62
     7
370
     0
100
AcDbMText
 10
7.6823480445
 20
1.7143283654
 30
0.3576051271
 40
0.125
 41
0.0
 71
     1
 72
     1
  1

  7
SLDTEXTSTYLE0
 73
     1
 44
1.0
  0
ENDBLK
  5
5A3
330
5A1
100
AcDbEntity
  8
0
100
AcDbBlockEnd
  0
ENDSEC
  0
SECTION
  2
ENTITIES
  0
LINE
  5
44
330
1F
100
AcDbEntity
  8
0
  6
Continuous
 62
     7
370
     0
100
AcDbLine
 10
0.3132516046
 20
10.7050731707
 30
0.0
 11
16.6892516046
 21
10.7050731707
 31
0.0
  0
LINE
  5
45
330
1F
100
AcDbEntity
  8
0
  6
Continuous
 62
     7
370
     0
100
AcDbLine
 10
16.6892516046
 20
0.3290731707
 30
0.0
 11
16.6892516046
 21
10.7050731707
 31
0.0
  0
LINE
  5
46
330
1F
100
AcDbEntity
  8
0
  6
Continuous
 62
     7
370
     0
100
AcDbLine
 10
16.6892516046
 20
0.3290731707
 30
0.0
 11
0.3132516046
 21
0.3290731707
 31
0.0
  0
LINE
  5
47
330
1F
100
AcDbEntity
  8
0
  6
Continuous
 62
     7
370
     0
100
AcDbLine
 10
0.3132516046
 20
10.7050731707
 30
0.0
 11
0.3132516046
 21
0.3290731707
 31
0.0
  0
LINE
  5
48
330
1F
100
AcDbEntity
  8
0
  6
Continuous
 62
     7
370
     0
100
AcDbLine
 10
0.2512516046
 20
10.7670731707
 30
0.0
 11
16.7512516046
 21
10.7670731707
 31
0.0
  0
LINE
  5
49
330
1F
100
AcDbEntity
  8
0
  6
Continuous
 62
     7
370
     0
100
AcDbLine
 10
16.7512516046
 20
0.2670731707
 30
0.0
 11
0.2512516046
 21
0.2670731707
 31
0.0
  0
LINE
  5
4A
330
1F
100
AcDbEntity
  8
0
  6
Continuous
 62
     7
370
     0
100
AcDbLine
 10
0.2512516046
 20
10.7670731707
 30
0.0
 11
0.2512516046
 21
0.2670731707
 31
0.0
  0
LINE
  5
4B
330
1F
100
AcDbEntity
  8
0
  6
Continuous
 62
     7
370
     0
100
AcDbLine
 10
16.7512516046
 20
0.2670731707
 30
0.0
 11
16.7512516046
 21
10.7670731707
 31
0.0
  0
LINE
  5
4C
330
1F
100
AcDbEntity
  8
0
  6
Continuous
 62
     7
370
     0
100
AcDbLine
 10
0.3132516046
 20
10.2990731707
 30
0.0
 11
16.6892516046
 21
10.2990731707
 31
0.0
  0
LINE
  5
4D
330
1F
100
AcDbEntity
  8
0
  6
Continuous
 62
     7
370
     0
100
AcDbLine
 10
1.8437192207
 20
10.7050731707
 30
0.0
 11
1.8437192207
 21
10.2990731707
 31
0.0
  0
LINE
  5
4E
330
1F
100
AcDbEntity
  8
0
  6
Continuous
 62
     7
370
     0
100
AcDbLine
 10
1.1108318837
 20
10.7050731707
 30
0.0
 11
1.1108318837
 21
10.2990731707
 31
0.0
  0
LINE
  5
4F
330
1F
100
AcDbEntity
  8
0
  6
Continuous
 62
     7
370
     0
100
AcDbLine
 10
15.4392516046
 20
10.2990731707
 30
0.0
 11
15.4392516046
 21
10.7050731707
 31
0.0
  0
LINE
  5
50
330
1F
100
AcDbEntity
  8
0
  6
Continuous
 62
     7
370
     0
100
AcDbLine
 10
14.6892516046
 20
10.2990731707
 30
0.0
 11
14.6892516046
 21
10.7050731707
 31
0.0
  0
LINE
  5
51
330
1F
100
AcDbEntity
  8
0
  6
Continuous
 62
     7
370
     0
100
AcDbLine
 10
14.6272516046
 20
10.2990731707
 30
0.0
 11
14.6272516046
 21
10.7050731707
 31
0.0
  0
LINE
  5
52
330
1F
100
AcDbEntity
  8
0
  6
Continuous
 62
     7
370
     0
100
AcDbLine
 10
0.4476779172
 20
10.3761601158
 30
0.0
 11
0.4476779172
 21
10.6416948699
 31
0.0
  0
LINE
  5
53
330
1F
100
AcDbEntity
  8
0
  6
Continuous
 62
     7
370
     0
100
AcDbLine
 10
0.6325831443
 20
10.3927560379
 30
0.0
 11
0.6325831443
 21
10.6416948699
 31
0.0
  0
LINE
  5
54
330
1F
100
AcDbEntity
  8
0
  6
Continuous
 62
     7
370
     0
100
AcDbLine
 10
0.7042339198
 20
10.4194839529
 30
0.0
 11
0.7042339198
 21
10.6416948699
 31
0.0
  0
LINE
  5
55
330
1F
100
AcDbEntity
  8
0
  6
Continuous
 62
     7
370
     0
100
AcDbLine
 10
0.6811207664
 20
10.4194839529
 30
0.0
 11
0.6811207664
 21
10.6416948699
 31
0.0
  0
LINE
  5
56
330
1F
100
AcDbEntity
  8
0
  6
Continuous
 62
     7
370
     0
100
AcDbLine
 10
0.8070821215
 20
10.3761601158
 30
0.0
 11
0.8070821215
 21
10.6416948699
 31
0.0
  0
LINE
  5
57
330
1F
100
AcDbEntity
  8
0
  6
Continuous
 62
     7
370
     0
100
AcDbLine
 10
0.752771542
 20
10.3927560379
 30
0.0
 11
0.752771542
 21
10.6416948699
 31
0.0
  0
LINE
  5
58
330
1F
100
AcDbEntity
  8
0
  6
Continuous
 62
     7
370
     0
100
AcDbLine
 10
0.6491790664
 20
10.3761601158
 30
0.0
 11
0.7361756198
 21
10.3761601158
 31
0.0
  0
LINE
  5
59
330
1F
100
AcDbEntity
  8
0
  6
Continuous
 62
     7
370
     0
100
AcDbLine
 10
0.4476779172
 20
10.3761601158
 30
0.0
 11
0.5331965847
 21
10.3761601158
 31
0.0
  0
LINE
  5
5A
330
1F
100
AcDbEntity
  8
0
  6
Continuous
 62
     7
370
     0
100
AcDbLine
 10
0.5331965847
 20
10.502289124
 30
0.0
 11
0.4603901515
 21
10.502289124
 31
0.0
  0
LINE
  5
5B
330
1F
100
AcDbEntity
  8
0
  6
Continuous
 62
     7
370
     0
100
AcDbLine
 10
0.5331965847
 20
10.5155658617
 30
0.0
 11
0.4603901515
 21
10.5155658617
 31
0.0
  0
LINE
  5
5C
330
1F
100
AcDbEntity
  8
0
  6
Continuous
 62
     7
370
     0
100
AcDbLine
 10
0.4603901515
 20
10.5155658617
 30
0.0
 11
0.4603901515
 21
10.5089274929
 31
0.0
  0
LINE
  5
5D
330
1F
100
AcDbEntity
  8
0
  6
Continuous
 62
     7
370
     0
100
AcDbLine
 10
0.4603901515
 20
10.502289124
 30
0.0
 11
0.4603901515
 21
10.5089274929
 31
0.0
  0
LINE
  5
5E
330
1F
100
AcDbEntity
  8
0
  6
Continuous
 62
     7
370
     0
100
AcDbLine
 10
0.8070821215
 20
10.3761601158
 30
0.0
 11
0.8401116436
 21
10.3761601158
 31
0.0
  0
LINE
  5
5F
330
1F
100
AcDbEntity
  8
0
  6
Continuous
 62
     7
370
     0
100
AcDbLine
 10
0.9330488075
 20
10.4690972797
 30
0.0
 11
0.9330488075
 21
10.548757706
 31
0.0
  0
LINE
  5
60
330
1F
100
AcDbEntity
  8
0
  6
Continuous
 62
     7
370
     0
100
AcDbLine
 10
0.8842104297
 20
10.502289124
 30
0.0
 11
0.8842104297
 21
10.5155658617
 31
0.0
  0
LINE
  5
61
330
1F
100
AcDbEntity
  8
0
  6
Continuous
 62
     7
370
     0
100
AcDbLine
 10
0.8429128402
 20
10.502289124
 30
0.0
 11
0.8429128402
 21
10.5155658617
 31
0.0
  0
LINE
  5
62
330
1F
100
AcDbEntity
  8
0
  6
Continuous
 62
     7
370
     0
100
AcDbLine
 10
0.8842104297
 20
10.502289124
 30
0.0
 11
0.8429128402
 21
10.502289124
 31
0.0
  0
LINE
  5
63
330
1F
100
AcDbEntity
  8
0
  6
Continuous
 62
     7
370
     0
100
AcDbLine
 10
0.8842104297
 20
10.5155658617
 30
0.0
 11
0.8429128402
 21
10.5155658617
 31
0.0
  0
LINE
  5
64
330
1F
100
AcDbEntity
  8
0
  6
Continuous
 62
     7
370
     0
100
AcDbLine
 10
0.7042339198
 20
10.6416948699
 30
0.0
 11
0.752771542
 21
10.6416948699
 31
0.0
  0
LINE
  5
65
330
1F
100
AcDbEntity
  8
0
  6
Continuous
 62
     7
370
     0
100
AcDbLine
 10
0.4476779172
 20
10.6416948699
 30
0.0
 11
0.5331965847
 21
10.6416948699
 31
0.0
  0
LINE
  5
66
330
1F
100
AcDbEntity
  8
0
  6
Continuous
 62
     7
370
     0
100
AcDbLine
 10
0.6325831443
 20
10.6416948699
 30
0.0
 11
0.6811207664
 21
10.6416948699
 31
0.0
  0
LINE
  5
67
330
1F
100
AcDbEntity
  8
0
  6
Continuous
 62
     7
370
     0
100
AcDbLine
 10
0.8070821215
 20
10.6416948699
 30
0.0
 11
0.8401116436
 21
10.6416948699
 31
0.0
  0
LINE
  5
68
330
1F
100
AcDbEntity
  8
0
  6
Continuous
 62
     7
370
     0
100
AcDbLine
 10
1.050100026
 20
10.7050731707
 30
0.0
 11
1.050100026
 21
10.2990731707
 31
0.0
  0
LINE
  5
69
330
1F
100
AcDbEntity
  8
0
  6
Continuous
 62
     7
370
     0
100
AcDbLine
 10
8.3831953769
 20
10.2990731707
 30
0.0
 11
8.3831953769
 21
10.7050731707
 31
0.0
  0
LINE
  5
6A
330
1F
100
AcDbEntity
  8
0
  6
Continuous
 62
     7
370
     0
100
AcDbLine
 10
8.4451953769
 20
10.2990731707
 30
0.0
 11
8.4451953769
 21
10.7050731707
 31
0.0
  0
LINE
  5
6B
330
1F
100
AcDbEntity
  8
0
  6
Continuous
 62
     7
370
     0
100
AcDbLine
 10
9.1951953769
 20
10.2990731707
 30
0.0
 11
9.1951953769
 21
10.7050731707
 31
0.0
  0
ARC
  5
6C
330
1F
100
AcDbEntity
  8
0
  6
Continuous
 62
     7
370
     0
100
AcDbCircle
 10
0.5331965847
 20
10.5786303658
 30
0.0
 40
0.0630645040985787
100
AcDbArc
 50
270.0
 51
90.0
  0
ARC
  5
6D
330
1F
100
AcDbEntity
  8
0
  6
Continuous
 62
     7
370
     0
100
AcDbCircle
 10
0.8401116436
 20
10.548757706
 30
0.0
 40
0.0929371639347458
100
AcDbArc
 50
0.0
 51
90.0
  0
ARC
  5
6E
330
1F
100
AcDbEntity
  8
0
  6
Continuous
 62
     7
370
     0
100
AcDbCircle
 10
0.5331965847
 20
10.4392246199
 30
0.0
 40
0.0630645040985787
100
AcDbArc
 50
270.0
 51
90.0
  0
ARC
  5
6F
330
1F
100
AcDbEntity
  8
0
  6
Continuous
 62
     7
370
     0
100
AcDbCircle
 10
0.6491790664
 20
10.3927560379
 30
0.0
 40
0.0165959221312093
100
AcDbArc
 50
180.0
 51
270.0
  0
ARC
  5
70
330
1F
100
AcDbEntity
  8
0
  6
Continuous
 62
     7
370
     0
100
AcDbCircle
 10
0.6909571821
 20
10.4194839529
 30
0.0
 40
0.0132767377049622
100
AcDbArc
 50
277.4442840975
 51
0.0
  0
ARC
  5
71
330
1F
100
AcDbEntity
  8
0
  6
Continuous
 62
     7
370
     0
100
AcDbCircle
 10
0.6943975041
 20
10.4194839529
 30
0.0
 40
0.0132767377049732
100
AcDbArc
 50
180.0
 51
262.5557159021
  0
ARC
  5
72
330
1F
100
AcDbEntity
  8
0
  6
Continuous
 62
     7
370
     0
100
AcDbCircle
 10
0.8401116436
 20
10.4690972797
 30
0.0
 40
0.0929371639347458
100
AcDbArc
 50
270.0
 51
0.0
  0
ARC
  5
73
330
1F
100
AcDbEntity
  8
0
  6
Continuous
 62
     7
370
     0
100
AcDbCircle
 10
0.7361756198
 20
10.3927560379
 30
0.0
 40
0.0165959221312058
100
AcDbArc
 50
270.0
 51
0.0
  0
INSERT
  5
7E
330
1F
100
AcDbEntity
  8
0
  6
Continuous
 62
     7
370
     0
100
AcDbBlockReference
  2
SW_NOTE_0
 10
9.3345973154
 20
2.4867037464
 30
0.0
  0
MTEXT
  5
7F
330
1F
100
AcDbEntity
  8
0
  6
Continuous
 62
     7
370
     0
100
AcDbMText
 10
16.0728733065
 20
10.6093163441
 30
0.0
 40
0.1875
 41
0.0
 71
     2
 72
     1
  1
10-7-14
  7
SLDTEXTSTYLE0
 73
     1
 44
1.0
  0
MTEXT
  5
80
330
1F
100
AcDbEntity
  8
0
  6
Continuous
 62
     7
370
     0
100
AcDbMText
 10
4.9209426068
 20
10.5997758491
 30
0.0
 40
0.1875
 41
0.0
 71
     2
 72
     1
  1
SNAP UTILITY BOX
  7
SLDTEXTSTYLE0
 73
     1
 44
1.0
  0
MTEXT
  5
82
330
1F
100
AcDbEntity
  8
0
  6
Continuous
 62
     7
370
     0
100
AcDbMText
 10
11.8549843773
 20
10.6093163533
 30
0.0
 40
0.1875
 41
0.0
 71
     2
 72
     1
  1
CU-18426-B     CU-18426-W
  7
SLDTEXTSTYLE1
 73
     1
 44
1.0
  0
INSERT
  5
88
330
1F
100
AcDbEntity
  8
0
  6
Continuous
 62
     7
370
     0
100
AcDbBlockReference
  2
SW_NOTE_1
 10
1.2684341246
 20
10.5061382356
 30
0.0
  0
INSERT
  5
8E
330
1F
100
AcDbEntity
  8
0
  6
Continuous
 62
     7
370
     0
100
AcDbBlockReference
  2
SW_NOTE_2
 10
8.643846523
 20
10.4987878535
 30
0.0
  0
INSERT
  5
94
330
1F
100
AcDbEntity
  8
0
  6
Continuous
 62
     7
370
     0
100
AcDbBlockReference
  2
SW_NOTE_3
 10
14.7086386274
 20
10.5033835272
 30
0.0
  0
LINE
  5
95
330
1F
100
AcDbEntity
  8
0
  6
Continuous
 62
     7
370
    15
100
AcDbLine
 10
2.5785779355
 20
6.4493941036
 30
0.0
 11
2.5785779355
 21
8.0871893836
 31
0.0
  0
ARC
  5
96
330
1F
100
AcDbEntity
  8
0
  6
Continuous
 62
     7
370
    15
100
AcDbCircle
 10
2.614011077
 20
6.4493941058
 30
0.0
 40
0.0354330708661417
100
AcDbArc
 50
180.0
 51
270.0
  0
LINE
  5
97
330
1F
100
AcDbEntity
  8
0
  6
Continuous
 62
     7
370
    15
100
AcDbLine
 10
5.9998379062
 20
6.4139610196
 30
0.0
 11
2.6140110195
 21
6.4139610196
 31
0.0
  0
ARC
  5
98
330
1F
100
AcDbEntity
  8
0
  6
Continuous
 62
     7
370
    15
100
AcDbCircle
 10
5.9998378487
 20
6.4493941058
 30
0.0
 40
0.0354330708661426
100
AcDbArc
 50
270.0
 51
0.0
  0
LINE
  5
99
330
1F
100
AcDbEntity
  8
0
  6
Continuous
 62
     7
370
    15
100
AcDbLine
 10
6.0352709902
 20
8.0871893836
 30
0.0
 11
6.0352709902
 21
6.4493941036
 31
0.0
  0
ARC
  5
9A
330
1F
100
AcDbEntity
  8
0
  6
Continuous
 62
     7
370
    15
100
AcDbCircle
 10
5.9998378487
 20
8.0871893814
 30
0.0
 40
0.0354330708661426
100
AcDbArc
 50
0.0
 51
90.0
  0
ARC
  5
9B
330
1F
100
AcDbEntity
  8
0
  6
Continuous
 62
     7
370
    15
100
AcDbCircle
 10
2.614011077
 20
8.0871893814
 30
0.0
 40
0.0354330708661426
100
AcDbArc
 50
90.0
 51
180.0
  0
ARC
  5
9C
330
1F
100
AcDbEntity
  8
0
  6
Continuous
 62
     7
370
    15
100
AcDbCircle
 10
2.614011077
 20
6.4493941058
 30
0.0
 40
0.0590551181102361
100
AcDbArc
 50
180.0
 51
270.0
  0
LINE
  5
9D
330
1F
100
AcDbEntity
  8
0
  6
Continuous
 62
     7
370
    15
100
AcDbLine
 10
2.5549559284
 20
6.4493941036
 30
0.0
 11
2.5549559284
 21
8.0871893836
 31
0.0
  0
ARC
  5
9E
330
1F
100
AcDbEntity
  8
0
  6
Continuous
 62
     7
370
    15
100
AcDbCircle
 10
2.614011077
 20
8.0871893814
 30
0.0
 40
0.0590551181102361
100
AcDbArc
 50
90.0
 51
180.0
  0
LINE
  5
9F
330
1F
100
AcDbEntity
  8
0
  6
Continuous
 62
     7
370
    15
100
AcDbLine
 10
2.6140110195
 20
8.1462444748
 30
0.0
 11
5.9998379062
 21
8.1462444748
 31
0.0
  0
ARC
  5
A0
330
1F
100
AcDbEntity
  8
0
  6
Continuous
 62
     7
370
    15
100
AcDbCircle
 10
5.9998378487
 20
8.0871893814
 30
0.0
 40
0.0590551181102361
100
AcDbArc
 50
0.0
 51
90.0
  0
LINE
  5
A1
330
1F
100
AcDbEntity
  8
0
  6
Continuous
 62
     7
370
    15
100
AcDbLine
 10
6.0588929973
 20
8.0871893836
 30
0.0
 11
6.0588929973
 21
6.4493941036
 31
0.0
  0
ARC
  5
A2
330
1F
100
AcDbEntity
  8
0
  6
Continuous
 62
     7
370
    15
100
AcDbCircle
 10
5.9998378487
 20
6.4493941058
 30
0.0
 40
0.0590551181102361
100
AcDbArc
 50
270.0
 51
0.0
  0
LINE
  5
A3
330
1F
100
AcDbEntity
  8
0
  6
Continuous
 62
     7
370
    15
100
AcDbLine
 10
5.9998379062
 20
6.3903390125
 30
0.0
 11
2.6140110195
 21
6.3903390125
 31
0.0
  0
LINE
  5
A4
330
1F
100
AcDbEntity
  8
0
  6
Continuous
 62
     7
370
    15
100
AcDbLine
 10
2.6140110195
 20
8.1226224676
 30
0.0
 11
5.9998379062
 21
8.1226224676
 31
0.0
  0
LINE
  5
A5
330
1F
100
AcDbEntity
  8
0
  6
Continuous
 62
     7
370
    15
100
AcDbLine
 10
2.6140110195
 20
8.1679928369
 30
0.0
 11
5.9998379062
 21
8.1679928369
 31
0.0
  0
LINE
  5
A6
330
1F
100
AcDbEntity
  8
0
  6
Continuous
 62
     7
370
    15
100
AcDbLine
 10
5.9998379062
 20
8.186562529
 30
0.0
 11
2.6140110195
 21
8.186562529
 31
0.0
  0
LINE
  5
A7
330
1F
100
AcDbEntity
  8
0
  6
Continuous
 62
     7
370
    15
100
AcDbLine
 10
6.0806413594
 20
6.4493941036
 30
0.0
 11
6.0806413594
 21
8.0871893836
 31
0.0
  0
LINE
  5
A8
330
1F
100
AcDbEntity
  8
0
  6
Continuous
 62
     7
370
    15
100
AcDbLine
 10
6.0909577736
 20
8.0871893836
 30
0.0
 11
6.0909577736
 21
6.4493941036
 31
0.0
  0
LINE
  5
A9
330
1F
100
AcDbEntity
  8
0
  6
Continuous
 62
     7
370
    15
100
AcDbLine
 10
5.9998379062
 20
6.3685906504
 30
0.0
 11
2.6140110195
 21
6.3685906504
 31
0.0
  0
LINE
  5
AA
330
1F
100
AcDbEntity
  8
0
  6
Continuous
 62
     7
370
    15
100
AcDbLine
 10
2.6140110195
 20
6.3500209582
 30
0.0
 11
5.9998379062
 21
6.3500209582
 31
0.0
  0
ARC
  5
AB
330
1F
100
AcDbEntity
  8
0
  6
Continuous
 62
     7
370
    15
100
AcDbCircle
 10
5.9998378487
 20
6.4493941058
 30
0.0
 40
0.0993731414500002
100
AcDbArc
 50
270.0
 51
315.0
  0
ARC
  5
AC
330
1F
100
AcDbEntity
  8
0
  6
Continuous
 62
     7
370
    15
100
AcDbCircle
 10
5.9998378487
 20
6.4493941058
 30
0.0
 40
0.0808034558772652
100
AcDbArc
 50
270.0
 51
0.0000000007
  0
ARC
  5
AD
330
1F
100
AcDbEntity
  8
0
  6
Continuous
 62
     7
370
    15
100
AcDbCircle
 10
5.9998378487
 20
6.4493941058
 30
0.0
 40
0.0911199478621357
100
AcDbArc
 50
344.1763762381
 51
0.0000000009
  0
LWPOLYLINE
  5
AE
330
1F
100
AcDbEntity
  8
0
  6
Continuous
 62
     7
370
    15
100
AcDbPolyline
 90
        7
 70
   128
 43
0.0
 10
6.0566321568
 20
6.3755166104
 10
6.056672783
 20
6.3759035126
 10
6.0580438071
 20
6.3773200029
 10
6.0626226876
 20
6.3818487972
 10
6.0735254683
 20
6.3950057452
 10
6.083646818
 20
6.4134704986
 10
6.0875048401
 20
6.4245478106
  0
ARC
  5
AF
330
1F
100
AcDbEntity
  8
0
  6
Continuous
 62
     7
370
    15
100
AcDbCircle
 10
2.614011077
 20
6.4493941058
 30
0.0
 40
0.0808034558772706
100
AcDbArc
 50
179.9999999985
 51
270.0
  0
LINE
  5
B0
330
1F
100
AcDbEntity
  8
0
  6
Continuous
 62
     7
370
    15
100
AcDbLine
 10
2.5332075663
 20
8.0871893836
 30
0.0
 11
2.5332075663
 21
6.4493941036
 31
0.0
  0
ARC
  5
B1
330
1F
100
AcDbEntity
  8
0
  6
Continuous
 62
     7
370
    15
100
AcDbCircle
 10
2.614011077
 20
8.0871893814
 30
0.0
 40
0.0808034558772648
100
AcDbArc
 50
90.0
 51
179.9999999993
  0
ARC
  5
B2
330
1F
100
AcDbEntity
  8
0
  6
Continuous
 62
     7
370
    15
100
AcDbCircle
 10
5.9998378487
 20
8.0871893814
 30
0.0
 40
0.0808034558772697
100
AcDbArc
 50
0.0000000015
 51
90.0
  0
LINE
  5
B3
330
1F
100
AcDbEntity
  8
0
  6
Continuous
 62
     7
370
    15
100
AcDbLine
 10
2.5228911522
 20
6.4493941036
 30
0.0
 11
2.5228911522
 21
8.0871893836
 31
0.0
  0
ARC
  5
B4
330
1F
100
AcDbEntity
  8
0
  6
Continuous
 62
     7
370
    15
100
AcDbCircle
 10
2.614011077
 20
8.0871893814
 30
0.0
 40
0.0993731414500407
100
AcDbArc
 50
90.0
 51
135.0
  0
ARC
  5
B5
330
1F
100
AcDbEntity
  8
0
  6
Continuous
 62
     7
370
    15
100
AcDbCircle
 10
2.614011077
 20
8.0871893814
 30
0.0
 40
0.0911199478621765
100
AcDbArc
 50
164.1763762382
 51
179.9999999991
  0
LWPOLYLINE
  5
B6
330
1F
100
AcDbEntity
  8
0
  6
Continuous
 62
     7
370
    15
100
AcDbPolyline
 90
        7
 70
   128
 43
0.0
 10
2.557216769
 20
8.1610668769
 10
2.5571761428
 20
8.1606799747
 10
2.5558051186
 20
8.1592634844
 10
2.5512262382
 20
8.15473469
 10
2.5403234575
 20
8.141577742
 10
2.5302021077
 20
8.1231129886
 10
2.5263440856
 20
8.1120356766
  0
ARC
  5
B7
330
1F
100
AcDbEntity
  8
0
  6
Continuous
 62
     7
370
    15
100
AcDbCircle
 10
6.0140155556
 20
8.0999980186
 30
0.0
 40
0.074468652114249
100
AcDbArc
 50
9.3025255177
 51
55.0909287631
  0
ARC
  5
B8
330
1F
100
AcDbEntity
  8
0
  6
Continuous
 62
     7
370
    15
100
AcDbCircle
 10
5.9998378487
 20
8.0871893814
 30
0.0
 40
0.0911199478621455
100
AcDbArc
 50
0.0000000002
 51
15.8236237618
  0
ARC
  5
B9
330
1F
100
AcDbEntity
  8
0
  6
Continuous
 62
     7
370
    15
100
AcDbCircle
 10
5.9998378487
 20
8.0871893814
 30
0.0
 40
0.0993731414500417
100
AcDbArc
 50
45.0
 51
90.0
  0
ARC
  5
BA
330
1F
100
AcDbEntity
  8
0
  6
Continuous
 62
     7
370
    15
100
AcDbCircle
 10
2.5998333701
 20
6.4365854687
 30
0.0
 40
0.0744686521142592
100
AcDbArc
 50
189.3025255178
 51
235.0909287631
  0
ARC
  5
BB
330
1F
100
AcDbEntity
  8
0
  6
Continuous
 62
     7
370
    15
100
AcDbCircle
 10
2.614011077
 20
6.4493941058
 30
0.0
 40
0.0911199478621253
100
AcDbArc
 50
179.9999999998
 51
195.8236237619
  0
ARC
  5
BC
330
1F
100
AcDbEntity
  8
0
  6
Continuous
 62
     7
370
    15
100
AcDbCircle
 10
2.614011077
 20
6.4493941058
 30
0.0
 40
0.099373141450017
100
AcDbArc
 50
225.0
 51
270.0
  0
LINE
  5
BD
330
1F
100
AcDbEntity
  8
0
  6
Continuous
 62
     7
370
    15
100
AcDbLine
 10
4.6218851077
 20
8.0762203837
 30
0.0
 11
5.9888688329
 21
8.0762203837
 31
0.0
  0
LINE
  5
BE
330
1F
100
AcDbEntity
  8
0
  6
Continuous
 62
     7
370
    15
100
AcDbLine
 10
4.6218851077
 20
8.1226224676
 30
0.0
 11
4.6218851077
 21
8.0762203837
 31
0.0
  0
LINE
  5
BF
330
1F
100
AcDbEntity
  8
0
  6
Continuous
 62
     7
370
    15
100
AcDbLine
 10
4.6218851077
 20
6.4603631035
 30
0.0
 11
4.6218851077
 21
6.4139610196
 31
0.0
  0
LINE
  5
C0
330
1F
100
AcDbEntity
  8
0
  6
Continuous
 62
     7
370
    15
100
AcDbLine
 10
5.9888688329
 20
6.4603631035
 30
0.0
 11
4.6218851077
 21
6.4603631035
 31
0.0
  0
LINE
  5
C1
330
1F
100
AcDbEntity
  8
0
  6
Continuous
 62
     7
370
    15
100
AcDbLine
 10
5.9888688329
 20
8.0762203837
 30
0.0
 11
5.9888688329
 21
6.4603631035
 31
0.0
  0
LINE
  5
C2
330
1F
100
AcDbEntity
  8
0
  6
Continuous
 62
     7
370
    15
100
AcDbLine
 10
3.991963818
 20
6.4603631035
 30
0.0
 11
2.6249800928
 21
6.4603631035
 31
0.0
  0
LINE
  5
C3
330
1F
100
AcDbEntity
  8
0
  6
Continuous
 62
     7
370
    15
100
AcDbLine
 10
3.991963818
 20
6.4139610196
 30
0.0
 11
3.991963818
 21
6.4603631035
 31
0.0
  0
LINE
  5
C4
330
1F
100
AcDbEntity
  8
0
  6
Continuous
 62
     7
370
    15
100
AcDbLine
 10
2.6249800928
 20
8.0762203837
 30
0.0
 11
3.991963818
 21
8.0762203837
 31
0.0
  0
LINE
  5
C5
330
1F
100
AcDbEntity
  8
0
  6
Continuous
 62
     7
370
    15
100
AcDbLine
 10
2.6249800928
 20
6.4603631035
 30
0.0
 11
2.6249800928
 21
8.0762203837
 31
0.0
  0
LINE
  5
C6
330
1F
100
AcDbEntity
  8
0
  6
Continuous
 62
     7
370
    15
100
AcDbLine
 10
3.991963818
 20
8.0762203837
 30
0.0
 11
3.991963818
 21
8.1226224676
 31
0.0
  0
LINE
  5
C7
330
1F
100
AcDbEntity
  8
0
  6
Continuous
 62
     7
370
    15
100
AcDbLine
 10
5.9754574945
 20
8.062808972
 30
0.0
 11
5.9888688329
 21
8.0762203837
 31
0.0
  0
LINE
  5
C8
330
1F
100
AcDbEntity
  8
0
  6
Continuous
 62
     7
370
    15
100
AcDbLine
 10
2.6383914312
 20
8.062808972
 30
0.0
 11
5.9754574945
 21
8.062808972
 31
0.0
  0
LINE
  5
C9
330
1F
100
AcDbEntity
  8
0
  6
Continuous
 62
     7
370
    15
100
AcDbLine
 10
2.6249800928
 20
8.0762203837
 30
0.0
 11
2.6383914312
 21
8.062808972
 31
0.0
  0
LINE
  5
CA
330
1F
100
AcDbEntity
  8
0
  6
Continuous
 62
     7
370
    15
100
AcDbLine
 10
4.6218851077
 20
8.072093818
 30
0.0
 11
3.991963818
 21
8.072093818
 31
0.0
  0
LINE
  5
CB
330
1F
100
AcDbEntity
  8
0
  6
Continuous
 62
     7
370
    15
100
AcDbLine
 10
4.6218851077
 20
8.0762203837
 30
0.0
 11
4.6218851077
 21
8.072093818
 31
0.0
  0
LINE
  5
CC
330
1F
100
AcDbEntity
  8
0
  6
Continuous
 62
     7
370
    15
100
AcDbLine
 10
3.991963818
 20
8.072093818
 30
0.0
 11
3.991963818
 21
8.0762203837
 31
0.0
  0
LINE
  5
CD
330
1F
100
AcDbEntity
  8
0
  6
Continuous
 62
     7
370
    15
100
AcDbLine
 10
5.9888688329
 20
6.4603631035
 30
0.0
 11
5.9754574945
 21
6.4737745153
 31
0.0
  0
LINE
  5
CE
330
1F
100
AcDbEntity
  8
0
  6
Continuous
 62
     7
370
    15
100
AcDbLine
 10
3.991963818
 20
6.4644896692
 30
0.0
 11
4.6218851077
 21
6.4644896692
 31
0.0
  0
LINE
  5
CF
330
1F
100
AcDbEntity
  8
0
  6
Continuous
 62
     7
370
    15
100
AcDbLine
 10
2.6249800928
 20
6.4603631035
 30
0.0
 11
2.6383914312
 21
6.4737745153
 31
0.0
  0
LINE
  5
D0
330
1F
100
AcDbEntity
  8
0
  6
Continuous
 62
     7
370
    15
100
AcDbLine
 10
5.9754574945
 20
6.4737745153
 30
0.0
 11
2.6383914312
 21
6.4737745153
 31
0.0
  0
LINE
  5
D1
330
1F
100
AcDbEntity
  8
0
  6
Continuous
 62
     7
370
    15
100
AcDbLine
 10
3.991963818
 20
6.4603631035
 30
0.0
 11
3.991963818
 21
6.4644896692
 31
0.0
  0
LINE
  5
D2
330
1F
100
AcDbEntity
  8
0
  6
Continuous
 62
     7
370
    15
100
AcDbLine
 10
4.6218851077
 20
6.4644896692
 30
0.0
 11
4.6218851077
 21
6.4603631035
 31
0.0
  0
LINE
  5
D3
330
1F
100
AcDbEntity
  8
0
  6
Continuous
 62
     7
370
    15
100
AcDbLine
 10
5.9754574945
 20
8.062808972
 30
0.0
 11
5.9754574945
 21
6.4737745153
 31
0.0
  0
LINE
  5
D4
330
1F
100
AcDbEntity
  8
0
  6
Continuous
 62
     7
370
    15
100
AcDbLine
 10
2.6383914312
 20
6.4737745153
 30
0.0
 11
2.6383914312
 21
8.062808972
 31
0.0
  0
CIRCLE
  5
D5
330
1F
100
AcDbEntity
  8
0
  6
Continuous
 62
     7
370
    15
100
AcDbCircle
 10
5.4683417857
 20
7.819472846
 30
0.0
 40
0.1146741998173244
  0
CIRCLE
  5
D6
330
1F
100
AcDbEntity
  8
0
  6
Continuous
 62
     7
370
    15
100
AcDbCircle
 10
5.4683417857
 20
7.819472846
 30
0.0
 40
0.1181102362204802
  0
CIRCLE
  5
D7
330
1F
100
AcDbEntity
  8
0
  6
Continuous
 62
     7
370
    15
100
AcDbCircle
 10
3.14550714
 20
6.7171106413
 30
0.0
 40
0.1146741998172738
  0
CIRCLE
  5
D8
330
1F
100
AcDbEntity
  8
0
  6
Continuous
 62
     7
370
    15
100
AcDbCircle
 10
3.14550714
 20
6.7171106413
 30
0.0
 40
0.1181102362204287
  0
CIRCLE
  5
D9
330
1F
100
AcDbEntity
  8
0
  6
Continuous
 62
     7
370
    15
100
AcDbCircle
 10
3.14550714
 20
7.819472846
 30
0.0
 40
0.1146741998173244
  0
CIRCLE
  5
DA
330
1F
100
AcDbEntity
  8
0
  6
Continuous
 62
     7
370
    15
100
AcDbCircle
 10
3.14550714
 20
7.819472846
 30
0.0
 40
0.0428061151433639
  0
CIRCLE
  5
DB
330
1F
100
AcDbEntity
  8
0
  6
Continuous
 62
     7
370
    15
100
AcDbCircle
 10
3.14550714
 20
6.7171106413
 30
0.0
 40
0.0428061151433825
  0
CIRCLE
  5
DC
330
1F
100
AcDbEntity
  8
0
  6
Continuous
 62
     7
370
    15
100
AcDbCircle
 10
5.4683417857
 20
6.7171106413
 30
0.0
 40
0.1146741998172738
  0
CIRCLE
  5
DD
330
1F
100
AcDbEntity
  8
0
  6
Continuous
 62
     7
370
    15
100
AcDbCircle
 10
5.4683417857
 20
6.7171106413
 30
0.0
 40
0.1181102362204287
  0
CIRCLE
  5
DE
330
1F
100
AcDbEntity
  8
0
  6
Continuous
 62
     7
370
    15
100
AcDbCircle
 10
3.14550714
 20
6.7171106413
 30
0.0
 40
0.0393700787401885
  0
CIRCLE
  5
DF
330
1F
100
AcDbEntity
  8
0
  6
Continuous
 62
     7
370
    15
100
AcDbCircle
 10
3.14550714
 20
7.819472846
 30
0.0
 40
0.1181102362204802
  0
CIRCLE
  5
E0
330
1F
100
AcDbEntity
  8
0
  6
Continuous
 62
     7
370
    15
100
AcDbCircle
 10
5.4683417857
 20
7.819472846
 30
0.0
 40
0.0393700787401698
  0
CIRCLE
  5
E1
330
1F
100
AcDbEntity
  8
0
  6
Continuous
 62
     7
370
    15
100
AcDbCircle
 10
5.4683417857
 20
7.819472846
 30
0.0
 40
0.0428061151433639
  0
CIRCLE
  5
E2
330
1F
100
AcDbEntity
  8
0
  6
Continuous
 62
     7
370
    15
100
AcDbCircle
 10
5.4683417857
 20
6.7171106413
 30
0.0
 40
0.0428061151433825
  0
CIRCLE
  5
E3
330
1F
100
AcDbEntity
  8
0
  6
Continuous
 62
     7
370
    15
100
AcDbCircle
 10
5.4683417857
 20
6.7171106413
 30
0.0
 40
0.0393700787401885
  0
CIRCLE
  5
E4
330
1F
100
AcDbEntity
  8
0
  6
Continuous
 62
     7
370
    15
100
AcDbCircle
 10
3.14550714
 20
7.819472846
 30
0.0
 40
0.0393700787401698
  0
LINE
  5
E5
330
1F
100
AcDbEntity
  8
0
  6
Continuous
 62
     7
370
    15
100
AcDbLine
 10
2.2677867925
 20
8.0835143994
 30
0.0
 11
2.5572122224
 21
8.1610657035
 31
0.0
  0
LINE
  5
E6
330
1F
100
AcDbEntity
  8
0
  6
Continuous
 62
     7
370
    15
100
AcDbLine
 10
6.0566367034
 20
6.3755177837
 30
0.0
 11
6.3460621332
 21
6.4530690878
 31
0.0
  0
LINE
  5
E7
330
1F
100
AcDbEntity
  8
0
  6
Continuous
 62
     7
370
    15
100
AcDbLine
 10
2.5572122224
 20
6.3755177837
 30
0.0
 11
2.2677867925
 21
6.4530690878
 31
0.0
  0
LINE
  5
E8
330
1F
100
AcDbEntity
  8
0
  6
Continuous
 62
     7
370
    15
100
AcDbLine
 10
6.3460621332
 20
8.0835143994
 30
0.0
 11
6.0566367034
 21
8.1610657035
 31
0.0
  0
LINE
  5
E9
330
1F
100
AcDbEntity
  8
0
  6
Continuous
 62
     7
370
    15
100
AcDbLine
 10
2.1218850646
 20
6.6432119379
 30
0.0
 11
2.1218850646
 21
7.8933715493
 31
0.0
  0
CIRCLE
  5
EA
330
1F
100
AcDbEntity
  8
0
  6
Continuous
 62
     7
370
    15
100
AcDbCircle
 10
2.3187354865
 20
7.2682917436
 30
0.0
 40
0.0885826771653537
  0
LINE
  5
EB
330
1F
100
AcDbEntity
  8
0
  6
Continuous
 62
     7
370
    15
100
AcDbLine
 10
6.4919638611
 20
6.6432119379
 30
0.0
 11
6.4919638611
 21
7.8933715493
 31
0.0
  0
CIRCLE
  5
EC
330
1F
100
AcDbEntity
  8
0
  6
Continuous
 62
     7
370
    15
100
AcDbCircle
 10
6.2951134392
 20
7.2682917436
 30
0.0
 40
0.0885826771653537
  0
ARC
  5
ED
330
1F
100
AcDbEntity
  8
0
  6
Continuous
 62
     7
370
    15
100
AcDbCircle
 10
2.3187354865
 20
7.8933715229
 30
0.0
 40
0.1968503937007876
100
AcDbArc
 50
105.0
 51
180.0
  0
ARC
  5
EE
330
1F
100
AcDbEntity
  8
0
  6
Continuous
 62
     7
370
    15
100
AcDbCircle
 10
2.3187354865
 20
6.6432119643
 30
0.0
 40
0.1968503937007875
100
AcDbArc
 50
180.0
 51
255.0
  0
ARC
  5
EF
330
1F
100
AcDbEntity
  8
0
  6
Continuous
 62
     7
370
    15
100
AcDbCircle
 10
6.2951134392
 20
7.8933715229
 30
0.0
 40
0.1968503937007879
100
AcDbArc
 50
0.0
 51
75.0
  0
ARC
  5
F0
330
1F
100
AcDbEntity
  8
0
  6
Continuous
 62
     7
370
    15
100
AcDbCircle
 10
6.2951134392
 20
6.6432119643
 30
0.0
 40
0.1968503937007879
100
AcDbArc
 50
285.0
 51
0.0
  0
DIMENSION
  5
F1
330
1F
100
AcDbEntity
  8
0
  6
Continuous
 62
     7
370
     0
100
AcDbDimension
  2
*D5
 10
2.3464322931
 20
7.3524331579
 30
0.0
 11
1.5013837124
 21
5.956320177
 31
0.0
 70
   163
  1
<>
 71
     1
 42
-1.0
  3
SLDDIMSTYLE0
100
AcDbDiametricDimension
 15
2.2910386798
 25
7.1841503293
 35
0.0
 40
0.0
  0
DIMENSION
  5
102
330
1F
100
AcDbEntity
  8
0
  6
Continuous
 62
     7
370
     0
100
AcDbDimension
  2
*D6
 10
5.4683417857
 20
5.956320177
 30
0.0
 11
4.3069244629
 21
5.956320177
 31
0.0
 70
   160
 71
     2
 42
-1.0
  3
SLDDIMSTYLE1
100
AcDbAlignedDimension
 13
3.14550714
 23
6.7171106413
 33
0.0
 14
5.4683417857
 24
6.7171106413
 34
0.0
100
AcDbRotatedDimension
  0
DIMENSION
  5
117
330
1F
100
AcDbEntity
  8
0
  6
Continuous
 62
     7
370
     0
100
AcDbDimension
  2
*D7
 10
6.2951134392
 20
5.4838792321
 30
0.0
 11
4.3069244629
 21
5.4838792321
 31
0.0
 70
   160
 71
     2
 42
-1.0
  3
SLDDIMSTYLE1
100
AcDbAlignedDimension
 13
2.3187354865
 23
7.0797090664
 33
0.0
 14
6.2951134392
 24
7.0797090664
 34
0.0
100
AcDbRotatedDimension
  0
DIMENSION
  5
12B
330
1F
100
AcDbEntity
  8
0
  6
Continuous
 62
     7
370
     0
100
AcDbDimension
  2
*D8
 10
7.1219010223
 20
7.819472846
 30
0.0
 11
7.1219010223
 21
7.2682917436
 31
0.0
 70
   160
 71
     2
 42
-1.0
  3
SLDDIMSTYLE2
100
AcDbAlignedDimension
 13
5.4683417857
 23
6.7171106413
 33
0.0
 14
5.4683417857
 24
7.819472846
 34
0.0
 50
90.0
100
AcDbRotatedDimension
  0
DIMENSION
  5
140
330
1F
100
AcDbEntity
  8
0
  6
Continuous
 62
     7
370
     0
100
AcDbDimension
  2
*D9
 10
3.2437127518
 20
7.7602627968
 30
0.0
 11
1.3870666666
 21
8.510808894
 31
0.0
 70
   163
  1
<> BOSS
 71
     1
 42
-1.0
  3
SLDDIMSTYLE3
100
AcDbDiametricDimension
 15
3.0473015283
 25
7.8786828951
 35
0.0
 40
0.0
  0
DIMENSION
  5
152
330
1F
100
AcDbEntity
  8
0
  6
Continuous
 62
     7
370
     0
100
AcDbDimension
  2
*D10
 10
3.1711919375
 20
7.7896350465
 30
0.0
 11
1.7130434363
 21
9.0357323163
 31
0.0
 70
   163
  1
<>
 71
     1
 42
-1.0
  3
SLDDIMSTYLE0
100
AcDbDiametricDimension
 15
3.1198223426
 25
7.8493106455
 35
0.0
 40
0.0
  0
DIMENSION
  5
162
330
1F
100
AcDbEntity
  8
0
  6
Continuous
 62
     7
370
     0
100
AcDbDimension
  2
*D11
 10
1.7281683759
 20
6.4603630692
 30
0.0
 11
1.7281683759
 21
7.2682917436
 31
0.0
 70
   160
 71
     2
 42
-1.0
  3
SLDDIMSTYLE1
100
AcDbAlignedDimension
 13
2.6249800404
 23
8.0762204181
 33
0.0
 14
2.6249800404
 24
6.4603630692
 34
0.0
 50
90.0
100
AcDbRotatedDimension
  0
DIMENSION
  5
176
330
1F
100
AcDbEntity
  8
0
  6
Continuous
 62
     7
370
     0
100
AcDbDimension
  2
*D12
 10
1.2866338794
 20
6.3685906499
 30
0.0
 11
1.2866338794
 21
7.2682917436
 31
0.0
 70
   160
 71
     2
 42
-1.0
  3
SLDDIMSTYLE2
100
AcDbAlignedDimension
 13
2.614011077
 23
8.1679928373
 33
0.0
 14
2.614011077
 24
6.3685906499
 34
0.0
 50
90.0
100
AcDbRotatedDimension
  0
DIMENSION
  5
18A
330
1F
100
AcDbEntity
  8
0
  6
Continuous
 62
     7
370
     0
100
AcDbDimension
  2
*D13
 10
0.7832864861
 20
6.3500209644
 30
0.0
 11
0.7832864861
 21
7.2682917436
 31
0.0
 70
   160
 71
     2
 42
-1.0
  3
SLDDIMSTYLE1
100
AcDbAlignedDimension
 13
2.614011077
 23
8.1865625229
 33
0.0
 14
2.614011077
 24
6.3500209644
 34
0.0
 50
90.0
100
AcDbRotatedDimension
  0
DIMENSION
  5
19E
330
1F
100
AcDbEntity
  8
0
  6
Continuous
 62
     7
370
     0
100
AcDbDimension
  2
*D14
 10
5.9888688853
 20
8.510808894
 30
0.0
 11
4.3069244629
 21
8.510808894
 31
0.0
 70
   160
 71
     2
 42
-1.0
  3
SLDDIMSTYLE1
100
AcDbAlignedDimension
 13
2.6249800404
 23
8.0762204181
 33
0.0
 14
5.9888688853
 24
8.0762204181
 34
0.0
100
AcDbRotatedDimension
  0
DIMENSION
  5
1B2
330
1F
100
AcDbEntity
  8
0
  6
Continuous
 62
     7
370
     0
100
AcDbDimension
  2
*D15
 10
6.4919638329
 20
9.4704393226
 30
0.0
 11
4.3069244629
 21
9.4704393226
 31
0.0
 70
   160
 71
     2
 42
-1.0
  3
SLDDIMSTYLE1
100
AcDbAlignedDimension
 13
2.1218850928
 23
7.8933715229
 33
0.0
 14
6.4919638329
 24
7.8933715229
 34
0.0
100
AcDbRotatedDimension
  0
DIMENSION
  5
1C6
330
1F
100
AcDbEntity
  8
0
  6
Continuous
 62
     7
370
     0
100
AcDbDimension
  2
*D16
 10
6.0806413046
 20
8.9726946984
 30
0.0
 11
4.3069244629
 21
8.9726946984
 31
0.0
 70
   160
 71
     2
 42
-1.0
  3
SLDDIMSTYLE1
100
AcDbAlignedDimension
 13
2.5332076212
 23
8.0871893814
 33
0.0
 14
6.0806413046
 24
8.0871893814
 34
0.0
 50
0.0
100
AcDbRotatedDimension
  0
INSERT
  5
1E0
102
{ACAD_REACTORS
330
1E2
102
}
330
1F
100
AcDbEntity
  8
0
  6
Continuous
 62
     7
370
     0
100
AcDbBlockReference
  2
SW_NOTE_4
 10
6.4882629472
 20
5.7815040268
 30
0.0
  0
LEADER
  5
1E2
330
1F
100
AcDbEntity
  8
0
  6
Continuous
 62
     7
370
     0
100
AcDbLeader
  3
SLDDIMSTYLE4
 73
     2
 76
     3
 10
5.5018863123
 20
6.6905187585
 30
0.0
 10
6.2382629472
 20
5.7815040268
 30
0.0
 10
6.4882629472
 20
5.7815040268
 30
0.0
340
1E0
  0
INSERT
  5
1EE
330
1F
100
AcDbEntity
  8
0
  6
Continuous
 62
     7
370
     0
100
AcDbBlockReference
  2
SW_CENTERMARKSYMBOL_0
 10
2.3187354865
 20
7.2682917436
 30
0.0
  0
INSERT
  5
1FA
330
1F
100
AcDbEntity
  8
0
  6
Continuous
 62
     7
370
     0
100
AcDbBlockReference
  2
SW_CENTERMARKSYMBOL_1
 10
6.2951134392
 20
7.2682917436
 30
0.0
  0
INSERT
  5
206
330
1F
100
AcDbEntity
  8
0
  6
Continuous
 62
     7
370
     0
100
AcDbBlockReference
  2
SW_CENTERMARKSYMBOL_2
 10
5.4683417857
 20
7.819472846
 30
0.0
  0
INSERT
  5
212
330
1F
100
AcDbEntity
  8
0
  6
Continuous
 62
     7
370
     0
100
AcDbBlockReference
  2
SW_CENTERMARKSYMBOL_3
 10
3.14550714
 20
7.819472846
 30
0.0
  0
INSERT
  5
21E
330
1F
100
AcDbEntity
  8
0
  6
Continuous
 62
     7
370
     0
100
AcDbBlockReference
  2
SW_CENTERMARKSYMBOL_4
 10
3.14550714
 20
6.7171106413
 30
0.0
  0
INSERT
  5
22A
330
1F
100
AcDbEntity
  8
0
  6
Continuous
 62
     7
370
     0
100
AcDbBlockReference
  2
SW_CENTERMARKSYMBOL_5
 10
5.4683417857
 20
6.7171106413
 30
0.0
  0
LINE
  5
22B
330
1F
100
AcDbEntity
  8
0
  6
PHANTOM
 62
     7
370
    30
100
AcDbLine
 10
1.979072976
 20
7.2727071332
 30
0.0
 11
6.6474278526
 21
7.2727071332
 31
0.0
  0
LINE
  5
22C
330
1F
100
AcDbEntity
  8
0
  6
Continuous
 62
     7
370
    30
100
AcDbLine
 10
1.979072976
 20
7.2727071332
 30
0.0
 11
1.979072976
 21
7.7727071332
 31
0.0
  0
SOLID
  5
22D
330
1F
100
AcDbEntity
  8
0
  6
Continuous
 62
     7
370
    30
100
AcDbTrace
 10
1.979072976
 20
7.7727071332
 30
0.0
 11
1.939072976
 21
7.5227071332
 31
0.0
 12
2.019072976
 22
7.5227071332
 32
0.0
 13
2.019072976
 23
7.5227071332
 33
0.0
  0
LINE
  5
22E
330
1F
100
AcDbEntity
  8
0
  6
Continuous
 62
     7
370
    30
100
AcDbLine
 10
6.6474278526
 20
7.2727071332
 30
0.0
 11
6.6474278526
 21
7.7727071332
 31
0.0
  0
SOLID
  5
22F
330
1F
100
AcDbEntity
  8
0
  6
Continuous
 62
     7
370
    30
100
AcDbTrace
 10
6.6474278526
 20
7.7727071332
 30
0.0
 11
6.6074278526
 21
7.5227071332
 31
0.0
 12
6.6874278526
 22
7.5227071332
 32
0.0
 13
6.6874278526
 23
7.5227071332
 33
0.0
  0
MTEXT
  5
230
330
1F
100
AcDbEntity
  8
0
  6
Continuous
 62
     7
100
AcDbMText
 10
1.9174508283
 20
7.9746420325
 30
0.0
 40
0.125
 41
0.0
 71
     1
 72
     1
  1
A
  7
SLDTEXTSTYLE0
 73
     1
 44
1.0
  0
MTEXT
  5
231
330
1F
100
AcDbEntity
  8
0
  6
Continuous
 62
     7
100
AcDbMText
 10
6.5858057049
 20
7.9746420325
 30
0.0
 40
0.125
 41
0.0
 71
     1
 72
     1
  1
A
  7
SLDTEXTSTYLE0
 73
     1
 44
1.0
  0
ARC
  5
232
330
1F
100
AcDbEntity
  8
0
  6
Continuous
 62
     7
370
    15
100
AcDbCircle
 10
16.1325520649
 20
3.8283300471
 30
0.0
 40
0.0382437351884144
100
AcDbArc
 50
0.9325998041
 51
62.8635576973
  0
LINE
  5
233
330
1F
100
AcDbEntity
  8
0
  6
Continuous
 62
     7
370
    15
100
AcDbLine
 10
16.2053988035
 20
3.2975665223
 30
0.0
 11
16.1712698641
 21
3.8289484394
 31
0.0
  0
LINE
  5
234
330
1F
100
AcDbEntity
  8
0
  6
Continuous
 62
     7
370
    15
100
AcDbLine
 10
16.1501238443
 20
3.8625606538
 30
0.0
 11
13.7559826929
 21
5.2446689216
 31
0.0
  0
LINE
  5
235
330
1F
100
AcDbEntity
  8
0
  6
Continuous
 62
     7
370
    15
100
AcDbLine
 10
13.708288106
 20
3.336671984
 30
0.0
 11
13.7068980585
 21
3.3359535968
 31
0.0
  0
LINE
  5
236
330
1F
100
AcDbEntity
  8
0
  6
Continuous
 62
     7
370
    15
100
AcDbLine
 10
13.7249725515
 20
3.3009777387
 30
0.0
 11
13.7263625989
 21
3.3016960062
 31
0.0
  0
LINE
  5
237
330
1F
100
AcDbEntity
  8
0
  6
Continuous
 62
     7
370
    15
100
AcDbLine
 10
16.1582088523
 20
3.2476613889
 30
0.0
 11
16.1582088523
 21
3.2497805055
 31
0.0
  0
ARC
  5
238
330
1F
100
AcDbEntity
  8
0
  6
Continuous
 62
     7
370
    15
100
AcDbCircle
 10
12.5696751746
 20
4.5407622259
 30
0.0
 40
0.0396699697922535
100
AcDbArc
 50
117.7085705776
 51
177.4755537808
  0
LINE
  5
239
330
1F
100
AcDbEntity
  8
0
  6
Continuous
 62
     7
370
    15
100
AcDbLine
 10
12.5299184248
 20
4.5425019712
 30
0.0
 11
12.4957894334
 21
4.011120084
 31
0.0
  0
LINE
  5
23A
330
1F
100
AcDbEntity
  8
0
  6
Continuous
 62
     7
370
    15
100
AcDbLine
 10
13.709160645
 20
5.2446688916
 30
0.0
 11
12.5510644963
 21
4.5761142156
 31
0.0
  0
LINE
  5
23B
330
1F
100
AcDbEntity
  8
0
  6
Continuous
 62
     7
370
    15
100
AcDbLine
 10
12.5429794365
 20
3.9633340972
 30
0.0
 11
12.5429794365
 21
3.9612149805
 31
0.0
  0
ARC
  5
23C
330
1F
100
AcDbEntity
  8
0
  6
Continuous
 62
     7
370
    15
100
AcDbCircle
 10
13.7308923154
 20
5.2114942425
 30
0.0
 40
0.0393754238665617
100
AcDbArc
 50
87.555643295
 51
123.2344848662
  0
ARC
  5
23D
330
1F
100
AcDbEntity
  8
0
  6
Continuous
 62
     7
370
    15
100
AcDbCircle
 10
13.734087929
 20
5.2105970777
 30
0.0
 40
0.0402653212335492
100
AcDbArc
 50
57.2869454173
 51
92.1581183983
  0
LINE
  5
23E
330
1F
100
AcDbEntity
  8
0
  6
Continuous
 62
     7
370
    15
100
AcDbLine
 10
14.900197553
 20
1.0808774848
 30
0.0
 11
14.8967618174
 21
1.2415893824
 31
0.0
  0
LINE
  5
23F
330
1F
100
AcDbEntity
  8
0
  6
Continuous
 62
     7
370
    15
100
AcDbLine
 10
14.6674308484
 20
1.2415894124
 30
0.0
 11
14.6656215622
 21
1.1569598903
 31
0.0
  0
ARC
  5
240
330
1F
100
AcDbEntity
  8
0
  6
Continuous
 62
     7
370
    15
100
AcDbCircle
 10
16.2978582811
 20
1.2554307665
 30
0.0
 40
0.0971142833338098
100
AcDbArc
 50
359.6158204465
 51
48.348398709
  0
LINE
  5
241
330
1F
100
AcDbEntity
  8
0
  6
Continuous
 62
     7
370
    15
100
AcDbLine
 10
16.3953045797
 20
1.1584044401
 30
0.0
 11
16.3953045797
 21
1.2548462691
 31
0.0
  0
LINE
  5
242
330
1F
100
AcDbEntity
  8
0
  6
Continuous
 62
     7
370
    15
100
AcDbLine
 10
16.36267344
 20
1.3281423502
 30
0.0
 11
16.2188028288
 21
1.4719974091
 31
0.0
  0
LINE
  5
243
330
1F
100
AcDbEntity
  8
0
  6
Continuous
 62
     7
370
    15
100
AcDbLine
 10
16.185767851
 20
1.6473798667
 30
0.0
 11
16.185767851
 21
1.679527148
 31
0.0
  0
LINE
  5
244
330
1F
100
AcDbEntity
  8
0
  6
Continuous
 62
     7
370
    15
100
AcDbLine
 10
16.2188892174
 20
1.4711689844
 30
0.0
 11
16.2074606701
 21
1.6491082017
 31
0.0
  0
LINE
  5
245
330
1F
100
AcDbEntity
  8
0
  6
Continuous
 62
     7
370
    15
100
AcDbLine
 10
15.6796853674
 20
1.5308662217
 30
0.0
 11
15.6762495799
 21
1.6915780895
 31
0.0
  0
LINE
  5
246
330
1F
100
AcDbEntity
  8
0
  6
Continuous
 62
     7
370
    15
100
AcDbLine
 10
15.4469186109
 20
1.6915781194
 30
0.0
 11
15.4434828493
 21
1.5308662068
 31
0.0
  0
LINE
  5
247
330
1F
100
AcDbEntity
  8
0
  6
Continuous
 62
     7
370
    15
100
AcDbLine
 10
13.2577054135
 20
2.0290680141
 30
0.0
 11
13.254269678
 21
2.1897799118
 31
0.0
  0
LINE
  5
248
330
1F
100
AcDbEntity
  8
0
  6
Continuous
 62
     7
370
    15
100
AcDbLine
 10
13.0249387607
 20
2.1897799118
 30
0.0
 11
13.0231294227
 21
2.1051504196
 31
0.0
  0
LINE
  5
249
330
1F
100
AcDbEntity
  8
0
  6
Continuous
 62
     7
370
    15
100
AcDbLine
 10
12.4937275669
 20
2.3626617036
 30
0.0
 11
12.4825989943
 21
2.1893914975
 31
0.0
  0
LINE
  5
24A
330
1F
100
AcDbEntity
  8
0
  6
Continuous
 62
     7
370
    15
100
AcDbLine
 10
12.5154204378
 20
2.3930806199
 30
0.0
 11
12.5154204378
 21
2.3609333386
 31
0.0
  0
ARC
  5
24B
330
1F
100
AcDbEntity
  8
0
  6
Continuous
 62
     7
370
    15
100
AcDbCircle
 10
12.4214021684
 20
2.3618017113
 30
0.0
 40
0.1153385905899728
100
AcDbArc
 50
115.4418665845
 51
177.0356902011
  0
LINE
  5
24C
330
1F
100
AcDbEntity
  8
0
  6
Continuous
 62
     7
370
    15
100
AcDbLine
 10
12.3058837092
 20
2.36769965
 30
0.0
 11
12.3058837092
 21
2.271257821
 31
0.0
  0
LINE
  5
24D
330
1F
100
AcDbEntity
  8
0
  6
Continuous
 62
     7
370
    15
100
AcDbLine
 10
14.0371932279
 20
2.479056751
 30
0.0
 11
14.0337574404
 21
2.6397686188
 31
0.0
  0
LINE
  5
24E
330
1F
100
AcDbEntity
  8
0
  6
Continuous
 62
     7
370
    15
100
AcDbLine
 10
13.8044265232
 20
2.6397686188
 30
0.0
 11
13.8009907617
 21
2.4790567061
 31
0.0
  0
LINE
  5
24F
330
1F
100
AcDbEntity
  8
0
  6
Continuous
 62
     7
370
    15
100
AcDbLine
 10
13.2556916156
 20
2.9764003612
 30
0.0
 11
12.3716952768
 21
2.4660801373
 31
0.0
  0
LINE
  5
250
330
1F
100
AcDbEntity
  8
0
  6
Continuous
 62
     7
370
    15
100
AcDbLine
 10
13.5122498221
 20
2.9826593315
 30
0.0
 11
13.4779192228
 21
2.9941016598
 31
0.0
  0
ARC
  5
251
330
1F
100
AcDbEntity
  8
0
  6
Continuous
 62
     7
370
    15
100
AcDbCircle
 10
13.3802518319
 20
2.7513304064
 30
0.0
 40
0.2570526421254092
100
AcDbArc
 50
88.5558038165
 51
118.9441207001
  0
ARC
  5
252
330
1F
100
AcDbEntity
  8
0
  6
Continuous
 62
     7
370
    15
100
AcDbCircle
 10
13.3879802031
 20
2.7165299997
 30
0.0
 40
0.291774071780065
100
AcDbArc
 50
72.0508091309
 51
90.245423227
  0
ARC
  5
253
330
1F
100
AcDbEntity
  8
0
  6
Continuous
 62
     7
370
    15
100
AcDbCircle
 10
14.9686166458
 20
3.2020888065
 30
0.0
 40
0.0685326197270573
100
AcDbArc
 50
242.609779762
 51
297.390220238
  0
LINE
  5
254
330
1F
100
AcDbEntity
  8
0
  6
Continuous
 62
     7
370
    15
100
AcDbLine
 10
15.0001449567
 20
3.1412391099
 30
0.0
 11
15.0242943542
 21
2.5951855479
 31
0.0
  0
ARC
  5
255
330
1F
100
AcDbEntity
  8
0
  6
Continuous
 62
     7
370
    15
100
AcDbCircle
 10
14.9686166458
 20
2.7026433652
 30
0.0
 40
0.1210255746097052
100
AcDbArc
 50
242.6097231826
 51
297.3902768174
  0
LINE
  5
256
330
1F
100
AcDbEntity
  8
0
  6
Continuous
 62
     7
370
    15
100
AcDbLine
 10
14.9129389373
 20
2.5951855479
 30
0.0
 11
14.9370883349
 21
3.1412391099
 31
0.0
  0
ARC
  5
257
330
1F
100
AcDbEntity
  8
0
  6
Continuous
 62
     7
370
    15
100
AcDbCircle
 10
14.9978401579
 20
3.1364936908
 30
0.0
 40
0.0609368772667528
100
AcDbArc
 50
122.7341692754
 51
175.5336068601
  0
ARC
  5
258
330
1F
100
AcDbEntity
  8
0
  6
Continuous
 62
     7
370
    15
100
AcDbCircle
 10
14.9686165912
 20
3.1948920045
 30
0.0
 40
0.0080535009628947
100
AcDbArc
 50
242.4288042726
 51
297.5716558436
  0
ARC
  5
259
330
1F
100
AcDbEntity
  8
0
  6
Continuous
 62
     7
370
    15
100
AcDbCircle
 10
14.9393931494
 20
3.1364936966
 30
0.0
 40
0.0609368610501691
100
AcDbArc
 50
4.4663889457
 51
57.2658965662
  0
LINE
  5
25A
330
1F
100
AcDbEntity
  8
0
  6
Continuous
 62
     7
370
    15
100
AcDbLine
 10
12.5429471834
 20
4.5233473777
 30
0.0
 11
14.9370883349
 21
3.1412391099
 31
0.0
  0
ARC
  5
25B
330
1F
100
AcDbEntity
  8
0
  6
Continuous
 62
     7
370
    15
100
AcDbCircle
 10
12.6036990065
 20
4.5186019586
 30
0.0
 40
0.060936877266757
100
AcDbArc
 50
122.7341692754
 51
175.5336068601
  0
LINE
  5
25C
330
1F
100
AcDbEntity
  8
0
  6
Continuous
 62
     7
370
    15
100
AcDbLine
 10
12.5707478731
 20
4.569861356
 30
0.0
 11
14.9648890246
 21
3.1877530882
 31
0.0
  0
LINE
  5
25D
330
1F
100
AcDbEntity
  8
0
  6
Continuous
 62
     7
370
    15
100
AcDbLine
 10
15.0001449567
 20
3.1412391099
 30
0.0
 11
16.1582411054
 21
3.809793786
 31
0.0
  0
LINE
  5
25E
330
1F
100
AcDbEntity
  8
0
  6
Continuous
 62
     7
370
    15
100
AcDbLine
 10
14.9723442151
 20
3.1877531182
 30
0.0
 11
16.1304403638
 21
3.8563077943
 31
0.0
  0
ARC
  5
25F
330
1F
100
AcDbEntity
  8
0
  6
Continuous
 62
     7
370
    15
100
AcDbCircle
 10
16.0974892982
 20
3.8050483726
 30
0.0
 40
0.0609368610501694
100
AcDbArc
 50
4.4663889457
 51
57.2658965662
  0
LINE
  5
260
330
1F
100
AcDbEntity
  8
0
  6
Continuous
 62
     7
370
    15
100
AcDbLine
 10
15.1857596931
 20
2.688397504
 30
0.0
 11
15.1812942428
 21
2.7893671562
 31
0.0
  0
LINE
  5
261
330
1F
100
AcDbEntity
  8
0
  6
Continuous
 62
     7
370
    15
100
AcDbLine
 10
15.0242943542
 20
2.5951855479
 30
0.0
 11
15.1857596931
 21
2.688397504
 31
0.0
  0
LINE
  5
262
330
1F
100
AcDbEntity
  8
0
  6
Continuous
 62
     7
370
    15
100
AcDbLine
 10
16.1823905029
 20
3.263740224
 30
0.0
 11
16.1582411054
 21
3.809793786
 31
0.0
  0
LINE
  5
263
330
1F
100
AcDbEntity
  8
0
  6
Continuous
 62
     7
370
    15
100
AcDbLine
 10
16.020925164
 20
3.1705282679
 30
0.0
 11
16.1823905029
 21
3.263740224
 31
0.0
  0
LINE
  5
264
330
1F
100
AcDbEntity
  8
0
  6
Continuous
 62
     7
370
    15
100
AcDbLine
 10
16.0164597137
 20
3.2714979201
 30
0.0
 11
16.020925164
 21
3.1705282679
 31
0.0
  0
LINE
  5
265
330
1F
100
AcDbEntity
  8
0
  6
Continuous
 62
     7
370
    15
100
AcDbLine
 10
15.8494266144
 20
3.1750717643
 30
0.0
 11
16.0164597137
 21
3.2714979201
 31
0.0
  0
LINE
  5
266
330
1F
100
AcDbEntity
  8
0
  6
Continuous
 62
     7
370
    15
100
AcDbLine
 10
15.8538920647
 20
3.0741021122
 30
0.0
 11
15.8494266144
 21
3.1750717643
 31
0.0
  0
LINE
  5
267
330
1F
100
AcDbEntity
  8
0
  6
Continuous
 62
     7
370
    15
100
AcDbLine
 10
15.3527927925
 20
2.7848236598
 30
0.0
 11
15.8538920647
 21
3.0741021122
 31
0.0
  0
LINE
  5
268
330
1F
100
AcDbEntity
  8
0
  6
Continuous
 62
     7
370
    15
100
AcDbLine
 10
15.3483273422
 20
2.885793312
 30
0.0
 11
15.3527927925
 21
2.7848236598
 31
0.0
  0
LINE
  5
269
330
1F
100
AcDbEntity
  8
0
  6
Continuous
 62
     7
370
    15
100
AcDbLine
 10
15.1812942428
 20
2.7893671562
 30
0.0
 11
15.3483273422
 21
2.885793312
 31
0.0
  0
LINE
  5
26A
330
1F
100
AcDbEntity
  8
0
  6
Continuous
 62
     7
370
    15
100
AcDbLine
 10
12.5187977859
 20
3.9772938157
 30
0.0
 11
14.9129389373
 21
2.5951855479
 31
0.0
  0
LINE
  5
26B
330
1F
100
AcDbEntity
  8
0
  6
Continuous
 62
     7
370
    15
100
AcDbLine
 10
12.5429471834
 20
4.5233473777
 30
0.0
 11
12.5187977859
 21
3.9772938157
 31
0.0
  0
LWPOLYLINE
  5
26C
330
1F
100
AcDbEntity
  8
0
  6
Continuous
 62
     7
370
    15
100
AcDbPolyline
 90
        8
 70
   128
 43
0.0
 10
13.7180538479
 20
3.3356561218
 10
13.7233250976
 20
3.3313272636
 10
13.7276829888
 20
3.3251496379
 10
13.7304639911
 20
3.3180637614
 10
13.7312447779
 20
3.3111485417
 10
13.729906458
 20
3.3054565366
 10
13.7266527555
 20
3.301854421
 10
13.7263625989
 20
3.3016960062
  0
LWPOLYLINE
  5
26D
330
1F
100
AcDbEntity
  8
0
  6
Continuous
 62
     7
370
    15
100
AcDbPolyline
 90
        3
 70
   128
 43
0.0
 10
13.708288106
 20
3.336671984
 10
13.7126716308
 20
3.3374773791
 10
13.7180538479
 20
3.3356561218
  0
LINE
  5
26E
330
1F
100
AcDbEntity
  8
0
  6
Continuous
 62
     7
370
    15
100
AcDbLine
 10
13.7288440737
 20
5.2427198219
 30
0.0
 11
12.570747925
 21
4.5741651459
 31
0.0
  0
ARC
  5
26F
330
1F
100
AcDbEntity
  8
0
  6
Continuous
 62
     7
370
    15
100
AcDbCircle
 10
13.7325716976
 20
5.2355809356
 30
0.0
 40
0.008053500962884
100
AcDbArc
 50
62.4288042726
 51
117.5716558437
  0
LINE
  5
270
330
1F
100
AcDbEntity
  8
0
  6
Continuous
 62
     7
370
    15
100
AcDbLine
 10
16.1304404157
 20
3.8606115841
 30
0.0
 11
13.7362992642
 21
5.2427198519
 31
0.0
  0
LWPOLYLINE
  5
271
330
1F
100
AcDbEntity
  8
0
  6
Continuous
 62
     7
370
    15
100
AcDbPolyline
 90
        5
 70
   128
 43
0.0
 10
16.1304404157
 20
3.8606115841
 10
16.1316034986
 20
3.8596176949
 10
16.1319843137
 20
3.8584597042
 10
16.1315932834
 20
3.8572956965
 10
16.1304403638
 20
3.8563077943
  0
LWPOLYLINE
  5
272
330
1F
100
AcDbEntity
  8
0
  6
Continuous
 62
     7
370
    15
100
AcDbPolyline
 90
        5
 70
   128
 43
0.0
 10
12.5707478731
 20
4.569861356
 10
12.5695847902
 20
4.5708552452
 10
12.5692039752
 20
4.572013236
 10
12.5695950054
 20
4.5731772436
 10
12.570747925
 20
4.5741651459
  0
ARC
  5
273
330
1F
100
AcDbEntity
  8
0
  6
Continuous
 62
     7
370
    15
100
AcDbCircle
 10
14.968616591
 20
2.6092331508
 30
0.0
 40
0.0484103335980482
100
AcDbArc
 50
242.6098460502
 51
297.3902309612
  0
LINE
  5
274
330
1F
100
AcDbEntity
  8
0
  6
Continuous
 62
     7
370
    15
100
AcDbLine
 10
15.1523530266
 20
2.6594618701
 30
0.0
 11
14.9908876877
 21
2.566249914
 31
0.0
  0
LINE
  5
275
330
1F
100
AcDbEntity
  8
0
  6
Continuous
 62
     7
370
    15
100
AcDbLine
 10
15.1523530266
 20
2.6594618701
 30
0.0
 11
15.1523530266
 21
2.6691123238
 31
0.0
  0
LINE
  5
276
330
1F
100
AcDbEntity
  8
0
  6
Continuous
 62
     7
370
    15
100
AcDbLine
 10
14.946345552
 20
2.566249884
 30
0.0
 11
13.9719857841
 21
3.1287358052
 31
0.0
  0
LINE
  5
277
330
1F
100
AcDbEntity
  8
0
  6
Continuous
 62
     7
370
    15
100
AcDbLine
 10
13.9719857841
 20
3.138386259
 30
0.0
 11
13.9719857841
 21
3.1287358052
 31
0.0
  0
LINE
  5
278
330
1F
100
AcDbEntity
  8
0
  6
Continuous
 62
     7
370
    15
100
AcDbLine
 10
15.2993110966
 20
2.7674770936
 30
0.0
 11
15.2954291064
 21
2.8552558231
 31
0.0
  0
LINE
  5
279
330
1F
100
AcDbEntity
  8
0
  6
Continuous
 62
     7
370
    15
100
AcDbLine
 10
15.2993110966
 20
2.7674770936
 30
0.0
 11
15.1851762071
 21
2.7015884243
 31
0.0
  0
LINE
  5
27A
330
1F
100
AcDbEntity
  8
0
  6
Continuous
 62
     7
370
    15
100
AcDbLine
 10
15.3527927925
 20
2.7848236598
 30
0.0
 11
15.3193861259
 21
2.8041089179
 31
0.0
  0
LINE
  5
27B
330
1F
100
AcDbEntity
  8
0
  6
Continuous
 62
     7
370
    15
100
AcDbLine
 10
15.3193861259
 20
2.7558880258
 30
0.0
 11
15.3193861259
 21
2.8041089179
 31
0.0
  0
LINE
  5
27C
330
1F
100
AcDbEntity
  8
0
  6
Continuous
 62
     7
370
    15
100
AcDbLine
 10
15.2993110966
 20
2.7674770936
 30
0.0
 11
15.3193861259
 21
2.7558880258
 31
0.0
  0
LINE
  5
27D
330
1F
100
AcDbEntity
  8
0
  6
Continuous
 62
     7
370
    15
100
AcDbLine
 10
15.8204853981
 20
3.0548169319
 30
0.0
 11
15.8204853981
 21
3.0451664782
 31
0.0
  0
LINE
  5
27E
330
1F
100
AcDbEntity
  8
0
  6
Continuous
 62
     7
370
    15
100
AcDbLine
 10
15.8204853981
 20
3.0451664782
 30
0.0
 11
15.3193861259
 21
2.7558880258
 31
0.0
  0
ARC
  5
27F
330
1F
100
AcDbEntity
  8
0
  6
Continuous
 62
     7
370
    15
100
AcDbCircle
 10
16.1681947289
 20
3.2981341977
 30
0.0
 40
0.0372084053238963
100
AcDbArc
 50
292.4279055055
 51
359.1258247515
  0
LINE
  5
280
330
1F
100
AcDbEntity
  8
0
  6
Continuous
 62
     7
370
    15
100
AcDbLine
 10
15.963561478
 20
3.2409604313
 30
0.0
 11
15.9674434682
 21
3.1531817017
 31
0.0
  0
LINE
  5
281
330
1F
100
AcDbEntity
  8
0
  6
Continuous
 62
     7
370
    15
100
AcDbLine
 10
15.9674434682
 20
3.1531817017
 30
0.0
 11
15.8533086046
 21
3.0872930474
 31
0.0
  0
LINE
  5
282
330
1F
100
AcDbEntity
  8
0
  6
Continuous
 62
     7
370
    15
100
AcDbLine
 10
15.9875184975
 20
3.189813526
 30
0.0
 11
16.020925164
 21
3.1705282679
 31
0.0
  0
LINE
  5
283
330
1F
100
AcDbEntity
  8
0
  6
Continuous
 62
     7
370
    15
100
AcDbLine
 10
15.9875184975
 20
3.141592634
 30
0.0
 11
15.9875184975
 21
3.189813526
 31
0.0
  0
LINE
  5
284
330
1F
100
AcDbEntity
  8
0
  6
Continuous
 62
     7
370
    15
100
AcDbLine
 10
15.9674434682
 20
3.1531817017
 30
0.0
 11
15.9875184975
 21
3.141592634
 31
0.0
  0
LINE
  5
285
330
1F
100
AcDbEntity
  8
0
  6
Continuous
 62
     7
370
    15
100
AcDbLine
 10
13.9306571383
 20
3.1354119517
 30
0.0
 11
13.9441469299
 21
3.1431994427
 31
0.0
  0
LINE
  5
286
330
1F
100
AcDbEntity
  8
0
  6
Continuous
 62
     7
370
    15
100
AcDbLine
 10
13.9441469299
 20
3.1431994427
 30
0.0
 11
13.9441469299
 21
3.1544572874
 31
0.0
  0
LINE
  5
287
330
1F
100
AcDbEntity
  8
0
  6
Continuous
 62
     7
370
    15
100
AcDbLine
 10
13.9422561812
 20
3.0987090979
 30
0.0
 11
13.9677547653
 21
3.1134291172
 31
0.0
  0
LINE
  5
288
330
1F
100
AcDbEntity
  8
0
  6
Continuous
 62
     7
370
    15
100
AcDbLine
 10
13.9306571383
 20
3.1354119517
 30
0.0
 11
13.9422561812
 21
3.0987090979
 31
0.0
  0
LINE
  5
289
330
1F
100
AcDbEntity
  8
0
  6
Continuous
 62
     7
370
    15
100
AcDbLine
 10
13.9689363601
 20
3.1401466125
 30
0.0
 11
13.9677547653
 21
3.1134291172
 31
0.0
  0
LINE
  5
28A
330
1F
100
AcDbEntity
  8
0
  6
Continuous
 62
     7
370
    15
100
AcDbLine
 10
16.1489838364
 20
3.2348045901
 30
0.0
 11
15.9875184975
 21
3.141592634
 31
0.0
  0
LINE
  5
28B
330
1F
100
AcDbEntity
  8
0
  6
Continuous
 62
     7
370
    15
100
AcDbLine
 10
13.9441469299
 20
3.1431994427
 30
0.0
 11
13.5544030227
 21
3.3681938111
 31
0.0
  0
LINE
  5
28C
330
1F
100
AcDbEntity
  8
0
  6
Continuous
 62
     7
370
    15
100
AcDbLine
 10
13.5544030227
 20
3.3794516559
 30
0.0
 11
13.5544030227
 21
3.3681938111
 31
0.0
  0
LINE
  5
28D
330
1F
100
AcDbEntity
  8
0
  6
Continuous
 62
     7
370
    15
100
AcDbLine
 10
13.9422561812
 20
3.0987090979
 30
0.0
 11
13.552512274
 21
3.3237034664
 31
0.0
  0
LINE
  5
28E
330
1F
100
AcDbEntity
  8
0
  6
Continuous
 62
     7
370
    15
100
AcDbLine
 10
13.552512274
 20
3.3237034664
 30
0.0
 11
13.5409132311
 21
3.3604063202
 31
0.0
  0
LINE
  5
28F
330
1F
100
AcDbEntity
  8
0
  6
Continuous
 62
     7
370
    15
100
AcDbLine
 10
13.5409132311
 20
3.3604063202
 30
0.0
 11
13.9306571383
 21
3.1354119517
 31
0.0
  0
LINE
  5
290
330
1F
100
AcDbEntity
  8
0
  6
Continuous
 62
     7
370
    15
100
AcDbLine
 10
13.5544030227
 20
3.3681938111
 30
0.0
 11
13.5409132311
 21
3.3604063202
 31
0.0
  0
LWPOLYLINE
  5
291
330
1F
100
AcDbEntity
  8
0
  6
Continuous
 62
     7
370
    15
100
AcDbPolyline
 90
       17
 70
   128
 43
0.0
 10
13.7166638004
 20
3.3349378544
 10
13.721935102
 20
3.3306089063
 10
13.7262929413
 20
3.3244312507
 10
13.7290739437
 20
3.3173454939
 10
13.7298547305
 20
3.3104301545
 10
13.7285164105
 20
3.3047382691
 10
13.7252627081
 20
3.3011361535
 10
13.7205890267
 20
3.3001723437
 10
13.7152068096
 20
3.3019934812
 10
13.7099355598
 20
3.3063224592
 10
13.7055776687
 20
3.3125000848
 10
13.7027966663
 20
3.3195859614
 10
13.7020158795
 20
3.3265011811
 10
13.7033541995
 20
3.3321931862
 10
13.7066079019
 20
3.335795182
 10
13.7112816352
 20
3.3367590218
 10
13.7166638004
 20
3.3349378544
  0
ARC
  5
292
330
1F
100
AcDbEntity
  8
0
  6
Continuous
 62
     7
370
    15
100
AcDbCircle
 10
16.1424462585
 20
3.2492334039
 30
0.0
 40
0.0158407889551349
100
AcDbArc
 50
294.3748924867
 51
354.3046822627
  0
LINE
  5
293
330
1F
100
AcDbEntity
  8
0
  6
Continuous
 62
     7
370
    15
100
AcDbLine
 10
13.5349226021
 20
3.3906974516
 30
0.0
 11
13.5265641685
 21
3.3858722306
 31
0.0
  0
LINE
  5
294
330
1F
100
AcDbEntity
  8
0
  6
Continuous
 62
     7
370
    15
100
AcDbLine
 10
13.5265641685
 20
3.3955226843
 30
0.0
 11
13.5265641685
 21
3.3858722306
 31
0.0
  0
LINE
  5
295
330
1F
100
AcDbEntity
  8
0
  6
Continuous
 62
     7
370
    15
100
AcDbLine
 10
13.5265641685
 20
3.3858722306
 30
0.0
 11
12.5522044006
 21
3.9483581518
 31
0.0
  0
ARC
  5
296
330
1F
100
AcDbEntity
  8
0
  6
Continuous
 62
     7
370
    15
100
AcDbCircle
 10
12.5339838623
 20
4.0123614425
 30
0.0
 40
0.0382145962866458
100
AcDbArc
 50
181.861516908
 51
246.5849200916
  0
ARC
  5
297
330
1F
100
AcDbEntity
  8
0
  6
Continuous
 62
     7
370
    15
100
AcDbCircle
 10
12.5587422673
 20
3.9627871057
 30
0.0
 40
0.0158410357197219
100
AcDbArc
 50
185.6956289058
 51
245.6243648739
  0
ARC
  5
298
330
1F
100
AcDbEntity
  8
0
  6
Continuous
 62
     7
370
    15
100
AcDbCircle
 10
15.3135224072
 20
0.932043695
 30
0.0
 40
0.2466927452999811
100
AcDbArc
 50
251.6155674773
 51
297.076838123
  0
ARC
  5
299
330
1F
100
AcDbEntity
  8
0
  6
Continuous
 62
     7
370
    15
100
AcDbCircle
 10
15.3932103345
 20
0.6614203405
 30
0.0
 40
0.0605043695239883
100
AcDbArc
 50
2.6055961469
 51
57.3944656179
  0
ARC
  5
29A
330
1F
100
AcDbEntity
  8
0
  6
Continuous
 62
     7
370
    15
100
AcDbCircle
 10
15.3132724295
 20
0.9389520643
 30
0.0
 40
0.3085630450132666
100
AcDbArc
 50
251.6309063633
 51
297.0615011265
  0
ARC
  5
29B
330
1F
100
AcDbEntity
  8
0
  6
Continuous
 62
     7
370
    15
100
AcDbCircle
 10
15.2976888225
 20
0.6447520574
 30
0.0
 40
0.0816673871795709
100
AcDbArc
 50
139.3605970005
 51
179.046207114
  0
LINE
  5
29C
330
1F
100
AcDbEntity
  8
0
  6
Continuous
 62
     7
370
    15
100
AcDbLine
 10
16.3348361414
 20
1.3324492983
 30
0.0
 11
16.2062716602
 21
1.4609998046
 31
0.0
  0
ARC
  5
29D
330
1F
100
AcDbEntity
  8
0
  6
Continuous
 62
     7
370
    15
100
AcDbCircle
 10
16.2881476273
 20
1.2853731661
 30
0.0
 40
0.0663021838068822
100
AcDbArc
 50
289.0695450274
 51
45.2368563515
  0
LINE
  5
29E
330
1F
100
AcDbEntity
  8
0
  6
Continuous
 62
     7
370
    15
100
AcDbLine
 10
15.4258132446
 20
0.7123892427
 30
0.0
 11
16.3098095834
 21
1.2227094666
 31
0.0
  0
LINE
  5
29F
330
1F
100
AcDbEntity
  8
0
  6
Continuous
 62
     7
370
    15
100
AcDbLine
 10
15.013037547
 20
0.7721604134
 30
0.0
 11
15.2357176832
 21
0.6979417182
 31
0.0
  0
ARC
  5
2A0
330
1F
100
AcDbEntity
  8
0
  6
Continuous
 62
     7
370
    15
100
AcDbCircle
 10
14.9817739265
 20
0.8710909294
 30
0.0
 40
0.1037528840596586
100
AcDbArc
 50
287.5373668314
 51
299.6167064329
  0
LINE
  5
2A1
330
1F
100
AcDbEntity
  8
0
  6
Continuous
 62
     7
370
    15
100
AcDbLine
 10
16.1911442706
 20
1.4494479456
 30
0.0
 11
15.0330481219
 21
0.7808932696
 31
0.0
  0
ARC
  5
2A2
330
1F
100
AcDbEntity
  8
0
  6
Continuous
 62
     7
370
    15
100
AcDbCircle
 10
16.1573110438
 20
1.509433969
 30
0.0
 40
0.0688695159987067
100
AcDbArc
 50
299.4238023485
 51
315.3097002212
  0
LWPOLYLINE
  5
2A3
330
1F
100
AcDbEntity
  8
0
  6
Continuous
 62
     7
370
    15
100
AcDbPolyline
 90
       28
 70
   128
 43
0.0
 10
15.8190935099
 20
1.0679932151
 10
15.8318502624
 20
1.0586795189
 10
15.8405424925
 20
1.04791854
 10
15.8447016191
 20
1.0362903945
 10
15.8441034714
 20
1.0244219395
 10
15.8387800935
 20
1.0129531163
 10
15.8290186814
 20
1.0025020916
 10
15.8153454011
 20
0.9936323274
 10
15.7984974412
 20
0.9868219588
 10
15.7793829001
 20
0.9824382425
 10
15.7590324034
 20
0.9807174098
 10
15.7385430939
 20
0.9817522084
 10
15.7190194206
 20
0.9854869375
 10
15.7015139011
 20
0.9917202492
 10
15.6869704382
 20
1.0001160116
 10
15.6761728556
 20
1.010221733
 10
15.6697034142
 20
1.0214925096
 10
15.6679108962
 20
1.0333207363
 10
15.6708917889
 20
1.0450688279
 10
15.6784854309
 20
1.0561034177
 10
15.6902826137
 20
1.0658295379
 10
15.7056471607
 20
1.0737229546
 10
15.7237508279
 20
1.0793580978
 10
15.743617565
 20
1.0824312185
 10
15.7641765597
 20
1.0827765218
 10
15.784319281
 20
1.0803755091
 10
15.802959863
 20
1.0753575915
 10
15.8190935099
 20
1.0679932151
  0
LINE
  5
2A4
330
1F
100
AcDbEntity
  8
0
  6
Continuous
 62
     7
370
    15
100
AcDbLine
 10
15.4536521507
 20
0.5677290739
 30
0.0
 11
15.4536521507
 21
0.6641709029
 31
0.0
  0
ARC
  5
2A5
330
1F
100
AcDbEntity
  8
0
  6
Continuous
 62
     7
370
    15
100
AcDbCircle
 10
15.3132724295
 20
0.8425102353
 30
0.0
 40
0.3085630450132666
100
AcDbArc
 50
251.6309063633
 51
297.0615011265
  0
LINE
  5
2A6
330
1F
100
AcDbEntity
  8
0
  6
Continuous
 62
     7
370
    15
100
AcDbLine
 10
15.2160327508
 20
0.6461114974
 30
0.0
 11
15.2160327508
 21
0.5496696684
 31
0.0
  0
LINE
  5
2A7
330
1F
100
AcDbEntity
  8
0
  6
Continuous
 62
     7
370
    15
100
AcDbLine
 10
14.9565410137
 20
0.7325699144
 30
0.0
 11
15.2160327508
 21
0.6461114974
 31
0.0
  0
LWPOLYLINE
  5
2A8
330
1F
100
AcDbEntity
  8
0
  6
Continuous
 62
     7
370
    15
100
AcDbPolyline
 90
        7
 70
   128
 43
0.0
 10
14.9565369691
 20
0.73257076
 10
14.9568392773
 20
0.7370987471
 10
14.9588103477
 20
0.7411872426
 10
14.9652504463
 20
0.747767181
 10
14.9822632436
 20
0.7585499087
 10
15.002476671
 20
0.7682222036
 10
15.013037547
 20
0.7721604134
  0
LINE
  5
2A9
330
1F
100
AcDbEntity
  8
0
  6
Continuous
 62
     7
370
    15
100
AcDbLine
 10
14.9686165939
 20
0.6321328065
 30
0.0
 11
14.9565368135
 21
0.7325707899
 31
0.0
  0
LINE
  5
2AA
330
1F
100
AcDbEntity
  8
0
  6
Continuous
 62
     7
370
    15
100
AcDbLine
 10
14.9114799761
 20
0.9458408334
 30
0.0
 11
14.8983492208
 21
0.6489351377
 31
0.0
  0
ARC
  5
2AB
330
1F
100
AcDbEntity
  8
0
  6
Continuous
 62
     7
370
    15
100
AcDbCircle
 10
14.9686166458
 20
1.0561144385
 30
0.0
 40
0.1241968881004587
100
AcDbArc
 50
242.6097224976
 51
297.3902775024
  0
LINE
  5
2AC
330
1F
100
AcDbEntity
  8
0
  6
Continuous
 62
     7
370
    15
100
AcDbLine
 10
15.0330481219
 20
0.7808932696
 30
0.0
 11
15.0257533155
 21
0.9458408334
 31
0.0
  0
ARC
  5
2AD
330
1F
100
AcDbEntity
  8
0
  6
Continuous
 62
     7
370
    15
100
AcDbCircle
 10
14.9657535144
 20
0.7754896969
 30
0.0
 40
0.1433854778757603
100
AcDbArc
 50
241.9597641984
 51
271.1441415014
  0
LINE
  5
2AE
330
1F
100
AcDbEntity
  8
0
  6
Continuous
 62
     7
370
    15
100
AcDbLine
 10
14.9686165939
 20
0.6321328065
 30
0.0
 11
15.2160327508
 21
0.5496696684
 31
0.0
  0
LINE
  5
2AF
330
1F
100
AcDbEntity
  8
0
  6
Continuous
 62
     7
370
    15
100
AcDbLine
 10
14.9114799761
 20
0.9458408334
 30
0.0
 11
12.5173388246
 21
2.3279491011
 31
0.0
  0
ARC
  5
2B0
330
1F
100
AcDbEntity
  8
0
  6
Continuous
 62
     7
370
    15
100
AcDbCircle
 10
12.5295451777
 20
2.3607500168
 30
0.0
 40
0.0349985017118627
100
AcDbArc
 50
113.8022529868
 51
249.5880286054
  0
ARC
  5
2B1
330
1F
100
AcDbEntity
  8
0
  6
Continuous
 62
     7
370
    15
100
AcDbCircle
 10
16.1716430658
 20
1.6471964525
 30
0.0
 40
0.0349985432204051
100
AcDbArc
 50
290.4120252568
 51
66.1976031301
  0
LINE
  5
2B2
330
1F
100
AcDbEntity
  8
0
  6
Continuous
 62
     7
370
    15
100
AcDbLine
 10
15.0257533155
 20
0.9458408334
 30
0.0
 11
16.1838494642
 21
1.6143955095
 31
0.0
  0
ARC
  5
2B3
330
1F
100
AcDbEntity
  8
0
  6
Continuous
 62
     7
370
    15
100
AcDbCircle
 10
12.5449747378
 20
2.3638804435
 30
0.0
 40
0.0297008767188153
100
AcDbArc
 50
185.6946129369
 51
245.625554278
  0
LINE
  5
2B4
330
1F
100
AcDbEntity
  8
0
  6
Continuous
 62
     7
370
    15
100
AcDbLine
 10
14.9268583904
 20
0.954718603
 30
0.0
 11
12.5327172389
 21
2.3368268707
 31
0.0
  0
ARC
  5
2B5
330
1F
100
AcDbEntity
  8
0
  6
Continuous
 62
     7
370
    15
100
AcDbCircle
 10
14.9686166458
 20
1.0353118092
 30
0.0
 40
0.0907690298636096
100
AcDbArc
 50
242.609692198
 51
297.390307802
  0
LINE
  5
2B6
330
1F
100
AcDbEntity
  8
0
  6
Continuous
 62
     7
370
    15
100
AcDbLine
 10
16.1684710499
 20
1.6232732791
 30
0.0
 11
15.0103749012
 21
0.954718603
 31
0.0
  0
ARC
  5
2B7
330
1F
100
AcDbEntity
  8
0
  6
Continuous
 62
     7
370
    15
100
AcDbCircle
 10
16.156213218
 20
1.6503270761
 30
0.0
 40
0.0297012184634981
100
AcDbArc
 50
294.3748522951
 51
354.3052500897
  0
LINE
  5
2B8
330
1F
100
AcDbEntity
  8
0
  6
Continuous
 62
     7
370
    15
100
AcDbLine
 10
14.9268583904
 20
0.954718603
 30
0.0
 11
14.9268583904
 21
0.9868658843
 31
0.0
  0
ARC
  5
2B9
330
1F
100
AcDbEntity
  8
0
  6
Continuous
 62
     7
370
    15
100
AcDbCircle
 10
14.9686166458
 20
1.0674590906
 30
0.0
 40
0.0907690298636096
100
AcDbArc
 50
242.609692198
 51
297.390307802
  0
LINE
  5
2BA
330
1F
100
AcDbEntity
  8
0
  6
Continuous
 62
     7
370
    15
100
AcDbLine
 10
15.0103749012
 20
0.954718603
 30
0.0
 11
15.0103749012
 21
0.9868658843
 31
0.0
  0
LINE
  5
2BB
330
1F
100
AcDbEntity
  8
0
  6
Continuous
 62
     7
370
    15
100
AcDbLine
 10
12.5494205203
 20
2.4075446084
 30
0.0
 11
13.7075166691
 21
3.0760992845
 31
0.0
  0
ARC
  5
2BC
330
1F
100
AcDbEntity
  8
0
  6
Continuous
 62
     7
370
    15
100
AcDbCircle
 10
12.554910158
 20
2.3930806798
 30
0.0
 40
0.0154706610295699
100
AcDbArc
 50
110.7837509056
 51
249.2162490944
  0
LINE
  5
2BD
330
1F
100
AcDbEntity
  8
0
  6
Continuous
 62
     7
370
    15
100
AcDbLine
 10
14.9435616718
 20
0.9965084834
 30
0.0
 11
12.5494205203
 21
2.3786167512
 31
0.0
  0
ARC
  5
2BE
330
1F
100
AcDbEntity
  8
0
  6
Continuous
 62
     7
370
    15
100
AcDbCircle
 10
14.9686166458
 20
1.0448647815
 30
0.0
 40
0.0544617598269432
100
AcDbArc
 50
242.6098539957
 51
297.3901460043
  0
LINE
  5
2BF
330
1F
100
AcDbEntity
  8
0
  6
Continuous
 62
     7
370
    15
100
AcDbLine
 10
16.1517677685
 20
1.6650631595
 30
0.0
 11
14.9936716198
 21
0.9965084834
 31
0.0
  0
ARC
  5
2C0
330
1F
100
AcDbEntity
  8
0
  6
Continuous
 62
     7
370
    15
100
AcDbCircle
 10
16.1462781308
 20
1.6795270881
 30
0.0
 40
0.0154706610295718
100
AcDbArc
 50
290.7837509056
 51
69.2162490944
  0
LINE
  5
2C1
330
1F
100
AcDbEntity
  8
0
  6
Continuous
 62
     7
370
    15
100
AcDbLine
 10
13.757626617
 20
3.0760992845
 30
0.0
 11
16.1517677685
 21
1.6939910167
 31
0.0
  0
ARC
  5
2C2
330
1F
100
AcDbEntity
  8
0
  6
Continuous
 62
     7
370
    15
100
AcDbCircle
 10
13.732571643
 20
3.0277429864
 30
0.0
 40
0.0544617598269417
100
AcDbArc
 50
62.6098539957
 51
117.3901460043
  0
ARC
  5
2C3
330
1F
100
AcDbEntity
  8
0
  6
Continuous
 62
     7
370
    15
100
AcDbCircle
 10
12.5418664946
 20
2.3930806798
 30
0.0
 40
0.0257843665313974
100
AcDbArc
 50
110.7834747207
 51
249.2165252793
  0
LINE
  5
2C4
330
1F
100
AcDbEntity
  8
0
  6
Continuous
 62
     7
370
    15
100
AcDbLine
 10
12.5327172389
 20
2.4171872075
 30
0.0
 11
13.6908133876
 21
3.0857418836
 31
0.0
  0
ARC
  5
2C5
330
1F
100
AcDbEntity
  8
0
  6
Continuous
 62
     7
370
    15
100
AcDbCircle
 10
13.732571643
 20
3.0051486774
 30
0.0
 40
0.0907690298636161
100
AcDbArc
 50
62.609692198
 51
117.390307802
  0
LINE
  5
2C6
330
1F
100
AcDbEntity
  8
0
  6
Continuous
 62
     7
370
    15
100
AcDbLine
 10
13.7743298984
 20
3.0857418836
 30
0.0
 11
16.1684710499
 21
1.7036336158
 31
0.0
  0
ARC
  5
2C7
330
1F
100
AcDbEntity
  8
0
  6
Continuous
 62
     7
370
    15
100
AcDbCircle
 10
16.1593217943
 20
1.6795270881
 30
0.0
 40
0.0257843665313995
100
AcDbArc
 50
290.7834747207
 51
69.2165252793
  0
LINE
  5
2C8
330
1F
100
AcDbEntity
  8
0
  6
Continuous
 62
     7
370
    15
100
AcDbLine
 10
16.1684710499
 20
1.6554205604
 30
0.0
 11
15.0103749012
 21
0.9868658843
 31
0.0
  0
LINE
  5
2C9
330
1F
100
AcDbEntity
  8
0
  6
Continuous
 62
     7
370
    15
100
AcDbLine
 10
14.9268583904
 20
0.9868658843
 30
0.0
 11
12.5327172389
 21
2.3689741521
 31
0.0
  0
ARC
  5
2CA
330
1F
100
AcDbEntity
  8
0
  6
Continuous
 62
     7
370
    15
100
AcDbCircle
 10
16.2772066733
 20
1.1717405644
 30
0.0
 40
0.0605043695240023
100
AcDbArc
 50
2.6055961469
 51
57.3944656178
  0
LINE
  5
2CB
330
1F
100
AcDbEntity
  8
0
  6
Continuous
 62
     7
370
    15
100
AcDbLine
 10
15.4536521507
 20
0.6641709029
 30
0.0
 11
16.3376484894
 21
1.1744911268
 31
0.0
  0
LINE
  5
2CC
330
1F
100
AcDbEntity
  8
0
  6
Continuous
 62
     7
370
    15
100
AcDbLine
 10
12.5173388246
 20
2.3279491011
 30
0.0
 11
12.5042080694
 21
2.0310434054
 31
0.0
  0
LINE
  5
2CD
330
1F
100
AcDbEntity
  8
0
  6
Continuous
 62
     7
370
    15
100
AcDbLine
 10
12.5042080694
 20
2.0310434054
 30
0.0
 11
14.8983492208
 21
0.6489351377
 31
0.0
  0
LINE
  5
2CE
330
1F
100
AcDbEntity
  8
0
  6
Continuous
 62
     7
370
    15
100
AcDbLine
 10
16.1684710499
 20
1.6554205604
 30
0.0
 11
16.1684710499
 21
1.6232732791
 31
0.0
  0
LINE
  5
2CF
330
1F
100
AcDbEntity
  8
0
  6
Continuous
 62
     7
370
    15
100
AcDbLine
 10
12.5327172389
 20
2.3368268707
 30
0.0
 11
12.5327172389
 21
2.3689741521
 31
0.0
  0
LINE
  5
2D0
330
1F
100
AcDbEntity
  8
0
  6
Continuous
 62
     7
370
    15
100
AcDbLine
 10
16.1838494642
 20
1.6143955095
 30
0.0
 11
16.1911442706
 21
1.4494479456
 31
0.0
  0
LINE
  5
2D1
330
1F
100
AcDbEntity
  8
0
  6
Continuous
 62
     7
370
    15
100
AcDbLine
 10
16.3376484894
 20
1.1744911268
 30
0.0
 11
16.3376484894
 21
1.0780492978
 31
0.0
  0
LINE
  5
2D2
330
1F
100
AcDbEntity
  8
0
  6
Continuous
 62
     7
370
    15
100
AcDbLine
 10
15.4536521507
 20
0.5677290739
 30
0.0
 11
16.3376484894
 21
1.0780492978
 31
0.0
  0
LINE
  5
2D3
330
1F
100
AcDbEntity
  8
0
  6
Continuous
 62
     7
370
    15
100
AcDbLine
 10
15.1445967723
 20
2.189314527
 30
0.0
 11
16.1022464141
 21
1.6364751563
 31
0.0
  0
LINE
  5
2D4
330
1F
100
AcDbEntity
  8
0
  6
Continuous
 62
     7
370
    15
100
AcDbLine
 10
15.1774080005
 20
2.2082560458
 30
0.0
 11
15.1445967723
 21
2.189314527
 31
0.0
  0
LINE
  5
2D5
330
1F
100
AcDbEntity
  8
0
  6
Continuous
 62
     7
370
    15
100
AcDbLine
 10
16.1350576423
 20
1.6554166752
 30
0.0
 11
15.1774080005
 21
2.2082560458
 31
0.0
  0
LINE
  5
2D6
330
1F
100
AcDbEntity
  8
0
  6
Continuous
 62
     7
370
    15
100
AcDbLine
 10
13.732571643
 20
2.7845527918
 30
0.0
 11
13.8778039376
 21
2.7007119727
 31
0.0
  0
LINE
  5
2D7
330
1F
100
AcDbEntity
  8
0
  6
Continuous
 62
     7
370
    15
100
AcDbLine
 10
14.0343870505
 20
2.6103184657
 30
0.0
 11
15.5202960771
 21
1.7525214434
 31
0.0
  0
LINE
  5
2D8
330
1F
100
AcDbEntity
  8
0
  6
Continuous
 62
     7
370
    15
100
AcDbLine
 10
15.67687919
 20
1.6621279364
 30
0.0
 11
15.9117811863
 21
1.5265219004
 31
0.0
  0
LINE
  5
2D9
330
1F
100
AcDbEntity
  8
0
  6
Continuous
 62
     7
370
    15
100
AcDbLine
 10
12.7894070766
 20
2.2400754771
 30
0.0
 11
13.732571643
 21
2.7845527918
 31
0.0
  0
LWPOLYLINE
  5
2DA
330
1F
100
AcDbEntity
  8
0
  6
Continuous
 62
     7
370
    15
100
AcDbPolyline
 90
       18
 70
   128
 43
0.0
 10
14.0371932279
 20
2.479056751
 10
14.0371643453
 20
2.4764880315
 10
14.0341450483
 20
2.4628025527
 10
14.0264155507
 20
2.4497480357
 10
14.0142921871
 20
2.4378590081
 10
13.9982713029
 20
2.427622147
 10
13.9790087724
 20
2.4194566117
 10
13.957293345
 20
2.4136966224
 10
13.9340138744
 20
2.4105780488
 10
13.9101235131
 20
2.4102285771
 10
13.8866003292
 20
2.4126624562
 10
13.8644073274
 20
2.4177801084
 10
13.8444531436
 20
2.4253719617
 10
13.8275546841
 20
2.4351272347
 10
13.8144037837
 20
2.4466465398
 10
13.8055388412
 20
2.4594582571
 10
13.8013227822
 20
2.4730379021
 10
13.8009907617
 20
2.4790567061
  0
ARC
  5
2DB
330
1F
100
AcDbEntity
  8
0
  6
Continuous
 62
     7
370
    15
100
AcDbCircle
 10
14.8445481215
 20
1.0845262723
 30
0.0
 40
0.055768924006026
100
AcDbArc
 50
301.3689701213
 51
356.2486354005
  0
ARC
  5
2DC
330
1F
100
AcDbEntity
  8
0
  6
Continuous
 62
     7
370
    15
100
AcDbCircle
 10
13.202057186
 20
2.0327161394
 30
0.0
 40
0.0557676792800962
100
AcDbArc
 50
301.3682386556
 51
356.2492334076
  0
LWPOLYLINE
  5
2DD
330
1F
100
AcDbEntity
  8
0
  6
Continuous
 62
     7
370
    15
100
AcDbPolyline
 90
       18
 70
   128
 43
0.0
 10
15.6796853674
 20
1.5308662217
 10
15.6796564329
 20
1.5282975321
 10
15.6766372397
 20
1.5146119934
 10
15.6689076902
 20
1.5015575064
 10
15.6567843265
 20
1.4896684788
 10
15.6407634424
 20
1.4794316176
 10
15.6215009637
 20
1.4712660525
 10
15.5997854845
 20
1.4655060931
 10
15.5765060139
 20
1.4623875195
 10
15.5526156007
 20
1.4620380777
 10
15.5290924168
 20
1.4644719568
 10
15.5068994669
 20
1.4695895791
 10
15.4869452831
 20
1.4771814324
 10
15.4700468236
 20
1.4869367054
 10
15.4568959231
 20
1.4984560105
 10
15.4480309288
 20
1.5112677577
 10
15.4438148699
 20
1.5248474027
 10
15.4434828493
 20
1.5308662068
  0
LWPOLYLINE
  5
2DE
330
1F
100
AcDbEntity
  8
0
  6
Continuous
 62
     7
370
    15
100
AcDbPolyline
 90
       31
 70
   128
 43
0.0
 10
14.8631832293
 20
1.2875829206
 10
14.8782701729
 20
1.276827562
 10
14.8891538913
 20
1.264496415
 10
14.8953586769
 20
1.2511284227
 10
14.8966133597
 20
1.2373078041
 10
14.8928631302
 20
1.2236386096
 10
14.8842718208
 20
1.2107182596
 10
14.8712148796
 20
1.1991114556
 10
14.8542630884
 20
1.1893253949
 10
14.8341573356
 20
1.1817877831
 10
14.8117762079
 20
1.1768281258
 10
14.7880978772
 20
1.1746631494
 10
14.7641572953
 20
1.1753874774
 10
14.7410007444
 20
1.1789694239
 10
14.719640257
 20
1.1852524608
 10
14.7010094106
 20
1.1939619679
 10
14.685922467
 20
1.2047173266
 10
14.6750387486
 20
1.2170484735
 10
14.668833963
 20
1.2304164658
 10
14.6675792542
 20
1.2442370695
 10
14.6713295096
 20
1.2579062789
 10
14.6799208191
 20
1.2708266289
 10
14.6929777084
 20
1.2824334628
 10
14.7099294997
 20
1.2922195236
 10
14.7300353042
 20
1.2997571054
 10
14.752416432
 20
1.3047167628
 10
14.7760947368
 20
1.3068817242
 10
14.8000353446
 20
1.3061574112
 10
14.8231918955
 20
1.3025754647
 10
14.8445523829
 20
1.2962924278
 10
14.8631832293
 20
1.2875829206
  0
LWPOLYLINE
  5
2DF
330
1F
100
AcDbEntity
  8
0
  6
Continuous
 62
     7
370
    15
100
AcDbPolyline
 90
       19
 70
   128
 43
0.0
 10
14.7518278124
 20
1.2232988068
 10
14.7433008278
 20
1.230328937
 10
14.739453113
 20
1.2386187009
 10
14.7407487863
 20
1.2471682374
 10
14.747031612
 20
1.2549463289
 10
14.7575437713
 20
1.2610148693
 10
14.7710172809
 20
1.2646418674
 10
14.7858271172
 20
1.2653898437
 10
14.8001869654
 20
1.2631686052
 10
14.8123648015
 20
1.2582460667
 10
14.8208918121
 20
1.2512159516
 10
14.8247395269
 20
1.2429261877
 10
14.8234438536
 20
1.2343766511
 10
14.8171610278
 20
1.2265985597
 10
14.8066488685
 20
1.2205300193
 10
14.793175359
 20
1.2169030212
 10
14.7783655227
 20
1.2161550449
 10
14.7640056745
 20
1.2183762833
 10
14.7518278124
 20
1.2232988068
  0
ARC
  5
2E0
330
1F
100
AcDbEntity
  8
0
  6
Continuous
 62
     7
370
    15
100
AcDbCircle
 10
16.298263764
 20
1.1671706147
 30
0.0
 40
0.0974359569789198
100
AcDbArc
 50
293.8417193751
 51
354.838200551
  0
ARC
  5
2E1
330
1F
100
AcDbEntity
  8
0
  6
Continuous
 62
     7
370
    15
100
AcDbCircle
 10
16.226554594
 20
1.4502252276
 30
0.0
 40
0.0229671268106187
100
AcDbArc
 50
110.4304919581
 51
152.022137369
  0
LINE
  5
2E2
330
1F
100
AcDbEntity
  8
0
  6
Continuous
 62
     7
370
    15
100
AcDbLine
 10
15.1774080005
 20
2.2082560458
 30
0.0
 11
14.7319863849
 21
2.4653924712
 31
0.0
  0
LINE
  5
2E3
330
1F
100
AcDbEntity
  8
0
  6
Continuous
 62
     7
370
    15
100
AcDbLine
 10
14.7319863849
 20
2.4653924712
 30
0.0
 11
13.757626617
 21
3.0278783924
 31
0.0
  0
LINE
  5
2E4
330
1F
100
AcDbEntity
  8
0
  6
Continuous
 62
     7
370
    15
100
AcDbLine
 10
13.757626617
 20
3.0278783924
 30
0.0
 11
13.757626617
 21
3.0760992845
 31
0.0
  0
LINE
  5
2E5
330
1F
100
AcDbEntity
  8
0
  6
Continuous
 62
     7
370
    15
100
AcDbLine
 10
13.7325716949
 20
3.0044592533
 30
0.0
 11
13.732571643
 21
2.7845527918
 31
0.0
  0
LINE
  5
2E6
330
1F
100
AcDbEntity
  8
0
  6
Continuous
 62
     7
370
    15
100
AcDbLine
 10
13.7325716949
 20
3.0044592533
 30
0.0
 11
14.6991751567
 21
2.4464509524
 31
0.0
  0
LINE
  5
2E7
330
1F
100
AcDbEntity
  8
0
  6
Continuous
 62
     7
370
    15
100
AcDbLine
 10
14.6962572342
 20
2.3804719089
 30
0.0
 11
14.6991751567
 21
2.4464509524
 31
0.0
  0
LINE
  5
2E8
330
1F
100
AcDbEntity
  8
0
  6
Continuous
 62
     7
370
    15
100
AcDbLine
 10
15.1416788498
 20
2.1233354835
 30
0.0
 11
14.6962572342
 21
2.3804719089
 31
0.0
  0
LINE
  5
2E9
330
1F
100
AcDbEntity
  8
0
  6
Continuous
 62
     7
370
    15
100
AcDbLine
 10
15.1445967723
 20
2.189314527
 30
0.0
 11
15.1416788498
 21
2.1233354835
 31
0.0
  0
LWPOLYLINE
  5
2EA
330
1F
100
AcDbEntity
  8
0
  6
Continuous
 62
     7
370
    15
100
AcDbPolyline
 90
       31
 70
   128
 43
0.0
 10
15.6426710177
 20
1.7375716426
 10
15.6577579613
 20
1.7268162839
 10
15.6686416797
 20
1.714485137
 10
15.6748464653
 20
1.7011171447
 10
15.6761011741
 20
1.687296541
 10
15.6723509187
 20
1.6736273316
 10
15.6637596092
 20
1.6607069816
 10
15.650702668
 20
1.6491001776
 10
15.6337508768
 20
1.6393141168
 10
15.6136451241
 20
1.6317765051
 10
15.5912639963
 20
1.6268168477
 10
15.5675856915
 20
1.6246518863
 10
15.5436450837
 20
1.6253761993
 10
15.5204885328
 20
1.6289581458
 10
15.4991280454
 20
1.6352411827
 10
15.480497199
 20
1.6439506899
 10
15.4654102554
 20
1.6547060485
 10
15.454526537
 20
1.6670371955
 10
15.4483217514
 20
1.6804051878
 10
15.4470670686
 20
1.6942258064
 10
15.4508172981
 20
1.7078950009
 10
15.4594086075
 20
1.7208153509
 10
15.4724654968
 20
1.7324221848
 10
15.4894172881
 20
1.7422082456
 10
15.5095230927
 20
1.7497458274
 10
15.5319042204
 20
1.7547054847
 10
15.5555825511
 20
1.7568704611
 10
15.579523133
 20
1.7561461331
 10
15.6026796839
 20
1.7525641866
 10
15.6240401713
 20
1.7462811497
 10
15.6426710177
 20
1.7375716426
  0
LWPOLYLINE
  5
2EB
330
1F
100
AcDbEntity
  8
0
  6
Continuous
 62
     7
370
    15
100
AcDbPolyline
 90
       19
 70
   128
 43
0.0
 10
15.5313156268
 20
1.6732875438
 10
15.5227886162
 20
1.6803176589
 10
15.5189409014
 20
1.6886074228
 10
15.5202365747
 20
1.6971569594
 10
15.5265194005
 20
1.7049350508
 10
15.5370315598
 20
1.7110035912
 10
15.5505050693
 20
1.7146305893
 10
15.5653149056
 20
1.7153785656
 10
15.5796747538
 20
1.7131573272
 10
15.5918526159
 20
1.7082348037
 10
15.6003796005
 20
1.7012046735
 10
15.6042273153
 20
1.6929149096
 10
15.602931642
 20
1.6843653731
 10
15.5966488163
 20
1.6765872816
 10
15.586136657
 20
1.6705187412
 10
15.5726631474
 20
1.6668917431
 10
15.5578533111
 20
1.6661437668
 10
15.5434934629
 20
1.6683650053
 10
15.5313156268
 20
1.6732875438
  0
LINE
  5
2EC
330
1F
100
AcDbEntity
  8
0
  6
Continuous
 62
     7
370
    15
100
AcDbLine
 10
13.7075166691
 20
3.0278783924
 30
0.0
 11
12.5661305946
 21
2.3689702369
 31
0.0
  0
ARC
  5
2ED
330
1F
100
AcDbEntity
  8
0
  6
Continuous
 62
     7
370
    15
100
AcDbCircle
 10
13.732571643
 20
2.9795220943
 30
0.0
 40
0.0544617598269421
100
AcDbArc
 50
62.6098539957
 51
117.3901460043
  0
LINE
  5
2EE
330
1F
100
AcDbEntity
  8
0
  6
Continuous
 62
     7
370
    15
100
AcDbLine
 10
14.6991751567
 20
2.4464509524
 30
0.0
 11
14.7319863849
 21
2.4653924712
 31
0.0
  0
LINE
  5
2EF
330
1F
100
AcDbEntity
  8
0
  6
Continuous
 62
     7
370
    15
100
AcDbLine
 10
12.5989418747
 20
2.3500286881
 30
0.0
 11
13.7325716949
 21
3.0044592533
 31
0.0
  0
LWPOLYLINE
  5
2F0
330
1F
100
AcDbEntity
  8
0
  6
Continuous
 62
     7
370
    15
100
AcDbPolyline
 90
       31
 70
   128
 43
0.0
 10
13.2206910898
 20
2.23577345
 10
13.2357780334
 20
2.2250180913
 10
13.2466617518
 20
2.2126869444
 10
13.2528665374
 20
2.1993189521
 10
13.2541212202
 20
2.1854983334
 10
13.2503709908
 20
2.171829139
 10
13.2417796813
 20
2.1589087889
 10
13.228722792
 20
2.147301955
 10
13.2117710007
 20
2.1375158942
 10
13.1916651962
 20
2.1299783125
 10
13.1692840684
 20
2.1250186551
 10
13.1456057377
 20
2.1228536787
 10
13.1216651558
 20
2.1235780067
 10
13.0985086049
 20
2.1271599532
 10
13.0771481175
 20
2.1334429901
 10
13.0585172711
 20
2.1421524972
 10
13.0434303275
 20
2.1529078559
 10
13.0325466091
 20
2.1652390028
 10
13.0263418235
 20
2.1786069951
 10
13.0250871147
 20
2.1924275988
 10
13.0288373702
 20
2.2060968082
 10
13.0374286796
 20
2.2190171582
 10
13.0504856208
 20
2.2306239622
 10
13.067437412
 20
2.240410023
 10
13.0875431648
 20
2.2479476347
 10
13.1099242925
 20
2.2529072921
 10
13.1336025973
 20
2.2550722535
 10
13.1575432051
 20
2.2543479405
 10
13.180699756
 20
2.250765994
 10
13.2020602434
 20
2.2444829571
 10
13.2206910898
 20
2.23577345
  0
LWPOLYLINE
  5
2F1
330
1F
100
AcDbEntity
  8
0
  6
Continuous
 62
     7
370
    15
100
AcDbPolyline
 90
       19
 70
   128
 43
0.0
 10
13.1093356729
 20
2.1714893361
 10
13.1008086883
 20
2.1785194663
 10
13.0969609735
 20
2.1868092302
 10
13.0982566468
 20
2.1953587667
 10
13.1045394726
 20
2.2031368582
 10
13.1150516319
 20
2.2092053986
 10
13.1285251414
 20
2.2128323967
 10
13.1433349777
 20
2.213580373
 10
13.1576948259
 20
2.2113591345
 10
13.169872662
 20
2.2064365961
 10
13.1783996726
 20
2.1994064809
 10
13.1822473874
 20
2.191116717
 10
13.1809517141
 20
2.1825671805
 10
13.1746688884
 20
2.174789089
 10
13.1641567291
 20
2.1687205486
 10
13.1506832195
 20
2.1650935505
 10
13.1358733832
 20
2.1643455742
 10
13.121513535
 20
2.1665668127
 10
13.1093356729
 20
2.1714893361
  0
LINE
  5
2F2
330
1F
100
AcDbEntity
  8
0
  6
Continuous
 62
     7
370
    15
100
AcDbLine
 10
14.7537770005
 20
2.4136773632
 30
0.0
 11
14.7519026376
 21
2.4538950382
 31
0.0
  0
LINE
  5
2F3
330
1F
100
AcDbEntity
  8
0
  6
Continuous
 62
     7
370
    15
100
AcDbLine
 10
15.1445427794
 20
2.1880930806
 30
0.0
 11
14.7537770005
 21
2.4136773632
 31
0.0
  0
LINE
  5
2F4
330
1F
100
AcDbEntity
  8
0
  6
Continuous
 62
     7
370
    15
100
AcDbLine
 10
14.7537770005
 20
2.4136773632
 30
0.0
 11
14.6962572342
 21
2.3804719089
 31
0.0
  0
ARC
  5
2F5
330
1F
100
AcDbEntity
  8
0
  6
Continuous
 62
     7
370
    15
100
AcDbCircle
 10
12.0846138903
 20
2.1842165978
 30
0.0
 40
0.3981375165558406
100
AcDbArc
 50
356.6636905514
 51
0.7439723958
  0
LINE
  5
2F6
330
1F
100
AcDbEntity
  8
0
  6
Continuous
 62
     7
370
    15
100
AcDbLine
 10
12.48207667
 20
2.1610462248
 30
0.0
 11
12.4751024244
 21
2.0716078965
 31
0.0
  0
ARC
  5
2F7
330
1F
100
AcDbEntity
  8
0
  6
Continuous
 62
     7
370
    15
100
AcDbCircle
 10
12.5248342647
 20
2.0765671362
 30
0.0
 40
0.0499784953804281
100
AcDbArc
 50
185.694686612
 51
245.6253536802
  0
LINE
  5
2F8
330
1F
100
AcDbEntity
  8
0
  6
Continuous
 62
     7
370
    15
100
AcDbLine
 10
13.7075166691
 20
3.0278783924
 30
0.0
 11
13.7075166691
 21
3.0760992845
 31
0.0
  0
LINE
  5
2F9
330
1F
100
AcDbEntity
  8
0
  6
Continuous
 62
     7
370
    15
100
AcDbLine
 10
12.4820742329
 20
2.1610491809
 30
0.0
 11
12.3322566018
 21
2.3108800326
 31
0.0
  0
ARC
  5
2FA
330
1F
100
AcDbEntity
  8
0
  6
Continuous
 62
     7
370
    15
100
AcDbCircle
 10
12.3821134745
 20
2.3069262408
 30
0.0
 40
0.0500134004469304
100
AcDbArc
 50
108.3693913208
 51
175.4657709635
  0
LINE
  5
2FB
330
1F
100
AcDbEntity
  8
0
  6
Continuous
 62
     7
370
    15
100
AcDbLine
 10
12.3322566018
 20
2.3108800326
 30
0.0
 11
12.3322566018
 21
2.2144382036
 31
0.0
  0
LINE
  5
2FC
330
1F
100
AcDbEntity
  8
0
  6
Continuous
 62
     7
370
    15
100
AcDbLine
 10
12.3322566018
 20
2.2144382036
 30
0.0
 11
12.4751024244
 21
2.0716078965
 31
0.0
  0
LWPOLYLINE
  5
2FD
330
1F
100
AcDbEntity
  8
0
  6
Continuous
 62
     7
370
    15
100
AcDbPolyline
 90
       15
 70
   128
 43
0.0
 10
12.8820677112
 20
2.6188628926
 10
12.8752466291
 20
2.6232896164
 10
12.8644490465
 20
2.6333953378
 10
12.857979605
 20
2.6446661144
 10
12.8561870871
 20
2.6564943411
 10
12.8591679797
 20
2.6682424327
 10
12.8667616218
 20
2.6792770225
 10
12.8785588045
 20
2.6890031427
 10
12.8939233516
 20
2.6968965594
 10
12.9120270188
 20
2.7025317026
 10
12.9318937558
 20
2.7056048233
 10
12.9524527505
 20
2.7059501266
 10
12.9725954719
 20
2.7035491139
 10
12.9912360538
 20
2.6985311963
 10
13.007369597
 20
2.6911668798
  0
ARC
  5
2FE
330
1F
100
AcDbEntity
  8
0
  6
Continuous
 62
     7
370
    15
100
AcDbCircle
 10
12.4130406615
 20
2.4014673157
 30
0.0
 40
0.0663021838068819
100
AcDbArc
 50
109.0695450274
 51
225.2368563515
  0
LINE
  5
2FF
330
1F
100
AcDbEntity
  8
0
  6
Continuous
 62
     7
370
    15
100
AcDbLine
 10
13.2753750442
 20
2.9744512391
 30
0.0
 11
12.3913787054
 21
2.4641310152
 31
0.0
  0
ARC
  5
300
330
1F
100
AcDbEntity
  8
0
  6
Continuous
 62
     7
370
    15
100
AcDbCircle
 10
13.3876658816
 20
2.7547967868
 30
0.0
 40
0.2466927452999819
100
AcDbArc
 50
71.6155674773
 51
117.076838123
  0
ARC
  5
301
330
1F
100
AcDbEntity
  8
0
  6
Continuous
 62
     7
370
    15
100
AcDbCircle
 10
12.3851602945
 20
2.2735238285
 30
0.0
 40
0.0793089640450214
100
AcDbArc
 50
181.6372719157
 51
228.1595827487
  0
LWPOLYLINE
  5
302
330
1F
100
AcDbEntity
  8
0
  6
Continuous
 62
     7
370
    15
100
AcDbPolyline
 90
       31
 70
   128
 43
0.0
 10
14.0001788782
 20
2.6857621719
 10
14.0152658218
 20
2.6750068133
 10
14.0261495402
 20
2.6626756663
 10
14.0323543258
 20
2.649307674
 10
14.0336090346
 20
2.6354870703
 10
14.0298587792
 20
2.6218178609
 10
14.0212674698
 20
2.6088975109
 10
14.0082105804
 20
2.597290677
 10
13.9912587892
 20
2.5875046162
 10
13.9711529846
 20
2.5799670344
 10
13.9487718569
 20
2.5750073771
 10
13.925093552
 20
2.5728424157
 10
13.9011529442
 20
2.5735667287
 10
13.8779963933
 20
2.5771486751
 10
13.8566359059
 20
2.5834317121
 10
13.8380050595
 20
2.5921412192
 10
13.822918116
 20
2.6028965779
 10
13.8120343976
 20
2.6152277248
 10
13.8058296119
 20
2.6285957171
 10
13.8045749291
 20
2.6424163358
 10
13.8083251586
 20
2.6560855302
 10
13.816916468
 20
2.6690058802
 10
13.8299734092
 20
2.6806126842
 10
13.8469252004
 20
2.690398745
 10
13.8670309532
 20
2.6979363567
 10
13.8894120809
 20
2.7028960141
 10
13.9130904117
 20
2.7050609904
 10
13.9370309935
 20
2.7043366625
 10
13.9601875444
 20
2.700754716
 10
13.9815480319
 20
2.6944716791
 10
14.0001788782
 20
2.6857621719
  0
LWPOLYLINE
  5
303
330
1F
100
AcDbEntity
  8
0
  6
Continuous
 62
     7
370
    15
100
AcDbPolyline
 90
       19
 70
   128
 43
0.0
 10
13.8888234873
 20
2.6214780731
 10
13.8802964767
 20
2.6285081882
 10
13.8764487619
 20
2.6367979522
 10
13.8777444352
 20
2.6453474887
 10
13.884027261
 20
2.6531255802
 10
13.8945394203
 20
2.6591941206
 10
13.9080129298
 20
2.6628211187
 10
13.9228227661
 20
2.663569095
 10
13.9371826143
 20
2.6613478565
 10
13.9493604764
 20
2.656425333
 10
13.9578874611
 20
2.6493952029
 10
13.9617351759
 20
2.641105439
 10
13.9604395025
 20
2.6325559024
 10
13.9541566768
 20
2.624777811
 10
13.9436445175
 20
2.6187092706
 10
13.930171008
 20
2.6150822725
 10
13.9153611716
 20
2.6143342962
 10
13.9010013234
 20
2.6165555346
 10
13.8888234873
 20
2.6214780731
  0
LINE
  5
304
330
1F
100
AcDbEntity
  8
0
  6
Continuous
 62
     8
370
    15
100
AcDbLine
 10
14.9908876877
 20
2.566249914
 30
0.0
 11
14.9908876877
 21
2.5837279859
 31
0.0
  0
LINE
  5
305
330
1F
100
AcDbEntity
  8
0
  6
Continuous
 62
     8
370
    15
100
AcDbLine
 10
14.946345552
 20
2.583727956
 30
0.0
 11
14.946345552
 21
2.566249884
 31
0.0
  0
ARC
  5
306
330
1F
100
AcDbEntity
  8
0
  6
Continuous
 62
     8
370
    15
100
AcDbCircle
 10
16.1419394518
 20
3.844847224
 30
0.0
 40
0.0195126339148516
100
AcDbArc
 50
65.1968614601
 51
126.1082254496
  0
ARC
  5
307
330
1F
100
AcDbEntity
  8
0
  6
Continuous
 62
     8
370
    15
100
AcDbCircle
 10
16.1496520398
 20
3.829639555
 30
0.0
 40
0.0216246755516799
100
AcDbArc
 50
293.4025154784
 51
358.2835192642
  0
ARC
  5
308
330
1F
100
AcDbEntity
  8
0
  6
Continuous
 62
     8
370
    15
100
AcDbCircle
 10
13.747738528
 20
5.2275609198
 30
0.0
 40
0.0189907866462099
100
AcDbArc
 50
64.2710753491
 51
127.0390079497
  0
LINE
  5
309
330
1F
100
AcDbEntity
  8
0
  6
Continuous
 62
     8
370
    15
100
AcDbLine
 10
16.1489838364
 20
3.2444550438
 30
0.0
 11
16.1489838364
 21
3.2348045901
 31
0.0
  0
LINE
  5
30A
330
1F
100
AcDbEntity
  8
0
  6
Continuous
 62
     8
370
    15
100
AcDbLine
 10
12.5522044006
 20
3.9483581518
 30
0.0
 11
12.5522044006
 21
3.9580086055
 31
0.0
  0
ARC
  5
30B
330
1F
100
AcDbEntity
  8
0
  6
Continuous
 62
     8
370
    15
100
AcDbCircle
 10
12.5509829303
 20
4.5428203966
 30
0.0
 40
0.0210658893663086
100
AcDbArc
 50
180.8305963735
 51
247.5759912208
  0
ARC
  5
30C
330
1F
100
AcDbEntity
  8
0
  6
Continuous
 62
     8
370
    15
100
AcDbCircle
 10
12.5593051537
 20
4.5589960542
 30
0.0
 40
0.0190010094137175
100
AcDbArc
 50
52.9710031286
 51
115.5993003049
  0
ARC
  5
30D
330
1F
100
AcDbEntity
  8
0
  6
Continuous
 62
     8
370
    15
100
AcDbCircle
 10
13.7173448087
 20
5.2269549444
 30
0.0
 40
0.0195131868178534
100
AcDbArc
 50
53.8921266456
 51
114.7977900556
  0
ARC
  5
30E
330
1F
100
AcDbEntity
  8
0
  6
Continuous
 62
     8
370
    15
100
AcDbCircle
 10
16.3453321477
 20
1.3081418141
 30
0.0
 40
0.0264767810631814
100
AcDbArc
 50
49.2324295012
 51
113.3547556957
  0
ARC
  5
30F
330
1F
100
AcDbEntity
  8
0
  6
Continuous
 62
     8
370
    15
100
AcDbCircle
 10
16.2959524944
 20
1.2652778785
 30
0.0
 40
0.099903905251676
100
AcDbArc
 50
294.6680889341
 51
353.9748808468
  0
LINE
  5
310
330
1F
100
AcDbEntity
  8
0
  6
Continuous
 62
     8
370
    15
100
AcDbLine
 10
16.1517677685
 20
1.6939910167
 30
0.0
 11
16.1517677685
 21
1.665063188
 31
0.0
  0
LINE
  5
311
330
1F
100
AcDbEntity
  8
0
  6
Continuous
 62
     8
370
    15
100
AcDbLine
 10
12.5494205203
 20
2.3786167797
 30
0.0
 11
12.5494205203
 21
2.4075446084
 31
0.0
  0
LINE
  5
312
330
1F
100
AcDbEntity
  8
0
  6
Continuous
 62
     8
370
    15
100
AcDbLine
 10
12.3663521474
 20
2.3543911835
 30
0.0
 11
12.4855420142
 21
2.2352142539
 31
0.0
  0
LINE
  5
313
330
1F
100
AcDbEntity
  8
0
  6
Continuous
 62
     8
370
    15
100
AcDbLine
 10
13.5019795872
 20
2.9767304011
 30
0.0
 11
13.4654706056
 21
2.9888987636
 31
0.0
  0
ARC
  5
314
330
1F
100
AcDbEntity
  8
0
  6
Continuous
 62
     8
370
    15
100
AcDbCircle
 10
12.3851494657
 20
2.3699584089
 30
0.0
 40
0.0792963403998197
100
AcDbArc
 50
181.5927172374
 51
228.1619182036
  0
ARC
  5
315
330
1F
100
AcDbEntity
  8
0
  6
Continuous
 62
     8
370
    15
100
AcDbCircle
 10
12.3798340545
 20
2.4479989423
 30
0.0
 40
0.0198374076081534
100
AcDbArc
 50
54.4112231659
 51
113.977273786
  0
ARC
  5
316
330
1F
100
AcDbEntity
  8
0
  6
Continuous
 62
     8
370
    15
100
AcDbCircle
 10
13.2638427942
 20
2.9583537353
 30
0.0
 40
0.0198020812386752
100
AcDbArc
 50
54.3821924037
 51
114.3074222351
  0
ARC
  5
317
330
1F
100
AcDbEntity
  8
0
  6
Continuous
 62
     8
370
    15
100
AcDbCircle
 10
13.4758364292
 20
2.9815910892
 30
0.0
 40
0.0126827600963089
100
AcDbArc
 50
80.5479336355
 51
144.8170175157
  0
LINE
  5
318
330
1F
100
AcDbEntity
  8
0
  6
Continuous
 62
     7
370
    15
100
AcDbLine
 10
3.2636173886
 20
4.2057890162
 30
0.0
 11
3.2601813216
 21
4.4026394146
 31
0.0
  0
LINE
  5
319
330
1F
100
AcDbEntity
  8
0
  6
Continuous
 62
     7
370
    15
100
AcDbLine
 10
3.030832871
 20
4.4026394146
 30
0.0
 11
3.0273969507
 21
4.2057890162
 31
0.0
  0
LINE
  5
31A
330
1F
100
AcDbEntity
  8
0
  6
Continuous
 62
     7
370
    15
100
AcDbLine
 10
5.586451975
 20
4.2057890162
 30
0.0
 11
5.5830160547
 21
4.4026394146
 31
0.0
  0
LINE
  5
31B
330
1F
100
AcDbEntity
  8
0
  6
Continuous
 62
     7
370
    15
100
AcDbLine
 10
5.3536676041
 20
4.4026394146
 30
0.0
 11
5.3502315372
 21
4.2057890162
 31
0.0
  0
LINE
  5
31C
330
1F
100
AcDbEntity
  8
0
  6
Continuous
 62
     7
370
    15
100
AcDbLine
 10
6.2066409438
 20
4.2845291774
 30
0.0
 11
6.2066409438
 21
4.1270488549
 31
0.0
  0
LINE
  5
31D
330
1F
100
AcDbEntity
  8
0
  6
Continuous
 62
     7
370
    15
100
AcDbLine
 10
6.2066409438
 20
4.1270488549
 30
0.0
 11
2.4072079819
 21
4.1270488549
 31
0.0
  0
LINE
  5
31E
330
1F
100
AcDbEntity
  8
0
  6
Continuous
 62
     7
370
    15
100
AcDbLine
 10
2.4072079819
 20
4.1270488549
 30
0.0
 11
2.4072079819
 21
4.2845291774
 31
0.0
  0
LINE
  5
31F
330
1F
100
AcDbEntity
  8
0
  6
Continuous
 62
     7
370
    15
100
AcDbLine
 10
2.5785779355
 20
4.5207496335
 30
0.0
 11
2.5549559284
 21
4.5207496335
 31
0.0
  0
LINE
  5
320
330
1F
100
AcDbEntity
  8
0
  6
Continuous
 62
     7
370
    15
100
AcDbLine
 10
6.0588929973
 20
4.5207496335
 30
0.0
 11
6.0352709902
 21
4.5207496335
 31
0.0
  0
LINE
  5
321
330
1F
100
AcDbEntity
  8
0
  6
Continuous
 62
     7
370
    15
100
AcDbLine
 10
5.9888688329
 20
4.4616945424
 30
0.0
 11
5.9754574945
 21
4.2057890162
 31
0.0
  0
LINE
  5
322
330
1F
100
AcDbEntity
  8
0
  6
Continuous
 62
     7
370
    15
100
AcDbLine
 10
2.6249800928
 20
4.4616945424
 30
0.0
 11
2.5785779355
 21
4.4616945424
 31
0.0
  0
LINE
  5
323
330
1F
100
AcDbEntity
  8
0
  6
Continuous
 62
     7
370
    15
100
AcDbLine
 10
6.0588929973
 20
4.4813795484
 30
0.0
 11
6.0588929973
 21
4.5207496335
 31
0.0
  0
LINE
  5
324
330
1F
100
AcDbEntity
  8
0
  6
Continuous
 62
     7
370
    15
100
AcDbLine
 10
2.6383914312
 20
4.2057890162
 30
0.0
 11
2.6249800928
 21
4.4616945424
 31
0.0
  0
LINE
  5
325
330
1F
100
AcDbEntity
  8
0
  6
Continuous
 62
     7
370
    15
100
AcDbLine
 10
6.0352709902
 20
4.4616945424
 30
0.0
 11
5.9888688329
 21
4.4616945424
 31
0.0
  0
LINE
  5
326
330
1F
100
AcDbEntity
  8
0
  6
Continuous
 62
     7
370
    15
100
AcDbLine
 10
2.5785779355
 20
4.5207496335
 30
0.0
 11
2.5785779355
 21
4.4616945424
 31
0.0
  0
LINE
  5
327
330
1F
100
AcDbEntity
  8
0
  6
Continuous
 62
     7
370
    15
100
AcDbLine
 10
2.5549559284
 20
4.4813795484
 30
0.0
 11
2.5332075663
 21
4.4813795484
 31
0.0
  0
LINE
  5
328
330
1F
100
AcDbEntity
  8
0
  6
Continuous
 62
     7
370
    15
100
AcDbLine
 10
6.0806413594
 20
4.4813795484
 30
0.0
 11
6.0588929973
 21
4.4813795484
 31
0.0
  0
LINE
  5
329
330
1F
100
AcDbEntity
  8
0
  6
Continuous
 62
     7
370
    15
100
AcDbLine
 10
5.9754574945
 20
4.2057890162
 30
0.0
 11
2.6383914312
 21
4.2057890162
 31
0.0
  0
LINE
  5
32A
330
1F
100
AcDbEntity
  8
0
  6
Continuous
 62
     7
370
    15
100
AcDbLine
 10
2.5549559284
 20
4.5207496335
 30
0.0
 11
2.5549559284
 21
4.4813795484
 31
0.0
  0
LINE
  5
32B
330
1F
100
AcDbEntity
  8
0
  6
Continuous
 62
     7
370
    15
100
AcDbLine
 10
2.5332075663
 20
4.4813795484
 30
0.0
 11
2.5228911522
 21
4.2845291774
 31
0.0
  0
LINE
  5
32C
330
1F
100
AcDbEntity
  8
0
  6
Continuous
 62
     7
370
    15
100
AcDbLine
 10
6.0352709902
 20
4.4616945424
 30
0.0
 11
6.0352709902
 21
4.5207496335
 31
0.0
  0
LINE
  5
32D
330
1F
100
AcDbEntity
  8
0
  6
Continuous
 62
     7
370
    15
100
AcDbLine
 10
6.0909577736
 20
4.2845291774
 30
0.0
 11
6.0806413594
 21
4.4813795484
 31
0.0
  0
LINE
  5
32E
330
1F
100
AcDbEntity
  8
0
  6
Continuous
 62
     7
370
    15
100
AcDbLine
 10
2.5228911522
 20
4.2845291774
 30
0.0
 11
2.4072079819
 21
4.2845291774
 31
0.0
  0
LINE
  5
32F
330
1F
100
AcDbEntity
  8
0
  6
Continuous
 62
     7
370
    15
100
AcDbLine
 10
6.2066409438
 20
4.2845291774
 30
0.0
 11
6.0909577736
 21
4.2845291774
 31
0.0
  0
LINE
  5
330
330
1F
100
AcDbEntity
  8
0
  6
Continuous
 62
     7
370
    15
100
AcDbLine
 10
2.2302628526
 20
4.2845291774
 30
0.0
 11
2.2302628526
 21
4.1270488549
 31
0.0
  0
LINE
  5
331
330
1F
100
AcDbEntity
  8
0
  6
Continuous
 62
     7
370
    15
100
AcDbLine
 10
2.2302628526
 20
4.1270488549
 30
0.0
 11
2.4072079819
 21
4.1270488549
 31
0.0
  0
LINE
  5
332
330
1F
100
AcDbEntity
  8
0
  6
Continuous
 62
     7
370
    15
100
AcDbLine
 10
2.2302628526
 20
4.2845291774
 30
0.0
 11
2.4072079819
 21
4.2845291774
 31
0.0
  0
LINE
  5
333
330
1F
100
AcDbEntity
  8
0
  6
Continuous
 62
     7
370
    15
100
AcDbLine
 10
6.3835860731
 20
4.1270488549
 30
0.0
 11
6.3835860731
 21
4.2845291774
 31
0.0
  0
LINE
  5
334
330
1F
100
AcDbEntity
  8
0
  6
Continuous
 62
     7
370
    15
100
AcDbLine
 10
6.2066409438
 20
4.1270488549
 30
0.0
 11
6.3835860731
 21
4.1270488549
 31
0.0
  0
LINE
  5
335
330
1F
100
AcDbEntity
  8
0
  6
Continuous
 62
     7
370
    15
100
AcDbLine
 10
6.2066409438
 20
4.2845291774
 30
0.0
 11
6.3835860731
 21
4.2845291774
 31
0.0
  0
LINE
  5
336
330
1F
100
AcDbEntity
  8
0
  6
Continuous
 62
     7
370
    15
100
AcDbLine
 10
2.2302628526
 20
4.1270488549
 30
0.0
 11
2.1218850646
 21
4.1270488549
 31
0.0
  0
LINE
  5
337
330
1F
100
AcDbEntity
  8
0
  6
Continuous
 62
     7
370
    15
100
AcDbLine
 10
2.2302628526
 20
4.2845291774
 30
0.0
 11
2.1612552231
 21
4.2845291774
 31
0.0
  0
LINE
  5
338
330
1F
100
AcDbEntity
  8
0
  6
Continuous
 62
     7
370
    15
100
AcDbLine
 10
2.1218850646
 20
4.2451590922
 30
0.0
 11
2.1218850646
 21
4.1270488549
 31
0.0
  0
ARC
  5
339
330
1F
100
AcDbEntity
  8
0
  6
Continuous
 62
     7
370
    15
100
AcDbCircle
 10
2.1612551715
 20
4.2451590912
 30
0.0
 40
0.0393700787401583
100
AcDbArc
 50
90.0
 51
180.0
  0
LINE
  5
33A
330
1F
100
AcDbEntity
  8
0
  6
Continuous
 62
     7
370
    15
100
AcDbLine
 10
6.4919638611
 20
4.1270488549
 30
0.0
 11
6.3835860731
 21
4.1270488549
 31
0.0
  0
LINE
  5
33B
330
1F
100
AcDbEntity
  8
0
  6
Continuous
 62
     7
370
    15
100
AcDbLine
 10
6.4525937026
 20
4.2845291774
 30
0.0
 11
6.3835860731
 21
4.2845291774
 31
0.0
  0
LINE
  5
33C
330
1F
100
AcDbEntity
  8
0
  6
Continuous
 62
     7
370
    15
100
AcDbLine
 10
6.4919638611
 20
4.2451590922
 30
0.0
 11
6.4919638611
 21
4.1270488549
 31
0.0
  0
ARC
  5
33D
330
1F
100
AcDbEntity
  8
0
  6
Continuous
 62
     7
370
    15
100
AcDbCircle
 10
6.4525937542
 20
4.2451590912
 30
0.0
 40
0.0393700787401583
100
AcDbArc
 50
0.0
 51
90.0
  0
LINE
  5
33E
330
1F
100
AcDbEntity
  8
0
  6
Continuous
 62
     7
370
    15
100
AcDbLine
 10
3.2601813216
 20
4.4026394146
 30
0.0
 11
3.030832871
 21
4.4026394146
 31
0.0
  0
LINE
  5
33F
330
1F
100
AcDbEntity
  8
0
  6
Continuous
 62
     7
370
    15
100
AcDbLine
 10
5.5830160547
 20
4.4026394146
 30
0.0
 11
5.3536676041
 21
4.4026394146
 31
0.0
  0
LINE
  5
340
330
1F
100
AcDbEntity
  8
0
  6
Continuous
 62
     7
370
    15
100
AcDbLine
 10
3.991963818
 20
4.382954372
 30
0.0
 11
3.991963818
 21
4.4616945424
 31
0.0
  0
LINE
  5
341
330
1F
100
AcDbEntity
  8
0
  6
Continuous
 62
     7
370
    15
100
AcDbLine
 10
4.6218851077
 20
4.382954372
 30
0.0
 11
3.991963818
 21
4.382954372
 31
0.0
  0
LINE
  5
342
330
1F
100
AcDbEntity
  8
0
  6
Continuous
 62
     7
370
    15
100
AcDbLine
 10
4.6218851077
 20
4.4616945424
 30
0.0
 11
4.6218851077
 21
4.382954372
 31
0.0
  0
LINE
  5
343
330
1F
100
AcDbEntity
  8
0
  6
Continuous
 62
     7
370
    15
100
AcDbLine
 10
2.6249800928
 20
4.4616945424
 30
0.0
 11
3.991963818
 21
4.4616945424
 31
0.0
  0
LINE
  5
344
330
1F
100
AcDbEntity
  8
0
  6
Continuous
 62
     7
370
    15
100
AcDbLine
 10
4.6218851077
 20
4.4616945424
 30
0.0
 11
5.9888688329
 21
4.4616945424
 31
0.0
  0
LINE
  5
345
330
1F
100
AcDbEntity
  8
0
  6
Continuous
 62
     7
370
    15
100
AcDbLine
 10
5.9998379062
 20
4.5207496335
 30
0.0
 11
6.0352709902
 21
4.5207496335
 31
0.0
  0
LINE
  5
346
330
1F
100
AcDbEntity
  8
0
  6
Continuous
 62
     7
370
    15
100
AcDbLine
 10
2.5785779355
 20
4.5207496335
 30
0.0
 11
2.6140110195
 21
4.5207496335
 31
0.0
  0
LINE
  5
347
330
1F
100
AcDbEntity
  8
0
  6
Continuous
 62
     7
370
    15
100
AcDbLine
 10
4.6218851077
 20
4.4616945424
 30
0.0
 11
3.991963818
 21
4.4616945424
 31
0.0
  0
LINE
  5
348
330
1F
100
AcDbEntity
  8
0
  6
Continuous
 62
     7
370
    15
100
AcDbLine
 10
2.6140110195
 20
4.5207496335
 30
0.0
 11
5.9998379062
 21
4.5207496335
 31
0.0
  0
HATCH
  5
349
330
1F
100
AcDbEntity
  8
0
  6
Continuous
 62
     7
370
     0
100
AcDbHatch
 10
0.0
 20
0.0
 30
0.0
210
0.0
220
0.0
230
1.0
  2
ANSI31
 70
     0
 71
     0
 91
        1
 92
        0
 93
        5
 72
     1
 10
2.230262919953298
 20
4.284529169904697
 11
2.161255171523462
 21
4.284529169904697
 72
     2
 10
2.161255171523462
 20
4.245159091164538
 40
0.0393700787401575
 50
90.0
 51
180.0
 73
     1
 72
     1
 10
2.121885092783305
 20
4.245159091164538
 11
2.121885092783305
 21
4.127048854944066
 72
     1
 10
2.121885092783305
 20
4.127048854944066
 11
2.230262919953298
 21
4.127048854944066
 72
     1
 10
2.230262919953298
 20
4.127048854944066
 11
2.230262919953298
 21
4.284529169904697
 97
        0
 75
     0
 76
     1
 52
0.0
 41
1.0
 77
     0
 78
     1
 53
45.0
 43
0.0
 44
0.0
 45
-0.0883883476483184
 46
0.0883883476483184
 79
     0
 98
        1
 10
0.0
 20
0.0
  0
HATCH
  5
34A
330
1F
100
AcDbEntity
  8
0
  6
Continuous
 62
     7
370
     0
100
AcDbHatch
 10
0.0
 20
0.0
 30
0.0
210
0.0
220
0.0
230
1.0
  2
ANSI31
 70
     0
 71
     0
 91
        1
 92
        0
 93
       20
 72
     1
 10
5.98886888534533
 20
4.461694524235404
 11
5.975457445765024
 21
4.205789012424381
 72
     1
 10
5.975457445765024
 20
4.205789012424381
 11
2.638391479959066
 21
4.205789012424381
 72
     1
 10
2.638391479959066
 20
4.205789012424381
 11
2.62498004037876
 21
4.461694524235404
 72
     1
 10
2.62498004037876
 20
4.461694524235404
 11
2.578578006169131
 21
4.461694524235404
 72
     1
 10
2.578578006169131
 20
4.461694524235404
 11
2.578578006169132
 21
4.520749642345641
 72
     1
 10
2.578578006169132
 20
4.520749642345641
 11
2.554955958925037
 21
4.520749642345641
 72
     1
 10
2.554955958925037
 20
4.520749642345641
 11
2.554955958925037
 21
4.481379563605484
 72
     1
 10
2.554955958925037
 20
4.481379563605484
 11
2.533207621158128
 21
4.481379563608151
 72
     1
 10
2.533207621158128
 20
4.481379563608151
 11
2.522891129173205
 21
4.284529169904697
 72
     1
 10
2.522891129173205
 20
4.284529169904697
 11
2.407208053014886
 21
4.284529169904697
 72
     1
 10
2.407208053014886
 20
4.284529169904697
 11
2.407208053014886
 21
4.127048854944066
 72
     1
 10
2.407208053014886
 20
4.127048854944066
 11
6.206640872709204
 21
4.127048854944066
 72
     1
 10
6.206640872709204
 20
4.127048854944066
 11
6.206640872709204
 21
4.284529169904697
 72
     1
 10
6.206640872709204
 20
4.284529169904697
 11
6.090957796550885
 21
4.284529169904697
 72
     1
 10
6.090957796550885
 20
4.284529169904697
 11
6.080641304565962
 21
4.481379563608151
 72
     1
 10
6.080641304565962
 20
4.481379563608151
 11
6.058892966799053
 21
4.481379563605484
 72
     1
 10
6.058892966799053
 20
4.481379563605484
 11
6.058892966799053
 21
4.520749642345641
 72
     1
 10
6.058892966799053
 20
4.520749642345641
 11
6.035270919554959
 21
4.520749642345641
 72
     1
 10
6.035270919554959
 20
4.520749642345641
 11
6.035270919554959
 21
4.461694524235404
 72
     1
 10
6.035270919554959
 20
4.461694524235404
 11
5.98886888534533
 21
4.461694524235404
 97
        0
 75
     0
 76
     1
 52
0.0
 41
1.0
 77
     0
 78
     1
 53
45.0
 43
0.0
 44
0.0
 45
-0.0883883476483184
 46
0.0883883476483184
 79
     0
 98
        1
 10
0.0
 20
0.0
  0
HATCH
  5
34B
330
1F
100
AcDbEntity
  8
0
  6
Continuous
 62
     7
370
     0
100
AcDbHatch
 10
0.0
 20
0.0
 30
0.0
210
0.0
220
0.0
230
1.0
  2
ANSI31
 70
     0
 71
     0
 91
        1
 92
        0
 93
        5
 72
     1
 10
6.491963832940786
 20
4.127048854944066
 11
6.491963832940786
 21
4.245159091164538
 72
     2
 10
6.452593754200628
 20
4.245159091164538
 40
0.0393700787401575
 50
0.0
 51
90.0
 73
     1
 72
     1
 10
6.452593754200628
 20
4.284529169904697
 11
6.383586005770792
 21
4.284529169904697
 72
     1
 10
6.383586005770792
 20
4.284529169904697
 11
6.383586005770792
 21
4.127048854944066
 72
     1
 10
6.383586005770792
 20
4.127048854944066
 11
6.491963832940786
 21
4.127048854944066
 97
        0
 75
     0
 76
     1
 52
0.0
 41
1.0
 77
     0
 78
     1
 53
45.0
 43
0.0
 44
0.0
 45
-0.0883883476483184
 46
0.0883883476483184
 79
     0
 98
        1
 10
0.0
 20
0.0
  0
DIMENSION
  5
34C
330
1F
100
AcDbEntity
  8
0
  6
Continuous
 62
     7
370
     0
100
AcDbDimension
  2
*D24
 10
5.7874639656
 20
4.1270488549
 30
0.0
 11
5.7874639656
 21
3.8049887392
 31
0.0
 70
   160
 71
     2
 42
-1.0
  3
SLDDIMSTYLE5
100
AcDbAlignedDimension
 13
5.9754574458
 23
4.2057890124
 33
0.0
 14
6.2066408727
 24
4.1270488549
 34
0.0
 50
90.0
100
AcDbRotatedDimension
  0
DIMENSION
  5
360
330
1F
100
AcDbEntity
  8
0
  6
Continuous
 62
     7
370
     0
100
AcDbDimension
  2
*D25
 10
2.8674472997
 20
4.4026394061
 30
0.0
 11
2.8674472997
 21
4.8009715779
 31
0.0
 70
   160
 71
     2
 42
-1.0
  3
SLDDIMSTYLE6
100
AcDbAlignedDimension
 13
2.63839148
 23
4.2057890124
 33
0.0
 14
3.0308329402
 24
4.4026394061
 34
0.0
 50
90.0
100
AcDbRotatedDimension
  0
DIMENSION
  5
375
330
1F
100
AcDbEntity
  8
0
  6
Continuous
 62
     7
370
     0
100
AcDbDimension
  2
*D26
 10
1.8364456556
 20
4.1270488549
 30
0.0
 11
1.8364456556
 21
3.7967201177
 31
0.0
 70
   160
 71
     2
 42
-1.0
  3
SLDDIMSTYLE5
100
AcDbAlignedDimension
 13
2.1612551715
 23
4.2845291699
 33
0.0
 14
2.1218850928
 24
4.1270488549
 34
0.0
 50
90.0
100
AcDbRotatedDimension
  0
DIMENSION
  5
38A
330
1F
100
AcDbEntity
  8
0
  6
Continuous
 62
     7
370
     0
100
AcDbDimension
  2
*D27
 10
1.2977639145
 20
4.5207496423
 30
0.0
 11
1.2977639145
 21
4.8009715779
 31
0.0
 70
   160
 71
     2
 42
-1.0
  3
SLDDIMSTYLE5
100
AcDbAlignedDimension
 13
2.1218850928
 23
4.1270488549
 33
0.0
 14
2.5549559589
 24
4.5207496423
 34
0.0
 50
90.0
100
AcDbRotatedDimension
  0
MTEXT
  5
39F
330
1F
100
AcDbEntity
  8
0
  6
Continuous
 62
     7
370
     0
100
AcDbMText
 10
4.38921612
 20
3.8624679304
 30
0.0
 40
0.125
 41
0.0
 71
     2
 72
     1
  1
\LSECTION A-A
  7
SLDTEXTSTYLE0
 73
     1
 44
1.0
  0
LINE
  5
3A0
330
1F
100
AcDbEntity
  8
0
  6
Continuous
 62
     7
370
    15
100
AcDbLine
 10
10.2262367029
 20
6.4152240983
 30
0.0
 11
9.6750555835
 21
6.4152240983
 31
0.0
  0
LINE
  5
3A1
330
1F
100
AcDbEntity
  8
0
  6
Continuous
 62
     7
370
    15
100
AcDbLine
 10
9.6750555835
 20
6.4152240983
 30
0.0
 11
9.6750555835
 21
6.4512845418
 31
0.0
  0
LINE
  5
3A2
330
1F
100
AcDbEntity
  8
0
  6
Continuous
 62
     7
370
    15
100
AcDbLine
 10
9.6750555835
 20
6.4512845418
 30
0.0
 11
10.2262367029
 21
6.4512845418
 31
0.0
  0
LINE
  5
3A3
330
1F
100
AcDbEntity
  8
0
  6
Continuous
 62
     7
370
    15
100
AcDbLine
 10
10.2262367029
 20
6.4152240983
 30
0.0
 11
10.2262367029
 21
6.4512845418
 31
0.0
  0
LINE
  5
3A4
330
1F
100
AcDbEntity
  8
0
  6
Continuous
 62
     7
370
    15
100
AcDbLine
 10
8.2975878795
 20
6.4892492832
 30
0.0
 11
8.262511778
 21
6.4541731817
 31
0.0
  0
LINE
  5
3A5
330
1F
100
AcDbEntity
  8
0
  6
Continuous
 62
     7
370
    15
100
AcDbLine
 10
11.6037044069
 20
6.4892492832
 30
0.0
 11
8.2975878795
 21
6.4892492832
 31
0.0
  0
LINE
  5
3A6
330
1F
100
AcDbEntity
  8
0
  6
Continuous
 62
     7
370
    15
100
AcDbLine
 10
11.6387805084
 20
6.4541731817
 30
0.0
 11
11.6037044069
 21
6.4892492832
 31
0.0
  0
LINE
  5
3A7
330
1F
100
AcDbEntity
  8
0
  6
Continuous
 62
     7
370
    15
100
AcDbLine
 10
10.2656067881
 20
6.4541731817
 30
0.0
 11
11.6387805084
 21
6.4541731817
 31
0.0
  0
LINE
  5
3A8
330
1F
100
AcDbEntity
  8
0
  6
Continuous
 62
     7
370
    15
100
AcDbLine
 10
10.2656067881
 20
6.457268106
 30
0.0
 11
10.2656067881
 21
6.4541731817
 31
0.0
  0
LINE
  5
3A9
330
1F
100
AcDbEntity
  8
0
  6
Continuous
 62
     7
370
    15
100
AcDbLine
 10
10.2262367029
 20
6.457268106
 30
0.0
 11
10.2656067881
 21
6.457268106
 31
0.0
  0
LINE
  5
3AA
330
1F
100
AcDbEntity
  8
0
  6
Continuous
 62
     7
370
    15
100
AcDbLine
 10
10.2262367029
 20
6.4512845418
 30
0.0
 11
10.2262367029
 21
6.457268106
 31
0.0
  0
LINE
  5
3AB
330
1F
100
AcDbEntity
  8
0
  6
Continuous
 62
     7
370
    15
100
AcDbLine
 10
9.6356854983
 20
6.457268106
 30
0.0
 11
9.6750555835
 21
6.457268106
 31
0.0
  0
LINE
  5
3AC
330
1F
100
AcDbEntity
  8
0
  6
Continuous
 62
     7
370
    15
100
AcDbLine
 10
9.6356854983
 20
6.4541731817
 30
0.0
 11
9.6356854983
 21
6.457268106
 31
0.0
  0
LINE
  5
3AD
330
1F
100
AcDbEntity
  8
0
  6
Continuous
 62
     7
370
    15
100
AcDbLine
 10
8.262511778
 20
6.4541731817
 30
0.0
 11
9.6356854983
 21
6.4541731817
 31
0.0
  0
LINE
  5
3AE
330
1F
100
AcDbEntity
  8
0
  6
Continuous
 62
     7
370
    15
100
AcDbLine
 10
9.6750555835
 20
6.457268106
 30
0.0
 11
9.6750555835
 21
6.4512845418
 31
0.0
  0
LINE
  5
3AF
330
1F
100
AcDbEntity
  8
0
  6
Continuous
 62
     7
370
    15
100
AcDbLine
 10
10.2656067881
 20
8.0793153813
 30
0.0
 11
10.2262367029
 21
8.0793153813
 31
0.0
  0
LINE
  5
3B0
330
1F
100
AcDbEntity
  8
0
  6
Continuous
 62
     7
370
    15
100
AcDbLine
 10
10.2656067881
 20
8.0824103055
 30
0.0
 11
10.2656067881
 21
8.0793153813
 31
0.0
  0
LINE
  5
3B1
330
1F
100
AcDbEntity
  8
0
  6
Continuous
 62
     7
370
    15
100
AcDbLine
 10
11.6387805084
 20
8.0824103055
 30
0.0
 11
10.2656067881
 21
8.0824103055
 31
0.0
  0
LINE
  5
3B2
330
1F
100
AcDbEntity
  8
0
  6
Continuous
 62
     7
370
    15
100
AcDbLine
 10
11.6037044069
 20
8.0473342041
 30
0.0
 11
11.6387805084
 21
8.0824103055
 31
0.0
  0
LINE
  5
3B3
330
1F
100
AcDbEntity
  8
0
  6
Continuous
 62
     7
370
    15
100
AcDbLine
 10
8.2975878795
 20
8.0473342041
 30
0.0
 11
11.6037044069
 21
8.0473342041
 31
0.0
  0
LINE
  5
3B4
330
1F
100
AcDbEntity
  8
0
  6
Continuous
 62
     7
370
    15
100
AcDbLine
 10
8.2975878795
 20
8.0473342041
 30
0.0
 11
8.262511778
 21
8.0824103055
 31
0.0
  0
LINE
  5
3B5
330
1F
100
AcDbEntity
  8
0
  6
Continuous
 62
     7
370
    15
100
AcDbLine
 10
9.6356854983
 20
8.0824103055
 30
0.0
 11
8.262511778
 21
8.0824103055
 31
0.0
  0
LINE
  5
3B6
330
1F
100
AcDbEntity
  8
0
  6
Continuous
 62
     7
370
    15
100
AcDbLine
 10
9.6356854983
 20
8.0793153813
 30
0.0
 11
9.6356854983
 21
8.0824103055
 31
0.0
  0
LINE
  5
3B7
330
1F
100
AcDbEntity
  8
0
  6
Continuous
 62
     7
370
    15
100
AcDbLine
 10
9.6750555835
 20
8.0793153813
 30
0.0
 11
9.6356854983
 21
8.0793153813
 31
0.0
  0
LINE
  5
3B8
330
1F
100
AcDbEntity
  8
0
  6
Continuous
 62
     7
370
    15
100
AcDbLine
 10
9.6750555835
 20
8.0852989455
 30
0.0
 11
9.6750555835
 21
8.0793153813
 31
0.0
  0
LINE
  5
3B9
330
1F
100
AcDbEntity
  8
0
  6
Continuous
 62
     7
370
    15
100
AcDbLine
 10
10.2262367029
 20
8.0852989455
 30
0.0
 11
9.6750555835
 21
8.0852989455
 31
0.0
  0
LINE
  5
3BA
330
1F
100
AcDbEntity
  8
0
  6
Continuous
 62
     7
370
    15
100
AcDbLine
 10
10.2262367029
 20
8.0793153813
 30
0.0
 11
10.2262367029
 21
8.0852989455
 31
0.0
  0
LINE
  5
3BB
330
1F
100
AcDbEntity
  8
0
  6
Continuous
 62
     7
370
    15
100
AcDbLine
 10
10.2262367029
 20
8.1213593889
 30
0.0
 11
10.2262367029
 21
8.0852989455
 31
0.0
  0
LINE
  5
3BC
330
1F
100
AcDbEntity
  8
0
  6
Continuous
 62
     7
370
    15
100
AcDbLine
 10
9.6750555835
 20
8.0852989455
 30
0.0
 11
9.6750555835
 21
8.1213593889
 31
0.0
  0
LINE
  5
3BD
330
1F
100
AcDbEntity
  8
0
  6
Continuous
 62
     7
370
    15
100
AcDbLine
 10
10.2262367029
 20
8.1213593889
 30
0.0
 11
9.6750555835
 21
8.1213593889
 31
0.0
  0
LINE
  5
3BE
330
1F
100
AcDbEntity
  8
0
  6
Continuous
 62
     7
370
    15
100
AcDbLine
 10
10.2262367029
 20
6.3988205745
 30
0.0
 11
9.6750555835
 21
6.3988205745
 31
0.0
  0
LINE
  5
3BF
330
1F
100
AcDbEntity
  8
0
  6
Continuous
 62
     7
370
    15
100
AcDbLine
 10
10.2262367029
 20
6.3988205745
 30
0.0
 11
10.2262367029
 21
6.4152240983
 31
0.0
  0
LINE
  5
3C0
330
1F
100
AcDbEntity
  8
0
  6
Continuous
 62
     7
370
    15
100
AcDbLine
 10
9.6750555835
 20
6.4152240983
 30
0.0
 11
9.6750555835
 21
6.3988205745
 31
0.0
  0
LINE
  5
3C1
330
1F
100
AcDbEntity
  8
0
  6
Continuous
 62
     7
370
    15
100
AcDbLine
 10
9.6750555835
 20
8.1377629127
 30
0.0
 11
10.2262367029
 21
8.1377629127
 31
0.0
  0
LINE
  5
3C2
330
1F
100
AcDbEntity
  8
0
  6
Continuous
 62
     7
370
    15
100
AcDbLine
 10
10.2262367029
 20
8.1377629127
 30
0.0
 11
10.2262367029
 21
8.1213593889
 31
0.0
  0
LINE
  5
3C3
330
1F
100
AcDbEntity
  8
0
  6
Continuous
 62
     7
370
    15
100
AcDbLine
 10
9.6750555835
 20
8.1213593889
 30
0.0
 11
9.6750555835
 21
8.1377629127
 31
0.0
  0
LINE
  5
3C4
330
1F
100
AcDbEntity
  8
0
  6
Continuous
 62
     7
370
    15
100
AcDbLine
 10
8.2262366904
 20
7.622622437
 30
0.0
 11
8.2546270691
 21
7.622622437
 31
0.0
  0
LINE
  5
3C5
330
1F
100
AcDbEntity
  8
0
  6
Continuous
 62
     7
370
    15
100
AcDbLine
 10
8.2546270691
 20
7.8588429115
 30
0.0
 11
8.2546270691
 21
7.622622437
 31
0.0
  0
LINE
  5
3C6
330
1F
100
AcDbEntity
  8
0
  6
Continuous
 62
     7
370
    15
100
AcDbLine
 10
8.2546270691
 20
7.8588429115
 30
0.0
 11
8.2262366904
 21
7.8588429115
 31
0.0
  0
LINE
  5
3C7
330
1F
100
AcDbEntity
  8
0
  6
Continuous
 62
     7
370
    15
100
AcDbLine
 10
8.2262366904
 20
8.0871893836
 30
0.0
 11
8.2262366904
 21
7.8588429115
 31
0.0
  0
ARC
  5
3C8
330
1F
100
AcDbEntity
  8
0
  6
Continuous
 62
     7
370
    15
100
AcDbCircle
 10
8.2577327574
 20
8.0871893814
 30
0.0
 40
0.0314960629921277
100
AcDbArc
 50
90.0
 51
180.0
  0
LINE
  5
3C9
330
1F
100
AcDbEntity
  8
0
  6
Continuous
 62
     7
370
    15
100
AcDbLine
 10
9.6356854983
 20
8.1186854665
 30
0.0
 11
8.2577326999
 21
8.1186854665
 31
0.0
  0
LINE
  5
3CA
330
1F
100
AcDbEntity
  8
0
  6
Continuous
 62
     7
370
    15
100
AcDbLine
 10
9.6356854983
 20
8.0824103055
 30
0.0
 11
9.6356854983
 21
8.1186854665
 31
0.0
  0
LINE
  5
3CB
330
1F
100
AcDbEntity
  8
0
  6
Continuous
 62
     7
370
    15
100
AcDbLine
 10
8.262511778
 20
8.0824103055
 30
0.0
 11
8.262511778
 21
6.4541731817
 31
0.0
  0
LINE
  5
3CC
330
1F
100
AcDbEntity
  8
0
  6
Continuous
 62
     7
370
    15
100
AcDbLine
 10
9.6356854983
 20
6.4178980208
 30
0.0
 11
9.6356854983
 21
6.4541731817
 31
0.0
  0
LINE
  5
3CD
330
1F
100
AcDbEntity
  8
0
  6
Continuous
 62
     7
370
    15
100
AcDbLine
 10
8.2577326999
 20
6.4178980208
 30
0.0
 11
9.6356854983
 21
6.4178980208
 31
0.0
  0
ARC
  5
3CE
330
1F
100
AcDbEntity
  8
0
  6
Continuous
 62
     7
370
    15
100
AcDbCircle
 10
8.2577327574
 20
6.4493941058
 30
0.0
 40
0.0314960629921277
100
AcDbArc
 50
180.0
 51
270.0
  0
LINE
  5
3CF
330
1F
100
AcDbEntity
  8
0
  6
Continuous
 62
     7
370
    15
100
AcDbLine
 10
8.2262366904
 20
6.6777405757
 30
0.0
 11
8.2262366904
 21
6.4493941036
 31
0.0
  0
LINE
  5
3D0
330
1F
100
AcDbEntity
  8
0
  6
Continuous
 62
     7
370
    15
100
AcDbLine
 10
8.2262366904
 20
6.6777405757
 30
0.0
 11
8.2546270691
 21
6.6777405757
 31
0.0
  0
LINE
  5
3D1
330
1F
100
AcDbEntity
  8
0
  6
Continuous
 62
     7
370
    15
100
AcDbLine
 10
8.2546270691
 20
6.9139610502
 30
0.0
 11
8.2546270691
 21
6.6777405757
 31
0.0
  0
LINE
  5
3D2
330
1F
100
AcDbEntity
  8
0
  6
Continuous
 62
     7
370
    15
100
AcDbLine
 10
8.2546270691
 20
6.9139610502
 30
0.0
 11
8.2262366904
 21
6.9139610502
 31
0.0
  0
LINE
  5
3D3
330
1F
100
AcDbEntity
  8
0
  6
Continuous
 62
     7
370
    15
100
AcDbLine
 10
8.2262366904
 20
7.622622437
 30
0.0
 11
8.2262366904
 21
6.9139610502
 31
0.0
  0
LINE
  5
3D4
330
1F
100
AcDbEntity
  8
0
  6
Continuous
 62
     7
370
    15
100
AcDbLine
 10
11.675055596
 20
6.9139610502
 30
0.0
 11
11.6466652173
 21
6.9139610502
 31
0.0
  0
LINE
  5
3D5
330
1F
100
AcDbEntity
  8
0
  6
Continuous
 62
     7
370
    15
100
AcDbLine
 10
11.6466652173
 20
6.6777405757
 30
0.0
 11
11.6466652173
 21
6.9139610502
 31
0.0
  0
LINE
  5
3D6
330
1F
100
AcDbEntity
  8
0
  6
Continuous
 62
     7
370
    15
100
AcDbLine
 10
11.6466652173
 20
6.6777405757
 30
0.0
 11
11.675055596
 21
6.6777405757
 31
0.0
  0
LINE
  5
3D7
330
1F
100
AcDbEntity
  8
0
  6
Continuous
 62
     7
370
    15
100
AcDbLine
 10
11.675055596
 20
6.4493941036
 30
0.0
 11
11.675055596
 21
6.6777405757
 31
0.0
  0
ARC
  5
3D8
330
1F
100
AcDbEntity
  8
0
  6
Continuous
 62
     7
370
    15
100
AcDbCircle
 10
11.643559529
 20
6.4493941058
 30
0.0
 40
0.0314960629921259
100
AcDbArc
 50
270.0
 51
0.0
  0
LINE
  5
3D9
330
1F
100
AcDbEntity
  8
0
  6
Continuous
 62
     7
370
    15
100
AcDbLine
 10
10.2656067881
 20
6.4178980208
 30
0.0
 11
11.6435595865
 21
6.4178980208
 31
0.0
  0
LINE
  5
3DA
330
1F
100
AcDbEntity
  8
0
  6
Continuous
 62
     7
370
    15
100
AcDbLine
 10
10.2656067881
 20
6.4541731817
 30
0.0
 11
10.2656067881
 21
6.4178980208
 31
0.0
  0
LINE
  5
3DB
330
1F
100
AcDbEntity
  8
0
  6
Continuous
 62
     7
370
    15
100
AcDbLine
 10
11.6387805084
 20
6.4541731817
 30
0.0
 11
11.6387805084
 21
8.0824103055
 31
0.0
  0
LINE
  5
3DC
330
1F
100
AcDbEntity
  8
0
  6
Continuous
 62
     7
370
    15
100
AcDbLine
 10
10.2656067881
 20
8.0824103055
 30
0.0
 11
10.2656067881
 21
8.1186854665
 31
0.0
  0
LINE
  5
3DD
330
1F
100
AcDbEntity
  8
0
  6
Continuous
 62
     7
370
    15
100
AcDbLine
 10
11.6435595865
 20
8.1186854665
 30
0.0
 11
10.2656067881
 21
8.1186854665
 31
0.0
  0
ARC
  5
3DE
330
1F
100
AcDbEntity
  8
0
  6
Continuous
 62
     7
370
    15
100
AcDbCircle
 10
11.643559529
 20
8.0871893814
 30
0.0
 40
0.0314960629921259
100
AcDbArc
 50
0.0
 51
90.0
  0
LINE
  5
3DF
330
1F
100
AcDbEntity
  8
0
  6
Continuous
 62
     7
370
    15
100
AcDbLine
 10
11.675055596
 20
7.8588429115
 30
0.0
 11
11.675055596
 21
8.0871893836
 31
0.0
  0
LINE
  5
3E0
330
1F
100
AcDbEntity
  8
0
  6
Continuous
 62
     7
370
    15
100
AcDbLine
 10
11.675055596
 20
7.8588429115
 30
0.0
 11
11.6466652173
 21
7.8588429115
 31
0.0
  0
LINE
  5
3E1
330
1F
100
AcDbEntity
  8
0
  6
Continuous
 62
     7
370
    15
100
AcDbLine
 10
11.6466652173
 20
7.622622437
 30
0.0
 11
11.6466652173
 21
7.8588429115
 31
0.0
  0
LINE
  5
3E2
330
1F
100
AcDbEntity
  8
0
  6
Continuous
 62
     7
370
    15
100
AcDbLine
 10
11.6466652173
 20
7.622622437
 30
0.0
 11
11.675055596
 21
7.622622437
 31
0.0
  0
LINE
  5
3E3
330
1F
100
AcDbEntity
  8
0
  6
Continuous
 62
     7
370
    15
100
AcDbLine
 10
11.675055596
 20
6.9139610502
 30
0.0
 11
11.675055596
 21
7.622622437
 31
0.0
  0
LINE
  5
3E4
330
1F
100
AcDbEntity
  8
0
  6
Continuous
 62
     7
370
    15
100
AcDbLine
 10
11.6037044069
 20
8.0473342041
 30
0.0
 11
11.6037044069
 21
6.4892492832
 31
0.0
  0
LINE
  5
3E5
330
1F
100
AcDbEntity
  8
0
  6
Continuous
 62
     7
370
    15
100
AcDbLine
 10
8.2975878795
 20
6.4892492832
 30
0.0
 11
8.2975878795
 21
8.0473342041
 31
0.0
  0
LINE
  5
3E6
330
1F
100
AcDbEntity
  8
0
  6
Continuous
 62
     7
370
    15
100
AcDbLine
 10
8.1789925295
 20
7.8588429115
 30
0.0
 11
8.1789925295
 21
8.0871893836
 31
0.0
  0
ARC
  5
3E7
330
1F
100
AcDbEntity
  8
0
  6
Continuous
 62
     7
370
    15
100
AcDbCircle
 10
8.2577327574
 20
8.0871893814
 30
0.0
 40
0.0787401574803255
100
AcDbArc
 50
90.0
 51
179.9999999999
  0
LINE
  5
3E8
330
1F
100
AcDbEntity
  8
0
  6
Continuous
 62
     7
370
    15
100
AcDbLine
 10
8.2577326999
 20
8.165929554
 30
0.0
 11
11.6435595865
 21
8.165929554
 31
0.0
  0
ARC
  5
3E9
330
1F
100
AcDbEntity
  8
0
  6
Continuous
 62
     7
370
    15
100
AcDbCircle
 10
11.643559529
 20
8.0871893814
 30
0.0
 40
0.0787401574803255
100
AcDbArc
 50
0.0000000001
 51
90.0
  0
LINE
  5
3EA
330
1F
100
AcDbEntity
  8
0
  6
Continuous
 62
     7
370
    15
100
AcDbLine
 10
11.7222997569
 20
8.0871893836
 30
0.0
 11
11.7222997569
 21
7.8588429115
 31
0.0
  0
LINE
  5
3EB
330
1F
100
AcDbEntity
  8
0
  6
Continuous
 62
     7
370
    15
100
AcDbLine
 10
11.7222997569
 20
7.8588429115
 30
0.0
 11
11.675055596
 21
7.8588429115
 31
0.0
  0
LINE
  5
3EC
330
1F
100
AcDbEntity
  8
0
  6
Continuous
 62
     7
370
    15
100
AcDbLine
 10
8.2262366904
 20
7.8588429115
 30
0.0
 11
8.1789925295
 21
7.8588429115
 31
0.0
  0
LINE
  5
3ED
330
1F
100
AcDbEntity
  8
0
  6
Continuous
 62
     7
370
    15
100
AcDbLine
 10
11.7222997569
 20
6.6777405757
 30
0.0
 11
11.7222997569
 21
6.4493941036
 31
0.0
  0
ARC
  5
3EE
330
1F
100
AcDbEntity
  8
0
  6
Continuous
 62
     7
370
    15
100
AcDbCircle
 10
11.643559529
 20
6.4493941058
 30
0.0
 40
0.0787401574803237
100
AcDbArc
 50
270.0
 51
0.0000000001
  0
LINE
  5
3EF
330
1F
100
AcDbEntity
  8
0
  6
Continuous
 62
     7
370
    15
100
AcDbLine
 10
11.6435595865
 20
6.3706539332
 30
0.0
 11
8.2577326999
 21
6.3706539332
 31
0.0
  0
ARC
  5
3F0
330
1F
100
AcDbEntity
  8
0
  6
Continuous
 62
     7
370
    15
100
AcDbCircle
 10
8.2577327574
 20
6.4493941058
 30
0.0
 40
0.0787401574803255
100
AcDbArc
 50
179.9999999999
 51
270.0
  0
LINE
  5
3F1
330
1F
100
AcDbEntity
  8
0
  6
Continuous
 62
     7
370
    15
100
AcDbLine
 10
8.1789925295
 20
6.4493941036
 30
0.0
 11
8.1789925295
 21
6.6777405757
 31
0.0
  0
LINE
  5
3F2
330
1F
100
AcDbEntity
  8
0
  6
Continuous
 62
     7
370
    15
100
AcDbLine
 10
8.2262366904
 20
6.6777405757
 30
0.0
 11
8.1789925295
 21
6.6777405757
 31
0.0
  0
LINE
  5
3F3
330
1F
100
AcDbEntity
  8
0
  6
Continuous
 62
     7
370
    15
100
AcDbLine
 10
11.675055596
 20
6.6777405757
 30
0.0
 11
11.7222997569
 21
6.6777405757
 31
0.0
  0
LINE
  5
3F4
330
1F
100
AcDbEntity
  8
0
  6
Continuous
 62
     7
370
    15
100
AcDbLine
 10
8.1789925295
 20
6.9139610502
 30
0.0
 11
8.1789925295
 21
7.622622437
 31
0.0
  0
LINE
  5
3F5
330
1F
100
AcDbEntity
  8
0
  6
Continuous
 62
     7
370
    15
100
AcDbLine
 10
8.1789925295
 20
6.9139610502
 30
0.0
 11
8.2262366904
 21
6.9139610502
 31
0.0
  0
LINE
  5
3F6
330
1F
100
AcDbEntity
  8
0
  6
Continuous
 62
     7
370
    15
100
AcDbLine
 10
8.1789925295
 20
7.622622437
 30
0.0
 11
8.2262366904
 21
7.622622437
 31
0.0
  0
LINE
  5
3F7
330
1F
100
AcDbEntity
  8
0
  6
Continuous
 62
     7
370
    15
100
AcDbLine
 10
11.7222997569
 20
7.622622437
 30
0.0
 11
11.7222997569
 21
6.9139610502
 31
0.0
  0
LINE
  5
3F8
330
1F
100
AcDbEntity
  8
0
  6
Continuous
 62
     7
370
    15
100
AcDbLine
 10
11.7222997569
 20
7.622622437
 30
0.0
 11
11.675055596
 21
7.622622437
 31
0.0
  0
LINE
  5
3F9
330
1F
100
AcDbEntity
  8
0
  6
Continuous
 62
     7
370
    15
100
AcDbLine
 10
11.7222997569
 20
6.9139610502
 30
0.0
 11
11.675055596
 21
6.9139610502
 31
0.0
  0
ARC
  5
3FA
330
1F
100
AcDbEntity
  8
0
  6
Continuous
 62
     7
370
    15
100
AcDbCircle
 10
9.9552438391
 20
6.4792009263
 30
0.0
 40
0.1095790660484902
100
AcDbArc
 50
267.5952895565
 51
277.8699230462
  0
ARC
  5
3FB
330
1F
100
AcDbEntity
  8
0
  6
Continuous
 62
     7
370
    15
100
AcDbCircle
 10
9.9460484473
 20
6.4792009263
 30
0.0
 40
0.1095790660483254
100
AcDbArc
 50
262.1300769538
 51
272.4047104435
  0
ARC
  5
3FC
330
1F
100
AcDbEntity
  8
0
  6
Continuous
 62
     7
370
    15
100
AcDbCircle
 10
9.9506461432
 20
7.9976727563
 30
0.0
 40
0.1693947432699593
100
AcDbArc
 50
83.355048218
 51
96.644951782
  0
LINE
  5
3FD
330
1F
100
AcDbEntity
  8
0
  6
Continuous
 62
     7
370
    15
100
AcDbLine
 10
8.1853076299
 20
7.622622437
 30
0.0
 11
8.1853076299
 21
7.8588429115
 31
0.0
  0
LINE
  5
3FE
330
1F
100
AcDbEntity
  8
0
  6
Continuous
 62
     7
370
    15
100
AcDbLine
 10
11.7159846565
 20
6.9139610502
 30
0.0
 11
11.7159846565
 21
6.6777405757
 31
0.0
  0
LINE
  5
3FF
330
1F
100
AcDbEntity
  8
0
  6
Continuous
 62
     7
370
    15
100
AcDbLine
 10
11.7159846565
 20
7.8588429115
 30
0.0
 11
11.7159846565
 21
7.622622437
 31
0.0
  0
LINE
  5
400
330
1F
100
AcDbEntity
  8
0
  6
Continuous
 62
     7
370
    15
100
AcDbLine
 10
8.1853076299
 20
6.6777405757
 30
0.0
 11
8.1853076299
 21
6.9139610502
 31
0.0
  0
DIMENSION
  5
401
330
1F
100
AcDbEntity
  8
0
  6
Continuous
 62
     7
370
     0
100
AcDbDimension
  2
*D28
 10
12.1160045321
 20
6.4178980428
 30
0.0
 11
12.1160045321
 21
7.250154178
 31
0.0
 70
   160
 71
     2
 42
-1.0
  3
SLDDIMSTYLE1
100
AcDbAlignedDimension
 13
11.6387804609
 23
8.0824103133
 33
0.0
 14
11.643559529
 24
6.4178980428
 34
0.0
 50
90.0
100
AcDbRotatedDimension
  0
DIMENSION
  5
415
330
1F
100
AcDbEntity
  8
0
  6
Continuous
 62
     7
370
     0
100
AcDbDimension
  2
*D29
 10
12.6544238638
 20
6.3706539483
 30
0.0
 11
12.6544238638
 21
7.2682917436
 31
0.0
 70
   160
 71
     2
 42
-1.0
  3
SLDDIMSTYLE2
100
AcDbAlignedDimension
 13
11.643559529
 23
8.1659295389
 33
0.0
 14
11.643559529
 24
6.3706539483
 34
0.0
 50
90.0
100
AcDbRotatedDimension
  0
DIMENSION
  5
429
330
1F
100
AcDbEntity
  8
0
  6
Continuous
 62
     7
370
     0
100
AcDbDimension
  2
*D30
 10
8.1789925999
 20
9.1866961698
 30
0.0
 11
9.9506461432
 21
9.1866961698
 31
0.0
 70
   160
 71
     2
 42
-1.0
  3
SLDDIMSTYLE1
100
AcDbAlignedDimension
 13
11.7222996865
 23
8.0871893814
 33
0.0
 14
8.1789925999
 24
8.0871893814
 34
0.0
 50
0.0
100
AcDbRotatedDimension
  0
DIMENSION
  5
43D
330
1F
100
AcDbEntity
  8
0
  6
Continuous
 62
     7
370
     0
100
AcDbDimension
  2
*D31
 10
11.6387804609
 20
8.6606164836
 30
0.0
 11
9.9506461432
 21
8.6606164836
 31
0.0
 70
   160
 71
     2
 42
-1.0
  3
SLDDIMSTYLE1
100
AcDbAlignedDimension
 13
8.2625118255
 23
8.0824103133
 33
0.0
 14
11.6387804609
 24
8.0824103133
 34
0.0
100
AcDbRotatedDimension
  0
LINE
  5
451
330
1F
100
AcDbEntity
  8
0
  6
PHANTOM
 62
     7
370
    30
100
AcDbLine
 10
9.9506461432
 20
8.3227134272
 30
0.0
 11
9.9506461432
 21
6.1849662025
 31
0.0
  0
LINE
  5
452
330
1F
100
AcDbEntity
  8
0
  6
Continuous
 62
     7
370
    30
100
AcDbLine
 10
9.9506461432
 20
8.3227134272
 30
0.0
 11
9.4506461432
 21
8.3227134272
 31
0.0
  0
SOLID
  5
453
330
1F
100
AcDbEntity
  8
0
  6
Continuous
 62
     7
370
    30
100
AcDbTrace
 10
9.4506461432
 20
8.3227134272
 30
0.0
 11
9.7006461432
 21
8.2827134272
 31
0.0
 12
9.7006461432
 22
8.3627134272
 32
0.0
 13
9.7006461432
 23
8.3627134272
 33
0.0
  0
LINE
  5
454
330
1F
100
AcDbEntity
  8
0
  6
Continuous
 62
     7
370
    30
100
AcDbLine
 10
9.9506461432
 20
6.1849662025
 30
0.0
 11
9.4506461432
 21
6.1849662025
 31
0.0
  0
SOLID
  5
455
330
1F
100
AcDbEntity
  8
0
  6
Continuous
 62
     7
370
    30
100
AcDbTrace
 10
9.4506461432
 20
6.1849662025
 30
0.0
 11
9.7006461432
 21
6.1449662025
 31
0.0
 12
9.7006461432
 22
6.2249662025
 32
0.0
 13
9.7006461432
 23
6.2249662025
 33
0.0
  0
MTEXT
  5
456
330
1F
100
AcDbEntity
  8
0
  6
Continuous
 62
     7
100
AcDbMText
 10
9.3013599016
 20
8.4236808768
 30
0.0
 40
0.125
 41
0.0
 71
     1
 72
     1
  1
B
  7
SLDTEXTSTYLE0
 73
     1
 44
1.0
  0
MTEXT
  5
457
330
1F
100
AcDbEntity
  8
0
  6
Continuous
 62
     7
100
AcDbMText
 10
9.3013599016
 20
6.2859336522
 30
0.0
 40
0.125
 41
0.0
 71
     1
 72
     1
  1
B
  7
SLDTEXTSTYLE0
 73
     1
 44
1.0
  0
LINE
  5
458
330
1F
100
AcDbEntity
  8
0
  6
Continuous
 62
     7
370
    15
100
AcDbLine
 10
13.3895792896
 20
8.1377629127
 30
0.0
 11
13.3895792896
 21
8.1186854665
 31
0.0
  0
LINE
  5
459
330
1F
100
AcDbEntity
  8
0
  6
Continuous
 62
     7
370
    15
100
AcDbLine
 10
13.4702609743
 20
8.1648993059
 30
0.0
 11
13.4703640064
 21
8.1668651299
 31
0.0
  0
LINE
  5
45A
330
1F
100
AcDbEntity
  8
0
  6
Continuous
 62
     7
370
    15
100
AcDbLine
 10
13.4703640064
 20
8.1668651299
 30
0.0
 11
13.5096801189
 21
8.1648046337
 31
0.0
  0
LINE
  5
45B
330
1F
100
AcDbEntity
  8
0
  6
Continuous
 62
     7
370
    15
100
AcDbLine
 10
13.5096801189
 20
8.1648046337
 30
0.0
 11
13.5095771234
 21
8.1628388097
 31
0.0
  0
LINE
  5
45C
330
1F
100
AcDbEntity
  8
0
  6
Continuous
 62
     7
370
    15
100
AcDbLine
 10
13.5095771234
 20
6.3737446775
 30
0.0
 11
13.5096801189
 21
6.3717788535
 31
0.0
  0
LINE
  5
45D
330
1F
100
AcDbEntity
  8
0
  6
Continuous
 62
     7
370
    15
100
AcDbLine
 10
13.5096801189
 20
6.3717788535
 30
0.0
 11
13.4703640064
 21
6.3697183573
 31
0.0
  0
LINE
  5
45E
330
1F
100
AcDbEntity
  8
0
  6
Continuous
 62
     7
370
    15
100
AcDbLine
 10
13.4703640064
 20
6.3697183573
 30
0.0
 11
13.4702609743
 21
6.3716841813
 31
0.0
  0
LINE
  5
45F
330
1F
100
AcDbEntity
  8
0
  6
Continuous
 62
     7
370
    15
100
AcDbLine
 10
13.3364297003
 20
6.4512845418
 30
0.0
 11
13.3364297003
 21
6.4152240983
 31
0.0
  0
LINE
  5
460
330
1F
100
AcDbEntity
  8
0
  6
Continuous
 62
     7
370
    15
100
AcDbLine
 10
13.3364297003
 20
8.1213593889
 30
0.0
 11
13.3364297003
 21
8.0852989455
 31
0.0
  0
LINE
  5
461
330
1F
100
AcDbEntity
  8
0
  6
Continuous
 62
     7
370
    15
100
AcDbLine
 10
13.3895792896
 20
6.3988205745
 30
0.0
 11
13.3364297003
 21
6.4152240983
 31
0.0
  0
LINE
  5
462
330
1F
100
AcDbEntity
  8
0
  6
Continuous
 62
     7
370
    15
100
AcDbLine
 10
13.3895792896
 20
8.1377629127
 30
0.0
 11
13.3364297003
 21
8.1213593889
 31
0.0
  0
LINE
  5
463
330
1F
100
AcDbEntity
  8
0
  6
Continuous
 62
     7
370
    15
100
AcDbLine
 10
13.3895792896
 20
6.4178980208
 30
0.0
 11
13.3895792896
 21
6.3988205745
 31
0.0
  0
LINE
  5
464
330
1F
100
AcDbEntity
  8
0
  6
Continuous
 62
     7
370
    15
100
AcDbLine
 10
13.450602918
 20
6.4178980208
 30
0.0
 11
13.450602918
 21
6.3706539332
 31
0.0
  0
LINE
  5
465
330
1F
100
AcDbEntity
  8
0
  6
Continuous
 62
     7
370
    15
100
AcDbLine
 10
13.450602918
 20
8.1186854665
 30
0.0
 11
13.3895792896
 21
8.1186854665
 31
0.0
  0
LINE
  5
466
330
1F
100
AcDbEntity
  8
0
  6
Continuous
 62
     7
370
    15
100
AcDbLine
 10
13.450602918
 20
8.165929554
 30
0.0
 11
13.450602918
 21
8.1186854665
 31
0.0
  0
LINE
  5
467
330
1F
100
AcDbEntity
  8
0
  6
Continuous
 62
     7
370
    15
100
AcDbLine
 10
13.3895792896
 20
6.4178980208
 30
0.0
 11
13.450602918
 21
6.4178980208
 31
0.0
  0
LINE
  5
468
330
1F
100
AcDbEntity
  8
0
  6
Continuous
 62
     7
370
    15
100
AcDbLine
 10
14.0608391285
 20
8.0473342041
 30
0.0
 11
14.0608391285
 21
6.4892492832
 31
0.0
  0
LINE
  5
469
330
1F
100
AcDbEntity
  8
0
  6
Continuous
 62
     7
370
    15
100
AcDbLine
 10
14.0608391285
 20
8.0473342041
 30
0.0
 11
13.3364297003
 21
8.0852989455
 31
0.0
  0
LINE
  5
46A
330
1F
100
AcDbEntity
  8
0
  6
Continuous
 62
     7
370
    15
100
AcDbLine
 10
13.3364297003
 20
6.4512845418
 30
0.0
 11
14.0608391285
 21
6.4892492832
 31
0.0
  0
LINE
  5
46B
330
1F
100
AcDbEntity
  8
0
  6
Continuous
 62
     7
370
    15
100
AcDbLine
 10
13.4702609743
 20
6.3716841813
 30
0.0
 11
13.450602918
 21
6.3706539332
 31
0.0
  0
LINE
  5
46C
330
1F
100
AcDbEntity
  8
0
  6
Continuous
 62
     7
370
    15
100
AcDbLine
 10
14.1022697099
 20
6.4048063387
 30
0.0
 11
13.5095771234
 21
6.3737446775
 31
0.0
  0
LINE
  5
46D
330
1F
100
AcDbEntity
  8
0
  6
Continuous
 62
     7
370
    15
100
AcDbLine
 10
13.5095771234
 20
8.1628388097
 30
0.0
 11
14.1022697099
 21
8.1317771486
 31
0.0
  0
LINE
  5
46E
330
1F
100
AcDbEntity
  8
0
  6
Continuous
 62
     7
370
    15
100
AcDbLine
 10
13.450602918
 20
8.165929554
 30
0.0
 11
13.4702609743
 21
8.1648993059
 31
0.0
  0
ARC
  5
46F
330
1F
100
AcDbEntity
  8
0
  6
Continuous
 62
     7
370
    15
100
AcDbCircle
 10
14.100209226
 20
8.0924610072
 30
0.0
 40
0.0393700787401574
100
AcDbArc
 50
0.0
 51
87.0
  0
LINE
  5
470
330
1F
100
AcDbEntity
  8
0
  6
Continuous
 62
     7
370
    15
100
AcDbLine
 10
14.1395792989
 20
8.0924610361
 30
0.0
 11
14.1395792989
 21
6.4441224512
 31
0.0
  0
ARC
  5
471
330
1F
100
AcDbEntity
  8
0
  6
Continuous
 62
     7
370
    15
100
AcDbCircle
 10
14.100209226
 20
6.44412248
 30
0.0
 40
0.0393700787401581
100
AcDbArc
 50
273.0
 51
0.0
  0
LINE
  5
472
330
1F
100
AcDbEntity
  8
0
  6
Continuous
 62
     7
370
    15
100
AcDbLine
 10
13.3915478269
 20
8.0824103055
 30
0.0
 11
13.3915478269
 21
6.4541731817
 31
0.0
  0
LINE
  5
473
330
1F
100
AcDbEntity
  8
0
  6
CENTERX2
 62
     7
370
     0
100
AcDbLine
 10
14.0608391473
 20
8.0473342405
 30
0.0
 11
13.7506185095
 21
8.0473342405
 31
0.0
  0
HATCH
  5
474
330
1F
100
AcDbEntity
  8
0
  6
Continuous
 62
     7
370
     0
100
AcDbHatch
 10
0.0
 20
0.0
 30
0.0
210
0.0
220
0.0
230
1.0
  2
ANSI31
 70
     0
 71
     0
 91
        1
 92
        0
 93
       26
 72
     1
 10
13.33642969848381
 20
8.085298931013613
 11
14.06083914730271
 21
8.047334240509365
 72
     1
 10
14.06083914730271
 20
8.047334240509365
 11
14.06083914730271
 21
6.489249246720949
 72
     1
 10
14.06083914730271
 20
6.489249246720949
 11
13.33642969848381
 21
6.4512845562167
 72
     1
 10
13.33642969848381
 20
6.4512845562167
 11
13.33642969848381
 21
6.415224076759086
 72
     1
 10
13.33642969848381
 20
6.415224076759086
 11
13.38957930478303
 21
6.39882054178987
 72
     1
 10
13.38957930478303
 20
6.39882054178987
 11
13.38957930478303
 21
6.417898042827755
 72
     1
 10
13.38957930478303
 20
6.417898042827755
 11
13.45060292683027
 21
6.417898042827755
 72
     1
 10
13.45060292683027
 20
6.417898042827755
 11
13.45060292683009
 21
6.370653948339557
 72
     1
 10
13.45060292683009
 20
6.370653948339557
 11
13.47026098853804
 21
6.371684183698677
 72
     1
 10
13.47026098853804
 20
6.371684183698677
 11
13.47036401207395
 21
6.369718377527901
 72
     1
 10
13.47036401207395
 20
6.369718377527901
 11
13.50968013548948
 21
6.371778848246128
 72
     1
 10
13.50968013548948
 20
6.371778848246128
 11
13.50957711195357
 21
6.373744654416905
 72
     1
 10
13.50957711195357
 20
6.373744654416905
 11
14.10226969676109
 21
6.404806356584193
 72
     2
 10
14.10020922604287
 20
6.444122479999728
 40
0.0393700787401575
 50
272.9999999999998
 51
360.0000000000008
 73
     1
 72
     1
 10
14.13957930478303
 20
6.444122479999728
 11
14.13957930478303
 21
8.092461007230586
 72
     2
 10
14.10020922604287
 20
8.092461007230586
 40
0.0393700787401575
 50
0.0
 51
87.0000000000009
 73
     1
 72
     1
 10
14.10226969676109
 20
8.13177713064612
 11
13.50957711195357
 21
8.162838832813408
 72
     1
 10
13.50957711195357
 20
8.162838832813408
 11
13.50968013548948
 21
8.164804638984185
 72
     1
 10
13.50968013548948
 20
8.164804638984185
 11
13.47036401207395
 21
8.166865109702412
 72
     1
 10
13.47036401207395
 20
8.166865109702412
 11
13.47026098853804
 21
8.164899303531636
 72
     1
 10
13.47026098853804
 20
8.164899303531636
 11
13.45060292683009
 21
8.165929538890756
 72
     1
 10
13.45060292683009
 20
8.165929538890756
 11
13.45060292683027
 21
8.118685444402558
 72
     1
 10
13.45060292683027
 20
8.118685444402558
 11
13.38957930478303
 21
8.118685444402558
 72
     1
 10
13.38957930478303
 20
8.118685444402558
 11
13.38957930478303
 21
8.137762945440443
 72
     1
 10
13.38957930478303
 20
8.137762945440443
 11
13.33642969848381
 21
8.121359410471227
 72
     1
 10
13.33642969848381
 20
8.121359410471227
 11
13.33642969848381
 21
8.085298931013613
 97
        0
 75
     0
 76
     1
 52
0.0
 41
1.0
 77
     0
 78
     1
 53
45.0
 43
0.0
 44
0.0
 45
-0.0883883476483184
 46
0.0883883476483184
 79
     0
 98
        1
 10
0.0
 20
0.0
  0
DIMENSION
  5
475
330
1F
100
AcDbEntity
  8
0
  6
Continuous
 62
     7
370
     0
100
AcDbDimension
  2
*D32
 10
14.0608391473
 20
8.0473342405
 30
0.0
 11
13.1468897239
 21
7.823575085
 31
0.0
 70
   162
 71
     1
 42
-1.0
  3
SLDDIMSTYLE7
100
AcDb2LineAngularDimension
 13
13.3364296985
 23
8.085298931
 33
0.0
 14
14.0608391473
 24
8.0473342405
 34
0.0
 15
13.7506185095
 25
8.0473342405
 35
0.0
 16
13.1358166226
 26
8.2196857333
 36
0.0
  0
DIMENSION
  5
488
330
1F
100
AcDbEntity
  8
0
  6
Continuous
 62
     7
370
     0
100
AcDbDimension
  2
*D33
 10
14.1395793048
 20
7.9192666997
 30
0.0
 11
14.6129889051
 21
7.9192666997
 31
0.0
 70
   160
 71
     2
 42
-1.0
  3
SLDDIMSTYLE5
100
AcDbAlignedDimension
 13
14.0608391473
 23
8.0473342405
 33
0.0
 14
14.1395793048
 24
8.0924610072
 34
0.0
100
AcDbRotatedDimension
  0
DIMENSION
  5
49A
330
1F
100
AcDbEntity
  8
0
  6
Continuous
 62
     7
370
     0
100
AcDbDimension
  2
*D34
 10
14.1395793048
 20
8.5605658971
 30
0.0
 11
13.7950911158
 21
8.5605658971
 31
0.0
 70
   160
 71
     2
 42
-1.0
  3
SLDDIMSTYLE5
100
AcDbAlignedDimension
 13
13.4506029268
 23
8.1659295389
 33
0.0
 14
14.1395793048
 24
8.0924610072
 34
0.0
100
AcDbRotatedDimension
  0
MTEXT
  5
4AE
330
1F
100
AcDbEntity
  8
0
  6
Continuous
 62
     7
370
     0
100
AcDbMText
 10
14.0105758649
 20
6.1173812937
 30
0.0
 40
0.125
 41
0.0
 71
     2
 72
     1
  1
\LSECTION B-B
  7
SLDTEXTSTYLE0
 73
     1
 44
1.0
  0
LINE
  5
4AF
330
1F
100
AcDbEntity
  8
0
  6
Continuous
 62
     7
370
    15
100
AcDbLine
 10
15.604063658
 20
8.1628388097
 30
0.0
 11
15.6041666535
 21
8.1648046337
 31
0.0
  0
LINE
  5
4B0
330
1F
100
AcDbEntity
  8
0
  6
Continuous
 62
     7
370
    15
100
AcDbLine
 10
15.564850541
 20
8.1668651299
 30
0.0
 11
15.5647475088
 21
8.1648993059
 31
0.0
  0
LINE
  5
4B1
330
1F
100
AcDbEntity
  8
0
  6
Continuous
 62
     7
370
    15
100
AcDbLine
 10
15.5647475088
 20
6.3716841813
 30
0.0
 11
15.564850541
 21
6.3697183573
 31
0.0
  0
LINE
  5
4B2
330
1F
100
AcDbEntity
  8
0
  6
Continuous
 62
     7
370
    15
100
AcDbLine
 10
15.6041666535
 20
6.3717788535
 30
0.0
 11
15.604063658
 21
6.3737446775
 31
0.0
  0
LINE
  5
4B3
330
1F
100
AcDbEntity
  8
0
  6
Continuous
 62
     7
370
    15
100
AcDbLine
 10
15.5450894526
 20
7.8588429115
 30
0.0
 11
15.6655878172
 21
7.8588429115
 31
0.0
  0
LINE
  5
4B4
330
1F
100
AcDbEntity
  8
0
  6
Continuous
 62
     7
370
    15
100
AcDbLine
 10
15.5450894526
 20
8.0871893836
 30
0.0
 11
15.5450894526
 21
7.8588429115
 31
0.0
  0
LINE
  5
4B5
330
1F
100
AcDbEntity
  8
0
  6
Continuous
 62
     7
370
    15
100
AcDbLine
 10
15.5450894526
 20
6.6777405757
 30
0.0
 11
15.5450894526
 21
6.4493941036
 31
0.0
  0
LINE
  5
4B6
330
1F
100
AcDbEntity
  8
0
  6
Continuous
 62
     7
370
    15
100
AcDbLine
 10
15.6655878172
 20
6.6777405757
 30
0.0
 11
15.5450894526
 21
6.6777405757
 31
0.0
  0
LINE
  5
4B7
330
1F
100
AcDbEntity
  8
0
  6
Continuous
 62
     7
370
    15
100
AcDbLine
 10
15.6655878172
 20
6.9139610502
 30
0.0
 11
15.6655878172
 21
6.6777405757
 31
0.0
  0
LINE
  5
4B8
330
1F
100
AcDbEntity
  8
0
  6
Continuous
 62
     7
370
    15
100
AcDbLine
 10
15.5450894526
 20
6.9139610502
 30
0.0
 11
15.6655878172
 21
6.9139610502
 31
0.0
  0
LINE
  5
4B9
330
1F
100
AcDbEntity
  8
0
  6
Continuous
 62
     7
370
    15
100
AcDbLine
 10
15.5450894526
 20
7.622622437
 30
0.0
 11
15.5450894526
 21
6.9139610502
 31
0.0
  0
LINE
  5
4BA
330
1F
100
AcDbEntity
  8
0
  6
Continuous
 62
     7
370
    15
100
AcDbLine
 10
15.6655878172
 20
7.622622437
 30
0.0
 11
15.5450894526
 21
7.622622437
 31
0.0
  0
LINE
  5
4BB
330
1F
100
AcDbEntity
  8
0
  6
Continuous
 62
     7
370
    15
100
AcDbLine
 10
15.6655878172
 20
7.8588429115
 30
0.0
 11
15.6655878172
 21
7.622622437
 31
0.0
  0
LINE
  5
4BC
330
1F
100
AcDbEntity
  8
0
  6
Continuous
 62
     7
370
    15
100
AcDbLine
 10
15.5450894526
 20
8.165929554
 30
0.0
 11
16.1967562445
 21
8.1317771486
 31
0.0
  0
LINE
  5
4BD
330
1F
100
AcDbEntity
  8
0
  6
Continuous
 62
     7
370
    15
100
AcDbLine
 10
15.5450894526
 20
8.165929554
 30
0.0
 11
15.5450894526
 21
8.0871893836
 31
0.0
  0
LINE
  5
4BE
330
1F
100
AcDbEntity
  8
0
  6
Continuous
 62
     7
370
    15
100
AcDbLine
 10
16.1967562445
 20
6.4048063387
 30
0.0
 11
15.5450894526
 21
6.3706539332
 31
0.0
  0
LINE
  5
4BF
330
1F
100
AcDbEntity
  8
0
  6
Continuous
 62
     7
370
    15
100
AcDbLine
 10
15.5450894526
 20
6.4493941036
 30
0.0
 11
15.5450894526
 21
6.3706539332
 31
0.0
  0
LINE
  5
4C0
330
1F
100
AcDbEntity
  8
0
  6
Continuous
 62
     7
370
    15
100
AcDbLine
 10
15.6614730948
 20
6.9139610502
 30
0.0
 11
15.6614730948
 21
6.6777405757
 31
0.0
  0
LINE
  5
4C1
330
1F
100
AcDbEntity
  8
0
  6
Continuous
 62
     7
370
    15
100
AcDbLine
 10
15.6614730948
 20
7.622622437
 30
0.0
 11
15.6614730948
 21
7.8588429115
 31
0.0
  0
ARC
  5
4C2
330
1F
100
AcDbEntity
  8
0
  6
Continuous
 62
     7
370
    15
100
AcDbCircle
 10
16.1946957606
 20
8.0924610072
 30
0.0
 40
0.0393700787401592
100
AcDbArc
 50
0.0
 51
87.0
  0
LINE
  5
4C3
330
1F
100
AcDbEntity
  8
0
  6
Continuous
 62
     7
370
    15
100
AcDbLine
 10
16.2340658335
 20
8.0871893836
 30
0.0
 11
16.2340658335
 21
8.0924610361
 31
0.0
  0
LINE
  5
4C4
330
1F
100
AcDbEntity
  8
0
  6
Continuous
 62
     7
370
    15
100
AcDbLine
 10
16.2340658335
 20
6.4441224512
 30
0.0
 11
16.2340658335
 21
6.4493941036
 31
0.0
  0
ARC
  5
4C5
330
1F
100
AcDbEntity
  8
0
  6
Continuous
 62
     7
370
    15
100
AcDbCircle
 10
16.1946957606
 20
6.44412248
 30
0.0
 40
0.0393700787401592
100
AcDbArc
 50
273.0
 51
0.0
  0
LINE
  5
4C6
330
1F
100
AcDbEntity
  8
0
  6
Continuous
 62
     7
370
    15
100
AcDbLine
 10
16.2340658335
 20
8.0871893836
 30
0.0
 11
16.2340658335
 21
6.4493941036
 31
0.0
  0
LINE
  5
4C7
330
1F
100
AcDbEntity
  8
0
  6
Continuous
 62
     7
370
    15
100
AcDbLine
 10
15.4860343615
 20
7.8588429115
 30
0.0
 11
15.4860343615
 21
8.0871893836
 31
0.0
  0
LINE
  5
4C8
330
1F
100
AcDbEntity
  8
0
  6
Continuous
 62
     7
370
    15
100
AcDbLine
 10
15.4860343615
 20
7.8588429115
 30
0.0
 11
15.5450894526
 21
7.8588429115
 31
0.0
  0
LINE
  5
4C9
330
1F
100
AcDbEntity
  8
0
  6
Continuous
 62
     7
370
    15
100
AcDbLine
 10
15.4860343615
 20
6.9139610502
 30
0.0
 11
15.4860343615
 21
7.622622437
 31
0.0
  0
LINE
  5
4CA
330
1F
100
AcDbEntity
  8
0
  6
Continuous
 62
     7
370
    15
100
AcDbLine
 10
15.4860343615
 20
7.622622437
 30
0.0
 11
15.5450894526
 21
7.622622437
 31
0.0
  0
LINE
  5
4CB
330
1F
100
AcDbEntity
  8
0
  6
Continuous
 62
     7
370
    15
100
AcDbLine
 10
15.5450894526
 20
6.9139610502
 30
0.0
 11
15.4860343615
 21
6.9139610502
 31
0.0
  0
LINE
  5
4CC
330
1F
100
AcDbEntity
  8
0
  6
Continuous
 62
     7
370
    15
100
AcDbLine
 10
15.4860343615
 20
6.4493941036
 30
0.0
 11
15.4860343615
 21
6.6777405757
 31
0.0
  0
LINE
  5
4CD
330
1F
100
AcDbEntity
  8
0
  6
Continuous
 62
     7
370
    15
100
AcDbLine
 10
15.4860343615
 20
6.6777405757
 30
0.0
 11
15.5450894526
 21
6.6777405757
 31
0.0
  0
LINE
  5
4CE
330
1F
100
AcDbEntity
  8
0
  6
Continuous
 62
     7
370
    15
100
AcDbLine
 10
15.4860343615
 20
6.4178980208
 30
0.0
 11
15.5450894526
 21
6.4178980208
 31
0.0
  0
LINE
  5
4CF
330
1F
100
AcDbEntity
  8
0
  6
Continuous
 62
     7
370
    15
100
AcDbLine
 10
15.4860343615
 20
6.4493941036
 30
0.0
 11
15.4860343615
 21
6.4178980208
 31
0.0
  0
LINE
  5
4D0
330
1F
100
AcDbEntity
  8
0
  6
Continuous
 62
     7
370
    15
100
AcDbLine
 10
15.5450894526
 20
8.1186854665
 30
0.0
 11
15.4860343615
 21
8.1186854665
 31
0.0
  0
LINE
  5
4D1
330
1F
100
AcDbEntity
  8
0
  6
Continuous
 62
     7
370
    15
100
AcDbLine
 10
15.4860343615
 20
8.1186854665
 30
0.0
 11
15.4860343615
 21
8.0871893836
 31
0.0
  0
LINE
  5
4D2
330
1F
100
AcDbEntity
  8
0
  6
Continuous
 62
     7
370
    15
100
AcDbLine
 10
15.4860343615
 20
7.622622437
 30
0.0
 11
15.4860343615
 21
7.8588429115
 31
0.0
  0
LINE
  5
4D3
330
1F
100
AcDbEntity
  8
0
  6
Continuous
 62
     7
370
    15
100
AcDbLine
 10
15.4860343615
 20
6.6777405757
 30
0.0
 11
15.4860343615
 21
6.9139610502
 31
0.0
  0
LINE
  5
4D4
330
1F
100
AcDbEntity
  8
0
  6
Continuous
 62
     7
370
    15
100
AcDbLine
 10
15.4840658242
 20
6.3988205745
 30
0.0
 11
15.4309162349
 21
6.4152240983
 31
0.0
  0
LINE
  5
4D5
330
1F
100
AcDbEntity
  8
0
  6
Continuous
 62
     7
370
    15
100
AcDbLine
 10
15.4309162349
 20
6.4152240983
 30
0.0
 11
15.4309162349
 21
6.4512845418
 31
0.0
  0
LINE
  5
4D6
330
1F
100
AcDbEntity
  8
0
  6
Continuous
 62
     7
370
    15
100
AcDbLine
 10
15.4860343615
 20
6.4178980208
 30
0.0
 11
15.4840658242
 21
6.4178980208
 31
0.0
  0
LINE
  5
4D7
330
1F
100
AcDbEntity
  8
0
  6
Continuous
 62
     7
370
    15
100
AcDbLine
 10
15.4840658242
 20
6.4178980208
 30
0.0
 11
15.4840658242
 21
6.3988205745
 31
0.0
  0
LINE
  5
4D8
330
1F
100
AcDbEntity
  8
0
  6
Continuous
 62
     7
370
    15
100
AcDbLine
 10
15.4309162349
 20
6.4512845418
 30
0.0
 11
15.4860343615
 21
6.4541731817
 31
0.0
  0
LINE
  5
4D9
330
1F
100
AcDbEntity
  8
0
  6
Continuous
 62
     7
370
    15
100
AcDbLine
 10
15.4840658242
 20
8.1377629127
 30
0.0
 11
15.4840658242
 21
8.1186854665
 31
0.0
  0
LINE
  5
4DA
330
1F
100
AcDbEntity
  8
0
  6
Continuous
 62
     7
370
    15
100
AcDbLine
 10
15.4309162349
 20
8.1213593889
 30
0.0
 11
15.4309162349
 21
8.0852989455
 31
0.0
  0
LINE
  5
4DB
330
1F
100
AcDbEntity
  8
0
  6
Continuous
 62
     7
370
    15
100
AcDbLine
 10
15.4840658242
 20
8.1377629127
 30
0.0
 11
15.4309162349
 21
8.1213593889
 31
0.0
  0
LINE
  5
4DC
330
1F
100
AcDbEntity
  8
0
  6
Continuous
 62
     7
370
    15
100
AcDbLine
 10
15.4840658242
 20
8.1186854665
 30
0.0
 11
15.4860343615
 21
8.1186854665
 31
0.0
  0
LINE
  5
4DD
330
1F
100
AcDbEntity
  8
0
  6
Continuous
 62
     7
370
    15
100
AcDbLine
 10
15.4860343615
 20
8.0824103055
 30
0.0
 11
15.4309162349
 21
8.0852989455
 31
0.0
  0
LWPOLYLINE
  5
4DE
330
1F
100
AcDbEntity
  8
0
  6
Continuous
 62
     7
370
    15
100
AcDbPolyline
 90
       10
 70
   128
 43
0.0
 10
15.6041666535
 20
8.1648046337
 10
15.6026703041
 20
8.1648830261
 10
15.5984089533
 20
8.1651063969
 10
15.5920314103
 20
8.1654406463
 10
15.5845085972
 20
8.1658348818
 10
15.5769857841
 20
8.1662291172
 10
15.5706082778
 20
8.1665633667
 10
15.566346927
 20
8.1667866641
 10
15.564850541
 20
8.1668651299
 10
15.564850541
 20
8.1668651299
  0
LWPOLYLINE
  5
4DF
330
1F
100
AcDbEntity
  8
0
  6
Continuous
 62
     7
370
    15
100
AcDbPolyline
 90
       10
 70
   128
 43
0.0
 10
15.564850541
 20
6.3697183573
 10
15.566346927
 20
6.3697968231
 10
15.5706082778
 20
6.3700201205
 10
15.5769857841
 20
6.37035437
 10
15.5845085972
 20
6.3707486054
 10
15.5920314103
 20
6.3711428409
 10
15.5984089533
 20
6.3714770904
 10
15.6026703041
 20
6.3717004611
 10
15.6041666535
 20
6.3717788535
 10
15.6041666535
 20
6.3717788535
  0
DIMENSION
  5
4E0
330
1F
100
AcDbEntity
  8
0
  6
Continuous
 62
     7
370
     0
100
AcDbDimension
  2
*D35
 10
14.9955616114
 20
7.7407326885
 30
0.0
 11
14.9955616114
 21
7.2682917436
 31
0.0
 70
   160
 71
     2
 42
-1.0
  3
SLDDIMSTYLE1
100
AcDbAlignedDimension
 13
15.2360343433
 23
6.7958507987
 33
0.0
 14
15.2360343433
 24
7.7407326885
 34
0.0
 50
90.0
100
AcDbRotatedDimension
  0
DIMENSION
  5
4F4
330
1F
100
AcDbEntity
  8
0
  6
Continuous
 62
     7
370
     0
100
AcDbDimension
  2
*D36
 10
15.2755600352
 20
6.6777405625
 30
0.0
 11
15.2755600352
 21
6.4121559321
 31
0.0
 70
   160
 71
     2
 42
-1.0
  3
SLDDIMSTYLE5
100
AcDbAlignedDimension
 13
15.4860343433
 23
6.913961035
 33
0.0
 14
15.4860343433
 24
6.6777405625
 34
0.0
 50
90.0
100
AcDbRotatedDimension
  0
DIMENSION
  5
509
330
1F
100
AcDbEntity
  8
0
  6
Continuous
 62
     7
370
     0
100
AcDbDimension
  2
*D37
 10
15.66558783
 20
6.032366857
 30
0.0
 11
16.1711020626
 21
6.032366857
 31
0.0
 70
   160
 71
     2
 42
-1.0
  3
SLDDIMSTYLE5
100
AcDbAlignedDimension
 13
15.5450894614
 23
6.3706539483
 33
0.0
 14
15.66558783
 24
6.6777405625
 34
0.0
 50
0.0
100
AcDbRotatedDimension
  0
INSERT
  5
523
102
{ACAD_REACTORS
330
52D
102
}
330
1F
100
AcDbEntity
  8
0
  6
Continuous
 62
     7
370
     0
100
AcDbBlockReference
  2
SW_NOTE_5
 10
15.212628719
 20
8.8637409396
 30
0.0
  0
LEADER
  5
52D
330
1F
100
AcDbEntity
  8
0
  6
Continuous
 62
     7
370
     0
100
AcDbLeader
  3
SLDDIMSTYLE8
 73
     2
 76
     3
 10
15.5495814424
 20
7.8060426472
 30
0.0
 10
14.962628719
 20
8.8637409396
 30
0.0
 10
15.212628719
 20
8.8637409396
 30
0.0
340
523
  0
LINE
  5
52E
330
1F
100
AcDbEntity
  8
0
  6
CENTERX2
 62
     7
370
     0
100
AcDbLine
 10
15.91558783
 20
6.7958507987
 30
0.0
 11
15.2360343433
 21
6.7958507987
 31
0.0
  0
LINE
  5
52F
330
1F
100
AcDbEntity
  8
0
  6
CENTERX2
 62
     7
370
     0
100
AcDbLine
 10
15.2360343433
 20
7.7407326885
 30
0.0
 11
15.91558783
 21
7.7407326885
 31
0.0
  0
LINE
  5
530
330
1F
100
AcDbEntity
  8
0
  6
Continuous
 62
     7
370
    15
100
AcDbLine
 10
3.2636173886
 20
1.064250981
 30
0.0
 11
3.2601813216
 21
1.2611013795
 31
0.0
  0
LINE
  5
531
330
1F
100
AcDbEntity
  8
0
  6
Continuous
 62
     7
370
    15
100
AcDbLine
 10
3.030832871
 20
1.2611013795
 30
0.0
 11
3.0273969507
 21
1.064250981
 31
0.0
  0
LINE
  5
532
330
1F
100
AcDbEntity
  8
0
  6
Continuous
 62
     7
370
    15
100
AcDbLine
 10
5.586451975
 20
1.064250981
 30
0.0
 11
5.5830160547
 21
1.2611013795
 31
0.0
  0
LINE
  5
533
330
1F
100
AcDbEntity
  8
0
  6
Continuous
 62
     7
370
    15
100
AcDbLine
 10
5.3536676041
 20
1.2611013795
 30
0.0
 11
5.3502315372
 21
1.064250981
 31
0.0
  0
LINE
  5
534
330
1F
100
AcDbEntity
  8
0
  6
Continuous
 62
     7
370
    15
100
AcDbLine
 10
6.0785780766
 20
1.3792115984
 30
0.0
 11
6.0313339157
 21
1.3792115984
 31
0.0
  0
LINE
  5
535
330
1F
100
AcDbEntity
  8
0
  6
Continuous
 62
     7
370
    15
100
AcDbLine
 10
6.0313339157
 20
1.3792115984
 30
0.0
 11
6.0313339157
 21
1.3201565073
 31
0.0
  0
LINE
  5
536
330
1F
100
AcDbEntity
  8
0
  6
Continuous
 62
     7
370
    15
100
AcDbLine
 10
6.0785780766
 20
1.3792115984
 30
0.0
 11
6.0444256711
 21
2.0308783903
 31
0.0
  0
LINE
  5
537
330
1F
100
AcDbEntity
  8
0
  6
Continuous
 62
     7
370
    15
100
AcDbLine
 10
6.0313339157
 20
1.3201565073
 30
0.0
 11
5.9950588281
 21
1.3201565073
 31
0.0
  0
ARC
  5
538
330
1F
100
AcDbEntity
  8
0
  6
Continuous
 62
     7
370
    15
100
AcDbCircle
 10
6.0051094745
 20
2.0288179064
 30
0.0
 40
0.0393700787401581
100
AcDbArc
 50
3.0
 51
90.0
  0
LINE
  5
539
330
1F
100
AcDbEntity
  8
0
  6
Continuous
 62
     7
370
    15
100
AcDbLine
 10
5.9599827266
 20
1.9894478089
 30
0.0
 11
5.9950588281
 21
1.3201565073
 31
0.0
  0
LINE
  5
53A
330
1F
100
AcDbEntity
  8
0
  6
Continuous
 62
     7
370
    15
100
AcDbLine
 10
5.9599827266
 20
1.9894478089
 30
0.0
 11
2.6538661991
 21
1.9894478089
 31
0.0
  0
LINE
  5
53B
330
1F
100
AcDbEntity
  8
0
  6
Continuous
 62
     7
370
    15
100
AcDbLine
 10
2.6187900977
 20
1.3201565073
 30
0.0
 11
2.6538661991
 21
1.9894478089
 31
0.0
  0
LINE
  5
53C
330
1F
100
AcDbEntity
  8
0
  6
Continuous
 62
     7
370
    15
100
AcDbLine
 10
2.6187900977
 20
1.3201565073
 30
0.0
 11
2.5825150101
 21
1.3201565073
 31
0.0
  0
LINE
  5
53D
330
1F
100
AcDbEntity
  8
0
  6
Continuous
 62
     7
370
    15
100
AcDbLine
 10
2.5825150101
 20
1.3201565073
 30
0.0
 11
2.5825150101
 21
1.3792115984
 31
0.0
  0
LINE
  5
53E
330
1F
100
AcDbEntity
  8
0
  6
Continuous
 62
     7
370
    15
100
AcDbLine
 10
6.0051094853
 20
2.0681879793
 30
0.0
 11
2.6087394404
 21
2.0681879793
 31
0.0
  0
LINE
  5
53F
330
1F
100
AcDbEntity
  8
0
  6
Continuous
 62
     7
370
    15
100
AcDbLine
 10
2.5825150101
 20
1.3792115984
 30
0.0
 11
2.5352708492
 21
1.3792115984
 31
0.0
  0
ARC
  5
540
330
1F
100
AcDbEntity
  8
0
  6
Continuous
 62
     7
370
    15
100
AcDbCircle
 10
2.6087394512
 20
2.0288179064
 30
0.0
 40
0.0393700787401577
100
AcDbArc
 50
90.0
 51
177.0
  0
LINE
  5
541
330
1F
100
AcDbEntity
  8
0
  6
Continuous
 62
     7
370
    15
100
AcDbLine
 10
2.5694232546
 20
2.0308783903
 30
0.0
 11
2.5352708492
 21
1.3792115984
 31
0.0
  0
LINE
  5
542
330
1F
100
AcDbEntity
  8
0
  6
Continuous
 62
     7
370
    15
100
AcDbLine
 10
4.6218851077
 20
1.3792115984
 30
0.0
 11
4.6218851077
 21
1.3201565073
 31
0.0
  0
LINE
  5
543
330
1F
100
AcDbEntity
  8
0
  6
Continuous
 62
     7
370
    15
100
AcDbLine
 10
4.5825150225
 20
1.2650383807
 30
0.0
 11
4.5825150225
 21
1.3792115984
 31
0.0
  0
LINE
  5
544
330
1F
100
AcDbEntity
  8
0
  6
Continuous
 62
     7
370
    15
100
AcDbLine
 10
4.0313339032
 20
1.2650383807
 30
0.0
 11
4.5825150225
 21
1.2650383807
 31
0.0
  0
LINE
  5
545
330
1F
100
AcDbEntity
  8
0
  6
Continuous
 62
     7
370
    15
100
AcDbLine
 10
4.0313339032
 20
1.3792115984
 30
0.0
 11
4.0313339032
 21
1.2650383807
 31
0.0
  0
LINE
  5
546
330
1F
100
AcDbEntity
  8
0
  6
Continuous
 62
     7
370
    15
100
AcDbLine
 10
3.991963818
 20
1.3201565073
 30
0.0
 11
3.991963818
 21
1.3792115984
 31
0.0
  0
LINE
  5
547
330
1F
100
AcDbEntity
  8
0
  6
Continuous
 62
     7
370
    15
100
AcDbLine
 10
3.991963818
 20
1.3792115984
 30
0.0
 11
4.0313339032
 21
1.3792115984
 31
0.0
  0
LINE
  5
548
330
1F
100
AcDbEntity
  8
0
  6
Continuous
 62
     7
370
    15
100
AcDbLine
 10
4.5825150225
 20
1.3792115984
 30
0.0
 11
4.6218851077
 21
1.3792115984
 31
0.0
  0
LINE
  5
549
330
1F
100
AcDbEntity
  8
0
  6
Continuous
 62
     7
370
    15
100
AcDbLine
 10
2.2303746113
 20
1.1429911423
 30
0.0
 11
2.2303746113
 21
0.9855108198
 31
0.0
  0
LINE
  5
54A
330
1F
100
AcDbEntity
  8
0
  6
Continuous
 62
     7
370
    15
100
AcDbLine
 10
2.2303746113
 20
0.9855108198
 30
0.0
 11
2.1218850646
 21
0.9855108198
 31
0.0
  0
LINE
  5
54B
330
1F
100
AcDbEntity
  8
0
  6
Continuous
 62
     7
370
    15
100
AcDbLine
 10
2.2303746113
 20
1.1429911423
 30
0.0
 11
2.1612552231
 21
1.1429911423
 31
0.0
  0
ARC
  5
54C
330
1F
100
AcDbEntity
  8
0
  6
Continuous
 62
     7
370
    15
100
AcDbCircle
 10
2.1612551715
 20
1.103621056
 30
0.0
 40
0.0393700787401574
100
AcDbArc
 50
90.0
 51
180.0
  0
LINE
  5
54D
330
1F
100
AcDbEntity
  8
0
  6
Continuous
 62
     7
370
    15
100
AcDbLine
 10
2.1218850646
 20
1.1036210571
 30
0.0
 11
2.1218850646
 21
0.9855108198
 31
0.0
  0
LINE
  5
54E
330
1F
100
AcDbEntity
  8
0
  6
Continuous
 62
     7
370
    15
100
AcDbLine
 10
2.4070962232
 20
0.9855108198
 30
0.0
 11
2.4070962232
 21
1.1429911423
 31
0.0
  0
LINE
  5
54F
330
1F
100
AcDbEntity
  8
0
  6
Continuous
 62
     7
370
    15
100
AcDbLine
 10
2.2303746113
 20
0.9855108198
 30
0.0
 11
2.4070962232
 21
0.9855108198
 31
0.0
  0
LINE
  5
550
330
1F
100
AcDbEntity
  8
0
  6
Continuous
 62
     7
370
    15
100
AcDbLine
 10
2.2303746113
 20
1.1429911423
 30
0.0
 11
2.4070962232
 21
1.1429911423
 31
0.0
  0
LINE
  5
551
330
1F
100
AcDbEntity
  8
0
  6
Continuous
 62
     7
370
    15
100
AcDbLine
 10
6.0352709902
 20
1.3201565073
 30
0.0
 11
5.9888688329
 21
1.3201565073
 31
0.0
  0
LINE
  5
552
330
1F
100
AcDbEntity
  8
0
  6
Continuous
 62
     7
370
    15
100
AcDbLine
 10
6.0352709902
 20
1.3201565073
 30
0.0
 11
6.0352709902
 21
1.3792115984
 31
0.0
  0
LINE
  5
553
330
1F
100
AcDbEntity
  8
0
  6
Continuous
 62
     7
370
    15
100
AcDbLine
 10
6.0588929973
 20
1.3792115984
 30
0.0
 11
6.0352709902
 21
1.3792115984
 31
0.0
  0
LINE
  5
554
330
1F
100
AcDbEntity
  8
0
  6
Continuous
 62
     7
370
    15
100
AcDbLine
 10
6.0588929973
 20
1.3398415132
 30
0.0
 11
6.0588929973
 21
1.3792115984
 31
0.0
  0
LINE
  5
555
330
1F
100
AcDbEntity
  8
0
  6
Continuous
 62
     7
370
    15
100
AcDbLine
 10
6.0806413594
 20
1.3398415132
 30
0.0
 11
6.0588929973
 21
1.3398415132
 31
0.0
  0
LINE
  5
556
330
1F
100
AcDbEntity
  8
0
  6
Continuous
 62
     7
370
    15
100
AcDbLine
 10
6.0909577736
 20
1.1429911423
 30
0.0
 11
6.0806413594
 21
1.3398415132
 31
0.0
  0
LINE
  5
557
330
1F
100
AcDbEntity
  8
0
  6
Continuous
 62
     7
370
    15
100
AcDbLine
 10
6.2067527026
 20
1.1429911423
 30
0.0
 11
6.2067527026
 21
0.9855108198
 31
0.0
  0
LINE
  5
558
330
1F
100
AcDbEntity
  8
0
  6
Continuous
 62
     7
370
    15
100
AcDbLine
 10
2.5549559284
 20
1.3398415132
 30
0.0
 11
2.5332075663
 21
1.3398415132
 31
0.0
  0
LINE
  5
559
330
1F
100
AcDbEntity
  8
0
  6
Continuous
 62
     7
370
    15
100
AcDbLine
 10
2.5549559284
 20
1.3792115984
 30
0.0
 11
2.5549559284
 21
1.3398415132
 31
0.0
  0
LINE
  5
55A
330
1F
100
AcDbEntity
  8
0
  6
Continuous
 62
     7
370
    15
100
AcDbLine
 10
2.5785779355
 20
1.3792115984
 30
0.0
 11
2.5549559284
 21
1.3792115984
 31
0.0
  0
LINE
  5
55B
330
1F
100
AcDbEntity
  8
0
  6
Continuous
 62
     7
370
    15
100
AcDbLine
 10
2.5785779355
 20
1.3792115984
 30
0.0
 11
2.5785779355
 21
1.3201565073
 31
0.0
  0
LINE
  5
55C
330
1F
100
AcDbEntity
  8
0
  6
Continuous
 62
     7
370
    15
100
AcDbLine
 10
2.6249800928
 20
1.3201565073
 30
0.0
 11
2.5785779355
 21
1.3201565073
 31
0.0
  0
LINE
  5
55D
330
1F
100
AcDbEntity
  8
0
  6
Continuous
 62
     7
370
    15
100
AcDbLine
 10
2.6383914312
 20
1.064250981
 30
0.0
 11
2.6249800928
 21
1.3201565073
 31
0.0
  0
LINE
  5
55E
330
1F
100
AcDbEntity
  8
0
  6
Continuous
 62
     7
370
    15
100
AcDbLine
 10
5.9754574945
 20
1.064250981
 30
0.0
 11
2.6383914312
 21
1.064250981
 31
0.0
  0
LINE
  5
55F
330
1F
100
AcDbEntity
  8
0
  6
Continuous
 62
     7
370
    15
100
AcDbLine
 10
5.9888688329
 20
1.3201565073
 30
0.0
 11
5.9754574945
 21
1.064250981
 31
0.0
  0
LINE
  5
560
330
1F
100
AcDbEntity
  8
0
  6
Continuous
 62
     7
370
    15
100
AcDbLine
 10
2.5332075663
 20
1.3398415132
 30
0.0
 11
2.5228911522
 21
1.1429911423
 31
0.0
  0
LINE
  5
561
330
1F
100
AcDbEntity
  8
0
  6
Continuous
 62
     7
370
    15
100
AcDbLine
 10
6.2067527026
 20
0.9855108198
 30
0.0
 11
2.4070962232
 21
0.9855108198
 31
0.0
  0
LINE
  5
562
330
1F
100
AcDbEntity
  8
0
  6
Continuous
 62
     7
370
    15
100
AcDbLine
 10
6.2067527026
 20
1.1429911423
 30
0.0
 11
6.0909577736
 21
1.1429911423
 31
0.0
  0
LINE
  5
563
330
1F
100
AcDbEntity
  8
0
  6
Continuous
 62
     7
370
    15
100
AcDbLine
 10
2.5228911522
 20
1.1429911423
 30
0.0
 11
2.4070962232
 21
1.1429911423
 31
0.0
  0
LINE
  5
564
330
1F
100
AcDbEntity
  8
0
  6
Continuous
 62
     7
370
    15
100
AcDbLine
 10
6.3834743144
 20
0.9855108198
 30
0.0
 11
6.3834743144
 21
1.1429911423
 31
0.0
  0
LINE
  5
565
330
1F
100
AcDbEntity
  8
0
  6
Continuous
 62
     7
370
    15
100
AcDbLine
 10
6.2067527026
 20
0.9855108198
 30
0.0
 11
6.3834743144
 21
0.9855108198
 31
0.0
  0
LINE
  5
566
330
1F
100
AcDbEntity
  8
0
  6
Continuous
 62
     7
370
    15
100
AcDbLine
 10
6.2067527026
 20
1.1429911423
 30
0.0
 11
6.3834743144
 21
1.1429911423
 31
0.0
  0
LINE
  5
567
330
1F
100
AcDbEntity
  8
0
  6
Continuous
 62
     7
370
    15
100
AcDbLine
 10
6.4919638611
 20
0.9855108198
 30
0.0
 11
6.3834743144
 21
0.9855108198
 31
0.0
  0
LINE
  5
568
330
1F
100
AcDbEntity
  8
0
  6
Continuous
 62
     7
370
    15
100
AcDbLine
 10
6.4919638611
 20
1.1036210571
 30
0.0
 11
6.4919638611
 21
0.9855108198
 31
0.0
  0
ARC
  5
569
330
1F
100
AcDbEntity
  8
0
  6
Continuous
 62
     7
370
    15
100
AcDbCircle
 10
6.4525937542
 20
1.103621056
 30
0.0
 40
0.0393700787401583
100
AcDbArc
 50
0.0
 51
90.0
  0
LINE
  5
56A
330
1F
100
AcDbEntity
  8
0
  6
Continuous
 62
     7
370
    15
100
AcDbLine
 10
6.4525937026
 20
1.1429911423
 30
0.0
 11
6.3834743144
 21
1.1429911423
 31
0.0
  0
LINE
  5
56B
330
1F
100
AcDbEntity
  8
0
  6
Continuous
 62
     7
370
    15
100
AcDbLine
 10
3.2601813216
 20
1.2611013795
 30
0.0
 11
3.030832871
 21
1.2611013795
 31
0.0
  0
LINE
  5
56C
330
1F
100
AcDbEntity
  8
0
  6
Continuous
 62
     7
370
    15
100
AcDbLine
 10
5.5830160547
 20
1.2611013795
 30
0.0
 11
5.3536676041
 21
1.2611013795
 31
0.0
  0
LINE
  5
56D
330
1F
100
AcDbEntity
  8
0
  6
Continuous
 62
     7
370
    15
100
AcDbLine
 10
3.991963818
 20
1.2414163369
 30
0.0
 11
3.991963818
 21
1.3201565073
 31
0.0
  0
LINE
  5
56E
330
1F
100
AcDbEntity
  8
0
  6
Continuous
 62
     7
370
    15
100
AcDbLine
 10
4.6218851077
 20
1.2414163369
 30
0.0
 11
3.991963818
 21
1.2414163369
 31
0.0
  0
LINE
  5
56F
330
1F
100
AcDbEntity
  8
0
  6
Continuous
 62
     7
370
    15
100
AcDbLine
 10
4.6218851077
 20
1.3201565073
 30
0.0
 11
4.6218851077
 21
1.2414163369
 31
0.0
  0
LINE
  5
570
330
1F
100
AcDbEntity
  8
0
  6
Continuous
 62
     7
370
    15
100
AcDbLine
 10
4.6218851077
 20
1.3201565073
 30
0.0
 11
5.9888688329
 21
1.3201565073
 31
0.0
  0
LINE
  5
571
330
1F
100
AcDbEntity
  8
0
  6
Continuous
 62
     7
370
    15
100
AcDbLine
 10
2.6249800928
 20
1.3201565073
 30
0.0
 11
3.991963818
 21
1.3201565073
 31
0.0
  0
LINE
  5
572
330
1F
100
AcDbEntity
  8
0
  6
Continuous
 62
     7
370
    15
100
AcDbLine
 10
4.6218851077
 20
1.3201565073
 30
0.0
 11
4.5825150225
 21
1.3201565073
 31
0.0
  0
LINE
  5
573
330
1F
100
AcDbEntity
  8
0
  6
Continuous
 62
     7
370
    15
100
AcDbLine
 10
4.0313339032
 20
1.3201565073
 30
0.0
 11
3.991963818
 21
1.3201565073
 31
0.0
  0
HATCH
  5
574
330
1F
100
AcDbEntity
  8
0
  6
Continuous
 62
     7
370
     0
100
AcDbHatch
 10
0.0
 20
0.0
 30
0.0
210
0.0
220
0.0
230
1.0
  2
ANSI31
 70
     0
 71
     0
 91
        1
 92
        0
 93
        5
 72
     1
 10
2.230374679854158
 20
1.142991134771235
 11
2.161255171523462
 21
1.142991134771235
 72
     2
 10
2.161255171523462
 20
1.103621056031078
 40
0.0393700787401575
 50
90.0
 51
180.0
 73
     1
 72
     1
 10
2.121885092783305
 20
1.103621056031078
 11
2.121885092783305
 21
0.9855108198106054
 72
     1
 10
2.121885092783305
 20
0.9855108198106054
 11
2.230374679854158
 21
0.9855108198106054
 72
     1
 10
2.230374679854158
 20
0.9855108198106054
 11
2.230374679854158
 21
1.142991134771235
 97
        0
 75
     0
 76
     1
 52
0.0
 41
1.0
 77
     0
 78
     1
 53
45.0
 43
0.0
 44
0.0
 45
-0.0883883476483184
 46
0.0883883476483184
 79
     0
 98
        1
 10
0.0
 20
0.0
  0
HATCH
  5
575
330
1F
100
AcDbEntity
  8
0
  6
Continuous
 62
     7
370
     0
100
AcDbHatch
 10
0.0
 20
0.0
 30
0.0
210
0.0
220
0.0
230
1.0
  2
ANSI31
 70
     0
 71
     0
 91
        1
 92
        0
 93
       20
 72
     1
 10
5.98886888534533
 20
1.320156489101944
 11
5.975457445765024
 21
1.06425097729092
 72
     1
 10
5.975457445765024
 20
1.06425097729092
 11
2.638391479959066
 21
1.06425097729092
 72
     1
 10
2.638391479959066
 20
1.06425097729092
 11
2.62498004037876
 21
1.320156489101944
 72
     1
 10
2.62498004037876
 20
1.320156489101944
 11
2.578578006169132
 21
1.320156489101944
 72
     1
 10
2.578578006169132
 20
1.320156489101944
 11
2.578578006169132
 21
1.37921160721218
 72
     1
 10
2.578578006169132
 20
1.37921160721218
 11
2.554955958925037
 21
1.37921160721218
 72
     1
 10
2.554955958925037
 20
1.37921160721218
 11
2.554955958925037
 21
1.339841528472023
 72
     1
 10
2.554955958925037
 20
1.339841528472023
 11
2.533207621158128
 21
1.339841528474691
 72
     1
 10
2.533207621158128
 20
1.339841528474691
 11
2.522891129173205
 21
1.142991134771235
 72
     1
 10
2.522891129173205
 20
1.142991134771235
 11
2.407096293114026
 21
1.142991134771235
 72
     1
 10
2.407096293114026
 20
1.142991134771235
 11
2.407096293114026
 21
0.9855108198106054
 72
     1
 10
2.407096293114026
 20
0.9855108198106054
 11
6.206752632610063
 21
0.9855108198106054
 72
     1
 10
6.206752632610063
 20
0.9855108198106054
 11
6.206752632610063
 21
1.142991134771235
 72
     1
 10
6.206752632610063
 20
1.142991134771235
 11
6.090957796550885
 21
1.142991134771235
 72
     1
 10
6.090957796550885
 20
1.142991134771235
 11
6.080641304565963
 21
1.339841528474691
 72
     1
 10
6.080641304565963
 20
1.339841528474691
 11
6.058892966799053
 21
1.339841528472023
 72
     1
 10
6.058892966799053
 20
1.339841528472023
 11
6.058892966799053
 21
1.37921160721218
 72
     1
 10
6.058892966799053
 20
1.37921160721218
 11
6.035270919554959
 21
1.37921160721218
 72
     1
 10
6.035270919554959
 20
1.37921160721218
 11
6.035270919554959
 21
1.320156489101944
 72
     1
 10
6.035270919554959
 20
1.320156489101944
 11
5.98886888534533
 21
1.320156489101944
 97
        0
 75
     0
 76
     1
 52
0.0
 41
1.0
 77
     0
 78
     1
 53
45.0
 43
0.0
 44
0.0
 45
-0.0883883476483184
 46
0.0883883476483184
 79
     0
 98
        1
 10
0.0
 20
0.0
  0
HATCH
  5
576
330
1F
100
AcDbEntity
  8
0
  6
Continuous
 62
     7
370
     0
100
AcDbHatch
 10
0.0
 20
0.0
 30
0.0
210
0.0
220
0.0
230
1.0
  2
ANSI31
 70
     0
 71
     0
 91
        1
 92
        0
 93
        5
 72
     1
 10
6.491963832940786
 20
0.9855108198106054
 11
6.491963832940786
 21
1.103621056031078
 72
     2
 10
6.452593754200628
 20
1.103621056031078
 40
0.0393700787401575
 50
0.0
 51
90.0
 73
     1
 72
     1
 10
6.452593754200628
 20
1.142991134771235
 11
6.383474245869933
 21
1.142991134771235
 72
     1
 10
6.383474245869933
 20
1.142991134771235
 11
6.383474245869933
 21
0.9855108198106054
 72
     1
 10
6.383474245869933
 20
0.9855108198106054
 11
6.491963832940786
 21
0.9855108198106054
 97
        0
 75
     0
 76
     1
 52
0.0
 41
1.0
 77
     0
 78
     1
 53
45.0
 43
0.0
 44
0.0
 45
-0.0883883476483184
 46
0.0883883476483184
 79
     0
 98
        1
 10
0.0
 20
0.0
  0
HATCH
  5
577
330
1F
100
AcDbEntity
  8
0
  6
Continuous
 62
     7
370
     0
100
AcDbHatch
 10
0.0
 20
0.0
 30
0.0
210
0.0
220
0.0
230
1.0
  2
ANSI31
 70
     0
 71
     0
 91
        1
 92
        0
 93
       14
 72
     1
 10
2.653866217936342
 20
1.989447827684621
 11
5.959982707787748
 21
1.989447827684621
 72
     1
 10
5.959982707787748
 20
1.989447827684621
 11
5.99505878053624
 21
1.320156489101944
 72
     1
 10
5.99505878053624
 20
1.320156489101944
 11
6.031333911680942
 21
1.320156489101944
 72
     1
 10
6.031333911680942
 20
1.320156489101944
 11
6.031333911680942
 21
1.37921160721218
 72
     1
 10
6.031333911680942
 20
1.37921160721218
 11
6.078578006169131
 21
1.37921160721218
 72
     1
 10
6.078578006169131
 20
1.37921160721218
 11
6.044425597924505
 21
2.030878377143005
 72
     2
 10
6.00510947450897
 20
2.028817906424779
 40
0.0393700787401575
 50
2.999999999999616
 51
90.0
 73
     1
 72
     1
 10
6.00510947450897
 20
2.068187985164936
 11
2.608739451215119
 21
2.068187985164936
 72
     2
 10
2.608739451215121
 20
2.028817906424779
 40
0.0393700787401575
 50
90.00000000000193
 51
177.0000000000004
 73
     1
 72
     1
 10
2.569423327799586
 20
2.030878377143005
 11
2.535270919554958
 21
1.37921160721218
 72
     1
 10
2.535270919554958
 20
1.37921160721218
 11
2.582515014043147
 21
1.37921160721218
 72
     1
 10
2.582515014043147
 20
1.37921160721218
 11
2.582515014043147
 21
1.320156489101944
 72
     1
 10
2.582515014043147
 20
1.320156489101944
 11
2.61879014518785
 21
1.320156489101944
 72
     1
 10
2.61879014518785
 20
1.320156489101944
 11
2.653866217936342
 21
1.989447827684621
 97
        0
 75
     0
 76
     1
 52
0.0
 41
1.0
 77
     0
 78
     1
 53
45.0
 43
0.0
 44
0.0
 45
-0.0883883476483184
 46
0.0883883476483184
 79
     0
 98
        1
 10
0.0
 20
0.0
  0
DIMENSION
  5
578
330
1F
100
AcDbEntity
  8
0
  6
Continuous
 62
     7
370
     0
100
AcDbDimension
  2
*D40
 10
1.6924958335
 20
1.9894478277
 30
0.0
 11
1.6924958335
 21
1.6252745993
 31
0.0
 70
   160
 71
     2
 42
-1.0
  3
SLDDIMSTYLE5
100
AcDbAlignedDimension
 13
3.1027010249
 23
1.261101371
 33
0.0
 14
2.6538662179
 24
1.9894478277
 34
0.0
 50
90.0
100
AcDbRotatedDimension
  0
DIMENSION
  5
58C
330
1F
100
AcDbEntity
  8
0
  6
Continuous
 62
     7
370
     0
100
AcDbDimension
  2
*D41
 10
6.8856805498
 20
1.9894478277
 30
0.0
 11
6.8856805498
 21
1.5268494025
 31
0.0
 70
   160
 71
     2
 42
-1.0
  3
SLDDIMSTYLE1
100
AcDbAlignedDimension
 13
5.9754574458
 23
1.0642509773
 33
0.0
 14
5.9599827078
 24
1.9894478277
 34
0.0
 50
90.0
100
AcDbRotatedDimension
  0
DIMENSION
  5
5A0
330
1F
100
AcDbEntity
  8
0
  6
Continuous
 62
     7
370
     0
100
AcDbDimension
  2
*D42
 10
7.3976692116
 20
2.0681879852
 30
0.0
 11
7.3976692116
 21
1.5268494025
 31
0.0
 70
   160
 71
     2
 42
-1.0
  3
SLDDIMSTYLE1
100
AcDbAlignedDimension
 13
6.4919638329
 23
0.9855108198
 33
0.0
 14
6.0051094745
 24
2.0681879852
 34
0.0
 50
90.0
100
AcDbRotatedDimension
  0
ENDSEC
  0
SECTION
  2
OBJECTS
  0
DICTIONARY
  5
C
330
0
100
AcDbDictionary
281
     1
  3
ACAD_GROUP
350
D
  3
ACAD_LAYOUT
350
1A
  3
ACAD_MLINESTYLE
350
17
  3
ACAD_PLOTSETTINGS
350
19
  3
ACAD_PLOTSTYLENAME
350
E
  0
DICTIONARY
  5
D
102
{ACAD_REACTORS
330
C
102
}
330
C
100
AcDbDictionary
281
     1
  0
DICTIONARY
  5
1A
102
{ACAD_REACTORS
330
C
102
}
330
C
100
AcDbDictionary
281
     1
  3
Layout1
350
1E
  3
Layout2
350
26
  3
Model
350
22
  0
DICTIONARY
  5
17
102
{ACAD_REACTORS
330
C
102
}
330
C
100
AcDbDictionary
281
     1
  3
Standard
350
18
  0
DICTIONARY
  5
19
102
{ACAD_REACTORS
330
C
102
}
330
C
100
AcDbDictionary
281
     1
  0
ACDBDICTIONARYWDFLT
  5
E
102
{ACAD_REACTORS
330
C
102
}
330
C
100
AcDbDictionary
281
     1
  3
Normal
350
F
100
AcDbDictionaryWithDefault
340
F
  0
LAYOUT
  5
1E
102
{ACAD_REACTORS
330
1A
102
}
330
1A
100
AcDbPlotSettings
  1

  2
none_device
  4

  6

 40
0.0
 41
0.0
 42
0.0
 43
0.0
 44
0.0
 45
0.0
 46
0.0
 47
0.0
 48
0.0
 49
0.0
140
0.0
141
0.0
142
1.0
143
1.0
 70
   688
 72
     0
 73
     0
 74
     5
  7

 75
    16
147
1.0
148
0.0
149
0.0
100
AcDbLayout
  1
Layout1
 70
     1
 71
     1
 10
0.0
 20
0.0
 11
12.0
 21
9.0
 12
0.0
 22
0.0
 32
0.0
 14
1.0000000000E+20
 24
1.0000000000E+20
 34
1.0000000000E+20
 15
-1.0000000000E+20
 25
-1.0000000000E+20
 35
-1.0000000000E+20
146
0.0
 13
0.0
 23
0.0
 33
0.0
 16
1.0
 26
0.0
 36
0.0
 17
0.0
 27
1.0
 37
0.0
 76
     0
330
1B
  0
LAYOUT
  5
26
102
{ACAD_REACTORS
330
1A
102
}
330
1A
100
AcDbPlotSettings
  1

  2
none_device
  4

  6

 40
0.0
 41
0.0
 42
0.0
 43
0.0
 44
0.0
 45
0.0
 46
0.0
 47
0.0
 48
0.0
 49
0.0
140
0.0
141
0.0
142
1.0
143
1.0
 70
   688
 72
     0
 73
     0
 74
     5
  7

 75
    16
147
1.0
148
0.0
149
0.0
100
AcDbLayout
  1
Layout2
 70
     1
 71
     2
 10
0.0
 20
0.0
 11
0.0
 21
0.0
 12
0.0
 22
0.0
 32
0.0
 14
0.0
 24
0.0
 34
0.0
 15
0.0
 25
0.0
 35
0.0
146
0.0
 13
0.0
 23
0.0
 33
0.0
 16
1.0
 26
0.0
 36
0.0
 17
0.0
 27
1.0
 37
0.0
 76
     0
330
23
  0
LAYOUT
  5
22
102
{ACAD_REACTORS
330
1A
102
}
330
1A
100
AcDbPlotSettings
  1

  2
none_device
  4

  6

 40
0.0
 41
0.0
 42
0.0
 43
0.0
 44
0.0
 45
0.0
 46
0.0
 47
0.0
 48
0.0
 49
0.0
140
0.0
141
0.0
142
1.0
143
1.0
 70
  1712
 72
     0
 73
     0
 74
     0
  7

 75
     0
147
1.0
148
0.0
149
0.0
100
AcDbLayout
  1
Model
 70
     1
 71
     0
 10
0.0
 20
0.0
 11
17.0
 21
11.0
 12
0.0
 22
0.0
 32
0.0
 14
0.0
 24
0.0
 34
0.0
 15
17.0
 25
11.0
 35
0.0
146
0.0
 13
0.0
 23
0.0
 33
0.0
 16
1.0
 26
0.0
 36
0.0
 17
0.0
 27
1.0
 37
0.0
 76
     0
330
1F
331
29
  0
MLINESTYLE
  5
18
102
{ACAD_REACTORS
330
17
102
}
330
17
100
AcDbMlineStyle
  2
Standard
 70
     0
  3

 62
   256
 51
90.0
 52
90.0
 71
     2
 49
0.5
 62
   256
  6
BYLAYER
 49
-0.5
 62
   256
  6
BYLAYER
  0
ACDBPLACEHOLDER
  5
F
102
{ACAD_REACTORS
330
E
102
}
330
E
  0
ENDSEC
  0
EOF
