  0
SECTION
  2
HEADER
  9
$ACADVER
  1
AC1015
  9
$ACADMAINTVER
 70
     6
  9
$DWGCODEPAGE
  3
ANSI_1252
  9
$INSBASE
 10
0.0
 20
0.0
 30
0.0
  9
$EXTMIN
 10
0.0
 20
0.0
 30
0.0
  9
$EXTMAX
 10
19.125
 20
12.375
 30
0.0
  9
$LIMMIN
 10
0.0
 20
0.0
  9
$LIMMAX
 10
19.125
 20
12.375
  9
$ORTHOMODE
 70
     0
  9
$REGENMODE
 70
     1
  9
$FILLMODE
 70
     1
  9
$QTEXTMODE
 70
     0
  9
$MIRRTEXT
 70
     1
  9
$LTSCALE
 40
1.125
  9
$ATTMODE
 70
     1
  9
$TEXTSIZE
 40
0.140625
  9
$TRACEWID
 40
0.05
  9
$TEXTSTYLE
  7
Standard
  9
$CLAYER
  8
0
  9
$CELTYPE
  6
ByLayer
  9
$CECOLOR
 62
   256
  9
$CELTSCALE
 40
1.0
  9
$DISPSILH
 70
     0
  9
$DIMSCALE
 40
1.0
  9
$DIMASZ
 40
0.14625
  9
$DIMEXO
 40
0.05625
  9
$DIMDLI
 40
0.38
  9
$DIMRND
 40
0.0
  9
$DIMDLE
 40
0.0
  9
$DIMEXE
 40
0.140625
  9
$DIMTP
 40
0.0
  9
$DIMTM
 40
0.0
  9
$DIMTXT
 40
0.140625
  9
$DIMCEN
 40
0.09
  9
$DIMTSZ
 40
0.0
  9
$DIMTOL
 70
     0
  9
$DIMLIM
 70
     0
  9
$DIMTIH
 70
     1
  9
$DIMTOH
 70
     1
  9
$DIMSE1
 70
     0
  9
$DIMSE2
 70
     0
  9
$DIMTAD
 70
     1
  9
$DIMZIN
 70
     0
  9
$DIMBLK
  1

  9
$DIMASO
 70
     1
  9
$DIMSHO
 70
     1
  9
$DIMPOST
  1

  9
$DIMAPOST
  1

  9
$DIMALT
 70
     0
  9
$DIMALTD
 70
     2
  9
$DIMALTF
 40
25.4
  9
$DIMLFAC
 40
1.0
  9
$DIMTOFL
 70
     0
  9
$DIMTVP
 40
0.0
  9
$DIMTIX
 70
     0
  9
$DIMSOXD
 70
     0
  9
$DIMSAH
 70
     0
  9
$DIMBLK1
  1

  9
$DIMBLK2
  1

  9
$DIMSTYLE
  2
Standard
  9
$DIMCLRD
 70
     0
  9
$DIMCLRE
 70
     0
  9
$DIMCLRT
 70
     0
  9
$DIMTFAC
 40
1.0
  9
$DIMGAP
 40
0.0675
  9
$DIMJUST
 70
     0
  9
$DIMSD1
 70
     0
  9
$DIMSD2
 70
     0
  9
$DIMTOLJ
 70
     1
  9
$DIMTZIN
 70
     0
  9
$DIMALTZ
 70
     0
  9
$DIMALTTZ
 70
     0
  9
$DIMUPT
 70
     0
  9
$DIMDEC
 70
     2
  9
$DIMTDEC
 70
     2
  9
$DIMALTU
 70
     2
  9
$DIMALTTD
 70
     2
  9
$DIMTXSTY
  7
Standard
  9
$DIMAUNIT
 70
     0
  9
$DIMADEC
 70
     2
  9
$DIMALTRND
 40
0.0
  9
$DIMAZIN
 70
     0
  9
$DIMDSEP
 70
    46
  9
$DIMATFIT
 70
     3
  9
$DIMFRAC
 70
     0
  9
$DIMLDRBLK
  1

  9
$DIMLUNIT
 70
     2
  9
$DIMLWD
 70
    -2
  9
$DIMLWE
 70
    -2
  9
$DIMTMOVE
 70
     0
  9
$LUNITS
 70
     2
  9
$LUPREC
 70
     2
  9
$SKETCHINC
 40
0.1
  9
$FILLETRAD
 40
0.5
  9
$AUNITS
 70
     0
  9
$AUPREC
 70
     2
  9
$MENU
  1
.
  9
$ELEVATION
 40
0.0
  9
$PELEVATION
 40
0.0
  9
$THICKNESS
 40
0.0
  9
$LIMCHECK
 70
     0
  9
$CHAMFERA
 40
0.5
  9
$CHAMFERB
 40
0.5
  9
$CHAMFERC
 40
1.0
  9
$CHAMFERD
 40
0.0
  9
$SKPOLY
 70
     0
  9
$TDCREATE
 40
2456966.626501875
  9
$TDUCREATE
 40
2456966.834835208
  9
$TDUPDATE
 40
2456966.626501887
  9
$TDUUPDATE
 40
2456966.83483522
  9
$TDINDWG
 40
0.0000000116
  9
$TDUSRTIMER
 40
0.0000000116
  9
$USRTIMER
 70
     1
  9
$ANGBASE
 50
0.0
  9
$ANGDIR
 70
     0
  9
$PDMODE
 70
     0
  9
$PDSIZE
 40
-1.0
  9
$PLINEWID
 40
0.0
  9
$SPLFRAME
 70
     0
  9
$SPLINETYPE
 70
     6
  9
$SPLINESEGS
 70
     8
  9
$HANDSEED
  5
641
  9
$SURFTAB1
 70
     6
  9
$SURFTAB2
 70
     6
  9
$SURFTYPE
 70
     6
  9
$SURFU
 70
     6
  9
$SURFV
 70
     6
  9
$UCSBASE
  2

  9
$UCSNAME
  2

  9
$UCSORG
 10
0.0
 20
0.0
 30
0.0
  9
$UCSXDIR
 10
1.0
 20
0.0
 30
0.0
  9
$UCSYDIR
 10
0.0
 20
1.0
 30
0.0
  9
$UCSORTHOREF
  2

  9
$UCSORTHOVIEW
 70
     0
  9
$UCSORGTOP
 10
0.0
 20
0.0
 30
0.0
  9
$UCSORGBOTTOM
 10
0.0
 20
0.0
 30
0.0
  9
$UCSORGLEFT
 10
0.0
 20
0.0
 30
0.0
  9
$UCSORGRIGHT
 10
0.0
 20
0.0
 30
0.0
  9
$UCSORGFRONT
 10
0.0
 20
0.0
 30
0.0
  9
$UCSORGBACK
 10
0.0
 20
0.0
 30
0.0
  9
$PUCSBASE
  2

  9
$PUCSNAME
  2

  9
$PUCSORG
 10
0.0
 20
0.0
 30
0.0
  9
$PUCSXDIR
 10
1.0
 20
0.0
 30
0.0
  9
$PUCSYDIR
 10
0.0
 20
1.0
 30
0.0
  9
$PUCSORTHOREF
  2

  9
$PUCSORTHOVIEW
 70
     0
  9
$PUCSORGTOP
 10
0.0
 20
0.0
 30
0.0
  9
$PUCSORGBOTTOM
 10
0.0
 20
0.0
 30
0.0
  9
$PUCSORGLEFT
 10
0.0
 20
0.0
 30
0.0
  9
$PUCSORGRIGHT
 10
0.0
 20
0.0
 30
0.0
  9
$PUCSORGFRONT
 10
0.0
 20
0.0
 30
0.0
  9
$PUCSORGBACK
 10
0.0
 20
0.0
 30
0.0
  9
$USERI1
 70
     0
  9
$USERI2
 70
     0
  9
$USERI3
 70
     0
  9
$USERI4
 70
     0
  9
$USERI5
 70
     0
  9
$USERR1
 40
0.0
  9
$USERR2
 40
0.0
  9
$USERR3
 40
0.0
  9
$USERR4
 40
0.0
  9
$USERR5
 40
0.0
  9
$WORLDVIEW
 70
     1
  9
$SHADEDGE
 70
     3
  9
$SHADEDIF
 70
    70
  9
$TILEMODE
 70
     1
  9
$MAXACTVP
 70
    64
  9
$PINSBASE
 10
0.0
 20
0.0
 30
0.0
  9
$PLIMCHECK
 70
     0
  9
$PEXTMIN
 10
1.0000000000E+20
 20
1.0000000000E+20
 30
1.0000000000E+20
  9
$PEXTMAX
 10
-1.0000000000E+20
 20
-1.0000000000E+20
 30
-1.0000000000E+20
  9
$PLIMMIN
 10
0.0
 20
0.0
  9
$PLIMMAX
 10
12.0
 20
9.0
  9
$UNITMODE
 70
     0
  9
$VISRETAIN
 70
     1
  9
$PLINEGEN
 70
     0
  9
$PSLTSCALE
 70
     1
  9
$TREEDEPTH
 70
  3020
  9
$CMLSTYLE
  2
Standard
  9
$CMLJUST
 70
     0
  9
$CMLSCALE
 40
1.0
  9
$PROXYGRAPHICS
 70
     1
  9
$MEASUREMENT
 70
     0
  9
$CELWEIGHT
370
    -1
  9
$ENDCAPS
280
     0
  9
$JOINSTYLE
280
     0
  9
$LWDISPLAY
290
     1
  9
$INSUNITS
 70
     1
  9
$HYPERLINKBASE
  1

  9
$STYLESHEET
  1

  9
$XEDIT
290
     1
  9
$CEPSNTYPE
380
     0
  9
$PSTYLEMODE
290
     1
  9
$FINGERPRINTGUID
  2
{610D684F-6085-4852-B6CB-5FABCCDECB10}
  9
$VERSIONGUID
  2
{FAEB1C32-E019-11D5-929B-00C0DF256EC4}
  9
$EXTNAMES
290
     1
  9
$PSVPSCALE
 40
0.0
  9
$OLESTARTUP
290
     0
  0
ENDSEC
  0
SECTION
  2
CLASSES
  0
CLASS
  1
ACDBDICTIONARYWDFLT
  2
AcDbDictionaryWithDefault
  3
ObjectDBX Classes
 90
        0
280
     0
281
     0
  0
CLASS
  1
VISUALSTYLE
  2
AcDbVisualStyle
  3
ObjectDBX Classes
 90
     4095
280
     0
281
     0
  0
CLASS
  1
MATERIAL
  2
AcDbMaterial
  3
ObjectDBX Classes
 90
     1153
280
     0
281
     0
  0
CLASS
  1
ACDBPLACEHOLDER
  2
AcDbPlaceHolder
  3
ObjectDBX Classes
 90
        0
280
     0
281
     0
  0
CLASS
  1
LAYOUT
  2
AcDbLayout
  3
ObjectDBX Classes
 90
        0
280
     0
281
     0
  0
ENDSEC
  0
SECTION
  2
TABLES
  0
TABLE
  2
VPORT
  5
8
330
0
100
AcDbSymbolTable
 70
     1
  0
VPORT
  5
29
330
8
100
AcDbSymbolTableRecord
100
AcDbViewportTableRecord
  2
*Active
 70
     0
 10
0.0
 20
0.0
 11
1.0
 21
1.0
 12
9.5625
 22
6.1875
 13
0.0
 23
0.0
 14
0.5
 24
0.5
 15
0.5
 25
0.5
 16
0.0
 26
0.0
 36
1.0
 17
0.0
 27
0.0
 37
0.0
 40
12.375
 41
1.5454545455
 42
50.0
 43
0.0
 44
0.0
 50
0.0
 51
0.0
 71
     0
 72
  2000
 73
     1
 74
     3
 75
     0
 76
     0
 77
     0
 78
     0
281
     0
 65
     1
110
0.0
120
0.0
130
0.0
111
1.0
121
0.0
131
0.0
112
0.0
122
1.0
132
0.0
 79
     0
146
0.0
  0
ENDTAB
  0
TABLE
  2
LTYPE
  5
5
330
0
100
AcDbSymbolTable
 70
     6
  0
LTYPE
  5
14
330
5
100
AcDbSymbolTableRecord
100
AcDbLinetypeTableRecord
  2
ByBlock
 70
     0
  3

 72
    65
 73
     0
 40
0.0
  0
LTYPE
  5
15
330
5
100
AcDbSymbolTableRecord
100
AcDbLinetypeTableRecord
  2
ByLayer
 70
     0
  3

 72
    65
 73
     0
 40
0.0
  0
LTYPE
  5
16
330
5
100
AcDbSymbolTableRecord
100
AcDbLinetypeTableRecord
  2
Continuous
 70
     0
  3
Solid line
 72
    65
 73
     0
 40
0.0
  0
LTYPE
  5
3F
330
5
100
AcDbSymbolTableRecord
100
AcDbLinetypeTableRecord
  2
HIDDEN
 70
     0
  3
Hidden __ __ __ __ __ __ __ __ __ __ __ __ __ __
 72
    65
 73
     2
 40
0.075
 49
0.05
 74
     0
 49
-0.025
 74
     0
  0
LTYPE
  5
40
330
5
100
AcDbSymbolTableRecord
100
AcDbLinetypeTableRecord
  2
PHANTOM
 70
     0
  3
Phantom ______  __  __  ______  __  __  ______
 72
    65
 73
     6
 40
0.5
 49
0.25
 74
     0
 49
-0.05
 74
     0
 49
0.05
 74
     0
 49
-0.05
 74
     0
 49
0.05
 74
     0
 49
-0.05
 74
     0
  0
LTYPE
  5
41
330
5
100
AcDbSymbolTableRecord
100
AcDbLinetypeTableRecord
  2
CENTER
 70
     0
  3
Center ____ _ ____ _ ____ _ ____ _ ____ _ ____
 72
    65
 73
     4
 40
0.4
 49
0.25
 74
     0
 49
-0.05
 74
     0
 49
0.05
 74
     0
 49
-0.05
 74
     0
  0
LTYPE
  5
42
330
5
100
AcDbSymbolTableRecord
100
AcDbLinetypeTableRecord
  2
CENTERX2
 70
     0
  3
Center (2x) ________  __  ________  __  _____
 72
    65
 73
     4
 40
0.8
 49
0.5
 74
     0
 49
-0.1
 74
     0
 49
0.1
 74
     0
 49
-0.1
 74
     0
  0
LTYPE
  5
43
330
5
100
AcDbSymbolTableRecord
100
AcDbLinetypeTableRecord
  2
DOT2
 70
     0
  3
Dot (.5x) ........................................
 72
    65
 73
     2
 40
0.025
 49
0.0
 74
     0
 49
-0.025
 74
     0
  0
ENDTAB
  0
TABLE
  2
LAYER
  5
2
330
0
100
AcDbSymbolTable
 70
     1
  0
LAYER
  5
10
330
2
100
AcDbSymbolTableRecord
100
AcDbLayerTableRecord
  2
0
 70
     0
 62
     7
  6
Continuous
370
    -3
390
F
  0
ENDTAB
  0
TABLE
  2
STYLE
  5
3
330
0
100
AcDbSymbolTable
 70
     3
  0
STYLE
  5
11
330
3
100
AcDbSymbolTableRecord
100
AcDbTextStyleTableRecord
  2
Standard
 70
     0
 40
0.0
 41
1.0
 50
0.0
 71
     0
 42
0.2
  3
txt
  4

  0
STYLE
  5
77
330
3
100
AcDbSymbolTableRecord
100
AcDbTextStyleTableRecord
  2
SLDTEXTSTYLE0
 70
     0
 40
0.0
 41
0.75
 50
0.0
 71
     0
 42
0.2
  3
TXT
  4

  0
STYLE
  5
81
330
3
100
AcDbSymbolTableRecord
100
AcDbTextStyleTableRecord
  2
SLDTEXTSTYLE1
 70
     0
 40
0.0
 41
0.7
 50
0.0
 71
     0
 42
0.2
  3
TXT
  4

  0
ENDTAB
  0
TABLE
  2
VIEW
  5
6
330
0
100
AcDbSymbolTable
 70
     0
  0
ENDTAB
  0
TABLE
  2
UCS
  5
7
330
0
100
AcDbSymbolTable
 70
     0
  0
ENDTAB
  0
TABLE
  2
APPID
  5
9
330
0
100
AcDbSymbolTable
 70
     1
  0
APPID
  5
12
330
9
100
AcDbSymbolTableRecord
100
AcDbRegAppTableRecord
  2
ACAD
 70
     0
  0
ENDTAB
  0
TABLE
  2
DIMSTYLE
  5
A
330
0
100
AcDbSymbolTable
 70
    10
100
AcDbDimStyleTable
  0
DIMSTYLE
105
27
330
A
100
AcDbSymbolTableRecord
100
AcDbDimStyleTableRecord
  2
Standard
 70
     0
178
     0
340
11
  0
DIMSTYLE
105
FE
102
{ACAD_REACTORS
330
FD
102
}
330
A
100
AcDbSymbolTableRecord
100
AcDbDimStyleTableRecord
  2
SLDDIMSTYLE0
 70
     0
 41
0.14625
 44
0.0
 45
0.000000001
 78
    12
 79
     3
140
0.140625
141
0.0
147
0.03515625
148
0.000000001
170
     1
173
     1
178
     0
271
     2
272
     2
276
     2
284
    12
340
77
  0
DIMSTYLE
105
110
102
{ACAD_REACTORS
330
10F
330
120
102
}
330
A
100
AcDbSymbolTableRecord
100
AcDbDimStyleTableRecord
  2
SLDDIMSTYLE1
 70
     0
 41
0.14625
 44
0.0
 45
0.000000001
 78
    12
 79
     3
140
0.140625
141
0.0
147
0.03515625
148
0.000000001
170
     1
173
     1
178
     0
271
     2
272
     2
276
     2
284
    12
340
77
  0
DIMSTYLE
105
131
102
{ACAD_REACTORS
330
130
330
145
330
159
330
182
330
196
330
1BE
330
1D2
330
46F
330
483
330
497
330
4AB
330
62D
102
}
330
A
100
AcDbSymbolTableRecord
100
AcDbDimStyleTableRecord
  2
SLDDIMSTYLE2
 70
     0
 41
0.14625
 44
0.0
 45
0.000000001
 78
    12
 79
     3
140
0.140625
147
0.03515625
148
0.000000001
170
     1
173
     1
178
     0
271
     2
272
     2
276
     2
284
    12
340
77
  0
DIMSTYLE
105
16E
102
{ACAD_REACTORS
330
16D
330
1AA
330
552
102
}
330
A
100
AcDbSymbolTableRecord
100
AcDbDimStyleTableRecord
  2
SLDDIMSTYLE3
 70
     0
 41
0.14625
 44
0.0
 45
0.000000001
 78
     4
 79
     1
140
0.140625
147
0.03515625
148
0.000000001
170
     1
173
     1
178
     0
271
     2
272
     2
276
     2
284
    12
340
77
  0
DIMSTYLE
105
1ED
330
A
100
AcDbSymbolTableRecord
100
AcDbDimStyleTableRecord
  2
SLDDIMSTYLE4
 70
     0
 41
0.14625
 44
0.0
 45
0.000000001
140
0.0
146
0.14625
147
0.0
173
     1
178
     0
271
     0
272
     0
276
     2
340
11
  0
DIMSTYLE
105
396
102
{ACAD_REACTORS
330
395
102
}
330
A
100
AcDbSymbolTableRecord
100
AcDbDimStyleTableRecord
  2
SLDDIMSTYLE5
 70
     0
 41
0.14625
 44
0.0
 45
0.000000001
 78
     4
 79
     1
140
0.140625
147
0.03515625
148
0.000000001
170
     1
172
     1
173
     1
178
     0
271
     2
272
     2
276
     2
284
    12
289
     0
340
77
  0
DIMSTYLE
105
3AB
102
{ACAD_REACTORS
330
3AA
330
3C0
330
3D5
330
4FA
330
50C
330
566
330
57B
330
605
330
619
102
}
330
A
100
AcDbSymbolTableRecord
100
AcDbDimStyleTableRecord
  2
SLDDIMSTYLE6
 70
     0
 41
0.14625
 44
0.0
 45
0.000000001
 78
    12
 79
     3
140
0.140625
147
0.03515625
148
0.000000001
170
     1
172
     1
173
     1
178
     0
271
     2
272
     2
276
     2
284
    12
289
     0
340
77
  0
DIMSTYLE
105
4E8
102
{ACAD_REACTORS
330
4E7
102
}
330
A
100
AcDbSymbolTableRecord
100
AcDbDimStyleTableRecord
  2
SLDDIMSTYLE7
 70
     0
 41
0.14625
 44
0.0
 78
    12
 79
     3
140
0.140625
144
1.125
147
0.03515625
148
0.000000001
170
     1
173
     1
178
     0
272
     0
276
     2
284
    12
340
77
  0
DIMSTYLE
105
596
330
A
100
AcDbSymbolTableRecord
100
AcDbDimStyleTableRecord
  2
SLDDIMSTYLE8
 70
     0
 41
0.045
 44
0.0
 45
0.000000001
140
0.0
146
0.045
147
0.0
173
     1
178
     0
271
     0
272
     0
276
     2
340
11
341
597
343
597
344
597
  0
ENDTAB
  0
TABLE
  2
BLOCK_RECORD
  5
1
330
0
100
AcDbSymbolTable
 70
    43
  0
BLOCK_RECORD
  5
1F
330
1
100
AcDbSymbolTableRecord
100
AcDbBlockTableRecord
  2
*Model_Space
340
22
  0
BLOCK_RECORD
  5
1B
330
1
100
AcDbSymbolTableRecord
100
AcDbBlockTableRecord
  2
*Paper_Space
340
1E
  0
BLOCK_RECORD
  5
23
330
1
100
AcDbSymbolTableRecord
100
AcDbBlockTableRecord
  2
*Paper_Space0
340
26
  0
BLOCK_RECORD
  5
74
330
1
100
AcDbSymbolTableRecord
100
AcDbBlockTableRecord
  2
SW_NOTE_0
340
0
102
{BLKREFS
331
7E
102
}
  0
BLOCK_RECORD
  5
83
330
1
100
AcDbSymbolTableRecord
100
AcDbBlockTableRecord
  2
SW_NOTE_1
340
0
102
{BLKREFS
331
88
102
}
  0
BLOCK_RECORD
  5
89
330
1
100
AcDbSymbolTableRecord
100
AcDbBlockTableRecord
  2
SW_NOTE_2
340
0
102
{BLKREFS
331
8E
102
}
  0
BLOCK_RECORD
  5
8F
330
1
100
AcDbSymbolTableRecord
100
AcDbBlockTableRecord
  2
SW_NOTE_3
340
0
102
{BLKREFS
331
94
102
}
  0
BLOCK_RECORD
  5
FF
330
1
100
AcDbSymbolTableRecord
100
AcDbBlockTableRecord
  2
*D5
340
0
  0
BLOCK_RECORD
  5
111
330
1
100
AcDbSymbolTableRecord
100
AcDbBlockTableRecord
  2
*D6
340
0
  0
BLOCK_RECORD
  5
121
330
1
100
AcDbSymbolTableRecord
100
AcDbBlockTableRecord
  2
*D7
340
0
  0
BLOCK_RECORD
  5
132
330
1
100
AcDbSymbolTableRecord
100
AcDbBlockTableRecord
  2
*D8
340
0
  0
BLOCK_RECORD
  5
146
330
1
100
AcDbSymbolTableRecord
100
AcDbBlockTableRecord
  2
*D9
340
0
  0
BLOCK_RECORD
  5
15A
330
1
100
AcDbSymbolTableRecord
100
AcDbBlockTableRecord
  2
*D10
340
0
  0
BLOCK_RECORD
  5
16F
330
1
100
AcDbSymbolTableRecord
100
AcDbBlockTableRecord
  2
*D11
340
0
  0
BLOCK_RECORD
  5
183
330
1
100
AcDbSymbolTableRecord
100
AcDbBlockTableRecord
  2
*D12
340
0
  0
BLOCK_RECORD
  5
197
330
1
100
AcDbSymbolTableRecord
100
AcDbBlockTableRecord
  2
*D13
340
0
  0
BLOCK_RECORD
  5
1AB
330
1
100
AcDbSymbolTableRecord
100
AcDbBlockTableRecord
  2
*D14
340
0
  0
BLOCK_RECORD
  5
1BF
330
1
100
AcDbSymbolTableRecord
100
AcDbBlockTableRecord
  2
*D15
340
0
  0
BLOCK_RECORD
  5
1D3
330
1
100
AcDbSymbolTableRecord
100
AcDbBlockTableRecord
  2
*D16
340
0
  0
BLOCK_RECORD
  5
1E6
330
1
100
AcDbSymbolTableRecord
100
AcDbBlockTableRecord
  2
SW_NOTE_4
340
0
102
{BLKREFS
331
1EC
102
}
  0
BLOCK_RECORD
  5
1EF
330
1
100
AcDbSymbolTableRecord
100
AcDbBlockTableRecord
  2
SW_CENTERMARKSYMBOL_0
340
0
102
{BLKREFS
331
1FA
102
}
  0
BLOCK_RECORD
  5
1FB
330
1
100
AcDbSymbolTableRecord
100
AcDbBlockTableRecord
  2
SW_CENTERMARKSYMBOL_1
340
0
102
{BLKREFS
331
206
102
}
  0
BLOCK_RECORD
  5
207
330
1
100
AcDbSymbolTableRecord
100
AcDbBlockTableRecord
  2
SW_CENTERMARKSYMBOL_2
340
0
102
{BLKREFS
331
222
102
}
  0
BLOCK_RECORD
  5
223
330
1
100
AcDbSymbolTableRecord
100
AcDbBlockTableRecord
  2
SW_CENTERMARKSYMBOL_3
340
0
102
{BLKREFS
331
22E
102
}
  0
BLOCK_RECORD
  5
22F
330
1
100
AcDbSymbolTableRecord
100
AcDbBlockTableRecord
  2
SW_CENTERMARKSYMBOL_4
340
0
102
{BLKREFS
331
23A
102
}
  0
BLOCK_RECORD
  5
23B
330
1
100
AcDbSymbolTableRecord
100
AcDbBlockTableRecord
  2
SW_CENTERMARKSYMBOL_5
340
0
102
{BLKREFS
331
246
102
}
  0
BLOCK_RECORD
  5
397
330
1
100
AcDbSymbolTableRecord
100
AcDbBlockTableRecord
  2
*D24
340
0
  0
BLOCK_RECORD
  5
3AC
330
1
100
AcDbSymbolTableRecord
100
AcDbBlockTableRecord
  2
*D25
340
0
  0
BLOCK_RECORD
  5
3C1
330
1
100
AcDbSymbolTableRecord
100
AcDbBlockTableRecord
  2
*D26
340
0
  0
BLOCK_RECORD
  5
3D6
330
1
100
AcDbSymbolTableRecord
100
AcDbBlockTableRecord
  2
*D27
340
0
  0
BLOCK_RECORD
  5
470
330
1
100
AcDbSymbolTableRecord
100
AcDbBlockTableRecord
  2
*D28
340
0
  0
BLOCK_RECORD
  5
484
330
1
100
AcDbSymbolTableRecord
100
AcDbBlockTableRecord
  2
*D29
340
0
  0
BLOCK_RECORD
  5
498
330
1
100
AcDbSymbolTableRecord
100
AcDbBlockTableRecord
  2
*D30
340
0
  0
BLOCK_RECORD
  5
4AC
330
1
100
AcDbSymbolTableRecord
100
AcDbBlockTableRecord
  2
*D31
340
0
  0
BLOCK_RECORD
  5
4E9
330
1
100
AcDbSymbolTableRecord
100
AcDbBlockTableRecord
  2
*D32
340
0
  0
BLOCK_RECORD
  5
4FB
330
1
100
AcDbSymbolTableRecord
100
AcDbBlockTableRecord
  2
*D33
340
0
  0
BLOCK_RECORD
  5
50D
330
1
100
AcDbSymbolTableRecord
100
AcDbBlockTableRecord
  2
*D34
340
0
  0
BLOCK_RECORD
  5
553
330
1
100
AcDbSymbolTableRecord
100
AcDbBlockTableRecord
  2
*D35
340
0
  0
BLOCK_RECORD
  5
567
330
1
100
AcDbSymbolTableRecord
100
AcDbBlockTableRecord
  2
*D36
340
0
  0
BLOCK_RECORD
  5
57C
330
1
100
AcDbSymbolTableRecord
100
AcDbBlockTableRecord
  2
*D37
340
0
  0
BLOCK_RECORD
  5
58F
330
1
100
AcDbSymbolTableRecord
100
AcDbBlockTableRecord
  2
SW_NOTE_5
340
0
102
{BLKREFS
331
595
102
}
  0
BLOCK_RECORD
  5
597
330
1
100
AcDbSymbolTableRecord
100
AcDbBlockTableRecord
  2
_DOT
340
0
  0
BLOCK_RECORD
  5
606
330
1
100
AcDbSymbolTableRecord
100
AcDbBlockTableRecord
  2
*D40
340
0
  0
BLOCK_RECORD
  5
61A
330
1
100
AcDbSymbolTableRecord
100
AcDbBlockTableRecord
  2
*D41
340
0
  0
BLOCK_RECORD
  5
62E
330
1
100
AcDbSymbolTableRecord
100
AcDbBlockTableRecord
  2
*D42
340
0
  0
ENDTAB
  0
ENDSEC
  0
SECTION
  2
BLOCKS
  0
BLOCK
  5
20
330
1F
100
AcDbEntity
  8
0
100
AcDbBlockBegin
  2
*Model_Space
 70
     0
 10
0.0
 20
0.0
 30
0.0
  3
*Model_Space
  1

  0
ENDBLK
  5
21
330
1F
100
AcDbEntity
  8
0
100
AcDbBlockEnd
  0
BLOCK
  5
1C
330
1B
100
AcDbEntity
 67
     1
  8
0
100
AcDbBlockBegin
  2
*Paper_Space
 70
     0
 10
0.0
 20
0.0
 30
0.0
  3
*Paper_Space
  1

  0
ENDBLK
  5
1D
330
1B
100
AcDbEntity
 67
     1
  8
0
100
AcDbBlockEnd
  0
BLOCK
  5
24
330
23
100
AcDbEntity
  8
0
100
AcDbBlockBegin
  2
*Paper_Space0
 70
     0
 10
0.0
 20
0.0
 30
0.0
  3
*Paper_Space0
  1

  0
ENDBLK
  5
25
330
23
100
AcDbEntity
  8
0
100
AcDbBlockEnd
  0
BLOCK
  5
75
330
74
100
AcDbEntity
  8
0
100
AcDbBlockBegin
  2
SW_NOTE_0
 70
     0
 10
0.0
 20
0.0
 30
0.0
  3
SW_NOTE_0
  1

  0
MTEXT
  5
78
330
74
100
AcDbEntity
  8
0
  6
Continuous
 62
     0
370
     0
100
AcDbMText
 10
0.0
 20
0.1812751509
 30
0.0
 40
0.140625
 41
0.0
 71
     1
 72
     1
  1
MATERIAL:
  7
SLDTEXTSTYLE0
 73
     1
 44
1.0
  0
MTEXT
  5
79
330
74
100
AcDbEntity
  8
0
  6
Continuous
 62
     0
370
     0
100
AcDbMText
 10
0.052734375
 20
-0.0036411829
 30
0.0
 40
0.140625
 41
0.0
 71
     1
 72
     1
  1
ABS UL94-HB
  7
SLDTEXTSTYLE0
 73
     1
 44
1.0
  0
MTEXT
  5
7A
330
74
100
AcDbEntity
  8
0
  6
Continuous
 62
     0
370
     0
100
AcDbMText
 10
0.0
 20
-0.3734738506
 30
0.0
 40
0.140625
 41
0.0
 71
     1
 72
     1
  1
COLOR:
  7
SLDTEXTSTYLE0
 73
     1
 44
1.0
  0
MTEXT
  5
7B
330
74
100
AcDbEntity
  8
0
  6
Continuous
 62
     0
370
     0
100
AcDbMText
 10
0.052734375
 20
-0.5583901844
 30
0.0
 40
0.140625
 41
0.0
 71
     1
 72
     1
  1
BLACK OR WHITE
  7
SLDTEXTSTYLE0
 73
     1
 44
1.0
  0
MTEXT
  5
7C
330
74
100
AcDbEntity
  8
0
  6
Continuous
 62
     0
370
     0
100
AcDbMText
 10
0.0
 20
-1.1131391859
 30
0.0
 40
0.140625
 41
0.0
 71
     1
 72
     1
  1
DIMENSIONS IN INCH[MM]
  7
SLDTEXTSTYLE0
 73
     1
 44
1.0
  0
MTEXT
  5
7D
330
74
100
AcDbEntity
  8
0
  6
Continuous
 62
     0
370
     0
100
AcDbMText
 10
0.0
 20
-1.4829718536
 30
0.0
 40
0.140625
 41
0.0
 71
     1
 72
     1
  1
DRAWING FOR REFERENCE
  7
SLDTEXTSTYLE0
 73
     1
 44
1.0
  0
ENDBLK
  5
76
330
74
100
AcDbEntity
  8
0
100
AcDbBlockEnd
  0
BLOCK
  5
84
330
83
100
AcDbEntity
  8
0
100
AcDbBlockBegin
  2
SW_NOTE_1
 70
     0
 10
0.0
 20
0.0
 30
0.0
  3
SW_NOTE_1
  1

  0
MTEXT
  5
86
330
83
100
AcDbEntity
  8
0
  6
Continuous
 62
     0
370
     0
100
AcDbMText
 10
0.2131347656
 20
0.1812751509
 30
0.0
 40
0.140625
 41
0.0
 71
     2
 72
     1
  1
PART
  7
SLDTEXTSTYLE0
 73
     1
 44
1.0
  0
MTEXT
  5
87
330
83
100
AcDbEntity
  8
0
  6
Continuous
 62
     0
370
     0
100
AcDbMText
 10
0.2112426788
 20
-0.0036411829
 30
0.0
 40
0.140625
 41
0.0
 71
     2
 72
     1
  1
NAME
  7
SLDTEXTSTYLE0
 73
     1
 44
1.0
  0
ENDBLK
  5
85
330
83
100
AcDbEntity
  8
0
100
AcDbBlockEnd
  0
BLOCK
  5
8A
330
89
100
AcDbEntity
  8
0
100
AcDbBlockBegin
  2
SW_NOTE_2
 70
     0
 10
0.0
 20
0.0
 30
0.0
  3
SW_NOTE_2
  1

  0
MTEXT
  5
8C
330
89
100
AcDbEntity
  8
0
  6
Continuous
 62
     0
370
     0
100
AcDbMText
 10
0.2131347656
 20
0.1812751509
 30
0.0
 40
0.140625
 41
0.0
 71
     2
 72
     1
  1
PART
  7
SLDTEXTSTYLE0
 73
     1
 44
1.0
  0
MTEXT
  5
8D
330
89
100
AcDbEntity
  8
0
  6
Continuous
 62
     0
370
     0
100
AcDbMText
 10
0.2194824241
 20
-0.0036411829
 30
0.0
 40
0.140625
 41
0.0
 71
     2
 72
     1
  1
No.
  7
SLDTEXTSTYLE0
 73
     1
 44
1.0
  0
ENDBLK
  5
8B
330
89
100
AcDbEntity
  8
0
100
AcDbBlockEnd
  0
BLOCK
  5
90
330
8F
100
AcDbEntity
  8
0
100
AcDbBlockBegin
  2
SW_NOTE_3
 70
     0
 10
0.0
 20
0.0
 30
0.0
  3
SW_NOTE_3
  1

  0
MTEXT
  5
92
330
8F
100
AcDbEntity
  8
0
  6
Continuous
 62
     0
370
     0
100
AcDbMText
 10
0.4130859375
 20
0.1812751509
 30
0.0
 40
0.140625
 41
0.0
 71
     2
 72
     1
  1
REVISION
  7
SLDTEXTSTYLE0
 73
     1
 44
1.0
  0
MTEXT
  5
93
330
8F
100
AcDbEntity
  8
0
  6
Continuous
 62
     0
370
     0
100
AcDbMText
 10
0.397680664
 20
-0.0036411829
 30
0.0
 40
0.140625
 41
0.0
 71
     2
 72
     1
  1
DATE
  7
SLDTEXTSTYLE0
 73
     1
 44
1.0
  0
ENDBLK
  5
91
330
8F
100
AcDbEntity
  8
0
100
AcDbBlockEnd
  0
BLOCK
  5
100
330
FF
100
AcDbEntity
  8
0
100
AcDbBlockBegin
  2
*D5
 70
     1
 10
0.0
 20
0.0
 30
0.0
  3
*D5
  1

  0
SOLID
  5
102
330
FF
100
AcDbEntity
  8
0
  6
Continuous
 62
     7
370
     0
100
AcDbTrace
 10
3.5328736354
 20
9.1349874653
 30
0.0
 11
3.424967867
 21
9.2362379352
 31
0.0
 12
3.3995240619
 22
9.1991217288
 32
0.0
 13
3.3995240619
 23
9.1991217288
 33
0.0
  0
LINE
  5
103
330
FF
100
AcDbEntity
  8
0
  6
Continuous
 62
     7
370
     0
100
AcDbLine
 10
1.2426672277
 20
9.9440313293
 30
0.0
 11
1.2141027732
 21
9.9440313293
 31
0.0
  0
LINE
  5
104
330
FF
100
AcDbEntity
  8
0
  6
Continuous
 62
     7
370
     0
100
AcDbLine
 10
1.2141027732
 20
9.9440313293
 30
0.0
 11
1.2141027732
 21
9.7207891351
 31
0.0
  0
LINE
  5
105
330
FF
100
AcDbEntity
  8
0
  6
Continuous
 62
     7
370
     0
100
AcDbLine
 10
1.2141027732
 20
9.7207891351
 30
0.0
 11
1.2426672277
 21
9.7207891351
 31
0.0
  0
LINE
  5
106
330
FF
100
AcDbEntity
  8
0
  6
Continuous
 62
     7
370
     0
100
AcDbLine
 10
1.5738439795
 20
9.9440313293
 30
0.0
 11
1.6024084341
 21
9.9440313293
 31
0.0
  0
LINE
  5
107
330
FF
100
AcDbEntity
  8
0
  6
Continuous
 62
     7
370
     0
100
AcDbLine
 10
1.6024084341
 20
9.9440313293
 30
0.0
 11
1.6024084341
 21
9.7207891351
 31
0.0
  0
LINE
  5
108
330
FF
100
AcDbEntity
  8
0
  6
Continuous
 62
     7
370
     0
100
AcDbLine
 10
1.6024084341
 20
9.7207891351
 30
0.0
 11
1.5738439795
 21
9.7207891351
 31
0.0
  0
LINE
  5
109
330
FF
100
AcDbEntity
  8
0
  6
Continuous
 62
     7
370
     0
100
AcDbLine
 10
3.5328736354
 20
9.1349874653
 30
0.0
 11
2.3511121076
 21
9.9451055494
 31
0.0
  0
LINE
  5
10A
330
FF
100
AcDbEntity
  8
0
  6
Continuous
 62
     7
370
     0
100
AcDbLine
 10
2.3511121076
 20
9.9451055494
 30
0.0
 11
2.2104871076
 21
9.9451055494
 31
0.0
  0
MTEXT
  5
10B
330
FF
100
AcDbEntity
  8
0
  6
Continuous
 62
     7
370
     0
100
AcDbMText
 10
1.1152038554
 20
10.1538709348
 30
-0.4292028033
 40
0.140625
 41
0.0
 71
     1
 72
     1
  1
%%c
  7
SLDTEXTSTYLE0
 73
     1
 44
1.0
  0
MTEXT
  5
10C
330
FF
100
AcDbEntity
  8
0
  6
Continuous
 62
     7
370
     0
100
AcDbMText
 10
1.3272839286
 20
10.1538709348
 30
-0.4292028033
 40
0.140625
 41
0.0
 71
     1
 72
     1
  1
.23
  7
SLDTEXTSTYLE0
 73
     1
 44
1.0
  0
MTEXT
  5
10D
330
FF
100
AcDbEntity
  8
0
  6
Continuous
 62
     7
370
     0
100
AcDbMText
 10
1.2783727959
 20
9.9020642783
 30
-0.4292028033
 40
0.140625
 41
0.0
 71
     1
 72
     1
  1
5.8
  7
SLDTEXTSTYLE0
 73
     1
 44
1.0
  0
MTEXT
  5
10E
330
FF
100
AcDbEntity
  8
0
  6
Continuous
 62
     7
370
     0
100
AcDbMText
 10
1.7540417372
 20
10.1560193827
 30
-0.4292028033
 40
0.140625
 41
0.0
 71
     1
 72
     1
  1
BOSS
  7
SLDTEXTSTYLE0
 73
     1
 44
1.0
  0
ENDBLK
  5
101
330
FF
100
AcDbEntity
  8
0
100
AcDbBlockEnd
  0
BLOCK
  5
112
330
111
100
AcDbEntity
  8
0
100
AcDbBlockBegin
  2
*D6
 70
     1
 10
0.0
 20
0.0
 30
0.0
  3
*D6
  1

  0
SOLID
  5
114
330
111
100
AcDbEntity
  8
0
  6
Continuous
 62
     7
370
     0
100
AcDbTrace
 10
3.6023440552
 20
9.1004689266
 30
0.0
 11
3.5263821586
 21
9.2274535822
 31
0.0
 12
3.4917260493
 22
9.1987489818
 32
0.0
 13
3.4917260493
 23
9.1987489818
 33
0.0
  0
LINE
  5
115
330
111
100
AcDbEntity
  8
0
  6
Continuous
 62
     7
370
     0
100
AcDbLine
 10
1.9231618606
 20
10.5190826009
 30
0.0
 11
1.8945974061
 21
10.5190826009
 31
0.0
  0
LINE
  5
116
330
111
100
AcDbEntity
  8
0
  6
Continuous
 62
     7
370
     0
100
AcDbLine
 10
1.8945974061
 20
10.5190826009
 30
0.0
 11
1.8945974061
 21
10.2958404067
 31
0.0
  0
LINE
  5
117
330
111
100
AcDbEntity
  8
0
  6
Continuous
 62
     7
370
     0
100
AcDbLine
 10
1.8945974061
 20
10.2958404067
 30
0.0
 11
1.9231618606
 21
10.2958404067
 31
0.0
  0
LINE
  5
118
330
111
100
AcDbEntity
  8
0
  6
Continuous
 62
     7
370
     0
100
AcDbLine
 10
2.0984792473
 20
10.5190826009
 30
0.0
 11
2.1270437018
 21
10.5190826009
 31
0.0
  0
LINE
  5
119
330
111
100
AcDbEntity
  8
0
  6
Continuous
 62
     7
370
     0
100
AcDbLine
 10
2.1270437018
 20
10.5190826009
 30
0.0
 11
2.1270437018
 21
10.2958404067
 31
0.0
  0
LINE
  5
11A
330
111
100
AcDbEntity
  8
0
  6
Continuous
 62
     7
370
     0
100
AcDbLine
 10
2.1270437018
 20
10.2958404067
 30
0.0
 11
2.0984792473
 21
10.2958404067
 31
0.0
  0
LINE
  5
11B
330
111
100
AcDbEntity
  8
0
  6
Continuous
 62
     7
370
     0
100
AcDbLine
 10
3.6023440552
 20
9.1004689266
 30
0.0
 11
2.4444973022
 21
10.4983794754
 31
0.0
  0
LINE
  5
11C
330
111
100
AcDbEntity
  8
0
  6
Continuous
 62
     7
370
     0
100
AcDbLine
 10
2.4444973022
 20
10.4983794754
 30
0.0
 11
2.3038723022
 21
10.4983794754
 31
0.0
  0
MTEXT
  5
11D
330
111
100
AcDbEntity
  8
0
  6
Continuous
 62
     7
370
     0
100
AcDbMText
 10
1.7177687954
 20
10.7289222063
 30
-0.4292028033
 40
0.140625
 41
0.0
 71
     1
 72
     1
  1
%%c
  7
SLDTEXTSTYLE0
 73
     1
 44
1.0
  0
MTEXT
  5
11E
330
111
100
AcDbEntity
  8
0
  6
Continuous
 62
     7
370
     0
100
AcDbMText
 10
1.9298488686
 20
10.7289222063
 30
-0.4292028033
 40
0.140625
 41
0.0
 71
     1
 72
     1
  1
.08
  7
SLDTEXTSTYLE0
 73
     1
 44
1.0
  0
MTEXT
  5
11F
330
111
100
AcDbEntity
  8
0
  6
Continuous
 62
     7
370
     0
100
AcDbMText
 10
1.9588674288
 20
10.4771155498
 30
-0.4292028033
 40
0.140625
 41
0.0
 71
     1
 72
     1
  1
2
  7
SLDTEXTSTYLE0
 73
     1
 44
1.0
  0
ENDBLK
  5
113
330
111
100
AcDbEntity
  8
0
100
AcDbBlockEnd
  0
BLOCK
  5
122
330
121
100
AcDbEntity
  8
0
100
AcDbBlockBegin
  2
*D7
 70
     1
 10
0.0
 20
0.0
 30
0.0
  3
*D7
  1

  0
SOLID
  5
124
330
121
100
AcDbEntity
  8
0
  6
Continuous
 62
     7
370
     0
100
AcDbTrace
 10
2.7113503893
 20
8.0223350984
 30
0.0
 11
2.6402130116
 21
7.8925861639
 31
0.0
 12
2.6825022811
 22
7.8772037815
 32
0.0
 13
2.6825022811
 23
7.8772037815
 33
0.0
  0
LINE
  5
125
330
121
100
AcDbEntity
  8
0
  6
Continuous
 62
     7
370
     0
100
AcDbLine
 10
1.4694835871
 20
6.2763967331
 30
0.0
 11
1.4409191326
 21
6.2763967331
 31
0.0
  0
LINE
  5
126
330
121
100
AcDbEntity
  8
0
  6
Continuous
 62
     7
370
     0
100
AcDbLine
 10
1.4409191326
 20
6.2763967331
 30
0.0
 11
1.4409191326
 21
6.0531545389
 31
0.0
  0
LINE
  5
127
330
121
100
AcDbEntity
  8
0
  6
Continuous
 62
     7
370
     0
100
AcDbLine
 10
1.4409191326
 20
6.0531545389
 30
0.0
 11
1.4694835871
 21
6.0531545389
 31
0.0
  0
LINE
  5
128
330
121
100
AcDbEntity
  8
0
  6
Continuous
 62
     7
370
     0
100
AcDbLine
 10
1.8006603389
 20
6.2763967331
 30
0.0
 11
1.8292247935
 21
6.2763967331
 31
0.0
  0
LINE
  5
129
330
121
100
AcDbEntity
  8
0
  6
Continuous
 62
     7
370
     0
100
AcDbLine
 10
1.8292247935
 20
6.2763967331
 30
0.0
 11
1.8292247935
 21
6.0531545389
 31
0.0
  0
LINE
  5
12A
330
121
100
AcDbEntity
  8
0
  6
Continuous
 62
     7
370
     0
100
AcDbLine
 10
1.8292247935
 20
6.0531545389
 30
0.0
 11
1.8006603389
 21
6.0531545389
 31
0.0
  0
LINE
  5
12B
330
121
100
AcDbEntity
  8
0
  6
Continuous
 62
     7
370
     0
100
AcDbLine
 10
2.7113503893
 20
8.0223350984
 30
0.0
 11
2.0687487216
 21
6.2556936076
 31
0.0
  0
LINE
  5
12C
330
121
100
AcDbEntity
  8
0
  6
Continuous
 62
     7
370
     0
100
AcDbLine
 10
2.0687487216
 20
6.2556936076
 30
0.0
 11
1.9281237216
 21
6.2556936076
 31
0.0
  0
MTEXT
  5
12D
330
121
100
AcDbEntity
  8
0
  6
Continuous
 62
     7
370
     0
100
AcDbMText
 10
1.3420202148
 20
6.4862363385
 30
-0.4292028033
 40
0.140625
 41
0.0
 71
     1
 72
     1
  1
%%c
  7
SLDTEXTSTYLE0
 73
     1
 44
1.0
  0
MTEXT
  5
12E
330
121
100
AcDbEntity
  8
0
  6
Continuous
 62
     7
370
     0
100
AcDbMText
 10
1.554100288
 20
6.4862363385
 30
-0.4292028033
 40
0.140625
 41
0.0
 71
     1
 72
     1
  1
.18
  7
SLDTEXTSTYLE0
 73
     1
 44
1.0
  0
MTEXT
  5
12F
330
121
100
AcDbEntity
  8
0
  6
Continuous
 62
     7
370
     0
100
AcDbMText
 10
1.5051891553
 20
6.234429682
 30
-0.4292028033
 40
0.140625
 41
0.0
 71
     1
 72
     1
  1
4.5
  7
SLDTEXTSTYLE0
 73
     1
 44
1.0
  0
ENDBLK
  5
123
330
121
100
AcDbEntity
  8
0
100
AcDbBlockEnd
  0
BLOCK
  5
133
330
132
100
AcDbEntity
  8
0
100
AcDbBlockBegin
  2
*D8
 70
     1
 10
0.0
 20
0.0
 30
0.0
  3
*D8
  1

  0
SOLID
  5
135
330
132
100
AcDbEntity
  8
0
  6
Continuous
 62
     7
370
     0
100
AcDbTrace
 10
3.6274574414
 20
6.3304073466
 30
0.0
 11
3.7737074414
 21
6.3079073466
 31
0.0
 12
3.7737074414
 22
6.3529073466
 32
0.0
 13
3.7737074414
 23
6.3529073466
 33
0.0
  0
SOLID
  5
136
330
132
100
AcDbEntity
  8
0
  6
Continuous
 62
     7
370
     0
100
AcDbTrace
 10
6.4621031107
 20
6.3304073466
 30
0.0
 11
6.3158531107
 21
6.3529073466
 31
0.0
 12
6.3158531107
 22
6.3079073466
 32
0.0
 13
6.3158531107
 23
6.3079073466
 33
0.0
  0
LINE
  5
137
330
132
100
AcDbEntity
  8
0
  6
Continuous
 62
     7
370
     0
100
AcDbLine
 10
4.9051684627
 20
6.3293331266
 30
0.0
 11
4.8766040082
 21
6.3293331266
 31
0.0
  0
LINE
  5
138
330
132
100
AcDbEntity
  8
0
  6
Continuous
 62
     7
370
     0
100
AcDbLine
 10
4.8766040082
 20
6.3293331266
 30
0.0
 11
4.8766040082
 21
6.1060909323
 31
0.0
  0
LINE
  5
139
330
132
100
AcDbEntity
  8
0
  6
Continuous
 62
     7
370
     0
100
AcDbLine
 10
4.8766040082
 20
6.1060909323
 30
0.0
 11
4.9051684627
 21
6.1060909323
 31
0.0
  0
LINE
  5
13A
330
132
100
AcDbEntity
  8
0
  6
Continuous
 62
     7
370
     0
100
AcDbLine
 10
5.1843920997
 20
6.3293331266
 30
0.0
 11
5.2129565543
 21
6.3293331266
 31
0.0
  0
LINE
  5
13B
330
132
100
AcDbEntity
  8
0
  6
Continuous
 62
     7
370
     0
100
AcDbLine
 10
5.2129565543
 20
6.3293331266
 30
0.0
 11
5.2129565543
 21
6.1060909323
 31
0.0
  0
LINE
  5
13C
330
132
100
AcDbEntity
  8
0
  6
Continuous
 62
     7
370
     0
100
AcDbLine
 10
5.2129565543
 20
6.1060909323
 30
0.0
 11
5.1843920997
 21
6.1060909323
 31
0.0
  0
LINE
  5
13D
330
132
100
AcDbEntity
  8
0
  6
Continuous
 62
     7
370
     0
100
AcDbLine
 10
3.6274574414
 20
6.9453946839
 30
0.0
 11
3.6274574414
 21
6.1897823466
 31
0.0
  0
LINE
  5
13E
330
132
100
AcDbEntity
  8
0
  6
Continuous
 62
     7
370
     0
100
AcDbLine
 10
6.4621031107
 20
7.0847647627
 30
0.0
 11
6.4621031107
 21
6.1897823466
 31
0.0
  0
LINE
  5
13F
330
132
100
AcDbEntity
  8
0
  6
Continuous
 62
     7
370
     0
100
AcDbLine
 10
3.6274574414
 20
6.3304073466
 30
0.0
 11
4.7253416817
 21
6.3304073466
 31
0.0
  0
LINE
  5
140
330
132
100
AcDbEntity
  8
0
  6
Continuous
 62
     7
370
     0
100
AcDbLine
 10
6.4621031107
 20
6.3304073466
 30
0.0
 11
5.3642188704
 21
6.3304073466
 31
0.0
  0
MTEXT
  5
141
330
132
100
AcDbEntity
  8
0
  6
Continuous
 62
     7
370
     0
100
AcDbMText
 10
4.8065966943
 20
6.5413211799
 30
-0.4292028033
 40
0.140625
 41
0.0
 71
     1
 72
     1
  1

  7
SLDTEXTSTYLE0
 73
     1
 44
1.0
  0
MTEXT
  5
142
330
132
100
AcDbEntity
  8
0
  6
Continuous
 62
     7
370
     0
100
AcDbMText
 10
4.8058154444
 20
6.539172732
 30
-0.4292028033
 40
0.140625
 41
0.0
 71
     1
 72
     1
  1
2.83
  7
SLDTEXTSTYLE0
 73
     1
 44
1.0
  0
MTEXT
  5
143
330
132
100
AcDbEntity
  8
0
  6
Continuous
 62
     7
370
     0
100
AcDbMText
 10
4.9408740309
 20
6.2873660755
 30
-0.4292028033
 40
0.140625
 41
0.0
 71
     1
 72
     1
  1
72
  7
SLDTEXTSTYLE0
 73
     1
 44
1.0
  0
MTEXT
  5
144
330
132
100
AcDbEntity
  8
0
  6
Continuous
 62
     7
370
     0
100
AcDbMText
 10
5.336479493
 20
6.5413211799
 30
-0.4292028033
 40
0.140625
 41
0.0
 71
     1
 72
     1
  1

  7
SLDTEXTSTYLE0
 73
     1
 44
1.0
  0
ENDBLK
  5
134
330
132
100
AcDbEntity
  8
0
100
AcDbBlockEnd
  0
BLOCK
  5
147
330
146
100
AcDbEntity
  8
0
100
AcDbBlockBegin
  2
*D9
 70
     1
 10
0.0
 20
0.0
 30
0.0
  3
*D9
  1

  0
SOLID
  5
149
330
146
100
AcDbEntity
  8
0
  6
Continuous
 62
     7
370
     0
100
AcDbTrace
 10
2.7416306698
 20
5.8070870805
 30
0.0
 11
2.8878806698
 21
5.7845870805
 31
0.0
 12
2.8878806698
 22
5.8295870805
 32
0.0
 13
2.8878806698
 23
5.8295870805
 33
0.0
  0
SOLID
  5
14A
330
146
100
AcDbEntity
  8
0
  6
Continuous
 62
     7
370
     0
100
AcDbTrace
 10
7.3479298824
 20
5.8070870805
 30
0.0
 11
7.2016798824
 21
5.8295870805
 31
0.0
 12
7.2016798824
 22
5.7845870805
 32
0.0
 13
7.2016798824
 23
5.7845870805
 33
0.0
  0
LINE
  5
14B
330
146
100
AcDbEntity
  8
0
  6
Continuous
 62
     7
370
     0
100
AcDbLine
 10
4.8532153479
 20
5.8060128604
 30
0.0
 11
4.8246508934
 21
5.8060128604
 31
0.0
  0
LINE
  5
14C
330
146
100
AcDbEntity
  8
0
  6
Continuous
 62
     7
370
     0
100
AcDbLine
 10
4.8246508934
 20
5.8060128604
 30
0.0
 11
4.8246508934
 21
5.5827706662
 31
0.0
  0
LINE
  5
14D
330
146
100
AcDbEntity
  8
0
  6
Continuous
 62
     7
370
     0
100
AcDbLine
 10
4.8246508934
 20
5.5827706662
 30
0.0
 11
4.8532153479
 21
5.5827706662
 31
0.0
  0
LINE
  5
14E
330
146
100
AcDbEntity
  8
0
  6
Continuous
 62
     7
370
     0
100
AcDbLine
 10
5.2363452352
 20
5.8060128604
 30
0.0
 11
5.2649096897
 21
5.8060128604
 31
0.0
  0
LINE
  5
14F
330
146
100
AcDbEntity
  8
0
  6
Continuous
 62
     7
370
     0
100
AcDbLine
 10
5.2649096897
 20
5.8060128604
 30
0.0
 11
5.2649096897
 21
5.5827706662
 31
0.0
  0
LINE
  5
150
330
146
100
AcDbEntity
  8
0
  6
Continuous
 62
     7
370
     0
100
AcDbLine
 10
5.2649096897
 20
5.5827706662
 30
0.0
 11
5.2363452352
 21
5.5827706662
 31
0.0
  0
LINE
  5
151
330
146
100
AcDbEntity
  8
0
  6
Continuous
 62
     7
370
     0
100
AcDbLine
 10
2.7416306698
 20
7.8607490146
 30
0.0
 11
2.7416306698
 21
5.6664620805
 31
0.0
  0
LINE
  5
152
330
146
100
AcDbEntity
  8
0
  6
Continuous
 62
     7
370
     0
100
AcDbLine
 10
7.3479298824
 20
7.8607490146
 30
0.0
 11
7.3479298824
 21
5.6664620805
 31
0.0
  0
LINE
  5
153
330
146
100
AcDbEntity
  8
0
  6
Continuous
 62
     7
370
     0
100
AcDbLine
 10
2.7416306698
 20
5.8070870805
 30
0.0
 11
4.7227537897
 21
5.8070870805
 31
0.0
  0
LINE
  5
154
330
146
100
AcDbEntity
  8
0
  6
Continuous
 62
     7
370
     0
100
AcDbLine
 10
7.3479298824
 20
5.8070870805
 30
0.0
 11
5.3668067624
 21
5.8070870805
 31
0.0
  0
MTEXT
  5
155
330
146
100
AcDbEntity
  8
0
  6
Continuous
 62
     7
370
     0
100
AcDbMText
 10
4.8040088023
 20
6.0180009137
 30
-0.4292028033
 40
0.140625
 41
0.0
 71
     1
 72
     1
  1

  7
SLDTEXTSTYLE0
 73
     1
 44
1.0
  0
MTEXT
  5
156
330
146
100
AcDbEntity
  8
0
  6
Continuous
 62
     7
370
     0
100
AcDbMText
 10
4.8058154444
 20
6.0158524658
 30
-0.4292028033
 40
0.140625
 41
0.0
 71
     1
 72
     1
  1
4.61
  7
SLDTEXTSTYLE0
 73
     1
 44
1.0
  0
MTEXT
  5
157
330
146
100
AcDbEntity
  8
0
  6
Continuous
 62
     7
370
     0
100
AcDbMText
 10
4.8889209161
 20
5.7640458093
 30
-0.4292028033
 40
0.140625
 41
0.0
 71
     1
 72
     1
  1
117
  7
SLDTEXTSTYLE0
 73
     1
 44
1.0
  0
MTEXT
  5
158
330
146
100
AcDbEntity
  8
0
  6
Continuous
 62
     7
370
     0
100
AcDbMText
 10
5.339067385
 20
6.0180009137
 30
-0.4292028033
 40
0.140625
 41
0.0
 71
     1
 72
     1
  1

  7
SLDTEXTSTYLE0
 73
     1
 44
1.0
  0
ENDBLK
  5
148
330
146
100
AcDbEntity
  8
0
100
AcDbBlockEnd
  0
BLOCK
  5
15B
330
15A
100
AcDbEntity
  8
0
100
AcDbBlockBegin
  2
*D10
 70
     1
 10
0.0
 20
0.0
 30
0.0
  3
*D10
  1

  0
SOLID
  5
15D
330
15A
100
AcDbEntity
  8
0
  6
Continuous
 62
     7
370
     0
100
AcDbTrace
 10
8.0981971263
 20
7.1410147627
 30
0.0
 11
8.1206971263
 21
7.2872647627
 31
0.0
 12
8.0756971263
 22
7.2872647627
 32
0.0
 13
8.0756971263
 23
7.2872647627
 33
0.0
  0
SOLID
  5
15E
330
15A
100
AcDbEntity
  8
0
  6
Continuous
 62
     7
370
     0
100
AcDbTrace
 10
8.0981971263
 20
9.0701486209
 30
0.0
 11
8.0756971263
 21
8.9238986209
 31
0.0
 12
8.1206971263
 22
8.9238986209
 32
0.0
 13
8.1206971263
 23
8.9238986209
 33
0.0
  0
LINE
  5
15F
330
15A
100
AcDbEntity
  8
0
  6
Continuous
 62
     7
370
     0
100
AcDbLine
 10
7.958585313
 20
8.1045074717
 30
0.0
 11
7.9300208585
 21
8.1045074717
 31
0.0
  0
LINE
  5
160
330
15A
100
AcDbEntity
  8
0
  6
Continuous
 62
     7
370
     0
100
AcDbLine
 10
7.9300208585
 20
8.1045074717
 30
0.0
 11
7.9300208585
 21
7.8812652775
 31
0.0
  0
LINE
  5
161
330
15A
100
AcDbEntity
  8
0
  6
Continuous
 62
     7
370
     0
100
AcDbLine
 10
7.9300208585
 20
7.8812652775
 30
0.0
 11
7.958585313
 21
7.8812652775
 31
0.0
  0
LINE
  5
162
330
15A
100
AcDbEntity
  8
0
  6
Continuous
 62
     7
370
     0
100
AcDbLine
 10
8.23780895
 20
8.1045074717
 30
0.0
 11
8.2663734045
 21
8.1045074717
 31
0.0
  0
LINE
  5
163
330
15A
100
AcDbEntity
  8
0
  6
Continuous
 62
     7
370
     0
100
AcDbLine
 10
8.2663734045
 20
8.1045074717
 30
0.0
 11
8.2663734045
 21
7.8812652775
 31
0.0
  0
LINE
  5
164
330
15A
100
AcDbEntity
  8
0
  6
Continuous
 62
     7
370
     0
100
AcDbLine
 10
8.2663734045
 20
7.8812652775
 30
0.0
 11
8.23780895
 21
7.8812652775
 31
0.0
  0
LINE
  5
165
330
15A
100
AcDbEntity
  8
0
  6
Continuous
 62
     7
370
     0
100
AcDbLine
 10
6.5183531107
 20
7.1410147627
 30
0.0
 11
8.2388221263
 21
7.1410147627
 31
0.0
  0
LINE
  5
166
330
15A
100
AcDbEntity
  8
0
  6
Continuous
 62
     7
370
     0
100
AcDbLine
 10
6.5183531107
 20
9.0701486209
 30
0.0
 11
8.2388221263
 21
9.0701486209
 31
0.0
  0
LINE
  5
167
330
15A
100
AcDbEntity
  8
0
  6
Continuous
 62
     7
370
     0
100
AcDbLine
 10
8.0981971263
 20
7.1410147627
 30
0.0
 11
8.0981971263
 21
7.8527008075
 31
0.0
  0
LINE
  5
168
330
15A
100
AcDbEntity
  8
0
  6
Continuous
 62
     7
370
     0
100
AcDbLine
 10
8.0981971263
 20
9.0701486209
 30
0.0
 11
8.0981971263
 21
8.3584625761
 31
0.0
  0
MTEXT
  5
169
330
15A
100
AcDbEntity
  8
0
  6
Continuous
 62
     7
370
     0
100
AcDbMText
 10
7.8600135445
 20
8.3164955251
 30
-0.4292028033
 40
0.140625
 41
0.0
 71
     1
 72
     1
  1

  7
SLDTEXTSTYLE0
 73
     1
 44
1.0
  0
MTEXT
  5
16A
330
15A
100
AcDbEntity
  8
0
  6
Continuous
 62
     7
370
     0
100
AcDbMText
 10
7.8592322947
 20
8.3143470772
 30
-0.4292028033
 40
0.140625
 41
0.0
 71
     1
 72
     1
  1
1.93
  7
SLDTEXTSTYLE0
 73
     1
 44
1.0
  0
MTEXT
  5
16B
330
15A
100
AcDbEntity
  8
0
  6
Continuous
 62
     7
370
     0
100
AcDbMText
 10
7.9942908812
 20
8.0625404207
 30
-0.4292028033
 40
0.140625
 41
0.0
 71
     1
 72
     1
  1
49
  7
SLDTEXTSTYLE0
 73
     1
 44
1.0
  0
MTEXT
  5
16C
330
15A
100
AcDbEntity
  8
0
  6
Continuous
 62
     7
370
     0
100
AcDbMText
 10
8.3898963433
 20
8.3164955251
 30
-0.4292028033
 40
0.140625
 41
0.0
 71
     1
 72
     1
  1

  7
SLDTEXTSTYLE0
 73
     1
 44
1.0
  0
ENDBLK
  5
15C
330
15A
100
AcDbEntity
  8
0
100
AcDbBlockEnd
  0
BLOCK
  5
170
330
16F
100
AcDbEntity
  8
0
100
AcDbBlockBegin
  2
*D11
 70
     1
 10
0.0
 20
0.0
 30
0.0
  3
*D11
  1

  0
SOLID
  5
172
330
16F
100
AcDbEntity
  8
0
  6
Continuous
 62
     7
370
     0
100
AcDbTrace
 10
2.5447802761
 20
10.860229711
 30
0.0
 11
2.6910302761
 21
10.837729711
 31
0.0
 12
2.6910302761
 22
10.882729711
 32
0.0
 13
2.6910302761
 23
10.882729711
 33
0.0
  0
SOLID
  5
173
330
16F
100
AcDbEntity
  8
0
  6
Continuous
 62
     7
370
     0
100
AcDbTrace
 10
7.5447802761
 20
10.860229711
 30
0.0
 11
7.3985302761
 21
10.882729711
 31
0.0
 12
7.3985302761
 22
10.837729711
 32
0.0
 13
7.3985302761
 23
10.837729711
 33
0.0
  0
LINE
  5
174
330
16F
100
AcDbEntity
  8
0
  6
Continuous
 62
     7
370
     0
100
AcDbLine
 10
4.8532153479
 20
10.8591554909
 30
0.0
 11
4.8246508934
 21
10.8591554909
 31
0.0
  0
LINE
  5
175
330
16F
100
AcDbEntity
  8
0
  6
Continuous
 62
     7
370
     0
100
AcDbLine
 10
4.8246508934
 20
10.8591554909
 30
0.0
 11
4.8246508934
 21
10.6359132967
 31
0.0
  0
LINE
  5
176
330
16F
100
AcDbEntity
  8
0
  6
Continuous
 62
     7
370
     0
100
AcDbLine
 10
4.8246508934
 20
10.6359132967
 30
0.0
 11
4.8532153479
 21
10.6359132967
 31
0.0
  0
LINE
  5
177
330
16F
100
AcDbEntity
  8
0
  6
Continuous
 62
     7
370
     0
100
AcDbLine
 10
5.2363452352
 20
10.8591554909
 30
0.0
 11
5.2649096897
 21
10.8591554909
 31
0.0
  0
LINE
  5
178
330
16F
100
AcDbEntity
  8
0
  6
Continuous
 62
     7
370
     0
100
AcDbLine
 10
5.2649096897
 20
10.8591554909
 30
0.0
 11
5.2649096897
 21
10.6359132967
 31
0.0
  0
LINE
  5
179
330
16F
100
AcDbEntity
  8
0
  6
Continuous
 62
     7
370
     0
100
AcDbLine
 10
5.2649096897
 20
10.6359132967
 30
0.0
 11
5.2363452352
 21
10.6359132967
 31
0.0
  0
LINE
  5
17A
330
16F
100
AcDbEntity
  8
0
  6
Continuous
 62
     7
370
     0
100
AcDbLine
 10
2.5447802761
 20
9.2737628649
 30
0.0
 11
2.5447802761
 21
11.000854711
 31
0.0
  0
LINE
  5
17B
330
16F
100
AcDbEntity
  8
0
  6
Continuous
 62
     7
370
     0
100
AcDbLine
 10
7.5447802761
 20
9.2737628649
 30
0.0
 11
7.5447802761
 21
11.000854711
 31
0.0
  0
LINE
  5
17C
330
16F
100
AcDbEntity
  8
0
  6
Continuous
 62
     7
370
     0
100
AcDbLine
 10
2.5447802761
 20
10.860229711
 30
0.0
 11
4.7227537897
 21
10.860229711
 31
0.0
  0
LINE
  5
17D
330
16F
100
AcDbEntity
  8
0
  6
Continuous
 62
     7
370
     0
100
AcDbLine
 10
7.5447802761
 20
10.860229711
 30
0.0
 11
5.3668067624
 21
10.860229711
 31
0.0
  0
MTEXT
  5
17E
330
16F
100
AcDbEntity
  8
0
  6
Continuous
 62
     7
370
     0
100
AcDbMText
 10
4.8040088023
 20
11.0711435442
 30
-0.4292028033
 40
0.140625
 41
0.0
 71
     1
 72
     1
  1

  7
SLDTEXTSTYLE0
 73
     1
 44
1.0
  0
MTEXT
  5
17F
330
16F
100
AcDbEntity
  8
0
  6
Continuous
 62
     7
370
     0
100
AcDbMText
 10
4.8058154444
 20
11.0689950963
 30
-0.4292028033
 40
0.140625
 41
0.0
 71
     1
 72
     1
  1
5.00
  7
SLDTEXTSTYLE0
 73
     1
 44
1.0
  0
MTEXT
  5
180
330
16F
100
AcDbEntity
  8
0
  6
Continuous
 62
     7
370
     0
100
AcDbMText
 10
4.8889209161
 20
10.8171884398
 30
-0.4292028033
 40
0.140625
 41
0.0
 71
     1
 72
     1
  1
127
  7
SLDTEXTSTYLE0
 73
     1
 44
1.0
  0
MTEXT
  5
181
330
16F
100
AcDbEntity
  8
0
  6
Continuous
 62
     7
370
     0
100
AcDbMText
 10
5.339067385
 20
11.0711435442
 30
-0.4292028033
 40
0.140625
 41
0.0
 71
     1
 72
     1
  1

  7
SLDTEXTSTYLE0
 73
     1
 44
1.0
  0
ENDBLK
  5
171
330
16F
100
AcDbEntity
  8
0
100
AcDbBlockEnd
  0
BLOCK
  5
184
330
183
100
AcDbEntity
  8
0
100
AcDbBlockBegin
  2
*D12
 70
     1
 10
0.0
 20
0.0
 30
0.0
  3
*D12
  1

  0
SOLID
  5
186
330
183
100
AcDbEntity
  8
0
  6
Continuous
 62
     7
370
     0
100
AcDbTrace
 10
3.067560263
 20
9.8665495644
 30
0.0
 11
3.213810263
 21
9.8440495644
 31
0.0
 12
3.213810263
 22
9.8890495644
 32
0.0
 13
3.213810263
 23
9.8890495644
 33
0.0
  0
SOLID
  5
187
330
183
100
AcDbEntity
  8
0
  6
Continuous
 62
     7
370
     0
100
AcDbTrace
 10
7.0220002891
 20
9.8665495644
 30
0.0
 11
6.8757502891
 21
9.8890495644
 31
0.0
 12
6.8757502891
 22
9.8440495644
 32
0.0
 13
6.8757502891
 23
9.8440495644
 33
0.0
  0
LINE
  5
188
330
183
100
AcDbEntity
  8
0
  6
Continuous
 62
     7
370
     0
100
AcDbLine
 10
4.775285655
 20
9.8654753443
 30
0.0
 11
4.7467212005
 21
9.8654753443
 31
0.0
  0
LINE
  5
189
330
183
100
AcDbEntity
  8
0
  6
Continuous
 62
     7
370
     0
100
AcDbLine
 10
4.7467212005
 20
9.8654753443
 30
0.0
 11
4.7467212005
 21
9.6422331501
 31
0.0
  0
LINE
  5
18A
330
183
100
AcDbEntity
  8
0
  6
Continuous
 62
     7
370
     0
100
AcDbLine
 10
4.7467212005
 20
9.6422331501
 30
0.0
 11
4.775285655
 21
9.6422331501
 31
0.0
  0
LINE
  5
18B
330
183
100
AcDbEntity
  8
0
  6
Continuous
 62
     7
370
     0
100
AcDbLine
 10
5.3142749074
 20
9.8654753443
 30
0.0
 11
5.342839362
 21
9.8654753443
 31
0.0
  0
LINE
  5
18C
330
183
100
AcDbEntity
  8
0
  6
Continuous
 62
     7
370
     0
100
AcDbLine
 10
5.342839362
 20
9.8654753443
 30
0.0
 11
5.342839362
 21
9.6422331501
 31
0.0
  0
LINE
  5
18D
330
183
100
AcDbEntity
  8
0
  6
Continuous
 62
     7
370
     0
100
AcDbLine
 10
5.342839362
 20
9.6422331501
 30
0.0
 11
5.3142749074
 21
9.6422331501
 31
0.0
  0
LINE
  5
18E
330
183
100
AcDbEntity
  8
0
  6
Continuous
 62
     7
370
     0
100
AcDbLine
 10
3.067560263
 20
9.4618863505
 30
0.0
 11
3.067560263
 21
10.0071745644
 31
0.0
  0
LINE
  5
18F
330
183
100
AcDbEntity
  8
0
  6
Continuous
 62
     7
370
     0
100
AcDbLine
 10
7.0220002891
 20
9.4618863505
 30
0.0
 11
7.0220002891
 21
10.0071745644
 31
0.0
  0
LINE
  5
190
330
183
100
AcDbEntity
  8
0
  6
Continuous
 62
     7
370
     0
100
AcDbLine
 10
3.067560263
 20
9.8665495644
 30
0.0
 11
4.6448240968
 21
9.8665495644
 31
0.0
  0
LINE
  5
191
330
183
100
AcDbEntity
  8
0
  6
Continuous
 62
     7
370
     0
100
AcDbLine
 10
7.0220002891
 20
9.8665495644
 30
0.0
 11
5.4447364553
 21
9.8665495644
 31
0.0
  0
MTEXT
  5
192
330
183
100
AcDbEntity
  8
0
  6
Continuous
 62
     7
370
     0
100
AcDbMText
 10
4.7260791094
 20
10.0774633977
 30
-0.4292028033
 40
0.140625
 41
0.0
 71
     1
 72
     1
  1

  7
SLDTEXTSTYLE0
 73
     1
 44
1.0
  0
MTEXT
  5
193
330
183
100
AcDbEntity
  8
0
  6
Continuous
 62
     7
370
     0
100
AcDbMText
 10
4.8058154444
 20
10.0753149498
 30
-0.4292028033
 40
0.140625
 41
0.0
 71
     1
 72
     1
  1
3.95
  7
SLDTEXTSTYLE0
 73
     1
 44
1.0
  0
MTEXT
  5
194
330
183
100
AcDbEntity
  8
0
  6
Continuous
 62
     7
370
     0
100
AcDbMText
 10
4.8109912232
 20
9.8235082933
 30
-0.4292028033
 40
0.140625
 41
0.0
 71
     1
 72
     1
  1
100.4
  7
SLDTEXTSTYLE0
 73
     1
 44
1.0
  0
MTEXT
  5
195
330
183
100
AcDbEntity
  8
0
  6
Continuous
 62
     7
370
     0
100
AcDbMText
 10
5.4169970779
 20
10.0774633977
 30
-0.4292028033
 40
0.140625
 41
0.0
 71
     1
 72
     1
  1

  7
SLDTEXTSTYLE0
 73
     1
 44
1.0
  0
ENDBLK
  5
185
330
183
100
AcDbEntity
  8
0
100
AcDbBlockEnd
  0
BLOCK
  5
198
330
197
100
AcDbEntity
  8
0
100
AcDbBlockBegin
  2
*D13
 70
     1
 10
0.0
 20
0.0
 30
0.0
  3
*D13
  1

  0
SOLID
  5
19A
330
197
100
AcDbEntity
  8
0
  6
Continuous
 62
     7
370
     0
100
AcDbTrace
 10
2.9757878438
 20
10.3801909928
 30
0.0
 11
3.1220378438
 21
10.3576909928
 31
0.0
 12
3.1220378438
 22
10.4026909928
 32
0.0
 13
3.1220378438
 23
10.4026909928
 33
0.0
  0
SOLID
  5
19B
330
197
100
AcDbEntity
  8
0
  6
Continuous
 62
     7
370
     0
100
AcDbTrace
 10
7.1137727083
 20
10.3801909928
 30
0.0
 11
6.9675227083
 21
10.4026909928
 31
0.0
 12
6.9675227083
 22
10.3576909928
 32
0.0
 13
6.9675227083
 23
10.3576909928
 33
0.0
  0
LINE
  5
19C
330
197
100
AcDbEntity
  8
0
  6
Continuous
 62
     7
370
     0
100
AcDbLine
 10
4.775285655
 20
10.3791167727
 30
0.0
 11
4.7467212005
 21
10.3791167727
 31
0.0
  0
LINE
  5
19D
330
197
100
AcDbEntity
  8
0
  6
Continuous
 62
     7
370
     0
100
AcDbLine
 10
4.7467212005
 20
10.3791167727
 30
0.0
 11
4.7467212005
 21
10.1558745785
 31
0.0
  0
LINE
  5
19E
330
197
100
AcDbEntity
  8
0
  6
Continuous
 62
     7
370
     0
100
AcDbLine
 10
4.7467212005
 20
10.1558745785
 30
0.0
 11
4.775285655
 21
10.1558745785
 31
0.0
  0
LINE
  5
19F
330
197
100
AcDbEntity
  8
0
  6
Continuous
 62
     7
370
     0
100
AcDbLine
 10
5.3142749074
 20
10.3791167727
 30
0.0
 11
5.342839362
 21
10.3791167727
 31
0.0
  0
LINE
  5
1A0
330
197
100
AcDbEntity
  8
0
  6
Continuous
 62
     7
370
     0
100
AcDbLine
 10
5.342839362
 20
10.3791167727
 30
0.0
 11
5.342839362
 21
10.1558745785
 31
0.0
  0
LINE
  5
1A1
330
197
100
AcDbEntity
  8
0
  6
Continuous
 62
     7
370
     0
100
AcDbLine
 10
5.342839362
 20
10.1558745785
 30
0.0
 11
5.3142749074
 21
10.1558745785
 31
0.0
  0
LINE
  5
1A2
330
197
100
AcDbEntity
  8
0
  6
Continuous
 62
     7
370
     0
100
AcDbLine
 10
2.9757878438
 20
9.4728553138
 30
0.0
 11
2.9757878438
 21
10.5208159928
 31
0.0
  0
LINE
  5
1A3
330
197
100
AcDbEntity
  8
0
  6
Continuous
 62
     7
370
     0
100
AcDbLine
 10
7.1137727083
 20
9.4728553138
 30
0.0
 11
7.1137727083
 21
10.5208159928
 31
0.0
  0
LINE
  5
1A4
330
197
100
AcDbEntity
  8
0
  6
Continuous
 62
     7
370
     0
100
AcDbLine
 10
2.9757878438
 20
10.3801909928
 30
0.0
 11
4.6448240968
 21
10.3801909928
 31
0.0
  0
LINE
  5
1A5
330
197
100
AcDbEntity
  8
0
  6
Continuous
 62
     7
370
     0
100
AcDbLine
 10
7.1137727083
 20
10.3801909928
 30
0.0
 11
5.4447364553
 21
10.3801909928
 31
0.0
  0
MTEXT
  5
1A6
330
197
100
AcDbEntity
  8
0
  6
Continuous
 62
     7
370
     0
100
AcDbMText
 10
4.7260791094
 20
10.5911048261
 30
-0.4292028033
 40
0.140625
 41
0.0
 71
     1
 72
     1
  1

  7
SLDTEXTSTYLE0
 73
     1
 44
1.0
  0
MTEXT
  5
1A7
330
197
100
AcDbEntity
  8
0
  6
Continuous
 62
     7
370
     0
100
AcDbMText
 10
4.8058154444
 20
10.5889563782
 30
-0.4292028033
 40
0.140625
 41
0.0
 71
     1
 72
     1
  1
4.14
  7
SLDTEXTSTYLE0
 73
     1
 44
1.0
  0
MTEXT
  5
1A8
330
197
100
AcDbEntity
  8
0
  6
Continuous
 62
     7
370
     0
100
AcDbMText
 10
4.8109912232
 20
10.3371497217
 30
-0.4292028033
 40
0.140625
 41
0.0
 71
     1
 72
     1
  1
105.1
  7
SLDTEXTSTYLE0
 73
     1
 44
1.0
  0
MTEXT
  5
1A9
330
197
100
AcDbEntity
  8
0
  6
Continuous
 62
     7
370
     0
100
AcDbMText
 10
5.4169970779
 20
10.5911048261
 30
-0.4292028033
 40
0.140625
 41
0.0
 71
     1
 72
     1
  1

  7
SLDTEXTSTYLE0
 73
     1
 44
1.0
  0
ENDBLK
  5
199
330
197
100
AcDbEntity
  8
0
100
AcDbBlockEnd
  0
BLOCK
  5
1AC
330
1AB
100
AcDbEntity
  8
0
100
AcDbBlockBegin
  2
*D14
 70
     1
 10
0.0
 20
0.0
 30
0.0
  3
*D14
  1

  0
SOLID
  5
1AE
330
1AB
100
AcDbEntity
  8
0
  6
Continuous
 62
     7
370
     0
100
AcDbTrace
 10
2.0439150671
 20
9.4056363505
 30
0.0
 11
2.0214150671
 21
9.2593863505
 31
0.0
 12
2.0664150671
 22
9.2593863505
 32
0.0
 13
2.0664150671
 23
9.2593863505
 33
0.0
  0
SOLID
  5
1AF
330
1AB
100
AcDbEntity
  8
0
  6
Continuous
 62
     7
370
     0
100
AcDbTrace
 10
2.0439150671
 20
6.8055270331
 30
0.0
 11
2.0664150671
 21
6.9517770331
 31
0.0
 12
2.0214150671
 22
6.9517770331
 32
0.0
 13
2.0214150671
 23
6.9517770331
 33
0.0
  0
LINE
  5
1B0
330
1AB
100
AcDbEntity
  8
0
  6
Continuous
 62
     7
370
     0
100
AcDbLine
 10
1.9043032537
 20
8.1045074717
 30
0.0
 11
1.8757387992
 21
8.1045074717
 31
0.0
  0
LINE
  5
1B1
330
1AB
100
AcDbEntity
  8
0
  6
Continuous
 62
     7
370
     0
100
AcDbLine
 10
1.8757387992
 20
8.1045074717
 30
0.0
 11
1.8757387992
 21
7.8812652775
 31
0.0
  0
LINE
  5
1B2
330
1AB
100
AcDbEntity
  8
0
  6
Continuous
 62
     7
370
     0
100
AcDbLine
 10
1.8757387992
 20
7.8812652775
 30
0.0
 11
1.9043032537
 21
7.8812652775
 31
0.0
  0
LINE
  5
1B3
330
1AB
100
AcDbEntity
  8
0
  6
Continuous
 62
     7
370
     0
100
AcDbLine
 10
2.1835268907
 20
8.1045074717
 30
0.0
 11
2.2120913452
 21
8.1045074717
 31
0.0
  0
LINE
  5
1B4
330
1AB
100
AcDbEntity
  8
0
  6
Continuous
 62
     7
370
     0
100
AcDbLine
 10
2.2120913452
 20
8.1045074717
 30
0.0
 11
2.2120913452
 21
7.8812652775
 31
0.0
  0
LINE
  5
1B5
330
1AB
100
AcDbEntity
  8
0
  6
Continuous
 62
     7
370
     0
100
AcDbLine
 10
2.2120913452
 20
7.8812652775
 30
0.0
 11
2.1835268907
 21
7.8812652775
 31
0.0
  0
LINE
  5
1B6
330
1AB
100
AcDbEntity
  8
0
  6
Continuous
 62
     7
370
     0
100
AcDbLine
 10
3.011310263
 20
9.4056363505
 30
0.0
 11
1.9032900671
 21
9.4056363505
 31
0.0
  0
LINE
  5
1B7
330
1AB
100
AcDbEntity
  8
0
  6
Continuous
 62
     7
370
     0
100
AcDbLine
 10
3.011310263
 20
6.8055270331
 30
0.0
 11
1.9032900671
 21
6.8055270331
 31
0.0
  0
LINE
  5
1B8
330
1AB
100
AcDbEntity
  8
0
  6
Continuous
 62
     7
370
     0
100
AcDbLine
 10
2.0439150671
 20
9.4056363505
 30
0.0
 11
2.0439150671
 21
8.3584625761
 31
0.0
  0
LINE
  5
1B9
330
1AB
100
AcDbEntity
  8
0
  6
Continuous
 62
     7
370
     0
100
AcDbLine
 10
2.0439150671
 20
6.8055270331
 30
0.0
 11
2.0439150671
 21
7.8527008075
 31
0.0
  0
MTEXT
  5
1BA
330
1AB
100
AcDbEntity
  8
0
  6
Continuous
 62
     7
370
     0
100
AcDbMText
 10
1.8057314853
 20
8.3164955251
 30
-0.4292028033
 40
0.140625
 41
0.0
 71
     1
 72
     1
  1

  7
SLDTEXTSTYLE0
 73
     1
 44
1.0
  0
MTEXT
  5
1BB
330
1AB
100
AcDbEntity
  8
0
  6
Continuous
 62
     7
370
     0
100
AcDbMText
 10
1.8049502354
 20
8.3143470772
 30
-0.4292028033
 40
0.140625
 41
0.0
 71
     1
 72
     1
  1
2.60
  7
SLDTEXTSTYLE0
 73
     1
 44
1.0
  0
MTEXT
  5
1BC
330
1AB
100
AcDbEntity
  8
0
  6
Continuous
 62
     7
370
     0
100
AcDbMText
 10
1.9400088219
 20
8.0625404207
 30
-0.4292028033
 40
0.140625
 41
0.0
 71
     1
 72
     1
  1
66
  7
SLDTEXTSTYLE0
 73
     1
 44
1.0
  0
MTEXT
  5
1BD
330
1AB
100
AcDbEntity
  8
0
  6
Continuous
 62
     7
370
     0
100
AcDbMText
 10
2.335614284
 20
8.3164955251
 30
-0.4292028033
 40
0.140625
 41
0.0
 71
     1
 72
     1
  1

  7
SLDTEXTSTYLE0
 73
     1
 44
1.0
  0
ENDBLK
  5
1AD
330
1AB
100
AcDbEntity
  8
0
100
AcDbBlockEnd
  0
BLOCK
  5
1C0
330
1BF
100
AcDbEntity
  8
0
100
AcDbBlockBegin
  2
*D15
 70
     1
 10
0.0
 20
0.0
 30
0.0
  3
*D15
  1

  0
SOLID
  5
1C2
330
1BF
100
AcDbEntity
  8
0
  6
Continuous
 62
     7
370
     0
100
AcDbTrace
 10
1.5014966252
 20
9.4974087697
 30
0.0
 11
1.4789966252
 21
9.3511587697
 31
0.0
 12
1.5239966252
 22
9.3511587697
 32
0.0
 13
1.5239966252
 23
9.3511587697
 33
0.0
  0
SOLID
  5
1C3
330
1BF
100
AcDbEntity
  8
0
  6
Continuous
 62
     7
370
     0
100
AcDbTrace
 10
1.5014966252
 20
6.7137546139
 30
0.0
 11
1.5239966252
 21
6.8600046139
 31
0.0
 12
1.4789966252
 22
6.8600046139
 32
0.0
 13
1.4789966252
 23
6.8600046139
 33
0.0
  0
LINE
  5
1C4
330
1BF
100
AcDbEntity
  8
0
  6
Continuous
 62
     7
370
     0
100
AcDbLine
 10
1.283955119
 20
8.1045074717
 30
0.0
 11
1.2553906644
 21
8.1045074717
 31
0.0
  0
LINE
  5
1C5
330
1BF
100
AcDbEntity
  8
0
  6
Continuous
 62
     7
370
     0
100
AcDbLine
 10
1.2553906644
 20
8.1045074717
 30
0.0
 11
1.2553906644
 21
7.8812652775
 31
0.0
  0
LINE
  5
1C6
330
1BF
100
AcDbEntity
  8
0
  6
Continuous
 62
     7
370
     0
100
AcDbLine
 10
1.2553906644
 20
7.8812652775
 30
0.0
 11
1.283955119
 21
7.8812652775
 31
0.0
  0
LINE
  5
1C7
330
1BF
100
AcDbEntity
  8
0
  6
Continuous
 62
     7
370
     0
100
AcDbLine
 10
1.7190381417
 20
8.1045074717
 30
0.0
 11
1.7476025962
 21
8.1045074717
 31
0.0
  0
LINE
  5
1C8
330
1BF
100
AcDbEntity
  8
0
  6
Continuous
 62
     7
370
     0
100
AcDbLine
 10
1.7476025962
 20
8.1045074717
 30
0.0
 11
1.7476025962
 21
7.8812652775
 31
0.0
  0
LINE
  5
1C9
330
1BF
100
AcDbEntity
  8
0
  6
Continuous
 62
     7
370
     0
100
AcDbLine
 10
1.7476025962
 20
7.8812652775
 30
0.0
 11
1.7190381417
 21
7.8812652775
 31
0.0
  0
LINE
  5
1CA
330
1BF
100
AcDbEntity
  8
0
  6
Continuous
 62
     7
370
     0
100
AcDbLine
 10
3.0003412997
 20
9.4974087697
 30
0.0
 11
1.3608716252
 21
9.4974087697
 31
0.0
  0
LINE
  5
1CB
330
1BF
100
AcDbEntity
  8
0
  6
Continuous
 62
     7
370
     0
100
AcDbLine
 10
3.0003412997
 20
6.7137546139
 30
0.0
 11
1.3608716252
 21
6.7137546139
 31
0.0
  0
LINE
  5
1CC
330
1BF
100
AcDbEntity
  8
0
  6
Continuous
 62
     7
370
     0
100
AcDbLine
 10
1.5014966252
 20
9.4974087697
 30
0.0
 11
1.5014966252
 21
8.3584625761
 31
0.0
  0
LINE
  5
1CD
330
1BF
100
AcDbEntity
  8
0
  6
Continuous
 62
     7
370
     0
100
AcDbLine
 10
1.5014966252
 20
6.7137546139
 30
0.0
 11
1.5014966252
 21
7.8527008075
 31
0.0
  0
MTEXT
  5
1CE
330
1BF
100
AcDbEntity
  8
0
  6
Continuous
 62
     7
370
     0
100
AcDbMText
 10
1.2347485733
 20
8.3164955251
 30
-0.4292028033
 40
0.140625
 41
0.0
 71
     1
 72
     1
  1

  7
SLDTEXTSTYLE0
 73
     1
 44
1.0
  0
MTEXT
  5
1CF
330
1BF
100
AcDbEntity
  8
0
  6
Continuous
 62
     7
370
     0
100
AcDbMText
 10
1.2625317935
 20
8.3143470772
 30
-0.4292028033
 40
0.140625
 41
0.0
 71
     1
 72
     1
  1
2.78
  7
SLDTEXTSTYLE0
 73
     1
 44
1.0
  0
MTEXT
  5
1D0
330
1BF
100
AcDbEntity
  8
0
  6
Continuous
 62
     7
370
     0
100
AcDbMText
 10
1.3196606872
 20
8.0625404207
 30
-0.4292028033
 40
0.140625
 41
0.0
 71
     1
 72
     1
  1
70.7
  7
SLDTEXTSTYLE0
 73
     1
 44
1.0
  0
MTEXT
  5
1D1
330
1BF
100
AcDbEntity
  8
0
  6
Continuous
 62
     7
370
     0
100
AcDbMText
 10
1.8217603121
 20
8.3164955251
 30
-0.4292028033
 40
0.140625
 41
0.0
 71
     1
 72
     1
  1

  7
SLDTEXTSTYLE0
 73
     1
 44
1.0
  0
ENDBLK
  5
1C1
330
1BF
100
AcDbEntity
  8
0
100
AcDbBlockEnd
  0
BLOCK
  5
1D4
330
1D3
100
AcDbEntity
  8
0
100
AcDbBlockBegin
  2
*D16
 70
     1
 10
0.0
 20
0.0
 30
0.0
  3
*D16
  1

  0
SOLID
  5
1D6
330
1D3
100
AcDbEntity
  8
0
  6
Continuous
 62
     7
370
     0
100
AcDbTrace
 10
0.8987363546
 20
6.6951849283
 30
0.0
 11
0.9212363546
 21
6.8414349283
 31
0.0
 12
0.8762363546
 22
6.8414349283
 32
0.0
 13
0.8762363546
 23
6.8414349283
 33
0.0
  0
SOLID
  5
1D7
330
1D3
100
AcDbEntity
  8
0
  6
Continuous
 62
     7
370
     0
100
AcDbTrace
 10
0.8987363546
 20
9.5159784553
 30
0.0
 11
0.8762363546
 21
9.3697284553
 31
0.0
 12
0.9212363546
 22
9.3697284553
 32
0.0
 13
0.9212363546
 23
9.3697284553
 33
0.0
  0
LINE
  5
1D8
330
1D3
100
AcDbEntity
  8
0
  6
Continuous
 62
     7
370
     0
100
AcDbLine
 10
0.6811948484
 20
8.1045074717
 30
0.0
 11
0.6526303939
 21
8.1045074717
 31
0.0
  0
LINE
  5
1D9
330
1D3
100
AcDbEntity
  8
0
  6
Continuous
 62
     7
370
     0
100
AcDbLine
 10
0.6526303939
 20
8.1045074717
 30
0.0
 11
0.6526303939
 21
7.8812652775
 31
0.0
  0
LINE
  5
1DA
330
1D3
100
AcDbEntity
  8
0
  6
Continuous
 62
     7
370
     0
100
AcDbLine
 10
0.6526303939
 20
7.8812652775
 30
0.0
 11
0.6811948484
 21
7.8812652775
 31
0.0
  0
LINE
  5
1DB
330
1D3
100
AcDbEntity
  8
0
  6
Continuous
 62
     7
370
     0
100
AcDbLine
 10
1.1162778711
 20
8.1045074717
 30
0.0
 11
1.1448423257
 21
8.1045074717
 31
0.0
  0
LINE
  5
1DC
330
1D3
100
AcDbEntity
  8
0
  6
Continuous
 62
     7
370
     0
100
AcDbLine
 10
1.1448423257
 20
8.1045074717
 30
0.0
 11
1.1448423257
 21
7.8812652775
 31
0.0
  0
LINE
  5
1DD
330
1D3
100
AcDbEntity
  8
0
  6
Continuous
 62
     7
370
     0
100
AcDbLine
 10
1.1448423257
 20
7.8812652775
 30
0.0
 11
1.1162778711
 21
7.8812652775
 31
0.0
  0
LINE
  5
1DE
330
1D3
100
AcDbEntity
  8
0
  6
Continuous
 62
     7
370
     0
100
AcDbLine
 10
3.0003412997
 20
6.6951849283
 30
0.0
 11
0.7581113546
 21
6.6951849283
 31
0.0
  0
LINE
  5
1DF
330
1D3
100
AcDbEntity
  8
0
  6
Continuous
 62
     7
370
     0
100
AcDbLine
 10
3.0003412997
 20
9.5159784553
 30
0.0
 11
0.7581113546
 21
9.5159784553
 31
0.0
  0
LINE
  5
1E0
330
1D3
100
AcDbEntity
  8
0
  6
Continuous
 62
     7
370
     0
100
AcDbLine
 10
0.8987363546
 20
6.6951849283
 30
0.0
 11
0.8987363546
 21
7.8527008075
 31
0.0
  0
LINE
  5
1E1
330
1D3
100
AcDbEntity
  8
0
  6
Continuous
 62
     7
370
     0
100
AcDbLine
 10
0.8987363546
 20
9.5159784553
 30
0.0
 11
0.8987363546
 21
8.3584625761
 31
0.0
  0
MTEXT
  5
1E2
330
1D3
100
AcDbEntity
  8
0
  6
Continuous
 62
     7
370
     0
100
AcDbMText
 10
0.6319883028
 20
8.3164955251
 30
-0.4292028033
 40
0.140625
 41
0.0
 71
     1
 72
     1
  1

  7
SLDTEXTSTYLE0
 73
     1
 44
1.0
  0
MTEXT
  5
1E3
330
1D3
100
AcDbEntity
  8
0
  6
Continuous
 62
     7
370
     0
100
AcDbMText
 10
0.659771523
 20
8.3143470772
 30
-0.4292028033
 40
0.140625
 41
0.0
 71
     1
 72
     1
  1
2.82
  7
SLDTEXTSTYLE0
 73
     1
 44
1.0
  0
MTEXT
  5
1E4
330
1D3
100
AcDbEntity
  8
0
  6
Continuous
 62
     7
370
     0
100
AcDbMText
 10
0.7169004166
 20
8.0625404207
 30
-0.4292028033
 40
0.140625
 41
0.0
 71
     1
 72
     1
  1
71.6
  7
SLDTEXTSTYLE0
 73
     1
 44
1.0
  0
MTEXT
  5
1E5
330
1D3
100
AcDbEntity
  8
0
  6
Continuous
 62
     7
370
     0
100
AcDbMText
 10
1.2190000416
 20
8.3164955251
 30
-0.4292028033
 40
0.140625
 41
0.0
 71
     1
 72
     1
  1

  7
SLDTEXTSTYLE0
 73
     1
 44
1.0
  0
ENDBLK
  5
1D5
330
1D3
100
AcDbEntity
  8
0
100
AcDbBlockEnd
  0
BLOCK
  5
1E7
330
1E6
100
AcDbEntity
  8
0
100
AcDbBlockBegin
  2
SW_NOTE_4
 70
     0
 10
0.0
 20
0.0
 30
0.0
  3
SW_NOTE_4
  1

  0
MTEXT
  5
1E9
330
1E6
100
AcDbEntity
  8
0
  6
Continuous
 62
     0
370
     0
100
AcDbMText
 10
0.0221469205
 20
0.0681224108
 30
0.0
 40
0.140625
 41
0.0
 71
     1
 72
     1
  1
HOLES ACCEPT M2.6 x 6mm LG.
  7
SLDTEXTSTYLE0
 73
     1
 44
1.0
  0
MTEXT
  5
1EA
330
1E6
100
AcDbEntity
  8
0
  6
Continuous
 62
     0
370
     0
100
AcDbMText
 10
0.0221469205
 20
-0.116793923
 30
0.0
 40
0.140625
 41
0.0
 71
     1
 72
     1
  1
SELF-TAPPING SCREWS FOR
  7
SLDTEXTSTYLE0
 73
     1
 44
1.0
  0
MTEXT
  5
1EB
330
1E6
100
AcDbEntity
  8
0
  6
Continuous
 62
     0
370
     0
100
AcDbMText
 10
0.0221469205
 20
-0.3017102568
 30
0.0
 40
0.140625
 41
0.0
 71
     1
 72
     1
  1
PCB MOUNTING
  7
SLDTEXTSTYLE0
 73
     1
 44
1.0
  0
ENDBLK
  5
1E8
330
1E6
100
AcDbEntity
  8
0
100
AcDbBlockEnd
  0
BLOCK
  5
1F0
330
1EF
100
AcDbEntity
  8
0
100
AcDbBlockBegin
  2
SW_CENTERMARKSYMBOL_0
 70
     0
 10
0.0
 20
0.0
 30
0.0
  3
SW_CENTERMARKSYMBOL_0
  1

  0
LINE
  5
1F2
330
1EF
100
AcDbEntity
  8
0
  6
Continuous
 62
     0
370
     0
100
AcDbLine
 10
0.0
 20
0.0
 30
0.0
 11
0.0
 21
0.1
 31
0.0
  0
LINE
  5
1F3
330
1EF
100
AcDbEntity
  8
0
  6
Continuous
 62
     0
370
     0
100
AcDbLine
 10
0.0
 20
0.0
 30
0.0
 11
-0.1
 21
0.0
 31
0.0
  0
LINE
  5
1F4
330
1EF
100
AcDbEntity
  8
0
  6
Continuous
 62
     0
370
     0
100
AcDbLine
 10
0.0
 20
0.0
 30
0.0
 11
0.0
 21
-0.1
 31
0.0
  0
LINE
  5
1F5
330
1EF
100
AcDbEntity
  8
0
  6
Continuous
 62
     0
370
     0
100
AcDbLine
 10
0.0
 20
0.0
 30
0.0
 11
0.1
 21
0.0
 31
0.0
  0
LINE
  5
1F6
330
1EF
100
AcDbEntity
  8
0
  6
Continuous
 62
     0
370
     0
100
AcDbLine
 10
0.0
 20
0.1
 30
0.0
 11
0.0
 21
0.1885826772
 31
0.0
  0
LINE
  5
1F7
330
1EF
100
AcDbEntity
  8
0
  6
Continuous
 62
     0
370
     0
100
AcDbLine
 10
-0.1
 20
0.0
 30
0.0
 11
-0.1885826772
 21
0.0
 31
0.0
  0
LINE
  5
1F8
330
1EF
100
AcDbEntity
  8
0
  6
Continuous
 62
     0
370
     0
100
AcDbLine
 10
0.0
 20
-0.1
 30
0.0
 11
0.0
 21
-0.1885826772
 31
0.0
  0
LINE
  5
1F9
330
1EF
100
AcDbEntity
  8
0
  6
Continuous
 62
     0
370
     0
100
AcDbLine
 10
0.1
 20
0.0
 30
0.0
 11
0.1885826772
 21
0.0
 31
0.0
  0
ENDBLK
  5
1F1
330
1EF
100
AcDbEntity
  8
0
100
AcDbBlockEnd
  0
BLOCK
  5
1FC
330
1FB
100
AcDbEntity
  8
0
100
AcDbBlockBegin
  2
SW_CENTERMARKSYMBOL_1
 70
     0
 10
0.0
 20
0.0
 30
0.0
  3
SW_CENTERMARKSYMBOL_1
  1

  0
LINE
  5
1FE
330
1FB
100
AcDbEntity
  8
0
  6
Continuous
 62
     0
370
     0
100
AcDbLine
 10
0.0
 20
0.0
 30
0.0
 11
0.0
 21
0.1
 31
0.0
  0
LINE
  5
1FF
330
1FB
100
AcDbEntity
  8
0
  6
Continuous
 62
     0
370
     0
100
AcDbLine
 10
0.0
 20
0.0
 30
0.0
 11
-0.1
 21
0.0
 31
0.0
  0
LINE
  5
200
330
1FB
100
AcDbEntity
  8
0
  6
Continuous
 62
     0
370
     0
100
AcDbLine
 10
0.0
 20
0.0
 30
0.0
 11
0.0
 21
-0.1
 31
0.0
  0
LINE
  5
201
330
1FB
100
AcDbEntity
  8
0
  6
Continuous
 62
     0
370
     0
100
AcDbLine
 10
0.0
 20
0.0
 30
0.0
 11
0.1
 21
0.0
 31
0.0
  0
LINE
  5
202
330
1FB
100
AcDbEntity
  8
0
  6
Continuous
 62
     0
370
     0
100
AcDbLine
 10
0.0
 20
0.1
 30
0.0
 11
0.0
 21
0.1885826772
 31
0.0
  0
LINE
  5
203
330
1FB
100
AcDbEntity
  8
0
  6
Continuous
 62
     0
370
     0
100
AcDbLine
 10
-0.1
 20
0.0
 30
0.0
 11
-0.1885826772
 21
0.0
 31
0.0
  0
LINE
  5
204
330
1FB
100
AcDbEntity
  8
0
  6
Continuous
 62
     0
370
     0
100
AcDbLine
 10
0.0
 20
-0.1
 30
0.0
 11
0.0
 21
-0.1885826772
 31
0.0
  0
LINE
  5
205
330
1FB
100
AcDbEntity
  8
0
  6
Continuous
 62
     0
370
     0
100
AcDbLine
 10
0.1
 20
0.0
 30
0.0
 11
0.1885826772
 21
0.0
 31
0.0
  0
ENDBLK
  5
1FD
330
1FB
100
AcDbEntity
  8
0
100
AcDbBlockEnd
  0
BLOCK
  5
208
330
207
100
AcDbEntity
  8
0
100
AcDbBlockBegin
  2
SW_CENTERMARKSYMBOL_2
 70
     0
 10
0.0
 20
0.0
 30
0.0
  3
SW_CENTERMARKSYMBOL_2
  1

  0
LINE
  5
20A
330
207
100
AcDbEntity
  8
0
  6
Continuous
 62
     0
370
     0
100
AcDbLine
 10
0.0
 20
0.0
 30
0.0
 11
0.0
 21
0.1
 31
0.0
  0
LINE
  5
20B
330
207
100
AcDbEntity
  8
0
  6
Continuous
 62
     0
370
     0
100
AcDbLine
 10
0.0
 20
0.0
 30
0.0
 11
-0.1
 21
0.0
 31
0.0
  0
LINE
  5
20C
330
207
100
AcDbEntity
  8
0
  6
Continuous
 62
     0
370
     0
100
AcDbLine
 10
0.0
 20
0.0
 30
0.0
 11
0.0
 21
-0.1
 31
0.0
  0
LINE
  5
20D
330
207
100
AcDbEntity
  8
0
  6
Continuous
 62
     0
370
     0
100
AcDbLine
 10
0.0
 20
0.0
 30
0.0
 11
0.1
 21
0.0
 31
0.0
  0
LINE
  5
20E
330
207
100
AcDbEntity
  8
0
  6
Continuous
 62
     0
370
     0
100
AcDbLine
 10
0.0
 20
0.1
 30
0.0
 11
0.0
 21
0.1393700787
 31
0.0
  0
LINE
  5
20F
330
207
100
AcDbEntity
  8
0
  6
Continuous
 62
     0
370
     0
100
AcDbLine
 10
-0.1
 20
0.0
 30
0.0
 11
-0.1393700787
 21
0.0
 31
0.0
  0
LINE
  5
210
330
207
100
AcDbEntity
  8
0
  6
Continuous
 62
     0
370
     0
100
AcDbLine
 10
0.0
 20
-0.1
 30
0.0
 11
0.0
 21
-0.1393700787
 31
0.0
  0
LINE
  5
211
330
207
100
AcDbEntity
  8
0
  6
Continuous
 62
     0
370
     0
100
AcDbLine
 10
0.1
 20
0.0
 30
0.0
 11
0.1393700787
 21
0.0
 31
0.0
  0
LINE
  5
212
330
207
100
AcDbEntity
  8
0
  6
Continuous
 62
     0
370
     0
100
AcDbLine
 10
2.8346456693
 20
0.0
 30
0.0
 11
2.8346456693
 21
0.1
 31
0.0
  0
LINE
  5
213
330
207
100
AcDbEntity
  8
0
  6
Continuous
 62
     0
370
     0
100
AcDbLine
 10
2.8346456693
 20
0.0
 30
0.0
 11
2.7346456693
 21
0.0
 31
0.0
  0
LINE
  5
214
330
207
100
AcDbEntity
  8
0
  6
Continuous
 62
     0
370
     0
100
AcDbLine
 10
2.8346456693
 20
0.0
 30
0.0
 11
2.8346456693
 21
-0.1
 31
0.0
  0
LINE
  5
215
330
207
100
AcDbEntity
  8
0
  6
Continuous
 62
     0
370
     0
100
AcDbLine
 10
2.8346456693
 20
0.0
 30
0.0
 11
2.9346456693
 21
0.0
 31
0.0
  0
LINE
  5
216
330
207
100
AcDbEntity
  8
0
  6
Continuous
 62
     0
370
     0
100
AcDbLine
 10
2.8346456693
 20
0.1
 30
0.0
 11
2.8346456693
 21
0.1393700787
 31
0.0
  0
LINE
  5
217
330
207
100
AcDbEntity
  8
0
  6
Continuous
 62
     0
370
     0
100
AcDbLine
 10
2.7346456693
 20
0.0
 30
0.0
 11
2.6952755906
 21
0.0
 31
0.0
  0
LINE
  5
218
330
207
100
AcDbEntity
  8
0
  6
Continuous
 62
     0
370
     0
100
AcDbLine
 10
2.8346456693
 20
-0.1
 30
0.0
 11
2.8346456693
 21
-0.1393700787
 31
0.0
  0
LINE
  5
219
330
207
100
AcDbEntity
  8
0
  6
Continuous
 62
     0
370
     0
100
AcDbLine
 10
2.9346456693
 20
0.0
 30
0.0
 11
2.974015748
 21
0.0
 31
0.0
  0
LINE
  5
21A
330
207
100
AcDbEntity
  8
0
  6
Continuous
 62
     0
370
     0
100
AcDbLine
 10
0.0
 20
-1.9291338583
 30
0.0
 11
0.0
 21
-1.8291338583
 31
0.0
  0
LINE
  5
21B
330
207
100
AcDbEntity
  8
0
  6
Continuous
 62
     0
370
     0
100
AcDbLine
 10
0.0
 20
-1.9291338583
 30
0.0
 11
-0.1
 21
-1.9291338583
 31
0.0
  0
LINE
  5
21C
330
207
100
AcDbEntity
  8
0
  6
Continuous
 62
     0
370
     0
100
AcDbLine
 10
0.0
 20
-1.9291338583
 30
0.0
 11
0.0
 21
-2.0291338583
 31
0.0
  0
LINE
  5
21D
330
207
100
AcDbEntity
  8
0
  6
Continuous
 62
     0
370
     0
100
AcDbLine
 10
0.0
 20
-1.9291338583
 30
0.0
 11
0.1
 21
-1.9291338583
 31
0.0
  0
LINE
  5
21E
330
207
100
AcDbEntity
  8
0
  6
Continuous
 62
     0
370
     0
100
AcDbLine
 10
0.0
 20
-1.8291338583
 30
0.0
 11
0.0
 21
-1.7897637795
 31
0.0
  0
LINE
  5
21F
330
207
100
AcDbEntity
  8
0
  6
Continuous
 62
     0
370
     0
100
AcDbLine
 10
-0.1
 20
-1.9291338583
 30
0.0
 11
-0.1393700787
 21
-1.9291338583
 31
0.0
  0
LINE
  5
220
330
207
100
AcDbEntity
  8
0
  6
Continuous
 62
     0
370
     0
100
AcDbLine
 10
0.0
 20
-2.0291338583
 30
0.0
 11
0.0
 21
-2.068503937
 31
0.0
  0
LINE
  5
221
330
207
100
AcDbEntity
  8
0
  6
Continuous
 62
     0
370
     0
100
AcDbLine
 10
0.1
 20
-1.9291338583
 30
0.0
 11
0.1393700787
 21
-1.9291338583
 31
0.0
  0
ENDBLK
  5
209
330
207
100
AcDbEntity
  8
0
100
AcDbBlockEnd
  0
BLOCK
  5
224
330
223
100
AcDbEntity
  8
0
100
AcDbBlockBegin
  2
SW_CENTERMARKSYMBOL_3
 70
     0
 10
0.0
 20
0.0
 30
0.0
  3
SW_CENTERMARKSYMBOL_3
  1

  0
LINE
  5
226
330
223
100
AcDbEntity
  8
0
  6
Continuous
 62
     0
370
     0
100
AcDbLine
 10
0.0
 20
0.0
 30
0.0
 11
0.0
 21
0.1
 31
0.0
  0
LINE
  5
227
330
223
100
AcDbEntity
  8
0
  6
Continuous
 62
     0
370
     0
100
AcDbLine
 10
0.0
 20
0.0
 30
0.0
 11
-0.1
 21
0.0
 31
0.0
  0
LINE
  5
228
330
223
100
AcDbEntity
  8
0
  6
Continuous
 62
     0
370
     0
100
AcDbLine
 10
0.0
 20
0.0
 30
0.0
 11
0.0
 21
-0.1
 31
0.0
  0
LINE
  5
229
330
223
100
AcDbEntity
  8
0
  6
Continuous
 62
     0
370
     0
100
AcDbLine
 10
0.0
 20
0.0
 30
0.0
 11
0.1
 21
0.0
 31
0.0
  0
LINE
  5
22A
330
223
100
AcDbEntity
  8
0
  6
Continuous
 62
     0
370
     0
100
AcDbLine
 10
0.0
 20
0.1
 30
0.0
 11
0.0
 21
0.1393700787
 31
0.0
  0
LINE
  5
22B
330
223
100
AcDbEntity
  8
0
  6
Continuous
 62
     0
370
     0
100
AcDbLine
 10
-0.1
 20
0.0
 30
0.0
 11
-0.1393700787
 21
0.0
 31
0.0
  0
LINE
  5
22C
330
223
100
AcDbEntity
  8
0
  6
Continuous
 62
     0
370
     0
100
AcDbLine
 10
0.0
 20
-0.1
 30
0.0
 11
0.0
 21
-0.1393700787
 31
0.0
  0
LINE
  5
22D
330
223
100
AcDbEntity
  8
0
  6
Continuous
 62
     0
370
     0
100
AcDbLine
 10
0.1
 20
0.0
 30
0.0
 11
0.1393700787
 21
0.0
 31
0.0
  0
ENDBLK
  5
225
330
223
100
AcDbEntity
  8
0
100
AcDbBlockEnd
  0
BLOCK
  5
230
330
22F
100
AcDbEntity
  8
0
100
AcDbBlockBegin
  2
SW_CENTERMARKSYMBOL_4
 70
     0
 10
0.0
 20
0.0
 30
0.0
  3
SW_CENTERMARKSYMBOL_4
  1

  0
LINE
  5
232
330
22F
100
AcDbEntity
  8
0
  6
Continuous
 62
     0
370
     0
100
AcDbLine
 10
0.0
 20
0.0
 30
0.0
 11
0.0
 21
0.1
 31
0.0
  0
LINE
  5
233
330
22F
100
AcDbEntity
  8
0
  6
Continuous
 62
     0
370
     0
100
AcDbLine
 10
0.0
 20
0.0
 30
0.0
 11
-0.1
 21
0.0
 31
0.0
  0
LINE
  5
234
330
22F
100
AcDbEntity
  8
0
  6
Continuous
 62
     0
370
     0
100
AcDbLine
 10
0.0
 20
0.0
 30
0.0
 11
0.0
 21
-0.1
 31
0.0
  0
LINE
  5
235
330
22F
100
AcDbEntity
  8
0
  6
Continuous
 62
     0
370
     0
100
AcDbLine
 10
0.0
 20
0.0
 30
0.0
 11
0.1
 21
0.0
 31
0.0
  0
LINE
  5
236
330
22F
100
AcDbEntity
  8
0
  6
Continuous
 62
     0
370
     0
100
AcDbLine
 10
0.0
 20
0.1
 30
0.0
 11
0.0
 21
0.1885826772
 31
0.0
  0
LINE
  5
237
330
22F
100
AcDbEntity
  8
0
  6
Continuous
 62
     0
370
     0
100
AcDbLine
 10
-0.1
 20
0.0
 30
0.0
 11
-0.1885826772
 21
0.0
 31
0.0
  0
LINE
  5
238
330
22F
100
AcDbEntity
  8
0
  6
Continuous
 62
     0
370
     0
100
AcDbLine
 10
0.0
 20
-0.1
 30
0.0
 11
0.0
 21
-0.1885826772
 31
0.0
  0
LINE
  5
239
330
22F
100
AcDbEntity
  8
0
  6
Continuous
 62
     0
370
     0
100
AcDbLine
 10
0.1
 20
0.0
 30
0.0
 11
0.1885826772
 21
0.0
 31
0.0
  0
ENDBLK
  5
231
330
22F
100
AcDbEntity
  8
0
100
AcDbBlockEnd
  0
BLOCK
  5
23C
330
23B
100
AcDbEntity
  8
0
100
AcDbBlockBegin
  2
SW_CENTERMARKSYMBOL_5
 70
     0
 10
0.0
 20
0.0
 30
0.0
  3
SW_CENTERMARKSYMBOL_5
  1

  0
LINE
  5
23E
330
23B
100
AcDbEntity
  8
0
  6
Continuous
 62
     0
370
     0
100
AcDbLine
 10
0.0
 20
0.0
 30
0.0
 11
0.0
 21
0.1
 31
0.0
  0
LINE
  5
23F
330
23B
100
AcDbEntity
  8
0
  6
Continuous
 62
     0
370
     0
100
AcDbLine
 10
0.0
 20
0.0
 30
0.0
 11
-0.1
 21
0.0
 31
0.0
  0
LINE
  5
240
330
23B
100
AcDbEntity
  8
0
  6
Continuous
 62
     0
370
     0
100
AcDbLine
 10
0.0
 20
0.0
 30
0.0
 11
0.0
 21
-0.1
 31
0.0
  0
LINE
  5
241
330
23B
100
AcDbEntity
  8
0
  6
Continuous
 62
     0
370
     0
100
AcDbLine
 10
0.0
 20
0.0
 30
0.0
 11
0.1
 21
0.0
 31
0.0
  0
LINE
  5
242
330
23B
100
AcDbEntity
  8
0
  6
Continuous
 62
     0
370
     0
100
AcDbLine
 10
0.0
 20
0.1
 30
0.0
 11
0.0
 21
0.1885826772
 31
0.0
  0
LINE
  5
243
330
23B
100
AcDbEntity
  8
0
  6
Continuous
 62
     0
370
     0
100
AcDbLine
 10
-0.1
 20
0.0
 30
0.0
 11
-0.1885826772
 21
0.0
 31
0.0
  0
LINE
  5
244
330
23B
100
AcDbEntity
  8
0
  6
Continuous
 62
     0
370
     0
100
AcDbLine
 10
0.0
 20
-0.1
 30
0.0
 11
0.0
 21
-0.1885826772
 31
0.0
  0
LINE
  5
245
330
23B
100
AcDbEntity
  8
0
  6
Continuous
 62
     0
370
     0
100
AcDbLine
 10
0.1
 20
0.0
 30
0.0
 11
0.1885826772
 21
0.0
 31
0.0
  0
ENDBLK
  5
23D
330
23B
100
AcDbEntity
  8
0
100
AcDbBlockEnd
  0
BLOCK
  5
398
330
397
100
AcDbEntity
  8
0
100
AcDbBlockBegin
  2
*D24
 70
     1
 10
0.0
 20
0.0
 30
0.0
  3
*D24
  1

  0
SOLID
  5
39A
330
397
100
AcDbEntity
  8
0
  6
Continuous
 62
     7
370
     0
100
AcDbTrace
 10
3.332785902
 20
4.4529065064
 30
0.0
 11
3.310285902
 21
4.3066565064
 31
0.0
 12
3.355285902
 22
4.3066565064
 32
0.0
 13
3.355285902
 23
4.3066565064
 33
0.0
  0
SOLID
  5
39B
330
397
100
AcDbEntity
  8
0
  6
Continuous
 62
     7
370
     0
100
AcDbTrace
 10
3.332785902
 20
4.6497569001
 30
0.0
 11
3.355285902
 21
4.7960069001
 31
0.0
 12
3.310285902
 22
4.7960069001
 32
0.0
 13
3.310285902
 23
4.7960069001
 33
0.0
  0
LINE
  5
39C
330
397
100
AcDbEntity
  8
0
  6
Continuous
 62
     7
370
     0
100
AcDbLine
 10
2.7799754694
 20
5.0947354358
 30
0.0
 11
2.7514110148
 21
5.0947354358
 31
0.0
  0
LINE
  5
39D
330
397
100
AcDbEntity
  8
0
  6
Continuous
 62
     7
370
     0
100
AcDbLine
 10
2.7514110148
 20
5.0947354358
 30
0.0
 11
2.7514110148
 21
4.8714932416
 31
0.0
  0
LINE
  5
39E
330
397
100
AcDbEntity
  8
0
  6
Continuous
 62
     7
370
     0
100
AcDbLine
 10
2.7514110148
 20
4.8714932416
 30
0.0
 11
2.7799754694
 21
4.8714932416
 31
0.0
  0
LINE
  5
39F
330
397
100
AcDbEntity
  8
0
  6
Continuous
 62
     7
370
     0
100
AcDbLine
 10
2.9552928561
 20
5.0947354358
 30
0.0
 11
2.9838573106
 21
5.0947354358
 31
0.0
  0
LINE
  5
3A0
330
397
100
AcDbEntity
  8
0
  6
Continuous
 62
     7
370
     0
100
AcDbLine
 10
2.9838573106
 20
5.0947354358
 30
0.0
 11
2.9838573106
 21
4.8714932416
 31
0.0
  0
LINE
  5
3A1
330
397
100
AcDbEntity
  8
0
  6
Continuous
 62
     7
370
     0
100
AcDbLine
 10
2.9838573106
 20
4.8714932416
 30
0.0
 11
2.9552928561
 21
4.8714932416
 31
0.0
  0
LINE
  5
3A2
330
397
100
AcDbEntity
  8
0
  6
Continuous
 62
     7
370
     0
100
AcDbLine
 10
3.4565332416
 20
4.6497569001
 30
0.0
 11
3.192160902
 21
4.6497569001
 31
0.0
  0
LINE
  5
3A3
330
397
100
AcDbEntity
  8
0
  6
Continuous
 62
     7
370
     0
100
AcDbLine
 10
3.192160902
 20
5.0958096559
 30
0.0
 11
3.332785902
 21
5.0958096559
 31
0.0
  0
LINE
  5
3A4
330
397
100
AcDbEntity
  8
0
  6
Continuous
 62
     7
370
     0
100
AcDbLine
 10
3.332785902
 20
5.0958096559
 30
0.0
 11
3.332785902
 21
4.6497569001
 31
0.0
  0
LINE
  5
3A5
330
397
100
AcDbEntity
  8
0
  6
Continuous
 62
     7
370
     0
100
AcDbLine
 10
3.332785902
 20
4.4529065064
 30
0.0
 11
3.332785902
 21
4.1716565064
 31
0.0
  0
MTEXT
  5
3A6
330
397
100
AcDbEntity
  8
0
  6
Continuous
 62
     7
370
     0
100
AcDbMText
 10
2.6814036803
 20
5.3067234892
 30
0.3626782046
 40
0.140625
 41
0.0
 71
     1
 72
     1
  1

  7
SLDTEXTSTYLE0
 73
     1
 44
1.0
  0
MTEXT
  5
3A7
330
397
100
AcDbEntity
  8
0
  6
Continuous
 62
     7
370
     0
100
AcDbMText
 10
2.6806224304
 20
5.3045750413
 30
0.3626782046
 40
0.140625
 41
0.0
 71
     1
 72
     1
  1
.20
  7
SLDTEXTSTYLE0
 73
     1
 44
1.0
  0
MTEXT
  5
3A8
330
397
100
AcDbEntity
  8
0
  6
Continuous
 62
     7
370
     0
100
AcDbMText
 10
2.8156810376
 20
5.0527683848
 30
0.3626782046
 40
0.140625
 41
0.0
 71
     1
 72
     1
  1
5
  7
SLDTEXTSTYLE0
 73
     1
 44
1.0
  0
MTEXT
  5
3A9
330
397
100
AcDbEntity
  8
0
  6
Continuous
 62
     7
370
     0
100
AcDbMText
 10
3.1073802494
 20
5.3067234892
 30
0.3626782046
 40
0.140625
 41
0.0
 71
     1
 72
     1
  1

  7
SLDTEXTSTYLE0
 73
     1
 44
1.0
  0
ENDBLK
  5
399
330
397
100
AcDbEntity
  8
0
100
AcDbBlockEnd
  0
BLOCK
  5
3AD
330
3AC
100
AcDbEntity
  8
0
100
AcDbBlockBegin
  2
*D25
 70
     1
 10
0.0
 20
0.0
 30
0.0
  3
*D25
  1

  0
SOLID
  5
3AF
330
3AC
100
AcDbEntity
  8
0
  6
Continuous
 62
     7
370
     0
100
AcDbTrace
 10
2.2038263646
 20
4.5237726482
 30
0.0
 11
2.2263263646
 21
4.6700226482
 31
0.0
 12
2.1813263646
 22
4.6700226482
 32
0.0
 13
2.1813263646
 23
4.6700226482
 33
0.0
  0
SOLID
  5
3B0
330
3AC
100
AcDbEntity
  8
0
  6
Continuous
 62
     7
370
     0
100
AcDbTrace
 10
2.2038263646
 20
4.3662923332
 30
0.0
 11
2.1813263646
 21
4.2200423332
 31
0.0
 12
2.2263263646
 22
4.2200423332
 32
0.0
 13
2.2263263646
 23
4.2200423332
 33
0.0
  0
LINE
  5
3B1
330
3AC
100
AcDbEntity
  8
0
  6
Continuous
 62
     7
370
     0
100
AcDbLine
 10
1.651015932
 20
3.9223006691
 30
0.0
 11
1.6224514774
 21
3.9223006691
 31
0.0
  0
LINE
  5
3B2
330
3AC
100
AcDbEntity
  8
0
  6
Continuous
 62
     7
370
     0
100
AcDbLine
 10
1.6224514774
 20
3.9223006691
 30
0.0
 11
1.6224514774
 21
3.6990584749
 31
0.0
  0
LINE
  5
3B3
330
3AC
100
AcDbEntity
  8
0
  6
Continuous
 62
     7
370
     0
100
AcDbLine
 10
1.6224514774
 20
3.6990584749
 30
0.0
 11
1.651015932
 21
3.6990584749
 31
0.0
  0
LINE
  5
3B4
330
3AC
100
AcDbEntity
  8
0
  6
Continuous
 62
     7
370
     0
100
AcDbLine
 10
1.8263333187
 20
3.9223006691
 30
0.0
 11
1.8548977732
 21
3.9223006691
 31
0.0
  0
LINE
  5
3B5
330
3AC
100
AcDbEntity
  8
0
  6
Continuous
 62
     7
370
     0
100
AcDbLine
 10
1.8548977732
 20
3.9223006691
 30
0.0
 11
1.8548977732
 21
3.6990584749
 31
0.0
  0
LINE
  5
3B6
330
3AC
100
AcDbEntity
  8
0
  6
Continuous
 62
     7
370
     0
100
AcDbLine
 10
1.8548977732
 20
3.6990584749
 30
0.0
 11
1.8263333187
 21
3.6990584749
 31
0.0
  0
LINE
  5
3B7
330
3AC
100
AcDbEntity
  8
0
  6
Continuous
 62
     7
370
     0
100
AcDbLine
 10
2.5279003548
 20
4.5237726482
 30
0.0
 11
2.0632013646
 21
4.5237726482
 31
0.0
  0
LINE
  5
3B8
330
3AC
100
AcDbEntity
  8
0
  6
Continuous
 62
     7
370
     0
100
AcDbLine
 10
2.4885302761
 20
4.3662923332
 30
0.0
 11
2.0632013646
 21
4.3662923332
 31
0.0
  0
LINE
  5
3B9
330
3AC
100
AcDbEntity
  8
0
  6
Continuous
 62
     7
370
     0
100
AcDbLine
 10
2.0632013646
 20
3.9233748892
 30
0.0
 11
2.2038263646
 21
3.9233748892
 31
0.0
  0
LINE
  5
3BA
330
3AC
100
AcDbEntity
  8
0
  6
Continuous
 62
     7
370
     0
100
AcDbLine
 10
2.2038263646
 20
3.9233748892
 30
0.0
 11
2.2038263646
 21
4.3662923332
 31
0.0
  0
LINE
  5
3BB
330
3AC
100
AcDbEntity
  8
0
  6
Continuous
 62
     7
370
     0
100
AcDbLine
 10
2.2038263646
 20
4.5237726482
 30
0.0
 11
2.2038263646
 21
4.8050226482
 31
0.0
  0
MTEXT
  5
3BC
330
3AC
100
AcDbEntity
  8
0
  6
Continuous
 62
     7
370
     0
100
AcDbMText
 10
1.5524441429
 20
4.1342887225
 30
0.3626782046
 40
0.140625
 41
0.0
 71
     1
 72
     1
  1

  7
SLDTEXTSTYLE0
 73
     1
 44
1.0
  0
MTEXT
  5
3BD
330
3AC
100
AcDbEntity
  8
0
  6
Continuous
 62
     7
370
     0
100
AcDbMText
 10
1.551662893
 20
4.1321402746
 30
0.3626782046
 40
0.140625
 41
0.0
 71
     1
 72
     1
  1
.16
  7
SLDTEXTSTYLE0
 73
     1
 44
1.0
  0
MTEXT
  5
3BE
330
3AC
100
AcDbEntity
  8
0
  6
Continuous
 62
     7
370
     0
100
AcDbMText
 10
1.6867215002
 20
3.8803336181
 30
0.3626782046
 40
0.140625
 41
0.0
 71
     1
 72
     1
  1
4
  7
SLDTEXTSTYLE0
 73
     1
 44
1.0
  0
MTEXT
  5
3BF
330
3AC
100
AcDbEntity
  8
0
  6
Continuous
 62
     7
370
     0
100
AcDbMText
 10
1.978420712
 20
4.1342887225
 30
0.3626782046
 40
0.140625
 41
0.0
 71
     1
 72
     1
  1

  7
SLDTEXTSTYLE0
 73
     1
 44
1.0
  0
ENDBLK
  5
3AE
330
3AC
100
AcDbEntity
  8
0
100
AcDbBlockEnd
  0
BLOCK
  5
3C2
330
3C1
100
AcDbEntity
  8
0
100
AcDbBlockBegin
  2
*D26
 70
     1
 10
0.0
 20
0.0
 30
0.0
  3
*D26
  1

  0
SOLID
  5
3C4
330
3C1
100
AcDbEntity
  8
0
  6
Continuous
 62
     7
370
     0
100
AcDbTrace
 10
1.5703548978
 20
4.3662923332
 30
0.0
 11
1.5478548978
 21
4.2200423332
 31
0.0
 12
1.5928548978
 22
4.2200423332
 32
0.0
 13
1.5928548978
 23
4.2200423332
 33
0.0
  0
SOLID
  5
3C5
330
3C1
100
AcDbEntity
  8
0
  6
Continuous
 62
     7
370
     0
100
AcDbTrace
 10
1.5703548978
 20
4.7599931206
 30
0.0
 11
1.5928548978
 21
4.9062431206
 31
0.0
 12
1.5478548978
 22
4.9062431206
 32
0.0
 13
1.5478548978
 23
4.9062431206
 33
0.0
  0
LINE
  5
3C6
330
3C1
100
AcDbEntity
  8
0
  6
Continuous
 62
     7
370
     0
100
AcDbLine
 10
0.9630034378
 20
5.0947354358
 30
0.0
 11
0.9344389832
 21
5.0947354358
 31
0.0
  0
LINE
  5
3C7
330
3C1
100
AcDbEntity
  8
0
  6
Continuous
 62
     7
370
     0
100
AcDbLine
 10
0.9344389832
 20
5.0947354358
 30
0.0
 11
0.9344389832
 21
4.8714932416
 31
0.0
  0
LINE
  5
3C8
330
3C1
100
AcDbEntity
  8
0
  6
Continuous
 62
     7
370
     0
100
AcDbLine
 10
0.9344389832
 20
4.8714932416
 30
0.0
 11
0.9630034378
 21
4.8714932416
 31
0.0
  0
LINE
  5
3C9
330
3C1
100
AcDbEntity
  8
0
  6
Continuous
 62
     7
370
     0
100
AcDbLine
 10
1.2422270747
 20
5.0947354358
 30
0.0
 11
1.2707915293
 21
5.0947354358
 31
0.0
  0
LINE
  5
3CA
330
3C1
100
AcDbEntity
  8
0
  6
Continuous
 62
     7
370
     0
100
AcDbLine
 10
1.2707915293
 20
5.0947354358
 30
0.0
 11
1.2707915293
 21
4.8714932416
 31
0.0
  0
LINE
  5
3CB
330
3C1
100
AcDbEntity
  8
0
  6
Continuous
 62
     7
370
     0
100
AcDbLine
 10
1.2707915293
 20
4.8714932416
 30
0.0
 11
1.2422270747
 21
4.8714932416
 31
0.0
  0
LINE
  5
3CC
330
3C1
100
AcDbEntity
  8
0
  6
Continuous
 62
     7
370
     0
100
AcDbLine
 10
2.4885302761
 20
4.3662923332
 30
0.0
 11
1.4297298978
 21
4.3662923332
 31
0.0
  0
LINE
  5
3CD
330
3C1
100
AcDbEntity
  8
0
  6
Continuous
 62
     7
370
     0
100
AcDbLine
 10
2.9412861816
 20
4.7599931206
 30
0.0
 11
1.4297298978
 21
4.7599931206
 31
0.0
  0
LINE
  5
3CE
330
3C1
100
AcDbEntity
  8
0
  6
Continuous
 62
     7
370
     0
100
AcDbLine
 10
1.4297298978
 20
5.0958096559
 30
0.0
 11
1.5703548978
 21
5.0958096559
 31
0.0
  0
LINE
  5
3CF
330
3C1
100
AcDbEntity
  8
0
  6
Continuous
 62
     7
370
     0
100
AcDbLine
 10
1.5703548978
 20
5.0958096559
 30
0.0
 11
1.5703548978
 21
4.7599931206
 31
0.0
  0
LINE
  5
3D0
330
3C1
100
AcDbEntity
  8
0
  6
Continuous
 62
     7
370
     0
100
AcDbLine
 10
1.5703548978
 20
4.3662923332
 30
0.0
 11
1.5703548978
 21
4.0850423332
 31
0.0
  0
MTEXT
  5
3D1
330
3C1
100
AcDbEntity
  8
0
  6
Continuous
 62
     7
370
     0
100
AcDbMText
 10
0.9137968921
 20
5.3067234892
 30
0.3626782046
 40
0.140625
 41
0.0
 71
     1
 72
     1
  1

  7
SLDTEXTSTYLE0
 73
     1
 44
1.0
  0
MTEXT
  5
3D2
330
3C1
100
AcDbEntity
  8
0
  6
Continuous
 62
     7
370
     0
100
AcDbMText
 10
0.9156035343
 20
5.3045750413
 30
0.3626782046
 40
0.140625
 41
0.0
 71
     1
 72
     1
  1
.39
  7
SLDTEXTSTYLE0
 73
     1
 44
1.0
  0
MTEXT
  5
3D3
330
3C1
100
AcDbEntity
  8
0
  6
Continuous
 62
     7
370
     0
100
AcDbMText
 10
0.9987090059
 20
5.0527683848
 30
0.3626782046
 40
0.140625
 41
0.0
 71
     1
 72
     1
  1
10
  7
SLDTEXTSTYLE0
 73
     1
 44
1.0
  0
MTEXT
  5
3D4
330
3C1
100
AcDbEntity
  8
0
  6
Continuous
 62
     7
370
     0
100
AcDbMText
 10
1.3449492452
 20
5.3067234892
 30
0.3626782046
 40
0.140625
 41
0.0
 71
     1
 72
     1
  1

  7
SLDTEXTSTYLE0
 73
     1
 44
1.0
  0
ENDBLK
  5
3C3
330
3C1
100
AcDbEntity
  8
0
100
AcDbBlockEnd
  0
BLOCK
  5
3D7
330
3D6
100
AcDbEntity
  8
0
100
AcDbBlockBegin
  2
*D27
 70
     1
 10
0.0
 20
0.0
 30
0.0
  3
*D27
  1

  0
SOLID
  5
3D9
330
3D6
100
AcDbEntity
  8
0
  6
Continuous
 62
     7
370
     0
100
AcDbTrace
 10
6.7816604216
 20
4.4529065064
 30
0.0
 11
6.8041604216
 21
4.5991565064
 31
0.0
 12
6.7591604216
 22
4.5991565064
 32
0.0
 13
6.7591604216
 23
4.5991565064
 33
0.0
  0
SOLID
  5
3DA
330
3D6
100
AcDbEntity
  8
0
  6
Continuous
 62
     7
370
     0
100
AcDbTrace
 10
6.7816604216
 20
4.3662923332
 30
0.0
 11
6.7591604216
 21
4.2200423332
 31
0.0
 12
6.8041604216
 22
4.2200423332
 32
0.0
 13
6.8041604216
 23
4.2200423332
 33
0.0
  0
LINE
  5
3DB
330
3D6
100
AcDbEntity
  8
0
  6
Continuous
 62
     7
370
     0
100
AcDbLine
 10
7.109788255
 20
4.0210548426
 30
0.0
 11
7.0812238005
 21
4.0210548426
 31
0.0
  0
LINE
  5
3DC
330
3D6
100
AcDbEntity
  8
0
  6
Continuous
 62
     7
370
     0
100
AcDbLine
 10
7.0812238005
 20
4.0210548426
 30
0.0
 11
7.0812238005
 21
3.7978126484
 31
0.0
  0
LINE
  5
3DD
330
3D6
100
AcDbEntity
  8
0
  6
Continuous
 62
     7
370
     0
100
AcDbLine
 10
7.0812238005
 20
3.7978126484
 30
0.0
 11
7.109788255
 21
3.7978126484
 31
0.0
  0
LINE
  5
3DE
330
3D6
100
AcDbEntity
  8
0
  6
Continuous
 62
     7
370
     0
100
AcDbLine
 10
7.4409650068
 20
4.0210548426
 30
0.0
 11
7.4695294614
 21
4.0210548426
 31
0.0
  0
LINE
  5
3DF
330
3D6
100
AcDbEntity
  8
0
  6
Continuous
 62
     7
370
     0
100
AcDbLine
 10
7.4695294614
 20
4.0210548426
 30
0.0
 11
7.4695294614
 21
3.7978126484
 31
0.0
  0
LINE
  5
3E0
330
3D6
100
AcDbEntity
  8
0
  6
Continuous
 62
     7
370
     0
100
AcDbLine
 10
7.4695294614
 20
3.7978126484
 30
0.0
 11
7.4409650068
 21
3.7978126484
 31
0.0
  0
LINE
  5
3E1
330
3D6
100
AcDbEntity
  8
0
  6
Continuous
 62
     7
370
     0
100
AcDbLine
 10
6.9222854216
 20
4.0221290627
 30
0.0
 11
6.7816604216
 21
4.0221290627
 31
0.0
  0
LINE
  5
3E2
330
3D6
100
AcDbEntity
  8
0
  6
Continuous
 62
     7
370
     0
100
AcDbLine
 10
6.7816604216
 20
4.0221290627
 30
0.0
 11
6.7816604216
 21
4.3662923332
 31
0.0
  0
LINE
  5
3E3
330
3D6
100
AcDbEntity
  8
0
  6
Continuous
 62
     7
370
     0
100
AcDbLine
 10
6.7816604216
 20
4.4529065064
 30
0.0
 11
6.7816604216
 21
4.7341565064
 31
0.0
  0
MTEXT
  5
3E4
330
3D6
100
AcDbEntity
  8
0
  6
Continuous
 62
     7
370
     0
100
AcDbMText
 10
7.0605817094
 20
4.233042896
 30
0.3626782046
 40
0.140625
 41
0.0
 71
     1
 72
     1
  1

  7
SLDTEXTSTYLE0
 73
     1
 44
1.0
  0
MTEXT
  5
3E5
330
3D6
100
AcDbEntity
  8
0
  6
Continuous
 62
     7
370
     0
100
AcDbMText
 10
7.0883649089
 20
4.2308944481
 30
0.3626782046
 40
0.140625
 41
0.0
 71
     1
 72
     1
  1
.09
  7
SLDTEXTSTYLE0
 73
     1
 44
1.0
  0
MTEXT
  5
3E6
330
3D6
100
AcDbEntity
  8
0
  6
Continuous
 62
     7
370
     0
100
AcDbMText
 10
7.1454938232
 20
3.9790877916
 30
0.3626782046
 40
0.140625
 41
0.0
 71
     1
 72
     1
  1
2.2
  7
SLDTEXTSTYLE0
 73
     1
 44
1.0
  0
MTEXT
  5
3E7
330
3D6
100
AcDbEntity
  8
0
  6
Continuous
 62
     7
370
     0
100
AcDbMText
 10
7.5436871773
 20
4.233042896
 30
0.3626782046
 40
0.140625
 41
0.0
 71
     1
 72
     1
  1

  7
SLDTEXTSTYLE0
 73
     1
 44
1.0
  0
ENDBLK
  5
3D8
330
3D6
100
AcDbEntity
  8
0
100
AcDbBlockEnd
  0
BLOCK
  5
471
330
470
100
AcDbEntity
  8
0
100
AcDbBlockBegin
  2
*D28
 70
     1
 10
0.0
 20
0.0
 30
0.0
  3
*D28
  1

  0
SOLID
  5
473
330
470
100
AcDbEntity
  8
0
  6
Continuous
 62
     7
370
     0
100
AcDbTrace
 10
9.6312087873
 20
10.641218838
 30
0.0
 11
9.7774587873
 21
10.618718838
 31
0.0
 12
9.7774587873
 22
10.663718838
 32
0.0
 13
9.7774587873
 23
10.663718838
 33
0.0
  0
SOLID
  5
474
330
470
100
AcDbEntity
  8
0
  6
Continuous
 62
     7
370
     0
100
AcDbTrace
 10
13.765067055
 20
10.641218838
 30
0.0
 11
13.618817055
 21
10.663718838
 31
0.0
 12
13.618817055
 22
10.618718838
 32
0.0
 13
13.618817055
 23
10.618718838
 33
0.0
  0
LINE
  5
475
330
470
100
AcDbEntity
  8
0
  6
Continuous
 62
     7
370
     0
100
AcDbLine
 10
11.506572993
 20
10.6401446179
 30
0.0
 11
11.4780085384
 21
10.6401446179
 31
0.0
  0
LINE
  5
476
330
470
100
AcDbEntity
  8
0
  6
Continuous
 62
     7
370
     0
100
AcDbLine
 10
11.4780085384
 20
10.6401446179
 30
0.0
 11
11.4780085384
 21
10.4169024237
 31
0.0
  0
LINE
  5
477
330
470
100
AcDbEntity
  8
0
  6
Continuous
 62
     7
370
     0
100
AcDbLine
 10
11.4780085384
 20
10.4169024237
 30
0.0
 11
11.506572993
 21
10.4169024237
 31
0.0
  0
LINE
  5
478
330
470
100
AcDbEntity
  8
0
  6
Continuous
 62
     7
370
     0
100
AcDbLine
 10
11.8897028803
 20
10.6401446179
 30
0.0
 11
11.9182673348
 21
10.6401446179
 31
0.0
  0
LINE
  5
479
330
470
100
AcDbEntity
  8
0
  6
Continuous
 62
     7
370
     0
100
AcDbLine
 10
11.9182673348
 20
10.6401446179
 30
0.0
 11
11.9182673348
 21
10.4169024237
 31
0.0
  0
LINE
  5
47A
330
470
100
AcDbEntity
  8
0
  6
Continuous
 62
     7
370
     0
100
AcDbLine
 10
11.9182673348
 20
10.4169024237
 30
0.0
 11
11.8897028803
 21
10.4169024237
 31
0.0
  0
LINE
  5
47B
330
470
100
AcDbEntity
  8
0
  6
Continuous
 62
     7
370
     0
100
AcDbLine
 10
9.6312087873
 20
9.4728553138
 30
0.0
 11
9.6312087873
 21
10.781843838
 31
0.0
  0
LINE
  5
47C
330
470
100
AcDbEntity
  8
0
  6
Continuous
 62
     7
370
     0
100
AcDbLine
 10
13.765067055
 20
9.4728553138
 30
0.0
 11
13.765067055
 21
10.781843838
 31
0.0
  0
LINE
  5
47D
330
470
100
AcDbEntity
  8
0
  6
Continuous
 62
     7
370
     0
100
AcDbLine
 10
9.6312087873
 20
10.641218838
 30
0.0
 11
11.3761114348
 21
10.641218838
 31
0.0
  0
LINE
  5
47E
330
470
100
AcDbEntity
  8
0
  6
Continuous
 62
     7
370
     0
100
AcDbLine
 10
13.765067055
 20
10.641218838
 30
0.0
 11
12.0201644075
 21
10.641218838
 31
0.0
  0
MTEXT
  5
47F
330
470
100
AcDbEntity
  8
0
  6
Continuous
 62
     7
370
     0
100
AcDbMText
 10
11.4573664474
 20
10.8521326713
 30
0.5709350868
 40
0.140625
 41
0.0
 71
     1
 72
     1
  1

  7
SLDTEXTSTYLE0
 73
     1
 44
1.0
  0
MTEXT
  5
480
330
470
100
AcDbEntity
  8
0
  6
Continuous
 62
     7
370
     0
100
AcDbMText
 10
11.4591730895
 20
10.8499842233
 30
0.5709350868
 40
0.140625
 41
0.0
 71
     1
 72
     1
  1
4.13
  7
SLDTEXTSTYLE0
 73
     1
 44
1.0
  0
MTEXT
  5
481
330
470
100
AcDbEntity
  8
0
  6
Continuous
 62
     7
370
     0
100
AcDbMText
 10
11.5422785612
 20
10.5981775668
 30
0.5709350868
 40
0.140625
 41
0.0
 71
     1
 72
     1
  1
105
  7
SLDTEXTSTYLE0
 73
     1
 44
1.0
  0
MTEXT
  5
482
330
470
100
AcDbEntity
  8
0
  6
Continuous
 62
     7
370
     0
100
AcDbMText
 10
11.9924250301
 20
10.8521326713
 30
0.5709350868
 40
0.140625
 41
0.0
 71
     1
 72
     1
  1

  7
SLDTEXTSTYLE0
 73
     1
 44
1.0
  0
ENDBLK
  5
472
330
470
100
AcDbEntity
  8
0
100
AcDbBlockEnd
  0
BLOCK
  5
485
330
484
100
AcDbEntity
  8
0
100
AcDbBlockBegin
  2
*D29
 70
     1
 10
0.0
 20
0.0
 30
0.0
  3
*D29
  1

  0
SOLID
  5
487
330
484
100
AcDbEntity
  8
0
  6
Continuous
 62
     7
370
     0
100
AcDbTrace
 10
9.7147280129
 20
10.061328941
 30
0.0
 11
9.8609780129
 21
10.038828941
 31
0.0
 12
9.8609780129
 22
10.083828941
 32
0.0
 13
9.8609780129
 23
10.083828941
 33
0.0
  0
SOLID
  5
488
330
484
100
AcDbEntity
  8
0
  6
Continuous
 62
     7
370
     0
100
AcDbTrace
 10
13.6815478294
 20
10.061328941
 30
0.0
 11
13.5352978294
 21
10.083828941
 31
0.0
 12
13.5352978294
 22
10.038828941
 32
0.0
 13
13.5352978294
 23
10.038828941
 33
0.0
  0
LINE
  5
489
330
484
100
AcDbEntity
  8
0
  6
Continuous
 62
     7
370
     0
100
AcDbLine
 10
11.4286433001
 20
10.0602547209
 30
0.0
 11
11.4000788456
 21
10.0602547209
 31
0.0
  0
LINE
  5
48A
330
484
100
AcDbEntity
  8
0
  6
Continuous
 62
     7
370
     0
100
AcDbLine
 10
11.4000788456
 20
10.0602547209
 30
0.0
 11
11.4000788456
 21
9.8370125267
 31
0.0
  0
LINE
  5
48B
330
484
100
AcDbEntity
  8
0
  6
Continuous
 62
     7
370
     0
100
AcDbLine
 10
11.4000788456
 20
9.8370125267
 30
0.0
 11
11.4286433001
 21
9.8370125267
 31
0.0
  0
LINE
  5
48C
330
484
100
AcDbEntity
  8
0
  6
Continuous
 62
     7
370
     0
100
AcDbLine
 10
11.9676325525
 20
10.0602547209
 30
0.0
 11
11.9961970071
 21
10.0602547209
 31
0.0
  0
LINE
  5
48D
330
484
100
AcDbEntity
  8
0
  6
Continuous
 62
     7
370
     0
100
AcDbLine
 10
11.9961970071
 20
10.0602547209
 30
0.0
 11
11.9961970071
 21
9.8370125267
 31
0.0
  0
LINE
  5
48E
330
484
100
AcDbEntity
  8
0
  6
Continuous
 62
     7
370
     0
100
AcDbLine
 10
11.9961970071
 20
9.8370125267
 30
0.0
 11
11.9676325525
 21
9.8370125267
 31
0.0
  0
LINE
  5
48F
330
484
100
AcDbEntity
  8
0
  6
Continuous
 62
     7
370
     0
100
AcDbLine
 10
9.7147280129
 20
9.4680762457
 30
0.0
 11
9.7147280129
 21
10.201953941
 31
0.0
  0
LINE
  5
490
330
484
100
AcDbEntity
  8
0
  6
Continuous
 62
     7
370
     0
100
AcDbLine
 10
13.6815478294
 20
9.4680762457
 30
0.0
 11
13.6815478294
 21
10.201953941
 31
0.0
  0
LINE
  5
491
330
484
100
AcDbEntity
  8
0
  6
Continuous
 62
     7
370
     0
100
AcDbLine
 10
9.7147280129
 20
10.061328941
 30
0.0
 11
11.2981817419
 21
10.061328941
 31
0.0
  0
LINE
  5
492
330
484
100
AcDbEntity
  8
0
  6
Continuous
 62
     7
370
     0
100
AcDbLine
 10
13.6815478294
 20
10.061328941
 30
0.0
 11
12.0980941004
 21
10.061328941
 31
0.0
  0
MTEXT
  5
493
330
484
100
AcDbEntity
  8
0
  6
Continuous
 62
     7
370
     0
100
AcDbMText
 10
11.3794367545
 20
10.2722427743
 30
0.5709350868
 40
0.140625
 41
0.0
 71
     1
 72
     1
  1

  7
SLDTEXTSTYLE0
 73
     1
 44
1.0
  0
MTEXT
  5
494
330
484
100
AcDbEntity
  8
0
  6
Continuous
 62
     7
370
     0
100
AcDbMText
 10
11.4591730895
 20
10.2700943263
 30
0.5709350868
 40
0.140625
 41
0.0
 71
     1
 72
     1
  1
3.97
  7
SLDTEXTSTYLE0
 73
     1
 44
1.0
  0
MTEXT
  5
495
330
484
100
AcDbEntity
  8
0
  6
Continuous
 62
     7
370
     0
100
AcDbMText
 10
11.4643488683
 20
10.0182876699
 30
0.5709350868
 40
0.140625
 41
0.0
 71
     1
 72
     1
  1
100.8
  7
SLDTEXTSTYLE0
 73
     1
 44
1.0
  0
MTEXT
  5
496
330
484
100
AcDbEntity
  8
0
  6
Continuous
 62
     7
370
     0
100
AcDbMText
 10
12.070354723
 20
10.2722427743
 30
0.5709350868
 40
0.140625
 41
0.0
 71
     1
 72
     1
  1

  7
SLDTEXTSTYLE0
 73
     1
 44
1.0
  0
ENDBLK
  5
486
330
484
100
AcDbEntity
  8
0
100
AcDbBlockEnd
  0
BLOCK
  5
499
330
498
100
AcDbEntity
  8
0
100
AcDbBlockBegin
  2
*D30
 70
     1
 10
0.0
 20
0.0
 30
0.0
  3
*D30
  1

  0
SOLID
  5
49B
330
498
100
AcDbEntity
  8
0
  6
Continuous
 62
     7
370
     0
100
AcDbTrace
 10
14.739480562
 20
6.7158179123
 30
0.0
 11
14.761980562
 21
6.8620679123
 31
0.0
 12
14.716980562
 22
6.8620679123
 32
0.0
 13
14.716980562
 23
6.8620679123
 33
0.0
  0
SOLID
  5
49C
330
498
100
AcDbEntity
  8
0
  6
Continuous
 62
     7
370
     0
100
AcDbTrace
 10
14.739480562
 20
9.4953454713
 30
0.0
 11
14.716980562
 21
9.3490954713
 31
0.0
 12
14.761980562
 22
9.3490954713
 32
0.0
 13
14.761980562
 23
9.3490954713
 33
0.0
  0
LINE
  5
49D
330
498
100
AcDbEntity
  8
0
  6
Continuous
 62
     7
370
     0
100
AcDbLine
 10
14.5219390558
 20
8.1045074717
 30
0.0
 11
14.4933746013
 21
8.1045074717
 31
0.0
  0
LINE
  5
49E
330
498
100
AcDbEntity
  8
0
  6
Continuous
 62
     7
370
     0
100
AcDbLine
 10
14.4933746013
 20
8.1045074717
 30
0.0
 11
14.4933746013
 21
7.8812652775
 31
0.0
  0
LINE
  5
49F
330
498
100
AcDbEntity
  8
0
  6
Continuous
 62
     7
370
     0
100
AcDbLine
 10
14.4933746013
 20
7.8812652775
 30
0.0
 11
14.5219390558
 21
7.8812652775
 31
0.0
  0
LINE
  5
4A0
330
498
100
AcDbEntity
  8
0
  6
Continuous
 62
     7
370
     0
100
AcDbLine
 10
14.9570220785
 20
8.1045074717
 30
0.0
 11
14.9855865331
 21
8.1045074717
 31
0.0
  0
LINE
  5
4A1
330
498
100
AcDbEntity
  8
0
  6
Continuous
 62
     7
370
     0
100
AcDbLine
 10
14.9855865331
 20
8.1045074717
 30
0.0
 11
14.9855865331
 21
7.8812652775
 31
0.0
  0
LINE
  5
4A2
330
498
100
AcDbEntity
  8
0
  6
Continuous
 62
     7
370
     0
100
AcDbLine
 10
14.9855865331
 20
7.8812652775
 30
0.0
 11
14.9570220785
 21
7.8812652775
 31
0.0
  0
LINE
  5
4A3
330
498
100
AcDbEntity
  8
0
  6
Continuous
 62
     7
370
     0
100
AcDbLine
 10
13.7425768975
 20
6.7158179123
 30
0.0
 11
14.880105562
 21
6.7158179123
 31
0.0
  0
LINE
  5
4A4
330
498
100
AcDbEntity
  8
0
  6
Continuous
 62
     7
370
     0
100
AcDbLine
 10
13.7425768975
 20
9.4953454713
 30
0.0
 11
14.880105562
 21
9.4953454713
 31
0.0
  0
LINE
  5
4A5
330
498
100
AcDbEntity
  8
0
  6
Continuous
 62
     7
370
     0
100
AcDbLine
 10
14.739480562
 20
6.7158179123
 30
0.0
 11
14.739480562
 21
7.8527008075
 31
0.0
  0
LINE
  5
4A6
330
498
100
AcDbEntity
  8
0
  6
Continuous
 62
     7
370
     0
100
AcDbLine
 10
14.739480562
 20
9.4953454713
 30
0.0
 11
14.739480562
 21
8.3584625761
 31
0.0
  0
MTEXT
  5
4A7
330
498
100
AcDbEntity
  8
0
  6
Continuous
 62
     7
370
     0
100
AcDbMText
 10
14.4727325102
 20
8.3164955251
 30
0.5709350868
 40
0.140625
 41
0.0
 71
     1
 72
     1
  1

  7
SLDTEXTSTYLE0
 73
     1
 44
1.0
  0
MTEXT
  5
4A8
330
498
100
AcDbEntity
  8
0
  6
Continuous
 62
     7
370
     0
100
AcDbMText
 10
14.5005157304
 20
8.3143470772
 30
0.5709350868
 40
0.140625
 41
0.0
 71
     1
 72
     1
  1
2.78
  7
SLDTEXTSTYLE0
 73
     1
 44
1.0
  0
MTEXT
  5
4A9
330
498
100
AcDbEntity
  8
0
  6
Continuous
 62
     7
370
     0
100
AcDbMText
 10
14.557644624
 20
8.0625404207
 30
0.5709350868
 40
0.140625
 41
0.0
 71
     1
 72
     1
  1
70.6
  7
SLDTEXTSTYLE0
 73
     1
 44
1.0
  0
MTEXT
  5
4AA
330
498
100
AcDbEntity
  8
0
  6
Continuous
 62
     7
370
     0
100
AcDbMText
 10
15.059744249
 20
8.3164955251
 30
0.5709350868
 40
0.140625
 41
0.0
 71
     1
 72
     1
  1

  7
SLDTEXTSTYLE0
 73
     1
 44
1.0
  0
ENDBLK
  5
49A
330
498
100
AcDbEntity
  8
0
100
AcDbBlockEnd
  0
BLOCK
  5
4AD
330
4AC
100
AcDbEntity
  8
0
100
AcDbBlockBegin
  2
*D31
 70
     1
 10
0.0
 20
0.0
 30
0.0
  3
*D31
  1

  0
SOLID
  5
4AF
330
4AC
100
AcDbEntity
  8
0
  6
Continuous
 62
     7
370
     0
100
AcDbTrace
 10
14.1396867352
 20
9.4118262457
 30
0.0
 11
14.1171867352
 21
9.2655762457
 31
0.0
 12
14.1621867352
 22
9.2655762457
 32
0.0
 13
14.1621867352
 23
9.2655762457
 33
0.0
  0
SOLID
  5
4B0
330
4AC
100
AcDbEntity
  8
0
  6
Continuous
 62
     7
370
     0
100
AcDbTrace
 10
14.1396867352
 20
6.7993371379
 30
0.0
 11
14.1621867352
 21
6.9455871379
 31
0.0
 12
14.1171867352
 22
6.9455871379
 32
0.0
 13
14.1171867352
 23
6.9455871379
 33
0.0
  0
LINE
  5
4B1
330
4AC
100
AcDbEntity
  8
0
  6
Continuous
 62
     7
370
     0
100
AcDbLine
 10
13.922145229
 20
8.1045074717
 30
0.0
 11
13.8935807745
 21
8.1045074717
 31
0.0
  0
LINE
  5
4B2
330
4AC
100
AcDbEntity
  8
0
  6
Continuous
 62
     7
370
     0
100
AcDbLine
 10
13.8935807745
 20
8.1045074717
 30
0.0
 11
13.8935807745
 21
7.8812652775
 31
0.0
  0
LINE
  5
4B3
330
4AC
100
AcDbEntity
  8
0
  6
Continuous
 62
     7
370
     0
100
AcDbLine
 10
13.8935807745
 20
7.8812652775
 30
0.0
 11
13.922145229
 21
7.8812652775
 31
0.0
  0
LINE
  5
4B4
330
4AC
100
AcDbEntity
  8
0
  6
Continuous
 62
     7
370
     0
100
AcDbLine
 10
14.3572282517
 20
8.1045074717
 30
0.0
 11
14.3857927063
 21
8.1045074717
 31
0.0
  0
LINE
  5
4B5
330
4AC
100
AcDbEntity
  8
0
  6
Continuous
 62
     7
370
     0
100
AcDbLine
 10
14.3857927063
 20
8.1045074717
 30
0.0
 11
14.3857927063
 21
7.8812652775
 31
0.0
  0
LINE
  5
4B6
330
4AC
100
AcDbEntity
  8
0
  6
Continuous
 62
     7
370
     0
100
AcDbLine
 10
14.3857927063
 20
7.8812652775
 30
0.0
 11
14.3572282517
 21
7.8812652775
 31
0.0
  0
LINE
  5
4B7
330
4AC
100
AcDbEntity
  8
0
  6
Continuous
 62
     7
370
     0
100
AcDbLine
 10
13.7377978294
 20
9.4118262457
 30
0.0
 11
14.2803117352
 21
9.4118262457
 31
0.0
  0
LINE
  5
4B8
330
4AC
100
AcDbEntity
  8
0
  6
Continuous
 62
     7
370
     0
100
AcDbLine
 10
13.7377978294
 20
6.7993371379
 30
0.0
 11
14.2803117352
 21
6.7993371379
 31
0.0
  0
LINE
  5
4B9
330
4AC
100
AcDbEntity
  8
0
  6
Continuous
 62
     7
370
     0
100
AcDbLine
 10
14.1396867352
 20
9.4118262457
 30
0.0
 11
14.1396867352
 21
8.3584625761
 31
0.0
  0
LINE
  5
4BA
330
4AC
100
AcDbEntity
  8
0
  6
Continuous
 62
     7
370
     0
100
AcDbLine
 10
14.1396867352
 20
6.7993371379
 30
0.0
 11
14.1396867352
 21
7.8527008075
 31
0.0
  0
MTEXT
  5
4BB
330
4AC
100
AcDbEntity
  8
0
  6
Continuous
 62
     7
370
     0
100
AcDbMText
 10
13.8729386834
 20
8.3164955251
 30
0.5709350868
 40
0.140625
 41
0.0
 71
     1
 72
     1
  1

  7
SLDTEXTSTYLE0
 73
     1
 44
1.0
  0
MTEXT
  5
4BC
330
4AC
100
AcDbEntity
  8
0
  6
Continuous
 62
     7
370
     0
100
AcDbMText
 10
13.9007219036
 20
8.3143470772
 30
0.5709350868
 40
0.140625
 41
0.0
 71
     1
 72
     1
  1
2.61
  7
SLDTEXTSTYLE0
 73
     1
 44
1.0
  0
MTEXT
  5
4BD
330
4AC
100
AcDbEntity
  8
0
  6
Continuous
 62
     7
370
     0
100
AcDbMText
 10
13.9578507972
 20
8.0625404207
 30
0.5709350868
 40
0.140625
 41
0.0
 71
     1
 72
     1
  1
66.4
  7
SLDTEXTSTYLE0
 73
     1
 44
1.0
  0
MTEXT
  5
4BE
330
4AC
100
AcDbEntity
  8
0
  6
Continuous
 62
     7
370
     0
100
AcDbMText
 10
14.4599504222
 20
8.3164955251
 30
0.5709350868
 40
0.140625
 41
0.0
 71
     1
 72
     1
  1

  7
SLDTEXTSTYLE0
 73
     1
 44
1.0
  0
ENDBLK
  5
4AE
330
4AC
100
AcDbEntity
  8
0
100
AcDbBlockEnd
  0
BLOCK
  5
4EA
330
4E9
100
AcDbEntity
  8
0
100
AcDbBlockBegin
  2
*D32
 70
     1
 10
0.0
 20
0.0
 30
0.0
  3
*D32
  1

  0
ARC
  5
4EC
330
4E9
100
AcDbEntity
  8
0
  6
Continuous
 62
     7
370
     0
100
AcDbCircle
 10
15.8581078652
 20
9.3916059214
 30
0.0
 40
0.6672391666789274
100
AcDbArc
 50
153.2991559726
 51
177.0
  0
ARC
  5
4ED
330
4E9
100
AcDbEntity
  8
0
  6
Continuous
 62
     7
370
     0
100
AcDbCircle
 10
15.8581078652
 20
9.3916059214
 30
0.0
 40
0.6672391666789257
100
AcDbArc
 50
180.0
 51
203.2007493702
  0
SOLID
  5
4EE
330
4E9
100
AcDbEntity
  8
0
  6
Continuous
 62
     7
370
     0
100
AcDbTrace
 10
15.1917831266
 20
9.4265265212
 30
0.0
 11
15.237330821
 21
9.5673126002
 31
0.0
 12
15.1929073663
 22
9.5744928978
 32
0.0
 13
15.1929073663
 23
9.5744928978
 33
0.0
  0
SOLID
  5
4EF
330
4E9
100
AcDbEntity
  8
0
  6
Continuous
 62
     7
370
     0
100
AcDbTrace
 10
15.1908686985
 20
9.3916059214
 30
0.0
 11
15.1842474356
 21
9.2437834895
 31
0.0
 12
15.2289857973
 22
9.2486290027
 32
0.0
 13
15.2289857973
 23
9.2486290027
 33
0.0
  0
LINE
  5
4F0
330
4E9
100
AcDbEntity
  8
0
  6
Continuous
 62
     7
370
     0
100
AcDbLine
 10
14.8699624947
 20
9.0160491065
 30
0.0
 11
14.8413980401
 21
9.0160491065
 31
0.0
  0
LINE
  5
4F1
330
4E9
100
AcDbEntity
  8
0
  6
Continuous
 62
     7
370
     0
100
AcDbLine
 10
14.8413980401
 20
9.0160491065
 30
0.0
 11
14.8699624947
 21
9.0160491065
 31
0.0
  0
LINE
  5
4F2
330
4E9
100
AcDbEntity
  8
0
  6
Continuous
 62
     7
370
     0
100
AcDbLine
 10
14.941373631
 20
9.0160491065
 30
0.0
 11
14.9699380856
 21
9.0160491065
 31
0.0
  0
LINE
  5
4F3
330
4E9
100
AcDbEntity
  8
0
  6
Continuous
 62
     7
370
     0
100
AcDbLine
 10
14.9699380856
 20
9.0160491065
 30
0.0
 11
14.941373631
 21
9.0160491065
 31
0.0
  0
LINE
  5
4F4
330
4E9
100
AcDbEntity
  8
0
  6
Continuous
 62
     7
370
     0
100
AcDbLine
 10
15.4161081822
 20
9.4147701432
 30
0.0
 11
15.0513508483
 21
9.4338862651
 31
0.0
  0
LINE
  5
4F5
330
4E9
100
AcDbEntity
  8
0
  6
Continuous
 62
     7
370
     0
100
AcDbLine
 10
15.5809690403
 20
9.3916059214
 30
0.0
 11
15.0502436985
 21
9.3916059214
 31
0.0
  0
LINE
  5
4F6
330
4E9
100
AcDbEntity
  8
0
  6
Continuous
 62
     7
370
     0
100
AcDbLine
 10
15.2448282053
 20
9.1287444288
 30
0.0
 11
15.1042032053
 21
9.1287444288
 31
0.0
  0
MTEXT
  5
4F7
330
4E9
100
AcDbEntity
  8
0
  6
Continuous
 62
     7
370
     0
100
AcDbMText
 10
14.7598672748
 20
9.2280371547
 30
0.0039370079
 40
0.140625
 41
0.0
 71
     1
 72
     1
  1

  7
SLDTEXTSTYLE0
 73
     1
 44
1.0
  0
MTEXT
  5
4F8
330
4E9
100
AcDbEntity
  8
0
  6
Continuous
 62
     7
370
     0
100
AcDbMText
 10
14.7590860249
 20
9.2258887171
 30
0.0039370079
 40
0.140625
 41
0.0
 71
     1
 72
     1
  1
3°
  7
SLDTEXTSTYLE0
 73
     1
 44
1.0
  0
MTEXT
  5
4F9
330
4E9
100
AcDbEntity
  8
0
  6
Continuous
 62
     7
370
     0
100
AcDbMText
 10
15.1049844655
 20
9.2280371547
 30
0.0039370079
 40
0.140625
 41
0.0
 71
     1
 72
     1
  1

  7
SLDTEXTSTYLE0
 73
     1
 44
1.0
  0
ENDBLK
  5
4EB
330
4E9
100
AcDbEntity
  8
0
100
AcDbBlockEnd
  0
BLOCK
  5
4FC
330
4FB
100
AcDbEntity
  8
0
100
AcDbBlockBegin
  2
*D33
 70
     1
 10
0.0
 20
0.0
 30
0.0
  3
*D33
  1

  0
SOLID
  5
4FE
330
4FB
100
AcDbEntity
  8
0
  6
Continuous
 62
     7
370
     0
100
AcDbTrace
 10
15.8581078652
 20
9.1568563768
 30
0.0
 11
15.7118578652
 21
9.1793563768
 31
0.0
 12
15.7118578652
 22
9.1343563768
 32
0.0
 13
15.7118578652
 23
9.1343563768
 33
0.0
  0
SOLID
  5
4FF
330
4FB
100
AcDbEntity
  8
0
  6
Continuous
 62
     7
370
     0
100
AcDbTrace
 10
15.9447220384
 20
9.1568563768
 30
0.0
 11
16.0909720384
 21
9.1343563768
 31
0.0
 12
16.0909720384
 22
9.1793563768
 32
0.0
 13
16.0909720384
 23
9.1793563768
 33
0.0
  0
LINE
  5
500
330
4FB
100
AcDbEntity
  8
0
  6
Continuous
 62
     7
370
     0
100
AcDbLine
 10
16.3565927984
 20
9.1557821567
 30
0.0
 11
16.3280283438
 21
9.1557821567
 31
0.0
  0
LINE
  5
501
330
4FB
100
AcDbEntity
  8
0
  6
Continuous
 62
     7
370
     0
100
AcDbLine
 10
16.3280283438
 20
9.1557821567
 30
0.0
 11
16.3280283438
 21
8.9325399625
 31
0.0
  0
LINE
  5
502
330
4FB
100
AcDbEntity
  8
0
  6
Continuous
 62
     7
370
     0
100
AcDbLine
 10
16.3280283438
 20
8.9325399625
 30
0.0
 11
16.3565927984
 21
8.9325399625
 31
0.0
  0
LINE
  5
503
330
4FB
100
AcDbEntity
  8
0
  6
Continuous
 62
     7
370
     0
100
AcDbLine
 10
16.6877695502
 20
9.1557821567
 30
0.0
 11
16.7163340047
 21
9.1557821567
 31
0.0
  0
LINE
  5
504
330
4FB
100
AcDbEntity
  8
0
  6
Continuous
 62
     7
370
     0
100
AcDbLine
 10
16.7163340047
 20
9.1557821567
 30
0.0
 11
16.7163340047
 21
8.9325399625
 31
0.0
  0
LINE
  5
505
330
4FB
100
AcDbEntity
  8
0
  6
Continuous
 62
     7
370
     0
100
AcDbLine
 10
16.7163340047
 20
8.9325399625
 30
0.0
 11
16.6877695502
 21
8.9325399625
 31
0.0
  0
LINE
  5
506
330
4FB
100
AcDbEntity
  8
0
  6
Continuous
 62
     7
370
     0
100
AcDbLine
 10
15.8581078652
 20
9.1568563768
 30
0.0
 11
15.5768578652
 21
9.1568563768
 31
0.0
  0
LINE
  5
507
330
4FB
100
AcDbEntity
  8
0
  6
Continuous
 62
     7
370
     0
100
AcDbLine
 10
15.9447220384
 20
9.1568563768
 30
0.0
 11
16.2261312402
 21
9.1568563768
 31
0.0
  0
MTEXT
  5
508
330
4FB
100
AcDbEntity
  8
0
  6
Continuous
 62
     7
370
     0
100
AcDbMText
 10
16.3073862528
 20
9.3677702101
 30
0.4960645291
 40
0.140625
 41
0.0
 71
     1
 72
     1
  1

  7
SLDTEXTSTYLE0
 73
     1
 44
1.0
  0
MTEXT
  5
509
330
4FB
100
AcDbEntity
  8
0
  6
Continuous
 62
     7
370
     0
100
AcDbMText
 10
16.3351694523
 20
9.3656217622
 30
0.4960645291
 40
0.140625
 41
0.0
 71
     1
 72
     1
  1
.09
  7
SLDTEXTSTYLE0
 73
     1
 44
1.0
  0
MTEXT
  5
50A
330
4FB
100
AcDbEntity
  8
0
  6
Continuous
 62
     7
370
     0
100
AcDbMText
 10
16.3922983666
 20
9.1138151057
 30
0.4960645291
 40
0.140625
 41
0.0
 71
     1
 72
     1
  1
2.2
  7
SLDTEXTSTYLE0
 73
     1
 44
1.0
  0
MTEXT
  5
50B
330
4FB
100
AcDbEntity
  8
0
  6
Continuous
 62
     7
370
     0
100
AcDbMText
 10
16.7904917206
 20
9.3677702101
 30
0.4960645291
 40
0.140625
 41
0.0
 71
     1
 72
     1
  1

  7
SLDTEXTSTYLE0
 73
     1
 44
1.0
  0
ENDBLK
  5
4FD
330
4FB
100
AcDbEntity
  8
0
100
AcDbBlockEnd
  0
BLOCK
  5
50E
330
50D
100
AcDbEntity
  8
0
100
AcDbBlockBegin
  2
*D34
 70
     1
 10
0.0
 20
0.0
 30
0.0
  3
*D34
  1

  0
SOLID
  5
510
330
50D
100
AcDbEntity
  8
0
  6
Continuous
 62
     7
370
     0
100
AcDbTrace
 10
15.5313362117
 20
9.8487999424
 30
0.0
 11
15.3850862117
 21
9.8712999424
 31
0.0
 12
15.3850862117
 22
9.8262999424
 32
0.0
 13
15.3850862117
 23
9.8262999424
 33
0.0
  0
SOLID
  5
511
330
50D
100
AcDbEntity
  8
0
  6
Continuous
 62
     7
370
     0
100
AcDbTrace
 10
15.9447220384
 20
9.8487999424
 30
0.0
 11
16.0909720384
 21
9.8262999424
 31
0.0
 12
16.0909720384
 22
9.8712999424
 32
0.0
 13
16.0909720384
 23
9.8712999424
 33
0.0
  0
LINE
  5
512
330
50D
100
AcDbEntity
  8
0
  6
Continuous
 62
     7
370
     0
100
AcDbLine
 10
16.3349638829
 20
9.8477257223
 30
0.0
 11
16.3063994284
 21
9.8477257223
 31
0.0
  0
LINE
  5
513
330
50D
100
AcDbEntity
  8
0
  6
Continuous
 62
     7
370
     0
100
AcDbLine
 10
16.3063994284
 20
9.8477257223
 30
0.0
 11
16.3063994284
 21
9.6244835281
 31
0.0
  0
LINE
  5
514
330
50D
100
AcDbEntity
  8
0
  6
Continuous
 62
     7
370
     0
100
AcDbLine
 10
16.3063994284
 20
9.6244835281
 30
0.0
 11
16.3349638829
 21
9.6244835281
 31
0.0
  0
LINE
  5
515
330
50D
100
AcDbEntity
  8
0
  6
Continuous
 62
     7
370
     0
100
AcDbLine
 10
16.7700469056
 20
9.8477257223
 30
0.0
 11
16.7986113602
 21
9.8477257223
 31
0.0
  0
LINE
  5
516
330
50D
100
AcDbEntity
  8
0
  6
Continuous
 62
     7
370
     0
100
AcDbLine
 10
16.7986113602
 20
9.8477257223
 30
0.0
 11
16.7986113602
 21
9.6244835281
 31
0.0
  0
LINE
  5
517
330
50D
100
AcDbEntity
  8
0
  6
Continuous
 62
     7
370
     0
100
AcDbLine
 10
16.7986113602
 20
9.6244835281
 30
0.0
 11
16.7700469056
 21
9.6244835281
 31
0.0
  0
LINE
  5
518
330
50D
100
AcDbEntity
  8
0
  6
Continuous
 62
     7
370
     0
100
AcDbLine
 10
15.5313362117
 20
9.5515954713
 30
0.0
 11
15.5313362117
 21
9.9894249424
 31
0.0
  0
LINE
  5
519
330
50D
100
AcDbEntity
  8
0
  6
Continuous
 62
     7
370
     0
100
AcDbLine
 10
15.9447220384
 20
9.4925700284
 30
0.0
 11
15.9447220384
 21
9.9894249424
 31
0.0
  0
LINE
  5
51A
330
50D
100
AcDbEntity
  8
0
  6
Continuous
 62
     7
370
     0
100
AcDbLine
 10
15.5313362117
 20
9.8487999424
 30
0.0
 11
15.2500862117
 21
9.8487999424
 31
0.0
  0
LINE
  5
51B
330
50D
100
AcDbEntity
  8
0
  6
Continuous
 62
     7
370
     0
100
AcDbLine
 10
15.9447220384
 20
9.8487999424
 30
0.0
 11
16.2045023247
 21
9.8487999424
 31
0.0
  0
MTEXT
  5
51C
330
50D
100
AcDbEntity
  8
0
  6
Continuous
 62
     7
370
     0
100
AcDbMText
 10
16.2857573373
 20
10.0597137757
 30
0.4960645291
 40
0.140625
 41
0.0
 71
     1
 72
     1
  1

  7
SLDTEXTSTYLE0
 73
     1
 44
1.0
  0
MTEXT
  5
51D
330
50D
100
AcDbEntity
  8
0
  6
Continuous
 62
     7
370
     0
100
AcDbMText
 10
16.3654936723
 20
10.0575653277
 30
0.4960645291
 40
0.140625
 41
0.0
 71
     1
 72
     1
  1
.41
  7
SLDTEXTSTYLE0
 73
     1
 44
1.0
  0
MTEXT
  5
51E
330
50D
100
AcDbEntity
  8
0
  6
Continuous
 62
     7
370
     0
100
AcDbMText
 10
16.3706694511
 20
9.8057586712
 30
0.4960645291
 40
0.140625
 41
0.0
 71
     1
 72
     1
  1
10.5
  7
SLDTEXTSTYLE0
 73
     1
 44
1.0
  0
MTEXT
  5
51F
330
50D
100
AcDbEntity
  8
0
  6
Continuous
 62
     7
370
     0
100
AcDbMText
 10
16.8727690761
 20
10.0597137757
 30
0.4960645291
 40
0.140625
 41
0.0
 71
     1
 72
     1
  1

  7
SLDTEXTSTYLE0
 73
     1
 44
1.0
  0
ENDBLK
  5
50F
330
50D
100
AcDbEntity
  8
0
100
AcDbBlockEnd
  0
BLOCK
  5
554
330
553
100
AcDbEntity
  8
0
100
AcDbBlockBegin
  2
*D35
 70
     1
 10
0.0
 20
0.0
 30
0.0
  3
*D35
  1

  0
SOLID
  5
556
330
553
100
AcDbEntity
  8
0
  6
Continuous
 62
     7
370
     0
100
AcDbTrace
 10
16.8537877141
 20
7.3575501957
 30
0.0
 11
16.8762877141
 21
7.5038001957
 31
0.0
 12
16.8312877141
 22
7.5038001957
 32
0.0
 13
16.8312877141
 23
7.5038001957
 33
0.0
  0
SOLID
  5
557
330
553
100
AcDbEntity
  8
0
  6
Continuous
 62
     7
370
     0
100
AcDbTrace
 10
16.8537877141
 20
8.8536131879
 30
0.0
 11
16.8312877141
 21
8.7073631879
 31
0.0
 12
16.8762877141
 22
8.7073631879
 32
0.0
 13
16.8762877141
 23
8.7073631879
 33
0.0
  0
LINE
  5
558
330
553
100
AcDbEntity
  8
0
  6
Continuous
 62
     7
370
     0
100
AcDbLine
 10
16.7141759007
 20
8.1045074717
 30
0.0
 11
16.6856114462
 21
8.1045074717
 31
0.0
  0
LINE
  5
559
330
553
100
AcDbEntity
  8
0
  6
Continuous
 62
     7
370
     0
100
AcDbLine
 10
16.6856114462
 20
8.1045074717
 30
0.0
 11
16.6856114462
 21
7.8812652775
 31
0.0
  0
LINE
  5
55A
330
553
100
AcDbEntity
  8
0
  6
Continuous
 62
     7
370
     0
100
AcDbLine
 10
16.6856114462
 20
7.8812652775
 30
0.0
 11
16.7141759007
 21
7.8812652775
 31
0.0
  0
LINE
  5
55B
330
553
100
AcDbEntity
  8
0
  6
Continuous
 62
     7
370
     0
100
AcDbLine
 10
16.9933995377
 20
8.1045074717
 30
0.0
 11
17.0219639923
 21
8.1045074717
 31
0.0
  0
LINE
  5
55C
330
553
100
AcDbEntity
  8
0
  6
Continuous
 62
     7
370
     0
100
AcDbLine
 10
17.0219639923
 20
8.1045074717
 30
0.0
 11
17.0219639923
 21
7.8812652775
 31
0.0
  0
LINE
  5
55D
330
553
100
AcDbEntity
  8
0
  6
Continuous
 62
     7
370
     0
100
AcDbLine
 10
17.0219639923
 20
7.8812652775
 30
0.0
 11
16.9933995377
 21
7.8812652775
 31
0.0
  0
LINE
  5
55E
330
553
100
AcDbEntity
  8
0
  6
Continuous
 62
     7
370
     0
100
AcDbLine
 10
17.314880845
 20
7.3575501957
 30
0.0
 11
16.7131627141
 21
7.3575501957
 31
0.0
  0
LINE
  5
55F
330
553
100
AcDbEntity
  8
0
  6
Continuous
 62
     7
370
     0
100
AcDbLine
 10
17.314880845
 20
8.8536131879
 30
0.0
 11
16.7131627141
 21
8.8536131879
 31
0.0
  0
LINE
  5
560
330
553
100
AcDbEntity
  8
0
  6
Continuous
 62
     7
370
     0
100
AcDbLine
 10
16.8537877141
 20
7.3575501957
 30
0.0
 11
16.8537877141
 21
7.8527008075
 31
0.0
  0
LINE
  5
561
330
553
100
AcDbEntity
  8
0
  6
Continuous
 62
     7
370
     0
100
AcDbLine
 10
16.8537877141
 20
8.8536131879
 30
0.0
 11
16.8537877141
 21
8.3584625761
 31
0.0
  0
MTEXT
  5
562
330
553
100
AcDbEntity
  8
0
  6
Continuous
 62
     7
370
     0
100
AcDbMText
 10
16.6156041323
 20
8.3164955251
 30
0.0039370079
 40
0.140625
 41
0.0
 71
     1
 72
     1
  1

  7
SLDTEXTSTYLE0
 73
     1
 44
1.0
  0
MTEXT
  5
563
330
553
100
AcDbEntity
  8
0
  6
Continuous
 62
     7
370
     0
100
AcDbMText
 10
16.6148228824
 20
8.3143470772
 30
0.0039370079
 40
0.140625
 41
0.0
 71
     1
 72
     1
  1
1.50
  7
SLDTEXTSTYLE0
 73
     1
 44
1.0
  0
MTEXT
  5
564
330
553
100
AcDbEntity
  8
0
  6
Continuous
 62
     7
370
     0
100
AcDbMText
 10
16.7498814689
 20
8.0625404207
 30
0.0039370079
 40
0.140625
 41
0.0
 71
     1
 72
     1
  1
38
  7
SLDTEXTSTYLE0
 73
     1
 44
1.0
  0
MTEXT
  5
565
330
553
100
AcDbEntity
  8
0
  6
Continuous
 62
     7
370
     0
100
AcDbMText
 10
17.145486931
 20
8.3164955251
 30
0.0039370079
 40
0.140625
 41
0.0
 71
     1
 72
     1
  1

  7
SLDTEXTSTYLE0
 73
     1
 44
1.0
  0
ENDBLK
  5
555
330
553
100
AcDbEntity
  8
0
100
AcDbBlockEnd
  0
BLOCK
  5
568
330
567
100
AcDbEntity
  8
0
100
AcDbBlockBegin
  2
*D36
 70
     1
 10
0.0
 20
0.0
 30
0.0
  3
*D36
  1

  0
SOLID
  5
56A
330
567
100
AcDbEntity
  8
0
  6
Continuous
 62
     7
370
     0
100
AcDbTrace
 10
17.2959917189
 20
7.5937706682
 30
0.0
 11
17.3184917189
 21
7.7400206682
 31
0.0
 12
17.2734917189
 22
7.7400206682
 32
0.0
 13
17.2734917189
 23
7.7400206682
 33
0.0
  0
SOLID
  5
56B
330
567
100
AcDbEntity
  8
0
  6
Continuous
 62
     7
370
     0
100
AcDbTrace
 10
17.2959917189
 20
7.1213297233
 30
0.0
 11
17.2734917189
 21
6.9750797233
 31
0.0
 12
17.3184917189
 22
6.9750797233
 32
0.0
 13
17.3184917189
 23
6.9750797233
 33
0.0
  0
LINE
  5
56C
330
567
100
AcDbEntity
  8
0
  6
Continuous
 62
     7
370
     0
100
AcDbLine
 10
16.6886402589
 20
6.8073501185
 30
0.0
 11
16.6600758044
 21
6.8073501185
 31
0.0
  0
LINE
  5
56D
330
567
100
AcDbEntity
  8
0
  6
Continuous
 62
     7
370
     0
100
AcDbLine
 10
16.6600758044
 20
6.8073501185
 30
0.0
 11
16.6600758044
 21
6.5841079243
 31
0.0
  0
LINE
  5
56E
330
567
100
AcDbEntity
  8
0
  6
Continuous
 62
     7
370
     0
100
AcDbLine
 10
16.6600758044
 20
6.5841079243
 30
0.0
 11
16.6886402589
 21
6.5841079243
 31
0.0
  0
LINE
  5
56F
330
567
100
AcDbEntity
  8
0
  6
Continuous
 62
     7
370
     0
100
AcDbLine
 10
16.9678638959
 20
6.8073501185
 30
0.0
 11
16.9964283504
 21
6.8073501185
 31
0.0
  0
LINE
  5
570
330
567
100
AcDbEntity
  8
0
  6
Continuous
 62
     7
370
     0
100
AcDbLine
 10
16.9964283504
 20
6.8073501185
 30
0.0
 11
16.9964283504
 21
6.5841079243
 31
0.0
  0
LINE
  5
571
330
567
100
AcDbEntity
  8
0
  6
Continuous
 62
     7
370
     0
100
AcDbLine
 10
16.9964283504
 20
6.5841079243
 30
0.0
 11
16.9678638959
 21
6.5841079243
 31
0.0
  0
LINE
  5
572
330
567
100
AcDbEntity
  8
0
  6
Continuous
 62
     7
370
     0
100
AcDbLine
 10
17.596130845
 20
7.5937706682
 30
0.0
 11
17.1553667189
 21
7.5937706682
 31
0.0
  0
LINE
  5
573
330
567
100
AcDbEntity
  8
0
  6
Continuous
 62
     7
370
     0
100
AcDbLine
 10
17.596130845
 20
7.1213297233
 30
0.0
 11
17.1553667189
 21
7.1213297233
 31
0.0
  0
LINE
  5
574
330
567
100
AcDbEntity
  8
0
  6
Continuous
 62
     7
370
     0
100
AcDbLine
 10
17.1553667189
 20
6.8084243386
 30
0.0
 11
17.2959917189
 21
6.8084243386
 31
0.0
  0
LINE
  5
575
330
567
100
AcDbEntity
  8
0
  6
Continuous
 62
     7
370
     0
100
AcDbLine
 10
17.2959917189
 20
6.8084243386
 30
0.0
 11
17.2959917189
 21
7.1213297233
 31
0.0
  0
LINE
  5
576
330
567
100
AcDbEntity
  8
0
  6
Continuous
 62
     7
370
     0
100
AcDbLine
 10
17.2959917189
 20
7.5937706682
 30
0.0
 11
17.2959917189
 21
7.8750206682
 31
0.0
  0
MTEXT
  5
577
330
567
100
AcDbEntity
  8
0
  6
Continuous
 62
     7
370
     0
100
AcDbMText
 10
16.6394337133
 20
7.0193381719
 30
0.0039370079
 40
0.140625
 41
0.0
 71
     1
 72
     1
  1

  7
SLDTEXTSTYLE0
 73
     1
 44
1.0
  0
MTEXT
  5
578
330
567
100
AcDbEntity
  8
0
  6
Continuous
 62
     7
370
     0
100
AcDbMText
 10
16.6412403554
 20
7.017189724
 30
0.0039370079
 40
0.140625
 41
0.0
 71
     1
 72
     1
  1
.47
  7
SLDTEXTSTYLE0
 73
     1
 44
1.0
  0
MTEXT
  5
579
330
567
100
AcDbEntity
  8
0
  6
Continuous
 62
     7
370
     0
100
AcDbMText
 10
16.7243458271
 20
6.7653830675
 30
0.0039370079
 40
0.140625
 41
0.0
 71
     1
 72
     1
  1
12
  7
SLDTEXTSTYLE0
 73
     1
 44
1.0
  0
MTEXT
  5
57A
330
567
100
AcDbEntity
  8
0
  6
Continuous
 62
     7
370
     0
100
AcDbMText
 10
17.0705860664
 20
7.0193381719
 30
0.0039370079
 40
0.140625
 41
0.0
 71
     1
 72
     1
  1

  7
SLDTEXTSTYLE0
 73
     1
 44
1.0
  0
ENDBLK
  5
569
330
567
100
AcDbEntity
  8
0
100
AcDbBlockEnd
  0
BLOCK
  5
57D
330
57C
100
AcDbEntity
  8
0
100
AcDbBlockBegin
  2
*D37
 70
     1
 10
0.0
 20
0.0
 30
0.0
  3
*D37
  1

  0
SOLID
  5
57F
330
57C
100
AcDbEntity
  8
0
  6
Continuous
 62
     7
370
     0
100
AcDbTrace
 10
17.652380845
 20
6.4041567765
 30
0.0
 11
17.506130845
 21
6.4266567765
 31
0.0
 12
17.506130845
 22
6.3816567765
 32
0.0
 13
17.506130845
 23
6.3816567765
 33
0.0
  0
SOLID
  5
580
330
57C
100
AcDbEntity
  8
0
  6
Continuous
 62
     7
370
     0
100
AcDbTrace
 10
17.8908275839
 20
6.4041567765
 30
0.0
 11
18.0370775839
 21
6.3816567765
 31
0.0
 12
18.0370775839
 22
6.4266567765
 32
0.0
 13
18.0370775839
 23
6.4266567765
 33
0.0
  0
LINE
  5
581
330
57C
100
AcDbEntity
  8
0
  6
Continuous
 62
     7
370
     0
100
AcDbLine
 10
18.3115034719
 20
6.4030825565
 30
0.0
 11
18.2829390173
 21
6.4030825565
 31
0.0
  0
LINE
  5
582
330
57C
100
AcDbEntity
  8
0
  6
Continuous
 62
     7
370
     0
100
AcDbLine
 10
18.2829390173
 20
6.4030825565
 30
0.0
 11
18.2829390173
 21
6.1798403622
 31
0.0
  0
LINE
  5
583
330
57C
100
AcDbEntity
  8
0
  6
Continuous
 62
     7
370
     0
100
AcDbLine
 10
18.2829390173
 20
6.1798403622
 30
0.0
 11
18.3115034719
 21
6.1798403622
 31
0.0
  0
LINE
  5
584
330
57C
100
AcDbEntity
  8
0
  6
Continuous
 62
     7
370
     0
100
AcDbLine
 10
18.6426802237
 20
6.4030825565
 30
0.0
 11
18.6712446782
 21
6.4030825565
 31
0.0
  0
LINE
  5
585
330
57C
100
AcDbEntity
  8
0
  6
Continuous
 62
     7
370
     0
100
AcDbLine
 10
18.6712446782
 20
6.4030825565
 30
0.0
 11
18.6712446782
 21
6.1798403622
 31
0.0
  0
LINE
  5
586
330
57C
100
AcDbEntity
  8
0
  6
Continuous
 62
     7
370
     0
100
AcDbLine
 10
18.6712446782
 20
6.1798403622
 30
0.0
 11
18.6426802237
 21
6.1798403622
 31
0.0
  0
LINE
  5
587
330
57C
100
AcDbEntity
  8
0
  6
Continuous
 62
     7
370
     0
100
AcDbLine
 10
17.652380845
 20
6.6595679123
 30
0.0
 11
17.652380845
 21
6.2635317765
 31
0.0
  0
LINE
  5
588
330
57C
100
AcDbEntity
  8
0
  6
Continuous
 62
     7
370
     0
100
AcDbLine
 10
17.8908275839
 20
7.0650797233
 30
0.0
 11
17.8908275839
 21
6.2635317765
 31
0.0
  0
LINE
  5
589
330
57C
100
AcDbEntity
  8
0
  6
Continuous
 62
     7
370
     0
100
AcDbLine
 10
17.652380845
 20
6.4041567765
 30
0.0
 11
17.371130845
 21
6.4041567765
 31
0.0
  0
LINE
  5
58A
330
57C
100
AcDbEntity
  8
0
  6
Continuous
 62
     7
370
     0
100
AcDbLine
 10
17.8908275839
 20
6.4041567765
 30
0.0
 11
18.1810419137
 21
6.4041567765
 31
0.0
  0
MTEXT
  5
58B
330
57C
100
AcDbEntity
  8
0
  6
Continuous
 62
     7
370
     0
100
AcDbMText
 10
18.2622969263
 20
6.6150706098
 30
0.0039370079
 40
0.140625
 41
0.0
 71
     1
 72
     1
  1

  7
SLDTEXTSTYLE0
 73
     1
 44
1.0
  0
MTEXT
  5
58C
330
57C
100
AcDbEntity
  8
0
  6
Continuous
 62
     7
370
     0
100
AcDbMText
 10
18.2900801258
 20
6.6129221619
 30
0.0039370079
 40
0.140625
 41
0.0
 71
     1
 72
     1
  1
.24
  7
SLDTEXTSTYLE0
 73
     1
 44
1.0
  0
MTEXT
  5
58D
330
57C
100
AcDbEntity
  8
0
  6
Continuous
 62
     7
370
     0
100
AcDbMText
 10
18.3472090401
 20
6.3611155054
 30
0.0039370079
 40
0.140625
 41
0.0
 71
     1
 72
     1
  1
6.1
  7
SLDTEXTSTYLE0
 73
     1
 44
1.0
  0
MTEXT
  5
58E
330
57C
100
AcDbEntity
  8
0
  6
Continuous
 62
     7
370
     0
100
AcDbMText
 10
18.7454023942
 20
6.6150706098
 30
0.0039370079
 40
0.140625
 41
0.0
 71
     1
 72
     1
  1

  7
SLDTEXTSTYLE0
 73
     1
 44
1.0
  0
ENDBLK
  5
57E
330
57C
100
AcDbEntity
  8
0
100
AcDbBlockEnd
  0
BLOCK
  5
590
330
58F
100
AcDbEntity
  8
0
100
AcDbBlockBegin
  2
SW_NOTE_5
 70
     0
 10
0.0
 20
0.0
 30
0.0
  3
SW_NOTE_5
  1

  0
MTEXT
  5
592
330
58F
100
AcDbEntity
  8
0
  6
Continuous
 62
     0
370
     0
100
AcDbMText
 10
0.0222688237
 20
0.0681822728
 30
0.0
 40
0.140625
 41
0.0
 71
     1
 72
     1
  1
CABLE OUTLET
  7
SLDTEXTSTYLE0
 73
     1
 44
1.0
  0
MTEXT
  5
593
330
58F
100
AcDbEntity
  8
0
  6
Continuous
 62
     0
370
     0
100
AcDbMText
 10
0.0222688237
 20
-0.1167340611
 30
0.0
 40
0.140625
 41
0.0
 71
     1
 72
     1
  1
MAY BE EASILY
  7
SLDTEXTSTYLE0
 73
     1
 44
1.0
  0
MTEXT
  5
594
330
58F
100
AcDbEntity
  8
0
  6
Continuous
 62
     0
370
     0
100
AcDbMText
 10
0.0222688237
 20
-0.3016503949
 30
0.0
 40
0.140625
 41
0.0
 71
     1
 72
     1
  1
CUT OPEN
  7
SLDTEXTSTYLE0
 73
     1
 44
1.0
  0
ENDBLK
  5
591
330
58F
100
AcDbEntity
  8
0
100
AcDbBlockEnd
  0
BLOCK
  5
598
330
597
100
AcDbEntity
  8
0
100
AcDbBlockBegin
  2
_DOT
 70
     0
 10
0.0
 20
0.0
 30
0.0
  3
_DOT
  1

  0
POLYLINE
  5
59A
330
597
100
AcDbEntity
  8
0
  6
ByBlock
 62
     0
100
AcDb2dPolyline
 66
     1
 10
0.0
 20
0.0
 30
0.0
 70
     1
 40
0.5
 41
0.5
  0
VERTEX
  5
59C
330
59A
100
AcDbEntity
  8
0
  6
ByBlock
 62
     0
100
AcDbVertex
100
AcDb2dVertex
 10
-0.25
 20
0.0
 30
0.0
 42
1.0
  0
VERTEX
  5
59D
330
59A
100
AcDbEntity
  8
0
  6
ByBlock
 62
     0
100
AcDbVertex
100
AcDb2dVertex
 10
0.25
 20
0.0
 30
0.0
 42
1.0
  0
SEQEND
  5
59E
330
59A
100
AcDbEntity
  8
0
  6
ByBlock
 62
     0
  0
LINE
  5
59B
330
597
100
AcDbEntity
  8
0
  6
ByBlock
 62
     0
370
    -2
100
AcDbLine
 10
-0.5
 20
0.0
 30
0.0
 11
-1.0
 21
0.0
 31
0.0
  0
ENDBLK
  5
599
330
597
100
AcDbEntity
  8
0
100
AcDbBlockEnd
  0
BLOCK
  5
607
330
606
100
AcDbEntity
  8
0
100
AcDbBlockBegin
  2
*D40
 70
     1
 10
0.0
 20
0.0
 30
0.0
  3
*D40
  1

  0
SOLID
  5
609
330
606
100
AcDbEntity
  8
0
  6
Continuous
 62
     7
370
     0
100
AcDbTrace
 10
2.0618794842
 20
1.631547667
 30
0.0
 11
2.0393794842
 21
1.485297667
 31
0.0
 12
2.0843794842
 22
1.485297667
 32
0.0
 13
2.0843794842
 23
1.485297667
 33
0.0
  0
SOLID
  5
60A
330
606
100
AcDbEntity
  8
0
  6
Continuous
 62
     7
370
     0
100
AcDbTrace
 10
2.0618794842
 20
2.068555541
 30
0.0
 11
2.0843794842
 21
2.214805541
 31
0.0
 12
2.0393794842
 22
2.214805541
 32
0.0
 13
2.0393794842
 23
2.214805541
 33
0.0
  0
LINE
  5
60B
330
606
100
AcDbEntity
  8
0
  6
Continuous
 62
     7
370
     0
100
AcDbLine
 10
1.844337978
 20
1.8489773839
 30
0.0
 11
1.8157735234
 21
1.8489773839
 31
0.0
  0
LINE
  5
60C
330
606
100
AcDbEntity
  8
0
  6
Continuous
 62
     7
370
     0
100
AcDbLine
 10
1.8157735234
 20
1.8489773839
 30
0.0
 11
1.8157735234
 21
1.6257351897
 31
0.0
  0
LINE
  5
60D
330
606
100
AcDbEntity
  8
0
  6
Continuous
 62
     7
370
     0
100
AcDbLine
 10
1.8157735234
 20
1.6257351897
 30
0.0
 11
1.844337978
 21
1.6257351897
 31
0.0
  0
LINE
  5
60E
330
606
100
AcDbEntity
  8
0
  6
Continuous
 62
     7
370
     0
100
AcDbLine
 10
2.2794210007
 20
1.8489773839
 30
0.0
 11
2.3079854552
 21
1.8489773839
 31
0.0
  0
LINE
  5
60F
330
606
100
AcDbEntity
  8
0
  6
Continuous
 62
     7
370
     0
100
AcDbLine
 10
2.3079854552
 20
1.8489773839
 30
0.0
 11
2.3079854552
 21
1.6257351897
 31
0.0
  0
LINE
  5
610
330
606
100
AcDbEntity
  8
0
  6
Continuous
 62
     7
370
     0
100
AcDbLine
 10
2.3079854552
 20
1.6257351897
 30
0.0
 11
2.2794210007
 21
1.6257351897
 31
0.0
  0
LINE
  5
611
330
606
100
AcDbEntity
  8
0
  6
Continuous
 62
     7
370
     0
100
AcDbLine
 10
3.4565332416
 20
1.631547667
 30
0.0
 11
1.9212544842
 21
1.631547667
 31
0.0
  0
LINE
  5
612
330
606
100
AcDbEntity
  8
0
  6
Continuous
 62
     7
370
     0
100
AcDbLine
 10
3.0253406921
 20
2.068555541
 30
0.0
 11
1.9212544842
 21
2.068555541
 31
0.0
  0
LINE
  5
613
330
606
100
AcDbEntity
  8
0
  6
Continuous
 62
     7
370
     0
100
AcDbLine
 10
2.0618794842
 20
1.631547667
 30
0.0
 11
2.0618794842
 21
1.350297667
 31
0.0
  0
LINE
  5
614
330
606
100
AcDbEntity
  8
0
  6
Continuous
 62
     7
370
     0
100
AcDbLine
 10
2.0618794842
 20
2.068555541
 30
0.0
 11
2.0618794842
 21
2.349805541
 31
0.0
  0
MTEXT
  5
615
330
606
100
AcDbEntity
  8
0
  6
Continuous
 62
     7
370
     0
100
AcDbMText
 10
1.7951314323
 20
2.0609654373
 30
0.3576051271
 40
0.140625
 41
0.0
 71
     1
 72
     1
  1

  7
SLDTEXTSTYLE0
 73
     1
 44
1.0
  0
MTEXT
  5
616
330
606
100
AcDbEntity
  8
0
  6
Continuous
 62
     7
370
     0
100
AcDbMText
 10
1.8748677673
 20
2.0588169894
 30
0.3576051271
 40
0.140625
 41
0.0
 71
     1
 72
     1
  1
.44
  7
SLDTEXTSTYLE0
 73
     1
 44
1.0
  0
MTEXT
  5
617
330
606
100
AcDbEntity
  8
0
  6
Continuous
 62
     7
370
     0
100
AcDbMText
 10
1.8800435461
 20
1.8070103329
 30
0.3576051271
 40
0.140625
 41
0.0
 71
     1
 72
     1
  1
11.1
  7
SLDTEXTSTYLE0
 73
     1
 44
1.0
  0
MTEXT
  5
618
330
606
100
AcDbEntity
  8
0
  6
Continuous
 62
     7
370
     0
100
AcDbMText
 10
2.3821431711
 20
2.0609654373
 30
0.3576051271
 40
0.140625
 41
0.0
 71
     1
 72
     1
  1

  7
SLDTEXTSTYLE0
 73
     1
 44
1.0
  0
ENDBLK
  5
608
330
606
100
AcDbEntity
  8
0
100
AcDbBlockEnd
  0
BLOCK
  5
61B
330
61A
100
AcDbEntity
  8
0
100
AcDbBlockBegin
  2
*D41
 70
     1
 10
0.0
 20
0.0
 30
0.0
  3
*D41
  1

  0
SOLID
  5
61D
330
61A
100
AcDbEntity
  8
0
  6
Continuous
 62
     7
370
     0
100
AcDbTrace
 10
7.9877095914
 20
1.4346972733
 30
0.0
 11
7.9652095914
 21
1.2884472733
 31
0.0
 12
8.0102095914
 22
1.2884472733
 32
0.0
 13
8.0102095914
 23
1.2884472733
 33
0.0
  0
SOLID
  5
61E
330
61A
100
AcDbEntity
  8
0
  6
Continuous
 62
     7
370
     0
100
AcDbTrace
 10
7.9877095914
 20
2.068555541
 30
0.0
 11
8.0102095914
 21
2.214805541
 31
0.0
 12
7.9652095914
 22
2.214805541
 32
0.0
 13
7.9652095914
 23
2.214805541
 33
0.0
  0
LINE
  5
61F
330
61A
100
AcDbEntity
  8
0
  6
Continuous
 62
     7
370
     0
100
AcDbLine
 10
7.7701680852
 20
1.7505521871
 30
0.0
 11
7.7416036306
 21
1.7505521871
 31
0.0
  0
LINE
  5
620
330
61A
100
AcDbEntity
  8
0
  6
Continuous
 62
     7
370
     0
100
AcDbLine
 10
7.7416036306
 20
1.7505521871
 30
0.0
 11
7.7416036306
 21
1.5273099929
 31
0.0
  0
LINE
  5
621
330
61A
100
AcDbEntity
  8
0
  6
Continuous
 62
     7
370
     0
100
AcDbLine
 10
7.7416036306
 20
1.5273099929
 30
0.0
 11
7.7701680852
 21
1.5273099929
 31
0.0
  0
LINE
  5
622
330
61A
100
AcDbEntity
  8
0
  6
Continuous
 62
     7
370
     0
100
AcDbLine
 10
8.2052511079
 20
1.7505521871
 30
0.0
 11
8.2338155624
 21
1.7505521871
 31
0.0
  0
LINE
  5
623
330
61A
100
AcDbEntity
  8
0
  6
Continuous
 62
     7
370
     0
100
AcDbLine
 10
8.2338155624
 20
1.7505521871
 30
0.0
 11
8.2338155624
 21
1.5273099929
 31
0.0
  0
LINE
  5
624
330
61A
100
AcDbEntity
  8
0
  6
Continuous
 62
     7
370
     0
100
AcDbLine
 10
8.2338155624
 20
1.5273099929
 30
0.0
 11
8.2052511079
 21
1.5273099929
 31
0.0
  0
LINE
  5
625
330
61A
100
AcDbEntity
  8
0
  6
Continuous
 62
     7
370
     0
100
AcDbLine
 10
7.0652515092
 20
1.4346972733
 30
0.0
 11
8.1283345914
 21
1.4346972733
 31
0.0
  0
LINE
  5
626
330
61A
100
AcDbEntity
  8
0
  6
Continuous
 62
     7
370
     0
100
AcDbLine
 10
7.06421986
 20
2.068555541
 30
0.0
 11
8.1283345914
 21
2.068555541
 31
0.0
  0
LINE
  5
627
330
61A
100
AcDbEntity
  8
0
  6
Continuous
 62
     7
370
     0
100
AcDbLine
 10
7.9877095914
 20
1.4346972733
 30
0.0
 11
7.9877095914
 21
1.1534472733
 31
0.0
  0
LINE
  5
628
330
61A
100
AcDbEntity
  8
0
  6
Continuous
 62
     7
370
     0
100
AcDbLine
 10
7.9877095914
 20
2.068555541
 30
0.0
 11
7.9877095914
 21
2.349805541
 31
0.0
  0
MTEXT
  5
629
330
61A
100
AcDbEntity
  8
0
  6
Continuous
 62
     7
370
     0
100
AcDbMText
 10
7.7209615396
 20
1.9625402404
 30
0.3576051271
 40
0.140625
 41
0.0
 71
     1
 72
     1
  1

  7
SLDTEXTSTYLE0
 73
     1
 44
1.0
  0
MTEXT
  5
62A
330
61A
100
AcDbEntity
  8
0
  6
Continuous
 62
     7
370
     0
100
AcDbMText
 10
7.8006978746
 20
1.9603917925
 30
0.3576051271
 40
0.140625
 41
0.0
 71
     1
 72
     1
  1
.63
  7
SLDTEXTSTYLE0
 73
     1
 44
1.0
  0
MTEXT
  5
62B
330
61A
100
AcDbEntity
  8
0
  6
Continuous
 62
     7
370
     0
100
AcDbMText
 10
7.8058736534
 20
1.708585136
 30
0.3576051271
 40
0.140625
 41
0.0
 71
     1
 72
     1
  1
16.1
  7
SLDTEXTSTYLE0
 73
     1
 44
1.0
  0
MTEXT
  5
62C
330
61A
100
AcDbEntity
  8
0
  6
Continuous
 62
     7
370
     0
100
AcDbMText
 10
8.3079732783
 20
1.9625402404
 30
0.3576051271
 40
0.140625
 41
0.0
 71
     1
 72
     1
  1

  7
SLDTEXTSTYLE0
 73
     1
 44
1.0
  0
ENDBLK
  5
61C
330
61A
100
AcDbEntity
  8
0
100
AcDbBlockEnd
  0
BLOCK
  5
62F
330
62E
100
AcDbEntity
  8
0
100
AcDbBlockBegin
  2
*D42
 70
     1
 10
0.0
 20
0.0
 30
0.0
  3
*D42
  1

  0
SOLID
  5
631
330
62E
100
AcDbEntity
  8
0
  6
Continuous
 62
     7
370
     0
100
AcDbTrace
 10
8.6357369574
 20
1.3480831001
 30
0.0
 11
8.6582369574
 21
1.4943331001
 31
0.0
 12
8.6132369574
 22
1.4943331001
 32
0.0
 13
8.6132369574
 23
1.4943331001
 33
0.0
  0
SOLID
  5
632
330
62E
100
AcDbEntity
  8
0
  6
Continuous
 62
     7
370
     0
100
AcDbTrace
 10
8.6357369574
 20
2.1551697142
 30
0.0
 11
8.6132369574
 21
2.0089197142
 31
0.0
 12
8.6582369574
 22
2.0089197142
 32
0.0
 13
8.6582369574
 23
2.0089197142
 33
0.0
  0
LINE
  5
633
330
62E
100
AcDbEntity
  8
0
  6
Continuous
 62
     7
370
     0
100
AcDbLine
 10
8.4181954512
 20
1.7505521871
 30
0.0
 11
8.3896309966
 21
1.7505521871
 31
0.0
  0
LINE
  5
634
330
62E
100
AcDbEntity
  8
0
  6
Continuous
 62
     7
370
     0
100
AcDbLine
 10
8.3896309966
 20
1.7505521871
 30
0.0
 11
8.3896309966
 21
1.5273099929
 31
0.0
  0
LINE
  5
635
330
62E
100
AcDbEntity
  8
0
  6
Continuous
 62
     7
370
     0
100
AcDbLine
 10
8.3896309966
 20
1.5273099929
 30
0.0
 11
8.4181954512
 21
1.5273099929
 31
0.0
  0
LINE
  5
636
330
62E
100
AcDbEntity
  8
0
  6
Continuous
 62
     7
370
     0
100
AcDbLine
 10
8.8532784739
 20
1.7505521871
 30
0.0
 11
8.8818429284
 21
1.7505521871
 31
0.0
  0
LINE
  5
637
330
62E
100
AcDbEntity
  8
0
  6
Continuous
 62
     7
370
     0
100
AcDbLine
 10
8.8818429284
 20
1.7505521871
 30
0.0
 11
8.8818429284
 21
1.5273099929
 31
0.0
  0
LINE
  5
638
330
62E
100
AcDbEntity
  8
0
  6
Continuous
 62
     7
370
     0
100
AcDbLine
 10
8.8818429284
 20
1.5273099929
 30
0.0
 11
8.8532784739
 21
1.5273099929
 31
0.0
  0
LINE
  5
639
330
62E
100
AcDbEntity
  8
0
  6
Continuous
 62
     7
370
     0
100
AcDbLine
 10
7.6010302761
 20
1.3480831001
 30
0.0
 11
8.7763619574
 21
1.3480831001
 31
0.0
  0
LINE
  5
63A
330
62E
100
AcDbEntity
  8
0
  6
Continuous
 62
     7
370
     0
100
AcDbLine
 10
7.108933967
 20
2.1551697142
 30
0.0
 11
8.7763619574
 21
2.1551697142
 31
0.0
  0
LINE
  5
63B
330
62E
100
AcDbEntity
  8
0
  6
Continuous
 62
     7
370
     0
100
AcDbLine
 10
8.6357369574
 20
1.3480831001
 30
0.0
 11
8.6357369574
 21
1.4987455228
 31
0.0
  0
LINE
  5
63C
330
62E
100
AcDbEntity
  8
0
  6
Continuous
 62
     7
370
     0
100
AcDbLine
 10
8.6357369574
 20
2.1551697142
 30
0.0
 11
8.6357369574
 21
2.0045072915
 31
0.0
  0
MTEXT
  5
63D
330
62E
100
AcDbEntity
  8
0
  6
Continuous
 62
     7
370
     0
100
AcDbMText
 10
8.3689889055
 20
1.9625402404
 30
0.3576051271
 40
0.140625
 41
0.0
 71
     1
 72
     1
  1

  7
SLDTEXTSTYLE0
 73
     1
 44
1.0
  0
MTEXT
  5
63E
330
62E
100
AcDbEntity
  8
0
  6
Continuous
 62
     7
370
     0
100
AcDbMText
 10
8.4487252405
 20
1.9603917925
 30
0.3576051271
 40
0.140625
 41
0.0
 71
     1
 72
     1
  1
.81
  7
SLDTEXTSTYLE0
 73
     1
 44
1.0
  0
MTEXT
  5
63F
330
62E
100
AcDbEntity
  8
0
  6
Continuous
 62
     7
370
     0
100
AcDbMText
 10
8.4539010193
 20
1.708585136
 30
0.3576051271
 40
0.140625
 41
0.0
 71
     1
 72
     1
  1
20.5
  7
SLDTEXTSTYLE0
 73
     1
 44
1.0
  0
MTEXT
  5
640
330
62E
100
AcDbEntity
  8
0
  6
Continuous
 62
     7
370
     0
100
AcDbMText
 10
8.9560006443
 20
1.9625402404
 30
0.3576051271
 40
0.140625
 41
0.0
 71
     1
 72
     1
  1

  7
SLDTEXTSTYLE0
 73
     1
 44
1.0
  0
ENDBLK
  5
630
330
62E
100
AcDbEntity
  8
0
100
AcDbBlockEnd
  0
ENDSEC
  0
SECTION
  2
ENTITIES
  0
LINE
  5
44
330
1F
100
AcDbEntity
  8
0
  6
Continuous
 62
     7
370
     0
100
AcDbLine
 10
0.3524080552
 20
12.0432073171
 30
0.0
 11
18.7754080552
 21
12.0432073171
 31
0.0
  0
LINE
  5
45
330
1F
100
AcDbEntity
  8
0
  6
Continuous
 62
     7
370
     0
100
AcDbLine
 10
18.7754080552
 20
0.3702073171
 30
0.0
 11
18.7754080552
 21
12.0432073171
 31
0.0
  0
LINE
  5
46
330
1F
100
AcDbEntity
  8
0
  6
Continuous
 62
     7
370
     0
100
AcDbLine
 10
18.7754080552
 20
0.3702073171
 30
0.0
 11
0.3524080552
 21
0.3702073171
 31
0.0
  0
LINE
  5
47
330
1F
100
AcDbEntity
  8
0
  6
Continuous
 62
     7
370
     0
100
AcDbLine
 10
0.3524080552
 20
12.0432073171
 30
0.0
 11
0.3524080552
 21
0.3702073171
 31
0.0
  0
LINE
  5
48
330
1F
100
AcDbEntity
  8
0
  6
Continuous
 62
     7
370
     0
100
AcDbLine
 10
0.2826580552
 20
12.1129573171
 30
0.0
 11
18.8451580552
 21
12.1129573171
 31
0.0
  0
LINE
  5
49
330
1F
100
AcDbEntity
  8
0
  6
Continuous
 62
     7
370
     0
100
AcDbLine
 10
18.8451580552
 20
0.3004573171
 30
0.0
 11
0.2826580552
 21
0.3004573171
 31
0.0
  0
LINE
  5
4A
330
1F
100
AcDbEntity
  8
0
  6
Continuous
 62
     7
370
     0
100
AcDbLine
 10
0.2826580552
 20
12.1129573171
 30
0.0
 11
0.2826580552
 21
0.3004573171
 31
0.0
  0
LINE
  5
4B
330
1F
100
AcDbEntity
  8
0
  6
Continuous
 62
     7
370
     0
100
AcDbLine
 10
18.8451580552
 20
0.3004573171
 30
0.0
 11
18.8451580552
 21
12.1129573171
 31
0.0
  0
LINE
  5
4C
330
1F
100
AcDbEntity
  8
0
  6
Continuous
 62
     7
370
     0
100
AcDbLine
 10
0.3524080552
 20
11.5864573171
 30
0.0
 11
18.7754080552
 21
11.5864573171
 31
0.0
  0
LINE
  5
4D
330
1F
100
AcDbEntity
  8
0
  6
Continuous
 62
     7
370
     0
100
AcDbLine
 10
2.0741841233
 20
12.0432073171
 30
0.0
 11
2.0741841233
 21
11.5864573171
 31
0.0
  0
LINE
  5
4E
330
1F
100
AcDbEntity
  8
0
  6
Continuous
 62
     7
370
     0
100
AcDbLine
 10
1.2496858692
 20
12.0432073171
 30
0.0
 11
1.2496858692
 21
11.5864573171
 31
0.0
  0
LINE
  5
4F
330
1F
100
AcDbEntity
  8
0
  6
Continuous
 62
     7
370
     0
100
AcDbLine
 10
17.3691580552
 20
11.5864573171
 30
0.0
 11
17.3691580552
 21
12.0432073171
 31
0.0
  0
LINE
  5
50
330
1F
100
AcDbEntity
  8
0
  6
Continuous
 62
     7
370
     0
100
AcDbLine
 10
16.5254080552
 20
11.5864573171
 30
0.0
 11
16.5254080552
 21
12.0432073171
 31
0.0
  0
LINE
  5
51
330
1F
100
AcDbEntity
  8
0
  6
Continuous
 62
     7
370
     0
100
AcDbLine
 10
16.4556580552
 20
11.5864573171
 30
0.0
 11
16.4556580552
 21
12.0432073171
 31
0.0
  0
LINE
  5
52
330
1F
100
AcDbEntity
  8
0
  6
Continuous
 62
     7
370
     0
100
AcDbLine
 10
0.5036376568
 20
11.6731801303
 30
0.0
 11
0.5036376568
 21
11.9719067286
 31
0.0
  0
LINE
  5
53
330
1F
100
AcDbEntity
  8
0
  6
Continuous
 62
     7
370
     0
100
AcDbLine
 10
0.7116560374
 20
11.6918505427
 30
0.0
 11
0.7116560374
 21
11.9719067286
 31
0.0
  0
LINE
  5
54
330
1F
100
AcDbEntity
  8
0
  6
Continuous
 62
     7
370
     0
100
AcDbLine
 10
0.7922631598
 20
11.721919447
 30
0.0
 11
0.7922631598
 21
11.9719067286
 31
0.0
  0
LINE
  5
55
330
1F
100
AcDbEntity
  8
0
  6
Continuous
 62
     7
370
     0
100
AcDbLine
 10
0.7662608622
 20
11.721919447
 30
0.0
 11
0.7662608622
 21
11.9719067286
 31
0.0
  0
LINE
  5
56
330
1F
100
AcDbEntity
  8
0
  6
Continuous
 62
     7
370
     0
100
AcDbLine
 10
0.9079673867
 20
11.6731801303
 30
0.0
 11
0.9079673867
 21
11.9719067286
 31
0.0
  0
LINE
  5
57
330
1F
100
AcDbEntity
  8
0
  6
Continuous
 62
     7
370
     0
100
AcDbLine
 10
0.8468679847
 20
11.6918505427
 30
0.0
 11
0.8468679847
 21
11.9719067286
 31
0.0
  0
LINE
  5
58
330
1F
100
AcDbEntity
  8
0
  6
Continuous
 62
     7
370
     0
100
AcDbLine
 10
0.7303264498
 20
11.6731801303
 30
0.0
 11
0.8281975723
 21
11.6731801303
 31
0.0
  0
LINE
  5
59
330
1F
100
AcDbEntity
  8
0
  6
Continuous
 62
     7
370
     0
100
AcDbLine
 10
0.5036376568
 20
11.6731801303
 30
0.0
 11
0.5998461578
 21
11.6731801303
 31
0.0
  0
LINE
  5
5A
330
1F
100
AcDbEntity
  8
0
  6
Continuous
 62
     7
370
     0
100
AcDbLine
 10
0.5998461578
 20
11.8150752645
 30
0.0
 11
0.5179389205
 21
11.8150752645
 31
0.0
  0
LINE
  5
5B
330
1F
100
AcDbEntity
  8
0
  6
Continuous
 62
     7
370
     0
100
AcDbLine
 10
0.5998461578
 20
11.8300115944
 30
0.0
 11
0.5179389205
 21
11.8300115944
 31
0.0
  0
LINE
  5
5C
330
1F
100
AcDbEntity
  8
0
  6
Continuous
 62
     7
370
     0
100
AcDbLine
 10
0.5179389205
 20
11.8300115944
 30
0.0
 11
0.5179389205
 21
11.8225434295
 31
0.0
  0
LINE
  5
5D
330
1F
100
AcDbEntity
  8
0
  6
Continuous
 62
     7
370
     0
100
AcDbLine
 10
0.5179389205
 20
11.8150752645
 30
0.0
 11
0.5179389205
 21
11.8225434295
 31
0.0
  0
LINE
  5
5E
330
1F
100
AcDbEntity
  8
0
  6
Continuous
 62
     7
370
     0
100
AcDbLine
 10
0.9079673867
 20
11.6731801303
 30
0.0
 11
0.945125599
 21
11.6731801303
 31
0.0
  0
LINE
  5
5F
330
1F
100
AcDbEntity
  8
0
  6
Continuous
 62
     7
370
     0
100
AcDbLine
 10
1.0496799084
 20
11.7777344397
 30
0.0
 11
1.0496799084
 21
11.8673524192
 31
0.0
  0
LINE
  5
60
330
1F
100
AcDbEntity
  8
0
  6
Continuous
 62
     7
370
     0
100
AcDbLine
 10
0.9947367334
 20
11.8150752645
 30
0.0
 11
0.9947367334
 21
11.8300115944
 31
0.0
  0
LINE
  5
61
330
1F
100
AcDbEntity
  8
0
  6
Continuous
 62
     7
370
     0
100
AcDbLine
 10
0.9482769452
 20
11.8150752645
 30
0.0
 11
0.9482769452
 21
11.8300115944
 31
0.0
  0
LINE
  5
62
330
1F
100
AcDbEntity
  8
0
  6
Continuous
 62
     7
370
     0
100
AcDbLine
 10
0.9947367334
 20
11.8150752645
 30
0.0
 11
0.9482769452
 21
11.8150752645
 31
0.0
  0
LINE
  5
63
330
1F
100
AcDbEntity
  8
0
  6
Continuous
 62
     7
370
     0
100
AcDbLine
 10
0.9947367334
 20
11.8300115944
 30
0.0
 11
0.9482769452
 21
11.8300115944
 31
0.0
  0
LINE
  5
64
330
1F
100
AcDbEntity
  8
0
  6
Continuous
 62
     7
370
     0
100
AcDbLine
 10
0.7922631598
 20
11.9719067286
 30
0.0
 11
0.8468679847
 21
11.9719067286
 31
0.0
  0
LINE
  5
65
330
1F
100
AcDbEntity
  8
0
  6
Continuous
 62
     7
370
     0
100
AcDbLine
 10
0.5036376568
 20
11.9719067286
 30
0.0
 11
0.5998461578
 21
11.9719067286
 31
0.0
  0
LINE
  5
66
330
1F
100
AcDbEntity
  8
0
  6
Continuous
 62
     7
370
     0
100
AcDbLine
 10
0.7116560374
 20
11.9719067286
 30
0.0
 11
0.7662608622
 21
11.9719067286
 31
0.0
  0
LINE
  5
67
330
1F
100
AcDbEntity
  8
0
  6
Continuous
 62
     7
370
     0
100
AcDbLine
 10
0.9079673867
 20
11.9719067286
 30
0.0
 11
0.945125599
 21
11.9719067286
 31
0.0
  0
LINE
  5
68
330
1F
100
AcDbEntity
  8
0
  6
Continuous
 62
     7
370
     0
100
AcDbLine
 10
1.1813625293
 20
12.0432073171
 30
0.0
 11
1.1813625293
 21
11.5864573171
 31
0.0
  0
LINE
  5
69
330
1F
100
AcDbEntity
  8
0
  6
Continuous
 62
     7
370
     0
100
AcDbLine
 10
9.4310947991
 20
11.5864573171
 30
0.0
 11
9.4310947991
 21
12.0432073171
 31
0.0
  0
LINE
  5
6A
330
1F
100
AcDbEntity
  8
0
  6
Continuous
 62
     7
370
     0
100
AcDbLine
 10
9.5008447991
 20
11.5864573171
 30
0.0
 11
9.5008447991
 21
12.0432073171
 31
0.0
  0
LINE
  5
6B
330
1F
100
AcDbEntity
  8
0
  6
Continuous
 62
     7
370
     0
100
AcDbLine
 10
10.3445947991
 20
11.5864573171
 30
0.0
 11
10.3445947991
 21
12.0432073171
 31
0.0
  0
ARC
  5
6C
330
1F
100
AcDbEntity
  8
0
  6
Continuous
 62
     7
370
     0
100
AcDbCircle
 10
0.5998461578
 20
11.9009591615
 30
0.0
 40
0.0709475671109008
100
AcDbArc
 50
270.0
 51
90.0
  0
ARC
  5
6D
330
1F
100
AcDbEntity
  8
0
  6
Continuous
 62
     7
370
     0
100
AcDbCircle
 10
0.945125599
 20
11.8673524192
 30
0.0
 40
0.1045543094265884
100
AcDbArc
 50
0.0
 51
90.0
  0
ARC
  5
6E
330
1F
100
AcDbEntity
  8
0
  6
Continuous
 62
     7
370
     0
100
AcDbCircle
 10
0.5998461578
 20
11.7441276974
 30
0.0
 40
0.0709475671109008
100
AcDbArc
 50
270.0
 51
90.0
  0
ARC
  5
6F
330
1F
100
AcDbEntity
  8
0
  6
Continuous
 62
     7
370
     0
100
AcDbCircle
 10
0.7303264498
 20
11.6918505427
 30
0.0
 40
0.0186704123976105
100
AcDbArc
 50
180.0
 51
270.0
  0
ARC
  5
70
330
1F
100
AcDbEntity
  8
0
  6
Continuous
 62
     7
370
     0
100
AcDbCircle
 10
0.7773268299
 20
11.721919447
 30
0.0
 40
0.0149363299180812
100
AcDbArc
 50
277.4442840975
 51
0.0
  0
ARC
  5
71
330
1F
100
AcDbEntity
  8
0
  6
Continuous
 62
     7
370
     0
100
AcDbCircle
 10
0.7811971922
 20
11.721919447
 30
0.0
 40
0.0149363299180935
100
AcDbArc
 50
180.0
 51
262.5557159021
  0
ARC
  5
72
330
1F
100
AcDbEntity
  8
0
  6
Continuous
 62
     7
370
     0
100
AcDbCircle
 10
0.945125599
 20
11.7777344397
 30
0.0
 40
0.1045543094265884
100
AcDbArc
 50
270.0
 51
0.0
  0
ARC
  5
73
330
1F
100
AcDbEntity
  8
0
  6
Continuous
 62
     7
370
     0
100
AcDbCircle
 10
0.8281975723
 20
11.6918505427
 30
0.0
 40
0.018670412397606
100
AcDbArc
 50
270.0
 51
0.0
  0
INSERT
  5
7E
330
1F
100
AcDbEntity
  8
0
  6
Continuous
 62
     7
370
     0
100
AcDbBlockReference
  2
SW_NOTE_0
 10
10.4731837248
 20
2.5998739295
 30
0.0
  0
MTEXT
  5
7F
330
1F
100
AcDbEntity
  8
0
  6
Continuous
 62
     7
370
     0
100
AcDbMText
 10
18.0819824698
 20
11.9354808871
 30
0.0
 40
0.2109375
 41
0.0
 71
     2
 72
     1
  1
10-7-14
  7
SLDTEXTSTYLE0
 73
     1
 44
1.0
  0
MTEXT
  5
80
330
1F
100
AcDbEntity
  8
0
  6
Continuous
 62
     7
370
     0
100
AcDbMText
 10
5.5360604327
 20
11.9247478302
 30
0.0
 40
0.2109375
 41
0.0
 71
     2
 72
     1
  1
SNAP UTILITY BOX
  7
SLDTEXTSTYLE0
 73
     1
 44
1.0
  0
MTEXT
  5
82
330
1F
100
AcDbEntity
  8
0
  6
Continuous
 62
     7
370
     0
100
AcDbMText
 10
13.3363691951
 20
11.9354808974
 30
0.0
 40
0.2109375
 41
0.0
 71
     2
 72
     1
  1
CU-18427-B     CU-18427-W
  7
SLDTEXTSTYLE1
 73
     1
 44
1.0
  0
INSERT
  5
88
330
1F
100
AcDbEntity
  8
0
  6
Continuous
 62
     7
370
     0
100
AcDbBlockReference
  2
SW_NOTE_1
 10
1.4269883902
 20
11.8194055151
 30
0.0
  0
INSERT
  5
8E
330
1F
100
AcDbEntity
  8
0
  6
Continuous
 62
     7
370
     0
100
AcDbBlockReference
  2
SW_NOTE_2
 10
9.7243273384
 20
11.8111363352
 30
0.0
  0
INSERT
  5
94
330
1F
100
AcDbEntity
  8
0
  6
Continuous
 62
     7
370
     0
100
AcDbBlockReference
  2
SW_NOTE_3
 10
16.5472184559
 20
11.8163064682
 30
0.0
  0
LINE
  5
95
330
1F
100
AcDbEntity
  8
0
  6
Continuous
 62
     7
370
    15
100
AcDbLine
 10
7.068402259
 20
9.4166053601
 30
0.0
 11
7.068402259
 21
6.7945580235
 31
0.0
  0
ARC
  5
96
330
1F
100
AcDbEntity
  8
0
  6
Continuous
 62
     7
370
    15
100
AcDbCircle
 10
7.0329692524
 20
9.4166053138
 30
0.0
 40
0.0354330708661426
100
AcDbArc
 50
0.0
 51
90.0
  0
LINE
  5
97
330
1F
100
AcDbEntity
  8
0
  6
Continuous
 62
     7
370
    15
100
AcDbLine
 10
7.0920244128
 20
9.4166053601
 30
0.0
 11
7.0920244128
 21
6.7945580235
 31
0.0
  0
ARC
  5
98
330
1F
100
AcDbEntity
  8
0
  6
Continuous
 62
     7
370
    15
100
AcDbCircle
 10
7.0329692524
 20
6.7945580698
 30
0.0
 40
0.059055118110237
100
AcDbArc
 50
270.0
 51
0.0
  0
LINE
  5
99
330
1F
100
AcDbEntity
  8
0
  6
Continuous
 62
     7
370
    15
100
AcDbLine
 10
7.0329693217
 20
6.7355029324
 30
0.0
 11
3.0565912305
 21
6.7355029324
 31
0.0
  0
LINE
  5
9A
330
1F
100
AcDbEntity
  8
0
  6
Continuous
 62
     7
370
    15
100
AcDbLine
 10
3.0565912305
 20
9.4520384441
 30
0.0
 11
7.0329693217
 21
9.4520384441
 31
0.0
  0
ARC
  5
9B
330
1F
100
AcDbEntity
  8
0
  6
Continuous
 62
     7
370
    15
100
AcDbCircle
 10
3.0565912997
 20
9.4166053138
 30
0.0
 40
0.0354330708661426
100
AcDbArc
 50
90.0
 51
180.0
  0
LINE
  5
9C
330
1F
100
AcDbEntity
  8
0
  6
Continuous
 62
     7
370
    15
100
AcDbLine
 10
3.0211582931
 20
6.7945580235
 30
0.0
 11
3.0211582931
 21
9.4166053601
 31
0.0
  0
ARC
  5
9D
330
1F
100
AcDbEntity
  8
0
  6
Continuous
 62
     7
370
    15
100
AcDbCircle
 10
3.0565912997
 20
6.7945580698
 30
0.0
 40
0.0354330708661417
100
AcDbArc
 50
180.0
 51
270.0
  0
LINE
  5
9E
330
1F
100
AcDbEntity
  8
0
  6
Continuous
 62
     7
370
    15
100
AcDbLine
 10
7.0329693217
 20
6.7591249395
 30
0.0
 11
3.0565912305
 21
6.7591249395
 31
0.0
  0
ARC
  5
9F
330
1F
100
AcDbEntity
  8
0
  6
Continuous
 62
     7
370
    15
100
AcDbCircle
 10
7.0329692524
 20
6.7945580698
 30
0.0
 40
0.0354330708661417
100
AcDbArc
 50
270.0
 51
0.0
  0
ARC
  5
A0
330
1F
100
AcDbEntity
  8
0
  6
Continuous
 62
     7
370
    15
100
AcDbCircle
 10
7.0329692524
 20
9.4166053138
 30
0.0
 40
0.059055118110237
100
AcDbArc
 50
0.0
 51
90.0
  0
LINE
  5
A1
330
1F
100
AcDbEntity
  8
0
  6
Continuous
 62
     7
370
    15
100
AcDbLine
 10
3.0565912305
 20
9.4756604512
 30
0.0
 11
7.0329693217
 21
9.4756604512
 31
0.0
  0
ARC
  5
A2
330
1F
100
AcDbEntity
  8
0
  6
Continuous
 62
     7
370
    15
100
AcDbCircle
 10
3.0565912997
 20
9.4166053138
 30
0.0
 40
0.059055118110237
100
AcDbArc
 50
90.0
 51
180.0
  0
LINE
  5
A3
330
1F
100
AcDbEntity
  8
0
  6
Continuous
 62
     7
370
    15
100
AcDbLine
 10
2.9975361393
 20
6.7945580235
 30
0.0
 11
2.9975361393
 21
9.4166053601
 31
0.0
  0
ARC
  5
A4
330
1F
100
AcDbEntity
  8
0
  6
Continuous
 62
     7
370
    15
100
AcDbCircle
 10
3.0565912997
 20
6.7945580698
 30
0.0
 40
0.0590551181102366
100
AcDbArc
 50
180.0
 51
270.0
  0
ARC
  5
A5
330
1F
100
AcDbEntity
  8
0
  6
Continuous
 62
     7
370
    15
100
AcDbCircle
 10
7.047143471
 20
9.4294118092
 30
0.0
 40
0.0744724476503342
100
AcDbArc
 50
9.3036941185
 51
55.0896828857
  0
ARC
  5
A6
330
1F
100
AcDbEntity
  8
0
  6
Continuous
 62
     7
370
    15
100
AcDbCircle
 10
7.0329692524
 20
9.4166053138
 30
0.0
 40
0.0911199478620902
100
AcDbArc
 50
0.0000000003
 51
15.8236237619
  0
ARC
  5
A7
330
1F
100
AcDbEntity
  8
0
  6
Continuous
 62
     7
370
    15
100
AcDbCircle
 10
7.0329692524
 20
9.4166053138
 30
0.0
 40
0.0808034558772697
100
AcDbArc
 50
0.0000000017
 51
90.0
  0
ARC
  5
A8
330
1F
100
AcDbEntity
  8
0
  6
Continuous
 62
     7
370
    15
100
AcDbCircle
 10
7.0329692524
 20
9.4166053138
 30
0.0
 40
0.0993731414500161
100
AcDbArc
 50
45.0
 51
90.0
  0
LINE
  5
A9
330
1F
100
AcDbEntity
  8
0
  6
Continuous
 62
     7
370
    15
100
AcDbLine
 10
2.9757877772
 20
9.4166053601
 30
0.0
 11
2.9757877772
 21
6.7945580235
 31
0.0
  0
LINE
  5
AA
330
1F
100
AcDbEntity
  8
0
  6
Continuous
 62
     7
370
    15
100
AcDbLine
 10
2.9654713631
 20
6.7945580235
 30
0.0
 11
2.9654713631
 21
9.4166053601
 31
0.0
  0
LINE
  5
AB
330
1F
100
AcDbEntity
  8
0
  6
Continuous
 62
     7
370
    15
100
AcDbLine
 10
7.1137727749
 20
6.7945580235
 30
0.0
 11
7.1137727749
 21
9.4166053601
 31
0.0
  0
LINE
  5
AC
330
1F
100
AcDbEntity
  8
0
  6
Continuous
 62
     7
370
    15
100
AcDbLine
 10
7.124089189
 20
9.4166053601
 30
0.0
 11
7.124089189
 21
6.7945580235
 31
0.0
  0
ARC
  5
AD
330
1F
100
AcDbEntity
  8
0
  6
Continuous
 62
     7
370
    15
100
AcDbCircle
 10
7.0329692524
 20
6.7945580698
 30
0.0
 40
0.0808034558771942
100
AcDbArc
 50
270.0
 51
0.0000000008
  0
LINE
  5
AE
330
1F
100
AcDbEntity
  8
0
  6
Continuous
 62
     7
370
    15
100
AcDbLine
 10
7.0329693217
 20
6.7137545703
 30
0.0
 11
3.0565912305
 21
6.7137545703
 31
0.0
  0
ARC
  5
AF
330
1F
100
AcDbEntity
  8
0
  6
Continuous
 62
     7
370
    15
100
AcDbCircle
 10
3.0565912997
 20
6.7945580698
 30
0.0
 40
0.0808034558772697
100
AcDbArc
 50
179.9999999983
 51
270.0
  0
ARC
  5
B0
330
1F
100
AcDbEntity
  8
0
  6
Continuous
 62
     7
370
    15
100
AcDbCircle
 10
3.0565912997
 20
9.4166053138
 30
0.0
 40
0.0808034558771942
100
AcDbArc
 50
90.0
 51
179.9999999992
  0
LINE
  5
B1
330
1F
100
AcDbEntity
  8
0
  6
Continuous
 62
     7
370
    15
100
AcDbLine
 10
3.0565912305
 20
9.4974088133
 30
0.0
 11
7.0329693217
 21
9.4974088133
 31
0.0
  0
LINE
  5
B2
330
1F
100
AcDbEntity
  8
0
  6
Continuous
 62
     7
370
    15
100
AcDbLine
 10
3.0565912305
 20
6.6951848782
 30
0.0
 11
7.0329693217
 21
6.6951848782
 31
0.0
  0
ARC
  5
B3
330
1F
100
AcDbEntity
  8
0
  6
Continuous
 62
     7
370
    15
100
AcDbCircle
 10
7.0329692524
 20
6.7945580698
 30
0.0
 40
0.0993731414499726
100
AcDbArc
 50
270.0
 51
315.0
  0
ARC
  5
B4
330
1F
100
AcDbEntity
  8
0
  6
Continuous
 62
     7
370
    15
100
AcDbCircle
 10
7.0329692524
 20
6.7945580698
 30
0.0
 40
0.0911199478621084
100
AcDbArc
 50
344.1763762381
 51
0.0000000011
  0
LWPOLYLINE
  5
B5
330
1F
100
AcDbEntity
  8
0
  6
Continuous
 62
     7
370
    15
100
AcDbPolyline
 90
        7
 70
   128
 43
0.0
 10
7.0897635722
 20
6.7206805303
 10
7.0898041984
 20
6.7210674325
 10
7.0911752226
 20
6.7224839228
 10
7.095754103
 20
6.7270127905
 10
7.1066568838
 20
6.7401696652
 10
7.1167782335
 20
6.7586344919
 10
7.1206362556
 20
6.7697118039
  0
LINE
  5
B6
330
1F
100
AcDbEntity
  8
0
  6
Continuous
 62
     7
370
    15
100
AcDbLine
 10
7.0329693217
 20
9.5159785054
 30
0.0
 11
3.0565912305
 21
9.5159785054
 31
0.0
  0
ARC
  5
B7
330
1F
100
AcDbEntity
  8
0
  6
Continuous
 62
     7
370
    15
100
AcDbCircle
 10
3.0565912997
 20
9.4166053138
 30
0.0
 40
0.0993731414499717
100
AcDbArc
 50
90.0
 51
134.9999999999
  0
ARC
  5
B8
330
1F
100
AcDbEntity
  8
0
  6
Continuous
 62
     7
370
    15
100
AcDbCircle
 10
3.0565912997
 20
9.4166053138
 30
0.0
 40
0.0911199478620638
100
AcDbArc
 50
164.1763762381
 51
179.9999999989
  0
LWPOLYLINE
  5
B9
330
1F
100
AcDbEntity
  8
0
  6
Continuous
 62
     7
370
    15
100
AcDbPolyline
 90
        7
 70
   128
 43
0.0
 10
2.9997969799
 20
9.4904828533
 10
2.9997563537
 20
9.4900959511
 10
2.9983853295
 20
9.4886794608
 10
2.9938064491
 20
9.4841505931
 10
2.9829036684
 20
9.4709937184
 10
2.9727823186
 20
9.4525288918
 10
2.9689242965
 20
9.4414515797
  0
ARC
  5
BA
330
1F
100
AcDbEntity
  8
0
  6
Continuous
 62
     7
370
    15
100
AcDbCircle
 10
3.0424170811
 20
6.7817515744
 30
0.0
 40
0.0744724476504488
100
AcDbArc
 50
189.3036941185
 51
235.0896828857
  0
ARC
  5
BB
330
1F
100
AcDbEntity
  8
0
  6
Continuous
 62
     7
370
    15
100
AcDbCircle
 10
3.0565912997
 20
6.7945580698
 30
0.0
 40
0.0911199478621112
100
AcDbArc
 50
179.9999999997
 51
195.8236237619
  0
ARC
  5
BC
330
1F
100
AcDbEntity
  8
0
  6
Continuous
 62
     7
370
    15
100
AcDbCircle
 10
3.0565912997
 20
6.7945580698
 30
0.0
 40
0.099373141450017
100
AcDbArc
 50
225.0
 51
270.0
  0
LINE
  5
BD
330
1F
100
AcDbEntity
  8
0
  6
Continuous
 62
     7
370
    15
100
AcDbLine
 10
6.3046228556
 20
9.4056362868
 30
0.0
 11
7.0220002484
 21
9.4056362868
 31
0.0
  0
LINE
  5
BE
330
1F
100
AcDbEntity
  8
0
  6
Continuous
 62
     7
370
    15
100
AcDbLine
 10
6.3046228556
 20
9.4520384441
 30
0.0
 11
6.3046228556
 21
9.4056362868
 31
0.0
  0
LINE
  5
BF
330
1F
100
AcDbEntity
  8
0
  6
Continuous
 62
     7
370
    15
100
AcDbLine
 10
6.3046228556
 20
6.8055270968
 30
0.0
 11
6.3046228556
 21
6.7591249395
 31
0.0
  0
LINE
  5
C0
330
1F
100
AcDbEntity
  8
0
  6
Continuous
 62
     7
370
    15
100
AcDbLine
 10
7.0220002484
 20
6.8055270968
 30
0.0
 11
6.3046228556
 21
6.8055270968
 31
0.0
  0
LINE
  5
C1
330
1F
100
AcDbEntity
  8
0
  6
Continuous
 62
     7
370
    15
100
AcDbLine
 10
7.0220002484
 20
9.4056362868
 30
0.0
 11
7.0220002484
 21
6.8055270968
 31
0.0
  0
LINE
  5
C2
330
1F
100
AcDbEntity
  8
0
  6
Continuous
 62
     7
370
    15
100
AcDbLine
 10
5.6747015658
 20
6.8055270968
 30
0.0
 11
4.4148589863
 21
6.8055270968
 31
0.0
  0
LINE
  5
C3
330
1F
100
AcDbEntity
  8
0
  6
Continuous
 62
     7
370
    15
100
AcDbLine
 10
4.4148589863
 20
6.8055270968
 30
0.0
 11
4.4148589863
 21
6.7591249395
 31
0.0
  0
LINE
  5
C4
330
1F
100
AcDbEntity
  8
0
  6
Continuous
 62
     7
370
    15
100
AcDbLine
 10
5.6747015658
 20
6.7591249395
 30
0.0
 11
5.6747015658
 21
6.8055270968
 31
0.0
  0
LINE
  5
C5
330
1F
100
AcDbEntity
  8
0
  6
Continuous
 62
     7
370
    15
100
AcDbLine
 10
3.7849376965
 20
6.8055270968
 30
0.0
 11
3.0675603037
 21
6.8055270968
 31
0.0
  0
LINE
  5
C6
330
1F
100
AcDbEntity
  8
0
  6
Continuous
 62
     7
370
    15
100
AcDbLine
 10
3.7849376965
 20
9.4056362868
 30
0.0
 11
3.7849376965
 21
9.4520384441
 31
0.0
  0
LINE
  5
C7
330
1F
100
AcDbEntity
  8
0
  6
Continuous
 62
     7
370
    15
100
AcDbLine
 10
3.0675603037
 20
9.4056362868
 30
0.0
 11
3.7849376965
 21
9.4056362868
 31
0.0
  0
LINE
  5
C8
330
1F
100
AcDbEntity
  8
0
  6
Continuous
 62
     7
370
    15
100
AcDbLine
 10
3.0675603037
 20
6.8055270968
 30
0.0
 11
3.0675603037
 21
9.4056362868
 31
0.0
  0
LINE
  5
C9
330
1F
100
AcDbEntity
  8
0
  6
Continuous
 62
     7
370
    15
100
AcDbLine
 10
3.7849376965
 20
6.7591249395
 30
0.0
 11
3.7849376965
 21
6.8055270968
 31
0.0
  0
LINE
  5
CA
330
1F
100
AcDbEntity
  8
0
  6
Continuous
 62
     7
370
    15
100
AcDbLine
 10
5.6747015658
 20
9.4056362868
 30
0.0
 11
5.6747015658
 21
9.4520384441
 31
0.0
  0
LINE
  5
CB
330
1F
100
AcDbEntity
  8
0
  6
Continuous
 62
     7
370
    15
100
AcDbLine
 10
4.4148589863
 20
9.4056362868
 30
0.0
 11
5.6747015658
 21
9.4056362868
 31
0.0
  0
LINE
  5
CC
330
1F
100
AcDbEntity
  8
0
  6
Continuous
 62
     7
370
    15
100
AcDbLine
 10
4.4148589863
 20
9.4520384441
 30
0.0
 11
4.4148589863
 21
9.4056362868
 31
0.0
  0
LINE
  5
CD
330
1F
100
AcDbEntity
  8
0
  6
Continuous
 62
     7
370
    15
100
AcDbLine
 10
3.7849376965
 20
6.8096536625
 30
0.0
 11
4.4148589863
 21
6.8096536625
 31
0.0
  0
LINE
  5
CE
330
1F
100
AcDbEntity
  8
0
  6
Continuous
 62
     7
370
    15
100
AcDbLine
 10
3.0675603037
 20
6.8055270968
 30
0.0
 11
3.0805590736
 21
6.8185258666
 31
0.0
  0
LINE
  5
CF
330
1F
100
AcDbEntity
  8
0
  6
Continuous
 62
     7
370
    15
100
AcDbLine
 10
7.0090014785
 20
6.8185258666
 30
0.0
 11
3.0805590736
 21
6.8185258666
 31
0.0
  0
LINE
  5
D0
330
1F
100
AcDbEntity
  8
0
  6
Continuous
 62
     7
370
    15
100
AcDbLine
 10
7.0220002484
 20
6.8055270968
 30
0.0
 11
7.0090014785
 21
6.8185258666
 31
0.0
  0
LINE
  5
D1
330
1F
100
AcDbEntity
  8
0
  6
Continuous
 62
     7
370
    15
100
AcDbLine
 10
5.6747015658
 20
6.8096536625
 30
0.0
 11
6.3046228556
 21
6.8096536625
 31
0.0
  0
LINE
  5
D2
330
1F
100
AcDbEntity
  8
0
  6
Continuous
 62
     7
370
    15
100
AcDbLine
 10
3.7849376965
 20
6.8055270968
 30
0.0
 11
3.7849376965
 21
6.8096536625
 31
0.0
  0
LINE
  5
D3
330
1F
100
AcDbEntity
  8
0
  6
Continuous
 62
     7
370
    15
100
AcDbLine
 10
4.4148589863
 20
6.8096536625
 30
0.0
 11
4.4148589863
 21
6.8055270968
 31
0.0
  0
LINE
  5
D4
330
1F
100
AcDbEntity
  8
0
  6
Continuous
 62
     7
370
    15
100
AcDbLine
 10
5.6747015658
 20
6.8055270968
 30
0.0
 11
5.6747015658
 21
6.8096536625
 31
0.0
  0
LINE
  5
D5
330
1F
100
AcDbEntity
  8
0
  6
Continuous
 62
     7
370
    15
100
AcDbLine
 10
6.3046228556
 20
6.8096536625
 30
0.0
 11
6.3046228556
 21
6.8055270968
 31
0.0
  0
LINE
  5
D6
330
1F
100
AcDbEntity
  8
0
  6
Continuous
 62
     7
370
    15
100
AcDbLine
 10
3.0675603037
 20
9.4056362868
 30
0.0
 11
3.0805590736
 21
9.392637517
 31
0.0
  0
LINE
  5
D7
330
1F
100
AcDbEntity
  8
0
  6
Continuous
 62
     7
370
    15
100
AcDbLine
 10
4.4148589863
 20
9.4015097211
 30
0.0
 11
3.7849376965
 21
9.4015097211
 31
0.0
  0
LINE
  5
D8
330
1F
100
AcDbEntity
  8
0
  6
Continuous
 62
     7
370
    15
100
AcDbLine
 10
6.3046228556
 20
9.4015097211
 30
0.0
 11
5.6747015658
 21
9.4015097211
 31
0.0
  0
LINE
  5
D9
330
1F
100
AcDbEntity
  8
0
  6
Continuous
 62
     7
370
    15
100
AcDbLine
 10
7.0090014785
 20
9.392637517
 30
0.0
 11
7.0220002484
 21
9.4056362868
 31
0.0
  0
LINE
  5
DA
330
1F
100
AcDbEntity
  8
0
  6
Continuous
 62
     7
370
    15
100
AcDbLine
 10
3.0805590736
 20
9.392637517
 30
0.0
 11
7.0090014785
 21
9.392637517
 31
0.0
  0
LINE
  5
DB
330
1F
100
AcDbEntity
  8
0
  6
Continuous
 62
     7
370
    15
100
AcDbLine
 10
4.4148589863
 20
9.4056362868
 30
0.0
 11
4.4148589863
 21
9.4015097211
 31
0.0
  0
LINE
  5
DC
330
1F
100
AcDbEntity
  8
0
  6
Continuous
 62
     7
370
    15
100
AcDbLine
 10
5.6747015658
 20
9.4015097211
 30
0.0
 11
5.6747015658
 21
9.4056362868
 31
0.0
  0
LINE
  5
DD
330
1F
100
AcDbEntity
  8
0
  6
Continuous
 62
     7
370
    15
100
AcDbLine
 10
3.7849376965
 20
9.4015097211
 30
0.0
 11
3.7849376965
 21
9.4056362868
 31
0.0
  0
LINE
  5
DE
330
1F
100
AcDbEntity
  8
0
  6
Continuous
 62
     7
370
    15
100
AcDbLine
 10
6.3046228556
 20
9.4056362868
 30
0.0
 11
6.3046228556
 21
9.4015097211
 31
0.0
  0
LINE
  5
DF
330
1F
100
AcDbEntity
  8
0
  6
Continuous
 62
     7
370
    15
100
AcDbLine
 10
7.0090014785
 20
9.392637517
 30
0.0
 11
7.0090014785
 21
6.8185258666
 31
0.0
  0
LINE
  5
E0
330
1F
100
AcDbEntity
  8
0
  6
Continuous
 62
     7
370
    15
100
AcDbLine
 10
3.0805590736
 20
6.8185258666
 30
0.0
 11
3.0805590736
 21
9.392637517
 31
0.0
  0
CIRCLE
  5
E1
330
1F
100
AcDbEntity
  8
0
  6
Continuous
 62
     7
370
    15
100
AcDbCircle
 10
6.4621031107
 20
7.1410147627
 30
0.0
 40
0.1146741998172889
  0
CIRCLE
  5
E2
330
1F
100
AcDbEntity
  8
0
  6
Continuous
 62
     7
370
    15
100
AcDbCircle
 10
6.4621031107
 20
7.1410147627
 30
0.0
 40
0.0428061151433514
  0
CIRCLE
  5
E3
330
1F
100
AcDbEntity
  8
0
  6
Continuous
 62
     7
370
    15
100
AcDbCircle
 10
3.6274574414
 20
7.1410147627
 30
0.0
 40
0.1146741998172889
  0
CIRCLE
  5
E4
330
1F
100
AcDbEntity
  8
0
  6
Continuous
 62
     7
370
    15
100
AcDbCircle
 10
3.6274574414
 20
7.1410147627
 30
0.0
 40
0.1181102362204056
  0
CIRCLE
  5
E5
330
1F
100
AcDbEntity
  8
0
  6
Continuous
 62
     7
370
    15
100
AcDbCircle
 10
6.4621031107
 20
9.0701486209
 30
0.0
 40
0.1146741998173102
  0
CIRCLE
  5
E6
330
1F
100
AcDbEntity
  8
0
  6
Continuous
 62
     7
370
    15
100
AcDbCircle
 10
6.4621031107
 20
9.0701486209
 30
0.0
 40
0.1181102362204243
  0
CIRCLE
  5
E7
330
1F
100
AcDbEntity
  8
0
  6
Continuous
 62
     7
370
    15
100
AcDbCircle
 10
3.6274574414
 20
9.0701486209
 30
0.0
 40
0.1146741998173102
  0
CIRCLE
  5
E8
330
1F
100
AcDbEntity
  8
0
  6
Continuous
 62
     7
370
    15
100
AcDbCircle
 10
3.6274574414
 20
9.0701486209
 30
0.0
 40
0.042806115143371
  0
CIRCLE
  5
E9
330
1F
100
AcDbEntity
  8
0
  6
Continuous
 62
     7
370
    15
100
AcDbCircle
 10
6.4621031107
 20
7.1410147627
 30
0.0
 40
0.0393700787401245
  0
CIRCLE
  5
EA
330
1F
100
AcDbEntity
  8
0
  6
Continuous
 62
     7
370
    15
100
AcDbCircle
 10
6.4621031107
 20
9.0701486209
 30
0.0
 40
0.0393700787401468
  0
CIRCLE
  5
EB
330
1F
100
AcDbEntity
  8
0
  6
Continuous
 62
     7
370
    15
100
AcDbCircle
 10
6.4621031107
 20
9.0701486209
 30
0.0
 40
0.042806115143371
  0
CIRCLE
  5
EC
330
1F
100
AcDbEntity
  8
0
  6
Continuous
 62
     7
370
    15
100
AcDbCircle
 10
6.4621031107
 20
7.1410147627
 30
0.0
 40
0.1181102362204056
  0
CIRCLE
  5
ED
330
1F
100
AcDbEntity
  8
0
  6
Continuous
 62
     7
370
    15
100
AcDbCircle
 10
3.6274574414
 20
9.0701486209
 30
0.0
 40
0.1181102362204243
  0
CIRCLE
  5
EE
330
1F
100
AcDbEntity
  8
0
  6
Continuous
 62
     7
370
    15
100
AcDbCircle
 10
3.6274574414
 20
9.0701486209
 30
0.0
 40
0.0393700787401468
  0
CIRCLE
  5
EF
330
1F
100
AcDbEntity
  8
0
  6
Continuous
 62
     7
370
    15
100
AcDbCircle
 10
3.6274574414
 20
7.1410147627
 30
0.0
 40
0.0393700787401245
  0
CIRCLE
  5
F0
330
1F
100
AcDbEntity
  8
0
  6
Continuous
 62
     7
370
    15
100
AcDbCircle
 10
3.6274574414
 20
7.1410147627
 30
0.0
 40
0.0428061151433514
  0
LINE
  5
F1
330
1F
100
AcDbEntity
  8
0
  6
Continuous
 62
     7
370
    15
100
AcDbLine
 10
7.0897681189
 20
6.7206817036
 30
0.0
 11
7.3988784813
 21
6.8035076668
 31
0.0
  0
LINE
  5
F2
330
1F
100
AcDbEntity
  8
0
  6
Continuous
 62
     7
370
    15
100
AcDbLine
 10
2.6906820708
 20
9.4076557168
 30
0.0
 11
2.9997924333
 21
9.49048168
 31
0.0
  0
LINE
  5
F3
330
1F
100
AcDbEntity
  8
0
  6
Continuous
 62
     7
370
    15
100
AcDbLine
 10
7.3988784813
 20
9.4076557168
 30
0.0
 11
7.0897681189
 21
9.49048168
 31
0.0
  0
LINE
  5
F4
330
1F
100
AcDbEntity
  8
0
  6
Continuous
 62
     7
370
    15
100
AcDbLine
 10
2.9997924333
 20
6.7206817036
 30
0.0
 11
2.6906820708
 21
6.8035076668
 31
0.0
  0
CIRCLE
  5
F5
330
1F
100
AcDbEntity
  8
0
  6
Continuous
 62
     7
370
    15
100
AcDbCircle
 10
2.7416306698
 20
8.1055816918
 30
0.0
 40
0.0885826771653555
  0
LINE
  5
F6
330
1F
100
AcDbEntity
  8
0
  6
Continuous
 62
     7
370
    15
100
AcDbLine
 10
2.5447801963
 20
6.9936505169
 30
0.0
 11
2.5447801963
 21
9.2175128667
 31
0.0
  0
CIRCLE
  5
F7
330
1F
100
AcDbEntity
  8
0
  6
Continuous
 62
     7
370
    15
100
AcDbCircle
 10
7.3479298824
 20
8.1055816918
 30
0.0
 40
0.0885826771653555
  0
LINE
  5
F8
330
1F
100
AcDbEntity
  8
0
  6
Continuous
 62
     7
370
    15
100
AcDbLine
 10
7.5447803558
 20
6.9936505169
 30
0.0
 11
7.5447803558
 21
9.2175128667
 31
0.0
  0
ARC
  5
F9
330
1F
100
AcDbEntity
  8
0
  6
Continuous
 62
     7
370
    15
100
AcDbCircle
 10
2.7416306698
 20
6.9936505187
 30
0.0
 40
0.1968503937007881
100
AcDbArc
 50
180.0
 51
255.0
  0
ARC
  5
FA
330
1F
100
AcDbEntity
  8
0
  6
Continuous
 62
     7
370
    15
100
AcDbCircle
 10
2.7416306698
 20
9.2175128649
 30
0.0
 40
0.1968503937007884
100
AcDbArc
 50
105.0
 51
180.0
  0
ARC
  5
FB
330
1F
100
AcDbEntity
  8
0
  6
Continuous
 62
     7
370
    15
100
AcDbCircle
 10
7.3479298824
 20
9.2175128649
 30
0.0
 40
0.1968503937007885
100
AcDbArc
 50
0.0
 51
75.0
  0
ARC
  5
FC
330
1F
100
AcDbEntity
  8
0
  6
Continuous
 62
     7
370
    15
100
AcDbCircle
 10
7.3479298824
 20
6.9936505187
 30
0.0
 40
0.1968503937007879
100
AcDbArc
 50
285.0
 51
0.0
  0
DIMENSION
  5
FD
330
1F
100
AcDbEntity
  8
0
  6
Continuous
 62
     7
370
     0
100
AcDbDimension
  2
*D5
 10
3.7220412475
 20
9.0053097766
 30
0.0
 11
1.6628454815
 21
9.9451055494
 31
0.0
 70
   163
  1
<> BOSS
 71
     1
 42
-1.0
  3
SLDDIMSTYLE0
100
AcDbDiametricDimension
 15
3.5328736354
 25
9.1349874653
 35
0.0
 40
0.0
  0
DIMENSION
  5
10F
330
1F
100
AcDbEntity
  8
0
  6
Continuous
 62
     7
370
     0
100
AcDbDimension
  2
*D6
 10
3.6525708276
 20
9.0398283153
 30
0.0
 11
2.0108205488
 21
10.4983794754
 31
0.0
 70
   163
  1
<>
 71
     1
 42
-1.0
  3
SLDDIMSTYLE1
100
AcDbDiametricDimension
 15
3.6023440552
 25
9.1004689266
 35
0.0
 40
0.0
  0
DIMENSION
  5
120
330
1F
100
AcDbEntity
  8
0
  6
Continuous
 62
     7
370
     0
100
AcDbDimension
  2
*D7
 10
2.7719109502
 20
8.1888282852
 30
0.0
 11
1.6350719682
 21
6.2556936076
 31
0.0
 70
   163
  1
<>
 71
     1
 42
-1.0
  3
SLDDIMSTYLE1
100
AcDbDiametricDimension
 15
2.7113503893
 25
8.0223350984
 35
0.0
 40
0.0
  0
DIMENSION
  5
130
330
1F
100
AcDbEntity
  8
0
  6
Continuous
 62
     7
370
     0
100
AcDbDimension
  2
*D8
 10
6.4621031107
 20
6.3304073466
 30
0.0
 11
5.0447802761
 21
6.3304073466
 31
0.0
 70
   160
 71
     2
 42
-1.0
  3
SLDDIMSTYLE2
100
AcDbAlignedDimension
 13
3.6274574414
 23
7.0016446839
 33
0.0
 14
6.4621031107
 24
7.1410147627
 34
0.0
100
AcDbRotatedDimension
  0
DIMENSION
  5
145
330
1F
100
AcDbEntity
  8
0
  6
Continuous
 62
     7
370
     0
100
AcDbDimension
  2
*D9
 10
7.3479298824
 20
5.8070870805
 30
0.0
 11
5.0447802761
 21
5.8070870805
 31
0.0
 70
   160
 71
     2
 42
-1.0
  3
SLDDIMSTYLE2
100
AcDbAlignedDimension
 13
2.7416306698
 23
7.9169990146
 33
0.0
 14
7.3479298824
 24
7.9169990146
 34
0.0
100
AcDbRotatedDimension
  0
DIMENSION
  5
159
330
1F
100
AcDbEntity
  8
0
  6
Continuous
 62
     7
370
     0
100
AcDbDimension
  2
*D10
 10
8.0981971263
 20
9.0701486209
 30
0.0
 11
8.0981971263
 21
8.1055816918
 31
0.0
 70
   160
 71
     2
 42
-1.0
  3
SLDDIMSTYLE2
100
AcDbAlignedDimension
 13
6.4621031107
 23
7.1410147627
 33
0.0
 14
6.4621031107
 24
9.0701486209
 34
0.0
 50
90.0
100
AcDbRotatedDimension
  0
DIMENSION
  5
16D
330
1F
100
AcDbEntity
  8
0
  6
Continuous
 62
     7
370
     0
100
AcDbDimension
  2
*D11
 10
7.5447802761
 20
10.860229711
 30
0.0
 11
5.0447802761
 21
10.860229711
 31
0.0
 70
   160
 71
     2
 42
-1.0
  3
SLDDIMSTYLE3
100
AcDbAlignedDimension
 13
2.5447802761
 23
9.2175128649
 33
0.0
 14
7.5447802761
 24
9.2175128649
 34
0.0
100
AcDbRotatedDimension
  0
DIMENSION
  5
182
330
1F
100
AcDbEntity
  8
0
  6
Continuous
 62
     7
370
     0
100
AcDbDimension
  2
*D12
 10
7.0220002891
 20
9.8665495644
 30
0.0
 11
5.0447802761
 21
9.8665495644
 31
0.0
 70
   160
 71
     2
 42
-1.0
  3
SLDDIMSTYLE2
100
AcDbAlignedDimension
 13
3.067560263
 23
9.4056363505
 33
0.0
 14
7.0220002891
 24
9.4056363505
 34
0.0
100
AcDbRotatedDimension
  0
DIMENSION
  5
196
330
1F
100
AcDbEntity
  8
0
  6
Continuous
 62
     7
370
     0
100
AcDbDimension
  2
*D13
 10
7.1137727083
 20
10.3801909928
 30
0.0
 11
5.0447802761
 21
10.3801909928
 31
0.0
 70
   160
 71
     2
 42
-1.0
  3
SLDDIMSTYLE2
100
AcDbAlignedDimension
 13
2.9757878438
 23
9.4166053138
 33
0.0
 14
7.1137727083
 24
9.4166053138
 34
0.0
 50
0.0
100
AcDbRotatedDimension
  0
DIMENSION
  5
1AA
330
1F
100
AcDbEntity
  8
0
  6
Continuous
 62
     7
370
     0
100
AcDbDimension
  2
*D14
 10
2.0439150671
 20
6.8055270331
 30
0.0
 11
2.0439150671
 21
8.1055816918
 31
0.0
 70
   160
 71
     2
 42
-1.0
  3
SLDDIMSTYLE3
100
AcDbAlignedDimension
 13
3.067560263
 23
9.4056363505
 33
0.0
 14
3.067560263
 24
6.8055270331
 34
0.0
 50
90.0
100
AcDbRotatedDimension
  0
DIMENSION
  5
1BE
330
1F
100
AcDbEntity
  8
0
  6
Continuous
 62
     7
370
     0
100
AcDbDimension
  2
*D15
 10
1.5014966252
 20
6.7137546139
 30
0.0
 11
1.5014966252
 21
8.1055816918
 31
0.0
 70
   160
 71
     2
 42
-1.0
  3
SLDDIMSTYLE2
100
AcDbAlignedDimension
 13
3.0565912997
 23
9.4974087697
 33
0.0
 14
3.0565912997
 24
6.7137546139
 34
0.0
 50
90.0
100
AcDbRotatedDimension
  0
DIMENSION
  5
1D2
330
1F
100
AcDbEntity
  8
0
  6
Continuous
 62
     7
370
     0
100
AcDbDimension
  2
*D16
 10
0.8987363546
 20
9.5159784553
 30
0.0
 11
0.8987363546
 21
8.1055816918
 31
0.0
 70
   160
 71
     2
 42
-1.0
  3
SLDDIMSTYLE2
100
AcDbAlignedDimension
 13
3.0565912997
 23
6.6951849283
 33
0.0
 14
3.0565912997
 24
9.5159784553
 34
0.0
 50
90.0
100
AcDbRotatedDimension
  0
INSERT
  5
1EC
102
{ACAD_REACTORS
330
1EE
102
}
330
1F
100
AcDbEntity
  8
0
  6
Continuous
 62
     7
370
     0
100
AcDbBlockReference
  2
SW_NOTE_4
 10
7.7615560505
 20
6.2538598993
 30
0.0
  0
LEADER
  5
1EE
330
1F
100
AcDbEntity
  8
0
  6
Continuous
 62
     7
370
     0
100
AcDbLeader
  3
SLDDIMSTYLE4
 73
     2
 76
     3
 10
6.4972335708
 20
7.1165563436
 30
0.0
 10
7.4803060505
 20
6.2538598993
 30
0.0
 10
7.7615560505
 20
6.2538598993
 30
0.0
340
1EC
  0
INSERT
  5
1FA
330
1F
100
AcDbEntity
  8
0
  6
Continuous
 62
     7
370
     0
100
AcDbBlockReference
  2
SW_CENTERMARKSYMBOL_0
 10
3.0565912997
 20
8.1055816918
 30
0.0
  0
INSERT
  5
206
330
1F
100
AcDbEntity
  8
0
  6
Continuous
 62
     7
370
     0
100
AcDbBlockReference
  2
SW_CENTERMARKSYMBOL_1
 10
7.0329692524
 20
8.1055816918
 30
0.0
  0
INSERT
  5
222
330
1F
100
AcDbEntity
  8
0
  6
Continuous
 62
     7
370
     0
100
AcDbBlockReference
  2
SW_CENTERMARKSYMBOL_2
 10
3.6274574414
 20
9.0701486209
 30
0.0
  0
INSERT
  5
22E
330
1F
100
AcDbEntity
  8
0
  6
Continuous
 62
     7
370
     0
100
AcDbBlockReference
  2
SW_CENTERMARKSYMBOL_3
 10
6.4621031107
 20
7.1410147627
 30
0.0
  0
INSERT
  5
23A
330
1F
100
AcDbEntity
  8
0
  6
Continuous
 62
     7
370
     0
100
AcDbBlockReference
  2
SW_CENTERMARKSYMBOL_4
 10
2.7416306698
 20
8.1055816918
 30
0.0
  0
INSERT
  5
246
330
1F
100
AcDbEntity
  8
0
  6
Continuous
 62
     7
370
     0
100
AcDbBlockReference
  2
SW_CENTERMARKSYMBOL_5
 10
7.3479298824
 20
8.1055816918
 30
0.0
  0
LINE
  5
247
330
1F
100
AcDbEntity
  8
0
  6
PHANTOM
 62
     7
370
    30
100
AcDbLine
 10
2.3719142142
 20
8.1159826191
 30
0.0
 11
7.7059355383
 21
8.1159826191
 31
0.0
  0
LINE
  5
248
330
1F
100
AcDbEntity
  8
0
  6
Continuous
 62
     7
370
    30
100
AcDbLine
 10
2.3719142142
 20
8.1159826191
 30
0.0
 11
2.3719142142
 21
8.6784826191
 31
0.0
  0
SOLID
  5
249
330
1F
100
AcDbEntity
  8
0
  6
Continuous
 62
     7
370
    30
100
AcDbTrace
 10
2.3719142142
 20
8.6784826191
 30
0.0
 11
2.3269142142
 21
8.3972326191
 31
0.0
 12
2.4169142142
 22
8.3972326191
 32
0.0
 13
2.4169142142
 23
8.3972326191
 33
0.0
  0
LINE
  5
24A
330
1F
100
AcDbEntity
  8
0
  6
Continuous
 62
     7
370
    30
100
AcDbLine
 10
7.7059355383
 20
8.1159826191
 30
0.0
 11
7.7059355383
 21
8.6784826191
 31
0.0
  0
SOLID
  5
24B
330
1F
100
AcDbEntity
  8
0
  6
Continuous
 62
     7
370
    30
100
AcDbTrace
 10
7.7059355383
 20
8.6784826191
 30
0.0
 11
7.6609355383
 21
8.3972326191
 31
0.0
 12
7.7509355383
 22
8.3972326191
 32
0.0
 13
7.7509355383
 23
8.3972326191
 33
0.0
  0
MTEXT
  5
24C
330
1F
100
AcDbEntity
  8
0
  6
Continuous
 62
     7
100
AcDbMText
 10
2.3025892981
 20
8.9056593809
 30
0.0
 40
0.140625
 41
0.0
 71
     1
 72
     1
  1
A
  7
SLDTEXTSTYLE0
 73
     1
 44
1.0
  0
MTEXT
  5
24D
330
1F
100
AcDbEntity
  8
0
  6
Continuous
 62
     7
100
AcDbMText
 10
7.6366106222
 20
8.9056593809
 30
0.0
 40
0.140625
 41
0.0
 71
     1
 72
     1
  1
A
  7
SLDTEXTSTYLE0
 73
     1
 44
1.0
  0
LINE
  5
24E
330
1F
100
AcDbEntity
  8
0
  6
Continuous
 62
     7
370
    15
100
AcDbLine
 10
15.4839931871
 20
3.601233876
 30
0.0
 11
15.4827420977
 21
3.6005875161
 31
0.0
  0
LINE
  5
24F
330
1F
100
AcDbEntity
  8
0
  6
Continuous
 62
     7
370
    15
100
AcDbLine
 10
15.499009153
 20
3.5691090215
 30
0.0
 11
15.5002602424
 21
3.569755597
 31
0.0
  0
ARC
  5
250
330
1F
100
AcDbEntity
  8
0
  6
Continuous
 62
     7
370
    15
100
AcDbCircle
 10
17.8872016821
 20
4.442045395
 30
0.0
 40
0.039138884884846
100
AcDbArc
 50
0.2477966839
 51
65.0327440897
  0
LINE
  5
251
330
1F
100
AcDbEntity
  8
0
  6
Continuous
 62
     7
370
    15
100
AcDbLine
 10
17.9443600321
 20
4.1662919912
 30
0.0
 11
17.9266338392
 21
4.4422857961
 31
0.0
  0
LINE
  5
252
330
1F
100
AcDbEntity
  8
0
  6
Continuous
 62
     7
370
    15
100
AcDbLine
 10
17.9038040716
 20
4.4775649249
 30
0.0
 11
15.37325255
 21
5.9384212231
 31
0.0
  0
LINE
  5
253
330
1F
100
AcDbEntity
  8
0
  6
Continuous
 62
     7
370
    15
100
AcDbLine
 10
17.901889076
 20
4.1213772634
 30
0.0
 11
17.901889076
 21
4.1232843606
 31
0.0
  0
LINE
  5
254
330
1F
100
AcDbEntity
  8
0
  6
Continuous
 62
     7
370
    15
100
AcDbLine
 10
14.2813548716
 20
4.2955021976
 30
0.0
 11
14.2801037822
 21
4.2948558377
 31
0.0
  0
LINE
  5
255
330
1F
100
AcDbEntity
  8
0
  6
Continuous
 62
     7
370
    15
100
AcDbLine
 10
14.2963708375
 20
4.2633773431
 30
0.0
 11
14.2976219269
 21
4.2640239186
 31
0.0
  0
ARC
  5
256
330
1F
100
AcDbEntity
  8
0
  6
Continuous
 62
     7
370
    15
100
AcDbCircle
 10
13.6605625198
 20
4.9398593214
 30
0.0
 40
0.0387824118452531
100
AcDbArc
 50
115.0241924435
 51
179.9047850698
  0
LINE
  5
257
330
1F
100
AcDbEntity
  8
0
  6
Continuous
 62
     7
370
    15
100
AcDbLine
 10
13.6212391801
 20
4.9398447725
 30
0.0
 11
13.6035129872
 21
4.6638509676
 31
0.0
  0
LINE
  5
258
330
1F
100
AcDbEntity
  8
0
  6
Continuous
 62
     7
370
    15
100
AcDbLine
 10
15.3127296548
 20
5.9384212231
 30
0.0
 11
13.6440689478
 21
4.9751239013
 31
0.0
  0
LINE
  5
259
330
1F
100
AcDbEntity
  8
0
  6
Continuous
 62
     7
370
    15
100
AcDbLine
 10
13.6459839433
 20
4.620843337
 30
0.0
 11
13.6459839433
 21
4.6189362397
 31
0.0
  0
ARC
  5
25A
330
1F
100
AcDbEntity
  8
0
  6
Continuous
 62
     7
370
    15
100
AcDbCircle
 10
15.3418355628
 20
5.8888326912
 30
0.0
 40
0.0573464336462089
100
AcDbArc
 50
88.8454029433
 51
120.3638556483
  0
ARC
  5
25B
330
1F
100
AcDbEntity
  8
0
  6
Continuous
 62
     7
370
    15
100
AcDbCircle
 10
15.3438714869
 20
5.8871646611
 30
0.0
 40
0.0590093881681819
100
AcDbArc
 50
60.18490229
 51
90.8548502103
  0
LINE
  5
25C
330
1F
100
AcDbEntity
  8
0
  6
Continuous
 62
     7
370
    15
100
AcDbLine
 10
16.1683597023
 20
1.09835864
 30
0.0
 11
16.1652674936
 21
1.2429993142
 31
0.0
  0
LINE
  5
25D
330
1F
100
AcDbEntity
  8
0
  6
Continuous
 62
     7
370
    15
100
AcDbLine
 10
15.9588696681
 20
1.2429993142
 30
0.0
 11
15.9558973508
 21
1.1039664372
 31
0.0
  0
ARC
  5
25E
330
1F
100
AcDbEntity
  8
0
  6
Continuous
 62
     7
370
    15
100
AcDbCircle
 10
18.0356833402
 20
1.5584374393
 30
0.0
 40
0.0883382283724932
100
AcDbArc
 50
0.5205777619
 51
47.922304983
  0
LINE
  5
25F
330
1F
100
AcDbEntity
  8
0
  6
Continuous
 62
     7
370
    15
100
AcDbLine
 10
18.1244459659
 20
1.471382876
 30
0.0
 11
18.1244459659
 21
1.5581805221
 31
0.0
  0
LINE
  5
260
330
1F
100
AcDbEntity
  8
0
  6
Continuous
 62
     7
370
    15
100
AcDbLine
 10
18.0950779402
 20
1.6241469951
 30
0.0
 11
17.9563367581
 21
1.7628731523
 31
0.0
  0
LINE
  5
261
330
1F
100
AcDbEntity
  8
0
  6
Continuous
 62
     7
370
    15
100
AcDbLine
 10
17.9266920815
 20
1.9206305058
 30
0.0
 11
17.9266920815
 21
1.949563059
 31
0.0
  0
LINE
  5
262
330
1F
100
AcDbEntity
  8
0
  6
Continuous
 62
     7
370
    15
100
AcDbLine
 10
17.9564554828
 20
1.7627544857
 30
0.0
 11
17.9462156654
 21
1.9221860343
 31
0.0
  0
LINE
  5
263
330
1F
100
AcDbEntity
  8
0
  6
Continuous
 62
     7
370
    15
100
AcDbLine
 10
17.3960529398
 20
1.8070908602
 30
0.0
 11
17.3929607778
 21
1.9517315614
 31
0.0
  0
LINE
  5
264
330
1F
100
AcDbEntity
  8
0
  6
Continuous
 62
     7
370
    15
100
AcDbLine
 10
17.1865629523
 20
1.9517315614
 30
0.0
 11
17.1834707436
 21
1.8070908333
 31
0.0
  0
LINE
  5
265
330
1F
100
AcDbEntity
  8
0
  6
Continuous
 62
     7
370
    15
100
AcDbLine
 10
14.3644023224
 20
2.1397610685
 30
0.0
 11
14.3613100204
 21
2.2844017966
 31
0.0
  0
LINE
  5
266
330
1F
100
AcDbEntity
  8
0
  6
Continuous
 62
     7
370
    15
100
AcDbLine
 10
14.1549121949
 20
2.2844017966
 30
0.0
 11
14.1519398776
 21
2.1453689196
 31
0.0
  0
LINE
  5
267
330
1F
100
AcDbEntity
  8
0
  6
Continuous
 62
     7
370
    15
100
AcDbLine
 10
13.601657354
 20
2.4197450107
 30
0.0
 11
13.5916523725
 21
2.2639709287
 31
0.0
  0
LINE
  5
268
330
1F
100
AcDbEntity
  8
0
  6
Continuous
 62
     7
370
    15
100
AcDbLine
 10
13.6211809378
 20
2.4471220354
 30
0.0
 11
13.6211809378
 21
2.4181894822
 31
0.0
  0
ARC
  5
269
330
1F
100
AcDbEntity
  8
0
  6
Continuous
 62
     7
370
    15
100
AcDbCircle
 10
13.5212799353
 20
2.432324581
 30
0.0
 40
0.0974248598125836
100
AcDbArc
 50
113.2383844227
 51
179.9618920354
  0
LINE
  5
26A
330
1F
100
AcDbEntity
  8
0
  6
Continuous
 62
     7
370
    15
100
AcDbLine
 10
13.4234270535
 20
2.4334489084
 30
0.0
 11
13.4234270535
 21
2.3466512623
 31
0.0
  0
LINE
  5
26B
330
1F
100
AcDbEntity
  8
0
  6
Continuous
 62
     7
370
    15
100
AcDbLine
 10
14.8979147041
 20
3.3390020687
 30
0.0
 11
13.482657371
 21
2.5219914008
 31
0.0
  0
LINE
  5
26C
330
1F
100
AcDbEntity
  8
0
  6
Continuous
 62
     7
370
    15
100
AcDbLine
 10
15.59209556
 20
2.8484932888
 30
0.0
 11
15.5890033046
 21
2.9931340438
 31
0.0
  0
LINE
  5
26D
330
1F
100
AcDbEntity
  8
0
  6
Continuous
 62
     7
370
    15
100
AcDbLine
 10
15.3826054791
 20
2.9931340438
 30
0.0
 11
15.3795132704
 21
2.8484933157
 31
0.0
  0
LINE
  5
26E
330
1F
100
AcDbEntity
  8
0
  6
Continuous
 62
     7
370
    15
100
AcDbLine
 10
15.1447014636
 20
3.3393409353
 30
0.0
 11
15.0979197373
 21
3.3549331296
 31
0.0
  0
ARC
  5
26F
330
1F
100
AcDbEntity
  8
0
  6
Continuous
 62
     7
370
    15
100
AcDbCircle
 10
15.0076730239
 20
3.1464021592
 30
0.0
 40
0.2214617848204364
100
AcDbArc
 50
87.8840764134
 51
119.6554261206
  0
ARC
  5
270
330
1F
100
AcDbEntity
  8
0
  6
Continuous
 62
     7
370
    15
100
AcDbCircle
 10
15.0183859779
 20
3.1186285482
 30
0.0
 40
0.2490973089913814
100
AcDbArc
 50
71.4197746625
 51
90.5833858956
  0
ARC
  5
271
330
1F
100
AcDbEntity
  8
0
  6
Continuous
 62
     7
370
    15
100
AcDbCircle
 10
16.2048819169
 20
3.5286689006
 30
0.0
 40
0.0816582281212296
100
AcDbArc
 50
242.6096122534
 51
297.3903877466
  0
LINE
  5
272
330
1F
100
AcDbEntity
  8
0
  6
Continuous
 62
     7
370
    15
100
AcDbLine
 10
16.2424488529
 20
3.4561651658
 30
0.0
 11
16.2549917612
 21
3.1725510548
 31
0.0
  0
ARC
  5
273
330
1F
100
AcDbEntity
  8
0
  6
Continuous
 62
     7
370
    15
100
AcDbCircle
 10
16.2048818183
 20
3.2692625861
 30
0.0
 40
0.1089225718767964
100
AcDbArc
 50
242.609660276
 51
297.3904013331
  0
LINE
  5
274
330
1F
100
AcDbEntity
  8
0
  6
Continuous
 62
     7
370
    15
100
AcDbLine
 10
16.1547719794
 20
3.1725510009
 30
0.0
 11
16.167314981
 21
3.4561651658
 31
0.0
  0
ARC
  5
275
330
1F
100
AcDbEntity
  8
0
  6
Continuous
 62
     7
370
    15
100
AcDbCircle
 10
16.2219911088
 20
3.4518945987
 30
0.0
 40
0.0548426539333465
100
AcDbArc
 50
122.7339497813
 51
175.5338880018
  0
ARC
  5
276
330
1F
100
AcDbEntity
  8
0
  6
Continuous
 62
     7
370
    15
100
AcDbCircle
 10
16.2048819169
 20
3.5222004393
 30
0.0
 40
0.0272347495885956
100
AcDbArc
 50
242.5693427071
 51
297.4306572929
  0
ARC
  5
277
330
1F
100
AcDbEntity
  8
0
  6
Continuous
 62
     7
370
    15
100
AcDbCircle
 10
16.1877721978
 20
3.4518942835
 30
0.0
 40
0.0548432041354523
100
AcDbArc
 50
4.4663973341
 51
57.2657648828
  0
LINE
  5
278
330
1F
100
AcDbEntity
  8
0
  6
Continuous
 62
     7
370
    15
100
AcDbLine
 10
16.2424488529
 20
3.4561651658
 30
0.0
 11
17.9111095599
 21
4.4194624877
 31
0.0
  0
LINE
  5
279
330
1F
100
AcDbEntity
  8
0
  6
Continuous
 62
     7
370
    15
100
AcDbLine
 10
16.2174282788
 20
3.4980277194
 30
0.0
 11
17.8860889858
 21
4.4613250412
 31
0.0
  0
ARC
  5
27A
330
1F
100
AcDbEntity
  8
0
  6
Continuous
 62
     7
370
    15
100
AcDbCircle
 10
17.8564329049
 20
4.4151916053
 30
0.0
 40
0.0548432041354557
100
AcDbArc
 50
4.4663973341
 51
57.2657648827
  0
LINE
  5
27B
330
1F
100
AcDbEntity
  8
0
  6
Continuous
 62
     7
370
    15
100
AcDbLine
 10
13.6367634595
 20
4.917021464
 30
0.0
 11
16.167314981
 21
3.4561651658
 31
0.0
  0
ARC
  5
27C
330
1F
100
AcDbEntity
  8
0
  6
Continuous
 62
     7
370
    15
100
AcDbCircle
 10
13.6914395872
 20
4.9127508969
 30
0.0
 40
0.0548426539333437
100
AcDbArc
 50
122.7339497813
 51
175.5338880018
  0
LINE
  5
27D
330
1F
100
AcDbEntity
  8
0
  6
Continuous
 62
     7
370
    15
100
AcDbLine
 10
13.6617840336
 20
4.9588840176
 30
0.0
 11
16.1923355551
 21
3.4980277194
 31
0.0
  0
LINE
  5
27E
330
1F
100
AcDbEntity
  8
0
  6
Continuous
 62
     7
370
    15
100
AcDbLine
 10
16.4629479882
 20
3.2926016293
 30
0.0
 11
16.454995301
 21
3.4724239622
 31
0.0
  0
LINE
  5
27F
330
1F
100
AcDbEntity
  8
0
  6
Continuous
 62
     7
370
    15
100
AcDbLine
 10
16.2549917612
 20
3.1725510548
 30
0.0
 11
16.4629479882
 21
3.2926016293
 31
0.0
  0
LINE
  5
280
330
1F
100
AcDbEntity
  8
0
  6
Continuous
 62
     7
370
    15
100
AcDbLine
 10
17.9236524682
 20
4.1358483766
 30
0.0
 11
17.9111095599
 21
4.4194624877
 31
0.0
  0
LINE
  5
281
330
1F
100
AcDbEntity
  8
0
  6
Continuous
 62
     7
370
    15
100
AcDbLine
 10
17.7156962412
 20
4.0157978022
 30
0.0
 11
17.9236524682
 21
4.1358483766
 31
0.0
  0
LINE
  5
282
330
1F
100
AcDbEntity
  8
0
  6
Continuous
 62
     7
370
    15
100
AcDbLine
 10
17.7077435541
 20
4.195620135
 30
0.0
 11
17.7156962412
 21
4.0157978022
 31
0.0
  0
LINE
  5
283
330
1F
100
AcDbEntity
  8
0
  6
Continuous
 62
     7
370
    15
100
AcDbLine
 10
17.4070839752
 20
4.0220530546
 30
0.0
 11
17.7077435541
 21
4.195620135
 31
0.0
  0
LINE
  5
284
330
1F
100
AcDbEntity
  8
0
  6
Continuous
 62
     7
370
    15
100
AcDbLine
 10
17.4150366624
 20
3.8422307218
 30
0.0
 11
17.4070839752
 21
4.0220530546
 31
0.0
  0
LINE
  5
285
330
1F
100
AcDbEntity
  8
0
  6
Continuous
 62
     7
370
    15
100
AcDbLine
 10
16.7636075671
 20
3.4661687097
 30
0.0
 11
17.4150366624
 21
3.8422307218
 31
0.0
  0
LINE
  5
286
330
1F
100
AcDbEntity
  8
0
  6
Continuous
 62
     7
370
    15
100
AcDbLine
 10
16.7556548799
 20
3.6459910426
 30
0.0
 11
16.7636075671
 21
3.4661687097
 31
0.0
  0
LINE
  5
287
330
1F
100
AcDbEntity
  8
0
  6
Continuous
 62
     7
370
    15
100
AcDbLine
 10
16.454995301
 20
3.4724239622
 30
0.0
 11
16.7556548799
 21
3.6459910426
 31
0.0
  0
LWPOLYLINE
  5
288
330
1F
100
AcDbEntity
  8
0
  6
Continuous
 62
     7
370
    15
100
AcDbPolyline
 90
        8
 70
   128
 43
0.0
 10
14.2901440451
 20
4.294588026
 10
14.294888179
 20
4.2906920483
 10
14.2988102471
 20
4.2851320432
 10
14.3013131259
 20
4.2787549833
 10
14.3020158603
 20
4.2725310549
 10
14.3008113461
 20
4.2674083732
 10
14.2978830372
 20
4.2641664557
 10
14.2976219269
 20
4.2640239186
  0
LWPOLYLINE
  5
289
330
1F
100
AcDbEntity
  8
0
  6
Continuous
 62
     7
370
    15
100
AcDbPolyline
 90
        3
 70
   128
 43
0.0
 10
14.2813548716
 20
4.2955021976
 10
14.2853000406
 20
4.2962271628
 10
14.2901440451
 20
4.294588026
  0
LINE
  5
28A
330
1F
100
AcDbEntity
  8
0
  6
Continuous
 62
     7
370
    15
100
AcDbLine
 10
13.6242204578
 20
4.6334072992
 30
0.0
 11
16.1547719794
 21
3.1725510009
 31
0.0
  0
LINE
  5
28B
330
1F
100
AcDbEntity
  8
0
  6
Continuous
 62
     7
370
    15
100
AcDbLine
 10
13.6367634595
 20
4.917021464
 30
0.0
 11
13.6242204578
 21
4.6334072992
 31
0.0
  0
LWPOLYLINE
  5
28C
330
1F
100
AcDbEntity
  8
0
  6
Continuous
 62
     7
370
    15
100
AcDbPolyline
 90
        8
 70
   128
 43
0.0
 10
15.4927823606
 20
3.6003197044
 10
15.4975264945
 20
3.5964237267
 10
15.5014485159
 20
3.5908637485
 10
15.5039514414
 20
3.5844866617
 10
15.5046541291
 20
3.5782627602
 10
15.5034496616
 20
3.5731400516
 10
15.500521306
 20
3.569898161
 10
15.5002602424
 20
3.569755597
  0
LWPOLYLINE
  5
28D
330
1F
100
AcDbEntity
  8
0
  6
Continuous
 62
     7
370
    15
100
AcDbPolyline
 90
        3
 70
   128
 43
0.0
 10
15.4839931871
 20
3.601233876
 10
15.4879383561
 20
3.6019588412
 10
15.4927823606
 20
3.6003197044
  0
LINE
  5
28E
330
1F
100
AcDbEntity
  8
0
  6
Continuous
 62
     7
370
    15
100
AcDbLine
 10
15.3304447406
 20
5.9366670604
 30
0.0
 11
13.6617840336
 21
4.9733697386
 31
0.0
  0
ARC
  5
28F
330
1F
100
AcDbEntity
  8
0
  6
Continuous
 62
     7
370
    15
100
AcDbCircle
 10
15.3429911024
 20
5.9124943404
 30
0.0
 40
0.0272347495886047
100
AcDbArc
 50
62.5693427071
 51
117.4306572929
  0
LINE
  5
290
330
1F
100
AcDbEntity
  8
0
  6
Continuous
 62
     7
370
    15
100
AcDbLine
 10
17.8860889858
 20
4.4758107622
 30
0.0
 11
15.3555374642
 21
5.9366670604
 31
0.0
  0
LWPOLYLINE
  5
291
330
1F
100
AcDbEntity
  8
0
  6
Continuous
 62
     7
370
    15
100
AcDbPolyline
 90
        7
 70
   128
 43
0.0
 10
17.8860889858
 20
4.4758107622
 10
17.8898262933
 20
4.472636178
 10
17.8909228166
 20
4.4706402693
 10
17.8912858042
 20
4.4685679017
 10
17.8909188964
 20
4.4664847576
 10
17.8898262933
 20
4.4644996254
 10
17.8860889858
 20
4.4613250412
  0
LWPOLYLINE
  5
292
330
1F
100
AcDbEntity
  8
0
  6
Continuous
 62
     7
370
    15
100
AcDbPolyline
 90
        7
 70
   128
 43
0.0
 10
13.6617840336
 20
4.9588840176
 10
13.6580467261
 20
4.9620586018
 10
13.6569502028
 20
4.9640545104
 10
13.6565872151
 20
4.9661268781
 10
13.656954123
 20
4.9682100222
 10
13.6580467261
 20
4.9701951544
 10
13.6617840336
 20
4.9733697386
  0
ARC
  5
293
330
1F
100
AcDbEntity
  8
0
  6
Continuous
 62
     7
370
    15
100
AcDbCircle
 10
16.2048819169
 20
3.1851936932
 30
0.0
 40
0.0435692397169052
100
AcDbArc
 50
242.6098008671
 51
297.3901991329
  0
LINE
  5
294
330
1F
100
AcDbEntity
  8
0
  6
Continuous
 62
     7
370
    15
100
AcDbLine
 10
16.4328820816
 20
3.2665593971
 30
0.0
 11
16.2249258546
 21
3.1465088226
 31
0.0
  0
LINE
  5
295
330
1F
100
AcDbEntity
  8
0
  6
Continuous
 62
     7
370
    15
100
AcDbLine
 10
16.4328820816
 20
3.2665593971
 30
0.0
 11
16.4328820816
 21
3.2752446977
 31
0.0
  0
LINE
  5
296
330
1F
100
AcDbEntity
  8
0
  6
Continuous
 62
     7
370
    15
100
AcDbLine
 10
16.1848379792
 20
3.1465088226
 30
0.0
 11
15.7213211265
 21
3.414091406
 31
0.0
  0
LINE
  5
297
330
1F
100
AcDbEntity
  8
0
  6
Continuous
 62
     7
370
    15
100
AcDbLine
 10
15.7213211265
 20
3.4227767066
 30
0.0
 11
15.7213211265
 21
3.414091406
 31
0.0
  0
LINE
  5
298
330
1F
100
AcDbEntity
  8
0
  6
Continuous
 62
     7
370
    15
100
AcDbLine
 10
16.7154741341
 20
3.4505566385
 30
0.0
 11
16.7080464677
 21
3.6185071949
 31
0.0
  0
LINE
  5
299
330
1F
100
AcDbEntity
  8
0
  6
Continuous
 62
     7
370
    15
100
AcDbLine
 10
16.7154741341
 20
3.4505566385
 30
0.0
 11
16.4624229675
 21
3.3044733094
 31
0.0
  0
LINE
  5
29A
330
1F
100
AcDbEntity
  8
0
  6
Continuous
 62
     7
370
    15
100
AcDbLine
 10
16.7636075671
 20
3.4661687097
 30
0.0
 11
16.7335416605
 21
3.4835253881
 31
0.0
  0
LINE
  5
29B
330
1F
100
AcDbEntity
  8
0
  6
Continuous
 62
     7
370
    15
100
AcDbLine
 10
16.7335416605
 20
3.4401264775
 30
0.0
 11
16.7335416605
 21
3.4835253881
 31
0.0
  0
LINE
  5
29C
330
1F
100
AcDbEntity
  8
0
  6
Continuous
 62
     7
370
    15
100
AcDbLine
 10
16.7154741341
 20
3.4505566385
 30
0.0
 11
16.7335416605
 21
3.4401264775
 31
0.0
  0
LINE
  5
29D
330
1F
100
AcDbEntity
  8
0
  6
Continuous
 62
     7
370
    15
100
AcDbLine
 10
15.6841252986
 20
3.4200999648
 30
0.0
 11
15.6962661111
 21
3.4271087067
 31
0.0
  0
LINE
  5
29E
330
1F
100
AcDbEntity
  8
0
  6
Continuous
 62
     7
370
    15
100
AcDbLine
 10
15.6962661111
 20
3.4271087067
 30
0.0
 11
15.6962661111
 21
3.4372406591
 31
0.0
  0
LINE
  5
29F
330
1F
100
AcDbEntity
  8
0
  6
Continuous
 62
     7
370
    15
100
AcDbLine
 10
15.6968841888
 20
3.3797268645
 30
0.0
 11
15.7171191874
 21
3.3914082806
 31
0.0
  0
LINE
  5
2A0
330
1F
100
AcDbEntity
  8
0
  6
Continuous
 62
     7
370
    15
100
AcDbLine
 10
15.6841252986
 20
3.4200999648
 30
0.0
 11
15.6968841888
 21
3.3797268645
 31
0.0
  0
LINE
  5
2A1
330
1F
100
AcDbEntity
  8
0
  6
Continuous
 62
     7
370
    15
100
AcDbLine
 10
15.7185765516
 20
3.4243611326
 30
0.0
 11
15.7171191874
 21
3.3914082806
 31
0.0
  0
LINE
  5
2A2
330
1F
100
AcDbEntity
  8
0
  6
Continuous
 62
     7
370
    15
100
AcDbLine
 10
15.6962661111
 20
3.4271087067
 30
0.0
 11
15.3454966413
 21
3.6296036113
 31
0.0
  0
LINE
  5
2A3
330
1F
100
AcDbEntity
  8
0
  6
Continuous
 62
     7
370
    15
100
AcDbLine
 10
15.3454966413
 20
3.6397355638
 30
0.0
 11
15.3454966413
 21
3.6296036113
 31
0.0
  0
LINE
  5
2A4
330
1F
100
AcDbEntity
  8
0
  6
Continuous
 62
     7
370
    15
100
AcDbLine
 10
17.3849707558
 20
3.8248737901
 30
0.0
 11
17.3849707558
 21
3.8161884895
 31
0.0
  0
LINE
  5
2A5
330
1F
100
AcDbEntity
  8
0
  6
Continuous
 62
     7
370
    15
100
AcDbLine
 10
17.3849707558
 20
3.8161884895
 30
0.0
 11
16.7335416605
 21
3.4401264775
 31
0.0
  0
LINE
  5
2A6
330
1F
100
AcDbEntity
  8
0
  6
Continuous
 62
     7
370
    15
100
AcDbLine
 10
15.3333558288
 20
3.6225948695
 30
0.0
 11
15.6841252986
 21
3.4200999648
 31
0.0
  0
LINE
  5
2A7
330
1F
100
AcDbEntity
  8
0
  6
Continuous
 62
     7
370
    15
100
AcDbLine
 10
15.3454966413
 20
3.6296036113
 30
0.0
 11
15.3333558288
 21
3.6225948695
 31
0.0
  0
LINE
  5
2A8
330
1F
100
AcDbEntity
  8
0
  6
Continuous
 62
     7
370
    15
100
AcDbLine
 10
15.6968841888
 20
3.3797268645
 30
0.0
 11
15.346114719
 21
3.5822217692
 31
0.0
  0
LINE
  5
2A9
330
1F
100
AcDbEntity
  8
0
  6
Continuous
 62
     7
370
    15
100
AcDbLine
 10
15.346114719
 20
3.5822217692
 30
0.0
 11
15.3333558288
 21
3.6225948695
 31
0.0
  0
LWPOLYLINE
  5
2AA
330
1F
100
AcDbEntity
  8
0
  6
Continuous
 62
     7
370
    15
100
AcDbPolyline
 90
       17
 70
   128
 43
0.0
 10
15.4915312712
 20
3.599673129
 10
15.4962754984
 20
3.5957772052
 10
15.5001975199
 20
3.5902174425
 10
15.5027004453
 20
3.5838401401
 10
15.5034031331
 20
3.5776164542
 10
15.5021986655
 20
3.57249353
 10
15.49927031
 20
3.5692516394
 10
15.495063984
 20
3.5683842719
 10
15.4902199795
 20
3.5700234087
 10
15.4854758456
 20
3.5739193864
 10
15.4815537775
 20
3.579479176
 10
15.4790508987
 20
3.5858564514
 10
15.4783481643
 20
3.5920803798
 10
15.4795526785
 20
3.5972030615
 10
15.4824809874
 20
3.600444979
 10
15.4866873601
 20
3.6013123196
 10
15.4915312712
 20
3.599673129
  0
LINE
  5
2AB
330
1F
100
AcDbEntity
  8
0
  6
Continuous
 62
     7
370
    15
100
AcDbLine
 10
15.3204416725
 20
3.6455141889
 30
0.0
 11
14.5186827644
 21
4.1083597546
 31
0.0
  0
LINE
  5
2AC
330
1F
100
AcDbEntity
  8
0
  6
Continuous
 62
     7
370
    15
100
AcDbLine
 10
14.5186827644
 20
4.1170450551
 30
0.0
 11
14.5186827644
 21
4.1083597546
 31
0.0
  0
LINE
  5
2AD
330
1F
100
AcDbEntity
  8
0
  6
Continuous
 62
     7
370
    15
100
AcDbLine
 10
15.3204416725
 20
3.6541994894
 30
0.0
 11
15.3204416725
 21
3.6455141889
 31
0.0
  0
LINE
  5
2AE
330
1F
100
AcDbEntity
  8
0
  6
Continuous
 62
     7
370
    15
100
AcDbLine
 10
15.3279642627
 20
3.6498568878
 30
0.0
 11
15.3204416725
 21
3.6455141889
 31
0.0
  0
LINE
  5
2AF
330
1F
100
AcDbEntity
  8
0
  6
Continuous
 62
     7
370
    15
100
AcDbLine
 10
17.6601351419
 20
4.1681362873
 30
0.0
 11
17.6675628083
 21
4.0001857309
 31
0.0
  0
LINE
  5
2B0
330
1F
100
AcDbEntity
  8
0
  6
Continuous
 62
     7
370
    15
100
AcDbLine
 10
17.6675628083
 20
4.0001857309
 30
0.0
 11
17.4145116183
 21
3.8541023884
 31
0.0
  0
LINE
  5
2B1
330
1F
100
AcDbEntity
  8
0
  6
Continuous
 62
     7
370
    15
100
AcDbLine
 10
17.6856303347
 20
4.0331544806
 30
0.0
 11
17.7156962412
 21
4.0157978022
 31
0.0
  0
LINE
  5
2B2
330
1F
100
AcDbEntity
  8
0
  6
Continuous
 62
     7
370
    15
100
AcDbLine
 10
17.6856303347
 20
3.9897555699
 30
0.0
 11
17.6856303347
 21
4.0331544806
 31
0.0
  0
LINE
  5
2B3
330
1F
100
AcDbEntity
  8
0
  6
Continuous
 62
     7
370
    15
100
AcDbLine
 10
17.6675628083
 20
4.0001857309
 30
0.0
 11
17.6856303347
 21
3.9897555699
 31
0.0
  0
ARC
  5
2B4
330
1F
100
AcDbEntity
  8
0
  6
Continuous
 62
     7
370
    15
100
AcDbCircle
 10
17.910876545
 20
4.1668028706
 30
0.0
 40
0.0334873843267365
100
AcDbArc
 50
292.427526914
 51
359.1258688297
  0
LINE
  5
2B5
330
1F
100
AcDbEntity
  8
0
  6
Continuous
 62
     7
370
    15
100
AcDbLine
 10
17.8935865617
 20
4.1098061444
 30
0.0
 11
17.6856303347
 21
3.9897555699
 31
0.0
  0
ARC
  5
2B6
330
1F
100
AcDbEntity
  8
0
  6
Continuous
 62
     7
370
    15
100
AcDbCircle
 10
17.8877024715
 20
4.1227922707
 30
0.0
 40
0.014256998084507
100
AcDbArc
 50
294.3755598275
 51
354.3040149218
  0
LINE
  5
2B7
330
1F
100
AcDbEntity
  8
0
  6
Continuous
 62
     7
370
    15
100
AcDbLine
 10
14.4814869831
 20
4.1143682864
 30
0.0
 11
14.4936277956
 21
4.1213770283
 31
0.0
  0
LINE
  5
2B8
330
1F
100
AcDbEntity
  8
0
  6
Continuous
 62
     7
370
    15
100
AcDbLine
 10
14.4936277956
 20
4.1213770283
 30
0.0
 11
14.4936277956
 21
4.1315089807
 31
0.0
  0
LINE
  5
2B9
330
1F
100
AcDbEntity
  8
0
  6
Continuous
 62
     7
370
    15
100
AcDbLine
 10
14.4942458733
 20
4.0739951861
 30
0.0
 11
14.5144808719
 21
4.0856766022
 31
0.0
  0
LINE
  5
2BA
330
1F
100
AcDbEntity
  8
0
  6
Continuous
 62
     7
370
    15
100
AcDbLine
 10
14.4814869831
 20
4.1143682864
 30
0.0
 11
14.4942458733
 21
4.0739951861
 31
0.0
  0
LINE
  5
2BB
330
1F
100
AcDbEntity
  8
0
  6
Continuous
 62
     7
370
    15
100
AcDbLine
 10
14.5159382361
 20
4.1186294542
 30
0.0
 11
14.5144808719
 21
4.0856766022
 31
0.0
  0
LINE
  5
2BC
330
1F
100
AcDbEntity
  8
0
  6
Continuous
 62
     7
370
    15
100
AcDbLine
 10
14.4936277956
 20
4.1213770283
 30
0.0
 11
14.1428583258
 21
4.3238719329
 31
0.0
  0
LINE
  5
2BD
330
1F
100
AcDbEntity
  8
0
  6
Continuous
 62
     7
370
    15
100
AcDbLine
 10
14.1428583258
 20
4.3340038854
 30
0.0
 11
14.1428583258
 21
4.3238719329
 31
0.0
  0
LINE
  5
2BE
330
1F
100
AcDbEntity
  8
0
  6
Continuous
 62
     7
370
    15
100
AcDbLine
 10
14.1307175134
 20
4.3168631911
 30
0.0
 11
14.4814869831
 21
4.1143682864
 31
0.0
  0
LINE
  5
2BF
330
1F
100
AcDbEntity
  8
0
  6
Continuous
 62
     7
370
    15
100
AcDbLine
 10
14.1428583258
 20
4.3238719329
 30
0.0
 11
14.1307175134
 21
4.3168631911
 31
0.0
  0
LINE
  5
2C0
330
1F
100
AcDbEntity
  8
0
  6
Continuous
 62
     7
370
    15
100
AcDbLine
 10
14.4942458733
 20
4.0739951861
 30
0.0
 11
14.1434764036
 21
4.2764900908
 31
0.0
  0
LINE
  5
2C1
330
1F
100
AcDbEntity
  8
0
  6
Continuous
 62
     7
370
    15
100
AcDbLine
 10
14.1434764036
 20
4.2764900908
 30
0.0
 11
14.1307175134
 21
4.3168631911
 31
0.0
  0
LWPOLYLINE
  5
2C2
330
1F
100
AcDbEntity
  8
0
  6
Continuous
 62
     7
370
    15
100
AcDbPolyline
 90
       17
 70
   128
 43
0.0
 10
14.2888929558
 20
4.2939414506
 10
14.293637183
 20
4.2900455268
 10
14.2975592511
 20
4.2844857372
 10
14.3000621299
 20
4.2781084617
 10
14.3007648643
 20
4.2718847489
 10
14.2995603501
 20
4.2667618516
 10
14.2966320412
 20
4.2635199341
 10
14.2924256685
 20
4.2626525935
 10
14.287581664
 20
4.2642917303
 10
14.2828375301
 20
4.268187708
 10
14.2789155087
 20
4.2737474706
 10
14.2764125832
 20
4.280124773
 10
14.2757098955
 20
4.2863486745
 10
14.276914363
 20
4.2914713831
 10
14.2798427186
 20
4.2947132737
 10
14.2840490446
 20
4.2955806412
 10
14.2888929558
 20
4.2939414506
  0
LINE
  5
2C3
330
1F
100
AcDbEntity
  8
0
  6
Continuous
 62
     7
370
    15
100
AcDbLine
 10
14.1253259006
 20
4.3441252363
 30
0.0
 11
14.1178033104
 21
4.3397825374
 31
0.0
  0
LINE
  5
2C4
330
1F
100
AcDbEntity
  8
0
  6
Continuous
 62
     7
370
    15
100
AcDbLine
 10
14.1178033104
 20
4.348467838
 30
0.0
 11
14.1178033104
 21
4.3397825374
 31
0.0
  0
LINE
  5
2C5
330
1F
100
AcDbEntity
  8
0
  6
Continuous
 62
     7
370
    15
100
AcDbLine
 10
14.1178033104
 20
4.3397825374
 30
0.0
 11
13.6542864577
 21
4.6073651208
 31
0.0
  0
ARC
  5
2C6
330
1F
100
AcDbEntity
  8
0
  6
Continuous
 62
     7
370
    15
100
AcDbCircle
 10
13.637887461
 20
4.664967793
 30
0.0
 40
0.034392611815058
100
AcDbArc
 50
181.860883132
 51
246.5853866111
  0
ARC
  5
2C7
330
1F
100
AcDbEntity
  8
0
  6
Continuous
 62
     7
370
    15
100
AcDbCircle
 10
13.6601705479
 20
4.6203512471
 30
0.0
 40
0.0142569980845142
100
AcDbArc
 50
185.6959850782
 51
245.6244401724
  0
ARC
  5
2C8
330
1F
100
AcDbEntity
  8
0
  6
Continuous
 62
     7
370
    15
100
AcDbCircle
 10
16.5311814393
 20
0.9099356779
 30
0.0
 40
0.2220233904055245
100
AcDbArc
 50
251.6155577949
 51
297.0768322261
  0
ARC
  5
2C9
330
1F
100
AcDbEntity
  8
0
  6
Continuous
 62
     7
370
    15
100
AcDbCircle
 10
16.6029003733
 20
0.666374637
 30
0.0
 40
0.0544540799680693
100
AcDbArc
 50
2.6056765179
 51
57.3943852468
  0
ARC
  5
2CA
330
1F
100
AcDbEntity
  8
0
  6
Continuous
 62
     7
370
    15
100
AcDbCircle
 10
16.53095641
 20
0.9161535438
 30
0.0
 40
0.2777069796599427
100
AcDbArc
 50
251.6309008242
 51
297.0614741804
  0
ARC
  5
2CB
330
1F
100
AcDbEntity
  8
0
  6
Continuous
 62
     7
370
    15
100
AcDbCircle
 10
16.5169310994
 20
0.6513731102
 30
0.0
 40
0.073500688405752
100
AcDbArc
 50
139.3604368042
 51
179.0460447681
  0
LINE
  5
2CC
330
1F
100
AcDbEntity
  8
0
  6
Continuous
 62
     7
370
    15
100
AcDbLine
 10
18.0700243248
 20
1.6280232214
 30
0.0
 11
17.9451455565
 21
1.7528884769
 31
0.0
  0
ARC
  5
2CD
330
1F
100
AcDbEntity
  8
0
  6
Continuous
 62
     7
370
    15
100
AcDbCircle
 10
18.0280047071
 20
1.5856546983
 30
0.0
 40
0.0596719365973657
100
AcDbArc
 50
289.0695562067
 51
45.2368898657
  0
LINE
  5
2CE
330
1F
100
AcDbEntity
  8
0
  6
Continuous
 62
     7
370
    15
100
AcDbLine
 10
16.6322431361
 20
0.712246732
 30
0.0
 11
18.0475004692
 21
1.5292573998
 31
0.0
  0
LINE
  5
2CF
330
1F
100
AcDbEntity
  8
0
  6
Continuous
 62
     7
370
    15
100
AcDbLine
 10
16.2448607747
 20
0.7713349654
 30
0.0
 11
16.4611571775
 21
0.6992439869
 31
0.0
  0
ARC
  5
2D0
330
1F
100
AcDbEntity
  8
0
  6
Continuous
 62
     7
370
    15
100
AcDbCircle
 10
16.2167237897
 20
0.8603718073
 30
0.0
 40
0.0933769197440602
100
AcDbArc
 50
287.537321901
 51
299.6167162235
  0
LINE
  5
2D1
330
1F
100
AcDbEntity
  8
0
  6
Continuous
 62
     7
370
    15
100
AcDbLine
 10
17.9315309525
 20
1.7424918308
 30
0.0
 11
16.2628702455
 21
0.779194509
 31
0.0
  0
ARC
  5
2D2
330
1F
100
AcDbEntity
  8
0
  6
Continuous
 62
     7
370
    15
100
AcDbCircle
 10
17.9010813167
 20
1.7964788156
 30
0.0
 40
0.0619820526379173
100
AcDbArc
 50
299.4237844013
 51
315.3097644047
  0
LWPOLYLINE
  5
2D3
330
1F
100
AcDbEntity
  8
0
  6
Continuous
 62
     7
370
    15
100
AcDbPolyline
 90
       25
 70
   128
 43
0.0
 10
17.2960255956
 20
1.2111515942
 10
17.3086953431
 20
1.2016197019
 10
17.3166598053
 20
1.1905196306
 10
17.319376318
 20
1.1786077784
 10
17.3166598083
 20
1.1666958909
 10
17.3086953227
 20
1.1555957893
 10
17.2960256189
 20
1.146063929
 10
17.2795141636
 20
1.1387498647
 10
17.2602861401
 20
1.134152065
 10
17.23965191
 20
1.1325838574
 10
17.2190177411
 20
1.1341520667
 10
17.1997897702
 20
1.1387498529
 10
17.1832782594
 20
1.1460639424
 10
17.1706086052
 20
1.1555957809
 10
17.1626440496
 20
1.1666959061
 10
17.159927537
 20
1.1786077582
 10
17.1626440467
 20
1.1905196458
 10
17.1706086256
 20
1.2016196935
 10
17.183278236
 20
1.2111516077
 10
17.1997897847
 20
1.2184656181
 10
17.2190177148
 20
1.2230634716
 10
17.239651945
 20
1.2246316793
 10
17.2602861139
 20
1.22306347
 10
17.2795141781
 20
1.2184656299
 10
17.2960255956
 20
1.2111515942
  0
LINE
  5
2D4
330
1F
100
AcDbEntity
  8
0
  6
Continuous
 62
     7
370
    15
100
AcDbLine
 10
16.6572981516
 20
0.5820525801
 30
0.0
 11
16.6572981516
 21
0.6688502262
 31
0.0
  0
ARC
  5
2D5
330
1F
100
AcDbEntity
  8
0
  6
Continuous
 62
     7
370
    15
100
AcDbCircle
 10
16.53095641
 20
0.8293558977
 30
0.0
 40
0.2777069796599425
100
AcDbArc
 50
251.6309008242
 51
297.0614741804
  0
LINE
  5
2D6
330
1F
100
AcDbEntity
  8
0
  6
Continuous
 62
     7
370
    15
100
AcDbLine
 10
16.4434405983
 20
0.6525968151
 30
0.0
 11
16.4434405983
 21
0.565799169
 31
0.0
  0
LINE
  5
2D7
330
1F
100
AcDbEntity
  8
0
  6
Continuous
 62
     7
370
    15
100
AcDbLine
 10
16.194013848
 20
0.7357034893
 30
0.0
 11
16.4434405983
 21
0.6525968151
 31
0.0
  0
LWPOLYLINE
  5
2D8
330
1F
100
AcDbEntity
  8
0
  6
Continuous
 62
     7
370
    15
100
AcDbPolyline
 90
        7
 70
   128
 43
0.0
 10
16.1940102079
 20
0.7357042503
 10
16.1942822853
 20
0.7397794388
 10
16.1960562486
 20
0.7434590847
 10
16.201852384
 20
0.7493810562
 10
16.217163855
 20
0.7590854842
 10
16.2353559863
 20
0.7677905766
 10
16.2448607747
 20
0.7713349654
  0
LINE
  5
2D9
330
1F
100
AcDbEntity
  8
0
  6
Continuous
 62
     7
370
    15
100
AcDbLine
 10
16.2048819169
 20
0.6453101191
 30
0.0
 11
16.1940101146
 21
0.7357043042
 31
0.0
  0
LINE
  5
2DA
330
1F
100
AcDbEntity
  8
0
  6
Continuous
 62
     7
370
    15
100
AcDbLine
 10
16.2048819169
 20
0.6453101191
 30
0.0
 11
16.4434405983
 21
0.565799169
 31
0.0
  0
LINE
  5
2DB
330
1F
100
AcDbEntity
  8
0
  6
Continuous
 62
     7
370
    15
100
AcDbLine
 10
16.1534589142
 20
0.9276473164
 30
0.0
 11
16.1416412345
 21
0.6604321902
 31
0.0
  0
ARC
  5
2DC
330
1F
100
AcDbEntity
  8
0
  6
Continuous
 62
     7
370
    15
100
AcDbCircle
 10
16.2048819169
 20
1.0268937975
 30
0.0
 40
0.1117774092382243
100
AcDbArc
 50
242.6097782577
 51
297.3902217423
  0
LINE
  5
2DD
330
1F
100
AcDbEntity
  8
0
  6
Continuous
 62
     7
370
    15
100
AcDbLine
 10
16.2628702455
 20
0.779194509
 30
0.0
 11
16.2563049197
 21
0.9276473164
 31
0.0
  0
ARC
  5
2DE
330
1F
100
AcDbEntity
  8
0
  6
Continuous
 62
     7
370
    15
100
AcDbCircle
 10
16.202305097
 20
0.7743315086
 30
0.0
 40
0.129047119034677
100
AcDbArc
 50
241.9598097152
 51
271.1441612884
  0
LINE
  5
2DF
330
1F
100
AcDbEntity
  8
0
  6
Continuous
 62
     7
370
    15
100
AcDbLine
 10
16.1534589142
 20
0.9276473164
 30
0.0
 11
13.6229073926
 21
2.3885036146
 31
0.0
  0
ARC
  5
2E0
330
1F
100
AcDbEntity
  8
0
  6
Continuous
 62
     7
370
    15
100
AcDbCircle
 10
13.6338931712
 20
2.4180244405
 30
0.0
 40
0.0314986744134603
100
AcDbArc
 50
113.8023554118
 51
249.5879261804
  0
ARC
  5
2E1
330
1F
100
AcDbEntity
  8
0
  6
Continuous
 62
     7
370
    15
100
AcDbCircle
 10
17.9139798482
 20
1.9204654641
 30
0.0
 40
0.0314986744134576
100
AcDbArc
 50
290.4120738196
 51
66.1976445882
  0
LINE
  5
2E2
330
1F
100
AcDbEntity
  8
0
  6
Continuous
 62
     7
370
    15
100
AcDbLine
 10
16.2563049197
 20
0.9276473164
 30
0.0
 11
17.9249656267
 21
1.8909446382
 31
0.0
  0
ARC
  5
2E3
330
1F
100
AcDbEntity
  8
0
  6
Continuous
 62
     7
370
    15
100
AcDbCircle
 10
13.6477795407
 20
2.420841577
 30
0.0
 40
0.0267304935060555
100
AcDbArc
 50
185.694030742
 51
245.6256762359
  0
LINE
  5
2E4
330
1F
100
AcDbEntity
  8
0
  6
Continuous
 62
     7
370
    15
100
AcDbLine
 10
16.1672994871
 20
0.9356373091
 30
0.0
 11
13.6367479655
 21
2.3964936073
 31
0.0
  0
ARC
  5
2E5
330
1F
100
AcDbEntity
  8
0
  6
Continuous
 62
     7
370
    15
100
AcDbCircle
 10
16.2048819169
 20
1.008171419
 30
0.0
 40
0.0816923260614427
100
AcDbArc
 50
242.6097645815
 51
297.3902354185
  0
LINE
  5
2E6
330
1F
100
AcDbEntity
  8
0
  6
Continuous
 62
     7
370
    15
100
AcDbLine
 10
17.9111250538
 20
1.8989346309
 30
0.0
 11
16.2424643468
 21
0.9356373091
 31
0.0
  0
ARC
  5
2E7
330
1F
100
AcDbEntity
  8
0
  6
Continuous
 62
     7
370
    15
100
AcDbCircle
 10
17.9000932175
 20
1.923282788
 30
0.0
 40
0.0267307719168091
100
AcDbArc
 50
294.3746678266
 51
354.3056251956
  0
LINE
  5
2E8
330
1F
100
AcDbEntity
  8
0
  6
Continuous
 62
     7
370
    15
100
AcDbLine
 10
16.1672994871
 20
0.9356373091
 30
0.0
 11
16.1672994871
 21
0.9645698622
 31
0.0
  0
ARC
  5
2E9
330
1F
100
AcDbEntity
  8
0
  6
Continuous
 62
     7
370
    15
100
AcDbCircle
 10
16.2048819169
 20
1.0371039722
 30
0.0
 40
0.0816923260614425
100
AcDbArc
 50
242.6097645815
 51
297.3902354185
  0
LINE
  5
2EA
330
1F
100
AcDbEntity
  8
0
  6
Continuous
 62
     7
370
    15
100
AcDbLine
 10
16.2424643468
 20
0.9356373091
 30
0.0
 11
16.2424643468
 21
0.9645698622
 31
0.0
  0
LINE
  5
2EB
330
1F
100
AcDbEntity
  8
0
  6
Continuous
 62
     7
370
    15
100
AcDbLine
 10
13.6517810121
 20
2.4601395173
 30
0.0
 11
15.3204417192
 21
3.4234368391
 31
0.0
  0
ARC
  5
2EC
330
1F
100
AcDbEntity
  8
0
  6
Continuous
 62
     7
370
    15
100
AcDbCircle
 10
13.6567215385
 20
2.4471219907
 30
0.0
 40
0.0139235339351339
100
AcDbArc
 50
110.7831966453
 51
249.2163925375
  0
LINE
  5
2ED
330
1F
100
AcDbEntity
  8
0
  6
Continuous
 62
     7
370
    15
100
AcDbLine
 10
16.1823324404
 20
0.9732482015
 30
0.0
 11
13.6517809188
 21
2.4341044997
 31
0.0
  0
ARC
  5
2EE
330
1F
100
AcDbEntity
  8
0
  6
Continuous
 62
     7
370
    15
100
AcDbCircle
 10
16.2048818183
 20
1.0167684441
 30
0.0
 40
0.0490151605235991
100
AcDbArc
 50
242.6097274999
 51
297.3904094095
  0
LINE
  5
2EF
330
1F
100
AcDbEntity
  8
0
  6
Continuous
 62
     7
370
    15
100
AcDbLine
 10
17.8960920072
 20
1.9365455771
 30
0.0
 11
16.2274313002
 21
0.9732482553
 31
0.0
  0
ARC
  5
2F0
330
1F
100
AcDbEntity
  8
0
  6
Continuous
 62
     7
370
    15
100
AcDbCircle
 10
17.8911514809
 20
1.9495631037
 30
0.0
 40
0.0139235339351362
100
AcDbArc
 50
290.7831966453
 51
69.2163925375
  0
LINE
  5
2F1
330
1F
100
AcDbEntity
  8
0
  6
Continuous
 62
     7
370
    15
100
AcDbLine
 10
15.365540579
 20
3.423436893
 30
0.0
 11
17.8960921006
 21
1.9625805948
 31
0.0
  0
ARC
  5
2F2
330
1F
100
AcDbEntity
  8
0
  6
Continuous
 62
     7
370
    15
100
AcDbCircle
 10
15.3429912011
 20
3.3799166503
 30
0.0
 40
0.0490151605236213
100
AcDbArc
 50
62.6097274999
 51
117.3904094095
  0
ARC
  5
2F3
330
1F
100
AcDbEntity
  8
0
  6
Continuous
 62
     7
370
    15
100
AcDbCircle
 10
13.6449823595
 20
2.4471220354
 30
0.0
 40
0.0232059525530235
100
AcDbArc
 50
110.783622228
 51
249.216377772
  0
LINE
  5
2F4
330
1F
100
AcDbEntity
  8
0
  6
Continuous
 62
     7
370
    15
100
AcDbLine
 10
13.6367479655
 20
2.4688179103
 30
0.0
 11
15.3054086726
 21
3.4321152322
 31
0.0
  0
ARC
  5
2F5
330
1F
100
AcDbEntity
  8
0
  6
Continuous
 62
     7
370
    15
100
AcDbCircle
 10
15.3429911024
 20
3.3595811222
 30
0.0
 40
0.0816923260614546
100
AcDbArc
 50
62.6097645815
 51
117.3902354185
  0
LINE
  5
2F6
330
1F
100
AcDbEntity
  8
0
  6
Continuous
 62
     7
370
    15
100
AcDbLine
 10
15.3805735323
 20
3.4321152322
 30
0.0
 11
17.9111250538
 21
1.971258934
 31
0.0
  0
ARC
  5
2F7
330
1F
100
AcDbEntity
  8
0
  6
Continuous
 62
     7
370
    15
100
AcDbCircle
 10
17.9028906599
 20
1.949563059
 30
0.0
 40
0.023205952553022
100
AcDbArc
 50
290.783622228
 51
69.216377772
  0
LINE
  5
2F8
330
1F
100
AcDbEntity
  8
0
  6
Continuous
 62
     7
370
    15
100
AcDbLine
 10
17.9111250538
 20
1.9278671841
 30
0.0
 11
16.2424643468
 21
0.9645698622
 31
0.0
  0
LINE
  5
2F9
330
1F
100
AcDbEntity
  8
0
  6
Continuous
 62
     7
370
    15
100
AcDbLine
 10
16.1672994871
 20
0.9645698622
 30
0.0
 11
13.6367479655
 21
2.4254261605
 31
0.0
  0
ARC
  5
2FA
330
1F
100
AcDbEntity
  8
0
  6
Continuous
 62
     7
370
    15
100
AcDbCircle
 10
18.0181577064
 20
1.4833853049
 30
0.0
 40
0.0544540799680485
100
AcDbArc
 50
2.6056765179
 51
57.3943852468
  0
LINE
  5
2FB
330
1F
100
AcDbEntity
  8
0
  6
Continuous
 62
     7
370
    15
100
AcDbLine
 10
16.6572981516
 20
0.6688502262
 30
0.0
 11
18.0725554847
 21
1.4858608941
 31
0.0
  0
LINE
  5
2FC
330
1F
100
AcDbEntity
  8
0
  6
Continuous
 62
     7
370
    15
100
AcDbLine
 10
13.6229073926
 20
2.3885036146
 30
0.0
 11
13.6110897129
 21
2.1212884884
 31
0.0
  0
LINE
  5
2FD
330
1F
100
AcDbEntity
  8
0
  6
Continuous
 62
     7
370
    15
100
AcDbLine
 10
13.6110897129
 20
2.1212884884
 30
0.0
 11
16.1416412345
 21
0.6604321902
 31
0.0
  0
LINE
  5
2FE
330
1F
100
AcDbEntity
  8
0
  6
Continuous
 62
     7
370
    15
100
AcDbLine
 10
17.9111250538
 20
1.9278671841
 30
0.0
 11
17.9111250538
 21
1.8989346309
 31
0.0
  0
LINE
  5
2FF
330
1F
100
AcDbEntity
  8
0
  6
Continuous
 62
     7
370
    15
100
AcDbLine
 10
13.6367479655
 20
2.3964936073
 30
0.0
 11
13.6367479655
 21
2.4254261605
 31
0.0
  0
LINE
  5
300
330
1F
100
AcDbEntity
  8
0
  6
Continuous
 62
     7
370
    15
100
AcDbLine
 10
17.9249656267
 20
1.8909446382
 30
0.0
 11
17.9315309525
 21
1.7424918308
 31
0.0
  0
LINE
  5
301
330
1F
100
AcDbEntity
  8
0
  6
Continuous
 62
     7
370
    15
100
AcDbLine
 10
18.0725554847
 20
1.4858608941
 30
0.0
 11
18.0725554847
 21
1.399063248
 31
0.0
  0
LINE
  5
302
330
1F
100
AcDbEntity
  8
0
  6
Continuous
 62
     7
370
    15
100
AcDbLine
 10
16.6572981516
 20
0.5820525801
 30
0.0
 11
18.0725554847
 21
1.399063248
 31
0.0
  0
LINE
  5
303
330
1F
100
AcDbEntity
  8
0
  6
Continuous
 62
     7
370
    15
100
AcDbLine
 10
17.4030450958
 20
2.1697169814
 30
0.0
 11
17.851522835
 21
1.9108162934
 31
0.0
  0
LINE
  5
304
330
1F
100
AcDbEntity
  8
0
  6
Continuous
 62
     7
370
    15
100
AcDbLine
 10
17.4325752479
 20
2.1867643753
 30
0.0
 11
17.4030450958
 21
2.1697169814
 31
0.0
  0
LINE
  5
305
330
1F
100
AcDbEntity
  8
0
  6
Continuous
 62
     7
370
    15
100
AcDbLine
 10
17.881052987
 20
1.9278636873
 30
0.0
 11
17.4325752479
 21
2.1867643753
 31
0.0
  0
LINE
  5
306
330
1F
100
AcDbEntity
  8
0
  6
Continuous
 62
     7
370
    15
100
AcDbLine
 10
15.3429911024
 20
3.167134698
 30
0.0
 11
17.6853785581
 21
1.8149032029
 31
0.0
  0
LINE
  5
307
330
1F
100
AcDbEntity
  8
0
  6
Continuous
 62
     7
370
    15
100
AcDbLine
 10
13.8624945079
 20
2.3124622062
 30
0.0
 11
15.3429911024
 21
3.167134698
 31
0.0
  0
LWPOLYLINE
  5
308
330
1F
100
AcDbEntity
  8
0
  6
Continuous
 62
     7
370
    15
100
AcDbPolyline
 90
       16
 70
   128
 43
0.0
 10
15.59209556
 20
2.8484932888
 10
15.5914352006
 20
2.8408653314
 10
15.5861385116
 20
2.8274683564
 10
15.5758104906
 20
2.8150877634
 10
15.5609692983
 20
2.8043442499
 10
15.5423589705
 20
2.7957766119
 10
15.5209128774
 20
2.7898143993
 10
15.4977061216
 20
2.7867566858
 10
15.4739027088
 20
2.7867566588
 10
15.4506959997
 20
2.7898143993
 10
15.4292498133
 20
2.7957766119
 10
15.4106395788
 20
2.8043442499
 10
15.3957982931
 20
2.8150877634
 10
15.3854703189
 20
2.8274683833
 10
15.3801735832
 20
2.8408653314
 10
15.3795132704
 20
2.8484933157
  0
LWPOLYLINE
  5
309
330
1F
100
AcDbEntity
  8
0
  6
Continuous
 62
     7
370
    15
100
AcDbPolyline
 90
        9
 70
   128
 43
0.0
 10
16.1683597023
 20
1.09835864
 10
16.1676993895
 20
1.0907306017
 10
16.1624026072
 20
1.0773336806
 10
16.1520747262
 20
1.0649530608
 10
16.1372335339
 20
1.0542095472
 10
16.1186232061
 20
1.0456419092
 10
16.097176973
 20
1.0396797235
 10
16.0739703105
 20
1.0366219562
 10
16.07269052
 20
1.0365432072
  0
LWPOLYLINE
  5
30A
330
1F
100
AcDbEntity
  8
0
  6
Continuous
 62
     7
370
    15
100
AcDbPolyline
 90
        9
 70
   128
 43
0.0
 10
14.3644023224
 20
2.1397610685
 10
14.3637419163
 20
2.1321330842
 10
14.3584452273
 20
2.1187361092
 10
14.348117253
 20
2.1063555432
 10
14.3332760607
 20
2.0956120296
 10
14.3146657329
 20
2.0870443916
 10
14.2932195932
 20
2.0810821521
 10
14.2700128373
 20
2.0780244386
 10
14.2687330468
 20
2.0779456896
  0
LWPOLYLINE
  5
30B
330
1F
100
AcDbEntity
  8
0
  6
Continuous
 62
     7
370
    15
100
AcDbPolyline
 90
       16
 70
   128
 43
0.0
 10
17.3960529398
 20
1.8070908602
 10
17.3953926738
 20
1.799462849
 10
17.3900958914
 20
1.7860659279
 10
17.3797679638
 20
1.773685281
 10
17.3649267715
 20
1.7629417675
 10
17.3463164437
 20
1.7543741295
 10
17.3248702573
 20
1.7484119708
 10
17.3016635948
 20
1.7453542034
 10
17.277860182
 20
1.7453541764
 10
17.2546534729
 20
1.7484119169
 10
17.2332072865
 20
1.7543741295
 10
17.2145969587
 20
1.7629418214
 10
17.1997557663
 20
1.773685281
 10
17.1894277921
 20
1.7860659009
 10
17.1841310563
 20
1.799462849
 10
17.1834707436
 20
1.8070908333
  0
LWPOLYLINE
  5
30C
330
1F
100
AcDbEntity
  8
0
  6
Continuous
 62
     7
370
    15
100
AcDbPolyline
 90
       29
 70
   128
 43
0.0
 10
16.1350467876
 20
1.284393512
 10
16.1494562962
 20
1.2739625159
 10
16.159483772
 20
1.2619420724
 10
16.1646264549
 20
1.248934882
 10
16.1646264549
 20
1.2355931903
 10
16.159483772
 20
1.2225859999
 10
16.1494562962
 20
1.2105655564
 10
16.1350468342
 20
1.2001346411
 10
16.1169779545
 20
1.1918162088
 10
16.0961556794
 20
1.1860274703
 10
16.0736241235
 20
1.1830586626
 10
16.0505131314
 20
1.1830586626
 10
16.0279815756
 20
1.1860274703
 10
16.0071593005
 20
1.1918162088
 10
15.9890903741
 20
1.200134668
 10
15.9746809121
 20
1.2105655833
 10
15.9646534363
 20
1.2225860269
 10
15.9595107534
 20
1.2355932172
 10
15.9595107534
 20
1.248934909
 10
15.9646534363
 20
1.2619420993
 10
15.9746809121
 20
1.2739625428
 10
15.9890904207
 20
1.2843934851
 10
16.0071592538
 20
1.2927118904
 10
16.0279815289
 20
1.298500629
 10
16.0505130848
 20
1.3014694367
 10
16.0736240768
 20
1.3014694367
 10
16.0961556327
 20
1.298500629
 10
16.1169779078
 20
1.2927118904
 10
16.1350467876
 20
1.284393512
  0
LWPOLYLINE
  5
30D
330
1F
100
AcDbEntity
  8
0
  6
Continuous
 62
     7
370
    15
100
AcDbPolyline
 90
       18
 70
   128
 43
0.0
 10
16.0348269124
 20
1.2265378096
 10
16.02682569
 20
1.23328075
 10
16.0235841887
 20
1.2412369584
 10
16.0255402059
 20
1.249331833
 10
16.0324295978
 20
1.2564722094
 10
16.0433219343
 20
1.2616936749
 10
16.0567460841
 20
1.2642910448
 10
16.0708890222
 20
1.2639136262
 10
16.0838407934
 20
1.2606122299
 10
16.0938520285
 20
1.2548328669
 10
16.0995708342
 20
1.2473559686
 10
16.1002246133
 20
1.2391914242
 10
16.0957253491
 20
1.2314418275
 10
16.0866805255
 20
1.2251538154
 10
16.0743116907
 20
1.2211766542
 10
16.0602893439
 20
1.2200475234
 10
16.0465073867
 20
1.2219187483
 10
16.0348269124
 20
1.2265378096
  0
ARC
  5
30E
330
1F
100
AcDbEntity
  8
0
  6
Continuous
 62
     7
370
    15
100
AcDbCircle
 10
18.0371086591
 20
1.479272844
 30
0.0
 40
0.0876929686171752
100
AcDbArc
 50
293.8419530997
 51
354.8379668264
  0
ARC
  5
30F
330
1F
100
AcDbEntity
  8
0
  6
Continuous
 62
     7
370
    15
100
AcDbCircle
 10
17.978889522
 20
1.7262573107
 30
0.0
 40
0.0429869076235086
100
AcDbArc
 50
121.7180139229
 51
141.719049701
  0
LINE
  5
310
330
1F
100
AcDbEntity
  8
0
  6
Continuous
 62
     7
370
    15
100
AcDbLine
 10
17.4325752479
 20
2.1867643753
 30
0.0
 11
17.0316957938
 21
2.4181871582
 31
0.0
  0
LINE
  5
311
330
1F
100
AcDbEntity
  8
0
  6
Continuous
 62
     7
370
    15
100
AcDbLine
 10
17.0316957938
 20
2.4181871582
 30
0.0
 11
16.2299368857
 21
2.8810327239
 31
0.0
  0
LINE
  5
312
330
1F
100
AcDbEntity
  8
0
  6
Continuous
 62
     7
370
    15
100
AcDbLine
 10
16.2299368857
 20
2.8810327239
 30
0.0
 11
15.8290574317
 21
3.1124555067
 31
0.0
  0
LINE
  5
313
330
1F
100
AcDbEntity
  8
0
  6
Continuous
 62
     7
370
    15
100
AcDbLine
 10
15.8290574317
 20
3.1124555067
 30
0.0
 11
15.365540579
 21
3.3800380901
 31
0.0
  0
LINE
  5
314
330
1F
100
AcDbEntity
  8
0
  6
Continuous
 62
     7
370
    15
100
AcDbLine
 10
15.365540579
 20
3.3800380901
 30
0.0
 11
15.365540579
 21
3.423436893
 31
0.0
  0
LINE
  5
315
330
1F
100
AcDbEntity
  8
0
  6
Continuous
 62
     7
370
    15
100
AcDbLine
 10
15.3429911024
 20
3.358960838
 30
0.0
 11
15.3429911024
 21
3.167134698
 31
0.0
  0
LINE
  5
316
330
1F
100
AcDbEntity
  8
0
  6
Continuous
 62
     7
370
    15
100
AcDbLine
 10
15.3429911024
 20
3.358960838
 30
0.0
 11
15.7995272796
 21
3.0954081128
 31
0.0
  0
LINE
  5
317
330
1F
100
AcDbEntity
  8
0
  6
Continuous
 62
     7
370
    15
100
AcDbLine
 10
15.7969011493
 20
3.0360269736
 30
0.0
 11
15.7995272796
 21
3.0954081128
 31
0.0
  0
LINE
  5
318
330
1F
100
AcDbEntity
  8
0
  6
Continuous
 62
     7
370
    15
100
AcDbLine
 10
16.1977806034
 20
2.8046041908
 30
0.0
 11
15.7969011493
 21
3.0360269736
 31
0.0
  0
LINE
  5
319
330
1F
100
AcDbEntity
  8
0
  6
Continuous
 62
     7
370
    15
100
AcDbLine
 10
16.2004067337
 20
2.8639853299
 30
0.0
 11
16.1977806034
 21
2.8046041908
 31
0.0
  0
LINE
  5
31A
330
1F
100
AcDbEntity
  8
0
  6
Continuous
 62
     7
370
    15
100
AcDbLine
 10
16.2004067337
 20
2.8639853299
 30
0.0
 11
17.0021656417
 21
2.4011397642
 31
0.0
  0
LINE
  5
31B
330
1F
100
AcDbEntity
  8
0
  6
Continuous
 62
     7
370
    15
100
AcDbLine
 10
16.9995395114
 20
2.3417586251
 30
0.0
 11
17.0021656417
 21
2.4011397642
 31
0.0
  0
LINE
  5
31C
330
1F
100
AcDbEntity
  8
0
  6
Continuous
 62
     7
370
    15
100
AcDbLine
 10
17.4004189655
 20
2.1103358422
 30
0.0
 11
16.9995395114
 21
2.3417586251
 31
0.0
  0
LINE
  5
31D
330
1F
100
AcDbEntity
  8
0
  6
Continuous
 62
     7
370
    15
100
AcDbLine
 10
17.4030450958
 20
2.1697169814
 30
0.0
 11
17.4004189655
 21
2.1103358422
 31
0.0
  0
LWPOLYLINE
  5
31E
330
1F
100
AcDbEntity
  8
0
  6
Continuous
 62
     7
370
    15
100
AcDbPolyline
 90
       29
 70
   128
 43
0.0
 10
17.3627400252
 20
1.9931257323
 10
17.3771495805
 20
1.9826947631
 10
17.3871770562
 20
1.9706743196
 10
17.3923197392
 20
1.9576671292
 10
17.3923197392
 20
1.9443254375
 10
17.3871770562
 20
1.9313182472
 10
17.3771495805
 20
1.9192978036
 10
17.3627400718
 20
1.9088668614
 10
17.3446712387
 20
1.900548456
 10
17.3238489637
 20
1.8947597175
 10
17.3013174078
 20
1.8917909098
 10
17.2782064157
 20
1.8917909098
 10
17.2556748598
 20
1.8947597175
 10
17.2348525847
 20
1.900548456
 10
17.2167836116
 20
1.9088668883
 10
17.2023741963
 20
1.9192978305
 10
17.1923467206
 20
1.9313182741
 10
17.1872040376
 20
1.9443254644
 10
17.1872040376
 20
1.9576671562
 10
17.1923467206
 20
1.9706743465
 10
17.2023741963
 20
1.9826947901
 10
17.2167836583
 20
1.9931257054
 10
17.2348525381
 20
2.0014441377
 10
17.2556748132
 20
2.0072328762
 10
17.278206369
 20
2.0102016839
 10
17.3013173611
 20
2.0102016839
 10
17.323848917
 20
2.0072328762
 10
17.3446711921
 20
2.0014441377
 10
17.3627400252
 20
1.9931257323
  0
LWPOLYLINE
  5
31F
330
1F
100
AcDbEntity
  8
0
  6
Continuous
 62
     7
370
    15
100
AcDbPolyline
 90
       18
 70
   128
 43
0.0
 10
17.2625201966
 20
1.9352700568
 10
17.2545189742
 20
1.9420129972
 10
17.2512774263
 20
1.9499691787
 10
17.2532334901
 20
1.9580640802
 10
17.260122882
 20
1.9652044566
 10
17.2710152186
 20
1.9704259221
 10
17.2844393684
 20
1.9730232921
 10
17.2985823065
 20
1.9726458734
 10
17.3115340776
 20
1.9693444771
 10
17.3215453127
 20
1.9635651141
 10
17.3272641184
 20
1.9560882158
 10
17.3279178976
 20
1.9479236714
 10
17.3234186333
 20
1.9401740747
 10
17.3143738097
 20
1.9338860627
 10
17.3020049749
 20
1.9299089014
 10
17.2879825815
 20
1.9287797436
 10
17.2742006709
 20
1.9306509955
 10
17.2625201966
 20
1.9352700568
  0
LINE
  5
320
330
1F
100
AcDbEntity
  8
0
  6
Continuous
 62
     7
370
    15
100
AcDbLine
 10
15.3204417192
 20
3.3800380362
 30
0.0
 11
13.6668201256
 21
2.4254226098
 31
0.0
  0
ARC
  5
321
330
1F
100
AcDbEntity
  8
0
  6
Continuous
 62
     7
370
    15
100
AcDbCircle
 10
15.3429912011
 20
3.3365178475
 30
0.0
 40
0.049015160523615
100
AcDbArc
 50
62.6097274999
 51
117.3904094095
  0
LINE
  5
322
330
1F
100
AcDbEntity
  8
0
  6
Continuous
 62
     7
370
    15
100
AcDbLine
 10
15.7995272796
 20
3.0954081128
 30
0.0
 11
15.8290574317
 21
3.1124555067
 31
0.0
  0
LINE
  5
323
330
1F
100
AcDbEntity
  8
0
  6
Continuous
 62
     7
370
    15
100
AcDbLine
 10
13.6963501844
 20
2.4083752698
 30
0.0
 11
15.3429911024
 21
3.358960838
 31
0.0
  0
LINE
  5
324
330
1F
100
AcDbEntity
  8
0
  6
Continuous
 62
     7
370
    15
100
AcDbLine
 10
17.4029964672
 20
2.1686176999
 30
0.0
 11
17.0513073011
 21
2.371643534
 31
0.0
  0
LINE
  5
325
330
1F
100
AcDbEntity
  8
0
  6
Continuous
 62
     7
370
    15
100
AcDbLine
 10
17.0513073011
 20
2.371643534
 30
0.0
 11
17.0496204212
 21
2.4078394684
 31
0.0
  0
LINE
  5
326
330
1F
100
AcDbEntity
  8
0
  6
Continuous
 62
     7
370
    15
100
AcDbLine
 10
17.0513073011
 20
2.371643534
 30
0.0
 11
16.9995395114
 21
2.3417586251
 31
0.0
  0
LWPOLYLINE
  5
327
330
1F
100
AcDbEntity
  8
0
  6
Continuous
 62
     7
370
    15
100
AcDbPolyline
 90
       29
 70
   128
 43
0.0
 10
14.3310894077
 20
2.3257959406
 10
14.345498823
 20
2.3153649983
 10
14.3555262988
 20
2.3033445548
 10
14.3606689817
 20
2.2903373644
 10
14.3606689817
 20
2.2769956727
 10
14.3555262988
 20
2.2639884823
 10
14.345498823
 20
2.2519680388
 10
14.331089361
 20
2.2415371235
 10
14.3130204813
 20
2.2332186912
 10
14.2921982062
 20
2.2274299527
 10
14.2696666503
 20
2.224461145
 10
14.2465556582
 20
2.224461145
 10
14.2240241024
 20
2.2274299527
 10
14.2032018273
 20
2.2332186912
 10
14.1851329942
 20
2.2415370965
 10
14.1707234389
 20
2.2519680657
 10
14.1606959631
 20
2.2639885093
 10
14.1555532802
 20
2.2769956996
 10
14.1555532802
 20
2.2903373914
 10
14.1606959631
 20
2.3033445817
 10
14.1707234389
 20
2.3153650252
 10
14.1851329475
 20
2.3257959675
 10
14.2032017806
 20
2.3341143729
 10
14.2240240557
 20
2.3399031114
 10
14.2465556116
 20
2.3428719191
 10
14.2696666037
 20
2.3428719191
 10
14.2921981595
 20
2.3399031114
 10
14.3130204346
 20
2.3341143729
 10
14.3310894077
 20
2.3257959406
  0
LWPOLYLINE
  5
328
330
1F
100
AcDbEntity
  8
0
  6
Continuous
 62
     7
370
    15
100
AcDbPolyline
 90
       18
 70
   128
 43
0.0
 10
14.2308695325
 20
2.2679402381
 10
14.2228682168
 20
2.2746832324
 10
14.2196268088
 20
2.282639387
 10
14.2215827327
 20
2.2907343154
 10
14.2284721246
 20
2.2978746918
 10
14.2393644611
 20
2.3030961573
 10
14.2527886109
 20
2.3056935273
 10
14.266931549
 20
2.3053161086
 10
14.2798833202
 20
2.3020147123
 10
14.2898945553
 20
2.2962353493
 10
14.295613361
 20
2.288758451
 10
14.2962671401
 20
2.2805939066
 10
14.2917678759
 20
2.2728443099
 10
14.2827230523
 20
2.2665562978
 10
14.2703542175
 20
2.2625791366
 10
14.2563319641
 20
2.2614499519
 10
14.2425499135
 20
2.2633212307
 10
14.2308695325
 20
2.2679402381
  0
ARC
  5
329
330
1F
100
AcDbEntity
  8
0
  6
Continuous
 62
     7
370
    15
100
AcDbCircle
 10
13.4080459568
 20
2.2548574257
 30
0.0
 40
0.1838732535718843
100
AcDbArc
 50
354.8308468283
 51
2.840176244
  0
LINE
  5
32A
330
1F
100
AcDbEntity
  8
0
  6
Continuous
 62
     7
370
    15
100
AcDbLine
 10
13.5911715002
 20
2.2382910528
 30
0.0
 11
13.5848946791
 21
2.1577965573
 31
0.0
  0
ARC
  5
32B
330
1F
100
AcDbEntity
  8
0
  6
Continuous
 62
     7
370
    15
100
AcDbCircle
 10
13.6296533345
 20
2.1622598185
 30
0.0
 40
0.0449806395597547
100
AcDbArc
 50
185.6946175301
 51
245.6252860083
  0
LINE
  5
32C
330
1F
100
AcDbEntity
  8
0
  6
Continuous
 62
     7
370
    15
100
AcDbLine
 10
15.3204417192
 20
3.3800380362
 30
0.0
 11
15.3204417192
 21
3.4234368391
 31
0.0
  0
LINE
  5
32D
330
1F
100
AcDbEntity
  8
0
  6
Continuous
 62
     7
370
    15
100
AcDbLine
 10
17.0021656417
 20
2.4011397642
 30
0.0
 11
17.0316957938
 21
2.4181871582
 31
0.0
  0
LINE
  5
32E
330
1F
100
AcDbEntity
  8
0
  6
Continuous
 62
     7
370
    15
100
AcDbLine
 10
16.2299368857
 20
2.8810327239
 30
0.0
 11
16.2004067337
 21
2.8639853299
 31
0.0
  0
LINE
  5
32F
330
1F
100
AcDbEntity
  8
0
  6
Continuous
 62
     7
370
    15
100
AcDbLine
 10
13.5911692601
 20
2.2382936864
 30
0.0
 11
13.4471627502
 21
2.3823111988
 31
0.0
  0
ARC
  5
330
330
1F
100
AcDbEntity
  8
0
  6
Continuous
 62
     7
370
    15
100
AcDbCircle
 10
13.4920338592
 20
2.3787529511
 30
0.0
 40
0.0450119711624975
100
AcDbArc
 50
108.3693891132
 51
175.4659726042
  0
LINE
  5
331
330
1F
100
AcDbEntity
  8
0
  6
Continuous
 62
     7
370
    15
100
AcDbLine
 10
13.4471627502
 20
2.3823111988
 30
0.0
 11
13.4471627502
 21
2.2955135527
 31
0.0
  0
LINE
  5
332
330
1F
100
AcDbEntity
  8
0
  6
Continuous
 62
     7
370
    15
100
AcDbLine
 10
13.4471627502
 20
2.2955135527
 30
0.0
 11
13.5848946791
 21
2.1577965573
 31
0.0
  0
LINE
  5
333
330
1F
100
AcDbEntity
  8
0
  6
Continuous
 62
     7
370
    15
100
AcDbLine
 10
14.36459476
 20
2.9034305945
 30
0.0
 11
14.3756938147
 21
2.8954022241
 31
0.0
  0
LWPOLYLINE
  5
334
330
1F
100
AcDbEntity
  8
0
  6
Continuous
 62
     7
370
    15
100
AcDbPolyline
 90
       15
 70
   128
 43
0.0
 10
14.2657544759
 20
2.8319355948
 10
14.2518474238
 20
2.8383429427
 10
14.2391776762
 20
2.847874835
 10
14.231213214
 20
2.8589749063
 10
14.2284967014
 20
2.8708867585
 10
14.2312132111
 20
2.882798646
 10
14.2391776967
 20
2.8938987476
 10
14.2518474004
 20
2.9034306079
 10
14.2683588558
 20
2.9107446722
 10
14.2875868792
 20
2.9153424719
 10
14.3082211094
 20
2.9169106795
 10
14.3288552783
 20
2.9153424702
 10
14.3480832492
 20
2.910744684
 10
14.36459476
 20
2.9034305945
 10
14.36459476
 20
2.9034305945
  0
ARC
  5
335
330
1F
100
AcDbEntity
  8
0
  6
Continuous
 62
     7
370
    15
100
AcDbCircle
 10
13.5198683122
 20
2.4638398386
 30
0.0
 40
0.0596719365973696
100
AcDbArc
 50
109.0695562067
 51
225.2368898657
  0
LINE
  5
336
330
1F
100
AcDbEntity
  8
0
  6
Continuous
 62
     7
370
    15
100
AcDbLine
 10
14.9156298833
 20
3.3372478049
 30
0.0
 11
13.5003725501
 21
2.5202371371
 31
0.0
  0
ARC
  5
337
330
1F
100
AcDbEntity
  8
0
  6
Continuous
 62
     7
370
    15
100
AcDbCircle
 10
15.01669158
 20
3.139558859
 30
0.0
 40
0.2220233904055549
100
AcDbArc
 50
71.6155577949
 51
117.0768322261
  0
ARC
  5
338
330
1F
100
AcDbEntity
  8
0
  6
Continuous
 62
     7
370
    15
100
AcDbCircle
 10
13.494778217
 20
2.3486917381
 30
0.0
 40
0.0713803339334409
100
AcDbArc
 50
181.6380783554
 51
228.1589022811
  0
LINE
  5
339
330
1F
100
AcDbEntity
  8
0
  6
Continuous
 62
     7
370
    15
100
AcDbLine
 10
15.848668939
 20
3.0659118825
 30
0.0
 11
15.8469820591
 21
3.102107817
 31
0.0
  0
LINE
  5
33A
330
1F
100
AcDbEntity
  8
0
  6
Continuous
 62
     7
370
    15
100
AcDbLine
 10
16.2003581517
 20
2.8628860215
 30
0.0
 11
15.848668939
 21
3.0659118825
 31
0.0
  0
LINE
  5
33B
330
1F
100
AcDbEntity
  8
0
  6
Continuous
 62
     7
370
    15
100
AcDbLine
 10
15.848668939
 20
3.0659118825
 30
0.0
 11
15.7969011493
 21
3.0360269736
 31
0.0
  0
LWPOLYLINE
  5
33C
330
1F
100
AcDbEntity
  8
0
  6
Continuous
 62
     7
370
    15
100
AcDbPolyline
 90
       29
 70
   128
 43
0.0
 10
15.5587826453
 20
3.0345281608
 10
15.5731921073
 20
3.0240972455
 10
15.583219583
 20
3.012076802
 10
15.588362266
 20
2.9990696116
 10
15.588362266
 20
2.9857279199
 10
15.583219583
 20
2.9727207296
 10
15.5731921073
 20
2.960700286
 10
15.5587825986
 20
2.9502693438
 10
15.5407137655
 20
2.9419509384
 10
15.5198914905
 20
2.9361621999
 10
15.4973599346
 20
2.9331933922
 10
15.4742489425
 20
2.9331933922
 10
15.4517173866
 20
2.9361621999
 10
15.4308951115
 20
2.9419509384
 10
15.4128262318
 20
2.9502693168
 10
15.3984167231
 20
2.9607003129
 10
15.3883892474
 20
2.9727207565
 10
15.3832465644
 20
2.9857279468
 10
15.3832465644
 20
2.9990696386
 10
15.3883892474
 20
3.0120768289
 10
15.3984167231
 20
3.0240972725
 10
15.4128261851
 20
3.0345281878
 10
15.4308950649
 20
3.0428466201
 10
15.45171734
 20
3.0486353586
 10
15.4742488958
 20
3.0516041663
 10
15.4973598879
 20
3.0516041663
 10
15.5198914438
 20
3.0486353586
 10
15.5407137189
 20
3.0428466201
 10
15.5587826453
 20
3.0345281608
  0
LWPOLYLINE
  5
33D
330
1F
100
AcDbEntity
  8
0
  6
Continuous
 62
     7
370
    15
100
AcDbPolyline
 90
       18
 70
   128
 43
0.0
 10
15.4585628168
 20
2.9766724853
 10
15.450561501
 20
2.9834154796
 10
15.4473200464
 20
2.9913716072
 10
15.4492760169
 20
2.9994665626
 10
15.4561654088
 20
3.006606939
 10
15.4670577454
 20
3.0118284045
 10
15.4804818952
 20
3.0144257745
 10
15.4946248333
 20
3.0140483558
 10
15.5075766044
 20
3.0107469595
 10
15.5175878395
 20
3.0049675965
 10
15.5233066452
 20
2.9974906982
 10
15.5239604244
 20
2.9893261538
 10
15.5194611601
 20
2.9815765571
 10
15.5104163365
 20
2.9752885451
 10
15.4980475017
 20
2.9713113838
 10
15.4840252017
 20
2.9701821721
 10
15.4702431978
 20
2.9720534779
 10
15.4585628168
 20
2.9766724853
  0
LINE
  5
33E
330
1F
100
AcDbEntity
  8
0
  6
Continuous
 62
     8
370
    15
100
AcDbLine
 10
16.2249258546
 20
3.1465088226
 30
0.0
 11
16.2249258546
 21
3.1622391951
 31
0.0
  0
LINE
  5
33F
330
1F
100
AcDbEntity
  8
0
  6
Continuous
 62
     8
370
    15
100
AcDbLine
 10
16.1848379792
 20
3.1622391951
 30
0.0
 11
16.1848379792
 21
3.1465088226
 31
0.0
  0
ARC
  5
340
330
1F
100
AcDbEntity
  8
0
  6
Continuous
 62
     8
370
    15
100
AcDbCircle
 10
17.8964408997
 20
4.4616156712
 30
0.0
 40
0.0175687998625479
100
AcDbArc
 50
65.2906132533
 51
126.1017799189
  0
ARC
  5
341
330
1F
100
AcDbEntity
  8
0
  6
Continuous
 62
     8
370
    15
100
AcDbCircle
 10
17.9008593416
 20
4.4431274845
 30
0.0
 40
0.0257895143519375
100
AcDbArc
 50
293.4192877528
 51
358.1001303256
  0
ARC
  5
342
330
1F
100
AcDbEntity
  8
0
  6
Continuous
 62
     8
370
    15
100
AcDbCircle
 10
15.3658327711
 20
5.9230243304
 30
0.0
 40
0.0170914430621382
100
AcDbArc
 50
64.2705335952
 51
127.0395497036
  0
LINE
  5
343
330
1F
100
AcDbEntity
  8
0
  6
Continuous
 62
     8
370
    15
100
AcDbLine
 10
17.8935865617
 20
4.118491445
 30
0.0
 11
17.8935865617
 21
4.1098061444
 31
0.0
  0
LINE
  5
344
330
1F
100
AcDbEntity
  8
0
  6
Continuous
 62
     8
370
    15
100
AcDbLine
 10
13.6542864577
 20
4.6073651208
 30
0.0
 11
13.6542864577
 21
4.6160504214
 31
0.0
  0
ARC
  5
345
330
1F
100
AcDbEntity
  8
0
  6
Continuous
 62
     8
370
    15
100
AcDbCircle
 10
13.6463205544
 20
4.9402050453
 30
0.0
 40
0.0250762138578262
100
AcDbArc
 50
180.599611012
 51
247.5968052604
  0
ARC
  5
346
330
1F
100
AcDbEntity
  8
0
  6
Continuous
 62
     8
370
    15
100
AcDbCircle
 10
13.651485826
 20
4.959716906
 30
0.0
 40
0.0171012548972346
100
AcDbArc
 50
52.9730813413
 51
115.6150670612
  0
ARC
  5
347
330
1F
100
AcDbEntity
  8
0
  6
Continuous
 62
     8
370
    15
100
AcDbCircle
 10
15.3200952287
 20
5.9224769198
 30
0.0
 40
0.0175633848775545
100
AcDbArc
 50
53.8950356879
 51
114.7948810132
  0
ARC
  5
348
330
1F
100
AcDbEntity
  8
0
  6
Continuous
 62
     8
370
    15
100
AcDbCircle
 10
18.0794704058
 20
1.6061507135
 30
0.0
 40
0.0238250928681006
100
AcDbArc
 50
49.1888385862
 51
113.3580693495
  0
ARC
  5
349
330
1F
100
AcDbEntity
  8
0
  6
Continuous
 62
     8
370
    15
100
AcDbCircle
 10
18.0352409147
 20
1.5673120063
 30
0.0
 40
0.0895916336558939
100
AcDbArc
 50
294.6135712042
 51
354.6414862026
  0
LINE
  5
34A
330
1F
100
AcDbEntity
  8
0
  6
Continuous
 62
     8
370
    15
100
AcDbLine
 10
17.8960921006
 20
1.9625805948
 30
0.0
 11
17.8960921006
 21
1.9365455489
 31
0.0
  0
LINE
  5
34B
330
1F
100
AcDbEntity
  8
0
  6
Continuous
 62
     8
370
    15
100
AcDbLine
 10
13.6517810121
 20
2.4341044714
 30
0.0
 11
13.6517810121
 21
2.4601395173
 31
0.0
  0
LINE
  5
34C
330
1F
100
AcDbEntity
  8
0
  6
Continuous
 62
     8
370
    15
100
AcDbLine
 10
13.4778486946
 20
2.4214713155
 30
0.0
 11
13.5942902633
 21
2.3050422521
 31
0.0
  0
LINE
  5
34D
330
1F
100
AcDbEntity
  8
0
  6
Continuous
 62
     8
370
    15
100
AcDbLine
 10
15.1354582055
 20
3.334004871
 30
0.0
 11
15.0867158418
 21
3.35025055
 31
0.0
  0
ARC
  5
34E
330
1F
100
AcDbEntity
  8
0
  6
Continuous
 62
     8
370
    15
100
AcDbCircle
 10
13.4949243986
 20
2.435588027
 30
0.0
 40
0.0715513485312032
100
AcDbArc
 50
182.3259550035
 51
228.1243863921
  0
ARC
  5
34F
330
1F
100
AcDbEntity
  8
0
  6
Continuous
 62
     8
370
    15
100
AcDbCircle
 10
13.4899796074
 20
2.5057104969
 30
0.0
 40
0.0178615938377646
100
AcDbArc
 50
54.4185450722
 51
113.8924162266
  0
ARC
  5
350
330
1F
100
AcDbEntity
  8
0
  6
Continuous
 62
     8
370
    15
100
AcDbCircle
 10
14.9052507063
 20
3.3227594063
 30
0.0
 40
0.0178224860490427
100
AcDbArc
 50
54.3830031742
 51
114.3063255141
  0
ARC
  5
351
330
1F
100
AcDbEntity
  8
0
  6
Continuous
 62
     8
370
    15
100
AcDbCircle
 10
15.0960450357
 20
3.3436737477
 30
0.0
 40
0.0114143850988959
100
AcDbArc
 50
80.5468974202
 51
144.8173096689
  0
LINE
  5
352
330
1F
100
AcDbEntity
  8
0
  6
Continuous
 62
     7
370
    15
100
AcDbLine
 10
6.5802133786
 20
4.452906506
 30
0.0
 11
6.5767773116
 21
4.6497568953
 31
0.0
  0
LINE
  5
353
330
1F
100
AcDbEntity
  8
0
  6
Continuous
 62
     7
370
    15
100
AcDbLine
 10
6.3474289344
 20
4.6497568953
 30
0.0
 11
6.3439928674
 21
4.452906506
 31
0.0
  0
LINE
  5
354
330
1F
100
AcDbEntity
  8
0
  6
Continuous
 62
     7
370
    15
100
AcDbLine
 10
3.7455676847
 20
4.452906506
 30
0.0
 11
3.7421316177
 21
4.6497568953
 31
0.0
  0
LINE
  5
355
330
1F
100
AcDbEntity
  8
0
  6
Continuous
 62
     7
370
    15
100
AcDbLine
 10
3.5127832405
 20
4.6497568953
 30
0.0
 11
3.5093471735
 21
4.452906506
 31
0.0
  0
LINE
  5
356
330
1F
100
AcDbEntity
  8
0
  6
Continuous
 62
     7
370
    15
100
AcDbLine
 10
2.6536607518
 20
4.5237726557
 30
0.0
 11
2.6536607518
 21
4.3662923332
 31
0.0
  0
LINE
  5
357
330
1F
100
AcDbEntity
  8
0
  6
Continuous
 62
     7
370
    15
100
AcDbLine
 10
2.8296006393
 20
4.3662923332
 30
0.0
 11
2.8296006393
 21
4.5237726557
 31
0.0
  0
LINE
  5
358
330
1F
100
AcDbEntity
  8
0
  6
Continuous
 62
     7
370
    15
100
AcDbLine
 10
2.6536607518
 20
4.3662923332
 30
0.0
 11
2.8296006393
 21
4.3662923332
 31
0.0
  0
LINE
  5
359
330
1F
100
AcDbEntity
  8
0
  6
Continuous
 62
     7
370
    15
100
AcDbLine
 10
2.6536607518
 20
4.5237726557
 30
0.0
 11
2.8296006393
 21
4.5237726557
 31
0.0
  0
LINE
  5
35A
330
1F
100
AcDbEntity
  8
0
  6
Continuous
 62
     7
370
    15
100
AcDbLine
 10
7.2599599128
 20
4.5237726557
 30
0.0
 11
7.2599599128
 21
4.3662923332
 31
0.0
  0
LINE
  5
35B
330
1F
100
AcDbEntity
  8
0
  6
Continuous
 62
     7
370
    15
100
AcDbLine
 10
7.4358998003
 20
4.3662923332
 30
0.0
 11
7.4358998003
 21
4.5237726557
 31
0.0
  0
LINE
  5
35C
330
1F
100
AcDbEntity
  8
0
  6
Continuous
 62
     7
370
    15
100
AcDbLine
 10
7.2599599128
 20
4.3662923332
 30
0.0
 11
7.4358998003
 21
4.3662923332
 31
0.0
  0
LINE
  5
35D
330
1F
100
AcDbEntity
  8
0
  6
Continuous
 62
     7
370
    15
100
AcDbLine
 10
7.2599599128
 20
4.5237726557
 30
0.0
 11
7.4358998003
 21
4.5237726557
 31
0.0
  0
LINE
  5
35E
330
1F
100
AcDbEntity
  8
0
  6
Continuous
 62
     7
370
    15
100
AcDbLine
 10
2.5447801963
 20
4.4844025705
 30
0.0
 11
2.5447801963
 21
4.3662923332
 31
0.0
  0
LINE
  5
35F
330
1F
100
AcDbEntity
  8
0
  6
Continuous
 62
     7
370
    15
100
AcDbLine
 10
2.6536607518
 20
4.3662923332
 30
0.0
 11
2.5447801963
 21
4.3662923332
 31
0.0
  0
ARC
  5
360
330
1F
100
AcDbEntity
  8
0
  6
Continuous
 62
     7
370
    15
100
AcDbCircle
 10
2.5841503548
 20
4.4844025694
 30
0.0
 40
0.0393700787401579
100
AcDbArc
 50
90.0
 51
180.0
  0
LINE
  5
361
330
1F
100
AcDbEntity
  8
0
  6
Continuous
 62
     7
370
    15
100
AcDbLine
 10
2.6536607518
 20
4.5237726557
 30
0.0
 11
2.5841503548
 21
4.5237726557
 31
0.0
  0
LINE
  5
362
330
1F
100
AcDbEntity
  8
0
  6
Continuous
 62
     7
370
    15
100
AcDbLine
 10
7.1137727749
 20
4.7206230266
 30
0.0
 11
7.0920244128
 21
4.7206230266
 31
0.0
  0
LINE
  5
363
330
1F
100
AcDbEntity
  8
0
  6
Continuous
 62
     7
370
    15
100
AcDbLine
 10
7.124089189
 20
4.5237726557
 30
0.0
 11
7.1137727749
 21
4.7206230266
 31
0.0
  0
LINE
  5
364
330
1F
100
AcDbEntity
  8
0
  6
Continuous
 62
     7
370
    15
100
AcDbLine
 10
7.1809306657
 20
4.4450324944
 30
0.0
 11
7.1809306657
 21
4.3662923332
 31
0.0
  0
LINE
  5
365
330
1F
100
AcDbEntity
  8
0
  6
Continuous
 62
     7
370
    15
100
AcDbLine
 10
2.9086298864
 20
4.3662923332
 30
0.0
 11
2.9086298864
 21
4.4450324944
 31
0.0
  0
LINE
  5
366
330
1F
100
AcDbEntity
  8
0
  6
Continuous
 62
     7
370
    15
100
AcDbLine
 10
2.9975361393
 20
4.7206230266
 30
0.0
 11
2.9757877772
 21
4.7206230266
 31
0.0
  0
LINE
  5
367
330
1F
100
AcDbEntity
  8
0
  6
Continuous
 62
     7
370
    15
100
AcDbLine
 10
2.9975361393
 20
4.7599931118
 30
0.0
 11
2.9975361393
 21
4.7206230266
 31
0.0
  0
LINE
  5
368
330
1F
100
AcDbEntity
  8
0
  6
Continuous
 62
     7
370
    15
100
AcDbLine
 10
3.0675603037
 20
4.7009380207
 30
0.0
 11
3.0211582931
 21
4.7009380207
 31
0.0
  0
LINE
  5
369
330
1F
100
AcDbEntity
  8
0
  6
Continuous
 62
     7
370
    15
100
AcDbLine
 10
3.0805590736
 20
4.452906506
 30
0.0
 11
3.0675603037
 21
4.7009380207
 31
0.0
  0
LINE
  5
36A
330
1F
100
AcDbEntity
  8
0
  6
Continuous
 62
     7
370
    15
100
AcDbLine
 10
7.0090014785
 20
4.452906506
 30
0.0
 11
3.0805590736
 21
4.452906506
 31
0.0
  0
LINE
  5
36B
330
1F
100
AcDbEntity
  8
0
  6
Continuous
 62
     7
370
    15
100
AcDbLine
 10
7.0220002484
 20
4.7009380207
 30
0.0
 11
7.0090014785
 21
4.452906506
 31
0.0
  0
LINE
  5
36C
330
1F
100
AcDbEntity
  8
0
  6
Continuous
 62
     7
370
    15
100
AcDbLine
 10
7.068402259
 20
4.7009380207
 30
0.0
 11
7.0220002484
 21
4.7009380207
 31
0.0
  0
LINE
  5
36D
330
1F
100
AcDbEntity
  8
0
  6
Continuous
 62
     7
370
    15
100
AcDbLine
 10
7.068402259
 20
4.7009380207
 30
0.0
 11
7.068402259
 21
4.7599931118
 31
0.0
  0
LINE
  5
36E
330
1F
100
AcDbEntity
  8
0
  6
Continuous
 62
     7
370
    15
100
AcDbLine
 10
7.0920244128
 20
4.7206230266
 30
0.0
 11
7.0920244128
 21
4.7599931118
 31
0.0
  0
LINE
  5
36F
330
1F
100
AcDbEntity
  8
0
  6
Continuous
 62
     7
370
    15
100
AcDbLine
 10
3.0211582931
 20
4.7599931118
 30
0.0
 11
3.0211582931
 21
4.7009380207
 31
0.0
  0
LINE
  5
370
330
1F
100
AcDbEntity
  8
0
  6
Continuous
 62
     7
370
    15
100
AcDbLine
 10
3.0211582931
 20
4.7599931118
 30
0.0
 11
2.9975361393
 21
4.7599931118
 31
0.0
  0
LINE
  5
371
330
1F
100
AcDbEntity
  8
0
  6
Continuous
 62
     7
370
    15
100
AcDbLine
 10
7.0920244128
 20
4.7599931118
 30
0.0
 11
7.068402259
 21
4.7599931118
 31
0.0
  0
LINE
  5
372
330
1F
100
AcDbEntity
  8
0
  6
Continuous
 62
     7
370
    15
100
AcDbLine
 10
2.9757877772
 20
4.7206230266
 30
0.0
 11
2.9654713631
 21
4.5237726557
 31
0.0
  0
LINE
  5
373
330
1F
100
AcDbEntity
  8
0
  6
Continuous
 62
     7
370
    15
100
AcDbLine
 10
2.9457862838
 20
4.4450324944
 30
0.0
 11
2.9086298864
 21
4.4450324944
 31
0.0
  0
LINE
  5
374
330
1F
100
AcDbEntity
  8
0
  6
Continuous
 62
     7
370
    15
100
AcDbLine
 10
7.1809306657
 20
4.4450324944
 30
0.0
 11
7.1437742683
 21
4.4450324944
 31
0.0
  0
LINE
  5
375
330
1F
100
AcDbEntity
  8
0
  6
Continuous
 62
     7
370
    15
100
AcDbLine
 10
7.1437742683
 20
4.3662923332
 30
0.0
 11
7.1437742683
 21
4.4450324944
 31
0.0
  0
LINE
  5
376
330
1F
100
AcDbEntity
  8
0
  6
Continuous
 62
     7
370
    15
100
AcDbLine
 10
2.9457862838
 20
4.3662923332
 30
0.0
 11
2.9457862838
 21
4.4450324944
 31
0.0
  0
LINE
  5
377
330
1F
100
AcDbEntity
  8
0
  6
Continuous
 62
     7
370
    15
100
AcDbLine
 10
2.9086298864
 20
4.3662923332
 30
0.0
 11
2.8296006393
 21
4.3662923332
 31
0.0
  0
LINE
  5
378
330
1F
100
AcDbEntity
  8
0
  6
Continuous
 62
     7
370
    15
100
AcDbLine
 10
7.1437742683
 20
4.3662923332
 30
0.0
 11
2.9457862838
 21
4.3662923332
 31
0.0
  0
LINE
  5
379
330
1F
100
AcDbEntity
  8
0
  6
Continuous
 62
     7
370
    15
100
AcDbLine
 10
7.2599599128
 20
4.3662923332
 30
0.0
 11
7.1809306657
 21
4.3662923332
 31
0.0
  0
LINE
  5
37A
330
1F
100
AcDbEntity
  8
0
  6
Continuous
 62
     7
370
    15
100
AcDbLine
 10
7.2599599128
 20
4.5237726557
 30
0.0
 11
7.124089189
 21
4.5237726557
 31
0.0
  0
LINE
  5
37B
330
1F
100
AcDbEntity
  8
0
  6
Continuous
 62
     7
370
    15
100
AcDbLine
 10
2.9654713631
 20
4.5237726557
 30
0.0
 11
2.8296006393
 21
4.5237726557
 31
0.0
  0
LINE
  5
37C
330
1F
100
AcDbEntity
  8
0
  6
Continuous
 62
     7
370
    15
100
AcDbLine
 10
7.5447803558
 20
4.4844025705
 30
0.0
 11
7.5447803558
 21
4.3662923332
 31
0.0
  0
ARC
  5
37D
330
1F
100
AcDbEntity
  8
0
  6
Continuous
 62
     7
370
    15
100
AcDbCircle
 10
7.5054101973
 20
4.4844025694
 30
0.0
 40
0.0393700787401574
100
AcDbArc
 50
0.0
 51
90.0
  0
LINE
  5
37E
330
1F
100
AcDbEntity
  8
0
  6
Continuous
 62
     7
370
    15
100
AcDbLine
 10
7.5447803558
 20
4.3662923332
 30
0.0
 11
7.4358998003
 21
4.3662923332
 31
0.0
  0
LINE
  5
37F
330
1F
100
AcDbEntity
  8
0
  6
Continuous
 62
     7
370
    15
100
AcDbLine
 10
7.5054101973
 20
4.5237726557
 30
0.0
 11
7.4358998003
 21
4.5237726557
 31
0.0
  0
LINE
  5
380
330
1F
100
AcDbEntity
  8
0
  6
Continuous
 62
     7
370
    15
100
AcDbLine
 10
6.5767773116
 20
4.6497568953
 30
0.0
 11
6.3474289344
 21
4.6497568953
 31
0.0
  0
LINE
  5
381
330
1F
100
AcDbEntity
  8
0
  6
Continuous
 62
     7
370
    15
100
AcDbLine
 10
3.7421316177
 20
4.6497568953
 30
0.0
 11
3.5127832405
 21
4.6497568953
 31
0.0
  0
LINE
  5
382
330
1F
100
AcDbEntity
  8
0
  6
Continuous
 62
     7
370
    15
100
AcDbLine
 10
2.9086298864
 20
4.3662923332
 30
0.0
 11
2.9457862838
 21
4.3662923332
 31
0.0
  0
LINE
  5
383
330
1F
100
AcDbEntity
  8
0
  6
Continuous
 62
     7
370
    15
100
AcDbLine
 10
7.1437742683
 20
4.3662923332
 30
0.0
 11
7.1809306657
 21
4.3662923332
 31
0.0
  0
LINE
  5
384
330
1F
100
AcDbEntity
  8
0
  6
Continuous
 62
     7
370
    15
100
AcDbLine
 10
3.7849376965
 20
4.6221978503
 30
0.0
 11
3.7849376965
 21
4.7009380207
 31
0.0
  0
LINE
  5
385
330
1F
100
AcDbEntity
  8
0
  6
Continuous
 62
     7
370
    15
100
AcDbLine
 10
4.4148589863
 20
4.6221978503
 30
0.0
 11
3.7849376965
 21
4.6221978503
 31
0.0
  0
LINE
  5
386
330
1F
100
AcDbEntity
  8
0
  6
Continuous
 62
     7
370
    15
100
AcDbLine
 10
4.4148589863
 20
4.7009380207
 30
0.0
 11
4.4148589863
 21
4.6221978503
 31
0.0
  0
LINE
  5
387
330
1F
100
AcDbEntity
  8
0
  6
Continuous
 62
     7
370
    15
100
AcDbLine
 10
4.4148589863
 20
4.7009380207
 30
0.0
 11
5.6747015658
 21
4.7009380207
 31
0.0
  0
LINE
  5
388
330
1F
100
AcDbEntity
  8
0
  6
Continuous
 62
     7
370
    15
100
AcDbLine
 10
5.6747015658
 20
4.6221978503
 30
0.0
 11
5.6747015658
 21
4.7009380207
 31
0.0
  0
LINE
  5
389
330
1F
100
AcDbEntity
  8
0
  6
Continuous
 62
     7
370
    15
100
AcDbLine
 10
6.3046228556
 20
4.6221978503
 30
0.0
 11
5.6747015658
 21
4.6221978503
 31
0.0
  0
LINE
  5
38A
330
1F
100
AcDbEntity
  8
0
  6
Continuous
 62
     7
370
    15
100
AcDbLine
 10
6.3046228556
 20
4.7009380207
 30
0.0
 11
6.3046228556
 21
4.6221978503
 31
0.0
  0
LINE
  5
38B
330
1F
100
AcDbEntity
  8
0
  6
Continuous
 62
     7
370
    15
100
AcDbLine
 10
3.0675603037
 20
4.7009380207
 30
0.0
 11
3.7849376965
 21
4.7009380207
 31
0.0
  0
LINE
  5
38C
330
1F
100
AcDbEntity
  8
0
  6
Continuous
 62
     7
370
    15
100
AcDbLine
 10
6.3046228556
 20
4.7009380207
 30
0.0
 11
7.0220002484
 21
4.7009380207
 31
0.0
  0
LINE
  5
38D
330
1F
100
AcDbEntity
  8
0
  6
Continuous
 62
     7
370
    15
100
AcDbLine
 10
7.0329693217
 20
4.7599931118
 30
0.0
 11
7.068402259
 21
4.7599931118
 31
0.0
  0
LINE
  5
38E
330
1F
100
AcDbEntity
  8
0
  6
Continuous
 62
     7
370
    15
100
AcDbLine
 10
3.0211582931
 20
4.7599931118
 30
0.0
 11
3.0565912305
 21
4.7599931118
 31
0.0
  0
LINE
  5
38F
330
1F
100
AcDbEntity
  8
0
  6
Continuous
 62
     7
370
    15
100
AcDbLine
 10
6.3046228556
 20
4.7009380207
 30
0.0
 11
5.6747015658
 21
4.7009380207
 31
0.0
  0
LINE
  5
390
330
1F
100
AcDbEntity
  8
0
  6
Continuous
 62
     7
370
    15
100
AcDbLine
 10
4.4148589863
 20
4.7009380207
 30
0.0
 11
3.7849376965
 21
4.7009380207
 31
0.0
  0
LINE
  5
391
330
1F
100
AcDbEntity
  8
0
  6
Continuous
 62
     7
370
    15
100
AcDbLine
 10
3.0565912305
 20
4.7599931118
 30
0.0
 11
7.0329693217
 21
4.7599931118
 31
0.0
  0
HATCH
  5
392
330
1F
100
AcDbEntity
  8
0
  6
Continuous
 62
     7
370
     0
100
AcDbHatch
 10
0.0
 20
0.0
 30
0.0
210
0.0
220
0.0
230
1.0
  2
ANSI31
 70
     0
 71
     0
 91
        1
 92
        0
 93
        5
 72
     1
 10
2.653660723736461
 20
4.523772648172234
 11
2.58415035480393
 21
4.523772648172234
 72
     2
 10
2.58415035480393
 20
4.484402569432076
 40
0.0393700787401575
 50
90.0
 51
180.0
 73
     1
 72
     1
 10
2.544780276063773
 20
4.484402569432076
 11
2.544780276063773
 21
4.366292333211604
 72
     1
 10
2.544780276063773
 20
4.366292333211604
 11
2.653660723736461
 21
4.366292333211604
 72
     1
 10
2.653660723736461
 20
4.366292333211604
 11
2.653660723736461
 21
4.523772648172234
 97
        0
 75
     0
 76
     1
 52
0.0
 41
1.125
 77
     0
 78
     1
 53
45.0
 43
0.0
 44
0.0
 45
-0.0994368911043582
 46
0.0994368911043583
 79
     0
 98
        1
 10
0.0
 20
0.0
  0
HATCH
  5
393
330
1F
100
AcDbEntity
  8
0
  6
Continuous
 62
     7
370
     0
100
AcDbHatch
 10
0.0
 20
0.0
 30
0.0
210
0.0
220
0.0
230
1.0
  2
ANSI31
 70
     0
 71
     0
 91
        1
 92
        0
 93
       28
 72
     1
 10
7.092024370551962
 20
4.720623041873021
 11
7.092024370551962
 21
4.759993120613179
 72
     1
 10
7.092024370551962
 20
4.759993120613179
 11
7.068402323307867
 21
4.759993120613179
 72
     1
 10
7.068402323307867
 20
4.759993120613179
 11
7.068402323307867
 21
4.700938002502943
 72
     1
 10
7.068402323307867
 20
4.700938002502943
 11
7.022000289098238
 21
4.700938002502943
 72
     1
 10
7.022000289098238
 20
4.700938002502943
 11
7.009001509197327
 21
4.45290650643995
 72
     1
 10
7.009001509197327
 20
4.45290650643995
 11
3.080559042930219
 21
4.45290650643995
 72
     1
 10
3.080559042930219
 20
4.45290650643995
 11
3.067560263029307
 21
4.700938002502943
 72
     1
 10
3.067560263029307
 20
4.700938002502943
 11
3.021158228819678
 21
4.700938002502943
 72
     1
 10
3.021158228819678
 20
4.700938002502943
 11
3.021158228819678
 21
4.759993120613179
 72
     1
 10
3.021158228819678
 20
4.759993120613179
 11
2.997536181575583
 21
4.759993120613179
 72
     1
 10
2.997536181575583
 20
4.759993120613179
 11
2.997536181575584
 21
4.720623041873021
 72
     1
 10
2.997536181575584
 20
4.720623041873021
 11
2.975787843808674
 21
4.720623041875688
 72
     1
 10
2.975787843808674
 20
4.720623041875688
 11
2.965471351823783
 21
4.523772648172234
 72
     1
 10
2.965471351823783
 20
4.523772648172234
 11
2.829600615792659
 21
4.523772648172234
 72
     1
 10
2.829600615792659
 20
4.523772648172234
 11
2.829600615792659
 21
4.366292333211604
 72
     1
 10
2.829600615792659
 20
4.366292333211604
 11
2.908629926362508
 21
4.366292333211604
 72
     1
 10
2.908629926362508
 20
4.366292333211604
 11
2.908629926362508
 21
4.445032490691919
 72
     1
 10
2.908629926362508
 20
4.445032490691919
 11
2.945786312453605
 21
4.445032490691919
 72
     1
 10
2.945786312453605
 20
4.445032490691919
 11
2.945786312453605
 21
4.366292333211604
 72
     1
 10
2.945786312453605
 20
4.366292333211604
 11
7.143774239673941
 21
4.366292333211604
 72
     1
 10
7.143774239673941
 20
4.366292333211604
 11
7.143774239673941
 21
4.445032490691919
 72
     1
 10
7.143774239673941
 20
4.445032490691919
 11
7.180930625765038
 21
4.445032490691919
 72
     1
 10
7.180930625765038
 20
4.445032490691919
 11
7.180930625765038
 21
4.366292333211604
 72
     1
 10
7.180930625765038
 20
4.366292333211604
 11
7.259959936334887
 21
4.366292333211604
 72
     1
 10
7.259959936334887
 20
4.366292333211604
 11
7.259959936334887
 21
4.523772648172234
 72
     1
 10
7.259959936334887
 20
4.523772648172234
 11
7.124089200303762
 21
4.523772648172234
 72
     1
 10
7.124089200303762
 20
4.523772648172234
 11
7.113772708318871
 21
4.720623041875688
 72
     1
 10
7.113772708318871
 20
4.720623041875688
 11
7.092024370551962
 21
4.720623041873021
 97
        0
 75
     0
 76
     1
 52
0.0
 41
1.125
 77
     0
 78
     1
 53
45.0
 43
0.0
 44
0.0
 45
-0.0994368911043582
 46
0.0994368911043583
 79
     0
 98
        1
 10
0.0
 20
0.0
  0
HATCH
  5
394
330
1F
100
AcDbEntity
  8
0
  6
Continuous
 62
     7
370
     0
100
AcDbHatch
 10
0.0
 20
0.0
 30
0.0
210
0.0
220
0.0
230
1.0
  2
ANSI31
 70
     0
 71
     0
 91
        1
 92
        0
 93
        5
 72
     1
 10
7.544780276063774
 20
4.366292333211604
 11
7.544780276063774
 21
4.484402569432076
 72
     2
 10
7.505410197323616
 20
4.484402569432076
 40
0.0393700787401575
 50
0.0
 51
90.0
 73
     1
 72
     1
 10
7.505410197323616
 20
4.523772648172234
 11
7.435899828391085
 21
4.523772648172234
 72
     1
 10
7.435899828391085
 20
4.523772648172234
 11
7.435899828391085
 21
4.366292333211604
 72
     1
 10
7.435899828391085
 20
4.366292333211604
 11
7.544780276063774
 21
4.366292333211604
 97
        0
 75
     0
 76
     1
 52
0.0
 41
1.125
 77
     0
 78
     1
 53
45.0
 43
0.0
 44
0.0
 45
-0.0994368911043582
 46
0.0994368911043583
 79
     0
 98
        1
 10
0.0
 20
0.0
  0
DIMENSION
  5
395
330
1F
100
AcDbEntity
  8
0
  6
Continuous
 62
     7
370
     0
100
AcDbDimension
  2
*D24
 10
3.332785902
 20
4.6497569001
 30
0.0
 11
3.332785902
 21
5.0958096559
 31
0.0
 70
   160
 71
     2
 42
-1.0
  3
SLDDIMSTYLE5
100
AcDbAlignedDimension
 13
3.0805590429
 23
4.4529065064
 33
0.0
 14
3.5127832416
 24
4.6497569001
 34
0.0
 50
90.0
100
AcDbRotatedDimension
  0
DIMENSION
  5
3AA
330
1F
100
AcDbEntity
  8
0
  6
Continuous
 62
     7
370
     0
100
AcDbDimension
  2
*D25
 10
2.2038263646
 20
4.3662923332
 30
0.0
 11
2.2038263646
 21
3.9233748892
 31
0.0
 70
   160
 71
     2
 42
-1.0
  3
SLDDIMSTYLE6
100
AcDbAlignedDimension
 13
2.5841503548
 23
4.5237726482
 33
0.0
 14
2.5447802761
 24
4.3662923332
 34
0.0
 50
90.0
100
AcDbRotatedDimension
  0
DIMENSION
  5
3C0
330
1F
100
AcDbEntity
  8
0
  6
Continuous
 62
     7
370
     0
100
AcDbDimension
  2
*D26
 10
1.5703548978
 20
4.7599931206
 30
0.0
 11
1.5703548978
 21
5.0958096559
 31
0.0
 70
   160
 71
     2
 42
-1.0
  3
SLDDIMSTYLE6
100
AcDbAlignedDimension
 13
2.5447802761
 23
4.3662923332
 33
0.0
 14
2.9975361816
 24
4.7599931206
 34
0.0
 50
90.0
100
AcDbRotatedDimension
  0
DIMENSION
  5
3D5
330
1F
100
AcDbEntity
  8
0
  6
Continuous
 62
     7
370
     0
100
AcDbDimension
  2
*D27
 10
6.7816604216
 20
4.3662923332
 30
0.0
 11
6.7816604216
 21
4.0221290627
 31
0.0
 70
   160
 71
     2
 42
-1.0
  3
SLDDIMSTYLE6
100
AcDbAlignedDimension
 13
7.0090015092
 23
4.4529065064
 33
0.0
 14
7.1437742397
 24
4.3662923332
 34
0.0
 50
90.0
100
AcDbRotatedDimension
  0
MTEXT
  5
3E8
330
1F
100
AcDbEntity
  8
0
  6
Continuous
 62
     7
370
     0
100
AcDbMText
 10
5.1373583903
 20
4.0686393004
 30
0.0
 40
0.140625
 41
0.0
 71
     2
 72
     1
  1
\LSECTION A-A
  7
SLDTEXTSTYLE0
 73
     1
 44
1.0
  0
LINE
  5
3E9
330
1F
100
AcDbEntity
  8
0
  6
Continuous
 62
     7
370
    15
100
AcDbLine
 10
11.0288465462
 20
9.4153339214
 30
0.0
 11
10.4776655002
 21
9.4153339214
 31
0.0
  0
LINE
  5
3EA
330
1F
100
AcDbEntity
  8
0
  6
Continuous
 62
     7
370
    15
100
AcDbLine
 10
10.4776655002
 20
9.4471301541
 30
0.0
 11
10.4776655002
 21
9.4153339214
 31
0.0
  0
LINE
  5
3EB
330
1F
100
AcDbEntity
  8
0
  6
Continuous
 62
     7
370
    15
100
AcDbLine
 10
11.0288465462
 20
9.4471301541
 30
0.0
 11
10.4776655002
 21
9.4471301541
 31
0.0
  0
LINE
  5
3EC
330
1F
100
AcDbEntity
  8
0
  6
Continuous
 62
     7
370
    15
100
AcDbLine
 10
11.0288465462
 20
9.4471301541
 30
0.0
 11
11.0288465462
 21
9.4153339214
 31
0.0
  0
LINE
  5
3ED
330
1F
100
AcDbEntity
  8
0
  6
Continuous
 62
     7
370
    15
100
AcDbLine
 10
12.9186103422
 20
6.7640332295
 30
0.0
 11
12.3674292961
 21
6.7640332295
 31
0.0
  0
LINE
  5
3EE
330
1F
100
AcDbEntity
  8
0
  6
Continuous
 62
     7
370
    15
100
AcDbLine
 10
12.3674292961
 20
6.7958294622
 30
0.0
 11
12.9186103422
 21
6.7958294622
 31
0.0
  0
LINE
  5
3EF
330
1F
100
AcDbEntity
  8
0
  6
Continuous
 62
     7
370
    15
100
AcDbLine
 10
12.9186103422
 20
6.7640332295
 30
0.0
 11
12.9186103422
 21
6.7958294622
 31
0.0
  0
LINE
  5
3F0
330
1F
100
AcDbEntity
  8
0
  6
Continuous
 62
     7
370
    15
100
AcDbLine
 10
12.3674292961
 20
6.7640332295
 30
0.0
 11
12.3674292961
 21
6.7958294622
 31
0.0
  0
LINE
  5
3F1
330
1F
100
AcDbEntity
  8
0
  6
Continuous
 62
     7
370
    15
100
AcDbLine
 10
10.4776655002
 20
9.4471301541
 30
0.0
 11
10.4776655002
 21
9.4671788158
 31
0.0
  0
LINE
  5
3F2
330
1F
100
AcDbEntity
  8
0
  6
Continuous
 62
     7
370
    15
100
AcDbLine
 10
10.4776655002
 20
9.4671788158
 30
0.0
 11
11.0288465462
 21
9.4671788158
 31
0.0
  0
LINE
  5
3F3
330
1F
100
AcDbEntity
  8
0
  6
Continuous
 62
     7
370
    15
100
AcDbLine
 10
11.0288465462
 20
9.4671788158
 30
0.0
 11
11.0288465462
 21
9.4471301541
 31
0.0
  0
LINE
  5
3F4
330
1F
100
AcDbEntity
  8
0
  6
Continuous
 62
     7
370
    15
100
AcDbLine
 10
12.9186103422
 20
6.7439845678
 30
0.0
 11
12.3674292961
 21
6.7439845678
 31
0.0
  0
LINE
  5
3F5
330
1F
100
AcDbEntity
  8
0
  6
Continuous
 62
     7
370
    15
100
AcDbLine
 10
12.9186103422
 20
6.7439845678
 30
0.0
 11
12.9186103422
 21
6.7640332295
 31
0.0
  0
LINE
  5
3F6
330
1F
100
AcDbEntity
  8
0
  6
Continuous
 62
     7
370
    15
100
AcDbLine
 10
12.3674292961
 20
6.7640332295
 30
0.0
 11
12.3674292961
 21
6.7439845678
 31
0.0
  0
LINE
  5
3F7
330
1F
100
AcDbEntity
  8
0
  6
Continuous
 62
     7
370
    15
100
AcDbLine
 10
12.9579805007
 20
9.4087313577
 30
0.0
 11
12.9186103422
 21
9.4087313577
 31
0.0
  0
LINE
  5
3F8
330
1F
100
AcDbEntity
  8
0
  6
Continuous
 62
     7
370
    15
100
AcDbLine
 10
12.9579805007
 20
9.411826282
 30
0.0
 11
12.9579805007
 21
9.4087313577
 31
0.0
  0
LINE
  5
3F9
330
1F
100
AcDbEntity
  8
0
  6
Continuous
 62
     7
370
    15
100
AcDbLine
 10
13.6815478886
 20
9.411826282
 30
0.0
 11
12.9579805007
 21
9.411826282
 31
0.0
  0
LINE
  5
3FA
330
1F
100
AcDbEntity
  8
0
  6
Continuous
 62
     7
370
    15
100
AcDbLine
 10
13.6613274822
 20
9.3916058755
 30
0.0
 11
13.6815478886
 21
9.411826282
 31
0.0
  0
LINE
  5
3FB
330
1F
100
AcDbEntity
  8
0
  6
Continuous
 62
     7
370
    15
100
AcDbLine
 10
9.7349483601
 20
9.3916058755
 30
0.0
 11
13.6613274822
 21
9.3916058755
 31
0.0
  0
LINE
  5
3FC
330
1F
100
AcDbEntity
  8
0
  6
Continuous
 62
     7
370
    15
100
AcDbLine
 10
9.7349483601
 20
9.3916058755
 30
0.0
 11
9.7147279537
 21
9.411826282
 31
0.0
  0
LINE
  5
3FD
330
1F
100
AcDbEntity
  8
0
  6
Continuous
 62
     7
370
    15
100
AcDbLine
 10
10.4382953416
 20
9.411826282
 30
0.0
 11
9.7147279537
 21
9.411826282
 31
0.0
  0
LINE
  5
3FE
330
1F
100
AcDbEntity
  8
0
  6
Continuous
 62
     7
370
    15
100
AcDbLine
 10
10.4382953416
 20
9.4087313577
 30
0.0
 11
10.4382953416
 21
9.411826282
 31
0.0
  0
LINE
  5
3FF
330
1F
100
AcDbEntity
  8
0
  6
Continuous
 62
     7
370
    15
100
AcDbLine
 10
10.4776655002
 20
9.4087313577
 30
0.0
 11
10.4382953416
 21
9.4087313577
 31
0.0
  0
LINE
  5
400
330
1F
100
AcDbEntity
  8
0
  6
Continuous
 62
     7
370
    15
100
AcDbLine
 10
11.0682166314
 20
9.4087313577
 30
0.0
 11
11.0288465462
 21
9.4087313577
 31
0.0
  0
LINE
  5
401
330
1F
100
AcDbEntity
  8
0
  6
Continuous
 62
     7
370
    15
100
AcDbLine
 10
11.0682166314
 20
9.411826282
 30
0.0
 11
11.0682166314
 21
9.4087313577
 31
0.0
  0
LINE
  5
402
330
1F
100
AcDbEntity
  8
0
  6
Continuous
 62
     7
370
    15
100
AcDbLine
 10
12.3280592109
 20
9.411826282
 30
0.0
 11
11.0682166314
 21
9.411826282
 31
0.0
  0
LINE
  5
403
330
1F
100
AcDbEntity
  8
0
  6
Continuous
 62
     7
370
    15
100
AcDbLine
 10
12.3280592109
 20
9.4087313577
 30
0.0
 11
12.3280592109
 21
9.411826282
 31
0.0
  0
LINE
  5
404
330
1F
100
AcDbEntity
  8
0
  6
Continuous
 62
     7
370
    15
100
AcDbLine
 10
12.3674292961
 20
9.4087313577
 30
0.0
 11
12.3280592109
 21
9.4087313577
 31
0.0
  0
LINE
  5
405
330
1F
100
AcDbEntity
  8
0
  6
Continuous
 62
     7
370
    15
100
AcDbLine
 10
12.3674292961
 20
9.4153339214
 30
0.0
 11
12.3674292961
 21
9.4087313577
 31
0.0
  0
LINE
  5
406
330
1F
100
AcDbEntity
  8
0
  6
Continuous
 62
     7
370
    15
100
AcDbLine
 10
12.9186103422
 20
9.4153339214
 30
0.0
 11
12.3674292961
 21
9.4153339214
 31
0.0
  0
LINE
  5
407
330
1F
100
AcDbEntity
  8
0
  6
Continuous
 62
     7
370
    15
100
AcDbLine
 10
12.9186103422
 20
9.4087313577
 30
0.0
 11
12.9186103422
 21
9.4153339214
 31
0.0
  0
LINE
  5
408
330
1F
100
AcDbEntity
  8
0
  6
Continuous
 62
     7
370
    15
100
AcDbLine
 10
10.4776655002
 20
9.4153339214
 30
0.0
 11
10.4776655002
 21
9.4087313577
 31
0.0
  0
LINE
  5
409
330
1F
100
AcDbEntity
  8
0
  6
Continuous
 62
     7
370
    15
100
AcDbLine
 10
11.0288465462
 20
9.4087313577
 30
0.0
 11
11.0288465462
 21
9.4153339214
 31
0.0
  0
LINE
  5
40A
330
1F
100
AcDbEntity
  8
0
  6
Continuous
 62
     7
370
    15
100
AcDbLine
 10
11.0682166314
 20
6.8024320259
 30
0.0
 11
11.0682166314
 21
6.7993371017
 31
0.0
  0
LINE
  5
40B
330
1F
100
AcDbEntity
  8
0
  6
Continuous
 62
     7
370
    15
100
AcDbLine
 10
11.0288465462
 20
6.8024320259
 30
0.0
 11
11.0682166314
 21
6.8024320259
 31
0.0
  0
LINE
  5
40C
330
1F
100
AcDbEntity
  8
0
  6
Continuous
 62
     7
370
    15
100
AcDbLine
 10
11.0288465462
 20
6.7958294622
 30
0.0
 11
11.0288465462
 21
6.8024320259
 31
0.0
  0
LINE
  5
40D
330
1F
100
AcDbEntity
  8
0
  6
Continuous
 62
     7
370
    15
100
AcDbLine
 10
10.4776655002
 20
6.7958294622
 30
0.0
 11
11.0288465462
 21
6.7958294622
 31
0.0
  0
LINE
  5
40E
330
1F
100
AcDbEntity
  8
0
  6
Continuous
 62
     7
370
    15
100
AcDbLine
 10
10.4776655002
 20
6.8024320259
 30
0.0
 11
10.4776655002
 21
6.7958294622
 31
0.0
  0
LINE
  5
40F
330
1F
100
AcDbEntity
  8
0
  6
Continuous
 62
     7
370
    15
100
AcDbLine
 10
10.4382953416
 20
6.8024320259
 30
0.0
 11
10.4776655002
 21
6.8024320259
 31
0.0
  0
LINE
  5
410
330
1F
100
AcDbEntity
  8
0
  6
Continuous
 62
     7
370
    15
100
AcDbLine
 10
10.4382953416
 20
6.7993371017
 30
0.0
 11
10.4382953416
 21
6.8024320259
 31
0.0
  0
LINE
  5
411
330
1F
100
AcDbEntity
  8
0
  6
Continuous
 62
     7
370
    15
100
AcDbLine
 10
9.7147279537
 20
6.7993371017
 30
0.0
 11
10.4382953416
 21
6.7993371017
 31
0.0
  0
LINE
  5
412
330
1F
100
AcDbEntity
  8
0
  6
Continuous
 62
     7
370
    15
100
AcDbLine
 10
9.7349483601
 20
6.8195575081
 30
0.0
 11
9.7147279537
 21
6.7993371017
 31
0.0
  0
LINE
  5
413
330
1F
100
AcDbEntity
  8
0
  6
Continuous
 62
     7
370
    15
100
AcDbLine
 10
13.6613274822
 20
6.8195575081
 30
0.0
 11
9.7349483601
 21
6.8195575081
 31
0.0
  0
LINE
  5
414
330
1F
100
AcDbEntity
  8
0
  6
Continuous
 62
     7
370
    15
100
AcDbLine
 10
13.6815478886
 20
6.7993371017
 30
0.0
 11
13.6613274822
 21
6.8195575081
 31
0.0
  0
LINE
  5
415
330
1F
100
AcDbEntity
  8
0
  6
Continuous
 62
     7
370
    15
100
AcDbLine
 10
12.9579805007
 20
6.7993371017
 30
0.0
 11
13.6815478886
 21
6.7993371017
 31
0.0
  0
LINE
  5
416
330
1F
100
AcDbEntity
  8
0
  6
Continuous
 62
     7
370
    15
100
AcDbLine
 10
12.9579805007
 20
6.8024320259
 30
0.0
 11
12.9579805007
 21
6.7993371017
 31
0.0
  0
LINE
  5
417
330
1F
100
AcDbEntity
  8
0
  6
Continuous
 62
     7
370
    15
100
AcDbLine
 10
12.9186103422
 20
6.8024320259
 30
0.0
 11
12.9579805007
 21
6.8024320259
 31
0.0
  0
LINE
  5
418
330
1F
100
AcDbEntity
  8
0
  6
Continuous
 62
     7
370
    15
100
AcDbLine
 10
12.3280592109
 20
6.8024320259
 30
0.0
 11
12.3674292961
 21
6.8024320259
 31
0.0
  0
LINE
  5
419
330
1F
100
AcDbEntity
  8
0
  6
Continuous
 62
     7
370
    15
100
AcDbLine
 10
12.3280592109
 20
6.7993371017
 30
0.0
 11
12.3280592109
 21
6.8024320259
 31
0.0
  0
LINE
  5
41A
330
1F
100
AcDbEntity
  8
0
  6
Continuous
 62
     7
370
    15
100
AcDbLine
 10
11.0682166314
 20
6.7993371017
 30
0.0
 11
12.3280592109
 21
6.7993371017
 31
0.0
  0
LINE
  5
41B
330
1F
100
AcDbEntity
  8
0
  6
Continuous
 62
     7
370
    15
100
AcDbLine
 10
12.9186103422
 20
6.7958294622
 30
0.0
 11
12.9186103422
 21
6.8024320259
 31
0.0
  0
LINE
  5
41C
330
1F
100
AcDbEntity
  8
0
  6
Continuous
 62
     7
370
    15
100
AcDbLine
 10
12.3674292961
 20
6.8024320259
 30
0.0
 11
12.3674292961
 21
6.7958294622
 31
0.0
  0
LINE
  5
41D
330
1F
100
AcDbEntity
  8
0
  6
Continuous
 62
     7
370
    15
100
AcDbLine
 10
11.0288465462
 20
6.7439845678
 30
0.0
 11
10.4776655002
 21
6.7439845678
 31
0.0
  0
LINE
  5
41E
330
1F
100
AcDbEntity
  8
0
  6
Continuous
 62
     7
370
    15
100
AcDbLine
 10
11.0288465462
 20
6.7640332295
 30
0.0
 11
10.4776655002
 21
6.7640332295
 31
0.0
  0
LINE
  5
41F
330
1F
100
AcDbEntity
  8
0
  6
Continuous
 62
     7
370
    15
100
AcDbLine
 10
11.0288465462
 20
6.7439845678
 30
0.0
 11
11.0288465462
 21
6.7640332295
 31
0.0
  0
LINE
  5
420
330
1F
100
AcDbEntity
  8
0
  6
Continuous
 62
     7
370
    15
100
AcDbLine
 10
10.4776655002
 20
6.7640332295
 30
0.0
 11
10.4776655002
 21
6.7439845678
 31
0.0
  0
LINE
  5
421
330
1F
100
AcDbEntity
  8
0
  6
Continuous
 62
     7
370
    15
100
AcDbLine
 10
12.9186103422
 20
9.4471301541
 30
0.0
 11
12.3674292961
 21
9.4471301541
 31
0.0
  0
LINE
  5
422
330
1F
100
AcDbEntity
  8
0
  6
Continuous
 62
     7
370
    15
100
AcDbLine
 10
12.3674292961
 20
9.4671788158
 30
0.0
 11
12.9186103422
 21
9.4671788158
 31
0.0
  0
LINE
  5
423
330
1F
100
AcDbEntity
  8
0
  6
Continuous
 62
     7
370
    15
100
AcDbLine
 10
12.3674292961
 20
9.4471301541
 30
0.0
 11
12.3674292961
 21
9.4671788158
 31
0.0
  0
LINE
  5
424
330
1F
100
AcDbEntity
  8
0
  6
Continuous
 62
     7
370
    15
100
AcDbLine
 10
12.9186103422
 20
9.4671788158
 30
0.0
 11
12.9186103422
 21
9.4471301541
 31
0.0
  0
LINE
  5
425
330
1F
100
AcDbEntity
  8
0
  6
Continuous
 62
     7
370
    15
100
AcDbLine
 10
11.0288465462
 20
6.7640332295
 30
0.0
 11
11.0288465462
 21
6.7958294622
 31
0.0
  0
LINE
  5
426
330
1F
100
AcDbEntity
  8
0
  6
Continuous
 62
     7
370
    15
100
AcDbLine
 10
10.4776655002
 20
6.7640332295
 30
0.0
 11
10.4776655002
 21
6.7958294622
 31
0.0
  0
LINE
  5
427
330
1F
100
AcDbEntity
  8
0
  6
Continuous
 62
     7
370
    15
100
AcDbLine
 10
12.3674292961
 20
9.4153339214
 30
0.0
 11
12.3674292961
 21
9.4471301541
 31
0.0
  0
LINE
  5
428
330
1F
100
AcDbEntity
  8
0
  6
Continuous
 62
     7
370
    15
100
AcDbLine
 10
12.9186103422
 20
9.4471301541
 30
0.0
 11
12.9186103422
 21
9.4153339214
 31
0.0
  0
LINE
  5
429
330
1F
100
AcDbEntity
  8
0
  6
Continuous
 62
     7
370
    15
100
AcDbLine
 10
9.6784528661
 20
8.617392726
 30
0.0
 11
9.7068432448
 21
8.617392726
 31
0.0
  0
LINE
  5
42A
330
1F
100
AcDbEntity
  8
0
  6
Continuous
 62
     7
370
    15
100
AcDbLine
 10
9.7068432448
 20
9.089833675
 30
0.0
 11
9.7068432448
 21
8.617392726
 31
0.0
  0
LINE
  5
42B
330
1F
100
AcDbEntity
  8
0
  6
Continuous
 62
     7
370
    15
100
AcDbLine
 10
9.7068432448
 20
9.089833675
 30
0.0
 11
9.6784528661
 21
9.089833675
 31
0.0
  0
LINE
  5
42C
330
1F
100
AcDbEntity
  8
0
  6
Continuous
 62
     7
370
    15
100
AcDbLine
 10
9.6784528661
 20
9.4166053601
 30
0.0
 11
9.6784528661
 21
9.089833675
 31
0.0
  0
ARC
  5
42D
330
1F
100
AcDbEntity
  8
0
  6
Continuous
 62
     7
370
    15
100
AcDbCircle
 10
9.7099489448
 20
9.4166053138
 30
0.0
 40
0.0314960629921277
100
AcDbArc
 50
90.0
 51
180.0
  0
LINE
  5
42E
330
1F
100
AcDbEntity
  8
0
  6
Continuous
 62
     7
370
    15
100
AcDbLine
 10
10.4382953416
 20
9.4481013696
 30
0.0
 11
9.7099488756
 21
9.4481013696
 31
0.0
  0
LINE
  5
42F
330
1F
100
AcDbEntity
  8
0
  6
Continuous
 62
     7
370
    15
100
AcDbLine
 10
10.4382953416
 20
9.411826282
 30
0.0
 11
10.4382953416
 21
9.4481013696
 31
0.0
  0
LINE
  5
430
330
1F
100
AcDbEntity
  8
0
  6
Continuous
 62
     7
370
    15
100
AcDbLine
 10
9.7147279537
 20
9.411826282
 30
0.0
 11
9.7147279537
 21
6.7993371017
 31
0.0
  0
LINE
  5
431
330
1F
100
AcDbEntity
  8
0
  6
Continuous
 62
     7
370
    15
100
AcDbLine
 10
10.4382953416
 20
6.763062014
 30
0.0
 11
10.4382953416
 21
6.7993371017
 31
0.0
  0
LINE
  5
432
330
1F
100
AcDbEntity
  8
0
  6
Continuous
 62
     7
370
    15
100
AcDbLine
 10
9.7099488756
 20
6.763062014
 30
0.0
 11
10.4382953416
 21
6.763062014
 31
0.0
  0
ARC
  5
433
330
1F
100
AcDbEntity
  8
0
  6
Continuous
 62
     7
370
    15
100
AcDbCircle
 10
9.7099489448
 20
6.7945580698
 30
0.0
 40
0.0314960629921277
100
AcDbArc
 50
180.0
 51
270.0
  0
LINE
  5
434
330
1F
100
AcDbEntity
  8
0
  6
Continuous
 62
     7
370
    15
100
AcDbLine
 10
9.6784528661
 20
7.1213297086
 30
0.0
 11
9.6784528661
 21
6.7945580235
 31
0.0
  0
LINE
  5
435
330
1F
100
AcDbEntity
  8
0
  6
Continuous
 62
     7
370
    15
100
AcDbLine
 10
9.6784528661
 20
7.1213297086
 30
0.0
 11
9.7068432448
 21
7.1213297086
 31
0.0
  0
LINE
  5
436
330
1F
100
AcDbEntity
  8
0
  6
Continuous
 62
     7
370
    15
100
AcDbLine
 10
9.7068432448
 20
7.5937706576
 30
0.0
 11
9.7068432448
 21
7.1213297086
 31
0.0
  0
LINE
  5
437
330
1F
100
AcDbEntity
  8
0
  6
Continuous
 62
     7
370
    15
100
AcDbLine
 10
9.7068432448
 20
7.5937706576
 30
0.0
 11
9.6784528661
 21
7.5937706576
 31
0.0
  0
LINE
  5
438
330
1F
100
AcDbEntity
  8
0
  6
Continuous
 62
     7
370
    15
100
AcDbLine
 10
9.6784528661
 20
8.617392726
 30
0.0
 11
9.6784528661
 21
7.5937706576
 31
0.0
  0
LINE
  5
439
330
1F
100
AcDbEntity
  8
0
  6
Continuous
 62
     7
370
    15
100
AcDbLine
 10
13.7178229762
 20
7.5937706576
 30
0.0
 11
13.6894325976
 21
7.5937706576
 31
0.0
  0
LINE
  5
43A
330
1F
100
AcDbEntity
  8
0
  6
Continuous
 62
     7
370
    15
100
AcDbLine
 10
13.6894325976
 20
7.1213297086
 30
0.0
 11
13.6894325976
 21
7.5937706576
 31
0.0
  0
LINE
  5
43B
330
1F
100
AcDbEntity
  8
0
  6
Continuous
 62
     7
370
    15
100
AcDbLine
 10
13.7178229762
 20
6.7945580235
 30
0.0
 11
13.7178229762
 21
7.1213297086
 31
0.0
  0
ARC
  5
43C
330
1F
100
AcDbEntity
  8
0
  6
Continuous
 62
     7
370
    15
100
AcDbCircle
 10
13.6863268975
 20
6.7945580698
 30
0.0
 40
0.0314960629921268
100
AcDbArc
 50
270.0
 51
0.0
  0
LINE
  5
43D
330
1F
100
AcDbEntity
  8
0
  6
Continuous
 62
     7
370
    15
100
AcDbLine
 10
12.9579805007
 20
6.763062014
 30
0.0
 11
13.6863269668
 21
6.763062014
 31
0.0
  0
LINE
  5
43E
330
1F
100
AcDbEntity
  8
0
  6
Continuous
 62
     7
370
    15
100
AcDbLine
 10
12.9579805007
 20
6.7993371017
 30
0.0
 11
12.9579805007
 21
6.763062014
 31
0.0
  0
LINE
  5
43F
330
1F
100
AcDbEntity
  8
0
  6
Continuous
 62
     7
370
    15
100
AcDbLine
 10
13.6815478886
 20
6.7993371017
 30
0.0
 11
13.6815478886
 21
9.411826282
 31
0.0
  0
LINE
  5
440
330
1F
100
AcDbEntity
  8
0
  6
Continuous
 62
     7
370
    15
100
AcDbLine
 10
12.9579805007
 20
9.411826282
 30
0.0
 11
12.9579805007
 21
9.4481013696
 31
0.0
  0
LINE
  5
441
330
1F
100
AcDbEntity
  8
0
  6
Continuous
 62
     7
370
    15
100
AcDbLine
 10
13.6863269668
 20
9.4481013696
 30
0.0
 11
12.9579805007
 21
9.4481013696
 31
0.0
  0
ARC
  5
442
330
1F
100
AcDbEntity
  8
0
  6
Continuous
 62
     7
370
    15
100
AcDbCircle
 10
13.6863268975
 20
9.4166053138
 30
0.0
 40
0.0314960629921277
100
AcDbArc
 50
0.0
 51
90.0
  0
LINE
  5
443
330
1F
100
AcDbEntity
  8
0
  6
Continuous
 62
     7
370
    15
100
AcDbLine
 10
13.7178229762
 20
9.089833675
 30
0.0
 11
13.7178229762
 21
9.4166053601
 31
0.0
  0
LINE
  5
444
330
1F
100
AcDbEntity
  8
0
  6
Continuous
 62
     7
370
    15
100
AcDbLine
 10
13.7178229762
 20
9.089833675
 30
0.0
 11
13.6894325976
 21
9.089833675
 31
0.0
  0
LINE
  5
445
330
1F
100
AcDbEntity
  8
0
  6
Continuous
 62
     7
370
    15
100
AcDbLine
 10
13.6894325976
 20
8.617392726
 30
0.0
 11
13.6894325976
 21
9.089833675
 31
0.0
  0
LINE
  5
446
330
1F
100
AcDbEntity
  8
0
  6
Continuous
 62
     7
370
    15
100
AcDbLine
 10
13.6894325976
 20
8.617392726
 30
0.0
 11
13.7178229762
 21
8.617392726
 31
0.0
  0
LINE
  5
447
330
1F
100
AcDbEntity
  8
0
  6
Continuous
 62
     7
370
    15
100
AcDbLine
 10
13.7178229762
 20
7.5937706576
 30
0.0
 11
13.7178229762
 21
8.617392726
 31
0.0
  0
LINE
  5
448
330
1F
100
AcDbEntity
  8
0
  6
Continuous
 62
     7
370
    15
100
AcDbLine
 10
13.6894325976
 20
7.1213297086
 30
0.0
 11
13.7178229762
 21
7.1213297086
 31
0.0
  0
LINE
  5
449
330
1F
100
AcDbEntity
  8
0
  6
Continuous
 62
     7
370
    15
100
AcDbLine
 10
9.7349483601
 20
6.8195575081
 30
0.0
 11
9.7349483601
 21
9.3916058755
 31
0.0
  0
LINE
  5
44A
330
1F
100
AcDbEntity
  8
0
  6
Continuous
 62
     7
370
    15
100
AcDbLine
 10
13.6613274822
 20
9.3916058755
 30
0.0
 11
13.6613274822
 21
6.8195575081
 31
0.0
  0
LINE
  5
44B
330
1F
100
AcDbEntity
  8
0
  6
Continuous
 62
     7
370
    15
100
AcDbLine
 10
12.3280592109
 20
9.4481013696
 30
0.0
 11
11.0682166314
 21
9.4481013696
 31
0.0
  0
LINE
  5
44C
330
1F
100
AcDbEntity
  8
0
  6
Continuous
 62
     7
370
    15
100
AcDbLine
 10
12.3280592109
 20
9.411826282
 30
0.0
 11
12.3280592109
 21
9.4481013696
 31
0.0
  0
LINE
  5
44D
330
1F
100
AcDbEntity
  8
0
  6
Continuous
 62
     7
370
    15
100
AcDbLine
 10
11.0682166314
 20
9.411826282
 30
0.0
 11
11.0682166314
 21
9.4481013696
 31
0.0
  0
LINE
  5
44E
330
1F
100
AcDbEntity
  8
0
  6
Continuous
 62
     7
370
    15
100
AcDbLine
 10
11.0682166314
 20
6.7993371017
 30
0.0
 11
11.0682166314
 21
6.763062014
 31
0.0
  0
LINE
  5
44F
330
1F
100
AcDbEntity
  8
0
  6
Continuous
 62
     7
370
    15
100
AcDbLine
 10
11.0682166314
 20
6.763062014
 30
0.0
 11
12.3280592109
 21
6.763062014
 31
0.0
  0
LINE
  5
450
330
1F
100
AcDbEntity
  8
0
  6
Continuous
 62
     7
370
    15
100
AcDbLine
 10
12.3280592109
 20
6.7993371017
 30
0.0
 11
12.3280592109
 21
6.763062014
 31
0.0
  0
LINE
  5
451
330
1F
100
AcDbEntity
  8
0
  6
Continuous
 62
     7
370
    15
100
AcDbLine
 10
9.6312088518
 20
9.089833675
 30
0.0
 11
9.6312088518
 21
9.4166053601
 31
0.0
  0
ARC
  5
452
330
1F
100
AcDbEntity
  8
0
  6
Continuous
 62
     7
370
    15
100
AcDbCircle
 10
9.7099489448
 20
9.4166053138
 30
0.0
 40
0.0787401574803255
100
AcDbArc
 50
90.0
 51
179.9999999999
  0
LINE
  5
453
330
1F
100
AcDbEntity
  8
0
  6
Continuous
 62
     7
370
    15
100
AcDbLine
 10
9.7099488756
 20
9.4953455305
 30
0.0
 11
13.6863269668
 21
9.4953455305
 31
0.0
  0
ARC
  5
454
330
1F
100
AcDbEntity
  8
0
  6
Continuous
 62
     7
370
    15
100
AcDbCircle
 10
13.6863268975
 20
9.4166053138
 30
0.0
 40
0.0787401574803237
100
AcDbArc
 50
0.0000000001
 51
90.0
  0
LINE
  5
455
330
1F
100
AcDbEntity
  8
0
  6
Continuous
 62
     7
370
    15
100
AcDbLine
 10
13.7650669905
 20
9.4166053601
 30
0.0
 11
13.7650669905
 21
9.089833675
 31
0.0
  0
LINE
  5
456
330
1F
100
AcDbEntity
  8
0
  6
Continuous
 62
     7
370
    15
100
AcDbLine
 10
13.7650669905
 20
9.089833675
 30
0.0
 11
13.7178229762
 21
9.089833675
 31
0.0
  0
LINE
  5
457
330
1F
100
AcDbEntity
  8
0
  6
Continuous
 62
     7
370
    15
100
AcDbLine
 10
9.6784528661
 20
9.089833675
 30
0.0
 11
9.6312088518
 21
9.089833675
 31
0.0
  0
LINE
  5
458
330
1F
100
AcDbEntity
  8
0
  6
Continuous
 62
     7
370
    15
100
AcDbLine
 10
13.7650669905
 20
7.1213297086
 30
0.0
 11
13.7650669905
 21
6.7945580235
 31
0.0
  0
ARC
  5
459
330
1F
100
AcDbEntity
  8
0
  6
Continuous
 62
     7
370
    15
100
AcDbCircle
 10
13.6863268975
 20
6.7945580698
 30
0.0
 40
0.0787401574803246
100
AcDbArc
 50
270.0
 51
0.0000000001
  0
LINE
  5
45A
330
1F
100
AcDbEntity
  8
0
  6
Continuous
 62
     7
370
    15
100
AcDbLine
 10
13.6863269668
 20
6.7158178531
 30
0.0
 11
9.7099488756
 21
6.7158178531
 31
0.0
  0
ARC
  5
45B
330
1F
100
AcDbEntity
  8
0
  6
Continuous
 62
     7
370
    15
100
AcDbCircle
 10
9.7099489448
 20
6.7945580698
 30
0.0
 40
0.0787401574803255
100
AcDbArc
 50
179.9999999999
 51
270.0
  0
LINE
  5
45C
330
1F
100
AcDbEntity
  8
0
  6
Continuous
 62
     7
370
    15
100
AcDbLine
 10
9.6312088518
 20
6.7945580235
 30
0.0
 11
9.6312088518
 21
7.1213297086
 31
0.0
  0
LINE
  5
45D
330
1F
100
AcDbEntity
  8
0
  6
Continuous
 62
     7
370
    15
100
AcDbLine
 10
9.6784528661
 20
7.1213297086
 30
0.0
 11
9.6312088518
 21
7.1213297086
 31
0.0
  0
LINE
  5
45E
330
1F
100
AcDbEntity
  8
0
  6
Continuous
 62
     7
370
    15
100
AcDbLine
 10
13.7178229762
 20
7.1213297086
 30
0.0
 11
13.7650669905
 21
7.1213297086
 31
0.0
  0
LINE
  5
45F
330
1F
100
AcDbEntity
  8
0
  6
Continuous
 62
     7
370
    15
100
AcDbLine
 10
9.6312088518
 20
7.5937706576
 30
0.0
 11
9.6312088518
 21
8.617392726
 31
0.0
  0
LINE
  5
460
330
1F
100
AcDbEntity
  8
0
  6
Continuous
 62
     7
370
    15
100
AcDbLine
 10
9.6312088518
 20
7.5937706576
 30
0.0
 11
9.6784528661
 21
7.5937706576
 31
0.0
  0
LINE
  5
461
330
1F
100
AcDbEntity
  8
0
  6
Continuous
 62
     7
370
    15
100
AcDbLine
 10
9.6312088518
 20
8.617392726
 30
0.0
 11
9.6784528661
 21
8.617392726
 31
0.0
  0
LINE
  5
462
330
1F
100
AcDbEntity
  8
0
  6
Continuous
 62
     7
370
    15
100
AcDbLine
 10
13.7650669905
 20
8.617392726
 30
0.0
 11
13.7650669905
 21
7.5937706576
 31
0.0
  0
LINE
  5
463
330
1F
100
AcDbEntity
  8
0
  6
Continuous
 62
     7
370
    15
100
AcDbLine
 10
13.7650669905
 20
8.617392726
 30
0.0
 11
13.7178229762
 21
8.617392726
 31
0.0
  0
LINE
  5
464
330
1F
100
AcDbEntity
  8
0
  6
Continuous
 62
     7
370
    15
100
AcDbLine
 10
13.7650669905
 20
7.5937706576
 30
0.0
 11
13.7178229762
 21
7.5937706576
 31
0.0
  0
ARC
  5
465
330
1F
100
AcDbEntity
  8
0
  6
Continuous
 62
     7
370
    15
100
AcDbCircle
 10
10.7578530932
 20
6.8243781429
 30
0.0
 40
0.1095923247189985
100
AcDbArc
 50
267.5959081499
 51
277.869301263
  0
ARC
  5
466
330
1F
100
AcDbEntity
  8
0
  6
Continuous
 62
     7
370
    15
100
AcDbCircle
 10
10.7486589832
 20
6.8243787725
 30
0.0
 40
0.1095929525310912
100
AcDbArc
 50
262.1307282421
 51
272.4040623451
  0
ARC
  5
467
330
1F
100
AcDbEntity
  8
0
  6
Continuous
 62
     7
370
    15
100
AcDbCircle
 10
12.6476168591
 20
6.8243787725
 30
0.0
 40
0.1095929525309885
100
AcDbArc
 50
267.5959376549
 51
277.8692717579
  0
ARC
  5
468
330
1F
100
AcDbEntity
  8
0
  6
Continuous
 62
     7
370
    15
100
AcDbCircle
 10
12.6384227491
 20
6.8243781429
 30
0.0
 40
0.1095923247188628
100
AcDbArc
 50
262.130698737
 51
272.4040918501
  0
ARC
  5
469
330
1F
100
AcDbEntity
  8
0
  6
Continuous
 62
     7
370
    15
100
AcDbCircle
 10
10.7532560232
 20
9.3270767667
 30
0.0
 40
0.1694066302847732
100
AcDbArc
 50
83.3555126845
 51
96.6444873155
  0
ARC
  5
46A
330
1F
100
AcDbEntity
  8
0
  6
Continuous
 62
     7
370
    15
100
AcDbCircle
 10
12.6430198191
 20
9.3270767667
 30
0.0
 40
0.1694066302847644
100
AcDbArc
 50
83.3555126845
 51
96.6444873155
  0
LINE
  5
46B
330
1F
100
AcDbEntity
  8
0
  6
Continuous
 62
     7
370
    15
100
AcDbLine
 10
13.7525705482
 20
7.5937706576
 30
0.0
 11
13.7525705482
 21
7.1213297086
 31
0.0
  0
LINE
  5
46C
330
1F
100
AcDbEntity
  8
0
  6
Continuous
 62
     7
370
    15
100
AcDbLine
 10
9.6437052941
 20
8.617392726
 30
0.0
 11
9.6437052941
 21
9.089833675
 31
0.0
  0
LINE
  5
46D
330
1F
100
AcDbEntity
  8
0
  6
Continuous
 62
     7
370
    15
100
AcDbLine
 10
13.7525705482
 20
9.089833675
 30
0.0
 11
13.7525705482
 21
8.617392726
 31
0.0
  0
LINE
  5
46E
330
1F
100
AcDbEntity
  8
0
  6
Continuous
 62
     7
370
    15
100
AcDbLine
 10
9.6437052941
 20
7.1213297086
 30
0.0
 11
9.6437052941
 21
7.5937706576
 31
0.0
  0
DIMENSION
  5
46F
330
1F
100
AcDbEntity
  8
0
  6
Continuous
 62
     7
370
     0
100
AcDbDimension
  2
*D28
 10
13.765067055
 20
10.641218838
 30
0.0
 11
11.6981379212
 21
10.641218838
 31
0.0
 70
   160
 71
     2
 42
-1.0
  3
SLDDIMSTYLE2
100
AcDbAlignedDimension
 13
9.6312087873
 23
9.4166053138
 33
0.0
 14
13.765067055
 24
9.4166053138
 34
0.0
 50
0.0
100
AcDbRotatedDimension
  0
DIMENSION
  5
483
330
1F
100
AcDbEntity
  8
0
  6
Continuous
 62
     7
370
     0
100
AcDbDimension
  2
*D29
 10
13.6815478294
 20
10.061328941
 30
0.0
 11
11.6981379212
 21
10.061328941
 31
0.0
 70
   160
 71
     2
 42
-1.0
  3
SLDDIMSTYLE2
100
AcDbAlignedDimension
 13
9.7147280129
 23
9.4118262457
 33
0.0
 14
13.6815478294
 24
9.4118262457
 34
0.0
100
AcDbRotatedDimension
  0
DIMENSION
  5
497
330
1F
100
AcDbEntity
  8
0
  6
Continuous
 62
     7
370
     0
100
AcDbDimension
  2
*D30
 10
14.739480562
 20
9.4953454713
 30
0.0
 11
14.739480562
 21
8.1055816918
 31
0.0
 70
   160
 71
     2
 42
-1.0
  3
SLDDIMSTYLE2
100
AcDbAlignedDimension
 13
13.6863268975
 23
6.7158179123
 33
0.0
 14
13.6863268975
 24
9.4953454713
 34
0.0
 50
90.0
100
AcDbRotatedDimension
  0
DIMENSION
  5
4AB
330
1F
100
AcDbEntity
  8
0
  6
Continuous
 62
     7
370
     0
100
AcDbDimension
  2
*D31
 10
14.1396867352
 20
6.7993371379
 30
0.0
 11
14.1396867352
 21
8.1055816918
 31
0.0
 70
   160
 71
     2
 42
-1.0
  3
SLDDIMSTYLE2
100
AcDbAlignedDimension
 13
13.6815478294
 23
9.4118262457
 33
0.0
 14
13.6815478294
 24
6.7993371379
 34
0.0
 50
90.0
100
AcDbRotatedDimension
  0
LINE
  5
4BF
330
1F
100
AcDbEntity
  8
0
  6
PHANTOM
 62
     7
370
    30
100
AcDbLine
 10
11.6981379212
 20
9.6836106571
 30
0.0
 11
11.6981379212
 21
6.5107511296
 31
0.0
  0
LINE
  5
4C0
330
1F
100
AcDbEntity
  8
0
  6
Continuous
 62
     7
370
    30
100
AcDbLine
 10
11.6981379212
 20
9.6836106571
 30
0.0
 11
11.1356379212
 21
9.6836106571
 31
0.0
  0
SOLID
  5
4C1
330
1F
100
AcDbEntity
  8
0
  6
Continuous
 62
     7
370
    30
100
AcDbTrace
 10
11.1356379212
 20
9.6836106571
 30
0.0
 11
11.4168879212
 21
9.6386106571
 31
0.0
 12
11.4168879212
 22
9.7286106571
 32
0.0
 13
11.4168879212
 23
9.7286106571
 33
0.0
  0
LINE
  5
4C2
330
1F
100
AcDbEntity
  8
0
  6
Continuous
 62
     7
370
    30
100
AcDbLine
 10
11.6981379212
 20
6.5107511296
 30
0.0
 11
11.1356379212
 21
6.5107511296
 31
0.0
  0
SOLID
  5
4C3
330
1F
100
AcDbEntity
  8
0
  6
Continuous
 62
     7
370
    30
100
AcDbTrace
 10
11.1356379212
 20
6.5107511296
 30
0.0
 11
11.4168879212
 21
6.4657511296
 31
0.0
 12
11.4168879212
 22
6.5557511296
 32
0.0
 13
11.4168879212
 23
6.5557511296
 33
0.0
  0
MTEXT
  5
4C4
330
1F
100
AcDbEntity
  8
0
  6
Continuous
 62
     7
100
AcDbMText
 10
10.9676908993
 20
9.7971990379
 30
0.0
 40
0.140625
 41
0.0
 71
     1
 72
     1
  1
B
  7
SLDTEXTSTYLE0
 73
     1
 44
1.0
  0
MTEXT
  5
4C5
330
1F
100
AcDbEntity
  8
0
  6
Continuous
 62
     7
100
AcDbMText
 10
10.9676908993
 20
6.6243395104
 30
0.0
 40
0.140625
 41
0.0
 71
     1
 72
     1
  1
B
  7
SLDTEXTSTYLE0
 73
     1
 44
1.0
  0
LINE
  5
4C6
330
1F
100
AcDbEntity
  8
0
  6
Continuous
 62
     7
370
    15
100
AcDbLine
 10
15.5509942591
 20
6.7168481746
 30
0.0
 11
15.5510972913
 21
6.7148822773
 31
0.0
  0
LINE
  5
4C7
330
1F
100
AcDbEntity
  8
0
  6
Continuous
 62
     7
370
    15
100
AcDbLine
 10
15.5904134037
 20
6.7169427735
 30
0.0
 11
15.5903104083
 21
6.7189086708
 31
0.0
  0
LINE
  5
4C8
330
1F
100
AcDbEntity
  8
0
  6
Continuous
 62
     7
370
    15
100
AcDbLine
 10
15.5903104083
 20
9.4922547128
 30
0.0
 11
15.5904134037
 21
9.4942206101
 31
0.0
  0
LINE
  5
4C9
330
1F
100
AcDbEntity
  8
0
  6
Continuous
 62
     7
370
    15
100
AcDbLine
 10
15.5510972913
 20
9.4962811063
 30
0.0
 11
15.5509942591
 21
9.494315209
 31
0.0
  0
LINE
  5
4CA
330
1F
100
AcDbEntity
  8
0
  6
Continuous
 62
     7
370
    15
100
AcDbLine
 10
15.5313362029
 20
9.4481013696
 30
0.0
 11
15.4722811117
 21
9.4481013696
 31
0.0
  0
LINE
  5
4CB
330
1F
100
AcDbEntity
  8
0
  6
Continuous
 62
     7
370
    15
100
AcDbLine
 10
15.5313362029
 20
9.4953455305
 30
0.0
 11
15.5313362029
 21
9.4481013696
 31
0.0
  0
LINE
  5
4CC
330
1F
100
AcDbEntity
  8
0
  6
Continuous
 62
     7
370
    15
100
AcDbLine
 10
15.5313362029
 20
6.763062014
 30
0.0
 11
15.5313362029
 21
6.7158178531
 31
0.0
  0
LINE
  5
4CD
330
1F
100
AcDbEntity
  8
0
  6
Continuous
 62
     7
370
    15
100
AcDbLine
 10
15.4722811117
 20
6.763062014
 30
0.0
 11
15.5313362029
 21
6.763062014
 31
0.0
  0
LINE
  5
4CE
330
1F
100
AcDbEntity
  8
0
  6
Continuous
 62
     7
370
    15
100
AcDbLine
 10
15.4722811117
 20
6.7993371017
 30
0.0
 11
15.4722811117
 21
6.763062014
 31
0.0
  0
LINE
  5
4CF
330
1F
100
AcDbEntity
  8
0
  6
Continuous
 62
     7
370
    15
100
AcDbLine
 10
15.4722811117
 20
9.4481013696
 30
0.0
 11
15.4722811117
 21
9.411826282
 31
0.0
  0
LINE
  5
4D0
330
1F
100
AcDbEntity
  8
0
  6
Continuous
 62
     7
370
    15
100
AcDbLine
 10
15.4722811117
 20
6.7993371017
 30
0.0
 11
15.858107888
 21
6.8195575081
 31
0.0
  0
LINE
  5
4D1
330
1F
100
AcDbEntity
  8
0
  6
Continuous
 62
     7
370
    15
100
AcDbLine
 10
15.858107888
 20
9.3916058755
 30
0.0
 11
15.858107888
 21
6.8195575081
 31
0.0
  0
LINE
  5
4D2
330
1F
100
AcDbEntity
  8
0
  6
Continuous
 62
     7
370
    15
100
AcDbLine
 10
15.858107888
 20
9.3916058755
 30
0.0
 11
15.4722811117
 21
9.411826282
 31
0.0
  0
LINE
  5
4D3
330
1F
100
AcDbEntity
  8
0
  6
Continuous
 62
     7
370
    15
100
AcDbLine
 10
15.5313362029
 20
9.4953455305
 30
0.0
 11
15.9074123984
 21
9.4756361048
 31
0.0
  0
LINE
  5
4D4
330
1F
100
AcDbEntity
  8
0
  6
Continuous
 62
     7
370
    15
100
AcDbLine
 10
15.9074123984
 20
6.7355272788
 30
0.0
 11
15.5313362029
 21
6.7158178531
 31
0.0
  0
LINE
  5
4D5
330
1F
100
AcDbEntity
  8
0
  6
Continuous
 62
     7
370
    15
100
AcDbLine
 10
15.9447220607
 20
9.4363200657
 30
0.0
 11
15.9447220607
 21
6.7748433179
 31
0.0
  0
ARC
  5
4D6
330
1F
100
AcDbEntity
  8
0
  6
Continuous
 62
     7
370
    15
100
AcDbCircle
 10
15.9053519597
 20
6.7748433552
 30
0.0
 40
0.0393700787401582
100
AcDbArc
 50
273.0
 51
0.0
  0
ARC
  5
4D7
330
1F
100
AcDbEntity
  8
0
  6
Continuous
 62
     7
370
    15
100
AcDbCircle
 10
15.9053519597
 20
9.4363200284
 30
0.0
 40
0.0393700787401582
100
AcDbArc
 50
0.0
 51
87.0
  0
LINE
  5
4D8
330
1F
100
AcDbEntity
  8
0
  6
Continuous
 62
     7
370
    15
100
AcDbLine
 10
15.4703125745
 20
9.4671788158
 30
0.0
 11
15.4703125745
 21
9.4481013696
 31
0.0
  0
LINE
  5
4D9
330
1F
100
AcDbEntity
  8
0
  6
Continuous
 62
     7
370
    15
100
AcDbLine
 10
15.4703125745
 20
9.4481013696
 30
0.0
 11
15.4722811117
 21
9.4481013696
 31
0.0
  0
LINE
  5
4DA
330
1F
100
AcDbEntity
  8
0
  6
Continuous
 62
     7
370
    15
100
AcDbLine
 10
15.4053519633
 20
9.4471301541
 30
0.0
 11
15.4053519633
 21
9.4153339214
 31
0.0
  0
LINE
  5
4DB
330
1F
100
AcDbEntity
  8
0
  6
Continuous
 62
     7
370
    15
100
AcDbLine
 10
15.4703125745
 20
9.4671788158
 30
0.0
 11
15.4053519633
 21
9.4471301541
 31
0.0
  0
LINE
  5
4DC
330
1F
100
AcDbEntity
  8
0
  6
Continuous
 62
     7
370
    15
100
AcDbLine
 10
15.4722811117
 20
9.411826282
 30
0.0
 11
15.4053519633
 21
9.4153339214
 31
0.0
  0
LINE
  5
4DD
330
1F
100
AcDbEntity
  8
0
  6
Continuous
 62
     7
370
    15
100
AcDbLine
 10
15.4703125745
 20
6.7439845678
 30
0.0
 11
15.4053519633
 21
6.7640332295
 31
0.0
  0
LINE
  5
4DE
330
1F
100
AcDbEntity
  8
0
  6
Continuous
 62
     7
370
    15
100
AcDbLine
 10
15.4053519633
 20
6.7640332295
 30
0.0
 11
15.4053519633
 21
6.7958294622
 31
0.0
  0
LINE
  5
4DF
330
1F
100
AcDbEntity
  8
0
  6
Continuous
 62
     7
370
    15
100
AcDbLine
 10
15.4722811117
 20
6.763062014
 30
0.0
 11
15.4703125745
 21
6.763062014
 31
0.0
  0
LINE
  5
4E0
330
1F
100
AcDbEntity
  8
0
  6
Continuous
 62
     7
370
    15
100
AcDbLine
 10
15.4703125745
 20
6.763062014
 30
0.0
 11
15.4703125745
 21
6.7439845678
 31
0.0
  0
LINE
  5
4E1
330
1F
100
AcDbEntity
  8
0
  6
Continuous
 62
     7
370
    15
100
AcDbLine
 10
15.4053519633
 20
6.7958294622
 30
0.0
 11
15.4722811117
 21
6.7993371017
 31
0.0
  0
LWPOLYLINE
  5
4E2
330
1F
100
AcDbEntity
  8
0
  6
Continuous
 62
     7
370
    15
100
AcDbPolyline
 90
       10
 70
   128
 43
0.0
 10
15.5510972913
 20
6.7148822773
 10
15.5524247559
 20
6.7149519431
 10
15.5562278887
 20
6.7151512608
 10
15.5619929954
 20
6.7154533907
 10
15.5689415418
 20
6.7158175598
 10
15.5761350553
 20
6.7161944888
 10
15.5826019906
 20
6.7165334315
 10
15.5874689944
 20
6.7167884819
 10
15.5900787143
 20
6.7169253203
 10
15.5904134037
 20
6.7169427735
  0
LWPOLYLINE
  5
4E3
330
1F
100
AcDbEntity
  8
0
  6
Continuous
 62
     7
370
    15
100
AcDbPolyline
 90
       10
 70
   128
 43
0.0
 10
15.5904134037
 20
9.4942206101
 10
15.5890859391
 20
9.4942901293
 10
15.585282843
 20
9.494489447
 10
15.5795176996
 20
9.4947915769
 10
15.5725691899
 20
9.495155746
 10
15.5653756763
 20
9.495532675
 10
15.558908741
 20
9.4958716177
 10
15.5540417372
 20
9.4961266681
 10
15.5514320174
 20
9.4962635065
 10
15.5510972913
 20
9.4962811063
  0
LINE
  5
4E4
330
1F
100
AcDbEntity
  8
0
  6
Continuous
 62
     7
370
    15
100
AcDbLine
 10
15.4722811117
 20
9.411826282
 30
0.0
 11
15.4722811117
 21
6.7993371017
 31
0.0
  0
LINE
  5
4E5
330
1F
100
AcDbEntity
  8
0
  6
CENTERX2
 62
     7
370
     0
100
AcDbLine
 10
15.8581078652
 20
9.3916059214
 30
0.0
 11
15.6372190403
 21
9.3916059214
 31
0.0
  0
HATCH
  5
4E6
330
1F
100
AcDbEntity
  8
0
  6
Continuous
 62
     7
370
     0
100
AcDbHatch
 10
0.0
 20
0.0
 30
0.0
210
0.0
220
0.0
230
1.0
  2
ANSI31
 70
     0
 71
     0
 91
        1
 92
        0
 93
       14
 72
     1
 10
15.47228109355928
 20
9.411826245696016
 11
15.85810786521282
 21
9.39160592140571
 72
     1
 10
15.85810786521282
 20
9.39160592140571
 11
15.85810786521282
 21
6.819557462196988
 72
     1
 10
15.85810786521282
 20
6.819557462196988
 11
15.47228109355928
 21
6.79933713790668
 72
     1
 10
15.47228109355928
 20
6.79933713790668
 11
15.47228109355928
 21
6.763062006761978
 72
     1
 10
15.47228109355928
 20
6.763062006761978
 11
15.53133621166952
 21
6.763062006761978
 72
     1
 10
15.53133621166952
 20
6.763062006761978
 11
15.53133621166934
 21
6.71581791227378
 72
     1
 10
15.53133621166934
 20
6.71581791227378
 11
15.90741243041924
 21
6.735527231739625
 72
     2
 10
15.90535195970101
 20
6.77484335515516
 40
0.0393700787401575
 50
273.0000000000023
 51
360.0000000000008
 73
     1
 72
     1
 10
15.94472203844117
 20
6.77484335515516
 11
15.94472203844117
 21
9.436320028447536
 72
     2
 10
15.90535195970101
 20
9.436320028447536
 40
0.0393700787401575
 50
0.0
 51
86.99999999999845
 73
     1
 72
     1
 10
15.90741243041924
 20
9.475636151863071
 11
15.53133621166934
 21
9.495345471328916
 72
     1
 10
15.53133621166934
 20
9.495345471328916
 11
15.53133621166952
 21
9.44810137684072
 72
     1
 10
15.53133621166952
 20
9.44810137684072
 11
15.47228109355928
 21
9.44810137684072
 72
     1
 10
15.47228109355928
 20
9.44810137684072
 11
15.47228109355928
 21
9.411826245696016
 97
        0
 75
     0
 76
     1
 52
0.0
 41
1.125
 77
     0
 78
     1
 53
45.0
 43
0.0
 44
0.0
 45
-0.0994368911043582
 46
0.0994368911043583
 79
     0
 98
        1
 10
0.0
 20
0.0
  0
DIMENSION
  5
4E7
330
1F
100
AcDbEntity
  8
0
  6
Continuous
 62
     7
370
     0
100
AcDbDimension
  2
*D32
 10
15.8581078652
 20
9.3916059214
 30
0.0
 11
15.2448282053
 21
9.1287444288
 31
0.0
 70
   162
 71
     1
 42
-1.0
  3
SLDDIMSTYLE7
100
AcDb2LineAngularDimension
 13
15.4722810936
 23
9.4118262457
 33
0.0
 14
15.8581078652
 24
9.3916059214
 34
0.0
 15
15.6372190403
 25
9.3916059214
 35
0.0
 16
15.2131556782
 26
9.5626169796
 36
0.0
  0
DIMENSION
  5
4FA
330
1F
100
AcDbEntity
  8
0
  6
Continuous
 62
     7
370
     0
100
AcDbDimension
  2
*D33
 10
15.9447220384
 20
9.1568563768
 30
0.0
 11
16.5221811691
 21
9.1568563768
 31
0.0
 70
   160
 71
     2
 42
-1.0
  3
SLDDIMSTYLE6
100
AcDbAlignedDimension
 13
15.8581078652
 23
9.3916059214
 33
0.0
 14
15.9447220384
 24
9.4363200284
 34
0.0
100
AcDbRotatedDimension
  0
DIMENSION
  5
50C
330
1F
100
AcDbEntity
  8
0
  6
Continuous
 62
     7
370
     0
100
AcDbDimension
  2
*D34
 10
15.9447220384
 20
9.8487999424
 30
0.0
 11
16.5525053891
 21
9.8487999424
 31
0.0
 70
   160
 71
     2
 42
-1.0
  3
SLDDIMSTYLE6
100
AcDbAlignedDimension
 13
15.5313362117
 23
9.4953454713
 33
0.0
 14
15.9447220384
 24
9.4363200284
 34
0.0
100
AcDbRotatedDimension
  0
MTEXT
  5
520
330
1F
100
AcDbEntity
  8
0
  6
Continuous
 62
     7
370
     0
100
AcDbMText
 10
15.925712497
 20
6.4310031222
 30
0.0
 40
0.140625
 41
0.0
 71
     2
 72
     1
  1
\LSECTION B-B
  7
SLDTEXTSTYLE0
 73
     1
 44
1.0
  0
LINE
  5
521
330
1F
100
AcDbEntity
  8
0
  6
Continuous
 62
     7
370
    15
100
AcDbLine
 10
17.7113550416
 20
9.4922547128
 30
0.0
 11
17.7114580371
 21
9.4942206101
 31
0.0
  0
LINE
  5
522
330
1F
100
AcDbEntity
  8
0
  6
Continuous
 62
     7
370
    15
100
AcDbLine
 10
17.6721419246
 20
9.4962811063
 30
0.0
 11
17.6720388925
 21
9.494315209
 31
0.0
  0
LINE
  5
523
330
1F
100
AcDbEntity
  8
0
  6
Continuous
 62
     7
370
    15
100
AcDbLine
 10
17.6720388925
 20
6.7168481746
 30
0.0
 11
17.6721419246
 21
6.7148822773
 31
0.0
  0
LINE
  5
524
330
1F
100
AcDbEntity
  8
0
  6
Continuous
 62
     7
370
    15
100
AcDbLine
 10
17.7114580371
 20
6.7169427735
 30
0.0
 11
17.7113550416
 21
6.7189086708
 31
0.0
  0
LINE
  5
525
330
1F
100
AcDbEntity
  8
0
  6
Continuous
 62
     7
370
    15
100
AcDbLine
 10
17.6523808362
 20
9.089833675
 30
0.0
 11
17.890827575
 21
9.089833675
 31
0.0
  0
LINE
  5
526
330
1F
100
AcDbEntity
  8
0
  6
Continuous
 62
     7
370
    15
100
AcDbLine
 10
17.6523808362
 20
9.4166053601
 30
0.0
 11
17.6523808362
 21
9.089833675
 31
0.0
  0
LINE
  5
527
330
1F
100
AcDbEntity
  8
0
  6
Continuous
 62
     7
370
    15
100
AcDbLine
 10
17.6523808362
 20
7.1213297086
 30
0.0
 11
17.6523808362
 21
6.7945580235
 31
0.0
  0
LINE
  5
528
330
1F
100
AcDbEntity
  8
0
  6
Continuous
 62
     7
370
    15
100
AcDbLine
 10
17.890827575
 20
7.1213297086
 30
0.0
 11
17.6523808362
 21
7.1213297086
 31
0.0
  0
LINE
  5
529
330
1F
100
AcDbEntity
  8
0
  6
Continuous
 62
     7
370
    15
100
AcDbLine
 10
17.890827575
 20
7.5937706576
 30
0.0
 11
17.890827575
 21
7.1213297086
 31
0.0
  0
LINE
  5
52A
330
1F
100
AcDbEntity
  8
0
  6
Continuous
 62
     7
370
    15
100
AcDbLine
 10
17.6523808362
 20
7.5937706576
 30
0.0
 11
17.890827575
 21
7.5937706576
 31
0.0
  0
LINE
  5
52B
330
1F
100
AcDbEntity
  8
0
  6
Continuous
 62
     7
370
    15
100
AcDbLine
 10
17.6523808362
 20
8.617392726
 30
0.0
 11
17.6523808362
 21
7.5937706576
 31
0.0
  0
LINE
  5
52C
330
1F
100
AcDbEntity
  8
0
  6
Continuous
 62
     7
370
    15
100
AcDbLine
 10
17.890827575
 20
8.617392726
 30
0.0
 11
17.6523808362
 21
8.617392726
 31
0.0
  0
LINE
  5
52D
330
1F
100
AcDbEntity
  8
0
  6
Continuous
 62
     7
370
    15
100
AcDbLine
 10
17.890827575
 20
9.089833675
 30
0.0
 11
17.890827575
 21
8.617392726
 31
0.0
  0
LINE
  5
52E
330
1F
100
AcDbEntity
  8
0
  6
Continuous
 62
     7
370
    15
100
AcDbLine
 10
17.6523808362
 20
9.4953455305
 30
0.0
 11
18.0284570318
 21
9.4756361048
 31
0.0
  0
LINE
  5
52F
330
1F
100
AcDbEntity
  8
0
  6
Continuous
 62
     7
370
    15
100
AcDbLine
 10
17.6523808362
 20
9.4953455305
 30
0.0
 11
17.6523808362
 21
9.4166053601
 31
0.0
  0
LINE
  5
530
330
1F
100
AcDbEntity
  8
0
  6
Continuous
 62
     7
370
    15
100
AcDbLine
 10
18.0284570318
 20
6.7355272788
 30
0.0
 11
17.6523808362
 21
6.7158178531
 31
0.0
  0
LINE
  5
531
330
1F
100
AcDbEntity
  8
0
  6
Continuous
 62
     7
370
    15
100
AcDbLine
 10
17.6523808362
 20
6.7945580235
 30
0.0
 11
17.6523808362
 21
6.7158178531
 31
0.0
  0
LINE
  5
532
330
1F
100
AcDbEntity
  8
0
  6
Continuous
 62
     7
370
    15
100
AcDbLine
 10
17.8867128892
 20
7.5937706576
 30
0.0
 11
17.8867128892
 21
7.1213297086
 31
0.0
  0
LINE
  5
533
330
1F
100
AcDbEntity
  8
0
  6
Continuous
 62
     7
370
    15
100
AcDbLine
 10
17.8867128892
 20
8.617392726
 30
0.0
 11
17.8867128892
 21
9.089833675
 31
0.0
  0
ARC
  5
534
330
1F
100
AcDbEntity
  8
0
  6
Continuous
 62
     7
370
    15
100
AcDbCircle
 10
18.0263965931
 20
9.4363200284
 30
0.0
 40
0.039370078740158
100
AcDbArc
 50
0.0
 51
87.0
  0
LINE
  5
535
330
1F
100
AcDbEntity
  8
0
  6
Continuous
 62
     7
370
    15
100
AcDbLine
 10
18.0657666941
 20
9.4166053601
 30
0.0
 11
18.0657666941
 21
9.4363200657
 31
0.0
  0
LINE
  5
536
330
1F
100
AcDbEntity
  8
0
  6
Continuous
 62
     7
370
    15
100
AcDbLine
 10
18.0657666941
 20
6.7748433179
 30
0.0
 11
18.0657666941
 21
6.7945580235
 31
0.0
  0
ARC
  5
537
330
1F
100
AcDbEntity
  8
0
  6
Continuous
 62
     7
370
    15
100
AcDbCircle
 10
18.0263965931
 20
6.7748433552
 30
0.0
 40
0.039370078740158
100
AcDbArc
 50
273.0
 51
0.0
  0
LINE
  5
538
330
1F
100
AcDbEntity
  8
0
  6
Continuous
 62
     7
370
    15
100
AcDbLine
 10
18.0657666941
 20
9.4166053601
 30
0.0
 11
18.0657666941
 21
6.7945580235
 31
0.0
  0
LINE
  5
539
330
1F
100
AcDbEntity
  8
0
  6
Continuous
 62
     7
370
    15
100
AcDbLine
 10
17.5933257451
 20
6.7945580235
 30
0.0
 11
17.5933257451
 21
7.1213297086
 31
0.0
  0
LINE
  5
53A
330
1F
100
AcDbEntity
  8
0
  6
Continuous
 62
     7
370
    15
100
AcDbLine
 10
17.5933257451
 20
7.1213297086
 30
0.0
 11
17.6523808362
 21
7.1213297086
 31
0.0
  0
LINE
  5
53B
330
1F
100
AcDbEntity
  8
0
  6
Continuous
 62
     7
370
    15
100
AcDbLine
 10
17.5933257451
 20
9.089833675
 30
0.0
 11
17.5933257451
 21
9.4166053601
 31
0.0
  0
LINE
  5
53C
330
1F
100
AcDbEntity
  8
0
  6
Continuous
 62
     7
370
    15
100
AcDbLine
 10
17.5933257451
 20
9.089833675
 30
0.0
 11
17.6523808362
 21
9.089833675
 31
0.0
  0
LINE
  5
53D
330
1F
100
AcDbEntity
  8
0
  6
Continuous
 62
     7
370
    15
100
AcDbLine
 10
17.5933257451
 20
7.5937706576
 30
0.0
 11
17.5933257451
 21
8.617392726
 31
0.0
  0
LINE
  5
53E
330
1F
100
AcDbEntity
  8
0
  6
Continuous
 62
     7
370
    15
100
AcDbLine
 10
17.6523808362
 20
7.5937706576
 30
0.0
 11
17.5933257451
 21
7.5937706576
 31
0.0
  0
LINE
  5
53F
330
1F
100
AcDbEntity
  8
0
  6
Continuous
 62
     7
370
    15
100
AcDbLine
 10
17.5933257451
 20
8.617392726
 30
0.0
 11
17.6523808362
 21
8.617392726
 31
0.0
  0
LINE
  5
540
330
1F
100
AcDbEntity
  8
0
  6
Continuous
 62
     7
370
    15
100
AcDbLine
 10
17.6523808362
 20
9.4481013696
 30
0.0
 11
17.5933257451
 21
9.4481013696
 31
0.0
  0
LINE
  5
541
330
1F
100
AcDbEntity
  8
0
  6
Continuous
 62
     7
370
    15
100
AcDbLine
 10
17.5933257451
 20
9.4481013696
 30
0.0
 11
17.5933257451
 21
9.4166053601
 31
0.0
  0
LINE
  5
542
330
1F
100
AcDbEntity
  8
0
  6
Continuous
 62
     7
370
    15
100
AcDbLine
 10
17.5933257451
 20
6.763062014
 30
0.0
 11
17.6523808362
 21
6.763062014
 31
0.0
  0
LINE
  5
543
330
1F
100
AcDbEntity
  8
0
  6
Continuous
 62
     7
370
    15
100
AcDbLine
 10
17.5933257451
 20
6.7945580235
 30
0.0
 11
17.5933257451
 21
6.763062014
 31
0.0
  0
LINE
  5
544
330
1F
100
AcDbEntity
  8
0
  6
Continuous
 62
     7
370
    15
100
AcDbLine
 10
17.5933257451
 20
7.1213297086
 30
0.0
 11
17.5933257451
 21
7.5937706576
 31
0.0
  0
LINE
  5
545
330
1F
100
AcDbEntity
  8
0
  6
Continuous
 62
     7
370
    15
100
AcDbLine
 10
17.5933257451
 20
8.617392726
 30
0.0
 11
17.5933257451
 21
9.089833675
 31
0.0
  0
LINE
  5
546
330
1F
100
AcDbEntity
  8
0
  6
Continuous
 62
     7
370
    15
100
AcDbLine
 10
17.5913572078
 20
6.7439845678
 30
0.0
 11
17.5263965966
 21
6.7640332295
 31
0.0
  0
LINE
  5
547
330
1F
100
AcDbEntity
  8
0
  6
Continuous
 62
     7
370
    15
100
AcDbLine
 10
17.5263965966
 20
6.7640332295
 30
0.0
 11
17.5263965966
 21
6.7958294622
 31
0.0
  0
LINE
  5
548
330
1F
100
AcDbEntity
  8
0
  6
Continuous
 62
     7
370
    15
100
AcDbLine
 10
17.5933257451
 20
6.763062014
 30
0.0
 11
17.5913572078
 21
6.763062014
 31
0.0
  0
LINE
  5
549
330
1F
100
AcDbEntity
  8
0
  6
Continuous
 62
     7
370
    15
100
AcDbLine
 10
17.5913572078
 20
6.763062014
 30
0.0
 11
17.5913572078
 21
6.7439845678
 31
0.0
  0
LINE
  5
54A
330
1F
100
AcDbEntity
  8
0
  6
Continuous
 62
     7
370
    15
100
AcDbLine
 10
17.5263965966
 20
6.7958294622
 30
0.0
 11
17.5933257451
 21
6.7993371017
 31
0.0
  0
LINE
  5
54B
330
1F
100
AcDbEntity
  8
0
  6
Continuous
 62
     7
370
    15
100
AcDbLine
 10
17.5913572078
 20
9.4671788158
 30
0.0
 11
17.5913572078
 21
9.4481013696
 31
0.0
  0
LINE
  5
54C
330
1F
100
AcDbEntity
  8
0
  6
Continuous
 62
     7
370
    15
100
AcDbLine
 10
17.5263965966
 20
9.4471301541
 30
0.0
 11
17.5263965966
 21
9.4153339214
 31
0.0
  0
LINE
  5
54D
330
1F
100
AcDbEntity
  8
0
  6
Continuous
 62
     7
370
    15
100
AcDbLine
 10
17.5913572078
 20
9.4671788158
 30
0.0
 11
17.5263965966
 21
9.4471301541
 31
0.0
  0
LINE
  5
54E
330
1F
100
AcDbEntity
  8
0
  6
Continuous
 62
     7
370
    15
100
AcDbLine
 10
17.5913572078
 20
9.4481013696
 30
0.0
 11
17.5933257451
 21
9.4481013696
 31
0.0
  0
LINE
  5
54F
330
1F
100
AcDbEntity
  8
0
  6
Continuous
 62
     7
370
    15
100
AcDbLine
 10
17.5933257451
 20
9.411826282
 30
0.0
 11
17.5263965966
 21
9.4153339214
 31
0.0
  0
LWPOLYLINE
  5
550
330
1F
100
AcDbEntity
  8
0
  6
Continuous
 62
     7
370
    15
100
AcDbPolyline
 90
        9
 70
   128
 43
0.0
 10
17.7114580371
 20
9.4942206101
 10
17.7099616877
 20
9.4942989292
 10
17.7057003369
 20
9.4945223
 10
17.6993227939
 20
9.4948565494
 10
17.6917999808
 20
9.4952507849
 10
17.6842771678
 20
9.4956450203
 10
17.6778996614
 20
9.4959792698
 10
17.6736383107
 20
9.4962026406
 10
17.6721419246
 20
9.4962811063
  0
LWPOLYLINE
  5
551
330
1F
100
AcDbEntity
  8
0
  6
Continuous
 62
     7
370
    15
100
AcDbPolyline
 90
       10
 70
   128
 43
0.0
 10
17.6721419246
 20
6.7148822773
 10
17.6736383107
 20
6.714960743
 10
17.6778996614
 20
6.7151841138
 10
17.6842771678
 20
6.7155183633
 10
17.6917999808
 20
6.7159125987
 10
17.6993227939
 20
6.7163068342
 10
17.7057003369
 20
6.7166410836
 10
17.7099616877
 20
6.7168644544
 10
17.7114580371
 20
6.7169427735
 10
17.7114580371
 20
6.7169427735
  0
DIMENSION
  5
552
330
1F
100
AcDbEntity
  8
0
  6
Continuous
 62
     7
370
     0
100
AcDbDimension
  2
*D35
 10
16.8537877141
 20
8.8536131879
 30
0.0
 11
16.8537877141
 21
8.1055816918
 31
0.0
 70
   160
 71
     2
 42
-1.0
  3
SLDDIMSTYLE3
100
AcDbAlignedDimension
 13
17.371130845
 23
7.3575501957
 33
0.0
 14
17.371130845
 24
8.8536131879
 34
0.0
 50
90.0
100
AcDbRotatedDimension
  0
DIMENSION
  5
566
330
1F
100
AcDbEntity
  8
0
  6
Continuous
 62
     7
370
     0
100
AcDbDimension
  2
*D36
 10
17.2959917189
 20
7.1213297233
 30
0.0
 11
17.2959917189
 21
6.8084243386
 31
0.0
 70
   160
 71
     2
 42
-1.0
  3
SLDDIMSTYLE6
100
AcDbAlignedDimension
 13
17.652380845
 23
7.5937706682
 33
0.0
 14
17.652380845
 24
7.1213297233
 34
0.0
 50
90.0
100
AcDbRotatedDimension
  0
DIMENSION
  5
57B
330
1F
100
AcDbEntity
  8
0
  6
Continuous
 62
     7
370
     0
100
AcDbDimension
  2
*D37
 10
17.8908275839
 20
6.4041567765
 30
0.0
 11
18.4770918426
 21
6.4041567765
 31
0.0
 70
   160
 71
     2
 42
-1.0
  3
SLDDIMSTYLE6
100
AcDbAlignedDimension
 13
17.652380845
 23
6.7158179123
 33
0.0
 14
17.8908275839
 24
7.1213297233
 34
0.0
100
AcDbRotatedDimension
  0
INSERT
  5
595
102
{ACAD_REACTORS
330
59F
102
}
330
1F
100
AcDbEntity
  8
0
  6
Continuous
 62
     7
370
     0
100
AcDbBlockReference
  2
SW_NOTE_5
 10
17.2710708156
 20
10.2978604027
 30
0.0
  0
LEADER
  5
59F
330
1F
100
AcDbEntity
  8
0
  6
Continuous
 62
     7
370
     0
100
AcDbLeader
  3
SLDDIMSTYLE8
 73
     2
 76
     3
 10
17.6773840889
 20
8.9659749942
 30
0.0
 10
16.9898208156
 20
10.2978604027
 30
0.0
 10
17.2710708156
 20
10.2978604027
 30
0.0
340
595
  0
LINE
  5
5A0
330
1F
100
AcDbEntity
  8
0
  6
CENTERX2
 62
     7
370
     0
100
AcDbLine
 10
17.371130845
 20
7.3575501957
 30
0.0
 11
18.1720775839
 21
7.3575501957
 31
0.0
  0
LINE
  5
5A1
330
1F
100
AcDbEntity
  8
0
  6
CENTERX2
 62
     7
370
     0
100
AcDbLine
 10
17.371130845
 20
8.8536131879
 30
0.0
 11
18.1720775839
 21
8.8536131879
 31
0.0
  0
LINE
  5
5A2
330
1F
100
AcDbEntity
  8
0
  6
Continuous
 62
     7
370
    15
100
AcDbLine
 10
2.908953576
 20
1.3480831001
 30
0.0
 11
2.908953576
 21
1.4268232613
 31
0.0
  0
LINE
  5
5A3
330
1F
100
AcDbEntity
  8
0
  6
Continuous
 62
     7
370
    15
100
AcDbLine
 10
7.1806069761
 20
1.4268232613
 30
0.0
 11
7.1806069761
 21
1.3480831001
 31
0.0
  0
LINE
  5
5A4
330
1F
100
AcDbEntity
  8
0
  6
Continuous
 62
     7
370
    15
100
AcDbLine
 10
6.5802133786
 20
1.4346972728
 30
0.0
 11
6.5767773116
 21
1.6315476621
 31
0.0
  0
LINE
  5
5A5
330
1F
100
AcDbEntity
  8
0
  6
Continuous
 62
     7
370
    15
100
AcDbLine
 10
6.3474289344
 20
1.6315476621
 30
0.0
 11
6.3439928674
 21
1.4346972728
 31
0.0
  0
LINE
  5
5A6
330
1F
100
AcDbEntity
  8
0
  6
Continuous
 62
     7
370
    15
100
AcDbLine
 10
3.7455676847
 20
1.4346972728
 30
0.0
 11
3.7421316177
 21
1.6315476621
 31
0.0
  0
LINE
  5
5A7
330
1F
100
AcDbEntity
  8
0
  6
Continuous
 62
     7
370
    15
100
AcDbLine
 10
3.5127832405
 20
1.6315476621
 30
0.0
 11
3.5093471735
 21
1.4346972728
 31
0.0
  0
LINE
  5
5A8
330
1F
100
AcDbEntity
  8
0
  6
Continuous
 62
     7
370
    15
100
AcDbLine
 10
7.1117093454
 20
1.7417838787
 30
0.0
 11
7.0920000664
 21
2.1178600742
 31
0.0
  0
LINE
  5
5A9
330
1F
100
AcDbEntity
  8
0
  6
Continuous
 62
     7
370
    15
100
AcDbLine
 10
7.0644653312
 20
1.6827287876
 30
0.0
 11
7.0281902435
 21
1.6827287876
 31
0.0
  0
LINE
  5
5AA
330
1F
100
AcDbEntity
  8
0
  6
Continuous
 62
     7
370
    15
100
AcDbLine
 10
7.1117093454
 20
1.7417838787
 30
0.0
 11
7.0644653312
 21
1.7417838787
 31
0.0
  0
LINE
  5
5AB
330
1F
100
AcDbEntity
  8
0
  6
Continuous
 62
     7
370
    15
100
AcDbLine
 10
7.0644653312
 20
1.7417838787
 30
0.0
 11
7.0644653312
 21
1.6827287876
 31
0.0
  0
ARC
  5
5AC
330
1F
100
AcDbEntity
  8
0
  6
Continuous
 62
     7
370
    15
100
AcDbCircle
 10
7.052683967
 20
2.1157996355
 30
0.0
 40
0.0393700787401574
100
AcDbArc
 50
3.0
 51
90.0
  0
LINE
  5
5AD
330
1F
100
AcDbEntity
  8
0
  6
Continuous
 62
     7
370
    15
100
AcDbLine
 10
7.0079698371
 20
2.0685555638
 30
0.0
 11
7.0281902435
 21
1.6827287876
 31
0.0
  0
LINE
  5
5AE
330
1F
100
AcDbEntity
  8
0
  6
Continuous
 62
     7
370
    15
100
AcDbLine
 10
7.0079698371
 20
2.0685555638
 30
0.0
 11
3.081590715
 21
2.0685555638
 31
0.0
  0
LINE
  5
5AF
330
1F
100
AcDbEntity
  8
0
  6
Continuous
 62
     7
370
    15
100
AcDbLine
 10
3.0613703086
 20
1.6827287876
 30
0.0
 11
3.081590715
 21
2.0685555638
 31
0.0
  0
LINE
  5
5B0
330
1F
100
AcDbEntity
  8
0
  6
Continuous
 62
     7
370
    15
100
AcDbLine
 10
3.025095221
 20
1.7417838787
 30
0.0
 11
2.9778512067
 21
1.7417838787
 31
0.0
  0
LINE
  5
5B1
330
1F
100
AcDbEntity
  8
0
  6
Continuous
 62
     7
370
    15
100
AcDbLine
 10
7.0526840273
 20
2.1551697365
 30
0.0
 11
3.0368765249
 21
2.1551697365
 31
0.0
  0
LINE
  5
5B2
330
1F
100
AcDbEntity
  8
0
  6
Continuous
 62
     7
370
    15
100
AcDbLine
 10
3.025095221
 20
1.6827287876
 30
0.0
 11
3.025095221
 21
1.7417838787
 31
0.0
  0
LINE
  5
5B3
330
1F
100
AcDbEntity
  8
0
  6
Continuous
 62
     7
370
    15
100
AcDbLine
 10
3.0613703086
 20
1.6827287876
 30
0.0
 11
3.025095221
 21
1.6827287876
 31
0.0
  0
LINE
  5
5B4
330
1F
100
AcDbEntity
  8
0
  6
Continuous
 62
     7
370
    15
100
AcDbLine
 10
2.9975604857
 20
2.1178600742
 30
0.0
 11
2.9778512067
 21
1.7417838787
 31
0.0
  0
ARC
  5
5B5
330
1F
100
AcDbEntity
  8
0
  6
Continuous
 62
     7
370
    15
100
AcDbCircle
 10
3.0368765851
 20
2.1157996355
 30
0.0
 40
0.0393700787401574
100
AcDbArc
 50
90.0
 51
177.0
  0
LINE
  5
5B6
330
1F
100
AcDbEntity
  8
0
  6
Continuous
 62
     7
370
    15
100
AcDbLine
 10
4.4148589863
 20
1.7417838787
 30
0.0
 11
4.4148589863
 21
1.6827287876
 31
0.0
  0
LINE
  5
5B7
330
1F
100
AcDbEntity
  8
0
  6
Continuous
 62
     7
370
    15
100
AcDbLine
 10
4.3754889011
 20
1.6157996391
 30
0.0
 11
4.3754889011
 21
1.7417838787
 31
0.0
  0
LINE
  5
5B8
330
1F
100
AcDbEntity
  8
0
  6
Continuous
 62
     7
370
    15
100
AcDbLine
 10
3.8243078551
 20
1.6157996391
 30
0.0
 11
4.3754889011
 21
1.6157996391
 31
0.0
  0
LINE
  5
5B9
330
1F
100
AcDbEntity
  8
0
  6
Continuous
 62
     7
370
    15
100
AcDbLine
 10
3.8243078551
 20
1.7417838787
 30
0.0
 11
3.8243078551
 21
1.6157996391
 31
0.0
  0
LINE
  5
5BA
330
1F
100
AcDbEntity
  8
0
  6
Continuous
 62
     7
370
    15
100
AcDbLine
 10
3.7849376965
 20
1.6827287876
 30
0.0
 11
3.7849376965
 21
1.7417838787
 31
0.0
  0
LINE
  5
5BB
330
1F
100
AcDbEntity
  8
0
  6
Continuous
 62
     7
370
    15
100
AcDbLine
 10
6.3046228556
 20
1.7417838787
 30
0.0
 11
6.3046228556
 21
1.6827287876
 31
0.0
  0
LINE
  5
5BC
330
1F
100
AcDbEntity
  8
0
  6
Continuous
 62
     7
370
    15
100
AcDbLine
 10
6.2652526971
 20
1.6157996391
 30
0.0
 11
6.2652526971
 21
1.7417838787
 31
0.0
  0
LINE
  5
5BD
330
1F
100
AcDbEntity
  8
0
  6
Continuous
 62
     7
370
    15
100
AcDbLine
 10
5.714071651
 20
1.6157996391
 30
0.0
 11
6.2652526971
 21
1.6157996391
 31
0.0
  0
LINE
  5
5BE
330
1F
100
AcDbEntity
  8
0
  6
Continuous
 62
     7
370
    15
100
AcDbLine
 10
5.714071651
 20
1.7417838787
 30
0.0
 11
5.714071651
 21
1.6157996391
 31
0.0
  0
LINE
  5
5BF
330
1F
100
AcDbEntity
  8
0
  6
Continuous
 62
     7
370
    15
100
AcDbLine
 10
5.6747015658
 20
1.6827287876
 30
0.0
 11
5.6747015658
 21
1.7417838787
 31
0.0
  0
LINE
  5
5C0
330
1F
100
AcDbEntity
  8
0
  6
Continuous
 62
     7
370
    15
100
AcDbLine
 10
3.7849376965
 20
1.7417838787
 30
0.0
 11
3.8243078551
 21
1.7417838787
 31
0.0
  0
LINE
  5
5C1
330
1F
100
AcDbEntity
  8
0
  6
Continuous
 62
     7
370
    15
100
AcDbLine
 10
4.3754889011
 20
1.7417838787
 30
0.0
 11
4.4148589863
 21
1.7417838787
 31
0.0
  0
LINE
  5
5C2
330
1F
100
AcDbEntity
  8
0
  6
Continuous
 62
     7
370
    15
100
AcDbLine
 10
5.6747015658
 20
1.7417838787
 30
0.0
 11
5.714071651
 21
1.7417838787
 31
0.0
  0
LINE
  5
5C3
330
1F
100
AcDbEntity
  8
0
  6
Continuous
 62
     7
370
    15
100
AcDbLine
 10
6.2652526971
 20
1.7417838787
 30
0.0
 11
6.3046228556
 21
1.7417838787
 31
0.0
  0
LINE
  5
5C4
330
1F
100
AcDbEntity
  8
0
  6
Continuous
 62
     7
370
    15
100
AcDbLine
 10
2.6532698897
 20
1.5055634225
 30
0.0
 11
2.6532698897
 21
1.3480831001
 31
0.0
  0
LINE
  5
5C5
330
1F
100
AcDbEntity
  8
0
  6
Continuous
 62
     7
370
    15
100
AcDbLine
 10
2.6532698897
 20
1.3480831001
 30
0.0
 11
2.5447801963
 21
1.3480831001
 31
0.0
  0
LINE
  5
5C6
330
1F
100
AcDbEntity
  8
0
  6
Continuous
 62
     7
370
    15
100
AcDbLine
 10
2.6532698897
 20
1.5055634225
 30
0.0
 11
2.5841503548
 21
1.5055634225
 31
0.0
  0
LINE
  5
5C7
330
1F
100
AcDbEntity
  8
0
  6
Continuous
 62
     7
370
    15
100
AcDbLine
 10
2.5447801963
 20
1.4661933373
 30
0.0
 11
2.5447801963
 21
1.3480831001
 31
0.0
  0
ARC
  5
5C8
330
1F
100
AcDbEntity
  8
0
  6
Continuous
 62
     7
370
    15
100
AcDbCircle
 10
2.5841503548
 20
1.4661933363
 30
0.0
 40
0.0393700787401579
100
AcDbArc
 50
90.0
 51
180.0
  0
LINE
  5
5C9
330
1F
100
AcDbEntity
  8
0
  6
Continuous
 62
     7
370
    15
100
AcDbLine
 10
2.8299915015
 20
1.3480831001
 30
0.0
 11
2.8299915015
 21
1.5055634225
 31
0.0
  0
LINE
  5
5CA
330
1F
100
AcDbEntity
  8
0
  6
Continuous
 62
     7
370
    15
100
AcDbLine
 10
2.6532698897
 20
1.3480831001
 30
0.0
 11
2.8299915015
 21
1.3480831001
 31
0.0
  0
LINE
  5
5CB
330
1F
100
AcDbEntity
  8
0
  6
Continuous
 62
     7
370
    15
100
AcDbLine
 10
2.6532698897
 20
1.5055634225
 30
0.0
 11
2.8299915015
 21
1.5055634225
 31
0.0
  0
LINE
  5
5CC
330
1F
100
AcDbEntity
  8
0
  6
Continuous
 62
     7
370
    15
100
AcDbLine
 10
7.1137727749
 20
1.7024137935
 30
0.0
 11
7.0920244128
 21
1.7024137935
 31
0.0
  0
LINE
  5
5CD
330
1F
100
AcDbEntity
  8
0
  6
Continuous
 62
     7
370
    15
100
AcDbLine
 10
7.124089189
 20
1.5055634225
 30
0.0
 11
7.1137727749
 21
1.7024137935
 31
0.0
  0
LINE
  5
5CE
330
1F
100
AcDbEntity
  8
0
  6
Continuous
 62
     7
370
    15
100
AcDbLine
 10
7.2595690506
 20
1.5055634225
 30
0.0
 11
7.2595690506
 21
1.3480831001
 31
0.0
  0
LINE
  5
5CF
330
1F
100
AcDbEntity
  8
0
  6
Continuous
 62
     7
370
    15
100
AcDbLine
 10
7.1807244548
 20
1.4268232613
 30
0.0
 11
7.1807244548
 21
1.3480831001
 31
0.0
  0
LINE
  5
5D0
330
1F
100
AcDbEntity
  8
0
  6
Continuous
 62
     7
370
    15
100
AcDbLine
 10
2.9088360973
 20
1.3480831001
 30
0.0
 11
2.9088360973
 21
1.4268232613
 31
0.0
  0
LINE
  5
5D1
330
1F
100
AcDbEntity
  8
0
  6
Continuous
 62
     7
370
    15
100
AcDbLine
 10
2.9975361393
 20
1.7024137935
 30
0.0
 11
2.9757877772
 21
1.7024137935
 31
0.0
  0
LINE
  5
5D2
330
1F
100
AcDbEntity
  8
0
  6
Continuous
 62
     7
370
    15
100
AcDbLine
 10
2.9975361393
 20
1.7417838787
 30
0.0
 11
2.9975361393
 21
1.7024137935
 31
0.0
  0
LINE
  5
5D3
330
1F
100
AcDbEntity
  8
0
  6
Continuous
 62
     7
370
    15
100
AcDbLine
 10
3.0211582931
 20
1.7417838787
 30
0.0
 11
2.9975361393
 21
1.7417838787
 31
0.0
  0
LINE
  5
5D4
330
1F
100
AcDbEntity
  8
0
  6
Continuous
 62
     7
370
    15
100
AcDbLine
 10
3.0211582931
 20
1.7417838787
 30
0.0
 11
3.0211582931
 21
1.6827287876
 31
0.0
  0
LINE
  5
5D5
330
1F
100
AcDbEntity
  8
0
  6
Continuous
 62
     7
370
    15
100
AcDbLine
 10
3.0675603037
 20
1.6827287876
 30
0.0
 11
3.0211582931
 21
1.6827287876
 31
0.0
  0
LINE
  5
5D6
330
1F
100
AcDbEntity
  8
0
  6
Continuous
 62
     7
370
    15
100
AcDbLine
 10
3.0805590736
 20
1.4346972728
 30
0.0
 11
3.0675603037
 21
1.6827287876
 31
0.0
  0
LINE
  5
5D7
330
1F
100
AcDbEntity
  8
0
  6
Continuous
 62
     7
370
    15
100
AcDbLine
 10
7.0090014785
 20
1.4346972728
 30
0.0
 11
3.0805590736
 21
1.4346972728
 31
0.0
  0
LINE
  5
5D8
330
1F
100
AcDbEntity
  8
0
  6
Continuous
 62
     7
370
    15
100
AcDbLine
 10
7.0220002484
 20
1.6827287876
 30
0.0
 11
7.0090014785
 21
1.4346972728
 31
0.0
  0
LINE
  5
5D9
330
1F
100
AcDbEntity
  8
0
  6
Continuous
 62
     7
370
    15
100
AcDbLine
 10
7.068402259
 20
1.6827287876
 30
0.0
 11
7.0220002484
 21
1.6827287876
 31
0.0
  0
LINE
  5
5DA
330
1F
100
AcDbEntity
  8
0
  6
Continuous
 62
     7
370
    15
100
AcDbLine
 10
7.068402259
 20
1.6827287876
 30
0.0
 11
7.068402259
 21
1.7417838787
 31
0.0
  0
LINE
  5
5DB
330
1F
100
AcDbEntity
  8
0
  6
Continuous
 62
     7
370
    15
100
AcDbLine
 10
7.0920244128
 20
1.7417838787
 30
0.0
 11
7.068402259
 21
1.7417838787
 31
0.0
  0
LINE
  5
5DC
330
1F
100
AcDbEntity
  8
0
  6
Continuous
 62
     7
370
    15
100
AcDbLine
 10
7.0920244128
 20
1.7024137935
 30
0.0
 11
7.0920244128
 21
1.7417838787
 31
0.0
  0
LINE
  5
5DD
330
1F
100
AcDbEntity
  8
0
  6
Continuous
 62
     7
370
    15
100
AcDbLine
 10
2.9757877772
 20
1.7024137935
 30
0.0
 11
2.9654713631
 21
1.5055634225
 31
0.0
  0
LINE
  5
5DE
330
1F
100
AcDbEntity
  8
0
  6
Continuous
 62
     7
370
    15
100
AcDbLine
 10
7.2595690506
 20
1.5055634225
 30
0.0
 11
7.124089189
 21
1.5055634225
 31
0.0
  0
LINE
  5
5DF
330
1F
100
AcDbEntity
  8
0
  6
Continuous
 62
     7
370
    15
100
AcDbLine
 10
7.1437742683
 20
1.3480831001
 30
0.0
 11
7.1437742683
 21
1.4268232613
 31
0.0
  0
LINE
  5
5E0
330
1F
100
AcDbEntity
  8
0
  6
Continuous
 62
     7
370
    15
100
AcDbLine
 10
7.1807244548
 20
1.4268232613
 30
0.0
 11
7.1437742683
 21
1.4268232613
 31
0.0
  0
LINE
  5
5E1
330
1F
100
AcDbEntity
  8
0
  6
Continuous
 62
     7
370
    15
100
AcDbLine
 10
2.9457862838
 20
1.4268232613
 30
0.0
 11
2.9088360973
 21
1.4268232613
 31
0.0
  0
LINE
  5
5E2
330
1F
100
AcDbEntity
  8
0
  6
Continuous
 62
     7
370
    15
100
AcDbLine
 10
2.9088360973
 20
1.3480831001
 30
0.0
 11
2.8299915015
 21
1.3480831001
 31
0.0
  0
LINE
  5
5E3
330
1F
100
AcDbEntity
  8
0
  6
Continuous
 62
     7
370
    15
100
AcDbLine
 10
7.1437742683
 20
1.3480831001
 30
0.0
 11
2.9457862838
 21
1.3480831001
 31
0.0
  0
LINE
  5
5E4
330
1F
100
AcDbEntity
  8
0
  6
Continuous
 62
     7
370
    15
100
AcDbLine
 10
7.2595690506
 20
1.3480831001
 30
0.0
 11
7.1807244548
 21
1.3480831001
 31
0.0
  0
LINE
  5
5E5
330
1F
100
AcDbEntity
  8
0
  6
Continuous
 62
     7
370
    15
100
AcDbLine
 10
2.9457862838
 20
1.3480831001
 30
0.0
 11
2.9457862838
 21
1.4268232613
 31
0.0
  0
LINE
  5
5E6
330
1F
100
AcDbEntity
  8
0
  6
Continuous
 62
     7
370
    15
100
AcDbLine
 10
2.9654713631
 20
1.5055634225
 30
0.0
 11
2.8299915015
 21
1.5055634225
 31
0.0
  0
LINE
  5
5E7
330
1F
100
AcDbEntity
  8
0
  6
Continuous
 62
     7
370
    15
100
AcDbLine
 10
2.9088360973
 20
1.3480831001
 30
0.0
 11
2.908953576
 21
1.3480831001
 31
0.0
  0
LINE
  5
5E8
330
1F
100
AcDbEntity
  8
0
  6
Continuous
 62
     7
370
    15
100
AcDbLine
 10
7.1806069761
 20
1.3480831001
 30
0.0
 11
7.1807244548
 21
1.3480831001
 31
0.0
  0
LINE
  5
5E9
330
1F
100
AcDbEntity
  8
0
  6
Continuous
 62
     7
370
    15
100
AcDbLine
 10
7.4362906625
 20
1.3480831001
 30
0.0
 11
7.4362906625
 21
1.5055634225
 31
0.0
  0
LINE
  5
5EA
330
1F
100
AcDbEntity
  8
0
  6
Continuous
 62
     7
370
    15
100
AcDbLine
 10
7.2595690506
 20
1.5055634225
 30
0.0
 11
7.4362906625
 21
1.5055634225
 31
0.0
  0
LINE
  5
5EB
330
1F
100
AcDbEntity
  8
0
  6
Continuous
 62
     7
370
    15
100
AcDbLine
 10
7.2595690506
 20
1.3480831001
 30
0.0
 11
7.4362906625
 21
1.3480831001
 31
0.0
  0
LINE
  5
5EC
330
1F
100
AcDbEntity
  8
0
  6
Continuous
 62
     7
370
    15
100
AcDbLine
 10
7.5447803558
 20
1.4661933373
 30
0.0
 11
7.5447803558
 21
1.3480831001
 31
0.0
  0
LINE
  5
5ED
330
1F
100
AcDbEntity
  8
0
  6
Continuous
 62
     7
370
    15
100
AcDbLine
 10
7.5054101973
 20
1.5055634225
 30
0.0
 11
7.4362906625
 21
1.5055634225
 31
0.0
  0
ARC
  5
5EE
330
1F
100
AcDbEntity
  8
0
  6
Continuous
 62
     7
370
    15
100
AcDbCircle
 10
7.5054101973
 20
1.4661933363
 30
0.0
 40
0.0393700787401576
100
AcDbArc
 50
0.0
 51
90.0
  0
LINE
  5
5EF
330
1F
100
AcDbEntity
  8
0
  6
Continuous
 62
     7
370
    15
100
AcDbLine
 10
7.5447803558
 20
1.3480831001
 30
0.0
 11
7.4362906625
 21
1.3480831001
 31
0.0
  0
LINE
  5
5F0
330
1F
100
AcDbEntity
  8
0
  6
Continuous
 62
     7
370
    15
100
AcDbLine
 10
6.5767773116
 20
1.6315476621
 30
0.0
 11
6.3474289344
 21
1.6315476621
 31
0.0
  0
LINE
  5
5F1
330
1F
100
AcDbEntity
  8
0
  6
Continuous
 62
     7
370
    15
100
AcDbLine
 10
3.7421316177
 20
1.6315476621
 30
0.0
 11
3.5127832405
 21
1.6315476621
 31
0.0
  0
LINE
  5
5F2
330
1F
100
AcDbEntity
  8
0
  6
Continuous
 62
     7
370
    15
100
AcDbLine
 10
2.908953576
 20
1.3480831001
 30
0.0
 11
2.9457862838
 21
1.3480831001
 31
0.0
  0
LINE
  5
5F3
330
1F
100
AcDbEntity
  8
0
  6
Continuous
 62
     7
370
    15
100
AcDbLine
 10
7.1437742683
 20
1.3480831001
 30
0.0
 11
7.1806069761
 21
1.3480831001
 31
0.0
  0
LINE
  5
5F4
330
1F
100
AcDbEntity
  8
0
  6
Continuous
 62
     7
370
    15
100
AcDbLine
 10
3.7849376965
 20
1.6039886172
 30
0.0
 11
3.7849376965
 21
1.6827287876
 31
0.0
  0
LINE
  5
5F5
330
1F
100
AcDbEntity
  8
0
  6
Continuous
 62
     7
370
    15
100
AcDbLine
 10
4.4148589863
 20
1.6039886172
 30
0.0
 11
3.7849376965
 21
1.6039886172
 31
0.0
  0
LINE
  5
5F6
330
1F
100
AcDbEntity
  8
0
  6
Continuous
 62
     7
370
    15
100
AcDbLine
 10
4.4148589863
 20
1.6827287876
 30
0.0
 11
4.4148589863
 21
1.6039886172
 31
0.0
  0
LINE
  5
5F7
330
1F
100
AcDbEntity
  8
0
  6
Continuous
 62
     7
370
    15
100
AcDbLine
 10
4.4148589863
 20
1.6827287876
 30
0.0
 11
5.6747015658
 21
1.6827287876
 31
0.0
  0
LINE
  5
5F8
330
1F
100
AcDbEntity
  8
0
  6
Continuous
 62
     7
370
    15
100
AcDbLine
 10
5.6747015658
 20
1.6039886172
 30
0.0
 11
5.6747015658
 21
1.6827287876
 31
0.0
  0
LINE
  5
5F9
330
1F
100
AcDbEntity
  8
0
  6
Continuous
 62
     7
370
    15
100
AcDbLine
 10
6.3046228556
 20
1.6039886172
 30
0.0
 11
5.6747015658
 21
1.6039886172
 31
0.0
  0
LINE
  5
5FA
330
1F
100
AcDbEntity
  8
0
  6
Continuous
 62
     7
370
    15
100
AcDbLine
 10
6.3046228556
 20
1.6827287876
 30
0.0
 11
6.3046228556
 21
1.6039886172
 31
0.0
  0
LINE
  5
5FB
330
1F
100
AcDbEntity
  8
0
  6
Continuous
 62
     7
370
    15
100
AcDbLine
 10
6.3046228556
 20
1.6827287876
 30
0.0
 11
7.0220002484
 21
1.6827287876
 31
0.0
  0
LINE
  5
5FC
330
1F
100
AcDbEntity
  8
0
  6
Continuous
 62
     7
370
    15
100
AcDbLine
 10
3.0675603037
 20
1.6827287876
 30
0.0
 11
3.7849376965
 21
1.6827287876
 31
0.0
  0
LINE
  5
5FD
330
1F
100
AcDbEntity
  8
0
  6
Continuous
 62
     7
370
    15
100
AcDbLine
 10
6.3046228556
 20
1.6827287876
 30
0.0
 11
6.2652526971
 21
1.6827287876
 31
0.0
  0
LINE
  5
5FE
330
1F
100
AcDbEntity
  8
0
  6
Continuous
 62
     7
370
    15
100
AcDbLine
 10
5.714071651
 20
1.6827287876
 30
0.0
 11
5.6747015658
 21
1.6827287876
 31
0.0
  0
LINE
  5
5FF
330
1F
100
AcDbEntity
  8
0
  6
Continuous
 62
     7
370
    15
100
AcDbLine
 10
4.4148589863
 20
1.6827287876
 30
0.0
 11
4.3754889011
 21
1.6827287876
 31
0.0
  0
LINE
  5
600
330
1F
100
AcDbEntity
  8
0
  6
Continuous
 62
     7
370
    15
100
AcDbLine
 10
3.8243078551
 20
1.6827287876
 30
0.0
 11
3.7849376965
 21
1.6827287876
 31
0.0
  0
HATCH
  5
601
330
1F
100
AcDbEntity
  8
0
  6
Continuous
 62
     7
370
     0
100
AcDbHatch
 10
0.0
 20
0.0
 30
0.0
210
0.0
220
0.0
230
1.0
  2
ANSI31
 70
     0
 71
     0
 91
        1
 92
        0
 93
        5
 72
     1
 10
2.653269863134626
 20
1.505563415034516
 11
2.58415035480393
 21
1.505563415034516
 72
     2
 10
2.58415035480393
 20
1.466193336294359
 40
0.0393700787401575
 50
90.0
 51
180.0
 73
     1
 72
     1
 10
2.544780276063773
 20
1.466193336294359
 11
2.544780276063773
 21
1.348083100073886
 72
     1
 10
2.544780276063773
 20
1.348083100073886
 11
2.653269863134626
 21
1.348083100073886
 72
     1
 10
2.653269863134626
 20
1.348083100073886
 11
2.653269863134626
 21
1.505563415034516
 97
        0
 75
     0
 76
     1
 52
0.0
 41
1.125
 77
     0
 78
     1
 53
45.0
 43
0.0
 44
0.0
 45
-0.0994368911043582
 46
0.0994368911043583
 79
     0
 98
        1
 10
0.0
 20
0.0
  0
HATCH
  5
602
330
1F
100
AcDbEntity
  8
0
  6
Continuous
 62
     7
370
     0
100
AcDbHatch
 10
0.0
 20
0.0
 30
0.0
210
0.0
220
0.0
230
1.0
  2
ANSI31
 70
     0
 71
     0
 91
        1
 92
        0
 93
       28
 72
     1
 10
7.092024370551962
 20
1.702413808735304
 11
7.092024370551962
 21
1.741783887475461
 72
     1
 10
7.092024370551962
 20
1.741783887475461
 11
7.068402323307867
 21
1.741783887475461
 72
     1
 10
7.068402323307867
 20
1.741783887475461
 11
7.068402323307867
 21
1.682728769365225
 72
     1
 10
7.068402323307867
 20
1.682728769365225
 11
7.022000289098238
 21
1.682728769365225
 72
     1
 10
7.022000289098238
 20
1.682728769365225
 11
7.009001509197327
 21
1.434697273302233
 72
     1
 10
7.009001509197327
 20
1.434697273302233
 11
3.080559042930219
 21
1.434697273302233
 72
     1
 10
3.080559042930219
 20
1.434697273302233
 11
3.067560263029307
 21
1.682728769365225
 72
     1
 10
3.067560263029307
 20
1.682728769365225
 11
3.021158228819678
 21
1.682728769365225
 72
     1
 10
3.021158228819678
 20
1.682728769365225
 11
3.021158228819678
 21
1.741783887475461
 72
     1
 10
3.021158228819678
 20
1.741783887475461
 11
2.997536181575583
 21
1.741783887475461
 72
     1
 10
2.997536181575583
 20
1.741783887475461
 11
2.997536181575583
 21
1.702413808735304
 72
     1
 10
2.997536181575583
 20
1.702413808735304
 11
2.975787843808675
 21
1.702413808737971
 72
     1
 10
2.975787843808675
 20
1.702413808737971
 11
2.965471351823783
 21
1.505563415034516
 72
     1
 10
2.965471351823783
 20
1.505563415034516
 11
2.829991476394494
 21
1.505563415034516
 72
     1
 10
2.829991476394494
 20
1.505563415034516
 11
2.829991476394494
 21
1.348083100073886
 72
     1
 10
2.829991476394494
 20
1.348083100073886
 11
2.908836149484494
 21
1.348083100073886
 72
     1
 10
2.908836149484494
 20
1.348083100073886
 11
2.908836149484494
 21
1.426823257554201
 72
     1
 10
2.908836149484494
 20
1.426823257554201
 11
2.945786312453605
 21
1.426823257554201
 72
     1
 10
2.945786312453605
 20
1.426823257554201
 11
2.945786312453605
 21
1.348083100073886
 72
     1
 10
2.945786312453605
 20
1.348083100073886
 11
7.143774239673941
 21
1.348083100073886
 72
     1
 10
7.143774239673941
 20
1.348083100073886
 11
7.143774239673941
 21
1.426823257554201
 72
     1
 10
7.143774239673941
 20
1.426823257554201
 11
7.180724402643051
 21
1.426823257554201
 72
     1
 10
7.180724402643051
 20
1.426823257554201
 11
7.180724402643051
 21
1.348083100073886
 72
     1
 10
7.180724402643051
 20
1.348083100073886
 11
7.259569075733051
 21
1.348083100073886
 72
     1
 10
7.259569075733051
 20
1.348083100073886
 11
7.259569075733051
 21
1.505563415034516
 72
     1
 10
7.259569075733051
 20
1.505563415034516
 11
7.124089200303762
 21
1.505563415034516
 72
     1
 10
7.124089200303762
 20
1.505563415034516
 11
7.113772708318871
 21
1.702413808737971
 72
     1
 10
7.113772708318871
 20
1.702413808737971
 11
7.092024370551962
 21
1.702413808735304
 97
        0
 75
     0
 76
     1
 52
0.0
 41
1.125
 77
     0
 78
     1
 53
45.0
 43
0.0
 44
0.0
 45
-0.0994368911043582
 46
0.0994368911043583
 79
     0
 98
        1
 10
0.0
 20
0.0
  0
HATCH
  5
603
330
1F
100
AcDbEntity
  8
0
  6
Continuous
 62
     7
370
     0
100
AcDbHatch
 10
0.0
 20
0.0
 30
0.0
210
0.0
220
0.0
230
1.0
  2
ANSI31
 70
     0
 71
     0
 91
        1
 92
        0
 93
        5
 72
     1
 10
7.544780276063774
 20
1.348083100073886
 11
7.544780276063774
 21
1.466193336294359
 72
     2
 10
7.505410197323616
 20
1.466193336294359
 40
0.0393700787401575
 50
0.0
 51
90.0
 73
     1
 72
     1
 10
7.505410197323616
 20
1.505563415034516
 11
7.436290688992921
 21
1.505563415034516
 72
     1
 10
7.436290688992921
 20
1.505563415034516
 11
7.436290688992921
 21
1.348083100073886
 72
     1
 10
7.436290688992921
 20
1.348083100073886
 11
7.544780276063774
 21
1.348083100073886
 97
        0
 75
     0
 76
     1
 52
0.0
 41
1.125
 77
     0
 78
     1
 53
45.0
 43
0.0
 44
0.0
 45
-0.0994368911043582
 46
0.0994368911043583
 79
     0
 98
        1
 10
0.0
 20
0.0
  0
HATCH
  5
604
330
1F
100
AcDbEntity
  8
0
  6
Continuous
 62
     7
370
     0
100
AcDbHatch
 10
0.0
 20
0.0
 30
0.0
210
0.0
220
0.0
230
1.0
  2
ANSI31
 70
     0
 71
     0
 91
        1
 92
        0
 93
       14
 72
     1
 10
3.081590692128704
 20
2.068555541018768
 11
7.007969859998843
 21
2.068555541018768
 72
     1
 10
7.007969859998843
 20
2.068555541018768
 11
7.02819018428915
 21
1.682728769365225
 72
     1
 10
7.02819018428915
 20
1.682728769365225
 11
7.064465315433853
 21
1.682728769365225
 72
     1
 10
7.064465315433853
 20
1.682728769365225
 11
7.064465315433852
 21
1.741783887475461
 72
     1
 10
7.064465315433852
 20
1.741783887475461
 11
7.111709409922041
 21
1.741783887475461
 72
     1
 10
7.111709409922041
 20
1.741783887475461
 11
7.092000090456205
 21
2.117860106225183
 72
     2
 10
7.052683967040671
 20
2.115799635506957
 40
0.0393700787401575
 50
2.999999999999684
 51
90.0
 73
     1
 72
     1
 10
7.052683967040671
 20
2.155169714247115
 11
3.036876585086875
 21
2.155169714247115
 72
     2
 10
3.036876585086875
 20
2.115799635506957
 40
0.0393700787401575
 50
90.0
 51
177.0000000000003
 73
     1
 72
     1
 10
2.997560461671342
 20
2.117860106225183
 11
2.977851142205506
 21
1.741783887475461
 72
     1
 10
2.977851142205506
 20
1.741783887475461
 11
3.025095236693695
 21
1.741783887475461
 72
     1
 10
3.025095236693695
 20
1.741783887475461
 11
3.025095236693695
 21
1.682728769365225
 72
     1
 10
3.025095236693695
 20
1.682728769365225
 11
3.061370367838397
 21
1.682728769365225
 72
     1
 10
3.061370367838397
 20
1.682728769365225
 11
3.081590692128704
 21
2.068555541018768
 97
        0
 75
     0
 76
     1
 52
0.0
 41
1.125
 77
     0
 78
     1
 53
45.0
 43
0.0
 44
0.0
 45
-0.0994368911043582
 46
0.0994368911043583
 79
     0
 98
        1
 10
0.0
 20
0.0
  0
DIMENSION
  5
605
330
1F
100
AcDbEntity
  8
0
  6
Continuous
 62
     7
370
     0
100
AcDbDimension
  2
*D40
 10
2.0618794842
 20
2.068555541
 30
0.0
 11
2.0618794842
 21
1.850051604
 31
0.0
 70
   160
 71
     2
 42
-1.0
  3
SLDDIMSTYLE6
100
AcDbAlignedDimension
 13
3.5127832416
 23
1.631547667
 33
0.0
 14
3.0815906921
 24
2.068555541
 34
0.0
 50
90.0
100
AcDbRotatedDimension
  0
DIMENSION
  5
619
330
1F
100
AcDbEntity
  8
0
  6
Continuous
 62
     7
370
     0
100
AcDbDimension
  2
*D41
 10
7.9877095914
 20
2.068555541
 30
0.0
 11
7.9877095914
 21
1.7516264072
 31
0.0
 70
   160
 71
     2
 42
-1.0
  3
SLDDIMSTYLE6
100
AcDbAlignedDimension
 13
7.0090015092
 23
1.4346972733
 33
0.0
 14
7.00796986
 24
2.068555541
 34
0.0
 50
90.0
100
AcDbRotatedDimension
  0
DIMENSION
  5
62D
330
1F
100
AcDbEntity
  8
0
  6
Continuous
 62
     7
370
     0
100
AcDbDimension
  2
*D42
 10
8.6357369574
 20
2.1551697142
 30
0.0
 11
8.6357369574
 21
1.7516264072
 31
0.0
 70
   160
 71
     2
 42
-1.0
  3
SLDDIMSTYLE2
100
AcDbAlignedDimension
 13
7.5447802761
 23
1.3480831001
 33
0.0
 14
7.052683967
 24
2.1551697142
 34
0.0
 50
90.0
100
AcDbRotatedDimension
  0
ENDSEC
  0
SECTION
  2
OBJECTS
  0
DICTIONARY
  5
C
330
0
100
AcDbDictionary
281
     1
  3
ACAD_GROUP
350
D
  3
ACAD_LAYOUT
350
1A
  3
ACAD_MLINESTYLE
350
17
  3
ACAD_PLOTSETTINGS
350
19
  3
ACAD_PLOTSTYLENAME
350
E
  0
DICTIONARY
  5
D
102
{ACAD_REACTORS
330
C
102
}
330
C
100
AcDbDictionary
281
     1
  0
DICTIONARY
  5
1A
102
{ACAD_REACTORS
330
C
102
}
330
C
100
AcDbDictionary
281
     1
  3
Layout1
350
1E
  3
Layout2
350
26
  3
Model
350
22
  0
DICTIONARY
  5
17
102
{ACAD_REACTORS
330
C
102
}
330
C
100
AcDbDictionary
281
     1
  3
Standard
350
18
  0
DICTIONARY
  5
19
102
{ACAD_REACTORS
330
C
102
}
330
C
100
AcDbDictionary
281
     1
  0
ACDBDICTIONARYWDFLT
  5
E
102
{ACAD_REACTORS
330
C
102
}
330
C
100
AcDbDictionary
281
     1
  3
Normal
350
F
100
AcDbDictionaryWithDefault
340
F
  0
LAYOUT
  5
1E
102
{ACAD_REACTORS
330
1A
102
}
330
1A
100
AcDbPlotSettings
  1

  2
none_device
  4

  6

 40
0.0
 41
0.0
 42
0.0
 43
0.0
 44
0.0
 45
0.0
 46
0.0
 47
0.0
 48
0.0
 49
0.0
140
0.0
141
0.0
142
1.0
143
1.0
 70
   688
 72
     0
 73
     0
 74
     5
  7

 75
    16
147
1.0
148
0.0
149
0.0
100
AcDbLayout
  1
Layout1
 70
     1
 71
     1
 10
0.0
 20
0.0
 11
12.0
 21
9.0
 12
0.0
 22
0.0
 32
0.0
 14
1.0000000000E+20
 24
1.0000000000E+20
 34
1.0000000000E+20
 15
-1.0000000000E+20
 25
-1.0000000000E+20
 35
-1.0000000000E+20
146
0.0
 13
0.0
 23
0.0
 33
0.0
 16
1.0
 26
0.0
 36
0.0
 17
0.0
 27
1.0
 37
0.0
 76
     0
330
1B
  0
LAYOUT
  5
26
102
{ACAD_REACTORS
330
1A
102
}
330
1A
100
AcDbPlotSettings
  1

  2
none_device
  4

  6

 40
0.0
 41
0.0
 42
0.0
 43
0.0
 44
0.0
 45
0.0
 46
0.0
 47
0.0
 48
0.0
 49
0.0
140
0.0
141
0.0
142
1.0
143
1.0
 70
   688
 72
     0
 73
     0
 74
     5
  7

 75
    16
147
1.0
148
0.0
149
0.0
100
AcDbLayout
  1
Layout2
 70
     1
 71
     2
 10
0.0
 20
0.0
 11
0.0
 21
0.0
 12
0.0
 22
0.0
 32
0.0
 14
0.0
 24
0.0
 34
0.0
 15
0.0
 25
0.0
 35
0.0
146
0.0
 13
0.0
 23
0.0
 33
0.0
 16
1.0
 26
0.0
 36
0.0
 17
0.0
 27
1.0
 37
0.0
 76
     0
330
23
  0
LAYOUT
  5
22
102
{ACAD_REACTORS
330
1A
102
}
330
1A
100
AcDbPlotSettings
  1

  2
none_device
  4

  6

 40
0.0
 41
0.0
 42
0.0
 43
0.0
 44
0.0
 45
0.0
 46
0.0
 47
0.0
 48
0.0
 49
0.0
140
0.0
141
0.0
142
1.0
143
1.0
 70
  1712
 72
     0
 73
     0
 74
     0
  7

 75
     0
147
1.0
148
0.0
149
0.0
100
AcDbLayout
  1
Model
 70
     1
 71
     0
 10
0.0
 20
0.0
 11
19.125
 21
12.375
 12
0.0
 22
0.0
 32
0.0
 14
0.0
 24
0.0
 34
0.0
 15
19.125
 25
12.375
 35
0.0
146
0.0
 13
0.0
 23
0.0
 33
0.0
 16
1.0
 26
0.0
 36
0.0
 17
0.0
 27
1.0
 37
0.0
 76
     0
330
1F
331
29
  0
MLINESTYLE
  5
18
102
{ACAD_REACTORS
330
17
102
}
330
17
100
AcDbMlineStyle
  2
Standard
 70
     0
  3

 62
   256
 51
90.0
 52
90.0
 71
     2
 49
0.5
 62
   256
  6
BYLAYER
 49
-0.5
 62
   256
  6
BYLAYER
  0
ACDBPLACEHOLDER
  5
F
102
{ACAD_REACTORS
330
E
102
}
330
E
  0
ENDSEC
  0
EOF
