  0
SECTION
  2
HEADER
  9
$ACADVER
  1
AC1015
  9
$ACADMAINTVER
 70
     6
  9
$DWGCODEPAGE
  3
ANSI_1252
  9
$INSBASE
 10
0.0
 20
0.0
 30
0.0
  9
$EXTMIN
 10
0.0
 20
0.0
 30
0.0
  9
$EXTMAX
 10
19.125
 20
12.375
 30
0.0
  9
$LIMMIN
 10
0.0
 20
0.0
  9
$LIMMAX
 10
19.125
 20
12.375
  9
$ORTHOMODE
 70
     0
  9
$REGENMODE
 70
     1
  9
$FILLMODE
 70
     1
  9
$QTEXTMODE
 70
     0
  9
$MIRRTEXT
 70
     1
  9
$LTSCALE
 40
1.125
  9
$ATTMODE
 70
     1
  9
$TEXTSIZE
 40
0.140625
  9
$TRACEWID
 40
0.05
  9
$TEXTSTYLE
  7
Standard
  9
$CLAYER
  8
0
  9
$CELTYPE
  6
ByLayer
  9
$CECOLOR
 62
   256
  9
$CELTSCALE
 40
1.0
  9
$DISPSILH
 70
     0
  9
$DIMSCALE
 40
1.0
  9
$DIMASZ
 40
0.14625
  9
$DIMEXO
 40
0.05625
  9
$DIMDLI
 40
0.38
  9
$DIMRND
 40
0.0
  9
$DIMDLE
 40
0.0
  9
$DIMEXE
 40
0.140625
  9
$DIMTP
 40
0.0
  9
$DIMTM
 40
0.0
  9
$DIMTXT
 40
0.140625
  9
$DIMCEN
 40
0.09
  9
$DIMTSZ
 40
0.0
  9
$DIMTOL
 70
     0
  9
$DIMLIM
 70
     0
  9
$DIMTIH
 70
     1
  9
$DIMTOH
 70
     1
  9
$DIMSE1
 70
     0
  9
$DIMSE2
 70
     0
  9
$DIMTAD
 70
     1
  9
$DIMZIN
 70
     0
  9
$DIMBLK
  1

  9
$DIMASO
 70
     1
  9
$DIMSHO
 70
     1
  9
$DIMPOST
  1

  9
$DIMAPOST
  1

  9
$DIMALT
 70
     0
  9
$DIMALTD
 70
     2
  9
$DIMALTF
 40
25.4
  9
$DIMLFAC
 40
1.0
  9
$DIMTOFL
 70
     0
  9
$DIMTVP
 40
0.0
  9
$DIMTIX
 70
     0
  9
$DIMSOXD
 70
     0
  9
$DIMSAH
 70
     0
  9
$DIMBLK1
  1

  9
$DIMBLK2
  1

  9
$DIMSTYLE
  2
Standard
  9
$DIMCLRD
 70
     0
  9
$DIMCLRE
 70
     0
  9
$DIMCLRT
 70
     0
  9
$DIMTFAC
 40
1.0
  9
$DIMGAP
 40
0.0675
  9
$DIMJUST
 70
     0
  9
$DIMSD1
 70
     0
  9
$DIMSD2
 70
     0
  9
$DIMTOLJ
 70
     1
  9
$DIMTZIN
 70
     0
  9
$DIMALTZ
 70
     0
  9
$DIMALTTZ
 70
     0
  9
$DIMUPT
 70
     0
  9
$DIMDEC
 70
     2
  9
$DIMTDEC
 70
     2
  9
$DIMALTU
 70
     2
  9
$DIMALTTD
 70
     2
  9
$DIMTXSTY
  7
Standard
  9
$DIMAUNIT
 70
     0
  9
$DIMADEC
 70
     2
  9
$DIMALTRND
 40
0.0
  9
$DIMAZIN
 70
     0
  9
$DIMDSEP
 70
    46
  9
$DIMATFIT
 70
     3
  9
$DIMFRAC
 70
     0
  9
$DIMLDRBLK
  1

  9
$DIMLUNIT
 70
     2
  9
$DIMLWD
 70
    -2
  9
$DIMLWE
 70
    -2
  9
$DIMTMOVE
 70
     0
  9
$LUNITS
 70
     2
  9
$LUPREC
 70
     2
  9
$SKETCHINC
 40
0.1
  9
$FILLETRAD
 40
0.5
  9
$AUNITS
 70
     0
  9
$AUPREC
 70
     2
  9
$MENU
  1
.
  9
$ELEVATION
 40
0.0
  9
$PELEVATION
 40
0.0
  9
$THICKNESS
 40
0.0
  9
$LIMCHECK
 70
     0
  9
$CHAMFERA
 40
0.5
  9
$CHAMFERB
 40
0.5
  9
$CHAMFERC
 40
1.0
  9
$CHAMFERD
 40
0.0
  9
$SKPOLY
 70
     0
  9
$TDCREATE
 40
2456966.627376562
  9
$TDUCREATE
 40
2456966.835709896
  9
$TDUPDATE
 40
2456966.627376574
  9
$TDUUPDATE
 40
2456966.835709908
  9
$TDINDWG
 40
0.0000000116
  9
$TDUSRTIMER
 40
0.0000000116
  9
$USRTIMER
 70
     1
  9
$ANGBASE
 50
0.0
  9
$ANGDIR
 70
     0
  9
$PDMODE
 70
     0
  9
$PDSIZE
 40
-1.0
  9
$PLINEWID
 40
0.0
  9
$SPLFRAME
 70
     0
  9
$SPLINETYPE
 70
     6
  9
$SPLINESEGS
 70
     8
  9
$HANDSEED
  5
643
  9
$SURFTAB1
 70
     6
  9
$SURFTAB2
 70
     6
  9
$SURFTYPE
 70
     6
  9
$SURFU
 70
     6
  9
$SURFV
 70
     6
  9
$UCSBASE
  2

  9
$UCSNAME
  2

  9
$UCSORG
 10
0.0
 20
0.0
 30
0.0
  9
$UCSXDIR
 10
1.0
 20
0.0
 30
0.0
  9
$UCSYDIR
 10
0.0
 20
1.0
 30
0.0
  9
$UCSORTHOREF
  2

  9
$UCSORTHOVIEW
 70
     0
  9
$UCSORGTOP
 10
0.0
 20
0.0
 30
0.0
  9
$UCSORGBOTTOM
 10
0.0
 20
0.0
 30
0.0
  9
$UCSORGLEFT
 10
0.0
 20
0.0
 30
0.0
  9
$UCSORGRIGHT
 10
0.0
 20
0.0
 30
0.0
  9
$UCSORGFRONT
 10
0.0
 20
0.0
 30
0.0
  9
$UCSORGBACK
 10
0.0
 20
0.0
 30
0.0
  9
$PUCSBASE
  2

  9
$PUCSNAME
  2

  9
$PUCSORG
 10
0.0
 20
0.0
 30
0.0
  9
$PUCSXDIR
 10
1.0
 20
0.0
 30
0.0
  9
$PUCSYDIR
 10
0.0
 20
1.0
 30
0.0
  9
$PUCSORTHOREF
  2

  9
$PUCSORTHOVIEW
 70
     0
  9
$PUCSORGTOP
 10
0.0
 20
0.0
 30
0.0
  9
$PUCSORGBOTTOM
 10
0.0
 20
0.0
 30
0.0
  9
$PUCSORGLEFT
 10
0.0
 20
0.0
 30
0.0
  9
$PUCSORGRIGHT
 10
0.0
 20
0.0
 30
0.0
  9
$PUCSORGFRONT
 10
0.0
 20
0.0
 30
0.0
  9
$PUCSORGBACK
 10
0.0
 20
0.0
 30
0.0
  9
$USERI1
 70
     0
  9
$USERI2
 70
     0
  9
$USERI3
 70
     0
  9
$USERI4
 70
     0
  9
$USERI5
 70
     0
  9
$USERR1
 40
0.0
  9
$USERR2
 40
0.0
  9
$USERR3
 40
0.0
  9
$USERR4
 40
0.0
  9
$USERR5
 40
0.0
  9
$WORLDVIEW
 70
     1
  9
$SHADEDGE
 70
     3
  9
$SHADEDIF
 70
    70
  9
$TILEMODE
 70
     1
  9
$MAXACTVP
 70
    64
  9
$PINSBASE
 10
0.0
 20
0.0
 30
0.0
  9
$PLIMCHECK
 70
     0
  9
$PEXTMIN
 10
1.0000000000E+20
 20
1.0000000000E+20
 30
1.0000000000E+20
  9
$PEXTMAX
 10
-1.0000000000E+20
 20
-1.0000000000E+20
 30
-1.0000000000E+20
  9
$PLIMMIN
 10
0.0
 20
0.0
  9
$PLIMMAX
 10
12.0
 20
9.0
  9
$UNITMODE
 70
     0
  9
$VISRETAIN
 70
     1
  9
$PLINEGEN
 70
     0
  9
$PSLTSCALE
 70
     1
  9
$TREEDEPTH
 70
  3020
  9
$CMLSTYLE
  2
Standard
  9
$CMLJUST
 70
     0
  9
$CMLSCALE
 40
1.0
  9
$PROXYGRAPHICS
 70
     1
  9
$MEASUREMENT
 70
     0
  9
$CELWEIGHT
370
    -1
  9
$ENDCAPS
280
     0
  9
$JOINSTYLE
280
     0
  9
$LWDISPLAY
290
     1
  9
$INSUNITS
 70
     1
  9
$HYPERLINKBASE
  1

  9
$STYLESHEET
  1

  9
$XEDIT
290
     1
  9
$CEPSNTYPE
380
     0
  9
$PSTYLEMODE
290
     1
  9
$FINGERPRINTGUID
  2
{A98B80EF-0A92-41D8-A18B-6AC7DBAB43D2}
  9
$VERSIONGUID
  2
{FAEB1C32-E019-11D5-929B-00C0DF256EC4}
  9
$EXTNAMES
290
     1
  9
$PSVPSCALE
 40
0.0
  9
$OLESTARTUP
290
     0
  0
ENDSEC
  0
SECTION
  2
CLASSES
  0
CLASS
  1
ACDBDICTIONARYWDFLT
  2
AcDbDictionaryWithDefault
  3
ObjectDBX Classes
 90
        0
280
     0
281
     0
  0
CLASS
  1
VISUALSTYLE
  2
AcDbVisualStyle
  3
ObjectDBX Classes
 90
     4095
280
     0
281
     0
  0
CLASS
  1
MATERIAL
  2
AcDbMaterial
  3
ObjectDBX Classes
 90
     1153
280
     0
281
     0
  0
CLASS
  1
ACDBPLACEHOLDER
  2
AcDbPlaceHolder
  3
ObjectDBX Classes
 90
        0
280
     0
281
     0
  0
CLASS
  1
LAYOUT
  2
AcDbLayout
  3
ObjectDBX Classes
 90
        0
280
     0
281
     0
  0
ENDSEC
  0
SECTION
  2
TABLES
  0
TABLE
  2
VPORT
  5
8
330
0
100
AcDbSymbolTable
 70
     1
  0
VPORT
  5
29
330
8
100
AcDbSymbolTableRecord
100
AcDbViewportTableRecord
  2
*Active
 70
     0
 10
0.0
 20
0.0
 11
1.0
 21
1.0
 12
9.5625
 22
6.1875
 13
0.0
 23
0.0
 14
0.5
 24
0.5
 15
0.5
 25
0.5
 16
0.0
 26
0.0
 36
1.0
 17
0.0
 27
0.0
 37
0.0
 40
12.375
 41
1.5454545455
 42
50.0
 43
0.0
 44
0.0
 50
0.0
 51
0.0
 71
     0
 72
  2000
 73
     1
 74
     3
 75
     0
 76
     0
 77
     0
 78
     0
281
     0
 65
     1
110
0.0
120
0.0
130
0.0
111
1.0
121
0.0
131
0.0
112
0.0
122
1.0
132
0.0
 79
     0
146
0.0
  0
ENDTAB
  0
TABLE
  2
LTYPE
  5
5
330
0
100
AcDbSymbolTable
 70
     6
  0
LTYPE
  5
14
330
5
100
AcDbSymbolTableRecord
100
AcDbLinetypeTableRecord
  2
ByBlock
 70
     0
  3

 72
    65
 73
     0
 40
0.0
  0
LTYPE
  5
15
330
5
100
AcDbSymbolTableRecord
100
AcDbLinetypeTableRecord
  2
ByLayer
 70
     0
  3

 72
    65
 73
     0
 40
0.0
  0
LTYPE
  5
16
330
5
100
AcDbSymbolTableRecord
100
AcDbLinetypeTableRecord
  2
Continuous
 70
     0
  3
Solid line
 72
    65
 73
     0
 40
0.0
  0
LTYPE
  5
3F
330
5
100
AcDbSymbolTableRecord
100
AcDbLinetypeTableRecord
  2
HIDDEN
 70
     0
  3
Hidden __ __ __ __ __ __ __ __ __ __ __ __ __ __
 72
    65
 73
     2
 40
0.075
 49
0.05
 74
     0
 49
-0.025
 74
     0
  0
LTYPE
  5
40
330
5
100
AcDbSymbolTableRecord
100
AcDbLinetypeTableRecord
  2
PHANTOM
 70
     0
  3
Phantom ______  __  __  ______  __  __  ______
 72
    65
 73
     6
 40
0.5
 49
0.25
 74
     0
 49
-0.05
 74
     0
 49
0.05
 74
     0
 49
-0.05
 74
     0
 49
0.05
 74
     0
 49
-0.05
 74
     0
  0
LTYPE
  5
41
330
5
100
AcDbSymbolTableRecord
100
AcDbLinetypeTableRecord
  2
CENTER
 70
     0
  3
Center ____ _ ____ _ ____ _ ____ _ ____ _ ____
 72
    65
 73
     4
 40
0.4
 49
0.25
 74
     0
 49
-0.05
 74
     0
 49
0.05
 74
     0
 49
-0.05
 74
     0
  0
LTYPE
  5
42
330
5
100
AcDbSymbolTableRecord
100
AcDbLinetypeTableRecord
  2
CENTERX2
 70
     0
  3
Center (2x) ________  __  ________  __  _____
 72
    65
 73
     4
 40
0.8
 49
0.5
 74
     0
 49
-0.1
 74
     0
 49
0.1
 74
     0
 49
-0.1
 74
     0
  0
LTYPE
  5
43
330
5
100
AcDbSymbolTableRecord
100
AcDbLinetypeTableRecord
  2
DOT2
 70
     0
  3
Dot (.5x) ........................................
 72
    65
 73
     2
 40
0.025
 49
0.0
 74
     0
 49
-0.025
 74
     0
  0
ENDTAB
  0
TABLE
  2
LAYER
  5
2
330
0
100
AcDbSymbolTable
 70
     1
  0
LAYER
  5
10
330
2
100
AcDbSymbolTableRecord
100
AcDbLayerTableRecord
  2
0
 70
     0
 62
     7
  6
Continuous
370
    -3
390
F
  0
ENDTAB
  0
TABLE
  2
STYLE
  5
3
330
0
100
AcDbSymbolTable
 70
     3
  0
STYLE
  5
11
330
3
100
AcDbSymbolTableRecord
100
AcDbTextStyleTableRecord
  2
Standard
 70
     0
 40
0.0
 41
1.0
 50
0.0
 71
     0
 42
0.2
  3
txt
  4

  0
STYLE
  5
77
330
3
100
AcDbSymbolTableRecord
100
AcDbTextStyleTableRecord
  2
SLDTEXTSTYLE0
 70
     0
 40
0.0
 41
0.75
 50
0.0
 71
     0
 42
0.2
  3
TXT
  4

  0
STYLE
  5
81
330
3
100
AcDbSymbolTableRecord
100
AcDbTextStyleTableRecord
  2
SLDTEXTSTYLE1
 70
     0
 40
0.0
 41
0.7
 50
0.0
 71
     0
 42
0.2
  3
TXT
  4

  0
ENDTAB
  0
TABLE
  2
VIEW
  5
6
330
0
100
AcDbSymbolTable
 70
     0
  0
ENDTAB
  0
TABLE
  2
UCS
  5
7
330
0
100
AcDbSymbolTable
 70
     0
  0
ENDTAB
  0
TABLE
  2
APPID
  5
9
330
0
100
AcDbSymbolTable
 70
     1
  0
APPID
  5
12
330
9
100
AcDbSymbolTableRecord
100
AcDbRegAppTableRecord
  2
ACAD
 70
     0
  0
ENDTAB
  0
TABLE
  2
DIMSTYLE
  5
A
330
0
100
AcDbSymbolTable
 70
    10
100
AcDbDimStyleTable
  0
DIMSTYLE
105
27
330
A
100
AcDbSymbolTableRecord
100
AcDbDimStyleTableRecord
  2
Standard
 70
     0
178
     0
340
11
  0
DIMSTYLE
105
FE
102
{ACAD_REACTORS
330
FD
330
112
330
126
330
182
330
196
330
1BE
330
1D2
330
473
330
487
330
49B
330
4AF
330
607
330
61B
102
}
330
A
100
AcDbSymbolTableRecord
100
AcDbDimStyleTableRecord
  2
SLDDIMSTYLE0
 70
     0
 41
0.14625
 44
0.0
 45
0.000000001
 78
    12
 79
     3
140
0.140625
147
0.03515625
148
0.000000001
170
     1
173
     1
178
     0
271
     2
272
     2
276
     2
284
    12
340
77
  0
DIMSTYLE
105
13B
102
{ACAD_REACTORS
330
13A
102
}
330
A
100
AcDbSymbolTableRecord
100
AcDbDimStyleTableRecord
  2
SLDDIMSTYLE1
 70
     0
 41
0.14625
 44
0.0
 45
0.000000001
 78
    12
 79
     3
140
0.140625
141
0.0
147
0.03515625
148
0.000000001
170
     1
173
     1
178
     0
271
     2
272
     2
276
     2
284
    12
340
77
  0
DIMSTYLE
105
14D
102
{ACAD_REACTORS
330
14C
330
15D
102
}
330
A
100
AcDbSymbolTableRecord
100
AcDbDimStyleTableRecord
  2
SLDDIMSTYLE2
 70
     0
 41
0.14625
 44
0.0
 45
0.000000001
 78
    12
 79
     3
140
0.140625
141
0.0
147
0.03515625
148
0.000000001
170
     1
173
     1
178
     0
271
     2
272
     2
276
     2
284
    12
340
77
  0
DIMSTYLE
105
16E
102
{ACAD_REACTORS
330
16D
330
1AA
330
57D
330
62F
102
}
330
A
100
AcDbSymbolTableRecord
100
AcDbDimStyleTableRecord
  2
SLDDIMSTYLE3
 70
     0
 41
0.14625
 44
0.0
 45
0.000000001
 78
     4
 79
     1
140
0.140625
147
0.03515625
148
0.000000001
170
     1
173
     1
178
     0
271
     2
272
     2
276
     2
284
    12
340
77
  0
DIMSTYLE
105
1ED
330
A
100
AcDbSymbolTableRecord
100
AcDbDimStyleTableRecord
  2
SLDDIMSTYLE4
 70
     0
 41
0.14625
 44
0.0
 45
0.000000001
140
0.0
146
0.14625
147
0.0
173
     1
178
     0
271
     0
272
     0
276
     2
340
11
  0
DIMSTYLE
105
39A
102
{ACAD_REACTORS
330
399
330
510
102
}
330
A
100
AcDbSymbolTableRecord
100
AcDbDimStyleTableRecord
  2
SLDDIMSTYLE5
 70
     0
 41
0.14625
 44
0.0
 45
0.000000001
 78
     4
 79
     1
140
0.140625
147
0.03515625
148
0.000000001
170
     1
172
     1
173
     1
178
     0
271
     2
272
     2
276
     2
284
    12
289
     0
340
77
  0
DIMSTYLE
105
3AF
102
{ACAD_REACTORS
330
3AE
330
3C4
330
3D9
330
4FE
330
554
330
568
102
}
330
A
100
AcDbSymbolTableRecord
100
AcDbDimStyleTableRecord
  2
SLDDIMSTYLE6
 70
     0
 41
0.14625
 44
0.0
 45
0.000000001
 78
    12
 79
     3
140
0.140625
147
0.03515625
148
0.000000001
170
     1
172
     1
173
     1
178
     0
271
     2
272
     2
276
     2
284
    12
289
     0
340
77
  0
DIMSTYLE
105
4EC
102
{ACAD_REACTORS
330
4EB
102
}
330
A
100
AcDbSymbolTableRecord
100
AcDbDimStyleTableRecord
  2
SLDDIMSTYLE7
 70
     0
 41
0.14625
 44
0.0
 78
    12
 79
     3
140
0.140625
144
1.125
147
0.03515625
148
0.000000001
170
     1
173
     1
178
     0
272
     0
276
     2
284
    12
340
77
  0
DIMSTYLE
105
598
330
A
100
AcDbSymbolTableRecord
100
AcDbDimStyleTableRecord
  2
SLDDIMSTYLE8
 70
     0
 41
0.045
 44
0.0
 45
0.000000001
140
0.0
146
0.045
147
0.0
173
     1
178
     0
271
     0
272
     0
276
     2
340
11
341
599
343
599
344
599
  0
ENDTAB
  0
TABLE
  2
BLOCK_RECORD
  5
1
330
0
100
AcDbSymbolTable
 70
    45
  0
BLOCK_RECORD
  5
1F
330
1
100
AcDbSymbolTableRecord
100
AcDbBlockTableRecord
  2
*Model_Space
340
22
  0
BLOCK_RECORD
  5
1B
330
1
100
AcDbSymbolTableRecord
100
AcDbBlockTableRecord
  2
*Paper_Space
340
1E
  0
BLOCK_RECORD
  5
23
330
1
100
AcDbSymbolTableRecord
100
AcDbBlockTableRecord
  2
*Paper_Space0
340
26
  0
BLOCK_RECORD
  5
74
330
1
100
AcDbSymbolTableRecord
100
AcDbBlockTableRecord
  2
SW_NOTE_0
340
0
102
{BLKREFS
331
7E
102
}
  0
BLOCK_RECORD
  5
83
330
1
100
AcDbSymbolTableRecord
100
AcDbBlockTableRecord
  2
SW_NOTE_1
340
0
102
{BLKREFS
331
88
102
}
  0
BLOCK_RECORD
  5
89
330
1
100
AcDbSymbolTableRecord
100
AcDbBlockTableRecord
  2
SW_NOTE_2
340
0
102
{BLKREFS
331
8E
102
}
  0
BLOCK_RECORD
  5
8F
330
1
100
AcDbSymbolTableRecord
100
AcDbBlockTableRecord
  2
SW_NOTE_3
340
0
102
{BLKREFS
331
94
102
}
  0
BLOCK_RECORD
  5
FF
330
1
100
AcDbSymbolTableRecord
100
AcDbBlockTableRecord
  2
*D5
340
0
  0
BLOCK_RECORD
  5
113
330
1
100
AcDbSymbolTableRecord
100
AcDbBlockTableRecord
  2
*D6
340
0
  0
BLOCK_RECORD
  5
127
330
1
100
AcDbSymbolTableRecord
100
AcDbBlockTableRecord
  2
*D7
340
0
  0
BLOCK_RECORD
  5
13C
330
1
100
AcDbSymbolTableRecord
100
AcDbBlockTableRecord
  2
*D8
340
0
  0
BLOCK_RECORD
  5
14E
330
1
100
AcDbSymbolTableRecord
100
AcDbBlockTableRecord
  2
*D9
340
0
  0
BLOCK_RECORD
  5
15E
330
1
100
AcDbSymbolTableRecord
100
AcDbBlockTableRecord
  2
*D10
340
0
  0
BLOCK_RECORD
  5
16F
330
1
100
AcDbSymbolTableRecord
100
AcDbBlockTableRecord
  2
*D11
340
0
  0
BLOCK_RECORD
  5
183
330
1
100
AcDbSymbolTableRecord
100
AcDbBlockTableRecord
  2
*D12
340
0
  0
BLOCK_RECORD
  5
197
330
1
100
AcDbSymbolTableRecord
100
AcDbBlockTableRecord
  2
*D13
340
0
  0
BLOCK_RECORD
  5
1AB
330
1
100
AcDbSymbolTableRecord
100
AcDbBlockTableRecord
  2
*D14
340
0
  0
BLOCK_RECORD
  5
1BF
330
1
100
AcDbSymbolTableRecord
100
AcDbBlockTableRecord
  2
*D15
340
0
  0
BLOCK_RECORD
  5
1D3
330
1
100
AcDbSymbolTableRecord
100
AcDbBlockTableRecord
  2
*D16
340
0
  0
BLOCK_RECORD
  5
1E6
330
1
100
AcDbSymbolTableRecord
100
AcDbBlockTableRecord
  2
SW_NOTE_4
340
0
102
{BLKREFS
331
1EC
102
}
  0
BLOCK_RECORD
  5
1EF
330
1
100
AcDbSymbolTableRecord
100
AcDbBlockTableRecord
  2
SW_CENTERMARKSYMBOL_0
340
0
102
{BLKREFS
331
1FA
102
}
  0
BLOCK_RECORD
  5
1FB
330
1
100
AcDbSymbolTableRecord
100
AcDbBlockTableRecord
  2
SW_CENTERMARKSYMBOL_1
340
0
102
{BLKREFS
331
206
102
}
  0
BLOCK_RECORD
  5
207
330
1
100
AcDbSymbolTableRecord
100
AcDbBlockTableRecord
  2
SW_CENTERMARKSYMBOL_2
340
0
102
{BLKREFS
331
212
102
}
  0
BLOCK_RECORD
  5
213
330
1
100
AcDbSymbolTableRecord
100
AcDbBlockTableRecord
  2
SW_CENTERMARKSYMBOL_3
340
0
102
{BLKREFS
331
21E
102
}
  0
BLOCK_RECORD
  5
21F
330
1
100
AcDbSymbolTableRecord
100
AcDbBlockTableRecord
  2
SW_CENTERMARKSYMBOL_4
340
0
102
{BLKREFS
331
22A
102
}
  0
BLOCK_RECORD
  5
22B
330
1
100
AcDbSymbolTableRecord
100
AcDbBlockTableRecord
  2
SW_CENTERMARKSYMBOL_5
340
0
102
{BLKREFS
331
236
102
}
  0
BLOCK_RECORD
  5
237
330
1
100
AcDbSymbolTableRecord
100
AcDbBlockTableRecord
  2
SW_CENTERMARKSYMBOL_6
340
0
102
{BLKREFS
331
242
102
}
  0
BLOCK_RECORD
  5
243
330
1
100
AcDbSymbolTableRecord
100
AcDbBlockTableRecord
  2
SW_CENTERMARKSYMBOL_7
340
0
102
{BLKREFS
331
24E
102
}
  0
BLOCK_RECORD
  5
39B
330
1
100
AcDbSymbolTableRecord
100
AcDbBlockTableRecord
  2
*D26
340
0
  0
BLOCK_RECORD
  5
3B0
330
1
100
AcDbSymbolTableRecord
100
AcDbBlockTableRecord
  2
*D27
340
0
  0
BLOCK_RECORD
  5
3C5
330
1
100
AcDbSymbolTableRecord
100
AcDbBlockTableRecord
  2
*D28
340
0
  0
BLOCK_RECORD
  5
3DA
330
1
100
AcDbSymbolTableRecord
100
AcDbBlockTableRecord
  2
*D29
340
0
  0
BLOCK_RECORD
  5
474
330
1
100
AcDbSymbolTableRecord
100
AcDbBlockTableRecord
  2
*D30
340
0
  0
BLOCK_RECORD
  5
488
330
1
100
AcDbSymbolTableRecord
100
AcDbBlockTableRecord
  2
*D31
340
0
  0
BLOCK_RECORD
  5
49C
330
1
100
AcDbSymbolTableRecord
100
AcDbBlockTableRecord
  2
*D32
340
0
  0
BLOCK_RECORD
  5
4B0
330
1
100
AcDbSymbolTableRecord
100
AcDbBlockTableRecord
  2
*D33
340
0
  0
BLOCK_RECORD
  5
4ED
330
1
100
AcDbSymbolTableRecord
100
AcDbBlockTableRecord
  2
*D34
340
0
  0
BLOCK_RECORD
  5
4FF
330
1
100
AcDbSymbolTableRecord
100
AcDbBlockTableRecord
  2
*D35
340
0
  0
BLOCK_RECORD
  5
511
330
1
100
AcDbSymbolTableRecord
100
AcDbBlockTableRecord
  2
*D36
340
0
  0
BLOCK_RECORD
  5
555
330
1
100
AcDbSymbolTableRecord
100
AcDbBlockTableRecord
  2
*D37
340
0
  0
BLOCK_RECORD
  5
569
330
1
100
AcDbSymbolTableRecord
100
AcDbBlockTableRecord
  2
*D38
340
0
  0
BLOCK_RECORD
  5
57E
330
1
100
AcDbSymbolTableRecord
100
AcDbBlockTableRecord
  2
*D39
340
0
  0
BLOCK_RECORD
  5
591
330
1
100
AcDbSymbolTableRecord
100
AcDbBlockTableRecord
  2
SW_NOTE_5
340
0
102
{BLKREFS
331
597
102
}
  0
BLOCK_RECORD
  5
599
330
1
100
AcDbSymbolTableRecord
100
AcDbBlockTableRecord
  2
_DOT
340
0
  0
BLOCK_RECORD
  5
608
330
1
100
AcDbSymbolTableRecord
100
AcDbBlockTableRecord
  2
*D42
340
0
  0
BLOCK_RECORD
  5
61C
330
1
100
AcDbSymbolTableRecord
100
AcDbBlockTableRecord
  2
*D43
340
0
  0
BLOCK_RECORD
  5
630
330
1
100
AcDbSymbolTableRecord
100
AcDbBlockTableRecord
  2
*D44
340
0
  0
ENDTAB
  0
ENDSEC
  0
SECTION
  2
BLOCKS
  0
BLOCK
  5
20
330
1F
100
AcDbEntity
  8
0
100
AcDbBlockBegin
  2
*Model_Space
 70
     0
 10
0.0
 20
0.0
 30
0.0
  3
*Model_Space
  1

  0
ENDBLK
  5
21
330
1F
100
AcDbEntity
  8
0
100
AcDbBlockEnd
  0
BLOCK
  5
1C
330
1B
100
AcDbEntity
 67
     1
  8
0
100
AcDbBlockBegin
  2
*Paper_Space
 70
     0
 10
0.0
 20
0.0
 30
0.0
  3
*Paper_Space
  1

  0
ENDBLK
  5
1D
330
1B
100
AcDbEntity
 67
     1
  8
0
100
AcDbBlockEnd
  0
BLOCK
  5
24
330
23
100
AcDbEntity
  8
0
100
AcDbBlockBegin
  2
*Paper_Space0
 70
     0
 10
0.0
 20
0.0
 30
0.0
  3
*Paper_Space0
  1

  0
ENDBLK
  5
25
330
23
100
AcDbEntity
  8
0
100
AcDbBlockEnd
  0
BLOCK
  5
75
330
74
100
AcDbEntity
  8
0
100
AcDbBlockBegin
  2
SW_NOTE_0
 70
     0
 10
0.0
 20
0.0
 30
0.0
  3
SW_NOTE_0
  1

  0
MTEXT
  5
78
330
74
100
AcDbEntity
  8
0
  6
Continuous
 62
     0
370
     0
100
AcDbMText
 10
0.0
 20
0.1812751509
 30
0.0
 40
0.140625
 41
0.0
 71
     1
 72
     1
  1
MATERIAL:
  7
SLDTEXTSTYLE0
 73
     1
 44
1.0
  0
MTEXT
  5
79
330
74
100
AcDbEntity
  8
0
  6
Continuous
 62
     0
370
     0
100
AcDbMText
 10
0.052734375
 20
-0.0036411829
 30
0.0
 40
0.140625
 41
0.0
 71
     1
 72
     1
  1
ABS UL94-HB
  7
SLDTEXTSTYLE0
 73
     1
 44
1.0
  0
MTEXT
  5
7A
330
74
100
AcDbEntity
  8
0
  6
Continuous
 62
     0
370
     0
100
AcDbMText
 10
0.0
 20
-0.3734738506
 30
0.0
 40
0.140625
 41
0.0
 71
     1
 72
     1
  1
COLOR:
  7
SLDTEXTSTYLE0
 73
     1
 44
1.0
  0
MTEXT
  5
7B
330
74
100
AcDbEntity
  8
0
  6
Continuous
 62
     0
370
     0
100
AcDbMText
 10
0.052734375
 20
-0.5583901844
 30
0.0
 40
0.140625
 41
0.0
 71
     1
 72
     1
  1
BLACK OR WHITE
  7
SLDTEXTSTYLE0
 73
     1
 44
1.0
  0
MTEXT
  5
7C
330
74
100
AcDbEntity
  8
0
  6
Continuous
 62
     0
370
     0
100
AcDbMText
 10
0.0
 20
-1.1131391859
 30
0.0
 40
0.140625
 41
0.0
 71
     1
 72
     1
  1
DIMENSIONS IN INCH[MM]
  7
SLDTEXTSTYLE0
 73
     1
 44
1.0
  0
MTEXT
  5
7D
330
74
100
AcDbEntity
  8
0
  6
Continuous
 62
     0
370
     0
100
AcDbMText
 10
0.0
 20
-1.4829718536
 30
0.0
 40
0.140625
 41
0.0
 71
     1
 72
     1
  1
DRAWING FOR REFERENCE
  7
SLDTEXTSTYLE0
 73
     1
 44
1.0
  0
ENDBLK
  5
76
330
74
100
AcDbEntity
  8
0
100
AcDbBlockEnd
  0
BLOCK
  5
84
330
83
100
AcDbEntity
  8
0
100
AcDbBlockBegin
  2
SW_NOTE_1
 70
     0
 10
0.0
 20
0.0
 30
0.0
  3
SW_NOTE_1
  1

  0
MTEXT
  5
86
330
83
100
AcDbEntity
  8
0
  6
Continuous
 62
     0
370
     0
100
AcDbMText
 10
0.2131347656
 20
0.1812751509
 30
0.0
 40
0.140625
 41
0.0
 71
     2
 72
     1
  1
PART
  7
SLDTEXTSTYLE0
 73
     1
 44
1.0
  0
MTEXT
  5
87
330
83
100
AcDbEntity
  8
0
  6
Continuous
 62
     0
370
     0
100
AcDbMText
 10
0.2112426788
 20
-0.0036411829
 30
0.0
 40
0.140625
 41
0.0
 71
     2
 72
     1
  1
NAME
  7
SLDTEXTSTYLE0
 73
     1
 44
1.0
  0
ENDBLK
  5
85
330
83
100
AcDbEntity
  8
0
100
AcDbBlockEnd
  0
BLOCK
  5
8A
330
89
100
AcDbEntity
  8
0
100
AcDbBlockBegin
  2
SW_NOTE_2
 70
     0
 10
0.0
 20
0.0
 30
0.0
  3
SW_NOTE_2
  1

  0
MTEXT
  5
8C
330
89
100
AcDbEntity
  8
0
  6
Continuous
 62
     0
370
     0
100
AcDbMText
 10
0.2131347656
 20
0.1812751509
 30
0.0
 40
0.140625
 41
0.0
 71
     2
 72
     1
  1
PART
  7
SLDTEXTSTYLE0
 73
     1
 44
1.0
  0
MTEXT
  5
8D
330
89
100
AcDbEntity
  8
0
  6
Continuous
 62
     0
370
     0
100
AcDbMText
 10
0.2194824241
 20
-0.0036411829
 30
0.0
 40
0.140625
 41
0.0
 71
     2
 72
     1
  1
No.
  7
SLDTEXTSTYLE0
 73
     1
 44
1.0
  0
ENDBLK
  5
8B
330
89
100
AcDbEntity
  8
0
100
AcDbBlockEnd
  0
BLOCK
  5
90
330
8F
100
AcDbEntity
  8
0
100
AcDbBlockBegin
  2
SW_NOTE_3
 70
     0
 10
0.0
 20
0.0
 30
0.0
  3
SW_NOTE_3
  1

  0
MTEXT
  5
92
330
8F
100
AcDbEntity
  8
0
  6
Continuous
 62
     0
370
     0
100
AcDbMText
 10
0.4130859375
 20
0.1812751509
 30
0.0
 40
0.140625
 41
0.0
 71
     2
 72
     1
  1
REVISION
  7
SLDTEXTSTYLE0
 73
     1
 44
1.0
  0
MTEXT
  5
93
330
8F
100
AcDbEntity
  8
0
  6
Continuous
 62
     0
370
     0
100
AcDbMText
 10
0.397680664
 20
-0.0036411829
 30
0.0
 40
0.140625
 41
0.0
 71
     2
 72
     1
  1
DATE
  7
SLDTEXTSTYLE0
 73
     1
 44
1.0
  0
ENDBLK
  5
91
330
8F
100
AcDbEntity
  8
0
100
AcDbBlockEnd
  0
BLOCK
  5
100
330
FF
100
AcDbEntity
  8
0
100
AcDbBlockBegin
  2
*D5
 70
     1
 10
0.0
 20
0.0
 30
0.0
  3
*D5
  1

  0
SOLID
  5
102
330
FF
100
AcDbEntity
  8
0
  6
Continuous
 62
     7
370
     0
100
AcDbTrace
 10
2.7416306698
 20
5.7729393608
 30
0.0
 11
2.8878806698
 21
5.7504393608
 31
0.0
 12
2.8878806698
 22
5.7954393608
 32
0.0
 13
2.8878806698
 23
5.7954393608
 33
0.0
  0
SOLID
  5
103
330
FF
100
AcDbEntity
  8
0
  6
Continuous
 62
     7
370
     0
100
AcDbTrace
 10
7.3479298824
 20
5.7729393608
 30
0.0
 11
7.2016798824
 21
5.7954393608
 31
0.0
 12
7.2016798824
 22
5.7504393608
 32
0.0
 13
7.2016798824
 23
5.7504393608
 33
0.0
  0
LINE
  5
104
330
FF
100
AcDbEntity
  8
0
  6
Continuous
 62
     7
370
     0
100
AcDbLine
 10
4.8532153479
 20
5.7718651407
 30
0.0
 11
4.8246508934
 21
5.7718651407
 31
0.0
  0
LINE
  5
105
330
FF
100
AcDbEntity
  8
0
  6
Continuous
 62
     7
370
     0
100
AcDbLine
 10
4.8246508934
 20
5.7718651407
 30
0.0
 11
4.8246508934
 21
5.5486229465
 31
0.0
  0
LINE
  5
106
330
FF
100
AcDbEntity
  8
0
  6
Continuous
 62
     7
370
     0
100
AcDbLine
 10
4.8246508934
 20
5.5486229465
 30
0.0
 11
4.8532153479
 21
5.5486229465
 31
0.0
  0
LINE
  5
107
330
FF
100
AcDbEntity
  8
0
  6
Continuous
 62
     7
370
     0
100
AcDbLine
 10
5.2363452352
 20
5.7718651407
 30
0.0
 11
5.2649096897
 21
5.7718651407
 31
0.0
  0
LINE
  5
108
330
FF
100
AcDbEntity
  8
0
  6
Continuous
 62
     7
370
     0
100
AcDbLine
 10
5.2649096897
 20
5.7718651407
 30
0.0
 11
5.2649096897
 21
5.5486229465
 31
0.0
  0
LINE
  5
109
330
FF
100
AcDbEntity
  8
0
  6
Continuous
 62
     7
370
     0
100
AcDbLine
 10
5.2649096897
 20
5.5486229465
 30
0.0
 11
5.2363452352
 21
5.5486229465
 31
0.0
  0
LINE
  5
10A
330
FF
100
AcDbEntity
  8
0
  6
Continuous
 62
     7
370
     0
100
AcDbLine
 10
2.7416306698
 20
7.8607490146
 30
0.0
 11
2.7416306698
 21
5.6323143608
 31
0.0
  0
LINE
  5
10B
330
FF
100
AcDbEntity
  8
0
  6
Continuous
 62
     7
370
     0
100
AcDbLine
 10
7.3479298824
 20
7.8607490146
 30
0.0
 11
7.3479298824
 21
5.6323143608
 31
0.0
  0
LINE
  5
10C
330
FF
100
AcDbEntity
  8
0
  6
Continuous
 62
     7
370
     0
100
AcDbLine
 10
2.7416306698
 20
5.7729393608
 30
0.0
 11
4.7227537897
 21
5.7729393608
 31
0.0
  0
LINE
  5
10D
330
FF
100
AcDbEntity
  8
0
  6
Continuous
 62
     7
370
     0
100
AcDbLine
 10
7.3479298824
 20
5.7729393608
 30
0.0
 11
5.3668067624
 21
5.7729393608
 31
0.0
  0
MTEXT
  5
10E
330
FF
100
AcDbEntity
  8
0
  6
Continuous
 62
     7
370
     0
100
AcDbMText
 10
4.8040088023
 20
5.9838531941
 30
-0.4292028033
 40
0.140625
 41
0.0
 71
     1
 72
     1
  1

  7
SLDTEXTSTYLE0
 73
     1
 44
1.0
  0
MTEXT
  5
10F
330
FF
100
AcDbEntity
  8
0
  6
Continuous
 62
     7
370
     0
100
AcDbMText
 10
4.8058154444
 20
5.9817047462
 30
-0.4292028033
 40
0.140625
 41
0.0
 71
     1
 72
     1
  1
4.61
  7
SLDTEXTSTYLE0
 73
     1
 44
1.0
  0
MTEXT
  5
110
330
FF
100
AcDbEntity
  8
0
  6
Continuous
 62
     7
370
     0
100
AcDbMText
 10
4.8889209161
 20
5.7298980897
 30
-0.4292028033
 40
0.140625
 41
0.0
 71
     1
 72
     1
  1
117
  7
SLDTEXTSTYLE0
 73
     1
 44
1.0
  0
MTEXT
  5
111
330
FF
100
AcDbEntity
  8
0
  6
Continuous
 62
     7
370
     0
100
AcDbMText
 10
5.339067385
 20
5.9838531941
 30
-0.4292028033
 40
0.140625
 41
0.0
 71
     1
 72
     1
  1

  7
SLDTEXTSTYLE0
 73
     1
 44
1.0
  0
ENDBLK
  5
101
330
FF
100
AcDbEntity
  8
0
100
AcDbBlockEnd
  0
BLOCK
  5
114
330
113
100
AcDbEntity
  8
0
100
AcDbBlockBegin
  2
*D6
 70
     1
 10
0.0
 20
0.0
 30
0.0
  3
*D6
  1

  0
SOLID
  5
116
330
113
100
AcDbEntity
  8
0
  6
Continuous
 62
     7
370
     0
100
AcDbTrace
 10
3.6274574414
 20
6.3020170863
 30
0.0
 11
3.7737074414
 21
6.2795170863
 31
0.0
 12
3.7737074414
 22
6.3245170863
 32
0.0
 13
3.7737074414
 23
6.3245170863
 33
0.0
  0
SOLID
  5
117
330
113
100
AcDbEntity
  8
0
  6
Continuous
 62
     7
370
     0
100
AcDbTrace
 10
6.4621031107
 20
6.3020170863
 30
0.0
 11
6.3158531107
 21
6.3245170863
 31
0.0
 12
6.3158531107
 22
6.2795170863
 32
0.0
 13
6.3158531107
 23
6.2795170863
 33
0.0
  0
LINE
  5
118
330
113
100
AcDbEntity
  8
0
  6
Continuous
 62
     7
370
     0
100
AcDbLine
 10
4.9051684627
 20
6.3009428662
 30
0.0
 11
4.8766040082
 21
6.3009428662
 31
0.0
  0
LINE
  5
119
330
113
100
AcDbEntity
  8
0
  6
Continuous
 62
     7
370
     0
100
AcDbLine
 10
4.8766040082
 20
6.3009428662
 30
0.0
 11
4.8766040082
 21
6.077700672
 31
0.0
  0
LINE
  5
11A
330
113
100
AcDbEntity
  8
0
  6
Continuous
 62
     7
370
     0
100
AcDbLine
 10
4.8766040082
 20
6.077700672
 30
0.0
 11
4.9051684627
 21
6.077700672
 31
0.0
  0
LINE
  5
11B
330
113
100
AcDbEntity
  8
0
  6
Continuous
 62
     7
370
     0
100
AcDbLine
 10
5.1843920997
 20
6.3009428662
 30
0.0
 11
5.2129565543
 21
6.3009428662
 31
0.0
  0
LINE
  5
11C
330
113
100
AcDbEntity
  8
0
  6
Continuous
 62
     7
370
     0
100
AcDbLine
 10
5.2129565543
 20
6.3009428662
 30
0.0
 11
5.2129565543
 21
6.077700672
 31
0.0
  0
LINE
  5
11D
330
113
100
AcDbEntity
  8
0
  6
Continuous
 62
     7
370
     0
100
AcDbLine
 10
5.2129565543
 20
6.077700672
 30
0.0
 11
5.1843920997
 21
6.077700672
 31
0.0
  0
LINE
  5
11E
330
113
100
AcDbEntity
  8
0
  6
Continuous
 62
     7
370
     0
100
AcDbLine
 10
3.6274574414
 20
7.0847647627
 30
0.0
 11
3.6274574414
 21
6.1613920863
 31
0.0
  0
LINE
  5
11F
330
113
100
AcDbEntity
  8
0
  6
Continuous
 62
     7
370
     0
100
AcDbLine
 10
6.4621031107
 20
7.0847647627
 30
0.0
 11
6.4621031107
 21
6.1613920863
 31
0.0
  0
LINE
  5
120
330
113
100
AcDbEntity
  8
0
  6
Continuous
 62
     7
370
     0
100
AcDbLine
 10
3.6274574414
 20
6.3020170863
 30
0.0
 11
4.7253416817
 21
6.3020170863
 31
0.0
  0
LINE
  5
121
330
113
100
AcDbEntity
  8
0
  6
Continuous
 62
     7
370
     0
100
AcDbLine
 10
6.4621031107
 20
6.3020170863
 30
0.0
 11
5.3642188704
 21
6.3020170863
 31
0.0
  0
MTEXT
  5
122
330
113
100
AcDbEntity
  8
0
  6
Continuous
 62
     7
370
     0
100
AcDbMText
 10
4.8065966943
 20
6.5129309196
 30
-0.4292028033
 40
0.140625
 41
0.0
 71
     1
 72
     1
  1

  7
SLDTEXTSTYLE0
 73
     1
 44
1.0
  0
MTEXT
  5
123
330
113
100
AcDbEntity
  8
0
  6
Continuous
 62
     7
370
     0
100
AcDbMText
 10
4.8058154444
 20
6.5107824716
 30
-0.4292028033
 40
0.140625
 41
0.0
 71
     1
 72
     1
  1
2.83
  7
SLDTEXTSTYLE0
 73
     1
 44
1.0
  0
MTEXT
  5
124
330
113
100
AcDbEntity
  8
0
  6
Continuous
 62
     7
370
     0
100
AcDbMText
 10
4.9408740309
 20
6.2589758151
 30
-0.4292028033
 40
0.140625
 41
0.0
 71
     1
 72
     1
  1
72
  7
SLDTEXTSTYLE0
 73
     1
 44
1.0
  0
MTEXT
  5
125
330
113
100
AcDbEntity
  8
0
  6
Continuous
 62
     7
370
     0
100
AcDbMText
 10
5.336479493
 20
6.5129309196
 30
-0.4292028033
 40
0.140625
 41
0.0
 71
     1
 72
     1
  1

  7
SLDTEXTSTYLE0
 73
     1
 44
1.0
  0
ENDBLK
  5
115
330
113
100
AcDbEntity
  8
0
100
AcDbBlockEnd
  0
BLOCK
  5
128
330
127
100
AcDbEntity
  8
0
100
AcDbBlockBegin
  2
*D7
 70
     1
 10
0.0
 20
0.0
 30
0.0
  3
*D7
  1

  0
SOLID
  5
12A
330
127
100
AcDbEntity
  8
0
  6
Continuous
 62
     7
370
     0
100
AcDbTrace
 10
8.1057819186
 20
9.0701486209
 30
0.0
 11
8.0832819186
 21
8.9238986209
 31
0.0
 12
8.1282819186
 22
8.9238986209
 32
0.0
 13
8.1282819186
 23
8.9238986209
 33
0.0
  0
SOLID
  5
12B
330
127
100
AcDbEntity
  8
0
  6
Continuous
 62
     7
370
     0
100
AcDbTrace
 10
8.1057819186
 20
7.1410147627
 30
0.0
 11
8.1282819186
 21
7.2872647627
 31
0.0
 12
8.0832819186
 22
7.2872647627
 32
0.0
 13
8.0832819186
 23
7.2872647627
 33
0.0
  0
LINE
  5
12C
330
127
100
AcDbEntity
  8
0
  6
Continuous
 62
     7
370
     0
100
AcDbLine
 10
7.9661701053
 20
8.1045074717
 30
0.0
 11
7.9376056507
 21
8.1045074717
 31
0.0
  0
LINE
  5
12D
330
127
100
AcDbEntity
  8
0
  6
Continuous
 62
     7
370
     0
100
AcDbLine
 10
7.9376056507
 20
8.1045074717
 30
0.0
 11
7.9376056507
 21
7.8812652775
 31
0.0
  0
LINE
  5
12E
330
127
100
AcDbEntity
  8
0
  6
Continuous
 62
     7
370
     0
100
AcDbLine
 10
7.9376056507
 20
7.8812652775
 30
0.0
 11
7.9661701053
 21
7.8812652775
 31
0.0
  0
LINE
  5
12F
330
127
100
AcDbEntity
  8
0
  6
Continuous
 62
     7
370
     0
100
AcDbLine
 10
8.2453937422
 20
8.1045074717
 30
0.0
 11
8.2739581968
 21
8.1045074717
 31
0.0
  0
LINE
  5
130
330
127
100
AcDbEntity
  8
0
  6
Continuous
 62
     7
370
     0
100
AcDbLine
 10
8.2739581968
 20
8.1045074717
 30
0.0
 11
8.2739581968
 21
7.8812652775
 31
0.0
  0
LINE
  5
131
330
127
100
AcDbEntity
  8
0
  6
Continuous
 62
     7
370
     0
100
AcDbLine
 10
8.2739581968
 20
7.8812652775
 30
0.0
 11
8.2453937422
 21
7.8812652775
 31
0.0
  0
LINE
  5
132
330
127
100
AcDbEntity
  8
0
  6
Continuous
 62
     7
370
     0
100
AcDbLine
 10
6.5183531107
 20
9.0701486209
 30
0.0
 11
8.2464069186
 21
9.0701486209
 31
0.0
  0
LINE
  5
133
330
127
100
AcDbEntity
  8
0
  6
Continuous
 62
     7
370
     0
100
AcDbLine
 10
6.5183531107
 20
7.1410147627
 30
0.0
 11
8.2464069186
 21
7.1410147627
 31
0.0
  0
LINE
  5
134
330
127
100
AcDbEntity
  8
0
  6
Continuous
 62
     7
370
     0
100
AcDbLine
 10
8.1057819186
 20
9.0701486209
 30
0.0
 11
8.1057819186
 21
8.3584625761
 31
0.0
  0
LINE
  5
135
330
127
100
AcDbEntity
  8
0
  6
Continuous
 62
     7
370
     0
100
AcDbLine
 10
8.1057819186
 20
7.1410147627
 30
0.0
 11
8.1057819186
 21
7.8527008075
 31
0.0
  0
MTEXT
  5
136
330
127
100
AcDbEntity
  8
0
  6
Continuous
 62
     7
370
     0
100
AcDbMText
 10
7.8675983368
 20
8.3164955251
 30
-0.4292028033
 40
0.140625
 41
0.0
 71
     1
 72
     1
  1

  7
SLDTEXTSTYLE0
 73
     1
 44
1.0
  0
MTEXT
  5
137
330
127
100
AcDbEntity
  8
0
  6
Continuous
 62
     7
370
     0
100
AcDbMText
 10
7.866817087
 20
8.3143470772
 30
-0.4292028033
 40
0.140625
 41
0.0
 71
     1
 72
     1
  1
1.93
  7
SLDTEXTSTYLE0
 73
     1
 44
1.0
  0
MTEXT
  5
138
330
127
100
AcDbEntity
  8
0
  6
Continuous
 62
     7
370
     0
100
AcDbMText
 10
8.0018756735
 20
8.0625404207
 30
-0.4292028033
 40
0.140625
 41
0.0
 71
     1
 72
     1
  1
49
  7
SLDTEXTSTYLE0
 73
     1
 44
1.0
  0
MTEXT
  5
139
330
127
100
AcDbEntity
  8
0
  6
Continuous
 62
     7
370
     0
100
AcDbMText
 10
8.3974811356
 20
8.3164955251
 30
-0.4292028033
 40
0.140625
 41
0.0
 71
     1
 72
     1
  1

  7
SLDTEXTSTYLE0
 73
     1
 44
1.0
  0
ENDBLK
  5
129
330
127
100
AcDbEntity
  8
0
100
AcDbBlockEnd
  0
BLOCK
  5
13D
330
13C
100
AcDbEntity
  8
0
100
AcDbBlockBegin
  2
*D8
 70
     1
 10
0.0
 20
0.0
 30
0.0
  3
*D8
  1

  0
SOLID
  5
13F
330
13C
100
AcDbEntity
  8
0
  6
Continuous
 62
     7
370
     0
100
AcDbTrace
 10
3.5258943316
 20
9.1233943422
 30
0.0
 11
3.4068128285
 21
9.2112288919
 31
0.0
 12
3.3859183513
 22
9.1713738944
 32
0.0
 13
3.3859183513
 23
9.1713738944
 33
0.0
  0
LINE
  5
140
330
13C
100
AcDbEntity
  8
0
  6
Continuous
 62
     7
370
     0
100
AcDbLine
 10
0.9999241811
 20
9.8654753443
 30
0.0
 11
0.9713597266
 21
9.8654753443
 31
0.0
  0
LINE
  5
141
330
13C
100
AcDbEntity
  8
0
  6
Continuous
 62
     7
370
     0
100
AcDbLine
 10
0.9713597266
 20
9.8654753443
 30
0.0
 11
0.9713597266
 21
9.6422331501
 31
0.0
  0
LINE
  5
142
330
13C
100
AcDbEntity
  8
0
  6
Continuous
 62
     7
370
     0
100
AcDbLine
 10
0.9713597266
 20
9.6422331501
 30
0.0
 11
0.9999241811
 21
9.6422331501
 31
0.0
  0
LINE
  5
143
330
13C
100
AcDbEntity
  8
0
  6
Continuous
 62
     7
370
     0
100
AcDbLine
 10
1.3311009329
 20
9.8654753443
 30
0.0
 11
1.3596653875
 21
9.8654753443
 31
0.0
  0
LINE
  5
144
330
13C
100
AcDbEntity
  8
0
  6
Continuous
 62
     7
370
     0
100
AcDbLine
 10
1.3596653875
 20
9.8654753443
 30
0.0
 11
1.3596653875
 21
9.6422331501
 31
0.0
  0
LINE
  5
145
330
13C
100
AcDbEntity
  8
0
  6
Continuous
 62
     7
370
     0
100
AcDbLine
 10
1.3596653875
 20
9.6422331501
 30
0.0
 11
1.3311009329
 21
9.6422331501
 31
0.0
  0
LINE
  5
146
330
13C
100
AcDbEntity
  8
0
  6
Continuous
 62
     7
370
     0
100
AcDbLine
 10
3.5258943316
 20
9.1233943422
 30
0.0
 11
2.108369061
 21
9.8665495644
 31
0.0
  0
LINE
  5
147
330
13C
100
AcDbEntity
  8
0
  6
Continuous
 62
     7
370
     0
100
AcDbLine
 10
2.108369061
 20
9.8665495644
 30
0.0
 11
1.967744061
 21
9.8665495644
 31
0.0
  0
MTEXT
  5
148
330
13C
100
AcDbEntity
  8
0
  6
Continuous
 62
     7
370
     0
100
AcDbMText
 10
0.8724608088
 20
10.0753149498
 30
-0.4292028033
 40
0.140625
 41
0.0
 71
     1
 72
     1
  1
%%c
  7
SLDTEXTSTYLE0
 73
     1
 44
1.0
  0
MTEXT
  5
149
330
13C
100
AcDbEntity
  8
0
  6
Continuous
 62
     7
370
     0
100
AcDbMText
 10
1.0845408819
 20
10.0753149498
 30
-0.4292028033
 40
0.140625
 41
0.0
 71
     1
 72
     1
  1
.23
  7
SLDTEXTSTYLE0
 73
     1
 44
1.0
  0
MTEXT
  5
14A
330
13C
100
AcDbEntity
  8
0
  6
Continuous
 62
     7
370
     0
100
AcDbMText
 10
1.0356297493
 20
9.8235082933
 30
-0.4292028033
 40
0.140625
 41
0.0
 71
     1
 72
     1
  1
5.8
  7
SLDTEXTSTYLE0
 73
     1
 44
1.0
  0
MTEXT
  5
14B
330
13C
100
AcDbEntity
  8
0
  6
Continuous
 62
     7
370
     0
100
AcDbMText
 10
1.5112986906
 20
10.0774633977
 30
-0.4292028033
 40
0.140625
 41
0.0
 71
     1
 72
     1
  1
BOSS
  7
SLDTEXTSTYLE0
 73
     1
 44
1.0
  0
ENDBLK
  5
13E
330
13C
100
AcDbEntity
  8
0
100
AcDbBlockEnd
  0
BLOCK
  5
14F
330
14E
100
AcDbEntity
  8
0
100
AcDbBlockBegin
  2
*D9
 70
     1
 10
0.0
 20
0.0
 30
0.0
  3
*D9
  1

  0
SOLID
  5
151
330
14E
100
AcDbEntity
  8
0
  6
Continuous
 62
     7
370
     0
100
AcDbTrace
 10
3.6006261496
 20
9.0989598146
 30
0.0
 11
3.5174202055
 21
9.2213202795
 31
0.0
 12
3.4844890111
 22
9.1906521129
 32
0.0
 13
3.4844890111
 23
9.1906521129
 33
0.0
  0
LINE
  5
152
330
14E
100
AcDbEntity
  8
0
  6
Continuous
 62
     7
370
     0
100
AcDbLine
 10
1.8275728188
 20
10.4637460628
 30
0.0
 11
1.7990083643
 21
10.4637460628
 31
0.0
  0
LINE
  5
153
330
14E
100
AcDbEntity
  8
0
  6
Continuous
 62
     7
370
     0
100
AcDbLine
 10
1.7990083643
 20
10.4637460628
 30
0.0
 11
1.7990083643
 21
10.2405038686
 31
0.0
  0
LINE
  5
154
330
14E
100
AcDbEntity
  8
0
  6
Continuous
 62
     7
370
     0
100
AcDbLine
 10
1.7990083643
 20
10.2405038686
 30
0.0
 11
1.8275728188
 21
10.2405038686
 31
0.0
  0
LINE
  5
155
330
14E
100
AcDbEntity
  8
0
  6
Continuous
 62
     7
370
     0
100
AcDbLine
 10
2.0028902055
 20
10.4637460628
 30
0.0
 11
2.0314546601
 21
10.4637460628
 31
0.0
  0
LINE
  5
156
330
14E
100
AcDbEntity
  8
0
  6
Continuous
 62
     7
370
     0
100
AcDbLine
 10
2.0314546601
 20
10.4637460628
 30
0.0
 11
2.0314546601
 21
10.2405038686
 31
0.0
  0
LINE
  5
157
330
14E
100
AcDbEntity
  8
0
  6
Continuous
 62
     7
370
     0
100
AcDbLine
 10
2.0314546601
 20
10.2405038686
 30
0.0
 11
2.0028902055
 21
10.2405038686
 31
0.0
  0
LINE
  5
158
330
14E
100
AcDbEntity
  8
0
  6
Continuous
 62
     7
370
     0
100
AcDbLine
 10
3.6006261496
 20
9.0989598146
 30
0.0
 11
2.3489082604
 21
10.4430429373
 31
0.0
  0
LINE
  5
159
330
14E
100
AcDbEntity
  8
0
  6
Continuous
 62
     7
370
     0
100
AcDbLine
 10
2.3489082604
 20
10.4430429373
 30
0.0
 11
2.2082832604
 21
10.4430429373
 31
0.0
  0
MTEXT
  5
15A
330
14E
100
AcDbEntity
  8
0
  6
Continuous
 62
     7
370
     0
100
AcDbMText
 10
1.6221797536
 20
10.6735856682
 30
-0.4292028033
 40
0.140625
 41
0.0
 71
     1
 72
     1
  1
%%c
  7
SLDTEXTSTYLE0
 73
     1
 44
1.0
  0
MTEXT
  5
15B
330
14E
100
AcDbEntity
  8
0
  6
Continuous
 62
     7
370
     0
100
AcDbMText
 10
1.8342598268
 20
10.6735856682
 30
-0.4292028033
 40
0.140625
 41
0.0
 71
     1
 72
     1
  1
.08
  7
SLDTEXTSTYLE0
 73
     1
 44
1.0
  0
MTEXT
  5
15C
330
14E
100
AcDbEntity
  8
0
  6
Continuous
 62
     7
370
     0
100
AcDbMText
 10
1.863278387
 20
10.4217790117
 30
-0.4292028033
 40
0.140625
 41
0.0
 71
     1
 72
     1
  1
2
  7
SLDTEXTSTYLE0
 73
     1
 44
1.0
  0
ENDBLK
  5
150
330
14E
100
AcDbEntity
  8
0
100
AcDbBlockEnd
  0
BLOCK
  5
15F
330
15E
100
AcDbEntity
  8
0
100
AcDbBlockBegin
  2
*D10
 70
     1
 10
0.0
 20
0.0
 30
0.0
  3
*D10
  1

  0
SOLID
  5
161
330
15E
100
AcDbEntity
  8
0
  6
Continuous
 62
     7
370
     0
100
AcDbTrace
 10
2.7145205526
 20
8.021249419
 30
0.0
 11
2.6483413519
 21
7.8889028063
 31
0.0
 12
2.6911821465
 22
7.8751308667
 32
0.0
 13
2.6911821465
 23
7.8751308667
 33
0.0
  0
LINE
  5
162
330
15E
100
AcDbEntity
  8
0
  6
Continuous
 62
     7
370
     0
100
AcDbLine
 10
1.5381010079
 20
6.2465806198
 30
0.0
 11
1.5095365534
 21
6.2465806198
 31
0.0
  0
LINE
  5
163
330
15E
100
AcDbEntity
  8
0
  6
Continuous
 62
     7
370
     0
100
AcDbLine
 10
1.5095365534
 20
6.2465806198
 30
0.0
 11
1.5095365534
 21
6.0233384256
 31
0.0
  0
LINE
  5
164
330
15E
100
AcDbEntity
  8
0
  6
Continuous
 62
     7
370
     0
100
AcDbLine
 10
1.5095365534
 20
6.0233384256
 30
0.0
 11
1.5381010079
 21
6.0233384256
 31
0.0
  0
LINE
  5
165
330
15E
100
AcDbEntity
  8
0
  6
Continuous
 62
     7
370
     0
100
AcDbLine
 10
1.8692777597
 20
6.2465806198
 30
0.0
 11
1.8978422143
 21
6.2465806198
 31
0.0
  0
LINE
  5
166
330
15E
100
AcDbEntity
  8
0
  6
Continuous
 62
     7
370
     0
100
AcDbLine
 10
1.8978422143
 20
6.2465806198
 30
0.0
 11
1.8978422143
 21
6.0233384256
 31
0.0
  0
LINE
  5
167
330
15E
100
AcDbEntity
  8
0
  6
Continuous
 62
     7
370
     0
100
AcDbLine
 10
1.8978422143
 20
6.0233384256
 30
0.0
 11
1.8692777597
 21
6.0233384256
 31
0.0
  0
LINE
  5
168
330
15E
100
AcDbEntity
  8
0
  6
Continuous
 62
     7
370
     0
100
AcDbLine
 10
2.7145205526
 20
8.021249419
 30
0.0
 11
2.1373661424
 21
6.2258774943
 31
0.0
  0
LINE
  5
169
330
15E
100
AcDbEntity
  8
0
  6
Continuous
 62
     7
370
     0
100
AcDbLine
 10
2.1373661424
 20
6.2258774943
 30
0.0
 11
1.9967411424
 21
6.2258774943
 31
0.0
  0
MTEXT
  5
16A
330
15E
100
AcDbEntity
  8
0
  6
Continuous
 62
     7
370
     0
100
AcDbMText
 10
1.4106376356
 20
6.4564202252
 30
-0.4292028033
 40
0.140625
 41
0.0
 71
     1
 72
     1
  1
%%c
  7
SLDTEXTSTYLE0
 73
     1
 44
1.0
  0
MTEXT
  5
16B
330
15E
100
AcDbEntity
  8
0
  6
Continuous
 62
     7
370
     0
100
AcDbMText
 10
1.6227177088
 20
6.4564202252
 30
-0.4292028033
 40
0.140625
 41
0.0
 71
     1
 72
     1
  1
.18
  7
SLDTEXTSTYLE0
 73
     1
 44
1.0
  0
MTEXT
  5
16C
330
15E
100
AcDbEntity
  8
0
  6
Continuous
 62
     7
370
     0
100
AcDbMText
 10
1.5738065761
 20
6.2046135687
 30
-0.4292028033
 40
0.140625
 41
0.0
 71
     1
 72
     1
  1
4.5
  7
SLDTEXTSTYLE0
 73
     1
 44
1.0
  0
ENDBLK
  5
160
330
15E
100
AcDbEntity
  8
0
100
AcDbBlockEnd
  0
BLOCK
  5
170
330
16F
100
AcDbEntity
  8
0
100
AcDbBlockBegin
  2
*D11
 70
     1
 10
0.0
 20
0.0
 30
0.0
  3
*D11
  1

  0
SOLID
  5
172
330
16F
100
AcDbEntity
  8
0
  6
Continuous
 62
     7
370
     0
100
AcDbTrace
 10
1.9702395138
 20
9.4056363505
 30
0.0
 11
1.9477395138
 21
9.2593863505
 31
0.0
 12
1.9927395138
 22
9.2593863505
 32
0.0
 13
1.9927395138
 23
9.2593863505
 33
0.0
  0
SOLID
  5
173
330
16F
100
AcDbEntity
  8
0
  6
Continuous
 62
     7
370
     0
100
AcDbTrace
 10
1.9702395138
 20
6.8055270331
 30
0.0
 11
1.9927395138
 21
6.9517770331
 31
0.0
 12
1.9477395138
 22
6.9517770331
 32
0.0
 13
1.9477395138
 23
6.9517770331
 33
0.0
  0
LINE
  5
174
330
16F
100
AcDbEntity
  8
0
  6
Continuous
 62
     7
370
     0
100
AcDbLine
 10
1.8306277005
 20
8.1045074717
 30
0.0
 11
1.8020632459
 21
8.1045074717
 31
0.0
  0
LINE
  5
175
330
16F
100
AcDbEntity
  8
0
  6
Continuous
 62
     7
370
     0
100
AcDbLine
 10
1.8020632459
 20
8.1045074717
 30
0.0
 11
1.8020632459
 21
7.8812652775
 31
0.0
  0
LINE
  5
176
330
16F
100
AcDbEntity
  8
0
  6
Continuous
 62
     7
370
     0
100
AcDbLine
 10
1.8020632459
 20
7.8812652775
 30
0.0
 11
1.8306277005
 21
7.8812652775
 31
0.0
  0
LINE
  5
177
330
16F
100
AcDbEntity
  8
0
  6
Continuous
 62
     7
370
     0
100
AcDbLine
 10
2.1098513374
 20
8.1045074717
 30
0.0
 11
2.138415792
 21
8.1045074717
 31
0.0
  0
LINE
  5
178
330
16F
100
AcDbEntity
  8
0
  6
Continuous
 62
     7
370
     0
100
AcDbLine
 10
2.138415792
 20
8.1045074717
 30
0.0
 11
2.138415792
 21
7.8812652775
 31
0.0
  0
LINE
  5
179
330
16F
100
AcDbEntity
  8
0
  6
Continuous
 62
     7
370
     0
100
AcDbLine
 10
2.138415792
 20
7.8812652775
 30
0.0
 11
2.1098513374
 21
7.8812652775
 31
0.0
  0
LINE
  5
17A
330
16F
100
AcDbEntity
  8
0
  6
Continuous
 62
     7
370
     0
100
AcDbLine
 10
3.011310263
 20
9.4056363505
 30
0.0
 11
1.8296145138
 21
9.4056363505
 31
0.0
  0
LINE
  5
17B
330
16F
100
AcDbEntity
  8
0
  6
Continuous
 62
     7
370
     0
100
AcDbLine
 10
3.011310263
 20
6.8055270331
 30
0.0
 11
1.8296145138
 21
6.8055270331
 31
0.0
  0
LINE
  5
17C
330
16F
100
AcDbEntity
  8
0
  6
Continuous
 62
     7
370
     0
100
AcDbLine
 10
1.9702395138
 20
9.4056363505
 30
0.0
 11
1.9702395138
 21
8.3584625761
 31
0.0
  0
LINE
  5
17D
330
16F
100
AcDbEntity
  8
0
  6
Continuous
 62
     7
370
     0
100
AcDbLine
 10
1.9702395138
 20
6.8055270331
 30
0.0
 11
1.9702395138
 21
7.8527008075
 31
0.0
  0
MTEXT
  5
17E
330
16F
100
AcDbEntity
  8
0
  6
Continuous
 62
     7
370
     0
100
AcDbMText
 10
1.732055932
 20
8.3164955251
 30
-0.4292028033
 40
0.140625
 41
0.0
 71
     1
 72
     1
  1

  7
SLDTEXTSTYLE0
 73
     1
 44
1.0
  0
MTEXT
  5
17F
330
16F
100
AcDbEntity
  8
0
  6
Continuous
 62
     7
370
     0
100
AcDbMText
 10
1.7312746821
 20
8.3143470772
 30
-0.4292028033
 40
0.140625
 41
0.0
 71
     1
 72
     1
  1
2.60
  7
SLDTEXTSTYLE0
 73
     1
 44
1.0
  0
MTEXT
  5
180
330
16F
100
AcDbEntity
  8
0
  6
Continuous
 62
     7
370
     0
100
AcDbMText
 10
1.8663332686
 20
8.0625404207
 30
-0.4292028033
 40
0.140625
 41
0.0
 71
     1
 72
     1
  1
66
  7
SLDTEXTSTYLE0
 73
     1
 44
1.0
  0
MTEXT
  5
181
330
16F
100
AcDbEntity
  8
0
  6
Continuous
 62
     7
370
     0
100
AcDbMText
 10
2.2619387307
 20
8.3164955251
 30
-0.4292028033
 40
0.140625
 41
0.0
 71
     1
 72
     1
  1

  7
SLDTEXTSTYLE0
 73
     1
 44
1.0
  0
ENDBLK
  5
171
330
16F
100
AcDbEntity
  8
0
100
AcDbBlockEnd
  0
BLOCK
  5
184
330
183
100
AcDbEntity
  8
0
100
AcDbBlockBegin
  2
*D12
 70
     1
 10
0.0
 20
0.0
 30
0.0
  3
*D12
  1

  0
SOLID
  5
186
330
183
100
AcDbEntity
  8
0
  6
Continuous
 62
     7
370
     0
100
AcDbTrace
 10
1.4127212695
 20
9.4974087697
 30
0.0
 11
1.3902212695
 21
9.3511587697
 31
0.0
 12
1.4352212695
 22
9.3511587697
 32
0.0
 13
1.4352212695
 23
9.3511587697
 33
0.0
  0
SOLID
  5
187
330
183
100
AcDbEntity
  8
0
  6
Continuous
 62
     7
370
     0
100
AcDbTrace
 10
1.4127212695
 20
6.7137546139
 30
0.0
 11
1.4352212695
 21
6.8600046139
 31
0.0
 12
1.3902212695
 22
6.8600046139
 32
0.0
 13
1.3902212695
 23
6.8600046139
 33
0.0
  0
LINE
  5
188
330
183
100
AcDbEntity
  8
0
  6
Continuous
 62
     7
370
     0
100
AcDbLine
 10
1.1951797633
 20
8.1045074717
 30
0.0
 11
1.1666153087
 21
8.1045074717
 31
0.0
  0
LINE
  5
189
330
183
100
AcDbEntity
  8
0
  6
Continuous
 62
     7
370
     0
100
AcDbLine
 10
1.1666153087
 20
8.1045074717
 30
0.0
 11
1.1666153087
 21
7.8812652775
 31
0.0
  0
LINE
  5
18A
330
183
100
AcDbEntity
  8
0
  6
Continuous
 62
     7
370
     0
100
AcDbLine
 10
1.1666153087
 20
7.8812652775
 30
0.0
 11
1.1951797633
 21
7.8812652775
 31
0.0
  0
LINE
  5
18B
330
183
100
AcDbEntity
  8
0
  6
Continuous
 62
     7
370
     0
100
AcDbLine
 10
1.630262786
 20
8.1045074717
 30
0.0
 11
1.6588272405
 21
8.1045074717
 31
0.0
  0
LINE
  5
18C
330
183
100
AcDbEntity
  8
0
  6
Continuous
 62
     7
370
     0
100
AcDbLine
 10
1.6588272405
 20
8.1045074717
 30
0.0
 11
1.6588272405
 21
7.8812652775
 31
0.0
  0
LINE
  5
18D
330
183
100
AcDbEntity
  8
0
  6
Continuous
 62
     7
370
     0
100
AcDbLine
 10
1.6588272405
 20
7.8812652775
 30
0.0
 11
1.630262786
 21
7.8812652775
 31
0.0
  0
LINE
  5
18E
330
183
100
AcDbEntity
  8
0
  6
Continuous
 62
     7
370
     0
100
AcDbLine
 10
3.0003412997
 20
9.4974087697
 30
0.0
 11
1.2720962695
 21
9.4974087697
 31
0.0
  0
LINE
  5
18F
330
183
100
AcDbEntity
  8
0
  6
Continuous
 62
     7
370
     0
100
AcDbLine
 10
3.0003412997
 20
6.7137546139
 30
0.0
 11
1.2720962695
 21
6.7137546139
 31
0.0
  0
LINE
  5
190
330
183
100
AcDbEntity
  8
0
  6
Continuous
 62
     7
370
     0
100
AcDbLine
 10
1.4127212695
 20
9.4974087697
 30
0.0
 11
1.4127212695
 21
8.3584625761
 31
0.0
  0
LINE
  5
191
330
183
100
AcDbEntity
  8
0
  6
Continuous
 62
     7
370
     0
100
AcDbLine
 10
1.4127212695
 20
6.7137546139
 30
0.0
 11
1.4127212695
 21
7.8527008075
 31
0.0
  0
MTEXT
  5
192
330
183
100
AcDbEntity
  8
0
  6
Continuous
 62
     7
370
     0
100
AcDbMText
 10
1.1459732177
 20
8.3164955251
 30
-0.4292028033
 40
0.140625
 41
0.0
 71
     1
 72
     1
  1

  7
SLDTEXTSTYLE0
 73
     1
 44
1.0
  0
MTEXT
  5
193
330
183
100
AcDbEntity
  8
0
  6
Continuous
 62
     7
370
     0
100
AcDbMText
 10
1.1737564378
 20
8.3143470772
 30
-0.4292028033
 40
0.140625
 41
0.0
 71
     1
 72
     1
  1
2.78
  7
SLDTEXTSTYLE0
 73
     1
 44
1.0
  0
MTEXT
  5
194
330
183
100
AcDbEntity
  8
0
  6
Continuous
 62
     7
370
     0
100
AcDbMText
 10
1.2308853315
 20
8.0625404207
 30
-0.4292028033
 40
0.140625
 41
0.0
 71
     1
 72
     1
  1
70.7
  7
SLDTEXTSTYLE0
 73
     1
 44
1.0
  0
MTEXT
  5
195
330
183
100
AcDbEntity
  8
0
  6
Continuous
 62
     7
370
     0
100
AcDbMText
 10
1.7329849564
 20
8.3164955251
 30
-0.4292028033
 40
0.140625
 41
0.0
 71
     1
 72
     1
  1

  7
SLDTEXTSTYLE0
 73
     1
 44
1.0
  0
ENDBLK
  5
185
330
183
100
AcDbEntity
  8
0
100
AcDbBlockEnd
  0
BLOCK
  5
198
330
197
100
AcDbEntity
  8
0
100
AcDbBlockBegin
  2
*D13
 70
     1
 10
0.0
 20
0.0
 30
0.0
  3
*D13
  1

  0
SOLID
  5
19A
330
197
100
AcDbEntity
  8
0
  6
Continuous
 62
     7
370
     0
100
AcDbTrace
 10
0.7731108033
 20
9.5159784553
 30
0.0
 11
0.7506108033
 21
9.3697284553
 31
0.0
 12
0.7956108033
 22
9.3697284553
 32
0.0
 13
0.7956108033
 23
9.3697284553
 33
0.0
  0
SOLID
  5
19B
330
197
100
AcDbEntity
  8
0
  6
Continuous
 62
     7
370
     0
100
AcDbTrace
 10
0.7731108033
 20
6.6951849283
 30
0.0
 11
0.7956108033
 21
6.8414349283
 31
0.0
 12
0.7506108033
 22
6.8414349283
 32
0.0
 13
0.7506108033
 23
6.8414349283
 33
0.0
  0
LINE
  5
19C
330
197
100
AcDbEntity
  8
0
  6
Continuous
 62
     7
370
     0
100
AcDbLine
 10
0.5555692971
 20
8.1045074717
 30
0.0
 11
0.5270048425
 21
8.1045074717
 31
0.0
  0
LINE
  5
19D
330
197
100
AcDbEntity
  8
0
  6
Continuous
 62
     7
370
     0
100
AcDbLine
 10
0.5270048425
 20
8.1045074717
 30
0.0
 11
0.5270048425
 21
7.8812652775
 31
0.0
  0
LINE
  5
19E
330
197
100
AcDbEntity
  8
0
  6
Continuous
 62
     7
370
     0
100
AcDbLine
 10
0.5270048425
 20
7.8812652775
 30
0.0
 11
0.5555692971
 21
7.8812652775
 31
0.0
  0
LINE
  5
19F
330
197
100
AcDbEntity
  8
0
  6
Continuous
 62
     7
370
     0
100
AcDbLine
 10
0.9906523198
 20
8.1045074717
 30
0.0
 11
1.0192167743
 21
8.1045074717
 31
0.0
  0
LINE
  5
1A0
330
197
100
AcDbEntity
  8
0
  6
Continuous
 62
     7
370
     0
100
AcDbLine
 10
1.0192167743
 20
8.1045074717
 30
0.0
 11
1.0192167743
 21
7.8812652775
 31
0.0
  0
LINE
  5
1A1
330
197
100
AcDbEntity
  8
0
  6
Continuous
 62
     7
370
     0
100
AcDbLine
 10
1.0192167743
 20
7.8812652775
 30
0.0
 11
0.9906523198
 21
7.8812652775
 31
0.0
  0
LINE
  5
1A2
330
197
100
AcDbEntity
  8
0
  6
Continuous
 62
     7
370
     0
100
AcDbLine
 10
3.0003412997
 20
9.5159784553
 30
0.0
 11
0.6324858033
 21
9.5159784553
 31
0.0
  0
LINE
  5
1A3
330
197
100
AcDbEntity
  8
0
  6
Continuous
 62
     7
370
     0
100
AcDbLine
 10
3.0003412997
 20
6.6951849283
 30
0.0
 11
0.6324858033
 21
6.6951849283
 31
0.0
  0
LINE
  5
1A4
330
197
100
AcDbEntity
  8
0
  6
Continuous
 62
     7
370
     0
100
AcDbLine
 10
0.7731108033
 20
9.5159784553
 30
0.0
 11
0.7731108033
 21
8.3584625761
 31
0.0
  0
LINE
  5
1A5
330
197
100
AcDbEntity
  8
0
  6
Continuous
 62
     7
370
     0
100
AcDbLine
 10
0.7731108033
 20
6.6951849283
 30
0.0
 11
0.7731108033
 21
7.8527008075
 31
0.0
  0
MTEXT
  5
1A6
330
197
100
AcDbEntity
  8
0
  6
Continuous
 62
     7
370
     0
100
AcDbMText
 10
0.5063627515
 20
8.3164955251
 30
-0.4292028033
 40
0.140625
 41
0.0
 71
     1
 72
     1
  1

  7
SLDTEXTSTYLE0
 73
     1
 44
1.0
  0
MTEXT
  5
1A7
330
197
100
AcDbEntity
  8
0
  6
Continuous
 62
     7
370
     0
100
AcDbMText
 10
0.5341459716
 20
8.3143470772
 30
-0.4292028033
 40
0.140625
 41
0.0
 71
     1
 72
     1
  1
2.82
  7
SLDTEXTSTYLE0
 73
     1
 44
1.0
  0
MTEXT
  5
1A8
330
197
100
AcDbEntity
  8
0
  6
Continuous
 62
     7
370
     0
100
AcDbMText
 10
0.5912748653
 20
8.0625404207
 30
-0.4292028033
 40
0.140625
 41
0.0
 71
     1
 72
     1
  1
71.6
  7
SLDTEXTSTYLE0
 73
     1
 44
1.0
  0
MTEXT
  5
1A9
330
197
100
AcDbEntity
  8
0
  6
Continuous
 62
     7
370
     0
100
AcDbMText
 10
1.0933744903
 20
8.3164955251
 30
-0.4292028033
 40
0.140625
 41
0.0
 71
     1
 72
     1
  1

  7
SLDTEXTSTYLE0
 73
     1
 44
1.0
  0
ENDBLK
  5
199
330
197
100
AcDbEntity
  8
0
100
AcDbBlockEnd
  0
BLOCK
  5
1AC
330
1AB
100
AcDbEntity
  8
0
100
AcDbBlockBegin
  2
*D14
 70
     1
 10
0.0
 20
0.0
 30
0.0
  3
*D14
  1

  0
SOLID
  5
1AE
330
1AB
100
AcDbEntity
  8
0
  6
Continuous
 62
     7
370
     0
100
AcDbTrace
 10
2.5447802761
 20
10.9757776458
 30
0.0
 11
2.6910302761
 21
10.9532776458
 31
0.0
 12
2.6910302761
 22
10.9982776458
 32
0.0
 13
2.6910302761
 23
10.9982776458
 33
0.0
  0
SOLID
  5
1AF
330
1AB
100
AcDbEntity
  8
0
  6
Continuous
 62
     7
370
     0
100
AcDbTrace
 10
7.5447802761
 20
10.9757776458
 30
0.0
 11
7.3985302761
 21
10.9982776458
 31
0.0
 12
7.3985302761
 22
10.9532776458
 32
0.0
 13
7.3985302761
 23
10.9532776458
 33
0.0
  0
LINE
  5
1B0
330
1AB
100
AcDbEntity
  8
0
  6
Continuous
 62
     7
370
     0
100
AcDbLine
 10
4.8532153479
 20
10.9747034257
 30
0.0
 11
4.8246508934
 21
10.9747034257
 31
0.0
  0
LINE
  5
1B1
330
1AB
100
AcDbEntity
  8
0
  6
Continuous
 62
     7
370
     0
100
AcDbLine
 10
4.8246508934
 20
10.9747034257
 30
0.0
 11
4.8246508934
 21
10.7514612315
 31
0.0
  0
LINE
  5
1B2
330
1AB
100
AcDbEntity
  8
0
  6
Continuous
 62
     7
370
     0
100
AcDbLine
 10
4.8246508934
 20
10.7514612315
 30
0.0
 11
4.8532153479
 21
10.7514612315
 31
0.0
  0
LINE
  5
1B3
330
1AB
100
AcDbEntity
  8
0
  6
Continuous
 62
     7
370
     0
100
AcDbLine
 10
5.2363452352
 20
10.9747034257
 30
0.0
 11
5.2649096897
 21
10.9747034257
 31
0.0
  0
LINE
  5
1B4
330
1AB
100
AcDbEntity
  8
0
  6
Continuous
 62
     7
370
     0
100
AcDbLine
 10
5.2649096897
 20
10.9747034257
 30
0.0
 11
5.2649096897
 21
10.7514612315
 31
0.0
  0
LINE
  5
1B5
330
1AB
100
AcDbEntity
  8
0
  6
Continuous
 62
     7
370
     0
100
AcDbLine
 10
5.2649096897
 20
10.7514612315
 30
0.0
 11
5.2363452352
 21
10.7514612315
 31
0.0
  0
LINE
  5
1B6
330
1AB
100
AcDbEntity
  8
0
  6
Continuous
 62
     7
370
     0
100
AcDbLine
 10
2.5447802761
 20
9.2737628649
 30
0.0
 11
2.5447802761
 21
11.1164026458
 31
0.0
  0
LINE
  5
1B7
330
1AB
100
AcDbEntity
  8
0
  6
Continuous
 62
     7
370
     0
100
AcDbLine
 10
7.5447802761
 20
9.2737628649
 30
0.0
 11
7.5447802761
 21
11.1164026458
 31
0.0
  0
LINE
  5
1B8
330
1AB
100
AcDbEntity
  8
0
  6
Continuous
 62
     7
370
     0
100
AcDbLine
 10
2.5447802761
 20
10.9757776458
 30
0.0
 11
4.7227537897
 21
10.9757776458
 31
0.0
  0
LINE
  5
1B9
330
1AB
100
AcDbEntity
  8
0
  6
Continuous
 62
     7
370
     0
100
AcDbLine
 10
7.5447802761
 20
10.9757776458
 30
0.0
 11
5.3668067624
 21
10.9757776458
 31
0.0
  0
MTEXT
  5
1BA
330
1AB
100
AcDbEntity
  8
0
  6
Continuous
 62
     7
370
     0
100
AcDbMText
 10
4.8040088023
 20
11.1866914791
 30
-0.4292028033
 40
0.140625
 41
0.0
 71
     1
 72
     1
  1

  7
SLDTEXTSTYLE0
 73
     1
 44
1.0
  0
MTEXT
  5
1BB
330
1AB
100
AcDbEntity
  8
0
  6
Continuous
 62
     7
370
     0
100
AcDbMText
 10
4.8058154444
 20
11.1845430312
 30
-0.4292028033
 40
0.140625
 41
0.0
 71
     1
 72
     1
  1
5.00
  7
SLDTEXTSTYLE0
 73
     1
 44
1.0
  0
MTEXT
  5
1BC
330
1AB
100
AcDbEntity
  8
0
  6
Continuous
 62
     7
370
     0
100
AcDbMText
 10
4.8889209161
 20
10.9327363747
 30
-0.4292028033
 40
0.140625
 41
0.0
 71
     1
 72
     1
  1
127
  7
SLDTEXTSTYLE0
 73
     1
 44
1.0
  0
MTEXT
  5
1BD
330
1AB
100
AcDbEntity
  8
0
  6
Continuous
 62
     7
370
     0
100
AcDbMText
 10
5.339067385
 20
11.1866914791
 30
-0.4292028033
 40
0.140625
 41
0.0
 71
     1
 72
     1
  1

  7
SLDTEXTSTYLE0
 73
     1
 44
1.0
  0
ENDBLK
  5
1AD
330
1AB
100
AcDbEntity
  8
0
100
AcDbBlockEnd
  0
BLOCK
  5
1C0
330
1BF
100
AcDbEntity
  8
0
100
AcDbBlockBegin
  2
*D15
 70
     1
 10
0.0
 20
0.0
 30
0.0
  3
*D15
  1

  0
SOLID
  5
1C2
330
1BF
100
AcDbEntity
  8
0
  6
Continuous
 62
     7
370
     0
100
AcDbTrace
 10
2.9757878438
 20
10.4185862157
 30
0.0
 11
3.1220378438
 21
10.3960862157
 31
0.0
 12
3.1220378438
 22
10.4410862157
 32
0.0
 13
3.1220378438
 23
10.4410862157
 33
0.0
  0
SOLID
  5
1C3
330
1BF
100
AcDbEntity
  8
0
  6
Continuous
 62
     7
370
     0
100
AcDbTrace
 10
7.1137727083
 20
10.4185862157
 30
0.0
 11
6.9675227083
 21
10.4410862157
 31
0.0
 12
6.9675227083
 22
10.3960862157
 32
0.0
 13
6.9675227083
 23
10.3960862157
 33
0.0
  0
LINE
  5
1C4
330
1BF
100
AcDbEntity
  8
0
  6
Continuous
 62
     7
370
     0
100
AcDbLine
 10
4.775285655
 20
10.4175119956
 30
0.0
 11
4.7467212005
 21
10.4175119956
 31
0.0
  0
LINE
  5
1C5
330
1BF
100
AcDbEntity
  8
0
  6
Continuous
 62
     7
370
     0
100
AcDbLine
 10
4.7467212005
 20
10.4175119956
 30
0.0
 11
4.7467212005
 21
10.1942698014
 31
0.0
  0
LINE
  5
1C6
330
1BF
100
AcDbEntity
  8
0
  6
Continuous
 62
     7
370
     0
100
AcDbLine
 10
4.7467212005
 20
10.1942698014
 30
0.0
 11
4.775285655
 21
10.1942698014
 31
0.0
  0
LINE
  5
1C7
330
1BF
100
AcDbEntity
  8
0
  6
Continuous
 62
     7
370
     0
100
AcDbLine
 10
5.3142749074
 20
10.4175119956
 30
0.0
 11
5.342839362
 21
10.4175119956
 31
0.0
  0
LINE
  5
1C8
330
1BF
100
AcDbEntity
  8
0
  6
Continuous
 62
     7
370
     0
100
AcDbLine
 10
5.342839362
 20
10.4175119956
 30
0.0
 11
5.342839362
 21
10.1942698014
 31
0.0
  0
LINE
  5
1C9
330
1BF
100
AcDbEntity
  8
0
  6
Continuous
 62
     7
370
     0
100
AcDbLine
 10
5.342839362
 20
10.1942698014
 30
0.0
 11
5.3142749074
 21
10.1942698014
 31
0.0
  0
LINE
  5
1CA
330
1BF
100
AcDbEntity
  8
0
  6
Continuous
 62
     7
370
     0
100
AcDbLine
 10
2.9757878438
 20
9.4728553138
 30
0.0
 11
2.9757878438
 21
10.5592112157
 31
0.0
  0
LINE
  5
1CB
330
1BF
100
AcDbEntity
  8
0
  6
Continuous
 62
     7
370
     0
100
AcDbLine
 10
7.1137727083
 20
9.4728553138
 30
0.0
 11
7.1137727083
 21
10.5592112157
 31
0.0
  0
LINE
  5
1CC
330
1BF
100
AcDbEntity
  8
0
  6
Continuous
 62
     7
370
     0
100
AcDbLine
 10
2.9757878438
 20
10.4185862157
 30
0.0
 11
4.6448240968
 21
10.4185862157
 31
0.0
  0
LINE
  5
1CD
330
1BF
100
AcDbEntity
  8
0
  6
Continuous
 62
     7
370
     0
100
AcDbLine
 10
7.1137727083
 20
10.4185862157
 30
0.0
 11
5.4447364553
 21
10.4185862157
 31
0.0
  0
MTEXT
  5
1CE
330
1BF
100
AcDbEntity
  8
0
  6
Continuous
 62
     7
370
     0
100
AcDbMText
 10
4.7260791094
 20
10.629500049
 30
-0.4292028033
 40
0.140625
 41
0.0
 71
     1
 72
     1
  1

  7
SLDTEXTSTYLE0
 73
     1
 44
1.0
  0
MTEXT
  5
1CF
330
1BF
100
AcDbEntity
  8
0
  6
Continuous
 62
     7
370
     0
100
AcDbMText
 10
4.8058154444
 20
10.6273516011
 30
-0.4292028033
 40
0.140625
 41
0.0
 71
     1
 72
     1
  1
4.14
  7
SLDTEXTSTYLE0
 73
     1
 44
1.0
  0
MTEXT
  5
1D0
330
1BF
100
AcDbEntity
  8
0
  6
Continuous
 62
     7
370
     0
100
AcDbMText
 10
4.8109912232
 20
10.3755449446
 30
-0.4292028033
 40
0.140625
 41
0.0
 71
     1
 72
     1
  1
105.1
  7
SLDTEXTSTYLE0
 73
     1
 44
1.0
  0
MTEXT
  5
1D1
330
1BF
100
AcDbEntity
  8
0
  6
Continuous
 62
     7
370
     0
100
AcDbMText
 10
5.4169970779
 20
10.629500049
 30
-0.4292028033
 40
0.140625
 41
0.0
 71
     1
 72
     1
  1

  7
SLDTEXTSTYLE0
 73
     1
 44
1.0
  0
ENDBLK
  5
1C1
330
1BF
100
AcDbEntity
  8
0
100
AcDbBlockEnd
  0
BLOCK
  5
1D4
330
1D3
100
AcDbEntity
  8
0
100
AcDbBlockBegin
  2
*D16
 70
     1
 10
0.0
 20
0.0
 30
0.0
  3
*D16
  1

  0
SOLID
  5
1D6
330
1D3
100
AcDbEntity
  8
0
  6
Continuous
 62
     7
370
     0
100
AcDbTrace
 10
3.067560263
 20
9.8665495644
 30
0.0
 11
3.213810263
 21
9.8440495644
 31
0.0
 12
3.213810263
 22
9.8890495644
 32
0.0
 13
3.213810263
 23
9.8890495644
 33
0.0
  0
SOLID
  5
1D7
330
1D3
100
AcDbEntity
  8
0
  6
Continuous
 62
     7
370
     0
100
AcDbTrace
 10
7.0220002891
 20
9.8665495644
 30
0.0
 11
6.8757502891
 21
9.8890495644
 31
0.0
 12
6.8757502891
 22
9.8440495644
 32
0.0
 13
6.8757502891
 23
9.8440495644
 33
0.0
  0
LINE
  5
1D8
330
1D3
100
AcDbEntity
  8
0
  6
Continuous
 62
     7
370
     0
100
AcDbLine
 10
4.775285655
 20
9.8654753443
 30
0.0
 11
4.7467212005
 21
9.8654753443
 31
0.0
  0
LINE
  5
1D9
330
1D3
100
AcDbEntity
  8
0
  6
Continuous
 62
     7
370
     0
100
AcDbLine
 10
4.7467212005
 20
9.8654753443
 30
0.0
 11
4.7467212005
 21
9.6422331501
 31
0.0
  0
LINE
  5
1DA
330
1D3
100
AcDbEntity
  8
0
  6
Continuous
 62
     7
370
     0
100
AcDbLine
 10
4.7467212005
 20
9.6422331501
 30
0.0
 11
4.775285655
 21
9.6422331501
 31
0.0
  0
LINE
  5
1DB
330
1D3
100
AcDbEntity
  8
0
  6
Continuous
 62
     7
370
     0
100
AcDbLine
 10
5.3142749074
 20
9.8654753443
 30
0.0
 11
5.342839362
 21
9.8654753443
 31
0.0
  0
LINE
  5
1DC
330
1D3
100
AcDbEntity
  8
0
  6
Continuous
 62
     7
370
     0
100
AcDbLine
 10
5.342839362
 20
9.8654753443
 30
0.0
 11
5.342839362
 21
9.6422331501
 31
0.0
  0
LINE
  5
1DD
330
1D3
100
AcDbEntity
  8
0
  6
Continuous
 62
     7
370
     0
100
AcDbLine
 10
5.342839362
 20
9.6422331501
 30
0.0
 11
5.3142749074
 21
9.6422331501
 31
0.0
  0
LINE
  5
1DE
330
1D3
100
AcDbEntity
  8
0
  6
Continuous
 62
     7
370
     0
100
AcDbLine
 10
3.067560263
 20
9.4618863505
 30
0.0
 11
3.067560263
 21
10.0071745644
 31
0.0
  0
LINE
  5
1DF
330
1D3
100
AcDbEntity
  8
0
  6
Continuous
 62
     7
370
     0
100
AcDbLine
 10
7.0220002891
 20
9.4618863505
 30
0.0
 11
7.0220002891
 21
10.0071745644
 31
0.0
  0
LINE
  5
1E0
330
1D3
100
AcDbEntity
  8
0
  6
Continuous
 62
     7
370
     0
100
AcDbLine
 10
3.067560263
 20
9.8665495644
 30
0.0
 11
4.6448240968
 21
9.8665495644
 31
0.0
  0
LINE
  5
1E1
330
1D3
100
AcDbEntity
  8
0
  6
Continuous
 62
     7
370
     0
100
AcDbLine
 10
7.0220002891
 20
9.8665495644
 30
0.0
 11
5.4447364553
 21
9.8665495644
 31
0.0
  0
MTEXT
  5
1E2
330
1D3
100
AcDbEntity
  8
0
  6
Continuous
 62
     7
370
     0
100
AcDbMText
 10
4.7260791094
 20
10.0774633977
 30
-0.4292028033
 40
0.140625
 41
0.0
 71
     1
 72
     1
  1

  7
SLDTEXTSTYLE0
 73
     1
 44
1.0
  0
MTEXT
  5
1E3
330
1D3
100
AcDbEntity
  8
0
  6
Continuous
 62
     7
370
     0
100
AcDbMText
 10
4.8058154444
 20
10.0753149498
 30
-0.4292028033
 40
0.140625
 41
0.0
 71
     1
 72
     1
  1
3.95
  7
SLDTEXTSTYLE0
 73
     1
 44
1.0
  0
MTEXT
  5
1E4
330
1D3
100
AcDbEntity
  8
0
  6
Continuous
 62
     7
370
     0
100
AcDbMText
 10
4.8109912232
 20
9.8235082933
 30
-0.4292028033
 40
0.140625
 41
0.0
 71
     1
 72
     1
  1
100.4
  7
SLDTEXTSTYLE0
 73
     1
 44
1.0
  0
MTEXT
  5
1E5
330
1D3
100
AcDbEntity
  8
0
  6
Continuous
 62
     7
370
     0
100
AcDbMText
 10
5.4169970779
 20
10.0774633977
 30
-0.4292028033
 40
0.140625
 41
0.0
 71
     1
 72
     1
  1

  7
SLDTEXTSTYLE0
 73
     1
 44
1.0
  0
ENDBLK
  5
1D5
330
1D3
100
AcDbEntity
  8
0
100
AcDbBlockEnd
  0
BLOCK
  5
1E7
330
1E6
100
AcDbEntity
  8
0
100
AcDbBlockBegin
  2
SW_NOTE_4
 70
     0
 10
0.0
 20
0.0
 30
0.0
  3
SW_NOTE_4
  1

  0
MTEXT
  5
1E9
330
1E6
100
AcDbEntity
  8
0
  6
Continuous
 62
     0
370
     0
100
AcDbMText
 10
0.0222311595
 20
0.0682324695
 30
0.0
 40
0.140625
 41
0.0
 71
     1
 72
     1
  1
HOLES ACCEPT M2.6 x 6mm LG.
  7
SLDTEXTSTYLE0
 73
     1
 44
1.0
  0
MTEXT
  5
1EA
330
1E6
100
AcDbEntity
  8
0
  6
Continuous
 62
     0
370
     0
100
AcDbMText
 10
0.0222311595
 20
-0.1166838643
 30
0.0
 40
0.140625
 41
0.0
 71
     1
 72
     1
  1
SELF-TAPPING SCREWS FOR
  7
SLDTEXTSTYLE0
 73
     1
 44
1.0
  0
MTEXT
  5
1EB
330
1E6
100
AcDbEntity
  8
0
  6
Continuous
 62
     0
370
     0
100
AcDbMText
 10
0.0222311595
 20
-0.3016001982
 30
0.0
 40
0.140625
 41
0.0
 71
     1
 72
     1
  1
PCB MOUNTING
  7
SLDTEXTSTYLE0
 73
     1
 44
1.0
  0
ENDBLK
  5
1E8
330
1E6
100
AcDbEntity
  8
0
100
AcDbBlockEnd
  0
BLOCK
  5
1F0
330
1EF
100
AcDbEntity
  8
0
100
AcDbBlockBegin
  2
SW_CENTERMARKSYMBOL_0
 70
     0
 10
0.0
 20
0.0
 30
0.0
  3
SW_CENTERMARKSYMBOL_0
  1

  0
LINE
  5
1F2
330
1EF
100
AcDbEntity
  8
0
  6
Continuous
 62
     0
370
     0
100
AcDbLine
 10
0.0
 20
0.0
 30
0.0
 11
0.0
 21
0.1
 31
0.0
  0
LINE
  5
1F3
330
1EF
100
AcDbEntity
  8
0
  6
Continuous
 62
     0
370
     0
100
AcDbLine
 10
0.0
 20
0.0
 30
0.0
 11
-0.1
 21
0.0
 31
0.0
  0
LINE
  5
1F4
330
1EF
100
AcDbEntity
  8
0
  6
Continuous
 62
     0
370
     0
100
AcDbLine
 10
0.0
 20
0.0
 30
0.0
 11
0.0
 21
-0.1
 31
0.0
  0
LINE
  5
1F5
330
1EF
100
AcDbEntity
  8
0
  6
Continuous
 62
     0
370
     0
100
AcDbLine
 10
0.0
 20
0.0
 30
0.0
 11
0.1
 21
0.0
 31
0.0
  0
LINE
  5
1F6
330
1EF
100
AcDbEntity
  8
0
  6
Continuous
 62
     0
370
     0
100
AcDbLine
 10
0.0
 20
0.1
 30
0.0
 11
0.0
 21
0.1885826772
 31
0.0
  0
LINE
  5
1F7
330
1EF
100
AcDbEntity
  8
0
  6
Continuous
 62
     0
370
     0
100
AcDbLine
 10
-0.1
 20
0.0
 30
0.0
 11
-0.1885826772
 21
0.0
 31
0.0
  0
LINE
  5
1F8
330
1EF
100
AcDbEntity
  8
0
  6
Continuous
 62
     0
370
     0
100
AcDbLine
 10
0.0
 20
-0.1
 30
0.0
 11
0.0
 21
-0.1885826772
 31
0.0
  0
LINE
  5
1F9
330
1EF
100
AcDbEntity
  8
0
  6
Continuous
 62
     0
370
     0
100
AcDbLine
 10
0.1
 20
0.0
 30
0.0
 11
0.1885826772
 21
0.0
 31
0.0
  0
ENDBLK
  5
1F1
330
1EF
100
AcDbEntity
  8
0
100
AcDbBlockEnd
  0
BLOCK
  5
1FC
330
1FB
100
AcDbEntity
  8
0
100
AcDbBlockBegin
  2
SW_CENTERMARKSYMBOL_1
 70
     0
 10
0.0
 20
0.0
 30
0.0
  3
SW_CENTERMARKSYMBOL_1
  1

  0
LINE
  5
1FE
330
1FB
100
AcDbEntity
  8
0
  6
Continuous
 62
     0
370
     0
100
AcDbLine
 10
0.0
 20
0.0
 30
0.0
 11
0.0
 21
0.1
 31
0.0
  0
LINE
  5
1FF
330
1FB
100
AcDbEntity
  8
0
  6
Continuous
 62
     0
370
     0
100
AcDbLine
 10
0.0
 20
0.0
 30
0.0
 11
-0.1
 21
0.0
 31
0.0
  0
LINE
  5
200
330
1FB
100
AcDbEntity
  8
0
  6
Continuous
 62
     0
370
     0
100
AcDbLine
 10
0.0
 20
0.0
 30
0.0
 11
0.0
 21
-0.1
 31
0.0
  0
LINE
  5
201
330
1FB
100
AcDbEntity
  8
0
  6
Continuous
 62
     0
370
     0
100
AcDbLine
 10
0.0
 20
0.0
 30
0.0
 11
0.1
 21
0.0
 31
0.0
  0
LINE
  5
202
330
1FB
100
AcDbEntity
  8
0
  6
Continuous
 62
     0
370
     0
100
AcDbLine
 10
0.0
 20
0.1
 30
0.0
 11
0.0
 21
0.1885826772
 31
0.0
  0
LINE
  5
203
330
1FB
100
AcDbEntity
  8
0
  6
Continuous
 62
     0
370
     0
100
AcDbLine
 10
-0.1
 20
0.0
 30
0.0
 11
-0.1885826772
 21
0.0
 31
0.0
  0
LINE
  5
204
330
1FB
100
AcDbEntity
  8
0
  6
Continuous
 62
     0
370
     0
100
AcDbLine
 10
0.0
 20
-0.1
 30
0.0
 11
0.0
 21
-0.1885826772
 31
0.0
  0
LINE
  5
205
330
1FB
100
AcDbEntity
  8
0
  6
Continuous
 62
     0
370
     0
100
AcDbLine
 10
0.1
 20
0.0
 30
0.0
 11
0.1885826772
 21
0.0
 31
0.0
  0
ENDBLK
  5
1FD
330
1FB
100
AcDbEntity
  8
0
100
AcDbBlockEnd
  0
BLOCK
  5
208
330
207
100
AcDbEntity
  8
0
100
AcDbBlockBegin
  2
SW_CENTERMARKSYMBOL_2
 70
     0
 10
0.0
 20
0.0
 30
0.0
  3
SW_CENTERMARKSYMBOL_2
  1

  0
LINE
  5
20A
330
207
100
AcDbEntity
  8
0
  6
Continuous
 62
     0
370
     0
100
AcDbLine
 10
0.0
 20
0.0
 30
0.0
 11
0.0
 21
0.1
 31
0.0
  0
LINE
  5
20B
330
207
100
AcDbEntity
  8
0
  6
Continuous
 62
     0
370
     0
100
AcDbLine
 10
0.0
 20
0.0
 30
0.0
 11
-0.1
 21
0.0
 31
0.0
  0
LINE
  5
20C
330
207
100
AcDbEntity
  8
0
  6
Continuous
 62
     0
370
     0
100
AcDbLine
 10
0.0
 20
0.0
 30
0.0
 11
0.0
 21
-0.1
 31
0.0
  0
LINE
  5
20D
330
207
100
AcDbEntity
  8
0
  6
Continuous
 62
     0
370
     0
100
AcDbLine
 10
0.0
 20
0.0
 30
0.0
 11
0.1
 21
0.0
 31
0.0
  0
LINE
  5
20E
330
207
100
AcDbEntity
  8
0
  6
Continuous
 62
     0
370
     0
100
AcDbLine
 10
0.0
 20
0.1
 30
0.0
 11
0.0
 21
0.1885826772
 31
0.0
  0
LINE
  5
20F
330
207
100
AcDbEntity
  8
0
  6
Continuous
 62
     0
370
     0
100
AcDbLine
 10
-0.1
 20
0.0
 30
0.0
 11
-0.1885826772
 21
0.0
 31
0.0
  0
LINE
  5
210
330
207
100
AcDbEntity
  8
0
  6
Continuous
 62
     0
370
     0
100
AcDbLine
 10
0.0
 20
-0.1
 30
0.0
 11
0.0
 21
-0.1885826772
 31
0.0
  0
LINE
  5
211
330
207
100
AcDbEntity
  8
0
  6
Continuous
 62
     0
370
     0
100
AcDbLine
 10
0.1
 20
0.0
 30
0.0
 11
0.1885826772
 21
0.0
 31
0.0
  0
ENDBLK
  5
209
330
207
100
AcDbEntity
  8
0
100
AcDbBlockEnd
  0
BLOCK
  5
214
330
213
100
AcDbEntity
  8
0
100
AcDbBlockBegin
  2
SW_CENTERMARKSYMBOL_3
 70
     0
 10
0.0
 20
0.0
 30
0.0
  3
SW_CENTERMARKSYMBOL_3
  1

  0
LINE
  5
216
330
213
100
AcDbEntity
  8
0
  6
Continuous
 62
     0
370
     0
100
AcDbLine
 10
0.0
 20
0.0
 30
0.0
 11
0.0
 21
0.1
 31
0.0
  0
LINE
  5
217
330
213
100
AcDbEntity
  8
0
  6
Continuous
 62
     0
370
     0
100
AcDbLine
 10
0.0
 20
0.0
 30
0.0
 11
-0.1
 21
0.0
 31
0.0
  0
LINE
  5
218
330
213
100
AcDbEntity
  8
0
  6
Continuous
 62
     0
370
     0
100
AcDbLine
 10
0.0
 20
0.0
 30
0.0
 11
0.0
 21
-0.1
 31
0.0
  0
LINE
  5
219
330
213
100
AcDbEntity
  8
0
  6
Continuous
 62
     0
370
     0
100
AcDbLine
 10
0.0
 20
0.0
 30
0.0
 11
0.1
 21
0.0
 31
0.0
  0
LINE
  5
21A
330
213
100
AcDbEntity
  8
0
  6
Continuous
 62
     0
370
     0
100
AcDbLine
 10
0.0
 20
0.1
 30
0.0
 11
0.0
 21
0.1885826772
 31
0.0
  0
LINE
  5
21B
330
213
100
AcDbEntity
  8
0
  6
Continuous
 62
     0
370
     0
100
AcDbLine
 10
-0.1
 20
0.0
 30
0.0
 11
-0.1885826772
 21
0.0
 31
0.0
  0
LINE
  5
21C
330
213
100
AcDbEntity
  8
0
  6
Continuous
 62
     0
370
     0
100
AcDbLine
 10
0.0
 20
-0.1
 30
0.0
 11
0.0
 21
-0.1885826772
 31
0.0
  0
LINE
  5
21D
330
213
100
AcDbEntity
  8
0
  6
Continuous
 62
     0
370
     0
100
AcDbLine
 10
0.1
 20
0.0
 30
0.0
 11
0.1885826772
 21
0.0
 31
0.0
  0
ENDBLK
  5
215
330
213
100
AcDbEntity
  8
0
100
AcDbBlockEnd
  0
BLOCK
  5
220
330
21F
100
AcDbEntity
  8
0
100
AcDbBlockBegin
  2
SW_CENTERMARKSYMBOL_4
 70
     0
 10
0.0
 20
0.0
 30
0.0
  3
SW_CENTERMARKSYMBOL_4
  1

  0
LINE
  5
222
330
21F
100
AcDbEntity
  8
0
  6
Continuous
 62
     0
370
     0
100
AcDbLine
 10
0.0
 20
0.0
 30
0.0
 11
0.0
 21
0.1
 31
0.0
  0
LINE
  5
223
330
21F
100
AcDbEntity
  8
0
  6
Continuous
 62
     0
370
     0
100
AcDbLine
 10
0.0
 20
0.0
 30
0.0
 11
-0.1
 21
0.0
 31
0.0
  0
LINE
  5
224
330
21F
100
AcDbEntity
  8
0
  6
Continuous
 62
     0
370
     0
100
AcDbLine
 10
0.0
 20
0.0
 30
0.0
 11
0.0
 21
-0.1
 31
0.0
  0
LINE
  5
225
330
21F
100
AcDbEntity
  8
0
  6
Continuous
 62
     0
370
     0
100
AcDbLine
 10
0.0
 20
0.0
 30
0.0
 11
0.1
 21
0.0
 31
0.0
  0
LINE
  5
226
330
21F
100
AcDbEntity
  8
0
  6
Continuous
 62
     0
370
     0
100
AcDbLine
 10
0.0
 20
0.1
 30
0.0
 11
0.0
 21
0.1393700787
 31
0.0
  0
LINE
  5
227
330
21F
100
AcDbEntity
  8
0
  6
Continuous
 62
     0
370
     0
100
AcDbLine
 10
-0.1
 20
0.0
 30
0.0
 11
-0.1393700787
 21
0.0
 31
0.0
  0
LINE
  5
228
330
21F
100
AcDbEntity
  8
0
  6
Continuous
 62
     0
370
     0
100
AcDbLine
 10
0.0
 20
-0.1
 30
0.0
 11
0.0
 21
-0.1393700787
 31
0.0
  0
LINE
  5
229
330
21F
100
AcDbEntity
  8
0
  6
Continuous
 62
     0
370
     0
100
AcDbLine
 10
0.1
 20
0.0
 30
0.0
 11
0.1393700787
 21
0.0
 31
0.0
  0
ENDBLK
  5
221
330
21F
100
AcDbEntity
  8
0
100
AcDbBlockEnd
  0
BLOCK
  5
22C
330
22B
100
AcDbEntity
  8
0
100
AcDbBlockBegin
  2
SW_CENTERMARKSYMBOL_5
 70
     0
 10
0.0
 20
0.0
 30
0.0
  3
SW_CENTERMARKSYMBOL_5
  1

  0
LINE
  5
22E
330
22B
100
AcDbEntity
  8
0
  6
Continuous
 62
     0
370
     0
100
AcDbLine
 10
0.0
 20
0.0
 30
0.0
 11
0.0
 21
0.1
 31
0.0
  0
LINE
  5
22F
330
22B
100
AcDbEntity
  8
0
  6
Continuous
 62
     0
370
     0
100
AcDbLine
 10
0.0
 20
0.0
 30
0.0
 11
-0.1
 21
0.0
 31
0.0
  0
LINE
  5
230
330
22B
100
AcDbEntity
  8
0
  6
Continuous
 62
     0
370
     0
100
AcDbLine
 10
0.0
 20
0.0
 30
0.0
 11
0.0
 21
-0.1
 31
0.0
  0
LINE
  5
231
330
22B
100
AcDbEntity
  8
0
  6
Continuous
 62
     0
370
     0
100
AcDbLine
 10
0.0
 20
0.0
 30
0.0
 11
0.1
 21
0.0
 31
0.0
  0
LINE
  5
232
330
22B
100
AcDbEntity
  8
0
  6
Continuous
 62
     0
370
     0
100
AcDbLine
 10
0.0
 20
0.1
 30
0.0
 11
0.0
 21
0.1393700787
 31
0.0
  0
LINE
  5
233
330
22B
100
AcDbEntity
  8
0
  6
Continuous
 62
     0
370
     0
100
AcDbLine
 10
-0.1
 20
0.0
 30
0.0
 11
-0.1393700787
 21
0.0
 31
0.0
  0
LINE
  5
234
330
22B
100
AcDbEntity
  8
0
  6
Continuous
 62
     0
370
     0
100
AcDbLine
 10
0.0
 20
-0.1
 30
0.0
 11
0.0
 21
-0.1393700787
 31
0.0
  0
LINE
  5
235
330
22B
100
AcDbEntity
  8
0
  6
Continuous
 62
     0
370
     0
100
AcDbLine
 10
0.1
 20
0.0
 30
0.0
 11
0.1393700787
 21
0.0
 31
0.0
  0
ENDBLK
  5
22D
330
22B
100
AcDbEntity
  8
0
100
AcDbBlockEnd
  0
BLOCK
  5
238
330
237
100
AcDbEntity
  8
0
100
AcDbBlockBegin
  2
SW_CENTERMARKSYMBOL_6
 70
     0
 10
0.0
 20
0.0
 30
0.0
  3
SW_CENTERMARKSYMBOL_6
  1

  0
LINE
  5
23A
330
237
100
AcDbEntity
  8
0
  6
Continuous
 62
     0
370
     0
100
AcDbLine
 10
0.0
 20
0.0
 30
0.0
 11
0.0
 21
0.1
 31
0.0
  0
LINE
  5
23B
330
237
100
AcDbEntity
  8
0
  6
Continuous
 62
     0
370
     0
100
AcDbLine
 10
0.0
 20
0.0
 30
0.0
 11
-0.1
 21
0.0
 31
0.0
  0
LINE
  5
23C
330
237
100
AcDbEntity
  8
0
  6
Continuous
 62
     0
370
     0
100
AcDbLine
 10
0.0
 20
0.0
 30
0.0
 11
0.0
 21
-0.1
 31
0.0
  0
LINE
  5
23D
330
237
100
AcDbEntity
  8
0
  6
Continuous
 62
     0
370
     0
100
AcDbLine
 10
0.0
 20
0.0
 30
0.0
 11
0.1
 21
0.0
 31
0.0
  0
LINE
  5
23E
330
237
100
AcDbEntity
  8
0
  6
Continuous
 62
     0
370
     0
100
AcDbLine
 10
0.0
 20
0.1
 30
0.0
 11
0.0
 21
0.1393700787
 31
0.0
  0
LINE
  5
23F
330
237
100
AcDbEntity
  8
0
  6
Continuous
 62
     0
370
     0
100
AcDbLine
 10
-0.1
 20
0.0
 30
0.0
 11
-0.1393700787
 21
0.0
 31
0.0
  0
LINE
  5
240
330
237
100
AcDbEntity
  8
0
  6
Continuous
 62
     0
370
     0
100
AcDbLine
 10
0.0
 20
-0.1
 30
0.0
 11
0.0
 21
-0.1393700787
 31
0.0
  0
LINE
  5
241
330
237
100
AcDbEntity
  8
0
  6
Continuous
 62
     0
370
     0
100
AcDbLine
 10
0.1
 20
0.0
 30
0.0
 11
0.1393700787
 21
0.0
 31
0.0
  0
ENDBLK
  5
239
330
237
100
AcDbEntity
  8
0
100
AcDbBlockEnd
  0
BLOCK
  5
244
330
243
100
AcDbEntity
  8
0
100
AcDbBlockBegin
  2
SW_CENTERMARKSYMBOL_7
 70
     0
 10
0.0
 20
0.0
 30
0.0
  3
SW_CENTERMARKSYMBOL_7
  1

  0
LINE
  5
246
330
243
100
AcDbEntity
  8
0
  6
Continuous
 62
     0
370
     0
100
AcDbLine
 10
0.0
 20
0.0
 30
0.0
 11
0.0
 21
0.1
 31
0.0
  0
LINE
  5
247
330
243
100
AcDbEntity
  8
0
  6
Continuous
 62
     0
370
     0
100
AcDbLine
 10
0.0
 20
0.0
 30
0.0
 11
-0.1
 21
0.0
 31
0.0
  0
LINE
  5
248
330
243
100
AcDbEntity
  8
0
  6
Continuous
 62
     0
370
     0
100
AcDbLine
 10
0.0
 20
0.0
 30
0.0
 11
0.0
 21
-0.1
 31
0.0
  0
LINE
  5
249
330
243
100
AcDbEntity
  8
0
  6
Continuous
 62
     0
370
     0
100
AcDbLine
 10
0.0
 20
0.0
 30
0.0
 11
0.1
 21
0.0
 31
0.0
  0
LINE
  5
24A
330
243
100
AcDbEntity
  8
0
  6
Continuous
 62
     0
370
     0
100
AcDbLine
 10
0.0
 20
0.1
 30
0.0
 11
0.0
 21
0.1393700787
 31
0.0
  0
LINE
  5
24B
330
243
100
AcDbEntity
  8
0
  6
Continuous
 62
     0
370
     0
100
AcDbLine
 10
-0.1
 20
0.0
 30
0.0
 11
-0.1393700787
 21
0.0
 31
0.0
  0
LINE
  5
24C
330
243
100
AcDbEntity
  8
0
  6
Continuous
 62
     0
370
     0
100
AcDbLine
 10
0.0
 20
-0.1
 30
0.0
 11
0.0
 21
-0.1393700787
 31
0.0
  0
LINE
  5
24D
330
243
100
AcDbEntity
  8
0
  6
Continuous
 62
     0
370
     0
100
AcDbLine
 10
0.1
 20
0.0
 30
0.0
 11
0.1393700787
 21
0.0
 31
0.0
  0
ENDBLK
  5
245
330
243
100
AcDbEntity
  8
0
100
AcDbBlockEnd
  0
BLOCK
  5
39C
330
39B
100
AcDbEntity
  8
0
100
AcDbBlockBegin
  2
*D26
 70
     1
 10
0.0
 20
0.0
 30
0.0
  3
*D26
  1

  0
SOLID
  5
39E
330
39B
100
AcDbEntity
  8
0
  6
Continuous
 62
     7
370
     0
100
AcDbTrace
 10
3.3478226588
 20
4.4529065064
 30
0.0
 11
3.3253226588
 21
4.3066565064
 31
0.0
 12
3.3703226588
 22
4.3066565064
 32
0.0
 13
3.3703226588
 23
4.3066565064
 33
0.0
  0
SOLID
  5
39F
330
39B
100
AcDbEntity
  8
0
  6
Continuous
 62
     7
370
     0
100
AcDbTrace
 10
3.3478226588
 20
4.6497569001
 30
0.0
 11
3.3703226588
 21
4.7960069001
 31
0.0
 12
3.3253226588
 22
4.7960069001
 32
0.0
 13
3.3253226588
 23
4.7960069001
 33
0.0
  0
LINE
  5
3A0
330
39B
100
AcDbEntity
  8
0
  6
Continuous
 62
     7
370
     0
100
AcDbLine
 10
2.7950122262
 20
5.0573135516
 30
0.0
 11
2.7664477716
 21
5.0573135516
 31
0.0
  0
LINE
  5
3A1
330
39B
100
AcDbEntity
  8
0
  6
Continuous
 62
     7
370
     0
100
AcDbLine
 10
2.7664477716
 20
5.0573135516
 30
0.0
 11
2.7664477716
 21
4.8340713573
 31
0.0
  0
LINE
  5
3A2
330
39B
100
AcDbEntity
  8
0
  6
Continuous
 62
     7
370
     0
100
AcDbLine
 10
2.7664477716
 20
4.8340713573
 30
0.0
 11
2.7950122262
 21
4.8340713573
 31
0.0
  0
LINE
  5
3A3
330
39B
100
AcDbEntity
  8
0
  6
Continuous
 62
     7
370
     0
100
AcDbLine
 10
2.9703296129
 20
5.0573135516
 30
0.0
 11
2.9988940674
 21
5.0573135516
 31
0.0
  0
LINE
  5
3A4
330
39B
100
AcDbEntity
  8
0
  6
Continuous
 62
     7
370
     0
100
AcDbLine
 10
2.9988940674
 20
5.0573135516
 30
0.0
 11
2.9988940674
 21
4.8340713573
 31
0.0
  0
LINE
  5
3A5
330
39B
100
AcDbEntity
  8
0
  6
Continuous
 62
     7
370
     0
100
AcDbLine
 10
2.9988940674
 20
4.8340713573
 30
0.0
 11
2.9703296129
 21
4.8340713573
 31
0.0
  0
LINE
  5
3A6
330
39B
100
AcDbEntity
  8
0
  6
Continuous
 62
     7
370
     0
100
AcDbLine
 10
3.4565332416
 20
4.6497569001
 30
0.0
 11
3.2071976588
 21
4.6497569001
 31
0.0
  0
LINE
  5
3A7
330
39B
100
AcDbEntity
  8
0
  6
Continuous
 62
     7
370
     0
100
AcDbLine
 10
3.2071976588
 20
5.0583877716
 30
0.0
 11
3.3478226588
 21
5.0583877716
 31
0.0
  0
LINE
  5
3A8
330
39B
100
AcDbEntity
  8
0
  6
Continuous
 62
     7
370
     0
100
AcDbLine
 10
3.3478226588
 20
5.0583877716
 30
0.0
 11
3.3478226588
 21
4.6497569001
 31
0.0
  0
LINE
  5
3A9
330
39B
100
AcDbEntity
  8
0
  6
Continuous
 62
     7
370
     0
100
AcDbLine
 10
3.3478226588
 20
4.4529065064
 30
0.0
 11
3.3478226588
 21
4.1716565064
 31
0.0
  0
MTEXT
  5
3AA
330
39B
100
AcDbEntity
  8
0
  6
Continuous
 62
     7
370
     0
100
AcDbMText
 10
2.6964404371
 20
5.2693016049
 30
0.3626782046
 40
0.140625
 41
0.0
 71
     1
 72
     1
  1

  7
SLDTEXTSTYLE0
 73
     1
 44
1.0
  0
MTEXT
  5
3AB
330
39B
100
AcDbEntity
  8
0
  6
Continuous
 62
     7
370
     0
100
AcDbMText
 10
2.6956591872
 20
5.267153157
 30
0.3626782046
 40
0.140625
 41
0.0
 71
     1
 72
     1
  1
.20
  7
SLDTEXTSTYLE0
 73
     1
 44
1.0
  0
MTEXT
  5
3AC
330
39B
100
AcDbEntity
  8
0
  6
Continuous
 62
     7
370
     0
100
AcDbMText
 10
2.8307177944
 20
5.0153465005
 30
0.3626782046
 40
0.140625
 41
0.0
 71
     1
 72
     1
  1
5
  7
SLDTEXTSTYLE0
 73
     1
 44
1.0
  0
MTEXT
  5
3AD
330
39B
100
AcDbEntity
  8
0
  6
Continuous
 62
     7
370
     0
100
AcDbMText
 10
3.1224170062
 20
5.2693016049
 30
0.3626782046
 40
0.140625
 41
0.0
 71
     1
 72
     1
  1

  7
SLDTEXTSTYLE0
 73
     1
 44
1.0
  0
ENDBLK
  5
39D
330
39B
100
AcDbEntity
  8
0
100
AcDbBlockEnd
  0
BLOCK
  5
3B1
330
3B0
100
AcDbEntity
  8
0
100
AcDbBlockBegin
  2
*D27
 70
     1
 10
0.0
 20
0.0
 30
0.0
  3
*D27
  1

  0
SOLID
  5
3B3
330
3B0
100
AcDbEntity
  8
0
  6
Continuous
 62
     7
370
     0
100
AcDbTrace
 10
2.232194239
 20
4.5237726482
 30
0.0
 11
2.254694239
 21
4.6700226482
 31
0.0
 12
2.209694239
 22
4.6700226482
 32
0.0
 13
2.209694239
 23
4.6700226482
 33
0.0
  0
SOLID
  5
3B4
330
3B0
100
AcDbEntity
  8
0
  6
Continuous
 62
     7
370
     0
100
AcDbTrace
 10
2.232194239
 20
4.3662923332
 30
0.0
 11
2.209694239
 21
4.2200423332
 31
0.0
 12
2.254694239
 22
4.2200423332
 32
0.0
 13
2.254694239
 23
4.2200423332
 33
0.0
  0
LINE
  5
3B5
330
3B0
100
AcDbEntity
  8
0
  6
Continuous
 62
     7
370
     0
100
AcDbLine
 10
1.6793838064
 20
4.0189118612
 30
0.0
 11
1.6508193518
 21
4.0189118612
 31
0.0
  0
LINE
  5
3B6
330
3B0
100
AcDbEntity
  8
0
  6
Continuous
 62
     7
370
     0
100
AcDbLine
 10
1.6508193518
 20
4.0189118612
 30
0.0
 11
1.6508193518
 21
3.7956696669
 31
0.0
  0
LINE
  5
3B7
330
3B0
100
AcDbEntity
  8
0
  6
Continuous
 62
     7
370
     0
100
AcDbLine
 10
1.6508193518
 20
3.7956696669
 30
0.0
 11
1.6793838064
 21
3.7956696669
 31
0.0
  0
LINE
  5
3B8
330
3B0
100
AcDbEntity
  8
0
  6
Continuous
 62
     7
370
     0
100
AcDbLine
 10
1.8547011931
 20
4.0189118612
 30
0.0
 11
1.8832656476
 21
4.0189118612
 31
0.0
  0
LINE
  5
3B9
330
3B0
100
AcDbEntity
  8
0
  6
Continuous
 62
     7
370
     0
100
AcDbLine
 10
1.8832656476
 20
4.0189118612
 30
0.0
 11
1.8832656476
 21
3.7956696669
 31
0.0
  0
LINE
  5
3BA
330
3B0
100
AcDbEntity
  8
0
  6
Continuous
 62
     7
370
     0
100
AcDbLine
 10
1.8832656476
 20
3.7956696669
 30
0.0
 11
1.8547011931
 21
3.7956696669
 31
0.0
  0
LINE
  5
3BB
330
3B0
100
AcDbEntity
  8
0
  6
Continuous
 62
     7
370
     0
100
AcDbLine
 10
2.5279003548
 20
4.5237726482
 30
0.0
 11
2.091569239
 21
4.5237726482
 31
0.0
  0
LINE
  5
3BC
330
3B0
100
AcDbEntity
  8
0
  6
Continuous
 62
     7
370
     0
100
AcDbLine
 10
2.4885302761
 20
4.3662923332
 30
0.0
 11
2.091569239
 21
4.3662923332
 31
0.0
  0
LINE
  5
3BD
330
3B0
100
AcDbEntity
  8
0
  6
Continuous
 62
     7
370
     0
100
AcDbLine
 10
2.091569239
 20
4.0199860812
 30
0.0
 11
2.232194239
 21
4.0199860812
 31
0.0
  0
LINE
  5
3BE
330
3B0
100
AcDbEntity
  8
0
  6
Continuous
 62
     7
370
     0
100
AcDbLine
 10
2.232194239
 20
4.0199860812
 30
0.0
 11
2.232194239
 21
4.3662923332
 31
0.0
  0
LINE
  5
3BF
330
3B0
100
AcDbEntity
  8
0
  6
Continuous
 62
     7
370
     0
100
AcDbLine
 10
2.232194239
 20
4.5237726482
 30
0.0
 11
2.232194239
 21
4.8050226482
 31
0.0
  0
MTEXT
  5
3C0
330
3B0
100
AcDbEntity
  8
0
  6
Continuous
 62
     7
370
     0
100
AcDbMText
 10
1.5808120173
 20
4.2308999145
 30
0.3626782046
 40
0.140625
 41
0.0
 71
     1
 72
     1
  1

  7
SLDTEXTSTYLE0
 73
     1
 44
1.0
  0
MTEXT
  5
3C1
330
3B0
100
AcDbEntity
  8
0
  6
Continuous
 62
     7
370
     0
100
AcDbMText
 10
1.5800307675
 20
4.2287514666
 30
0.3626782046
 40
0.140625
 41
0.0
 71
     1
 72
     1
  1
.16
  7
SLDTEXTSTYLE0
 73
     1
 44
1.0
  0
MTEXT
  5
3C2
330
3B0
100
AcDbEntity
  8
0
  6
Continuous
 62
     7
370
     0
100
AcDbMText
 10
1.7150893746
 20
3.9769448101
 30
0.3626782046
 40
0.140625
 41
0.0
 71
     1
 72
     1
  1
4
  7
SLDTEXTSTYLE0
 73
     1
 44
1.0
  0
MTEXT
  5
3C3
330
3B0
100
AcDbEntity
  8
0
  6
Continuous
 62
     7
370
     0
100
AcDbMText
 10
2.0067885864
 20
4.2308999145
 30
0.3626782046
 40
0.140625
 41
0.0
 71
     1
 72
     1
  1

  7
SLDTEXTSTYLE0
 73
     1
 44
1.0
  0
ENDBLK
  5
3B2
330
3B0
100
AcDbEntity
  8
0
100
AcDbBlockEnd
  0
BLOCK
  5
3C6
330
3C5
100
AcDbEntity
  8
0
100
AcDbBlockBegin
  2
*D28
 70
     1
 10
0.0
 20
0.0
 30
0.0
  3
*D28
  1

  0
SOLID
  5
3C8
330
3C5
100
AcDbEntity
  8
0
  6
Continuous
 62
     7
370
     0
100
AcDbTrace
 10
1.5703548978
 20
4.3662923332
 30
0.0
 11
1.5478548978
 21
4.2200423332
 31
0.0
 12
1.5928548978
 22
4.2200423332
 32
0.0
 13
1.5928548978
 23
4.2200423332
 33
0.0
  0
SOLID
  5
3C9
330
3C5
100
AcDbEntity
  8
0
  6
Continuous
 62
     7
370
     0
100
AcDbTrace
 10
1.5703548978
 20
4.7599931206
 30
0.0
 11
1.5928548978
 21
4.9062431206
 31
0.0
 12
1.5478548978
 22
4.9062431206
 32
0.0
 13
1.5478548978
 23
4.9062431206
 33
0.0
  0
LINE
  5
3CA
330
3C5
100
AcDbEntity
  8
0
  6
Continuous
 62
     7
370
     0
100
AcDbLine
 10
0.9630034378
 20
5.0339913327
 30
0.0
 11
0.9344389832
 21
5.0339913327
 31
0.0
  0
LINE
  5
3CB
330
3C5
100
AcDbEntity
  8
0
  6
Continuous
 62
     7
370
     0
100
AcDbLine
 10
0.9344389832
 20
5.0339913327
 30
0.0
 11
0.9344389832
 21
4.8107491385
 31
0.0
  0
LINE
  5
3CC
330
3C5
100
AcDbEntity
  8
0
  6
Continuous
 62
     7
370
     0
100
AcDbLine
 10
0.9344389832
 20
4.8107491385
 30
0.0
 11
0.9630034378
 21
4.8107491385
 31
0.0
  0
LINE
  5
3CD
330
3C5
100
AcDbEntity
  8
0
  6
Continuous
 62
     7
370
     0
100
AcDbLine
 10
1.2422270747
 20
5.0339913327
 30
0.0
 11
1.2707915293
 21
5.0339913327
 31
0.0
  0
LINE
  5
3CE
330
3C5
100
AcDbEntity
  8
0
  6
Continuous
 62
     7
370
     0
100
AcDbLine
 10
1.2707915293
 20
5.0339913327
 30
0.0
 11
1.2707915293
 21
4.8107491385
 31
0.0
  0
LINE
  5
3CF
330
3C5
100
AcDbEntity
  8
0
  6
Continuous
 62
     7
370
     0
100
AcDbLine
 10
1.2707915293
 20
4.8107491385
 30
0.0
 11
1.2422270747
 21
4.8107491385
 31
0.0
  0
LINE
  5
3D0
330
3C5
100
AcDbEntity
  8
0
  6
Continuous
 62
     7
370
     0
100
AcDbLine
 10
2.4885302761
 20
4.3662923332
 30
0.0
 11
1.4297298978
 21
4.3662923332
 31
0.0
  0
LINE
  5
3D1
330
3C5
100
AcDbEntity
  8
0
  6
Continuous
 62
     7
370
     0
100
AcDbLine
 10
2.9412861816
 20
4.7599931206
 30
0.0
 11
1.4297298978
 21
4.7599931206
 31
0.0
  0
LINE
  5
3D2
330
3C5
100
AcDbEntity
  8
0
  6
Continuous
 62
     7
370
     0
100
AcDbLine
 10
1.4297298978
 20
5.0350655528
 30
0.0
 11
1.5703548978
 21
5.0350655528
 31
0.0
  0
LINE
  5
3D3
330
3C5
100
AcDbEntity
  8
0
  6
Continuous
 62
     7
370
     0
100
AcDbLine
 10
1.5703548978
 20
5.0350655528
 30
0.0
 11
1.5703548978
 21
4.7599931206
 31
0.0
  0
LINE
  5
3D4
330
3C5
100
AcDbEntity
  8
0
  6
Continuous
 62
     7
370
     0
100
AcDbLine
 10
1.5703548978
 20
4.3662923332
 30
0.0
 11
1.5703548978
 21
4.0850423332
 31
0.0
  0
MTEXT
  5
3D5
330
3C5
100
AcDbEntity
  8
0
  6
Continuous
 62
     7
370
     0
100
AcDbMText
 10
0.9137968921
 20
5.2459793861
 30
0.3626782046
 40
0.140625
 41
0.0
 71
     1
 72
     1
  1

  7
SLDTEXTSTYLE0
 73
     1
 44
1.0
  0
MTEXT
  5
3D6
330
3C5
100
AcDbEntity
  8
0
  6
Continuous
 62
     7
370
     0
100
AcDbMText
 10
0.9156035343
 20
5.2438309382
 30
0.3626782046
 40
0.140625
 41
0.0
 71
     1
 72
     1
  1
.39
  7
SLDTEXTSTYLE0
 73
     1
 44
1.0
  0
MTEXT
  5
3D7
330
3C5
100
AcDbEntity
  8
0
  6
Continuous
 62
     7
370
     0
100
AcDbMText
 10
0.9987090059
 20
4.9920242817
 30
0.3626782046
 40
0.140625
 41
0.0
 71
     1
 72
     1
  1
10
  7
SLDTEXTSTYLE0
 73
     1
 44
1.0
  0
MTEXT
  5
3D8
330
3C5
100
AcDbEntity
  8
0
  6
Continuous
 62
     7
370
     0
100
AcDbMText
 10
1.3449492452
 20
5.2459793861
 30
0.3626782046
 40
0.140625
 41
0.0
 71
     1
 72
     1
  1

  7
SLDTEXTSTYLE0
 73
     1
 44
1.0
  0
ENDBLK
  5
3C7
330
3C5
100
AcDbEntity
  8
0
100
AcDbBlockEnd
  0
BLOCK
  5
3DB
330
3DA
100
AcDbEntity
  8
0
100
AcDbBlockBegin
  2
*D29
 70
     1
 10
0.0
 20
0.0
 30
0.0
  3
*D29
  1

  0
SOLID
  5
3DD
330
3DA
100
AcDbEntity
  8
0
  6
Continuous
 62
     7
370
     0
100
AcDbTrace
 10
6.7871675403
 20
4.4529065064
 30
0.0
 11
6.8096675403
 21
4.5991565064
 31
0.0
 12
6.7646675403
 22
4.5991565064
 32
0.0
 13
6.7646675403
 23
4.5991565064
 33
0.0
  0
SOLID
  5
3DE
330
3DA
100
AcDbEntity
  8
0
  6
Continuous
 62
     7
370
     0
100
AcDbTrace
 10
6.7871675403
 20
4.3662923332
 30
0.0
 11
6.7646675403
 21
4.2200423332
 31
0.0
 12
6.8096675403
 22
4.2200423332
 32
0.0
 13
6.8096675403
 23
4.2200423332
 33
0.0
  0
LINE
  5
3DF
330
3DA
100
AcDbEntity
  8
0
  6
Continuous
 62
     7
370
     0
100
AcDbLine
 10
7.1152953737
 20
4.0210822706
 30
0.0
 11
7.0867309191
 21
4.0210822706
 31
0.0
  0
LINE
  5
3E0
330
3DA
100
AcDbEntity
  8
0
  6
Continuous
 62
     7
370
     0
100
AcDbLine
 10
7.0867309191
 20
4.0210822706
 30
0.0
 11
7.0867309191
 21
3.7978400764
 31
0.0
  0
LINE
  5
3E1
330
3DA
100
AcDbEntity
  8
0
  6
Continuous
 62
     7
370
     0
100
AcDbLine
 10
7.0867309191
 20
3.7978400764
 30
0.0
 11
7.1152953737
 21
3.7978400764
 31
0.0
  0
LINE
  5
3E2
330
3DA
100
AcDbEntity
  8
0
  6
Continuous
 62
     7
370
     0
100
AcDbLine
 10
7.4464721255
 20
4.0210822706
 30
0.0
 11
7.47503658
 21
4.0210822706
 31
0.0
  0
LINE
  5
3E3
330
3DA
100
AcDbEntity
  8
0
  6
Continuous
 62
     7
370
     0
100
AcDbLine
 10
7.47503658
 20
4.0210822706
 30
0.0
 11
7.47503658
 21
3.7978400764
 31
0.0
  0
LINE
  5
3E4
330
3DA
100
AcDbEntity
  8
0
  6
Continuous
 62
     7
370
     0
100
AcDbLine
 10
7.47503658
 20
3.7978400764
 30
0.0
 11
7.4464721255
 21
3.7978400764
 31
0.0
  0
LINE
  5
3E5
330
3DA
100
AcDbEntity
  8
0
  6
Continuous
 62
     7
370
     0
100
AcDbLine
 10
6.9277925403
 20
4.0221564907
 30
0.0
 11
6.7871675403
 21
4.0221564907
 31
0.0
  0
LINE
  5
3E6
330
3DA
100
AcDbEntity
  8
0
  6
Continuous
 62
     7
370
     0
100
AcDbLine
 10
6.7871675403
 20
4.0221564907
 30
0.0
 11
6.7871675403
 21
4.3662923332
 31
0.0
  0
LINE
  5
3E7
330
3DA
100
AcDbEntity
  8
0
  6
Continuous
 62
     7
370
     0
100
AcDbLine
 10
6.7871675403
 20
4.4529065064
 30
0.0
 11
6.7871675403
 21
4.7341565064
 31
0.0
  0
MTEXT
  5
3E8
330
3DA
100
AcDbEntity
  8
0
  6
Continuous
 62
     7
370
     0
100
AcDbMText
 10
7.0660888281
 20
4.233070324
 30
0.3626782046
 40
0.140625
 41
0.0
 71
     1
 72
     1
  1

  7
SLDTEXTSTYLE0
 73
     1
 44
1.0
  0
MTEXT
  5
3E9
330
3DA
100
AcDbEntity
  8
0
  6
Continuous
 62
     7
370
     0
100
AcDbMText
 10
7.0938720276
 20
4.2309218761
 30
0.3626782046
 40
0.140625
 41
0.0
 71
     1
 72
     1
  1
.09
  7
SLDTEXTSTYLE0
 73
     1
 44
1.0
  0
MTEXT
  5
3EA
330
3DA
100
AcDbEntity
  8
0
  6
Continuous
 62
     7
370
     0
100
AcDbMText
 10
7.1510009419
 20
3.9791152196
 30
0.3626782046
 40
0.140625
 41
0.0
 71
     1
 72
     1
  1
2.2
  7
SLDTEXTSTYLE0
 73
     1
 44
1.0
  0
MTEXT
  5
3EB
330
3DA
100
AcDbEntity
  8
0
  6
Continuous
 62
     7
370
     0
100
AcDbMText
 10
7.5491942959
 20
4.233070324
 30
0.3626782046
 40
0.140625
 41
0.0
 71
     1
 72
     1
  1

  7
SLDTEXTSTYLE0
 73
     1
 44
1.0
  0
ENDBLK
  5
3DC
330
3DA
100
AcDbEntity
  8
0
100
AcDbBlockEnd
  0
BLOCK
  5
475
330
474
100
AcDbEntity
  8
0
100
AcDbBlockBegin
  2
*D30
 70
     1
 10
0.0
 20
0.0
 30
0.0
  3
*D30
  1

  0
SOLID
  5
477
330
474
100
AcDbEntity
  8
0
  6
Continuous
 62
     7
370
     0
100
AcDbTrace
 10
9.5415033686
 20
10.6631714688
 30
0.0
 11
9.6877533686
 21
10.6406714688
 31
0.0
 12
9.6877533686
 22
10.6856714688
 32
0.0
 13
9.6877533686
 23
10.6856714688
 33
0.0
  0
SOLID
  5
478
330
474
100
AcDbEntity
  8
0
  6
Continuous
 62
     7
370
     0
100
AcDbTrace
 10
13.6753616363
 20
10.6631714688
 30
0.0
 11
13.5291116363
 21
10.6856714688
 31
0.0
 12
13.5291116363
 22
10.6406714688
 32
0.0
 13
13.5291116363
 23
10.6406714688
 33
0.0
  0
LINE
  5
479
330
474
100
AcDbEntity
  8
0
  6
Continuous
 62
     7
370
     0
100
AcDbLine
 10
11.4168675743
 20
10.6620972487
 30
0.0
 11
11.3883031198
 21
10.6620972487
 31
0.0
  0
LINE
  5
47A
330
474
100
AcDbEntity
  8
0
  6
Continuous
 62
     7
370
     0
100
AcDbLine
 10
11.3883031198
 20
10.6620972487
 30
0.0
 11
11.3883031198
 21
10.4388550545
 31
0.0
  0
LINE
  5
47B
330
474
100
AcDbEntity
  8
0
  6
Continuous
 62
     7
370
     0
100
AcDbLine
 10
11.3883031198
 20
10.4388550545
 30
0.0
 11
11.4168675743
 21
10.4388550545
 31
0.0
  0
LINE
  5
47C
330
474
100
AcDbEntity
  8
0
  6
Continuous
 62
     7
370
     0
100
AcDbLine
 10
11.7999974616
 20
10.6620972487
 30
0.0
 11
11.8285619161
 21
10.6620972487
 31
0.0
  0
LINE
  5
47D
330
474
100
AcDbEntity
  8
0
  6
Continuous
 62
     7
370
     0
100
AcDbLine
 10
11.8285619161
 20
10.6620972487
 30
0.0
 11
11.8285619161
 21
10.4388550545
 31
0.0
  0
LINE
  5
47E
330
474
100
AcDbEntity
  8
0
  6
Continuous
 62
     7
370
     0
100
AcDbLine
 10
11.8285619161
 20
10.4388550545
 30
0.0
 11
11.7999974616
 21
10.4388550545
 31
0.0
  0
LINE
  5
47F
330
474
100
AcDbEntity
  8
0
  6
Continuous
 62
     7
370
     0
100
AcDbLine
 10
9.5415033686
 20
9.4729632245
 30
0.0
 11
9.5415033686
 21
10.8037964688
 31
0.0
  0
LINE
  5
480
330
474
100
AcDbEntity
  8
0
  6
Continuous
 62
     7
370
     0
100
AcDbLine
 10
13.6753616363
 20
9.4729632245
 30
0.0
 11
13.6753616363
 21
10.8037964688
 31
0.0
  0
LINE
  5
481
330
474
100
AcDbEntity
  8
0
  6
Continuous
 62
     7
370
     0
100
AcDbLine
 10
9.5415033686
 20
10.6631714688
 30
0.0
 11
11.2864060161
 21
10.6631714688
 31
0.0
  0
LINE
  5
482
330
474
100
AcDbEntity
  8
0
  6
Continuous
 62
     7
370
     0
100
AcDbLine
 10
13.6753616363
 20
10.6631714688
 30
0.0
 11
11.9304589888
 21
10.6631714688
 31
0.0
  0
MTEXT
  5
483
330
474
100
AcDbEntity
  8
0
  6
Continuous
 62
     7
370
     0
100
AcDbMText
 10
11.3676610287
 20
10.874085302
 30
0.5709350868
 40
0.140625
 41
0.0
 71
     1
 72
     1
  1

  7
SLDTEXTSTYLE0
 73
     1
 44
1.0
  0
MTEXT
  5
484
330
474
100
AcDbEntity
  8
0
  6
Continuous
 62
     7
370
     0
100
AcDbMText
 10
11.3694676708
 20
10.8719368541
 30
0.5709350868
 40
0.140625
 41
0.0
 71
     1
 72
     1
  1
4.13
  7
SLDTEXTSTYLE0
 73
     1
 44
1.0
  0
MTEXT
  5
485
330
474
100
AcDbEntity
  8
0
  6
Continuous
 62
     7
370
     0
100
AcDbMText
 10
11.4525731425
 20
10.6201301976
 30
0.5709350868
 40
0.140625
 41
0.0
 71
     1
 72
     1
  1
105
  7
SLDTEXTSTYLE0
 73
     1
 44
1.0
  0
MTEXT
  5
486
330
474
100
AcDbEntity
  8
0
  6
Continuous
 62
     7
370
     0
100
AcDbMText
 10
11.9027196114
 20
10.874085302
 30
0.5709350868
 40
0.140625
 41
0.0
 71
     1
 72
     1
  1

  7
SLDTEXTSTYLE0
 73
     1
 44
1.0
  0
ENDBLK
  5
476
330
474
100
AcDbEntity
  8
0
100
AcDbBlockEnd
  0
BLOCK
  5
489
330
488
100
AcDbEntity
  8
0
100
AcDbBlockBegin
  2
*D31
 70
     1
 10
0.0
 20
0.0
 30
0.0
  3
*D31
  1

  0
SOLID
  5
48B
330
488
100
AcDbEntity
  8
0
  6
Continuous
 62
     7
370
     0
100
AcDbTrace
 10
9.6250225943
 20
10.1099758604
 30
0.0
 11
9.7712725943
 21
10.0874758604
 31
0.0
 12
9.7712725943
 22
10.1324758604
 32
0.0
 13
9.7712725943
 23
10.1324758604
 33
0.0
  0
SOLID
  5
48C
330
488
100
AcDbEntity
  8
0
  6
Continuous
 62
     7
370
     0
100
AcDbTrace
 10
13.5918424107
 20
10.1099758604
 30
0.0
 11
13.4455924107
 21
10.1324758604
 31
0.0
 12
13.4455924107
 22
10.0874758604
 32
0.0
 13
13.4455924107
 23
10.0874758604
 33
0.0
  0
LINE
  5
48D
330
488
100
AcDbEntity
  8
0
  6
Continuous
 62
     7
370
     0
100
AcDbLine
 10
11.3389378814
 20
10.1089016403
 30
0.0
 11
11.3103734269
 21
10.1089016403
 31
0.0
  0
LINE
  5
48E
330
488
100
AcDbEntity
  8
0
  6
Continuous
 62
     7
370
     0
100
AcDbLine
 10
11.3103734269
 20
10.1089016403
 30
0.0
 11
11.3103734269
 21
9.8856594461
 31
0.0
  0
LINE
  5
48F
330
488
100
AcDbEntity
  8
0
  6
Continuous
 62
     7
370
     0
100
AcDbLine
 10
11.3103734269
 20
9.8856594461
 30
0.0
 11
11.3389378814
 21
9.8856594461
 31
0.0
  0
LINE
  5
490
330
488
100
AcDbEntity
  8
0
  6
Continuous
 62
     7
370
     0
100
AcDbLine
 10
11.8779271338
 20
10.1089016403
 30
0.0
 11
11.9064915884
 21
10.1089016403
 31
0.0
  0
LINE
  5
491
330
488
100
AcDbEntity
  8
0
  6
Continuous
 62
     7
370
     0
100
AcDbLine
 10
11.9064915884
 20
10.1089016403
 30
0.0
 11
11.9064915884
 21
9.8856594461
 31
0.0
  0
LINE
  5
492
330
488
100
AcDbEntity
  8
0
  6
Continuous
 62
     7
370
     0
100
AcDbLine
 10
11.9064915884
 20
9.8856594461
 30
0.0
 11
11.8779271338
 21
9.8856594461
 31
0.0
  0
LINE
  5
493
330
488
100
AcDbEntity
  8
0
  6
Continuous
 62
     7
370
     0
100
AcDbLine
 10
9.6250225943
 20
9.4680762457
 30
0.0
 11
9.6250225943
 21
10.2506008604
 31
0.0
  0
LINE
  5
494
330
488
100
AcDbEntity
  8
0
  6
Continuous
 62
     7
370
     0
100
AcDbLine
 10
13.5918424107
 20
9.4680762457
 30
0.0
 11
13.5918424107
 21
10.2506008604
 31
0.0
  0
LINE
  5
495
330
488
100
AcDbEntity
  8
0
  6
Continuous
 62
     7
370
     0
100
AcDbLine
 10
9.6250225943
 20
10.1099758604
 30
0.0
 11
11.2084763233
 21
10.1099758604
 31
0.0
  0
LINE
  5
496
330
488
100
AcDbEntity
  8
0
  6
Continuous
 62
     7
370
     0
100
AcDbLine
 10
13.5918424107
 20
10.1099758604
 30
0.0
 11
12.0083886817
 21
10.1099758604
 31
0.0
  0
MTEXT
  5
497
330
488
100
AcDbEntity
  8
0
  6
Continuous
 62
     7
370
     0
100
AcDbMText
 10
11.2897313358
 20
10.3208896937
 30
0.5709350868
 40
0.140625
 41
0.0
 71
     1
 72
     1
  1

  7
SLDTEXTSTYLE0
 73
     1
 44
1.0
  0
MTEXT
  5
498
330
488
100
AcDbEntity
  8
0
  6
Continuous
 62
     7
370
     0
100
AcDbMText
 10
11.3694676708
 20
10.3187412458
 30
0.5709350868
 40
0.140625
 41
0.0
 71
     1
 72
     1
  1
3.97
  7
SLDTEXTSTYLE0
 73
     1
 44
1.0
  0
MTEXT
  5
499
330
488
100
AcDbEntity
  8
0
  6
Continuous
 62
     7
370
     0
100
AcDbMText
 10
11.3746434496
 20
10.0669345893
 30
0.5709350868
 40
0.140625
 41
0.0
 71
     1
 72
     1
  1
100.8
  7
SLDTEXTSTYLE0
 73
     1
 44
1.0
  0
MTEXT
  5
49A
330
488
100
AcDbEntity
  8
0
  6
Continuous
 62
     7
370
     0
100
AcDbMText
 10
11.9806493043
 20
10.3208896937
 30
0.5709350868
 40
0.140625
 41
0.0
 71
     1
 72
     1
  1

  7
SLDTEXTSTYLE0
 73
     1
 44
1.0
  0
ENDBLK
  5
48A
330
488
100
AcDbEntity
  8
0
100
AcDbBlockEnd
  0
BLOCK
  5
49D
330
49C
100
AcDbEntity
  8
0
100
AcDbBlockBegin
  2
*D32
 70
     1
 10
0.0
 20
0.0
 30
0.0
  3
*D32
  1

  0
SOLID
  5
49F
330
49C
100
AcDbEntity
  8
0
  6
Continuous
 62
     7
370
     0
100
AcDbTrace
 10
14.0678835835
 20
9.4118262457
 30
0.0
 11
14.0453835835
 21
9.2655762457
 31
0.0
 12
14.0903835835
 22
9.2655762457
 32
0.0
 13
14.0903835835
 23
9.2655762457
 33
0.0
  0
SOLID
  5
4A0
330
49C
100
AcDbEntity
  8
0
  6
Continuous
 62
     7
370
     0
100
AcDbTrace
 10
14.0678835835
 20
6.7993371379
 30
0.0
 11
14.0903835835
 21
6.9455871379
 31
0.0
 12
14.0453835835
 22
6.9455871379
 32
0.0
 13
14.0453835835
 23
6.9455871379
 33
0.0
  0
LINE
  5
4A1
330
49C
100
AcDbEntity
  8
0
  6
Continuous
 62
     7
370
     0
100
AcDbLine
 10
13.8503420773
 20
8.1045074717
 30
0.0
 11
13.8217776228
 21
8.1045074717
 31
0.0
  0
LINE
  5
4A2
330
49C
100
AcDbEntity
  8
0
  6
Continuous
 62
     7
370
     0
100
AcDbLine
 10
13.8217776228
 20
8.1045074717
 30
0.0
 11
13.8217776228
 21
7.8812652775
 31
0.0
  0
LINE
  5
4A3
330
49C
100
AcDbEntity
  8
0
  6
Continuous
 62
     7
370
     0
100
AcDbLine
 10
13.8217776228
 20
7.8812652775
 30
0.0
 11
13.8503420773
 21
7.8812652775
 31
0.0
  0
LINE
  5
4A4
330
49C
100
AcDbEntity
  8
0
  6
Continuous
 62
     7
370
     0
100
AcDbLine
 10
14.2854251
 20
8.1045074717
 30
0.0
 11
14.3139895546
 21
8.1045074717
 31
0.0
  0
LINE
  5
4A5
330
49C
100
AcDbEntity
  8
0
  6
Continuous
 62
     7
370
     0
100
AcDbLine
 10
14.3139895546
 20
8.1045074717
 30
0.0
 11
14.3139895546
 21
7.8812652775
 31
0.0
  0
LINE
  5
4A6
330
49C
100
AcDbEntity
  8
0
  6
Continuous
 62
     7
370
     0
100
AcDbLine
 10
14.3139895546
 20
7.8812652775
 30
0.0
 11
14.2854251
 21
7.8812652775
 31
0.0
  0
LINE
  5
4A7
330
49C
100
AcDbEntity
  8
0
  6
Continuous
 62
     7
370
     0
100
AcDbLine
 10
13.6480924107
 20
9.4118262457
 30
0.0
 11
14.2085085835
 21
9.4118262457
 31
0.0
  0
LINE
  5
4A8
330
49C
100
AcDbEntity
  8
0
  6
Continuous
 62
     7
370
     0
100
AcDbLine
 10
13.6480924107
 20
6.7993371379
 30
0.0
 11
14.2085085835
 21
6.7993371379
 31
0.0
  0
LINE
  5
4A9
330
49C
100
AcDbEntity
  8
0
  6
Continuous
 62
     7
370
     0
100
AcDbLine
 10
14.0678835835
 20
9.4118262457
 30
0.0
 11
14.0678835835
 21
8.3584625761
 31
0.0
  0
LINE
  5
4AA
330
49C
100
AcDbEntity
  8
0
  6
Continuous
 62
     7
370
     0
100
AcDbLine
 10
14.0678835835
 20
6.7993371379
 30
0.0
 11
14.0678835835
 21
7.8527008075
 31
0.0
  0
MTEXT
  5
4AB
330
49C
100
AcDbEntity
  8
0
  6
Continuous
 62
     7
370
     0
100
AcDbMText
 10
13.8011355317
 20
8.3164955251
 30
0.5709350868
 40
0.140625
 41
0.0
 71
     1
 72
     1
  1

  7
SLDTEXTSTYLE0
 73
     1
 44
1.0
  0
MTEXT
  5
4AC
330
49C
100
AcDbEntity
  8
0
  6
Continuous
 62
     7
370
     0
100
AcDbMText
 10
13.8289187519
 20
8.3143470772
 30
0.5709350868
 40
0.140625
 41
0.0
 71
     1
 72
     1
  1
2.61
  7
SLDTEXTSTYLE0
 73
     1
 44
1.0
  0
MTEXT
  5
4AD
330
49C
100
AcDbEntity
  8
0
  6
Continuous
 62
     7
370
     0
100
AcDbMText
 10
13.8860476455
 20
8.0625404207
 30
0.5709350868
 40
0.140625
 41
0.0
 71
     1
 72
     1
  1
66.4
  7
SLDTEXTSTYLE0
 73
     1
 44
1.0
  0
MTEXT
  5
4AE
330
49C
100
AcDbEntity
  8
0
  6
Continuous
 62
     7
370
     0
100
AcDbMText
 10
14.3881472705
 20
8.3164955251
 30
0.5709350868
 40
0.140625
 41
0.0
 71
     1
 72
     1
  1

  7
SLDTEXTSTYLE0
 73
     1
 44
1.0
  0
ENDBLK
  5
49E
330
49C
100
AcDbEntity
  8
0
100
AcDbBlockEnd
  0
BLOCK
  5
4B1
330
4B0
100
AcDbEntity
  8
0
100
AcDbBlockBegin
  2
*D33
 70
     1
 10
0.0
 20
0.0
 30
0.0
  3
*D33
  1

  0
SOLID
  5
4B3
330
4B0
100
AcDbEntity
  8
0
  6
Continuous
 62
     7
370
     0
100
AcDbTrace
 10
14.6497751433
 20
9.4953454713
 30
0.0
 11
14.6272751433
 21
9.3490954713
 31
0.0
 12
14.6722751433
 22
9.3490954713
 32
0.0
 13
14.6722751433
 23
9.3490954713
 33
0.0
  0
SOLID
  5
4B4
330
4B0
100
AcDbEntity
  8
0
  6
Continuous
 62
     7
370
     0
100
AcDbTrace
 10
14.6497751433
 20
6.7158179123
 30
0.0
 11
14.6722751433
 21
6.8620679123
 31
0.0
 12
14.6272751433
 22
6.8620679123
 32
0.0
 13
14.6272751433
 23
6.8620679123
 33
0.0
  0
LINE
  5
4B5
330
4B0
100
AcDbEntity
  8
0
  6
Continuous
 62
     7
370
     0
100
AcDbLine
 10
14.4322336371
 20
8.1045074717
 30
0.0
 11
14.4036691826
 21
8.1045074717
 31
0.0
  0
LINE
  5
4B6
330
4B0
100
AcDbEntity
  8
0
  6
Continuous
 62
     7
370
     0
100
AcDbLine
 10
14.4036691826
 20
8.1045074717
 30
0.0
 11
14.4036691826
 21
7.8812652775
 31
0.0
  0
LINE
  5
4B7
330
4B0
100
AcDbEntity
  8
0
  6
Continuous
 62
     7
370
     0
100
AcDbLine
 10
14.4036691826
 20
7.8812652775
 30
0.0
 11
14.4322336371
 21
7.8812652775
 31
0.0
  0
LINE
  5
4B8
330
4B0
100
AcDbEntity
  8
0
  6
Continuous
 62
     7
370
     0
100
AcDbLine
 10
14.8673166598
 20
8.1045074717
 30
0.0
 11
14.8958811144
 21
8.1045074717
 31
0.0
  0
LINE
  5
4B9
330
4B0
100
AcDbEntity
  8
0
  6
Continuous
 62
     7
370
     0
100
AcDbLine
 10
14.8958811144
 20
8.1045074717
 30
0.0
 11
14.8958811144
 21
7.8812652775
 31
0.0
  0
LINE
  5
4BA
330
4B0
100
AcDbEntity
  8
0
  6
Continuous
 62
     7
370
     0
100
AcDbLine
 10
14.8958811144
 20
7.8812652775
 30
0.0
 11
14.8673166598
 21
7.8812652775
 31
0.0
  0
LINE
  5
4BB
330
4B0
100
AcDbEntity
  8
0
  6
Continuous
 62
     7
370
     0
100
AcDbLine
 10
13.6529793895
 20
9.4953454713
 30
0.0
 11
14.7904001433
 21
9.4953454713
 31
0.0
  0
LINE
  5
4BC
330
4B0
100
AcDbEntity
  8
0
  6
Continuous
 62
     7
370
     0
100
AcDbLine
 10
13.6529793895
 20
6.7158179123
 30
0.0
 11
14.7904001433
 21
6.7158179123
 31
0.0
  0
LINE
  5
4BD
330
4B0
100
AcDbEntity
  8
0
  6
Continuous
 62
     7
370
     0
100
AcDbLine
 10
14.6497751433
 20
9.4953454713
 30
0.0
 11
14.6497751433
 21
8.3584625761
 31
0.0
  0
LINE
  5
4BE
330
4B0
100
AcDbEntity
  8
0
  6
Continuous
 62
     7
370
     0
100
AcDbLine
 10
14.6497751433
 20
6.7158179123
 30
0.0
 11
14.6497751433
 21
7.8527008075
 31
0.0
  0
MTEXT
  5
4BF
330
4B0
100
AcDbEntity
  8
0
  6
Continuous
 62
     7
370
     0
100
AcDbMText
 10
14.3830270915
 20
8.3164955251
 30
0.5709350868
 40
0.140625
 41
0.0
 71
     1
 72
     1
  1

  7
SLDTEXTSTYLE0
 73
     1
 44
1.0
  0
MTEXT
  5
4C0
330
4B0
100
AcDbEntity
  8
0
  6
Continuous
 62
     7
370
     0
100
AcDbMText
 10
14.4108103117
 20
8.3143470772
 30
0.5709350868
 40
0.140625
 41
0.0
 71
     1
 72
     1
  1
2.78
  7
SLDTEXTSTYLE0
 73
     1
 44
1.0
  0
MTEXT
  5
4C1
330
4B0
100
AcDbEntity
  8
0
  6
Continuous
 62
     7
370
     0
100
AcDbMText
 10
14.4679392053
 20
8.0625404207
 30
0.5709350868
 40
0.140625
 41
0.0
 71
     1
 72
     1
  1
70.6
  7
SLDTEXTSTYLE0
 73
     1
 44
1.0
  0
MTEXT
  5
4C2
330
4B0
100
AcDbEntity
  8
0
  6
Continuous
 62
     7
370
     0
100
AcDbMText
 10
14.9700388303
 20
8.3164955251
 30
0.5709350868
 40
0.140625
 41
0.0
 71
     1
 72
     1
  1

  7
SLDTEXTSTYLE0
 73
     1
 44
1.0
  0
ENDBLK
  5
4B2
330
4B0
100
AcDbEntity
  8
0
100
AcDbBlockEnd
  0
BLOCK
  5
4EE
330
4ED
100
AcDbEntity
  8
0
100
AcDbBlockBegin
  2
*D34
 70
     1
 10
0.0
 20
0.0
 30
0.0
  3
*D34
  1

  0
ARC
  5
4F0
330
4ED
100
AcDbEntity
  8
0
  6
Continuous
 62
     7
370
     0
100
AcDbCircle
 10
16.3090155055
 20
9.3606564455
 30
0.0
 40
1.281618678910202
100
AcDbArc
 50
164.4909998745
 51
177.0
  0
ARC
  5
4F1
330
4ED
100
AcDbEntity
  8
0
  6
Continuous
 62
     7
370
     0
100
AcDbCircle
 10
16.3090155055
 20
9.3606564455
 30
0.0
 40
1.281618678910203
100
AcDbArc
 50
180.0
 51
195.6776399928
  0
SOLID
  5
4F2
330
4ED
100
AcDbEntity
  8
0
  6
Continuous
 62
     7
370
     0
100
AcDbTrace
 10
15.0291532404
 20
9.4277311846
 30
0.0
 11
15.0674538387
 21
9.5706590568
 31
0.0
 12
15.0227217338
 22
9.575561994
 32
0.0
 13
15.0227217338
 23
9.575561994
 33
0.0
  0
SOLID
  5
4F3
330
4ED
100
AcDbEntity
  8
0
  6
Continuous
 62
     7
370
     0
100
AcDbTrace
 10
15.0273968266
 20
9.3606564455
 30
0.0
 11
15.0132372673
 21
9.213364832
 31
0.0
 12
15.0581646683
 22
9.2159199524
 32
0.0
 13
15.0581646683
 23
9.2159199524
 33
0.0
  0
LINE
  5
4F4
330
4ED
100
AcDbEntity
  8
0
  6
Continuous
 62
     7
370
     0
100
AcDbLine
 10
14.7002108213
 20
8.9016360624
 30
0.0
 11
14.6716463667
 21
8.9016360624
 31
0.0
  0
LINE
  5
4F5
330
4ED
100
AcDbEntity
  8
0
  6
Continuous
 62
     7
370
     0
100
AcDbLine
 10
14.6716463667
 20
8.9016360624
 30
0.0
 11
14.7002108213
 21
8.9016360624
 31
0.0
  0
LINE
  5
4F6
330
4ED
100
AcDbEntity
  8
0
  6
Continuous
 62
     7
370
     0
100
AcDbLine
 10
14.7716219577
 20
8.9016360624
 30
0.0
 11
14.8001864122
 21
8.9016360624
 31
0.0
  0
LINE
  5
4F7
330
4ED
100
AcDbEntity
  8
0
  6
Continuous
 62
     7
370
     0
100
AcDbLine
 10
14.8001864122
 20
8.9016360624
 30
0.0
 11
14.7716219577
 21
8.9016360624
 31
0.0
  0
LINE
  5
4F8
330
4ED
100
AcDbEntity
  8
0
  6
Continuous
 62
     7
370
     0
100
AcDbLine
 10
15.2764646414
 20
9.4147701432
 30
0.0
 11
14.8887209621
 21
9.4350909284
 31
0.0
  0
LINE
  5
4F9
330
4ED
100
AcDbEntity
  8
0
  6
Continuous
 62
     7
370
     0
100
AcDbLine
 10
15.7682330892
 20
9.3606564455
 30
0.0
 11
14.8867718266
 21
9.3606564455
 31
0.0
  0
LINE
  5
4FA
330
4ED
100
AcDbEntity
  8
0
  6
Continuous
 62
     7
370
     0
100
AcDbLine
 10
15.0750765319
 20
9.0143313848
 30
0.0
 11
14.9344515319
 21
9.0143313848
 31
0.0
  0
MTEXT
  5
4FB
330
4ED
100
AcDbEntity
  8
0
  6
Continuous
 62
     7
370
     0
100
AcDbMText
 10
14.5901156014
 20
9.1136241106
 30
0.0039370079
 40
0.140625
 41
0.0
 71
     1
 72
     1
  1

  7
SLDTEXTSTYLE0
 73
     1
 44
1.0
  0
MTEXT
  5
4FC
330
4ED
100
AcDbEntity
  8
0
  6
Continuous
 62
     7
370
     0
100
AcDbMText
 10
14.5893343516
 20
9.111475673
 30
0.0039370079
 40
0.140625
 41
0.0
 71
     1
 72
     1
  1
3°
  7
SLDTEXTSTYLE0
 73
     1
 44
1.0
  0
MTEXT
  5
4FD
330
4ED
100
AcDbEntity
  8
0
  6
Continuous
 62
     7
370
     0
100
AcDbMText
 10
14.9352327921
 20
9.1136241106
 30
0.0039370079
 40
0.140625
 41
0.0
 71
     1
 72
     1
  1

  7
SLDTEXTSTYLE0
 73
     1
 44
1.0
  0
ENDBLK
  5
4EF
330
4ED
100
AcDbEntity
  8
0
100
AcDbBlockEnd
  0
BLOCK
  5
500
330
4FF
100
AcDbEntity
  8
0
100
AcDbBlockBegin
  2
*D35
 70
     1
 10
0.0
 20
0.0
 30
0.0
  3
*D35
  1

  0
SOLID
  5
502
330
4FF
100
AcDbEntity
  8
0
  6
Continuous
 62
     7
370
     0
100
AcDbTrace
 10
16.3090155055
 20
9.1930263558
 30
0.0
 11
16.1627655055
 21
9.2155263558
 31
0.0
 12
16.1627655055
 22
9.1705263558
 32
0.0
 13
16.1627655055
 23
9.1705263558
 33
0.0
  0
SOLID
  5
503
330
4FF
100
AcDbEntity
  8
0
  6
Continuous
 62
     7
370
     0
100
AcDbTrace
 10
16.3956296787
 20
9.1930263558
 30
0.0
 11
16.5418796787
 21
9.1705263558
 31
0.0
 12
16.5418796787
 22
9.2155263558
 32
0.0
 13
16.5418796787
 23
9.2155263558
 33
0.0
  0
LINE
  5
504
330
4FF
100
AcDbEntity
  8
0
  6
Continuous
 62
     7
370
     0
100
AcDbLine
 10
16.8050077877
 20
9.1919521357
 30
0.0
 11
16.7764433331
 21
9.1919521357
 31
0.0
  0
LINE
  5
505
330
4FF
100
AcDbEntity
  8
0
  6
Continuous
 62
     7
370
     0
100
AcDbLine
 10
16.7764433331
 20
9.1919521357
 30
0.0
 11
16.7764433331
 21
8.9687099415
 31
0.0
  0
LINE
  5
506
330
4FF
100
AcDbEntity
  8
0
  6
Continuous
 62
     7
370
     0
100
AcDbLine
 10
16.7764433331
 20
8.9687099415
 30
0.0
 11
16.8050077877
 21
8.9687099415
 31
0.0
  0
LINE
  5
507
330
4FF
100
AcDbEntity
  8
0
  6
Continuous
 62
     7
370
     0
100
AcDbLine
 10
17.1361845394
 20
9.1919521357
 30
0.0
 11
17.164748994
 21
9.1919521357
 31
0.0
  0
LINE
  5
508
330
4FF
100
AcDbEntity
  8
0
  6
Continuous
 62
     7
370
     0
100
AcDbLine
 10
17.164748994
 20
9.1919521357
 30
0.0
 11
17.164748994
 21
8.9687099415
 31
0.0
  0
LINE
  5
509
330
4FF
100
AcDbEntity
  8
0
  6
Continuous
 62
     7
370
     0
100
AcDbLine
 10
17.164748994
 20
8.9687099415
 30
0.0
 11
17.1361845394
 21
8.9687099415
 31
0.0
  0
LINE
  5
50A
330
4FF
100
AcDbEntity
  8
0
  6
Continuous
 62
     7
370
     0
100
AcDbLine
 10
16.3090155055
 20
9.1930263558
 30
0.0
 11
16.0277655055
 21
9.1930263558
 31
0.0
  0
LINE
  5
50B
330
4FF
100
AcDbEntity
  8
0
  6
Continuous
 62
     7
370
     0
100
AcDbLine
 10
16.3956296787
 20
9.1930263558
 30
0.0
 11
16.6745462295
 21
9.1930263558
 31
0.0
  0
MTEXT
  5
50C
330
4FF
100
AcDbEntity
  8
0
  6
Continuous
 62
     7
370
     0
100
AcDbMText
 10
16.755801242
 20
9.4039401891
 30
0.4960645291
 40
0.140625
 41
0.0
 71
     1
 72
     1
  1

  7
SLDTEXTSTYLE0
 73
     1
 44
1.0
  0
MTEXT
  5
50D
330
4FF
100
AcDbEntity
  8
0
  6
Continuous
 62
     7
370
     0
100
AcDbMText
 10
16.7835844416
 20
9.4017917412
 30
0.4960645291
 40
0.140625
 41
0.0
 71
     1
 72
     1
  1
.09
  7
SLDTEXTSTYLE0
 73
     1
 44
1.0
  0
MTEXT
  5
50E
330
4FF
100
AcDbEntity
  8
0
  6
Continuous
 62
     7
370
     0
100
AcDbMText
 10
16.8407133558
 20
9.1499850847
 30
0.4960645291
 40
0.140625
 41
0.0
 71
     1
 72
     1
  1
2.2
  7
SLDTEXTSTYLE0
 73
     1
 44
1.0
  0
MTEXT
  5
50F
330
4FF
100
AcDbEntity
  8
0
  6
Continuous
 62
     7
370
     0
100
AcDbMText
 10
17.2389067099
 20
9.4039401891
 30
0.4960645291
 40
0.140625
 41
0.0
 71
     1
 72
     1
  1

  7
SLDTEXTSTYLE0
 73
     1
 44
1.0
  0
ENDBLK
  5
501
330
4FF
100
AcDbEntity
  8
0
100
AcDbBlockEnd
  0
BLOCK
  5
512
330
511
100
AcDbEntity
  8
0
100
AcDbBlockBegin
  2
*D36
 70
     1
 10
0.0
 20
0.0
 30
0.0
  3
*D36
  1

  0
SOLID
  5
514
330
511
100
AcDbEntity
  8
0
  6
Continuous
 62
     7
370
     0
100
AcDbTrace
 10
15.3916926708
 20
9.8778987996
 30
0.0
 11
15.2454426708
 21
9.9003987996
 31
0.0
 12
15.2454426708
 22
9.8553987996
 32
0.0
 13
15.2454426708
 23
9.8553987996
 33
0.0
  0
SOLID
  5
515
330
511
100
AcDbEntity
  8
0
  6
Continuous
 62
     7
370
     0
100
AcDbTrace
 10
16.3956296787
 20
9.8778987996
 30
0.0
 11
16.5418796787
 21
9.8553987996
 31
0.0
 12
16.5418796787
 22
9.9003987996
 32
0.0
 13
16.5418796787
 23
9.9003987996
 33
0.0
  0
LINE
  5
516
330
511
100
AcDbEntity
  8
0
  6
Continuous
 62
     7
370
     0
100
AcDbLine
 10
15.6761196686
 20
9.8768245795
 30
0.0
 11
15.647555214
 21
9.8768245795
 31
0.0
  0
LINE
  5
517
330
511
100
AcDbEntity
  8
0
  6
Continuous
 62
     7
370
     0
100
AcDbLine
 10
15.647555214
 20
9.8768245795
 30
0.0
 11
15.647555214
 21
9.6535823853
 31
0.0
  0
LINE
  5
518
330
511
100
AcDbEntity
  8
0
  6
Continuous
 62
     7
370
     0
100
AcDbLine
 10
15.647555214
 20
9.6535823853
 30
0.0
 11
15.6761196686
 21
9.6535823853
 31
0.0
  0
LINE
  5
519
330
511
100
AcDbEntity
  8
0
  6
Continuous
 62
     7
370
     0
100
AcDbLine
 10
16.1112026913
 20
9.8768245795
 30
0.0
 11
16.1397671458
 21
9.8768245795
 31
0.0
  0
LINE
  5
51A
330
511
100
AcDbEntity
  8
0
  6
Continuous
 62
     7
370
     0
100
AcDbLine
 10
16.1397671458
 20
9.8768245795
 30
0.0
 11
16.1397671458
 21
9.6535823853
 31
0.0
  0
LINE
  5
51B
330
511
100
AcDbEntity
  8
0
  6
Continuous
 62
     7
370
     0
100
AcDbLine
 10
16.1397671458
 20
9.6535823853
 30
0.0
 11
16.1112026913
 21
9.6535823853
 31
0.0
  0
LINE
  5
51C
330
511
100
AcDbEntity
  8
0
  6
Continuous
 62
     7
370
     0
100
AcDbLine
 10
15.3916926708
 20
9.5515954713
 30
0.0
 11
15.3916926708
 21
10.0185237996
 31
0.0
  0
LINE
  5
51D
330
511
100
AcDbEntity
  8
0
  6
Continuous
 62
     7
370
     0
100
AcDbLine
 10
16.3956296787
 20
9.4242597428
 30
0.0
 11
16.3956296787
 21
10.0185237996
 31
0.0
  0
LINE
  5
51E
330
511
100
AcDbEntity
  8
0
  6
Continuous
 62
     7
370
     0
100
AcDbLine
 10
15.3916926708
 20
9.8778987996
 30
0.0
 11
15.1104426708
 21
9.8778987996
 31
0.0
  0
LINE
  5
51F
330
511
100
AcDbEntity
  8
0
  6
Continuous
 62
     7
370
     0
100
AcDbLine
 10
16.3956296787
 20
9.8778987996
 30
0.0
 11
16.6768796787
 21
9.8778987996
 31
0.0
  0
MTEXT
  5
520
330
511
100
AcDbEntity
  8
0
  6
Continuous
 62
     7
370
     0
100
AcDbMText
 10
15.626913123
 20
10.0888126329
 30
0.4960645291
 40
0.140625
 41
0.0
 71
     1
 72
     1
  1

  7
SLDTEXTSTYLE0
 73
     1
 44
1.0
  0
MTEXT
  5
521
330
511
100
AcDbEntity
  8
0
  6
Continuous
 62
     7
370
     0
100
AcDbMText
 10
15.6546963431
 20
10.086664185
 30
0.4960645291
 40
0.140625
 41
0.0
 71
     1
 72
     1
  1
1.00
  7
SLDTEXTSTYLE0
 73
     1
 44
1.0
  0
MTEXT
  5
522
330
511
100
AcDbEntity
  8
0
  6
Continuous
 62
     7
370
     0
100
AcDbMText
 10
15.7118252368
 20
9.8348575285
 30
0.4960645291
 40
0.140625
 41
0.0
 71
     1
 72
     1
  1
25.5
  7
SLDTEXTSTYLE0
 73
     1
 44
1.0
  0
MTEXT
  5
523
330
511
100
AcDbEntity
  8
0
  6
Continuous
 62
     7
370
     0
100
AcDbMText
 10
16.2139248618
 20
10.0888126329
 30
0.4960645291
 40
0.140625
 41
0.0
 71
     1
 72
     1
  1

  7
SLDTEXTSTYLE0
 73
     1
 44
1.0
  0
ENDBLK
  5
513
330
511
100
AcDbEntity
  8
0
100
AcDbBlockEnd
  0
BLOCK
  5
556
330
555
100
AcDbEntity
  8
0
100
AcDbBlockBegin
  2
*D37
 70
     1
 10
0.0
 20
0.0
 30
0.0
  3
*D37
  1

  0
SOLID
  5
558
330
555
100
AcDbEntity
  8
0
  6
Continuous
 62
     7
370
     0
100
AcDbTrace
 10
17.5608276211
 20
6.4208028173
 30
0.0
 11
17.4145776211
 21
6.4433028173
 31
0.0
 12
17.4145776211
 22
6.3983028173
 32
0.0
 13
17.4145776211
 23
6.3983028173
 33
0.0
  0
SOLID
  5
559
330
555
100
AcDbEntity
  8
0
  6
Continuous
 62
     7
370
     0
100
AcDbTrace
 10
17.7992743599
 20
6.4208028173
 30
0.0
 11
17.9455243599
 21
6.3983028173
 31
0.0
 12
17.9455243599
 22
6.4433028173
 32
0.0
 13
17.9455243599
 23
6.4433028173
 33
0.0
  0
LINE
  5
55A
330
555
100
AcDbEntity
  8
0
  6
Continuous
 62
     7
370
     0
100
AcDbLine
 10
18.2282732683
 20
6.4197285972
 30
0.0
 11
18.1997088138
 21
6.4197285972
 31
0.0
  0
LINE
  5
55B
330
555
100
AcDbEntity
  8
0
  6
Continuous
 62
     7
370
     0
100
AcDbLine
 10
18.1997088138
 20
6.4197285972
 30
0.0
 11
18.1997088138
 21
6.196486403
 31
0.0
  0
LINE
  5
55C
330
555
100
AcDbEntity
  8
0
  6
Continuous
 62
     7
370
     0
100
AcDbLine
 10
18.1997088138
 20
6.196486403
 30
0.0
 11
18.2282732683
 21
6.196486403
 31
0.0
  0
LINE
  5
55D
330
555
100
AcDbEntity
  8
0
  6
Continuous
 62
     7
370
     0
100
AcDbLine
 10
18.5594500201
 20
6.4197285972
 30
0.0
 11
18.5880144747
 21
6.4197285972
 31
0.0
  0
LINE
  5
55E
330
555
100
AcDbEntity
  8
0
  6
Continuous
 62
     7
370
     0
100
AcDbLine
 10
18.5880144747
 20
6.4197285972
 30
0.0
 11
18.5880144747
 21
6.196486403
 31
0.0
  0
LINE
  5
55F
330
555
100
AcDbEntity
  8
0
  6
Continuous
 62
     7
370
     0
100
AcDbLine
 10
18.5880144747
 20
6.196486403
 30
0.0
 11
18.5594500201
 21
6.196486403
 31
0.0
  0
LINE
  5
560
330
555
100
AcDbEntity
  8
0
  6
Continuous
 62
     7
370
     0
100
AcDbLine
 10
17.5608276211
 20
6.6595679123
 30
0.0
 11
17.5608276211
 21
6.2801778173
 31
0.0
  0
LINE
  5
561
330
555
100
AcDbEntity
  8
0
  6
Continuous
 62
     7
370
     0
100
AcDbLine
 10
17.7992743599
 20
7.0650797233
 30
0.0
 11
17.7992743599
 21
6.2801778173
 31
0.0
  0
LINE
  5
562
330
555
100
AcDbEntity
  8
0
  6
Continuous
 62
     7
370
     0
100
AcDbLine
 10
17.5608276211
 20
6.4208028173
 30
0.0
 11
17.2795776211
 21
6.4208028173
 31
0.0
  0
LINE
  5
563
330
555
100
AcDbEntity
  8
0
  6
Continuous
 62
     7
370
     0
100
AcDbLine
 10
17.7992743599
 20
6.4208028173
 30
0.0
 11
18.0978117101
 21
6.4208028173
 31
0.0
  0
MTEXT
  5
564
330
555
100
AcDbEntity
  8
0
  6
Continuous
 62
     7
370
     0
100
AcDbMText
 10
18.1790667227
 20
6.6317166505
 30
0.0039370079
 40
0.140625
 41
0.0
 71
     1
 72
     1
  1

  7
SLDTEXTSTYLE0
 73
     1
 44
1.0
  0
MTEXT
  5
565
330
555
100
AcDbEntity
  8
0
  6
Continuous
 62
     7
370
     0
100
AcDbMText
 10
18.2068499222
 20
6.6295682026
 30
0.0039370079
 40
0.140625
 41
0.0
 71
     1
 72
     1
  1
.24
  7
SLDTEXTSTYLE0
 73
     1
 44
1.0
  0
MTEXT
  5
566
330
555
100
AcDbEntity
  8
0
  6
Continuous
 62
     7
370
     0
100
AcDbMText
 10
18.2639788365
 20
6.3777615461
 30
0.0039370079
 40
0.140625
 41
0.0
 71
     1
 72
     1
  1
6.1
  7
SLDTEXTSTYLE0
 73
     1
 44
1.0
  0
MTEXT
  5
567
330
555
100
AcDbEntity
  8
0
  6
Continuous
 62
     7
370
     0
100
AcDbMText
 10
18.6621721906
 20
6.6317166505
 30
0.0039370079
 40
0.140625
 41
0.0
 71
     1
 72
     1
  1

  7
SLDTEXTSTYLE0
 73
     1
 44
1.0
  0
ENDBLK
  5
557
330
555
100
AcDbEntity
  8
0
100
AcDbBlockEnd
  0
BLOCK
  5
56A
330
569
100
AcDbEntity
  8
0
100
AcDbBlockBegin
  2
*D38
 70
     1
 10
0.0
 20
0.0
 30
0.0
  3
*D38
  1

  0
SOLID
  5
56C
330
569
100
AcDbEntity
  8
0
  6
Continuous
 62
     7
370
     0
100
AcDbTrace
 10
17.2559523365
 20
7.5937706682
 30
0.0
 11
17.2784523365
 21
7.7400206682
 31
0.0
 12
17.2334523365
 22
7.7400206682
 32
0.0
 13
17.2334523365
 23
7.7400206682
 33
0.0
  0
SOLID
  5
56D
330
569
100
AcDbEntity
  8
0
  6
Continuous
 62
     7
370
     0
100
AcDbTrace
 10
17.2559523365
 20
7.1213297233
 30
0.0
 11
17.2334523365
 21
6.9750797233
 31
0.0
 12
17.2784523365
 22
6.9750797233
 32
0.0
 13
17.2784523365
 23
6.9750797233
 33
0.0
  0
LINE
  5
56E
330
569
100
AcDbEntity
  8
0
  6
Continuous
 62
     7
370
     0
100
AcDbLine
 10
16.6486008765
 20
6.8480583599
 30
0.0
 11
16.6200364219
 21
6.8480583599
 31
0.0
  0
LINE
  5
56F
330
569
100
AcDbEntity
  8
0
  6
Continuous
 62
     7
370
     0
100
AcDbLine
 10
16.6200364219
 20
6.8480583599
 30
0.0
 11
16.6200364219
 21
6.6248161657
 31
0.0
  0
LINE
  5
570
330
569
100
AcDbEntity
  8
0
  6
Continuous
 62
     7
370
     0
100
AcDbLine
 10
16.6200364219
 20
6.6248161657
 30
0.0
 11
16.6486008765
 21
6.6248161657
 31
0.0
  0
LINE
  5
571
330
569
100
AcDbEntity
  8
0
  6
Continuous
 62
     7
370
     0
100
AcDbLine
 10
16.9278245135
 20
6.8480583599
 30
0.0
 11
16.956388968
 21
6.8480583599
 31
0.0
  0
LINE
  5
572
330
569
100
AcDbEntity
  8
0
  6
Continuous
 62
     7
370
     0
100
AcDbLine
 10
16.956388968
 20
6.8480583599
 30
0.0
 11
16.956388968
 21
6.6248161657
 31
0.0
  0
LINE
  5
573
330
569
100
AcDbEntity
  8
0
  6
Continuous
 62
     7
370
     0
100
AcDbLine
 10
16.956388968
 20
6.6248161657
 30
0.0
 11
16.9278245135
 21
6.6248161657
 31
0.0
  0
LINE
  5
574
330
569
100
AcDbEntity
  8
0
  6
Continuous
 62
     7
370
     0
100
AcDbLine
 10
17.445522503
 20
7.5937706682
 30
0.0
 11
17.1153273365
 21
7.5937706682
 31
0.0
  0
LINE
  5
575
330
569
100
AcDbEntity
  8
0
  6
Continuous
 62
     7
370
     0
100
AcDbLine
 10
17.445522503
 20
7.1213297233
 30
0.0
 11
17.1153273365
 21
7.1213297233
 31
0.0
  0
LINE
  5
576
330
569
100
AcDbEntity
  8
0
  6
Continuous
 62
     7
370
     0
100
AcDbLine
 10
17.1153273365
 20
6.84913258
 30
0.0
 11
17.2559523365
 21
6.84913258
 31
0.0
  0
LINE
  5
577
330
569
100
AcDbEntity
  8
0
  6
Continuous
 62
     7
370
     0
100
AcDbLine
 10
17.2559523365
 20
6.84913258
 30
0.0
 11
17.2559523365
 21
7.1213297233
 31
0.0
  0
LINE
  5
578
330
569
100
AcDbEntity
  8
0
  6
Continuous
 62
     7
370
     0
100
AcDbLine
 10
17.2559523365
 20
7.5937706682
 30
0.0
 11
17.2559523365
 21
7.8750206682
 31
0.0
  0
MTEXT
  5
579
330
569
100
AcDbEntity
  8
0
  6
Continuous
 62
     7
370
     0
100
AcDbMText
 10
16.5993943309
 20
7.0600464132
 30
0.0039370079
 40
0.140625
 41
0.0
 71
     1
 72
     1
  1

  7
SLDTEXTSTYLE0
 73
     1
 44
1.0
  0
MTEXT
  5
57A
330
569
100
AcDbEntity
  8
0
  6
Continuous
 62
     7
370
     0
100
AcDbMText
 10
16.601200973
 20
7.0578979653
 30
0.0039370079
 40
0.140625
 41
0.0
 71
     1
 72
     1
  1
.47
  7
SLDTEXTSTYLE0
 73
     1
 44
1.0
  0
MTEXT
  5
57B
330
569
100
AcDbEntity
  8
0
  6
Continuous
 62
     7
370
     0
100
AcDbMText
 10
16.6843064447
 20
6.8060913088
 30
0.0039370079
 40
0.140625
 41
0.0
 71
     1
 72
     1
  1
12
  7
SLDTEXTSTYLE0
 73
     1
 44
1.0
  0
MTEXT
  5
57C
330
569
100
AcDbEntity
  8
0
  6
Continuous
 62
     7
370
     0
100
AcDbMText
 10
17.0305466839
 20
7.0600464132
 30
0.0039370079
 40
0.140625
 41
0.0
 71
     1
 72
     1
  1

  7
SLDTEXTSTYLE0
 73
     1
 44
1.0
  0
ENDBLK
  5
56B
330
569
100
AcDbEntity
  8
0
100
AcDbBlockEnd
  0
BLOCK
  5
57F
330
57E
100
AcDbEntity
  8
0
100
AcDbBlockBegin
  2
*D39
 70
     1
 10
0.0
 20
0.0
 30
0.0
  3
*D39
  1

  0
SOLID
  5
581
330
57E
100
AcDbEntity
  8
0
  6
Continuous
 62
     7
370
     0
100
AcDbTrace
 10
16.90972124
 20
7.3575501957
 30
0.0
 11
16.93222124
 21
7.5038001957
 31
0.0
 12
16.88722124
 22
7.5038001957
 32
0.0
 13
16.88722124
 23
7.5038001957
 33
0.0
  0
SOLID
  5
582
330
57E
100
AcDbEntity
  8
0
  6
Continuous
 62
     7
370
     0
100
AcDbTrace
 10
16.90972124
 20
8.8536131879
 30
0.0
 11
16.88722124
 21
8.7073631879
 31
0.0
 12
16.93222124
 22
8.7073631879
 32
0.0
 13
16.93222124
 23
8.7073631879
 33
0.0
  0
LINE
  5
583
330
57E
100
AcDbEntity
  8
0
  6
Continuous
 62
     7
370
     0
100
AcDbLine
 10
16.7701094267
 20
8.1045074717
 30
0.0
 11
16.7415449722
 21
8.1045074717
 31
0.0
  0
LINE
  5
584
330
57E
100
AcDbEntity
  8
0
  6
Continuous
 62
     7
370
     0
100
AcDbLine
 10
16.7415449722
 20
8.1045074717
 30
0.0
 11
16.7415449722
 21
7.8812652775
 31
0.0
  0
LINE
  5
585
330
57E
100
AcDbEntity
  8
0
  6
Continuous
 62
     7
370
     0
100
AcDbLine
 10
16.7415449722
 20
7.8812652775
 30
0.0
 11
16.7701094267
 21
7.8812652775
 31
0.0
  0
LINE
  5
586
330
57E
100
AcDbEntity
  8
0
  6
Continuous
 62
     7
370
     0
100
AcDbLine
 10
17.0493330637
 20
8.1045074717
 30
0.0
 11
17.0778975182
 21
8.1045074717
 31
0.0
  0
LINE
  5
587
330
57E
100
AcDbEntity
  8
0
  6
Continuous
 62
     7
370
     0
100
AcDbLine
 10
17.0778975182
 20
8.1045074717
 30
0.0
 11
17.0778975182
 21
7.8812652775
 31
0.0
  0
LINE
  5
588
330
57E
100
AcDbEntity
  8
0
  6
Continuous
 62
     7
370
     0
100
AcDbLine
 10
17.0778975182
 20
7.8812652775
 30
0.0
 11
17.0493330637
 21
7.8812652775
 31
0.0
  0
LINE
  5
589
330
57E
100
AcDbEntity
  8
0
  6
Continuous
 62
     7
370
     0
100
AcDbLine
 10
17.2233276211
 20
7.3575501957
 30
0.0
 11
16.76909624
 21
7.3575501957
 31
0.0
  0
LINE
  5
58A
330
57E
100
AcDbEntity
  8
0
  6
Continuous
 62
     7
370
     0
100
AcDbLine
 10
17.2233276211
 20
8.8536131879
 30
0.0
 11
16.76909624
 21
8.8536131879
 31
0.0
  0
LINE
  5
58B
330
57E
100
AcDbEntity
  8
0
  6
Continuous
 62
     7
370
     0
100
AcDbLine
 10
16.90972124
 20
7.3575501957
 30
0.0
 11
16.90972124
 21
7.8527008075
 31
0.0
  0
LINE
  5
58C
330
57E
100
AcDbEntity
  8
0
  6
Continuous
 62
     7
370
     0
100
AcDbLine
 10
16.90972124
 20
8.8536131879
 30
0.0
 11
16.90972124
 21
8.3584625761
 31
0.0
  0
MTEXT
  5
58D
330
57E
100
AcDbEntity
  8
0
  6
Continuous
 62
     7
370
     0
100
AcDbMText
 10
16.6715376582
 20
8.3164955251
 30
0.0039370079
 40
0.140625
 41
0.0
 71
     1
 72
     1
  1

  7
SLDTEXTSTYLE0
 73
     1
 44
1.0
  0
MTEXT
  5
58E
330
57E
100
AcDbEntity
  8
0
  6
Continuous
 62
     7
370
     0
100
AcDbMText
 10
16.6707564084
 20
8.3143470772
 30
0.0039370079
 40
0.140625
 41
0.0
 71
     1
 72
     1
  1
1.50
  7
SLDTEXTSTYLE0
 73
     1
 44
1.0
  0
MTEXT
  5
58F
330
57E
100
AcDbEntity
  8
0
  6
Continuous
 62
     7
370
     0
100
AcDbMText
 10
16.8058149949
 20
8.0625404207
 30
0.0039370079
 40
0.140625
 41
0.0
 71
     1
 72
     1
  1
38
  7
SLDTEXTSTYLE0
 73
     1
 44
1.0
  0
MTEXT
  5
590
330
57E
100
AcDbEntity
  8
0
  6
Continuous
 62
     7
370
     0
100
AcDbMText
 10
17.201420457
 20
8.3164955251
 30
0.0039370079
 40
0.140625
 41
0.0
 71
     1
 72
     1
  1

  7
SLDTEXTSTYLE0
 73
     1
 44
1.0
  0
ENDBLK
  5
580
330
57E
100
AcDbEntity
  8
0
100
AcDbBlockEnd
  0
BLOCK
  5
592
330
591
100
AcDbEntity
  8
0
100
AcDbBlockBegin
  2
SW_NOTE_5
 70
     0
 10
0.0
 20
0.0
 30
0.0
  3
SW_NOTE_5
  1

  0
MTEXT
  5
594
330
591
100
AcDbEntity
  8
0
  6
Continuous
 62
     0
370
     0
100
AcDbMText
 10
0.0221918685
 20
0.0681317322
 30
0.0
 40
0.140625
 41
0.0
 71
     1
 72
     1
  1
CABLE OUTLET
  7
SLDTEXTSTYLE0
 73
     1
 44
1.0
  0
MTEXT
  5
595
330
591
100
AcDbEntity
  8
0
  6
Continuous
 62
     0
370
     0
100
AcDbMText
 10
0.0221918685
 20
-0.1167846016
 30
0.0
 40
0.140625
 41
0.0
 71
     1
 72
     1
  1
MAY BE EASILY
  7
SLDTEXTSTYLE0
 73
     1
 44
1.0
  0
MTEXT
  5
596
330
591
100
AcDbEntity
  8
0
  6
Continuous
 62
     0
370
     0
100
AcDbMText
 10
0.0221918685
 20
-0.3017009354
 30
0.0
 40
0.140625
 41
0.0
 71
     1
 72
     1
  1
CUT OPEN
  7
SLDTEXTSTYLE0
 73
     1
 44
1.0
  0
ENDBLK
  5
593
330
591
100
AcDbEntity
  8
0
100
AcDbBlockEnd
  0
BLOCK
  5
59A
330
599
100
AcDbEntity
  8
0
100
AcDbBlockBegin
  2
_DOT
 70
     0
 10
0.0
 20
0.0
 30
0.0
  3
_DOT
  1

  0
POLYLINE
  5
59C
330
599
100
AcDbEntity
  8
0
  6
ByBlock
 62
     0
100
AcDb2dPolyline
 66
     1
 10
0.0
 20
0.0
 30
0.0
 70
     1
 40
0.5
 41
0.5
  0
VERTEX
  5
59E
330
59C
100
AcDbEntity
  8
0
  6
ByBlock
 62
     0
100
AcDbVertex
100
AcDb2dVertex
 10
-0.25
 20
0.0
 30
0.0
 42
1.0
  0
VERTEX
  5
59F
330
59C
100
AcDbEntity
  8
0
  6
ByBlock
 62
     0
100
AcDbVertex
100
AcDb2dVertex
 10
0.25
 20
0.0
 30
0.0
 42
1.0
  0
SEQEND
  5
5A0
330
59C
100
AcDbEntity
  8
0
  6
ByBlock
 62
     0
  0
LINE
  5
59D
330
599
100
AcDbEntity
  8
0
  6
ByBlock
 62
     0
370
    -2
100
AcDbLine
 10
-0.5
 20
0.0
 30
0.0
 11
-1.0
 21
0.0
 31
0.0
  0
ENDBLK
  5
59B
330
599
100
AcDbEntity
  8
0
100
AcDbBlockEnd
  0
BLOCK
  5
609
330
608
100
AcDbEntity
  8
0
100
AcDbBlockBegin
  2
*D42
 70
     1
 10
0.0
 20
0.0
 30
0.0
  3
*D42
  1

  0
SOLID
  5
60B
330
608
100
AcDbEntity
  8
0
  6
Continuous
 62
     7
370
     0
100
AcDbTrace
 10
2.1018509608
 20
1.631547667
 30
0.0
 11
2.1243509608
 21
1.777797667
 31
0.0
 12
2.0793509608
 22
1.777797667
 32
0.0
 13
2.0793509608
 23
1.777797667
 33
0.0
  0
SOLID
  5
60C
330
608
100
AcDbEntity
  8
0
  6
Continuous
 62
     7
370
     0
100
AcDbTrace
 10
2.1018509608
 20
2.6591067221
 30
0.0
 11
2.0793509608
 21
2.5128567221
 31
0.0
 12
2.1243509608
 22
2.5128567221
 32
0.0
 13
2.1243509608
 23
2.5128567221
 33
0.0
  0
LINE
  5
60D
330
608
100
AcDbEntity
  8
0
  6
Continuous
 62
     7
370
     0
100
AcDbLine
 10
1.8843094546
 20
2.1442529745
 30
0.0
 11
1.855745
 21
2.1442529745
 31
0.0
  0
LINE
  5
60E
330
608
100
AcDbEntity
  8
0
  6
Continuous
 62
     7
370
     0
100
AcDbLine
 10
1.855745
 20
2.1442529745
 30
0.0
 11
1.855745
 21
1.9210107803
 31
0.0
  0
LINE
  5
60F
330
608
100
AcDbEntity
  8
0
  6
Continuous
 62
     7
370
     0
100
AcDbLine
 10
1.855745
 20
1.9210107803
 30
0.0
 11
1.8843094546
 21
1.9210107803
 31
0.0
  0
LINE
  5
610
330
608
100
AcDbEntity
  8
0
  6
Continuous
 62
     7
370
     0
100
AcDbLine
 10
2.3193924773
 20
2.1442529745
 30
0.0
 11
2.3479569318
 21
2.1442529745
 31
0.0
  0
LINE
  5
611
330
608
100
AcDbEntity
  8
0
  6
Continuous
 62
     7
370
     0
100
AcDbLine
 10
2.3479569318
 20
2.1442529745
 30
0.0
 11
2.3479569318
 21
1.9210107803
 31
0.0
  0
LINE
  5
612
330
608
100
AcDbEntity
  8
0
  6
Continuous
 62
     7
370
     0
100
AcDbLine
 10
2.3479569318
 20
1.9210107803
 30
0.0
 11
2.3193924773
 21
1.9210107803
 31
0.0
  0
LINE
  5
613
330
608
100
AcDbEntity
  8
0
  6
Continuous
 62
     7
370
     0
100
AcDbLine
 10
3.5284013263
 20
1.631547667
 30
0.0
 11
1.9612259608
 21
1.631547667
 31
0.0
  0
LINE
  5
614
330
608
100
AcDbEntity
  8
0
  6
Continuous
 62
     7
370
     0
100
AcDbLine
 10
3.0562901681
 20
2.6591067221
 30
0.0
 11
1.9612259608
 21
2.6591067221
 31
0.0
  0
LINE
  5
615
330
608
100
AcDbEntity
  8
0
  6
Continuous
 62
     7
370
     0
100
AcDbLine
 10
2.1018509608
 20
1.631547667
 30
0.0
 11
2.1018509608
 21
1.8924463102
 31
0.0
  0
LINE
  5
616
330
608
100
AcDbEntity
  8
0
  6
Continuous
 62
     7
370
     0
100
AcDbLine
 10
2.1018509608
 20
2.6591067221
 30
0.0
 11
2.1018509608
 21
2.3982080789
 31
0.0
  0
MTEXT
  5
617
330
608
100
AcDbEntity
  8
0
  6
Continuous
 62
     7
370
     0
100
AcDbMText
 10
1.8351029089
 20
2.3562410278
 30
0.3576051271
 40
0.140625
 41
0.0
 71
     1
 72
     1
  1

  7
SLDTEXTSTYLE0
 73
     1
 44
1.0
  0
MTEXT
  5
618
330
608
100
AcDbEntity
  8
0
  6
Continuous
 62
     7
370
     0
100
AcDbMText
 10
1.8628861291
 20
2.3540925799
 30
0.3576051271
 40
0.140625
 41
0.0
 71
     1
 72
     1
  1
1.03
  7
SLDTEXTSTYLE0
 73
     1
 44
1.0
  0
MTEXT
  5
619
330
608
100
AcDbEntity
  8
0
  6
Continuous
 62
     7
370
     0
100
AcDbMText
 10
1.9200150227
 20
2.1022859234
 30
0.3576051271
 40
0.140625
 41
0.0
 71
     1
 72
     1
  1
26.1
  7
SLDTEXTSTYLE0
 73
     1
 44
1.0
  0
MTEXT
  5
61A
330
608
100
AcDbEntity
  8
0
  6
Continuous
 62
     7
370
     0
100
AcDbMText
 10
2.4221146477
 20
2.3562410278
 30
0.3576051271
 40
0.140625
 41
0.0
 71
     1
 72
     1
  1

  7
SLDTEXTSTYLE0
 73
     1
 44
1.0
  0
ENDBLK
  5
60A
330
608
100
AcDbEntity
  8
0
100
AcDbBlockEnd
  0
BLOCK
  5
61D
330
61C
100
AcDbEntity
  8
0
100
AcDbBlockBegin
  2
*D43
 70
     1
 10
0.0
 20
0.0
 30
0.0
  3
*D43
  1

  0
SOLID
  5
61F
330
61C
100
AcDbEntity
  8
0
  6
Continuous
 62
     7
370
     0
100
AcDbTrace
 10
7.8576153523
 20
1.4346972733
 30
0.0
 11
7.8801153523
 21
1.5809472733
 31
0.0
 12
7.8351153523
 22
1.5809472733
 32
0.0
 13
7.8351153523
 23
1.5809472733
 33
0.0
  0
SOLID
  5
620
330
61C
100
AcDbEntity
  8
0
  6
Continuous
 62
     7
370
     0
100
AcDbTrace
 10
7.8576153523
 20
2.6591067221
 30
0.0
 11
7.8351153523
 21
2.5128567221
 31
0.0
 12
7.8801153523
 22
2.5128567221
 32
0.0
 13
7.8801153523
 23
2.5128567221
 33
0.0
  0
LINE
  5
621
330
61C
100
AcDbEntity
  8
0
  6
Continuous
 62
     7
370
     0
100
AcDbLine
 10
7.6400738461
 20
2.0458277776
 30
0.0
 11
7.6115093916
 21
2.0458277776
 31
0.0
  0
LINE
  5
622
330
61C
100
AcDbEntity
  8
0
  6
Continuous
 62
     7
370
     0
100
AcDbLine
 10
7.6115093916
 20
2.0458277776
 30
0.0
 11
7.6115093916
 21
1.8225855834
 31
0.0
  0
LINE
  5
623
330
61C
100
AcDbEntity
  8
0
  6
Continuous
 62
     7
370
     0
100
AcDbLine
 10
7.6115093916
 20
1.8225855834
 30
0.0
 11
7.6400738461
 21
1.8225855834
 31
0.0
  0
LINE
  5
624
330
61C
100
AcDbEntity
  8
0
  6
Continuous
 62
     7
370
     0
100
AcDbLine
 10
8.0751568689
 20
2.0458277776
 30
0.0
 11
8.1037213234
 21
2.0458277776
 31
0.0
  0
LINE
  5
625
330
61C
100
AcDbEntity
  8
0
  6
Continuous
 62
     7
370
     0
100
AcDbLine
 10
8.1037213234
 20
2.0458277776
 30
0.0
 11
8.1037213234
 21
1.8225855834
 31
0.0
  0
LINE
  5
626
330
61C
100
AcDbEntity
  8
0
  6
Continuous
 62
     7
370
     0
100
AcDbLine
 10
8.1037213234
 20
1.8225855834
 30
0.0
 11
8.0751568689
 21
1.8225855834
 31
0.0
  0
LINE
  5
627
330
61C
100
AcDbEntity
  8
0
  6
Continuous
 62
     7
370
     0
100
AcDbLine
 10
7.0652515092
 20
1.4346972733
 30
0.0
 11
7.9982403523
 21
1.4346972733
 31
0.0
  0
LINE
  5
628
330
61C
100
AcDbEntity
  8
0
  6
Continuous
 62
     7
370
     0
100
AcDbLine
 10
7.033270384
 20
2.6591067221
 30
0.0
 11
7.9982403523
 21
2.6591067221
 31
0.0
  0
LINE
  5
629
330
61C
100
AcDbEntity
  8
0
  6
Continuous
 62
     7
370
     0
100
AcDbLine
 10
7.8576153523
 20
1.4346972733
 30
0.0
 11
7.8576153523
 21
1.7940211134
 31
0.0
  0
LINE
  5
62A
330
61C
100
AcDbEntity
  8
0
  6
Continuous
 62
     7
370
     0
100
AcDbLine
 10
7.8576153523
 20
2.6591067221
 30
0.0
 11
7.8576153523
 21
2.299782882
 31
0.0
  0
MTEXT
  5
62B
330
61C
100
AcDbEntity
  8
0
  6
Continuous
 62
     7
370
     0
100
AcDbMText
 10
7.5908673005
 20
2.257815831
 30
0.3576051271
 40
0.140625
 41
0.0
 71
     1
 72
     1
  1

  7
SLDTEXTSTYLE0
 73
     1
 44
1.0
  0
MTEXT
  5
62C
330
61C
100
AcDbEntity
  8
0
  6
Continuous
 62
     7
370
     0
100
AcDbMText
 10
7.6186505207
 20
2.2556673831
 30
0.3576051271
 40
0.140625
 41
0.0
 71
     1
 72
     1
  1
1.22
  7
SLDTEXTSTYLE0
 73
     1
 44
1.0
  0
MTEXT
  5
62D
330
61C
100
AcDbEntity
  8
0
  6
Continuous
 62
     7
370
     0
100
AcDbMText
 10
7.6757794143
 20
2.0038607266
 30
0.3576051271
 40
0.140625
 41
0.0
 71
     1
 72
     1
  1
31.1
  7
SLDTEXTSTYLE0
 73
     1
 44
1.0
  0
MTEXT
  5
62E
330
61C
100
AcDbEntity
  8
0
  6
Continuous
 62
     7
370
     0
100
AcDbMText
 10
8.1778790393
 20
2.257815831
 30
0.3576051271
 40
0.140625
 41
0.0
 71
     1
 72
     1
  1

  7
SLDTEXTSTYLE0
 73
     1
 44
1.0
  0
ENDBLK
  5
61E
330
61C
100
AcDbEntity
  8
0
100
AcDbBlockEnd
  0
BLOCK
  5
631
330
630
100
AcDbEntity
  8
0
100
AcDbBlockBegin
  2
*D44
 70
     1
 10
0.0
 20
0.0
 30
0.0
  3
*D44
  1

  0
SOLID
  5
633
330
630
100
AcDbEntity
  8
0
  6
Continuous
 62
     7
370
     0
100
AcDbTrace
 10
8.5192056544
 20
1.3480831001
 30
0.0
 11
8.5417056544
 21
1.4943331001
 31
0.0
 12
8.4967056544
 22
1.4943331001
 32
0.0
 13
8.4967056544
 23
1.4943331001
 33
0.0
  0
SOLID
  5
634
330
630
100
AcDbEntity
  8
0
  6
Continuous
 62
     7
370
     0
100
AcDbTrace
 10
8.5192056544
 20
2.7457208953
 30
0.0
 11
8.4967056544
 21
2.5994708953
 31
0.0
 12
8.5417056544
 22
2.5994708953
 32
0.0
 13
8.5417056544
 23
2.5994708953
 33
0.0
  0
LINE
  5
635
330
630
100
AcDbEntity
  8
0
  6
Continuous
 62
     7
370
     0
100
AcDbLine
 10
8.3016641482
 20
2.0458277776
 30
0.0
 11
8.2730996936
 21
2.0458277776
 31
0.0
  0
LINE
  5
636
330
630
100
AcDbEntity
  8
0
  6
Continuous
 62
     7
370
     0
100
AcDbLine
 10
8.2730996936
 20
2.0458277776
 30
0.0
 11
8.2730996936
 21
1.8225855834
 31
0.0
  0
LINE
  5
637
330
630
100
AcDbEntity
  8
0
  6
Continuous
 62
     7
370
     0
100
AcDbLine
 10
8.2730996936
 20
1.8225855834
 30
0.0
 11
8.3016641482
 21
1.8225855834
 31
0.0
  0
LINE
  5
638
330
630
100
AcDbEntity
  8
0
  6
Continuous
 62
     7
370
     0
100
AcDbLine
 10
8.7367471709
 20
2.0458277776
 30
0.0
 11
8.7653116254
 21
2.0458277776
 31
0.0
  0
LINE
  5
639
330
630
100
AcDbEntity
  8
0
  6
Continuous
 62
     7
370
     0
100
AcDbLine
 10
8.7653116254
 20
2.0458277776
 30
0.0
 11
8.7653116254
 21
1.8225855834
 31
0.0
  0
LINE
  5
63A
330
630
100
AcDbEntity
  8
0
  6
Continuous
 62
     7
370
     0
100
AcDbLine
 10
8.7653116254
 20
1.8225855834
 30
0.0
 11
8.7367471709
 21
1.8225855834
 31
0.0
  0
LINE
  5
63B
330
630
100
AcDbEntity
  8
0
  6
Continuous
 62
     7
370
     0
100
AcDbLine
 10
7.6010302761
 20
1.3480831001
 30
0.0
 11
8.6598306544
 21
1.3480831001
 31
0.0
  0
LINE
  5
63C
330
630
100
AcDbEntity
  8
0
  6
Continuous
 62
     7
370
     0
100
AcDbLine
 10
7.0406236814
 20
2.7457208953
 30
0.0
 11
8.6598306544
 21
2.7457208953
 31
0.0
  0
LINE
  5
63D
330
630
100
AcDbEntity
  8
0
  6
Continuous
 62
     7
370
     0
100
AcDbLine
 10
8.5192056544
 20
1.3480831001
 30
0.0
 11
8.5192056544
 21
1.7940211134
 31
0.0
  0
LINE
  5
63E
330
630
100
AcDbEntity
  8
0
  6
Continuous
 62
     7
370
     0
100
AcDbLine
 10
8.5192056544
 20
2.7457208953
 30
0.0
 11
8.5192056544
 21
2.299782882
 31
0.0
  0
MTEXT
  5
63F
330
630
100
AcDbEntity
  8
0
  6
Continuous
 62
     7
370
     0
100
AcDbMText
 10
8.2524576025
 20
2.257815831
 30
0.3576051271
 40
0.140625
 41
0.0
 71
     1
 72
     1
  1

  7
SLDTEXTSTYLE0
 73
     1
 44
1.0
  0
MTEXT
  5
640
330
630
100
AcDbEntity
  8
0
  6
Continuous
 62
     7
370
     0
100
AcDbMText
 10
8.2802408227
 20
2.2556673831
 30
0.3576051271
 40
0.140625
 41
0.0
 71
     1
 72
     1
  1
1.40
  7
SLDTEXTSTYLE0
 73
     1
 44
1.0
  0
MTEXT
  5
641
330
630
100
AcDbEntity
  8
0
  6
Continuous
 62
     7
370
     0
100
AcDbMText
 10
8.3373697164
 20
2.0038607266
 30
0.3576051271
 40
0.140625
 41
0.0
 71
     1
 72
     1
  1
35.5
  7
SLDTEXTSTYLE0
 73
     1
 44
1.0
  0
MTEXT
  5
642
330
630
100
AcDbEntity
  8
0
  6
Continuous
 62
     7
370
     0
100
AcDbMText
 10
8.8394693413
 20
2.257815831
 30
0.3576051271
 40
0.140625
 41
0.0
 71
     1
 72
     1
  1

  7
SLDTEXTSTYLE0
 73
     1
 44
1.0
  0
ENDBLK
  5
632
330
630
100
AcDbEntity
  8
0
100
AcDbBlockEnd
  0
ENDSEC
  0
SECTION
  2
ENTITIES
  0
LINE
  5
44
330
1F
100
AcDbEntity
  8
0
  6
Continuous
 62
     7
370
     0
100
AcDbLine
 10
0.3524080552
 20
12.0432073171
 30
0.0
 11
18.7754080552
 21
12.0432073171
 31
0.0
  0
LINE
  5
45
330
1F
100
AcDbEntity
  8
0
  6
Continuous
 62
     7
370
     0
100
AcDbLine
 10
18.7754080552
 20
0.3702073171
 30
0.0
 11
18.7754080552
 21
12.0432073171
 31
0.0
  0
LINE
  5
46
330
1F
100
AcDbEntity
  8
0
  6
Continuous
 62
     7
370
     0
100
AcDbLine
 10
18.7754080552
 20
0.3702073171
 30
0.0
 11
0.3524080552
 21
0.3702073171
 31
0.0
  0
LINE
  5
47
330
1F
100
AcDbEntity
  8
0
  6
Continuous
 62
     7
370
     0
100
AcDbLine
 10
0.3524080552
 20
12.0432073171
 30
0.0
 11
0.3524080552
 21
0.3702073171
 31
0.0
  0
LINE
  5
48
330
1F
100
AcDbEntity
  8
0
  6
Continuous
 62
     7
370
     0
100
AcDbLine
 10
0.2826580552
 20
12.1129573171
 30
0.0
 11
18.8451580552
 21
12.1129573171
 31
0.0
  0
LINE
  5
49
330
1F
100
AcDbEntity
  8
0
  6
Continuous
 62
     7
370
     0
100
AcDbLine
 10
18.8451580552
 20
0.3004573171
 30
0.0
 11
0.2826580552
 21
0.3004573171
 31
0.0
  0
LINE
  5
4A
330
1F
100
AcDbEntity
  8
0
  6
Continuous
 62
     7
370
     0
100
AcDbLine
 10
0.2826580552
 20
12.1129573171
 30
0.0
 11
0.2826580552
 21
0.3004573171
 31
0.0
  0
LINE
  5
4B
330
1F
100
AcDbEntity
  8
0
  6
Continuous
 62
     7
370
     0
100
AcDbLine
 10
18.8451580552
 20
0.3004573171
 30
0.0
 11
18.8451580552
 21
12.1129573171
 31
0.0
  0
LINE
  5
4C
330
1F
100
AcDbEntity
  8
0
  6
Continuous
 62
     7
370
     0
100
AcDbLine
 10
0.3524080552
 20
11.5864573171
 30
0.0
 11
18.7754080552
 21
11.5864573171
 31
0.0
  0
LINE
  5
4D
330
1F
100
AcDbEntity
  8
0
  6
Continuous
 62
     7
370
     0
100
AcDbLine
 10
2.0741841233
 20
12.0432073171
 30
0.0
 11
2.0741841233
 21
11.5864573171
 31
0.0
  0
LINE
  5
4E
330
1F
100
AcDbEntity
  8
0
  6
Continuous
 62
     7
370
     0
100
AcDbLine
 10
1.2496858692
 20
12.0432073171
 30
0.0
 11
1.2496858692
 21
11.5864573171
 31
0.0
  0
LINE
  5
4F
330
1F
100
AcDbEntity
  8
0
  6
Continuous
 62
     7
370
     0
100
AcDbLine
 10
17.3691580552
 20
11.5864573171
 30
0.0
 11
17.3691580552
 21
12.0432073171
 31
0.0
  0
LINE
  5
50
330
1F
100
AcDbEntity
  8
0
  6
Continuous
 62
     7
370
     0
100
AcDbLine
 10
16.5254080552
 20
11.5864573171
 30
0.0
 11
16.5254080552
 21
12.0432073171
 31
0.0
  0
LINE
  5
51
330
1F
100
AcDbEntity
  8
0
  6
Continuous
 62
     7
370
     0
100
AcDbLine
 10
16.4556580552
 20
11.5864573171
 30
0.0
 11
16.4556580552
 21
12.0432073171
 31
0.0
  0
LINE
  5
52
330
1F
100
AcDbEntity
  8
0
  6
Continuous
 62
     7
370
     0
100
AcDbLine
 10
0.5036376568
 20
11.6731801303
 30
0.0
 11
0.5036376568
 21
11.9719067286
 31
0.0
  0
LINE
  5
53
330
1F
100
AcDbEntity
  8
0
  6
Continuous
 62
     7
370
     0
100
AcDbLine
 10
0.7116560374
 20
11.6918505427
 30
0.0
 11
0.7116560374
 21
11.9719067286
 31
0.0
  0
LINE
  5
54
330
1F
100
AcDbEntity
  8
0
  6
Continuous
 62
     7
370
     0
100
AcDbLine
 10
0.7922631598
 20
11.721919447
 30
0.0
 11
0.7922631598
 21
11.9719067286
 31
0.0
  0
LINE
  5
55
330
1F
100
AcDbEntity
  8
0
  6
Continuous
 62
     7
370
     0
100
AcDbLine
 10
0.7662608622
 20
11.721919447
 30
0.0
 11
0.7662608622
 21
11.9719067286
 31
0.0
  0
LINE
  5
56
330
1F
100
AcDbEntity
  8
0
  6
Continuous
 62
     7
370
     0
100
AcDbLine
 10
0.9079673867
 20
11.6731801303
 30
0.0
 11
0.9079673867
 21
11.9719067286
 31
0.0
  0
LINE
  5
57
330
1F
100
AcDbEntity
  8
0
  6
Continuous
 62
     7
370
     0
100
AcDbLine
 10
0.8468679847
 20
11.6918505427
 30
0.0
 11
0.8468679847
 21
11.9719067286
 31
0.0
  0
LINE
  5
58
330
1F
100
AcDbEntity
  8
0
  6
Continuous
 62
     7
370
     0
100
AcDbLine
 10
0.7303264498
 20
11.6731801303
 30
0.0
 11
0.8281975723
 21
11.6731801303
 31
0.0
  0
LINE
  5
59
330
1F
100
AcDbEntity
  8
0
  6
Continuous
 62
     7
370
     0
100
AcDbLine
 10
0.5036376568
 20
11.6731801303
 30
0.0
 11
0.5998461578
 21
11.6731801303
 31
0.0
  0
LINE
  5
5A
330
1F
100
AcDbEntity
  8
0
  6
Continuous
 62
     7
370
     0
100
AcDbLine
 10
0.5998461578
 20
11.8150752645
 30
0.0
 11
0.5179389205
 21
11.8150752645
 31
0.0
  0
LINE
  5
5B
330
1F
100
AcDbEntity
  8
0
  6
Continuous
 62
     7
370
     0
100
AcDbLine
 10
0.5998461578
 20
11.8300115944
 30
0.0
 11
0.5179389205
 21
11.8300115944
 31
0.0
  0
LINE
  5
5C
330
1F
100
AcDbEntity
  8
0
  6
Continuous
 62
     7
370
     0
100
AcDbLine
 10
0.5179389205
 20
11.8300115944
 30
0.0
 11
0.5179389205
 21
11.8225434295
 31
0.0
  0
LINE
  5
5D
330
1F
100
AcDbEntity
  8
0
  6
Continuous
 62
     7
370
     0
100
AcDbLine
 10
0.5179389205
 20
11.8150752645
 30
0.0
 11
0.5179389205
 21
11.8225434295
 31
0.0
  0
LINE
  5
5E
330
1F
100
AcDbEntity
  8
0
  6
Continuous
 62
     7
370
     0
100
AcDbLine
 10
0.9079673867
 20
11.6731801303
 30
0.0
 11
0.945125599
 21
11.6731801303
 31
0.0
  0
LINE
  5
5F
330
1F
100
AcDbEntity
  8
0
  6
Continuous
 62
     7
370
     0
100
AcDbLine
 10
1.0496799084
 20
11.7777344397
 30
0.0
 11
1.0496799084
 21
11.8673524192
 31
0.0
  0
LINE
  5
60
330
1F
100
AcDbEntity
  8
0
  6
Continuous
 62
     7
370
     0
100
AcDbLine
 10
0.9947367334
 20
11.8150752645
 30
0.0
 11
0.9947367334
 21
11.8300115944
 31
0.0
  0
LINE
  5
61
330
1F
100
AcDbEntity
  8
0
  6
Continuous
 62
     7
370
     0
100
AcDbLine
 10
0.9482769452
 20
11.8150752645
 30
0.0
 11
0.9482769452
 21
11.8300115944
 31
0.0
  0
LINE
  5
62
330
1F
100
AcDbEntity
  8
0
  6
Continuous
 62
     7
370
     0
100
AcDbLine
 10
0.9947367334
 20
11.8150752645
 30
0.0
 11
0.9482769452
 21
11.8150752645
 31
0.0
  0
LINE
  5
63
330
1F
100
AcDbEntity
  8
0
  6
Continuous
 62
     7
370
     0
100
AcDbLine
 10
0.9947367334
 20
11.8300115944
 30
0.0
 11
0.9482769452
 21
11.8300115944
 31
0.0
  0
LINE
  5
64
330
1F
100
AcDbEntity
  8
0
  6
Continuous
 62
     7
370
     0
100
AcDbLine
 10
0.7922631598
 20
11.9719067286
 30
0.0
 11
0.8468679847
 21
11.9719067286
 31
0.0
  0
LINE
  5
65
330
1F
100
AcDbEntity
  8
0
  6
Continuous
 62
     7
370
     0
100
AcDbLine
 10
0.5036376568
 20
11.9719067286
 30
0.0
 11
0.5998461578
 21
11.9719067286
 31
0.0
  0
LINE
  5
66
330
1F
100
AcDbEntity
  8
0
  6
Continuous
 62
     7
370
     0
100
AcDbLine
 10
0.7116560374
 20
11.9719067286
 30
0.0
 11
0.7662608622
 21
11.9719067286
 31
0.0
  0
LINE
  5
67
330
1F
100
AcDbEntity
  8
0
  6
Continuous
 62
     7
370
     0
100
AcDbLine
 10
0.9079673867
 20
11.9719067286
 30
0.0
 11
0.945125599
 21
11.9719067286
 31
0.0
  0
LINE
  5
68
330
1F
100
AcDbEntity
  8
0
  6
Continuous
 62
     7
370
     0
100
AcDbLine
 10
1.1813625293
 20
12.0432073171
 30
0.0
 11
1.1813625293
 21
11.5864573171
 31
0.0
  0
LINE
  5
69
330
1F
100
AcDbEntity
  8
0
  6
Continuous
 62
     7
370
     0
100
AcDbLine
 10
9.4310947991
 20
11.5864573171
 30
0.0
 11
9.4310947991
 21
12.0432073171
 31
0.0
  0
LINE
  5
6A
330
1F
100
AcDbEntity
  8
0
  6
Continuous
 62
     7
370
     0
100
AcDbLine
 10
9.5008447991
 20
11.5864573171
 30
0.0
 11
9.5008447991
 21
12.0432073171
 31
0.0
  0
LINE
  5
6B
330
1F
100
AcDbEntity
  8
0
  6
Continuous
 62
     7
370
     0
100
AcDbLine
 10
10.3445947991
 20
11.5864573171
 30
0.0
 11
10.3445947991
 21
12.0432073171
 31
0.0
  0
ARC
  5
6C
330
1F
100
AcDbEntity
  8
0
  6
Continuous
 62
     7
370
     0
100
AcDbCircle
 10
0.5998461578
 20
11.9009591615
 30
0.0
 40
0.0709475671109008
100
AcDbArc
 50
270.0
 51
90.0
  0
ARC
  5
6D
330
1F
100
AcDbEntity
  8
0
  6
Continuous
 62
     7
370
     0
100
AcDbCircle
 10
0.945125599
 20
11.8673524192
 30
0.0
 40
0.1045543094265884
100
AcDbArc
 50
0.0
 51
90.0
  0
ARC
  5
6E
330
1F
100
AcDbEntity
  8
0
  6
Continuous
 62
     7
370
     0
100
AcDbCircle
 10
0.5998461578
 20
11.7441276974
 30
0.0
 40
0.0709475671109008
100
AcDbArc
 50
270.0
 51
90.0
  0
ARC
  5
6F
330
1F
100
AcDbEntity
  8
0
  6
Continuous
 62
     7
370
     0
100
AcDbCircle
 10
0.7303264498
 20
11.6918505427
 30
0.0
 40
0.0186704123976105
100
AcDbArc
 50
180.0
 51
270.0
  0
ARC
  5
70
330
1F
100
AcDbEntity
  8
0
  6
Continuous
 62
     7
370
     0
100
AcDbCircle
 10
0.7773268299
 20
11.721919447
 30
0.0
 40
0.0149363299180812
100
AcDbArc
 50
277.4442840975
 51
0.0
  0
ARC
  5
71
330
1F
100
AcDbEntity
  8
0
  6
Continuous
 62
     7
370
     0
100
AcDbCircle
 10
0.7811971922
 20
11.721919447
 30
0.0
 40
0.0149363299180935
100
AcDbArc
 50
180.0
 51
262.5557159021
  0
ARC
  5
72
330
1F
100
AcDbEntity
  8
0
  6
Continuous
 62
     7
370
     0
100
AcDbCircle
 10
0.945125599
 20
11.7777344397
 30
0.0
 40
0.1045543094265884
100
AcDbArc
 50
270.0
 51
0.0
  0
ARC
  5
73
330
1F
100
AcDbEntity
  8
0
  6
Continuous
 62
     7
370
     0
100
AcDbCircle
 10
0.8281975723
 20
11.6918505427
 30
0.0
 40
0.018670412397606
100
AcDbArc
 50
270.0
 51
0.0
  0
INSERT
  5
7E
330
1F
100
AcDbEntity
  8
0
  6
Continuous
 62
     7
370
     0
100
AcDbBlockReference
  2
SW_NOTE_0
 10
9.9648951342
 20
2.8116608422
 30
0.0
  0
MTEXT
  5
7F
330
1F
100
AcDbEntity
  8
0
  6
Continuous
 62
     7
370
     0
100
AcDbMText
 10
18.0819824698
 20
11.9354808871
 30
0.0
 40
0.2109375
 41
0.0
 71
     2
 72
     1
  1
10-7-14
  7
SLDTEXTSTYLE0
 73
     1
 44
1.0
  0
MTEXT
  5
80
330
1F
100
AcDbEntity
  8
0
  6
Continuous
 62
     7
370
     0
100
AcDbMText
 10
5.5360604327
 20
11.9247478302
 30
0.0
 40
0.2109375
 41
0.0
 71
     2
 72
     1
  1
SNAP UTILITY BOX
  7
SLDTEXTSTYLE0
 73
     1
 44
1.0
  0
MTEXT
  5
82
330
1F
100
AcDbEntity
  8
0
  6
Continuous
 62
     7
370
     0
100
AcDbMText
 10
13.335343732
 20
11.9354808974
 30
0.0
 40
0.2109375
 41
0.0
 71
     2
 72
     1
  1
CU-18428-B     CU-18428-W
  7
SLDTEXTSTYLE1
 73
     1
 44
1.0
  0
INSERT
  5
88
330
1F
100
AcDbEntity
  8
0
  6
Continuous
 62
     7
370
     0
100
AcDbBlockReference
  2
SW_NOTE_1
 10
1.4269883902
 20
11.8194055151
 30
0.0
  0
INSERT
  5
8E
330
1F
100
AcDbEntity
  8
0
  6
Continuous
 62
     7
370
     0
100
AcDbBlockReference
  2
SW_NOTE_2
 10
9.7243273384
 20
11.8111363352
 30
0.0
  0
INSERT
  5
94
330
1F
100
AcDbEntity
  8
0
  6
Continuous
 62
     7
370
     0
100
AcDbBlockReference
  2
SW_NOTE_3
 10
16.5472184559
 20
11.8163064682
 30
0.0
  0
LINE
  5
95
330
1F
100
AcDbEntity
  8
0
  6
Continuous
 62
     7
370
    15
100
AcDbLine
 10
7.068402259
 20
9.4166053601
 30
0.0
 11
7.068402259
 21
6.7945580235
 31
0.0
  0
ARC
  5
96
330
1F
100
AcDbEntity
  8
0
  6
Continuous
 62
     7
370
    15
100
AcDbCircle
 10
7.0329692524
 20
9.4166053138
 30
0.0
 40
0.0354330708661426
100
AcDbArc
 50
0.0
 51
90.0
  0
LINE
  5
97
330
1F
100
AcDbEntity
  8
0
  6
Continuous
 62
     7
370
    15
100
AcDbLine
 10
7.0920244128
 20
9.4166053601
 30
0.0
 11
7.0920244128
 21
6.7945580235
 31
0.0
  0
ARC
  5
98
330
1F
100
AcDbEntity
  8
0
  6
Continuous
 62
     7
370
    15
100
AcDbCircle
 10
7.0329692524
 20
6.7945580698
 30
0.0
 40
0.059055118110237
100
AcDbArc
 50
270.0
 51
0.0
  0
LINE
  5
99
330
1F
100
AcDbEntity
  8
0
  6
Continuous
 62
     7
370
    15
100
AcDbLine
 10
7.0329693217
 20
6.7355029324
 30
0.0
 11
3.0565912305
 21
6.7355029324
 31
0.0
  0
LINE
  5
9A
330
1F
100
AcDbEntity
  8
0
  6
Continuous
 62
     7
370
    15
100
AcDbLine
 10
3.0565912305
 20
9.4520384441
 30
0.0
 11
7.0329693217
 21
9.4520384441
 31
0.0
  0
ARC
  5
9B
330
1F
100
AcDbEntity
  8
0
  6
Continuous
 62
     7
370
    15
100
AcDbCircle
 10
3.0565912997
 20
9.4166053138
 30
0.0
 40
0.0354330708661426
100
AcDbArc
 50
90.0
 51
180.0
  0
LINE
  5
9C
330
1F
100
AcDbEntity
  8
0
  6
Continuous
 62
     7
370
    15
100
AcDbLine
 10
3.0211582931
 20
6.7945580235
 30
0.0
 11
3.0211582931
 21
9.4166053601
 31
0.0
  0
ARC
  5
9D
330
1F
100
AcDbEntity
  8
0
  6
Continuous
 62
     7
370
    15
100
AcDbCircle
 10
3.0565912997
 20
6.7945580698
 30
0.0
 40
0.0354330708661417
100
AcDbArc
 50
180.0
 51
270.0
  0
LINE
  5
9E
330
1F
100
AcDbEntity
  8
0
  6
Continuous
 62
     7
370
    15
100
AcDbLine
 10
7.0329693217
 20
6.7591249395
 30
0.0
 11
3.0565912305
 21
6.7591249395
 31
0.0
  0
ARC
  5
9F
330
1F
100
AcDbEntity
  8
0
  6
Continuous
 62
     7
370
    15
100
AcDbCircle
 10
7.0329692524
 20
6.7945580698
 30
0.0
 40
0.0354330708661417
100
AcDbArc
 50
270.0
 51
0.0
  0
ARC
  5
A0
330
1F
100
AcDbEntity
  8
0
  6
Continuous
 62
     7
370
    15
100
AcDbCircle
 10
7.0329692524
 20
9.4166053138
 30
0.0
 40
0.059055118110237
100
AcDbArc
 50
0.0
 51
90.0
  0
LINE
  5
A1
330
1F
100
AcDbEntity
  8
0
  6
Continuous
 62
     7
370
    15
100
AcDbLine
 10
3.0565912305
 20
9.4756604512
 30
0.0
 11
7.0329693217
 21
9.4756604512
 31
0.0
  0
ARC
  5
A2
330
1F
100
AcDbEntity
  8
0
  6
Continuous
 62
     7
370
    15
100
AcDbCircle
 10
3.0565912997
 20
9.4166053138
 30
0.0
 40
0.059055118110237
100
AcDbArc
 50
90.0
 51
180.0
  0
LINE
  5
A3
330
1F
100
AcDbEntity
  8
0
  6
Continuous
 62
     7
370
    15
100
AcDbLine
 10
2.9975361393
 20
6.7945580235
 30
0.0
 11
2.9975361393
 21
9.4166053601
 31
0.0
  0
ARC
  5
A4
330
1F
100
AcDbEntity
  8
0
  6
Continuous
 62
     7
370
    15
100
AcDbCircle
 10
3.0565912997
 20
6.7945580698
 30
0.0
 40
0.0590551181102366
100
AcDbArc
 50
180.0
 51
270.0
  0
ARC
  5
A5
330
1F
100
AcDbEntity
  8
0
  6
Continuous
 62
     7
370
    15
100
AcDbCircle
 10
7.047143471
 20
9.4294118092
 30
0.0
 40
0.0744724476503342
100
AcDbArc
 50
9.3036941185
 51
55.0896828857
  0
ARC
  5
A6
330
1F
100
AcDbEntity
  8
0
  6
Continuous
 62
     7
370
    15
100
AcDbCircle
 10
7.0329692524
 20
9.4166053138
 30
0.0
 40
0.0911199478620902
100
AcDbArc
 50
0.0000000003
 51
15.8236237619
  0
ARC
  5
A7
330
1F
100
AcDbEntity
  8
0
  6
Continuous
 62
     7
370
    15
100
AcDbCircle
 10
7.0329692524
 20
9.4166053138
 30
0.0
 40
0.0808034558772697
100
AcDbArc
 50
0.0000000017
 51
90.0
  0
ARC
  5
A8
330
1F
100
AcDbEntity
  8
0
  6
Continuous
 62
     7
370
    15
100
AcDbCircle
 10
7.0329692524
 20
9.4166053138
 30
0.0
 40
0.0993731414500161
100
AcDbArc
 50
45.0
 51
90.0
  0
LINE
  5
A9
330
1F
100
AcDbEntity
  8
0
  6
Continuous
 62
     7
370
    15
100
AcDbLine
 10
2.9757877772
 20
9.4166053601
 30
0.0
 11
2.9757877772
 21
6.7945580235
 31
0.0
  0
LINE
  5
AA
330
1F
100
AcDbEntity
  8
0
  6
Continuous
 62
     7
370
    15
100
AcDbLine
 10
2.9654713631
 20
6.7945580235
 30
0.0
 11
2.9654713631
 21
9.4166053601
 31
0.0
  0
LINE
  5
AB
330
1F
100
AcDbEntity
  8
0
  6
Continuous
 62
     7
370
    15
100
AcDbLine
 10
7.1137727749
 20
6.7945580235
 30
0.0
 11
7.1137727749
 21
9.4166053601
 31
0.0
  0
LINE
  5
AC
330
1F
100
AcDbEntity
  8
0
  6
Continuous
 62
     7
370
    15
100
AcDbLine
 10
7.124089189
 20
9.4166053601
 30
0.0
 11
7.124089189
 21
6.7945580235
 31
0.0
  0
ARC
  5
AD
330
1F
100
AcDbEntity
  8
0
  6
Continuous
 62
     7
370
    15
100
AcDbCircle
 10
7.0329692524
 20
6.7945580698
 30
0.0
 40
0.0808034558771942
100
AcDbArc
 50
270.0
 51
0.0000000008
  0
LINE
  5
AE
330
1F
100
AcDbEntity
  8
0
  6
Continuous
 62
     7
370
    15
100
AcDbLine
 10
7.0329693217
 20
6.7137545703
 30
0.0
 11
3.0565912305
 21
6.7137545703
 31
0.0
  0
ARC
  5
AF
330
1F
100
AcDbEntity
  8
0
  6
Continuous
 62
     7
370
    15
100
AcDbCircle
 10
3.0565912997
 20
6.7945580698
 30
0.0
 40
0.0808034558772697
100
AcDbArc
 50
179.9999999983
 51
270.0
  0
ARC
  5
B0
330
1F
100
AcDbEntity
  8
0
  6
Continuous
 62
     7
370
    15
100
AcDbCircle
 10
3.0565912997
 20
9.4166053138
 30
0.0
 40
0.0808034558771942
100
AcDbArc
 50
90.0
 51
179.9999999992
  0
LINE
  5
B1
330
1F
100
AcDbEntity
  8
0
  6
Continuous
 62
     7
370
    15
100
AcDbLine
 10
3.0565912305
 20
9.4974088133
 30
0.0
 11
7.0329693217
 21
9.4974088133
 31
0.0
  0
LINE
  5
B2
330
1F
100
AcDbEntity
  8
0
  6
Continuous
 62
     7
370
    15
100
AcDbLine
 10
3.0565912305
 20
6.6951848782
 30
0.0
 11
7.0329693217
 21
6.6951848782
 31
0.0
  0
ARC
  5
B3
330
1F
100
AcDbEntity
  8
0
  6
Continuous
 62
     7
370
    15
100
AcDbCircle
 10
7.0329692524
 20
6.7945580698
 30
0.0
 40
0.0993731414499726
100
AcDbArc
 50
270.0
 51
315.0
  0
ARC
  5
B4
330
1F
100
AcDbEntity
  8
0
  6
Continuous
 62
     7
370
    15
100
AcDbCircle
 10
7.0329692524
 20
6.7945580698
 30
0.0
 40
0.0911199478621084
100
AcDbArc
 50
344.1763762381
 51
0.0000000011
  0
LWPOLYLINE
  5
B5
330
1F
100
AcDbEntity
  8
0
  6
Continuous
 62
     7
370
    15
100
AcDbPolyline
 90
        7
 70
   128
 43
0.0
 10
7.0897635722
 20
6.7206805303
 10
7.0898041984
 20
6.7210674325
 10
7.0911752226
 20
6.7224839228
 10
7.095754103
 20
6.7270127905
 10
7.1066568838
 20
6.7401696652
 10
7.1167782335
 20
6.7586344919
 10
7.1206362556
 20
6.7697118039
  0
LINE
  5
B6
330
1F
100
AcDbEntity
  8
0
  6
Continuous
 62
     7
370
    15
100
AcDbLine
 10
7.0329693217
 20
9.5159785054
 30
0.0
 11
3.0565912305
 21
9.5159785054
 31
0.0
  0
ARC
  5
B7
330
1F
100
AcDbEntity
  8
0
  6
Continuous
 62
     7
370
    15
100
AcDbCircle
 10
3.0565912997
 20
9.4166053138
 30
0.0
 40
0.0993731414499717
100
AcDbArc
 50
90.0
 51
134.9999999999
  0
ARC
  5
B8
330
1F
100
AcDbEntity
  8
0
  6
Continuous
 62
     7
370
    15
100
AcDbCircle
 10
3.0565912997
 20
9.4166053138
 30
0.0
 40
0.0911199478620638
100
AcDbArc
 50
164.1763762381
 51
179.9999999989
  0
LWPOLYLINE
  5
B9
330
1F
100
AcDbEntity
  8
0
  6
Continuous
 62
     7
370
    15
100
AcDbPolyline
 90
        7
 70
   128
 43
0.0
 10
2.9997969799
 20
9.4904828533
 10
2.9997563537
 20
9.4900959511
 10
2.9983853295
 20
9.4886794608
 10
2.9938064491
 20
9.4841505931
 10
2.9829036684
 20
9.4709937184
 10
2.9727823186
 20
9.4525288918
 10
2.9689242965
 20
9.4414515797
  0
LWPOLYLINE
  5
BA
330
1F
100
AcDbEntity
  8
0
  6
Continuous
 62
     7
370
    15
100
AcDbPolyline
 90
       12
 70
   128
 43
0.0
 10
2.9689242965
 20
6.7697118039
 10
2.9720773001
 20
6.7603751117
 10
2.9761890526
 20
6.7513103365
 10
2.9815522973
 20
6.7421618155
 10
2.9876088274
 20
6.7339437371
 10
2.9914405964
 20
6.7295197349
 10
2.9951689667
 20
6.7256317931
 10
2.9969387729
 20
6.7238894132
 10
2.9984664353
 20
6.722404577
 10
2.9993304386
 20
6.7215383737
 10
2.9998601925
 20
6.7209335274
 10
2.9997969799
 20
6.7206805303
  0
ARC
  5
BB
330
1F
100
AcDbEntity
  8
0
  6
Continuous
 62
     7
370
    15
100
AcDbCircle
 10
3.0565912997
 20
6.7945580698
 30
0.0
 40
0.0911199478621112
100
AcDbArc
 50
179.9999999997
 51
195.8236237619
  0
ARC
  5
BC
330
1F
100
AcDbEntity
  8
0
  6
Continuous
 62
     7
370
    15
100
AcDbCircle
 10
3.0565912997
 20
6.7945580698
 30
0.0
 40
0.099373141450017
100
AcDbArc
 50
225.0
 51
270.0
  0
LINE
  5
BD
330
1F
100
AcDbEntity
  8
0
  6
Continuous
 62
     7
370
    15
100
AcDbLine
 10
6.3046228556
 20
9.4056362868
 30
0.0
 11
7.0220002484
 21
9.4056362868
 31
0.0
  0
LINE
  5
BE
330
1F
100
AcDbEntity
  8
0
  6
Continuous
 62
     7
370
    15
100
AcDbLine
 10
6.3046228556
 20
9.4520384441
 30
0.0
 11
6.3046228556
 21
9.4056362868
 31
0.0
  0
LINE
  5
BF
330
1F
100
AcDbEntity
  8
0
  6
Continuous
 62
     7
370
    15
100
AcDbLine
 10
6.3046228556
 20
6.8055270968
 30
0.0
 11
6.3046228556
 21
6.7591249395
 31
0.0
  0
LINE
  5
C0
330
1F
100
AcDbEntity
  8
0
  6
Continuous
 62
     7
370
    15
100
AcDbLine
 10
7.0220002484
 20
6.8055270968
 30
0.0
 11
6.3046228556
 21
6.8055270968
 31
0.0
  0
LINE
  5
C1
330
1F
100
AcDbEntity
  8
0
  6
Continuous
 62
     7
370
    15
100
AcDbLine
 10
7.0220002484
 20
9.4056362868
 30
0.0
 11
7.0220002484
 21
6.8055270968
 31
0.0
  0
LINE
  5
C2
330
1F
100
AcDbEntity
  8
0
  6
Continuous
 62
     7
370
    15
100
AcDbLine
 10
5.6747015658
 20
6.8055270968
 30
0.0
 11
4.4148589863
 21
6.8055270968
 31
0.0
  0
LINE
  5
C3
330
1F
100
AcDbEntity
  8
0
  6
Continuous
 62
     7
370
    15
100
AcDbLine
 10
4.4148589863
 20
6.8055270968
 30
0.0
 11
4.4148589863
 21
6.7591249395
 31
0.0
  0
LINE
  5
C4
330
1F
100
AcDbEntity
  8
0
  6
Continuous
 62
     7
370
    15
100
AcDbLine
 10
5.6747015658
 20
6.7591249395
 30
0.0
 11
5.6747015658
 21
6.8055270968
 31
0.0
  0
LINE
  5
C5
330
1F
100
AcDbEntity
  8
0
  6
Continuous
 62
     7
370
    15
100
AcDbLine
 10
3.7849376965
 20
6.8055270968
 30
0.0
 11
3.0675603037
 21
6.8055270968
 31
0.0
  0
LINE
  5
C6
330
1F
100
AcDbEntity
  8
0
  6
Continuous
 62
     7
370
    15
100
AcDbLine
 10
3.7849376965
 20
9.4056362868
 30
0.0
 11
3.7849376965
 21
9.4520384441
 31
0.0
  0
LINE
  5
C7
330
1F
100
AcDbEntity
  8
0
  6
Continuous
 62
     7
370
    15
100
AcDbLine
 10
3.0675603037
 20
9.4056362868
 30
0.0
 11
3.7849376965
 21
9.4056362868
 31
0.0
  0
LINE
  5
C8
330
1F
100
AcDbEntity
  8
0
  6
Continuous
 62
     7
370
    15
100
AcDbLine
 10
3.0675603037
 20
6.8055270968
 30
0.0
 11
3.0675603037
 21
9.4056362868
 31
0.0
  0
LINE
  5
C9
330
1F
100
AcDbEntity
  8
0
  6
Continuous
 62
     7
370
    15
100
AcDbLine
 10
3.7849376965
 20
6.7591249395
 30
0.0
 11
3.7849376965
 21
6.8055270968
 31
0.0
  0
LINE
  5
CA
330
1F
100
AcDbEntity
  8
0
  6
Continuous
 62
     7
370
    15
100
AcDbLine
 10
5.6747015658
 20
9.4056362868
 30
0.0
 11
5.6747015658
 21
9.4520384441
 31
0.0
  0
LINE
  5
CB
330
1F
100
AcDbEntity
  8
0
  6
Continuous
 62
     7
370
    15
100
AcDbLine
 10
4.4148589863
 20
9.4056362868
 30
0.0
 11
5.6747015658
 21
9.4056362868
 31
0.0
  0
LINE
  5
CC
330
1F
100
AcDbEntity
  8
0
  6
Continuous
 62
     7
370
    15
100
AcDbLine
 10
4.4148589863
 20
9.4520384441
 30
0.0
 11
4.4148589863
 21
9.4056362868
 31
0.0
  0
LINE
  5
CD
330
1F
100
AcDbEntity
  8
0
  6
Continuous
 62
     7
370
    15
100
AcDbLine
 10
3.7849376965
 20
6.8096536625
 30
0.0
 11
4.4148589863
 21
6.8096536625
 31
0.0
  0
LINE
  5
CE
330
1F
100
AcDbEntity
  8
0
  6
Continuous
 62
     7
370
    15
100
AcDbLine
 10
3.0675603037
 20
6.8055270968
 30
0.0
 11
3.0805590736
 21
6.8185258666
 31
0.0
  0
LINE
  5
CF
330
1F
100
AcDbEntity
  8
0
  6
Continuous
 62
     7
370
    15
100
AcDbLine
 10
7.0090014785
 20
6.8185258666
 30
0.0
 11
3.0805590736
 21
6.8185258666
 31
0.0
  0
LINE
  5
D0
330
1F
100
AcDbEntity
  8
0
  6
Continuous
 62
     7
370
    15
100
AcDbLine
 10
7.0220002484
 20
6.8055270968
 30
0.0
 11
7.0090014785
 21
6.8185258666
 31
0.0
  0
LINE
  5
D1
330
1F
100
AcDbEntity
  8
0
  6
Continuous
 62
     7
370
    15
100
AcDbLine
 10
5.6747015658
 20
6.8096536625
 30
0.0
 11
6.3046228556
 21
6.8096536625
 31
0.0
  0
LINE
  5
D2
330
1F
100
AcDbEntity
  8
0
  6
Continuous
 62
     7
370
    15
100
AcDbLine
 10
3.7849376965
 20
6.8055270968
 30
0.0
 11
3.7849376965
 21
6.8096536625
 31
0.0
  0
LINE
  5
D3
330
1F
100
AcDbEntity
  8
0
  6
Continuous
 62
     7
370
    15
100
AcDbLine
 10
4.4148589863
 20
6.8096536625
 30
0.0
 11
4.4148589863
 21
6.8055270968
 31
0.0
  0
LINE
  5
D4
330
1F
100
AcDbEntity
  8
0
  6
Continuous
 62
     7
370
    15
100
AcDbLine
 10
5.6747015658
 20
6.8055270968
 30
0.0
 11
5.6747015658
 21
6.8096536625
 31
0.0
  0
LINE
  5
D5
330
1F
100
AcDbEntity
  8
0
  6
Continuous
 62
     7
370
    15
100
AcDbLine
 10
6.3046228556
 20
6.8096536625
 30
0.0
 11
6.3046228556
 21
6.8055270968
 31
0.0
  0
LINE
  5
D6
330
1F
100
AcDbEntity
  8
0
  6
Continuous
 62
     7
370
    15
100
AcDbLine
 10
3.0675603037
 20
9.4056362868
 30
0.0
 11
3.0805590736
 21
9.392637517
 31
0.0
  0
LINE
  5
D7
330
1F
100
AcDbEntity
  8
0
  6
Continuous
 62
     7
370
    15
100
AcDbLine
 10
4.4148589863
 20
9.4015097211
 30
0.0
 11
3.7849376965
 21
9.4015097211
 31
0.0
  0
LINE
  5
D8
330
1F
100
AcDbEntity
  8
0
  6
Continuous
 62
     7
370
    15
100
AcDbLine
 10
6.3046228556
 20
9.4015097211
 30
0.0
 11
5.6747015658
 21
9.4015097211
 31
0.0
  0
LINE
  5
D9
330
1F
100
AcDbEntity
  8
0
  6
Continuous
 62
     7
370
    15
100
AcDbLine
 10
7.0090014785
 20
9.392637517
 30
0.0
 11
7.0220002484
 21
9.4056362868
 31
0.0
  0
LINE
  5
DA
330
1F
100
AcDbEntity
  8
0
  6
Continuous
 62
     7
370
    15
100
AcDbLine
 10
3.0805590736
 20
9.392637517
 30
0.0
 11
7.0090014785
 21
9.392637517
 31
0.0
  0
LINE
  5
DB
330
1F
100
AcDbEntity
  8
0
  6
Continuous
 62
     7
370
    15
100
AcDbLine
 10
4.4148589863
 20
9.4056362868
 30
0.0
 11
4.4148589863
 21
9.4015097211
 31
0.0
  0
LINE
  5
DC
330
1F
100
AcDbEntity
  8
0
  6
Continuous
 62
     7
370
    15
100
AcDbLine
 10
5.6747015658
 20
9.4015097211
 30
0.0
 11
5.6747015658
 21
9.4056362868
 31
0.0
  0
LINE
  5
DD
330
1F
100
AcDbEntity
  8
0
  6
Continuous
 62
     7
370
    15
100
AcDbLine
 10
3.7849376965
 20
9.4015097211
 30
0.0
 11
3.7849376965
 21
9.4056362868
 31
0.0
  0
LINE
  5
DE
330
1F
100
AcDbEntity
  8
0
  6
Continuous
 62
     7
370
    15
100
AcDbLine
 10
6.3046228556
 20
9.4056362868
 30
0.0
 11
6.3046228556
 21
9.4015097211
 31
0.0
  0
LINE
  5
DF
330
1F
100
AcDbEntity
  8
0
  6
Continuous
 62
     7
370
    15
100
AcDbLine
 10
7.0090014785
 20
9.392637517
 30
0.0
 11
7.0090014785
 21
6.8185258666
 31
0.0
  0
LINE
  5
E0
330
1F
100
AcDbEntity
  8
0
  6
Continuous
 62
     7
370
    15
100
AcDbLine
 10
3.0805590736
 20
6.8185258666
 30
0.0
 11
3.0805590736
 21
9.392637517
 31
0.0
  0
CIRCLE
  5
E1
330
1F
100
AcDbEntity
  8
0
  6
Continuous
 62
     7
370
    15
100
AcDbCircle
 10
6.4621031107
 20
7.1410147627
 30
0.0
 40
0.1146741998172889
  0
CIRCLE
  5
E2
330
1F
100
AcDbEntity
  8
0
  6
Continuous
 62
     7
370
    15
100
AcDbCircle
 10
6.4621031107
 20
7.1410147627
 30
0.0
 40
0.0428061151433514
  0
CIRCLE
  5
E3
330
1F
100
AcDbEntity
  8
0
  6
Continuous
 62
     7
370
    15
100
AcDbCircle
 10
3.6274574414
 20
7.1410147627
 30
0.0
 40
0.1146741998172889
  0
CIRCLE
  5
E4
330
1F
100
AcDbEntity
  8
0
  6
Continuous
 62
     7
370
    15
100
AcDbCircle
 10
3.6274574414
 20
7.1410147627
 30
0.0
 40
0.1181102362204056
  0
CIRCLE
  5
E5
330
1F
100
AcDbEntity
  8
0
  6
Continuous
 62
     7
370
    15
100
AcDbCircle
 10
6.4621031107
 20
9.0701486209
 30
0.0
 40
0.1146741998173102
  0
CIRCLE
  5
E6
330
1F
100
AcDbEntity
  8
0
  6
Continuous
 62
     7
370
    15
100
AcDbCircle
 10
6.4621031107
 20
9.0701486209
 30
0.0
 40
0.1181102362204243
  0
CIRCLE
  5
E7
330
1F
100
AcDbEntity
  8
0
  6
Continuous
 62
     7
370
    15
100
AcDbCircle
 10
3.6274574414
 20
9.0701486209
 30
0.0
 40
0.1146741998173102
  0
CIRCLE
  5
E8
330
1F
100
AcDbEntity
  8
0
  6
Continuous
 62
     7
370
    15
100
AcDbCircle
 10
3.6274574414
 20
9.0701486209
 30
0.0
 40
0.042806115143371
  0
CIRCLE
  5
E9
330
1F
100
AcDbEntity
  8
0
  6
Continuous
 62
     7
370
    15
100
AcDbCircle
 10
6.4621031107
 20
7.1410147627
 30
0.0
 40
0.0393700787401245
  0
CIRCLE
  5
EA
330
1F
100
AcDbEntity
  8
0
  6
Continuous
 62
     7
370
    15
100
AcDbCircle
 10
6.4621031107
 20
9.0701486209
 30
0.0
 40
0.0393700787401468
  0
CIRCLE
  5
EB
330
1F
100
AcDbEntity
  8
0
  6
Continuous
 62
     7
370
    15
100
AcDbCircle
 10
6.4621031107
 20
9.0701486209
 30
0.0
 40
0.042806115143371
  0
CIRCLE
  5
EC
330
1F
100
AcDbEntity
  8
0
  6
Continuous
 62
     7
370
    15
100
AcDbCircle
 10
6.4621031107
 20
7.1410147627
 30
0.0
 40
0.1181102362204056
  0
CIRCLE
  5
ED
330
1F
100
AcDbEntity
  8
0
  6
Continuous
 62
     7
370
    15
100
AcDbCircle
 10
3.6274574414
 20
9.0701486209
 30
0.0
 40
0.1181102362204243
  0
CIRCLE
  5
EE
330
1F
100
AcDbEntity
  8
0
  6
Continuous
 62
     7
370
    15
100
AcDbCircle
 10
3.6274574414
 20
9.0701486209
 30
0.0
 40
0.0393700787401468
  0
CIRCLE
  5
EF
330
1F
100
AcDbEntity
  8
0
  6
Continuous
 62
     7
370
    15
100
AcDbCircle
 10
3.6274574414
 20
7.1410147627
 30
0.0
 40
0.0393700787401245
  0
CIRCLE
  5
F0
330
1F
100
AcDbEntity
  8
0
  6
Continuous
 62
     7
370
    15
100
AcDbCircle
 10
3.6274574414
 20
7.1410147627
 30
0.0
 40
0.0428061151433514
  0
LINE
  5
F1
330
1F
100
AcDbEntity
  8
0
  6
Continuous
 62
     7
370
    15
100
AcDbLine
 10
7.0897681189
 20
6.7206817036
 30
0.0
 11
7.3988784813
 21
6.8035076668
 31
0.0
  0
LINE
  5
F2
330
1F
100
AcDbEntity
  8
0
  6
Continuous
 62
     7
370
    15
100
AcDbLine
 10
2.6906820708
 20
9.4076557168
 30
0.0
 11
2.9997924333
 21
9.49048168
 31
0.0
  0
LINE
  5
F3
330
1F
100
AcDbEntity
  8
0
  6
Continuous
 62
     7
370
    15
100
AcDbLine
 10
7.3988784813
 20
9.4076557168
 30
0.0
 11
7.0897681189
 21
9.49048168
 31
0.0
  0
LINE
  5
F4
330
1F
100
AcDbEntity
  8
0
  6
Continuous
 62
     7
370
    15
100
AcDbLine
 10
2.9997924333
 20
6.7206817036
 30
0.0
 11
2.6906820708
 21
6.8035076668
 31
0.0
  0
CIRCLE
  5
F5
330
1F
100
AcDbEntity
  8
0
  6
Continuous
 62
     7
370
    15
100
AcDbCircle
 10
2.7416306698
 20
8.1055816918
 30
0.0
 40
0.0885826771653555
  0
LINE
  5
F6
330
1F
100
AcDbEntity
  8
0
  6
Continuous
 62
     7
370
    15
100
AcDbLine
 10
2.5447801963
 20
6.9936505169
 30
0.0
 11
2.5447801963
 21
9.2175128667
 31
0.0
  0
CIRCLE
  5
F7
330
1F
100
AcDbEntity
  8
0
  6
Continuous
 62
     7
370
    15
100
AcDbCircle
 10
7.3479298824
 20
8.1055816918
 30
0.0
 40
0.0885826771653555
  0
LINE
  5
F8
330
1F
100
AcDbEntity
  8
0
  6
Continuous
 62
     7
370
    15
100
AcDbLine
 10
7.5447803558
 20
6.9936505169
 30
0.0
 11
7.5447803558
 21
9.2175128667
 31
0.0
  0
ARC
  5
F9
330
1F
100
AcDbEntity
  8
0
  6
Continuous
 62
     7
370
    15
100
AcDbCircle
 10
2.7416306698
 20
6.9936505187
 30
0.0
 40
0.1968503937007881
100
AcDbArc
 50
180.0
 51
255.0
  0
ARC
  5
FA
330
1F
100
AcDbEntity
  8
0
  6
Continuous
 62
     7
370
    15
100
AcDbCircle
 10
2.7416306698
 20
9.2175128649
 30
0.0
 40
0.1968503937007884
100
AcDbArc
 50
105.0
 51
180.0
  0
ARC
  5
FB
330
1F
100
AcDbEntity
  8
0
  6
Continuous
 62
     7
370
    15
100
AcDbCircle
 10
7.3479298824
 20
9.2175128649
 30
0.0
 40
0.1968503937007885
100
AcDbArc
 50
0.0
 51
75.0
  0
ARC
  5
FC
330
1F
100
AcDbEntity
  8
0
  6
Continuous
 62
     7
370
    15
100
AcDbCircle
 10
7.3479298824
 20
6.9936505187
 30
0.0
 40
0.1968503937007879
100
AcDbArc
 50
285.0
 51
0.0
  0
DIMENSION
  5
FD
330
1F
100
AcDbEntity
  8
0
  6
Continuous
 62
     7
370
     0
100
AcDbDimension
  2
*D5
 10
7.3479298824
 20
5.7729393608
 30
0.0
 11
5.0447802761
 21
5.7729393608
 31
0.0
 70
   160
 71
     2
 42
-1.0
  3
SLDDIMSTYLE0
100
AcDbAlignedDimension
 13
2.7416306698
 23
7.9169990146
 33
0.0
 14
7.3479298824
 24
7.9169990146
 34
0.0
100
AcDbRotatedDimension
  0
DIMENSION
  5
112
330
1F
100
AcDbEntity
  8
0
  6
Continuous
 62
     7
370
     0
100
AcDbDimension
  2
*D6
 10
6.4621031107
 20
6.3020170863
 30
0.0
 11
5.0447802761
 21
6.3020170863
 31
0.0
 70
   160
 71
     2
 42
-1.0
  3
SLDDIMSTYLE0
100
AcDbAlignedDimension
 13
3.6274574414
 23
7.1410147627
 33
0.0
 14
6.4621031107
 24
7.1410147627
 34
0.0
100
AcDbRotatedDimension
  0
DIMENSION
  5
126
330
1F
100
AcDbEntity
  8
0
  6
Continuous
 62
     7
370
     0
100
AcDbDimension
  2
*D7
 10
8.1057819186
 20
7.1410147627
 30
0.0
 11
8.1057819186
 21
8.1055816918
 31
0.0
 70
   160
 71
     2
 42
-1.0
  3
SLDDIMSTYLE0
100
AcDbAlignedDimension
 13
6.4621031107
 23
9.0701486209
 33
0.0
 14
6.4621031107
 24
7.1410147627
 34
0.0
 50
90.0
100
AcDbRotatedDimension
  0
DIMENSION
  5
13A
330
1F
100
AcDbEntity
  8
0
  6
Continuous
 62
     7
370
     0
100
AcDbDimension
  2
*D8
 10
3.7290205512
 20
9.0169028997
 30
0.0
 11
1.4201024349
 21
9.8665495644
 31
0.0
 70
   163
  1
<> BOSS
 71
     1
 42
-1.0
  3
SLDDIMSTYLE1
100
AcDbDiametricDimension
 15
3.5258943316
 25
9.1233943422
 35
0.0
 40
0.0
  0
DIMENSION
  5
14C
330
1F
100
AcDbEntity
  8
0
  6
Continuous
 62
     7
370
     0
100
AcDbDimension
  2
*D9
 10
3.6542887332
 20
9.0413374273
 30
0.0
 11
1.915231507
 21
10.4430429373
 31
0.0
 70
   163
  1
<>
 71
     1
 42
-1.0
  3
SLDDIMSTYLE2
100
AcDbDiametricDimension
 15
3.6006261496
 25
9.0989598146
 35
0.0
 40
0.0
  0
DIMENSION
  5
15D
330
1F
100
AcDbEntity
  8
0
  6
Continuous
 62
     7
370
     0
100
AcDbDimension
  2
*D10
 10
2.7687407869
 20
8.1899139646
 30
0.0
 11
1.703689389
 21
6.2258774943
 31
0.0
 70
   163
  1
<>
 71
     1
 42
-1.0
  3
SLDDIMSTYLE2
100
AcDbDiametricDimension
 15
2.7145205526
 25
8.021249419
 35
0.0
 40
0.0
  0
DIMENSION
  5
16D
330
1F
100
AcDbEntity
  8
0
  6
Continuous
 62
     7
370
     0
100
AcDbDimension
  2
*D11
 10
1.9702395138
 20
6.8055270331
 30
0.0
 11
1.9702395138
 21
8.1055816918
 31
0.0
 70
   160
 71
     2
 42
-1.0
  3
SLDDIMSTYLE3
100
AcDbAlignedDimension
 13
3.067560263
 23
9.4056363505
 33
0.0
 14
3.067560263
 24
6.8055270331
 34
0.0
 50
90.0
100
AcDbRotatedDimension
  0
DIMENSION
  5
182
330
1F
100
AcDbEntity
  8
0
  6
Continuous
 62
     7
370
     0
100
AcDbDimension
  2
*D12
 10
1.4127212695
 20
6.7137546139
 30
0.0
 11
1.4127212695
 21
8.1055816918
 31
0.0
 70
   160
 71
     2
 42
-1.0
  3
SLDDIMSTYLE0
100
AcDbAlignedDimension
 13
3.0565912997
 23
9.4974087697
 33
0.0
 14
3.0565912997
 24
6.7137546139
 34
0.0
 50
90.0
100
AcDbRotatedDimension
  0
DIMENSION
  5
196
330
1F
100
AcDbEntity
  8
0
  6
Continuous
 62
     7
370
     0
100
AcDbDimension
  2
*D13
 10
0.7731108033
 20
6.6951849283
 30
0.0
 11
0.7731108033
 21
8.1055816918
 31
0.0
 70
   160
 71
     2
 42
-1.0
  3
SLDDIMSTYLE0
100
AcDbAlignedDimension
 13
3.0565912997
 23
9.5159784553
 33
0.0
 14
3.0565912997
 24
6.6951849283
 34
0.0
 50
90.0
100
AcDbRotatedDimension
  0
DIMENSION
  5
1AA
330
1F
100
AcDbEntity
  8
0
  6
Continuous
 62
     7
370
     0
100
AcDbDimension
  2
*D14
 10
7.5447802761
 20
10.9757776458
 30
0.0
 11
5.0447802761
 21
10.9757776458
 31
0.0
 70
   160
 71
     2
 42
-1.0
  3
SLDDIMSTYLE3
100
AcDbAlignedDimension
 13
2.5447802761
 23
9.2175128649
 33
0.0
 14
7.5447802761
 24
9.2175128649
 34
0.0
100
AcDbRotatedDimension
  0
DIMENSION
  5
1BE
330
1F
100
AcDbEntity
  8
0
  6
Continuous
 62
     7
370
     0
100
AcDbDimension
  2
*D15
 10
7.1137727083
 20
10.4185862157
 30
0.0
 11
5.0447802761
 21
10.4185862157
 31
0.0
 70
   160
 71
     2
 42
-1.0
  3
SLDDIMSTYLE0
100
AcDbAlignedDimension
 13
2.9757878438
 23
9.4166053138
 33
0.0
 14
7.1137727083
 24
9.4166053138
 34
0.0
 50
0.0
100
AcDbRotatedDimension
  0
DIMENSION
  5
1D2
330
1F
100
AcDbEntity
  8
0
  6
Continuous
 62
     7
370
     0
100
AcDbDimension
  2
*D16
 10
7.0220002891
 20
9.8665495644
 30
0.0
 11
5.0447802761
 21
9.8665495644
 31
0.0
 70
   160
 71
     2
 42
-1.0
  3
SLDDIMSTYLE0
100
AcDbAlignedDimension
 13
3.067560263
 23
9.4056363505
 33
0.0
 14
7.0220002891
 24
9.4056363505
 34
0.0
100
AcDbRotatedDimension
  0
INSERT
  5
1EC
102
{ACAD_REACTORS
330
1EE
102
}
330
1F
100
AcDbEntity
  8
0
  6
Continuous
 62
     7
370
     0
100
AcDbBlockReference
  2
SW_NOTE_4
 10
7.7591557988
 20
6.2556953859
 30
0.0
  0
LEADER
  5
1EE
330
1F
100
AcDbEntity
  8
0
  6
Continuous
 62
     7
370
     0
100
AcDbLeader
  3
SLDDIMSTYLE4
 73
     2
 76
     3
 10
6.4949175582
 20
7.1135270284
 30
0.0
 10
7.4779057988
 20
6.2556953859
 30
0.0
 10
7.7591557988
 20
6.2556953859
 30
0.0
340
1EC
  0
INSERT
  5
1FA
330
1F
100
AcDbEntity
  8
0
  6
Continuous
 62
     7
370
     0
100
AcDbBlockReference
  2
SW_CENTERMARKSYMBOL_0
 10
3.0565912997
 20
8.1055816918
 30
0.0
  0
INSERT
  5
206
330
1F
100
AcDbEntity
  8
0
  6
Continuous
 62
     7
370
     0
100
AcDbBlockReference
  2
SW_CENTERMARKSYMBOL_1
 10
7.0329692524
 20
8.1055816918
 30
0.0
  0
INSERT
  5
212
330
1F
100
AcDbEntity
  8
0
  6
Continuous
 62
     7
370
     0
100
AcDbBlockReference
  2
SW_CENTERMARKSYMBOL_2
 10
2.7416306698
 20
8.1055816918
 30
0.0
  0
INSERT
  5
21E
330
1F
100
AcDbEntity
  8
0
  6
Continuous
 62
     7
370
     0
100
AcDbBlockReference
  2
SW_CENTERMARKSYMBOL_3
 10
7.3479298824
 20
8.1055816918
 30
0.0
  0
INSERT
  5
22A
330
1F
100
AcDbEntity
  8
0
  6
Continuous
 62
     7
370
     0
100
AcDbBlockReference
  2
SW_CENTERMARKSYMBOL_4
 10
6.4621031107
 20
9.0701486209
 30
0.0
  0
INSERT
  5
236
330
1F
100
AcDbEntity
  8
0
  6
Continuous
 62
     7
370
     0
100
AcDbBlockReference
  2
SW_CENTERMARKSYMBOL_5
 10
3.6274574414
 20
9.0701486209
 30
0.0
  0
INSERT
  5
242
330
1F
100
AcDbEntity
  8
0
  6
Continuous
 62
     7
370
     0
100
AcDbBlockReference
  2
SW_CENTERMARKSYMBOL_6
 10
3.6274574414
 20
7.1410147627
 30
0.0
  0
INSERT
  5
24E
330
1F
100
AcDbEntity
  8
0
  6
Continuous
 62
     7
370
     0
100
AcDbBlockReference
  2
SW_CENTERMARKSYMBOL_7
 10
6.4621031107
 20
7.1410147627
 30
0.0
  0
LINE
  5
24F
330
1F
100
AcDbEntity
  8
0
  6
PHANTOM
 62
     7
370
    30
100
AcDbLine
 10
2.3719142142
 20
8.1159826191
 30
0.0
 11
7.7059355383
 21
8.1159826191
 31
0.0
  0
LINE
  5
250
330
1F
100
AcDbEntity
  8
0
  6
Continuous
 62
     7
370
    30
100
AcDbLine
 10
2.3719142142
 20
8.1159826191
 30
0.0
 11
2.3719142142
 21
8.6784826191
 31
0.0
  0
SOLID
  5
251
330
1F
100
AcDbEntity
  8
0
  6
Continuous
 62
     7
370
    30
100
AcDbTrace
 10
2.3719142142
 20
8.6784826191
 30
0.0
 11
2.3269142142
 21
8.3972326191
 31
0.0
 12
2.4169142142
 22
8.3972326191
 32
0.0
 13
2.4169142142
 23
8.3972326191
 33
0.0
  0
LINE
  5
252
330
1F
100
AcDbEntity
  8
0
  6
Continuous
 62
     7
370
    30
100
AcDbLine
 10
7.7059355383
 20
8.1159826191
 30
0.0
 11
7.7059355383
 21
8.6784826191
 31
0.0
  0
SOLID
  5
253
330
1F
100
AcDbEntity
  8
0
  6
Continuous
 62
     7
370
    30
100
AcDbTrace
 10
7.7059355383
 20
8.6784826191
 30
0.0
 11
7.6609355383
 21
8.3972326191
 31
0.0
 12
7.7509355383
 22
8.3972326191
 32
0.0
 13
7.7509355383
 23
8.3972326191
 33
0.0
  0
MTEXT
  5
254
330
1F
100
AcDbEntity
  8
0
  6
Continuous
 62
     7
100
AcDbMText
 10
2.3025892981
 20
8.9056593809
 30
0.0
 40
0.140625
 41
0.0
 71
     1
 72
     1
  1
A
  7
SLDTEXTSTYLE0
 73
     1
 44
1.0
  0
MTEXT
  5
255
330
1F
100
AcDbEntity
  8
0
  6
Continuous
 62
     7
100
AcDbMText
 10
7.6366106222
 20
8.9056593809
 30
0.0
 40
0.140625
 41
0.0
 71
     1
 72
     1
  1
A
  7
SLDTEXTSTYLE0
 73
     1
 44
1.0
  0
LINE
  5
256
330
1F
100
AcDbEntity
  8
0
  6
Continuous
 62
     7
370
    15
100
AcDbLine
 10
15.3818878858
 20
1.1383237458
 30
0.0
 11
15.3787956771
 21
1.28296442
 31
0.0
  0
LINE
  5
257
330
1F
100
AcDbEntity
  8
0
  6
Continuous
 62
     7
370
    15
100
AcDbLine
 10
15.1723978516
 20
1.28296442
 30
0.0
 11
15.1694255343
 21
1.143931543
 31
0.0
  0
ARC
  5
258
330
1F
100
AcDbEntity
  8
0
  6
Continuous
 62
     7
370
    15
100
AcDbCircle
 10
17.2532362906
 20
1.6004981049
 30
0.0
 40
0.0842471217342777
100
AcDbArc
 50
358.6916709129
 51
48.9578500814
  0
LINE
  5
259
330
1F
100
AcDbEntity
  8
0
  6
Continuous
 62
     7
370
    15
100
AcDbLine
 10
17.3379741494
 20
1.5113479818
 30
0.0
 11
17.3379741494
 21
1.5981456279
 31
0.0
  0
LINE
  5
25A
330
1F
100
AcDbEntity
  8
0
  6
Continuous
 62
     7
370
    15
100
AcDbLine
 10
17.3086061237
 20
1.6641121009
 30
0.0
 11
17.1699518384
 21
1.8027514537
 31
0.0
  0
LINE
  5
25B
330
1F
100
AcDbEntity
  8
0
  6
Continuous
 62
     7
370
    15
100
AcDbLine
 10
17.140220265
 20
1.9605956116
 30
0.0
 11
17.140220265
 21
1.9895281648
 31
0.0
  0
LINE
  5
25C
330
1F
100
AcDbEntity
  8
0
  6
Continuous
 62
     7
370
    15
100
AcDbLine
 10
17.1700295881
 20
1.8020058715
 30
0.0
 11
17.1597438489
 21
1.9621511401
 31
0.0
  0
LINE
  5
25D
330
1F
100
AcDbEntity
  8
0
  6
Continuous
 62
     7
370
    15
100
AcDbLine
 10
16.6095811234
 20
1.847055966
 30
0.0
 11
16.6064889613
 21
1.9916966672
 31
0.0
  0
LINE
  5
25E
330
1F
100
AcDbEntity
  8
0
  6
Continuous
 62
     7
370
    15
100
AcDbLine
 10
16.4000911358
 20
1.9916966672
 30
0.0
 11
16.3969989271
 21
1.8470559391
 31
0.0
  0
LINE
  5
25F
330
1F
100
AcDbEntity
  8
0
  6
Continuous
 62
     7
370
    15
100
AcDbLine
 10
13.5779305059
 20
2.1797261743
 30
0.0
 11
13.5748382039
 21
2.3243669024
 31
0.0
  0
LINE
  5
260
330
1F
100
AcDbEntity
  8
0
  6
Continuous
 62
     7
370
    15
100
AcDbLine
 10
13.3684403784
 20
2.3243669024
 30
0.0
 11
13.3654680611
 21
2.1853340254
 31
0.0
  0
LINE
  5
261
330
1F
100
AcDbEntity
  8
0
  6
Continuous
 62
     7
370
    15
100
AcDbLine
 10
12.8151855375
 20
2.4597101165
 30
0.0
 11
12.805180556
 21
2.3039360345
 31
0.0
  0
LINE
  5
262
330
1F
100
AcDbEntity
  8
0
  6
Continuous
 62
     7
370
    15
100
AcDbLine
 10
12.8347091213
 20
2.4870871412
 30
0.0
 11
12.8347091213
 21
2.458154588
 31
0.0
  0
ARC
  5
263
330
1F
100
AcDbEntity
  8
0
  6
Continuous
 62
     7
370
    15
100
AcDbCircle
 10
12.7389366355
 20
2.469490998
 30
0.0
 40
0.1015288414285097
100
AcDbArc
 50
114.7157469714
 51
178.027770368
  0
LINE
  5
264
330
1F
100
AcDbEntity
  8
0
  6
Continuous
 62
     7
370
    15
100
AcDbLine
 10
12.636955237
 20
2.4734140142
 30
0.0
 11
12.636955237
 21
2.3866163681
 31
0.0
  0
LINE
  5
265
330
1F
100
AcDbEntity
  8
0
  6
Continuous
 62
     7
370
    15
100
AcDbLine
 10
14.1114428876
 20
3.3789671745
 30
0.0
 11
12.6961855545
 21
2.5619565066
 31
0.0
  0
LINE
  5
266
330
1F
100
AcDbEntity
  8
0
  6
Continuous
 62
     7
370
    15
100
AcDbLine
 10
14.8056237435
 20
2.8884583946
 30
0.0
 11
14.8025314881
 21
3.0330991496
 31
0.0
  0
LINE
  5
267
330
1F
100
AcDbEntity
  8
0
  6
Continuous
 62
     7
370
    15
100
AcDbLine
 10
14.5961336626
 20
3.0330991496
 30
0.0
 11
14.5930414539
 21
2.8884584215
 31
0.0
  0
LINE
  5
268
330
1F
100
AcDbEntity
  8
0
  6
Continuous
 62
     7
370
    15
100
AcDbLine
 10
14.3582296471
 20
3.3793060411
 30
0.0
 11
14.3114479208
 21
3.3948982354
 31
0.0
  0
ARC
  5
269
330
1F
100
AcDbEntity
  8
0
  6
Continuous
 62
     7
370
    15
100
AcDbCircle
 10
14.2224295214
 20
3.1824276828
 30
0.0
 40
0.2253575119062981
100
AcDbArc
 50
88.2331380827
 51
119.4168145394
  0
ARC
  5
26A
330
1F
100
AcDbEntity
  8
0
  6
Continuous
 62
     7
370
    15
100
AcDbCircle
 10
14.2313549965
 20
3.1532658006
 30
0.0
 40
0.2544199323914184
100
AcDbArc
 50
71.6769822339
 51
90.4452508614
  0
LINE
  5
26B
330
1F
100
AcDbEntity
  8
0
  6
Continuous
 62
     7
370
    15
100
AcDbLine
 10
14.6976036938
 20
3.6161097704
 30
0.0
 11
14.6963526978
 21
3.6154632488
 31
0.0
  0
LINE
  5
26C
330
1F
100
AcDbEntity
  8
0
  6
Continuous
 62
     7
370
    15
100
AcDbLine
 10
14.7126197531
 20
3.5839849698
 30
0.0
 11
14.7138707491
 21
3.5846314914
 31
0.0
  0
ARC
  5
26D
330
1F
100
AcDbEntity
  8
0
  6
Continuous
 62
     7
370
    15
100
AcDbCircle
 10
17.0338938
 20
4.8627743993
 30
0.0
 40
0.0616284422060797
100
AcDbArc
 50
1.1820588322
 51
64.6820615595
  0
LINE
  5
26E
330
1F
100
AcDbEntity
  8
0
  6
Continuous
 62
     7
370
    15
100
AcDbLine
 10
17.157896896
 20
4.1799245796
 30
0.0
 11
17.0957946451
 21
4.8641107973
 31
0.0
  0
LINE
  5
26F
330
1F
100
AcDbEntity
  8
0
  6
Continuous
 62
     7
370
    15
100
AcDbLine
 10
17.0606488714
 20
4.9190782751
 30
0.0
 11
14.5919495508
 21
6.3442280577
 31
0.0
  0
LINE
  5
270
330
1F
100
AcDbEntity
  8
0
  6
Continuous
 62
     7
370
    15
100
AcDbLine
 10
17.1154172595
 20
4.1343910134
 30
0.0
 11
17.1154172595
 21
4.1362981106
 31
0.0
  0
LINE
  5
271
330
1F
100
AcDbEntity
  8
0
  6
Continuous
 62
     7
370
    15
100
AcDbLine
 10
13.4949653784
 20
4.310378092
 30
0.0
 11
13.4937143823
 21
4.3097315704
 31
0.0
  0
LINE
  5
272
330
1F
100
AcDbEntity
  8
0
  6
Continuous
 62
     7
370
    15
100
AcDbLine
 10
13.5099814376
 20
4.2782532914
 30
0.0
 11
13.5112324337
 21
4.278899813
 31
0.0
  0
ARC
  5
273
330
1F
100
AcDbEntity
  8
0
  6
Continuous
 62
     7
370
    15
100
AcDbCircle
 10
12.9492000855
 20
5.355664636
 30
0.0
 40
0.0702235082942669
100
AcDbArc
 50
119.8072541625
 51
150.0778075485
  0
ARC
  5
274
330
1F
100
AcDbEntity
  8
0
  6
Continuous
 62
     7
370
    15
100
AcDbCircle
 10
12.937632904
 20
5.3591374942
 30
0.0
 40
0.0585309586858201
100
AcDbArc
 50
147.375007459
 51
177.7316760186
  0
LINE
  5
275
330
1F
100
AcDbEntity
  8
0
  6
Continuous
 62
     7
370
    15
100
AcDbLine
 10
12.8791346479
 20
5.3616697198
 30
0.0
 11
12.8170324904
 21
4.677483556
 31
0.0
  0
LINE
  5
276
330
1F
100
AcDbEntity
  8
0
  6
Continuous
 62
     7
370
    15
100
AcDbLine
 10
14.5210891143
 20
6.3442280038
 30
0.0
 11
12.9142806083
 21
5.4166371976
 31
0.0
  0
LINE
  5
277
330
1F
100
AcDbEntity
  8
0
  6
Continuous
 62
     7
370
    15
100
AcDbLine
 10
12.8595121269
 20
4.633857087
 30
0.0
 11
12.8595121269
 21
4.6319499898
 31
0.0
  0
ARC
  5
278
330
1F
100
AcDbEntity
  8
0
  6
Continuous
 62
     7
370
    15
100
AcDbCircle
 10
14.5559028334
 20
6.2897629227
 30
0.0
 40
0.0645994918187502
100
AcDbArc
 50
56.4772205957
 51
122.630635869
  0
ARC
  5
279
330
1F
100
AcDbEntity
  8
0
  6
Continuous
 62
     7
370
    15
100
AcDbCircle
 10
15.7447096229
 20
0.9499007837
 30
0.0
 40
0.2220233904055509
100
AcDbArc
 50
251.6155577949
 51
297.0768322261
  0
ARC
  5
27A
330
1F
100
AcDbEntity
  8
0
  6
Continuous
 62
     7
370
    15
100
AcDbCircle
 10
15.8164285568
 20
0.7063397428
 30
0.0
 40
0.0544540799680472
100
AcDbArc
 50
2.6056765179
 51
57.3943852468
  0
ARC
  5
27B
330
1F
100
AcDbEntity
  8
0
  6
Continuous
 62
     7
370
    15
100
AcDbCircle
 10
15.7444845935
 20
0.9561186496
 30
0.0
 40
0.2777069796599308
100
AcDbArc
 50
251.6309008242
 51
297.0614741804
  0
ARC
  5
27C
330
1F
100
AcDbEntity
  8
0
  6
Continuous
 62
     7
370
    15
100
AcDbCircle
 10
15.7304592829
 20
0.691338216
 30
0.0
 40
0.0735006884057663
100
AcDbArc
 50
139.3604368042
 51
179.0460447681
  0
LINE
  5
27D
330
1F
100
AcDbEntity
  8
0
  6
Continuous
 62
     7
370
    15
100
AcDbLine
 10
17.2835525083
 20
1.6679883272
 30
0.0
 11
17.15867374
 21
1.7928535827
 31
0.0
  0
ARC
  5
27E
330
1F
100
AcDbEntity
  8
0
  6
Continuous
 62
     7
370
    15
100
AcDbCircle
 10
17.2415328907
 20
1.6256198041
 30
0.0
 40
0.0596719365973699
100
AcDbArc
 50
289.0695562067
 51
45.2368898657
  0
LINE
  5
27F
330
1F
100
AcDbEntity
  8
0
  6
Continuous
 62
     7
370
    15
100
AcDbLine
 10
15.8457713196
 20
0.7522118378
 30
0.0
 11
17.2610286527
 21
1.5692225056
 31
0.0
  0
LINE
  5
280
330
1F
100
AcDbEntity
  8
0
  6
Continuous
 62
     7
370
    15
100
AcDbLine
 10
15.4583889582
 20
0.8113000712
 30
0.0
 11
15.674685361
 21
0.7392090927
 31
0.0
  0
ARC
  5
281
330
1F
100
AcDbEntity
  8
0
  6
Continuous
 62
     7
370
    15
100
AcDbCircle
 10
15.4302519732
 20
0.9003369131
 30
0.0
 40
0.0933769197440349
100
AcDbArc
 50
287.537321901
 51
299.6167162235
  0
LINE
  5
282
330
1F
100
AcDbEntity
  8
0
  6
Continuous
 62
     7
370
    15
100
AcDbLine
 10
17.145059136
 20
1.7824569366
 30
0.0
 11
15.476398429
 21
0.8191596147
 31
0.0
  0
ARC
  5
283
330
1F
100
AcDbEntity
  8
0
  6
Continuous
 62
     7
370
    15
100
AcDbCircle
 10
17.1146095002
 20
1.8364439214
 30
0.0
 40
0.0619820526379129
100
AcDbArc
 50
299.4237844012
 51
315.3097644047
  0
LWPOLYLINE
  5
284
330
1F
100
AcDbEntity
  8
0
  6
Continuous
 62
     7
370
    15
100
AcDbPolyline
 90
       22
 70
   128
 43
0.0
 10
16.5095537791
 20
1.2511167
 10
16.523665671
 20
1.2400784165
 10
16.5315146491
 20
1.2271292507
 10
16.5324032846
 20
1.213419797
 10
16.5262525035
 20
1.2001682706
 10
16.5136089659
 20
1.1885520452
 10
16.4955960785
 20
1.179603292
 10
16.4738143237
 20
1.1741171708
 10
16.45019916
 20
1.1725811141
 10
16.4268488052
 20
1.1751316603
 10
16.4058381935
 20
1.181542103
 10
16.389034077
 20
1.191242913
 10
16.3779295679
 20
1.2033721348
 10
16.3735115069
 20
1.2168519539
 10
16.3761722302
 20
1.2304847516
 10
16.3856755005
 20
1.243059091
 10
16.4011768754
 20
1.2534577095
 10
16.4212989482
 20
1.2607566684
 10
16.4442538458
 20
1.2643073849
 10
16.4680017959
 20
1.2637944404
 10
16.4904328395
 20
1.2592633218
 10
16.5095537791
 20
1.2511167
  0
LINE
  5
285
330
1F
100
AcDbEntity
  8
0
  6
Continuous
 62
     7
370
    15
100
AcDbLine
 10
15.8708263351
 20
0.6220176859
 30
0.0
 11
15.8708263351
 21
0.708815332
 31
0.0
  0
ARC
  5
286
330
1F
100
AcDbEntity
  8
0
  6
Continuous
 62
     7
370
    15
100
AcDbCircle
 10
15.7444845935
 20
0.8693210035
 30
0.0
 40
0.2777069796599243
100
AcDbArc
 50
251.6309008242
 51
297.0614741804
  0
LINE
  5
287
330
1F
100
AcDbEntity
  8
0
  6
Continuous
 62
     7
370
    15
100
AcDbLine
 10
15.6569687818
 20
0.6925619209
 30
0.0
 11
15.6569687818
 21
0.6057642748
 31
0.0
  0
LINE
  5
288
330
1F
100
AcDbEntity
  8
0
  6
Continuous
 62
     7
370
    15
100
AcDbLine
 10
15.4075420315
 20
0.7756685951
 30
0.0
 11
15.6569687818
 21
0.6925619209
 31
0.0
  0
LWPOLYLINE
  5
289
330
1F
100
AcDbEntity
  8
0
  6
Continuous
 62
     7
370
    15
100
AcDbPolyline
 90
        7
 70
   128
 43
0.0
 10
15.4075383914
 20
0.7756693561
 10
15.4078104688
 20
0.7797445446
 10
15.4095844321
 20
0.7834241905
 10
15.4153805676
 20
0.789346162
 10
15.4306920385
 20
0.79905059
 10
15.4488841698
 20
0.8077556823
 10
15.4583889582
 20
0.8113000712
  0
LINE
  5
28A
330
1F
100
AcDbEntity
  8
0
  6
Continuous
 62
     7
370
    15
100
AcDbLine
 10
15.4184101004
 20
0.6852752249
 30
0.0
 11
15.4075382981
 21
0.77566941
 31
0.0
  0
LINE
  5
28B
330
1F
100
AcDbEntity
  8
0
  6
Continuous
 62
     7
370
    15
100
AcDbLine
 10
15.4184101004
 20
0.6852752249
 30
0.0
 11
15.6569687818
 21
0.6057642748
 31
0.0
  0
LINE
  5
28C
330
1F
100
AcDbEntity
  8
0
  6
Continuous
 62
     7
370
    15
100
AcDbLine
 10
15.3669870977
 20
0.9676124222
 30
0.0
 11
15.355169418
 21
0.700397296
 31
0.0
  0
ARC
  5
28D
330
1F
100
AcDbEntity
  8
0
  6
Continuous
 62
     7
370
    15
100
AcDbCircle
 10
15.4184101004
 20
1.0668589033
 30
0.0
 40
0.111777409238221
100
AcDbArc
 50
242.6097782577
 51
297.3902217423
  0
LINE
  5
28E
330
1F
100
AcDbEntity
  8
0
  6
Continuous
 62
     7
370
    15
100
AcDbLine
 10
15.476398429
 20
0.8191596147
 30
0.0
 11
15.4698331032
 21
0.9676124222
 31
0.0
  0
ARC
  5
28F
330
1F
100
AcDbEntity
  8
0
  6
Continuous
 62
     7
370
    15
100
AcDbCircle
 10
15.4158332805
 20
0.8142966144
 30
0.0
 40
0.1290471190346811
100
AcDbArc
 50
241.9598097152
 51
271.1441612884
  0
LINE
  5
290
330
1F
100
AcDbEntity
  8
0
  6
Continuous
 62
     7
370
    15
100
AcDbLine
 10
15.3669870977
 20
0.9676124222
 30
0.0
 11
12.8364355761
 21
2.4284687204
 31
0.0
  0
ARC
  5
291
330
1F
100
AcDbEntity
  8
0
  6
Continuous
 62
     7
370
    15
100
AcDbCircle
 10
12.8474213547
 20
2.4579895463
 30
0.0
 40
0.0314986744134583
100
AcDbArc
 50
113.8023554118
 51
249.5879261804
  0
ARC
  5
292
330
1F
100
AcDbEntity
  8
0
  6
Continuous
 62
     7
370
    15
100
AcDbCircle
 10
17.1275080317
 20
1.9604305699
 30
0.0
 40
0.0314986744134584
100
AcDbArc
 50
290.4120738196
 51
66.1976445882
  0
LINE
  5
293
330
1F
100
AcDbEntity
  8
0
  6
Continuous
 62
     7
370
    15
100
AcDbLine
 10
15.4698331032
 20
0.9676124222
 30
0.0
 11
17.1384938102
 21
1.930909744
 31
0.0
  0
ARC
  5
294
330
1F
100
AcDbEntity
  8
0
  6
Continuous
 62
     7
370
    15
100
AcDbCircle
 10
12.8613077242
 20
2.4608066828
 30
0.0
 40
0.0267304935060574
100
AcDbArc
 50
185.694030742
 51
245.6256762359
  0
LINE
  5
295
330
1F
100
AcDbEntity
  8
0
  6
Continuous
 62
     7
370
    15
100
AcDbLine
 10
15.3808276706
 20
0.9756024149
 30
0.0
 11
12.850276149
 21
2.4364587131
 31
0.0
  0
ARC
  5
296
330
1F
100
AcDbEntity
  8
0
  6
Continuous
 62
     7
370
    15
100
AcDbCircle
 10
15.4184101004
 20
1.0481365248
 30
0.0
 40
0.0816923260614544
100
AcDbArc
 50
242.6097645815
 51
297.3902354185
  0
LINE
  5
297
330
1F
100
AcDbEntity
  8
0
  6
Continuous
 62
     7
370
    15
100
AcDbLine
 10
17.1246532373
 20
1.9388997367
 30
0.0
 11
15.4559925303
 21
0.9756024149
 31
0.0
  0
ARC
  5
298
330
1F
100
AcDbEntity
  8
0
  6
Continuous
 62
     7
370
    15
100
AcDbCircle
 10
17.113621401
 20
1.9632478938
 30
0.0
 40
0.0267307719168246
100
AcDbArc
 50
294.3746678266
 51
354.3056251956
  0
LINE
  5
299
330
1F
100
AcDbEntity
  8
0
  6
Continuous
 62
     7
370
    15
100
AcDbLine
 10
15.3808276706
 20
0.9756024149
 30
0.0
 11
15.3808276706
 21
1.004534968
 31
0.0
  0
ARC
  5
29A
330
1F
100
AcDbEntity
  8
0
  6
Continuous
 62
     7
370
    15
100
AcDbCircle
 10
15.4184101004
 20
1.077069078
 30
0.0
 40
0.0816923260614545
100
AcDbArc
 50
242.6097645815
 51
297.3902354185
  0
LINE
  5
29B
330
1F
100
AcDbEntity
  8
0
  6
Continuous
 62
     7
370
    15
100
AcDbLine
 10
15.4559925303
 20
0.9756024149
 30
0.0
 11
15.4559925303
 21
1.004534968
 31
0.0
  0
LINE
  5
29C
330
1F
100
AcDbEntity
  8
0
  6
Continuous
 62
     7
370
    15
100
AcDbLine
 10
12.8653091956
 20
2.5001046231
 30
0.0
 11
14.5339699027
 21
3.4634019449
 31
0.0
  0
ARC
  5
29D
330
1F
100
AcDbEntity
  8
0
  6
Continuous
 62
     7
370
    15
100
AcDbCircle
 10
12.870249722
 20
2.4870870965
 30
0.0
 40
0.0139235339351353
100
AcDbArc
 50
110.7831966453
 51
249.2163925375
  0
LINE
  5
29E
330
1F
100
AcDbEntity
  8
0
  6
Continuous
 62
     7
370
    15
100
AcDbLine
 10
15.3958606239
 20
1.0132133072
 30
0.0
 11
12.8653091023
 21
2.4740696054
 31
0.0
  0
ARC
  5
29F
330
1F
100
AcDbEntity
  8
0
  6
Continuous
 62
     7
370
    15
100
AcDbCircle
 10
15.4184100018
 20
1.0567335499
 30
0.0
 40
0.0490151605236046
100
AcDbArc
 50
242.6097274999
 51
297.3904094095
  0
LINE
  5
2A0
330
1F
100
AcDbEntity
  8
0
  6
Continuous
 62
     7
370
    15
100
AcDbLine
 10
17.1096201907
 20
1.9765106829
 30
0.0
 11
15.4409594837
 21
1.0132133611
 31
0.0
  0
ARC
  5
2A1
330
1F
100
AcDbEntity
  8
0
  6
Continuous
 62
     7
370
    15
100
AcDbCircle
 10
17.1046796644
 20
1.9895282095
 30
0.0
 40
0.0139235339351337
100
AcDbArc
 50
290.7831966452
 51
69.2163925375
  0
LINE
  5
2A2
330
1F
100
AcDbEntity
  8
0
  6
Continuous
 62
     7
370
    15
100
AcDbLine
 10
14.5790687625
 20
3.4634019988
 30
0.0
 11
17.1096202841
 21
2.0025457006
 31
0.0
  0
ARC
  5
2A3
330
1F
100
AcDbEntity
  8
0
  6
Continuous
 62
     7
370
    15
100
AcDbCircle
 10
14.5565193846
 20
3.4198817561
 30
0.0
 40
0.0490151605236171
100
AcDbArc
 50
62.6097274999
 51
117.3904094095
  0
ARC
  5
2A4
330
1F
100
AcDbEntity
  8
0
  6
Continuous
 62
     7
370
    15
100
AcDbCircle
 10
12.858510543
 20
2.4870871412
 30
0.0
 40
0.0232059525530229
100
AcDbArc
 50
110.783622228
 51
249.216377772
  0
LINE
  5
2A5
330
1F
100
AcDbEntity
  8
0
  6
Continuous
 62
     7
370
    15
100
AcDbLine
 10
12.850276149
 20
2.5087830161
 30
0.0
 11
14.5189368561
 21
3.472080338
 31
0.0
  0
ARC
  5
2A6
330
1F
100
AcDbEntity
  8
0
  6
Continuous
 62
     7
370
    15
100
AcDbCircle
 10
14.5565192859
 20
3.399546228
 30
0.0
 40
0.081692326061464
100
AcDbArc
 50
62.6097645815
 51
117.3902354185
  0
LINE
  5
2A7
330
1F
100
AcDbEntity
  8
0
  6
Continuous
 62
     7
370
    15
100
AcDbLine
 10
14.5941017158
 20
3.472080338
 30
0.0
 11
17.1246532373
 21
2.0112240398
 31
0.0
  0
ARC
  5
2A8
330
1F
100
AcDbEntity
  8
0
  6
Continuous
 62
     7
370
    15
100
AcDbCircle
 10
17.1164188434
 20
1.9895281648
 30
0.0
 40
0.0232059525530235
100
AcDbArc
 50
290.783622228
 51
69.216377772
  0
LINE
  5
2A9
330
1F
100
AcDbEntity
  8
0
  6
Continuous
 62
     7
370
    15
100
AcDbLine
 10
17.1246532373
 20
1.9678322899
 30
0.0
 11
15.4559925303
 21
1.004534968
 31
0.0
  0
LINE
  5
2AA
330
1F
100
AcDbEntity
  8
0
  6
Continuous
 62
     7
370
    15
100
AcDbLine
 10
15.3808276706
 20
1.004534968
 30
0.0
 11
12.850276149
 21
2.4653912662
 31
0.0
  0
ARC
  5
2AB
330
1F
100
AcDbEntity
  8
0
  6
Continuous
 62
     7
370
    15
100
AcDbCircle
 10
17.2316858899
 20
1.5233504107
 30
0.0
 40
0.0544540799680472
100
AcDbArc
 50
2.6056765179
 51
57.3943852468
  0
LINE
  5
2AC
330
1F
100
AcDbEntity
  8
0
  6
Continuous
 62
     7
370
    15
100
AcDbLine
 10
15.8708263351
 20
0.708815332
 30
0.0
 11
17.2860836682
 21
1.5258259999
 31
0.0
  0
LINE
  5
2AD
330
1F
100
AcDbEntity
  8
0
  6
Continuous
 62
     7
370
    15
100
AcDbLine
 10
12.8364355761
 20
2.4284687204
 30
0.0
 11
12.8246178964
 21
2.1612535942
 31
0.0
  0
LINE
  5
2AE
330
1F
100
AcDbEntity
  8
0
  6
Continuous
 62
     7
370
    15
100
AcDbLine
 10
12.8246178964
 20
2.1612535942
 30
0.0
 11
15.355169418
 21
0.700397296
 31
0.0
  0
LINE
  5
2AF
330
1F
100
AcDbEntity
  8
0
  6
Continuous
 62
     7
370
    15
100
AcDbLine
 10
12.850276149
 20
2.4364587131
 30
0.0
 11
12.850276149
 21
2.4653912662
 31
0.0
  0
LINE
  5
2B0
330
1F
100
AcDbEntity
  8
0
  6
Continuous
 62
     7
370
    15
100
AcDbLine
 10
17.1246532373
 20
1.9678322899
 30
0.0
 11
17.1246532373
 21
1.9388997367
 31
0.0
  0
LINE
  5
2B1
330
1F
100
AcDbEntity
  8
0
  6
Continuous
 62
     7
370
    15
100
AcDbLine
 10
17.1384938102
 20
1.930909744
 30
0.0
 11
17.145059136
 21
1.7824569366
 31
0.0
  0
LINE
  5
2B2
330
1F
100
AcDbEntity
  8
0
  6
Continuous
 62
     7
370
    15
100
AcDbLine
 10
17.2860836682
 20
1.5258259999
 30
0.0
 11
17.2860836682
 21
1.4390283538
 31
0.0
  0
LINE
  5
2B3
330
1F
100
AcDbEntity
  8
0
  6
Continuous
 62
     7
370
    15
100
AcDbLine
 10
15.8708263351
 20
0.6220176859
 30
0.0
 11
17.2860836682
 21
1.4390283538
 31
0.0
  0
LINE
  5
2B4
330
1F
100
AcDbEntity
  8
0
  6
Continuous
 62
     7
370
    15
100
AcDbLine
 10
16.6165732793
 20
2.2096820872
 30
0.0
 11
17.0650510185
 21
1.9507813992
 31
0.0
  0
LINE
  5
2B5
330
1F
100
AcDbEntity
  8
0
  6
Continuous
 62
     7
370
    15
100
AcDbLine
 10
16.6461034314
 20
2.2267294811
 30
0.0
 11
16.6165732793
 21
2.2096820872
 31
0.0
  0
LINE
  5
2B6
330
1F
100
AcDbEntity
  8
0
  6
Continuous
 62
     7
370
    15
100
AcDbLine
 10
17.0945811706
 20
1.9678287931
 30
0.0
 11
16.6461034314
 21
2.2267294811
 31
0.0
  0
LINE
  5
2B7
330
1F
100
AcDbEntity
  8
0
  6
Continuous
 62
     7
370
    15
100
AcDbLine
 10
14.5565192859
 20
3.2070998038
 30
0.0
 11
16.8989067416
 21
1.8548683087
 31
0.0
  0
LINE
  5
2B8
330
1F
100
AcDbEntity
  8
0
  6
Continuous
 62
     7
370
    15
100
AcDbLine
 10
13.0760226914
 20
2.352427312
 30
0.0
 11
14.5565192859
 21
3.2070998038
 31
0.0
  0
LWPOLYLINE
  5
2B9
330
1F
100
AcDbEntity
  8
0
  6
Continuous
 62
     7
370
    15
100
AcDbPolyline
 90
       15
 70
   128
 43
0.0
 10
14.8056237435
 20
2.8884583946
 10
14.8056318172
 20
2.8877011595
 10
14.8020097342
 20
2.8718186742
 10
14.7913904551
 20
2.857018523
 10
14.7744974818
 20
2.8443093557
 10
14.7524822196
 20
2.8345572767
 10
14.7268448278
 20
2.8284268974
 10
14.6993325754
 20
2.8263359134
 10
14.6718203696
 20
2.8284268704
 10
14.6461829778
 20
2.8345573036
 10
14.6241677623
 20
2.8443093557
 10
14.607274789
 20
2.857018523
 10
14.5966554166
 20
2.8718186742
 10
14.5930333803
 20
2.8877011325
 10
14.5930414539
 20
2.8884584215
  0
LWPOLYLINE
  5
2BA
330
1F
100
AcDbEntity
  8
0
  6
Continuous
 62
     7
370
    15
100
AcDbPolyline
 90
        8
 70
   128
 43
0.0
 10
15.3818878858
 20
1.1383237458
 10
15.3818960061
 20
1.1375664299
 10
15.3782739231
 20
1.1216839446
 10
15.3676546441
 20
1.1068837933
 10
15.3507617174
 20
1.094174653
 10
15.3287464085
 20
1.0844225471
 10
15.3031090168
 20
1.0782921678
 10
15.2862187035
 20
1.076508313
  0
LWPOLYLINE
  5
2BB
330
1F
100
AcDbEntity
  8
0
  6
Continuous
 62
     7
370
    15
100
AcDbPolyline
 90
        8
 70
   128
 43
0.0
 10
13.5779305059
 20
2.1797261743
 10
13.5779385329
 20
2.1789689123
 10
13.5743164499
 20
2.163086427
 10
13.5636971709
 20
2.1482862757
 10
13.5468042442
 20
2.1355771354
 10
13.5247889353
 20
2.1258250295
 10
13.4991515436
 20
2.1196946502
 10
13.4822612303
 20
2.1179107954
  0
LWPOLYLINE
  5
2BC
330
1F
100
AcDbEntity
  8
0
  6
Continuous
 62
     7
370
    15
100
AcDbPolyline
 90
       15
 70
   128
 43
0.0
 10
16.6095811234
 20
1.847055966
 10
16.6095892903
 20
1.8462986771
 10
16.6059672074
 20
1.8304161918
 10
16.5953479283
 20
1.8156160406
 10
16.578454955
 20
1.8029068733
 10
16.5564396928
 20
1.7931547943
 10
16.530802301
 20
1.787024415
 10
16.5032900486
 20
1.784933431
 10
16.4757778428
 20
1.787024388
 10
16.450140451
 20
1.7931548212
 10
16.4281251422
 20
1.8029069272
 10
16.4112322622
 20
1.8156160406
 10
16.4006128898
 20
1.8304161918
 10
16.3969908535
 20
1.8462986501
 10
16.3969989271
 20
1.8470559391
  0
LWPOLYLINE
  5
2BD
330
1F
100
AcDbEntity
  8
0
  6
Continuous
 62
     7
370
    15
100
AcDbPolyline
 90
       25
 70
   128
 43
0.0
 10
15.3485749711
 20
1.3243586178
 10
15.3649764317
 20
1.312019191
 10
15.3752869053
 20
1.2976495864
 10
15.378803564
 20
1.2822291689
 10
15.3752868586
 20
1.2668087245
 10
15.3649764784
 20
1.2524391737
 10
15.3485750177
 20
1.2400997469
 10
15.3272001875
 20
1.2306313852
 10
15.3023086518
 20
1.2246793024
 10
15.2755967643
 20
1.2226491516
 10
15.2488849235
 20
1.2246792755
 10
15.2239933411
 20
1.2306313852
 10
15.2026185576
 20
1.2400997738
 10
15.1862170503
 20
1.2524391737
 10
15.1759066701
 20
1.2668087245
 10
15.1723900113
 20
1.2822291419
 10
15.1759067167
 20
1.2976495864
 10
15.1862171436
 20
1.3120191641
 10
15.2026186042
 20
1.3243585909
 10
15.2239934345
 20
1.3338269526
 10
15.2488849235
 20
1.3397790084
 10
15.275596811
 20
1.3418091592
 10
15.3023086518
 20
1.3397790353
 10
15.3272001408
 20
1.3338269795
 10
15.3485749711
 20
1.3243586178
  0
LWPOLYLINE
  5
2BE
330
1F
100
AcDbEntity
  8
0
  6
Continuous
 62
     7
370
    15
100
AcDbPolyline
 90
       17
 70
   128
 43
0.0
 10
15.2483550959
 20
1.2665029154
 10
15.2400038596
 20
1.2737181881
 10
15.2370713039
 20
1.2822291689
 10
15.2400038596
 20
1.2907401496
 10
15.2483551426
 20
1.2979554493
 10
15.2608537158
 20
1.3027765154
 10
15.275596811
 20
1.3044694707
 10
15.2903398595
 20
1.3027765423
 10
15.3028383861
 20
1.2979554493
 10
15.3111897623
 20
1.2907401496
 10
15.3141223181
 20
1.2822291689
 10
15.3111897157
 20
1.2737181612
 10
15.3028384794
 20
1.2665028884
 10
15.2903398595
 20
1.2616817954
 10
15.275596811
 20
1.259988867
 10
15.2608537625
 20
1.2616817954
 10
15.2483550959
 20
1.2665029154
  0
ARC
  5
2BF
330
1F
100
AcDbEntity
  8
0
  6
Continuous
 62
     7
370
    15
100
AcDbCircle
 10
17.2506368426
 20
1.5192379498
 30
0.0
 40
0.0876929686171577
100
AcDbArc
 50
293.8419530997
 51
354.8379668264
  0
ARC
  5
2C0
330
1F
100
AcDbEntity
  8
0
  6
Continuous
 62
     7
370
    15
100
AcDbCircle
 10
17.1769289443
 20
1.783155839
 30
0.0
 40
0.0206712050807484
100
AcDbArc
 50
110.4312052446
 51
152.0213421583
  0
LINE
  5
2C1
330
1F
100
AcDbEntity
  8
0
  6
Continuous
 62
     7
370
    15
100
AcDbLine
 10
16.6461034314
 20
2.2267294811
 30
0.0
 11
16.2452239773
 21
2.458152264
 31
0.0
  0
LINE
  5
2C2
330
1F
100
AcDbEntity
  8
0
  6
Continuous
 62
     7
370
    15
100
AcDbLine
 10
16.2452239773
 20
2.458152264
 30
0.0
 11
15.4434650692
 21
2.9209978297
 31
0.0
  0
LINE
  5
2C3
330
1F
100
AcDbEntity
  8
0
  6
Continuous
 62
     7
370
    15
100
AcDbLine
 10
15.4434650692
 20
2.9209978297
 30
0.0
 11
15.0425856152
 21
3.1524206125
 31
0.0
  0
LINE
  5
2C4
330
1F
100
AcDbEntity
  8
0
  6
Continuous
 62
     7
370
    15
100
AcDbLine
 10
15.0425856152
 20
3.1524206125
 30
0.0
 11
14.5790687625
 21
3.4200031959
 31
0.0
  0
LINE
  5
2C5
330
1F
100
AcDbEntity
  8
0
  6
Continuous
 62
     7
370
    15
100
AcDbLine
 10
14.5790687625
 20
3.4200031959
 30
0.0
 11
14.5790687625
 21
3.4634019988
 31
0.0
  0
LINE
  5
2C6
330
1F
100
AcDbEntity
  8
0
  6
Continuous
 62
     7
370
    15
100
AcDbLine
 10
14.5565192859
 20
3.3989259438
 30
0.0
 11
14.5565192859
 21
3.2070998038
 31
0.0
  0
LINE
  5
2C7
330
1F
100
AcDbEntity
  8
0
  6
Continuous
 62
     7
370
    15
100
AcDbLine
 10
14.5565192859
 20
3.3989259438
 30
0.0
 11
15.0130554631
 21
3.1353732186
 31
0.0
  0
LINE
  5
2C8
330
1F
100
AcDbEntity
  8
0
  6
Continuous
 62
     7
370
    15
100
AcDbLine
 10
15.0104293328
 20
3.0759920794
 30
0.0
 11
15.0130554631
 21
3.1353732186
 31
0.0
  0
LINE
  5
2C9
330
1F
100
AcDbEntity
  8
0
  6
Continuous
 62
     7
370
    15
100
AcDbLine
 10
15.4113087869
 20
2.8445692966
 30
0.0
 11
15.0104293328
 21
3.0759920794
 31
0.0
  0
LINE
  5
2CA
330
1F
100
AcDbEntity
  8
0
  6
Continuous
 62
     7
370
    15
100
AcDbLine
 10
15.4139349172
 20
2.9039504357
 30
0.0
 11
15.4113087869
 21
2.8445692966
 31
0.0
  0
LINE
  5
2CB
330
1F
100
AcDbEntity
  8
0
  6
Continuous
 62
     7
370
    15
100
AcDbLine
 10
15.4139349172
 20
2.9039504357
 30
0.0
 11
16.2156938253
 21
2.44110487
 31
0.0
  0
LINE
  5
2CC
330
1F
100
AcDbEntity
  8
0
  6
Continuous
 62
     7
370
    15
100
AcDbLine
 10
16.213067695
 20
2.3817237309
 30
0.0
 11
16.2156938253
 21
2.44110487
 31
0.0
  0
LINE
  5
2CD
330
1F
100
AcDbEntity
  8
0
  6
Continuous
 62
     7
370
    15
100
AcDbLine
 10
16.613947149
 20
2.150300948
 30
0.0
 11
16.213067695
 21
2.3817237309
 31
0.0
  0
LINE
  5
2CE
330
1F
100
AcDbEntity
  8
0
  6
Continuous
 62
     7
370
    15
100
AcDbLine
 10
16.6165732793
 20
2.2096820872
 30
0.0
 11
16.613947149
 21
2.150300948
 31
0.0
  0
LWPOLYLINE
  5
2CF
330
1F
100
AcDbEntity
  8
0
  6
Continuous
 62
     7
370
    15
100
AcDbPolyline
 90
       25
 70
   128
 43
0.0
 10
16.5762682087
 20
2.0330908381
 10
16.5926697159
 20
2.0207514382
 10
16.6029801895
 20
2.0063818336
 10
16.6064968483
 20
1.9909614161
 10
16.6029801428
 20
1.9755409717
 10
16.5926697159
 20
1.961171394
 10
16.5762682553
 20
1.9488319671
 10
16.5548934251
 20
1.9393636055
 10
16.5300019361
 20
1.9334115497
 10
16.5032900486
 20
1.9313813988
 10
16.4765782077
 20
1.9334115227
 10
16.4516866254
 20
1.9393636324
 10
16.4303117952
 20
1.9488319941
 10
16.4139103345
 20
1.9611714209
 10
16.4035999543
 20
1.9755409717
 10
16.4000832955
 20
1.9909613892
 10
16.403600001
 20
2.0063818336
 10
16.4139103812
 20
2.0207513843
 10
16.4303118418
 20
2.0330908112
 10
16.4516866721
 20
2.0425591728
 10
16.4765782077
 20
2.0485112556
 10
16.5032900952
 20
2.0505414064
 10
16.5300019361
 20
2.0485112825
 10
16.5548934251
 20
2.0425592267
 10
16.5762682087
 20
2.0330908381
  0
LWPOLYLINE
  5
2D0
330
1F
100
AcDbEntity
  8
0
  6
Continuous
 62
     7
370
    15
100
AcDbPolyline
 90
       17
 70
   128
 43
0.0
 10
16.4760483802
 20
1.9752351626
 10
16.4676970972
 20
1.9824504084
 10
16.4647645415
 20
1.9909613892
 10
16.4676971439
 20
1.9994723968
 10
16.4760483802
 20
2.0066876696
 10
16.4885470001
 20
2.0115087626
 10
16.5032900486
 20
2.013201691
 10
16.5180330971
 20
2.0115087626
 10
16.5305316703
 20
2.0066876965
 10
16.5388829999
 20
1.9994723699
 10
16.5418155557
 20
1.9909613892
 10
16.5388829999
 20
1.9824504084
 10
16.530531717
 20
1.9752351087
 10
16.5180331437
 20
1.9704140427
 10
16.5032900486
 20
1.9687210873
 10
16.4885470001
 20
1.9704140157
 10
16.4760483802
 20
1.9752351626
  0
LINE
  5
2D1
330
1F
100
AcDbEntity
  8
0
  6
Continuous
 62
     7
370
    15
100
AcDbLine
 10
14.5339699027
 20
3.420003142
 30
0.0
 11
12.8803483092
 21
2.4653877156
 31
0.0
  0
ARC
  5
2D2
330
1F
100
AcDbEntity
  8
0
  6
Continuous
 62
     7
370
    15
100
AcDbCircle
 10
14.5565193846
 20
3.3764829533
 30
0.0
 40
0.0490151605236185
100
AcDbArc
 50
62.6097274999
 51
117.3904094095
  0
LINE
  5
2D3
330
1F
100
AcDbEntity
  8
0
  6
Continuous
 62
     7
370
    15
100
AcDbLine
 10
15.0130554631
 20
3.1353732186
 30
0.0
 11
15.0425856152
 21
3.1524206125
 31
0.0
  0
LINE
  5
2D4
330
1F
100
AcDbEntity
  8
0
  6
Continuous
 62
     7
370
    15
100
AcDbLine
 10
12.9098783679
 20
2.4483403756
 30
0.0
 11
14.5565192859
 21
3.3989259438
 31
0.0
  0
LINE
  5
2D5
330
1F
100
AcDbEntity
  8
0
  6
Continuous
 62
     7
370
    15
100
AcDbLine
 10
16.6165246507
 20
2.2085828057
 30
0.0
 11
16.2648354846
 21
2.4116086397
 31
0.0
  0
LINE
  5
2D6
330
1F
100
AcDbEntity
  8
0
  6
Continuous
 62
     7
370
    15
100
AcDbLine
 10
16.2648354846
 20
2.4116086397
 30
0.0
 11
16.2631486047
 21
2.4478045742
 31
0.0
  0
LINE
  5
2D7
330
1F
100
AcDbEntity
  8
0
  6
Continuous
 62
     7
370
    15
100
AcDbLine
 10
16.2648354846
 20
2.4116086397
 30
0.0
 11
16.213067695
 21
2.3817237309
 31
0.0
  0
LWPOLYLINE
  5
2D8
330
1F
100
AcDbEntity
  8
0
  6
Continuous
 62
     7
370
    15
100
AcDbPolyline
 90
       25
 70
   128
 43
0.0
 10
13.5446175912
 20
2.3657610464
 10
13.5610190518
 20
2.3534216195
 10
13.5713294321
 20
2.3390520688
 10
13.5748460908
 20
2.3236316513
 10
13.5713293854
 20
2.3082112069
 10
13.5610190052
 20
2.2938416561
 10
13.5446175445
 20
2.2815022293
 10
13.5232427143
 20
2.2720338676
 10
13.4983511786
 20
2.2660817848
 10
13.4716392911
 20
2.264051634
 10
13.4449274503
 20
2.2660817579
 10
13.4200359613
 20
2.2720338137
 10
13.3986611777
 20
2.2815022023
 10
13.3822596704
 20
2.2938416022
 10
13.3719491969
 20
2.3082112069
 10
13.3684325381
 20
2.3236316243
 10
13.3719492435
 20
2.3390520688
 10
13.3822596704
 20
2.3534216465
 10
13.398661131
 20
2.3657610733
 10
13.4200359613
 20
2.375229435
 10
13.4449274503
 20
2.3811814908
 10
13.4716393378
 20
2.3832116416
 10
13.4983511786
 20
2.3811815177
 10
13.523242761
 20
2.375229408
 10
13.5446175912
 20
2.3657610464
  0
LWPOLYLINE
  5
2D9
330
1F
100
AcDbEntity
  8
0
  6
Continuous
 62
     7
370
    15
100
AcDbPolyline
 90
       17
 70
   128
 43
0.0
 10
13.444397716
 20
2.3079053439
 10
13.4360463865
 20
2.3151206705
 10
13.4331138307
 20
2.3236316513
 10
13.4360463865
 20
2.332142632
 10
13.4443976694
 20
2.3393579317
 10
13.4568962426
 20
2.3441789978
 10
13.4716393378
 20
2.3458719531
 10
13.4863823863
 20
2.3441790247
 10
13.4988810062
 20
2.3393578778
 10
13.5072322891
 20
2.332142632
 10
13.5101648449
 20
2.3236316513
 10
13.5072322425
 20
2.3151206436
 10
13.4988810062
 20
2.3079053708
 10
13.4863823863
 20
2.3030842778
 10
13.4716393378
 20
2.3013913495
 10
13.4568962893
 20
2.3030842778
 10
13.444397716
 20
2.3079053439
  0
ARC
  5
2DA
330
1F
100
AcDbEntity
  8
0
  6
Continuous
 62
     7
370
    15
100
AcDbCircle
 10
12.6215741403
 20
2.2948225315
 30
0.0
 40
0.1838732535641378
100
AcDbArc
 50
354.8308468281
 51
2.8401762441
  0
LINE
  5
2DB
330
1F
100
AcDbEntity
  8
0
  6
Continuous
 62
     7
370
    15
100
AcDbLine
 10
12.8046996837
 20
2.2782561586
 30
0.0
 11
12.7984228626
 21
2.1977616631
 31
0.0
  0
ARC
  5
2DC
330
1F
100
AcDbEntity
  8
0
  6
Continuous
 62
     7
370
    15
100
AcDbCircle
 10
12.8431815181
 20
2.2022249243
 30
0.0
 40
0.0449806395597602
100
AcDbArc
 50
185.6946175301
 51
245.6252860083
  0
LINE
  5
2DD
330
1F
100
AcDbEntity
  8
0
  6
Continuous
 62
     7
370
    15
100
AcDbLine
 10
14.5339699027
 20
3.420003142
 30
0.0
 11
14.5339699027
 21
3.4634019449
 31
0.0
  0
LINE
  5
2DE
330
1F
100
AcDbEntity
  8
0
  6
Continuous
 62
     7
370
    15
100
AcDbLine
 10
16.2156938253
 20
2.44110487
 30
0.0
 11
16.2452239773
 21
2.458152264
 31
0.0
  0
LINE
  5
2DF
330
1F
100
AcDbEntity
  8
0
  6
Continuous
 62
     7
370
    15
100
AcDbLine
 10
15.4434650692
 20
2.9209978297
 30
0.0
 11
15.4139349172
 21
2.9039504357
 31
0.0
  0
LINE
  5
2E0
330
1F
100
AcDbEntity
  8
0
  6
Continuous
 62
     7
370
    15
100
AcDbLine
 10
12.8046974436
 20
2.2782587922
 30
0.0
 11
12.6606909337
 21
2.4222763046
 31
0.0
  0
ARC
  5
2E1
330
1F
100
AcDbEntity
  8
0
  6
Continuous
 62
     7
370
    15
100
AcDbCircle
 10
12.7055620427
 20
2.4187180569
 30
0.0
 40
0.045011971162507
100
AcDbArc
 50
108.3693891132
 51
175.4659726042
  0
LINE
  5
2E2
330
1F
100
AcDbEntity
  8
0
  6
Continuous
 62
     7
370
    15
100
AcDbLine
 10
12.6606909337
 20
2.4222763046
 30
0.0
 11
12.6606909337
 21
2.3354786585
 31
0.0
  0
LINE
  5
2E3
330
1F
100
AcDbEntity
  8
0
  6
Continuous
 62
     7
370
    15
100
AcDbLine
 10
12.6606909337
 20
2.3354786585
 30
0.0
 11
12.7984228626
 21
2.1977616631
 31
0.0
  0
LINE
  5
2E4
330
1F
100
AcDbEntity
  8
0
  6
Continuous
 62
     7
370
    15
100
AcDbLine
 10
13.5781229435
 20
2.9433957003
 30
0.0
 11
13.5892219982
 21
2.9353673299
 31
0.0
  0
LWPOLYLINE
  5
2E5
330
1F
100
AcDbEntity
  8
0
  6
Continuous
 62
     7
370
    15
100
AcDbPolyline
 90
       14
 70
   128
 43
0.0
 10
13.4792826594
 20
2.8719007006
 10
13.4744072645
 20
2.8738211571
 10
13.457603148
 20
2.8835219671
 10
13.4464987323
 20
2.8956511351
 10
13.4420805779
 20
2.909131008
 10
13.4447413946
 20
2.9227637518
 10
13.4542446649
 20
2.9353380912
 10
13.4697460398
 20
2.9457367097
 10
13.4898681126
 20
2.9530356687
 10
13.5128229169
 20
2.956586439
 10
13.5365709603
 20
2.9560734407
 10
13.5590020039
 20
2.9515423221
 10
13.5781229435
 20
2.9433957003
 10
13.5781229435
 20
2.9433957003
  0
ARC
  5
2E6
330
1F
100
AcDbEntity
  8
0
  6
Continuous
 62
     7
370
    15
100
AcDbCircle
 10
12.7333964957
 20
2.5038049444
 30
0.0
 40
0.0596719365973696
100
AcDbArc
 50
109.0695562067
 51
225.2368898657
  0
LINE
  5
2E7
330
1F
100
AcDbEntity
  8
0
  6
Continuous
 62
     7
370
    15
100
AcDbLine
 10
14.1291580668
 20
3.3772129107
 30
0.0
 11
12.7139007336
 21
2.5602022429
 31
0.0
  0
ARC
  5
2E8
330
1F
100
AcDbEntity
  8
0
  6
Continuous
 62
     7
370
    15
100
AcDbCircle
 10
14.2302197635
 20
3.1795239648
 30
0.0
 40
0.2220233904055546
100
AcDbArc
 50
71.6155577949
 51
117.0768322261
  0
ARC
  5
2E9
330
1F
100
AcDbEntity
  8
0
  6
Continuous
 62
     7
370
    15
100
AcDbCircle
 10
12.7083064005
 20
2.3886568439
 30
0.0
 40
0.0713803339334517
100
AcDbArc
 50
181.6380783554
 51
228.1589022811
  0
LINE
  5
2EA
330
1F
100
AcDbEntity
  8
0
  6
Continuous
 62
     7
370
    15
100
AcDbLine
 10
15.0621971225
 20
3.1058769883
 30
0.0
 11
15.0605102426
 21
3.1420729228
 31
0.0
  0
LINE
  5
2EB
330
1F
100
AcDbEntity
  8
0
  6
Continuous
 62
     7
370
    15
100
AcDbLine
 10
15.4138863353
 20
2.9028511273
 30
0.0
 11
15.0621971225
 21
3.1058769883
 31
0.0
  0
LINE
  5
2EC
330
1F
100
AcDbEntity
  8
0
  6
Continuous
 62
     7
370
    15
100
AcDbLine
 10
15.0621971225
 20
3.1058769883
 30
0.0
 11
15.0104293328
 21
3.0759920794
 31
0.0
  0
LWPOLYLINE
  5
2ED
330
1F
100
AcDbEntity
  8
0
  6
Continuous
 62
     7
370
    15
100
AcDbPolyline
 90
       25
 70
   128
 43
0.0
 10
14.7723108288
 20
3.0744932666
 10
14.7887123361
 20
3.0621538667
 10
14.7990227163
 20
3.047784316
 10
14.8025393751
 20
3.0323638985
 10
14.7990226697
 20
3.0169434541
 10
14.7887122428
 20
3.0025738764
 10
14.7723107821
 20
2.9902344496
 10
14.7509359519
 20
2.9807660879
 10
14.7260444629
 20
2.9748140321
 10
14.6993325754
 20
2.9727838812
 10
14.6726207345
 20
2.9748140051
 10
14.6477292455
 20
2.9807660609
 10
14.6263544153
 20
2.9902344226
 10
14.6099529547
 20
3.0025738494
 10
14.5996424811
 20
3.0169434541
 10
14.5961258223
 20
3.0323638716
 10
14.5996425278
 20
3.047784316
 10
14.609952908
 20
3.0621538667
 10
14.6263543686
 20
3.0744932936
 10
14.6477291989
 20
3.0839616552
 10
14.6726207345
 20
3.089913738
 10
14.6993326221
 20
3.0919438888
 10
14.7260444629
 20
3.0899137649
 10
14.7509360452
 20
3.0839616552
 10
14.7723108288
 20
3.0744932666
  0
LWPOLYLINE
  5
2EE
330
1F
100
AcDbEntity
  8
0
  6
Continuous
 62
     7
370
    15
100
AcDbPolyline
 90
       17
 70
   128
 43
0.0
 10
14.6720910003
 20
3.0166375911
 10
14.663739624
 20
3.0238528908
 10
14.6608070683
 20
3.0323638716
 10
14.6637396707
 20
3.0408748792
 10
14.672090907
 20
3.048090152
 10
14.6845895269
 20
3.052911245
 10
14.6993325754
 20
3.0546041734
 10
14.7140756239
 20
3.052911245
 10
14.7265742905
 20
3.0480901251
 10
14.7349255267
 20
3.0408748523
 10
14.7378580825
 20
3.0323638716
 10
14.7349255267
 20
3.0238528908
 10
14.7265742438
 20
3.0166375911
 10
14.7140756706
 20
3.0118165251
 10
14.6993325754
 20
3.0101235697
 10
14.6845895269
 20
3.0118164981
 10
14.6720910003
 20
3.0166375911
  0
LINE
  5
2EF
330
1F
100
AcDbEntity
  8
0
  6
Continuous
 62
     7
370
    15
100
AcDbLine
 10
15.468451342
 20
3.9042541442
 30
0.0
 11
15.468451342
 21
3.1855249858
 31
0.0
  0
ELLIPSE
  5
2F0
330
1F
100
AcDbEntity
  8
0
  6
Continuous
 62
     7
370
    15
100
AcDbEllipse
 10
15.4184100858
 20
3.214571906
 30
0.0
 11
0.07086614173228512
 21
0.0
 31
0.0
210
0.0
220
0.0
230
1.0
 40
0.5788711048
 41
3.928360344857642
 42
5.496417615911802
  0
LINE
  5
2F1
330
1F
100
AcDbEntity
  8
0
  6
Continuous
 62
     7
370
    15
100
AcDbLine
 10
15.3683687656
 20
3.1855249319
 30
0.0
 11
15.3683687656
 21
3.9042540903
 31
0.0
  0
ARC
  5
2F2
330
1F
100
AcDbEntity
  8
0
  6
Continuous
 62
     7
370
    15
100
AcDbCircle
 10
15.4184099948
 20
4.0138076946
 30
0.0
 40
0.1204413419430403
100
AcDbArc
 50
245.4503157655
 51
294.5497459282
  0
ARC
  5
2F3
330
1F
100
AcDbEntity
  8
0
  6
Continuous
 62
     7
370
    15
100
AcDbCircle
 10
15.4777218578
 20
3.8957119672
 30
0.0
 40
0.1096862190086506
100
AcDbArc
 50
122.7340474781
 51
175.5334071588
  0
ARC
  5
2F4
330
1F
100
AcDbEntity
  8
0
  6
Continuous
 62
     7
370
    15
100
AcDbCircle
 10
15.3590987486
 20
3.895712326
 30
0.0
 40
0.109685697988893
100
AcDbArc
 50
4.4664543663
 51
57.2660293493
  0
LINE
  5
2F5
330
1F
100
AcDbEntity
  8
0
  6
Continuous
 62
     7
370
    15
100
AcDbLine
 10
16.9212717376
 20
4.2086336695
 30
0.0
 11
16.9292244247
 21
4.0288113366
 31
0.0
  0
LINE
  5
2F6
330
1F
100
AcDbEntity
  8
0
  6
Continuous
 62
     7
370
    15
100
AcDbLine
 10
16.6206121587
 20
4.0350665891
 30
0.0
 11
16.9212717376
 21
4.2086336695
 31
0.0
  0
LINE
  5
2F7
330
1F
100
AcDbEntity
  8
0
  6
Continuous
 62
     7
370
    15
100
AcDbLine
 10
16.6285648459
 20
3.8552442562
 30
0.0
 11
16.6206121587
 21
4.0350665891
 31
0.0
  0
LINE
  5
2F8
330
1F
100
AcDbEntity
  8
0
  6
Continuous
 62
     7
370
    15
100
AcDbLine
 10
15.9771357506
 20
3.4791822442
 30
0.0
 11
16.6285648459
 21
3.8552442562
 31
0.0
  0
LINE
  5
2F9
330
1F
100
AcDbEntity
  8
0
  6
Continuous
 62
     7
370
    15
100
AcDbLine
 10
15.9691830634
 20
3.6590045771
 30
0.0
 11
15.9771357506
 21
3.4791822442
 31
0.0
  0
LINE
  5
2FA
330
1F
100
AcDbEntity
  8
0
  6
Continuous
 62
     7
370
    15
100
AcDbLine
 10
15.6685234845
 20
3.4854374967
 30
0.0
 11
15.9691830634
 21
3.6590045771
 31
0.0
  0
LINE
  5
2FB
330
1F
100
AcDbEntity
  8
0
  6
Continuous
 62
     7
370
    15
100
AcDbLine
 10
15.6764761717
 20
3.3056151638
 30
0.0
 11
15.6685234845
 21
3.4854374967
 31
0.0
  0
LINE
  5
2FC
330
1F
100
AcDbEntity
  8
0
  6
Continuous
 62
     7
370
    15
100
AcDbLine
 10
15.468451342
 20
3.1855249858
 30
0.0
 11
15.6764761717
 21
3.3056151638
 31
0.0
  0
LINE
  5
2FD
330
1F
100
AcDbEntity
  8
0
  6
Continuous
 62
     7
370
    15
100
AcDbLine
 10
15.468451342
 20
3.9042541442
 30
0.0
 11
17.075259848
 21
4.8318449504
 31
0.0
  0
LINE
  5
2FE
330
1F
100
AcDbEntity
  8
0
  6
Continuous
 62
     7
370
    15
100
AcDbLine
 10
17.1372492545
 20
4.1489015146
 30
0.0
 11
17.075259848
 21
4.8318449504
 31
0.0
  0
LINE
  5
2FF
330
1F
100
AcDbEntity
  8
0
  6
Continuous
 62
     7
370
    15
100
AcDbLine
 10
16.9292244247
 20
4.0288113366
 30
0.0
 11
17.1372492545
 21
4.1489015146
 31
0.0
  0
LWPOLYLINE
  5
300
330
1F
100
AcDbEntity
  8
0
  6
Continuous
 62
     7
370
    15
100
AcDbPolyline
 90
        8
 70
   128
 43
0.0
 10
13.5037545519
 20
4.3094639204
 10
13.5084986858
 20
4.3055677272
 10
13.5124208472
 20
4.3000079914
 10
13.514923726
 20
4.293630716
 10
13.5156264604
 20
4.2874070032
 10
13.5144218529
 20
4.2822842676
 10
13.5114936373
 20
4.279042404
 10
13.5112324337
 20
4.278899813
  0
LWPOLYLINE
  5
301
330
1F
100
AcDbEntity
  8
0
  6
Continuous
 62
     7
370
    15
100
AcDbPolyline
 90
        3
 70
   128
 43
0.0
 10
13.4949653784
 20
4.310378092
 10
13.4989105474
 20
4.3111028416
 10
13.5037545519
 20
4.3094639204
  0
LINE
  5
302
330
1F
100
AcDbEntity
  8
0
  6
Continuous
 62
     7
370
    15
100
AcDbLine
 10
12.899669445
 20
5.3294038729
 30
0.0
 11
12.8376800386
 21
4.6464604371
 31
0.0
  0
LINE
  5
303
330
1F
100
AcDbEntity
  8
0
  6
Continuous
 62
     7
370
    15
100
AcDbLine
 10
12.899669445
 20
5.3294038729
 30
0.0
 11
15.3683687656
 21
3.9042540903
 31
0.0
  0
LINE
  5
304
330
1F
100
AcDbEntity
  8
0
  6
Continuous
 62
     7
370
    15
100
AcDbLine
 10
12.8376800386
 20
4.6464604371
 30
0.0
 11
15.3683687656
 21
3.1855249319
 31
0.0
  0
LWPOLYLINE
  5
305
330
1F
100
AcDbEntity
  8
0
  6
Continuous
 62
     7
370
    15
100
AcDbPolyline
 90
        8
 70
   128
 43
0.0
 10
14.7063928674
 20
3.6151955988
 10
14.7111370012
 20
3.6112994056
 10
14.715059116
 20
3.6057396968
 10
14.7175620415
 20
3.5993623944
 10
14.7182647292
 20
3.5931387085
 10
14.7170601683
 20
3.588015946
 10
14.7141319061
 20
3.5847741093
 10
14.7138707491
 20
3.5846314914
  0
LWPOLYLINE
  5
306
330
1F
100
AcDbEntity
  8
0
  6
Continuous
 62
     7
370
    15
100
AcDbPolyline
 90
        3
 70
   128
 43
0.0
 10
14.6976036938
 20
3.6161097704
 10
14.7015488628
 20
3.61683452
 10
14.7063928674
 20
3.6151955988
  0
LINE
  5
307
330
1F
100
AcDbEntity
  8
0
  6
Continuous
 62
     7
370
    15
100
AcDbLine
 10
15.4184101004
 20
3.987978874
 30
0.0
 11
17.0252186065
 21
4.9155696802
 31
0.0
  0
ARC
  5
308
330
1F
100
AcDbEntity
  8
0
  6
Continuous
 62
     7
370
    15
100
AcDbCircle
 10
16.9659072546
 20
4.8233031322
 30
0.0
 40
0.1096856979889076
100
AcDbArc
 50
4.4664543663
 51
57.2660293493
  0
ARC
  5
309
330
1F
100
AcDbEntity
  8
0
  6
Continuous
 62
     7
370
    15
100
AcDbCircle
 10
13.0090225372
 20
5.3208617498
 30
0.0
 40
0.1096862190086627
100
AcDbArc
 50
122.7340474781
 51
175.5334071588
  0
LINE
  5
30A
330
1F
100
AcDbEntity
  8
0
  6
Continuous
 62
     7
370
    15
100
AcDbLine
 10
12.9497107799
 20
5.4131286566
 30
0.0
 11
15.4184101004
 21
3.987978874
 31
0.0
  0
LINE
  5
30B
330
1F
100
AcDbEntity
  8
0
  6
Continuous
 62
     7
370
    15
100
AcDbLine
 10
14.5565192859
 20
6.3407194628
 30
0.0
 11
12.9497107799
 21
5.4131286566
 31
0.0
  0
LINE
  5
30C
330
1F
100
AcDbEntity
  8
0
  6
Continuous
 62
     7
370
    15
100
AcDbLine
 10
17.0252186065
 20
4.9155696802
 30
0.0
 11
14.5565192859
 21
6.3407194628
 31
0.0
  0
ARC
  5
30D
330
1F
100
AcDbEntity
  8
0
  6
Continuous
 62
     7
370
    15
100
AcDbCircle
 10
15.4184101004
 20
3.1982074432
 30
0.0
 40
0.0435692397168922
100
AcDbArc
 50
242.6098008671
 51
297.3901991329
  0
LINE
  5
30E
330
1F
100
AcDbEntity
  8
0
  6
Continuous
 62
     7
370
    15
100
AcDbLine
 10
15.6464102651
 20
3.2795731471
 30
0.0
 11
15.4384540382
 21
3.1595225727
 31
0.0
  0
LINE
  5
30F
330
1F
100
AcDbEntity
  8
0
  6
Continuous
 62
     7
370
    15
100
AcDbLine
 10
15.6464102651
 20
3.2882584477
 30
0.0
 11
15.6464102651
 21
3.2795731471
 31
0.0
  0
LINE
  5
310
330
1F
100
AcDbEntity
  8
0
  6
Continuous
 62
     7
370
    15
100
AcDbLine
 10
15.3983661627
 20
3.1595225727
 30
0.0
 11
14.9348493101
 21
3.4271051561
 31
0.0
  0
LINE
  5
311
330
1F
100
AcDbEntity
  8
0
  6
Continuous
 62
     7
370
    15
100
AcDbLine
 10
14.9348493101
 20
3.4357904566
 30
0.0
 11
14.9348493101
 21
3.4271051561
 31
0.0
  0
LINE
  5
312
330
1F
100
AcDbEntity
  8
0
  6
Continuous
 62
     7
370
    15
100
AcDbLine
 10
15.9290023176
 20
3.4635703885
 30
0.0
 11
15.9215746512
 21
3.631520945
 31
0.0
  0
LINE
  5
313
330
1F
100
AcDbEntity
  8
0
  6
Continuous
 62
     7
370
    15
100
AcDbLine
 10
15.9290023176
 20
3.4635703885
 30
0.0
 11
15.675951151
 21
3.3174870595
 31
0.0
  0
LINE
  5
314
330
1F
100
AcDbEntity
  8
0
  6
Continuous
 62
     7
370
    15
100
AcDbLine
 10
15.947069844
 20
3.4965389226
 30
0.0
 11
15.9771357506
 21
3.4791822442
 31
0.0
  0
LINE
  5
315
330
1F
100
AcDbEntity
  8
0
  6
Continuous
 62
     7
370
    15
100
AcDbLine
 10
15.947069844
 20
3.4965389226
 30
0.0
 11
15.947069844
 21
3.4531402275
 31
0.0
  0
LINE
  5
316
330
1F
100
AcDbEntity
  8
0
  6
Continuous
 62
     7
370
    15
100
AcDbLine
 10
15.9290023176
 20
3.4635703885
 30
0.0
 11
15.947069844
 21
3.4531402275
 31
0.0
  0
LINE
  5
317
330
1F
100
AcDbEntity
  8
0
  6
Continuous
 62
     7
370
    15
100
AcDbLine
 10
14.8976534821
 20
3.4331137148
 30
0.0
 11
14.9097942946
 21
3.4401224567
 31
0.0
  0
LINE
  5
318
330
1F
100
AcDbEntity
  8
0
  6
Continuous
 62
     7
370
    15
100
AcDbLine
 10
14.9097942946
 20
3.4401224567
 30
0.0
 11
14.9097942946
 21
3.4502544092
 31
0.0
  0
LINE
  5
319
330
1F
100
AcDbEntity
  8
0
  6
Continuous
 62
     7
370
    15
100
AcDbLine
 10
14.9104123723
 20
3.3927406146
 30
0.0
 11
14.9306473709
 21
3.4044220306
 31
0.0
  0
LINE
  5
31A
330
1F
100
AcDbEntity
  8
0
  6
Continuous
 62
     7
370
    15
100
AcDbLine
 10
14.8976534821
 20
3.4331137148
 30
0.0
 11
14.9104123723
 21
3.3927406146
 31
0.0
  0
LINE
  5
31B
330
1F
100
AcDbEntity
  8
0
  6
Continuous
 62
     7
370
    15
100
AcDbLine
 10
14.9321047351
 20
3.4373748826
 30
0.0
 11
14.9306473709
 21
3.4044220306
 31
0.0
  0
LINE
  5
31C
330
1F
100
AcDbEntity
  8
0
  6
Continuous
 62
     7
370
    15
100
AcDbLine
 10
14.9097942946
 20
3.4401224567
 30
0.0
 11
14.5590248248
 21
3.6426173614
 31
0.0
  0
LINE
  5
31D
330
1F
100
AcDbEntity
  8
0
  6
Continuous
 62
     7
370
    15
100
AcDbLine
 10
14.5590248248
 20
3.6527493139
 30
0.0
 11
14.5590248248
 21
3.6426173614
 31
0.0
  0
LINE
  5
31E
330
1F
100
AcDbEntity
  8
0
  6
Continuous
 62
     7
370
    15
100
AcDbLine
 10
16.5984989393
 20
3.8378875401
 30
0.0
 11
16.5984989393
 21
3.8292022396
 31
0.0
  0
LINE
  5
31F
330
1F
100
AcDbEntity
  8
0
  6
Continuous
 62
     7
370
    15
100
AcDbLine
 10
16.5984989393
 20
3.8292022396
 30
0.0
 11
15.947069844
 21
3.4531402275
 31
0.0
  0
LINE
  5
320
330
1F
100
AcDbEntity
  8
0
  6
Continuous
 62
     7
370
    15
100
AcDbLine
 10
14.5468840123
 20
3.6356086195
 30
0.0
 11
14.8976534821
 21
3.4331137148
 31
0.0
  0
LINE
  5
321
330
1F
100
AcDbEntity
  8
0
  6
Continuous
 62
     7
370
    15
100
AcDbLine
 10
14.5590248248
 20
3.6426173614
 30
0.0
 11
14.5468840123
 21
3.6356086195
 31
0.0
  0
LINE
  5
322
330
1F
100
AcDbEntity
  8
0
  6
Continuous
 62
     7
370
    15
100
AcDbLine
 10
14.9104123723
 20
3.3927406146
 30
0.0
 11
14.5596429025
 21
3.5952355193
 31
0.0
  0
LINE
  5
323
330
1F
100
AcDbEntity
  8
0
  6
Continuous
 62
     7
370
    15
100
AcDbLine
 10
14.5596429025
 20
3.5952355193
 30
0.0
 11
14.5468840123
 21
3.6356086195
 31
0.0
  0
LWPOLYLINE
  5
324
330
1F
100
AcDbEntity
  8
0
  6
Continuous
 62
     7
370
    15
100
AcDbPolyline
 90
       17
 70
   128
 43
0.0
 10
14.7051418713
 20
3.6145490772
 10
14.7098860052
 20
3.6106530996
 10
14.7138080267
 20
3.6050931213
 10
14.7163109521
 20
3.598715819
 10
14.7170136398
 20
3.592492133
 10
14.7158091723
 20
3.5873694244
 10
14.7128808167
 20
3.5841275338
 10
14.7086744907
 20
3.5832601663
 10
14.7038305796
 20
3.5848991414
 10
14.6990863523
 20
3.5887952807
 10
14.6951642842
 20
3.5943550704
 10
14.6926614054
 20
3.6007323458
 10
14.691958671
 20
3.6069560586
 10
14.6931631852
 20
3.6120787403
 10
14.6960914941
 20
3.6153206578
 10
14.7002978668
 20
3.616188214
 10
14.7051418713
 20
3.6145490772
  0
LINE
  5
325
330
1F
100
AcDbEntity
  8
0
  6
Continuous
 62
     7
370
    15
100
AcDbLine
 10
14.5414924462
 20
3.6628706378
 30
0.0
 11
14.533969856
 21
3.6585279389
 31
0.0
  0
LINE
  5
326
330
1F
100
AcDbEntity
  8
0
  6
Continuous
 62
     7
370
    15
100
AcDbLine
 10
14.533969856
 20
3.6672132395
 30
0.0
 11
14.533969856
 21
3.6585279389
 31
0.0
  0
LINE
  5
327
330
1F
100
AcDbEntity
  8
0
  6
Continuous
 62
     7
370
    15
100
AcDbLine
 10
14.533969856
 20
3.6585279389
 30
0.0
 11
13.7322109479
 21
4.1213735046
 31
0.0
  0
LINE
  5
328
330
1F
100
AcDbEntity
  8
0
  6
Continuous
 62
     7
370
    15
100
AcDbLine
 10
13.7322109479
 20
4.1300588052
 30
0.0
 11
13.7322109479
 21
4.1213735046
 31
0.0
  0
ELLIPSE
  5
329
330
1F
100
AcDbEntity
  8
0
  6
Continuous
 62
     7
370
    15
100
AcDbEllipse
 10
17.0869331977
 20
4.1777897958
 30
0.0
 11
0.07106051436488414
 21
0.0
 31
0.0
210
0.0
220
0.0
230
1.0
 40
0.5757086504
 41
5.499156671652589
 42
6.335393754107659
  0
LINE
  5
32A
330
1F
100
AcDbEntity
  8
0
  6
Continuous
 62
     7
370
    15
100
AcDbLine
 10
16.8736633254
 20
4.1811500374
 30
0.0
 11
16.8810909918
 21
4.0131994809
 31
0.0
  0
LINE
  5
32B
330
1F
100
AcDbEntity
  8
0
  6
Continuous
 62
     7
370
    15
100
AcDbLine
 10
16.8810909918
 20
4.0131994809
 30
0.0
 11
16.6280398018
 21
3.8671161384
 31
0.0
  0
LINE
  5
32C
330
1F
100
AcDbEntity
  8
0
  6
Continuous
 62
     7
370
    15
100
AcDbLine
 10
16.8991585182
 20
4.046168015
 30
0.0
 11
16.9292244247
 21
4.0288113366
 31
0.0
  0
LINE
  5
32D
330
1F
100
AcDbEntity
  8
0
  6
Continuous
 62
     7
370
    15
100
AcDbLine
 10
16.8991585182
 20
4.00276932
 30
0.0
 11
16.8991585182
 21
4.046168015
 31
0.0
  0
LINE
  5
32E
330
1F
100
AcDbEntity
  8
0
  6
Continuous
 62
     7
370
    15
100
AcDbLine
 10
16.8810909918
 20
4.0131994809
 30
0.0
 11
16.8991585182
 21
4.00276932
 31
0.0
  0
LINE
  5
32F
330
1F
100
AcDbEntity
  8
0
  6
Continuous
 62
     7
370
    15
100
AcDbLine
 10
17.1071147452
 20
4.1228198945
 30
0.0
 11
16.8991585182
 21
4.00276932
 31
0.0
  0
ARC
  5
330
330
1F
100
AcDbEntity
  8
0
  6
Continuous
 62
     7
370
    15
100
AcDbCircle
 10
17.101230655
 20
4.1358060208
 30
0.0
 40
0.0142569980844827
100
AcDbArc
 50
294.3755598275
 51
354.3040149219
  0
LINE
  5
331
330
1F
100
AcDbEntity
  8
0
  6
Continuous
 62
     7
370
    15
100
AcDbLine
 10
13.6950151667
 20
4.1273820364
 30
0.0
 11
13.7071559791
 21
4.1343907783
 31
0.0
  0
LINE
  5
332
330
1F
100
AcDbEntity
  8
0
  6
Continuous
 62
     7
370
    15
100
AcDbLine
 10
13.7071559791
 20
4.1343907783
 30
0.0
 11
13.7071559791
 21
4.1445227308
 31
0.0
  0
LINE
  5
333
330
1F
100
AcDbEntity
  8
0
  6
Continuous
 62
     7
370
    15
100
AcDbLine
 10
13.7077740569
 20
4.0870089362
 30
0.0
 11
13.7280090554
 21
4.0986903522
 31
0.0
  0
LINE
  5
334
330
1F
100
AcDbEntity
  8
0
  6
Continuous
 62
     7
370
    15
100
AcDbLine
 10
13.6950151667
 20
4.1273820364
 30
0.0
 11
13.7077740569
 21
4.0870089362
 31
0.0
  0
LINE
  5
335
330
1F
100
AcDbEntity
  8
0
  6
Continuous
 62
     7
370
    15
100
AcDbLine
 10
13.7294664196
 20
4.1316432042
 30
0.0
 11
13.7280090554
 21
4.0986903522
 31
0.0
  0
LINE
  5
336
330
1F
100
AcDbEntity
  8
0
  6
Continuous
 62
     7
370
    15
100
AcDbLine
 10
13.7071559791
 20
4.1343907783
 30
0.0
 11
13.3563865093
 21
4.336885683
 31
0.0
  0
LINE
  5
337
330
1F
100
AcDbEntity
  8
0
  6
Continuous
 62
     7
370
    15
100
AcDbLine
 10
13.3563865093
 20
4.3470176355
 30
0.0
 11
13.3563865093
 21
4.336885683
 31
0.0
  0
LINE
  5
338
330
1F
100
AcDbEntity
  8
0
  6
Continuous
 62
     7
370
    15
100
AcDbLine
 10
13.3442456969
 20
4.3298769411
 30
0.0
 11
13.6950151667
 21
4.1273820364
 31
0.0
  0
LINE
  5
339
330
1F
100
AcDbEntity
  8
0
  6
Continuous
 62
     7
370
    15
100
AcDbLine
 10
13.3563865093
 20
4.336885683
 30
0.0
 11
13.3442456969
 21
4.3298769411
 31
0.0
  0
LINE
  5
33A
330
1F
100
AcDbEntity
  8
0
  6
Continuous
 62
     7
370
    15
100
AcDbLine
 10
13.7077740569
 20
4.0870089362
 30
0.0
 11
13.3570045871
 21
4.2895038409
 31
0.0
  0
LINE
  5
33B
330
1F
100
AcDbEntity
  8
0
  6
Continuous
 62
     7
370
    15
100
AcDbLine
 10
13.3570045871
 20
4.2895038409
 30
0.0
 11
13.3442456969
 21
4.3298769411
 31
0.0
  0
LWPOLYLINE
  5
33C
330
1F
100
AcDbEntity
  8
0
  6
Continuous
 62
     7
370
    15
100
AcDbPolyline
 90
       17
 70
   128
 43
0.0
 10
13.5025035558
 20
4.3088173988
 10
13.5072476897
 20
4.3049214212
 10
13.5111697579
 20
4.299361416
 10
13.5136726366
 20
4.2929841406
 10
13.514375371
 20
4.2867604277
 10
13.5131708568
 20
4.281637746
 10
13.5102425479
 20
4.2783958285
 10
13.5060361753
 20
4.2775284879
 10
13.5011922641
 20
4.279167463
 10
13.4964480369
 20
4.2830636023
 10
13.4925260154
 20
4.288623365
 10
13.49002309
 20
4.2950006674
 10
13.4893204022
 20
4.3012243533
 10
13.4905248698
 20
4.3063470619
 10
13.4934532253
 20
4.3095889525
 10
13.4976595513
 20
4.3104565356
 10
13.5025035558
 20
4.3088173988
  0
ELLIPSE
  5
33D
330
1F
100
AcDbEntity
  8
0
  6
Continuous
 62
     7
370
    15
100
AcDbEllipse
 10
12.8879961887
 20
4.6753487553
 30
0.0
 11
0.07106051436488414
 21
0.0
 31
0.0
210
0.0
220
0.0
230
1.0
 40
0.5757086504
 41
3.08938420666174
 42
3.925621289116884
  0
LINE
  5
33E
330
1F
100
AcDbEntity
  8
0
  6
Continuous
 62
     7
370
    15
100
AcDbLine
 10
13.3388540841
 20
4.3571389863
 30
0.0
 11
13.3313314939
 21
4.3527962874
 31
0.0
  0
LINE
  5
33F
330
1F
100
AcDbEntity
  8
0
  6
Continuous
 62
     7
370
    15
100
AcDbLine
 10
13.3313314939
 20
4.361481588
 30
0.0
 11
13.3313314939
 21
4.3527962874
 31
0.0
  0
LINE
  5
340
330
1F
100
AcDbEntity
  8
0
  6
Continuous
 62
     7
370
    15
100
AcDbLine
 10
13.3313314939
 20
4.3527962874
 30
0.0
 11
12.8678146412
 21
4.6203788709
 31
0.0
  0
ARC
  5
341
330
1F
100
AcDbEntity
  8
0
  6
Continuous
 62
     7
370
    15
100
AcDbCircle
 10
12.8736987314
 20
4.6333649972
 30
0.0
 40
0.0142569980845147
100
AcDbArc
 50
185.6959850782
 51
245.6244401724
  0
ARC
  5
342
330
1F
100
AcDbEntity
  8
0
  6
Continuous
 62
     8
370
    15
100
AcDbCircle
 10
17.2929977463
 20
1.6461245546
 30
0.0
 40
0.0238167393201953
100
AcDbArc
 50
49.0963536718
 51
113.3645393006
  0
ARC
  5
343
330
1F
100
AcDbEntity
  8
0
  6
Continuous
 62
     8
370
    15
100
AcDbCircle
 10
17.2486537758
 20
1.6074169086
 30
0.0
 40
0.0897667713110891
100
AcDbArc
 50
294.6433270524
 51
354.2776438363
  0
LINE
  5
344
330
1F
100
AcDbEntity
  8
0
  6
Continuous
 62
     8
370
    15
100
AcDbLine
 10
17.1096202841
 20
2.0025457006
 30
0.0
 11
17.1096202841
 21
1.9765106547
 31
0.0
  0
LINE
  5
345
330
1F
100
AcDbEntity
  8
0
  6
Continuous
 62
     8
370
    15
100
AcDbLine
 10
12.8653091956
 20
2.4740695772
 30
0.0
 11
12.8653091956
 21
2.5001046231
 31
0.0
  0
LINE
  5
346
330
1F
100
AcDbEntity
  8
0
  6
Continuous
 62
     8
370
    15
100
AcDbLine
 10
12.6913768781
 20
2.4614364213
 30
0.0
 11
12.8078184468
 21
2.3450073579
 31
0.0
  0
LINE
  5
347
330
1F
100
AcDbEntity
  8
0
  6
Continuous
 62
     8
370
    15
100
AcDbLine
 10
14.348986389
 20
3.3739699768
 30
0.0
 11
14.3002440254
 21
3.3902156558
 31
0.0
  0
ARC
  5
348
330
1F
100
AcDbEntity
  8
0
  6
Continuous
 62
     8
370
    15
100
AcDbCircle
 10
12.7083660629
 20
2.4754949402
 30
0.0
 40
0.0714502702610694
100
AcDbArc
 50
181.9263127838
 51
228.1448968331
  0
ARC
  5
349
330
1F
100
AcDbEntity
  8
0
  6
Continuous
 62
     8
370
    15
100
AcDbCircle
 10
12.7034979445
 20
2.545648089
 30
0.0
 40
0.0178897013909138
100
AcDbArc
 50
54.444170431
 51
113.6064992131
  0
ARC
  5
34A
330
1F
100
AcDbEntity
  8
0
  6
Continuous
 62
     8
370
    15
100
AcDbCircle
 10
14.1187788898
 20
3.3627245121
 30
0.0
 40
0.0178224860490528
100
AcDbArc
 50
54.3830031743
 51
114.306325514
  0
ARC
  5
34B
330
1F
100
AcDbEntity
  8
0
  6
Continuous
 62
     8
370
    15
100
AcDbCircle
 10
14.3095732192
 20
3.3836388535
 30
0.0
 40
0.0114143850988982
100
AcDbArc
 50
80.5468974202
 51
144.8173096689
  0
LINE
  5
34C
330
1F
100
AcDbEntity
  8
0
  6
Continuous
 62
     8
370
    15
100
AcDbLine
 10
15.4384540382
 20
3.1595225727
 30
0.0
 11
15.4384540382
 21
3.1752247062
 31
0.0
  0
LINE
  5
34D
330
1F
100
AcDbEntity
  8
0
  6
Continuous
 62
     8
370
    15
100
AcDbLine
 10
15.3983661627
 20
3.1752247062
 30
0.0
 11
15.3983661627
 21
3.1595225727
 31
0.0
  0
ARC
  5
34E
330
1F
100
AcDbEntity
  8
0
  6
Continuous
 62
     8
370
    15
100
AcDbCircle
 10
17.0602120927
 20
4.8640890752
 30
0.0
 40
0.0355825593320472
100
AcDbArc
 50
295.0176188262
 51
0.0356714725
  0
ARC
  5
34F
330
1F
100
AcDbEntity
  8
0
  6
Continuous
 62
     8
370
    15
100
AcDbCircle
 10
17.0458180783
 20
4.8882578329
 30
0.0
 40
0.0342092859376873
100
AcDbArc
 50
64.4445789075
 51
127.0247706513
  0
ARC
  5
350
330
1F
100
AcDbEntity
  8
0
  6
Continuous
 62
     8
370
    15
100
AcDbCircle
 10
14.5772182942
 20
6.312342179
 30
0.0
 40
0.03512433884535
100
AcDbArc
 50
65.2030915459
 51
126.1078251554
  0
LINE
  5
351
330
1F
100
AcDbEntity
  8
0
  6
Continuous
 62
     8
370
    15
100
AcDbLine
 10
17.1071147452
 20
4.131505195
 30
0.0
 11
17.1071147452
 21
4.1228198945
 31
0.0
  0
ARC
  5
352
330
1F
100
AcDbEntity
  8
0
  6
Continuous
 62
     8
370
    15
100
AcDbCircle
 10
12.9290101915
 20
5.3847477043
 30
0.0
 40
0.0351282337943471
100
AcDbArc
 50
53.8936188572
 51
114.7684984825
  0
ARC
  5
353
330
1F
100
AcDbEntity
  8
0
  6
Continuous
 62
     8
370
    15
100
AcDbCircle
 10
12.9157855816
 20
5.3623388024
 30
0.0
 40
0.0366665984615764
100
AcDbArc
 50
181.1836862069
 51
243.9259869649
  0
ARC
  5
354
330
1F
100
AcDbEntity
  8
0
  6
Continuous
 62
     8
370
    15
100
AcDbCircle
 10
14.5359287109
 20
6.3134362855
 30
0.0
 40
0.0341810406842783
100
AcDbArc
 50
52.9581971315
 51
115.7310291417
  0
LINE
  5
355
330
1F
100
AcDbEntity
  8
0
  6
Continuous
 62
     8
370
    15
100
AcDbLine
 10
12.8678146412
 20
4.6203788709
 30
0.0
 11
12.8678146412
 21
4.6290641714
 31
0.0
  0
LINE
  5
356
330
1F
100
AcDbEntity
  8
0
  6
Continuous
 62
     7
370
    15
100
AcDbLine
 10
6.5802133786
 20
4.452906506
 30
0.0
 11
6.5767773116
 21
4.6497568953
 31
0.0
  0
LINE
  5
357
330
1F
100
AcDbEntity
  8
0
  6
Continuous
 62
     7
370
    15
100
AcDbLine
 10
6.3474289344
 20
4.6497568953
 30
0.0
 11
6.3439928674
 21
4.452906506
 31
0.0
  0
LINE
  5
358
330
1F
100
AcDbEntity
  8
0
  6
Continuous
 62
     7
370
    15
100
AcDbLine
 10
3.7455676847
 20
4.452906506
 30
0.0
 11
3.7421316177
 21
4.6497568953
 31
0.0
  0
LINE
  5
359
330
1F
100
AcDbEntity
  8
0
  6
Continuous
 62
     7
370
    15
100
AcDbLine
 10
3.5127832405
 20
4.6497568953
 30
0.0
 11
3.5093471735
 21
4.452906506
 31
0.0
  0
LINE
  5
35A
330
1F
100
AcDbEntity
  8
0
  6
Continuous
 62
     7
370
    15
100
AcDbLine
 10
2.6536607518
 20
4.5237726557
 30
0.0
 11
2.6536607518
 21
4.3662923332
 31
0.0
  0
LINE
  5
35B
330
1F
100
AcDbEntity
  8
0
  6
Continuous
 62
     7
370
    15
100
AcDbLine
 10
2.8296006393
 20
4.3662923332
 30
0.0
 11
2.8296006393
 21
4.5237726557
 31
0.0
  0
LINE
  5
35C
330
1F
100
AcDbEntity
  8
0
  6
Continuous
 62
     7
370
    15
100
AcDbLine
 10
2.6536607518
 20
4.3662923332
 30
0.0
 11
2.8296006393
 21
4.3662923332
 31
0.0
  0
LINE
  5
35D
330
1F
100
AcDbEntity
  8
0
  6
Continuous
 62
     7
370
    15
100
AcDbLine
 10
2.6536607518
 20
4.5237726557
 30
0.0
 11
2.8296006393
 21
4.5237726557
 31
0.0
  0
LINE
  5
35E
330
1F
100
AcDbEntity
  8
0
  6
Continuous
 62
     7
370
    15
100
AcDbLine
 10
7.2599599128
 20
4.5237726557
 30
0.0
 11
7.2599599128
 21
4.3662923332
 31
0.0
  0
LINE
  5
35F
330
1F
100
AcDbEntity
  8
0
  6
Continuous
 62
     7
370
    15
100
AcDbLine
 10
7.4358998003
 20
4.3662923332
 30
0.0
 11
7.4358998003
 21
4.5237726557
 31
0.0
  0
LINE
  5
360
330
1F
100
AcDbEntity
  8
0
  6
Continuous
 62
     7
370
    15
100
AcDbLine
 10
7.2599599128
 20
4.3662923332
 30
0.0
 11
7.4358998003
 21
4.3662923332
 31
0.0
  0
LINE
  5
361
330
1F
100
AcDbEntity
  8
0
  6
Continuous
 62
     7
370
    15
100
AcDbLine
 10
7.2599599128
 20
4.5237726557
 30
0.0
 11
7.4358998003
 21
4.5237726557
 31
0.0
  0
LINE
  5
362
330
1F
100
AcDbEntity
  8
0
  6
Continuous
 62
     7
370
    15
100
AcDbLine
 10
2.5447801963
 20
4.4844025705
 30
0.0
 11
2.5447801963
 21
4.3662923332
 31
0.0
  0
LINE
  5
363
330
1F
100
AcDbEntity
  8
0
  6
Continuous
 62
     7
370
    15
100
AcDbLine
 10
2.6536607518
 20
4.3662923332
 30
0.0
 11
2.5447801963
 21
4.3662923332
 31
0.0
  0
ARC
  5
364
330
1F
100
AcDbEntity
  8
0
  6
Continuous
 62
     7
370
    15
100
AcDbCircle
 10
2.5841503548
 20
4.4844025694
 30
0.0
 40
0.0393700787401579
100
AcDbArc
 50
90.0
 51
180.0
  0
LINE
  5
365
330
1F
100
AcDbEntity
  8
0
  6
Continuous
 62
     7
370
    15
100
AcDbLine
 10
2.6536607518
 20
4.5237726557
 30
0.0
 11
2.5841503548
 21
4.5237726557
 31
0.0
  0
LINE
  5
366
330
1F
100
AcDbEntity
  8
0
  6
Continuous
 62
     7
370
    15
100
AcDbLine
 10
7.1137727749
 20
4.7206230266
 30
0.0
 11
7.0920244128
 21
4.7206230266
 31
0.0
  0
LINE
  5
367
330
1F
100
AcDbEntity
  8
0
  6
Continuous
 62
     7
370
    15
100
AcDbLine
 10
7.124089189
 20
4.5237726557
 30
0.0
 11
7.1137727749
 21
4.7206230266
 31
0.0
  0
LINE
  5
368
330
1F
100
AcDbEntity
  8
0
  6
Continuous
 62
     7
370
    15
100
AcDbLine
 10
7.1809306657
 20
4.4450324944
 30
0.0
 11
7.1809306657
 21
4.3662923332
 31
0.0
  0
LINE
  5
369
330
1F
100
AcDbEntity
  8
0
  6
Continuous
 62
     7
370
    15
100
AcDbLine
 10
2.9086298864
 20
4.3662923332
 30
0.0
 11
2.9086298864
 21
4.4450324944
 31
0.0
  0
LINE
  5
36A
330
1F
100
AcDbEntity
  8
0
  6
Continuous
 62
     7
370
    15
100
AcDbLine
 10
2.9975361393
 20
4.7206230266
 30
0.0
 11
2.9757877772
 21
4.7206230266
 31
0.0
  0
LINE
  5
36B
330
1F
100
AcDbEntity
  8
0
  6
Continuous
 62
     7
370
    15
100
AcDbLine
 10
2.9975361393
 20
4.7599931118
 30
0.0
 11
2.9975361393
 21
4.7206230266
 31
0.0
  0
LINE
  5
36C
330
1F
100
AcDbEntity
  8
0
  6
Continuous
 62
     7
370
    15
100
AcDbLine
 10
3.0675603037
 20
4.7009380207
 30
0.0
 11
3.0211582931
 21
4.7009380207
 31
0.0
  0
LINE
  5
36D
330
1F
100
AcDbEntity
  8
0
  6
Continuous
 62
     7
370
    15
100
AcDbLine
 10
3.0805590736
 20
4.452906506
 30
0.0
 11
3.0675603037
 21
4.7009380207
 31
0.0
  0
LINE
  5
36E
330
1F
100
AcDbEntity
  8
0
  6
Continuous
 62
     7
370
    15
100
AcDbLine
 10
7.0090014785
 20
4.452906506
 30
0.0
 11
3.0805590736
 21
4.452906506
 31
0.0
  0
LINE
  5
36F
330
1F
100
AcDbEntity
  8
0
  6
Continuous
 62
     7
370
    15
100
AcDbLine
 10
7.0220002484
 20
4.7009380207
 30
0.0
 11
7.0090014785
 21
4.452906506
 31
0.0
  0
LINE
  5
370
330
1F
100
AcDbEntity
  8
0
  6
Continuous
 62
     7
370
    15
100
AcDbLine
 10
7.068402259
 20
4.7009380207
 30
0.0
 11
7.0220002484
 21
4.7009380207
 31
0.0
  0
LINE
  5
371
330
1F
100
AcDbEntity
  8
0
  6
Continuous
 62
     7
370
    15
100
AcDbLine
 10
7.068402259
 20
4.7009380207
 30
0.0
 11
7.068402259
 21
4.7599931118
 31
0.0
  0
LINE
  5
372
330
1F
100
AcDbEntity
  8
0
  6
Continuous
 62
     7
370
    15
100
AcDbLine
 10
7.0920244128
 20
4.7206230266
 30
0.0
 11
7.0920244128
 21
4.7599931118
 31
0.0
  0
LINE
  5
373
330
1F
100
AcDbEntity
  8
0
  6
Continuous
 62
     7
370
    15
100
AcDbLine
 10
3.0211582931
 20
4.7599931118
 30
0.0
 11
3.0211582931
 21
4.7009380207
 31
0.0
  0
LINE
  5
374
330
1F
100
AcDbEntity
  8
0
  6
Continuous
 62
     7
370
    15
100
AcDbLine
 10
3.0211582931
 20
4.7599931118
 30
0.0
 11
2.9975361393
 21
4.7599931118
 31
0.0
  0
LINE
  5
375
330
1F
100
AcDbEntity
  8
0
  6
Continuous
 62
     7
370
    15
100
AcDbLine
 10
7.0920244128
 20
4.7599931118
 30
0.0
 11
7.068402259
 21
4.7599931118
 31
0.0
  0
LINE
  5
376
330
1F
100
AcDbEntity
  8
0
  6
Continuous
 62
     7
370
    15
100
AcDbLine
 10
2.9757877772
 20
4.7206230266
 30
0.0
 11
2.9654713631
 21
4.5237726557
 31
0.0
  0
LINE
  5
377
330
1F
100
AcDbEntity
  8
0
  6
Continuous
 62
     7
370
    15
100
AcDbLine
 10
2.9457862838
 20
4.4450324944
 30
0.0
 11
2.9086298864
 21
4.4450324944
 31
0.0
  0
LINE
  5
378
330
1F
100
AcDbEntity
  8
0
  6
Continuous
 62
     7
370
    15
100
AcDbLine
 10
7.1809306657
 20
4.4450324944
 30
0.0
 11
7.1437742683
 21
4.4450324944
 31
0.0
  0
LINE
  5
379
330
1F
100
AcDbEntity
  8
0
  6
Continuous
 62
     7
370
    15
100
AcDbLine
 10
7.1437742683
 20
4.3662923332
 30
0.0
 11
7.1437742683
 21
4.4450324944
 31
0.0
  0
LINE
  5
37A
330
1F
100
AcDbEntity
  8
0
  6
Continuous
 62
     7
370
    15
100
AcDbLine
 10
2.9457862838
 20
4.3662923332
 30
0.0
 11
2.9457862838
 21
4.4450324944
 31
0.0
  0
LINE
  5
37B
330
1F
100
AcDbEntity
  8
0
  6
Continuous
 62
     7
370
    15
100
AcDbLine
 10
2.9086298864
 20
4.3662923332
 30
0.0
 11
2.8296006393
 21
4.3662923332
 31
0.0
  0
LINE
  5
37C
330
1F
100
AcDbEntity
  8
0
  6
Continuous
 62
     7
370
    15
100
AcDbLine
 10
7.1437742683
 20
4.3662923332
 30
0.0
 11
2.9457862838
 21
4.3662923332
 31
0.0
  0
LINE
  5
37D
330
1F
100
AcDbEntity
  8
0
  6
Continuous
 62
     7
370
    15
100
AcDbLine
 10
7.2599599128
 20
4.3662923332
 30
0.0
 11
7.1809306657
 21
4.3662923332
 31
0.0
  0
LINE
  5
37E
330
1F
100
AcDbEntity
  8
0
  6
Continuous
 62
     7
370
    15
100
AcDbLine
 10
7.2599599128
 20
4.5237726557
 30
0.0
 11
7.124089189
 21
4.5237726557
 31
0.0
  0
LINE
  5
37F
330
1F
100
AcDbEntity
  8
0
  6
Continuous
 62
     7
370
    15
100
AcDbLine
 10
2.9654713631
 20
4.5237726557
 30
0.0
 11
2.8296006393
 21
4.5237726557
 31
0.0
  0
LINE
  5
380
330
1F
100
AcDbEntity
  8
0
  6
Continuous
 62
     7
370
    15
100
AcDbLine
 10
7.5447803558
 20
4.4844025705
 30
0.0
 11
7.5447803558
 21
4.3662923332
 31
0.0
  0
ARC
  5
381
330
1F
100
AcDbEntity
  8
0
  6
Continuous
 62
     7
370
    15
100
AcDbCircle
 10
7.5054101973
 20
4.4844025694
 30
0.0
 40
0.0393700787401574
100
AcDbArc
 50
0.0
 51
90.0
  0
LINE
  5
382
330
1F
100
AcDbEntity
  8
0
  6
Continuous
 62
     7
370
    15
100
AcDbLine
 10
7.5447803558
 20
4.3662923332
 30
0.0
 11
7.4358998003
 21
4.3662923332
 31
0.0
  0
LINE
  5
383
330
1F
100
AcDbEntity
  8
0
  6
Continuous
 62
     7
370
    15
100
AcDbLine
 10
7.5054101973
 20
4.5237726557
 30
0.0
 11
7.4358998003
 21
4.5237726557
 31
0.0
  0
LINE
  5
384
330
1F
100
AcDbEntity
  8
0
  6
Continuous
 62
     7
370
    15
100
AcDbLine
 10
6.5767773116
 20
4.6497568953
 30
0.0
 11
6.3474289344
 21
4.6497568953
 31
0.0
  0
LINE
  5
385
330
1F
100
AcDbEntity
  8
0
  6
Continuous
 62
     7
370
    15
100
AcDbLine
 10
3.7421316177
 20
4.6497568953
 30
0.0
 11
3.5127832405
 21
4.6497568953
 31
0.0
  0
LINE
  5
386
330
1F
100
AcDbEntity
  8
0
  6
Continuous
 62
     7
370
    15
100
AcDbLine
 10
2.9086298864
 20
4.3662923332
 30
0.0
 11
2.9457862838
 21
4.3662923332
 31
0.0
  0
LINE
  5
387
330
1F
100
AcDbEntity
  8
0
  6
Continuous
 62
     7
370
    15
100
AcDbLine
 10
7.1437742683
 20
4.3662923332
 30
0.0
 11
7.1809306657
 21
4.3662923332
 31
0.0
  0
LINE
  5
388
330
1F
100
AcDbEntity
  8
0
  6
Continuous
 62
     7
370
    15
100
AcDbLine
 10
3.7849376965
 20
4.6221978503
 30
0.0
 11
3.7849376965
 21
4.7009380207
 31
0.0
  0
LINE
  5
389
330
1F
100
AcDbEntity
  8
0
  6
Continuous
 62
     7
370
    15
100
AcDbLine
 10
4.4148589863
 20
4.6221978503
 30
0.0
 11
3.7849376965
 21
4.6221978503
 31
0.0
  0
LINE
  5
38A
330
1F
100
AcDbEntity
  8
0
  6
Continuous
 62
     7
370
    15
100
AcDbLine
 10
4.4148589863
 20
4.7009380207
 30
0.0
 11
4.4148589863
 21
4.6221978503
 31
0.0
  0
LINE
  5
38B
330
1F
100
AcDbEntity
  8
0
  6
Continuous
 62
     7
370
    15
100
AcDbLine
 10
4.4148589863
 20
4.7009380207
 30
0.0
 11
5.6747015658
 21
4.7009380207
 31
0.0
  0
LINE
  5
38C
330
1F
100
AcDbEntity
  8
0
  6
Continuous
 62
     7
370
    15
100
AcDbLine
 10
5.6747015658
 20
4.6221978503
 30
0.0
 11
5.6747015658
 21
4.7009380207
 31
0.0
  0
LINE
  5
38D
330
1F
100
AcDbEntity
  8
0
  6
Continuous
 62
     7
370
    15
100
AcDbLine
 10
6.3046228556
 20
4.6221978503
 30
0.0
 11
5.6747015658
 21
4.6221978503
 31
0.0
  0
LINE
  5
38E
330
1F
100
AcDbEntity
  8
0
  6
Continuous
 62
     7
370
    15
100
AcDbLine
 10
6.3046228556
 20
4.7009380207
 30
0.0
 11
6.3046228556
 21
4.6221978503
 31
0.0
  0
LINE
  5
38F
330
1F
100
AcDbEntity
  8
0
  6
Continuous
 62
     7
370
    15
100
AcDbLine
 10
3.0675603037
 20
4.7009380207
 30
0.0
 11
3.7849376965
 21
4.7009380207
 31
0.0
  0
LINE
  5
390
330
1F
100
AcDbEntity
  8
0
  6
Continuous
 62
     7
370
    15
100
AcDbLine
 10
6.3046228556
 20
4.7009380207
 30
0.0
 11
7.0220002484
 21
4.7009380207
 31
0.0
  0
LINE
  5
391
330
1F
100
AcDbEntity
  8
0
  6
Continuous
 62
     7
370
    15
100
AcDbLine
 10
7.0329693217
 20
4.7599931118
 30
0.0
 11
7.068402259
 21
4.7599931118
 31
0.0
  0
LINE
  5
392
330
1F
100
AcDbEntity
  8
0
  6
Continuous
 62
     7
370
    15
100
AcDbLine
 10
3.0211582931
 20
4.7599931118
 30
0.0
 11
3.0565912305
 21
4.7599931118
 31
0.0
  0
LINE
  5
393
330
1F
100
AcDbEntity
  8
0
  6
Continuous
 62
     7
370
    15
100
AcDbLine
 10
6.3046228556
 20
4.7009380207
 30
0.0
 11
5.6747015658
 21
4.7009380207
 31
0.0
  0
LINE
  5
394
330
1F
100
AcDbEntity
  8
0
  6
Continuous
 62
     7
370
    15
100
AcDbLine
 10
4.4148589863
 20
4.7009380207
 30
0.0
 11
3.7849376965
 21
4.7009380207
 31
0.0
  0
LINE
  5
395
330
1F
100
AcDbEntity
  8
0
  6
Continuous
 62
     7
370
    15
100
AcDbLine
 10
3.0565912305
 20
4.7599931118
 30
0.0
 11
7.0329693217
 21
4.7599931118
 31
0.0
  0
HATCH
  5
396
330
1F
100
AcDbEntity
  8
0
  6
Continuous
 62
     7
370
     0
100
AcDbHatch
 10
0.0
 20
0.0
 30
0.0
210
0.0
220
0.0
230
1.0
  2
ANSI31
 70
     0
 71
     0
 91
        1
 92
        0
 93
        5
 72
     1
 10
2.653660723736461
 20
4.523772648172234
 11
2.58415035480393
 21
4.523772648172234
 72
     2
 10
2.58415035480393
 20
4.484402569432076
 40
0.0393700787401575
 50
90.0
 51
180.0
 73
     1
 72
     1
 10
2.544780276063773
 20
4.484402569432076
 11
2.544780276063773
 21
4.366292333211604
 72
     1
 10
2.544780276063773
 20
4.366292333211604
 11
2.653660723736461
 21
4.366292333211604
 72
     1
 10
2.653660723736461
 20
4.366292333211604
 11
2.653660723736461
 21
4.523772648172234
 97
        0
 75
     0
 76
     1
 52
0.0
 41
1.125
 77
     0
 78
     1
 53
45.0
 43
0.0
 44
0.0
 45
-0.0994368911043582
 46
0.0994368911043583
 79
     0
 98
        1
 10
0.0
 20
0.0
  0
HATCH
  5
397
330
1F
100
AcDbEntity
  8
0
  6
Continuous
 62
     7
370
     0
100
AcDbHatch
 10
0.0
 20
0.0
 30
0.0
210
0.0
220
0.0
230
1.0
  2
ANSI31
 70
     0
 71
     0
 91
        1
 92
        0
 93
       28
 72
     1
 10
7.092024370551962
 20
4.720623041873021
 11
7.092024370551962
 21
4.759993120613179
 72
     1
 10
7.092024370551962
 20
4.759993120613179
 11
7.068402323307867
 21
4.759993120613179
 72
     1
 10
7.068402323307867
 20
4.759993120613179
 11
7.068402323307867
 21
4.700938002502943
 72
     1
 10
7.068402323307867
 20
4.700938002502943
 11
7.022000289098238
 21
4.700938002502943
 72
     1
 10
7.022000289098238
 20
4.700938002502943
 11
7.009001509197327
 21
4.45290650643995
 72
     1
 10
7.009001509197327
 20
4.45290650643995
 11
3.080559042930219
 21
4.45290650643995
 72
     1
 10
3.080559042930219
 20
4.45290650643995
 11
3.067560263029307
 21
4.700938002502943
 72
     1
 10
3.067560263029307
 20
4.700938002502943
 11
3.021158228819678
 21
4.700938002502943
 72
     1
 10
3.021158228819678
 20
4.700938002502943
 11
3.021158228819678
 21
4.759993120613179
 72
     1
 10
3.021158228819678
 20
4.759993120613179
 11
2.997536181575583
 21
4.759993120613179
 72
     1
 10
2.997536181575583
 20
4.759993120613179
 11
2.997536181575584
 21
4.720623041873021
 72
     1
 10
2.997536181575584
 20
4.720623041873021
 11
2.975787843808674
 21
4.720623041875688
 72
     1
 10
2.975787843808674
 20
4.720623041875688
 11
2.965471351823783
 21
4.523772648172234
 72
     1
 10
2.965471351823783
 20
4.523772648172234
 11
2.829600615792659
 21
4.523772648172234
 72
     1
 10
2.829600615792659
 20
4.523772648172234
 11
2.829600615792659
 21
4.366292333211604
 72
     1
 10
2.829600615792659
 20
4.366292333211604
 11
2.908629926362508
 21
4.366292333211604
 72
     1
 10
2.908629926362508
 20
4.366292333211604
 11
2.908629926362508
 21
4.445032490691919
 72
     1
 10
2.908629926362508
 20
4.445032490691919
 11
2.945786312453605
 21
4.445032490691919
 72
     1
 10
2.945786312453605
 20
4.445032490691919
 11
2.945786312453605
 21
4.366292333211604
 72
     1
 10
2.945786312453605
 20
4.366292333211604
 11
7.143774239673941
 21
4.366292333211604
 72
     1
 10
7.143774239673941
 20
4.366292333211604
 11
7.143774239673941
 21
4.445032490691919
 72
     1
 10
7.143774239673941
 20
4.445032490691919
 11
7.180930625765038
 21
4.445032490691919
 72
     1
 10
7.180930625765038
 20
4.445032490691919
 11
7.180930625765038
 21
4.366292333211604
 72
     1
 10
7.180930625765038
 20
4.366292333211604
 11
7.259959936334887
 21
4.366292333211604
 72
     1
 10
7.259959936334887
 20
4.366292333211604
 11
7.259959936334887
 21
4.523772648172234
 72
     1
 10
7.259959936334887
 20
4.523772648172234
 11
7.124089200303762
 21
4.523772648172234
 72
     1
 10
7.124089200303762
 20
4.523772648172234
 11
7.113772708318871
 21
4.720623041875688
 72
     1
 10
7.113772708318871
 20
4.720623041875688
 11
7.092024370551962
 21
4.720623041873021
 97
        0
 75
     0
 76
     1
 52
0.0
 41
1.125
 77
     0
 78
     1
 53
45.0
 43
0.0
 44
0.0
 45
-0.0994368911043582
 46
0.0994368911043583
 79
     0
 98
        1
 10
0.0
 20
0.0
  0
HATCH
  5
398
330
1F
100
AcDbEntity
  8
0
  6
Continuous
 62
     7
370
     0
100
AcDbHatch
 10
0.0
 20
0.0
 30
0.0
210
0.0
220
0.0
230
1.0
  2
ANSI31
 70
     0
 71
     0
 91
        1
 92
        0
 93
        5
 72
     1
 10
7.544780276063774
 20
4.366292333211604
 11
7.544780276063774
 21
4.484402569432076
 72
     2
 10
7.505410197323616
 20
4.484402569432076
 40
0.0393700787401575
 50
0.0
 51
90.0
 73
     1
 72
     1
 10
7.505410197323616
 20
4.523772648172234
 11
7.435899828391085
 21
4.523772648172234
 72
     1
 10
7.435899828391085
 20
4.523772648172234
 11
7.435899828391085
 21
4.366292333211604
 72
     1
 10
7.435899828391085
 20
4.366292333211604
 11
7.544780276063774
 21
4.366292333211604
 97
        0
 75
     0
 76
     1
 52
0.0
 41
1.125
 77
     0
 78
     1
 53
45.0
 43
0.0
 44
0.0
 45
-0.0994368911043582
 46
0.0994368911043583
 79
     0
 98
        1
 10
0.0
 20
0.0
  0
DIMENSION
  5
399
330
1F
100
AcDbEntity
  8
0
  6
Continuous
 62
     7
370
     0
100
AcDbDimension
  2
*D26
 10
3.3478226588
 20
4.6497569001
 30
0.0
 11
3.3478226588
 21
5.0583877716
 31
0.0
 70
   160
 71
     2
 42
-1.0
  3
SLDDIMSTYLE5
100
AcDbAlignedDimension
 13
3.0805590429
 23
4.4529065064
 33
0.0
 14
3.5127832416
 24
4.6497569001
 34
0.0
 50
90.0
100
AcDbRotatedDimension
  0
DIMENSION
  5
3AE
330
1F
100
AcDbEntity
  8
0
  6
Continuous
 62
     7
370
     0
100
AcDbDimension
  2
*D27
 10
2.232194239
 20
4.3662923332
 30
0.0
 11
2.232194239
 21
4.0199860812
 31
0.0
 70
   160
 71
     2
 42
-1.0
  3
SLDDIMSTYLE6
100
AcDbAlignedDimension
 13
2.5841503548
 23
4.5237726482
 33
0.0
 14
2.5447802761
 24
4.3662923332
 34
0.0
 50
90.0
100
AcDbRotatedDimension
  0
DIMENSION
  5
3C4
330
1F
100
AcDbEntity
  8
0
  6
Continuous
 62
     7
370
     0
100
AcDbDimension
  2
*D28
 10
1.5703548978
 20
4.7599931206
 30
0.0
 11
1.5703548978
 21
5.0350655528
 31
0.0
 70
   160
 71
     2
 42
-1.0
  3
SLDDIMSTYLE6
100
AcDbAlignedDimension
 13
2.5447802761
 23
4.3662923332
 33
0.0
 14
2.9975361816
 24
4.7599931206
 34
0.0
 50
90.0
100
AcDbRotatedDimension
  0
DIMENSION
  5
3D9
330
1F
100
AcDbEntity
  8
0
  6
Continuous
 62
     7
370
     0
100
AcDbDimension
  2
*D29
 10
6.7871675403
 20
4.3662923332
 30
0.0
 11
6.7871675403
 21
4.0221564907
 31
0.0
 70
   160
 71
     2
 42
-1.0
  3
SLDDIMSTYLE6
100
AcDbAlignedDimension
 13
7.0090015092
 23
4.4529065064
 33
0.0
 14
7.1437742397
 24
4.3662923332
 34
0.0
 50
90.0
100
AcDbRotatedDimension
  0
MTEXT
  5
3EC
330
1F
100
AcDbEntity
  8
0
  6
Continuous
 62
     7
370
     0
100
AcDbMText
 10
5.1373583903
 20
4.0686393004
 30
0.0
 40
0.140625
 41
0.0
 71
     2
 72
     1
  1
\LSECTION A-A
  7
SLDTEXTSTYLE0
 73
     1
 44
1.0
  0
LINE
  5
3ED
330
1F
100
AcDbEntity
  8
0
  6
Continuous
 62
     7
370
    15
100
AcDbLine
 10
10.9391411275
 20
9.4471301541
 30
0.0
 11
10.3879600815
 21
9.4471301541
 31
0.0
  0
LINE
  5
3EE
330
1F
100
AcDbEntity
  8
0
  6
Continuous
 62
     7
370
    15
100
AcDbLine
 10
10.3879600815
 20
9.4471301541
 30
0.0
 11
10.3879600815
 21
9.4671788158
 31
0.0
  0
LINE
  5
3EF
330
1F
100
AcDbEntity
  8
0
  6
Continuous
 62
     7
370
    15
100
AcDbLine
 10
10.3879600815
 20
9.4671788158
 30
0.0
 11
10.9391411275
 21
9.4671788158
 31
0.0
  0
LINE
  5
3F0
330
1F
100
AcDbEntity
  8
0
  6
Continuous
 62
     7
370
    15
100
AcDbLine
 10
10.9391411275
 20
9.4671788158
 30
0.0
 11
10.9391411275
 21
9.4471301541
 31
0.0
  0
LINE
  5
3F1
330
1F
100
AcDbEntity
  8
0
  6
Continuous
 62
     7
370
    15
100
AcDbLine
 10
10.9391411275
 20
9.4153339214
 30
0.0
 11
10.3879600815
 21
9.4153339214
 31
0.0
  0
LINE
  5
3F2
330
1F
100
AcDbEntity
  8
0
  6
Continuous
 62
     7
370
    15
100
AcDbLine
 10
10.3879600815
 20
9.4471301541
 30
0.0
 11
10.3879600815
 21
9.4153339214
 31
0.0
  0
LINE
  5
3F3
330
1F
100
AcDbEntity
  8
0
  6
Continuous
 62
     7
370
    15
100
AcDbLine
 10
10.9391411275
 20
9.4471301541
 30
0.0
 11
10.9391411275
 21
9.4153339214
 31
0.0
  0
LINE
  5
3F4
330
1F
100
AcDbEntity
  8
0
  6
Continuous
 62
     7
370
    15
100
AcDbLine
 10
12.8289049235
 20
6.7640332295
 30
0.0
 11
12.2777238774
 21
6.7640332295
 31
0.0
  0
LINE
  5
3F5
330
1F
100
AcDbEntity
  8
0
  6
Continuous
 62
     7
370
    15
100
AcDbLine
 10
12.2777238774
 20
6.7958294622
 30
0.0
 11
12.8289049235
 21
6.7958294622
 31
0.0
  0
LINE
  5
3F6
330
1F
100
AcDbEntity
  8
0
  6
Continuous
 62
     7
370
    15
100
AcDbLine
 10
12.8289049235
 20
6.7640332295
 30
0.0
 11
12.8289049235
 21
6.7958294622
 31
0.0
  0
LINE
  5
3F7
330
1F
100
AcDbEntity
  8
0
  6
Continuous
 62
     7
370
    15
100
AcDbLine
 10
12.2777238774
 20
6.7640332295
 30
0.0
 11
12.2777238774
 21
6.7958294622
 31
0.0
  0
LINE
  5
3F8
330
1F
100
AcDbEntity
  8
0
  6
Continuous
 62
     7
370
    15
100
AcDbLine
 10
12.8289049235
 20
6.7439845678
 30
0.0
 11
12.2777238774
 21
6.7439845678
 31
0.0
  0
LINE
  5
3F9
330
1F
100
AcDbEntity
  8
0
  6
Continuous
 62
     7
370
    15
100
AcDbLine
 10
12.8289049235
 20
6.7439845678
 30
0.0
 11
12.8289049235
 21
6.7640332295
 31
0.0
  0
LINE
  5
3FA
330
1F
100
AcDbEntity
  8
0
  6
Continuous
 62
     7
370
    15
100
AcDbLine
 10
12.2777238774
 20
6.7640332295
 30
0.0
 11
12.2777238774
 21
6.7439845678
 31
0.0
  0
LINE
  5
3FB
330
1F
100
AcDbEntity
  8
0
  6
Continuous
 62
     7
370
    15
100
AcDbLine
 10
12.868275082
 20
9.4087313577
 30
0.0
 11
12.8289049235
 21
9.4087313577
 31
0.0
  0
LINE
  5
3FC
330
1F
100
AcDbEntity
  8
0
  6
Continuous
 62
     7
370
    15
100
AcDbLine
 10
12.868275082
 20
9.411826282
 30
0.0
 11
12.868275082
 21
9.4087313577
 31
0.0
  0
LINE
  5
3FD
330
1F
100
AcDbEntity
  8
0
  6
Continuous
 62
     7
370
    15
100
AcDbLine
 10
13.59184247
 20
9.411826282
 30
0.0
 11
12.868275082
 21
9.411826282
 31
0.0
  0
LINE
  5
3FE
330
1F
100
AcDbEntity
  8
0
  6
Continuous
 62
     7
370
    15
100
AcDbLine
 10
13.5406726744
 20
9.3606564864
 30
0.0
 11
13.59184247
 21
9.411826282
 31
0.0
  0
LINE
  5
3FF
330
1F
100
AcDbEntity
  8
0
  6
Continuous
 62
     7
370
    15
100
AcDbLine
 10
9.6761923306
 20
9.3606564864
 30
0.0
 11
13.5406726744
 21
9.3606564864
 31
0.0
  0
LINE
  5
400
330
1F
100
AcDbEntity
  8
0
  6
Continuous
 62
     7
370
    15
100
AcDbLine
 10
9.625022535
 20
9.411826282
 30
0.0
 11
9.6761923306
 21
9.3606564864
 31
0.0
  0
LINE
  5
401
330
1F
100
AcDbEntity
  8
0
  6
Continuous
 62
     7
370
    15
100
AcDbLine
 10
10.348589923
 20
9.411826282
 30
0.0
 11
9.625022535
 21
9.411826282
 31
0.0
  0
LINE
  5
402
330
1F
100
AcDbEntity
  8
0
  6
Continuous
 62
     7
370
    15
100
AcDbLine
 10
10.348589923
 20
9.4087313577
 30
0.0
 11
10.348589923
 21
9.411826282
 31
0.0
  0
LINE
  5
403
330
1F
100
AcDbEntity
  8
0
  6
Continuous
 62
     7
370
    15
100
AcDbLine
 10
10.3879600815
 20
9.4087313577
 30
0.0
 11
10.348589923
 21
9.4087313577
 31
0.0
  0
LINE
  5
404
330
1F
100
AcDbEntity
  8
0
  6
Continuous
 62
     7
370
    15
100
AcDbLine
 10
10.9785112127
 20
9.4087313577
 30
0.0
 11
10.9391411275
 21
9.4087313577
 31
0.0
  0
LINE
  5
405
330
1F
100
AcDbEntity
  8
0
  6
Continuous
 62
     7
370
    15
100
AcDbLine
 10
10.9785112127
 20
9.411826282
 30
0.0
 11
10.9785112127
 21
9.4087313577
 31
0.0
  0
LINE
  5
406
330
1F
100
AcDbEntity
  8
0
  6
Continuous
 62
     7
370
    15
100
AcDbLine
 10
12.2383537922
 20
9.411826282
 30
0.0
 11
10.9785112127
 21
9.411826282
 31
0.0
  0
LINE
  5
407
330
1F
100
AcDbEntity
  8
0
  6
Continuous
 62
     7
370
    15
100
AcDbLine
 10
12.2383537922
 20
9.4087313577
 30
0.0
 11
12.2383537922
 21
9.411826282
 31
0.0
  0
LINE
  5
408
330
1F
100
AcDbEntity
  8
0
  6
Continuous
 62
     7
370
    15
100
AcDbLine
 10
12.2777238774
 20
9.4087313577
 30
0.0
 11
12.2383537922
 21
9.4087313577
 31
0.0
  0
LINE
  5
409
330
1F
100
AcDbEntity
  8
0
  6
Continuous
 62
     7
370
    15
100
AcDbLine
 10
12.2777238774
 20
9.4153339214
 30
0.0
 11
12.2777238774
 21
9.4087313577
 31
0.0
  0
LINE
  5
40A
330
1F
100
AcDbEntity
  8
0
  6
Continuous
 62
     7
370
    15
100
AcDbLine
 10
12.8289049235
 20
9.4153339214
 30
0.0
 11
12.2777238774
 21
9.4153339214
 31
0.0
  0
LINE
  5
40B
330
1F
100
AcDbEntity
  8
0
  6
Continuous
 62
     7
370
    15
100
AcDbLine
 10
12.8289049235
 20
9.4087313577
 30
0.0
 11
12.8289049235
 21
9.4153339214
 31
0.0
  0
LINE
  5
40C
330
1F
100
AcDbEntity
  8
0
  6
Continuous
 62
     7
370
    15
100
AcDbLine
 10
10.3879600815
 20
9.4153339214
 30
0.0
 11
10.3879600815
 21
9.4087313577
 31
0.0
  0
LINE
  5
40D
330
1F
100
AcDbEntity
  8
0
  6
Continuous
 62
     7
370
    15
100
AcDbLine
 10
10.9391411275
 20
9.4087313577
 30
0.0
 11
10.9391411275
 21
9.4153339214
 31
0.0
  0
LINE
  5
40E
330
1F
100
AcDbEntity
  8
0
  6
Continuous
 62
     7
370
    15
100
AcDbLine
 10
10.9785112127
 20
6.8024320259
 30
0.0
 11
10.9785112127
 21
6.7993371017
 31
0.0
  0
LINE
  5
40F
330
1F
100
AcDbEntity
  8
0
  6
Continuous
 62
     7
370
    15
100
AcDbLine
 10
10.9391411275
 20
6.8024320259
 30
0.0
 11
10.9785112127
 21
6.8024320259
 31
0.0
  0
LINE
  5
410
330
1F
100
AcDbEntity
  8
0
  6
Continuous
 62
     7
370
    15
100
AcDbLine
 10
10.9391411275
 20
6.7958294622
 30
0.0
 11
10.9391411275
 21
6.8024320259
 31
0.0
  0
LINE
  5
411
330
1F
100
AcDbEntity
  8
0
  6
Continuous
 62
     7
370
    15
100
AcDbLine
 10
10.3879600815
 20
6.7958294622
 30
0.0
 11
10.9391411275
 21
6.7958294622
 31
0.0
  0
LINE
  5
412
330
1F
100
AcDbEntity
  8
0
  6
Continuous
 62
     7
370
    15
100
AcDbLine
 10
10.3879600815
 20
6.8024320259
 30
0.0
 11
10.3879600815
 21
6.7958294622
 31
0.0
  0
LINE
  5
413
330
1F
100
AcDbEntity
  8
0
  6
Continuous
 62
     7
370
    15
100
AcDbLine
 10
10.348589923
 20
6.8024320259
 30
0.0
 11
10.3879600815
 21
6.8024320259
 31
0.0
  0
LINE
  5
414
330
1F
100
AcDbEntity
  8
0
  6
Continuous
 62
     7
370
    15
100
AcDbLine
 10
10.348589923
 20
6.7993371017
 30
0.0
 11
10.348589923
 21
6.8024320259
 31
0.0
  0
LINE
  5
415
330
1F
100
AcDbEntity
  8
0
  6
Continuous
 62
     7
370
    15
100
AcDbLine
 10
9.625022535
 20
6.7993371017
 30
0.0
 11
10.348589923
 21
6.7993371017
 31
0.0
  0
LINE
  5
416
330
1F
100
AcDbEntity
  8
0
  6
Continuous
 62
     7
370
    15
100
AcDbLine
 10
9.6761923306
 20
6.8505068972
 30
0.0
 11
9.625022535
 21
6.7993371017
 31
0.0
  0
LINE
  5
417
330
1F
100
AcDbEntity
  8
0
  6
Continuous
 62
     7
370
    15
100
AcDbLine
 10
13.5406726744
 20
6.8505068972
 30
0.0
 11
9.6761923306
 21
6.8505068972
 31
0.0
  0
LINE
  5
418
330
1F
100
AcDbEntity
  8
0
  6
Continuous
 62
     7
370
    15
100
AcDbLine
 10
13.5406726744
 20
6.8505068972
 30
0.0
 11
13.59184247
 21
6.7993371017
 31
0.0
  0
LINE
  5
419
330
1F
100
AcDbEntity
  8
0
  6
Continuous
 62
     7
370
    15
100
AcDbLine
 10
12.868275082
 20
6.7993371017
 30
0.0
 11
13.59184247
 21
6.7993371017
 31
0.0
  0
LINE
  5
41A
330
1F
100
AcDbEntity
  8
0
  6
Continuous
 62
     7
370
    15
100
AcDbLine
 10
12.868275082
 20
6.8024320259
 30
0.0
 11
12.868275082
 21
6.7993371017
 31
0.0
  0
LINE
  5
41B
330
1F
100
AcDbEntity
  8
0
  6
Continuous
 62
     7
370
    15
100
AcDbLine
 10
12.8289049235
 20
6.8024320259
 30
0.0
 11
12.868275082
 21
6.8024320259
 31
0.0
  0
LINE
  5
41C
330
1F
100
AcDbEntity
  8
0
  6
Continuous
 62
     7
370
    15
100
AcDbLine
 10
12.8289049235
 20
6.7958294622
 30
0.0
 11
12.8289049235
 21
6.8024320259
 31
0.0
  0
LINE
  5
41D
330
1F
100
AcDbEntity
  8
0
  6
Continuous
 62
     7
370
    15
100
AcDbLine
 10
12.2383537922
 20
6.8024320259
 30
0.0
 11
12.2777238774
 21
6.8024320259
 31
0.0
  0
LINE
  5
41E
330
1F
100
AcDbEntity
  8
0
  6
Continuous
 62
     7
370
    15
100
AcDbLine
 10
12.2383537922
 20
6.7993371017
 30
0.0
 11
12.2383537922
 21
6.8024320259
 31
0.0
  0
LINE
  5
41F
330
1F
100
AcDbEntity
  8
0
  6
Continuous
 62
     7
370
    15
100
AcDbLine
 10
10.9785112127
 20
6.7993371017
 30
0.0
 11
12.2383537922
 21
6.7993371017
 31
0.0
  0
LINE
  5
420
330
1F
100
AcDbEntity
  8
0
  6
Continuous
 62
     7
370
    15
100
AcDbLine
 10
12.2777238774
 20
6.8024320259
 30
0.0
 11
12.2777238774
 21
6.7958294622
 31
0.0
  0
LINE
  5
421
330
1F
100
AcDbEntity
  8
0
  6
Continuous
 62
     7
370
    15
100
AcDbLine
 10
12.8289049235
 20
9.4471301541
 30
0.0
 11
12.2777238774
 21
9.4471301541
 31
0.0
  0
LINE
  5
422
330
1F
100
AcDbEntity
  8
0
  6
Continuous
 62
     7
370
    15
100
AcDbLine
 10
12.2777238774
 20
9.4471301541
 30
0.0
 11
12.2777238774
 21
9.4671788158
 31
0.0
  0
LINE
  5
423
330
1F
100
AcDbEntity
  8
0
  6
Continuous
 62
     7
370
    15
100
AcDbLine
 10
12.2777238774
 20
9.4671788158
 30
0.0
 11
12.8289049235
 21
9.4671788158
 31
0.0
  0
LINE
  5
424
330
1F
100
AcDbEntity
  8
0
  6
Continuous
 62
     7
370
    15
100
AcDbLine
 10
12.8289049235
 20
9.4671788158
 30
0.0
 11
12.8289049235
 21
9.4471301541
 31
0.0
  0
LINE
  5
425
330
1F
100
AcDbEntity
  8
0
  6
Continuous
 62
     7
370
    15
100
AcDbLine
 10
12.8289049235
 20
9.4471301541
 30
0.0
 11
12.8289049235
 21
9.4153339214
 31
0.0
  0
LINE
  5
426
330
1F
100
AcDbEntity
  8
0
  6
Continuous
 62
     7
370
    15
100
AcDbLine
 10
12.2777238774
 20
9.4153339214
 30
0.0
 11
12.2777238774
 21
9.4471301541
 31
0.0
  0
LINE
  5
427
330
1F
100
AcDbEntity
  8
0
  6
Continuous
 62
     7
370
    15
100
AcDbLine
 10
10.9391411275
 20
6.7640332295
 30
0.0
 11
10.3879600815
 21
6.7640332295
 31
0.0
  0
LINE
  5
428
330
1F
100
AcDbEntity
  8
0
  6
Continuous
 62
     7
370
    15
100
AcDbLine
 10
10.3879600815
 20
6.7640332295
 30
0.0
 11
10.3879600815
 21
6.7958294622
 31
0.0
  0
LINE
  5
429
330
1F
100
AcDbEntity
  8
0
  6
Continuous
 62
     7
370
    15
100
AcDbLine
 10
10.9391411275
 20
6.7640332295
 30
0.0
 11
10.9391411275
 21
6.7958294622
 31
0.0
  0
LINE
  5
42A
330
1F
100
AcDbEntity
  8
0
  6
Continuous
 62
     7
370
    15
100
AcDbLine
 10
10.9391411275
 20
6.7439845678
 30
0.0
 11
10.3879600815
 21
6.7439845678
 31
0.0
  0
LINE
  5
42B
330
1F
100
AcDbEntity
  8
0
  6
Continuous
 62
     7
370
    15
100
AcDbLine
 10
10.9391411275
 20
6.7439845678
 30
0.0
 11
10.9391411275
 21
6.7640332295
 31
0.0
  0
LINE
  5
42C
330
1F
100
AcDbEntity
  8
0
  6
Continuous
 62
     7
370
    15
100
AcDbLine
 10
10.3879600815
 20
6.7640332295
 30
0.0
 11
10.3879600815
 21
6.7439845678
 31
0.0
  0
LINE
  5
42D
330
1F
100
AcDbEntity
  8
0
  6
Continuous
 62
     7
370
    15
100
AcDbLine
 10
9.6171378261
 20
9.089833675
 30
0.0
 11
9.5887474474
 21
9.089833675
 31
0.0
  0
ARC
  5
42E
330
1F
100
AcDbEntity
  8
0
  6
Continuous
 62
     7
370
    15
100
AcDbCircle
 10
9.6202435261
 20
9.4166053138
 30
0.0
 40
0.0314960629921277
100
AcDbArc
 50
90.0
 51
180.0
  0
LINE
  5
42F
330
1F
100
AcDbEntity
  8
0
  6
Continuous
 62
     7
370
    15
100
AcDbLine
 10
10.348589923
 20
9.4481013696
 30
0.0
 11
9.6202434569
 21
9.4481013696
 31
0.0
  0
LINE
  5
430
330
1F
100
AcDbEntity
  8
0
  6
Continuous
 62
     7
370
    15
100
AcDbLine
 10
10.348589923
 20
9.411826282
 30
0.0
 11
10.348589923
 21
9.4481013696
 31
0.0
  0
LINE
  5
431
330
1F
100
AcDbEntity
  8
0
  6
Continuous
 62
     7
370
    15
100
AcDbLine
 10
9.625022535
 20
9.411826282
 30
0.0
 11
9.625022535
 21
6.7993371017
 31
0.0
  0
LINE
  5
432
330
1F
100
AcDbEntity
  8
0
  6
Continuous
 62
     7
370
    15
100
AcDbLine
 10
10.348589923
 20
6.7993371017
 30
0.0
 11
10.348589923
 21
6.763062014
 31
0.0
  0
LINE
  5
433
330
1F
100
AcDbEntity
  8
0
  6
Continuous
 62
     7
370
    15
100
AcDbLine
 10
9.6202434569
 20
6.763062014
 30
0.0
 11
10.348589923
 21
6.763062014
 31
0.0
  0
ARC
  5
434
330
1F
100
AcDbEntity
  8
0
  6
Continuous
 62
     7
370
    15
100
AcDbCircle
 10
9.6202435261
 20
6.7945580698
 30
0.0
 40
0.0314960629921268
100
AcDbArc
 50
180.0
 51
270.0
  0
LINE
  5
435
330
1F
100
AcDbEntity
  8
0
  6
Continuous
 62
     7
370
    15
100
AcDbLine
 10
9.5887474474
 20
7.1213297086
 30
0.0
 11
9.5887474474
 21
6.7945580235
 31
0.0
  0
LINE
  5
436
330
1F
100
AcDbEntity
  8
0
  6
Continuous
 62
     7
370
    15
100
AcDbLine
 10
9.5887474474
 20
7.1213297086
 30
0.0
 11
9.6171378261
 21
7.1213297086
 31
0.0
  0
LINE
  5
437
330
1F
100
AcDbEntity
  8
0
  6
Continuous
 62
     7
370
    15
100
AcDbLine
 10
9.6171378261
 20
7.5937706576
 30
0.0
 11
9.6171378261
 21
7.1213297086
 31
0.0
  0
LINE
  5
438
330
1F
100
AcDbEntity
  8
0
  6
Continuous
 62
     7
370
    15
100
AcDbLine
 10
9.6171378261
 20
7.5937706576
 30
0.0
 11
9.5887474474
 21
7.5937706576
 31
0.0
  0
LINE
  5
439
330
1F
100
AcDbEntity
  8
0
  6
Continuous
 62
     7
370
    15
100
AcDbLine
 10
9.5887474474
 20
8.617392726
 30
0.0
 11
9.5887474474
 21
7.5937706576
 31
0.0
  0
LINE
  5
43A
330
1F
100
AcDbEntity
  8
0
  6
Continuous
 62
     7
370
    15
100
AcDbLine
 10
9.5887474474
 20
8.617392726
 30
0.0
 11
9.6171378261
 21
8.617392726
 31
0.0
  0
LINE
  5
43B
330
1F
100
AcDbEntity
  8
0
  6
Continuous
 62
     7
370
    15
100
AcDbLine
 10
9.6171378261
 20
9.089833675
 30
0.0
 11
9.6171378261
 21
8.617392726
 31
0.0
  0
LINE
  5
43C
330
1F
100
AcDbEntity
  8
0
  6
Continuous
 62
     7
370
    15
100
AcDbLine
 10
9.5887474474
 20
9.4166053601
 30
0.0
 11
9.5887474474
 21
9.089833675
 31
0.0
  0
LINE
  5
43D
330
1F
100
AcDbEntity
  8
0
  6
Continuous
 62
     7
370
    15
100
AcDbLine
 10
13.6281175576
 20
7.5937706576
 30
0.0
 11
13.5997271789
 21
7.5937706576
 31
0.0
  0
LINE
  5
43E
330
1F
100
AcDbEntity
  8
0
  6
Continuous
 62
     7
370
    15
100
AcDbLine
 10
13.5997271789
 20
7.1213297086
 30
0.0
 11
13.5997271789
 21
7.5937706576
 31
0.0
  0
LINE
  5
43F
330
1F
100
AcDbEntity
  8
0
  6
Continuous
 62
     7
370
    15
100
AcDbLine
 10
13.5997271789
 20
7.1213297086
 30
0.0
 11
13.6281175576
 21
7.1213297086
 31
0.0
  0
LINE
  5
440
330
1F
100
AcDbEntity
  8
0
  6
Continuous
 62
     7
370
    15
100
AcDbLine
 10
13.6281175576
 20
6.7945580235
 30
0.0
 11
13.6281175576
 21
7.1213297086
 31
0.0
  0
ARC
  5
441
330
1F
100
AcDbEntity
  8
0
  6
Continuous
 62
     7
370
    15
100
AcDbCircle
 10
13.5966214789
 20
6.7945580698
 30
0.0
 40
0.0314960629921268
100
AcDbArc
 50
270.0
 51
0.0
  0
LINE
  5
442
330
1F
100
AcDbEntity
  8
0
  6
Continuous
 62
     7
370
    15
100
AcDbLine
 10
12.868275082
 20
6.763062014
 30
0.0
 11
13.5966215481
 21
6.763062014
 31
0.0
  0
LINE
  5
443
330
1F
100
AcDbEntity
  8
0
  6
Continuous
 62
     7
370
    15
100
AcDbLine
 10
12.868275082
 20
6.7993371017
 30
0.0
 11
12.868275082
 21
6.763062014
 31
0.0
  0
LINE
  5
444
330
1F
100
AcDbEntity
  8
0
  6
Continuous
 62
     7
370
    15
100
AcDbLine
 10
13.59184247
 20
6.7993371017
 30
0.0
 11
13.59184247
 21
9.411826282
 31
0.0
  0
LINE
  5
445
330
1F
100
AcDbEntity
  8
0
  6
Continuous
 62
     7
370
    15
100
AcDbLine
 10
12.868275082
 20
9.4481013696
 30
0.0
 11
12.868275082
 21
9.411826282
 31
0.0
  0
LINE
  5
446
330
1F
100
AcDbEntity
  8
0
  6
Continuous
 62
     7
370
    15
100
AcDbLine
 10
13.5966215481
 20
9.4481013696
 30
0.0
 11
12.868275082
 21
9.4481013696
 31
0.0
  0
ARC
  5
447
330
1F
100
AcDbEntity
  8
0
  6
Continuous
 62
     7
370
    15
100
AcDbCircle
 10
13.5966214789
 20
9.4166053138
 30
0.0
 40
0.0314960629921277
100
AcDbArc
 50
0.0
 51
90.0
  0
LINE
  5
448
330
1F
100
AcDbEntity
  8
0
  6
Continuous
 62
     7
370
    15
100
AcDbLine
 10
13.6281175576
 20
9.089833675
 30
0.0
 11
13.6281175576
 21
9.4166053601
 31
0.0
  0
LINE
  5
449
330
1F
100
AcDbEntity
  8
0
  6
Continuous
 62
     7
370
    15
100
AcDbLine
 10
13.6281175576
 20
9.089833675
 30
0.0
 11
13.5997271789
 21
9.089833675
 31
0.0
  0
LINE
  5
44A
330
1F
100
AcDbEntity
  8
0
  6
Continuous
 62
     7
370
    15
100
AcDbLine
 10
13.5997271789
 20
8.617392726
 30
0.0
 11
13.5997271789
 21
9.089833675
 31
0.0
  0
LINE
  5
44B
330
1F
100
AcDbEntity
  8
0
  6
Continuous
 62
     7
370
    15
100
AcDbLine
 10
13.5997271789
 20
8.617392726
 30
0.0
 11
13.6281175576
 21
8.617392726
 31
0.0
  0
LINE
  5
44C
330
1F
100
AcDbEntity
  8
0
  6
Continuous
 62
     7
370
    15
100
AcDbLine
 10
13.6281175576
 20
7.5937706576
 30
0.0
 11
13.6281175576
 21
8.617392726
 31
0.0
  0
LINE
  5
44D
330
1F
100
AcDbEntity
  8
0
  6
Continuous
 62
     7
370
    15
100
AcDbLine
 10
9.6761923306
 20
6.8505068972
 30
0.0
 11
9.6761923306
 21
9.3606564864
 31
0.0
  0
LINE
  5
44E
330
1F
100
AcDbEntity
  8
0
  6
Continuous
 62
     7
370
    15
100
AcDbLine
 10
13.5406726744
 20
9.3606564864
 30
0.0
 11
13.5406726744
 21
6.8505068972
 31
0.0
  0
LINE
  5
44F
330
1F
100
AcDbEntity
  8
0
  6
Continuous
 62
     7
370
    15
100
AcDbLine
 10
12.2383537922
 20
9.4481013696
 30
0.0
 11
10.9785112127
 21
9.4481013696
 31
0.0
  0
LINE
  5
450
330
1F
100
AcDbEntity
  8
0
  6
Continuous
 62
     7
370
    15
100
AcDbLine
 10
12.2383537922
 20
9.411826282
 30
0.0
 11
12.2383537922
 21
9.4481013696
 31
0.0
  0
LINE
  5
451
330
1F
100
AcDbEntity
  8
0
  6
Continuous
 62
     7
370
    15
100
AcDbLine
 10
10.9785112127
 20
9.411826282
 30
0.0
 11
10.9785112127
 21
9.4481013696
 31
0.0
  0
LINE
  5
452
330
1F
100
AcDbEntity
  8
0
  6
Continuous
 62
     7
370
    15
100
AcDbLine
 10
10.9785112127
 20
6.7993371017
 30
0.0
 11
10.9785112127
 21
6.763062014
 31
0.0
  0
LINE
  5
453
330
1F
100
AcDbEntity
  8
0
  6
Continuous
 62
     7
370
    15
100
AcDbLine
 10
10.9785112127
 20
6.763062014
 30
0.0
 11
12.2383537922
 21
6.763062014
 31
0.0
  0
LINE
  5
454
330
1F
100
AcDbEntity
  8
0
  6
Continuous
 62
     7
370
    15
100
AcDbLine
 10
12.2383537922
 20
6.7993371017
 30
0.0
 11
12.2383537922
 21
6.763062014
 31
0.0
  0
LINE
  5
455
330
1F
100
AcDbEntity
  8
0
  6
Continuous
 62
     7
370
    15
100
AcDbLine
 10
9.6201356581
 20
9.4953455305
 30
0.0
 11
13.5967293468
 21
9.4953455305
 31
0.0
  0
ELLIPSE
  5
456
330
1F
100
AcDbEntity
  8
0
  6
Continuous
 62
     7
370
    15
100
AcDbEllipse
 10
13.5965134201
 20
9.4164972551
 30
0.0
 11
0.05583041286890201
 21
0.05583041286890378
 31
0.0
210
0.0
220
0.0
230
1.0
 40
0.9972646886
 41
5.499156671652522
 42
7.067213942706632
  0
LINE
  5
457
330
1F
100
AcDbEntity
  8
0
  6
Continuous
 62
     7
370
    15
100
AcDbLine
 10
13.6753615718
 20
9.4167131588
 30
0.0
 11
13.6753615718
 21
9.089833675
 31
0.0
  0
LINE
  5
458
330
1F
100
AcDbEntity
  8
0
  6
Continuous
 62
     7
370
    15
100
AcDbLine
 10
9.5415034332
 20
9.089833675
 30
0.0
 11
9.5415034332
 21
9.4167131588
 31
0.0
  0
ELLIPSE
  5
459
330
1F
100
AcDbEntity
  8
0
  6
Continuous
 62
     7
370
    15
100
AcDbEllipse
 10
9.6203515848
 20
9.4164972551
 30
0.0
 11
-0.05583041286890201
 21
0.05583041286890378
 31
0.0
210
0.0
220
0.0
230
1.0
 40
0.9972646886
 41
5.49915667165257
 42
7.067213942706648
  0
LINE
  5
45A
330
1F
100
AcDbEntity
  8
0
  6
Continuous
 62
     7
370
    15
100
AcDbLine
 10
13.6281175576
 20
9.089833675
 30
0.0
 11
13.6753615718
 21
9.089833675
 31
0.0
  0
LINE
  5
45B
330
1F
100
AcDbEntity
  8
0
  6
Continuous
 62
     7
370
    15
100
AcDbLine
 10
9.5887474474
 20
9.089833675
 30
0.0
 11
9.5415034332
 21
9.089833675
 31
0.0
  0
LINE
  5
45C
330
1F
100
AcDbEntity
  8
0
  6
Continuous
 62
     7
370
    15
100
AcDbLine
 10
13.5967293468
 20
6.7158178531
 30
0.0
 11
9.6201356581
 21
6.7158178531
 31
0.0
  0
ELLIPSE
  5
45D
330
1F
100
AcDbEntity
  8
0
  6
Continuous
 62
     7
370
    15
100
AcDbEllipse
 10
9.6203515848
 20
6.7946661285
 30
0.0
 11
-0.05583041286890199
 21
-0.05583041286890289
 31
0.0
210
0.0
220
0.0
230
1.0
 40
0.9972646886
 41
5.499156671652535
 42
7.067213942706658
  0
LINE
  5
45E
330
1F
100
AcDbEntity
  8
0
  6
Continuous
 62
     7
370
    15
100
AcDbLine
 10
9.5415034332
 20
6.7944502248
 30
0.0
 11
9.5415034332
 21
7.1213297086
 31
0.0
  0
LINE
  5
45F
330
1F
100
AcDbEntity
  8
0
  6
Continuous
 62
     7
370
    15
100
AcDbLine
 10
13.6753615718
 20
7.1213297086
 30
0.0
 11
13.6753615718
 21
6.7944502248
 31
0.0
  0
ELLIPSE
  5
460
330
1F
100
AcDbEntity
  8
0
  6
Continuous
 62
     7
370
    15
100
AcDbEllipse
 10
13.5965134201
 20
6.7946661285
 30
0.0
 11
0.05583041286890199
 21
-0.05583041286890289
 31
0.0
210
0.0
220
0.0
230
1.0
 40
0.9972646886
 41
5.499156671652567
 42
7.067213942706635
  0
LINE
  5
461
330
1F
100
AcDbEntity
  8
0
  6
Continuous
 62
     7
370
    15
100
AcDbLine
 10
13.6281175576
 20
7.1213297086
 30
0.0
 11
13.6753615718
 21
7.1213297086
 31
0.0
  0
LINE
  5
462
330
1F
100
AcDbEntity
  8
0
  6
Continuous
 62
     7
370
    15
100
AcDbLine
 10
9.5415034332
 20
7.1213297086
 30
0.0
 11
9.5887474474
 21
7.1213297086
 31
0.0
  0
LINE
  5
463
330
1F
100
AcDbEntity
  8
0
  6
Continuous
 62
     7
370
    15
100
AcDbLine
 10
13.6753615718
 20
8.617392726
 30
0.0
 11
13.6753615718
 21
7.5937706576
 31
0.0
  0
LINE
  5
464
330
1F
100
AcDbEntity
  8
0
  6
Continuous
 62
     7
370
    15
100
AcDbLine
 10
13.6281175576
 20
8.617392726
 30
0.0
 11
13.6753615718
 21
8.617392726
 31
0.0
  0
LINE
  5
465
330
1F
100
AcDbEntity
  8
0
  6
Continuous
 62
     7
370
    15
100
AcDbLine
 10
13.6753615718
 20
7.5937706576
 30
0.0
 11
13.6281175576
 21
7.5937706576
 31
0.0
  0
LINE
  5
466
330
1F
100
AcDbEntity
  8
0
  6
Continuous
 62
     7
370
    15
100
AcDbLine
 10
9.5415034332
 20
7.5937706576
 30
0.0
 11
9.5415034332
 21
8.617392726
 31
0.0
  0
LINE
  5
467
330
1F
100
AcDbEntity
  8
0
  6
Continuous
 62
     7
370
    15
100
AcDbLine
 10
9.5415034332
 20
8.617392726
 30
0.0
 11
9.5887474474
 21
8.617392726
 31
0.0
  0
LINE
  5
468
330
1F
100
AcDbEntity
  8
0
  6
Continuous
 62
     7
370
    15
100
AcDbLine
 10
9.5887474474
 20
7.5937706576
 30
0.0
 11
9.5415034332
 21
7.5937706576
 31
0.0
  0
ARC
  5
469
330
1F
100
AcDbEntity
  8
0
  6
Continuous
 62
     7
370
    15
100
AcDbCircle
 10
12.5574679322
 20
6.845404162
 30
0.0
 40
0.1304585163177818
100
AcDbArc
 50
268.1755115009
 51
276.6290846134
  0
ARC
  5
46A
330
1F
100
AcDbEntity
  8
0
  6
Continuous
 62
     7
370
    15
100
AcDbCircle
 10
12.5491608331
 20
6.8454033133
 30
0.0
 40
0.1304576691701606
100
AcDbArc
 50
263.3708878894
 51
271.8245159963
  0
ARC
  5
46B
330
1F
100
AcDbEntity
  8
0
  6
Continuous
 62
     7
370
    15
100
AcDbCircle
 10
10.6677041719
 20
6.8454033133
 30
0.0
 40
0.1304576691701793
100
AcDbArc
 50
268.1754840037
 51
276.6291121106
  0
ARC
  5
46C
330
1F
100
AcDbEntity
  8
0
  6
Continuous
 62
     7
370
    15
100
AcDbCircle
 10
10.6593970728
 20
6.845404162
 30
0.0
 40
0.1304585163175459
100
AcDbArc
 50
263.3709153866
 51
271.8244884991
  0
ARC
  5
46D
330
1F
100
AcDbEntity
  8
0
  6
Continuous
 62
     7
370
    15
100
AcDbCircle
 10
10.6635506045
 20
9.3033845249
 30
0.0
 40
0.1929201894463401
100
AcDbArc
 50
84.2841631435
 51
95.7158368565
  0
ARC
  5
46E
330
1F
100
AcDbEntity
  8
0
  6
Continuous
 62
     7
370
    15
100
AcDbCircle
 10
12.5533144005
 20
9.3033845249
 30
0.0
 40
0.1929201894463596
100
AcDbArc
 50
84.2841631435
 51
95.7158368565
  0
LINE
  5
46F
330
1F
100
AcDbEntity
  8
0
  6
Continuous
 62
     7
370
    15
100
AcDbLine
 10
13.6628651295
 20
7.5937706576
 30
0.0
 11
13.6628651295
 21
7.1213297086
 31
0.0
  0
LINE
  5
470
330
1F
100
AcDbEntity
  8
0
  6
Continuous
 62
     7
370
    15
100
AcDbLine
 10
13.6628651295
 20
9.089833675
 30
0.0
 11
13.6628651295
 21
8.617392726
 31
0.0
  0
LINE
  5
471
330
1F
100
AcDbEntity
  8
0
  6
Continuous
 62
     7
370
    15
100
AcDbLine
 10
9.5539998755
 20
8.617392726
 30
0.0
 11
9.5539998755
 21
9.089833675
 31
0.0
  0
LINE
  5
472
330
1F
100
AcDbEntity
  8
0
  6
Continuous
 62
     7
370
    15
100
AcDbLine
 10
9.5539998755
 20
7.1213297086
 30
0.0
 11
9.5539998755
 21
7.5937706576
 31
0.0
  0
DIMENSION
  5
473
330
1F
100
AcDbEntity
  8
0
  6
Continuous
 62
     7
370
     0
100
AcDbDimension
  2
*D30
 10
13.6753616363
 20
10.6631714688
 30
0.0
 11
11.6084325025
 21
10.6631714688
 31
0.0
 70
   160
 71
     2
 42
-1.0
  3
SLDDIMSTYLE0
100
AcDbAlignedDimension
 13
9.5415033686
 23
9.4167132245
 33
0.0
 14
13.6753616363
 24
9.4167132245
 34
0.0
100
AcDbRotatedDimension
  0
DIMENSION
  5
487
330
1F
100
AcDbEntity
  8
0
  6
Continuous
 62
     7
370
     0
100
AcDbDimension
  2
*D31
 10
13.5918424107
 20
10.1099758604
 30
0.0
 11
11.6084325025
 21
10.1099758604
 31
0.0
 70
   160
 71
     2
 42
-1.0
  3
SLDDIMSTYLE0
100
AcDbAlignedDimension
 13
9.6250225943
 23
9.4118262457
 33
0.0
 14
13.5918424107
 24
9.4118262457
 34
0.0
100
AcDbRotatedDimension
  0
DIMENSION
  5
49B
330
1F
100
AcDbEntity
  8
0
  6
Continuous
 62
     7
370
     0
100
AcDbDimension
  2
*D32
 10
14.0678835835
 20
6.7993371379
 30
0.0
 11
14.0678835835
 21
8.1055816918
 31
0.0
 70
   160
 71
     2
 42
-1.0
  3
SLDDIMSTYLE0
100
AcDbAlignedDimension
 13
13.5918424107
 23
9.4118262457
 33
0.0
 14
13.5918424107
 24
6.7993371379
 34
0.0
 50
90.0
100
AcDbRotatedDimension
  0
DIMENSION
  5
4AF
330
1F
100
AcDbEntity
  8
0
  6
Continuous
 62
     7
370
     0
100
AcDbDimension
  2
*D33
 10
14.6497751433
 20
6.7158179123
 30
0.0
 11
14.6497751433
 21
8.1055816918
 31
0.0
 70
   160
 71
     2
 42
-1.0
  3
SLDDIMSTYLE0
100
AcDbAlignedDimension
 13
13.5967293895
 23
9.4953454713
 33
0.0
 14
13.5967293895
 24
6.7158179123
 34
0.0
 50
90.0
100
AcDbRotatedDimension
  0
LINE
  5
4C3
330
1F
100
AcDbEntity
  8
0
  6
PHANTOM
 62
     7
370
    30
100
AcDbLine
 10
11.6084325025
 20
9.6836106571
 30
0.0
 11
11.6084325025
 21
6.5107511296
 31
0.0
  0
LINE
  5
4C4
330
1F
100
AcDbEntity
  8
0
  6
Continuous
 62
     7
370
    30
100
AcDbLine
 10
11.6084325025
 20
9.6836106571
 30
0.0
 11
11.0459325025
 21
9.6836106571
 31
0.0
  0
SOLID
  5
4C5
330
1F
100
AcDbEntity
  8
0
  6
Continuous
 62
     7
370
    30
100
AcDbTrace
 10
11.0459325025
 20
9.6836106571
 30
0.0
 11
11.3271825025
 21
9.6386106571
 31
0.0
 12
11.3271825025
 22
9.7286106571
 32
0.0
 13
11.3271825025
 23
9.7286106571
 33
0.0
  0
LINE
  5
4C6
330
1F
100
AcDbEntity
  8
0
  6
Continuous
 62
     7
370
    30
100
AcDbLine
 10
11.6084325025
 20
6.5107511296
 30
0.0
 11
11.0459325025
 21
6.5107511296
 31
0.0
  0
SOLID
  5
4C7
330
1F
100
AcDbEntity
  8
0
  6
Continuous
 62
     7
370
    30
100
AcDbTrace
 10
11.0459325025
 20
6.5107511296
 30
0.0
 11
11.3271825025
 21
6.4657511296
 31
0.0
 12
11.3271825025
 22
6.5557511296
 32
0.0
 13
11.3271825025
 23
6.5557511296
 33
0.0
  0
MTEXT
  5
4C8
330
1F
100
AcDbEntity
  8
0
  6
Continuous
 62
     7
100
AcDbMText
 10
10.8779854807
 20
9.7971990379
 30
0.0
 40
0.140625
 41
0.0
 71
     1
 72
     1
  1
B
  7
SLDTEXTSTYLE0
 73
     1
 44
1.0
  0
MTEXT
  5
4C9
330
1F
100
AcDbEntity
  8
0
  6
Continuous
 62
     7
100
AcDbMText
 10
10.8779854807
 20
6.6243395104
 30
0.0
 40
0.140625
 41
0.0
 71
     1
 72
     1
  1
B
  7
SLDTEXTSTYLE0
 73
     1
 44
1.0
  0
LINE
  5
4CA
330
1F
100
AcDbEntity
  8
0
  6
Continuous
 62
     7
370
    15
100
AcDbLine
 10
15.4531360456
 20
9.4921253543
 30
0.0
 11
15.453239041
 21
9.494091105
 31
0.0
  0
LINE
  5
4CB
330
1F
100
AcDbEntity
  8
0
  6
Continuous
 62
     7
370
    15
100
AcDbLine
 10
15.4139229286
 20
9.4961516012
 30
0.0
 11
15.4138198964
 21
9.4941858505
 31
0.0
  0
LINE
  5
4CC
330
1F
100
AcDbEntity
  8
0
  6
Continuous
 62
     7
370
    15
100
AcDbLine
 10
15.4138198964
 20
6.7169775331
 30
0.0
 11
15.4139229286
 21
6.7150117825
 31
0.0
  0
LINE
  5
4CD
330
1F
100
AcDbEntity
  8
0
  6
Continuous
 62
     7
370
    15
100
AcDbLine
 10
15.453239041
 20
6.7170722786
 30
0.0
 11
15.4531360456
 21
6.7190380293
 31
0.0
  0
LINE
  5
4CE
330
1F
100
AcDbEntity
  8
0
  6
Continuous
 62
     7
370
    15
100
AcDbLine
 10
15.391692662
 20
9.4481013696
 30
0.0
 11
15.3326375709
 21
9.4481013696
 31
0.0
  0
LINE
  5
4CF
330
1F
100
AcDbEntity
  8
0
  6
Continuous
 62
     7
370
    15
100
AcDbLine
 10
15.391692662
 20
9.4953455305
 30
0.0
 11
15.391692662
 21
9.4481013696
 31
0.0
  0
LINE
  5
4D0
330
1F
100
AcDbEntity
  8
0
  6
Continuous
 62
     7
370
    15
100
AcDbLine
 10
15.391692662
 20
9.4953455305
 30
0.0
 11
16.3210103998
 21
9.4466420531
 31
0.0
  0
LINE
  5
4D1
330
1F
100
AcDbEntity
  8
0
  6
Continuous
 62
     7
370
    15
100
AcDbLine
 10
16.3210103998
 20
6.7645213305
 30
0.0
 11
15.391692662
 21
6.7158178531
 31
0.0
  0
LINE
  5
4D2
330
1F
100
AcDbEntity
  8
0
  6
Continuous
 62
     7
370
    15
100
AcDbLine
 10
15.391692662
 20
6.763062014
 30
0.0
 11
15.391692662
 21
6.7158178531
 31
0.0
  0
LINE
  5
4D3
330
1F
100
AcDbEntity
  8
0
  6
Continuous
 62
     7
370
    15
100
AcDbLine
 10
15.3326375709
 20
6.763062014
 30
0.0
 11
15.391692662
 21
6.763062014
 31
0.0
  0
LINE
  5
4D4
330
1F
100
AcDbEntity
  8
0
  6
Continuous
 62
     7
370
    15
100
AcDbLine
 10
15.3326375709
 20
6.7993371017
 30
0.0
 11
15.3326375709
 21
6.763062014
 31
0.0
  0
LINE
  5
4D5
330
1F
100
AcDbEntity
  8
0
  6
Continuous
 62
     7
370
    15
100
AcDbLine
 10
15.3326375709
 20
9.4481013696
 30
0.0
 11
15.3326375709
 21
9.411826282
 31
0.0
  0
LINE
  5
4D6
330
1F
100
AcDbEntity
  8
0
  6
Continuous
 62
     7
370
    15
100
AcDbLine
 10
16.3090155517
 20
9.3606564864
 30
0.0
 11
15.3326375709
 21
9.411826282
 31
0.0
  0
LINE
  5
4D7
330
1F
100
AcDbEntity
  8
0
  6
Continuous
 62
     7
370
    15
100
AcDbLine
 10
15.3326375709
 20
6.7993371017
 30
0.0
 11
16.3090155517
 21
6.8505068972
 31
0.0
  0
LINE
  5
4D8
330
1F
100
AcDbEntity
  8
0
  6
Continuous
 62
     7
370
    15
100
AcDbLine
 10
16.3090155517
 20
9.3606564864
 30
0.0
 11
16.3090155517
 21
6.8505068972
 31
0.0
  0
LINE
  5
4D9
330
1F
100
AcDbEntity
  8
0
  6
Continuous
 62
     7
370
    15
100
AcDbLine
 10
16.3956297245
 20
9.3680096815
 30
0.0
 11
16.3956297245
 21
6.8431537021
 31
0.0
  0
ARC
  5
4DA
330
1F
100
AcDbEntity
  8
0
  6
Continuous
 62
     7
370
    15
100
AcDbCircle
 10
16.3168895212
 20
9.3680097428
 30
0.0
 40
0.0787401574803184
100
AcDbArc
 50
0.0
 51
87.0
  0
ARC
  5
4DB
330
1F
100
AcDbEntity
  8
0
  6
Continuous
 62
     7
370
    15
100
AcDbCircle
 10
16.3168895212
 20
6.8431536408
 30
0.0
 40
0.0787401574803184
100
AcDbArc
 50
273.0
 51
0.0
  0
LINE
  5
4DC
330
1F
100
AcDbEntity
  8
0
  6
Continuous
 62
     7
370
    15
100
AcDbLine
 10
15.3306690337
 20
9.4671788158
 30
0.0
 11
15.3306690337
 21
9.4481013696
 31
0.0
  0
LINE
  5
4DD
330
1F
100
AcDbEntity
  8
0
  6
Continuous
 62
     7
370
    15
100
AcDbLine
 10
15.3306690337
 20
9.4481013696
 30
0.0
 11
15.3326375709
 21
9.4481013696
 31
0.0
  0
LINE
  5
4DE
330
1F
100
AcDbEntity
  8
0
  6
Continuous
 62
     7
370
    15
100
AcDbLine
 10
15.2657084224
 20
9.4471301541
 30
0.0
 11
15.2657084224
 21
9.4153339214
 31
0.0
  0
LINE
  5
4DF
330
1F
100
AcDbEntity
  8
0
  6
Continuous
 62
     7
370
    15
100
AcDbLine
 10
15.3306690337
 20
9.4671788158
 30
0.0
 11
15.2657084224
 21
9.4471301541
 31
0.0
  0
LINE
  5
4E0
330
1F
100
AcDbEntity
  8
0
  6
Continuous
 62
     7
370
    15
100
AcDbLine
 10
15.3326375709
 20
9.411826282
 30
0.0
 11
15.2657084224
 21
9.4153339214
 31
0.0
  0
LINE
  5
4E1
330
1F
100
AcDbEntity
  8
0
  6
Continuous
 62
     7
370
    15
100
AcDbLine
 10
15.3306690337
 20
6.7439845678
 30
0.0
 11
15.2657084224
 21
6.7640332295
 31
0.0
  0
LINE
  5
4E2
330
1F
100
AcDbEntity
  8
0
  6
Continuous
 62
     7
370
    15
100
AcDbLine
 10
15.2657084224
 20
6.7640332295
 30
0.0
 11
15.2657084224
 21
6.7958294622
 31
0.0
  0
LINE
  5
4E3
330
1F
100
AcDbEntity
  8
0
  6
Continuous
 62
     7
370
    15
100
AcDbLine
 10
15.3306690337
 20
6.763062014
 30
0.0
 11
15.3306690337
 21
6.7439845678
 31
0.0
  0
LINE
  5
4E4
330
1F
100
AcDbEntity
  8
0
  6
Continuous
 62
     7
370
    15
100
AcDbLine
 10
15.3326375709
 20
6.763062014
 30
0.0
 11
15.3306690337
 21
6.763062014
 31
0.0
  0
LINE
  5
4E5
330
1F
100
AcDbEntity
  8
0
  6
Continuous
 62
     7
370
    15
100
AcDbLine
 10
15.2657084224
 20
6.7958294622
 30
0.0
 11
15.3326375709
 21
6.7993371017
 31
0.0
  0
LWPOLYLINE
  5
4E6
330
1F
100
AcDbEntity
  8
0
  6
Continuous
 62
     7
370
    15
100
AcDbPolyline
 90
       10
 70
   128
 43
0.0
 10
15.453239041
 20
9.494091105
 10
15.4519115764
 20
9.4941607708
 10
15.4481084803
 20
9.4943600885
 10
15.4423433369
 20
9.4946622184
 10
15.4353948272
 20
9.4950263875
 10
15.4282013136
 20
9.4954033165
 10
15.4217343783
 20
9.4957422592
 10
15.4168673746
 20
9.4959973096
 10
15.4142576547
 20
9.496134148
 10
15.4139229286
 20
9.4961516012
  0
LWPOLYLINE
  5
4E7
330
1F
100
AcDbEntity
  8
0
  6
Continuous
 62
     7
370
    15
100
AcDbPolyline
 90
       10
 70
   128
 43
0.0
 10
15.4139229286
 20
6.7150117825
 10
15.4152503932
 20
6.7150813016
 10
15.419053526
 20
6.7152806193
 10
15.4248186327
 20
6.7155827492
 10
15.4317671791
 20
6.7159469183
 10
15.4389606927
 20
6.7163238473
 10
15.445427628
 20
6.71666279
 10
15.4502946317
 20
6.7169178404
 10
15.4529043516
 20
6.7170546789
 10
15.453239041
 20
6.7170722786
  0
LINE
  5
4E8
330
1F
100
AcDbEntity
  8
0
  6
Continuous
 62
     7
370
    15
100
AcDbLine
 10
15.3326375709
 20
9.411826282
 30
0.0
 11
15.3326375709
 21
6.7993371017
 31
0.0
  0
LINE
  5
4E9
330
1F
100
AcDbEntity
  8
0
  6
CENTERX2
 62
     7
370
     0
100
AcDbLine
 10
16.3090155055
 20
9.3606564455
 30
0.0
 11
15.8244830892
 21
9.3606564455
 31
0.0
  0
HATCH
  5
4EA
330
1F
100
AcDbEntity
  8
0
  6
Continuous
 62
     7
370
     0
100
AcDbHatch
 10
0.0
 20
0.0
 30
0.0
210
0.0
220
0.0
230
1.0
  2
ANSI31
 70
     0
 71
     0
 91
        1
 92
        0
 93
       14
 72
     1
 10
15.33263755272779
 20
9.411826245696016
 11
16.30901550548369
 21
9.360656445451157
 72
     1
 10
16.30901550548369
 20
9.360656445451157
 11
16.30901550548369
 21
6.85050693815154
 72
     1
 10
16.30901550548369
 20
6.85050693815154
 11
15.33263755272779
 21
6.79933713790668
 72
     1
 10
15.33263755272779
 20
6.79933713790668
 11
15.33263755272779
 21
6.763062006761978
 72
     1
 10
15.33263755272779
 20
6.763062006761978
 11
15.39169267083802
 21
6.763062006761978
 72
     1
 10
15.39169267083802
 20
6.763062006761978
 11
15.39169267083802
 21
6.715817912273789
 72
     1
 10
15.39169267083802
 20
6.715817912273789
 11
16.32101046266818
 21
6.764521393991828
 72
     2
 10
16.31688952123173
 20
6.843153640822896
 40
0.078740157480315
 50
272.9999999999999
 51
360.0000000000008
 73
     1
 72
     1
 10
16.39562967871204
 20
6.843153640822896
 11
16.39562967871204
 21
9.368009742779801
 72
     2
 10
16.31688952123173
 20
9.368009742779801
 40
0.078740157480315
 50
0.0
 51
86.99999999999838
 73
     1
 72
     1
 10
16.32101046266818
 20
9.44664198961087
 11
15.39169267083802
 21
9.495345471328909
 72
     1
 10
15.39169267083802
 20
9.495345471328909
 11
15.39169267083802
 21
9.44810137684072
 72
     1
 10
15.39169267083802
 20
9.44810137684072
 11
15.33263755272779
 21
9.44810137684072
 72
     1
 10
15.33263755272779
 20
9.44810137684072
 11
15.33263755272779
 21
9.411826245696016
 97
        0
 75
     0
 76
     1
 52
0.0
 41
1.125
 77
     0
 78
     1
 53
45.0
 43
0.0
 44
0.0
 45
-0.0994368911043582
 46
0.0994368911043583
 79
     0
 98
        1
 10
0.0
 20
0.0
  0
DIMENSION
  5
4EB
330
1F
100
AcDbEntity
  8
0
  6
Continuous
 62
     7
370
     0
100
AcDbDimension
  2
*D34
 10
16.3090155055
 20
9.3606564455
 30
0.0
 11
15.0750765319
 21
9.0143313848
 31
0.0
 70
   162
 71
     1
 42
-1.0
  3
SLDDIMSTYLE7
100
AcDb2LineAngularDimension
 13
15.3326375527
 23
9.4118262457
 33
0.0
 14
16.3090155055
 24
9.3606564455
 34
0.0
 15
15.8244830892
 25
9.3606564455
 35
0.0
 16
15.0440787103
 26
9.5667664699
 36
0.0
  0
DIMENSION
  5
4FE
330
1F
100
AcDbEntity
  8
0
  6
Continuous
 62
     7
370
     0
100
AcDbDimension
  2
*D35
 10
16.3956296787
 20
9.1930263558
 30
0.0
 11
16.9705961584
 21
9.1930263558
 31
0.0
 70
   160
 71
     2
 42
-1.0
  3
SLDDIMSTYLE6
100
AcDbAlignedDimension
 13
16.3090155055
 23
9.3606564455
 33
0.0
 14
16.3956296787
 24
9.3680097428
 34
0.0
100
AcDbRotatedDimension
  0
DIMENSION
  5
510
330
1F
100
AcDbEntity
  8
0
  6
Continuous
 62
     7
370
     0
100
AcDbDimension
  2
*D36
 10
16.3956296787
 20
9.8778987996
 30
0.0
 11
15.8936611748
 21
9.8778987996
 31
0.0
 70
   160
 71
     2
 42
-1.0
  3
SLDDIMSTYLE5
100
AcDbAlignedDimension
 13
15.3916926708
 23
9.4953454713
 33
0.0
 14
16.3956296787
 24
9.3680097428
 34
0.0
100
AcDbRotatedDimension
  0
MTEXT
  5
524
330
1F
100
AcDbEntity
  8
0
  6
Continuous
 62
     7
370
     0
100
AcDbMText
 10
16.1720613779
 20
6.4311325262
 30
0.0
 40
0.140625
 41
0.0
 71
     2
 72
     1
  1
\LSECTION B-B
  7
SLDTEXTSTYLE0
 73
     1
 44
1.0
  0
LINE
  5
525
330
1F
100
AcDbEntity
  8
0
  6
Continuous
 62
     7
370
    15
100
AcDbLine
 10
17.6222709958
 20
9.4921253543
 30
0.0
 11
17.6223739913
 21
9.494091105
 31
0.0
  0
LINE
  5
526
330
1F
100
AcDbEntity
  8
0
  6
Continuous
 62
     7
370
    15
100
AcDbLine
 10
17.5830578788
 20
9.4961516012
 30
0.0
 11
17.5829548467
 21
9.4941858505
 31
0.0
  0
LINE
  5
527
330
1F
100
AcDbEntity
  8
0
  6
Continuous
 62
     7
370
    15
100
AcDbLine
 10
17.5829548467
 20
6.7169775331
 30
0.0
 11
17.5830578788
 21
6.7150117825
 31
0.0
  0
LINE
  5
528
330
1F
100
AcDbEntity
  8
0
  6
Continuous
 62
     7
370
    15
100
AcDbLine
 10
17.6223739913
 20
6.7170722786
 30
0.0
 11
17.6222709958
 21
6.7190380293
 31
0.0
  0
LINE
  5
529
330
1F
100
AcDbEntity
  8
0
  6
Continuous
 62
     7
370
    15
100
AcDbLine
 10
17.799274351
 20
7.1213297086
 30
0.0
 11
17.5608276123
 21
7.1213297086
 31
0.0
  0
LINE
  5
52A
330
1F
100
AcDbEntity
  8
0
  6
Continuous
 62
     7
370
    15
100
AcDbLine
 10
17.799274351
 20
7.5937706576
 30
0.0
 11
17.799274351
 21
7.1213297086
 31
0.0
  0
LINE
  5
52B
330
1F
100
AcDbEntity
  8
0
  6
Continuous
 62
     7
370
    15
100
AcDbLine
 10
17.5608276123
 20
7.5937706576
 30
0.0
 11
17.799274351
 21
7.5937706576
 31
0.0
  0
LINE
  5
52C
330
1F
100
AcDbEntity
  8
0
  6
Continuous
 62
     7
370
    15
100
AcDbLine
 10
17.5608276123
 20
8.617392726
 30
0.0
 11
17.5608276123
 21
7.5937706576
 31
0.0
  0
LINE
  5
52D
330
1F
100
AcDbEntity
  8
0
  6
Continuous
 62
     7
370
    15
100
AcDbLine
 10
17.799274351
 20
8.617392726
 30
0.0
 11
17.5608276123
 21
8.617392726
 31
0.0
  0
LINE
  5
52E
330
1F
100
AcDbEntity
  8
0
  6
Continuous
 62
     7
370
    15
100
AcDbLine
 10
17.799274351
 20
9.089833675
 30
0.0
 11
17.799274351
 21
8.617392726
 31
0.0
  0
LINE
  5
52F
330
1F
100
AcDbEntity
  8
0
  6
Continuous
 62
     7
370
    15
100
AcDbLine
 10
17.5608276123
 20
9.089833675
 30
0.0
 11
17.799274351
 21
9.089833675
 31
0.0
  0
LINE
  5
530
330
1F
100
AcDbEntity
  8
0
  6
Continuous
 62
     7
370
    15
100
AcDbLine
 10
17.5608276123
 20
9.4167131588
 30
0.0
 11
17.5608276123
 21
9.089833675
 31
0.0
  0
LINE
  5
531
330
1F
100
AcDbEntity
  8
0
  6
Continuous
 62
     7
370
    15
100
AcDbLine
 10
17.5608276123
 20
7.1213297086
 30
0.0
 11
17.5608276123
 21
6.7944502248
 31
0.0
  0
LINE
  5
532
330
1F
100
AcDbEntity
  8
0
  6
Continuous
 62
     7
370
    15
100
AcDbLine
 10
17.5608276123
 20
9.4953455305
 30
0.0
 11
18.49014535
 21
9.4466420531
 31
0.0
  0
LINE
  5
533
330
1F
100
AcDbEntity
  8
0
  6
Continuous
 62
     7
370
    15
100
AcDbLine
 10
17.5608276123
 20
9.4953455305
 30
0.0
 11
17.5608276123
 21
9.4167131588
 31
0.0
  0
LINE
  5
534
330
1F
100
AcDbEntity
  8
0
  6
Continuous
 62
     7
370
    15
100
AcDbLine
 10
18.49014535
 20
6.7645213305
 30
0.0
 11
17.5608276123
 21
6.7158178531
 31
0.0
  0
LINE
  5
535
330
1F
100
AcDbEntity
  8
0
  6
Continuous
 62
     7
370
    15
100
AcDbLine
 10
17.5608276123
 20
6.7944502248
 30
0.0
 11
17.5608276123
 21
6.7158178531
 31
0.0
  0
LINE
  5
536
330
1F
100
AcDbEntity
  8
0
  6
Continuous
 62
     7
370
    15
100
AcDbLine
 10
17.7951596652
 20
8.617392726
 30
0.0
 11
17.7951596652
 21
9.089833675
 31
0.0
  0
LINE
  5
537
330
1F
100
AcDbEntity
  8
0
  6
Continuous
 62
     7
370
    15
100
AcDbLine
 10
17.7951596652
 20
7.5937706576
 30
0.0
 11
17.7951596652
 21
7.1213297086
 31
0.0
  0
LINE
  5
538
330
1F
100
AcDbEntity
  8
0
  6
Continuous
 62
     7
370
    15
100
AcDbLine
 10
17.5017725211
 20
6.7945580235
 30
0.0
 11
17.5017725211
 21
7.1213297086
 31
0.0
  0
LINE
  5
539
330
1F
100
AcDbEntity
  8
0
  6
Continuous
 62
     7
370
    15
100
AcDbLine
 10
17.5017725211
 20
7.1213297086
 30
0.0
 11
17.5608276123
 21
7.1213297086
 31
0.0
  0
LINE
  5
53A
330
1F
100
AcDbEntity
  8
0
  6
Continuous
 62
     7
370
    15
100
AcDbLine
 10
17.5017725211
 20
7.5937706576
 30
0.0
 11
17.5017725211
 21
8.617392726
 31
0.0
  0
LINE
  5
53B
330
1F
100
AcDbEntity
  8
0
  6
Continuous
 62
     7
370
    15
100
AcDbLine
 10
17.5608276123
 20
7.5937706576
 30
0.0
 11
17.5017725211
 21
7.5937706576
 31
0.0
  0
LINE
  5
53C
330
1F
100
AcDbEntity
  8
0
  6
Continuous
 62
     7
370
    15
100
AcDbLine
 10
17.5608276123
 20
8.617392726
 30
0.0
 11
17.5017725211
 21
8.617392726
 31
0.0
  0
LINE
  5
53D
330
1F
100
AcDbEntity
  8
0
  6
Continuous
 62
     7
370
    15
100
AcDbLine
 10
17.5017725211
 20
9.089833675
 30
0.0
 11
17.5017725211
 21
9.4166053601
 31
0.0
  0
LINE
  5
53E
330
1F
100
AcDbEntity
  8
0
  6
Continuous
 62
     7
370
    15
100
AcDbLine
 10
17.5608276123
 20
9.089833675
 30
0.0
 11
17.5017725211
 21
9.089833675
 31
0.0
  0
LINE
  5
53F
330
1F
100
AcDbEntity
  8
0
  6
Continuous
 62
     7
370
    15
100
AcDbLine
 10
17.5608276123
 20
9.4481013696
 30
0.0
 11
17.5017725211
 21
9.4481013696
 31
0.0
  0
LINE
  5
540
330
1F
100
AcDbEntity
  8
0
  6
Continuous
 62
     7
370
    15
100
AcDbLine
 10
17.5017725211
 20
9.4481013696
 30
0.0
 11
17.5017725211
 21
9.4166053601
 31
0.0
  0
LINE
  5
541
330
1F
100
AcDbEntity
  8
0
  6
Continuous
 62
     7
370
    15
100
AcDbLine
 10
17.5017725211
 20
6.763062014
 30
0.0
 11
17.5608276123
 21
6.763062014
 31
0.0
  0
LINE
  5
542
330
1F
100
AcDbEntity
  8
0
  6
Continuous
 62
     7
370
    15
100
AcDbLine
 10
17.5017725211
 20
6.7945580235
 30
0.0
 11
17.5017725211
 21
6.763062014
 31
0.0
  0
ARC
  5
543
330
1F
100
AcDbEntity
  8
0
  6
Continuous
 62
     7
370
    15
100
AcDbCircle
 10
18.4860244715
 20
9.3680097428
 30
0.0
 40
0.0787401574803148
100
AcDbArc
 50
0.0
 51
87.0
  0
ARC
  5
544
330
1F
100
AcDbEntity
  8
0
  6
Continuous
 62
     7
370
    15
100
AcDbCircle
 10
18.4860244715
 20
6.8431536408
 30
0.0
 40
0.0787401574803148
100
AcDbArc
 50
273.0
 51
0.0
  0
LINE
  5
545
330
1F
100
AcDbEntity
  8
0
  6
Continuous
 62
     7
370
    15
100
AcDbLine
 10
18.5647646747
 20
9.3680096815
 30
0.0
 11
18.5647646747
 21
6.8431537021
 31
0.0
  0
LINE
  5
546
330
1F
100
AcDbEntity
  8
0
  6
Continuous
 62
     7
370
    15
100
AcDbLine
 10
17.5017725211
 20
7.1213297086
 30
0.0
 11
17.5017725211
 21
7.5937706576
 31
0.0
  0
LINE
  5
547
330
1F
100
AcDbEntity
  8
0
  6
Continuous
 62
     7
370
    15
100
AcDbLine
 10
17.5017725211
 20
8.617392726
 30
0.0
 11
17.5017725211
 21
9.089833675
 31
0.0
  0
LINE
  5
548
330
1F
100
AcDbEntity
  8
0
  6
Continuous
 62
     7
370
    15
100
AcDbLine
 10
17.4998039839
 20
6.7439845678
 30
0.0
 11
17.4348433726
 21
6.7640332295
 31
0.0
  0
LINE
  5
549
330
1F
100
AcDbEntity
  8
0
  6
Continuous
 62
     7
370
    15
100
AcDbLine
 10
17.4348433726
 20
6.7640332295
 30
0.0
 11
17.4348433726
 21
6.7958294622
 31
0.0
  0
LINE
  5
54A
330
1F
100
AcDbEntity
  8
0
  6
Continuous
 62
     7
370
    15
100
AcDbLine
 10
17.5017725211
 20
6.763062014
 30
0.0
 11
17.4998039839
 21
6.763062014
 31
0.0
  0
LINE
  5
54B
330
1F
100
AcDbEntity
  8
0
  6
Continuous
 62
     7
370
    15
100
AcDbLine
 10
17.4998039839
 20
6.763062014
 30
0.0
 11
17.4998039839
 21
6.7439845678
 31
0.0
  0
LINE
  5
54C
330
1F
100
AcDbEntity
  8
0
  6
Continuous
 62
     7
370
    15
100
AcDbLine
 10
17.4348433726
 20
6.7958294622
 30
0.0
 11
17.5017725211
 21
6.7993371017
 31
0.0
  0
LINE
  5
54D
330
1F
100
AcDbEntity
  8
0
  6
Continuous
 62
     7
370
    15
100
AcDbLine
 10
17.4998039839
 20
9.4671788158
 30
0.0
 11
17.4998039839
 21
9.4481013696
 31
0.0
  0
LINE
  5
54E
330
1F
100
AcDbEntity
  8
0
  6
Continuous
 62
     7
370
    15
100
AcDbLine
 10
17.4998039839
 20
9.4481013696
 30
0.0
 11
17.5017725211
 21
9.4481013696
 31
0.0
  0
LINE
  5
54F
330
1F
100
AcDbEntity
  8
0
  6
Continuous
 62
     7
370
    15
100
AcDbLine
 10
17.4348433726
 20
9.4471301541
 30
0.0
 11
17.4348433726
 21
9.4153339214
 31
0.0
  0
LINE
  5
550
330
1F
100
AcDbEntity
  8
0
  6
Continuous
 62
     7
370
    15
100
AcDbLine
 10
17.4998039839
 20
9.4671788158
 30
0.0
 11
17.4348433726
 21
9.4471301541
 31
0.0
  0
LINE
  5
551
330
1F
100
AcDbEntity
  8
0
  6
Continuous
 62
     7
370
    15
100
AcDbLine
 10
17.5017725211
 20
9.411826282
 30
0.0
 11
17.4348433726
 21
9.4153339214
 31
0.0
  0
LWPOLYLINE
  5
552
330
1F
100
AcDbEntity
  8
0
  6
Continuous
 62
     7
370
    15
100
AcDbPolyline
 90
        9
 70
   128
 43
0.0
 10
17.6223739913
 20
9.494091105
 10
17.6208776419
 20
9.4941695707
 10
17.6166162911
 20
9.4943929415
 10
17.6102387481
 20
9.4947271909
 10
17.602715935
 20
9.4951214264
 10
17.5951931219
 20
9.4955156618
 10
17.5888155789
 20
9.4958499113
 10
17.5845542648
 20
9.4960732821
 10
17.5830578788
 20
9.4961516012
  0
LWPOLYLINE
  5
553
330
1F
100
AcDbEntity
  8
0
  6
Continuous
 62
     7
370
    15
100
AcDbPolyline
 90
       10
 70
   128
 43
0.0
 10
17.5830578788
 20
6.7150117825
 10
17.5845542648
 20
6.7150901015
 10
17.5888155789
 20
6.7153134723
 10
17.5951931219
 20
6.7156477218
 10
17.602715935
 20
6.7160419572
 10
17.6102387481
 20
6.7164361927
 10
17.6166162911
 20
6.7167704421
 10
17.6208776419
 20
6.7169938129
 10
17.6223739913
 20
6.7170722786
 10
17.6223739913
 20
6.7170722786
  0
DIMENSION
  5
554
330
1F
100
AcDbEntity
  8
0
  6
Continuous
 62
     7
370
     0
100
AcDbDimension
  2
*D37
 10
17.7992743599
 20
6.4208028173
 30
0.0
 11
18.393861639
 21
6.4208028173
 31
0.0
 70
   160
 71
     2
 42
-1.0
  3
SLDDIMSTYLE6
100
AcDbAlignedDimension
 13
17.5608276211
 23
6.7158179123
 33
0.0
 14
17.7992743599
 24
7.1213297233
 34
0.0
100
AcDbRotatedDimension
  0
DIMENSION
  5
568
330
1F
100
AcDbEntity
  8
0
  6
Continuous
 62
     7
370
     0
100
AcDbDimension
  2
*D38
 10
17.2559523365
 20
7.1213297233
 30
0.0
 11
17.2559523365
 21
6.84913258
 31
0.0
 70
   160
 71
     2
 42
-1.0
  3
SLDDIMSTYLE6
100
AcDbAlignedDimension
 13
17.501772503
 23
7.5937706682
 33
0.0
 14
17.501772503
 24
7.1213297233
 34
0.0
 50
90.0
100
AcDbRotatedDimension
  0
DIMENSION
  5
57D
330
1F
100
AcDbEntity
  8
0
  6
Continuous
 62
     7
370
     0
100
AcDbDimension
  2
*D39
 10
16.90972124
 20
8.8536131879
 30
0.0
 11
16.90972124
 21
8.1055816918
 31
0.0
 70
   160
 71
     2
 42
-1.0
  3
SLDDIMSTYLE3
100
AcDbAlignedDimension
 13
17.2795776211
 23
7.3575501957
 33
0.0
 14
17.2795776211
 24
8.8536131879
 34
0.0
 50
90.0
100
AcDbRotatedDimension
  0
INSERT
  5
597
102
{ACAD_REACTORS
330
5A1
102
}
330
1F
100
AcDbEntity
  8
0
  6
Continuous
 62
     7
370
     0
100
AcDbBlockReference
  2
SW_NOTE_5
 10
17.1740724096
 20
10.3032256711
 30
0.0
  0
LEADER
  5
5A1
330
1F
100
AcDbEntity
  8
0
  6
Continuous
 62
     7
370
     0
100
AcDbLeader
  3
SLDDIMSTYLE8
 73
     2
 76
     3
 10
17.5982813978
 20
8.9712897221
 30
0.0
 10
16.8928224096
 20
10.3032256711
 30
0.0
 10
17.1740724096
 20
10.3032256711
 30
0.0
340
597
  0
LINE
  5
5A2
330
1F
100
AcDbEntity
  8
0
  6
CENTERX2
 62
     7
370
     0
100
AcDbLine
 10
17.2795776211
 20
7.3575501957
 30
0.0
 11
18.0805243599
 21
7.3575501957
 31
0.0
  0
LINE
  5
5A3
330
1F
100
AcDbEntity
  8
0
  6
CENTERX2
 62
     7
370
     0
100
AcDbLine
 10
17.2795776211
 20
8.8536131879
 30
0.0
 11
18.0805243599
 21
8.8536131879
 31
0.0
  0
LINE
  5
5A4
330
1F
100
AcDbEntity
  8
0
  6
Continuous
 62
     7
370
    15
100
AcDbLine
 10
2.908953576
 20
1.3480831001
 30
0.0
 11
2.908953576
 21
1.4268232613
 31
0.0
  0
LINE
  5
5A5
330
1F
100
AcDbEntity
  8
0
  6
Continuous
 62
     7
370
    15
100
AcDbLine
 10
7.1806069761
 20
1.4268232613
 30
0.0
 11
7.1806069761
 21
1.3480831001
 31
0.0
  0
LINE
  5
5A6
330
1F
100
AcDbEntity
  8
0
  6
Continuous
 62
     7
370
    15
100
AcDbLine
 10
6.5802133786
 20
1.4346972728
 30
0.0
 11
6.5767773116
 21
1.6315476621
 31
0.0
  0
LINE
  5
5A7
330
1F
100
AcDbEntity
  8
0
  6
Continuous
 62
     7
370
    15
100
AcDbLine
 10
6.3474289344
 20
1.6315476621
 30
0.0
 11
6.3439928674
 21
1.4346972728
 31
0.0
  0
LINE
  5
5A8
330
1F
100
AcDbEntity
  8
0
  6
Continuous
 62
     7
370
    15
100
AcDbLine
 10
3.7455676847
 20
1.4346972728
 30
0.0
 11
3.7421316177
 21
1.6315476621
 31
0.0
  0
LINE
  5
5A9
330
1F
100
AcDbEntity
  8
0
  6
Continuous
 62
     7
370
    15
100
AcDbLine
 10
3.5127832405
 20
1.6315476621
 30
0.0
 11
3.5093471735
 21
1.4346972728
 31
0.0
  0
LINE
  5
5AA
330
1F
100
AcDbEntity
  8
0
  6
Continuous
 62
     7
370
    15
100
AcDbLine
 10
3.0265546841
 20
2.6711016165
 30
0.0
 11
2.9778512067
 21
1.7417838787
 31
0.0
  0
LINE
  5
5AB
330
1F
100
AcDbEntity
  8
0
  6
Continuous
 62
     7
370
    15
100
AcDbLine
 10
3.025095221
 20
1.7417838787
 30
0.0
 11
2.9778512067
 21
1.7417838787
 31
0.0
  0
LINE
  5
5AC
330
1F
100
AcDbEntity
  8
0
  6
Continuous
 62
     7
370
    15
100
AcDbLine
 10
3.025095221
 20
1.6827287876
 30
0.0
 11
3.025095221
 21
1.7417838787
 31
0.0
  0
LINE
  5
5AD
330
1F
100
AcDbEntity
  8
0
  6
Continuous
 62
     7
370
    15
100
AcDbLine
 10
7.1117093454
 20
1.7417838787
 30
0.0
 11
7.063005868
 21
2.6711016165
 31
0.0
  0
LINE
  5
5AE
330
1F
100
AcDbEntity
  8
0
  6
Continuous
 62
     7
370
    15
100
AcDbLine
 10
7.0644653312
 20
1.6827287876
 30
0.0
 11
7.0281902435
 21
1.6827287876
 31
0.0
  0
LINE
  5
5AF
330
1F
100
AcDbEntity
  8
0
  6
Continuous
 62
     7
370
    15
100
AcDbLine
 10
7.1117093454
 20
1.7417838787
 30
0.0
 11
7.0644653312
 21
1.7417838787
 31
0.0
  0
LINE
  5
5B0
330
1F
100
AcDbEntity
  8
0
  6
Continuous
 62
     7
370
    15
100
AcDbLine
 10
7.0644653312
 20
1.7417838787
 30
0.0
 11
7.0644653312
 21
1.6827287876
 31
0.0
  0
ARC
  5
5B1
330
1F
100
AcDbEntity
  8
0
  6
Continuous
 62
     7
370
    15
100
AcDbCircle
 10
6.9843736814
 20
2.6669807379
 30
0.0
 40
0.0787401574803148
100
AcDbArc
 50
3.0
 51
90.0
  0
LINE
  5
5B2
330
1F
100
AcDbEntity
  8
0
  6
Continuous
 62
     7
370
    15
100
AcDbLine
 10
6.977020448
 20
2.6591067683
 30
0.0
 11
7.0281902435
 21
1.6827287876
 31
0.0
  0
LINE
  5
5B3
330
1F
100
AcDbEntity
  8
0
  6
Continuous
 62
     7
370
    15
100
AcDbLine
 10
3.0613703086
 20
1.6827287876
 30
0.0
 11
3.025095221
 21
1.6827287876
 31
0.0
  0
ARC
  5
5B4
330
1F
100
AcDbEntity
  8
0
  6
Continuous
 62
     7
370
    15
100
AcDbCircle
 10
3.1051868708
 20
2.6669807379
 30
0.0
 40
0.0787401574803149
100
AcDbArc
 50
90.0
 51
177.0
  0
LINE
  5
5B5
330
1F
100
AcDbEntity
  8
0
  6
Continuous
 62
     7
370
    15
100
AcDbLine
 10
6.984373643
 20
2.7457209411
 30
0.0
 11
3.1051869091
 21
2.7457209411
 31
0.0
  0
LINE
  5
5B6
330
1F
100
AcDbEntity
  8
0
  6
Continuous
 62
     7
370
    15
100
AcDbLine
 10
6.977020448
 20
2.6591067683
 30
0.0
 11
3.1125401041
 21
2.6591067683
 31
0.0
  0
LINE
  5
5B7
330
1F
100
AcDbEntity
  8
0
  6
Continuous
 62
     7
370
    15
100
AcDbLine
 10
3.0613703086
 20
1.6827287876
 30
0.0
 11
3.1125401041
 21
2.6591067683
 31
0.0
  0
LINE
  5
5B8
330
1F
100
AcDbEntity
  8
0
  6
Continuous
 62
     7
370
    15
100
AcDbLine
 10
4.4148589863
 20
1.7417838787
 30
0.0
 11
4.4148589863
 21
1.6827287876
 31
0.0
  0
LINE
  5
5B9
330
1F
100
AcDbEntity
  8
0
  6
Continuous
 62
     7
370
    15
100
AcDbLine
 10
4.3754889011
 20
1.6157996391
 30
0.0
 11
4.3754889011
 21
1.7417838787
 31
0.0
  0
LINE
  5
5BA
330
1F
100
AcDbEntity
  8
0
  6
Continuous
 62
     7
370
    15
100
AcDbLine
 10
3.8243078551
 20
1.6157996391
 30
0.0
 11
4.3754889011
 21
1.6157996391
 31
0.0
  0
LINE
  5
5BB
330
1F
100
AcDbEntity
  8
0
  6
Continuous
 62
     7
370
    15
100
AcDbLine
 10
3.8243078551
 20
1.7417838787
 30
0.0
 11
3.8243078551
 21
1.6157996391
 31
0.0
  0
LINE
  5
5BC
330
1F
100
AcDbEntity
  8
0
  6
Continuous
 62
     7
370
    15
100
AcDbLine
 10
3.7849376965
 20
1.6827287876
 30
0.0
 11
3.7849376965
 21
1.7417838787
 31
0.0
  0
LINE
  5
5BD
330
1F
100
AcDbEntity
  8
0
  6
Continuous
 62
     7
370
    15
100
AcDbLine
 10
6.3046228556
 20
1.7417838787
 30
0.0
 11
6.3046228556
 21
1.6827287876
 31
0.0
  0
LINE
  5
5BE
330
1F
100
AcDbEntity
  8
0
  6
Continuous
 62
     7
370
    15
100
AcDbLine
 10
6.2652526971
 20
1.6157996391
 30
0.0
 11
6.2652526971
 21
1.7417838787
 31
0.0
  0
LINE
  5
5BF
330
1F
100
AcDbEntity
  8
0
  6
Continuous
 62
     7
370
    15
100
AcDbLine
 10
5.714071651
 20
1.6157996391
 30
0.0
 11
6.2652526971
 21
1.6157996391
 31
0.0
  0
LINE
  5
5C0
330
1F
100
AcDbEntity
  8
0
  6
Continuous
 62
     7
370
    15
100
AcDbLine
 10
5.714071651
 20
1.7417838787
 30
0.0
 11
5.714071651
 21
1.6157996391
 31
0.0
  0
LINE
  5
5C1
330
1F
100
AcDbEntity
  8
0
  6
Continuous
 62
     7
370
    15
100
AcDbLine
 10
5.6747015658
 20
1.6827287876
 30
0.0
 11
5.6747015658
 21
1.7417838787
 31
0.0
  0
LINE
  5
5C2
330
1F
100
AcDbEntity
  8
0
  6
Continuous
 62
     7
370
    15
100
AcDbLine
 10
3.7849376965
 20
1.7417838787
 30
0.0
 11
3.8243078551
 21
1.7417838787
 31
0.0
  0
LINE
  5
5C3
330
1F
100
AcDbEntity
  8
0
  6
Continuous
 62
     7
370
    15
100
AcDbLine
 10
4.3754889011
 20
1.7417838787
 30
0.0
 11
4.4148589863
 21
1.7417838787
 31
0.0
  0
LINE
  5
5C4
330
1F
100
AcDbEntity
  8
0
  6
Continuous
 62
     7
370
    15
100
AcDbLine
 10
5.6747015658
 20
1.7417838787
 30
0.0
 11
5.714071651
 21
1.7417838787
 31
0.0
  0
LINE
  5
5C5
330
1F
100
AcDbEntity
  8
0
  6
Continuous
 62
     7
370
    15
100
AcDbLine
 10
6.2652526971
 20
1.7417838787
 30
0.0
 11
6.3046228556
 21
1.7417838787
 31
0.0
  0
LINE
  5
5C6
330
1F
100
AcDbEntity
  8
0
  6
Continuous
 62
     7
370
    15
100
AcDbLine
 10
2.6532698897
 20
1.5055634225
 30
0.0
 11
2.6532698897
 21
1.3480831001
 31
0.0
  0
LINE
  5
5C7
330
1F
100
AcDbEntity
  8
0
  6
Continuous
 62
     7
370
    15
100
AcDbLine
 10
2.6532698897
 20
1.3480831001
 30
0.0
 11
2.5447801963
 21
1.3480831001
 31
0.0
  0
LINE
  5
5C8
330
1F
100
AcDbEntity
  8
0
  6
Continuous
 62
     7
370
    15
100
AcDbLine
 10
2.6532698897
 20
1.5055634225
 30
0.0
 11
2.5841503548
 21
1.5055634225
 31
0.0
  0
LINE
  5
5C9
330
1F
100
AcDbEntity
  8
0
  6
Continuous
 62
     7
370
    15
100
AcDbLine
 10
2.5447801963
 20
1.4661933373
 30
0.0
 11
2.5447801963
 21
1.3480831001
 31
0.0
  0
ARC
  5
5CA
330
1F
100
AcDbEntity
  8
0
  6
Continuous
 62
     7
370
    15
100
AcDbCircle
 10
2.5841503548
 20
1.4661933363
 30
0.0
 40
0.0393700787401579
100
AcDbArc
 50
90.0
 51
180.0
  0
LINE
  5
5CB
330
1F
100
AcDbEntity
  8
0
  6
Continuous
 62
     7
370
    15
100
AcDbLine
 10
2.8299915015
 20
1.3480831001
 30
0.0
 11
2.8299915015
 21
1.5055634225
 31
0.0
  0
LINE
  5
5CC
330
1F
100
AcDbEntity
  8
0
  6
Continuous
 62
     7
370
    15
100
AcDbLine
 10
2.6532698897
 20
1.3480831001
 30
0.0
 11
2.8299915015
 21
1.3480831001
 31
0.0
  0
LINE
  5
5CD
330
1F
100
AcDbEntity
  8
0
  6
Continuous
 62
     7
370
    15
100
AcDbLine
 10
2.6532698897
 20
1.5055634225
 30
0.0
 11
2.8299915015
 21
1.5055634225
 31
0.0
  0
LINE
  5
5CE
330
1F
100
AcDbEntity
  8
0
  6
Continuous
 62
     7
370
    15
100
AcDbLine
 10
7.1137727749
 20
1.7024137935
 30
0.0
 11
7.0920244128
 21
1.7024137935
 31
0.0
  0
LINE
  5
5CF
330
1F
100
AcDbEntity
  8
0
  6
Continuous
 62
     7
370
    15
100
AcDbLine
 10
7.124089189
 20
1.5055634225
 30
0.0
 11
7.1137727749
 21
1.7024137935
 31
0.0
  0
LINE
  5
5D0
330
1F
100
AcDbEntity
  8
0
  6
Continuous
 62
     7
370
    15
100
AcDbLine
 10
7.2595690506
 20
1.5055634225
 30
0.0
 11
7.2595690506
 21
1.3480831001
 31
0.0
  0
LINE
  5
5D1
330
1F
100
AcDbEntity
  8
0
  6
Continuous
 62
     7
370
    15
100
AcDbLine
 10
7.1807244548
 20
1.4268232613
 30
0.0
 11
7.1807244548
 21
1.3480831001
 31
0.0
  0
LINE
  5
5D2
330
1F
100
AcDbEntity
  8
0
  6
Continuous
 62
     7
370
    15
100
AcDbLine
 10
2.9088360973
 20
1.3480831001
 30
0.0
 11
2.9088360973
 21
1.4268232613
 31
0.0
  0
LINE
  5
5D3
330
1F
100
AcDbEntity
  8
0
  6
Continuous
 62
     7
370
    15
100
AcDbLine
 10
2.9975361393
 20
1.7024137935
 30
0.0
 11
2.9757877772
 21
1.7024137935
 31
0.0
  0
LINE
  5
5D4
330
1F
100
AcDbEntity
  8
0
  6
Continuous
 62
     7
370
    15
100
AcDbLine
 10
2.9975361393
 20
1.7417838787
 30
0.0
 11
2.9975361393
 21
1.7024137935
 31
0.0
  0
LINE
  5
5D5
330
1F
100
AcDbEntity
  8
0
  6
Continuous
 62
     7
370
    15
100
AcDbLine
 10
3.0211582931
 20
1.7417838787
 30
0.0
 11
2.9975361393
 21
1.7417838787
 31
0.0
  0
LINE
  5
5D6
330
1F
100
AcDbEntity
  8
0
  6
Continuous
 62
     7
370
    15
100
AcDbLine
 10
3.0211582931
 20
1.7417838787
 30
0.0
 11
3.0211582931
 21
1.6827287876
 31
0.0
  0
LINE
  5
5D7
330
1F
100
AcDbEntity
  8
0
  6
Continuous
 62
     7
370
    15
100
AcDbLine
 10
3.0675603037
 20
1.6827287876
 30
0.0
 11
3.0211582931
 21
1.6827287876
 31
0.0
  0
LINE
  5
5D8
330
1F
100
AcDbEntity
  8
0
  6
Continuous
 62
     7
370
    15
100
AcDbLine
 10
3.0805590736
 20
1.4346972728
 30
0.0
 11
3.0675603037
 21
1.6827287876
 31
0.0
  0
LINE
  5
5D9
330
1F
100
AcDbEntity
  8
0
  6
Continuous
 62
     7
370
    15
100
AcDbLine
 10
7.0090014785
 20
1.4346972728
 30
0.0
 11
3.0805590736
 21
1.4346972728
 31
0.0
  0
LINE
  5
5DA
330
1F
100
AcDbEntity
  8
0
  6
Continuous
 62
     7
370
    15
100
AcDbLine
 10
7.0220002484
 20
1.6827287876
 30
0.0
 11
7.0090014785
 21
1.4346972728
 31
0.0
  0
LINE
  5
5DB
330
1F
100
AcDbEntity
  8
0
  6
Continuous
 62
     7
370
    15
100
AcDbLine
 10
7.068402259
 20
1.6827287876
 30
0.0
 11
7.0220002484
 21
1.6827287876
 31
0.0
  0
LINE
  5
5DC
330
1F
100
AcDbEntity
  8
0
  6
Continuous
 62
     7
370
    15
100
AcDbLine
 10
7.068402259
 20
1.6827287876
 30
0.0
 11
7.068402259
 21
1.7417838787
 31
0.0
  0
LINE
  5
5DD
330
1F
100
AcDbEntity
  8
0
  6
Continuous
 62
     7
370
    15
100
AcDbLine
 10
7.0920244128
 20
1.7417838787
 30
0.0
 11
7.068402259
 21
1.7417838787
 31
0.0
  0
LINE
  5
5DE
330
1F
100
AcDbEntity
  8
0
  6
Continuous
 62
     7
370
    15
100
AcDbLine
 10
7.0920244128
 20
1.7024137935
 30
0.0
 11
7.0920244128
 21
1.7417838787
 31
0.0
  0
LINE
  5
5DF
330
1F
100
AcDbEntity
  8
0
  6
Continuous
 62
     7
370
    15
100
AcDbLine
 10
2.9757877772
 20
1.7024137935
 30
0.0
 11
2.9654713631
 21
1.5055634225
 31
0.0
  0
LINE
  5
5E0
330
1F
100
AcDbEntity
  8
0
  6
Continuous
 62
     7
370
    15
100
AcDbLine
 10
7.2595690506
 20
1.5055634225
 30
0.0
 11
7.124089189
 21
1.5055634225
 31
0.0
  0
LINE
  5
5E1
330
1F
100
AcDbEntity
  8
0
  6
Continuous
 62
     7
370
    15
100
AcDbLine
 10
7.1807244548
 20
1.4268232613
 30
0.0
 11
7.1437742683
 21
1.4268232613
 31
0.0
  0
LINE
  5
5E2
330
1F
100
AcDbEntity
  8
0
  6
Continuous
 62
     7
370
    15
100
AcDbLine
 10
7.1437742683
 20
1.3480831001
 30
0.0
 11
7.1437742683
 21
1.4268232613
 31
0.0
  0
LINE
  5
5E3
330
1F
100
AcDbEntity
  8
0
  6
Continuous
 62
     7
370
    15
100
AcDbLine
 10
2.9457862838
 20
1.4268232613
 30
0.0
 11
2.9088360973
 21
1.4268232613
 31
0.0
  0
LINE
  5
5E4
330
1F
100
AcDbEntity
  8
0
  6
Continuous
 62
     7
370
    15
100
AcDbLine
 10
2.9088360973
 20
1.3480831001
 30
0.0
 11
2.8299915015
 21
1.3480831001
 31
0.0
  0
LINE
  5
5E5
330
1F
100
AcDbEntity
  8
0
  6
Continuous
 62
     7
370
    15
100
AcDbLine
 10
7.1437742683
 20
1.3480831001
 30
0.0
 11
2.9457862838
 21
1.3480831001
 31
0.0
  0
LINE
  5
5E6
330
1F
100
AcDbEntity
  8
0
  6
Continuous
 62
     7
370
    15
100
AcDbLine
 10
7.2595690506
 20
1.3480831001
 30
0.0
 11
7.1807244548
 21
1.3480831001
 31
0.0
  0
LINE
  5
5E7
330
1F
100
AcDbEntity
  8
0
  6
Continuous
 62
     7
370
    15
100
AcDbLine
 10
2.9457862838
 20
1.3480831001
 30
0.0
 11
2.9457862838
 21
1.4268232613
 31
0.0
  0
LINE
  5
5E8
330
1F
100
AcDbEntity
  8
0
  6
Continuous
 62
     7
370
    15
100
AcDbLine
 10
2.9654713631
 20
1.5055634225
 30
0.0
 11
2.8299915015
 21
1.5055634225
 31
0.0
  0
LINE
  5
5E9
330
1F
100
AcDbEntity
  8
0
  6
Continuous
 62
     7
370
    15
100
AcDbLine
 10
2.9088360973
 20
1.3480831001
 30
0.0
 11
2.908953576
 21
1.3480831001
 31
0.0
  0
LINE
  5
5EA
330
1F
100
AcDbEntity
  8
0
  6
Continuous
 62
     7
370
    15
100
AcDbLine
 10
7.1806069761
 20
1.3480831001
 30
0.0
 11
7.1807244548
 21
1.3480831001
 31
0.0
  0
LINE
  5
5EB
330
1F
100
AcDbEntity
  8
0
  6
Continuous
 62
     7
370
    15
100
AcDbLine
 10
7.4362906625
 20
1.3480831001
 30
0.0
 11
7.4362906625
 21
1.5055634225
 31
0.0
  0
LINE
  5
5EC
330
1F
100
AcDbEntity
  8
0
  6
Continuous
 62
     7
370
    15
100
AcDbLine
 10
7.2595690506
 20
1.5055634225
 30
0.0
 11
7.4362906625
 21
1.5055634225
 31
0.0
  0
LINE
  5
5ED
330
1F
100
AcDbEntity
  8
0
  6
Continuous
 62
     7
370
    15
100
AcDbLine
 10
7.2595690506
 20
1.3480831001
 30
0.0
 11
7.4362906625
 21
1.3480831001
 31
0.0
  0
LINE
  5
5EE
330
1F
100
AcDbEntity
  8
0
  6
Continuous
 62
     7
370
    15
100
AcDbLine
 10
7.5447803558
 20
1.4661933373
 30
0.0
 11
7.5447803558
 21
1.3480831001
 31
0.0
  0
ARC
  5
5EF
330
1F
100
AcDbEntity
  8
0
  6
Continuous
 62
     7
370
    15
100
AcDbCircle
 10
7.5054101973
 20
1.4661933363
 30
0.0
 40
0.0393700787401576
100
AcDbArc
 50
0.0
 51
90.0
  0
LINE
  5
5F0
330
1F
100
AcDbEntity
  8
0
  6
Continuous
 62
     7
370
    15
100
AcDbLine
 10
7.5054101973
 20
1.5055634225
 30
0.0
 11
7.4362906625
 21
1.5055634225
 31
0.0
  0
LINE
  5
5F1
330
1F
100
AcDbEntity
  8
0
  6
Continuous
 62
     7
370
    15
100
AcDbLine
 10
7.5447803558
 20
1.3480831001
 30
0.0
 11
7.4362906625
 21
1.3480831001
 31
0.0
  0
LINE
  5
5F2
330
1F
100
AcDbEntity
  8
0
  6
Continuous
 62
     7
370
    15
100
AcDbLine
 10
6.5767773116
 20
1.6315476621
 30
0.0
 11
6.3474289344
 21
1.6315476621
 31
0.0
  0
LINE
  5
5F3
330
1F
100
AcDbEntity
  8
0
  6
Continuous
 62
     7
370
    15
100
AcDbLine
 10
3.7421316177
 20
1.6315476621
 30
0.0
 11
3.5127832405
 21
1.6315476621
 31
0.0
  0
LINE
  5
5F4
330
1F
100
AcDbEntity
  8
0
  6
Continuous
 62
     7
370
    15
100
AcDbLine
 10
2.908953576
 20
1.3480831001
 30
0.0
 11
2.9457862838
 21
1.3480831001
 31
0.0
  0
LINE
  5
5F5
330
1F
100
AcDbEntity
  8
0
  6
Continuous
 62
     7
370
    15
100
AcDbLine
 10
7.1437742683
 20
1.3480831001
 30
0.0
 11
7.1806069761
 21
1.3480831001
 31
0.0
  0
LINE
  5
5F6
330
1F
100
AcDbEntity
  8
0
  6
Continuous
 62
     7
370
    15
100
AcDbLine
 10
3.7849376965
 20
1.6039886172
 30
0.0
 11
3.7849376965
 21
1.6827287876
 31
0.0
  0
LINE
  5
5F7
330
1F
100
AcDbEntity
  8
0
  6
Continuous
 62
     7
370
    15
100
AcDbLine
 10
4.4148589863
 20
1.6039886172
 30
0.0
 11
3.7849376965
 21
1.6039886172
 31
0.0
  0
LINE
  5
5F8
330
1F
100
AcDbEntity
  8
0
  6
Continuous
 62
     7
370
    15
100
AcDbLine
 10
4.4148589863
 20
1.6827287876
 30
0.0
 11
4.4148589863
 21
1.6039886172
 31
0.0
  0
LINE
  5
5F9
330
1F
100
AcDbEntity
  8
0
  6
Continuous
 62
     7
370
    15
100
AcDbLine
 10
4.4148589863
 20
1.6827287876
 30
0.0
 11
5.6747015658
 21
1.6827287876
 31
0.0
  0
LINE
  5
5FA
330
1F
100
AcDbEntity
  8
0
  6
Continuous
 62
     7
370
    15
100
AcDbLine
 10
5.6747015658
 20
1.6039886172
 30
0.0
 11
5.6747015658
 21
1.6827287876
 31
0.0
  0
LINE
  5
5FB
330
1F
100
AcDbEntity
  8
0
  6
Continuous
 62
     7
370
    15
100
AcDbLine
 10
6.3046228556
 20
1.6039886172
 30
0.0
 11
5.6747015658
 21
1.6039886172
 31
0.0
  0
LINE
  5
5FC
330
1F
100
AcDbEntity
  8
0
  6
Continuous
 62
     7
370
    15
100
AcDbLine
 10
6.3046228556
 20
1.6827287876
 30
0.0
 11
6.3046228556
 21
1.6039886172
 31
0.0
  0
LINE
  5
5FD
330
1F
100
AcDbEntity
  8
0
  6
Continuous
 62
     7
370
    15
100
AcDbLine
 10
6.3046228556
 20
1.6827287876
 30
0.0
 11
7.0220002484
 21
1.6827287876
 31
0.0
  0
LINE
  5
5FE
330
1F
100
AcDbEntity
  8
0
  6
Continuous
 62
     7
370
    15
100
AcDbLine
 10
3.0675603037
 20
1.6827287876
 30
0.0
 11
3.7849376965
 21
1.6827287876
 31
0.0
  0
LINE
  5
5FF
330
1F
100
AcDbEntity
  8
0
  6
Continuous
 62
     7
370
    15
100
AcDbLine
 10
6.3046228556
 20
1.6827287876
 30
0.0
 11
6.2652526971
 21
1.6827287876
 31
0.0
  0
LINE
  5
600
330
1F
100
AcDbEntity
  8
0
  6
Continuous
 62
     7
370
    15
100
AcDbLine
 10
5.714071651
 20
1.6827287876
 30
0.0
 11
5.6747015658
 21
1.6827287876
 31
0.0
  0
LINE
  5
601
330
1F
100
AcDbEntity
  8
0
  6
Continuous
 62
     7
370
    15
100
AcDbLine
 10
4.4148589863
 20
1.6827287876
 30
0.0
 11
4.3754889011
 21
1.6827287876
 31
0.0
  0
LINE
  5
602
330
1F
100
AcDbEntity
  8
0
  6
Continuous
 62
     7
370
    15
100
AcDbLine
 10
3.8243078551
 20
1.6827287876
 30
0.0
 11
3.7849376965
 21
1.6827287876
 31
0.0
  0
HATCH
  5
603
330
1F
100
AcDbEntity
  8
0
  6
Continuous
 62
     7
370
     0
100
AcDbHatch
 10
0.0
 20
0.0
 30
0.0
210
0.0
220
0.0
230
1.0
  2
ANSI31
 70
     0
 71
     0
 91
        1
 92
        0
 93
        5
 72
     1
 10
2.653269863134626
 20
1.505563415034516
 11
2.58415035480393
 21
1.505563415034516
 72
     2
 10
2.58415035480393
 20
1.466193336294359
 40
0.0393700787401575
 50
90.0
 51
180.0
 73
     1
 72
     1
 10
2.544780276063773
 20
1.466193336294359
 11
2.544780276063773
 21
1.348083100073886
 72
     1
 10
2.544780276063773
 20
1.348083100073886
 11
2.653269863134626
 21
1.348083100073886
 72
     1
 10
2.653269863134626
 20
1.348083100073886
 11
2.653269863134626
 21
1.505563415034516
 97
        0
 75
     0
 76
     1
 52
0.0
 41
1.125
 77
     0
 78
     1
 53
45.0
 43
0.0
 44
0.0
 45
-0.0994368911043582
 46
0.0994368911043583
 79
     0
 98
        1
 10
0.0
 20
0.0
  0
HATCH
  5
604
330
1F
100
AcDbEntity
  8
0
  6
Continuous
 62
     7
370
     0
100
AcDbHatch
 10
0.0
 20
0.0
 30
0.0
210
0.0
220
0.0
230
1.0
  2
ANSI31
 70
     0
 71
     0
 91
        1
 92
        0
 93
       28
 72
     1
 10
7.092024370551962
 20
1.702413808735304
 11
7.092024370551962
 21
1.741783887475461
 72
     1
 10
7.092024370551962
 20
1.741783887475461
 11
7.068402323307867
 21
1.741783887475461
 72
     1
 10
7.068402323307867
 20
1.741783887475461
 11
7.068402323307867
 21
1.682728769365225
 72
     1
 10
7.068402323307867
 20
1.682728769365225
 11
7.022000289098238
 21
1.682728769365225
 72
     1
 10
7.022000289098238
 20
1.682728769365225
 11
7.009001509197327
 21
1.434697273302233
 72
     1
 10
7.009001509197327
 20
1.434697273302233
 11
3.080559042930219
 21
1.434697273302233
 72
     1
 10
3.080559042930219
 20
1.434697273302233
 11
3.067560263029307
 21
1.682728769365225
 72
     1
 10
3.067560263029307
 20
1.682728769365225
 11
3.021158228819678
 21
1.682728769365225
 72
     1
 10
3.021158228819678
 20
1.682728769365225
 11
3.021158228819678
 21
1.741783887475461
 72
     1
 10
3.021158228819678
 20
1.741783887475461
 11
2.997536181575583
 21
1.741783887475461
 72
     1
 10
2.997536181575583
 20
1.741783887475461
 11
2.997536181575583
 21
1.702413808735304
 72
     1
 10
2.997536181575583
 20
1.702413808735304
 11
2.975787843808675
 21
1.702413808737971
 72
     1
 10
2.975787843808675
 20
1.702413808737971
 11
2.965471351823783
 21
1.505563415034516
 72
     1
 10
2.965471351823783
 20
1.505563415034516
 11
2.829991476394494
 21
1.505563415034516
 72
     1
 10
2.829991476394494
 20
1.505563415034516
 11
2.829991476394494
 21
1.348083100073886
 72
     1
 10
2.829991476394494
 20
1.348083100073886
 11
2.908836149484494
 21
1.348083100073886
 72
     1
 10
2.908836149484494
 20
1.348083100073886
 11
2.908836149484494
 21
1.426823257554201
 72
     1
 10
2.908836149484494
 20
1.426823257554201
 11
2.945786312453605
 21
1.426823257554201
 72
     1
 10
2.945786312453605
 20
1.426823257554201
 11
2.945786312453605
 21
1.348083100073886
 72
     1
 10
2.945786312453605
 20
1.348083100073886
 11
7.143774239673941
 21
1.348083100073886
 72
     1
 10
7.143774239673941
 20
1.348083100073886
 11
7.143774239673941
 21
1.426823257554201
 72
     1
 10
7.143774239673941
 20
1.426823257554201
 11
7.180724402643051
 21
1.426823257554201
 72
     1
 10
7.180724402643051
 20
1.426823257554201
 11
7.180724402643051
 21
1.348083100073886
 72
     1
 10
7.180724402643051
 20
1.348083100073886
 11
7.259569075733051
 21
1.348083100073886
 72
     1
 10
7.259569075733051
 20
1.348083100073886
 11
7.259569075733051
 21
1.505563415034516
 72
     1
 10
7.259569075733051
 20
1.505563415034516
 11
7.124089200303762
 21
1.505563415034516
 72
     1
 10
7.124089200303762
 20
1.505563415034516
 11
7.113772708318871
 21
1.702413808737971
 72
     1
 10
7.113772708318871
 20
1.702413808737971
 11
7.092024370551962
 21
1.702413808735304
 97
        0
 75
     0
 76
     1
 52
0.0
 41
1.125
 77
     0
 78
     1
 53
45.0
 43
0.0
 44
0.0
 45
-0.0994368911043582
 46
0.0994368911043583
 79
     0
 98
        1
 10
0.0
 20
0.0
  0
HATCH
  5
605
330
1F
100
AcDbEntity
  8
0
  6
Continuous
 62
     7
370
     0
100
AcDbHatch
 10
0.0
 20
0.0
 30
0.0
210
0.0
220
0.0
230
1.0
  2
ANSI31
 70
     0
 71
     0
 91
        1
 92
        0
 93
        5
 72
     1
 10
7.544780276063774
 20
1.348083100073886
 11
7.544780276063774
 21
1.466193336294359
 72
     2
 10
7.505410197323616
 20
1.466193336294359
 40
0.0393700787401575
 50
0.0
 51
90.0
 73
     1
 72
     1
 10
7.505410197323616
 20
1.505563415034516
 11
7.436290688992921
 21
1.505563415034516
 72
     1
 10
7.436290688992921
 20
1.505563415034516
 11
7.436290688992921
 21
1.348083100073886
 72
     1
 10
7.436290688992921
 20
1.348083100073886
 11
7.544780276063774
 21
1.348083100073886
 97
        0
 75
     0
 76
     1
 52
0.0
 41
1.125
 77
     0
 78
     1
 53
45.0
 43
0.0
 44
0.0
 45
-0.0994368911043582
 46
0.0994368911043583
 79
     0
 98
        1
 10
0.0
 20
0.0
  0
HATCH
  5
606
330
1F
100
AcDbEntity
  8
0
  6
Continuous
 62
     7
370
     0
100
AcDbHatch
 10
0.0
 20
0.0
 30
0.0
210
0.0
220
0.0
230
1.0
  2
ANSI31
 70
     0
 71
     0
 91
        1
 92
        0
 93
       14
 72
     1
 10
3.112540168083255
 20
2.65910672212113
 11
6.97702038404429
 21
2.65910672212113
 72
     1
 10
6.97702038404429
 20
2.65910672212113
 11
7.02819018428915
 21
1.682728769365225
 72
     1
 10
7.02819018428915
 20
1.682728769365225
 11
7.064465315433853
 21
1.682728769365225
 72
     1
 10
7.064465315433853
 20
1.682728769365225
 11
7.064465315433852
 21
1.741783887475461
 72
     1
 10
7.064465315433852
 20
1.741783887475461
 11
7.111709409922041
 21
1.741783887475461
 72
     1
 10
7.111709409922041
 20
1.741783887475461
 11
7.063005928204003
 21
2.671101679305614
 72
     2
 10
6.984373681372933
 20
2.666980737869162
 40
0.078740157480315
 50
2.99999999999994
 51
89.9999999999987
 73
     1
 72
     1
 10
6.984373681372935
 20
2.745720895349477
 11
3.105186870754612
 21
2.745720895349477
 72
     2
 10
3.105186870754613
 20
2.666980737869162
 40
0.078740157480315
 50
90.00000000000034
 51
177.0000000000001
 73
     1
 72
     1
 10
3.026554623923543
 20
2.671101679305614
 11
2.977851142205506
 21
1.741783887475461
 72
     1
 10
2.977851142205506
 20
1.741783887475461
 11
3.025095236693695
 21
1.741783887475461
 72
     1
 10
3.025095236693695
 20
1.741783887475461
 11
3.025095236693695
 21
1.682728769365226
 72
     1
 10
3.025095236693695
 20
1.682728769365226
 11
3.061370367838397
 21
1.682728769365225
 72
     1
 10
3.061370367838397
 20
1.682728769365225
 11
3.112540168083255
 21
2.65910672212113
 97
        0
 75
     0
 76
     1
 52
0.0
 41
1.125
 77
     0
 78
     1
 53
45.0
 43
0.0
 44
0.0
 45
-0.0994368911043582
 46
0.0994368911043583
 79
     0
 98
        1
 10
0.0
 20
0.0
  0
DIMENSION
  5
607
330
1F
100
AcDbEntity
  8
0
  6
Continuous
 62
     7
370
     0
100
AcDbDimension
  2
*D42
 10
2.1018509608
 20
2.6591067221
 30
0.0
 11
2.1018509608
 21
2.1453271946
 31
0.0
 70
   160
 71
     2
 42
-1.0
  3
SLDDIMSTYLE0
100
AcDbAlignedDimension
 13
3.5846513263
 23
1.631547667
 33
0.0
 14
3.1125401681
 24
2.6591067221
 34
0.0
 50
90.0
100
AcDbRotatedDimension
  0
DIMENSION
  5
61B
330
1F
100
AcDbEntity
  8
0
  6
Continuous
 62
     7
370
     0
100
AcDbDimension
  2
*D43
 10
7.8576153523
 20
2.6591067221
 30
0.0
 11
7.8576153523
 21
2.0469019977
 31
0.0
 70
   160
 71
     2
 42
-1.0
  3
SLDDIMSTYLE0
100
AcDbAlignedDimension
 13
7.0090015092
 23
1.4346972733
 33
0.0
 14
6.977020384
 24
2.6591067221
 34
0.0
 50
90.0
100
AcDbRotatedDimension
  0
DIMENSION
  5
62F
330
1F
100
AcDbEntity
  8
0
  6
Continuous
 62
     7
370
     0
100
AcDbDimension
  2
*D44
 10
8.5192056544
 20
2.7457208953
 30
0.0
 11
8.5192056544
 21
2.0469019977
 31
0.0
 70
   160
 71
     2
 42
-1.0
  3
SLDDIMSTYLE3
100
AcDbAlignedDimension
 13
7.5447802761
 23
1.3480831001
 33
0.0
 14
6.9843736814
 24
2.7457208953
 34
0.0
 50
90.0
100
AcDbRotatedDimension
  0
ENDSEC
  0
SECTION
  2
OBJECTS
  0
DICTIONARY
  5
C
330
0
100
AcDbDictionary
281
     1
  3
ACAD_GROUP
350
D
  3
ACAD_LAYOUT
350
1A
  3
ACAD_MLINESTYLE
350
17
  3
ACAD_PLOTSETTINGS
350
19
  3
ACAD_PLOTSTYLENAME
350
E
  0
DICTIONARY
  5
D
102
{ACAD_REACTORS
330
C
102
}
330
C
100
AcDbDictionary
281
     1
  0
DICTIONARY
  5
1A
102
{ACAD_REACTORS
330
C
102
}
330
C
100
AcDbDictionary
281
     1
  3
Layout1
350
1E
  3
Layout2
350
26
  3
Model
350
22
  0
DICTIONARY
  5
17
102
{ACAD_REACTORS
330
C
102
}
330
C
100
AcDbDictionary
281
     1
  3
Standard
350
18
  0
DICTIONARY
  5
19
102
{ACAD_REACTORS
330
C
102
}
330
C
100
AcDbDictionary
281
     1
  0
ACDBDICTIONARYWDFLT
  5
E
102
{ACAD_REACTORS
330
C
102
}
330
C
100
AcDbDictionary
281
     1
  3
Normal
350
F
100
AcDbDictionaryWithDefault
340
F
  0
LAYOUT
  5
1E
102
{ACAD_REACTORS
330
1A
102
}
330
1A
100
AcDbPlotSettings
  1

  2
none_device
  4

  6

 40
0.0
 41
0.0
 42
0.0
 43
0.0
 44
0.0
 45
0.0
 46
0.0
 47
0.0
 48
0.0
 49
0.0
140
0.0
141
0.0
142
1.0
143
1.0
 70
   688
 72
     0
 73
     0
 74
     5
  7

 75
    16
147
1.0
148
0.0
149
0.0
100
AcDbLayout
  1
Layout1
 70
     1
 71
     1
 10
0.0
 20
0.0
 11
12.0
 21
9.0
 12
0.0
 22
0.0
 32
0.0
 14
1.0000000000E+20
 24
1.0000000000E+20
 34
1.0000000000E+20
 15
-1.0000000000E+20
 25
-1.0000000000E+20
 35
-1.0000000000E+20
146
0.0
 13
0.0
 23
0.0
 33
0.0
 16
1.0
 26
0.0
 36
0.0
 17
0.0
 27
1.0
 37
0.0
 76
     0
330
1B
  0
LAYOUT
  5
26
102
{ACAD_REACTORS
330
1A
102
}
330
1A
100
AcDbPlotSettings
  1

  2
none_device
  4

  6

 40
0.0
 41
0.0
 42
0.0
 43
0.0
 44
0.0
 45
0.0
 46
0.0
 47
0.0
 48
0.0
 49
0.0
140
0.0
141
0.0
142
1.0
143
1.0
 70
   688
 72
     0
 73
     0
 74
     5
  7

 75
    16
147
1.0
148
0.0
149
0.0
100
AcDbLayout
  1
Layout2
 70
     1
 71
     2
 10
0.0
 20
0.0
 11
0.0
 21
0.0
 12
0.0
 22
0.0
 32
0.0
 14
0.0
 24
0.0
 34
0.0
 15
0.0
 25
0.0
 35
0.0
146
0.0
 13
0.0
 23
0.0
 33
0.0
 16
1.0
 26
0.0
 36
0.0
 17
0.0
 27
1.0
 37
0.0
 76
     0
330
23
  0
LAYOUT
  5
22
102
{ACAD_REACTORS
330
1A
102
}
330
1A
100
AcDbPlotSettings
  1

  2
none_device
  4

  6

 40
0.0
 41
0.0
 42
0.0
 43
0.0
 44
0.0
 45
0.0
 46
0.0
 47
0.0
 48
0.0
 49
0.0
140
0.0
141
0.0
142
1.0
143
1.0
 70
  1712
 72
     0
 73
     0
 74
     0
  7

 75
     0
147
1.0
148
0.0
149
0.0
100
AcDbLayout
  1
Model
 70
     1
 71
     0
 10
0.0
 20
0.0
 11
19.125
 21
12.375
 12
0.0
 22
0.0
 32
0.0
 14
0.0
 24
0.0
 34
0.0
 15
19.125
 25
12.375
 35
0.0
146
0.0
 13
0.0
 23
0.0
 33
0.0
 16
1.0
 26
0.0
 36
0.0
 17
0.0
 27
1.0
 37
0.0
 76
     0
330
1F
331
29
  0
MLINESTYLE
  5
18
102
{ACAD_REACTORS
330
17
102
}
330
17
100
AcDbMlineStyle
  2
Standard
 70
     0
  3

 62
   256
 51
90.0
 52
90.0
 71
     2
 49
0.5
 62
   256
  6
BYLAYER
 49
-0.5
 62
   256
  6
BYLAYER
  0
ACDBPLACEHOLDER
  5
F
102
{ACAD_REACTORS
330
E
102
}
330
E
  0
ENDSEC
  0
EOF
