  0
SECTION
  2
HEADER
  9
$ACADVER
  1
AC1015
  9
$ACADMAINTVER
 70
     6
  9
$DWGCODEPAGE
  3
ANSI_1252
  9
$INSBASE
 10
0.0
 20
0.0
 30
0.0
  9
$EXTMIN
 10
0.0
 20
0.0
 30
0.0
  9
$EXTMAX
 10
21.25
 20
13.75
 30
0.0
  9
$LIMMIN
 10
0.0
 20
0.0
  9
$LIMMAX
 10
21.25
 20
13.75
  9
$ORTHOMODE
 70
     0
  9
$REGENMODE
 70
     1
  9
$FILLMODE
 70
     1
  9
$QTEXTMODE
 70
     0
  9
$MIRRTEXT
 70
     1
  9
$LTSCALE
 40
1.25
  9
$ATTMODE
 70
     1
  9
$TEXTSIZE
 40
0.15625
  9
$TRACEWID
 40
0.05
  9
$TEXTSTYLE
  7
Standard
  9
$CLAYER
  8
0
  9
$CELTYPE
  6
ByLayer
  9
$CECOLOR
 62
   256
  9
$CELTSCALE
 40
1.0
  9
$DISPSILH
 70
     0
  9
$DIMSCALE
 40
1.0
  9
$DIMASZ
 40
0.1625
  9
$DIMEXO
 40
0.0625
  9
$DIMDLI
 40
0.38
  9
$DIMRND
 40
0.0
  9
$DIMDLE
 40
0.0
  9
$DIMEXE
 40
0.15625
  9
$DIMTP
 40
0.0
  9
$DIMTM
 40
0.0
  9
$DIMTXT
 40
0.15625
  9
$DIMCEN
 40
0.09
  9
$DIMTSZ
 40
0.0
  9
$DIMTOL
 70
     0
  9
$DIMLIM
 70
     0
  9
$DIMTIH
 70
     1
  9
$DIMTOH
 70
     1
  9
$DIMSE1
 70
     0
  9
$DIMSE2
 70
     0
  9
$DIMTAD
 70
     1
  9
$DIMZIN
 70
     0
  9
$DIMBLK
  1

  9
$DIMASO
 70
     1
  9
$DIMSHO
 70
     1
  9
$DIMPOST
  1

  9
$DIMAPOST
  1

  9
$DIMALT
 70
     0
  9
$DIMALTD
 70
     2
  9
$DIMALTF
 40
25.4
  9
$DIMLFAC
 40
1.0
  9
$DIMTOFL
 70
     0
  9
$DIMTVP
 40
0.0
  9
$DIMTIX
 70
     0
  9
$DIMSOXD
 70
     0
  9
$DIMSAH
 70
     0
  9
$DIMBLK1
  1

  9
$DIMBLK2
  1

  9
$DIMSTYLE
  2
Standard
  9
$DIMCLRD
 70
     0
  9
$DIMCLRE
 70
     0
  9
$DIMCLRT
 70
     0
  9
$DIMTFAC
 40
1.0
  9
$DIMGAP
 40
0.075
  9
$DIMJUST
 70
     0
  9
$DIMSD1
 70
     0
  9
$DIMSD2
 70
     0
  9
$DIMTOLJ
 70
     1
  9
$DIMTZIN
 70
     0
  9
$DIMALTZ
 70
     0
  9
$DIMALTTZ
 70
     0
  9
$DIMUPT
 70
     0
  9
$DIMDEC
 70
     2
  9
$DIMTDEC
 70
     2
  9
$DIMALTU
 70
     2
  9
$DIMALTTD
 70
     2
  9
$DIMTXSTY
  7
Standard
  9
$DIMAUNIT
 70
     0
  9
$DIMADEC
 70
     2
  9
$DIMALTRND
 40
0.0
  9
$DIMAZIN
 70
     0
  9
$DIMDSEP
 70
    46
  9
$DIMATFIT
 70
     3
  9
$DIMFRAC
 70
     0
  9
$DIMLDRBLK
  1

  9
$DIMLUNIT
 70
     2
  9
$DIMLWD
 70
    -2
  9
$DIMLWE
 70
    -2
  9
$DIMTMOVE
 70
     0
  9
$LUNITS
 70
     2
  9
$LUPREC
 70
     2
  9
$SKETCHINC
 40
0.1
  9
$FILLETRAD
 40
0.5
  9
$AUNITS
 70
     0
  9
$AUPREC
 70
     2
  9
$MENU
  1
.
  9
$ELEVATION
 40
0.0
  9
$PELEVATION
 40
0.0
  9
$THICKNESS
 40
0.0
  9
$LIMCHECK
 70
     0
  9
$CHAMFERA
 40
0.5
  9
$CHAMFERB
 40
0.5
  9
$CHAMFERC
 40
1.0
  9
$CHAMFERD
 40
0.0
  9
$SKPOLY
 70
     0
  9
$TDCREATE
 40
2456966.628383206
  9
$TDUCREATE
 40
2456966.836716539
  9
$TDUPDATE
 40
2456966.628383217
  9
$TDUUPDATE
 40
2456966.836716551
  9
$TDINDWG
 40
0.0000000116
  9
$TDUSRTIMER
 40
0.0000000116
  9
$USRTIMER
 70
     1
  9
$ANGBASE
 50
0.0
  9
$ANGDIR
 70
     0
  9
$PDMODE
 70
     0
  9
$PDSIZE
 40
-1.0
  9
$PLINEWID
 40
0.0
  9
$SPLFRAME
 70
     0
  9
$SPLINETYPE
 70
     6
  9
$SPLINESEGS
 70
     8
  9
$HANDSEED
  5
5E2
  9
$SURFTAB1
 70
     6
  9
$SURFTAB2
 70
     6
  9
$SURFTYPE
 70
     6
  9
$SURFU
 70
     6
  9
$SURFV
 70
     6
  9
$UCSBASE
  2

  9
$UCSNAME
  2

  9
$UCSORG
 10
0.0
 20
0.0
 30
0.0
  9
$UCSXDIR
 10
1.0
 20
0.0
 30
0.0
  9
$UCSYDIR
 10
0.0
 20
1.0
 30
0.0
  9
$UCSORTHOREF
  2

  9
$UCSORTHOVIEW
 70
     0
  9
$UCSORGTOP
 10
0.0
 20
0.0
 30
0.0
  9
$UCSORGBOTTOM
 10
0.0
 20
0.0
 30
0.0
  9
$UCSORGLEFT
 10
0.0
 20
0.0
 30
0.0
  9
$UCSORGRIGHT
 10
0.0
 20
0.0
 30
0.0
  9
$UCSORGFRONT
 10
0.0
 20
0.0
 30
0.0
  9
$UCSORGBACK
 10
0.0
 20
0.0
 30
0.0
  9
$PUCSBASE
  2

  9
$PUCSNAME
  2

  9
$PUCSORG
 10
0.0
 20
0.0
 30
0.0
  9
$PUCSXDIR
 10
1.0
 20
0.0
 30
0.0
  9
$PUCSYDIR
 10
0.0
 20
1.0
 30
0.0
  9
$PUCSORTHOREF
  2

  9
$PUCSORTHOVIEW
 70
     0
  9
$PUCSORGTOP
 10
0.0
 20
0.0
 30
0.0
  9
$PUCSORGBOTTOM
 10
0.0
 20
0.0
 30
0.0
  9
$PUCSORGLEFT
 10
0.0
 20
0.0
 30
0.0
  9
$PUCSORGRIGHT
 10
0.0
 20
0.0
 30
0.0
  9
$PUCSORGFRONT
 10
0.0
 20
0.0
 30
0.0
  9
$PUCSORGBACK
 10
0.0
 20
0.0
 30
0.0
  9
$USERI1
 70
     0
  9
$USERI2
 70
     0
  9
$USERI3
 70
     0
  9
$USERI4
 70
     0
  9
$USERI5
 70
     0
  9
$USERR1
 40
0.0
  9
$USERR2
 40
0.0
  9
$USERR3
 40
0.0
  9
$USERR4
 40
0.0
  9
$USERR5
 40
0.0
  9
$WORLDVIEW
 70
     1
  9
$SHADEDGE
 70
     3
  9
$SHADEDIF
 70
    70
  9
$TILEMODE
 70
     1
  9
$MAXACTVP
 70
    64
  9
$PINSBASE
 10
0.0
 20
0.0
 30
0.0
  9
$PLIMCHECK
 70
     0
  9
$PEXTMIN
 10
1.0000000000E+20
 20
1.0000000000E+20
 30
1.0000000000E+20
  9
$PEXTMAX
 10
-1.0000000000E+20
 20
-1.0000000000E+20
 30
-1.0000000000E+20
  9
$PLIMMIN
 10
0.0
 20
0.0
  9
$PLIMMAX
 10
12.0
 20
9.0
  9
$UNITMODE
 70
     0
  9
$VISRETAIN
 70
     1
  9
$PLINEGEN
 70
     0
  9
$PSLTSCALE
 70
     1
  9
$TREEDEPTH
 70
  3020
  9
$CMLSTYLE
  2
Standard
  9
$CMLJUST
 70
     0
  9
$CMLSCALE
 40
1.0
  9
$PROXYGRAPHICS
 70
     1
  9
$MEASUREMENT
 70
     0
  9
$CELWEIGHT
370
    -1
  9
$ENDCAPS
280
     0
  9
$JOINSTYLE
280
     0
  9
$LWDISPLAY
290
     1
  9
$INSUNITS
 70
     1
  9
$HYPERLINKBASE
  1

  9
$STYLESHEET
  1

  9
$XEDIT
290
     1
  9
$CEPSNTYPE
380
     0
  9
$PSTYLEMODE
290
     1
  9
$FINGERPRINTGUID
  2
{52805FCD-35F3-4F40-BE03-957B511BFCE0}
  9
$VERSIONGUID
  2
{FAEB1C32-E019-11D5-929B-00C0DF256EC4}
  9
$EXTNAMES
290
     1
  9
$PSVPSCALE
 40
0.0
  9
$OLESTARTUP
290
     0
  0
ENDSEC
  0
SECTION
  2
CLASSES
  0
CLASS
  1
ACDBDICTIONARYWDFLT
  2
AcDbDictionaryWithDefault
  3
ObjectDBX Classes
 90
        0
280
     0
281
     0
  0
CLASS
  1
VISUALSTYLE
  2
AcDbVisualStyle
  3
ObjectDBX Classes
 90
     4095
280
     0
281
     0
  0
CLASS
  1
MATERIAL
  2
AcDbMaterial
  3
ObjectDBX Classes
 90
     1153
280
     0
281
     0
  0
CLASS
  1
ACDBPLACEHOLDER
  2
AcDbPlaceHolder
  3
ObjectDBX Classes
 90
        0
280
     0
281
     0
  0
CLASS
  1
LAYOUT
  2
AcDbLayout
  3
ObjectDBX Classes
 90
        0
280
     0
281
     0
  0
ENDSEC
  0
SECTION
  2
TABLES
  0
TABLE
  2
VPORT
  5
8
330
0
100
AcDbSymbolTable
 70
     1
  0
VPORT
  5
29
330
8
100
AcDbSymbolTableRecord
100
AcDbViewportTableRecord
  2
*Active
 70
     0
 10
0.0
 20
0.0
 11
1.0
 21
1.0
 12
10.625
 22
6.875
 13
0.0
 23
0.0
 14
0.5
 24
0.5
 15
0.5
 25
0.5
 16
0.0
 26
0.0
 36
1.0
 17
0.0
 27
0.0
 37
0.0
 40
13.75
 41
1.5454545455
 42
50.0
 43
0.0
 44
0.0
 50
0.0
 51
0.0
 71
     0
 72
  2000
 73
     1
 74
     3
 75
     0
 76
     0
 77
     0
 78
     0
281
     0
 65
     1
110
0.0
120
0.0
130
0.0
111
1.0
121
0.0
131
0.0
112
0.0
122
1.0
132
0.0
 79
     0
146
0.0
  0
ENDTAB
  0
TABLE
  2
LTYPE
  5
5
330
0
100
AcDbSymbolTable
 70
     6
  0
LTYPE
  5
14
330
5
100
AcDbSymbolTableRecord
100
AcDbLinetypeTableRecord
  2
ByBlock
 70
     0
  3

 72
    65
 73
     0
 40
0.0
  0
LTYPE
  5
15
330
5
100
AcDbSymbolTableRecord
100
AcDbLinetypeTableRecord
  2
ByLayer
 70
     0
  3

 72
    65
 73
     0
 40
0.0
  0
LTYPE
  5
16
330
5
100
AcDbSymbolTableRecord
100
AcDbLinetypeTableRecord
  2
Continuous
 70
     0
  3
Solid line
 72
    65
 73
     0
 40
0.0
  0
LTYPE
  5
3F
330
5
100
AcDbSymbolTableRecord
100
AcDbLinetypeTableRecord
  2
HIDDEN
 70
     0
  3
Hidden __ __ __ __ __ __ __ __ __ __ __ __ __ __
 72
    65
 73
     2
 40
0.075
 49
0.05
 74
     0
 49
-0.025
 74
     0
  0
LTYPE
  5
40
330
5
100
AcDbSymbolTableRecord
100
AcDbLinetypeTableRecord
  2
PHANTOM
 70
     0
  3
Phantom ______  __  __  ______  __  __  ______
 72
    65
 73
     6
 40
0.5
 49
0.25
 74
     0
 49
-0.05
 74
     0
 49
0.05
 74
     0
 49
-0.05
 74
     0
 49
0.05
 74
     0
 49
-0.05
 74
     0
  0
LTYPE
  5
41
330
5
100
AcDbSymbolTableRecord
100
AcDbLinetypeTableRecord
  2
CENTER
 70
     0
  3
Center ____ _ ____ _ ____ _ ____ _ ____ _ ____
 72
    65
 73
     4
 40
0.4
 49
0.25
 74
     0
 49
-0.05
 74
     0
 49
0.05
 74
     0
 49
-0.05
 74
     0
  0
LTYPE
  5
42
330
5
100
AcDbSymbolTableRecord
100
AcDbLinetypeTableRecord
  2
CENTERX2
 70
     0
  3
Center (2x) ________  __  ________  __  _____
 72
    65
 73
     4
 40
0.8
 49
0.5
 74
     0
 49
-0.1
 74
     0
 49
0.1
 74
     0
 49
-0.1
 74
     0
  0
LTYPE
  5
43
330
5
100
AcDbSymbolTableRecord
100
AcDbLinetypeTableRecord
  2
DOT2
 70
     0
  3
Dot (.5x) ........................................
 72
    65
 73
     2
 40
0.025
 49
0.0
 74
     0
 49
-0.025
 74
     0
  0
ENDTAB
  0
TABLE
  2
LAYER
  5
2
330
0
100
AcDbSymbolTable
 70
     1
  0
LAYER
  5
10
330
2
100
AcDbSymbolTableRecord
100
AcDbLayerTableRecord
  2
0
 70
     0
 62
     7
  6
Continuous
370
    -3
390
F
  0
ENDTAB
  0
TABLE
  2
STYLE
  5
3
330
0
100
AcDbSymbolTable
 70
     3
  0
STYLE
  5
11
330
3
100
AcDbSymbolTableRecord
100
AcDbTextStyleTableRecord
  2
Standard
 70
     0
 40
0.0
 41
1.0
 50
0.0
 71
     0
 42
0.2
  3
txt
  4

  0
STYLE
  5
77
330
3
100
AcDbSymbolTableRecord
100
AcDbTextStyleTableRecord
  2
SLDTEXTSTYLE0
 70
     0
 40
0.0
 41
0.75
 50
0.0
 71
     0
 42
0.2
  3
TXT
  4

  0
STYLE
  5
81
330
3
100
AcDbSymbolTableRecord
100
AcDbTextStyleTableRecord
  2
SLDTEXTSTYLE1
 70
     0
 40
0.0
 41
0.7
 50
0.0
 71
     0
 42
0.2
  3
TXT
  4

  0
ENDTAB
  0
TABLE
  2
VIEW
  5
6
330
0
100
AcDbSymbolTable
 70
     0
  0
ENDTAB
  0
TABLE
  2
UCS
  5
7
330
0
100
AcDbSymbolTable
 70
     0
  0
ENDTAB
  0
TABLE
  2
APPID
  5
9
330
0
100
AcDbSymbolTable
 70
     1
  0
APPID
  5
12
330
9
100
AcDbSymbolTableRecord
100
AcDbRegAppTableRecord
  2
ACAD
 70
     0
  0
ENDTAB
  0
TABLE
  2
DIMSTYLE
  5
A
330
0
100
AcDbSymbolTable
 70
    10
100
AcDbDimStyleTable
  0
DIMSTYLE
105
27
330
A
100
AcDbSymbolTableRecord
100
AcDbDimStyleTableRecord
  2
Standard
 70
     0
178
     0
340
11
  0
DIMSTYLE
105
F4
102
{ACAD_REACTORS
330
F3
330
108
330
11C
330
130
330
177
330
18B
330
19F
330
1B3
330
1C7
330
1DB
330
42A
330
43E
330
452
330
466
330
4C7
102
}
330
A
100
AcDbSymbolTableRecord
100
AcDbDimStyleTableRecord
  2
SLDDIMSTYLE0
 70
     0
 41
0.1625
 44
0.0
 45
0.000000001
 78
    12
 79
     3
140
0.15625
147
0.0390625
148
0.000000001
170
     1
173
     1
178
     0
271
     2
272
     2
276
     2
284
    12
340
77
  0
DIMSTYLE
105
145
102
{ACAD_REACTORS
330
144
330
155
102
}
330
A
100
AcDbSymbolTableRecord
100
AcDbDimStyleTableRecord
  2
SLDDIMSTYLE1
 70
     0
 41
0.1625
 44
0.0
 45
0.000000001
 78
    12
 79
     3
140
0.15625
141
0.0
147
0.0390625
148
0.000000001
170
     1
173
     1
178
     0
271
     2
272
     2
276
     2
284
    12
340
77
  0
DIMSTYLE
105
166
102
{ACAD_REACTORS
330
165
102
}
330
A
100
AcDbSymbolTableRecord
100
AcDbDimStyleTableRecord
  2
SLDDIMSTYLE2
 70
     0
 41
0.1625
 44
0.0
 45
0.000000001
 78
    12
 79
     3
140
0.15625
141
0.0
147
0.0390625
148
0.000000001
170
     1
173
     1
178
     0
271
     2
272
     2
276
     2
284
    12
340
77
  0
DIMSTYLE
105
1F6
330
A
100
AcDbSymbolTableRecord
100
AcDbDimStyleTableRecord
  2
SLDDIMSTYLE3
 70
     0
 41
0.1625
 44
0.0
 45
0.000000001
140
0.0
146
0.1625
147
0.0
173
     1
178
     0
271
     0
272
     0
276
     2
340
11
  0
DIMSTYLE
105
376
102
{ACAD_REACTORS
330
375
330
389
102
}
330
A
100
AcDbSymbolTableRecord
100
AcDbDimStyleTableRecord
  2
SLDDIMSTYLE4
 70
     0
 41
0.1625
 44
0.0
 45
0.000000001
 78
     4
 79
     1
140
0.15625
147
0.0390625
148
0.000000001
170
     1
172
     1
173
     1
178
     0
271
     2
272
     2
276
     2
284
    12
289
     0
340
77
  0
DIMSTYLE
105
39E
102
{ACAD_REACTORS
330
39D
330
3B3
330
4B5
330
50D
330
522
330
5A6
330
5BA
330
5CE
102
}
330
A
100
AcDbSymbolTableRecord
100
AcDbDimStyleTableRecord
  2
SLDDIMSTYLE5
 70
     0
 41
0.1625
 44
0.0
 45
0.000000001
 78
    12
 79
     3
140
0.15625
147
0.0390625
148
0.000000001
170
     1
172
     1
173
     1
178
     0
271
     2
272
     2
276
     2
284
    12
289
     0
340
77
  0
DIMSTYLE
105
4A3
102
{ACAD_REACTORS
330
4A2
102
}
330
A
100
AcDbSymbolTableRecord
100
AcDbDimStyleTableRecord
  2
SLDDIMSTYLE6
 70
     0
 41
0.1625
 44
0.0
 78
    12
 79
     3
140
0.15625
144
1.25
147
0.0390625
148
0.000000001
170
     1
173
     1
178
     0
272
     0
276
     2
284
    12
340
77
  0
DIMSTYLE
105
537
102
{ACAD_REACTORS
330
536
102
}
330
A
100
AcDbSymbolTableRecord
100
AcDbDimStyleTableRecord
  2
SLDDIMSTYLE7
 70
     0
 41
0.1625
 44
0.0
 45
0.000000001
 78
     4
 79
     1
140
0.15625
147
0.0390625
148
0.000000001
170
     1
173
     1
178
     0
271
     2
272
     2
276
     2
284
    12
340
77
  0
DIMSTYLE
105
552
330
A
100
AcDbSymbolTableRecord
100
AcDbDimStyleTableRecord
  2
SLDDIMSTYLE8
 70
     0
 41
0.05
 44
0.0
 45
0.000000001
140
0.0
146
0.05
147
0.0
173
     1
178
     0
271
     0
272
     0
276
     2
340
11
341
553
343
553
344
553
  0
ENDTAB
  0
TABLE
  2
BLOCK_RECORD
  5
1
330
0
100
AcDbSymbolTable
 70
    45
  0
BLOCK_RECORD
  5
1F
330
1
100
AcDbSymbolTableRecord
100
AcDbBlockTableRecord
  2
*Model_Space
340
22
  0
BLOCK_RECORD
  5
1B
330
1
100
AcDbSymbolTableRecord
100
AcDbBlockTableRecord
  2
*Paper_Space
340
1E
  0
BLOCK_RECORD
  5
23
330
1
100
AcDbSymbolTableRecord
100
AcDbBlockTableRecord
  2
*Paper_Space0
340
26
  0
BLOCK_RECORD
  5
74
330
1
100
AcDbSymbolTableRecord
100
AcDbBlockTableRecord
  2
SW_NOTE_0
340
0
102
{BLKREFS
331
7E
102
}
  0
BLOCK_RECORD
  5
83
330
1
100
AcDbSymbolTableRecord
100
AcDbBlockTableRecord
  2
SW_NOTE_1
340
0
102
{BLKREFS
331
88
102
}
  0
BLOCK_RECORD
  5
89
330
1
100
AcDbSymbolTableRecord
100
AcDbBlockTableRecord
  2
SW_NOTE_2
340
0
102
{BLKREFS
331
8E
102
}
  0
BLOCK_RECORD
  5
8F
330
1
100
AcDbSymbolTableRecord
100
AcDbBlockTableRecord
  2
SW_NOTE_3
340
0
102
{BLKREFS
331
94
102
}
  0
BLOCK_RECORD
  5
F5
330
1
100
AcDbSymbolTableRecord
100
AcDbBlockTableRecord
  2
*D5
340
0
  0
BLOCK_RECORD
  5
109
330
1
100
AcDbSymbolTableRecord
100
AcDbBlockTableRecord
  2
*D6
340
0
  0
BLOCK_RECORD
  5
11D
330
1
100
AcDbSymbolTableRecord
100
AcDbBlockTableRecord
  2
*D7
340
0
  0
BLOCK_RECORD
  5
131
330
1
100
AcDbSymbolTableRecord
100
AcDbBlockTableRecord
  2
*D8
340
0
  0
BLOCK_RECORD
  5
146
330
1
100
AcDbSymbolTableRecord
100
AcDbBlockTableRecord
  2
*D9
340
0
  0
BLOCK_RECORD
  5
156
330
1
100
AcDbSymbolTableRecord
100
AcDbBlockTableRecord
  2
*D10
340
0
  0
BLOCK_RECORD
  5
167
330
1
100
AcDbSymbolTableRecord
100
AcDbBlockTableRecord
  2
*D11
340
0
  0
BLOCK_RECORD
  5
178
330
1
100
AcDbSymbolTableRecord
100
AcDbBlockTableRecord
  2
*D12
340
0
  0
BLOCK_RECORD
  5
18C
330
1
100
AcDbSymbolTableRecord
100
AcDbBlockTableRecord
  2
*D13
340
0
  0
BLOCK_RECORD
  5
1A0
330
1
100
AcDbSymbolTableRecord
100
AcDbBlockTableRecord
  2
*D14
340
0
  0
BLOCK_RECORD
  5
1B4
330
1
100
AcDbSymbolTableRecord
100
AcDbBlockTableRecord
  2
*D15
340
0
  0
BLOCK_RECORD
  5
1C8
330
1
100
AcDbSymbolTableRecord
100
AcDbBlockTableRecord
  2
*D16
340
0
  0
BLOCK_RECORD
  5
1DC
330
1
100
AcDbSymbolTableRecord
100
AcDbBlockTableRecord
  2
*D17
340
0
  0
BLOCK_RECORD
  5
1EF
330
1
100
AcDbSymbolTableRecord
100
AcDbBlockTableRecord
  2
SW_NOTE_4
340
0
102
{BLKREFS
331
1F5
102
}
  0
BLOCK_RECORD
  5
1F8
330
1
100
AcDbSymbolTableRecord
100
AcDbBlockTableRecord
  2
SW_CENTERMARKSYMBOL_0
340
0
102
{BLKREFS
331
203
102
}
  0
BLOCK_RECORD
  5
204
330
1
100
AcDbSymbolTableRecord
100
AcDbBlockTableRecord
  2
SW_CENTERMARKSYMBOL_1
340
0
102
{BLKREFS
331
217
102
}
  0
BLOCK_RECORD
  5
218
330
1
100
AcDbSymbolTableRecord
100
AcDbBlockTableRecord
  2
SW_CENTERMARKSYMBOL_2
340
0
102
{BLKREFS
331
223
102
}
  0
BLOCK_RECORD
  5
224
330
1
100
AcDbSymbolTableRecord
100
AcDbBlockTableRecord
  2
SW_CENTERMARKSYMBOL_3
340
0
102
{BLKREFS
331
22F
102
}
  0
BLOCK_RECORD
  5
230
330
1
100
AcDbSymbolTableRecord
100
AcDbBlockTableRecord
  2
SW_CENTERMARKSYMBOL_4
340
0
102
{BLKREFS
331
23B
102
}
  0
BLOCK_RECORD
  5
23C
330
1
100
AcDbSymbolTableRecord
100
AcDbBlockTableRecord
  2
SW_CENTERMARKSYMBOL_5
340
0
102
{BLKREFS
331
247
102
}
  0
BLOCK_RECORD
  5
248
330
1
100
AcDbSymbolTableRecord
100
AcDbBlockTableRecord
  2
SW_CENTERMARKSYMBOL_6
340
0
102
{BLKREFS
331
253
102
}
  0
BLOCK_RECORD
  5
377
330
1
100
AcDbSymbolTableRecord
100
AcDbBlockTableRecord
  2
*D26
340
0
  0
BLOCK_RECORD
  5
38A
330
1
100
AcDbSymbolTableRecord
100
AcDbBlockTableRecord
  2
*D27
340
0
  0
BLOCK_RECORD
  5
39F
330
1
100
AcDbSymbolTableRecord
100
AcDbBlockTableRecord
  2
*D28
340
0
  0
BLOCK_RECORD
  5
3B4
330
1
100
AcDbSymbolTableRecord
100
AcDbBlockTableRecord
  2
*D29
340
0
  0
BLOCK_RECORD
  5
42B
330
1
100
AcDbSymbolTableRecord
100
AcDbBlockTableRecord
  2
*D30
340
0
  0
BLOCK_RECORD
  5
43F
330
1
100
AcDbSymbolTableRecord
100
AcDbBlockTableRecord
  2
*D31
340
0
  0
BLOCK_RECORD
  5
453
330
1
100
AcDbSymbolTableRecord
100
AcDbBlockTableRecord
  2
*D32
340
0
  0
BLOCK_RECORD
  5
467
330
1
100
AcDbSymbolTableRecord
100
AcDbBlockTableRecord
  2
*D33
340
0
  0
BLOCK_RECORD
  5
4A4
330
1
100
AcDbSymbolTableRecord
100
AcDbBlockTableRecord
  2
*D34
340
0
  0
BLOCK_RECORD
  5
4B6
330
1
100
AcDbSymbolTableRecord
100
AcDbBlockTableRecord
  2
*D35
340
0
  0
BLOCK_RECORD
  5
4C8
330
1
100
AcDbSymbolTableRecord
100
AcDbBlockTableRecord
  2
*D36
340
0
  0
BLOCK_RECORD
  5
50E
330
1
100
AcDbSymbolTableRecord
100
AcDbBlockTableRecord
  2
*D37
340
0
  0
BLOCK_RECORD
  5
523
330
1
100
AcDbSymbolTableRecord
100
AcDbBlockTableRecord
  2
*D38
340
0
  0
BLOCK_RECORD
  5
538
330
1
100
AcDbSymbolTableRecord
100
AcDbBlockTableRecord
  2
*D39
340
0
  0
BLOCK_RECORD
  5
54B
330
1
100
AcDbSymbolTableRecord
100
AcDbBlockTableRecord
  2
SW_NOTE_5
340
0
102
{BLKREFS
331
551
102
}
  0
BLOCK_RECORD
  5
553
330
1
100
AcDbSymbolTableRecord
100
AcDbBlockTableRecord
  2
_DOT
340
0
  0
BLOCK_RECORD
  5
5A7
330
1
100
AcDbSymbolTableRecord
100
AcDbBlockTableRecord
  2
*D42
340
0
  0
BLOCK_RECORD
  5
5BB
330
1
100
AcDbSymbolTableRecord
100
AcDbBlockTableRecord
  2
*D43
340
0
  0
BLOCK_RECORD
  5
5CF
330
1
100
AcDbSymbolTableRecord
100
AcDbBlockTableRecord
  2
*D44
340
0
  0
ENDTAB
  0
ENDSEC
  0
SECTION
  2
BLOCKS
  0
BLOCK
  5
20
330
1F
100
AcDbEntity
  8
0
100
AcDbBlockBegin
  2
*Model_Space
 70
     0
 10
0.0
 20
0.0
 30
0.0
  3
*Model_Space
  1

  0
ENDBLK
  5
21
330
1F
100
AcDbEntity
  8
0
100
AcDbBlockEnd
  0
BLOCK
  5
1C
330
1B
100
AcDbEntity
 67
     1
  8
0
100
AcDbBlockBegin
  2
*Paper_Space
 70
     0
 10
0.0
 20
0.0
 30
0.0
  3
*Paper_Space
  1

  0
ENDBLK
  5
1D
330
1B
100
AcDbEntity
 67
     1
  8
0
100
AcDbBlockEnd
  0
BLOCK
  5
24
330
23
100
AcDbEntity
  8
0
100
AcDbBlockBegin
  2
*Paper_Space0
 70
     0
 10
0.0
 20
0.0
 30
0.0
  3
*Paper_Space0
  1

  0
ENDBLK
  5
25
330
23
100
AcDbEntity
  8
0
100
AcDbBlockEnd
  0
BLOCK
  5
75
330
74
100
AcDbEntity
  8
0
100
AcDbBlockBegin
  2
SW_NOTE_0
 70
     0
 10
0.0
 20
0.0
 30
0.0
  3
SW_NOTE_0
  1

  0
MTEXT
  5
78
330
74
100
AcDbEntity
  8
0
  6
Continuous
 62
     0
370
     0
100
AcDbMText
 10
0.0
 20
0.2014168343
 30
0.0
 40
0.15625
 41
0.0
 71
     1
 72
     1
  1
MATERIAL:
  7
SLDTEXTSTYLE0
 73
     1
 44
1.0
  0
MTEXT
  5
79
330
74
100
AcDbEntity
  8
0
  6
Continuous
 62
     0
370
     0
100
AcDbMText
 10
0.05859375
 20
-0.0040457588
 30
0.0
 40
0.15625
 41
0.0
 71
     1
 72
     1
  1
ABS UL94-HB
  7
SLDTEXTSTYLE0
 73
     1
 44
1.0
  0
MTEXT
  5
7A
330
74
100
AcDbEntity
  8
0
  6
Continuous
 62
     0
370
     0
100
AcDbMText
 10
0.0
 20
-0.4149709451
 30
0.0
 40
0.15625
 41
0.0
 71
     1
 72
     1
  1
COLOR:
  7
SLDTEXTSTYLE0
 73
     1
 44
1.0
  0
MTEXT
  5
7B
330
74
100
AcDbEntity
  8
0
  6
Continuous
 62
     0
370
     0
100
AcDbMText
 10
0.05859375
 20
-0.6204335382
 30
0.0
 40
0.15625
 41
0.0
 71
     1
 72
     1
  1
BLACK OR WHITE
  7
SLDTEXTSTYLE0
 73
     1
 44
1.0
  0
MTEXT
  5
7C
330
74
100
AcDbEntity
  8
0
  6
Continuous
 62
     0
370
     0
100
AcDbMText
 10
0.0
 20
-1.2368213177
 30
0.0
 40
0.15625
 41
0.0
 71
     1
 72
     1
  1
DIMENSIONS IN INCH[MM]
  7
SLDTEXTSTYLE0
 73
     1
 44
1.0
  0
MTEXT
  5
7D
330
74
100
AcDbEntity
  8
0
  6
Continuous
 62
     0
370
     0
100
AcDbMText
 10
0.0
 20
-1.647746504
 30
0.0
 40
0.15625
 41
0.0
 71
     1
 72
     1
  1
DRAWING FOR REFERENCE
  7
SLDTEXTSTYLE0
 73
     1
 44
1.0
  0
ENDBLK
  5
76
330
74
100
AcDbEntity
  8
0
100
AcDbBlockEnd
  0
BLOCK
  5
84
330
83
100
AcDbEntity
  8
0
100
AcDbBlockBegin
  2
SW_NOTE_1
 70
     0
 10
0.0
 20
0.0
 30
0.0
  3
SW_NOTE_1
  1

  0
MTEXT
  5
86
330
83
100
AcDbEntity
  8
0
  6
Continuous
 62
     0
370
     0
100
AcDbMText
 10
0.2368164062
 20
0.2014168343
 30
0.0
 40
0.15625
 41
0.0
 71
     2
 72
     1
  1
PART
  7
SLDTEXTSTYLE0
 73
     1
 44
1.0
  0
MTEXT
  5
87
330
83
100
AcDbEntity
  8
0
  6
Continuous
 62
     0
370
     0
100
AcDbMText
 10
0.2347140875
 20
-0.0040457588
 30
0.0
 40
0.15625
 41
0.0
 71
     2
 72
     1
  1
NAME
  7
SLDTEXTSTYLE0
 73
     1
 44
1.0
  0
ENDBLK
  5
85
330
83
100
AcDbEntity
  8
0
100
AcDbBlockEnd
  0
BLOCK
  5
8A
330
89
100
AcDbEntity
  8
0
100
AcDbBlockBegin
  2
SW_NOTE_2
 70
     0
 10
0.0
 20
0.0
 30
0.0
  3
SW_NOTE_2
  1

  0
MTEXT
  5
8C
330
89
100
AcDbEntity
  8
0
  6
Continuous
 62
     0
370
     0
100
AcDbMText
 10
0.2368164063
 20
0.2014168343
 30
0.0
 40
0.15625
 41
0.0
 71
     2
 72
     1
  1
PART
  7
SLDTEXTSTYLE0
 73
     1
 44
1.0
  0
MTEXT
  5
8D
330
89
100
AcDbEntity
  8
0
  6
Continuous
 62
     0
370
     0
100
AcDbMText
 10
0.2438693602
 20
-0.0040457588
 30
0.0
 40
0.15625
 41
0.0
 71
     2
 72
     1
  1
No.
  7
SLDTEXTSTYLE0
 73
     1
 44
1.0
  0
ENDBLK
  5
8B
330
89
100
AcDbEntity
  8
0
100
AcDbBlockEnd
  0
BLOCK
  5
90
330
8F
100
AcDbEntity
  8
0
100
AcDbBlockBegin
  2
SW_NOTE_3
 70
     0
 10
0.0
 20
0.0
 30
0.0
  3
SW_NOTE_3
  1

  0
MTEXT
  5
92
330
8F
100
AcDbEntity
  8
0
  6
Continuous
 62
     0
370
     0
100
AcDbMText
 10
0.458984375
 20
0.2014168343
 30
0.0
 40
0.15625
 41
0.0
 71
     2
 72
     1
  1
REVISION
  7
SLDTEXTSTYLE0
 73
     1
 44
1.0
  0
MTEXT
  5
93
330
8F
100
AcDbEntity
  8
0
  6
Continuous
 62
     0
370
     0
100
AcDbMText
 10
0.4418674045
 20
-0.0040457588
 30
0.0
 40
0.15625
 41
0.0
 71
     2
 72
     1
  1
DATE
  7
SLDTEXTSTYLE0
 73
     1
 44
1.0
  0
ENDBLK
  5
91
330
8F
100
AcDbEntity
  8
0
100
AcDbBlockEnd
  0
BLOCK
  5
F6
330
F5
100
AcDbEntity
  8
0
100
AcDbBlockBegin
  2
*D5
 70
     1
 10
0.0
 20
0.0
 30
0.0
  3
*D5
  1

  0
SOLID
  5
F8
330
F5
100
AcDbEntity
  8
0
  6
Continuous
 62
     7
370
     0
100
AcDbTrace
 10
4.5252476594
 20
6.7627142396
 30
0.0
 11
4.6877476594
 21
6.7377142396
 31
0.0
 12
4.6877476594
 22
6.7877142396
 32
0.0
 13
4.6877476594
 23
6.7877142396
 33
0.0
  0
SOLID
  5
F9
330
F5
100
AcDbEntity
  8
0
  6
Continuous
 62
     7
370
     0
100
AcDbTrace
 10
6.6118618326
 20
6.7627142396
 30
0.0
 11
6.4493618326
 21
6.7877142396
 31
0.0
 12
6.4493618326
 22
6.7377142396
 32
0.0
 13
6.4493618326
 23
6.7377142396
 33
0.0
  0
LINE
  5
FA
330
F5
100
AcDbEntity
  8
0
  6
Continuous
 62
     7
370
     0
100
AcDbLine
 10
5.413430509
 20
6.7615206617
 30
0.0
 11
5.3816922262
 21
6.7615206617
 31
0.0
  0
LINE
  5
FB
330
F5
100
AcDbEntity
  8
0
  6
Continuous
 62
     7
370
     0
100
AcDbLine
 10
5.3816922262
 20
6.7615206617
 30
0.0
 11
5.3816922262
 21
6.5134737792
 31
0.0
  0
LINE
  5
FC
330
F5
100
AcDbEntity
  8
0
  6
Continuous
 62
     7
370
     0
100
AcDbLine
 10
5.3816922262
 20
6.5134737792
 30
0.0
 11
5.413430509
 21
6.5134737792
 31
0.0
  0
LINE
  5
FD
330
F5
100
AcDbEntity
  8
0
  6
Continuous
 62
     7
370
     0
100
AcDbLine
 10
5.7236789945
 20
6.7615206617
 30
0.0
 11
5.7554172774
 21
6.7615206617
 31
0.0
  0
LINE
  5
FE
330
F5
100
AcDbEntity
  8
0
  6
Continuous
 62
     7
370
     0
100
AcDbLine
 10
5.7554172774
 20
6.7615206617
 30
0.0
 11
5.7554172774
 21
6.5134737792
 31
0.0
  0
LINE
  5
FF
330
F5
100
AcDbEntity
  8
0
  6
Continuous
 62
     7
370
     0
100
AcDbLine
 10
5.7554172774
 20
6.5134737792
 30
0.0
 11
5.7236789945
 21
6.5134737792
 31
0.0
  0
LINE
  5
100
330
F5
100
AcDbEntity
  8
0
  6
Continuous
 62
     7
370
     0
100
AcDbLine
 10
4.5252476594
 20
7.7562802944
 30
0.0
 11
4.5252476594
 21
6.6064642396
 31
0.0
  0
LINE
  5
101
330
F5
100
AcDbEntity
  8
0
  6
Continuous
 62
     7
370
     0
100
AcDbLine
 10
6.6118618326
 20
7.7562802944
 30
0.0
 11
6.6118618326
 21
6.6064642396
 31
0.0
  0
LINE
  5
102
330
F5
100
AcDbEntity
  8
0
  6
Continuous
 62
     7
370
     0
100
AcDbLine
 10
4.5252476594
 20
6.7627142396
 30
0.0
 11
5.2136229745
 21
6.7627142396
 31
0.0
  0
LINE
  5
103
330
F5
100
AcDbEntity
  8
0
  6
Continuous
 62
     7
370
     0
100
AcDbLine
 10
6.6118618326
 20
6.7627142396
 30
0.0
 11
5.9234865176
 21
6.7627142396
 31
0.0
  0
MTEXT
  5
104
330
F5
100
AcDbEntity
  8
0
  6
Continuous
 62
     7
370
     0
100
AcDbMText
 10
5.3039063218
 20
6.9970629432
 30
-0.4292028033
 40
0.15625
 41
0.0
 71
     1
 72
     1
  1

  7
SLDTEXTSTYLE0
 73
     1
 44
1.0
  0
MTEXT
  5
105
330
F5
100
AcDbEntity
  8
0
  6
Continuous
 62
     7
370
     0
100
AcDbMText
 10
5.3030382664
 20
6.9946757789
 30
-0.4292028033
 40
0.15625
 41
0.0
 71
     1
 72
     1
  1
2.09
  7
SLDTEXTSTYLE0
 73
     1
 44
1.0
  0
MTEXT
  5
106
330
F5
100
AcDbEntity
  8
0
  6
Continuous
 62
     7
370
     0
100
AcDbMText
 10
5.4531033625
 20
6.714890605
 30
-0.4292028033
 40
0.15625
 41
0.0
 71
     1
 72
     1
  1
53
  7
SLDTEXTSTYLE0
 73
     1
 44
1.0
  0
MTEXT
  5
107
330
F5
100
AcDbEntity
  8
0
  6
Continuous
 62
     7
370
     0
100
AcDbMText
 10
5.8926649871
 20
6.9970629432
 30
-0.4292028033
 40
0.15625
 41
0.0
 71
     1
 72
     1
  1

  7
SLDTEXTSTYLE0
 73
     1
 44
1.0
  0
ENDBLK
  5
F7
330
F5
100
AcDbEntity
  8
0
100
AcDbBlockEnd
  0
BLOCK
  5
10A
330
109
100
AcDbEntity
  8
0
100
AcDbBlockBegin
  2
*D6
 70
     1
 10
0.0
 20
0.0
 30
0.0
  3
*D6
  1

  0
SOLID
  5
10C
330
109
100
AcDbEntity
  8
0
  6
Continuous
 62
     7
370
     0
100
AcDbTrace
 10
3.7935124632
 20
6.1721630585
 30
0.0
 11
3.9560124632
 21
6.1471630585
 31
0.0
 12
3.9560124632
 22
6.1971630585
 32
0.0
 13
3.9560124632
 23
6.1971630585
 33
0.0
  0
SOLID
  5
10D
330
109
100
AcDbEntity
  8
0
  6
Continuous
 62
     7
370
     0
100
AcDbTrace
 10
7.3435970288
 20
6.1721630585
 30
0.0
 11
7.1810970288
 21
6.1971630585
 31
0.0
 12
7.1810970288
 22
6.1471630585
 32
0.0
 13
7.1810970288
 23
6.1471630585
 33
0.0
  0
LINE
  5
10E
330
109
100
AcDbEntity
  8
0
  6
Continuous
 62
     7
370
     0
100
AcDbLine
 10
5.3268419614
 20
6.1709694806
 30
0.0
 11
5.2951036785
 21
6.1709694806
 31
0.0
  0
LINE
  5
10F
330
109
100
AcDbEntity
  8
0
  6
Continuous
 62
     7
370
     0
100
AcDbLine
 10
5.2951036785
 20
6.1709694806
 30
0.0
 11
5.2951036785
 21
5.9229225981
 31
0.0
  0
LINE
  5
110
330
109
100
AcDbEntity
  8
0
  6
Continuous
 62
     7
370
     0
100
AcDbLine
 10
5.2951036785
 20
5.9229225981
 30
0.0
 11
5.3268419614
 21
5.9229225981
 31
0.0
  0
LINE
  5
111
330
109
100
AcDbEntity
  8
0
  6
Continuous
 62
     7
370
     0
100
AcDbLine
 10
5.8102675422
 20
6.1709694806
 30
0.0
 11
5.842005825
 21
6.1709694806
 31
0.0
  0
LINE
  5
112
330
109
100
AcDbEntity
  8
0
  6
Continuous
 62
     7
370
     0
100
AcDbLine
 10
5.842005825
 20
6.1709694806
 30
0.0
 11
5.842005825
 21
5.9229225981
 31
0.0
  0
LINE
  5
113
330
109
100
AcDbEntity
  8
0
  6
Continuous
 62
     7
370
     0
100
AcDbLine
 10
5.842005825
 20
5.9229225981
 30
0.0
 11
5.8102675422
 21
5.9229225981
 31
0.0
  0
LINE
  5
114
330
109
100
AcDbEntity
  8
0
  6
Continuous
 62
     7
370
     0
100
AcDbLine
 10
3.7935124632
 20
7.6267527354
 30
0.0
 11
3.7935124632
 21
6.0159130585
 31
0.0
  0
LINE
  5
115
330
109
100
AcDbEntity
  8
0
  6
Continuous
 62
     7
370
     0
100
AcDbLine
 10
7.3435970288
 20
7.6267527354
 30
0.0
 11
7.3435970288
 21
6.0159130585
 31
0.0
  0
LINE
  5
116
330
109
100
AcDbEntity
  8
0
  6
Continuous
 62
     7
370
     0
100
AcDbLine
 10
3.7935124632
 20
6.1721630585
 30
0.0
 11
5.1818846745
 21
6.1721630585
 31
0.0
  0
LINE
  5
117
330
109
100
AcDbEntity
  8
0
  6
Continuous
 62
     7
370
     0
100
AcDbLine
 10
7.3435970288
 20
6.1721630585
 30
0.0
 11
5.9552248176
 21
6.1721630585
 31
0.0
  0
MTEXT
  5
118
330
109
100
AcDbEntity
  8
0
  6
Continuous
 62
     7
370
     0
100
AcDbMText
 10
5.2721680218
 20
6.4065117621
 30
-0.4292028033
 40
0.15625
 41
0.0
 71
     1
 72
     1
  1

  7
SLDTEXTSTYLE0
 73
     1
 44
1.0
  0
MTEXT
  5
119
330
109
100
AcDbEntity
  8
0
  6
Continuous
 62
     7
370
     0
100
AcDbMText
 10
5.3030382664
 20
6.4041245978
 30
-0.4292028033
 40
0.15625
 41
0.0
 71
     1
 72
     1
  1
3.55
  7
SLDTEXTSTYLE0
 73
     1
 44
1.0
  0
MTEXT
  5
11A
330
109
100
AcDbEntity
  8
0
  6
Continuous
 62
     7
370
     0
100
AcDbMText
 10
5.3665148149
 20
6.1243394239
 30
-0.4292028033
 40
0.15625
 41
0.0
 71
     1
 72
     1
  1
90.2
  7
SLDTEXTSTYLE0
 73
     1
 44
1.0
  0
MTEXT
  5
11B
330
109
100
AcDbEntity
  8
0
  6
Continuous
 62
     7
370
     0
100
AcDbMText
 10
5.9244032871
 20
6.4065117621
 30
-0.4292028033
 40
0.15625
 41
0.0
 71
     1
 72
     1
  1

  7
SLDTEXTSTYLE0
 73
     1
 44
1.0
  0
ENDBLK
  5
10B
330
109
100
AcDbEntity
  8
0
100
AcDbBlockEnd
  0
BLOCK
  5
11E
330
11D
100
AcDbEntity
  8
0
100
AcDbBlockBegin
  2
*D7
 70
     1
 10
0.0
 20
0.0
 30
0.0
  3
*D7
  1

  0
SOLID
  5
120
330
11D
100
AcDbEntity
  8
0
  6
Continuous
 62
     7
370
     0
100
AcDbTrace
 10
8.926838392
 20
7.8187802944
 30
0.0
 11
8.951838392
 21
7.9812802944
 31
0.0
 12
8.901838392
 22
7.9812802944
 32
0.0
 13
8.901838392
 23
7.9812802944
 33
0.0
  0
SOLID
  5
121
330
11D
100
AcDbEntity
  8
0
  6
Continuous
 62
     7
370
     0
100
AcDbTrace
 10
8.926838392
 20
9.9053944676
 30
0.0
 11
8.901838392
 21
9.7428944676
 31
0.0
 12
8.951838392
 22
9.7428944676
 32
0.0
 13
8.951838392
 23
9.7428944676
 33
0.0
  0
LINE
  5
122
330
11D
100
AcDbEntity
  8
0
  6
Continuous
 62
     7
370
     0
100
AcDbLine
 10
8.771714155
 20
8.8608938032
 30
0.0
 11
8.7399758722
 21
8.8608938032
 31
0.0
  0
LINE
  5
123
330
11D
100
AcDbEntity
  8
0
  6
Continuous
 62
     7
370
     0
100
AcDbLine
 10
8.7399758722
 20
8.8608938032
 30
0.0
 11
8.7399758722
 21
8.6128469207
 31
0.0
  0
LINE
  5
124
330
11D
100
AcDbEntity
  8
0
  6
Continuous
 62
     7
370
     0
100
AcDbLine
 10
8.7399758722
 20
8.6128469207
 30
0.0
 11
8.771714155
 21
8.6128469207
 31
0.0
  0
LINE
  5
125
330
11D
100
AcDbEntity
  8
0
  6
Continuous
 62
     7
370
     0
100
AcDbLine
 10
9.0819626405
 20
8.8608938032
 30
0.0
 11
9.1137009234
 21
8.8608938032
 31
0.0
  0
LINE
  5
126
330
11D
100
AcDbEntity
  8
0
  6
Continuous
 62
     7
370
     0
100
AcDbLine
 10
9.1137009234
 20
8.8608938032
 30
0.0
 11
9.1137009234
 21
8.6128469207
 31
0.0
  0
LINE
  5
127
330
11D
100
AcDbEntity
  8
0
  6
Continuous
 62
     7
370
     0
100
AcDbLine
 10
9.1137009234
 20
8.6128469207
 30
0.0
 11
9.0819626405
 21
8.6128469207
 31
0.0
  0
LINE
  5
128
330
11D
100
AcDbEntity
  8
0
  6
Continuous
 62
     7
370
     0
100
AcDbLine
 10
6.6743618326
 20
7.8187802944
 30
0.0
 11
9.083088392
 21
7.8187802944
 31
0.0
  0
LINE
  5
129
330
11D
100
AcDbEntity
  8
0
  6
Continuous
 62
     7
370
     0
100
AcDbLine
 10
6.6743618326
 20
9.9053944676
 30
0.0
 11
9.083088392
 21
9.9053944676
 31
0.0
  0
LINE
  5
12A
330
11D
100
AcDbEntity
  8
0
  6
Continuous
 62
     7
370
     0
100
AcDbLine
 10
8.926838392
 20
7.8187802944
 30
0.0
 11
8.926838392
 21
8.5811086207
 31
0.0
  0
LINE
  5
12B
330
11D
100
AcDbEntity
  8
0
  6
Continuous
 62
     7
370
     0
100
AcDbLine
 10
8.926838392
 20
9.9053944676
 30
0.0
 11
8.926838392
 21
9.1430661414
 31
0.0
  0
MTEXT
  5
12C
330
11D
100
AcDbEntity
  8
0
  6
Continuous
 62
     7
370
     0
100
AcDbMText
 10
8.6621899678
 20
9.0964360847
 30
-0.4292028033
 40
0.15625
 41
0.0
 71
     1
 72
     1
  1

  7
SLDTEXTSTYLE0
 73
     1
 44
1.0
  0
MTEXT
  5
12D
330
11D
100
AcDbEntity
  8
0
  6
Continuous
 62
     7
370
     0
100
AcDbMText
 10
8.6613219124
 20
9.0940489203
 30
-0.4292028033
 40
0.15625
 41
0.0
 71
     1
 72
     1
  1
2.09
  7
SLDTEXTSTYLE0
 73
     1
 44
1.0
  0
MTEXT
  5
12E
330
11D
100
AcDbEntity
  8
0
  6
Continuous
 62
     7
370
     0
100
AcDbMText
 10
8.8113870086
 20
8.8142637464
 30
-0.4292028033
 40
0.15625
 41
0.0
 71
     1
 72
     1
  1
53
  7
SLDTEXTSTYLE0
 73
     1
 44
1.0
  0
MTEXT
  5
12F
330
11D
100
AcDbEntity
  8
0
  6
Continuous
 62
     7
370
     0
100
AcDbMText
 10
9.2509486331
 20
9.0964360847
 30
-0.4292028033
 40
0.15625
 41
0.0
 71
     1
 72
     1
  1

  7
SLDTEXTSTYLE0
 73
     1
 44
1.0
  0
ENDBLK
  5
11F
330
11D
100
AcDbEntity
  8
0
100
AcDbBlockEnd
  0
BLOCK
  5
132
330
131
100
AcDbEntity
  8
0
100
AcDbBlockBegin
  2
*D8
 70
     1
 10
0.0
 20
0.0
 30
0.0
  3
*D8
  1

  0
SOLID
  5
134
330
131
100
AcDbEntity
  8
0
  6
Continuous
 62
     7
370
     0
100
AcDbTrace
 10
8.1925513067
 20
9.8463393495
 30
0.0
 11
8.1675513067
 21
9.6838393495
 31
0.0
 12
8.2175513067
 22
9.6838393495
 32
0.0
 13
8.2175513067
 23
9.6838393495
 33
0.0
  0
SOLID
  5
135
330
131
100
AcDbEntity
  8
0
  6
Continuous
 62
     7
370
     0
100
AcDbTrace
 10
8.1925513067
 20
7.8778354125
 30
0.0
 11
8.2175513067
 21
8.0403354125
 31
0.0
 12
8.1675513067
 22
8.0403354125
 32
0.0
 13
8.1675513067
 23
8.0403354125
 33
0.0
  0
LINE
  5
136
330
131
100
AcDbEntity
  8
0
  6
Continuous
 62
     7
370
     0
100
AcDbLine
 10
8.0374270697
 20
8.8608938032
 30
0.0
 11
8.0056887869
 21
8.8608938032
 31
0.0
  0
LINE
  5
137
330
131
100
AcDbEntity
  8
0
  6
Continuous
 62
     7
370
     0
100
AcDbLine
 10
8.0056887869
 20
8.8608938032
 30
0.0
 11
8.0056887869
 21
8.6128469207
 31
0.0
  0
LINE
  5
138
330
131
100
AcDbEntity
  8
0
  6
Continuous
 62
     7
370
     0
100
AcDbLine
 10
8.0056887869
 20
8.6128469207
 30
0.0
 11
8.0374270697
 21
8.6128469207
 31
0.0
  0
LINE
  5
139
330
131
100
AcDbEntity
  8
0
  6
Continuous
 62
     7
370
     0
100
AcDbLine
 10
8.3476755552
 20
8.8608938032
 30
0.0
 11
8.379413838
 21
8.8608938032
 31
0.0
  0
LINE
  5
13A
330
131
100
AcDbEntity
  8
0
  6
Continuous
 62
     7
370
     0
100
AcDbLine
 10
8.379413838
 20
8.8608938032
 30
0.0
 11
8.379413838
 21
8.6128469207
 31
0.0
  0
LINE
  5
13B
330
131
100
AcDbEntity
  8
0
  6
Continuous
 62
     7
370
     0
100
AcDbLine
 10
8.379413838
 20
8.6128469207
 30
0.0
 11
8.3476755552
 21
8.6128469207
 31
0.0
  0
LINE
  5
13C
330
131
100
AcDbEntity
  8
0
  6
Continuous
 62
     7
370
     0
100
AcDbLine
 10
7.594679706
 20
9.8463393495
 30
0.0
 11
8.3488013067
 21
9.8463393495
 31
0.0
  0
LINE
  5
13D
330
131
100
AcDbEntity
  8
0
  6
Continuous
 62
     7
370
     0
100
AcDbLine
 10
7.594679706
 20
7.8778354125
 30
0.0
 11
8.3488013067
 21
7.8778354125
 31
0.0
  0
LINE
  5
13E
330
131
100
AcDbEntity
  8
0
  6
Continuous
 62
     7
370
     0
100
AcDbLine
 10
8.1925513067
 20
9.8463393495
 30
0.0
 11
8.1925513067
 21
9.1430661414
 31
0.0
  0
LINE
  5
13F
330
131
100
AcDbEntity
  8
0
  6
Continuous
 62
     7
370
     0
100
AcDbLine
 10
8.1925513067
 20
7.8778354125
 30
0.0
 11
8.1925513067
 21
8.5811086207
 31
0.0
  0
MTEXT
  5
140
330
131
100
AcDbEntity
  8
0
  6
Continuous
 62
     7
370
     0
100
AcDbMText
 10
7.9279028825
 20
9.0964360847
 30
-0.4292028033
 40
0.15625
 41
0.0
 71
     1
 72
     1
  1

  7
SLDTEXTSTYLE0
 73
     1
 44
1.0
  0
MTEXT
  5
141
330
131
100
AcDbEntity
  8
0
  6
Continuous
 62
     7
370
     0
100
AcDbMText
 10
7.9270348271
 20
9.0940489203
 30
-0.4292028033
 40
0.15625
 41
0.0
 71
     1
 72
     1
  1
1.97
  7
SLDTEXTSTYLE0
 73
     1
 44
1.0
  0
MTEXT
  5
142
330
131
100
AcDbEntity
  8
0
  6
Continuous
 62
     7
370
     0
100
AcDbMText
 10
8.0770999232
 20
8.8142637464
 30
-0.4292028033
 40
0.15625
 41
0.0
 71
     1
 72
     1
  1
50
  7
SLDTEXTSTYLE0
 73
     1
 44
1.0
  0
MTEXT
  5
143
330
131
100
AcDbEntity
  8
0
  6
Continuous
 62
     7
370
     0
100
AcDbMText
 10
8.5166615478
 20
9.0964360847
 30
-0.4292028033
 40
0.15625
 41
0.0
 71
     1
 72
     1
  1

  7
SLDTEXTSTYLE0
 73
     1
 44
1.0
  0
ENDBLK
  5
133
330
131
100
AcDbEntity
  8
0
100
AcDbBlockEnd
  0
BLOCK
  5
147
330
146
100
AcDbEntity
  8
0
100
AcDbBlockBegin
  2
*D9
 70
     1
 10
0.0
 20
0.0
 30
0.0
  3
*D9
  1

  0
SOLID
  5
149
330
146
100
AcDbEntity
  8
0
  6
Continuous
 62
     7
370
     0
100
AcDbTrace
 10
3.7597695401
 20
7.7959311646
 30
0.0
 11
3.6747548234
 21
7.6552053747
 31
0.0
 12
3.7209852211
 22
7.6361593692
 32
0.0
 13
3.7209852211
 23
7.6361593692
 33
0.0
  0
LINE
  5
14A
330
146
100
AcDbEntity
  8
0
  6
Continuous
 62
     7
370
     0
100
AcDbLine
 10
2.7023324545
 20
6.8684350787
 30
0.0
 11
2.6705941716
 21
6.8684350787
 31
0.0
  0
LINE
  5
14B
330
146
100
AcDbEntity
  8
0
  6
Continuous
 62
     7
370
     0
100
AcDbLine
 10
2.6705941716
 20
6.8684350787
 30
0.0
 11
2.6705941716
 21
6.6203881963
 31
0.0
  0
LINE
  5
14C
330
146
100
AcDbEntity
  8
0
  6
Continuous
 62
     7
370
     0
100
AcDbLine
 10
2.6705941716
 20
6.6203881963
 30
0.0
 11
2.7023324545
 21
6.6203881963
 31
0.0
  0
LINE
  5
14D
330
146
100
AcDbEntity
  8
0
  6
Continuous
 62
     7
370
     0
100
AcDbLine
 10
3.0703066231
 20
6.8684350787
 30
0.0
 11
3.102044906
 21
6.8684350787
 31
0.0
  0
LINE
  5
14E
330
146
100
AcDbEntity
  8
0
  6
Continuous
 62
     7
370
     0
100
AcDbLine
 10
3.102044906
 20
6.8684350787
 30
0.0
 11
3.102044906
 21
6.6203881963
 31
0.0
  0
LINE
  5
14F
330
146
100
AcDbEntity
  8
0
  6
Continuous
 62
     7
370
     0
100
AcDbLine
 10
3.102044906
 20
6.6203881963
 30
0.0
 11
3.0703066231
 21
6.6203881963
 31
0.0
  0
LINE
  5
150
330
146
100
AcDbEntity
  8
0
  6
Continuous
 62
     7
370
     0
100
AcDbLine
 10
3.7597695401
 20
7.7959311646
 30
0.0
 11
3.3681826039
 21
6.8454316059
 31
0.0
  0
LINE
  5
151
330
146
100
AcDbEntity
  8
0
  6
Continuous
 62
     7
370
     0
100
AcDbLine
 10
3.3681826039
 20
6.8454316059
 30
0.0
 11
3.2119326039
 21
6.8454316059
 31
0.0
  0
MTEXT
  5
152
330
146
100
AcDbEntity
  8
0
  6
Continuous
 62
     7
370
     0
100
AcDbMText
 10
2.5607064852
 20
7.1015901959
 30
-0.4292028033
 40
0.15625
 41
0.0
 71
     1
 72
     1
  1
%%c
  7
SLDTEXTSTYLE0
 73
     1
 44
1.0
  0
MTEXT
  5
153
330
146
100
AcDbEntity
  8
0
  6
Continuous
 62
     7
370
     0
100
AcDbMText
 10
2.7963510109
 20
7.1015901959
 30
-0.4292028033
 40
0.15625
 41
0.0
 71
     1
 72
     1
  1
.18
  7
SLDTEXTSTYLE0
 73
     1
 44
1.0
  0
MTEXT
  5
154
330
146
100
AcDbEntity
  8
0
  6
Continuous
 62
     7
370
     0
100
AcDbMText
 10
2.742005308
 20
6.821805022
 30
-0.4292028033
 40
0.15625
 41
0.0
 71
     1
 72
     1
  1
4.5
  7
SLDTEXTSTYLE0
 73
     1
 44
1.0
  0
ENDBLK
  5
148
330
146
100
AcDbEntity
  8
0
100
AcDbBlockEnd
  0
BLOCK
  5
157
330
156
100
AcDbEntity
  8
0
100
AcDbBlockBegin
  2
*D10
 70
     1
 10
0.0
 20
0.0
 30
0.0
  3
*D10
  1

  0
SOLID
  5
159
330
156
100
AcDbEntity
  8
0
  6
Continuous
 62
     7
370
     0
100
AcDbTrace
 10
4.5035457736
 20
9.9382430788
 30
0.0
 11
4.4348301079
 21
10.0876064186
 31
0.0
 12
4.3931123718
 22
10.0600450236
 32
0.0
 13
4.3931123718
 23
10.0600450236
 33
0.0
  0
LINE
  5
15A
330
156
100
AcDbEntity
  8
0
  6
Continuous
 62
     7
370
     0
100
AcDbLine
 10
2.7889210021
 20
11.6797655556
 30
0.0
 11
2.7571827193
 21
11.6797655556
 31
0.0
  0
LINE
  5
15B
330
156
100
AcDbEntity
  8
0
  6
Continuous
 62
     7
370
     0
100
AcDbLine
 10
2.7571827193
 20
11.6797655556
 30
0.0
 11
2.7571827193
 21
11.4317186731
 31
0.0
  0
LINE
  5
15C
330
156
100
AcDbEntity
  8
0
  6
Continuous
 62
     7
370
     0
100
AcDbLine
 10
2.7571827193
 20
11.4317186731
 30
0.0
 11
2.7889210021
 21
11.4317186731
 31
0.0
  0
LINE
  5
15D
330
156
100
AcDbEntity
  8
0
  6
Continuous
 62
     7
370
     0
100
AcDbLine
 10
2.9837180984
 20
11.6797655556
 30
0.0
 11
3.0154563813
 21
11.6797655556
 31
0.0
  0
LINE
  5
15E
330
156
100
AcDbEntity
  8
0
  6
Continuous
 62
     7
370
     0
100
AcDbLine
 10
3.0154563813
 20
11.6797655556
 30
0.0
 11
3.0154563813
 21
11.4317186731
 31
0.0
  0
LINE
  5
15F
330
156
100
AcDbEntity
  8
0
  6
Continuous
 62
     7
370
     0
100
AcDbLine
 10
3.0154563813
 20
11.4317186731
 30
0.0
 11
2.9837180984
 21
11.4317186731
 31
0.0
  0
LINE
  5
160
330
156
100
AcDbEntity
  8
0
  6
Continuous
 62
     7
370
     0
100
AcDbLine
 10
4.5035457736
 20
9.9382430788
 30
0.0
 11
3.3681826039
 21
11.6567620828
 31
0.0
  0
LINE
  5
161
330
156
100
AcDbEntity
  8
0
  6
Continuous
 62
     7
370
     0
100
AcDbLine
 10
3.3681826039
 20
11.6567620828
 30
0.0
 11
3.2119326039
 21
11.6567620828
 31
0.0
  0
MTEXT
  5
162
330
156
100
AcDbEntity
  8
0
  6
Continuous
 62
     7
370
     0
100
AcDbMText
 10
2.5607064852
 20
11.9129206728
 30
-0.4292028033
 40
0.15625
 41
0.0
 71
     1
 72
     1
  1
%%c
  7
SLDTEXTSTYLE0
 73
     1
 44
1.0
  0
MTEXT
  5
163
330
156
100
AcDbEntity
  8
0
  6
Continuous
 62
     7
370
     0
100
AcDbMText
 10
2.7963510109
 20
11.9129206728
 30
-0.4292028033
 40
0.15625
 41
0.0
 71
     1
 72
     1
  1
.08
  7
SLDTEXTSTYLE0
 73
     1
 44
1.0
  0
MTEXT
  5
164
330
156
100
AcDbEntity
  8
0
  6
Continuous
 62
     7
370
     0
100
AcDbMText
 10
2.8285938557
 20
11.6331354989
 30
-0.4292028033
 40
0.15625
 41
0.0
 71
     1
 72
     1
  1
2
  7
SLDTEXTSTYLE0
 73
     1
 44
1.0
  0
ENDBLK
  5
158
330
156
100
AcDbEntity
  8
0
100
AcDbBlockEnd
  0
BLOCK
  5
168
330
167
100
AcDbEntity
  8
0
100
AcDbBlockBegin
  2
*D11
 70
     1
 10
0.0
 20
0.0
 30
0.0
  3
*D11
  1

  0
SOLID
  5
16A
330
167
100
AcDbEntity
  8
0
  6
Continuous
 62
     7
370
     0
100
AcDbTrace
 10
4.4328896739
 20
9.973366334
 30
0.0
 11
4.3168315196
 21
10.0898212816
 31
0.0
 12
4.2871945714
 22
10.0495515498
 32
0.0
 13
4.2871945714
 23
10.0495515498
 33
0.0
  0
LINE
  5
16B
330
167
100
AcDbEntity
  8
0
  6
Continuous
 62
     7
370
     0
100
AcDbLine
 10
1.5508441411
 20
11.1868321505
 30
0.0
 11
1.5191058583
 21
11.1868321505
 31
0.0
  0
LINE
  5
16C
330
167
100
AcDbEntity
  8
0
  6
Continuous
 62
     7
370
     0
100
AcDbLine
 10
1.5191058583
 20
11.1868321505
 30
0.0
 11
1.5191058583
 21
10.938785268
 31
0.0
  0
LINE
  5
16D
330
167
100
AcDbEntity
  8
0
  6
Continuous
 62
     7
370
     0
100
AcDbLine
 10
1.5191058583
 20
10.938785268
 30
0.0
 11
1.5508441411
 21
10.938785268
 31
0.0
  0
LINE
  5
16E
330
167
100
AcDbEntity
  8
0
  6
Continuous
 62
     7
370
     0
100
AcDbLine
 10
1.9188183098
 20
11.1868321505
 30
0.0
 11
1.9505565926
 21
11.1868321505
 31
0.0
  0
LINE
  5
16F
330
167
100
AcDbEntity
  8
0
  6
Continuous
 62
     7
370
     0
100
AcDbLine
 10
1.9505565926
 20
11.1868321505
 30
0.0
 11
1.9505565926
 21
10.938785268
 31
0.0
  0
LINE
  5
170
330
167
100
AcDbEntity
  8
0
  6
Continuous
 62
     7
370
     0
100
AcDbLine
 10
1.9505565926
 20
10.938785268
 30
0.0
 11
1.9188183098
 21
10.938785268
 31
0.0
  0
LINE
  5
171
330
167
100
AcDbEntity
  8
0
  6
Continuous
 62
     7
370
     0
100
AcDbLine
 10
4.4328896739
 20
9.973366334
 30
0.0
 11
2.7824495632
 21
11.1880257284
 31
0.0
  0
LINE
  5
172
330
167
100
AcDbEntity
  8
0
  6
Continuous
 62
     7
370
     0
100
AcDbLine
 10
2.7824495632
 20
11.1880257284
 30
0.0
 11
2.6261995632
 21
11.1880257284
 31
0.0
  0
MTEXT
  5
173
330
167
100
AcDbEntity
  8
0
  6
Continuous
 62
     7
370
     0
100
AcDbMText
 10
1.4092181719
 20
11.4199872677
 30
-0.4292028033
 40
0.15625
 41
0.0
 71
     1
 72
     1
  1
%%c
  7
SLDTEXTSTYLE0
 73
     1
 44
1.0
  0
MTEXT
  5
174
330
167
100
AcDbEntity
  8
0
  6
Continuous
 62
     7
370
     0
100
AcDbMText
 10
1.6448626976
 20
11.4199872677
 30
-0.4292028033
 40
0.15625
 41
0.0
 71
     1
 72
     1
  1
.23
  7
SLDTEXTSTYLE0
 73
     1
 44
1.0
  0
MTEXT
  5
175
330
167
100
AcDbEntity
  8
0
  6
Continuous
 62
     7
370
     0
100
AcDbMText
 10
1.5905169947
 20
11.1402020938
 30
-0.4292028033
 40
0.15625
 41
0.0
 71
     1
 72
     1
  1
5.8
  7
SLDTEXTSTYLE0
 73
     1
 44
1.0
  0
MTEXT
  5
176
330
167
100
AcDbEntity
  8
0
  6
Continuous
 62
     7
370
     0
100
AcDbMText
 10
2.1190380405
 20
11.422374432
 30
-0.4292028033
 40
0.15625
 41
0.0
 71
     1
 72
     1
  1
BOSS
  7
SLDTEXTSTYLE0
 73
     1
 44
1.0
  0
ENDBLK
  5
169
330
167
100
AcDbEntity
  8
0
100
AcDbBlockEnd
  0
BLOCK
  5
179
330
178
100
AcDbEntity
  8
0
100
AcDbBlockBegin
  2
*D12
 70
     1
 10
0.0
 20
0.0
 30
0.0
  3
*D12
  1

  0
SOLID
  5
17B
330
178
100
AcDbEntity
  8
0
  6
Continuous
 62
     7
370
     0
100
AcDbTrace
 10
3.5882397854
 20
12.021954948
 30
0.0
 11
3.7507397854
 21
11.996954948
 31
0.0
 12
3.7507397854
 22
12.046954948
 32
0.0
 13
3.7507397854
 23
12.046954948
 33
0.0
  0
SOLID
  5
17C
330
178
100
AcDbEntity
  8
0
  6
Continuous
 62
     7
370
     0
100
AcDbTrace
 10
7.5488697067
 20
12.021954948
 30
0.0
 11
7.3863697067
 21
12.046954948
 31
0.0
 12
7.3863697067
 22
11.996954948
 32
0.0
 13
7.3863697067
 23
11.996954948
 33
0.0
  0
LINE
  5
17D
330
178
100
AcDbEntity
  8
0
  6
Continuous
 62
     7
370
     0
100
AcDbLine
 10
5.2691162782
 20
12.0207613701
 30
0.0
 11
5.2373779954
 21
12.0207613701
 31
0.0
  0
LINE
  5
17E
330
178
100
AcDbEntity
  8
0
  6
Continuous
 62
     7
370
     0
100
AcDbLine
 10
5.2373779954
 20
12.0207613701
 30
0.0
 11
5.2373779954
 21
11.7727144876
 31
0.0
  0
LINE
  5
17F
330
178
100
AcDbEntity
  8
0
  6
Continuous
 62
     7
370
     0
100
AcDbLine
 10
5.2373779954
 20
11.7727144876
 30
0.0
 11
5.2691162782
 21
11.7727144876
 31
0.0
  0
LINE
  5
180
330
178
100
AcDbEntity
  8
0
  6
Continuous
 62
     7
370
     0
100
AcDbLine
 10
5.8679932253
 20
12.0207613701
 30
0.0
 11
5.8997315081
 21
12.0207613701
 31
0.0
  0
LINE
  5
181
330
178
100
AcDbEntity
  8
0
  6
Continuous
 62
     7
370
     0
100
AcDbLine
 10
5.8997315081
 20
12.0207613701
 30
0.0
 11
5.8997315081
 21
11.7727144876
 31
0.0
  0
LINE
  5
182
330
178
100
AcDbEntity
  8
0
  6
Continuous
 62
     7
370
     0
100
AcDbLine
 10
5.8997315081
 20
11.7727144876
 30
0.0
 11
5.8679932253
 21
11.7727144876
 31
0.0
  0
LINE
  5
183
330
178
100
AcDbEntity
  8
0
  6
Continuous
 62
     7
370
     0
100
AcDbLine
 10
3.5882397854
 20
10.2407533744
 30
0.0
 11
3.5882397854
 21
12.178204948
 31
0.0
  0
LINE
  5
184
330
178
100
AcDbEntity
  8
0
  6
Continuous
 62
     7
370
     0
100
AcDbLine
 10
7.5488697067
 20
10.2407533744
 30
0.0
 11
7.5488697067
 21
12.178204948
 31
0.0
  0
LINE
  5
185
330
178
100
AcDbEntity
  8
0
  6
Continuous
 62
     7
370
     0
100
AcDbLine
 10
3.5882397854
 20
12.021954948
 30
0.0
 11
5.1241589913
 21
12.021954948
 31
0.0
  0
LINE
  5
186
330
178
100
AcDbEntity
  8
0
  6
Continuous
 62
     7
370
     0
100
AcDbLine
 10
7.5488697067
 20
12.021954948
 30
0.0
 11
6.0129505007
 21
12.021954948
 31
0.0
  0
MTEXT
  5
187
330
178
100
AcDbEntity
  8
0
  6
Continuous
 62
     7
370
     0
100
AcDbMText
 10
5.2144423386
 20
12.2563036516
 30
-0.4292028033
 40
0.15625
 41
0.0
 71
     1
 72
     1
  1

  7
SLDTEXTSTYLE0
 73
     1
 44
1.0
  0
MTEXT
  5
188
330
178
100
AcDbEntity
  8
0
  6
Continuous
 62
     7
370
     0
100
AcDbMText
 10
5.3030382664
 20
12.2539164873
 30
-0.4292028033
 40
0.15625
 41
0.0
 71
     1
 72
     1
  1
3.96
  7
SLDTEXTSTYLE0
 73
     1
 44
1.0
  0
MTEXT
  5
189
330
178
100
AcDbEntity
  8
0
  6
Continuous
 62
     7
370
     0
100
AcDbMText
 10
5.3087891318
 20
11.9741313134
 30
-0.4292028033
 40
0.15625
 41
0.0
 71
     1
 72
     1
  1
100.6
  7
SLDTEXTSTYLE0
 73
     1
 44
1.0
  0
MTEXT
  5
18A
330
178
100
AcDbEntity
  8
0
  6
Continuous
 62
     7
370
     0
100
AcDbMText
 10
5.9821289703
 20
12.2563036516
 30
-0.4292028033
 40
0.15625
 41
0.0
 71
     1
 72
     1
  1

  7
SLDTEXTSTYLE0
 73
     1
 44
1.0
  0
ENDBLK
  5
17A
330
178
100
AcDbEntity
  8
0
100
AcDbBlockEnd
  0
BLOCK
  5
18D
330
18C
100
AcDbEntity
  8
0
100
AcDbBlockBegin
  2
*D13
 70
     1
 10
0.0
 20
0.0
 30
0.0
  3
*D13
  1

  0
SOLID
  5
18F
330
18C
100
AcDbEntity
  8
0
  6
Continuous
 62
     7
370
     0
100
AcDbTrace
 10
4.0834607172
 20
10.8596153056
 30
0.0
 11
4.2459607172
 21
10.8346153056
 31
0.0
 12
4.2459607172
 22
10.8846153056
 32
0.0
 13
4.2459607172
 23
10.8846153056
 33
0.0
  0
SOLID
  5
190
330
18C
100
AcDbEntity
  8
0
  6
Continuous
 62
     7
370
     0
100
AcDbTrace
 10
7.0536487748
 20
10.8596153056
 30
0.0
 11
6.8911487748
 21
10.8846153056
 31
0.0
 12
6.8911487748
 22
10.8346153056
 32
0.0
 13
6.8911487748
 23
10.8346153056
 33
0.0
  0
LINE
  5
191
330
18C
100
AcDbEntity
  8
0
  6
Continuous
 62
     7
370
     0
100
AcDbLine
 10
5.3268419614
 20
10.8584217277
 30
0.0
 11
5.2951036785
 21
10.8584217277
 31
0.0
  0
LINE
  5
192
330
18C
100
AcDbEntity
  8
0
  6
Continuous
 62
     7
370
     0
100
AcDbLine
 10
5.2951036785
 20
10.8584217277
 30
0.0
 11
5.2951036785
 21
10.6103748453
 31
0.0
  0
LINE
  5
193
330
18C
100
AcDbEntity
  8
0
  6
Continuous
 62
     7
370
     0
100
AcDbLine
 10
5.2951036785
 20
10.6103748453
 30
0.0
 11
5.3268419614
 21
10.6103748453
 31
0.0
  0
LINE
  5
194
330
18C
100
AcDbEntity
  8
0
  6
Continuous
 62
     7
370
     0
100
AcDbLine
 10
5.8102675422
 20
10.8584217277
 30
0.0
 11
5.842005825
 21
10.8584217277
 31
0.0
  0
LINE
  5
195
330
18C
100
AcDbEntity
  8
0
  6
Continuous
 62
     7
370
     0
100
AcDbLine
 10
5.842005825
 20
10.8584217277
 30
0.0
 11
5.842005825
 21
10.6103748453
 31
0.0
  0
LINE
  5
196
330
18C
100
AcDbEntity
  8
0
  6
Continuous
 62
     7
370
     0
100
AcDbLine
 10
5.842005825
 20
10.6103748453
 30
0.0
 11
5.8102675422
 21
10.6103748453
 31
0.0
  0
LINE
  5
197
330
18C
100
AcDbEntity
  8
0
  6
Continuous
 62
     7
370
     0
100
AcDbLine
 10
4.0834607172
 20
10.4214924334
 30
0.0
 11
4.0834607172
 21
11.0158653056
 31
0.0
  0
LINE
  5
198
330
18C
100
AcDbEntity
  8
0
  6
Continuous
 62
     7
370
     0
100
AcDbLine
 10
7.0536487748
 20
10.4214924334
 30
0.0
 11
7.0536487748
 21
11.0158653056
 31
0.0
  0
LINE
  5
199
330
18C
100
AcDbEntity
  8
0
  6
Continuous
 62
     7
370
     0
100
AcDbLine
 10
4.0834607172
 20
10.8596153056
 30
0.0
 11
5.1818846745
 21
10.8596153056
 31
0.0
  0
LINE
  5
19A
330
18C
100
AcDbEntity
  8
0
  6
Continuous
 62
     7
370
     0
100
AcDbLine
 10
7.0536487748
 20
10.8596153056
 30
0.0
 11
5.9552248176
 21
10.8596153056
 31
0.0
  0
MTEXT
  5
19B
330
18C
100
AcDbEntity
  8
0
  6
Continuous
 62
     7
370
     0
100
AcDbMText
 10
5.2721680218
 20
11.0939640093
 30
-0.4292028033
 40
0.15625
 41
0.0
 71
     1
 72
     1
  1

  7
SLDTEXTSTYLE0
 73
     1
 44
1.0
  0
MTEXT
  5
19C
330
18C
100
AcDbEntity
  8
0
  6
Continuous
 62
     7
370
     0
100
AcDbMText
 10
5.3030382664
 20
11.0915768449
 30
-0.4292028033
 40
0.15625
 41
0.0
 71
     1
 72
     1
  1
2.97
  7
SLDTEXTSTYLE0
 73
     1
 44
1.0
  0
MTEXT
  5
19D
330
18C
100
AcDbEntity
  8
0
  6
Continuous
 62
     7
370
     0
100
AcDbMText
 10
5.3665148149
 20
10.811791671
 30
-0.4292028033
 40
0.15625
 41
0.0
 71
     1
 72
     1
  1
75.4
  7
SLDTEXTSTYLE0
 73
     1
 44
1.0
  0
MTEXT
  5
19E
330
18C
100
AcDbEntity
  8
0
  6
Continuous
 62
     7
370
     0
100
AcDbMText
 10
5.9244032871
 20
11.0939640093
 30
-0.4292028033
 40
0.15625
 41
0.0
 71
     1
 72
     1
  1

  7
SLDTEXTSTYLE0
 73
     1
 44
1.0
  0
ENDBLK
  5
18E
330
18C
100
AcDbEntity
  8
0
100
AcDbBlockEnd
  0
BLOCK
  5
1A1
330
1A0
100
AcDbEntity
  8
0
100
AcDbBlockBegin
  2
*D14
 70
     1
 10
0.0
 20
0.0
 30
0.0
  3
*D14
  1

  0
SOLID
  5
1A3
330
1A0
100
AcDbEntity
  8
0
  6
Continuous
 62
     7
370
     0
100
AcDbTrace
 10
3.991688298
 20
11.4295656322
 30
0.0
 11
4.154188298
 21
11.4045656322
 31
0.0
 12
4.154188298
 22
11.4545656322
 32
0.0
 13
4.154188298
 23
11.4545656322
 33
0.0
  0
SOLID
  5
1A4
330
1A0
100
AcDbEntity
  8
0
  6
Continuous
 62
     7
370
     0
100
AcDbTrace
 10
7.145421194
 20
11.4295656322
 30
0.0
 11
6.982921194
 21
11.4545656322
 31
0.0
 12
6.982921194
 22
11.4045656322
 32
0.0
 13
6.982921194
 23
11.4045656322
 33
0.0
  0
LINE
  5
1A5
330
1A0
100
AcDbEntity
  8
0
  6
Continuous
 62
     7
370
     0
100
AcDbLine
 10
5.3268419614
 20
11.4283720543
 30
0.0
 11
5.2951036785
 21
11.4283720543
 31
0.0
  0
LINE
  5
1A6
330
1A0
100
AcDbEntity
  8
0
  6
Continuous
 62
     7
370
     0
100
AcDbLine
 10
5.2951036785
 20
11.4283720543
 30
0.0
 11
5.2951036785
 21
11.1803251718
 31
0.0
  0
LINE
  5
1A7
330
1A0
100
AcDbEntity
  8
0
  6
Continuous
 62
     7
370
     0
100
AcDbLine
 10
5.2951036785
 20
11.1803251718
 30
0.0
 11
5.3268419614
 21
11.1803251718
 31
0.0
  0
LINE
  5
1A8
330
1A0
100
AcDbEntity
  8
0
  6
Continuous
 62
     7
370
     0
100
AcDbLine
 10
5.8102675422
 20
11.4283720543
 30
0.0
 11
5.842005825
 21
11.4283720543
 31
0.0
  0
LINE
  5
1A9
330
1A0
100
AcDbEntity
  8
0
  6
Continuous
 62
     7
370
     0
100
AcDbLine
 10
5.842005825
 20
11.4283720543
 30
0.0
 11
5.842005825
 21
11.1803251718
 31
0.0
  0
LINE
  5
1AA
330
1A0
100
AcDbEntity
  8
0
  6
Continuous
 62
     7
370
     0
100
AcDbLine
 10
5.842005825
 20
11.1803251718
 30
0.0
 11
5.8102675422
 21
11.1803251718
 31
0.0
  0
LINE
  5
1AB
330
1A0
100
AcDbEntity
  8
0
  6
Continuous
 62
     7
370
     0
100
AcDbLine
 10
3.991688298
 20
10.4324613968
 30
0.0
 11
3.991688298
 21
11.5858156322
 31
0.0
  0
LINE
  5
1AC
330
1A0
100
AcDbEntity
  8
0
  6
Continuous
 62
     7
370
     0
100
AcDbLine
 10
7.145421194
 20
10.4324613968
 30
0.0
 11
7.145421194
 21
11.5858156322
 31
0.0
  0
LINE
  5
1AD
330
1A0
100
AcDbEntity
  8
0
  6
Continuous
 62
     7
370
     0
100
AcDbLine
 10
3.991688298
 20
11.4295656322
 30
0.0
 11
5.1818846745
 21
11.4295656322
 31
0.0
  0
LINE
  5
1AE
330
1A0
100
AcDbEntity
  8
0
  6
Continuous
 62
     7
370
     0
100
AcDbLine
 10
7.145421194
 20
11.4295656322
 30
0.0
 11
5.9552248176
 21
11.4295656322
 31
0.0
  0
MTEXT
  5
1AF
330
1A0
100
AcDbEntity
  8
0
  6
Continuous
 62
     7
370
     0
100
AcDbMText
 10
5.2721680218
 20
11.6639143358
 30
-0.4292028033
 40
0.15625
 41
0.0
 71
     1
 72
     1
  1

  7
SLDTEXTSTYLE0
 73
     1
 44
1.0
  0
MTEXT
  5
1B0
330
1A0
100
AcDbEntity
  8
0
  6
Continuous
 62
     7
370
     0
100
AcDbMText
 10
5.3030382664
 20
11.6615271715
 30
-0.4292028033
 40
0.15625
 41
0.0
 71
     1
 72
     1
  1
3.15
  7
SLDTEXTSTYLE0
 73
     1
 44
1.0
  0
MTEXT
  5
1B1
330
1A0
100
AcDbEntity
  8
0
  6
Continuous
 62
     7
370
     0
100
AcDbMText
 10
5.3665148149
 20
11.3817419976
 30
-0.4292028033
 40
0.15625
 41
0.0
 71
     1
 72
     1
  1
80.1
  7
SLDTEXTSTYLE0
 73
     1
 44
1.0
  0
MTEXT
  5
1B2
330
1A0
100
AcDbEntity
  8
0
  6
Continuous
 62
     7
370
     0
100
AcDbMText
 10
5.9244032871
 20
11.6639143358
 30
-0.4292028033
 40
0.15625
 41
0.0
 71
     1
 72
     1
  1

  7
SLDTEXTSTYLE0
 73
     1
 44
1.0
  0
ENDBLK
  5
1A2
330
1A0
100
AcDbEntity
  8
0
100
AcDbBlockEnd
  0
BLOCK
  5
1B5
330
1B4
100
AcDbEntity
  8
0
100
AcDbBlockBegin
  2
*D15
 70
     1
 10
0.0
 20
0.0
 30
0.0
  3
*D15
  1

  0
SOLID
  5
1B7
330
1B4
100
AcDbEntity
  8
0
  6
Continuous
 62
     7
370
     0
100
AcDbTrace
 10
1.6197199189
 20
7.2548402238
 30
0.0
 11
1.6447199189
 21
7.4173402238
 31
0.0
 12
1.5947199189
 22
7.4173402238
 32
0.0
 13
1.5947199189
 23
7.4173402238
 33
0.0
  0
SOLID
  5
1B8
330
1B4
100
AcDbEntity
  8
0
  6
Continuous
 62
     7
370
     0
100
AcDbTrace
 10
1.6197199189
 20
10.4693345382
 30
0.0
 11
1.5947199189
 21
10.3068345382
 31
0.0
 12
1.6447199189
 22
10.3068345382
 32
0.0
 13
1.6447199189
 23
10.3068345382
 33
0.0
  0
LINE
  5
1B9
330
1B4
100
AcDbEntity
  8
0
  6
Continuous
 62
     7
370
     0
100
AcDbLine
 10
1.3780071342
 20
8.8608938032
 30
0.0
 11
1.3462688514
 21
8.8608938032
 31
0.0
  0
LINE
  5
1BA
330
1B4
100
AcDbEntity
  8
0
  6
Continuous
 62
     7
370
     0
100
AcDbLine
 10
1.3462688514
 20
8.8608938032
 30
0.0
 11
1.3462688514
 21
8.6128469207
 31
0.0
  0
LINE
  5
1BB
330
1B4
100
AcDbEntity
  8
0
  6
Continuous
 62
     7
370
     0
100
AcDbLine
 10
1.3462688514
 20
8.6128469207
 30
0.0
 11
1.3780071342
 21
8.6128469207
 31
0.0
  0
LINE
  5
1BC
330
1B4
100
AcDbEntity
  8
0
  6
Continuous
 62
     7
370
     0
100
AcDbLine
 10
1.861432715
 20
8.8608938032
 30
0.0
 11
1.8931709979
 21
8.8608938032
 31
0.0
  0
LINE
  5
1BD
330
1B4
100
AcDbEntity
  8
0
  6
Continuous
 62
     7
370
     0
100
AcDbLine
 10
1.8931709979
 20
8.8608938032
 30
0.0
 11
1.8931709979
 21
8.6128469207
 31
0.0
  0
LINE
  5
1BE
330
1B4
100
AcDbEntity
  8
0
  6
Continuous
 62
     7
370
     0
100
AcDbLine
 10
1.8931709979
 20
8.6128469207
 30
0.0
 11
1.861432715
 21
8.6128469207
 31
0.0
  0
LINE
  5
1BF
330
1B4
100
AcDbEntity
  8
0
  6
Continuous
 62
     7
370
     0
100
AcDbLine
 10
4.0099917539
 20
7.2548402238
 30
0.0
 11
1.4634699189
 21
7.2548402238
 31
0.0
  0
LINE
  5
1C0
330
1B4
100
AcDbEntity
  8
0
  6
Continuous
 62
     7
370
     0
100
AcDbLine
 10
4.0099917539
 20
10.4693345382
 30
0.0
 11
1.4634699189
 21
10.4693345382
 31
0.0
  0
LINE
  5
1C1
330
1B4
100
AcDbEntity
  8
0
  6
Continuous
 62
     7
370
     0
100
AcDbLine
 10
1.6197199189
 20
7.2548402238
 30
0.0
 11
1.6197199189
 21
8.5811086207
 31
0.0
  0
LINE
  5
1C2
330
1B4
100
AcDbEntity
  8
0
  6
Continuous
 62
     7
370
     0
100
AcDbLine
 10
1.6197199189
 20
10.4693345382
 30
0.0
 11
1.6197199189
 21
9.1430661414
 31
0.0
  0
MTEXT
  5
1C3
330
1B4
100
AcDbEntity
  8
0
  6
Continuous
 62
     7
370
     0
100
AcDbMText
 10
1.3233331947
 20
9.0964360847
 30
-0.4292028033
 40
0.15625
 41
0.0
 71
     1
 72
     1
  1

  7
SLDTEXTSTYLE0
 73
     1
 44
1.0
  0
MTEXT
  5
1C4
330
1B4
100
AcDbEntity
  8
0
  6
Continuous
 62
     7
370
     0
100
AcDbMText
 10
1.3542034393
 20
9.0940489203
 30
-0.4292028033
 40
0.15625
 41
0.0
 71
     1
 72
     1
  1
3.21
  7
SLDTEXTSTYLE0
 73
     1
 44
1.0
  0
MTEXT
  5
1C5
330
1B4
100
AcDbEntity
  8
0
  6
Continuous
 62
     7
370
     0
100
AcDbMText
 10
1.4176799878
 20
8.8142637464
 30
-0.4292028033
 40
0.15625
 41
0.0
 71
     1
 72
     1
  1
81.6
  7
SLDTEXTSTYLE0
 73
     1
 44
1.0
  0
MTEXT
  5
1C6
330
1B4
100
AcDbEntity
  8
0
  6
Continuous
 62
     7
370
     0
100
AcDbMText
 10
1.97556846
 20
9.0964360847
 30
-0.4292028033
 40
0.15625
 41
0.0
 71
     1
 72
     1
  1

  7
SLDTEXTSTYLE0
 73
     1
 44
1.0
  0
ENDBLK
  5
1B6
330
1B4
100
AcDbEntity
  8
0
100
AcDbBlockEnd
  0
BLOCK
  5
1C9
330
1C8
100
AcDbEntity
  8
0
100
AcDbBlockBegin
  2
*D16
 70
     1
 10
0.0
 20
0.0
 30
0.0
  3
*D16
  1

  0
SOLID
  5
1CB
330
1C8
100
AcDbEntity
  8
0
  6
Continuous
 62
     7
370
     0
100
AcDbTrace
 10
2.3084060981
 20
10.4507648527
 30
0.0
 11
2.2834060981
 21
10.2882648527
 31
0.0
 12
2.3334060981
 22
10.2882648527
 32
0.0
 13
2.3334060981
 23
10.2882648527
 33
0.0
  0
SOLID
  5
1CC
330
1C8
100
AcDbEntity
  8
0
  6
Continuous
 62
     7
370
     0
100
AcDbTrace
 10
2.3084060981
 20
7.2734099094
 30
0.0
 11
2.3334060981
 21
7.4359099094
 31
0.0
 12
2.2834060981
 22
7.4359099094
 32
0.0
 13
2.2834060981
 23
7.4359099094
 33
0.0
  0
LINE
  5
1CD
330
1C8
100
AcDbEntity
  8
0
  6
Continuous
 62
     7
370
     0
100
AcDbLine
 10
2.0666933134
 20
8.8608938032
 30
0.0
 11
2.0349550306
 21
8.8608938032
 31
0.0
  0
LINE
  5
1CE
330
1C8
100
AcDbEntity
  8
0
  6
Continuous
 62
     7
370
     0
100
AcDbLine
 10
2.0349550306
 20
8.8608938032
 30
0.0
 11
2.0349550306
 21
8.6128469207
 31
0.0
  0
LINE
  5
1CF
330
1C8
100
AcDbEntity
  8
0
  6
Continuous
 62
     7
370
     0
100
AcDbLine
 10
2.0349550306
 20
8.6128469207
 30
0.0
 11
2.0666933134
 21
8.6128469207
 31
0.0
  0
LINE
  5
1D0
330
1C8
100
AcDbEntity
  8
0
  6
Continuous
 62
     7
370
     0
100
AcDbLine
 10
2.5501188942
 20
8.8608938032
 30
0.0
 11
2.581857177
 21
8.8608938032
 31
0.0
  0
LINE
  5
1D1
330
1C8
100
AcDbEntity
  8
0
  6
Continuous
 62
     7
370
     0
100
AcDbLine
 10
2.581857177
 20
8.8608938032
 30
0.0
 11
2.581857177
 21
8.6128469207
 31
0.0
  0
LINE
  5
1D2
330
1C8
100
AcDbEntity
  8
0
  6
Continuous
 62
     7
370
     0
100
AcDbLine
 10
2.581857177
 20
8.6128469207
 30
0.0
 11
2.5501188942
 21
8.6128469207
 31
0.0
  0
LINE
  5
1D3
330
1C8
100
AcDbEntity
  8
0
  6
Continuous
 62
     7
370
     0
100
AcDbLine
 10
4.0099917539
 20
10.4507648527
 30
0.0
 11
2.1521560981
 21
10.4507648527
 31
0.0
  0
LINE
  5
1D4
330
1C8
100
AcDbEntity
  8
0
  6
Continuous
 62
     7
370
     0
100
AcDbLine
 10
4.0099917539
 20
7.2734099094
 30
0.0
 11
2.1521560981
 21
7.2734099094
 31
0.0
  0
LINE
  5
1D5
330
1C8
100
AcDbEntity
  8
0
  6
Continuous
 62
     7
370
     0
100
AcDbLine
 10
2.3084060981
 20
10.4507648527
 30
0.0
 11
2.3084060981
 21
9.1430661414
 31
0.0
  0
LINE
  5
1D6
330
1C8
100
AcDbEntity
  8
0
  6
Continuous
 62
     7
370
     0
100
AcDbLine
 10
2.3084060981
 20
7.2734099094
 30
0.0
 11
2.3084060981
 21
8.5811086207
 31
0.0
  0
MTEXT
  5
1D7
330
1C8
100
AcDbEntity
  8
0
  6
Continuous
 62
     7
370
     0
100
AcDbMText
 10
2.0120193738
 20
9.0964360847
 30
-0.4292028033
 40
0.15625
 41
0.0
 71
     1
 72
     1
  1

  7
SLDTEXTSTYLE0
 73
     1
 44
1.0
  0
MTEXT
  5
1D8
330
1C8
100
AcDbEntity
  8
0
  6
Continuous
 62
     7
370
     0
100
AcDbMText
 10
2.0428896185
 20
9.0940489203
 30
-0.4292028033
 40
0.15625
 41
0.0
 71
     1
 72
     1
  1
3.18
  7
SLDTEXTSTYLE0
 73
     1
 44
1.0
  0
MTEXT
  5
1D9
330
1C8
100
AcDbEntity
  8
0
  6
Continuous
 62
     7
370
     0
100
AcDbMText
 10
2.106366167
 20
8.8142637464
 30
-0.4292028033
 40
0.15625
 41
0.0
 71
     1
 72
     1
  1
80.7
  7
SLDTEXTSTYLE0
 73
     1
 44
1.0
  0
MTEXT
  5
1DA
330
1C8
100
AcDbEntity
  8
0
  6
Continuous
 62
     7
370
     0
100
AcDbMText
 10
2.6642546392
 20
9.0964360847
 30
-0.4292028033
 40
0.15625
 41
0.0
 71
     1
 72
     1
  1

  7
SLDTEXTSTYLE0
 73
     1
 44
1.0
  0
ENDBLK
  5
1CA
330
1C8
100
AcDbEntity
  8
0
100
AcDbBlockEnd
  0
BLOCK
  5
1DD
330
1DC
100
AcDbEntity
  8
0
100
AcDbBlockBegin
  2
*D17
 70
     1
 10
0.0
 20
0.0
 30
0.0
  3
*D17
  1

  0
SOLID
  5
1DF
330
1DC
100
AcDbEntity
  8
0
  6
Continuous
 62
     7
370
     0
100
AcDbTrace
 10
2.990087572
 20
10.3589924334
 30
0.0
 11
2.965087572
 21
10.1964924334
 31
0.0
 12
3.015087572
 22
10.1964924334
 32
0.0
 13
3.015087572
 23
10.1964924334
 33
0.0
  0
SOLID
  5
1E0
330
1DC
100
AcDbEntity
  8
0
  6
Continuous
 62
     7
370
     0
100
AcDbTrace
 10
2.990087572
 20
7.3651823286
 30
0.0
 11
3.015087572
 21
7.5276823286
 31
0.0
 12
2.965087572
 22
7.5276823286
 32
0.0
 13
2.965087572
 23
7.5276823286
 33
0.0
  0
LINE
  5
1E1
330
1DC
100
AcDbEntity
  8
0
  6
Continuous
 62
     7
370
     0
100
AcDbLine
 10
2.834963335
 20
8.8608938032
 30
0.0
 11
2.8032250521
 21
8.8608938032
 31
0.0
  0
LINE
  5
1E2
330
1DC
100
AcDbEntity
  8
0
  6
Continuous
 62
     7
370
     0
100
AcDbLine
 10
2.8032250521
 20
8.8608938032
 30
0.0
 11
2.8032250521
 21
8.6128469207
 31
0.0
  0
LINE
  5
1E3
330
1DC
100
AcDbEntity
  8
0
  6
Continuous
 62
     7
370
     0
100
AcDbLine
 10
2.8032250521
 20
8.6128469207
 30
0.0
 11
2.834963335
 21
8.6128469207
 31
0.0
  0
LINE
  5
1E4
330
1DC
100
AcDbEntity
  8
0
  6
Continuous
 62
     7
370
     0
100
AcDbLine
 10
3.1452118205
 20
8.8608938032
 30
0.0
 11
3.1769501033
 21
8.8608938032
 31
0.0
  0
LINE
  5
1E5
330
1DC
100
AcDbEntity
  8
0
  6
Continuous
 62
     7
370
     0
100
AcDbLine
 10
3.1769501033
 20
8.8608938032
 30
0.0
 11
3.1769501033
 21
8.6128469207
 31
0.0
  0
LINE
  5
1E6
330
1DC
100
AcDbEntity
  8
0
  6
Continuous
 62
     7
370
     0
100
AcDbLine
 10
3.1769501033
 20
8.6128469207
 30
0.0
 11
3.1452118205
 21
8.6128469207
 31
0.0
  0
LINE
  5
1E7
330
1DC
100
AcDbEntity
  8
0
  6
Continuous
 62
     7
370
     0
100
AcDbLine
 10
4.0209607172
 20
10.3589924334
 30
0.0
 11
2.833837572
 21
10.3589924334
 31
0.0
  0
LINE
  5
1E8
330
1DC
100
AcDbEntity
  8
0
  6
Continuous
 62
     7
370
     0
100
AcDbLine
 10
4.0209607172
 20
7.3651823286
 30
0.0
 11
2.833837572
 21
7.3651823286
 31
0.0
  0
LINE
  5
1E9
330
1DC
100
AcDbEntity
  8
0
  6
Continuous
 62
     7
370
     0
100
AcDbLine
 10
2.990087572
 20
10.3589924334
 30
0.0
 11
2.990087572
 21
9.1430661414
 31
0.0
  0
LINE
  5
1EA
330
1DC
100
AcDbEntity
  8
0
  6
Continuous
 62
     7
370
     0
100
AcDbLine
 10
2.990087572
 20
7.3651823286
 30
0.0
 11
2.990087572
 21
8.5811086207
 31
0.0
  0
MTEXT
  5
1EB
330
1DC
100
AcDbEntity
  8
0
  6
Continuous
 62
     7
370
     0
100
AcDbMText
 10
2.7254391478
 20
9.0964360847
 30
-0.4292028033
 40
0.15625
 41
0.0
 71
     1
 72
     1
  1

  7
SLDTEXTSTYLE0
 73
     1
 44
1.0
  0
MTEXT
  5
1EC
330
1DC
100
AcDbEntity
  8
0
  6
Continuous
 62
     7
370
     0
100
AcDbMText
 10
2.7245710924
 20
9.0940489203
 30
-0.4292028033
 40
0.15625
 41
0.0
 71
     1
 72
     1
  1
2.99
  7
SLDTEXTSTYLE0
 73
     1
 44
1.0
  0
MTEXT
  5
1ED
330
1DC
100
AcDbEntity
  8
0
  6
Continuous
 62
     7
370
     0
100
AcDbMText
 10
2.8746361885
 20
8.8142637464
 30
-0.4292028033
 40
0.15625
 41
0.0
 71
     1
 72
     1
  1
76
  7
SLDTEXTSTYLE0
 73
     1
 44
1.0
  0
MTEXT
  5
1EE
330
1DC
100
AcDbEntity
  8
0
  6
Continuous
 62
     7
370
     0
100
AcDbMText
 10
3.3141978131
 20
9.0964360847
 30
-0.4292028033
 40
0.15625
 41
0.0
 71
     1
 72
     1
  1

  7
SLDTEXTSTYLE0
 73
     1
 44
1.0
  0
ENDBLK
  5
1DE
330
1DC
100
AcDbEntity
  8
0
100
AcDbBlockEnd
  0
BLOCK
  5
1F0
330
1EF
100
AcDbEntity
  8
0
100
AcDbBlockBegin
  2
SW_NOTE_4
 70
     0
 10
0.0
 20
0.0
 30
0.0
  3
SW_NOTE_4
  1

  0
MTEXT
  5
1F2
330
1EF
100
AcDbEntity
  8
0
  6
Continuous
 62
     0
370
     0
100
AcDbMText
 10
0.0246479583
 20
0.0757381397
 30
0.0
 40
0.15625
 41
0.0
 71
     1
 72
     1
  1
HOLES ACCEPT M2.6 x 6mm LG.
  7
SLDTEXTSTYLE0
 73
     1
 44
1.0
  0
MTEXT
  5
1F3
330
1EF
100
AcDbEntity
  8
0
  6
Continuous
 62
     0
370
     0
100
AcDbMText
 10
0.0246479583
 20
-0.1297244535
 30
0.0
 40
0.15625
 41
0.0
 71
     1
 72
     1
  1
SELF-TAPPING SCREWS FOR
  7
SLDTEXTSTYLE0
 73
     1
 44
1.0
  0
MTEXT
  5
1F4
330
1EF
100
AcDbEntity
  8
0
  6
Continuous
 62
     0
370
     0
100
AcDbMText
 10
0.0246479583
 20
-0.3351870466
 30
0.0
 40
0.15625
 41
0.0
 71
     1
 72
     1
  1
PCB MOUNTING
  7
SLDTEXTSTYLE0
 73
     1
 44
1.0
  0
ENDBLK
  5
1F1
330
1EF
100
AcDbEntity
  8
0
100
AcDbBlockEnd
  0
BLOCK
  5
1F9
330
1F8
100
AcDbEntity
  8
0
100
AcDbBlockBegin
  2
SW_CENTERMARKSYMBOL_0
 70
     0
 10
0.0
 20
0.0
 30
0.0
  3
SW_CENTERMARKSYMBOL_0
  1

  0
LINE
  5
1FB
330
1F8
100
AcDbEntity
  8
0
  6
Continuous
 62
     0
370
     0
100
AcDbLine
 10
0.0
 20
0.0
 30
0.0
 11
0.0
 21
0.1
 31
0.0
  0
LINE
  5
1FC
330
1F8
100
AcDbEntity
  8
0
  6
Continuous
 62
     0
370
     0
100
AcDbLine
 10
0.0
 20
0.0
 30
0.0
 11
-0.1
 21
0.0
 31
0.0
  0
LINE
  5
1FD
330
1F8
100
AcDbEntity
  8
0
  6
Continuous
 62
     0
370
     0
100
AcDbLine
 10
0.0
 20
0.0
 30
0.0
 11
0.0
 21
-0.1
 31
0.0
  0
LINE
  5
1FE
330
1F8
100
AcDbEntity
  8
0
  6
Continuous
 62
     0
370
     0
100
AcDbLine
 10
0.0
 20
0.0
 30
0.0
 11
0.1
 21
0.0
 31
0.0
  0
LINE
  5
1FF
330
1F8
100
AcDbEntity
  8
0
  6
Continuous
 62
     0
370
     0
100
AcDbLine
 10
0.0
 20
0.1
 30
0.0
 11
0.0
 21
0.1885826772
 31
0.0
  0
LINE
  5
200
330
1F8
100
AcDbEntity
  8
0
  6
Continuous
 62
     0
370
     0
100
AcDbLine
 10
-0.1
 20
0.0
 30
0.0
 11
-0.1885826772
 21
0.0
 31
0.0
  0
LINE
  5
201
330
1F8
100
AcDbEntity
  8
0
  6
Continuous
 62
     0
370
     0
100
AcDbLine
 10
0.0
 20
-0.1
 30
0.0
 11
0.0
 21
-0.1885826772
 31
0.0
  0
LINE
  5
202
330
1F8
100
AcDbEntity
  8
0
  6
Continuous
 62
     0
370
     0
100
AcDbLine
 10
0.1
 20
0.0
 30
0.0
 11
0.1885826772
 21
0.0
 31
0.0
  0
ENDBLK
  5
1FA
330
1F8
100
AcDbEntity
  8
0
100
AcDbBlockEnd
  0
BLOCK
  5
205
330
204
100
AcDbEntity
  8
0
100
AcDbBlockBegin
  2
SW_CENTERMARKSYMBOL_1
 70
     0
 10
0.0
 20
0.0
 30
0.0
  3
SW_CENTERMARKSYMBOL_1
  1

  0
LINE
  5
207
330
204
100
AcDbEntity
  8
0
  6
Continuous
 62
     0
370
     0
100
AcDbLine
 10
0.0
 20
0.0
 30
0.0
 11
0.0
 21
0.1
 31
0.0
  0
LINE
  5
208
330
204
100
AcDbEntity
  8
0
  6
Continuous
 62
     0
370
     0
100
AcDbLine
 10
0.0
 20
0.0
 30
0.0
 11
-0.1
 21
0.0
 31
0.0
  0
LINE
  5
209
330
204
100
AcDbEntity
  8
0
  6
Continuous
 62
     0
370
     0
100
AcDbLine
 10
0.0
 20
0.0
 30
0.0
 11
0.0
 21
-0.1
 31
0.0
  0
LINE
  5
20A
330
204
100
AcDbEntity
  8
0
  6
Continuous
 62
     0
370
     0
100
AcDbLine
 10
0.0
 20
0.0
 30
0.0
 11
0.1
 21
0.0
 31
0.0
  0
LINE
  5
20B
330
204
100
AcDbEntity
  8
0
  6
Continuous
 62
     0
370
     0
100
AcDbLine
 10
0.0
 20
0.1
 30
0.0
 11
0.0
 21
0.1885826772
 31
0.0
  0
LINE
  5
20C
330
204
100
AcDbEntity
  8
0
  6
Continuous
 62
     0
370
     0
100
AcDbLine
 10
-0.1
 20
0.0
 30
0.0
 11
-0.1885826772
 21
0.0
 31
0.0
  0
LINE
  5
20D
330
204
100
AcDbEntity
  8
0
  6
Continuous
 62
     0
370
     0
100
AcDbLine
 10
0.0
 20
-0.1
 30
0.0
 11
0.0
 21
-0.1885826772
 31
0.0
  0
LINE
  5
20E
330
204
100
AcDbEntity
  8
0
  6
Continuous
 62
     0
370
     0
100
AcDbLine
 10
0.1
 20
0.0
 30
0.0
 11
0.1885826772
 21
0.0
 31
0.0
  0
LINE
  5
20F
330
204
100
AcDbEntity
  8
0
  6
Continuous
 62
     0
370
     0
100
AcDbLine
 10
3.5500845656
 20
0.0
 30
0.0
 11
3.5500845656
 21
0.1
 31
0.0
  0
LINE
  5
210
330
204
100
AcDbEntity
  8
0
  6
Continuous
 62
     0
370
     0
100
AcDbLine
 10
3.5500845656
 20
0.0
 30
0.0
 11
3.4500845656
 21
0.0
 31
0.0
  0
LINE
  5
211
330
204
100
AcDbEntity
  8
0
  6
Continuous
 62
     0
370
     0
100
AcDbLine
 10
3.5500845656
 20
0.0
 30
0.0
 11
3.5500845656
 21
-0.1
 31
0.0
  0
LINE
  5
212
330
204
100
AcDbEntity
  8
0
  6
Continuous
 62
     0
370
     0
100
AcDbLine
 10
3.5500845656
 20
0.0
 30
0.0
 11
3.6500845656
 21
0.0
 31
0.0
  0
LINE
  5
213
330
204
100
AcDbEntity
  8
0
  6
Continuous
 62
     0
370
     0
100
AcDbLine
 10
3.5500845656
 20
0.1
 30
0.0
 11
3.5500845656
 21
0.1885826772
 31
0.0
  0
LINE
  5
214
330
204
100
AcDbEntity
  8
0
  6
Continuous
 62
     0
370
     0
100
AcDbLine
 10
3.4500845656
 20
0.0
 30
0.0
 11
3.3615018884
 21
0.0
 31
0.0
  0
LINE
  5
215
330
204
100
AcDbEntity
  8
0
  6
Continuous
 62
     0
370
     0
100
AcDbLine
 10
3.5500845656
 20
-0.1
 30
0.0
 11
3.5500845656
 21
-0.1885826772
 31
0.0
  0
LINE
  5
216
330
204
100
AcDbEntity
  8
0
  6
Continuous
 62
     0
370
     0
100
AcDbLine
 10
3.6500845656
 20
0.0
 30
0.0
 11
3.7386672428
 21
0.0
 31
0.0
  0
ENDBLK
  5
206
330
204
100
AcDbEntity
  8
0
100
AcDbBlockEnd
  0
BLOCK
  5
219
330
218
100
AcDbEntity
  8
0
100
AcDbBlockBegin
  2
SW_CENTERMARKSYMBOL_2
 70
     0
 10
0.0
 20
0.0
 30
0.0
  3
SW_CENTERMARKSYMBOL_2
  1

  0
LINE
  5
21B
330
218
100
AcDbEntity
  8
0
  6
Continuous
 62
     0
370
     0
100
AcDbLine
 10
0.0
 20
0.0
 30
0.0
 11
0.0
 21
0.1
 31
0.0
  0
LINE
  5
21C
330
218
100
AcDbEntity
  8
0
  6
Continuous
 62
     0
370
     0
100
AcDbLine
 10
0.0
 20
0.0
 30
0.0
 11
-0.1
 21
0.0
 31
0.0
  0
LINE
  5
21D
330
218
100
AcDbEntity
  8
0
  6
Continuous
 62
     0
370
     0
100
AcDbLine
 10
0.0
 20
0.0
 30
0.0
 11
0.0
 21
-0.1
 31
0.0
  0
LINE
  5
21E
330
218
100
AcDbEntity
  8
0
  6
Continuous
 62
     0
370
     0
100
AcDbLine
 10
0.0
 20
0.0
 30
0.0
 11
0.1
 21
0.0
 31
0.0
  0
LINE
  5
21F
330
218
100
AcDbEntity
  8
0
  6
Continuous
 62
     0
370
     0
100
AcDbLine
 10
0.0
 20
0.1
 30
0.0
 11
0.0
 21
0.1885826772
 31
0.0
  0
LINE
  5
220
330
218
100
AcDbEntity
  8
0
  6
Continuous
 62
     0
370
     0
100
AcDbLine
 10
-0.1
 20
0.0
 30
0.0
 11
-0.1885826772
 21
0.0
 31
0.0
  0
LINE
  5
221
330
218
100
AcDbEntity
  8
0
  6
Continuous
 62
     0
370
     0
100
AcDbLine
 10
0.0
 20
-0.1
 30
0.0
 11
0.0
 21
-0.1885826772
 31
0.0
  0
LINE
  5
222
330
218
100
AcDbEntity
  8
0
  6
Continuous
 62
     0
370
     0
100
AcDbLine
 10
0.1
 20
0.0
 30
0.0
 11
0.1885826772
 21
0.0
 31
0.0
  0
ENDBLK
  5
21A
330
218
100
AcDbEntity
  8
0
100
AcDbBlockEnd
  0
BLOCK
  5
225
330
224
100
AcDbEntity
  8
0
100
AcDbBlockBegin
  2
SW_CENTERMARKSYMBOL_3
 70
     0
 10
0.0
 20
0.0
 30
0.0
  3
SW_CENTERMARKSYMBOL_3
  1

  0
LINE
  5
227
330
224
100
AcDbEntity
  8
0
  6
Continuous
 62
     0
370
     0
100
AcDbLine
 10
0.0
 20
0.0
 30
0.0
 11
0.0
 21
0.1
 31
0.0
  0
LINE
  5
228
330
224
100
AcDbEntity
  8
0
  6
Continuous
 62
     0
370
     0
100
AcDbLine
 10
0.0
 20
0.0
 30
0.0
 11
-0.1
 21
0.0
 31
0.0
  0
LINE
  5
229
330
224
100
AcDbEntity
  8
0
  6
Continuous
 62
     0
370
     0
100
AcDbLine
 10
0.0
 20
0.0
 30
0.0
 11
0.0
 21
-0.1
 31
0.0
  0
LINE
  5
22A
330
224
100
AcDbEntity
  8
0
  6
Continuous
 62
     0
370
     0
100
AcDbLine
 10
0.0
 20
0.0
 30
0.0
 11
0.1
 21
0.0
 31
0.0
  0
LINE
  5
22B
330
224
100
AcDbEntity
  8
0
  6
Continuous
 62
     0
370
     0
100
AcDbLine
 10
0.0
 20
0.1
 30
0.0
 11
0.0
 21
0.1393700787
 31
0.0
  0
LINE
  5
22C
330
224
100
AcDbEntity
  8
0
  6
Continuous
 62
     0
370
     0
100
AcDbLine
 10
-0.1
 20
0.0
 30
0.0
 11
-0.1393700787
 21
0.0
 31
0.0
  0
LINE
  5
22D
330
224
100
AcDbEntity
  8
0
  6
Continuous
 62
     0
370
     0
100
AcDbLine
 10
0.0
 20
-0.1
 30
0.0
 11
0.0
 21
-0.1393700787
 31
0.0
  0
LINE
  5
22E
330
224
100
AcDbEntity
  8
0
  6
Continuous
 62
     0
370
     0
100
AcDbLine
 10
0.1
 20
0.0
 30
0.0
 11
0.1393700787
 21
0.0
 31
0.0
  0
ENDBLK
  5
226
330
224
100
AcDbEntity
  8
0
100
AcDbBlockEnd
  0
BLOCK
  5
231
330
230
100
AcDbEntity
  8
0
100
AcDbBlockBegin
  2
SW_CENTERMARKSYMBOL_4
 70
     0
 10
0.0
 20
0.0
 30
0.0
  3
SW_CENTERMARKSYMBOL_4
  1

  0
LINE
  5
233
330
230
100
AcDbEntity
  8
0
  6
Continuous
 62
     0
370
     0
100
AcDbLine
 10
0.0
 20
0.0
 30
0.0
 11
0.0
 21
0.1
 31
0.0
  0
LINE
  5
234
330
230
100
AcDbEntity
  8
0
  6
Continuous
 62
     0
370
     0
100
AcDbLine
 10
0.0
 20
0.0
 30
0.0
 11
-0.1
 21
0.0
 31
0.0
  0
LINE
  5
235
330
230
100
AcDbEntity
  8
0
  6
Continuous
 62
     0
370
     0
100
AcDbLine
 10
0.0
 20
0.0
 30
0.0
 11
0.0
 21
-0.1
 31
0.0
  0
LINE
  5
236
330
230
100
AcDbEntity
  8
0
  6
Continuous
 62
     0
370
     0
100
AcDbLine
 10
0.0
 20
0.0
 30
0.0
 11
0.1
 21
0.0
 31
0.0
  0
LINE
  5
237
330
230
100
AcDbEntity
  8
0
  6
Continuous
 62
     0
370
     0
100
AcDbLine
 10
0.0
 20
0.1
 30
0.0
 11
0.0
 21
0.1393700787
 31
0.0
  0
LINE
  5
238
330
230
100
AcDbEntity
  8
0
  6
Continuous
 62
     0
370
     0
100
AcDbLine
 10
-0.1
 20
0.0
 30
0.0
 11
-0.1393700787
 21
0.0
 31
0.0
  0
LINE
  5
239
330
230
100
AcDbEntity
  8
0
  6
Continuous
 62
     0
370
     0
100
AcDbLine
 10
0.0
 20
-0.1
 30
0.0
 11
0.0
 21
-0.1393700787
 31
0.0
  0
LINE
  5
23A
330
230
100
AcDbEntity
  8
0
  6
Continuous
 62
     0
370
     0
100
AcDbLine
 10
0.1
 20
0.0
 30
0.0
 11
0.1393700787
 21
0.0
 31
0.0
  0
ENDBLK
  5
232
330
230
100
AcDbEntity
  8
0
100
AcDbBlockEnd
  0
BLOCK
  5
23D
330
23C
100
AcDbEntity
  8
0
100
AcDbBlockBegin
  2
SW_CENTERMARKSYMBOL_5
 70
     0
 10
0.0
 20
0.0
 30
0.0
  3
SW_CENTERMARKSYMBOL_5
  1

  0
LINE
  5
23F
330
23C
100
AcDbEntity
  8
0
  6
Continuous
 62
     0
370
     0
100
AcDbLine
 10
0.0
 20
0.0
 30
0.0
 11
0.0
 21
0.1
 31
0.0
  0
LINE
  5
240
330
23C
100
AcDbEntity
  8
0
  6
Continuous
 62
     0
370
     0
100
AcDbLine
 10
0.0
 20
0.0
 30
0.0
 11
-0.1
 21
0.0
 31
0.0
  0
LINE
  5
241
330
23C
100
AcDbEntity
  8
0
  6
Continuous
 62
     0
370
     0
100
AcDbLine
 10
0.0
 20
0.0
 30
0.0
 11
0.0
 21
-0.1
 31
0.0
  0
LINE
  5
242
330
23C
100
AcDbEntity
  8
0
  6
Continuous
 62
     0
370
     0
100
AcDbLine
 10
0.0
 20
0.0
 30
0.0
 11
0.1
 21
0.0
 31
0.0
  0
LINE
  5
243
330
23C
100
AcDbEntity
  8
0
  6
Continuous
 62
     0
370
     0
100
AcDbLine
 10
0.0
 20
0.1
 30
0.0
 11
0.0
 21
0.1393700787
 31
0.0
  0
LINE
  5
244
330
23C
100
AcDbEntity
  8
0
  6
Continuous
 62
     0
370
     0
100
AcDbLine
 10
-0.1
 20
0.0
 30
0.0
 11
-0.1393700787
 21
0.0
 31
0.0
  0
LINE
  5
245
330
23C
100
AcDbEntity
  8
0
  6
Continuous
 62
     0
370
     0
100
AcDbLine
 10
0.0
 20
-0.1
 30
0.0
 11
0.0
 21
-0.1393700787
 31
0.0
  0
LINE
  5
246
330
23C
100
AcDbEntity
  8
0
  6
Continuous
 62
     0
370
     0
100
AcDbLine
 10
0.1
 20
0.0
 30
0.0
 11
0.1393700787
 21
0.0
 31
0.0
  0
ENDBLK
  5
23E
330
23C
100
AcDbEntity
  8
0
100
AcDbBlockEnd
  0
BLOCK
  5
249
330
248
100
AcDbEntity
  8
0
100
AcDbBlockBegin
  2
SW_CENTERMARKSYMBOL_6
 70
     0
 10
0.0
 20
0.0
 30
0.0
  3
SW_CENTERMARKSYMBOL_6
  1

  0
LINE
  5
24B
330
248
100
AcDbEntity
  8
0
  6
Continuous
 62
     0
370
     0
100
AcDbLine
 10
0.0
 20
0.0
 30
0.0
 11
0.0
 21
0.1
 31
0.0
  0
LINE
  5
24C
330
248
100
AcDbEntity
  8
0
  6
Continuous
 62
     0
370
     0
100
AcDbLine
 10
0.0
 20
0.0
 30
0.0
 11
-0.1
 21
0.0
 31
0.0
  0
LINE
  5
24D
330
248
100
AcDbEntity
  8
0
  6
Continuous
 62
     0
370
     0
100
AcDbLine
 10
0.0
 20
0.0
 30
0.0
 11
0.0
 21
-0.1
 31
0.0
  0
LINE
  5
24E
330
248
100
AcDbEntity
  8
0
  6
Continuous
 62
     0
370
     0
100
AcDbLine
 10
0.0
 20
0.0
 30
0.0
 11
0.1
 21
0.0
 31
0.0
  0
LINE
  5
24F
330
248
100
AcDbEntity
  8
0
  6
Continuous
 62
     0
370
     0
100
AcDbLine
 10
0.0
 20
0.1
 30
0.0
 11
0.0
 21
0.1393700787
 31
0.0
  0
LINE
  5
250
330
248
100
AcDbEntity
  8
0
  6
Continuous
 62
     0
370
     0
100
AcDbLine
 10
-0.1
 20
0.0
 30
0.0
 11
-0.1393700787
 21
0.0
 31
0.0
  0
LINE
  5
251
330
248
100
AcDbEntity
  8
0
  6
Continuous
 62
     0
370
     0
100
AcDbLine
 10
0.0
 20
-0.1
 30
0.0
 11
0.0
 21
-0.1393700787
 31
0.0
  0
LINE
  5
252
330
248
100
AcDbEntity
  8
0
  6
Continuous
 62
     0
370
     0
100
AcDbLine
 10
0.1
 20
0.0
 30
0.0
 11
0.1393700787
 21
0.0
 31
0.0
  0
ENDBLK
  5
24A
330
248
100
AcDbEntity
  8
0
100
AcDbBlockEnd
  0
BLOCK
  5
378
330
377
100
AcDbEntity
  8
0
100
AcDbBlockBegin
  2
*D26
 70
     1
 10
0.0
 20
0.0
 30
0.0
  3
*D26
  1

  0
SOLID
  5
37A
330
377
100
AcDbEntity
  8
0
  6
Continuous
 62
     7
370
     0
100
AcDbTrace
 10
6.8294008904
 20
4.6897214422
 30
0.0
 11
6.8544008904
 21
4.8522214422
 31
0.0
 12
6.8044008904
 22
4.8522214422
 32
0.0
 13
6.8044008904
 23
4.8522214422
 33
0.0
  0
SOLID
  5
37B
330
377
100
AcDbEntity
  8
0
  6
Continuous
 62
     7
370
     0
100
AcDbTrace
 10
6.8294008904
 20
4.5912962454
 30
0.0
 11
6.8044008904
 21
4.4287962454
 31
0.0
 12
6.8544008904
 22
4.4287962454
 32
0.0
 13
6.8544008904
 23
4.4287962454
 33
0.0
  0
LINE
  5
37C
330
377
100
AcDbEntity
  8
0
  6
Continuous
 62
     7
370
     0
100
AcDbLine
 10
7.1939873719
 20
4.2341219194
 30
0.0
 11
7.162249089
 21
4.2341219194
 31
0.0
  0
LINE
  5
37D
330
377
100
AcDbEntity
  8
0
  6
Continuous
 62
     7
370
     0
100
AcDbLine
 10
7.162249089
 20
4.2341219194
 30
0.0
 11
7.162249089
 21
3.9860750369
 31
0.0
  0
LINE
  5
37E
330
377
100
AcDbEntity
  8
0
  6
Continuous
 62
     7
370
     0
100
AcDbLine
 10
7.162249089
 20
3.9860750369
 30
0.0
 11
7.1939873719
 21
3.9860750369
 31
0.0
  0
LINE
  5
37F
330
377
100
AcDbEntity
  8
0
  6
Continuous
 62
     7
370
     0
100
AcDbLine
 10
7.5619615405
 20
4.2341219194
 30
0.0
 11
7.5936998234
 21
4.2341219194
 31
0.0
  0
LINE
  5
380
330
377
100
AcDbEntity
  8
0
  6
Continuous
 62
     7
370
     0
100
AcDbLine
 10
7.5936998234
 20
4.2341219194
 30
0.0
 11
7.5936998234
 21
3.9860750369
 31
0.0
  0
LINE
  5
381
330
377
100
AcDbEntity
  8
0
  6
Continuous
 62
     7
370
     0
100
AcDbLine
 10
7.5936998234
 20
3.9860750369
 30
0.0
 11
7.5619615405
 21
3.9860750369
 31
0.0
  0
LINE
  5
382
330
377
100
AcDbEntity
  8
0
  6
Continuous
 62
     7
370
     0
100
AcDbLine
 10
6.9856508904
 20
4.2353154972
 30
0.0
 11
6.8294008904
 21
4.2353154972
 31
0.0
  0
LINE
  5
383
330
377
100
AcDbEntity
  8
0
  6
Continuous
 62
     7
370
     0
100
AcDbLine
 10
6.8294008904
 20
4.2353154972
 30
0.0
 11
6.8294008904
 21
4.5912962454
 31
0.0
  0
LINE
  5
384
330
377
100
AcDbEntity
  8
0
  6
Continuous
 62
     7
370
     0
100
AcDbLine
 10
6.8294008904
 20
4.6897214422
 30
0.0
 11
6.8294008904
 21
5.0022214422
 31
0.0
  0
MTEXT
  5
385
330
377
100
AcDbEntity
  8
0
  6
Continuous
 62
     7
370
     0
100
AcDbMText
 10
7.1393134323
 20
4.4696642009
 30
0.3626782046
 40
0.15625
 41
0.0
 71
     1
 72
     1
  1

  7
SLDTEXTSTYLE0
 73
     1
 44
1.0
  0
MTEXT
  5
386
330
377
100
AcDbEntity
  8
0
  6
Continuous
 62
     7
370
     0
100
AcDbMText
 10
7.170183654
 20
4.4672770365
 30
0.3626782046
 40
0.15625
 41
0.0
 71
     1
 72
     1
  1
.10
  7
SLDTEXTSTYLE0
 73
     1
 44
1.0
  0
MTEXT
  5
387
330
377
100
AcDbEntity
  8
0
  6
Continuous
 62
     7
370
     0
100
AcDbMText
 10
7.2336602254
 20
4.1874918627
 30
0.3626782046
 40
0.15625
 41
0.0
 71
     1
 72
     1
  1
2.5
  7
SLDTEXTSTYLE0
 73
     1
 44
1.0
  0
MTEXT
  5
388
330
377
100
AcDbEntity
  8
0
  6
Continuous
 62
     7
370
     0
100
AcDbMText
 10
7.6760972855
 20
4.4696642009
 30
0.3626782046
 40
0.15625
 41
0.0
 71
     1
 72
     1
  1

  7
SLDTEXTSTYLE0
 73
     1
 44
1.0
  0
ENDBLK
  5
379
330
377
100
AcDbEntity
  8
0
100
AcDbBlockEnd
  0
BLOCK
  5
38B
330
38A
100
AcDbEntity
  8
0
100
AcDbBlockBegin
  2
*D27
 70
     1
 10
0.0
 20
0.0
 30
0.0
  3
*D27
  1

  0
SOLID
  5
38D
330
38A
100
AcDbEntity
  8
0
  6
Continuous
 62
     7
370
     0
100
AcDbTrace
 10
4.3014980218
 20
4.6897214422
 30
0.0
 11
4.2764980218
 21
4.5272214422
 31
0.0
 12
4.3264980218
 22
4.5272214422
 32
0.0
 13
4.3264980218
 23
4.5272214422
 33
0.0
  0
SOLID
  5
38E
330
38A
100
AcDbEntity
  8
0
  6
Continuous
 62
     7
370
     0
100
AcDbTrace
 10
4.3014980218
 20
4.8865718359
 30
0.0
 11
4.3264980218
 21
5.0490718359
 31
0.0
 12
4.2764980218
 22
5.0490718359
 32
0.0
 13
4.2764980218
 23
5.0490718359
 33
0.0
  0
LINE
  5
38F
330
38A
100
AcDbEntity
  8
0
  6
Continuous
 62
     7
370
     0
100
AcDbLine
 10
3.6872642078
 20
5.3250396976
 30
0.0
 11
3.655525925
 21
5.3250396976
 31
0.0
  0
LINE
  5
390
330
38A
100
AcDbEntity
  8
0
  6
Continuous
 62
     7
370
     0
100
AcDbLine
 10
3.655525925
 20
5.3250396976
 30
0.0
 11
3.655525925
 21
5.0769928152
 31
0.0
  0
LINE
  5
391
330
38A
100
AcDbEntity
  8
0
  6
Continuous
 62
     7
370
     0
100
AcDbLine
 10
3.655525925
 20
5.0769928152
 30
0.0
 11
3.6872642078
 21
5.0769928152
 31
0.0
  0
LINE
  5
392
330
38A
100
AcDbEntity
  8
0
  6
Continuous
 62
     7
370
     0
100
AcDbLine
 10
3.8820613041
 20
5.3250396976
 30
0.0
 11
3.913799587
 21
5.3250396976
 31
0.0
  0
LINE
  5
393
330
38A
100
AcDbEntity
  8
0
  6
Continuous
 62
     7
370
     0
100
AcDbLine
 10
3.913799587
 20
5.3250396976
 30
0.0
 11
3.913799587
 21
5.0769928152
 31
0.0
  0
LINE
  5
394
330
38A
100
AcDbEntity
  8
0
  6
Continuous
 62
     7
370
     0
100
AcDbLine
 10
3.913799587
 20
5.0769928152
 30
0.0
 11
3.8820613041
 21
5.0769928152
 31
0.0
  0
LINE
  5
395
330
38A
100
AcDbEntity
  8
0
  6
Continuous
 62
     7
370
     0
100
AcDbLine
 10
4.3480734596
 20
4.8865718359
 30
0.0
 11
4.1452480218
 21
4.8865718359
 31
0.0
  0
LINE
  5
396
330
38A
100
AcDbEntity
  8
0
  6
Continuous
 62
     7
370
     0
100
AcDbLine
 10
4.1452480218
 20
5.3262332755
 30
0.0
 11
4.3014980218
 21
5.3262332755
 31
0.0
  0
LINE
  5
397
330
38A
100
AcDbEntity
  8
0
  6
Continuous
 62
     7
370
     0
100
AcDbLine
 10
4.3014980218
 20
5.3262332755
 30
0.0
 11
4.3014980218
 21
4.8865718359
 31
0.0
  0
LINE
  5
398
330
38A
100
AcDbEntity
  8
0
  6
Continuous
 62
     7
370
     0
100
AcDbLine
 10
4.3014980218
 20
4.6897214422
 30
0.0
 11
4.3014980218
 21
4.3772214422
 31
0.0
  0
MTEXT
  5
399
330
38A
100
AcDbEntity
  8
0
  6
Continuous
 62
     7
370
     0
100
AcDbMText
 10
3.5777399977
 20
5.5605819792
 30
0.3626782046
 40
0.15625
 41
0.0
 71
     1
 72
     1
  1

  7
SLDTEXTSTYLE0
 73
     1
 44
1.0
  0
MTEXT
  5
39A
330
38A
100
AcDbEntity
  8
0
  6
Continuous
 62
     7
370
     0
100
AcDbMText
 10
3.5768719423
 20
5.5581948148
 30
0.3626782046
 40
0.15625
 41
0.0
 71
     1
 72
     1
  1
.20
  7
SLDTEXTSTYLE0
 73
     1
 44
1.0
  0
MTEXT
  5
39B
330
38A
100
AcDbEntity
  8
0
  6
Continuous
 62
     7
370
     0
100
AcDbMText
 10
3.7269370614
 20
5.2784096409
 30
0.3626782046
 40
0.15625
 41
0.0
 71
     1
 72
     1
  1
5
  7
SLDTEXTSTYLE0
 73
     1
 44
1.0
  0
MTEXT
  5
39C
330
38A
100
AcDbEntity
  8
0
  6
Continuous
 62
     7
370
     0
100
AcDbMText
 10
4.0510472967
 20
5.5605819792
 30
0.3626782046
 40
0.15625
 41
0.0
 71
     1
 72
     1
  1

  7
SLDTEXTSTYLE0
 73
     1
 44
1.0
  0
ENDBLK
  5
38C
330
38A
100
AcDbEntity
  8
0
100
AcDbBlockEnd
  0
BLOCK
  5
3A0
330
39F
100
AcDbEntity
  8
0
100
AcDbBlockBegin
  2
*D28
 70
     1
 10
0.0
 20
0.0
 30
0.0
  3
*D28
  1

  0
SOLID
  5
3A2
330
39F
100
AcDbEntity
  8
0
  6
Continuous
 62
     7
370
     0
100
AcDbTrace
 10
3.2024096074
 20
4.7487765604
 30
0.0
 11
3.2274096074
 21
4.9112765604
 31
0.0
 12
3.1774096074
 22
4.9112765604
 32
0.0
 13
3.1774096074
 23
4.9112765604
 33
0.0
  0
SOLID
  5
3A3
330
39F
100
AcDbEntity
  8
0
  6
Continuous
 62
     7
370
     0
100
AcDbTrace
 10
3.2024096074
 20
4.5912962454
 30
0.0
 11
3.1774096074
 21
4.4287962454
 31
0.0
 12
3.2274096074
 22
4.4287962454
 32
0.0
 13
3.2274096074
 23
4.4287962454
 33
0.0
  0
LINE
  5
3A4
330
39F
100
AcDbEntity
  8
0
  6
Continuous
 62
     7
370
     0
100
AcDbLine
 10
2.5881757934
 20
4.1871283386
 30
0.0
 11
2.5564375106
 21
4.1871283386
 31
0.0
  0
LINE
  5
3A5
330
39F
100
AcDbEntity
  8
0
  6
Continuous
 62
     7
370
     0
100
AcDbLine
 10
2.5564375106
 20
4.1871283386
 30
0.0
 11
2.5564375106
 21
3.9390814561
 31
0.0
  0
LINE
  5
3A6
330
39F
100
AcDbEntity
  8
0
  6
Continuous
 62
     7
370
     0
100
AcDbLine
 10
2.5564375106
 20
3.9390814561
 30
0.0
 11
2.5881757934
 21
3.9390814561
 31
0.0
  0
LINE
  5
3A7
330
39F
100
AcDbEntity
  8
0
  6
Continuous
 62
     7
370
     0
100
AcDbLine
 10
2.7829728897
 20
4.1871283386
 30
0.0
 11
2.8147111726
 21
4.1871283386
 31
0.0
  0
LINE
  5
3A8
330
39F
100
AcDbEntity
  8
0
  6
Continuous
 62
     7
370
     0
100
AcDbLine
 10
2.8147111726
 20
4.1871283386
 30
0.0
 11
2.8147111726
 21
3.9390814561
 31
0.0
  0
LINE
  5
3A9
330
39F
100
AcDbEntity
  8
0
  6
Continuous
 62
     7
370
     0
100
AcDbLine
 10
2.8147111726
 20
3.9390814561
 30
0.0
 11
2.7829728897
 21
3.9390814561
 31
0.0
  0
LINE
  5
3AA
330
39F
100
AcDbEntity
  8
0
  6
Continuous
 62
     7
370
     0
100
AcDbLine
 10
3.5651098641
 20
4.7487765604
 30
0.0
 11
3.0461596074
 21
4.7487765604
 31
0.0
  0
LINE
  5
3AB
330
39F
100
AcDbEntity
  8
0
  6
Continuous
 62
     7
370
     0
100
AcDbLine
 10
3.5257397854
 20
4.5912962454
 30
0.0
 11
3.0461596074
 21
4.5912962454
 31
0.0
  0
LINE
  5
3AC
330
39F
100
AcDbEntity
  8
0
  6
Continuous
 62
     7
370
     0
100
AcDbLine
 10
3.0461596074
 20
4.1883219164
 30
0.0
 11
3.2024096074
 21
4.1883219164
 31
0.0
  0
LINE
  5
3AD
330
39F
100
AcDbEntity
  8
0
  6
Continuous
 62
     7
370
     0
100
AcDbLine
 10
3.2024096074
 20
4.1883219164
 30
0.0
 11
3.2024096074
 21
4.5912962454
 31
0.0
  0
LINE
  5
3AE
330
39F
100
AcDbEntity
  8
0
  6
Continuous
 62
     7
370
     0
100
AcDbLine
 10
3.2024096074
 20
4.7487765604
 30
0.0
 11
3.2024096074
 21
5.0612765604
 31
0.0
  0
MTEXT
  5
3AF
330
39F
100
AcDbEntity
  8
0
  6
Continuous
 62
     7
370
     0
100
AcDbMText
 10
2.4786515833
 20
4.4226706201
 30
0.3626782046
 40
0.15625
 41
0.0
 71
     1
 72
     1
  1

  7
SLDTEXTSTYLE0
 73
     1
 44
1.0
  0
MTEXT
  5
3B0
330
39F
100
AcDbEntity
  8
0
  6
Continuous
 62
     7
370
     0
100
AcDbMText
 10
2.4777835279
 20
4.4202834557
 30
0.3626782046
 40
0.15625
 41
0.0
 71
     1
 72
     1
  1
.16
  7
SLDTEXTSTYLE0
 73
     1
 44
1.0
  0
MTEXT
  5
3B1
330
39F
100
AcDbEntity
  8
0
  6
Continuous
 62
     7
370
     0
100
AcDbMText
 10
2.627848647
 20
4.1404982818
 30
0.3626782046
 40
0.15625
 41
0.0
 71
     1
 72
     1
  1
4
  7
SLDTEXTSTYLE0
 73
     1
 44
1.0
  0
MTEXT
  5
3B2
330
39F
100
AcDbEntity
  8
0
  6
Continuous
 62
     7
370
     0
100
AcDbMText
 10
2.9519588823
 20
4.4226706201
 30
0.3626782046
 40
0.15625
 41
0.0
 71
     1
 72
     1
  1

  7
SLDTEXTSTYLE0
 73
     1
 44
1.0
  0
ENDBLK
  5
3A1
330
39F
100
AcDbEntity
  8
0
100
AcDbBlockEnd
  0
BLOCK
  5
3B5
330
3B4
100
AcDbEntity
  8
0
100
AcDbBlockBegin
  2
*D29
 70
     1
 10
0.0
 20
0.0
 30
0.0
  3
*D29
  1

  0
SOLID
  5
3B7
330
3B4
100
AcDbEntity
  8
0
  6
Continuous
 62
     7
370
     0
100
AcDbTrace
 10
2.5055466906
 20
4.5912962454
 30
0.0
 11
2.4805466906
 21
4.4287962454
 31
0.0
 12
2.5305466906
 22
4.4287962454
 32
0.0
 13
2.5305466906
 23
4.4287962454
 33
0.0
  0
SOLID
  5
3B8
330
3B4
100
AcDbEntity
  8
0
  6
Continuous
 62
     7
370
     0
100
AcDbTrace
 10
2.5055466906
 20
4.9849970328
 30
0.0
 11
2.5305466906
 21
5.1474970328
 31
0.0
 12
2.4805466906
 22
5.1474970328
 32
0.0
 13
2.4805466906
 23
5.1474970328
 33
0.0
  0
LINE
  5
3B9
330
3B4
100
AcDbEntity
  8
0
  6
Continuous
 62
     7
370
     0
100
AcDbLine
 10
1.830711735
 20
5.3250396976
 30
0.0
 11
1.7989734522
 21
5.3250396976
 31
0.0
  0
LINE
  5
3BA
330
3B4
100
AcDbEntity
  8
0
  6
Continuous
 62
     7
370
     0
100
AcDbLine
 10
1.7989734522
 20
5.3250396976
 30
0.0
 11
1.7989734522
 21
5.0769928152
 31
0.0
  0
LINE
  5
3BB
330
3B4
100
AcDbEntity
  8
0
  6
Continuous
 62
     7
370
     0
100
AcDbLine
 10
1.7989734522
 20
5.0769928152
 30
0.0
 11
1.830711735
 21
5.0769928152
 31
0.0
  0
LINE
  5
3BC
330
3B4
100
AcDbEntity
  8
0
  6
Continuous
 62
     7
370
     0
100
AcDbLine
 10
2.1409602205
 20
5.3250396976
 30
0.0
 11
2.1726985033
 21
5.3250396976
 31
0.0
  0
LINE
  5
3BD
330
3B4
100
AcDbEntity
  8
0
  6
Continuous
 62
     7
370
     0
100
AcDbLine
 10
2.1726985033
 20
5.3250396976
 30
0.0
 11
2.1726985033
 21
5.0769928152
 31
0.0
  0
LINE
  5
3BE
330
3B4
100
AcDbEntity
  8
0
  6
Continuous
 62
     7
370
     0
100
AcDbLine
 10
2.1726985033
 20
5.0769928152
 30
0.0
 11
2.1409602205
 21
5.0769928152
 31
0.0
  0
LINE
  5
3BF
330
3B4
100
AcDbEntity
  8
0
  6
Continuous
 62
     7
370
     0
100
AcDbLine
 10
3.5257397854
 20
4.5912962454
 30
0.0
 11
2.3492966906
 21
4.5912962454
 31
0.0
  0
LINE
  5
3C0
330
3B4
100
AcDbEntity
  8
0
  6
Continuous
 62
     7
370
     0
100
AcDbLine
 10
3.9509366358
 20
4.9849970328
 30
0.0
 11
2.3492966906
 21
4.9849970328
 31
0.0
  0
LINE
  5
3C1
330
3B4
100
AcDbEntity
  8
0
  6
Continuous
 62
     7
370
     0
100
AcDbLine
 10
2.3492966906
 20
5.3262332755
 30
0.0
 11
2.5055466906
 21
5.3262332755
 31
0.0
  0
LINE
  5
3C2
330
3B4
100
AcDbEntity
  8
0
  6
Continuous
 62
     7
370
     0
100
AcDbLine
 10
2.5055466906
 20
5.3262332755
 30
0.0
 11
2.5055466906
 21
4.9849970328
 31
0.0
  0
LINE
  5
3C3
330
3B4
100
AcDbEntity
  8
0
  6
Continuous
 62
     7
370
     0
100
AcDbLine
 10
2.5055466906
 20
4.5912962454
 30
0.0
 11
2.5055466906
 21
4.2787962454
 31
0.0
  0
MTEXT
  5
3C4
330
3B4
100
AcDbEntity
  8
0
  6
Continuous
 62
     7
370
     0
100
AcDbMText
 10
1.7760377954
 20
5.5605819792
 30
0.3626782046
 40
0.15625
 41
0.0
 71
     1
 72
     1
  1

  7
SLDTEXTSTYLE0
 73
     1
 44
1.0
  0
MTEXT
  5
3C5
330
3B4
100
AcDbEntity
  8
0
  6
Continuous
 62
     7
370
     0
100
AcDbMText
 10
1.7780451756
 20
5.5581948148
 30
0.3626782046
 40
0.15625
 41
0.0
 71
     1
 72
     1
  1
.39
  7
SLDTEXTSTYLE0
 73
     1
 44
1.0
  0
MTEXT
  5
3C6
330
3B4
100
AcDbEntity
  8
0
  6
Continuous
 62
     7
370
     0
100
AcDbMText
 10
1.8703845885
 20
5.2784096409
 30
0.3626782046
 40
0.15625
 41
0.0
 71
     1
 72
     1
  1
10
  7
SLDTEXTSTYLE0
 73
     1
 44
1.0
  0
MTEXT
  5
3C7
330
3B4
100
AcDbEntity
  8
0
  6
Continuous
 62
     7
370
     0
100
AcDbMText
 10
2.2550959655
 20
5.5605819792
 30
0.3626782046
 40
0.15625
 41
0.0
 71
     1
 72
     1
  1

  7
SLDTEXTSTYLE0
 73
     1
 44
1.0
  0
ENDBLK
  5
3B6
330
3B4
100
AcDbEntity
  8
0
100
AcDbBlockEnd
  0
BLOCK
  5
42C
330
42B
100
AcDbEntity
  8
0
100
AcDbBlockBegin
  2
*D30
 70
     1
 10
0.0
 20
0.0
 30
0.0
  3
*D30
  1

  0
SOLID
  5
42E
330
42B
100
AcDbEntity
  8
0
  6
Continuous
 62
     7
370
     0
100
AcDbTrace
 10
11.0866511729
 20
11.5323142904
 30
0.0
 11
11.2491511729
 21
11.5073142904
 31
0.0
 12
11.2491511729
 22
11.5573142904
 32
0.0
 13
11.2491511729
 23
11.5573142904
 33
0.0
  0
SOLID
  5
42F
330
42B
100
AcDbEntity
  8
0
  6
Continuous
 62
     7
370
     0
100
AcDbTrace
 10
14.2362574721
 20
11.5323142904
 30
0.0
 11
14.0737574721
 21
11.5573142904
 31
0.0
 12
14.0737574721
 22
11.5073142904
 32
0.0
 13
14.0737574721
 23
11.5073142904
 33
0.0
  0
LINE
  5
430
330
42B
100
AcDbEntity
  8
0
  6
Continuous
 62
     7
370
     0
100
AcDbLine
 10
12.5063300854
 20
11.5311207125
 30
0.0
 11
12.4745918026
 21
11.5311207125
 31
0.0
  0
LINE
  5
431
330
42B
100
AcDbEntity
  8
0
  6
Continuous
 62
     7
370
     0
100
AcDbLine
 10
12.4745918026
 20
11.5311207125
 30
0.0
 11
12.4745918026
 21
11.2830738301
 31
0.0
  0
LINE
  5
432
330
42B
100
AcDbEntity
  8
0
  6
Continuous
 62
     7
370
     0
100
AcDbLine
 10
12.4745918026
 20
11.2830738301
 30
0.0
 11
12.5063300854
 21
11.2830738301
 31
0.0
  0
LINE
  5
433
330
42B
100
AcDbEntity
  8
0
  6
Continuous
 62
     7
370
     0
100
AcDbLine
 10
12.8165785709
 20
11.5311207125
 30
0.0
 11
12.8483168538
 21
11.5311207125
 31
0.0
  0
LINE
  5
434
330
42B
100
AcDbEntity
  8
0
  6
Continuous
 62
     7
370
     0
100
AcDbLine
 10
12.8483168538
 20
11.5311207125
 30
0.0
 11
12.8483168538
 21
11.2830738301
 31
0.0
  0
LINE
  5
435
330
42B
100
AcDbEntity
  8
0
  6
Continuous
 62
     7
370
     0
100
AcDbLine
 10
12.8483168538
 20
11.2830738301
 30
0.0
 11
12.8165785709
 21
11.2830738301
 31
0.0
  0
LINE
  5
436
330
42B
100
AcDbEntity
  8
0
  6
Continuous
 62
     7
370
     0
100
AcDbLine
 10
11.0866511729
 20
10.4324613968
 30
0.0
 11
11.0866511729
 21
11.6885642904
 31
0.0
  0
LINE
  5
437
330
42B
100
AcDbEntity
  8
0
  6
Continuous
 62
     7
370
     0
100
AcDbLine
 10
14.2362574721
 20
10.4324613968
 30
0.0
 11
14.2362574721
 21
11.6885642904
 31
0.0
  0
LINE
  5
438
330
42B
100
AcDbEntity
  8
0
  6
Continuous
 62
     7
370
     0
100
AcDbLine
 10
11.0866511729
 20
11.5323142904
 30
0.0
 11
12.3065225509
 21
11.5323142904
 31
0.0
  0
LINE
  5
439
330
42B
100
AcDbEntity
  8
0
  6
Continuous
 62
     7
370
     0
100
AcDbLine
 10
14.2362574721
 20
11.5323142904
 30
0.0
 11
13.016386094
 21
11.5323142904
 31
0.0
  0
MTEXT
  5
43A
330
42B
100
AcDbEntity
  8
0
  6
Continuous
 62
     7
370
     0
100
AcDbMText
 10
12.3968058983
 20
11.7666629941
 30
0.5709350868
 40
0.15625
 41
0.0
 71
     1
 72
     1
  1

  7
SLDTEXTSTYLE0
 73
     1
 44
1.0
  0
MTEXT
  5
43B
330
42B
100
AcDbEntity
  8
0
  6
Continuous
 62
     7
370
     0
100
AcDbMText
 10
12.3959378429
 20
11.7642758297
 30
0.5709350868
 40
0.15625
 41
0.0
 71
     1
 72
     1
  1
3.15
  7
SLDTEXTSTYLE0
 73
     1
 44
1.0
  0
MTEXT
  5
43C
330
42B
100
AcDbEntity
  8
0
  6
Continuous
 62
     7
370
     0
100
AcDbMText
 10
12.546002939
 20
11.4844906558
 30
0.5709350868
 40
0.15625
 41
0.0
 71
     1
 72
     1
  1
80
  7
SLDTEXTSTYLE0
 73
     1
 44
1.0
  0
MTEXT
  5
43D
330
42B
100
AcDbEntity
  8
0
  6
Continuous
 62
     7
370
     0
100
AcDbMText
 10
12.9855645635
 20
11.7666629941
 30
0.5709350868
 40
0.15625
 41
0.0
 71
     1
 72
     1
  1

  7
SLDTEXTSTYLE0
 73
     1
 44
1.0
  0
ENDBLK
  5
42D
330
42B
100
AcDbEntity
  8
0
100
AcDbBlockEnd
  0
BLOCK
  5
440
330
43F
100
AcDbEntity
  8
0
100
AcDbBlockBegin
  2
*D31
 70
     1
 10
0.0
 20
0.0
 30
0.0
  3
*D31
  1

  0
SOLID
  5
442
330
43F
100
AcDbEntity
  8
0
  6
Continuous
 62
     7
370
     0
100
AcDbTrace
 10
11.1701703985
 20
10.9417631093
 30
0.0
 11
11.3326703985
 21
10.9167631093
 31
0.0
 12
11.3326703985
 22
10.9667631093
 32
0.0
 13
11.3326703985
 23
10.9667631093
 33
0.0
  0
SOLID
  5
443
330
43F
100
AcDbEntity
  8
0
  6
Continuous
 62
     7
370
     0
100
AcDbTrace
 10
14.1527382464
 20
10.9417631093
 30
0.0
 11
13.9902382464
 21
10.9667631093
 31
0.0
 12
13.9902382464
 22
10.9167631093
 32
0.0
 13
13.9902382464
 23
10.9167631093
 33
0.0
  0
LINE
  5
444
330
43F
100
AcDbEntity
  8
0
  6
Continuous
 62
     7
370
     0
100
AcDbLine
 10
12.4197415378
 20
10.9405695314
 30
0.0
 11
12.388003255
 21
10.9405695314
 31
0.0
  0
LINE
  5
445
330
43F
100
AcDbEntity
  8
0
  6
Continuous
 62
     7
370
     0
100
AcDbLine
 10
12.388003255
 20
10.9405695314
 30
0.0
 11
12.388003255
 21
10.692522649
 31
0.0
  0
LINE
  5
446
330
43F
100
AcDbEntity
  8
0
  6
Continuous
 62
     7
370
     0
100
AcDbLine
 10
12.388003255
 20
10.692522649
 30
0.0
 11
12.4197415378
 21
10.692522649
 31
0.0
  0
LINE
  5
447
330
43F
100
AcDbEntity
  8
0
  6
Continuous
 62
     7
370
     0
100
AcDbLine
 10
12.9031671186
 20
10.9405695314
 30
0.0
 11
12.9349054014
 21
10.9405695314
 31
0.0
  0
LINE
  5
448
330
43F
100
AcDbEntity
  8
0
  6
Continuous
 62
     7
370
     0
100
AcDbLine
 10
12.9349054014
 20
10.9405695314
 30
0.0
 11
12.9349054014
 21
10.692522649
 31
0.0
  0
LINE
  5
449
330
43F
100
AcDbEntity
  8
0
  6
Continuous
 62
     7
370
     0
100
AcDbLine
 10
12.9349054014
 20
10.692522649
 30
0.0
 11
12.9031671186
 21
10.692522649
 31
0.0
  0
LINE
  5
44A
330
43F
100
AcDbEntity
  8
0
  6
Continuous
 62
     7
370
     0
100
AcDbLine
 10
11.1701703985
 20
10.4276823286
 30
0.0
 11
11.1701703985
 21
11.0980131093
 31
0.0
  0
LINE
  5
44B
330
43F
100
AcDbEntity
  8
0
  6
Continuous
 62
     7
370
     0
100
AcDbLine
 10
14.1527382464
 20
10.4276823286
 30
0.0
 11
14.1527382464
 21
11.0980131093
 31
0.0
  0
LINE
  5
44C
330
43F
100
AcDbEntity
  8
0
  6
Continuous
 62
     7
370
     0
100
AcDbLine
 10
11.1701703985
 20
10.9417631093
 30
0.0
 11
12.2747842509
 21
10.9417631093
 31
0.0
  0
LINE
  5
44D
330
43F
100
AcDbEntity
  8
0
  6
Continuous
 62
     7
370
     0
100
AcDbLine
 10
14.1527382464
 20
10.9417631093
 30
0.0
 11
13.048124394
 21
10.9417631093
 31
0.0
  0
MTEXT
  5
44E
330
43F
100
AcDbEntity
  8
0
  6
Continuous
 62
     7
370
     0
100
AcDbMText
 10
12.3650675982
 20
11.176111813
 30
0.5709350868
 40
0.15625
 41
0.0
 71
     1
 72
     1
  1

  7
SLDTEXTSTYLE0
 73
     1
 44
1.0
  0
MTEXT
  5
44F
330
43F
100
AcDbEntity
  8
0
  6
Continuous
 62
     7
370
     0
100
AcDbMText
 10
12.3959378429
 20
11.1737246486
 30
0.5709350868
 40
0.15625
 41
0.0
 71
     1
 72
     1
  1
2.98
  7
SLDTEXTSTYLE0
 73
     1
 44
1.0
  0
MTEXT
  5
450
330
43F
100
AcDbEntity
  8
0
  6
Continuous
 62
     7
370
     0
100
AcDbMText
 10
12.4594143913
 20
10.8939394747
 30
0.5709350868
 40
0.15625
 41
0.0
 71
     1
 72
     1
  1
75.8
  7
SLDTEXTSTYLE0
 73
     1
 44
1.0
  0
MTEXT
  5
451
330
43F
100
AcDbEntity
  8
0
  6
Continuous
 62
     7
370
     0
100
AcDbMText
 10
13.0173028636
 20
11.176111813
 30
0.5709350868
 40
0.15625
 41
0.0
 71
     1
 72
     1
  1

  7
SLDTEXTSTYLE0
 73
     1
 44
1.0
  0
ENDBLK
  5
441
330
43F
100
AcDbEntity
  8
0
100
AcDbBlockEnd
  0
BLOCK
  5
454
330
453
100
AcDbEntity
  8
0
100
AcDbBlockBegin
  2
*D32
 70
     1
 10
0.0
 20
0.0
 30
0.0
  3
*D32
  1

  0
SOLID
  5
456
330
453
100
AcDbEntity
  8
0
  6
Continuous
 62
     7
370
     0
100
AcDbTrace
 10
14.6822574621
 20
10.3651823286
 30
0.0
 11
14.6572574621
 21
10.2026823286
 31
0.0
 12
14.7072574621
 22
10.2026823286
 32
0.0
 13
14.7072574621
 23
10.2026823286
 33
0.0
  0
SOLID
  5
457
330
453
100
AcDbEntity
  8
0
  6
Continuous
 62
     7
370
     0
100
AcDbTrace
 10
14.6822574621
 20
7.3589924334
 30
0.0
 11
14.7072574621
 21
7.5214924334
 31
0.0
 12
14.6572574621
 22
7.5214924334
 32
0.0
 13
14.6572574621
 23
7.5214924334
 33
0.0
  0
LINE
  5
458
330
453
100
AcDbEntity
  8
0
  6
Continuous
 62
     7
370
     0
100
AcDbLine
 10
14.4405446775
 20
8.8608938032
 30
0.0
 11
14.4088063946
 21
8.8608938032
 31
0.0
  0
LINE
  5
459
330
453
100
AcDbEntity
  8
0
  6
Continuous
 62
     7
370
     0
100
AcDbLine
 10
14.4088063946
 20
8.8608938032
 30
0.0
 11
14.4088063946
 21
8.6128469207
 31
0.0
  0
LINE
  5
45A
330
453
100
AcDbEntity
  8
0
  6
Continuous
 62
     7
370
     0
100
AcDbLine
 10
14.4088063946
 20
8.6128469207
 30
0.0
 11
14.4405446775
 21
8.6128469207
 31
0.0
  0
LINE
  5
45B
330
453
100
AcDbEntity
  8
0
  6
Continuous
 62
     7
370
     0
100
AcDbLine
 10
14.9239702583
 20
8.8608938032
 30
0.0
 11
14.9557085411
 21
8.8608938032
 31
0.0
  0
LINE
  5
45C
330
453
100
AcDbEntity
  8
0
  6
Continuous
 62
     7
370
     0
100
AcDbLine
 10
14.9557085411
 20
8.8608938032
 30
0.0
 11
14.9557085411
 21
8.6128469207
 31
0.0
  0
LINE
  5
45D
330
453
100
AcDbEntity
  8
0
  6
Continuous
 62
     7
370
     0
100
AcDbLine
 10
14.9557085411
 20
8.6128469207
 30
0.0
 11
14.9239702583
 21
8.6128469207
 31
0.0
  0
LINE
  5
45E
330
453
100
AcDbEntity
  8
0
  6
Continuous
 62
     7
370
     0
100
AcDbLine
 10
14.2152382464
 20
10.3651823286
 30
0.0
 11
14.8385074621
 21
10.3651823286
 31
0.0
  0
LINE
  5
45F
330
453
100
AcDbEntity
  8
0
  6
Continuous
 62
     7
370
     0
100
AcDbLine
 10
14.2152382464
 20
7.3589924334
 30
0.0
 11
14.8385074621
 21
7.3589924334
 31
0.0
  0
LINE
  5
460
330
453
100
AcDbEntity
  8
0
  6
Continuous
 62
     7
370
     0
100
AcDbLine
 10
14.6822574621
 20
10.3651823286
 30
0.0
 11
14.6822574621
 21
9.1430661414
 31
0.0
  0
LINE
  5
461
330
453
100
AcDbEntity
  8
0
  6
Continuous
 62
     7
370
     0
100
AcDbLine
 10
14.6822574621
 20
7.3589924334
 30
0.0
 11
14.6822574621
 21
8.5811086207
 31
0.0
  0
MTEXT
  5
462
330
453
100
AcDbEntity
  8
0
  6
Continuous
 62
     7
370
     0
100
AcDbMText
 10
14.3858707379
 20
9.0964360847
 30
0.5709350868
 40
0.15625
 41
0.0
 71
     1
 72
     1
  1

  7
SLDTEXTSTYLE0
 73
     1
 44
1.0
  0
MTEXT
  5
463
330
453
100
AcDbEntity
  8
0
  6
Continuous
 62
     7
370
     0
100
AcDbMText
 10
14.4167409825
 20
9.0940489203
 30
0.5709350868
 40
0.15625
 41
0.0
 71
     1
 72
     1
  1
3.01
  7
SLDTEXTSTYLE0
 73
     1
 44
1.0
  0
MTEXT
  5
464
330
453
100
AcDbEntity
  8
0
  6
Continuous
 62
     7
370
     0
100
AcDbMText
 10
14.480217531
 20
8.8142637464
 30
0.5709350868
 40
0.15625
 41
0.0
 71
     1
 72
     1
  1
76.4
  7
SLDTEXTSTYLE0
 73
     1
 44
1.0
  0
MTEXT
  5
465
330
453
100
AcDbEntity
  8
0
  6
Continuous
 62
     7
370
     0
100
AcDbMText
 10
15.0381060032
 20
9.0964360847
 30
0.5709350868
 40
0.15625
 41
0.0
 71
     1
 72
     1
  1

  7
SLDTEXTSTYLE0
 73
     1
 44
1.0
  0
ENDBLK
  5
455
330
453
100
AcDbEntity
  8
0
100
AcDbBlockEnd
  0
BLOCK
  5
468
330
467
100
AcDbEntity
  8
0
100
AcDbBlockBegin
  2
*D33
 70
     1
 10
0.0
 20
0.0
 30
0.0
  3
*D33
  1

  0
SOLID
  5
46A
330
467
100
AcDbEntity
  8
0
  6
Continuous
 62
     7
370
     0
100
AcDbTrace
 10
15.3189386956
 20
10.4487015543
 30
0.0
 11
15.2939386956
 21
10.2862015543
 31
0.0
 12
15.3439386956
 22
10.2862015543
 32
0.0
 13
15.3439386956
 23
10.2862015543
 33
0.0
  0
SOLID
  5
46B
330
467
100
AcDbEntity
  8
0
  6
Continuous
 62
     7
370
     0
100
AcDbTrace
 10
15.3189386956
 20
7.2754732078
 30
0.0
 11
15.3439386956
 21
7.4379732078
 31
0.0
 12
15.2939386956
 22
7.4379732078
 32
0.0
 13
15.2939386956
 23
7.4379732078
 33
0.0
  0
LINE
  5
46C
330
467
100
AcDbEntity
  8
0
  6
Continuous
 62
     7
370
     0
100
AcDbLine
 10
15.0772259109
 20
8.8608938032
 30
0.0
 11
15.0454876281
 21
8.8608938032
 31
0.0
  0
LINE
  5
46D
330
467
100
AcDbEntity
  8
0
  6
Continuous
 62
     7
370
     0
100
AcDbLine
 10
15.0454876281
 20
8.8608938032
 30
0.0
 11
15.0454876281
 21
8.6128469207
 31
0.0
  0
LINE
  5
46E
330
467
100
AcDbEntity
  8
0
  6
Continuous
 62
     7
370
     0
100
AcDbLine
 10
15.0454876281
 20
8.6128469207
 30
0.0
 11
15.0772259109
 21
8.6128469207
 31
0.0
  0
LINE
  5
46F
330
467
100
AcDbEntity
  8
0
  6
Continuous
 62
     7
370
     0
100
AcDbLine
 10
15.5606514917
 20
8.8608938032
 30
0.0
 11
15.5923897746
 21
8.8608938032
 31
0.0
  0
LINE
  5
470
330
467
100
AcDbEntity
  8
0
  6
Continuous
 62
     7
370
     0
100
AcDbLine
 10
15.5923897746
 20
8.8608938032
 30
0.0
 11
15.5923897746
 21
8.6128469207
 31
0.0
  0
LINE
  5
471
330
467
100
AcDbEntity
  8
0
  6
Continuous
 62
     7
370
     0
100
AcDbLine
 10
15.5923897746
 20
8.6128469207
 30
0.0
 11
15.5606514917
 21
8.6128469207
 31
0.0
  0
LINE
  5
472
330
467
100
AcDbEntity
  8
0
  6
Continuous
 62
     7
370
     0
100
AcDbLine
 10
14.2200173146
 20
10.4487015543
 30
0.0
 11
15.4751886956
 21
10.4487015543
 31
0.0
  0
LINE
  5
473
330
467
100
AcDbEntity
  8
0
  6
Continuous
 62
     7
370
     0
100
AcDbLine
 10
14.2200173146
 20
7.2754732078
 30
0.0
 11
15.4751886956
 21
7.2754732078
 31
0.0
  0
LINE
  5
474
330
467
100
AcDbEntity
  8
0
  6
Continuous
 62
     7
370
     0
100
AcDbLine
 10
15.3189386956
 20
10.4487015543
 30
0.0
 11
15.3189386956
 21
9.1430661414
 31
0.0
  0
LINE
  5
475
330
467
100
AcDbEntity
  8
0
  6
Continuous
 62
     7
370
     0
100
AcDbLine
 10
15.3189386956
 20
7.2754732078
 30
0.0
 11
15.3189386956
 21
8.5811086207
 31
0.0
  0
MTEXT
  5
476
330
467
100
AcDbEntity
  8
0
  6
Continuous
 62
     7
370
     0
100
AcDbMText
 10
15.0225519714
 20
9.0964360847
 30
0.5709350868
 40
0.15625
 41
0.0
 71
     1
 72
     1
  1

  7
SLDTEXTSTYLE0
 73
     1
 44
1.0
  0
MTEXT
  5
477
330
467
100
AcDbEntity
  8
0
  6
Continuous
 62
     7
370
     0
100
AcDbMText
 10
15.053422216
 20
9.0940489203
 30
0.5709350868
 40
0.15625
 41
0.0
 71
     1
 72
     1
  1
3.17
  7
SLDTEXTSTYLE0
 73
     1
 44
1.0
  0
MTEXT
  5
478
330
467
100
AcDbEntity
  8
0
  6
Continuous
 62
     7
370
     0
100
AcDbMText
 10
15.1168987645
 20
8.8142637464
 30
0.5709350868
 40
0.15625
 41
0.0
 71
     1
 72
     1
  1
80.6
  7
SLDTEXTSTYLE0
 73
     1
 44
1.0
  0
MTEXT
  5
479
330
467
100
AcDbEntity
  8
0
  6
Continuous
 62
     7
370
     0
100
AcDbMText
 10
15.6747872367
 20
9.0964360847
 30
0.5709350868
 40
0.15625
 41
0.0
 71
     1
 72
     1
  1

  7
SLDTEXTSTYLE0
 73
     1
 44
1.0
  0
ENDBLK
  5
469
330
467
100
AcDbEntity
  8
0
100
AcDbBlockEnd
  0
BLOCK
  5
4A5
330
4A4
100
AcDbEntity
  8
0
100
AcDbBlockBegin
  2
*D34
 70
     1
 10
0.0
 20
0.0
 30
0.0
  3
*D34
  1

  0
ARC
  5
4A7
330
4A4
100
AcDbEntity
  8
0
  6
Continuous
 62
     7
370
     0
100
AcDbCircle
 10
17.7046120555
 20
10.0862126587
 30
0.0
 40
1.847104587718235
100
AcDbArc
 50
167.3361130379
 51
177.0
  0
ARC
  5
4A8
330
4A4
100
AcDbEntity
  8
0
  6
Continuous
 62
     7
370
     0
100
AcDbCircle
 10
17.7046120555
 20
10.0862126587
 30
0.0
 40
1.847104587718237
100
AcDbArc
 50
180.0
 51
189.9483639794
  0
SOLID
  5
4A9
330
4A4
100
AcDbEntity
  8
0
  6
Continuous
 62
     7
370
     0
100
AcDbTrace
 10
15.8600388604
 20
10.1828826436
 30
0.0
 11
15.900537195
 21
10.3422286034
 31
0.0
 12
15.8507685442
 22
10.3470329139
 32
0.0
 13
15.8507685442
 23
10.3470329139
 33
0.0
  0
SOLID
  5
4AA
330
4A4
100
AcDbEntity
  8
0
  6
Continuous
 62
     7
370
     0
100
AcDbTrace
 10
15.8575074678
 20
10.0862126587
 30
0.0
 11
15.8396588948
 21
9.9227725215
 31
0.0
 12
15.8896107776
 22
9.924965558
 32
0.0
 13
15.8896107776
 23
9.924965558
 33
0.0
  0
LINE
  5
4AB
330
4A4
100
AcDbEntity
  8
0
  6
Continuous
 62
     7
370
     0
100
AcDbLine
 10
15.4687633568
 20
9.6418887736
 30
0.0
 11
15.437025074
 21
9.6418887736
 31
0.0
  0
LINE
  5
4AC
330
4A4
100
AcDbEntity
  8
0
  6
Continuous
 62
     7
370
     0
100
AcDbLine
 10
15.437025074
 20
9.6418887736
 30
0.0
 11
15.4687633568
 21
9.6418887736
 31
0.0
  0
LINE
  5
4AD
330
4A4
100
AcDbEntity
  8
0
  6
Continuous
 62
     7
370
     0
100
AcDbLine
 10
15.5481090639
 20
9.6418887736
 30
0.0
 11
15.5798473467
 21
9.6418887736
 31
0.0
  0
LINE
  5
4AE
330
4A4
100
AcDbEntity
  8
0
  6
Continuous
 62
     7
370
     0
100
AcDbLine
 10
15.5798473467
 20
9.6418887736
 30
0.0
 11
15.5481090639
 21
9.6418887736
 31
0.0
  0
LINE
  5
4AF
330
4A4
100
AcDbEntity
  8
0
  6
Continuous
 62
     7
370
     0
100
AcDbLine
 10
16.0752685757
 20
10.1716029322
 30
0.0
 11
15.7040029956
 21
10.1910601368
 31
0.0
  0
LINE
  5
4B0
330
4A4
100
AcDbEntity
  8
0
  6
Continuous
 62
     7
370
     0
100
AcDbLine
 10
17.1759778399
 20
10.0862126587
 30
0.0
 11
15.7012574678
 21
10.0862126587
 31
0.0
  0
LINE
  5
4B1
330
4A4
100
AcDbEntity
  8
0
  6
Continuous
 62
     7
370
     0
100
AcDbLine
 10
15.8852808131
 20
9.7671057984
 30
0.0
 11
15.7290308131
 21
9.7671057984
 31
0.0
  0
MTEXT
  5
4B2
330
4A4
100
AcDbEntity
  8
0
  6
Continuous
 62
     7
370
     0
100
AcDbMText
 10
15.3464353347
 20
9.8774310494
 30
0.0039370079
 40
0.15625
 41
0.0
 71
     1
 72
     1
  1

  7
SLDTEXTSTYLE0
 73
     1
 44
1.0
  0
MTEXT
  5
4B3
330
4A4
100
AcDbEntity
  8
0
  6
Continuous
 62
     7
370
     0
100
AcDbMText
 10
15.3455672793
 20
9.8750438965
 30
0.0039370079
 40
0.15625
 41
0.0
 71
     1
 72
     1
  1
3°
  7
SLDTEXTSTYLE0
 73
     1
 44
1.0
  0
MTEXT
  5
4B4
330
4A4
100
AcDbEntity
  8
0
  6
Continuous
 62
     7
370
     0
100
AcDbMText
 10
15.7298988799
 20
9.8774310494
 30
0.0039370079
 40
0.15625
 41
0.0
 71
     1
 72
     1
  1

  7
SLDTEXTSTYLE0
 73
     1
 44
1.0
  0
ENDBLK
  5
4A6
330
4A4
100
AcDbEntity
  8
0
100
AcDbBlockEnd
  0
BLOCK
  5
4B7
330
4B6
100
AcDbEntity
  8
0
100
AcDbBlockBegin
  2
*D35
 70
     1
 10
0.0
 20
0.0
 30
0.0
  3
*D35
  1

  0
SOLID
  5
4B9
330
4B6
100
AcDbEntity
  8
0
  6
Continuous
 62
     7
370
     0
100
AcDbTrace
 10
17.7046120555
 20
9.9162410653
 30
0.0
 11
17.5421120555
 21
9.9412410653
 31
0.0
 12
17.5421120555
 22
9.8912410653
 32
0.0
 13
17.5421120555
 23
9.8912410653
 33
0.0
  0
SOLID
  5
4BA
330
4B6
100
AcDbEntity
  8
0
  6
Continuous
 62
     7
370
     0
100
AcDbTrace
 10
17.7912262287
 20
9.9162410653
 30
0.0
 11
17.9537262287
 21
9.8912410653
 31
0.0
 12
17.9537262287
 22
9.9412410653
 32
0.0
 13
17.9537262287
 23
9.9412410653
 33
0.0
  0
LINE
  5
4BB
330
4B6
100
AcDbEntity
  8
0
  6
Continuous
 62
     7
370
     0
100
AcDbLine
 10
18.2259771
 20
9.9150474874
 30
0.0
 11
18.1942388172
 21
9.9150474874
 31
0.0
  0
LINE
  5
4BC
330
4B6
100
AcDbEntity
  8
0
  6
Continuous
 62
     7
370
     0
100
AcDbLine
 10
18.1942388172
 20
9.9150474874
 30
0.0
 11
18.1942388172
 21
9.667000605
 31
0.0
  0
LINE
  5
4BD
330
4B6
100
AcDbEntity
  8
0
  6
Continuous
 62
     7
370
     0
100
AcDbLine
 10
18.1942388172
 20
9.667000605
 30
0.0
 11
18.2259771
 21
9.667000605
 31
0.0
  0
LINE
  5
4BE
330
4B6
100
AcDbEntity
  8
0
  6
Continuous
 62
     7
370
     0
100
AcDbLine
 10
18.5939512687
 20
9.9150474874
 30
0.0
 11
18.6256895515
 21
9.9150474874
 31
0.0
  0
LINE
  5
4BF
330
4B6
100
AcDbEntity
  8
0
  6
Continuous
 62
     7
370
     0
100
AcDbLine
 10
18.6256895515
 20
9.9150474874
 30
0.0
 11
18.6256895515
 21
9.667000605
 31
0.0
  0
LINE
  5
4C0
330
4B6
100
AcDbEntity
  8
0
  6
Continuous
 62
     7
370
     0
100
AcDbLine
 10
18.6256895515
 20
9.667000605
 30
0.0
 11
18.5939512687
 21
9.667000605
 31
0.0
  0
LINE
  5
4C1
330
4B6
100
AcDbEntity
  8
0
  6
Continuous
 62
     7
370
     0
100
AcDbLine
 10
17.7046120555
 20
9.9162410653
 30
0.0
 11
17.3921120555
 21
9.9162410653
 31
0.0
  0
LINE
  5
4C2
330
4B6
100
AcDbEntity
  8
0
  6
Continuous
 62
     7
370
     0
100
AcDbLine
 10
17.7912262287
 20
9.9162410653
 30
0.0
 11
18.0810198131
 21
9.9162410653
 31
0.0
  0
MTEXT
  5
4C3
330
4B6
100
AcDbEntity
  8
0
  6
Continuous
 62
     7
370
     0
100
AcDbMText
 10
18.1713031605
 20
10.1505897689
 30
0.4960645291
 40
0.15625
 41
0.0
 71
     1
 72
     1
  1

  7
SLDTEXTSTYLE0
 73
     1
 44
1.0
  0
MTEXT
  5
4C4
330
4B6
100
AcDbEntity
  8
0
  6
Continuous
 62
     7
370
     0
100
AcDbMText
 10
18.2021733822
 20
10.1482026046
 30
0.4960645291
 40
0.15625
 41
0.0
 71
     1
 72
     1
  1
.09
  7
SLDTEXTSTYLE0
 73
     1
 44
1.0
  0
MTEXT
  5
4C5
330
4B6
100
AcDbEntity
  8
0
  6
Continuous
 62
     7
370
     0
100
AcDbMText
 10
18.2656499536
 20
9.8684174307
 30
0.4960645291
 40
0.15625
 41
0.0
 71
     1
 72
     1
  1
2.2
  7
SLDTEXTSTYLE0
 73
     1
 44
1.0
  0
MTEXT
  5
4C6
330
4B6
100
AcDbEntity
  8
0
  6
Continuous
 62
     7
370
     0
100
AcDbMText
 10
18.7080870136
 20
10.1505897689
 30
0.4960645291
 40
0.15625
 41
0.0
 71
     1
 72
     1
  1

  7
SLDTEXTSTYLE0
 73
     1
 44
1.0
  0
ENDBLK
  5
4B8
330
4B6
100
AcDbEntity
  8
0
100
AcDbBlockEnd
  0
BLOCK
  5
4C9
330
4C8
100
AcDbEntity
  8
0
100
AcDbBlockBegin
  2
*D36
 70
     1
 10
0.0
 20
0.0
 30
0.0
  3
*D36
  1

  0
SOLID
  5
4CB
330
4C8
100
AcDbEntity
  8
0
  6
Continuous
 62
     7
370
     0
100
AcDbTrace
 10
16.1967380398
 20
10.6391404314
 30
0.0
 11
16.3592380398
 21
10.6141404314
 31
0.0
 12
16.3592380398
 22
10.6641404314
 32
0.0
 13
16.3592380398
 23
10.6641404314
 33
0.0
  0
SOLID
  5
4CC
330
4C8
100
AcDbEntity
  8
0
  6
Continuous
 62
     7
370
     0
100
AcDbTrace
 10
17.7912262287
 20
10.6391404314
 30
0.0
 11
17.6287262287
 21
10.6641404314
 31
0.0
 12
17.6287262287
 22
10.6141404314
 32
0.0
 13
17.6287262287
 23
10.6141404314
 33
0.0
  0
LINE
  5
4CD
330
4C8
100
AcDbEntity
  8
0
  6
Continuous
 62
     7
370
     0
100
AcDbLine
 10
16.7522693496
 20
10.6379468535
 30
0.0
 11
16.7205310667
 21
10.6379468535
 31
0.0
  0
LINE
  5
4CE
330
4C8
100
AcDbEntity
  8
0
  6
Continuous
 62
     7
370
     0
100
AcDbLine
 10
16.7205310667
 20
10.6379468535
 30
0.0
 11
16.7205310667
 21
10.389899971
 31
0.0
  0
LINE
  5
4CF
330
4C8
100
AcDbEntity
  8
0
  6
Continuous
 62
     7
370
     0
100
AcDbLine
 10
16.7205310667
 20
10.389899971
 30
0.0
 11
16.7522693496
 21
10.389899971
 31
0.0
  0
LINE
  5
4D0
330
4C8
100
AcDbEntity
  8
0
  6
Continuous
 62
     7
370
     0
100
AcDbLine
 10
17.2356949304
 20
10.6379468535
 30
0.0
 11
17.2674332132
 21
10.6379468535
 31
0.0
  0
LINE
  5
4D1
330
4C8
100
AcDbEntity
  8
0
  6
Continuous
 62
     7
370
     0
100
AcDbLine
 10
17.2674332132
 20
10.6379468535
 30
0.0
 11
17.2674332132
 21
10.389899971
 31
0.0
  0
LINE
  5
4D2
330
4C8
100
AcDbEntity
  8
0
  6
Continuous
 62
     7
370
     0
100
AcDbLine
 10
17.2674332132
 20
10.389899971
 30
0.0
 11
17.2356949304
 21
10.389899971
 31
0.0
  0
LINE
  5
4D3
330
4C8
100
AcDbEntity
  8
0
  6
Continuous
 62
     7
370
     0
100
AcDbLine
 10
16.1967380398
 20
10.3143511606
 30
0.0
 11
16.1967380398
 21
10.7953904314
 31
0.0
  0
LINE
  5
4D4
330
4C8
100
AcDbEntity
  8
0
  6
Continuous
 62
     7
370
     0
100
AcDbLine
 10
17.7912262287
 20
10.1560659561
 30
0.0
 11
17.7912262287
 21
10.7953904314
 31
0.0
  0
LINE
  5
4D5
330
4C8
100
AcDbEntity
  8
0
  6
Continuous
 62
     7
370
     0
100
AcDbLine
 10
16.1967380398
 20
10.6391404314
 30
0.0
 11
16.6073120627
 21
10.6391404314
 31
0.0
  0
LINE
  5
4D6
330
4C8
100
AcDbEntity
  8
0
  6
Continuous
 62
     7
370
     0
100
AcDbLine
 10
17.7912262287
 20
10.6391404314
 30
0.0
 11
17.3806522058
 21
10.6391404314
 31
0.0
  0
MTEXT
  5
4D7
330
4C8
100
AcDbEntity
  8
0
  6
Continuous
 62
     7
370
     0
100
AcDbMText
 10
16.69759541
 20
10.873489135
 30
0.4960645291
 40
0.15625
 41
0.0
 71
     1
 72
     1
  1

  7
SLDTEXTSTYLE0
 73
     1
 44
1.0
  0
MTEXT
  5
4D8
330
4C8
100
AcDbEntity
  8
0
  6
Continuous
 62
     7
370
     0
100
AcDbMText
 10
16.7284656546
 20
10.8711019707
 30
0.4960645291
 40
0.15625
 41
0.0
 71
     1
 72
     1
  1
1.59
  7
SLDTEXTSTYLE0
 73
     1
 44
1.0
  0
MTEXT
  5
4D9
330
4C8
100
AcDbEntity
  8
0
  6
Continuous
 62
     7
370
     0
100
AcDbMText
 10
16.7919422031
 20
10.5913167968
 30
0.4960645291
 40
0.15625
 41
0.0
 71
     1
 72
     1
  1
40.5
  7
SLDTEXTSTYLE0
 73
     1
 44
1.0
  0
MTEXT
  5
4DA
330
4C8
100
AcDbEntity
  8
0
  6
Continuous
 62
     7
370
     0
100
AcDbMText
 10
17.3498306753
 20
10.873489135
 30
0.4960645291
 40
0.15625
 41
0.0
 71
     1
 72
     1
  1

  7
SLDTEXTSTYLE0
 73
     1
 44
1.0
  0
ENDBLK
  5
4CA
330
4C8
100
AcDbEntity
  8
0
100
AcDbBlockEnd
  0
BLOCK
  5
50F
330
50E
100
AcDbEntity
  8
0
100
AcDbBlockBegin
  2
*D37
 70
     1
 10
0.0
 20
0.0
 30
0.0
  3
*D37
  1

  0
SOLID
  5
511
330
50E
100
AcDbEntity
  8
0
  6
Continuous
 62
     7
370
     0
100
AcDbTrace
 10
18.7787084009
 20
7.8778354125
 30
0.0
 11
18.7537084009
 21
7.7153354125
 31
0.0
 12
18.8037084009
 22
7.7153354125
 32
0.0
 13
18.8037084009
 23
7.7153354125
 33
0.0
  0
SOLID
  5
512
330
50E
100
AcDbEntity
  8
0
  6
Continuous
 62
     7
370
     0
100
AcDbTrace
 10
18.7787084009
 20
8.3502763574
 30
0.0
 11
18.8037084009
 21
8.5127763574
 31
0.0
 12
18.7537084009
 22
8.5127763574
 32
0.0
 13
18.7537084009
 23
8.5127763574
 33
0.0
  0
LINE
  5
513
330
50E
100
AcDbEntity
  8
0
  6
Continuous
 62
     7
370
     0
100
AcDbLine
 10
18.1038734453
 20
7.5702517774
 30
0.0
 11
18.0721351625
 21
7.5702517774
 31
0.0
  0
LINE
  5
514
330
50E
100
AcDbEntity
  8
0
  6
Continuous
 62
     7
370
     0
100
AcDbLine
 10
18.0721351625
 20
7.5702517774
 30
0.0
 11
18.0721351625
 21
7.322204895
 31
0.0
  0
LINE
  5
515
330
50E
100
AcDbEntity
  8
0
  6
Continuous
 62
     7
370
     0
100
AcDbLine
 10
18.0721351625
 20
7.322204895
 30
0.0
 11
18.1038734453
 21
7.322204895
 31
0.0
  0
LINE
  5
516
330
50E
100
AcDbEntity
  8
0
  6
Continuous
 62
     7
370
     0
100
AcDbLine
 10
18.4141219308
 20
7.5702517774
 30
0.0
 11
18.4458602137
 21
7.5702517774
 31
0.0
  0
LINE
  5
517
330
50E
100
AcDbEntity
  8
0
  6
Continuous
 62
     7
370
     0
100
AcDbLine
 10
18.4458602137
 20
7.5702517774
 30
0.0
 11
18.4458602137
 21
7.322204895
 31
0.0
  0
LINE
  5
518
330
50E
100
AcDbEntity
  8
0
  6
Continuous
 62
     7
370
     0
100
AcDbLine
 10
18.4458602137
 20
7.322204895
 30
0.0
 11
18.4141219308
 21
7.322204895
 31
0.0
  0
LINE
  5
519
330
50E
100
AcDbEntity
  8
0
  6
Continuous
 62
     7
370
     0
100
AcDbLine
 10
19.0436889753
 20
7.8778354125
 30
0.0
 11
18.6224584009
 21
7.8778354125
 31
0.0
  0
LINE
  5
51A
330
50E
100
AcDbEntity
  8
0
  6
Continuous
 62
     7
370
     0
100
AcDbLine
 10
19.0436889753
 20
8.3502763574
 30
0.0
 11
18.6224584009
 21
8.3502763574
 31
0.0
  0
LINE
  5
51B
330
50E
100
AcDbEntity
  8
0
  6
Continuous
 62
     7
370
     0
100
AcDbLine
 10
18.6224584009
 20
7.5714453553
 30
0.0
 11
18.7787084009
 21
7.5714453553
 31
0.0
  0
LINE
  5
51C
330
50E
100
AcDbEntity
  8
0
  6
Continuous
 62
     7
370
     0
100
AcDbLine
 10
18.7787084009
 20
7.5714453553
 30
0.0
 11
18.7787084009
 21
7.8778354125
 31
0.0
  0
LINE
  5
51D
330
50E
100
AcDbEntity
  8
0
  6
Continuous
 62
     7
370
     0
100
AcDbLine
 10
18.7787084009
 20
8.3502763574
 30
0.0
 11
18.7787084009
 21
8.6627763574
 31
0.0
  0
MTEXT
  5
51E
330
50E
100
AcDbEntity
  8
0
  6
Continuous
 62
     7
370
     0
100
AcDbMText
 10
18.0491995058
 20
7.805794059
 30
0.0039370079
 40
0.15625
 41
0.0
 71
     1
 72
     1
  1

  7
SLDTEXTSTYLE0
 73
     1
 44
1.0
  0
MTEXT
  5
51F
330
50E
100
AcDbEntity
  8
0
  6
Continuous
 62
     7
370
     0
100
AcDbMText
 10
18.0512068859
 20
7.8034068946
 30
0.0039370079
 40
0.15625
 41
0.0
 71
     1
 72
     1
  1
.47
  7
SLDTEXTSTYLE0
 73
     1
 44
1.0
  0
MTEXT
  5
520
330
50E
100
AcDbEntity
  8
0
  6
Continuous
 62
     7
370
     0
100
AcDbMText
 10
18.1435462989
 20
7.5236217207
 30
0.0039370079
 40
0.15625
 41
0.0
 71
     1
 72
     1
  1
12
  7
SLDTEXTSTYLE0
 73
     1
 44
1.0
  0
MTEXT
  5
521
330
50E
100
AcDbEntity
  8
0
  6
Continuous
 62
     7
370
     0
100
AcDbMText
 10
18.5282576758
 20
7.805794059
 30
0.0039370079
 40
0.15625
 41
0.0
 71
     1
 72
     1
  1

  7
SLDTEXTSTYLE0
 73
     1
 44
1.0
  0
ENDBLK
  5
510
330
50E
100
AcDbEntity
  8
0
100
AcDbBlockEnd
  0
BLOCK
  5
524
330
523
100
AcDbEntity
  8
0
100
AcDbBlockBegin
  2
*D38
 70
     1
 10
0.0
 20
0.0
 30
0.0
  3
*D38
  1

  0
SOLID
  5
526
330
523
100
AcDbEntity
  8
0
  6
Continuous
 62
     7
370
     0
100
AcDbTrace
 10
19.1061889753
 20
6.9484604952
 30
0.0
 11
18.9436889753
 21
6.9734604952
 31
0.0
 12
18.9436889753
 22
6.9234604952
 32
0.0
 13
18.9436889753
 23
6.9234604952
 33
0.0
  0
SOLID
  5
527
330
523
100
AcDbEntity
  8
0
  6
Continuous
 62
     7
370
     0
100
AcDbTrace
 10
19.3446357142
 20
6.9484604952
 30
0.0
 11
19.5071357142
 21
6.9234604952
 31
0.0
 12
19.5071357142
 22
6.9734604952
 32
0.0
 13
19.5071357142
 23
6.9734604952
 33
0.0
  0
LINE
  5
528
330
523
100
AcDbEntity
  8
0
  6
Continuous
 62
     7
370
     0
100
AcDbLine
 10
19.7988481071
 20
6.9472669173
 30
0.0
 11
19.7671098243
 21
6.9472669173
 31
0.0
  0
LINE
  5
529
330
523
100
AcDbEntity
  8
0
  6
Continuous
 62
     7
370
     0
100
AcDbLine
 10
19.7671098243
 20
6.9472669173
 30
0.0
 11
19.7671098243
 21
6.6992200348
 31
0.0
  0
LINE
  5
52A
330
523
100
AcDbEntity
  8
0
  6
Continuous
 62
     7
370
     0
100
AcDbLine
 10
19.7671098243
 20
6.6992200348
 30
0.0
 11
19.7988481071
 21
6.6992200348
 31
0.0
  0
LINE
  5
52B
330
523
100
AcDbEntity
  8
0
  6
Continuous
 62
     7
370
     0
100
AcDbLine
 10
20.1668222758
 20
6.9472669173
 30
0.0
 11
20.1985605586
 21
6.9472669173
 31
0.0
  0
LINE
  5
52C
330
523
100
AcDbEntity
  8
0
  6
Continuous
 62
     7
370
     0
100
AcDbLine
 10
20.1985605586
 20
6.9472669173
 30
0.0
 11
20.1985605586
 21
6.6992200348
 31
0.0
  0
LINE
  5
52D
330
523
100
AcDbEntity
  8
0
  6
Continuous
 62
     7
370
     0
100
AcDbLine
 10
20.1985605586
 20
6.6992200348
 30
0.0
 11
20.1668222758
 21
6.6992200348
 31
0.0
  0
LINE
  5
52E
330
523
100
AcDbEntity
  8
0
  6
Continuous
 62
     7
370
     0
100
AcDbLine
 10
19.1061889753
 20
7.2129732078
 30
0.0
 11
19.1061889753
 21
6.7922104952
 31
0.0
  0
LINE
  5
52F
330
523
100
AcDbEntity
  8
0
  6
Continuous
 62
     7
370
     0
100
AcDbLine
 10
19.3446357142
 20
7.8153354125
 30
0.0
 11
19.3446357142
 21
6.7922104952
 31
0.0
  0
LINE
  5
530
330
523
100
AcDbEntity
  8
0
  6
Continuous
 62
     7
370
     0
100
AcDbLine
 10
19.1061889753
 20
6.9484604952
 30
0.0
 11
18.7936889753
 21
6.9484604952
 31
0.0
  0
LINE
  5
531
330
523
100
AcDbEntity
  8
0
  6
Continuous
 62
     7
370
     0
100
AcDbLine
 10
19.3446357142
 20
6.9484604952
 30
0.0
 11
19.6538908202
 21
6.9484604952
 31
0.0
  0
MTEXT
  5
532
330
523
100
AcDbEntity
  8
0
  6
Continuous
 62
     7
370
     0
100
AcDbMText
 10
19.7441741676
 20
7.1828091988
 30
0.0039370079
 40
0.15625
 41
0.0
 71
     1
 72
     1
  1

  7
SLDTEXTSTYLE0
 73
     1
 44
1.0
  0
MTEXT
  5
533
330
523
100
AcDbEntity
  8
0
  6
Continuous
 62
     7
370
     0
100
AcDbMText
 10
19.7750443893
 20
7.1804220345
 30
0.0039370079
 40
0.15625
 41
0.0
 71
     1
 72
     1
  1
.24
  7
SLDTEXTSTYLE0
 73
     1
 44
1.0
  0
MTEXT
  5
534
330
523
100
AcDbEntity
  8
0
  6
Continuous
 62
     7
370
     0
100
AcDbMText
 10
19.8385209607
 20
6.9006368606
 30
0.0039370079
 40
0.15625
 41
0.0
 71
     1
 72
     1
  1
6.1
  7
SLDTEXTSTYLE0
 73
     1
 44
1.0
  0
MTEXT
  5
535
330
523
100
AcDbEntity
  8
0
  6
Continuous
 62
     7
370
     0
100
AcDbMText
 10
20.2809580208
 20
7.1828091988
 30
0.0039370079
 40
0.15625
 41
0.0
 71
     1
 72
     1
  1

  7
SLDTEXTSTYLE0
 73
     1
 44
1.0
  0
ENDBLK
  5
525
330
523
100
AcDbEntity
  8
0
100
AcDbBlockEnd
  0
BLOCK
  5
539
330
538
100
AcDbEntity
  8
0
100
AcDbBlockBegin
  2
*D39
 70
     1
 10
0.0
 20
0.0
 30
0.0
  3
*D39
  1

  0
SOLID
  5
53B
330
538
100
AcDbEntity
  8
0
  6
Continuous
 62
     7
370
     0
100
AcDbTrace
 10
18.4179213493
 20
8.114055885
 30
0.0
 11
18.4429213493
 21
8.276555885
 31
0.0
 12
18.3929213493
 22
8.276555885
 32
0.0
 13
18.3929213493
 23
8.276555885
 33
0.0
  0
SOLID
  5
53C
330
538
100
AcDbEntity
  8
0
  6
Continuous
 62
     7
370
     0
100
AcDbTrace
 10
18.4179213493
 20
9.6101188771
 30
0.0
 11
18.3929213493
 21
9.4476188771
 31
0.0
 12
18.4429213493
 22
9.4476188771
 32
0.0
 13
18.4429213493
 23
9.4476188771
 33
0.0
  0
LINE
  5
53D
330
538
100
AcDbEntity
  8
0
  6
Continuous
 62
     7
370
     0
100
AcDbLine
 10
18.2627971122
 20
8.8608938032
 30
0.0
 11
18.2310588294
 21
8.8608938032
 31
0.0
  0
LINE
  5
53E
330
538
100
AcDbEntity
  8
0
  6
Continuous
 62
     7
370
     0
100
AcDbLine
 10
18.2310588294
 20
8.8608938032
 30
0.0
 11
18.2310588294
 21
8.6128469207
 31
0.0
  0
LINE
  5
53F
330
538
100
AcDbEntity
  8
0
  6
Continuous
 62
     7
370
     0
100
AcDbLine
 10
18.2310588294
 20
8.6128469207
 30
0.0
 11
18.2627971122
 21
8.6128469207
 31
0.0
  0
LINE
  5
540
330
538
100
AcDbEntity
  8
0
  6
Continuous
 62
     7
370
     0
100
AcDbLine
 10
18.5730455977
 20
8.8608938032
 30
0.0
 11
18.6047838806
 21
8.8608938032
 31
0.0
  0
LINE
  5
541
330
538
100
AcDbEntity
  8
0
  6
Continuous
 62
     7
370
     0
100
AcDbLine
 10
18.6047838806
 20
8.8608938032
 30
0.0
 11
18.6047838806
 21
8.6128469207
 31
0.0
  0
LINE
  5
542
330
538
100
AcDbEntity
  8
0
  6
Continuous
 62
     7
370
     0
100
AcDbLine
 10
18.6047838806
 20
8.6128469207
 30
0.0
 11
18.5730455977
 21
8.6128469207
 31
0.0
  0
LINE
  5
543
330
538
100
AcDbEntity
  8
0
  6
Continuous
 62
     7
370
     0
100
AcDbLine
 10
18.7311889753
 20
8.114055885
 30
0.0
 11
18.2616713493
 21
8.114055885
 31
0.0
  0
LINE
  5
544
330
538
100
AcDbEntity
  8
0
  6
Continuous
 62
     7
370
     0
100
AcDbLine
 10
18.7311889753
 20
9.6101188771
 30
0.0
 11
18.2616713493
 21
9.6101188771
 31
0.0
  0
LINE
  5
545
330
538
100
AcDbEntity
  8
0
  6
Continuous
 62
     7
370
     0
100
AcDbLine
 10
18.4179213493
 20
8.114055885
 30
0.0
 11
18.4179213493
 21
8.5811086207
 31
0.0
  0
LINE
  5
546
330
538
100
AcDbEntity
  8
0
  6
Continuous
 62
     7
370
     0
100
AcDbLine
 10
18.4179213493
 20
9.6101188771
 30
0.0
 11
18.4179213493
 21
9.1430661414
 31
0.0
  0
MTEXT
  5
547
330
538
100
AcDbEntity
  8
0
  6
Continuous
 62
     7
370
     0
100
AcDbMText
 10
18.1532729251
 20
9.0964360847
 30
0.0039370079
 40
0.15625
 41
0.0
 71
     1
 72
     1
  1

  7
SLDTEXTSTYLE0
 73
     1
 44
1.0
  0
MTEXT
  5
548
330
538
100
AcDbEntity
  8
0
  6
Continuous
 62
     7
370
     0
100
AcDbMText
 10
18.1524048697
 20
9.0940489203
 30
0.0039370079
 40
0.15625
 41
0.0
 71
     1
 72
     1
  1
1.50
  7
SLDTEXTSTYLE0
 73
     1
 44
1.0
  0
MTEXT
  5
549
330
538
100
AcDbEntity
  8
0
  6
Continuous
 62
     7
370
     0
100
AcDbMText
 10
18.3024699658
 20
8.8142637464
 30
0.0039370079
 40
0.15625
 41
0.0
 71
     1
 72
     1
  1
38
  7
SLDTEXTSTYLE0
 73
     1
 44
1.0
  0
MTEXT
  5
54A
330
538
100
AcDbEntity
  8
0
  6
Continuous
 62
     7
370
     0
100
AcDbMText
 10
18.7420315903
 20
9.0964360847
 30
0.0039370079
 40
0.15625
 41
0.0
 71
     1
 72
     1
  1

  7
SLDTEXTSTYLE0
 73
     1
 44
1.0
  0
ENDBLK
  5
53A
330
538
100
AcDbEntity
  8
0
100
AcDbBlockEnd
  0
BLOCK
  5
54C
330
54B
100
AcDbEntity
  8
0
100
AcDbBlockBegin
  2
SW_NOTE_5
 70
     0
 10
0.0
 20
0.0
 30
0.0
  3
SW_NOTE_5
  1

  0
MTEXT
  5
54E
330
54B
100
AcDbEntity
  8
0
  6
Continuous
 62
     0
370
     0
100
AcDbMText
 10
0.02468992
 20
0.0758022203
 30
0.0
 40
0.15625
 41
0.0
 71
     1
 72
     1
  1
CABLE OUTLET
  7
SLDTEXTSTYLE0
 73
     1
 44
1.0
  0
MTEXT
  5
54F
330
54B
100
AcDbEntity
  8
0
  6
Continuous
 62
     0
370
     0
100
AcDbMText
 10
0.02468992
 20
-0.1296603728
 30
0.0
 40
0.15625
 41
0.0
 71
     1
 72
     1
  1
MAY BE EASILY
  7
SLDTEXTSTYLE0
 73
     1
 44
1.0
  0
MTEXT
  5
550
330
54B
100
AcDbEntity
  8
0
  6
Continuous
 62
     0
370
     0
100
AcDbMText
 10
0.02468992
 20
-0.335122966
 30
0.0
 40
0.15625
 41
0.0
 71
     1
 72
     1
  1
CUT OPEN
  7
SLDTEXTSTYLE0
 73
     1
 44
1.0
  0
ENDBLK
  5
54D
330
54B
100
AcDbEntity
  8
0
100
AcDbBlockEnd
  0
BLOCK
  5
554
330
553
100
AcDbEntity
  8
0
100
AcDbBlockBegin
  2
_DOT
 70
     0
 10
0.0
 20
0.0
 30
0.0
  3
_DOT
  1

  0
POLYLINE
  5
556
330
553
100
AcDbEntity
  8
0
  6
ByBlock
 62
     0
100
AcDb2dPolyline
 66
     1
 10
0.0
 20
0.0
 30
0.0
 70
     1
 40
0.5
 41
0.5
  0
VERTEX
  5
558
330
556
100
AcDbEntity
  8
0
  6
ByBlock
 62
     0
100
AcDbVertex
100
AcDb2dVertex
 10
-0.25
 20
0.0
 30
0.0
 42
1.0
  0
VERTEX
  5
559
330
556
100
AcDbEntity
  8
0
  6
ByBlock
 62
     0
100
AcDbVertex
100
AcDb2dVertex
 10
0.25
 20
0.0
 30
0.0
 42
1.0
  0
SEQEND
  5
55A
330
556
100
AcDbEntity
  8
0
  6
ByBlock
 62
     0
  0
LINE
  5
557
330
553
100
AcDbEntity
  8
0
  6
ByBlock
 62
     0
370
    -2
100
AcDbLine
 10
-0.5
 20
0.0
 30
0.0
 11
-1.0
 21
0.0
 31
0.0
  0
ENDBLK
  5
555
330
553
100
AcDbEntity
  8
0
100
AcDbBlockEnd
  0
BLOCK
  5
5A8
330
5A7
100
AcDbEntity
  8
0
100
AcDbBlockBegin
  2
*D42
 70
     1
 10
0.0
 20
0.0
 30
0.0
  3
*D42
  1

  0
SOLID
  5
5AA
330
5A7
100
AcDbEntity
  8
0
  6
Continuous
 62
     7
370
     0
100
AcDbTrace
 10
3.1905081844
 20
1.8412723474
 30
0.0
 11
3.1655081844
 21
1.6787723474
 31
0.0
 12
3.2155081844
 22
1.6787723474
 32
0.0
 13
3.2155081844
 23
1.6787723474
 33
0.0
  0
SOLID
  5
5AB
330
5A7
100
AcDbEntity
  8
0
  6
Continuous
 62
     7
370
     0
100
AcDbTrace
 10
3.1905081844
 20
2.3727684104
 30
0.0
 11
3.2155081844
 21
2.5352684104
 31
0.0
 12
3.1655081844
 22
2.5352684104
 32
0.0
 13
3.1655081844
 23
2.5352684104
 33
0.0
  0
LINE
  5
5AC
330
5A7
100
AcDbEntity
  8
0
  6
Continuous
 62
     7
370
     0
100
AcDbLine
 10
2.9487953997
 20
2.105826801
 30
0.0
 11
2.9170571169
 21
2.105826801
 31
0.0
  0
LINE
  5
5AD
330
5A7
100
AcDbEntity
  8
0
  6
Continuous
 62
     7
370
     0
100
AcDbLine
 10
2.9170571169
 20
2.105826801
 30
0.0
 11
2.9170571169
 21
1.8577799186
 31
0.0
  0
LINE
  5
5AE
330
5A7
100
AcDbEntity
  8
0
  6
Continuous
 62
     7
370
     0
100
AcDbLine
 10
2.9170571169
 20
1.8577799186
 30
0.0
 11
2.9487953997
 21
1.8577799186
 31
0.0
  0
LINE
  5
5AF
330
5A7
100
AcDbEntity
  8
0
  6
Continuous
 62
     7
370
     0
100
AcDbLine
 10
3.4322209805
 20
2.105826801
 30
0.0
 11
3.4639592634
 21
2.105826801
 31
0.0
  0
LINE
  5
5B0
330
5A7
100
AcDbEntity
  8
0
  6
Continuous
 62
     7
370
     0
100
AcDbLine
 10
3.4639592634
 20
2.105826801
 30
0.0
 11
3.4639592634
 21
1.8577799186
 31
0.0
  0
LINE
  5
5B1
330
5A7
100
AcDbEntity
  8
0
  6
Continuous
 62
     7
370
     0
100
AcDbLine
 10
3.4639592634
 20
1.8577799186
 30
0.0
 11
3.4322209805
 21
1.8577799186
 31
0.0
  0
LINE
  5
5B2
330
5A7
100
AcDbEntity
  8
0
  6
Continuous
 62
     7
370
     0
100
AcDbLine
 10
4.3480734596
 20
1.8412723474
 30
0.0
 11
3.0342581844
 21
1.8412723474
 31
0.0
  0
LINE
  5
5B3
330
5A7
100
AcDbEntity
  8
0
  6
Continuous
 62
     7
370
     0
100
AcDbLine
 10
4.040562052
 20
2.3727684104
 30
0.0
 11
3.0342581844
 21
2.3727684104
 31
0.0
  0
LINE
  5
5B4
330
5A7
100
AcDbEntity
  8
0
  6
Continuous
 62
     7
370
     0
100
AcDbLine
 10
3.1905081844
 20
1.8412723474
 30
0.0
 11
3.1905081844
 21
1.5287723474
 31
0.0
  0
LINE
  5
5B5
330
5A7
100
AcDbEntity
  8
0
  6
Continuous
 62
     7
370
     0
100
AcDbLine
 10
3.1905081844
 20
2.3727684104
 30
0.0
 11
3.1905081844
 21
2.6852684104
 31
0.0
  0
MTEXT
  5
5B6
330
5A7
100
AcDbEntity
  8
0
  6
Continuous
 62
     7
370
     0
100
AcDbMText
 10
2.8941214602
 20
2.3413690826
 30
0.3576051271
 40
0.15625
 41
0.0
 71
     1
 72
     1
  1

  7
SLDTEXTSTYLE0
 73
     1
 44
1.0
  0
MTEXT
  5
5B7
330
5A7
100
AcDbEntity
  8
0
  6
Continuous
 62
     7
370
     0
100
AcDbMText
 10
2.9827173879
 20
2.3389819182
 30
0.3576051271
 40
0.15625
 41
0.0
 71
     1
 72
     1
  1
.53
  7
SLDTEXTSTYLE0
 73
     1
 44
1.0
  0
MTEXT
  5
5B8
330
5A7
100
AcDbEntity
  8
0
  6
Continuous
 62
     7
370
     0
100
AcDbMText
 10
2.9884682533
 20
2.0591967443
 30
0.3576051271
 40
0.15625
 41
0.0
 71
     1
 72
     1
  1
13.5
  7
SLDTEXTSTYLE0
 73
     1
 44
1.0
  0
MTEXT
  5
5B9
330
5A7
100
AcDbEntity
  8
0
  6
Continuous
 62
     7
370
     0
100
AcDbMText
 10
3.5463567255
 20
2.3413690826
 30
0.3576051271
 40
0.15625
 41
0.0
 71
     1
 72
     1
  1

  7
SLDTEXTSTYLE0
 73
     1
 44
1.0
  0
ENDBLK
  5
5A9
330
5A7
100
AcDbEntity
  8
0
100
AcDbBlockEnd
  0
BLOCK
  5
5BC
330
5BB
100
AcDbEntity
  8
0
100
AcDbBlockBegin
  2
*D43
 70
     1
 10
0.0
 20
0.0
 30
0.0
  3
*D43
  1

  0
SOLID
  5
5BE
330
5BB
100
AcDbEntity
  8
0
  6
Continuous
 62
     7
370
     0
100
AcDbTrace
 10
8.0410116204
 20
1.6444219537
 30
0.0
 11
8.0160116204
 21
1.4819219537
 31
0.0
 12
8.0660116204
 22
1.4819219537
 32
0.0
 13
8.0660116204
 23
1.4819219537
 33
0.0
  0
SOLID
  5
5BF
330
5BB
100
AcDbEntity
  8
0
  6
Continuous
 62
     7
370
     0
100
AcDbTrace
 10
8.0410116204
 20
2.3727684104
 30
0.0
 11
8.0660116204
 21
2.5352684104
 31
0.0
 12
8.0160116204
 22
2.5352684104
 32
0.0
 13
8.0160116204
 23
2.5352684104
 33
0.0
  0
LINE
  5
5C0
330
5BB
100
AcDbEntity
  8
0
  6
Continuous
 62
     7
370
     0
100
AcDbLine
 10
7.7992988357
 20
2.0074016042
 30
0.0
 11
7.7675605529
 21
2.0074016042
 31
0.0
  0
LINE
  5
5C1
330
5BB
100
AcDbEntity
  8
0
  6
Continuous
 62
     7
370
     0
100
AcDbLine
 10
7.7675605529
 20
2.0074016042
 30
0.0
 11
7.7675605529
 21
1.7593547217
 31
0.0
  0
LINE
  5
5C2
330
5BB
100
AcDbEntity
  8
0
  6
Continuous
 62
     7
370
     0
100
AcDbLine
 10
7.7675605529
 20
1.7593547217
 30
0.0
 11
7.7992988357
 21
1.7593547217
 31
0.0
  0
LINE
  5
5C3
330
5BB
100
AcDbEntity
  8
0
  6
Continuous
 62
     7
370
     0
100
AcDbLine
 10
8.2827244165
 20
2.0074016042
 30
0.0
 11
8.3144626994
 21
2.0074016042
 31
0.0
  0
LINE
  5
5C4
330
5BB
100
AcDbEntity
  8
0
  6
Continuous
 62
     7
370
     0
100
AcDbLine
 10
8.3144626994
 20
2.0074016042
 30
0.0
 11
8.3144626994
 21
1.7593547217
 31
0.0
  0
LINE
  5
5C5
330
5BB
100
AcDbEntity
  8
0
  6
Continuous
 62
     7
370
     0
100
AcDbLine
 10
8.3144626994
 20
1.7593547217
 30
0.0
 11
8.2827244165
 21
1.7593547217
 31
0.0
  0
LINE
  5
5C6
330
5BB
100
AcDbEntity
  8
0
  6
Continuous
 62
     7
370
     0
100
AcDbLine
 10
7.1037689844
 20
1.6444219537
 30
0.0
 11
8.1972616204
 21
1.6444219537
 31
0.0
  0
LINE
  5
5C7
330
5BB
100
AcDbEntity
  8
0
  6
Continuous
 62
     7
370
     0
100
AcDbLine
 10
7.09654744
 20
2.3727684104
 30
0.0
 11
8.1972616204
 21
2.3727684104
 31
0.0
  0
LINE
  5
5C8
330
5BB
100
AcDbEntity
  8
0
  6
Continuous
 62
     7
370
     0
100
AcDbLine
 10
8.0410116204
 20
1.6444219537
 30
0.0
 11
8.0410116204
 21
1.3319219537
 31
0.0
  0
LINE
  5
5C9
330
5BB
100
AcDbEntity
  8
0
  6
Continuous
 62
     7
370
     0
100
AcDbLine
 10
8.0410116204
 20
2.3727684104
 30
0.0
 11
8.0410116204
 21
2.6852684104
 31
0.0
  0
MTEXT
  5
5CA
330
5BB
100
AcDbEntity
  8
0
  6
Continuous
 62
     7
370
     0
100
AcDbMText
 10
7.7446248962
 20
2.2429438857
 30
0.3576051271
 40
0.15625
 41
0.0
 71
     1
 72
     1
  1

  7
SLDTEXTSTYLE0
 73
     1
 44
1.0
  0
MTEXT
  5
5CB
330
5BB
100
AcDbEntity
  8
0
  6
Continuous
 62
     7
370
     0
100
AcDbMText
 10
7.8332208239
 20
2.2405567214
 30
0.3576051271
 40
0.15625
 41
0.0
 71
     1
 72
     1
  1
.73
  7
SLDTEXTSTYLE0
 73
     1
 44
1.0
  0
MTEXT
  5
5CC
330
5BB
100
AcDbEntity
  8
0
  6
Continuous
 62
     7
370
     0
100
AcDbMText
 10
7.8389716893
 20
1.9607715475
 30
0.3576051271
 40
0.15625
 41
0.0
 71
     1
 72
     1
  1
18.5
  7
SLDTEXTSTYLE0
 73
     1
 44
1.0
  0
MTEXT
  5
5CD
330
5BB
100
AcDbEntity
  8
0
  6
Continuous
 62
     7
370
     0
100
AcDbMText
 10
8.3968601615
 20
2.2429438857
 30
0.3576051271
 40
0.15625
 41
0.0
 71
     1
 72
     1
  1

  7
SLDTEXTSTYLE0
 73
     1
 44
1.0
  0
ENDBLK
  5
5BD
330
5BB
100
AcDbEntity
  8
0
100
AcDbBlockEnd
  0
BLOCK
  5
5D0
330
5CF
100
AcDbEntity
  8
0
100
AcDbBlockBegin
  2
*D44
 70
     1
 10
0.0
 20
0.0
 30
0.0
  3
*D44
  1

  0
SOLID
  5
5D2
330
5CF
100
AcDbEntity
  8
0
  6
Continuous
 62
     7
370
     0
100
AcDbTrace
 10
8.7745361977
 20
1.5459967569
 30
0.0
 11
8.7495361977
 21
1.3834967569
 31
0.0
 12
8.7995361977
 22
1.3834967569
 32
0.0
 13
8.7995361977
 23
1.3834967569
 33
0.0
  0
SOLID
  5
5D3
330
5CF
100
AcDbEntity
  8
0
  6
Continuous
 62
     7
370
     0
100
AcDbTrace
 10
8.7745361977
 20
2.4711936073
 30
0.0
 11
8.7995361977
 21
2.6336936073
 31
0.0
 12
8.7495361977
 22
2.6336936073
 32
0.0
 13
8.7495361977
 23
2.6336936073
 33
0.0
  0
LINE
  5
5D4
330
5CF
100
AcDbEntity
  8
0
  6
Continuous
 62
     7
370
     0
100
AcDbLine
 10
8.532823413
 20
2.0074016042
 30
0.0
 11
8.5010851302
 21
2.0074016042
 31
0.0
  0
LINE
  5
5D5
330
5CF
100
AcDbEntity
  8
0
  6
Continuous
 62
     7
370
     0
100
AcDbLine
 10
8.5010851302
 20
2.0074016042
 30
0.0
 11
8.5010851302
 21
1.7593547217
 31
0.0
  0
LINE
  5
5D6
330
5CF
100
AcDbEntity
  8
0
  6
Continuous
 62
     7
370
     0
100
AcDbLine
 10
8.5010851302
 20
1.7593547217
 30
0.0
 11
8.532823413
 21
1.7593547217
 31
0.0
  0
LINE
  5
5D7
330
5CF
100
AcDbEntity
  8
0
  6
Continuous
 62
     7
370
     0
100
AcDbLine
 10
9.0162489938
 20
2.0074016042
 30
0.0
 11
9.0479872767
 21
2.0074016042
 31
0.0
  0
LINE
  5
5D8
330
5CF
100
AcDbEntity
  8
0
  6
Continuous
 62
     7
370
     0
100
AcDbLine
 10
9.0479872767
 20
2.0074016042
 30
0.0
 11
9.0479872767
 21
1.7593547217
 31
0.0
  0
LINE
  5
5D9
330
5CF
100
AcDbEntity
  8
0
  6
Continuous
 62
     7
370
     0
100
AcDbLine
 10
9.0479872767
 20
1.7593547217
 30
0.0
 11
9.0162489938
 21
1.7593547217
 31
0.0
  0
LINE
  5
5DA
330
5CF
100
AcDbEntity
  8
0
  6
Continuous
 62
     7
370
     0
100
AcDbLine
 10
7.6113697067
 20
1.5459967569
 30
0.0
 11
8.9307861977
 21
1.5459967569
 31
0.0
  0
LINE
  5
5DB
330
5CF
100
AcDbEntity
  8
0
  6
Continuous
 62
     7
370
     0
100
AcDbLine
 10
7.1406425576
 20
2.4711936073
 30
0.0
 11
8.9307861977
 21
2.4711936073
 31
0.0
  0
LINE
  5
5DC
330
5CF
100
AcDbEntity
  8
0
  6
Continuous
 62
     7
370
     0
100
AcDbLine
 10
8.7745361977
 20
1.5459967569
 30
0.0
 11
8.7745361977
 21
1.2334967569
 31
0.0
  0
LINE
  5
5DD
330
5CF
100
AcDbEntity
  8
0
  6
Continuous
 62
     7
370
     0
100
AcDbLine
 10
8.7745361977
 20
2.4711936073
 30
0.0
 11
8.7745361977
 21
2.7836936073
 31
0.0
  0
MTEXT
  5
5DE
330
5CF
100
AcDbEntity
  8
0
  6
Continuous
 62
     7
370
     0
100
AcDbMText
 10
8.4781494735
 20
2.2429438857
 30
0.3576051271
 40
0.15625
 41
0.0
 71
     1
 72
     1
  1

  7
SLDTEXTSTYLE0
 73
     1
 44
1.0
  0
MTEXT
  5
5DF
330
5CF
100
AcDbEntity
  8
0
  6
Continuous
 62
     7
370
     0
100
AcDbMText
 10
8.5667454012
 20
2.2405567214
 30
0.3576051271
 40
0.15625
 41
0.0
 71
     1
 72
     1
  1
.93
  7
SLDTEXTSTYLE0
 73
     1
 44
1.0
  0
MTEXT
  5
5E0
330
5CF
100
AcDbEntity
  8
0
  6
Continuous
 62
     7
370
     0
100
AcDbMText
 10
8.5724962666
 20
1.9607715475
 30
0.3576051271
 40
0.15625
 41
0.0
 71
     1
 72
     1
  1
23.5
  7
SLDTEXTSTYLE0
 73
     1
 44
1.0
  0
MTEXT
  5
5E1
330
5CF
100
AcDbEntity
  8
0
  6
Continuous
 62
     7
370
     0
100
AcDbMText
 10
9.1303847388
 20
2.2429438857
 30
0.3576051271
 40
0.15625
 41
0.0
 71
     1
 72
     1
  1

  7
SLDTEXTSTYLE0
 73
     1
 44
1.0
  0
ENDBLK
  5
5D1
330
5CF
100
AcDbEntity
  8
0
100
AcDbBlockEnd
  0
ENDSEC
  0
SECTION
  2
ENTITIES
  0
LINE
  5
44
330
1F
100
AcDbEntity
  8
0
  6
Continuous
 62
     7
370
     0
100
AcDbLine
 10
0.3915645058
 20
13.3813414634
 30
0.0
 11
20.8615645058
 21
13.3813414634
 31
0.0
  0
LINE
  5
45
330
1F
100
AcDbEntity
  8
0
  6
Continuous
 62
     7
370
     0
100
AcDbLine
 10
20.8615645058
 20
0.4113414634
 30
0.0
 11
20.8615645058
 21
13.3813414634
 31
0.0
  0
LINE
  5
46
330
1F
100
AcDbEntity
  8
0
  6
Continuous
 62
     7
370
     0
100
AcDbLine
 10
20.8615645058
 20
0.4113414634
 30
0.0
 11
0.3915645058
 21
0.4113414634
 31
0.0
  0
LINE
  5
47
330
1F
100
AcDbEntity
  8
0
  6
Continuous
 62
     7
370
     0
100
AcDbLine
 10
0.3915645058
 20
13.3813414634
 30
0.0
 11
0.3915645058
 21
0.4113414634
 31
0.0
  0
LINE
  5
48
330
1F
100
AcDbEntity
  8
0
  6
Continuous
 62
     7
370
     0
100
AcDbLine
 10
0.3140645058
 20
13.4588414634
 30
0.0
 11
20.9390645058
 21
13.4588414634
 31
0.0
  0
LINE
  5
49
330
1F
100
AcDbEntity
  8
0
  6
Continuous
 62
     7
370
     0
100
AcDbLine
 10
20.9390645058
 20
0.3338414634
 30
0.0
 11
0.3140645058
 21
0.3338414634
 31
0.0
  0
LINE
  5
4A
330
1F
100
AcDbEntity
  8
0
  6
Continuous
 62
     7
370
     0
100
AcDbLine
 10
0.3140645058
 20
13.4588414634
 30
0.0
 11
0.3140645058
 21
0.3338414634
 31
0.0
  0
LINE
  5
4B
330
1F
100
AcDbEntity
  8
0
  6
Continuous
 62
     7
370
     0
100
AcDbLine
 10
20.9390645058
 20
0.3338414634
 30
0.0
 11
20.9390645058
 21
13.4588414634
 31
0.0
  0
LINE
  5
4C
330
1F
100
AcDbEntity
  8
0
  6
Continuous
 62
     7
370
     0
100
AcDbLine
 10
0.3915645058
 20
12.8738414634
 30
0.0
 11
20.8615645058
 21
12.8738414634
 31
0.0
  0
LINE
  5
4D
330
1F
100
AcDbEntity
  8
0
  6
Continuous
 62
     7
370
     0
100
AcDbLine
 10
2.3046490259
 20
13.3813414634
 30
0.0
 11
2.3046490259
 21
12.8738414634
 31
0.0
  0
LINE
  5
4E
330
1F
100
AcDbEntity
  8
0
  6
Continuous
 62
     7
370
     0
100
AcDbLine
 10
1.3885398546
 20
13.3813414634
 30
0.0
 11
1.3885398546
 21
12.8738414634
 31
0.0
  0
LINE
  5
4F
330
1F
100
AcDbEntity
  8
0
  6
Continuous
 62
     7
370
     0
100
AcDbLine
 10
19.2990645058
 20
12.8738414634
 30
0.0
 11
19.2990645058
 21
13.3813414634
 31
0.0
  0
LINE
  5
50
330
1F
100
AcDbEntity
  8
0
  6
Continuous
 62
     7
370
     0
100
AcDbLine
 10
18.3615645058
 20
12.8738414634
 30
0.0
 11
18.3615645058
 21
13.3813414634
 31
0.0
  0
LINE
  5
51
330
1F
100
AcDbEntity
  8
0
  6
Continuous
 62
     7
370
     0
100
AcDbLine
 10
18.2840645058
 20
12.8738414634
 30
0.0
 11
18.2840645058
 21
13.3813414634
 31
0.0
  0
LINE
  5
52
330
1F
100
AcDbEntity
  8
0
  6
Continuous
 62
     7
370
     0
100
AcDbLine
 10
0.5595973965
 20
12.9702001448
 30
0.0
 11
0.5595973965
 21
13.3021185874
 31
0.0
  0
LINE
  5
53
330
1F
100
AcDbEntity
  8
0
  6
Continuous
 62
     7
370
     0
100
AcDbLine
 10
0.7907289304
 20
12.9909450474
 30
0.0
 11
0.7907289304
 21
13.3021185874
 31
0.0
  0
LINE
  5
54
330
1F
100
AcDbEntity
  8
0
  6
Continuous
 62
     7
370
     0
100
AcDbLine
 10
0.8802923998
 20
13.0243549411
 30
0.0
 11
0.8802923998
 21
13.3021185874
 31
0.0
  0
LINE
  5
55
330
1F
100
AcDbEntity
  8
0
  6
Continuous
 62
     7
370
     0
100
AcDbLine
 10
0.8514009581
 20
13.0243549411
 30
0.0
 11
0.8514009581
 21
13.3021185874
 31
0.0
  0
LINE
  5
56
330
1F
100
AcDbEntity
  8
0
  6
Continuous
 62
     7
370
     0
100
AcDbLine
 10
1.0088526519
 20
12.9702001448
 30
0.0
 11
1.0088526519
 21
13.3021185874
 31
0.0
  0
LINE
  5
57
330
1F
100
AcDbEntity
  8
0
  6
Continuous
 62
     7
370
     0
100
AcDbLine
 10
0.9409644274
 20
12.9909450474
 30
0.0
 11
0.9409644274
 21
13.3021185874
 31
0.0
  0
LINE
  5
58
330
1F
100
AcDbEntity
  8
0
  6
Continuous
 62
     7
370
     0
100
AcDbLine
 10
0.8114738331
 20
12.9702001448
 30
0.0
 11
0.9202195248
 21
12.9702001448
 31
0.0
  0
LINE
  5
59
330
1F
100
AcDbEntity
  8
0
  6
Continuous
 62
     7
370
     0
100
AcDbLine
 10
0.5595973965
 20
12.9702001448
 30
0.0
 11
0.6664957309
 21
12.9702001448
 31
0.0
  0
LINE
  5
5A
330
1F
100
AcDbEntity
  8
0
  6
Continuous
 62
     7
370
     0
100
AcDbLine
 10
0.6664957309
 20
13.127861405
 30
0.0
 11
0.5754876894
 21
13.127861405
 31
0.0
  0
LINE
  5
5B
330
1F
100
AcDbEntity
  8
0
  6
Continuous
 62
     7
370
     0
100
AcDbLine
 10
0.6664957309
 20
13.1444573271
 30
0.0
 11
0.5754876894
 21
13.1444573271
 31
0.0
  0
LINE
  5
5C
330
1F
100
AcDbEntity
  8
0
  6
Continuous
 62
     7
370
     0
100
AcDbLine
 10
0.5754876894
 20
13.1444573271
 30
0.0
 11
0.5754876894
 21
13.1361593661
 31
0.0
  0
LINE
  5
5D
330
1F
100
AcDbEntity
  8
0
  6
Continuous
 62
     7
370
     0
100
AcDbLine
 10
0.5754876894
 20
13.127861405
 30
0.0
 11
0.5754876894
 21
13.1361593661
 31
0.0
  0
LINE
  5
5E
330
1F
100
AcDbEntity
  8
0
  6
Continuous
 62
     7
370
     0
100
AcDbLine
 10
1.0088526519
 20
12.9702001448
 30
0.0
 11
1.0501395545
 21
12.9702001448
 31
0.0
  0
LINE
  5
5F
330
1F
100
AcDbEntity
  8
0
  6
Continuous
 62
     7
370
     0
100
AcDbLine
 10
1.1663110094
 20
13.0863715997
 30
0.0
 11
1.1663110094
 21
13.1859471325
 31
0.0
  0
LINE
  5
60
330
1F
100
AcDbEntity
  8
0
  6
Continuous
 62
     7
370
     0
100
AcDbLine
 10
1.1052630371
 20
13.127861405
 30
0.0
 11
1.1052630371
 21
13.1444573271
 31
0.0
  0
LINE
  5
61
330
1F
100
AcDbEntity
  8
0
  6
Continuous
 62
     7
370
     0
100
AcDbLine
 10
1.0536410502
 20
13.127861405
 30
0.0
 11
1.0536410502
 21
13.1444573271
 31
0.0
  0
LINE
  5
62
330
1F
100
AcDbEntity
  8
0
  6
Continuous
 62
     7
370
     0
100
AcDbLine
 10
1.1052630371
 20
13.127861405
 30
0.0
 11
1.0536410502
 21
13.127861405
 31
0.0
  0
LINE
  5
63
330
1F
100
AcDbEntity
  8
0
  6
Continuous
 62
     7
370
     0
100
AcDbLine
 10
1.1052630371
 20
13.1444573271
 30
0.0
 11
1.0536410502
 21
13.1444573271
 31
0.0
  0
LINE
  5
64
330
1F
100
AcDbEntity
  8
0
  6
Continuous
 62
     7
370
     0
100
AcDbLine
 10
0.8802923998
 20
13.3021185874
 30
0.0
 11
0.9409644274
 21
13.3021185874
 31
0.0
  0
LINE
  5
65
330
1F
100
AcDbEntity
  8
0
  6
Continuous
 62
     7
370
     0
100
AcDbLine
 10
0.5595973965
 20
13.3021185874
 30
0.0
 11
0.6664957309
 21
13.3021185874
 31
0.0
  0
LINE
  5
66
330
1F
100
AcDbEntity
  8
0
  6
Continuous
 62
     7
370
     0
100
AcDbLine
 10
0.7907289304
 20
13.3021185874
 30
0.0
 11
0.8514009581
 21
13.3021185874
 31
0.0
  0
LINE
  5
67
330
1F
100
AcDbEntity
  8
0
  6
Continuous
 62
     7
370
     0
100
AcDbLine
 10
1.0088526519
 20
13.3021185874
 30
0.0
 11
1.0501395545
 21
13.3021185874
 31
0.0
  0
LINE
  5
68
330
1F
100
AcDbEntity
  8
0
  6
Continuous
 62
     7
370
     0
100
AcDbLine
 10
1.3126250325
 20
13.3813414634
 30
0.0
 11
1.3126250325
 21
12.8738414634
 31
0.0
  0
LINE
  5
69
330
1F
100
AcDbEntity
  8
0
  6
Continuous
 62
     7
370
     0
100
AcDbLine
 10
10.4789942212
 20
12.8738414634
 30
0.0
 11
10.4789942212
 21
13.3813414634
 31
0.0
  0
LINE
  5
6A
330
1F
100
AcDbEntity
  8
0
  6
Continuous
 62
     7
370
     0
100
AcDbLine
 10
10.5564942212
 20
12.8738414634
 30
0.0
 11
10.5564942212
 21
13.3813414634
 31
0.0
  0
LINE
  5
6B
330
1F
100
AcDbEntity
  8
0
  6
Continuous
 62
     7
370
     0
100
AcDbLine
 10
11.4939942212
 20
12.8738414634
 30
0.0
 11
11.4939942212
 21
13.3813414634
 31
0.0
  0
ARC
  5
6C
330
1F
100
AcDbEntity
  8
0
  6
Continuous
 62
     7
370
     0
100
AcDbCircle
 10
0.6664957309
 20
13.2232879573
 30
0.0
 40
0.0788306301232229
100
AcDbArc
 50
270.0
 51
90.0
  0
ARC
  5
6D
330
1F
100
AcDbEntity
  8
0
  6
Continuous
 62
     7
370
     0
100
AcDbCircle
 10
1.0501395545
 20
13.1859471325
 30
0.0
 40
0.1161714549184332
100
AcDbArc
 50
0.0
 51
90.0
  0
ARC
  5
6E
330
1F
100
AcDbEntity
  8
0
  6
Continuous
 62
     7
370
     0
100
AcDbCircle
 10
0.6664957309
 20
13.0490307749
 30
0.0
 40
0.0788306301232229
100
AcDbArc
 50
270.0
 51
90.0
  0
ARC
  5
6F
330
1F
100
AcDbEntity
  8
0
  6
Continuous
 62
     7
370
     0
100
AcDbCircle
 10
0.8114738331
 20
12.9909450474
 30
0.0
 40
0.0207449026640117
100
AcDbArc
 50
180.0
 51
270.0
  0
ARC
  5
70
330
1F
100
AcDbEntity
  8
0
  6
Continuous
 62
     7
370
     0
100
AcDbCircle
 10
0.8636964777
 20
13.0243549411
 30
0.0
 40
0.0165959221312002
100
AcDbArc
 50
277.4442840975
 51
0.0
  0
ARC
  5
71
330
1F
100
AcDbEntity
  8
0
  6
Continuous
 62
     7
370
     0
100
AcDbCircle
 10
0.8679968802
 20
13.0243549411
 30
0.0
 40
0.0165959221312139
100
AcDbArc
 50
180.0
 51
262.5557159021
  0
ARC
  5
72
330
1F
100
AcDbEntity
  8
0
  6
Continuous
 62
     7
370
     0
100
AcDbCircle
 10
1.0501395545
 20
13.0863715997
 30
0.0
 40
0.1161714549184332
100
AcDbArc
 50
270.0
 51
0.0
  0
ARC
  5
73
330
1F
100
AcDbEntity
  8
0
  6
Continuous
 62
     7
370
     0
100
AcDbCircle
 10
0.9202195248
 20
12.9909450474
 30
0.0
 40
0.0207449026640063
100
AcDbArc
 50
270.0
 51
0.0
  0
INSERT
  5
7E
330
1F
100
AcDbEntity
  8
0
  6
Continuous
 62
     7
370
     0
100
AcDbBlockReference
  2
SW_NOTE_0
 10
10.9622902685
 20
3.3280105555
 30
0.0
  0
MTEXT
  5
7F
330
1F
100
AcDbEntity
  8
0
  6
Continuous
 62
     7
370
     0
100
AcDbMText
 10
20.0910916332
 20
13.2616454301
 30
0.0
 40
0.234375
 41
0.0
 71
     2
 72
     1
  1
10-7-14
  7
SLDTEXTSTYLE0
 73
     1
 44
1.0
  0
MTEXT
  5
80
330
1F
100
AcDbEntity
  8
0
  6
Continuous
 62
     7
370
     0
100
AcDbMText
 10
6.1511782585
 20
13.2497198114
 30
0.0
 40
0.234375
 41
0.0
 71
     2
 72
     1
  1
SNAP UTILITY BOX
  7
SLDTEXTSTYLE0
 73
     1
 44
1.0
  0
MTEXT
  5
82
330
1F
100
AcDbEntity
  8
0
  6
Continuous
 62
     7
370
     0
100
AcDbMText
 10
14.8171028571
 20
13.2616454416
 30
0.0
 40
0.234375
 41
0.0
 71
     2
 72
     1
  1
CU-18430-B     CU-18430-W
  7
SLDTEXTSTYLE1
 73
     1
 44
1.0
  0
INSERT
  5
88
330
1F
100
AcDbEntity
  8
0
  6
Continuous
 62
     7
370
     0
100
AcDbBlockReference
  2
SW_NOTE_1
 10
1.5855426558
 20
13.1326727946
 30
0.0
  0
INSERT
  5
8E
330
1F
100
AcDbEntity
  8
0
  6
Continuous
 62
     7
370
     0
100
AcDbBlockReference
  2
SW_NOTE_2
 10
10.8048081537
 20
13.1234848169
 30
0.0
  0
INSERT
  5
94
330
1F
100
AcDbEntity
  8
0
  6
Continuous
 62
     7
370
     0
100
AcDbBlockReference
  2
SW_NOTE_3
 10
18.3857982843
 20
13.1292294091
 30
0.0
  0
LINE
  5
95
330
1F
100
AcDbEntity
  8
0
  6
Continuous
 62
     7
370
    15
100
AcDbLine
 10
4.037058718
 20
7.3542133601
 30
0.0
 11
4.037058718
 21
10.3699614019
 31
0.0
  0
ARC
  5
96
330
1F
100
AcDbEntity
  8
0
  6
Continuous
 62
     7
370
    15
100
AcDbCircle
 10
4.0724917539
 20
7.3542133653
 30
0.0
 40
0.0354330708661417
100
AcDbArc
 50
180.0
 51
270.0
  0
LINE
  5
97
330
1F
100
AcDbEntity
  8
0
  6
Continuous
 62
     7
370
    15
100
AcDbLine
 10
7.06461769
 20
7.3187802761
 30
0.0
 11
4.072491802
 21
7.3187802761
 31
0.0
  0
ARC
  5
98
330
1F
100
AcDbEntity
  8
0
  6
Continuous
 62
     7
370
    15
100
AcDbCircle
 10
7.0646177382
 20
7.3542133653
 30
0.0
 40
0.0354330708661417
100
AcDbArc
 50
270.0
 51
0.0
  0
LINE
  5
99
330
1F
100
AcDbEntity
  8
0
  6
Continuous
 62
     7
370
    15
100
AcDbLine
 10
7.1000507741
 20
10.3699614019
 30
0.0
 11
7.1000507741
 21
7.3542133601
 31
0.0
  0
ARC
  5
9A
330
1F
100
AcDbEntity
  8
0
  6
Continuous
 62
     7
370
    15
100
AcDbCircle
 10
7.0646177382
 20
10.3699613968
 30
0.0
 40
0.0354330708661417
100
AcDbArc
 50
0.0
 51
90.0
  0
ARC
  5
9B
330
1F
100
AcDbEntity
  8
0
  6
Continuous
 62
     7
370
    15
100
AcDbCircle
 10
4.0724917539
 20
10.3699613968
 30
0.0
 40
0.0354330708661417
100
AcDbArc
 50
90.0
 51
180.0
  0
ARC
  5
9C
330
1F
100
AcDbEntity
  8
0
  6
Continuous
 62
     7
370
    15
100
AcDbCircle
 10
4.0724917539
 20
7.3542133653
 30
0.0
 40
0.0590551181102361
100
AcDbArc
 50
180.0
 51
270.0
  0
LINE
  5
9D
330
1F
100
AcDbEntity
  8
0
  6
Continuous
 62
     7
370
    15
100
AcDbLine
 10
4.0134365642
 20
7.3542133601
 30
0.0
 11
4.0134365642
 21
10.3699614019
 31
0.0
  0
ARC
  5
9E
330
1F
100
AcDbEntity
  8
0
  6
Continuous
 62
     7
370
    15
100
AcDbCircle
 10
4.0724917539
 20
10.3699613968
 30
0.0
 40
0.0590551181102361
100
AcDbArc
 50
90.0
 51
180.0
  0
LINE
  5
9F
330
1F
100
AcDbEntity
  8
0
  6
Continuous
 62
     7
370
    15
100
AcDbLine
 10
4.072491802
 20
10.4290164931
 30
0.0
 11
7.06461769
 21
10.4290164931
 31
0.0
  0
ARC
  5
A0
330
1F
100
AcDbEntity
  8
0
  6
Continuous
 62
     7
370
    15
100
AcDbCircle
 10
7.0646177382
 20
10.3699613968
 30
0.0
 40
0.059055118110237
100
AcDbArc
 50
0.0
 51
90.0
  0
LINE
  5
A1
330
1F
100
AcDbEntity
  8
0
  6
Continuous
 62
     7
370
    15
100
AcDbLine
 10
7.1236729278
 20
10.3699614019
 30
0.0
 11
7.1236729278
 21
7.3542133601
 31
0.0
  0
ARC
  5
A2
330
1F
100
AcDbEntity
  8
0
  6
Continuous
 62
     7
370
    15
100
AcDbCircle
 10
7.0646177382
 20
7.3542133653
 30
0.0
 40
0.059055118110237
100
AcDbArc
 50
270.0
 51
0.0
  0
LINE
  5
A3
330
1F
100
AcDbEntity
  8
0
  6
Continuous
 62
     7
370
    15
100
AcDbLine
 10
7.06461769
 20
7.295158269
 30
0.0
 11
4.072491802
 21
7.295158269
 31
0.0
  0
LINE
  5
A4
330
1F
100
AcDbEntity
  8
0
  6
Continuous
 62
     7
370
    15
100
AcDbLine
 10
4.072491802
 20
10.405394486
 30
0.0
 11
7.06461769
 21
10.405394486
 31
0.0
  0
ARC
  5
A5
330
1F
100
AcDbEntity
  8
0
  6
Continuous
 62
     7
370
    15
100
AcDbCircle
 10
4.0724917539
 20
10.3699613968
 30
0.0
 40
0.0993731414499675
100
AcDbArc
 50
90.0
 51
135.0
  0
ARC
  5
A6
330
1F
100
AcDbEntity
  8
0
  6
Continuous
 62
     7
370
    15
100
AcDbCircle
 10
4.0724917539
 20
10.3699613968
 30
0.0
 40
0.0808034558772013
100
AcDbArc
 50
90.0
 51
179.9999999991
  0
ARC
  5
A7
330
1F
100
AcDbEntity
  8
0
  6
Continuous
 62
     7
370
    15
100
AcDbCircle
 10
4.0724917539
 20
10.3699613968
 30
0.0
 40
0.0911199478621035
100
AcDbArc
 50
164.1763762381
 51
179.9999999988
  0
LWPOLYLINE
  5
A8
330
1F
100
AcDbEntity
  8
0
  6
Continuous
 62
     7
370
    15
100
AcDbPolyline
 90
        7
 70
   128
 43
0.0
 10
4.0156975514
 20
10.4438388952
 10
4.0156567786
 20
10.443451993
 10
4.0142857544
 20
10.4420355027
 10
4.0097070206
 20
10.4375067817
 10
3.9988040933
 20
10.4243497603
 10
3.9886828902
 20
10.4058850803
 10
3.9848247214
 20
10.3948077682
  0
ARC
  5
A9
330
1F
100
AcDbEntity
  8
0
  6
Continuous
 62
     7
370
    15
100
AcDbCircle
 10
7.0646177382
 20
7.3542133653
 30
0.0
 40
0.0993731414499601
100
AcDbArc
 50
270.0
 51
314.9999999999
  0
ARC
  5
AA
330
1F
100
AcDbEntity
  8
0
  6
Continuous
 62
     7
370
    15
100
AcDbCircle
 10
7.0646177382
 20
7.3542133653
 30
0.0
 40
0.0808034558772022
100
AcDbArc
 50
270.0
 51
0.0000000009
  0
ARC
  5
AB
330
1F
100
AcDbEntity
  8
0
  6
Continuous
 62
     7
370
    15
100
AcDbCircle
 10
7.0646177382
 20
7.3542133653
 30
0.0
 40
0.0911199478620693
100
AcDbArc
 50
344.1763762381
 51
0.0000000012
  0
LWPOLYLINE
  5
AC
330
1F
100
AcDbEntity
  8
0
  6
Continuous
 62
     7
370
    15
100
AcDbPolyline
 90
        7
 70
   128
 43
0.0
 10
7.1214119406
 20
7.2803358669
 10
7.1214527135
 20
7.2807227691
 10
7.1228237376
 20
7.2821392594
 10
7.1274024714
 20
7.2866679804
 10
7.1383053988
 20
7.2998250018
 10
7.1484266019
 20
7.3182896818
 10
7.1522847706
 20
7.3293669938
  0
LINE
  5
AD
330
1F
100
AcDbEntity
  8
0
  6
Continuous
 62
     7
370
    15
100
AcDbLine
 10
3.9916883488
 20
10.3699614019
 30
0.0
 11
3.9916883488
 21
7.3542133601
 31
0.0
  0
LINE
  5
AE
330
1F
100
AcDbEntity
  8
0
  6
Continuous
 62
     7
370
    15
100
AcDbLine
 10
3.981371788
 20
7.3542133601
 30
0.0
 11
3.981371788
 21
10.3699614019
 31
0.0
  0
LINE
  5
AF
330
1F
100
AcDbEntity
  8
0
  6
Continuous
 62
     7
370
    15
100
AcDbLine
 10
7.06461769
 20
7.2734099069
 30
0.0
 11
4.072491802
 21
7.2734099069
 31
0.0
  0
LINE
  5
B0
330
1F
100
AcDbEntity
  8
0
  6
Continuous
 62
     7
370
    15
100
AcDbLine
 10
4.072491802
 20
7.2548402148
 30
0.0
 11
7.06461769
 21
7.2548402148
 31
0.0
  0
LINE
  5
B1
330
1F
100
AcDbEntity
  8
0
  6
Continuous
 62
     7
370
    15
100
AcDbLine
 10
7.1454211433
 20
7.3542133601
 30
0.0
 11
7.1454211433
 21
10.3699614019
 31
0.0
  0
LINE
  5
B2
330
1F
100
AcDbEntity
  8
0
  6
Continuous
 62
     7
370
    15
100
AcDbLine
 10
7.1557377041
 20
10.3699614019
 30
0.0
 11
7.1557377041
 21
7.3542133601
 31
0.0
  0
ARC
  5
B3
330
1F
100
AcDbEntity
  8
0
  6
Continuous
 62
     7
370
    15
100
AcDbCircle
 10
4.0724917539
 20
7.3542133653
 30
0.0
 40
0.0808034558772697
100
AcDbArc
 50
179.9999999981
 51
270.0
  0
LINE
  5
B4
330
1F
100
AcDbEntity
  8
0
  6
Continuous
 62
     7
370
    15
100
AcDbLine
 10
4.072491802
 20
10.4507648552
 30
0.0
 11
7.06461769
 21
10.4507648552
 31
0.0
  0
ARC
  5
B5
330
1F
100
AcDbEntity
  8
0
  6
Continuous
 62
     7
370
    15
100
AcDbCircle
 10
7.0646177382
 20
10.3699613968
 30
0.0
 40
0.0808034558772697
100
AcDbArc
 50
0.0000000019
 51
90.0
  0
LINE
  5
B6
330
1F
100
AcDbEntity
  8
0
  6
Continuous
 62
     7
370
    15
100
AcDbLine
 10
7.06461769
 20
10.4693345473
 30
0.0
 11
4.072491802
 21
10.4693345473
 31
0.0
  0
ARC
  5
B7
330
1F
100
AcDbEntity
  8
0
  6
Continuous
 62
     7
370
    15
100
AcDbCircle
 10
4.0583084093
 20
7.3414013467
 30
0.0
 40
0.0744625948893793
100
AcDbArc
 50
189.3007119175
 51
235.0930650977
  0
ARC
  5
B8
330
1F
100
AcDbEntity
  8
0
  6
Continuous
 62
     7
370
    15
100
AcDbCircle
 10
4.0724917539
 20
7.3542133653
 30
0.0
 40
0.0911199478620919
100
AcDbArc
 50
179.9999999997
 51
195.8236237619
  0
ARC
  5
B9
330
1F
100
AcDbEntity
  8
0
  6
Continuous
 62
     7
370
    15
100
AcDbCircle
 10
4.0724917539
 20
7.3542133653
 30
0.0
 40
0.0993731414500161
100
AcDbArc
 50
225.0000000001
 51
270.0
  0
ARC
  5
BA
330
1F
100
AcDbEntity
  8
0
  6
Continuous
 62
     7
370
    15
100
AcDbCircle
 10
7.0788010827
 20
10.3827734153
 30
0.0
 40
0.0744625948894072
100
AcDbArc
 50
9.3007119175
 51
55.0930650977
  0
ARC
  5
BB
330
1F
100
AcDbEntity
  8
0
  6
Continuous
 62
     7
370
    15
100
AcDbCircle
 10
7.0646177382
 20
10.3699613968
 30
0.0
 40
0.0911199478621091
100
AcDbArc
 50
0.0000000003
 51
15.8236237619
  0
ARC
  5
BC
330
1F
100
AcDbEntity
  8
0
  6
Continuous
 62
     7
370
    15
100
AcDbCircle
 10
7.0646177382
 20
10.3699613968
 30
0.0
 40
0.0993731414500161
100
AcDbArc
 50
45.0
 51
90.0
  0
LINE
  5
BD
330
1F
100
AcDbEntity
  8
0
  6
Continuous
 62
     7
370
    15
100
AcDbLine
 10
5.2535941011
 20
7.3651822867
 30
0.0
 11
4.0834607286
 21
7.3651822867
 31
0.0
  0
LINE
  5
BE
330
1F
100
AcDbEntity
  8
0
  6
Continuous
 62
     7
370
    15
100
AcDbLine
 10
5.2535941011
 20
7.3187802761
 30
0.0
 11
5.2535941011
 21
7.3651822867
 31
0.0
  0
LINE
  5
BF
330
1F
100
AcDbEntity
  8
0
  6
Continuous
 62
     7
370
    15
100
AcDbLine
 10
5.2535941011
 20
10.3589924753
 30
0.0
 11
5.2535941011
 21
10.405394486
 31
0.0
  0
LINE
  5
C0
330
1F
100
AcDbEntity
  8
0
  6
Continuous
 62
     7
370
    15
100
AcDbLine
 10
4.0834607286
 20
10.3589924753
 30
0.0
 11
5.2535941011
 21
10.3589924753
 31
0.0
  0
LINE
  5
C1
330
1F
100
AcDbEntity
  8
0
  6
Continuous
 62
     7
370
    15
100
AcDbLine
 10
4.0834607286
 20
7.3651822867
 30
0.0
 11
4.0834607286
 21
10.3589924753
 31
0.0
  0
LINE
  5
C2
330
1F
100
AcDbEntity
  8
0
  6
Continuous
 62
     7
370
    15
100
AcDbLine
 10
5.8835153909
 20
10.3589924753
 30
0.0
 11
7.0536487634
 21
10.3589924753
 31
0.0
  0
LINE
  5
C3
330
1F
100
AcDbEntity
  8
0
  6
Continuous
 62
     7
370
    15
100
AcDbLine
 10
5.8835153909
 20
10.405394486
 30
0.0
 11
5.8835153909
 21
10.3589924753
 31
0.0
  0
LINE
  5
C4
330
1F
100
AcDbEntity
  8
0
  6
Continuous
 62
     7
370
    15
100
AcDbLine
 10
7.0536487634
 20
7.3651822867
 30
0.0
 11
5.8835153909
 21
7.3651822867
 31
0.0
  0
LINE
  5
C5
330
1F
100
AcDbEntity
  8
0
  6
Continuous
 62
     7
370
    15
100
AcDbLine
 10
7.0536487634
 20
10.3589924753
 30
0.0
 11
7.0536487634
 21
7.3651822867
 31
0.0
  0
LINE
  5
C6
330
1F
100
AcDbEntity
  8
0
  6
Continuous
 62
     7
370
    15
100
AcDbLine
 10
5.8835153909
 20
7.3651822867
 30
0.0
 11
5.8835153909
 21
7.3187802761
 31
0.0
  0
LINE
  5
C7
330
1F
100
AcDbEntity
  8
0
  6
Continuous
 62
     7
370
    15
100
AcDbLine
 10
7.0412689198
 20
10.3466126317
 30
0.0
 11
7.0536487634
 21
10.3589924753
 31
0.0
  0
LINE
  5
C8
330
1F
100
AcDbEntity
  8
0
  6
Continuous
 62
     7
370
    15
100
AcDbLine
 10
4.0958405723
 20
10.3466126317
 30
0.0
 11
7.0412689198
 21
10.3466126317
 31
0.0
  0
LINE
  5
C9
330
1F
100
AcDbEntity
  8
0
  6
Continuous
 62
     7
370
    15
100
AcDbLine
 10
4.0834607286
 20
10.3589924753
 30
0.0
 11
4.0958405723
 21
10.3466126317
 31
0.0
  0
LINE
  5
CA
330
1F
100
AcDbEntity
  8
0
  6
Continuous
 62
     7
370
    15
100
AcDbLine
 10
5.8835153909
 20
10.3548659097
 30
0.0
 11
5.2535941011
 21
10.3548659097
 31
0.0
  0
LINE
  5
CB
330
1F
100
AcDbEntity
  8
0
  6
Continuous
 62
     7
370
    15
100
AcDbLine
 10
5.8835153909
 20
10.3589924753
 30
0.0
 11
5.8835153909
 21
10.3548659097
 31
0.0
  0
LINE
  5
CC
330
1F
100
AcDbEntity
  8
0
  6
Continuous
 62
     7
370
    15
100
AcDbLine
 10
5.2535941011
 20
10.3548659097
 30
0.0
 11
5.2535941011
 21
10.3589924753
 31
0.0
  0
LINE
  5
CD
330
1F
100
AcDbEntity
  8
0
  6
Continuous
 62
     7
370
    15
100
AcDbLine
 10
7.0536487634
 20
7.3651822867
 30
0.0
 11
7.0412689198
 21
7.3775621304
 31
0.0
  0
LINE
  5
CE
330
1F
100
AcDbEntity
  8
0
  6
Continuous
 62
     7
370
    15
100
AcDbLine
 10
5.2535941011
 20
7.3693088524
 30
0.0
 11
5.8835153909
 21
7.3693088524
 31
0.0
  0
LINE
  5
CF
330
1F
100
AcDbEntity
  8
0
  6
Continuous
 62
     7
370
    15
100
AcDbLine
 10
4.0834607286
 20
7.3651822867
 30
0.0
 11
4.0958405723
 21
7.3775621304
 31
0.0
  0
LINE
  5
D0
330
1F
100
AcDbEntity
  8
0
  6
Continuous
 62
     7
370
    15
100
AcDbLine
 10
7.0412689198
 20
7.3775621304
 30
0.0
 11
4.0958405723
 21
7.3775621304
 31
0.0
  0
LINE
  5
D1
330
1F
100
AcDbEntity
  8
0
  6
Continuous
 62
     7
370
    15
100
AcDbLine
 10
5.2535941011
 20
7.3651822867
 30
0.0
 11
5.2535941011
 21
7.3693088524
 31
0.0
  0
LINE
  5
D2
330
1F
100
AcDbEntity
  8
0
  6
Continuous
 62
     7
370
    15
100
AcDbLine
 10
5.8835153909
 20
7.3693088524
 30
0.0
 11
5.8835153909
 21
7.3651822867
 31
0.0
  0
LINE
  5
D3
330
1F
100
AcDbEntity
  8
0
  6
Continuous
 62
     7
370
    15
100
AcDbLine
 10
4.0958405723
 20
7.3775621304
 30
0.0
 11
4.0958405723
 21
10.3466126317
 31
0.0
  0
LINE
  5
D4
330
1F
100
AcDbEntity
  8
0
  6
Continuous
 62
     7
370
    15
100
AcDbLine
 10
7.0412689198
 20
10.3466126317
 30
0.0
 11
7.0412689198
 21
7.3775621304
 31
0.0
  0
CIRCLE
  5
D5
330
1F
100
AcDbEntity
  8
0
  6
Continuous
 62
     7
370
    15
100
AcDbCircle
 10
4.5252476594
 20
7.8187802944
 30
0.0
 40
0.0393700787401912
  0
CIRCLE
  5
D6
330
1F
100
AcDbEntity
  8
0
  6
Continuous
 62
     7
370
    15
100
AcDbCircle
 10
4.5252476594
 20
7.8187802944
 30
0.0
 40
0.0428061151433461
  0
CIRCLE
  5
D7
330
1F
100
AcDbEntity
  8
0
  6
Continuous
 62
     7
370
    15
100
AcDbCircle
 10
4.5252476594
 20
9.9053944676
 30
0.0
 40
0.1146741998172427
  0
CIRCLE
  5
D8
330
1F
100
AcDbEntity
  8
0
  6
Continuous
 62
     7
370
    15
100
AcDbCircle
 10
4.5252476594
 20
9.9053944676
 30
0.0
 40
0.0428061151433834
  0
CIRCLE
  5
D9
330
1F
100
AcDbEntity
  8
0
  6
Continuous
 62
     7
370
    15
100
AcDbCircle
 10
4.5252476594
 20
9.9053944676
 30
0.0
 40
0.1181102362203994
  0
CIRCLE
  5
DA
330
1F
100
AcDbEntity
  8
0
  6
Continuous
 62
     7
370
    15
100
AcDbCircle
 10
6.6118618326
 20
7.8187802944
 30
0.0
 40
0.1146741998172756
  0
CIRCLE
  5
DB
330
1F
100
AcDbEntity
  8
0
  6
Continuous
 62
     7
370
    15
100
AcDbCircle
 10
6.6118618326
 20
7.8187802944
 30
0.0
 40
0.1181102362204314
  0
CIRCLE
  5
DC
330
1F
100
AcDbEntity
  8
0
  6
Continuous
 62
     7
370
    15
100
AcDbCircle
 10
6.6118618326
 20
9.9053944676
 30
0.0
 40
0.0393700787402285
  0
CIRCLE
  5
DD
330
1F
100
AcDbEntity
  8
0
  6
Continuous
 62
     7
370
    15
100
AcDbCircle
 10
6.6118618326
 20
9.9053944676
 30
0.0
 40
0.0428061151433834
  0
CIRCLE
  5
DE
330
1F
100
AcDbEntity
  8
0
  6
Continuous
 62
     7
370
    15
100
AcDbCircle
 10
6.6118618326
 20
7.8187802944
 30
0.0
 40
0.0393700787401912
  0
CIRCLE
  5
DF
330
1F
100
AcDbEntity
  8
0
  6
Continuous
 62
     7
370
    15
100
AcDbCircle
 10
6.6118618326
 20
7.8187802944
 30
0.0
 40
0.0428061151433461
  0
CIRCLE
  5
E0
330
1F
100
AcDbEntity
  8
0
  6
Continuous
 62
     7
370
    15
100
AcDbCircle
 10
4.5252476594
 20
9.9053944676
 30
0.0
 40
0.0393700787402285
  0
CIRCLE
  5
E1
330
1F
100
AcDbEntity
  8
0
  6
Continuous
 62
     7
370
    15
100
AcDbCircle
 10
6.6118618326
 20
9.9053944676
 30
0.0
 40
0.1146741998172427
  0
CIRCLE
  5
E2
330
1F
100
AcDbEntity
  8
0
  6
Continuous
 62
     7
370
    15
100
AcDbCircle
 10
4.5252476594
 20
7.8187802944
 30
0.0
 40
0.1146741998172756
  0
CIRCLE
  5
E3
330
1F
100
AcDbEntity
  8
0
  6
Continuous
 62
     7
370
    15
100
AcDbCircle
 10
4.5252476594
 20
7.8187802944
 30
0.0
 40
0.1181102362204314
  0
CIRCLE
  5
E4
330
1F
100
AcDbEntity
  8
0
  6
Continuous
 62
     7
370
    15
100
AcDbCircle
 10
6.6118618326
 20
9.9053944676
 30
0.0
 40
0.1181102362203994
  0
LINE
  5
E5
330
1F
100
AcDbEntity
  8
0
  6
Continuous
 62
     7
370
    15
100
AcDbLine
 10
3.7341415773
 20
10.3683961934
 30
0.0
 11
4.0156930048
 21
10.4438377219
 31
0.0
  0
LINE
  5
E6
330
1F
100
AcDbEntity
  8
0
  6
Continuous
 62
     7
370
    15
100
AcDbLine
 10
7.1214164872
 20
7.2803370402
 30
0.0
 11
7.4029679147
 21
7.3557785687
 31
0.0
  0
LINE
  5
E7
330
1F
100
AcDbEntity
  8
0
  6
Continuous
 62
     7
370
    15
100
AcDbLine
 10
4.0156930048
 20
7.2803370402
 30
0.0
 11
3.7341415773
 21
7.3557785687
 31
0.0
  0
LINE
  5
E8
330
1F
100
AcDbEntity
  8
0
  6
Continuous
 62
     7
370
    15
100
AcDbLine
 10
7.4029679147
 20
10.3683961934
 30
0.0
 11
7.1214164872
 21
10.4438377219
 31
0.0
  0
CIRCLE
  5
E9
330
1F
100
AcDbEntity
  8
0
  6
Continuous
 62
     7
370
    15
100
AcDbCircle
 10
3.7935124632
 20
9.8463393495
 30
0.0
 40
0.0885826771653555
  0
CIRCLE
  5
EA
330
1F
100
AcDbEntity
  8
0
  6
Continuous
 62
     7
370
    15
100
AcDbCircle
 10
3.7935124632
 20
7.8778354125
 30
0.0
 40
0.0885826771653555
  0
LINE
  5
EB
330
1F
100
AcDbEntity
  8
0
  6
Continuous
 62
     7
370
    15
100
AcDbLine
 10
3.5882398495
 20
7.5459213455
 30
0.0
 11
3.5882398495
 21
10.1782534166
 31
0.0
  0
LINE
  5
EC
330
1F
100
AcDbEntity
  8
0
  6
Continuous
 62
     7
370
    15
100
AcDbLine
 10
7.5488696426
 20
7.5459213455
 30
0.0
 11
7.5488696426
 21
10.1782534166
 31
0.0
  0
CIRCLE
  5
ED
330
1F
100
AcDbEntity
  8
0
  6
Continuous
 62
     7
370
    15
100
AcDbCircle
 10
7.3435970288
 20
7.8778354125
 30
0.0
 40
0.0885826771653555
  0
CIRCLE
  5
EE
330
1F
100
AcDbEntity
  8
0
  6
Continuous
 62
     7
370
    15
100
AcDbCircle
 10
7.3435970288
 20
9.8463393495
 30
0.0
 40
0.0885826771653555
  0
ARC
  5
EF
330
1F
100
AcDbEntity
  8
0
  6
Continuous
 62
     7
370
    15
100
AcDbCircle
 10
3.7850901791
 20
10.1782533744
 30
0.0
 40
0.1968503937007866
100
AcDbArc
 50
105.0
 51
180.0
  0
ARC
  5
F0
330
1F
100
AcDbEntity
  8
0
  6
Continuous
 62
     7
370
    15
100
AcDbCircle
 10
7.352019313
 20
10.1782533744
 30
0.0
 40
0.1968503937007879
100
AcDbArc
 50
0.0
 51
75.0
  0
ARC
  5
F1
330
1F
100
AcDbEntity
  8
0
  6
Continuous
 62
     7
370
    15
100
AcDbCircle
 10
7.352019313
 20
7.5459213876
 30
0.0
 40
0.1968503937007879
100
AcDbArc
 50
285.0
 51
0.0
  0
ARC
  5
F2
330
1F
100
AcDbEntity
  8
0
  6
Continuous
 62
     7
370
    15
100
AcDbCircle
 10
3.7850901791
 20
7.5459213876
 30
0.0
 40
0.1968503937007871
100
AcDbArc
 50
180.0
 51
255.0
  0
DIMENSION
  5
F3
330
1F
100
AcDbEntity
  8
0
  6
Continuous
 62
     7
370
     0
100
AcDbDimension
  2
*D5
 10
6.6118618326
 20
6.7627142396
 30
0.0
 11
5.568554746
 21
6.7627142396
 31
0.0
 70
   160
 71
     2
 42
-1.0
  3
SLDDIMSTYLE0
100
AcDbAlignedDimension
 13
4.5252476594
 23
7.8187802944
 33
0.0
 14
6.6118618326
 24
7.8187802944
 34
0.0
100
AcDbRotatedDimension
  0
DIMENSION
  5
108
330
1F
100
AcDbEntity
  8
0
  6
Continuous
 62
     7
370
     0
100
AcDbDimension
  2
*D6
 10
7.3435970288
 20
6.1721630585
 30
0.0
 11
5.568554746
 21
6.1721630585
 31
0.0
 70
   160
 71
     2
 42
-1.0
  3
SLDDIMSTYLE0
100
AcDbAlignedDimension
 13
3.7935124632
 23
7.6892527354
 33
0.0
 14
7.3435970288
 24
7.6892527354
 34
0.0
100
AcDbRotatedDimension
  0
DIMENSION
  5
11C
330
1F
100
AcDbEntity
  8
0
  6
Continuous
 62
     7
370
     0
100
AcDbDimension
  2
*D7
 10
8.926838392
 20
9.9053944676
 30
0.0
 11
8.926838392
 21
8.862087381
 31
0.0
 70
   160
 71
     2
 42
-1.0
  3
SLDDIMSTYLE0
100
AcDbAlignedDimension
 13
6.6118618326
 23
7.8187802944
 33
0.0
 14
6.6118618326
 24
9.9053944676
 34
0.0
 50
90.0
100
AcDbRotatedDimension
  0
DIMENSION
  5
130
330
1F
100
AcDbEntity
  8
0
  6
Continuous
 62
     7
370
     0
100
AcDbDimension
  2
*D8
 10
8.1925513067
 20
7.8778354125
 30
0.0
 11
8.1925513067
 21
8.862087381
 31
0.0
 70
   160
 71
     2
 42
-1.0
  3
SLDDIMSTYLE0
100
AcDbAlignedDimension
 13
7.532179706
 23
9.8463393495
 33
0.0
 14
7.532179706
 24
7.8778354125
 34
0.0
 50
90.0
100
AcDbRotatedDimension
  0
DIMENSION
  5
144
330
1F
100
AcDbEntity
  8
0
  6
Continuous
 62
     7
370
     0
100
AcDbDimension
  2
*D9
 10
3.8272553863
 20
7.9597396605
 30
0.0
 11
2.8863195445
 21
6.8454316059
 31
0.0
 70
   163
  1
<>
 71
     1
 42
-1.0
  3
SLDDIMSTYLE1
100
AcDbDiametricDimension
 15
3.7597695401
 25
7.7959311646
 35
0.0
 40
0.0
  0
DIMENSION
  5
155
330
1F
100
AcDbEntity
  8
0
  6
Continuous
 62
     7
370
     0
100
AcDbDimension
  2
*D10
 10
4.5469495452
 20
9.8725458565
 30
0.0
 11
2.8863195445
 21
11.6567620828
 31
0.0
 70
   163
  1
<>
 71
     1
 42
-1.0
  3
SLDDIMSTYLE1
100
AcDbDiametricDimension
 15
4.5035457736
 25
9.9382430788
 35
0.0
 40
0.0
  0
DIMENSION
  5
165
330
1F
100
AcDbEntity
  8
0
  6
Continuous
 62
     7
370
     0
100
AcDbDimension
  2
*D11
 10
4.6176056449
 20
9.8374226012
 30
0.0
 11
2.0177088675
 21
11.1880257284
 31
0.0
 70
   163
  1
<> BOSS
 71
     1
 42
-1.0
  3
SLDDIMSTYLE2
100
AcDbDiametricDimension
 15
4.4328896739
 25
9.973366334
 35
0.0
 40
0.0
  0
DIMENSION
  5
177
330
1F
100
AcDbEntity
  8
0
  6
Continuous
 62
     7
370
     0
100
AcDbDimension
  2
*D12
 10
7.5488697067
 20
12.021954948
 30
0.0
 11
5.568554746
 21
12.021954948
 31
0.0
 70
   160
 71
     2
 42
-1.0
  3
SLDDIMSTYLE0
100
AcDbAlignedDimension
 13
3.5882397854
 23
10.1782533744
 33
0.0
 14
7.5488697067
 24
10.1782533744
 34
0.0
100
AcDbRotatedDimension
  0
DIMENSION
  5
18B
330
1F
100
AcDbEntity
  8
0
  6
Continuous
 62
     7
370
     0
100
AcDbDimension
  2
*D13
 10
7.0536487748
 20
10.8596153056
 30
0.0
 11
5.568554746
 21
10.8596153056
 31
0.0
 70
   160
 71
     2
 42
-1.0
  3
SLDDIMSTYLE0
100
AcDbAlignedDimension
 13
4.0834607172
 23
10.3589924334
 33
0.0
 14
7.0536487748
 24
10.3589924334
 34
0.0
100
AcDbRotatedDimension
  0
DIMENSION
  5
19F
330
1F
100
AcDbEntity
  8
0
  6
Continuous
 62
     7
370
     0
100
AcDbDimension
  2
*D14
 10
7.145421194
 20
11.4295656322
 30
0.0
 11
5.568554746
 21
11.4295656322
 31
0.0
 70
   160
 71
     2
 42
-1.0
  3
SLDDIMSTYLE0
100
AcDbAlignedDimension
 13
3.991688298
 23
10.3699613968
 33
0.0
 14
7.145421194
 24
10.3699613968
 34
0.0
 50
0.0
100
AcDbRotatedDimension
  0
DIMENSION
  5
1B3
330
1F
100
AcDbEntity
  8
0
  6
Continuous
 62
     7
370
     0
100
AcDbDimension
  2
*D15
 10
1.6197199189
 20
10.4693345382
 30
0.0
 11
1.6197199189
 21
8.862087381
 31
0.0
 70
   160
 71
     2
 42
-1.0
  3
SLDDIMSTYLE0
100
AcDbAlignedDimension
 13
4.0724917539
 23
7.2548402238
 33
0.0
 14
4.0724917539
 24
10.4693345382
 34
0.0
 50
90.0
100
AcDbRotatedDimension
  0
DIMENSION
  5
1C7
330
1F
100
AcDbEntity
  8
0
  6
Continuous
 62
     7
370
     0
100
AcDbDimension
  2
*D16
 10
2.3084060981
 20
7.2734099094
 30
0.0
 11
2.3084060981
 21
8.862087381
 31
0.0
 70
   160
 71
     2
 42
-1.0
  3
SLDDIMSTYLE0
100
AcDbAlignedDimension
 13
4.0724917539
 23
10.4507648527
 33
0.0
 14
4.0724917539
 24
7.2734099094
 34
0.0
 50
90.0
100
AcDbRotatedDimension
  0
DIMENSION
  5
1DB
330
1F
100
AcDbEntity
  8
0
  6
Continuous
 62
     7
370
     0
100
AcDbDimension
  2
*D17
 10
2.990087572
 20
7.3651823286
 30
0.0
 11
2.990087572
 21
8.862087381
 31
0.0
 70
   160
 71
     2
 42
-1.0
  3
SLDDIMSTYLE0
100
AcDbAlignedDimension
 13
4.0834607172
 23
10.3589924334
 33
0.0
 14
4.0834607172
 24
7.3651823286
 34
0.0
 50
90.0
100
AcDbRotatedDimension
  0
INSERT
  5
1F5
102
{ACAD_REACTORS
330
1F7
102
}
330
1F
100
AcDbEntity
  8
0
  6
Continuous
 62
     7
370
     0
100
AcDbBlockReference
  2
SW_NOTE_4
 10
8.1679033484
 20
6.8734312081
 30
0.0
  0
LEADER
  5
1F7
330
1F
100
AcDbEntity
  8
0
  6
Continuous
 62
     7
370
     0
100
AcDbLeader
  3
SLDDIMSTYLE3
 73
     2
 76
     3
 10
6.6323151245
 20
7.7811767528
 30
0.0
 10
7.8554033484
 20
6.8734312081
 30
0.0
 10
8.1679033484
 20
6.8734312081
 30
0.0
340
1F5
  0
INSERT
  5
203
330
1F
100
AcDbEntity
  8
0
  6
Continuous
 62
     7
370
     0
100
AcDbBlockReference
  2
SW_CENTERMARKSYMBOL_0
 10
3.7935124632
 20
7.8778354125
 30
0.0
  0
INSERT
  5
217
330
1F
100
AcDbEntity
  8
0
  6
Continuous
 62
     7
370
     0
100
AcDbBlockReference
  2
SW_CENTERMARKSYMBOL_1
 10
3.7935124632
 20
9.8463393495
 30
0.0
  0
INSERT
  5
223
330
1F
100
AcDbEntity
  8
0
  6
Continuous
 62
     7
370
     0
100
AcDbBlockReference
  2
SW_CENTERMARKSYMBOL_2
 10
7.3435970288
 20
7.8778354125
 30
0.0
  0
INSERT
  5
22F
330
1F
100
AcDbEntity
  8
0
  6
Continuous
 62
     7
370
     0
100
AcDbBlockReference
  2
SW_CENTERMARKSYMBOL_3
 10
4.5252476594
 20
9.9053944676
 30
0.0
  0
INSERT
  5
23B
330
1F
100
AcDbEntity
  8
0
  6
Continuous
 62
     7
370
     0
100
AcDbBlockReference
  2
SW_CENTERMARKSYMBOL_4
 10
6.6118618326
 20
9.9053944676
 30
0.0
  0
INSERT
  5
247
330
1F
100
AcDbEntity
  8
0
  6
Continuous
 62
     7
370
     0
100
AcDbBlockReference
  2
SW_CENTERMARKSYMBOL_5
 10
6.6118618326
 20
7.8187802944
 30
0.0
  0
INSERT
  5
253
330
1F
100
AcDbEntity
  8
0
  6
Continuous
 62
     7
370
     0
100
AcDbBlockReference
  2
SW_CENTERMARKSYMBOL_6
 10
4.5252476594
 20
7.8187802944
 30
0.0
  0
LINE
  5
254
330
1F
100
AcDbEntity
  8
0
  6
PHANTOM
 62
     7
370
    30
100
AcDbLine
 10
3.382907438
 20
8.8937212907
 30
0.0
 11
7.7311825978
 21
8.8937212907
 31
0.0
  0
LINE
  5
255
330
1F
100
AcDbEntity
  8
0
  6
Continuous
 62
     7
370
    30
100
AcDbLine
 10
3.382907438
 20
8.8937212907
 30
0.0
 11
3.382907438
 21
9.5187212907
 31
0.0
  0
SOLID
  5
256
330
1F
100
AcDbEntity
  8
0
  6
Continuous
 62
     7
370
    30
100
AcDbTrace
 10
3.382907438
 20
9.5187212907
 30
0.0
 11
3.332907438
 21
9.2062212907
 31
0.0
 12
3.432907438
 22
9.2062212907
 32
0.0
 13
3.432907438
 23
9.2062212907
 33
0.0
  0
LINE
  5
257
330
1F
100
AcDbEntity
  8
0
  6
Continuous
 62
     7
370
    30
100
AcDbLine
 10
7.7311825978
 20
8.8937212907
 30
0.0
 11
7.7311825978
 21
9.5187212907
 31
0.0
  0
SOLID
  5
258
330
1F
100
AcDbEntity
  8
0
  6
Continuous
 62
     7
370
    30
100
AcDbTrace
 10
7.7311825978
 20
9.5187212907
 30
0.0
 11
7.6811825978
 21
9.2062212907
 31
0.0
 12
7.7811825978
 22
9.2062212907
 32
0.0
 13
7.7811825978
 23
9.2062212907
 33
0.0
  0
MTEXT
  5
259
330
1F
100
AcDbEntity
  8
0
  6
Continuous
 62
     7
100
AcDbMText
 10
3.3058797534
 20
9.7711399149
 30
0.0
 40
0.15625
 41
0.0
 71
     1
 72
     1
  1
A
  7
SLDTEXTSTYLE0
 73
     1
 44
1.0
  0
MTEXT
  5
25A
330
1F
100
AcDbEntity
  8
0
  6
Continuous
 62
     7
100
AcDbMText
 10
7.6541549133
 20
9.7711399149
 30
0.0
 40
0.15625
 41
0.0
 71
     1
 72
     1
  1
A
  7
SLDTEXTSTYLE0
 73
     1
 44
1.0
  0
LINE
  5
25B
330
1F
100
AcDbEntity
  8
0
  6
Continuous
 62
     7
370
    15
100
AcDbLine
 10
15.8433321505
 20
4.077517963
 30
0.0
 11
15.8421738208
 21
4.0769193319
 31
0.0
  0
LINE
  5
25C
330
1F
100
AcDbEntity
  8
0
  6
Continuous
 62
     7
370
    15
100
AcDbLine
 10
15.8572358983
 20
4.0477727835
 30
0.0
 11
15.8583942279
 21
4.0483714146
 31
0.0
  0
ARC
  5
25D
330
1F
100
AcDbEntity
  8
0
  6
Continuous
 62
     7
370
    15
100
AcDbCircle
 10
15.004133321
 20
4.9085135495
 30
0.0
 40
0.0333791377617537
100
AcDbArc
 50
114.5680651769
 51
180.1356024268
  0
LINE
  5
25E
330
1F
100
AcDbEntity
  8
0
  6
Continuous
 62
     7
370
    15
100
AcDbLine
 10
14.9704797103
 20
4.9084032661
 30
0.0
 11
14.9489117727
 21
4.5725954527
 31
0.0
  0
ARC
  5
25F
330
1F
100
AcDbEntity
  8
0
  6
Continuous
 62
     7
370
    15
100
AcDbCircle
 10
18.5639284274
 20
4.9160890571
 30
0.0
 40
0.0342550628352187
100
AcDbArc
 50
0.6107287933
 51
64.0816494247
  0
LINE
  5
260
330
1F
100
AcDbEntity
  8
0
  6
Continuous
 62
     7
370
    15
100
AcDbLine
 10
18.620229044
 20
4.5806309519
 30
0.0
 11
18.5986611928
 21
4.9164388152
 31
0.0
  0
LINE
  5
261
330
1F
100
AcDbEntity
  8
0
  6
Continuous
 62
     7
370
    15
100
AcDbLine
 10
16.7671577397
 20
5.9649410359
 30
0.0
 11
14.9901111641
 21
4.939073884
 31
0.0
  0
LINE
  5
262
330
1F
100
AcDbEntity
  8
0
  6
Continuous
 62
     7
370
    15
100
AcDbLine
 10
18.579029739
 20
4.9471094331
 30
0.0
 11
16.815902651
 21
5.9649410359
 31
0.0
  0
LINE
  5
263
330
1F
100
AcDbEntity
  8
0
  6
Continuous
 62
     7
370
    15
100
AcDbLine
 10
14.9882369049
 20
4.532773772
 30
0.0
 11
14.9882369049
 21
4.5310077417
 31
0.0
  0
LINE
  5
264
330
1F
100
AcDbEntity
  8
0
  6
Continuous
 62
     7
370
    15
100
AcDbLine
 10
18.5809039982
 20
4.5390432908
 30
0.0
 11
18.5809039982
 21
4.5408093212
 31
0.0
  0
ARC
  5
265
330
1F
100
AcDbEntity
  8
0
  6
Continuous
 62
     7
370
    15
100
AcDbCircle
 10
16.7900858784
 20
5.9282392674
 30
0.0
 40
0.0430263831449226
100
AcDbArc
 50
88.0763241468
 51
121.9731066677
  0
ARC
  5
266
330
1F
100
AcDbEntity
  8
0
  6
Continuous
 62
     7
370
    15
100
AcDbCircle
 10
16.7931881528
 20
5.9290193771
 30
0.0
 40
0.0422545645578452
100
AcDbArc
 50
57.7237235275
 51
92.2487122512
  0
LINE
  5
267
330
1F
100
AcDbEntity
  8
0
  6
Continuous
 62
     7
370
    15
100
AcDbLine
 10
16.8829881566
 20
1.5071739824
 30
0.0
 11
16.8801250004
 21
1.6411005326
 31
0.0
  0
LINE
  5
268
330
1F
100
AcDbEntity
  8
0
  6
Continuous
 62
     7
370
    15
100
AcDbLine
 10
16.6890159027
 20
1.6411005326
 30
0.0
 11
16.6861527465
 21
1.5071739824
 31
0.0
  0
ARC
  5
269
330
1F
100
AcDbEntity
  8
0
  6
Continuous
 62
     7
370
    15
100
AcDbCircle
 10
18.6965255647
 20
2.0724440408
 30
0.0
 40
0.0781206216248605
100
AcDbArc
 50
358.2400376991
 51
49.2099948837
  0
LINE
  5
26A
330
1F
100
AcDbEntity
  8
0
  6
Continuous
 62
     7
370
    15
100
AcDbLine
 10
18.7750872542
 20
1.9903419255
 30
0.0
 11
18.7750872542
 21
2.0707101163
 31
0.0
  0
LINE
  5
26B
330
1F
100
AcDbEntity
  8
0
  6
Continuous
 62
     7
370
    15
100
AcDbLine
 10
15.6534389781
 20
2.2169776145
 30
0.0
 11
15.6505757787
 21
2.3509041897
 31
0.0
  0
LINE
  5
26C
330
1F
100
AcDbEntity
  8
0
  6
Continuous
 62
     7
370
    15
100
AcDbLine
 10
15.459466681
 20
2.3509041897
 30
0.0
 11
15.456603568
 21
2.2169776145
 31
0.0
  0
LINE
  5
26D
330
1F
100
AcDbEntity
  8
0
  6
Continuous
 62
     7
370
    15
100
AcDbLine
 10
18.1125373351
 20
2.2169776145
 30
0.0
 11
18.1096742221
 21
2.3509041897
 31
0.0
  0
LINE
  5
26E
330
1F
100
AcDbEntity
  8
0
  6
Continuous
 62
     7
370
    15
100
AcDbLine
 10
17.9185651244
 20
2.3509041897
 30
0.0
 11
17.915701925
 21
2.2169776145
 31
0.0
  0
LINE
  5
26F
330
1F
100
AcDbEntity
  8
0
  6
Continuous
 62
     7
370
    15
100
AcDbLine
 10
18.7478947243
 20
2.1317902338
 30
0.0
 11
18.6313990651
 21
2.2482732174
 31
0.0
  0
LINE
  5
270
330
1F
100
AcDbEntity
  8
0
  6
Continuous
 62
     7
370
    15
100
AcDbLine
 10
14.9471935938
 20
2.3878300204
 30
0.0
 11
14.9379197833
 21
2.243438182
 31
0.0
  0
LINE
  5
271
330
1F
100
AcDbEntity
  8
0
  6
Continuous
 62
     7
370
    15
100
AcDbLine
 10
14.9652709862
 20
2.4131791173
 30
0.0
 11
14.9652709862
 21
2.3863897162
 31
0.0
  0
LINE
  5
272
330
1F
100
AcDbEntity
  8
0
  6
Continuous
 62
     7
370
    15
100
AcDbLine
 10
18.6038699169
 20
2.3944252654
 30
0.0
 11
18.6038699169
 21
2.4212146665
 31
0.0
  0
LINE
  5
273
330
1F
100
AcDbEntity
  8
0
  6
Continuous
 62
     7
370
    15
100
AcDbLine
 10
18.6314710555
 20
2.2475828635
 30
0.0
 11
18.6219473093
 21
2.3958655695
 31
0.0
  0
ARC
  5
274
330
1F
100
AcDbEntity
  8
0
  6
Continuous
 62
     7
370
    15
100
AcDbCircle
 10
14.8866989528
 20
2.3862442416
 30
0.0
 40
0.0922179419814263
100
AcDbArc
 50
114.0586362941
 51
178.1026588312
  0
LINE
  5
275
330
1F
100
AcDbEntity
  8
0
  6
Continuous
 62
     7
370
    15
100
AcDbLine
 10
14.7940536489
 20
2.3886321269
 30
0.0
 11
14.7940536489
 21
2.308263936
 31
0.0
  0
LINE
  5
276
330
1F
100
AcDbEntity
  8
0
  6
Continuous
 62
     7
370
    15
100
AcDbLine
 10
16.4000131268
 20
3.3660563646
 30
0.0
 11
14.8488965787
 21
2.4706158413
 31
0.0
  0
LINE
  5
277
330
1F
100
AcDbEntity
  8
0
  6
Continuous
 62
     7
370
    15
100
AcDbLine
 10
16.8829881566
 20
2.9267812467
 30
0.0
 11
16.8801250004
 21
3.0607078468
 31
0.0
  0
LINE
  5
278
330
1F
100
AcDbEntity
  8
0
  6
Continuous
 62
     7
370
    15
100
AcDbLine
 10
16.6890159027
 20
3.0607078468
 30
0.0
 11
16.6861527465
 21
2.9267812467
 31
0.0
  0
LINE
  5
279
330
1F
100
AcDbEntity
  8
0
  6
Continuous
 62
     7
370
    15
100
AcDbLine
 10
16.6079285915
 20
3.3732329655
 30
0.0
 11
16.5852028428
 21
3.3808073719
 31
0.0
  0
ARC
  5
27A
330
1F
100
AcDbEntity
  8
0
  6
Continuous
 62
     7
370
    15
100
AcDbCircle
 10
16.5024076485
 20
3.18494357
 30
0.0
 40
0.2078083955053681
100
AcDbArc
 50
88.1235848946
 51
119.4547407294
  0
ARC
  5
27B
330
1F
100
AcDbEntity
  8
0
  6
Continuous
 62
     7
370
    15
100
AcDbCircle
 10
16.5104700914
 20
3.1509340661
 30
0.0
 40
0.2417097419691441
100
AcDbArc
 50
71.9956122463
 51
90.2982054455
  0
ARC
  5
27C
330
1F
100
AcDbEntity
  8
0
  6
Continuous
 62
     7
370
    15
100
AcDbCircle
 10
16.7776107991
 20
3.9317487922
 30
0.0
 40
0.0676814453056702
100
AcDbArc
 50
242.6096287067
 51
297.3902794874
  0
LINE
  5
27D
330
1F
100
AcDbEntity
  8
0
  6
Continuous
 62
     7
370
    15
100
AcDbLine
 10
16.8087475909
 20
3.8716548804
 30
0.0
 11
16.8240087981
 21
3.526575268
 31
0.0
  0
ARC
  5
27E
330
1F
100
AcDbEntity
  8
0
  6
Continuous
 62
     7
370
    15
100
AcDbCircle
 10
16.7776107077
 20
3.6161232871
 30
0.0
 40
0.1008545017361402
100
AcDbArc
 50
242.6096808627
 51
297.3903191373
  0
LINE
  5
27F
330
1F
100
AcDbEntity
  8
0
  6
Continuous
 62
     7
370
    15
100
AcDbLine
 10
16.7312126174
 20
3.526575268
 30
0.0
 11
16.746473911
 21
3.8716549303
 31
0.0
  0
ARC
  5
280
330
1F
100
AcDbEntity
  8
0
  6
Continuous
 62
     7
370
    15
100
AcDbCircle
 10
16.7970999675
 20
3.8677004742
 30
0.0
 40
0.0507802649890214
100
AcDbArc
 50
122.7339444918
 51
175.5336334401
  0
ARC
  5
281
330
1F
100
AcDbEntity
  8
0
  6
Continuous
 62
     7
370
    15
100
AcDbCircle
 10
16.7776107077
 20
3.9257379286
 30
0.0
 40
0.0172703542363266
100
AcDbArc
 50
242.5185633694
 51
297.4814366306
  0
ARC
  5
282
330
1F
100
AcDbEntity
  8
0
  6
Continuous
 62
     7
370
    15
100
AcDbCircle
 10
16.7581213053
 20
3.8677002811
 30
0.0
 40
0.0507805046231045
100
AcDbArc
 50
4.4665075258
 51
57.2660378372
  0
LINE
  5
283
330
1F
100
AcDbEntity
  8
0
  6
Continuous
 62
     7
370
    15
100
AcDbLine
 10
14.983346823
 20
4.8894865331
 30
0.0
 11
16.746473911
 21
3.8716549303
 31
0.0
  0
ARC
  5
284
330
1F
100
AcDbEntity
  8
0
  6
Continuous
 62
     7
370
    15
100
AcDbCircle
 10
15.0339728795
 20
4.8855320769
 30
0.0
 40
0.05078026498905
100
AcDbArc
 50
122.7339444918
 51
175.5336334401
  0
LINE
  5
285
330
1F
100
AcDbEntity
  8
0
  6
Continuous
 62
     7
370
    15
100
AcDbLine
 10
15.0065140213
 20
4.9282479571
 30
0.0
 11
16.7696411093
 21
3.9104163544
 31
0.0
  0
LINE
  5
286
330
1F
100
AcDbEntity
  8
0
  6
Continuous
 62
     7
370
    15
100
AcDbLine
 10
16.8087475909
 20
3.8716548804
 30
0.0
 11
18.5857941665
 21
4.8975220323
 31
0.0
  0
LINE
  5
287
330
1F
100
AcDbEntity
  8
0
  6
Continuous
 62
     7
370
    15
100
AcDbLine
 10
16.7855803062
 20
3.9104163544
 30
0.0
 11
18.5626268818
 21
4.9362835063
 31
0.0
  0
ARC
  5
288
330
1F
100
AcDbEntity
  8
0
  6
Continuous
 62
     7
370
    15
100
AcDbCircle
 10
18.5351678809
 20
4.893567433
 30
0.0
 40
0.0507805046230972
100
AcDbArc
 50
4.4665075258
 51
57.2660378373
  0
LINE
  5
289
330
1F
100
AcDbEntity
  8
0
  6
Continuous
 62
     7
370
    15
100
AcDbLine
 10
17.1325560428
 20
3.704695801
 30
0.0
 11
17.1251924436
 21
3.8711979611
 31
0.0
  0
LINE
  5
28A
330
1F
100
AcDbEntity
  8
0
  6
Continuous
 62
     7
370
    15
100
AcDbLine
 10
16.8240087981
 20
3.526575268
 30
0.0
 11
17.1325560428
 21
3.704695801
 31
0.0
  0
LINE
  5
28B
330
1F
100
AcDbEntity
  8
0
  6
Continuous
 62
     7
370
    15
100
AcDbLine
 10
18.6010553737
 20
4.5524424199
 30
0.0
 11
18.5857941665
 21
4.8975220323
 31
0.0
  0
LINE
  5
28C
330
1F
100
AcDbEntity
  8
0
  6
Continuous
 62
     7
370
    15
100
AcDbLine
 10
18.292508129
 20
4.3743218869
 30
0.0
 11
18.6010553737
 21
4.5524424199
 31
0.0
  0
LINE
  5
28D
330
1F
100
AcDbEntity
  8
0
  6
Continuous
 62
     7
370
    15
100
AcDbLine
 10
18.2851445297
 20
4.540824047
 30
0.0
 11
18.292508129
 21
4.3743218869
 31
0.0
  0
LINE
  5
28E
330
1F
100
AcDbEntity
  8
0
  6
Continuous
 62
     7
370
    15
100
AcDbLine
 10
18.0067560308
 20
4.3801137874
 30
0.0
 11
18.2851445297
 21
4.540824047
 31
0.0
  0
LINE
  5
28F
330
1F
100
AcDbEntity
  8
0
  6
Continuous
 62
     7
370
    15
100
AcDbLine
 10
18.01411963
 20
4.2136116273
 30
0.0
 11
18.0067560308
 21
4.3801137874
 31
0.0
  0
LINE
  5
290
330
1F
100
AcDbEntity
  8
0
  6
Continuous
 62
     7
370
    15
100
AcDbLine
 10
17.4109445418
 20
3.8654060606
 30
0.0
 11
18.01411963
 21
4.2136116273
 31
0.0
  0
LINE
  5
291
330
1F
100
AcDbEntity
  8
0
  6
Continuous
 62
     7
370
    15
100
AcDbLine
 10
17.4035809425
 20
4.0319082207
 30
0.0
 11
17.4109445418
 21
3.8654060606
 31
0.0
  0
LINE
  5
292
330
1F
100
AcDbEntity
  8
0
  6
Continuous
 62
     7
370
    15
100
AcDbLine
 10
17.1251924436
 20
3.8711979611
 30
0.0
 11
17.4035809425
 21
4.0319082207
 31
0.0
  0
LINE
  5
293
330
1F
100
AcDbEntity
  8
0
  6
Continuous
 62
     7
370
    15
100
AcDbLine
 10
14.9680855294
 20
4.5444068708
 30
0.0
 11
16.7312126174
 21
3.526575268
 31
0.0
  0
LINE
  5
294
330
1F
100
AcDbEntity
  8
0
  6
Continuous
 62
     7
370
    15
100
AcDbLine
 10
14.983346823
 20
4.8894865331
 30
0.0
 11
14.9680855294
 21
4.5444068708
 31
0.0
  0
LWPOLYLINE
  5
295
330
1F
100
AcDbEntity
  8
0
  6
Continuous
 62
     7
370
    15
100
AcDbPolyline
 90
        8
 70
   128
 43
0.0
 10
15.8514702687
 20
4.0766715109
 10
15.8558630633
 20
4.0730639793
 10
15.859494596
 20
4.0679160328
 10
15.861812098
 20
4.0620111357
 10
15.8624627537
 20
4.0562484526
 10
15.861347487
 20
4.0515052148
 10
15.8586360683
 20
4.0485034518
 10
15.8583942279
 20
4.0483714146
  0
LWPOLYLINE
  5
296
330
1F
100
AcDbEntity
  8
0
  6
Continuous
 62
     7
370
    15
100
AcDbPolyline
 90
        3
 70
   128
 43
0.0
 10
15.8433321505
 20
4.077517963
 10
15.8469851742
 20
4.0781890756
 10
15.8514702687
 20
4.0766715109
  0
LINE
  5
297
330
1F
100
AcDbEntity
  8
0
  6
Continuous
 62
     7
370
    15
100
AcDbLine
 10
16.7835605969
 20
5.9633166115
 30
0.0
 11
15.0065140213
 21
4.9374494596
 31
0.0
  0
ARC
  5
298
330
1F
100
AcDbEntity
  8
0
  6
Continuous
 62
     7
370
    15
100
AcDbCircle
 10
16.7915301954
 20
5.9479950374
 30
0.0
 40
0.0172703542363266
100
AcDbArc
 50
62.5185633694
 51
117.4814366306
  0
LINE
  5
299
330
1F
100
AcDbEntity
  8
0
  6
Continuous
 62
     7
370
    15
100
AcDbLine
 10
18.5626268818
 20
4.9454850088
 30
0.0
 11
16.7994997938
 21
5.9633166115
 31
0.0
  0
LWPOLYLINE
  5
29A
330
1F
100
AcDbEntity
  8
0
  6
Continuous
 62
     7
370
    15
100
AcDbPolyline
 90
        6
 70
   128
 43
0.0
 10
18.5626268818
 20
4.9454850088
 10
18.5650008397
 20
4.9434684632
 10
18.5657016451
 20
4.9421890078
 10
18.5659279874
 20
4.9408842076
 10
18.5650917569
 20
4.938395643
 10
18.5626268818
 20
4.9362835063
  0
LWPOLYLINE
  5
29B
330
1F
100
AcDbEntity
  8
0
  6
Continuous
 62
     7
370
    15
100
AcDbPolyline
 90
        6
 70
   128
 43
0.0
 10
15.0065140213
 20
4.9282479571
 10
15.0041400634
 20
4.9302645027
 10
15.003439258
 20
4.9315439581
 10
15.0032129157
 20
4.9328487583
 10
15.0040491462
 20
4.9353373229
 10
15.0065140213
 20
4.9374494596
  0
ARC
  5
29C
330
1F
100
AcDbEntity
  8
0
  6
Continuous
 62
     7
370
    15
100
AcDbCircle
 10
16.7776107991
 20
3.5382811513
 30
0.0
 40
0.0403416525711279
100
AcDbArc
 50
242.6094810246
 51
297.3903649527
  0
LINE
  5
29D
330
1F
100
AcDbEntity
  8
0
  6
Continuous
 62
     7
370
    15
100
AcDbLine
 10
17.1047172405
 20
3.680582623
 30
0.0
 11
16.7961699957
 21
3.50246209
 31
0.0
  0
LINE
  5
29E
330
1F
100
AcDbEntity
  8
0
  6
Continuous
 62
     7
370
    15
100
AcDbLine
 10
17.1047172405
 20
3.680582623
 30
0.0
 11
17.1047172405
 21
3.6886247676
 31
0.0
  0
LINE
  5
29F
330
1F
100
AcDbEntity
  8
0
  6
Continuous
 62
     7
370
    15
100
AcDbLine
 10
16.7590515062
 20
3.5024621399
 30
0.0
 11
16.063080302
 21
3.904237764
 31
0.0
  0
LINE
  5
2A0
330
1F
100
AcDbEntity
  8
0
  6
Continuous
 62
     7
370
    15
100
AcDbLine
 10
16.063080302
 20
3.9122799086
 30
0.0
 11
16.063080302
 21
3.904237764
 31
0.0
  0
LINE
  5
2A1
330
1F
100
AcDbEntity
  8
0
  6
Continuous
 62
     7
370
    15
100
AcDbLine
 10
17.3663765483
 20
3.8509504391
 30
0.0
 11
17.3594990794
 21
4.0064604132
 31
0.0
  0
LINE
  5
2A2
330
1F
100
AcDbEntity
  8
0
  6
Continuous
 62
     7
370
    15
100
AcDbLine
 10
17.3663765483
 20
3.8509504391
 30
0.0
 11
17.1320699125
 21
3.7156880974
 31
0.0
  0
LINE
  5
2A3
330
1F
100
AcDbEntity
  8
0
  6
Continuous
 62
     7
370
    15
100
AcDbLine
 10
17.4109445418
 20
3.8654060606
 30
0.0
 11
17.3831057394
 21
3.8814770591
 31
0.0
  0
LINE
  5
2A4
330
1F
100
AcDbEntity
  8
0
  6
Continuous
 62
     7
370
    15
100
AcDbLine
 10
17.3831057394
 20
3.8412928826
 30
0.0
 11
17.3831057394
 21
3.8814770591
 31
0.0
  0
LINE
  5
2A5
330
1F
100
AcDbEntity
  8
0
  6
Continuous
 62
     7
370
    15
100
AcDbLine
 10
17.3663765483
 20
3.8509504391
 30
0.0
 11
17.3831057394
 21
3.8412928826
 31
0.0
  0
LINE
  5
2A6
330
1F
100
AcDbEntity
  8
0
  6
Continuous
 62
     7
370
    15
100
AcDbLine
 10
17.9862808277
 20
4.1975405939
 30
0.0
 11
17.9862808277
 21
4.1894984493
 31
0.0
  0
LINE
  5
2A7
330
1F
100
AcDbEntity
  8
0
  6
Continuous
 62
     7
370
    15
100
AcDbLine
 10
17.9862808277
 20
4.1894984493
 30
0.0
 11
17.3831057394
 21
3.8412928826
 31
0.0
  0
LINE
  5
2A8
330
1F
100
AcDbEntity
  8
0
  6
Continuous
 62
     7
370
    15
100
AcDbLine
 10
16.0286396774
 20
3.9098013692
 30
0.0
 11
16.0398812568
 21
3.9162909948
 31
0.0
  0
LINE
  5
2A9
330
1F
100
AcDbEntity
  8
0
  6
Continuous
 62
     7
370
    15
100
AcDbLine
 10
16.0398812568
 20
3.9162909948
 30
0.0
 11
16.0398812568
 21
3.9256724323
 31
0.0
  0
LINE
  5
2AA
330
1F
100
AcDbEntity
  8
0
  6
Continuous
 62
     7
370
    15
100
AcDbLine
 10
16.0383055897
 20
3.8792156826
 30
0.0
 11
16.059554453
 21
3.8914823903
 31
0.0
  0
LINE
  5
2AB
330
1F
100
AcDbEntity
  8
0
  6
Continuous
 62
     7
370
    15
100
AcDbLine
 10
16.0286396774
 20
3.9098013692
 30
0.0
 11
16.0383055897
 21
3.8792156826
 31
0.0
  0
LINE
  5
2AC
330
1F
100
AcDbEntity
  8
0
  6
Continuous
 62
     7
370
    15
100
AcDbLine
 10
16.0605390721
 20
3.9137469448
 30
0.0
 11
16.059554453
 21
3.8914823903
 31
0.0
  0
LINE
  5
2AD
330
1F
100
AcDbEntity
  8
0
  6
Continuous
 62
     7
370
    15
100
AcDbLine
 10
16.0398812568
 20
3.9162909948
 30
0.0
 11
15.7150946675
 21
4.1037863019
 31
0.0
  0
LINE
  5
2AE
330
1F
100
AcDbEntity
  8
0
  6
Continuous
 62
     7
370
    15
100
AcDbLine
 10
15.7150946675
 20
4.1131677394
 30
0.0
 11
15.7150946675
 21
4.1037863019
 31
0.0
  0
LINE
  5
2AF
330
1F
100
AcDbEntity
  8
0
  6
Continuous
 62
     7
370
    15
100
AcDbLine
 10
16.0383055897
 20
3.8792156826
 30
0.0
 11
15.7135190004
 21
4.0667109897
 31
0.0
  0
LINE
  5
2B0
330
1F
100
AcDbEntity
  8
0
  6
Continuous
 62
     7
370
    15
100
AcDbLine
 10
15.7135190004
 20
4.0667109897
 30
0.0
 11
15.7038530881
 21
4.0972966762
 31
0.0
  0
LINE
  5
2B1
330
1F
100
AcDbEntity
  8
0
  6
Continuous
 62
     7
370
    15
100
AcDbLine
 10
15.7038530881
 20
4.0972966762
 30
0.0
 11
16.0286396774
 21
3.9098013692
 31
0.0
  0
LINE
  5
2B2
330
1F
100
AcDbEntity
  8
0
  6
Continuous
 62
     7
370
    15
100
AcDbLine
 10
15.7150946675
 20
4.1037863019
 30
0.0
 11
15.7038530881
 21
4.0972966762
 31
0.0
  0
LWPOLYLINE
  5
2B3
330
1F
100
AcDbEntity
  8
0
  6
Continuous
 62
     7
370
    15
100
AcDbPolyline
 90
       17
 70
   128
 43
0.0
 10
15.8503119391
 20
4.0760728798
 10
15.8547046472
 20
4.072465498
 10
15.8583362663
 20
4.0673174017
 10
15.8606537683
 20
4.0614125046
 10
15.861304424
 20
4.0556498215
 10
15.8601890709
 20
4.0509065338
 10
15.8574777386
 20
4.0479048207
 10
15.8535829609
 20
4.0471017207
 10
15.84909778
 20
4.0486192355
 10
15.8447050719
 20
4.052226817
 10
15.8410735392
 20
4.0573747635
 10
15.8387559508
 20
4.0632796107
 10
15.8381053815
 20
4.0690423437
 10
15.8392206481
 20
4.0737855815
 10
15.8419320669
 20
4.0767873445
 10
15.8458267581
 20
4.0775905942
 10
15.8503119391
 20
4.0760728798
  0
LINE
  5
2B4
330
1F
100
AcDbEntity
  8
0
  6
Continuous
 62
     7
370
    15
100
AcDbLine
 10
15.6988609836
 20
4.122539136
 30
0.0
 11
15.6918956223
 21
4.1185181185
 31
0.0
  0
LINE
  5
2B5
330
1F
100
AcDbEntity
  8
0
  6
Continuous
 62
     7
370
    15
100
AcDbLine
 10
15.6918956223
 20
4.1265602631
 30
0.0
 11
15.6918956223
 21
4.1185181185
 31
0.0
  0
LINE
  5
2B6
330
1F
100
AcDbEntity
  8
0
  6
Continuous
 62
     7
370
    15
100
AcDbLine
 10
15.6918956223
 20
4.1185181185
 30
0.0
 11
14.9959244182
 21
4.5202937427
 31
0.0
  0
LINE
  5
2B7
330
1F
100
AcDbEntity
  8
0
  6
Continuous
 62
     7
370
    15
100
AcDbLine
 10
18.2410626666
 20
4.5153762395
 30
0.0
 11
18.2479401355
 21
4.3598662654
 31
0.0
  0
LINE
  5
2B8
330
1F
100
AcDbEntity
  8
0
  6
Continuous
 62
     7
370
    15
100
AcDbLine
 10
18.2479401355
 20
4.3598662654
 30
0.0
 11
18.0136334781
 21
4.2246039112
 31
0.0
  0
LINE
  5
2B9
330
1F
100
AcDbEntity
  8
0
  6
Continuous
 62
     7
370
    15
100
AcDbLine
 10
18.2646693266
 20
4.3903928855
 30
0.0
 11
18.292508129
 21
4.3743218869
 31
0.0
  0
LINE
  5
2BA
330
1F
100
AcDbEntity
  8
0
  6
Continuous
 62
     7
370
    15
100
AcDbLine
 10
18.2646693266
 20
4.350208709
 30
0.0
 11
18.2646693266
 21
4.3903928855
 31
0.0
  0
LINE
  5
2BB
330
1F
100
AcDbEntity
  8
0
  6
Continuous
 62
     7
370
    15
100
AcDbLine
 10
18.2479401355
 20
4.3598662654
 30
0.0
 11
18.2646693266
 21
4.350208709
 31
0.0
  0
ARC
  5
2BC
330
1F
100
AcDbEntity
  8
0
  6
Continuous
 62
     7
370
    15
100
AcDbCircle
 10
14.9807417798
 20
4.5736308458
 30
0.0
 40
0.0318468427015053
100
AcDbArc
 50
181.8631081413
 51
246.5836419935
  0
ARC
  5
2BD
330
1F
100
AcDbEntity
  8
0
  6
Continuous
 62
     7
370
    15
100
AcDbCircle
 10
18.5892247463
 20
4.5811047154
 30
0.0
 40
0.0310079171201056
100
AcDbArc
 50
292.4288399553
 51
359.1245557884
  0
LINE
  5
2BE
330
1F
100
AcDbEntity
  8
0
  6
Continuous
 62
     7
370
    15
100
AcDbLine
 10
18.5732165713
 20
4.5283292419
 30
0.0
 11
18.2646693266
 21
4.350208709
 31
0.0
  0
ARC
  5
2BF
330
1F
100
AcDbEntity
  8
0
  6
Continuous
 62
     7
370
    15
100
AcDbCircle
 10
15.0013718762
 20
4.5323173785
 30
0.0
 40
0.0132000991807714
100
AcDbArc
 50
185.6939206401
 51
245.6265046106
  0
ARC
  5
2C0
330
1F
100
AcDbEntity
  8
0
  6
Continuous
 62
     7
370
    15
100
AcDbCircle
 10
18.5677686215
 20
4.5403531187
 30
0.0
 40
0.0132005215613482
100
AcDbArc
 50
294.3750085443
 51
354.3054291472
  0
ARC
  5
2C1
330
1F
100
AcDbEntity
  8
0
  6
Continuous
 62
     7
370
    15
100
AcDbCircle
 10
17.0591491775
 20
1.3315349016
 30
0.0
 40
0.2055778200558554
100
AcDbArc
 50
251.6156296295
 51
297.0767759707
  0
ARC
  5
2C2
330
1F
100
AcDbEntity
  8
0
  6
Continuous
 62
     7
370
    15
100
AcDbCircle
 10
17.1255561894
 20
1.1060151786
 30
0.0
 40
0.0504198478237087
100
AcDbArc
 50
2.6053188705
 51
57.3946196559
  0
ARC
  5
2C3
330
1F
100
AcDbEntity
  8
0
  6
Continuous
 62
     7
370
    15
100
AcDbCircle
 10
17.0589409022
 20
1.337290907
 30
0.0
 40
0.2571354385597237
100
AcDbArc
 50
251.630865241
 51
297.0615297855
  0
ARC
  5
2C4
330
1F
100
AcDbEntity
  8
0
  6
Continuous
 62
     7
370
    15
100
AcDbCircle
 10
17.0459549034
 20
1.0921244304
 30
0.0
 40
0.0680565397557182
100
AcDbArc
 50
139.3606549893
 51
179.0459830317
  0
LWPOLYLINE
  5
2C5
330
1F
100
AcDbEntity
  8
0
  6
Continuous
 62
     7
370
    15
100
AcDbPolyline
 90
       26
 70
   128
 43
0.0
 10
17.3027459816
 20
1.3479644397
 10
17.3140870773
 20
1.33952395
 10
17.3214358982
 20
1.3297204124
 10
17.3243305557
 20
1.3191698564
 10
17.3225892153
 20
1.3085351343
 10
17.3163212457
 20
1.2984845612
 10
17.3059205205
 20
1.289649633
 10
17.2920404418
 20
1.2825854623
 10
17.2755533652
 20
1.2777358795
 10
17.2574950723
 20
1.275405669
 10
17.239000256
 20
1.2757411862
 10
17.221231135
 20
1.278721377
 10
17.2053040373
 20
1.2841590004
 10
17.1922197431
 20
1.2917124026
 10
17.1828004825
 20
1.3009069204
 10
17.1776379948
 20
1.3111648655
 10
17.1770567991
 20
1.3218416957
 10
17.1810933658
 20
1.3322664764
 10
17.1894939133
 20
1.3417843131
 10
17.2017308284
 20
1.349797062
 10
17.2170350311
 20
1.3558012729
 10
17.2344450207
 20
1.3594196947
 10
17.2528668094
 20
1.360424999
 10
17.2711428887
 20
1.3587539488
 10
17.288124954
 20
1.3545115648
 10
17.3027459816
 20
1.3479644397
  0
LINE
  5
2C6
330
1F
100
AcDbEntity
  8
0
  6
Continuous
 62
     7
370
    15
100
AcDbLine
 10
18.7246969322
 20
2.1353793322
 30
0.0
 11
18.6209564677
 21
2.239108572
 31
0.0
  0
ARC
  5
2C7
330
1F
100
AcDbEntity
  8
0
  6
Continuous
 62
     7
370
    15
100
AcDbCircle
 10
18.6857896886
 20
2.0961492559
 30
0.0
 40
0.0552519003460979
100
AcDbArc
 50
289.0696790664
 51
45.2367223125
  0
LINE
  5
2C8
330
1F
100
AcDbEntity
  8
0
  6
Continuous
 62
     7
370
    15
100
AcDbLine
 10
17.152724919
 20
1.1484889492
 30
0.0
 11
18.7038414672
 21
2.0439294725
 31
0.0
  0
LINE
  5
2C9
330
1F
100
AcDbEntity
  8
0
  6
Continuous
 62
     7
370
    15
100
AcDbLine
 10
16.8146281686
 20
1.1963374409
 30
0.0
 11
16.9943119512
 21
1.1364493455
 31
0.0
  0
ARC
  5
2CA
330
1F
100
AcDbEntity
  8
0
  6
Continuous
 62
     7
370
    15
100
AcDbCircle
 10
16.7885744655
 20
1.2787811056
 30
0.0
 40
0.0864624386268213
100
AcDbArc
 50
287.5374872072
 51
299.6166211965
  0
LINE
  5
2CB
330
1F
100
AcDbEntity
  8
0
  6
Continuous
 62
     7
370
    15
100
AcDbLine
 10
18.6083502665
 20
2.2294819978
 30
0.0
 11
16.8313036909
 21
1.203614846
 31
0.0
  0
ARC
  5
2CC
330
1F
100
AcDbEntity
  8
0
  6
Continuous
 62
     7
370
    15
100
AcDbCircle
 10
18.5801551895
 20
2.2794713738
 30
0.0
 40
0.0573925088869963
100
AcDbArc
 50
299.4239277853
 51
315.3095285484
  0
LWPOLYLINE
  5
2CD
330
1F
100
AcDbEntity
  8
0
  6
Continuous
 62
     7
370
    15
100
AcDbPolyline
 90
       26
 70
   128
 43
0.0
 10
18.4626980245
 20
2.0175905007
 10
18.4740391635
 20
2.009150036
 10
18.4813879844
 20
1.9993464984
 10
18.4842825986
 20
1.9887959174
 10
18.4825413015
 20
1.9781612202
 10
18.4762733319
 20
1.9681106472
 10
18.4658725634
 20
1.959275694
 10
18.451992528
 20
1.9522115482
 10
18.4355054514
 20
1.9473619654
 10
18.4174471153
 20
1.94503173
 10
18.3989523422
 20
1.9453672721
 10
18.3811831779
 20
1.948347438
 10
18.3652560802
 20
1.9537850614
 10
18.3521717861
 20
1.9613384636
 10
18.3427525255
 20
1.9705329814
 10
18.337590081
 20
1.9807909515
 10
18.337008842
 20
1.9914677567
 10
18.3410454519
 20
2.0018925624
 10
18.3494459995
 20
2.011410399
 10
18.3616828713
 20
2.019423123
 10
18.3769871173
 20
2.0254273589
 10
18.3943971068
 20
2.0290457807
 10
18.4128188524
 20
2.03005106
 10
18.4310949749
 20
2.0283800348
 10
18.4480770401
 20
2.0241376508
 10
18.4626980245
 20
2.0175905007
  0
LINE
  5
2CE
330
1F
100
AcDbEntity
  8
0
  6
Continuous
 62
     7
370
    15
100
AcDbLine
 10
17.175923921
 20
1.0279388585
 30
0.0
 11
17.175923921
 21
1.1083070493
 31
0.0
  0
ARC
  5
2CF
330
1F
100
AcDbEntity
  8
0
  6
Continuous
 62
     7
370
    15
100
AcDbCircle
 10
17.0589409022
 20
1.2569227161
 30
0.0
 40
0.2571354385597189
100
AcDbArc
 50
251.630865241
 51
297.0615297855
  0
LINE
  5
2D0
330
1F
100
AcDbEntity
  8
0
  6
Continuous
 62
     7
370
    15
100
AcDbLine
 10
16.9779077977
 20
1.0932575696
 30
0.0
 11
16.9779077977
 21
1.0128893788
 31
0.0
  0
LINE
  5
2D1
330
1F
100
AcDbEntity
  8
0
  6
Continuous
 62
     7
370
    15
100
AcDbLine
 10
16.767547681
 20
1.1633454332
 30
0.0
 11
16.9779077977
 21
1.0932575696
 31
0.0
  0
LWPOLYLINE
  5
2D2
330
1F
100
AcDbEntity
  8
0
  6
Continuous
 62
     7
370
    15
100
AcDbPolyline
 90
        7
 70
   128
 43
0.0
 10
16.7675443105
 20
1.1633461379
 10
16.7677963204
 20
1.1671194106
 10
16.7694388791
 20
1.1705264902
 10
16.7748054983
 20
1.1760097971
 10
16.788982959
 20
1.1849953786
 10
16.8058273522
 20
1.1930556493
 10
16.8146281686
 20
1.1963374409
  0
LINE
  5
2D3
330
1F
100
AcDbEntity
  8
0
  6
Continuous
 62
     7
370
    15
100
AcDbLine
 10
16.7776107077
 20
1.0796477684
 30
0.0
 11
16.7675443105
 21
1.1633461379
 31
0.0
  0
LINE
  5
2D4
330
1F
100
AcDbEntity
  8
0
  6
Continuous
 62
     7
370
    15
100
AcDbLine
 10
16.7299968163
 20
1.341071199
 30
0.0
 11
16.7190545203
 21
1.0936497859
 31
0.0
  0
ARC
  5
2D5
330
1F
100
AcDbEntity
  8
0
  6
Continuous
 62
     7
370
    15
100
AcDbCircle
 10
16.7776107077
 20
1.4329653893
 30
0.0
 40
0.1034969800030489
100
AcDbArc
 50
242.6096000898
 51
297.3903999102
  0
LINE
  5
2D6
330
1F
100
AcDbEntity
  8
0
  6
Continuous
 62
     7
370
    15
100
AcDbLine
 10
16.8313036909
 20
1.203614846
 30
0.0
 11
16.8252245992
 21
1.341071199
 31
0.0
  0
ARC
  5
2D7
330
1F
100
AcDbEntity
  8
0
  6
Continuous
 62
     7
370
    15
100
AcDbCircle
 10
16.7752251468
 20
1.1991128697
 30
0.0
 40
0.1194889171843565
100
AcDbArc
 50
241.9598169714
 51
271.1439693249
  0
LINE
  5
2D8
330
1F
100
AcDbEntity
  8
0
  6
Continuous
 62
     7
370
    15
100
AcDbLine
 10
16.7776107077
 20
1.0796477684
 30
0.0
 11
16.9779077977
 21
1.0128893788
 31
0.0
  0
LINE
  5
2D9
330
1F
100
AcDbEntity
  8
0
  6
Continuous
 62
     7
370
    15
100
AcDbLine
 10
16.7299968163
 20
1.341071199
 30
0.0
 11
14.9668697283
 21
2.3589028018
 31
0.0
  0
ARC
  5
2DA
330
1F
100
AcDbEntity
  8
0
  6
Continuous
 62
     7
370
    15
100
AcDbCircle
 10
14.9770416305
 20
2.3862369399
 30
0.0
 40
0.0291654367200144
100
AcDbArc
 50
113.8022962595
 51
249.5881653745
  0
ARC
  5
2DB
330
1F
100
AcDbEntity
  8
0
  6
Continuous
 62
     7
370
    15
100
AcDbCircle
 10
18.5920993498
 20
2.3942724433
 30
0.0
 40
0.0291653669281897
100
AcDbArc
 50
290.4117239442
 51
66.1979944636
  0
LINE
  5
2DC
330
1F
100
AcDbEntity
  8
0
  6
Continuous
 62
     7
370
    15
100
AcDbLine
 10
16.8252245992
 20
1.341071199
 30
0.0
 11
18.6022711748
 21
2.3669383509
 31
0.0
  0
ARC
  5
2DD
330
1F
100
AcDbEntity
  8
0
  6
Continuous
 62
     7
370
    15
100
AcDbCircle
 10
14.9898999147
 20
2.3888458725
 30
0.0
 40
0.024751097361092
100
AcDbArc
 50
185.695076278
 51
245.6252815725
  0
LINE
  5
2DE
330
1F
100
AcDbEntity
  8
0
  6
Continuous
 62
     7
370
    15
100
AcDbLine
 10
16.7428121616
 20
1.3484693404
 30
0.0
 11
14.9796850736
 21
2.3663009431
 31
0.0
  0
ARC
  5
2DF
330
1F
100
AcDbEntity
  8
0
  6
Continuous
 62
     7
370
    15
100
AcDbCircle
 10
16.7776107991
 20
1.4156305009
 30
0.0
 40
0.0756410381560321
100
AcDbArc
 50
242.6096848811
 51
297.3902329735
  0
LINE
  5
2E0
330
1F
100
AcDbEntity
  8
0
  6
Continuous
 62
     7
370
    15
100
AcDbLine
 10
18.5894559159
 20
2.3743364424
 30
0.0
 11
16.8124093403
 21
1.3484692905
 31
0.0
  0
ARC
  5
2E1
330
1F
100
AcDbEntity
  8
0
  6
Continuous
 62
     7
370
    15
100
AcDbCircle
 10
18.5792409345
 20
2.3968813604
 30
0.0
 40
0.0247511449245479
100
AcDbArc
 50
294.3750251792
 51
354.3050772056
  0
LINE
  5
2E2
330
1F
100
AcDbEntity
  8
0
  6
Continuous
 62
     7
370
    15
100
AcDbLine
 10
14.9936044748
 20
2.4252323912
 30
0.0
 11
16.7706510504
 21
3.4510995431
 31
0.0
  0
ARC
  5
2E3
330
1F
100
AcDbEntity
  8
0
  6
Continuous
 62
     7
370
    15
100
AcDbCircle
 10
14.9981790506
 20
2.4131791173
 30
0.0
 40
0.0128921741518368
100
AcDbArc
 50
110.783243025
 51
249.216756975
  0
LINE
  5
2E4
330
1F
100
AcDbEntity
  8
0
  6
Continuous
 62
     7
370
    15
100
AcDbLine
 10
16.7567315628
 20
1.3832942407
 30
0.0
 11
14.9936044748
 21
2.4011258435
 31
0.0
  0
ARC
  5
2E5
330
1F
100
AcDbEntity
  8
0
  6
Continuous
 62
     7
370
    15
100
AcDbCircle
 10
16.7776107077
 20
1.4235906868
 30
0.0
 40
0.0453843834673051
100
AcDbArc
 50
242.6095816276
 51
297.3904183724
  0
LINE
  5
2E6
330
1F
100
AcDbEntity
  8
0
  6
Continuous
 62
     7
370
    15
100
AcDbLine
 10
18.5755364283
 20
2.4091613926
 30
0.0
 11
16.7984898527
 21
1.3832942407
 31
0.0
  0
ARC
  5
2E7
330
1F
100
AcDbEntity
  8
0
  6
Continuous
 62
     7
370
    15
100
AcDbCircle
 10
18.5709618525
 20
2.4212146665
 30
0.0
 40
0.0128921741518364
100
AcDbArc
 50
290.783243025
 51
69.216756975
  0
LINE
  5
2E8
330
1F
100
AcDbEntity
  8
0
  6
Continuous
 62
     7
370
    15
100
AcDbLine
 10
16.8124093403
 20
3.4510995431
 30
0.0
 11
18.5755364283
 21
2.4332679403
 31
0.0
  0
ARC
  5
2E9
330
1F
100
AcDbEntity
  8
0
  6
Continuous
 62
     7
370
    15
100
AcDbCircle
 10
16.7915301954
 20
3.410803097
 30
0.0
 40
0.0453843834672845
100
AcDbArc
 50
62.6095816276
 51
117.3904183724
  0
ARC
  5
2EA
330
1F
100
AcDbEntity
  8
0
  6
Continuous
 62
     7
370
    15
100
AcDbCircle
 10
14.987309432
 20
2.4131791587
 30
0.0
 40
0.021487003194542
100
AcDbArc
 50
110.7836289018
 51
249.2166175879
  0
LINE
  5
2EB
330
1F
100
AcDbEntity
  8
0
  6
Continuous
 62
     7
370
    15
100
AcDbLine
 10
14.9796849872
 20
2.4332679403
 30
0.0
 11
16.7567315628
 21
3.4591350922
 31
0.0
  0
ARC
  5
2EC
330
1F
100
AcDbEntity
  8
0
  6
Continuous
 62
     7
370
    15
100
AcDbCircle
 10
16.791530104
 20
3.3919738818
 30
0.0
 40
0.0756410381560397
100
AcDbArc
 50
62.6096848811
 51
117.3902329735
  0
LINE
  5
2ED
330
1F
100
AcDbEntity
  8
0
  6
Continuous
 62
     7
370
    15
100
AcDbLine
 10
16.8263287415
 20
3.4591350423
 30
0.0
 11
18.5894558295
 21
2.4413034396
 31
0.0
  0
ARC
  5
2EE
330
1F
100
AcDbEntity
  8
0
  6
Continuous
 62
     7
370
    15
100
AcDbCircle
 10
18.5818314712
 20
2.4212146251
 30
0.0
 40
0.0214870031945388
100
AcDbArc
 50
290.7836289018
 51
69.2166175879
  0
LINE
  5
2EF
330
1F
100
AcDbEntity
  8
0
  6
Continuous
 62
     7
370
    15
100
AcDbLine
 10
18.5894559159
 20
2.4011258435
 30
0.0
 11
16.8124093403
 21
1.3752586916
 31
0.0
  0
ARC
  5
2F0
330
1F
100
AcDbEntity
  8
0
  6
Continuous
 62
     7
370
    15
100
AcDbCircle
 10
16.7776107991
 20
1.442419902
 30
0.0
 40
0.0756410381560317
100
AcDbArc
 50
242.6096848811
 51
297.3902329735
  0
LINE
  5
2F1
330
1F
100
AcDbEntity
  8
0
  6
Continuous
 62
     7
370
    15
100
AcDbLine
 10
16.7428121616
 20
1.3752587415
 30
0.0
 11
14.9796850736
 21
2.3930903442
 31
0.0
  0
LINE
  5
2F2
330
1F
100
AcDbEntity
  8
0
  6
Continuous
 62
     7
370
    15
100
AcDbLine
 10
16.7428121616
 20
1.3484693404
 30
0.0
 11
16.7428121616
 21
1.3752587415
 31
0.0
  0
LINE
  5
2F3
330
1F
100
AcDbEntity
  8
0
  6
Continuous
 62
     7
370
    15
100
AcDbLine
 10
16.8124093403
 20
1.3484692905
 30
0.0
 11
16.8124093403
 21
1.3752586916
 31
0.0
  0
LINE
  5
2F4
330
1F
100
AcDbEntity
  8
0
  6
Continuous
 62
     7
370
    15
100
AcDbLine
 10
14.9668697283
 20
2.3589028018
 30
0.0
 11
14.9559274323
 21
2.1114813887
 31
0.0
  0
LINE
  5
2F5
330
1F
100
AcDbEntity
  8
0
  6
Continuous
 62
     7
370
    15
100
AcDbLine
 10
14.9559274323
 20
2.1114813887
 30
0.0
 11
16.7190545203
 21
1.0936497859
 31
0.0
  0
LINE
  5
2F6
330
1F
100
AcDbEntity
  8
0
  6
Continuous
 62
     7
370
    15
100
AcDbLine
 10
14.9796850736
 20
2.3663009431
 30
0.0
 11
14.9796850736
 21
2.3930903442
 31
0.0
  0
LINE
  5
2F7
330
1F
100
AcDbEntity
  8
0
  6
Continuous
 62
     7
370
    15
100
AcDbLine
 10
18.5894559159
 20
2.4011258435
 30
0.0
 11
18.5894559159
 21
2.3743364424
 31
0.0
  0
ARC
  5
2F8
330
1F
100
AcDbEntity
  8
0
  6
Continuous
 62
     7
370
    15
100
AcDbCircle
 10
18.6766727376
 20
2.0014557019
 30
0.0
 40
0.0504198478236914
100
AcDbArc
 50
2.6053188705
 51
57.3946196559
  0
LINE
  5
2F9
330
1F
100
AcDbEntity
  8
0
  6
Continuous
 62
     7
370
    15
100
AcDbLine
 10
17.175923921
 20
1.1083070493
 30
0.0
 11
18.7270404692
 21
2.0037475726
 31
0.0
  0
LINE
  5
2FA
330
1F
100
AcDbEntity
  8
0
  6
Continuous
 62
     7
370
    15
100
AcDbLine
 10
18.6022711748
 20
2.3669383509
 30
0.0
 11
18.6083502665
 21
2.2294819978
 31
0.0
  0
LINE
  5
2FB
330
1F
100
AcDbEntity
  8
0
  6
Continuous
 62
     7
370
    15
100
AcDbLine
 10
18.7270404692
 20
2.0037475726
 30
0.0
 11
18.7270404692
 21
1.9233793817
 31
0.0
  0
LINE
  5
2FC
330
1F
100
AcDbEntity
  8
0
  6
Continuous
 62
     7
370
    15
100
AcDbLine
 10
17.175923921
 20
1.0279388585
 30
0.0
 11
18.7270404692
 21
1.9233793817
 31
0.0
  0
LINE
  5
2FD
330
1F
100
AcDbEntity
  8
0
  6
Continuous
 62
     7
370
    15
100
AcDbLine
 10
17.8522225772
 20
2.7790749136
 30
0.0
 11
18.5342687627
 21
2.3853380317
 31
0.0
  0
LINE
  5
2FE
330
1F
100
AcDbEntity
  8
0
  6
Continuous
 62
     7
370
    15
100
AcDbLine
 10
17.8795652242
 20
2.7948594877
 30
0.0
 11
17.8522225772
 21
2.7790749136
 31
0.0
  0
LINE
  5
2FF
330
1F
100
AcDbEntity
  8
0
  6
Continuous
 62
     7
370
    15
100
AcDbLine
 10
18.5616114096
 20
2.4011226058
 30
0.0
 11
17.8795652242
 21
2.7948594877
 31
0.0
  0
LINE
  5
300
330
1F
100
AcDbEntity
  8
0
  6
Continuous
 62
     7
370
    15
100
AcDbLine
 10
16.7915301954
 20
3.2222406938
 30
0.0
 11
18.3877569559
 21
2.3007585993
 31
0.0
  0
LINE
  5
301
330
1F
100
AcDbEntity
  8
0
  6
Continuous
 62
     7
370
    15
100
AcDbLine
 10
15.1813839472
 20
2.2927230501
 30
0.0
 11
16.7915301954
 21
3.2222406938
 31
0.0
  0
LWPOLYLINE
  5
302
330
1F
100
AcDbEntity
  8
0
  6
Continuous
 62
     7
370
    15
100
AcDbPolyline
 90
       17
 70
   128
 43
0.0
 10
16.8829881566
 20
2.9267812467
 10
16.8826709836
 20
2.9214686502
 10
16.8786602574
 20
2.9094022051
 10
16.8702499872
 20
2.8981156067
 10
16.8578333984
 20
2.8881366024
 10
16.8419911683
 20
2.879931773
 10
16.8234640297
 20
2.8738847805
 10
16.8031182021
 20
2.8702784074
 10
16.7819051612
 20
2.8692812603
 10
16.7608166993
 20
2.8709399375
 10
16.7408389911
 20
2.8751769083
 10
16.7229060982
 20
2.8817940555
 10
16.7078565413
 20
2.8904819797
 10
16.6963940643
 20
2.9008344184
 10
16.6890545771
 20
2.9123673288
 10
16.6861813526
 20
2.9245414387
 10
16.6861527465
 20
2.9267812467
  0
LWPOLYLINE
  5
303
330
1F
100
AcDbEntity
  8
0
  6
Continuous
 62
     7
370
    15
100
AcDbPolyline
 90
       17
 70
   128
 43
0.0
 10
16.8829881566
 20
1.5071739824
 10
16.8826709404
 20
1.5018613609
 10
16.8786602142
 20
1.4897949159
 10
16.870249944
 20
1.4785083175
 10
16.8578334416
 20
1.4685293131
 10
16.8419912115
 20
1.4603244837
 10
16.8234640297
 20
1.4542775162
 10
16.8031182453
 20
1.4506711181
 10
16.7819051612
 20
1.4496739461
 10
16.7608167425
 20
1.4513326482
 10
16.7408389911
 20
1.455569644
 10
16.7229060982
 20
1.4621867912
 10
16.7078565413
 20
1.4708747154
 10
16.6963940643
 20
1.4812271541
 10
16.6890546203
 20
1.4927600396
 10
16.6861813526
 20
1.5049341246
 10
16.6861527465
 20
1.5071739824
  0
LWPOLYLINE
  5
304
330
1F
100
AcDbEntity
  8
0
  6
Continuous
 62
     7
370
    15
100
AcDbPolyline
 90
       17
 70
   128
 43
0.0
 10
15.6534389781
 20
2.2169776145
 10
15.6531217619
 20
2.2116649931
 10
15.6491110357
 20
2.199598548
 10
15.6407007655
 20
2.1883119496
 10
15.6282842199
 20
2.1783329702
 10
15.6124419898
 20
2.1701281408
 10
15.5939148512
 20
2.1640811484
 10
15.5735690236
 20
2.1604747752
 10
15.5523559395
 20
2.1594776032
 10
15.5312675208
 20
2.1611363053
 10
15.5112898126
 20
2.1653732762
 10
15.4933569197
 20
2.1719904233
 10
15.4783073628
 20
2.1806783476
 10
15.4668448858
 20
2.1910307863
 10
15.4595053986
 20
2.2025636967
 10
15.4566321309
 20
2.2147377817
 10
15.456603568
 20
2.2169776145
  0
LWPOLYLINE
  5
305
330
1F
100
AcDbEntity
  8
0
  6
Continuous
 62
     7
370
    15
100
AcDbPolyline
 90
       17
 70
   128
 43
0.0
 10
18.1125373351
 20
2.2169776145
 10
18.1122201621
 20
2.211665018
 10
18.1082094359
 20
2.199598573
 10
18.0997991657
 20
2.1883119746
 10
18.0873826201
 20
2.1783329453
 10
18.07154039
 20
2.1701281159
 10
18.0530132082
 20
2.1640811484
 10
18.0326674238
 20
2.1604747503
 10
18.0114543829
 20
2.1594776032
 10
17.990365921
 20
2.1611362804
 10
17.9703881696
 20
2.1653732762
 10
17.9524552767
 20
2.1719904233
 10
17.9374057198
 20
2.1806783476
 10
17.9259432428
 20
2.1910307863
 10
17.9186037988
 20
2.2025636717
 10
17.9157305743
 20
2.2147377817
 10
17.915701925
 20
2.2169776145
  0
LWPOLYLINE
  5
306
330
1F
100
AcDbEntity
  8
0
  6
Continuous
 62
     7
370
    15
100
AcDbPolyline
 90
       30
 70
   128
 43
0.0
 10
16.8521428652
 20
1.6794284936
 10
16.8650891416
 20
1.6701307512
 10
16.874270436
 20
1.6594437682
 10
16.8792574847
 20
1.647867253
 10
16.8798170747
 20
1.6359424985
 10
16.8759229765
 20
1.6242271117
 10
16.8677573703
 20
1.6132688462
 10
16.8557020736
 20
1.6035801328
 10
16.8403206949
 20
1.595614007
 10
16.8223325344
 20
1.5897429553
 10
16.8025786622
 20
1.586241478
 10
16.7819826828
 20
1.5852733176
 10
16.7615077389
 20
1.5868837502
 10
16.7421111833
 20
1.5909974652
 10
16.7246999838
 20
1.5974221078
 10
16.7100882467
 20
1.6058572841
 10
16.6989592334
 20
1.6159085556
 10
16.6918332979
 20
1.6271059489
 10
16.6890436445
 20
1.6389258823
 10
16.6907207725
 20
1.6508156633
 10
16.6967861229
 20
1.6622193559
 10
16.7069561848
 20
1.6726036999
 10
16.7207554146
 20
1.6814831808
 10
16.7375385769
 20
1.6884425555
 10
16.7565209063
 20
1.6931564596
 10
16.7768147936
 20
1.6954044497
 10
16.7974713125
 20
1.6950814052
 10
16.8175245978
 20
1.6922024433
 10
16.8360370012
 20
1.6869021949
 10
16.8521428652
 20
1.6794284936
  0
LWPOLYLINE
  5
307
330
1F
100
AcDbEntity
  8
0
  6
Continuous
 62
     7
370
    15
100
AcDbPolyline
 90
       18
 70
   128
 43
0.0
 10
16.7593466845
 20
1.6258583987
 10
16.7519381452
 20
1.632101862
 10
16.7489367551
 20
1.6394687217
 10
16.7507479254
 20
1.6469640009
 10
16.7571269487
 20
1.6535754355
 10
16.7672124023
 20
1.6584101508
 10
16.7796421706
 20
1.6608151728
 10
16.792737527
 20
1.6604656363
 10
16.8047298644
 20
1.6574088128
 10
16.8139995698
 20
1.6520575259
 10
16.819294717
 20
1.6451344968
 10
16.8199001545
 20
1.6375747335
 10
16.8157340827
 20
1.6303991809
 10
16.807359246
 20
1.6245769476
 10
16.7959066644
 20
1.6208944158
 10
16.78292301
 20
1.6198488744
 10
16.7701618521
 20
1.62158154
 10
16.7593466845
 20
1.6258583987
  0
LINE
  5
308
330
1F
100
AcDbEntity
  8
0
  6
Continuous
 62
     7
370
    15
100
AcDbLine
 10
16.7706510504
 20
3.4109154664
 30
0.0
 11
15.0075295799
 21
2.3930871065
 31
0.0
  0
ARC
  5
309
330
1F
100
AcDbEntity
  8
0
  6
Continuous
 62
     7
370
    15
100
AcDbCircle
 10
16.7915301954
 20
3.3706190203
 30
0.0
 40
0.0453843834672967
100
AcDbArc
 50
62.6095816276
 51
117.3904183724
  0
LINE
  5
30A
330
1F
100
AcDbEntity
  8
0
  6
Continuous
 62
     7
370
    15
100
AcDbLine
 10
17.5083805445
 20
3.0091398422
 30
0.0
 11
16.8124093403
 21
3.4109154664
 31
0.0
  0
LINE
  5
30B
330
1F
100
AcDbEntity
  8
0
  6
Continuous
 62
     7
370
    15
100
AcDbLine
 10
17.4810378975
 20
2.9933552681
 30
0.0
 11
17.5083805445
 21
3.0091398422
 31
0.0
  0
LINE
  5
30C
330
1F
100
AcDbEntity
  8
0
  6
Continuous
 62
     7
370
    15
100
AcDbLine
 10
16.7915301954
 20
3.391399592
 30
0.0
 11
17.4810378975
 21
2.9933552681
 31
0.0
  0
LINE
  5
30D
330
1F
100
AcDbEntity
  8
0
  6
Continuous
 62
     7
370
    15
100
AcDbLine
 10
15.0348722269
 20
2.3773025324
 30
0.0
 11
16.7915301954
 21
3.391399592
 31
0.0
  0
ARC
  5
30E
330
1F
100
AcDbEntity
  8
0
  6
Continuous
 62
     7
370
    15
100
AcDbCircle
 10
18.694220012
 20
1.9976471004
 30
0.0
 40
0.081196529720739
100
AcDbArc
 50
293.8416372022
 51
354.8381732486
  0
LWPOLYLINE
  5
30F
330
1F
100
AcDbEntity
  8
0
  6
Continuous
 62
     7
370
    15
100
AcDbPolyline
 90
       30
 70
   128
 43
0.0
 10
15.6225936867
 20
2.3892321257
 10
15.6355399199
 20
2.3799344083
 10
15.6447212143
 20
2.3692474253
 10
15.649708263
 20
2.3576709101
 10
15.650267853
 20
2.3457461556
 10
15.646373798
 20
2.3340307438
 10
15.6382081918
 20
2.3230724783
 10
15.6261528951
 20
2.3133837649
 10
15.6107715165
 20
2.3054176391
 10
15.5927833559
 20
2.2995465874
 10
15.5730294405
 20
2.2960451351
 10
15.5524335043
 20
2.2950769498
 10
15.5319585604
 20
2.2966873823
 10
15.5125620048
 20
2.3008010974
 10
15.4951508053
 20
2.30722574
 10
15.4805390682
 20
2.3156609163
 10
15.4694100549
 20
2.3257121878
 10
15.4622841194
 20
2.336909581
 10
15.4594944661
 20
2.3487295145
 10
15.4611715508
 20
2.3606193204
 10
15.4672369445
 20
2.372022988
 10
15.4774070063
 20
2.3824073321
 10
15.4912062361
 20
2.391286813
 10
15.5079893984
 20
2.3982461876
 10
15.5269717278
 20
2.4029600918
 10
15.5472655719
 20
2.4052081068
 10
15.5679220908
 20
2.4048850623
 10
15.5879753761
 20
2.4020061004
 10
15.6064877795
 20
2.396705852
 10
15.6225936867
 20
2.3892321257
  0
LWPOLYLINE
  5
310
330
1F
100
AcDbEntity
  8
0
  6
Continuous
 62
     7
370
    15
100
AcDbPolyline
 90
       30
 70
   128
 43
0.0
 10
18.0816920437
 20
2.3892321257
 10
18.0946383633
 20
2.3799344083
 10
18.1038196577
 20
2.3692474253
 10
18.1088066632
 20
2.3576708852
 10
18.1093662531
 20
2.3457461307
 10
18.105472155
 20
2.3340307438
 10
18.097306592
 20
2.3230725033
 10
18.0852512521
 20
2.3133837649
 10
18.0698698734
 20
2.3054176391
 10
18.0518817129
 20
2.2995465874
 10
18.0321278407
 20
2.2960451102
 10
18.0115319045
 20
2.2950769747
 10
17.9910569606
 20
2.2966874073
 10
17.971660405
 20
2.3008011223
 10
17.9542492055
 20
2.3072257649
 10
17.9396374684
 20
2.3156609412
 10
17.9285084551
 20
2.3257122127
 10
17.9213825196
 20
2.3369096059
 10
17.9185928662
 20
2.3487295394
 10
17.920269951
 20
2.3606192954
 10
17.9263353014
 20
2.372022988
 10
17.9365053633
 20
2.3824073321
 10
17.9503045931
 20
2.391286813
 10
17.9670877986
 20
2.3982462126
 10
17.9860700848
 20
2.4029600918
 10
18.0063639721
 20
2.4052080818
 10
18.027020491
 20
2.4048850374
 10
18.0470738195
 20
2.4020061004
 10
18.0655862229
 20
2.396705852
 10
18.0816920437
 20
2.3892321257
  0
ARC
  5
311
330
1F
100
AcDbEntity
  8
0
  6
Continuous
 62
     7
370
    15
100
AcDbCircle
 10
18.6378591242
 20
2.2301294986
 30
0.0
 40
0.0191395807707568
100
AcDbArc
 50
110.4309619308
 51
152.0217493211
  0
LWPOLYLINE
  5
312
330
1F
100
AcDbEntity
  8
0
  6
Continuous
 62
     7
370
    15
100
AcDbPolyline
 90
       18
 70
   128
 43
0.0
 10
15.529797506
 20
2.3356620308
 10
15.5223889667
 20
2.3419054942
 10
15.5193875767
 20
2.3492723538
 10
15.5211987037
 20
2.356767658
 10
15.527577727
 20
2.3633790926
 10
15.5376632238
 20
2.3682137829
 10
15.5500929921
 20
2.370618805
 10
15.5631883053
 20
2.3702692934
 10
15.5751806427
 20
2.3672124699
 10
15.5844503481
 20
2.361861183
 10
15.5897454953
 20
2.3549381539
 10
15.590350976
 20
2.3473783656
 10
15.5861849042
 20
2.3402028131
 10
15.5778100243
 20
2.3343806047
 10
15.5663574427
 20
2.3306980729
 10
15.5533738315
 20
2.3296525065
 10
15.5406126736
 20
2.3313851721
 10
15.529797506
 20
2.3356620308
  0
LWPOLYLINE
  5
313
330
1F
100
AcDbEntity
  8
0
  6
Continuous
 62
     7
370
    15
100
AcDbPolyline
 90
       18
 70
   128
 43
0.0
 10
17.9888959062
 20
2.3356620558
 10
17.9814873237
 20
2.3419054942
 10
17.9784859336
 20
2.3492723538
 10
17.9802971039
 20
2.356767633
 10
17.9866761704
 20
2.3633790926
 10
17.996761624
 20
2.3682138079
 10
18.0091913491
 20
2.370618805
 10
18.0222867054
 20
2.3702692684
 10
18.0342790861
 20
2.3672124699
 10
18.0435487915
 20
2.361861183
 10
18.0488438955
 20
2.3549381289
 10
18.049449333
 20
2.3473783656
 10
18.0452833044
 20
2.340202838
 10
18.0369084677
 20
2.3343806047
 10
18.0254558429
 20
2.3306980479
 10
18.0124721885
 20
2.3296525065
 10
17.9997110305
 20
2.3313851721
 10
17.9888959062
 20
2.3356620558
  0
ARC
  5
314
330
1F
100
AcDbEntity
  8
0
  6
Continuous
 62
     7
370
    15
100
AcDbCircle
 10
14.6061603869
 20
2.2391268913
 30
0.0
 40
0.3318863834194574
100
AcDbArc
 50
356.6645451663
 51
0.7435423801
  0
LINE
  5
315
330
1F
100
AcDbEntity
  8
0
  6
Continuous
 62
     7
370
    15
100
AcDbLine
 10
14.9374845563
 20
2.2198171463
 30
0.0
 11
14.9316725985
 21
2.1452851562
 31
0.0
  0
ARC
  5
316
330
1F
100
AcDbEntity
  8
0
  6
Continuous
 62
     7
370
    15
100
AcDbCircle
 10
14.9731162205
 20
2.1494181964
 30
0.0
 40
0.0416491995623874
100
AcDbArc
 50
185.6950951561
 51
245.6251951801
  0
LINE
  5
317
330
1F
100
AcDbEntity
  8
0
  6
Continuous
 62
     7
370
    15
100
AcDbLine
 10
16.7706510504
 20
3.4109154664
 30
0.0
 11
16.7706510504
 21
3.4510995431
 31
0.0
  0
LINE
  5
318
330
1F
100
AcDbEntity
  8
0
  6
Continuous
 62
     7
370
    15
100
AcDbLine
 10
16.7915301954
 20
3.391399592
 30
0.0
 11
16.7915301954
 21
3.2222406938
 31
0.0
  0
LINE
  5
319
330
1F
100
AcDbEntity
  8
0
  6
Continuous
 62
     7
370
    15
100
AcDbLine
 10
17.8795652242
 20
2.7948594877
 30
0.0
 11
17.5083805445
 21
3.0091398422
 31
0.0
  0
LINE
  5
31A
330
1F
100
AcDbEntity
  8
0
  6
Continuous
 62
     7
370
    15
100
AcDbLine
 10
16.8124093403
 20
3.4109154664
 30
0.0
 11
16.8124093403
 21
3.4510995431
 31
0.0
  0
LINE
  5
31B
330
1F
100
AcDbEntity
  8
0
  6
Continuous
 62
     7
370
    15
100
AcDbLine
 10
17.4786062954
 20
2.9383727319
 30
0.0
 11
17.4810378975
 21
2.9933552681
 31
0.0
  0
LINE
  5
31C
330
1F
100
AcDbEntity
  8
0
  6
Continuous
 62
     7
370
    15
100
AcDbLine
 10
17.8497909751
 20
2.7240923774
 30
0.0
 11
17.4786062954
 21
2.9383727319
 31
0.0
  0
LINE
  5
31D
330
1F
100
AcDbEntity
  8
0
  6
Continuous
 62
     7
370
    15
100
AcDbLine
 10
17.8522225772
 20
2.7790749136
 30
0.0
 11
17.8497909751
 21
2.7240923774
 31
0.0
  0
LINE
  5
31E
330
1F
100
AcDbEntity
  8
0
  6
Continuous
 62
     7
370
    15
100
AcDbLine
 10
14.9374825686
 20
2.2198195349
 30
0.0
 11
14.8160311458
 21
2.3412823958
 31
0.0
  0
ARC
  5
31F
330
1F
100
AcDbEntity
  8
0
  6
Continuous
 62
     7
370
    15
100
AcDbCircle
 10
14.8575784014
 20
2.3379877519
 30
0.0
 40
0.04167768129755
100
AcDbArc
 50
108.3694481916
 51
175.4660061967
  0
LINE
  5
320
330
1F
100
AcDbEntity
  8
0
  6
Continuous
 62
     7
370
    15
100
AcDbLine
 10
14.8160311458
 20
2.3412823958
 30
0.0
 11
14.8160311458
 21
2.2609142049
 31
0.0
  0
LINE
  5
321
330
1F
100
AcDbEntity
  8
0
  6
Continuous
 62
     7
370
    15
100
AcDbLine
 10
14.8160311458
 20
2.2609142049
 30
0.0
 11
14.9316725985
 21
2.1452851562
 31
0.0
  0
LWPOLYLINE
  5
322
330
1F
100
AcDbEntity
  8
0
  6
Continuous
 62
     7
370
    15
100
AcDbPolyline
 90
       13
 70
   128
 43
0.0
 10
16.257664756
 20
3.1710299156
 10
16.2508451041
 20
3.1781654306
 10
16.2456827461
 20
3.1884233508
 10
16.2451015071
 20
3.199100156
 10
16.2491380306
 20
3.2095250116
 10
16.2575386646
 20
3.2190427983
 10
16.26977545
 20
3.2270555722
 10
16.2850796959
 20
3.233059808
 10
16.3024896855
 20
3.2366782298
 10
16.3209115174
 20
3.2376834593
 10
16.3391876399
 20
3.236012434
 10
16.3561697052
 20
3.23177005
 10
16.3602701818
 20
3.2302627672
  0
LWPOLYLINE
  5
323
330
1F
100
AcDbEntity
  8
0
  6
Continuous
 62
     7
370
    15
100
AcDbPolyline
 90
       13
 70
   128
 43
0.0
 10
15.097712713
 20
2.5014038546
 10
15.0908930612
 20
2.5085393696
 10
15.0857306599
 20
2.5187972648
 10
15.0851494641
 20
2.529474095
 10
15.0891859444
 20
2.5398989256
 10
15.0975865784
 20
2.5494167123
 10
15.109823407
 20
2.5574295112
 10
15.1251276098
 20
2.5634337221
 10
15.1425375993
 20
2.5670521439
 10
15.1609594745
 20
2.5680573983
 10
15.1792355538
 20
2.5663863481
 10
15.196217619
 20
2.5621439641
 10
15.2003181389
 20
2.5606367062
  0
ARC
  5
324
330
1F
100
AcDbEntity
  8
0
  6
Continuous
 62
     7
370
    15
100
AcDbCircle
 10
14.8833512145
 20
2.4167717895
 30
0.0
 40
0.0552519003460925
100
AcDbArc
 50
109.0696790664
 51
225.2367223125
  0
LINE
  5
325
330
1F
100
AcDbEntity
  8
0
  6
Continuous
 62
     7
370
    15
100
AcDbLine
 10
16.4164159841
 20
3.3644320962
 30
0.0
 11
14.8652994359
 21
2.4689915729
 31
0.0
  0
ARC
  5
326
330
1F
100
AcDbEntity
  8
0
  6
Continuous
 62
     7
370
    15
100
AcDbCircle
 10
16.5099917256
 20
3.1813861438
 30
0.0
 40
0.2055778200558552
100
AcDbArc
 50
71.6156296295
 51
117.0767759707
  0
ARC
  5
327
330
1F
100
AcDbEntity
  8
0
  6
Continuous
 62
     7
370
    15
100
AcDbCircle
 10
14.8601181692
 20
2.3101526288
 30
0.0
 40
0.0660915124066847
100
AcDbArc
 50
181.6375606102
 51
228.1594200263
  0
LINE
  5
328
330
1F
100
AcDbEntity
  8
0
  6
Continuous
 62
     7
370
    15
100
AcDbLine
 10
17.5265393476
 20
2.9660438939
 30
0.0
 11
17.5249774217
 21
2.999558648
 31
0.0
  0
LINE
  5
329
330
1F
100
AcDbEntity
  8
0
  6
Continuous
 62
     7
370
    15
100
AcDbLine
 10
17.8521774967
 20
2.7780569918
 30
0.0
 11
17.5265393476
 21
2.9660438939
 31
0.0
  0
LINE
  5
32A
330
1F
100
AcDbEntity
  8
0
  6
Continuous
 62
     7
370
    15
100
AcDbLine
 10
17.5265393476
 20
2.9660438939
 30
0.0
 11
17.4786062954
 21
2.9383727319
 31
0.0
  0
LWPOLYLINE
  5
32B
330
1F
100
AcDbEntity
  8
0
  6
Continuous
 62
     7
370
    15
100
AcDbPolyline
 90
       30
 70
   128
 43
0.0
 10
16.8521428652
 20
3.0990357578
 10
16.8650891416
 20
3.0897380654
 10
16.874270436
 20
3.0790510824
 10
16.8792574415
 20
3.0674745423
 10
16.8798170314
 20
3.0555497877
 10
16.8759229765
 20
3.043834376
 10
16.8677574135
 20
3.0328761354
 10
16.8557020736
 20
3.0231873971
 10
16.8403206949
 20
3.0152212713
 10
16.8223325344
 20
3.0093502195
 10
16.802578619
 20
3.0058487672
 10
16.781982726
 20
3.0048806069
 10
16.7615077821
 20
3.0064910394
 10
16.7421112265
 20
3.0106047545
 10
16.724700027
 20
3.0170293971
 10
16.7100882899
 20
3.0254645734
 10
16.6989592766
 20
3.0355158449
 10
16.6918333411
 20
3.0467132381
 10
16.6890436878
 20
3.0585331716
 10
16.6907207293
 20
3.0704229525
 10
16.6967861229
 20
3.0818266202
 10
16.7069561848
 20
3.0922109642
 10
16.7207554146
 20
3.1010904451
 10
16.7375386201
 20
3.1080498447
 10
16.7565209063
 20
3.1127637239
 10
16.7768147504
 20
3.1150117389
 10
16.7974712693
 20
3.1146886945
 10
16.8175245978
 20
3.1118097575
 10
16.8360370012
 20
3.106509509
 10
16.8521428652
 20
3.0990357578
  0
LWPOLYLINE
  5
32C
330
1F
100
AcDbEntity
  8
0
  6
Continuous
 62
     7
370
    15
100
AcDbPolyline
 90
       18
 70
   128
 43
0.0
 10
16.7593467277
 20
3.0454656879
 10
16.7519381452
 20
3.0517091263
 10
16.7489367551
 20
3.059075986
 10
16.7507478822
 20
3.0665712901
 10
16.7571269487
 20
3.0731827497
 10
16.7672124455
 20
3.07801744
 10
16.7796421706
 20
3.0804224371
 10
16.7927374837
 20
3.0800729255
 10
16.8047298644
 20
3.077016127
 10
16.8139995698
 20
3.07166484
 10
16.8192946738
 20
3.064741786
 10
16.8199001545
 20
3.0571819978
 10
16.8157341259
 20
3.0500064702
 10
16.807359246
 20
3.0441842618
 10
16.7959066212
 20
3.040501705
 10
16.78292301
 20
3.0394561387
 10
16.7701618521
 20
3.0411888043
 10
16.7593467277
 20
3.0454656879
  0
LINE
  5
32D
330
1F
100
AcDbEntity
  8
0
  6
Continuous
 62
     8
370
    15
100
AcDbLine
 10
16.7961699957
 20
3.50246209
 30
0.0
 11
16.7961699957
 21
3.5170272498
 31
0.0
  0
LINE
  5
32E
330
1F
100
AcDbEntity
  8
0
  6
Continuous
 62
     8
370
    15
100
AcDbLine
 10
16.7590515062
 20
3.5170272996
 30
0.0
 11
16.7590515062
 21
3.5024621399
 31
0.0
  0
LINE
  5
32F
330
1F
100
AcDbEntity
  8
0
  6
Continuous
 62
     8
370
    15
100
AcDbLine
 10
14.9959244182
 20
4.5202937427
 30
0.0
 11
14.9959244182
 21
4.5283358872
 31
0.0
  0
ARC
  5
330
330
1F
100
AcDbEntity
  8
0
  6
Continuous
 62
     8
370
    15
100
AcDbCircle
 10
14.991275906
 20
4.9087107729
 30
0.0
 40
0.0207952338925547
100
AcDbArc
 50
180.736342577
 51
247.5861854326
  0
ARC
  5
331
330
1F
100
AcDbEntity
  8
0
  6
Continuous
 62
     8
370
    15
100
AcDbCircle
 10
14.9969772363
 20
4.9248052828
 30
0.0
 40
0.0158374706416693
100
AcDbArc
 50
52.9748222234
 51
115.559196802
  0
ARC
  5
332
330
1F
100
AcDbEntity
  8
0
  6
Continuous
 62
     8
370
    15
100
AcDbCircle
 10
18.5722094264
 20
4.9323487578
 30
0.0
 40
0.0162599585013617
100
AcDbArc
 50
65.1941448793
 51
126.1097533032
  0
ARC
  5
333
330
1F
100
AcDbEntity
  8
0
  6
Continuous
 62
     8
370
    15
100
AcDbCircle
 10
18.5773130611
 20
4.9171199198
 30
0.0
 40
0.0213543049663712
100
AcDbArc
 50
293.4008424928
 51
358.3025270989
  0
LINE
  5
334
330
1F
100
AcDbEntity
  8
0
  6
Continuous
 62
     8
370
    15
100
AcDbLine
 10
18.5732165713
 20
4.5363713865
 30
0.0
 11
18.5732165713
 21
4.5283292419
 31
0.0
  0
ARC
  5
335
330
1F
100
AcDbEntity
  8
0
  6
Continuous
 62
     8
370
    15
100
AcDbCircle
 10
16.7739777384
 20
5.9501796374
 30
0.0
 40
0.0162607277409141
100
AcDbArc
 50
53.8908547536
 51
114.7976810925
  0
ARC
  5
336
330
1F
100
AcDbEntity
  8
0
  6
Continuous
 62
     8
370
    15
100
AcDbCircle
 10
16.8090327176
 20
5.9506838611
 30
0.0
 40
0.0158260234861602
100
AcDbArc
 50
64.2725366726
 51
127.0389274812
  0
ARC
  5
337
330
1F
100
AcDbEntity
  8
0
  6
Continuous
 62
     8
370
    15
100
AcDbCircle
 10
18.7334441997
 20
2.1151164367
 30
0.0
 40
0.0220703335123928
100
AcDbArc
 50
49.3074430078
 51
113.3493223431
  0
ARC
  5
338
330
1F
100
AcDbEntity
  8
0
  6
Continuous
 62
     8
370
    15
100
AcDbCircle
 10
18.6921784652
 20
2.0795429135
 30
0.0
 40
0.0834283706601818
100
AcDbArc
 50
294.7000263672
 51
353.5888591773
  0
LINE
  5
339
330
1F
100
AcDbEntity
  8
0
  6
Continuous
 62
     8
370
    15
100
AcDbLine
 10
14.9936044748
 20
2.4011258672
 30
0.0
 11
14.9936044748
 21
2.4252323912
 31
0.0
  0
LINE
  5
33A
330
1F
100
AcDbEntity
  8
0
  6
Continuous
 62
     8
370
    15
100
AcDbLine
 10
18.5755364283
 20
2.4332679403
 30
0.0
 11
18.5755364283
 21
2.4091614164
 31
0.0
  0
LINE
  5
33B
330
1F
100
AcDbEntity
  8
0
  6
Continuous
 62
     8
370
    15
100
AcDbLine
 10
14.8444439709
 20
2.3775417132
 30
0.0
 11
14.9403722999
 21
2.2816238123
 31
0.0
  0
LINE
  5
33C
330
1F
100
AcDbEntity
  8
0
  6
Continuous
 62
     8
370
    15
100
AcDbLine
 10
16.5993700192
 20
3.3682921652
 30
0.0
 11
16.5748289519
 21
3.3764716999
 31
0.0
  0
ARC
  5
33D
330
1F
100
AcDbEntity
  8
0
  6
Continuous
 62
     8
370
    15
100
AcDbCircle
 10
14.8600272798
 20
2.3904594464
 30
0.0
 40
0.0659851658499909
100
AcDbArc
 50
181.167375227
 51
228.1826676517
  0
ARC
  5
33E
330
1F
100
AcDbEntity
  8
0
  6
Continuous
 62
     8
370
    15
100
AcDbCircle
 10
14.8556729931
 20
2.4555316918
 30
0.0
 40
0.0165480150144979
100
AcDbArc
 50
54.4278307607
 51
113.7886235467
  0
ARC
  5
33F
330
1F
100
AcDbEntity
  8
0
  6
Continuous
 62
     8
370
    15
100
AcDbCircle
 10
16.4068057676
 20
3.3510174273
 30
0.0
 40
0.016501806025708
100
AcDbArc
 50
54.3823358381
 51
114.3072788008
  0
ARC
  5
340
330
1F
100
AcDbEntity
  8
0
  6
Continuous
 62
     8
370
    15
100
AcDbCircle
 10
16.5834669957
 20
3.3703821497
 30
0.0
 40
0.010568747415211
100
AcDbArc
 50
80.546714716
 51
144.817362875
  0
LINE
  5
341
330
1F
100
AcDbEntity
  8
0
  6
Continuous
 62
     7
370
    15
100
AcDbLine
 10
7.1762741735
 20
4.6700364066
 30
0.0
 11
7.1762741735
 21
4.5912962454
 31
0.0
  0
LINE
  5
342
330
1F
100
AcDbEntity
  8
0
  6
Continuous
 62
     7
370
    15
100
AcDbLine
 10
3.9608353185
 20
4.5912962454
 30
0.0
 11
3.9608353185
 21
4.6700364066
 31
0.0
  0
LINE
  5
343
330
1F
100
AcDbEntity
  8
0
  6
Continuous
 62
     7
370
    15
100
AcDbLine
 10
4.6433579273
 20
4.68972144
 30
0.0
 11
4.6399218603
 21
4.8865718293
 31
0.0
  0
LINE
  5
344
330
1F
100
AcDbEntity
  8
0
  6
Continuous
 62
     7
370
    15
100
AcDbLine
 10
4.4105734831
 20
4.8865718293
 30
0.0
 11
4.4071374162
 21
4.68972144
 31
0.0
  0
LINE
  5
345
330
1F
100
AcDbEntity
  8
0
  6
Continuous
 62
     7
370
    15
100
AcDbLine
 10
6.7299720759
 20
4.68972144
 30
0.0
 11
6.7265360089
 21
4.8865718293
 31
0.0
  0
LINE
  5
346
330
1F
100
AcDbEntity
  8
0
  6
Continuous
 62
     7
370
    15
100
AcDbLine
 10
6.4971876317
 20
4.8865718293
 30
0.0
 11
6.4937515647
 21
4.68972144
 31
0.0
  0
LINE
  5
347
330
1F
100
AcDbEntity
  8
0
  6
Continuous
 62
     7
370
    15
100
AcDbLine
 10
7.1454211433
 20
4.9456269388
 30
0.0
 11
7.1236729278
 21
4.9456269388
 31
0.0
  0
LINE
  5
348
330
1F
100
AcDbEntity
  8
0
  6
Continuous
 62
     7
370
    15
100
AcDbLine
 10
7.1557377041
 20
4.7487765678
 30
0.0
 11
7.1454211433
 21
4.9456269388
 31
0.0
  0
LINE
  5
349
330
1F
100
AcDbEntity
  8
0
  6
Continuous
 62
     7
370
    15
100
AcDbLine
 10
3.9916883488
 20
4.9456269388
 30
0.0
 11
3.981371788
 21
4.7487765678
 31
0.0
  0
LINE
  5
34A
330
1F
100
AcDbEntity
  8
0
  6
Continuous
 62
     7
370
    15
100
AcDbLine
 10
4.0134365642
 20
4.9456269388
 30
0.0
 11
3.9916883488
 21
4.9456269388
 31
0.0
  0
LINE
  5
34B
330
1F
100
AcDbEntity
  8
0
  6
Continuous
 62
     7
370
    15
100
AcDbLine
 10
4.0134365642
 20
4.984997024
 30
0.0
 11
4.0134365642
 21
4.9456269388
 31
0.0
  0
LINE
  5
34C
330
1F
100
AcDbEntity
  8
0
  6
Continuous
 62
     7
370
    15
100
AcDbLine
 10
4.037058718
 20
4.984997024
 30
0.0
 11
4.0134365642
 21
4.984997024
 31
0.0
  0
LINE
  5
34D
330
1F
100
AcDbEntity
  8
0
  6
Continuous
 62
     7
370
    15
100
AcDbLine
 10
4.0834607286
 20
4.9259419329
 30
0.0
 11
4.037058718
 21
4.9259419329
 31
0.0
  0
LINE
  5
34E
330
1F
100
AcDbEntity
  8
0
  6
Continuous
 62
     7
370
    15
100
AcDbLine
 10
4.0958405723
 20
4.68972144
 30
0.0
 11
4.0834607286
 21
4.9259419329
 31
0.0
  0
LINE
  5
34F
330
1F
100
AcDbEntity
  8
0
  6
Continuous
 62
     7
370
    15
100
AcDbLine
 10
7.0412689198
 20
4.68972144
 30
0.0
 11
4.0958405723
 21
4.68972144
 31
0.0
  0
LINE
  5
350
330
1F
100
AcDbEntity
  8
0
  6
Continuous
 62
     7
370
    15
100
AcDbLine
 10
7.0536487634
 20
4.9259419329
 30
0.0
 11
7.0412689198
 21
4.68972144
 31
0.0
  0
LINE
  5
351
330
1F
100
AcDbEntity
  8
0
  6
Continuous
 62
     7
370
    15
100
AcDbLine
 10
7.1000507741
 20
4.9259419329
 30
0.0
 11
7.0536487634
 21
4.9259419329
 31
0.0
  0
LINE
  5
352
330
1F
100
AcDbEntity
  8
0
  6
Continuous
 62
     7
370
    15
100
AcDbLine
 10
7.1000507741
 20
4.9259419329
 30
0.0
 11
7.1000507741
 21
4.984997024
 31
0.0
  0
LINE
  5
353
330
1F
100
AcDbEntity
  8
0
  6
Continuous
 62
     7
370
    15
100
AcDbLine
 10
7.1236729278
 20
4.984997024
 30
0.0
 11
7.1000507741
 21
4.984997024
 31
0.0
  0
LINE
  5
354
330
1F
100
AcDbEntity
  8
0
  6
Continuous
 62
     7
370
    15
100
AcDbLine
 10
7.1236729278
 20
4.9456269388
 30
0.0
 11
7.1236729278
 21
4.984997024
 31
0.0
  0
LINE
  5
355
330
1F
100
AcDbEntity
  8
0
  6
Continuous
 62
     7
370
    15
100
AcDbLine
 10
4.037058718
 20
4.984997024
 30
0.0
 11
4.037058718
 21
4.9259419329
 31
0.0
  0
LINE
  5
356
330
1F
100
AcDbEntity
  8
0
  6
Continuous
 62
     7
370
    15
100
AcDbLine
 10
3.6669798732
 20
4.6700364066
 30
0.0
 11
3.6669798732
 21
4.5912962454
 31
0.0
  0
LINE
  5
357
330
1F
100
AcDbEntity
  8
0
  6
Continuous
 62
     7
370
    15
100
AcDbLine
 10
7.4701296189
 20
4.6700364066
 30
0.0
 11
7.4701296189
 21
4.5912962454
 31
0.0
  0
LINE
  5
358
330
1F
100
AcDbEntity
  8
0
  6
Continuous
 62
     7
370
    15
100
AcDbLine
 10
3.5882398495
 20
4.7094064826
 30
0.0
 11
3.5882398495
 21
4.5912962454
 31
0.0
  0
LINE
  5
359
330
1F
100
AcDbEntity
  8
0
  6
Continuous
 62
     7
370
    15
100
AcDbLine
 10
7.5488696426
 20
4.7094064826
 30
0.0
 11
7.5488696426
 21
4.5912962454
 31
0.0
  0
LINE
  5
35A
330
1F
100
AcDbEntity
  8
0
  6
Continuous
 62
     7
370
    15
100
AcDbLine
 10
3.981371788
 20
4.7487765678
 30
0.0
 11
3.6276098613
 21
4.7487765678
 31
0.0
  0
ARC
  5
35B
330
1F
100
AcDbEntity
  8
0
  6
Continuous
 62
     7
370
    15
100
AcDbCircle
 10
3.6276098641
 20
4.7094064816
 30
0.0
 40
0.0393700787401574
100
AcDbArc
 50
90.0
 51
180.0
  0
LINE
  5
35C
330
1F
100
AcDbEntity
  8
0
  6
Continuous
 62
     7
370
    15
100
AcDbLine
 10
7.5094996307
 20
4.7487765678
 30
0.0
 11
7.1557377041
 21
4.7487765678
 31
0.0
  0
LINE
  5
35D
330
1F
100
AcDbEntity
  8
0
  6
Continuous
 62
     7
370
    15
100
AcDbLine
 10
3.6669798732
 20
4.5912962454
 30
0.0
 11
3.5882398495
 21
4.5912962454
 31
0.0
  0
LINE
  5
35E
330
1F
100
AcDbEntity
  8
0
  6
Continuous
 62
     7
370
    15
100
AcDbLine
 10
7.1399896993
 20
4.5912962454
 30
0.0
 11
3.9971197927
 21
4.5912962454
 31
0.0
  0
LINE
  5
35F
330
1F
100
AcDbEntity
  8
0
  6
Continuous
 62
     7
370
    15
100
AcDbLine
 10
7.5488696426
 20
4.5912962454
 30
0.0
 11
7.4701296189
 21
4.5912962454
 31
0.0
  0
ARC
  5
360
330
1F
100
AcDbEntity
  8
0
  6
Continuous
 62
     7
370
    15
100
AcDbCircle
 10
7.5094996279
 20
4.7094064816
 30
0.0
 40
0.0393700787401583
100
AcDbArc
 50
0.0
 51
90.0
  0
LINE
  5
361
330
1F
100
AcDbEntity
  8
0
  6
Continuous
 62
     7
370
    15
100
AcDbLine
 10
3.9971197927
 20
4.5912962454
 30
0.0
 11
3.9971197927
 21
4.6700364066
 31
0.0
  0
LINE
  5
362
330
1F
100
AcDbEntity
  8
0
  6
Continuous
 62
     7
370
    15
100
AcDbLine
 10
3.9971197927
 20
4.6700364066
 30
0.0
 11
3.6669798732
 21
4.6700364066
 31
0.0
  0
LINE
  5
363
330
1F
100
AcDbEntity
  8
0
  6
Continuous
 62
     7
370
    15
100
AcDbLine
 10
7.1399896993
 20
4.5912962454
 30
0.0
 11
7.1399896993
 21
4.6700364066
 31
0.0
  0
LINE
  5
364
330
1F
100
AcDbEntity
  8
0
  6
Continuous
 62
     7
370
    15
100
AcDbLine
 10
7.4701296189
 20
4.6700364066
 30
0.0
 11
7.1399896993
 21
4.6700364066
 31
0.0
  0
LINE
  5
365
330
1F
100
AcDbEntity
  8
0
  6
Continuous
 62
     7
370
    15
100
AcDbLine
 10
7.1762741735
 20
4.5912962454
 30
0.0
 11
7.4701296189
 21
4.5912962454
 31
0.0
  0
LINE
  5
366
330
1F
100
AcDbEntity
  8
0
  6
Continuous
 62
     7
370
    15
100
AcDbLine
 10
3.6669798732
 20
4.5912962454
 30
0.0
 11
3.9608353185
 21
4.5912962454
 31
0.0
  0
LINE
  5
367
330
1F
100
AcDbEntity
  8
0
  6
Continuous
 62
     7
370
    15
100
AcDbLine
 10
4.6399218603
 20
4.8865718293
 30
0.0
 11
4.4105734831
 21
4.8865718293
 31
0.0
  0
LINE
  5
368
330
1F
100
AcDbEntity
  8
0
  6
Continuous
 62
     7
370
    15
100
AcDbLine
 10
6.7265360089
 20
4.8865718293
 30
0.0
 11
6.4971876317
 21
4.8865718293
 31
0.0
  0
LINE
  5
369
330
1F
100
AcDbEntity
  8
0
  6
Continuous
 62
     7
370
    15
100
AcDbLine
 10
3.9608353185
 20
4.5912962454
 30
0.0
 11
3.9971197927
 21
4.5912962454
 31
0.0
  0
LINE
  5
36A
330
1F
100
AcDbEntity
  8
0
  6
Continuous
 62
     7
370
    15
100
AcDbLine
 10
7.1399896993
 20
4.5912962454
 30
0.0
 11
7.1762741735
 21
4.5912962454
 31
0.0
  0
LINE
  5
36B
330
1F
100
AcDbEntity
  8
0
  6
Continuous
 62
     7
370
    15
100
AcDbLine
 10
5.2535941011
 20
4.8472017625
 30
0.0
 11
5.2535941011
 21
4.9259419329
 31
0.0
  0
LINE
  5
36C
330
1F
100
AcDbEntity
  8
0
  6
Continuous
 62
     7
370
    15
100
AcDbLine
 10
5.8835153909
 20
4.8472017625
 30
0.0
 11
5.2535941011
 21
4.8472017625
 31
0.0
  0
LINE
  5
36D
330
1F
100
AcDbEntity
  8
0
  6
Continuous
 62
     7
370
    15
100
AcDbLine
 10
5.8835153909
 20
4.9259419329
 30
0.0
 11
5.8835153909
 21
4.8472017625
 31
0.0
  0
LINE
  5
36E
330
1F
100
AcDbEntity
  8
0
  6
Continuous
 62
     7
370
    15
100
AcDbLine
 10
4.0834607286
 20
4.9259419329
 30
0.0
 11
5.2535941011
 21
4.9259419329
 31
0.0
  0
LINE
  5
36F
330
1F
100
AcDbEntity
  8
0
  6
Continuous
 62
     7
370
    15
100
AcDbLine
 10
5.8835153909
 20
4.9259419329
 30
0.0
 11
7.0536487634
 21
4.9259419329
 31
0.0
  0
LINE
  5
370
330
1F
100
AcDbEntity
  8
0
  6
Continuous
 62
     7
370
    15
100
AcDbLine
 10
7.06461769
 20
4.984997024
 30
0.0
 11
7.1000507741
 21
4.984997024
 31
0.0
  0
LINE
  5
371
330
1F
100
AcDbEntity
  8
0
  6
Continuous
 62
     7
370
    15
100
AcDbLine
 10
4.037058718
 20
4.984997024
 30
0.0
 11
4.072491802
 21
4.984997024
 31
0.0
  0
LINE
  5
372
330
1F
100
AcDbEntity
  8
0
  6
Continuous
 62
     7
370
    15
100
AcDbLine
 10
5.8835153909
 20
4.9259419329
 30
0.0
 11
5.2535941011
 21
4.9259419329
 31
0.0
  0
LINE
  5
373
330
1F
100
AcDbEntity
  8
0
  6
Continuous
 62
     7
370
    15
100
AcDbLine
 10
4.072491802
 20
4.984997024
 30
0.0
 11
7.06461769
 21
4.984997024
 31
0.0
  0
HATCH
  5
374
330
1F
100
AcDbEntity
  8
0
  6
Continuous
 62
     7
370
     0
100
AcDbHatch
 10
0.0
 20
0.0
 30
0.0
210
0.0
220
0.0
230
1.0
  2
ANSI31
 70
     0
 71
     0
 91
        1
 92
        0
 93
       30
 72
     1
 10
7.12367285626612
 20
4.945626954057619
 11
7.12367285626612
 21
4.984997032797775
 72
     1
 10
7.12367285626612
 20
4.984997032797775
 11
7.100050809022025
 21
4.984997032797775
 72
     1
 10
7.100050809022025
 20
4.984997032797775
 11
7.100050809022025
 21
4.92594191468754
 72
     1
 10
7.100050809022025
 20
4.92594191468754
 11
7.053648774812397
 21
4.92594191468754
 72
     1
 10
7.053648774812397
 20
4.92594191468754
 11
7.041268984430577
 21
4.689721442246594
 72
     1
 10
7.041268984430577
 20
4.689721442246594
 11
4.095840507629222
 21
4.689721442246594
 72
     1
 10
4.095840507629222
 20
4.689721442246594
 11
4.083460717247402
 21
4.92594191468754
 72
     1
 10
4.083460717247402
 20
4.92594191468754
 11
4.037058683037773
 21
4.92594191468754
 72
     1
 10
4.037058683037773
 20
4.92594191468754
 11
4.037058683037773
 21
4.984997032797775
 72
     1
 10
4.037058683037773
 20
4.984997032797775
 11
4.013436635793679
 21
4.984997032797775
 72
     1
 10
4.013436635793679
 20
4.984997032797775
 11
4.013436635793679
 21
4.945626954057619
 72
     1
 10
4.013436635793679
 20
4.945626954057619
 11
3.991688298026769
 21
4.945626954060286
 72
     1
 10
3.991688298026769
 20
4.945626954060286
 11
3.981371806041871
 21
4.748776560356831
 72
     1
 10
3.981371806041871
 20
4.748776560356831
 11
3.627609864140135
 21
4.748776560356831
 72
     2
 10
3.627609864140135
 20
4.709406481616673
 40
0.0393700787401575
 50
90.0
 51
180.0
 73
     1
 72
     1
 10
3.588239785399978
 20
4.709406481616673
 11
3.588239785399978
 21
4.591296245396201
 72
     1
 10
3.588239785399978
 20
4.591296245396201
 11
3.666979942880293
 21
4.591296245396201
 72
     1
 10
3.666979942880293
 20
4.591296245396201
 11
3.666979942880293
 21
4.670036402876516
 72
     1
 10
3.666979942880293
 20
4.670036402876516
 11
3.997119837537842
 21
4.670036402876516
 72
     1
 10
3.997119837537842
 20
4.670036402876516
 11
3.997119837537842
 21
4.591296245396201
 72
     1
 10
3.997119837537842
 20
4.591296245396201
 11
7.139989654521956
 21
4.591296245396201
 72
     1
 10
7.139989654521956
 20
4.591296245396201
 11
7.139989654521956
 21
4.670036402876516
 72
     1
 10
7.139989654521956
 20
4.670036402876516
 11
7.470129549179505
 21
4.670036402876516
 72
     1
 10
7.470129549179505
 20
4.670036402876516
 11
7.470129549179505
 21
4.591296245396201
 72
     1
 10
7.470129549179505
 20
4.591296245396201
 11
7.548869706659821
 21
4.591296245396201
 72
     1
 10
7.548869706659821
 20
4.591296245396201
 11
7.548869706659821
 21
4.709406481616673
 72
     2
 10
7.509499627919663
 20
4.709406481616673
 40
0.0393700787401575
 50
0.0
 51
90.0
 73
     1
 72
     1
 10
7.509499627919663
 20
4.748776560356831
 11
7.155737686017927
 21
4.748776560356831
 72
     1
 10
7.155737686017927
 20
4.748776560356831
 11
7.145421194033029
 21
4.945626954060286
 72
     1
 10
7.145421194033029
 20
4.945626954060286
 11
7.12367285626612
 21
4.945626954057619
 97
        0
 75
     0
 76
     1
 52
0.0
 41
1.25
 77
     0
 78
     1
 53
45.0
 43
0.0
 44
0.0
 45
-0.110485434560398
 46
0.1104854345603981
 79
     0
 98
        1
 10
0.0
 20
0.0
  0
DIMENSION
  5
375
330
1F
100
AcDbEntity
  8
0
  6
Continuous
 62
     7
370
     0
100
AcDbDimension
  2
*D26
 10
6.8294008904
 20
4.5912962454
 30
0.0
 11
6.8294008904
 21
4.2353154972
 31
0.0
 70
   160
 71
     2
 42
-1.0
  3
SLDDIMSTYLE4
100
AcDbAlignedDimension
 13
7.0412689844
 23
4.6897214422
 33
0.0
 14
7.1399896545
 24
4.5912962454
 34
0.0
 50
90.0
100
AcDbRotatedDimension
  0
DIMENSION
  5
389
330
1F
100
AcDbEntity
  8
0
  6
Continuous
 62
     7
370
     0
100
AcDbDimension
  2
*D27
 10
4.3014980218
 20
4.8865718359
 30
0.0
 11
4.3014980218
 21
5.3262332755
 31
0.0
 70
   160
 71
     2
 42
-1.0
  3
SLDDIMSTYLE4
100
AcDbAlignedDimension
 13
4.0958405076
 23
4.6897214422
 33
0.0
 14
4.4105734596
 24
4.8865718359
 34
0.0
 50
90.0
100
AcDbRotatedDimension
  0
DIMENSION
  5
39D
330
1F
100
AcDbEntity
  8
0
  6
Continuous
 62
     7
370
     0
100
AcDbDimension
  2
*D28
 10
3.2024096074
 20
4.5912962454
 30
0.0
 11
3.2024096074
 21
4.1883219164
 31
0.0
 70
   160
 71
     2
 42
-1.0
  3
SLDDIMSTYLE5
100
AcDbAlignedDimension
 13
3.6276098641
 23
4.7487765604
 33
0.0
 14
3.5882397854
 24
4.5912962454
 34
0.0
 50
90.0
100
AcDbRotatedDimension
  0
DIMENSION
  5
3B3
330
1F
100
AcDbEntity
  8
0
  6
Continuous
 62
     7
370
     0
100
AcDbDimension
  2
*D29
 10
2.5055466906
 20
4.9849970328
 30
0.0
 11
2.5055466906
 21
5.3262332755
 31
0.0
 70
   160
 71
     2
 42
-1.0
  3
SLDDIMSTYLE5
100
AcDbAlignedDimension
 13
3.5882397854
 23
4.5912962454
 33
0.0
 14
4.0134366358
 24
4.9849970328
 34
0.0
 50
90.0
100
AcDbRotatedDimension
  0
MTEXT
  5
3C8
330
1F
100
AcDbEntity
  8
0
  6
Continuous
 62
     7
370
     0
100
AcDbMText
 10
5.6714193174
 20
4.2605711042
 30
0.0
 40
0.15625
 41
0.0
 71
     2
 72
     1
  1
\LSECTION A-A
  7
SLDTEXTSTYLE0
 73
     1
 44
1.0
  0
LINE
  5
3C9
330
1F
100
AcDbEntity
  8
0
  6
Continuous
 62
     7
370
    15
100
AcDbLine
 10
12.9764149673
 20
10.3620873996
 30
0.0
 11
12.9370448822
 21
10.3620873996
 31
0.0
  0
LINE
  5
3CA
330
1F
100
AcDbEntity
  8
0
  6
Continuous
 62
     7
370
    15
100
AcDbLine
 10
12.9764149673
 20
10.3651823238
 30
0.0
 11
12.9764149673
 21
10.3620873996
 31
0.0
  0
LINE
  5
3CB
330
1F
100
AcDbEntity
  8
0
  6
Continuous
 62
     7
370
    15
100
AcDbLine
 10
14.1527381884
 20
10.3651823238
 30
0.0
 11
12.9764149673
 21
10.3651823238
 31
0.0
  0
LINE
  5
3CC
330
1F
100
AcDbEntity
  8
0
  6
Continuous
 62
     7
370
    15
100
AcDbLine
 10
14.1269470063
 20
10.3393911418
 30
0.0
 11
14.1527381884
 21
10.3651823238
 31
0.0
  0
LINE
  5
3CD
330
1F
100
AcDbEntity
  8
0
  6
Continuous
 62
     7
370
    15
100
AcDbLine
 10
11.1959616386
 20
10.3393911418
 30
0.0
 11
14.1269470063
 21
10.3393911418
 31
0.0
  0
LINE
  5
3CE
330
1F
100
AcDbEntity
  8
0
  6
Continuous
 62
     7
370
    15
100
AcDbLine
 10
11.1959616386
 20
10.3393911418
 30
0.0
 11
11.1701704566
 21
10.3651823238
 31
0.0
  0
LINE
  5
3CF
330
1F
100
AcDbEntity
  8
0
  6
Continuous
 62
     7
370
    15
100
AcDbLine
 10
12.3464936776
 20
10.3651823238
 30
0.0
 11
11.1701704566
 21
10.3651823238
 31
0.0
  0
LINE
  5
3D0
330
1F
100
AcDbEntity
  8
0
  6
Continuous
 62
     7
370
    15
100
AcDbLine
 10
12.3464936776
 20
10.3620873996
 30
0.0
 11
12.3464936776
 21
10.3651823238
 31
0.0
  0
LINE
  5
3D1
330
1F
100
AcDbEntity
  8
0
  6
Continuous
 62
     7
370
    15
100
AcDbLine
 10
12.3858637628
 20
10.3620873996
 30
0.0
 11
12.3464936776
 21
10.3620873996
 31
0.0
  0
LINE
  5
3D2
330
1F
100
AcDbEntity
  8
0
  6
Continuous
 62
     7
370
    15
100
AcDbLine
 10
12.9370448822
 20
10.3680708904
 30
0.0
 11
12.3858637628
 21
10.3680708904
 31
0.0
  0
LINE
  5
3D3
330
1F
100
AcDbEntity
  8
0
  6
Continuous
 62
     7
370
    15
100
AcDbLine
 10
12.9370448822
 20
10.3620873996
 30
0.0
 11
12.9370448822
 21
10.3680708904
 31
0.0
  0
LINE
  5
3D4
330
1F
100
AcDbEntity
  8
0
  6
Continuous
 62
     7
370
    15
100
AcDbLine
 10
12.3858637628
 20
10.3680708904
 30
0.0
 11
12.3858637628
 21
10.3620873996
 31
0.0
  0
LINE
  5
3D5
330
1F
100
AcDbEntity
  8
0
  6
Continuous
 62
     7
370
    15
100
AcDbLine
 10
12.9370448822
 20
10.4041314072
 30
0.0
 11
12.9370448822
 21
10.3680708904
 31
0.0
  0
LINE
  5
3D6
330
1F
100
AcDbEntity
  8
0
  6
Continuous
 62
     7
370
    15
100
AcDbLine
 10
12.9370448822
 20
10.4041314072
 30
0.0
 11
12.3858637628
 21
10.4041314072
 31
0.0
  0
LINE
  5
3D7
330
1F
100
AcDbEntity
  8
0
  6
Continuous
 62
     7
370
    15
100
AcDbLine
 10
12.3858637628
 20
10.3680708904
 30
0.0
 11
12.3858637628
 21
10.4041314072
 31
0.0
  0
LINE
  5
3D8
330
1F
100
AcDbEntity
  8
0
  6
Continuous
 62
     7
370
    15
100
AcDbLine
 10
12.9370448822
 20
7.3200433549
 30
0.0
 11
12.3858637628
 21
7.3200433549
 31
0.0
  0
LINE
  5
3D9
330
1F
100
AcDbEntity
  8
0
  6
Continuous
 62
     7
370
    15
100
AcDbLine
 10
12.3858637628
 20
7.3561038716
 30
0.0
 11
12.9370448822
 21
7.3561038716
 31
0.0
  0
LINE
  5
3DA
330
1F
100
AcDbEntity
  8
0
  6
Continuous
 62
     7
370
    15
100
AcDbLine
 10
12.9370448822
 20
7.3200433549
 30
0.0
 11
12.9370448822
 21
7.3561038716
 31
0.0
  0
LINE
  5
3DB
330
1F
100
AcDbEntity
  8
0
  6
Continuous
 62
     7
370
    15
100
AcDbLine
 10
12.3858637628
 20
7.3200433549
 30
0.0
 11
12.3858637628
 21
7.3561038716
 31
0.0
  0
LINE
  5
3DC
330
1F
100
AcDbEntity
  8
0
  6
Continuous
 62
     7
370
    15
100
AcDbLine
 10
11.1959616386
 20
7.3847836203
 30
0.0
 11
11.1701704566
 21
7.3589924382
 31
0.0
  0
LINE
  5
3DD
330
1F
100
AcDbEntity
  8
0
  6
Continuous
 62
     7
370
    15
100
AcDbLine
 10
14.1269470063
 20
7.3847836203
 30
0.0
 11
11.1959616386
 21
7.3847836203
 31
0.0
  0
LINE
  5
3DE
330
1F
100
AcDbEntity
  8
0
  6
Continuous
 62
     7
370
    15
100
AcDbLine
 10
14.1527381884
 20
7.3589924382
 30
0.0
 11
14.1269470063
 21
7.3847836203
 31
0.0
  0
LINE
  5
3DF
330
1F
100
AcDbEntity
  8
0
  6
Continuous
 62
     7
370
    15
100
AcDbLine
 10
12.9764149673
 20
7.3589924382
 30
0.0
 11
14.1527381884
 21
7.3589924382
 31
0.0
  0
LINE
  5
3E0
330
1F
100
AcDbEntity
  8
0
  6
Continuous
 62
     7
370
    15
100
AcDbLine
 10
12.9764149673
 20
7.3620873625
 30
0.0
 11
12.9764149673
 21
7.3589924382
 31
0.0
  0
LINE
  5
3E1
330
1F
100
AcDbEntity
  8
0
  6
Continuous
 62
     7
370
    15
100
AcDbLine
 10
12.9370448822
 20
7.3620873625
 30
0.0
 11
12.9764149673
 21
7.3620873625
 31
0.0
  0
LINE
  5
3E2
330
1F
100
AcDbEntity
  8
0
  6
Continuous
 62
     7
370
    15
100
AcDbLine
 10
12.3464936776
 20
7.3620873625
 30
0.0
 11
12.3858637628
 21
7.3620873625
 31
0.0
  0
LINE
  5
3E3
330
1F
100
AcDbEntity
  8
0
  6
Continuous
 62
     7
370
    15
100
AcDbLine
 10
12.3464936776
 20
7.3589924382
 30
0.0
 11
12.3464936776
 21
7.3620873625
 31
0.0
  0
LINE
  5
3E4
330
1F
100
AcDbEntity
  8
0
  6
Continuous
 62
     7
370
    15
100
AcDbLine
 10
11.1701704566
 20
7.3589924382
 30
0.0
 11
12.3464936776
 21
7.3589924382
 31
0.0
  0
LINE
  5
3E5
330
1F
100
AcDbEntity
  8
0
  6
Continuous
 62
     7
370
    15
100
AcDbLine
 10
12.9370448822
 20
7.3561038716
 30
0.0
 11
12.9370448822
 21
7.3620873625
 31
0.0
  0
LINE
  5
3E6
330
1F
100
AcDbEntity
  8
0
  6
Continuous
 62
     7
370
    15
100
AcDbLine
 10
12.3858637628
 20
7.3620873625
 30
0.0
 11
12.3858637628
 21
7.3561038716
 31
0.0
  0
LINE
  5
3E7
330
1F
100
AcDbEntity
  8
0
  6
Continuous
 62
     7
370
    15
100
AcDbLine
 10
12.9370448822
 20
7.3036397577
 30
0.0
 11
12.3858637628
 21
7.3036397577
 31
0.0
  0
LINE
  5
3E8
330
1F
100
AcDbEntity
  8
0
  6
Continuous
 62
     7
370
    15
100
AcDbLine
 10
12.9370448822
 20
7.3036397577
 30
0.0
 11
12.9370448822
 21
7.3200433549
 31
0.0
  0
LINE
  5
3E9
330
1F
100
AcDbEntity
  8
0
  6
Continuous
 62
     7
370
    15
100
AcDbLine
 10
12.3858637628
 20
7.3200433549
 30
0.0
 11
12.3858637628
 21
7.3036397577
 31
0.0
  0
LINE
  5
3EA
330
1F
100
AcDbEntity
  8
0
  6
Continuous
 62
     7
370
    15
100
AcDbLine
 10
12.3858637628
 20
10.4205350044
 30
0.0
 11
12.9370448822
 21
10.4205350044
 31
0.0
  0
LINE
  5
3EB
330
1F
100
AcDbEntity
  8
0
  6
Continuous
 62
     7
370
    15
100
AcDbLine
 10
12.9370448822
 20
10.4205350044
 30
0.0
 11
12.9370448822
 21
10.4041314072
 31
0.0
  0
LINE
  5
3EC
330
1F
100
AcDbEntity
  8
0
  6
Continuous
 62
     7
370
    15
100
AcDbLine
 10
12.3858637628
 20
10.4041314072
 30
0.0
 11
12.3858637628
 21
10.4205350044
 31
0.0
  0
LINE
  5
3ED
330
1F
100
AcDbEntity
  8
0
  6
Continuous
 62
     7
370
    15
100
AcDbLine
 10
11.1338952223
 20
9.3738984152
 30
0.0
 11
11.162285601
 21
9.3738984152
 31
0.0
  0
LINE
  5
3EE
330
1F
100
AcDbEntity
  8
0
  6
Continuous
 62
     7
370
    15
100
AcDbLine
 10
11.162285601
 20
9.8463393642
 30
0.0
 11
11.162285601
 21
9.3738984152
 31
0.0
  0
LINE
  5
3EF
330
1F
100
AcDbEntity
  8
0
  6
Continuous
 62
     7
370
    15
100
AcDbLine
 10
11.162285601
 20
9.8463393642
 30
0.0
 11
11.1338952223
 21
9.8463393642
 31
0.0
  0
LINE
  5
3F0
330
1F
100
AcDbEntity
  8
0
  6
Continuous
 62
     7
370
    15
100
AcDbLine
 10
11.1338952223
 20
10.3699614019
 30
0.0
 11
11.1338952223
 21
9.8463393642
 31
0.0
  0
ARC
  5
3F1
330
1F
100
AcDbEntity
  8
0
  6
Continuous
 62
     7
370
    15
100
AcDbCircle
 10
11.1653913303
 20
10.3699613968
 30
0.0
 40
0.0314960629921277
100
AcDbArc
 50
90.0
 51
180.0
  0
LINE
  5
3F2
330
1F
100
AcDbEntity
  8
0
  6
Continuous
 62
     7
370
    15
100
AcDbLine
 10
12.3464936776
 20
10.4014574114
 30
0.0
 11
11.1653913784
 21
10.4014574114
 31
0.0
  0
LINE
  5
3F3
330
1F
100
AcDbEntity
  8
0
  6
Continuous
 62
     7
370
    15
100
AcDbLine
 10
12.3464936776
 20
10.3651823238
 30
0.0
 11
12.3464936776
 21
10.4014574114
 31
0.0
  0
LINE
  5
3F4
330
1F
100
AcDbEntity
  8
0
  6
Continuous
 62
     7
370
    15
100
AcDbLine
 10
11.1701704566
 20
10.3651823238
 30
0.0
 11
11.1701704566
 21
7.3589924382
 31
0.0
  0
LINE
  5
3F5
330
1F
100
AcDbEntity
  8
0
  6
Continuous
 62
     7
370
    15
100
AcDbLine
 10
12.3464936776
 20
7.3227173506
 30
0.0
 11
12.3464936776
 21
7.3589924382
 31
0.0
  0
LINE
  5
3F6
330
1F
100
AcDbEntity
  8
0
  6
Continuous
 62
     7
370
    15
100
AcDbLine
 10
11.1653913784
 20
7.3227173506
 30
0.0
 11
12.3464936776
 21
7.3227173506
 31
0.0
  0
ARC
  5
3F7
330
1F
100
AcDbEntity
  8
0
  6
Continuous
 62
     7
370
    15
100
AcDbCircle
 10
11.1653913303
 20
7.3542133653
 30
0.0
 40
0.0314960629921268
100
AcDbArc
 50
180.0
 51
270.0
  0
LINE
  5
3F8
330
1F
100
AcDbEntity
  8
0
  6
Continuous
 62
     7
370
    15
100
AcDbLine
 10
11.1338952223
 20
7.8778353979
 30
0.0
 11
11.1338952223
 21
7.3542133601
 31
0.0
  0
LINE
  5
3F9
330
1F
100
AcDbEntity
  8
0
  6
Continuous
 62
     7
370
    15
100
AcDbLine
 10
11.1338952223
 20
7.8778353979
 30
0.0
 11
11.162285601
 21
7.8778353979
 31
0.0
  0
LINE
  5
3FA
330
1F
100
AcDbEntity
  8
0
  6
Continuous
 62
     7
370
    15
100
AcDbLine
 10
11.162285601
 20
8.3502763469
 30
0.0
 11
11.162285601
 21
7.8778353979
 31
0.0
  0
LINE
  5
3FB
330
1F
100
AcDbEntity
  8
0
  6
Continuous
 62
     7
370
    15
100
AcDbLine
 10
11.162285601
 20
8.3502763469
 30
0.0
 11
11.1338952223
 21
8.3502763469
 31
0.0
  0
LINE
  5
3FC
330
1F
100
AcDbEntity
  8
0
  6
Continuous
 62
     7
370
    15
100
AcDbLine
 10
11.1338952223
 20
9.3738984152
 30
0.0
 11
11.1338952223
 21
8.3502763469
 31
0.0
  0
LINE
  5
3FD
330
1F
100
AcDbEntity
  8
0
  6
Continuous
 62
     7
370
    15
100
AcDbLine
 10
14.1890134226
 20
8.3502763469
 30
0.0
 11
14.1606230439
 21
8.3502763469
 31
0.0
  0
LINE
  5
3FE
330
1F
100
AcDbEntity
  8
0
  6
Continuous
 62
     7
370
    15
100
AcDbLine
 10
14.1606230439
 20
7.8778353979
 30
0.0
 11
14.1606230439
 21
8.3502763469
 31
0.0
  0
LINE
  5
3FF
330
1F
100
AcDbEntity
  8
0
  6
Continuous
 62
     7
370
    15
100
AcDbLine
 10
14.1890134226
 20
7.3542133601
 30
0.0
 11
14.1890134226
 21
7.8778353979
 31
0.0
  0
ARC
  5
400
330
1F
100
AcDbEntity
  8
0
  6
Continuous
 62
     7
370
    15
100
AcDbCircle
 10
14.1575173146
 20
7.3542133653
 30
0.0
 40
0.0314960629921277
100
AcDbArc
 50
270.0
 51
0.0
  0
LINE
  5
401
330
1F
100
AcDbEntity
  8
0
  6
Continuous
 62
     7
370
    15
100
AcDbLine
 10
12.9764149673
 20
7.3227173506
 30
0.0
 11
14.1575172665
 21
7.3227173506
 31
0.0
  0
LINE
  5
402
330
1F
100
AcDbEntity
  8
0
  6
Continuous
 62
     7
370
    15
100
AcDbLine
 10
12.9764149673
 20
7.3589924382
 30
0.0
 11
12.9764149673
 21
7.3227173506
 31
0.0
  0
LINE
  5
403
330
1F
100
AcDbEntity
  8
0
  6
Continuous
 62
     7
370
    15
100
AcDbLine
 10
14.1527381884
 20
7.3589924382
 30
0.0
 11
14.1527381884
 21
10.3651823238
 31
0.0
  0
LINE
  5
404
330
1F
100
AcDbEntity
  8
0
  6
Continuous
 62
     7
370
    15
100
AcDbLine
 10
12.9764149673
 20
10.3651823238
 30
0.0
 11
12.9764149673
 21
10.4014574114
 31
0.0
  0
LINE
  5
405
330
1F
100
AcDbEntity
  8
0
  6
Continuous
 62
     7
370
    15
100
AcDbLine
 10
14.1575172665
 20
10.4014574114
 30
0.0
 11
12.9764149673
 21
10.4014574114
 31
0.0
  0
ARC
  5
406
330
1F
100
AcDbEntity
  8
0
  6
Continuous
 62
     7
370
    15
100
AcDbCircle
 10
14.1575173146
 20
10.3699613968
 30
0.0
 40
0.0314960629921277
100
AcDbArc
 50
0.0
 51
90.0
  0
LINE
  5
407
330
1F
100
AcDbEntity
  8
0
  6
Continuous
 62
     7
370
    15
100
AcDbLine
 10
14.1890134226
 20
9.8463393642
 30
0.0
 11
14.1890134226
 21
10.3699614019
 31
0.0
  0
LINE
  5
408
330
1F
100
AcDbEntity
  8
0
  6
Continuous
 62
     7
370
    15
100
AcDbLine
 10
14.1890134226
 20
9.8463393642
 30
0.0
 11
14.1606230439
 21
9.8463393642
 31
0.0
  0
LINE
  5
409
330
1F
100
AcDbEntity
  8
0
  6
Continuous
 62
     7
370
    15
100
AcDbLine
 10
14.1606230439
 20
9.3738984152
 30
0.0
 11
14.1606230439
 21
9.8463393642
 31
0.0
  0
LINE
  5
40A
330
1F
100
AcDbEntity
  8
0
  6
Continuous
 62
     7
370
    15
100
AcDbLine
 10
14.1606230439
 20
9.3738984152
 30
0.0
 11
14.1890134226
 21
9.3738984152
 31
0.0
  0
LINE
  5
40B
330
1F
100
AcDbEntity
  8
0
  6
Continuous
 62
     7
370
    15
100
AcDbLine
 10
14.1890134226
 20
8.3502763469
 30
0.0
 11
14.1890134226
 21
9.3738984152
 31
0.0
  0
LINE
  5
40C
330
1F
100
AcDbEntity
  8
0
  6
Continuous
 62
     7
370
    15
100
AcDbLine
 10
14.1606230439
 20
7.8778353979
 30
0.0
 11
14.1890134226
 21
7.8778353979
 31
0.0
  0
LINE
  5
40D
330
1F
100
AcDbEntity
  8
0
  6
Continuous
 62
     7
370
    15
100
AcDbLine
 10
11.1959616386
 20
7.3847836203
 30
0.0
 11
11.1959616386
 21
10.3393911418
 31
0.0
  0
LINE
  5
40E
330
1F
100
AcDbEntity
  8
0
  6
Continuous
 62
     7
370
    15
100
AcDbLine
 10
14.1269470063
 20
10.3393911418
 30
0.0
 11
14.1269470063
 21
7.3847836203
 31
0.0
  0
LINE
  5
40F
330
1F
100
AcDbEntity
  8
0
  6
Continuous
 62
     7
370
    15
100
AcDbLine
 10
11.0866512081
 20
9.8463393642
 30
0.0
 11
11.0866512081
 21
10.3699614019
 31
0.0
  0
ARC
  5
410
330
1F
100
AcDbEntity
  8
0
  6
Continuous
 62
     7
370
    15
100
AcDbCircle
 10
11.1653913303
 20
10.3699613968
 30
0.0
 40
0.0787401574803255
100
AcDbArc
 50
90.0
 51
179.9999999998
  0
LINE
  5
411
330
1F
100
AcDbEntity
  8
0
  6
Continuous
 62
     7
370
    15
100
AcDbLine
 10
11.1653913784
 20
10.4487015723
 30
0.0
 11
14.1575172665
 21
10.4487015723
 31
0.0
  0
ARC
  5
412
330
1F
100
AcDbEntity
  8
0
  6
Continuous
 62
     7
370
    15
100
AcDbCircle
 10
14.1575173146
 20
10.3699613968
 30
0.0
 40
0.0787401574803255
100
AcDbArc
 50
0.0000000002
 51
90.0
  0
LINE
  5
413
330
1F
100
AcDbEntity
  8
0
  6
Continuous
 62
     7
370
    15
100
AcDbLine
 10
14.2362574369
 20
10.3699614019
 30
0.0
 11
14.2362574369
 21
9.8463393642
 31
0.0
  0
LINE
  5
414
330
1F
100
AcDbEntity
  8
0
  6
Continuous
 62
     7
370
    15
100
AcDbLine
 10
14.2362574369
 20
9.8463393642
 30
0.0
 11
14.1890134226
 21
9.8463393642
 31
0.0
  0
LINE
  5
415
330
1F
100
AcDbEntity
  8
0
  6
Continuous
 62
     7
370
    15
100
AcDbLine
 10
11.1338952223
 20
9.8463393642
 30
0.0
 11
11.0866512081
 21
9.8463393642
 31
0.0
  0
LINE
  5
416
330
1F
100
AcDbEntity
  8
0
  6
Continuous
 62
     7
370
    15
100
AcDbLine
 10
14.2362574369
 20
7.8778353979
 30
0.0
 11
14.2362574369
 21
7.3542133601
 31
0.0
  0
ARC
  5
417
330
1F
100
AcDbEntity
  8
0
  6
Continuous
 62
     7
370
    15
100
AcDbCircle
 10
14.1575173146
 20
7.3542133653
 30
0.0
 40
0.0787401574803255
100
AcDbArc
 50
270.0
 51
0.0000000002
  0
LINE
  5
418
330
1F
100
AcDbEntity
  8
0
  6
Continuous
 62
     7
370
    15
100
AcDbLine
 10
14.1575172665
 20
7.2754731897
 30
0.0
 11
11.1653913784
 21
7.2754731897
 31
0.0
  0
ARC
  5
419
330
1F
100
AcDbEntity
  8
0
  6
Continuous
 62
     7
370
    15
100
AcDbCircle
 10
11.1653913303
 20
7.3542133653
 30
0.0
 40
0.0787401574803246
100
AcDbArc
 50
179.9999999998
 51
270.0
  0
LINE
  5
41A
330
1F
100
AcDbEntity
  8
0
  6
Continuous
 62
     7
370
    15
100
AcDbLine
 10
11.0866512081
 20
7.3542133601
 30
0.0
 11
11.0866512081
 21
7.8778353979
 31
0.0
  0
LINE
  5
41B
330
1F
100
AcDbEntity
  8
0
  6
Continuous
 62
     7
370
    15
100
AcDbLine
 10
11.1338952223
 20
7.8778353979
 30
0.0
 11
11.0866512081
 21
7.8778353979
 31
0.0
  0
LINE
  5
41C
330
1F
100
AcDbEntity
  8
0
  6
Continuous
 62
     7
370
    15
100
AcDbLine
 10
14.1890134226
 20
7.8778353979
 30
0.0
 11
14.2362574369
 21
7.8778353979
 31
0.0
  0
LINE
  5
41D
330
1F
100
AcDbEntity
  8
0
  6
Continuous
 62
     7
370
    15
100
AcDbLine
 10
14.2362574369
 20
9.3738984152
 30
0.0
 11
14.2362574369
 21
8.3502763469
 31
0.0
  0
LINE
  5
41E
330
1F
100
AcDbEntity
  8
0
  6
Continuous
 62
     7
370
    15
100
AcDbLine
 10
14.2362574369
 20
8.3502763469
 30
0.0
 11
14.1890134226
 21
8.3502763469
 31
0.0
  0
LINE
  5
41F
330
1F
100
AcDbEntity
  8
0
  6
Continuous
 62
     7
370
    15
100
AcDbLine
 10
14.2362574369
 20
9.3738984152
 30
0.0
 11
14.1890134226
 21
9.3738984152
 31
0.0
  0
LINE
  5
420
330
1F
100
AcDbEntity
  8
0
  6
Continuous
 62
     7
370
    15
100
AcDbLine
 10
11.0866512081
 20
8.3502763469
 30
0.0
 11
11.0866512081
 21
9.3738984152
 31
0.0
  0
LINE
  5
421
330
1F
100
AcDbEntity
  8
0
  6
Continuous
 62
     7
370
    15
100
AcDbLine
 10
11.0866512081
 20
9.3738984152
 30
0.0
 11
11.1338952223
 21
9.3738984152
 31
0.0
  0
LINE
  5
422
330
1F
100
AcDbEntity
  8
0
  6
Continuous
 62
     7
370
    15
100
AcDbLine
 10
11.0866512081
 20
8.3502763469
 30
0.0
 11
11.1338952223
 21
8.3502763469
 31
0.0
  0
ARC
  5
423
330
1F
100
AcDbEntity
  8
0
  6
Continuous
 62
     7
370
    15
100
AcDbCircle
 10
12.666051946
 20
7.3840216989
 30
0.0
 40
0.1095805777792049
100
AcDbArc
 50
267.5953606194
 51
277.8698519832
  0
ARC
  5
424
330
1F
100
AcDbEntity
  8
0
  6
Continuous
 62
     7
370
    15
100
AcDbCircle
 10
12.6568566989
 20
7.3840216989
 30
0.0
 40
0.1095805777792512
100
AcDbArc
 50
262.1301480168
 51
272.4046393806
  0
ARC
  5
425
330
1F
100
AcDbEntity
  8
0
  6
Continuous
 62
     7
370
    15
100
AcDbCircle
 10
12.6614543225
 20
10.2804331584
 30
0.0
 40
0.1694062814608719
100
AcDbArc
 50
83.3555028428
 51
96.6444971572
  0
LINE
  5
426
330
1F
100
AcDbEntity
  8
0
  6
Continuous
 62
     7
370
    15
100
AcDbLine
 10
11.0991476504
 20
9.3738984152
 30
0.0
 11
11.0991476504
 21
9.8463393642
 31
0.0
  0
LINE
  5
427
330
1F
100
AcDbEntity
  8
0
  6
Continuous
 62
     7
370
    15
100
AcDbLine
 10
14.2237609946
 20
8.3502763469
 30
0.0
 11
14.2237609946
 21
7.8778353979
 31
0.0
  0
LINE
  5
428
330
1F
100
AcDbEntity
  8
0
  6
Continuous
 62
     7
370
    15
100
AcDbLine
 10
14.2237609946
 20
9.8463393642
 30
0.0
 11
14.2237609946
 21
9.3738984152
 31
0.0
  0
LINE
  5
429
330
1F
100
AcDbEntity
  8
0
  6
Continuous
 62
     7
370
    15
100
AcDbLine
 10
11.0991476504
 20
7.8778353979
 30
0.0
 11
11.0991476504
 21
8.3502763469
 31
0.0
  0
DIMENSION
  5
42A
330
1F
100
AcDbEntity
  8
0
  6
Continuous
 62
     7
370
     0
100
AcDbDimension
  2
*D30
 10
14.2362574721
 20
11.5323142904
 30
0.0
 11
12.6614543225
 21
11.5323142904
 31
0.0
 70
   160
 71
     2
 42
-1.0
  3
SLDDIMSTYLE0
100
AcDbAlignedDimension
 13
11.0866511729
 23
10.3699613968
 33
0.0
 14
14.2362574721
 24
10.3699613968
 34
0.0
 50
0.0
100
AcDbRotatedDimension
  0
DIMENSION
  5
43E
330
1F
100
AcDbEntity
  8
0
  6
Continuous
 62
     7
370
     0
100
AcDbDimension
  2
*D31
 10
14.1527382464
 20
10.9417631093
 30
0.0
 11
12.6614543225
 21
10.9417631093
 31
0.0
 70
   160
 71
     2
 42
-1.0
  3
SLDDIMSTYLE0
100
AcDbAlignedDimension
 13
11.1701703985
 23
10.3651823286
 33
0.0
 14
14.1527382464
 24
10.3651823286
 34
0.0
100
AcDbRotatedDimension
  0
DIMENSION
  5
452
330
1F
100
AcDbEntity
  8
0
  6
Continuous
 62
     7
370
     0
100
AcDbDimension
  2
*D32
 10
14.6822574621
 20
7.3589924334
 30
0.0
 11
14.6822574621
 21
8.862087381
 31
0.0
 70
   160
 71
     2
 42
-1.0
  3
SLDDIMSTYLE0
100
AcDbAlignedDimension
 13
14.1527382464
 23
10.3651823286
 33
0.0
 14
14.1527382464
 24
7.3589924334
 34
0.0
 50
90.0
100
AcDbRotatedDimension
  0
DIMENSION
  5
466
330
1F
100
AcDbEntity
  8
0
  6
Continuous
 62
     7
370
     0
100
AcDbDimension
  2
*D33
 10
15.3189386956
 20
7.2754732078
 30
0.0
 11
15.3189386956
 21
8.862087381
 31
0.0
 70
   160
 71
     2
 42
-1.0
  3
SLDDIMSTYLE0
100
AcDbAlignedDimension
 13
14.1575173146
 23
10.4487015543
 33
0.0
 14
14.1575173146
 24
7.2754732078
 34
0.0
 50
90.0
100
AcDbRotatedDimension
  0
LINE
  5
47A
330
1F
100
AcDbEntity
  8
0
  6
PHANTOM
 62
     7
370
    30
100
AcDbLine
 10
12.6614543225
 20
10.4401163463
 30
0.0
 11
12.6614543225
 21
7.2672568188
 31
0.0
  0
LINE
  5
47B
330
1F
100
AcDbEntity
  8
0
  6
Continuous
 62
     7
370
    30
100
AcDbLine
 10
12.6614543225
 20
10.4401163463
 30
0.0
 11
12.0364543225
 21
10.4401163463
 31
0.0
  0
SOLID
  5
47C
330
1F
100
AcDbEntity
  8
0
  6
Continuous
 62
     7
370
    30
100
AcDbTrace
 10
12.0364543225
 20
10.4401163463
 30
0.0
 11
12.3489543225
 21
10.3901163463
 31
0.0
 12
12.3489543225
 22
10.4901163463
 32
0.0
 13
12.3489543225
 23
10.4901163463
 33
0.0
  0
LINE
  5
47D
330
1F
100
AcDbEntity
  8
0
  6
Continuous
 62
     7
370
    30
100
AcDbLine
 10
12.6614543225
 20
7.2672568188
 30
0.0
 11
12.0364543225
 21
7.2672568188
 31
0.0
  0
SOLID
  5
47E
330
1F
100
AcDbEntity
  8
0
  6
Continuous
 62
     7
370
    30
100
AcDbTrace
 10
12.0364543225
 20
7.2672568188
 30
0.0
 11
12.3489543225
 21
7.2172568188
 31
0.0
 12
12.3489543225
 22
7.3172568188
 32
0.0
 13
12.3489543225
 23
7.3172568188
 33
0.0
  0
MTEXT
  5
47F
330
1F
100
AcDbEntity
  8
0
  6
Continuous
 62
     7
100
AcDbMText
 10
11.8498465204
 20
10.5663256584
 30
0.0
 40
0.15625
 41
0.0
 71
     1
 72
     1
  1
B
  7
SLDTEXTSTYLE0
 73
     1
 44
1.0
  0
MTEXT
  5
480
330
1F
100
AcDbEntity
  8
0
  6
Continuous
 62
     7
100
AcDbMText
 10
11.8498465204
 20
7.3934661309
 30
0.0
 40
0.15625
 41
0.0
 71
     1
 72
     1
  1
B
  7
SLDTEXTSTYLE0
 73
     1
 44
1.0
  0
LINE
  5
481
330
1F
100
AcDbEntity
  8
0
  6
Continuous
 62
     7
370
    15
100
AcDbLine
 10
16.2557122364
 20
10.2487604021
 30
0.0
 11
16.2558152318
 21
10.2507262994
 31
0.0
  0
LINE
  5
482
330
1F
100
AcDbEntity
  8
0
  6
Continuous
 62
     7
370
    15
100
AcDbLine
 10
16.2164991193
 20
10.2527867956
 30
0.0
 11
16.2163960872
 21
10.2508208983
 31
0.0
  0
LINE
  5
483
330
1F
100
AcDbEntity
  8
0
  6
Continuous
 62
     7
370
    15
100
AcDbLine
 10
16.2163960872
 20
7.4733538638
 30
0.0
 11
16.2164991193
 21
7.4713879665
 31
0.0
  0
LINE
  5
484
330
1F
100
AcDbEntity
  8
0
  6
Continuous
 62
     7
370
    15
100
AcDbLine
 10
16.2558152318
 20
7.4734484627
 30
0.0
 11
16.2557122364
 21
7.47541436
 31
0.0
  0
LINE
  5
485
330
1F
100
AcDbEntity
  8
0
  6
Continuous
 62
     7
370
    15
100
AcDbLine
 10
16.196738031
 20
10.2046070588
 30
0.0
 11
16.1376829398
 21
10.2046070588
 31
0.0
  0
LINE
  5
486
330
1F
100
AcDbEntity
  8
0
  6
Continuous
 62
     7
370
    15
100
AcDbLine
 10
16.196738031
 20
10.2518512197
 30
0.0
 11
16.196738031
 21
10.2046070588
 31
0.0
  0
LINE
  5
487
330
1F
100
AcDbEntity
  8
0
  6
Continuous
 62
     7
370
    15
100
AcDbLine
 10
16.196738031
 20
10.2518512197
 30
0.0
 11
17.7166069733
 21
10.1721982065
 31
0.0
  0
LINE
  5
488
330
1F
100
AcDbEntity
  8
0
  6
Continuous
 62
     7
370
    15
100
AcDbLine
 10
17.7166069733
 20
7.5519765555
 30
0.0
 11
16.196738031
 21
7.4723235424
 31
0.0
  0
LINE
  5
489
330
1F
100
AcDbEntity
  8
0
  6
Continuous
 62
     7
370
    15
100
AcDbLine
 10
16.196738031
 20
7.5195677033
 30
0.0
 11
16.196738031
 21
7.4723235424
 31
0.0
  0
LINE
  5
48A
330
1F
100
AcDbEntity
  8
0
  6
Continuous
 62
     7
370
    15
100
AcDbLine
 10
16.1376829398
 20
7.5195677033
 30
0.0
 11
16.196738031
 21
7.5195677033
 31
0.0
  0
LINE
  5
48B
330
1F
100
AcDbEntity
  8
0
  6
Continuous
 62
     7
370
    15
100
AcDbLine
 10
16.1376829398
 20
7.5558427909
 30
0.0
 11
16.1376829398
 21
7.5195677033
 31
0.0
  0
LINE
  5
48C
330
1F
100
AcDbEntity
  8
0
  6
Continuous
 62
     7
370
    15
100
AcDbLine
 10
16.1376829398
 20
10.2046070588
 30
0.0
 11
16.1376829398
 21
10.1683319712
 31
0.0
  0
LINE
  5
48D
330
1F
100
AcDbEntity
  8
0
  6
Continuous
 62
     7
370
    15
100
AcDbLine
 10
17.7046121252
 20
10.0862126398
 30
0.0
 11
16.1376829398
 21
10.1683319712
 31
0.0
  0
LINE
  5
48E
330
1F
100
AcDbEntity
  8
0
  6
Continuous
 62
     7
370
    15
100
AcDbLine
 10
16.1376829398
 20
7.5558427909
 30
0.0
 11
17.7046121252
 21
7.6379621222
 31
0.0
  0
LINE
  5
48F
330
1F
100
AcDbEntity
  8
0
  6
Continuous
 62
     7
370
    15
100
AcDbLine
 10
17.7046121252
 20
10.0862126398
 30
0.0
 11
17.7046121252
 21
7.6379621222
 31
0.0
  0
LINE
  5
490
330
1F
100
AcDbEntity
  8
0
  6
Continuous
 62
     7
370
    15
100
AcDbLine
 10
17.791226298
 20
10.0935659816
 30
0.0
 11
17.791226298
 21
7.6306087805
 31
0.0
  0
ARC
  5
491
330
1F
100
AcDbEntity
  8
0
  6
Continuous
 62
     7
370
    15
100
AcDbCircle
 10
17.7124860713
 20
10.0935659561
 30
0.0
 40
0.078740157480316
100
AcDbArc
 50
0.0
 51
87.0
  0
ARC
  5
492
330
1F
100
AcDbEntity
  8
0
  6
Continuous
 62
     7
370
    15
100
AcDbCircle
 10
17.7124860713
 20
7.630608806
 30
0.0
 40
0.0787401574803148
100
AcDbArc
 50
273.0
 51
0.0
  0
LINE
  5
493
330
1F
100
AcDbEntity
  8
0
  6
Continuous
 62
     7
370
    15
100
AcDbLine
 10
16.1357144026
 20
10.2236845051
 30
0.0
 11
16.1357144026
 21
10.2046070588
 31
0.0
  0
LINE
  5
494
330
1F
100
AcDbEntity
  8
0
  6
Continuous
 62
     7
370
    15
100
AcDbLine
 10
16.1357144026
 20
10.2046070588
 30
0.0
 11
16.1376829398
 21
10.2046070588
 31
0.0
  0
LINE
  5
495
330
1F
100
AcDbEntity
  8
0
  6
Continuous
 62
     7
370
    15
100
AcDbLine
 10
16.0707537913
 20
10.2036358434
 30
0.0
 11
16.0707537913
 21
10.1718396107
 31
0.0
  0
LINE
  5
496
330
1F
100
AcDbEntity
  8
0
  6
Continuous
 62
     7
370
    15
100
AcDbLine
 10
16.1357144026
 20
10.2236845051
 30
0.0
 11
16.0707537913
 21
10.2036358434
 31
0.0
  0
LINE
  5
497
330
1F
100
AcDbEntity
  8
0
  6
Continuous
 62
     7
370
    15
100
AcDbLine
 10
16.1376829398
 20
10.1683319712
 30
0.0
 11
16.0707537913
 21
10.1718396107
 31
0.0
  0
LINE
  5
498
330
1F
100
AcDbEntity
  8
0
  6
Continuous
 62
     7
370
    15
100
AcDbLine
 10
16.1357144026
 20
7.500490257
 30
0.0
 11
16.0707537913
 21
7.5205389187
 31
0.0
  0
LINE
  5
499
330
1F
100
AcDbEntity
  8
0
  6
Continuous
 62
     7
370
    15
100
AcDbLine
 10
16.0707537913
 20
7.5205389187
 30
0.0
 11
16.0707537913
 21
7.5523351514
 31
0.0
  0
LINE
  5
49A
330
1F
100
AcDbEntity
  8
0
  6
Continuous
 62
     7
370
    15
100
AcDbLine
 10
16.1357144026
 20
7.5195677033
 30
0.0
 11
16.1357144026
 21
7.500490257
 31
0.0
  0
LINE
  5
49B
330
1F
100
AcDbEntity
  8
0
  6
Continuous
 62
     7
370
    15
100
AcDbLine
 10
16.1376829398
 20
7.5195677033
 30
0.0
 11
16.1357144026
 21
7.5195677033
 31
0.0
  0
LINE
  5
49C
330
1F
100
AcDbEntity
  8
0
  6
Continuous
 62
     7
370
    15
100
AcDbLine
 10
16.0707537913
 20
7.5523351514
 30
0.0
 11
16.1376829398
 21
7.5558427909
 31
0.0
  0
LWPOLYLINE
  5
49D
330
1F
100
AcDbEntity
  8
0
  6
Continuous
 62
     7
370
    15
100
AcDbPolyline
 90
       10
 70
   128
 43
0.0
 10
16.2558152318
 20
10.2507262994
 10
16.2544877672
 20
10.2507958186
 10
16.2506846711
 20
10.2509951363
 10
16.2449195277
 20
10.2512972661
 10
16.237971018
 20
10.2516614352
 10
16.2307775044
 20
10.2520383642
 10
16.2243105691
 20
10.252377307
 10
16.2194435653
 20
10.2526323573
 10
16.2168338455
 20
10.2527691958
 10
16.2164991193
 20
10.2527867956
  0
LWPOLYLINE
  5
49E
330
1F
100
AcDbEntity
  8
0
  6
Continuous
 62
     7
370
    15
100
AcDbPolyline
 90
       10
 70
   128
 43
0.0
 10
16.2164991193
 20
7.4713879665
 10
16.217826584
 20
7.4714576324
 10
16.2216297167
 20
7.4716569501
 10
16.2273948235
 20
7.4719590799
 10
16.2343433699
 20
7.472323249
 10
16.2415368834
 20
7.472700178
 10
16.2480038187
 20
7.4730391208
 10
16.2528708225
 20
7.4732941712
 10
16.2554805424
 20
7.4734310096
 10
16.2558152318
 20
7.4734484627
  0
LINE
  5
49F
330
1F
100
AcDbEntity
  8
0
  6
Continuous
 62
     7
370
    15
100
AcDbLine
 10
16.1376829398
 20
10.1683319712
 30
0.0
 11
16.1376829398
 21
7.5558427909
 31
0.0
  0
LINE
  5
4A0
330
1F
100
AcDbEntity
  8
0
  6
CENTERX2
 62
     7
370
     0
100
AcDbLine
 10
17.7046120555
 20
10.0862126587
 30
0.0
 11
17.2384778399
 21
10.0862126587
 31
0.0
  0
HATCH
  5
4A1
330
1F
100
AcDbEntity
  8
0
  6
Continuous
 62
     7
370
     0
100
AcDbHatch
 10
0.0
 20
0.0
 30
0.0
210
0.0
220
0.0
230
1.0
  2
ANSI31
 70
     0
 71
     0
 91
        1
 92
        0
 93
       14
 72
     1
 10
16.13768292164911
 20
10.168331934928
 11
17.70461205550738
 21
10.08621265872859
 72
     1
 10
17.70461205550738
 20
10.08621265872859
 11
17.70461205550738
 21
7.637962103338074
 72
     1
 10
17.70461205550738
 20
7.637962103338074
 11
16.13768292164911
 21
7.555842827138663
 72
     1
 10
16.13768292164911
 20
7.555842827138663
 11
16.13768292164911
 21
7.519567695993961
 72
     1
 10
16.13768292164911
 20
7.519567695993961
 11
16.19673803975935
 21
7.519567695993961
 72
     1
 10
16.19673803975935
 20
7.519567695993961
 11
16.19673803975935
 21
7.472323601505772
 72
     1
 10
16.19673803975935
 20
7.472323601505772
 11
17.71660701269186
 21
7.551976559178362
 72
     2
 10
17.71248607125541
 20
7.63060880600943
 40
0.078740157480315
 50
273.0000000000024
 51
360.0000000000008
 73
     1
 72
     1
 10
17.79122622873572
 20
7.63060880600943
 11
17.79122622873572
 21
10.09356595605723
 72
     2
 10
17.71248607125541
 20
10.09356595605723
 40
0.078740157480315
 50
0.0
 51
87.00000000000102
 73
     1
 72
     1
 10
17.71660701269186
 20
10.1721982028883
 11
16.19673803975935
 21
10.25185116056089
 72
     1
 10
16.19673803975935
 20
10.25185116056089
 11
16.19673803975935
 21
10.2046070660727
 72
     1
 10
16.19673803975935
 20
10.2046070660727
 11
16.13768292164911
 21
10.2046070660727
 72
     1
 10
16.13768292164911
 20
10.2046070660727
 11
16.13768292164911
 21
10.168331934928
 97
        0
 75
     0
 76
     1
 52
0.0
 41
1.25
 77
     0
 78
     1
 53
45.0
 43
0.0
 44
0.0
 45
-0.110485434560398
 46
0.1104854345603981
 79
     0
 98
        1
 10
0.0
 20
0.0
  0
DIMENSION
  5
4A2
330
1F
100
AcDbEntity
  8
0
  6
Continuous
 62
     7
370
     0
100
AcDbDimension
  2
*D34
 10
17.7046120555
 20
10.0862126587
 30
0.0
 11
15.8852808131
 21
9.7671057984
 31
0.0
 70
   162
 71
     1
 42
-1.0
  3
SLDDIMSTYLE6
100
AcDb2LineAngularDimension
 13
16.1376829216
 23
10.1683319349
 33
0.0
 14
17.7046120555
 24
10.0862126587
 34
0.0
 15
17.2384778399
 25
10.0862126587
 35
0.0
 16
15.8747372178
 26
10.3379137441
 36
0.0
  0
DIMENSION
  5
4B5
330
1F
100
AcDbEntity
  8
0
  6
Continuous
 62
     7
370
     0
100
AcDbDimension
  2
*D35
 10
17.7912262287
 20
9.9162410653
 30
0.0
 11
18.4099641786
 21
9.9162410653
 31
0.0
 70
   160
 71
     2
 42
-1.0
  3
SLDDIMSTYLE5
100
AcDbAlignedDimension
 13
17.7046120555
 23
10.0862126587
 33
0.0
 14
17.7912262287
 24
10.0935659561
 34
0.0
100
AcDbRotatedDimension
  0
DIMENSION
  5
4C7
330
1F
100
AcDbEntity
  8
0
  6
Continuous
 62
     7
370
     0
100
AcDbDimension
  2
*D36
 10
17.7912262287
 20
10.6391404314
 30
0.0
 11
16.9939821342
 21
10.6391404314
 31
0.0
 70
   160
 71
     2
 42
-1.0
  3
SLDDIMSTYLE0
100
AcDbAlignedDimension
 13
16.1967380398
 23
10.2518511606
 33
0.0
 14
17.7912262287
 24
10.0935659561
 34
0.0
100
AcDbRotatedDimension
  0
MTEXT
  5
4DB
330
1F
100
AcDbEntity
  8
0
  6
Continuous
 62
     7
370
     0
100
AcDbMText
 10
17.2435157298
 20
7.2020511349
 30
0.0
 40
0.15625
 41
0.0
 71
     2
 72
     1
  1
\LSECTION B-B
  7
SLDTEXTSTYLE0
 73
     1
 44
1.0
  0
LINE
  5
4DC
330
1F
100
AcDbEntity
  8
0
  6
Continuous
 62
     7
370
    15
100
AcDbLine
 10
19.1651631719
 20
10.4456109014
 30
0.0
 11
19.1652661674
 21
10.447576652
 31
0.0
  0
LINE
  5
4DD
330
1F
100
AcDbEntity
  8
0
  6
Continuous
 62
     7
370
    15
100
AcDbLine
 10
19.1259500549
 20
10.4496371482
 30
0.0
 11
19.1258470227
 21
10.4476712509
 31
0.0
  0
LINE
  5
4DE
330
1F
100
AcDbEntity
  8
0
  6
Continuous
 62
     7
370
    15
100
AcDbLine
 10
19.1258470227
 20
7.2765035112
 30
0.0
 11
19.1259500549
 21
7.2745376139
 31
0.0
  0
LINE
  5
4DF
330
1F
100
AcDbEntity
  8
0
  6
Continuous
 62
     7
370
    15
100
AcDbLine
 10
19.1652661674
 20
7.2765981101
 30
0.0
 11
19.1651631719
 21
7.2785638607
 31
0.0
  0
LINE
  5
4E0
330
1F
100
AcDbEntity
  8
0
  6
Continuous
 62
     7
370
    15
100
AcDbLine
 10
19.1061889665
 20
9.8463393642
 30
0.0
 11
19.3446357053
 21
9.8463393642
 31
0.0
  0
LINE
  5
4E1
330
1F
100
AcDbEntity
  8
0
  6
Continuous
 62
     7
370
    15
100
AcDbLine
 10
19.1061889665
 20
10.3699614019
 30
0.0
 11
19.1061889665
 21
9.8463393642
 31
0.0
  0
LINE
  5
4E2
330
1F
100
AcDbEntity
  8
0
  6
Continuous
 62
     7
370
    15
100
AcDbLine
 10
19.1061889665
 20
7.8778353979
 30
0.0
 11
19.1061889665
 21
7.3542133601
 31
0.0
  0
LINE
  5
4E3
330
1F
100
AcDbEntity
  8
0
  6
Continuous
 62
     7
370
    15
100
AcDbLine
 10
19.3446357053
 20
7.8778353979
 30
0.0
 11
19.1061889665
 21
7.8778353979
 31
0.0
  0
LINE
  5
4E4
330
1F
100
AcDbEntity
  8
0
  6
Continuous
 62
     7
370
    15
100
AcDbLine
 10
19.3446357053
 20
8.3502763469
 30
0.0
 11
19.3446357053
 21
7.8778353979
 31
0.0
  0
LINE
  5
4E5
330
1F
100
AcDbEntity
  8
0
  6
Continuous
 62
     7
370
    15
100
AcDbLine
 10
19.1061889665
 20
8.3502763469
 30
0.0
 11
19.3446357053
 21
8.3502763469
 31
0.0
  0
LINE
  5
4E6
330
1F
100
AcDbEntity
  8
0
  6
Continuous
 62
     7
370
    15
100
AcDbLine
 10
19.1061889665
 20
9.3738984152
 30
0.0
 11
19.1061889665
 21
8.3502763469
 31
0.0
  0
LINE
  5
4E7
330
1F
100
AcDbEntity
  8
0
  6
Continuous
 62
     7
370
    15
100
AcDbLine
 10
19.3446357053
 20
9.3738984152
 30
0.0
 11
19.1061889665
 21
9.3738984152
 31
0.0
  0
LINE
  5
4E8
330
1F
100
AcDbEntity
  8
0
  6
Continuous
 62
     7
370
    15
100
AcDbLine
 10
19.3446357053
 20
9.8463393642
 30
0.0
 11
19.3446357053
 21
9.3738984152
 31
0.0
  0
LINE
  5
4E9
330
1F
100
AcDbEntity
  8
0
  6
Continuous
 62
     7
370
    15
100
AcDbLine
 10
19.1061889665
 20
10.4487015723
 30
0.0
 11
19.6003754176
 21
10.4228022982
 31
0.0
  0
LINE
  5
4EA
330
1F
100
AcDbEntity
  8
0
  6
Continuous
 62
     7
370
    15
100
AcDbLine
 10
19.1061889665
 20
10.4487015723
 30
0.0
 11
19.1061889665
 21
10.3699614019
 31
0.0
  0
LINE
  5
4EB
330
1F
100
AcDbEntity
  8
0
  6
Continuous
 62
     7
370
    15
100
AcDbLine
 10
19.6003754176
 20
7.3013724639
 30
0.0
 11
19.1061889665
 21
7.2754731897
 31
0.0
  0
LINE
  5
4EC
330
1F
100
AcDbEntity
  8
0
  6
Continuous
 62
     7
370
    15
100
AcDbLine
 10
19.1061889665
 20
7.3542133601
 30
0.0
 11
19.1061889665
 21
7.2754731897
 31
0.0
  0
LINE
  5
4ED
330
1F
100
AcDbEntity
  8
0
  6
Continuous
 62
     7
370
    15
100
AcDbLine
 10
19.3405210195
 20
8.3502763469
 30
0.0
 11
19.3405210195
 21
7.8778353979
 31
0.0
  0
LINE
  5
4EE
330
1F
100
AcDbEntity
  8
0
  6
Continuous
 62
     7
370
    15
100
AcDbLine
 10
19.3405210195
 20
9.3738984152
 30
0.0
 11
19.3405210195
 21
9.8463393642
 31
0.0
  0
ARC
  5
4EF
330
1F
100
AcDbEntity
  8
0
  6
Continuous
 62
     7
370
    15
100
AcDbCircle
 10
19.5983149596
 20
10.3834862162
 30
0.0
 40
0.039370078740158
100
AcDbArc
 50
0.0
 51
87.0
  0
LINE
  5
4F0
330
1F
100
AcDbEntity
  8
0
  6
Continuous
 62
     7
370
    15
100
AcDbLine
 10
19.6376850066
 20
10.3699614019
 30
0.0
 11
19.6376850066
 21
10.383486259
 31
0.0
  0
LINE
  5
4F1
330
1F
100
AcDbEntity
  8
0
  6
Continuous
 62
     7
370
    15
100
AcDbLine
 10
19.6376850066
 20
7.340688503
 30
0.0
 11
19.6376850066
 21
7.3542133601
 31
0.0
  0
ARC
  5
4F2
330
1F
100
AcDbEntity
  8
0
  6
Continuous
 62
     7
370
    15
100
AcDbCircle
 10
19.5983149596
 20
7.3406885459
 30
0.0
 40
0.0393700787401571
100
AcDbArc
 50
273.0
 51
0.0
  0
LINE
  5
4F3
330
1F
100
AcDbEntity
  8
0
  6
Continuous
 62
     7
370
    15
100
AcDbLine
 10
19.6376850066
 20
10.3699614019
 30
0.0
 11
19.6376850066
 21
7.3542133601
 31
0.0
  0
LINE
  5
4F4
330
1F
100
AcDbEntity
  8
0
  6
Continuous
 62
     7
370
    15
100
AcDbLine
 10
19.0471338754
 20
7.3542133601
 30
0.0
 11
19.0471338754
 21
7.8778353979
 31
0.0
  0
LINE
  5
4F5
330
1F
100
AcDbEntity
  8
0
  6
Continuous
 62
     7
370
    15
100
AcDbLine
 10
19.0471338754
 20
7.8778353979
 30
0.0
 11
19.1061889665
 21
7.8778353979
 31
0.0
  0
LINE
  5
4F6
330
1F
100
AcDbEntity
  8
0
  6
Continuous
 62
     7
370
    15
100
AcDbLine
 10
19.0471338754
 20
9.8463393642
 30
0.0
 11
19.0471338754
 21
10.3699614019
 31
0.0
  0
LINE
  5
4F7
330
1F
100
AcDbEntity
  8
0
  6
Continuous
 62
     7
370
    15
100
AcDbLine
 10
19.0471338754
 20
9.8463393642
 30
0.0
 11
19.1061889665
 21
9.8463393642
 31
0.0
  0
LINE
  5
4F8
330
1F
100
AcDbEntity
  8
0
  6
Continuous
 62
     7
370
    15
100
AcDbLine
 10
19.0471338754
 20
8.3502763469
 30
0.0
 11
19.0471338754
 21
9.3738984152
 31
0.0
  0
LINE
  5
4F9
330
1F
100
AcDbEntity
  8
0
  6
Continuous
 62
     7
370
    15
100
AcDbLine
 10
19.0471338754
 20
9.3738984152
 30
0.0
 11
19.1061889665
 21
9.3738984152
 31
0.0
  0
LINE
  5
4FA
330
1F
100
AcDbEntity
  8
0
  6
Continuous
 62
     7
370
    15
100
AcDbLine
 10
19.1061889665
 20
8.3502763469
 30
0.0
 11
19.0471338754
 21
8.3502763469
 31
0.0
  0
LINE
  5
4FB
330
1F
100
AcDbEntity
  8
0
  6
Continuous
 62
     7
370
    15
100
AcDbLine
 10
19.1061889665
 20
10.4014574114
 30
0.0
 11
19.0471338754
 21
10.4014574114
 31
0.0
  0
LINE
  5
4FC
330
1F
100
AcDbEntity
  8
0
  6
Continuous
 62
     7
370
    15
100
AcDbLine
 10
19.0471338754
 20
10.4014574114
 30
0.0
 11
19.0471338754
 21
10.3699614019
 31
0.0
  0
LINE
  5
4FD
330
1F
100
AcDbEntity
  8
0
  6
Continuous
 62
     7
370
    15
100
AcDbLine
 10
19.0471338754
 20
7.3227173506
 30
0.0
 11
19.1061889665
 21
7.3227173506
 31
0.0
  0
LINE
  5
4FE
330
1F
100
AcDbEntity
  8
0
  6
Continuous
 62
     7
370
    15
100
AcDbLine
 10
19.0471338754
 20
7.3542133601
 30
0.0
 11
19.0471338754
 21
7.3227173506
 31
0.0
  0
LINE
  5
4FF
330
1F
100
AcDbEntity
  8
0
  6
Continuous
 62
     7
370
    15
100
AcDbLine
 10
19.0471338754
 20
7.8778353979
 30
0.0
 11
19.0471338754
 21
8.3502763469
 31
0.0
  0
LINE
  5
500
330
1F
100
AcDbEntity
  8
0
  6
Continuous
 62
     7
370
    15
100
AcDbLine
 10
19.0471338754
 20
9.3738984152
 30
0.0
 11
19.0471338754
 21
9.8463393642
 31
0.0
  0
LINE
  5
501
330
1F
100
AcDbEntity
  8
0
  6
Continuous
 62
     7
370
    15
100
AcDbLine
 10
19.0451653381
 20
7.3036397577
 30
0.0
 11
18.9920157488
 21
7.3200433549
 31
0.0
  0
LINE
  5
502
330
1F
100
AcDbEntity
  8
0
  6
Continuous
 62
     7
370
    15
100
AcDbLine
 10
18.9920157488
 20
7.3200433549
 30
0.0
 11
18.9920157488
 21
7.3561038716
 31
0.0
  0
LINE
  5
503
330
1F
100
AcDbEntity
  8
0
  6
Continuous
 62
     7
370
    15
100
AcDbLine
 10
19.0471338754
 20
7.3227173506
 30
0.0
 11
19.0451653381
 21
7.3227173506
 31
0.0
  0
LINE
  5
504
330
1F
100
AcDbEntity
  8
0
  6
Continuous
 62
     7
370
    15
100
AcDbLine
 10
19.0451653381
 20
7.3227173506
 30
0.0
 11
19.0451653381
 21
7.3036397577
 31
0.0
  0
LINE
  5
505
330
1F
100
AcDbEntity
  8
0
  6
Continuous
 62
     7
370
    15
100
AcDbLine
 10
18.9920157488
 20
7.3561038716
 30
0.0
 11
19.0471338754
 21
7.3589924382
 31
0.0
  0
LINE
  5
506
330
1F
100
AcDbEntity
  8
0
  6
Continuous
 62
     7
370
    15
100
AcDbLine
 10
19.0451653381
 20
10.4205350044
 30
0.0
 11
19.0451653381
 21
10.4014574114
 31
0.0
  0
LINE
  5
507
330
1F
100
AcDbEntity
  8
0
  6
Continuous
 62
     7
370
    15
100
AcDbLine
 10
18.9920157488
 20
10.4041314072
 30
0.0
 11
18.9920157488
 21
10.3680708904
 31
0.0
  0
LINE
  5
508
330
1F
100
AcDbEntity
  8
0
  6
Continuous
 62
     7
370
    15
100
AcDbLine
 10
19.0451653381
 20
10.4205350044
 30
0.0
 11
18.9920157488
 21
10.4041314072
 31
0.0
  0
LINE
  5
509
330
1F
100
AcDbEntity
  8
0
  6
Continuous
 62
     7
370
    15
100
AcDbLine
 10
19.0451653381
 20
10.4014574114
 30
0.0
 11
19.0471338754
 21
10.4014574114
 31
0.0
  0
LINE
  5
50A
330
1F
100
AcDbEntity
  8
0
  6
Continuous
 62
     7
370
    15
100
AcDbLine
 10
19.0471338754
 20
10.3651823238
 30
0.0
 11
18.9920157488
 21
10.3680708904
 31
0.0
  0
LWPOLYLINE
  5
50B
330
1F
100
AcDbEntity
  8
0
  6
Continuous
 62
     7
370
    15
100
AcDbPolyline
 90
       10
 70
   128
 43
0.0
 10
19.1652661674
 20
10.447576652
 10
19.163769818
 20
10.4476551178
 10
19.1595084672
 20
10.4478783418
 10
19.1531309242
 20
10.4482125913
 10
19.1456081111
 20
10.4486068268
 10
19.138085298
 20
10.4490012089
 10
19.1317077917
 20
10.4493353117
 10
19.1274464409
 20
10.4495586824
 10
19.1259500549
 20
10.4496371482
 10
19.1259500549
 20
10.4496371482
  0
LWPOLYLINE
  5
50C
330
1F
100
AcDbEntity
  8
0
  6
Continuous
 62
     7
370
    15
100
AcDbPolyline
 90
       10
 70
   128
 43
0.0
 10
19.1259500549
 20
7.2745376139
 10
19.1274464409
 20
7.2746160796
 10
19.1317077917
 20
7.2748394504
 10
19.138085298
 20
7.2751735532
 10
19.1456081111
 20
7.2755679353
 10
19.1531309242
 20
7.2759621708
 10
19.1595084672
 20
7.2762964202
 10
19.163769818
 20
7.2765196443
 10
19.1652661674
 20
7.2765981101
 10
19.1652661674
 20
7.2765981101
  0
DIMENSION
  5
50D
330
1F
100
AcDbEntity
  8
0
  6
Continuous
 62
     7
370
     0
100
AcDbDimension
  2
*D37
 10
18.7787084009
 20
8.3502763574
 30
0.0
 11
18.7787084009
 21
7.5714453553
 31
0.0
 70
   160
 71
     2
 42
-1.0
  3
SLDDIMSTYLE5
100
AcDbAlignedDimension
 13
19.1061889753
 23
7.8778354125
 33
0.0
 14
19.1061889753
 24
8.3502763574
 34
0.0
 50
90.0
100
AcDbRotatedDimension
  0
DIMENSION
  5
522
330
1F
100
AcDbEntity
  8
0
  6
Continuous
 62
     7
370
     0
100
AcDbDimension
  2
*D38
 10
19.3446357142
 20
6.9484604952
 30
0.0
 11
19.9828351857
 21
6.9484604952
 31
0.0
 70
   160
 71
     2
 42
-1.0
  3
SLDDIMSTYLE5
100
AcDbAlignedDimension
 13
19.1061889753
 23
7.2754732078
 33
0.0
 14
19.3446357142
 24
7.8778354125
 34
0.0
 50
0.0
100
AcDbRotatedDimension
  0
DIMENSION
  5
536
330
1F
100
AcDbEntity
  8
0
  6
Continuous
 62
     7
370
     0
100
AcDbDimension
  2
*D39
 10
18.4179213493
 20
9.6101188771
 30
0.0
 11
18.4179213493
 21
8.862087381
 31
0.0
 70
   160
 71
     2
 42
-1.0
  3
SLDDIMSTYLE7
100
AcDbAlignedDimension
 13
18.7936889753
 23
8.114055885
 33
0.0
 14
18.7936889753
 24
9.6101188771
 34
0.0
 50
90.0
100
AcDbRotatedDimension
  0
INSERT
  5
551
102
{ACAD_REACTORS
330
55B
102
}
330
1F
100
AcDbEntity
  8
0
  6
Continuous
 62
     7
370
     0
100
AcDbBlockReference
  2
SW_NOTE_5
 10
18.6687691203
 20
11.2156904362
 30
0.0
  0
LEADER
  5
55B
330
1F
100
AcDbEntity
  8
0
  6
Continuous
 62
     7
370
     0
100
AcDbLeader
  3
SLDDIMSTYLE8
 73
     2
 76
     3
 10
19.1734333007
 20
9.7480476667
 30
0.0
 10
18.3562691203
 20
11.2156904362
 30
0.0
 10
18.6687691203
 20
11.2156904362
 30
0.0
340
551
  0
LINE
  5
55C
330
1F
100
AcDbEntity
  8
0
  6
CENTERX2
 62
     7
370
     0
100
AcDbLine
 10
18.7936889753
 20
8.114055885
 30
0.0
 11
19.6571357142
 21
8.114055885
 31
0.0
  0
LINE
  5
55D
330
1F
100
AcDbEntity
  8
0
  6
CENTERX2
 62
     7
370
     0
100
AcDbLine
 10
18.7936889753
 20
9.6101188771
 30
0.0
 11
19.6571357142
 21
9.6101188771
 31
0.0
  0
LINE
  5
55E
330
1F
100
AcDbEntity
  8
0
  6
Continuous
 62
     7
370
    15
100
AcDbLine
 10
3.9608353185
 20
1.5459967569
 30
0.0
 11
3.9608353185
 21
1.6247369181
 31
0.0
  0
LINE
  5
55F
330
1F
100
AcDbEntity
  8
0
  6
Continuous
 62
     7
370
    15
100
AcDbLine
 10
7.1762741735
 20
1.6247369181
 30
0.0
 11
7.1762741735
 21
1.5459967569
 31
0.0
  0
LINE
  5
560
330
1F
100
AcDbEntity
  8
0
  6
Continuous
 62
     7
370
    15
100
AcDbLine
 10
6.7299720759
 20
1.6444219515
 30
0.0
 11
6.7265360089
 21
1.8412723408
 31
0.0
  0
LINE
  5
561
330
1F
100
AcDbEntity
  8
0
  6
Continuous
 62
     7
370
    15
100
AcDbLine
 10
6.4971876317
 20
1.8412723408
 30
0.0
 11
6.4937515647
 21
1.6444219515
 31
0.0
  0
LINE
  5
562
330
1F
100
AcDbEntity
  8
0
  6
Continuous
 62
     7
370
    15
100
AcDbLine
 10
4.6433579273
 20
1.6444219515
 30
0.0
 11
4.6399218603
 21
1.8412723408
 31
0.0
  0
LINE
  5
563
330
1F
100
AcDbEntity
  8
0
  6
Continuous
 62
     7
370
    15
100
AcDbLine
 10
4.4105734831
 20
1.8412723408
 30
0.0
 11
4.4071374162
 21
1.6444219515
 31
0.0
  0
LINE
  5
564
330
1F
100
AcDbEntity
  8
0
  6
Continuous
 62
     7
370
    15
100
AcDbLine
 10
7.1433578604
 20
1.9396975355
 30
0.0
 11
7.117458733
 21
2.4338839866
 31
0.0
  0
ARC
  5
565
330
1F
100
AcDbEntity
  8
0
  6
Continuous
 62
     7
370
    15
100
AcDbCircle
 10
7.0781425576
 20
2.4318235285
 30
0.0
 40
0.0393700787401574
100
AcDbArc
 50
3.0
 51
90.0
  0
LINE
  5
566
330
1F
100
AcDbEntity
  8
0
  6
Continuous
 62
     7
370
    15
100
AcDbLine
 10
7.1433578604
 20
1.9396975355
 30
0.0
 11
7.0961138462
 21
1.9396975355
 31
0.0
  0
LINE
  5
567
330
1F
100
AcDbEntity
  8
0
  6
Continuous
 62
     7
370
    15
100
AcDbLine
 10
7.0961138462
 20
1.9396975355
 30
0.0
 11
7.0961138462
 21
1.8806424444
 31
0.0
  0
LINE
  5
568
330
1F
100
AcDbEntity
  8
0
  6
Continuous
 62
     7
370
    15
100
AcDbLine
 10
7.0961138462
 20
1.8806424444
 30
0.0
 11
7.0598386119
 21
1.8806424444
 31
0.0
  0
LINE
  5
569
330
1F
100
AcDbEntity
  8
0
  6
Continuous
 62
     7
370
    15
100
AcDbLine
 10
7.0340474299
 20
2.3727683993
 30
0.0
 11
7.0598386119
 21
1.8806424444
 31
0.0
  0
LINE
  5
56A
330
1F
100
AcDbEntity
  8
0
  6
Continuous
 62
     7
370
    15
100
AcDbLine
 10
7.0781425471
 20
2.4711935756
 30
0.0
 11
4.0589669449
 21
2.4711935756
 31
0.0
  0
LINE
  5
56B
330
1F
100
AcDbEntity
  8
0
  6
Continuous
 62
     7
370
    15
100
AcDbLine
 10
4.0772708801
 20
1.8806424444
 30
0.0
 11
4.1030620622
 21
2.3727683993
 31
0.0
  0
LINE
  5
56C
330
1F
100
AcDbEntity
  8
0
  6
Continuous
 62
     7
370
    15
100
AcDbLine
 10
7.0340474299
 20
2.3727683993
 30
0.0
 11
4.1030620622
 21
2.3727683993
 31
0.0
  0
LINE
  5
56D
330
1F
100
AcDbEntity
  8
0
  6
Continuous
 62
     7
370
    15
100
AcDbLine
 10
4.0772708801
 20
1.8806424444
 30
0.0
 11
4.0409956459
 21
1.8806424444
 31
0.0
  0
LINE
  5
56E
330
1F
100
AcDbEntity
  8
0
  6
Continuous
 62
     7
370
    15
100
AcDbLine
 10
4.0409956459
 20
1.8806424444
 30
0.0
 11
4.0409956459
 21
1.9396975355
 31
0.0
  0
LINE
  5
56F
330
1F
100
AcDbEntity
  8
0
  6
Continuous
 62
     7
370
    15
100
AcDbLine
 10
4.0409956459
 20
1.9396975355
 30
0.0
 11
3.9937516316
 21
1.9396975355
 31
0.0
  0
ARC
  5
570
330
1F
100
AcDbEntity
  8
0
  6
Continuous
 62
     7
370
    15
100
AcDbCircle
 10
4.0589669345
 20
2.4318235285
 30
0.0
 40
0.0393700787401581
100
AcDbArc
 50
90.0
 51
177.0
  0
LINE
  5
571
330
1F
100
AcDbEntity
  8
0
  6
Continuous
 62
     7
370
    15
100
AcDbLine
 10
4.0196507591
 20
2.4338839866
 30
0.0
 11
3.9937516316
 21
1.9396975355
 31
0.0
  0
LINE
  5
572
330
1F
100
AcDbEntity
  8
0
  6
Continuous
 62
     7
370
    15
100
AcDbLine
 10
5.8835153909
 20
1.9396975355
 30
0.0
 11
5.8835153909
 21
1.8806424444
 31
0.0
  0
LINE
  5
573
330
1F
100
AcDbEntity
  8
0
  6
Continuous
 62
     7
370
    15
100
AcDbLine
 10
5.8441453057
 20
1.8255243178
 30
0.0
 11
5.8441453057
 21
1.9396975355
 31
0.0
  0
LINE
  5
574
330
1F
100
AcDbEntity
  8
0
  6
Continuous
 62
     7
370
    15
100
AcDbLine
 10
5.2929641863
 20
1.8255243178
 30
0.0
 11
5.8441453057
 21
1.8255243178
 31
0.0
  0
LINE
  5
575
330
1F
100
AcDbEntity
  8
0
  6
Continuous
 62
     7
370
    15
100
AcDbLine
 10
5.2929641863
 20
1.9396975355
 30
0.0
 11
5.2929641863
 21
1.8255243178
 31
0.0
  0
LINE
  5
576
330
1F
100
AcDbEntity
  8
0
  6
Continuous
 62
     7
370
    15
100
AcDbLine
 10
5.2535941011
 20
1.8806424444
 30
0.0
 11
5.2535941011
 21
1.9396975355
 31
0.0
  0
LINE
  5
577
330
1F
100
AcDbEntity
  8
0
  6
Continuous
 62
     7
370
    15
100
AcDbLine
 10
5.2535941011
 20
1.9396975355
 30
0.0
 11
5.2929641863
 21
1.9396975355
 31
0.0
  0
LINE
  5
578
330
1F
100
AcDbEntity
  8
0
  6
Continuous
 62
     7
370
    15
100
AcDbLine
 10
5.8441453057
 20
1.9396975355
 30
0.0
 11
5.8835153909
 21
1.9396975355
 31
0.0
  0
LINE
  5
579
330
1F
100
AcDbEntity
  8
0
  6
Continuous
 62
     7
370
    15
100
AcDbLine
 10
7.1454211433
 20
1.9003274503
 30
0.0
 11
7.1236729278
 21
1.9003274503
 31
0.0
  0
LINE
  5
57A
330
1F
100
AcDbEntity
  8
0
  6
Continuous
 62
     7
370
    15
100
AcDbLine
 10
7.1557377041
 20
1.7034770793
 30
0.0
 11
7.1454211433
 21
1.9003274503
 31
0.0
  0
LINE
  5
57B
330
1F
100
AcDbEntity
  8
0
  6
Continuous
 62
     7
370
    15
100
AcDbLine
 10
7.4701296189
 20
1.6247369181
 30
0.0
 11
7.4701296189
 21
1.5459967569
 31
0.0
  0
LINE
  5
57C
330
1F
100
AcDbEntity
  8
0
  6
Continuous
 62
     7
370
    15
100
AcDbLine
 10
3.6669798732
 20
1.6247369181
 30
0.0
 11
3.6669798732
 21
1.5459967569
 31
0.0
  0
LINE
  5
57D
330
1F
100
AcDbEntity
  8
0
  6
Continuous
 62
     7
370
    15
100
AcDbLine
 10
3.9916883488
 20
1.9003274503
 30
0.0
 11
3.981371788
 21
1.7034770793
 31
0.0
  0
LINE
  5
57E
330
1F
100
AcDbEntity
  8
0
  6
Continuous
 62
     7
370
    15
100
AcDbLine
 10
4.0134365642
 20
1.9003274503
 30
0.0
 11
3.9916883488
 21
1.9003274503
 31
0.0
  0
LINE
  5
57F
330
1F
100
AcDbEntity
  8
0
  6
Continuous
 62
     7
370
    15
100
AcDbLine
 10
4.0134365642
 20
1.9396975355
 30
0.0
 11
4.0134365642
 21
1.9003274503
 31
0.0
  0
LINE
  5
580
330
1F
100
AcDbEntity
  8
0
  6
Continuous
 62
     7
370
    15
100
AcDbLine
 10
4.037058718
 20
1.9396975355
 30
0.0
 11
4.0134365642
 21
1.9396975355
 31
0.0
  0
LINE
  5
581
330
1F
100
AcDbEntity
  8
0
  6
Continuous
 62
     7
370
    15
100
AcDbLine
 10
4.037058718
 20
1.9396975355
 30
0.0
 11
4.037058718
 21
1.8806424444
 31
0.0
  0
LINE
  5
582
330
1F
100
AcDbEntity
  8
0
  6
Continuous
 62
     7
370
    15
100
AcDbLine
 10
4.0834607286
 20
1.8806424444
 30
0.0
 11
4.037058718
 21
1.8806424444
 31
0.0
  0
LINE
  5
583
330
1F
100
AcDbEntity
  8
0
  6
Continuous
 62
     7
370
    15
100
AcDbLine
 10
4.0958405723
 20
1.6444219515
 30
0.0
 11
4.0834607286
 21
1.8806424444
 31
0.0
  0
LINE
  5
584
330
1F
100
AcDbEntity
  8
0
  6
Continuous
 62
     7
370
    15
100
AcDbLine
 10
7.0412689198
 20
1.6444219515
 30
0.0
 11
4.0958405723
 21
1.6444219515
 31
0.0
  0
LINE
  5
585
330
1F
100
AcDbEntity
  8
0
  6
Continuous
 62
     7
370
    15
100
AcDbLine
 10
7.0536487634
 20
1.8806424444
 30
0.0
 11
7.0412689198
 21
1.6444219515
 31
0.0
  0
LINE
  5
586
330
1F
100
AcDbEntity
  8
0
  6
Continuous
 62
     7
370
    15
100
AcDbLine
 10
7.1000507741
 20
1.8806424444
 30
0.0
 11
7.0536487634
 21
1.8806424444
 31
0.0
  0
LINE
  5
587
330
1F
100
AcDbEntity
  8
0
  6
Continuous
 62
     7
370
    15
100
AcDbLine
 10
7.1000507741
 20
1.8806424444
 30
0.0
 11
7.1000507741
 21
1.9396975355
 31
0.0
  0
LINE
  5
588
330
1F
100
AcDbEntity
  8
0
  6
Continuous
 62
     7
370
    15
100
AcDbLine
 10
7.1236729278
 20
1.9396975355
 30
0.0
 11
7.1000507741
 21
1.9396975355
 31
0.0
  0
LINE
  5
589
330
1F
100
AcDbEntity
  8
0
  6
Continuous
 62
     7
370
    15
100
AcDbLine
 10
7.1236729278
 20
1.9003274503
 30
0.0
 11
7.1236729278
 21
1.9396975355
 31
0.0
  0
LINE
  5
58A
330
1F
100
AcDbEntity
  8
0
  6
Continuous
 62
     7
370
    15
100
AcDbLine
 10
7.5488696426
 20
1.6641069941
 30
0.0
 11
7.5488696426
 21
1.5459967569
 31
0.0
  0
ARC
  5
58B
330
1F
100
AcDbEntity
  8
0
  6
Continuous
 62
     7
370
    15
100
AcDbCircle
 10
7.5094996279
 20
1.6641069931
 30
0.0
 40
0.0393700787401583
100
AcDbArc
 50
0.0
 51
90.0
  0
LINE
  5
58C
330
1F
100
AcDbEntity
  8
0
  6
Continuous
 62
     7
370
    15
100
AcDbLine
 10
7.5094996307
 20
1.7034770793
 30
0.0
 11
7.1557377041
 21
1.7034770793
 31
0.0
  0
LINE
  5
58D
330
1F
100
AcDbEntity
  8
0
  6
Continuous
 62
     7
370
    15
100
AcDbLine
 10
7.4701296189
 20
1.6247369181
 30
0.0
 11
7.1399896993
 21
1.6247369181
 31
0.0
  0
LINE
  5
58E
330
1F
100
AcDbEntity
  8
0
  6
Continuous
 62
     7
370
    15
100
AcDbLine
 10
7.1399896993
 20
1.5459967569
 30
0.0
 11
7.1399896993
 21
1.6247369181
 31
0.0
  0
LINE
  5
58F
330
1F
100
AcDbEntity
  8
0
  6
Continuous
 62
     7
370
    15
100
AcDbLine
 10
3.6669798732
 20
1.5459967569
 30
0.0
 11
3.5882398495
 21
1.5459967569
 31
0.0
  0
LINE
  5
590
330
1F
100
AcDbEntity
  8
0
  6
Continuous
 62
     7
370
    15
100
AcDbLine
 10
7.1399896993
 20
1.5459967569
 30
0.0
 11
3.9971197927
 21
1.5459967569
 31
0.0
  0
LINE
  5
591
330
1F
100
AcDbEntity
  8
0
  6
Continuous
 62
     7
370
    15
100
AcDbLine
 10
7.5488696426
 20
1.5459967569
 30
0.0
 11
7.4701296189
 21
1.5459967569
 31
0.0
  0
LINE
  5
592
330
1F
100
AcDbEntity
  8
0
  6
Continuous
 62
     7
370
    15
100
AcDbLine
 10
3.9971197927
 20
1.6247369181
 30
0.0
 11
3.6669798732
 21
1.6247369181
 31
0.0
  0
LINE
  5
593
330
1F
100
AcDbEntity
  8
0
  6
Continuous
 62
     7
370
    15
100
AcDbLine
 10
3.9971197927
 20
1.5459967569
 30
0.0
 11
3.9971197927
 21
1.6247369181
 31
0.0
  0
LINE
  5
594
330
1F
100
AcDbEntity
  8
0
  6
Continuous
 62
     7
370
    15
100
AcDbLine
 10
3.5882398495
 20
1.6641069941
 30
0.0
 11
3.5882398495
 21
1.5459967569
 31
0.0
  0
ARC
  5
595
330
1F
100
AcDbEntity
  8
0
  6
Continuous
 62
     7
370
    15
100
AcDbCircle
 10
3.6276098641
 20
1.6641069931
 30
0.0
 40
0.0393700787401576
100
AcDbArc
 50
90.0
 51
180.0
  0
LINE
  5
596
330
1F
100
AcDbEntity
  8
0
  6
Continuous
 62
     7
370
    15
100
AcDbLine
 10
3.981371788
 20
1.7034770793
 30
0.0
 11
3.6276098613
 21
1.7034770793
 31
0.0
  0
LINE
  5
597
330
1F
100
AcDbEntity
  8
0
  6
Continuous
 62
     7
370
    15
100
AcDbLine
 10
3.6669798732
 20
1.5459967569
 30
0.0
 11
3.9608353185
 21
1.5459967569
 31
0.0
  0
LINE
  5
598
330
1F
100
AcDbEntity
  8
0
  6
Continuous
 62
     7
370
    15
100
AcDbLine
 10
7.1762741735
 20
1.5459967569
 30
0.0
 11
7.4701296189
 21
1.5459967569
 31
0.0
  0
LINE
  5
599
330
1F
100
AcDbEntity
  8
0
  6
Continuous
 62
     7
370
    15
100
AcDbLine
 10
6.7265360089
 20
1.8412723408
 30
0.0
 11
6.4971876317
 21
1.8412723408
 31
0.0
  0
LINE
  5
59A
330
1F
100
AcDbEntity
  8
0
  6
Continuous
 62
     7
370
    15
100
AcDbLine
 10
4.6399218603
 20
1.8412723408
 30
0.0
 11
4.4105734831
 21
1.8412723408
 31
0.0
  0
LINE
  5
59B
330
1F
100
AcDbEntity
  8
0
  6
Continuous
 62
     7
370
    15
100
AcDbLine
 10
3.9608353185
 20
1.5459967569
 30
0.0
 11
3.9971197927
 21
1.5459967569
 31
0.0
  0
LINE
  5
59C
330
1F
100
AcDbEntity
  8
0
  6
Continuous
 62
     7
370
    15
100
AcDbLine
 10
7.1399896993
 20
1.5459967569
 30
0.0
 11
7.1762741735
 21
1.5459967569
 31
0.0
  0
LINE
  5
59D
330
1F
100
AcDbEntity
  8
0
  6
Continuous
 62
     7
370
    15
100
AcDbLine
 10
5.2535941011
 20
1.801902274
 30
0.0
 11
5.2535941011
 21
1.8806424444
 31
0.0
  0
LINE
  5
59E
330
1F
100
AcDbEntity
  8
0
  6
Continuous
 62
     7
370
    15
100
AcDbLine
 10
5.8835153909
 20
1.801902274
 30
0.0
 11
5.2535941011
 21
1.801902274
 31
0.0
  0
LINE
  5
59F
330
1F
100
AcDbEntity
  8
0
  6
Continuous
 62
     7
370
    15
100
AcDbLine
 10
5.8835153909
 20
1.8806424444
 30
0.0
 11
5.8835153909
 21
1.801902274
 31
0.0
  0
LINE
  5
5A0
330
1F
100
AcDbEntity
  8
0
  6
Continuous
 62
     7
370
    15
100
AcDbLine
 10
5.8835153909
 20
1.8806424444
 30
0.0
 11
7.0536487634
 21
1.8806424444
 31
0.0
  0
LINE
  5
5A1
330
1F
100
AcDbEntity
  8
0
  6
Continuous
 62
     7
370
    15
100
AcDbLine
 10
4.0834607286
 20
1.8806424444
 30
0.0
 11
5.2535941011
 21
1.8806424444
 31
0.0
  0
LINE
  5
5A2
330
1F
100
AcDbEntity
  8
0
  6
Continuous
 62
     7
370
    15
100
AcDbLine
 10
5.8835153909
 20
1.8806424444
 30
0.0
 11
5.8441453057
 21
1.8806424444
 31
0.0
  0
LINE
  5
5A3
330
1F
100
AcDbEntity
  8
0
  6
Continuous
 62
     7
370
    15
100
AcDbLine
 10
5.2929641863
 20
1.8806424444
 30
0.0
 11
5.2535941011
 21
1.8806424444
 31
0.0
  0
HATCH
  5
5A4
330
1F
100
AcDbEntity
  8
0
  6
Continuous
 62
     7
370
     0
100
AcDbHatch
 10
0.0
 20
0.0
 30
0.0
210
0.0
220
0.0
230
1.0
  2
ANSI31
 70
     0
 71
     0
 91
        1
 92
        0
 93
       30
 72
     1
 10
7.12367285626612
 20
1.900327465540066
 11
7.12367285626612
 21
1.939697544280224
 72
     1
 10
7.12367285626612
 20
1.939697544280224
 11
7.100050809022025
 21
1.939697544280224
 72
     1
 10
7.100050809022025
 20
1.939697544280224
 11
7.100050809022025
 21
1.880642426169987
 72
     1
 10
7.100050809022025
 20
1.880642426169987
 11
7.053648774812397
 21
1.880642426169987
 72
     1
 10
7.053648774812397
 20
1.880642426169987
 11
7.041268984430577
 21
1.644421953729043
 72
     1
 10
7.041268984430577
 20
1.644421953729043
 11
4.095840507629222
 21
1.644421953729043
 72
     1
 10
4.095840507629222
 20
1.644421953729043
 11
4.083460717247402
 21
1.880642426169987
 72
     1
 10
4.083460717247402
 20
1.880642426169987
 11
4.037058683037773
 21
1.880642426169987
 72
     1
 10
4.037058683037773
 20
1.880642426169987
 11
4.037058683037773
 21
1.939697544280224
 72
     1
 10
4.037058683037773
 20
1.939697544280224
 11
4.013436635793679
 21
1.939697544280224
 72
     1
 10
4.013436635793679
 20
1.939697544280224
 11
4.013436635793679
 21
1.900327465540066
 72
     1
 10
4.013436635793679
 20
1.900327465540066
 11
3.991688298026769
 21
1.900327465542734
 72
     1
 10
3.991688298026769
 20
1.900327465542734
 11
3.981371806041871
 21
1.703477071839279
 72
     1
 10
3.981371806041871
 20
1.703477071839279
 11
3.627609864140135
 21
1.703477071839279
 72
     2
 10
3.627609864140135
 20
1.664106993099121
 40
0.0393700787401575
 50
90.0
 51
180.0
 73
     1
 72
     1
 10
3.588239785399978
 20
1.664106993099121
 11
3.588239785399978
 21
1.545996756878649
 72
     1
 10
3.588239785399978
 20
1.545996756878649
 11
3.666979942880293
 21
1.545996756878649
 72
     1
 10
3.666979942880293
 20
1.545996756878649
 11
3.666979942880293
 21
1.624736914358964
 72
     1
 10
3.666979942880293
 20
1.624736914358964
 11
3.997119837537842
 21
1.624736914358964
 72
     1
 10
3.997119837537842
 20
1.624736914358964
 11
3.997119837537842
 21
1.545996756878649
 72
     1
 10
3.997119837537842
 20
1.545996756878649
 11
7.139989654521956
 21
1.545996756878649
 72
     1
 10
7.139989654521956
 20
1.545996756878649
 11
7.139989654521956
 21
1.624736914358964
 72
     1
 10
7.139989654521956
 20
1.624736914358964
 11
7.470129549179505
 21
1.624736914358964
 72
     1
 10
7.470129549179505
 20
1.624736914358964
 11
7.470129549179505
 21
1.545996756878649
 72
     1
 10
7.470129549179505
 20
1.545996756878649
 11
7.548869706659821
 21
1.545996756878649
 72
     1
 10
7.548869706659821
 20
1.545996756878649
 11
7.548869706659821
 21
1.664106993099121
 72
     2
 10
7.509499627919663
 20
1.664106993099121
 40
0.0393700787401575
 50
0.0
 51
90.0
 73
     1
 72
     1
 10
7.509499627919663
 20
1.703477071839279
 11
7.155737686017927
 21
1.703477071839279
 72
     1
 10
7.155737686017927
 20
1.703477071839279
 11
7.145421194033029
 21
1.900327465542734
 72
     1
 10
7.145421194033029
 20
1.900327465542734
 11
7.12367285626612
 21
1.900327465540066
 97
        0
 75
     0
 76
     1
 52
0.0
 41
1.25
 77
     0
 78
     1
 53
45.0
 43
0.0
 44
0.0
 45
-0.110485434560398
 46
0.1104854345603981
 79
     0
 98
        1
 10
0.0
 20
0.0
  0
HATCH
  5
5A5
330
1F
100
AcDbEntity
  8
0
  6
Continuous
 62
     7
370
     0
100
AcDbHatch
 10
0.0
 20
0.0
 30
0.0
210
0.0
220
0.0
230
1.0
  2
ANSI31
 70
     0
 71
     0
 91
        1
 92
        0
 93
       14
 72
     1
 10
4.103062052018617
 20
2.372768410421956
 11
7.03404744004118
 21
2.372768410421956
 72
     1
 10
7.03404744004118
 20
2.372768410421956
 11
7.059838670003307
 21
1.880642426169987
 72
     1
 10
7.059838670003307
 20
1.880642426169987
 11
7.096113801148009
 21
1.880642426169987
 72
     1
 10
7.096113801148009
 20
1.880642426169987
 11
7.096113801148009
 21
1.939697544280224
 72
     1
 10
7.096113801148009
 20
1.939697544280224
 11
7.143357895636198
 21
1.939697544280224
 72
     1
 10
7.143357895636198
 20
1.939697544280224
 11
7.117458680979451
 21
2.433883999250418
 72
     2
 10
7.078142557563917
 20
2.431823528532192
 40
0.0393700787401575
 50
3.00000000000033
 51
89.99999999999743
 73
     1
 72
     1
 10
7.078142557563918
 20
2.47119360727235
 11
4.058966934495881
 21
2.47119360727235
 72
     2
 10
4.058966934495881
 20
2.431823528532192
 40
0.0393700787401575
 50
90.0
 51
176.9999999999997
 73
     1
 72
     1
 10
4.019650811080345
 20
2.433883999250418
 11
3.9937515964236
 21
1.939697544280224
 72
     1
 10
3.9937515964236
 20
1.939697544280224
 11
4.040995690911788
 21
1.939697544280224
 72
     1
 10
4.040995690911788
 20
1.939697544280224
 11
4.040995690911788
 21
1.880642426169988
 72
     1
 10
4.040995690911788
 20
1.880642426169988
 11
4.077270822056492
 21
1.880642426169987
 72
     1
 10
4.077270822056492
 20
1.880642426169987
 11
4.103062052018617
 21
2.372768410421956
 97
        0
 75
     0
 76
     1
 52
0.0
 41
1.25
 77
     0
 78
     1
 53
45.0
 43
0.0
 44
0.0
 45
-0.110485434560398
 46
0.1104854345603981
 79
     0
 98
        1
 10
0.0
 20
0.0
  0
DIMENSION
  5
5A6
330
1F
100
AcDbEntity
  8
0
  6
Continuous
 62
     7
370
     0
100
AcDbDimension
  2
*D42
 10
3.1905081844
 20
2.3727684104
 30
0.0
 11
3.1905081844
 21
2.1070203789
 31
0.0
 70
   160
 71
     2
 42
-1.0
  3
SLDDIMSTYLE5
100
AcDbAlignedDimension
 13
4.4105734596
 23
1.8412723474
 33
0.0
 14
4.103062052
 24
2.3727684104
 34
0.0
 50
90.0
100
AcDbRotatedDimension
  0
DIMENSION
  5
5BA
330
1F
100
AcDbEntity
  8
0
  6
Continuous
 62
     7
370
     0
100
AcDbDimension
  2
*D43
 10
8.0410116204
 20
2.3727684104
 30
0.0
 11
8.0410116204
 21
2.0085951821
 31
0.0
 70
   160
 71
     2
 42
-1.0
  3
SLDDIMSTYLE5
100
AcDbAlignedDimension
 13
7.0412689844
 23
1.6444219537
 33
0.0
 14
7.03404744
 24
2.3727684104
 34
0.0
 50
90.0
100
AcDbRotatedDimension
  0
DIMENSION
  5
5CE
330
1F
100
AcDbEntity
  8
0
  6
Continuous
 62
     7
370
     0
100
AcDbDimension
  2
*D44
 10
8.7745361977
 20
2.4711936073
 30
0.0
 11
8.7745361977
 21
2.0085951821
 31
0.0
 70
   160
 71
     2
 42
-1.0
  3
SLDDIMSTYLE5
100
AcDbAlignedDimension
 13
7.5488697067
 23
1.5459967569
 33
0.0
 14
7.0781425576
 24
2.4711936073
 34
0.0
 50
90.0
100
AcDbRotatedDimension
  0
ENDSEC
  0
SECTION
  2
OBJECTS
  0
DICTIONARY
  5
C
330
0
100
AcDbDictionary
281
     1
  3
ACAD_GROUP
350
D
  3
ACAD_LAYOUT
350
1A
  3
ACAD_MLINESTYLE
350
17
  3
ACAD_PLOTSETTINGS
350
19
  3
ACAD_PLOTSTYLENAME
350
E
  0
DICTIONARY
  5
D
102
{ACAD_REACTORS
330
C
102
}
330
C
100
AcDbDictionary
281
     1
  0
DICTIONARY
  5
1A
102
{ACAD_REACTORS
330
C
102
}
330
C
100
AcDbDictionary
281
     1
  3
Layout1
350
1E
  3
Layout2
350
26
  3
Model
350
22
  0
DICTIONARY
  5
17
102
{ACAD_REACTORS
330
C
102
}
330
C
100
AcDbDictionary
281
     1
  3
Standard
350
18
  0
DICTIONARY
  5
19
102
{ACAD_REACTORS
330
C
102
}
330
C
100
AcDbDictionary
281
     1
  0
ACDBDICTIONARYWDFLT
  5
E
102
{ACAD_REACTORS
330
C
102
}
330
C
100
AcDbDictionary
281
     1
  3
Normal
350
F
100
AcDbDictionaryWithDefault
340
F
  0
LAYOUT
  5
1E
102
{ACAD_REACTORS
330
1A
102
}
330
1A
100
AcDbPlotSettings
  1

  2
none_device
  4

  6

 40
0.0
 41
0.0
 42
0.0
 43
0.0
 44
0.0
 45
0.0
 46
0.0
 47
0.0
 48
0.0
 49
0.0
140
0.0
141
0.0
142
1.0
143
1.0
 70
   688
 72
     0
 73
     0
 74
     5
  7

 75
    16
147
1.0
148
0.0
149
0.0
100
AcDbLayout
  1
Layout1
 70
     1
 71
     1
 10
0.0
 20
0.0
 11
12.0
 21
9.0
 12
0.0
 22
0.0
 32
0.0
 14
1.0000000000E+20
 24
1.0000000000E+20
 34
1.0000000000E+20
 15
-1.0000000000E+20
 25
-1.0000000000E+20
 35
-1.0000000000E+20
146
0.0
 13
0.0
 23
0.0
 33
0.0
 16
1.0
 26
0.0
 36
0.0
 17
0.0
 27
1.0
 37
0.0
 76
     0
330
1B
  0
LAYOUT
  5
26
102
{ACAD_REACTORS
330
1A
102
}
330
1A
100
AcDbPlotSettings
  1

  2
none_device
  4

  6

 40
0.0
 41
0.0
 42
0.0
 43
0.0
 44
0.0
 45
0.0
 46
0.0
 47
0.0
 48
0.0
 49
0.0
140
0.0
141
0.0
142
1.0
143
1.0
 70
   688
 72
     0
 73
     0
 74
     5
  7

 75
    16
147
1.0
148
0.0
149
0.0
100
AcDbLayout
  1
Layout2
 70
     1
 71
     2
 10
0.0
 20
0.0
 11
0.0
 21
0.0
 12
0.0
 22
0.0
 32
0.0
 14
0.0
 24
0.0
 34
0.0
 15
0.0
 25
0.0
 35
0.0
146
0.0
 13
0.0
 23
0.0
 33
0.0
 16
1.0
 26
0.0
 36
0.0
 17
0.0
 27
1.0
 37
0.0
 76
     0
330
23
  0
LAYOUT
  5
22
102
{ACAD_REACTORS
330
1A
102
}
330
1A
100
AcDbPlotSettings
  1

  2
none_device
  4

  6

 40
0.0
 41
0.0
 42
0.0
 43
0.0
 44
0.0
 45
0.0
 46
0.0
 47
0.0
 48
0.0
 49
0.0
140
0.0
141
0.0
142
1.0
143
1.0
 70
  1712
 72
     0
 73
     0
 74
     0
  7

 75
     0
147
1.0
148
0.0
149
0.0
100
AcDbLayout
  1
Model
 70
     1
 71
     0
 10
0.0
 20
0.0
 11
21.25
 21
13.75
 12
0.0
 22
0.0
 32
0.0
 14
0.0
 24
0.0
 34
0.0
 15
21.25
 25
13.75
 35
0.0
146
0.0
 13
0.0
 23
0.0
 33
0.0
 16
1.0
 26
0.0
 36
0.0
 17
0.0
 27
1.0
 37
0.0
 76
     0
330
1F
331
29
  0
MLINESTYLE
  5
18
102
{ACAD_REACTORS
330
17
102
}
330
17
100
AcDbMlineStyle
  2
Standard
 70
     0
  3

 62
   256
 51
90.0
 52
90.0
 71
     2
 49
0.5
 62
   256
  6
BYLAYER
 49
-0.5
 62
   256
  6
BYLAYER
  0
ACDBPLACEHOLDER
  5
F
102
{ACAD_REACTORS
330
E
102
}
330
E
  0
ENDSEC
  0
EOF
