  0
SECTION
  2
HEADER
  9
$ACADVER
  1
AC1015
  9
$ACADMAINTVER
 70
     6
  9
$DWGCODEPAGE
  3
ANSI_1252
  9
$INSBASE
 10
0.0
 20
0.0
 30
0.0
  9
$EXTMIN
 10
0.0
 20
0.0
 30
0.0
  9
$EXTMAX
 10
21.25
 20
13.75
 30
0.0
  9
$LIMMIN
 10
0.0
 20
0.0
  9
$LIMMAX
 10
21.25
 20
13.75
  9
$ORTHOMODE
 70
     0
  9
$REGENMODE
 70
     1
  9
$FILLMODE
 70
     1
  9
$QTEXTMODE
 70
     0
  9
$MIRRTEXT
 70
     1
  9
$LTSCALE
 40
1.25
  9
$ATTMODE
 70
     1
  9
$TEXTSIZE
 40
0.15625
  9
$TRACEWID
 40
0.05
  9
$TEXTSTYLE
  7
Standard
  9
$CLAYER
  8
0
  9
$CELTYPE
  6
ByLayer
  9
$CECOLOR
 62
   256
  9
$CELTSCALE
 40
1.0
  9
$DISPSILH
 70
     0
  9
$DIMSCALE
 40
1.0
  9
$DIMASZ
 40
0.1625
  9
$DIMEXO
 40
0.0625
  9
$DIMDLI
 40
0.38
  9
$DIMRND
 40
0.0
  9
$DIMDLE
 40
0.0
  9
$DIMEXE
 40
0.15625
  9
$DIMTP
 40
0.0
  9
$DIMTM
 40
0.0
  9
$DIMTXT
 40
0.15625
  9
$DIMCEN
 40
0.09
  9
$DIMTSZ
 40
0.0
  9
$DIMTOL
 70
     0
  9
$DIMLIM
 70
     0
  9
$DIMTIH
 70
     1
  9
$DIMTOH
 70
     1
  9
$DIMSE1
 70
     0
  9
$DIMSE2
 70
     0
  9
$DIMTAD
 70
     1
  9
$DIMZIN
 70
     0
  9
$DIMBLK
  1

  9
$DIMASO
 70
     1
  9
$DIMSHO
 70
     1
  9
$DIMPOST
  1

  9
$DIMAPOST
  1

  9
$DIMALT
 70
     0
  9
$DIMALTD
 70
     2
  9
$DIMALTF
 40
25.4
  9
$DIMLFAC
 40
1.0
  9
$DIMTOFL
 70
     0
  9
$DIMTVP
 40
0.0
  9
$DIMTIX
 70
     0
  9
$DIMSOXD
 70
     0
  9
$DIMSAH
 70
     0
  9
$DIMBLK1
  1

  9
$DIMBLK2
  1

  9
$DIMSTYLE
  2
Standard
  9
$DIMCLRD
 70
     0
  9
$DIMCLRE
 70
     0
  9
$DIMCLRT
 70
     0
  9
$DIMTFAC
 40
1.0
  9
$DIMGAP
 40
0.075
  9
$DIMJUST
 70
     0
  9
$DIMSD1
 70
     0
  9
$DIMSD2
 70
     0
  9
$DIMTOLJ
 70
     1
  9
$DIMTZIN
 70
     0
  9
$DIMALTZ
 70
     0
  9
$DIMALTTZ
 70
     0
  9
$DIMUPT
 70
     0
  9
$DIMDEC
 70
     2
  9
$DIMTDEC
 70
     2
  9
$DIMALTU
 70
     2
  9
$DIMALTTD
 70
     2
  9
$DIMTXSTY
  7
Standard
  9
$DIMAUNIT
 70
     0
  9
$DIMADEC
 70
     2
  9
$DIMALTRND
 40
0.0
  9
$DIMAZIN
 70
     0
  9
$DIMDSEP
 70
    46
  9
$DIMATFIT
 70
     3
  9
$DIMFRAC
 70
     0
  9
$DIMLDRBLK
  1

  9
$DIMLUNIT
 70
     2
  9
$DIMLWD
 70
    -2
  9
$DIMLWE
 70
    -2
  9
$DIMTMOVE
 70
     0
  9
$LUNITS
 70
     2
  9
$LUPREC
 70
     2
  9
$SKETCHINC
 40
0.1
  9
$FILLETRAD
 40
0.5
  9
$AUNITS
 70
     0
  9
$AUPREC
 70
     2
  9
$MENU
  1
.
  9
$ELEVATION
 40
0.0
  9
$PELEVATION
 40
0.0
  9
$THICKNESS
 40
0.0
  9
$LIMCHECK
 70
     0
  9
$CHAMFERA
 40
0.5
  9
$CHAMFERB
 40
0.5
  9
$CHAMFERC
 40
1.0
  9
$CHAMFERD
 40
0.0
  9
$SKPOLY
 70
     0
  9
$TDCREATE
 40
2456966.628949352
  9
$TDUCREATE
 40
2456966.837282685
  9
$TDUPDATE
 40
2456966.628949363
  9
$TDUUPDATE
 40
2456966.837282697
  9
$TDINDWG
 40
0.0000000116
  9
$TDUSRTIMER
 40
0.0000000116
  9
$USRTIMER
 70
     1
  9
$ANGBASE
 50
0.0
  9
$ANGDIR
 70
     0
  9
$PDMODE
 70
     0
  9
$PDSIZE
 40
-1.0
  9
$PLINEWID
 40
0.0
  9
$SPLFRAME
 70
     0
  9
$SPLINETYPE
 70
     6
  9
$SPLINESEGS
 70
     8
  9
$HANDSEED
  5
5DC
  9
$SURFTAB1
 70
     6
  9
$SURFTAB2
 70
     6
  9
$SURFTYPE
 70
     6
  9
$SURFU
 70
     6
  9
$SURFV
 70
     6
  9
$UCSBASE
  2

  9
$UCSNAME
  2

  9
$UCSORG
 10
0.0
 20
0.0
 30
0.0
  9
$UCSXDIR
 10
1.0
 20
0.0
 30
0.0
  9
$UCSYDIR
 10
0.0
 20
1.0
 30
0.0
  9
$UCSORTHOREF
  2

  9
$UCSORTHOVIEW
 70
     0
  9
$UCSORGTOP
 10
0.0
 20
0.0
 30
0.0
  9
$UCSORGBOTTOM
 10
0.0
 20
0.0
 30
0.0
  9
$UCSORGLEFT
 10
0.0
 20
0.0
 30
0.0
  9
$UCSORGRIGHT
 10
0.0
 20
0.0
 30
0.0
  9
$UCSORGFRONT
 10
0.0
 20
0.0
 30
0.0
  9
$UCSORGBACK
 10
0.0
 20
0.0
 30
0.0
  9
$PUCSBASE
  2

  9
$PUCSNAME
  2

  9
$PUCSORG
 10
0.0
 20
0.0
 30
0.0
  9
$PUCSXDIR
 10
1.0
 20
0.0
 30
0.0
  9
$PUCSYDIR
 10
0.0
 20
1.0
 30
0.0
  9
$PUCSORTHOREF
  2

  9
$PUCSORTHOVIEW
 70
     0
  9
$PUCSORGTOP
 10
0.0
 20
0.0
 30
0.0
  9
$PUCSORGBOTTOM
 10
0.0
 20
0.0
 30
0.0
  9
$PUCSORGLEFT
 10
0.0
 20
0.0
 30
0.0
  9
$PUCSORGRIGHT
 10
0.0
 20
0.0
 30
0.0
  9
$PUCSORGFRONT
 10
0.0
 20
0.0
 30
0.0
  9
$PUCSORGBACK
 10
0.0
 20
0.0
 30
0.0
  9
$USERI1
 70
     0
  9
$USERI2
 70
     0
  9
$USERI3
 70
     0
  9
$USERI4
 70
     0
  9
$USERI5
 70
     0
  9
$USERR1
 40
0.0
  9
$USERR2
 40
0.0
  9
$USERR3
 40
0.0
  9
$USERR4
 40
0.0
  9
$USERR5
 40
0.0
  9
$WORLDVIEW
 70
     1
  9
$SHADEDGE
 70
     3
  9
$SHADEDIF
 70
    70
  9
$TILEMODE
 70
     1
  9
$MAXACTVP
 70
    64
  9
$PINSBASE
 10
0.0
 20
0.0
 30
0.0
  9
$PLIMCHECK
 70
     0
  9
$PEXTMIN
 10
1.0000000000E+20
 20
1.0000000000E+20
 30
1.0000000000E+20
  9
$PEXTMAX
 10
-1.0000000000E+20
 20
-1.0000000000E+20
 30
-1.0000000000E+20
  9
$PLIMMIN
 10
0.0
 20
0.0
  9
$PLIMMAX
 10
12.0
 20
9.0
  9
$UNITMODE
 70
     0
  9
$VISRETAIN
 70
     1
  9
$PLINEGEN
 70
     0
  9
$PSLTSCALE
 70
     1
  9
$TREEDEPTH
 70
  3020
  9
$CMLSTYLE
  2
Standard
  9
$CMLJUST
 70
     0
  9
$CMLSCALE
 40
1.0
  9
$PROXYGRAPHICS
 70
     1
  9
$MEASUREMENT
 70
     0
  9
$CELWEIGHT
370
    -1
  9
$ENDCAPS
280
     0
  9
$JOINSTYLE
280
     0
  9
$LWDISPLAY
290
     1
  9
$INSUNITS
 70
     1
  9
$HYPERLINKBASE
  1

  9
$STYLESHEET
  1

  9
$XEDIT
290
     1
  9
$CEPSNTYPE
380
     0
  9
$PSTYLEMODE
290
     1
  9
$FINGERPRINTGUID
  2
{376E0AB2-3EB2-42BD-85D4-26E49A98D6D7}
  9
$VERSIONGUID
  2
{FAEB1C32-E019-11D5-929B-00C0DF256EC4}
  9
$EXTNAMES
290
     1
  9
$PSVPSCALE
 40
0.0
  9
$OLESTARTUP
290
     0
  0
ENDSEC
  0
SECTION
  2
CLASSES
  0
CLASS
  1
ACDBDICTIONARYWDFLT
  2
AcDbDictionaryWithDefault
  3
ObjectDBX Classes
 90
        0
280
     0
281
     0
  0
CLASS
  1
VISUALSTYLE
  2
AcDbVisualStyle
  3
ObjectDBX Classes
 90
     4095
280
     0
281
     0
  0
CLASS
  1
MATERIAL
  2
AcDbMaterial
  3
ObjectDBX Classes
 90
     1153
280
     0
281
     0
  0
CLASS
  1
ACDBPLACEHOLDER
  2
AcDbPlaceHolder
  3
ObjectDBX Classes
 90
        0
280
     0
281
     0
  0
CLASS
  1
LAYOUT
  2
AcDbLayout
  3
ObjectDBX Classes
 90
        0
280
     0
281
     0
  0
ENDSEC
  0
SECTION
  2
TABLES
  0
TABLE
  2
VPORT
  5
8
330
0
100
AcDbSymbolTable
 70
     1
  0
VPORT
  5
29
330
8
100
AcDbSymbolTableRecord
100
AcDbViewportTableRecord
  2
*Active
 70
     0
 10
0.0
 20
0.0
 11
1.0
 21
1.0
 12
10.625
 22
6.875
 13
0.0
 23
0.0
 14
0.5
 24
0.5
 15
0.5
 25
0.5
 16
0.0
 26
0.0
 36
1.0
 17
0.0
 27
0.0
 37
0.0
 40
13.75
 41
1.5454545455
 42
50.0
 43
0.0
 44
0.0
 50
0.0
 51
0.0
 71
     0
 72
  2000
 73
     1
 74
     3
 75
     0
 76
     0
 77
     0
 78
     0
281
     0
 65
     1
110
0.0
120
0.0
130
0.0
111
1.0
121
0.0
131
0.0
112
0.0
122
1.0
132
0.0
 79
     0
146
0.0
  0
ENDTAB
  0
TABLE
  2
LTYPE
  5
5
330
0
100
AcDbSymbolTable
 70
     6
  0
LTYPE
  5
14
330
5
100
AcDbSymbolTableRecord
100
AcDbLinetypeTableRecord
  2
ByBlock
 70
     0
  3

 72
    65
 73
     0
 40
0.0
  0
LTYPE
  5
15
330
5
100
AcDbSymbolTableRecord
100
AcDbLinetypeTableRecord
  2
ByLayer
 70
     0
  3

 72
    65
 73
     0
 40
0.0
  0
LTYPE
  5
16
330
5
100
AcDbSymbolTableRecord
100
AcDbLinetypeTableRecord
  2
Continuous
 70
     0
  3
Solid line
 72
    65
 73
     0
 40
0.0
  0
LTYPE
  5
3F
330
5
100
AcDbSymbolTableRecord
100
AcDbLinetypeTableRecord
  2
HIDDEN
 70
     0
  3
Hidden __ __ __ __ __ __ __ __ __ __ __ __ __ __
 72
    65
 73
     2
 40
0.075
 49
0.05
 74
     0
 49
-0.025
 74
     0
  0
LTYPE
  5
40
330
5
100
AcDbSymbolTableRecord
100
AcDbLinetypeTableRecord
  2
PHANTOM
 70
     0
  3
Phantom ______  __  __  ______  __  __  ______
 72
    65
 73
     6
 40
0.5
 49
0.25
 74
     0
 49
-0.05
 74
     0
 49
0.05
 74
     0
 49
-0.05
 74
     0
 49
0.05
 74
     0
 49
-0.05
 74
     0
  0
LTYPE
  5
41
330
5
100
AcDbSymbolTableRecord
100
AcDbLinetypeTableRecord
  2
CENTER
 70
     0
  3
Center ____ _ ____ _ ____ _ ____ _ ____ _ ____
 72
    65
 73
     4
 40
0.4
 49
0.25
 74
     0
 49
-0.05
 74
     0
 49
0.05
 74
     0
 49
-0.05
 74
     0
  0
LTYPE
  5
42
330
5
100
AcDbSymbolTableRecord
100
AcDbLinetypeTableRecord
  2
CENTERX2
 70
     0
  3
Center (2x) ________  __  ________  __  _____
 72
    65
 73
     4
 40
0.8
 49
0.5
 74
     0
 49
-0.1
 74
     0
 49
0.1
 74
     0
 49
-0.1
 74
     0
  0
LTYPE
  5
43
330
5
100
AcDbSymbolTableRecord
100
AcDbLinetypeTableRecord
  2
DOT2
 70
     0
  3
Dot (.5x) ........................................
 72
    65
 73
     2
 40
0.025
 49
0.0
 74
     0
 49
-0.025
 74
     0
  0
ENDTAB
  0
TABLE
  2
LAYER
  5
2
330
0
100
AcDbSymbolTable
 70
     1
  0
LAYER
  5
10
330
2
100
AcDbSymbolTableRecord
100
AcDbLayerTableRecord
  2
0
 70
     0
 62
     7
  6
Continuous
370
    -3
390
F
  0
ENDTAB
  0
TABLE
  2
STYLE
  5
3
330
0
100
AcDbSymbolTable
 70
     3
  0
STYLE
  5
11
330
3
100
AcDbSymbolTableRecord
100
AcDbTextStyleTableRecord
  2
Standard
 70
     0
 40
0.0
 41
1.0
 50
0.0
 71
     0
 42
0.2
  3
txt
  4

  0
STYLE
  5
77
330
3
100
AcDbSymbolTableRecord
100
AcDbTextStyleTableRecord
  2
SLDTEXTSTYLE0
 70
     0
 40
0.0
 41
0.75
 50
0.0
 71
     0
 42
0.2
  3
TXT
  4

  0
STYLE
  5
81
330
3
100
AcDbSymbolTableRecord
100
AcDbTextStyleTableRecord
  2
SLDTEXTSTYLE1
 70
     0
 40
0.0
 41
0.7
 50
0.0
 71
     0
 42
0.2
  3
TXT
  4

  0
ENDTAB
  0
TABLE
  2
VIEW
  5
6
330
0
100
AcDbSymbolTable
 70
     0
  0
ENDTAB
  0
TABLE
  2
UCS
  5
7
330
0
100
AcDbSymbolTable
 70
     0
  0
ENDTAB
  0
TABLE
  2
APPID
  5
9
330
0
100
AcDbSymbolTable
 70
     1
  0
APPID
  5
12
330
9
100
AcDbSymbolTableRecord
100
AcDbRegAppTableRecord
  2
ACAD
 70
     0
  0
ENDTAB
  0
TABLE
  2
DIMSTYLE
  5
A
330
0
100
AcDbSymbolTable
 70
    10
100
AcDbDimStyleTable
  0
DIMSTYLE
105
27
330
A
100
AcDbSymbolTableRecord
100
AcDbDimStyleTableRecord
  2
Standard
 70
     0
178
     0
340
11
  0
DIMSTYLE
105
F4
102
{ACAD_REACTORS
330
F3
330
108
330
11C
330
130
330
177
330
18B
330
19F
330
1B3
330
1C7
330
1DB
330
42A
330
43E
330
452
330
466
330
4C3
330
5A0
330
5B4
330
5C8
102
}
330
A
100
AcDbSymbolTableRecord
100
AcDbDimStyleTableRecord
  2
SLDDIMSTYLE0
 70
     0
 41
0.1625
 44
0.0
 45
0.000000001
 78
    12
 79
     3
140
0.15625
147
0.0390625
148
0.000000001
170
     1
173
     1
178
     0
271
     2
272
     2
276
     2
284
    12
340
77
  0
DIMSTYLE
105
145
102
{ACAD_REACTORS
330
144
330
155
102
}
330
A
100
AcDbSymbolTableRecord
100
AcDbDimStyleTableRecord
  2
SLDDIMSTYLE1
 70
     0
 41
0.1625
 44
0.0
 45
0.000000001
 78
    12
 79
     3
140
0.15625
141
0.0
147
0.0390625
148
0.000000001
170
     1
173
     1
178
     0
271
     2
272
     2
276
     2
284
    12
340
77
  0
DIMSTYLE
105
166
102
{ACAD_REACTORS
330
165
102
}
330
A
100
AcDbSymbolTableRecord
100
AcDbDimStyleTableRecord
  2
SLDDIMSTYLE2
 70
     0
 41
0.1625
 44
0.0
 45
0.000000001
 78
    12
 79
     3
140
0.15625
141
0.0
147
0.0390625
148
0.000000001
170
     1
173
     1
178
     0
271
     2
272
     2
276
     2
284
    12
340
77
  0
DIMSTYLE
105
1F6
330
A
100
AcDbSymbolTableRecord
100
AcDbDimStyleTableRecord
  2
SLDDIMSTYLE3
 70
     0
 41
0.1625
 44
0.0
 45
0.000000001
140
0.0
146
0.1625
147
0.0
173
     1
178
     0
271
     0
272
     0
276
     2
340
11
  0
DIMSTYLE
105
372
102
{ACAD_REACTORS
330
371
330
385
330
4B1
102
}
330
A
100
AcDbSymbolTableRecord
100
AcDbDimStyleTableRecord
  2
SLDDIMSTYLE4
 70
     0
 41
0.1625
 44
0.0
 45
0.000000001
 78
     4
 79
     1
140
0.15625
147
0.0390625
148
0.000000001
170
     1
172
     1
173
     1
178
     0
271
     2
272
     2
276
     2
284
    12
289
     0
340
77
  0
DIMSTYLE
105
39A
102
{ACAD_REACTORS
330
399
330
3AF
330
507
330
51C
102
}
330
A
100
AcDbSymbolTableRecord
100
AcDbDimStyleTableRecord
  2
SLDDIMSTYLE5
 70
     0
 41
0.1625
 44
0.0
 45
0.000000001
 78
    12
 79
     3
140
0.15625
147
0.0390625
148
0.000000001
170
     1
172
     1
173
     1
178
     0
271
     2
272
     2
276
     2
284
    12
289
     0
340
77
  0
DIMSTYLE
105
49F
102
{ACAD_REACTORS
330
49E
102
}
330
A
100
AcDbSymbolTableRecord
100
AcDbDimStyleTableRecord
  2
SLDDIMSTYLE6
 70
     0
 41
0.1625
 44
0.0
 78
    12
 79
     3
140
0.15625
144
1.25
147
0.0390625
148
0.000000001
170
     1
173
     1
178
     0
272
     0
276
     2
284
    12
340
77
  0
DIMSTYLE
105
531
102
{ACAD_REACTORS
330
530
102
}
330
A
100
AcDbSymbolTableRecord
100
AcDbDimStyleTableRecord
  2
SLDDIMSTYLE7
 70
     0
 41
0.1625
 44
0.0
 45
0.000000001
 78
     4
 79
     1
140
0.15625
147
0.0390625
148
0.000000001
170
     1
173
     1
178
     0
271
     2
272
     2
276
     2
284
    12
340
77
  0
DIMSTYLE
105
54C
330
A
100
AcDbSymbolTableRecord
100
AcDbDimStyleTableRecord
  2
SLDDIMSTYLE8
 70
     0
 41
0.05
 44
0.0
 45
0.000000001
140
0.0
146
0.05
147
0.0
173
     1
178
     0
271
     0
272
     0
276
     2
340
11
341
54D
343
54D
344
54D
  0
ENDTAB
  0
TABLE
  2
BLOCK_RECORD
  5
1
330
0
100
AcDbSymbolTable
 70
    45
  0
BLOCK_RECORD
  5
1F
330
1
100
AcDbSymbolTableRecord
100
AcDbBlockTableRecord
  2
*Model_Space
340
22
  0
BLOCK_RECORD
  5
1B
330
1
100
AcDbSymbolTableRecord
100
AcDbBlockTableRecord
  2
*Paper_Space
340
1E
  0
BLOCK_RECORD
  5
23
330
1
100
AcDbSymbolTableRecord
100
AcDbBlockTableRecord
  2
*Paper_Space0
340
26
  0
BLOCK_RECORD
  5
74
330
1
100
AcDbSymbolTableRecord
100
AcDbBlockTableRecord
  2
SW_NOTE_0
340
0
102
{BLKREFS
331
7E
102
}
  0
BLOCK_RECORD
  5
83
330
1
100
AcDbSymbolTableRecord
100
AcDbBlockTableRecord
  2
SW_NOTE_1
340
0
102
{BLKREFS
331
88
102
}
  0
BLOCK_RECORD
  5
89
330
1
100
AcDbSymbolTableRecord
100
AcDbBlockTableRecord
  2
SW_NOTE_2
340
0
102
{BLKREFS
331
8E
102
}
  0
BLOCK_RECORD
  5
8F
330
1
100
AcDbSymbolTableRecord
100
AcDbBlockTableRecord
  2
SW_NOTE_3
340
0
102
{BLKREFS
331
94
102
}
  0
BLOCK_RECORD
  5
F5
330
1
100
AcDbSymbolTableRecord
100
AcDbBlockTableRecord
  2
*D5
340
0
  0
BLOCK_RECORD
  5
109
330
1
100
AcDbSymbolTableRecord
100
AcDbBlockTableRecord
  2
*D6
340
0
  0
BLOCK_RECORD
  5
11D
330
1
100
AcDbSymbolTableRecord
100
AcDbBlockTableRecord
  2
*D7
340
0
  0
BLOCK_RECORD
  5
131
330
1
100
AcDbSymbolTableRecord
100
AcDbBlockTableRecord
  2
*D8
340
0
  0
BLOCK_RECORD
  5
146
330
1
100
AcDbSymbolTableRecord
100
AcDbBlockTableRecord
  2
*D9
340
0
  0
BLOCK_RECORD
  5
156
330
1
100
AcDbSymbolTableRecord
100
AcDbBlockTableRecord
  2
*D10
340
0
  0
BLOCK_RECORD
  5
167
330
1
100
AcDbSymbolTableRecord
100
AcDbBlockTableRecord
  2
*D11
340
0
  0
BLOCK_RECORD
  5
178
330
1
100
AcDbSymbolTableRecord
100
AcDbBlockTableRecord
  2
*D12
340
0
  0
BLOCK_RECORD
  5
18C
330
1
100
AcDbSymbolTableRecord
100
AcDbBlockTableRecord
  2
*D13
340
0
  0
BLOCK_RECORD
  5
1A0
330
1
100
AcDbSymbolTableRecord
100
AcDbBlockTableRecord
  2
*D14
340
0
  0
BLOCK_RECORD
  5
1B4
330
1
100
AcDbSymbolTableRecord
100
AcDbBlockTableRecord
  2
*D15
340
0
  0
BLOCK_RECORD
  5
1C8
330
1
100
AcDbSymbolTableRecord
100
AcDbBlockTableRecord
  2
*D16
340
0
  0
BLOCK_RECORD
  5
1DC
330
1
100
AcDbSymbolTableRecord
100
AcDbBlockTableRecord
  2
*D17
340
0
  0
BLOCK_RECORD
  5
1EF
330
1
100
AcDbSymbolTableRecord
100
AcDbBlockTableRecord
  2
SW_NOTE_4
340
0
102
{BLKREFS
331
1F5
102
}
  0
BLOCK_RECORD
  5
1F8
330
1
100
AcDbSymbolTableRecord
100
AcDbBlockTableRecord
  2
SW_CENTERMARKSYMBOL_0
340
0
102
{BLKREFS
331
203
102
}
  0
BLOCK_RECORD
  5
204
330
1
100
AcDbSymbolTableRecord
100
AcDbBlockTableRecord
  2
SW_CENTERMARKSYMBOL_1
340
0
102
{BLKREFS
331
217
102
}
  0
BLOCK_RECORD
  5
218
330
1
100
AcDbSymbolTableRecord
100
AcDbBlockTableRecord
  2
SW_CENTERMARKSYMBOL_2
340
0
102
{BLKREFS
331
223
102
}
  0
BLOCK_RECORD
  5
224
330
1
100
AcDbSymbolTableRecord
100
AcDbBlockTableRecord
  2
SW_CENTERMARKSYMBOL_3
340
0
102
{BLKREFS
331
22F
102
}
  0
BLOCK_RECORD
  5
230
330
1
100
AcDbSymbolTableRecord
100
AcDbBlockTableRecord
  2
SW_CENTERMARKSYMBOL_4
340
0
102
{BLKREFS
331
23B
102
}
  0
BLOCK_RECORD
  5
23C
330
1
100
AcDbSymbolTableRecord
100
AcDbBlockTableRecord
  2
SW_CENTERMARKSYMBOL_5
340
0
102
{BLKREFS
331
247
102
}
  0
BLOCK_RECORD
  5
248
330
1
100
AcDbSymbolTableRecord
100
AcDbBlockTableRecord
  2
SW_CENTERMARKSYMBOL_6
340
0
102
{BLKREFS
331
253
102
}
  0
BLOCK_RECORD
  5
373
330
1
100
AcDbSymbolTableRecord
100
AcDbBlockTableRecord
  2
*D26
340
0
  0
BLOCK_RECORD
  5
386
330
1
100
AcDbSymbolTableRecord
100
AcDbBlockTableRecord
  2
*D27
340
0
  0
BLOCK_RECORD
  5
39B
330
1
100
AcDbSymbolTableRecord
100
AcDbBlockTableRecord
  2
*D28
340
0
  0
BLOCK_RECORD
  5
3B0
330
1
100
AcDbSymbolTableRecord
100
AcDbBlockTableRecord
  2
*D29
340
0
  0
BLOCK_RECORD
  5
42B
330
1
100
AcDbSymbolTableRecord
100
AcDbBlockTableRecord
  2
*D30
340
0
  0
BLOCK_RECORD
  5
43F
330
1
100
AcDbSymbolTableRecord
100
AcDbBlockTableRecord
  2
*D31
340
0
  0
BLOCK_RECORD
  5
453
330
1
100
AcDbSymbolTableRecord
100
AcDbBlockTableRecord
  2
*D32
340
0
  0
BLOCK_RECORD
  5
467
330
1
100
AcDbSymbolTableRecord
100
AcDbBlockTableRecord
  2
*D33
340
0
  0
BLOCK_RECORD
  5
4A0
330
1
100
AcDbSymbolTableRecord
100
AcDbBlockTableRecord
  2
*D34
340
0
  0
BLOCK_RECORD
  5
4B2
330
1
100
AcDbSymbolTableRecord
100
AcDbBlockTableRecord
  2
*D35
340
0
  0
BLOCK_RECORD
  5
4C4
330
1
100
AcDbSymbolTableRecord
100
AcDbBlockTableRecord
  2
*D36
340
0
  0
BLOCK_RECORD
  5
508
330
1
100
AcDbSymbolTableRecord
100
AcDbBlockTableRecord
  2
*D37
340
0
  0
BLOCK_RECORD
  5
51D
330
1
100
AcDbSymbolTableRecord
100
AcDbBlockTableRecord
  2
*D38
340
0
  0
BLOCK_RECORD
  5
532
330
1
100
AcDbSymbolTableRecord
100
AcDbBlockTableRecord
  2
*D39
340
0
  0
BLOCK_RECORD
  5
545
330
1
100
AcDbSymbolTableRecord
100
AcDbBlockTableRecord
  2
SW_NOTE_5
340
0
102
{BLKREFS
331
54B
102
}
  0
BLOCK_RECORD
  5
54D
330
1
100
AcDbSymbolTableRecord
100
AcDbBlockTableRecord
  2
_DOT
340
0
  0
BLOCK_RECORD
  5
5A1
330
1
100
AcDbSymbolTableRecord
100
AcDbBlockTableRecord
  2
*D42
340
0
  0
BLOCK_RECORD
  5
5B5
330
1
100
AcDbSymbolTableRecord
100
AcDbBlockTableRecord
  2
*D43
340
0
  0
BLOCK_RECORD
  5
5C9
330
1
100
AcDbSymbolTableRecord
100
AcDbBlockTableRecord
  2
*D44
340
0
  0
ENDTAB
  0
ENDSEC
  0
SECTION
  2
BLOCKS
  0
BLOCK
  5
20
330
1F
100
AcDbEntity
  8
0
100
AcDbBlockBegin
  2
*Model_Space
 70
     0
 10
0.0
 20
0.0
 30
0.0
  3
*Model_Space
  1

  0
ENDBLK
  5
21
330
1F
100
AcDbEntity
  8
0
100
AcDbBlockEnd
  0
BLOCK
  5
1C
330
1B
100
AcDbEntity
 67
     1
  8
0
100
AcDbBlockBegin
  2
*Paper_Space
 70
     0
 10
0.0
 20
0.0
 30
0.0
  3
*Paper_Space
  1

  0
ENDBLK
  5
1D
330
1B
100
AcDbEntity
 67
     1
  8
0
100
AcDbBlockEnd
  0
BLOCK
  5
24
330
23
100
AcDbEntity
  8
0
100
AcDbBlockBegin
  2
*Paper_Space0
 70
     0
 10
0.0
 20
0.0
 30
0.0
  3
*Paper_Space0
  1

  0
ENDBLK
  5
25
330
23
100
AcDbEntity
  8
0
100
AcDbBlockEnd
  0
BLOCK
  5
75
330
74
100
AcDbEntity
  8
0
100
AcDbBlockBegin
  2
SW_NOTE_0
 70
     0
 10
0.0
 20
0.0
 30
0.0
  3
SW_NOTE_0
  1

  0
MTEXT
  5
78
330
74
100
AcDbEntity
  8
0
  6
Continuous
 62
     0
370
     0
100
AcDbMText
 10
0.0
 20
0.2014168343
 30
0.0
 40
0.15625
 41
0.0
 71
     1
 72
     1
  1
MATERIAL:
  7
SLDTEXTSTYLE0
 73
     1
 44
1.0
  0
MTEXT
  5
79
330
74
100
AcDbEntity
  8
0
  6
Continuous
 62
     0
370
     0
100
AcDbMText
 10
0.05859375
 20
-0.0040457588
 30
0.0
 40
0.15625
 41
0.0
 71
     1
 72
     1
  1
ABS UL94-HB
  7
SLDTEXTSTYLE0
 73
     1
 44
1.0
  0
MTEXT
  5
7A
330
74
100
AcDbEntity
  8
0
  6
Continuous
 62
     0
370
     0
100
AcDbMText
 10
0.0
 20
-0.4149709451
 30
0.0
 40
0.15625
 41
0.0
 71
     1
 72
     1
  1
COLOR:
  7
SLDTEXTSTYLE0
 73
     1
 44
1.0
  0
MTEXT
  5
7B
330
74
100
AcDbEntity
  8
0
  6
Continuous
 62
     0
370
     0
100
AcDbMText
 10
0.05859375
 20
-0.6204335382
 30
0.0
 40
0.15625
 41
0.0
 71
     1
 72
     1
  1
BLACK OR WHITE
  7
SLDTEXTSTYLE0
 73
     1
 44
1.0
  0
MTEXT
  5
7C
330
74
100
AcDbEntity
  8
0
  6
Continuous
 62
     0
370
     0
100
AcDbMText
 10
0.0
 20
-1.2368213177
 30
0.0
 40
0.15625
 41
0.0
 71
     1
 72
     1
  1
DIMENSIONS IN INCH[MM]
  7
SLDTEXTSTYLE0
 73
     1
 44
1.0
  0
MTEXT
  5
7D
330
74
100
AcDbEntity
  8
0
  6
Continuous
 62
     0
370
     0
100
AcDbMText
 10
0.0
 20
-1.647746504
 30
0.0
 40
0.15625
 41
0.0
 71
     1
 72
     1
  1
DRAWING FOR REFERENCE
  7
SLDTEXTSTYLE0
 73
     1
 44
1.0
  0
ENDBLK
  5
76
330
74
100
AcDbEntity
  8
0
100
AcDbBlockEnd
  0
BLOCK
  5
84
330
83
100
AcDbEntity
  8
0
100
AcDbBlockBegin
  2
SW_NOTE_1
 70
     0
 10
0.0
 20
0.0
 30
0.0
  3
SW_NOTE_1
  1

  0
MTEXT
  5
86
330
83
100
AcDbEntity
  8
0
  6
Continuous
 62
     0
370
     0
100
AcDbMText
 10
0.2368164062
 20
0.2014168343
 30
0.0
 40
0.15625
 41
0.0
 71
     2
 72
     1
  1
PART
  7
SLDTEXTSTYLE0
 73
     1
 44
1.0
  0
MTEXT
  5
87
330
83
100
AcDbEntity
  8
0
  6
Continuous
 62
     0
370
     0
100
AcDbMText
 10
0.2347140875
 20
-0.0040457588
 30
0.0
 40
0.15625
 41
0.0
 71
     2
 72
     1
  1
NAME
  7
SLDTEXTSTYLE0
 73
     1
 44
1.0
  0
ENDBLK
  5
85
330
83
100
AcDbEntity
  8
0
100
AcDbBlockEnd
  0
BLOCK
  5
8A
330
89
100
AcDbEntity
  8
0
100
AcDbBlockBegin
  2
SW_NOTE_2
 70
     0
 10
0.0
 20
0.0
 30
0.0
  3
SW_NOTE_2
  1

  0
MTEXT
  5
8C
330
89
100
AcDbEntity
  8
0
  6
Continuous
 62
     0
370
     0
100
AcDbMText
 10
0.2368164063
 20
0.2014168343
 30
0.0
 40
0.15625
 41
0.0
 71
     2
 72
     1
  1
PART
  7
SLDTEXTSTYLE0
 73
     1
 44
1.0
  0
MTEXT
  5
8D
330
89
100
AcDbEntity
  8
0
  6
Continuous
 62
     0
370
     0
100
AcDbMText
 10
0.2438693602
 20
-0.0040457588
 30
0.0
 40
0.15625
 41
0.0
 71
     2
 72
     1
  1
No.
  7
SLDTEXTSTYLE0
 73
     1
 44
1.0
  0
ENDBLK
  5
8B
330
89
100
AcDbEntity
  8
0
100
AcDbBlockEnd
  0
BLOCK
  5
90
330
8F
100
AcDbEntity
  8
0
100
AcDbBlockBegin
  2
SW_NOTE_3
 70
     0
 10
0.0
 20
0.0
 30
0.0
  3
SW_NOTE_3
  1

  0
MTEXT
  5
92
330
8F
100
AcDbEntity
  8
0
  6
Continuous
 62
     0
370
     0
100
AcDbMText
 10
0.458984375
 20
0.2014168343
 30
0.0
 40
0.15625
 41
0.0
 71
     2
 72
     1
  1
REVISION
  7
SLDTEXTSTYLE0
 73
     1
 44
1.0
  0
MTEXT
  5
93
330
8F
100
AcDbEntity
  8
0
  6
Continuous
 62
     0
370
     0
100
AcDbMText
 10
0.4418674045
 20
-0.0040457588
 30
0.0
 40
0.15625
 41
0.0
 71
     2
 72
     1
  1
DATE
  7
SLDTEXTSTYLE0
 73
     1
 44
1.0
  0
ENDBLK
  5
91
330
8F
100
AcDbEntity
  8
0
100
AcDbBlockEnd
  0
BLOCK
  5
F6
330
F5
100
AcDbEntity
  8
0
100
AcDbBlockBegin
  2
*D5
 70
     1
 10
0.0
 20
0.0
 30
0.0
  3
*D5
  1

  0
SOLID
  5
F8
330
F5
100
AcDbEntity
  8
0
  6
Continuous
 62
     7
370
     0
100
AcDbTrace
 10
4.2572712447
 20
6.9450840767
 30
0.0
 11
4.4197712447
 21
6.9200840767
 31
0.0
 12
4.4197712447
 22
6.9700840767
 32
0.0
 13
4.4197712447
 23
6.9700840767
 33
0.0
  0
SOLID
  5
F9
330
F5
100
AcDbEntity
  8
0
  6
Continuous
 62
     7
370
     0
100
AcDbTrace
 10
6.3438854179
 20
6.9450840767
 30
0.0
 11
6.1813854179
 21
6.9700840767
 31
0.0
 12
6.1813854179
 22
6.9200840767
 32
0.0
 13
6.1813854179
 23
6.9200840767
 33
0.0
  0
LINE
  5
FA
330
F5
100
AcDbEntity
  8
0
  6
Continuous
 62
     7
370
     0
100
AcDbLine
 10
5.1454540943
 20
6.9438904988
 30
0.0
 11
5.1137158115
 21
6.9438904988
 31
0.0
  0
LINE
  5
FB
330
F5
100
AcDbEntity
  8
0
  6
Continuous
 62
     7
370
     0
100
AcDbLine
 10
5.1137158115
 20
6.9438904988
 30
0.0
 11
5.1137158115
 21
6.6958436164
 31
0.0
  0
LINE
  5
FC
330
F5
100
AcDbEntity
  8
0
  6
Continuous
 62
     7
370
     0
100
AcDbLine
 10
5.1137158115
 20
6.6958436164
 30
0.0
 11
5.1454540943
 21
6.6958436164
 31
0.0
  0
LINE
  5
FD
330
F5
100
AcDbEntity
  8
0
  6
Continuous
 62
     7
370
     0
100
AcDbLine
 10
5.4557025798
 20
6.9438904988
 30
0.0
 11
5.4874408627
 21
6.9438904988
 31
0.0
  0
LINE
  5
FE
330
F5
100
AcDbEntity
  8
0
  6
Continuous
 62
     7
370
     0
100
AcDbLine
 10
5.4874408627
 20
6.9438904988
 30
0.0
 11
5.4874408627
 21
6.6958436164
 31
0.0
  0
LINE
  5
FF
330
F5
100
AcDbEntity
  8
0
  6
Continuous
 62
     7
370
     0
100
AcDbLine
 10
5.4874408627
 20
6.6958436164
 30
0.0
 11
5.4557025798
 21
6.6958436164
 31
0.0
  0
LINE
  5
100
330
F5
100
AcDbEntity
  8
0
  6
Continuous
 62
     7
370
     0
100
AcDbLine
 10
4.2572712447
 20
7.8596403701
 30
0.0
 11
4.2572712447
 21
6.7888340767
 31
0.0
  0
LINE
  5
101
330
F5
100
AcDbEntity
  8
0
  6
Continuous
 62
     7
370
     0
100
AcDbLine
 10
6.3438854179
 20
7.8596403701
 30
0.0
 11
6.3438854179
 21
6.7888340767
 31
0.0
  0
LINE
  5
102
330
F5
100
AcDbEntity
  8
0
  6
Continuous
 62
     7
370
     0
100
AcDbLine
 10
4.2572712447
 20
6.9450840767
 30
0.0
 11
4.9456465598
 21
6.9450840767
 31
0.0
  0
LINE
  5
103
330
F5
100
AcDbEntity
  8
0
  6
Continuous
 62
     7
370
     0
100
AcDbLine
 10
6.3438854179
 20
6.9450840767
 30
0.0
 11
5.6555101029
 21
6.9450840767
 31
0.0
  0
MTEXT
  5
104
330
F5
100
AcDbEntity
  8
0
  6
Continuous
 62
     7
370
     0
100
AcDbMText
 10
5.0359299071
 20
7.1794327804
 30
-0.4292028033
 40
0.15625
 41
0.0
 71
     1
 72
     1
  1

  7
SLDTEXTSTYLE0
 73
     1
 44
1.0
  0
MTEXT
  5
105
330
F5
100
AcDbEntity
  8
0
  6
Continuous
 62
     7
370
     0
100
AcDbMText
 10
5.0350618517
 20
7.177045616
 30
-0.4292028033
 40
0.15625
 41
0.0
 71
     1
 72
     1
  1
2.09
  7
SLDTEXTSTYLE0
 73
     1
 44
1.0
  0
MTEXT
  5
106
330
F5
100
AcDbEntity
  8
0
  6
Continuous
 62
     7
370
     0
100
AcDbMText
 10
5.1851269478
 20
6.8972604421
 30
-0.4292028033
 40
0.15625
 41
0.0
 71
     1
 72
     1
  1
53
  7
SLDTEXTSTYLE0
 73
     1
 44
1.0
  0
MTEXT
  5
107
330
F5
100
AcDbEntity
  8
0
  6
Continuous
 62
     7
370
     0
100
AcDbMText
 10
5.6246885724
 20
7.1794327804
 30
-0.4292028033
 40
0.15625
 41
0.0
 71
     1
 72
     1
  1

  7
SLDTEXTSTYLE0
 73
     1
 44
1.0
  0
ENDBLK
  5
F7
330
F5
100
AcDbEntity
  8
0
100
AcDbBlockEnd
  0
BLOCK
  5
10A
330
109
100
AcDbEntity
  8
0
100
AcDbBlockBegin
  2
*D6
 70
     1
 10
0.0
 20
0.0
 30
0.0
  3
*D6
  1

  0
SOLID
  5
10C
330
109
100
AcDbEntity
  8
0
  6
Continuous
 62
     7
370
     0
100
AcDbTrace
 10
3.5255360485
 20
6.353613576
 30
0.0
 11
3.6880360485
 21
6.328613576
 31
0.0
 12
3.6880360485
 22
6.378613576
 32
0.0
 13
3.6880360485
 23
6.378613576
 33
0.0
  0
SOLID
  5
10D
330
109
100
AcDbEntity
  8
0
  6
Continuous
 62
     7
370
     0
100
AcDbTrace
 10
7.0756206141
 20
6.353613576
 30
0.0
 11
6.9131206141
 21
6.378613576
 31
0.0
 12
6.9131206141
 22
6.328613576
 32
0.0
 13
6.9131206141
 23
6.328613576
 33
0.0
  0
LINE
  5
10E
330
109
100
AcDbEntity
  8
0
  6
Continuous
 62
     7
370
     0
100
AcDbLine
 10
5.0588655467
 20
6.3524199981
 30
0.0
 11
5.0271272638
 21
6.3524199981
 31
0.0
  0
LINE
  5
10F
330
109
100
AcDbEntity
  8
0
  6
Continuous
 62
     7
370
     0
100
AcDbLine
 10
5.0271272638
 20
6.3524199981
 30
0.0
 11
5.0271272638
 21
6.1043731156
 31
0.0
  0
LINE
  5
110
330
109
100
AcDbEntity
  8
0
  6
Continuous
 62
     7
370
     0
100
AcDbLine
 10
5.0271272638
 20
6.1043731156
 30
0.0
 11
5.0588655467
 21
6.1043731156
 31
0.0
  0
LINE
  5
111
330
109
100
AcDbEntity
  8
0
  6
Continuous
 62
     7
370
     0
100
AcDbLine
 10
5.5422911275
 20
6.3524199981
 30
0.0
 11
5.5740294103
 21
6.3524199981
 31
0.0
  0
LINE
  5
112
330
109
100
AcDbEntity
  8
0
  6
Continuous
 62
     7
370
     0
100
AcDbLine
 10
5.5740294103
 20
6.3524199981
 30
0.0
 11
5.5740294103
 21
6.1043731156
 31
0.0
  0
LINE
  5
113
330
109
100
AcDbEntity
  8
0
  6
Continuous
 62
     7
370
     0
100
AcDbLine
 10
5.5740294103
 20
6.1043731156
 30
0.0
 11
5.5422911275
 21
6.1043731156
 31
0.0
  0
LINE
  5
114
330
109
100
AcDbEntity
  8
0
  6
Continuous
 62
     7
370
     0
100
AcDbLine
 10
3.5255360485
 20
7.730112811
 30
0.0
 11
3.5255360485
 21
6.197363576
 31
0.0
  0
LINE
  5
115
330
109
100
AcDbEntity
  8
0
  6
Continuous
 62
     7
370
     0
100
AcDbLine
 10
7.0756206141
 20
7.730112811
 30
0.0
 11
7.0756206141
 21
6.197363576
 31
0.0
  0
LINE
  5
116
330
109
100
AcDbEntity
  8
0
  6
Continuous
 62
     7
370
     0
100
AcDbLine
 10
3.5255360485
 20
6.353613576
 30
0.0
 11
4.9139082598
 21
6.353613576
 31
0.0
  0
LINE
  5
117
330
109
100
AcDbEntity
  8
0
  6
Continuous
 62
     7
370
     0
100
AcDbLine
 10
7.0756206141
 20
6.353613576
 30
0.0
 11
5.6872484029
 21
6.353613576
 31
0.0
  0
MTEXT
  5
118
330
109
100
AcDbEntity
  8
0
  6
Continuous
 62
     7
370
     0
100
AcDbMText
 10
5.0041916071
 20
6.5879622796
 30
-0.4292028033
 40
0.15625
 41
0.0
 71
     1
 72
     1
  1

  7
SLDTEXTSTYLE0
 73
     1
 44
1.0
  0
MTEXT
  5
119
330
109
100
AcDbEntity
  8
0
  6
Continuous
 62
     7
370
     0
100
AcDbMText
 10
5.0350618517
 20
6.5855751153
 30
-0.4292028033
 40
0.15625
 41
0.0
 71
     1
 72
     1
  1
3.55
  7
SLDTEXTSTYLE0
 73
     1
 44
1.0
  0
MTEXT
  5
11A
330
109
100
AcDbEntity
  8
0
  6
Continuous
 62
     7
370
     0
100
AcDbMText
 10
5.0985384002
 20
6.3057899414
 30
-0.4292028033
 40
0.15625
 41
0.0
 71
     1
 72
     1
  1
90.2
  7
SLDTEXTSTYLE0
 73
     1
 44
1.0
  0
MTEXT
  5
11B
330
109
100
AcDbEntity
  8
0
  6
Continuous
 62
     7
370
     0
100
AcDbMText
 10
5.6564268724
 20
6.5879622796
 30
-0.4292028033
 40
0.15625
 41
0.0
 71
     1
 72
     1
  1

  7
SLDTEXTSTYLE0
 73
     1
 44
1.0
  0
ENDBLK
  5
10B
330
109
100
AcDbEntity
  8
0
100
AcDbBlockEnd
  0
BLOCK
  5
11E
330
11D
100
AcDbEntity
  8
0
100
AcDbBlockBegin
  2
*D7
 70
     1
 10
0.0
 20
0.0
 30
0.0
  3
*D7
  1

  0
SOLID
  5
120
330
11D
100
AcDbEntity
  8
0
  6
Continuous
 62
     7
370
     0
100
AcDbTrace
 10
7.9494200712
 20
7.9811954882
 30
0.0
 11
7.9744200712
 21
8.1436954882
 31
0.0
 12
7.9244200712
 22
8.1436954882
 32
0.0
 13
7.9244200712
 23
8.1436954882
 33
0.0
  0
SOLID
  5
121
330
11D
100
AcDbEntity
  8
0
  6
Continuous
 62
     7
370
     0
100
AcDbTrace
 10
7.9494200712
 20
9.9496994252
 30
0.0
 11
7.9244200712
 21
9.7871994252
 31
0.0
 12
7.9744200712
 22
9.7871994252
 32
0.0
 13
7.9744200712
 23
9.7871994252
 33
0.0
  0
LINE
  5
122
330
11D
100
AcDbEntity
  8
0
  6
Continuous
 62
     7
370
     0
100
AcDbLine
 10
7.7942958341
 20
8.9642538788
 30
0.0
 11
7.7625575513
 21
8.9642538788
 31
0.0
  0
LINE
  5
123
330
11D
100
AcDbEntity
  8
0
  6
Continuous
 62
     7
370
     0
100
AcDbLine
 10
7.7625575513
 20
8.9642538788
 30
0.0
 11
7.7625575513
 21
8.7162069964
 31
0.0
  0
LINE
  5
124
330
11D
100
AcDbEntity
  8
0
  6
Continuous
 62
     7
370
     0
100
AcDbLine
 10
7.7625575513
 20
8.7162069964
 30
0.0
 11
7.7942958341
 21
8.7162069964
 31
0.0
  0
LINE
  5
125
330
11D
100
AcDbEntity
  8
0
  6
Continuous
 62
     7
370
     0
100
AcDbLine
 10
8.1045443197
 20
8.9642538788
 30
0.0
 11
8.1362826025
 21
8.9642538788
 31
0.0
  0
LINE
  5
126
330
11D
100
AcDbEntity
  8
0
  6
Continuous
 62
     7
370
     0
100
AcDbLine
 10
8.1362826025
 20
8.9642538788
 30
0.0
 11
8.1362826025
 21
8.7162069964
 31
0.0
  0
LINE
  5
127
330
11D
100
AcDbEntity
  8
0
  6
Continuous
 62
     7
370
     0
100
AcDbLine
 10
8.1362826025
 20
8.7162069964
 30
0.0
 11
8.1045443197
 21
8.7162069964
 31
0.0
  0
LINE
  5
128
330
11D
100
AcDbEntity
  8
0
  6
Continuous
 62
     7
370
     0
100
AcDbLine
 10
7.3267032913
 20
7.9811954882
 30
0.0
 11
8.1056700712
 21
7.9811954882
 31
0.0
  0
LINE
  5
129
330
11D
100
AcDbEntity
  8
0
  6
Continuous
 62
     7
370
     0
100
AcDbLine
 10
7.3267032913
 20
9.9496994252
 30
0.0
 11
8.1056700712
 21
9.9496994252
 31
0.0
  0
LINE
  5
12A
330
11D
100
AcDbEntity
  8
0
  6
Continuous
 62
     7
370
     0
100
AcDbLine
 10
7.9494200712
 20
7.9811954882
 30
0.0
 11
7.9494200712
 21
8.6844686963
 31
0.0
  0
LINE
  5
12B
330
11D
100
AcDbEntity
  8
0
  6
Continuous
 62
     7
370
     0
100
AcDbLine
 10
7.9494200712
 20
9.9496994252
 30
0.0
 11
7.9494200712
 21
9.2464262171
 31
0.0
  0
MTEXT
  5
12C
330
11D
100
AcDbEntity
  8
0
  6
Continuous
 62
     7
370
     0
100
AcDbMText
 10
7.684771647
 20
9.1997961603
 30
-0.4292028033
 40
0.15625
 41
0.0
 71
     1
 72
     1
  1

  7
SLDTEXTSTYLE0
 73
     1
 44
1.0
  0
MTEXT
  5
12D
330
11D
100
AcDbEntity
  8
0
  6
Continuous
 62
     7
370
     0
100
AcDbMText
 10
7.6839035916
 20
9.197408996
 30
-0.4292028033
 40
0.15625
 41
0.0
 71
     1
 72
     1
  1
1.97
  7
SLDTEXTSTYLE0
 73
     1
 44
1.0
  0
MTEXT
  5
12E
330
11D
100
AcDbEntity
  8
0
  6
Continuous
 62
     7
370
     0
100
AcDbMText
 10
7.8339686877
 20
8.9176238221
 30
-0.4292028033
 40
0.15625
 41
0.0
 71
     1
 72
     1
  1
50
  7
SLDTEXTSTYLE0
 73
     1
 44
1.0
  0
MTEXT
  5
12F
330
11D
100
AcDbEntity
  8
0
  6
Continuous
 62
     7
370
     0
100
AcDbMText
 10
8.2735303122
 20
9.1997961603
 30
-0.4292028033
 40
0.15625
 41
0.0
 71
     1
 72
     1
  1

  7
SLDTEXTSTYLE0
 73
     1
 44
1.0
  0
ENDBLK
  5
11F
330
11D
100
AcDbEntity
  8
0
100
AcDbBlockEnd
  0
BLOCK
  5
132
330
131
100
AcDbEntity
  8
0
100
AcDbBlockBegin
  2
*D8
 70
     1
 10
0.0
 20
0.0
 30
0.0
  3
*D8
  1

  0
SOLID
  5
134
330
131
100
AcDbEntity
  8
0
  6
Continuous
 62
     7
370
     0
100
AcDbTrace
 10
8.5395595919
 20
7.9221403701
 30
0.0
 11
8.5645595919
 21
8.0846403701
 31
0.0
 12
8.5145595919
 22
8.0846403701
 32
0.0
 13
8.5145595919
 23
8.0846403701
 33
0.0
  0
SOLID
  5
135
330
131
100
AcDbEntity
  8
0
  6
Continuous
 62
     7
370
     0
100
AcDbTrace
 10
8.5395595919
 20
10.0087545433
 30
0.0
 11
8.5145595919
 21
9.8462545433
 31
0.0
 12
8.5645595919
 22
9.8462545433
 32
0.0
 13
8.5645595919
 23
9.8462545433
 33
0.0
  0
LINE
  5
136
330
131
100
AcDbEntity
  8
0
  6
Continuous
 62
     7
370
     0
100
AcDbLine
 10
8.3844353549
 20
8.9642538788
 30
0.0
 11
8.352697072
 21
8.9642538788
 31
0.0
  0
LINE
  5
137
330
131
100
AcDbEntity
  8
0
  6
Continuous
 62
     7
370
     0
100
AcDbLine
 10
8.352697072
 20
8.9642538788
 30
0.0
 11
8.352697072
 21
8.7162069964
 31
0.0
  0
LINE
  5
138
330
131
100
AcDbEntity
  8
0
  6
Continuous
 62
     7
370
     0
100
AcDbLine
 10
8.352697072
 20
8.7162069964
 30
0.0
 11
8.3844353549
 21
8.7162069964
 31
0.0
  0
LINE
  5
139
330
131
100
AcDbEntity
  8
0
  6
Continuous
 62
     7
370
     0
100
AcDbLine
 10
8.6946838404
 20
8.9642538788
 30
0.0
 11
8.7264221232
 21
8.9642538788
 31
0.0
  0
LINE
  5
13A
330
131
100
AcDbEntity
  8
0
  6
Continuous
 62
     7
370
     0
100
AcDbLine
 10
8.7264221232
 20
8.9642538788
 30
0.0
 11
8.7264221232
 21
8.7162069964
 31
0.0
  0
LINE
  5
13B
330
131
100
AcDbEntity
  8
0
  6
Continuous
 62
     7
370
     0
100
AcDbLine
 10
8.7264221232
 20
8.7162069964
 30
0.0
 11
8.6946838404
 21
8.7162069964
 31
0.0
  0
LINE
  5
13C
330
131
100
AcDbEntity
  8
0
  6
Continuous
 62
     7
370
     0
100
AcDbLine
 10
6.4063854179
 20
7.9221403701
 30
0.0
 11
8.6958095919
 21
7.9221403701
 31
0.0
  0
LINE
  5
13D
330
131
100
AcDbEntity
  8
0
  6
Continuous
 62
     7
370
     0
100
AcDbLine
 10
6.4063854179
 20
10.0087545433
 30
0.0
 11
8.6958095919
 21
10.0087545433
 31
0.0
  0
LINE
  5
13E
330
131
100
AcDbEntity
  8
0
  6
Continuous
 62
     7
370
     0
100
AcDbLine
 10
8.5395595919
 20
7.9221403701
 30
0.0
 11
8.5395595919
 21
8.6844686963
 31
0.0
  0
LINE
  5
13F
330
131
100
AcDbEntity
  8
0
  6
Continuous
 62
     7
370
     0
100
AcDbLine
 10
8.5395595919
 20
10.0087545433
 30
0.0
 11
8.5395595919
 21
9.2464262171
 31
0.0
  0
MTEXT
  5
140
330
131
100
AcDbEntity
  8
0
  6
Continuous
 62
     7
370
     0
100
AcDbMText
 10
8.2749111677
 20
9.1997961603
 30
-0.4292028033
 40
0.15625
 41
0.0
 71
     1
 72
     1
  1

  7
SLDTEXTSTYLE0
 73
     1
 44
1.0
  0
MTEXT
  5
141
330
131
100
AcDbEntity
  8
0
  6
Continuous
 62
     7
370
     0
100
AcDbMText
 10
8.2740431123
 20
9.197408996
 30
-0.4292028033
 40
0.15625
 41
0.0
 71
     1
 72
     1
  1
2.09
  7
SLDTEXTSTYLE0
 73
     1
 44
1.0
  0
MTEXT
  5
142
330
131
100
AcDbEntity
  8
0
  6
Continuous
 62
     7
370
     0
100
AcDbMText
 10
8.4241082084
 20
8.9176238221
 30
-0.4292028033
 40
0.15625
 41
0.0
 71
     1
 72
     1
  1
53
  7
SLDTEXTSTYLE0
 73
     1
 44
1.0
  0
MTEXT
  5
143
330
131
100
AcDbEntity
  8
0
  6
Continuous
 62
     7
370
     0
100
AcDbMText
 10
8.863669833
 20
9.1997961603
 30
-0.4292028033
 40
0.15625
 41
0.0
 71
     1
 72
     1
  1

  7
SLDTEXTSTYLE0
 73
     1
 44
1.0
  0
ENDBLK
  5
133
330
131
100
AcDbEntity
  8
0
100
AcDbBlockEnd
  0
BLOCK
  5
147
330
146
100
AcDbEntity
  8
0
100
AcDbBlockBegin
  2
*D9
 70
     1
 10
0.0
 20
0.0
 30
0.0
  3
*D9
  1

  0
SOLID
  5
149
330
146
100
AcDbEntity
  8
0
  6
Continuous
 62
     7
370
     0
100
AcDbTrace
 10
4.2335033366
 20
10.0401406811
 30
0.0
 11
4.1553314934
 21
10.1847795864
 31
0.0
 12
4.1154710984
 22
10.1545943431
 32
0.0
 13
4.1154710984
 23
10.1545943431
 33
0.0
  0
LINE
  5
14A
330
146
100
AcDbEntity
  8
0
  6
Continuous
 62
     7
370
     0
100
AcDbLine
 10
2.371893944
 20
11.7565175998
 30
0.0
 11
2.3401556612
 21
11.7565175998
 31
0.0
  0
LINE
  5
14B
330
146
100
AcDbEntity
  8
0
  6
Continuous
 62
     7
370
     0
100
AcDbLine
 10
2.3401556612
 20
11.7565175998
 30
0.0
 11
2.3401556612
 21
11.5084707174
 31
0.0
  0
LINE
  5
14C
330
146
100
AcDbEntity
  8
0
  6
Continuous
 62
     7
370
     0
100
AcDbLine
 10
2.3401556612
 20
11.5084707174
 30
0.0
 11
2.371893944
 21
11.5084707174
 31
0.0
  0
LINE
  5
14D
330
146
100
AcDbEntity
  8
0
  6
Continuous
 62
     7
370
     0
100
AcDbLine
 10
2.5666910403
 20
11.7565175998
 30
0.0
 11
2.5984293231
 21
11.7565175998
 31
0.0
  0
LINE
  5
14E
330
146
100
AcDbEntity
  8
0
  6
Continuous
 62
     7
370
     0
100
AcDbLine
 10
2.5984293231
 20
11.7565175998
 30
0.0
 11
2.5984293231
 21
11.5084707174
 31
0.0
  0
LINE
  5
14F
330
146
100
AcDbEntity
  8
0
  6
Continuous
 62
     7
370
     0
100
AcDbLine
 10
2.5984293231
 20
11.5084707174
 30
0.0
 11
2.5666910403
 21
11.5084707174
 31
0.0
  0
LINE
  5
150
330
146
100
AcDbEntity
  8
0
  6
Continuous
 62
     7
370
     0
100
AcDbLine
 10
4.2335033366
 20
10.0401406811
 30
0.0
 11
2.9511555457
 21
11.733514127
 31
0.0
  0
LINE
  5
151
330
146
100
AcDbEntity
  8
0
  6
Continuous
 62
     7
370
     0
100
AcDbLine
 10
2.9511555457
 20
11.733514127
 30
0.0
 11
2.7949055457
 21
11.733514127
 31
0.0
  0
MTEXT
  5
152
330
146
100
AcDbEntity
  8
0
  6
Continuous
 62
     7
370
     0
100
AcDbMText
 10
2.1436794271
 20
11.989672717
 30
-0.4292028033
 40
0.15625
 41
0.0
 71
     1
 72
     1
  1
%%c
  7
SLDTEXTSTYLE0
 73
     1
 44
1.0
  0
MTEXT
  5
153
330
146
100
AcDbEntity
  8
0
  6
Continuous
 62
     7
370
     0
100
AcDbMText
 10
2.3793239528
 20
11.989672717
 30
-0.4292028033
 40
0.15625
 41
0.0
 71
     1
 72
     1
  1
.08
  7
SLDTEXTSTYLE0
 73
     1
 44
1.0
  0
MTEXT
  5
154
330
146
100
AcDbEntity
  8
0
  6
Continuous
 62
     7
370
     0
100
AcDbMText
 10
2.4115667975
 20
11.7098875431
 30
-0.4292028033
 40
0.15625
 41
0.0
 71
     1
 72
     1
  1
2
  7
SLDTEXTSTYLE0
 73
     1
 44
1.0
  0
ENDBLK
  5
148
330
146
100
AcDbEntity
  8
0
100
AcDbBlockEnd
  0
BLOCK
  5
157
330
156
100
AcDbEntity
  8
0
100
AcDbBlockBegin
  2
*D10
 70
     1
 10
0.0
 20
0.0
 30
0.0
  3
*D10
  1

  0
SOLID
  5
159
330
156
100
AcDbEntity
  8
0
  6
Continuous
 62
     7
370
     0
100
AcDbTrace
 10
3.4811874944
 20
7.9045137013
 30
0.0
 11
3.3781912313
 21
7.7763613709
 31
0.0
 12
3.4214738399
 22
7.7513290759
 32
0.0
 13
3.4214738399
 23
7.7513290759
 33
0.0
  0
LINE
  5
15A
330
156
100
AcDbEntity
  8
0
  6
Continuous
 62
     7
370
     0
100
AcDbLine
 10
2.2163403633
 20
6.8918090259
 30
0.0
 11
2.1846020804
 21
6.8918090259
 31
0.0
  0
LINE
  5
15B
330
156
100
AcDbEntity
  8
0
  6
Continuous
 62
     7
370
     0
100
AcDbLine
 10
2.1846020804
 20
6.8918090259
 30
0.0
 11
2.1846020804
 21
6.6437621434
 31
0.0
  0
LINE
  5
15C
330
156
100
AcDbEntity
  8
0
  6
Continuous
 62
     7
370
     0
100
AcDbLine
 10
2.1846020804
 20
6.6437621434
 30
0.0
 11
2.2163403633
 21
6.6437621434
 31
0.0
  0
LINE
  5
15D
330
156
100
AcDbEntity
  8
0
  6
Continuous
 62
     7
370
     0
100
AcDbLine
 10
2.5843145319
 20
6.8918090259
 30
0.0
 11
2.6160528148
 21
6.8918090259
 31
0.0
  0
LINE
  5
15E
330
156
100
AcDbEntity
  8
0
  6
Continuous
 62
     7
370
     0
100
AcDbLine
 10
2.6160528148
 20
6.8918090259
 30
0.0
 11
2.6160528148
 21
6.6437621434
 31
0.0
  0
LINE
  5
15F
330
156
100
AcDbEntity
  8
0
  6
Continuous
 62
     7
370
     0
100
AcDbLine
 10
2.6160528148
 20
6.6437621434
 30
0.0
 11
2.5843145319
 21
6.6437621434
 31
0.0
  0
LINE
  5
160
330
156
100
AcDbEntity
  8
0
  6
Continuous
 62
     7
370
     0
100
AcDbLine
 10
3.4811874944
 20
7.9045137013
 30
0.0
 11
2.8821905127
 21
6.8688055531
 31
0.0
  0
LINE
  5
161
330
156
100
AcDbEntity
  8
0
  6
Continuous
 62
     7
370
     0
100
AcDbLine
 10
2.8821905127
 20
6.8688055531
 30
0.0
 11
2.7259405127
 21
6.8688055531
 31
0.0
  0
MTEXT
  5
162
330
156
100
AcDbEntity
  8
0
  6
Continuous
 62
     7
370
     0
100
AcDbMText
 10
2.074714394
 20
7.124964143
 30
-0.4292028033
 40
0.15625
 41
0.0
 71
     1
 72
     1
  1
%%c
  7
SLDTEXTSTYLE0
 73
     1
 44
1.0
  0
MTEXT
  5
163
330
156
100
AcDbEntity
  8
0
  6
Continuous
 62
     7
370
     0
100
AcDbMText
 10
2.3103589198
 20
7.124964143
 30
-0.4292028033
 40
0.15625
 41
0.0
 71
     1
 72
     1
  1
.18
  7
SLDTEXTSTYLE0
 73
     1
 44
1.0
  0
MTEXT
  5
164
330
156
100
AcDbEntity
  8
0
  6
Continuous
 62
     7
370
     0
100
AcDbMText
 10
2.2560132168
 20
6.8451789691
 30
-0.4292028033
 40
0.15625
 41
0.0
 71
     1
 72
     1
  1
4.5
  7
SLDTEXTSTYLE0
 73
     1
 44
1.0
  0
ENDBLK
  5
158
330
156
100
AcDbEntity
  8
0
100
AcDbBlockEnd
  0
BLOCK
  5
168
330
167
100
AcDbEntity
  8
0
100
AcDbBlockBegin
  2
*D11
 70
     1
 10
0.0
 20
0.0
 30
0.0
  3
*D11
  1

  0
SOLID
  5
16A
330
167
100
AcDbEntity
  8
0
  6
Continuous
 62
     7
370
     0
100
AcDbTrace
 10
4.1568637576
 20
10.0641486643
 30
0.0
 11
4.0266569313
 21
10.1645350796
 31
0.0
 12
4.0025041048
 22
10.1207556212
 32
0.0
 13
4.0025041048
 23
10.1207556212
 33
0.0
  0
LINE
  5
16B
330
167
100
AcDbEntity
  8
0
  6
Continuous
 62
     7
370
     0
100
AcDbLine
 10
1.2308512342
 20
10.997747847
 30
0.0
 11
1.1991129514
 21
10.997747847
 31
0.0
  0
LINE
  5
16C
330
167
100
AcDbEntity
  8
0
  6
Continuous
 62
     7
370
     0
100
AcDbLine
 10
1.1991129514
 20
10.997747847
 30
0.0
 11
1.1991129514
 21
10.7497009645
 31
0.0
  0
LINE
  5
16D
330
167
100
AcDbEntity
  8
0
  6
Continuous
 62
     7
370
     0
100
AcDbLine
 10
1.1991129514
 20
10.7497009645
 30
0.0
 11
1.2308512342
 21
10.7497009645
 31
0.0
  0
LINE
  5
16E
330
167
100
AcDbEntity
  8
0
  6
Continuous
 62
     7
370
     0
100
AcDbLine
 10
1.5988254029
 20
10.997747847
 30
0.0
 11
1.6305636857
 21
10.997747847
 31
0.0
  0
LINE
  5
16F
330
167
100
AcDbEntity
  8
0
  6
Continuous
 62
     7
370
     0
100
AcDbLine
 10
1.6305636857
 20
10.997747847
 30
0.0
 11
1.6305636857
 21
10.7497009645
 31
0.0
  0
LINE
  5
170
330
167
100
AcDbEntity
  8
0
  6
Continuous
 62
     7
370
     0
100
AcDbLine
 10
1.6305636857
 20
10.7497009645
 30
0.0
 11
1.5988254029
 21
10.7497009645
 31
0.0
  0
LINE
  5
171
330
167
100
AcDbEntity
  8
0
  6
Continuous
 62
     7
370
     0
100
AcDbLine
 10
4.1568637576
 20
10.0641486643
 30
0.0
 11
2.4624566563
 21
10.9989414249
 31
0.0
  0
LINE
  5
172
330
167
100
AcDbEntity
  8
0
  6
Continuous
 62
     7
370
     0
100
AcDbLine
 10
2.4624566563
 20
10.9989414249
 30
0.0
 11
2.3062066563
 21
10.9989414249
 31
0.0
  0
MTEXT
  5
173
330
167
100
AcDbEntity
  8
0
  6
Continuous
 62
     7
370
     0
100
AcDbMText
 10
1.0892252649
 20
11.2309029642
 30
-0.4292028033
 40
0.15625
 41
0.0
 71
     1
 72
     1
  1
%%c
  7
SLDTEXTSTYLE0
 73
     1
 44
1.0
  0
MTEXT
  5
174
330
167
100
AcDbEntity
  8
0
  6
Continuous
 62
     7
370
     0
100
AcDbMText
 10
1.3248697907
 20
11.2309029642
 30
-0.4292028033
 40
0.15625
 41
0.0
 71
     1
 72
     1
  1
.23
  7
SLDTEXTSTYLE0
 73
     1
 44
1.0
  0
MTEXT
  5
175
330
167
100
AcDbEntity
  8
0
  6
Continuous
 62
     7
370
     0
100
AcDbMText
 10
1.2705240877
 20
10.9511177903
 30
-0.4292028033
 40
0.15625
 41
0.0
 71
     1
 72
     1
  1
5.8
  7
SLDTEXTSTYLE0
 73
     1
 44
1.0
  0
MTEXT
  5
176
330
167
100
AcDbEntity
  8
0
  6
Continuous
 62
     7
370
     0
100
AcDbMText
 10
1.7990451336
 20
11.2332901285
 30
-0.4292028033
 40
0.15625
 41
0.0
 71
     1
 72
     1
  1
BOSS
  7
SLDTEXTSTYLE0
 73
     1
 44
1.0
  0
ENDBLK
  5
169
330
167
100
AcDbEntity
  8
0
100
AcDbBlockEnd
  0
BLOCK
  5
179
330
178
100
AcDbEntity
  8
0
100
AcDbBlockBegin
  2
*D12
 70
     1
 10
0.0
 20
0.0
 30
0.0
  3
*D12
  1

  0
SOLID
  5
17B
330
178
100
AcDbEntity
  8
0
  6
Continuous
 62
     7
370
     0
100
AcDbTrace
 10
3.3202633707
 20
12.1556745723
 30
0.0
 11
3.4827633707
 21
12.1306745723
 31
0.0
 12
3.4827633707
 22
12.1806745723
 32
0.0
 13
3.4827633707
 23
12.1806745723
 33
0.0
  0
SOLID
  5
17C
330
178
100
AcDbEntity
  8
0
  6
Continuous
 62
     7
370
     0
100
AcDbTrace
 10
7.280893292
 20
12.1556745723
 30
0.0
 11
7.118393292
 21
12.1806745723
 31
0.0
 12
7.118393292
 22
12.1306745723
 32
0.0
 13
7.118393292
 23
12.1306745723
 33
0.0
  0
LINE
  5
17D
330
178
100
AcDbEntity
  8
0
  6
Continuous
 62
     7
370
     0
100
AcDbLine
 10
5.0011398635
 20
12.1544809944
 30
0.0
 11
4.9694015807
 21
12.1544809944
 31
0.0
  0
LINE
  5
17E
330
178
100
AcDbEntity
  8
0
  6
Continuous
 62
     7
370
     0
100
AcDbLine
 10
4.9694015807
 20
12.1544809944
 30
0.0
 11
4.9694015807
 21
11.906434112
 31
0.0
  0
LINE
  5
17F
330
178
100
AcDbEntity
  8
0
  6
Continuous
 62
     7
370
     0
100
AcDbLine
 10
4.9694015807
 20
11.906434112
 30
0.0
 11
5.0011398635
 21
11.906434112
 31
0.0
  0
LINE
  5
180
330
178
100
AcDbEntity
  8
0
  6
Continuous
 62
     7
370
     0
100
AcDbLine
 10
5.6000168106
 20
12.1544809944
 30
0.0
 11
5.6317550934
 21
12.1544809944
 31
0.0
  0
LINE
  5
181
330
178
100
AcDbEntity
  8
0
  6
Continuous
 62
     7
370
     0
100
AcDbLine
 10
5.6317550934
 20
12.1544809944
 30
0.0
 11
5.6317550934
 21
11.906434112
 31
0.0
  0
LINE
  5
182
330
178
100
AcDbEntity
  8
0
  6
Continuous
 62
     7
370
     0
100
AcDbLine
 10
5.6317550934
 20
11.906434112
 30
0.0
 11
5.6000168106
 21
11.906434112
 31
0.0
  0
LINE
  5
183
330
178
100
AcDbEntity
  8
0
  6
Continuous
 62
     7
370
     0
100
AcDbLine
 10
3.3202633707
 20
10.3441134501
 30
0.0
 11
3.3202633707
 21
12.3119245723
 31
0.0
  0
LINE
  5
184
330
178
100
AcDbEntity
  8
0
  6
Continuous
 62
     7
370
     0
100
AcDbLine
 10
7.280893292
 20
10.3441134501
 30
0.0
 11
7.280893292
 21
12.3119245723
 31
0.0
  0
LINE
  5
185
330
178
100
AcDbEntity
  8
0
  6
Continuous
 62
     7
370
     0
100
AcDbLine
 10
3.3202633707
 20
12.1556745723
 30
0.0
 11
4.8561825766
 21
12.1556745723
 31
0.0
  0
LINE
  5
186
330
178
100
AcDbEntity
  8
0
  6
Continuous
 62
     7
370
     0
100
AcDbLine
 10
7.280893292
 20
12.1556745723
 30
0.0
 11
5.744974086
 21
12.1556745723
 31
0.0
  0
MTEXT
  5
187
330
178
100
AcDbEntity
  8
0
  6
Continuous
 62
     7
370
     0
100
AcDbMText
 10
4.9464659239
 20
12.390023276
 30
-0.4292028033
 40
0.15625
 41
0.0
 71
     1
 72
     1
  1

  7
SLDTEXTSTYLE0
 73
     1
 44
1.0
  0
MTEXT
  5
188
330
178
100
AcDbEntity
  8
0
  6
Continuous
 62
     7
370
     0
100
AcDbMText
 10
5.0350618517
 20
12.3876361116
 30
-0.4292028033
 40
0.15625
 41
0.0
 71
     1
 72
     1
  1
3.96
  7
SLDTEXTSTYLE0
 73
     1
 44
1.0
  0
MTEXT
  5
189
330
178
100
AcDbEntity
  8
0
  6
Continuous
 62
     7
370
     0
100
AcDbMText
 10
5.0408127171
 20
12.1078509377
 30
-0.4292028033
 40
0.15625
 41
0.0
 71
     1
 72
     1
  1
100.6
  7
SLDTEXTSTYLE0
 73
     1
 44
1.0
  0
MTEXT
  5
18A
330
178
100
AcDbEntity
  8
0
  6
Continuous
 62
     7
370
     0
100
AcDbMText
 10
5.7141525556
 20
12.390023276
 30
-0.4292028033
 40
0.15625
 41
0.0
 71
     1
 72
     1
  1

  7
SLDTEXTSTYLE0
 73
     1
 44
1.0
  0
ENDBLK
  5
17A
330
178
100
AcDbEntity
  8
0
100
AcDbBlockEnd
  0
BLOCK
  5
18D
330
18C
100
AcDbEntity
  8
0
100
AcDbBlockBegin
  2
*D13
 70
     1
 10
0.0
 20
0.0
 30
0.0
  3
*D13
  1

  0
SOLID
  5
18F
330
18C
100
AcDbEntity
  8
0
  6
Continuous
 62
     7
370
     0
100
AcDbTrace
 10
3.7237118833
 20
11.5747144265
 30
0.0
 11
3.8862118833
 21
11.5497144265
 31
0.0
 12
3.8862118833
 22
11.5997144265
 32
0.0
 13
3.8862118833
 23
11.5997144265
 33
0.0
  0
SOLID
  5
190
330
18C
100
AcDbEntity
  8
0
  6
Continuous
 62
     7
370
     0
100
AcDbTrace
 10
6.8774447793
 20
11.5747144265
 30
0.0
 11
6.7149447793
 21
11.5997144265
 31
0.0
 12
6.7149447793
 22
11.5497144265
 32
0.0
 13
6.7149447793
 23
11.5497144265
 33
0.0
  0
LINE
  5
191
330
18C
100
AcDbEntity
  8
0
  6
Continuous
 62
     7
370
     0
100
AcDbLine
 10
5.0588655467
 20
11.5735208486
 30
0.0
 11
5.0271272638
 21
11.5735208486
 31
0.0
  0
LINE
  5
192
330
18C
100
AcDbEntity
  8
0
  6
Continuous
 62
     7
370
     0
100
AcDbLine
 10
5.0271272638
 20
11.5735208486
 30
0.0
 11
5.0271272638
 21
11.3254739662
 31
0.0
  0
LINE
  5
193
330
18C
100
AcDbEntity
  8
0
  6
Continuous
 62
     7
370
     0
100
AcDbLine
 10
5.0271272638
 20
11.3254739662
 30
0.0
 11
5.0588655467
 21
11.3254739662
 31
0.0
  0
LINE
  5
194
330
18C
100
AcDbEntity
  8
0
  6
Continuous
 62
     7
370
     0
100
AcDbLine
 10
5.5422911275
 20
11.5735208486
 30
0.0
 11
5.5740294103
 21
11.5735208486
 31
0.0
  0
LINE
  5
195
330
18C
100
AcDbEntity
  8
0
  6
Continuous
 62
     7
370
     0
100
AcDbLine
 10
5.5740294103
 20
11.5735208486
 30
0.0
 11
5.5740294103
 21
11.3254739662
 31
0.0
  0
LINE
  5
196
330
18C
100
AcDbEntity
  8
0
  6
Continuous
 62
     7
370
     0
100
AcDbLine
 10
5.5740294103
 20
11.3254739662
 30
0.0
 11
5.5422911275
 21
11.3254739662
 31
0.0
  0
LINE
  5
197
330
18C
100
AcDbEntity
  8
0
  6
Continuous
 62
     7
370
     0
100
AcDbLine
 10
3.7237118833
 20
10.5358214724
 30
0.0
 11
3.7237118833
 21
11.7309644265
 31
0.0
  0
LINE
  5
198
330
18C
100
AcDbEntity
  8
0
  6
Continuous
 62
     7
370
     0
100
AcDbLine
 10
6.8774447793
 20
10.5358214724
 30
0.0
 11
6.8774447793
 21
11.7309644265
 31
0.0
  0
LINE
  5
199
330
18C
100
AcDbEntity
  8
0
  6
Continuous
 62
     7
370
     0
100
AcDbLine
 10
3.7237118833
 20
11.5747144265
 30
0.0
 11
4.9139082598
 21
11.5747144265
 31
0.0
  0
LINE
  5
19A
330
18C
100
AcDbEntity
  8
0
  6
Continuous
 62
     7
370
     0
100
AcDbLine
 10
6.8774447793
 20
11.5747144265
 30
0.0
 11
5.6872484029
 21
11.5747144265
 31
0.0
  0
MTEXT
  5
19B
330
18C
100
AcDbEntity
  8
0
  6
Continuous
 62
     7
370
     0
100
AcDbMText
 10
5.0041916071
 20
11.8090631302
 30
-0.4292028033
 40
0.15625
 41
0.0
 71
     1
 72
     1
  1

  7
SLDTEXTSTYLE0
 73
     1
 44
1.0
  0
MTEXT
  5
19C
330
18C
100
AcDbEntity
  8
0
  6
Continuous
 62
     7
370
     0
100
AcDbMText
 10
5.0350618517
 20
11.8066759658
 30
-0.4292028033
 40
0.15625
 41
0.0
 71
     1
 72
     1
  1
3.15
  7
SLDTEXTSTYLE0
 73
     1
 44
1.0
  0
MTEXT
  5
19D
330
18C
100
AcDbEntity
  8
0
  6
Continuous
 62
     7
370
     0
100
AcDbMText
 10
5.0985384002
 20
11.5268907919
 30
-0.4292028033
 40
0.15625
 41
0.0
 71
     1
 72
     1
  1
80.1
  7
SLDTEXTSTYLE0
 73
     1
 44
1.0
  0
MTEXT
  5
19E
330
18C
100
AcDbEntity
  8
0
  6
Continuous
 62
     7
370
     0
100
AcDbMText
 10
5.6564268724
 20
11.8090631302
 30
-0.4292028033
 40
0.15625
 41
0.0
 71
     1
 72
     1
  1

  7
SLDTEXTSTYLE0
 73
     1
 44
1.0
  0
ENDBLK
  5
18E
330
18C
100
AcDbEntity
  8
0
100
AcDbBlockEnd
  0
BLOCK
  5
1A1
330
1A0
100
AcDbEntity
  8
0
100
AcDbBlockBegin
  2
*D14
 70
     1
 10
0.0
 20
0.0
 30
0.0
  3
*D14
  1

  0
SOLID
  5
1A3
330
1A0
100
AcDbEntity
  8
0
  6
Continuous
 62
     7
370
     0
100
AcDbTrace
 10
3.8154843025
 20
10.9989414249
 30
0.0
 11
3.9779843025
 21
10.9739414249
 31
0.0
 12
3.9779843025
 22
11.0239414249
 32
0.0
 13
3.9779843025
 23
11.0239414249
 33
0.0
  0
SOLID
  5
1A4
330
1A0
100
AcDbEntity
  8
0
  6
Continuous
 62
     7
370
     0
100
AcDbTrace
 10
6.7856723601
 20
10.9989414249
 30
0.0
 11
6.6231723601
 21
11.0239414249
 31
0.0
 12
6.6231723601
 22
10.9739414249
 32
0.0
 13
6.6231723601
 23
10.9739414249
 33
0.0
  0
LINE
  5
1A5
330
1A0
100
AcDbEntity
  8
0
  6
Continuous
 62
     7
370
     0
100
AcDbLine
 10
5.0588655467
 20
10.997747847
 30
0.0
 11
5.0271272638
 21
10.997747847
 31
0.0
  0
LINE
  5
1A6
330
1A0
100
AcDbEntity
  8
0
  6
Continuous
 62
     7
370
     0
100
AcDbLine
 10
5.0271272638
 20
10.997747847
 30
0.0
 11
5.0271272638
 21
10.7497009645
 31
0.0
  0
LINE
  5
1A7
330
1A0
100
AcDbEntity
  8
0
  6
Continuous
 62
     7
370
     0
100
AcDbLine
 10
5.0271272638
 20
10.7497009645
 30
0.0
 11
5.0588655467
 21
10.7497009645
 31
0.0
  0
LINE
  5
1A8
330
1A0
100
AcDbEntity
  8
0
  6
Continuous
 62
     7
370
     0
100
AcDbLine
 10
5.5422911275
 20
10.997747847
 30
0.0
 11
5.5740294103
 21
10.997747847
 31
0.0
  0
LINE
  5
1A9
330
1A0
100
AcDbEntity
  8
0
  6
Continuous
 62
     7
370
     0
100
AcDbLine
 10
5.5740294103
 20
10.997747847
 30
0.0
 11
5.5740294103
 21
10.7497009645
 31
0.0
  0
LINE
  5
1AA
330
1A0
100
AcDbEntity
  8
0
  6
Continuous
 62
     7
370
     0
100
AcDbLine
 10
5.5740294103
 20
10.7497009645
 30
0.0
 11
5.5422911275
 21
10.7497009645
 31
0.0
  0
LINE
  5
1AB
330
1A0
100
AcDbEntity
  8
0
  6
Continuous
 62
     7
370
     0
100
AcDbLine
 10
3.8154843025
 20
10.5248525091
 30
0.0
 11
3.8154843025
 21
11.1551914249
 31
0.0
  0
LINE
  5
1AC
330
1A0
100
AcDbEntity
  8
0
  6
Continuous
 62
     7
370
     0
100
AcDbLine
 10
6.7856723601
 20
10.5248525091
 30
0.0
 11
6.7856723601
 21
11.1551914249
 31
0.0
  0
LINE
  5
1AD
330
1A0
100
AcDbEntity
  8
0
  6
Continuous
 62
     7
370
     0
100
AcDbLine
 10
3.8154843025
 20
10.9989414249
 30
0.0
 11
4.9139082598
 21
10.9989414249
 31
0.0
  0
LINE
  5
1AE
330
1A0
100
AcDbEntity
  8
0
  6
Continuous
 62
     7
370
     0
100
AcDbLine
 10
6.7856723601
 20
10.9989414249
 30
0.0
 11
5.6872484029
 21
10.9989414249
 31
0.0
  0
MTEXT
  5
1AF
330
1A0
100
AcDbEntity
  8
0
  6
Continuous
 62
     7
370
     0
100
AcDbMText
 10
5.0041916071
 20
11.2332901285
 30
-0.4292028033
 40
0.15625
 41
0.0
 71
     1
 72
     1
  1

  7
SLDTEXTSTYLE0
 73
     1
 44
1.0
  0
MTEXT
  5
1B0
330
1A0
100
AcDbEntity
  8
0
  6
Continuous
 62
     7
370
     0
100
AcDbMText
 10
5.0350618517
 20
11.2309029642
 30
-0.4292028033
 40
0.15625
 41
0.0
 71
     1
 72
     1
  1
2.97
  7
SLDTEXTSTYLE0
 73
     1
 44
1.0
  0
MTEXT
  5
1B1
330
1A0
100
AcDbEntity
  8
0
  6
Continuous
 62
     7
370
     0
100
AcDbMText
 10
5.0985384002
 20
10.9511177903
 30
-0.4292028033
 40
0.15625
 41
0.0
 71
     1
 72
     1
  1
75.4
  7
SLDTEXTSTYLE0
 73
     1
 44
1.0
  0
MTEXT
  5
1B2
330
1A0
100
AcDbEntity
  8
0
  6
Continuous
 62
     7
370
     0
100
AcDbMText
 10
5.6564268724
 20
11.2332901285
 30
-0.4292028033
 40
0.15625
 41
0.0
 71
     1
 72
     1
  1

  7
SLDTEXTSTYLE0
 73
     1
 44
1.0
  0
ENDBLK
  5
1A2
330
1A0
100
AcDbEntity
  8
0
100
AcDbBlockEnd
  0
BLOCK
  5
1B5
330
1B4
100
AcDbEntity
  8
0
100
AcDbBlockBegin
  2
*D15
 70
     1
 10
0.0
 20
0.0
 30
0.0
  3
*D15
  1

  0
SOLID
  5
1B7
330
1B4
100
AcDbEntity
  8
0
  6
Continuous
 62
     7
370
     0
100
AcDbTrace
 10
1.3517435042
 20
10.5726946139
 30
0.0
 11
1.3267435042
 21
10.4101946139
 31
0.0
 12
1.3767435042
 22
10.4101946139
 32
0.0
 13
1.3767435042
 23
10.4101946139
 33
0.0
  0
SOLID
  5
1B8
330
1B4
100
AcDbEntity
  8
0
  6
Continuous
 62
     7
370
     0
100
AcDbTrace
 10
1.3517435042
 20
7.3582002995
 30
0.0
 11
1.3767435042
 21
7.5207002995
 31
0.0
 12
1.3267435042
 22
7.5207002995
 32
0.0
 13
1.3267435042
 23
7.5207002995
 33
0.0
  0
LINE
  5
1B9
330
1B4
100
AcDbEntity
  8
0
  6
Continuous
 62
     7
370
     0
100
AcDbLine
 10
1.1100307195
 20
8.9642538788
 30
0.0
 11
1.0782924367
 21
8.9642538788
 31
0.0
  0
LINE
  5
1BA
330
1B4
100
AcDbEntity
  8
0
  6
Continuous
 62
     7
370
     0
100
AcDbLine
 10
1.0782924367
 20
8.9642538788
 30
0.0
 11
1.0782924367
 21
8.7162069964
 31
0.0
  0
LINE
  5
1BB
330
1B4
100
AcDbEntity
  8
0
  6
Continuous
 62
     7
370
     0
100
AcDbLine
 10
1.0782924367
 20
8.7162069964
 30
0.0
 11
1.1100307195
 21
8.7162069964
 31
0.0
  0
LINE
  5
1BC
330
1B4
100
AcDbEntity
  8
0
  6
Continuous
 62
     7
370
     0
100
AcDbLine
 10
1.5934563003
 20
8.9642538788
 30
0.0
 11
1.6251945832
 21
8.9642538788
 31
0.0
  0
LINE
  5
1BD
330
1B4
100
AcDbEntity
  8
0
  6
Continuous
 62
     7
370
     0
100
AcDbLine
 10
1.6251945832
 20
8.9642538788
 30
0.0
 11
1.6251945832
 21
8.7162069964
 31
0.0
  0
LINE
  5
1BE
330
1B4
100
AcDbEntity
  8
0
  6
Continuous
 62
     7
370
     0
100
AcDbLine
 10
1.6251945832
 20
8.7162069964
 30
0.0
 11
1.5934563003
 21
8.7162069964
 31
0.0
  0
LINE
  5
1BF
330
1B4
100
AcDbEntity
  8
0
  6
Continuous
 62
     7
370
     0
100
AcDbLine
 10
3.7420153392
 20
10.5726946139
 30
0.0
 11
1.1954935042
 21
10.5726946139
 31
0.0
  0
LINE
  5
1C0
330
1B4
100
AcDbEntity
  8
0
  6
Continuous
 62
     7
370
     0
100
AcDbLine
 10
3.7420153392
 20
7.3582002995
 30
0.0
 11
1.1954935042
 21
7.3582002995
 31
0.0
  0
LINE
  5
1C1
330
1B4
100
AcDbEntity
  8
0
  6
Continuous
 62
     7
370
     0
100
AcDbLine
 10
1.3517435042
 20
10.5726946139
 30
0.0
 11
1.3517435042
 21
9.246426217
 31
0.0
  0
LINE
  5
1C2
330
1B4
100
AcDbEntity
  8
0
  6
Continuous
 62
     7
370
     0
100
AcDbLine
 10
1.3517435042
 20
7.3582002995
 30
0.0
 11
1.3517435042
 21
8.6844686963
 31
0.0
  0
MTEXT
  5
1C3
330
1B4
100
AcDbEntity
  8
0
  6
Continuous
 62
     7
370
     0
100
AcDbMText
 10
1.05535678
 20
9.1997961603
 30
-0.4292028033
 40
0.15625
 41
0.0
 71
     1
 72
     1
  1

  7
SLDTEXTSTYLE0
 73
     1
 44
1.0
  0
MTEXT
  5
1C4
330
1B4
100
AcDbEntity
  8
0
  6
Continuous
 62
     7
370
     0
100
AcDbMText
 10
1.0862270246
 20
9.197408996
 30
-0.4292028033
 40
0.15625
 41
0.0
 71
     1
 72
     1
  1
3.21
  7
SLDTEXTSTYLE0
 73
     1
 44
1.0
  0
MTEXT
  5
1C5
330
1B4
100
AcDbEntity
  8
0
  6
Continuous
 62
     7
370
     0
100
AcDbMText
 10
1.1497035731
 20
8.9176238221
 30
-0.4292028033
 40
0.15625
 41
0.0
 71
     1
 72
     1
  1
81.6
  7
SLDTEXTSTYLE0
 73
     1
 44
1.0
  0
MTEXT
  5
1C6
330
1B4
100
AcDbEntity
  8
0
  6
Continuous
 62
     7
370
     0
100
AcDbMText
 10
1.7075920453
 20
9.1997961603
 30
-0.4292028033
 40
0.15625
 41
0.0
 71
     1
 72
     1
  1

  7
SLDTEXTSTYLE0
 73
     1
 44
1.0
  0
ENDBLK
  5
1B6
330
1B4
100
AcDbEntity
  8
0
100
AcDbBlockEnd
  0
BLOCK
  5
1C9
330
1C8
100
AcDbEntity
  8
0
100
AcDbBlockBegin
  2
*D16
 70
     1
 10
0.0
 20
0.0
 30
0.0
  3
*D16
  1

  0
SOLID
  5
1CB
330
1C8
100
AcDbEntity
  8
0
  6
Continuous
 62
     7
370
     0
100
AcDbTrace
 10
2.023361138
 20
10.5541249283
 30
0.0
 11
1.998361138
 21
10.3916249283
 31
0.0
 12
2.048361138
 22
10.3916249283
 32
0.0
 13
2.048361138
 23
10.3916249283
 33
0.0
  0
SOLID
  5
1CC
330
1C8
100
AcDbEntity
  8
0
  6
Continuous
 62
     7
370
     0
100
AcDbTrace
 10
2.023361138
 20
7.3767699851
 30
0.0
 11
2.048361138
 21
7.5392699851
 31
0.0
 12
1.998361138
 22
7.5392699851
 32
0.0
 13
1.998361138
 23
7.5392699851
 33
0.0
  0
LINE
  5
1CD
330
1C8
100
AcDbEntity
  8
0
  6
Continuous
 62
     7
370
     0
100
AcDbLine
 10
1.7816483533
 20
8.9642538788
 30
0.0
 11
1.7499100705
 21
8.9642538788
 31
0.0
  0
LINE
  5
1CE
330
1C8
100
AcDbEntity
  8
0
  6
Continuous
 62
     7
370
     0
100
AcDbLine
 10
1.7499100705
 20
8.9642538788
 30
0.0
 11
1.7499100705
 21
8.7162069964
 31
0.0
  0
LINE
  5
1CF
330
1C8
100
AcDbEntity
  8
0
  6
Continuous
 62
     7
370
     0
100
AcDbLine
 10
1.7499100705
 20
8.7162069964
 30
0.0
 11
1.7816483533
 21
8.7162069964
 31
0.0
  0
LINE
  5
1D0
330
1C8
100
AcDbEntity
  8
0
  6
Continuous
 62
     7
370
     0
100
AcDbLine
 10
2.2650739341
 20
8.9642538788
 30
0.0
 11
2.296812217
 21
8.9642538788
 31
0.0
  0
LINE
  5
1D1
330
1C8
100
AcDbEntity
  8
0
  6
Continuous
 62
     7
370
     0
100
AcDbLine
 10
2.296812217
 20
8.9642538788
 30
0.0
 11
2.296812217
 21
8.7162069964
 31
0.0
  0
LINE
  5
1D2
330
1C8
100
AcDbEntity
  8
0
  6
Continuous
 62
     7
370
     0
100
AcDbLine
 10
2.296812217
 20
8.7162069964
 30
0.0
 11
2.2650739341
 21
8.7162069964
 31
0.0
  0
LINE
  5
1D3
330
1C8
100
AcDbEntity
  8
0
  6
Continuous
 62
     7
370
     0
100
AcDbLine
 10
3.7420153392
 20
10.5541249283
 30
0.0
 11
1.867111138
 21
10.5541249283
 31
0.0
  0
LINE
  5
1D4
330
1C8
100
AcDbEntity
  8
0
  6
Continuous
 62
     7
370
     0
100
AcDbLine
 10
3.7420153392
 20
7.3767699851
 30
0.0
 11
1.867111138
 21
7.3767699851
 31
0.0
  0
LINE
  5
1D5
330
1C8
100
AcDbEntity
  8
0
  6
Continuous
 62
     7
370
     0
100
AcDbLine
 10
2.023361138
 20
10.5541249283
 30
0.0
 11
2.023361138
 21
9.246426217
 31
0.0
  0
LINE
  5
1D6
330
1C8
100
AcDbEntity
  8
0
  6
Continuous
 62
     7
370
     0
100
AcDbLine
 10
2.023361138
 20
7.3767699851
 30
0.0
 11
2.023361138
 21
8.6844686963
 31
0.0
  0
MTEXT
  5
1D7
330
1C8
100
AcDbEntity
  8
0
  6
Continuous
 62
     7
370
     0
100
AcDbMText
 10
1.7269744138
 20
9.1997961603
 30
-0.4292028033
 40
0.15625
 41
0.0
 71
     1
 72
     1
  1

  7
SLDTEXTSTYLE0
 73
     1
 44
1.0
  0
MTEXT
  5
1D8
330
1C8
100
AcDbEntity
  8
0
  6
Continuous
 62
     7
370
     0
100
AcDbMText
 10
1.7578446584
 20
9.197408996
 30
-0.4292028033
 40
0.15625
 41
0.0
 71
     1
 72
     1
  1
3.18
  7
SLDTEXTSTYLE0
 73
     1
 44
1.0
  0
MTEXT
  5
1D9
330
1C8
100
AcDbEntity
  8
0
  6
Continuous
 62
     7
370
     0
100
AcDbMText
 10
1.8213212069
 20
8.9176238221
 30
-0.4292028033
 40
0.15625
 41
0.0
 71
     1
 72
     1
  1
80.7
  7
SLDTEXTSTYLE0
 73
     1
 44
1.0
  0
MTEXT
  5
1DA
330
1C8
100
AcDbEntity
  8
0
  6
Continuous
 62
     7
370
     0
100
AcDbMText
 10
2.3792096791
 20
9.1997961603
 30
-0.4292028033
 40
0.15625
 41
0.0
 71
     1
 72
     1
  1

  7
SLDTEXTSTYLE0
 73
     1
 44
1.0
  0
ENDBLK
  5
1CA
330
1C8
100
AcDbEntity
  8
0
100
AcDbBlockEnd
  0
BLOCK
  5
1DD
330
1DC
100
AcDbEntity
  8
0
100
AcDbBlockBegin
  2
*D17
 70
     1
 10
0.0
 20
0.0
 30
0.0
  3
*D17
  1

  0
SOLID
  5
1DF
330
1DC
100
AcDbEntity
  8
0
  6
Continuous
 62
     7
370
     0
100
AcDbTrace
 10
2.7236144111
 20
10.4623525091
 30
0.0
 11
2.6986144111
 21
10.2998525091
 31
0.0
 12
2.7486144111
 22
10.2998525091
 32
0.0
 13
2.7486144111
 23
10.2998525091
 33
0.0
  0
SOLID
  5
1E0
330
1DC
100
AcDbEntity
  8
0
  6
Continuous
 62
     7
370
     0
100
AcDbTrace
 10
2.7236144111
 20
7.4685424043
 30
0.0
 11
2.7486144111
 21
7.6310424043
 31
0.0
 12
2.6986144111
 22
7.6310424043
 32
0.0
 13
2.6986144111
 23
7.6310424043
 33
0.0
  0
LINE
  5
1E1
330
1DC
100
AcDbEntity
  8
0
  6
Continuous
 62
     7
370
     0
100
AcDbLine
 10
2.5684901741
 20
8.9642538788
 30
0.0
 11
2.5367518913
 21
8.9642538788
 31
0.0
  0
LINE
  5
1E2
330
1DC
100
AcDbEntity
  8
0
  6
Continuous
 62
     7
370
     0
100
AcDbLine
 10
2.5367518913
 20
8.9642538788
 30
0.0
 11
2.5367518913
 21
8.7162069964
 31
0.0
  0
LINE
  5
1E3
330
1DC
100
AcDbEntity
  8
0
  6
Continuous
 62
     7
370
     0
100
AcDbLine
 10
2.5367518913
 20
8.7162069964
 30
0.0
 11
2.5684901741
 21
8.7162069964
 31
0.0
  0
LINE
  5
1E4
330
1DC
100
AcDbEntity
  8
0
  6
Continuous
 62
     7
370
     0
100
AcDbLine
 10
2.8787386596
 20
8.9642538788
 30
0.0
 11
2.9104769425
 21
8.9642538788
 31
0.0
  0
LINE
  5
1E5
330
1DC
100
AcDbEntity
  8
0
  6
Continuous
 62
     7
370
     0
100
AcDbLine
 10
2.9104769425
 20
8.9642538788
 30
0.0
 11
2.9104769425
 21
8.7162069964
 31
0.0
  0
LINE
  5
1E6
330
1DC
100
AcDbEntity
  8
0
  6
Continuous
 62
     7
370
     0
100
AcDbLine
 10
2.9104769425
 20
8.7162069964
 30
0.0
 11
2.8787386596
 21
8.7162069964
 31
0.0
  0
LINE
  5
1E7
330
1DC
100
AcDbEntity
  8
0
  6
Continuous
 62
     7
370
     0
100
AcDbLine
 10
3.7529843025
 20
10.4623525091
 30
0.0
 11
2.5673644111
 21
10.4623525091
 31
0.0
  0
LINE
  5
1E8
330
1DC
100
AcDbEntity
  8
0
  6
Continuous
 62
     7
370
     0
100
AcDbLine
 10
3.7529843025
 20
7.4685424043
 30
0.0
 11
2.5673644111
 21
7.4685424043
 31
0.0
  0
LINE
  5
1E9
330
1DC
100
AcDbEntity
  8
0
  6
Continuous
 62
     7
370
     0
100
AcDbLine
 10
2.7236144111
 20
10.4623525091
 30
0.0
 11
2.7236144111
 21
9.2464262171
 31
0.0
  0
LINE
  5
1EA
330
1DC
100
AcDbEntity
  8
0
  6
Continuous
 62
     7
370
     0
100
AcDbLine
 10
2.7236144111
 20
7.4685424043
 30
0.0
 11
2.7236144111
 21
8.6844686963
 31
0.0
  0
MTEXT
  5
1EB
330
1DC
100
AcDbEntity
  8
0
  6
Continuous
 62
     7
370
     0
100
AcDbMText
 10
2.4589659869
 20
9.1997961603
 30
-0.4292028033
 40
0.15625
 41
0.0
 71
     1
 72
     1
  1

  7
SLDTEXTSTYLE0
 73
     1
 44
1.0
  0
MTEXT
  5
1EC
330
1DC
100
AcDbEntity
  8
0
  6
Continuous
 62
     7
370
     0
100
AcDbMText
 10
2.4580979315
 20
9.197408996
 30
-0.4292028033
 40
0.15625
 41
0.0
 71
     1
 72
     1
  1
2.99
  7
SLDTEXTSTYLE0
 73
     1
 44
1.0
  0
MTEXT
  5
1ED
330
1DC
100
AcDbEntity
  8
0
  6
Continuous
 62
     7
370
     0
100
AcDbMText
 10
2.6081630277
 20
8.9176238221
 30
-0.4292028033
 40
0.15625
 41
0.0
 71
     1
 72
     1
  1
76
  7
SLDTEXTSTYLE0
 73
     1
 44
1.0
  0
MTEXT
  5
1EE
330
1DC
100
AcDbEntity
  8
0
  6
Continuous
 62
     7
370
     0
100
AcDbMText
 10
3.0477246522
 20
9.1997961603
 30
-0.4292028033
 40
0.15625
 41
0.0
 71
     1
 72
     1
  1

  7
SLDTEXTSTYLE0
 73
     1
 44
1.0
  0
ENDBLK
  5
1DE
330
1DC
100
AcDbEntity
  8
0
100
AcDbBlockEnd
  0
BLOCK
  5
1F0
330
1EF
100
AcDbEntity
  8
0
100
AcDbBlockBegin
  2
SW_NOTE_4
 70
     0
 10
0.0
 20
0.0
 30
0.0
  3
SW_NOTE_4
  1

  0
MTEXT
  5
1F2
330
1EF
100
AcDbEntity
  8
0
  6
Continuous
 62
     0
370
     0
100
AcDbMText
 10
0.0247533009
 20
0.0757102517
 30
0.0
 40
0.15625
 41
0.0
 71
     1
 72
     1
  1
HOLES ACCEPT M2.6 x 6mm LG.
  7
SLDTEXTSTYLE0
 73
     1
 44
1.0
  0
MTEXT
  5
1F3
330
1EF
100
AcDbEntity
  8
0
  6
Continuous
 62
     0
370
     0
100
AcDbMText
 10
0.0247533009
 20
-0.1297523414
 30
0.0
 40
0.15625
 41
0.0
 71
     1
 72
     1
  1
SELF-TAPPING SCREWS FOR
  7
SLDTEXTSTYLE0
 73
     1
 44
1.0
  0
MTEXT
  5
1F4
330
1EF
100
AcDbEntity
  8
0
  6
Continuous
 62
     0
370
     0
100
AcDbMText
 10
0.0247533009
 20
-0.3352149346
 30
0.0
 40
0.15625
 41
0.0
 71
     1
 72
     1
  1
PCB MOUNTING
  7
SLDTEXTSTYLE0
 73
     1
 44
1.0
  0
ENDBLK
  5
1F1
330
1EF
100
AcDbEntity
  8
0
100
AcDbBlockEnd
  0
BLOCK
  5
1F9
330
1F8
100
AcDbEntity
  8
0
100
AcDbBlockBegin
  2
SW_CENTERMARKSYMBOL_0
 70
     0
 10
0.0
 20
0.0
 30
0.0
  3
SW_CENTERMARKSYMBOL_0
  1

  0
LINE
  5
1FB
330
1F8
100
AcDbEntity
  8
0
  6
Continuous
 62
     0
370
     0
100
AcDbLine
 10
0.0
 20
0.0
 30
0.0
 11
0.0
 21
0.1
 31
0.0
  0
LINE
  5
1FC
330
1F8
100
AcDbEntity
  8
0
  6
Continuous
 62
     0
370
     0
100
AcDbLine
 10
0.0
 20
0.0
 30
0.0
 11
-0.1
 21
0.0
 31
0.0
  0
LINE
  5
1FD
330
1F8
100
AcDbEntity
  8
0
  6
Continuous
 62
     0
370
     0
100
AcDbLine
 10
0.0
 20
0.0
 30
0.0
 11
0.0
 21
-0.1
 31
0.0
  0
LINE
  5
1FE
330
1F8
100
AcDbEntity
  8
0
  6
Continuous
 62
     0
370
     0
100
AcDbLine
 10
0.0
 20
0.0
 30
0.0
 11
0.1
 21
0.0
 31
0.0
  0
LINE
  5
1FF
330
1F8
100
AcDbEntity
  8
0
  6
Continuous
 62
     0
370
     0
100
AcDbLine
 10
0.0
 20
0.1
 30
0.0
 11
0.0
 21
0.1885826772
 31
0.0
  0
LINE
  5
200
330
1F8
100
AcDbEntity
  8
0
  6
Continuous
 62
     0
370
     0
100
AcDbLine
 10
-0.1
 20
0.0
 30
0.0
 11
-0.1885826772
 21
0.0
 31
0.0
  0
LINE
  5
201
330
1F8
100
AcDbEntity
  8
0
  6
Continuous
 62
     0
370
     0
100
AcDbLine
 10
0.0
 20
-0.1
 30
0.0
 11
0.0
 21
-0.1885826772
 31
0.0
  0
LINE
  5
202
330
1F8
100
AcDbEntity
  8
0
  6
Continuous
 62
     0
370
     0
100
AcDbLine
 10
0.1
 20
0.0
 30
0.0
 11
0.1885826772
 21
0.0
 31
0.0
  0
ENDBLK
  5
1FA
330
1F8
100
AcDbEntity
  8
0
100
AcDbBlockEnd
  0
BLOCK
  5
205
330
204
100
AcDbEntity
  8
0
100
AcDbBlockBegin
  2
SW_CENTERMARKSYMBOL_1
 70
     0
 10
0.0
 20
0.0
 30
0.0
  3
SW_CENTERMARKSYMBOL_1
  1

  0
LINE
  5
207
330
204
100
AcDbEntity
  8
0
  6
Continuous
 62
     0
370
     0
100
AcDbLine
 10
0.0
 20
0.0
 30
0.0
 11
0.0
 21
0.1
 31
0.0
  0
LINE
  5
208
330
204
100
AcDbEntity
  8
0
  6
Continuous
 62
     0
370
     0
100
AcDbLine
 10
0.0
 20
0.0
 30
0.0
 11
-0.1
 21
0.0
 31
0.0
  0
LINE
  5
209
330
204
100
AcDbEntity
  8
0
  6
Continuous
 62
     0
370
     0
100
AcDbLine
 10
0.0
 20
0.0
 30
0.0
 11
0.0
 21
-0.1
 31
0.0
  0
LINE
  5
20A
330
204
100
AcDbEntity
  8
0
  6
Continuous
 62
     0
370
     0
100
AcDbLine
 10
0.0
 20
0.0
 30
0.0
 11
0.1
 21
0.0
 31
0.0
  0
LINE
  5
20B
330
204
100
AcDbEntity
  8
0
  6
Continuous
 62
     0
370
     0
100
AcDbLine
 10
0.0
 20
0.1
 30
0.0
 11
0.0
 21
0.1885826772
 31
0.0
  0
LINE
  5
20C
330
204
100
AcDbEntity
  8
0
  6
Continuous
 62
     0
370
     0
100
AcDbLine
 10
-0.1
 20
0.0
 30
0.0
 11
-0.1885826772
 21
0.0
 31
0.0
  0
LINE
  5
20D
330
204
100
AcDbEntity
  8
0
  6
Continuous
 62
     0
370
     0
100
AcDbLine
 10
0.0
 20
-0.1
 30
0.0
 11
0.0
 21
-0.1885826772
 31
0.0
  0
LINE
  5
20E
330
204
100
AcDbEntity
  8
0
  6
Continuous
 62
     0
370
     0
100
AcDbLine
 10
0.1
 20
0.0
 30
0.0
 11
0.1885826772
 21
0.0
 31
0.0
  0
LINE
  5
20F
330
204
100
AcDbEntity
  8
0
  6
Continuous
 62
     0
370
     0
100
AcDbLine
 10
3.5500845656
 20
0.0
 30
0.0
 11
3.5500845656
 21
0.1
 31
0.0
  0
LINE
  5
210
330
204
100
AcDbEntity
  8
0
  6
Continuous
 62
     0
370
     0
100
AcDbLine
 10
3.5500845656
 20
0.0
 30
0.0
 11
3.4500845656
 21
0.0
 31
0.0
  0
LINE
  5
211
330
204
100
AcDbEntity
  8
0
  6
Continuous
 62
     0
370
     0
100
AcDbLine
 10
3.5500845656
 20
0.0
 30
0.0
 11
3.5500845656
 21
-0.1
 31
0.0
  0
LINE
  5
212
330
204
100
AcDbEntity
  8
0
  6
Continuous
 62
     0
370
     0
100
AcDbLine
 10
3.5500845656
 20
0.0
 30
0.0
 11
3.6500845656
 21
0.0
 31
0.0
  0
LINE
  5
213
330
204
100
AcDbEntity
  8
0
  6
Continuous
 62
     0
370
     0
100
AcDbLine
 10
3.5500845656
 20
0.1
 30
0.0
 11
3.5500845656
 21
0.1885826772
 31
0.0
  0
LINE
  5
214
330
204
100
AcDbEntity
  8
0
  6
Continuous
 62
     0
370
     0
100
AcDbLine
 10
3.4500845656
 20
0.0
 30
0.0
 11
3.3615018884
 21
0.0
 31
0.0
  0
LINE
  5
215
330
204
100
AcDbEntity
  8
0
  6
Continuous
 62
     0
370
     0
100
AcDbLine
 10
3.5500845656
 20
-0.1
 30
0.0
 11
3.5500845656
 21
-0.1885826772
 31
0.0
  0
LINE
  5
216
330
204
100
AcDbEntity
  8
0
  6
Continuous
 62
     0
370
     0
100
AcDbLine
 10
3.6500845656
 20
0.0
 30
0.0
 11
3.7386672428
 21
0.0
 31
0.0
  0
ENDBLK
  5
206
330
204
100
AcDbEntity
  8
0
100
AcDbBlockEnd
  0
BLOCK
  5
219
330
218
100
AcDbEntity
  8
0
100
AcDbBlockBegin
  2
SW_CENTERMARKSYMBOL_2
 70
     0
 10
0.0
 20
0.0
 30
0.0
  3
SW_CENTERMARKSYMBOL_2
  1

  0
LINE
  5
21B
330
218
100
AcDbEntity
  8
0
  6
Continuous
 62
     0
370
     0
100
AcDbLine
 10
0.0
 20
0.0
 30
0.0
 11
0.0
 21
0.1
 31
0.0
  0
LINE
  5
21C
330
218
100
AcDbEntity
  8
0
  6
Continuous
 62
     0
370
     0
100
AcDbLine
 10
0.0
 20
0.0
 30
0.0
 11
-0.1
 21
0.0
 31
0.0
  0
LINE
  5
21D
330
218
100
AcDbEntity
  8
0
  6
Continuous
 62
     0
370
     0
100
AcDbLine
 10
0.0
 20
0.0
 30
0.0
 11
0.0
 21
-0.1
 31
0.0
  0
LINE
  5
21E
330
218
100
AcDbEntity
  8
0
  6
Continuous
 62
     0
370
     0
100
AcDbLine
 10
0.0
 20
0.0
 30
0.0
 11
0.1
 21
0.0
 31
0.0
  0
LINE
  5
21F
330
218
100
AcDbEntity
  8
0
  6
Continuous
 62
     0
370
     0
100
AcDbLine
 10
0.0
 20
0.1
 30
0.0
 11
0.0
 21
0.1885826772
 31
0.0
  0
LINE
  5
220
330
218
100
AcDbEntity
  8
0
  6
Continuous
 62
     0
370
     0
100
AcDbLine
 10
-0.1
 20
0.0
 30
0.0
 11
-0.1885826772
 21
0.0
 31
0.0
  0
LINE
  5
221
330
218
100
AcDbEntity
  8
0
  6
Continuous
 62
     0
370
     0
100
AcDbLine
 10
0.0
 20
-0.1
 30
0.0
 11
0.0
 21
-0.1885826772
 31
0.0
  0
LINE
  5
222
330
218
100
AcDbEntity
  8
0
  6
Continuous
 62
     0
370
     0
100
AcDbLine
 10
0.1
 20
0.0
 30
0.0
 11
0.1885826772
 21
0.0
 31
0.0
  0
ENDBLK
  5
21A
330
218
100
AcDbEntity
  8
0
100
AcDbBlockEnd
  0
BLOCK
  5
225
330
224
100
AcDbEntity
  8
0
100
AcDbBlockBegin
  2
SW_CENTERMARKSYMBOL_3
 70
     0
 10
0.0
 20
0.0
 30
0.0
  3
SW_CENTERMARKSYMBOL_3
  1

  0
LINE
  5
227
330
224
100
AcDbEntity
  8
0
  6
Continuous
 62
     0
370
     0
100
AcDbLine
 10
0.0
 20
0.0
 30
0.0
 11
0.0
 21
0.1
 31
0.0
  0
LINE
  5
228
330
224
100
AcDbEntity
  8
0
  6
Continuous
 62
     0
370
     0
100
AcDbLine
 10
0.0
 20
0.0
 30
0.0
 11
-0.1
 21
0.0
 31
0.0
  0
LINE
  5
229
330
224
100
AcDbEntity
  8
0
  6
Continuous
 62
     0
370
     0
100
AcDbLine
 10
0.0
 20
0.0
 30
0.0
 11
0.0
 21
-0.1
 31
0.0
  0
LINE
  5
22A
330
224
100
AcDbEntity
  8
0
  6
Continuous
 62
     0
370
     0
100
AcDbLine
 10
0.0
 20
0.0
 30
0.0
 11
0.1
 21
0.0
 31
0.0
  0
LINE
  5
22B
330
224
100
AcDbEntity
  8
0
  6
Continuous
 62
     0
370
     0
100
AcDbLine
 10
0.0
 20
0.1
 30
0.0
 11
0.0
 21
0.1393700787
 31
0.0
  0
LINE
  5
22C
330
224
100
AcDbEntity
  8
0
  6
Continuous
 62
     0
370
     0
100
AcDbLine
 10
-0.1
 20
0.0
 30
0.0
 11
-0.1393700787
 21
0.0
 31
0.0
  0
LINE
  5
22D
330
224
100
AcDbEntity
  8
0
  6
Continuous
 62
     0
370
     0
100
AcDbLine
 10
0.0
 20
-0.1
 30
0.0
 11
0.0
 21
-0.1393700787
 31
0.0
  0
LINE
  5
22E
330
224
100
AcDbEntity
  8
0
  6
Continuous
 62
     0
370
     0
100
AcDbLine
 10
0.1
 20
0.0
 30
0.0
 11
0.1393700787
 21
0.0
 31
0.0
  0
ENDBLK
  5
226
330
224
100
AcDbEntity
  8
0
100
AcDbBlockEnd
  0
BLOCK
  5
231
330
230
100
AcDbEntity
  8
0
100
AcDbBlockBegin
  2
SW_CENTERMARKSYMBOL_4
 70
     0
 10
0.0
 20
0.0
 30
0.0
  3
SW_CENTERMARKSYMBOL_4
  1

  0
LINE
  5
233
330
230
100
AcDbEntity
  8
0
  6
Continuous
 62
     0
370
     0
100
AcDbLine
 10
0.0
 20
0.0
 30
0.0
 11
0.0
 21
0.1
 31
0.0
  0
LINE
  5
234
330
230
100
AcDbEntity
  8
0
  6
Continuous
 62
     0
370
     0
100
AcDbLine
 10
0.0
 20
0.0
 30
0.0
 11
-0.1
 21
0.0
 31
0.0
  0
LINE
  5
235
330
230
100
AcDbEntity
  8
0
  6
Continuous
 62
     0
370
     0
100
AcDbLine
 10
0.0
 20
0.0
 30
0.0
 11
0.0
 21
-0.1
 31
0.0
  0
LINE
  5
236
330
230
100
AcDbEntity
  8
0
  6
Continuous
 62
     0
370
     0
100
AcDbLine
 10
0.0
 20
0.0
 30
0.0
 11
0.1
 21
0.0
 31
0.0
  0
LINE
  5
237
330
230
100
AcDbEntity
  8
0
  6
Continuous
 62
     0
370
     0
100
AcDbLine
 10
0.0
 20
0.1
 30
0.0
 11
0.0
 21
0.1393700787
 31
0.0
  0
LINE
  5
238
330
230
100
AcDbEntity
  8
0
  6
Continuous
 62
     0
370
     0
100
AcDbLine
 10
-0.1
 20
0.0
 30
0.0
 11
-0.1393700787
 21
0.0
 31
0.0
  0
LINE
  5
239
330
230
100
AcDbEntity
  8
0
  6
Continuous
 62
     0
370
     0
100
AcDbLine
 10
0.0
 20
-0.1
 30
0.0
 11
0.0
 21
-0.1393700787
 31
0.0
  0
LINE
  5
23A
330
230
100
AcDbEntity
  8
0
  6
Continuous
 62
     0
370
     0
100
AcDbLine
 10
0.1
 20
0.0
 30
0.0
 11
0.1393700787
 21
0.0
 31
0.0
  0
ENDBLK
  5
232
330
230
100
AcDbEntity
  8
0
100
AcDbBlockEnd
  0
BLOCK
  5
23D
330
23C
100
AcDbEntity
  8
0
100
AcDbBlockBegin
  2
SW_CENTERMARKSYMBOL_5
 70
     0
 10
0.0
 20
0.0
 30
0.0
  3
SW_CENTERMARKSYMBOL_5
  1

  0
LINE
  5
23F
330
23C
100
AcDbEntity
  8
0
  6
Continuous
 62
     0
370
     0
100
AcDbLine
 10
0.0
 20
0.0
 30
0.0
 11
0.0
 21
0.1
 31
0.0
  0
LINE
  5
240
330
23C
100
AcDbEntity
  8
0
  6
Continuous
 62
     0
370
     0
100
AcDbLine
 10
0.0
 20
0.0
 30
0.0
 11
-0.1
 21
0.0
 31
0.0
  0
LINE
  5
241
330
23C
100
AcDbEntity
  8
0
  6
Continuous
 62
     0
370
     0
100
AcDbLine
 10
0.0
 20
0.0
 30
0.0
 11
0.0
 21
-0.1
 31
0.0
  0
LINE
  5
242
330
23C
100
AcDbEntity
  8
0
  6
Continuous
 62
     0
370
     0
100
AcDbLine
 10
0.0
 20
0.0
 30
0.0
 11
0.1
 21
0.0
 31
0.0
  0
LINE
  5
243
330
23C
100
AcDbEntity
  8
0
  6
Continuous
 62
     0
370
     0
100
AcDbLine
 10
0.0
 20
0.1
 30
0.0
 11
0.0
 21
0.1393700787
 31
0.0
  0
LINE
  5
244
330
23C
100
AcDbEntity
  8
0
  6
Continuous
 62
     0
370
     0
100
AcDbLine
 10
-0.1
 20
0.0
 30
0.0
 11
-0.1393700787
 21
0.0
 31
0.0
  0
LINE
  5
245
330
23C
100
AcDbEntity
  8
0
  6
Continuous
 62
     0
370
     0
100
AcDbLine
 10
0.0
 20
-0.1
 30
0.0
 11
0.0
 21
-0.1393700787
 31
0.0
  0
LINE
  5
246
330
23C
100
AcDbEntity
  8
0
  6
Continuous
 62
     0
370
     0
100
AcDbLine
 10
0.1
 20
0.0
 30
0.0
 11
0.1393700787
 21
0.0
 31
0.0
  0
ENDBLK
  5
23E
330
23C
100
AcDbEntity
  8
0
100
AcDbBlockEnd
  0
BLOCK
  5
249
330
248
100
AcDbEntity
  8
0
100
AcDbBlockBegin
  2
SW_CENTERMARKSYMBOL_6
 70
     0
 10
0.0
 20
0.0
 30
0.0
  3
SW_CENTERMARKSYMBOL_6
  1

  0
LINE
  5
24B
330
248
100
AcDbEntity
  8
0
  6
Continuous
 62
     0
370
     0
100
AcDbLine
 10
0.0
 20
0.0
 30
0.0
 11
0.0
 21
0.1
 31
0.0
  0
LINE
  5
24C
330
248
100
AcDbEntity
  8
0
  6
Continuous
 62
     0
370
     0
100
AcDbLine
 10
0.0
 20
0.0
 30
0.0
 11
-0.1
 21
0.0
 31
0.0
  0
LINE
  5
24D
330
248
100
AcDbEntity
  8
0
  6
Continuous
 62
     0
370
     0
100
AcDbLine
 10
0.0
 20
0.0
 30
0.0
 11
0.0
 21
-0.1
 31
0.0
  0
LINE
  5
24E
330
248
100
AcDbEntity
  8
0
  6
Continuous
 62
     0
370
     0
100
AcDbLine
 10
0.0
 20
0.0
 30
0.0
 11
0.1
 21
0.0
 31
0.0
  0
LINE
  5
24F
330
248
100
AcDbEntity
  8
0
  6
Continuous
 62
     0
370
     0
100
AcDbLine
 10
0.0
 20
0.1
 30
0.0
 11
0.0
 21
0.1393700787
 31
0.0
  0
LINE
  5
250
330
248
100
AcDbEntity
  8
0
  6
Continuous
 62
     0
370
     0
100
AcDbLine
 10
-0.1
 20
0.0
 30
0.0
 11
-0.1393700787
 21
0.0
 31
0.0
  0
LINE
  5
251
330
248
100
AcDbEntity
  8
0
  6
Continuous
 62
     0
370
     0
100
AcDbLine
 10
0.0
 20
-0.1
 30
0.0
 11
0.0
 21
-0.1393700787
 31
0.0
  0
LINE
  5
252
330
248
100
AcDbEntity
  8
0
  6
Continuous
 62
     0
370
     0
100
AcDbLine
 10
0.1
 20
0.0
 30
0.0
 11
0.1393700787
 21
0.0
 31
0.0
  0
ENDBLK
  5
24A
330
248
100
AcDbEntity
  8
0
100
AcDbBlockEnd
  0
BLOCK
  5
374
330
373
100
AcDbEntity
  8
0
100
AcDbBlockBegin
  2
*D26
 70
     1
 10
0.0
 20
0.0
 30
0.0
  3
*D26
  1

  0
SOLID
  5
376
330
373
100
AcDbEntity
  8
0
  6
Continuous
 62
     7
370
     0
100
AcDbTrace
 10
6.6128935634
 20
5.1289831872
 30
0.0
 11
6.6378935634
 21
5.2914831872
 31
0.0
 12
6.5878935634
 22
5.2914831872
 32
0.0
 13
6.5878935634
 23
5.2914831872
 33
0.0
  0
SOLID
  5
377
330
373
100
AcDbEntity
  8
0
  6
Continuous
 62
     7
370
     0
100
AcDbTrace
 10
6.6128935634
 20
5.0305579904
 30
0.0
 11
6.5878935634
 21
4.8680579904
 31
0.0
 12
6.6378935634
 22
4.8680579904
 32
0.0
 13
6.6378935634
 23
4.8680579904
 33
0.0
  0
LINE
  5
378
330
373
100
AcDbEntity
  8
0
  6
Continuous
 62
     7
370
     0
100
AcDbLine
 10
6.9774800449
 20
4.7090841123
 30
0.0
 11
6.945741762
 21
4.7090841123
 31
0.0
  0
LINE
  5
379
330
373
100
AcDbEntity
  8
0
  6
Continuous
 62
     7
370
     0
100
AcDbLine
 10
6.945741762
 20
4.7090841123
 30
0.0
 11
6.945741762
 21
4.4610372299
 31
0.0
  0
LINE
  5
37A
330
373
100
AcDbEntity
  8
0
  6
Continuous
 62
     7
370
     0
100
AcDbLine
 10
6.945741762
 20
4.4610372299
 30
0.0
 11
6.9774800449
 21
4.4610372299
 31
0.0
  0
LINE
  5
37B
330
373
100
AcDbEntity
  8
0
  6
Continuous
 62
     7
370
     0
100
AcDbLine
 10
7.3454542135
 20
4.7090841123
 30
0.0
 11
7.3771924964
 21
4.7090841123
 31
0.0
  0
LINE
  5
37C
330
373
100
AcDbEntity
  8
0
  6
Continuous
 62
     7
370
     0
100
AcDbLine
 10
7.3771924964
 20
4.7090841123
 30
0.0
 11
7.3771924964
 21
4.4610372299
 31
0.0
  0
LINE
  5
37D
330
373
100
AcDbEntity
  8
0
  6
Continuous
 62
     7
370
     0
100
AcDbLine
 10
7.3771924964
 20
4.4610372299
 30
0.0
 11
7.3454542135
 21
4.4610372299
 31
0.0
  0
LINE
  5
37E
330
373
100
AcDbEntity
  8
0
  6
Continuous
 62
     7
370
     0
100
AcDbLine
 10
6.7691435634
 20
4.7102776902
 30
0.0
 11
6.6128935634
 21
4.7102776902
 31
0.0
  0
LINE
  5
37F
330
373
100
AcDbEntity
  8
0
  6
Continuous
 62
     7
370
     0
100
AcDbLine
 10
6.6128935634
 20
4.7102776902
 30
0.0
 11
6.6128935634
 21
5.0305579904
 31
0.0
  0
LINE
  5
380
330
373
100
AcDbEntity
  8
0
  6
Continuous
 62
     7
370
     0
100
AcDbLine
 10
6.6128935634
 20
5.1289831872
 30
0.0
 11
6.6128935634
 21
5.4414831872
 31
0.0
  0
MTEXT
  5
381
330
373
100
AcDbEntity
  8
0
  6
Continuous
 62
     7
370
     0
100
AcDbMText
 10
6.9228061053
 20
4.9446263938
 30
0.3626782046
 40
0.15625
 41
0.0
 71
     1
 72
     1
  1

  7
SLDTEXTSTYLE0
 73
     1
 44
1.0
  0
MTEXT
  5
382
330
373
100
AcDbEntity
  8
0
  6
Continuous
 62
     7
370
     0
100
AcDbMText
 10
6.953676327
 20
4.9422392295
 30
0.3626782046
 40
0.15625
 41
0.0
 71
     1
 72
     1
  1
.10
  7
SLDTEXTSTYLE0
 73
     1
 44
1.0
  0
MTEXT
  5
383
330
373
100
AcDbEntity
  8
0
  6
Continuous
 62
     7
370
     0
100
AcDbMText
 10
7.0171528984
 20
4.6624540556
 30
0.3626782046
 40
0.15625
 41
0.0
 71
     1
 72
     1
  1
2.5
  7
SLDTEXTSTYLE0
 73
     1
 44
1.0
  0
MTEXT
  5
384
330
373
100
AcDbEntity
  8
0
  6
Continuous
 62
     7
370
     0
100
AcDbMText
 10
7.4595899585
 20
4.9446263938
 30
0.3626782046
 40
0.15625
 41
0.0
 71
     1
 72
     1
  1

  7
SLDTEXTSTYLE0
 73
     1
 44
1.0
  0
ENDBLK
  5
375
330
373
100
AcDbEntity
  8
0
100
AcDbBlockEnd
  0
BLOCK
  5
387
330
386
100
AcDbEntity
  8
0
100
AcDbBlockBegin
  2
*D27
 70
     1
 10
0.0
 20
0.0
 30
0.0
  3
*D27
  1

  0
SOLID
  5
389
330
386
100
AcDbEntity
  8
0
  6
Continuous
 62
     7
370
     0
100
AcDbTrace
 10
4.043748812
 20
5.1289831872
 30
0.0
 11
4.018748812
 21
4.9664831872
 31
0.0
 12
4.068748812
 22
4.9664831872
 32
0.0
 13
4.068748812
 23
4.9664831872
 33
0.0
  0
SOLID
  5
38A
330
386
100
AcDbEntity
  8
0
  6
Continuous
 62
     7
370
     0
100
AcDbTrace
 10
4.043748812
 20
5.3258335809
 30
0.0
 11
4.068748812
 21
5.4883335809
 31
0.0
 12
4.018748812
 22
5.4883335809
 32
0.0
 13
4.018748812
 23
5.4883335809
 33
0.0
  0
LINE
  5
38B
330
386
100
AcDbEntity
  8
0
  6
Continuous
 62
     7
370
     0
100
AcDbLine
 10
3.4295149981
 20
5.7444945237
 30
0.0
 11
3.3977767152
 21
5.7444945237
 31
0.0
  0
LINE
  5
38C
330
386
100
AcDbEntity
  8
0
  6
Continuous
 62
     7
370
     0
100
AcDbLine
 10
3.3977767152
 20
5.7444945237
 30
0.0
 11
3.3977767152
 21
5.4964476412
 31
0.0
  0
LINE
  5
38D
330
386
100
AcDbEntity
  8
0
  6
Continuous
 62
     7
370
     0
100
AcDbLine
 10
3.3977767152
 20
5.4964476412
 30
0.0
 11
3.4295149981
 21
5.4964476412
 31
0.0
  0
LINE
  5
38E
330
386
100
AcDbEntity
  8
0
  6
Continuous
 62
     7
370
     0
100
AcDbLine
 10
3.6243120944
 20
5.7444945237
 30
0.0
 11
3.6560503772
 21
5.7444945237
 31
0.0
  0
LINE
  5
38F
330
386
100
AcDbEntity
  8
0
  6
Continuous
 62
     7
370
     0
100
AcDbLine
 10
3.6560503772
 20
5.7444945237
 30
0.0
 11
3.6560503772
 21
5.4964476412
 31
0.0
  0
LINE
  5
390
330
386
100
AcDbEntity
  8
0
  6
Continuous
 62
     7
370
     0
100
AcDbLine
 10
3.6560503772
 20
5.4964476412
 30
0.0
 11
3.6243120944
 21
5.4964476412
 31
0.0
  0
LINE
  5
391
330
386
100
AcDbEntity
  8
0
  6
Continuous
 62
     7
370
     0
100
AcDbLine
 10
4.0800970449
 20
5.3258335809
 30
0.0
 11
3.887498812
 21
5.3258335809
 31
0.0
  0
LINE
  5
392
330
386
100
AcDbEntity
  8
0
  6
Continuous
 62
     7
370
     0
100
AcDbLine
 10
3.887498812
 20
5.7456881016
 30
0.0
 11
4.043748812
 21
5.7456881016
 31
0.0
  0
LINE
  5
393
330
386
100
AcDbEntity
  8
0
  6
Continuous
 62
     7
370
     0
100
AcDbLine
 10
4.043748812
 20
5.7456881016
 30
0.0
 11
4.043748812
 21
5.3258335809
 31
0.0
  0
LINE
  5
394
330
386
100
AcDbEntity
  8
0
  6
Continuous
 62
     7
370
     0
100
AcDbLine
 10
4.043748812
 20
5.1289831872
 30
0.0
 11
4.043748812
 21
4.8164831872
 31
0.0
  0
MTEXT
  5
395
330
386
100
AcDbEntity
  8
0
  6
Continuous
 62
     7
370
     0
100
AcDbMText
 10
3.319990788
 20
5.9800368052
 30
0.3626782046
 40
0.15625
 41
0.0
 71
     1
 72
     1
  1

  7
SLDTEXTSTYLE0
 73
     1
 44
1.0
  0
MTEXT
  5
396
330
386
100
AcDbEntity
  8
0
  6
Continuous
 62
     7
370
     0
100
AcDbMText
 10
3.3191227326
 20
5.9776496409
 30
0.3626782046
 40
0.15625
 41
0.0
 71
     1
 72
     1
  1
.20
  7
SLDTEXTSTYLE0
 73
     1
 44
1.0
  0
MTEXT
  5
397
330
386
100
AcDbEntity
  8
0
  6
Continuous
 62
     7
370
     0
100
AcDbMText
 10
3.4691878516
 20
5.697864467
 30
0.3626782046
 40
0.15625
 41
0.0
 71
     1
 72
     1
  1
5
  7
SLDTEXTSTYLE0
 73
     1
 44
1.0
  0
MTEXT
  5
398
330
386
100
AcDbEntity
  8
0
  6
Continuous
 62
     7
370
     0
100
AcDbMText
 10
3.793298087
 20
5.9800368052
 30
0.3626782046
 40
0.15625
 41
0.0
 71
     1
 72
     1
  1

  7
SLDTEXTSTYLE0
 73
     1
 44
1.0
  0
ENDBLK
  5
388
330
386
100
AcDbEntity
  8
0
100
AcDbBlockEnd
  0
BLOCK
  5
39C
330
39B
100
AcDbEntity
  8
0
100
AcDbBlockBegin
  2
*D28
 70
     1
 10
0.0
 20
0.0
 30
0.0
  3
*D28
  1

  0
SOLID
  5
39E
330
39B
100
AcDbEntity
  8
0
  6
Continuous
 62
     7
370
     0
100
AcDbTrace
 10
3.0044468303
 20
5.1880383053
 30
0.0
 11
3.0294468303
 21
5.3505383053
 31
0.0
 12
2.9794468303
 22
5.3505383053
 32
0.0
 13
2.9794468303
 23
5.3505383053
 33
0.0
  0
SOLID
  5
39F
330
39B
100
AcDbEntity
  8
0
  6
Continuous
 62
     7
370
     0
100
AcDbTrace
 10
3.0044468303
 20
5.0305579904
 30
0.0
 11
2.9794468303
 21
4.8680579904
 31
0.0
 12
3.0294468303
 22
4.8680579904
 32
0.0
 13
3.0294468303
 23
4.8680579904
 33
0.0
  0
LINE
  5
3A0
330
39B
100
AcDbEntity
  8
0
  6
Continuous
 62
     7
370
     0
100
AcDbLine
 10
2.3902130163
 20
4.6397268717
 30
0.0
 11
2.3584747334
 21
4.6397268717
 31
0.0
  0
LINE
  5
3A1
330
39B
100
AcDbEntity
  8
0
  6
Continuous
 62
     7
370
     0
100
AcDbLine
 10
2.3584747334
 20
4.6397268717
 30
0.0
 11
2.3584747334
 21
4.3916799892
 31
0.0
  0
LINE
  5
3A2
330
39B
100
AcDbEntity
  8
0
  6
Continuous
 62
     7
370
     0
100
AcDbLine
 10
2.3584747334
 20
4.3916799892
 30
0.0
 11
2.3902130163
 21
4.3916799892
 31
0.0
  0
LINE
  5
3A3
330
39B
100
AcDbEntity
  8
0
  6
Continuous
 62
     7
370
     0
100
AcDbLine
 10
2.5850101126
 20
4.6397268717
 30
0.0
 11
2.6167483954
 21
4.6397268717
 31
0.0
  0
LINE
  5
3A4
330
39B
100
AcDbEntity
  8
0
  6
Continuous
 62
     7
370
     0
100
AcDbLine
 10
2.6167483954
 20
4.6397268717
 30
0.0
 11
2.6167483954
 21
4.3916799892
 31
0.0
  0
LINE
  5
3A5
330
39B
100
AcDbEntity
  8
0
  6
Continuous
 62
     7
370
     0
100
AcDbLine
 10
2.6167483954
 20
4.3916799892
 30
0.0
 11
2.5850101126
 21
4.3916799892
 31
0.0
  0
LINE
  5
3A6
330
39B
100
AcDbEntity
  8
0
  6
Continuous
 62
     7
370
     0
100
AcDbLine
 10
3.2971334494
 20
5.1880383053
 30
0.0
 11
2.8481968303
 21
5.1880383053
 31
0.0
  0
LINE
  5
3A7
330
39B
100
AcDbEntity
  8
0
  6
Continuous
 62
     7
370
     0
100
AcDbLine
 10
3.2577633707
 20
5.0305579904
 30
0.0
 11
2.8481968303
 21
5.0305579904
 31
0.0
  0
LINE
  5
3A8
330
39B
100
AcDbEntity
  8
0
  6
Continuous
 62
     7
370
     0
100
AcDbLine
 10
2.8481968303
 20
4.6409204495
 30
0.0
 11
3.0044468303
 21
4.6409204495
 31
0.0
  0
LINE
  5
3A9
330
39B
100
AcDbEntity
  8
0
  6
Continuous
 62
     7
370
     0
100
AcDbLine
 10
3.0044468303
 20
4.6409204495
 30
0.0
 11
3.0044468303
 21
5.0305579904
 31
0.0
  0
LINE
  5
3AA
330
39B
100
AcDbEntity
  8
0
  6
Continuous
 62
     7
370
     0
100
AcDbLine
 10
3.0044468303
 20
5.1880383053
 30
0.0
 11
3.0044468303
 21
5.5005383053
 31
0.0
  0
MTEXT
  5
3AB
330
39B
100
AcDbEntity
  8
0
  6
Continuous
 62
     7
370
     0
100
AcDbMText
 10
2.2806888062
 20
4.8752691532
 30
0.3626782046
 40
0.15625
 41
0.0
 71
     1
 72
     1
  1

  7
SLDTEXTSTYLE0
 73
     1
 44
1.0
  0
MTEXT
  5
3AC
330
39B
100
AcDbEntity
  8
0
  6
Continuous
 62
     7
370
     0
100
AcDbMText
 10
2.2798207508
 20
4.8728819888
 30
0.3626782046
 40
0.15625
 41
0.0
 71
     1
 72
     1
  1
.16
  7
SLDTEXTSTYLE0
 73
     1
 44
1.0
  0
MTEXT
  5
3AD
330
39B
100
AcDbEntity
  8
0
  6
Continuous
 62
     7
370
     0
100
AcDbMText
 10
2.4298858698
 20
4.5930968149
 30
0.3626782046
 40
0.15625
 41
0.0
 71
     1
 72
     1
  1
4
  7
SLDTEXTSTYLE0
 73
     1
 44
1.0
  0
MTEXT
  5
3AE
330
39B
100
AcDbEntity
  8
0
  6
Continuous
 62
     7
370
     0
100
AcDbMText
 10
2.7539961052
 20
4.8752691532
 30
0.3626782046
 40
0.15625
 41
0.0
 71
     1
 72
     1
  1

  7
SLDTEXTSTYLE0
 73
     1
 44
1.0
  0
ENDBLK
  5
39D
330
39B
100
AcDbEntity
  8
0
100
AcDbBlockEnd
  0
BLOCK
  5
3B1
330
3B0
100
AcDbEntity
  8
0
100
AcDbBlockBegin
  2
*D29
 70
     1
 10
0.0
 20
0.0
 30
0.0
  3
*D29
  1

  0
SOLID
  5
3B3
330
3B0
100
AcDbEntity
  8
0
  6
Continuous
 62
     7
370
     0
100
AcDbTrace
 10
2.2882843317
 20
5.0305579904
 30
0.0
 11
2.2632843317
 21
4.8680579904
 31
0.0
 12
2.3132843317
 22
4.8680579904
 32
0.0
 13
2.3132843317
 23
4.8680579904
 33
0.0
  0
SOLID
  5
3B4
330
3B0
100
AcDbEntity
  8
0
  6
Continuous
 62
     7
370
     0
100
AcDbTrace
 10
2.2882843317
 20
5.4242587778
 30
0.0
 11
2.3132843317
 21
5.5867587778
 31
0.0
 12
2.2632843317
 22
5.5867587778
 32
0.0
 13
2.2632843317
 23
5.5867587778
 33
0.0
  0
LINE
  5
3B5
330
3B0
100
AcDbEntity
  8
0
  6
Continuous
 62
     7
370
     0
100
AcDbLine
 10
1.6134493761
 20
5.7444945237
 30
0.0
 11
1.5817110933
 21
5.7444945237
 31
0.0
  0
LINE
  5
3B6
330
3B0
100
AcDbEntity
  8
0
  6
Continuous
 62
     7
370
     0
100
AcDbLine
 10
1.5817110933
 20
5.7444945237
 30
0.0
 11
1.5817110933
 21
5.4964476412
 31
0.0
  0
LINE
  5
3B7
330
3B0
100
AcDbEntity
  8
0
  6
Continuous
 62
     7
370
     0
100
AcDbLine
 10
1.5817110933
 20
5.4964476412
 30
0.0
 11
1.6134493761
 21
5.4964476412
 31
0.0
  0
LINE
  5
3B8
330
3B0
100
AcDbEntity
  8
0
  6
Continuous
 62
     7
370
     0
100
AcDbLine
 10
1.9236978616
 20
5.7444945237
 30
0.0
 11
1.9554361445
 21
5.7444945237
 31
0.0
  0
LINE
  5
3B9
330
3B0
100
AcDbEntity
  8
0
  6
Continuous
 62
     7
370
     0
100
AcDbLine
 10
1.9554361445
 20
5.7444945237
 30
0.0
 11
1.9554361445
 21
5.4964476412
 31
0.0
  0
LINE
  5
3BA
330
3B0
100
AcDbEntity
  8
0
  6
Continuous
 62
     7
370
     0
100
AcDbLine
 10
1.9554361445
 20
5.4964476412
 30
0.0
 11
1.9236978616
 21
5.4964476412
 31
0.0
  0
LINE
  5
3BB
330
3B0
100
AcDbEntity
  8
0
  6
Continuous
 62
     7
370
     0
100
AcDbLine
 10
3.2577633707
 20
5.0305579904
 30
0.0
 11
2.1320343317
 21
5.0305579904
 31
0.0
  0
LINE
  5
3BC
330
3B0
100
AcDbEntity
  8
0
  6
Continuous
 62
     7
370
     0
100
AcDbLine
 10
3.6829602211
 20
5.4242587778
 30
0.0
 11
2.1320343317
 21
5.4242587778
 31
0.0
  0
LINE
  5
3BD
330
3B0
100
AcDbEntity
  8
0
  6
Continuous
 62
     7
370
     0
100
AcDbLine
 10
2.1320343317
 20
5.7456881016
 30
0.0
 11
2.2882843317
 21
5.7456881016
 31
0.0
  0
LINE
  5
3BE
330
3B0
100
AcDbEntity
  8
0
  6
Continuous
 62
     7
370
     0
100
AcDbLine
 10
2.2882843317
 20
5.7456881016
 30
0.0
 11
2.2882843317
 21
5.4242587778
 31
0.0
  0
LINE
  5
3BF
330
3B0
100
AcDbEntity
  8
0
  6
Continuous
 62
     7
370
     0
100
AcDbLine
 10
2.2882843317
 20
5.0305579904
 30
0.0
 11
2.2882843317
 21
4.7180579904
 31
0.0
  0
MTEXT
  5
3C0
330
3B0
100
AcDbEntity
  8
0
  6
Continuous
 62
     7
370
     0
100
AcDbMText
 10
1.5587754365
 20
5.9800368052
 30
0.3626782046
 40
0.15625
 41
0.0
 71
     1
 72
     1
  1

  7
SLDTEXTSTYLE0
 73
     1
 44
1.0
  0
MTEXT
  5
3C1
330
3B0
100
AcDbEntity
  8
0
  6
Continuous
 62
     7
370
     0
100
AcDbMText
 10
1.5607828167
 20
5.9776496409
 30
0.3626782046
 40
0.15625
 41
0.0
 71
     1
 72
     1
  1
.39
  7
SLDTEXTSTYLE0
 73
     1
 44
1.0
  0
MTEXT
  5
3C2
330
3B0
100
AcDbEntity
  8
0
  6
Continuous
 62
     7
370
     0
100
AcDbMText
 10
1.6531222297
 20
5.697864467
 30
0.3626782046
 40
0.15625
 41
0.0
 71
     1
 72
     1
  1
10
  7
SLDTEXTSTYLE0
 73
     1
 44
1.0
  0
MTEXT
  5
3C3
330
3B0
100
AcDbEntity
  8
0
  6
Continuous
 62
     7
370
     0
100
AcDbMText
 10
2.0378336066
 20
5.9800368052
 30
0.3626782046
 40
0.15625
 41
0.0
 71
     1
 72
     1
  1

  7
SLDTEXTSTYLE0
 73
     1
 44
1.0
  0
ENDBLK
  5
3B2
330
3B0
100
AcDbEntity
  8
0
100
AcDbBlockEnd
  0
BLOCK
  5
42C
330
42B
100
AcDbEntity
  8
0
100
AcDbBlockBegin
  2
*D30
 70
     1
 10
0.0
 20
0.0
 30
0.0
  3
*D30
  1

  0
SOLID
  5
42E
330
42B
100
AcDbEntity
  8
0
  6
Continuous
 62
     7
370
     0
100
AcDbTrace
 10
10.6787652668
 20
11.8038494888
 30
0.0
 11
10.8412652668
 21
11.7788494888
 31
0.0
 12
10.8412652668
 22
11.8288494888
 32
0.0
 13
10.8412652668
 23
11.8288494888
 33
0.0
  0
SOLID
  5
42F
330
42B
100
AcDbEntity
  8
0
  6
Continuous
 62
     7
370
     0
100
AcDbTrace
 10
13.828371566
 20
11.8038494888
 30
0.0
 11
13.665871566
 21
11.8288494888
 31
0.0
 12
13.665871566
 22
11.7788494888
 32
0.0
 13
13.665871566
 23
11.7788494888
 33
0.0
  0
LINE
  5
430
330
42B
100
AcDbEntity
  8
0
  6
Continuous
 62
     7
370
     0
100
AcDbLine
 10
12.0984441794
 20
11.8026559109
 30
0.0
 11
12.0667058966
 21
11.8026559109
 31
0.0
  0
LINE
  5
431
330
42B
100
AcDbEntity
  8
0
  6
Continuous
 62
     7
370
     0
100
AcDbLine
 10
12.0667058966
 20
11.8026559109
 30
0.0
 11
12.0667058966
 21
11.5546090284
 31
0.0
  0
LINE
  5
432
330
42B
100
AcDbEntity
  8
0
  6
Continuous
 62
     7
370
     0
100
AcDbLine
 10
12.0667058966
 20
11.5546090284
 30
0.0
 11
12.0984441794
 21
11.5546090284
 31
0.0
  0
LINE
  5
433
330
42B
100
AcDbEntity
  8
0
  6
Continuous
 62
     7
370
     0
100
AcDbLine
 10
12.4086926649
 20
11.8026559109
 30
0.0
 11
12.4404309477
 21
11.8026559109
 31
0.0
  0
LINE
  5
434
330
42B
100
AcDbEntity
  8
0
  6
Continuous
 62
     7
370
     0
100
AcDbLine
 10
12.4404309477
 20
11.8026559109
 30
0.0
 11
12.4404309477
 21
11.5546090284
 31
0.0
  0
LINE
  5
435
330
42B
100
AcDbEntity
  8
0
  6
Continuous
 62
     7
370
     0
100
AcDbLine
 10
12.4404309477
 20
11.5546090284
 30
0.0
 11
12.4086926649
 21
11.5546090284
 31
0.0
  0
LINE
  5
436
330
42B
100
AcDbEntity
  8
0
  6
Continuous
 62
     7
370
     0
100
AcDbLine
 10
10.6787652668
 20
10.5358964156
 30
0.0
 11
10.6787652668
 21
11.9600994888
 31
0.0
  0
LINE
  5
437
330
42B
100
AcDbEntity
  8
0
  6
Continuous
 62
     7
370
     0
100
AcDbLine
 10
13.828371566
 20
10.5358964156
 30
0.0
 11
13.828371566
 21
11.9600994888
 31
0.0
  0
LINE
  5
438
330
42B
100
AcDbEntity
  8
0
  6
Continuous
 62
     7
370
     0
100
AcDbLine
 10
10.6787652668
 20
11.8038494888
 30
0.0
 11
11.8986366449
 21
11.8038494888
 31
0.0
  0
LINE
  5
439
330
42B
100
AcDbEntity
  8
0
  6
Continuous
 62
     7
370
     0
100
AcDbLine
 10
13.828371566
 20
11.8038494888
 30
0.0
 11
12.608500188
 21
11.8038494888
 31
0.0
  0
MTEXT
  5
43A
330
42B
100
AcDbEntity
  8
0
  6
Continuous
 62
     7
370
     0
100
AcDbMText
 10
11.9889199922
 20
12.0381981924
 30
0.5709350868
 40
0.15625
 41
0.0
 71
     1
 72
     1
  1

  7
SLDTEXTSTYLE0
 73
     1
 44
1.0
  0
MTEXT
  5
43B
330
42B
100
AcDbEntity
  8
0
  6
Continuous
 62
     7
370
     0
100
AcDbMText
 10
11.9880519368
 20
12.0358110281
 30
0.5709350868
 40
0.15625
 41
0.0
 71
     1
 72
     1
  1
3.15
  7
SLDTEXTSTYLE0
 73
     1
 44
1.0
  0
MTEXT
  5
43C
330
42B
100
AcDbEntity
  8
0
  6
Continuous
 62
     7
370
     0
100
AcDbMText
 10
12.1381170329
 20
11.7560258542
 30
0.5709350868
 40
0.15625
 41
0.0
 71
     1
 72
     1
  1
80
  7
SLDTEXTSTYLE0
 73
     1
 44
1.0
  0
MTEXT
  5
43D
330
42B
100
AcDbEntity
  8
0
  6
Continuous
 62
     7
370
     0
100
AcDbMText
 10
12.5776786575
 20
12.0381981924
 30
0.5709350868
 40
0.15625
 41
0.0
 71
     1
 72
     1
  1

  7
SLDTEXTSTYLE0
 73
     1
 44
1.0
  0
ENDBLK
  5
42D
330
42B
100
AcDbEntity
  8
0
100
AcDbBlockEnd
  0
BLOCK
  5
440
330
43F
100
AcDbEntity
  8
0
100
AcDbBlockBegin
  2
*D31
 70
     1
 10
0.0
 20
0.0
 30
0.0
  3
*D31
  1

  0
SOLID
  5
442
330
43F
100
AcDbEntity
  8
0
  6
Continuous
 62
     7
370
     0
100
AcDbTrace
 10
10.7622844924
 20
11.1923891379
 30
0.0
 11
10.9247844924
 21
11.1673891379
 31
0.0
 12
10.9247844924
 22
11.2173891379
 32
0.0
 13
10.9247844924
 23
11.2173891379
 33
0.0
  0
SOLID
  5
443
330
43F
100
AcDbEntity
  8
0
  6
Continuous
 62
     7
370
     0
100
AcDbTrace
 10
13.7448523404
 20
11.1923891379
 30
0.0
 11
13.5823523404
 21
11.2173891379
 31
0.0
 12
13.5823523404
 22
11.1673891379
 32
0.0
 13
13.5823523404
 23
11.1673891379
 33
0.0
  0
LINE
  5
444
330
43F
100
AcDbEntity
  8
0
  6
Continuous
 62
     7
370
     0
100
AcDbLine
 10
12.0118556318
 20
11.19119556
 30
0.0
 11
11.9801173489
 21
11.19119556
 31
0.0
  0
LINE
  5
445
330
43F
100
AcDbEntity
  8
0
  6
Continuous
 62
     7
370
     0
100
AcDbLine
 10
11.9801173489
 20
11.19119556
 30
0.0
 11
11.9801173489
 21
10.9431486775
 31
0.0
  0
LINE
  5
446
330
43F
100
AcDbEntity
  8
0
  6
Continuous
 62
     7
370
     0
100
AcDbLine
 10
11.9801173489
 20
10.9431486775
 30
0.0
 11
12.0118556318
 21
10.9431486775
 31
0.0
  0
LINE
  5
447
330
43F
100
AcDbEntity
  8
0
  6
Continuous
 62
     7
370
     0
100
AcDbLine
 10
12.4952812125
 20
11.19119556
 30
0.0
 11
12.5270194954
 21
11.19119556
 31
0.0
  0
LINE
  5
448
330
43F
100
AcDbEntity
  8
0
  6
Continuous
 62
     7
370
     0
100
AcDbLine
 10
12.5270194954
 20
11.19119556
 30
0.0
 11
12.5270194954
 21
10.9431486775
 31
0.0
  0
LINE
  5
449
330
43F
100
AcDbEntity
  8
0
  6
Continuous
 62
     7
370
     0
100
AcDbLine
 10
12.5270194954
 20
10.9431486775
 30
0.0
 11
12.4952812125
 21
10.9431486775
 31
0.0
  0
LINE
  5
44A
330
43F
100
AcDbEntity
  8
0
  6
Continuous
 62
     7
370
     0
100
AcDbLine
 10
10.7622844924
 20
10.5310424043
 30
0.0
 11
10.7622844924
 21
11.3486391379
 31
0.0
  0
LINE
  5
44B
330
43F
100
AcDbEntity
  8
0
  6
Continuous
 62
     7
370
     0
100
AcDbLine
 10
13.7448523404
 20
10.5310424043
 30
0.0
 11
13.7448523404
 21
11.3486391379
 31
0.0
  0
LINE
  5
44C
330
43F
100
AcDbEntity
  8
0
  6
Continuous
 62
     7
370
     0
100
AcDbLine
 10
10.7622844924
 20
11.1923891379
 30
0.0
 11
11.8668983449
 21
11.1923891379
 31
0.0
  0
LINE
  5
44D
330
43F
100
AcDbEntity
  8
0
  6
Continuous
 62
     7
370
     0
100
AcDbLine
 10
13.7448523404
 20
11.1923891379
 30
0.0
 11
12.640238488
 21
11.1923891379
 31
0.0
  0
MTEXT
  5
44E
330
43F
100
AcDbEntity
  8
0
  6
Continuous
 62
     7
370
     0
100
AcDbMText
 10
11.9571816922
 20
11.4267378415
 30
0.5709350868
 40
0.15625
 41
0.0
 71
     1
 72
     1
  1

  7
SLDTEXTSTYLE0
 73
     1
 44
1.0
  0
MTEXT
  5
44F
330
43F
100
AcDbEntity
  8
0
  6
Continuous
 62
     7
370
     0
100
AcDbMText
 10
11.9880519368
 20
11.4243506772
 30
0.5709350868
 40
0.15625
 41
0.0
 71
     1
 72
     1
  1
2.98
  7
SLDTEXTSTYLE0
 73
     1
 44
1.0
  0
MTEXT
  5
450
330
43F
100
AcDbEntity
  8
0
  6
Continuous
 62
     7
370
     0
100
AcDbMText
 10
12.0515284853
 20
11.1445655033
 30
0.5709350868
 40
0.15625
 41
0.0
 71
     1
 72
     1
  1
75.8
  7
SLDTEXTSTYLE0
 73
     1
 44
1.0
  0
MTEXT
  5
451
330
43F
100
AcDbEntity
  8
0
  6
Continuous
 62
     7
370
     0
100
AcDbMText
 10
12.6094169575
 20
11.4267378415
 30
0.5709350868
 40
0.15625
 41
0.0
 71
     1
 72
     1
  1

  7
SLDTEXTSTYLE0
 73
     1
 44
1.0
  0
ENDBLK
  5
441
330
43F
100
AcDbEntity
  8
0
100
AcDbBlockEnd
  0
BLOCK
  5
454
330
453
100
AcDbEntity
  8
0
100
AcDbBlockBegin
  2
*D32
 70
     1
 10
0.0
 20
0.0
 30
0.0
  3
*D32
  1

  0
SOLID
  5
456
330
453
100
AcDbEntity
  8
0
  6
Continuous
 62
     7
370
     0
100
AcDbTrace
 10
14.2498833104
 20
10.4685424043
 30
0.0
 11
14.2248833104
 21
10.3060424043
 31
0.0
 12
14.2748833104
 22
10.3060424043
 32
0.0
 13
14.2748833104
 23
10.3060424043
 33
0.0
  0
SOLID
  5
457
330
453
100
AcDbEntity
  8
0
  6
Continuous
 62
     7
370
     0
100
AcDbTrace
 10
14.2498833104
 20
7.4623525091
 30
0.0
 11
14.2748833104
 21
7.6248525091
 31
0.0
 12
14.2248833104
 22
7.6248525091
 32
0.0
 13
14.2248833104
 23
7.6248525091
 33
0.0
  0
LINE
  5
458
330
453
100
AcDbEntity
  8
0
  6
Continuous
 62
     7
370
     0
100
AcDbLine
 10
14.0081705258
 20
8.9642538788
 30
0.0
 11
13.9764322429
 21
8.9642538788
 31
0.0
  0
LINE
  5
459
330
453
100
AcDbEntity
  8
0
  6
Continuous
 62
     7
370
     0
100
AcDbLine
 10
13.9764322429
 20
8.9642538788
 30
0.0
 11
13.9764322429
 21
8.7162069964
 31
0.0
  0
LINE
  5
45A
330
453
100
AcDbEntity
  8
0
  6
Continuous
 62
     7
370
     0
100
AcDbLine
 10
13.9764322429
 20
8.7162069964
 30
0.0
 11
14.0081705258
 21
8.7162069964
 31
0.0
  0
LINE
  5
45B
330
453
100
AcDbEntity
  8
0
  6
Continuous
 62
     7
370
     0
100
AcDbLine
 10
14.4915961066
 20
8.9642538788
 30
0.0
 11
14.5233343894
 21
8.9642538788
 31
0.0
  0
LINE
  5
45C
330
453
100
AcDbEntity
  8
0
  6
Continuous
 62
     7
370
     0
100
AcDbLine
 10
14.5233343894
 20
8.9642538788
 30
0.0
 11
14.5233343894
 21
8.7162069964
 31
0.0
  0
LINE
  5
45D
330
453
100
AcDbEntity
  8
0
  6
Continuous
 62
     7
370
     0
100
AcDbLine
 10
14.5233343894
 20
8.7162069964
 30
0.0
 11
14.4915961066
 21
8.7162069964
 31
0.0
  0
LINE
  5
45E
330
453
100
AcDbEntity
  8
0
  6
Continuous
 62
     7
370
     0
100
AcDbLine
 10
13.8073523404
 20
10.4685424043
 30
0.0
 11
14.4061333104
 21
10.4685424043
 31
0.0
  0
LINE
  5
45F
330
453
100
AcDbEntity
  8
0
  6
Continuous
 62
     7
370
     0
100
AcDbLine
 10
13.8073523404
 20
7.4623525091
 30
0.0
 11
14.4061333104
 21
7.4623525091
 31
0.0
  0
LINE
  5
460
330
453
100
AcDbEntity
  8
0
  6
Continuous
 62
     7
370
     0
100
AcDbLine
 10
14.2498833104
 20
10.4685424043
 30
0.0
 11
14.2498833104
 21
9.2464262171
 31
0.0
  0
LINE
  5
461
330
453
100
AcDbEntity
  8
0
  6
Continuous
 62
     7
370
     0
100
AcDbLine
 10
14.2498833104
 20
7.4623525091
 30
0.0
 11
14.2498833104
 21
8.6844686963
 31
0.0
  0
MTEXT
  5
462
330
453
100
AcDbEntity
  8
0
  6
Continuous
 62
     7
370
     0
100
AcDbMText
 10
13.9534965862
 20
9.1997961603
 30
0.5709350868
 40
0.15625
 41
0.0
 71
     1
 72
     1
  1

  7
SLDTEXTSTYLE0
 73
     1
 44
1.0
  0
MTEXT
  5
463
330
453
100
AcDbEntity
  8
0
  6
Continuous
 62
     7
370
     0
100
AcDbMText
 10
13.9843668308
 20
9.197408996
 30
0.5709350868
 40
0.15625
 41
0.0
 71
     1
 72
     1
  1
3.01
  7
SLDTEXTSTYLE0
 73
     1
 44
1.0
  0
MTEXT
  5
464
330
453
100
AcDbEntity
  8
0
  6
Continuous
 62
     7
370
     0
100
AcDbMText
 10
14.0478433793
 20
8.9176238221
 30
0.5709350868
 40
0.15625
 41
0.0
 71
     1
 72
     1
  1
76.4
  7
SLDTEXTSTYLE0
 73
     1
 44
1.0
  0
MTEXT
  5
465
330
453
100
AcDbEntity
  8
0
  6
Continuous
 62
     7
370
     0
100
AcDbMText
 10
14.6057318515
 20
9.1997961603
 30
0.5709350868
 40
0.15625
 41
0.0
 71
     1
 72
     1
  1

  7
SLDTEXTSTYLE0
 73
     1
 44
1.0
  0
ENDBLK
  5
455
330
453
100
AcDbEntity
  8
0
100
AcDbBlockEnd
  0
BLOCK
  5
468
330
467
100
AcDbEntity
  8
0
100
AcDbBlockBegin
  2
*D33
 70
     1
 10
0.0
 20
0.0
 30
0.0
  3
*D33
  1

  0
SOLID
  5
46A
330
467
100
AcDbEntity
  8
0
  6
Continuous
 62
     7
370
     0
100
AcDbTrace
 10
14.9110527896
 20
7.3788332835
 30
0.0
 11
14.9360527896
 21
7.5413332835
 31
0.0
 12
14.8860527896
 22
7.5413332835
 32
0.0
 13
14.8860527896
 23
7.5413332835
 33
0.0
  0
SOLID
  5
46B
330
467
100
AcDbEntity
  8
0
  6
Continuous
 62
     7
370
     0
100
AcDbTrace
 10
14.9110527896
 20
10.5520616299
 30
0.0
 11
14.8860527896
 21
10.3895616299
 31
0.0
 12
14.9360527896
 22
10.3895616299
 32
0.0
 13
14.9360527896
 23
10.3895616299
 33
0.0
  0
LINE
  5
46C
330
467
100
AcDbEntity
  8
0
  6
Continuous
 62
     7
370
     0
100
AcDbLine
 10
14.6693400049
 20
8.9642538788
 30
0.0
 11
14.6376017221
 21
8.9642538788
 31
0.0
  0
LINE
  5
46D
330
467
100
AcDbEntity
  8
0
  6
Continuous
 62
     7
370
     0
100
AcDbLine
 10
14.6376017221
 20
8.9642538788
 30
0.0
 11
14.6376017221
 21
8.7162069964
 31
0.0
  0
LINE
  5
46E
330
467
100
AcDbEntity
  8
0
  6
Continuous
 62
     7
370
     0
100
AcDbLine
 10
14.6376017221
 20
8.7162069964
 30
0.0
 11
14.6693400049
 21
8.7162069964
 31
0.0
  0
LINE
  5
46F
330
467
100
AcDbEntity
  8
0
  6
Continuous
 62
     7
370
     0
100
AcDbLine
 10
15.1527655857
 20
8.9642538788
 30
0.0
 11
15.1845038685
 21
8.9642538788
 31
0.0
  0
LINE
  5
470
330
467
100
AcDbEntity
  8
0
  6
Continuous
 62
     7
370
     0
100
AcDbLine
 10
15.1845038685
 20
8.9642538788
 30
0.0
 11
15.1845038685
 21
8.7162069964
 31
0.0
  0
LINE
  5
471
330
467
100
AcDbEntity
  8
0
  6
Continuous
 62
     7
370
     0
100
AcDbLine
 10
15.1845038685
 20
8.7162069964
 30
0.0
 11
15.1527655857
 21
8.7162069964
 31
0.0
  0
LINE
  5
472
330
467
100
AcDbEntity
  8
0
  6
Continuous
 62
     7
370
     0
100
AcDbLine
 10
13.8122063517
 20
7.3788332835
 30
0.0
 11
15.0673027896
 21
7.3788332835
 31
0.0
  0
LINE
  5
473
330
467
100
AcDbEntity
  8
0
  6
Continuous
 62
     7
370
     0
100
AcDbLine
 10
13.8122063517
 20
10.5520616299
 30
0.0
 11
15.0673027896
 21
10.5520616299
 31
0.0
  0
LINE
  5
474
330
467
100
AcDbEntity
  8
0
  6
Continuous
 62
     7
370
     0
100
AcDbLine
 10
14.9110527896
 20
7.3788332835
 30
0.0
 11
14.9110527896
 21
8.6844686963
 31
0.0
  0
LINE
  5
475
330
467
100
AcDbEntity
  8
0
  6
Continuous
 62
     7
370
     0
100
AcDbLine
 10
14.9110527896
 20
10.5520616299
 30
0.0
 11
14.9110527896
 21
9.2464262171
 31
0.0
  0
MTEXT
  5
476
330
467
100
AcDbEntity
  8
0
  6
Continuous
 62
     7
370
     0
100
AcDbMText
 10
14.6146660653
 20
9.1997961603
 30
0.5709350868
 40
0.15625
 41
0.0
 71
     1
 72
     1
  1

  7
SLDTEXTSTYLE0
 73
     1
 44
1.0
  0
MTEXT
  5
477
330
467
100
AcDbEntity
  8
0
  6
Continuous
 62
     7
370
     0
100
AcDbMText
 10
14.64553631
 20
9.197408996
 30
0.5709350868
 40
0.15625
 41
0.0
 71
     1
 72
     1
  1
3.17
  7
SLDTEXTSTYLE0
 73
     1
 44
1.0
  0
MTEXT
  5
478
330
467
100
AcDbEntity
  8
0
  6
Continuous
 62
     7
370
     0
100
AcDbMText
 10
14.7090128584
 20
8.9176238221
 30
0.5709350868
 40
0.15625
 41
0.0
 71
     1
 72
     1
  1
80.6
  7
SLDTEXTSTYLE0
 73
     1
 44
1.0
  0
MTEXT
  5
479
330
467
100
AcDbEntity
  8
0
  6
Continuous
 62
     7
370
     0
100
AcDbMText
 10
15.2669013306
 20
9.1997961603
 30
0.5709350868
 40
0.15625
 41
0.0
 71
     1
 72
     1
  1

  7
SLDTEXTSTYLE0
 73
     1
 44
1.0
  0
ENDBLK
  5
469
330
467
100
AcDbEntity
  8
0
100
AcDbBlockEnd
  0
BLOCK
  5
4A1
330
4A0
100
AcDbEntity
  8
0
100
AcDbBlockBegin
  2
*D34
 70
     1
 10
0.0
 20
0.0
 30
0.0
  3
*D34
  1

  0
ARC
  5
4A3
330
4A0
100
AcDbEntity
  8
0
  6
Continuous
 62
     7
370
     0
100
AcDbCircle
 10
17.2289554471
 20
10.4014852064
 30
0.0
 40
1.699294302538056
100
AcDbArc
 50
166.5013384026
 51
177.0
  0
ARC
  5
4A4
330
4A0
100
AcDbEntity
  8
0
  6
Continuous
 62
     7
370
     0
100
AcDbCircle
 10
17.2289554471
 20
10.4014852064
 30
0.0
 40
1.699294302538057
100
AcDbArc
 50
180.0
 51
193.7017230337
  0
SOLID
  5
4A5
330
4A0
100
AcDbEntity
  8
0
  6
Continuous
 62
     7
370
     0
100
AcDbTrace
 10
15.5319899684
 20
10.4904193986
 30
0.0
 11
15.5730926018
 21
10.6496105527
 31
0.0
 12
15.5233425377
 22
10.6546036608
 32
0.0
 13
15.5233425377
 23
10.6546036608
 33
0.0
  0
SOLID
  5
4A6
330
4A0
100
AcDbEntity
  8
0
  6
Continuous
 62
     7
370
     0
100
AcDbTrace
 10
15.5296611446
 20
10.4014852064
 30
0.0
 11
15.5124328246
 21
10.2379785246
 31
0.0
 12
15.562376027
 22
10.2403610727
 32
0.0
 13
15.562376027
 23
10.2403610727
 33
0.0
  0
LINE
  5
4A7
330
4A0
100
AcDbEntity
  8
0
  6
Continuous
 62
     7
370
     0
100
AcDbLine
 10
15.1615022103
 20
9.8737608212
 30
0.0
 11
15.1297639275
 21
9.8737608212
 31
0.0
  0
LINE
  5
4A8
330
4A0
100
AcDbEntity
  8
0
  6
Continuous
 62
     7
370
     0
100
AcDbLine
 10
15.1297639275
 20
9.8737608212
 30
0.0
 11
15.1615022103
 21
9.8737608212
 31
0.0
  0
LINE
  5
4A9
330
4A0
100
AcDbEntity
  8
0
  6
Continuous
 62
     7
370
     0
100
AcDbLine
 10
15.2408479174
 20
9.8737608212
 30
0.0
 11
15.2725862003
 21
9.8737608212
 31
0.0
  0
LINE
  5
4AA
330
4A0
100
AcDbEntity
  8
0
  6
Continuous
 62
     7
370
     0
100
AcDbLine
 10
15.2725862003
 20
9.8737608212
 30
0.0
 11
15.2408479174
 21
9.8737608212
 31
0.0
  0
LINE
  5
4AB
330
4A0
100
AcDbEntity
  8
0
  6
Continuous
 62
     7
370
     0
100
AcDbLine
 10
15.8318954319
 20
10.4747020193
 30
0.0
 11
15.3759541036
 21
10.4985968918
 31
0.0
  0
LINE
  5
4AC
330
4A0
100
AcDbEntity
  8
0
  6
Continuous
 62
     7
370
     0
100
AcDbLine
 10
16.6779884677
 20
10.4014852064
 30
0.0
 11
15.3734111446
 21
10.4014852064
 31
0.0
  0
LINE
  5
4AD
330
4A0
100
AcDbEntity
  8
0
  6
Continuous
 62
     7
370
     0
100
AcDbLine
 10
15.5780196666
 20
9.998977846
 30
0.0
 11
15.4217696666
 21
9.998977846
 31
0.0
  0
MTEXT
  5
4AE
330
4A0
100
AcDbEntity
  8
0
  6
Continuous
 62
     7
370
     0
100
AcDbMText
 10
15.0391741883
 20
10.109303097
 30
0.0039370079
 40
0.15625
 41
0.0
 71
     1
 72
     1
  1

  7
SLDTEXTSTYLE0
 73
     1
 44
1.0
  0
MTEXT
  5
4AF
330
4A0
100
AcDbEntity
  8
0
  6
Continuous
 62
     7
370
     0
100
AcDbMText
 10
15.0383061329
 20
10.1069159441
 30
0.0039370079
 40
0.15625
 41
0.0
 71
     1
 72
     1
  1
3°
  7
SLDTEXTSTYLE0
 73
     1
 44
1.0
  0
MTEXT
  5
4B0
330
4A0
100
AcDbEntity
  8
0
  6
Continuous
 62
     7
370
     0
100
AcDbMText
 10
15.4226377335
 20
10.109303097
 30
0.0039370079
 40
0.15625
 41
0.0
 71
     1
 72
     1
  1

  7
SLDTEXTSTYLE0
 73
     1
 44
1.0
  0
ENDBLK
  5
4A2
330
4A0
100
AcDbEntity
  8
0
100
AcDbBlockEnd
  0
BLOCK
  5
4B3
330
4B2
100
AcDbEntity
  8
0
100
AcDbBlockBegin
  2
*D35
 70
     1
 10
0.0
 20
0.0
 30
0.0
  3
*D35
  1

  0
SOLID
  5
4B5
330
4B2
100
AcDbEntity
  8
0
  6
Continuous
 62
     7
370
     0
100
AcDbTrace
 10
17.2289554471
 20
10.1287692559
 30
0.0
 11
17.0664554471
 21
10.1537692559
 31
0.0
 12
17.0664554471
 22
10.1037692559
 32
0.0
 13
17.0664554471
 23
10.1037692559
 33
0.0
  0
SOLID
  5
4B6
330
4B2
100
AcDbEntity
  8
0
  6
Continuous
 62
     7
370
     0
100
AcDbTrace
 10
17.327380644
 20
10.1287692559
 30
0.0
 11
17.489880644
 21
10.1037692559
 31
0.0
 12
17.489880644
 22
10.1537692559
 32
0.0
 13
17.489880644
 23
10.1537692559
 33
0.0
  0
LINE
  5
4B7
330
4B2
100
AcDbEntity
  8
0
  6
Continuous
 62
     7
370
     0
100
AcDbLine
 10
17.734307377
 20
10.127575678
 30
0.0
 11
17.7025690941
 21
10.127575678
 31
0.0
  0
LINE
  5
4B8
330
4B2
100
AcDbEntity
  8
0
  6
Continuous
 62
     7
370
     0
100
AcDbLine
 10
17.7025690941
 20
10.127575678
 30
0.0
 11
17.7025690941
 21
9.8795287956
 31
0.0
  0
LINE
  5
4B9
330
4B2
100
AcDbEntity
  8
0
  6
Continuous
 62
     7
370
     0
100
AcDbLine
 10
17.7025690941
 20
9.8795287956
 30
0.0
 11
17.734307377
 21
9.8795287956
 31
0.0
  0
LINE
  5
4BA
330
4B2
100
AcDbEntity
  8
0
  6
Continuous
 62
     7
370
     0
100
AcDbLine
 10
18.1022815456
 20
10.127575678
 30
0.0
 11
18.1340198285
 21
10.127575678
 31
0.0
  0
LINE
  5
4BB
330
4B2
100
AcDbEntity
  8
0
  6
Continuous
 62
     7
370
     0
100
AcDbLine
 10
18.1340198285
 20
10.127575678
 30
0.0
 11
18.1340198285
 21
9.8795287956
 31
0.0
  0
LINE
  5
4BC
330
4B2
100
AcDbEntity
  8
0
  6
Continuous
 62
     7
370
     0
100
AcDbLine
 10
18.1340198285
 20
9.8795287956
 30
0.0
 11
18.1022815456
 21
9.8795287956
 31
0.0
  0
LINE
  5
4BD
330
4B2
100
AcDbEntity
  8
0
  6
Continuous
 62
     7
370
     0
100
AcDbLine
 10
17.2289554471
 20
10.1287692559
 30
0.0
 11
16.9164554471
 21
10.1287692559
 31
0.0
  0
LINE
  5
4BE
330
4B2
100
AcDbEntity
  8
0
  6
Continuous
 62
     7
370
     0
100
AcDbLine
 10
17.327380644
 20
10.1287692559
 30
0.0
 11
17.5893500901
 21
10.1287692559
 31
0.0
  0
MTEXT
  5
4BF
330
4B2
100
AcDbEntity
  8
0
  6
Continuous
 62
     7
370
     0
100
AcDbMText
 10
17.6796334374
 20
10.3631179595
 30
0.4960645291
 40
0.15625
 41
0.0
 71
     1
 72
     1
  1

  7
SLDTEXTSTYLE0
 73
     1
 44
1.0
  0
MTEXT
  5
4C0
330
4B2
100
AcDbEntity
  8
0
  6
Continuous
 62
     7
370
     0
100
AcDbMText
 10
17.7105036591
 20
10.3607307952
 30
0.4960645291
 40
0.15625
 41
0.0
 71
     1
 72
     1
  1
.10
  7
SLDTEXTSTYLE0
 73
     1
 44
1.0
  0
MTEXT
  5
4C1
330
4B2
100
AcDbEntity
  8
0
  6
Continuous
 62
     7
370
     0
100
AcDbMText
 10
17.7739802305
 20
10.0809456213
 30
0.4960645291
 40
0.15625
 41
0.0
 71
     1
 72
     1
  1
2.5
  7
SLDTEXTSTYLE0
 73
     1
 44
1.0
  0
MTEXT
  5
4C2
330
4B2
100
AcDbEntity
  8
0
  6
Continuous
 62
     7
370
     0
100
AcDbMText
 10
18.2164172906
 20
10.3631179595
 30
0.4960645291
 40
0.15625
 41
0.0
 71
     1
 72
     1
  1

  7
SLDTEXTSTYLE0
 73
     1
 44
1.0
  0
ENDBLK
  5
4B4
330
4B2
100
AcDbEntity
  8
0
100
AcDbBlockEnd
  0
BLOCK
  5
4C5
330
4C4
100
AcDbEntity
  8
0
100
AcDbBlockBegin
  2
*D36
 70
     1
 10
0.0
 20
0.0
 30
0.0
  3
*D36
  1

  0
SOLID
  5
4C7
330
4C4
100
AcDbEntity
  8
0
  6
Continuous
 62
     7
370
     0
100
AcDbTrace
 10
17.327380644
 20
11.1006656982
 30
0.0
 11
17.164880644
 21
11.1256656982
 31
0.0
 12
17.164880644
 22
11.0756656982
 32
0.0
 13
17.164880644
 23
11.0756656982
 33
0.0
  0
SOLID
  5
4C8
330
4C4
100
AcDbEntity
  8
0
  6
Continuous
 62
     7
370
     0
100
AcDbTrace
 10
16.0084830062
 20
11.1006656982
 30
0.0
 11
16.1709830062
 21
11.0756656982
 31
0.0
 12
16.1709830062
 22
11.1256656982
 32
0.0
 13
16.1709830062
 23
11.1256656982
 33
0.0
  0
LINE
  5
4C9
330
4C4
100
AcDbEntity
  8
0
  6
Continuous
 62
     7
370
     0
100
AcDbLine
 10
16.4262190404
 20
11.0994721204
 30
0.0
 11
16.3944807576
 21
11.0994721204
 31
0.0
  0
LINE
  5
4CA
330
4C4
100
AcDbEntity
  8
0
  6
Continuous
 62
     7
370
     0
100
AcDbLine
 10
16.3944807576
 20
11.0994721204
 30
0.0
 11
16.3944807576
 21
10.8514252379
 31
0.0
  0
LINE
  5
4CB
330
4C4
100
AcDbEntity
  8
0
  6
Continuous
 62
     7
370
     0
100
AcDbLine
 10
16.3944807576
 20
10.8514252379
 30
0.0
 11
16.4262190404
 21
10.8514252379
 31
0.0
  0
LINE
  5
4CC
330
4C4
100
AcDbEntity
  8
0
  6
Continuous
 62
     7
370
     0
100
AcDbLine
 10
16.9096446212
 20
11.0994721204
 30
0.0
 11
16.9413829041
 21
11.0994721204
 31
0.0
  0
LINE
  5
4CD
330
4C4
100
AcDbEntity
  8
0
  6
Continuous
 62
     7
370
     0
100
AcDbLine
 10
16.9413829041
 20
11.0994721204
 30
0.0
 11
16.9413829041
 21
10.8514252379
 31
0.0
  0
LINE
  5
4CE
330
4C4
100
AcDbEntity
  8
0
  6
Continuous
 62
     7
370
     0
100
AcDbLine
 10
16.9413829041
 20
10.8514252379
 30
0.0
 11
16.9096446212
 21
10.8514252379
 31
0.0
  0
LINE
  5
4CF
330
4C4
100
AcDbEntity
  8
0
  6
Continuous
 62
     7
370
     0
100
AcDbLine
 10
17.327380644
 20
10.4816000129
 30
0.0
 11
17.327380644
 21
11.2569156982
 31
0.0
  0
LINE
  5
4D0
330
4C4
100
AcDbEntity
  8
0
  6
Continuous
 62
     7
370
     0
100
AcDbLine
 10
16.0084830062
 20
10.6145616299
 30
0.0
 11
16.0084830062
 21
11.2569156982
 31
0.0
  0
LINE
  5
4D1
330
4C4
100
AcDbEntity
  8
0
  6
Continuous
 62
     7
370
     0
100
AcDbLine
 10
17.327380644
 20
11.1006656982
 30
0.0
 11
17.0546018967
 21
11.1006656982
 31
0.0
  0
LINE
  5
4D2
330
4C4
100
AcDbEntity
  8
0
  6
Continuous
 62
     7
370
     0
100
AcDbLine
 10
16.0084830062
 20
11.1006656982
 30
0.0
 11
16.2812617535
 21
11.1006656982
 31
0.0
  0
MTEXT
  5
4D3
330
4C4
100
AcDbEntity
  8
0
  6
Continuous
 62
     7
370
     0
100
AcDbMText
 10
16.3715451009
 20
11.3350144019
 30
0.4960645291
 40
0.15625
 41
0.0
 71
     1
 72
     1
  1

  7
SLDTEXTSTYLE0
 73
     1
 44
1.0
  0
MTEXT
  5
4D4
330
4C4
100
AcDbEntity
  8
0
  6
Continuous
 62
     7
370
     0
100
AcDbMText
 10
16.4024153455
 20
11.3326272375
 30
0.4960645291
 40
0.15625
 41
0.0
 71
     1
 72
     1
  1
1.32
  7
SLDTEXTSTYLE0
 73
     1
 44
1.0
  0
MTEXT
  5
4D5
330
4C4
100
AcDbEntity
  8
0
  6
Continuous
 62
     7
370
     0
100
AcDbMText
 10
16.465891894
 20
11.0528420637
 30
0.4960645291
 40
0.15625
 41
0.0
 71
     1
 72
     1
  1
33.5
  7
SLDTEXTSTYLE0
 73
     1
 44
1.0
  0
MTEXT
  5
4D6
330
4C4
100
AcDbEntity
  8
0
  6
Continuous
 62
     7
370
     0
100
AcDbMText
 10
17.0237803662
 20
11.3350144019
 30
0.4960645291
 40
0.15625
 41
0.0
 71
     1
 72
     1
  1

  7
SLDTEXTSTYLE0
 73
     1
 44
1.0
  0
ENDBLK
  5
4C6
330
4C4
100
AcDbEntity
  8
0
100
AcDbBlockEnd
  0
BLOCK
  5
509
330
508
100
AcDbEntity
  8
0
100
AcDbBlockBegin
  2
*D37
 70
     1
 10
0.0
 20
0.0
 30
0.0
  3
*D37
  1

  0
SOLID
  5
50B
330
508
100
AcDbEntity
  8
0
  6
Continuous
 62
     7
370
     0
100
AcDbTrace
 10
18.6192847451
 20
8.4536364331
 30
0.0
 11
18.6442847451
 21
8.6161364331
 31
0.0
 12
18.5942847451
 22
8.6161364331
 32
0.0
 13
18.5942847451
 23
8.6161364331
 33
0.0
  0
SOLID
  5
50C
330
508
100
AcDbEntity
  8
0
  6
Continuous
 62
     7
370
     0
100
AcDbTrace
 10
18.6192847451
 20
7.9811954882
 30
0.0
 11
18.5942847451
 21
7.8186954882
 31
0.0
 12
18.6442847451
 22
7.8186954882
 32
0.0
 13
18.6442847451
 23
7.8186954882
 33
0.0
  0
LINE
  5
50D
330
508
100
AcDbEntity
  8
0
  6
Continuous
 62
     7
370
     0
100
AcDbLine
 10
17.9444497895
 20
7.6579829764
 30
0.0
 11
17.9127115066
 21
7.6579829764
 31
0.0
  0
LINE
  5
50E
330
508
100
AcDbEntity
  8
0
  6
Continuous
 62
     7
370
     0
100
AcDbLine
 10
17.9127115066
 20
7.6579829764
 30
0.0
 11
17.9127115066
 21
7.4099360939
 31
0.0
  0
LINE
  5
50F
330
508
100
AcDbEntity
  8
0
  6
Continuous
 62
     7
370
     0
100
AcDbLine
 10
17.9127115066
 20
7.4099360939
 30
0.0
 11
17.9444497895
 21
7.4099360939
 31
0.0
  0
LINE
  5
510
330
508
100
AcDbEntity
  8
0
  6
Continuous
 62
     7
370
     0
100
AcDbLine
 10
18.254698275
 20
7.6579829764
 30
0.0
 11
18.2864365578
 21
7.6579829764
 31
0.0
  0
LINE
  5
511
330
508
100
AcDbEntity
  8
0
  6
Continuous
 62
     7
370
     0
100
AcDbLine
 10
18.2864365578
 20
7.6579829764
 30
0.0
 11
18.2864365578
 21
7.4099360939
 31
0.0
  0
LINE
  5
512
330
508
100
AcDbEntity
  8
0
  6
Continuous
 62
     7
370
     0
100
AcDbLine
 10
18.2864365578
 20
7.4099360939
 30
0.0
 11
18.254698275
 21
7.4099360939
 31
0.0
  0
LINE
  5
513
330
508
100
AcDbEntity
  8
0
  6
Continuous
 62
     7
370
     0
100
AcDbLine
 10
18.8277546626
 20
8.4536364331
 30
0.0
 11
18.4630347451
 21
8.4536364331
 31
0.0
  0
LINE
  5
514
330
508
100
AcDbEntity
  8
0
  6
Continuous
 62
     7
370
     0
100
AcDbLine
 10
18.8277546626
 20
7.9811954882
 30
0.0
 11
18.4630347451
 21
7.9811954882
 31
0.0
  0
LINE
  5
515
330
508
100
AcDbEntity
  8
0
  6
Continuous
 62
     7
370
     0
100
AcDbLine
 10
18.4630347451
 20
7.6591765543
 30
0.0
 11
18.6192847451
 21
7.6591765543
 31
0.0
  0
LINE
  5
516
330
508
100
AcDbEntity
  8
0
  6
Continuous
 62
     7
370
     0
100
AcDbLine
 10
18.6192847451
 20
7.6591765543
 30
0.0
 11
18.6192847451
 21
7.9811954882
 31
0.0
  0
LINE
  5
517
330
508
100
AcDbEntity
  8
0
  6
Continuous
 62
     7
370
     0
100
AcDbLine
 10
18.6192847451
 20
8.4536364331
 30
0.0
 11
18.6192847451
 21
8.7661364331
 31
0.0
  0
MTEXT
  5
518
330
508
100
AcDbEntity
  8
0
  6
Continuous
 62
     7
370
     0
100
AcDbMText
 10
17.8897758499
 20
7.8935252579
 30
0.0039370079
 40
0.15625
 41
0.0
 71
     1
 72
     1
  1

  7
SLDTEXTSTYLE0
 73
     1
 44
1.0
  0
MTEXT
  5
519
330
508
100
AcDbEntity
  8
0
  6
Continuous
 62
     7
370
     0
100
AcDbMText
 10
17.8917832301
 20
7.8911380936
 30
0.0039370079
 40
0.15625
 41
0.0
 71
     1
 72
     1
  1
.47
  7
SLDTEXTSTYLE0
 73
     1
 44
1.0
  0
MTEXT
  5
51A
330
508
100
AcDbEntity
  8
0
  6
Continuous
 62
     7
370
     0
100
AcDbMText
 10
17.984122643
 20
7.6113529197
 30
0.0039370079
 40
0.15625
 41
0.0
 71
     1
 72
     1
  1
12
  7
SLDTEXTSTYLE0
 73
     1
 44
1.0
  0
MTEXT
  5
51B
330
508
100
AcDbEntity
  8
0
  6
Continuous
 62
     7
370
     0
100
AcDbMText
 10
18.36883402
 20
7.8935252579
 30
0.0039370079
 40
0.15625
 41
0.0
 71
     1
 72
     1
  1

  7
SLDTEXTSTYLE0
 73
     1
 44
1.0
  0
ENDBLK
  5
50A
330
508
100
AcDbEntity
  8
0
100
AcDbBlockEnd
  0
BLOCK
  5
51E
330
51D
100
AcDbEntity
  8
0
100
AcDbBlockBegin
  2
*D38
 70
     1
 10
0.0
 20
0.0
 30
0.0
  3
*D38
  1

  0
SOLID
  5
520
330
51D
100
AcDbEntity
  8
0
  6
Continuous
 62
     7
370
     0
100
AcDbTrace
 10
18.9493097807
 20
6.9769714765
 30
0.0
 11
18.7868097807
 21
7.0019714765
 31
0.0
 12
18.7868097807
 22
6.9519714765
 32
0.0
 13
18.7868097807
 23
6.9519714765
 33
0.0
  0
SOLID
  5
521
330
51D
100
AcDbEntity
  8
0
  6
Continuous
 62
     7
370
     0
100
AcDbTrace
 10
19.1874203745
 20
6.9769714765
 30
0.0
 11
19.3499203745
 21
6.9519714765
 31
0.0
 12
19.3499203745
 22
7.0019714765
 32
0.0
 13
19.3499203745
 23
7.0019714765
 33
0.0
  0
LINE
  5
522
330
51D
100
AcDbEntity
  8
0
  6
Continuous
 62
     7
370
     0
100
AcDbLine
 10
19.6387140173
 20
6.9757778986
 30
0.0
 11
19.6069757345
 21
6.9757778986
 31
0.0
  0
LINE
  5
523
330
51D
100
AcDbEntity
  8
0
  6
Continuous
 62
     7
370
     0
100
AcDbLine
 10
19.6069757345
 20
6.9757778986
 30
0.0
 11
19.6069757345
 21
6.7277310162
 31
0.0
  0
LINE
  5
524
330
51D
100
AcDbEntity
  8
0
  6
Continuous
 62
     7
370
     0
100
AcDbLine
 10
19.6069757345
 20
6.7277310162
 30
0.0
 11
19.6387140173
 21
6.7277310162
 31
0.0
  0
LINE
  5
525
330
51D
100
AcDbEntity
  8
0
  6
Continuous
 62
     7
370
     0
100
AcDbLine
 10
19.8335111136
 20
6.9757778986
 30
0.0
 11
19.8652493965
 21
6.9757778986
 31
0.0
  0
LINE
  5
526
330
51D
100
AcDbEntity
  8
0
  6
Continuous
 62
     7
370
     0
100
AcDbLine
 10
19.8652493965
 20
6.9757778986
 30
0.0
 11
19.8652493965
 21
6.7277310162
 31
0.0
  0
LINE
  5
527
330
51D
100
AcDbEntity
  8
0
  6
Continuous
 62
     7
370
     0
100
AcDbLine
 10
19.8652493965
 20
6.7277310162
 30
0.0
 11
19.8335111136
 21
6.7277310162
 31
0.0
  0
LINE
  5
528
330
51D
100
AcDbEntity
  8
0
  6
Continuous
 62
     7
370
     0
100
AcDbLine
 10
18.9493097807
 20
7.3163332835
 30
0.0
 11
18.9493097807
 21
6.8207214765
 31
0.0
  0
LINE
  5
529
330
51D
100
AcDbEntity
  8
0
  6
Continuous
 62
     7
370
     0
100
AcDbLine
 10
19.1874203745
 20
7.9186954882
 30
0.0
 11
19.1874203745
 21
6.8207214765
 31
0.0
  0
LINE
  5
52A
330
51D
100
AcDbEntity
  8
0
  6
Continuous
 62
     7
370
     0
100
AcDbLine
 10
18.9493097807
 20
6.9769714765
 30
0.0
 11
18.6368097807
 21
6.9769714765
 31
0.0
  0
LINE
  5
52B
330
51D
100
AcDbEntity
  8
0
  6
Continuous
 62
     7
370
     0
100
AcDbLine
 10
19.1874203745
 20
6.9769714765
 30
0.0
 11
19.4389064599
 21
6.9769714765
 31
0.0
  0
MTEXT
  5
52C
330
51D
100
AcDbEntity
  8
0
  6
Continuous
 62
     7
370
     0
100
AcDbMText
 10
19.5291898072
 20
7.2113201802
 30
0.0039370079
 40
0.15625
 41
0.0
 71
     1
 72
     1
  1

  7
SLDTEXTSTYLE0
 73
     1
 44
1.0
  0
MTEXT
  5
52D
330
51D
100
AcDbEntity
  8
0
  6
Continuous
 62
     7
370
     0
100
AcDbMText
 10
19.5283217518
 20
7.2089330158
 30
0.0039370079
 40
0.15625
 41
0.0
 71
     1
 72
     1
  1
.24
  7
SLDTEXTSTYLE0
 73
     1
 44
1.0
  0
MTEXT
  5
52E
330
51D
100
AcDbEntity
  8
0
  6
Continuous
 62
     7
370
     0
100
AcDbMText
 10
19.6783868709
 20
6.9291478419
 30
0.0039370079
 40
0.15625
 41
0.0
 71
     1
 72
     1
  1
6
  7
SLDTEXTSTYLE0
 73
     1
 44
1.0
  0
MTEXT
  5
52F
330
51D
100
AcDbEntity
  8
0
  6
Continuous
 62
     7
370
     0
100
AcDbMText
 10
20.0024971062
 20
7.2113201802
 30
0.0039370079
 40
0.15625
 41
0.0
 71
     1
 72
     1
  1

  7
SLDTEXTSTYLE0
 73
     1
 44
1.0
  0
ENDBLK
  5
51F
330
51D
100
AcDbEntity
  8
0
100
AcDbBlockEnd
  0
BLOCK
  5
533
330
532
100
AcDbEntity
  8
0
100
AcDbBlockBegin
  2
*D39
 70
     1
 10
0.0
 20
0.0
 30
0.0
  3
*D39
  1

  0
SOLID
  5
535
330
532
100
AcDbEntity
  8
0
  6
Continuous
 62
     7
370
     0
100
AcDbTrace
 10
18.2648325244
 20
8.2174159606
 30
0.0
 11
18.2898325244
 21
8.3799159606
 31
0.0
 12
18.2398325244
 22
8.3799159606
 32
0.0
 13
18.2398325244
 23
8.3799159606
 33
0.0
  0
SOLID
  5
536
330
532
100
AcDbEntity
  8
0
  6
Continuous
 62
     7
370
     0
100
AcDbTrace
 10
18.2648325244
 20
9.7134789528
 30
0.0
 11
18.2398325244
 21
9.5509789528
 31
0.0
 12
18.2898325244
 22
9.5509789528
 32
0.0
 13
18.2898325244
 23
9.5509789528
 33
0.0
  0
LINE
  5
537
330
532
100
AcDbEntity
  8
0
  6
Continuous
 62
     7
370
     0
100
AcDbLine
 10
18.1097082874
 20
8.9642538788
 30
0.0
 11
18.0779700046
 21
8.9642538788
 31
0.0
  0
LINE
  5
538
330
532
100
AcDbEntity
  8
0
  6
Continuous
 62
     7
370
     0
100
AcDbLine
 10
18.0779700046
 20
8.9642538788
 30
0.0
 11
18.0779700046
 21
8.7162069964
 31
0.0
  0
LINE
  5
539
330
532
100
AcDbEntity
  8
0
  6
Continuous
 62
     7
370
     0
100
AcDbLine
 10
18.0779700046
 20
8.7162069964
 30
0.0
 11
18.1097082874
 21
8.7162069964
 31
0.0
  0
LINE
  5
53A
330
532
100
AcDbEntity
  8
0
  6
Continuous
 62
     7
370
     0
100
AcDbLine
 10
18.4199567729
 20
8.9642538788
 30
0.0
 11
18.4516950558
 21
8.9642538788
 31
0.0
  0
LINE
  5
53B
330
532
100
AcDbEntity
  8
0
  6
Continuous
 62
     7
370
     0
100
AcDbLine
 10
18.4516950558
 20
8.9642538788
 30
0.0
 11
18.4516950558
 21
8.7162069964
 31
0.0
  0
LINE
  5
53C
330
532
100
AcDbEntity
  8
0
  6
Continuous
 62
     7
370
     0
100
AcDbLine
 10
18.4516950558
 20
8.7162069964
 30
0.0
 11
18.4199567729
 21
8.7162069964
 31
0.0
  0
LINE
  5
53D
330
532
100
AcDbEntity
  8
0
  6
Continuous
 62
     7
370
     0
100
AcDbLine
 10
18.5743097807
 20
8.2174159606
 30
0.0
 11
18.1085825244
 21
8.2174159606
 31
0.0
  0
LINE
  5
53E
330
532
100
AcDbEntity
  8
0
  6
Continuous
 62
     7
370
     0
100
AcDbLine
 10
18.5743097807
 20
9.7134789528
 30
0.0
 11
18.1085825244
 21
9.7134789528
 31
0.0
  0
LINE
  5
53F
330
532
100
AcDbEntity
  8
0
  6
Continuous
 62
     7
370
     0
100
AcDbLine
 10
18.2648325244
 20
8.2174159606
 30
0.0
 11
18.2648325244
 21
8.6844686963
 31
0.0
  0
LINE
  5
540
330
532
100
AcDbEntity
  8
0
  6
Continuous
 62
     7
370
     0
100
AcDbLine
 10
18.2648325244
 20
9.7134789528
 30
0.0
 11
18.2648325244
 21
9.2464262171
 31
0.0
  0
MTEXT
  5
541
330
532
100
AcDbEntity
  8
0
  6
Continuous
 62
     7
370
     0
100
AcDbMText
 10
18.0001841002
 20
9.1997961603
 30
0.0039370079
 40
0.15625
 41
0.0
 71
     1
 72
     1
  1

  7
SLDTEXTSTYLE0
 73
     1
 44
1.0
  0
MTEXT
  5
542
330
532
100
AcDbEntity
  8
0
  6
Continuous
 62
     7
370
     0
100
AcDbMText
 10
17.9993160448
 20
9.197408996
 30
0.0039370079
 40
0.15625
 41
0.0
 71
     1
 72
     1
  1
1.50
  7
SLDTEXTSTYLE0
 73
     1
 44
1.0
  0
MTEXT
  5
543
330
532
100
AcDbEntity
  8
0
  6
Continuous
 62
     7
370
     0
100
AcDbMText
 10
18.149381141
 20
8.9176238221
 30
0.0039370079
 40
0.15625
 41
0.0
 71
     1
 72
     1
  1
38
  7
SLDTEXTSTYLE0
 73
     1
 44
1.0
  0
MTEXT
  5
544
330
532
100
AcDbEntity
  8
0
  6
Continuous
 62
     7
370
     0
100
AcDbMText
 10
18.5889427655
 20
9.1997961603
 30
0.0039370079
 40
0.15625
 41
0.0
 71
     1
 72
     1
  1

  7
SLDTEXTSTYLE0
 73
     1
 44
1.0
  0
ENDBLK
  5
534
330
532
100
AcDbEntity
  8
0
100
AcDbBlockEnd
  0
BLOCK
  5
546
330
545
100
AcDbEntity
  8
0
100
AcDbBlockBegin
  2
SW_NOTE_5
 70
     0
 10
0.0
 20
0.0
 30
0.0
  3
SW_NOTE_5
  1

  0
MTEXT
  5
548
330
545
100
AcDbEntity
  8
0
  6
Continuous
 62
     0
370
     0
100
AcDbMText
 10
0.0246127087
 20
0.0757513311
 30
0.0
 40
0.15625
 41
0.0
 71
     1
 72
     1
  1
CABLE OUTLET
  7
SLDTEXTSTYLE0
 73
     1
 44
1.0
  0
MTEXT
  5
549
330
545
100
AcDbEntity
  8
0
  6
Continuous
 62
     0
370
     0
100
AcDbMText
 10
0.0246127087
 20
-0.129711262
 30
0.0
 40
0.15625
 41
0.0
 71
     1
 72
     1
  1
MAY BE EASILY
  7
SLDTEXTSTYLE0
 73
     1
 44
1.0
  0
MTEXT
  5
54A
330
545
100
AcDbEntity
  8
0
  6
Continuous
 62
     0
370
     0
100
AcDbMText
 10
0.0246127087
 20
-0.3351738552
 30
0.0
 40
0.15625
 41
0.0
 71
     1
 72
     1
  1
CUT OPEN
  7
SLDTEXTSTYLE0
 73
     1
 44
1.0
  0
ENDBLK
  5
547
330
545
100
AcDbEntity
  8
0
100
AcDbBlockEnd
  0
BLOCK
  5
54E
330
54D
100
AcDbEntity
  8
0
100
AcDbBlockBegin
  2
_DOT
 70
     0
 10
0.0
 20
0.0
 30
0.0
  3
_DOT
  1

  0
POLYLINE
  5
550
330
54D
100
AcDbEntity
  8
0
  6
ByBlock
 62
     0
100
AcDb2dPolyline
 66
     1
 10
0.0
 20
0.0
 30
0.0
 70
     1
 40
0.5
 41
0.5
  0
VERTEX
  5
552
330
550
100
AcDbEntity
  8
0
  6
ByBlock
 62
     0
100
AcDbVertex
100
AcDb2dVertex
 10
-0.25
 20
0.0
 30
0.0
 42
1.0
  0
VERTEX
  5
553
330
550
100
AcDbEntity
  8
0
  6
ByBlock
 62
     0
100
AcDbVertex
100
AcDb2dVertex
 10
0.25
 20
0.0
 30
0.0
 42
1.0
  0
SEQEND
  5
554
330
550
100
AcDbEntity
  8
0
  6
ByBlock
 62
     0
  0
LINE
  5
551
330
54D
100
AcDbEntity
  8
0
  6
ByBlock
 62
     0
370
    -2
100
AcDbLine
 10
-0.5
 20
0.0
 30
0.0
 11
-1.0
 21
0.0
 31
0.0
  0
ENDBLK
  5
54F
330
54D
100
AcDbEntity
  8
0
100
AcDbBlockEnd
  0
BLOCK
  5
5A2
330
5A1
100
AcDbEntity
  8
0
100
AcDbBlockBegin
  2
*D42
 70
     1
 10
0.0
 20
0.0
 30
0.0
  3
*D42
  1

  0
SOLID
  5
5A4
330
5A1
100
AcDbEntity
  8
0
  6
Continuous
 62
     7
370
     0
100
AcDbTrace
 10
2.9630860811
 20
1.8412723474
 30
0.0
 11
2.9880860811
 21
2.0037723474
 31
0.0
 12
2.9380860811
 22
2.0037723474
 32
0.0
 13
2.9380860811
 23
2.0037723474
 33
0.0
  0
SOLID
  5
5A5
330
5A1
100
AcDbEntity
  8
0
  6
Continuous
 62
     7
370
     0
100
AcDbTrace
 10
2.9630860811
 20
3.1601699852
 30
0.0
 11
2.9380860811
 21
2.9976699852
 31
0.0
 12
2.9880860811
 22
2.9976699852
 32
0.0
 13
2.9880860811
 23
2.9976699852
 33
0.0
  0
LINE
  5
5A6
330
5A1
100
AcDbEntity
  8
0
  6
Continuous
 62
     7
370
     0
100
AcDbLine
 10
2.7213732964
 20
2.4995275884
 30
0.0
 11
2.6896350136
 21
2.4995275884
 31
0.0
  0
LINE
  5
5A7
330
5A1
100
AcDbEntity
  8
0
  6
Continuous
 62
     7
370
     0
100
AcDbLine
 10
2.6896350136
 20
2.4995275884
 30
0.0
 11
2.6896350136
 21
2.251480706
 31
0.0
  0
LINE
  5
5A8
330
5A1
100
AcDbEntity
  8
0
  6
Continuous
 62
     7
370
     0
100
AcDbLine
 10
2.6896350136
 20
2.251480706
 30
0.0
 11
2.7213732964
 21
2.251480706
 31
0.0
  0
LINE
  5
5A9
330
5A1
100
AcDbEntity
  8
0
  6
Continuous
 62
     7
370
     0
100
AcDbLine
 10
3.2047988772
 20
2.4995275884
 30
0.0
 11
3.23653716
 21
2.4995275884
 31
0.0
  0
LINE
  5
5AA
330
5A1
100
AcDbEntity
  8
0
  6
Continuous
 62
     7
370
     0
100
AcDbLine
 10
3.23653716
 20
2.4995275884
 30
0.0
 11
3.23653716
 21
2.251480706
 31
0.0
  0
LINE
  5
5AB
330
5A1
100
AcDbEntity
  8
0
  6
Continuous
 62
     7
370
     0
100
AcDbLine
 10
3.23653716
 20
2.251480706
 30
0.0
 11
3.2047988772
 21
2.251480706
 31
0.0
  0
LINE
  5
5AC
330
5A1
100
AcDbEntity
  8
0
  6
Continuous
 62
     7
370
     0
100
AcDbLine
 10
4.0800970449
 20
1.8412723474
 30
0.0
 11
2.8068360811
 21
1.8412723474
 31
0.0
  0
LINE
  5
5AD
330
5A1
100
AcDbEntity
  8
0
  6
Continuous
 62
     7
370
     0
100
AcDbLine
 10
3.8138516053
 20
3.1601699852
 30
0.0
 11
2.8068360811
 21
3.1601699852
 31
0.0
  0
LINE
  5
5AE
330
5A1
100
AcDbEntity
  8
0
  6
Continuous
 62
     7
370
     0
100
AcDbLine
 10
2.9630860811
 20
1.8412723474
 30
0.0
 11
2.9630860811
 21
2.219742406
 31
0.0
  0
LINE
  5
5AF
330
5A1
100
AcDbEntity
  8
0
  6
Continuous
 62
     7
370
     0
100
AcDbLine
 10
2.9630860811
 20
3.1601699852
 30
0.0
 11
2.9630860811
 21
2.7816999267
 31
0.0
  0
MTEXT
  5
5B0
330
5A1
100
AcDbEntity
  8
0
  6
Continuous
 62
     7
370
     0
100
AcDbMText
 10
2.6666993568
 20
2.73506987
 30
0.3576051271
 40
0.15625
 41
0.0
 71
     1
 72
     1
  1

  7
SLDTEXTSTYLE0
 73
     1
 44
1.0
  0
MTEXT
  5
5B1
330
5A1
100
AcDbEntity
  8
0
  6
Continuous
 62
     7
370
     0
100
AcDbMText
 10
2.6975696015
 20
2.7326827056
 30
0.3576051271
 40
0.15625
 41
0.0
 71
     1
 72
     1
  1
1.32
  7
SLDTEXTSTYLE0
 73
     1
 44
1.0
  0
MTEXT
  5
5B2
330
5A1
100
AcDbEntity
  8
0
  6
Continuous
 62
     7
370
     0
100
AcDbMText
 10
2.76104615
 20
2.4528975317
 30
0.3576051271
 40
0.15625
 41
0.0
 71
     1
 72
     1
  1
33.5
  7
SLDTEXTSTYLE0
 73
     1
 44
1.0
  0
MTEXT
  5
5B3
330
5A1
100
AcDbEntity
  8
0
  6
Continuous
 62
     7
370
     0
100
AcDbMText
 10
3.3189346222
 20
2.73506987
 30
0.3576051271
 40
0.15625
 41
0.0
 71
     1
 72
     1
  1

  7
SLDTEXTSTYLE0
 73
     1
 44
1.0
  0
ENDBLK
  5
5A3
330
5A1
100
AcDbEntity
  8
0
100
AcDbBlockEnd
  0
BLOCK
  5
5B6
330
5B5
100
AcDbEntity
  8
0
100
AcDbBlockBegin
  2
*D43
 70
     1
 10
0.0
 20
0.0
 30
0.0
  3
*D43
  1

  0
SOLID
  5
5B8
330
5B5
100
AcDbEntity
  8
0
  6
Continuous
 62
     7
370
     0
100
AcDbTrace
 10
7.6592462051
 20
1.6444219537
 30
0.0
 11
7.6842462051
 21
1.8069219537
 31
0.0
 12
7.6342462051
 22
1.8069219537
 32
0.0
 13
7.6342462051
 23
1.8069219537
 33
0.0
  0
SOLID
  5
5B9
330
5B5
100
AcDbEntity
  8
0
  6
Continuous
 62
     7
370
     0
100
AcDbTrace
 10
7.6592462051
 20
3.1601699852
 30
0.0
 11
7.6342462051
 21
2.9976699852
 31
0.0
 12
7.6842462051
 22
2.9976699852
 32
0.0
 13
7.6842462051
 23
2.9976699852
 33
0.0
  0
LINE
  5
5BA
330
5B5
100
AcDbEntity
  8
0
  6
Continuous
 62
     7
370
     0
100
AcDbLine
 10
7.4175334205
 20
2.4011023916
 30
0.0
 11
7.3857951376
 21
2.4011023916
 31
0.0
  0
LINE
  5
5BB
330
5B5
100
AcDbEntity
  8
0
  6
Continuous
 62
     7
370
     0
100
AcDbLine
 10
7.3857951376
 20
2.4011023916
 30
0.0
 11
7.3857951376
 21
2.1530555091
 31
0.0
  0
LINE
  5
5BC
330
5B5
100
AcDbEntity
  8
0
  6
Continuous
 62
     7
370
     0
100
AcDbLine
 10
7.3857951376
 20
2.1530555091
 30
0.0
 11
7.4175334205
 21
2.1530555091
 31
0.0
  0
LINE
  5
5BD
330
5B5
100
AcDbEntity
  8
0
  6
Continuous
 62
     7
370
     0
100
AcDbLine
 10
7.9009590013
 20
2.4011023916
 30
0.0
 11
7.9326972841
 21
2.4011023916
 31
0.0
  0
LINE
  5
5BE
330
5B5
100
AcDbEntity
  8
0
  6
Continuous
 62
     7
370
     0
100
AcDbLine
 10
7.9326972841
 20
2.4011023916
 30
0.0
 11
7.9326972841
 21
2.1530555091
 31
0.0
  0
LINE
  5
5BF
330
5B5
100
AcDbEntity
  8
0
  6
Continuous
 62
     7
370
     0
100
AcDbLine
 10
7.9326972841
 20
2.1530555091
 30
0.0
 11
7.9009590013
 21
2.1530555091
 31
0.0
  0
LINE
  5
5C0
330
5B5
100
AcDbEntity
  8
0
  6
Continuous
 62
     7
370
     0
100
AcDbLine
 10
6.8357925697
 20
1.6444219537
 30
0.0
 11
7.8154962051
 21
1.6444219537
 31
0.0
  0
LINE
  5
5C1
330
5B5
100
AcDbEntity
  8
0
  6
Continuous
 62
     7
370
     0
100
AcDbLine
 10
6.7873050574
 20
3.1601699852
 30
0.0
 11
7.8154962051
 21
3.1601699852
 31
0.0
  0
LINE
  5
5C2
330
5B5
100
AcDbEntity
  8
0
  6
Continuous
 62
     7
370
     0
100
AcDbLine
 10
7.6592462051
 20
1.6444219537
 30
0.0
 11
7.6592462051
 21
2.1213172091
 31
0.0
  0
LINE
  5
5C3
330
5B5
100
AcDbEntity
  8
0
  6
Continuous
 62
     7
370
     0
100
AcDbLine
 10
7.6592462051
 20
3.1601699852
 30
0.0
 11
7.6592462051
 21
2.6832747298
 31
0.0
  0
MTEXT
  5
5C4
330
5B5
100
AcDbEntity
  8
0
  6
Continuous
 62
     7
370
     0
100
AcDbMText
 10
7.3628594809
 20
2.6366446731
 30
0.3576051271
 40
0.15625
 41
0.0
 71
     1
 72
     1
  1

  7
SLDTEXTSTYLE0
 73
     1
 44
1.0
  0
MTEXT
  5
5C5
330
5B5
100
AcDbEntity
  8
0
  6
Continuous
 62
     7
370
     0
100
AcDbMText
 10
7.3937297255
 20
2.6342575088
 30
0.3576051271
 40
0.15625
 41
0.0
 71
     1
 72
     1
  1
1.52
  7
SLDTEXTSTYLE0
 73
     1
 44
1.0
  0
MTEXT
  5
5C6
330
5B5
100
AcDbEntity
  8
0
  6
Continuous
 62
     7
370
     0
100
AcDbMText
 10
7.457206274
 20
2.3544723349
 30
0.3576051271
 40
0.15625
 41
0.0
 71
     1
 72
     1
  1
38.5
  7
SLDTEXTSTYLE0
 73
     1
 44
1.0
  0
MTEXT
  5
5C7
330
5B5
100
AcDbEntity
  8
0
  6
Continuous
 62
     7
370
     0
100
AcDbMText
 10
8.0150947462
 20
2.6366446731
 30
0.3576051271
 40
0.15625
 41
0.0
 71
     1
 72
     1
  1

  7
SLDTEXTSTYLE0
 73
     1
 44
1.0
  0
ENDBLK
  5
5B7
330
5B5
100
AcDbEntity
  8
0
100
AcDbBlockEnd
  0
BLOCK
  5
5CA
330
5C9
100
AcDbEntity
  8
0
100
AcDbBlockBegin
  2
*D44
 70
     1
 10
0.0
 20
0.0
 30
0.0
  3
*D44
  1

  0
SOLID
  5
5CC
330
5C9
100
AcDbEntity
  8
0
  6
Continuous
 62
     7
370
     0
100
AcDbTrace
 10
8.3635863868
 20
3.2585951821
 30
0.0
 11
8.3385863868
 21
3.0960951821
 31
0.0
 12
8.3885863868
 22
3.0960951821
 32
0.0
 13
8.3885863868
 23
3.0960951821
 33
0.0
  0
SOLID
  5
5CD
330
5C9
100
AcDbEntity
  8
0
  6
Continuous
 62
     7
370
     0
100
AcDbTrace
 10
8.3635863868
 20
1.5459967569
 30
0.0
 11
8.3885863868
 21
1.7084967569
 31
0.0
 12
8.3385863868
 22
1.7084967569
 32
0.0
 13
8.3385863868
 23
1.7084967569
 33
0.0
  0
LINE
  5
5CE
330
5C9
100
AcDbEntity
  8
0
  6
Continuous
 62
     7
370
     0
100
AcDbLine
 10
8.1218736021
 20
2.4011023916
 30
0.0
 11
8.0901353193
 21
2.4011023916
 31
0.0
  0
LINE
  5
5CF
330
5C9
100
AcDbEntity
  8
0
  6
Continuous
 62
     7
370
     0
100
AcDbLine
 10
8.0901353193
 20
2.4011023916
 30
0.0
 11
8.0901353193
 21
2.1530555091
 31
0.0
  0
LINE
  5
5D0
330
5C9
100
AcDbEntity
  8
0
  6
Continuous
 62
     7
370
     0
100
AcDbLine
 10
8.0901353193
 20
2.1530555091
 30
0.0
 11
8.1218736021
 21
2.1530555091
 31
0.0
  0
LINE
  5
5D1
330
5C9
100
AcDbEntity
  8
0
  6
Continuous
 62
     7
370
     0
100
AcDbLine
 10
8.6052991829
 20
2.4011023916
 30
0.0
 11
8.6370374658
 21
2.4011023916
 31
0.0
  0
LINE
  5
5D2
330
5C9
100
AcDbEntity
  8
0
  6
Continuous
 62
     7
370
     0
100
AcDbLine
 10
8.6370374658
 20
2.4011023916
 30
0.0
 11
8.6370374658
 21
2.1530555091
 31
0.0
  0
LINE
  5
5D3
330
5C9
100
AcDbEntity
  8
0
  6
Continuous
 62
     7
370
     0
100
AcDbLine
 10
8.6370374658
 20
2.1530555091
 30
0.0
 11
8.6052991829
 21
2.1530555091
 31
0.0
  0
LINE
  5
5D4
330
5C9
100
AcDbEntity
  8
0
  6
Continuous
 62
     7
370
     0
100
AcDbLine
 10
6.8049198639
 20
3.2585951821
 30
0.0
 11
8.5198363868
 21
3.2585951821
 31
0.0
  0
LINE
  5
5D5
330
5C9
100
AcDbEntity
  8
0
  6
Continuous
 62
     7
370
     0
100
AcDbLine
 10
7.343393292
 20
1.5459967569
 30
0.0
 11
8.5198363868
 21
1.5459967569
 31
0.0
  0
LINE
  5
5D6
330
5C9
100
AcDbEntity
  8
0
  6
Continuous
 62
     7
370
     0
100
AcDbLine
 10
8.3635863868
 20
3.2585951821
 30
0.0
 11
8.3635863868
 21
2.6832747298
 31
0.0
  0
LINE
  5
5D7
330
5C9
100
AcDbEntity
  8
0
  6
Continuous
 62
     7
370
     0
100
AcDbLine
 10
8.3635863868
 20
1.5459967569
 30
0.0
 11
8.3635863868
 21
2.1213172091
 31
0.0
  0
MTEXT
  5
5D8
330
5C9
100
AcDbEntity
  8
0
  6
Continuous
 62
     7
370
     0
100
AcDbMText
 10
8.0671996626
 20
2.6366446731
 30
0.3576051271
 40
0.15625
 41
0.0
 71
     1
 72
     1
  1

  7
SLDTEXTSTYLE0
 73
     1
 44
1.0
  0
MTEXT
  5
5D9
330
5C9
100
AcDbEntity
  8
0
  6
Continuous
 62
     7
370
     0
100
AcDbMText
 10
8.0980699072
 20
2.6342575088
 30
0.3576051271
 40
0.15625
 41
0.0
 71
     1
 72
     1
  1
1.71
  7
SLDTEXTSTYLE0
 73
     1
 44
1.0
  0
MTEXT
  5
5DA
330
5C9
100
AcDbEntity
  8
0
  6
Continuous
 62
     7
370
     0
100
AcDbMText
 10
8.1615464557
 20
2.3544723349
 30
0.3576051271
 40
0.15625
 41
0.0
 71
     1
 72
     1
  1
43.5
  7
SLDTEXTSTYLE0
 73
     1
 44
1.0
  0
MTEXT
  5
5DB
330
5C9
100
AcDbEntity
  8
0
  6
Continuous
 62
     7
370
     0
100
AcDbMText
 10
8.7194349279
 20
2.6366446731
 30
0.3576051271
 40
0.15625
 41
0.0
 71
     1
 72
     1
  1

  7
SLDTEXTSTYLE0
 73
     1
 44
1.0
  0
ENDBLK
  5
5CB
330
5C9
100
AcDbEntity
  8
0
100
AcDbBlockEnd
  0
ENDSEC
  0
SECTION
  2
ENTITIES
  0
LINE
  5
44
330
1F
100
AcDbEntity
  8
0
  6
Continuous
 62
     7
370
     0
100
AcDbLine
 10
0.3915645058
 20
13.3813414634
 30
0.0
 11
20.8615645058
 21
13.3813414634
 31
0.0
  0
LINE
  5
45
330
1F
100
AcDbEntity
  8
0
  6
Continuous
 62
     7
370
     0
100
AcDbLine
 10
20.8615645058
 20
0.4113414634
 30
0.0
 11
20.8615645058
 21
13.3813414634
 31
0.0
  0
LINE
  5
46
330
1F
100
AcDbEntity
  8
0
  6
Continuous
 62
     7
370
     0
100
AcDbLine
 10
20.8615645058
 20
0.4113414634
 30
0.0
 11
0.3915645058
 21
0.4113414634
 31
0.0
  0
LINE
  5
47
330
1F
100
AcDbEntity
  8
0
  6
Continuous
 62
     7
370
     0
100
AcDbLine
 10
0.3915645058
 20
13.3813414634
 30
0.0
 11
0.3915645058
 21
0.4113414634
 31
0.0
  0
LINE
  5
48
330
1F
100
AcDbEntity
  8
0
  6
Continuous
 62
     7
370
     0
100
AcDbLine
 10
0.3140645058
 20
13.4588414634
 30
0.0
 11
20.9390645058
 21
13.4588414634
 31
0.0
  0
LINE
  5
49
330
1F
100
AcDbEntity
  8
0
  6
Continuous
 62
     7
370
     0
100
AcDbLine
 10
20.9390645058
 20
0.3338414634
 30
0.0
 11
0.3140645058
 21
0.3338414634
 31
0.0
  0
LINE
  5
4A
330
1F
100
AcDbEntity
  8
0
  6
Continuous
 62
     7
370
     0
100
AcDbLine
 10
0.3140645058
 20
13.4588414634
 30
0.0
 11
0.3140645058
 21
0.3338414634
 31
0.0
  0
LINE
  5
4B
330
1F
100
AcDbEntity
  8
0
  6
Continuous
 62
     7
370
     0
100
AcDbLine
 10
20.9390645058
 20
0.3338414634
 30
0.0
 11
20.9390645058
 21
13.4588414634
 31
0.0
  0
LINE
  5
4C
330
1F
100
AcDbEntity
  8
0
  6
Continuous
 62
     7
370
     0
100
AcDbLine
 10
0.3915645058
 20
12.8738414634
 30
0.0
 11
20.8615645058
 21
12.8738414634
 31
0.0
  0
LINE
  5
4D
330
1F
100
AcDbEntity
  8
0
  6
Continuous
 62
     7
370
     0
100
AcDbLine
 10
2.3046490259
 20
13.3813414634
 30
0.0
 11
2.3046490259
 21
12.8738414634
 31
0.0
  0
LINE
  5
4E
330
1F
100
AcDbEntity
  8
0
  6
Continuous
 62
     7
370
     0
100
AcDbLine
 10
1.3885398546
 20
13.3813414634
 30
0.0
 11
1.3885398546
 21
12.8738414634
 31
0.0
  0
LINE
  5
4F
330
1F
100
AcDbEntity
  8
0
  6
Continuous
 62
     7
370
     0
100
AcDbLine
 10
19.2990645058
 20
12.8738414634
 30
0.0
 11
19.2990645058
 21
13.3813414634
 31
0.0
  0
LINE
  5
50
330
1F
100
AcDbEntity
  8
0
  6
Continuous
 62
     7
370
     0
100
AcDbLine
 10
18.3615645058
 20
12.8738414634
 30
0.0
 11
18.3615645058
 21
13.3813414634
 31
0.0
  0
LINE
  5
51
330
1F
100
AcDbEntity
  8
0
  6
Continuous
 62
     7
370
     0
100
AcDbLine
 10
18.2840645058
 20
12.8738414634
 30
0.0
 11
18.2840645058
 21
13.3813414634
 31
0.0
  0
LINE
  5
52
330
1F
100
AcDbEntity
  8
0
  6
Continuous
 62
     7
370
     0
100
AcDbLine
 10
0.5595973965
 20
12.9702001448
 30
0.0
 11
0.5595973965
 21
13.3021185874
 31
0.0
  0
LINE
  5
53
330
1F
100
AcDbEntity
  8
0
  6
Continuous
 62
     7
370
     0
100
AcDbLine
 10
0.7907289304
 20
12.9909450474
 30
0.0
 11
0.7907289304
 21
13.3021185874
 31
0.0
  0
LINE
  5
54
330
1F
100
AcDbEntity
  8
0
  6
Continuous
 62
     7
370
     0
100
AcDbLine
 10
0.8802923998
 20
13.0243549411
 30
0.0
 11
0.8802923998
 21
13.3021185874
 31
0.0
  0
LINE
  5
55
330
1F
100
AcDbEntity
  8
0
  6
Continuous
 62
     7
370
     0
100
AcDbLine
 10
0.8514009581
 20
13.0243549411
 30
0.0
 11
0.8514009581
 21
13.3021185874
 31
0.0
  0
LINE
  5
56
330
1F
100
AcDbEntity
  8
0
  6
Continuous
 62
     7
370
     0
100
AcDbLine
 10
1.0088526519
 20
12.9702001448
 30
0.0
 11
1.0088526519
 21
13.3021185874
 31
0.0
  0
LINE
  5
57
330
1F
100
AcDbEntity
  8
0
  6
Continuous
 62
     7
370
     0
100
AcDbLine
 10
0.9409644274
 20
12.9909450474
 30
0.0
 11
0.9409644274
 21
13.3021185874
 31
0.0
  0
LINE
  5
58
330
1F
100
AcDbEntity
  8
0
  6
Continuous
 62
     7
370
     0
100
AcDbLine
 10
0.8114738331
 20
12.9702001448
 30
0.0
 11
0.9202195248
 21
12.9702001448
 31
0.0
  0
LINE
  5
59
330
1F
100
AcDbEntity
  8
0
  6
Continuous
 62
     7
370
     0
100
AcDbLine
 10
0.5595973965
 20
12.9702001448
 30
0.0
 11
0.6664957309
 21
12.9702001448
 31
0.0
  0
LINE
  5
5A
330
1F
100
AcDbEntity
  8
0
  6
Continuous
 62
     7
370
     0
100
AcDbLine
 10
0.6664957309
 20
13.127861405
 30
0.0
 11
0.5754876894
 21
13.127861405
 31
0.0
  0
LINE
  5
5B
330
1F
100
AcDbEntity
  8
0
  6
Continuous
 62
     7
370
     0
100
AcDbLine
 10
0.6664957309
 20
13.1444573271
 30
0.0
 11
0.5754876894
 21
13.1444573271
 31
0.0
  0
LINE
  5
5C
330
1F
100
AcDbEntity
  8
0
  6
Continuous
 62
     7
370
     0
100
AcDbLine
 10
0.5754876894
 20
13.1444573271
 30
0.0
 11
0.5754876894
 21
13.1361593661
 31
0.0
  0
LINE
  5
5D
330
1F
100
AcDbEntity
  8
0
  6
Continuous
 62
     7
370
     0
100
AcDbLine
 10
0.5754876894
 20
13.127861405
 30
0.0
 11
0.5754876894
 21
13.1361593661
 31
0.0
  0
LINE
  5
5E
330
1F
100
AcDbEntity
  8
0
  6
Continuous
 62
     7
370
     0
100
AcDbLine
 10
1.0088526519
 20
12.9702001448
 30
0.0
 11
1.0501395545
 21
12.9702001448
 31
0.0
  0
LINE
  5
5F
330
1F
100
AcDbEntity
  8
0
  6
Continuous
 62
     7
370
     0
100
AcDbLine
 10
1.1663110094
 20
13.0863715997
 30
0.0
 11
1.1663110094
 21
13.1859471325
 31
0.0
  0
LINE
  5
60
330
1F
100
AcDbEntity
  8
0
  6
Continuous
 62
     7
370
     0
100
AcDbLine
 10
1.1052630371
 20
13.127861405
 30
0.0
 11
1.1052630371
 21
13.1444573271
 31
0.0
  0
LINE
  5
61
330
1F
100
AcDbEntity
  8
0
  6
Continuous
 62
     7
370
     0
100
AcDbLine
 10
1.0536410502
 20
13.127861405
 30
0.0
 11
1.0536410502
 21
13.1444573271
 31
0.0
  0
LINE
  5
62
330
1F
100
AcDbEntity
  8
0
  6
Continuous
 62
     7
370
     0
100
AcDbLine
 10
1.1052630371
 20
13.127861405
 30
0.0
 11
1.0536410502
 21
13.127861405
 31
0.0
  0
LINE
  5
63
330
1F
100
AcDbEntity
  8
0
  6
Continuous
 62
     7
370
     0
100
AcDbLine
 10
1.1052630371
 20
13.1444573271
 30
0.0
 11
1.0536410502
 21
13.1444573271
 31
0.0
  0
LINE
  5
64
330
1F
100
AcDbEntity
  8
0
  6
Continuous
 62
     7
370
     0
100
AcDbLine
 10
0.8802923998
 20
13.3021185874
 30
0.0
 11
0.9409644274
 21
13.3021185874
 31
0.0
  0
LINE
  5
65
330
1F
100
AcDbEntity
  8
0
  6
Continuous
 62
     7
370
     0
100
AcDbLine
 10
0.5595973965
 20
13.3021185874
 30
0.0
 11
0.6664957309
 21
13.3021185874
 31
0.0
  0
LINE
  5
66
330
1F
100
AcDbEntity
  8
0
  6
Continuous
 62
     7
370
     0
100
AcDbLine
 10
0.7907289304
 20
13.3021185874
 30
0.0
 11
0.8514009581
 21
13.3021185874
 31
0.0
  0
LINE
  5
67
330
1F
100
AcDbEntity
  8
0
  6
Continuous
 62
     7
370
     0
100
AcDbLine
 10
1.0088526519
 20
13.3021185874
 30
0.0
 11
1.0501395545
 21
13.3021185874
 31
0.0
  0
LINE
  5
68
330
1F
100
AcDbEntity
  8
0
  6
Continuous
 62
     7
370
     0
100
AcDbLine
 10
1.3126250325
 20
13.3813414634
 30
0.0
 11
1.3126250325
 21
12.8738414634
 31
0.0
  0
LINE
  5
69
330
1F
100
AcDbEntity
  8
0
  6
Continuous
 62
     7
370
     0
100
AcDbLine
 10
10.4789942212
 20
12.8738414634
 30
0.0
 11
10.4789942212
 21
13.3813414634
 31
0.0
  0
LINE
  5
6A
330
1F
100
AcDbEntity
  8
0
  6
Continuous
 62
     7
370
     0
100
AcDbLine
 10
10.5564942212
 20
12.8738414634
 30
0.0
 11
10.5564942212
 21
13.3813414634
 31
0.0
  0
LINE
  5
6B
330
1F
100
AcDbEntity
  8
0
  6
Continuous
 62
     7
370
     0
100
AcDbLine
 10
11.4939942212
 20
12.8738414634
 30
0.0
 11
11.4939942212
 21
13.3813414634
 31
0.0
  0
ARC
  5
6C
330
1F
100
AcDbEntity
  8
0
  6
Continuous
 62
     7
370
     0
100
AcDbCircle
 10
0.6664957309
 20
13.2232879573
 30
0.0
 40
0.0788306301232229
100
AcDbArc
 50
270.0
 51
90.0
  0
ARC
  5
6D
330
1F
100
AcDbEntity
  8
0
  6
Continuous
 62
     7
370
     0
100
AcDbCircle
 10
1.0501395545
 20
13.1859471325
 30
0.0
 40
0.1161714549184332
100
AcDbArc
 50
0.0
 51
90.0
  0
ARC
  5
6E
330
1F
100
AcDbEntity
  8
0
  6
Continuous
 62
     7
370
     0
100
AcDbCircle
 10
0.6664957309
 20
13.0490307749
 30
0.0
 40
0.0788306301232229
100
AcDbArc
 50
270.0
 51
90.0
  0
ARC
  5
6F
330
1F
100
AcDbEntity
  8
0
  6
Continuous
 62
     7
370
     0
100
AcDbCircle
 10
0.8114738331
 20
12.9909450474
 30
0.0
 40
0.0207449026640117
100
AcDbArc
 50
180.0
 51
270.0
  0
ARC
  5
70
330
1F
100
AcDbEntity
  8
0
  6
Continuous
 62
     7
370
     0
100
AcDbCircle
 10
0.8636964777
 20
13.0243549411
 30
0.0
 40
0.0165959221312002
100
AcDbArc
 50
277.4442840975
 51
0.0
  0
ARC
  5
71
330
1F
100
AcDbEntity
  8
0
  6
Continuous
 62
     7
370
     0
100
AcDbCircle
 10
0.8679968802
 20
13.0243549411
 30
0.0
 40
0.0165959221312139
100
AcDbArc
 50
180.0
 51
262.5557159021
  0
ARC
  5
72
330
1F
100
AcDbEntity
  8
0
  6
Continuous
 62
     7
370
     0
100
AcDbCircle
 10
1.0501395545
 20
13.0863715997
 30
0.0
 40
0.1161714549184332
100
AcDbArc
 50
270.0
 51
0.0
  0
ARC
  5
73
330
1F
100
AcDbEntity
  8
0
  6
Continuous
 62
     7
370
     0
100
AcDbCircle
 10
0.9202195248
 20
12.9909450474
 30
0.0
 40
0.0207449026640063
100
AcDbArc
 50
270.0
 51
0.0
  0
INSERT
  5
7E
330
1F
100
AcDbEntity
  8
0
  6
Continuous
 62
     7
370
     0
100
AcDbBlockReference
  2
SW_NOTE_0
 10
10.946602349
 20
3.2025071998
 30
0.0
  0
MTEXT
  5
7F
330
1F
100
AcDbEntity
  8
0
  6
Continuous
 62
     7
370
     0
100
AcDbMText
 10
20.0910916332
 20
13.2616454301
 30
0.0
 40
0.234375
 41
0.0
 71
     2
 72
     1
  1
10-7-14
  7
SLDTEXTSTYLE0
 73
     1
 44
1.0
  0
MTEXT
  5
80
330
1F
100
AcDbEntity
  8
0
  6
Continuous
 62
     7
370
     0
100
AcDbMText
 10
6.1511782585
 20
13.2497198114
 30
0.0
 40
0.234375
 41
0.0
 71
     2
 72
     1
  1
SNAP UTILITY BOX
  7
SLDTEXTSTYLE0
 73
     1
 44
1.0
  0
MTEXT
  5
82
330
1F
100
AcDbEntity
  8
0
  6
Continuous
 62
     7
370
     0
100
AcDbMText
 10
14.8290929019
 20
13.2616454416
 30
0.0
 40
0.234375
 41
0.0
 71
     2
 72
     1
  1
CU-18431-B     CU-18431-W
  7
SLDTEXTSTYLE1
 73
     1
 44
1.0
  0
INSERT
  5
88
330
1F
100
AcDbEntity
  8
0
  6
Continuous
 62
     7
370
     0
100
AcDbBlockReference
  2
SW_NOTE_1
 10
1.5855426558
 20
13.1326727946
 30
0.0
  0
INSERT
  5
8E
330
1F
100
AcDbEntity
  8
0
  6
Continuous
 62
     7
370
     0
100
AcDbBlockReference
  2
SW_NOTE_2
 10
10.8048081537
 20
13.1234848169
 30
0.0
  0
INSERT
  5
94
330
1F
100
AcDbEntity
  8
0
  6
Continuous
 62
     7
370
     0
100
AcDbBlockReference
  2
SW_NOTE_3
 10
18.3857982843
 20
13.1292294091
 30
0.0
  0
LINE
  5
95
330
1F
100
AcDbEntity
  8
0
  6
Continuous
 62
     7
370
    15
100
AcDbLine
 10
3.7690823033
 20
7.4575734358
 30
0.0
 11
3.7690823033
 21
10.4733214776
 31
0.0
  0
ARC
  5
96
330
1F
100
AcDbEntity
  8
0
  6
Continuous
 62
     7
370
    15
100
AcDbCircle
 10
3.8045153392
 20
7.4575734409
 30
0.0
 40
0.0354330708661417
100
AcDbArc
 50
180.0
 51
270.0
  0
LINE
  5
97
330
1F
100
AcDbEntity
  8
0
  6
Continuous
 62
     7
370
    15
100
AcDbLine
 10
6.7966412753
 20
7.4221403518
 30
0.0
 11
3.8045153873
 21
7.4221403518
 31
0.0
  0
ARC
  5
98
330
1F
100
AcDbEntity
  8
0
  6
Continuous
 62
     7
370
    15
100
AcDbCircle
 10
6.7966413235
 20
7.4575734409
 30
0.0
 40
0.0354330708661417
100
AcDbArc
 50
270.0
 51
0.0
  0
LINE
  5
99
330
1F
100
AcDbEntity
  8
0
  6
Continuous
 62
     7
370
    15
100
AcDbLine
 10
6.8320743594
 20
10.4733214776
 30
0.0
 11
6.8320743594
 21
7.4575734358
 31
0.0
  0
ARC
  5
9A
330
1F
100
AcDbEntity
  8
0
  6
Continuous
 62
     7
370
    15
100
AcDbCircle
 10
6.7966413235
 20
10.4733214724
 30
0.0
 40
0.0354330708661417
100
AcDbArc
 50
0.0
 51
90.0
  0
ARC
  5
9B
330
1F
100
AcDbEntity
  8
0
  6
Continuous
 62
     7
370
    15
100
AcDbCircle
 10
3.8045153392
 20
10.4733214724
 30
0.0
 40
0.0354330708661417
100
AcDbArc
 50
90.0
 51
180.0
  0
ARC
  5
9C
330
1F
100
AcDbEntity
  8
0
  6
Continuous
 62
     7
370
    15
100
AcDbCircle
 10
3.8045153392
 20
7.4575734409
 30
0.0
 40
0.059055118110237
100
AcDbArc
 50
180.0
 51
270.0
  0
LINE
  5
9D
330
1F
100
AcDbEntity
  8
0
  6
Continuous
 62
     7
370
    15
100
AcDbLine
 10
3.7454601495
 20
7.4575734358
 30
0.0
 11
3.7454601495
 21
10.4733214776
 31
0.0
  0
ARC
  5
9E
330
1F
100
AcDbEntity
  8
0
  6
Continuous
 62
     7
370
    15
100
AcDbCircle
 10
3.8045153392
 20
10.4733214724
 30
0.0
 40
0.0590551181102361
100
AcDbArc
 50
90.0
 51
180.0
  0
LINE
  5
9F
330
1F
100
AcDbEntity
  8
0
  6
Continuous
 62
     7
370
    15
100
AcDbLine
 10
3.8045153873
 20
10.5323765687
 30
0.0
 11
6.7966412753
 21
10.5323765687
 31
0.0
  0
ARC
  5
A0
330
1F
100
AcDbEntity
  8
0
  6
Continuous
 62
     7
370
    15
100
AcDbCircle
 10
6.7966413235
 20
10.4733214724
 30
0.0
 40
0.0590551181102361
100
AcDbArc
 50
0.0
 51
90.0
  0
LINE
  5
A1
330
1F
100
AcDbEntity
  8
0
  6
Continuous
 62
     7
370
    15
100
AcDbLine
 10
6.8556965131
 20
10.4733214776
 30
0.0
 11
6.8556965131
 21
7.4575734358
 31
0.0
  0
ARC
  5
A2
330
1F
100
AcDbEntity
  8
0
  6
Continuous
 62
     7
370
    15
100
AcDbCircle
 10
6.7966413235
 20
7.4575734409
 30
0.0
 40
0.059055118110237
100
AcDbArc
 50
270.0
 51
0.0
  0
LINE
  5
A3
330
1F
100
AcDbEntity
  8
0
  6
Continuous
 62
     7
370
    15
100
AcDbLine
 10
6.7966412753
 20
7.3985183447
 30
0.0
 11
3.8045153873
 21
7.3985183447
 31
0.0
  0
LINE
  5
A4
330
1F
100
AcDbEntity
  8
0
  6
Continuous
 62
     7
370
    15
100
AcDbLine
 10
3.8045153873
 20
10.5087545616
 30
0.0
 11
6.7966412753
 21
10.5087545616
 31
0.0
  0
ARC
  5
A5
330
1F
100
AcDbEntity
  8
0
  6
Continuous
 62
     7
370
    15
100
AcDbCircle
 10
3.8045153392
 20
10.4733214724
 30
0.0
 40
0.0993731414499675
100
AcDbArc
 50
90.0
 51
135.0
  0
ARC
  5
A6
330
1F
100
AcDbEntity
  8
0
  6
Continuous
 62
     7
370
    15
100
AcDbCircle
 10
3.8045153392
 20
10.4733214724
 30
0.0
 40
0.0808034558772013
100
AcDbArc
 50
90.0
 51
179.9999999991
  0
ARC
  5
A7
330
1F
100
AcDbEntity
  8
0
  6
Continuous
 62
     7
370
    15
100
AcDbCircle
 10
3.8045153392
 20
10.4733214724
 30
0.0
 40
0.091119947862103
100
AcDbArc
 50
164.1763762381
 51
179.9999999988
  0
LWPOLYLINE
  5
A8
330
1F
100
AcDbEntity
  8
0
  6
Continuous
 62
     7
370
    15
100
AcDbPolyline
 90
        7
 70
   128
 43
0.0
 10
3.7477211367
 20
10.5471989708
 10
3.7476803639
 20
10.5468120686
 10
3.7463093397
 20
10.5453955783
 10
3.7417306059
 20
10.5408668573
 10
3.7308276786
 20
10.527709836
 10
3.7207064755
 20
10.5092451559
 10
3.7168483067
 20
10.4981678439
  0
ARC
  5
A9
330
1F
100
AcDbEntity
  8
0
  6
Continuous
 62
     7
370
    15
100
AcDbCircle
 10
6.7966413235
 20
7.4575734409
 30
0.0
 40
0.0993731414499601
100
AcDbArc
 50
270.0
 51
314.9999999999
  0
ARC
  5
AA
330
1F
100
AcDbEntity
  8
0
  6
Continuous
 62
     7
370
    15
100
AcDbCircle
 10
6.7966413235
 20
7.4575734409
 30
0.0
 40
0.0808034558772013
100
AcDbArc
 50
270.0
 51
0.0000000009
  0
ARC
  5
AB
330
1F
100
AcDbEntity
  8
0
  6
Continuous
 62
     7
370
    15
100
AcDbCircle
 10
6.7966413235
 20
7.4575734409
 30
0.0
 40
0.0911199478620693
100
AcDbArc
 50
344.1763762381
 51
0.0000000012
  0
LWPOLYLINE
  5
AC
330
1F
100
AcDbEntity
  8
0
  6
Continuous
 62
     7
370
    15
100
AcDbPolyline
 90
        7
 70
   128
 43
0.0
 10
6.8534355259
 20
7.3836959426
 10
6.8534762988
 20
7.3840828447
 10
6.8548473229
 20
7.3854993351
 10
6.8594260567
 20
7.3900280561
 10
6.8703289841
 20
7.4031850774
 10
6.8804501872
 20
7.4216497574
 10
6.8843083559
 20
7.4327270695
  0
LINE
  5
AD
330
1F
100
AcDbEntity
  8
0
  6
Continuous
 62
     7
370
    15
100
AcDbLine
 10
3.7237119341
 20
10.4733214776
 30
0.0
 11
3.7237119341
 21
7.4575734358
 31
0.0
  0
LINE
  5
AE
330
1F
100
AcDbEntity
  8
0
  6
Continuous
 62
     7
370
    15
100
AcDbLine
 10
3.7133953733
 20
7.4575734358
 30
0.0
 11
3.7133953733
 21
10.4733214776
 31
0.0
  0
LINE
  5
AF
330
1F
100
AcDbEntity
  8
0
  6
Continuous
 62
     7
370
    15
100
AcDbLine
 10
6.7966412753
 20
7.3767699826
 30
0.0
 11
3.8045153873
 21
7.3767699826
 31
0.0
  0
LINE
  5
B0
330
1F
100
AcDbEntity
  8
0
  6
Continuous
 62
     7
370
    15
100
AcDbLine
 10
3.8045153873
 20
7.3582002904
 30
0.0
 11
6.7966412753
 21
7.3582002904
 31
0.0
  0
LINE
  5
B1
330
1F
100
AcDbEntity
  8
0
  6
Continuous
 62
     7
370
    15
100
AcDbLine
 10
6.8774447286
 20
7.4575734358
 30
0.0
 11
6.8774447286
 21
10.4733214776
 31
0.0
  0
LINE
  5
B2
330
1F
100
AcDbEntity
  8
0
  6
Continuous
 62
     7
370
    15
100
AcDbLine
 10
6.8877612894
 20
10.4733214776
 30
0.0
 11
6.8877612894
 21
7.4575734358
 31
0.0
  0
ARC
  5
B3
330
1F
100
AcDbEntity
  8
0
  6
Continuous
 62
     7
370
    15
100
AcDbCircle
 10
3.8045153392
 20
7.4575734409
 30
0.0
 40
0.0808034558772706
100
AcDbArc
 50
179.9999999981
 51
270.0
  0
LINE
  5
B4
330
1F
100
AcDbEntity
  8
0
  6
Continuous
 62
     7
370
    15
100
AcDbLine
 10
3.8045153873
 20
10.5541249308
 30
0.0
 11
6.7966412753
 21
10.5541249308
 31
0.0
  0
ARC
  5
B5
330
1F
100
AcDbEntity
  8
0
  6
Continuous
 62
     7
370
    15
100
AcDbCircle
 10
6.7966413235
 20
10.4733214724
 30
0.0
 40
0.0808034558772697
100
AcDbArc
 50
0.0000000019
 51
90.0
  0
LINE
  5
B6
330
1F
100
AcDbEntity
  8
0
  6
Continuous
 62
     7
370
    15
100
AcDbLine
 10
6.7966412753
 20
10.572694623
 30
0.0
 11
3.8045153873
 21
10.572694623
 31
0.0
  0
ARC
  5
B7
330
1F
100
AcDbEntity
  8
0
  6
Continuous
 62
     7
370
    15
100
AcDbCircle
 10
3.7903319946
 20
7.4447614224
 30
0.0
 40
0.0744625948894025
100
AcDbArc
 50
189.3007119175
 51
235.0930650977
  0
ARC
  5
B8
330
1F
100
AcDbEntity
  8
0
  6
Continuous
 62
     7
370
    15
100
AcDbCircle
 10
3.8045153392
 20
7.4575734409
 30
0.0
 40
0.0911199478620922
100
AcDbArc
 50
179.9999999997
 51
195.8236237619
  0
ARC
  5
B9
330
1F
100
AcDbEntity
  8
0
  6
Continuous
 62
     7
370
    15
100
AcDbCircle
 10
3.8045153392
 20
7.4575734409
 30
0.0
 40
0.0993731414500161
100
AcDbArc
 50
225.0000000001
 51
270.0
  0
ARC
  5
BA
330
1F
100
AcDbEntity
  8
0
  6
Continuous
 62
     7
370
    15
100
AcDbCircle
 10
6.810824668
 20
10.486133491
 30
0.0
 40
0.0744625948894111
100
AcDbArc
 50
9.3007119175
 51
55.0930650977
  0
ARC
  5
BB
330
1F
100
AcDbEntity
  8
0
  6
Continuous
 62
     7
370
    15
100
AcDbCircle
 10
6.7966413235
 20
10.4733214724
 30
0.0
 40
0.0911199478621091
100
AcDbArc
 50
0.0000000003
 51
15.8236237619
  0
ARC
  5
BC
330
1F
100
AcDbEntity
  8
0
  6
Continuous
 62
     7
370
    15
100
AcDbCircle
 10
6.7966413235
 20
10.4733214724
 30
0.0
 40
0.0993731414500161
100
AcDbArc
 50
45.0
 51
90.0
  0
LINE
  5
BD
330
1F
100
AcDbEntity
  8
0
  6
Continuous
 62
     7
370
    15
100
AcDbLine
 10
4.9856176864
 20
7.4685423624
 30
0.0
 11
3.8154843139
 21
7.4685423624
 31
0.0
  0
LINE
  5
BE
330
1F
100
AcDbEntity
  8
0
  6
Continuous
 62
     7
370
    15
100
AcDbLine
 10
4.9856176864
 20
7.4221403518
 30
0.0
 11
4.9856176864
 21
7.4685423624
 31
0.0
  0
LINE
  5
BF
330
1F
100
AcDbEntity
  8
0
  6
Continuous
 62
     7
370
    15
100
AcDbLine
 10
4.9856176864
 20
10.462352551
 30
0.0
 11
4.9856176864
 21
10.5087545616
 31
0.0
  0
LINE
  5
C0
330
1F
100
AcDbEntity
  8
0
  6
Continuous
 62
     7
370
    15
100
AcDbLine
 10
3.8154843139
 20
10.462352551
 30
0.0
 11
4.9856176864
 21
10.462352551
 31
0.0
  0
LINE
  5
C1
330
1F
100
AcDbEntity
  8
0
  6
Continuous
 62
     7
370
    15
100
AcDbLine
 10
3.8154843139
 20
7.4685423624
 30
0.0
 11
3.8154843139
 21
10.462352551
 31
0.0
  0
LINE
  5
C2
330
1F
100
AcDbEntity
  8
0
  6
Continuous
 62
     7
370
    15
100
AcDbLine
 10
5.6155389762
 20
10.462352551
 30
0.0
 11
6.7856723487
 21
10.462352551
 31
0.0
  0
LINE
  5
C3
330
1F
100
AcDbEntity
  8
0
  6
Continuous
 62
     7
370
    15
100
AcDbLine
 10
5.6155389762
 20
10.5087545616
 30
0.0
 11
5.6155389762
 21
10.462352551
 31
0.0
  0
LINE
  5
C4
330
1F
100
AcDbEntity
  8
0
  6
Continuous
 62
     7
370
    15
100
AcDbLine
 10
6.7856723487
 20
7.4685423624
 30
0.0
 11
5.6155389762
 21
7.4685423624
 31
0.0
  0
LINE
  5
C5
330
1F
100
AcDbEntity
  8
0
  6
Continuous
 62
     7
370
    15
100
AcDbLine
 10
6.7856723487
 20
10.462352551
 30
0.0
 11
6.7856723487
 21
7.4685423624
 31
0.0
  0
LINE
  5
C6
330
1F
100
AcDbEntity
  8
0
  6
Continuous
 62
     7
370
    15
100
AcDbLine
 10
5.6155389762
 20
7.4685423624
 30
0.0
 11
5.6155389762
 21
7.4221403518
 31
0.0
  0
LINE
  5
C7
330
1F
100
AcDbEntity
  8
0
  6
Continuous
 62
     7
370
    15
100
AcDbLine
 10
6.7732925051
 20
10.4499727073
 30
0.0
 11
6.7856723487
 21
10.462352551
 31
0.0
  0
LINE
  5
C8
330
1F
100
AcDbEntity
  8
0
  6
Continuous
 62
     7
370
    15
100
AcDbLine
 10
3.8278641576
 20
10.4499727073
 30
0.0
 11
6.7732925051
 21
10.4499727073
 31
0.0
  0
LINE
  5
C9
330
1F
100
AcDbEntity
  8
0
  6
Continuous
 62
     7
370
    15
100
AcDbLine
 10
3.8154843139
 20
10.462352551
 30
0.0
 11
3.8278641576
 21
10.4499727073
 31
0.0
  0
LINE
  5
CA
330
1F
100
AcDbEntity
  8
0
  6
Continuous
 62
     7
370
    15
100
AcDbLine
 10
5.6155389762
 20
10.4582259853
 30
0.0
 11
4.9856176864
 21
10.4582259853
 31
0.0
  0
LINE
  5
CB
330
1F
100
AcDbEntity
  8
0
  6
Continuous
 62
     7
370
    15
100
AcDbLine
 10
5.6155389762
 20
10.462352551
 30
0.0
 11
5.6155389762
 21
10.4582259853
 31
0.0
  0
LINE
  5
CC
330
1F
100
AcDbEntity
  8
0
  6
Continuous
 62
     7
370
    15
100
AcDbLine
 10
4.9856176864
 20
10.4582259853
 30
0.0
 11
4.9856176864
 21
10.462352551
 31
0.0
  0
LINE
  5
CD
330
1F
100
AcDbEntity
  8
0
  6
Continuous
 62
     7
370
    15
100
AcDbLine
 10
6.7856723487
 20
7.4685423624
 30
0.0
 11
6.7732925051
 21
7.4809222061
 31
0.0
  0
LINE
  5
CE
330
1F
100
AcDbEntity
  8
0
  6
Continuous
 62
     7
370
    15
100
AcDbLine
 10
4.9856176864
 20
7.4726689281
 30
0.0
 11
5.6155389762
 21
7.4726689281
 31
0.0
  0
LINE
  5
CF
330
1F
100
AcDbEntity
  8
0
  6
Continuous
 62
     7
370
    15
100
AcDbLine
 10
3.8154843139
 20
7.4685423624
 30
0.0
 11
3.8278641576
 21
7.4809222061
 31
0.0
  0
LINE
  5
D0
330
1F
100
AcDbEntity
  8
0
  6
Continuous
 62
     7
370
    15
100
AcDbLine
 10
6.7732925051
 20
7.4809222061
 30
0.0
 11
3.8278641576
 21
7.4809222061
 31
0.0
  0
LINE
  5
D1
330
1F
100
AcDbEntity
  8
0
  6
Continuous
 62
     7
370
    15
100
AcDbLine
 10
4.9856176864
 20
7.4685423624
 30
0.0
 11
4.9856176864
 21
7.4726689281
 31
0.0
  0
LINE
  5
D2
330
1F
100
AcDbEntity
  8
0
  6
Continuous
 62
     7
370
    15
100
AcDbLine
 10
5.6155389762
 20
7.4726689281
 30
0.0
 11
5.6155389762
 21
7.4685423624
 31
0.0
  0
LINE
  5
D3
330
1F
100
AcDbEntity
  8
0
  6
Continuous
 62
     7
370
    15
100
AcDbLine
 10
3.8278641576
 20
7.4809222061
 30
0.0
 11
3.8278641576
 21
10.4499727073
 31
0.0
  0
LINE
  5
D4
330
1F
100
AcDbEntity
  8
0
  6
Continuous
 62
     7
370
    15
100
AcDbLine
 10
6.7732925051
 20
10.4499727073
 30
0.0
 11
6.7732925051
 21
7.4809222061
 31
0.0
  0
CIRCLE
  5
D5
330
1F
100
AcDbEntity
  8
0
  6
Continuous
 62
     7
370
    15
100
AcDbCircle
 10
4.2572712447
 20
7.9221403701
 30
0.0
 40
0.0393700787401912
  0
CIRCLE
  5
D6
330
1F
100
AcDbEntity
  8
0
  6
Continuous
 62
     7
370
    15
100
AcDbCircle
 10
4.2572712447
 20
7.9221403701
 30
0.0
 40
0.042806115143347
  0
CIRCLE
  5
D7
330
1F
100
AcDbEntity
  8
0
  6
Continuous
 62
     7
370
    15
100
AcDbCircle
 10
4.2572712447
 20
10.0087545433
 30
0.0
 40
0.1146741998172427
  0
CIRCLE
  5
D8
330
1F
100
AcDbEntity
  8
0
  6
Continuous
 62
     7
370
    15
100
AcDbCircle
 10
4.2572712447
 20
10.0087545433
 30
0.0
 40
0.0428061151433834
  0
CIRCLE
  5
D9
330
1F
100
AcDbEntity
  8
0
  6
Continuous
 62
     7
370
    15
100
AcDbCircle
 10
4.2572712447
 20
10.0087545433
 30
0.0
 40
0.1181102362203994
  0
CIRCLE
  5
DA
330
1F
100
AcDbEntity
  8
0
  6
Continuous
 62
     7
370
    15
100
AcDbCircle
 10
6.3438854179
 20
7.9221403701
 30
0.0
 40
0.1146741998172756
  0
CIRCLE
  5
DB
330
1F
100
AcDbEntity
  8
0
  6
Continuous
 62
     7
370
    15
100
AcDbCircle
 10
6.3438854179
 20
7.9221403701
 30
0.0
 40
0.1181102362204305
  0
CIRCLE
  5
DC
330
1F
100
AcDbEntity
  8
0
  6
Continuous
 62
     7
370
    15
100
AcDbCircle
 10
6.3438854179
 20
10.0087545433
 30
0.0
 40
0.0393700787402285
  0
CIRCLE
  5
DD
330
1F
100
AcDbEntity
  8
0
  6
Continuous
 62
     7
370
    15
100
AcDbCircle
 10
6.3438854179
 20
10.0087545433
 30
0.0
 40
0.0428061151433834
  0
CIRCLE
  5
DE
330
1F
100
AcDbEntity
  8
0
  6
Continuous
 62
     7
370
    15
100
AcDbCircle
 10
6.3438854179
 20
7.9221403701
 30
0.0
 40
0.0393700787401912
  0
CIRCLE
  5
DF
330
1F
100
AcDbEntity
  8
0
  6
Continuous
 62
     7
370
    15
100
AcDbCircle
 10
6.3438854179
 20
7.9221403701
 30
0.0
 40
0.042806115143347
  0
CIRCLE
  5
E0
330
1F
100
AcDbEntity
  8
0
  6
Continuous
 62
     7
370
    15
100
AcDbCircle
 10
4.2572712447
 20
10.0087545433
 30
0.0
 40
0.0393700787402285
  0
CIRCLE
  5
E1
330
1F
100
AcDbEntity
  8
0
  6
Continuous
 62
     7
370
    15
100
AcDbCircle
 10
6.3438854179
 20
10.0087545433
 30
0.0
 40
0.1146741998172427
  0
CIRCLE
  5
E2
330
1F
100
AcDbEntity
  8
0
  6
Continuous
 62
     7
370
    15
100
AcDbCircle
 10
4.2572712447
 20
7.9221403701
 30
0.0
 40
0.1146741998172756
  0
CIRCLE
  5
E3
330
1F
100
AcDbEntity
  8
0
  6
Continuous
 62
     7
370
    15
100
AcDbCircle
 10
4.2572712447
 20
7.9221403701
 30
0.0
 40
0.1181102362204305
  0
CIRCLE
  5
E4
330
1F
100
AcDbEntity
  8
0
  6
Continuous
 62
     7
370
    15
100
AcDbCircle
 10
6.3438854179
 20
10.0087545433
 30
0.0
 40
0.1181102362203994
  0
LINE
  5
E5
330
1F
100
AcDbEntity
  8
0
  6
Continuous
 62
     7
370
    15
100
AcDbLine
 10
3.4661651626
 20
10.471756269
 30
0.0
 11
3.7477165901
 21
10.5471977975
 31
0.0
  0
LINE
  5
E6
330
1F
100
AcDbEntity
  8
0
  6
Continuous
 62
     7
370
    15
100
AcDbLine
 10
6.8534400725
 20
7.3836971159
 30
0.0
 11
7.1349915
 21
7.4591386444
 31
0.0
  0
LINE
  5
E7
330
1F
100
AcDbEntity
  8
0
  6
Continuous
 62
     7
370
    15
100
AcDbLine
 10
3.7477165901
 20
7.3836971159
 30
0.0
 11
3.4661651626
 21
7.4591386444
 31
0.0
  0
LINE
  5
E8
330
1F
100
AcDbEntity
  8
0
  6
Continuous
 62
     7
370
    15
100
AcDbLine
 10
7.1349915
 20
10.471756269
 30
0.0
 11
6.8534400725
 21
10.5471977975
 31
0.0
  0
CIRCLE
  5
E9
330
1F
100
AcDbEntity
  8
0
  6
Continuous
 62
     7
370
    15
100
AcDbCircle
 10
3.5255360485
 20
9.9496994252
 30
0.0
 40
0.0885826771653537
  0
CIRCLE
  5
EA
330
1F
100
AcDbEntity
  8
0
  6
Continuous
 62
     7
370
    15
100
AcDbCircle
 10
3.5255360485
 20
7.9811954882
 30
0.0
 40
0.0885826771653546
  0
LINE
  5
EB
330
1F
100
AcDbEntity
  8
0
  6
Continuous
 62
     7
370
    15
100
AcDbLine
 10
3.3202634348
 20
7.6492814212
 30
0.0
 11
3.3202634348
 21
10.2816134922
 31
0.0
  0
LINE
  5
EC
330
1F
100
AcDbEntity
  8
0
  6
Continuous
 62
     7
370
    15
100
AcDbLine
 10
7.2808932279
 20
7.6492814212
 30
0.0
 11
7.2808932279
 21
10.2816134922
 31
0.0
  0
CIRCLE
  5
ED
330
1F
100
AcDbEntity
  8
0
  6
Continuous
 62
     7
370
    15
100
AcDbCircle
 10
7.0756206141
 20
7.9811954882
 30
0.0
 40
0.0885826771653546
  0
CIRCLE
  5
EE
330
1F
100
AcDbEntity
  8
0
  6
Continuous
 62
     7
370
    15
100
AcDbCircle
 10
7.0756206141
 20
9.9496994252
 30
0.0
 40
0.0885826771653537
  0
ARC
  5
EF
330
1F
100
AcDbEntity
  8
0
  6
Continuous
 62
     7
370
    15
100
AcDbCircle
 10
3.5171137644
 20
10.2816134501
 30
0.0
 40
0.1968503937007871
100
AcDbArc
 50
105.0
 51
180.0
  0
ARC
  5
F0
330
1F
100
AcDbEntity
  8
0
  6
Continuous
 62
     7
370
    15
100
AcDbCircle
 10
7.0840428983
 20
10.2816134501
 30
0.0
 40
0.1968503937007879
100
AcDbArc
 50
0.0
 51
75.0
  0
ARC
  5
F1
330
1F
100
AcDbEntity
  8
0
  6
Continuous
 62
     7
370
    15
100
AcDbCircle
 10
7.0840428983
 20
7.6492814633
 30
0.0
 40
0.1968503937007879
100
AcDbArc
 50
285.0
 51
0.0
  0
ARC
  5
F2
330
1F
100
AcDbEntity
  8
0
  6
Continuous
 62
     7
370
    15
100
AcDbCircle
 10
3.5171137644
 20
7.6492814633
 30
0.0
 40
0.1968503937007872
100
AcDbArc
 50
180.0
 51
255.0
  0
DIMENSION
  5
F3
330
1F
100
AcDbEntity
  8
0
  6
Continuous
 62
     7
370
     0
100
AcDbDimension
  2
*D5
 10
6.3438854179
 20
6.9450840767
 30
0.0
 11
5.3005783313
 21
6.9450840767
 31
0.0
 70
   160
 71
     2
 42
-1.0
  3
SLDDIMSTYLE0
100
AcDbAlignedDimension
 13
4.2572712447
 23
7.9221403701
 33
0.0
 14
6.3438854179
 24
7.9221403701
 34
0.0
100
AcDbRotatedDimension
  0
DIMENSION
  5
108
330
1F
100
AcDbEntity
  8
0
  6
Continuous
 62
     7
370
     0
100
AcDbDimension
  2
*D6
 10
7.0756206141
 20
6.353613576
 30
0.0
 11
5.3005783313
 21
6.353613576
 31
0.0
 70
   160
 71
     2
 42
-1.0
  3
SLDDIMSTYLE0
100
AcDbAlignedDimension
 13
3.5255360485
 23
7.792612811
 33
0.0
 14
7.0756206141
 24
7.792612811
 34
0.0
100
AcDbRotatedDimension
  0
DIMENSION
  5
11C
330
1F
100
AcDbEntity
  8
0
  6
Continuous
 62
     7
370
     0
100
AcDbDimension
  2
*D7
 10
7.9494200712
 20
9.9496994252
 30
0.0
 11
7.9494200712
 21
8.9654474567
 31
0.0
 70
   160
 71
     2
 42
-1.0
  3
SLDDIMSTYLE0
100
AcDbAlignedDimension
 13
7.2642032913
 23
7.9811954882
 33
0.0
 14
7.2642032913
 24
9.9496994252
 34
0.0
 50
90.0
100
AcDbRotatedDimension
  0
DIMENSION
  5
130
330
1F
100
AcDbEntity
  8
0
  6
Continuous
 62
     7
370
     0
100
AcDbDimension
  2
*D8
 10
8.5395595919
 20
10.0087545433
 30
0.0
 11
8.5395595919
 21
8.9654474567
 31
0.0
 70
   160
 71
     2
 42
-1.0
  3
SLDDIMSTYLE0
100
AcDbAlignedDimension
 13
6.3438854179
 23
7.9221403701
 33
0.0
 14
6.3438854179
 24
10.0087545433
 34
0.0
 50
90.0
100
AcDbRotatedDimension
  0
DIMENSION
  5
144
330
1F
100
AcDbEntity
  8
0
  6
Continuous
 62
     7
370
     0
100
AcDbDimension
  2
*D9
 10
4.2810391528
 20
9.9773684055
 30
0.0
 11
2.4692924864
 21
11.733514127
 31
0.0
 70
   163
  1
<>
 71
     1
 42
-1.0
  3
SLDDIMSTYLE1
100
AcDbDiametricDimension
 15
4.2335033366
 25
10.0401406811
 35
0.0
 40
0.0
  0
DIMENSION
  5
155
330
1F
100
AcDbEntity
  8
0
  6
Continuous
 62
     7
370
     0
100
AcDbDimension
  2
*D10
 10
3.5698846027
 20
8.0578772751
 30
0.0
 11
2.4003274533
 21
6.8688055531
 31
0.0
 70
   163
  1
<>
 71
     1
 42
-1.0
  3
SLDDIMSTYLE1
100
AcDbDiametricDimension
 15
3.4811874944
 25
7.9045137013
 35
0.0
 40
0.0
  0
DIMENSION
  5
165
330
1F
100
AcDbEntity
  8
0
  6
Continuous
 62
     7
370
     0
100
AcDbDimension
  2
*D11
 10
4.3576787318
 20
9.9533604223
 30
0.0
 11
1.6977159606
 21
10.9989414249
 31
0.0
 70
   163
  1
<> BOSS
 71
     1
 42
-1.0
  3
SLDDIMSTYLE2
100
AcDbDiametricDimension
 15
4.1568637576
 25
10.0641486643
 35
0.0
 40
0.0
  0
DIMENSION
  5
177
330
1F
100
AcDbEntity
  8
0
  6
Continuous
 62
     7
370
     0
100
AcDbDimension
  2
*D12
 10
7.280893292
 20
12.1556745723
 30
0.0
 11
5.3005783313
 21
12.1556745723
 31
0.0
 70
   160
 71
     2
 42
-1.0
  3
SLDDIMSTYLE0
100
AcDbAlignedDimension
 13
3.3202633707
 23
10.2816134501
 33
0.0
 14
7.280893292
 24
10.2816134501
 34
0.0
100
AcDbRotatedDimension
  0
DIMENSION
  5
18B
330
1F
100
AcDbEntity
  8
0
  6
Continuous
 62
     7
370
     0
100
AcDbDimension
  2
*D13
 10
6.8774447793
 20
11.5747144265
 30
0.0
 11
5.3005783313
 21
11.5747144265
 31
0.0
 70
   160
 71
     2
 42
-1.0
  3
SLDDIMSTYLE0
100
AcDbAlignedDimension
 13
3.7237118833
 23
10.4733214724
 33
0.0
 14
6.8774447793
 24
10.4733214724
 34
0.0
 50
0.0
100
AcDbRotatedDimension
  0
DIMENSION
  5
19F
330
1F
100
AcDbEntity
  8
0
  6
Continuous
 62
     7
370
     0
100
AcDbDimension
  2
*D14
 10
6.7856723601
 20
10.9989414249
 30
0.0
 11
5.3005783313
 21
10.9989414249
 31
0.0
 70
   160
 71
     2
 42
-1.0
  3
SLDDIMSTYLE0
100
AcDbAlignedDimension
 13
3.8154843025
 23
10.4623525091
 33
0.0
 14
6.7856723601
 24
10.4623525091
 34
0.0
100
AcDbRotatedDimension
  0
DIMENSION
  5
1B3
330
1F
100
AcDbEntity
  8
0
  6
Continuous
 62
     7
370
     0
100
AcDbDimension
  2
*D15
 10
1.3517435042
 20
7.3582002995
 30
0.0
 11
1.3517435042
 21
8.9654474567
 31
0.0
 70
   160
 71
     2
 42
-1.0
  3
SLDDIMSTYLE0
100
AcDbAlignedDimension
 13
3.8045153392
 23
10.5726946139
 33
0.0
 14
3.8045153392
 24
7.3582002995
 34
0.0
 50
90.0
100
AcDbRotatedDimension
  0
DIMENSION
  5
1C7
330
1F
100
AcDbEntity
  8
0
  6
Continuous
 62
     7
370
     0
100
AcDbDimension
  2
*D16
 10
2.023361138
 20
7.3767699851
 30
0.0
 11
2.023361138
 21
8.9654474567
 31
0.0
 70
   160
 71
     2
 42
-1.0
  3
SLDDIMSTYLE0
100
AcDbAlignedDimension
 13
3.8045153392
 23
10.5541249283
 33
0.0
 14
3.8045153392
 24
7.3767699851
 34
0.0
 50
90.0
100
AcDbRotatedDimension
  0
DIMENSION
  5
1DB
330
1F
100
AcDbEntity
  8
0
  6
Continuous
 62
     7
370
     0
100
AcDbDimension
  2
*D17
 10
2.7236144111
 20
7.4685424043
 30
0.0
 11
2.7236144111
 21
8.9654474567
 31
0.0
 70
   160
 71
     2
 42
-1.0
  3
SLDDIMSTYLE0
100
AcDbAlignedDimension
 13
3.8154843025
 23
10.4623525091
 33
0.0
 14
3.8154843025
 24
7.4685424043
 34
0.0
 50
90.0
100
AcDbRotatedDimension
  0
INSERT
  5
1F5
102
{ACAD_REACTORS
330
1F7
102
}
330
1F
100
AcDbEntity
  8
0
  6
Continuous
 62
     7
370
     0
100
AcDbBlockReference
  2
SW_NOTE_4
 10
7.7546835498
 20
6.9193968121
 30
0.0
  0
LEADER
  5
1F7
330
1F
100
AcDbEntity
  8
0
  6
Continuous
 62
     7
370
     0
100
AcDbLeader
  3
SLDDIMSTYLE3
 73
     2
 76
     3
 10
6.3722338626
 20
7.8900665618
 30
0.0
 10
7.4421835498
 20
6.9193968121
 30
0.0
 10
7.7546835498
 20
6.9193968121
 30
0.0
340
1F5
  0
INSERT
  5
203
330
1F
100
AcDbEntity
  8
0
  6
Continuous
 62
     7
370
     0
100
AcDbBlockReference
  2
SW_CENTERMARKSYMBOL_0
 10
3.5255360485
 20
7.9811954882
 30
0.0
  0
INSERT
  5
217
330
1F
100
AcDbEntity
  8
0
  6
Continuous
 62
     7
370
     0
100
AcDbBlockReference
  2
SW_CENTERMARKSYMBOL_1
 10
3.5255360485
 20
9.9496994252
 30
0.0
  0
INSERT
  5
223
330
1F
100
AcDbEntity
  8
0
  6
Continuous
 62
     7
370
     0
100
AcDbBlockReference
  2
SW_CENTERMARKSYMBOL_2
 10
7.0756206141
 20
7.9811954882
 30
0.0
  0
INSERT
  5
22F
330
1F
100
AcDbEntity
  8
0
  6
Continuous
 62
     7
370
     0
100
AcDbBlockReference
  2
SW_CENTERMARKSYMBOL_3
 10
6.3438854179
 20
10.0087545433
 30
0.0
  0
INSERT
  5
23B
330
1F
100
AcDbEntity
  8
0
  6
Continuous
 62
     7
370
     0
100
AcDbBlockReference
  2
SW_CENTERMARKSYMBOL_4
 10
4.2572712447
 20
10.0087545433
 30
0.0
  0
INSERT
  5
247
330
1F
100
AcDbEntity
  8
0
  6
Continuous
 62
     7
370
     0
100
AcDbBlockReference
  2
SW_CENTERMARKSYMBOL_5
 10
4.2572712447
 20
7.9221403701
 30
0.0
  0
INSERT
  5
253
330
1F
100
AcDbEntity
  8
0
  6
Continuous
 62
     7
370
     0
100
AcDbBlockReference
  2
SW_CENTERMARKSYMBOL_6
 10
6.3438854179
 20
7.9221403701
 30
0.0
  0
LINE
  5
254
330
1F
100
AcDbEntity
  8
0
  6
PHANTOM
 62
     7
370
    30
100
AcDbLine
 10
3.0466030528
 20
8.9811295099
 30
0.0
 11
7.5260831438
 21
8.9811295099
 31
0.0
  0
LINE
  5
255
330
1F
100
AcDbEntity
  8
0
  6
Continuous
 62
     7
370
    30
100
AcDbLine
 10
3.0466030528
 20
8.9811295099
 30
0.0
 11
3.0466030528
 21
9.6061295099
 31
0.0
  0
SOLID
  5
256
330
1F
100
AcDbEntity
  8
0
  6
Continuous
 62
     7
370
    30
100
AcDbTrace
 10
3.0466030528
 20
9.6061295099
 30
0.0
 11
2.9966030528
 21
9.2936295099
 31
0.0
 12
3.0966030528
 22
9.2936295099
 32
0.0
 13
3.0966030528
 23
9.2936295099
 33
0.0
  0
LINE
  5
257
330
1F
100
AcDbEntity
  8
0
  6
Continuous
 62
     7
370
    30
100
AcDbLine
 10
7.5260831438
 20
8.9811295099
 30
0.0
 11
7.5260831438
 21
9.6061295099
 31
0.0
  0
SOLID
  5
258
330
1F
100
AcDbEntity
  8
0
  6
Continuous
 62
     7
370
    30
100
AcDbTrace
 10
7.5260831438
 20
9.6061295099
 30
0.0
 11
7.4760831438
 21
9.2936295099
 31
0.0
 12
7.5760831438
 22
9.2936295099
 32
0.0
 13
7.5760831438
 23
9.2936295099
 33
0.0
  0
MTEXT
  5
259
330
1F
100
AcDbEntity
  8
0
  6
Continuous
 62
     7
100
AcDbMText
 10
2.9695753682
 20
9.8585481341
 30
0.0
 40
0.15625
 41
0.0
 71
     1
 72
     1
  1
A
  7
SLDTEXTSTYLE0
 73
     1
 44
1.0
  0
MTEXT
  5
25A
330
1F
100
AcDbEntity
  8
0
  6
Continuous
 62
     7
100
AcDbMText
 10
7.4490554592
 20
9.8585481341
 30
0.0
 40
0.15625
 41
0.0
 71
     1
 72
     1
  1
A
  7
SLDTEXTSTYLE0
 73
     1
 44
1.0
  0
LINE
  5
25B
330
1F
100
AcDbEntity
  8
0
  6
Continuous
 62
     7
370
    15
100
AcDbLine
 10
15.8587023993
 20
3.7812866276
 30
0.0
 11
15.8575435511
 21
3.780675921
 31
0.0
  0
LINE
  5
25C
330
1F
100
AcDbEntity
  8
0
  6
Continuous
 62
     7
370
    15
100
AcDbLine
 10
15.8728365958
 20
3.7516499965
 30
0.0
 11
15.873995444
 21
3.7522605035
 31
0.0
  0
ARC
  5
25D
330
1F
100
AcDbEntity
  8
0
  6
Continuous
 62
     7
370
    15
100
AcDbCircle
 10
15.088320299
 20
5.1237903703
 30
0.0
 40
0.0582507266997804
100
AcDbArc
 50
117.4308300016
 51
151.2613960169
  0
ARC
  5
25E
330
1F
100
AcDbEntity
  8
0
  6
Continuous
 62
     7
370
    15
100
AcDbCircle
 10
15.0846626727
 20
5.1224707852
 30
0.0
 40
0.0557544036404648
100
AcDbArc
 50
148.2637411617
 51
178.5723395286
  0
LINE
  5
25F
330
1F
100
AcDbEntity
  8
0
  6
Continuous
 62
     7
370
    15
100
AcDbLine
 10
15.0286421085
 20
5.1239401283
 30
0.0
 11
14.9645805062
 21
4.2767752362
 31
0.0
  0
ARC
  5
260
330
1F
100
AcDbEntity
  8
0
  6
Continuous
 62
     7
370
    15
100
AcDbCircle
 10
18.5115713411
 20
5.1299555673
 30
0.0
 40
0.0601506552946856
100
AcDbArc
 50
1.9054288508
 51
62.8562750154
  0
LINE
  5
261
330
1F
100
AcDbEntity
  8
0
  6
Continuous
 62
     7
370
    15
100
AcDbLine
 10
18.6359362358
 20
4.2848107854
 30
0.0
 11
18.5718746335
 21
5.1319755777
 31
0.0
  0
LINE
  5
262
330
1F
100
AcDbEntity
  8
0
  6
Continuous
 62
     7
370
    15
100
AcDbLine
 10
16.7744124004
 20
6.1647977225
 30
0.0
 11
15.0612664207
 21
5.1758195995
 31
0.0
  0
LINE
  5
263
330
1F
100
AcDbEntity
  8
0
  6
Continuous
 62
     7
370
    15
100
AcDbLine
 10
18.5392503213
 20
5.1838551486
 30
0.0
 11
16.8400238292
 21
6.1647977225
 31
0.0
  0
LINE
  5
264
330
1F
100
AcDbEntity
  8
0
  6
Continuous
 62
     7
370
    15
100
AcDbLine
 10
15.0039248244
 20
4.2367081915
 30
0.0
 11
15.0039248244
 21
4.2349421611
 31
0.0
  0
LINE
  5
265
330
1F
100
AcDbEntity
  8
0
  6
Continuous
 62
     7
370
    15
100
AcDbLine
 10
18.5965919177
 20
4.2429777103
 30
0.0
 11
18.5965919177
 21
4.2447437407
 31
0.0
  0
ARC
  5
266
330
1F
100
AcDbEntity
  8
0
  6
Continuous
 62
     7
370
    15
100
AcDbCircle
 10
16.8071713927
 20
6.1136244542
 30
0.0
 40
0.0603662059688634
100
AcDbArc
 50
57.3225050424
 51
122.6110341069
  0
LINE
  5
267
330
1F
100
AcDbEntity
  8
0
  6
Continuous
 62
     7
370
    15
100
AcDbLine
 10
16.8986760761
 20
1.1777276737
 30
0.0
 11
16.8958129199
 21
1.3116542239
 31
0.0
  0
LINE
  5
268
330
1F
100
AcDbEntity
  8
0
  6
Continuous
 62
     7
370
    15
100
AcDbLine
 10
16.7047038222
 20
1.3116542239
 30
0.0
 11
16.701840666
 21
1.1777276737
 31
0.0
  0
ARC
  5
269
330
1F
100
AcDbEntity
  8
0
  6
Continuous
 62
     7
370
    15
100
AcDbCircle
 10
18.7086811917
 20
1.7414765451
 30
0.0
 40
0.0817145649103662
100
AcDbArc
 50
0.6223376359
 51
47.991939939
  0
LINE
  5
26A
330
1F
100
AcDbEntity
  8
0
  6
Continuous
 62
     7
370
    15
100
AcDbLine
 10
18.7907751737
 20
1.6608956168
 30
0.0
 11
18.7907751737
 21
1.7412638076
 31
0.0
  0
LINE
  5
26B
330
1F
100
AcDbEntity
  8
0
  6
Continuous
 62
     7
370
    15
100
AcDbLine
 10
15.6691268976
 20
1.8875313058
 30
0.0
 11
15.6662636982
 21
2.0214578809
 31
0.0
  0
LINE
  5
26C
330
1F
100
AcDbEntity
  8
0
  6
Continuous
 62
     7
370
    15
100
AcDbLine
 10
15.4751546005
 20
2.0214578809
 30
0.0
 11
15.4722914875
 21
1.8875313058
 31
0.0
  0
LINE
  5
26D
330
1F
100
AcDbEntity
  8
0
  6
Continuous
 62
     7
370
    15
100
AcDbLine
 10
18.1282252545
 20
1.8875313058
 30
0.0
 11
18.1253621416
 21
2.0214578809
 31
0.0
  0
LINE
  5
26E
330
1F
100
AcDbEntity
  8
0
  6
Continuous
 62
     7
370
    15
100
AcDbLine
 10
17.9342530439
 20
2.0214578809
 30
0.0
 11
17.9313898445
 21
1.8875313058
 31
0.0
  0
LINE
  5
26F
330
1F
100
AcDbEntity
  8
0
  6
Continuous
 62
     7
370
    15
100
AcDbLine
 10
18.7635826437
 20
1.802343925
 30
0.0
 11
18.6470869845
 21
1.9188269087
 31
0.0
  0
LINE
  5
270
330
1F
100
AcDbEntity
  8
0
  6
Continuous
 62
     7
370
    15
100
AcDbLine
 10
14.9628815132
 20
2.0583837117
 30
0.0
 11
14.9536077028
 21
1.9139918732
 31
0.0
  0
LINE
  5
271
330
1F
100
AcDbEntity
  8
0
  6
Continuous
 62
     7
370
    15
100
AcDbLine
 10
14.9809589057
 20
2.0837328086
 30
0.0
 11
14.9809589057
 21
2.0569434075
 31
0.0
  0
LINE
  5
272
330
1F
100
AcDbEntity
  8
0
  6
Continuous
 62
     7
370
    15
100
AcDbLine
 10
18.6195578363
 20
2.0649789567
 30
0.0
 11
18.6195578363
 21
2.0917683578
 31
0.0
  0
LINE
  5
273
330
1F
100
AcDbEntity
  8
0
  6
Continuous
 62
     7
370
    15
100
AcDbLine
 10
18.647158975
 20
1.9181365548
 30
0.0
 11
18.6376352288
 21
2.0664192608
 31
0.0
  0
ARC
  5
274
330
1F
100
AcDbEntity
  8
0
  6
Continuous
 62
     7
370
    15
100
AcDbCircle
 10
14.9002529009
 20
2.0581982424
 30
0.0
 40
0.0901271656331537
100
AcDbArc
 50
113.1991188524
 51
180.0716553128
  0
LINE
  5
275
330
1F
100
AcDbEntity
  8
0
  6
Continuous
 62
     7
370
    15
100
AcDbLine
 10
14.8097415683
 20
2.0591858181
 30
0.0
 11
14.8097415683
 21
1.9788176273
 31
0.0
  0
LINE
  5
276
330
1F
100
AcDbEntity
  8
0
  6
Continuous
 62
     7
370
    15
100
AcDbLine
 10
16.4157010463
 20
3.0366100559
 30
0.0
 11
14.8645844981
 21
2.1411695326
 31
0.0
  0
LINE
  5
277
330
1F
100
AcDbEntity
  8
0
  6
Continuous
 62
     7
370
    15
100
AcDbLine
 10
16.8986760761
 20
2.5973349379
 30
0.0
 11
16.8958129199
 21
2.731261538
 31
0.0
  0
LINE
  5
278
330
1F
100
AcDbEntity
  8
0
  6
Continuous
 62
     7
370
    15
100
AcDbLine
 10
16.7047038222
 20
2.731261538
 30
0.0
 11
16.701840666
 21
2.5973349379
 31
0.0
  0
LINE
  5
279
330
1F
100
AcDbEntity
  8
0
  6
Continuous
 62
     7
370
    15
100
AcDbLine
 10
16.623616511
 20
3.0437866568
 30
0.0
 11
16.6008907622
 21
3.0513610631
 31
0.0
  0
ARC
  5
27A
330
1F
100
AcDbEntity
  8
0
  6
Continuous
 62
     7
370
    15
100
AcDbCircle
 10
16.517287543
 20
2.8584067007
 30
0.0
 40
0.2049289628359912
100
AcDbArc
 50
87.8711554521
 51
119.6639106333
  0
ARC
  5
27B
330
1F
100
AcDbEntity
  8
0
  6
Continuous
 62
     7
370
    15
100
AcDbCircle
 10
16.5271016677
 20
2.8314058553
 30
0.0
 40
0.2317988263765001
100
AcDbArc
 50
71.475472883
 51
90.5442145345
  0
LINE
  5
27C
330
1F
100
AcDbEntity
  8
0
  6
Continuous
 62
     7
370
    15
100
AcDbLine
 10
16.8396525553
 20
4.113627197
 30
0.0
 11
16.8396525553
 21
3.2304841932
 31
0.0
  0
ELLIPSE
  5
27D
330
1F
100
AcDbEntity
  8
0
  6
Continuous
 62
     7
370
    15
100
AcDbEllipse
 10
16.7932986586
 20
3.2573457053
 30
0.0
 11
0.06561679790026176
 21
0.0
 31
0.0
210
0.0
220
0.0
230
1.0
 40
0.578387136
 41
3.9279421430383
 42
5.496835817731111
  0
LINE
  5
27E
330
1F
100
AcDbEntity
  8
0
  6
Continuous
 62
     7
370
    15
100
AcDbLine
 10
16.7469446991
 20
3.2304841932
 30
0.0
 11
16.7469446991
 21
4.113627197
 31
0.0
  0
ARC
  5
27F
330
1F
100
AcDbEntity
  8
0
  6
Continuous
 62
     7
370
    15
100
AcDbCircle
 10
16.7932986272
 20
4.212846859
 30
0.0
 40
0.1095135971993354
100
AcDbArc
 50
244.9587286395
 51
295.0412713605
  0
ARC
  5
280
330
1F
100
AcDbEntity
  8
0
  6
Continuous
 62
     7
370
    15
100
AcDbCircle
 10
16.8481300907
 20
4.1062697696
 30
0.0
 40
0.1014525269377675
100
AcDbArc
 50
122.7152477128
 51
175.8412083468
  0
ARC
  5
281
330
1F
100
AcDbEntity
  8
0
  6
Continuous
 62
     7
370
    15
100
AcDbCircle
 10
16.738467554
 20
4.1062700016
 30
0.0
 40
0.1014521207837688
100
AcDbArc
 50
4.1586769744
 51
57.2848669661
  0
LINE
  5
282
330
1F
100
AcDbEntity
  8
0
  6
Continuous
 62
     7
370
    15
100
AcDbLine
 10
18.0298075495
 20
3.9175460468
 30
0.0
 11
18.0236816164
 21
4.0831049798
 31
0.0
  0
LINE
  5
283
330
1F
100
AcDbEntity
  8
0
  6
Continuous
 62
     7
370
    15
100
AcDbLine
 10
17.4266324612
 20
3.5693404801
 30
0.0
 11
18.0298075495
 21
3.9175460468
 31
0.0
  0
LINE
  5
284
330
1F
100
AcDbEntity
  8
0
  6
Continuous
 62
     7
370
    15
100
AcDbLine
 10
17.4205065281
 20
3.7348994131
 30
0.0
 11
17.4266324612
 21
3.5693404801
 31
0.0
  0
LINE
  5
285
330
1F
100
AcDbEntity
  8
0
  6
Continuous
 62
     7
370
    15
100
AcDbLine
 10
17.1421180292
 20
3.5741891534
 30
0.0
 11
17.4205065281
 21
3.7348994131
 31
0.0
  0
LINE
  5
286
330
1F
100
AcDbEntity
  8
0
  6
Continuous
 62
     7
370
    15
100
AcDbLine
 10
17.1482439623
 20
3.4086302204
 30
0.0
 11
17.1421180292
 21
3.5741891534
 31
0.0
  0
LINE
  5
287
330
1F
100
AcDbEntity
  8
0
  6
Continuous
 62
     7
370
    15
100
AcDbLine
 10
16.8396525553
 20
3.2304841932
 30
0.0
 11
17.1482439623
 21
3.4086302204
 31
0.0
  0
LINE
  5
288
330
1F
100
AcDbEntity
  8
0
  6
Continuous
 62
     7
370
    15
100
AcDbLine
 10
16.8396525553
 20
4.113627197
 30
0.0
 11
18.552798535
 21
5.1026053201
 31
0.0
  0
LINE
  5
289
330
1F
100
AcDbEntity
  8
0
  6
Continuous
 62
     7
370
    15
100
AcDbLine
 10
18.6167874554
 20
4.2564023337
 30
0.0
 11
18.552798535
 21
5.1026053201
 31
0.0
  0
LINE
  5
28A
330
1F
100
AcDbEntity
  8
0
  6
Continuous
 62
     7
370
    15
100
AcDbLine
 10
18.3081960485
 20
4.0782563064
 30
0.0
 11
18.6167874554
 21
4.2564023337
 31
0.0
  0
LINE
  5
28B
330
1F
100
AcDbEntity
  8
0
  6
Continuous
 62
     7
370
    15
100
AcDbLine
 10
18.3020701153
 20
4.2438152394
 30
0.0
 11
18.3081960485
 21
4.0782563064
 31
0.0
  0
LINE
  5
28C
330
1F
100
AcDbEntity
  8
0
  6
Continuous
 62
     7
370
    15
100
AcDbLine
 10
18.0236816164
 20
4.0831049798
 30
0.0
 11
18.3020701153
 21
4.2438152394
 31
0.0
  0
LWPOLYLINE
  5
28D
330
1F
100
AcDbEntity
  8
0
  6
Continuous
 62
     7
370
    15
100
AcDbPolyline
 90
        8
 70
   128
 43
0.0
 10
15.8668549293
 20
3.7804476289
 10
15.8712553291
 20
3.7768440885
 10
15.8749088133
 20
3.7717076167
 10
15.8772591561
 20
3.7658198818
 10
15.8779484429
 20
3.7600773045
 10
15.8768718939
 20
3.7553542223
 10
15.8741932295
 20
3.7523695716
 10
15.873995444
 20
3.7522605035
  0
LWPOLYLINE
  5
28E
330
1F
100
AcDbEntity
  8
0
  6
Continuous
 62
     7
370
    15
100
AcDbPolyline
 90
        3
 70
   128
 43
0.0
 10
15.8587023993
 20
3.7812866276
 10
15.86237744
 20
3.7819691848
 10
15.8668549293
 20
3.7804476289
  0
LINE
  5
28F
330
1F
100
AcDbEntity
  8
0
  6
Continuous
 62
     7
370
    15
100
AcDbLine
 10
15.047718207
 20
5.094569771
 30
0.0
 11
14.9837292866
 21
4.2483667845
 31
0.0
  0
LINE
  5
290
330
1F
100
AcDbEntity
  8
0
  6
Continuous
 62
     7
370
    15
100
AcDbLine
 10
15.047718207
 20
5.094569771
 30
0.0
 11
16.7469446991
 21
4.113627197
 31
0.0
  0
LINE
  5
291
330
1F
100
AcDbEntity
  8
0
  6
Continuous
 62
     7
370
    15
100
AcDbLine
 10
14.9837292866
 20
4.2483667845
 30
0.0
 11
16.7469446991
 21
3.2304841932
 31
0.0
  0
LINE
  5
292
330
1F
100
AcDbEntity
  8
0
  6
Continuous
 62
     7
370
    15
100
AcDbLine
 10
16.7932986272
 20
4.191628576
 30
0.0
 11
18.5064446069
 21
5.1806066991
 31
0.0
  0
ARC
  5
293
330
1F
100
AcDbEntity
  8
0
  6
Continuous
 62
     7
370
    15
100
AcDbCircle
 10
18.4516135337
 20
5.0952481247
 30
0.0
 40
0.1014521207837782
100
AcDbArc
 50
4.1586769744
 51
57.2848669661
  0
ARC
  5
294
330
1F
100
AcDbEntity
  8
0
  6
Continuous
 62
     7
370
    15
100
AcDbCircle
 10
15.1489035987
 20
5.0872123436
 30
0.0
 40
0.1014525269377793
100
AcDbArc
 50
122.7152477128
 51
175.8412083468
  0
LINE
  5
295
330
1F
100
AcDbEntity
  8
0
  6
Continuous
 62
     7
370
    15
100
AcDbLine
 10
15.0940721351
 20
5.17257115
 30
0.0
 11
16.7932986272
 21
4.191628576
 31
0.0
  0
LINE
  5
296
330
1F
100
AcDbEntity
  8
0
  6
Continuous
 62
     7
370
    15
100
AcDbLine
 10
16.8072181148
 20
6.1615492731
 30
0.0
 11
15.0940721351
 21
5.17257115
 31
0.0
  0
LINE
  5
297
330
1F
100
AcDbEntity
  8
0
  6
Continuous
 62
     7
370
    15
100
AcDbLine
 10
18.5064446069
 20
5.1806066991
 30
0.0
 11
16.8072181148
 21
6.1615492731
 31
0.0
  0
ARC
  5
298
330
1F
100
AcDbEntity
  8
0
  6
Continuous
 62
     7
370
    15
100
AcDbCircle
 10
16.7932987186
 20
3.2422155708
 30
0.0
 40
0.040341652571116
100
AcDbArc
 50
242.6094810246
 51
297.3903649527
  0
LINE
  5
299
330
1F
100
AcDbEntity
  8
0
  6
Continuous
 62
     7
370
    15
100
AcDbLine
 10
17.1204051599
 20
3.3845170425
 30
0.0
 11
16.8118579152
 21
3.2063965095
 31
0.0
  0
LINE
  5
29A
330
1F
100
AcDbEntity
  8
0
  6
Continuous
 62
     7
370
    15
100
AcDbLine
 10
17.1204051599
 20
3.392559187
 30
0.0
 11
17.1204051599
 21
3.3845170425
 31
0.0
  0
LINE
  5
29B
330
1F
100
AcDbEntity
  8
0
  6
Continuous
 62
     7
370
    15
100
AcDbLine
 10
16.7747394256
 20
3.2063965594
 30
0.0
 11
16.0787682215
 21
3.6081721835
 31
0.0
  0
LINE
  5
29C
330
1F
100
AcDbEntity
  8
0
  6
Continuous
 62
     7
370
    15
100
AcDbLine
 10
16.0787682215
 20
3.6162143281
 30
0.0
 11
16.0787682215
 21
3.6081721835
 31
0.0
  0
LINE
  5
29D
330
1F
100
AcDbEntity
  8
0
  6
Continuous
 62
     7
370
    15
100
AcDbLine
 10
17.3820644678
 20
3.5548848585
 30
0.0
 11
17.3752584708
 21
3.7087783567
 31
0.0
  0
LINE
  5
29E
330
1F
100
AcDbEntity
  8
0
  6
Continuous
 62
     7
370
    15
100
AcDbLine
 10
17.3820644678
 20
3.5548848585
 30
0.0
 11
17.1478355696
 21
3.4196673938
 31
0.0
  0
LINE
  5
29F
330
1F
100
AcDbEntity
  8
0
  6
Continuous
 62
     7
370
    15
100
AcDbLine
 10
17.3987936589
 20
3.5854114786
 30
0.0
 11
17.4266324612
 21
3.5693404801
 31
0.0
  0
LINE
  5
2A0
330
1F
100
AcDbEntity
  8
0
  6
Continuous
 62
     7
370
    15
100
AcDbLine
 10
17.3987936589
 20
3.5854114786
 30
0.0
 11
17.3987936589
 21
3.5452273021
 31
0.0
  0
LINE
  5
2A1
330
1F
100
AcDbEntity
  8
0
  6
Continuous
 62
     7
370
    15
100
AcDbLine
 10
17.3820644678
 20
3.5548848585
 30
0.0
 11
17.3987936589
 21
3.5452273021
 31
0.0
  0
LINE
  5
2A2
330
1F
100
AcDbEntity
  8
0
  6
Continuous
 62
     7
370
    15
100
AcDbLine
 10
18.0019687471
 20
3.9014750134
 30
0.0
 11
18.0019687471
 21
3.8934328688
 31
0.0
  0
LINE
  5
2A3
330
1F
100
AcDbEntity
  8
0
  6
Continuous
 62
     7
370
    15
100
AcDbLine
 10
18.0019687471
 20
3.8934328688
 30
0.0
 11
17.3987936589
 21
3.5452273021
 31
0.0
  0
LINE
  5
2A4
330
1F
100
AcDbEntity
  8
0
  6
Continuous
 62
     7
370
    15
100
AcDbLine
 10
16.0443275968
 20
3.613735589
 30
0.0
 11
16.0555691763
 21
3.6202252147
 31
0.0
  0
LINE
  5
2A5
330
1F
100
AcDbEntity
  8
0
  6
Continuous
 62
     7
370
    15
100
AcDbLine
 10
16.0555691763
 20
3.6202252147
 30
0.0
 11
16.0555691763
 21
3.6296068518
 31
0.0
  0
LINE
  5
2A6
330
1F
100
AcDbEntity
  8
0
  6
Continuous
 62
     7
370
    15
100
AcDbLine
 10
16.0539935092
 20
3.5831499025
 30
0.0
 11
16.0752423724
 21
3.5954166101
 31
0.0
  0
LINE
  5
2A7
330
1F
100
AcDbEntity
  8
0
  6
Continuous
 62
     7
370
    15
100
AcDbLine
 10
16.0443275968
 20
3.613735589
 30
0.0
 11
16.0539935092
 21
3.5831499025
 31
0.0
  0
LINE
  5
2A8
330
1F
100
AcDbEntity
  8
0
  6
Continuous
 62
     7
370
    15
100
AcDbLine
 10
16.0762269916
 20
3.6176811646
 30
0.0
 11
16.0752423724
 21
3.5954166101
 31
0.0
  0
LINE
  5
2A9
330
1F
100
AcDbEntity
  8
0
  6
Continuous
 62
     7
370
    15
100
AcDbLine
 10
16.0555691763
 20
3.6202252147
 30
0.0
 11
15.730782587
 21
3.8077205218
 31
0.0
  0
LINE
  5
2AA
330
1F
100
AcDbEntity
  8
0
  6
Continuous
 62
     7
370
    15
100
AcDbLine
 10
15.730782587
 20
3.8171021589
 30
0.0
 11
15.730782587
 21
3.8077205218
 31
0.0
  0
LINE
  5
2AB
330
1F
100
AcDbEntity
  8
0
  6
Continuous
 62
     7
370
    15
100
AcDbLine
 10
16.0539935092
 20
3.5831499025
 30
0.0
 11
15.7292069199
 21
3.7706452095
 31
0.0
  0
LINE
  5
2AC
330
1F
100
AcDbEntity
  8
0
  6
Continuous
 62
     7
370
    15
100
AcDbLine
 10
15.7292069199
 20
3.7706452095
 30
0.0
 11
15.7195410075
 21
3.8012308961
 31
0.0
  0
LINE
  5
2AD
330
1F
100
AcDbEntity
  8
0
  6
Continuous
 62
     7
370
    15
100
AcDbLine
 10
15.7195410075
 20
3.8012308961
 30
0.0
 11
16.0443275968
 21
3.613735589
 31
0.0
  0
LINE
  5
2AE
330
1F
100
AcDbEntity
  8
0
  6
Continuous
 62
     7
370
    15
100
AcDbLine
 10
15.730782587
 20
3.8077205218
 30
0.0
 11
15.7195410075
 21
3.8012308961
 31
0.0
  0
LWPOLYLINE
  5
2AF
330
1F
100
AcDbEntity
  8
0
  6
Continuous
 62
     7
370
    15
100
AcDbPolyline
 90
       17
 70
   128
 43
0.0
 10
15.8656960811
 20
3.7798369222
 10
15.8700964809
 20
3.7762335815
 10
15.8737499651
 20
3.7710969101
 10
15.8761003079
 20
3.7652091752
 10
15.8767895947
 20
3.7594665979
 10
15.8757130457
 20
3.7547435157
 10
15.8730343813
 20
3.751758865
 10
15.8691615551
 20
3.7509672397
 10
15.8646841523
 20
3.7524888455
 10
15.8602836661
 20
3.756092336
 10
15.8566301818
 20
3.7612288078
 10
15.8542799255
 20
3.7671165926
 10
15.8535905522
 20
3.77285912
 10
15.8546671877
 20
3.7775822521
 10
15.8573457656
 20
3.7805668529
 10
15.8612185918
 20
3.7813586777
 10
15.8656960811
 20
3.7798369222
  0
ELLIPSE
  5
2B0
330
1F
100
AcDbEntity
  8
0
  6
Continuous
 62
     7
370
    15
100
AcDbEllipse
 10
15.0302599194
 20
4.2751263053
 30
0.0
 11
0.06574176275874244
 21
0.0
 31
0.0
210
0.0
220
0.0
230
1.0
 40
0.576190378
 41
3.0980493259856
 42
3.926039490936205
  0
ELLIPSE
  5
2B1
330
1F
100
AcDbEntity
  8
0
  6
Continuous
 62
     7
370
    15
100
AcDbEllipse
 10
18.5702568226
 20
4.2831618183
 30
0.0
 11
0.06574176275874422
 21
0.0
 31
0.0
210
0.0
220
0.0
230
1.0
 40
0.576190378
 41
5.498738469833174
 42
6.32672863478378
  0
LINE
  5
2B2
330
1F
100
AcDbEntity
  8
0
  6
Continuous
 62
     7
370
    15
100
AcDbLine
 10
15.7145489031
 20
3.8264735555
 30
0.0
 11
15.7075835418
 21
3.822452538
 31
0.0
  0
LINE
  5
2B3
330
1F
100
AcDbEntity
  8
0
  6
Continuous
 62
     7
370
    15
100
AcDbLine
 10
15.7075835418
 20
3.8304946826
 30
0.0
 11
15.7075835418
 21
3.822452538
 31
0.0
  0
LINE
  5
2B4
330
1F
100
AcDbEntity
  8
0
  6
Continuous
 62
     7
370
    15
100
AcDbLine
 10
15.7075835418
 20
3.822452538
 30
0.0
 11
15.0116123376
 21
4.2242281621
 31
0.0
  0
LINE
  5
2B5
330
1F
100
AcDbEntity
  8
0
  6
Continuous
 62
     7
370
    15
100
AcDbLine
 10
18.256822058
 20
4.217694183
 30
0.0
 11
18.263628055
 21
4.0638006849
 31
0.0
  0
LINE
  5
2B6
330
1F
100
AcDbEntity
  8
0
  6
Continuous
 62
     7
370
    15
100
AcDbLine
 10
18.263628055
 20
4.0638006849
 30
0.0
 11
18.0293991568
 21
3.9285832201
 31
0.0
  0
LINE
  5
2B7
330
1F
100
AcDbEntity
  8
0
  6
Continuous
 62
     7
370
    15
100
AcDbLine
 10
18.2803572461
 20
4.0943273049
 30
0.0
 11
18.3081960485
 21
4.0782563064
 31
0.0
  0
LINE
  5
2B8
330
1F
100
AcDbEntity
  8
0
  6
Continuous
 62
     7
370
    15
100
AcDbLine
 10
18.2803572461
 20
4.0541431284
 30
0.0
 11
18.2803572461
 21
4.0943273049
 31
0.0
  0
LINE
  5
2B9
330
1F
100
AcDbEntity
  8
0
  6
Continuous
 62
     7
370
    15
100
AcDbLine
 10
18.263628055
 20
4.0638006849
 30
0.0
 11
18.2803572461
 21
4.0541431284
 31
0.0
  0
LINE
  5
2BA
330
1F
100
AcDbEntity
  8
0
  6
Continuous
 62
     7
370
    15
100
AcDbLine
 10
18.5889044908
 20
4.2322636614
 30
0.0
 11
18.2803572461
 21
4.0541431284
 31
0.0
  0
ARC
  5
2BB
330
1F
100
AcDbEntity
  8
0
  6
Continuous
 62
     7
370
    15
100
AcDbCircle
 10
15.0170597956
 20
4.236251798
 30
0.0
 40
0.0132000991807823
100
AcDbArc
 50
185.6939206401
 51
245.6265046105
  0
ARC
  5
2BC
330
1F
100
AcDbEntity
  8
0
  6
Continuous
 62
     7
370
    15
100
AcDbCircle
 10
18.583456541
 20
4.2442875381
 30
0.0
 40
0.0132005215613708
100
AcDbArc
 50
294.3750085444
 51
354.3054291472
  0
ARC
  5
2BD
330
1F
100
AcDbEntity
  8
0
  6
Continuous
 62
     7
370
    15
100
AcDbCircle
 10
17.0748370969
 20
1.0020885929
 30
0.0
 40
0.2055778200558482
100
AcDbArc
 50
251.6156296295
 51
297.0767759707
  0
ARC
  5
2BE
330
1F
100
AcDbEntity
  8
0
  6
Continuous
 62
     7
370
    15
100
AcDbCircle
 10
17.1412441089
 20
0.7765688699
 30
0.0
 40
0.0504198478236888
100
AcDbArc
 50
2.6053188705
 51
57.3946196559
  0
ARC
  5
2BF
330
1F
100
AcDbEntity
  8
0
  6
Continuous
 62
     7
370
    15
100
AcDbCircle
 10
17.0746288217
 20
1.0078445983
 30
0.0
 40
0.2571354385597081
100
AcDbArc
 50
251.630865241
 51
297.0615297855
  0
ARC
  5
2C0
330
1F
100
AcDbEntity
  8
0
  6
Continuous
 62
     7
370
    15
100
AcDbCircle
 10
17.0616428229
 20
0.7626781217
 30
0.0
 40
0.0680565397556507
100
AcDbArc
 50
139.3606549893
 51
179.0459830317
  0
LWPOLYLINE
  5
2C1
330
1F
100
AcDbEntity
  8
0
  6
Continuous
 62
     7
370
    15
100
AcDbPolyline
 90
       25
 70
   128
 43
0.0
 10
17.3184339011
 20
1.018518131
 10
17.3301650677
 20
1.0096923578
 10
17.3375396427
 20
0.9994144563
 10
17.3400549457
 20
0.9883849714
 10
17.3375396427
 20
0.9773554365
 10
17.3301650245
 20
0.9670776098
 10
17.3184339011
 20
0.9582517618
 10
17.3031454273
 20
0.9514795284
 10
17.2853417803
 20
0.9472222519
 10
17.2662360386
 20
0.9457702234
 10
17.2471303402
 20
0.9472222769
 10
17.2293265635
 20
0.9514795284
 10
17.2140382194
 20
0.9582517868
 10
17.2023069663
 20
0.9670776098
 10
17.1949324777
 20
0.9773554615
 10
17.1924171747
 20
0.9883849464
 10
17.1949324345
 20
0.9994144563
 10
17.2023069663
 20
1.0096923329
 10
17.2140381761
 20
1.018518131
 10
17.2293265635
 20
1.0252904143
 10
17.2471302969
 20
1.0295476409
 10
17.2662360818
 20
1.0309996944
 10
17.2853417803
 20
1.0295476409
 10
17.3031454705
 20
1.0252904393
 10
17.3184339011
 20
1.018518131
  0
LINE
  5
2C2
330
1F
100
AcDbEntity
  8
0
  6
Continuous
 62
     7
370
    15
100
AcDbLine
 10
18.7403848517
 20
1.8059330235
 30
0.0
 11
18.6366443872
 21
1.9096622632
 31
0.0
  0
ARC
  5
2C3
330
1F
100
AcDbEntity
  8
0
  6
Continuous
 62
     7
370
    15
100
AcDbCircle
 10
18.7014776081
 20
1.7667029472
 30
0.0
 40
0.0552519003460937
100
AcDbArc
 50
289.0696790664
 51
45.2367223125
  0
LINE
  5
2C4
330
1F
100
AcDbEntity
  8
0
  6
Continuous
 62
     7
370
    15
100
AcDbLine
 10
17.1684128385
 20
0.8190426405
 30
0.0
 11
18.7195293867
 21
1.7144831637
 31
0.0
  0
LINE
  5
2C5
330
1F
100
AcDbEntity
  8
0
  6
Continuous
 62
     7
370
    15
100
AcDbLine
 10
16.8303160881
 20
0.8668911322
 30
0.0
 11
17.0099998707
 21
0.8070030368
 31
0.0
  0
ARC
  5
2C6
330
1F
100
AcDbEntity
  8
0
  6
Continuous
 62
     7
370
    15
100
AcDbCircle
 10
16.804262385
 20
0.9493347968
 30
0.0
 40
0.0864624386269316
100
AcDbArc
 50
287.5374872072
 51
299.6166211965
  0
LINE
  5
2C7
330
1F
100
AcDbEntity
  8
0
  6
Continuous
 62
     7
370
    15
100
AcDbLine
 10
18.624038186
 20
1.9000356891
 30
0.0
 11
16.8469916104
 21
0.8741685372
 31
0.0
  0
ARC
  5
2C8
330
1F
100
AcDbEntity
  8
0
  6
Continuous
 62
     7
370
    15
100
AcDbCircle
 10
18.595843109
 20
1.9500250651
 30
0.0
 40
0.0573925088868162
100
AcDbArc
 50
299.4239277853
 51
315.3095285485
  0
LWPOLYLINE
  5
2C9
330
1F
100
AcDbEntity
  8
0
  6
Continuous
 62
     7
370
    15
100
AcDbPolyline
 90
       25
 70
   128
 43
0.0
 10
18.478385944
 20
1.688144192
 10
18.4901171107
 20
1.6793184188
 10
18.4974916857
 20
1.6690405173
 10
18.5000069886
 20
1.6580110324
 10
18.4974917289
 20
1.6469815225
 10
18.4901171107
 20
1.6367036958
 10
18.4783859872
 20
1.6278778478
 10
18.4630975135
 20
1.6211056143
 10
18.4452938664
 20
1.6168483379
 10
18.4261880816
 20
1.6153962844
 10
18.4070823831
 20
1.6168483379
 10
18.3892786064
 20
1.6211055894
 10
18.3739902623
 20
1.6278778478
 10
18.3622590092
 20
1.6367036708
 10
18.3548845206
 20
1.6469815225
 10
18.3523692177
 20
1.6580110074
 10
18.3548845206
 20
1.6690405423
 10
18.3622590524
 20
1.6793184188
 10
18.3739902623
 20
1.688144217
 10
18.3892786496
 20
1.6949165003
 10
18.4070823831
 20
1.6991737268
 10
18.4261881248
 20
1.7006257554
 10
18.4452938232
 20
1.6991737019
 10
18.4630975135
 20
1.6949165003
 10
18.478385944
 20
1.688144192
  0
LINE
  5
2CA
330
1F
100
AcDbEntity
  8
0
  6
Continuous
 62
     7
370
    15
100
AcDbLine
 10
17.1916118405
 20
0.6984925498
 30
0.0
 11
17.1916118405
 21
0.7788607406
 31
0.0
  0
ARC
  5
2CB
330
1F
100
AcDbEntity
  8
0
  6
Continuous
 62
     7
370
    15
100
AcDbCircle
 10
17.0746288217
 20
0.9274764074
 30
0.0
 40
0.2571354385597079
100
AcDbArc
 50
251.630865241
 51
297.0615297855
  0
LINE
  5
2CC
330
1F
100
AcDbEntity
  8
0
  6
Continuous
 62
     7
370
    15
100
AcDbLine
 10
16.9935957171
 20
0.7638112609
 30
0.0
 11
16.9935957171
 21
0.6834430701
 31
0.0
  0
LINE
  5
2CD
330
1F
100
AcDbEntity
  8
0
  6
Continuous
 62
     7
370
    15
100
AcDbLine
 10
16.7832356004
 20
0.8338991245
 30
0.0
 11
16.9935957171
 21
0.7638112609
 31
0.0
  0
LWPOLYLINE
  5
2CE
330
1F
100
AcDbEntity
  8
0
  6
Continuous
 62
     7
370
    15
100
AcDbPolyline
 90
        7
 70
   128
 43
0.0
 10
16.7832322299
 20
0.8338998291
 10
16.7834842399
 20
0.8376731019
 10
16.7851267985
 20
0.8410801814
 10
16.7904934177
 20
0.8465634884
 10
16.8046708785
 20
0.8555490699
 10
16.8215152716
 20
0.8636093406
 10
16.8303160881
 20
0.8668911322
  0
LINE
  5
2CF
330
1F
100
AcDbEntity
  8
0
  6
Continuous
 62
     7
370
    15
100
AcDbLine
 10
16.7932986272
 20
0.7502014597
 30
0.0
 11
16.7832322299
 21
0.8338998291
 31
0.0
  0
LINE
  5
2D0
330
1F
100
AcDbEntity
  8
0
  6
Continuous
 62
     7
370
    15
100
AcDbLine
 10
16.7456847358
 20
1.0116248903
 30
0.0
 11
16.7347424397
 21
0.7642034772
 31
0.0
  0
ARC
  5
2D1
330
1F
100
AcDbEntity
  8
0
  6
Continuous
 62
     7
370
    15
100
AcDbCircle
 10
16.7932986272
 20
1.1035190806
 30
0.0
 40
0.1034969800030492
100
AcDbArc
 50
242.6096000898
 51
297.3903999102
  0
LINE
  5
2D2
330
1F
100
AcDbEntity
  8
0
  6
Continuous
 62
     7
370
    15
100
AcDbLine
 10
16.8469916104
 20
0.8741685372
 30
0.0
 11
16.8409125186
 21
1.0116248903
 31
0.0
  0
ARC
  5
2D3
330
1F
100
AcDbEntity
  8
0
  6
Continuous
 62
     7
370
    15
100
AcDbCircle
 10
16.7909130663
 20
0.869666561
 30
0.0
 40
0.1194889171843597
100
AcDbArc
 50
241.9598169714
 51
271.1439693249
  0
LINE
  5
2D4
330
1F
100
AcDbEntity
  8
0
  6
Continuous
 62
     7
370
    15
100
AcDbLine
 10
16.7932986272
 20
0.7502014597
 30
0.0
 11
16.9935957171
 21
0.6834430701
 31
0.0
  0
LINE
  5
2D5
330
1F
100
AcDbEntity
  8
0
  6
Continuous
 62
     7
370
    15
100
AcDbLine
 10
16.7456847358
 20
1.0116248903
 30
0.0
 11
14.9825576478
 21
2.0294564931
 31
0.0
  0
ARC
  5
2D6
330
1F
100
AcDbEntity
  8
0
  6
Continuous
 62
     7
370
    15
100
AcDbCircle
 10
14.9927295499
 20
2.0567906312
 30
0.0
 40
0.029165436720014
100
AcDbArc
 50
113.8022962595
 51
249.5881653745
  0
ARC
  5
2D7
330
1F
100
AcDbEntity
  8
0
  6
Continuous
 62
     7
370
    15
100
AcDbCircle
 10
18.6077872692
 20
2.0648261345
 30
0.0
 40
0.0291653669281893
100
AcDbArc
 50
290.4117239442
 51
66.1979944636
  0
LINE
  5
2D8
330
1F
100
AcDbEntity
  8
0
  6
Continuous
 62
     7
370
    15
100
AcDbLine
 10
16.8409125186
 20
1.0116248903
 30
0.0
 11
18.6179590942
 21
2.0374920422
 31
0.0
  0
ARC
  5
2D9
330
1F
100
AcDbEntity
  8
0
  6
Continuous
 62
     7
370
    15
100
AcDbCircle
 10
15.0055878341
 20
2.0593995638
 30
0.0
 40
0.0247510973610809
100
AcDbArc
 50
185.695076278
 51
245.6252815725
  0
LINE
  5
2DA
330
1F
100
AcDbEntity
  8
0
  6
Continuous
 62
     7
370
    15
100
AcDbLine
 10
16.758500081
 20
1.0190230317
 30
0.0
 11
14.9953729931
 21
2.0368546344
 31
0.0
  0
ARC
  5
2DB
330
1F
100
AcDbEntity
  8
0
  6
Continuous
 62
     7
370
    15
100
AcDbCircle
 10
16.7932987186
 20
1.0861841922
 30
0.0
 40
0.0756410381560404
100
AcDbArc
 50
242.6096848811
 51
297.3902329735
  0
LINE
  5
2DC
330
1F
100
AcDbEntity
  8
0
  6
Continuous
 62
     7
370
    15
100
AcDbLine
 10
18.6051438354
 20
2.0448901337
 30
0.0
 11
16.8280972598
 21
1.0190229818
 31
0.0
  0
ARC
  5
2DD
330
1F
100
AcDbEntity
  8
0
  6
Continuous
 62
     7
370
    15
100
AcDbCircle
 10
18.594928854
 20
2.0674350517
 30
0.0
 40
0.0247511449245402
100
AcDbArc
 50
294.3750251792
 51
354.3050772056
  0
LINE
  5
2DE
330
1F
100
AcDbEntity
  8
0
  6
Continuous
 62
     7
370
    15
100
AcDbLine
 10
15.0092923942
 20
2.0957860824
 30
0.0
 11
16.7863389698
 21
3.1216532343
 31
0.0
  0
ARC
  5
2DF
330
1F
100
AcDbEntity
  8
0
  6
Continuous
 62
     7
370
    15
100
AcDbCircle
 10
15.0138669701
 20
2.0837328086
 30
0.0
 40
0.0128921741518368
100
AcDbArc
 50
110.783243025
 51
249.216756975
  0
LINE
  5
2E0
330
1F
100
AcDbEntity
  8
0
  6
Continuous
 62
     7
370
    15
100
AcDbLine
 10
16.7724194822
 20
1.053847932
 30
0.0
 11
15.0092923942
 21
2.0716795348
 31
0.0
  0
ARC
  5
2E1
330
1F
100
AcDbEntity
  8
0
  6
Continuous
 62
     7
370
    15
100
AcDbCircle
 10
16.7932986272
 20
1.0941443781
 30
0.0
 40
0.0453843834672997
100
AcDbArc
 50
242.6095816276
 51
297.3904183724
  0
LINE
  5
2E2
330
1F
100
AcDbEntity
  8
0
  6
Continuous
 62
     7
370
    15
100
AcDbLine
 10
18.5912243478
 20
2.0797150839
 30
0.0
 11
16.8141777722
 21
1.053847932
 31
0.0
  0
ARC
  5
2E3
330
1F
100
AcDbEntity
  8
0
  6
Continuous
 62
     7
370
    15
100
AcDbCircle
 10
18.586649772
 20
2.0917683578
 30
0.0
 40
0.0128921741518368
100
AcDbArc
 50
290.783243025
 51
69.216756975
  0
LINE
  5
2E4
330
1F
100
AcDbEntity
  8
0
  6
Continuous
 62
     7
370
    15
100
AcDbLine
 10
16.8280972598
 20
3.1216532343
 30
0.0
 11
18.5912243478
 21
2.1038216316
 31
0.0
  0
ARC
  5
2E5
330
1F
100
AcDbEntity
  8
0
  6
Continuous
 62
     7
370
    15
100
AcDbCircle
 10
16.8072181148
 20
3.0813567883
 30
0.0
 40
0.0453843834672999
100
AcDbArc
 50
62.6095816276
 51
117.3904183724
  0
ARC
  5
2E6
330
1F
100
AcDbEntity
  8
0
  6
Continuous
 62
     7
370
    15
100
AcDbCircle
 10
15.0029973514
 20
2.08373285
 30
0.0
 40
0.0214870031945428
100
AcDbArc
 50
110.7836289019
 51
249.2166175879
  0
LINE
  5
2E7
330
1F
100
AcDbEntity
  8
0
  6
Continuous
 62
     7
370
    15
100
AcDbLine
 10
14.9953729066
 20
2.1038216316
 30
0.0
 11
16.7724194822
 21
3.1296887835
 31
0.0
  0
ARC
  5
2E8
330
1F
100
AcDbEntity
  8
0
  6
Continuous
 62
     7
370
    15
100
AcDbCircle
 10
16.8072180235
 20
3.0625275731
 30
0.0
 40
0.075641038156043
100
AcDbArc
 50
62.6096848811
 51
117.3902329735
  0
LINE
  5
2E9
330
1F
100
AcDbEntity
  8
0
  6
Continuous
 62
     7
370
    15
100
AcDbLine
 10
16.842016661
 20
3.1296887336
 30
0.0
 11
18.605143749
 21
2.1118571309
 31
0.0
  0
ARC
  5
2EA
330
1F
100
AcDbEntity
  8
0
  6
Continuous
 62
     7
370
    15
100
AcDbCircle
 10
18.5975193906
 20
2.0917683164
 30
0.0
 40
0.0214870031945401
100
AcDbArc
 50
290.7836289018
 51
69.2166175879
  0
LINE
  5
2EB
330
1F
100
AcDbEntity
  8
0
  6
Continuous
 62
     7
370
    15
100
AcDbLine
 10
18.6051438354
 20
2.0716795348
 30
0.0
 11
16.8280972598
 21
1.0458123829
 31
0.0
  0
ARC
  5
2EC
330
1F
100
AcDbEntity
  8
0
  6
Continuous
 62
     7
370
    15
100
AcDbCircle
 10
16.7932987186
 20
1.1129735933
 30
0.0
 40
0.0756410381560402
100
AcDbArc
 50
242.6096848811
 51
297.3902329735
  0
LINE
  5
2ED
330
1F
100
AcDbEntity
  8
0
  6
Continuous
 62
     7
370
    15
100
AcDbLine
 10
16.758500081
 20
1.0458124328
 30
0.0
 11
14.9953729931
 21
2.0636440355
 31
0.0
  0
LINE
  5
2EE
330
1F
100
AcDbEntity
  8
0
  6
Continuous
 62
     7
370
    15
100
AcDbLine
 10
16.758500081
 20
1.0190230317
 30
0.0
 11
16.758500081
 21
1.0458124328
 31
0.0
  0
LINE
  5
2EF
330
1F
100
AcDbEntity
  8
0
  6
Continuous
 62
     7
370
    15
100
AcDbLine
 10
16.8280972598
 20
1.0190229818
 30
0.0
 11
16.8280972598
 21
1.0458123829
 31
0.0
  0
LINE
  5
2F0
330
1F
100
AcDbEntity
  8
0
  6
Continuous
 62
     7
370
    15
100
AcDbLine
 10
14.9825576478
 20
2.0294564931
 30
0.0
 11
14.9716153518
 21
1.78203508
 31
0.0
  0
LINE
  5
2F1
330
1F
100
AcDbEntity
  8
0
  6
Continuous
 62
     7
370
    15
100
AcDbLine
 10
14.9716153518
 20
1.78203508
 30
0.0
 11
16.7347424397
 21
0.7642034772
 31
0.0
  0
LINE
  5
2F2
330
1F
100
AcDbEntity
  8
0
  6
Continuous
 62
     7
370
    15
100
AcDbLine
 10
18.6051438354
 20
2.0716795348
 30
0.0
 11
18.6051438354
 21
2.0448901337
 31
0.0
  0
LINE
  5
2F3
330
1F
100
AcDbEntity
  8
0
  6
Continuous
 62
     7
370
    15
100
AcDbLine
 10
14.9953729931
 20
2.0368546344
 30
0.0
 11
14.9953729931
 21
2.0636440355
 31
0.0
  0
ARC
  5
2F4
330
1F
100
AcDbEntity
  8
0
  6
Continuous
 62
     7
370
    15
100
AcDbCircle
 10
18.6923606571
 20
1.6720093932
 30
0.0
 40
0.0504198478236869
100
AcDbArc
 50
2.6053188705
 51
57.3946196559
  0
LINE
  5
2F5
330
1F
100
AcDbEntity
  8
0
  6
Continuous
 62
     7
370
    15
100
AcDbLine
 10
17.1916118405
 20
0.7788607406
 30
0.0
 11
18.7427283886
 21
1.6743012639
 31
0.0
  0
LINE
  5
2F6
330
1F
100
AcDbEntity
  8
0
  6
Continuous
 62
     7
370
    15
100
AcDbLine
 10
18.6179590942
 20
2.0374920422
 30
0.0
 11
18.624038186
 21
1.9000356891
 31
0.0
  0
LINE
  5
2F7
330
1F
100
AcDbEntity
  8
0
  6
Continuous
 62
     7
370
    15
100
AcDbLine
 10
18.7427283886
 20
1.6743012639
 30
0.0
 11
18.7427283886
 21
1.593933073
 31
0.0
  0
LINE
  5
2F8
330
1F
100
AcDbEntity
  8
0
  6
Continuous
 62
     7
370
    15
100
AcDbLine
 10
17.1916118405
 20
0.6984925498
 30
0.0
 11
18.7427283886
 21
1.593933073
 31
0.0
  0
LINE
  5
2F9
330
1F
100
AcDbEntity
  8
0
  6
Continuous
 62
     7
370
    15
100
AcDbLine
 10
17.8679104967
 20
2.4496286049
 30
0.0
 11
18.5499566821
 21
2.0558917229
 31
0.0
  0
LINE
  5
2FA
330
1F
100
AcDbEntity
  8
0
  6
Continuous
 62
     7
370
    15
100
AcDbLine
 10
17.8952531436
 20
2.465413179
 30
0.0
 11
17.8679104967
 21
2.4496286049
 31
0.0
  0
LINE
  5
2FB
330
1F
100
AcDbEntity
  8
0
  6
Continuous
 62
     7
370
    15
100
AcDbLine
 10
18.5772993291
 20
2.0716762971
 30
0.0
 11
17.8952531436
 21
2.465413179
 31
0.0
  0
LINE
  5
2FC
330
1F
100
AcDbEntity
  8
0
  6
Continuous
 62
     7
370
    15
100
AcDbLine
 10
16.8072181148
 20
2.8927943851
 30
0.0
 11
18.4034448754
 21
1.9713122905
 31
0.0
  0
LINE
  5
2FD
330
1F
100
AcDbEntity
  8
0
  6
Continuous
 62
     7
370
    15
100
AcDbLine
 10
15.1970718667
 20
1.9632767414
 30
0.0
 11
16.8072181148
 21
2.8927943851
 31
0.0
  0
LWPOLYLINE
  5
2FE
330
1F
100
AcDbEntity
  8
0
  6
Continuous
 62
     7
370
    15
100
AcDbPolyline
 90
       16
 70
   128
 43
0.0
 10
16.8986760761
 20
2.5973349379
 10
16.8980647186
 20
2.5902719645
 10
16.8931602905
 20
2.577867408
 10
16.8835973513
 20
2.566403871
 10
16.8698555066
 20
2.5564561733
 10
16.8526237216
 20
2.5485231752
 10
16.8327661416
 20
2.5430026079
 10
16.8112785343
 20
2.5401713668
 10
16.7892382077
 20
2.5401713668
 10
16.7677506004
 20
2.5430026079
 10
16.7478930205
 20
2.5485231752
 10
16.7306612355
 20
2.5564561733
 10
16.7169193907
 20
2.566403871
 10
16.7073564516
 20
2.577867408
 10
16.7024520234
 20
2.5902719645
 10
16.701840666
 20
2.5973349379
  0
LWPOLYLINE
  5
2FF
330
1F
100
AcDbEntity
  8
0
  6
Continuous
 62
     7
370
    15
100
AcDbPolyline
 90
       16
 70
   128
 43
0.0
 10
16.8986760761
 20
1.1777276737
 10
16.8980646754
 20
1.1706646753
 10
16.8931602905
 20
1.1582601437
 10
16.8835973513
 20
1.1467966068
 10
16.8698555066
 20
1.136848909
 10
16.8526237216
 20
1.1289159109
 10
16.8327661416
 20
1.1233953436
 10
16.8112784911
 20
1.1205640775
 10
16.7892382509
 20
1.1205640775
 10
16.7677506004
 20
1.1233953436
 10
16.7478930205
 20
1.1289159109
 10
16.7306612355
 20
1.136848909
 10
16.7169193907
 20
1.1467966068
 10
16.7073564516
 20
1.1582601437
 10
16.7024520666
 20
1.1706646753
 10
16.701840666
 20
1.1777276737
  0
LWPOLYLINE
  5
300
330
1F
100
AcDbEntity
  8
0
  6
Continuous
 62
     7
370
    15
100
AcDbPolyline
 90
       16
 70
   128
 43
0.0
 10
15.6691268976
 20
1.8875313058
 10
15.6685154969
 20
1.8804683074
 10
15.663611112
 20
1.8680637758
 10
15.6540481729
 20
1.8566002389
 10
15.6403063281
 20
1.8466525412
 10
15.6230745431
 20
1.838719543
 10
15.6032169631
 20
1.8331989758
 10
15.5817293126
 20
1.8303677097
 10
15.5596890292
 20
1.8303677346
 10
15.538201422
 20
1.8331989758
 10
15.518343842
 20
1.838719543
 10
15.501112057
 20
1.8466525412
 10
15.4873702122
 20
1.8566002389
 10
15.4778072731
 20
1.8680637758
 10
15.4729028449
 20
1.8804683324
 10
15.4722914875
 20
1.8875313058
  0
LWPOLYLINE
  5
301
330
1F
100
AcDbEntity
  8
0
  6
Continuous
 62
     7
370
    15
100
AcDbPolyline
 90
       16
 70
   128
 43
0.0
 10
18.1282252545
 20
1.8875313058
 10
18.1276138971
 20
1.8804683324
 10
18.122709469
 20
1.8680637758
 10
18.1131465298
 20
1.8566002389
 10
18.099404685
 20
1.8466525412
 10
18.0821729001
 20
1.838719543
 10
18.0623153201
 20
1.8331989758
 10
18.0408277128
 20
1.8303677346
 10
18.0187874294
 20
1.8303677097
 10
17.9972997789
 20
1.8331989758
 10
17.977442199
 20
1.838719543
 10
17.960210414
 20
1.8466525412
 10
17.9464685692
 20
1.8566002389
 10
17.93690563
 20
1.8680637758
 10
17.9320012451
 20
1.8804683074
 10
17.9313898445
 20
1.8875313058
  0
LWPOLYLINE
  5
302
330
1F
100
AcDbEntity
  8
0
  6
Continuous
 62
     7
370
    15
100
AcDbPolyline
 90
       29
 70
   128
 43
0.0
 10
16.8678307847
 20
1.3499821848
 10
16.8811728791
 20
1.34032388
 10
16.8904575789
 20
1.3291938397
 10
16.8952193224
 20
1.3171501449
 10
16.8952193224
 20
1.3047967267
 10
16.8904576221
 20
1.2927530568
 10
16.8811729223
 20
1.2816230165
 10
16.8678307847
 20
1.2719647367
 10
16.8511003405
 20
1.2642624845
 10
16.8318204561
 20
1.2589025415
 10
16.8109579044
 20
1.2561536455
 10
16.7895588376
 20
1.2561536455
 10
16.7686962859
 20
1.2589025415
 10
16.7494164016
 20
1.2642624845
 10
16.7326859574
 20
1.2719647367
 10
16.7193438197
 20
1.2816230165
 10
16.7100591199
 20
1.2927530568
 10
16.7052974197
 20
1.3047967267
 10
16.7052974197
 20
1.3171501449
 10
16.7100591632
 20
1.3291938397
 10
16.7193438629
 20
1.34032388
 10
16.7326859574
 20
1.3499821848
 10
16.7494164448
 20
1.357684412
 10
16.7686963291
 20
1.3630443551
 10
16.7895588376
 20
1.3657932261
 10
16.8109579044
 20
1.3657932261
 10
16.8318204129
 20
1.3630443551
 10
16.8511002972
 20
1.357684412
 10
16.8678307847
 20
1.3499821848
  0
LWPOLYLINE
  5
303
330
1F
100
AcDbEntity
  8
0
  6
Continuous
 62
     7
370
    15
100
AcDbPolyline
 90
       18
 70
   128
 43
0.0
 10
16.775034604
 20
1.29641209
 10
16.7676260647
 20
1.3026555533
 10
16.7646246746
 20
1.310022413
 10
16.7664358449
 20
1.3175176922
 10
16.7728148682
 20
1.3241291268
 10
16.7829003218
 20
1.328963842
 10
16.7953300901
 20
1.3313688641
 10
16.8084254464
 20
1.3310193276
 10
16.8204177839
 20
1.3279625041
 10
16.8296874892
 20
1.3226112171
 10
16.8349826365
 20
1.3156881881
 10
16.8355880739
 20
1.3081284247
 10
16.8314220021
 20
1.3009528722
 10
16.8230471654
 20
1.2951306389
 10
16.8115945838
 20
1.2914481071
 10
16.7986109295
 20
1.2904025657
 10
16.7858497715
 20
1.2921352313
 10
16.775034604
 20
1.29641209
  0
LINE
  5
304
330
1F
100
AcDbEntity
  8
0
  6
Continuous
 62
     7
370
    15
100
AcDbLine
 10
16.7863389698
 20
3.0814691576
 30
0.0
 11
15.0232174993
 21
2.0636407978
 31
0.0
  0
ARC
  5
305
330
1F
100
AcDbEntity
  8
0
  6
Continuous
 62
     7
370
    15
100
AcDbCircle
 10
16.8072181148
 20
3.0411727115
 30
0.0
 40
0.045384383467309
100
AcDbArc
 50
62.6095816276
 51
117.3904183724
  0
LINE
  5
306
330
1F
100
AcDbEntity
  8
0
  6
Continuous
 62
     7
370
    15
100
AcDbLine
 10
17.524068464
 20
2.6796935335
 30
0.0
 11
16.8280972598
 21
3.0814691576
 31
0.0
  0
LINE
  5
307
330
1F
100
AcDbEntity
  8
0
  6
Continuous
 62
     7
370
    15
100
AcDbLine
 10
17.496725817
 20
2.6639089594
 30
0.0
 11
17.524068464
 21
2.6796935335
 31
0.0
  0
LINE
  5
308
330
1F
100
AcDbEntity
  8
0
  6
Continuous
 62
     7
370
    15
100
AcDbLine
 10
16.8072181148
 20
3.0619532832
 30
0.0
 11
17.496725817
 21
2.6639089594
 31
0.0
  0
LINE
  5
309
330
1F
100
AcDbEntity
  8
0
  6
Continuous
 62
     7
370
    15
100
AcDbLine
 10
15.0505601463
 20
2.0478562237
 30
0.0
 11
16.8072181148
 21
3.0619532832
 31
0.0
  0
ARC
  5
30A
330
1F
100
AcDbEntity
  8
0
  6
Continuous
 62
     7
370
    15
100
AcDbCircle
 10
18.7099079315
 20
1.6682007917
 30
0.0
 40
0.0811965297207351
100
AcDbArc
 50
293.8416372022
 51
354.8381732486
  0
LWPOLYLINE
  5
30B
330
1F
100
AcDbEntity
  8
0
  6
Continuous
 62
     7
370
    15
100
AcDbPolyline
 90
       29
 70
   128
 43
0.0
 10
15.6382816062
 20
2.059785817
 10
15.6516237006
 20
2.0501275122
 10
15.6609084004
 20
2.0389974718
 10
15.6656701007
 20
2.026953802
 10
15.6656701007
 20
2.0146003838
 10
15.6609084004
 20
2.0025567139
 10
15.6516237006
 20
1.9914266736
 10
15.6382816062
 20
1.9817683688
 10
15.6215511188
 20
1.9740661416
 10
15.6022712344
 20
1.9687061986
 10
15.5814086827
 20
1.9659573026
 10
15.5600096159
 20
1.9659573026
 10
15.5391471074
 20
1.9687061736
 10
15.5198672231
 20
1.9740661167
 10
15.5031367789
 20
1.9817683688
 10
15.4897946412
 20
1.9914266487
 10
15.4805099415
 20
2.002556689
 10
15.475748198
 20
2.0146003838
 10
15.475748198
 20
2.026953802
 10
15.4805099415
 20
2.0389974968
 10
15.4897946412
 20
2.0501275371
 10
15.5031367789
 20
2.059785817
 10
15.5198672231
 20
2.0674880691
 10
15.5391471074
 20
2.0728480122
 10
15.5600096159
 20
2.0755968832
 10
15.5814086827
 20
2.0755968832
 10
15.6022712344
 20
2.0728479872
 10
15.6215511188
 20
2.0674880442
 10
15.6382816062
 20
2.059785817
  0
LWPOLYLINE
  5
30C
330
1F
100
AcDbEntity
  8
0
  6
Continuous
 62
     7
370
    15
100
AcDbPolyline
 90
       29
 70
   128
 43
0.0
 10
18.0973799632
 20
2.059785817
 10
18.1107221008
 20
2.0501275371
 10
18.1200068006
 20
2.0389974968
 10
18.1247685441
 20
2.026953802
 10
18.1247685441
 20
2.0146003838
 10
18.1200068006
 20
2.002556689
 10
18.1107221008
 20
1.9914266487
 10
18.0973799632
 20
1.9817683688
 10
18.0806495189
 20
1.9740661167
 10
18.0613696346
 20
1.9687061736
 10
18.0405071261
 20
1.9659573026
 10
18.0191080593
 20
1.9659573026
 10
17.9982455076
 20
1.9687061986
 10
17.9789656233
 20
1.9740661416
 10
17.9622351358
 20
1.9817683688
 10
17.9488930414
 20
1.9914266736
 10
17.9396083416
 20
2.0025567139
 10
17.9348466414
 20
2.0146003838
 10
17.9348466414
 20
2.026953802
 10
17.9396083416
 20
2.0389974718
 10
17.9488930414
 20
2.0501275122
 10
17.9622351358
 20
2.059785817
 10
17.9789656233
 20
2.0674880442
 10
17.9982455076
 20
2.0728479872
 10
18.0191080593
 20
2.0755968832
 10
18.0405071261
 20
2.0755968832
 10
18.0613696346
 20
2.0728480122
 10
18.0806495189
 20
2.0674880691
 10
18.0973799632
 20
2.059785817
  0
ARC
  5
30D
330
1F
100
AcDbEntity
  8
0
  6
Continuous
 62
     7
370
    15
100
AcDbCircle
 10
18.6535470436
 20
1.9006831899
 30
0.0
 40
0.0191395807707579
100
AcDbArc
 50
110.4309619308
 51
152.0217493211
  0
LWPOLYLINE
  5
30E
330
1F
100
AcDbEntity
  8
0
  6
Continuous
 62
     7
370
    15
100
AcDbPolyline
 90
       18
 70
   128
 43
0.0
 10
15.5454854255
 20
2.0062157221
 10
15.5380768862
 20
2.0124591855
 10
15.5350754961
 20
2.0198260451
 10
15.5368866231
 20
2.0273213493
 10
15.5432656465
 20
2.0339327839
 10
15.5533511433
 20
2.0387674742
 10
15.5657809116
 20
2.0411724963
 10
15.5788762247
 20
2.0408229847
 10
15.5908685622
 20
2.0377661612
 10
15.6001382675
 20
2.0324148742
 10
15.6054334148
 20
2.0254918452
 10
15.6060388955
 20
2.0179320569
 10
15.6018728236
 20
2.0107565044
 10
15.5934979437
 20
2.0049342959
 10
15.5820453621
 20
2.0012517641
 10
15.569061751
 20
2.0002061978
 10
15.556300593
 20
2.0019388634
 10
15.5454854255
 20
2.0062157221
  0
LWPOLYLINE
  5
30F
330
1F
100
AcDbEntity
  8
0
  6
Continuous
 62
     7
370
    15
100
AcDbPolyline
 90
       18
 70
   128
 43
0.0
 10
18.0045838257
 20
2.0062157471
 10
17.9971752432
 20
2.0124591855
 10
17.9941738531
 20
2.0198260451
 10
17.9959850233
 20
2.0273213243
 10
18.0023640899
 20
2.0339327839
 10
18.0124495435
 20
2.0387674991
 10
18.0248792686
 20
2.0411724963
 10
18.0379746249
 20
2.0408229597
 10
18.0499670056
 20
2.0377661612
 10
18.0592367109
 20
2.0324148742
 10
18.064531815
 20
2.0254918202
 10
18.0651372524
 20
2.0179320569
 10
18.0609712238
 20
2.0107565293
 10
18.0525963871
 20
2.0049342959
 10
18.0411437623
 20
2.0012517392
 10
18.0281601079
 20
2.0002061978
 10
18.01539895
 20
2.0019388634
 10
18.0045838257
 20
2.0062157471
  0
ARC
  5
310
330
1F
100
AcDbEntity
  8
0
  6
Continuous
 62
     7
370
    15
100
AcDbCircle
 10
14.6218483063
 20
1.9096805826
 30
0.0
 40
0.3318863834351882
100
AcDbArc
 50
356.6645451664
 51
0.74354238
  0
LINE
  5
311
330
1F
100
AcDbEntity
  8
0
  6
Continuous
 62
     7
370
    15
100
AcDbLine
 10
14.9531724758
 20
1.8903708376
 30
0.0
 11
14.947360518
 21
1.8158388474
 31
0.0
  0
ARC
  5
312
330
1F
100
AcDbEntity
  8
0
  6
Continuous
 62
     7
370
    15
100
AcDbCircle
 10
14.98880414
 20
1.8199718877
 30
0.0
 40
0.0416491995623955
100
AcDbArc
 50
185.6950951561
 51
245.6251951801
  0
LINE
  5
313
330
1F
100
AcDbEntity
  8
0
  6
Continuous
 62
     7
370
    15
100
AcDbLine
 10
16.7863389698
 20
3.0814691576
 30
0.0
 11
16.7863389698
 21
3.1216532343
 31
0.0
  0
LINE
  5
314
330
1F
100
AcDbEntity
  8
0
  6
Continuous
 62
     7
370
    15
100
AcDbLine
 10
16.8072181148
 20
3.0619532832
 30
0.0
 11
16.8072181148
 21
2.8927943851
 31
0.0
  0
LINE
  5
315
330
1F
100
AcDbEntity
  8
0
  6
Continuous
 62
     7
370
    15
100
AcDbLine
 10
17.8952531436
 20
2.465413179
 30
0.0
 11
17.524068464
 21
2.6796935335
 31
0.0
  0
LINE
  5
316
330
1F
100
AcDbEntity
  8
0
  6
Continuous
 62
     7
370
    15
100
AcDbLine
 10
16.8280972598
 20
3.0814691576
 30
0.0
 11
16.8280972598
 21
3.1216532343
 31
0.0
  0
LINE
  5
317
330
1F
100
AcDbEntity
  8
0
  6
Continuous
 62
     7
370
    15
100
AcDbLine
 10
17.4942942148
 20
2.6089264231
 30
0.0
 11
17.496725817
 21
2.6639089594
 31
0.0
  0
LINE
  5
318
330
1F
100
AcDbEntity
  8
0
  6
Continuous
 62
     7
370
    15
100
AcDbLine
 10
17.8654788945
 20
2.3946460687
 30
0.0
 11
17.4942942148
 21
2.6089264231
 31
0.0
  0
LINE
  5
319
330
1F
100
AcDbEntity
  8
0
  6
Continuous
 62
     7
370
    15
100
AcDbLine
 10
17.8679104967
 20
2.4496286049
 30
0.0
 11
17.8654788945
 21
2.3946460687
 31
0.0
  0
LINE
  5
31A
330
1F
100
AcDbEntity
  8
0
  6
Continuous
 62
     7
370
    15
100
AcDbLine
 10
14.953170488
 20
1.8903732262
 30
0.0
 11
14.8317190653
 21
2.0118360871
 31
0.0
  0
ARC
  5
31B
330
1F
100
AcDbEntity
  8
0
  6
Continuous
 62
     7
370
    15
100
AcDbCircle
 10
14.8732663208
 20
2.0085414431
 30
0.0
 40
0.0416776812975454
100
AcDbArc
 50
108.3694481916
 51
175.4660061967
  0
LINE
  5
31C
330
1F
100
AcDbEntity
  8
0
  6
Continuous
 62
     7
370
    15
100
AcDbLine
 10
14.8317190653
 20
2.0118360871
 30
0.0
 11
14.8317190653
 21
1.9314678962
 31
0.0
  0
LINE
  5
31D
330
1F
100
AcDbEntity
  8
0
  6
Continuous
 62
     7
370
    15
100
AcDbLine
 10
14.8317190653
 20
1.9314678962
 30
0.0
 11
14.947360518
 21
1.8158388474
 31
0.0
  0
LWPOLYLINE
  5
31E
330
1F
100
AcDbEntity
  8
0
  6
Continuous
 62
     7
370
    15
100
AcDbPolyline
 90
       13
 70
   128
 43
0.0
 10
16.2733526754
 20
2.8415836069
 10
16.2703516743
 20
2.8443360701
 10
16.2629770993
 20
2.8546139716
 10
16.2604617963
 20
2.8656434566
 10
16.2629770993
 20
2.8766729914
 10
16.2703517175
 20
2.8869508181
 10
16.282082841
 20
2.8957766661
 10
16.2973713147
 20
2.9025488995
 10
16.3151749618
 20
2.906806176
 10
16.3342807034
 20
2.9082582046
 10
16.3533864019
 20
2.9068061511
 10
16.3711901786
 20
2.9025488995
 10
16.3759581013
 20
2.9008164585
  0
LWPOLYLINE
  5
31F
330
1F
100
AcDbEntity
  8
0
  6
Continuous
 62
     7
370
    15
100
AcDbPolyline
 90
       13
 70
   128
 43
0.0
 10
15.1134006325
 20
2.1719575459
 10
15.1103996313
 20
2.1747100091
 10
15.1030250564
 20
2.1849879106
 10
15.1005097534
 20
2.1960173956
 10
15.1030250131
 20
2.2070469055
 10
15.1103996313
 20
2.2173247321
 10
15.1221307548
 20
2.2261505802
 10
15.1374192285
 20
2.2329228136
 10
15.1552228756
 20
2.2371800901
 10
15.1743286605
 20
2.2386321436
 10
15.1934343589
 20
2.2371800901
 10
15.2112381356
 20
2.2329228385
 10
15.2160060584
 20
2.2311903975
  0
ARC
  5
320
330
1F
100
AcDbEntity
  8
0
  6
Continuous
 62
     7
370
    15
100
AcDbCircle
 10
14.8990391339
 20
2.0873254808
 30
0.0
 40
0.0552519003460951
100
AcDbArc
 50
109.0696790664
 51
225.2367223125
  0
LINE
  5
321
330
1F
100
AcDbEntity
  8
0
  6
Continuous
 62
     7
370
    15
100
AcDbLine
 10
16.4321039035
 20
3.0349857875
 30
0.0
 11
14.8809873554
 21
2.1395452642
 31
0.0
  0
ARC
  5
322
330
1F
100
AcDbEntity
  8
0
  6
Continuous
 62
     7
370
    15
100
AcDbCircle
 10
16.5256796451
 20
2.8519398351
 30
0.0
 40
0.2055778200558404
100
AcDbArc
 50
71.6156296295
 51
117.0767759707
  0
ARC
  5
323
330
1F
100
AcDbEntity
  8
0
  6
Continuous
 62
     7
370
    15
100
AcDbCircle
 10
14.8758060887
 20
1.98070632
 30
0.0
 40
0.0660915124066869
100
AcDbArc
 50
181.6375606102
 51
228.1594200263
  0
LINE
  5
324
330
1F
100
AcDbEntity
  8
0
  6
Continuous
 62
     7
370
    15
100
AcDbLine
 10
17.542227267
 20
2.6365975852
 30
0.0
 11
17.5406653412
 21
2.6701123393
 31
0.0
  0
LINE
  5
325
330
1F
100
AcDbEntity
  8
0
  6
Continuous
 62
     7
370
    15
100
AcDbLine
 10
17.8678654162
 20
2.4486106831
 30
0.0
 11
17.542227267
 21
2.6365975852
 31
0.0
  0
LINE
  5
326
330
1F
100
AcDbEntity
  8
0
  6
Continuous
 62
     7
370
    15
100
AcDbLine
 10
17.542227267
 20
2.6365975852
 30
0.0
 11
17.4942942148
 21
2.6089264231
 31
0.0
  0
LWPOLYLINE
  5
327
330
1F
100
AcDbEntity
  8
0
  6
Continuous
 62
     7
370
    15
100
AcDbPolyline
 90
       29
 70
   128
 43
0.0
 10
16.8678307847
 20
2.7695894491
 10
16.8811729223
 20
2.7599311693
 10
16.8904576221
 20
2.7488011289
 10
16.8952193224
 20
2.7367574591
 10
16.8952193224
 20
2.7244040408
 10
16.8904575789
 20
2.7123603461
 10
16.8811728791
 20
2.7012303058
 10
16.8678307847
 20
2.691572001
 10
16.8511002972
 20
2.6838697738
 10
16.8318204129
 20
2.6785098307
 10
16.8109579044
 20
2.6757609596
 10
16.7895588376
 20
2.6757609596
 10
16.7686963291
 20
2.6785098307
 10
16.7494164448
 20
2.6838697738
 10
16.7326859574
 20
2.691572001
 10
16.7193438629
 20
2.7012303058
 10
16.7100591632
 20
2.7123603461
 10
16.7052974197
 20
2.7244040408
 10
16.7052974197
 20
2.7367574591
 10
16.7100591199
 20
2.7488011289
 10
16.7193438197
 20
2.7599311693
 10
16.7326859574
 20
2.7695894491
 10
16.7494164016
 20
2.7772917012
 10
16.7686962859
 20
2.7826516443
 10
16.7895588376
 20
2.7854005403
 10
16.8109579044
 20
2.7854005403
 10
16.8318204561
 20
2.7826516443
 10
16.8511003405
 20
2.7772917012
 10
16.8678307847
 20
2.7695894491
  0
LWPOLYLINE
  5
328
330
1F
100
AcDbEntity
  8
0
  6
Continuous
 62
     7
370
    15
100
AcDbPolyline
 90
       18
 70
   128
 43
0.0
 10
16.7750346472
 20
2.7160193792
 10
16.7676260647
 20
2.7222628176
 10
16.7646246746
 20
2.7296296773
 10
16.7664358016
 20
2.7371249814
 10
16.7728148682
 20
2.743736441
 10
16.782900365
 20
2.7485711313
 10
16.7953300901
 20
2.7509761284
 10
16.8084254032
 20
2.7506266168
 10
16.8204177839
 20
2.7475698183
 10
16.8296874892
 20
2.7422185313
 10
16.8349825933
 20
2.7352954773
 10
16.8355880739
 20
2.727735689
 10
16.8314220453
 20
2.7205601615
 10
16.8230471654
 20
2.714737953
 10
16.8115945406
 20
2.7110553963
 10
16.7986109295
 20
2.71000983
 10
16.7858497715
 20
2.7117424956
 10
16.7750346472
 20
2.7160193792
  0
LINE
  5
329
330
1F
100
AcDbEntity
  8
0
  6
Continuous
 62
     8
370
    15
100
AcDbLine
 10
16.8118579152
 20
3.2063965095
 30
0.0
 11
16.8118579152
 21
3.2209435059
 31
0.0
  0
LINE
  5
32A
330
1F
100
AcDbEntity
  8
0
  6
Continuous
 62
     8
370
    15
100
AcDbLine
 10
16.7747394256
 20
3.2209435558
 30
0.0
 11
16.7747394256
 21
3.2063965594
 31
0.0
  0
ARC
  5
32B
330
1F
100
AcDbEntity
  8
0
  6
Continuous
 62
     8
370
    15
100
AcDbCircle
 10
15.0749109953
 20
5.1463349445
 30
0.0
 40
0.0324882710984631
100
AcDbArc
 50
53.8581494337
 51
114.8426866272
  0
ARC
  5
32C
330
1F
100
AcDbEntity
  8
0
  6
Continuous
 62
     8
370
    15
100
AcDbCircle
 10
15.0622953681
 20
5.1249194886
 30
0.0
 40
0.0336689617135783
100
AcDbArc
 50
181.6911426725
 51
244.3447316909
  0
ARC
  5
32D
330
1F
100
AcDbEntity
  8
0
  6
Continuous
 62
     8
370
    15
100
AcDbCircle
 10
18.5391707109
 20
5.1323361263
 30
0.0
 40
0.0327053271853311
100
AcDbArc
 50
294.6254832893
 51
359.3786638801
  0
ARC
  5
32E
330
1F
100
AcDbEntity
  8
0
  6
Continuous
 62
     8
370
    15
100
AcDbCircle
 10
18.5255109472
 20
5.1553654379
 30
0.0
 40
0.0316329986039649
100
AcDbArc
 50
64.336988679
 51
127.0660862151
  0
ARC
  5
32F
330
1F
100
AcDbEntity
  8
0
  6
Continuous
 62
     8
370
    15
100
AcDbCircle
 10
16.7881566755
 20
6.1363247854
 30
0.0
 40
0.0316166608806289
100
AcDbArc
 50
52.9226792406
 51
115.7672374606
  0
ARC
  5
330
330
1F
100
AcDbEntity
  8
0
  6
Continuous
 62
     8
370
    15
100
AcDbCircle
 10
16.8263800988
 20
6.1353093969
 30
0.0
 40
0.0324917332863027
100
AcDbArc
 50
65.170848207
 51
126.1392350918
  0
LINE
  5
331
330
1F
100
AcDbEntity
  8
0
  6
Continuous
 62
     8
370
    15
100
AcDbLine
 10
15.0116123376
 20
4.2242281621
 30
0.0
 11
15.0116123376
 21
4.2322703067
 31
0.0
  0
LINE
  5
332
330
1F
100
AcDbEntity
  8
0
  6
Continuous
 62
     8
370
    15
100
AcDbLine
 10
18.5889044908
 20
4.240305806
 30
0.0
 11
18.5889044908
 21
4.2322636614
 31
0.0
  0
ARC
  5
333
330
1F
100
AcDbEntity
  8
0
  6
Continuous
 62
     8
370
    15
100
AcDbCircle
 10
18.7491313167
 20
1.7856785672
 30
0.0
 40
0.0220622676044651
100
AcDbArc
 50
49.2126116429
 51
113.3560954329
  0
ARC
  5
334
330
1F
100
AcDbEntity
  8
0
  6
Continuous
 62
     8
370
    15
100
AcDbCircle
 10
18.7082003839
 20
1.7496919087
 30
0.0
 40
0.0829212423875648
100
AcDbArc
 50
294.6072076976
 51
354.7176592483
  0
LINE
  5
335
330
1F
100
AcDbEntity
  8
0
  6
Continuous
 62
     8
370
    15
100
AcDbLine
 10
15.0092923942
 20
2.0716795585
 30
0.0
 11
15.0092923942
 21
2.0957860824
 31
0.0
  0
LINE
  5
336
330
1F
100
AcDbEntity
  8
0
  6
Continuous
 62
     8
370
    15
100
AcDbLine
 10
18.5912243478
 20
2.1038216316
 30
0.0
 11
18.5912243478
 21
2.0797151076
 31
0.0
  0
LINE
  5
337
330
1F
100
AcDbEntity
  8
0
  6
Continuous
 62
     8
370
    15
100
AcDbLine
 10
14.8601318903
 20
2.0480954044
 30
0.0
 11
14.9560602193
 21
1.9521775036
 31
0.0
  0
LINE
  5
338
330
1F
100
AcDbEntity
  8
0
  6
Continuous
 62
     8
370
    15
100
AcDbLine
 10
16.6150579386
 20
3.0388458565
 30
0.0
 11
16.5905168713
 21
3.0470253912
 31
0.0
  0
ARC
  5
339
330
1F
100
AcDbEntity
  8
0
  6
Continuous
 62
     8
370
    15
100
AcDbCircle
 10
14.87595895
 20
2.0611775454
 30
0.0
 40
0.066270256618051
100
AcDbArc
 50
182.4092440943
 51
228.1203826274
  0
ARC
  5
33A
330
1F
100
AcDbEntity
  8
0
  6
Continuous
 62
     8
370
    15
100
AcDbCircle
 10
14.8713644844
 20
2.1260953224
 30
0.0
 40
0.0165378529366487
100
AcDbArc
 50
54.4178644777
 51
113.9031207831
  0
ARC
  5
33B
330
1F
100
AcDbEntity
  8
0
  6
Continuous
 62
     8
370
    15
100
AcDbCircle
 10
16.422493687
 20
3.0215711186
 30
0.0
 40
0.0165018060257059
100
AcDbArc
 50
54.3823358381
 51
114.3072788008
  0
ARC
  5
33C
330
1F
100
AcDbEntity
  8
0
  6
Continuous
 62
     8
370
    15
100
AcDbCircle
 10
16.5991549151
 20
3.040935841
 30
0.0
 40
0.010568747415219
100
AcDbArc
 50
80.546714716
 51
144.817362875
  0
LINE
  5
33D
330
1F
100
AcDbEntity
  8
0
  6
Continuous
 62
     7
370
    15
100
AcDbLine
 10
6.9082977588
 20
5.1092981516
 30
0.0
 11
6.9082977588
 21
5.0305579904
 31
0.0
  0
LINE
  5
33E
330
1F
100
AcDbEntity
  8
0
  6
Continuous
 62
     7
370
    15
100
AcDbLine
 10
3.6928589038
 20
5.0305579904
 30
0.0
 11
3.6928589038
 21
5.1092981516
 31
0.0
  0
LINE
  5
33F
330
1F
100
AcDbEntity
  8
0
  6
Continuous
 62
     7
370
    15
100
AcDbLine
 10
4.3753815126
 20
5.128983185
 30
0.0
 11
4.3719454456
 21
5.3258335743
 31
0.0
  0
LINE
  5
340
330
1F
100
AcDbEntity
  8
0
  6
Continuous
 62
     7
370
    15
100
AcDbLine
 10
4.1425970684
 20
5.3258335743
 30
0.0
 11
4.1391610015
 21
5.128983185
 31
0.0
  0
LINE
  5
341
330
1F
100
AcDbEntity
  8
0
  6
Continuous
 62
     7
370
    15
100
AcDbLine
 10
6.4619956612
 20
5.128983185
 30
0.0
 11
6.4585595942
 21
5.3258335743
 31
0.0
  0
LINE
  5
342
330
1F
100
AcDbEntity
  8
0
  6
Continuous
 62
     7
370
    15
100
AcDbLine
 10
6.229211217
 20
5.3258335743
 30
0.0
 11
6.22577515
 21
5.128983185
 31
0.0
  0
LINE
  5
343
330
1F
100
AcDbEntity
  8
0
  6
Continuous
 62
     7
370
    15
100
AcDbLine
 10
6.8774447286
 20
5.3848886838
 30
0.0
 11
6.8556965131
 21
5.3848886838
 31
0.0
  0
LINE
  5
344
330
1F
100
AcDbEntity
  8
0
  6
Continuous
 62
     7
370
    15
100
AcDbLine
 10
6.8877612894
 20
5.1880383128
 30
0.0
 11
6.8774447286
 21
5.3848886838
 31
0.0
  0
LINE
  5
345
330
1F
100
AcDbEntity
  8
0
  6
Continuous
 62
     7
370
    15
100
AcDbLine
 10
3.7237119341
 20
5.3848886838
 30
0.0
 11
3.7133953733
 21
5.1880383128
 31
0.0
  0
LINE
  5
346
330
1F
100
AcDbEntity
  8
0
  6
Continuous
 62
     7
370
    15
100
AcDbLine
 10
3.7454601495
 20
5.3848886838
 30
0.0
 11
3.7237119341
 21
5.3848886838
 31
0.0
  0
LINE
  5
347
330
1F
100
AcDbEntity
  8
0
  6
Continuous
 62
     7
370
    15
100
AcDbLine
 10
3.7454601495
 20
5.424258769
 30
0.0
 11
3.7454601495
 21
5.3848886838
 31
0.0
  0
LINE
  5
348
330
1F
100
AcDbEntity
  8
0
  6
Continuous
 62
     7
370
    15
100
AcDbLine
 10
3.7690823033
 20
5.424258769
 30
0.0
 11
3.7454601495
 21
5.424258769
 31
0.0
  0
LINE
  5
349
330
1F
100
AcDbEntity
  8
0
  6
Continuous
 62
     7
370
    15
100
AcDbLine
 10
3.8154843139
 20
5.3652036778
 30
0.0
 11
3.7690823033
 21
5.3652036778
 31
0.0
  0
LINE
  5
34A
330
1F
100
AcDbEntity
  8
0
  6
Continuous
 62
     7
370
    15
100
AcDbLine
 10
3.8278641576
 20
5.128983185
 30
0.0
 11
3.8154843139
 21
5.3652036778
 31
0.0
  0
LINE
  5
34B
330
1F
100
AcDbEntity
  8
0
  6
Continuous
 62
     7
370
    15
100
AcDbLine
 10
6.7732925051
 20
5.128983185
 30
0.0
 11
3.8278641576
 21
5.128983185
 31
0.0
  0
LINE
  5
34C
330
1F
100
AcDbEntity
  8
0
  6
Continuous
 62
     7
370
    15
100
AcDbLine
 10
6.7856723487
 20
5.3652036778
 30
0.0
 11
6.7732925051
 21
5.128983185
 31
0.0
  0
LINE
  5
34D
330
1F
100
AcDbEntity
  8
0
  6
Continuous
 62
     7
370
    15
100
AcDbLine
 10
6.8320743594
 20
5.3652036778
 30
0.0
 11
6.7856723487
 21
5.3652036778
 31
0.0
  0
LINE
  5
34E
330
1F
100
AcDbEntity
  8
0
  6
Continuous
 62
     7
370
    15
100
AcDbLine
 10
6.8320743594
 20
5.3652036778
 30
0.0
 11
6.8320743594
 21
5.424258769
 31
0.0
  0
LINE
  5
34F
330
1F
100
AcDbEntity
  8
0
  6
Continuous
 62
     7
370
    15
100
AcDbLine
 10
6.8556965131
 20
5.424258769
 30
0.0
 11
6.8320743594
 21
5.424258769
 31
0.0
  0
LINE
  5
350
330
1F
100
AcDbEntity
  8
0
  6
Continuous
 62
     7
370
    15
100
AcDbLine
 10
6.8556965131
 20
5.3848886838
 30
0.0
 11
6.8556965131
 21
5.424258769
 31
0.0
  0
LINE
  5
351
330
1F
100
AcDbEntity
  8
0
  6
Continuous
 62
     7
370
    15
100
AcDbLine
 10
3.7690823033
 20
5.424258769
 30
0.0
 11
3.7690823033
 21
5.3652036778
 31
0.0
  0
LINE
  5
352
330
1F
100
AcDbEntity
  8
0
  6
Continuous
 62
     7
370
    15
100
AcDbLine
 10
3.3990034585
 20
5.1092981516
 30
0.0
 11
3.3990034585
 21
5.0305579904
 31
0.0
  0
LINE
  5
353
330
1F
100
AcDbEntity
  8
0
  6
Continuous
 62
     7
370
    15
100
AcDbLine
 10
7.2021532042
 20
5.1092981516
 30
0.0
 11
7.2021532042
 21
5.0305579904
 31
0.0
  0
LINE
  5
354
330
1F
100
AcDbEntity
  8
0
  6
Continuous
 62
     7
370
    15
100
AcDbLine
 10
3.3202634348
 20
5.1486682276
 30
0.0
 11
3.3202634348
 21
5.0305579904
 31
0.0
  0
LINE
  5
355
330
1F
100
AcDbEntity
  8
0
  6
Continuous
 62
     7
370
    15
100
AcDbLine
 10
7.2808932279
 20
5.1486682276
 30
0.0
 11
7.2808932279
 21
5.0305579904
 31
0.0
  0
LINE
  5
356
330
1F
100
AcDbEntity
  8
0
  6
Continuous
 62
     7
370
    15
100
AcDbLine
 10
3.7133953733
 20
5.1880383128
 30
0.0
 11
3.3596334466
 21
5.1880383128
 31
0.0
  0
ARC
  5
357
330
1F
100
AcDbEntity
  8
0
  6
Continuous
 62
     7
370
    15
100
AcDbCircle
 10
3.3596334494
 20
5.1486682266
 30
0.0
 40
0.0393700787401574
100
AcDbArc
 50
90.0
 51
180.0
  0
LINE
  5
358
330
1F
100
AcDbEntity
  8
0
  6
Continuous
 62
     7
370
    15
100
AcDbLine
 10
7.241523216
 20
5.1880383128
 30
0.0
 11
6.8877612894
 21
5.1880383128
 31
0.0
  0
LINE
  5
359
330
1F
100
AcDbEntity
  8
0
  6
Continuous
 62
     7
370
    15
100
AcDbLine
 10
3.3990034585
 20
5.0305579904
 30
0.0
 11
3.3202634348
 21
5.0305579904
 31
0.0
  0
LINE
  5
35A
330
1F
100
AcDbEntity
  8
0
  6
Continuous
 62
     7
370
    15
100
AcDbLine
 10
6.8720132846
 20
5.0305579904
 30
0.0
 11
3.729143378
 21
5.0305579904
 31
0.0
  0
LINE
  5
35B
330
1F
100
AcDbEntity
  8
0
  6
Continuous
 62
     7
370
    15
100
AcDbLine
 10
7.2808932279
 20
5.0305579904
 30
0.0
 11
7.2021532042
 21
5.0305579904
 31
0.0
  0
ARC
  5
35C
330
1F
100
AcDbEntity
  8
0
  6
Continuous
 62
     7
370
    15
100
AcDbCircle
 10
7.2415232132
 20
5.1486682266
 30
0.0
 40
0.0393700787401592
100
AcDbArc
 50
0.0
 51
90.0
  0
LINE
  5
35D
330
1F
100
AcDbEntity
  8
0
  6
Continuous
 62
     7
370
    15
100
AcDbLine
 10
3.729143378
 20
5.0305579904
 30
0.0
 11
3.729143378
 21
5.1092981516
 31
0.0
  0
LINE
  5
35E
330
1F
100
AcDbEntity
  8
0
  6
Continuous
 62
     7
370
    15
100
AcDbLine
 10
3.729143378
 20
5.1092981516
 30
0.0
 11
3.3990034585
 21
5.1092981516
 31
0.0
  0
LINE
  5
35F
330
1F
100
AcDbEntity
  8
0
  6
Continuous
 62
     7
370
    15
100
AcDbLine
 10
6.8720132846
 20
5.0305579904
 30
0.0
 11
6.8720132846
 21
5.1092981516
 31
0.0
  0
LINE
  5
360
330
1F
100
AcDbEntity
  8
0
  6
Continuous
 62
     7
370
    15
100
AcDbLine
 10
7.2021532042
 20
5.1092981516
 30
0.0
 11
6.8720132846
 21
5.1092981516
 31
0.0
  0
LINE
  5
361
330
1F
100
AcDbEntity
  8
0
  6
Continuous
 62
     7
370
    15
100
AcDbLine
 10
6.9082977588
 20
5.0305579904
 30
0.0
 11
7.2021532042
 21
5.0305579904
 31
0.0
  0
LINE
  5
362
330
1F
100
AcDbEntity
  8
0
  6
Continuous
 62
     7
370
    15
100
AcDbLine
 10
3.3990034585
 20
5.0305579904
 30
0.0
 11
3.6928589038
 21
5.0305579904
 31
0.0
  0
LINE
  5
363
330
1F
100
AcDbEntity
  8
0
  6
Continuous
 62
     7
370
    15
100
AcDbLine
 10
4.3719454456
 20
5.3258335743
 30
0.0
 11
4.1425970684
 21
5.3258335743
 31
0.0
  0
LINE
  5
364
330
1F
100
AcDbEntity
  8
0
  6
Continuous
 62
     7
370
    15
100
AcDbLine
 10
6.4585595942
 20
5.3258335743
 30
0.0
 11
6.229211217
 21
5.3258335743
 31
0.0
  0
LINE
  5
365
330
1F
100
AcDbEntity
  8
0
  6
Continuous
 62
     7
370
    15
100
AcDbLine
 10
3.6928589038
 20
5.0305579904
 30
0.0
 11
3.729143378
 21
5.0305579904
 31
0.0
  0
LINE
  5
366
330
1F
100
AcDbEntity
  8
0
  6
Continuous
 62
     7
370
    15
100
AcDbLine
 10
6.8720132846
 20
5.0305579904
 30
0.0
 11
6.9082977588
 21
5.0305579904
 31
0.0
  0
LINE
  5
367
330
1F
100
AcDbEntity
  8
0
  6
Continuous
 62
     7
370
    15
100
AcDbLine
 10
4.9856176864
 20
5.2864635075
 30
0.0
 11
4.9856176864
 21
5.3652036778
 31
0.0
  0
LINE
  5
368
330
1F
100
AcDbEntity
  8
0
  6
Continuous
 62
     7
370
    15
100
AcDbLine
 10
5.6155389762
 20
5.2864635075
 30
0.0
 11
4.9856176864
 21
5.2864635075
 31
0.0
  0
LINE
  5
369
330
1F
100
AcDbEntity
  8
0
  6
Continuous
 62
     7
370
    15
100
AcDbLine
 10
5.6155389762
 20
5.3652036778
 30
0.0
 11
5.6155389762
 21
5.2864635075
 31
0.0
  0
LINE
  5
36A
330
1F
100
AcDbEntity
  8
0
  6
Continuous
 62
     7
370
    15
100
AcDbLine
 10
3.8154843139
 20
5.3652036778
 30
0.0
 11
4.9856176864
 21
5.3652036778
 31
0.0
  0
LINE
  5
36B
330
1F
100
AcDbEntity
  8
0
  6
Continuous
 62
     7
370
    15
100
AcDbLine
 10
5.6155389762
 20
5.3652036778
 30
0.0
 11
6.7856723487
 21
5.3652036778
 31
0.0
  0
LINE
  5
36C
330
1F
100
AcDbEntity
  8
0
  6
Continuous
 62
     7
370
    15
100
AcDbLine
 10
6.7966412753
 20
5.424258769
 30
0.0
 11
6.8320743594
 21
5.424258769
 31
0.0
  0
LINE
  5
36D
330
1F
100
AcDbEntity
  8
0
  6
Continuous
 62
     7
370
    15
100
AcDbLine
 10
3.7690823033
 20
5.424258769
 30
0.0
 11
3.8045153873
 21
5.424258769
 31
0.0
  0
LINE
  5
36E
330
1F
100
AcDbEntity
  8
0
  6
Continuous
 62
     7
370
    15
100
AcDbLine
 10
5.6155389762
 20
5.3652036778
 30
0.0
 11
4.9856176864
 21
5.3652036778
 31
0.0
  0
LINE
  5
36F
330
1F
100
AcDbEntity
  8
0
  6
Continuous
 62
     7
370
    15
100
AcDbLine
 10
3.8045153873
 20
5.424258769
 30
0.0
 11
6.7966412753
 21
5.424258769
 31
0.0
  0
HATCH
  5
370
330
1F
100
AcDbEntity
  8
0
  6
Continuous
 62
     7
370
     0
100
AcDbHatch
 10
0.0
 20
0.0
 30
0.0
210
0.0
220
0.0
230
1.0
  2
ANSI31
 70
     0
 71
     0
 91
        1
 92
        0
 93
       30
 72
     1
 10
6.855696441565389
 20
5.384888699024061
 11
6.855696441565389
 21
5.424258777764218
 72
     1
 10
6.855696441565389
 20
5.424258777764218
 11
6.832074394321294
 21
5.424258777764218
 72
     1
 10
6.832074394321294
 20
5.424258777764218
 11
6.832074394321294
 21
5.365203659653982
 72
     1
 10
6.832074394321294
 20
5.365203659653982
 11
6.785672360111666
 21
5.365203659653982
 72
     1
 10
6.785672360111666
 20
5.365203659653982
 11
6.773292569729845
 21
5.128983187213038
 72
     1
 10
6.773292569729845
 20
5.128983187213038
 11
3.827864092928491
 21
5.128983187213038
 72
     1
 10
3.827864092928491
 20
5.128983187213038
 11
3.815484302546671
 21
5.365203659653982
 72
     1
 10
3.815484302546671
 20
5.365203659653982
 11
3.769082268337042
 21
5.365203659653982
 72
     1
 10
3.769082268337042
 20
5.365203659653982
 11
3.769082268337042
 21
5.424258777764218
 72
     1
 10
3.769082268337042
 20
5.424258777764218
 11
3.745460221092948
 21
5.424258777764218
 72
     1
 10
3.745460221092948
 20
5.424258777764218
 11
3.745460221092948
 21
5.384888699024061
 72
     1
 10
3.745460221092948
 20
5.384888699024061
 11
3.723711883326038
 21
5.384888699026728
 72
     1
 10
3.723711883326038
 20
5.384888699026728
 11
3.713395391341141
 21
5.188038305323273
 72
     1
 10
3.713395391341141
 20
5.188038305323273
 11
3.359633449439404
 21
5.188038305323273
 72
     2
 10
3.359633449439404
 20
5.148668226583116
 40
0.0393700787401575
 50
90.0
 51
180.0
 73
     1
 72
     1
 10
3.320263370699247
 20
5.148668226583116
 11
3.320263370699247
 21
5.030557990362643
 72
     1
 10
3.320263370699247
 20
5.030557990362643
 11
3.399003528179562
 21
5.030557990362643
 72
     1
 10
3.399003528179562
 20
5.030557990362643
 11
3.399003528179562
 21
5.109298147842959
 72
     1
 10
3.399003528179562
 20
5.109298147842959
 11
3.729143422837112
 21
5.109298147842959
 72
     1
 10
3.729143422837112
 20
5.109298147842959
 11
3.729143422837112
 21
5.030557990362643
 72
     1
 10
3.729143422837112
 20
5.030557990362643
 11
6.872013239821225
 21
5.030557990362643
 72
     1
 10
6.872013239821225
 20
5.030557990362643
 11
6.872013239821225
 21
5.109298147842959
 72
     1
 10
6.872013239821225
 20
5.109298147842959
 11
7.202153134478774
 21
5.109298147842959
 72
     1
 10
7.202153134478774
 20
5.109298147842959
 11
7.202153134478774
 21
5.030557990362643
 72
     1
 10
7.202153134478774
 20
5.030557990362643
 11
7.280893291959091
 21
5.030557990362643
 72
     1
 10
7.280893291959091
 20
5.030557990362643
 11
7.280893291959091
 21
5.148668226583116
 72
     2
 10
7.241523213218931
 20
5.148668226583116
 40
0.0393700787401575
 50
0.0
 51
90.0
 73
     1
 72
     1
 10
7.241523213218931
 20
5.188038305323273
 11
6.887761271317196
 21
5.188038305323273
 72
     1
 10
6.887761271317196
 20
5.188038305323273
 11
6.877444779332298
 21
5.384888699026728
 72
     1
 10
6.877444779332298
 20
5.384888699026728
 11
6.855696441565389
 21
5.384888699024061
 97
        0
 75
     0
 76
     1
 52
0.0
 41
1.25
 77
     0
 78
     1
 53
45.0
 43
0.0
 44
0.0
 45
-0.110485434560398
 46
0.1104854345603981
 79
     0
 98
        1
 10
0.0
 20
0.0
  0
DIMENSION
  5
371
330
1F
100
AcDbEntity
  8
0
  6
Continuous
 62
     7
370
     0
100
AcDbDimension
  2
*D26
 10
6.6128935634
 20
5.0305579904
 30
0.0
 11
6.6128935634
 21
4.7102776902
 31
0.0
 70
   160
 71
     2
 42
-1.0
  3
SLDDIMSTYLE4
100
AcDbAlignedDimension
 13
6.7732925697
 23
5.1289831872
 33
0.0
 14
6.8720132398
 24
5.0305579904
 34
0.0
 50
90.0
100
AcDbRotatedDimension
  0
DIMENSION
  5
385
330
1F
100
AcDbEntity
  8
0
  6
Continuous
 62
     7
370
     0
100
AcDbDimension
  2
*D27
 10
4.043748812
 20
5.3258335809
 30
0.0
 11
4.043748812
 21
5.7456881016
 31
0.0
 70
   160
 71
     2
 42
-1.0
  3
SLDDIMSTYLE4
100
AcDbAlignedDimension
 13
3.8278640929
 23
5.1289831872
 33
0.0
 14
4.1425970449
 24
5.3258335809
 34
0.0
 50
90.0
100
AcDbRotatedDimension
  0
DIMENSION
  5
399
330
1F
100
AcDbEntity
  8
0
  6
Continuous
 62
     7
370
     0
100
AcDbDimension
  2
*D28
 10
3.0044468303
 20
5.0305579904
 30
0.0
 11
3.0044468303
 21
4.6409204495
 31
0.0
 70
   160
 71
     2
 42
-1.0
  3
SLDDIMSTYLE5
100
AcDbAlignedDimension
 13
3.3596334494
 23
5.1880383053
 33
0.0
 14
3.3202633707
 24
5.0305579904
 34
0.0
 50
90.0
100
AcDbRotatedDimension
  0
DIMENSION
  5
3AF
330
1F
100
AcDbEntity
  8
0
  6
Continuous
 62
     7
370
     0
100
AcDbDimension
  2
*D29
 10
2.2882843317
 20
5.4242587778
 30
0.0
 11
2.2882843317
 21
5.7456881016
 31
0.0
 70
   160
 71
     2
 42
-1.0
  3
SLDDIMSTYLE5
100
AcDbAlignedDimension
 13
3.3202633707
 23
5.0305579904
 33
0.0
 14
3.7454602211
 24
5.4242587778
 34
0.0
 50
90.0
100
AcDbRotatedDimension
  0
MTEXT
  5
3C4
330
1F
100
AcDbEntity
  8
0
  6
Continuous
 62
     7
370
     0
100
AcDbMText
 10
5.4034429027
 20
4.6998328492
 30
0.0
 40
0.15625
 41
0.0
 71
     2
 72
     1
  1
\LSECTION A-A
  7
SLDTEXTSTYLE0
 73
     1
 44
1.0
  0
LINE
  5
3C5
330
1F
100
AcDbEntity
  8
0
  6
Continuous
 62
     7
370
    15
100
AcDbLine
 10
12.2338833761
 20
7.3788332654
 30
0.0
 11
12.2338833761
 21
7.3785839349
 31
0.0
  0
LINE
  5
3C6
330
1F
100
AcDbEntity
  8
0
  6
Continuous
 62
     7
370
    15
100
AcDbLine
 10
12.2732534567
 20
7.3785839349
 30
0.0
 11
12.2732534567
 21
7.3788332654
 31
0.0
  0
LINE
  5
3C7
330
1F
100
AcDbEntity
  8
0
  6
Continuous
 62
     7
370
    15
100
AcDbLine
 10
12.2732534567
 20
10.552061648
 30
0.0
 11
12.2732534567
 21
10.5523109784
 31
0.0
  0
LINE
  5
3C8
330
1F
100
AcDbEntity
  8
0
  6
Continuous
 62
     7
370
    15
100
AcDbLine
 10
12.2338833761
 20
10.5523109784
 30
0.0
 11
12.2338833761
 21
10.552061648
 31
0.0
  0
LINE
  5
3C9
330
1F
100
AcDbEntity
  8
0
  6
Continuous
 62
     7
370
    15
100
AcDbLine
 10
12.5685290613
 20
10.4654474752
 30
0.0
 11
12.5291589761
 21
10.4654474752
 31
0.0
  0
LINE
  5
3CA
330
1F
100
AcDbEntity
  8
0
  6
Continuous
 62
     7
370
    15
100
AcDbLine
 10
12.5685290613
 20
10.4685423995
 30
0.0
 11
12.5685290613
 21
10.4654474752
 31
0.0
  0
LINE
  5
3CB
330
1F
100
AcDbEntity
  8
0
  6
Continuous
 62
     7
370
    15
100
AcDbLine
 10
13.7448522823
 20
10.4685423995
 30
0.0
 11
12.5685290613
 21
10.4685423995
 31
0.0
  0
LINE
  5
3CC
330
1F
100
AcDbEntity
  8
0
  6
Continuous
 62
     7
370
    15
100
AcDbLine
 10
13.6777951503
 20
10.4014852675
 30
0.0
 11
13.7448522823
 21
10.4685423995
 31
0.0
  0
LINE
  5
3CD
330
1F
100
AcDbEntity
  8
0
  6
Continuous
 62
     7
370
    15
100
AcDbLine
 10
10.8293416825
 20
10.4014852675
 30
0.0
 11
13.6777951503
 21
10.4014852675
 31
0.0
  0
LINE
  5
3CE
330
1F
100
AcDbEntity
  8
0
  6
Continuous
 62
     7
370
    15
100
AcDbLine
 10
10.7622845505
 20
10.4685423995
 30
0.0
 11
10.8293416825
 21
10.4014852675
 31
0.0
  0
LINE
  5
3CF
330
1F
100
AcDbEntity
  8
0
  6
Continuous
 62
     7
370
    15
100
AcDbLine
 10
11.9386077715
 20
10.4685423995
 30
0.0
 11
10.7622845505
 21
10.4685423995
 31
0.0
  0
LINE
  5
3D0
330
1F
100
AcDbEntity
  8
0
  6
Continuous
 62
     7
370
    15
100
AcDbLine
 10
11.9386077715
 20
10.4654474752
 30
0.0
 11
11.9386077715
 21
10.4685423995
 31
0.0
  0
LINE
  5
3D1
330
1F
100
AcDbEntity
  8
0
  6
Continuous
 62
     7
370
    15
100
AcDbLine
 10
11.9779778567
 20
10.4654474752
 30
0.0
 11
11.9386077715
 21
10.4654474752
 31
0.0
  0
LINE
  5
3D2
330
1F
100
AcDbEntity
  8
0
  6
Continuous
 62
     7
370
    15
100
AcDbLine
 10
11.9779778567
 20
10.4714309661
 30
0.0
 11
11.9779778567
 21
10.4654474752
 31
0.0
  0
LINE
  5
3D3
330
1F
100
AcDbEntity
  8
0
  6
Continuous
 62
     7
370
    15
100
AcDbLine
 10
12.5291589761
 20
10.4714309661
 30
0.0
 11
11.9779778567
 21
10.4714309661
 31
0.0
  0
LINE
  5
3D4
330
1F
100
AcDbEntity
  8
0
  6
Continuous
 62
     7
370
    15
100
AcDbLine
 10
12.5291589761
 20
10.4654474752
 30
0.0
 11
12.5291589761
 21
10.4714309661
 31
0.0
  0
LINE
  5
3D5
330
1F
100
AcDbEntity
  8
0
  6
Continuous
 62
     7
370
    15
100
AcDbLine
 10
12.5291589761
 20
10.5074914829
 30
0.0
 11
12.5291589761
 21
10.4714309661
 31
0.0
  0
LINE
  5
3D6
330
1F
100
AcDbEntity
  8
0
  6
Continuous
 62
     7
370
    15
100
AcDbLine
 10
12.5291589761
 20
10.5074914829
 30
0.0
 11
11.9779778567
 21
10.5074914829
 31
0.0
  0
LINE
  5
3D7
330
1F
100
AcDbEntity
  8
0
  6
Continuous
 62
     7
370
    15
100
AcDbLine
 10
11.9779778567
 20
10.4714309661
 30
0.0
 11
11.9779778567
 21
10.5074914829
 31
0.0
  0
LINE
  5
3D8
330
1F
100
AcDbEntity
  8
0
  6
Continuous
 62
     7
370
    15
100
AcDbLine
 10
12.5291589761
 20
7.4234034305
 30
0.0
 11
11.9779778567
 21
7.4234034305
 31
0.0
  0
LINE
  5
3D9
330
1F
100
AcDbEntity
  8
0
  6
Continuous
 62
     7
370
    15
100
AcDbLine
 10
11.9779778567
 20
7.4234034305
 30
0.0
 11
11.9779778567
 21
7.4594639473
 31
0.0
  0
LINE
  5
3DA
330
1F
100
AcDbEntity
  8
0
  6
Continuous
 62
     7
370
    15
100
AcDbLine
 10
11.9779778567
 20
7.4594639473
 30
0.0
 11
12.5291589761
 21
7.4594639473
 31
0.0
  0
LINE
  5
3DB
330
1F
100
AcDbEntity
  8
0
  6
Continuous
 62
     7
370
    15
100
AcDbLine
 10
12.5291589761
 20
7.4234034305
 30
0.0
 11
12.5291589761
 21
7.4594639473
 31
0.0
  0
LINE
  5
3DC
330
1F
100
AcDbEntity
  8
0
  6
Continuous
 62
     7
370
    15
100
AcDbLine
 10
10.8293416825
 20
7.5294096459
 30
0.0
 11
10.7622845505
 21
7.4623525139
 31
0.0
  0
LINE
  5
3DD
330
1F
100
AcDbEntity
  8
0
  6
Continuous
 62
     7
370
    15
100
AcDbLine
 10
13.6777951503
 20
7.5294096459
 30
0.0
 11
10.8293416825
 21
7.5294096459
 31
0.0
  0
LINE
  5
3DE
330
1F
100
AcDbEntity
  8
0
  6
Continuous
 62
     7
370
    15
100
AcDbLine
 10
13.6777951503
 20
7.5294096459
 30
0.0
 11
13.7448522823
 21
7.4623525139
 31
0.0
  0
LINE
  5
3DF
330
1F
100
AcDbEntity
  8
0
  6
Continuous
 62
     7
370
    15
100
AcDbLine
 10
12.5685290613
 20
7.4623525139
 30
0.0
 11
13.7448522823
 21
7.4623525139
 31
0.0
  0
LINE
  5
3E0
330
1F
100
AcDbEntity
  8
0
  6
Continuous
 62
     7
370
    15
100
AcDbLine
 10
12.5685290613
 20
7.4654474382
 30
0.0
 11
12.5685290613
 21
7.4623525139
 31
0.0
  0
LINE
  5
3E1
330
1F
100
AcDbEntity
  8
0
  6
Continuous
 62
     7
370
    15
100
AcDbLine
 10
12.5291589761
 20
7.4654474382
 30
0.0
 11
12.5685290613
 21
7.4654474382
 31
0.0
  0
LINE
  5
3E2
330
1F
100
AcDbEntity
  8
0
  6
Continuous
 62
     7
370
    15
100
AcDbLine
 10
11.9386077715
 20
7.4654474382
 30
0.0
 11
11.9779778567
 21
7.4654474382
 31
0.0
  0
LINE
  5
3E3
330
1F
100
AcDbEntity
  8
0
  6
Continuous
 62
     7
370
    15
100
AcDbLine
 10
11.9386077715
 20
7.4623525139
 30
0.0
 11
11.9386077715
 21
7.4654474382
 31
0.0
  0
LINE
  5
3E4
330
1F
100
AcDbEntity
  8
0
  6
Continuous
 62
     7
370
    15
100
AcDbLine
 10
10.7622845505
 20
7.4623525139
 30
0.0
 11
11.9386077715
 21
7.4623525139
 31
0.0
  0
LINE
  5
3E5
330
1F
100
AcDbEntity
  8
0
  6
Continuous
 62
     7
370
    15
100
AcDbLine
 10
12.5291589761
 20
7.4594639473
 30
0.0
 11
12.5291589761
 21
7.4654474382
 31
0.0
  0
LINE
  5
3E6
330
1F
100
AcDbEntity
  8
0
  6
Continuous
 62
     7
370
    15
100
AcDbLine
 10
11.9779778567
 20
7.4654474382
 30
0.0
 11
11.9779778567
 21
7.4594639473
 31
0.0
  0
LINE
  5
3E7
330
1F
100
AcDbEntity
  8
0
  6
Continuous
 62
     7
370
    15
100
AcDbLine
 10
12.5291589761
 20
7.4069998333
 30
0.0
 11
11.9779778567
 21
7.4069998333
 31
0.0
  0
LINE
  5
3E8
330
1F
100
AcDbEntity
  8
0
  6
Continuous
 62
     7
370
    15
100
AcDbLine
 10
12.5291589761
 20
7.4069998333
 30
0.0
 11
12.5291589761
 21
7.4234034305
 31
0.0
  0
LINE
  5
3E9
330
1F
100
AcDbEntity
  8
0
  6
Continuous
 62
     7
370
    15
100
AcDbLine
 10
11.9779778567
 20
7.4234034305
 30
0.0
 11
11.9779778567
 21
7.4069998333
 31
0.0
  0
LINE
  5
3EA
330
1F
100
AcDbEntity
  8
0
  6
Continuous
 62
     7
370
    15
100
AcDbLine
 10
11.9779778567
 20
10.52389508
 30
0.0
 11
12.5291589761
 21
10.52389508
 31
0.0
  0
LINE
  5
3EB
330
1F
100
AcDbEntity
  8
0
  6
Continuous
 62
     7
370
    15
100
AcDbLine
 10
12.5291589761
 20
10.52389508
 30
0.0
 11
12.5291589761
 21
10.5074914829
 31
0.0
  0
LINE
  5
3EC
330
1F
100
AcDbEntity
  8
0
  6
Continuous
 62
     7
370
    15
100
AcDbLine
 10
11.9779778567
 20
10.5074914829
 30
0.0
 11
11.9779778567
 21
10.52389508
 31
0.0
  0
LINE
  5
3ED
330
1F
100
AcDbEntity
  8
0
  6
Continuous
 62
     7
370
    15
100
AcDbLine
 10
10.7543996949
 20
9.9496994399
 30
0.0
 11
10.7260093162
 21
9.9496994399
 31
0.0
  0
LINE
  5
3EE
330
1F
100
AcDbEntity
  8
0
  6
Continuous
 62
     7
370
    15
100
AcDbLine
 10
10.7260093162
 20
10.4733214776
 30
0.0
 11
10.7260093162
 21
9.9496994399
 31
0.0
  0
ARC
  5
3EF
330
1F
100
AcDbEntity
  8
0
  6
Continuous
 62
     7
370
    15
100
AcDbCircle
 10
10.7575054243
 20
10.4733214724
 30
0.0
 40
0.0314960629921277
100
AcDbArc
 50
90.0
 51
180.0
  0
LINE
  5
3F0
330
1F
100
AcDbEntity
  8
0
  6
Continuous
 62
     7
370
    15
100
AcDbLine
 10
11.9386077715
 20
10.5048174871
 30
0.0
 11
10.7575054724
 21
10.5048174871
 31
0.0
  0
LINE
  5
3F1
330
1F
100
AcDbEntity
  8
0
  6
Continuous
 62
     7
370
    15
100
AcDbLine
 10
11.9386077715
 20
10.4685423995
 30
0.0
 11
11.9386077715
 21
10.5048174871
 31
0.0
  0
LINE
  5
3F2
330
1F
100
AcDbEntity
  8
0
  6
Continuous
 62
     7
370
    15
100
AcDbLine
 10
10.7622845505
 20
10.4685423995
 30
0.0
 11
10.7622845505
 21
7.4623525139
 31
0.0
  0
LINE
  5
3F3
330
1F
100
AcDbEntity
  8
0
  6
Continuous
 62
     7
370
    15
100
AcDbLine
 10
11.9386077715
 20
7.4623525139
 30
0.0
 11
11.9386077715
 21
7.4260774263
 31
0.0
  0
LINE
  5
3F4
330
1F
100
AcDbEntity
  8
0
  6
Continuous
 62
     7
370
    15
100
AcDbLine
 10
10.7575054724
 20
7.4260774263
 30
0.0
 11
11.9386077715
 21
7.4260774263
 31
0.0
  0
ARC
  5
3F5
330
1F
100
AcDbEntity
  8
0
  6
Continuous
 62
     7
370
    15
100
AcDbCircle
 10
10.7575054243
 20
7.4575734409
 30
0.0
 40
0.0314960629921259
100
AcDbArc
 50
180.0
 51
270.0
  0
LINE
  5
3F6
330
1F
100
AcDbEntity
  8
0
  6
Continuous
 62
     7
370
    15
100
AcDbLine
 10
10.7543996949
 20
8.4536364225
 30
0.0
 11
10.7543996949
 21
7.9811954735
 31
0.0
  0
LINE
  5
3F7
330
1F
100
AcDbEntity
  8
0
  6
Continuous
 62
     7
370
    15
100
AcDbLine
 10
10.7543996949
 20
8.4536364225
 30
0.0
 11
10.7260093162
 21
8.4536364225
 31
0.0
  0
LINE
  5
3F8
330
1F
100
AcDbEntity
  8
0
  6
Continuous
 62
     7
370
    15
100
AcDbLine
 10
10.7260093162
 20
9.4772584909
 30
0.0
 11
10.7260093162
 21
8.4536364225
 31
0.0
  0
LINE
  5
3F9
330
1F
100
AcDbEntity
  8
0
  6
Continuous
 62
     7
370
    15
100
AcDbLine
 10
10.7260093162
 20
9.4772584909
 30
0.0
 11
10.7543996949
 21
9.4772584909
 31
0.0
  0
LINE
  5
3FA
330
1F
100
AcDbEntity
  8
0
  6
Continuous
 62
     7
370
    15
100
AcDbLine
 10
10.7543996949
 20
9.9496994399
 30
0.0
 11
10.7543996949
 21
9.4772584909
 31
0.0
  0
LINE
  5
3FB
330
1F
100
AcDbEntity
  8
0
  6
Continuous
 62
     7
370
    15
100
AcDbLine
 10
10.7260093162
 20
7.9811954735
 30
0.0
 11
10.7260093162
 21
7.4575734358
 31
0.0
  0
LINE
  5
3FC
330
1F
100
AcDbEntity
  8
0
  6
Continuous
 62
     7
370
    15
100
AcDbLine
 10
10.7260093162
 20
7.9811954735
 30
0.0
 11
10.7543996949
 21
7.9811954735
 31
0.0
  0
LINE
  5
3FD
330
1F
100
AcDbEntity
  8
0
  6
Continuous
 62
     7
370
    15
100
AcDbLine
 10
13.7811275166
 20
8.4536364225
 30
0.0
 11
13.7527371379
 21
8.4536364225
 31
0.0
  0
LINE
  5
3FE
330
1F
100
AcDbEntity
  8
0
  6
Continuous
 62
     7
370
    15
100
AcDbLine
 10
13.7527371379
 20
7.9811954735
 30
0.0
 11
13.7527371379
 21
8.4536364225
 31
0.0
  0
LINE
  5
3FF
330
1F
100
AcDbEntity
  8
0
  6
Continuous
 62
     7
370
    15
100
AcDbLine
 10
13.7811275166
 20
7.4575734358
 30
0.0
 11
13.7811275166
 21
7.9811954735
 31
0.0
  0
ARC
  5
400
330
1F
100
AcDbEntity
  8
0
  6
Continuous
 62
     7
370
    15
100
AcDbCircle
 10
13.7496314085
 20
7.4575734409
 30
0.0
 40
0.0314960629921277
100
AcDbArc
 50
270.0
 51
0.0
  0
LINE
  5
401
330
1F
100
AcDbEntity
  8
0
  6
Continuous
 62
     7
370
    15
100
AcDbLine
 10
12.5685290613
 20
7.4260774263
 30
0.0
 11
13.7496313604
 21
7.4260774263
 31
0.0
  0
LINE
  5
402
330
1F
100
AcDbEntity
  8
0
  6
Continuous
 62
     7
370
    15
100
AcDbLine
 10
12.5685290613
 20
7.4623525139
 30
0.0
 11
12.5685290613
 21
7.4260774263
 31
0.0
  0
LINE
  5
403
330
1F
100
AcDbEntity
  8
0
  6
Continuous
 62
     7
370
    15
100
AcDbLine
 10
13.7448522823
 20
7.4623525139
 30
0.0
 11
13.7448522823
 21
10.4685423995
 31
0.0
  0
LINE
  5
404
330
1F
100
AcDbEntity
  8
0
  6
Continuous
 62
     7
370
    15
100
AcDbLine
 10
12.5685290613
 20
10.5048174871
 30
0.0
 11
12.5685290613
 21
10.4685423995
 31
0.0
  0
LINE
  5
405
330
1F
100
AcDbEntity
  8
0
  6
Continuous
 62
     7
370
    15
100
AcDbLine
 10
13.7496313604
 20
10.5048174871
 30
0.0
 11
12.5685290613
 21
10.5048174871
 31
0.0
  0
ARC
  5
406
330
1F
100
AcDbEntity
  8
0
  6
Continuous
 62
     7
370
    15
100
AcDbCircle
 10
13.7496314085
 20
10.4733214724
 30
0.0
 40
0.0314960629921277
100
AcDbArc
 50
0.0
 51
90.0
  0
LINE
  5
407
330
1F
100
AcDbEntity
  8
0
  6
Continuous
 62
     7
370
    15
100
AcDbLine
 10
13.7811275166
 20
9.9496994399
 30
0.0
 11
13.7811275166
 21
10.4733214776
 31
0.0
  0
LINE
  5
408
330
1F
100
AcDbEntity
  8
0
  6
Continuous
 62
     7
370
    15
100
AcDbLine
 10
13.7811275166
 20
9.9496994399
 30
0.0
 11
13.7527371379
 21
9.9496994399
 31
0.0
  0
LINE
  5
409
330
1F
100
AcDbEntity
  8
0
  6
Continuous
 62
     7
370
    15
100
AcDbLine
 10
13.7527371379
 20
9.4772584909
 30
0.0
 11
13.7527371379
 21
9.9496994399
 31
0.0
  0
LINE
  5
40A
330
1F
100
AcDbEntity
  8
0
  6
Continuous
 62
     7
370
    15
100
AcDbLine
 10
13.7527371379
 20
9.4772584909
 30
0.0
 11
13.7811275166
 21
9.4772584909
 31
0.0
  0
LINE
  5
40B
330
1F
100
AcDbEntity
  8
0
  6
Continuous
 62
     7
370
    15
100
AcDbLine
 10
13.7811275166
 20
8.4536364225
 30
0.0
 11
13.7811275166
 21
9.4772584909
 31
0.0
  0
LINE
  5
40C
330
1F
100
AcDbEntity
  8
0
  6
Continuous
 62
     7
370
    15
100
AcDbLine
 10
13.7527371379
 20
7.9811954735
 30
0.0
 11
13.7811275166
 21
7.9811954735
 31
0.0
  0
LINE
  5
40D
330
1F
100
AcDbEntity
  8
0
  6
Continuous
 62
     7
370
    15
100
AcDbLine
 10
10.8293416825
 20
7.5294096459
 30
0.0
 11
10.8293416825
 21
10.4014852675
 31
0.0
  0
LINE
  5
40E
330
1F
100
AcDbEntity
  8
0
  6
Continuous
 62
     7
370
    15
100
AcDbLine
 10
13.6777951503
 20
10.4014852675
 30
0.0
 11
13.6777951503
 21
7.5294096459
 31
0.0
  0
LINE
  5
40F
330
1F
100
AcDbEntity
  8
0
  6
Continuous
 62
     7
370
    15
100
AcDbLine
 10
10.7574305266
 20
10.552061648
 30
0.0
 11
13.7497063062
 21
10.552061648
 31
0.0
  0
ELLIPSE
  5
410
330
1F
100
AcDbEntity
  8
0
  6
Continuous
 62
     7
370
    15
100
AcDbEllipse
 10
13.749556394
 20
10.4732464579
 30
0.0
 11
0.0557837355046349
 21
0.05578373550463844
 31
0.0
210
0.0
220
0.0
230
1.0
 40
0.9980991556
 41
5.498738469833186
 42
7.067632144525958
  0
LINE
  5
411
330
1F
100
AcDbEntity
  8
0
  6
Continuous
 62
     7
370
    15
100
AcDbLine
 10
13.8283715308
 20
10.4733964234
 30
0.0
 11
13.8283715308
 21
9.9496994399
 31
0.0
  0
LINE
  5
412
330
1F
100
AcDbEntity
  8
0
  6
Continuous
 62
     7
370
    15
100
AcDbLine
 10
10.678765302
 20
9.9496994399
 30
0.0
 11
10.678765302
 21
10.4733964234
 31
0.0
  0
ELLIPSE
  5
413
330
1F
100
AcDbEntity
  8
0
  6
Continuous
 62
     7
370
    15
100
AcDbEllipse
 10
10.7575804389
 20
10.4732464579
 30
0.0
 11
-0.05578373550463667
 21
0.05578373550463845
 31
0.0
210
0.0
220
0.0
230
1.0
 40
0.9980991556
 41
5.498738469833213
 42
7.067632144525984
  0
LINE
  5
414
330
1F
100
AcDbEntity
  8
0
  6
Continuous
 62
     7
370
    15
100
AcDbLine
 10
13.7811275166
 20
9.9496994399
 30
0.0
 11
13.8283715308
 21
9.9496994399
 31
0.0
  0
LINE
  5
415
330
1F
100
AcDbEntity
  8
0
  6
Continuous
 62
     7
370
    15
100
AcDbLine
 10
10.7260093162
 20
9.9496994399
 30
0.0
 11
10.678765302
 21
9.9496994399
 31
0.0
  0
LINE
  5
416
330
1F
100
AcDbEntity
  8
0
  6
Continuous
 62
     7
370
    15
100
AcDbLine
 10
10.678765302
 20
7.45749849
 30
0.0
 11
10.678765302
 21
7.9811954735
 31
0.0
  0
LINE
  5
417
330
1F
100
AcDbEntity
  8
0
  6
Continuous
 62
     7
370
    15
100
AcDbLine
 10
13.8283715308
 20
7.9811954735
 30
0.0
 11
13.8283715308
 21
7.45749849
 31
0.0
  0
ELLIPSE
  5
418
330
1F
100
AcDbEntity
  8
0
  6
Continuous
 62
     7
370
    15
100
AcDbEllipse
 10
13.749556394
 20
7.4576484555
 30
0.0
 11
0.05578373550463844
 21
-0.05578373550463844
 31
0.0
210
0.0
220
0.0
230
0.9999999999999998
 40
0.9980991556
 41
5.498738469833226
 42
7.067632144525994
  0
LINE
  5
419
330
1F
100
AcDbEntity
  8
0
  6
Continuous
 62
     7
370
    15
100
AcDbLine
 10
13.7497063062
 20
7.3788332654
 30
0.0
 11
10.7574305266
 21
7.3788332654
 31
0.0
  0
ELLIPSE
  5
41A
330
1F
100
AcDbEntity
  8
0
  6
Continuous
 62
     7
370
    15
100
AcDbEllipse
 10
10.7575804389
 20
7.4576484555
 30
0.0
 11
-0.05578373550463844
 21
-0.05578373550463844
 31
0.0
210
0.0
220
0.0
230
0.9999999999999998
 40
0.9980991556
 41
5.498738469833199
 42
7.067632144525998
  0
LINE
  5
41B
330
1F
100
AcDbEntity
  8
0
  6
Continuous
 62
     7
370
    15
100
AcDbLine
 10
13.7811275166
 20
7.9811954735
 30
0.0
 11
13.8283715308
 21
7.9811954735
 31
0.0
  0
LINE
  5
41C
330
1F
100
AcDbEntity
  8
0
  6
Continuous
 62
     7
370
    15
100
AcDbLine
 10
10.678765302
 20
7.9811954735
 30
0.0
 11
10.7260093162
 21
7.9811954735
 31
0.0
  0
LINE
  5
41D
330
1F
100
AcDbEntity
  8
0
  6
Continuous
 62
     7
370
    15
100
AcDbLine
 10
13.8283715308
 20
9.4772584909
 30
0.0
 11
13.8283715308
 21
8.4536364225
 31
0.0
  0
LINE
  5
41E
330
1F
100
AcDbEntity
  8
0
  6
Continuous
 62
     7
370
    15
100
AcDbLine
 10
13.7811275166
 20
9.4772584909
 30
0.0
 11
13.8283715308
 21
9.4772584909
 31
0.0
  0
LINE
  5
41F
330
1F
100
AcDbEntity
  8
0
  6
Continuous
 62
     7
370
    15
100
AcDbLine
 10
13.8283715308
 20
8.4536364225
 30
0.0
 11
13.7811275166
 21
8.4536364225
 31
0.0
  0
LINE
  5
420
330
1F
100
AcDbEntity
  8
0
  6
Continuous
 62
     7
370
    15
100
AcDbLine
 10
10.678765302
 20
8.4536364225
 30
0.0
 11
10.678765302
 21
9.4772584909
 31
0.0
  0
LINE
  5
421
330
1F
100
AcDbEntity
  8
0
  6
Continuous
 62
     7
370
    15
100
AcDbLine
 10
10.7260093162
 20
8.4536364225
 30
0.0
 11
10.678765302
 21
8.4536364225
 31
0.0
  0
LINE
  5
422
330
1F
100
AcDbEntity
  8
0
  6
Continuous
 62
     7
370
    15
100
AcDbLine
 10
10.678765302
 20
9.4772584909
 30
0.0
 11
10.7260093162
 21
9.4772584909
 31
0.0
  0
ARC
  5
423
330
1F
100
AcDbEntity
  8
0
  6
Continuous
 62
     7
370
    15
100
AcDbCircle
 10
12.2584814831
 20
7.491174816
 30
0.0
 40
0.1135557911144146
100
AcDbArc
 50
267.5202860003
 51
277.4745390257
  0
ARC
  5
424
330
1F
100
AcDbEntity
  8
0
  6
Continuous
 62
     7
370
    15
100
AcDbCircle
 10
12.2486553497
 20
7.491174816
 30
0.0
 40
0.1135557911144655
100
AcDbArc
 50
262.5254609743
 51
272.4797139997
  0
ARC
  5
425
330
1F
100
AcDbEntity
  8
0
  6
Continuous
 62
     7
370
    15
100
AcDbCircle
 10
12.2535684164
 20
10.3710709282
 30
0.0
 40
0.1823059423949956
100
AcDbArc
 50
83.8012278628
 51
96.1987721372
  0
LINE
  5
426
330
1F
100
AcDbEntity
  8
0
  6
Continuous
 62
     7
370
    15
100
AcDbLine
 10
13.8179754776
 20
9.9496994399
 30
0.0
 11
13.8179754776
 21
9.4772584909
 31
0.0
  0
LINE
  5
427
330
1F
100
AcDbEntity
  8
0
  6
Continuous
 62
     7
370
    15
100
AcDbLine
 10
13.8179754776
 20
8.4536364225
 30
0.0
 11
13.8179754776
 21
7.9811954735
 31
0.0
  0
LINE
  5
428
330
1F
100
AcDbEntity
  8
0
  6
Continuous
 62
     7
370
    15
100
AcDbLine
 10
10.6891613553
 20
7.9811954735
 30
0.0
 11
10.6891613553
 21
8.4536364225
 31
0.0
  0
LINE
  5
429
330
1F
100
AcDbEntity
  8
0
  6
Continuous
 62
     7
370
    15
100
AcDbLine
 10
10.6891613553
 20
9.4772584909
 30
0.0
 11
10.6891613553
 21
9.9496994399
 31
0.0
  0
DIMENSION
  5
42A
330
1F
100
AcDbEntity
  8
0
  6
Continuous
 62
     7
370
     0
100
AcDbDimension
  2
*D30
 10
13.828371566
 20
11.8038494888
 30
0.0
 11
12.2535684164
 21
11.8038494888
 31
0.0
 70
   160
 71
     2
 42
-1.0
  3
SLDDIMSTYLE0
100
AcDbAlignedDimension
 13
10.6787652668
 23
10.4733964156
 33
0.0
 14
13.828371566
 24
10.4733964156
 34
0.0
100
AcDbRotatedDimension
  0
DIMENSION
  5
43E
330
1F
100
AcDbEntity
  8
0
  6
Continuous
 62
     7
370
     0
100
AcDbDimension
  2
*D31
 10
13.7448523404
 20
11.1923891379
 30
0.0
 11
12.2535684164
 21
11.1923891379
 31
0.0
 70
   160
 71
     2
 42
-1.0
  3
SLDDIMSTYLE0
100
AcDbAlignedDimension
 13
10.7622844924
 23
10.4685424043
 33
0.0
 14
13.7448523404
 24
10.4685424043
 34
0.0
100
AcDbRotatedDimension
  0
DIMENSION
  5
452
330
1F
100
AcDbEntity
  8
0
  6
Continuous
 62
     7
370
     0
100
AcDbDimension
  2
*D32
 10
14.2498833104
 20
7.4623525091
 30
0.0
 11
14.2498833104
 21
8.9654474567
 31
0.0
 70
   160
 71
     2
 42
-1.0
  3
SLDDIMSTYLE0
100
AcDbAlignedDimension
 13
13.7448523404
 23
10.4685424043
 33
0.0
 14
13.7448523404
 24
7.4623525091
 34
0.0
 50
90.0
100
AcDbRotatedDimension
  0
DIMENSION
  5
466
330
1F
100
AcDbEntity
  8
0
  6
Continuous
 62
     7
370
     0
100
AcDbDimension
  2
*D33
 10
14.9110527896
 20
10.5520616299
 30
0.0
 11
14.9110527896
 21
8.9654474567
 31
0.0
 70
   160
 71
     2
 42
-1.0
  3
SLDDIMSTYLE0
100
AcDbAlignedDimension
 13
13.7497063517
 23
7.3788332835
 33
0.0
 14
13.7497063517
 24
10.5520616299
 34
0.0
 50
90.0
100
AcDbRotatedDimension
  0
LINE
  5
47A
330
1F
100
AcDbEntity
  8
0
  6
PHANTOM
 62
     7
370
    30
100
AcDbLine
 10
12.2535684164
 20
10.7347576204
 30
0.0
 11
12.2535684164
 21
7.2305928412
 31
0.0
  0
LINE
  5
47B
330
1F
100
AcDbEntity
  8
0
  6
Continuous
 62
     7
370
    30
100
AcDbLine
 10
12.2535684164
 20
10.7347576204
 30
0.0
 11
11.6285684164
 21
10.7347576204
 31
0.0
  0
SOLID
  5
47C
330
1F
100
AcDbEntity
  8
0
  6
Continuous
 62
     7
370
    30
100
AcDbTrace
 10
11.6285684164
 20
10.7347576204
 30
0.0
 11
11.9410684164
 21
10.6847576204
 31
0.0
 12
11.9410684164
 22
10.7847576204
 32
0.0
 13
11.9410684164
 23
10.7847576204
 33
0.0
  0
LINE
  5
47D
330
1F
100
AcDbEntity
  8
0
  6
Continuous
 62
     7
370
    30
100
AcDbLine
 10
12.2535684164
 20
7.2305928412
 30
0.0
 11
11.6285684164
 21
7.2305928412
 31
0.0
  0
SOLID
  5
47E
330
1F
100
AcDbEntity
  8
0
  6
Continuous
 62
     7
370
    30
100
AcDbTrace
 10
11.6285684164
 20
7.2305928412
 30
0.0
 11
11.9410684164
 21
7.1805928412
 31
0.0
 12
11.9410684164
 22
7.2805928412
 32
0.0
 13
11.9410684164
 23
7.2805928412
 33
0.0
  0
MTEXT
  5
47F
330
1F
100
AcDbEntity
  8
0
  6
Continuous
 62
     7
100
AcDbMText
 10
11.4419606144
 20
10.8609669325
 30
0.0
 40
0.15625
 41
0.0
 71
     1
 72
     1
  1
B
  7
SLDTEXTSTYLE0
 73
     1
 44
1.0
  0
MTEXT
  5
480
330
1F
100
AcDbEntity
  8
0
  6
Continuous
 62
     7
100
AcDbMText
 10
11.4419606144
 20
7.3568021532
 30
0.0
 40
0.15625
 41
0.0
 71
     1
 72
     1
  1
B
  7
SLDTEXTSTYLE0
 73
     1
 44
1.0
  0
LINE
  5
481
330
1F
100
AcDbEntity
  8
0
  6
Continuous
 62
     7
370
    15
100
AcDbLine
 10
15.947459369
 20
10.52389508
 30
0.0
 11
15.947459369
 21
10.5048174871
 31
0.0
  0
LINE
  5
482
330
1F
100
AcDbEntity
  8
0
  6
Continuous
 62
     7
370
    15
100
AcDbLine
 10
16.0281493035
 20
10.5512029246
 30
0.0
 11
16.0282351759
 21
10.5531695552
 31
0.0
  0
LINE
  5
483
330
1F
100
AcDbEntity
  8
0
  6
Continuous
 62
     7
370
    15
100
AcDbLine
 10
16.0282351759
 20
10.5531695552
 30
0.0
 11
16.0675677882
 21
10.551452255
 31
0.0
  0
LINE
  5
484
330
1F
100
AcDbEntity
  8
0
  6
Continuous
 62
     7
370
    15
100
AcDbLine
 10
16.0675677882
 20
10.551452255
 30
0.0
 11
16.0674819158
 21
10.5494856244
 31
0.0
  0
LINE
  5
485
330
1F
100
AcDbEntity
  8
0
  6
Continuous
 62
     7
370
    15
100
AcDbLine
 10
16.0674819158
 20
7.381409289
 30
0.0
 11
16.0675677882
 21
7.3794426584
 31
0.0
  0
LINE
  5
486
330
1F
100
AcDbEntity
  8
0
  6
Continuous
 62
     7
370
    15
100
AcDbLine
 10
16.0675677882
 20
7.3794426584
 30
0.0
 11
16.0282351759
 21
7.3777253582
 31
0.0
  0
LINE
  5
487
330
1F
100
AcDbEntity
  8
0
  6
Continuous
 62
     7
370
    15
100
AcDbLine
 10
16.0282351759
 20
7.3777253582
 30
0.0
 11
16.0281493035
 21
7.3796919888
 31
0.0
  0
LINE
  5
488
330
1F
100
AcDbEntity
  8
0
  6
Continuous
 62
     7
370
    15
100
AcDbLine
 10
16.0674819158
 20
10.5494856244
 30
0.0
 11
17.2520750247
 21
10.4977652486
 31
0.0
  0
LINE
  5
489
330
1F
100
AcDbEntity
  8
0
  6
Continuous
 62
     7
370
    15
100
AcDbLine
 10
16.0084829974
 20
10.552061648
 30
0.0
 11
16.0281493035
 21
10.5512029246
 31
0.0
  0
LINE
  5
48A
330
1F
100
AcDbEntity
  8
0
  6
Continuous
 62
     7
370
    15
100
AcDbLine
 10
16.0281493035
 20
7.3796919888
 30
0.0
 11
16.0084829974
 21
7.3788332654
 31
0.0
  0
LINE
  5
48B
330
1F
100
AcDbEntity
  8
0
  6
Continuous
 62
     7
370
    15
100
AcDbLine
 10
17.2520750247
 20
7.4331296648
 30
0.0
 11
16.0674819158
 21
7.381409289
 31
0.0
  0
LINE
  5
48C
330
1F
100
AcDbEntity
  8
0
  6
Continuous
 62
     7
370
    15
100
AcDbLine
 10
15.8943097797
 20
10.5074914829
 30
0.0
 11
15.8943097797
 21
10.4714309661
 31
0.0
  0
LINE
  5
48D
330
1F
100
AcDbEntity
  8
0
  6
Continuous
 62
     7
370
    15
100
AcDbLine
 10
15.8943097797
 20
7.4594639473
 30
0.0
 11
15.8943097797
 21
7.4234034305
 31
0.0
  0
LINE
  5
48E
330
1F
100
AcDbEntity
  8
0
  6
Continuous
 62
     7
370
    15
100
AcDbLine
 10
15.947459369
 20
7.4260774263
 30
0.0
 11
15.947459369
 21
7.4069998333
 31
0.0
  0
LINE
  5
48F
330
1F
100
AcDbEntity
  8
0
  6
Continuous
 62
     7
370
    15
100
AcDbLine
 10
15.947459369
 20
10.52389508
 30
0.0
 11
15.8943097797
 21
10.5074914829
 31
0.0
  0
LINE
  5
490
330
1F
100
AcDbEntity
  8
0
  6
Continuous
 62
     7
370
    15
100
AcDbLine
 10
15.947459369
 20
7.4069998333
 30
0.0
 11
15.8943097797
 21
7.4234034305
 31
0.0
  0
LINE
  5
491
330
1F
100
AcDbEntity
  8
0
  6
Continuous
 62
     7
370
    15
100
AcDbLine
 10
16.0084829974
 20
10.552061648
 30
0.0
 11
16.0084829974
 21
10.5048174871
 31
0.0
  0
LINE
  5
492
330
1F
100
AcDbEntity
  8
0
  6
Continuous
 62
     7
370
    15
100
AcDbLine
 10
15.947459369
 20
7.4260774263
 30
0.0
 11
16.0084829974
 21
7.4260774263
 31
0.0
  0
LINE
  5
493
330
1F
100
AcDbEntity
  8
0
  6
Continuous
 62
     7
370
    15
100
AcDbLine
 10
16.0084829974
 20
7.4260774263
 30
0.0
 11
16.0084829974
 21
7.3788332654
 31
0.0
  0
LINE
  5
494
330
1F
100
AcDbEntity
  8
0
  6
Continuous
 62
     7
370
    15
100
AcDbLine
 10
16.0084829974
 20
10.5048174871
 30
0.0
 11
15.947459369
 21
10.5048174871
 31
0.0
  0
LINE
  5
495
330
1F
100
AcDbEntity
  8
0
  6
Continuous
 62
     7
370
    15
100
AcDbLine
 10
15.8943097797
 20
7.4594639473
 30
0.0
 11
17.2289554917
 21
7.5294096459
 31
0.0
  0
LINE
  5
496
330
1F
100
AcDbEntity
  8
0
  6
Continuous
 62
     7
370
    15
100
AcDbLine
 10
17.2289554917
 20
10.4014852675
 30
0.0
 11
15.8943097797
 21
10.4714309661
 31
0.0
  0
LINE
  5
497
330
1F
100
AcDbEntity
  8
0
  6
Continuous
 62
     7
370
    15
100
AcDbLine
 10
17.2289554917
 20
10.4014852675
 30
0.0
 11
17.2289554917
 21
7.5294096459
 31
0.0
  0
ARC
  5
498
330
1F
100
AcDbEntity
  8
0
  6
Continuous
 62
     7
370
    15
100
AcDbCircle
 10
17.2486404865
 20
7.5117949005
 30
0.0
 40
0.0787401574803184
100
AcDbArc
 50
272.5
 51
0.0
  0
LINE
  5
499
330
1F
100
AcDbEntity
  8
0
  6
Continuous
 62
     7
370
    15
100
AcDbLine
 10
17.3273805947
 20
10.419100024
 30
0.0
 11
17.3273805947
 21
7.5117948894
 31
0.0
  0
ARC
  5
49A
330
1F
100
AcDbEntity
  8
0
  6
Continuous
 62
     7
370
    15
100
AcDbCircle
 10
17.2486404865
 20
10.4191000129
 30
0.0
 40
0.0787401574803184
100
AcDbArc
 50
0.0
 51
87.5
  0
LINE
  5
49B
330
1F
100
AcDbEntity
  8
0
  6
Continuous
 62
     7
370
    15
100
AcDbLine
 10
15.9494279063
 20
10.4685423995
 30
0.0
 11
15.9494279063
 21
7.4623525139
 31
0.0
  0
LINE
  5
49C
330
1F
100
AcDbEntity
  8
0
  6
CENTERX2
 62
     7
370
     0
100
AcDbLine
 10
17.2289554471
 20
10.4014852064
 30
0.0
 11
16.7404884677
 21
10.4014852064
 31
0.0
  0
HATCH
  5
49D
330
1F
100
AcDbEntity
  8
0
  6
Continuous
 62
     7
370
     0
100
AcDbHatch
 10
0.0
 20
0.0
 30
0.0
210
0.0
220
0.0
230
1.0
  2
ANSI31
 70
     0
 71
     0
 91
        1
 92
        0
 93
       26
 72
     1
 10
15.89430977785585
 20
10.47143102204188
 11
17.22895544714718
 21
10.40148520638459
 72
     1
 10
17.22895544714718
 20
10.40148520638459
 11
17.22895544714718
 21
7.529409706996739
 72
     1
 10
17.22895544714718
 20
7.529409706996739
 11
15.89430977785585
 21
7.459463891339451
 72
     1
 10
15.89430977785585
 20
7.459463891339451
 11
15.89430977785585
 21
7.423403411881839
 72
     1
 10
15.89430977785585
 20
7.423403411881839
 11
15.94745938415506
 21
7.406999876912622
 72
     1
 10
15.94745938415506
 20
7.406999876912622
 11
15.94745938415506
 21
7.426077377950507
 72
     1
 10
15.94745938415506
 20
7.426077377950507
 11
16.0084830062023
 21
7.426077377950507
 72
     1
 10
16.0084830062023
 20
7.426077377950507
 11
16.0084830062023
 21
7.378833283462318
 72
     1
 10
16.0084830062023
 20
7.378833283462318
 11
16.02814930977675
 21
7.379691932819902
 72
     1
 10
16.02814930977675
 20
7.379691932819902
 11
16.02823517471251
 21
7.377725302462458
 72
     1
 10
16.02823517471251
 20
7.377725302462458
 11
16.0675677818614
 21
7.379442601177629
 72
     1
 10
16.0675677818614
 20
7.379442601177629
 11
16.06748191692564
 21
7.381409231535073
 72
     1
 10
16.06748191692564
 20
7.381409231535073
 11
17.25207508394761
 21
7.433129686170235
 72
     2
 10
17.24864048651726
 20
7.511794900468018
 40
0.078740157480315
 50
272.5000000000039
 51
360.0000000000008
 73
     1
 72
     1
 10
17.32738064399758
 20
7.511794900468018
 11
17.32738064399758
 21
10.41910001291331
 72
     2
 10
17.24864048651726
 20
10.41910001291331
 40
0.078740157480315
 50
0.0
 51
87.49999999999692
 73
     1
 72
     1
 10
17.25207508394761
 20
10.49776522721109
 11
16.06748191692564
 21
10.54948568184625
 72
     1
 10
16.06748191692564
 20
10.54948568184625
 11
16.0675677818614
 21
10.5514523122037
 72
     1
 10
16.0675677818614
 20
10.5514523122037
 11
16.02823517471251
 21
10.55316961091887
 72
     1
 10
16.02823517471251
 20
10.55316961091887
 11
16.02814930977675
 21
10.55120298056143
 72
     1
 10
16.02814930977675
 20
10.55120298056143
 11
16.0084830062023
 21
10.55206162991901
 72
     1
 10
16.0084830062023
 20
10.55206162991901
 11
16.0084830062023
 21
10.50481753543082
 72
     1
 10
16.0084830062023
 20
10.50481753543082
 11
15.94745938415506
 21
10.50481753543082
 72
     1
 10
15.94745938415506
 20
10.50481753543082
 11
15.94745938415506
 21
10.52389503646871
 72
     1
 10
15.94745938415506
 20
10.52389503646871
 11
15.89430977785585
 21
10.50749150149949
 72
     1
 10
15.89430977785585
 20
10.50749150149949
 11
15.89430977785585
 21
10.47143102204188
 97
        0
 75
     0
 76
     1
 52
0.0
 41
1.25
 77
     0
 78
     1
 53
45.0
 43
0.0
 44
0.0
 45
-0.110485434560398
 46
0.1104854345603981
 79
     0
 98
        1
 10
0.0
 20
0.0
  0
DIMENSION
  5
49E
330
1F
100
AcDbEntity
  8
0
  6
Continuous
 62
     7
370
     0
100
AcDbDimension
  2
*D34
 10
17.2289554471
 20
10.4014852064
 30
0.0
 11
15.5780196666
 21
9.998977846
 31
0.0
 70
   162
 71
     1
 42
-1.0
  3
SLDDIMSTYLE6
100
AcDb2LineAngularDimension
 13
15.8943097779
 23
10.471431022
 33
0.0
 14
17.2289554471
 24
10.4014852064
 34
0.0
 15
16.7404884677
 25
10.4014852064
 35
0.0
 16
15.5472436362
 26
10.6453017594
 36
0.0
  0
DIMENSION
  5
4B1
330
1F
100
AcDbEntity
  8
0
  6
Continuous
 62
     7
370
     0
100
AcDbDimension
  2
*D35
 10
17.327380644
 20
10.1287692559
 30
0.0
 11
17.9182944556
 21
10.1287692559
 31
0.0
 70
   160
 71
     2
 42
-1.0
  3
SLDDIMSTYLE4
100
AcDbAlignedDimension
 13
17.2289554471
 23
10.4014852064
 33
0.0
 14
17.327380644
 24
10.4191000129
 34
0.0
100
AcDbRotatedDimension
  0
DIMENSION
  5
4C3
330
1F
100
AcDbEntity
  8
0
  6
Continuous
 62
     7
370
     0
100
AcDbDimension
  2
*D36
 10
16.0084830062
 20
11.1006656982
 30
0.0
 11
16.6679318251
 21
11.1006656982
 31
0.0
 70
   160
 71
     2
 42
-1.0
  3
SLDDIMSTYLE0
100
AcDbAlignedDimension
 13
17.327380644
 23
10.4191000129
 33
0.0
 14
16.0084830062
 24
10.5520616299
 34
0.0
100
AcDbRotatedDimension
  0
MTEXT
  5
4D7
330
1F
100
AcDbEntity
  8
0
  6
Continuous
 62
     7
370
     0
100
AcDbMText
 10
16.9272193909
 20
7.1083884067
 30
0.0
 40
0.15625
 41
0.0
 71
     2
 72
     1
  1
\LSECTION B-B
  7
SLDTEXTSTYLE0
 73
     1
 44
1.0
  0
LINE
  5
4D8
330
1F
100
AcDbEntity
  8
0
  6
Continuous
 62
     7
370
    15
100
AcDbLine
 10
19.0083086903
 20
10.5494856244
 30
0.0
 11
19.0083945627
 21
10.551452255
 31
0.0
  0
LINE
  5
4D9
330
1F
100
AcDbEntity
  8
0
  6
Continuous
 62
     7
370
    15
100
AcDbLine
 10
18.9690619504
 20
10.5531695552
 30
0.0
 11
18.968976078
 21
10.5512029246
 31
0.0
  0
LINE
  5
4DA
330
1F
100
AcDbEntity
  8
0
  6
Continuous
 62
     7
370
    15
100
AcDbLine
 10
18.968976078
 20
7.3796919888
 30
0.0
 11
18.9690619504
 21
7.3777253582
 31
0.0
  0
LINE
  5
4DB
330
1F
100
AcDbEntity
  8
0
  6
Continuous
 62
     7
370
    15
100
AcDbLine
 10
19.0083945627
 20
7.3794426584
 30
0.0
 11
19.0083086903
 21
7.381409289
 31
0.0
  0
LINE
  5
4DC
330
1F
100
AcDbEntity
  8
0
  6
Continuous
 62
     7
370
    15
100
AcDbLine
 10
18.9493097719
 20
8.4536364225
 30
0.0
 11
19.1874203545
 21
8.4536364225
 31
0.0
  0
LINE
  5
4DD
330
1F
100
AcDbEntity
  8
0
  6
Continuous
 62
     7
370
    15
100
AcDbLine
 10
18.9493097719
 20
9.4772584909
 30
0.0
 11
18.9493097719
 21
8.4536364225
 31
0.0
  0
LINE
  5
4DE
330
1F
100
AcDbEntity
  8
0
  6
Continuous
 62
     7
370
    15
100
AcDbLine
 10
19.1874203545
 20
9.4772584909
 30
0.0
 11
18.9493097719
 21
9.4772584909
 31
0.0
  0
LINE
  5
4DF
330
1F
100
AcDbEntity
  8
0
  6
Continuous
 62
     7
370
    15
100
AcDbLine
 10
19.1874203545
 20
9.9496994399
 30
0.0
 11
19.1874203545
 21
9.4772584909
 31
0.0
  0
LINE
  5
4E0
330
1F
100
AcDbEntity
  8
0
  6
Continuous
 62
     7
370
    15
100
AcDbLine
 10
18.9493097719
 20
9.9496994399
 30
0.0
 11
19.1874203545
 21
9.9496994399
 31
0.0
  0
LINE
  5
4E1
330
1F
100
AcDbEntity
  8
0
  6
Continuous
 62
     7
370
    15
100
AcDbLine
 10
18.9493097719
 20
10.4733964234
 30
0.0
 11
18.9493097719
 21
9.9496994399
 31
0.0
  0
LINE
  5
4E2
330
1F
100
AcDbEntity
  8
0
  6
Continuous
 62
     7
370
    15
100
AcDbLine
 10
18.9493097719
 20
7.9811954735
 30
0.0
 11
18.9493097719
 21
7.45749849
 31
0.0
  0
LINE
  5
4E3
330
1F
100
AcDbEntity
  8
0
  6
Continuous
 62
     7
370
    15
100
AcDbLine
 10
19.1874203545
 20
7.9811954735
 30
0.0
 11
18.9493097719
 21
7.9811954735
 31
0.0
  0
LINE
  5
4E4
330
1F
100
AcDbEntity
  8
0
  6
Continuous
 62
     7
370
    15
100
AcDbLine
 10
19.1874203545
 20
8.4536364225
 30
0.0
 11
19.1874203545
 21
7.9811954735
 31
0.0
  0
LINE
  5
4E5
330
1F
100
AcDbEntity
  8
0
  6
Continuous
 62
     7
370
    15
100
AcDbLine
 10
18.9493097719
 20
10.552061648
 30
0.0
 11
20.1929017991
 21
10.4977652486
 31
0.0
  0
LINE
  5
4E6
330
1F
100
AcDbEntity
  8
0
  6
Continuous
 62
     7
370
    15
100
AcDbLine
 10
18.9493097719
 20
10.552061648
 30
0.0
 11
18.9493097719
 21
10.4733964234
 31
0.0
  0
LINE
  5
4E7
330
1F
100
AcDbEntity
  8
0
  6
Continuous
 62
     7
370
    15
100
AcDbLine
 10
20.1929017991
 20
7.4331296648
 30
0.0
 11
18.9493097719
 21
7.3788332654
 31
0.0
  0
LINE
  5
4E8
330
1F
100
AcDbEntity
  8
0
  6
Continuous
 62
     7
370
    15
100
AcDbLine
 10
18.9493097719
 20
7.45749849
 30
0.0
 11
18.9493097719
 21
7.3788332654
 31
0.0
  0
LINE
  5
4E9
330
1F
100
AcDbEntity
  8
0
  6
Continuous
 62
     7
370
    15
100
AcDbLine
 10
19.1839001019
 20
9.4772584909
 30
0.0
 11
19.1839001019
 21
9.9496994399
 31
0.0
  0
LINE
  5
4EA
330
1F
100
AcDbEntity
  8
0
  6
Continuous
 62
     7
370
    15
100
AcDbLine
 10
19.1839001019
 20
8.4536364225
 30
0.0
 11
19.1839001019
 21
7.9811954735
 31
0.0
  0
LINE
  5
4EB
330
1F
100
AcDbEntity
  8
0
  6
Continuous
 62
     7
370
    15
100
AcDbLine
 10
18.8902546807
 20
9.9496994399
 30
0.0
 11
18.8902546807
 21
10.4733214776
 31
0.0
  0
LINE
  5
4EC
330
1F
100
AcDbEntity
  8
0
  6
Continuous
 62
     7
370
    15
100
AcDbLine
 10
18.9493097719
 20
9.9496994399
 30
0.0
 11
18.8902546807
 21
9.9496994399
 31
0.0
  0
LINE
  5
4ED
330
1F
100
AcDbEntity
  8
0
  6
Continuous
 62
     7
370
    15
100
AcDbLine
 10
18.8902546807
 20
7.4575734358
 30
0.0
 11
18.8902546807
 21
7.9811954735
 31
0.0
  0
LINE
  5
4EE
330
1F
100
AcDbEntity
  8
0
  6
Continuous
 62
     7
370
    15
100
AcDbLine
 10
18.8902546807
 20
7.9811954735
 30
0.0
 11
18.9493097719
 21
7.9811954735
 31
0.0
  0
LINE
  5
4EF
330
1F
100
AcDbEntity
  8
0
  6
Continuous
 62
     7
370
    15
100
AcDbLine
 10
18.9493097719
 20
10.5048174871
 30
0.0
 11
18.8902546807
 21
10.5048174871
 31
0.0
  0
LINE
  5
4F0
330
1F
100
AcDbEntity
  8
0
  6
Continuous
 62
     7
370
    15
100
AcDbLine
 10
18.8902546807
 20
10.5048174871
 30
0.0
 11
18.8902546807
 21
10.4733214776
 31
0.0
  0
LINE
  5
4F1
330
1F
100
AcDbEntity
  8
0
  6
Continuous
 62
     7
370
    15
100
AcDbLine
 10
18.8902546807
 20
8.4536364225
 30
0.0
 11
18.8902546807
 21
9.4772584909
 31
0.0
  0
LINE
  5
4F2
330
1F
100
AcDbEntity
  8
0
  6
Continuous
 62
     7
370
    15
100
AcDbLine
 10
18.9493097719
 20
9.4772584909
 30
0.0
 11
18.8902546807
 21
9.4772584909
 31
0.0
  0
LINE
  5
4F3
330
1F
100
AcDbEntity
  8
0
  6
Continuous
 62
     7
370
    15
100
AcDbLine
 10
18.9493097719
 20
8.4536364225
 30
0.0
 11
18.8902546807
 21
8.4536364225
 31
0.0
  0
LINE
  5
4F4
330
1F
100
AcDbEntity
  8
0
  6
Continuous
 62
     7
370
    15
100
AcDbLine
 10
18.8902546807
 20
7.4260774263
 30
0.0
 11
18.9493097719
 21
7.4260774263
 31
0.0
  0
LINE
  5
4F5
330
1F
100
AcDbEntity
  8
0
  6
Continuous
 62
     7
370
    15
100
AcDbLine
 10
18.8902546807
 20
7.4575734358
 30
0.0
 11
18.8902546807
 21
7.4260774263
 31
0.0
  0
ARC
  5
4F6
330
1F
100
AcDbEntity
  8
0
  6
Continuous
 62
     7
370
    15
100
AcDbCircle
 10
20.189467261
 20
10.4191000129
 30
0.0
 40
0.0787401574803148
100
AcDbArc
 50
0.0
 51
87.5
  0
ARC
  5
4F7
330
1F
100
AcDbEntity
  8
0
  6
Continuous
 62
     7
370
    15
100
AcDbCircle
 10
20.189467261
 20
7.5117949005
 30
0.0
 40
0.0787401574803148
100
AcDbArc
 50
272.5
 51
0.0
  0
LINE
  5
4F8
330
1F
100
AcDbEntity
  8
0
  6
Continuous
 62
     7
370
    15
100
AcDbLine
 10
20.2682073692
 20
10.419100024
 30
0.0
 11
20.2682073692
 21
7.5117948894
 31
0.0
  0
LINE
  5
4F9
330
1F
100
AcDbEntity
  8
0
  6
Continuous
 62
     7
370
    15
100
AcDbLine
 10
18.8902546807
 20
9.4772584909
 30
0.0
 11
18.8902546807
 21
9.9496994399
 31
0.0
  0
LINE
  5
4FA
330
1F
100
AcDbEntity
  8
0
  6
Continuous
 62
     7
370
    15
100
AcDbLine
 10
18.8902546807
 20
7.9811954735
 30
0.0
 11
18.8902546807
 21
8.4536364225
 31
0.0
  0
LINE
  5
4FB
330
1F
100
AcDbEntity
  8
0
  6
Continuous
 62
     7
370
    15
100
AcDbLine
 10
18.8882861435
 20
7.4069998333
 30
0.0
 11
18.8351365541
 21
7.4234034305
 31
0.0
  0
LINE
  5
4FC
330
1F
100
AcDbEntity
  8
0
  6
Continuous
 62
     7
370
    15
100
AcDbLine
 10
18.8351365541
 20
7.4234034305
 30
0.0
 11
18.8351365541
 21
7.4594639473
 31
0.0
  0
LINE
  5
4FD
330
1F
100
AcDbEntity
  8
0
  6
Continuous
 62
     7
370
    15
100
AcDbLine
 10
18.8902546807
 20
7.4260774263
 30
0.0
 11
18.8882861435
 21
7.4260774263
 31
0.0
  0
LINE
  5
4FE
330
1F
100
AcDbEntity
  8
0
  6
Continuous
 62
     7
370
    15
100
AcDbLine
 10
18.8882861435
 20
7.4260774263
 30
0.0
 11
18.8882861435
 21
7.4069998333
 31
0.0
  0
LINE
  5
4FF
330
1F
100
AcDbEntity
  8
0
  6
Continuous
 62
     7
370
    15
100
AcDbLine
 10
18.8351365541
 20
7.4594639473
 30
0.0
 11
18.8902546807
 21
7.4623525139
 31
0.0
  0
LINE
  5
500
330
1F
100
AcDbEntity
  8
0
  6
Continuous
 62
     7
370
    15
100
AcDbLine
 10
18.8882861435
 20
10.52389508
 30
0.0
 11
18.8882861435
 21
10.5048174871
 31
0.0
  0
LINE
  5
501
330
1F
100
AcDbEntity
  8
0
  6
Continuous
 62
     7
370
    15
100
AcDbLine
 10
18.8351365541
 20
10.5074914829
 30
0.0
 11
18.8351365541
 21
10.4714309661
 31
0.0
  0
LINE
  5
502
330
1F
100
AcDbEntity
  8
0
  6
Continuous
 62
     7
370
    15
100
AcDbLine
 10
18.8882861435
 20
10.52389508
 30
0.0
 11
18.8351365541
 21
10.5074914829
 31
0.0
  0
LINE
  5
503
330
1F
100
AcDbEntity
  8
0
  6
Continuous
 62
     7
370
    15
100
AcDbLine
 10
18.8882861435
 20
10.5048174871
 30
0.0
 11
18.8902546807
 21
10.5048174871
 31
0.0
  0
LINE
  5
504
330
1F
100
AcDbEntity
  8
0
  6
Continuous
 62
     7
370
    15
100
AcDbLine
 10
18.8902546807
 20
10.4685423995
 30
0.0
 11
18.8351365541
 21
10.4714309661
 31
0.0
  0
LWPOLYLINE
  5
505
330
1F
100
AcDbEntity
  8
0
  6
Continuous
 62
     7
370
    15
100
AcDbPolyline
 90
        9
 70
   128
 43
0.0
 10
19.0083945627
 20
10.551452255
 10
19.0068975533
 20
10.5515176676
 10
19.0026344425
 20
10.5517037855
 10
18.9962542229
 20
10.5519823022
 10
18.9887282565
 20
10.5523109784
 10
18.9812022901
 20
10.552639508
 10
18.9748220705
 20
10.5529181714
 10
18.9705589597
 20
10.5531042893
 10
18.9690619504
 20
10.5531695552
  0
LWPOLYLINE
  5
506
330
1F
100
AcDbEntity
  8
0
  6
Continuous
 62
     7
370
    15
100
AcDbPolyline
 90
       10
 70
   128
 43
0.0
 10
18.9690619504
 20
7.3777253582
 10
18.9705589597
 20
7.3777906241
 10
18.9748220705
 20
7.377976742
 10
18.9812022901
 20
7.3782554054
 10
18.9887282565
 20
7.3785839349
 10
18.9962542229
 20
7.3789126111
 10
19.0026344425
 20
7.3791911279
 10
19.0068975533
 20
7.3793772458
 10
19.0083945627
 20
7.3794426584
 10
19.0083945627
 20
7.3794426584
  0
DIMENSION
  5
507
330
1F
100
AcDbEntity
  8
0
  6
Continuous
 62
     7
370
     0
100
AcDbDimension
  2
*D37
 10
18.6192847451
 20
7.9811954882
 30
0.0
 11
18.6192847451
 21
7.6591765543
 31
0.0
 70
   160
 71
     2
 42
-1.0
  3
SLDDIMSTYLE5
100
AcDbAlignedDimension
 13
18.8902546626
 23
8.4536364331
 33
0.0
 14
18.8902546626
 24
7.9811954882
 34
0.0
 50
90.0
100
AcDbRotatedDimension
  0
DIMENSION
  5
51C
330
1F
100
AcDbEntity
  8
0
  6
Continuous
 62
     7
370
     0
100
AcDbDimension
  2
*D38
 10
19.1874203745
 20
6.9769714765
 30
0.0
 11
19.7361125483
 21
6.9769714765
 31
0.0
 70
   160
 71
     2
 42
-1.0
  3
SLDDIMSTYLE5
100
AcDbAlignedDimension
 13
18.9493097807
 23
7.3788332835
 33
0.0
 14
19.1874203745
 24
7.9811954882
 34
0.0
100
AcDbRotatedDimension
  0
DIMENSION
  5
530
330
1F
100
AcDbEntity
  8
0
  6
Continuous
 62
     7
370
     0
100
AcDbDimension
  2
*D39
 10
18.2648325244
 20
9.7134789528
 30
0.0
 11
18.2648325244
 21
8.9654474567
 31
0.0
 70
   160
 71
     2
 42
-1.0
  3
SLDDIMSTYLE7
100
AcDbAlignedDimension
 13
18.6368097807
 23
8.2174159606
 33
0.0
 14
18.6368097807
 24
9.7134789528
 34
0.0
 50
90.0
100
AcDbRotatedDimension
  0
INSERT
  5
54B
102
{ACAD_REACTORS
330
555
102
}
330
1F
100
AcDbEntity
  8
0
  6
Continuous
 62
     7
370
     0
100
AcDbBlockReference
  2
SW_NOTE_5
 10
18.5095367377
 20
11.3153087248
 30
0.0
  0
LEADER
  5
555
330
1F
100
AcDbEntity
  8
0
  6
Continuous
 62
     7
370
     0
100
AcDbLeader
  3
SLDDIMSTYLE8
 73
     2
 76
     3
 10
19.0020682252
 20
9.8323307508
 30
0.0
 10
18.1970367377
 20
11.3153087248
 30
0.0
 10
18.5095367377
 20
11.3153087248
 30
0.0
340
54B
  0
LINE
  5
556
330
1F
100
AcDbEntity
  8
0
  6
CENTERX2
 62
     7
370
     0
100
AcDbLine
 10
18.6368097807
 20
8.2174159606
 30
0.0
 11
19.4999203745
 21
8.2174159606
 31
0.0
  0
LINE
  5
557
330
1F
100
AcDbEntity
  8
0
  6
CENTERX2
 62
     7
370
     0
100
AcDbLine
 10
18.6368097807
 20
9.7134789528
 30
0.0
 11
19.4999203745
 21
9.7134789528
 31
0.0
  0
LINE
  5
558
330
1F
100
AcDbEntity
  8
0
  6
Continuous
 62
     7
370
    15
100
AcDbLine
 10
6.9082977588
 20
1.6247369181
 30
0.0
 11
6.9082977588
 21
1.5459967569
 31
0.0
  0
LINE
  5
559
330
1F
100
AcDbEntity
  8
0
  6
Continuous
 62
     7
370
    15
100
AcDbLine
 10
3.6928589038
 20
1.5459967569
 30
0.0
 11
3.6928589038
 21
1.6247369181
 31
0.0
  0
LINE
  5
55A
330
1F
100
AcDbEntity
  8
0
  6
Continuous
 62
     7
370
    15
100
AcDbLine
 10
4.3753815126
 20
1.6444219515
 30
0.0
 11
4.3719454456
 21
1.8412723408
 31
0.0
  0
LINE
  5
55B
330
1F
100
AcDbEntity
  8
0
  6
Continuous
 62
     7
370
    15
100
AcDbLine
 10
4.1425970684
 20
1.8412723408
 30
0.0
 11
4.1391610015
 21
1.6444219515
 31
0.0
  0
LINE
  5
55C
330
1F
100
AcDbEntity
  8
0
  6
Continuous
 62
     7
370
    15
100
AcDbLine
 10
6.4619956612
 20
1.6444219515
 30
0.0
 11
6.4585595942
 21
1.8412723408
 31
0.0
  0
LINE
  5
55D
330
1F
100
AcDbEntity
  8
0
  6
Continuous
 62
     7
370
    15
100
AcDbLine
 10
6.229211217
 20
1.8412723408
 30
0.0
 11
6.22577515
 21
1.6444219515
 31
0.0
  0
LINE
  5
55E
330
1F
100
AcDbEntity
  8
0
  6
Continuous
 62
     7
370
    15
100
AcDbLine
 10
6.8753814457
 20
1.9396975355
 30
0.0
 11
6.8210850463
 21
3.1832895627
 31
0.0
  0
LINE
  5
55F
330
1F
100
AcDbEntity
  8
0
  6
Continuous
 62
     7
370
    15
100
AcDbLine
 10
6.8753814457
 20
1.9396975355
 30
0.0
 11
6.8281374315
 21
1.9396975355
 31
0.0
  0
LINE
  5
560
330
1F
100
AcDbEntity
  8
0
  6
Continuous
 62
     7
370
    15
100
AcDbLine
 10
6.8281374315
 20
1.9396975355
 30
0.0
 11
6.8281374315
 21
1.8806424444
 31
0.0
  0
LINE
  5
561
330
1F
100
AcDbEntity
  8
0
  6
Continuous
 62
     7
370
    15
100
AcDbLine
 10
3.7730192312
 20
1.8806424444
 30
0.0
 11
3.7730192312
 21
1.9396975355
 31
0.0
  0
LINE
  5
562
330
1F
100
AcDbEntity
  8
0
  6
Continuous
 62
     7
370
    15
100
AcDbLine
 10
3.7730192312
 20
1.9396975355
 30
0.0
 11
3.7257752169
 21
1.9396975355
 31
0.0
  0
LINE
  5
563
330
1F
100
AcDbEntity
  8
0
  6
Continuous
 62
     7
370
    15
100
AcDbLine
 10
3.7800716164
 20
3.1832895627
 30
0.0
 11
3.7257752169
 21
1.9396975355
 31
0.0
  0
LINE
  5
564
330
1F
100
AcDbEntity
  8
0
  6
Continuous
 62
     7
370
    15
100
AcDbLine
 10
6.8281374315
 20
1.8806424444
 30
0.0
 11
6.7918621972
 21
1.8806424444
 31
0.0
  0
LINE
  5
565
330
1F
100
AcDbEntity
  8
0
  6
Continuous
 62
     7
370
    15
100
AcDbLine
 10
6.7248050652
 20
3.1601700298
 30
0.0
 11
6.7918621972
 21
1.8806424444
 31
0.0
  0
ARC
  5
566
330
1F
100
AcDbEntity
  8
0
  6
Continuous
 62
     7
370
    15
100
AcDbCircle
 10
6.7424198639
 20
3.1798550246
 30
0.0
 40
0.0787401574803157
100
AcDbArc
 50
2.5
 51
90.0
  0
LINE
  5
567
330
1F
100
AcDbEntity
  8
0
  6
Continuous
 62
     7
370
    15
100
AcDbLine
 10
3.8092944654
 20
1.8806424444
 30
0.0
 11
3.7730192312
 21
1.8806424444
 31
0.0
  0
LINE
  5
568
330
1F
100
AcDbEntity
  8
0
  6
Continuous
 62
     7
370
    15
100
AcDbLine
 10
6.7248050652
 20
3.1601700298
 30
0.0
 11
3.8763515975
 21
3.1601700298
 31
0.0
  0
LINE
  5
569
330
1F
100
AcDbEntity
  8
0
  6
Continuous
 62
     7
370
    15
100
AcDbLine
 10
3.8092944654
 20
1.8806424444
 30
0.0
 11
3.8763515975
 21
3.1601700298
 31
0.0
  0
LINE
  5
56A
330
1F
100
AcDbEntity
  8
0
  6
Continuous
 62
     7
370
    15
100
AcDbLine
 10
6.7424198217
 20
3.2585951328
 30
0.0
 11
3.8587368409
 21
3.2585951328
 31
0.0
  0
ARC
  5
56B
330
1F
100
AcDbEntity
  8
0
  6
Continuous
 62
     7
370
    15
100
AcDbCircle
 10
3.8587367987
 20
3.1798550246
 30
0.0
 40
0.0787401574803153
100
AcDbArc
 50
90.0
 51
177.5
  0
LINE
  5
56C
330
1F
100
AcDbEntity
  8
0
  6
Continuous
 62
     7
370
    15
100
AcDbLine
 10
5.6155389762
 20
1.9396975355
 30
0.0
 11
5.6155389762
 21
1.8806424444
 31
0.0
  0
LINE
  5
56D
330
1F
100
AcDbEntity
  8
0
  6
Continuous
 62
     7
370
    15
100
AcDbLine
 10
5.576168891
 20
1.8255243178
 30
0.0
 11
5.576168891
 21
1.9396975355
 31
0.0
  0
LINE
  5
56E
330
1F
100
AcDbEntity
  8
0
  6
Continuous
 62
     7
370
    15
100
AcDbLine
 10
5.0249877716
 20
1.8255243178
 30
0.0
 11
5.576168891
 21
1.8255243178
 31
0.0
  0
LINE
  5
56F
330
1F
100
AcDbEntity
  8
0
  6
Continuous
 62
     7
370
    15
100
AcDbLine
 10
5.0249877716
 20
1.9396975355
 30
0.0
 11
5.0249877716
 21
1.8255243178
 31
0.0
  0
LINE
  5
570
330
1F
100
AcDbEntity
  8
0
  6
Continuous
 62
     7
370
    15
100
AcDbLine
 10
4.9856176864
 20
1.8806424444
 30
0.0
 11
4.9856176864
 21
1.9396975355
 31
0.0
  0
LINE
  5
571
330
1F
100
AcDbEntity
  8
0
  6
Continuous
 62
     7
370
    15
100
AcDbLine
 10
4.9856176864
 20
1.9396975355
 30
0.0
 11
5.0249877716
 21
1.9396975355
 31
0.0
  0
LINE
  5
572
330
1F
100
AcDbEntity
  8
0
  6
Continuous
 62
     7
370
    15
100
AcDbLine
 10
5.576168891
 20
1.9396975355
 30
0.0
 11
5.6155389762
 21
1.9396975355
 31
0.0
  0
LINE
  5
573
330
1F
100
AcDbEntity
  8
0
  6
Continuous
 62
     7
370
    15
100
AcDbLine
 10
6.8774447286
 20
1.9003274503
 30
0.0
 11
6.8556965131
 21
1.9003274503
 31
0.0
  0
LINE
  5
574
330
1F
100
AcDbEntity
  8
0
  6
Continuous
 62
     7
370
    15
100
AcDbLine
 10
6.8877612894
 20
1.7034770793
 30
0.0
 11
6.8774447286
 21
1.9003274503
 31
0.0
  0
LINE
  5
575
330
1F
100
AcDbEntity
  8
0
  6
Continuous
 62
     7
370
    15
100
AcDbLine
 10
7.2021532042
 20
1.6247369181
 30
0.0
 11
7.2021532042
 21
1.5459967569
 31
0.0
  0
LINE
  5
576
330
1F
100
AcDbEntity
  8
0
  6
Continuous
 62
     7
370
    15
100
AcDbLine
 10
3.3990034585
 20
1.6247369181
 30
0.0
 11
3.3990034585
 21
1.5459967569
 31
0.0
  0
LINE
  5
577
330
1F
100
AcDbEntity
  8
0
  6
Continuous
 62
     7
370
    15
100
AcDbLine
 10
3.7237119341
 20
1.9003274503
 30
0.0
 11
3.7133953733
 21
1.7034770793
 31
0.0
  0
LINE
  5
578
330
1F
100
AcDbEntity
  8
0
  6
Continuous
 62
     7
370
    15
100
AcDbLine
 10
3.7454601495
 20
1.9003274503
 30
0.0
 11
3.7237119341
 21
1.9003274503
 31
0.0
  0
LINE
  5
579
330
1F
100
AcDbEntity
  8
0
  6
Continuous
 62
     7
370
    15
100
AcDbLine
 10
3.7454601495
 20
1.9396975355
 30
0.0
 11
3.7454601495
 21
1.9003274503
 31
0.0
  0
LINE
  5
57A
330
1F
100
AcDbEntity
  8
0
  6
Continuous
 62
     7
370
    15
100
AcDbLine
 10
3.7690823033
 20
1.9396975355
 30
0.0
 11
3.7454601495
 21
1.9396975355
 31
0.0
  0
LINE
  5
57B
330
1F
100
AcDbEntity
  8
0
  6
Continuous
 62
     7
370
    15
100
AcDbLine
 10
3.7690823033
 20
1.9396975355
 30
0.0
 11
3.7690823033
 21
1.8806424444
 31
0.0
  0
LINE
  5
57C
330
1F
100
AcDbEntity
  8
0
  6
Continuous
 62
     7
370
    15
100
AcDbLine
 10
3.8154843139
 20
1.8806424444
 30
0.0
 11
3.7690823033
 21
1.8806424444
 31
0.0
  0
LINE
  5
57D
330
1F
100
AcDbEntity
  8
0
  6
Continuous
 62
     7
370
    15
100
AcDbLine
 10
3.8278641576
 20
1.6444219515
 30
0.0
 11
3.8154843139
 21
1.8806424444
 31
0.0
  0
LINE
  5
57E
330
1F
100
AcDbEntity
  8
0
  6
Continuous
 62
     7
370
    15
100
AcDbLine
 10
6.7732925051
 20
1.6444219515
 30
0.0
 11
3.8278641576
 21
1.6444219515
 31
0.0
  0
LINE
  5
57F
330
1F
100
AcDbEntity
  8
0
  6
Continuous
 62
     7
370
    15
100
AcDbLine
 10
6.7856723487
 20
1.8806424444
 30
0.0
 11
6.7732925051
 21
1.6444219515
 31
0.0
  0
LINE
  5
580
330
1F
100
AcDbEntity
  8
0
  6
Continuous
 62
     7
370
    15
100
AcDbLine
 10
6.8320743594
 20
1.8806424444
 30
0.0
 11
6.7856723487
 21
1.8806424444
 31
0.0
  0
LINE
  5
581
330
1F
100
AcDbEntity
  8
0
  6
Continuous
 62
     7
370
    15
100
AcDbLine
 10
6.8320743594
 20
1.8806424444
 30
0.0
 11
6.8320743594
 21
1.9396975355
 31
0.0
  0
LINE
  5
582
330
1F
100
AcDbEntity
  8
0
  6
Continuous
 62
     7
370
    15
100
AcDbLine
 10
6.8556965131
 20
1.9396975355
 30
0.0
 11
6.8320743594
 21
1.9396975355
 31
0.0
  0
LINE
  5
583
330
1F
100
AcDbEntity
  8
0
  6
Continuous
 62
     7
370
    15
100
AcDbLine
 10
6.8556965131
 20
1.9003274503
 30
0.0
 11
6.8556965131
 21
1.9396975355
 31
0.0
  0
LINE
  5
584
330
1F
100
AcDbEntity
  8
0
  6
Continuous
 62
     7
370
    15
100
AcDbLine
 10
7.2808932279
 20
1.6641069941
 30
0.0
 11
7.2808932279
 21
1.5459967569
 31
0.0
  0
ARC
  5
585
330
1F
100
AcDbEntity
  8
0
  6
Continuous
 62
     7
370
    15
100
AcDbCircle
 10
7.2415232132
 20
1.6641069931
 30
0.0
 40
0.0393700787401592
100
AcDbArc
 50
0.0
 51
90.0
  0
LINE
  5
586
330
1F
100
AcDbEntity
  8
0
  6
Continuous
 62
     7
370
    15
100
AcDbLine
 10
7.241523216
 20
1.7034770793
 30
0.0
 11
6.8877612894
 21
1.7034770793
 31
0.0
  0
LINE
  5
587
330
1F
100
AcDbEntity
  8
0
  6
Continuous
 62
     7
370
    15
100
AcDbLine
 10
7.2021532042
 20
1.6247369181
 30
0.0
 11
6.8720132846
 21
1.6247369181
 31
0.0
  0
LINE
  5
588
330
1F
100
AcDbEntity
  8
0
  6
Continuous
 62
     7
370
    15
100
AcDbLine
 10
6.8720132846
 20
1.5459967569
 30
0.0
 11
6.8720132846
 21
1.6247369181
 31
0.0
  0
LINE
  5
589
330
1F
100
AcDbEntity
  8
0
  6
Continuous
 62
     7
370
    15
100
AcDbLine
 10
3.3990034585
 20
1.5459967569
 30
0.0
 11
3.3202634348
 21
1.5459967569
 31
0.0
  0
LINE
  5
58A
330
1F
100
AcDbEntity
  8
0
  6
Continuous
 62
     7
370
    15
100
AcDbLine
 10
6.8720132846
 20
1.5459967569
 30
0.0
 11
3.729143378
 21
1.5459967569
 31
0.0
  0
LINE
  5
58B
330
1F
100
AcDbEntity
  8
0
  6
Continuous
 62
     7
370
    15
100
AcDbLine
 10
7.2808932279
 20
1.5459967569
 30
0.0
 11
7.2021532042
 21
1.5459967569
 31
0.0
  0
LINE
  5
58C
330
1F
100
AcDbEntity
  8
0
  6
Continuous
 62
     7
370
    15
100
AcDbLine
 10
3.729143378
 20
1.6247369181
 30
0.0
 11
3.3990034585
 21
1.6247369181
 31
0.0
  0
LINE
  5
58D
330
1F
100
AcDbEntity
  8
0
  6
Continuous
 62
     7
370
    15
100
AcDbLine
 10
3.729143378
 20
1.5459967569
 30
0.0
 11
3.729143378
 21
1.6247369181
 31
0.0
  0
LINE
  5
58E
330
1F
100
AcDbEntity
  8
0
  6
Continuous
 62
     7
370
    15
100
AcDbLine
 10
3.3202634348
 20
1.6641069941
 30
0.0
 11
3.3202634348
 21
1.5459967569
 31
0.0
  0
ARC
  5
58F
330
1F
100
AcDbEntity
  8
0
  6
Continuous
 62
     7
370
    15
100
AcDbCircle
 10
3.3596334494
 20
1.6641069931
 30
0.0
 40
0.0393700787401576
100
AcDbArc
 50
90.0
 51
180.0
  0
LINE
  5
590
330
1F
100
AcDbEntity
  8
0
  6
Continuous
 62
     7
370
    15
100
AcDbLine
 10
3.7133953733
 20
1.7034770793
 30
0.0
 11
3.3596334466
 21
1.7034770793
 31
0.0
  0
LINE
  5
591
330
1F
100
AcDbEntity
  8
0
  6
Continuous
 62
     7
370
    15
100
AcDbLine
 10
6.9082977588
 20
1.5459967569
 30
0.0
 11
7.2021532042
 21
1.5459967569
 31
0.0
  0
LINE
  5
592
330
1F
100
AcDbEntity
  8
0
  6
Continuous
 62
     7
370
    15
100
AcDbLine
 10
3.3990034585
 20
1.5459967569
 30
0.0
 11
3.6928589038
 21
1.5459967569
 31
0.0
  0
LINE
  5
593
330
1F
100
AcDbEntity
  8
0
  6
Continuous
 62
     7
370
    15
100
AcDbLine
 10
4.3719454456
 20
1.8412723408
 30
0.0
 11
4.1425970684
 21
1.8412723408
 31
0.0
  0
LINE
  5
594
330
1F
100
AcDbEntity
  8
0
  6
Continuous
 62
     7
370
    15
100
AcDbLine
 10
6.4585595942
 20
1.8412723408
 30
0.0
 11
6.229211217
 21
1.8412723408
 31
0.0
  0
LINE
  5
595
330
1F
100
AcDbEntity
  8
0
  6
Continuous
 62
     7
370
    15
100
AcDbLine
 10
3.6928589038
 20
1.5459967569
 30
0.0
 11
3.729143378
 21
1.5459967569
 31
0.0
  0
LINE
  5
596
330
1F
100
AcDbEntity
  8
0
  6
Continuous
 62
     7
370
    15
100
AcDbLine
 10
6.8720132846
 20
1.5459967569
 30
0.0
 11
6.9082977588
 21
1.5459967569
 31
0.0
  0
LINE
  5
597
330
1F
100
AcDbEntity
  8
0
  6
Continuous
 62
     7
370
    15
100
AcDbLine
 10
4.9856176864
 20
1.801902274
 30
0.0
 11
4.9856176864
 21
1.8806424444
 31
0.0
  0
LINE
  5
598
330
1F
100
AcDbEntity
  8
0
  6
Continuous
 62
     7
370
    15
100
AcDbLine
 10
5.6155389762
 20
1.801902274
 30
0.0
 11
4.9856176864
 21
1.801902274
 31
0.0
  0
LINE
  5
599
330
1F
100
AcDbEntity
  8
0
  6
Continuous
 62
     7
370
    15
100
AcDbLine
 10
5.6155389762
 20
1.8806424444
 30
0.0
 11
5.6155389762
 21
1.801902274
 31
0.0
  0
LINE
  5
59A
330
1F
100
AcDbEntity
  8
0
  6
Continuous
 62
     7
370
    15
100
AcDbLine
 10
5.6155389762
 20
1.8806424444
 30
0.0
 11
6.7856723487
 21
1.8806424444
 31
0.0
  0
LINE
  5
59B
330
1F
100
AcDbEntity
  8
0
  6
Continuous
 62
     7
370
    15
100
AcDbLine
 10
3.8154843139
 20
1.8806424444
 30
0.0
 11
4.9856176864
 21
1.8806424444
 31
0.0
  0
LINE
  5
59C
330
1F
100
AcDbEntity
  8
0
  6
Continuous
 62
     7
370
    15
100
AcDbLine
 10
5.6155389762
 20
1.8806424444
 30
0.0
 11
5.576168891
 21
1.8806424444
 31
0.0
  0
LINE
  5
59D
330
1F
100
AcDbEntity
  8
0
  6
Continuous
 62
     7
370
    15
100
AcDbLine
 10
5.0249877716
 20
1.8806424444
 30
0.0
 11
4.9856176864
 21
1.8806424444
 31
0.0
  0
HATCH
  5
59E
330
1F
100
AcDbEntity
  8
0
  6
Continuous
 62
     7
370
     0
100
AcDbHatch
 10
0.0
 20
0.0
 30
0.0
210
0.0
220
0.0
230
1.0
  2
ANSI31
 70
     0
 71
     0
 91
        1
 92
        0
 93
       30
 72
     1
 10
6.855696441565389
 20
1.900327465540066
 11
6.855696441565389
 21
1.939697544280224
 72
     1
 10
6.855696441565389
 20
1.939697544280224
 11
6.832074394321294
 21
1.939697544280224
 72
     1
 10
6.832074394321294
 20
1.939697544280224
 11
6.832074394321294
 21
1.880642426169987
 72
     1
 10
6.832074394321294
 20
1.880642426169987
 11
6.785672360111666
 21
1.880642426169987
 72
     1
 10
6.785672360111666
 20
1.880642426169987
 11
6.773292569729845
 21
1.644421953729043
 72
     1
 10
6.773292569729845
 20
1.644421953729043
 11
3.827864092928491
 21
1.644421953729043
 72
     1
 10
3.827864092928491
 20
1.644421953729043
 11
3.81548430254667
 21
1.880642426169987
 72
     1
 10
3.81548430254667
 20
1.880642426169987
 11
3.769082268337042
 21
1.880642426169987
 72
     1
 10
3.769082268337042
 20
1.880642426169987
 11
3.769082268337042
 21
1.939697544280224
 72
     1
 10
3.769082268337042
 20
1.939697544280224
 11
3.745460221092948
 21
1.939697544280224
 72
     1
 10
3.745460221092948
 20
1.939697544280224
 11
3.745460221092948
 21
1.900327465540066
 72
     1
 10
3.745460221092948
 20
1.900327465540066
 11
3.723711883326038
 21
1.900327465542734
 72
     1
 10
3.723711883326038
 20
1.900327465542734
 11
3.713395391341141
 21
1.703477071839279
 72
     1
 10
3.713395391341141
 20
1.703477071839279
 11
3.359633449439404
 21
1.703477071839279
 72
     2
 10
3.359633449439404
 20
1.664106993099121
 40
0.0393700787401575
 50
90.0
 51
180.0
 73
     1
 72
     1
 10
3.320263370699247
 20
1.664106993099121
 11
3.320263370699247
 21
1.545996756878649
 72
     1
 10
3.320263370699247
 20
1.545996756878649
 11
3.399003528179562
 21
1.545996756878649
 72
     1
 10
3.399003528179562
 20
1.545996756878649
 11
3.399003528179562
 21
1.624736914358964
 72
     1
 10
3.399003528179562
 20
1.624736914358964
 11
3.729143422837112
 21
1.624736914358964
 72
     1
 10
3.729143422837112
 20
1.624736914358964
 11
3.729143422837112
 21
1.545996756878649
 72
     1
 10
3.729143422837112
 20
1.545996756878649
 11
6.872013239821225
 21
1.545996756878649
 72
     1
 10
6.872013239821225
 20
1.545996756878649
 11
6.872013239821225
 21
1.624736914358964
 72
     1
 10
6.872013239821225
 20
1.624736914358964
 11
7.202153134478774
 21
1.624736914358964
 72
     1
 10
7.202153134478774
 20
1.624736914358964
 11
7.202153134478774
 21
1.545996756878649
 72
     1
 10
7.202153134478774
 20
1.545996756878649
 11
7.280893291959091
 21
1.545996756878649
 72
     1
 10
7.280893291959091
 20
1.545996756878649
 11
7.280893291959091
 21
1.664106993099121
 72
     2
 10
7.241523213218931
 20
1.664106993099121
 40
0.0393700787401575
 50
0.0
 51
90.0
 73
     1
 72
     1
 10
7.241523213218931
 20
1.703477071839279
 11
6.887761271317196
 21
1.703477071839279
 72
     1
 10
6.887761271317196
 20
1.703477071839279
 11
6.877444779332298
 21
1.900327465542734
 72
     1
 10
6.877444779332298
 20
1.900327465542734
 11
6.855696441565389
 21
1.900327465540066
 97
        0
 75
     0
 76
     1
 52
0.0
 41
1.25
 77
     0
 78
     1
 53
45.0
 43
0.0
 44
0.0
 45
-0.110485434560398
 46
0.1104854345603981
 79
     0
 98
        1
 10
0.0
 20
0.0
  0
HATCH
  5
59F
330
1F
100
AcDbEntity
  8
0
  6
Continuous
 62
     7
370
     0
100
AcDbHatch
 10
0.0
 20
0.0
 30
0.0
210
0.0
220
0.0
230
1.0
  2
ANSI31
 70
     0
 71
     0
 91
        1
 92
        0
 93
       14
 72
     1
 10
3.87635160525729
 20
3.160169985225106
 11
6.724805057401047
 21
3.160169985225106
 72
     1
 10
6.724805057401047
 20
3.160169985225106
 11
6.791862255302576
 21
1.880642426169987
 72
     1
 10
6.791862255302576
 20
1.880642426169987
 11
6.828137386447279
 21
1.880642426169987
 72
     1
 10
6.828137386447279
 20
1.880642426169987
 11
6.828137386447279
 21
1.939697544280224
 72
     1
 10
6.828137386447279
 20
1.939697544280224
 11
6.875381480935467
 21
1.939697544280224
 72
     1
 10
6.875381480935467
 20
1.939697544280224
 11
6.821085078227553
 21
3.183289622025526
 72
     2
 10
6.742419863929768
 20
3.179855024595184
 40
0.078740157480315
 50
2.500000000000094
 51
90.0
 73
     1
 72
     1
 10
6.742419863929768
 20
3.258595182075499
 11
3.858736798728568
 21
3.258595182075499
 72
     2
 10
3.858736798728568
 20
3.179855024595184
 40
0.078740157480315
 50
90.0
 51
177.4999999999999
 73
     1
 72
     1
 10
3.780071584430784
 20
3.183289622025526
 11
3.725775181722869
 21
1.939697544280224
 72
     1
 10
3.725775181722869
 20
1.939697544280224
 11
3.773019276211057
 21
1.939697544280224
 72
     1
 10
3.773019276211057
 20
1.939697544280224
 11
3.773019276211057
 21
1.880642426169987
 72
     1
 10
3.773019276211057
 20
1.880642426169987
 11
3.809294407355761
 21
1.880642426169987
 72
     1
 10
3.809294407355761
 20
1.880642426169987
 11
3.87635160525729
 21
3.160169985225106
 97
        0
 75
     0
 76
     1
 52
0.0
 41
1.25
 77
     0
 78
     1
 53
45.0
 43
0.0
 44
0.0
 45
-0.110485434560398
 46
0.1104854345603981
 79
     0
 98
        1
 10
0.0
 20
0.0
  0
DIMENSION
  5
5A0
330
1F
100
AcDbEntity
  8
0
  6
Continuous
 62
     7
370
     0
100
AcDbDimension
  2
*D42
 10
2.9630860811
 20
3.1601699852
 30
0.0
 11
2.9630860811
 21
2.5007211663
 31
0.0
 70
   160
 71
     2
 42
-1.0
  3
SLDDIMSTYLE0
100
AcDbAlignedDimension
 13
4.1425970449
 23
1.8412723474
 33
0.0
 14
3.8763516053
 24
3.1601699852
 34
0.0
 50
90.0
100
AcDbRotatedDimension
  0
DIMENSION
  5
5B4
330
1F
100
AcDbEntity
  8
0
  6
Continuous
 62
     7
370
     0
100
AcDbDimension
  2
*D43
 10
7.6592462051
 20
3.1601699852
 30
0.0
 11
7.6592462051
 21
2.4022959695
 31
0.0
 70
   160
 71
     2
 42
-1.0
  3
SLDDIMSTYLE0
100
AcDbAlignedDimension
 13
6.7732925697
 23
1.6444219537
 33
0.0
 14
6.7248050574
 24
3.1601699852
 34
0.0
 50
90.0
100
AcDbRotatedDimension
  0
DIMENSION
  5
5C8
330
1F
100
AcDbEntity
  8
0
  6
Continuous
 62
     7
370
     0
100
AcDbDimension
  2
*D44
 10
8.3635863868
 20
1.5459967569
 30
0.0
 11
8.3635863868
 21
2.4022959695
 31
0.0
 70
   160
 71
     2
 42
-1.0
  3
SLDDIMSTYLE0
100
AcDbAlignedDimension
 13
6.7424198639
 23
3.2585951821
 33
0.0
 14
7.280893292
 24
1.5459967569
 34
0.0
 50
90.0
100
AcDbRotatedDimension
  0
ENDSEC
  0
SECTION
  2
OBJECTS
  0
DICTIONARY
  5
C
330
0
100
AcDbDictionary
281
     1
  3
ACAD_GROUP
350
D
  3
ACAD_LAYOUT
350
1A
  3
ACAD_MLINESTYLE
350
17
  3
ACAD_PLOTSETTINGS
350
19
  3
ACAD_PLOTSTYLENAME
350
E
  0
DICTIONARY
  5
D
102
{ACAD_REACTORS
330
C
102
}
330
C
100
AcDbDictionary
281
     1
  0
DICTIONARY
  5
1A
102
{ACAD_REACTORS
330
C
102
}
330
C
100
AcDbDictionary
281
     1
  3
Layout1
350
1E
  3
Layout2
350
26
  3
Model
350
22
  0
DICTIONARY
  5
17
102
{ACAD_REACTORS
330
C
102
}
330
C
100
AcDbDictionary
281
     1
  3
Standard
350
18
  0
DICTIONARY
  5
19
102
{ACAD_REACTORS
330
C
102
}
330
C
100
AcDbDictionary
281
     1
  0
ACDBDICTIONARYWDFLT
  5
E
102
{ACAD_REACTORS
330
C
102
}
330
C
100
AcDbDictionary
281
     1
  3
Normal
350
F
100
AcDbDictionaryWithDefault
340
F
  0
LAYOUT
  5
1E
102
{ACAD_REACTORS
330
1A
102
}
330
1A
100
AcDbPlotSettings
  1

  2
none_device
  4

  6

 40
0.0
 41
0.0
 42
0.0
 43
0.0
 44
0.0
 45
0.0
 46
0.0
 47
0.0
 48
0.0
 49
0.0
140
0.0
141
0.0
142
1.0
143
1.0
 70
   688
 72
     0
 73
     0
 74
     5
  7

 75
    16
147
1.0
148
0.0
149
0.0
100
AcDbLayout
  1
Layout1
 70
     1
 71
     1
 10
0.0
 20
0.0
 11
12.0
 21
9.0
 12
0.0
 22
0.0
 32
0.0
 14
1.0000000000E+20
 24
1.0000000000E+20
 34
1.0000000000E+20
 15
-1.0000000000E+20
 25
-1.0000000000E+20
 35
-1.0000000000E+20
146
0.0
 13
0.0
 23
0.0
 33
0.0
 16
1.0
 26
0.0
 36
0.0
 17
0.0
 27
1.0
 37
0.0
 76
     0
330
1B
  0
LAYOUT
  5
26
102
{ACAD_REACTORS
330
1A
102
}
330
1A
100
AcDbPlotSettings
  1

  2
none_device
  4

  6

 40
0.0
 41
0.0
 42
0.0
 43
0.0
 44
0.0
 45
0.0
 46
0.0
 47
0.0
 48
0.0
 49
0.0
140
0.0
141
0.0
142
1.0
143
1.0
 70
   688
 72
     0
 73
     0
 74
     5
  7

 75
    16
147
1.0
148
0.0
149
0.0
100
AcDbLayout
  1
Layout2
 70
     1
 71
     2
 10
0.0
 20
0.0
 11
0.0
 21
0.0
 12
0.0
 22
0.0
 32
0.0
 14
0.0
 24
0.0
 34
0.0
 15
0.0
 25
0.0
 35
0.0
146
0.0
 13
0.0
 23
0.0
 33
0.0
 16
1.0
 26
0.0
 36
0.0
 17
0.0
 27
1.0
 37
0.0
 76
     0
330
23
  0
LAYOUT
  5
22
102
{ACAD_REACTORS
330
1A
102
}
330
1A
100
AcDbPlotSettings
  1

  2
none_device
  4

  6

 40
0.0
 41
0.0
 42
0.0
 43
0.0
 44
0.0
 45
0.0
 46
0.0
 47
0.0
 48
0.0
 49
0.0
140
0.0
141
0.0
142
1.0
143
1.0
 70
  1712
 72
     0
 73
     0
 74
     0
  7

 75
     0
147
1.0
148
0.0
149
0.0
100
AcDbLayout
  1
Model
 70
     1
 71
     0
 10
0.0
 20
0.0
 11
21.25
 21
13.75
 12
0.0
 22
0.0
 32
0.0
 14
0.0
 24
0.0
 34
0.0
 15
21.25
 25
13.75
 35
0.0
146
0.0
 13
0.0
 23
0.0
 33
0.0
 16
1.0
 26
0.0
 36
0.0
 17
0.0
 27
1.0
 37
0.0
 76
     0
330
1F
331
29
  0
MLINESTYLE
  5
18
102
{ACAD_REACTORS
330
17
102
}
330
17
100
AcDbMlineStyle
  2
Standard
 70
     0
  3

 62
   256
 51
90.0
 52
90.0
 71
     2
 49
0.5
 62
   256
  6
BYLAYER
 49
-0.5
 62
   256
  6
BYLAYER
  0
ACDBPLACEHOLDER
  5
F
102
{ACAD_REACTORS
330
E
102
}
330
E
  0
ENDSEC
  0
EOF
