  0
SECTION
  2
HEADER
  9
$ACADVER
  1
AC1009
  9
$INSBASE
 10
0.0
 20
0.0
 30
0.0
  9
$EXTMIN
 10
0.0
 20
-0.0000000000000018
 30
0.0
  9
$EXTMAX
 10
10.11999999999999
 20
15.5
 30
0.0
  9
$LIMMIN
 10
0.0
 20
0.0
  9
$LIMMAX
 10
75.0
 20
50.0
  9
$ORTHOMODE
 70
     1
  9
$REGENMODE
 70
     1
  9
$FILLMODE
 70
     1
  9
$QTEXTMODE
 70
     0
  9
$MIRRTEXT
 70
     0
  9
$DRAGMODE
 70
     2
  9
$LTSCALE
 40
0.25
  9
$OSMODE
 70
   229
  9
$ATTMODE
 70
     1
  9
$TEXTSIZE
 40
0.125
  9
$TRACEWID
 40
0.05
  9
$TEXTSTYLE
  7
TXT
  9
$CLAYER
  8
TEXT
  9
$CELTYPE
  6
BYLAYER
  9
$CECOLOR
 62
   256
  9
$DIMSCALE
 40
1.0
  9
$DIMASZ
 40
0.18
  9
$DIMEXO
 40
0.063
  9
$DIMDLI
 40
0.281
  9
$DIMRND
 40
0.0
  9
$DIMDLE
 40
0.0
  9
$DIMEXE
 40
0.093
  9
$DIMTP
 40
0.0
  9
$DIMTM
 40
0.0
  9
$DIMTXT
 40
0.125
  9
$DIMCEN
 40
0.09
  9
$DIMTSZ
 40
0.0
  9
$DIMTOL
 70
     0
  9
$DIMLIM
 70
     0
  9
$DIMTIH
 70
     1
  9
$DIMTOH
 70
     1
  9
$DIMSE1
 70
     0
  9
$DIMSE2
 70
     0
  9
$DIMTAD
 70
     0
  9
$DIMZIN
 70
     0
  9
$DIMBLK
  1

  9
$DIMASO
 70
     1
  9
$DIMSHO
 70
     1
  9
$DIMPOST
  1

  9
$DIMAPOST
  1

  9
$DIMALT
 70
     0
  9
$DIMALTD
 70
     2
  9
$DIMALTF
 40
25.399999999999999
  9
$DIMLFAC
 40
1.0
  9
$DIMTOFL
 70
     0
  9
$DIMTVP
 40
0.0
  9
$DIMTIX
 70
     0
  9
$DIMSOXD
 70
     0
  9
$DIMSAH
 70
     0
  9
$DIMBLK1
  1

  9
$DIMBLK2
  1

  9
$DIMSTYLE
  2
23NSTD
  9
$DIMCLRD
 70
     0
  9
$DIMCLRE
 70
     0
  9
$DIMCLRT
 70
     0
  9
$DIMTFAC
 40
1.0
  9
$DIMGAP
 40
0.09
  9
$LUNITS
 70
     2
  9
$LUPREC
 70
     3
  9
$SKETCHINC
 40
0.1
  9
$FILLETRAD
 40
0.0
  9
$AUNITS
 70
     0
  9
$AUPREC
 70
     0
  9
$MENU
  1
acad
  9
$ELEVATION
 40
0.0
  9
$PELEVATION
 40
0.0
  9
$THICKNESS
 40
0.0
  9
$LIMCHECK
 70
     0
  9
$BLIPMODE
 70
     0
  9
$CHAMFERA
 40
0.0
  9
$CHAMFERB
 40
0.0
  9
$SKPOLY
 70
     0
  9
$TDCREATE
 40
2451185.6853533559
  9
$TDUPDATE
 40
2457158.5539543512
  9
$TDINDWG
 40
0.2602806944
  9
$TDUSRTIMER
 40
0.2602806944
  9
$USRTIMER
 70
     1
  9
$ANGBASE
 50
0.0
  9
$ANGDIR
 70
     0
  9
$PDMODE
 70
     0
  9
$PDSIZE
 40
0.0
  9
$PLINEWID
 40
0.0
  9
$COORDS
 70
     2
  9
$SPLFRAME
 70
     0
  9
$SPLINETYPE
 70
     6
  9
$SPLINESEGS
 70
     8
  9
$ATTDIA
 70
     0
  9
$ATTREQ
 70
     1
  9
$HANDLING
 70
  4097
  9
$HANDSEED
  5
1114
  9
$SURFTAB1
 70
     6
  9
$SURFTAB2
 70
     6
  9
$SURFTYPE
 70
     6
  9
$SURFU
 70
     6
  9
$SURFV
 70
     6
  9
$UCSNAME
  2

  9
$UCSORG
 10
0.0
 20
0.0
 30
0.0
  9
$UCSXDIR
 10
1.0
 20
0.0
 30
0.0
  9
$UCSYDIR
 10
0.0
 20
1.0
 30
0.0
  9
$PUCSNAME
  2

  9
$PUCSORG
 10
0.0
 20
0.0
 30
0.0
  9
$PUCSXDIR
 10
1.0
 20
0.0
 30
0.0
  9
$PUCSYDIR
 10
0.0
 20
1.0
 30
0.0
  9
$USERI1
 70
     0
  9
$USERI2
 70
     0
  9
$USERI3
 70
     0
  9
$USERI4
 70
     0
  9
$USERI5
 70
     0
  9
$USERR1
 40
0.0
  9
$USERR2
 40
0.0
  9
$USERR3
 40
0.0
  9
$USERR4
 40
0.0
  9
$USERR5
 40
0.0
  9
$WORLDVIEW
 70
     1
  9
$SHADEDGE
 70
     3
  9
$SHADEDIF
 70
    70
  9
$TILEMODE
 70
     1
  9
$MAXACTVP
 70
    16
  9
$PLIMCHECK
 70
     0
  9
$PEXTMIN
 10
1.0000000000000000E+020
 20
1.0000000000000000E+020
 30
1.0000000000000000E+020
  9
$PEXTMAX
 10
-1.0000000000000000E+020
 20
-1.0000000000000000E+020
 30
-1.0000000000000000E+020
  9
$PLIMMIN
 10
0.0
 20
0.0
  9
$PLIMMAX
 10
12.0
 20
9.0
  9
$UNITMODE
 70
     0
  9
$VISRETAIN
 70
     0
  9
$PLINEGEN
 70
     0
  9
$PSLTSCALE
 70
     1
  0
ENDSEC
  0
SECTION
  2
TABLES
  0
TABLE
  2
VPORT
 70
     2
  0
VPORT
  2
*ACTIVE
 70
     0
 10
0.0
 20
0.0
 11
1.0
 21
1.0
 12
5.0606553839754858
 22
7.7492947502238101
 13
0.0
 23
0.0
 14
1.0
 24
1.0
 15
0.0
 25
0.0
 16
0.0
 26
0.0
 36
1.0
 17
0.0
 27
0.0
 37
0.0
 40
15.659238207713919
 41
1.8369747899159661
 42
50.0
 43
0.0
 44
0.0
 50
0.0
 51
0.0
 71
     0
 72
   100
 73
     1
 74
     0
 75
     0
 76
     0
 77
     0
 78
     0
  0
ENDTAB
  0
TABLE
  2
LTYPE
 70
     5
  0
LTYPE
  2
CONTINUOUS
 70
     0
  3
Solid line
 72
    65
 73
     0
 40
0.0
  0
LTYPE
  2
HIDDEN
 70
     0
  3
_ _ _ _ _ _ _ _ _ _ _ _ _ _ _ _ _ _ _ _ _ _ _
 72
    65
 73
     2
 40
0.375
 49
0.25
 49
-0.125
  0
LTYPE
  2
PHANTOM
 70
     0
  3
_____ _ _ _____ _ _ _____ _ _ _____ _ _ ____
 72
    65
 73
     6
 40
2.5
 49
1.25
 49
-0.25
 49
0.25
 49
-0.25
 49
0.25
 49
-0.25
  0
LTYPE
  2
CENTER
 70
     0
  3
____ _ ____ _ ____ _ ____ _ ____ _ ____ _ ____
 72
    65
 73
     4
 40
2.0
 49
1.25
 49
-0.25
 49
0.25
 49
-0.25
  0
LTYPE
  2
PHANTOM2
 70
     0
  3
___ _ _ ___ _ _ ___ _ _ ___ _ _ ___ _ _ ___ _ _
 72
    65
 73
     6
 40
1.25
 49
0.625
 49
-0.125
 49
0.125
 49
-0.125
 49
0.125
 49
-0.125
  0
ENDTAB
  0
TABLE
  2
LAYER
 70
     8
  0
LAYER
  2
0
 70
     0
 62
     7
  6
CONTINUOUS
  0
LAYER
  2
TEXT
 70
     0
 62
     7
  6
CONTINUOUS
  0
LAYER
  2
OBJECT
 70
     0
 62
     7
  6
CONTINUOUS
  0
LAYER
  2
DIM
 70
     0
 62
     7
  6
CONTINUOUS
  0
LAYER
  2
HIDDEN
 70
     0
 62
     7
  6
HIDDEN
  0
LAYER
  2
BEND
 70
     0
 62
     7
  6
PHANTOM
  0
LAYER
  2
TITLE
 70
     0
 62
     7
  6
CONTINUOUS
  0
LAYER
  2
DEFPOINTS
 70
     0
 62
     7
  6
CONTINUOUS
  0
ENDTAB
  0
TABLE
  2
STYLE
 70
     2
  0
STYLE
  2
STANDARD
 70
     0
 40
0.0
 41
1.0
 50
0.0
 71
     0
 42
0.2
  3
txt
  4

  0
STYLE
  2
TXT
 70
     0
 40
0.0
 41
0.75
 50
0.0
 71
     0
 42
0.125
  3
TXT.shx
  4

  0
ENDTAB
  0
TABLE
  2
VIEW
 70
     0
  0
ENDTAB
  0
TABLE
  2
UCS
 70
     0
  0
ENDTAB
  0
TABLE
  2
APPID
 70
     1
  0
APPID
  2
ACAD
 70
     0
  0
ENDTAB
  0
TABLE
  2
DIMSTYLE
 70
     2
  0
DIMSTYLE
  2
23NSTD
 70
     0
  3

  4

  5

  6

  7

 40
1.0
 41
0.18
 42
0.063
 43
0.281
 44
0.093
 45
0.0
 46
0.0
 47
0.0
 48
0.0
140
0.125
141
0.09
142
0.0
143
25.399999999999999
144
1.0
145
0.0
146
1.0
147
0.09
 71
     0
 72
     0
 73
     1
 74
     1
 75
     0
 76
     0
 77
     0
 78
     0
170
     0
171
     2
172
     0
173
     0
174
     0
175
     0
176
     0
177
     0
178
     0
  0
DIMSTYLE
  2
23NSTDI
 70
     0
  3

  4

  5

  6

  7

 40
1.0
 41
0.18
 42
0.063
 43
0.281
 44
0.093
 45
0.0
 46
0.0
 47
0.0
 48
0.0
140
0.125
141
0.09
142
0.0
143
25.399999999999999
144
1.0
145
0.0
146
1.0
147
0.09
 71
     0
 72
     0
 73
     1
 74
     1
 75
     0
 76
     0
 77
     0
 78
     0
170
     0
171
     2
172
     0
173
     0
174
     1
175
     0
176
     0
177
     0
178
     0
  0
ENDTAB
  0
ENDSEC
  0
SECTION
  2
BLOCKS
  0
BLOCK
  8
0
  2
$MODEL_SPACE
 70
     0
 10
0.0
 20
0.0
 30
0.0
  3
$MODEL_SPACE
  1

  0
ENDBLK
  5
7E8
  8
0
  0
BLOCK
 67
     1
  8
0
  2
$PAPER_SPACE
 70
     0
 10
0.0
 20
0.0
 30
0.0
  3
$PAPER_SPACE
  1

  0
ENDBLK
  5
7E4
 67
     1
  8
0
  0
BLOCK
  8
0
  2
HB
 70
     0
 10
0.0
 20
0.0
 30
0.0
  3
HB
  1

  0
LINE
  5
D7F
  8
TITLE
 10
0.0
 20
15.5
 30
0.0
 11
10.11999999999999
 21
15.499999999999989
 31
0.0
  0
LINE
  5
D80
  8
TITLE
 10
10.11999999999999
 20
-0.0000000000000018
 30
0.0
 11
0.0
 21
0.0
 31
0.0
  0
LINE
  5
D81
  8
TITLE
 10
0.0620000000000012
 20
15.438000000000001
 30
0.0
 11
10.058
 21
15.438000000000001
 31
0.0
  0
LINE
  5
D82
  8
TITLE
 10
10.058
 20
0.0619999999999994
 30
0.0
 11
0.0619999999999976
 21
0.0620000000000012
 31
0.0
  0
LINE
  5
D83
  8
TITLE
 10
0.0620000000000012
 20
15.019999999999991
 30
0.0
 11
10.058
 21
15.019999999999991
 31
0.0
  0
LINE
  5
D84
  8
TITLE
 10
0.0
 20
0.0
 30
0.0
 11
0.0
 21
15.5
 31
0.0
  0
LINE
  5
D85
  8
TITLE
 10
0.0619999999999976
 20
0.0620000000000012
 30
0.0
 11
0.0620000000000012
 21
15.438000000000001
 31
0.0
  0
LINE
  5
D86
  8
TITLE
 10
0.6396020312089732
 20
15.019999999999991
 30
0.0
 11
0.6396020312089698
 21
15.438000000000001
 31
0.0
  0
LINE
  5
D87
  8
TITLE
 10
10.11999999999999
 20
15.499999999999989
 30
0.0
 11
10.11999999999999
 21
-0.0000000000000018
 31
0.0
  0
LINE
  5
D88
  8
TITLE
 10
10.058
 20
15.438000000000001
 30
0.0
 11
10.058
 21
0.0619999999999994
 31
0.0
  0
TEXT
  5
D89
  8
TEXT
 10
4.5703931578115267
 20
15.268412528973411
 30
0.0
 40
0.125
  1
PART
  7
TXT
 72
     1
 11
4.7995598244781936
 21
15.268412528973411
 31
0.0
  0
LINE
  5
D8A
  8
TITLE
 10
4.464500000000001
 20
15.438000000000001
 30
0.0
 11
4.464500000000001
 21
15.019999999999991
 31
0.0
  0
LINE
  5
D8B
  8
TITLE
 10
4.5264999999999977
 20
15.438000000000001
 30
0.0
 11
4.5264999999999977
 21
15.019999999999991
 31
0.0
  0
TEXT
  5
D8C
  8
TEXT
 10
4.6745598244781936
 20
15.06007919564008
 30
0.0
 40
0.125
  1
No.
  7
TXT
 72
     1
 11
4.7995598244781936
 21
15.06007919564008
 31
0.0
  0
LINE
  5
D8D
  8
TITLE
 10
8.414128646203558
 20
15.438000000000001
 30
0.0
 11
8.414128646203558
 21
15.02
 31
0.0
  0
LINE
  5
D8E
  8
TITLE
 10
8.3521286462035462
 20
15.438000000000001
 30
0.0
 11
8.3521286462035462
 21
15.02
 31
0.0
  0
TEXT
  5
D8F
  8
TEXT
 10
8.4564710112353492
 20
15.06007919564008
 30
0.0
 40
0.125
  1
DATE
  7
TXT
 72
     1
 11
8.6856376779020152
 21
15.06007919564008
 31
0.0
  0
TEXT
  5
D90
  8
TEXT
 10
8.4773043445686813
 20
15.268412528973411
 30
0.0
 40
0.125
  1
REV.
  7
TXT
 72
     1
 11
8.6856376779020152
 21
15.268412528973411
 31
0.0
  0
TEXT
  5
D91
  8
TEXT
 10
0.6833401984899558
 20
15.06007919564008
 30
0.0
 40
0.125
  1
NAME
  7
TXT
 72
     1
 11
0.9125068651566223
 21
15.06007919564008
 31
0.0
  0
TEXT
  5
D92
  8
TEXT
 10
0.6833401984899558
 20
15.268412528973411
 30
0.0
 40
0.125
  1
PART
  7
TXT
 72
     1
 11
0.9125068651566223
 21
15.268412528973411
 31
0.0
  0
LINE
  5
D93
  8
TITLE
 10
1.183310283038842
 20
15.019999999999991
 30
0.0
 11
1.1833102830388389
 21
15.438000000000001
 31
0.0
  0
LINE
  5
D94
  8
TITLE
 10
5.0704999999999991
 20
15.438000000000001
 30
0.0
 11
5.0704999999999991
 21
15.019999999999991
 31
0.0
  0
LINE
  5
D95
  8
TITLE
 10
8.9581286462035532
 20
15.438000000000001
 30
0.0
 11
8.9581286462035532
 21
15.02
 31
0.0
  0
LINE
  5
D96
  8
TITLE
 10
0.1058316404171364
 20
15.091388086474639
 30
0.0
 11
0.1058316404171364
 21
15.35692284057391
 31
0.0
  0
ARC
  5
D97
  8
TITLE
 10
0.1913503079702643
 20
15.29385833647534
 30
0.0
 40
0.063064504098577
 50
270.0
 51
90.0
  0
LINE
  5
D98
  8
TITLE
 10
0.2907368675590263
 20
15.10798400860585
 30
0.0
 11
0.2907368675590263
 21
15.35692284057391
 31
0.0
  0
LINE
  5
D99
  8
TITLE
 10
0.3623876430765094
 20
15.13471192359016
 30
0.0
 11
0.3623876430765094
 21
15.35692284057391
 31
0.0
  0
LINE
  5
D9A
  8
TITLE
 10
0.3392744896837776
 20
15.13471192359016
 30
0.0
 11
0.3392744896837776
 21
15.35692284057391
 31
0.0
  0
LINE
  5
D9B
  8
TITLE
 10
0.4652358447541367
 20
15.091388086474639
 30
0.0
 11
0.4652358447541367
 21
15.35692284057391
 31
0.0
  0
ARC
  5
D9C
  8
TITLE
 10
0.4982653668098039
 20
15.263985676639169
 30
0.0
 40
0.0929371639347451
 50
0.0
 51
90.0
  0
LINE
  5
D9D
  8
TITLE
 10
0.4109252652012572
 20
15.10798400860585
 30
0.0
 11
0.4109252652012572
 21
15.35692284057391
 31
0.0
  0
LINE
  5
D9E
  8
TITLE
 10
0.3073327896902356
 20
15.091388086474639
 30
0.0
 11
0.3943293430700585
 21
15.091388086474639
 31
0.0
  0
LINE
  5
D9F
  8
TITLE
 10
0.1058316404171364
 20
15.091388086474639
 30
0.0
 11
0.1913503079702643
 21
15.091388086474639
 31
0.0
  0
LINE
  5
DA0
  8
TITLE
 10
0.1913503079702643
 20
15.2175170946718
 30
0.0
 11
0.1185438747831391
 21
15.2175170946718
 31
0.0
  0
LINE
  5
DA1
  8
TITLE
 10
0.1913503079702643
 20
15.23079383237676
 30
0.0
 11
0.1185438747831391
 21
15.23079383237676
 31
0.0
  0
LINE
  5
DA2
  8
TITLE
 10
0.1185438747831391
 20
15.23079383237676
 30
0.0
 11
0.1185438747831391
 21
15.22415546352428
 31
0.0
  0
LINE
  5
DA3
  8
TITLE
 10
0.1185438747831391
 20
15.2175170946718
 30
0.0
 11
0.1185438747831391
 21
15.22415546352428
 31
0.0
  0
ARC
  5
DA4
  8
TITLE
 10
0.1913503079702643
 20
15.15445259057322
 30
0.0
 40
0.063064504098577
 50
270.0
 51
90.0
  0
ARC
  5
DA5
  8
TITLE
 10
0.3073327896902356
 20
15.10798400860585
 30
0.0
 40
0.0165959221312045
 50
180.0
 51
270.0
  0
ARC
  5
DA6
  8
TITLE
 10
0.3491109053715498
 20
15.13471192359016
 30
0.0
 40
0.0132767377049636
 50
277.44428409771359
 51
0.0
  0
ARC
  5
DA7
  8
TITLE
 10
0.3525512273887479
 20
15.13471192359016
 30
0.0
 40
0.0132767377049636
 50
180.0
 51
262.55571590228629
  0
ARC
  5
DA8
  8
TITLE
 10
0.4982653668098039
 20
15.18432525040939
 30
0.0
 40
0.0929371639347451
 50
270.0
 51
0.0
  0
ARC
  5
DA9
  8
TITLE
 10
0.3943293430700585
 20
15.10798400860585
 30
0.0
 40
0.0165959221312045
 50
270.0
 51
0.0
  0
LINE
  5
DAA
  8
TITLE
 10
0.4652358447541367
 20
15.091388086474639
 30
0.0
 11
0.4982653668098039
 21
15.091388086474639
 31
0.0
  0
LINE
  5
DAB
  8
TITLE
 10
0.5912025307445532
 20
15.18432525040939
 30
0.0
 11
0.5912025307445532
 21
15.263985676639169
 31
0.0
  0
LINE
  5
DAC
  8
TITLE
 10
0.5423641529412322
 20
15.2175170946718
 30
0.0
 11
0.5423641529412322
 21
15.23079383237676
 31
0.0
  0
LINE
  5
DAD
  8
TITLE
 10
0.5010665634329392
 20
15.2175170946718
 30
0.0
 11
0.5010665634329392
 21
15.23079383237676
 31
0.0
  0
LINE
  5
DAE
  8
TITLE
 10
0.5423641529412322
 20
15.2175170946718
 30
0.0
 11
0.5010665634329392
 21
15.2175170946718
 31
0.0
  0
LINE
  5
DAF
  8
TITLE
 10
0.5423641529412322
 20
15.23079383237676
 30
0.0
 11
0.5010665634329392
 21
15.23079383237676
 31
0.0
  0
LINE
  5
DB0
  8
TITLE
 10
0.3623876430765094
 20
15.35692284057391
 30
0.0
 11
0.4109252652012572
 21
15.35692284057391
 31
0.0
  0
LINE
  5
DB1
  8
TITLE
 10
0.1058316404171364
 20
15.35692284057391
 30
0.0
 11
0.1913503079702643
 21
15.35692284057391
 31
0.0
  0
LINE
  5
DB2
  8
TITLE
 10
0.2907368675590263
 20
15.35692284057391
 30
0.0
 11
0.3392744896837776
 21
15.35692284057391
 31
0.0
  0
LINE
  5
DB3
  8
TITLE
 10
0.4652358447541367
 20
15.35692284057391
 30
0.0
 11
0.4982653668098039
 21
15.35692284057391
 31
0.0
  0
ENDBLK
  5
815
  8
0
  0
BLOCK
  8
0
  2
*D1
 70
     1
 10
0.0
 20
0.0
 30
0.0
  3
*D1
  1

  0
LINE
  5
EEF
  8
DIM
 62
     0
 10
2.7583059230517351
 20
3.6818213311259509
 30
0.0
 11
2.7583059230517351
 21
4.2791174824766118
 31
0.0
  0
LINE
  5
EF0
  8
DIM
 62
     0
 10
5.2583059230517311
 20
3.6818213311259509
 30
0.0
 11
5.2583059230517311
 21
4.2791174824766118
 31
0.0
  0
LINE
  5
EF1
  8
DIM
 62
     0
 10
2.9383059230517352
 20
4.1861174824766119
 30
0.0
 11
3.8870559230517321
 21
4.1861174824766119
 31
0.0
  0
LINE
  5
EF2
  8
DIM
 62
     0
 10
5.0783059230517313
 20
4.1861174824766119
 30
0.0
 11
4.1295559230517318
 21
4.1861174824766119
 31
0.0
  0
SOLID
  5
EF3
  8
DIM
 62
     0
 10
2.9383059230517352
 20
4.2161174824766121
 30
0.0
 11
2.9383059230517352
 21
4.1561174824766116
 31
0.0
 12
2.7583059230517351
 22
4.1861174824766119
 32
0.0
 13
2.7583059230517351
 23
4.1861174824766119
 33
0.0
  0
SOLID
  5
EF4
  8
DIM
 62
     0
 10
5.0783059230517313
 20
4.2161174824766121
 30
0.0
 11
5.0783059230517313
 21
4.1561174824766116
 31
0.0
 12
5.2583059230517311
 22
4.1861174824766119
 32
0.0
 13
5.2583059230517311
 23
4.1861174824766119
 33
0.0
  0
TEXT
  5
EF5
  8
TEXT
 62
     0
 10
3.9770559230517319
 20
4.1236174824766119
 30
0.0
 40
0.125
  1
F
 41
0.75
  7
TXT
  0
POINT
  5
EF6
  8
DEFPOINTS
 62
     0
 10
2.7583059230517351
 20
3.6188213311259512
 30
0.0
  0
POINT
  5
EF7
  8
DEFPOINTS
 62
     0
 10
5.2583059230517311
 20
3.6188213311259512
 30
0.0
  0
POINT
  5
EF8
  8
DEFPOINTS
 62
     0
 10
5.2583059230517311
 20
4.1861174824766119
 30
0.0
  0
ENDBLK
  5
A25
  8
0
  0
BLOCK
  8
0
  2
*D2
 70
     1
 10
0.0
 20
0.0
 30
0.0
  3
*D2
  1

  0
LINE
  5
EF9
  8
DIM
 62
     0
 10
2.7583059230517351
 20
3.6818213311259509
 30
0.0
 11
2.7583059230517351
 21
3.9976305446069911
 31
0.0
  0
LINE
  5
EFA
  8
DIM
 62
     0
 10
2.858305923051736
 20
3.6818213311259509
 30
0.0
 11
2.858305923051736
 21
3.9976305446069911
 31
0.0
  0
LINE
  5
EFB
  8
DIM
 62
     0
 10
2.578305923051734
 20
3.9046305446069911
 30
0.0
 11
2.3983059230517352
 21
3.9046305446069911
 31
0.0
  0
LINE
  5
EFC
  8
DIM
 62
     0
 10
3.0383059230517362
 20
3.9046305446069911
 30
0.0
 11
3.2183059230517359
 21
3.9046305446069911
 31
0.0
  0
SOLID
  5
EFD
  8
DIM
 62
     0
 10
2.578305923051734
 20
3.9346305446069909
 30
0.0
 11
2.578305923051734
 21
3.8746305446069909
 31
0.0
 12
2.7583059230517351
 22
3.9046305446069911
 32
0.0
 13
2.7583059230517351
 23
3.9046305446069911
 33
0.0
  0
SOLID
  5
EFE
  8
DIM
 62
     0
 10
3.0383059230517362
 20
3.9346305446069909
 30
0.0
 11
3.0383059230517362
 21
3.8746305446069909
 31
0.0
 12
2.858305923051736
 22
3.9046305446069911
 32
0.0
 13
2.858305923051736
 23
3.9046305446069911
 33
0.0
  0
TEXT
  5
EFF
  8
TEXT
 62
     0
 10
3.3083059230517362
 20
3.8421305446069911
 30
0.0
 40
0.125
  1
0.100
 41
0.75
  7
TXT
  0
POINT
  5
F00
  8
DEFPOINTS
 62
     0
 10
2.7583059230517351
 20
3.6188213311259512
 30
0.0
  0
POINT
  5
F01
  8
DEFPOINTS
 62
     0
 10
2.858305923051736
 20
3.6188213311259512
 30
0.0
  0
POINT
  5
F02
  8
DEFPOINTS
 62
     0
 10
2.858305923051736
 20
3.9046305446069911
 30
0.0
  0
ENDBLK
  5
A33
  8
0
  0
BLOCK
  8
0
  2
*D3
 70
     1
 10
0.0
 20
0.0
 30
0.0
  3
*D3
  1

  0
LINE
  5
F03
  8
DIM
 62
     0
 10
3.084305923051732
 20
7.4277176241956839
 30
0.0
 11
3.084305923051732
 21
8.3789440195440577
 31
0.0
  0
LINE
  5
F04
  8
DIM
 62
     0
 10
4.9323059230517314
 20
7.4277176241956839
 30
0.0
 11
4.9323059230517314
 21
8.3789440195440577
 31
0.0
  0
LINE
  5
F05
  8
DIM
 62
     0
 10
3.2643059230517322
 20
8.2859440195440577
 30
0.0
 11
3.8870559230517321
 21
8.2859440195440577
 31
0.0
  0
LINE
  5
F06
  8
DIM
 62
     0
 10
4.7523059230517308
 20
8.2859440195440577
 30
0.0
 11
4.1295559230517309
 21
8.2859440195440577
 31
0.0
  0
SOLID
  5
F07
  8
DIM
 62
     0
 10
3.2643059230517322
 20
8.315944019544057
 30
0.0
 11
3.2643059230517322
 21
8.2559440195440583
 31
0.0
 12
3.084305923051732
 22
8.2859440195440577
 32
0.0
 13
3.084305923051732
 23
8.2859440195440577
 33
0.0
  0
SOLID
  5
F08
  8
DIM
 62
     0
 10
4.7523059230517308
 20
8.315944019544057
 30
0.0
 11
4.7523059230517308
 21
8.2559440195440583
 31
0.0
 12
4.9323059230517314
 22
8.2859440195440577
 32
0.0
 13
4.9323059230517314
 23
8.2859440195440577
 33
0.0
  0
TEXT
  5
F09
  8
TEXT
 62
     0
 10
3.9770559230517311
 20
8.2234440195440577
 30
0.0
 40
0.125
  1
C
 41
0.75
  7
TXT
  0
POINT
  5
F0A
  8
DEFPOINTS
 62
     0
 10
3.084305923051732
 20
7.3647176241956851
 30
0.0
  0
POINT
  5
F0B
  8
DEFPOINTS
 62
     0
 10
4.9323059230517314
 20
7.3647176241956851
 30
0.0
  0
POINT
  5
F0C
  8
DEFPOINTS
 62
     0
 10
4.9323059230517314
 20
8.2859440195440577
 30
0.0
  0
ENDBLK
  5
A41
  8
0
  0
BLOCK
  8
0
  2
*D4
 70
     1
 10
0.0
 20
0.0
 30
0.0
  3
*D4
  1

  0
LINE
  5
F0D
  8
DIM
 62
     0
 10
5.5083059230517293
 20
6.5037176241956827
 30
0.0
 11
5.5083059230517293
 21
8.6438412000583575
 31
0.0
  0
LINE
  5
F0E
  8
DIM
 62
     0
 10
2.5083059230517319
 20
6.5037176241956827
 30
0.0
 11
2.5083059230517319
 21
8.6438412000583575
 31
0.0
  0
LINE
  5
F0F
  8
DIM
 62
     0
 10
5.3283059230517287
 20
8.5508412000583576
 30
0.0
 11
4.12955592305173
 21
8.5508412000583576
 31
0.0
  0
LINE
  5
F10
  8
DIM
 62
     0
 10
2.6883059230517321
 20
8.5508412000583576
 30
0.0
 11
3.8870559230517312
 21
8.5508412000583576
 31
0.0
  0
SOLID
  5
F11
  8
DIM
 62
     0
 10
5.3283059230517287
 20
8.5808412000583552
 30
0.0
 11
5.3283059230517287
 21
8.5208412000583582
 31
0.0
 12
5.5083059230517293
 22
8.5508412000583576
 32
0.0
 13
5.5083059230517293
 23
8.5508412000583576
 33
0.0
  0
SOLID
  5
F12
  8
DIM
 62
     0
 10
2.6883059230517321
 20
8.5808412000583552
 30
0.0
 11
2.6883059230517321
 21
8.5208412000583582
 31
0.0
 12
2.5083059230517319
 22
8.5508412000583576
 32
0.0
 13
2.5083059230517319
 23
8.5508412000583576
 33
0.0
  0
TEXT
  5
F13
  8
TEXT
 62
     0
 10
3.9770559230517311
 20
8.4883412000583576
 30
0.0
 40
0.125
  1
B
 41
0.75
  7
TXT
  0
POINT
  5
F14
  8
DEFPOINTS
 62
     0
 10
5.5083059230517293
 20
6.4407176241956829
 30
0.0
  0
POINT
  5
F15
  8
DEFPOINTS
 62
     0
 10
2.5083059230517319
 20
6.4407176241956829
 30
0.0
  0
POINT
  5
F16
  8
DEFPOINTS
 62
     0
 10
2.5083059230517319
 20
8.5508412000583576
 30
0.0
  0
ENDBLK
  5
A4F
  8
0
  0
BLOCK
  8
0
  2
*D5
 70
     1
 10
0.0
 20
0.0
 30
0.0
  3
*D5
  1

  0
LINE
  5
F17
  8
DIM
 62
     0
 10
2.2583059230517262
 20
6.9987270704961686
 30
0.0
 11
2.2583059230517262
 21
8.8974202423266622
 31
0.0
  0
LINE
  5
F18
  8
DIM
 62
     0
 10
5.7583059230517444
 20
6.9987270704961659
 30
0.0
 11
5.7583059230517444
 21
8.8974202423266622
 31
0.0
  0
LINE
  5
F19
  8
DIM
 62
     0
 10
2.4383059230517259
 20
8.8044202423266622
 30
0.0
 11
3.8870559230517352
 21
8.8044202423266622
 31
0.0
  0
LINE
  5
F1A
  8
DIM
 62
     0
 10
5.5783059230517438
 20
8.8044202423266622
 30
0.0
 11
4.1295559230517354
 21
8.8044202423266622
 31
0.0
  0
SOLID
  5
F1B
  8
DIM
 62
     0
 10
2.4383059230517259
 20
8.8344202423266616
 30
0.0
 11
2.4383059230517259
 21
8.7744202423266628
 31
0.0
 12
2.2583059230517262
 22
8.8044202423266622
 32
0.0
 13
2.2583059230517262
 23
8.8044202423266622
 33
0.0
  0
SOLID
  5
F1C
  8
DIM
 62
     0
 10
5.5783059230517438
 20
8.8344202423266616
 30
0.0
 11
5.5783059230517438
 21
8.7744202423266628
 31
0.0
 12
5.7583059230517444
 22
8.8044202423266622
 32
0.0
 13
5.7583059230517444
 23
8.8044202423266622
 33
0.0
  0
TEXT
  5
F1D
  8
TEXT
 62
     0
 10
3.9770559230517351
 20
8.7419202423266622
 30
0.0
 40
0.125
  1
A
 41
0.75
  7
TXT
  0
POINT
  5
F1E
  8
DEFPOINTS
 62
     0
 10
2.2583059230517262
 20
6.9357270704961689
 30
0.0
  0
POINT
  5
F1F
  8
DEFPOINTS
 62
     0
 10
5.7583059230517444
 20
6.9357270704961671
 30
0.0
  0
POINT
  5
F20
  8
DEFPOINTS
 62
     0
 10
5.7583059230517444
 20
8.8044202423266622
 30
0.0
  0
ENDBLK
  5
A5D
  8
0
  0
BLOCK
  8
0
  2
*D6
 70
     1
 10
0.0
 20
0.0
 30
0.0
  3
*D6
  1

  0
LINE
  5
F21
  8
DIM
 62
     0
 10
2.5083059230517319
 20
6.5037176241956827
 30
0.0
 11
2.5083059230517319
 21
8.6438412000583575
 31
0.0
  0
LINE
  5
F22
  8
DIM
 62
     0
 10
2.2583059230517262
 20
6.9987270704961686
 30
0.0
 11
2.2583059230517262
 21
8.6438412000583575
 31
0.0
  0
LINE
  5
F23
  8
DIM
 62
     0
 10
2.6883059230517321
 20
8.5508412000583576
 30
0.0
 11
2.8683059230517318
 21
8.5508412000583576
 31
0.0
  0
LINE
  5
F24
  8
DIM
 62
     0
 10
2.078305923051726
 20
8.5508412000583576
 30
0.0
 11
1.8983059230517261
 21
8.5508412000583576
 31
0.0
  0
SOLID
  5
F25
  8
DIM
 62
     0
 10
2.6883059230517321
 20
8.5808412000583552
 30
0.0
 11
2.6883059230517321
 21
8.5208412000583582
 31
0.0
 12
2.5083059230517319
 22
8.5508412000583576
 32
0.0
 13
2.5083059230517319
 23
8.5508412000583576
 33
0.0
  0
SOLID
  5
F26
  8
DIM
 62
     0
 10
2.078305923051726
 20
8.5808412000583552
 30
0.0
 11
2.078305923051726
 21
8.5208412000583582
 31
0.0
 12
2.2583059230517262
 22
8.5508412000583576
 32
0.0
 13
2.2583059230517262
 23
8.5508412000583576
 33
0.0
  0
TEXT
  5
F27
  8
TEXT
 62
     0
 10
1.464555923051726
 20
8.4883412000583576
 30
0.0
 40
0.125
  1
0.250
 41
0.75
  7
TXT
  0
POINT
  5
F28
  8
DEFPOINTS
 62
     0
 10
2.5083059230517319
 20
6.4407176241956829
 30
0.0
  0
POINT
  5
F29
  8
DEFPOINTS
 62
     0
 10
2.2583059230517262
 20
6.9357270704961689
 30
0.0
  0
POINT
  5
F2A
  8
DEFPOINTS
 62
     0
 10
2.2583059230517262
 20
8.5508412000583576
 30
0.0
  0
ENDBLK
  5
A6B
  8
0
  0
BLOCK
  8
0
  2
*D7
 70
     1
 10
0.0
 20
0.0
 30
0.0
  3
*D7
  1

  0
LINE
  5
F2B
  8
DIM
 62
     0
 10
4.9953059230517312
 20
7.3647176241956851
 30
0.0
 11
6.6010009829034111
 21
7.3647176241956842
 31
0.0
  0
LINE
  5
F2C
  8
DIM
 62
     0
 10
4.9953059230517312
 20
5.5167176241956808
 30
0.0
 11
6.6010009829034111
 21
5.5167176241956799
 31
0.0
  0
LINE
  5
F2D
  8
DIM
 62
     0
 10
6.508000982903412
 20
7.1847176241956836
 30
0.0
 11
6.508000982903412
 21
6.5932176241956819
 31
0.0
  0
LINE
  5
F2E
  8
DIM
 62
     0
 10
6.5080009829034111
 20
5.6967176241956796
 30
0.0
 11
6.508000982903412
 21
6.2882176241956831
 31
0.0
  0
SOLID
  5
F2F
  8
DIM
 62
     0
 10
6.4780009829034109
 20
7.1847176241956836
 30
0.0
 11
6.5380009829034123
 21
7.1847176241956836
 31
0.0
 12
6.508000982903412
 22
7.3647176241956842
 32
0.0
 13
6.508000982903412
 23
7.3647176241956842
 33
0.0
  0
SOLID
  5
F30
  8
DIM
 62
     0
 10
6.47800098290341
 20
5.6967176241956796
 30
0.0
 11
6.5380009829034114
 21
5.6967176241956796
 31
0.0
 12
6.5080009829034111
 22
5.5167176241956799
 32
0.0
 13
6.5080009829034111
 23
5.5167176241956799
 33
0.0
  0
TEXT
  5
F31
  8
TEXT
 62
     0
 10
6.4767509829034102
 20
6.3782176241956838
 30
0.0
 40
0.125
  1
K
 41
0.75
  7
TXT
  0
POINT
  5
F32
  8
DEFPOINTS
 62
     0
 10
4.9323059230517314
 20
7.3647176241956851
 30
0.0
  0
POINT
  5
F33
  8
DEFPOINTS
 62
     0
 10
4.9323059230517314
 20
5.5167176241956808
 30
0.0
  0
POINT
  5
F34
  8
DEFPOINTS
 62
     0
 10
6.5080009829034111
 20
5.5167176241956799
 30
0.0
  0
ENDBLK
  5
A79
  8
0
  0
BLOCK
  8
0
  2
*D8
 70
     1
 10
0.0
 20
0.0
 30
0.0
  3
*D8
  1

  0
LINE
  5
F35
  8
DIM
 62
     0
 10
7.281733043996498
 20
5.1907176241956838
 30
0.0
 11
6.876549681621368
 21
5.1907176241956838
 31
0.0
  0
LINE
  5
F36
  8
DIM
 62
     0
 10
7.281733043996498
 20
7.6907176241956883
 30
0.0
 11
6.876549681621368
 21
7.6907176241956883
 31
0.0
  0
LINE
  5
F37
  8
DIM
 62
     0
 10
6.969549681621368
 20
5.3707176241956844
 30
0.0
 11
6.969549681621368
 21
6.2882176241956858
 31
0.0
  0
LINE
  5
F38
  8
DIM
 62
     0
 10
6.969549681621368
 20
7.5107176241956877
 30
0.0
 11
6.969549681621368
 21
6.5932176241956864
 31
0.0
  0
SOLID
  5
F39
  8
DIM
 62
     0
 10
6.9395496816213669
 20
5.3707176241956844
 30
0.0
 11
6.9995496816213683
 21
5.3707176241956844
 31
0.0
 12
6.969549681621368
 22
5.1907176241956838
 32
0.0
 13
6.969549681621368
 23
5.1907176241956838
 33
0.0
  0
SOLID
  5
F3A
  8
DIM
 62
     0
 10
6.9395496816213678
 20
7.5107176241956877
 30
0.0
 11
6.9995496816213691
 21
7.5107176241956877
 31
0.0
 12
6.969549681621368
 22
7.6907176241956883
 32
0.0
 13
6.969549681621368
 23
7.6907176241956883
 33
0.0
  0
TEXT
  5
F3B
  8
TEXT
 62
     0
 10
6.9382996816213671
 20
6.3782176241956883
 30
0.0
 40
0.125
  1
H
 41
0.75
  7
TXT
  0
POINT
  5
F3C
  8
DEFPOINTS
 62
     0
 10
7.3447330439964968
 20
5.1907176241956838
 30
0.0
  0
POINT
  5
F3D
  8
DEFPOINTS
 62
     0
 10
7.3447330439964968
 20
7.6907176241956883
 30
0.0
  0
POINT
  5
F3E
  8
DEFPOINTS
 62
     0
 10
6.969549681621368
 20
7.6907176241956883
 30
0.0
  0
ENDBLK
  5
A87
  8
0
  0
BLOCK
  8
0
  2
*D9
 70
     1
 10
0.0
 20
0.0
 30
0.0
  3
*D9
  1

  0
LINE
  5
F3F
  8
DIM
 62
     0
 10
8.1447330439965064
 20
7.6160054824346304
 30
0.0
 11
8.1447330439965064
 21
8.096213284378031
 31
0.0
  0
LINE
  5
F40
  8
DIM
 62
     0
 10
8.2447330439964972
 20
7.6489688643504437
 30
0.0
 11
8.2447330439964972
 21
8.096213284378031
 31
0.0
  0
LINE
  5
F41
  8
DIM
 62
     0
 10
7.9647330439965058
 20
8.003213284378031
 30
0.0
 11
7.7847330439965061
 21
8.003213284378031
 31
0.0
  0
LINE
  5
F42
  8
DIM
 62
     0
 10
8.4247330439964987
 20
8.003213284378031
 30
0.0
 11
8.6047330439964984
 21
8.003213284378031
 31
0.0
  0
SOLID
  5
F43
  8
DIM
 62
     0
 10
7.9647330439965058
 20
8.0332132843780304
 30
0.0
 11
7.9647330439965058
 21
7.9732132843780299
 31
0.0
 12
8.1447330439965064
 22
8.003213284378031
 32
0.0
 13
8.1447330439965064
 23
8.003213284378031
 33
0.0
  0
SOLID
  5
F44
  8
DIM
 62
     0
 10
8.4247330439964987
 20
8.0332132843780304
 30
0.0
 11
8.4247330439964987
 21
7.9732132843780299
 31
0.0
 12
8.2447330439964972
 22
8.003213284378031
 32
0.0
 13
8.2447330439964972
 23
8.003213284378031
 33
0.0
  0
TEXT
  5
F45
  8
TEXT
 62
     0
 10
8.6947330439964983
 20
7.940713284378031
 30
0.0
 40
0.125
  1
0.100
 41
0.75
  7
TXT
  0
POINT
  5
F46
  8
DEFPOINTS
 62
     0
 10
8.1447330439965064
 20
7.5530054824346298
 30
0.0
  0
POINT
  5
F47
  8
DEFPOINTS
 62
     0
 10
8.2447330439964972
 20
7.5859688643504439
 30
0.0
  0
POINT
  5
F48
  8
DEFPOINTS
 62
     0
 10
8.2447330439964972
 20
8.003213284378031
 30
0.0
  0
ENDBLK
  5
A95
  8
0
  0
BLOCK
  8
0
  2
*D10
 70
     1
 10
0.0
 20
0.0
 30
0.0
  3
*D10
  1

  0
LINE
  5
F49
  8
DIM
 62
     0
 10
8.1827330439964996
 20
7.7109688643504439
 30
0.0
 11
8.6912161407309441
 21
7.7109688643504439
 31
0.0
  0
LINE
  5
F4A
  8
DIM
 62
     0
 10
8.1827330439964996
 20
5.1704663840409291
 30
0.0
 11
8.6912161407309441
 21
5.1704663840409291
 31
0.0
  0
LINE
  5
F4B
  8
DIM
 62
     0
 10
8.5982161407309441
 20
7.5309688643504451
 30
0.0
 11
8.5982161407309441
 21
6.5932176241956864
 31
0.0
  0
LINE
  5
F4C
  8
DIM
 62
     0
 10
8.5982161407309441
 20
5.3504663840409279
 30
0.0
 11
8.5982161407309441
 21
6.2882176241956858
 31
0.0
  0
SOLID
  5
F4D
  8
DIM
 62
     0
 10
8.5682161407309447
 20
7.5309688643504451
 30
0.0
 11
8.6282161407309435
 21
7.5309688643504451
 31
0.0
 12
8.5982161407309441
 22
7.7109688643504439
 32
0.0
 13
8.5982161407309441
 23
7.7109688643504439
 33
0.0
  0
SOLID
  5
F4E
  8
DIM
 62
     0
 10
8.5682161407309447
 20
5.3504663840409279
 30
0.0
 11
8.6282161407309435
 21
5.3504663840409279
 31
0.0
 12
8.5982161407309441
 22
5.1704663840409291
 32
0.0
 13
8.5982161407309441
 23
5.1704663840409291
 33
0.0
  0
TEXT
  5
F4F
  8
TEXT
 62
     0
 10
8.5669661407309423
 20
6.3782176241956874
 30
0.0
 40
0.125
  1
J
 41
0.75
  7
TXT
  0
POINT
  5
F50
  8
DEFPOINTS
 62
     0
 10
8.1197330439964972
 20
7.7109688643504439
 30
0.0
  0
POINT
  5
F51
  8
DEFPOINTS
 62
     0
 10
8.1197330439964972
 20
5.1704663840409291
 30
0.0
  0
POINT
  5
F52
  8
DEFPOINTS
 62
     0
 10
8.5982161407309441
 20
5.1704663840409291
 30
0.0
  0
ENDBLK
  5
AA3
  8
0
  0
BLOCK
  8
0
  2
*D11
 70
     1
 10
0.0
 20
0.0
 30
0.0
  3
*D11
  1

  0
LINE
  5
F53
  8
DIM
 62
     0
 10
3.477805923051732
 20
3.0488213311259491
 30
0.0
 11
3.862212177924599
 21
3.0488213311259491
 31
0.0
  0
LINE
  5
F54
  8
DIM
 62
     0
 10
3.7805343602798169
 20
2.8188213311259491
 30
0.0
 11
3.862212177924599
 21
2.8188213311259491
 31
0.0
  0
LINE
  5
F55
  8
DIM
 62
     0
 10
3.7692121779245991
 20
3.2288213311259502
 30
0.0
 11
3.7692121779245991
 21
3.408821331125949
 31
0.0
  0
LINE
  5
F56
  8
DIM
 62
     0
 10
3.7692121779245991
 20
2.638821331125949
 30
0.0
 11
3.7692121779245991
 21
2.4588213311259501
 31
0.0
  0
LINE
  5
F57
  8
DIM
 62
     0
 10
3.7692121779245991
 20
2.4588213311259501
 30
0.0
 11
3.589212177924598
 21
2.4588213311259501
 31
0.0
  0
SOLID
  5
F58
  8
DIM
 62
     0
 10
3.7392121779245988
 20
3.2288213311259502
 30
0.0
 11
3.7992121779245989
 21
3.2288213311259502
 31
0.0
 12
3.7692121779245991
 22
3.0488213311259491
 32
0.0
 13
3.7692121779245991
 23
3.0488213311259491
 33
0.0
  0
SOLID
  5
F59
  8
DIM
 62
     0
 10
3.7392121779245988
 20
2.638821331125949
 30
0.0
 11
3.799212177924598
 21
2.638821331125949
 31
0.0
 12
3.7692121779245991
 22
2.8188213311259491
 32
0.0
 13
3.7692121779245991
 23
2.8188213311259491
 33
0.0
  0
TEXT
  5
F5A
  8
TEXT
 62
     0
 10
3.1554621779245982
 20
2.396321331125951
 30
0.0
 40
0.125
  1
0.230
 41
0.75
  7
TXT
  0
POINT
  5
F5B
  8
DEFPOINTS
 62
     0
 10
3.4148059230517318
 20
3.0488213311259491
 30
0.0
  0
POINT
  5
F5C
  8
DEFPOINTS
 62
     0
 10
3.7175343602798172
 20
2.8188213311259491
 30
0.0
  0
POINT
  5
F5D
  8
DEFPOINTS
 62
     0
 10
3.7692121779245991
 20
2.8188213311259491
 30
0.0
  0
ENDBLK
  5
AB1
  8
0
  0
BLOCK
  8
0
  2
*D12
 70
     1
 10
0.0
 20
0.0
 30
0.0
  3
*D12
  1

  0
LINE
  5
F5E
  8
DIM
 62
     0
 10
4.3196613960117904
 20
2.8188213311259491
 30
0.0
 11
4.2299702700375521
 21
2.8188213311259491
 31
0.0
  0
LINE
  5
F5F
  8
DIM
 62
     0
 10
4.77630592305173
 20
3.553821331125949
 30
0.0
 11
4.2299702700375521
 21
3.553821331125949
 31
0.0
  0
LINE
  5
F60
  8
DIM
 62
     0
 10
4.3229702700375521
 20
2.638821331125949
 30
0.0
 11
4.3229702700375521
 21
2.4588213311259501
 31
0.0
  0
LINE
  5
F61
  8
DIM
 62
     0
 10
4.3229702700375521
 20
3.7338213311259492
 30
0.0
 11
4.3229702700375521
 21
3.913821331125948
 31
0.0
  0
SOLID
  5
F62
  8
DIM
 62
     0
 10
4.2929702700375509
 20
2.638821331125949
 30
0.0
 11
4.3529702700375523
 21
2.638821331125949
 31
0.0
 12
4.3229702700375521
 22
2.8188213311259491
 32
0.0
 13
4.3229702700375521
 23
2.8188213311259491
 33
0.0
  0
SOLID
  5
F63
  8
DIM
 62
     0
 10
4.2929702700375509
 20
3.7338213311259492
 30
0.0
 11
4.3529702700375523
 21
3.7338213311259492
 31
0.0
 12
4.3229702700375521
 22
3.553821331125949
 32
0.0
 13
4.3229702700375521
 23
3.553821331125949
 33
0.0
  0
TEXT
  5
F64
  8
TEXT
 62
     0
 10
4.2917202700375512
 20
3.1238213311259488
 30
0.0
 40
0.125
  1
P
 41
0.75
  7
TXT
  0
POINT
  5
F65
  8
DEFPOINTS
 62
     0
 10
4.3826613960117902
 20
2.8188213311259491
 30
0.0
  0
POINT
  5
F66
  8
DEFPOINTS
 62
     0
 10
4.8393059230517297
 20
3.553821331125949
 30
0.0
  0
POINT
  5
F67
  8
DEFPOINTS
 62
     0
 10
4.3229702700375521
 20
3.553821331125949
 30
0.0
  0
ENDBLK
  5
ABE
  8
0
  0
BLOCK
  8
0
  2
*D13
 70
     1
 10
0.0
 20
0.0
 30
0.0
  3
*D13
  1

  0
LINE
  5
F68
  8
DIM
 62
     0
 10
5.0883059230517311
 20
3.553821331125949
 30
0.0
 11
6.5934505263908978
 21
3.553821331125949
 31
0.0
  0
LINE
  5
F69
  8
DIM
 62
     0
 10
5.3213059230517299
 20
3.6188213311259512
 30
0.0
 11
6.5934505263908978
 21
3.6188213311259512
 31
0.0
  0
LINE
  5
F6A
  8
DIM
 62
     0
 10
6.5004505263908978
 20
3.373821331125948
 30
0.0
 11
6.5004505263908978
 21
3.1938213311259491
 31
0.0
  0
LINE
  5
F6B
  8
DIM
 62
     0
 10
6.5004505263908978
 20
3.7988213311259509
 30
0.0
 11
6.5004505263908978
 21
3.978821331125951
 31
0.0
  0
LINE
  5
F6C
  8
DIM
 62
     0
 10
6.5004505263908978
 20
3.978821331125951
 30
0.0
 11
6.6804505263908984
 21
3.978821331125951
 31
0.0
  0
SOLID
  5
F6D
  8
DIM
 62
     0
 10
6.4704505263908976
 20
3.373821331125948
 30
0.0
 11
6.5304505263908981
 21
3.373821331125948
 31
0.0
 12
6.5004505263908978
 22
3.553821331125949
 32
0.0
 13
6.5004505263908978
 23
3.553821331125949
 33
0.0
  0
SOLID
  5
F6E
  8
DIM
 62
     0
 10
6.4704505263908976
 20
3.7988213311259509
 30
0.0
 11
6.5304505263908981
 21
3.7988213311259509
 31
0.0
 12
6.5004505263908978
 22
3.6188213311259512
 32
0.0
 13
6.5004505263908978
 23
3.6188213311259512
 33
0.0
  0
TEXT
  5
F6F
  8
TEXT
 62
     0
 10
6.7704505263908974
 20
3.916321331125951
 30
0.0
 40
0.125
  1
0.062
 41
0.75
  7
TXT
  0
POINT
  5
F70
  8
DEFPOINTS
 62
     0
 10
5.0253059230517314
 20
3.553821331125949
 30
0.0
  0
POINT
  5
F71
  8
DEFPOINTS
 62
     0
 10
5.2583059230517311
 20
3.6188213311259512
 30
0.0
  0
POINT
  5
F72
  8
DEFPOINTS
 62
     0
 10
6.5004505263908978
 20
3.6188213311259512
 30
0.0
  0
ENDBLK
  5
ACC
  8
0
  0
BLOCK
  8
0
  2
*D14
 70
     1
 10
0.0
 20
0.0
 30
0.0
  3
*D14
  1

  0
LINE
  5
F73
  8
DIM
 62
     0
 10
5.8213059230517361
 20
2.8438213311259521
 30
0.0
 11
6.237214512515564
 21
2.8438213311259521
 31
0.0
  0
LINE
  5
F74
  8
DIM
 62
     0
 10
5.696305923051729
 20
2.718821331125949
 30
0.0
 11
6.237214512515564
 21
2.718821331125949
 31
0.0
  0
LINE
  5
F75
  8
DIM
 62
     0
 10
6.1442145125155641
 20
3.0238213311259519
 30
0.0
 11
6.1442145125155641
 21
3.203821331125952
 31
0.0
  0
LINE
  5
F76
  8
DIM
 62
     0
 10
6.1442145125155641
 20
2.538821331125948
 30
0.0
 11
6.1442145125155641
 21
2.3588213311259492
 31
0.0
  0
LINE
  5
F77
  8
DIM
 62
     0
 10
6.1442145125155641
 20
2.3588213311259492
 30
0.0
 11
5.9642145125155643
 21
2.3588213311259492
 31
0.0
  0
SOLID
  5
F78
  8
DIM
 62
     0
 10
6.1142145125155629
 20
3.0238213311259519
 30
0.0
 11
6.1742145125155643
 21
3.0238213311259519
 31
0.0
 12
6.1442145125155641
 22
2.8438213311259521
 32
0.0
 13
6.1442145125155641
 23
2.8438213311259521
 33
0.0
  0
SOLID
  5
F79
  8
DIM
 62
     0
 10
6.1142145125155629
 20
2.538821331125948
 30
0.0
 11
6.1742145125155643
 21
2.538821331125948
 31
0.0
 12
6.1442145125155641
 22
2.718821331125949
 32
0.0
 13
6.1442145125155641
 23
2.718821331125949
 33
0.0
  0
TEXT
  5
F7A
  8
TEXT
 62
     0
 10
5.5460895125155627
 20
2.29632133112595
 30
0.0
 40
0.125
  1
0.125
 41
0.75
  7
TXT
  0
POINT
  5
F7B
  8
DEFPOINTS
 62
     0
 10
5.7583059230517364
 20
2.8438213311259521
 30
0.0
  0
POINT
  5
F7C
  8
DEFPOINTS
 62
     0
 10
5.6333059230517293
 20
2.718821331125949
 30
0.0
  0
POINT
  5
F7D
  8
DEFPOINTS
 62
     0
 10
6.1442145125155641
 20
2.718821331125949
 30
0.0
  0
ENDBLK
  5
B1B
  8
0
  0
BLOCK
  8
0
  2
*D15
 70
     1
 10
0.0
 20
0.0
 30
0.0
  3
*D15
  1

  0
LINE
  5
F7E
  8
DIM
 62
     0
 10
2.695305923051734
 20
3.6188213311259512
 30
0.0
 11
1.8457870608635989
 21
3.6188213311259512
 31
0.0
  0
LINE
  5
F7F
  8
DIM
 62
     0
 10
2.32030592305173
 20
2.718821331125949
 30
0.0
 11
1.8457870608635989
 21
2.718821331125949
 31
0.0
  0
LINE
  5
F80
  8
DIM
 62
     0
 10
1.9387870608635991
 20
3.438821331125951
 30
0.0
 11
1.9387870608635991
 21
3.3213213311259491
 31
0.0
  0
LINE
  5
F81
  8
DIM
 62
     0
 10
1.9387870608635991
 20
2.8988213311259492
 30
0.0
 11
1.9387870608635991
 21
3.0163213311259498
 31
0.0
  0
SOLID
  5
F82
  8
DIM
 62
     0
 10
1.9087870608635991
 20
3.438821331125951
 30
0.0
 11
1.9687870608635989
 21
3.438821331125951
 31
0.0
 12
1.9387870608635991
 22
3.6188213311259512
 32
0.0
 13
1.9387870608635991
 23
3.6188213311259512
 33
0.0
  0
SOLID
  5
F83
  8
DIM
 62
     0
 10
1.9087870608635991
 20
2.8988213311259492
 30
0.0
 11
1.9687870608635989
 21
2.8988213311259492
 31
0.0
 12
1.9387870608635991
 22
2.718821331125949
 32
0.0
 13
1.9387870608635991
 23
2.718821331125949
 33
0.0
  0
TEXT
  5
F84
  8
TEXT
 62
     0
 10
1.907537060863598
 20
3.1063213311259501
 30
0.0
 40
0.125
  1
N
 41
0.75
  7
TXT
  0
POINT
  5
F85
  8
DEFPOINTS
 62
     0
 10
2.7583059230517351
 20
3.6188213311259512
 30
0.0
  0
POINT
  5
F86
  8
DEFPOINTS
 62
     0
 10
2.3833059230517311
 20
2.718821331125949
 30
0.0
  0
POINT
  5
F87
  8
DEFPOINTS
 62
     0
 10
1.9387870608635991
 20
2.718821331125949
 30
0.0
  0
ENDBLK
  5
B29
  8
0
  0
BLOCK
  8
0
  2
*D16
 70
     1
 10
0.0
 20
0.0
 30
0.0
  3
*D16
  1

  0
LINE
  5
F88
  8
DIM
 62
     0
 10
5.2785571632064894
 20
2.780821331125948
 30
0.0
 11
5.2785571632064894
 21
2.245313570114563
 31
0.0
  0
LINE
  5
F89
  8
DIM
 62
     0
 10
2.738054682896975
 20
2.7808213311259511
 30
0.0
 11
2.738054682896975
 21
2.245313570114563
 31
0.0
  0
LINE
  5
F8A
  8
DIM
 62
     0
 10
5.0985571632064888
 20
2.3383135701145621
 30
0.0
 11
4.1295559230517318
 21
2.3383135701145621
 31
0.0
  0
LINE
  5
F8B
  8
DIM
 62
     0
 10
2.9180546828969751
 20
2.3383135701145621
 30
0.0
 11
3.8870559230517321
 21
2.3383135701145621
 31
0.0
  0
SOLID
  5
F8C
  8
DIM
 62
     0
 10
5.0985571632064888
 20
2.3683135701145619
 30
0.0
 11
5.0985571632064888
 21
2.3083135701145632
 31
0.0
 12
5.2785571632064894
 22
2.3383135701145621
 32
0.0
 13
5.2785571632064894
 23
2.3383135701145621
 33
0.0
  0
SOLID
  5
F8D
  8
DIM
 62
     0
 10
2.9180546828969751
 20
2.3683135701145619
 30
0.0
 11
2.9180546828969751
 21
2.3083135701145632
 31
0.0
 12
2.738054682896975
 22
2.3383135701145621
 32
0.0
 13
2.738054682896975
 23
2.3383135701145621
 33
0.0
  0
TEXT
  5
F8E
  8
TEXT
 62
     0
 10
3.9770559230517319
 20
2.2758135701145621
 30
0.0
 40
0.125
  1
G
 41
0.75
  7
TXT
  0
POINT
  5
F8F
  8
DEFPOINTS
 62
     0
 10
5.2785571632064894
 20
2.843821331125949
 30
0.0
  0
POINT
  5
F90
  8
DEFPOINTS
 62
     0
 10
2.738054682896975
 20
2.8438213311259521
 30
0.0
  0
POINT
  5
F91
  8
DEFPOINTS
 62
     0
 10
2.738054682896975
 20
2.3383135701145621
 30
0.0
  0
ENDBLK
  5
B37
  8
0
  0
BLOCK
  8
0
  2
*D17
 70
     1
 10
0.0
 20
0.0
 30
0.0
  3
*D17
  1

  0
LINE
  5
F92
  8
DIM
 62
     0
 10
2.7583059230517302
 20
13.415752862138561
 30
0.0
 11
2.7583059230517302
 21
14.096358928776381
 31
0.0
  0
LINE
  5
F93
  8
DIM
 62
     0
 10
5.2583059230517311
 20
13.415752862138561
 30
0.0
 11
5.2583059230517311
 21
14.096358928776381
 31
0.0
  0
LINE
  5
F94
  8
DIM
 62
     0
 10
2.9383059230517299
 20
14.003358928776381
 30
0.0
 11
3.8870559230517312
 21
14.003358928776381
 31
0.0
  0
LINE
  5
F95
  8
DIM
 62
     0
 10
5.0783059230517313
 20
14.003358928776381
 30
0.0
 11
4.12955592305173
 21
14.003358928776381
 31
0.0
  0
SOLID
  5
F96
  8
DIM
 62
     0
 10
2.9383059230517299
 20
14.03335892877638
 30
0.0
 11
2.9383059230517299
 21
13.97335892877638
 31
0.0
 12
2.7583059230517302
 22
14.003358928776381
 32
0.0
 13
2.7583059230517302
 23
14.003358928776381
 33
0.0
  0
SOLID
  5
F97
  8
DIM
 62
     0
 10
5.0783059230517313
 20
14.03335892877638
 30
0.0
 11
5.0783059230517313
 21
13.97335892877638
 31
0.0
 12
5.2583059230517311
 22
14.003358928776381
 32
0.0
 13
5.2583059230517311
 23
14.003358928776381
 33
0.0
  0
TEXT
  5
F98
  8
TEXT
 62
     0
 10
3.9770559230517311
 20
13.940858928776381
 30
0.0
 40
0.125
  1
F
 41
0.75
  7
TXT
  0
POINT
  5
F99
  8
DEFPOINTS
 62
     0
 10
2.7583059230517302
 20
13.35275286213856
 30
0.0
  0
POINT
  5
F9A
  8
DEFPOINTS
 62
     0
 10
5.2583059230517311
 20
13.35275286213856
 30
0.0
  0
POINT
  5
F9B
  8
DEFPOINTS
 62
     0
 10
5.2583059230517311
 20
14.003358928776381
 30
0.0
  0
ENDBLK
  5
BC8
  8
0
  0
BLOCK
  8
0
  2
*D18
 70
     1
 10
0.0
 20
0.0
 30
0.0
  3
*D18
  1

  0
LINE
  5
F9C
  8
DIM
 62
     0
 10
5.0003059230517319
 20
11.173752862138549
 30
0.0
 11
5.8067648158052991
 21
11.173752862138549
 31
0.0
  0
LINE
  5
F9D
  8
DIM
 62
     0
 10
5.0003059230517319
 20
13.67375286213856
 30
0.0
 11
5.8067648158052991
 21
13.67375286213856
 31
0.0
  0
LINE
  5
F9E
  8
DIM
 62
     0
 10
5.7137648158052992
 20
11.353752862138551
 30
0.0
 11
5.7137648158052992
 21
12.27125286213856
 31
0.0
  0
LINE
  5
F9F
  8
DIM
 62
     0
 10
5.7137648158052992
 20
13.49375286213856
 30
0.0
 11
5.7137648158052992
 21
12.57625286213856
 31
0.0
  0
SOLID
  5
FA0
  8
DIM
 62
     0
 10
5.683764815805298
 20
11.353752862138551
 30
0.0
 11
5.7437648158052994
 21
11.353752862138551
 31
0.0
 12
5.7137648158052992
 22
11.173752862138549
 32
0.0
 13
5.7137648158052992
 23
11.173752862138549
 33
0.0
  0
SOLID
  5
FA1
  8
DIM
 62
     0
 10
5.683764815805298
 20
13.49375286213856
 30
0.0
 11
5.7437648158052994
 21
13.49375286213856
 31
0.0
 12
5.7137648158052992
 22
13.67375286213856
 32
0.0
 13
5.7137648158052992
 23
13.67375286213856
 33
0.0
  0
TEXT
  5
FA2
  8
TEXT
 62
     0
 10
5.6825148158052974
 20
12.36125286213856
 30
0.0
 40
0.125
  1
H
 41
0.75
  7
TXT
  0
POINT
  5
FA3
  8
DEFPOINTS
 62
     0
 10
4.9373059230517331
 20
11.173752862138549
 30
0.0
  0
POINT
  5
FA4
  8
DEFPOINTS
 62
     0
 10
4.9373059230517331
 20
13.67375286213856
 30
0.0
  0
POINT
  5
FA5
  8
DEFPOINTS
 62
     0
 10
5.7137648158052992
 20
13.67375286213856
 30
0.0
  0
ENDBLK
  5
BD6
  8
0
  0
BLOCK
  8
0
  2
*D19
 70
     1
 10
0.0
 20
0.0
 30
0.0
  3
*D19
  1

  0
LINE
  5
FA6
  8
DIM
 62
     0
 10
5.2175697380967758
 20
10.315084573445111
 30
0.0
 11
5.7740458648884152
 21
10.315084573445111
 31
0.0
  0
LINE
  5
FA7
  8
DIM
 62
     0
 10
5.2285697380967759
 20
10.47808457344513
 30
0.0
 11
5.7740458648884152
 21
10.47808457344513
 31
0.0
  0
LINE
  5
FA8
  8
DIM
 62
     0
 10
5.6810458648884152
 20
10.13508457344512
 30
0.0
 11
5.6810458648884143
 21
9.9550845734451201
 31
0.0
  0
LINE
  5
FA9
  8
DIM
 62
     0
 10
5.6810458648884152
 20
10.65808457344513
 30
0.0
 11
5.6810458648884152
 21
10.83808457344513
 31
0.0
  0
LINE
  5
FAA
  8
DIM
 62
     0
 10
5.6810458648884152
 20
10.83808457344513
 30
0.0
 11
5.8610458648884141
 21
10.83808457344513
 31
0.0
  0
SOLID
  5
FAB
  8
DIM
 62
     0
 10
5.6510458648884141
 20
10.13508457344512
 30
0.0
 11
5.7110458648884146
 21
10.13508457344512
 31
0.0
 12
5.6810458648884152
 22
10.315084573445111
 32
0.0
 13
5.6810458648884152
 23
10.315084573445111
 33
0.0
  0
SOLID
  5
FAC
  8
DIM
 62
     0
 10
5.6510458648884141
 20
10.65808457344513
 30
0.0
 11
5.7110458648884146
 21
10.65808457344513
 31
0.0
 12
5.6810458648884152
 22
10.47808457344513
 32
0.0
 13
5.6810458648884152
 23
10.47808457344513
 33
0.0
  0
TEXT
  5
FAD
  8
TEXT
 62
     0
 10
5.951045864888413
 20
10.77558457344513
 30
0.0
 40
0.125
  1
0.163
 41
0.75
  7
TXT
  0
POINT
  5
FAE
  8
DEFPOINTS
 62
     0
 10
5.1545697380967761
 20
10.315084573445111
 30
0.0
  0
POINT
  5
FAF
  8
DEFPOINTS
 62
     0
 10
5.1655697380967771
 20
10.47808457344513
 30
0.0
  0
POINT
  5
FB0
  8
DEFPOINTS
 62
     0
 10
5.6810458648884152
 20
10.47808457344513
 30
0.0
  0
ENDBLK
  5
BE4
  8
0
  0
BLOCK
  8
0
  2
*D20
 70
     1
 10
0.0
 20
0.0
 30
0.0
  3
*D20
  1

  0
LINE
  5
FB1
  8
DIM
 62
     0
 10
7.6836458598088324
 20
11.27775286213855
 30
0.0
 11
7.6294428644995582
 21
11.27775286213855
 31
0.0
  0
LINE
  5
FB2
  8
DIM
 62
     0
 10
7.6836458598088324
 20
11.173752862138549
 30
0.0
 11
7.6294428644995582
 21
11.173752862138549
 31
0.0
  0
LINE
  5
FB3
  8
DIM
 62
     0
 10
7.7224428644995582
 20
11.45775286213855
 30
0.0
 11
7.7224428644995582
 21
11.63775286213855
 31
0.0
  0
LINE
  5
FB4
  8
DIM
 62
     0
 10
7.7224428644995582
 20
10.99375286213856
 30
0.0
 11
7.7224428644995582
 21
10.813752862138561
 31
0.0
  0
LINE
  5
FB5
  8
DIM
 62
     0
 10
7.7224428644995582
 20
10.813752862138561
 30
0.0
 11
7.5424428644995576
 21
10.813752862138561
 31
0.0
  0
SOLID
  5
FB6
  8
DIM
 62
     0
 10
7.6924428644995571
 20
11.45775286213855
 30
0.0
 11
7.7524428644995584
 21
11.45775286213855
 31
0.0
 12
7.7224428644995582
 22
11.27775286213855
 32
0.0
 13
7.7224428644995582
 23
11.27775286213855
 33
0.0
  0
SOLID
  5
FB7
  8
DIM
 62
     0
 10
7.6924428644995571
 20
10.99375286213856
 30
0.0
 11
7.7524428644995584
 21
10.99375286213856
 31
0.0
 12
7.7224428644995582
 22
11.173752862138549
 32
0.0
 13
7.7224428644995582
 23
11.173752862138549
 33
0.0
  0
TEXT
  5
FB8
  8
TEXT
 62
     0
 10
7.139942864499556
 20
10.751252862138561
 30
0.0
 40
0.125
  1
0.104
 41
0.75
  7
TXT
  0
POINT
  5
FB9
  8
DEFPOINTS
 62
     0
 10
7.7466458598088321
 20
11.27775286213855
 30
0.0
  0
POINT
  5
FBA
  8
DEFPOINTS
 62
     0
 10
7.7466458598088321
 20
11.173752862138549
 30
0.0
  0
POINT
  5
FBB
  8
DEFPOINTS
 62
     0
 10
7.7224428644995582
 20
11.173752862138549
 30
0.0
  0
ENDBLK
  5
C22
  8
0
  0
BLOCK
  8
0
  2
*D21
 70
     1
 10
0.0
 20
0.0
 30
0.0
  3
*D21
  1

  0
LINE
  5
FBC
  8
DIM
 62
     0
 10
8.4510248637548901
 20
11.27775286213855
 30
0.0
 11
8.4870756009650332
 21
11.27775286213855
 31
0.0
  0
LINE
  5
FBD
  8
DIM
 62
     0
 10
8.4510248637548901
 20
11.337752862138551
 30
0.0
 11
8.4870756009650332
 21
11.337752862138551
 31
0.0
  0
LINE
  5
FBE
  8
DIM
 62
     0
 10
8.394075600965035
 20
11.097752862138551
 30
0.0
 11
8.394075600965035
 21
10.91775286213856
 31
0.0
  0
LINE
  5
FBF
  8
DIM
 62
     0
 10
8.394075600965035
 20
11.517752862138551
 30
0.0
 11
8.394075600965035
 21
11.69775286213855
 31
0.0
  0
LINE
  5
FC0
  8
DIM
 62
     0
 10
8.394075600965035
 20
11.69775286213855
 30
0.0
 11
8.5740756009650347
 21
11.69775286213855
 31
0.0
  0
SOLID
  5
FC1
  8
DIM
 62
     0
 10
8.3640756009650357
 20
11.097752862138551
 30
0.0
 11
8.4240756009650344
 21
11.097752862138551
 31
0.0
 12
8.394075600965035
 22
11.27775286213855
 32
0.0
 13
8.394075600965035
 23
11.27775286213855
 33
0.0
  0
SOLID
  5
FC2
  8
DIM
 62
     0
 10
8.3640756009650357
 20
11.517752862138551
 30
0.0
 11
8.4240756009650344
 21
11.517752862138551
 31
0.0
 12
8.394075600965035
 22
11.337752862138551
 32
0.0
 13
8.394075600965035
 23
11.337752862138551
 33
0.0
  0
TEXT
  5
FC3
  8
TEXT
 62
     0
 10
8.6640756009650328
 20
11.635252862138559
 30
0.0
 40
0.125
  1
0.060
 41
0.75
  7
TXT
  0
POINT
  5
FC4
  8
DEFPOINTS
 62
     0
 10
8.3880248637548895
 20
11.27775286213855
 30
0.0
  0
POINT
  5
FC5
  8
DEFPOINTS
 62
     0
 10
8.3880248637548895
 20
11.337752862138551
 30
0.0
  0
POINT
  5
FC6
  8
DEFPOINTS
 62
     0
 10
8.394075600965035
 20
11.337752862138551
 30
0.0
  0
ENDBLK
  5
C30
  8
0
  0
BLOCK
  8
0
  2
*D22
 70
     1
 10
0.0
 20
0.0
 30
0.0
  3
*D22
  1

  0
LINE
  5
FC7
  8
DIM
 62
     0
 10
3.3208059230517311
 20
7.1912176241956827
 30
0.0
 11
3.3208059230517311
 21
8.096213284378031
 31
0.0
  0
LINE
  5
FC8
  8
DIM
 62
     0
 10
4.6958059230517311
 20
7.1912176241956827
 30
0.0
 11
4.6958059230517311
 21
8.096213284378031
 31
0.0
  0
LINE
  5
FC9
  8
DIM
 62
     0
 10
3.5008059230517312
 20
8.003213284378031
 30
0.0
 11
3.8870559230517312
 21
8.003213284378031
 31
0.0
  0
LINE
  5
FCA
  8
DIM
 62
     0
 10
4.5158059230517313
 20
8.003213284378031
 30
0.0
 11
4.12955592305173
 21
8.003213284378031
 31
0.0
  0
SOLID
  5
FCB
  8
DIM
 62
     0
 10
3.5008059230517312
 20
8.0332132843780304
 30
0.0
 11
3.5008059230517312
 21
7.9732132843780299
 31
0.0
 12
3.3208059230517311
 22
8.003213284378031
 32
0.0
 13
3.3208059230517311
 23
8.003213284378031
 33
0.0
  0
SOLID
  5
FCC
  8
DIM
 62
     0
 10
4.5158059230517313
 20
8.0332132843780304
 30
0.0
 11
4.5158059230517313
 21
7.9732132843780299
 31
0.0
 12
4.6958059230517311
 22
8.003213284378031
 32
0.0
 13
4.6958059230517311
 23
8.003213284378031
 33
0.0
  0
TEXT
  5
FCD
  8
TEXT
 62
     0
 10
3.9770559230517311
 20
7.940713284378031
 30
0.0
 40
0.125
  1
D
 41
0.75
  7
TXT
  0
POINT
  5
FCE
  8
DEFPOINTS
 62
     0
 10
3.3208059230517311
 20
7.1282176241956829
 30
0.0
  0
POINT
  5
FCF
  8
DEFPOINTS
 62
     0
 10
4.6958059230517311
 20
7.1282176241956829
 30
0.0
  0
POINT
  5
FD0
  8
DEFPOINTS
 62
     0
 10
4.6958059230517311
 20
8.003213284378031
 30
0.0
  0
ENDBLK
  5
C52
  8
0
  0
BLOCK
  8
0
  2
*D23
 70
     1
 10
0.0
 20
0.0
 30
0.0
  3
*D23
  1

  0
LINE
  5
FD1
  8
DIM
 62
     0
 10
4.7588059230517299
 20
5.75321762419569
 30
0.0
 11
6.2507517396826664
 21
5.7532176241956892
 31
0.0
  0
LINE
  5
FD2
  8
DIM
 62
     0
 10
4.7588059230517299
 20
7.1282176241956829
 30
0.0
 11
6.2507517396826673
 21
7.1282176241956821
 31
0.0
  0
LINE
  5
FD3
  8
DIM
 62
     0
 10
6.1577517396826664
 20
5.933217624195688
 30
0.0
 11
6.1577517396826673
 21
6.2882176241956858
 31
0.0
  0
LINE
  5
FD4
  8
DIM
 62
     0
 10
6.1577517396826673
 20
6.9482176241956832
 30
0.0
 11
6.1577517396826673
 21
6.5932176241956864
 31
0.0
  0
SOLID
  5
FD5
  8
DIM
 62
     0
 10
6.1277517396826662
 20
5.933217624195688
 30
0.0
 11
6.1877517396826658
 21
5.933217624195688
 31
0.0
 12
6.1577517396826664
 22
5.7532176241956892
 32
0.0
 13
6.1577517396826664
 23
5.7532176241956892
 33
0.0
  0
SOLID
  5
FD6
  8
DIM
 62
     0
 10
6.1277517396826671
 20
6.9482176241956832
 30
0.0
 11
6.1877517396826667
 21
6.9482176241956832
 31
0.0
 12
6.1577517396826673
 22
7.1282176241956821
 32
0.0
 13
6.1577517396826673
 23
7.1282176241956821
 33
0.0
  0
TEXT
  5
FD7
  8
TEXT
 62
     0
 10
6.1265017396826646
 20
6.3782176241956883
 30
0.0
 40
0.125
  1
L
 41
0.75
  7
TXT
  0
POINT
  5
FD8
  8
DEFPOINTS
 62
     0
 10
4.6958059230517311
 20
5.75321762419569
 30
0.0
  0
POINT
  5
FD9
  8
DEFPOINTS
 62
     0
 10
4.6958059230517311
 20
7.1282176241956829
 30
0.0
  0
POINT
  5
FDA
  8
DEFPOINTS
 62
     0
 10
6.1577517396826673
 20
7.1282176241956821
 30
0.0
  0
ENDBLK
  5
C60
  8
0
  0
BLOCK
  8
0
  2
*D24
 70
     1
 10
0.0
 20
0.0
 30
0.0
  3
*D24
  1

  0
LINE
  5
FDB
  8
DIM
 62
     0
 10
5.0283059230517271
 20
12.891231000837861
 30
0.0
 11
4.170654562616785
 21
12.891231000837861
 31
0.0
  0
LINE
  5
FDC
  8
DIM
 62
     0
 10
4.3081724860018831
 20
13.50675286213856
 30
0.0
 11
4.170654562616785
 21
13.50675286213856
 31
0.0
  0
LINE
  5
FDD
  8
DIM
 62
     0
 10
4.2636545626167841
 20
12.711231000837859
 30
0.0
 11
4.2636545626167841
 21
12.53123100083786
 31
0.0
  0
LINE
  5
FDE
  8
DIM
 62
     0
 10
4.2636545626167841
 20
13.68675286213856
 30
0.0
 11
4.2636545626167841
 21
13.86675286213856
 31
0.0
  0
SOLID
  5
FDF
  8
DIM
 62
     0
 10
4.2336545626167839
 20
12.711231000837859
 30
0.0
 11
4.2936545626167852
 21
12.711231000837859
 31
0.0
 12
4.2636545626167841
 22
12.891231000837861
 32
0.0
 13
4.2636545626167841
 23
12.891231000837861
 33
0.0
  0
SOLID
  5
FE0
  8
DIM
 62
     0
 10
4.2336545626167839
 20
13.68675286213856
 30
0.0
 11
4.2936545626167852
 21
13.68675286213856
 31
0.0
 12
4.2636545626167841
 22
13.50675286213856
 32
0.0
 13
4.2636545626167841
 23
13.50675286213856
 33
0.0
  0
TEXT
  5
FE1
  8
TEXT
 62
     0
 10
4.0995920626167832
 20
13.13649193148821
 30
0.0
 40
0.125
  1
0.616
 41
0.75
  7
TXT
  0
POINT
  5
FE2
  8
DEFPOINTS
 62
     0
 10
5.0913059230517268
 20
12.891231000837861
 30
0.0
  0
POINT
  5
FE3
  8
DEFPOINTS
 62
     0
 10
4.3711724860018828
 20
13.50675286213856
 30
0.0
  0
POINT
  5
FE4
  8
DEFPOINTS
 62
     0
 10
4.2636545626167841
 20
13.50675286213856
 30
0.0
  0
ENDBLK
  5
C6D
  8
0
  0
BLOCK
  8
0
  2
*D25
 70
     1
 10
0.0
 20
0.0
 30
0.0
  3
*D25
  1

  0
LINE
  5
FE5
  8
DIM
 62
     0
 10
4.4757840617510301
 20
13.44375286213856
 30
0.0
 11
4.4757840617510301
 21
12.337451563917851
 31
0.0
  0
LINE
  5
FE6
  8
DIM
 62
     0
 10
5.0913059230517268
 20
12.430647074156949
 30
0.0
 11
5.0913059230517268
 21
12.337451563917851
 31
0.0
  0
LINE
  5
FE7
  8
DIM
 62
     0
 10
4.2957840617510303
 20
12.430451563917851
 30
0.0
 11
4.1157840617510288
 21
12.430451563917851
 31
0.0
  0
LINE
  5
FE8
  8
DIM
 62
     0
 10
5.2713059230517274
 20
12.430451563917851
 30
0.0
 11
5.451305923051728
 21
12.430451563917851
 31
0.0
  0
SOLID
  5
FE9
  8
DIM
 62
     0
 10
4.2957840617510303
 20
12.46045156391785
 30
0.0
 11
4.2957840617510303
 21
12.40045156391785
 31
0.0
 12
4.4757840617510301
 22
12.430451563917851
 32
0.0
 13
4.4757840617510301
 23
12.430451563917851
 33
0.0
  0
SOLID
  5
FEA
  8
DIM
 62
     0
 10
5.2713059230517274
 20
12.46045156391785
 30
0.0
 11
5.2713059230517274
 21
12.40045156391785
 31
0.0
 12
5.0913059230517268
 22
12.430451563917851
 32
0.0
 13
5.0913059230517268
 23
12.430451563917851
 33
0.0
  0
TEXT
  5
FEB
  8
TEXT
 62
     0
 10
4.619482492401378
 20
12.367951563917851
 30
0.0
 40
0.125
  1
0.616
 41
0.75
  7
TXT
  0
POINT
  5
FEC
  8
DEFPOINTS
 62
     0
 10
4.4757840617510301
 20
13.50675286213856
 30
0.0
  0
POINT
  5
FED
  8
DEFPOINTS
 62
     0
 10
5.0913059230517268
 20
12.49364707415695
 30
0.0
  0
POINT
  5
FEE
  8
DEFPOINTS
 62
     0
 10
5.0913059230517268
 20
12.430451563917851
 30
0.0
  0
ENDBLK
  5
C7A
  8
0
  0
BLOCK
  8
0
  2
*D26
 70
     1
 10
0.0
 20
0.0
 30
0.0
  3
*D26
  1

  0
LINE
  5
FEF
  8
DIM
 62
     0
 10
6.1339879016450007
 20
13.644016677183609
 30
0.0
 11
6.1339879016450007
 21
14.096358928776381
 31
0.0
  0
LINE
  5
FF0
  8
DIM
 62
     0
 10
6.2339879016449951
 20
13.736752862138561
 30
0.0
 11
6.2339879016449951
 21
14.096358928776381
 31
0.0
  0
LINE
  5
FF1
  8
DIM
 62
     0
 10
5.953987901645001
 20
14.003358928776381
 30
0.0
 11
5.7739879016450013
 21
14.003358928776381
 31
0.0
  0
LINE
  5
FF2
  8
DIM
 62
     0
 10
6.4139879016449948
 20
14.003358928776381
 30
0.0
 11
6.5939879016449963
 21
14.003358928776381
 31
0.0
  0
SOLID
  5
FF3
  8
DIM
 62
     0
 10
5.953987901645001
 20
14.03335892877638
 30
0.0
 11
5.953987901645001
 21
13.97335892877638
 31
0.0
 12
6.1339879016450007
 22
14.003358928776381
 32
0.0
 13
6.1339879016450007
 23
14.003358928776381
 33
0.0
  0
SOLID
  5
FF4
  8
DIM
 62
     0
 10
6.4139879016449948
 20
14.03335892877638
 30
0.0
 11
6.4139879016449948
 21
13.97335892877638
 31
0.0
 12
6.2339879016449951
 22
14.003358928776381
 32
0.0
 13
6.2339879016449951
 23
14.003358928776381
 33
0.0
  0
TEXT
  5
FF5
  8
TEXT
 62
     0
 10
6.6839879016449961
 20
13.940858928776381
 30
0.0
 40
0.125
  1
0.100
 41
0.75
  7
TXT
  0
POINT
  5
FF6
  8
DEFPOINTS
 62
     0
 10
6.1339879016450007
 20
13.58101667718361
 30
0.0
  0
POINT
  5
FF7
  8
DEFPOINTS
 62
     0
 10
6.2339879016449951
 20
13.67375286213856
 30
0.0
  0
POINT
  5
FF8
  8
DEFPOINTS
 62
     0
 10
6.2339879016449951
 20
14.003358928776381
 30
0.0
  0
ENDBLK
  5
CFE
  8
0
  0
BLOCK
  8
0
  2
*D27
 70
     1
 10
0.0
 20
0.0
 30
0.0
  3
*D27
  1

  0
LINE
  5
1102
  8
DIM
 62
     0
 10
2.8924243270251
 20
7.7107176241956834
 30
0.0
 11
1.5850801749844921
 21
7.7107176241956834
 31
0.0
  0
LINE
  5
1103
  8
DIM
 62
     0
 10
2.2688221209739008
 20
7.024115418144488
 30
0.0
 11
1.9864446845578541
 21
6.7417379817284431
 31
0.0
  0
ARC
  5
1104
  8
DIM
 62
     0
 10
2.9554243270250988
 20
7.7107176241956843
 30
0.0
 40
1.277344152040607
 50
188.08066693522491
 51
194.43044855461201
  0
ARC
  5
1105
  8
DIM
 62
     0
 10
2.9554243270250988
 20
7.7107176241956843
 30
0.0
 40
1.277344152040607
 50
209.207982259549
 51
216.91933306477489
  0
SOLID
  5
1106
  8
DIM
 62
     0
 10
1.6608372988631011
 20
7.5290512177715394
 30
0.0
 11
1.720688180736953
 21
7.5332787393767182
 31
0.0
 12
1.678080174984492
 22
7.7107176241956834
 32
0.0
 13
1.678080174984492
 23
7.7107176241956834
 33
0.0
  0
SOLID
  5
1107
  8
DIM
 62
     0
 10
1.9568657863069361
 20
6.9630955608808618
 30
0.0
 11
1.911555512679306
 21
6.9237639056425007
 31
0.0
 12
2.0522056152082051
 22
6.8074989123787919
 32
0.0
 13
2.0522056152082051
 23
6.8074989123787919
 33
0.0
  0
TEXT
  8
0
  40
0.125
  5
1113
  62
0
  72
0
  71
0
 10
1.51802
 20
7.01865
 30
0.000000
  1
45%%d
  7
TXT
  0
POINT
  5
1109
  8
DEFPOINTS
 62
     0
 10
1.8492118419824399
 20
7.0720455481753826
 30
0.0
  0
POINT
  5
110A
  8
DEFPOINTS
 62
     0
 10
2.3133698481886542
 20
7.0686631453592401
 30
0.0
  0
POINT
  5
110B
  8
DEFPOINTS
 62
     0
 10
3.109097517275031
 20
7.7107176241956834
 30
0.0
  0
POINT
  5
110C
  8
DEFPOINTS
 62
     0
 10
4.9075143288284346
 20
7.7107176241956843
 30
0.0
  0
POINT
  5
110D
  8
DEFPOINTS
 62
     0
 10
2.846865125029109
 20
7.6021584221996932
 30
0.0
  0
ENDBLK
  5
D2F
  8
0
  0
BLOCK
  8
0
  2
*D28
 70
     1
 10
0.0
 20
0.0
 30
0.0
  3
*D28
  1

  0
LINE
  5
1005
  8
DIM
 62
     0
 10
2.925305923051734
 20
12.715526397982179
 30
0.0
 11
2.925305923051734
 21
12.74552639798218
 31
0.0
  0
LINE
  5
1006
  8
DIM
 62
     0
 10
2.7583059230517302
 20
12.715526397982179
 30
0.0
 11
2.7583059230517302
 21
12.74552639798218
 31
0.0
  0
LINE
  5
1007
  8
DIM
 62
     0
 10
3.105305923051735
 20
12.65252639798218
 30
0.0
 11
3.2853059230517339
 21
12.65252639798218
 31
0.0
  0
LINE
  5
1008
  8
DIM
 62
     0
 10
2.57830592305173
 20
12.65252639798218
 30
0.0
 11
2.3983059230517298
 21
12.65252639798218
 31
0.0
  0
SOLID
  5
1009
  8
DIM
 62
     0
 10
3.105305923051735
 20
12.68252639798218
 30
0.0
 11
3.105305923051735
 21
12.622526397982179
 31
0.0
 12
2.925305923051734
 22
12.65252639798218
 32
0.0
 13
2.925305923051734
 23
12.65252639798218
 33
0.0
  0
SOLID
  5
100A
  8
DIM
 62
     0
 10
2.57830592305173
 20
12.68252639798218
 30
0.0
 11
2.57830592305173
 21
12.622526397982179
 31
0.0
 12
2.7583059230517302
 22
12.65252639798218
 32
0.0
 13
2.7583059230517302
 23
12.65252639798218
 33
0.0
  0
TEXT
  5
100B
  8
TEXT
 62
     0
 10
1.57393092305173
 20
12.59002639798218
 30
0.0
 40
0.125
  1
0.167 TYP.
 41
0.75
  7
TXT
  0
POINT
  5
100C
  8
DEFPOINTS
 62
     0
 10
2.925305923051734
 20
12.65252639798218
 30
0.0
  0
POINT
  5
100D
  8
DEFPOINTS
 62
     0
 10
2.7583059230517302
 20
12.65252639798218
 30
0.0
  0
POINT
  5
100E
  8
DEFPOINTS
 62
     0
 10
2.7583059230517302
 20
12.65252639798218
 30
0.0
  0
ENDBLK
  5
D47
  8
0
  0
BLOCK
  8
0
  2
*D29
 70
     1
 10
0.0
 20
0.0
 30
0.0
  3
*D29
  1

  0
LINE
  5
100F
  8
DIM
 62
     0
 10
3.7728658143212561
 20
7.5907176241956851
 30
0.0
 11
3.844789943429058
 21
7.5907176241956851
 31
0.0
  0
LINE
  5
1010
  8
DIM
 62
     0
 10
3.7728658143212561
 20
5.2907176241956817
 30
0.0
 11
3.844789943429058
 21
5.2907176241956817
 31
0.0
  0
LINE
  5
1011
  8
DIM
 62
     0
 10
3.751789943429058
 20
7.4107176241956854
 30
0.0
 11
3.751789943429058
 21
6.5932176241956828
 31
0.0
  0
LINE
  5
1012
  8
DIM
 62
     0
 10
3.751789943429058
 20
5.4707176241956823
 30
0.0
 11
3.751789943429058
 21
6.2882176241956831
 31
0.0
  0
SOLID
  5
1013
  8
DIM
 62
     0
 10
3.7217899434290591
 20
7.4107176241956854
 30
0.0
 11
3.7817899434290578
 21
7.4107176241956854
 31
0.0
 12
3.751789943429058
 22
7.5907176241956851
 32
0.0
 13
3.751789943429058
 23
7.5907176241956851
 33
0.0
  0
SOLID
  5
1014
  8
DIM
 62
     0
 10
3.7217899434290578
 20
5.4707176241956823
 30
0.0
 11
3.7817899434290578
 21
5.4707176241956823
 31
0.0
 12
3.751789943429058
 22
5.2907176241956817
 32
0.0
 13
3.751789943429058
 23
5.2907176241956817
 33
0.0
  0
TEXT
  5
1015
  8
TEXT
 62
     0
 10
3.7205399434290571
 20
6.3782176241956838
 30
0.0
 40
0.125
  1
M
 41
0.75
  7
TXT
  0
POINT
  5
1016
  8
DEFPOINTS
 62
     0
 10
3.709865814321256
 20
7.5907176241956851
 30
0.0
  0
POINT
  5
1017
  8
DEFPOINTS
 62
     0
 10
3.709865814321256
 20
5.2907176241956817
 30
0.0
  0
POINT
  5
1018
  8
DEFPOINTS
 62
     0
 10
3.751789943429058
 20
5.2907176241956817
 30
0.0
  0
ENDBLK
  5
D55
  8
0
  0
BLOCK
  8
0
  2
*D30
 70
     1
 10
0.0
 20
0.0
 30
0.0
  3
*D30
  1

  0
LINE
  5
1019
  8
DIM
 62
     0
 10
2.8583059230517311
 20
6.0656887538187974
 30
0.0
 11
2.8583059230517311
 21
5.9937791412973516
 31
0.0
  0
LINE
  5
101A
  8
DIM
 62
     0
 10
5.1583059230517341
 20
6.0656887538187974
 30
0.0
 11
5.1583059230517341
 21
5.9937791412973516
 31
0.0
  0
LINE
  5
101B
  8
DIM
 62
     0
 10
3.0383059230517309
 20
6.0867791412973524
 30
0.0
 11
3.8870559230517321
 21
6.0867791412973524
 31
0.0
  0
LINE
  5
101C
  8
DIM
 62
     0
 10
4.9783059230517344
 20
6.0867791412973524
 30
0.0
 11
4.1295559230517318
 21
6.0867791412973524
 31
0.0
  0
SOLID
  5
101D
  8
DIM
 62
     0
 10
3.0383059230517309
 20
6.1167791412973518
 30
0.0
 11
3.0383059230517309
 21
6.0567791412973522
 31
0.0
 12
2.8583059230517311
 22
6.0867791412973524
 32
0.0
 13
2.8583059230517311
 23
6.0867791412973524
 33
0.0
  0
SOLID
  5
101E
  8
DIM
 62
     0
 10
4.9783059230517344
 20
6.1167791412973518
 30
0.0
 11
4.9783059230517344
 21
6.0567791412973522
 31
0.0
 12
5.1583059230517341
 22
6.0867791412973524
 32
0.0
 13
5.1583059230517341
 23
6.0867791412973524
 33
0.0
  0
TEXT
  5
101F
  8
TEXT
 62
     0
 10
3.9770559230517319
 20
6.0242791412973524
 30
0.0
 40
0.125
  1
E
 41
0.75
  7
TXT
  0
POINT
  5
1020
  8
DEFPOINTS
 62
     0
 10
2.8583059230517311
 20
6.1286887538187971
 30
0.0
  0
POINT
  5
1021
  8
DEFPOINTS
 62
     0
 10
5.1583059230517341
 20
6.1286887538187971
 30
0.0
  0
POINT
  5
1022
  8
DEFPOINTS
 62
     0
 10
5.1583059230517341
 20
6.0867791412973524
 30
0.0
  0
ENDBLK
  5
D63
  8
0
  0
ENDSEC
  0
SECTION
  2
ENTITIES
  0
TEXT
  5
9A3
  8
0
 10
21.288500062878668
 20
15.842093259692231
 30
0.0
 40
0.125
  1

  0
TEXT
  5
9A4
  8
0
 10
21.288500062878668
 20
15.6412917590101
 30
0.0
 40
0.125
  1

  0
LINE
  5
9A5
  8
HIDDEN
 10
5.4143059230517281
 20
2.8438213311259521
 30
0.0
 11
5.4033698401109911
 21
2.718821331125949
 31
0.0
  0
LINE
  5
9A6
  8
HIDDEN
 10
5.6023059230517314
 20
2.8438213311259521
 30
0.0
 11
5.6132420059924684
 21
2.718821331125949
 31
0.0
  0
LINE
  5
9A7
  8
HIDDEN
 10
2.6023059230517318
 20
2.8438213311259521
 30
0.0
 11
2.6132420059924701
 21
2.718821331125949
 31
0.0
  0
LINE
  5
9A8
  8
HIDDEN
 10
2.414305923051729
 20
2.8438213311259521
 30
0.0
 11
2.4033698401109951
 21
2.718821331125949
 31
0.0
  0
LINE
  5
9A9
  8
HIDDEN
 10
2.858305923051736
 20
3.6188213311259512
 30
0.0
 11
2.8650192451977952
 21
2.8495508085255001
 31
0.0
  0
LINE
  5
9AA
  8
HIDDEN
 10
2.8960180648127838
 20
2.8188213311259491
 30
0.0
 11
5.120593781290677
 21
2.818821331125946
 31
0.0
  0
LINE
  5
9AB
  8
HIDDEN
 10
5.1583059230517261
 20
3.6188213311259512
 30
0.0
 11
5.1515926009056683
 21
2.849550808525497
 31
0.0
  0
LINE
  5
9AC
  8
HIDDEN
 10
3.226805923051733
 20
3.0488213311259491
 30
0.0
 11
3.4148059230517318
 21
3.0488213311259491
 31
0.0
  0
LINE
  5
9AD
  8
HIDDEN
 10
3.4148059230517318
 20
3.0488213311259491
 30
0.0
 11
3.4188205879852211
 21
2.8188213311259491
 31
0.0
  0
LINE
  5
9AE
  8
HIDDEN
 10
3.366305923051732
 20
3.0488213311259491
 30
0.0
 11
3.366305923051732
 21
2.8188213311259491
 31
0.0
  0
LINE
  5
9AF
  8
HIDDEN
 10
3.275305923051731
 20
3.0488213311259491
 30
0.0
 11
3.275305923051731
 21
2.8188213311259491
 31
0.0
  0
LINE
  5
9B0
  8
HIDDEN
 10
3.226805923051729
 20
3.0488213311259491
 30
0.0
 11
3.222791258118241
 21
2.8188213311259491
 31
0.0
  0
LINE
  5
9B1
  8
HIDDEN
 10
4.7898059230517278
 20
3.0488213311259491
 30
0.0
 11
4.601805923051729
 21
3.0488213311259491
 31
0.0
  0
LINE
  5
9B2
  8
HIDDEN
 10
4.7413059230517307
 20
3.0488213311259491
 30
0.0
 11
4.7413059230517307
 21
2.8188213311259491
 31
0.0
  0
LINE
  5
9B3
  8
HIDDEN
 10
4.7898059230517331
 20
3.0488213311259491
 30
0.0
 11
4.7938205879852207
 21
2.8188213311259491
 31
0.0
  0
LINE
  5
9B4
  8
HIDDEN
 10
4.6503059230517314
 20
3.0488213311259491
 30
0.0
 11
4.6503059230517314
 21
2.8188213311259491
 31
0.0
  0
LINE
  5
9B5
  8
HIDDEN
 10
4.601805923051729
 20
3.0488213311259491
 30
0.0
 11
4.5977912581182414
 21
2.8188213311259491
 31
0.0
  0
ARC
  5
9B6
  8
HIDDEN
 10
2.8960180648127838
 20
2.8498213311259479
 30
0.0
 40
0.031
 50
180.49999999999989
 51
269.99999999999977
  0
ARC
  5
9B7
  8
HIDDEN
 10
5.120593781290677
 20
2.8498213311259479
 30
0.0
 40
0.031
 50
269.99999999999977
 51
359.5
  0
LINE
  5
9B8
  8
HIDDEN
 10
2.991305923051728
 20
3.553821331125949
 30
0.0
 11
3.1773059230517311
 21
3.553821331125949
 31
0.0
  0
LINE
  5
9B9
  8
HIDDEN
 10
2.8593967815255761
 20
3.4938213311259512
 30
0.0
 11
2.9902586191560401
 21
3.4938213311259512
 31
0.0
  0
LINE
  5
9BA
  8
HIDDEN
 10
3.1773059230517311
 20
3.553821331125949
 30
0.0
 11
3.1901353957739702
 21
2.8188213311259491
 31
0.0
  0
LINE
  5
9BB
  8
HIDDEN
 10
3.1298059230517281
 20
3.553821331125949
 30
0.0
 11
3.1298059230517281
 21
3.053821331125949
 31
0.0
  0
LINE
  5
9BC
  8
HIDDEN
 10
3.0388059230517341
 20
3.553821331125949
 30
0.0
 11
3.0388059230517341
 21
3.053821331125949
 31
0.0
  0
LINE
  5
9BD
  8
HIDDEN
 10
2.9913059230517312
 20
3.553821331125949
 30
0.0
 11
2.9784764503294929
 21
2.8188213311259491
 31
0.0
  0
LINE
  5
9BE
  8
HIDDEN
 10
3.038805923051731
 20
3.053821331125949
 30
0.0
 11
3.1298059230517281
 21
3.053821331125949
 31
0.0
  0
LINE
  5
9BF
  8
HIDDEN
 10
4.9778059230517284
 20
3.553821331125949
 30
0.0
 11
4.9778059230517284
 21
3.053821331125949
 31
0.0
  0
LINE
  5
9C0
  8
HIDDEN
 10
4.8868059230517327
 20
3.553821331125949
 30
0.0
 11
4.8868059230517327
 21
3.053821331125949
 31
0.0
  0
LINE
  5
9C1
  8
HIDDEN
 10
5.0253059230517314
 20
3.553821331125949
 30
0.0
 11
5.0381353957739679
 21
2.8188213311259491
 31
0.0
  0
LINE
  5
9C2
  8
HIDDEN
 10
4.8393059230517297
 20
3.553821331125949
 30
0.0
 11
4.8264764503294932
 21
2.8188213311259491
 31
0.0
  0
LINE
  5
9C3
  8
HIDDEN
 10
5.157215064577886
 20
3.4938213311259512
 30
0.0
 11
5.026353226947422
 21
3.4938213311259512
 31
0.0
  0
LINE
  5
9C4
  8
HIDDEN
 10
5.0253059230517341
 20
3.553821331125949
 30
0.0
 11
4.8393059230517297
 21
3.553821331125949
 31
0.0
  0
LINE
  5
9C5
  8
HIDDEN
 10
4.9778059230517311
 20
3.053821331125949
 30
0.0
 11
4.8868059230517327
 21
3.053821331125949
 31
0.0
  0
CIRCLE
  5
9C6
  8
OBJECT
  6
PHANTOM2
 10
2.5083059230517319
 20
6.4407176241956829
 30
0.0
 40
0.094
  0
CIRCLE
  5
9C7
  8
OBJECT
  6
PHANTOM2
 10
5.5083059230517293
 20
6.4407176241956829
 30
0.0
 40
0.094
  0
CIRCLE
  5
9C8
  8
OBJECT
 10
3.3208059230517311
 20
7.1282176241956829
 30
0.0
 40
0.094
  0
CIRCLE
  5
9C9
  8
OBJECT
 10
3.3208059230517311
 20
7.1282176241956829
 30
0.0
 40
0.0455
  0
CIRCLE
  5
9CA
  8
OBJECT
 10
3.3208059230517311
 20
7.1282176241956829
 30
0.0
 40
0.098
  0
ARC
  5
9CB
  8
OBJECT
 10
3.084305923051732
 20
5.5167176241956808
 30
0.0
 40
0.106
 50
242.00486059183811
 51
207.9951394081603
  0
CIRCLE
  5
9CC
  8
OBJECT
 10
3.084305923051732
 20
5.5167176241956808
 30
0.0
 40
0.093
  0
CIRCLE
  5
9CD
  8
OBJECT
 10
3.084305923051732
 20
5.5167176241956808
 30
0.0
 40
0.0455
  0
LINE
  5
9CE
  8
OBJECT
 10
2.9112606571926518
 20
5.3875129787701681
 30
0.0
 11
3.0003856128349482
 21
5.4766379344124649
 31
0.0
  0
LINE
  5
9CF
  8
OBJECT
 10
2.9551012776262202
 20
5.3436723583366037
 30
0.0
 11
3.044226233268513
 21
5.4327973139788979
 31
0.0
  0
ARC
  5
9D0
  8
OBJECT
 10
3.084305923051732
 20
7.3647176241956851
 30
0.0
 40
0.106
 50
152.0048605918395
 51
117.99513940816171
  0
CIRCLE
  5
9D1
  8
OBJECT
 10
3.084305923051732
 20
7.3647176241956851
 30
0.0
 40
0.0455
  0
CIRCLE
  5
9D2
  8
OBJECT
 10
3.084305923051732
 20
7.3647176241956851
 30
0.0
 40
0.093
  0
LINE
  5
9D3
  8
OBJECT
 10
2.9551012776262202
 20
7.5377628900547613
 30
0.0
 11
3.044226233268513
 21
7.4486379344124671
 31
0.0
  0
LINE
  5
9D4
  8
OBJECT
 10
2.9112606571926518
 20
7.4939222696211978
 30
0.0
 11
3.0003856128349482
 21
7.4047973139788992
 31
0.0
  0
LINE
  5
9D5
  8
OBJECT
 10
5.1053511889108121
 20
7.4939222696211978
 30
0.0
 11
5.0162262332685126
 21
7.4047973139788992
 31
0.0
  0
LINE
  5
9D6
  8
OBJECT
 10
5.061510568477245
 20
7.5377628900547613
 30
0.0
 11
4.9723856128349491
 21
7.4486379344124671
 31
0.0
  0
ARC
  5
9D7
  8
OBJECT
 10
4.9323059230517314
 20
7.3647176241956851
 30
0.0
 40
0.106
 50
62.004860591838181
 51
27.99513940816033
  0
CIRCLE
  5
9D8
  8
OBJECT
 10
4.9323059230517314
 20
7.3647176241956851
 30
0.0
 40
0.093
  0
CIRCLE
  5
9D9
  8
OBJECT
 10
4.9323059230517314
 20
7.3647176241956851
 30
0.0
 40
0.0455
  0
CIRCLE
  5
9DA
  8
OBJECT
 10
4.9323059230517314
 20
5.5167176241956808
 30
0.0
 40
0.093
  0
ARC
  5
9DB
  8
OBJECT
 10
4.9323059230517314
 20
5.5167176241956808
 30
0.0
 40
0.106
 50
332.00486059183959
 51
297.99513940816172
  0
CIRCLE
  5
9DC
  8
OBJECT
 10
4.9323059230517314
 20
5.5167176241956808
 30
0.0
 40
0.0455
  0
LINE
  5
9DD
  8
OBJECT
 10
5.061510568477245
 20
5.3436723583366037
 30
0.0
 11
4.9723856128349491
 21
5.4327973139788979
 31
0.0
  0
LINE
  5
9DE
  8
OBJECT
 10
5.1053511889108121
 20
5.3875129787701681
 30
0.0
 11
5.0162262332685126
 21
5.4766379344124649
 31
0.0
  0
LINE
  5
9DF
  8
HIDDEN
 10
8.1447330439964993
 20
5.3284297659567352
 30
0.0
 11
8.1447330439965064
 21
7.5530054824346298
 31
0.0
  0
LINE
  5
9E0
  8
OBJECT
 10
8.1197330439964972
 20
5.1704663840409291
 30
0.0
 11
8.1197330439964972
 21
7.7109688643504439
 31
0.0
  0
LINE
  5
9E1
  8
HIDDEN
 10
7.4097330439964963
 20
5.4237176241956808
 30
0.0
 11
8.1447330439964993
 21
5.4108881514734444
 31
0.0
  0
LINE
  5
9E2
  8
HIDDEN
 10
7.4097330439964963
 20
5.4712176241956838
 30
0.0
 11
7.9097330439964963
 21
5.4712176241956838
 31
0.0
  0
LINE
  5
9E3
  8
HIDDEN
 10
7.4097330439964963
 20
5.5622176241956804
 30
0.0
 11
7.9097330439964963
 21
5.5622176241956804
 31
0.0
  0
LINE
  5
9E4
  8
HIDDEN
 10
7.4097330439964963
 20
5.6097176241956843
 30
0.0
 11
8.1447330439964993
 21
5.6225470969179208
 31
0.0
  0
LINE
  5
9E5
  8
HIDDEN
 10
7.3447330439964968
 20
5.2907176241956861
 30
0.0
 11
8.1140035665969528
 21
5.2974309463417439
 31
0.0
  0
ARC
  5
9E6
  8
HIDDEN
 10
8.1137330439964988
 20
5.328429765956737
 30
0.0
 40
0.031
 50
270.5
 51
359.99999999999977
  0
LINE
  5
9E7
  8
HIDDEN
 10
7.9147330439964971
 20
5.6592176241956809
 30
0.0
 11
8.1447330439964993
 21
5.6552029592621924
 31
0.0
  0
LINE
  5
9E8
  8
HIDDEN
 10
7.9147330439964971
 20
5.7077176241956833
 30
0.0
 11
8.1447330439964993
 21
5.7077176241956833
 31
0.0
  0
LINE
  5
9E9
  8
HIDDEN
 10
7.9147330439964971
 20
5.7987176241956844
 30
0.0
 11
8.1447330439964993
 21
5.7987176241956844
 31
0.0
  0
LINE
  5
9EA
  8
HIDDEN
 10
7.9147330439964971
 20
5.8472176241956841
 30
0.0
 11
8.1447330439964993
 21
5.8512322891291744
 31
0.0
  0
LINE
  5
9EB
  8
HIDDEN
 10
7.9147330439964971
 20
5.6592176241956862
 30
0.0
 11
7.9147330439964971
 21
5.8472176241956841
 31
0.0
  0
LINE
  5
9EC
  8
HIDDEN
 10
7.9097330439964963
 20
5.471217624195682
 30
0.0
 11
7.9097330439964963
 21
5.5622176241956804
 31
0.0
  0
LINE
  5
9ED
  8
HIDDEN
 10
7.4697330439964968
 20
5.2918084826695271
 30
0.0
 11
7.4697330439964968
 21
5.4226703202999902
 31
0.0
  0
LINE
  5
9EE
  8
HIDDEN
 10
7.4097330439964963
 20
5.4237176241956782
 30
0.0
 11
7.4097330439964963
 21
5.6097176241956843
 31
0.0
  0
LINE
  5
9EF
  8
HIDDEN
 10
7.4097330439964963
 20
7.2717176241956833
 30
0.0
 11
8.1447330439964993
 21
7.258888151473446
 31
0.0
  0
LINE
  5
9F0
  8
HIDDEN
 10
7.4097330439964963
 20
7.4577176241956833
 30
0.0
 11
8.1447330439964993
 21
7.4705470969179206
 31
0.0
  0
LINE
  5
9F1
  8
HIDDEN
 10
7.4097330439964963
 20
7.3192176241956863
 30
0.0
 11
7.9097330439964963
 21
7.3192176241956863
 31
0.0
  0
LINE
  5
9F2
  8
HIDDEN
 10
7.4097330439964963
 20
7.4102176241956812
 30
0.0
 11
7.9097330439964963
 21
7.4102176241956812
 31
0.0
  0
LINE
  5
9F3
  8
HIDDEN
 10
7.3447330439964968
 20
7.5907176241956789
 30
0.0
 11
8.1140035665969528
 21
7.5840043020496211
 31
0.0
  0
LINE
  5
9F4
  8
HIDDEN
 10
7.9147330439964971
 20
7.0342176241956818
 30
0.0
 11
8.1447330439964993
 21
7.0302029592621933
 31
0.0
  0
LINE
  5
9F5
  8
HIDDEN
 10
7.9147330439964971
 20
7.0827176241956842
 30
0.0
 11
8.1447330439964993
 21
7.0827176241956842
 31
0.0
  0
LINE
  5
9F6
  8
HIDDEN
 10
7.9147330439964971
 20
7.2222176241956841
 30
0.0
 11
8.1447330439964993
 21
7.2262322891291744
 31
0.0
  0
LINE
  5
9F7
  8
HIDDEN
 10
7.9147330439964971
 20
7.1737176241956844
 30
0.0
 11
8.1447330439964993
 21
7.1737176241956844
 31
0.0
  0
LINE
  5
9F8
  8
HIDDEN
 10
7.9147330439964971
 20
7.2222176241956806
 30
0.0
 11
7.9147330439964971
 21
7.0342176241956818
 31
0.0
  0
ARC
  5
9F9
  8
HIDDEN
 10
8.1137330439964988
 20
7.5530054824346298
 30
0.0
 40
0.031
 50
359.99999999999977
 51
89.500000000000128
  0
LINE
  5
9FA
  8
HIDDEN
 10
7.9097330439964963
 20
7.4102176241956839
 30
0.0
 11
7.9097330439964963
 21
7.3192176241956863
 31
0.0
  0
LINE
  5
9FB
  8
HIDDEN
 10
7.4097330439964963
 20
7.4577176241956851
 30
0.0
 11
7.4097330439964963
 21
7.2717176241956833
 31
0.0
  0
LINE
  5
9FC
  8
HIDDEN
 10
7.4697330439964968
 20
7.5896267657218379
 30
0.0
 11
7.4697330439964968
 21
7.4587649280913739
 31
0.0
  0
POINT
  5
9FD
  8
HIDDEN
 10
7.9097330439964963
 20
5.5622176241956804
 30
0.0
  0
POINT
  5
9FE
  8
HIDDEN
 10
7.4097330439964963
 20
5.6097176241956843
 30
0.0
  0
CIRCLE
  5
9FF
  8
OBJECT
 10
4.6958059230517311
 20
7.1282176241956829
 30
0.0
 40
0.098
  0
CIRCLE
  5
A00
  8
OBJECT
 10
4.6958059230517311
 20
7.1282176241956829
 30
0.0
 40
0.0455
  0
CIRCLE
  5
A01
  8
OBJECT
 10
4.6958059230517311
 20
7.1282176241956829
 30
0.0
 40
0.094
  0
CIRCLE
  5
A02
  8
OBJECT
 10
4.6958059230517311
 20
5.75321762419569
 30
0.0
 40
0.094
  0
CIRCLE
  5
A03
  8
OBJECT
 10
4.6958059230517311
 20
5.75321762419569
 30
0.0
 40
0.0455
  0
CIRCLE
  5
A04
  8
OBJECT
 10
4.6958059230517311
 20
5.75321762419569
 30
0.0
 40
0.098
  0
CIRCLE
  5
A05
  8
OBJECT
 10
3.3208059230517311
 20
5.75321762419569
 30
0.0
 40
0.098
  0
CIRCLE
  5
A06
  8
OBJECT
 10
3.3208059230517311
 20
5.75321762419569
 30
0.0
 40
0.0455
  0
CIRCLE
  5
A07
  8
OBJECT
 10
3.3208059230517311
 20
5.75321762419569
 30
0.0
 40
0.094
  0
POLYLINE
  5
A08
  8
OBJECT
 66
     1
 10
0.0
 20
0.0
 30
0.0
  0
VERTEX
  5
1046
  8
OBJECT
 10
5.153557163206492
 20
2.718821331125949
 30
0.0
 42
0.421902443421345
  0
VERTEX
  5
1047
  8
OBJECT
 10
5.2785143288284351
 20
2.847093449664432
 30
0.0
  0
VERTEX
  5
1048
  8
OBJECT
 10
5.2583059230517311
 20
3.6188213311259512
 30
0.0
  0
VERTEX
  5
1049
  8
OBJECT
 10
2.7583059230517351
 20
3.6188213311259512
 30
0.0
  0
VERTEX
  5
104A
  8
OBJECT
 10
2.7380975172750301
 20
2.8470934496644351
 30
0.0
 42
0.4219024434213459
  0
VERTEX
  5
104B
  8
OBJECT
 10
2.863054682896975
 20
2.7188213311259521
 30
0.0
 42
0.4219024434213459
  0
SEQEND
  5
104C
  8
OBJECT
  0
POLYLINE
  5
A10
  8
OBJECT
 66
     1
 10
0.0
 20
0.0
 30
0.0
 70
     1
  0
VERTEX
  5
104D
  8
OBJECT
 10
7.3447330439964968
 20
5.1907176241956838
 30
0.0
  0
VERTEX
  5
104E
  8
OBJECT
 10
8.1164609254580196
 20
5.1705092184189807
 30
0.0
 42
0.4219024434213459
  0
VERTEX
  5
104F
  8
OBJECT
 10
8.2447330439964972
 20
5.2954663840409291
 30
0.0
  0
VERTEX
  5
1050
  8
OBJECT
 10
8.2447330439964972
 20
7.5859688643504439
 30
0.0
 42
0.4219024434213451
  0
VERTEX
  5
1051
  8
OBJECT
 10
8.1164609254580196
 20
7.7109260299723861
 30
0.0
  0
VERTEX
  5
1052
  8
OBJECT
 10
7.3447330439964968
 20
7.6907176241956883
 30
0.0
  0
SEQEND
  5
1053
  8
OBJECT
  0
DIMENSION
  5
A18
  8
DIM
  2
*D1
 10
5.2583059230517311
 20
4.1861174824766119
 30
0.0
 11
4.0083059230517319
 21
4.1861174824766119
 31
0.0
 70
     0
  1
F
 13
2.7583059230517351
 23
3.6188213311259512
 33
0.0
 14
5.2583059230517311
 24
3.6188213311259512
 34
0.0
  0
DIMENSION
  5
A26
  8
DIM
  2
*D2
 10
2.858305923051736
 20
3.9046305446069911
 30
0.0
 11
3.4567434230517362
 21
3.9046305446069911
 31
0.0
 70
     0
 13
2.7583059230517351
 23
3.6188213311259512
 33
0.0
 14
2.858305923051736
 24
3.6188213311259512
 34
0.0
  0
DIMENSION
  5
A34
  8
DIM
  2
*D3
 10
4.9323059230517314
 20
8.2859440195440577
 30
0.0
 11
4.0083059230517311
 21
8.2859440195440577
 31
0.0
 70
     0
  1
C
 13
3.084305923051732
 23
7.3647176241956851
 33
0.0
 14
4.9323059230517314
 24
7.3647176241956851
 34
0.0
  0
DIMENSION
  5
A42
  8
DIM
  2
*D4
 10
2.5083059230517319
 20
8.5508412000583576
 30
0.0
 11
4.0083059230517311
 21
8.5508412000583576
 31
0.0
 70
     0
  1
B
 13
5.5083059230517293
 23
6.4407176241956829
 33
0.0
 14
2.5083059230517319
 24
6.4407176241956829
 34
0.0
  0
DIMENSION
  5
A50
  8
DIM
  2
*D5
 10
5.7583059230517444
 20
8.8044202423266622
 30
0.0
 11
4.0083059230517346
 21
8.8044202423266622
 31
0.0
 70
     0
  1
A
 13
2.2583059230517262
 23
6.9357270704961689
 33
0.0
 14
5.7583059230517444
 24
6.9357270704961671
 34
0.0
  0
DIMENSION
  5
A5E
  8
DIM
  2
*D6
 10
2.2583059230517262
 20
8.5508412000583576
 30
0.0
 11
1.636430923051726
 21
8.5508412000583576
 31
0.0
 70
     0
 13
2.5083059230517319
 23
6.4407176241956829
 33
0.0
 14
2.2583059230517262
 24
6.9357270704961689
 34
0.0
  0
DIMENSION
  5
A6C
  8
DIM
  2
*D7
 10
6.5080009829034111
 20
5.5167176241956799
 30
0.0
 11
6.5080009829034102
 21
6.4407176241956838
 31
0.0
 70
     0
  1
K
 13
4.9323059230517314
 23
7.3647176241956851
 33
0.0
 14
4.9323059230517314
 24
5.5167176241956808
 34
0.0
 50
90.0
  0
DIMENSION
  5
A7A
  8
DIM
  2
*D8
 10
6.969549681621368
 20
7.6907176241956883
 30
0.0
 11
6.9695496816213671
 21
6.4407176241956883
 31
0.0
 70
     0
  1
H
 13
7.3447330439964968
 23
5.1907176241956838
 33
0.0
 14
7.3447330439964968
 24
7.6907176241956883
 34
0.0
 50
90.0
  0
DIMENSION
  5
A88
  8
DIM
  2
*D9
 10
8.2447330439964972
 20
8.003213284378031
 30
0.0
 11
8.8431705439964983
 21
8.003213284378031
 31
0.0
 70
     0
 13
8.1447330439965064
 23
7.5530054824346298
 33
0.0
 14
8.2447330439964972
 24
7.5859688643504439
 34
0.0
  0
DIMENSION
  5
A96
  8
DIM
  2
*D10
 10
8.5982161407309441
 20
5.1704663840409291
 30
0.0
 11
8.5982161407309423
 21
6.4407176241956874
 31
0.0
 70
     0
  1
J
 13
8.1197330439964972
 23
7.7109688643504439
 33
0.0
 14
8.1197330439964972
 24
5.1704663840409291
 34
0.0
 50
90.0
  0
DIMENSION
  5
AA4
  8
DIM
  2
*D11
 10
3.7692121779245991
 20
2.8188213311259491
 30
0.0
 11
3.3273371779245982
 21
2.458821331125951
 31
0.0
 70
     0
 13
3.4148059230517318
 23
3.0488213311259491
 33
0.0
 14
3.7175343602798172
 24
2.8188213311259491
 34
0.0
 50
90.0
  0
DIMENSION
  5
AB2
  8
DIM
  2
*D12
 10
4.3229702700375521
 20
3.553821331125949
 30
0.0
 11
4.3229702700375512
 21
3.1863213311259488
 31
0.0
 70
     0
  1
P
 13
4.3826613960117902
 23
2.8188213311259491
 33
0.0
 14
4.8393059230517297
 24
3.553821331125949
 34
0.0
 50
90.0
  0
DIMENSION
  5
ABF
  8
DIM
  2
*D13
 10
6.5004505263908978
 20
3.6188213311259512
 30
0.0
 11
6.9423255263908974
 21
3.978821331125951
 31
0.0
 70
     0
  1
0.062
 13
5.0253059230517314
 23
3.553821331125949
 33
0.0
 14
5.2583059230517311
 24
3.6188213311259512
 34
0.0
 50
90.0
  0
TEXT
  5
ACD
  8
DIM
 10
1.3174162833618119
 20
5.3722790577706681
 30
0.0
 40
0.125
  1
0.188 DIA.
 41
0.75
  7
TXT
 72
     2
 11
2.0205412833618119
 21
5.4347790577706681
 31
0.0
 73
     2
  0
TEXT
  5
ACE
  8
DIM
 10
1.2705412833618119
 20
5.1639457244373332
 30
0.0
 40
0.125
  1
(2) HOLES
 41
0.75
  7
TXT
 72
     2
 11
2.0205412833618119
 21
5.2264457244373332
 31
0.0
 73
     2
  0
POLYLINE
  5
ACF
  8
DIM
 66
     1
 10
0.0
 20
0.0
 30
0.0
 41
0.0675
  0
VERTEX
  5
1054
  8
DIM
 10
4.9515384731744261
 20
5.5579235330895829
 30
0.0
  0
VERTEX
  5
1055
  8
DIM
 10
5.0320592120235981
 20
5.7189092797107781
 30
0.0
 41
0.0
  0
VERTEX
  5
1056
  8
DIM
 10
5.0795642072471363
 20
5.8138863903732014
 30
0.0
 41
0.0
  0
VERTEX
  5
1057
  8
DIM
 10
5.8369942420375507
 20
4.9399997398564883
 30
0.0
 41
0.0
  0
VERTEX
  5
1058
  8
DIM
 10
6.0169942420375513
 20
4.9399997398564883
 30
0.0
 41
0.0
  0
SEQEND
  5
1059
  8
DIM
  0
TEXT
  5
AD6
  8
DIM
 10
6.106994242037552
 20
4.8774997398564883
 30
0.0
 40
0.125
  1
0.091 DIA. HOLE x 0.500 DEEP
 41
0.75
  7
TXT
 11
6.106994242037552
 21
4.9399997398564883
 31
0.0
 73
     2
  0
TEXT
  5
AD7
  8
DIM
 10
6.106994242037552
 20
4.6691664065231562
 30
0.0
 40
0.125
  1
(4) PLACES
 41
0.75
  7
TXT
 11
6.106994242037552
 21
4.7316664065231562
 31
0.0
 73
     2
  0
POLYLINE
  5
AD8
  8
DIM
 66
     1
 10
0.0
 20
0.0
 30
0.0
 41
0.0675
  0
VERTEX
  5
105A
  8
DIM
 10
4.7178589516328193
 20
5.711513014460655
 30
0.0
  0
VERTEX
  5
105B
  8
DIM
 10
4.7679368077788071
 20
5.5386193814841294
 30
0.0
 41
0.0
  0
VERTEX
  5
105C
  8
DIM
 10
5.0612000370820036
 20
4.4885551708347231
 30
0.0
 41
0.0
  0
VERTEX
  5
105D
  8
DIM
 10
5.2412000370820051
 20
4.4885551708347231
 30
0.0
 41
0.0
  0
SEQEND
  5
105E
  8
DIM
  0
TEXT
  5
ADE
  8
DIM
 10
5.3312000370820041
 20
4.4260551708347231
 30
0.0
 40
0.125
  1
0.091 DIA. HOLE x 0.230 DEEP
 41
0.75
  7
TXT
 11
5.3312000370820041
 21
4.4885551708347231
 31
0.0
 73
     2
  0
TEXT
  5
ADF
  8
DIM
 10
5.3312000370820041
 20
4.2177218375013892
 30
0.0
 40
0.125
  1
(4) PLACES
 41
0.75
  7
TXT
 11
5.3312000370820041
 21
4.2802218375013892
 31
0.0
 73
     2
  0
POLYLINE
  5
AE0
  8
OBJECT
  6
PHANTOM
 66
     1
 10
0.0
 20
0.0
 30
0.0
  0
VERTEX
  5
105F
  8
OBJECT
  6
PHANTOM
 10
2.846865125029109
 20
5.2792768261916718
 30
0.0
  0
VERTEX
  5
1060
  8
OBJECT
  6
PHANTOM
 10
2.3133698481886542
 20
5.8127721030321311
 30
0.0
 42
-0.1989123673796582
  0
VERTEX
  5
1061
  8
OBJECT
  6
PHANTOM
 10
2.2583059230517262
 20
5.945708177895205
 30
0.0
  0
VERTEX
  5
1062
  8
OBJECT
  6
PHANTOM
 10
2.2583059230517231
 20
6.9357270704961689
 30
0.0
 42
-0.1989123673796566
  0
VERTEX
  5
1063
  8
OBJECT
  6
PHANTOM
 10
2.3133698481886542
 20
7.0686631453592401
 30
0.0
  0
VERTEX
  5
1064
  8
OBJECT
  6
PHANTOM
 10
2.846865125029109
 20
7.6021584221996941
 30
0.0
  0
SEQEND
  5
1065
  8
OBJECT
  6
PHANTOM
  0
POLYLINE
  5
AE8
  8
OBJECT
  6
PHANTOM
 66
     1
 10
0.0
 20
0.0
 30
0.0
  0
VERTEX
  5
1066
  8
OBJECT
  6
PHANTOM
 10
5.1697467210743548
 20
7.6021584221996941
 30
0.0
  0
VERTEX
  5
1067
  8
OBJECT
  6
PHANTOM
 10
5.7032419979148079
 20
7.0686631453592401
 30
0.0
 42
-0.1989123673796566
  0
VERTEX
  5
1068
  8
OBJECT
  6
PHANTOM
 10
5.7583059230517444
 20
6.9357270704961671
 30
0.0
  0
VERTEX
  5
1069
  8
OBJECT
  6
PHANTOM
 10
5.7583059230517391
 20
5.9457081778952032
 30
0.0
 42
-0.1989123673796582
  0
VERTEX
  5
106A
  8
OBJECT
  6
PHANTOM
 10
5.7032419979148079
 20
5.812772103032132
 30
0.0
  0
VERTEX
  5
106B
  8
OBJECT
  6
PHANTOM
 10
5.1697467210743548
 20
5.2792768261916718
 30
0.0
  0
SEQEND
  5
106C
  8
OBJECT
  6
PHANTOM
  0
POLYLINE
  5
AF0
  8
OBJECT
 66
     1
 10
0.0
 20
0.0
 30
0.0
 70
     1
  0
VERTEX
  5
106D
  8
OBJECT
 10
2.8583059230517311
 20
7.3397176241956821
 30
0.0
  0
VERTEX
  5
106E
  8
OBJECT
 10
2.8583059230517311
 20
5.541717624195682
 30
0.0
 42
0.4142135623730944
  0
VERTEX
  5
106F
  8
OBJECT
 10
3.109305923051727
 20
5.2907176241956817
 30
0.0
  0
VERTEX
  5
1070
  8
OBJECT
 10
4.9073059230517311
 20
5.2907176241956817
 30
0.0
 42
0.4142135623730951
  0
VERTEX
  5
1071
  8
OBJECT
 10
5.1583059230517341
 20
5.5417176241956829
 30
0.0
  0
VERTEX
  5
1072
  8
OBJECT
 10
5.1583059230517341
 20
7.3397176241956821
 30
0.0
 42
0.4142135623730957
  0
VERTEX
  5
1073
  8
OBJECT
 10
4.9073059230517364
 20
7.5907176241956851
 30
0.0
  0
VERTEX
  5
1074
  8
OBJECT
 10
3.109305923051727
 20
7.5907176241956851
 30
0.0
 42
0.4142135623730952
  0
SEQEND
  5
1075
  8
OBJECT
  0
POLYLINE
  5
AFA
  8
OBJECT
 66
     1
 10
0.0
 20
0.0
 30
0.0
 70
     1
  0
VERTEX
  5
1076
  8
OBJECT
 10
2.7583059230517262
 20
5.541717624195682
 30
0.0
 42
0.4142135623730944
  0
VERTEX
  5
1077
  8
OBJECT
 10
3.109305923051727
 20
5.1907176241956812
 30
0.0
  0
VERTEX
  5
1078
  8
OBJECT
 10
4.9073059230517311
 20
5.1907176241956838
 30
0.0
 42
0.4142135623730951
  0
VERTEX
  5
1079
  8
OBJECT
 10
5.2583059230517319
 20
5.5417176241956829
 30
0.0
  0
VERTEX
  5
107A
  8
OBJECT
 10
5.2583059230517346
 20
7.3397176241956821
 30
0.0
 42
0.4142135623730957
  0
VERTEX
  5
107B
  8
OBJECT
 10
4.9073059230517364
 20
7.6907176241956821
 30
0.0
  0
VERTEX
  5
107C
  8
OBJECT
 10
3.109305923051727
 20
7.6907176241956821
 30
0.0
 42
0.4142135623730952
  0
VERTEX
  5
107D
  8
OBJECT
 10
2.7583059230517262
 20
7.3397176241956821
 30
0.0
  0
SEQEND
  5
107E
  8
OBJECT
  0
POLYLINE
  5
B04
  8
OBJECT
 66
     1
 10
0.0
 20
0.0
 30
0.0
 70
     1
  0
VERTEX
  5
107F
  8
OBJECT
 10
3.109097517275031
 20
7.7107176241956834
 30
0.0
  0
VERTEX
  5
1080
  8
OBJECT
 10
4.9075143288284364
 20
7.7107176241956834
 30
0.0
 42
-0.4142135623730957
  0
VERTEX
  5
1081
  8
OBJECT
 10
5.2785143288284351
 20
7.3397176241956821
 30
0.0
  0
VERTEX
  5
1082
  8
OBJECT
 10
5.2785143288284324
 20
5.5417176241956829
 30
0.0
 42
-0.4142135623730951
  0
VERTEX
  5
1083
  8
OBJECT
 10
4.9075143288284311
 20
5.1707176241956807
 30
0.0
  0
VERTEX
  5
1084
  8
OBJECT
 10
3.109097517275031
 20
5.1707176241956807
 30
0.0
 42
-0.4142135623730951
  0
VERTEX
  5
1085
  8
OBJECT
 10
2.7380975172750341
 20
5.5417176241956829
 30
0.0
  0
VERTEX
  5
1086
  8
OBJECT
 10
2.7380975172750341
 20
7.3397176241956821
 30
0.0
 42
-0.4142135623730951
  0
SEQEND
  5
1087
  8
OBJECT
  0
DIMENSION
  5
B0E
  8
DIM
  2
*D14
 10
6.1442145125155641
 20
2.718821331125949
 30
0.0
 11
5.7101520125155627
 21
2.35882133112595
 31
0.0
 70
     0
 13
5.7583059230517364
 23
2.8438213311259521
 33
0.0
 14
5.6333059230517293
 24
2.718821331125949
 34
0.0
 50
90.0
  0
DIMENSION
  5
B1C
  8
DIM
  2
*D15
 10
1.9387870608635991
 20
2.718821331125949
 30
0.0
 11
1.938787060863598
 21
3.1688213311259501
 31
0.0
 70
     0
  1
N
 13
2.7583059230517351
 23
3.6188213311259512
 33
0.0
 14
2.3833059230517311
 24
2.718821331125949
 34
0.0
 50
90.0
  0
DIMENSION
  5
B2A
  8
DIM
  2
*D16
 10
2.738054682896975
 20
2.3383135701145621
 30
0.0
 11
4.0083059230517319
 21
2.3383135701145621
 31
0.0
 70
     0
  1
G
 13
5.2785571632064894
 23
2.843821331125949
 33
0.0
 14
2.738054682896975
 24
2.8438213311259521
 34
0.0
  0
LINE
  5
B38
  8
HIDDEN
 10
8.1197330439964936
 20
6.3467176241956818
 30
0.0
 11
8.2447330439964972
 21
6.3357815412549439
 31
0.0
  0
LINE
  5
B39
  8
HIDDEN
 10
8.1197330439964936
 20
6.5347176241956841
 30
0.0
 11
8.2447330439964972
 21
6.5456537071364203
 31
0.0
  0
CIRCLE
  5
B3A
  8
OBJECT
 10
3.084305923051732
 20
11.499752862138561
 30
0.0
 40
0.125
  0
CIRCLE
  5
B3B
  8
OBJECT
 10
3.084305923051732
 20
11.499752862138561
 30
0.0
 40
0.0575
  0
CIRCLE
  5
B3C
  8
OBJECT
 10
4.9323059230517314
 20
11.499752862138561
 30
0.0
 40
0.0575
  0
CIRCLE
  5
B3D
  8
OBJECT
 10
4.9323059230517314
 20
11.499752862138561
 30
0.0
 40
0.125
  0
CIRCLE
  5
B3E
  8
OBJECT
 10
3.084305923051732
 20
13.347752862138551
 30
0.0
 40
0.0575
  0
CIRCLE
  5
B3F
  8
OBJECT
 10
3.084305923051732
 20
13.347752862138551
 30
0.0
 40
0.125
  0
CIRCLE
  5
B40
  8
OBJECT
 10
4.9323059230517314
 20
13.347752862138551
 30
0.0
 40
0.125
  0
CIRCLE
  5
B41
  8
OBJECT
 10
4.9323059230517314
 20
13.347752862138551
 30
0.0
 40
0.0575
  0
LINE
  5
B42
  8
HIDDEN
 10
3.0265421080066881
 20
10.386407718642531
 30
0.0
 11
3.141542108006687
 21
10.386407718642531
 31
0.0
  0
LINE
  5
B43
  8
HIDDEN
 10
3.209042108006686
 20
10.44508457344511
 30
0.0
 11
2.959042108006686
 21
10.44508457344511
 31
0.0
  0
LINE
  5
B44
  8
HIDDEN
 10
3.0265421080066881
 20
10.386407718642531
 30
0.0
 11
3.0265421080066881
 21
10.315084573445111
 31
0.0
  0
LINE
  5
B45
  8
HIDDEN
 10
2.959042108006686
 20
10.47808457344513
 30
0.0
 11
2.959042108006686
 21
10.44508457344511
 31
0.0
  0
LINE
  5
B46
  8
HIDDEN
 10
2.9250421080066871
 20
10.47808457344513
 30
0.0
 11
2.9250421080066871
 21
10.468084573445109
 31
0.0
  0
LINE
  5
B47
  8
HIDDEN
 10
2.8940421080066878
 20
10.47808457344513
 30
0.0
 11
2.8940421080066878
 21
10.468084573445109
 31
0.0
  0
LINE
  5
B48
  8
HIDDEN
 10
2.9250421080066871
 20
10.468084573445109
 30
0.0
 11
2.8940421080066878
 21
10.468084573445109
 31
0.0
  0
LINE
  5
B49
  8
HIDDEN
 10
3.0265421080066881
 20
10.386407718642531
 30
0.0
 11
2.959042108006686
 21
10.44508457344511
 31
0.0
  0
LINE
  5
B4A
  8
HIDDEN
 10
3.209042108006686
 20
10.478084573445109
 30
0.0
 11
3.209042108006686
 21
10.44508457344512
 31
0.0
  0
LINE
  5
B4B
  8
HIDDEN
 10
3.141542108006687
 20
10.386407718642531
 30
0.0
 11
3.141542108006683
 21
10.315084573445111
 31
0.0
  0
LINE
  5
B4C
  8
HIDDEN
 10
3.141542108006687
 20
10.386407718642531
 30
0.0
 11
3.209042108006686
 21
10.44508457344511
 31
0.0
  0
LINE
  5
B4D
  8
HIDDEN
 10
6.1669879016450011
 20
11.624489047093521
 30
0.0
 11
6.1669879016450011
 21
11.374489047093521
 31
0.0
  0
LINE
  5
B4E
  8
HIDDEN
 10
6.2256647564475971
 20
11.441989047093511
 30
0.0
 11
6.2256647564475971
 21
11.556989047093509
 31
0.0
  0
LINE
  5
B4F
  8
HIDDEN
 10
6.2256647564475971
 20
11.441989047093511
 30
0.0
 11
6.1669879016450011
 21
11.374489047093521
 31
0.0
  0
LINE
  5
B50
  8
HIDDEN
 10
6.1439879016450041
 20
11.34048904709352
 30
0.0
 11
6.1439879016450041
 21
11.309489047093511
 31
0.0
  0
LINE
  5
B51
  8
HIDDEN
 10
6.1339879016450007
 20
11.309489047093511
 30
0.0
 11
6.1439879016450041
 21
11.309489047093511
 31
0.0
  0
LINE
  5
B52
  8
HIDDEN
 10
6.1339879016450007
 20
11.34048904709352
 30
0.0
 11
6.1439879016450041
 21
11.34048904709352
 31
0.0
  0
LINE
  5
B53
  8
HIDDEN
 10
6.1339879016450007
 20
11.374489047093521
 30
0.0
 11
6.1669879016450011
 21
11.374489047093521
 31
0.0
  0
LINE
  5
B54
  8
HIDDEN
 10
6.2256647564475971
 20
11.441989047093511
 30
0.0
 11
6.2969879016450063
 21
11.441989047093511
 31
0.0
  0
LINE
  5
B55
  8
HIDDEN
 10
6.2256647564475971
 20
11.556989047093509
 30
0.0
 11
6.1669879016450011
 21
11.624489047093521
 31
0.0
  0
LINE
  5
B56
  8
HIDDEN
 10
6.1339879016450061
 20
11.624489047093521
 30
0.0
 11
6.1669879016450011
 21
11.624489047093521
 31
0.0
  0
LINE
  5
B57
  8
HIDDEN
 10
6.2256647564475971
 20
11.556989047093509
 30
0.0
 11
6.296987901645001
 21
11.5569890470935
 31
0.0
  0
LINE
  5
B58
  8
HIDDEN
 10
6.1669879016450011
 20
13.223016677183599
 30
0.0
 11
6.1669879016450011
 21
13.473016677183599
 31
0.0
  0
LINE
  5
B59
  8
HIDDEN
 10
6.2256647564475971
 20
13.4055166771836
 30
0.0
 11
6.1669879016450011
 21
13.473016677183599
 31
0.0
  0
LINE
  5
B5A
  8
HIDDEN
 10
6.2256647564475971
 20
13.2905166771836
 30
0.0
 11
6.1669879016450011
 21
13.223016677183599
 31
0.0
  0
LINE
  5
B5B
  8
HIDDEN
 10
6.1339879016450061
 20
13.223016677183599
 30
0.0
 11
6.1669879016450011
 21
13.223016677183599
 31
0.0
  0
LINE
  5
B5C
  8
HIDDEN
 10
6.2256647564475971
 20
13.4055166771836
 30
0.0
 11
6.2256647564475971
 21
13.2905166771836
 31
0.0
  0
LINE
  5
B5D
  8
HIDDEN
 10
6.2256647564475971
 20
13.2905166771836
 30
0.0
 11
6.296987901645001
 21
13.2905166771836
 31
0.0
  0
LINE
  5
B5E
  8
HIDDEN
 10
6.2256647564475971
 20
13.4055166771836
 30
0.0
 11
6.2969879016450063
 21
13.4055166771836
 31
0.0
  0
LINE
  5
B5F
  8
HIDDEN
 10
6.1439879016450041
 20
13.5070166771836
 30
0.0
 11
6.1439879016450041
 21
13.53801667718359
 31
0.0
  0
LINE
  5
B60
  8
HIDDEN
 10
6.1339879016450007
 20
13.5070166771836
 30
0.0
 11
6.1439879016450041
 21
13.5070166771836
 31
0.0
  0
LINE
  5
B61
  8
HIDDEN
 10
6.1339879016450007
 20
13.53801667718359
 30
0.0
 11
6.1439879016450041
 21
13.53801667718359
 31
0.0
  0
LINE
  5
B62
  8
HIDDEN
 10
6.1339879016450007
 20
13.473016677183599
 30
0.0
 11
6.1669879016450011
 21
13.473016677183599
 31
0.0
  0
POINT
  5
B63
  8
HIDDEN
 10
2.959042108006686
 20
10.44508457344511
 30
0.0
  0
POINT
  5
B64
  8
HIDDEN
 10
3.0265421080066881
 20
10.386407718642531
 30
0.0
  0
TEXT
  5
B65
  8
0
 10
21.33169046588549
 20
25.750867648794191
 30
0.0
 40
0.125
  1

  0
TEXT
  5
B66
  8
0
 10
21.33169046588549
 20
25.550066148112052
 30
0.0
 40
0.125
  1

  0
POINT
  5
B67
  8
HIDDEN
 10
6.1439879016450041
 20
13.53801667718359
 30
0.0
  0
LINE
  5
B68
  8
HIDDEN
 10
4.8750697380967747
 20
10.386407718642531
 30
0.0
 11
4.8075697380967748
 21
10.44508457344511
 31
0.0
  0
LINE
  5
B69
  8
HIDDEN
 10
4.8075697380967748
 20
10.44508457344511
 30
0.0
 11
5.0575697380967748
 21
10.44508457344511
 31
0.0
  0
LINE
  5
B6A
  8
HIDDEN
 10
4.990069738096774
 20
10.386407718642531
 30
0.0
 11
5.0575697380967748
 21
10.44508457344511
 31
0.0
  0
POINT
  5
B6B
  8
HIDDEN
 10
5.0575697380967748
 20
10.44508457344511
 30
0.0
  0
LINE
  5
B6C
  8
HIDDEN
 10
5.0915697380967746
 20
10.468084573445109
 30
0.0
 11
5.1225697380967743
 21
10.468084573445109
 31
0.0
  0
LINE
  5
B6D
  8
HIDDEN
 10
5.1225697380967743
 20
10.47808457344513
 30
0.0
 11
5.1225697380967743
 21
10.468084573445109
 31
0.0
  0
LINE
  5
B6E
  8
HIDDEN
 10
5.0915697380967746
 20
10.47808457344513
 30
0.0
 11
5.0915697380967746
 21
10.468084573445109
 31
0.0
  0
LINE
  5
B6F
  8
HIDDEN
 10
5.0575697380967748
 20
10.47808457344513
 30
0.0
 11
5.0575697380967748
 21
10.44508457344511
 31
0.0
  0
POINT
  5
B70
  8
HIDDEN
 10
4.990069738096774
 20
10.386407718642531
 30
0.0
  0
LINE
  5
B71
  8
HIDDEN
 10
4.8750697380967747
 20
10.386407718642531
 30
0.0
 11
4.8750697380967791
 21
10.315084573445111
 31
0.0
  0
LINE
  5
B72
  8
HIDDEN
 10
4.990069738096774
 20
10.386407718642531
 30
0.0
 11
4.990069738096774
 21
10.315084573445111
 31
0.0
  0
LINE
  5
B73
  8
HIDDEN
 10
4.990069738096774
 20
10.386407718642531
 30
0.0
 11
4.8750697380967747
 21
10.386407718642531
 31
0.0
  0
LINE
  5
B74
  8
HIDDEN
 10
4.8075697380967748
 20
10.478084573445109
 30
0.0
 11
4.8075697380967748
 21
10.44508457344512
 31
0.0
  0
POLYLINE
  5
B75
  8
OBJECT
 66
     1
 10
0.0
 20
0.0
 30
0.0
 70
     1
  0
VERTEX
  5
1088
  8
OBJECT
 10
6.1339879016450007
 20
11.26648904709351
 30
0.0
 42
0.4364563201490128
  0
VERTEX
  5
1089
  8
OBJECT
 10
6.2339879016450022
 20
11.173752862138549
 30
0.0
  0
VERTEX
  5
108A
  8
OBJECT
 10
6.2339879016449951
 20
13.67375286213856
 30
0.0
 42
0.4364563201490127
  0
VERTEX
  5
108B
  8
OBJECT
 10
6.1339879016450007
 20
13.58101667718361
 30
0.0
  0
SEQEND
  5
108C
  8
OBJECT
  0
POLYLINE
  5
B7B
  8
OBJECT
 66
     1
 10
0.0
 20
0.0
 30
0.0
 70
     1
  0
VERTEX
  5
108D
  8
OBJECT
 10
2.7583059230517302
 20
10.378084573445109
 30
0.0
  0
VERTEX
  5
108E
  8
OBJECT
 10
5.2583059230517319
 20
10.378084573445109
 30
0.0
 42
0.4364563201490128
  0
VERTEX
  5
108F
  8
OBJECT
 10
5.1655697380967771
 20
10.47808457344513
 30
0.0
  0
VERTEX
  5
1090
  8
OBJECT
 10
2.851042108006685
 20
10.47808457344513
 30
0.0
 42
0.4364563201490128
  0
SEQEND
  5
1091
  8
OBJECT
  0
POLYLINE
  5
B81
  8
OBJECT
 66
     1
 10
0.0
 20
0.0
 30
0.0
  0
VERTEX
  5
1092
  8
OBJECT
 10
2.862042108006686
 20
10.378084573445131
 30
0.0
  0
VERTEX
  5
1093
  8
OBJECT
 10
2.862042108006686
 20
10.315084573445111
 30
0.0
  0
VERTEX
  5
1094
  8
OBJECT
 10
5.1545697380967761
 20
10.315084573445111
 30
0.0
  0
VERTEX
  5
1095
  8
OBJECT
 10
5.1545697380967761
 20
10.378084573445131
 30
0.0
  0
SEQEND
  5
1096
  8
OBJECT
  0
POLYLINE
  5
B87
  8
OBJECT
 66
     1
 10
0.0
 20
0.0
 30
0.0
  0
VERTEX
  5
1097
  8
OBJECT
 10
6.2339879016450022
 20
11.277489047093519
 30
0.0
  0
VERTEX
  5
1098
  8
OBJECT
 10
6.296987901645001
 20
11.277489047093519
 30
0.0
  0
VERTEX
  5
1099
  8
OBJECT
 10
6.2969879016450063
 20
13.570016677183601
 30
0.0
  0
VERTEX
  5
109A
  8
OBJECT
 10
6.2339879016450022
 20
13.570016677183601
 30
0.0
  0
SEQEND
  5
109B
  8
OBJECT
  0
POLYLINE
  5
B8D
  8
OBJECT
 66
     1
 10
0.0
 20
0.0
 30
0.0
 70
     1
  0
VERTEX
  5
109C
  8
OBJECT
 10
2.7583059230517302
 20
11.494752862138551
 30
0.0
 42
0.4142135623730949
  0
VERTEX
  5
109D
  8
OBJECT
 10
3.0793059230517281
 20
11.173752862138549
 30
0.0
  0
VERTEX
  5
109E
  8
OBJECT
 10
4.9373059230517331
 20
11.173752862138549
 30
0.0
 42
0.4142135623730949
  0
VERTEX
  5
109F
  8
OBJECT
 10
5.2583059230517319
 20
11.494752862138551
 30
0.0
  0
VERTEX
  5
10A0
  8
OBJECT
 10
5.2583059230517311
 20
13.35275286213856
 30
0.0
 42
0.414213562373095
  0
VERTEX
  5
10A1
  8
OBJECT
 10
4.9373059230517331
 20
13.67375286213856
 30
0.0
  0
VERTEX
  5
10A2
  8
OBJECT
 10
3.0793059230517281
 20
13.67375286213856
 30
0.0
 42
0.4142135623730949
  0
VERTEX
  5
10A3
  8
OBJECT
 10
2.7583059230517302
 20
13.35275286213856
 30
0.0
  0
SEQEND
  5
10A4
  8
OBJECT
  0
POLYLINE
  5
B97
  8
OBJECT
 66
     1
 10
0.0
 20
0.0
 30
0.0
 70
     1
  0
VERTEX
  5
10A5
  8
OBJECT
 10
3.5408277843524321
 20
11.309752862138559
 30
0.0
  0
VERTEX
  5
10A6
  8
OBJECT
 10
4.4757840617510301
 20
11.309752862138559
 30
0.0
 42
0.198912367379658
  0
VERTEX
  5
10A7
  8
OBJECT
 10
4.5415449924013771
 20
11.33699193148821
 30
0.0
  0
VERTEX
  5
10A8
  8
OBJECT
 10
5.095066853702078
 20
11.89051379278891
 30
0.0
 42
0.1989123673796582
  0
VERTEX
  5
10A9
  8
OBJECT
 10
5.1223059230517292
 20
11.95627472343925
 30
0.0
  0
VERTEX
  5
10AA
  8
OBJECT
 10
5.1223059230517292
 20
12.891231000837861
 30
0.0
 42
0.1989123673796582
  0
VERTEX
  5
10AB
  8
OBJECT
 10
5.095066853702078
 20
12.95699193148821
 30
0.0
  0
VERTEX
  5
10AC
  8
OBJECT
 10
4.5415449924013771
 20
13.51051379278891
 30
0.0
 42
0.198912367379658
  0
VERTEX
  5
10AD
  8
OBJECT
 10
4.4757840617510301
 20
13.53775286213855
 30
0.0
  0
VERTEX
  5
10AE
  8
OBJECT
 10
3.5408277843524321
 20
13.53775286213857
 30
0.0
 42
0.1989123673796579
  0
VERTEX
  5
10AF
  8
OBJECT
 10
3.4750668537020841
 20
13.51051379278891
 30
0.0
  0
VERTEX
  5
10B0
  8
OBJECT
 10
2.9215449924013841
 20
12.95699193148821
 30
0.0
 42
0.1989123673796582
  0
VERTEX
  5
10B1
  8
OBJECT
 10
2.894305923051733
 20
12.891231000837861
 30
0.0
  0
VERTEX
  5
10B2
  8
OBJECT
 10
2.894305923051733
 20
11.95627472343925
 30
0.0
 42
0.1989123673796582
  0
VERTEX
  5
10B3
  8
OBJECT
 10
2.9215449924013841
 20
11.89051379278891
 30
0.0
  0
VERTEX
  5
10B4
  8
OBJECT
 10
3.4750668537020841
 20
11.33699193148821
 30
0.0
 42
0.198912367379658
  0
SEQEND
  5
10B5
  8
OBJECT
  0
POLYLINE
  5
BA9
  8
OBJECT
 66
     1
 10
0.0
 20
0.0
 30
0.0
 70
     1
  0
VERTEX
  5
10B6
  8
OBJECT
 10
3.5408277843524321
 20
11.34075286213856
 30
0.0
  0
VERTEX
  5
10B7
  8
OBJECT
 10
4.4757840617510301
 20
11.34075286213856
 30
0.0
 42
0.1989123673796554
  0
VERTEX
  5
10B8
  8
OBJECT
 10
4.5196246821845962
 20
11.35891224170499
 30
0.0
  0
VERTEX
  5
10B9
  8
OBJECT
 10
5.0731465434852927
 20
11.91243410300569
 30
0.0
 42
0.1989123673796633
  0
VERTEX
  5
10BA
  8
OBJECT
 10
5.0913059230517268
 20
11.95627472343925
 30
0.0
  0
VERTEX
  5
10BB
  8
OBJECT
 10
5.0913059230517268
 20
12.891231000837861
 30
0.0
 42
0.1989123673796629
  0
VERTEX
  5
10BC
  8
OBJECT
 10
5.0731465434852927
 20
12.935071621271421
 30
0.0
  0
VERTEX
  5
10BD
  8
OBJECT
 10
4.5196246821845962
 20
13.48859348257213
 30
0.0
 42
0.1989123673796595
  0
VERTEX
  5
10BE
  8
OBJECT
 10
4.4757840617510301
 20
13.50675286213856
 30
0.0
  0
VERTEX
  5
10BF
  8
OBJECT
 10
3.5408277843524369
 20
13.506752862138571
 30
0.0
 42
0.1989123673796642
  0
VERTEX
  5
10C0
  8
OBJECT
 10
3.4969871639188672
 20
13.48859348257213
 30
0.0
  0
VERTEX
  5
10C1
  8
OBJECT
 10
2.943465302618169
 20
12.935071621271421
 30
0.0
 42
0.1989123673796633
  0
VERTEX
  5
10C2
  8
OBJECT
 10
2.925305923051734
 20
12.891231000837861
 30
0.0
  0
VERTEX
  5
10C3
  8
OBJECT
 10
2.925305923051734
 20
11.95627472343925
 30
0.0
 42
0.1989123673796629
  0
VERTEX
  5
10C4
  8
OBJECT
 10
2.943465302618169
 20
11.91243410300569
 30
0.0
  0
VERTEX
  5
10C5
  8
OBJECT
 10
3.4969871639188672
 20
11.35891224170499
 30
0.0
 42
0.1989123673796558
  0
SEQEND
  5
10C6
  8
OBJECT
  0
DIMENSION
  5
BBB
  8
DIM
  2
*D17
 10
5.2583059230517311
 20
14.003358928776381
 30
0.0
 11
4.0083059230517311
 21
14.003358928776381
 31
0.0
 70
     0
  1
F
 13
2.7583059230517302
 23
13.35275286213856
 33
0.0
 14
5.2583059230517311
 24
13.35275286213856
 34
0.0
  0
DIMENSION
  5
BC9
  8
DIM
  2
*D18
 10
5.7137648158052992
 20
13.67375286213856
 30
0.0
 11
5.7137648158052974
 21
12.42375286213856
 31
0.0
 70
     0
  1
H
 13
4.9373059230517331
 23
11.173752862138549
 33
0.0
 14
4.9373059230517331
 24
13.67375286213856
 34
0.0
 50
90.0
  0
DIMENSION
  5
BD7
  8
DIM
  2
*D19
 10
5.6810458648884152
 20
10.47808457344513
 30
0.0
 11
6.115108364888413
 21
10.83808457344513
 31
0.0
 70
     0
 13
5.1545697380967761
 23
10.315084573445111
 33
0.0
 14
5.1655697380967771
 24
10.47808457344513
 34
0.0
 50
90.0
  0
TEXT
  5
BE5
  8
TEXT
 10
0.2439867659889327
 20
14.62193710542352
 30
0.0
 40
0.125
  1
MATERIAL: ABS THERMOPLASTIC, UL94-5VA, BLACK TEXTURE
 41
0.75
  7
TXT
  0
POLYLINE
  5
BE9
  8
OBJECT
 66
     1
 10
0.0
 20
0.0
 30
0.0
 70
     1
  0
VERTEX
  5
10C7
  8
OBJECT
 10
9.4460114264089317
 20
11.494752862138551
 30
0.0
 42
-0.4142135623730949
  0
VERTEX
  5
10C8
  8
OBJECT
 10
9.1250114264089355
 20
11.173752862138549
 30
0.0
  0
VERTEX
  5
10C9
  8
OBJECT
 10
7.2670114264089269
 20
11.173752862138549
 30
0.0
 42
-0.4142135623730949
  0
VERTEX
  5
10CA
  8
OBJECT
 10
6.946011426408929
 20
11.494752862138551
 30
0.0
  0
VERTEX
  5
10CB
  8
OBJECT
 10
6.9460114264089343
 20
13.35275286213856
 30
0.0
 42
-0.414213562373095
  0
VERTEX
  5
10CC
  8
OBJECT
 10
7.2670114264089269
 20
13.67375286213856
 30
0.0
  0
VERTEX
  5
10CD
  8
OBJECT
 10
9.1250114264089355
 20
13.67375286213856
 30
0.0
 42
-0.4142135623730949
  0
VERTEX
  5
10CE
  8
OBJECT
 10
9.4460114264089317
 20
13.35275286213856
 30
0.0
  0
SEQEND
  5
10CF
  8
OBJECT
  0
CIRCLE
  5
BF3
  8
OBJECT
 10
9.1200114264089311
 20
11.499752862138561
 30
0.0
 40
0.0575
  0
CIRCLE
  5
BF4
  8
OBJECT
 10
9.1200114264089311
 20
11.499752862138561
 30
0.0
 40
0.125
  0
CIRCLE
  5
BF5
  8
OBJECT
 10
9.1200114264089311
 20
13.347752862138551
 30
0.0
 40
0.125
  0
CIRCLE
  5
BF6
  8
OBJECT
 10
9.1200114264089311
 20
13.347752862138551
 30
0.0
 40
0.0575
  0
CIRCLE
  5
BF7
  8
OBJECT
 10
7.2720114264089313
 20
11.499752862138561
 30
0.0
 40
0.125
  0
CIRCLE
  5
BF8
  8
OBJECT
 10
7.2720114264089313
 20
11.499752862138561
 30
0.0
 40
0.0575
  0
CIRCLE
  5
BF9
  8
OBJECT
 10
7.2720114264089313
 20
13.347752862138551
 30
0.0
 40
0.125
  0
CIRCLE
  5
BFA
  8
OBJECT
 10
7.2720114264089313
 20
13.347752862138551
 30
0.0
 40
0.0575
  0
POLYLINE
  5
BFB
  8
OBJECT
 66
     1
 10
0.0
 20
0.0
 30
0.0
 70
     1
  0
VERTEX
  5
10D0
  8
OBJECT
 10
9.3420114264089342
 20
11.494752862138551
 30
0.0
 42
-0.414213562373096
  0
VERTEX
  5
10D1
  8
OBJECT
 10
9.1250114264089355
 20
11.27775286213855
 30
0.0
  0
VERTEX
  5
10D2
  8
OBJECT
 10
7.2670114264089314
 20
11.27775286213855
 30
0.0
 42
-0.4142135623730955
  0
VERTEX
  5
10D3
  8
OBJECT
 10
7.0500114264089291
 20
11.494752862138551
 30
0.0
  0
VERTEX
  5
10D4
  8
OBJECT
 10
7.0500114264089317
 20
13.35275286213856
 30
0.0
 42
-0.4142135623730949
  0
VERTEX
  5
10D5
  8
OBJECT
 10
7.2670114264089314
 20
13.56975286213855
 30
0.0
  0
VERTEX
  5
10D6
  8
OBJECT
 10
9.1250114264089284
 20
13.56975286213855
 30
0.0
 42
-0.4142135623730974
  0
VERTEX
  5
10D7
  8
OBJECT
 10
9.3420114264089342
 20
13.35275286213856
 30
0.0
  0
SEQEND
  5
10D8
  8
OBJECT
  0
POLYLINE
  5
C05
  8
OBJECT
 66
     1
 10
0.0
 20
0.0
 30
0.0
 70
     1
  0
VERTEX
  5
10D9
  8
OBJECT
 10
9.2820114264089302
 20
11.494752862138551
 30
0.0
 42
-0.4142135623730925
  0
VERTEX
  5
10DA
  8
OBJECT
 10
9.1250114264089355
 20
11.337752862138551
 30
0.0
  0
VERTEX
  5
10DB
  8
OBJECT
 10
7.2670114264089314
 20
11.337752862138551
 30
0.0
 42
-0.4142135623730966
  0
VERTEX
  5
10DC
  8
OBJECT
 10
7.1100114264089269
 20
11.494752862138551
 30
0.0
  0
VERTEX
  5
10DD
  8
OBJECT
 10
7.1100114264089322
 20
13.35275286213856
 30
0.0
 42
-0.4142135623730966
  0
VERTEX
  5
10DE
  8
OBJECT
 10
7.2670114264089314
 20
13.50975286213856
 30
0.0
  0
VERTEX
  5
10DF
  8
OBJECT
 10
9.1250114264089284
 20
13.509752862138569
 30
0.0
 42
-0.414213562373095
  0
VERTEX
  5
10E0
  8
OBJECT
 10
9.2820114264089302
 20
13.35275286213856
 30
0.0
  0
SEQEND
  5
10E1
  8
OBJECT
  0
LINE
  5
C0F
  8
HIDDEN
 10
6.296987901645001
 20
11.337752862138551
 30
0.0
 11
6.2339879016450022
 21
11.337752862138551
 31
0.0
  0
LINE
  5
C10
  8
HIDDEN
 10
6.296987901645001
 20
11.374752862138561
 30
0.0
 11
6.2339879016450022
 21
11.374752862138561
 31
0.0
  0
LINE
  5
C11
  8
HIDDEN
 10
6.2969879016450063
 20
11.624752862138561
 30
0.0
 11
6.2339879016450004
 21
11.624752862138561
 31
0.0
  0
LINE
  5
C12
  8
HIDDEN
 10
6.296987901645001
 20
13.472752862138551
 30
0.0
 11
6.2339879016450022
 21
13.472752862138551
 31
0.0
  0
LINE
  5
C13
  8
HIDDEN
 10
6.296987901645001
 20
13.50975286213855
 30
0.0
 11
6.2339879016450022
 21
13.50975286213855
 31
0.0
  0
LINE
  5
C14
  8
HIDDEN
 10
6.2969879016450063
 20
13.222752862138559
 30
0.0
 11
6.2339879016450004
 21
13.222752862138559
 31
0.0
  0
DIMENSION
  5
C15
  8
DIM
  2
*D20
 10
7.7224428644995582
 20
11.173752862138549
 30
0.0
 11
7.296192864499556
 21
10.813752862138561
 31
0.0
 70
     0
 13
7.7466458598088321
 23
11.27775286213855
 33
0.0
 14
7.7466458598088321
 24
11.173752862138549
 34
0.0
 50
90.0
  0
DIMENSION
  5
C23
  8
DIM
  2
*D21
 10
8.394075600965035
 20
11.337752862138551
 30
0.0
 11
8.8281381009650328
 21
11.697752862138559
 31
0.0
 70
     0
 13
8.3880248637548895
 23
11.27775286213855
 33
0.0
 14
8.3880248637548895
 24
11.337752862138551
 34
0.0
 50
90.0
  0
LINE
  5
C31
  8
HIDDEN
 10
2.959305923051728
 20
10.315084573445111
 30
0.0
 11
2.959305923051728
 21
10.378084573445109
 31
0.0
  0
LINE
  5
C32
  8
HIDDEN
 10
2.9223059230517281
 20
10.315084573445111
 30
0.0
 11
2.9223059230517281
 21
10.378084573445109
 31
0.0
  0
LINE
  5
C33
  8
HIDDEN
 10
3.209305923051728
 20
10.315084573445111
 30
0.0
 11
3.209305923051728
 21
10.378084573445131
 31
0.0
  0
LINE
  5
C34
  8
HIDDEN
 10
5.0943059230517331
 20
10.315084573445111
 30
0.0
 11
5.0943059230517331
 21
10.378084573445109
 31
0.0
  0
LINE
  5
C35
  8
HIDDEN
 10
5.0573059230517341
 20
10.315084573445111
 30
0.0
 11
5.0573059230517341
 21
10.378084573445109
 31
0.0
  0
LINE
  5
C36
  8
HIDDEN
 10
4.8073059230517341
 20
10.315084573445111
 30
0.0
 11
4.8073059230517341
 21
10.378084573445131
 31
0.0
  0
POLYLINE
  5
C37
  8
OBJECT
 66
     1
 10
0.0
 20
0.0
 30
0.0
  0
VERTEX
  5
10E2
  8
OBJECT
 10
2.738054682896975
 20
2.843821331125949
 30
0.0
  0
VERTEX
  5
10E3
  8
OBJECT
 10
5.2785571632064894
 20
2.8438213311259521
 30
0.0
 42
-0.4142135623730971
  0
SEQEND
  5
10E4
  8
OBJECT
  0
POLYLINE
  5
C3B
  8
OBJECT
  6
PHANTOM2
 66
     1
 10
0.0
 20
0.0
 30
0.0
  0
VERTEX
  5
10E5
  8
OBJECT
  6
PHANTOM2
 10
2.863054682896975
 20
2.718821331125949
 30
0.0
  0
VERTEX
  5
10E6
  8
OBJECT
  6
PHANTOM2
 10
2.3833059230517311
 20
2.718821331125949
 30
0.0
 42
-0.4142135623730971
  0
VERTEX
  5
10E7
  8
OBJECT
  6
PHANTOM2
 10
2.2583059230517311
 20
2.843821331125949
 30
0.0
  0
VERTEX
  5
10E8
  8
OBJECT
  6
PHANTOM2
 10
2.7380546828969941
 20
2.843821331125949
 30
0.0
 42
-0.4142135623730971
  0
SEQEND
  5
10E9
  8
OBJECT
  6
PHANTOM2
  0
POLYLINE
  5
C41
  8
OBJECT
 66
     1
 10
0.0
 20
0.0
 30
0.0
  0
VERTEX
  5
10EA
  8
OBJECT
 10
5.153557163206492
 20
2.718821331125949
 30
0.0
  0
VERTEX
  5
10EB
  8
OBJECT
 10
2.863054682896975
 20
2.718821331125949
 30
0.0
 42
-0.4142135623730971
  0
SEQEND
  5
10EC
  8
OBJECT
  0
DIMENSION
  5
C45
  8
DIM
  2
*D22
 10
4.6958059230517311
 20
8.003213284378031
 30
0.0
 11
4.0083059230517311
 21
8.003213284378031
 31
0.0
 70
     0
  1
D
 13
3.3208059230517311
 23
7.1282176241956829
 33
0.0
 14
4.6958059230517311
 24
7.1282176241956829
 34
0.0
  0
DIMENSION
  5
C53
  8
DIM
  2
*D23
 10
6.1577517396826673
 20
7.1282176241956821
 30
0.0
 11
6.1577517396826646
 21
6.4407176241956883
 31
0.0
 70
     0
  1
L
 13
4.6958059230517311
 23
5.75321762419569
 33
0.0
 14
4.6958059230517311
 24
7.1282176241956829
 34
0.0
 50
90.0
  0
DIMENSION
  5
C61
  8
DIM
  2
*D24
 10
4.2636545626167841
 20
13.50675286213856
 30
0.0
 11
4.2636545626167832
 21
13.19899193148821
 31
0.0
 70
     0
 13
5.0913059230517268
 23
12.891231000837861
 33
0.0
 14
4.3711724860018828
 24
13.50675286213856
 34
0.0
 50
90.0
  0
DIMENSION
  5
C6E
  8
DIM
  2
*D25
 10
5.0913059230517268
 20
12.430451563917851
 30
0.0
 11
4.783544992401378
 21
12.430451563917851
 31
0.0
 70
     0
 13
4.4757840617510301
 23
13.50675286213856
 33
0.0
 14
5.0913059230517268
 24
12.49364707415695
 34
0.0
  0
TEXT
  5
C7B
  8
TEXT
 10
0.1027449263915293
 20
1.3842867472611891
 30
0.0
 40
0.125
  1
PART NO.
 41
0.75
  7
TXT
 72
     1
 11
0.4308699263915293
 21
1.3842867472611891
 31
0.0
  0
TEXT
  5
C7C
  8
TEXT
 10
0.1339949263915284
 20
0.9377666543589311
 30
0.0
 40
0.125
  1
CU-3241
 41
0.75
  7
TXT
 72
     1
 11
0.4308699263915285
 21
0.9377666543589311
 31
0.0
  0
TEXT
  5
C7D
  8
TEXT
 10
0.1183699263915284
 20
0.7294333210255983
 30
0.0
 40
0.125
  1
CU-3242
 41
0.75
  7
TXT
 72
     1
 11
0.4308699263915285
 21
0.7294333210255983
 31
0.0
  0
TEXT
  5
C7E
  8
TEXT
 10
0.1183699263915284
 20
0.521099987692265
 30
0.0
 40
0.125
  1
CU-3243
 41
0.75
  7
TXT
 72
     1
 11
0.4308699263915285
 21
0.521099987692265
 31
0.0
  0
TEXT
  5
C7F
  8
TEXT
 10
0.1183699263915284
 20
0.3127666543589314
 30
0.0
 40
0.125
  1
CU-3244
 41
0.75
  7
TXT
 72
     1
 11
0.4308699263915285
 21
0.3127666543589314
 31
0.0
  0
TEXT
  5
C80
  8
TEXT
 10
0.1183699263915284
 20
0.1044333210255981
 30
0.0
 40
0.125
  1
CU-3245
 41
0.75
  7
TXT
 72
     1
 11
0.4308699263915285
 21
0.1044333210255981
 31
0.0
  0
LINE
  5
C81
  8
TITLE
 10
0.7986210363639013
 20
1.582615318611835
 30
0.0
 11
0.7986210363639013
 21
0.0620000000000012
 31
0.0
  0
TEXT
  5
C82
  8
TEXT
 10
0.9381011317842427
 20
0.7294333210255984
 30
0.0
 40
0.125
  1
4.250
 41
0.75
  7
TXT
 72
     1
 11
1.117788631784242
 21
0.7294333210255984
 31
0.0
  0
TEXT
  5
C83
  8
TEXT
 10
0.9459136317842427
 20
0.521099987692265
 30
0.0
 40
0.125
  1
5.125
 41
0.75
  7
TXT
 72
     1
 11
1.117788631784242
 21
0.521099987692265
 31
0.0
  0
TEXT
  5
C84
  8
TEXT
 10
0.9459136317842427
 20
0.3127666543589314
 30
0.0
 40
0.125
  1
5.500
 41
0.75
  7
TXT
 72
     1
 11
1.117788631784242
 21
0.3127666543589314
 31
0.0
  0
TEXT
  5
C85
  8
TEXT
 10
0.9459136317842427
 20
0.1044333210255981
 30
0.0
 40
0.125
  1
6.500
 41
0.75
  7
TXT
 72
     1
 11
1.117788631784242
 21
0.1044333210255981
 31
0.0
  0
TEXT
  5
C86
  8
TEXT
 10
0.9927886317842427
 20
1.3842867472611891
 30
0.0
 40
0.125
  1
A *
 41
0.75
  7
TXT
 72
     1
 11
1.117788631784242
 21
1.3842867472611891
 31
0.0
  0
TEXT
  5
C87
  8
TEXT
 10
0.9459136317842427
 20
0.9377666543589311
 30
0.0
 40
0.125
  1
3.500
 41
0.75
  7
TXT
 72
     1
 11
1.117788631784242
 21
0.9377666543589311
 31
0.0
  0
LINE
  5
C88
  8
TITLE
 10
1.4599781783639001
 20
1.582615318611835
 30
0.0
 11
1.4599781783639001
 21
0.0620000000000012
 31
0.0
  0
LINE
  5
C89
  8
TITLE
 10
2.1213353203638992
 20
1.582615318611835
 30
0.0
 11
2.1213353203638992
 21
0.0620000000000012
 31
0.0
  0
LINE
  5
C8A
  8
TITLE
 10
2.7826924623639
 20
1.582615318611835
 30
0.0
 11
2.7826924623638991
 21
0.0620000000000012
 31
0.0
  0
LINE
  5
C8B
  8
TITLE
 10
3.4440496043639
 20
1.582615318611835
 30
0.0
 11
3.4440496043638991
 21
0.0620000000000012
 31
0.0
  0
LINE
  5
C8C
  8
TITLE
 10
4.105406746363899
 20
1.582615318611835
 30
0.0
 11
4.105406746363899
 21
0.0620000000000012
 31
0.0
  0
LINE
  5
C8D
  8
TITLE
 10
4.7667638883638999
 20
1.582615318611835
 30
0.0
 11
4.7667638883639007
 21
0.0620000000000012
 31
0.0
  0
LINE
  5
C8E
  8
TITLE
 10
5.4281210303638998
 20
1.582615318611835
 30
0.0
 11
5.4281210303638998
 21
0.0620000000000012
 31
0.0
  0
LINE
  5
C8F
  8
TITLE
 10
6.0894781723638998
 20
1.582615318611835
 30
0.0
 11
6.0894781723638998
 21
0.0620000000000012
 31
0.0
  0
LINE
  5
C90
  8
TITLE
 10
6.7508353143638997
 20
1.582615318611835
 30
0.0
 11
6.7508353143638988
 21
0.0620000000000012
 31
0.0
  0
LINE
  5
C91
  8
TITLE
 10
7.4121924563638997
 20
1.582615318611835
 30
0.0
 11
7.4121924563638979
 21
0.0620000000000012
 31
0.0
  0
LINE
  5
C92
  8
TITLE
 10
8.0735495983639005
 20
1.582615318611835
 30
0.0
 11
8.0735495983638952
 21
0.0620000000000012
 31
0.0
  0
LINE
  5
C93
  8
TITLE
 10
8.7349067403639022
 20
1.582615318611835
 30
0.0
 11
8.7349067403639022
 21
0.0620000000000012
 31
0.0
  0
LINE
  5
C94
  8
TITLE
 10
9.3962638823639022
 20
1.582615318611835
 30
0.0
 11
9.3962638823638969
 21
0.0620000000000012
 31
0.0
  0
TEXT
  5
C95
  8
TEXT
 10
1.5916457737842431
 20
0.521099987692265
 30
0.0
 40
0.125
  1
4.625
 41
0.75
  7
TXT
 72
     1
 11
1.7791457737842431
 21
0.521099987692265
 31
0.0
  0
TEXT
  5
C96
  8
TEXT
 10
1.6150832737842431
 20
0.1044333210255981
 30
0.0
 40
0.125
  1
6.000
 41
0.75
  7
TXT
 72
     1
 11
1.7791457737842431
 21
0.1044333210255981
 31
0.0
  0
TEXT
  5
C97
  8
TEXT
 10
1.6150832737842431
 20
0.3127666543589314
 30
0.0
 40
0.125
  1
5.000
 41
0.75
  7
TXT
 72
     1
 11
1.7791457737842431
 21
0.3127666543589314
 31
0.0
  0
TEXT
  5
C98
  8
TEXT
 10
1.6150832737842431
 20
0.9377666543589311
 30
0.0
 40
0.125
  1
3.000
 41
0.75
  7
TXT
 72
     1
 11
1.7791457737842431
 21
0.9377666543589311
 31
0.0
  0
TEXT
  5
C99
  8
TEXT
 10
1.6541457737842431
 20
1.3842867472611891
 30
0.0
 40
0.125
  1
B *
 41
0.75
  7
TXT
 72
     1
 11
1.7791457737842431
 21
1.3842867472611891
 31
0.0
  0
TEXT
  5
C9A
  8
TEXT
 10
1.5994582737842431
 20
0.7294333210255984
 30
0.0
 40
0.125
  1
3.750
 41
0.75
  7
TXT
 72
     1
 11
1.7791457737842431
 21
0.7294333210255984
 31
0.0
  0
TEXT
  5
C9B
  8
TEXT
 10
2.2686279157842431
 20
0.521099987692265
 30
0.0
 40
0.125
  1
3.518
 41
0.75
  7
TXT
 72
     1
 11
2.4405029157842431
 21
0.521099987692265
 31
0.0
  0
TEXT
  5
C9C
  8
TEXT
 10
2.2530029157842431
 20
0.1044333210255981
 30
0.0
 40
0.125
  1
4.898
 41
0.75
  7
TXT
 72
     1
 11
2.4405029157842431
 21
0.1044333210255981
 31
0.0
  0
TEXT
  5
C9D
  8
TEXT
 10
2.2530029157842431
 20
0.3127666543589314
 30
0.0
 40
0.125
  1
3.898
 41
0.75
  7
TXT
 72
     1
 11
2.4405029157842431
 21
0.3127666543589314
 31
0.0
  0
TEXT
  5
C9E
  8
TEXT
 10
2.2686279157842431
 20
0.9377666543589311
 30
0.0
 40
0.125
  1
1.848
 41
0.75
  7
TXT
 72
     1
 11
2.4405029157842431
 21
0.9377666543589311
 31
0.0
  0
TEXT
  5
C9F
  8
TEXT
 10
2.4092529157842431
 20
1.3842867472611891
 30
0.0
 40
0.125
  1
C
 41
0.75
  7
TXT
 72
     1
 11
2.4405029157842431
 21
1.3842867472611891
 31
0.0
  0
TEXT
  5
CA0
  8
TEXT
 10
2.2530029157842431
 20
0.7294333210255984
 30
0.0
 40
0.125
  1
2.648
 41
0.75
  7
TXT
 72
     1
 11
2.4405029157842431
 21
0.7294333210255984
 31
0.0
  0
TEXT
  5
CA1
  8
TEXT
 10
2.937797557784243
 20
0.521099987692265
 30
0.0
 40
0.125
  1
3.000
 41
0.75
  7
TXT
 72
     1
 11
3.101860057784243
 21
0.521099987692265
 31
0.0
  0
TEXT
  5
CA2
  8
TEXT
 10
2.914360057784243
 20
0.1044333210255981
 30
0.0
 40
0.125
  1
4.375
 41
0.75
  7
TXT
 72
     1
 11
3.101860057784243
 21
0.1044333210255981
 31
0.0
  0
TEXT
  5
CA3
  8
TEXT
 10
2.914360057784243
 20
0.3127666543589314
 30
0.0
 40
0.125
  1
3.375
 41
0.75
  7
TXT
 72
     1
 11
3.101860057784243
 21
0.3127666543589314
 31
0.0
  0
TEXT
  5
CA4
  8
TEXT
 10
2.929985057784243
 20
0.9377666543589311
 30
0.0
 40
0.125
  1
1.375
 41
0.75
  7
TXT
 72
     1
 11
3.101860057784243
 21
0.9377666543589311
 31
0.0
  0
TEXT
  5
CA5
  8
TEXT
 10
3.070610057784243
 20
1.3842867472611891
 30
0.0
 40
0.125
  1
D
 41
0.75
  7
TXT
 72
     1
 11
3.101860057784243
 21
1.3842867472611891
 31
0.0
  0
TEXT
  5
CA6
  8
TEXT
 10
2.929985057784243
 20
0.7294333210255984
 30
0.0
 40
0.125
  1
2.125
 41
0.75
  7
TXT
 72
     1
 11
3.101860057784243
 21
0.7294333210255984
 31
0.0
  0
TEXT
  5
CA7
  8
TEXT
 10
4.2526993417842434
 20
0.521099987692265
 30
0.0
 40
0.125
  1
4.165
 41
0.75
  7
TXT
 72
     1
 11
4.4245743417842434
 21
0.521099987692265
 31
0.0
  0
TEXT
  5
CA8
  8
TEXT
 10
4.2370743417842434
 20
0.1044333210255981
 30
0.0
 40
0.125
  1
5.545
 41
0.75
  7
TXT
 72
     1
 11
4.4245743417842434
 21
0.1044333210255981
 31
0.0
  0
TEXT
  5
CA9
  8
TEXT
 10
4.2370743417842434
 20
0.3127666543589314
 30
0.0
 40
0.125
  1
4.545
 41
0.75
  7
TXT
 72
     1
 11
4.4245743417842434
 21
0.3127666543589314
 31
0.0
  0
TEXT
  5
CAA
  8
TEXT
 10
4.2526993417842434
 20
0.9377666543589311
 30
0.0
 40
0.125
  1
2.500
 41
0.75
  7
TXT
 72
     1
 11
4.4245743417842434
 21
0.9377666543589311
 31
0.0
  0
TEXT
  5
CAB
  8
TEXT
 10
3.731967199784243
 20
1.3842867472611891
 30
0.0
 40
0.125
  1
E
 41
0.75
  7
TXT
 72
     1
 11
3.763217199784243
 21
1.3842867472611891
 31
0.0
  0
TEXT
  5
CAC
  8
TEXT
 10
4.2370743417842434
 20
0.7294333210255984
 30
0.0
 40
0.125
  1
3.295
 41
0.75
  7
TXT
 72
     1
 11
4.4245743417842434
 21
0.7294333210255984
 31
0.0
  0
TEXT
  5
CAD
  8
TEXT
 10
4.9296814837842433
 20
0.521099987692265
 30
0.0
 40
0.125
  1
4.211
 41
0.75
  7
TXT
 72
     1
 11
5.0859314837842433
 21
0.521099987692265
 31
0.0
  0
TEXT
  5
CAE
  8
TEXT
 10
4.9062439837842433
 20
0.1044333210255981
 30
0.0
 40
0.125
  1
5.604
 41
0.75
  7
TXT
 72
     1
 11
5.0859314837842433
 21
0.1044333210255981
 31
0.0
  0
TEXT
  5
CAF
  8
TEXT
 10
4.9062439837842433
 20
0.3127666543589314
 30
0.0
 40
0.125
  1
4.604
 41
0.75
  7
TXT
 72
     1
 11
5.0859314837842433
 21
0.3127666543589314
 31
0.0
  0
TEXT
  5
CB0
  8
TEXT
 10
4.9140564837842433
 20
0.9377666543589311
 30
0.0
 40
0.125
  1
2.541
 41
0.75
  7
TXT
 72
     1
 11
5.0859314837842433
 21
0.9377666543589311
 31
0.0
  0
TEXT
  5
CB1
  8
TEXT
 10
4.3933243417842442
 20
1.3842867472611891
 30
0.0
 40
0.125
  1
F
 41
0.75
  7
TXT
 72
     1
 11
4.4245743417842442
 21
1.3842867472611891
 31
0.0
  0
TEXT
  5
CB2
  8
TEXT
 10
4.8984314837842433
 20
0.7294333210255984
 30
0.0
 40
0.125
  1
3.354
 41
0.75
  7
TXT
 72
     1
 11
5.0859314837842433
 21
0.7294333210255984
 31
0.0
  0
TEXT
  5
CB3
  8
TEXT
 10
5.5676011257842433
 20
0.521099987692265
 30
0.0
 40
0.125
  1
2.803
 41
0.75
  7
TXT
 72
     1
 11
5.7472886257842433
 21
0.521099987692265
 31
0.0
  0
TEXT
  5
CB4
  8
TEXT
 10
5.5597886257842433
 20
0.1044333210255981
 30
0.0
 40
0.125
  1
3.789
 41
0.75
  7
TXT
 72
     1
 11
5.7472886257842433
 21
0.1044333210255981
 31
0.0
  0
TEXT
  5
CB5
  8
TEXT
 10
5.5597886257842433
 20
0.3127666543589314
 30
0.0
 40
0.125
  1
3.295
 41
0.75
  7
TXT
 72
     1
 11
5.7472886257842433
 21
0.3127666543589314
 31
0.0
  0
TEXT
  5
CB6
  8
TEXT
 10
5.5754136257842433
 20
0.9377666543589311
 30
0.0
 40
0.125
  1
2.500
 41
0.75
  7
TXT
 72
     1
 11
5.7472886257842433
 21
0.9377666543589311
 31
0.0
  0
TEXT
  5
CB7
  8
TEXT
 10
5.0546814837842442
 20
1.3842867472611891
 30
0.0
 40
0.125
  1
G
 41
0.75
  7
TXT
 72
     1
 11
5.0859314837842442
 21
1.3842867472611891
 31
0.0
  0
TEXT
  5
CB8
  8
TEXT
 10
5.5597886257842433
 20
0.7294333210255984
 30
0.0
 40
0.125
  1
3.295
 41
0.75
  7
TXT
 72
     1
 11
5.7472886257842433
 21
0.7294333210255984
 31
0.0
  0
TEXT
  5
CB9
  8
TEXT
 10
6.2211457677842432
 20
0.521099987692265
 30
0.0
 40
0.125
  1
2.849
 41
0.75
  7
TXT
 72
     1
 11
6.4086457677842432
 21
0.521099987692265
 31
0.0
  0
TEXT
  5
CBA
  8
TEXT
 10
6.2211457677842432
 20
0.1044333210255981
 30
0.0
 40
0.125
  1
3.848
 41
0.75
  7
TXT
 72
     1
 11
6.4086457677842432
 21
0.1044333210255981
 31
0.0
  0
TEXT
  5
CBB
  8
TEXT
 10
6.2211457677842432
 20
0.3127666543589314
 30
0.0
 40
0.125
  1
3.354
 41
0.75
  7
TXT
 72
     1
 11
6.4086457677842432
 21
0.3127666543589314
 31
0.0
  0
TEXT
  5
CBC
  8
TEXT
 10
6.2367707677842432
 20
0.9377666543589311
 30
0.0
 40
0.125
  1
2.541
 41
0.75
  7
TXT
 72
     1
 11
6.4086457677842432
 21
0.9377666543589311
 31
0.0
  0
TEXT
  5
CBD
  8
TEXT
 10
5.7160386257842442
 20
1.3842867472611891
 30
0.0
 40
0.125
  1
H
 41
0.75
  7
TXT
 72
     1
 11
5.7472886257842442
 21
1.3842867472611891
 31
0.0
  0
TEXT
  5
CBE
  8
TEXT
 10
6.2211457677842432
 20
0.7294333210255984
 30
0.0
 40
0.125
  1
3.354
 41
0.75
  7
TXT
 72
     1
 11
6.4086457677842432
 21
0.7294333210255984
 31
0.0
  0
TEXT
  5
CBF
  8
TEXT
 10
6.8981279097842432
 20
0.521099987692265
 30
0.0
 40
0.125
  1
2.148
 41
0.75
  7
TXT
 72
     1
 11
7.0700029097842432
 21
0.521099987692265
 31
0.0
  0
TEXT
  5
CC0
  8
TEXT
 10
6.8981279097842432
 20
0.1044333210255981
 30
0.0
 40
0.125
  1
3.147
 41
0.75
  7
TXT
 72
     1
 11
7.0700029097842432
 21
0.1044333210255981
 31
0.0
  0
TEXT
  5
CC1
  8
TEXT
 10
6.8825029097842432
 20
0.3127666543589314
 30
0.0
 40
0.125
  1
2.648
 41
0.75
  7
TXT
 72
     1
 11
7.0700029097842432
 21
0.3127666543589314
 31
0.0
  0
TEXT
  5
CC2
  8
TEXT
 10
6.8981279097842432
 20
0.9377666543589311
 30
0.0
 40
0.125
  1
1.848
 41
0.75
  7
TXT
 72
     1
 11
7.0700029097842432
 21
0.9377666543589311
 31
0.0
  0
TEXT
  5
CC3
  8
TEXT
 10
6.3773957677842441
 20
1.3842867472611891
 30
0.0
 40
0.125
  1
J
 41
0.75
  7
TXT
 72
     1
 11
6.4086457677842441
 21
1.3842867472611891
 31
0.0
  0
TEXT
  5
CC4
  8
TEXT
 10
6.8825029097842432
 20
0.7294333210255984
 30
0.0
 40
0.125
  1
2.648
 41
0.75
  7
TXT
 72
     1
 11
7.0700029097842432
 21
0.7294333210255984
 31
0.0
  0
TEXT
  5
CC5
  8
TEXT
 10
7.5594850517842431
 20
0.521099987692265
 30
0.0
 40
0.125
  1
1.625
 41
0.75
  7
TXT
 72
     1
 11
7.7313600517842431
 21
0.521099987692265
 31
0.0
  0
TEXT
  5
CC6
  8
TEXT
 10
7.5438600517842431
 20
0.1044333210255981
 30
0.0
 40
0.125
  1
2.625
 41
0.75
  7
TXT
 72
     1
 11
7.7313600517842431
 21
0.1044333210255981
 31
0.0
  0
TEXT
  5
CC7
  8
TEXT
 10
7.5594850517842431
 20
0.3127666543589314
 30
0.0
 40
0.125
  1
2.125
 41
0.75
  7
TXT
 72
     1
 11
7.7313600517842431
 21
0.3127666543589314
 31
0.0
  0
TEXT
  5
CC8
  8
TEXT
 10
7.5594850517842431
 20
0.9377666543589311
 30
0.0
 40
0.125
  1
1.375
 41
0.75
  7
TXT
 72
     1
 11
7.7313600517842431
 21
0.9377666543589311
 31
0.0
  0
TEXT
  5
CC9
  8
TEXT
 10
7.0387529097842441
 20
1.3842867472611891
 30
0.0
 40
0.125
  1
K
 41
0.75
  7
TXT
 72
     1
 11
7.0700029097842441
 21
1.3842867472611891
 31
0.0
  0
TEXT
  5
CCA
  8
TEXT
 10
7.5594850517842431
 20
0.7294333210255984
 30
0.0
 40
0.125
  1
2.125
 41
0.75
  7
TXT
 72
     1
 11
7.7313600517842431
 21
0.7294333210255984
 31
0.0
  0
TEXT
  5
CCB
  8
TEXT
 10
8.905636835784243
 20
0.521099987692265
 30
0.0
 40
0.125
  1
1.000
 41
0.75
  7
TXT
 72
     1
 11
9.054074335784243
 21
0.521099987692265
 31
0.0
  0
TEXT
  5
CCC
  8
TEXT
 10
8.890011835784243
 20
0.1044333210255981
 30
0.0
 40
0.125
  1
1.250
 41
0.75
  7
TXT
 72
     1
 11
9.054074335784243
 21
0.1044333210255981
 31
0.0
  0
TEXT
  5
CCD
  8
TEXT
 10
8.890011835784243
 20
0.3127666543589314
 30
0.0
 40
0.125
  1
1.250
 41
0.75
  7
TXT
 72
     1
 11
9.054074335784243
 21
0.3127666543589314
 31
0.0
  0
TEXT
  5
CCE
  8
TEXT
 10
8.890011835784243
 20
0.9377666543589311
 30
0.0
 40
0.125
  1
0.900
 41
0.75
  7
TXT
 72
     1
 11
9.054074335784243
 21
0.9377666543589311
 31
0.0
  0
TEXT
  5
CCF
  8
TEXT
 10
7.700110051784244
 20
1.3842867472611891
 30
0.0
 40
0.125
  1
L
 41
0.75
  7
TXT
 72
     1
 11
7.731360051784244
 21
1.3842867472611891
 31
0.0
  0
TEXT
  5
CD0
  8
TEXT
 10
8.890011835784243
 20
0.7294333210255984
 30
0.0
 40
0.125
  1
1.250
 41
0.75
  7
TXT
 72
     1
 11
9.054074335784243
 21
0.7294333210255984
 31
0.0
  0
TEXT
  5
CD1
  8
TEXT
 10
9.5357439777842465
 20
0.521099987692265
 30
0.0
 40
0.125
  1
0.838
 41
0.75
  7
TXT
 72
     1
 11
9.7154314777842465
 21
0.521099987692265
 31
0.0
  0
TEXT
  5
CD2
  8
TEXT
 10
9.5513689777842465
 20
0.1044333210255981
 30
0.0
 40
0.125
  1
1.088
 41
0.75
  7
TXT
 72
     1
 11
9.7154314777842465
 21
0.1044333210255981
 31
0.0
  0
TEXT
  5
CD3
  8
TEXT
 10
9.5513689777842465
 20
0.3127666543589314
 30
0.0
 40
0.125
  1
1.088
 41
0.75
  7
TXT
 72
     1
 11
9.7154314777842465
 21
0.3127666543589314
 31
0.0
  0
TEXT
  5
CD4
  8
TEXT
 10
9.5357439777842465
 20
0.9377666543589311
 30
0.0
 40
0.125
  1
0.738
 41
0.75
  7
TXT
 72
     1
 11
9.7154314777842465
 21
0.9377666543589311
 31
0.0
  0
TEXT
  5
CD5
  8
TEXT
 10
8.3614671937842449
 20
1.3842867472611891
 30
0.0
 40
0.125
  1
M
 41
0.75
  7
TXT
 72
     1
 11
8.3927171937842449
 21
1.3842867472611891
 31
0.0
  0
TEXT
  5
CD6
  8
TEXT
 10
9.5513689777842465
 20
0.7294333210255984
 30
0.0
 40
0.125
  1
1.088
 41
0.75
  7
TXT
 72
     1
 11
9.7154314777842465
 21
0.7294333210255984
 31
0.0
  0
TEXT
  5
CD7
  8
TEXT
 10
3.5757171997842438
 20
0.521099987692266
 30
0.0
 40
0.125
  1
3.965
 41
0.75
  7
TXT
 72
     1
 11
3.7632171997842438
 21
0.521099987692266
 31
0.0
  0
TEXT
  5
CD8
  8
TEXT
 10
3.5757171997842438
 20
0.104433321025599
 30
0.0
 40
0.125
  1
5.345
 41
0.75
  7
TXT
 72
     1
 11
3.7632171997842438
 21
0.104433321025599
 31
0.0
  0
TEXT
  5
CD9
  8
TEXT
 10
3.5757171997842438
 20
0.3127666543589322
 30
0.0
 40
0.125
  1
4.345
 41
0.75
  7
TXT
 72
     1
 11
3.7632171997842438
 21
0.3127666543589322
 31
0.0
  0
TEXT
  5
CDA
  8
TEXT
 10
3.5913421997842438
 20
0.937766654358932
 30
0.0
 40
0.125
  1
2.300
 41
0.75
  7
TXT
 72
     1
 11
3.7632171997842438
 21
0.937766654358932
 31
0.0
  0
TEXT
  5
CDB
  8
TEXT
 10
9.022824335784243
 20
1.3842867472611891
 30
0.0
 40
0.125
  1
N
 41
0.75
  7
TXT
 72
     1
 11
9.054074335784243
 21
1.3842867472611891
 31
0.0
  0
TEXT
  5
CDC
  8
TEXT
 10
3.5835296997842438
 20
0.7294333210255992
 30
0.0
 40
0.125
  1
3.095
 41
0.75
  7
TXT
 72
     1
 11
3.7632171997842438
 21
0.7294333210255992
 31
0.0
  0
TEXT
  5
CDD
  8
TEXT
 10
8.2130296937842449
 20
0.5210999876922651
 30
0.0
 40
0.125
  1
2.608
 41
0.75
  7
TXT
 72
     1
 11
8.3927171937842449
 21
0.5210999876922651
 31
0.0
  0
TEXT
  5
CDE
  8
TEXT
 10
8.2052171937842449
 20
0.1044333210255983
 30
0.0
 40
0.125
  1
3.589
 41
0.75
  7
TXT
 72
     1
 11
8.3927171937842449
 21
0.1044333210255983
 31
0.0
  0
TEXT
  5
CDF
  8
TEXT
 10
8.2130296937842449
 20
0.3127666543589316
 30
0.0
 40
0.125
  1
3.095
 41
0.75
  7
TXT
 72
     1
 11
8.3927171937842449
 21
0.3127666543589316
 31
0.0
  0
TEXT
  5
CE0
  8
TEXT
 10
8.2208421937842449
 20
0.9377666543589311
 30
0.0
 40
0.125
  1
2.300
 41
0.75
  7
TXT
 72
     1
 11
8.3927171937842449
 21
0.9377666543589311
 31
0.0
  0
TEXT
  5
CE1
  8
TEXT
 10
9.6841814777842412
 20
1.3842867472611891
 30
0.0
 40
0.125
  1
P
 41
0.75
  7
TXT
 72
     1
 11
9.7154314777842412
 21
1.3842867472611891
 31
0.0
  0
TEXT
  5
CE2
  8
TEXT
 10
8.2130296937842449
 20
0.7294333210255986
 30
0.0
 40
0.125
  1
3.095
 41
0.75
  7
TXT
 72
     1
 11
8.3927171937842449
 21
0.7294333210255986
 31
0.0
  0
LINE
  5
CE3
  8
TITLE
 10
0.0619999999999976
 20
1.1019999999999981
 30
0.0
 11
10.058
 21
1.1019999999999981
 31
0.0
  0
LINE
  5
CE4
  8
TITLE
 10
0.0619999999999976
 20
0.8939999999999992
 30
0.0
 11
10.058
 21
0.8939999999999992
 31
0.0
  0
LINE
  5
CE5
  8
TITLE
 10
0.0619999999999976
 20
0.6859999999999993
 30
0.0
 11
10.058
 21
0.6859999999999993
 31
0.0
  0
LINE
  5
CE6
  8
TITLE
 10
0.0619999999999976
 20
0.4779999999999994
 30
0.0
 11
10.058
 21
0.4779999999999994
 31
0.0
  0
LINE
  5
CE7
  8
TITLE
 10
0.0619999999999976
 20
0.2699999999999993
 30
0.0
 11
10.058
 21
0.2699999999999993
 31
0.0
  0
LINE
  5
CE8
  8
TITLE
 10
0.0619999999999976
 20
1.582615318611835
 30
0.0
 11
10.058
 21
1.582615318611835
 31
0.0
  0
POLYLINE
  5
CE9
  8
DIM
 66
     1
 10
0.0
 20
0.0
 30
0.0
 41
0.0675
  0
VERTEX
  5
10ED
  8
DIM
 10
3.3623272843833321
 20
11.445279332408941
 30
0.0
  0
VERTEX
  5
10EE
  8
DIM
 10
3.2061584391689739
 20
11.35577351257351
 30
0.0
 41
0.0
  0
VERTEX
  5
10EF
  8
DIM
 10
2.6946200634551318
 20
11.062593002512671
 30
0.0
 41
0.0
  0
VERTEX
  5
10F0
  8
DIM
 10
2.5146200634551321
 20
11.062593002512671
 30
0.0
 41
0.0
  0
SEQEND
  5
10F1
  8
DIM
  0
TEXT
  5
CEF
  8
DIM
 10
0.7839950634551319
 20
11.00009300251268
 30
0.0
 40
0.125
  1
0.031 W. x 0.010 DEEP
 41
0.75
  7
TXT
 72
     2
 11
2.4246200634551309
 21
11.062593002512671
 31
0.0
 73
     2
  0
TEXT
  5
CF0
  8
DIM
 10
1.8933700634551309
 20
10.79175966917934
 30
0.0
 40
0.125
  1
RECESS
 41
0.75
  7
TXT
 72
     2
 11
2.4246200634551309
 21
10.85425966917934
 31
0.0
 73
     2
  0
DIMENSION
  5
CF1
  8
DIM
  2
*D26
 10
6.2339879016449951
 20
14.003358928776381
 30
0.0
 11
6.8324254016449961
 21
14.003358928776381
 31
0.0
 70
     0
 13
6.1339879016450007
 23
13.58101667718361
 33
0.0
 14
6.2339879016449951
 24
13.67375286213856
 34
0.0
  0
TEXT
  5
CFF
  8
DIM
 10
0.2861662833618128
 20
4.9615707244373324
 30
0.0
 40
0.125
  1
(TO FIT A #10 SCREW)
 41
0.75
  7
TXT
 72
     2
 11
2.0205412833618119
 21
5.0240707244373324
 31
0.0
 73
     2
  0
POLYLINE
  5
D00
  8
DIM
 66
     1
 10
0.0
 20
0.0
 30
0.0
 41
0.0675
  0
VERTEX
  5
10F2
  8
DIM
 10
3.3664221830157701
 20
5.6661948603961561
 30
0.0
  0
VERTEX
  5
10F3
  8
DIM
 10
3.455333938727275
 20
5.5096870340861051
 30
0.0
 41
0.0
  0
VERTEX
  5
10F4
  8
DIM
 10
3.8911431631426492
 20
4.7425493945996706
 30
0.0
 41
0.0
  0
VERTEX
  5
10F5
  8
DIM
 10
3.811294296419625
 20
4.7425493945996706
 30
0.0
 41
0.0
  0
VERTEX
  5
10F6
  8
DIM
 10
3.631294296419624
 20
4.7425493945996706
 30
0.0
 41
0.0
  0
SEQEND
  5
10F7
  8
DIM
  0
TEXT
  5
D07
  8
DIM
 10
2.369419296419625
 20
4.6800493945996706
 30
0.0
 40
0.125
  1
0.188 DIA. BOSS
 41
0.75
  7
TXT
 72
     2
 11
3.541294296419625
 21
4.7425493945996706
 31
0.0
 73
     2
  0
TEXT
  5
D08
  8
DIM
 10
2.697544296419625
 20
4.4717160612663358
 30
0.0
 40
0.125
  1
(8) PLACES
 41
0.75
  7
TXT
 72
     2
 11
3.541294296419625
 21
4.5342160612663358
 31
0.0
 73
     2
  0
POLYLINE
  5
D09
  8
OBJECT
  6
PHANTOM2
 66
     1
 10
0.0
 20
0.0
 30
0.0
  0
VERTEX
  5
10F8
  8
OBJECT
  6
PHANTOM2
 10
5.2785571632065809
 20
2.8438213311259521
 30
0.0
  0
VERTEX
  5
10F9
  8
OBJECT
  6
PHANTOM2
 10
5.7583059230517364
 20
2.8438213311259521
 30
0.0
 42
-0.4142135623730971
  0
VERTEX
  5
10FA
  8
OBJECT
  6
PHANTOM2
 10
5.6333059230517293
 20
2.718821331125949
 30
0.0
  0
VERTEX
  5
10FB
  8
OBJECT
  6
PHANTOM2
 10
5.153557163206492
 20
2.718821331125949
 30
0.0
 42
-0.4142135623730971
  0
SEQEND
  5
10FC
  8
OBJECT
  6
PHANTOM2
  0
POLYLINE
  5
D0F
  8
DIM
 66
     1
 10
0.0
 20
0.0
 30
0.0
 41
0.0675
  0
VERTEX
  5
10FD
  8
DIM
 10
2.498284990513139
 20
6.3354535402425309
 30
0.0
  0
VERTEX
  5
10FE
  8
DIM
 10
2.4485133567913819
 20
6.1624715051155627
 30
0.0
 41
0.0
  0
VERTEX
  5
10FF
  8
DIM
 10
2.236820873803528
 20
5.426731209086002
 30
0.0
 41
0.0
  0
VERTEX
  5
1100
  8
DIM
 10
2.0568208738035278
 20
5.426731209086002
 30
0.0
 41
0.0
  0
SEQEND
  5
1101
  8
DIM
  0
TEXT
  5
D15
  8
TEXT
 10
1.807417050980644
 20
15.12935767323186
 30
0.0
 40
0.156
  1
UTILIBOX  (STYLE I)
 41
0.75
  7
TXT
 72
     1
 11
2.8019170509806441
 21
15.12935767323186
 31
0.0
  0
TEXT
  5
D16
  8
TEXT
 10
5.77319050848069
 20
15.24957269115802
 30
0.0
 40
0.125
  1
CU-3240  TO  CU-3245
 41
0.75
  7
TXT
 72
     1
 11
6.68725300848069
 21
15.24957269115802
 31
0.0
  0
TEXT
  5
D17
  8
TEXT
 10
5.49194050848069
 20
15.06069305253747
 30
0.0
 40
0.125
  1
CU-3240-MB  TO  CU-3245-MB
 41
0.75
  7
TXT
 72
     1
 11
6.68725300848069
 21
15.06069305253747
 31
0.0
  0
TEXT
  5
D18
  8
TEXT
 10
6.4245766689350123
 20
10.23384012548145
 30
0.0
 40
0.125
  1
FOUR (4) #4 x 1/2" LG. SCREWS (BLACK)
 41
0.75
  7
TXT
  0
TEXT
  5
D19
  8
TEXT
 10
6.4245766689350123
 20
10.02550679214812
 30
0.0
 40
0.125
  1
SUPPLIED FOR ASSEMBLING COVER TO BODY
 41
0.75
  7
TXT
  0
TEXT
  5
D1A
  8
TEXT
 10
6.4245766689350123
 20
9.5988998943696782
 30
0.0
 40
0.125
  1
MOUNTING BOSSES USE EITHER M2.5 METRIC
 41
0.75
  7
TXT
  0
TEXT
  5
D1B
  8
TEXT
 10
6.4245766689350123
 20
9.3905665610363442
 30
0.0
 40
0.125
  1
OR #4 STD. SHEET METAL SCREWS x 1/4"
 41
0.75
  7
TXT
  0
TEXT
  5
D1C
  8
TEXT
 10
6.4245766689350123
 20
9.1822332277030103
 30
0.0
 40
0.125
  1
LG. (NOT SUPPLIED)
 41
0.75
  7
TXT
  0
TEXT
  5
D1D
  8
TEXT
 10
7.0166925576110852
 20
2.5619905513589911
 30
0.0
 40
0.125
  1
NOTE: ALL DIMENSIONS HAVE %%P0.010
 41
0.75
  7
TXT
  0
TEXT
  5
D1E
  8
TEXT
 10
7.0166925576110852
 20
2.353657218025659
 30
0.0
 40
0.125
  1
TOLERANCE UNLESS OTHERWISE
 41
0.75
  7
TXT
  0
TEXT
  5
D1F
  8
TEXT
 10
7.0166925576110852
 20
2.151282218025659
 30
0.0
 40
0.125
  1
SPECIFIED
 41
0.75
  7
TXT
  0
DIMENSION
  5
D20
  8
DIM
  2
*D27
 10
2.846865125029109
 20
7.6021584221996941
 30
0.0
 11
1.768016817517932
 21
7.2398976064412066
 31
0.0
 70
   130
 13
3.109097517275031
 23
7.7107176241956834
 33
0.0
 14
4.9075143288284364
 24
7.7107176241956834
 34
0.0
 15
2.3133698481886542
 25
7.0686631453592401
 35
0.0
 16
1.8492118419824399
 26
7.0720455481753826
 36
0.0
1001
ACAD
1000
DSTYLE
1002
{
1070
   271
1070
     0
1070
   271
1070
     0
1002
}
  0
TEXT
  5
D30
  8
DIM
 10
1.8979933031142711
 20
7.3510789114293429
 30
0.0
 40
0.125
  1
TYP.
 41
0.75
  7
TXT
  0
POLYLINE
  5
D31
  8
DIM
 66
     1
 10
0.0
 20
0.0
 30
0.0
 41
0.0675
  0
VERTEX
  5
110E
  8
DIM
 10
5.7583059230517444
 20
6.7539913038527484
 30
0.0
  0
VERTEX
  5
110F
  8
DIM
 10
5.8257365493080142
 20
6.9208838160954711
 30
0.0
 41
0.0
  0
VERTEX
  5
1110
  8
DIM
 10
6.6000971360254814
 20
8.837445931474166
 30
0.0
 41
0.0
  0
VERTEX
  5
1111
  8
DIM
 10
6.7800971360254811
 20
8.837445931474166
 30
0.0
 41
0.0
  0
SEQEND
  5
1112
  8
DIM
  0
TEXT
  5
D37
  8
DIM
 10
6.8700971360254801
 20
8.774945931474166
 30
0.0
 40
0.125
  1
OPTIONAL MOUNTING BRACKETS
 41
0.75
  7
TXT
 11
6.8700971360254801
 21
8.837445931474166
 31
0.0
 73
     2
  0
TEXT
  5
D38
  8
DIM
 10
6.8700971360254801
 20
8.5666125981408356
 30
0.0
 40
0.125
  1
ARE AVAILABLE BY ADDING SUFFIX
 41
0.75
  7
TXT
 11
6.8700971360254801
 21
8.6291125981408356
 31
0.0
 73
     2
  0
TEXT
  5
D39
  8
DIM
 10
6.8700971360254801
 20
8.3582792648074982
 30
0.0
 40
0.125
  1
-MB TO CATALOG PART NUMBER
 41
0.75
  7
TXT
 11
6.8700971360254801
 21
8.4207792648074982
 31
0.0
 73
     2
  0
DIMENSION
  5
D3A
  8
DIM
  2
*D28
 10
2.7583059230517302
 20
12.65252639798218
 30
0.0
 11
1.94111842305173
 21
12.65252639798218
 31
0.0
 70
     0
  1
<> TYP.
 13
2.925305923051734
 23
12.65252639798218
 33
0.0
 14
2.7583059230517302
 24
12.65252639798218
 34
0.0
  0
DIMENSION
  5
D48
  8
DIM
  2
*D29
 10
3.751789943429058
 20
5.2907176241956817
 30
0.0
 11
3.7517899434290571
 21
6.4407176241956838
 31
0.0
 70
     0
  1
M
 13
3.709865814321256
 23
7.5907176241956851
 33
0.0
 14
3.709865814321256
 24
5.2907176241956817
 34
0.0
 50
90.0
  0
DIMENSION
  5
D56
  8
DIM
  2
*D30
 10
5.1583059230517341
 20
6.0867791412973524
 30
0.0
 11
4.0083059230517319
 21
6.0867791412973524
 31
0.0
 70
     0
  1
E
 13
2.8583059230517311
 23
6.1286887538187971
 33
0.0
 14
5.1583059230517341
 24
6.1286887538187971
 34
0.0
  0
TEXT
  5
D64
  8
TEXT
 10
0.2620256916813441
 20
2.5731799404119702
 30
0.0
 40
0.125
  1
%%UNOTE:%%U
 41
0.75
  7
TXT
  0
TEXT
  5
D65
  8
TEXT
 10
0.3714715920148111
 20
2.3648466070786358
 30
0.0
 40
0.125
  1
* DIMENSIONS FOR -MB
 41
0.75
  7
TXT
  0
TEXT
  5
D66
  8
TEXT
 10
0.3714715920148111
 20
2.1565132737453041
 30
0.0
 40
0.125
  1
BOXES ONLY!
 41
0.75
  7
TXT
  0
INSERT
  5
D68
  8
OBJECT
  2
HB
 10
0.0
 20
0.0
 30
0.0
  0
LINE
  5
D69
  8
TITLE
 10
0.0619999999999976
 20
1.3099999999999981
 30
0.0
 11
10.058
 21
1.3099999999999981
 31
0.0
  0
TEXT
  5
D6A
  8
TEXT
 10
2.2530029157842431
 20
1.1457666543589311
 30
0.0
 40
0.125
  1
2.649
 41
0.75
  7
TXT
 72
     1
 11
2.4405029157842431
 21
1.1457666543589311
 31
0.0
  0
TEXT
  5
D6B
  8
TEXT
 10
0.1261824263915284
 20
1.1457666543589311
 30
0.0
 40
0.125
  1
CU-3240
 41
0.75
  7
TXT
 72
     1
 11
0.4308699263915285
 21
1.1457666543589311
 31
0.0
  0
TEXT
  5
D6C
  8
TEXT
 10
0.9302886317842427
 20
1.1457666543589311
 30
0.0
 40
0.125
  1
4.375
 41
0.75
  7
TXT
 72
     1
 11
1.117788631784242
 21
1.1457666543589311
 31
0.0
  0
TEXT
  5
D6D
  8
TEXT
 10
1.5916457737842431
 20
1.1457666543589311
 30
0.0
 40
0.125
  1
3.875
 41
0.75
  7
TXT
 72
     1
 11
1.7791457737842431
 21
1.1457666543589311
 31
0.0
  0
TEXT
  5
D6E
  8
TEXT
 10
3.5991546997842438
 20
1.1457666543589311
 30
0.0
 40
0.125
  1
3.091
 41
0.75
  7
TXT
 72
     1
 11
3.7632171997842438
 21
1.1457666543589311
 31
0.0
  0
TEXT
  5
D6F
  8
TEXT
 10
2.929985057784243
 20
1.1457666543589311
 30
0.0
 40
0.125
  1
2.125
 41
0.75
  7
TXT
 72
     1
 11
3.101860057784243
 21
1.1457666543589311
 31
0.0
  0
TEXT
  5
D70
  8
TEXT
 10
4.2526993417842434
 20
1.1457666543589311
 30
0.0
 40
0.125
  1
3.291
 41
0.75
  7
TXT
 72
     1
 11
4.4245743417842434
 21
1.1457666543589311
 31
0.0
  0
TEXT
  5
D71
  8
TEXT
 10
4.8984314837842433
 20
1.1457666543589311
 30
0.0
 40
0.125
  1
3.337
 41
0.75
  7
TXT
 72
     1
 11
5.0859314837842433
 21
1.1457666543589311
 31
0.0
  0
TEXT
  5
D72
  8
TEXT
 10
5.5754136257842433
 20
1.1457666543589311
 30
0.0
 40
0.125
  1
2.416
 41
0.75
  7
TXT
 72
     1
 11
5.7472886257842433
 21
1.1457666543589311
 31
0.0
  0
TEXT
  5
D73
  8
TEXT
 10
6.2211457677842432
 20
1.1457666543589311
 30
0.0
 40
0.125
  1
2.462
 41
0.75
  7
TXT
 72
     1
 11
6.4086457677842432
 21
1.1457666543589311
 31
0.0
  0
TEXT
  5
D74
  8
TEXT
 10
6.8981279097842432
 20
1.1457666543589311
 30
0.0
 40
0.125
  1
1.774
 41
0.75
  7
TXT
 72
     1
 11
7.0700029097842432
 21
1.1457666543589311
 31
0.0
  0
TEXT
  5
D75
  8
TEXT
 10
7.5672975517842431
 20
1.1457666543589311
 30
0.0
 40
0.125
  1
1.250
 41
0.75
  7
TXT
 72
     1
 11
7.7313600517842431
 21
1.1457666543589311
 31
0.0
  0
TEXT
  5
D76
  8
TEXT
 10
9.5357439777842465
 20
1.1457666543589311
 30
0.0
 40
0.125
  1
0.838
 41
0.75
  7
TXT
 72
     1
 11
9.7154314777842465
 21
1.1457666543589311
 31
0.0
  0
TEXT
  5
D77
  8
TEXT
 10
8.905636835784243
 20
1.1457666543589311
 30
0.0
 40
0.125
  1
1.000
 41
0.75
  7
TXT
 72
     1
 11
9.054074335784243
 21
1.1457666543589311
 31
0.0
  0
TEXT
  5
D78
  8
TEXT
 10
8.2208421937842449
 20
1.1457666543589311
 30
0.0
 40
0.125
  1
2.216
 41
0.75
  7
TXT
 72
     1
 11
8.3927171937842449
 21
1.1457666543589311
 31
0.0
  0
TEXT
  5
DB6
  8
TEXT
 10
9.162281184837024
 20
15.12935767323186
 30
0.0
 40
0.156
  1
5-15-15
 41
0.75
  7
TXT
 72
     1
 11
9.5132811848370231
 21
15.12935767323186
 31
0.0
  0
ENDSEC
  0
EOF
