  0
SECTION
  2
HEADER
  9
$ACADVER
  1
AC1014
  9
$ACADMAINTVER
 70
     9
  9
$DWGCODEPAGE
  3
ANSI_1252
  9
$INSBASE
 10
0.0
 20
0.0
 30
0.0
  9
$EXTMIN
 10
0.0
 20
-0.0000000000000027
 30
-0.375
  9
$EXTMAX
 10
15.17999999999999
 20
23.25
 30
0.1875
  9
$LIMMIN
 10
0.0
 20
0.0
  9
$LIMMAX
 10
15.17999999999999
 20
23.24999999999998
  9
$ORTHOMODE
 70
     1
  9
$REGENMODE
 70
     1
  9
$FILLMODE
 70
     1
  9
$QTEXTMODE
 70
     0
  9
$MIRRTEXT
 70
     0
  9
$DRAGMODE
 70
     2
  9
$LTSCALE
 40
0.375
  9
$OSMODE
 70
   229
  9
$ATTMODE
 70
     1
  9
$TEXTSIZE
 40
0.187
  9
$TRACEWID
 40
0.05
  9
$TEXTSTYLE
  7
TXT
  9
$CLAYER
  8
OBJECT
  9
$CELTYPE
  6
BYLAYER
  9
$CECOLOR
 62
   256
  9
$CELTSCALE
 40
1.0
  9
$DELOBJ
 70
     1
  9
$DISPSILH
 70
     0
  9
$DIMSCALE
 40
1.5
  9
$DIMASZ
 40
0.18
  9
$DIMEXO
 40
0.063
  9
$DIMDLI
 40
0.281
  9
$DIMRND
 40
0.0
  9
$DIMDLE
 40
0.0
  9
$DIMEXE
 40
0.093
  9
$DIMTP
 40
0.0
  9
$DIMTM
 40
0.0
  9
$DIMTXT
 40
0.125
  9
$DIMCEN
 40
0.09
  9
$DIMTSZ
 40
0.0
  9
$DIMTOL
 70
     0
  9
$DIMLIM
 70
     0
  9
$DIMTIH
 70
     1
  9
$DIMTOH
 70
     1
  9
$DIMSE1
 70
     0
  9
$DIMSE2
 70
     0
  9
$DIMTAD
 70
     0
  9
$DIMZIN
 70
     0
  9
$DIMBLK
  1

  9
$DIMASO
 70
     1
  9
$DIMSHO
 70
     1
  9
$DIMPOST
  1

  9
$DIMAPOST
  1

  9
$DIMALT
 70
     0
  9
$DIMALTD
 70
     2
  9
$DIMALTF
 40
25.4
  9
$DIMLFAC
 40
1.0
  9
$DIMTOFL
 70
     0
  9
$DIMTVP
 40
0.0
  9
$DIMTIX
 70
     0
  9
$DIMSOXD
 70
     0
  9
$DIMSAH
 70
     0
  9
$DIMBLK1
  1

  9
$DIMBLK2
  1

  9
$DIMSTYLE
  2
23NSTD
  9
$DIMCLRD
 70
     0
  9
$DIMCLRE
 70
     0
  9
$DIMCLRT
 70
     0
  9
$DIMTFAC
 40
1.0
  9
$DIMGAP
 40
0.09
  9
$DIMJUST
 70
     0
  9
$DIMSD1
 70
     0
  9
$DIMSD2
 70
     0
  9
$DIMTOLJ
 70
     1
  9
$DIMTZIN
 70
     0
  9
$DIMALTZ
 70
     0
  9
$DIMALTTZ
 70
     0
  9
$DIMFIT
 70
     1
  9
$DIMUPT
 70
     0
  9
$DIMUNIT
 70
     2
  9
$DIMDEC
 70
     3
  9
$DIMTDEC
 70
     3
  9
$DIMALTU
 70
     2
  9
$DIMALTTD
 70
     2
  9
$DIMTXSTY
  7
TXT
  9
$DIMAUNIT
 70
     0
  9
$LUNITS
 70
     2
  9
$LUPREC
 70
     3
  9
$SKETCHINC
 40
0.1
  9
$FILLETRAD
 40
0.016
  9
$AUNITS
 70
     0
  9
$AUPREC
 70
     0
  9
$MENU
  1
acad
  9
$ELEVATION
 40
0.0
  9
$PELEVATION
 40
0.0
  9
$THICKNESS
 40
0.0
  9
$LIMCHECK
 70
     0
  9
$BLIPMODE
 70
     0
  9
$CHAMFERA
 40
0.7530000000000002
  9
$CHAMFERB
 40
0.7530000000000002
  9
$CHAMFERC
 40
0.0
  9
$CHAMFERD
 40
0.0
  9
$SKPOLY
 70
     0
  9
$TDCREATE
 40
2450137.349551968
  9
$TDUPDATE
 40
2455471.449258715
  9
$TDINDWG
 40
0.2416286343
  9
$TDUSRTIMER
 40
0.2416286343
  9
$USRTIMER
 70
     1
  9
$ANGBASE
 50
0.0
  9
$ANGDIR
 70
     0
  9
$PDMODE
 70
     0
  9
$PDSIZE
 40
0.0
  9
$PLINEWID
 40
0.0
  9
$COORDS
 70
     2
  9
$SPLFRAME
 70
     0
  9
$SPLINETYPE
 70
     6
  9
$SPLINESEGS
 70
     8
  9
$ATTDIA
 70
     0
  9
$ATTREQ
 70
     1
  9
$HANDLING
 70
  4097
  9
$HANDSEED
  5
CF8
  9
$SURFTAB1
 70
     6
  9
$SURFTAB2
 70
     6
  9
$SURFTYPE
 70
     6
  9
$SURFU
 70
     6
  9
$SURFV
 70
     6
  9
$UCSNAME
  2

  9
$UCSORG
 10
0.0
 20
0.0
 30
0.0
  9
$UCSXDIR
 10
1.0
 20
0.0
 30
0.0
  9
$UCSYDIR
 10
0.0
 20
1.0
 30
0.0
  9
$PUCSNAME
  2

  9
$PUCSORG
 10
0.0
 20
0.0
 30
0.0
  9
$PUCSXDIR
 10
1.0
 20
0.0
 30
0.0
  9
$PUCSYDIR
 10
0.0
 20
1.0
 30
0.0
  9
$USERI1
 70
     0
  9
$USERI2
 70
     0
  9
$USERI3
 70
     0
  9
$USERI4
 70
     0
  9
$USERI5
 70
     0
  9
$USERR1
 40
0.0
  9
$USERR2
 40
0.0
  9
$USERR3
 40
0.0
  9
$USERR4
 40
0.0
  9
$USERR5
 40
0.0
  9
$WORLDVIEW
 70
     1
  9
$SHADEDGE
 70
     3
  9
$SHADEDIF
 70
    70
  9
$TILEMODE
 70
     1
  9
$MAXACTVP
 70
    16
  9
$PINSBASE
 10
0.0
 20
0.0
 30
0.0
  9
$PLIMCHECK
 70
     0
  9
$PEXTMIN
 10
1.000000000000000E+20
 20
1.000000000000000E+20
 30
1.000000000000000E+20
  9
$PEXTMAX
 10
-1.000000000000000E+20
 20
-1.000000000000000E+20
 30
-1.000000000000000E+20
  9
$PLIMMIN
 10
0.0
 20
0.0
  9
$PLIMMAX
 10
12.0
 20
9.0
  9
$UNITMODE
 70
     0
  9
$VISRETAIN
 70
     0
  9
$PLINEGEN
 70
     0
  9
$PSLTSCALE
 70
     1
  9
$TREEDEPTH
 70
  3020
  9
$PICKSTYLE
 70
     1
  9
$CMLSTYLE
  2
STANDARD
  9
$CMLJUST
 70
     0
  9
$CMLSCALE
 40
1.0
  9
$PROXYGRAPHICS
 70
     1
  9
$MEASUREMENT
 70
     0
  0
ENDSEC
  0
SECTION
  2
CLASSES
  0
CLASS
  1
ACDBDICTIONARYWDFLT
  2
AcDbDictionaryWithDefault
  3
AutoCAD 2000
 90
        0
280
     0
281
     0
  0
CLASS
  1
ACDBPLACEHOLDER
  2
AcDbPlaceHolder
  3
AutoCAD 2000
 90
        0
280
     0
281
     0
  0
CLASS
  1
LAYOUT
  2
AcDbLayout
  3
AutoCAD 2000
 90
        0
280
     0
281
     0
  0
CLASS
  1
LONG_TRANSACTION
  2
AcDbLongTransaction
  3
AutoCAD 2000
 90
        0
280
     0
281
     0
  0
CLASS
  1
LWPOLYLINE
  2
AcDbPolyline
  3
AutoCAD 2000
 90
        0
280
     0
281
     1
  0
CLASS
  1
HATCH
  2
AcDbHatch
  3
AutoCAD 2000
 90
        0
280
     0
281
     1
  0
CLASS
  1
XRECORD
  2
AcDbXrecord
  3
AutoCAD 2000
 90
        0
280
     0
281
     0
  0
ENDSEC
  0
SECTION
  2
TABLES
  0
TABLE
  2
VPORT
  5
8
330
0
100
AcDbSymbolTable
 70
     2
  0
VPORT
  5
CA0
330
8
100
AcDbSymbolTableRecord
100
AcDbViewportTableRecord
  2
*ACTIVE
 70
     0
 10
0.0
 20
0.0
 11
1.0
 21
1.0
 12
7.590000070689546
 22
11.62500010826955
 13
0.0
 23
0.0
 14
1.0
 24
1.0
 15
0.0
 25
0.0
 16
0.0
 26
0.0
 36
1.0
 17
0.0
 27
0.0
 37
0.0
 40
23.48692719676498
 41
1.836974789915966
 42
50.0
 43
0.0
 44
0.0
 50
0.0
 51
0.0
 71
     0
 72
  5000
 73
     1
 74
     0
 75
     0
 76
     0
 77
     0
 78
     0
  0
ENDTAB
  0
TABLE
  2
LTYPE
  5
5
330
0
100
AcDbSymbolTable
 70
     6
  0
LTYPE
  5
13
330
5
100
AcDbSymbolTableRecord
100
AcDbLinetypeTableRecord
  2
BYBLOCK
 70
     0
  3

 72
    65
 73
     0
 40
0.0
  0
LTYPE
  5
14
330
5
100
AcDbSymbolTableRecord
100
AcDbLinetypeTableRecord
  2
BYLAYER
 70
     0
  3

 72
    65
 73
     0
 40
0.0
  0
LTYPE
  5
15
330
5
100
AcDbSymbolTableRecord
100
AcDbLinetypeTableRecord
  2
CONTINUOUS
 70
     0
  3
Solid line
 72
    65
 73
     0
 40
0.0
  0
LTYPE
  5
45
330
5
100
AcDbSymbolTableRecord
100
AcDbLinetypeTableRecord
  2
HIDDEN
 70
     0
  3
_ _ _ _ _ _ _ _ _ _ _ _ _ _ _ _ _ _ _ _ _ _ _
 72
    65
 73
     2
 40
0.375
 49
0.25
 74
     0
 49
-0.125
 74
     0
  0
LTYPE
  5
46
330
5
100
AcDbSymbolTableRecord
100
AcDbLinetypeTableRecord
  2
PHANTOM
 70
     0
  3
_____ _ _ _____ _ _ _____ _ _ _____ _ _ ____
 72
    65
 73
     6
 40
2.5
 49
1.25
 74
     0
 49
-0.25
 74
     0
 49
0.25
 74
     0
 49
-0.25
 74
     0
 49
0.25
 74
     0
 49
-0.25
 74
     0
  0
LTYPE
  5
47
330
5
100
AcDbSymbolTableRecord
100
AcDbLinetypeTableRecord
  2
CENTER
 70
     0
  3
____ _ ____ _ ____ _ ____ _ ____ _ ____ _ ____
 72
    65
 73
     4
 40
2.0
 49
1.25
 74
     0
 49
-0.25
 74
     0
 49
0.25
 74
     0
 49
-0.25
 74
     0
  0
LTYPE
  5
8B0
330
5
100
AcDbSymbolTableRecord
100
AcDbLinetypeTableRecord
  2
HIDDEN2
 70
     0
  3
_ _ _ _ _ _ _ _ _ _ _ _ _ _ _ _ _ _ _ _ _ _ _ _
 72
    65
 73
     2
 40
0.1875
 49
0.125
 74
     0
 49
-0.0625
 74
     0
  0
LTYPE
  5
8B1
330
5
100
AcDbSymbolTableRecord
100
AcDbLinetypeTableRecord
  2
PHANTOM2
 70
     0
  3
___ _ _ ___ _ _ ___ _ _ ___ _ _ ___ _ _ ___ _ _
 72
    65
 73
     6
 40
1.25
 49
0.625
 74
     0
 49
-0.125
 74
     0
 49
0.125
 74
     0
 49
-0.125
 74
     0
 49
0.125
 74
     0
 49
-0.125
 74
     0
  0
ENDTAB
  0
TABLE
  2
LAYER
  5
2
330
0
100
AcDbSymbolTable
 70
     9
  0
LAYER
  5
10
330
2
100
AcDbSymbolTableRecord
100
AcDbLayerTableRecord
  2
0
 70
     0
 62
     7
  6
CONTINUOUS
  0
LAYER
  5
4E
330
2
100
AcDbSymbolTableRecord
100
AcDbLayerTableRecord
  2
OBJECT
 70
     0
 62
     7
  6
CONTINUOUS
  0
LAYER
  5
4F
330
2
100
AcDbSymbolTableRecord
100
AcDbLayerTableRecord
  2
DIM
 70
     0
 62
     7
  6
CONTINUOUS
  0
LAYER
  5
50
330
2
100
AcDbSymbolTableRecord
100
AcDbLayerTableRecord
  2
HIDDEN
 70
     0
 62
     7
  6
HIDDEN
  0
LAYER
  5
51
330
2
100
AcDbSymbolTableRecord
100
AcDbLayerTableRecord
  2
BEND
 70
     0
 62
     7
  6
PHANTOM
  0
LAYER
  5
52
330
2
100
AcDbSymbolTableRecord
100
AcDbLayerTableRecord
  2
TEXT
 70
     0
 62
     7
  6
CONTINUOUS
  0
LAYER
  5
53
330
2
100
AcDbSymbolTableRecord
100
AcDbLayerTableRecord
  2
TITLE
 70
     0
 62
     7
  6
CONTINUOUS
  0
LAYER
  5
54
330
2
100
AcDbSymbolTableRecord
100
AcDbLayerTableRecord
  2
CENTER
 70
     0
 62
     7
  6
CENTER
  0
LAYER
  5
55
330
2
100
AcDbSymbolTableRecord
100
AcDbLayerTableRecord
  2
DEFPOINTS
 70
     0
 62
     7
  6
CONTINUOUS
  0
ENDTAB
  0
TABLE
  2
STYLE
  5
3
330
0
100
AcDbSymbolTable
 70
     3
  0
STYLE
  5
11
330
3
100
AcDbSymbolTableRecord
100
AcDbTextStyleTableRecord
  2
STANDARD
 70
     0
 40
0.0
 41
1.0
 50
0.0
 71
     0
 42
0.2
  3
txt
  4

  0
STYLE
  5
43
330
3
100
AcDbSymbolTableRecord
100
AcDbTextStyleTableRecord
  2
TXT
 70
     0
 40
0.0
 41
0.75
 50
0.0
 71
     0
 42
0.187
  3
TXT.shx
  4

  0
STYLE
  5
44
330
3
100
AcDbSymbolTableRecord
100
AcDbTextStyleTableRecord
  2
CITYBLUEPRINT
 70
     0
 40
0.125
 41
1.0
 50
0.0
 71
     0
 42
0.125
  3
cibt____.pfb
  4

  0
ENDTAB
  0
TABLE
  2
VIEW
  5
6
330
0
100
AcDbSymbolTable
 70
     0
  0
ENDTAB
  0
TABLE
  2
UCS
  5
7
330
0
100
AcDbSymbolTable
 70
     0
  0
ENDTAB
  0
TABLE
  2
APPID
  5
9
330
0
100
AcDbSymbolTable
 70
     1
  0
APPID
  5
12
330
9
100
AcDbSymbolTableRecord
100
AcDbRegAppTableRecord
  2
ACAD
 70
     0
  0
ENDTAB
  0
TABLE
  2
DIMSTYLE
  5
A
330
0
100
AcDbSymbolTable
 70
     2
  0
DIMSTYLE
105
4A
102
{ACAD_REACTORS
330
23E
330
247
330
248
330
249
330
24A
330
24E
330
2A2
330
2A4
330
2A5
330
2A6
330
2F5
330
2F6
330
2F7
330
2F8
330
2F9
330
312
330
313
330
314
330
315
330
316
330
317
330
329
330
32A
330
333
330
334
330
337
330
403
330
437
102
}
330
A
100
AcDbSymbolTableRecord
100
AcDbDimStyleTableRecord
  2
23NSTD
 70
     0
  3

  4

  5

  6

  7

 40
1.5
 41
0.18
 42
0.063
 43
0.281
 44
0.093
 45
0.0
 46
0.0
 47
0.0
 48
0.0
140
0.125
141
0.09
142
0.0
143
25.4
144
1.0
145
0.0
146
1.0
147
0.09
 71
     0
 72
     0
 73
     1
 74
     1
 75
     0
 76
     0
 77
     0
 78
     0
170
     0
171
     2
172
     0
173
     0
174
     0
175
     0
176
     0
177
     0
178
     0
270
     2
271
     3
272
     3
273
     2
274
     2
340
43
275
     0
280
     0
281
     0
282
     0
283
     1
284
     0
285
     0
286
     0
287
     1
288
     0
  0
DIMSTYLE
105
4B
102
{ACAD_REACTORS
330
335
330
336
102
}
330
A
100
AcDbSymbolTableRecord
100
AcDbDimStyleTableRecord
  2
23NSTDI
 70
     0
  3

  4

  5

  6

  7

 40
1.5
 41
0.18
 42
0.063
 43
0.281
 44
0.093
 45
0.0
 46
0.0
 47
0.0
 48
0.0
140
0.125
141
0.09
142
0.0
143
25.4
144
1.0
145
0.0
146
1.0
147
0.09
 71
     0
 72
     0
 73
     1
 74
     1
 75
     0
 76
     0
 77
     0
 78
     0
170
     0
171
     2
172
     0
173
     0
174
     1
175
     0
176
     0
177
     0
178
     0
270
     2
271
     3
272
     3
273
     2
274
     2
340
43
275
     0
280
     0
281
     0
282
     0
283
     1
284
     0
285
     0
286
     0
287
     3
288
     0
  0
ENDTAB
  0
TABLE
  2
BLOCK_RECORD
  5
1
330
0
100
AcDbSymbolTable
 70
    31
  0
BLOCK_RECORD
  5
1E
102
{ACAD_XDICTIONARY
360
CC4
102
}
330
1
100
AcDbSymbolTableRecord
100
AcDbBlockTableRecord
  2
*MODEL_SPACE
  0
BLOCK_RECORD
  5
1A
102
{ACAD_XDICTIONARY
360
CC2
102
}
330
1
100
AcDbSymbolTableRecord
100
AcDbBlockTableRecord
  2
*PAPER_SPACE
  0
BLOCK_RECORD
  5
22
330
1
100
AcDbSymbolTableRecord
100
AcDbBlockTableRecord
  2
HB
  0
BLOCK_RECORD
  5
451
330
1
100
AcDbSymbolTableRecord
100
AcDbBlockTableRecord
  2
*D1
  0
BLOCK_RECORD
  5
45E
330
1
100
AcDbSymbolTableRecord
100
AcDbBlockTableRecord
  2
*D2
  0
BLOCK_RECORD
  5
46B
330
1
100
AcDbSymbolTableRecord
100
AcDbBlockTableRecord
  2
*D3
  0
BLOCK_RECORD
  5
478
330
1
100
AcDbSymbolTableRecord
100
AcDbBlockTableRecord
  2
*D4
  0
BLOCK_RECORD
  5
485
330
1
100
AcDbSymbolTableRecord
100
AcDbBlockTableRecord
  2
*D5
  0
BLOCK_RECORD
  5
492
330
1
100
AcDbSymbolTableRecord
100
AcDbBlockTableRecord
  2
*D6
  0
BLOCK_RECORD
  5
49F
330
1
100
AcDbSymbolTableRecord
100
AcDbBlockTableRecord
  2
*D7
  0
BLOCK_RECORD
  5
4AF
330
1
100
AcDbSymbolTableRecord
100
AcDbBlockTableRecord
  2
*D8
  0
BLOCK_RECORD
  5
4BC
330
1
100
AcDbSymbolTableRecord
100
AcDbBlockTableRecord
  2
*D9
  0
BLOCK_RECORD
  5
4C9
330
1
100
AcDbSymbolTableRecord
100
AcDbBlockTableRecord
  2
*D10
  0
BLOCK_RECORD
  5
4D6
330
1
100
AcDbSymbolTableRecord
100
AcDbBlockTableRecord
  2
*D11
  0
BLOCK_RECORD
  5
4E3
330
1
100
AcDbSymbolTableRecord
100
AcDbBlockTableRecord
  2
*D12
  0
BLOCK_RECORD
  5
4F0
330
1
100
AcDbSymbolTableRecord
100
AcDbBlockTableRecord
  2
*D13
  0
BLOCK_RECORD
  5
4FD
330
1
100
AcDbSymbolTableRecord
100
AcDbBlockTableRecord
  2
*D14
  0
BLOCK_RECORD
  5
50A
330
1
100
AcDbSymbolTableRecord
100
AcDbBlockTableRecord
  2
*D15
  0
BLOCK_RECORD
  5
517
330
1
100
AcDbSymbolTableRecord
100
AcDbBlockTableRecord
  2
*D16
  0
BLOCK_RECORD
  5
527
330
1
100
AcDbSymbolTableRecord
100
AcDbBlockTableRecord
  2
*D17
  0
BLOCK_RECORD
  5
534
330
1
100
AcDbSymbolTableRecord
100
AcDbBlockTableRecord
  2
*D18
  0
BLOCK_RECORD
  5
543
330
1
100
AcDbSymbolTableRecord
100
AcDbBlockTableRecord
  2
*D19
  0
BLOCK_RECORD
  5
54F
330
1
100
AcDbSymbolTableRecord
100
AcDbBlockTableRecord
  2
*D20
  0
BLOCK_RECORD
  5
55C
330
1
100
AcDbSymbolTableRecord
100
AcDbBlockTableRecord
  2
*D21
  0
BLOCK_RECORD
  5
569
330
1
100
AcDbSymbolTableRecord
100
AcDbBlockTableRecord
  2
*D22
  0
BLOCK_RECORD
  5
576
330
1
100
AcDbSymbolTableRecord
100
AcDbBlockTableRecord
  2
*D23
  0
BLOCK_RECORD
  5
583
330
1
100
AcDbSymbolTableRecord
100
AcDbBlockTableRecord
  2
*D24
  0
BLOCK_RECORD
  5
590
330
1
100
AcDbSymbolTableRecord
100
AcDbBlockTableRecord
  2
*D25
  0
BLOCK_RECORD
  5
59D
330
1
100
AcDbSymbolTableRecord
100
AcDbBlockTableRecord
  2
*D26
  0
BLOCK_RECORD
  5
5AA
330
1
100
AcDbSymbolTableRecord
100
AcDbBlockTableRecord
  2
*D27
  0
BLOCK_RECORD
  5
5B7
330
1
100
AcDbSymbolTableRecord
100
AcDbBlockTableRecord
  2
*D28
  0
BLOCK_RECORD
  5
5C4
330
1
100
AcDbSymbolTableRecord
100
AcDbBlockTableRecord
  2
*D29
  0
BLOCK_RECORD
  5
5D1
330
1
100
AcDbSymbolTableRecord
100
AcDbBlockTableRecord
  2
*D30
  0
ENDTAB
  0
ENDSEC
  0
SECTION
  2
BLOCKS
  0
BLOCK
  5
58
330
1E
100
AcDbEntity
  8
0
100
AcDbBlockBegin
  2
*MODEL_SPACE
 70
     0
 10
0.0
 20
0.0
 30
0.0
  3
*MODEL_SPACE
  1

  0
ENDBLK
  5
59
330
1E
100
AcDbEntity
  8
0
100
AcDbBlockEnd
  0
BLOCK
  5
56
330
1A
100
AcDbEntity
 67
     1
  8
0
100
AcDbBlockBegin
  2
*PAPER_SPACE
 70
     0
 10
0.0
 20
0.0
 30
0.0
  3
*PAPER_SPACE
  1

  0
ENDBLK
  5
57
330
1A
100
AcDbEntity
 67
     1
  8
0
100
AcDbBlockEnd
  0
BLOCK
  5
5A
330
22
100
AcDbEntity
  8
0
100
AcDbBlockBegin
  2
HB
 70
     0
 10
0.0
 20
0.0
 30
0.0
  3
HB
  1

  0
LINE
  5
8B2
330
22
100
AcDbEntity
  8
TITLE
100
AcDbLine
 10
0.0
 20
15.5
 30
0.0
 11
10.11999999999999
 21
15.49999999999999
 31
0.0
  0
LINE
  5
8B3
330
22
100
AcDbEntity
  8
TITLE
100
AcDbLine
 10
10.11999999999999
 20
-0.0000000000000018
 30
0.0
 11
0.0
 21
0.0
 31
0.0
  0
LINE
  5
8B4
330
22
100
AcDbEntity
  8
TITLE
100
AcDbLine
 10
0.0620000000000012
 20
15.438
 30
0.0
 11
10.058
 21
15.438
 31
0.0
  0
LINE
  5
8B5
330
22
100
AcDbEntity
  8
TITLE
100
AcDbLine
 10
10.058
 20
0.0619999999999994
 30
0.0
 11
0.0619999999999976
 21
0.0620000000000012
 31
0.0
  0
LINE
  5
8B6
330
22
100
AcDbEntity
  8
TITLE
100
AcDbLine
 10
0.0620000000000012
 20
15.01999999999999
 30
0.0
 11
10.058
 21
15.01999999999999
 31
0.0
  0
LINE
  5
8B7
330
22
100
AcDbEntity
  8
TITLE
100
AcDbLine
 10
0.0
 20
0.0
 30
0.0
 11
0.0
 21
15.5
 31
0.0
  0
LINE
  5
8B8
330
22
100
AcDbEntity
  8
TITLE
100
AcDbLine
 10
0.0619999999999976
 20
0.0620000000000012
 30
0.0
 11
0.0620000000000012
 21
15.438
 31
0.0
  0
TEXT
  5
8B9
330
22
100
AcDbEntity
  8
TEXT
100
AcDbText
 10
0.2078333333333381
 20
15.26841252897341
 30
0.0
 40
0.125
  1
PART
  7
TXT
 72
     1
 11
0.4370000000000048
 21
15.26841252897341
 31
0.0
100
AcDbText
  0
TEXT
  5
8BA
330
22
100
AcDbEntity
  8
TEXT
100
AcDbText
 10
0.2078333333333381
 20
15.06007919564008
 30
0.0
 40
0.125
  1
NAME
  7
TXT
 72
     1
 11
0.4370000000000048
 21
15.06007919564008
 31
0.0
100
AcDbText
  0
LINE
  5
8BB
330
22
100
AcDbEntity
  8
TITLE
100
AcDbLine
 10
0.8120000000000047
 20
15.01999999999999
 30
0.0
 11
0.8120000000000011
 21
15.438
 31
0.0
  0
LINE
  5
8BC
330
22
100
AcDbEntity
  8
TITLE
100
AcDbLine
 10
10.11999999999999
 20
15.49999999999999
 30
0.0
 11
10.11999999999999
 21
-0.0000000000000018
 31
0.0
  0
LINE
  5
8BD
330
22
100
AcDbEntity
  8
TITLE
100
AcDbLine
 10
10.058
 20
15.438
 30
0.0
 11
10.058
 21
0.0619999999999994
 31
0.0
  0
TEXT
  5
8BE
330
22
100
AcDbEntity
  8
TEXT
100
AcDbText
 10
4.36183333333333
 20
15.26841252897341
 30
0.0
 40
0.125
  1
PART
  7
TXT
 72
     1
 11
4.590999999999997
 21
15.26841252897341
 31
0.0
100
AcDbText
  0
LINE
  5
8BF
330
22
100
AcDbEntity
  8
TITLE
100
AcDbLine
 10
4.153999999999999
 20
15.438
 30
0.0
 11
4.153999999999999
 21
15.01999999999999
 31
0.0
  0
LINE
  5
8C0
330
22
100
AcDbEntity
  8
TITLE
100
AcDbLine
 10
4.215999999999997
 20
15.438
 30
0.0
 11
4.215999999999997
 21
15.01999999999999
 31
0.0
  0
TEXT
  5
8C1
330
22
100
AcDbEntity
  8
TEXT
100
AcDbText
 10
4.465999999999997
 20
15.06007919564008
 30
0.0
 40
0.125
  1
No.
  7
TXT
 72
     1
 11
4.590999999999997
 21
15.06007919564008
 31
0.0
100
AcDbText
  0
LINE
  5
8C2
330
22
100
AcDbEntity
  8
TITLE
100
AcDbLine
 10
4.965999999999997
 20
15.438
 30
0.0
 11
4.965999999999997
 21
15.01999999999999
 31
0.0
  0
LINE
  5
8C3
330
22
100
AcDbEntity
  8
TITLE
100
AcDbLine
 10
8.307999999999999
 20
15.438
 30
0.0
 11
8.307999999999999
 21
15.02
 31
0.0
  0
LINE
  5
8C4
330
22
100
AcDbEntity
  8
TITLE
100
AcDbLine
 10
8.245999999999988
 20
15.438
 30
0.0
 11
8.245999999999988
 21
15.02
 31
0.0
  0
TEXT
  5
8C5
330
22
100
AcDbEntity
  8
TEXT
100
AcDbText
 10
8.453833333333333
 20
15.06007919564008
 30
0.0
 40
0.125
  1
DATE
  7
TXT
 72
     1
 11
8.682999999999999
 21
15.06007919564008
 31
0.0
100
AcDbText
  0
TEXT
  5
8C6
330
22
100
AcDbEntity
  8
TEXT
100
AcDbText
 10
8.474666666666665
 20
15.26841252897341
 30
0.0
 40
0.125
  1
REV.
  7
TXT
 72
     1
 11
8.682999999999999
 21
15.26841252897341
 31
0.0
100
AcDbText
  0
LINE
  5
8C7
330
22
100
AcDbEntity
  8
TITLE
100
AcDbLine
 10
9.057999999999999
 20
15.438
 30
0.0
 11
9.057999999999999
 21
15.02
 31
0.0
  0
ENDBLK
  5
6D
330
22
100
AcDbEntity
  8
0
100
AcDbBlockEnd
  0
BLOCK
  5
45C
330
451
100
AcDbEntity
  8
0
100
AcDbBlockBegin
  2
*D1
 70
     1
 10
0.0
 20
0.0
 30
0.0
  3
*D1
  1

  0
LINE
  5
AAA
330
451
100
AcDbEntity
  8
DIM
 62
     0
100
AcDbLine
 10
7.560963320718959
 20
17.2075955388393
 30
0.0
 11
7.560963320718959
 21
17.09988346871442
 31
0.0
  0
LINE
  5
AAB
330
451
100
AcDbEntity
  8
DIM
 62
     0
100
AcDbLine
 10
6.807979978837342
 20
18.47274906737287
 30
0.0
 11
6.807979978837342
 21
17.09988346871442
 31
0.0
  0
LINE
  5
AAC
330
451
100
AcDbEntity
  8
DIM
 62
     0
100
AcDbLine
 10
7.830963320718959
 20
17.23938346871442
 30
0.0
 11
8.10096332071896
 21
17.23938346871442
 31
0.0
  0
LINE
  5
AAD
330
451
100
AcDbEntity
  8
DIM
 62
     0
100
AcDbLine
 10
6.537979978837341
 20
17.23938346871442
 30
0.0
 11
6.267979978837342
 21
17.23938346871442
 31
0.0
  0
SOLID
  5
AAE
330
451
100
AcDbEntity
  8
DIM
 62
     0
100
AcDbTrace
 10
7.830963320718959
 20
17.28438346871442
 30
0.0
 11
7.830963320718959
 21
17.19438346871442
 31
0.0
 12
7.560963320718959
 22
17.23938346871442
 32
0.0
 13
7.560963320718959
 23
17.23938346871442
 33
0.0
  0
SOLID
  5
AAF
330
451
100
AcDbEntity
  8
DIM
 62
     0
100
AcDbTrace
 10
6.537979978837341
 20
17.28438346871442
 30
0.0
 11
6.537979978837341
 21
17.19438346871442
 31
0.0
 12
6.807979978837342
 22
17.23938346871442
 32
0.0
 13
6.807979978837342
 23
17.23938346871442
 33
0.0
  0
MTEXT
  5
AB0
330
451
100
AcDbEntity
  8
DIM
 62
     0
100
AcDbMText
 10
7.184471649778151
 20
17.23938346871442
 30
0.0
 40
0.1875
 41
0.0
 71
     5
 72
     1
  1
\A1;0.753
  7
TXT
1001
ACAD
1000
MTEXTBEGIN
1070
    73
1070
     1
1070
    44
1040
1.0
1070
    74
1070
     0
1000
MTEXTEND
  0
POINT
  5
AB1
330
451
100
AcDbEntity
  8
DEFPOINTS
 62
     0
100
AcDbPoint
 10
7.560963320718959
 20
17.3020955388393
 30
0.0
  0
POINT
  5
AB2
330
451
100
AcDbEntity
  8
DEFPOINTS
 62
     0
100
AcDbPoint
 10
6.807979978837342
 20
18.56724906737287
 30
0.0
  0
POINT
  5
AB3
330
451
100
AcDbEntity
  8
DEFPOINTS
 62
     0
100
AcDbPoint
 10
6.807979978837342
 20
17.23938346871442
 30
0.0
  0
ENDBLK
  5
45D
330
451
100
AcDbEntity
  8
0
100
AcDbBlockEnd
  0
BLOCK
  5
469
330
45E
100
AcDbEntity
  8
0
100
AcDbBlockBegin
  2
*D2
 70
     1
 10
0.0
 20
0.0
 30
0.0
  3
*D2
  1

  0
LINE
  5
AB4
330
45E
100
AcDbEntity
  8
DIM
  6
CONTINUOUS
 62
     0
100
AcDbLine
 10
3.090713320718958
 20
15.65249906737287
 30
0.0
 11
3.090713320718958
 21
14.94013356911781
 31
0.0
  0
LINE
  5
AB5
330
45E
100
AcDbEntity
  8
DIM
  6
CONTINUOUS
 62
     0
100
AcDbLine
 10
7.694713320718959
 20
15.65249906737287
 30
0.0
 11
7.694713320718959
 21
14.94013356911781
 31
0.0
  0
LINE
  5
AB6
330
45E
100
AcDbEntity
  8
DIM
  6
CONTINUOUS
 62
     0
100
AcDbLine
 10
3.360713320718959
 20
15.07963356911781
 30
0.0
 11
5.210838320718959
 21
15.07963356911781
 31
0.0
  0
LINE
  5
AB7
330
45E
100
AcDbEntity
  8
DIM
  6
CONTINUOUS
 62
     0
100
AcDbLine
 10
7.424713320718959
 20
15.07963356911781
 30
0.0
 11
5.574588320718959
 21
15.07963356911781
 31
0.0
  0
SOLID
  5
AB8
330
45E
100
AcDbEntity
  8
DIM
  6
CONTINUOUS
 62
     0
100
AcDbTrace
 10
3.360713320718959
 20
15.12463356911781
 30
0.0
 11
3.360713320718959
 21
15.03463356911781
 31
0.0
 12
3.090713320718958
 22
15.07963356911781
 32
0.0
 13
3.090713320718958
 23
15.07963356911781
 33
0.0
  0
SOLID
  5
AB9
330
45E
100
AcDbEntity
  8
DIM
  6
CONTINUOUS
 62
     0
100
AcDbTrace
 10
7.424713320718959
 20
15.12463356911781
 30
0.0
 11
7.424713320718959
 21
15.03463356911781
 31
0.0
 12
7.694713320718959
 22
15.07963356911781
 32
0.0
 13
7.694713320718959
 23
15.07963356911781
 33
0.0
  0
MTEXT
  5
ABA
330
45E
100
AcDbEntity
  8
DIM
  6
CONTINUOUS
 62
     0
100
AcDbMText
 10
5.392713320718959
 20
15.07963356911781
 30
0.0
 40
0.1875
 41
0.0
 71
     5
 72
     1
  1
\A1;D
  7
TXT
1001
ACAD
1000
MTEXTBEGIN
1070
    73
1070
     1
1070
    44
1040
1.0
1070
    74
1070
     0
1000
MTEXTEND
  0
POINT
  5
ABB
330
45E
100
AcDbEntity
  8
DEFPOINTS
  6
CONTINUOUS
 62
     0
100
AcDbPoint
 10
3.090713320718958
 20
15.74699906737287
 30
0.0
  0
POINT
  5
ABC
330
45E
100
AcDbEntity
  8
DEFPOINTS
  6
CONTINUOUS
 62
     0
100
AcDbPoint
 10
7.694713320718959
 20
15.74699906737287
 30
0.0
  0
POINT
  5
ABD
330
45E
100
AcDbEntity
  8
DEFPOINTS
  6
CONTINUOUS
 62
     0
100
AcDbPoint
 10
7.694713320718959
 20
15.07963356911781
 30
0.0
  0
ENDBLK
  5
46A
330
45E
100
AcDbEntity
  8
0
100
AcDbBlockEnd
  0
BLOCK
  5
476
330
46B
100
AcDbEntity
  8
0
100
AcDbBlockBegin
  2
*D3
 70
     1
 10
0.0
 20
0.0
 30
0.0
  3
*D3
  1

  0
LINE
  5
ABE
330
46B
100
AcDbEntity
  8
DIM
  6
CONTINUOUS
 62
     0
100
AcDbLine
 10
7.63921332071896
 20
18.70099906737286
 30
0.0
 11
8.548308653599272
 21
18.70099906737285
 31
0.0
  0
LINE
  5
ABF
330
46B
100
AcDbEntity
  8
DIM
  6
CONTINUOUS
 62
     0
100
AcDbLine
 10
7.63921332071896
 20
15.59699906737287
 30
0.0
 11
8.548308653599272
 21
15.59699906737287
 31
0.0
  0
LINE
  5
AC0
330
46B
100
AcDbEntity
  8
DIM
  6
CONTINUOUS
 62
     0
100
AcDbLine
 10
8.408808653599272
 20
18.43099906737285
 30
0.0
 11
8.408808653599272
 21
17.37774906737286
 31
0.0
  0
LINE
  5
AC1
330
46B
100
AcDbEntity
  8
DIM
  6
CONTINUOUS
 62
     0
100
AcDbLine
 10
8.408808653599272
 20
15.86699906737287
 30
0.0
 11
8.408808653599272
 21
16.92024906737286
 31
0.0
  0
SOLID
  5
AC2
330
46B
100
AcDbEntity
  8
DIM
  6
CONTINUOUS
 62
     0
100
AcDbTrace
 10
8.363808653599273
 20
18.43099906737285
 30
0.0
 11
8.453808653599272
 21
18.43099906737285
 31
0.0
 12
8.408808653599272
 22
18.70099906737285
 32
0.0
 13
8.408808653599272
 23
18.70099906737285
 33
0.0
  0
SOLID
  5
AC3
330
46B
100
AcDbEntity
  8
DIM
  6
CONTINUOUS
 62
     0
100
AcDbTrace
 10
8.363808653599273
 20
15.86699906737287
 30
0.0
 11
8.453808653599272
 21
15.86699906737287
 31
0.0
 12
8.408808653599272
 22
15.59699906737287
 32
0.0
 13
8.408808653599272
 23
15.59699906737287
 33
0.0
  0
MTEXT
  5
AC4
330
46B
100
AcDbEntity
  8
DIM
  6
CONTINUOUS
 62
     0
100
AcDbMText
 10
8.408808653599271
 20
17.14899906737286
 30
0.0
 40
0.1875
 41
0.0
 71
     5
 72
     1
  1
\A1;K
  7
TXT
1001
ACAD
1000
MTEXTBEGIN
1070
    73
1070
     1
1070
    44
1040
1.0
1070
    74
1070
     0
1000
MTEXTEND
  0
POINT
  5
AC5
330
46B
100
AcDbEntity
  8
DEFPOINTS
  6
CONTINUOUS
 62
     0
100
AcDbPoint
 10
7.54471332071896
 20
18.70099906737286
 30
0.0
  0
POINT
  5
AC6
330
46B
100
AcDbEntity
  8
DEFPOINTS
  6
CONTINUOUS
 62
     0
100
AcDbPoint
 10
7.54471332071896
 20
15.59699906737287
 30
0.0
  0
POINT
  5
AC7
330
46B
100
AcDbEntity
  8
DEFPOINTS
  6
CONTINUOUS
 62
     0
100
AcDbPoint
 10
8.408808653599272
 20
15.59699906737287
 30
0.0
  0
ENDBLK
  5
477
330
46B
100
AcDbEntity
  8
0
100
AcDbBlockEnd
  0
BLOCK
  5
483
330
478
100
AcDbEntity
  8
0
100
AcDbBlockBegin
  2
*D4
 70
     1
 10
0.0
 20
0.0
 30
0.0
  3
*D4
  1

  0
LINE
  5
BA7
330
478
100
AcDbEntity
  8
DIM
 62
     0
100
AcDbLine
 10
3.190713320718961
 20
8.915202654536079
 30
0.0
 11
3.190713320718961
 21
7.130763013124386
 31
0.0
  0
LINE
  5
BA8
330
478
100
AcDbEntity
  8
DIM
 62
     0
100
AcDbLine
 10
7.594713320718962
 20
8.915202654536088
 30
0.0
 11
7.594713320718962
 21
7.130763013124386
 31
0.0
  0
LINE
  5
BA9
330
478
100
AcDbEntity
  8
DIM
 62
     0
100
AcDbLine
 10
3.460713320718961
 20
7.270263013124386
 30
0.0
 11
4.109275820718962
 21
7.270263013124386
 31
0.0
  0
LINE
  5
BAA
330
478
100
AcDbEntity
  8
DIM
 62
     0
100
AcDbLine
 10
7.324713320718963
 20
7.270263013124386
 30
0.0
 11
6.676150820718961
 21
7.270263013124386
 31
0.0
  0
SOLID
  5
BAB
330
478
100
AcDbEntity
  8
DIM
 62
     0
100
AcDbTrace
 10
3.460713320718961
 20
7.315263013124386
 30
0.0
 11
3.460713320718961
 21
7.225263013124386
 31
0.0
 12
3.190713320718961
 22
7.270263013124386
 32
0.0
 13
3.190713320718961
 23
7.270263013124386
 33
0.0
  0
SOLID
  5
BAC
330
478
100
AcDbEntity
  8
DIM
 62
     0
100
AcDbTrace
 10
7.324713320718963
 20
7.315263013124386
 30
0.0
 11
7.324713320718963
 21
7.225263013124386
 31
0.0
 12
7.594713320718962
 22
7.270263013124386
 32
0.0
 13
7.594713320718962
 23
7.270263013124386
 33
0.0
  0
MTEXT
  5
BAD
330
478
100
AcDbEntity
  8
DIM
 62
     0
100
AcDbMText
 10
5.392713320718962
 20
7.270263013124386
 30
0.0
 40
0.1875
 41
0.0
 71
     5
 72
     1
  1
\A1;E  (INSIDE AT TOP)
  7
TXT
1001
ACAD
1000
MTEXTBEGIN
1070
    73
1070
     1
1070
    44
1040
1.0
1070
    74
1070
     0
1000
MTEXTEND
  0
POINT
  5
BAE
330
478
100
AcDbEntity
  8
DEFPOINTS
 62
     0
100
AcDbPoint
 10
3.190713320718961
 20
9.009702654536079
 30
0.1875
  0
POINT
  5
BAF
330
478
100
AcDbEntity
  8
DEFPOINTS
 62
     0
100
AcDbPoint
 10
7.594713320718962
 20
9.009702654536088
 30
0.1875
  0
POINT
  5
BB0
330
478
100
AcDbEntity
  8
DEFPOINTS
 62
     0
100
AcDbPoint
 10
7.594713320718962
 20
7.270263013124386
 30
0.0
  0
ENDBLK
  5
484
330
478
100
AcDbEntity
  8
0
100
AcDbBlockEnd
  0
BLOCK
  5
490
330
485
100
AcDbEntity
  8
0
100
AcDbBlockBegin
  2
*D5
 70
     1
 10
0.0
 20
0.0
 30
0.0
  3
*D5
  1

  0
LINE
  5
B9D
330
485
100
AcDbEntity
  8
DIM
 62
     0
100
AcDbLine
 10
2.767713320718959
 20
11.69120265453607
 30
0.0
 11
2.767713320718959
 21
13.54422367505705
 31
0.0
  0
LINE
  5
B9E
330
485
100
AcDbEntity
  8
DIM
 62
     0
100
AcDbLine
 10
8.017713320718959
 20
11.69120265453607
 30
0.0
 11
8.017713320718959
 21
13.54422367505705
 31
0.0
  0
LINE
  5
B9F
330
485
100
AcDbEntity
  8
DIM
 62
     0
100
AcDbLine
 10
3.037713320718959
 20
13.40472367505705
 30
0.0
 11
5.210838320718959
 21
13.40472367505705
 31
0.0
  0
LINE
  5
BA0
330
485
100
AcDbEntity
  8
DIM
 62
     0
100
AcDbLine
 10
7.747713320718959
 20
13.40472367505705
 30
0.0
 11
5.574588320718959
 21
13.40472367505705
 31
0.0
  0
SOLID
  5
BA1
330
485
100
AcDbEntity
  8
DIM
 62
     0
100
AcDbTrace
 10
3.037713320718959
 20
13.44972367505705
 30
0.0
 11
3.037713320718959
 21
13.35972367505705
 31
0.0
 12
2.767713320718959
 22
13.40472367505705
 32
0.0
 13
2.767713320718959
 23
13.40472367505705
 33
0.0
  0
SOLID
  5
BA2
330
485
100
AcDbEntity
  8
DIM
 62
     0
100
AcDbTrace
 10
7.747713320718959
 20
13.44972367505705
 30
0.0
 11
7.747713320718959
 21
13.35972367505705
 31
0.0
 12
8.017713320718959
 22
13.40472367505705
 32
0.0
 13
8.017713320718959
 23
13.40472367505705
 33
0.0
  0
MTEXT
  5
BA3
330
485
100
AcDbEntity
  8
DIM
 62
     0
100
AcDbMText
 10
5.392713320718959
 20
13.40472367505705
 30
0.0
 40
0.1875
 41
0.0
 71
     5
 72
     1
  1
\A1;B
  7
TXT
1001
ACAD
1000
MTEXTBEGIN
1070
    73
1070
     1
1070
    44
1040
1.0
1070
    74
1070
     0
1000
MTEXTEND
  0
POINT
  5
BA4
330
485
100
AcDbEntity
  8
DEFPOINTS
 62
     0
100
AcDbPoint
 10
2.767713320718959
 20
11.59670265453607
 30
0.0
  0
POINT
  5
BA5
330
485
100
AcDbEntity
  8
DEFPOINTS
 62
     0
100
AcDbPoint
 10
8.017713320718959
 20
11.59670265453607
 30
0.1875
  0
POINT
  5
BA6
330
485
100
AcDbEntity
  8
DEFPOINTS
 62
     0
100
AcDbPoint
 10
8.017713320718959
 20
13.40472367505705
 30
0.0
  0
ENDBLK
  5
491
330
485
100
AcDbEntity
  8
0
100
AcDbBlockEnd
  0
BLOCK
  5
49D
330
492
100
AcDbEntity
  8
0
100
AcDbBlockBegin
  2
*D6
 70
     1
 10
0.0
 20
0.0
 30
0.0
  3
*D6
  1

  0
LINE
  5
B93
330
492
100
AcDbEntity
  8
DIM
 62
     0
100
AcDbLine
 10
2.50471332071896
 20
11.65150482060947
 30
0.0
 11
2.50471332071896
 21
14.01873176121592
 31
0.0
  0
LINE
  5
B94
330
492
100
AcDbEntity
  8
DIM
 62
     0
100
AcDbLine
 10
8.280713320718961
 20
11.65150482060947
 30
0.0
 11
8.280713320718961
 21
14.01873176121592
 31
0.0
  0
LINE
  5
B95
330
492
100
AcDbEntity
  8
DIM
 62
     0
100
AcDbLine
 10
2.77471332071896
 20
13.87923176121592
 30
0.0
 11
5.210838320718961
 21
13.87923176121592
 31
0.0
  0
LINE
  5
B96
330
492
100
AcDbEntity
  8
DIM
 62
     0
100
AcDbLine
 10
8.010713320718961
 20
13.87923176121592
 30
0.0
 11
5.574588320718961
 21
13.87923176121592
 31
0.0
  0
SOLID
  5
B97
330
492
100
AcDbEntity
  8
DIM
 62
     0
100
AcDbTrace
 10
2.77471332071896
 20
13.92423176121592
 30
0.0
 11
2.77471332071896
 21
13.83423176121592
 31
0.0
 12
2.50471332071896
 22
13.87923176121592
 32
0.0
 13
2.50471332071896
 23
13.87923176121592
 33
0.0
  0
SOLID
  5
B98
330
492
100
AcDbEntity
  8
DIM
 62
     0
100
AcDbTrace
 10
8.010713320718961
 20
13.92423176121592
 30
0.0
 11
8.010713320718961
 21
13.83423176121592
 31
0.0
 12
8.280713320718961
 22
13.87923176121592
 32
0.0
 13
8.280713320718961
 23
13.87923176121592
 33
0.0
  0
MTEXT
  5
B99
330
492
100
AcDbEntity
  8
DIM
 62
     0
100
AcDbMText
 10
5.392713320718961
 20
13.87923176121592
 30
0.0
 40
0.1875
 41
0.0
 71
     5
 72
     1
  1
\A1;A
  7
TXT
1001
ACAD
1000
MTEXTBEGIN
1070
    73
1070
     1
1070
    44
1040
1.0
1070
    74
1070
     0
1000
MTEXTEND
  0
POINT
  5
B9A
330
492
100
AcDbEntity
  8
DEFPOINTS
 62
     0
100
AcDbPoint
 10
2.50471332071896
 20
11.55700482060947
 30
0.375
  0
POINT
  5
B9B
330
492
100
AcDbEntity
  8
DEFPOINTS
 62
     0
100
AcDbPoint
 10
8.280713320718961
 20
11.55700482060947
 30
0.375
  0
POINT
  5
B9C
330
492
100
AcDbEntity
  8
DEFPOINTS
 62
     0
100
AcDbPoint
 10
8.280713320718961
 20
13.87923176121592
 30
0.0
  0
ENDBLK
  5
49E
330
492
100
AcDbEntity
  8
0
100
AcDbBlockEnd
  0
BLOCK
  5
4AD
330
49F
100
AcDbEntity
  8
0
100
AcDbBlockBegin
  2
*D7
 70
     1
 10
0.0
 20
0.0
 30
0.0
  3
*D7
  1

  0
LINE
  5
CC6
330
49F
100
AcDbEntity
  8
DIM
 62
     0
100
AcDbLine
 10
7.198882504631377
 20
4.376595070738566
 30
0.0
 11
7.208034351861722
 21
5.438732312157267
 31
0.0
  0
LINE
  5
CC7
330
49F
100
AcDbEntity
  8
DIM
 62
     0
100
AcDbLine
 10
7.180568280794036
 20
4.151591402751646
 30
0.0
 11
7.180568280794035
 21
5.438850639907799
 31
0.0
  0
ARC
  5
CC8
330
49F
100
AcDbEntity
  8
DIM
 62
     0
100
AcDbCircle
 10
7.180568280794037
 20
2.251098578530958
 30
0.0
 40
3.04825206137684
100
AcDbArc
 50
79.34301938634289
 51
89.50632627836176
  0
LINE
  5
CC9
330
49F
100
AcDbEntity
  8
DIM
 62
     0
100
AcDbLine
 10
7.744277840082344
 20
5.246774155501059
 30
0.0
 11
8.014277840082344
 21
5.246774155501059
 31
0.0
  0
ARC
  5
CCA
330
49F
100
AcDbEntity
  8
DIM
 62
     0
100
AcDbCircle
 10
7.180568280794037
 20
2.251098578530958
 30
0.0
 40
3.04825206137684
100
AcDbArc
 50
79.35301761583112
 51
84.42967194709645
  0
ARC
  5
CCB
330
49F
100
AcDbEntity
  8
DIM
 62
     0
100
AcDbCircle
 10
7.180568280794037
 20
2.251098578530958
 30
0.0
 40
3.04825206137684
100
AcDbArc
 50
95.07665433126534
 51
100.1533086625307
  0
SOLID
  5
CCC
330
49F
100
AcDbEntity
  8
DIM
 62
     0
100
AcDbTrace
 10
7.474074225765794
 20
5.240019183719357
 30
0.0
 11
7.478834659077553
 21
5.329893197064063
 31
0.0
 12
7.206832402387556
 22
5.299237490326986
 32
0.0
 13
7.206832402387556
 23
5.299237490326986
 33
0.0
  0
SOLID
  5
CCD
330
49F
100
AcDbEntity
  8
DIM
 62
     0
100
AcDbTrace
 10
6.90884025410004
 20
5.332348814235899
 30
0.0
 11
6.912826144950061
 21
5.242437120479571
 31
0.0
 12
7.180568280794034
 22
5.299350639907798
 32
0.0
 13
7.180568280794034
 23
5.299350639907798
 33
0.0
  0
MTEXT
  5
CCE
330
49F
100
AcDbEntity
  8
DIM
 62
     0
100
AcDbMText
 10
8.782090340082344
 20
5.246774155501057
 30
0.0
 40
0.1875
 41
0.0
 71
     5
 72
     1
  1
\A1;1/2%%D DRAFT
  7
TXT
  0
POINT
  5
CCF
330
49F
100
AcDbEntity
  8
DEFPOINTS
 62
     0
100
AcDbPoint
 10
7.189323084280768
 20
5.299338067663016
 30
0.0
  0
POINT
  5
CD0
330
49F
100
AcDbEntity
  8
DEFPOINTS
 62
     0
100
AcDbPoint
 10
7.198068280794039
 20
4.282098578530956
 30
0.0
  0
POINT
  5
CD1
330
49F
100
AcDbEntity
  8
DEFPOINTS
 62
     0
100
AcDbPoint
 10
7.180568280794037
 20
2.251098578530958
 30
0.0
  0
POINT
  5
CD2
330
49F
100
AcDbEntity
  8
DEFPOINTS
 62
     0
100
AcDbPoint
 10
7.180568280794037
 20
4.057091402751647
 30
0.0
  0
POINT
  5
CD3
330
49F
100
AcDbEntity
  8
DEFPOINTS
 62
     0
100
AcDbPoint
 10
7.180568280794037
 20
2.251098578530958
 30
0.0
  0
ENDBLK
  5
4AE
330
49F
100
AcDbEntity
  8
0
100
AcDbBlockEnd
  0
BLOCK
  5
4BA
330
4AF
100
AcDbEntity
  8
0
100
AcDbBlockBegin
  2
*D8
 70
     1
 10
0.0
 20
0.0
 30
0.0
  3
*D8
  1

  0
LINE
  5
BBB
330
4AF
100
AcDbEntity
  8
DIM
 62
     0
100
AcDbLine
 10
3.04351006071918
 20
2.858187440114326
 30
0.0
 11
3.04351006071918
 21
6.930312037332003
 31
0.0
  0
LINE
  5
BBC
330
4AF
100
AcDbEntity
  8
DIM
 62
     0
100
AcDbLine
 10
7.741344477064947
 20
2.858143884421211
 30
0.0
 11
7.741344477064947
 21
6.930312037332003
 31
0.0
  0
LINE
  5
BBD
330
4AF
100
AcDbEntity
  8
DIM
 62
     0
100
AcDbLine
 10
3.31351006071918
 20
6.790812037332003
 30
0.0
 11
5.210552268892064
 21
6.790812037332003
 31
0.0
  0
LINE
  5
BBE
330
4AF
100
AcDbEntity
  8
DIM
 62
     0
100
AcDbLine
 10
7.471344477064947
 20
6.790812037332003
 30
0.0
 11
5.574302268892063
 21
6.790812037332003
 31
0.0
  0
SOLID
  5
BBF
330
4AF
100
AcDbEntity
  8
DIM
 62
     0
100
AcDbTrace
 10
3.31351006071918
 20
6.835812037332003
 30
0.0
 11
3.31351006071918
 21
6.745812037332003
 31
0.0
 12
3.04351006071918
 22
6.790812037332003
 32
0.0
 13
3.04351006071918
 23
6.790812037332003
 33
0.0
  0
SOLID
  5
BC0
330
4AF
100
AcDbEntity
  8
DIM
 62
     0
100
AcDbTrace
 10
7.471344477064947
 20
6.835812037332003
 30
0.0
 11
7.471344477064947
 21
6.745812037332003
 31
0.0
 12
7.741344477064947
 22
6.790812037332003
 32
0.0
 13
7.741344477064947
 23
6.790812037332003
 33
0.0
  0
MTEXT
  5
BC1
330
4AF
100
AcDbEntity
  8
DIM
 62
     0
100
AcDbMText
 10
5.392427268892063
 20
6.790812037332003
 30
0.0
 40
0.1875
 41
0.0
 71
     5
 72
     1
  1
\A1;C
  7
TXT
1001
ACAD
1000
MTEXTBEGIN
1070
    73
1070
     1
1070
    44
1040
1.0
1070
    74
1070
     0
1000
MTEXTEND
  0
POINT
  5
BC2
330
4AF
100
AcDbEntity
  8
DEFPOINTS
 62
     0
100
AcDbPoint
 10
3.04351006071918
 20
2.763687440114326
 30
-0.1875
  0
POINT
  5
BC3
330
4AF
100
AcDbEntity
  8
DEFPOINTS
 62
     0
100
AcDbPoint
 10
7.741344477064947
 20
2.763643884421211
 30
-0.1875
  0
POINT
  5
BC4
330
4AF
100
AcDbEntity
  8
DEFPOINTS
 62
     0
100
AcDbPoint
 10
7.741344477064947
 20
6.790812037332003
 30
0.0
  0
ENDBLK
  5
4BB
330
4AF
100
AcDbEntity
  8
0
100
AcDbBlockEnd
  0
BLOCK
  5
4C7
330
4BC
100
AcDbEntity
  8
0
100
AcDbBlockBegin
  2
*D9
 70
     1
 10
0.0
 20
0.0
 30
0.0
  3
*D9
  1

  0
LINE
  5
BB1
330
4BC
100
AcDbEntity
  8
DIM
 62
     0
100
AcDbLine
 10
3.090713320718958
 20
4.501598578530956
 30
0.0
 11
3.090713320718958
 21
5.840291627088435
 31
0.0
  0
LINE
  5
BB2
330
4BC
100
AcDbEntity
  8
DIM
 62
     0
100
AcDbLine
 10
7.694713320718959
 20
4.501598578530956
 30
0.0
 11
7.694713320718959
 21
5.840291627088435
 31
0.0
  0
LINE
  5
BB3
330
4BC
100
AcDbEntity
  8
DIM
 62
     0
100
AcDbLine
 10
3.360713320718959
 20
5.700791627088436
 30
0.0
 11
5.210838320718959
 21
5.700791627088436
 31
0.0
  0
LINE
  5
BB4
330
4BC
100
AcDbEntity
  8
DIM
 62
     0
100
AcDbLine
 10
7.424713320718959
 20
5.700791627088436
 30
0.0
 11
5.574588320718959
 21
5.700791627088436
 31
0.0
  0
SOLID
  5
BB5
330
4BC
100
AcDbEntity
  8
DIM
 62
     0
100
AcDbTrace
 10
3.360713320718959
 20
5.745791627088435
 30
0.0
 11
3.360713320718959
 21
5.655791627088436
 31
0.0
 12
3.090713320718958
 22
5.700791627088436
 32
0.0
 13
3.090713320718958
 23
5.700791627088436
 33
0.0
  0
SOLID
  5
BB6
330
4BC
100
AcDbEntity
  8
DIM
 62
     0
100
AcDbTrace
 10
7.424713320718959
 20
5.745791627088435
 30
0.0
 11
7.424713320718959
 21
5.655791627088436
 31
0.0
 12
7.694713320718959
 22
5.700791627088436
 32
0.0
 13
7.694713320718959
 23
5.700791627088436
 33
0.0
  0
MTEXT
  5
BB7
330
4BC
100
AcDbEntity
  8
DIM
 62
     0
100
AcDbMText
 10
5.392713320718959
 20
5.700791627088436
 30
0.0
 40
0.1875
 41
0.0
 71
     5
 72
     1
  1
\A1;D
  7
TXT
1001
ACAD
1000
MTEXTBEGIN
1070
    73
1070
     1
1070
    44
1040
1.0
1070
    74
1070
     0
1000
MTEXTEND
  0
POINT
  5
BB8
330
4BC
100
AcDbEntity
  8
DEFPOINTS
 62
     0
100
AcDbPoint
 10
3.090713320718958
 20
4.407098578530956
 30
-0.1875
  0
POINT
  5
BB9
330
4BC
100
AcDbEntity
  8
DEFPOINTS
 62
     0
100
AcDbPoint
 10
7.694713320718959
 20
4.407098578530956
 30
-0.1875
  0
POINT
  5
BBA
330
4BC
100
AcDbEntity
  8
DEFPOINTS
 62
     0
100
AcDbPoint
 10
7.694713320718959
 20
5.700791627088436
 30
0.0
  0
ENDBLK
  5
4C8
330
4BC
100
AcDbEntity
  8
0
100
AcDbBlockEnd
  0
BLOCK
  5
4D4
330
4C9
100
AcDbEntity
  8
0
100
AcDbBlockBegin
  2
*D10
 70
     1
 10
0.0
 20
0.0
 30
0.0
  3
*D10
  1

  0
LINE
  5
C05
330
4C9
100
AcDbEntity
  8
DIM
 62
     0
100
AcDbLine
 10
3.238713320718959
 20
11.62864657295934
 30
0.0
 11
0.8578868977309696
 21
11.62864657295934
 31
0.0
  0
LINE
  5
C06
330
4C9
100
AcDbEntity
  8
DIM
 62
     0
100
AcDbLine
 10
3.238713320718966
 20
9.190741515844511
 30
0.0
 11
0.8578868977309694
 21
9.190741515844511
 31
0.0
  0
LINE
  5
C07
330
4C9
100
AcDbEntity
  8
DIM
 62
     0
100
AcDbLine
 10
0.9973868977309697
 20
11.35864657295934
 30
0.0
 11
0.9973868977309695
 21
10.63844404440192
 31
0.0
  0
LINE
  5
C08
330
4C9
100
AcDbEntity
  8
DIM
 62
     0
100
AcDbLine
 10
0.9973868977309694
 20
9.46074151584451
 30
0.0
 11
0.9973868977309694
 21
10.18094404440192
 31
0.0
  0
SOLID
  5
C09
330
4C9
100
AcDbEntity
  8
DIM
 62
     0
100
AcDbTrace
 10
0.9523868977309696
 20
11.35864657295934
 30
0.0
 11
1.042386897730969
 21
11.35864657295934
 31
0.0
 12
0.9973868977309697
 22
11.62864657295934
 32
0.0
 13
0.9973868977309697
 23
11.62864657295934
 33
0.0
  0
SOLID
  5
C0A
330
4C9
100
AcDbEntity
  8
DIM
 62
     0
100
AcDbTrace
 10
0.9523868977309692
 20
9.46074151584451
 30
0.0
 11
1.042386897730969
 21
9.46074151584451
 31
0.0
 12
0.9973868977309692
 22
9.190741515844511
 32
0.0
 13
0.9973868977309692
 23
9.190741515844511
 33
0.0
  0
MTEXT
  5
C0B
330
4C9
100
AcDbEntity
  8
DIM
 62
     0
100
AcDbMText
 10
0.9973868977309678
 20
10.40969404440192
 30
0.0
 40
0.1875
 41
0.0
 71
     5
 72
     1
  1
\A1;N
  7
TXT
1001
ACAD
1000
MTEXTBEGIN
1070
    73
1070
     1
1070
    44
1040
1.0
1070
    74
1070
     0
1000
MTEXTEND
  0
POINT
  5
C0C
330
4C9
100
AcDbEntity
  8
DEFPOINTS
 62
     0
100
AcDbPoint
 10
3.333213320718959
 20
11.62864657295934
 30
0.1875
  0
POINT
  5
C0D
330
4C9
100
AcDbEntity
  8
DEFPOINTS
 62
     0
100
AcDbPoint
 10
3.333213320718966
 20
9.190741515844511
 30
0.1875
  0
POINT
  5
C0E
330
4C9
100
AcDbEntity
  8
DEFPOINTS
 62
     0
100
AcDbPoint
 10
0.9973868977309692
 20
9.190741515844511
 30
0.0
  0
ENDBLK
  5
4D5
330
4C9
100
AcDbEntity
  8
0
100
AcDbBlockEnd
  0
BLOCK
  5
4E1
330
4D6
100
AcDbEntity
  8
0
100
AcDbBlockBegin
  2
*D11
 70
     1
 10
0.0
 20
0.0
 30
0.0
  3
*D11
  1

  0
LINE
  5
BFB
330
4D6
100
AcDbEntity
  8
DIM
 62
     0
100
AcDbLine
 10
2.613213320718963
 20
11.53670265453607
 30
0.0
 11
1.381944145344648
 21
11.53670265453607
 31
0.0
  0
LINE
  5
BFC
330
4D6
100
AcDbEntity
  8
DIM
 62
     0
100
AcDbLine
 10
2.673213320718963
 20
9.28670265453608
 30
0.0
 11
1.381944145344648
 21
9.28670265453608
 31
0.0
  0
LINE
  5
BFD
330
4D6
100
AcDbEntity
  8
DIM
 62
     0
100
AcDbLine
 10
1.521444145344648
 20
11.26670265453607
 30
0.0
 11
1.521444145344648
 21
10.64045265453607
 31
0.0
  0
LINE
  5
BFE
330
4D6
100
AcDbEntity
  8
DIM
 62
     0
100
AcDbLine
 10
1.521444145344648
 20
9.55670265453608
 30
0.0
 11
1.521444145344648
 21
10.18295265453607
 31
0.0
  0
SOLID
  5
BFF
330
4D6
100
AcDbEntity
  8
DIM
 62
     0
100
AcDbTrace
 10
1.476444145344648
 20
11.26670265453607
 30
0.0
 11
1.566444145344648
 21
11.26670265453607
 31
0.0
 12
1.521444145344648
 22
11.53670265453607
 32
0.0
 13
1.521444145344648
 23
11.53670265453607
 33
0.0
  0
SOLID
  5
C00
330
4D6
100
AcDbEntity
  8
DIM
 62
     0
100
AcDbTrace
 10
1.476444145344648
 20
9.55670265453608
 30
0.0
 11
1.566444145344648
 21
9.55670265453608
 31
0.0
 12
1.521444145344648
 22
9.28670265453608
 32
0.0
 13
1.521444145344648
 23
9.28670265453608
 33
0.0
  0
MTEXT
  5
C01
330
4D6
100
AcDbEntity
  8
DIM
 62
     0
100
AcDbMText
 10
1.521444145344646
 20
10.41170265453607
 30
0.0
 40
0.1875
 41
0.0
 71
     5
 72
     1
  1
\A1;P
  7
TXT
1001
ACAD
1000
MTEXTBEGIN
1070
    73
1070
     1
1070
    44
1040
1.0
1070
    74
1070
     0
1000
MTEXTEND
  0
POINT
  5
C02
330
4D6
100
AcDbEntity
  8
DEFPOINTS
 62
     0
100
AcDbPoint
 10
2.707713320718963
 20
11.53670265453607
 30
0.1875
  0
POINT
  5
C03
330
4D6
100
AcDbEntity
  8
DEFPOINTS
 62
     0
100
AcDbPoint
 10
2.767713320718963
 20
9.28670265453608
 30
0.0
  0
POINT
  5
C04
330
4D6
100
AcDbEntity
  8
DEFPOINTS
 62
     0
100
AcDbPoint
 10
1.521444145344648
 20
9.28670265453608
 30
0.0
  0
ENDBLK
  5
4E2
330
4D6
100
AcDbEntity
  8
0
100
AcDbBlockEnd
  0
BLOCK
  5
4EE
330
4E3
100
AcDbEntity
  8
0
100
AcDbBlockBegin
  2
*D12
 70
     1
 10
0.0
 20
0.0
 30
0.0
  3
*D12
  1

  0
LINE
  5
BF1
330
4E3
100
AcDbEntity
  8
DIM
 62
     0
100
AcDbLine
 10
3.583920475707516
 20
11.28414657295934
 30
0.0
 11
1.922926474274951
 21
11.28414657295934
 31
0.0
  0
LINE
  5
BF2
330
4E3
100
AcDbEntity
  8
DIM
 62
     0
100
AcDbLine
 10
3.582484142953924
 20
9.535241515844511
 30
0.0
 11
1.922926474274951
 21
9.535241515844511
 31
0.0
  0
LINE
  5
BF3
330
4E3
100
AcDbEntity
  8
DIM
 62
     0
100
AcDbLine
 10
2.062426474274952
 20
11.01414657295934
 30
0.0
 11
2.062426474274951
 21
10.63844404440192
 31
0.0
  0
LINE
  5
BF4
330
4E3
100
AcDbEntity
  8
DIM
 62
     0
100
AcDbLine
 10
2.062426474274951
 20
9.80524151584451
 30
0.0
 11
2.062426474274951
 21
10.18094404440192
 31
0.0
  0
SOLID
  5
BF5
330
4E3
100
AcDbEntity
  8
DIM
 62
     0
100
AcDbTrace
 10
2.017426474274952
 20
11.01414657295934
 30
0.0
 11
2.107426474274951
 21
11.01414657295934
 31
0.0
 12
2.062426474274952
 22
11.28414657295934
 32
0.0
 13
2.062426474274952
 23
11.28414657295934
 33
0.0
  0
SOLID
  5
BF6
330
4E3
100
AcDbEntity
  8
DIM
 62
     0
100
AcDbTrace
 10
2.017426474274951
 20
9.80524151584451
 30
0.0
 11
2.107426474274951
 21
9.80524151584451
 31
0.0
 12
2.062426474274951
 22
9.535241515844511
 32
0.0
 13
2.062426474274951
 23
9.535241515844511
 33
0.0
  0
MTEXT
  5
BF7
330
4E3
100
AcDbEntity
  8
DIM
 62
     0
100
AcDbMText
 10
2.062426474274949
 20
10.40969404440192
 30
0.0
 40
0.1875
 41
0.0
 71
     5
 72
     1
  1
\A1;R
  7
TXT
1001
ACAD
1000
MTEXTBEGIN
1070
    73
1070
     1
1070
    44
1040
1.0
1070
    74
1070
     0
1000
MTEXTEND
  0
POINT
  5
BF8
330
4E3
100
AcDbEntity
  8
DEFPOINTS
 62
     0
100
AcDbPoint
 10
3.678420475707516
 20
11.28414657295934
 30
0.1875
  0
POINT
  5
BF9
330
4E3
100
AcDbEntity
  8
DEFPOINTS
 62
     0
100
AcDbPoint
 10
3.676984142953924
 20
9.535241515844511
 30
0.1875
  0
POINT
  5
BFA
330
4E3
100
AcDbEntity
  8
DEFPOINTS
 62
     0
100
AcDbPoint
 10
2.062426474274951
 20
9.535241515844511
 30
0.0
  0
ENDBLK
  5
4EF
330
4E3
100
AcDbEntity
  8
0
100
AcDbBlockEnd
  0
BLOCK
  5
4FB
330
4F0
100
AcDbEntity
  8
0
100
AcDbBlockBegin
  2
*D13
 70
     1
 10
0.0
 20
0.0
 30
0.0
  3
*D13
  1

  0
LINE
  5
C33
330
4F0
100
AcDbEntity
  8
DIM
 62
     0
100
AcDbLine
 10
3.977613885863134
 20
4.407098578530956
 30
0.0
 11
4.094107124580819
 21
4.407098578530956
 31
0.0
  0
LINE
  5
C34
330
4F0
100
AcDbEntity
  8
DIM
 62
     0
100
AcDbLine
 10
3.674887784147108
 20
4.282098578530956
 30
0.0
 11
4.094107124580819
 21
4.282098578530956
 31
0.0
  0
LINE
  5
C35
330
4F0
100
AcDbEntity
  8
DIM
 62
     0
100
AcDbLine
 10
3.954607124580819
 20
4.012098578530957
 30
0.0
 11
3.954607124580819
 21
3.742098578530956
 31
0.0
  0
LINE
  5
C36
330
4F0
100
AcDbEntity
  8
DIM
 62
     0
100
AcDbLine
 10
3.954607124580819
 20
4.677098578530956
 30
0.0
 11
3.954607124580819
 21
4.947098578530956
 31
0.0
  0
LINE
  5
C37
330
4F0
100
AcDbEntity
  8
DIM
 62
     0
100
AcDbLine
 10
3.954607124580819
 20
4.947098578530956
 30
0.0
 11
4.22460712458082
 21
4.947098578530956
 31
0.0
  0
SOLID
  5
C38
330
4F0
100
AcDbEntity
  8
DIM
 62
     0
100
AcDbTrace
 10
3.909607124580819
 20
4.012098578530957
 30
0.0
 11
3.999607124580819
 21
4.012098578530957
 31
0.0
 12
3.954607124580819
 22
4.282098578530956
 32
0.0
 13
3.954607124580819
 23
4.282098578530956
 33
0.0
  0
SOLID
  5
C39
330
4F0
100
AcDbEntity
  8
DIM
 62
     0
100
AcDbTrace
 10
3.909607124580819
 20
4.677098578530956
 30
0.0
 11
3.999607124580819
 21
4.677098578530956
 31
0.0
 12
3.954607124580819
 22
4.407098578530956
 32
0.0
 13
3.954607124580819
 23
4.407098578530956
 33
0.0
  0
MTEXT
  5
C3A
330
4F0
100
AcDbEntity
  8
DIM
 62
     0
100
AcDbMText
 10
4.605700874580819
 20
4.947098578530957
 30
0.0
 40
0.1875
 41
0.0
 71
     5
 72
     1
  1
\A1;0.125
  7
TXT
1001
ACAD
1000
MTEXTBEGIN
1070
    73
1070
     1
1070
    44
1040
1.0
1070
    74
1070
     0
1000
MTEXTEND
  0
POINT
  5
C3B
330
4F0
100
AcDbEntity
  8
DEFPOINTS
 62
     0
100
AcDbPoint
 10
3.883113885863134
 20
4.407098578530956
 30
-0.1875
  0
POINT
  5
C3C
330
4F0
100
AcDbEntity
  8
DEFPOINTS
 62
     0
100
AcDbPoint
 10
3.580387784147108
 20
4.282098578530956
 30
-0.1875
  0
POINT
  5
C3D
330
4F0
100
AcDbEntity
  8
DEFPOINTS
 62
     0
100
AcDbPoint
 10
3.954607124580819
 20
4.282098578530956
 30
0.0
  0
ENDBLK
  5
4FC
330
4F0
100
AcDbEntity
  8
0
100
AcDbBlockEnd
  0
BLOCK
  5
508
330
4FD
100
AcDbEntity
  8
0
100
AcDbBlockBegin
  2
*D14
 70
     1
 10
0.0
 20
0.0
 30
0.0
  3
*D14
  1

  0
LINE
  5
BE7
330
4FD
100
AcDbEntity
  8
DIM
 62
     0
100
AcDbLine
 10
3.205213320718959
 20
8.974737181184428
 30
0.0
 11
3.205213320718959
 21
7.6444415594327
 31
0.0
  0
LINE
  5
BE8
330
4FD
100
AcDbEntity
  8
DIM
 62
     0
100
AcDbLine
 10
7.580213320718959
 20
8.974737181184437
 30
0.0
 11
7.580213320718959
 21
7.6444415594327
 31
0.0
  0
LINE
  5
BE9
330
4FD
100
AcDbEntity
  8
DIM
 62
     0
100
AcDbLine
 10
3.475213320718959
 20
7.7839415594327
 30
0.0
 11
3.898338320718959
 21
7.7839415594327
 31
0.0
  0
LINE
  5
BEA
330
4FD
100
AcDbEntity
  8
DIM
 62
     0
100
AcDbLine
 10
7.310213320718959
 20
7.7839415594327
 30
0.0
 11
6.887088320718959
 21
7.7839415594327
 31
0.0
  0
SOLID
  5
BEB
330
4FD
100
AcDbEntity
  8
DIM
 62
     0
100
AcDbTrace
 10
3.475213320718959
 20
7.8289415594327
 30
0.0
 11
3.475213320718959
 21
7.7389415594327
 31
0.0
 12
3.205213320718959
 22
7.7839415594327
 32
0.0
 13
3.205213320718959
 23
7.7839415594327
 33
0.0
  0
SOLID
  5
BEC
330
4FD
100
AcDbEntity
  8
DIM
 62
     0
100
AcDbTrace
 10
7.310213320718959
 20
7.8289415594327
 30
0.0
 11
7.310213320718959
 21
7.7389415594327
 31
0.0
 12
7.580213320718959
 22
7.7839415594327
 32
0.0
 13
7.580213320718959
 23
7.7839415594327
 33
0.0
  0
MTEXT
  5
BED
330
4FD
100
AcDbEntity
  8
DIM
 62
     0
100
AcDbMText
 10
5.392713320718959
 20
7.7839415594327
 30
0.0
 40
0.1875
 41
0.0
 71
     5
 72
     1
  1
\A1;F  (INSIDE AT BOTTOM)
  7
TXT
1001
ACAD
1000
MTEXTBEGIN
1070
    73
1070
     1
1070
    44
1040
1.0
1070
    74
1070
     0
1000
MTEXTEND
  0
POINT
  5
BEE
330
4FD
100
AcDbEntity
  8
DEFPOINTS
 62
     0
100
AcDbPoint
 10
3.205213320718959
 20
9.069237181184428
 30
0.1875
  0
POINT
  5
BEF
330
4FD
100
AcDbEntity
  8
DEFPOINTS
 62
     0
100
AcDbPoint
 10
7.580213320718959
 20
9.069237181184437
 30
0.1875
  0
POINT
  5
BF0
330
4FD
100
AcDbEntity
  8
DEFPOINTS
 62
     0
100
AcDbPoint
 10
7.580213320718959
 20
7.7839415594327
 30
0.0
  0
ENDBLK
  5
509
330
4FD
100
AcDbEntity
  8
0
100
AcDbBlockEnd
  0
BLOCK
  5
515
330
50A
100
AcDbEntity
  8
0
100
AcDbBlockBegin
  2
*D15
 70
     1
 10
0.0
 20
0.0
 30
0.0
  3
*D15
  1

  0
LINE
  5
C0F
330
50A
100
AcDbEntity
  8
DIM
 62
     0
100
AcDbLine
 10
7.190154083902539
 20
8.959702654536084
 30
0.0
 11
7.237217026752576
 21
8.959702654536084
 31
0.0
  0
LINE
  5
C10
330
50A
100
AcDbEntity
  8
DIM
 62
     0
100
AcDbLine
 10
7.190154083902539
 20
8.85970265453608
 30
0.0
 11
7.237217026752576
 21
8.85970265453608
 31
0.0
  0
LINE
  5
C11
330
50A
100
AcDbEntity
  8
DIM
 62
     0
100
AcDbLine
 10
7.097717026752576
 20
9.229702654536083
 30
0.0
 11
7.097717026752576
 21
9.499702654536084
 31
0.0
  0
LINE
  5
C12
330
50A
100
AcDbEntity
  8
DIM
 62
     0
100
AcDbLine
 10
7.097717026752576
 20
8.589702654536081
 30
0.0
 11
7.097717026752576
 21
8.319702654536081
 31
0.0
  0
LINE
  5
C13
330
50A
100
AcDbEntity
  8
DIM
 62
     0
100
AcDbLine
 10
7.097717026752576
 20
8.319702654536081
 30
0.0
 11
6.827717026752576
 21
8.319702654536081
 31
0.0
  0
SOLID
  5
C14
330
50A
100
AcDbEntity
  8
DIM
 62
     0
100
AcDbTrace
 10
7.052717026752576
 20
9.229702654536083
 30
0.0
 11
7.142717026752576
 21
9.229702654536083
 31
0.0
 12
7.097717026752576
 22
8.959702654536084
 32
0.0
 13
7.097717026752576
 23
8.959702654536084
 33
0.0
  0
SOLID
  5
C15
330
50A
100
AcDbEntity
  8
DIM
 62
     0
100
AcDbTrace
 10
7.052717026752576
 20
8.589702654536081
 30
0.0
 11
7.142717026752576
 21
8.589702654536081
 31
0.0
 12
7.097717026752576
 22
8.85970265453608
 32
0.0
 13
7.097717026752576
 23
8.85970265453608
 33
0.0
  0
MTEXT
  5
C16
330
50A
100
AcDbEntity
  8
DIM
 62
     0
100
AcDbMText
 10
6.470060776752575
 20
8.319702654536083
 30
0.0
 40
0.1875
 41
0.0
 71
     5
 72
     1
  1
\A1;0.100
  7
TXT
1001
ACAD
1000
MTEXTBEGIN
1070
    73
1070
     1
1070
    44
1040
1.0
1070
    74
1070
     0
1000
MTEXTEND
  0
POINT
  5
C17
330
50A
100
AcDbEntity
  8
DEFPOINTS
 62
     0
100
AcDbPoint
 10
7.095654083902539
 20
8.959702654536084
 30
0.1875
  0
POINT
  5
C18
330
50A
100
AcDbEntity
  8
DEFPOINTS
 62
     0
100
AcDbPoint
 10
7.095654083902539
 20
8.85970265453608
 30
0.1875
  0
POINT
  5
C19
330
50A
100
AcDbEntity
  8
DEFPOINTS
 62
     0
100
AcDbPoint
 10
7.097717026752576
 20
8.85970265453608
 30
0.0
  0
ENDBLK
  5
516
330
50A
100
AcDbEntity
  8
0
100
AcDbBlockEnd
  0
BLOCK
  5
525
330
517
100
AcDbEntity
  8
0
100
AcDbBlockBegin
  2
*D16
 70
     1
 10
0.0
 20
0.0
 30
0.0
  3
*D16
  1

  0
LINE
  5
CD4
330
517
100
AcDbEntity
  8
DIM
 62
     0
100
AcDbLine
 10
3.093426500075988
 20
4.501559621600448
 30
0.0
 11
3.153002581763249
 21
6.575738316642298
 31
0.0
  0
LINE
  5
CD5
330
517
100
AcDbEntity
  8
DIM
 62
     0
100
AcDbLine
 10
3.043510060719182
 20
2.858187440114326
 30
0.0
 11
3.043510060719185
 21
6.577310454703243
 31
0.0
  0
ARC
  5
CD6
330
517
100
AcDbEntity
  8
DIM
 62
     0
100
AcDbCircle
 10
3.043510060719182
 20
2.763687440114325
 30
0.0
 40
3.674123014588918
100
AcDbArc
 50
79.92618188830508
 51
88.35476093867951
  0
LINE
  5
CD7
330
517
100
AcDbEntity
  8
DIM
 62
     0
100
AcDbLine
 10
3.686176008052368
 20
6.381167282002915
 30
0.0
 11
3.956176008052368
 21
6.381167282002915
 31
0.0
  0
ARC
  5
CD8
330
517
100
AcDbEntity
  8
DIM
 62
     0
100
AcDbCircle
 10
3.043510060719182
 20
2.763687440114325
 30
0.0
 40
3.674123014588918
100
AcDbArc
 50
79.93188372218725
 51
84.14332233043337
  0
ARC
  5
CD9
330
517
100
AcDbEntity
  8
DIM
 62
     0
100
AcDbCircle
 10
3.043510060719182
 20
2.763687440114325
 30
0.0
 40
3.674123014588918
100
AcDbArc
 50
94.21143860824608
 51
98.42287721649222
  0
SOLID
  5
CDA
330
517
100
AcDbEntity
  8
DIM
 62
     0
100
AcDbTrace
 10
3.415475134198116
 20
6.373728870770561
 30
0.0
 11
3.421362918001754
 21
6.463536075391802
 31
0.0
 12
3.148997412236209
 22
6.436295824492095
 32
0.0
 13
3.148997412236209
 23
6.436295824492095
 33
0.0
  0
SOLID
  5
CDB
330
517
100
AcDbEntity
  8
DIM
 62
     0
100
AcDbTrace
 10
2.772038927551544
 20
6.472859332811926
 30
0.0
 11
2.775345839146979
 21
6.382920107021951
 31
0.0
 12
3.043510060719184
 22
6.437810454703244
 32
0.0
 13
3.043510060719184
 23
6.437810454703244
 33
0.0
  0
MTEXT
  5
CDC
330
517
100
AcDbEntity
  8
DIM
 62
     0
100
AcDbMText
 10
4.841176008052368
 20
6.381167282002916
 30
0.0
 40
0.1875
 41
0.0
 71
     5
 72
     1
  1
\A1;1-1/2%%D DRAFT
  7
TXT
  0
POINT
  5
CDD
330
517
100
AcDbEntity
  8
DEFPOINTS
 62
     0
100
AcDbPoint
 10
3.078676806865179
 20
6.437642152178352
 30
0.0
  0
POINT
  5
CDE
330
517
100
AcDbEntity
  8
DEFPOINTS
 62
     0
100
AcDbPoint
 10
3.043510060719182
 20
2.763687440114325
 30
-0.1875
  0
POINT
  5
CDF
330
517
100
AcDbEntity
  8
DEFPOINTS
 62
     0
100
AcDbPoint
 10
3.090713320718961
 20
4.407098578530955
 30
-0.1875
  0
POINT
  5
CE0
330
517
100
AcDbEntity
  8
DEFPOINTS
 62
     0
100
AcDbPoint
 10
3.043510060719182
 20
2.763687440114325
 30
-0.1875
  0
POINT
  5
CE1
330
517
100
AcDbEntity
  8
DEFPOINTS
 62
     0
100
AcDbPoint
 10
3.043510060719181
 20
2.120661745994653
 30
-0.1875
  0
ENDBLK
  5
526
330
517
100
AcDbEntity
  8
0
100
AcDbBlockEnd
  0
BLOCK
  5
532
330
527
100
AcDbEntity
  8
0
100
AcDbBlockBegin
  2
*D17
 70
     1
 10
0.0
 20
0.0
 30
0.0
  3
*D17
  1

  0
LINE
  5
C1A
330
527
100
AcDbEntity
  8
DIM
 62
     0
100
AcDbLine
 10
6.793803569042431
 20
2.985098578530959
 30
0.0
 11
6.246130599169589
 21
2.985098578530959
 31
0.0
  0
LINE
  5
C1B
330
527
100
AcDbEntity
  8
DIM
 62
     0
100
AcDbLine
 10
6.381065344747956
 20
2.735098578530959
 30
0.0
 11
6.246130599169589
 21
2.735098578530959
 31
0.0
  0
LINE
  5
C1C
330
527
100
AcDbEntity
  8
DIM
 62
     0
100
AcDbLine
 10
6.385630599169589
 20
3.255098578530959
 30
0.0
 11
6.385630599169589
 21
3.525098578530959
 31
0.0
  0
LINE
  5
C1D
330
527
100
AcDbEntity
  8
DIM
 62
     0
100
AcDbLine
 10
6.385630599169589
 20
2.465098578530959
 30
0.0
 11
6.385630599169589
 21
2.195098578530959
 31
0.0
  0
LINE
  5
C1E
330
527
100
AcDbEntity
  8
DIM
 62
     0
100
AcDbLine
 10
6.385630599169589
 20
2.195098578530959
 30
0.0
 11
6.115630599169588
 21
2.195098578530959
 31
0.0
  0
SOLID
  5
C1F
330
527
100
AcDbEntity
  8
DIM
 62
     0
100
AcDbTrace
 10
6.340630599169589
 20
3.255098578530959
 30
0.0
 11
6.430630599169589
 21
3.255098578530959
 31
0.0
 12
6.385630599169589
 22
2.985098578530959
 32
0.0
 13
6.385630599169589
 23
2.985098578530959
 33
0.0
  0
SOLID
  5
C20
330
527
100
AcDbEntity
  8
DIM
 62
     0
100
AcDbTrace
 10
6.340630599169589
 20
2.465098578530959
 30
0.0
 11
6.430630599169589
 21
2.465098578530959
 31
0.0
 12
6.385630599169589
 22
2.735098578530959
 32
0.0
 13
6.385630599169589
 23
2.735098578530959
 33
0.0
  0
MTEXT
  5
C21
330
527
100
AcDbEntity
  8
DIM
 62
     0
100
AcDbMText
 10
5.722818099169588
 20
2.19509857853096
 30
0.0
 40
0.1875
 41
0.0
 71
     5
 72
     1
  1
\A1;0.250
  7
TXT
1001
ACAD
1000
MTEXTBEGIN
1070
    73
1070
     1
1070
    44
1040
1.0
1070
    74
1070
     0
1000
MTEXTEND
  0
POINT
  5
C22
330
527
100
AcDbEntity
  8
DEFPOINTS
 62
     0
100
AcDbPoint
 10
6.888303569042431
 20
2.985098578530959
 30
-0.1875
  0
POINT
  5
C23
330
527
100
AcDbEntity
  8
DEFPOINTS
 62
     0
100
AcDbPoint
 10
6.475565344747956
 20
2.735098578530959
 30
-0.1875
  0
POINT
  5
C24
330
527
100
AcDbEntity
  8
DEFPOINTS
 62
     0
100
AcDbPoint
 10
6.385630599169589
 20
2.735098578530959
 30
0.0
  0
ENDBLK
  5
533
330
527
100
AcDbEntity
  8
0
100
AcDbBlockEnd
  0
BLOCK
  5
541
330
534
100
AcDbEntity
  8
0
100
AcDbBlockBegin
  2
*D18
 70
     1
 10
0.0
 20
0.0
 30
0.0
  3
*D18
  1

  0
LINE
  5
CE2
330
534
100
AcDbEntity
  8
DIM
 62
     0
100
AcDbLine
 10
2.572175676125132
 20
9.066690809623832
 30
0.0
 11
0.4879472792356136
 21
9.819060685259874
 31
0.0
  0
LINE
  5
CE3
330
534
100
AcDbEntity
  8
DIM
 62
     0
100
AcDbLine
 10
3.170197304904379
 20
8.816702654536079
 30
0.0
 11
0.3125688648110338
 21
8.816702654536081
 31
0.0
  0
ARC
  5
CE4
330
534
100
AcDbEntity
  8
DIM
 62
     0
100
AcDbCircle
 10
3.264697304904379
 20
8.816702654536083
 30
0.0
 40
2.812628440093345
100
AcDbArc
 50
149.1467917639881
 51
154.6490494736031
  0
ARC
  5
CE5
330
534
100
AcDbEntity
  8
DIM
 62
     0
100
AcDbCircle
 10
3.264697304904379
 20
8.816702654536083
 30
0.0
 40
2.812628440093345
100
AcDbArc
 50
185.5022577096151
 51
191.0045154192301
  0
SOLID
  5
CE6
330
534
100
AcDbEntity
  8
DIM
 62
     0
100
AcDbTrace
 10
0.7644634152407328
 20
10.00366913856466
 30
0.0
 11
0.6813743880530783
 21
10.03825545899643
 31
0.0
 12
0.6191599403515867
 22
9.771695217217589
 32
0.0
 13
0.6191599403515867
 23
9.771695217217589
 33
0.0
  0
SOLID
  5
CE7
330
534
100
AcDbEntity
  8
DIM
 62
     0
100
AcDbTrace
 10
0.4200801381404445
 20
8.544853944099571
 30
0.0
 11
0.5099764078317773
 21
8.549173746824596
 31
0.0
 12
0.4520688648110339
 22
8.816702654536083
 32
0.0
 13
0.4520688648110339
 23
8.816702654536083
 33
0.0
  0
MTEXT
  5
CE8
330
534
100
AcDbEntity
  8
DIM
 62
     0
100
AcDbMText
 10
0.494156529812563
 20
9.301452647393814
 30
0.0
 40
0.1875
 41
0.0
 71
     5
 72
     1
  1
\A1;20°
  7
TXT
  0
POINT
  5
CE9
330
534
100
AcDbEntity
  8
DEFPOINTS
 62
     0
100
AcDbPoint
 10
0.5267459200674685
 20
9.460520141322179
 30
0.0
  0
POINT
  5
CEA
330
534
100
AcDbEntity
  8
DEFPOINTS
 62
     0
100
AcDbPoint
 10
7.474713320718959
 20
8.816702654536079
 30
0.0
  0
POINT
  5
CEB
330
534
100
AcDbEntity
  8
DEFPOINTS
 62
     0
100
AcDbPoint
 10
2.661061672364984
 20
9.034604524820991
 30
0.1875
  0
POINT
  5
CEC
330
534
100
AcDbEntity
  8
DEFPOINTS
 62
     0
100
AcDbPoint
 10
3.221414983119527
 20
8.832326813148979
 30
0.0
  0
POINT
  5
CED
330
534
100
AcDbEntity
  8
DEFPOINTS
 62
     0
100
AcDbPoint
 10
3.310713320718957
 20
8.816702654536081
 30
0.0
  0
ENDBLK
  5
542
330
534
100
AcDbEntity
  8
0
100
AcDbBlockEnd
  0
BLOCK
  5
54D
330
543
100
AcDbEntity
  8
0
100
AcDbBlockBegin
  2
*D19
 70
     1
 10
0.0
 20
0.0
 30
0.0
  3
*D19
  1

  0
ARC
  5
CEE
330
543
100
AcDbEntity
  8
DIM
 62
     0
100
AcDbCircle
 10
3.211519146894793
 20
17.80779363857916
 30
0.0
 40
0.8600107500939062
100
AcDbArc
 50
323.8746194643042
 51
341.9373097321521
  0
ARC
  5
CEF
330
543
100
AcDbEntity
  8
DIM
 62
     0
100
AcDbCircle
 10
3.211519146894793
 20
17.80779363857916
 30
0.0
 40
0.8600107500939062
100
AcDbArc
 50
63.06269026784773
 51
81.12538053569569
  0
SOLID
  5
CF0
330
543
100
AcDbEntity
  8
DIM
 62
     0
100
AcDbTrace
 10
3.984704588345064
 20
17.54820479872094
 30
0.0
 11
4.073588823360902
 21
17.53407706834237
 31
0.0
 12
4.071529896988699
 22
17.80779363857916
 32
0.0
 13
4.071529896988699
 23
17.80779363857916
 33
0.0
  0
SOLID
  5
CF1
330
543
100
AcDbEntity
  8
DIM
 62
     0
100
AcDbTrace
 10
3.627547618041712
 20
18.6109157956012
 30
0.0
 11
3.574686786674899
 21
18.53807533632746
 31
0.0
 12
3.819638580179526
 22
18.41591307186389
 32
0.0
 13
3.819638580179526
 23
18.41591307186389
 33
0.0
  0
MTEXT
  5
CF2
330
543
100
AcDbEntity
  8
DIM
 62
     0
100
AcDbMText
 10
4.000635964964342
 20
18.1497192704304
 30
0.0
 40
0.1875
 41
0.0
 71
     5
 72
     1
  1
\A1;45°
  7
TXT
  0
POINT
  5
CF3
330
543
100
AcDbEntity
  8
DEFPOINTS
 62
     0
100
AcDbPoint
 10
4.04222574129673
 20
18.03038079969636
 30
0.0
  0
POINT
  5
CF4
330
543
100
AcDbEntity
  8
DEFPOINTS
 62
     0
100
AcDbPoint
 10
3.347288967715853
 20
17.80779363857916
 30
0.0
  0
POINT
  5
CF5
330
543
100
AcDbEntity
  8
DEFPOINTS
 62
     0
100
AcDbPoint
 10
3.966398119144542
 20
18.5626726108289
 30
0.0
  0
POINT
  5
CF6
330
543
100
AcDbEntity
  8
DEFPOINTS
 62
     0
100
AcDbPoint
 10
3.22903977726292
 20
17.82531426894728
 30
0.0
  0
POINT
  5
CF7
330
543
100
AcDbEntity
  8
DEFPOINTS
 62
     0
100
AcDbPoint
 10
4.133681147374417
 20
17.80779363857916
 30
0.0
  0
ENDBLK
  5
54E
330
543
100
AcDbEntity
  8
0
100
AcDbBlockEnd
  0
BLOCK
  5
55A
330
54F
100
AcDbEntity
  8
0
100
AcDbBlockBegin
  2
*D20
 70
     1
 10
0.0
 20
0.0
 30
0.0
  3
*D20
  1

  0
LINE
  5
BDD
330
54F
100
AcDbEntity
  8
DIM
 62
     0
100
AcDbLine
 10
3.76793597517412
 20
11.46864657295934
 30
0.0
 11
3.76793597517412
 21
12.59506643573669
 31
0.0
  0
LINE
  5
BDE
330
54F
100
AcDbEntity
  8
DIM
 62
     0
100
AcDbLine
 10
7.017006165730409
 20
11.46864657295934
 30
0.0
 11
7.017006165730409
 21
12.59506643573669
 31
0.0
  0
LINE
  5
BDF
330
54F
100
AcDbEntity
  8
DIM
 62
     0
100
AcDbLine
 10
4.03793597517412
 20
12.45556643573669
 30
0.0
 11
5.210596070452265
 21
12.45556643573669
 31
0.0
  0
LINE
  5
BE0
330
54F
100
AcDbEntity
  8
DIM
 62
     0
100
AcDbLine
 10
6.747006165730409
 20
12.45556643573669
 30
0.0
 11
5.574346070452264
 21
12.45556643573669
 31
0.0
  0
SOLID
  5
BE1
330
54F
100
AcDbEntity
  8
DIM
 62
     0
100
AcDbTrace
 10
4.03793597517412
 20
12.50056643573669
 30
0.0
 11
4.03793597517412
 21
12.41056643573669
 31
0.0
 12
3.76793597517412
 22
12.45556643573669
 32
0.0
 13
3.76793597517412
 23
12.45556643573669
 33
0.0
  0
SOLID
  5
BE2
330
54F
100
AcDbEntity
  8
DIM
 62
     0
100
AcDbTrace
 10
6.747006165730409
 20
12.50056643573669
 30
0.0
 11
6.747006165730409
 21
12.41056643573669
 31
0.0
 12
7.017006165730409
 22
12.45556643573669
 32
0.0
 13
7.017006165730409
 23
12.45556643573669
 33
0.0
  0
MTEXT
  5
BE3
330
54F
100
AcDbEntity
  8
DIM
 62
     0
100
AcDbMText
 10
5.392471070452264
 20
12.45556643573669
 30
0.0
 40
0.1875
 41
0.0
 71
     5
 72
     1
  1
\A1;H
  7
TXT
1001
ACAD
1000
MTEXTBEGIN
1070
    73
1070
     1
1070
    44
1040
1.0
1070
    74
1070
     0
1000
MTEXTEND
  0
POINT
  5
BE4
330
54F
100
AcDbEntity
  8
DEFPOINTS
 62
     0
100
AcDbPoint
 10
3.76793597517412
 20
11.37414657295934
 30
0.1875
  0
POINT
  5
BE5
330
54F
100
AcDbEntity
  8
DEFPOINTS
 62
     0
100
AcDbPoint
 10
7.017006165730409
 20
11.37414657295934
 30
0.1875
  0
POINT
  5
BE6
330
54F
100
AcDbEntity
  8
DEFPOINTS
 62
     0
100
AcDbPoint
 10
7.017006165730409
 20
12.45556643573669
 30
0.0
  0
ENDBLK
  5
55B
330
54F
100
AcDbEntity
  8
0
100
AcDbBlockEnd
  0
BLOCK
  5
567
330
55C
100
AcDbEntity
  8
0
100
AcDbBlockBegin
  2
*D21
 70
     1
 10
0.0
 20
0.0
 30
0.0
  3
*D21
  1

  0
LINE
  5
BD3
330
55C
100
AcDbEntity
  8
DIM
 62
     0
100
AcDbLine
 10
3.423213320718959
 20
11.72314657295934
 30
0.0
 11
3.423213320718959
 21
13.06761844362558
 31
0.0
  0
LINE
  5
BD4
330
55C
100
AcDbEntity
  8
DIM
 62
     0
100
AcDbLine
 10
7.362213320718963
 20
11.81314657295934
 30
0.0
 11
7.362213320718963
 21
13.06761844362558
 31
0.0
  0
LINE
  5
BD5
330
55C
100
AcDbEntity
  8
DIM
 62
     0
100
AcDbLine
 10
3.693213320718959
 20
12.92811844362558
 30
0.0
 11
5.210838320718961
 21
12.92811844362558
 31
0.0
  0
LINE
  5
BD6
330
55C
100
AcDbEntity
  8
DIM
 62
     0
100
AcDbLine
 10
7.092213320718963
 20
12.92811844362558
 30
0.0
 11
5.574588320718961
 21
12.92811844362558
 31
0.0
  0
SOLID
  5
BD7
330
55C
100
AcDbEntity
  8
DIM
 62
     0
100
AcDbTrace
 10
3.693213320718959
 20
12.97311844362558
 30
0.0
 11
3.693213320718959
 21
12.88311844362558
 31
0.0
 12
3.423213320718959
 22
12.92811844362558
 32
0.0
 13
3.423213320718959
 23
12.92811844362558
 33
0.0
  0
SOLID
  5
BD8
330
55C
100
AcDbEntity
  8
DIM
 62
     0
100
AcDbTrace
 10
7.092213320718963
 20
12.97311844362558
 30
0.0
 11
7.092213320718963
 21
12.88311844362558
 31
0.0
 12
7.362213320718963
 22
12.92811844362558
 32
0.0
 13
7.362213320718963
 23
12.92811844362558
 33
0.0
  0
MTEXT
  5
BD9
330
55C
100
AcDbEntity
  8
DIM
 62
     0
100
AcDbMText
 10
5.392713320718961
 20
12.92811844362558
 30
0.0
 40
0.1875
 41
0.0
 71
     5
 72
     1
  1
\A1;G
  7
TXT
1001
ACAD
1000
MTEXTBEGIN
1070
    73
1070
     1
1070
    44
1040
1.0
1070
    74
1070
     0
1000
MTEXTEND
  0
POINT
  5
BDA
330
55C
100
AcDbEntity
  8
DEFPOINTS
 62
     0
100
AcDbPoint
 10
3.423213320718959
 20
11.62864657295934
 30
0.1875
  0
POINT
  5
BDB
330
55C
100
AcDbEntity
  8
DEFPOINTS
 62
     0
100
AcDbPoint
 10
7.362213320718963
 20
11.71864657295934
 30
0.1875
  0
POINT
  5
BDC
330
55C
100
AcDbEntity
  8
DEFPOINTS
 62
     0
100
AcDbPoint
 10
7.362213320718963
 20
12.92811844362558
 30
0.0
  0
ENDBLK
  5
568
330
55C
100
AcDbEntity
  8
0
100
AcDbBlockEnd
  0
BLOCK
  5
574
330
569
100
AcDbEntity
  8
0
100
AcDbBlockBegin
  2
*D22
 70
     1
 10
0.0
 20
0.0
 30
0.0
  3
*D22
  1

  0
LINE
  5
B39
330
569
100
AcDbEntity
  8
DIM
 62
     0
100
AcDbLine
 10
6.636648699855268
 20
18.56724906737287
 30
0.0
 11
5.974782354757618
 21
18.56724906737287
 31
0.0
  0
LINE
  5
B3A
330
569
100
AcDbEntity
  8
DIM
 62
     0
100
AcDbLine
 10
7.466463320718959
 20
17.81426572549124
 30
0.0
 11
5.974782354757617
 21
17.81426572549124
 31
0.0
  0
LINE
  5
B3B
330
569
100
AcDbEntity
  8
DIM
 62
     0
100
AcDbLine
 10
6.114282354757618
 20
18.83724906737287
 30
0.0
 11
6.114282354757618
 21
19.10724906737287
 31
0.0
  0
LINE
  5
B3C
330
569
100
AcDbEntity
  8
DIM
 62
     0
100
AcDbLine
 10
6.114282354757617
 20
17.54426572549124
 30
0.0
 11
6.114282354757617
 21
17.27426572549124
 31
0.0
  0
SOLID
  5
B3D
330
569
100
AcDbEntity
  8
DIM
 62
     0
100
AcDbTrace
 10
6.069282354757618
 20
18.83724906737287
 30
0.0
 11
6.159282354757618
 21
18.83724906737287
 31
0.0
 12
6.114282354757618
 22
18.56724906737287
 32
0.0
 13
6.114282354757618
 23
18.56724906737287
 33
0.0
  0
SOLID
  5
B3E
330
569
100
AcDbEntity
  8
DIM
 62
     0
100
AcDbTrace
 10
6.069282354757617
 20
17.54426572549124
 30
0.0
 11
6.159282354757617
 21
17.54426572549124
 31
0.0
 12
6.114282354757617
 22
17.81426572549124
 32
0.0
 13
6.114282354757617
 23
17.81426572549124
 33
0.0
  0
MTEXT
  5
B3F
330
569
100
AcDbEntity
  8
DIM
 62
     0
100
AcDbMText
 10
6.114282354757614
 20
18.19075739643206
 30
0.0
 40
0.1875
 41
0.0
 71
     5
 72
     1
  1
\A1;0.753
  7
TXT
1001
ACAD
1000
MTEXTBEGIN
1070
    73
1070
     1
1070
    44
1040
1.0
1070
    74
1070
     0
1000
MTEXTEND
  0
POINT
  5
B40
330
569
100
AcDbEntity
  8
DEFPOINTS
 62
     0
100
AcDbPoint
 10
6.731148699855268
 20
18.56724906737287
 30
0.0
  0
POINT
  5
B41
330
569
100
AcDbEntity
  8
DEFPOINTS
 62
     0
100
AcDbPoint
 10
7.560963320718959
 20
17.81426572549124
 30
0.0
  0
POINT
  5
B42
330
569
100
AcDbEntity
  8
DEFPOINTS
 62
     0
100
AcDbPoint
 10
6.114282354757617
 20
17.81426572549124
 30
0.0
  0
ENDBLK
  5
575
330
569
100
AcDbEntity
  8
0
100
AcDbBlockEnd
  0
BLOCK
  5
581
330
576
100
AcDbEntity
  8
0
100
AcDbBlockBegin
  2
*D23
 70
     1
 10
0.0
 20
0.0
 30
0.0
  3
*D23
  1

  0
LINE
  5
B57
330
576
100
AcDbEntity
  8
DIM
 62
     0
100
AcDbLine
 10
4.714148505135628
 20
18.56724906737287
 30
0.0
 11
4.903634652781519
 21
18.56724906737287
 31
0.0
  0
LINE
  5
B58
330
576
100
AcDbEntity
  8
DIM
 62
     0
100
AcDbLine
 10
4.714148505135621
 20
15.73074906737287
 30
0.0
 11
4.903634652781518
 21
15.73074906737287
 31
0.0
  0
LINE
  5
B59
330
576
100
AcDbEntity
  8
DIM
 62
     0
100
AcDbLine
 10
4.764134652781519
 20
18.29724906737287
 30
0.0
 11
4.764134652781518
 21
17.47947142064302
 31
0.0
  0
LINE
  5
B5A
330
576
100
AcDbEntity
  8
DIM
 62
     0
100
AcDbLine
 10
4.764134652781518
 20
16.00074906737287
 30
0.0
 11
4.764134652781518
 21
17.02197142064302
 31
0.0
  0
SOLID
  5
B5B
330
576
100
AcDbEntity
  8
DIM
 62
     0
100
AcDbTrace
 10
4.719134652781519
 20
18.29724906737287
 30
0.0
 11
4.809134652781519
 21
18.29724906737287
 31
0.0
 12
4.764134652781519
 22
18.56724906737287
 32
0.0
 13
4.764134652781519
 23
18.56724906737287
 33
0.0
  0
SOLID
  5
B5C
330
576
100
AcDbEntity
  8
DIM
 62
     0
100
AcDbTrace
 10
4.719134652781519
 20
16.00074906737287
 30
0.0
 11
4.809134652781518
 21
16.00074906737287
 31
0.0
 12
4.764134652781518
 22
15.73074906737287
 32
0.0
 13
4.764134652781518
 23
15.73074906737287
 33
0.0
  0
MTEXT
  5
B5D
330
576
100
AcDbEntity
  8
DIM
 62
     0
100
AcDbMText
 10
4.764134652781516
 20
17.25072142064302
 30
0.0
 40
0.1875
 41
0.0
 71
     5
 72
     1
  1
\A1;T
  7
TXT
1001
ACAD
1000
MTEXTBEGIN
1070
    73
1070
     1
1070
    44
1040
1.0
1070
    74
1070
     0
1000
MTEXTEND
  0
POINT
  5
B5E
330
576
100
AcDbEntity
  8
DEFPOINTS
 62
     0
100
AcDbPoint
 10
4.619648505135628
 20
18.56724906737287
 30
0.0
  0
POINT
  5
B5F
330
576
100
AcDbEntity
  8
DEFPOINTS
 62
     0
100
AcDbPoint
 10
4.619648505135621
 20
15.73074906737287
 30
0.0
  0
POINT
  5
B60
330
576
100
AcDbEntity
  8
DEFPOINTS
 62
     0
100
AcDbPoint
 10
4.764134652781518
 20
15.73074906737287
 30
0.0
  0
ENDBLK
  5
582
330
576
100
AcDbEntity
  8
0
100
AcDbBlockEnd
  0
BLOCK
  5
58E
330
583
100
AcDbEntity
  8
0
100
AcDbBlockBegin
  2
*D24
 70
     1
 10
0.0
 20
0.0
 30
0.0
  3
*D24
  1

  0
LINE
  5
B43
330
583
100
AcDbEntity
  8
DIM
 62
     0
100
AcDbLine
 10
3.224463320718959
 20
16.93414471342748
 30
0.0
 11
3.224463320718959
 21
17.01056559997331
 31
0.0
  0
LINE
  5
B44
330
583
100
AcDbEntity
  8
DIM
 62
     0
100
AcDbLine
 10
7.560963320718959
 20
16.93414471342748
 30
0.0
 11
7.560963320718959
 21
17.01056559997331
 31
0.0
  0
LINE
  5
B45
330
583
100
AcDbEntity
  8
DIM
 62
     0
100
AcDbLine
 10
3.494463320718959
 20
16.87106559997331
 30
0.0
 11
5.210838320718959
 21
16.87106559997331
 31
0.0
  0
LINE
  5
B46
330
583
100
AcDbEntity
  8
DIM
 62
     0
100
AcDbLine
 10
7.29096332071896
 20
16.87106559997331
 30
0.0
 11
5.574588320718959
 21
16.87106559997331
 31
0.0
  0
SOLID
  5
B47
330
583
100
AcDbEntity
  8
DIM
 62
     0
100
AcDbTrace
 10
3.494463320718959
 20
16.91606559997331
 30
0.0
 11
3.494463320718959
 21
16.82606559997331
 31
0.0
 12
3.224463320718959
 22
16.87106559997331
 32
0.0
 13
3.224463320718959
 23
16.87106559997331
 33
0.0
  0
SOLID
  5
B48
330
583
100
AcDbEntity
  8
DIM
 62
     0
100
AcDbTrace
 10
7.29096332071896
 20
16.91606559997331
 30
0.0
 11
7.29096332071896
 21
16.82606559997331
 31
0.0
 12
7.560963320718959
 22
16.87106559997331
 32
0.0
 13
7.560963320718959
 23
16.87106559997331
 33
0.0
  0
MTEXT
  5
B49
330
583
100
AcDbEntity
  8
DIM
 62
     0
100
AcDbMText
 10
5.392713320718959
 20
16.87106559997331
 30
0.0
 40
0.1875
 41
0.0
 71
     5
 72
     1
  1
\A1;S
  7
TXT
1001
ACAD
1000
MTEXTBEGIN
1070
    73
1070
     1
1070
    44
1040
1.0
1070
    74
1070
     0
1000
MTEXTEND
  0
POINT
  5
B4A
330
583
100
AcDbEntity
  8
DEFPOINTS
 62
     0
100
AcDbPoint
 10
3.224463320718959
 20
16.83964471342748
 30
0.0
  0
POINT
  5
B4B
330
583
100
AcDbEntity
  8
DEFPOINTS
 62
     0
100
AcDbPoint
 10
7.560963320718959
 20
16.83964471342748
 30
0.0
  0
POINT
  5
B4C
330
583
100
AcDbEntity
  8
DEFPOINTS
 62
     0
100
AcDbPoint
 10
7.560963320718959
 20
16.87106559997331
 30
0.0
  0
ENDBLK
  5
58F
330
583
100
AcDbEntity
  8
0
100
AcDbBlockEnd
  0
BLOCK
  5
59B
330
590
100
AcDbEntity
  8
0
100
AcDbBlockBegin
  2
*D25
 70
     1
 10
0.0
 20
0.0
 30
0.0
  3
*D25
  1

  0
LINE
  5
C54
330
590
100
AcDbEntity
  8
DIM
 62
     0
100
AcDbLine
 10
14.22423110232692
 20
8.823350612801643
 30
0.0
 11
14.86445660902695
 21
8.823350612801643
 31
0.0
  0
LINE
  5
C55
330
590
100
AcDbEntity
  8
DIM
 62
     0
100
AcDbLine
 10
14.22423110232692
 20
12.01006658626687
 30
0.0
 11
14.86445660902696
 21
12.01006658626687
 31
0.0
  0
LINE
  5
C56
330
590
100
AcDbEntity
  8
DIM
 62
     0
100
AcDbLine
 10
14.72495660902696
 20
9.093350612801643
 30
0.0
 11
14.72495660902696
 21
10.18795859953426
 31
0.0
  0
LINE
  5
C57
330
590
100
AcDbEntity
  8
DIM
 62
     0
100
AcDbLine
 10
14.72495660902696
 20
11.74006658626687
 30
0.0
 11
14.72495660902696
 21
10.64545859953426
 31
0.0
  0
SOLID
  5
C58
330
590
100
AcDbEntity
  8
DIM
 62
     0
100
AcDbTrace
 10
14.67995660902696
 20
9.093350612801643
 30
0.0
 11
14.76995660902695
 21
9.093350612801643
 31
0.0
 12
14.72495660902696
 22
8.823350612801643
 32
0.0
 13
14.72495660902696
 23
8.823350612801643
 33
0.0
  0
SOLID
  5
C59
330
590
100
AcDbEntity
  8
DIM
 62
     0
100
AcDbTrace
 10
14.67995660902696
 20
11.74006658626687
 30
0.0
 11
14.76995660902695
 21
11.74006658626687
 31
0.0
 12
14.72495660902696
 22
12.01006658626687
 32
0.0
 13
14.72495660902696
 23
12.01006658626687
 33
0.0
  0
MTEXT
  5
C5A
330
590
100
AcDbEntity
  8
DIM
 62
     0
100
AcDbMText
 10
14.72495660902695
 20
10.41670859953426
 30
0.0
 40
0.1875
 41
0.0
 71
     5
 72
     1
  1
\A1;J
  7
TXT
1001
ACAD
1000
MTEXTBEGIN
1070
    73
1070
     1
1070
    44
1040
1.0
1070
    74
1070
     0
1000
MTEXTEND
  0
POINT
  5
C5B
330
590
100
AcDbEntity
  8
DEFPOINTS
 62
     0
100
AcDbPoint
 10
14.12973110232693
 20
8.823350612801643
 30
-0.1875
  0
POINT
  5
C5C
330
590
100
AcDbEntity
  8
DEFPOINTS
 62
     0
100
AcDbPoint
 10
14.12973110232693
 20
12.01006658626687
 30
-0.1875
  0
POINT
  5
C5D
330
590
100
AcDbEntity
  8
DEFPOINTS
 62
     0
100
AcDbPoint
 10
14.72495660902696
 20
12.01006658626687
 30
0.0
  0
ENDBLK
  5
59C
330
590
100
AcDbEntity
  8
0
100
AcDbBlockEnd
  0
BLOCK
  5
5A8
330
59D
100
AcDbEntity
  8
0
100
AcDbBlockBegin
  2
*D26
 70
     1
 10
0.0
 20
0.0
 30
0.0
  3
*D26
  1

  0
LINE
  5
C4A
330
59D
100
AcDbEntity
  8
DIM
 62
     0
100
AcDbLine
 10
12.38823110232692
 20
11.96370265453607
 30
0.0
 11
11.85208681715961
 21
11.96370265453608
 31
0.0
  0
LINE
  5
C4B
330
59D
100
AcDbEntity
  8
DIM
 62
     0
100
AcDbLine
 10
12.38823110232693
 20
8.85970265453608
 30
0.0
 11
11.85208681715961
 21
8.859702654536082
 31
0.0
  0
LINE
  5
C4C
330
59D
100
AcDbEntity
  8
DIM
 62
     0
100
AcDbLine
 10
11.9915868171596
 20
11.69370265453608
 30
0.0
 11
11.9915868171596
 21
10.64045265453608
 31
0.0
  0
LINE
  5
C4D
330
59D
100
AcDbEntity
  8
DIM
 62
     0
100
AcDbLine
 10
11.9915868171596
 20
9.129702654536082
 30
0.0
 11
11.9915868171596
 21
10.18295265453608
 31
0.0
  0
SOLID
  5
C4E
330
59D
100
AcDbEntity
  8
DIM
 62
     0
100
AcDbTrace
 10
11.94658681715961
 20
11.69370265453608
 30
0.0
 11
12.0365868171596
 21
11.69370265453608
 31
0.0
 12
11.9915868171596
 22
11.96370265453608
 32
0.0
 13
11.9915868171596
 23
11.96370265453608
 33
0.0
  0
SOLID
  5
C4F
330
59D
100
AcDbEntity
  8
DIM
 62
     0
100
AcDbTrace
 10
11.94658681715961
 20
9.129702654536082
 30
0.0
 11
12.0365868171596
 21
9.12970265453608
 31
0.0
 12
11.9915868171596
 22
8.859702654536082
 32
0.0
 13
11.9915868171596
 23
8.859702654536082
 33
0.0
  0
MTEXT
  5
C50
330
59D
100
AcDbEntity
  8
DIM
 62
     0
100
AcDbMText
 10
11.9915868171596
 20
10.41170265453608
 30
0.0
 40
0.1875
 41
0.0
 71
     5
 72
     1
  1
\A1;K
  7
TXT
1001
ACAD
1000
MTEXTBEGIN
1070
    73
1070
     1
1070
    44
1040
1.0
1070
    74
1070
     0
1000
MTEXTEND
  0
POINT
  5
C51
330
59D
100
AcDbEntity
  8
DEFPOINTS
 62
     0
100
AcDbPoint
 10
12.48273110232692
 20
11.96370265453607
 30
-0.1875
  0
POINT
  5
C52
330
59D
100
AcDbEntity
  8
DEFPOINTS
 62
     0
100
AcDbPoint
 10
12.48273110232693
 20
8.85970265453608
 30
-0.1875
  0
POINT
  5
C53
330
59D
100
AcDbEntity
  8
DEFPOINTS
 62
     0
100
AcDbPoint
 10
11.9915868171596
 20
8.859702654536082
 30
0.0
  0
ENDBLK
  5
5A9
330
59D
100
AcDbEntity
  8
0
100
AcDbBlockEnd
  0
BLOCK
  5
5B5
330
5AA
100
AcDbEntity
  8
0
100
AcDbBlockBegin
  2
*D27
 70
     1
 10
0.0
 20
0.0
 30
0.0
  3
*D27
  1

  0
LINE
  5
C5E
330
5AA
100
AcDbEntity
  8
DIM
 62
     0
100
AcDbLine
 10
14.15473110232692
 20
8.939497986365688
 30
0.0
 11
14.15473110232692
 21
8.162393531131685
 31
0.0
  0
LINE
  5
C5F
330
5AA
100
AcDbEntity
  8
DIM
 62
     0
100
AcDbLine
 10
12.48273110232693
 20
8.76520265453608
 30
0.0
 11
12.48273110232693
 21
8.162393531131685
 31
0.0
  0
LINE
  5
C60
330
5AA
100
AcDbEntity
  8
DIM
 62
     0
100
AcDbLine
 10
13.88473110232692
 20
8.301893531131685
 30
0.0
 11
13.52404360232692
 21
8.301893531131685
 31
0.0
  0
LINE
  5
C61
330
5AA
100
AcDbEntity
  8
DIM
 62
     0
100
AcDbLine
 10
12.75273110232693
 20
8.301893531131685
 30
0.0
 11
13.11341860232692
 21
8.301893531131685
 31
0.0
  0
SOLID
  5
C62
330
5AA
100
AcDbEntity
  8
DIM
 62
     0
100
AcDbTrace
 10
13.88473110232692
 20
8.346893531131685
 30
0.0
 11
13.88473110232692
 21
8.256893531131686
 31
0.0
 12
14.15473110232692
 22
8.301893531131685
 32
0.0
 13
14.15473110232692
 23
8.301893531131685
 33
0.0
  0
SOLID
  5
C63
330
5AA
100
AcDbEntity
  8
DIM
 62
     0
100
AcDbTrace
 10
12.75273110232693
 20
8.346893531131685
 30
0.0
 11
12.75273110232693
 21
8.256893531131686
 31
0.0
 12
12.48273110232693
 22
8.301893531131685
 32
0.0
 13
12.48273110232693
 23
8.301893531131685
 33
0.0
  0
MTEXT
  5
C64
330
5AA
100
AcDbEntity
  8
DIM
 62
     0
100
AcDbMText
 10
13.31873110232692
 20
8.301893531131685
 30
0.0
 40
0.1875
 41
0.0
 71
     5
 72
     1
  1
\A1;W
  7
TXT
1001
ACAD
1000
MTEXTBEGIN
1070
    73
1070
     1
1070
    44
1040
1.0
1070
    74
1070
     0
1000
MTEXTEND
  0
POINT
  5
C65
330
5AA
100
AcDbEntity
  8
DEFPOINTS
 62
     0
100
AcDbPoint
 10
14.15473110232692
 20
9.033997986365688
 30
-0.1875
  0
POINT
  5
C66
330
5AA
100
AcDbEntity
  8
DEFPOINTS
 62
     0
100
AcDbPoint
 10
12.48273110232693
 20
8.85970265453608
 30
-0.1875
  0
POINT
  5
C67
330
5AA
100
AcDbEntity
  8
DEFPOINTS
 62
     0
100
AcDbPoint
 10
12.48273110232693
 20
8.301893531131685
 30
0.0
  0
ENDBLK
  5
5B6
330
5AA
100
AcDbEntity
  8
0
100
AcDbBlockEnd
  0
BLOCK
  5
5C2
330
5B7
100
AcDbEntity
  8
0
100
AcDbBlockBegin
  2
*D28
 70
     1
 10
0.0
 20
0.0
 30
0.0
  3
*D28
  1

  0
LINE
  5
C68
330
5B7
100
AcDbEntity
  8
DIM
 62
     0
100
AcDbLine
 10
8.242318280794027
 20
2.635098578530954
 30
0.0
 11
9.004808559820936
 21
2.635098578530954
 31
0.0
  0
LINE
  5
C69
330
5B7
100
AcDbEntity
  8
DIM
 62
     0
100
AcDbLine
 10
8.367318280794027
 20
2.760098578530954
 30
0.0
 11
9.004808559820936
 21
2.760098578530954
 31
0.0
  0
LINE
  5
C6A
330
5B7
100
AcDbEntity
  8
DIM
 62
     0
100
AcDbLine
 10
8.865308559820936
 20
2.365098578530954
 30
0.0
 11
8.865308559820936
 21
2.095098578530954
 31
0.0
  0
LINE
  5
C6B
330
5B7
100
AcDbEntity
  8
DIM
 62
     0
100
AcDbLine
 10
8.865308559820936
 20
3.030098578530954
 30
0.0
 11
8.865308559820936
 21
3.300098578530954
 31
0.0
  0
LINE
  5
C6C
330
5B7
100
AcDbEntity
  8
DIM
 62
     0
100
AcDbLine
 10
8.865308559820936
 20
3.300098578530954
 30
0.0
 11
9.135308559820936
 21
3.300098578530954
 31
0.0
  0
SOLID
  5
C6D
330
5B7
100
AcDbEntity
  8
DIM
 62
     0
100
AcDbTrace
 10
8.820308559820936
 20
2.365098578530954
 30
0.0
 11
8.910308559820936
 21
2.365098578530954
 31
0.0
 12
8.865308559820936
 22
2.635098578530954
 32
0.0
 13
8.865308559820936
 23
2.635098578530954
 33
0.0
  0
SOLID
  5
C6E
330
5B7
100
AcDbEntity
  8
DIM
 62
     0
100
AcDbTrace
 10
8.820308559820936
 20
3.030098578530954
 30
0.0
 11
8.910308559820936
 21
3.030098578530954
 31
0.0
 12
8.865308559820936
 22
2.760098578530954
 32
0.0
 13
8.865308559820936
 23
2.760098578530954
 33
0.0
  0
MTEXT
  5
C6F
330
5B7
100
AcDbEntity
  8
DIM
 62
     0
100
AcDbMText
 10
9.516402309820936
 20
3.300098578530956
 30
0.0
 40
0.1875
 41
0.0
 71
     5
 72
     1
  1
\A1;0.125
  7
TXT
1001
ACAD
1000
MTEXTBEGIN
1070
    73
1070
     1
1070
    44
1040
1.0
1070
    74
1070
     0
1000
MTEXTEND
  0
POINT
  5
C70
330
5B7
100
AcDbEntity
  8
DEFPOINTS
 62
     0
100
AcDbPoint
 10
8.147818280794027
 20
2.635098578530954
 30
-0.1875
  0
POINT
  5
C71
330
5B7
100
AcDbEntity
  8
DEFPOINTS
 62
     0
100
AcDbPoint
 10
8.272818280794027
 20
2.760098578530954
 30
-0.1875
  0
POINT
  5
C72
330
5B7
100
AcDbEntity
  8
DEFPOINTS
 62
     0
100
AcDbPoint
 10
8.865308559820936
 20
2.760098578530954
 30
0.0
  0
ENDBLK
  5
5C3
330
5B7
100
AcDbEntity
  8
0
100
AcDbBlockEnd
  0
BLOCK
  5
5CF
330
5C4
100
AcDbEntity
  8
0
100
AcDbBlockBegin
  2
*D29
 70
     1
 10
0.0
 20
0.0
 30
0.0
  3
*D29
  1

  0
LINE
  5
B89
330
5C4
100
AcDbEntity
  8
DIM
 62
     0
100
AcDbLine
 10
9.495964751132598
 20
15.54549906737285
 30
0.0
 11
9.495964751132598
 21
14.9401335691178
 31
0.0
  0
LINE
  5
B8A
330
5C4
100
AcDbEntity
  8
DIM
 62
     0
100
AcDbLine
 10
9.395964751132595
 20
15.61549906737285
 30
0.0
 11
9.395964751132595
 21
14.9401335691178
 31
0.0
  0
LINE
  5
B8B
330
5C4
100
AcDbEntity
  8
DIM
 62
     0
100
AcDbLine
 10
9.765964751132598
 20
15.0796335691178
 30
0.0
 11
10.0359647511326
 21
15.0796335691178
 31
0.0
  0
LINE
  5
B8C
330
5C4
100
AcDbEntity
  8
DIM
 62
     0
100
AcDbLine
 10
9.125964751132595
 20
15.0796335691178
 30
0.0
 11
8.855964751132594
 21
15.0796335691178
 31
0.0
  0
SOLID
  5
B8D
330
5C4
100
AcDbEntity
  8
DIM
 62
     0
100
AcDbTrace
 10
9.765964751132598
 20
15.1246335691178
 30
0.0
 11
9.765964751132598
 21
15.0346335691178
 31
0.0
 12
9.495964751132598
 22
15.0796335691178
 32
0.0
 13
9.495964751132598
 23
15.0796335691178
 33
0.0
  0
SOLID
  5
B8E
330
5C4
100
AcDbEntity
  8
DIM
 62
     0
100
AcDbTrace
 10
9.125964751132595
 20
15.1246335691178
 30
0.0
 11
9.125964751132595
 21
15.0346335691178
 31
0.0
 12
9.395964751132595
 22
15.0796335691178
 32
0.0
 13
9.395964751132595
 23
15.0796335691178
 33
0.0
  0
MTEXT
  5
B8F
330
5C4
100
AcDbEntity
  8
DIM
 62
     0
100
AcDbMText
 10
8.498308501132594
 20
15.0796335691178
 30
0.0
 40
0.1875
 41
0.0
 71
     5
 72
     1
  1
\A1;0.100
  7
TXT
1001
ACAD
1000
MTEXTBEGIN
1070
    73
1070
     1
1070
    44
1040
1.0
1070
    74
1070
     0
1000
MTEXTEND
  0
POINT
  5
B90
330
5C4
100
AcDbEntity
  8
DEFPOINTS
 62
     0
100
AcDbPoint
 10
9.495964751132598
 20
15.63999906737285
 30
-0.1875
  0
POINT
  5
B91
330
5C4
100
AcDbEntity
  8
DEFPOINTS
 62
     0
100
AcDbPoint
 10
9.395964751132595
 20
15.70999906737285
 30
-0.1875
  0
POINT
  5
B92
330
5C4
100
AcDbEntity
  8
DEFPOINTS
 62
     0
100
AcDbPoint
 10
9.395964751132595
 20
15.0796335691178
 30
0.0
  0
ENDBLK
  5
5D0
330
5C4
100
AcDbEntity
  8
0
100
AcDbBlockEnd
  0
BLOCK
  5
5DC
330
5D1
100
AcDbEntity
  8
0
100
AcDbBlockBegin
  2
*D30
 70
     1
 10
0.0
 20
0.0
 30
0.0
  3
*D30
  1

  0
LINE
  5
C73
330
5D1
100
AcDbEntity
  8
DIM
 62
     0
100
AcDbLine
 10
12.48273110232692
 20
12.05820265453607
 30
0.0
 11
12.48273110232692
 21
12.59506643573669
 31
0.0
  0
LINE
  5
C74
330
5D1
100
AcDbEntity
  8
DIM
 62
     0
100
AcDbLine
 10
14.25473110232692
 20
11.97956658626687
 30
0.0
 11
14.25473110232692
 21
12.59506643573669
 31
0.0
  0
LINE
  5
C75
330
5D1
100
AcDbEntity
  8
DIM
 62
     0
100
AcDbLine
 10
12.75273110232691
 20
12.45556643573669
 30
0.0
 11
13.18685610232692
 21
12.45556643573669
 31
0.0
  0
LINE
  5
C76
330
5D1
100
AcDbEntity
  8
DIM
 62
     0
100
AcDbLine
 10
13.98473110232692
 20
12.45556643573669
 30
0.0
 11
13.55060610232691
 21
12.45556643573669
 31
0.0
  0
SOLID
  5
C77
330
5D1
100
AcDbEntity
  8
DIM
 62
     0
100
AcDbTrace
 10
12.75273110232691
 20
12.50056643573669
 30
0.0
 11
12.75273110232691
 21
12.41056643573669
 31
0.0
 12
12.48273110232692
 22
12.45556643573669
 32
0.0
 13
12.48273110232692
 23
12.45556643573669
 33
0.0
  0
SOLID
  5
C78
330
5D1
100
AcDbEntity
  8
DIM
 62
     0
100
AcDbTrace
 10
13.98473110232692
 20
12.50056643573669
 30
0.0
 11
13.98473110232692
 21
12.41056643573669
 31
0.0
 12
14.25473110232692
 22
12.45556643573669
 32
0.0
 13
14.25473110232692
 23
12.45556643573669
 33
0.0
  0
MTEXT
  5
C79
330
5D1
100
AcDbEntity
  8
DIM
 62
     0
100
AcDbMText
 10
13.36873110232692
 20
12.45556643573669
 30
0.0
 40
0.1875
 41
0.0
 71
     5
 72
     1
  1
\A1;U
  7
TXT
1001
ACAD
1000
MTEXTBEGIN
1070
    73
1070
     1
1070
    44
1040
1.0
1070
    74
1070
     0
1000
MTEXTEND
  0
POINT
  5
C7A
330
5D1
100
AcDbEntity
  8
DEFPOINTS
 62
     0
100
AcDbPoint
 10
12.48273110232692
 20
11.96370265453607
 30
0.0
  0
POINT
  5
C7B
330
5D1
100
AcDbEntity
  8
DEFPOINTS
 62
     0
100
AcDbPoint
 10
14.25473110232692
 20
11.88506658626687
 30
0.0
  0
POINT
  5
C7C
330
5D1
100
AcDbEntity
  8
DEFPOINTS
 62
     0
100
AcDbPoint
 10
14.25473110232692
 20
12.45556643573669
 30
0.0
  0
ENDBLK
  5
5DD
330
5D1
100
AcDbEntity
  8
0
100
AcDbBlockEnd
  0
ENDSEC
  0
SECTION
  2
ENTITIES
  0
TEXT
  5
1DE
330
1E
100
AcDbEntity
  8
0
  6
CONTINUOUS
 62
     7
100
AcDbText
 10
22.31748878367495
 20
12.27456486485506
 30
0.0
 40
0.125
  1

 50
90.0
  7
CITYBLUEPRINT
100
AcDbText
  0
TEXT
  5
1E0
330
1E
100
AcDbEntity
  8
0
  6
CONTINUOUS
 62
     1
100
AcDbText
 10
19.17845410090357
 20
15.4091803877171
 30
0.0
 40
0.125
  1

  7
CITYBLUEPRINT
100
AcDbText
  0
TEXT
  5
1E1
330
1E
100
AcDbEntity
  8
0
  6
CONTINUOUS
 62
     1
100
AcDbText
 10
19.14695795002474
 20
15.17324074991588
 30
0.0
 40
0.125
  1

  7
CITYBLUEPRINT
100
AcDbText
  0
TEXT
  5
1E2
330
1E
100
AcDbEntity
  8
0
  6
CONTINUOUS
 62
     1
100
AcDbText
 10
12.31229075867319
 20
15.33053382170928
 30
0.0
 40
0.1875
  1

  7
CITYBLUEPRINT
100
AcDbText
  0
TEXT
  5
1E3
330
1E
100
AcDbEntity
  8
0
  6
CONTINUOUS
 62
     1
100
AcDbText
 10
14.39967731388856
 20
22.51625307369989
 30
0.0
 40
0.1875
  1

  7
CITYBLUEPRINT
100
AcDbText
  0
TEXT
  5
1E5
330
1E
100
AcDbEntity
  8
0
  6
CONTINUOUS
 62
     7
100
AcDbText
 10
25.89831338140157
 20
25.24422504265892
 30
0.0
 40
0.125
  1

 50
90.0
  7
CITYBLUEPRINT
100
AcDbText
  0
LINE
  5
1E6
330
1E
100
AcDbEntity
  8
OBJECT
100
AcDbLine
 10
14.25473110232692
 20
11.88506658626687
 30
-0.1875
 11
14.25473110232692
 21
8.948350612801698
 31
-0.1875
  0
LINE
  5
1E7
330
1E
100
AcDbEntity
  8
OBJECT
100
AcDbLine
 10
14.12973110232693
 20
12.01006658626687
 30
-0.1875
 11
14.12973110232693
 21
8.823350612801643
 31
-0.1875
  0
ARC
  5
1E8
330
1E
100
AcDbEntity
  8
OBJECT
100
AcDbCircle
 10
14.12973110232693
 20
11.88506658626687
 30
0.0
 40
0.125
100
AcDbArc
 50
0.0
 51
90.0
  0
ARC
  5
1E9
330
1E
100
AcDbEntity
  8
HIDDEN
100
AcDbCircle
 10
14.15521249457664
 20
11.82026568691702
 30
-0.1875
 40
0.0307694905425988
100
AcDbArc
 50
268.2022092198351
 51
91.79779078016506
  0
ARC
  5
1EA
330
1E
100
AcDbEntity
  8
OBJECT
100
AcDbCircle
 10
14.12973110232693
 20
8.948350612801698
 30
-0.1875
 40
0.125
100
AcDbArc
 50
268.8250601792478
 51
0.0000000000000509
  0
ARC
  5
1EB
330
1E
100
AcDbEntity
  8
HIDDEN
100
AcDbCircle
 10
14.15443180884594
 20
9.005813439562389
 30
-0.1875
 40
0.0315619448774362
100
AcDbArc
 50
270.863173424752
 51
89.57448054085288
  0
LINE
  5
1EC
330
1E
100
AcDbEntity
  8
HIDDEN
100
AcDbLine
 10
14.15473110232692
 20
11.7894999623241
 30
-0.1875
 11
14.15473110232692
 21
9.033997986365688
 31
-0.1875
  0
LINE
  5
1ED
330
1E
100
AcDbEntity
  8
HIDDEN
100
AcDbLine
 10
13.90473110232693
 20
11.40914657295934
 30
0.1875
 11
14.15473110232692
 21
11.40914657295934
 31
0.1875
  0
LINE
  5
1EE
330
1E
100
AcDbEntity
  8
HIDDEN
100
AcDbLine
 10
13.90473110232693
 20
11.15914657295934
 30
0.1875
 11
14.15473110232692
 21
11.15914657295934
 31
0.1875
  0
LINE
  5
1EF
330
1E
100
AcDbEntity
  8
HIDDEN
100
AcDbLine
 10
13.90473110232693
 20
11.40914657295934
 30
0.1875
 11
13.90473110232693
 21
11.15914657295934
 31
0.1875
  0
LINE
  5
1F0
330
1E
100
AcDbEntity
  8
HIDDEN
100
AcDbLine
 10
12.60773110232692
 20
11.85826789056485
 30
-0.1875
 11
12.60773110232693
 21
11.46543018778099
 31
-0.1875
  0
LINE
  5
1F1
330
1E
100
AcDbEntity
  8
HIDDEN
100
AcDbLine
 10
12.60773110232692
 20
11.77793018778099
 30
-0.1875
 11
14.16521541179732
 21
11.79116752210672
 31
-0.1875
  0
LINE
  5
1F2
330
1E
100
AcDbEntity
  8
HIDDEN
100
AcDbLine
 10
12.60773110232693
 20
11.46543018778099
 30
-0.1875
 11
14.15473110232692
 21
11.45210054720984
 31
-0.1875
  0
LINE
  5
1F3
330
1E
100
AcDbEntity
  8
HIDDEN
100
AcDbLine
 10
12.60773110232693
 20
11.74918018778099
 30
-0.1875
 11
12.63898110232692
 21
11.74918018778099
 31
-0.1875
  0
LINE
  5
1F4
330
1E
100
AcDbEntity
  8
HIDDEN
100
AcDbLine
 10
12.60773110232693
 20
11.49418018778099
 30
-0.1875
 11
12.63898110232692
 21
11.49418018778099
 31
-0.1875
  0
LINE
  5
1F5
330
1E
100
AcDbEntity
  8
HIDDEN
100
AcDbLine
 10
12.63898110232692
 20
11.52793018778099
 30
-0.1875
 11
12.88873110232692
 21
11.52793018778099
 31
-0.1875
  0
LINE
  5
1F6
330
1E
100
AcDbEntity
  8
HIDDEN
100
AcDbLine
 10
12.63898110232692
 20
11.71543018778099
 30
-0.1875
 11
12.88873110232692
 21
11.71543018778099
 31
-0.1875
  0
LINE
  5
1F7
330
1E
100
AcDbEntity
  8
HIDDEN
100
AcDbLine
 10
12.88873110232692
 20
11.68168018778099
 30
-0.1875
 11
13.04523110232693
 21
11.68168018778099
 31
-0.1875
  0
LINE
  5
1F8
330
1E
100
AcDbEntity
  8
HIDDEN
100
AcDbLine
 10
12.88873110232692
 20
11.56168018778099
 30
-0.1875
 11
13.04523110232693
 21
11.56168018778099
 31
-0.1875
  0
LINE
  5
1F9
330
1E
100
AcDbEntity
  8
HIDDEN
100
AcDbLine
 10
12.63898110232692
 20
11.74918018778099
 30
-0.1875
 11
12.63898110232692
 21
11.49418018778099
 31
-0.1875
  0
LINE
  5
1FA
330
1E
100
AcDbEntity
  8
HIDDEN
100
AcDbLine
 10
12.88873110232692
 20
11.71543018778099
 30
-0.1875
 11
12.88873110232692
 21
11.52793018778099
 31
-0.1875
  0
LINE
  5
1FB
330
1E
100
AcDbEntity
  8
HIDDEN
100
AcDbLine
 10
13.04523110232693
 20
11.68168018778099
 30
-0.1875
 11
13.04523110232693
 21
11.56168018778099
 31
-0.1875
  0
LINE
  5
1FC
330
1E
100
AcDbEntity
  8
HIDDEN
100
AcDbLine
 10
13.90473110232693
 20
9.660241515844511
 30
0.1875
 11
14.15473110232692
 21
9.660241515844507
 31
0.1875
  0
LINE
  5
1FD
330
1E
100
AcDbEntity
  8
HIDDEN
100
AcDbLine
 10
13.90473110232692
 20
9.410241515844507
 30
0.1875
 11
14.15473110232692
 21
9.410241515844507
 31
0.1875
  0
LINE
  5
1FE
330
1E
100
AcDbEntity
  8
HIDDEN
100
AcDbLine
 10
13.90473110232693
 20
9.660241515844511
 30
0.1875
 11
13.90473110232692
 21
9.410241515844507
 31
0.1875
  0
LINE
  5
1FF
330
1E
100
AcDbEntity
  8
HIDDEN
100
AcDbLine
 10
12.60704328058386
 20
9.359652428307594
 30
-0.1875
 11
12.60704328058386
 21
8.968468945296852
 31
-0.1875
  0
LINE
  5
200
330
1E
100
AcDbEntity
  8
HIDDEN
100
AcDbLine
 10
12.60704328058386
 20
9.359652428307594
 30
-0.1875
 11
14.15466620827934
 21
9.372987436301027
 31
-0.1875
  0
LINE
  5
201
330
1E
100
AcDbEntity
  8
HIDDEN
100
AcDbLine
 10
12.60704328058386
 20
9.047152428307594
 30
-0.1875
 11
14.15490727844881
 21
9.033996488971618
 31
-0.1875
  0
LINE
  5
202
330
1E
100
AcDbEntity
  8
HIDDEN
100
AcDbLine
 10
12.63829328058386
 20
9.330902428307592
 30
-0.1875
 11
12.63829328058386
 21
9.075902428307593
 31
-0.1875
  0
LINE
  5
203
330
1E
100
AcDbEntity
  8
HIDDEN
100
AcDbLine
 10
12.88804328058384
 20
9.297152428307594
 30
-0.1875
 11
12.88804328058384
 21
9.109652428307594
 31
-0.1875
  0
LINE
  5
204
330
1E
100
AcDbEntity
  8
HIDDEN
100
AcDbLine
 10
13.04454328058386
 20
9.263402428307593
 30
-0.1875
 11
13.04454328058386
 21
9.143402428307592
 31
-0.1875
  0
LINE
  5
205
330
1E
100
AcDbEntity
  8
HIDDEN
100
AcDbLine
 10
12.88804328058384
 20
9.263402428307593
 30
-0.1875
 11
13.04454328058386
 21
9.263402428307593
 31
-0.1875
  0
LINE
  5
206
330
1E
100
AcDbEntity
  8
HIDDEN
100
AcDbLine
 10
12.88804328058384
 20
9.143402428307592
 30
-0.1875
 11
13.04454328058386
 21
9.143402428307592
 31
-0.1875
  0
LINE
  5
207
330
1E
100
AcDbEntity
  8
HIDDEN
100
AcDbLine
 10
12.63829328058386
 20
9.297152428307594
 30
-0.1875
 11
12.88804328058384
 21
9.297152428307594
 31
-0.1875
  0
LINE
  5
208
330
1E
100
AcDbEntity
  8
HIDDEN
100
AcDbLine
 10
12.63829328058386
 20
9.109652428307594
 30
-0.1875
 11
12.88804328058384
 21
9.109652428307594
 31
-0.1875
  0
LINE
  5
209
330
1E
100
AcDbEntity
  8
HIDDEN
100
AcDbLine
 10
12.60704328058386
 20
9.330902428307592
 30
-0.1875
 11
12.63829328058386
 21
9.330902428307592
 31
-0.1875
  0
LINE
  5
20A
330
1E
100
AcDbEntity
  8
HIDDEN
100
AcDbLine
 10
12.60704328058386
 20
9.075902428307593
 30
-0.1875
 11
12.63829328058386
 21
9.075902428307593
 31
-0.1875
  0
LINE
  5
20B
330
1E
100
AcDbEntity
  8
HIDDEN
100
AcDbLine
 10
3.187687544149675
 20
4.282098578530955
 30
-0.1875
 11
3.580387784147106
 21
4.282098578530955
 31
-0.1875
  0
LINE
  5
20C
330
1E
100
AcDbEntity
  8
OBJECT
100
AcDbLine
 10
3.090713320718961
 20
4.407098578530955
 30
-0.1875
 11
3.043510060719178
 21
2.763687440114324
 31
-0.1875
  0
LINE
  5
20D
330
1E
100
AcDbEntity
  8
HIDDEN
100
AcDbLine
 10
3.186687901184548
 20
4.405407449982162
 30
-0.1875
 11
3.199521179402928
 21
2.822385201712506
 31
-0.1875
  0
ARC
  5
20E
330
1E
100
AcDbEntity
  8
OBJECT
100
AcDbCircle
 10
2.630637784147103
 20
2.760098578530953
 30
-0.1875
 40
0.125
100
AcDbArc
 50
180.0
 51
270.0
  0
ARC
  5
20F
330
1E
100
AcDbEntity
  8
OBJECT
100
AcDbCircle
 10
8.147818280794027
 20
2.760098578530953
 30
-0.1875
 40
0.125
100
AcDbArc
 50
270.0
 51
0.0
  0
LINE
  5
210
330
1E
100
AcDbEntity
  8
OBJECT
100
AcDbLine
 10
7.69471332071896
 20
4.407098578530955
 30
-0.1875
 11
7.741344477064947
 21
2.763643884421213
 31
-0.1875
  0
LINE
  5
211
330
1E
100
AcDbEntity
  8
HIDDEN
100
AcDbLine
 10
7.600396372437961
 20
4.404983933689278
 30
-0.1875
 11
7.575134501256712
 21
2.821694689908387
 31
-0.1875
  0
LINE
  5
212
330
1E
100
AcDbEntity
  8
HIDDEN
100
AcDbLine
 10
3.88934982493081
 20
2.985098578530955
 30
0.1875
 11
3.88934982493081
 21
2.735098578530955
 31
0.1875
  0
LINE
  5
213
330
1E
100
AcDbEntity
  8
HIDDEN
100
AcDbLine
 10
3.63934982493081
 20
2.985098578530955
 30
0.1875
 11
3.63934982493081
 21
2.735098578530955
 31
0.1875
  0
LINE
  5
214
330
1E
100
AcDbEntity
  8
HIDDEN
100
AcDbLine
 10
6.889957210235612
 20
2.985098578530955
 30
0.1875
 11
6.889957210235612
 21
2.735098578530955
 31
0.1875
  0
LINE
  5
215
330
1E
100
AcDbEntity
  8
HIDDEN
100
AcDbLine
 10
7.139957210235609
 20
2.985098578530955
 30
0.1875
 11
7.139957210235611
 21
2.735098578530955
 31
0.1875
  0
LINE
  5
216
330
1E
100
AcDbEntity
  8
HIDDEN
100
AcDbLine
 10
3.580387784147106
 20
4.282098578530955
 30
-0.1875
 11
3.593717424718256
 21
2.735098578530955
 31
-0.1875
  0
LINE
  5
217
330
1E
100
AcDbEntity
  8
HIDDEN
100
AcDbLine
 10
3.267887784147106
 20
4.282098578530955
 30
-0.1875
 11
3.254612410072819
 21
2.741482384008754
 31
-0.1875
  0
LINE
  5
218
330
1E
100
AcDbEntity
  8
HIDDEN
100
AcDbLine
 10
3.296637784147108
 20
4.250848578530955
 30
-0.1875
 11
3.551637784147111
 21
4.250848578530955
 31
-0.1875
  0
LINE
  5
219
330
1E
100
AcDbEntity
  8
HIDDEN
100
AcDbLine
 10
3.551637784147111
 20
4.282098578530955
 30
-0.1875
 11
3.551637784147111
 21
4.250848578530955
 31
-0.1875
  0
LINE
  5
21A
330
1E
100
AcDbEntity
  8
HIDDEN
100
AcDbLine
 10
3.296637784147108
 20
4.282098578530955
 30
-0.1875
 11
3.296637784147108
 21
4.250848578530955
 31
-0.1875
  0
LINE
  5
21B
330
1E
100
AcDbEntity
  8
HIDDEN
100
AcDbLine
 10
3.330387784147106
 20
4.001098578530955
 30
-0.1875
 11
3.517887784147106
 21
4.001098578530958
 31
-0.1875
  0
LINE
  5
21C
330
1E
100
AcDbEntity
  8
HIDDEN
100
AcDbLine
 10
3.364137784147107
 20
3.844598578530955
 30
-0.1875
 11
3.484137784147108
 21
3.844598578530955
 31
-0.1875
  0
LINE
  5
21D
330
1E
100
AcDbEntity
  8
HIDDEN
100
AcDbLine
 10
3.484137784147108
 20
4.001098578530958
 30
-0.1875
 11
3.484137784147108
 21
3.844598578530955
 31
-0.1875
  0
LINE
  5
21E
330
1E
100
AcDbEntity
  8
HIDDEN
100
AcDbLine
 10
3.364137784147111
 20
4.001098578530958
 30
-0.1875
 11
3.364137784147107
 21
3.844598578530955
 31
-0.1875
  0
LINE
  5
21F
330
1E
100
AcDbEntity
  8
HIDDEN
100
AcDbLine
 10
3.517887784147106
 20
4.250848578530955
 30
-0.1875
 11
3.517887784147106
 21
4.001098578530958
 31
-0.1875
  0
LINE
  5
220
330
1E
100
AcDbEntity
  8
HIDDEN
100
AcDbLine
 10
3.330387784147106
 20
4.250848578530955
 30
-0.1875
 11
3.330387784147106
 21
4.001098578530955
 31
-0.1875
  0
LINE
  5
221
330
1E
100
AcDbEntity
  8
HIDDEN
100
AcDbLine
 10
7.198068280794037
 20
4.282098578530955
 30
-0.1875
 11
7.598435698464921
 21
4.282098578530955
 31
-0.1875
  0
LINE
  5
222
330
1E
100
AcDbEntity
  8
HIDDEN
100
AcDbLine
 10
7.198068280794037
 20
4.282098578530955
 30
-0.1875
 11
7.184738640222889
 21
2.735098578530955
 31
-0.1875
  0
LINE
  5
223
330
1E
100
AcDbEntity
  8
HIDDEN
100
AcDbLine
 10
7.510568280794037
 20
4.282098578530955
 30
-0.1875
 11
7.523837238181982
 21
2.743112760746605
 31
-0.1875
  0
LINE
  5
224
330
1E
100
AcDbEntity
  8
HIDDEN
100
AcDbLine
 10
7.481818280794033
 20
4.282098578530955
 30
-0.1875
 11
7.481818280794033
 21
4.250848578530955
 31
-0.1875
  0
LINE
  5
225
330
1E
100
AcDbEntity
  8
HIDDEN
100
AcDbLine
 10
7.226818280794038
 20
4.282098578530955
 30
-0.1875
 11
7.226818280794038
 21
4.250848578530955
 31
-0.1875
  0
LINE
  5
226
330
1E
100
AcDbEntity
  8
HIDDEN
100
AcDbLine
 10
7.448068280794039
 20
4.250848578530955
 30
-0.1875
 11
7.448068280794037
 21
4.001098578530958
 31
-0.1875
  0
LINE
  5
227
330
1E
100
AcDbEntity
  8
HIDDEN
100
AcDbLine
 10
7.260568280794036
 20
4.250848578530955
 30
-0.1875
 11
7.260568280794036
 21
4.001098578530955
 31
-0.1875
  0
LINE
  5
228
330
1E
100
AcDbEntity
  8
HIDDEN
100
AcDbLine
 10
7.414318280794038
 20
4.001098578530958
 30
-0.1875
 11
7.414318280794038
 21
3.844598578530955
 31
-0.1875
  0
LINE
  5
229
330
1E
100
AcDbEntity
  8
HIDDEN
100
AcDbLine
 10
7.294318280794037
 20
4.001098578530955
 30
-0.1875
 11
7.294318280794037
 21
3.844598578530955
 31
-0.1875
  0
LINE
  5
22A
330
1E
100
AcDbEntity
  8
HIDDEN
100
AcDbLine
 10
7.294318280794037
 20
3.844598578530955
 30
-0.1875
 11
7.414318280794038
 21
3.844598578530955
 31
-0.1875
  0
LINE
  5
22B
330
1E
100
AcDbEntity
  8
HIDDEN
100
AcDbLine
 10
7.226818280794038
 20
4.250848578530955
 30
-0.1875
 11
7.481818280794033
 21
4.250848578530955
 31
-0.1875
  0
LINE
  5
22C
330
1E
100
AcDbEntity
  8
HIDDEN
100
AcDbLine
 10
7.260568280794036
 20
4.001098578530955
 30
-0.1875
 11
7.448068280794037
 21
4.001098578530958
 31
-0.1875
  0
ARC
  5
22D
330
1E
100
AcDbEntity
  8
HIDDEN
100
AcDbCircle
 10
14.38073110232692
 20
11.61756658626687
 30
-0.1875
 40
0.156
100
AcDbArc
 50
143.8710725280606
 51
216.1289274719393
  0
ARC
  5
22E
330
1E
100
AcDbEntity
  8
HIDDEN
100
AcDbCircle
 10
14.38073110232692
 20
9.203402428307594
 30
-0.1875
 40
0.156
100
AcDbArc
 50
143.8710725280606
 51
216.1289274719393
  0
LINE
  5
22F
330
1E
100
AcDbEntity
  8
HIDDEN
100
AcDbLine
 10
7.059957210235612
 20
2.985098578530955
 30
0.1875
 11
7.059957210235612
 21
2.735098578530955
 31
0.1875
  0
LINE
  5
230
330
1E
100
AcDbEntity
  8
HIDDEN
100
AcDbLine
 10
6.969957210235612
 20
2.985098578530955
 30
0.1875
 11
6.969957210235612
 21
2.735098578530955
 31
0.1875
  0
LINE
  5
231
330
1E
100
AcDbEntity
  8
HIDDEN
100
AcDbLine
 10
3.809349824930812
 20
2.985098578530955
 30
0.1875
 11
3.809349824930812
 21
2.735098578530955
 31
0.1875
  0
LINE
  5
232
330
1E
100
AcDbEntity
  8
HIDDEN
100
AcDbLine
 10
3.719349824930811
 20
2.985098578530955
 30
0.1875
 11
3.719349824930811
 21
2.735098578530955
 31
0.1875
  0
LINE
  5
233
330
1E
100
AcDbEntity
  8
HIDDEN
100
AcDbLine
 10
13.90473110232692
 20
9.580241515844509
 30
0.1875
 11
14.15473110232692
 21
9.580241515844509
 31
0.1875
  0
LINE
  5
234
330
1E
100
AcDbEntity
  8
HIDDEN
100
AcDbLine
 10
13.90473110232692
 20
9.490241515844509
 30
0.1875
 11
14.15473110232692
 21
9.490241515844513
 31
0.1875
  0
LINE
  5
235
330
1E
100
AcDbEntity
  8
HIDDEN
100
AcDbLine
 10
13.90473110232693
 20
11.32914657295934
 30
0.1875
 11
14.15473110232692
 21
11.32914657295934
 31
0.1875
  0
LINE
  5
236
330
1E
100
AcDbEntity
  8
HIDDEN
100
AcDbLine
 10
13.90473110232693
 20
11.23914657295934
 30
0.1875
 11
14.15473110232692
 21
11.23914657295934
 31
0.1875
  0
ARC
  5
237
330
1E
100
AcDbEntity
  8
HIDDEN
100
AcDbCircle
 10
14.27838530584666
 20
10.4101574856229
 30
-0.1875
 40
0.1875
100
AcDbArc
 50
131.2609191768231
 51
228.7390808231767
  0
ARC
  5
238
330
1E
100
AcDbEntity
  8
HIDDEN
100
AcDbCircle
 10
5.392266784871827
 20
2.607235158621914
 30
-0.1875
 40
0.1875
100
AcDbArc
 50
44.20366905855011
 51
135.7963309414497
  0
LINE
  5
239
330
1E
100
AcDbEntity
  8
OBJECT
100
AcDbLine
 10
12.48273110232692
 20
11.96370265453607
 30
-0.1875
 11
12.48273110232693
 21
8.85970265453608
 31
-0.1875
  0
LINE
  5
23A
330
1E
100
AcDbEntity
  8
OBJECT
100
AcDbLine
 10
12.48273110232693
 20
8.85970265453608
 30
-0.1875
 11
14.12716796092938
 21
8.823376894339869
 31
-0.1875
  0
LINE
  5
23B
330
1E
100
AcDbEntity
  8
OBJECT
100
AcDbLine
 10
12.48273110232692
 20
11.96370265453607
 30
-0.1875
 11
14.12973110232693
 21
12.01006658626687
 31
0.0
  0
LINE
  5
23C
330
1E
100
AcDbEntity
  8
HIDDEN
100
AcDbLine
 10
12.48273110232692
 20
11.86370265453607
 30
-0.1875
 11
14.15618817555919
 21
11.85100924398772
 31
-0.1875
  0
LINE
  5
23D
330
1E
100
AcDbEntity
  8
HIDDEN
100
AcDbLine
 10
12.48273110232693
 20
8.959702654536084
 30
-0.1875
 11
14.15490727844881
 21
8.974255076279373
 31
-0.1875
  0
DIMENSION
  5
23E
330
1E
100
AcDbEntity
  8
DIM
100
AcDbDimension
  2
*D30
 10
14.25473110232692
 20
12.45556643573669
 30
-0.1875
 11
13.36873110232692
 21
12.45556643573669
 31
-0.1875
 70
    32
  1
U
  3
23NSTD
100
AcDbAlignedDimension
 13
12.48273110232692
 23
11.96370265453607
 33
-0.1875
 14
14.25473110232692
 24
11.88506658626687
 34
-0.1875
100
AcDbRotatedDimension
  0
LINE
  5
23F
330
1E
100
AcDbEntity
  8
OBJECT
100
AcDbLine
 10
3.090713320718961
 20
4.407098578530955
 30
-0.1875
 11
7.69471332071896
 21
4.407098578530955
 31
-0.1875
  0
LINE
  5
240
330
1E
100
AcDbEntity
  8
OBJECT
100
AcDbLine
 10
2.630637784147103
 20
2.635098578530953
 30
-0.1875
 11
8.147818280794027
 21
2.635098578530953
 31
-0.1875
  0
LINE
  5
241
330
1E
100
AcDbEntity
  8
HIDDEN
100
AcDbLine
 10
3.63934982493081
 20
2.985098578530955
 30
0.1875
 11
3.88934982493081
 21
2.985098578530955
 31
0.1875
  0
LINE
  5
242
330
1E
100
AcDbEntity
  8
OBJECT
100
AcDbLine
 10
2.505637784147101
 20
2.760098578530953
 30
-0.1875
 11
8.272818280793973
 21
2.760098578530953
 31
-0.1875
  0
LINE
  5
243
330
1E
100
AcDbEntity
  8
HIDDEN
100
AcDbLine
 10
3.287518287841301
 20
2.735098578530955
 30
-0.1875
 11
7.487145700283317
 21
2.735098578530955
 31
-0.1875
  0
LINE
  5
244
330
1E
100
AcDbEntity
  8
HIDDEN
100
AcDbLine
 10
6.889957210235612
 20
2.985098578530955
 30
0.1875
 11
7.139957210235612
 21
2.985098578530955
 31
0.1875
  0
ARC
  5
245
330
1E
100
AcDbEntity
  8
HIDDEN
100
AcDbCircle
 10
3.287518287841301
 20
2.823098578530959
 30
-0.1875
 40
0.088
100
AcDbArc
 50
180.4644764612267
 51
270.0
  0
ARC
  5
246
330
1E
100
AcDbEntity
  8
HIDDEN
100
AcDbCircle
 10
7.487145700283317
 20
2.823098578530959
 30
-0.1875
 40
0.088
100
AcDbArc
 50
270.0
 51
359.0859056212374
  0
DIMENSION
  5
247
330
1E
100
AcDbEntity
  8
DIM
100
AcDbDimension
  2
*D26
 10
11.9915868171596
 20
8.859702654536082
 30
0.0
 11
11.9915868171596
 21
10.41170265453608
 31
0.0
 70
    32
  1
K
  3
23NSTD
100
AcDbAlignedDimension
 13
12.48273110232692
 23
11.96370265453607
 33
-0.1875
 14
12.48273110232693
 24
8.85970265453608
 34
-0.1875
 50
90.0
100
AcDbRotatedDimension
  0
DIMENSION
  5
248
330
1E
100
AcDbEntity
  8
DIM
100
AcDbDimension
  2
*D25
 10
14.72495660902696
 20
12.01006658626687
 30
0.0
 11
14.72495660902695
 21
10.41670859953426
 31
0.0
 70
    32
  1
J
  3
23NSTD
100
AcDbAlignedDimension
 13
14.12973110232693
 23
8.823350612801643
 33
-0.1875
 14
14.12973110232693
 24
12.01006658626687
 34
-0.1875
 50
90.0
100
AcDbRotatedDimension
  0
DIMENSION
  5
249
330
1E
100
AcDbEntity
  8
DIM
100
AcDbDimension
  2
*D9
 10
7.694713320718959
 20
5.700791627088436
 30
0.0
 11
5.392713320718959
 21
5.700791627088436
 31
0.0
 70
    32
  1
D
  3
23NSTD
100
AcDbAlignedDimension
 13
3.090713320718958
 23
4.407098578530956
 33
-0.1875
 14
7.694713320718959
 24
4.407098578530956
 34
-0.1875
100
AcDbRotatedDimension
  0
DIMENSION
  5
24A
330
1E
100
AcDbEntity
  8
DIM
100
AcDbDimension
  2
*D8
 10
7.741344477064947
 20
6.790812037332003
 30
0.0
 11
5.392427268892063
 21
6.790812037332003
 31
0.0
 70
    32
  1
C
  3
23NSTD
100
AcDbAlignedDimension
 13
3.04351006071918
 23
2.763687440114326
 33
-0.1875
 14
7.741344477064947
 24
2.763643884421211
 34
-0.1875
100
AcDbRotatedDimension
  0
TEXT
  5
24D
330
1E
100
AcDbEntity
  8
TEXT
100
AcDbText
 10
9.097887361775196
 20
7.1684961134632
 30
0.0
 40
0.187
  1
%%UNOTE:%%U ALL DIMENSIONS HAVE %%P0.010 TOLERANCE
 41
0.75
  7
TXT
100
AcDbText
  0
DIMENSION
  5
24E
330
1E
100
AcDbEntity
  8
DIM
100
AcDbDimension
  2
*D28
 10
8.865308559820936
 20
2.760098578530954
 30
0.0
 11
9.516402309820936
 21
3.300098578530956
 31
0.0
 70
    32
  3
23NSTD
100
AcDbAlignedDimension
 13
8.147818280794027
 23
2.635098578530954
 33
-0.1875
 14
8.272818280794027
 24
2.760098578530954
 34
-0.1875
 50
90.0
100
AcDbRotatedDimension
  0
ARC
  5
24F
330
1E
100
AcDbEntity
  8
HIDDEN
100
AcDbCircle
 10
3.424137784147106
 20
2.509098578530956
 30
-0.1875
 40
0.156
100
AcDbArc
 50
53.87107252806064
 51
126.1289274719393
  0
ARC
  5
250
330
1E
100
AcDbEntity
  8
HIDDEN
100
AcDbCircle
 10
7.354318280794034
 20
2.509098578530956
 30
-0.1875
 40
0.156
100
AcDbArc
 50
53.87107252806064
 51
126.1289274719393
  0
TEXT
  5
251
330
1E
100
AcDbEntity
  8
0
  6
CONTINUOUS
 62
     1
100
AcDbText
 10
22.7592786986302
 20
28.37884056552097
 30
0.0
 40
0.125
  1

  7
CITYBLUEPRINT
100
AcDbText
  0
TEXT
  5
252
330
1E
100
AcDbEntity
  8
0
  6
CONTINUOUS
 62
     1
100
AcDbText
 10
22.72778254775138
 20
28.14290092771975
 30
0.0
 40
0.125
  1

  7
CITYBLUEPRINT
100
AcDbText
  0
TEXT
  5
253
330
1E
100
AcDbEntity
  8
0
  6
CONTINUOUS
 62
     1
100
AcDbText
 10
15.89311535639982
 20
28.30019399951314
 30
0.0
 40
0.1875
  1

  7
CITYBLUEPRINT
100
AcDbText
  0
TEXT
  5
254
330
1E
100
AcDbEntity
  8
0
  6
CONTINUOUS
 62
     1
100
AcDbText
 10
17.98050191161518
 20
35.48591325150376
 30
0.0
 40
0.1875
  1

  7
CITYBLUEPRINT
100
AcDbText
  0
TEXT
  5
255
330
1E
100
AcDbEntity
  8
0
  6
CONTINUOUS
 62
     7
100
AcDbText
 10
22.31748878367495
 20
12.27456486485506
 30
0.0
 40
0.125
  1

 50
90.0
  7
CITYBLUEPRINT
100
AcDbText
  0
TEXT
  5
256
330
1E
100
AcDbEntity
  8
0
  6
CONTINUOUS
 62
     1
100
AcDbText
 10
19.17845410090357
 20
15.4091803877171
 30
0.0
 40
0.125
  1

  7
CITYBLUEPRINT
100
AcDbText
  0
TEXT
  5
257
330
1E
100
AcDbEntity
  8
0
  6
CONTINUOUS
 62
     1
100
AcDbText
 10
19.14695795002474
 20
15.17324074991588
 30
0.0
 40
0.125
  1

  7
CITYBLUEPRINT
100
AcDbText
  0
TEXT
  5
258
330
1E
100
AcDbEntity
  8
0
  6
CONTINUOUS
 62
     1
100
AcDbText
 10
12.31229075867319
 20
15.33053382170928
 30
0.0
 40
0.1875
  1

  7
CITYBLUEPRINT
100
AcDbText
  0
LINE
  5
259
330
1E
100
AcDbEntity
  8
OBJECT
  6
CONTINUOUS
 62
     7
100
AcDbLine
 10
9.495964751132598
 20
18.74399906737285
 30
-0.375
 11
9.495964751132598
 21
15.63999906737285
 31
-0.375
  0
LINE
  5
25A
330
1E
100
AcDbEntity
  8
OBJECT
  6
CONTINUOUS
 62
     7
100
AcDbLine
 10
9.395964751132595
 20
18.67399906737285
 30
-0.375
 11
9.395964751132595
 21
15.70999906737285
 31
-0.375
  0
LINE
  5
25B
330
1E
100
AcDbEntity
  8
OBJECT
  6
CONTINUOUS
 62
     7
100
AcDbLine
 10
9.495964751132598
 20
18.40922458023374
 30
-0.375
 11
9.558464751132595
 21
18.40922458023374
 31
-0.375
  0
LINE
  5
25C
330
1E
100
AcDbEntity
  8
OBJECT
  6
CONTINUOUS
 62
     7
100
AcDbLine
 10
9.495964751132598
 20
15.974773554512
 30
-0.375
 11
9.558464751132598
 21
15.974773554512
 31
-0.375
  0
LINE
  5
25D
330
1E
100
AcDbEntity
  8
OBJECT
  6
CONTINUOUS
 62
     7
100
AcDbLine
 10
9.558464751132595
 20
18.40922458023374
 30
-0.375
 11
9.558464751132595
 21
15.974773554512
 31
-0.375
  0
LINE
  5
25E
330
1E
100
AcDbEntity
  8
OBJECT
  6
CONTINUOUS
 62
     7
100
AcDbLine
 10
9.495964751132598
 20
18.64402458023374
 30
-0.375
 11
9.558464751132598
 21
18.64402458023374
 31
-0.375
  0
LINE
  5
25F
330
1E
100
AcDbEntity
  8
OBJECT
  6
CONTINUOUS
 62
     7
100
AcDbLine
 10
9.495964751132598
 20
15.73997355451201
 30
-0.375
 11
9.558464751132598
 21
15.73997355451201
 31
-0.375
  0
LINE
  5
260
330
1E
100
AcDbEntity
  8
OBJECT
  6
CONTINUOUS
 62
     7
100
AcDbLine
 10
9.495964751132598
 20
18.58152458023374
 30
-0.375
 11
9.558464751132598
 21
18.58152458023374
 31
-0.375
  0
LINE
  5
261
330
1E
100
AcDbEntity
  8
OBJECT
  6
CONTINUOUS
 62
     7
100
AcDbLine
 10
9.620964751132598
 20
18.56547458023374
 30
-0.375
 11
9.620964751132598
 21
18.25297458023373
 31
-0.375
  0
LINE
  5
262
330
1E
100
AcDbEntity
  8
OBJECT
  6
CONTINUOUS
 62
     7
100
AcDbLine
 10
9.495964751132598
 20
18.56547458023374
 30
-0.375
 11
9.620964751132598
 21
18.56547458023374
 31
-0.375
  0
LINE
  5
263
330
1E
100
AcDbEntity
  8
HIDDEN
  6
HIDDEN
 62
     6
100
AcDbLine
 10
9.495964751132598
 20
18.47172458023374
 30
-0.375
 11
9.620964751132598
 21
18.47172458023374
 31
-0.375
  0
LINE
  5
264
330
1E
100
AcDbEntity
  8
HIDDEN
  6
HIDDEN
 62
     6
100
AcDbLine
 10
9.495964751132598
 20
18.34672458023373
 30
-0.375
 11
9.620964751132598
 21
18.34672458023373
 31
-0.375
  0
LINE
  5
265
330
1E
100
AcDbEntity
  8
HIDDEN
  6
HIDDEN
 62
     6
100
AcDbLine
 10
9.395964751132595
 20
18.52422458023374
 30
-0.375
 11
9.450327197397252
 21
18.52422458023374
 31
-0.375
  0
LINE
  5
266
330
1E
100
AcDbEntity
  8
HIDDEN
  6
HIDDEN
 62
     6
100
AcDbLine
 10
9.395964751132595
 20
18.29422458023374
 30
-0.375
 11
9.450327197397243
 21
18.29422458023374
 31
-0.375
  0
LINE
  5
267
330
1E
100
AcDbEntity
  8
OBJECT
  6
CONTINUOUS
 62
     7
100
AcDbLine
 10
9.558464751132598
 20
18.64402458023374
 30
-0.375
 11
9.558464751132598
 21
18.58152458023374
 31
-0.375
  0
LINE
  5
268
330
1E
100
AcDbEntity
  8
HIDDEN
  6
HIDDEN
 62
     6
100
AcDbLine
 10
9.450327197397252
 20
18.52422458023374
 30
-0.375
 11
9.495964751132598
 21
18.47172458023374
 31
-0.375
  0
LINE
  5
269
330
1E
100
AcDbEntity
  8
HIDDEN
  6
HIDDEN
 62
     6
100
AcDbLine
 10
9.450327197397243
 20
18.29422458023374
 30
-0.375
 11
9.495964751132598
 21
18.34672458023373
 31
-0.375
  0
LINE
  5
26A
330
1E
100
AcDbEntity
  8
HIDDEN
  6
HIDDEN
 62
     6
100
AcDbLine
 10
9.450327197397243
 20
18.52422458023374
 30
-0.375
 11
9.450327197397243
 21
18.29422458023374
 31
-0.375
  0
LINE
  5
26B
330
1E
100
AcDbEntity
  8
OBJECT
  6
CONTINUOUS
 62
     7
100
AcDbLine
 10
9.620964751132598
 20
18.25297458023373
 30
-0.375
 11
9.558464751132595
 21
18.25297458023373
 31
-0.375
  0
LINE
  5
26C
330
1E
100
AcDbEntity
  8
OBJECT
  6
CONTINUOUS
 62
     7
100
AcDbLine
 10
9.495964751132598
 20
15.802473554512
 30
-0.375
 11
9.558464751132598
 21
15.802473554512
 31
-0.375
  0
LINE
  5
26D
330
1E
100
AcDbEntity
  8
HIDDEN
  6
HIDDEN
 62
     6
100
AcDbLine
 10
9.495964751132598
 20
16.03727355451201
 30
-0.375
 11
9.620964751132595
 21
16.03727355451201
 31
-0.375
  0
LINE
  5
26E
330
1E
100
AcDbEntity
  8
HIDDEN
  6
HIDDEN
 62
     6
100
AcDbLine
 10
9.495964751132598
 20
15.912273554512
 30
-0.375
 11
9.620964751132595
 21
15.912273554512
 31
-0.375
  0
LINE
  5
26F
330
1E
100
AcDbEntity
  8
HIDDEN
  6
HIDDEN
 62
     6
100
AcDbLine
 10
9.395964751132595
 20
16.08977355451201
 30
-0.375
 11
9.450364751132598
 21
16.08977355451201
 31
-0.375
  0
LINE
  5
270
330
1E
100
AcDbEntity
  8
HIDDEN
  6
HIDDEN
 62
     6
100
AcDbLine
 10
9.395964751132595
 20
15.859773554512
 30
-0.375
 11
9.450364751132598
 21
15.859773554512
 31
-0.375
  0
LINE
  5
271
330
1E
100
AcDbEntity
  8
OBJECT
  6
CONTINUOUS
 62
     7
100
AcDbLine
 10
9.558464751132598
 20
16.131023554512
 30
-0.375
 11
9.620964751132595
 21
16.131023554512
 31
-0.375
  0
LINE
  5
272
330
1E
100
AcDbEntity
  8
OBJECT
  6
CONTINUOUS
 62
     7
100
AcDbLine
 10
9.495964751132598
 20
15.818523554512
 30
-0.375
 11
9.620964751132595
 21
15.818523554512
 31
-0.375
  0
LINE
  5
273
330
1E
100
AcDbEntity
  8
OBJECT
  6
CONTINUOUS
 62
     7
100
AcDbLine
 10
9.620964751132595
 20
16.131023554512
 30
-0.375
 11
9.620964751132595
 21
15.818523554512
 31
-0.375
  0
LINE
  5
274
330
1E
100
AcDbEntity
  8
HIDDEN
  6
HIDDEN
 62
     6
100
AcDbLine
 10
9.450364751132598
 20
16.08977355451201
 30
-0.375
 11
9.450364751132598
 21
15.859773554512
 31
-0.375
  0
LINE
  5
275
330
1E
100
AcDbEntity
  8
HIDDEN
  6
HIDDEN
 62
     6
100
AcDbLine
 10
9.450364751132598
 20
16.08977355451201
 30
-0.375
 11
9.495964751132598
 21
16.03727355451201
 31
-0.375
  0
LINE
  5
276
330
1E
100
AcDbEntity
  8
HIDDEN
  6
HIDDEN
 62
     6
100
AcDbLine
 10
9.450364751132598
 20
15.859773554512
 30
-0.375
 11
9.495964751132598
 21
15.912273554512
 31
-0.375
  0
LINE
  5
277
330
1E
100
AcDbEntity
  8
OBJECT
  6
CONTINUOUS
 62
     7
100
AcDbLine
 10
9.558464751132598
 20
15.802473554512
 30
-0.375
 11
9.558464751132598
 21
15.73997355451201
 31
-0.375
  0
LINE
  5
278
330
1E
100
AcDbEntity
  8
OBJECT
100
AcDbLine
 10
3.582023859684973
 20
14.49862151727476
 30
-0.1875
 11
3.582023859684973
 21
14.43612151727476
 31
-0.1875
  0
LINE
  5
279
330
1E
100
AcDbEntity
  8
HIDDEN
100
AcDbLine
 10
3.488273859684973
 20
14.56112151727476
 30
-0.1875
 11
3.488273859684973
 21
14.43612151727476
 31
-0.1875
  0
LINE
  5
27A
330
1E
100
AcDbEntity
  8
OBJECT
100
AcDbLine
 10
3.269523859684973
 20
14.56112151727476
 30
-0.1875
 11
3.269523859684973
 21
14.43612151727476
 31
-0.1875
  0
LINE
  5
27B
330
1E
100
AcDbEntity
  8
HIDDEN
100
AcDbLine
 10
3.363273859684973
 20
14.56112151727476
 30
-0.1875
 11
3.363273859684973
 21
14.43612151727476
 31
-0.1875
  0
LINE
  5
27C
330
1E
100
AcDbEntity
  8
HIDDEN
100
AcDbLine
 10
3.540773859684975
 20
14.60672151727476
 30
-0.1875
 11
3.310773859684973
 21
14.60672151727476
 31
-0.1875
  0
LINE
  5
27D
330
1E
100
AcDbEntity
  8
HIDDEN
100
AcDbLine
 10
3.310773859684973
 20
14.66112151727476
 30
-0.1875
 11
3.310773859684973
 21
14.60672151727476
 31
-0.1875
  0
LINE
  5
27E
330
1E
100
AcDbEntity
  8
OBJECT
100
AcDbLine
 10
3.253473859684973
 20
14.56112151727476
 30
-0.1875
 11
3.253473859684973
 21
14.49862151727476
 31
-0.1875
  0
LINE
  5
27F
330
1E
100
AcDbEntity
  8
HIDDEN
100
AcDbLine
 10
3.310773859684973
 20
14.60672151727476
 30
-0.1875
 11
3.363273859684973
 21
14.56112151727476
 31
-0.1875
  0
LINE
  5
280
330
1E
100
AcDbEntity
  8
OBJECT
100
AcDbLine
 10
3.190973859684973
 20
14.56112151727476
 30
-0.1875
 11
3.190973859684973
 21
14.49862151727476
 31
-0.1875
  0
LINE
  5
281
330
1E
100
AcDbEntity
  8
OBJECT
100
AcDbLine
 10
3.253473859684973
 20
14.49862151727476
 30
-0.1875
 11
3.190973859684973
 21
14.49862151727476
 31
-0.1875
  0
LINE
  5
282
330
1E
100
AcDbEntity
  8
HIDDEN
100
AcDbLine
 10
3.540773859684975
 20
14.66112151727476
 30
-0.1875
 11
3.540773859684975
 21
14.60672151727476
 31
-0.1875
  0
LINE
  5
283
330
1E
100
AcDbEntity
  8
OBJECT
100
AcDbLine
 10
3.425773859684973
 20
14.56112151727476
 30
-0.1875
 11
3.425773859684976
 21
14.49862151727476
 31
-0.1875
  0
LINE
  5
284
330
1E
100
AcDbEntity
  8
HIDDEN
100
AcDbLine
 10
3.540773859684975
 20
14.60672151727476
 30
-0.1875
 11
3.488273859684973
 21
14.56112151727476
 31
-0.1875
  0
LINE
  5
285
330
1E
100
AcDbEntity
  8
OBJECT
100
AcDbLine
 10
3.582023859684973
 20
14.43612151727476
 30
-0.1875
 11
3.269523859684973
 21
14.43612151727476
 31
-0.1875
  0
LINE
  5
286
330
1E
100
AcDbEntity
  8
OBJECT
100
AcDbLine
 10
7.516474885406713
 20
14.43612151727476
 30
-0.1875
 11
7.203974885406713
 21
14.43612151727476
 31
-0.1875
  0
LINE
  5
287
330
1E
100
AcDbEntity
  8
HIDDEN
100
AcDbLine
 10
7.422724885406713
 20
14.56112151727476
 30
-0.1875
 11
7.422724885406713
 21
14.43612151727476
 31
-0.1875
  0
LINE
  5
288
330
1E
100
AcDbEntity
  8
HIDDEN
100
AcDbLine
 10
7.297724885406713
 20
14.56112151727476
 30
-0.1875
 11
7.297724885406713
 21
14.43612151727476
 31
-0.1875
  0
LINE
  5
289
330
1E
100
AcDbEntity
  8
OBJECT
100
AcDbLine
 10
7.203974885406713
 20
14.43612151727476
 30
-0.1875
 11
7.203974885406713
 21
14.49862151727476
 31
-0.1875
  0
LINE
  5
28A
330
1E
100
AcDbEntity
  8
HIDDEN
100
AcDbLine
 10
7.475224885406706
 20
14.60675907101012
 30
-0.1875
 11
7.24522488540671
 21
14.60675907101011
 31
-0.1875
  0
LINE
  5
28B
330
1E
100
AcDbEntity
  8
HIDDEN
100
AcDbLine
 10
7.24522488540671
 20
14.60675907101011
 30
-0.1875
 11
7.297724885406713
 21
14.56112151727476
 31
-0.1875
  0
LINE
  5
28C
330
1E
100
AcDbEntity
  8
HIDDEN
100
AcDbLine
 10
7.24522488540671
 20
14.66112151727476
 30
-0.1875
 11
7.24522488540671
 21
14.60675907101011
 31
-0.1875
  0
LINE
  5
28D
330
1E
100
AcDbEntity
  8
HIDDEN
100
AcDbLine
 10
7.475224885406713
 20
14.66112151727476
 30
-0.1875
 11
7.475224885406706
 21
14.60675907101011
 31
-0.1875
  0
LINE
  5
28E
330
1E
100
AcDbEntity
  8
OBJECT
100
AcDbLine
 10
7.360224885406713
 20
14.56112151727476
 30
-0.1875
 11
7.360224885406713
 21
14.49862151727476
 31
-0.1875
  0
LINE
  5
28F
330
1E
100
AcDbEntity
  8
HIDDEN
100
AcDbLine
 10
7.475224885406706
 20
14.60675907101011
 30
-0.1875
 11
7.422724885406713
 21
14.56112151727476
 31
-0.1875
  0
LINE
  5
290
330
1E
100
AcDbEntity
  8
OBJECT
100
AcDbLine
 10
7.516474885406713
 20
14.56112151727476
 30
-0.1875
 11
7.516474885406713
 21
14.43612151727476
 31
-0.1875
  0
LINE
  5
291
330
1E
100
AcDbEntity
  8
OBJECT
100
AcDbLine
 10
7.595024885406711
 20
14.56112151727476
 30
-0.1875
 11
7.595024885406711
 21
14.49862151727476
 31
-0.1875
  0
LINE
  5
292
330
1E
100
AcDbEntity
  8
OBJECT
100
AcDbLine
 10
7.532524885406711
 20
14.56112151727476
 30
-0.1875
 11
7.532524885406711
 21
14.49862151727476
 31
-0.1875
  0
LINE
  5
293
330
1E
100
AcDbEntity
  8
OBJECT
100
AcDbLine
 10
7.595024885406711
 20
14.49862151727476
 30
-0.1875
 11
7.532524885406711
 21
14.49862151727476
 31
-0.1875
  0
LINE
  5
294
330
1E
100
AcDbEntity
  8
OBJECT
  6
CONTINUOUS
 62
     7
100
AcDbLine
 10
9.464714751132598
 20
18.74399906737285
 30
-0.375
 11
9.464714751132598
 21
15.64001022897711
 31
-0.375
  0
LINE
  5
295
330
1E
100
AcDbEntity
  8
OBJECT
  6
CONTINUOUS
 62
     7
100
AcDbLine
 10
9.495964751132598
 20
18.74399906737285
 30
-0.375
 11
9.465964751132595
 21
18.74399906737285
 31
-0.375
  0
ARC
  5
296
330
1E
100
AcDbEntity
  8
OBJECT
  6
CONTINUOUS
 62
     7
100
AcDbCircle
 10
9.465964751132595
 20
18.67399906737285
 30
-0.375
 40
0.07
100
AcDbArc
 50
90.0
 51
180.0
  0
LINE
  5
297
330
1E
100
AcDbEntity
  8
OBJECT
  6
CONTINUOUS
 62
     7
100
AcDbLine
 10
9.495964751132598
 20
15.63999906737285
 30
-0.375
 11
9.465964751132595
 21
15.63999906737285
 31
-0.375
  0
ARC
  5
298
330
1E
100
AcDbEntity
  8
OBJECT
  6
CONTINUOUS
 62
     7
100
AcDbCircle
 10
9.465964751132595
 20
15.70999906737285
 30
-0.375
 40
0.07
100
AcDbArc
 50
179.9999999999999
 51
270.0
  0
LINE
  5
299
330
1E
100
AcDbEntity
  8
OBJECT
100
AcDbLine
 10
7.694999372545818
 20
14.56112151727476
 30
-0.1875
 11
7.694999372545818
 21
14.59112151727476
 31
-0.1875
  0
ARC
  5
29A
330
1E
100
AcDbEntity
  8
OBJECT
100
AcDbCircle
 10
7.624999372545817
 20
14.59112151727476
 30
-0.1875
 40
0.07
100
AcDbArc
 50
0.0
 51
90.0
  0
LINE
  5
29B
330
1E
100
AcDbEntity
  8
OBJECT
100
AcDbLine
 10
3.09099937254582
 20
14.56112151727476
 30
-0.1875
 11
3.09099937254582
 21
14.59112151727476
 31
-0.1875
  0
ARC
  5
29C
330
1E
100
AcDbEntity
  8
OBJECT
100
AcDbCircle
 10
3.16099937254582
 20
14.59112151727476
 30
-0.1875
 40
0.07
100
AcDbArc
 50
90.0
 51
180.0
  0
LINE
  5
29D
330
1E
100
AcDbEntity
  8
OBJECT
100
AcDbLine
 10
7.360224885406713
 20
14.49862151727476
 30
-0.1875
 11
3.425773859684976
 21
14.49862151727476
 31
-0.1875
  0
LINE
  5
29E
330
1E
100
AcDbEntity
  8
OBJECT
100
AcDbLine
 10
7.694999372545818
 20
14.56112151727476
 30
-0.1875
 11
3.09099937254582
 21
14.56112151727476
 31
-0.1875
  0
LINE
  5
29F
330
1E
100
AcDbEntity
  8
OBJECT
100
AcDbLine
 10
7.694988210941533
 20
14.59237151727476
 30
-0.1875
 11
3.09099937254582
 21
14.59237151727476
 31
-0.1875
  0
LINE
  5
2A0
330
1E
100
AcDbEntity
  8
OBJECT
100
AcDbLine
 10
7.624999372545817
 20
14.66112151727476
 30
-0.1875
 11
3.16099937254582
 21
14.66112151727476
 31
-0.1875
  0
TEXT
  5
2A1
330
1E
100
AcDbEntity
  8
0
  6
CONTINUOUS
 62
     1
100
AcDbText
 10
14.39967731388856
 20
22.51625307369989
 30
0.0
 40
0.1875
  1

  7
CITYBLUEPRINT
100
AcDbText
  0
DIMENSION
  5
2A2
330
1E
100
AcDbEntity
  8
DIM
100
AcDbDimension
  2
*D29
 10
9.395964751132595
 20
15.0796335691178
 30
-0.1875
 11
8.498308501132594
 21
15.0796335691178
 31
-0.1875
 70
    32
  3
23NSTD
100
AcDbAlignedDimension
 13
9.495964751132598
 23
15.63999906737285
 33
-0.375
 14
9.395964751132595
 24
15.70999906737285
 34
-0.375
100
AcDbRotatedDimension
  0
TEXT
  5
2A3
330
1E
100
AcDbEntity
  8
0
  6
CONTINUOUS
 62
     7
100
AcDbText
 10
39.73723601783406
 20
21.6487096050277
 30
0.0
 40
0.125
  1

 50
90.0
  7
CITYBLUEPRINT
100
AcDbText
  0
DIMENSION
  5
2A4
330
1E
100
AcDbEntity
  8
DIM
100
AcDbDimension
  2
*D17
 10
6.385630599169589
 20
2.735098578530959
 30
0.0
 11
5.722818099169588
 21
2.19509857853096
 31
0.0
 70
    32
  3
23NSTD
100
AcDbAlignedDimension
 13
6.888303569042431
 23
2.985098578530959
 33
-0.1875
 14
6.475565344747956
 24
2.735098578530959
 34
-0.1875
 50
90.0
100
AcDbRotatedDimension
  0
DIMENSION
  5
2A5
330
1E
100
AcDbEntity
  8
DIM
100
AcDbDimension
  2
*D7
 10
7.180568280794037
 20
2.251098578530958
 30
-0.1875
 11
8.782090340082344
 21
5.246774155501056
 31
-0.1875
 70
    34
  1
1/2%%D DRAFT
  3
23NSTD
100
AcDb2LineAngularDimension
 13
7.180568280794037
 23
2.251098578530958
 33
-0.1875
 14
7.180568280794037
 24
4.057091402751646
 34
-0.1875
 15
7.198068280794038
 25
4.282098578530956
 35
-0.1875
 16
7.189323084280768
 26
5.299338067663016
 36
-0.1875
1001
ACAD
1000
DSTYLE
1002
{
1070
   271
1070
     0
1002
}
  0
DIMENSION
  5
2A6
330
1E
100
AcDbEntity
  8
DIM
100
AcDbDimension
  2
*D16
 10
3.043510060719182
 20
2.120661745994653
 30
-0.1875
 11
4.841176008052368
 21
6.381167282002916
 31
0.0
 70
    34
  1
1-1/2%%D DRAFT
  3
23NSTD
100
AcDb2LineAngularDimension
 13
3.090713320718961
 23
4.407098578530956
 33
-0.1875
 14
3.043510060719182
 24
2.763687440114326
 34
-0.1875
 15
3.043510060719182
 25
2.763687440114326
 35
-0.1875
 16
3.078676806865179
 26
6.437642152178352
 36
0.0
1001
ACAD
1000
DSTYLE
1002
{
1070
   271
1070
     0
1002
}
  0
TEXT
  5
2A7
330
1E
100
AcDbEntity
  8
0
  6
CONTINUOUS
 62
     7
100
AcDbText
 10
40.15596313810184
 20
22.93825919990421
 30
0.0
 40
0.125
  1

 50
90.0
  7
CITYBLUEPRINT
100
AcDbText
  0
CIRCLE
  5
2A8
330
1E
100
AcDbEntity
  8
OBJECT
100
AcDbCircle
 10
7.017006165730409
 20
11.28414657295934
 30
0.1875
 40
0.125
  0
CIRCLE
  5
2A9
330
1E
100
AcDbEntity
  8
OBJECT
100
AcDbCircle
 10
3.767935975174118
 20
11.28414657295934
 30
0.1875
 40
0.125
  0
CIRCLE
  5
2AA
330
1E
100
AcDbEntity
  8
OBJECT
100
AcDbCircle
 10
3.767835113179194
 20
9.535241515844511
 30
0.1875
 40
0.125
  0
CIRCLE
  5
2AB
330
1E
100
AcDbEntity
  8
OBJECT
100
AcDbCircle
 10
7.018442498483997
 20
9.535241515844511
 30
0.1875
 40
0.125
  0
CIRCLE
  5
2AC
330
1E
100
AcDbEntity
  8
OBJECT
100
AcDbCircle
 10
7.017006165730409
 20
11.28414657295934
 30
0.1875
 40
0.045
  0
CIRCLE
  5
2AD
330
1E
100
AcDbEntity
  8
OBJECT
100
AcDbCircle
 10
3.767935975174118
 20
11.28414657295934
 30
0.1875
 40
0.045
  0
CIRCLE
  5
2AE
330
1E
100
AcDbEntity
  8
OBJECT
100
AcDbCircle
 10
3.767835113179194
 20
9.535241515844511
 30
0.1875
 40
0.045
  0
CIRCLE
  5
2AF
330
1E
100
AcDbEntity
  8
OBJECT
100
AcDbCircle
 10
7.018442498483997
 20
9.535241515844511
 30
0.1875
 40
0.045
  0
CIRCLE
  5
2B0
330
1E
100
AcDbEntity
  8
OBJECT
100
AcDbCircle
 10
3.423213320718957
 20
11.62864657295934
 30
0.1875
 40
0.15625
  0
CIRCLE
  5
2B1
330
1E
100
AcDbEntity
  8
OBJECT
100
AcDbCircle
 10
3.423213320718957
 20
11.62864657295934
 30
0.1875
 40
0.06
  0
CIRCLE
  5
2B2
330
1E
100
AcDbEntity
  8
HIDDEN
100
AcDbCircle
 10
3.423213320718957
 20
11.62864657295934
 30
0.1875
 40
0.09375
  0
CIRCLE
  5
2B3
330
1E
100
AcDbEntity
  8
OBJECT
100
AcDbCircle
 10
3.423213320718957
 20
11.62864657295934
 30
0.1875
 40
0.1275
  0
CIRCLE
  5
2B4
330
1E
100
AcDbEntity
  8
OBJECT
100
AcDbCircle
 10
3.423213320718963
 20
9.190741515844511
 30
0.1875
 40
0.1275
  0
CIRCLE
  5
2B5
330
1E
100
AcDbEntity
  8
OBJECT
100
AcDbCircle
 10
3.423213320718963
 20
9.190741515844511
 30
0.1875
 40
0.15625
  0
CIRCLE
  5
2B6
330
1E
100
AcDbEntity
  8
HIDDEN
100
AcDbCircle
 10
3.423213320718963
 20
9.190741515844511
 30
0.1875
 40
0.09375
  0
CIRCLE
  5
2B7
330
1E
100
AcDbEntity
  8
OBJECT
100
AcDbCircle
 10
3.423213320718963
 20
9.190741515844511
 30
0.1875
 40
0.06
  0
CIRCLE
  5
2B8
330
1E
100
AcDbEntity
  8
OBJECT
100
AcDbCircle
 10
7.362213320718963
 20
11.62864657295934
 30
0.1875
 40
0.06
  0
CIRCLE
  5
2B9
330
1E
100
AcDbEntity
  8
HIDDEN
100
AcDbCircle
 10
7.362213320718963
 20
11.62864657295934
 30
0.1875
 40
0.09375
  0
CIRCLE
  5
2BA
330
1E
100
AcDbEntity
  8
OBJECT
100
AcDbCircle
 10
7.362213320718963
 20
11.62864657295934
 30
0.1875
 40
0.1275
  0
CIRCLE
  5
2BB
330
1E
100
AcDbEntity
  8
OBJECT
100
AcDbCircle
 10
7.362213320718954
 20
9.190741515844511
 30
0.1875
 40
0.15625
  0
CIRCLE
  5
2BC
330
1E
100
AcDbEntity
  8
OBJECT
100
AcDbCircle
 10
7.362213320718954
 20
9.190741515844511
 30
0.1875
 40
0.1275
  0
CIRCLE
  5
2BD
330
1E
100
AcDbEntity
  8
HIDDEN
100
AcDbCircle
 10
7.362213320718954
 20
9.190741515844511
 30
0.1875
 40
0.09375
  0
CIRCLE
  5
2BE
330
1E
100
AcDbEntity
  8
OBJECT
100
AcDbCircle
 10
7.362213320718954
 20
9.190741515844511
 30
0.1875
 40
0.06
  0
LINE
  5
2BF
330
1E
100
AcDbEntity
  8
OBJECT
100
AcDbLine
 10
3.337057232157981
 20
11.75899683534448
 30
0.0
 11
3.266493548590126
 21
11.82956051891234
 31
0.0
  0
LINE
  5
2C0
330
1E
100
AcDbEntity
  8
OBJECT
100
AcDbLine
 10
3.292863058333827
 20
11.71480266152032
 30
0.0
 11
3.224855456342693
 21
11.78281026351145
 31
0.0
  0
LINE
  5
2C1
330
1E
100
AcDbEntity
  8
OBJECT
100
AcDbLine
 10
3.337057232157988
 20
9.060391253459375
 30
0.0
 11
3.270510768858429
 21
8.993844790159812
 31
0.0
  0
LINE
  5
2C2
330
1E
100
AcDbEntity
  8
OBJECT
100
AcDbLine
 10
3.292863058333827
 20
9.104585427283534
 30
0.0
 11
3.224855456342686
 21
9.0365778252924
 31
0.0
  0
LINE
  5
2C3
330
1E
100
AcDbEntity
  8
OBJECT
100
AcDbLine
 10
7.492563583104098
 20
11.71480266152032
 30
0.0
 11
7.560571185095234
 21
11.78281026351145
 31
0.0
  0
LINE
  5
2C4
330
1E
100
AcDbEntity
  8
OBJECT
100
AcDbLine
 10
7.448369409279939
 20
11.75899683534448
 30
0.0
 11
7.518933092847802
 21
11.82956051891234
 31
0.0
  0
LINE
  5
2C5
330
1E
100
AcDbEntity
  8
OBJECT
100
AcDbLine
 10
7.492563583104093
 20
9.104585427283534
 30
0.0
 11
7.560571185095234
 21
9.0365778252924
 31
0.0
  0
LINE
  5
2C6
330
1E
100
AcDbEntity
  8
OBJECT
100
AcDbLine
 10
7.448369409279928
 20
9.060391253459375
 30
0.0
 11
7.514915872579486
 21
8.993844790159812
 31
0.0
  0
CIRCLE
  5
2C7
330
1E
100
AcDbEntity
  8
OBJECT
100
AcDbCircle
 10
5.392713320718959
 20
10.41170265453607
 30
0.0
 40
0.1344
  0
LINE
  5
2C8
330
1E
100
AcDbEntity
  8
OBJECT
100
AcDbLine
 10
8.280713320718961
 20
11.55700482060947
 30
0.1875
 11
8.280713320718961
 21
9.26640048846268
 31
0.1875
  0
LINE
  5
2C9
330
1E
100
AcDbEntity
  8
OBJECT
100
AcDbLine
 10
2.504713320718963
 20
11.55700482060947
 30
0.1875
 11
2.504713320718963
 21
9.266400488462688
 31
0.1875
  0
CIRCLE
  5
2CA
330
1E
100
AcDbEntity
  8
OBJECT
100
AcDbCircle
 10
7.362213320718963
 20
11.62864657295934
 30
0.0
 40
0.15625
  0
LINE
  5
2CB
330
1E
100
AcDbEntity
  8
OBJECT
100
AcDbLine
 10
7.73771332071896
 20
11.74370265453607
 30
0.0
 11
7.737713320718963
 21
9.079702654536079
 31
0.0
  0
LINE
  5
2CC
330
1E
100
AcDbEntity
  8
OBJECT
100
AcDbLine
 10
3.047713320718962
 20
11.74370265453608
 30
0.0
 11
3.047713320718962
 21
9.079702654536085
 31
0.0
  0
LINE
  5
2CD
330
1E
100
AcDbEntity
  8
OBJECT
100
AcDbLine
 10
7.69471332071896
 20
11.75670265453607
 30
0.0
 11
7.69471332071896
 21
9.066702654536083
 31
0.0
  0
LINE
  5
2CE
330
1E
100
AcDbEntity
  8
OBJECT
100
AcDbLine
 10
3.090713320718961
 20
11.75670265453607
 30
0.0
 11
3.090713320718961
 21
9.066702654536083
 31
0.0
  0
LINE
  5
2CF
330
1E
100
AcDbEntity
  8
OBJECT
100
AcDbLine
 10
7.594713320718962
 20
11.75670265453607
 30
0.0
 11
7.594713320718962
 21
9.066702654536083
 31
0.0
  0
LINE
  5
2D0
330
1E
100
AcDbEntity
  8
OBJECT
100
AcDbLine
 10
3.190713320718963
 20
11.75670265453607
 30
0.0
 11
3.190713320718963
 21
9.066702654536083
 31
0.0
  0
LINE
  5
2D1
330
1E
100
AcDbEntity
  8
OBJECT
100
AcDbLine
 10
7.580213320718961
 20
11.76120265453607
 30
0.0
 11
7.580213320718964
 21
9.062202654536083
 31
0.0
  0
LINE
  5
2D2
330
1E
100
AcDbEntity
  8
OBJECT
100
AcDbLine
 10
3.205213320718961
 20
11.76120265453607
 30
0.0
 11
3.205213320718961
 21
9.062202654536083
 31
0.0
  0
LINE
  5
2D3
330
1E
100
AcDbEntity
  8
OBJECT
100
AcDbLine
 10
7.49221332071896
 20
11.84920265453607
 30
0.0
 11
3.293213320718962
 21
11.84920265453607
 31
0.0
  0
LINE
  5
2D4
330
1E
100
AcDbEntity
  8
OBJECT
100
AcDbLine
 10
7.487713320718963
 20
11.86370265453607
 30
0.0
 11
3.297713320718962
 21
11.86370265453607
 31
0.0
  0
LINE
  5
2D5
330
1E
100
AcDbEntity
  8
OBJECT
100
AcDbLine
 10
7.48771332071896
 20
11.96370265453607
 30
0.0
 11
3.297713320718962
 21
11.96370265453607
 31
0.0
  0
LINE
  5
2D6
330
1E
100
AcDbEntity
  8
OBJECT
100
AcDbLine
 10
7.474713320718958
 20
12.00670265453607
 30
0.0
 11
3.31071332071896
 21
12.00670265453607
 31
0.0
  0
LINE
  5
2D7
330
1E
100
AcDbEntity
  8
OBJECT
100
AcDbLine
 10
7.492213320718967
 20
8.97420265453608
 30
0.0
 11
3.293213320718962
 21
8.97420265453608
 31
0.0
  0
LINE
  5
2D8
330
1E
100
AcDbEntity
  8
OBJECT
100
AcDbLine
 10
7.487713320718963
 20
8.959702654536084
 30
0.0
 11
3.297713320718962
 21
8.959702654536084
 31
0.0
  0
LINE
  5
2D9
330
1E
100
AcDbEntity
  8
OBJECT
100
AcDbLine
 10
7.48771332071896
 20
8.85970265453608
 30
0.0
 11
3.297713320718962
 21
8.85970265453608
 31
0.0
  0
LINE
  5
2DA
330
1E
100
AcDbEntity
  8
OBJECT
100
AcDbLine
 10
7.474713320718958
 20
8.816702654536083
 30
0.0
 11
3.31071332071896
 21
8.816702654536083
 31
0.0
  0
CIRCLE
  5
2DB
330
1E
100
AcDbEntity
  8
OBJECT
100
AcDbCircle
 10
8.017713320718959
 20
11.53670265453607
 30
0.1875
 40
0.09375
  0
CIRCLE
  5
2DC
330
1E
100
AcDbEntity
  8
OBJECT
100
AcDbCircle
 10
8.017713320718959
 20
9.28670265453608
 30
0.1875
 40
0.09375
  0
CIRCLE
  5
2DD
330
1E
100
AcDbEntity
  8
OBJECT
100
AcDbCircle
 10
2.767713320718961
 20
11.53670265453607
 30
0.1875
 40
0.09375
  0
CIRCLE
  5
2DE
330
1E
100
AcDbEntity
  8
OBJECT
100
AcDbCircle
 10
2.767713320718961
 20
9.28670265453608
 30
0.1875
 40
0.09375
  0
ARC
  5
2DF
330
1E
100
AcDbEntity
  8
OBJECT
100
AcDbCircle
 10
3.210713320718959
 20
11.76866812788772
 30
0.0
 40
0.02
100
AcDbArc
 50
45.00000000000142
 51
153.9587968129939
  0
ARC
  5
2E0
330
1E
100
AcDbEntity
  8
OBJECT
100
AcDbCircle
 10
3.280635684213861
 20
11.84370265453607
 30
0.0
 40
0.02
100
AcDbArc
 50
127.0739046326277
 51
224.9999999999974
  0
ARC
  5
2E1
330
1E
100
AcDbEntity
  8
OBJECT
100
AcDbCircle
 10
3.295135684213852
 20
11.82920265453607
 30
0.0
 40
0.02
100
AcDbArc
 50
90.00000000000005
 51
224.9999999999974
  0
ARC
  5
2E2
330
1E
100
AcDbEntity
  8
OBJECT
100
AcDbCircle
 10
3.225213320718964
 20
11.75416812788772
 30
0.0
 40
0.02
100
AcDbArc
 50
45.00000000000187
 51
180.0
  0
ARC
  5
2E3
330
1E
100
AcDbEntity
  8
OBJECT
100
AcDbCircle
 10
2.754713320718963
 20
11.55700482060947
 30
0.0
 40
0.25
100
AcDbArc
 50
111.9999999999996
 51
179.9999999999999
  0
ARC
  5
2E4
330
1E
100
AcDbEntity
  8
OBJECT
100
AcDbCircle
 10
2.754713320718963
 20
9.266400488462688
 30
0.1875
 40
0.25
100
AcDbArc
 50
179.9999999999999
 51
248.0
  0
ARC
  5
2E5
330
1E
100
AcDbEntity
  8
OBJECT
100
AcDbCircle
 10
3.210713320718959
 20
9.050719960916129
 30
0.0
 40
0.02
100
AcDbArc
 50
214.7178092776492
 51
314.9999999999991
  0
ARC
  5
2E6
330
1E
100
AcDbEntity
  8
OBJECT
100
AcDbCircle
 10
3.284652904482156
 20
8.97970265453608
 30
0.0
 40
0.02
100
AcDbArc
 50
135.0000000000007
 51
241.5891960736339
  0
ARC
  5
2E7
330
1E
100
AcDbEntity
  8
OBJECT
100
AcDbCircle
 10
3.299152904482156
 20
8.994202654536085
 30
0.0
 40
0.02
100
AcDbArc
 50
135.0000000000007
 51
270.0
  0
ARC
  5
2E8
330
1E
100
AcDbEntity
  8
OBJECT
100
AcDbCircle
 10
3.225213320718964
 20
9.065219960916129
 30
0.0
 40
0.02
100
AcDbArc
 50
180.0
 51
314.9999999999991
  0
ARC
  5
2E9
330
1E
100
AcDbEntity
  8
OBJECT
100
AcDbCircle
 10
8.030713320718961
 20
11.55700482060947
 30
0.1875
 40
0.25
100
AcDbArc
 50
0.0000000000002036
 51
68.00000000000027
  0
ARC
  5
2EA
330
1E
100
AcDbEntity
  8
OBJECT
100
AcDbCircle
 10
7.560213320718961
 20
11.75416812788772
 30
0.0
 40
0.02
100
AcDbArc
 50
0.0
 51
134.9999999999992
  0
ARC
  5
2EB
330
1E
100
AcDbEntity
  8
OBJECT
100
AcDbCircle
 10
7.490290957224072
 20
11.82920265453607
 30
0.0
 40
0.02
100
AcDbArc
 50
315.0000000000007
 51
90.00000000000005
  0
ARC
  5
2EC
330
1E
100
AcDbEntity
  8
OBJECT
100
AcDbCircle
 10
7.50479095722407
 20
11.84370265453607
 30
0.0
 40
0.02
100
AcDbArc
 50
315.0000000000008
 51
52.92609536733554
  0
ARC
  5
2ED
330
1E
100
AcDbEntity
  8
OBJECT
100
AcDbCircle
 10
7.574713320718963
 20
11.76866812788772
 30
0.0
 40
0.02
100
AcDbArc
 50
26.04120318699343
 51
134.999999999999
  0
ARC
  5
2EE
330
1E
100
AcDbEntity
  8
OBJECT
100
AcDbCircle
 10
8.030713320718961
 20
9.26640048846268
 30
0.0
 40
0.25
100
AcDbArc
 50
291.9999999999998
 51
0.0
  0
ARC
  5
2EF
330
1E
100
AcDbEntity
  8
OBJECT
100
AcDbCircle
 10
7.560213320718965
 20
9.065219960916129
 30
0.0
 40
0.02
100
AcDbArc
 50
225.0000000000014
 51
0.0000000000000382
  0
ARC
  5
2F0
330
1E
100
AcDbEntity
  8
OBJECT
100
AcDbCircle
 10
7.486273736955759
 20
8.994202654536085
 30
0.0
 40
0.02
100
AcDbArc
 50
270.0
 51
45.0
  0
ARC
  5
2F1
330
1E
100
AcDbEntity
  8
OBJECT
100
AcDbCircle
 10
7.500773736955757
 20
8.97970265453608
 30
0.0
 40
0.02
100
AcDbArc
 50
298.4108039263387
 51
44.99999999999803
  0
ARC
  5
2F2
330
1E
100
AcDbEntity
  8
OBJECT
100
AcDbCircle
 10
7.574713320718963
 20
9.050719960916136
 30
0.0
 40
0.02
100
AcDbArc
 50
225.0000000000028
 51
325.2821907223635
  0
LINE
  5
2F3
330
1E
100
AcDbEntity
  8
OBJECT
100
AcDbLine
 10
7.476075228471533
 20
11.78670265453607
 30
0.0
 11
3.309351412966393
 21
11.78670265453607
 31
0.0
  0
LINE
  5
2F4
330
1E
100
AcDbEntity
  8
OBJECT
100
AcDbLine
 10
7.472058008203218
 20
9.03670265453608
 30
0.0
 11
3.313368633234694
 21
9.03670265453608
 31
0.0
  0
DIMENSION
  5
2F5
330
1E
100
AcDbEntity
  8
DIM
100
AcDbDimension
  2
*D15
 10
7.097717026752576
 20
8.85970265453608
 30
-0.1875
 11
6.470060776752575
 21
8.319702654536083
 31
-0.1875
 70
   160
  1
<>
  3
23NSTD
100
AcDbAlignedDimension
 13
7.095654083902539
 23
8.959702654536084
 33
0.0
 14
7.095654083902539
 24
8.85970265453608
 34
0.0
 50
90.0
100
AcDbRotatedDimension
  0
DIMENSION
  5
2F6
330
1E
100
AcDbEntity
  8
DIM
100
AcDbDimension
  2
*D6
 10
8.280713320718961
 20
13.87923176121592
 30
-0.1875
 11
5.392713320718961
 21
13.87923176121592
 31
-0.1875
 70
    32
  1
A
  3
23NSTD
100
AcDbAlignedDimension
 13
2.50471332071896
 23
11.55700482060947
 33
0.1875
 14
8.280713320718961
 24
11.55700482060947
 34
0.1875
100
AcDbRotatedDimension
  0
DIMENSION
  5
2F7
330
1E
100
AcDbEntity
  8
DIM
100
AcDbDimension
  2
*D5
 10
8.017713320718959
 20
13.40472367505705
 30
-0.1875
 11
5.392713320718959
 21
13.40472367505705
 31
-0.1875
 70
    32
  1
B
  3
23NSTD
100
AcDbAlignedDimension
 13
2.767713320718959
 23
11.59670265453607
 33
-0.1875
 14
8.017713320718959
 24
11.59670265453607
 34
0.0
100
AcDbRotatedDimension
  0
DIMENSION
  5
2F8
330
1E
100
AcDbEntity
  8
DIM
100
AcDbDimension
  2
*D21
 10
7.362213320718963
 20
12.92811844362558
 30
-0.1875
 11
5.392713320718961
 21
12.92811844362558
 31
-0.1875
 70
    32
  1
G
  3
23NSTD
100
AcDbAlignedDimension
 13
3.423213320718959
 23
11.62864657295934
 33
0.0
 14
7.362213320718963
 24
11.71864657295934
 34
0.0
100
AcDbRotatedDimension
  0
DIMENSION
  5
2F9
330
1E
100
AcDbEntity
  8
DIM
100
AcDbDimension
  2
*D20
 10
7.017006165730409
 20
12.45556643573669
 30
-0.1875
 11
5.392471070452264
 21
12.45556643573669
 31
-0.1875
 70
    32
  1
H
  3
23NSTD
100
AcDbAlignedDimension
 13
3.76793597517412
 23
11.37414657295934
 33
0.0
 14
7.017006165730409
 24
11.37414657295934
 34
0.0
100
AcDbRotatedDimension
  0
ARC
  5
2FA
330
1E
100
AcDbEntity
  8
OBJECT
100
AcDbCircle
 10
3.293213320718962
 20
9.062202654536083
 30
0.0
 40
0.088
100
AcDbArc
 50
180.0
 51
200.9607411680678
  0
ARC
  5
2FB
330
1E
100
AcDbEntity
  8
OBJECT
100
AcDbCircle
 10
3.297713320718962
 20
9.066702654536083
 30
0.0
 40
0.107
100
AcDbArc
 50
180.0
 51
270.0
  0
ARC
  5
2FC
330
1E
100
AcDbEntity
  8
OBJECT
100
AcDbCircle
 10
3.297713320718962
 20
9.066702654536083
 30
0.0
 40
0.207
100
AcDbArc
 50
180.0
 51
270.0
  0
ARC
  5
2FD
330
1E
100
AcDbEntity
  8
OBJECT
100
AcDbCircle
 10
3.31071332071896
 20
9.079702654536085
 30
0.0
 40
0.263
100
AcDbArc
 50
180.0
 51
270.0
  0
ARC
  5
2FE
330
1E
100
AcDbEntity
  8
OBJECT
100
AcDbCircle
 10
3.293213320718962
 20
9.062202654536083
 30
0.0
 40
0.088
100
AcDbArc
 50
251.0711302132202
 51
270.0
  0
ARC
  5
2FF
330
1E
100
AcDbEntity
  8
OBJECT
100
AcDbCircle
 10
3.31071332071896
 20
11.74370265453608
 30
0.0
 40
0.263
100
AcDbArc
 50
90.0
 51
180.0
  0
ARC
  5
300
330
1E
100
AcDbEntity
  8
OBJECT
100
AcDbCircle
 10
3.297713320718962
 20
11.75670265453607
 30
0.0
 40
0.207
100
AcDbArc
 50
90.0
 51
180.0
  0
ARC
  5
301
330
1E
100
AcDbEntity
  8
OBJECT
100
AcDbCircle
 10
3.297713320718962
 20
11.75670265453607
 30
0.0
 40
0.107
100
AcDbArc
 50
89.99999999999998
 51
180.0
  0
ARC
  5
302
330
1E
100
AcDbEntity
  8
OBJECT
100
AcDbCircle
 10
3.293213320718962
 20
11.76120265453607
 30
0.0
 40
0.088
100
AcDbArc
 50
90.00000000000005
 51
111.7182057966714
  0
ARC
  5
303
330
1E
100
AcDbEntity
  8
OBJECT
100
AcDbCircle
 10
3.293213320718962
 20
11.76120265453607
 30
0.0
 40
0.088
100
AcDbArc
 50
161.8349958740981
 51
180.0
  0
ARC
  5
304
330
1E
100
AcDbEntity
  8
OBJECT
100
AcDbCircle
 10
7.49221332071896
 20
11.76120265453607
 30
0.0
 40
0.088
100
AcDbArc
 50
0.0000000000000382
 51
18.16500412589812
  0
ARC
  5
305
330
1E
100
AcDbEntity
  8
OBJECT
100
AcDbCircle
 10
7.487713320718963
 20
11.75670265453607
 30
0.0
 40
0.107
100
AcDbArc
 50
0.0
 51
89.99999999999998
  0
ARC
  5
306
330
1E
100
AcDbEntity
  8
OBJECT
100
AcDbCircle
 10
7.48771332071896
 20
11.75670265453607
 30
0.0
 40
0.207
100
AcDbArc
 50
0.0
 51
90.0
  0
ARC
  5
307
330
1E
100
AcDbEntity
  8
OBJECT
100
AcDbCircle
 10
7.474713320718958
 20
11.74370265453607
 30
0.0
 40
0.263
100
AcDbArc
 50
0.0
 51
90.0
  0
ARC
  5
308
330
1E
100
AcDbEntity
  8
OBJECT
100
AcDbCircle
 10
7.49221332071896
 20
11.76120265453607
 30
0.0
 40
0.088
100
AcDbArc
 50
68.28179420332438
 51
90.00000000000005
  0
ARC
  5
309
330
1E
100
AcDbEntity
  8
OBJECT
100
AcDbCircle
 10
7.474713320718958
 20
9.079702654536079
 30
0.0
 40
0.263
100
AcDbArc
 50
270.0
 51
0.0000000000000382
  0
ARC
  5
30A
330
1E
100
AcDbEntity
  8
OBJECT
100
AcDbCircle
 10
7.48771332071896
 20
9.066702654536083
 30
0.0
 40
0.207
100
AcDbArc
 50
270.0
 51
0.0
  0
ARC
  5
30B
330
1E
100
AcDbEntity
  8
OBJECT
100
AcDbCircle
 10
7.487713320718963
 20
9.066702654536083
 30
0.0
 40
0.107
100
AcDbArc
 50
270.0
 51
0.0
  0
ARC
  5
30C
330
1E
100
AcDbEntity
  8
OBJECT
100
AcDbCircle
 10
7.492213320718967
 20
9.062202654536083
 30
0.0
 40
0.088
100
AcDbArc
 50
270.0
 51
288.9288697867698
  0
ARC
  5
30D
330
1E
100
AcDbEntity
  8
OBJECT
100
AcDbCircle
 10
7.492213320718967
 20
9.062202654536083
 30
0.0
 40
0.088
100
AcDbArc
 50
339.0392588319345
 51
0.0000000000000509
  0
LINE
  5
30E
330
1E
100
AcDbEntity
  8
OBJECT
100
AcDbLine
 10
2.661061672364986
 20
9.034604524820991
 30
0.1875
 11
3.22141498311953
 21
8.832326813148981
 31
0.0
  0
LINE
  5
30F
330
1E
100
AcDbEntity
  8
OBJECT
100
AcDbLine
 10
8.12436496907294
 20
9.034604524820988
 30
0.0
 11
7.564011658318396
 21
8.832326813148977
 31
0.0
  0
LINE
  5
310
330
1E
100
AcDbEntity
  8
OBJECT
100
AcDbLine
 10
8.124364969072937
 20
11.78880078425117
 30
0.1875
 11
7.564011658318392
 21
11.99107849592318
 31
0.0
  0
LINE
  5
311
330
1E
100
AcDbEntity
  8
OBJECT
100
AcDbLine
 10
2.661061672364986
 20
11.78880078425117
 30
0.0
 11
3.22141498311953
 21
11.99107849592318
 31
0.0
  0
DIMENSION
  5
312
330
1E
100
AcDbEntity
  8
DIM
100
AcDbDimension
  2
*D14
 10
7.580213320718959
 20
7.7839415594327
 30
-0.1875
 11
5.392713320718959
 21
7.7839415594327
 31
-0.1875
 70
    32
  1
F  (INSIDE AT BOTTOM)
  3
23NSTD
100
AcDbAlignedDimension
 13
3.205213320718959
 23
9.069237181184428
 33
0.0
 14
7.580213320718959
 24
9.069237181184437
 34
0.0
 50
180.0
100
AcDbRotatedDimension
  0
DIMENSION
  5
313
330
1E
100
AcDbEntity
  8
DIM
100
AcDbDimension
  2
*D4
 10
7.594713320718962
 20
7.270263013124386
 30
-0.1875
 11
5.392713320718962
 21
7.270263013124386
 31
-0.1875
 70
    32
  1
E  (INSIDE AT TOP)
  3
23NSTD
100
AcDbAlignedDimension
 13
3.190713320718961
 23
9.009702654536079
 33
0.0
 14
7.594713320718962
 24
9.009702654536088
 34
0.0
 50
180.0
100
AcDbRotatedDimension
  0
DIMENSION
  5
314
330
1E
100
AcDbEntity
  8
DIM
100
AcDbDimension
  2
*D12
 10
2.062426474274951
 20
9.535241515844511
 30
-0.1875
 11
2.062426474274949
 21
10.40969404440192
 31
-0.1875
 70
    32
  1
R
  3
23NSTD
100
AcDbAlignedDimension
 13
3.678420475707516
 23
11.28414657295934
 33
0.0
 14
3.676984142953924
 24
9.535241515844511
 34
0.0
 50
270.0
100
AcDbRotatedDimension
  0
DIMENSION
  5
315
330
1E
100
AcDbEntity
  8
DIM
100
AcDbDimension
  2
*D11
 10
1.521444145344648
 20
9.28670265453608
 30
-0.1875
 11
1.521444145344646
 21
10.41170265453607
 31
-0.1875
 70
    32
  1
P
  3
23NSTD
100
AcDbAlignedDimension
 13
2.707713320718963
 23
11.53670265453607
 33
0.0
 14
2.767713320718963
 24
9.28670265453608
 34
-0.1875
 50
270.0
100
AcDbRotatedDimension
  0
DIMENSION
  5
316
330
1E
100
AcDbEntity
  8
DIM
100
AcDbDimension
  2
*D10
 10
0.9973868977309692
 20
9.190741515844511
 30
-0.1875
 11
0.9973868977309678
 21
10.40969404440192
 31
-0.1875
 70
    32
  1
N
  3
23NSTD
100
AcDbAlignedDimension
 13
3.333213320718959
 23
11.62864657295934
 33
0.0
 14
3.333213320718966
 24
9.190741515844511
 34
0.0
 50
270.0
100
AcDbRotatedDimension
  0
DIMENSION
  5
317
330
1E
100
AcDbEntity
  8
DIM
100
AcDbDimension
  2
*D18
 10
3.310713320718957
 20
8.816702654536083
 30
0.0
 11
0.4941565298125646
 21
9.301452647393812
 31
0.0
 70
    34
  3
23NSTD
100
AcDb2LineAngularDimension
 13
2.661061672364984
 23
9.034604524820991
 33
0.1875
 14
3.221414983119528
 24
8.832326813148981
 34
0.0
 15
7.474713320718959
 25
8.816702654536083
 35
0.0
 16
0.5267459200674685
 26
9.460520141322179
 36
0.0
1001
ACAD
1000
DSTYLE
1002
{
1070
   271
1070
     0
1002
}
  0
TEXT
  5
318
330
1E
100
AcDbEntity
  8
0
  6
CONTINUOUS
 62
     1
100
AcDbText
 10
33.77958210090591
 20
2.962980280087863
 30
0.0
 40
0.125
  1

  7
CITYBLUEPRINT
100
AcDbText
  0
TEXT
  5
319
330
1E
100
AcDbEntity
  8
0
  6
CONTINUOUS
 62
     1
100
AcDbText
 10
33.74808595002709
 20
2.727040642286635
 30
0.0
 40
0.125
  1

  7
CITYBLUEPRINT
100
AcDbText
  0
TEXT
  5
31A
330
1E
100
AcDbEntity
  8
0
  6
CONTINUOUS
 62
     1
100
AcDbText
 10
26.91341875867554
 20
2.884333714080036
 30
0.0
 40
0.1875
  1

  7
CITYBLUEPRINT
100
AcDbText
  0
LINE
  5
31B
330
1E
100
AcDbEntity
  8
OBJECT
  6
CONTINUOUS
 62
     7
100
AcDbLine
 10
3.297713320718962
 20
18.70099906737286
 30
-0.1875
 11
7.487713320718959
 21
18.70099906737286
 31
-0.1875
  0
LINE
  5
31C
330
1E
100
AcDbEntity
  8
OBJECT
  6
CONTINUOUS
 62
     7
100
AcDbLine
 10
3.297713320718962
 20
15.59699906737287
 30
-0.1875
 11
7.487713320718959
 21
15.59699906737287
 31
-0.1875
  0
LINE
  5
31D
330
1E
100
AcDbEntity
  8
OBJECT
  6
CONTINUOUS
 62
     7
100
AcDbLine
 10
3.090713320718961
 20
18.49399906737287
 30
-0.1875
 11
3.090713320718961
 21
15.80399906737287
 31
-0.1875
  0
LINE
  5
31E
330
1E
100
AcDbEntity
  8
OBJECT
  6
CONTINUOUS
 62
     7
100
AcDbLine
 10
7.694713320718959
 20
18.49399906737287
 30
-0.1875
 11
7.694713320718959
 21
15.80399906737287
 31
-0.1875
  0
CIRCLE
  5
31F
330
1E
100
AcDbEntity
  8
OBJECT
  6
CONTINUOUS
 62
     7
100
AcDbCircle
 10
7.361413320718956
 20
18.36769906737286
 30
-0.1875
 40
0.115
  0
CIRCLE
  5
320
330
1E
100
AcDbEntity
  8
OBJECT
  6
CONTINUOUS
 62
     7
100
AcDbCircle
 10
7.361413320718956
 20
15.93029906737287
 30
-0.1875
 40
0.115
  0
CIRCLE
  5
321
330
1E
100
AcDbEntity
  8
OBJECT
  6
CONTINUOUS
 62
     7
100
AcDbCircle
 10
3.424013320718962
 20
15.93029906737287
 30
-0.1875
 40
0.115
  0
CIRCLE
  5
322
330
1E
100
AcDbEntity
  8
OBJECT
  6
CONTINUOUS
 62
     7
100
AcDbCircle
 10
3.424013320718962
 20
18.36769906737286
 30
-0.1875
 40
0.115
  0
CIRCLE
  5
323
330
1E
100
AcDbEntity
  8
HIDDEN
100
AcDbCircle
 10
3.424013320718962
 20
18.36769906737286
 30
-0.1875
 40
0.15625
  0
CIRCLE
  5
324
330
1E
100
AcDbEntity
  8
HIDDEN
100
AcDbCircle
 10
3.424013320718962
 20
15.93029906737287
 30
-0.1875
 40
0.15625
  0
CIRCLE
  5
325
330
1E
100
AcDbEntity
  8
OBJECT
  6
CONTINUOUS
 62
     7
100
AcDbCircle
 10
7.361413320718956
 20
15.93029906737287
 30
-0.1875
 40
0.0625
  0
CIRCLE
  5
326
330
1E
100
AcDbEntity
  8
OBJECT
  6
CONTINUOUS
 62
     7
100
AcDbCircle
 10
7.361413320718956
 20
18.36769906737286
 30
-0.1875
 40
0.0625
  0
CIRCLE
  5
327
330
1E
100
AcDbEntity
  8
OBJECT
  6
CONTINUOUS
 62
     7
100
AcDbCircle
 10
3.424013320718962
 20
18.36769906737286
 30
-0.1875
 40
0.0625
  0
CIRCLE
  5
328
330
1E
100
AcDbEntity
  8
OBJECT
  6
CONTINUOUS
 62
     7
100
AcDbCircle
 10
3.424013320718962
 20
15.93029906737287
 30
-0.1875
 40
0.0625
  0
DIMENSION
  5
329
330
1E
100
AcDbEntity
  8
DIM
  6
CONTINUOUS
100
AcDbDimension
  2
*D3
 10
8.408808653599272
 20
15.59699906737287
 30
-0.1875
 11
8.408808653599271
 21
17.14899906737286
 31
-0.1875
 70
    32
  1
K
  3
23NSTD
100
AcDbAlignedDimension
 13
7.54471332071896
 23
18.70099906737286
 33
-0.1875
 14
7.54471332071896
 24
15.59699906737287
 34
-0.1875
 50
90.0
100
AcDbRotatedDimension
  0
DIMENSION
  5
32A
330
1E
100
AcDbEntity
  8
DIM
  6
CONTINUOUS
100
AcDbDimension
  2
*D2
 10
7.694713320718959
 20
15.07963356911781
 30
-0.1875
 11
5.392713320718959
 21
15.07963356911781
 31
-0.1875
 70
    32
  1
D
  3
23NSTD
100
AcDbAlignedDimension
 13
3.090713320718958
 23
15.74699906737287
 33
-0.1875
 14
7.694713320718959
 24
15.74699906737287
 34
-0.1875
100
AcDbRotatedDimension
  0
TEXT
  5
32B
330
1E
100
AcDbEntity
  8
0
  6
CONTINUOUS
 62
     1
100
AcDbText
 10
29.0008053138909
 20
10.07005296607064
 30
0.0
 40
0.1875
  1

  7
CITYBLUEPRINT
100
AcDbText
  0
ARC
  5
32C
330
1E
100
AcDbEntity
  8
OBJECT
  6
CONTINUOUS
 62
     7
100
AcDbCircle
 10
3.297713320718962
 20
15.80399906737287
 30
-0.1875
 40
0.207
100
AcDbArc
 50
180.0
 51
270.0
  0
ARC
  5
32D
330
1E
100
AcDbEntity
  8
OBJECT
  6
CONTINUOUS
 62
     7
100
AcDbCircle
 10
7.487713320718959
 20
15.80399906737287
 30
-0.1875
 40
0.207
100
AcDbArc
 50
270.0
 51
0.0
  0
ARC
  5
32E
330
1E
100
AcDbEntity
  8
OBJECT
  6
CONTINUOUS
 62
     7
100
AcDbCircle
 10
7.487713320718959
 20
18.49399906737287
 30
-0.1875
 40
0.207
100
AcDbArc
 50
0.0000000000000636
 51
90.0
  0
ARC
  5
32F
330
1E
100
AcDbEntity
  8
OBJECT
  6
CONTINUOUS
 62
     7
100
AcDbCircle
 10
3.297713320718962
 20
18.49399906737287
 30
-0.1875
 40
0.207
100
AcDbArc
 50
90.00000000000005
 51
180.0
  0
CIRCLE
  5
330
330
1E
100
AcDbEntity
  8
HIDDEN
100
AcDbCircle
 10
7.361413320718956
 20
18.36769906737286
 30
-0.1875
 40
0.15625
  0
CIRCLE
  5
331
330
1E
100
AcDbEntity
  8
HIDDEN
100
AcDbCircle
 10
7.361413320718956
 20
15.93029906737287
 30
-0.1875
 40
0.15625
  0
LINE
  5
332
330
1E
100
AcDbEntity
  8
DIM
100
AcDbLine
 10
3.347288967715853
 20
17.80779363857916
 30
-0.1875
 11
4.133681147374416
 21
17.80779363857916
 31
-0.1875
  0
DIMENSION
  5
333
330
1E
100
AcDbEntity
  8
DIM
100
AcDbDimension
  2
*D23
 10
4.764134652781518
 20
15.73074906737287
 30
-0.1875
 11
4.764134652781516
 21
17.25072142064302
 31
-0.1875
 70
   160
  1
T
  3
23NSTD
100
AcDbAlignedDimension
 13
4.619648505135628
 23
18.56724906737287
 33
-0.1875
 14
4.619648505135621
 24
15.73074906737287
 34
-0.1875
 50
270.0
100
AcDbRotatedDimension
  0
DIMENSION
  5
334
330
1E
100
AcDbEntity
  8
DIM
100
AcDbDimension
  2
*D24
 10
7.560963320718959
 20
16.87106559997331
 30
-0.1875
 11
5.392713320718959
 21
16.87106559997331
 31
-0.1875
 70
    32
  1
S
  3
23NSTD
100
AcDbAlignedDimension
 13
3.224463320718959
 23
16.83964471342748
 33
-0.1875
 14
7.560963320718959
 24
16.83964471342748
 34
-0.1875
100
AcDbRotatedDimension
  0
DIMENSION
  5
335
330
1E
100
AcDbEntity
  8
DIM
100
AcDbDimension
  2
*D22
 10
6.114282354757617
 20
17.81426572549124
 30
-0.1875
 11
6.114282354757614
 21
18.19075739643206
 31
-0.1875
 70
    32
  3
23NSTDI
100
AcDbAlignedDimension
 13
6.731148699855268
 23
18.56724906737287
 33
-0.1875
 14
7.560963320718959
 24
17.81426572549124
 34
-0.1875
 50
270.0
100
AcDbRotatedDimension
  0
DIMENSION
  5
336
330
1E
100
AcDbEntity
  8
DIM
100
AcDbDimension
  2
*D1
 10
6.807979978837342
 20
17.23938346871442
 30
-0.1875
 11
7.184471649778151
 21
17.23938346871442
 31
-0.1875
 70
    32
  3
23NSTDI
100
AcDbAlignedDimension
 13
7.560963320718959
 23
17.3020955388393
 33
-0.1875
 14
6.807979978837342
 24
18.56724906737287
 34
-0.1875
100
AcDbRotatedDimension
  0
DIMENSION
  5
337
330
1E
100
AcDbEntity
  8
DIM
100
AcDbDimension
  2
*D19
 10
4.133681147374416
 20
17.80779363857916
 30
-0.1875
 11
4.000635964964343
 21
18.1497192704304
 31
-0.1875
 70
   162
  3
23NSTD
100
AcDb2LineAngularDimension
 13
3.966398119144541
 23
18.5626726108289
 33
-0.1875
 14
3.22903977726292
 24
17.82531426894728
 34
-0.1875
 15
3.347288967715853
 25
17.80779363857916
 35
-0.1875
 16
4.04222574129673
 26
18.03038079969636
 36
-0.1875
1001
ACAD
1000
DSTYLE
1002
{
1070
   271
1070
     0
1002
}
  0
ARC
  5
338
330
1E
100
AcDbEntity
  8
HIDDEN
100
AcDbCircle
 10
7.56096332071896
 20
15.96154906737287
 30
-0.1875
 40
0.0312500000000009
100
AcDbArc
 50
180.0000000000006
 51
359.9999999999991
  0
ARC
  5
339
330
1E
100
AcDbEntity
  8
HIDDEN
100
AcDbCircle
 10
7.330163320718956
 20
15.73074906737287
 30
-0.1875
 40
0.0312499999999996
100
AcDbArc
 50
270.0
 51
90.0
  0
LINE
  5
33A
330
1E
100
AcDbEntity
  8
HIDDEN
100
AcDbLine
 10
7.330163320718956
 20
15.76199906737287
 30
-0.1875
 11
3.455263320718954
 21
15.76199906737287
 31
-0.1875
  0
LINE
  5
33B
330
1E
100
AcDbEntity
  8
HIDDEN
100
AcDbLine
 10
3.455263320718954
 20
15.69949906737287
 30
-0.1875
 11
7.330163320718956
 21
15.69949906737287
 31
-0.1875
  0
LINE
  5
33C
330
1E
100
AcDbEntity
  8
HIDDEN
100
AcDbLine
 10
7.529713320718967
 20
18.33644906737287
 30
-0.1875
 11
7.52971332071896
 21
15.96154906737287
 31
-0.1875
  0
LINE
  5
33D
330
1E
100
AcDbEntity
  8
HIDDEN
100
AcDbLine
 10
7.59221332071896
 20
18.33644906737287
 30
-0.1875
 11
7.59221332071896
 21
15.96154906737287
 31
-0.1875
  0
ARC
  5
33E
330
1E
100
AcDbEntity
  8
HIDDEN
100
AcDbCircle
 10
7.56096332071896
 20
18.33644906737287
 30
-0.1875
 40
0.03125
100
AcDbArc
 50
0.0
 51
180.0
  0
ARC
  5
33F
330
1E
100
AcDbEntity
  8
HIDDEN
100
AcDbCircle
 10
7.326163320718959
 20
18.56724906737287
 30
-0.1875
 40
0.0312500000000009
100
AcDbArc
 50
270.0
 51
90.0
  0
LINE
  5
340
330
1E
100
AcDbEntity
  8
HIDDEN
100
AcDbLine
 10
5.798963320718959
 20
18.59849906737287
 30
-0.1875
 11
7.326163320718959
 21
18.59849906737287
 31
-0.1875
  0
LINE
  5
341
330
1E
100
AcDbEntity
  8
HIDDEN
100
AcDbLine
 10
5.798963320718959
 20
18.53599906737287
 30
-0.1875
 11
7.326163320718959
 21
18.53599906737287
 31
-0.1875
  0
ARC
  5
342
330
1E
100
AcDbEntity
  8
HIDDEN
100
AcDbCircle
 10
3.22446332071896
 20
15.96154906737287
 30
-0.1875
 40
0.03125
100
AcDbArc
 50
180.0
 51
0.0
  0
ARC
  5
343
330
1E
100
AcDbEntity
  8
HIDDEN
100
AcDbCircle
 10
3.455263320718954
 20
15.73074906737287
 30
-0.1875
 40
0.0312499999999996
100
AcDbArc
 50
90.0
 51
270.0
  0
LINE
  5
344
330
1E
100
AcDbEntity
  8
HIDDEN
100
AcDbLine
 10
3.25571332071896
 20
18.33644906737287
 30
-0.1875
 11
3.25571332071896
 21
15.96154906737287
 31
-0.1875
  0
LINE
  5
345
330
1E
100
AcDbEntity
  8
HIDDEN
100
AcDbLine
 10
3.19321332071896
 20
18.33644906737287
 30
-0.1875
 11
3.19321332071896
 21
15.96154906737287
 31
-0.1875
  0
ARC
  5
346
330
1E
100
AcDbEntity
  8
HIDDEN
100
AcDbCircle
 10
3.22446332071896
 20
18.33644906737287
 30
-0.1875
 40
0.0312499999999996
100
AcDbArc
 50
0.0
 51
180.0
  0
ARC
  5
347
330
1E
100
AcDbEntity
  8
HIDDEN
100
AcDbCircle
 10
4.986463320718958
 20
18.56724906737287
 30
-0.1875
 40
0.0312499999999991
100
AcDbArc
 50
270.0
 51
90.0
  0
LINE
  5
348
330
1E
100
AcDbEntity
  8
HIDDEN
100
AcDbLine
 10
4.986315339321135
 20
18.59849906737287
 30
-0.1875
 11
4.986463320718958
 21
18.59849906737287
 31
-0.1875
  0
ARC
  5
349
330
1E
100
AcDbEntity
  8
HIDDEN
100
AcDbCircle
 10
5.798963320718959
 20
18.56724906737287
 30
-0.1875
 40
0.03125
100
AcDbArc
 50
90.00000000000161
 51
269.9999999999982
  0
LINE
  5
34A
330
1E
100
AcDbEntity
  8
HIDDEN
100
AcDbLine
 10
5.798963320718959
 20
18.59849906737287
 30
-0.1875
 11
5.805001575910361
 21
18.59849906737287
 31
-0.1875
  0
LINE
  5
34B
330
1E
100
AcDbEntity
  8
HIDDEN
100
AcDbLine
 10
3.45926332071896
 20
18.59849906737287
 30
-0.1875
 11
4.986463320718958
 21
18.59849906737287
 31
-0.1875
  0
LINE
  5
34C
330
1E
100
AcDbEntity
  8
HIDDEN
100
AcDbLine
 10
4.986463320718958
 20
18.53599906737287
 30
-0.1875
 11
3.45926332071896
 21
18.53599906737287
 31
-0.1875
  0
ARC
  5
34D
330
1E
100
AcDbEntity
  8
HIDDEN
100
AcDbCircle
 10
3.45926332071896
 20
18.56724906737287
 30
-0.1875
 40
0.0312500000000009
100
AcDbArc
 50
89.9999999999992
 51
270.0000000000008
  0
INSERT
  5
34E
330
1E
100
AcDbEntity
  8
TITLE
100
AcDbBlockReference
  2
HB
 10
0.0
 20
0.0
 30
0.0
 41
1.5
 42
1.5
 43
1.5
  0
TEXT
  5
34F
330
1E
100
AcDbEntity
  8
DIM
100
AcDbText
 10
8.15506448235423
 20
4.862438684475536
 30
0.0
 40
0.187
  1
ALL INSIDE SURFACES
 41
0.75
  7
TXT
100
AcDbText
  0
TEXT
  5
350
330
1E
100
AcDbEntity
  8
DIM
100
AcDbText
 10
4.074260517600684
 20
6.011228016497305
 30
0.0
 40
0.187
  1
ALL OUTSIDE WALL SURFACES
 41
0.75
  7
TXT
100
AcDbText
  0
TEXT
  5
351
330
1E
100
AcDbEntity
  8
TEXT
100
AcDbText
 10
9.813751765133003
 20
6.871466356211179
 30
0.0
 40
0.187
  1
UNLESS OTHERWISE SPECIFIED
 41
0.75
  7
TXT
100
AcDbText
  0
TEXT
  5
355
330
1E
100
AcDbEntity
  8
TEXT
100
AcDbText
 10
2.059530757166899
 20
22.7277744384858
 30
0.0
 40
0.234
  1
UTILIBOX  (STYLE A)
 41
0.75
  7
TXT
 72
     1
 11
3.580530757166899
 21
22.7277744384858
 31
0.0
100
AcDbText
  0
LINE
  5
357
330
1E
100
AcDbEntity
  8
0
  6
BYBLOCK
 62
     0
100
AcDbLine
 10
7.639213320718962
 20
11.86370265453607
 30
-0.1875
 11
10.96507162536263
 21
11.86370265453607
 31
-0.1875
  0
LINE
  5
358
330
1E
100
AcDbEntity
  8
0
  6
BYBLOCK
 62
     0
100
AcDbLine
 10
7.639213320718962
 20
8.959702654536084
 30
-0.1875
 11
10.96507162536263
 21
8.959702654536084
 31
-0.1875
  0
LINE
  5
359
330
1E
100
AcDbEntity
  8
0
  6
BYBLOCK
 62
     0
100
AcDbLine
 10
10.82557162536262
 20
11.59370265453607
 30
-0.1875
 11
10.82557162536262
 21
11.10792522380882
 31
-0.1875
  0
LINE
  5
35A
330
1E
100
AcDbEntity
  8
0
  6
BYBLOCK
 62
     0
100
AcDbLine
 10
10.82557162536262
 20
9.229702654536083
 30
-0.1875
 11
10.82557162536262
 21
10.38981372652022
 31
-0.1875
  0
SOLID
  5
35B
330
1E
100
AcDbEntity
  8
0
  6
BYBLOCK
 62
     0
100
AcDbTrace
 10
10.78057162536262
 20
11.59370265453607
 30
-0.1875
 11
10.87057162536263
 21
11.59370265453607
 31
-0.1875
 12
10.82557162536262
 22
11.86370265453607
 32
-0.1875
 13
10.82557162536262
 23
11.86370265453607
 33
-0.1875
  0
SOLID
  5
35C
330
1E
100
AcDbEntity
  8
0
  6
BYBLOCK
 62
     0
100
AcDbTrace
 10
10.78057162536262
 20
9.229702654536083
 30
-0.1875
 11
10.87057162536263
 21
9.229702654536083
 31
-0.1875
 12
10.82557162536262
 22
8.959702654536084
 32
-0.1875
 13
10.82557162536262
 23
8.959702654536084
 33
-0.1875
  0
TEXT
  5
35D
330
1E
100
AcDbEntity
  8
0
  6
BYBLOCK
 62
     0
100
AcDbText
 10
10.77869662536262
 20
10.78542522380882
 30
-0.1875
 40
0.1875
  1
L
 41
0.75
  7
TXT
 72
     4
 11
10.82557162536262
 21
10.87917522380882
 31
-0.1875
100
AcDbText
  0
POINT
  5
35E
330
1E
100
AcDbEntity
  8
DEFPOINTS
  6
BYBLOCK
 62
     0
100
AcDbPoint
 10
7.544713320718962
 20
11.86370265453607
 30
0.0
  0
POINT
  5
35F
330
1E
100
AcDbEntity
  8
DEFPOINTS
  6
BYBLOCK
 62
     0
100
AcDbPoint
 10
7.544713320718962
 20
8.959702654536084
 30
0.0
  0
POINT
  5
360
330
1E
100
AcDbEntity
  8
DEFPOINTS
  6
BYBLOCK
 62
     0
100
AcDbPoint
 10
10.82557162536262
 20
8.959702654536084
 30
-0.1875
  0
LINE
  5
361
330
1E
100
AcDbEntity
  8
0
  6
BYBLOCK
 62
     0
100
AcDbLine
 10
7.584790957224072
 20
11.84920265453607
 30
-0.1875
 11
9.707314387395907
 21
11.84920265453607
 31
-0.1875
  0
LINE
  5
362
330
1E
100
AcDbEntity
  8
0
  6
BYBLOCK
 62
     0
100
AcDbLine
 10
7.580773736955759
 20
8.97420265453608
 30
-0.1875
 11
9.707314387395907
 21
8.97420265453608
 31
-0.1875
  0
LINE
  5
363
330
1E
100
AcDbEntity
  8
0
  6
BYBLOCK
 62
     0
100
AcDbLine
 10
9.567814387395907
 20
11.57920265453608
 30
-0.1875
 11
9.567814387395907
 21
10.5390712262517
 31
-0.1875
  0
LINE
  5
364
330
1E
100
AcDbEntity
  8
0
  6
BYBLOCK
 62
     0
100
AcDbLine
 10
9.567814387395907
 20
9.244202654536081
 30
-0.1875
 11
9.567814387395907
 21
9.830743271089149
 31
-0.1875
  0
SOLID
  5
365
330
1E
100
AcDbEntity
  8
0
  6
BYBLOCK
 62
     0
100
AcDbTrace
 10
9.522814387395907
 20
11.57920265453608
 30
-0.1875
 11
9.612814387395907
 21
11.57920265453608
 31
-0.1875
 12
9.567814387395907
 22
11.84920265453607
 32
-0.1875
 13
9.567814387395907
 23
11.84920265453607
 33
-0.1875
  0
SOLID
  5
366
330
1E
100
AcDbEntity
  8
0
  6
BYBLOCK
 62
     0
100
AcDbTrace
 10
9.522814387395907
 20
9.244202654536081
 30
-0.1875
 11
9.612814387395907
 21
9.244202654536081
 31
-0.1875
 12
9.567814387395907
 22
8.97420265453608
 32
-0.1875
 13
9.567814387395907
 23
8.97420265453608
 33
-0.1875
  0
TEXT
  5
367
330
1E
100
AcDbEntity
  8
0
  6
BYBLOCK
 62
     0
100
AcDbText
 10
9.520939387395907
 20
10.21657122625171
 30
-0.1875
 40
0.1875
  1
M
 41
0.75
  7
TXT
 72
     4
 11
9.567814387395907
 21
10.31032122625171
 31
-0.1875
100
AcDbText
  0
POINT
  5
368
330
1E
100
AcDbEntity
  8
DEFPOINTS
  6
BYBLOCK
 62
     0
100
AcDbPoint
 10
7.490290957224072
 20
11.84920265453607
 30
0.0
  0
POINT
  5
369
330
1E
100
AcDbEntity
  8
DEFPOINTS
  6
BYBLOCK
 62
     0
100
AcDbPoint
 10
7.486273736955759
 20
8.97420265453608
 30
0.0
  0
POINT
  5
36A
330
1E
100
AcDbEntity
  8
DEFPOINTS
  6
BYBLOCK
 62
     0
100
AcDbPoint
 10
9.567814387395907
 20
8.97420265453608
 30
-0.1875
  0
TEXT
  5
36B
330
1E
100
AcDbEntity
  8
0
  6
BYBLOCK
 62
     0
100
AcDbText
 10
8.419376887395907
 20
9.93308579616057
 30
-0.1875
 40
0.1875
  1
(INSIDE AT BOTTOM)
 41
0.75
  7
TXT
 72
     4
 11
9.567814387395907
 21
10.02683579616057
 31
-0.1875
100
AcDbText
  0
TEXT
  5
36C
330
1E
100
AcDbEntity
  8
0
  6
BYBLOCK
 62
     0
100
AcDbText
 10
9.888071625362629
 20
10.50193979371768
 30
-0.1875
 40
0.1875
  1
(INSIDE AT TOP)
 41
0.75
  7
TXT
 72
     4
 11
10.82557162536262
 21
10.59568979371768
 31
-0.1875
100
AcDbText
  0
LWPOLYLINE
  5
36D
330
1E
100
AcDbEntity
  8
DIM
100
AcDbPolyline
 90
        4
 70
     0
 38
0.1875
 10
8.079916417603209
 20
11.60684420597321
 40
0.0
 41
0.10125
 10
8.195948568513719
 20
11.85064030921336
 40
0.0
 41
0.0
 10
8.717188682734581
 20
12.96277689624766
 40
0.0
 41
0.0
 10
8.987188682734583
 20
12.96277689624766
 40
0.0
 41
0.0
  0
TEXT
  5
373
330
1E
100
AcDbEntity
  8
DIM
100
AcDbText
 10
9.122188682734579
 20
12.86902689624766
 30
0.0
 40
0.1875
  1
0.187 DIA.
 41
0.75
  7
TXT
 11
9.122188682734579
 21
12.96277689624766
 31
0.0
100
AcDbText
 73
     2
  0
TEXT
  5
374
330
1E
100
AcDbEntity
  8
DIM
100
AcDbText
 10
9.122188682734579
 20
12.55652689624766
 30
0.0
 40
0.1875
  1
(4) HOLES
 41
0.75
  7
TXT
 11
9.122188682734579
 21
12.65027689624766
 31
0.0
100
AcDbText
 73
     2
  0
LWPOLYLINE
  5
37C
330
1E
100
AcDbEntity
  8
DIM
100
AcDbPolyline
 90
        4
 70
     0
 38
0.1875
 10
3.382110789457209
 20
9.070048384623728
 40
0.0
 41
0.10125
 10
3.275147936626277
 20
8.822139231678001
 40
0.0
 41
0.0
 10
2.910301135726986
 20
7.976529200045177
 40
0.0
 41
0.0
 10
2.640301135726986
 20
7.976529200045177
 40
0.0
 41
0.0
  0
TEXT
  5
382
330
1E
100
AcDbEntity
  8
DIM
100
AcDbText
 10
0.6068636357269881
 20
7.882779200045177
 30
0.0
 40
0.1875
  1
#4-40 THREADED
 41
0.75
  7
TXT
 72
     2
 11
2.505301135726988
 21
7.976529200045177
 31
0.0
100
AcDbText
 73
     2
  0
TEXT
  5
383
330
1E
100
AcDbEntity
  8
DIM
100
AcDbText
 10
0.3021761357269881
 20
7.570279200045177
 30
0.0
 40
0.1875
  1
INSERT (4) PLACES
 41
0.75
  7
TXT
 72
     2
 11
2.505301135726988
 21
7.664029200045177
 31
0.0
100
AcDbText
 73
     2
  0
LWPOLYLINE
  5
384
330
1E
100
AcDbEntity
  8
DIM
100
AcDbPolyline
 90
        4
 70
     0
 38
0.1875
 10
3.532666486713073
 20
9.079233368367003
 40
0.0
 41
0.10125
 10
3.638359034792593
 20
8.830779981832508
 40
0.0
 41
0.0
 10
3.748892645960856
 20
8.493249038432253
 40
0.0
 41
0.0
 10
4.018892645960856
 20
8.493249038432253
 40
0.0
 41
0.0
  0
TEXT
  5
38A
330
1E
100
AcDbEntity
  8
DIM
100
AcDbText
 10
4.153892645960858
 20
8.399499038432253
 30
0.0
 40
0.1875
  1
0.312 DIA. BOSS
 41
0.75
  7
TXT
 11
4.153892645960858
 21
8.493249038432253
 31
0.0
100
AcDbText
 73
     2
  0
TEXT
  5
38B
330
1E
100
AcDbEntity
  8
DIM
100
AcDbText
 10
4.153892645960858
 20
8.086999038432253
 30
0.0
 40
0.1875
  1
(4) PLACES
 41
0.75
  7
TXT
 11
4.153892645960858
 21
8.180749038432253
 31
0.0
100
AcDbText
 73
     2
  0
LWPOLYLINE
  5
38D
330
1E
100
AcDbEntity
  8
DIM
100
AcDbPolyline
 90
        4
 70
     0
 38
0.1875
 10
3.768480873196888
 20
11.23914987212312
 40
0.0
 41
0.10125
 10
3.846182927505527
 20
10.98057224208483
 40
0.0
 41
0.0
 10
4.075424210431039
 20
10.06350942785643
 40
0.0
 41
0.0
 10
4.34542421043104
 20
10.06350942785643
 40
0.0
 41
0.0
  0
TEXT
  5
393
330
1E
100
AcDbEntity
  8
DIM
100
AcDbText
 10
4.480424210431039
 20
9.96975942785643
 30
0.0
 40
0.1875
  1
0.090 DIA. x 0.250 DEEP
 41
0.75
  7
TXT
 11
4.480424210431039
 21
10.06350942785643
 31
0.0
100
AcDbText
 73
     2
  0
TEXT
  5
394
330
1E
100
AcDbEntity
  8
DIM
100
AcDbText
 10
4.480424210431039
 20
9.65725942785643
 30
0.0
 40
0.1875
  1
(4) HOLES
 41
0.75
  7
TXT
 11
4.480424210431039
 21
9.75100942785643
 31
0.0
100
AcDbText
 73
     2
  0
LWPOLYLINE
  5
395
330
1E
100
AcDbEntity
  8
DIM
100
AcDbPolyline
 90
        4
 70
     0
 38
0.1875
 10
3.892848314826098
 20
11.27946603851669
 40
0.0
 41
0.10125
 10
4.118617807223555
 20
11.13138451940443
 40
0.0
 41
0.0
 10
4.327409859288317
 20
10.99443845144816
 40
0.0
 41
0.0
 10
4.597409859288316
 20
10.99443845144816
 40
0.0
 41
0.0
  0
TEXT
  5
39B
330
1E
100
AcDbEntity
  8
DIM
100
AcDbText
 10
4.732409859288316
 20
10.90068845144816
 30
0.0
 40
0.1875
  1
0.250 DIA. BOSS
 41
0.75
  7
TXT
 11
4.732409859288316
 21
10.99443845144816
 31
0.0
100
AcDbText
 73
     2
  0
TEXT
  5
39C
330
1E
100
AcDbEntity
  8
DIM
100
AcDbText
 10
4.732409859288316
 20
10.58818845144816
 30
0.0
 40
0.1875
  1
(4) PLACES
 41
0.75
  7
TXT
 11
4.732409859288316
 21
10.68193845144816
 31
0.0
100
AcDbText
 73
     2
  0
TEXT
  5
39D
330
1E
100
AcDbEntity
  8
DIM
100
AcDbText
 10
9.122188682734579
 20
12.25296439624767
 30
0.0
 40
0.1875
  1
(TO FIT A #10 SCREW)
 41
0.75
  7
TXT
 11
9.122188682734579
 21
12.34671439624767
 31
0.0
100
AcDbText
 73
     2
  0
TEXT
  5
39E
330
1E
100
AcDbEntity
  8
TEXT
100
AcDbText
 10
10.56635247593616
 20
17.38724976210194
 30
0.0
 40
0.187
  1
FOUR (4) #4-40 x 0.375" LG. SCREWS
 41
0.75
  7
TXT
100
AcDbText
  0
TEXT
  5
39F
330
1E
100
AcDbEntity
  8
TEXT
100
AcDbText
 10
10.56635247593616
 20
17.07558309543528
 30
0.0
 40
0.187
  1
SUPPLIED FOR ASSEMBLING COVER
 41
0.75
  7
TXT
100
AcDbText
  0
TEXT
  5
3A0
330
1E
100
AcDbEntity
  8
TEXT
100
AcDbText
 10
10.56635247593616
 20
16.76391642876861
 30
0.0
 40
0.187
  1
TO BODY
 41
0.75
  7
TXT
100
AcDbText
  0
TEXT
  5
3A1
330
1E
100
AcDbEntity
  8
TEXT
100
AcDbText
 10
10.56635247593616
 20
16.14058309543527
 30
0.0
 40
0.187
  1
MOUNTING BOSSES USE EITHER M2.5
 41
0.75
  7
TXT
100
AcDbText
  0
TEXT
  5
3A2
330
1E
100
AcDbEntity
  8
TEXT
100
AcDbText
 10
10.56635247593616
 20
15.82891642876861
 30
0.0
 40
0.187
  1
METRIC OR #4 STD. SHEET METAL
 41
0.75
  7
TXT
100
AcDbText
  0
LINE
  5
3A3
330
1E
100
AcDbEntity
  8
TITLE
100
AcDbLine
 10
0.0929999999999964
 20
1.977000000000002
 30
0.0
 11
15.087
 21
1.977000000000002
 31
0.0
  0
LINE
  5
3A4
330
1E
100
AcDbEntity
  8
TITLE
100
AcDbLine
 10
1.659765402351515
 20
1.977000000000002
 30
0.0
 11
1.659765402351515
 21
0.0930000000000018
 31
0.0
  0
TEXT
  5
3A5
330
1E
100
AcDbEntity
  8
TEXT
100
AcDbText
 10
0.3830063431429602
 20
1.719774061502679
 30
0.0
 40
0.187
  1
PART No.
 41
0.75
  7
TXT
 72
     1
 11
0.8738813431429601
 21
1.719774061502679
 31
0.0
100
AcDbText
  0
TEXT
  5
3A6
330
1E
100
AcDbEntity
  8
TEXT
100
AcDbText
 10
0.2193813431429602
 20
1.408107394836012
 30
0.0
 40
0.187
  1
CU-3281-MB
 41
0.75
  7
TXT
 72
     1
 11
0.8738813431429601
 21
1.408107394836012
 31
0.0
100
AcDbText
  0
TEXT
  5
3A7
330
1E
100
AcDbEntity
  8
TEXT
100
AcDbText
 10
0.1960063431429602
 20
1.096440728169346
 30
0.0
 40
0.187
  1
CU-3282-MB
 41
0.75
  7
TXT
 72
     1
 11
0.8738813431429601
 21
1.096440728169346
 31
0.0
100
AcDbText
  0
TEXT
  5
3A8
330
1E
100
AcDbEntity
  8
TEXT
100
AcDbText
 10
0.1960063431429602
 20
0.78477406150268
 30
0.0
 40
0.187
  1
CU-3283-MB
 41
0.75
  7
TXT
 72
     1
 11
0.8738813431429601
 21
0.78477406150268
 31
0.0
100
AcDbText
  0
TEXT
  5
3A9
330
1E
100
AcDbEntity
  8
TEXT
100
AcDbText
 10
0.1960063431429602
 20
0.4731073948360134
 30
0.0
 40
0.187
  1
CU-3284-MB
 41
0.75
  7
TXT
 72
     1
 11
0.8738813431429601
 21
0.4731073948360134
 31
0.0
100
AcDbText
  0
TEXT
  5
3AA
330
1E
100
AcDbEntity
  8
TEXT
100
AcDbText
 10
1.734465042150612
 20
0.4731073948360134
 30
0.0
 40
0.187
  1
8.776
 41
0.75
  7
TXT
 72
     1
 11
2.014965042150612
 21
0.4731073948360134
 31
0.0
100
AcDbText
  0
TEXT
  5
3AB
330
1E
100
AcDbEntity
  8
TEXT
100
AcDbText
 10
1.734465042150612
 20
0.78477406150268
 30
0.0
 40
0.187
  1
7.276
 41
0.75
  7
TXT
 72
     1
 11
2.014965042150612
 21
0.78477406150268
 31
0.0
100
AcDbText
  0
TEXT
  5
3AC
330
1E
100
AcDbEntity
  8
TEXT
100
AcDbText
 10
1.734465042150612
 20
1.096440728169346
 30
0.0
 40
0.187
  1
5.776
 41
0.75
  7
TXT
 72
     1
 11
2.014965042150612
 21
1.096440728169346
 31
0.0
100
AcDbText
  0
TEXT
  5
3AD
330
1E
100
AcDbEntity
  8
TEXT
100
AcDbText
 10
1.734465042150612
 20
1.408107394836012
 30
0.0
 40
0.187
  1
5.776
 41
0.75
  7
TXT
 72
     1
 11
2.014965042150612
 21
1.408107394836012
 31
0.0
100
AcDbText
  0
TEXT
  5
3AE
330
1E
100
AcDbEntity
  8
TEXT
100
AcDbText
 10
1.968215042150611
 20
1.719774061502679
 30
0.0
 40
0.187
  1
A
 41
0.75
  7
TXT
 72
     1
 11
2.014965042150612
 21
1.719774061502679
 31
0.0
100
AcDbText
  0
TEXT
  5
3AF
330
1E
100
AcDbEntity
  8
TEXT
100
AcDbText
 10
2.465682787238981
 20
1.408107394836012
 30
0.0
 40
0.187
  1
5.250
 41
0.75
  7
TXT
 72
     1
 11
2.734495287238981
 21
1.408107394836012
 31
0.0
100
AcDbText
  0
TEXT
  5
3B0
330
1E
100
AcDbEntity
  8
TEXT
100
AcDbText
 10
2.465682787238981
 20
1.096440728169346
 30
0.0
 40
0.187
  1
5.250
 41
0.75
  7
TXT
 72
     1
 11
2.734495287238981
 21
1.096440728169346
 31
0.0
100
AcDbText
  0
TEXT
  5
3B1
330
1E
100
AcDbEntity
  8
TEXT
100
AcDbText
 10
2.465682787238981
 20
0.78477406150268
 30
0.0
 40
0.187
  1
6.750
 41
0.75
  7
TXT
 72
     1
 11
2.734495287238981
 21
0.78477406150268
 31
0.0
100
AcDbText
  0
TEXT
  5
3B2
330
1E
100
AcDbEntity
  8
TEXT
100
AcDbText
 10
2.465682787238981
 20
0.4731073948360134
 30
0.0
 40
0.187
  1
8.250
 41
0.75
  7
TXT
 72
     1
 11
2.734495287238981
 21
0.4731073948360134
 31
0.0
100
AcDbText
  0
TEXT
  5
3B3
330
1E
100
AcDbEntity
  8
TEXT
100
AcDbText
 10
2.687745287238981
 20
1.719774061502679
 30
0.0
 40
0.187
  1
B
 41
0.75
  7
TXT
 72
     1
 11
2.734495287238981
 21
1.719774061502679
 31
0.0
100
AcDbText
  0
TEXT
  5
3B4
330
1E
100
AcDbEntity
  8
TEXT
100
AcDbText
 10
3.151572989168621
 20
1.408107394836012
 30
0.0
 40
0.187
  1
4.690
 41
0.75
  7
TXT
 72
     1
 11
3.420385489168621
 21
1.408107394836012
 31
0.0
100
AcDbText
  0
TEXT
  5
3B5
330
1E
100
AcDbEntity
  8
TEXT
100
AcDbText
 10
3.139885489168621
 20
1.096440728169346
 30
0.0
 40
0.187
  1
4.724
 41
0.75
  7
TXT
 72
     1
 11
3.420385489168621
 21
1.096440728169346
 31
0.0
100
AcDbText
  0
TEXT
  5
3B6
330
1E
100
AcDbEntity
  8
TEXT
100
AcDbText
 10
3.139885489168621
 20
0.78477406150268
 30
0.0
 40
0.187
  1
6.224
 41
0.75
  7
TXT
 72
     1
 11
3.420385489168621
 21
0.78477406150268
 31
0.0
100
AcDbText
  0
TEXT
  5
3B7
330
1E
100
AcDbEntity
  8
TEXT
100
AcDbText
 10
3.139885489168621
 20
0.4731073948360134
 30
0.0
 40
0.187
  1
7.724
 41
0.75
  7
TXT
 72
     1
 11
3.420385489168621
 21
0.4731073948360134
 31
0.0
100
AcDbText
  0
TEXT
  5
3B8
330
1E
100
AcDbEntity
  8
TEXT
100
AcDbText
 10
3.373635489168621
 20
1.719774061502679
 30
0.0
 40
0.187
  1
C
 41
0.75
  7
TXT
 72
     1
 11
3.420385489168621
 21
1.719774061502679
 31
0.0
100
AcDbText
  0
TEXT
  5
3B9
330
1E
100
AcDbEntity
  8
TEXT
100
AcDbText
 10
3.862228924759775
 20
1.408107394836012
 30
0.0
 40
0.187
  1
4.604
 41
0.75
  7
TXT
 72
     1
 11
4.131041424759775
 21
1.408107394836012
 31
0.0
100
AcDbText
  0
TEXT
  5
3BA
330
1E
100
AcDbEntity
  8
TEXT
100
AcDbText
 10
3.873916424759775
 20
1.096440728169346
 30
0.0
 40
0.187
  1
4.612
 41
0.75
  7
TXT
 72
     1
 11
4.131041424759775
 21
1.096440728169346
 31
0.0
100
AcDbText
  0
TEXT
  5
3BB
330
1E
100
AcDbEntity
  8
TEXT
100
AcDbText
 10
3.897291424759775
 20
0.78477406150268
 30
0.0
 40
0.187
  1
6.112
 41
0.75
  7
TXT
 72
     1
 11
4.131041424759775
 21
0.78477406150268
 31
0.0
100
AcDbText
  0
TEXT
  5
3BC
330
1E
100
AcDbEntity
  8
TEXT
100
AcDbText
 10
3.873916424759775
 20
0.4731073948360134
 30
0.0
 40
0.187
  1
7.612
 41
0.75
  7
TXT
 72
     1
 11
4.131041424759775
 21
0.4731073948360134
 31
0.0
100
AcDbText
  0
TEXT
  5
3BD
330
1E
100
AcDbEntity
  8
TEXT
100
AcDbText
 10
4.084291424759775
 20
1.719774061502679
 30
0.0
 40
0.187
  1
D
 41
0.75
  7
TXT
 72
     1
 11
4.131041424759775
 21
1.719774061502679
 31
0.0
100
AcDbText
  0
TEXT
  5
3BE
330
1E
100
AcDbEntity
  8
TEXT
100
AcDbText
 10
4.577838040405349
 20
1.408107394836012
 30
0.0
 40
0.187
  1
4.404
 41
0.75
  7
TXT
 72
     1
 11
4.846650540405349
 21
1.408107394836012
 31
0.0
100
AcDbText
  0
TEXT
  5
3BF
330
1E
100
AcDbEntity
  8
TEXT
100
AcDbText
 10
4.589525540405348
 20
1.096440728169346
 30
0.0
 40
0.187
  1
4.412
 41
0.75
  7
TXT
 72
     1
 11
4.846650540405349
 21
1.096440728169346
 31
0.0
100
AcDbText
  0
TEXT
  5
3C0
330
1E
100
AcDbEntity
  8
TEXT
100
AcDbText
 10
4.589525540405348
 20
0.78477406150268
 30
0.0
 40
0.187
  1
5.912
 41
0.75
  7
TXT
 72
     1
 11
4.846650540405349
 21
0.78477406150268
 31
0.0
100
AcDbText
  0
TEXT
  5
3C1
330
1E
100
AcDbEntity
  8
TEXT
100
AcDbText
 10
4.589525540405348
 20
0.4731073948360134
 30
0.0
 40
0.187
  1
7.412
 41
0.75
  7
TXT
 72
     1
 11
4.846650540405349
 21
0.4731073948360134
 31
0.0
100
AcDbText
  0
TEXT
  5
3C2
330
1E
100
AcDbEntity
  8
TEXT
100
AcDbText
 10
4.799900540405348
 20
1.719774061502679
 30
0.0
 40
0.187
  1
E
 41
0.75
  7
TXT
 72
     1
 11
4.846650540405349
 21
1.719774061502679
 31
0.0
100
AcDbText
  0
TEXT
  5
3C3
330
1E
100
AcDbEntity
  8
TEXT
100
AcDbText
 10
5.263100292133547
 20
1.408107394836012
 30
0.0
 40
0.187
  1
4.375
 41
0.75
  7
TXT
 72
     1
 11
5.543600292133547
 21
1.408107394836012
 31
0.0
100
AcDbText
  0
TEXT
  5
3C4
330
1E
100
AcDbEntity
  8
TEXT
100
AcDbText
 10
5.263100292133547
 20
1.096440728169346
 30
0.0
 40
0.187
  1
4.375
 41
0.75
  7
TXT
 72
     1
 11
5.543600292133547
 21
1.096440728169346
 31
0.0
100
AcDbText
  0
TEXT
  5
3C5
330
1E
100
AcDbEntity
  8
TEXT
100
AcDbText
 10
5.263100292133547
 20
0.78477406150268
 30
0.0
 40
0.187
  1
5.875
 41
0.75
  7
TXT
 72
     1
 11
5.543600292133547
 21
0.78477406150268
 31
0.0
100
AcDbText
  0
TEXT
  5
3C6
330
1E
100
AcDbEntity
  8
TEXT
100
AcDbText
 10
5.263100292133547
 20
0.4731073948360134
 30
0.0
 40
0.187
  1
7.375
 41
0.75
  7
TXT
 72
     1
 11
5.543600292133547
 21
0.4731073948360134
 31
0.0
100
AcDbText
  0
TEXT
  5
3C7
330
1E
100
AcDbEntity
  8
TEXT
100
AcDbText
 10
5.496850292133546
 20
1.719774061502679
 30
0.0
 40
0.187
  1
F
 41
0.75
  7
TXT
 72
     1
 11
5.543600292133547
 21
1.719774061502679
 31
0.0
100
AcDbText
  0
TEXT
  5
3C8
330
1E
100
AcDbEntity
  8
TEXT
100
AcDbText
 10
5.972395078664401
 20
1.408107394836012
 30
0.0
 40
0.187
  1
3.938
 41
0.75
  7
TXT
 72
     1
 11
6.252895078664401
 21
1.408107394836012
 31
0.0
100
AcDbText
  0
TEXT
  5
3C9
330
1E
100
AcDbEntity
  8
TEXT
100
AcDbText
 10
5.972395078664401
 20
1.096440728169346
 30
0.0
 40
0.187
  1
3.938
 41
0.75
  7
TXT
 72
     1
 11
6.252895078664401
 21
1.096440728169346
 31
0.0
100
AcDbText
  0
TEXT
  5
3CA
330
1E
100
AcDbEntity
  8
TEXT
100
AcDbText
 10
5.972395078664401
 20
0.78477406150268
 30
0.0
 40
0.187
  1
5.438
 41
0.75
  7
TXT
 72
     1
 11
6.252895078664401
 21
0.78477406150268
 31
0.0
100
AcDbText
  0
TEXT
  5
3CB
330
1E
100
AcDbEntity
  8
TEXT
100
AcDbText
 10
5.972395078664401
 20
0.4731073948360134
 30
0.0
 40
0.187
  1
6.938
 41
0.75
  7
TXT
 72
     1
 11
6.252895078664401
 21
0.4731073948360134
 31
0.0
100
AcDbText
  0
TEXT
  5
3CC
330
1E
100
AcDbEntity
  8
TEXT
100
AcDbText
 10
6.206145078664401
 20
1.719774061502679
 30
0.0
 40
0.187
  1
G
 41
0.75
  7
TXT
 72
     1
 11
6.252895078664401
 21
1.719774061502679
 31
0.0
100
AcDbText
  0
TEXT
  5
3CD
330
1E
100
AcDbEntity
  8
TEXT
100
AcDbText
 10
6.693377365195252
 20
1.408107394836012
 30
0.0
 40
0.187
  1
3.250
 41
0.75
  7
TXT
 72
     1
 11
6.962189865195252
 21
1.408107394836012
 31
0.0
100
AcDbText
  0
TEXT
  5
3CE
330
1E
100
AcDbEntity
  8
TEXT
100
AcDbText
 10
6.693377365195252
 20
1.096440728169346
 30
0.0
 40
0.187
  1
3.250
 41
0.75
  7
TXT
 72
     1
 11
6.962189865195252
 21
1.096440728169346
 31
0.0
100
AcDbText
  0
TEXT
  5
3CF
330
1E
100
AcDbEntity
  8
TEXT
100
AcDbText
 10
6.693377365195252
 20
0.78477406150268
 30
0.0
 40
0.187
  1
4.750
 41
0.75
  7
TXT
 72
     1
 11
6.962189865195252
 21
0.78477406150268
 31
0.0
100
AcDbText
  0
TEXT
  5
3D0
330
1E
100
AcDbEntity
  8
TEXT
100
AcDbText
 10
6.693377365195252
 20
0.4731073948360134
 30
0.0
 40
0.187
  1
6.250
 41
0.75
  7
TXT
 72
     1
 11
6.962189865195252
 21
0.4731073948360134
 31
0.0
100
AcDbText
  0
TEXT
  5
3D1
330
1E
100
AcDbEntity
  8
TEXT
100
AcDbText
 10
6.915439865195252
 20
1.719774061502679
 30
0.0
 40
0.187
  1
H
 41
0.75
  7
TXT
 72
     1
 11
6.962189865195252
 21
1.719774061502679
 31
0.0
100
AcDbText
  0
TEXT
  5
3D2
330
1E
100
AcDbEntity
  8
TEXT
100
AcDbText
 10
7.420155025250732
 20
1.408107394836012
 30
0.0
 40
0.187
  1
3.190
 41
0.75
  7
TXT
 72
     1
 11
7.665592525250731
 21
1.408107394836012
 31
0.0
100
AcDbText
  0
TEXT
  5
3D3
330
1E
100
AcDbEntity
  8
TEXT
100
AcDbText
 10
7.385092525250732
 20
1.096440728169346
 30
0.0
 40
0.187
  1
4.724
 41
0.75
  7
TXT
 72
     1
 11
7.665592525250731
 21
1.096440728169346
 31
0.0
100
AcDbText
  0
TEXT
  5
3D4
330
1E
100
AcDbEntity
  8
TEXT
100
AcDbText
 10
7.385092525250732
 20
0.78477406150268
 30
0.0
 40
0.187
  1
4.724
 41
0.75
  7
TXT
 72
     1
 11
7.665592525250731
 21
0.78477406150268
 31
0.0
100
AcDbText
  0
TEXT
  5
3D5
330
1E
100
AcDbEntity
  8
TEXT
100
AcDbText
 10
7.385092525250732
 20
0.4731073948360134
 30
0.0
 40
0.187
  1
4.724
 41
0.75
  7
TXT
 72
     1
 11
7.665592525250731
 21
0.4731073948360134
 31
0.0
100
AcDbText
  0
TEXT
  5
3D6
330
1E
100
AcDbEntity
  8
TEXT
100
AcDbText
 10
7.618842525250731
 20
1.719774061502679
 30
0.0
 40
0.187
  1
J
 41
0.75
  7
TXT
 72
     1
 11
7.665592525250731
 21
1.719774061502679
 31
0.0
100
AcDbText
  0
TEXT
  5
3D7
330
1E
100
AcDbEntity
  8
TEXT
100
AcDbText
 10
8.126038040246161
 20
1.408107394836012
 30
0.0
 40
0.187
  1
3.104
 41
0.75
  7
TXT
 72
     1
 11
8.37147554024616
 21
1.408107394836012
 31
0.0
100
AcDbText
  0
TEXT
  5
3D8
330
1E
100
AcDbEntity
  8
TEXT
100
AcDbText
 10
8.11435054024616
 20
1.096440728169346
 30
0.0
 40
0.187
  1
4.612
 41
0.75
  7
TXT
 72
     1
 11
8.37147554024616
 21
1.096440728169346
 31
0.0
100
AcDbText
  0
TEXT
  5
3D9
330
1E
100
AcDbEntity
  8
TEXT
100
AcDbText
 10
8.11435054024616
 20
0.78477406150268
 30
0.0
 40
0.187
  1
4.612
 41
0.75
  7
TXT
 72
     1
 11
8.37147554024616
 21
0.78477406150268
 31
0.0
100
AcDbText
  0
TEXT
  5
3DA
330
1E
100
AcDbEntity
  8
TEXT
100
AcDbText
 10
8.11435054024616
 20
0.4731073948360134
 30
0.0
 40
0.187
  1
4.612
 41
0.75
  7
TXT
 72
     1
 11
8.37147554024616
 21
0.4731073948360134
 31
0.0
100
AcDbText
  0
TEXT
  5
3DB
330
1E
100
AcDbEntity
  8
TEXT
100
AcDbText
 10
8.324725540246161
 20
1.719774061502679
 30
0.0
 40
0.187
  1
K
 41
0.75
  7
TXT
 72
     1
 11
8.37147554024616
 21
1.719774061502679
 31
0.0
100
AcDbText
  0
TEXT
  5
3DC
330
1E
100
AcDbEntity
  8
TEXT
100
AcDbText
 10
8.799944028237081
 20
1.408107394836012
 30
0.0
 40
0.187
  1
2.904
 41
0.75
  7
TXT
 72
     1
 11
9.068756528237081
 21
1.408107394836012
 31
0.0
100
AcDbText
  0
TEXT
  5
3DD
330
1E
100
AcDbEntity
  8
TEXT
100
AcDbText
 10
8.81163152823708
 20
1.096440728169346
 30
0.0
 40
0.187
  1
4.412
 41
0.75
  7
TXT
 72
     1
 11
9.068756528237081
 21
1.096440728169346
 31
0.0
100
AcDbText
  0
TEXT
  5
3DE
330
1E
100
AcDbEntity
  8
TEXT
100
AcDbText
 10
8.81163152823708
 20
0.78477406150268
 30
0.0
 40
0.187
  1
4.412
 41
0.75
  7
TXT
 72
     1
 11
9.068756528237081
 21
0.78477406150268
 31
0.0
100
AcDbText
  0
TEXT
  5
3DF
330
1E
100
AcDbEntity
  8
TEXT
100
AcDbText
 10
8.81163152823708
 20
0.4731073948360134
 30
0.0
 40
0.187
  1
4.412
 41
0.75
  7
TXT
 72
     1
 11
9.068756528237081
 21
0.4731073948360134
 31
0.0
100
AcDbText
  0
TEXT
  5
3E0
330
1E
100
AcDbEntity
  8
TEXT
100
AcDbText
 10
9.022006528237081
 20
1.719774061502679
 30
0.0
 40
0.187
  1
L
 41
0.75
  7
TXT
 72
     1
 11
9.068756528237081
 21
1.719774061502679
 31
0.0
100
AcDbText
  0
TEXT
  5
3E1
330
1E
100
AcDbEntity
  8
TEXT
100
AcDbText
 10
9.492430805258177
 20
1.408107394836012
 30
0.0
 40
0.187
  1
2.875
 41
0.75
  7
TXT
 72
     1
 11
9.772930805258177
 21
1.408107394836012
 31
0.0
100
AcDbText
  0
TEXT
  5
3E2
330
1E
100
AcDbEntity
  8
TEXT
100
AcDbText
 10
9.492430805258177
 20
1.096440728169346
 30
0.0
 40
0.187
  1
4.375
 41
0.75
  7
TXT
 72
     1
 11
9.772930805258177
 21
1.096440728169346
 31
0.0
100
AcDbText
  0
TEXT
  5
3E3
330
1E
100
AcDbEntity
  8
TEXT
100
AcDbText
 10
9.492430805258177
 20
0.78477406150268
 30
0.0
 40
0.187
  1
4.375
 41
0.75
  7
TXT
 72
     1
 11
9.772930805258177
 21
0.78477406150268
 31
0.0
100
AcDbText
  0
TEXT
  5
3E4
330
1E
100
AcDbEntity
  8
TEXT
100
AcDbText
 10
9.492430805258177
 20
0.4731073948360134
 30
0.0
 40
0.187
  1
4.375
 41
0.75
  7
TXT
 72
     1
 11
9.772930805258177
 21
0.4731073948360134
 31
0.0
100
AcDbText
  0
TEXT
  5
3E5
330
1E
100
AcDbEntity
  8
TEXT
100
AcDbText
 10
9.726180805258177
 20
1.719774061502679
 30
0.0
 40
0.187
  1
M
 41
0.75
  7
TXT
 72
     1
 11
9.772930805258177
 21
1.719774061502679
 31
0.0
100
AcDbText
  0
TEXT
  5
3E6
330
1E
100
AcDbEntity
  8
TEXT
100
AcDbText
 10
10.21039150822194
 20
1.408107394836012
 30
0.0
 40
0.187
  1
2.438
 41
0.75
  7
TXT
 72
     1
 11
10.49089150822194
 21
1.408107394836012
 31
0.0
100
AcDbText
  0
TEXT
  5
3E7
330
1E
100
AcDbEntity
  8
TEXT
100
AcDbText
 10
10.21039150822194
 20
1.096440728169346
 30
0.0
 40
0.187
  1
3.938
 41
0.75
  7
TXT
 72
     1
 11
10.49089150822194
 21
1.096440728169346
 31
0.0
100
AcDbText
  0
TEXT
  5
3E8
330
1E
100
AcDbEntity
  8
TEXT
100
AcDbText
 10
10.21039150822194
 20
0.78477406150268
 30
0.0
 40
0.187
  1
3.938
 41
0.75
  7
TXT
 72
     1
 11
10.49089150822194
 21
0.78477406150268
 31
0.0
100
AcDbText
  0
TEXT
  5
3E9
330
1E
100
AcDbEntity
  8
TEXT
100
AcDbText
 10
10.21039150822194
 20
0.4731073948360134
 30
0.0
 40
0.187
  1
3.938
 41
0.75
  7
TXT
 72
     1
 11
10.49089150822194
 21
0.4731073948360134
 31
0.0
100
AcDbText
  0
TEXT
  5
3EA
330
1E
100
AcDbEntity
  8
TEXT
100
AcDbText
 10
10.44414150822194
 20
1.719774061502679
 30
0.0
 40
0.187
  1
N
 41
0.75
  7
TXT
 72
     1
 11
10.49089150822194
 21
1.719774061502679
 31
0.0
100
AcDbText
  0
TEXT
  5
3EB
330
1E
100
AcDbEntity
  8
TEXT
100
AcDbText
 10
10.92625320918418
 20
1.408107394836012
 30
0.0
 40
0.187
  1
2.250
 41
0.75
  7
TXT
 72
     1
 11
11.19506570918418
 21
1.408107394836012
 31
0.0
100
AcDbText
  0
TEXT
  5
3EC
330
1E
100
AcDbEntity
  8
TEXT
100
AcDbText
 10
10.93794070918418
 20
1.096440728169346
 30
0.0
 40
0.187
  1
3.500
 41
0.75
  7
TXT
 72
     1
 11
11.19506570918418
 21
1.096440728169346
 31
0.0
100
AcDbText
  0
TEXT
  5
3ED
330
1E
100
AcDbEntity
  8
TEXT
100
AcDbText
 10
10.93794070918418
 20
0.78477406150268
 30
0.0
 40
0.187
  1
3.500
 41
0.75
  7
TXT
 72
     1
 11
11.19506570918418
 21
0.78477406150268
 31
0.0
100
AcDbText
  0
TEXT
  5
3EE
330
1E
100
AcDbEntity
  8
TEXT
100
AcDbText
 10
10.93794070918418
 20
0.4731073948360134
 30
0.0
 40
0.187
  1
3.500
 41
0.75
  7
TXT
 72
     1
 11
11.19506570918418
 21
0.4731073948360134
 31
0.0
100
AcDbText
  0
TEXT
  5
3EF
330
1E
100
AcDbEntity
  8
TEXT
100
AcDbText
 10
11.14831570918418
 20
1.719774061502679
 30
0.0
 40
0.187
  1
P
 41
0.75
  7
TXT
 72
     1
 11
11.19506570918418
 21
1.719774061502679
 31
0.0
100
AcDbText
  0
TEXT
  5
3F0
330
1E
100
AcDbEntity
  8
TEXT
100
AcDbText
 10
11.64895282223664
 20
1.408107394836012
 30
0.0
 40
0.187
  1
1.750
 41
0.75
  7
TXT
 72
     1
 11
11.89439032223664
 21
1.408107394836012
 31
0.0
100
AcDbText
  0
TEXT
  5
3F1
330
1E
100
AcDbEntity
  8
TEXT
100
AcDbText
 10
11.62557782223664
 20
1.096440728169346
 30
0.0
 40
0.187
  1
3.250
 41
0.75
  7
TXT
 72
     1
 11
11.89439032223664
 21
1.096440728169346
 31
0.0
100
AcDbText
  0
TEXT
  5
3F2
330
1E
100
AcDbEntity
  8
TEXT
100
AcDbText
 10
11.62557782223664
 20
0.78477406150268
 30
0.0
 40
0.187
  1
3.250
 41
0.75
  7
TXT
 72
     1
 11
11.89439032223664
 21
0.78477406150268
 31
0.0
100
AcDbText
  0
TEXT
  5
3F3
330
1E
100
AcDbEntity
  8
TEXT
100
AcDbText
 10
11.62557782223664
 20
0.4731073948360134
 30
0.0
 40
0.187
  1
3.250
 41
0.75
  7
TXT
 72
     1
 11
11.89439032223664
 21
0.4731073948360134
 31
0.0
100
AcDbText
  0
TEXT
  5
3F4
330
1E
100
AcDbEntity
  8
TEXT
100
AcDbText
 10
11.84764032223664
 20
1.719774061502679
 30
0.0
 40
0.187
  1
R
 41
0.75
  7
TXT
 72
     1
 11
11.89439032223664
 21
1.719774061502679
 31
0.0
100
AcDbText
  0
TEXT
  5
3F5
330
1E
100
AcDbEntity
  8
TEXT
100
AcDbText
 10
12.31233037094113
 20
1.408107394836012
 30
0.0
 40
0.187
  1
4.337
 41
0.75
  7
TXT
 72
     1
 11
12.59283037094113
 21
1.408107394836012
 31
0.0
100
AcDbText
  0
TEXT
  5
3F6
330
1E
100
AcDbEntity
  8
TEXT
100
AcDbText
 10
12.31233037094113
 20
1.096440728169346
 30
0.0
 40
0.187
  1
4.345
 41
0.75
  7
TXT
 72
     1
 11
12.59283037094113
 21
1.096440728169346
 31
0.0
100
AcDbText
  0
TEXT
  5
3F7
330
1E
100
AcDbEntity
  8
TEXT
100
AcDbText
 10
12.31233037094113
 20
0.78477406150268
 30
0.0
 40
0.187
  1
5.845
 41
0.75
  7
TXT
 72
     1
 11
12.59283037094113
 21
0.78477406150268
 31
0.0
100
AcDbText
  0
TEXT
  5
3F8
330
1E
100
AcDbEntity
  8
TEXT
100
AcDbText
 10
12.31233037094113
 20
0.4731073948360134
 30
0.0
 40
0.187
  1
7.345
 41
0.75
  7
TXT
 72
     1
 11
12.59283037094113
 21
0.4731073948360134
 31
0.0
100
AcDbText
  0
TEXT
  5
3F9
330
1E
100
AcDbEntity
  8
TEXT
100
AcDbText
 10
12.54608037094113
 20
1.719774061502679
 30
0.0
 40
0.187
  1
S
 41
0.75
  7
TXT
 72
     1
 11
12.59283037094113
 21
1.719774061502679
 31
0.0
100
AcDbText
  0
TEXT
  5
3FA
330
1E
100
AcDbEntity
  8
TEXT
100
AcDbText
 10
13.02242179779706
 20
1.408107394836012
 30
0.0
 40
0.187
  1
2.837
 41
0.75
  7
TXT
 72
     1
 11
13.30292179779706
 21
1.408107394836012
 31
0.0
100
AcDbText
  0
TEXT
  5
3FB
330
1E
100
AcDbEntity
  8
TEXT
100
AcDbText
 10
13.02242179779706
 20
1.096440728169346
 30
0.0
 40
0.187
  1
4.345
 41
0.75
  7
TXT
 72
     1
 11
13.30292179779706
 21
1.096440728169346
 31
0.0
100
AcDbText
  0
TEXT
  5
3FC
330
1E
100
AcDbEntity
  8
TEXT
100
AcDbText
 10
13.02242179779706
 20
0.78477406150268
 30
0.0
 40
0.187
  1
4.345
 41
0.75
  7
TXT
 72
     1
 11
13.30292179779706
 21
0.78477406150268
 31
0.0
100
AcDbText
  0
TEXT
  5
3FD
330
1E
100
AcDbEntity
  8
TEXT
100
AcDbText
 10
13.02242179779706
 20
0.4731073948360134
 30
0.0
 40
0.187
  1
4.345
 41
0.75
  7
TXT
 72
     1
 11
13.30292179779706
 21
0.4731073948360134
 31
0.0
100
AcDbText
  0
TEXT
  5
3FE
330
1E
100
AcDbEntity
  8
TEXT
100
AcDbText
 10
13.25617179779706
 20
1.719774061502679
 30
0.0
 40
0.187
  1
T
 41
0.75
  7
TXT
 72
     1
 11
13.30292179779706
 21
1.719774061502679
 31
0.0
100
AcDbText
  0
LINE
  5
3FF
330
1E
100
AcDbEntity
  8
TITLE
100
AcDbLine
 10
0.0929999999999964
 20
1.663
 30
0.0
 11
15.087
 21
1.663
 31
0.0
  0
LINE
  5
400
330
1E
100
AcDbEntity
  8
TITLE
100
AcDbLine
 10
0.0929999999999964
 20
1.349000000000001
 30
0.0
 11
15.087
 21
1.349000000000001
 31
0.0
  0
LINE
  5
401
330
1E
100
AcDbEntity
  8
TITLE
100
AcDbLine
 10
0.0929999999999964
 20
1.035000000000001
 30
0.0
 11
15.087
 21
1.035000000000001
 31
0.0
  0
LINE
  5
402
330
1E
100
AcDbEntity
  8
TITLE
100
AcDbLine
 10
0.0929999999999964
 20
0.7210000000000019
 30
0.0
 11
15.087
 21
0.7210000000000019
 31
0.0
  0
DIMENSION
  5
403
330
1E
100
AcDbEntity
  8
DIM
100
AcDbDimension
  2
*D13
 10
3.954607124580819
 20
4.282098578530956
 30
0.0
 11
4.605700874580819
 21
4.947098578530957
 31
0.0
 70
   160
  3
23NSTD
100
AcDbAlignedDimension
 13
3.883113885863134
 23
4.407098578530956
 33
-0.1875
 14
3.580387784147108
 24
4.282098578530956
 34
-0.1875
 50
90.0
100
AcDbRotatedDimension
  0
LWPOLYLINE
  5
405
330
1E
100
AcDbEntity
  8
OBJECT
  6
CONTINUOUS
 62
     7
100
AcDbPolyline
 90
        8
 70
     1
 43
0.0
 38
-0.1875
 10
7.560963320718959
 20
17.81424906737287
 10
6.807963320718959
 20
18.56724906737287
 10
3.977463320718957
 20
18.56724906737287
 10
3.224463320718959
 20
17.81424906737287
 10
3.224463320718959
 20
16.48374906737287
 10
3.977463320718959
 20
15.73074906737287
 10
6.807963320718959
 20
15.73074906737287
 10
7.560963320718959
 20
16.48374906737286
  0
LWPOLYLINE
  5
40F
330
1E
100
AcDbEntity
  8
OBJECT
  6
CONTINUOUS
 62
     7
100
AcDbPolyline
 90
        8
 70
     1
 43
0.0
 38
-0.1875
 10
7.530963320718959
 20
17.80182266050167
 10
6.795536913847767
 20
18.53724906737287
 10
3.989889727590147
 20
18.53724906737286
 10
3.254463320718958
 20
17.80182266050167
 10
3.25446332071896
 20
16.49617547424406
 10
3.989889727590151
 20
15.76074906737287
 10
6.795536913847769
 20
15.76074906737287
 10
7.530963320718959
 20
16.49617547424406
  0
TEXT
  5
419
330
1E
100
AcDbEntity
  8
TEXT
100
AcDbText
 10
10.56635247593616
 20
15.52616342876861
 30
0.0
 40
0.187
  1
SCREWS x 0.250" LG.
 41
0.75
  7
TXT
100
AcDbText
  0
TEXT
  5
41A
330
1E
100
AcDbEntity
  8
TEXT
100
AcDbText
 10
10.56635247593616
 20
15.21449676210194
 30
0.0
 40
0.187
  1
(NOT SUPPLIED)
 41
0.75
  7
TXT
100
AcDbText
  0
LINE
  5
41B
330
1E
100
AcDbEntity
  8
TITLE
100
AcDbLine
 10
2.365765402351517
 20
1.977000000000002
 30
0.0
 11
2.365765402351517
 21
0.0930000000000018
 31
0.0
  0
LINE
  5
41C
330
1E
100
AcDbEntity
  8
TITLE
100
AcDbLine
 10
3.071765402351516
 20
1.977000000000002
 30
0.0
 11
3.071765402351516
 21
0.0930000000000018
 31
0.0
  0
LINE
  5
41D
330
1E
100
AcDbEntity
  8
TITLE
100
AcDbLine
 10
3.777765402351516
 20
1.977000000000002
 30
0.0
 11
3.777765402351515
 21
0.0930000000000018
 31
0.0
  0
LINE
  5
41E
330
1E
100
AcDbEntity
  8
TITLE
100
AcDbLine
 10
4.483765402351515
 20
1.977000000000002
 30
0.0
 11
4.483765402351515
 21
0.0930000000000018
 31
0.0
  0
LINE
  5
41F
330
1E
100
AcDbEntity
  8
TITLE
100
AcDbLine
 10
5.189765402351515
 20
1.977000000000002
 30
0.0
 11
5.189765402351515
 21
0.0930000000000018
 31
0.0
  0
LINE
  5
420
330
1E
100
AcDbEntity
  8
TITLE
100
AcDbLine
 10
5.895765402351516
 20
1.977000000000002
 30
0.0
 11
5.895765402351515
 21
0.0930000000000018
 31
0.0
  0
LINE
  5
421
330
1E
100
AcDbEntity
  8
TITLE
100
AcDbLine
 10
6.601765402351517
 20
1.977000000000002
 30
0.0
 11
6.601765402351516
 21
0.0930000000000018
 31
0.0
  0
LINE
  5
422
330
1E
100
AcDbEntity
  8
TITLE
100
AcDbLine
 10
7.307765402351516
 20
1.977000000000002
 30
0.0
 11
7.307765402351518
 21
0.0930000000000018
 31
0.0
  0
LINE
  5
423
330
1E
100
AcDbEntity
  8
TITLE
100
AcDbLine
 10
8.013765402351516
 20
1.977000000000002
 30
0.0
 11
8.013765402351516
 21
0.0930000000000018
 31
0.0
  0
LINE
  5
424
330
1E
100
AcDbEntity
  8
TITLE
100
AcDbLine
 10
8.719765402351516
 20
1.977000000000002
 30
0.0
 11
8.719765402351514
 21
0.0930000000000018
 31
0.0
  0
LINE
  5
425
330
1E
100
AcDbEntity
  8
TITLE
100
AcDbLine
 10
9.425765402351515
 20
1.977000000000002
 30
0.0
 11
9.425765402351515
 21
0.0930000000000018
 31
0.0
  0
LINE
  5
426
330
1E
100
AcDbEntity
  8
TITLE
100
AcDbLine
 10
10.13176540235151
 20
1.977000000000002
 30
0.0
 11
10.13176540235151
 21
0.0930000000000018
 31
0.0
  0
LINE
  5
427
330
1E
100
AcDbEntity
  8
TITLE
100
AcDbLine
 10
10.83776540235151
 20
1.977000000000002
 30
0.0
 11
10.83776540235151
 21
0.0930000000000018
 31
0.0
  0
LINE
  5
428
330
1E
100
AcDbEntity
  8
TITLE
100
AcDbLine
 10
11.54376540235151
 20
1.977000000000002
 30
0.0
 11
11.54376540235151
 21
0.0930000000000018
 31
0.0
  0
LINE
  5
429
330
1E
100
AcDbEntity
  8
TITLE
100
AcDbLine
 10
12.24976540235151
 20
1.977000000000002
 30
0.0
 11
12.24976540235151
 21
0.0930000000000018
 31
0.0
  0
LINE
  5
42A
330
1E
100
AcDbEntity
  8
TITLE
100
AcDbLine
 10
12.95576540235152
 20
1.977000000000002
 30
0.0
 11
12.9557654023515
 21
0.0930000000000018
 31
0.0
  0
LINE
  5
42B
330
1E
100
AcDbEntity
  8
TITLE
100
AcDbLine
 10
13.66176540235151
 20
1.977000000000002
 30
0.0
 11
13.66176540235151
 21
0.0930000000000018
 31
0.0
  0
LINE
  5
42C
330
1E
100
AcDbEntity
  8
TITLE
100
AcDbLine
 10
14.36776540235151
 20
1.977000000000002
 30
0.0
 11
14.36776540235151
 21
0.0930000000000018
 31
0.0
  0
TEXT
  5
42D
330
1E
100
AcDbEntity
  8
TEXT
100
AcDbText
 10
13.73315867921267
 20
1.096440728169346
 30
0.0
 40
0.187
  1
2.256
 41
0.75
  7
TXT
 72
     1
 11
14.01365867921267
 21
1.096440728169346
 31
0.0
100
AcDbText
  0
TEXT
  5
42E
330
1E
100
AcDbEntity
  8
TEXT
100
AcDbText
 10
13.73315867921267
 20
0.78477406150268
 30
0.0
 40
0.187
  1
2.256
 41
0.75
  7
TXT
 72
     1
 11
14.01365867921267
 21
0.78477406150268
 31
0.0
100
AcDbText
  0
TEXT
  5
42F
330
1E
100
AcDbEntity
  8
TEXT
100
AcDbText
 10
13.73315867921267
 20
0.4731073948360134
 30
0.0
 40
0.187
  1
2.256
 41
0.75
  7
TXT
 72
     1
 11
14.01365867921267
 21
0.4731073948360134
 31
0.0
100
AcDbText
  0
TEXT
  5
430
330
1E
100
AcDbEntity
  8
TEXT
100
AcDbText
 10
13.96690867921267
 20
1.719774061502679
 30
0.0
 40
0.187
  1
U
 41
0.75
  7
TXT
 72
     1
 11
14.01365867921267
 21
1.719774061502679
 31
0.0
100
AcDbText
  0
TEXT
  5
431
330
1E
100
AcDbEntity
  8
TEXT
100
AcDbText
 10
13.75653367921267
 20
1.408107394836012
 30
0.0
 40
0.187
  1
1.772
 41
0.75
  7
TXT
 72
     1
 11
14.01365867921267
 21
1.408107394836012
 31
0.0
100
AcDbText
  0
TEXT
  5
432
330
1E
100
AcDbEntity
  8
TEXT
100
AcDbText
 10
14.46727048456945
 20
1.408107394836012
 30
0.0
 40
0.187
  1
1.672
 41
0.75
  7
TXT
 72
     1
 11
14.72439548456945
 21
1.408107394836012
 31
0.0
100
AcDbText
  0
TEXT
  5
433
330
1E
100
AcDbEntity
  8
TEXT
100
AcDbText
 10
14.46727048456945
 20
0.4731073948360134
 30
0.0
 40
0.187
  1
2.156
 41
0.75
  7
TXT
 72
     1
 11
14.72439548456945
 21
0.4731073948360134
 31
0.0
100
AcDbText
  0
TEXT
  5
434
330
1E
100
AcDbEntity
  8
TEXT
100
AcDbText
 10
14.46727048456945
 20
0.78477406150268
 30
0.0
 40
0.187
  1
2.156
 41
0.75
  7
TXT
 72
     1
 11
14.72439548456945
 21
0.78477406150268
 31
0.0
100
AcDbText
  0
TEXT
  5
435
330
1E
100
AcDbEntity
  8
TEXT
100
AcDbText
 10
14.46727048456945
 20
1.096440728169346
 30
0.0
 40
0.187
  1
2.156
 41
0.75
  7
TXT
 72
     1
 11
14.72439548456945
 21
1.096440728169346
 31
0.0
100
AcDbText
  0
TEXT
  5
436
330
1E
100
AcDbEntity
  8
TEXT
100
AcDbText
 10
14.65427048456944
 20
1.719774061502679
 30
0.0
 40
0.187
  1
W
 41
0.75
  7
TXT
 72
     1
 11
14.72439548456945
 21
1.719774061502679
 31
0.0
100
AcDbText
  0
DIMENSION
  5
437
330
1E
100
AcDbEntity
  8
DIM
100
AcDbDimension
  2
*D27
 10
12.48273110232693
 20
8.301893531131685
 30
0.0
 11
13.31873110232692
 21
8.301893531131685
 31
0.0
 70
    32
  1
W
  3
23NSTD
100
AcDbAlignedDimension
 13
14.15473110232692
 23
9.033997986365688
 33
-0.1875
 14
12.48273110232693
 24
8.85970265453608
 34
-0.1875
100
AcDbRotatedDimension
  0
TEXT
  5
447
330
1E
100
AcDbEntity
  8
TEXT
100
AcDbText
 10
0.5258137086485278
 20
19.25905255883778
 30
0.0
 40
0.187
  1
RECESSED (CUR-) AND CLEAR COVERS (-C) ARE SMOOTH FINISH
 41
0.75
  7
TXT
100
AcDbText
  0
TEXT
  5
448
330
1E
100
AcDbEntity
  8
TEXT
100
AcDbText
 10
0.5102300128456321
 20
21.15271073146085
 30
0.0
 40
0.187
  1
%%URECESSED COVERS (CUR-)%%U
 41
0.75
  7
TXT
100
AcDbText
  0
TEXT
  5
449
330
1E
100
AcDbEntity
  8
TEXT
100
AcDbText
 10
0.8669617390176043
 20
20.86534540173826
 30
0.0
 40
0.187
  1
ABS THERMOPLASTIC (FLAMMABILITY RATING UL94V-0)
 41
0.75
  7
TXT
100
AcDbText
  0
TEXT
  5
44A
330
1E
100
AcDbEntity
  8
TEXT
100
AcDbText
 10
0.5195852461807604
 20
21.73657786133485
 30
0.0
 40
0.187
  1
%%UBODY AND STANDARD COVERS%%U
 41
0.75
  7
TXT
100
AcDbText
  0
TEXT
  5
44B
330
1E
100
AcDbEntity
  8
TEXT
100
AcDbText
 10
0.8688396773837823
 20
20.2789009801638
 30
0.0
 40
0.187
  1
ABS THERMOPLASTIC (FLAMMABILITY RATING UL94V-2)
 41
0.75
  7
TXT
100
AcDbText
  0
TEXT
  5
44C
330
1E
100
AcDbEntity
  8
TEXT
100
AcDbText
 10
0.8784247995305847
 20
21.46519157157619
 30
0.0
 40
0.187
  1
ABS THERMOPLASTIC (FLAMMABILITY RATING UL945V-A)
 41
0.75
  7
TXT
100
AcDbText
  0
TEXT
  5
44D
330
1E
100
AcDbEntity
  8
TEXT
100
AcDbText
 10
0.5188340261354654
 20
19.54965985671462
 30
0.0
 40
0.187
  1
BODY AND STANDARD COVERS ARE BLACK TEXTURED
 41
0.75
  7
TXT
100
AcDbText
  0
TEXT
  5
44E
330
1E
100
AcDbEntity
  8
TEXT
100
AcDbText
 10
0.4918283517875254
 20
19.84903140420294
 30
0.0
 40
0.187
  1
%%UFINISH%%U
 41
0.75
  7
TXT
100
AcDbText
  0
TEXT
  5
44F
330
1E
100
AcDbEntity
  8
TEXT
100
AcDbText
 10
0.5121079512118101
 20
20.5662663098864
 30
0.0
 40
0.187
  1
%%UCLEAR COVERS (-C)%%U
 41
0.75
  7
TXT
100
AcDbText
  0
TEXT
  5
450
330
1E
100
AcDbEntity
  8
TEXT
100
AcDbText
 10
0.5019454903627861
 20
22.04527471649948
 30
0.0
 40
0.187
  1
%%UMATERIAL:%%U
 41
0.75
  7
TXT
100
AcDbText
  0
TEXT
  5
84F
330
1E
100
AcDbEntity
  8
TEXT
100
AcDbText
 10
8.420508602182103
 20
22.95565713462628
 30
0.0
 40
0.16
  1
CU-3281-MB to CU-3287-MB
 41
0.75
  7
TXT
 72
     1
 11
9.820508602182103
 21
22.95565713462628
 31
0.0
100
AcDbText
  0
TEXT
  5
850
330
1E
100
AcDbEntity
  8
TEXT
100
AcDbText
 10
8.309539806492374
 20
22.76091581616289
 30
0.0
 40
0.16
  1
CUR-3281-MB to CUR-3287-MB
 41
0.75
  7
TXT
 72
     1
 11
9.829539806492375
 21
22.76091581616289
 31
0.0
100
AcDbText
  0
TEXT
  5
851
330
1E
100
AcDbEntity
  8
TEXT
100
AcDbText
 10
8.192668181107654
 20
22.55909772052997
 30
0.0
 40
0.16
  1
CUR-3281-CMB to CUR-3287-CMB
 41
0.75
  7
TXT
 72
     1
 11
9.832668181107655
 21
22.55909772052997
 31
0.0
100
AcDbText
  0
TEXT
  5
8C9
330
1E
100
AcDbEntity
  8
TEXT
100
AcDbText
 10
13.89533008487327
 20
22.7277744384858
 30
0.0
 40
0.234
  1
9-2-10
 41
0.75
  7
TXT
 72
     1
 11
14.34870508487327
 21
22.7277744384858
 31
0.0
100
AcDbText
  0
LINE
  5
C7D
330
1E
100
AcDbEntity
  8
TITLE
100
AcDbLine
 10
0.0929999999999964
 20
0.4070000000000027
 30
0.0
 11
15.087
 21
0.4070000000000027
 31
0.0
  0
TEXT
  5
C80
330
1E
100
AcDbEntity
  8
TEXT
100
AcDbText
 10
0.1960063431429602
 20
0.1591073948360142
 30
0.0
 40
0.187
  1
CU-3287-MB
 41
0.75
  7
TXT
 72
     1
 11
0.8738813431429601
 21
0.1591073948360142
 31
0.0
100
AcDbText
  0
TEXT
  5
C81
330
1E
100
AcDbEntity
  8
TEXT
100
AcDbText
 10
1.734465042150612
 20
0.1591073948360142
 30
0.0
 40
0.187
  1
7.276
 41
0.75
  7
TXT
 72
     1
 11
2.014965042150612
 21
0.1591073948360142
 31
0.0
100
AcDbText
  0
TEXT
  5
C82
330
1E
100
AcDbEntity
  8
TEXT
100
AcDbText
 10
2.465682787238981
 20
0.1591073948360142
 30
0.0
 40
0.187
  1
6.750
 41
0.75
  7
TXT
 72
     1
 11
2.734495287238981
 21
0.1591073948360142
 31
0.0
100
AcDbText
  0
TEXT
  5
C83
330
1E
100
AcDbEntity
  8
TEXT
100
AcDbText
 10
3.897291424759775
 20
0.1591073948360142
 30
0.0
 40
0.187
  1
6.112
 41
0.75
  7
TXT
 72
     1
 11
4.131041424759775
 21
0.1591073948360142
 31
0.0
100
AcDbText
  0
TEXT
  5
C84
330
1E
100
AcDbEntity
  8
TEXT
100
AcDbText
 10
3.139885489168621
 20
0.1591073948360142
 30
0.0
 40
0.187
  1
6.224
 41
0.75
  7
TXT
 72
     1
 11
3.420385489168621
 21
0.1591073948360142
 31
0.0
100
AcDbText
  0
TEXT
  5
C85
330
1E
100
AcDbEntity
  8
TEXT
100
AcDbText
 10
4.589525540405348
 20
0.1591073948360142
 30
0.0
 40
0.187
  1
5.912
 41
0.75
  7
TXT
 72
     1
 11
4.846650540405349
 21
0.1591073948360142
 31
0.0
100
AcDbText
  0
TEXT
  5
C86
330
1E
100
AcDbEntity
  8
TEXT
100
AcDbText
 10
5.972395078664401
 20
0.1591073948360142
 30
0.0
 40
0.187
  1
5.438
 41
0.75
  7
TXT
 72
     1
 11
6.252895078664401
 21
0.1591073948360142
 31
0.0
100
AcDbText
  0
TEXT
  5
C87
330
1E
100
AcDbEntity
  8
TEXT
100
AcDbText
 10
5.263100292133547
 20
0.1591073948360142
 30
0.0
 40
0.187
  1
5.875
 41
0.75
  7
TXT
 72
     1
 11
5.543600292133547
 21
0.1591073948360142
 31
0.0
100
AcDbText
  0
TEXT
  5
C88
330
1E
100
AcDbEntity
  8
TEXT
100
AcDbText
 10
6.693377365195252
 20
0.1591073948360142
 30
0.0
 40
0.187
  1
4.750
 41
0.75
  7
TXT
 72
     1
 11
6.962189865195252
 21
0.1591073948360142
 31
0.0
100
AcDbText
  0
TEXT
  5
C89
330
1E
100
AcDbEntity
  8
TEXT
100
AcDbText
 10
7.385092525250732
 20
0.1591073948360142
 30
0.0
 40
0.187
  1
4.724
 41
0.75
  7
TXT
 72
     1
 11
7.665592525250731
 21
0.1591073948360142
 31
0.0
100
AcDbText
  0
TEXT
  5
C8A
330
1E
100
AcDbEntity
  8
TEXT
100
AcDbText
 10
12.31233037094113
 20
0.1591073948360142
 30
0.0
 40
0.187
  1
5.845
 41
0.75
  7
TXT
 72
     1
 11
12.59283037094113
 21
0.1591073948360142
 31
0.0
100
AcDbText
  0
TEXT
  5
C8B
330
1E
100
AcDbEntity
  8
TEXT
100
AcDbText
 10
9.492430805258177
 20
0.1591073948360142
 30
0.0
 40
0.187
  1
4.375
 41
0.75
  7
TXT
 72
     1
 11
9.772930805258177
 21
0.1591073948360142
 31
0.0
100
AcDbText
  0
TEXT
  5
C8C
330
1E
100
AcDbEntity
  8
TEXT
100
AcDbText
 10
8.11435054024616
 20
0.1591073948360142
 30
0.0
 40
0.187
  1
4.612
 41
0.75
  7
TXT
 72
     1
 11
8.37147554024616
 21
0.1591073948360142
 31
0.0
100
AcDbText
  0
TEXT
  5
C8D
330
1E
100
AcDbEntity
  8
TEXT
100
AcDbText
 10
8.81163152823708
 20
0.1591073948360142
 30
0.0
 40
0.187
  1
4.412
 41
0.75
  7
TXT
 72
     1
 11
9.068756528237081
 21
0.1591073948360142
 31
0.0
100
AcDbText
  0
TEXT
  5
C8E
330
1E
100
AcDbEntity
  8
TEXT
100
AcDbText
 10
10.93794070918418
 20
0.1591073948360142
 30
0.0
 40
0.187
  1
3.500
 41
0.75
  7
TXT
 72
     1
 11
11.19506570918418
 21
0.1591073948360142
 31
0.0
100
AcDbText
  0
TEXT
  5
C8F
330
1E
100
AcDbEntity
  8
TEXT
100
AcDbText
 10
10.21039150822194
 20
0.1591073948360142
 30
0.0
 40
0.187
  1
3.938
 41
0.75
  7
TXT
 72
     1
 11
10.49089150822194
 21
0.1591073948360142
 31
0.0
100
AcDbText
  0
TEXT
  5
C90
330
1E
100
AcDbEntity
  8
TEXT
100
AcDbText
 10
11.62557782223664
 20
0.1591073948360142
 30
0.0
 40
0.187
  1
3.250
 41
0.75
  7
TXT
 72
     1
 11
11.89439032223664
 21
0.1591073948360142
 31
0.0
100
AcDbText
  0
TEXT
  5
C91
330
1E
100
AcDbEntity
  8
TEXT
100
AcDbText
 10
14.49064548456944
 20
0.1591073948360142
 30
0.0
 40
0.187
  1
1.156
 41
0.75
  7
TXT
 72
     1
 11
14.72439548456945
 21
0.1591073948360142
 31
0.0
100
AcDbText
  0
TEXT
  5
C92
330
1E
100
AcDbEntity
  8
TEXT
100
AcDbText
 10
13.02242179779706
 20
0.1591073948360142
 30
0.0
 40
0.187
  1
4.345
 41
0.75
  7
TXT
 72
     1
 11
13.30292179779706
 21
0.1591073948360142
 31
0.0
100
AcDbText
  0
TEXT
  5
C93
330
1E
100
AcDbEntity
  8
TEXT
100
AcDbText
 10
13.76822117921267
 20
0.1591073948360142
 30
0.0
 40
0.187
  1
1.250
 41
0.75
  7
TXT
 72
     1
 11
14.01365867921267
 21
0.1591073948360142
 31
0.0
100
AcDbText
  0
VIEWPORT
  5
1E4
330
1A
100
AcDbEntity
 67
     1
  8
0
100
AcDbViewport
 10
6.0
 20
4.50943396226415
 30
0.0
 40
12.0
 41
9.018867924528301
 68
     1
 69
     1
1001
ACAD
1000
MVIEW
1002
{
1070
    16
1010
0.0
1020
0.0
1030
0.0
1010
0.0
1020
0.0
1030
1.0
1040
0.0
1040
9.018867924528301
1040
6.0
1040
4.50943396226415
1040
50.0
1040
0.0
1040
0.0
1070
     0
1070
  5000
1070
     1
1070
     1
1070
     0
1070
     0
1070
     0
1070
     0
1040
0.0
1040
0.0
1040
0.0
1040
1.0
1040
1.0
1040
0.0
1040
0.0
1070
     0
1002
{
1002
}
1002
}
  0
ENDSEC
  0
SECTION
  2
OBJECTS
  0
DICTIONARY
  5
C
330
0
100
AcDbDictionary
  3
ACAD_GROUP
350
D
  3
ACAD_LAYOUT
350
19
  3
ACAD_MLINESTYLE
350
16
  3
ACAD_PLOTSETTINGS
350
18
  3
ACAD_PLOTSTYLENAME
350
E
  3
ACDBHEADERROUNDTRIPXREC
350
CA1
  0
DICTIONARY
  5
CC4
330
1E
100
AcDbDictionary
280
     1
  3
ACAD_LAYOUTSELFREF
360
CC5
  0
DICTIONARY
  5
CC2
330
1A
100
AcDbDictionary
280
     1
  3
ACAD_LAYOUTSELFREF
360
CC3
  0
DICTIONARY
  5
D
102
{ACAD_REACTORS
330
C
102
}
330
C
100
AcDbDictionary
  0
DICTIONARY
  5
19
102
{ACAD_REACTORS
330
C
102
}
330
C
100
AcDbDictionary
  0
DICTIONARY
  5
16
102
{ACAD_REACTORS
330
C
102
}
330
C
100
AcDbDictionary
  3
STANDARD
350
17
  0
DICTIONARY
  5
18
102
{ACAD_REACTORS
330
C
102
}
330
C
100
AcDbDictionary
  0
ACDBDICTIONARYWDFLT
  5
E
102
{ACAD_REACTORS
330
C
102
}
330
C
100
AcDbDictionary
281
     1
  3
Normal
350
F
100
AcDbDictionaryWithDefault
340
F
  0
DICTIONARY
  5
CA1
102
{ACAD_REACTORS
330
C
102
}
330
C
100
AcDbDictionary
  3
TSTACKALIGN
350
CA2
  3
TSTACKSIZE
350
CA3
  3
HYPERLINKBASE
350
CA4
  3
STYLESHEET
350
CA5
  3
LAYOUTDICT
350
CA6
  3
PLOTSETDICT
350
CA7
  3
PLOTSTYLNAMDICT
350
CA8
  3
LWETCUNION
350
CA9
  3
INSUNITS
350
CAA
  3
CEPSNTYPE
350
CAB
  3
FINGERPRINTGUID
350
CAC
  3
VERSIONGUID
350
CAD
  3
PSVPSCALE
350
CAE
  3
DIMSTYLEDATA
350
CAF
  3
PUCSORTHOREF
350
CB0
  3
PUCSORTHOVIEW
350
CB1
  3
PUCSBASE
350
CB2
  3
PUCSORGTOP
350
CB3
  3
PUCSORGBOTTOM
350
CB4
  3
PUCSORGLEFT
350
CB5
  3
PUCSORGRIGHT
350
CB6
  3
PUCSORGFRONT
350
CB7
  3
PUCSORGBACK
350
CB8
  3
UCSORTHOREF
350
CB9
  3
UCSORTHOVIEW
350
CBA
  3
UCSBASE
350
CBB
  3
UCSORGTOP
350
CBC
  3
UCSORGBOTTOM
350
CBD
  3
UCSORGLEFT
350
CBE
  3
UCSORGRIGHT
350
CBF
  3
UCSORGFRONT
350
CC0
  3
UCSORGBACK
350
CC1
  0
XRECORD
  5
CC5
102
{ACAD_REACTORS
330
CC4
102
}
330
CC4
100
AcDbXrecord
340
1E
  0
XRECORD
  5
CC3
102
{ACAD_REACTORS
330
CC2
102
}
330
CC2
100
AcDbXrecord
340
1A
  0
MLINESTYLE
  5
17
102
{ACAD_REACTORS
330
16
102
}
330
16
100
AcDbMlineStyle
  2
STANDARD
 70
     0
  3

 62
   256
 51
90.0
 52
90.0
 71
     2
 49
0.5
 62
   256
  6
BYLAYER
 49
-0.5
 62
   256
  6
BYLAYER
  0
ACDBPLACEHOLDER
  5
F
102
{ACAD_REACTORS
330
E
102
}
330
E
100
AcDbPlaceHolder
280
     0
  0
XRECORD
  5
CA2
102
{ACAD_REACTORS
330
CA1
102
}
330
CA1
100
AcDbXrecord
 90
        1
  0
XRECORD
  5
CA3
102
{ACAD_REACTORS
330
CA1
102
}
330
CA1
100
AcDbXrecord
 90
       70
  0
XRECORD
  5
CA4
102
{ACAD_REACTORS
330
CA1
102
}
330
CA1
100
AcDbXrecord
  1

  0
XRECORD
  5
CA5
102
{ACAD_REACTORS
330
CA1
102
}
330
CA1
100
AcDbXrecord
  1
monochrome.ctb
  0
XRECORD
  5
CA6
102
{ACAD_REACTORS
330
CA1
102
}
330
CA1
100
AcDbXrecord
340
19
  0
XRECORD
  5
CA7
102
{ACAD_REACTORS
330
CA1
102
}
330
CA1
100
AcDbXrecord
340
18
  0
XRECORD
  5
CA8
102
{ACAD_REACTORS
330
CA1
102
}
330
CA1
100
AcDbXrecord
340
E
  0
XRECORD
  5
CA9
102
{ACAD_REACTORS
330
CA1
102
}
330
CA1
100
AcDbXrecord
 90
    10781
  0
XRECORD
  5
CAA
102
{ACAD_REACTORS
330
CA1
102
}
330
CA1
100
AcDbXrecord
 90
        0
  0
XRECORD
  5
CAB
102
{ACAD_REACTORS
330
CA1
102
}
330
CA1
100
AcDbXrecord
 90
        0
  0
XRECORD
  5
CAC
102
{ACAD_REACTORS
330
CA1
102
}
330
CA1
100
AcDbXrecord
  1
{36A7FC85-0369-4FA0-B6A9-8E147D0219C9}
  0
XRECORD
  5
CAD
102
{ACAD_REACTORS
330
CA1
102
}
330
CA1
100
AcDbXrecord
  1
{C1A48067-31A2-4A7D-8C8C-DAF386292319}
  0
XRECORD
  5
CAE
102
{ACAD_REACTORS
330
CA1
102
}
330
CA1
100
AcDbXrecord
 40
0.0
  0
XRECORD
  5
CAF
102
{ACAD_REACTORS
330
CA1
102
}
330
CA1
100
AcDbXrecord
1000
DSTYLE
1002
{
1070
   289
 70
     1
1002
}
  0
XRECORD
  5
CB0
102
{ACAD_REACTORS
330
CA1
102
}
330
CA1
100
AcDbXrecord
340
0
  0
XRECORD
  5
CB1
102
{ACAD_REACTORS
330
CA1
102
}
330
CA1
100
AcDbXrecord
 70
     0
  0
XRECORD
  5
CB2
102
{ACAD_REACTORS
330
CA1
102
}
330
CA1
100
AcDbXrecord
340
0
  0
XRECORD
  5
CB3
102
{ACAD_REACTORS
330
CA1
102
}
330
CA1
100
AcDbXrecord
 10
0.0
 20
0.0
 30
0.0
  0
XRECORD
  5
CB4
102
{ACAD_REACTORS
330
CA1
102
}
330
CA1
100
AcDbXrecord
 10
0.0
 20
0.0
 30
0.0
  0
XRECORD
  5
CB5
102
{ACAD_REACTORS
330
CA1
102
}
330
CA1
100
AcDbXrecord
 10
0.0
 20
0.0
 30
0.0
  0
XRECORD
  5
CB6
102
{ACAD_REACTORS
330
CA1
102
}
330
CA1
100
AcDbXrecord
 10
0.0
 20
0.0
 30
0.0
  0
XRECORD
  5
CB7
102
{ACAD_REACTORS
330
CA1
102
}
330
CA1
100
AcDbXrecord
 10
0.0
 20
0.0
 30
0.0
  0
XRECORD
  5
CB8
102
{ACAD_REACTORS
330
CA1
102
}
330
CA1
100
AcDbXrecord
 10
0.0
 20
0.0
 30
0.0
  0
XRECORD
  5
CB9
102
{ACAD_REACTORS
330
CA1
102
}
330
CA1
100
AcDbXrecord
340
0
  0
XRECORD
  5
CBA
102
{ACAD_REACTORS
330
CA1
102
}
330
CA1
100
AcDbXrecord
 70
     0
  0
XRECORD
  5
CBB
102
{ACAD_REACTORS
330
CA1
102
}
330
CA1
100
AcDbXrecord
340
0
  0
XRECORD
  5
CBC
102
{ACAD_REACTORS
330
CA1
102
}
330
CA1
100
AcDbXrecord
 10
0.0
 20
0.0
 30
0.0
  0
XRECORD
  5
CBD
102
{ACAD_REACTORS
330
CA1
102
}
330
CA1
100
AcDbXrecord
 10
0.0
 20
0.0
 30
0.0
  0
XRECORD
  5
CBE
102
{ACAD_REACTORS
330
CA1
102
}
330
CA1
100
AcDbXrecord
 10
0.0
 20
0.0
 30
0.0
  0
XRECORD
  5
CBF
102
{ACAD_REACTORS
330
CA1
102
}
330
CA1
100
AcDbXrecord
 10
0.0
 20
0.0
 30
0.0
  0
XRECORD
  5
CC0
102
{ACAD_REACTORS
330
CA1
102
}
330
CA1
100
AcDbXrecord
 10
0.0
 20
0.0
 30
0.0
  0
XRECORD
  5
CC1
102
{ACAD_REACTORS
330
CA1
102
}
330
CA1
100
AcDbXrecord
 10
0.0
 20
0.0
 30
0.0
  0
ENDSEC
  0
EOF
