  0
SECTION
  2
HEADER
  9
$ACADVER
  1
AC1009
  9
$INSBASE
 10
0.0
 20
0.0
 30
0.0
  9
$EXTMIN
 10
-1039.3422666358181
 20
-694.11205270363598
 30
-0.0000000000112498
  9
$EXTMAX
 10
-1018.743614200956
 20
-678.08076001263635
 30
0.0000000000002956
  9
$LIMMIN
 10
0.0
 20
0.0
  9
$LIMMAX
 10
420.0
 20
297.0
  9
$ORTHOMODE
 70
     0
  9
$REGENMODE
 70
     1
  9
$FILLMODE
 70
     1
  9
$QTEXTMODE
 70
     0
  9
$MIRRTEXT
 70
     0
  9
$DRAGMODE
 70
     2
  9
$LTSCALE
 40
0.04
  9
$OSMODE
 70
   229
  9
$ATTMODE
 70
     1
  9
$TEXTSIZE
 40
2.5
  9
$TRACEWID
 40
1.0
  9
$TEXTSTYLE
  7
STANDARD
  9
$CLAYER
  8
0
  9
$CELTYPE
  6
BYLAYER
  9
$CECOLOR
 62
   256
  9
$DIMSCALE
 40
1.0
  9
$DIMASZ
 40
0.18
  9
$DIMEXO
 40
0.0625
  9
$DIMDLI
 40
0.38
  9
$DIMRND
 40
0.0
  9
$DIMDLE
 40
0.0
  9
$DIMEXE
 40
0.18
  9
$DIMTP
 40
0.0
  9
$DIMTM
 40
0.0
  9
$DIMTXT
 40
0.125
  9
$DIMCEN
 40
0.09
  9
$DIMTSZ
 40
0.0
  9
$DIMTOL
 70
     0
  9
$DIMLIM
 70
     0
  9
$DIMTIH
 70
     1
  9
$DIMTOH
 70
     1
  9
$DIMSE1
 70
     0
  9
$DIMSE2
 70
     0
  9
$DIMTAD
 70
     0
  9
$DIMZIN
 70
     0
  9
$DIMBLK
  1

  9
$DIMASO
 70
     1
  9
$DIMSHO
 70
     1
  9
$DIMPOST
  1

  9
$DIMAPOST
  1

  9
$DIMALT
 70
     1
  9
$DIMALTD
 70
     2
  9
$DIMALTF
 40
25.399999999999999
  9
$DIMLFAC
 40
1.0
  9
$DIMTOFL
 70
     0
  9
$DIMTVP
 40
0.0
  9
$DIMTIX
 70
     0
  9
$DIMSOXD
 70
     0
  9
$DIMSAH
 70
     0
  9
$DIMBLK1
  1

  9
$DIMBLK2
  1

  9
$DIMSTYLE
  2
STANDARD
  9
$DIMCLRD
 70
     0
  9
$DIMCLRE
 70
     0
  9
$DIMCLRT
 70
     0
  9
$DIMTFAC
 40
1.0
  9
$DIMGAP
 40
0.09
  9
$LUNITS
 70
     2
  9
$LUPREC
 70
     3
  9
$SKETCHINC
 40
1.0
  9
$FILLETRAD
 40
1.5
  9
$AUNITS
 70
     0
  9
$AUPREC
 70
     0
  9
$MENU
  1
.
  9
$ELEVATION
 40
0.0
  9
$PELEVATION
 40
0.0
  9
$THICKNESS
 40
0.0
  9
$LIMCHECK
 70
     0
  9
$BLIPMODE
 70
     0
  9
$CHAMFERA
 40
0.5
  9
$CHAMFERB
 40
0.5
  9
$SKPOLY
 70
     0
  9
$TDCREATE
 40
2453229.9362548962
  9
$TDUPDATE
 40
2457213.3480779738
  9
$TDINDWG
 40
1.3191408102
  9
$TDUSRTIMER
 40
1.3191408102
  9
$USRTIMER
 70
     1
  9
$ANGBASE
 50
0.0
  9
$ANGDIR
 70
     0
  9
$PDMODE
 70
     0
  9
$PDSIZE
 40
0.0
  9
$PLINEWID
 40
0.0
  9
$COORDS
 70
     2
  9
$SPLFRAME
 70
     0
  9
$SPLINETYPE
 70
     6
  9
$SPLINESEGS
 70
     8
  9
$ATTDIA
 70
     0
  9
$ATTREQ
 70
     1
  9
$HANDLING
 70
  4097
  9
$HANDSEED
  5
8ABD
  9
$SURFTAB1
 70
     6
  9
$SURFTAB2
 70
     6
  9
$SURFTYPE
 70
     6
  9
$SURFU
 70
     6
  9
$SURFV
 70
     6
  9
$UCSNAME
  2

  9
$UCSORG
 10
-969.08573821837876
 20
0.7538823923855489
 30
0.0
  9
$UCSXDIR
 10
1.0
 20
0.0
 30
0.0
  9
$UCSYDIR
 10
0.0
 20
1.0
 30
0.0
  9
$PUCSNAME
  2

  9
$PUCSORG
 10
0.0
 20
0.0
 30
0.0
  9
$PUCSXDIR
 10
1.0
 20
0.0
 30
0.0
  9
$PUCSYDIR
 10
0.0
 20
1.0
 30
0.0
  9
$USERI1
 70
     0
  9
$USERI2
 70
     0
  9
$USERI3
 70
     0
  9
$USERI4
 70
     0
  9
$USERI5
 70
     0
  9
$USERR1
 40
0.0
  9
$USERR2
 40
0.0
  9
$USERR3
 40
0.0
  9
$USERR4
 40
0.0
  9
$USERR5
 40
0.0
  9
$WORLDVIEW
 70
     1
  9
$SHADEDGE
 70
     3
  9
$SHADEDIF
 70
    70
  9
$TILEMODE
 70
     1
  9
$MAXACTVP
 70
    64
  9
$PLIMCHECK
 70
     0
  9
$PEXTMIN
 10
0.0
 20
0.0
 30
0.0
  9
$PEXTMAX
 10
0.0
 20
0.0
 30
0.0
  9
$PLIMMIN
 10
0.0
 20
0.0
  9
$PLIMMAX
 10
12.0
 20
9.0
  9
$UNITMODE
 70
     0
  9
$VISRETAIN
 70
     1
  9
$PLINEGEN
 70
     0
  9
$PSLTSCALE
 70
     1
  0
ENDSEC
  0
SECTION
  2
TABLES
  0
TABLE
  2
VPORT
 70
     4
  0
VPORT
  2
*ACTIVE
 70
     0
 10
0.0
 20
0.0
 11
1.0
 21
1.0
 12
-1029.0429404183869
 22
-686.09640635813605
 13
0.0
 23
0.0
 14
10.0
 24
10.0
 15
10.0
 25
10.0
 16
0.0
 26
0.0
 36
1.0
 17
0.0
 27
0.0
 37
0.0
 40
16.192681543593601
 41
1.8369747899159661
 42
50.0
 43
0.0
 44
0.0
 50
0.0
 51
0.0
 71
     0
 72
  1000
 73
     1
 74
     3
 75
     0
 76
     0
 77
     0
 78
     0
  0
ENDTAB
  0
TABLE
  2
LTYPE
 70
     5
  0
LTYPE
  2
CONTINUOUS
 70
     0
  3
Solid line
 72
    65
 73
     0
 40
0.0
  0
LTYPE
  2
ACAD_ISO04W100
 70
     0
  3
ISO long-dash dot ____ . ____ . ____ . ____ . _
 72
    65
 73
     4
 40
30.0
 49
24.0
 49
-3.0
 49
0.0
 49
-3.0
  0
LTYPE
  2
DASHED2
 70
     0
  3
Dashed (.5x) _ _ _ _ _ _ _ _ _ _ _ _ _ _ _ _ _
 72
    65
 73
     2
 40
9.5249999999999968
 49
6.3499999999999979
 49
-3.174999999999998
  0
LTYPE
  2
HIDDEN2
 70
     0
  3
Hidden (.5x) _ _ _ _ _ _ _ _ _ _ _ _ _ _ _ _ _
 72
    65
 73
     2
 40
4.7624999999999984
 49
3.174999999999998
 49
-1.587499999999999
  0
LTYPE
  2
HIDDEN
 70
     0
  3
Hidden __ __ __ __ __ __ __ __ __ __ __ __ __ _
 72
    65
 73
     2
 40
0.375
 49
0.25
 49
-0.125
  0
ENDTAB
  0
TABLE
  2
LAYER
 70
    10
  0
LAYER
  2
0
 70
     0
 62
     7
  6
CONTINUOUS
  0
LAYER
  2
\M+2B5EA\M+2BD75
 70
     0
 62
     7
  6
HIDDEN2
  0
LAYER
  2
\M+2A4A4\M+2A4DF\M+2BD75
 70
     0
 62
     7
  6
ACAD_ISO04W100
  0
LAYER
  2
\M+2ADE5\M+2ADB1\M+2BD75
 70
     0
 62
     7
  6
CONTINUOUS
  0
LAYER
  2
\M+2BBB2\M+2A755\M+2BD75
 70
     0
 62
     7
  6
CONTINUOUS
  0
LAYER
  2
DEFPOINTS
 70
     0
 62
     7
  6
CONTINUOUS
  0
LAYER
  2
DIM
 70
     0
 62
     1
  6
CONTINUOUS
  0
LAYER
  2
OBJECT
 70
     0
 62
     7
  6
CONTINUOUS
  0
LAYER
  2
TEXT
 70
     0
 62
     1
  6
CONTINUOUS
  0
LAYER
  2
TITLE
 70
     0
 62
     8
  6
CONTINUOUS
  0
ENDTAB
  0
TABLE
  2
STYLE
 70
     2
  0
STYLE
  2
STANDARD
 70
     0
 40
0.0
 41
1.0
 50
0.0
 71
     0
 42
2.5
  3
txt
  4

  0
STYLE
  2
TXT
 70
     0
 40
0.0
 41
0.75
 50
0.0
 71
     0
 42
0.3125
  3
txt
  4

  0
ENDTAB
  0
TABLE
  2
VIEW
 70
     0
  0
ENDTAB
  0
TABLE
  2
UCS
 70
     0
  0
ENDTAB
  0
TABLE
  2
APPID
 70
     5
  0
APPID
  2
ACAD
 70
     0
  0
APPID
  2
DCO15
 70
     0
  0
APPID
  2
ADE
 70
     0
  0
APPID
  2
ACAD_DSTYLE_DIMTEXT_FILL
 70
     0
  0
APPID
  2
ACAD_EXEMPT_FROM_CAD_STAND
 70
     0
  0
ENDTAB
  0
TABLE
  2
DIMSTYLE
 70
     3
  0
DIMSTYLE
  2
STANDARD
 70
     0
  3

  4

  5

  6

  7

 40
1.0
 41
0.18
 42
0.0625
 43
0.38
 44
0.18
 45
0.0
 46
0.0
 47
0.0
 48
0.0
140
0.125
141
0.09
142
0.0
143
25.399999999999999
144
1.0
145
0.0
146
1.0
147
0.09
 71
     0
 72
     0
 73
     1
 74
     1
 75
     0
 76
     0
 77
     0
 78
     0
170
     1
171
     2
172
     0
173
     0
174
     0
175
     0
176
     0
177
     0
178
     0
  0
DIMSTYLE
  2
23NSTD
 70
     0
  3

  4

  5

  6

  7

 40
1.0
 41
0.18
 42
0.063
 43
0.281
 44
0.093
 45
0.0
 46
0.0
 47
0.0
 48
0.0
140
0.125
141
0.09
142
0.0
143
25.399999999999999
144
1.0
145
0.0
146
1.0
147
0.09
 71
     0
 72
     0
 73
     1
 74
     1
 75
     0
 76
     0
 77
     0
 78
     0
170
     0
171
     0
172
     0
173
     0
174
     0
175
     0
176
     0
177
     0
178
     0
  0
DIMSTYLE
  2
23NSTDI
 70
     0
  3

  4

  5

  6

  7

 40
1.0
 41
0.18
 42
0.063
 43
0.281
 44
0.093
 45
0.0
 46
0.0
 47
0.0
 48
0.0
140
0.125
141
0.09
142
0.0
143
25.399999999999999
144
1.0
145
0.0
146
1.0
147
0.09
 71
     0
 72
     0
 73
     1
 74
     1
 75
     0
 76
     0
 77
     0
 78
     0
170
     0
171
     0
172
     0
173
     0
174
     1
175
     0
176
     0
177
     0
178
     0
  0
ENDTAB
  0
ENDSEC
  0
SECTION
  2
BLOCKS
  0
BLOCK
  8
0
  2
$MODEL_SPACE
 70
     0
 10
0.0
 20
0.0
 30
0.0
  3
$MODEL_SPACE
  1

  0
ENDBLK
  5
21
  8
0
  0
BLOCK
 67
     1
  8
0
  2
$PAPER_SPACE
 70
     0
 10
0.0
 20
0.0
 30
0.0
  3
$PAPER_SPACE
  1

  0
ENDBLK
  5
53
 67
     1
  8
0
  0
BLOCK
  8
0
  2
*D1
 70
     1
 10
0.0
 20
0.0
 30
0.0
  3
*D1
  1

  0
LINE
  5
84DD
  8
DIM
 62
     0
 10
-1035.593397158965
 20
-687.95627446072297
 30
0.0
 11
-1035.593397158965
 21
-685.10397086578928
 31
0.0
  0
LINE
  5
84DE
  8
DIM
 62
     0
 10
-1033.6052121589651
 20
-687.95627446072297
 30
0.0
 11
-1033.6052121589651
 21
-685.10397086578928
 31
0.0
  0
LINE
  5
84DF
  8
DIM
 62
     0
 10
-1035.7733971589651
 20
-685.28397086578923
 30
0.0
 11
-1035.953397158964
 21
-685.28397086578923
 31
0.0
  0
LINE
  5
84E0
  8
DIM
 62
     0
 10
-1033.425212158965
 20
-685.28397086578923
 30
0.0
 11
-1033.2452121589649
 21
-685.28397086578923
 31
0.0
  0
SOLID
  5
84E1
  8
DIM
 62
     0
 10
-1035.7733971589651
 20
-685.25397086578926
 30
0.0
 11
-1035.7733971589651
 21
-685.3139708657892
 31
0.0
 12
-1035.593397158965
 22
-685.28397086578923
 32
0.0
 13
-1035.593397158965
 23
-685.28397086578923
 33
0.0
  0
SOLID
  5
84E2
  8
DIM
 62
     0
 10
-1033.425212158965
 20
-685.25397086578926
 30
0.0
 11
-1033.425212158965
 21
-685.3139708657892
 31
0.0
 12
-1033.6052121589651
 22
-685.28397086578923
 32
0.0
 13
-1033.6052121589651
 23
-685.28397086578923
 33
0.0
  0
TEXT
  5
84E3
  8
0
 62
     0
 10
-1035.337764083027
 20
-685.32563753245586
 30
0.0
 40
0.125
  1
1.988 [50.50]
  0
POINT
  5
84E4
  8
DEFPOINTS
 62
     0
 10
-1035.593397158965
 20
-688.01877446072285
 30
0.0
  0
POINT
  5
84E5
  8
DEFPOINTS
 62
     0
 10
-1033.6052121589651
 20
-688.01877446072331
 30
0.0
  0
POINT
  5
84E6
  8
DEFPOINTS
 62
     0
 10
-1033.6052121589651
 20
-685.28397086578923
 30
0.0
  0
ENDBLK
  5
2437
  8
0
  0
BLOCK
  8
0
  2
*D2
 70
     1
 10
0.0
 20
0.0
 30
0.0
  3
*D2
  1

  0
LINE
  5
8463
  8
DIM
 62
     0
 10
-1035.2489096589641
 20
-686.9818669607231
 30
0.0
 11
-1035.2489096589641
 21
-685.50159567465994
 31
0.0
  0
LINE
  5
8464
  8
DIM
 62
     0
 10
-1033.9496996589639
 20
-686.9818669607231
 30
0.0
 11
-1033.9496996589639
 21
-685.50159567465994
 31
0.0
  0
LINE
  5
8465
  8
DIM
 62
     0
 10
-1034.1296996589649
 20
-685.68159567466
 30
0.0
 11
-1035.068909658964
 21
-685.68159567466
 31
0.0
  0
LINE
  5
8466
  8
DIM
 62
     0
 10
-1035.2489096589641
 20
-685.68159567466
 30
0.0
 11
-1035.9023936657379
 21
-685.68159567466
 31
0.0
  0
SOLID
  5
8467
  8
DIM
 62
     0
 10
-1034.1296996589649
 20
-685.65159567465992
 30
0.0
 11
-1034.1296996589649
 21
-685.71159567465975
 31
0.0
 12
-1033.9496996589639
 22
-685.68159567466
 32
0.0
 13
-1033.9496996589639
 23
-685.68159567466
 33
0.0
  0
SOLID
  5
8468
  8
DIM
 62
     0
 10
-1035.068909658964
 20
-685.65159567465992
 30
0.0
 11
-1035.068909658964
 21
-685.71159567465975
 31
0.0
 12
-1035.2489096589641
 22
-685.68159567466
 32
0.0
 13
-1035.2489096589641
 23
-685.68159567466
 33
0.0
  0
TEXT
  5
8469
  8
0
 62
     0
 10
-1037.2840603324059
 20
-685.72326234132663
 30
0.0
 40
0.125
  1
1.299 [33.00]
  0
POINT
  5
846A
  8
DEFPOINTS
 62
     0
 10
-1035.2489096589641
 20
-687.04436696072287
 30
0.0
  0
POINT
  5
846B
  8
DEFPOINTS
 62
     0
 10
-1033.9496996589639
 20
-687.04436696072287
 30
0.0
  0
POINT
  5
846C
  8
DEFPOINTS
 62
     0
 10
-1033.9496996589639
 20
-685.68159567466
 30
0.0
  0
ENDBLK
  5
244F
  8
0
  0
BLOCK
  8
0
  2
*D3
 70
     1
 10
0.0
 20
0.0
 30
0.0
  3
*D3
  1

  0
LINE
  5
8459
  8
DIM
 62
     0
 10
-1034.661804658964
 20
-686.65066696072302
 30
0.0
 11
-1037.5064198123889
 21
-686.65066696072302
 31
0.0
  0
LINE
  5
845A
  8
DIM
 62
     0
 10
-1034.661804658964
 20
-689.38688196072292
 30
0.0
 11
-1037.5064198123889
 21
-689.38688196072292
 31
0.0
  0
LINE
  5
845B
  8
DIM
 62
     0
 10
-1037.3264198123891
 20
-686.83066696072285
 30
0.0
 11
-1037.3264198123891
 21
-688.4194390072289
 31
0.0
  0
LINE
  5
845C
  8
DIM
 62
     0
 10
-1037.3264198123891
 20
-689.20688196072308
 30
0.0
 11
-1037.3264198123891
 21
-688.78991519770511
 31
0.0
  0
SOLID
  5
845D
  8
DIM
 62
     0
 10
-1037.356419812389
 20
-686.83066696072285
 30
0.0
 11
-1037.2964198123891
 21
-686.83066696072285
 31
0.0
 12
-1037.3264198123891
 22
-686.65066696072302
 32
0.0
 13
-1037.3264198123891
 23
-686.65066696072302
 33
0.0
  0
SOLID
  5
845E
  8
DIM
 62
     0
 10
-1037.356419812389
 20
-689.20688196072308
 30
0.0
 11
-1037.2964198123891
 21
-689.20688196072308
 31
0.0
 12
-1037.3264198123891
 22
-689.38688196072292
 32
0.0
 13
-1037.3264198123891
 23
-689.38688196072292
 33
0.0
  0
TEXT
  5
845F
  8
0
 62
     0
 10
-1037.9841579076269
 20
-688.64634376913386
 30
0.0
 40
0.125
  1
2.736 [69.50]
  0
POINT
  5
8460
  8
DEFPOINTS
 62
     0
 10
-1034.599304658964
 20
-686.65066696072302
 30
0.0
  0
POINT
  5
8461
  8
DEFPOINTS
 62
     0
 10
-1034.599304658964
 20
-689.38688196072292
 30
0.0
  0
POINT
  5
8462
  8
DEFPOINTS
 62
     0
 10
-1037.3264198123891
 20
-689.38688196072292
 30
0.0
  0
ENDBLK
  5
2467
  8
0
  0
BLOCK
  8
0
  2
*D4
 70
     1
 10
0.0
 20
0.0
 30
0.0
  3
*D4
  1

  0
LINE
  5
844F
  8
DIM
 62
     0
 10
-1035.311409658965
 20
-687.04436696072287
 30
0.0
 11
-1036.584814680539
 21
-687.04436696072287
 31
0.0
  0
LINE
  5
8450
  8
DIM
 62
     0
 10
-1035.311409658965
 20
-688.99318196072295
 30
0.0
 11
-1036.584814680539
 21
-688.99318196072295
 31
0.0
  0
LINE
  5
8451
  8
DIM
 62
     0
 10
-1036.404814680538
 20
-687.22436696072293
 30
0.0
 11
-1036.404814680538
 21
-687.55408867312337
 31
0.0
  0
LINE
  5
8452
  8
DIM
 62
     0
 10
-1036.404814680538
 20
-688.81318196072311
 30
0.0
 11
-1036.404814680538
 21
-687.92456486359947
 31
0.0
  0
SOLID
  5
8453
  8
DIM
 62
     0
 10
-1036.4348146805371
 20
-687.22436696072293
 30
0.0
 11
-1036.374814680539
 21
-687.22436696072293
 31
0.0
 12
-1036.404814680538
 22
-687.04436696072287
 32
0.0
 13
-1036.404814680538
 23
-687.04436696072287
 33
0.0
  0
SOLID
  5
8454
  8
DIM
 62
     0
 10
-1036.4348146805371
 20
-688.81318196072311
 30
0.0
 11
-1036.374814680539
 21
-688.81318196072311
 31
0.0
 12
-1036.404814680538
 22
-688.99318196072295
 32
0.0
 13
-1036.404814680538
 23
-688.99318196072295
 33
0.0
  0
TEXT
  5
8455
  8
0
 62
     0
 10
-1037.0506480138711
 20
-687.78099343502834
 30
0.0
 40
0.125
  1
1.949 [49.50]
  0
POINT
  5
8456
  8
DEFPOINTS
 62
     0
 10
-1035.2489096589641
 20
-687.04436696072287
 30
0.0
  0
POINT
  5
8457
  8
DEFPOINTS
 62
     0
 10
-1035.2489096589641
 20
-688.99318196072295
 30
0.0
  0
POINT
  5
8458
  8
DEFPOINTS
 62
     0
 10
-1036.404814680538
 20
-688.99318196072295
 30
0.0
  0
ENDBLK
  5
247F
  8
0
  0
BLOCK
  8
0
  2
*D5
 70
     1
 10
0.0
 20
0.0
 30
0.0
  3
*D5
  1

  0
LINE
  5
84D3
  8
DIM
 62
     0
 10
-1031.418748153955
 20
-686.58816696072302
 30
0.0
 11
-1031.418748153955
 21
-685.99391451613019
 31
0.0
  0
LINE
  5
84D4
  8
DIM
 62
     0
 10
-1031.379378153955
 20
-686.62950546072295
 30
0.0
 11
-1031.379378153955
 21
-685.99391451613019
 31
0.0
  0
LINE
  5
84D5
  8
DIM
 62
     0
 10
-1031.1993781539561
 20
-686.17391451613014
 30
0.0
 11
-1031.019378153956
 21
-686.17391451613014
 31
0.0
  0
LINE
  5
84D6
  8
DIM
 62
     0
 10
-1031.598748153956
 20
-686.17391451613014
 30
0.0
 11
-1031.778748153956
 21
-686.17391451613014
 31
0.0
  0
SOLID
  5
84D7
  8
DIM
 62
     0
 10
-1031.1993781539561
 20
-686.14391451613005
 30
0.0
 11
-1031.1993781539561
 21
-686.20391451613
 31
0.0
 12
-1031.379378153955
 22
-686.17391451613014
 32
0.0
 13
-1031.379378153955
 23
-686.17391451613014
 33
0.0
  0
SOLID
  5
84D8
  8
DIM
 62
     0
 10
-1031.598748153956
 20
-686.14391451613005
 30
0.0
 11
-1031.598748153956
 21
-686.20391451613
 31
0.0
 12
-1031.418748153955
 22
-686.17391451613014
 32
0.0
 13
-1031.418748153955
 23
-686.17391451613014
 33
0.0
  0
TEXT
  5
84D9
  8
0
 62
     0
 10
-1033.041367201575
 20
-686.21558118279665
 30
0.0
 40
0.125
  1
0.039 [1.00]
  0
POINT
  5
84DA
  8
DEFPOINTS
 62
     0
 10
-1031.418748153955
 20
-686.65066696072302
 30
0.0
  0
POINT
  5
84DB
  8
DEFPOINTS
 62
     0
 10
-1031.379378153955
 20
-686.69200546072307
 30
0.0
  0
POINT
  5
84DC
  8
DEFPOINTS
 62
     0
 10
-1031.379378153955
 20
-686.17391451613014
 30
0.0
  0
ENDBLK
  5
24C5
  8
0
  0
BLOCK
  8
0
  2
*D6
 70
     1
 10
0.0
 20
0.0
 30
0.0
  3
*D6
  1

  0
LINE
  5
84C9
  8
DIM
 62
     0
 10
-1031.418748153955
 20
-686.58816696072302
 30
0.0
 11
-1031.418748153955
 21
-685.28666406545165
 31
0.0
  0
LINE
  5
84CA
  8
DIM
 62
     0
 10
-1030.9856781539561
 20
-686.92281196072315
 30
0.0
 11
-1030.9856781539561
 21
-685.28666406545165
 31
0.0
  0
LINE
  5
84CB
  8
DIM
 62
     0
 10
-1031.598748153956
 20
-685.4666640654516
 30
0.0
 11
-1031.778748153956
 21
-685.4666640654516
 31
0.0
  0
LINE
  5
84CC
  8
DIM
 62
     0
 10
-1030.805678153956
 20
-685.4666640654516
 30
0.0
 11
-1030.625678153956
 21
-685.4666640654516
 31
0.0
  0
SOLID
  5
84CD
  8
DIM
 62
     0
 10
-1031.598748153956
 20
-685.43666406545174
 30
0.0
 11
-1031.598748153956
 21
-685.49666406545168
 31
0.0
 12
-1031.418748153955
 22
-685.4666640654516
 32
0.0
 13
-1031.418748153955
 23
-685.4666640654516
 33
0.0
  0
SOLID
  5
84CE
  8
DIM
 62
     0
 10
-1030.805678153956
 20
-685.43666406545174
 30
0.0
 11
-1030.805678153956
 21
-685.49666406545168
 31
0.0
 12
-1030.9856781539561
 22
-685.4666640654516
 32
0.0
 13
-1030.9856781539561
 23
-685.4666640654516
 33
0.0
  0
TEXT
  5
84CF
  8
0
 62
     0
 10
-1030.535678153956
 20
-685.50833073211834
 30
0.0
 40
0.125
  1
0.433 [11.00]
  0
POINT
  5
84D0
  8
DEFPOINTS
 62
     0
 10
-1031.418748153955
 20
-686.65066696072302
 30
0.0
  0
POINT
  5
84D1
  8
DEFPOINTS
 62
     0
 10
-1030.9856781539561
 20
-686.98531196072315
 30
0.0
  0
POINT
  5
84D2
  8
DEFPOINTS
 62
     0
 10
-1030.9856781539561
 20
-685.4666640654516
 30
0.0
  0
ENDBLK
  5
24F7
  8
0
  0
BLOCK
  8
0
  2
*D7
 70
     1
 10
0.0
 20
0.0
 30
0.0
  3
*D7
  1

  0
LINE
  5
84C1
  8
DIM
 62
     0
 10
-1030.6502668749181
 20
-689.64330534994815
 30
0.0
 11
-1030.8302668749179
 21
-689.64330534994815
 31
0.0
  0
LINE
  5
84C2
  8
DIM
 62
     0
 10
-1030.8302668749179
 20
-689.64330534994815
 30
0.0
 11
-1030.945140691867
 21
-689.5047268300417
 31
0.0
  0
TEXT
  5
84C3
  8
0
 62
     0
 10
-1030.560266874917
 20
-689.68497201661455
 30
0.0
 40
0.125
  1
R0.039 [R1.00]
  0
SOLID
  5
84C4
  8
DIM
 62
     0
 10
-1030.922044271882
 20
-689.48558119388315
 30
0.0
 11
-1030.9682371118511
 21
-689.52387246619969
 31
0.0
 12
-1031.060014508816
 22
-689.36614831013469
 32
0.0
 13
-1031.060014508816
 23
-689.36614831013469
 33
0.0
  0
LINE
  5
84C5
  8
DIM
 62
     0
 10
-1031.175139965334
 20
-689.33583810830874
 30
0.0
 11
-1030.9951399653339
 21
-689.33583810830885
 31
0.0
  0
LINE
  5
84C6
  8
DIM
 62
     0
 10
-1031.0851399653341
 20
-689.42583810830888
 30
0.0
 11
-1031.0851399653341
 21
-689.2458381083087
 31
0.0
  0
POINT
  5
84C7
  8
DEFPOINTS
 62
     0
 10
-1031.060014508816
 20
-689.36614831013469
 30
0.0
  0
POINT
  5
84C8
  8
DEFPOINTS
 62
     0
 10
-1031.0851399653341
 20
-689.33583810830874
 30
0.0
  0
ENDBLK
  5
250C
  8
0
  0
BLOCK
  8
0
  2
*D8
 70
     1
 10
0.0
 20
0.0
 30
0.0
  3
*D8
  1

  0
LINE
  5
84B7
  8
DIM
 62
     0
 10
-1031.418748153955
 20
-689.4493819607228
 30
0.0
 11
-1031.418748153955
 21
-690.59038408104755
 31
0.0
  0
LINE
  5
84B8
  8
DIM
 62
     0
 10
-1030.9856781539561
 20
-689.11473696072267
 30
0.0
 11
-1030.9856781539561
 21
-690.59038408104755
 31
0.0
  0
LINE
  5
84B9
  8
DIM
 62
     0
 10
-1030.805678153956
 20
-690.41038408104782
 30
0.0
 11
-1030.625678153956
 21
-690.41038408104782
 31
0.0
  0
LINE
  5
84BA
  8
DIM
 62
     0
 10
-1031.598748153956
 20
-690.41038408104782
 30
0.0
 11
-1031.778748153956
 21
-690.41038408104782
 31
0.0
  0
SOLID
  5
84BB
  8
DIM
 62
     0
 10
-1030.805678153956
 20
-690.38038408104785
 30
0.0
 11
-1030.805678153956
 21
-690.44038408104757
 31
0.0
 12
-1030.9856781539561
 22
-690.41038408104782
 32
0.0
 13
-1030.9856781539561
 23
-690.41038408104782
 33
0.0
  0
SOLID
  5
84BC
  8
DIM
 62
     0
 10
-1031.598748153956
 20
-690.38038408104785
 30
0.0
 11
-1031.598748153956
 21
-690.44038408104757
 31
0.0
 12
-1031.418748153955
 22
-690.41038408104782
 32
0.0
 13
-1031.418748153955
 23
-690.41038408104782
 33
0.0
  0
TEXT
  5
84BD
  8
0
 62
     0
 10
-1033.1366052968131
 20
-690.45205074771445
 30
0.0
 40
0.125
  1
0.433 [11.00]
  0
POINT
  5
84BE
  8
DEFPOINTS
 62
     0
 10
-1031.418748153955
 20
-689.38688196072292
 30
0.0
  0
POINT
  5
84BF
  8
DEFPOINTS
 62
     0
 10
-1030.9856781539561
 20
-689.05223696072278
 30
0.0
  0
POINT
  5
84C0
  8
DEFPOINTS
 62
     0
 10
-1030.9856781539561
 20
-690.41038408104782
 30
0.0
  0
ENDBLK
  5
27F0
  8
0
  0
BLOCK
  8
0
  2
*D9
 70
     1
 10
0.0
 20
0.0
 30
0.0
  3
*D9
  1

  0
LINE
  5
84AD
  8
DIM
 62
     0
 10
-1031.0053631539549
 20
-688.74142121822354
 30
0.0
 11
-1031.0053631539549
 21
-688.32403828651582
 31
0.0
  0
LINE
  5
84AE
  8
DIM
 62
     0
 10
-1030.9856781539561
 20
-688.74142121822354
 30
0.0
 11
-1030.9856781539561
 21
-688.32403828651582
 31
0.0
  0
LINE
  5
84AF
  8
DIM
 62
     0
 10
-1030.805678153956
 20
-688.50403828651565
 30
0.0
 11
-1030.625678153956
 21
-688.50403828651565
 31
0.0
  0
LINE
  5
84B0
  8
DIM
 62
     0
 10
-1031.1853631539559
 20
-688.50403828651565
 30
0.0
 11
-1031.792919463652
 21
-688.50403828651565
 31
0.0
  0
SOLID
  5
84B1
  8
DIM
 62
     0
 10
-1030.805678153956
 20
-688.47403828651579
 30
0.0
 11
-1030.805678153956
 21
-688.53403828651585
 31
0.0
 12
-1030.9856781539561
 22
-688.50403828651565
 32
0.0
 13
-1030.9856781539561
 23
-688.50403828651565
 33
0.0
  0
SOLID
  5
84B2
  8
DIM
 62
     0
 10
-1031.1853631539559
 20
-688.47403828651579
 30
0.0
 11
-1031.1853631539559
 21
-688.53403828651585
 31
0.0
 12
-1031.0053631539549
 22
-688.50403828651565
 32
0.0
 13
-1031.0053631539549
 23
-688.50403828651565
 33
0.0
  0
TEXT
  5
84B3
  8
0
 62
     0
 10
-1033.079348035081
 20
-688.54570495318228
 30
0.0
 40
0.125
  1
0.020 [0.50]
  0
POINT
  5
84B4
  8
DEFPOINTS
 62
     0
 10
-1031.0053631539549
 20
-688.80392121822354
 30
0.0
  0
POINT
  5
84B5
  8
DEFPOINTS
 62
     0
 10
-1030.9856781539561
 20
-688.80392121822354
 30
0.0
  0
POINT
  5
84B6
  8
DEFPOINTS
 62
     0
 10
-1030.9856781539561
 20
-688.50403828651565
 30
0.0
  0
ENDBLK
  5
280A
  8
0
  0
BLOCK
  8
0
  2
*D10
 70
     1
 10
0.0
 20
0.0
 30
0.0
  3
*D10
  1

  0
LINE
  5
84A3
  8
DIM
 62
     0
 10
-1028.3506139840399
 20
-687.05704700184322
 30
0.0
 11
-1028.3506139840399
 21
-685.75832205690347
 31
0.0
  0
LINE
  5
84A4
  8
DIM
 62
     0
 10
-1026.9332939840399
 20
-687.05704700184322
 30
0.0
 11
-1026.9332939840399
 21
-685.75832205690347
 31
0.0
  0
LINE
  5
84A5
  8
DIM
 62
     0
 10
-1028.1706139840401
 20
-685.93832205690364
 30
0.0
 11
-1027.11329398404
 21
-685.93832205690364
 31
0.0
  0
LINE
  5
84A6
  8
DIM
 62
     0
 10
-1026.9332939840399
 20
-685.93832205690364
 30
0.0
 11
-1026.7532939840401
 21
-685.93832205690364
 31
0.0
  0
SOLID
  5
84A7
  8
DIM
 62
     0
 10
-1028.1706139840401
 20
-685.90832205690344
 30
0.0
 11
-1028.1706139840401
 21
-685.96832205690362
 31
0.0
 12
-1028.3506139840399
 22
-685.93832205690364
 32
0.0
 13
-1028.3506139840399
 23
-685.93832205690364
 33
0.0
  0
SOLID
  5
84A8
  8
DIM
 62
     0
 10
-1027.11329398404
 20
-685.90832205690344
 30
0.0
 11
-1027.11329398404
 21
-685.96832205690362
 31
0.0
 12
-1026.9332939840399
 22
-685.93832205690364
 32
0.0
 13
-1026.9332939840399
 23
-685.93832205690364
 33
0.0
  0
TEXT
  5
84A9
  8
0
 62
     0
 10
-1026.6632939840399
 20
-685.97998872357016
 30
0.0
 40
0.125
  1
1.417 [36.00]
  0
POINT
  5
84AA
  8
DEFPOINTS
 62
     0
 10
-1028.3506139840399
 20
-687.11954700184322
 30
0.0
  0
POINT
  5
84AB
  8
DEFPOINTS
 62
     0
 10
-1026.9332939840399
 20
-687.11954700184322
 30
0.0
  0
POINT
  5
84AC
  8
DEFPOINTS
 62
     0
 10
-1026.9332939840399
 20
-685.93832205690364
 30
0.0
  0
ENDBLK
  5
2DD2
  8
0
  0
BLOCK
  8
0
  2
*D11
 70
     1
 10
0.0
 20
0.0
 30
0.0
  3
*D11
  1

  0
LINE
  5
8499
  8
DIM
 62
     0
 10
-1028.2375874667371
 20
-686.99685341212898
 30
0.0
 11
-1029.923491008019
 21
-686.99685341212898
 31
0.0
  0
LINE
  5
849A
  8
DIM
 62
     0
 10
-1028.2375874667371
 20
-688.96535341212893
 30
0.0
 11
-1029.923491008019
 21
-688.96535341212893
 31
0.0
  0
LINE
  5
849B
  8
DIM
 62
     0
 10
-1029.743491008019
 20
-687.17685341212893
 30
0.0
 11
-1029.743491008019
 21
-687.76270205483081
 31
0.0
  0
LINE
  5
849C
  8
DIM
 62
     0
 10
-1029.743491008019
 20
-688.78535341212898
 30
0.0
 11
-1029.743491008019
 21
-688.13317824530702
 31
0.0
  0
SOLID
  5
849D
  8
DIM
 62
     0
 10
-1029.7734910080189
 20
-687.17685341212893
 30
0.0
 11
-1029.713491008019
 21
-687.17685341212893
 31
0.0
 12
-1029.743491008019
 22
-686.99685341212898
 32
0.0
 13
-1029.743491008019
 23
-686.99685341212898
 33
0.0
  0
SOLID
  5
849E
  8
DIM
 62
     0
 10
-1029.7734910080189
 20
-688.78535341212898
 30
0.0
 11
-1029.713491008019
 21
-688.78535341212898
 31
0.0
 12
-1029.743491008019
 22
-688.96535341212893
 32
0.0
 13
-1029.743491008019
 23
-688.96535341212893
 33
0.0
  0
TEXT
  5
849F
  8
0
 62
     0
 10
-1030.3893243413529
 20
-687.98960681673555
 30
0.0
 40
0.125
  1
1.969 [50.00]
  0
POINT
  5
84A0
  8
DEFPOINTS
 62
     0
 10
-1028.1750874667371
 20
-686.99685341212898
 30
0.0
  0
POINT
  5
84A1
  8
DEFPOINTS
 62
     0
 10
-1028.1750874667371
 20
-688.96535341212893
 30
0.0
  0
POINT
  5
84A2
  8
DEFPOINTS
 62
     0
 10
-1029.743491008019
 20
-688.96535341212893
 30
0.0
  0
ENDBLK
  5
2DEA
  8
0
  0
BLOCK
  8
0
  2
*D12
 70
     1
 10
0.0
 20
0.0
 30
0.0
  3
*D12
  1

  0
LINE
  5
8491
  8
DIM
 62
     0
 10
-1026.29570014774
 20
-686.31524303934668
 30
0.0
 11
-1026.4757001477401
 21
-686.31524303934657
 31
0.0
  0
LINE
  5
8492
  8
DIM
 62
     0
 10
-1026.4757001477401
 20
-686.31524303934657
 30
0.0
 11
-1026.713915756827
 21
-686.61507365500813
 31
0.0
  0
TEXT
  5
8493
  8
0
 62
     0
 10
-1026.2057001477399
 20
-686.35690970601286
 30
0.0
 40
0.125
  1
R0.394 [R10.00]
  0
SOLID
  5
8494
  8
DIM
 62
     0
 10
-1026.737404700744
 20
-686.59641167457664
 30
0.0
 11
-1026.690426812909
 21
-686.63373563543951
 31
0.0
 12
-1026.8258876394141
 22
-686.7560073185158
 32
0.0
 13
-1026.8258876394141
 23
-686.7560073185158
 33
0.0
  0
LINE
  5
8495
  8
DIM
 62
     0
 10
-1027.160795029276
 20
-687.06426055919906
 30
0.0
 11
-1026.980795029275
 21
-687.06426055919894
 31
0.0
  0
LINE
  5
8496
  8
DIM
 62
     0
 10
-1027.070795029276
 20
-687.1542605591992
 30
0.0
 11
-1027.070795029276
 21
-686.97426055919914
 31
0.0
  0
POINT
  5
8497
  8
DEFPOINTS
 62
     0
 10
-1026.8258876394141
 20
-686.7560073185158
 30
0.0
  0
POINT
  5
8498
  8
DEFPOINTS
 62
     0
 10
-1027.070795029276
 20
-687.06426055919894
 30
0.0
  0
ENDBLK
  5
3B6F
  8
0
  0
BLOCK
  8
0
  2
*D13
 70
     1
 10
0.0
 20
0.0
 30
0.0
  3
*D13
  1

  0
LINE
  5
8489
  8
DIM
 62
     0
 10
-1029.013311759059
 20
-686.28406477083911
 30
0.0
 11
-1028.8333117590589
 21
-686.28406477083922
 31
0.0
  0
LINE
  5
848A
  8
DIM
 62
     0
 10
-1028.8333117590589
 20
-686.28406477083922
 30
0.0
 11
-1028.428896695
 21
-686.86024122997173
 31
0.0
  0
TEXT
  5
848B
  8
0
 62
     0
 10
-1030.5259308066779
 20
-686.32573143750574
 30
0.0
 40
0.125
  1
R0.059 [R1.50]
  0
SOLID
  5
848C
  8
DIM
 62
     0
 10
-1028.4043416115901
 20
-686.84300615298628
 30
0.0
 11
-1028.45345177841
 21
-686.87747630695719
 31
0.0
 12
-1028.3254862330859
 22
-687.00757173043496
 32
0.0
 13
-1028.3254862330859
 23
-687.00757173043496
 33
0.0
  0
LINE
  5
848D
  8
DIM
 62
     0
 10
-1028.3815589840401
 20
-687.05590841212847
 30
0.0
 11
-1028.20155898404
 21
-687.05590841212859
 31
0.0
  0
LINE
  5
848E
  8
DIM
 62
     0
 10
-1028.29155898404
 20
-687.14590841212816
 30
0.0
 11
-1028.29155898404
 21
-686.96590841212833
 31
0.0
  0
POINT
  5
848F
  8
DEFPOINTS
 62
     0
 10
-1028.3254862330859
 20
-687.00757173043496
 30
0.0
  0
POINT
  5
8490
  8
DEFPOINTS
 62
     0
 10
-1028.29155898404
 20
-687.05590841212859
 30
0.0
  0
ENDBLK
  5
3B7F
  8
0
  0
BLOCK
  8
0
  2
*D14
 70
     1
 10
0.0
 20
0.0
 30
0.0
  3
*D14
  1

  0
LINE
  5
84F1
  8
DIM
 62
     0
 10
-1020.89963833948
 20
-686.04727250032931
 30
0.0
 11
-1020.89963833948
 21
-685.44024982614587
 31
0.0
  0
LINE
  5
84F2
  8
DIM
 62
     0
 10
-1020.07286833948
 20
-686.14036121743891
 30
0.0
 11
-1020.07286833948
 21
-685.44024982614587
 31
0.0
  0
LINE
  5
84F3
  8
DIM
 62
     0
 10
-1020.25286833948
 20
-685.62024982614582
 30
0.0
 11
-1020.71963833948
 21
-685.62024982614582
 31
0.0
  0
LINE
  5
84F4
  8
DIM
 62
     0
 10
-1020.89963833948
 20
-685.62024982614582
 30
0.0
 11
-1021.118034637473
 21
-685.62024982614582
 31
0.0
  0
SOLID
  5
84F5
  8
DIM
 62
     0
 10
-1020.25286833948
 20
-685.59024982614596
 30
0.0
 11
-1020.25286833948
 21
-685.65024982614591
 31
0.0
 12
-1020.07286833948
 22
-685.62024982614582
 32
0.0
 13
-1020.07286833948
 23
-685.62024982614582
 33
0.0
  0
SOLID
  5
84F6
  8
DIM
 62
     0
 10
-1020.71963833948
 20
-685.59024982614596
 30
0.0
 11
-1020.71963833948
 21
-685.65024982614591
 31
0.0
 12
-1020.89963833948
 22
-685.62024982614582
 32
0.0
 13
-1020.89963833948
 23
-685.62024982614582
 33
0.0
  0
TEXT
  5
84F7
  8
0
 62
     0
 10
-1022.49970130414
 20
-685.66191649281245
 30
0.0
 40
0.125
  1
0.827 [21.00]
  0
POINT
  5
84F8
  8
DEFPOINTS
 62
     0
 10
-1020.89963833948
 20
-686.1097725003292
 30
0.0
  0
POINT
  5
84F9
  8
DEFPOINTS
 62
     0
 10
-1020.07286833948
 20
-686.20286121743868
 30
0.0
  0
POINT
  5
84FA
  8
DEFPOINTS
 62
     0
 10
-1020.07286833948
 20
-685.62024982614582
 30
0.0
  0
ENDBLK
  5
42BB
  8
0
  0
BLOCK
  8
0
  2
*D15
 70
     1
 10
0.0
 20
0.0
 30
0.0
  3
*D15
  1

  0
LINE
  5
84E7
  8
DIM
 62
     0
 10
-1020.60780833948
 20
-688.73238371743867
 30
0.0
 11
-1021.988062510159
 21
-688.73238371743867
 31
0.0
  0
LINE
  5
84E8
  8
DIM
 62
     0
 10
-1020.60780833948
 20
-685.99616871743865
 30
0.0
 11
-1021.988062510159
 21
-685.99616871743865
 31
0.0
  0
LINE
  5
84E9
  8
DIM
 62
     0
 10
-1021.8080625101589
 20
-688.55238371743883
 30
0.0
 11
-1021.8080625101589
 21
-687.61598191365567
 31
0.0
  0
LINE
  5
84EA
  8
DIM
 62
     0
 10
-1021.8080625101589
 20
-686.17616871743871
 30
0.0
 11
-1021.8080625101589
 21
-687.24550572317946
 31
0.0
  0
SOLID
  5
84EB
  8
DIM
 62
     0
 10
-1021.8380625101599
 20
-688.55238371743883
 30
0.0
 11
-1021.778062510159
 21
-688.55238371743883
 31
0.0
 12
-1021.8080625101589
 22
-688.73238371743867
 32
0.0
 13
-1021.8080625101589
 23
-688.73238371743867
 33
0.0
  0
SOLID
  5
84EC
  8
DIM
 62
     0
 10
-1021.8380625101599
 20
-686.17616871743871
 30
0.0
 11
-1021.778062510159
 21
-686.17616871743871
 31
0.0
 12
-1021.8080625101589
 22
-685.99616871743865
 32
0.0
 13
-1021.8080625101589
 23
-685.99616871743865
 33
0.0
  0
TEXT
  5
84ED
  8
0
 62
     0
 10
-1022.465800605397
 20
-687.47241048508442
 30
0.0
 40
0.125
  1
2.736 [69.50]
  0
POINT
  5
84EE
  8
DEFPOINTS
 62
     0
 10
-1020.54530833948
 20
-688.73238371743867
 30
0.0
  0
POINT
  5
84EF
  8
DEFPOINTS
 62
     0
 10
-1020.54530833948
 20
-685.99616871743865
 30
0.0
  0
POINT
  5
84F0
  8
DEFPOINTS
 62
     0
 10
-1021.8080625101589
 20
-685.99616871743865
 30
0.0
  0
ENDBLK
  5
4386
  8
0
  0
BLOCK
  8
0
  2
*D16
 70
     1
 10
0.0
 20
0.0
 30
0.0
  3
*D16
  1

  0
LINE
  5
83DE
  8
DIM
 62
     0
 10
-1036.9274739061259
 20
-681.28715455948566
 30
0.0
 11
-1036.9274739061259
 21
-681.13193819587673
 31
0.0
  0
LINE
  5
83DF
  8
DIM
 62
     0
 10
-1036.838891406125
 20
-681.28715455948566
 30
0.0
 11
-1036.838891406125
 21
-681.13193819587673
 31
0.0
  0
LINE
  5
83E0
  8
DIM
 62
     0
 10
-1036.658891406126
 20
-681.31193819587679
 30
0.0
 11
-1036.478891406126
 21
-681.31193819587679
 31
0.0
  0
LINE
  5
83E1
  8
DIM
 62
     0
 10
-1037.107473906126
 20
-681.31193819587679
 30
0.0
 11
-1037.2874739061249
 21
-681.31193819587679
 31
0.0
  0
SOLID
  5
83E2
  8
DIM
 62
     0
 10
-1036.658891406126
 20
-681.28193819587671
 30
0.0
 11
-1036.658891406126
 21
-681.34193819587665
 31
0.0
 12
-1036.838891406125
 22
-681.31193819587679
 32
0.0
 13
-1036.838891406125
 23
-681.31193819587679
 33
0.0
  0
SOLID
  5
83E3
  8
DIM
 62
     0
 10
-1037.107473906126
 20
-681.28193819587671
 30
0.0
 11
-1037.107473906126
 21
-681.34193819587665
 31
0.0
 12
-1036.9274739061259
 22
-681.31193819587679
 32
0.0
 13
-1036.9274739061259
 23
-681.31193819587679
 33
0.0
  0
TEXT
  5
83E4
  8
0
 62
     0
 10
-1038.5739024775539
 20
-681.35360486254342
 30
0.0
 40
0.125
  1
0.089 [2.25]
  0
POINT
  5
83E5
  8
DEFPOINTS
 62
     0
 10
-1036.9274739061259
 20
-681.34965455948566
 30
0.0
  0
POINT
  5
83E6
  8
DEFPOINTS
 62
     0
 10
-1036.838891406125
 20
-681.34965455948566
 30
0.0
  0
POINT
  5
83E7
  8
DEFPOINTS
 62
     0
 10
-1036.838891406125
 20
-681.31193819587679
 30
0.0
  0
ENDBLK
  5
4B69
  8
0
  0
BLOCK
  8
0
  2
*D17
 70
     1
 10
0.0
 20
0.0
 30
0.0
  3
*D17
  1

  0
LINE
  5
843C
  8
DIM
 62
     0
 10
-1032.6520789981721
 20
-680.26697955948589
 30
0.0
 11
-1033.1774463376771
 21
-680.26697955948589
 31
0.0
  0
LINE
  5
843D
  8
DIM
 62
     0
 10
-1032.6520789981721
 20
-680.48351455948591
 30
0.0
 11
-1033.1774463376771
 21
-680.48351455948591
 31
0.0
  0
LINE
  5
843E
  8
DIM
 62
     0
 10
-1032.997446337678
 20
-680.08697955948583
 30
0.0
 11
-1032.997446337678
 21
-679.90697955948565
 31
0.0
  0
LINE
  5
843F
  8
DIM
 62
     0
 10
-1032.997446337678
 20
-680.66351455948575
 30
0.0
 11
-1032.997446337678
 21
-680.94808518313027
 31
0.0
  0
LINE
  5
8440
  8
DIM
 62
     0
 10
-1032.997446337678
 20
-680.94808518313027
 30
0.0
 11
-1033.1774463376771
 21
-680.94808518313027
 31
0.0
  0
SOLID
  5
8441
  8
DIM
 62
     0
 10
-1033.0274463376779
 20
-680.08697955948583
 30
0.0
 11
-1032.9674463376771
 21
-680.08697955948583
 31
0.0
 12
-1032.997446337678
 22
-680.26697955948589
 32
0.0
 13
-1032.997446337678
 23
-680.26697955948589
 33
0.0
  0
SOLID
  5
8442
  8
DIM
 62
     0
 10
-1033.0274463376779
 20
-680.66351455948575
 30
0.0
 11
-1032.9674463376771
 21
-680.66351455948575
 31
0.0
 12
-1032.997446337678
 22
-680.48351455948591
 32
0.0
 13
-1032.997446337678
 23
-680.48351455948591
 33
0.0
  0
TEXT
  5
8443
  8
0
 62
     0
 10
-1034.4400653852961
 20
-680.9897518497969
 30
0.0
 40
0.125
  1
0.217 [5.50]
  0
POINT
  5
8444
  8
DEFPOINTS
 62
     0
 10
-1032.5895789981721
 20
-680.26697955948589
 30
0.0
  0
POINT
  5
8445
  8
DEFPOINTS
 62
     0
 10
-1032.5895789981721
 20
-680.48351455948591
 30
0.0
  0
POINT
  5
8446
  8
DEFPOINTS
 62
     0
 10
-1032.997446337678
 20
-680.48351455948591
 30
0.0
  0
ENDBLK
  5
4B82
  8
0
  0
BLOCK
  8
0
  2
*D18
 70
     1
 10
0.0
 20
0.0
 30
0.0
  3
*D18
  1

  0
LINE
  5
83CC
  8
DIM
 62
     0
 10
-1032.569893998171
 20
-682.29010555948582
 30
0.0
 11
-1032.569893998171
 21
-684.1671798136565
 31
0.0
  0
LINE
  5
83CD
  8
DIM
 62
     0
 10
-1032.5895789981721
 20
-682.6666582765954
 30
0.0
 11
-1032.5895789981721
 21
-684.1671798136565
 31
0.0
  0
LINE
  5
83CE
  8
DIM
 62
     0
 10
-1032.3898939981721
 20
-683.98717981365644
 30
0.0
 11
-1032.209893998172
 21
-683.98717981365644
 31
0.0
  0
LINE
  5
83CF
  8
DIM
 62
     0
 10
-1032.769578998171
 20
-683.98717981365644
 30
0.0
 11
-1032.949578998172
 21
-683.98717981365644
 31
0.0
  0
SOLID
  5
83D0
  8
DIM
 62
     0
 10
-1032.3898939981721
 20
-683.95717981365658
 30
0.0
 11
-1032.3898939981721
 21
-684.01717981365641
 31
0.0
 12
-1032.569893998171
 22
-683.98717981365644
 32
0.0
 13
-1032.569893998171
 23
-683.98717981365644
 33
0.0
  0
SOLID
  5
83D1
  8
DIM
 62
     0
 10
-1032.769578998171
 20
-683.95717981365658
 30
0.0
 11
-1032.769578998171
 21
-684.01717981365641
 31
0.0
 12
-1032.5895789981721
 22
-683.98717981365644
 32
0.0
 13
-1032.5895789981721
 23
-683.98717981365644
 33
0.0
  0
TEXT
  5
83D2
  8
0
 62
     0
 10
-1034.2360075695999
 20
-684.02884648032295
 30
0.0
 40
0.125
  1
0.020 [0.50]
  0
POINT
  5
83D3
  8
DEFPOINTS
 62
     0
 10
-1032.569893998171
 20
-682.22760555948582
 30
0.0
  0
POINT
  5
83D4
  8
DEFPOINTS
 62
     0
 10
-1032.5895789981721
 20
-682.60415827659551
 30
0.0
  0
POINT
  5
83D5
  8
DEFPOINTS
 62
     0
 10
-1032.5895789981721
 20
-683.98717981365644
 30
0.0
  0
ENDBLK
  5
4B90
  8
0
  0
BLOCK
  8
0
  2
*D19
 70
     1
 10
0.0
 20
0.0
 30
0.0
  3
*D19
  1

  0
LINE
  5
8432
  8
DIM
 62
     0
 10
-1025.0639069916081
 20
-679.96432255948582
 30
0.0
 11
-1025.0639069916081
 21
-679.36218363223088
 31
0.0
  0
LINE
  5
8433
  8
DIM
 62
     0
 10
-1025.004851991609
 20
-679.91904705948582
 30
0.0
 11
-1025.004851991609
 21
-679.36218363223088
 31
0.0
  0
LINE
  5
8434
  8
DIM
 62
     0
 10
-1025.2439069916099
 20
-679.54218363223117
 30
0.0
 11
-1025.4239069916091
 21
-679.54218363223117
 31
0.0
  0
LINE
  5
8435
  8
DIM
 62
     0
 10
-1024.8248519916101
 20
-679.54218363223117
 30
0.0
 11
-1024.6448519916089
 21
-679.54218363223117
 31
0.0
  0
SOLID
  5
8436
  8
DIM
 62
     0
 10
-1025.2439069916099
 20
-679.51218363223097
 30
0.0
 11
-1025.2439069916099
 21
-679.57218363223103
 31
0.0
 12
-1025.0639069916081
 22
-679.54218363223117
 32
0.0
 13
-1025.0639069916081
 23
-679.54218363223117
 33
0.0
  0
SOLID
  5
8437
  8
DIM
 62
     0
 10
-1024.8248519916101
 20
-679.51218363223097
 30
0.0
 11
-1024.8248519916101
 21
-679.57218363223103
 31
0.0
 12
-1025.004851991609
 22
-679.54218363223117
 32
0.0
 13
-1025.004851991609
 23
-679.54218363223117
 33
0.0
  0
TEXT
  5
8438
  8
0
 62
     0
 10
-1024.554851991609
 20
-679.5838502988978
 30
0.0
 40
0.125
  1
0.059 [1.50]
  0
POINT
  5
8439
  8
DEFPOINTS
 62
     0
 10
-1025.0639069916081
 20
-680.02682255948582
 30
0.0
  0
POINT
  5
843A
  8
DEFPOINTS
 62
     0
 10
-1025.004851991609
 20
-679.98154705948571
 30
0.0
  0
POINT
  5
843B
  8
DEFPOINTS
 62
     0
 10
-1025.004851991609
 20
-679.54218363223117
 30
0.0
  0
ENDBLK
  5
4B9E
  8
0
  0
BLOCK
  8
0
  2
*D20
 70
     1
 10
0.0
 20
0.0
 30
0.0
  3
*D20
  1

  0
LINE
  5
83C2
  8
DIM
 62
     0
 10
-1025.004851991609
 20
-682.78026205948584
 30
0.0
 11
-1025.004851991609
 21
-683.31929036680265
 31
0.0
  0
LINE
  5
83C3
  8
DIM
 62
     0
 10
-1024.67020699161
 20
-682.6666582765954
 30
0.0
 11
-1024.67020699161
 21
-683.31929036680265
 31
0.0
  0
LINE
  5
83C4
  8
DIM
 62
     0
 10
-1025.18485199161
 20
-683.13929036680247
 30
0.0
 11
-1025.364851991608
 21
-683.13929036680247
 31
0.0
  0
LINE
  5
83C5
  8
DIM
 62
     0
 10
-1024.4902069916091
 20
-683.13929036680247
 30
0.0
 11
-1024.3102069916099
 21
-683.13929036680247
 31
0.0
  0
SOLID
  5
83C6
  8
DIM
 62
     0
 10
-1025.18485199161
 20
-683.10929036680272
 30
0.0
 11
-1025.18485199161
 21
-683.16929036680256
 31
0.0
 12
-1025.004851991609
 22
-683.13929036680247
 32
0.0
 13
-1025.004851991609
 23
-683.13929036680247
 33
0.0
  0
SOLID
  5
83C7
  8
DIM
 62
     0
 10
-1024.4902069916091
 20
-683.10929036680272
 30
0.0
 11
-1024.4902069916091
 21
-683.16929036680256
 31
0.0
 12
-1024.67020699161
 22
-683.13929036680247
 32
0.0
 13
-1024.67020699161
 23
-683.13929036680247
 33
0.0
  0
TEXT
  5
83C8
  8
0
 62
     0
 10
-1024.2202069916091
 20
-683.18095703346921
 30
0.0
 40
0.125
  1
0.335 [8.50]
  0
POINT
  5
83C9
  8
DEFPOINTS
 62
     0
 10
-1025.004851991609
 20
-682.71776205948584
 30
0.0
  0
POINT
  5
83CA
  8
DEFPOINTS
 62
     0
 10
-1024.67020699161
 20
-682.60415827659551
 30
0.0
  0
POINT
  5
83CB
  8
DEFPOINTS
 62
     0
 10
-1024.67020699161
 20
-683.13929036680247
 30
0.0
  0
ENDBLK
  5
4BAA
  8
0
  0
BLOCK
  8
0
  2
*D21
 70
     1
 10
0.0
 20
0.0
 30
0.0
  3
*D21
  1

  0
LINE
  5
83B8
  8
DIM
 62
     0
 10
-1025.0639069916081
 20
-682.73498655948583
 30
0.0
 11
-1025.0639069916081
 21
-683.9230904455477
 31
0.0
  0
LINE
  5
83B9
  8
DIM
 62
     0
 10
-1025.004851991609
 20
-682.78026205948584
 30
0.0
 11
-1025.004851991609
 21
-683.9230904455477
 31
0.0
  0
LINE
  5
83BA
  8
DIM
 62
     0
 10
-1025.2439069916099
 20
-683.74309044554775
 30
0.0
 11
-1025.4239069916091
 21
-683.74309044554775
 31
0.0
  0
LINE
  5
83BB
  8
DIM
 62
     0
 10
-1024.8248519916101
 20
-683.74309044554775
 30
0.0
 11
-1024.6448519916089
 21
-683.74309044554775
 31
0.0
  0
SOLID
  5
83BC
  8
DIM
 62
     0
 10
-1025.2439069916099
 20
-683.71309044554755
 30
0.0
 11
-1025.2439069916099
 21
-683.77309044554772
 31
0.0
 12
-1025.0639069916081
 22
-683.74309044554775
 32
0.0
 13
-1025.0639069916081
 23
-683.74309044554775
 33
0.0
  0
SOLID
  5
83BD
  8
DIM
 62
     0
 10
-1024.8248519916101
 20
-683.71309044554755
 30
0.0
 11
-1024.8248519916101
 21
-683.77309044554772
 31
0.0
 12
-1025.004851991609
 22
-683.74309044554775
 32
0.0
 13
-1025.004851991609
 23
-683.74309044554775
 33
0.0
  0
TEXT
  5
83BE
  8
0
 62
     0
 10
-1024.554851991609
 20
-683.78475711221438
 30
0.0
 40
0.125
  1
0.059 [1.50]
  0
POINT
  5
83BF
  8
DEFPOINTS
 62
     0
 10
-1025.0639069916081
 20
-682.67248655948583
 30
0.0
  0
POINT
  5
83C0
  8
DEFPOINTS
 62
     0
 10
-1025.004851991609
 20
-682.71776205948584
 30
0.0
  0
POINT
  5
83C1
  8
DEFPOINTS
 62
     0
 10
-1025.004851991609
 20
-683.74309044554775
 30
0.0
  0
ENDBLK
  5
4BB8
  8
0
  0
BLOCK
  8
0
  2
*D22
 70
     1
 10
0.0
 20
0.0
 30
0.0
  3
*D22
  1

  0
LINE
  5
83AE
  8
DIM
 62
     0
 10
-1028.937264301617
 20
-681.41215455948588
 30
0.0
 11
-1028.937264301617
 21
-684.28489574606203
 31
0.0
  0
LINE
  5
83AF
  8
DIM
 62
     0
 10
-1026.9490793016171
 20
-681.41215455948588
 30
0.0
 11
-1026.9490793016171
 21
-684.28489574606203
 31
0.0
  0
LINE
  5
83B0
  8
DIM
 62
     0
 10
-1029.1172643016171
 20
-684.10489574606186
 30
0.0
 11
-1029.297264301616
 21
-684.10489574606186
 31
0.0
  0
LINE
  5
83B1
  8
DIM
 62
     0
 10
-1026.769079301617
 20
-684.10489574606186
 30
0.0
 11
-1026.5890793016169
 21
-684.10489574606186
 31
0.0
  0
SOLID
  5
83B2
  8
DIM
 62
     0
 10
-1029.1172643016171
 20
-684.07489574606211
 30
0.0
 11
-1029.1172643016171
 21
-684.13489574606206
 31
0.0
 12
-1028.937264301617
 22
-684.10489574606186
 32
0.0
 13
-1028.937264301617
 23
-684.10489574606186
 33
0.0
  0
SOLID
  5
83B3
  8
DIM
 62
     0
 10
-1026.769079301617
 20
-684.07489574606211
 30
0.0
 11
-1026.769079301617
 21
-684.13489574606206
 31
0.0
 12
-1026.9490793016171
 22
-684.10489574606186
 32
0.0
 13
-1026.9490793016171
 23
-684.10489574606186
 33
0.0
  0
TEXT
  5
83B4
  8
0
 62
     0
 10
-1028.7381603022659
 20
-684.1465624127286
 30
0.0
 40
0.125
  1
1.988 [50.50]
  0
POINT
  5
83B5
  8
DEFPOINTS
 62
     0
 10
-1028.937264301617
 20
-681.34965455948566
 30
0.0
  0
POINT
  5
83B6
  8
DEFPOINTS
 62
     0
 10
-1026.9490793016171
 20
-681.34965455948566
 30
0.0
  0
POINT
  5
83B7
  8
DEFPOINTS
 62
     0
 10
-1026.9490793016171
 20
-684.10489574606186
 30
0.0
  0
ENDBLK
  5
4BC4
  8
0
  0
BLOCK
  8
0
  2
*D23
 70
     1
 10
0.0
 20
0.0
 30
0.0
  3
*D23
  1

  0
LINE
  5
83A4
  8
DIM
 62
     0
 10
-1028.0056718016169
 20
-679.98154705948571
 30
0.0
 11
-1031.2530794813231
 21
-679.98154705948571
 31
0.0
  0
LINE
  5
83A5
  8
DIM
 62
     0
 10
-1028.0056718016169
 20
-682.71776205948584
 30
0.0
 11
-1031.2530794813231
 21
-682.71776205948584
 31
0.0
  0
LINE
  5
83A6
  8
DIM
 62
     0
 10
-1031.073079481323
 20
-680.16154705948588
 30
0.0
 11
-1031.073079481323
 21
-681.73105241218195
 31
0.0
  0
LINE
  5
83A7
  8
DIM
 62
     0
 10
-1031.073079481323
 20
-682.53776205948566
 30
0.0
 11
-1031.073079481323
 21
-682.10152860265816
 31
0.0
  0
SOLID
  5
83A8
  8
DIM
 62
     0
 10
-1031.1030794813239
 20
-680.16154705948588
 30
0.0
 11
-1031.043079481323
 21
-680.16154705948588
 31
0.0
 12
-1031.073079481323
 22
-679.98154705948571
 32
0.0
 13
-1031.073079481323
 23
-679.98154705948571
 33
0.0
  0
SOLID
  5
83A9
  8
DIM
 62
     0
 10
-1031.1030794813239
 20
-682.53776205948566
 30
0.0
 11
-1031.043079481323
 21
-682.53776205948566
 31
0.0
 12
-1031.073079481323
 22
-682.71776205948584
 32
0.0
 13
-1031.073079481323
 23
-682.71776205948584
 33
0.0
  0
TEXT
  5
83AA
  8
0
 62
     0
 10
-1031.730817576562
 20
-681.9579571740868
 30
0.0
 40
0.125
  1
2.736 [69.50]
  0
POINT
  5
83AB
  8
DEFPOINTS
 62
     0
 10
-1027.943171801616
 20
-679.98154705948571
 30
0.0
  0
POINT
  5
83AC
  8
DEFPOINTS
 62
     0
 10
-1027.943171801616
 20
-682.71776205948584
 30
0.0
  0
POINT
  5
83AD
  8
DEFPOINTS
 62
     0
 10
-1031.073079481323
 20
-682.71776205948584
 30
0.0
  0
ENDBLK
  5
4BD0
  8
0
  0
BLOCK
  8
0
  2
*D24
 70
     1
 10
0.0
 20
0.0
 30
0.0
  3
*D24
  1

  0
LINE
  5
8428
  8
DIM
 62
     0
 10
-1028.592776801617
 20
-680.3127470594859
 30
0.0
 11
-1028.592776801617
 21
-678.63663699580081
 31
0.0
  0
LINE
  5
8429
  8
DIM
 62
     0
 10
-1027.293566801616
 20
-680.3127470594859
 30
0.0
 11
-1027.293566801616
 21
-678.63663699580081
 31
0.0
  0
LINE
  5
842A
  8
DIM
 62
     0
 10
-1027.4735668016169
 20
-678.81663699580065
 30
0.0
 11
-1028.412776801616
 21
-678.81663699580065
 31
0.0
  0
LINE
  5
842B
  8
DIM
 62
     0
 10
-1028.592776801617
 20
-678.81663699580065
 30
0.0
 11
-1028.7727768016171
 21
-678.81663699580065
 31
0.0
  0
SOLID
  5
842C
  8
DIM
 62
     0
 10
-1027.4735668016169
 20
-678.7866369958009
 30
0.0
 11
-1027.4735668016169
 21
-678.84663699580074
 31
0.0
 12
-1027.293566801616
 22
-678.81663699580065
 32
0.0
 13
-1027.293566801616
 23
-678.81663699580065
 33
0.0
  0
SOLID
  5
842D
  8
DIM
 62
     0
 10
-1028.412776801616
 20
-678.7866369958009
 30
0.0
 11
-1028.412776801616
 21
-678.84663699580074
 31
0.0
 12
-1028.592776801617
 22
-678.81663699580065
 32
0.0
 13
-1028.592776801617
 23
-678.81663699580065
 33
0.0
  0
TEXT
  5
842E
  8
0
 62
     0
 10
-1030.1544434682839
 20
-678.85830366246728
 30
0.0
 40
0.125
  1
1.299 [33.00]
  0
POINT
  5
842F
  8
DEFPOINTS
 62
     0
 10
-1028.592776801617
 20
-680.3752470594859
 30
0.0
  0
POINT
  5
8430
  8
DEFPOINTS
 62
     0
 10
-1027.293566801616
 20
-680.3752470594859
 30
0.0
  0
POINT
  5
8431
  8
DEFPOINTS
 62
     0
 10
-1027.293566801616
 20
-678.81663699580065
 30
0.0
  0
ENDBLK
  5
4BDC
  8
0
  0
BLOCK
  8
0
  2
*D25
 70
     1
 10
0.0
 20
0.0
 30
0.0
  3
*D25
  1

  0
LINE
  5
839A
  8
DIM
 62
     0
 10
-1028.655276801617
 20
-680.3752470594859
 30
0.0
 11
-1030.4720986930231
 21
-680.3752470594859
 31
0.0
  0
LINE
  5
839B
  8
DIM
 62
     0
 10
-1028.655276801617
 20
-682.32406205948587
 30
0.0
 11
-1030.4720986930231
 21
-682.32406205948587
 31
0.0
  0
LINE
  5
839C
  8
DIM
 62
     0
 10
-1030.292098693023
 20
-680.55524705948574
 30
0.0
 11
-1030.292098693023
 21
-680.75759965611417
 31
0.0
  0
LINE
  5
839D
  8
DIM
 62
     0
 10
-1030.292098693023
 20
-682.1440620594858
 30
0.0
 11
-1030.292098693023
 21
-681.1280758465906
 31
0.0
  0
SOLID
  5
839E
  8
DIM
 62
     0
 10
-1030.322098693023
 20
-680.55524705948574
 30
0.0
 11
-1030.2620986930231
 21
-680.55524705948574
 31
0.0
 12
-1030.292098693023
 22
-680.3752470594859
 32
0.0
 13
-1030.292098693023
 23
-680.3752470594859
 33
0.0
  0
SOLID
  5
839F
  8
DIM
 62
     0
 10
-1030.322098693023
 20
-682.1440620594858
 30
0.0
 11
-1030.2620986930231
 21
-682.1440620594858
 31
0.0
 12
-1030.292098693023
 22
-682.32406205948587
 32
0.0
 13
-1030.292098693023
 23
-682.32406205948587
 33
0.0
  0
TEXT
  5
83A0
  8
0
 62
     0
 10
-1030.9379320263549
 20
-680.98450441801924
 30
0.0
 40
0.125
  1
1.949 [49.50]
  0
POINT
  5
83A1
  8
DEFPOINTS
 62
     0
 10
-1028.592776801617
 20
-680.3752470594859
 30
0.0
  0
POINT
  5
83A2
  8
DEFPOINTS
 62
     0
 10
-1028.592776801617
 20
-682.32406205948587
 30
0.0
  0
POINT
  5
83A3
  8
DEFPOINTS
 62
     0
 10
-1030.292098693023
 20
-682.32406205948587
 30
0.0
  0
ENDBLK
  5
4BE8
  8
0
  0
BLOCK
  8
0
  2
*D26
 70
     1
 10
0.0
 20
0.0
 30
0.0
  3
*D26
  1

  0
LINE
  5
841E
  8
DIM
 62
     0
 10
-1032.5895789981721
 20
-680.03265084237626
 30
0.0
 11
-1032.5895789981721
 21
-679.07955381661316
 31
0.0
  0
LINE
  5
841F
  8
DIM
 62
     0
 10
-1032.3376109981721
 20
-680.20447955948566
 30
0.0
 11
-1032.3376109981721
 21
-679.07955381661316
 31
0.0
  0
LINE
  5
8420
  8
DIM
 62
     0
 10
-1032.769578998171
 20
-679.25955381661311
 30
0.0
 11
-1032.949578998172
 21
-679.25955381661311
 31
0.0
  0
LINE
  5
8421
  8
DIM
 62
     0
 10
-1032.157610998172
 20
-679.25955381661311
 30
0.0
 11
-1031.977610998171
 21
-679.25955381661311
 31
0.0
  0
SOLID
  5
8422
  8
DIM
 62
     0
 10
-1032.769578998171
 20
-679.22955381661313
 30
0.0
 11
-1032.769578998171
 21
-679.28955381661297
 31
0.0
 12
-1032.5895789981721
 22
-679.25955381661311
 32
0.0
 13
-1032.5895789981721
 23
-679.25955381661311
 33
0.0
  0
SOLID
  5
8423
  8
DIM
 62
     0
 10
-1032.157610998172
 20
-679.22955381661313
 30
0.0
 11
-1032.157610998172
 21
-679.28955381661297
 31
0.0
 12
-1032.3376109981721
 22
-679.25955381661311
 32
0.0
 13
-1032.3376109981721
 23
-679.25955381661311
 33
0.0
  0
TEXT
  5
8424
  8
0
 62
     0
 10
-1031.887610998172
 20
-679.30122048327974
 30
0.0
 40
0.125
  1
0.252 [6.40]
  0
POINT
  5
8425
  8
DEFPOINTS
 62
     0
 10
-1032.5895789981721
 20
-680.09515084237626
 30
0.0
  0
POINT
  5
8426
  8
DEFPOINTS
 62
     0
 10
-1032.3376109981721
 20
-680.26697955948589
 30
0.0
  0
POINT
  5
8427
  8
DEFPOINTS
 62
     0
 10
-1032.3376109981721
 20
-679.25955381661311
 30
0.0
  0
ENDBLK
  5
4BF4
  8
0
  0
BLOCK
  8
0
  2
*D27
 70
     1
 10
0.0
 20
0.0
 30
0.0
  3
*D27
  1

  0
LINE
  5
8414
  8
DIM
 62
     0
 10
-1032.5895789981721
 20
-680.03265084237626
 30
0.0
 11
-1032.5895789981721
 21
-678.19312394880649
 31
0.0
  0
LINE
  5
8415
  8
DIM
 62
     0
 10
-1032.258870998171
 20
-680.15526705948582
 30
0.0
 11
-1032.258870998171
 21
-678.19312394880649
 31
0.0
  0
LINE
  5
8416
  8
DIM
 62
     0
 10
-1032.769578998171
 20
-678.37312394880655
 30
0.0
 11
-1032.949578998172
 21
-678.37312394880655
 31
0.0
  0
LINE
  5
8417
  8
DIM
 62
     0
 10
-1032.0788709981721
 20
-678.37312394880655
 30
0.0
 11
-1031.898870998172
 21
-678.37312394880655
 31
0.0
  0
SOLID
  5
8418
  8
DIM
 62
     0
 10
-1032.769578998171
 20
-678.34312394880658
 30
0.0
 11
-1032.769578998171
 21
-678.40312394880652
 31
0.0
 12
-1032.5895789981721
 22
-678.37312394880655
 32
0.0
 13
-1032.5895789981721
 23
-678.37312394880655
 33
0.0
  0
SOLID
  5
8419
  8
DIM
 62
     0
 10
-1032.0788709981721
 20
-678.34312394880658
 30
0.0
 11
-1032.0788709981721
 21
-678.40312394880652
 31
0.0
 12
-1032.258870998171
 22
-678.37312394880655
 32
0.0
 13
-1032.258870998171
 23
-678.37312394880655
 33
0.0
  0
TEXT
  5
841A
  8
0
 62
     0
 10
-1031.808870998171
 20
-678.41479061547307
 30
0.0
 40
0.125
  1
0.331 [8.40]
  0
POINT
  5
841B
  8
DEFPOINTS
 62
     0
 10
-1032.5895789981721
 20
-680.09515084237626
 30
0.0
  0
POINT
  5
841C
  8
DEFPOINTS
 62
     0
 10
-1032.258870998171
 20
-680.21776705948582
 30
0.0
  0
POINT
  5
841D
  8
DEFPOINTS
 62
     0
 10
-1032.258870998171
 20
-678.37312394880655
 30
0.0
  0
ENDBLK
  5
4C00
  8
0
  0
BLOCK
  8
0
  2
*D28
 70
     1
 10
0.0
 20
0.0
 30
0.0
  3
*D28
  1

  0
LINE
  5
840A
  8
DIM
 62
     0
 10
-1028.596713801616
 20
-681.41215455948588
 30
0.0
 11
-1028.596713801616
 21
-681.55256068309893
 31
0.0
  0
LINE
  5
840B
  8
DIM
 62
     0
 10
-1028.557343801617
 20
-681.41215455948588
 30
0.0
 11
-1028.557343801617
 21
-681.55256068309893
 31
0.0
  0
LINE
  5
840C
  8
DIM
 62
     0
 10
-1028.3773438016169
 20
-681.3725606830991
 30
0.0
 11
-1028.1973438016171
 21
-681.3725606830991
 31
0.0
  0
LINE
  5
840D
  8
DIM
 62
     0
 10
-1028.776713801617
 20
-681.3725606830991
 30
0.0
 11
-1028.9567138016171
 21
-681.3725606830991
 31
0.0
  0
SOLID
  5
840E
  8
DIM
 62
     0
 10
-1028.3773438016169
 20
-681.34256068309912
 30
0.0
 11
-1028.3773438016169
 21
-681.40256068309895
 31
0.0
 12
-1028.557343801617
 22
-681.3725606830991
 32
0.0
 13
-1028.557343801617
 23
-681.3725606830991
 33
0.0
  0
SOLID
  5
840F
  8
DIM
 62
     0
 10
-1028.776713801617
 20
-681.34256068309912
 30
0.0
 11
-1028.776713801617
 21
-681.40256068309895
 31
0.0
 12
-1028.596713801616
 22
-681.3725606830991
 32
0.0
 13
-1028.596713801616
 23
-681.3725606830991
 33
0.0
  0
TEXT
  5
8410
  8
0
 62
     0
 10
-1030.219332849236
 20
-681.41422734976572
 30
0.0
 40
0.125
  1
0.039 [1.00]
  0
POINT
  5
8411
  8
DEFPOINTS
 62
     0
 10
-1028.596713801616
 20
-681.34965455948566
 30
0.0
  0
POINT
  5
8412
  8
DEFPOINTS
 62
     0
 10
-1028.557343801617
 20
-681.34965455948566
 30
0.0
  0
POINT
  5
8413
  8
DEFPOINTS
 62
     0
 10
-1028.557343801617
 20
-681.3725606830991
 30
0.0
  0
ENDBLK
  5
4C0E
  8
0
  0
BLOCK
  8
0
  2
*D29
 70
     1
 10
0.0
 20
0.0
 30
0.0
  3
*D29
  1

  0
LINE
  5
8390
  8
DIM
 62
     0
 10
-1027.4633498016169
 20
-680.51107355948568
 30
0.0
 11
-1025.829868905163
 21
-680.51107355948568
 31
0.0
  0
LINE
  5
8391
  8
DIM
 62
     0
 10
-1027.4633498016169
 20
-682.18823555948575
 30
0.0
 11
-1025.829868905163
 21
-682.18823555948575
 31
0.0
  0
LINE
  5
8392
  8
DIM
 62
     0
 10
-1026.009868905162
 20
-680.69107355948586
 30
0.0
 11
-1026.009868905162
 21
-681.38025849022824
 31
0.0
  0
LINE
  5
8393
  8
DIM
 62
     0
 10
-1026.009868905162
 20
-682.00823555948591
 30
0.0
 11
-1026.009868905162
 21
-681.75073468070468
 31
0.0
  0
SOLID
  5
8394
  8
DIM
 62
     0
 10
-1026.0398689051631
 20
-680.69107355948586
 30
0.0
 11
-1025.979868905164
 21
-680.69107355948586
 31
0.0
 12
-1026.009868905162
 22
-680.51107355948568
 32
0.0
 13
-1026.009868905162
 23
-680.51107355948568
 33
0.0
  0
SOLID
  5
8395
  8
DIM
 62
     0
 10
-1026.0398689051631
 20
-682.00823555948591
 30
0.0
 11
-1025.979868905164
 21
-682.00823555948591
 31
0.0
 12
-1026.009868905162
 22
-682.18823555948575
 32
0.0
 13
-1026.009868905162
 23
-682.18823555948575
 33
0.0
  0
TEXT
  5
8396
  8
0
 62
     0
 10
-1026.6557022384959
 20
-681.6071632521332
 30
0.0
 40
0.125
  1
1.677 [42.60]
  0
POINT
  5
8397
  8
DEFPOINTS
 62
     0
 10
-1027.5258498016169
 20
-680.51107355948568
 30
0.0
  0
POINT
  5
8398
  8
DEFPOINTS
 62
     0
 10
-1027.5258498016169
 20
-682.18823555948575
 30
0.0
  0
POINT
  5
8399
  8
DEFPOINTS
 62
     0
 10
-1026.009868905162
 20
-682.18823555948575
 30
0.0
  0
ENDBLK
  5
4C1A
  8
0
  0
BLOCK
  8
0
  2
*D30
 70
     1
 10
0.0
 20
0.0
 30
0.0
  3
*D30
  1

  0
LINE
  5
8386
  8
DIM
 62
     0
 10
-1028.557343801617
 20
-682.05388555948582
 30
0.0
 11
-1028.557343801617
 21
-683.57839342924638
 31
0.0
  0
LINE
  5
8387
  8
DIM
 62
     0
 10
-1027.3289998016171
 20
-682.05388555948582
 30
0.0
 11
-1027.3289998016171
 21
-683.57839342924638
 31
0.0
  0
LINE
  5
8388
  8
DIM
 62
     0
 10
-1027.508999801616
 20
-683.39839342924654
 30
0.0
 11
-1028.3773438016169
 21
-683.39839342924654
 31
0.0
  0
LINE
  5
8389
  8
DIM
 62
     0
 10
-1028.557343801617
 20
-683.39839342924654
 30
0.0
 11
-1029.1030916161201
 21
-683.39839342924654
 31
0.0
  0
SOLID
  5
838A
  8
DIM
 62
     0
 10
-1027.508999801616
 20
-683.36839342924657
 30
0.0
 11
-1027.508999801616
 21
-683.42839342924628
 31
0.0
 12
-1027.3289998016171
 22
-683.39839342924654
 32
0.0
 13
-1027.3289998016171
 23
-683.39839342924654
 33
0.0
  0
SOLID
  5
838B
  8
DIM
 62
     0
 10
-1028.3773438016169
 20
-683.36839342924657
 30
0.0
 11
-1028.3773438016169
 21
-683.42839342924628
 31
0.0
 12
-1028.557343801617
 22
-683.39839342924654
 32
0.0
 13
-1028.557343801617
 23
-683.39839342924654
 33
0.0
  0
TEXT
  5
838C
  8
0
 62
     0
 10
-1030.4609487589771
 20
-683.44006009591305
 30
0.0
 40
0.125
  1
1.228 [31.20]
  0
POINT
  5
838D
  8
DEFPOINTS
 62
     0
 10
-1028.557343801617
 20
-681.99138555948582
 30
0.0
  0
POINT
  5
838E
  8
DEFPOINTS
 62
     0
 10
-1027.3289998016171
 20
-681.99138555948582
 30
0.0
  0
POINT
  5
838F
  8
DEFPOINTS
 62
     0
 10
-1027.3289998016171
 20
-683.39839342924654
 30
0.0
  0
ENDBLK
  5
4C26
  8
0
  0
BLOCK
  8
0
  2
*D31
 70
     1
 10
0.0
 20
0.0
 30
0.0
  3
*D31
  1

  0
LINE
  5
847F
  8
DIM
 62
     0
 10
-1031.379378153955
 20
-687.12031826190116
 30
0.0
 11
-1031.379378153955
 21
-687.85699127851819
 31
0.0
  0
LINE
  5
8480
  8
DIM
 62
     0
 10
-1031.064418153956
 20
-687.12031826190116
 30
0.0
 11
-1031.064418153956
 21
-687.85699127851819
 31
0.0
  0
LINE
  5
8481
  8
DIM
 62
     0
 10
-1030.8844181539559
 20
-687.67699127851824
 30
0.0
 11
-1030.704418153955
 21
-687.67699127851824
 31
0.0
  0
LINE
  5
8482
  8
DIM
 62
     0
 10
-1031.559378153956
 20
-687.67699127851824
 30
0.0
 11
-1031.7393781539561
 21
-687.67699127851824
 31
0.0
  0
SOLID
  5
8483
  8
DIM
 62
     0
 10
-1030.8844181539559
 20
-687.64699127851816
 30
0.0
 11
-1030.8844181539559
 21
-687.70699127851822
 31
0.0
 12
-1031.064418153956
 22
-687.67699127851824
 32
0.0
 13
-1031.064418153956
 23
-687.67699127851824
 33
0.0
  0
SOLID
  5
8484
  8
DIM
 62
     0
 10
-1031.559378153956
 20
-687.64699127851816
 30
0.0
 11
-1031.559378153956
 21
-687.70699127851822
 31
0.0
 12
-1031.379378153955
 22
-687.67699127851824
 32
0.0
 13
-1031.379378153955
 23
-687.67699127851824
 33
0.0
  0
TEXT
  5
8485
  8
0
 62
     0
 10
-1033.001997201575
 20
-687.71865794518487
 30
0.0
 40
0.125
  1
0.315 [8.00]
  0
POINT
  5
8486
  8
DEFPOINTS
 62
     0
 10
-1031.379378153955
 20
-687.05781826190139
 30
0.0
  0
POINT
  5
8487
  8
DEFPOINTS
 62
     0
 10
-1031.064418153956
 20
-687.05781826190139
 30
0.0
  0
POINT
  5
8488
  8
DEFPOINTS
 62
     0
 10
-1031.064418153956
 20
-687.67699127851824
 30
0.0
  0
ENDBLK
  5
6A19
  8
0
  0
BLOCK
  8
0
  2
*D32
 70
     1
 10
0.0
 20
0.0
 30
0.0
  3
*D32
  1

  0
LINE
  5
8475
  8
DIM
 62
     0
 10
-1027.7044539840399
 20
-690.87464082031909
 30
0.0
 11
-1029.633978779264
 21
-690.87464082031909
 31
0.0
  0
LINE
  5
8476
  8
DIM
 62
     0
 10
-1027.7044539840399
 20
-690.40220082031919
 30
0.0
 11
-1029.633978779264
 21
-690.40220082031919
 31
0.0
  0
LINE
  5
8477
  8
DIM
 62
     0
 10
-1029.4539787792639
 20
-691.05464082031926
 30
0.0
 11
-1029.4539787792639
 21
-691.23464082031921
 31
0.0
  0
LINE
  5
8478
  8
DIM
 62
     0
 10
-1029.4539787792639
 20
-690.22220082031924
 30
0.0
 11
-1029.4539787792639
 21
-690.04220082031907
 31
0.0
  0
SOLID
  5
8479
  8
DIM
 62
     0
 10
-1029.4839787792639
 20
-691.05464082031926
 30
0.0
 11
-1029.423978779264
 21
-691.05464082031926
 31
0.0
 12
-1029.4539787792639
 22
-690.87464082031909
 32
0.0
 13
-1029.4539787792639
 23
-690.87464082031909
 33
0.0
  0
SOLID
  5
847A
  8
DIM
 62
     0
 10
-1029.4839787792639
 20
-690.22220082031924
 30
0.0
 11
-1029.423978779264
 21
-690.22220082031924
 31
0.0
 12
-1029.4539787792639
 22
-690.40220082031919
 32
0.0
 13
-1029.4539787792639
 23
-690.40220082031919
 33
0.0
  0
TEXT
  5
847B
  8
0
 62
     0
 10
-1030.099812112597
 20
-690.68008748698594
 30
0.0
 40
0.125
  1
0.472 [12.00]
  0
POINT
  5
847C
  8
DEFPOINTS
 62
     0
 10
-1027.6419539840399
 20
-690.87464082031909
 30
0.0
  0
POINT
  5
847D
  8
DEFPOINTS
 62
     0
 10
-1027.6419539840399
 20
-690.40220082031919
 30
0.0
  0
POINT
  5
847E
  8
DEFPOINTS
 62
     0
 10
-1029.4539787792639
 20
-690.40220082031919
 30
0.0
  0
ENDBLK
  5
71B3
  8
0
  0
BLOCK
  8
0
  2
*D33
 70
     1
 10
0.0
 20
0.0
 30
0.0
  3
*D33
  1

  0
LINE
  5
8400
  8
DIM
 62
     0
 10
-1034.9898251370439
 20
-681.68093445724821
 30
0.0
 11
-1034.9898251370439
 21
-681.53524994223255
 31
0.0
  0
LINE
  5
8401
  8
DIM
 62
     0
 10
-1034.9445657955359
 20
-681.68214396398707
 30
0.0
 11
-1034.9445657955359
 21
-681.53524994223255
 31
0.0
  0
LINE
  5
8402
  8
DIM
 62
     0
 10
-1035.169825137044
 20
-681.71524994223239
 30
0.0
 11
-1035.349825137044
 21
-681.71524994223239
 31
0.0
  0
LINE
  5
8403
  8
DIM
 62
     0
 10
-1034.764565795537
 20
-681.71524994223239
 30
0.0
 11
-1034.5845657955369
 21
-681.71524994223239
 31
0.0
  0
SOLID
  5
8404
  8
DIM
 62
     0
 10
-1035.169825137044
 20
-681.68524994223253
 30
0.0
 11
-1035.169825137044
 21
-681.74524994223248
 31
0.0
 12
-1034.9898251370439
 22
-681.71524994223239
 32
0.0
 13
-1034.9898251370439
 23
-681.71524994223239
 33
0.0
  0
SOLID
  5
8405
  8
DIM
 62
     0
 10
-1034.764565795537
 20
-681.68524994223253
 30
0.0
 11
-1034.764565795537
 21
-681.74524994223248
 31
0.0
 12
-1034.9445657955359
 22
-681.71524994223239
 32
0.0
 13
-1034.9445657955359
 23
-681.71524994223239
 33
0.0
  0
TEXT
  5
8406
  8
0
 62
     0
 10
-1034.4945657955359
 20
-681.75691660889902
 30
0.0
 40
0.125
  1
0.045 [1.15]
  0
POINT
  5
8407
  8
DEFPOINTS
 62
     0
 10
-1034.9898251370439
 20
-681.74343445724821
 30
0.0
  0
POINT
  5
8408
  8
DEFPOINTS
 62
     0
 10
-1034.9445657955359
 20
-681.74464396398685
 30
0.0
  0
POINT
  5
8409
  8
DEFPOINTS
 62
     0
 10
-1034.9445657955359
 20
-681.71524994223239
 30
0.0
  0
ENDBLK
  5
7287
  8
0
  0
BLOCK
  8
0
  2
*D34
 70
     1
 10
0.0
 20
0.0
 30
0.0
  3
*D34
  1

  0
LINE
  5
846D
  8
DIM
 62
     0
 10
-1033.208387970647
 20
-685.74154425313156
 30
0.0
 11
-1033.38838797065
 21
-685.74154425313156
 31
0.0
  0
LINE
  5
846E
  8
DIM
 62
     0
 10
-1033.38838797065
 20
-685.74154425313156
 30
0.0
 11
-1033.8317432470999
 21
-686.77058628755526
 31
0.0
  0
TEXT
  5
846F
  8
0
 62
     0
 10
-1033.1183879706471
 20
-685.78321091979831
 30
0.0
 40
0.125
  1
\U+22050.236 [\U+22056.00]
  0
SOLID
  5
8470
  8
DIM
 62
     0
 10
-1033.8592948897649
 20
-686.75871586269204
 30
0.0
 11
-1033.804191604434
 21
-686.78245671241825
 31
0.0
 12
-1033.902965796279
 22
-686.93589614354846
 32
0.0
 13
-1033.902965796279
 23
-686.93589614354846
 33
0.0
  0
LINE
  5
8471
  8
DIM
 62
     0
 10
-1034.039699658965
 20
-687.04436696072253
 30
0.0
 11
-1033.859699658964
 21
-687.04436696072275
 31
0.0
  0
LINE
  5
8472
  8
DIM
 62
     0
 10
-1033.9496996589639
 20
-687.13436696072267
 30
0.0
 11
-1033.9496996589639
 21
-686.95436696072272
 31
0.0
  0
POINT
  5
8473
  8
DEFPOINTS
 62
     0
 10
-1033.902965796279
 20
-686.93589614354846
 30
0.0
  0
POINT
  5
8474
  8
DEFPOINTS
 62
     0
 10
-1033.99643352165
 20
-687.15283777789705
 30
0.0
  0
ENDBLK
  5
7D4C
  8
0
  0
BLOCK
  8
0
  2
*D35
 70
     1
 10
0.0
 20
0.0
 30
0.0
  3
*D35
  1

  0
LINE
  5
8447
  8
DIM
 62
     0
 10
-1036.414240535119
 20
-686.11304022573268
 30
0.0
 11
-1036.2342405351151
 21
-686.11304022573268
 31
0.0
  0
LINE
  5
8448
  8
DIM
 62
     0
 10
-1036.2342405351151
 20
-686.11304022573268
 30
0.0
 11
-1035.4119115183671
 21
-686.89029892815836
 31
0.0
  0
TEXT
  5
8449
  8
0
 62
     0
 10
-1037.9268595827391
 20
-686.1547068923993
 30
0.0
 40
0.125
  1
\U+22050.089 [\U+22052.25]
  0
SOLID
  5
844A
  8
DIM
 62
     0
 10
-1035.3913042009749
 20
-686.86849666979106
 30
0.0
 11
-1035.4325188357579
 21
-686.91210118652566
 31
0.0
 12
-1035.281097968161
 22
-687.01394283250875
 32
0.0
 13
-1035.281097968161
 23
-687.01394283250875
 33
0.0
  0
LINE
  5
844B
  8
DIM
 62
     0
 10
-1035.3389096589649
 20
-687.04436696072287
 30
0.0
 11
-1035.1589096589651
 21
-687.04436696072287
 31
0.0
  0
LINE
  5
844C
  8
DIM
 62
     0
 10
-1035.2489096589641
 20
-687.13436696072301
 30
0.0
 11
-1035.2489096589641
 21
-686.95436696072306
 31
0.0
  0
POINT
  5
844D
  8
DEFPOINTS
 62
     0
 10
-1035.281097968161
 20
-687.01394283250875
 30
0.0
  0
POINT
  5
844E
  8
DEFPOINTS
 62
     0
 10
-1035.216721349768
 20
-687.07479108893688
 30
0.0
  0
ENDBLK
  5
7D58
  8
0
  0
BLOCK
  8
0
  2
*D36
 70
     1
 10
0.0
 20
0.0
 30
0.0
  3
*D36
  1

  0
LINE
  5
83F8
  8
DIM
 62
     0
 10
-1034.6533773438159
 20
-679.75947351793332
 30
0.0
 11
-1034.8333773438151
 21
-679.75947351793332
 31
0.0
  0
LINE
  5
83F9
  8
DIM
 62
     0
 10
-1034.8333773438151
 20
-679.75947351793332
 30
0.0
 11
-1035.0845391938531
 21
-680.10285527611813
 31
0.0
  0
TEXT
  5
83FA
  8
0
 62
     0
 10
-1034.5633773438151
 20
-679.80114018459994
 30
0.0
 40
0.125
  1
\U+22050.315 [\U+22058.00]
  0
SOLID
  5
83FB
  8
DIM
 62
     0
 10
-1035.108753231724
 20
-680.08514425215174
 30
0.0
 11
-1035.0603251559819
 21
-680.12056630008419
 31
0.0
 12
-1035.190805337651
 22
-680.24813950334965
 32
0.0
 13
-1035.190805337651
 23
-680.24813950334965
 33
0.0
  0
LINE
  5
83FC
  8
DIM
 62
     0
 10
-1035.373776406125
 20
-680.37524705948579
 30
0.0
 11
-1035.1937764061249
 21
-680.37524705948556
 31
0.0
  0
LINE
  5
83FD
  8
DIM
 62
     0
 10
-1035.283776406126
 20
-680.46524705948582
 30
0.0
 11
-1035.283776406126
 21
-680.28524705948576
 31
0.0
  0
POINT
  5
83FE
  8
DEFPOINTS
 62
     0
 10
-1035.190805337651
 20
-680.24813950334965
 30
0.0
  0
POINT
  5
83FF
  8
DEFPOINTS
 62
     0
 10
-1035.3767474746001
 20
-680.50235461562193
 30
0.0
  0
ENDBLK
  5
7DA7
  8
0
  0
BLOCK
  8
0
  2
*D37
 70
     1
 10
0.0
 20
0.0
 30
0.0
  3
*D37
  1

  0
LINE
  5
83F0
  8
DIM
 62
     0
 10
-1034.802419916228
 20
-679.34019306421328
 30
0.0
 11
-1034.9824199162281
 21
-679.34019306421339
 31
0.0
  0
LINE
  5
83F1
  8
DIM
 62
     0
 10
-1034.9824199162281
 20
-679.34019306421339
 30
0.0
 11
-1035.2075954234481
 21
-680.1135920657274
 31
0.0
  0
TEXT
  5
83F2
  8
0
 62
     0
 10
-1034.7124199162281
 20
-679.38185973087991
 30
0.0
 40
0.125
  1
\U+22050.185 [\U+22054.70]
  0
SOLID
  5
83F3
  8
DIM
 62
     0
 10
-1035.2363994166051
 20
-680.10520576867236
 30
0.0
 11
-1035.178791430294
 21
-680.12197836278233
 31
0.0
 12
-1035.257913205779
 22
-680.28641602466064
 32
0.0
 13
-1035.257913205779
 23
-680.28641602466064
 33
0.0
  0
LINE
  5
83F4
  8
DIM
 62
     0
 10
-1035.373776406125
 20
-680.37524705948579
 30
0.0
 11
-1035.1937764061249
 21
-680.37524705948579
 31
0.0
  0
LINE
  5
83F5
  8
DIM
 62
     0
 10
-1035.283776406126
 20
-680.46524705948582
 30
0.0
 11
-1035.283776406126
 21
-680.28524705948576
 31
0.0
  0
POINT
  5
83F6
  8
DEFPOINTS
 62
     0
 10
-1035.257913205779
 20
-680.28641602466064
 30
0.0
  0
POINT
  5
83F7
  8
DEFPOINTS
 62
     0
 10
-1035.309639606472
 20
-680.46407809431093
 30
0.0
  0
ENDBLK
  5
7DB3
  8
0
  0
BLOCK
  8
0
  2
*D38
 70
     1
 10
0.0
 20
0.0
 30
0.0
  3
*D38
  1

  0
LINE
  5
83D6
  8
DIM
 62
     0
 10
-1035.940757207097
 20
-679.06435129131978
 30
0.0
 11
-1035.760757207097
 21
-679.06435129131978
 31
0.0
  0
LINE
  5
83D7
  8
DIM
 62
     0
 10
-1035.760757207097
 20
-679.06435129131978
 30
0.0
 11
-1035.3655159019011
 21
-680.15060078674765
 31
0.0
  0
TEXT
  5
83D8
  8
0
 62
     0
 10
-1037.405757207096
 20
-679.10601795798641
 30
0.0
 40
0.125
  1
\U+22050.118 [\U+22053.00]
  0
SOLID
  5
83D9
  8
DIM
 62
     0
 10
-1035.3373241126401
 20
-680.14034295958083
 30
0.0
 11
-1035.393707691165
 21
-680.16085861391412
 31
0.0
 12
-1035.3039689389029
 22
-680.31975152232235
 32
0.0
 13
-1035.3039689389029
 23
-680.31975152232235
 33
0.0
  0
LINE
  5
83DA
  8
DIM
 62
     0
 10
-1035.373776406125
 20
-680.37524705948579
 30
0.0
 11
-1035.1937764061249
 21
-680.3752470594859
 31
0.0
  0
LINE
  5
83DB
  8
DIM
 62
     0
 10
-1035.283776406126
 20
-680.46524705948582
 30
0.0
 11
-1035.283776406126
 21
-680.28524705948576
 31
0.0
  0
POINT
  5
83DC
  8
DEFPOINTS
 62
     0
 10
-1035.3039689389029
 20
-680.31975152232235
 30
0.0
  0
POINT
  5
83DD
  8
DEFPOINTS
 62
     0
 10
-1035.263583873347
 20
-680.430742596649
 30
0.0
  0
ENDBLK
  5
7DBF
  8
0
  0
BLOCK
  8
0
  2
*D39
 70
     1
 10
0.0
 20
0.0
 30
0.0
  3
*D39
  1

  0
LINE
  5
83E8
  8
DIM
 62
     0
 10
-1026.8489658058591
 20
-679.0656653689897
 30
0.0
 11
-1027.028965805863
 21
-679.0656653689897
 31
0.0
  0
LINE
  5
83E9
  8
DIM
 62
     0
 10
-1027.028965805863
 20
-679.0656653689897
 30
0.0
 11
-1028.371769455528
 21
-680.19016895561788
 31
0.0
  0
TEXT
  5
83EA
  8
0
 62
     0
 10
-1026.75896580586
 20
-679.10733203565644
 30
0.0
 40
0.125
  1
\U+22050.217 [\U+22055.50]
  0
SOLID
  5
83EB
  8
DIM
 62
     0
 10
-1028.391030534616
 20
-680.16716872013308
 30
0.0
 11
-1028.3525083764409
 21
-680.21316919110279
 31
0.0
 12
-1028.509770868437
 22
-680.30573543014668
 32
0.0
 13
-1028.509770868437
 23
-680.30573543014668
 33
0.0
  0
LINE
  5
83EC
  8
DIM
 62
     0
 10
-1028.682776801616
 20
-680.37524705948556
 30
0.0
 11
-1028.5027768016171
 21
-680.37524705948601
 31
0.0
  0
LINE
  5
83ED
  8
DIM
 62
     0
 10
-1028.592776801617
 20
-680.46524705948582
 30
0.0
 11
-1028.592776801617
 21
-680.28524705948576
 31
0.0
  0
POINT
  5
83EE
  8
DEFPOINTS
 62
     0
 10
-1028.509770868437
 20
-680.30573543014668
 30
0.0
  0
POINT
  5
83EF
  8
DEFPOINTS
 62
     0
 10
-1028.675782734796
 20
-680.44475868882466
 30
0.0
  0
ENDBLK
  5
7DE0
  8
0
  0
BLOCK
  8
0
  2
C
 70
     2
 10
0.0
 20
0.0
 30
0.0
  3
C
  1

  0
ATTDEF
  5
81B5
  8
TEXT
 10
15.47785051577857
 20
0.5394050456177202
 30
0.0
 40
0.125
  1

 41
0.75
  7
TXT
 72
     1
 11
15.47785051577857
 21
0.5394050456177202
 31
0.0
  3
ENTER INITIALS
  2
NAME
 70
     4
  0
ATTDEF
  5
81B6
  8
TEXT
 10
16.173235976316949
 20
0.5394050456177202
 30
0.0
 40
0.125
  1

 41
0.75
  7
TXT
 72
     1
 11
16.173235976316949
 21
0.5394050456177202
 31
0.0
  3
ENTER DATE
  2
DATE
 70
     4
  0
ATTDEF
  5
81B7
  8
TEXT
 10
19.43362280004439
 20
0.7106068173304485
 30
0.0
 40
0.125
  1

 41
0.75
  7
TXT
 72
     1
 11
19.43362280004439
 21
0.7106068173304485
 31
0.0
  3
ENTER TITLE LINE #1
  2
TITLE1
 70
     4
  0
ATTDEF
  5
81B8
  8
TEXT
 10
19.38674780004439
 20
0.4994773512041509
 30
0.0
 40
0.125
  1
 
 41
0.75
  7
TXT
 72
     1
 11
19.43362280004439
 21
0.4994773512041509
 31
0.0
  3
ENTER TITLE LINE #2
  2
TITLE2
 70
     4
  0
ATTDEF
  5
81B9
  8
TEXT
 10
19.571747588380521
 20
0.1062243331644149
 30
0.0
 40
0.156
  1
 
 41
0.75
  7
TXT
 72
     1
 11
19.63024758838052
 21
0.1062243331644149
 31
0.0
  3
ENTER PART #
  2
PART
 70
     4
  0
ATTDEF
  5
81BA
  8
TEXT
 10
19.63024758838052
 20
15.677640836036471
 30
0.0
 40
0.156
  1

 41
0.75
  7
TXT
 72
     1
 11
19.63024758838052
 21
15.677640836036471
 31
0.0
  3
ENTER PART #
  2
PART
 70
     4
  0
ATTDEF
  5
81BB
  8
TEXT
 10
11.056897604150739
 20
1.1820123350975611
 30
0.0
 40
0.125
  1

 41
4.9364164263857306
  7
TXT
 72
     5
 11
14.96489394170611
 21
1.1820123350975611
 31
0.0
  3
ENTER CUT SIZE
  2
CUTSIZE
 70
     4
  0
ATTDEF
  5
81BC
  8
TEXT
 10
11.194370689128951
 20
0.2867788269611924
 30
0.0
 40
0.125
  1

 41
0.75
  7
TXT
 72
     1
 11
11.194370689128951
 21
0.2867788269611924
 31
0.0
  3
ENTER QUANTITY
  2
QTY
 70
     4
  0
ATTDEF
  5
81BD
  8
TEXT
 10
12.139054202526991
 20
0.2867788269611924
 30
0.0
 40
0.125
  1

 41
0.75
  7
TXT
 72
     1
 11
12.139054202526991
 21
0.2867788269611924
 31
0.0
  3
ENTER "USED ON" PART #
  2
USED
 70
     4
  0
ATTDEF
  5
81BE
  8
TEXT
 10
15.72398122291402
 20
0.9555323710702353
 30
0.0
 40
0.125
  1
AS NOTED
 41
0.75
  7
TXT
 72
     1
 11
16.08335622291402
 21
0.9555323710702353
 31
0.0
  3
ENTER MATERIAL
  2
MAT
 70
     4
  0
ATTDEF
  5
81BF
  8
TEXT
 10
15.70835622291402
 20
0.7436542078606632
 30
0.0
 40
0.125
  1
SEE SPEC.
 41
0.75
  7
TXT
 72
     1
 11
16.08335622291402
 21
0.7436542078606632
 31
0.0
  3
ENTER FINISH
  2
FINISH
 70
     4
  0
LINE
  5
81C0
  8
TITLE
 10
20.5
 20
0.0
 30
0.0
 11
20.5
 21
16.0
 31
0.0
  0
LINE
  5
81C1
  8
TITLE
 10
0.0
 20
0.0
 30
0.0
 11
20.5
 21
0.0
 31
0.0
  0
LINE
  5
81C2
  8
TITLE
 10
0.0
 20
16.0
 30
0.0
 11
0.0
 21
0.0
 31
0.0
  0
LINE
  5
81C3
  8
TITLE
 10
0.0
 20
16.0
 30
0.0
 11
20.5
 21
16.0
 31
0.0
  0
LINE
  5
81C4
  8
TITLE
 10
11.019999999999991
 20
1.3769999999999989
 30
0.0
 11
11.019999999999991
 21
-0.0000000000000004
 31
0.0
  0
LINE
  5
81C5
  8
TITLE
 62
     8
 10
18.6875
 20
15.3125
 30
0.0
 11
18.6875
 21
15.5625
 31
0.0
  0
TEXT
  5
81C6
  8
TITLE
 62
     8
 10
18.1875
 20
15.8125
 30
0.0
 40
0.09375
  1
DWG.
  7
TXT
  0
TEXT
  5
81C7
  8
TITLE
 62
     8
 10
18.179284683397579
 20
15.39867246868617
 30
0.0
 40
0.09375
  1
ISSUE
  7
TXT
  0
LINE
  5
81C8
  8
TITLE
 10
18.0625
 20
15.3125
 30
0.0
 11
18.0625
 21
16.0
 31
0.0
  0
TEXT
  5
81C9
  8
TITLE
 62
     8
 10
18.1875
 20
15.65625
 30
0.0
 40
0.09375
  1
NO.
  7
TXT
  0
LINE
  5
81CA
  8
TITLE
 62
     8
 10
18.0625
 20
15.3125
 30
0.0
 11
20.5
 21
15.3125
 31
0.0
  0
LINE
  5
81CB
  8
TITLE
 62
     8
 10
18.0625
 20
15.5625
 30
0.0
 11
20.5
 21
15.5625
 31
0.0
  0
TEXT
  5
81CC
  8
TITLE
 62
     8
 10
19.123240122678091
 20
15.40084779209924
 30
0.0
 40
0.09375
  1
REVISIONS
  7
TXT
  0
TEXT
  5
81CD
  8
TITLE
 62
     8
 10
18.4375
 20
0.9903543852819179
 30
0.0
 40
0.09375
  1
NAME:
  7
TXT
  0
TEXT
  5
81CE
  8
TITLE
 62
     8
 10
18.4375
 20
0.0631657164931343
 30
0.0
 40
0.0938
  1
NO.
  7
TXT
  0
TEXT
  5
81CF
  8
TITLE
 62
     8
 10
18.4375
 20
0.2194990498264686
 30
0.0
 40
0.0938
  1
DWG.
  7
TXT
  0
LINE
  5
81D0
  8
TITLE
 62
     8
 10
18.367245600088829
 20
-0.0000000000000004
 30
0.0
 11
18.367245600088829
 21
1.127
 31
0.0
  0
LINE
  5
81D1
  8
TITLE
 62
     8
 10
17.436499999999992
 20
1.127
 30
0.0
 11
17.436499999999992
 21
1.3769999999999989
 31
0.0
  0
LINE
  5
81D2
  8
TITLE
 10
17.63673299114847
 20
0.859007345151843
 30
0.0
 11
17.66976251320413
 21
0.859007345151843
 31
0.0
  0
ARC
  5
81D3
  8
TITLE
 10
17.66976251320413
 20
0.7660701812170974
 30
0.0
 40
0.0929371639347451
 50
0.0
 51
90.0
  0
LINE
  5
81D4
  8
TITLE
 10
17.713861299335559
 20
0.7328783369546899
 30
0.0
 11
17.672563709827259
 21
0.7328783369546899
 31
0.0
  0
LINE
  5
81D5
  8
TITLE
 10
17.63673299114847
 20
0.5934725910525716
 30
0.0
 11
17.66976251320413
 21
0.5934725910525716
 31
0.0
  0
ARC
  5
81D6
  8
TITLE
 10
17.66976251320413
 20
0.6864097549873174
 30
0.0
 40
0.0929371639347451
 50
270.0
 51
0.0
  0
LINE
  5
81D7
  8
TITLE
 10
17.713861299335559
 20
0.7196015992497256
 30
0.0
 11
17.672563709827259
 21
0.7196015992497256
 31
0.0
  0
LINE
  5
81D8
  8
TITLE
 10
17.63673299114847
 20
0.5934725910525716
 30
0.0
 11
17.63673299114847
 21
0.859007345151843
 31
0.0
  0
LINE
  5
81D9
  8
TITLE
 10
17.672563709827259
 20
0.7196015992497256
 30
0.0
 11
17.672563709827259
 21
0.7328783369546899
 31
0.0
  0
LINE
  5
81DA
  8
TITLE
 10
17.762699677138869
 20
0.6864097549873174
 30
0.0
 11
17.762699677138869
 21
0.7660701812170974
 31
0.0
  0
LINE
  5
81DB
  8
TITLE
 10
17.713861299335559
 20
0.7196015992497256
 30
0.0
 11
17.713861299335559
 21
0.7328783369546899
 31
0.0
  0
LINE
  5
81DC
  8
TITLE
 10
17.533884789470829
 20
0.859007345151843
 30
0.0
 11
17.58242241159558
 21
0.859007345151843
 31
0.0
  0
LINE
  5
81DD
  8
TITLE
 10
17.462234013953349
 20
0.859007345151843
 30
0.0
 11
17.5107716360781
 21
0.859007345151843
 31
0.0
  0
ARC
  5
81DE
  8
TITLE
 10
17.524048373783071
 20
0.6367964281680929
 30
0.0
 40
0.0132767377049636
 50
180.0
 51
262.55571590228629
  0
ARC
  5
81DF
  8
TITLE
 10
17.520608051765869
 20
0.6367964281680929
 30
0.0
 40
0.0132767377049636
 50
277.44428409771359
 51
0.0
  0
ARC
  5
81E0
  8
TITLE
 10
17.565826489464381
 20
0.6100685131837765
 30
0.0
 40
0.0165959221312045
 50
270.0
 51
0.0
  0
ARC
  5
81E1
  8
TITLE
 10
17.478829936084558
 20
0.6100685131837765
 30
0.0
 40
0.0165959221312045
 50
180.0
 51
270.0
  0
LINE
  5
81E2
  8
TITLE
 10
17.478829936084558
 20
0.5934725910525716
 30
0.0
 11
17.565826489464381
 21
0.5934725910525716
 31
0.0
  0
LINE
  5
81E3
  8
TITLE
 10
17.5107716360781
 20
0.6367964281680929
 30
0.0
 11
17.5107716360781
 21
0.859007345151843
 31
0.0
  0
LINE
  5
81E4
  8
TITLE
 10
17.533884789470829
 20
0.6367964281680929
 30
0.0
 11
17.533884789470829
 21
0.859007345151843
 31
0.0
  0
LINE
  5
81E5
  8
TITLE
 10
17.462234013953349
 20
0.6100685131837765
 30
0.0
 11
17.462234013953349
 21
0.859007345151843
 31
0.0
  0
LINE
  5
81E6
  8
TITLE
 10
17.58242241159558
 20
0.6100685131837765
 30
0.0
 11
17.58242241159558
 21
0.859007345151843
 31
0.0
  0
LINE
  5
81E7
  8
TITLE
 10
17.362847454364591
 20
0.7328783369546899
 30
0.0
 11
17.290041021177458
 21
0.7328783369546899
 31
0.0
  0
LINE
  5
81E8
  8
TITLE
 10
17.277328786811459
 20
0.859007345151843
 30
0.0
 11
17.362847454364591
 21
0.859007345151843
 31
0.0
  0
LINE
  5
81E9
  8
TITLE
 10
17.290041021177458
 20
0.7196015992497256
 30
0.0
 11
17.290041021177458
 21
0.7262399681022083
 31
0.0
  0
LINE
  5
81EA
  8
TITLE
 10
17.277328786811459
 20
0.5934725910525716
 30
0.0
 11
17.362847454364591
 21
0.5934725910525716
 31
0.0
  0
LINE
  5
81EB
  8
TITLE
 10
17.362847454364591
 20
0.7196015992497256
 30
0.0
 11
17.290041021177458
 21
0.7196015992497256
 31
0.0
  0
LINE
  5
81EC
  8
TITLE
 10
17.277328786811459
 20
0.5934725910525716
 30
0.0
 11
17.277328786811459
 21
0.859007345151843
 31
0.0
  0
LINE
  5
81ED
  8
TITLE
 10
17.290041021177458
 20
0.7328783369546899
 30
0.0
 11
17.290041021177458
 21
0.7262399681022083
 31
0.0
  0
ARC
  5
81EE
  8
TITLE
 10
17.362847454364591
 20
0.7959428410532669
 30
0.0
 40
0.063064504098577
 50
270.0
 51
90.0
  0
ARC
  5
81EF
  8
TITLE
 10
17.362847454364591
 20
0.6565370951511496
 30
0.0
 40
0.063064504098577
 50
270.0
 51
90.000000000000057
  0
TEXT
  5
81F0
  8
TITLE
 62
     8
 10
16.375499999999999
 20
1.1977407629924841
 30
0.0
 40
0.09375
  1
PART NO.
  7
TXT
  0
TEXT
  5
81F1
  8
TITLE
 62
     8
 10
16.702379873900021
 20
0.9755983592151281
 30
0.0
 40
0.09375
  1
SCALE:
  7
TXT
  0
LINE
  5
81F2
  8
TITLE
 62
     8
 10
16.66353790782162
 20
-0.0000000000000004
 30
0.0
 11
16.66353790782162
 21
1.127
 31
0.0
  0
TEXT
  5
81F3
  8
TITLE
 62
     8
 10
16.763895435670332
 20
0.1249999999999996
 30
0.0
 40
0.09375
  1
WILLOUGHBY, OHIO
  7
TXT
  0
TEXT
  5
81F4
  8
TITLE
 62
     8
 10
16.70461451425917
 20
0.3749999999999996
 30
0.0
 40
0.09375
  1
BUD INDUSTRIES, INC.
  7
TXT
  0
LINE
  5
81F5
  8
TITLE
 62
     8
 10
18.367245600088829
 20
0.3819999999999992
 30
0.0
 11
20.499999999999979
 21
0.3819999999999992
 31
0.0
  0
TEXT
  5
81F6
  8
TITLE
 62
     8
 10
18.502445902853641
 20
1.1977407629924841
 30
0.0
 40
0.09375
  1
DESCRIPTION
  7
TXT
  0
LINE
  5
81F7
  8
TITLE
 62
     8
 10
15.937499999999989
 20
1.127
 30
0.0
 11
15.9375
 21
1.3769999999999989
 31
0.0
  0
LINE
  5
81F8
  8
TITLE
 62
     8
 10
15.419296480071059
 20
1.127
 30
0.0
 11
15.419296480071059
 21
1.3769999999999989
 31
0.0
  0
TEXT
  5
81F9
  8
TITLE
 62
     8
 10
15.470847360053289
 20
1.1977407629924841
 30
0.0
 40
0.09375
  1
REQ'D.
  7
TXT
  0
TEXT
  5
81FA
  8
TITLE
 62
     8
 10
15.06299999999999
 20
0.9728772779084607
 30
0.0
 40
0.09375
  1
MAT:
  7
TXT
  0
TEXT
  5
81FB
  8
TITLE
 62
     8
 10
15.05657245370309
 20
1.1994078189116251
 30
0.0
 40
0.09375
  1
ITEM
  7
TXT
  0
TEXT
  5
81FC
  8
TITLE
 62
     8
 10
15.06299999999999
 20
0.3124999999999996
 30
0.0
 40
0.09375
  1
CH.
  7
TXT
  0
TEXT
  5
81FD
  8
TITLE
 62
     8
 10
15.06299999999999
 20
0.56937408094989
 30
0.0
 40
0.09375
  1
DR.
  7
TXT
  0
TEXT
  5
81FE
  8
TITLE
 62
     8
 10
15.06299999999999
 20
0.7741181638829385
 30
0.0
 40
0.09375
  1
FINISH:
  7
TXT
  0
TEXT
  5
81FF
  8
TITLE
 62
     8
 10
15.06299999999999
 20
0.0624999999999996
 30
0.0
 40
0.09375
  1
APP.
  7
TXT
  0
LINE
  5
8200
  8
TITLE
 62
     8
 10
15.69775609804709
 20
-0.0000000000000004
 30
0.0
 11
15.697756098047099
 21
0.7090000000000011
 31
0.0
  0
LINE
  5
8201
  8
TITLE
 62
     8
 10
15.000499999999979
 20
-0.0000000000000004
 30
0.0
 11
15.000499999999979
 21
1.3769999999999989
 31
0.0
  0
TEXT
  5
8202
  8
TITLE
 10
13.045905996309919
 20
0.9520717565666275
 30
0.0
 40
0.1117888355610499
  1
%%uTOLERANCES:
  7
TXT
  0
TEXT
  5
8203
  8
TITLE
 62
     8
 10
13.091485367583919
 20
0.2344895723568654
 30
0.0
 40
0.0772424143690822
  1
    SURFACES
  7
TXT
  0
TEXT
  5
8204
  8
TITLE
 62
     8
 10
12.99371994674777
 20
0.7494390014840791
 30
0.0
 40
0.0772424143690822
  1
%%p.005 BETWEEN HOLE CENTERS
  7
TXT
  0
TEXT
  5
8205
  8
TITLE
 62
     8
 10
12.99371994674777
 20
0.6207016442022755
 30
0.0
 40
0.0772424143690822
  1
%%p.015 FROM SHEARED EDGE
  7
TXT
  0
TEXT
  5
8206
  8
TITLE
 62
     8
 10
12.99371994674777
 20
0.4919642869204705
 30
0.0
 40
0.0772424143690822
  1
%%p.032 FROM A BENT SURFACE
  7
TXT
  0
TEXT
  5
8207
  8
TITLE
 62
     8
 10
12.99864980528381
 20
0.0564750904941671
 30
0.0
 40
0.0772424143690822
  1
UNLESS OTHERWISE SPECIFIED
  7
TXT
  0
TEXT
  5
8208
  8
TITLE
 62
     8
 10
12.99371994674777
 20
0.363226929638667
 30
0.0
 40
0.0772424143690822
  1
%%p.063 BETWEEN ASSEMBLED
  7
TXT
  0
LINE
  5
8209
  8
TITLE
 62
     8
 10
11.394999999999991
 20
0.0000000000000013
 30
0.0
 11
11.394999999999991
 21
0.2499999999999996
 31
0.0
  0
TEXT
  5
820A
  8
TITLE
 62
     8
 10
11.817259741149361
 20
0.0776282744477839
 30
0.0
 40
0.09375
  1
USED ON
  7
TXT
  0
LINE
  5
820B
  8
TITLE
 62
     8
 10
12.922499999999999
 20
0.0000000000000013
 30
0.0
 11
12.922499999999999
 21
1.127
 31
0.0
  0
LINE
  5
820C
  8
TITLE
 10
11.019999999999991
 20
0.2499999999999996
 30
0.0
 11
12.922499999999999
 21
0.2499999999999996
 31
0.0
  0
LINE
  5
820D
  8
TITLE
 10
12.922499999999999
 20
1.127
 30
0.0
 11
11.019999999999991
 21
1.127
 31
0.0
  0
TEXT
  5
820E
  8
TITLE
 62
     8
 10
11.07174918381226
 20
0.0776282744477839
 30
0.0
 40
0.09375
  1
QTY.
  7
TXT
  0
LINE
  5
820F
  8
TITLE
 10
15.000499999999979
 20
1.3769999999999989
 30
0.0
 11
11.019999999999991
 21
1.3769999999999989
 31
0.0
  0
LINE
  5
8210
  8
TITLE
 10
15.000499999999979
 20
1.3769999999999989
 30
0.0
 11
20.499999999999979
 21
1.3769999999999989
 31
0.0
  0
LINE
  5
8211
  8
TITLE
 10
12.922499999999999
 20
1.127
 30
0.0
 11
20.499999999999979
 21
1.127
 31
0.0
  0
LINE
  5
8212
  8
TITLE
 10
15.000499999999979
 20
0.9180000000000006
 30
0.0
 11
18.367245600088829
 21
0.9180000000000006
 31
0.0
  0
LINE
  5
8213
  8
TITLE
 10
15.000499999999979
 20
0.2499999999999996
 30
0.0
 11
16.66353790782162
 21
0.2499999999999996
 31
0.0
  0
LINE
  5
8214
  8
TITLE
 10
15.000499999999979
 20
0.7090000000000011
 30
0.0
 11
16.66353790782162
 21
0.7090000000000011
 31
0.0
  0
LINE
  5
8215
  8
TITLE
 10
15.000499999999979
 20
0.4999999999999997
 30
0.0
 11
16.66353790782162
 21
0.4999999999999997
 31
0.0
  0
ENDBLK
  5
8217
  8
0
  0
BLOCK
  8
0
  2
REVCHART
 70
     2
 10
0.0
 20
0.0
 30
0.0
  3
REVCHART
  1

  0
LINE
  5
853E
  8
TITLE
 10
0.0
 20
-0.4490261412504335
 30
0.0
 11
2.437499999999996
 21
-0.4490261412504335
 31
0.0
  0
CIRCLE
  5
853F
  8
TEXT
 10
0.3124999999999982
 20
-0.2245130706252176
 30
0.0
 40
0.116518833587197
  0
ATTDEF
  5
8540
  8
TEXT
 10
0.3124999999999982
 20
-0.2245130706252176
 30
0.0
 40
0.15
  1

 41
0.75
  7
TXT
 72
     4
 11
0.3124999999999982
 21
-0.2245130706252176
 31
0.0
  3
ENTER REV. LEVEL
  2
REV
 70
     4
  0
LINE
  5
8541
  8
TITLE
 10
0.6249999999999983
 20
-0.4490261412504335
 30
0.0
 11
0.625
 21
0.0
 31
0.0
  0
LINE
  5
8542
  8
TITLE
 10
-0.0000000000000018
 20
-0.4490261412504335
 30
0.0
 11
0.0
 21
0.0
 31
0.0
  0
ATTDEF
  5
8543
  8
TEXT
 62
     1
 10
0.717248825001601
 20
-0.1932596702550384
 30
0.0
 40
0.125
  1

 41
0.75
  7
TXT
  3
ENTER LINE #1
  2
REV1
 70
     4
  0
ATTDEF
  5
8544
  8
TEXT
 62
     1
 10
0.717248825001601
 20
-0.4015930035883724
 30
0.0
 40
0.125
  1

 41
0.75
  7
TXT
  3
ENTER LINE #2
  2
REV2
 70
     4
  0
ENDBLK
  5
8546
  8
0
  0
BLOCK
  8
0
  2
*X42
 70
     1
 10
0.0
 20
0.0
 30
0.0
  3
*X42
  1

  0
LINE
  5
8864
  8
0
 62
     0
 10
-1031.072443698984
 20
-689.37310473843195
 30
0.0
 11
-1031.0405608871349
 21
-689.34122192658299
 31
0.0
  0
LINE
  5
8865
  8
0
 62
     0
 10
-1031.110823213766
 20
-689.37612898486566
 30
0.0
 11
-1030.9511077071679
 21
-689.21641347826744
 31
0.0
  0
LINE
  5
8866
  8
0
 62
     0
 10
-1031.1474577896961
 20
-689.3774082924474
 30
0.0
 11
-1030.9463081539559
 21
-689.17625865670641
 31
0.0
  0
LINE
  5
8867
  8
0
 62
     0
 10
-1031.1840923656259
 20
-689.37868760002868
 30
0.0
 11
-1030.9490963174881
 21
-689.14369155189047
 31
0.0
  0
LINE
  5
8868
  8
0
 62
     0
 10
-1031.024730877333
 20
-689.18397084338676
 30
0.0
 11
-1030.9591978227311
 21
-689.11843778878449
 31
0.0
  0
LINE
  5
8869
  8
0
 62
     0
 10
-1031.2207269415569
 20
-689.37996690761031
 30
0.0
 11
-1031.1288831921979
 21
-689.28812315825166
 31
0.0
  0
LINE
  5
886A
  8
0
 62
     0
 10
-1031.0298747389611
 20
-689.15375943666629
 30
0.0
 11
-1030.969299327973
 21
-689.0931840256784
 31
0.0
  0
LINE
  5
886B
  8
0
 62
     0
 10
-1031.257361517487
 20
-689.38124621519182
 30
0.0
 11
-1031.165517768128
 21
-689.28940246583329
 31
0.0
  0
LINE
  5
886C
  8
0
 62
     0
 10
-1031.0399762442039
 20
-689.12850567355997
 30
0.0
 11
-1030.979400833216
 21
-689.06793026257219
 31
0.0
  0
LINE
  5
886D
  8
0
 62
     0
 10
-1031.293996093417
 20
-689.38252552277311
 30
0.0
 11
-1031.202152344059
 21
-689.29068177341469
 31
0.0
  0
LINE
  5
886E
  8
0
 62
     0
 10
-1031.0581177997151
 20
-689.11129196072295
 30
0.0
 11
-1030.9895023384579
 21
-689.04267649946598
 31
0.0
  0
LINE
  5
886F
  8
0
 62
     0
 10
-1031.3306306693471
 20
-689.38380483035473
 30
0.0
 11
-1031.238786919989
 21
-689.29196108099609
 31
0.0
  0
LINE
  5
8870
  8
0
 62
     0
 10
-1031.093473068064
 20
-689.11129196072295
 30
0.0
 11
-1030.9996038437009
 21
-689.01742273635978
 31
0.0
  0
LINE
  5
8871
  8
0
 62
     0
 10
-1031.3672652452769
 20
-689.38508413793625
 30
0.0
 11
-1031.2754214959191
 21
-689.29324038857771
 31
0.0
  0
LINE
  5
8872
  8
0
 62
     0
 10
-1031.1288283364131
 20
-689.11129196072295
 30
0.0
 11
-1031.0053631539561
 21
-688.98782677826603
 31
0.0
  0
LINE
  5
8873
  8
0
 62
     0
 10
-1031.403899821207
 20
-689.38636344551765
 30
0.0
 11
-1031.3120560718489
 21
-689.29451969615923
 31
0.0
  0
LINE
  5
8874
  8
0
 62
     0
 10
-1031.1641836047611
 20
-689.11129196072295
 30
0.0
 11
-1031.090364854761
 21
-689.03747321072285
 31
0.0
  0
LINE
  5
8875
  8
0
 62
     0
 10
-1031.379378153955
 20
-689.32648650991723
 30
0.0
 11
-1031.348690647779
 21
-689.29579900374074
 31
0.0
  0
LINE
  5
8876
  8
0
 62
     0
 10
-1031.064418153956
 20
-689.0115265099173
 30
0.0
 11
-1031.0053631539561
 21
-688.95247150991725
 31
0.0
  0
LINE
  5
8877
  8
0
 62
     0
 10
-1031.418748153955
 20
-689.36585650991719
 30
0.0
 11
-1031.3984351047609
 21
-689.34554346072275
 31
0.0
  0
LINE
  5
8878
  8
0
 62
     0
 10
-1031.064418153956
 20
-688.97617124156864
 30
0.0
 11
-1031.0053631539561
 21
-688.91711624156869
 31
0.0
  0
LINE
  5
8879
  8
0
 62
     0
 10
-1031.19953887311
 20
-689.11129196072295
 30
0.0
 11
-1031.1257201231101
 21
-689.03747321072285
 31
0.0
  0
LINE
  5
887A
  8
0
 62
     0
 10
-1031.0724928914581
 20
-688.94889071072294
 30
0.0
 11
-1031.0053631539561
 21
-688.88176097322003
 31
0.0
  0
LINE
  5
887B
  8
0
 62
     0
 10
-1031.2348941414591
 20
-689.11129196072295
 30
0.0
 11
-1031.161075391459
 21
-689.03747321072285
 31
0.0
  0
LINE
  5
887C
  8
0
 62
     0
 10
-1031.107848159807
 20
-688.94889071072294
 30
0.0
 11
-1031.0053631539561
 21
-688.84640570487136
 31
0.0
  0
LINE
  5
887D
  8
0
 62
     0
 10
-1031.2702494098071
 20
-689.11129196072295
 30
0.0
 11
-1031.196430659807
 21
-689.03747321072285
 31
0.0
  0
LINE
  5
887E
  8
0
 62
     0
 10
-1031.1432034281561
 20
-688.94889071072294
 30
0.0
 11
-1031.069384678156
 21
-688.87507196072295
 31
0.0
  0
LINE
  5
887F
  8
0
 62
     0
 10
-1031.064418153956
 20
-688.87010543652275
 30
0.0
 11
-1031.0053631539561
 21
-688.81105043652269
 31
0.0
  0
LINE
  5
8880
  8
0
 62
     0
 10
-1031.305604678156
 20
-689.11129196072295
 30
0.0
 11
-1031.2317859281559
 21
-689.03747321072285
 31
0.0
  0
LINE
  5
8881
  8
0
 62
     0
 10
-1031.1785586965041
 20
-688.94889071072305
 30
0.0
 11
-1031.104739946504
 21
-688.87507196072295
 31
0.0
  0
LINE
  5
8882
  8
0
 62
     0
 10
-1031.064418153956
 20
-688.83475016817408
 30
0.0
 11
-1031.0053631539561
 21
-688.77569516817425
 31
0.0
  0
LINE
  5
8883
  8
0
 62
     0
 10
-1031.3409599465051
 20
-689.11129196072295
 30
0.0
 11
-1031.267141196505
 21
-689.03747321072285
 31
0.0
  0
LINE
  5
8884
  8
0
 62
     0
 10
-1031.213913964853
 20
-688.94889071072282
 30
0.0
 11
-1031.1400952148531
 21
-688.87507196072295
 31
0.0
  0
LINE
  5
8885
  8
0
 62
     0
 10
-1031.064418153956
 20
-688.79939489982542
 30
0.0
 11
-1031.0053631539561
 21
-688.74033989982547
 31
0.0
  0
LINE
  5
8886
  8
0
 62
     0
 10
-1031.3763152148531
 20
-689.11129196072295
 30
0.0
 11
-1031.302496464853
 21
-689.03747321072285
 31
0.0
  0
LINE
  5
8887
  8
0
 62
     0
 10
-1031.2492692332021
 20
-688.94889071072282
 30
0.0
 11
-1031.175450483202
 21
-688.87507196072295
 31
0.0
  0
LINE
  5
8888
  8
0
 62
     0
 10
-1031.064418153956
 20
-688.76403963147675
 30
0.0
 11
-1031.0053631539561
 21
-688.70498463147692
 31
0.0
  0
LINE
  5
8889
  8
0
 62
     0
 10
-1031.379378153955
 20
-689.07899963147656
 30
0.0
 11
-1031.3378517332019
 21
-689.03747321072285
 31
0.0
  0
LINE
  5
888A
  8
0
 62
     0
 10
-1031.064418153956
 20
-688.72868436312797
 30
0.0
 11
-1031.0053631539561
 21
-688.66962936312825
 31
0.0
  0
LINE
  5
888B
  8
0
 62
     0
 10
-1031.284624501551
 20
-688.94889071072282
 30
0.0
 11
-1031.21080575155
 21
-688.87507196072283
 31
0.0
  0
LINE
  5
888C
  8
0
 62
     0
 10
-1031.064418153956
 20
-688.69332909477941
 30
0.0
 11
-1031.0053631539561
 21
-688.63427409477958
 31
0.0
  0
LINE
  5
888D
  8
0
 62
     0
 10
-1031.319979769899
 20
-688.94889071072282
 30
0.0
 11
-1031.2461610198991
 21
-688.87507196072283
 31
0.0
  0
LINE
  5
888E
  8
0
 62
     0
 10
-1031.064418153956
 20
-688.65797382643075
 30
0.0
 11
-1031.0053631539561
 21
-688.59891882643092
 31
0.0
  0
LINE
  5
888F
  8
0
 62
     0
 10
-1031.3553350382481
 20
-688.94889071072282
 30
0.0
 11
-1031.281516288248
 21
-688.87507196072283
 31
0.0
  0
LINE
  5
8890
  8
0
 62
     0
 10
-1031.064418153956
 20
-688.62261855808197
 30
0.0
 11
-1031.0053631539549
 21
-688.56356355808225
 31
0.0
  0
LINE
  5
8891
  8
0
 62
     0
 10
-1031.3751917302759
 20
-688.93339213440242
 30
0.0
 11
-1031.316871556596
 21
-688.87507196072283
 31
0.0
  0
LINE
  5
8892
  8
0
 62
     0
 10
-1031.064418153956
 20
-688.58726328973353
 30
0.0
 11
-1031.0053631539549
 21
-688.52820828973358
 31
0.0
  0
LINE
  5
8893
  8
0
 62
     0
 10
-1031.379378153955
 20
-688.90222328973346
 30
0.0
 11
-1031.3522268249451
 21
-688.87507196072283
 31
0.0
  0
LINE
  5
8894
  8
0
 62
     0
 10
-1031.064418153956
 20
-688.55190802138475
 30
0.0
 11
-1031.0053631539549
 21
-688.49285302138492
 31
0.0
  0
LINE
  5
8895
  8
0
 62
     0
 10
-1031.064418153956
 20
-688.51655275303619
 30
0.0
 11
-1031.0053631539549
 21
-688.45749775303625
 31
0.0
  0
LINE
  5
8896
  8
0
 62
     0
 10
-1031.064418153956
 20
-688.48119748468753
 30
0.0
 11
-1031.0053631539549
 21
-688.42214248468758
 31
0.0
  0
LINE
  5
8897
  8
0
 62
     0
 10
-1031.064418153956
 20
-688.44584221633886
 30
0.0
 11
-1031.0053631539549
 21
-688.38678721633892
 31
0.0
  0
LINE
  5
8898
  8
0
 62
     0
 10
-1031.064418153956
 20
-688.41048694799019
 30
0.0
 11
-1031.0053631539549
 21
-688.35143194799025
 31
0.0
  0
LINE
  5
8899
  8
0
 62
     0
 10
-1031.064418153956
 20
-688.37513167964164
 30
0.0
 11
-1031.0053631539549
 21
-688.31607667964181
 31
0.0
  0
LINE
  5
889A
  8
0
 62
     0
 10
-1031.064418153956
 20
-688.33977641129286
 30
0.0
 11
-1031.0053631539549
 21
-688.28072141129314
 31
0.0
  0
LINE
  5
889B
  8
0
 62
     0
 10
-1031.064418153956
 20
-688.30442114294419
 30
0.0
 11
-1031.0053631539549
 21
-688.24536614294436
 31
0.0
  0
LINE
  5
889C
  8
0
 62
     0
 10
-1031.064418153956
 20
-688.26906587459564
 30
0.0
 11
-1031.0053631539549
 21
-688.21001087459581
 31
0.0
  0
LINE
  5
889D
  8
0
 62
     0
 10
-1031.064418153956
 20
-688.23371060624686
 30
0.0
 11
-1031.0053631539549
 21
-688.17465560624714
 31
0.0
  0
LINE
  5
889E
  8
0
 62
     0
 10
-1031.064418153956
 20
-688.19835533789831
 30
0.0
 11
-1031.0053631539549
 21
-688.13930033789848
 31
0.0
  0
LINE
  5
889F
  8
0
 62
     0
 10
-1031.064418153956
 20
-688.16300006954964
 30
0.0
 11
-1031.0053631539549
 21
-688.10394506954981
 31
0.0
  0
LINE
  5
88A0
  8
0
 62
     0
 10
-1031.064418153956
 20
-688.12764480120086
 30
0.0
 11
-1031.0053631539561
 21
-688.06858980120114
 31
0.0
  0
LINE
  5
88A1
  8
0
 62
     0
 10
-1031.064418153956
 20
-688.09228953285231
 30
0.0
 11
-1031.0053631539561
 21
-688.03323453285248
 31
0.0
  0
LINE
  5
88A2
  8
0
 62
     0
 10
-1031.064418153956
 20
-688.05693426450364
 30
0.0
 11
-1031.0053631539561
 21
-687.99787926450369
 31
0.0
  0
LINE
  5
88A3
  8
0
 62
     0
 10
-1031.064418153956
 20
-688.02157899615509
 30
0.0
 11
-1031.0053631539561
 21
-687.96252399615514
 31
0.0
  0
LINE
  5
88A4
  8
0
 62
     0
 10
-1031.064418153956
 20
-687.98622372780642
 30
0.0
 11
-1031.0053631539561
 21
-687.92716872780636
 31
0.0
  0
LINE
  5
88A5
  8
0
 62
     0
 10
-1031.064418153956
 20
-687.95086845945775
 30
0.0
 11
-1031.0053631539561
 21
-687.89181345945792
 31
0.0
  0
LINE
  5
88A6
  8
0
 62
     0
 10
-1031.064418153956
 20
-687.91551319110908
 30
0.0
 11
-1031.0053631539561
 21
-687.85645819110925
 31
0.0
  0
LINE
  5
88A7
  8
0
 62
     0
 10
-1031.064418153956
 20
-687.88015792276053
 30
0.0
 11
-1031.0053631539561
 21
-687.82110292276059
 31
0.0
  0
LINE
  5
88A8
  8
0
 62
     0
 10
-1031.064418153956
 20
-687.84480265441175
 30
0.0
 11
-1031.0053631539561
 21
-687.78574765441203
 31
0.0
  0
LINE
  5
88A9
  8
0
 62
     0
 10
-1031.064418153956
 20
-687.8094473860632
 30
0.0
 11
-1031.0053631539561
 21
-687.75039238606337
 31
0.0
  0
LINE
  5
88AA
  8
0
 62
     0
 10
-1031.064418153956
 20
-687.77409211771453
 30
0.0
 11
-1031.0053631539561
 21
-687.7150371177147
 31
0.0
  0
LINE
  5
88AB
  8
0
 62
     0
 10
-1031.064418153956
 20
-687.73873684936575
 30
0.0
 11
-1031.0053631539549
 21
-687.67968184936603
 31
0.0
  0
LINE
  5
88AC
  8
0
 62
     0
 10
-1031.064418153956
 20
-687.7033815810172
 30
0.0
 11
-1031.0053631539549
 21
-687.64432658101725
 31
0.0
  0
LINE
  5
88AD
  8
0
 62
     0
 10
-1031.064418153956
 20
-687.66802631266853
 30
0.0
 11
-1031.0053631539549
 21
-687.60897131266859
 31
0.0
  0
LINE
  5
88AE
  8
0
 62
     0
 10
-1031.064418153956
 20
-687.63267104431986
 30
0.0
 11
-1031.0053631539549
 21
-687.57361604432003
 31
0.0
  0
LINE
  5
88AF
  8
0
 62
     0
 10
-1031.064418153956
 20
-687.5973157759712
 30
0.0
 11
-1031.0053631539549
 21
-687.53826077597125
 31
0.0
  0
LINE
  5
88B0
  8
0
 62
     0
 10
-1031.064418153956
 20
-687.56196050762264
 30
0.0
 11
-1031.0053631539549
 21
-687.50290550762259
 31
0.0
  0
LINE
  5
88B1
  8
0
 62
     0
 10
-1031.064418153956
 20
-687.52660523927386
 30
0.0
 11
-1031.0053631539549
 21
-687.46755023927403
 31
0.0
  0
LINE
  5
88B2
  8
0
 62
     0
 10
-1031.064418153956
 20
-687.49124997092542
 30
0.0
 11
-1031.0053631539549
 21
-687.43219497092548
 31
0.0
  0
LINE
  5
88B3
  8
0
 62
     0
 10
-1031.064418153956
 20
-687.45589470257676
 30
0.0
 11
-1031.0053631539549
 21
-687.39683970257681
 31
0.0
  0
LINE
  5
88B4
  8
0
 62
     0
 10
-1031.064418153956
 20
-687.42053943422809
 30
0.0
 11
-1031.0053631539549
 21
-687.36148443422815
 31
0.0
  0
LINE
  5
88B5
  8
0
 62
     0
 10
-1031.064418153956
 20
-687.38518416587942
 30
0.0
 11
-1031.0053631539549
 21
-687.32612916587948
 31
0.0
  0
LINE
  5
88B6
  8
0
 62
     0
 10
-1031.064418153956
 20
-687.34982889753076
 30
0.0
 11
-1031.0053631539549
 21
-687.29077389753081
 31
0.0
  0
LINE
  5
88B7
  8
0
 62
     0
 10
-1031.064418153956
 20
-687.31447362918209
 30
0.0
 11
-1031.0053631539549
 21
-687.25541862918215
 31
0.0
  0
LINE
  5
88B8
  8
0
 62
     0
 10
-1031.064418153956
 20
-687.27911836083342
 30
0.0
 11
-1031.0053631539549
 21
-687.22006336083348
 31
0.0
  0
LINE
  5
88B9
  8
0
 62
     0
 10
-1031.064418153956
 20
-687.24376309248476
 30
0.0
 11
-1031.0053631539549
 21
-687.18470809248493
 31
0.0
  0
LINE
  5
88BA
  8
0
 62
     0
 10
-1031.064418153956
 20
-687.20840782413609
 30
0.0
 11
-1031.0053631539549
 21
-687.14935282413614
 31
0.0
  0
LINE
  5
88BB
  8
0
 62
     0
 10
-1031.064418153956
 20
-687.17305255578754
 30
0.0
 11
-1031.0053631539549
 21
-687.11399755578748
 31
0.0
  0
LINE
  5
88BC
  8
0
 62
     0
 10
-1031.08919782724
 20
-687.1624769607231
 30
0.0
 11
-1031.0053631539549
 21
-687.07864228743892
 31
0.0
  0
LINE
  5
88BD
  8
0
 62
     0
 10
-1031.124553095588
 20
-687.1624769607231
 30
0.0
 11
-1031.0053631539549
 21
-687.04328701909014
 31
0.0
  0
LINE
  5
88BE
  8
0
 62
     0
 10
-1031.064418153956
 20
-687.06698675074153
 30
0.0
 11
-1030.987634680635
 21
-686.99020327742073
 31
0.0
  0
LINE
  5
88BF
  8
0
 62
     0
 10
-1031.1599083639369
 20
-687.1624769607231
 30
0.0
 11
-1031.086089613937
 21
-687.088658210723
 31
0.0
  0
LINE
  5
88C0
  8
0
 62
     0
 10
-1031.064418153956
 20
-687.03163148239298
 30
0.0
 11
-1030.9640645017359
 21
-686.93127783017292
 31
0.0
  0
LINE
  5
88C1
  8
0
 62
     0
 10
-1031.195263632286
 20
-687.1624769607231
 30
0.0
 11
-1031.1214448822859
 21
-687.08865821072311
 31
0.0
  0
LINE
  5
88C2
  8
0
 62
     0
 10
-1031.068217650635
 20
-687.00007571072308
 30
0.0
 11
-1030.9463081539559
 21
-686.8781662140442
 31
0.0
  0
LINE
  5
88C3
  8
0
 62
     0
 10
-1031.2306189006349
 20
-687.1624769607231
 30
0.0
 11
-1031.1568001506339
 21
-687.08865821072311
 31
0.0
  0
LINE
  5
88C4
  8
0
 62
     0
 10
-1031.103572918983
 20
-687.00007571072308
 30
0.0
 11
-1030.9463081539559
 21
-686.84281094569553
 31
0.0
  0
LINE
  5
88C5
  8
0
 62
     0
 10
-1031.2659741689829
 20
-687.1624769607231
 30
0.0
 11
-1031.192155418983
 21
-687.08865821072311
 31
0.0
  0
LINE
  5
88C6
  8
0
 62
     0
 10
-1031.1389281873321
 20
-687.00007571072308
 30
0.0
 11
-1031.065109437332
 21
-686.92625696072321
 31
0.0
  0
LINE
  5
88C7
  8
0
 62
     0
 10
-1031.034696590677
 20
-686.89584411406815
 30
0.0
 11
-1030.954815152425
 21
-686.81596267581665
 31
0.0
  0
LINE
  5
88C8
  8
0
 62
     0
 10
-1031.301329437332
 20
-687.1624769607231
 30
0.0
 11
-1031.2275106873319
 21
-687.08865821072311
 31
0.0
  0
LINE
  5
88C9
  8
0
 62
     0
 10
-1031.1742834556801
 20
-687.00007571072308
 30
0.0
 11
-1031.10046470568
 21
-686.92625696072298
 31
0.0
  0
LINE
  5
88CA
  8
0
 62
     0
 10
-1031.0260063021869
 20
-686.85179855722993
 30
0.0
 11
-1030.9695758037269
 21
-686.79536805876944
 31
0.0
  0
LINE
  5
88CB
  8
0
 62
     0
 10
-1031.33668470568
 20
-687.1624769607231
 30
0.0
 11
-1031.2628659556799
 21
-687.08865821072311
 31
0.0
  0
LINE
  5
88CC
  8
0
 62
     0
 10
-1031.209638724029
 20
-687.00007571072308
 30
0.0
 11
-1031.1358199740289
 21
-686.92625696072298
 31
0.0
  0
LINE
  5
88CD
  8
0
 62
     0
 10
-1031.0407669534891
 20
-686.83120394018272
 30
0.0
 11
-1030.9843364550279
 21
-686.77477344172223
 31
0.0
  0
LINE
  5
88CE
  8
0
 62
     0
 10
-1031.3720399740289
 20
-687.1624769607231
 30
0.0
 11
-1031.298221224029
 21
-687.08865821072311
 31
0.0
  0
LINE
  5
88CF
  8
0
 62
     0
 10
-1031.2449939923781
 20
-687.00007571072308
 30
0.0
 11
-1031.171175242378
 21
-686.92625696072298
 31
0.0
  0
LINE
  5
88D0
  8
0
 62
     0
 10
-1031.0555276047901
 20
-686.81060932313551
 30
0.0
 11
-1030.9990971063301
 21
-686.75417882467502
 31
0.0
  0
LINE
  5
88D1
  8
0
 62
     0
 10
-1031.379378153955
 20
-687.13445987230091
 30
0.0
 11
-1031.3335764923779
 21
-687.08865821072311
 31
0.0
  0
LINE
  5
88D2
  8
0
 62
     0
 10
-1031.0702882560911
 20
-686.79001470608819
 30
0.0
 11
-1031.0138577576311
 21
-686.73358420762793
 31
0.0
  0
LINE
  5
88D3
  8
0
 62
     0
 10
-1031.2803492607261
 20
-687.00007571072308
 30
0.0
 11
-1031.206530510726
 21
-686.92625696072298
 31
0.0
  0
LINE
  5
88D4
  8
0
 62
     0
 10
-1031.085048907393
 20
-686.76942008904098
 30
0.0
 11
-1031.028618408933
 21
-686.71298959058072
 31
0.0
  0
LINE
  5
88D5
  8
0
 62
     0
 10
-1031.315704529075
 20
-687.00007571072308
 30
0.0
 11
-1031.2418857790749
 21
-686.92625696072298
 31
0.0
  0
LINE
  5
88D6
  8
0
 62
     0
 10
-1031.1013706104211
 20
-686.75038652372029
 30
0.0
 11
-1031.043379060234
 21
-686.69239497353351
 31
0.0
  0
LINE
  5
88D7
  8
0
 62
     0
 10
-1031.3510597974241
 20
-687.00007571072308
 30
0.0
 11
-1031.277241047424
 21
-686.92625696072298
 31
0.0
  0
LINE
  5
88D8
  8
0
 62
     0
 10
-1031.1355329051501
 20
-686.74919355010093
 30
0.0
 11
-1031.058794327025
 21
-686.67245497197587
 31
0.0
  0
LINE
  5
88D9
  8
0
 62
     0
 10
-1031.3730541098639
 20
-686.98671475481467
 30
0.0
 11
-1031.312596315772
 21
-686.92625696072298
 31
0.0
  0
LINE
  5
88DA
  8
0
 62
     0
 10
-1031.169695199879
 20
-686.74800057648145
 30
0.0
 11
-1031.084049518035
 21
-686.66235489463713
 31
0.0
  0
LINE
  5
88DB
  8
0
 62
     0
 10
-1031.379378153955
 20
-686.95768353055769
 30
0.0
 11
-1031.3479515841209
 21
-686.92625696072298
 31
0.0
  0
LINE
  5
88DC
  8
0
 62
     0
 10
-1031.203857494608
 20
-686.74680760286174
 30
0.0
 11
-1031.118211812764
 21
-686.66116192101754
 31
0.0
  0
LINE
  5
88DD
  8
0
 62
     0
 10
-1031.2380197893381
 20
-686.74561462924237
 30
0.0
 11
-1031.152374107493
 21
-686.65996894739806
 31
0.0
  0
LINE
  5
88DE
  8
0
 62
     0
 10
-1031.272182084067
 20
-686.74442165562277
 30
0.0
 11
-1031.1865364022219
 21
-686.65877597377846
 31
0.0
  0
LINE
  5
88DF
  8
0
 62
     0
 10
-1031.306344378796
 20
-686.74322868200329
 30
0.0
 11
-1031.2206986969511
 21
-686.65758300015898
 31
0.0
  0
LINE
  5
88E0
  8
0
 62
     0
 10
-1031.3405066735249
 20
-686.7420357083837
 30
0.0
 11
-1031.2548609916801
 21
-686.65639002653938
 31
0.0
  0
LINE
  5
88E1
  8
0
 62
     0
 10
-1031.3746689682539
 20
-686.7408427347641
 30
0.0
 11
-1031.2890232864099
 21
-686.65519705292002
 31
0.0
  0
LINE
  5
88E2
  8
0
 62
     0
 10
-1031.379378153955
 20
-686.71019665211713
 30
0.0
 11
-1031.3231855811389
 21
-686.65400407930042
 31
0.0
  0
LINE
  5
88E3
  8
0
 62
     0
 10
-1031.39654223091
 20
-686.69200546072307
 30
0.0
 11
-1031.3573478758681
 21
-686.65281110568083
 31
0.0
  0
LINE
  5
88E4
  8
0
 62
     0
 10
-1031.418748153955
 20
-686.67885611541965
 30
0.0
 11
-1031.391510170597
 21
-686.65161813206134
 31
0.0
  0
ENDBLK
  5
88E6
  8
0
  0
BLOCK
  8
0
  2
*X43
 70
     1
 10
0.0
 20
0.0
 30
0.0
  3
*X43
  1

  0
LINE
  5
88FF
  8
0
 62
     0
 10
-1020.513391883385
 20
-688.687108217439
 30
0.0
 11
-1020.5059383394801
 21
-688.6796546735344
 31
0.0
  0
LINE
  5
8900
  8
0
 62
     0
 10
-1020.548747151733
 20
-688.68710821743912
 30
0.0
 11
-1020.5059383394801
 21
-688.64429940518573
 31
0.0
  0
LINE
  5
8901
  8
0
 62
     0
 10
-1020.593043131415
 20
-688.73140419712058
 30
0.0
 11
-1020.56499333948
 21
-688.70335440518556
 31
0.0
  0
LINE
  5
8902
  8
0
 62
     0
 10
-1020.627205426144
 20
-688.7302112235011
 30
0.0
 11
-1020.540741425124
 21
-688.64374722248112
 31
0.0
  0
LINE
  5
8903
  8
0
 62
     0
 10
-1020.661367720873
 20
-688.72901824988151
 30
0.0
 11
-1020.575722039029
 21
-688.64337256803719
 31
0.0
  0
LINE
  5
8904
  8
0
 62
     0
 10
-1020.695530015602
 20
-688.72782527626191
 30
0.0
 11
-1020.609884333758
 21
-688.64217959441771
 31
0.0
  0
LINE
  5
8905
  8
0
 62
     0
 10
-1020.7275012159751
 20
-688.72444120828652
 30
0.0
 11
-1020.644046628487
 21
-688.64098662079812
 31
0.0
  0
LINE
  5
8906
  8
0
 62
     0
 10
-1020.751627537796
 20
-688.71321226175826
 30
0.0
 11
-1020.6782089232159
 21
-688.63979364717852
 31
0.0
  0
LINE
  5
8907
  8
0
 62
     0
 10
-1020.569934261825
 20
-688.496163717439
 30
0.0
 11
-1020.5689303394799
 21
-688.49515979509385
 31
0.0
  0
LINE
  5
8908
  8
0
 62
     0
 10
-1020.775695779825
 20
-688.70192523543892
 30
0.0
 11
-1020.712371217945
 21
-688.63860067355893
 31
0.0
  0
LINE
  5
8909
  8
0
 62
     0
 10
-1020.605289530173
 20
-688.496163717439
 30
0.0
 11
-1020.5689303394799
 21
-688.45980452674496
 31
0.0
  0
LINE
  5
890A
  8
0
 62
     0
 10
-1020.540329030173
 20
-688.43120321743902
 30
0.0
 11
-1020.506864530174
 21
-688.3977387174391
 31
0.0
  0
LINE
  5
890B
  8
0
 62
     0
 10
-1020.799764021854
 20
-688.69063820911936
 30
0.0
 11
-1020.740559916352
 21
-688.63143410361738
 31
0.0
  0
LINE
  5
890C
  8
0
 62
     0
 10
-1020.640644798522
 20
-688.496163717439
 30
0.0
 11
-1020.542219798522
 21
-688.3977387174391
 31
0.0
  0
LINE
  5
890D
  8
0
 62
     0
 10
-1020.823832263883
 20
-688.67935118279968
 30
0.0
 11
-1020.764628158381
 21
-688.62014707729782
 31
0.0
  0
LINE
  5
890E
  8
0
 62
     0
 10
-1020.676000066871
 20
-688.496163717439
 30
0.0
 11
-1020.577575066871
 21
-688.39773871743898
 31
0.0
  0
LINE
  5
890F
  8
0
 62
     0
 10
-1020.847900505912
 20
-688.66806415648034
 30
0.0
 11
-1020.78869640041
 21
-688.60886005097836
 31
0.0
  0
LINE
  5
8910
  8
0
 62
     0
 10
-1020.71135533522
 20
-688.496163717439
 30
0.0
 11
-1020.66214283522
 21
-688.44695121743905
 31
0.0
  0
LINE
  5
8911
  8
0
 62
     0
 10
-1020.64767033948
 20
-688.43247872169911
 30
0.0
 11
-1020.61293033522
 21
-688.39773871743898
 31
0.0
  0
LINE
  5
8912
  8
0
 62
     0
 10
-1020.871968747941
 20
-688.65677713016066
 30
0.0
 11
-1020.81276464244
 21
-688.59757302465891
 31
0.0
  0
LINE
  5
8913
  8
0
 62
     0
 10
-1020.746710603568
 20
-688.496163717439
 30
0.0
 11
-1020.697498103568
 21
-688.44695121743905
 31
0.0
  0
LINE
  5
8914
  8
0
 62
     0
 10
-1020.530175603568
 20
-688.27962871743887
 30
0.0
 11
-1020.5059383394801
 21
-688.25539145335063
 31
0.0
  0
LINE
  5
8915
  8
0
 62
     0
 10
-1020.89226546004
 20
-688.64171857391125
 30
0.0
 11
-1020.82089833948
 21
-688.57035145335055
 31
0.0
  0
LINE
  5
8916
  8
0
 62
     0
 10
-1020.782065871917
 20
-688.496163717439
 30
0.0
 11
-1020.732853371917
 21
-688.44695121743905
 31
0.0
  0
LINE
  5
8917
  8
0
 62
     0
 10
-1020.565530871917
 20
-688.27962871743887
 30
0.0
 11
-1020.532066371917
 21
-688.24616421743917
 31
0.0
  0
LINE
  5
8918
  8
0
 62
     0
 10
-1020.89963833948
 20
-688.61373618500193
 30
0.0
 11
-1020.82089833948
 21
-688.53499618500177
 31
0.0
  0
LINE
  5
8919
  8
0
 62
     0
 10
-1020.817421140265
 20
-688.496163717439
 30
0.0
 11
-1020.768208640266
 21
-688.44695121743905
 31
0.0
  0
LINE
  5
891A
  8
0
 62
     0
 10
-1020.6008861402649
 20
-688.27962871743887
 30
0.0
 11
-1020.567421640266
 21
-688.24616421743917
 31
0.0
  0
LINE
  5
891B
  8
0
 62
     0
 10
-1020.89963833948
 20
-688.57838091665315
 30
0.0
 11
-1020.82089833948
 21
-688.49964091665322
 31
0.0
  0
LINE
  5
891C
  8
0
 62
     0
 10
-1020.636241408614
 20
-688.27962871743887
 30
0.0
 11
-1020.5689303394799
 21
-688.21231764830463
 31
0.0
  0
LINE
  5
891D
  8
0
 62
     0
 10
-1020.89963833948
 20
-688.54302564830448
 30
0.0
 11
-1020.803563908614
 21
-688.44695121743905
 31
0.0
  0
LINE
  5
891E
  8
0
 62
     0
 10
-1020.64767033948
 20
-688.25570237995589
 30
0.0
 11
-1020.5731716769631
 21
-688.18120371743885
 31
0.0
  0
LINE
  5
891F
  8
0
 62
     0
 10
-1020.89963833948
 20
-688.50767037995593
 30
0.0
 11
-1020.838919176963
 21
-688.44695121743905
 31
0.0
  0
LINE
  5
8920
  8
0
 62
     0
 10
-1020.657739445311
 20
-688.23041621743891
 30
0.0
 11
-1020.608526945312
 21
-688.18120371743885
 31
0.0
  0
LINE
  5
8921
  8
0
 62
     0
 10
-1020.89963833948
 20
-688.47231511160714
 30
0.0
 11
-1020.874274445312
 21
-688.44695121743905
 31
0.0
  0
LINE
  5
8922
  8
0
 62
     0
 10
-1020.69309471366
 20
-688.23041621743891
 30
0.0
 11
-1020.64388221366
 21
-688.18120371743885
 31
0.0
  0
LINE
  5
8923
  8
0
 62
     0
 10
-1020.728449982009
 20
-688.23041621743891
 30
0.0
 11
-1020.6792374820089
 21
-688.18120371743885
 31
0.0
  0
LINE
  5
8924
  8
0
 62
     0
 10
-1020.763805250357
 20
-688.23041621743891
 30
0.0
 11
-1020.714592750357
 21
-688.18120371743885
 31
0.0
  0
LINE
  5
8925
  8
0
 62
     0
 10
-1020.799160518706
 20
-688.23041621743891
 30
0.0
 11
-1020.749948018706
 21
-688.18120371743885
 31
0.0
  0
LINE
  5
8926
  8
0
 62
     0
 10
-1020.834515787055
 20
-688.23041621743891
 30
0.0
 11
-1020.7853032870549
 21
-688.18120371743885
 31
0.0
  0
LINE
  5
8927
  8
0
 62
     0
 10
-1020.869871055403
 20
-688.23041621743891
 30
0.0
 11
-1020.820658555403
 21
-688.18120371743885
 31
0.0
  0
LINE
  5
8928
  8
0
 62
     0
 10
-1020.89963833948
 20
-688.2248282331667
 30
0.0
 11
-1020.82089833948
 21
-688.14608823316667
 31
0.0
  0
LINE
  5
8929
  8
0
 62
     0
 10
-1020.89963833948
 20
-688.18947296481815
 30
0.0
 11
-1020.82089833948
 21
-688.110732964818
 31
0.0
  0
LINE
  5
892A
  8
0
 62
     0
 10
-1020.89963833948
 20
-688.15411769646937
 30
0.0
 11
-1020.82089833948
 21
-688.07537769646945
 31
0.0
  0
LINE
  5
892B
  8
0
 62
     0
 10
-1020.89963833948
 20
-688.11876242812082
 30
0.0
 11
-1020.82089833948
 21
-688.04002242812066
 31
0.0
  0
LINE
  5
892C
  8
0
 62
     0
 10
-1020.89963833948
 20
-688.08340715977215
 30
0.0
 11
-1020.82089833948
 21
-688.00466715977211
 31
0.0
  0
LINE
  5
892D
  8
0
 62
     0
 10
-1020.89963833948
 20
-688.04805189142337
 30
0.0
 11
-1020.82089833948
 21
-687.96931189142344
 31
0.0
  0
LINE
  5
892E
  8
0
 62
     0
 10
-1020.89963833948
 20
-688.01269662307482
 30
0.0
 11
-1020.82089833948
 21
-687.93395662307466
 31
0.0
  0
LINE
  5
892F
  8
0
 62
     0
 10
-1020.89963833948
 20
-687.97734135472615
 30
0.0
 11
-1020.820898339479
 21
-687.89860135472611
 31
0.0
  0
LINE
  5
8930
  8
0
 62
     0
 10
-1020.89963833948
 20
-687.94198608637748
 30
0.0
 11
-1020.820898339479
 21
-687.86324608637744
 31
0.0
  0
LINE
  5
8931
  8
0
 62
     0
 10
-1020.89963833948
 20
-687.90663081802882
 30
0.0
 11
-1020.820898339479
 21
-687.82789081802889
 31
0.0
  0
LINE
  5
8932
  8
0
 62
     0
 10
-1020.89963833948
 20
-687.87127554968026
 30
0.0
 11
-1020.820898339479
 21
-687.79253554968022
 31
0.0
  0
LINE
  5
8933
  8
0
 62
     0
 10
-1020.89963833948
 20
-687.8359202813316
 30
0.0
 11
-1020.82089833948
 21
-687.75718028133144
 31
0.0
  0
LINE
  5
8934
  8
0
 62
     0
 10
-1020.89963833948
 20
-687.80056501298293
 30
0.0
 11
-1020.82089833948
 21
-687.72182501298278
 31
0.0
  0
LINE
  5
8935
  8
0
 62
     0
 10
-1020.89963833948
 20
-687.76520974463426
 30
0.0
 11
-1020.820898339479
 21
-687.68646974463434
 31
0.0
  0
LINE
  5
8936
  8
0
 62
     0
 10
-1020.89963833948
 20
-687.72985447628571
 30
0.0
 11
-1020.820898339479
 21
-687.65111447628556
 31
0.0
  0
LINE
  5
8937
  8
0
 62
     0
 10
-1020.89963833948
 20
-687.69449920793704
 30
0.0
 11
-1020.82089833948
 21
-687.615759207937
 31
0.0
  0
LINE
  5
8938
  8
0
 62
     0
 10
-1020.89963833948
 20
-687.65914393958826
 30
0.0
 11
-1020.820898339479
 21
-687.58040393958834
 31
0.0
  0
LINE
  5
8939
  8
0
 62
     0
 10
-1020.89963833948
 20
-687.62378867123971
 30
0.0
 11
-1020.820898339479
 21
-687.54504867123956
 31
0.0
  0
LINE
  5
893A
  8
0
 62
     0
 10
-1020.89963833948
 20
-687.58843340289104
 30
0.0
 11
-1020.82089833948
 21
-687.509693402891
 31
0.0
  0
LINE
  5
893B
  8
0
 62
     0
 10
-1020.89963833948
 20
-687.55307813454237
 30
0.0
 11
-1020.82089833948
 21
-687.47433813454234
 31
0.0
  0
LINE
  5
893C
  8
0
 62
     0
 10
-1020.89963833948
 20
-687.51772286619371
 30
0.0
 11
-1020.82089833948
 21
-687.43898286619367
 31
0.0
  0
LINE
  5
893D
  8
0
 62
     0
 10
-1020.89963833948
 20
-687.48236759784504
 30
0.0
 11
-1020.82089833948
 21
-687.403627597845
 31
0.0
  0
LINE
  5
893E
  8
0
 62
     0
 10
-1020.89963833948
 20
-687.44701232949637
 30
0.0
 11
-1020.82089833948
 21
-687.36827232949634
 31
0.0
  0
LINE
  5
893F
  8
0
 62
     0
 10
-1020.89963833948
 20
-687.41165706114771
 30
0.0
 11
-1020.82089833948
 21
-687.33291706114755
 31
0.0
  0
LINE
  5
8940
  8
0
 62
     0
 10
-1020.89963833948
 20
-687.37630179279904
 30
0.0
 11
-1020.82089833948
 21
-687.29756179279889
 31
0.0
  0
LINE
  5
8941
  8
0
 62
     0
 10
-1020.89963833948
 20
-687.34094652445026
 30
0.0
 11
-1020.82089833948
 21
-687.26220652445045
 31
0.0
  0
LINE
  5
8942
  8
0
 62
     0
 10
-1020.89963833948
 20
-687.30559125610182
 30
0.0
 11
-1020.82089833948
 21
-687.2268512561019
 31
0.0
  0
LINE
  5
8943
  8
0
 62
     0
 10
-1020.89963833948
 20
-687.27023598775315
 30
0.0
 11
-1020.82089833948
 21
-687.19149598775323
 31
0.0
  0
LINE
  5
8944
  8
0
 62
     0
 10
-1020.89963833948
 20
-687.2348807194046
 30
0.0
 11
-1020.82089833948
 21
-687.15614071940445
 31
0.0
  0
LINE
  5
8945
  8
0
 62
     0
 10
-1020.89963833948
 20
-687.19952545105593
 30
0.0
 11
-1020.82089833948
 21
-687.12078545105589
 31
0.0
  0
LINE
  5
8946
  8
0
 62
     0
 10
-1020.89963833948
 20
-687.16417018270727
 30
0.0
 11
-1020.82089833948
 21
-687.08543018270723
 31
0.0
  0
LINE
  5
8947
  8
0
 62
     0
 10
-1020.89963833948
 20
-687.1288149143586
 30
0.0
 11
-1020.82089833948
 21
-687.05007491435856
 31
0.0
  0
LINE
  5
8948
  8
0
 62
     0
 10
-1020.89963833948
 20
-687.09345964600993
 30
0.0
 11
-1020.820898339479
 21
-687.01471964600989
 31
0.0
  0
LINE
  5
8949
  8
0
 62
     0
 10
-1020.89963833948
 20
-687.05810437766127
 30
0.0
 11
-1020.820898339479
 21
-686.97936437766123
 31
0.0
  0
LINE
  5
894A
  8
0
 62
     0
 10
-1020.89963833948
 20
-687.0227491093126
 30
0.0
 11
-1020.820898339479
 21
-686.94400910931245
 31
0.0
  0
LINE
  5
894B
  8
0
 62
     0
 10
-1020.89963833948
 20
-686.98739384096393
 30
0.0
 11
-1020.820898339479
 21
-686.90865384096378
 31
0.0
  0
LINE
  5
894C
  8
0
 62
     0
 10
-1020.89963833948
 20
-686.95203857261515
 30
0.0
 11
-1020.820898339479
 21
-686.87329857261523
 31
0.0
  0
LINE
  5
894D
  8
0
 62
     0
 10
-1020.89963833948
 20
-686.91668330426671
 30
0.0
 11
-1020.820898339479
 21
-686.83794330426645
 31
0.0
  0
LINE
  5
894E
  8
0
 62
     0
 10
-1020.89963833948
 20
-686.88132803591805
 30
0.0
 11
-1020.82089833948
 21
-686.80258803591801
 31
0.0
  0
LINE
  5
894F
  8
0
 62
     0
 10
-1020.601014289349
 20
-686.54734871743904
 30
0.0
 11
-1020.5689303394799
 21
-686.51526476756942
 31
0.0
  0
LINE
  5
8950
  8
0
 62
     0
 10
-1020.536053789349
 20
-686.48238821743905
 30
0.0
 11
-1020.5059383394801
 21
-686.45227276756953
 31
0.0
  0
LINE
  5
8951
  8
0
 62
     0
 10
-1020.89963833948
 20
-686.84597276756949
 30
0.0
 11
-1020.82089833948
 21
-686.76723276756945
 31
0.0
  0
LINE
  5
8952
  8
0
 62
     0
 10
-1020.636369557698
 20
-686.54734871743904
 30
0.0
 11
-1020.537944557698
 21
-686.4489237174389
 31
0.0
  0
LINE
  5
8953
  8
0
 62
     0
 10
-1020.89963833948
 20
-686.81061749922083
 30
0.0
 11
-1020.820898339479
 21
-686.73187749922079
 31
0.0
  0
LINE
  5
8954
  8
0
 62
     0
 10
-1020.671724826047
 20
-686.54734871743904
 30
0.0
 11
-1020.573299826047
 21
-686.4489237174389
 31
0.0
  0
LINE
  5
8955
  8
0
 62
     0
 10
-1020.89963833948
 20
-686.77526223087204
 30
0.0
 11
-1020.820898339479
 21
-686.69652223087212
 31
0.0
  0
LINE
  5
8956
  8
0
 62
     0
 10
-1020.707080094395
 20
-686.54734871743904
 30
0.0
 11
-1020.657867594395
 21
-686.49813621743897
 31
0.0
  0
LINE
  5
8957
  8
0
 62
     0
 10
-1020.64767033948
 20
-686.48793896252334
 30
0.0
 11
-1020.608655094395
 21
-686.4489237174389
 31
0.0
  0
LINE
  5
8958
  8
0
 62
     0
 10
-1020.89963833948
 20
-686.73990696252349
 30
0.0
 11
-1020.820898339479
 21
-686.66116696252345
 31
0.0
  0
LINE
  5
8959
  8
0
 62
     0
 10
-1020.64767033948
 20
-686.4525836941749
 30
0.0
 11
-1020.644010362744
 21
-686.4489237174389
 31
0.0
  0
LINE
  5
895A
  8
0
 62
     0
 10
-1020.742435362744
 20
-686.54734871743904
 30
0.0
 11
-1020.6932228627441
 21
-686.49813621743897
 31
0.0
  0
LINE
  5
895B
  8
0
 62
     0
 10
-1020.525900362744
 20
-686.3308137174389
 30
0.0
 11
-1020.5059383394801
 21
-686.31085169417474
 31
0.0
  0
LINE
  5
895C
  8
0
 62
     0
 10
-1020.89963833948
 20
-686.70455169417482
 30
0.0
 11
-1020.820898339479
 21
-686.62581169417479
 31
0.0
  0
LINE
  5
895D
  8
0
 62
     0
 10
-1020.777790631093
 20
-686.54734871743904
 30
0.0
 11
-1020.7285781310929
 21
-686.49813621743897
 31
0.0
  0
LINE
  5
895E
  8
0
 62
     0
 10
-1020.561255631092
 20
-686.3308137174389
 30
0.0
 11
-1020.527791131092
 21
-686.29734921743875
 31
0.0
  0
LINE
  5
895F
  8
0
 62
     0
 10
-1020.89963833948
 20
-686.66919642582616
 30
0.0
 11
-1020.82089833948
 21
-686.59045642582612
 31
0.0
  0
LINE
  5
8960
  8
0
 62
     0
 10
-1020.813145899441
 20
-686.54734871743892
 30
0.0
 11
-1020.763933399441
 21
-686.49813621743897
 31
0.0
  0
LINE
  5
8961
  8
0
 62
     0
 10
-1020.596610899441
 20
-686.3308137174389
 30
0.0
 11
-1020.5631463994411
 21
-686.29734921743875
 31
0.0
  0
LINE
  5
8962
  8
0
 62
     0
 10
-1020.89963833948
 20
-686.63384115747738
 30
0.0
 11
-1020.82089833948
 21
-686.55510115747745
 31
0.0
  0
LINE
  5
8963
  8
0
 62
     0
 10
-1020.63196616779
 20
-686.3308137174389
 30
0.0
 11
-1020.5689303394799
 21
-686.26777788912875
 31
0.0
  0
LINE
  5
8964
  8
0
 62
     0
 10
-1020.89963833948
 20
-686.59848588912871
 30
0.0
 11
-1020.7992886677901
 21
-686.49813621743897
 31
0.0
  0
LINE
  5
8965
  8
0
 62
     0
 10
-1020.64767033948
 20
-686.31116262078012
 30
0.0
 11
-1020.5689303394799
 21
-686.23242262078031
 31
0.0
  0
LINE
  5
8966
  8
0
 62
     0
 10
-1020.89963833948
 20
-686.56313062078016
 30
0.0
 11
-1020.8346439361389
 21
-686.49813621743897
 31
0.0
  0
LINE
  5
8967
  8
0
 62
     0
 10
-1020.653464204487
 20
-686.28160121743883
 30
0.0
 11
-1020.604251704487
 21
-686.23238871743888
 31
0.0
  0
LINE
  5
8968
  8
0
 62
     0
 10
-1020.89963833948
 20
-686.5277753524316
 30
0.0
 11
-1020.869999204487
 21
-686.49813621743897
 31
0.0
  0
LINE
  5
8969
  8
0
 62
     0
 10
-1020.688819472836
 20
-686.28160121743883
 30
0.0
 11
-1020.639606972836
 21
-686.23238871743888
 31
0.0
  0
LINE
  5
896A
  8
0
 62
     0
 10
-1020.5273787361421
 20
-686.08480521239676
 30
0.0
 11
-1020.5059383394801
 21
-686.06336481573419
 31
0.0
  0
LINE
  5
896B
  8
0
 62
     0
 10
-1020.724174741184
 20
-686.28160121743883
 30
0.0
 11
-1020.6749622411839
 21
-686.23238871743888
 31
0.0
  0
LINE
  5
896C
  8
0
 62
     0
 10
-1020.5627340044909
 20
-686.08480521239676
 30
0.0
 11
-1020.519373009533
 21
-686.04144421743888
 31
0.0
  0
LINE
  5
896D
  8
0
 62
     0
 10
-1020.759530009533
 20
-686.28160121743883
 30
0.0
 11
-1020.710317509533
 21
-686.23238871743888
 31
0.0
  0
LINE
  5
896E
  8
0
 62
     0
 10
-1020.599286827842
 20
-686.0860027673989
 30
0.0
 11
-1020.554728277882
 21
-686.04144421743899
 31
0.0
  0
LINE
  5
896F
  8
0
 62
     0
 10
-1020.794885277882
 20
-686.28160121743895
 30
0.0
 11
-1020.745672777882
 21
-686.23238871743888
 31
0.0
  0
LINE
  5
8970
  8
0
 62
     0
 10
-1020.635921403772
 20
-686.08728207498041
 30
0.0
 11
-1020.56499333948
 21
-686.01635401068825
 31
0.0
  0
LINE
  5
8971
  8
0
 62
     0
 10
-1020.83024054623
 20
-686.28160121743895
 30
0.0
 11
-1020.7810280462299
 21
-686.23238871743888
 31
0.0
  0
LINE
  5
8972
  8
0
 62
     0
 10
-1020.672555979702
 20
-686.08856138256192
 30
0.0
 11
-1020.580712230343
 21
-685.99671763320339
 31
0.0
  0
LINE
  5
8973
  8
0
 62
     0
 10
-1020.865595814579
 20
-686.28160121743895
 30
0.0
 11
-1020.816383314579
 21
-686.23238871743888
 31
0.0
  0
LINE
  5
8974
  8
0
 62
     0
 10
-1020.7091905556319
 20
-686.08984069014332
 30
0.0
 11
-1020.617346806274
 21
-685.9979969407849
 31
0.0
  0
LINE
  5
8975
  8
0
 62
     0
 10
-1020.89963833948
 20
-686.28028847399105
 30
0.0
 11
-1020.82089833948
 21
-686.2015484739909
 31
0.0
  0
LINE
  5
8976
  8
0
 62
     0
 10
-1020.761770247472
 20
-686.10706511363492
 30
0.0
 11
-1020.6539813822041
 21
-685.99927624836619
 31
0.0
  0
LINE
  5
8977
  8
0
 62
     0
 10
-1020.89963833948
 20
-686.24493320564227
 30
0.0
 11
-1020.82089833948
 21
-686.16619320564234
 31
0.0
  0
LINE
  5
8978
  8
0
 62
     0
 10
-1020.89963833948
 20
-686.2095779372936
 30
0.0
 11
-1020.690615958134
 21
-686.00055555594781
 31
0.0
  0
LINE
  5
8979
  8
0
 62
     0
 10
-1020.899638339479
 20
-686.17422266894505
 30
0.0
 11
-1020.731155106079
 21
-686.0057394355448
 31
0.0
  0
LINE
  5
897A
  8
0
 62
     0
 10
-1020.899638339479
 20
-686.13886740059627
 30
0.0
 11
-1020.797732431347
 21
-686.03696149246423
 31
0.0
  0
LINE
  5
897B
  8
0
 62
     0
 10
-1020.899035508575
 20
-686.10290930134306
 30
0.0
 11
-1020.8643097566149
 21
-686.06818354938355
 31
0.0
  0
ENDBLK
  5
897D
  8
0
  0
BLOCK
  8
0
  2
*X44
 70
     1
 10
0.0
 20
0.0
 30
0.0
  3
*X44
  1

  0
LINE
  5
897F
  8
0
 62
     0
 10
-1020.2031873511
 20
-688.71977850626308
 30
0.0
 11
-1020.159501719694
 21
-688.67609287485777
 31
0.0
  0
LINE
  5
8980
  8
0
 62
     0
 10
-1020.240503822341
 20
-688.72173970915583
 30
0.0
 11
-1020.072868339479
 21
-688.5541042262945
 31
0.0
  0
LINE
  5
8981
  8
0
 62
     0
 10
-1020.2771383982709
 20
-688.72301901673734
 30
0.0
 11
-1020.072868339479
 21
-688.51874895794595
 31
0.0
  0
LINE
  5
8982
  8
0
 62
     0
 10
-1020.313772974201
 20
-688.72429832431874
 30
0.0
 11
-1020.076516918863
 21
-688.48704226898053
 31
0.0
  0
LINE
  5
8983
  8
0
 62
     0
 10
-1020.147193835093
 20
-688.5223639168621
 30
0.0
 11
-1020.086618424105
 21
-688.46178850587432
 31
0.0
  0
LINE
  5
8984
  8
0
 62
     0
 10
-1020.350407550131
 20
-688.72557763190025
 30
0.0
 11
-1020.258563800773
 21
-688.63373388254183
 31
0.0
  0
LINE
  5
8985
  8
0
 62
     0
 10
-1020.157295340336
 20
-688.4971101537559
 30
0.0
 11
-1020.096719929348
 21
-688.43653474276812
 31
0.0
  0
LINE
  5
8986
  8
0
 62
     0
 10
-1020.387042126061
 20
-688.72685693948176
 30
0.0
 11
-1020.295198376703
 21
-688.63501319012335
 31
0.0
  0
LINE
  5
8987
  8
0
 62
     0
 10
-1020.167396845578
 20
-688.47185639064969
 30
0.0
 11
-1020.10682143459
 21
-688.41128097966191
 31
0.0
  0
LINE
  5
8988
  8
0
 62
     0
 10
-1020.423676701992
 20
-688.72813624706305
 30
0.0
 11
-1020.331832952633
 21
-688.63629249770474
 31
0.0
  0
LINE
  5
8989
  8
0
 62
     0
 10
-1020.187689440716
 20
-688.45679371743881
 30
0.0
 11
-1020.116922939833
 21
-688.3860272165557
 31
0.0
  0
LINE
  5
898A
  8
0
 62
     0
 10
-1020.460311277922
 20
-688.72941555464456
 30
0.0
 11
-1020.368467528563
 21
-688.63757180528626
 31
0.0
  0
LINE
  5
898B
  8
0
 62
     0
 10
-1020.223044709064
 20
-688.45679371743881
 30
0.0
 11
-1020.127024445075
 21
-688.36077345344972
 31
0.0
  0
LINE
  5
898C
  8
0
 62
     0
 10
-1020.496945853852
 20
-688.73069486222619
 30
0.0
 11
-1020.405102104493
 21
-688.63885111286777
 31
0.0
  0
LINE
  5
898D
  8
0
 62
     0
 10
-1020.258399977413
 20
-688.45679371743881
 30
0.0
 11
-1020.13192333948
 21
-688.33031707950545
 31
0.0
  0
LINE
  5
898E
  8
0
 62
     0
 10
-1020.533580429782
 20
-688.73197416980759
 30
0.0
 11
-1020.441736680423
 21
-688.64013042044917
 31
0.0
  0
LINE
  5
898F
  8
0
 62
     0
 10
-1020.293755245762
 20
-688.45679371743881
 30
0.0
 11
-1020.219936495762
 21
-688.38297496743883
 31
0.0
  0
LINE
  5
8990
  8
0
 62
     0
 10
-1020.5059383394801
 20
-688.66897681115665
 30
0.0
 11
-1020.478371256354
 21
-688.64140972803057
 31
0.0
  0
LINE
  5
8991
  8
0
 62
     0
 10
-1020.19097833948
 20
-688.35401681115673
 30
0.0
 11
-1020.13192333948
 21
-688.29496181115678
 31
0.0
  0
LINE
  5
8992
  8
0
 62
     0
 10
-1020.54530833948
 20
-688.70834681115673
 30
0.0
 11
-1020.528006745762
 21
-688.69104521743884
 31
0.0
  0
LINE
  5
8993
  8
0
 62
     0
 10
-1020.19097833948
 20
-688.31866154280794
 30
0.0
 11
-1020.13192333948
 21
-688.25960654280811
 31
0.0
  0
LINE
  5
8994
  8
0
 62
     0
 10
-1020.32911051411
 20
-688.4567937174387
 30
0.0
 11
-1020.255291764111
 21
-688.38297496743883
 31
0.0
  0
LINE
  5
8995
  8
0
 62
     0
 10
-1020.202064532459
 20
-688.29439246743857
 30
0.0
 11
-1020.13192333948
 21
-688.22425127445945
 31
0.0
  0
LINE
  5
8996
  8
0
 62
     0
 10
-1020.364465782459
 20
-688.4567937174387
 30
0.0
 11
-1020.290647032459
 21
-688.3829749674386
 31
0.0
  0
LINE
  5
8997
  8
0
 62
     0
 10
-1020.2374198008069
 20
-688.29439246743868
 30
0.0
 11
-1020.13192333948
 21
-688.18889600611101
 31
0.0
  0
LINE
  5
8998
  8
0
 62
     0
 10
-1020.399821050808
 20
-688.45679371743881
 30
0.0
 11
-1020.326002300808
 21
-688.38297496743883
 31
0.0
  0
LINE
  5
8999
  8
0
 62
     0
 10
-1020.272775069156
 20
-688.29439246743868
 30
0.0
 11
-1020.198956319156
 21
-688.22057371743881
 31
0.0
  0
LINE
  5
899A
  8
0
 62
     0
 10
-1020.19097833948
 20
-688.21259573776206
 30
0.0
 11
-1020.13192333948
 21
-688.15354073776234
 31
0.0
  0
LINE
  5
899B
  8
0
 62
     0
 10
-1020.435176319156
 20
-688.45679371743881
 30
0.0
 11
-1020.361357569156
 21
-688.38297496743883
 31
0.0
  0
LINE
  5
899C
  8
0
 62
     0
 10
-1020.308130337505
 20
-688.29439246743868
 30
0.0
 11
-1020.234311587505
 21
-688.22057371743881
 31
0.0
  0
LINE
  5
899D
  8
0
 62
     0
 10
-1020.19097833948
 20
-688.17724046941339
 30
0.0
 11
-1020.13192333948
 21
-688.11818546941345
 31
0.0
  0
LINE
  5
899E
  8
0
 62
     0
 10
-1020.470531587505
 20
-688.45679371743881
 30
0.0
 11
-1020.396712837505
 21
-688.38297496743883
 31
0.0
  0
LINE
  5
899F
  8
0
 62
     0
 10
-1020.3434856058529
 20
-688.29439246743868
 30
0.0
 11
-1020.269666855853
 21
-688.22057371743881
 31
0.0
  0
LINE
  5
89A0
  8
0
 62
     0
 10
-1020.19097833948
 20
-688.14188520106495
 30
0.0
 11
-1020.13192333948
 21
-688.08283020106478
 31
0.0
  0
LINE
  5
89A1
  8
0
 62
     0
 10
-1020.505886855854
 20
-688.45679371743881
 30
0.0
 11
-1020.432068105854
 21
-688.38297496743883
 31
0.0
  0
LINE
  5
89A2
  8
0
 62
     0
 10
-1020.378840874202
 20
-688.29439246743868
 30
0.0
 11
-1020.305022124202
 21
-688.22057371743881
 31
0.0
  0
LINE
  5
89A3
  8
0
 62
     0
 10
-1020.19097833948
 20
-688.10652993271617
 30
0.0
 11
-1020.13192333948
 21
-688.04747493271623
 31
0.0
  0
LINE
  5
89A4
  8
0
 62
     0
 10
-1020.5059383394801
 20
-688.42148993271621
 30
0.0
 11
-1020.467423374202
 21
-688.38297496743883
 31
0.0
  0
LINE
  5
89A5
  8
0
 62
     0
 10
-1020.19097833948
 20
-688.07117466436762
 30
0.0
 11
-1020.13192333948
 21
-688.01211966436745
 31
0.0
  0
LINE
  5
89A6
  8
0
 62
     0
 10
-1020.414196142551
 20
-688.29439246743868
 30
0.0
 11
-1020.340377392551
 21
-688.22057371743881
 31
0.0
  0
LINE
  5
89A7
  8
0
 62
     0
 10
-1020.19097833948
 20
-688.03581939601895
 30
0.0
 11
-1020.13192333948
 21
-687.97676439601901
 31
0.0
  0
LINE
  5
89A8
  8
0
 62
     0
 10
-1020.4495514108989
 20
-688.29439246743868
 30
0.0
 11
-1020.3757326609
 21
-688.22057371743881
 31
0.0
  0
LINE
  5
89A9
  8
0
 62
     0
 10
-1020.19097833948
 20
-688.00046412767028
 30
0.0
 11
-1020.13192333948
 21
-687.94140912767034
 31
0.0
  0
LINE
  5
89AA
  8
0
 62
     0
 10
-1020.484906679248
 20
-688.29439246743868
 30
0.0
 11
-1020.411087929248
 21
-688.22057371743881
 31
0.0
  0
LINE
  5
89AB
  8
0
 62
     0
 10
-1020.19097833948
 20
-687.96510885932162
 30
0.0
 11
-1020.13192333948
 21
-687.90605385932167
 31
0.0
  0
LINE
  5
89AC
  8
0
 62
     0
 10
-1020.5032576435379
 20
-688.27738816338024
 30
0.0
 11
-1020.446443197597
 21
-688.22057371743881
 31
0.0
  0
LINE
  5
89AD
  8
0
 62
     0
 10
-1020.19097833948
 20
-687.92975359097295
 30
0.0
 11
-1020.13192333948
 21
-687.87069859097301
 31
0.0
  0
LINE
  5
89AE
  8
0
 62
     0
 10
-1020.5059383394801
 20
-688.24471359097288
 30
0.0
 11
-1020.481798465945
 21
-688.2205737174387
 31
0.0
  0
LINE
  5
89AF
  8
0
 62
     0
 10
-1020.19097833948
 20
-687.89439832262428
 30
0.0
 11
-1020.13192333948
 21
-687.83534332262434
 31
0.0
  0
LINE
  5
89B0
  8
0
 62
     0
 10
-1020.19097833948
 20
-687.85904305427562
 30
0.0
 11
-1020.13192333948
 21
-687.79998805427556
 31
0.0
  0
LINE
  5
89B1
  8
0
 62
     0
 10
-1020.19097833948
 20
-687.82368778592695
 30
0.0
 11
-1020.13192333948
 21
-687.76463278592689
 31
0.0
  0
LINE
  5
89B2
  8
0
 62
     0
 10
-1020.19097833948
 20
-687.78833251757828
 30
0.0
 11
-1020.13192333948
 21
-687.72927751757845
 31
0.0
  0
LINE
  5
89B3
  8
0
 62
     0
 10
-1020.19097833948
 20
-687.75297724922973
 30
0.0
 11
-1020.13192333948
 21
-687.69392224922967
 31
0.0
  0
LINE
  5
89B4
  8
0
 62
     0
 10
-1020.19097833948
 20
-687.71762198088095
 30
0.0
 11
-1020.13192333948
 21
-687.65856698088112
 31
0.0
  0
LINE
  5
89B5
  8
0
 62
     0
 10
-1020.19097833948
 20
-687.6822667125324
 30
0.0
 11
-1020.13192333948
 21
-687.62321171253245
 31
0.0
  0
LINE
  5
89B6
  8
0
 62
     0
 10
-1020.19097833948
 20
-687.64691144418373
 30
0.0
 11
-1020.13192333948
 21
-687.58785644418379
 31
0.0
  0
LINE
  5
89B7
  8
0
 62
     0
 10
-1020.19097833948
 20
-687.61155617583495
 30
0.0
 11
-1020.13192333948
 21
-687.55250117583512
 31
0.0
  0
LINE
  5
89B8
  8
0
 62
     0
 10
-1020.19097833948
 20
-687.57620090748651
 30
0.0
 11
-1020.13192333948
 21
-687.51714590748645
 31
0.0
  0
LINE
  5
89B9
  8
0
 62
     0
 10
-1020.19097833948
 20
-687.54084563913784
 30
0.0
 11
-1020.13192333948
 21
-687.48179063913778
 31
0.0
  0
LINE
  5
89BA
  8
0
 62
     0
 10
-1020.19097833948
 20
-687.50549037078918
 30
0.0
 11
-1020.13192333948
 21
-687.44643537078912
 31
0.0
  0
LINE
  5
89BB
  8
0
 62
     0
 10
-1020.19097833948
 20
-687.47013510244051
 30
0.0
 11
-1020.13192333948
 21
-687.41108010244045
 31
0.0
  0
LINE
  5
89BC
  8
0
 62
     0
 10
-1020.19097833948
 20
-687.43477983409184
 30
0.0
 11
-1020.13192333948
 21
-687.37572483409178
 31
0.0
  0
LINE
  5
89BD
  8
0
 62
     0
 10
-1020.19097833948
 20
-687.39942456574306
 30
0.0
 11
-1020.13192333948
 21
-687.34036956574323
 31
0.0
  0
LINE
  5
89BE
  8
0
 62
     0
 10
-1020.19097833948
 20
-687.36406929739439
 30
0.0
 11
-1020.13192333948
 21
-687.30501429739445
 31
0.0
  0
LINE
  5
89BF
  8
0
 62
     0
 10
-1020.19097833948
 20
-687.32871402904595
 30
0.0
 11
-1020.13192333948
 21
-687.26965902904601
 31
0.0
  0
LINE
  5
89C0
  8
0
 62
     0
 10
-1020.19097833948
 20
-687.29335876069717
 30
0.0
 11
-1020.13192333948
 21
-687.23430376069734
 31
0.0
  0
LINE
  5
89C1
  8
0
 62
     0
 10
-1020.19097833948
 20
-687.25800349234862
 30
0.0
 11
-1020.13192333948
 21
-687.19894849234868
 31
0.0
  0
LINE
  5
89C2
  8
0
 62
     0
 10
-1020.19097833948
 20
-687.22264822399995
 30
0.0
 11
-1020.13192333948
 21
-687.16359322400001
 31
0.0
  0
LINE
  5
89C3
  8
0
 62
     0
 10
-1020.19097833948
 20
-687.18729295565129
 30
0.0
 11
-1020.13192333948
 21
-687.12823795565134
 31
0.0
  0
LINE
  5
89C4
  8
0
 62
     0
 10
-1020.19097833948
 20
-687.15193768730262
 30
0.0
 11
-1020.13192333948
 21
-687.09288268730268
 31
0.0
  0
LINE
  5
89C5
  8
0
 62
     0
 10
-1020.19097833948
 20
-687.11658241895407
 30
0.0
 11
-1020.13192333948
 21
-687.05752741895401
 31
0.0
  0
LINE
  5
89C6
  8
0
 62
     0
 10
-1020.19097833948
 20
-687.0812271506054
 30
0.0
 11
-1020.13192333948
 21
-687.02217215060534
 31
0.0
  0
LINE
  5
89C7
  8
0
 62
     0
 10
-1020.19097833948
 20
-687.04587188225673
 30
0.0
 11
-1020.13192333948
 21
-686.98681688225656
 31
0.0
  0
LINE
  5
89C8
  8
0
 62
     0
 10
-1020.19097833948
 20
-687.01051661390795
 30
0.0
 11
-1020.13192333948
 21
-686.9514616139079
 31
0.0
  0
LINE
  5
89C9
  8
0
 62
     0
 10
-1020.19097833948
 20
-686.97516134555929
 30
0.0
 11
-1020.13192333948
 21
-686.91610634555946
 31
0.0
  0
LINE
  5
89CA
  8
0
 62
     0
 10
-1020.19097833948
 20
-686.93980607721073
 30
0.0
 11
-1020.13192333948
 21
-686.88075107721068
 31
0.0
  0
LINE
  5
89CB
  8
0
 62
     0
 10
-1020.19097833948
 20
-686.90445080886195
 30
0.0
 11
-1020.13192333948
 21
-686.84539580886212
 31
0.0
  0
LINE
  5
89CC
  8
0
 62
     0
 10
-1020.19097833948
 20
-686.86909554051351
 30
0.0
 11
-1020.13192333948
 21
-686.81004054051357
 31
0.0
  0
LINE
  5
89CD
  8
0
 62
     0
 10
-1020.19097833948
 20
-686.83374027216485
 30
0.0
 11
-1020.13192333948
 21
-686.7746852721649
 31
0.0
  0
LINE
  5
89CE
  8
0
 62
     0
 10
-1020.19097833948
 20
-686.79838500381618
 30
0.0
 11
-1020.13192333948
 21
-686.73933000381624
 31
0.0
  0
LINE
  5
89CF
  8
0
 62
     0
 10
-1020.19097833948
 20
-686.76302973546751
 30
0.0
 11
-1020.13192333948
 21
-686.70397473546757
 31
0.0
  0
LINE
  5
89D0
  8
0
 62
     0
 10
-1020.19097833948
 20
-686.72767446711885
 30
0.0
 11
-1020.13192333948
 21
-686.6686194671189
 31
0.0
  0
LINE
  5
89D1
  8
0
 62
     0
 10
-1020.19097833948
 20
-686.69231919877018
 30
0.0
 11
-1020.13192333948
 21
-686.63326419877023
 31
0.0
  0
LINE
  5
89D2
  8
0
 62
     0
 10
-1020.19097833948
 20
-686.65696393042163
 30
0.0
 11
-1020.13192333948
 21
-686.59790893042145
 31
0.0
  0
LINE
  5
89D3
  8
0
 62
     0
 10
-1020.19097833948
 20
-686.62160866207284
 30
0.0
 11
-1020.13192333948
 21
-686.56255366207279
 31
0.0
  0
LINE
  5
89D4
  8
0
 62
     0
 10
-1020.19097833948
 20
-686.58625339372418
 30
0.0
 11
-1020.13192333948
 21
-686.52719839372423
 31
0.0
  0
LINE
  5
89D5
  8
0
 62
     0
 10
-1020.19097833948
 20
-686.55089812537562
 30
0.0
 11
-1020.13192333948
 21
-686.49184312537545
 31
0.0
  0
LINE
  5
89D6
  8
0
 62
     0
 10
-1020.19097833948
 20
-686.51554285702684
 30
0.0
 11
-1020.13192333948
 21
-686.45648785702701
 31
0.0
  0
LINE
  5
89D7
  8
0
 62
     0
 10
-1020.21876946824
 20
-686.50797871743862
 30
0.0
 11
-1020.13192333948
 21
-686.42113258867835
 31
0.0
  0
LINE
  5
89D8
  8
0
 62
     0
 10
-1020.254124736589
 20
-686.50797871743873
 30
0.0
 11
-1020.13192333948
 21
-686.38577732032979
 31
0.0
  0
LINE
  5
89D9
  8
0
 62
     0
 10
-1020.19097833948
 20
-686.40947705198107
 30
0.0
 11
-1020.112187229174
 21
-686.3306859416756
 31
0.0
  0
LINE
  5
89DA
  8
0
 62
     0
 10
-1020.289480004937
 20
-686.50797871743873
 30
0.0
 11
-1020.215661254937
 21
-686.43415996743875
 31
0.0
  0
LINE
  5
89DB
  8
0
 62
     0
 10
-1020.19097833948
 20
-686.3741217836324
 30
0.0
 11
-1020.088617050275
 21
-686.27176049442801
 31
0.0
  0
LINE
  5
89DC
  8
0
 62
     0
 10
-1020.324835273286
 20
-686.50797871743873
 30
0.0
 11
-1020.251016523286
 21
-686.43415996743875
 31
0.0
  0
LINE
  5
89DD
  8
0
 62
     0
 10
-1020.197789291635
 20
-686.34557746743894
 30
0.0
 11
-1020.07286833948
 21
-686.22065651528385
 31
0.0
  0
LINE
  5
89DE
  8
0
 62
     0
 10
-1020.360190541635
 20
-686.50797871743873
 30
0.0
 11
-1020.286371791635
 21
-686.43415996743875
 31
0.0
  0
LINE
  5
89DF
  8
0
 62
     0
 10
-1020.233144559983
 20
-686.34557746743894
 30
0.0
 11
-1020.07286833948
 21
-686.18530124693507
 31
0.0
  0
LINE
  5
89E0
  8
0
 62
     0
 10
-1020.395545809983
 20
-686.50797871743873
 30
0.0
 11
-1020.321727059983
 21
-686.43415996743875
 31
0.0
  0
LINE
  5
89E1
  8
0
 62
     0
 10
-1020.268499828332
 20
-686.34557746743894
 30
0.0
 11
-1020.194681078332
 21
-686.27175871743873
 31
0.0
  0
LINE
  5
89E2
  8
0
 62
     0
 10
-1020.1592491392159
 20
-686.23632677832313
 30
0.0
 11
-1020.082632605855
 21
-686.15971024496196
 31
0.0
  0
LINE
  5
89E3
  8
0
 62
     0
 10
-1020.430901078332
 20
-686.50797871743873
 30
0.0
 11
-1020.357082328332
 21
-686.43415996743875
 31
0.0
  0
LINE
  5
89E4
  8
0
 62
     0
 10
-1020.303855096681
 20
-686.34557746743894
 30
0.0
 11
-1020.23003634668
 21
-686.27175871743873
 31
0.0
  0
LINE
  5
89E5
  8
0
 62
     0
 10
-1020.1538237556171
 20
-686.19554612637512
 30
0.0
 11
-1020.097393257157
 21
-686.13911562791475
 31
0.0
  0
LINE
  5
89E6
  8
0
 62
     0
 10
-1020.466256346681
 20
-686.50797871743873
 30
0.0
 11
-1020.392437596681
 21
-686.43415996743875
 31
0.0
  0
LINE
  5
89E7
  8
0
 62
     0
 10
-1020.339210365029
 20
-686.34557746743894
 30
0.0
 11
-1020.265391615029
 21
-686.27175871743873
 31
0.0
  0
LINE
  5
89E8
  8
0
 62
     0
 10
-1020.168584406919
 20
-686.17495150932791
 30
0.0
 11
-1020.112153908458
 21
-686.11852101086754
 31
0.0
  0
LINE
  5
89E9
  8
0
 62
     0
 10
-1020.501611615029
 20
-686.50797871743873
 30
0.0
 11
-1020.427792865029
 21
-686.43415996743875
 31
0.0
  0
LINE
  5
89EA
  8
0
 62
     0
 10
-1020.374565633378
 20
-686.34557746743894
 30
0.0
 11
-1020.300746883378
 21
-686.27175871743873
 31
0.0
  0
LINE
  5
89EB
  8
0
 62
     0
 10
-1020.18334505822
 20
-686.15435689228059
 30
0.0
 11
-1020.1269145597601
 21
-686.09792639382033
 31
0.0
  0
LINE
  5
89EC
  8
0
 62
     0
 10
-1020.5059383394801
 20
-686.47695017354056
 30
0.0
 11
-1020.463148133378
 21
-686.43415996743875
 31
0.0
  0
LINE
  5
89ED
  8
0
 62
     0
 10
-1020.198105709521
 20
-686.13376227523327
 30
0.0
 11
-1020.1416752110611
 21
-686.07733177677324
 31
0.0
  0
LINE
  5
89EE
  8
0
 62
     0
 10
-1020.409920901727
 20
-686.34557746743894
 30
0.0
 11
-1020.336102151726
 21
-686.27175871743862
 31
0.0
  0
LINE
  5
89EF
  8
0
 62
     0
 10
-1020.212866360823
 20
-686.11316765818606
 30
0.0
 11
-1020.1564358623619
 21
-686.05673715972603
 31
0.0
  0
LINE
  5
89F0
  8
0
 62
     0
 10
-1020.445276170075
 20
-686.34557746743894
 30
0.0
 11
-1020.371457420075
 21
-686.27175871743862
 31
0.0
  0
LINE
  5
89F1
  8
0
 62
     0
 10
-1020.230840637515
 20
-686.09578666652965
 30
0.0
 11
-1020.171196513664
 21
-686.03614254267882
 31
0.0
  0
LINE
  5
89F2
  8
0
 62
     0
 10
-1020.480631438424
 20
-686.34557746743883
 30
0.0
 11
-1020.406812688424
 21
-686.27175871743862
 31
0.0
  0
LINE
  5
89F3
  8
0
 62
     0
 10
-1020.265002932244
 20
-686.09459369291005
 30
0.0
 11
-1020.186980085155
 21
-686.01657084582155
 31
0.0
  0
LINE
  5
89F4
  8
0
 62
     0
 10
-1020.501120023126
 20
-686.33071078379237
 30
0.0
 11
-1020.442167956772
 21
-686.27175871743862
 31
0.0
  0
LINE
  5
89F5
  8
0
 62
     0
 10
-1020.2991652269729
 20
-686.09340071929034
 30
0.0
 11
-1020.213519545129
 21
-686.00775503744626
 31
0.0
  0
LINE
  5
89F6
  8
0
 62
     0
 10
-1020.5059383394801
 20
-686.30017383179722
 30
0.0
 11
-1020.477523225121
 21
-686.27175871743862
 31
0.0
  0
LINE
  5
89F7
  8
0
 62
     0
 10
-1020.333327521702
 20
-686.09220774567098
 30
0.0
 11
-1020.247681839858
 21
-686.00656206382689
 31
0.0
  0
LINE
  5
89F8
  8
0
 62
     0
 10
-1020.367489816431
 20
-686.09101477205149
 30
0.0
 11
-1020.281844134587
 21
-686.0053690902073
 31
0.0
  0
LINE
  5
89F9
  8
0
 62
     0
 10
-1020.40165211116
 20
-686.0898217984319
 30
0.0
 11
-1020.316006429316
 21
-686.00417611658781
 31
0.0
  0
LINE
  5
89FA
  8
0
 62
     0
 10
-1020.43581440589
 20
-686.08862882481242
 30
0.0
 11
-1020.350168724045
 21
-686.00298314296822
 31
0.0
  0
LINE
  5
89FB
  8
0
 62
     0
 10
-1020.469976700618
 20
-686.08743585119282
 30
0.0
 11
-1020.384331018774
 21
-686.00179016934862
 31
0.0
  0
LINE
  5
89FC
  8
0
 62
     0
 10
-1020.504138995347
 20
-686.08624287757323
 30
0.0
 11
-1020.4184933135029
 21
-686.00059719572903
 31
0.0
  0
LINE
  5
89FD
  8
0
 62
     0
 10
-1020.5059383394801
 20
-686.05268695335667
 30
0.0
 11
-1020.452655608232
 21
-685.99940422210943
 31
0.0
  0
LINE
  5
89FE
  8
0
 62
     0
 10
-1020.526113871911
 20
-686.03750721743893
 30
0.0
 11
-1020.486817902962
 21
-685.99821124848995
 31
0.0
  0
LINE
  5
89FF
  8
0
 62
     0
 10
-1020.54530833948
 20
-686.0213464166593
 30
0.0
 11
-1020.520980197691
 21
-685.99701827487036
 31
0.0
  0
ENDBLK
  5
8A01
  8
0
  0
BLOCK
  8
0
  2
*X45
 70
     1
 10
0.0
 20
0.0
 30
0.0
  3
*X45
  1

  0
LINE
  5
8A3A
  8
0
 62
     0
 10
-1032.1988081564459
 20
-682.67248655948583
 30
0.0
 11
-1032.195878998172
 21
-682.66955740121102
 31
0.0
  0
LINE
  5
8A3B
  8
0
 62
     0
 10
-1032.234163424795
 20
-682.67248655948583
 30
0.0
 11
-1032.195878998172
 21
-682.63420213286236
 31
0.0
  0
LINE
  5
8A3C
  8
0
 62
     0
 10
-1032.2786120683641
 20
-682.71693520305462
 30
0.0
 11
-1032.2549339981711
 21
-682.69325713286219
 31
0.0
  0
LINE
  5
8A3D
  8
0
 62
     0
 10
-1032.312774363093
 20
-682.71574222943525
 30
0.0
 11
-1032.2261576981859
 21
-682.62912556452795
 31
0.0
  0
LINE
  5
8A3E
  8
0
 62
     0
 10
-1032.346936657822
 20
-682.71454925581565
 30
0.0
 11
-1032.261290975978
 21
-682.62890357397134
 31
0.0
  0
LINE
  5
8A3F
  8
0
 62
     0
 10
-1032.3810989525509
 20
-682.71335628219629
 30
0.0
 11
-1032.295453270707
 21
-682.62771060035186
 31
0.0
  0
LINE
  5
8A40
  8
0
 62
     0
 10
-1032.4140735362239
 20
-682.71097559752002
 30
0.0
 11
-1032.3296155654359
 21
-682.62651762673215
 31
0.0
  0
LINE
  5
8A41
  8
0
 62
     0
 10
-1032.4384882026579
 20
-682.70003499560517
 30
0.0
 11
-1032.3637778601651
 21
-682.62532465311278
 31
0.0
  0
LINE
  5
8A42
  8
0
 62
     0
 10
-1032.4625564446869
 20
-682.68874796928571
 30
0.0
 11
-1032.3979401548941
 21
-682.62413167949319
 31
0.0
  0
LINE
  5
8A43
  8
0
 62
     0
 10
-1032.4866246867159
 20
-682.67746094296615
 30
0.0
 11
-1032.4274205812139
 21
-682.61825683746395
 31
0.0
  0
LINE
  5
8A44
  8
0
 62
     0
 10
-1032.5106929287449
 20
-682.66617391664681
 30
0.0
 11
-1032.4514888232429
 21
-682.60696981114461
 31
0.0
  0
LINE
  5
8A45
  8
0
 62
     0
 10
-1032.5347611707739
 20
-682.65488689032725
 30
0.0
 11
-1032.4755570652719
 21
-682.59568278482504
 31
0.0
  0
LINE
  5
8A46
  8
0
 62
     0
 10
-1032.5588294128031
 20
-682.64359986400768
 30
0.0
 11
-1032.4996253073009
 21
-682.58439575850559
 31
0.0
  0
LINE
  5
8A47
  8
0
 62
     0
 10
-1032.580222378044
 20
-682.62963756089937
 30
0.0
 11
-1032.510838998171
 21
-682.56025418102718
 31
0.0
  0
LINE
  5
8A48
  8
0
 62
     0
 10
-1032.589578998171
 20
-682.60363891267866
 30
0.0
 11
-1032.510838998171
 21
-682.52489891267851
 31
0.0
  0
LINE
  5
8A49
  8
0
 62
     0
 10
-1032.5895789981721
 20
-682.56828364433022
 30
0.0
 11
-1032.510838998171
 21
-682.48954364432996
 31
0.0
  0
LINE
  5
8A4A
  8
0
 62
     0
 10
-1032.5895789981721
 20
-682.53292837598156
 30
0.0
 11
-1032.510838998171
 21
-682.45418837598118
 31
0.0
  0
LINE
  5
8A4B
  8
0
 62
     0
 10
-1032.5243354500251
 20
-682.43232955948599
 30
0.0
 11
-1032.5108389981719
 21
-682.41883310763274
 31
0.0
  0
LINE
  5
8A4C
  8
0
 62
     0
 10
-1032.5895789981721
 20
-682.49757310763277
 30
0.0
 11
-1032.5243354500251
 21
-682.43232955948599
 31
0.0
  0
LINE
  5
8A4D
  8
0
 62
     0
 10
-1032.559690718374
 20
-682.43232955948599
 30
0.0
 11
-1032.5108389981719
 21
-682.38347783928396
 31
0.0
  0
LINE
  5
8A4E
  8
0
 62
     0
 10
-1032.5895789981721
 20
-682.46221783928422
 30
0.0
 11
-1032.559690718374
 21
-682.43232955948599
 31
0.0
  0
LINE
  5
8A4F
  8
0
 62
     0
 10
-1032.5895789981721
 20
-682.42686257093555
 30
0.0
 11
-1032.5108389981719
 21
-682.3481225709354
 31
0.0
  0
LINE
  5
8A50
  8
0
 62
     0
 10
-1032.5895789981721
 20
-682.39150730258689
 30
0.0
 11
-1032.5108389981719
 21
-682.31276730258674
 31
0.0
  0
LINE
  5
8A51
  8
0
 62
     0
 10
-1032.5895789981721
 20
-682.35615203423822
 30
0.0
 11
-1032.5108389981719
 21
-682.27741203423795
 31
0.0
  0
LINE
  5
8A52
  8
0
 62
     0
 10
-1032.5895789981721
 20
-682.32079676588955
 30
0.0
 11
-1032.5108389981719
 21
-682.2420567658894
 31
0.0
  0
LINE
  5
8A53
  8
0
 62
     0
 10
-1032.5895789981721
 20
-682.28544149754089
 30
0.0
 11
-1032.5199320601171
 21
-682.21579455948586
 31
0.0
  0
LINE
  5
8A54
  8
0
 62
     0
 10
-1032.5895789981721
 20
-682.25008622919222
 30
0.0
 11
-1032.5552873284651
 21
-682.21579455948586
 31
0.0
  0
ENDBLK
  5
8A56
  8
0
  0
BLOCK
  8
0
  2
*X46
 70
     1
 10
0.0
 20
0.0
 30
0.0
  3
*X46
  1

  0
LINE
  5
8A58
  8
0
 62
     0
 10
-1032.5199320601171
 20
-682.21579455948586
 30
0.0
 11
-1032.5108389981719
 21
-682.20670149754073
 31
0.0
  0
LINE
  5
8A59
  8
0
 62
     0
 10
-1032.5552873284651
 20
-682.21579455948586
 30
0.0
 11
-1032.5108389981719
 21
-682.17134622919207
 31
0.0
  0
LINE
  5
8A5A
  8
0
 62
     0
 10
-1032.569893998171
 20
-682.19504596084334
 30
0.0
 11
-1032.5108389981719
 21
-682.1359909608434
 31
0.0
  0
LINE
  5
8A5B
  8
0
 62
     0
 10
-1032.5895789981721
 20
-682.17937569249489
 30
0.0
 11
-1032.5108389981719
 21
-682.10063569249473
 31
0.0
  0
LINE
  5
8A5C
  8
0
 62
     0
 10
-1032.5895789981721
 20
-682.14402042414611
 30
0.0
 11
-1032.5108389981719
 21
-682.06528042414595
 31
0.0
  0
LINE
  5
8A5D
  8
0
 62
     0
 10
-1032.5895789981721
 20
-682.10866515579755
 30
0.0
 11
-1032.5108389981719
 21
-682.02992515579729
 31
0.0
  0
LINE
  5
8A5E
  8
0
 62
     0
 10
-1032.5895789981721
 20
-682.07330988744911
 30
0.0
 11
-1032.5108389981719
 21
-681.99456988744885
 31
0.0
  0
LINE
  5
8A5F
  8
0
 62
     0
 10
-1032.5895789981721
 20
-682.03795461910045
 30
0.0
 11
-1032.5108389981719
 21
-681.95921461910007
 31
0.0
  0
LINE
  5
8A60
  8
0
 62
     0
 10
-1032.5895789981721
 20
-682.00259935075178
 30
0.0
 11
-1032.5108389981719
 21
-681.92385935075151
 31
0.0
  0
LINE
  5
8A61
  8
0
 62
     0
 10
-1032.5895789981721
 20
-681.96724408240311
 30
0.0
 11
-1032.5108389981719
 21
-681.88850408240285
 31
0.0
  0
LINE
  5
8A62
  8
0
 62
     0
 10
-1032.5895789981721
 20
-681.93188881405445
 30
0.0
 11
-1032.5108389981719
 21
-681.85314881405418
 31
0.0
  0
LINE
  5
8A63
  8
0
 62
     0
 10
-1032.5895789981721
 20
-681.89653354570578
 30
0.0
 11
-1032.5108389981719
 21
-681.81779354570551
 31
0.0
  0
LINE
  5
8A64
  8
0
 62
     0
 10
-1032.589578998171
 20
-681.86117827735711
 30
0.0
 11
-1032.510838998171
 21
-681.78243827735696
 31
0.0
  0
LINE
  5
8A65
  8
0
 62
     0
 10
-1032.589578998171
 20
-681.82582300900845
 30
0.0
 11
-1032.510838998171
 21
-681.74708300900829
 31
0.0
  0
LINE
  5
8A66
  8
0
 62
     0
 10
-1032.589578998171
 20
-681.79046774065966
 30
0.0
 11
-1032.510838998171
 21
-681.71172774065963
 31
0.0
  0
LINE
  5
8A67
  8
0
 62
     0
 10
-1032.589578998171
 20
-681.755112472311
 30
0.0
 11
-1032.510838998171
 21
-681.67637247231085
 31
0.0
  0
LINE
  5
8A68
  8
0
 62
     0
 10
-1032.589578998171
 20
-681.71975720396244
 30
0.0
 11
-1032.510838998171
 21
-681.64101720396218
 31
0.0
  0
LINE
  5
8A69
  8
0
 62
     0
 10
-1032.5895789981721
 20
-681.68440193561389
 30
0.0
 11
-1032.510838998171
 21
-681.60566193561363
 31
0.0
  0
LINE
  5
8A6A
  8
0
 62
     0
 10
-1032.5895789981721
 20
-681.64904666726534
 30
0.0
 11
-1032.510838998171
 21
-681.57030666726484
 31
0.0
  0
LINE
  5
8A6B
  8
0
 62
     0
 10
-1032.5895789981721
 20
-681.61369139891667
 30
0.0
 11
-1032.5108389981719
 21
-681.53495139891641
 31
0.0
  0
LINE
  5
8A6C
  8
0
 62
     0
 10
-1032.5895789981721
 20
-681.578336130568
 30
0.0
 11
-1032.5108389981719
 21
-681.49959613056774
 31
0.0
  0
LINE
  5
8A6D
  8
0
 62
     0
 10
-1032.5895789981721
 20
-681.54298086221934
 30
0.0
 11
-1032.5108389981719
 21
-681.46424086221907
 31
0.0
  0
LINE
  5
8A6E
  8
0
 62
     0
 10
-1032.5895789981721
 20
-681.50762559387067
 30
0.0
 11
-1032.5108389981719
 21
-681.4288855938704
 31
0.0
  0
LINE
  5
8A6F
  8
0
 62
     0
 10
-1032.5895789981721
 20
-681.472270325522
 30
0.0
 11
-1032.5108389981719
 21
-681.39353032552174
 31
0.0
  0
LINE
  5
8A70
  8
0
 62
     0
 10
-1032.5895789981721
 20
-681.43691505717334
 30
0.0
 11
-1032.5108389981719
 21
-681.35817505717307
 31
0.0
  0
LINE
  5
8A71
  8
0
 62
     0
 10
-1032.5895789981721
 20
-681.40155978882456
 30
0.0
 11
-1032.5108389981719
 21
-681.3228197888244
 31
0.0
  0
LINE
  5
8A72
  8
0
 62
     0
 10
-1032.5895789981721
 20
-681.36620452047589
 30
0.0
 11
-1032.5108389981719
 21
-681.28746452047585
 31
0.0
  0
LINE
  5
8A73
  8
0
 62
     0
 10
-1032.5895789981721
 20
-681.33084925212734
 30
0.0
 11
-1032.5108389981719
 21
-681.25210925212707
 31
0.0
  0
LINE
  5
8A74
  8
0
 62
     0
 10
-1032.5895789981721
 20
-681.29549398377856
 30
0.0
 11
-1032.5108389981719
 21
-681.21675398377852
 31
0.0
  0
LINE
  5
8A75
  8
0
 62
     0
 10
-1032.5895789981721
 20
-681.26013871543
 30
0.0
 11
-1032.5108389981719
 21
-681.18139871542985
 31
0.0
  0
LINE
  5
8A76
  8
0
 62
     0
 10
-1032.5895789981721
 20
-681.22478344708134
 30
0.0
 11
-1032.5108389981719
 21
-681.14604344708107
 31
0.0
  0
LINE
  5
8A77
  8
0
 62
     0
 10
-1032.5895789981721
 20
-681.1894281787329
 30
0.0
 11
-1032.5108389981719
 21
-681.11068817873263
 31
0.0
  0
LINE
  5
8A78
  8
0
 62
     0
 10
-1032.5895789981721
 20
-681.15407291038423
 30
0.0
 11
-1032.5108389981719
 21
-681.07533291038385
 31
0.0
  0
LINE
  5
8A79
  8
0
 62
     0
 10
-1032.5895789981721
 20
-681.11871764203545
 30
0.0
 11
-1032.5108389981719
 21
-681.0399776420353
 31
0.0
  0
LINE
  5
8A7A
  8
0
 62
     0
 10
-1032.5895789981721
 20
-681.08336237368678
 30
0.0
 11
-1032.5108389981719
 21
-681.00462237368663
 31
0.0
  0
LINE
  5
8A7B
  8
0
 62
     0
 10
-1032.5895789981721
 20
-681.04800710533823
 30
0.0
 11
-1032.5108389981719
 21
-680.96926710533796
 31
0.0
  0
LINE
  5
8A7C
  8
0
 62
     0
 10
-1032.5895789981721
 20
-681.01265183698945
 30
0.0
 11
-1032.5108389981719
 21
-680.9339118369893
 31
0.0
  0
LINE
  5
8A7D
  8
0
 62
     0
 10
-1032.5895789981721
 20
-680.97729656864078
 30
0.0
 11
-1032.5108389981719
 21
-680.89855656864074
 31
0.0
  0
LINE
  5
8A7E
  8
0
 62
     0
 10
-1032.589578998171
 20
-680.94194130029223
 30
0.0
 11
-1032.510838998171
 21
-680.86320130029196
 31
0.0
  0
LINE
  5
8A7F
  8
0
 62
     0
 10
-1032.589578998171
 20
-680.90658603194345
 30
0.0
 11
-1032.510838998171
 21
-680.82784603194341
 31
0.0
  0
LINE
  5
8A80
  8
0
 62
     0
 10
-1032.5895789981721
 20
-680.87123076359501
 30
0.0
 11
-1032.510838998171
 21
-680.79249076359474
 31
0.0
  0
LINE
  5
8A81
  8
0
 62
     0
 10
-1032.5895789981721
 20
-680.83587549524634
 30
0.0
 11
-1032.510838998171
 21
-680.75713549524596
 31
0.0
  0
LINE
  5
8A82
  8
0
 62
     0
 10
-1032.5895789981721
 20
-680.80052022689767
 30
0.0
 11
-1032.510838998171
 21
-680.72178022689741
 31
0.0
  0
LINE
  5
8A83
  8
0
 62
     0
 10
-1032.5895789981721
 20
-680.76516495854889
 30
0.0
 11
-1032.5108389981719
 21
-680.68642495854874
 31
0.0
  0
LINE
  5
8A84
  8
0
 62
     0
 10
-1032.5895789981721
 20
-680.72980969020045
 30
0.0
 11
-1032.5108389981719
 21
-680.65106969020019
 31
0.0
  0
LINE
  5
8A85
  8
0
 62
     0
 10
-1032.5895789981721
 20
-680.69445442185167
 30
0.0
 11
-1032.5108389981719
 21
-680.61571442185152
 31
0.0
  0
LINE
  5
8A86
  8
0
 62
     0
 10
-1032.5895789981721
 20
-680.65909915350312
 30
0.0
 11
-1032.5108389981719
 21
-680.58035915350285
 31
0.0
  0
LINE
  5
8A87
  8
0
 62
     0
 10
-1032.5895789981721
 20
-680.62374388515445
 30
0.0
 11
-1032.5108389981719
 21
-680.54500388515407
 31
0.0
  0
LINE
  5
8A88
  8
0
 62
     0
 10
-1032.5895789981721
 20
-680.58838861680567
 30
0.0
 11
-1032.510838998171
 21
-680.50964861680541
 31
0.0
  0
LINE
  5
8A89
  8
0
 62
     0
 10
-1032.5200602092
 20
-680.48351455948603
 30
0.0
 11
-1032.510838998171
 21
-680.47429334845685
 31
0.0
  0
LINE
  5
8A8A
  8
0
 62
     0
 10
-1032.5895789981721
 20
-680.55303334845712
 30
0.0
 11
-1032.5200602092
 21
-680.48351455948603
 31
0.0
  0
LINE
  5
8A8B
  8
0
 62
     0
 10
-1032.569893998171
 20
-680.49799308010824
 30
0.0
 11
-1032.5554154775491
 21
-680.48351455948603
 31
0.0
  0
LINE
  5
8A8C
  8
0
 62
     0
 10
-1032.5554154775491
 20
-680.48351455948603
 30
0.0
 11
-1032.510838998171
 21
-680.43893808010807
 31
0.0
  0
LINE
  5
8A8D
  8
0
 62
     0
 10
-1032.5895789981721
 20
-680.51767808010845
 30
0.0
 11
-1032.582974477549
 21
-680.51107355948568
 31
0.0
  0
LINE
  5
8A8E
  8
0
 62
     0
 10
-1032.5789597458979
 20
-680.47170355948583
 30
0.0
 11
-1032.5108389981719
 21
-680.40358281175963
 31
0.0
  0
LINE
  5
8A8F
  8
0
 62
     0
 10
-1032.5895789981721
 20
-680.44696754341112
 30
0.0
 11
-1032.5108389981719
 21
-680.36822754341085
 31
0.0
  0
LINE
  5
8A90
  8
0
 62
     0
 10
-1032.5895789981721
 20
-680.41161227506245
 30
0.0
 11
-1032.5108389981719
 21
-680.3328722750623
 31
0.0
  0
LINE
  5
8A91
  8
0
 62
     0
 10
-1032.5895789981721
 20
-680.37625700671379
 30
0.0
 11
-1032.5108389981719
 21
-680.29751700671363
 31
0.0
  0
LINE
  5
8A92
  8
0
 62
     0
 10
-1032.5895789981721
 20
-680.34090173836512
 30
0.0
 11
-1032.5156568192931
 21
-680.26697955948589
 31
0.0
  0
LINE
  5
8A93
  8
0
 62
     0
 10
-1032.5895789981721
 20
-680.30554647001645
 30
0.0
 11
-1032.5510120876411
 21
-680.26697955948589
 31
0.0
  0
LINE
  5
8A94
  8
0
 62
     0
 10
-1032.5895789981721
 20
-680.2701912016679
 30
0.0
 11
-1032.58636735599
 21
-680.266979559486
 31
0.0
  0
ENDBLK
  5
8A96
  8
0
  0
BLOCK
  8
0
  2
*X47
 70
     1
 10
0.0
 20
0.0
 30
0.0
  3
*X47
  1

  0
LINE
  5
8A98
  8
0
 62
     0
 10
-1032.212795009204
 20
-680.0701835544437
 30
0.0
 11
-1032.195878998172
 21
-680.05326754341104
 31
0.0
  0
LINE
  5
8A99
  8
0
 62
     0
 10
-1032.2481502775529
 20
-680.0701835544437
 30
0.0
 11
-1032.2047892825949
 21
-680.02682255948594
 31
0.0
  0
LINE
  5
8A9A
  8
0
 62
     0
 10
-1032.2845393889279
 20
-680.07121739747004
 30
0.0
 11
-1032.240144550944
 21
-680.02682255948571
 31
0.0
  0
LINE
  5
8A9B
  8
0
 62
     0
 10
-1032.321173964858
 20
-680.07249670505144
 30
0.0
 11
-1032.2549339981711
 21
-680.00625673836487
 31
0.0
  0
LINE
  5
8A9C
  8
0
 62
     0
 10
-1032.5156568192931
 20
-680.26697955948589
 30
0.0
 11
-1032.5108389981719
 21
-680.26216173836497
 31
0.0
  0
LINE
  5
8A9D
  8
0
 62
     0
 10
-1032.357808540788
 20
-680.07377601263283
 30
0.0
 11
-1032.26596479143
 21
-679.98193226327453
 31
0.0
  0
LINE
  5
8A9E
  8
0
 62
     0
 10
-1032.5510120876411
 20
-680.26697955948589
 30
0.0
 11
-1032.5108389981719
 21
-680.2268064700163
 31
0.0
  0
LINE
  5
8A9F
  8
0
 62
     0
 10
-1032.3944431167181
 20
-680.07505532021457
 30
0.0
 11
-1032.30259936736
 21
-679.98321157085604
 31
0.0
  0
LINE
  5
8AA0
  8
0
 62
     0
 10
-1032.58636735599
 20
-680.266979559486
 30
0.0
 11
-1032.5108389981719
 21
-680.19145120166775
 31
0.0
  0
LINE
  5
8AA1
  8
0
 62
     0
 10
-1032.4431910586909
 20
-680.08844799383883
 30
0.0
 11
-1032.3392339432901
 21
-679.98449087843755
 31
0.0
  0
LINE
  5
8AA2
  8
0
 62
     0
 10
-1032.5895789981721
 20
-680.23483593331935
 30
0.0
 11
-1032.5108389981719
 21
-680.15609593331897
 31
0.0
  0
LINE
  5
8AA3
  8
0
 62
     0
 10
-1032.509768383959
 20
-680.11967005075815
 30
0.0
 11
-1032.3758685192199
 21
-679.98577018601895
 31
0.0
  0
LINE
  5
8AA4
  8
0
 62
     0
 10
-1032.5895789981721
 20
-680.19948066497057
 30
0.0
 11
-1032.5108389981719
 21
-680.1207406649703
 31
0.0
  0
LINE
  5
8AA5
  8
0
 62
     0
 10
-1032.5895789981721
 20
-680.16412539662201
 30
0.0
 11
-1032.4136714871711
 21
-679.98821788562145
 31
0.0
  0
LINE
  5
8AA6
  8
0
 62
     0
 10
-1032.5895789981721
 20
-680.12877012827335
 30
0.0
 11
-1032.4791532425661
 21
-680.01834437266723
 31
0.0
  0
LINE
  5
8AA7
  8
0
 62
     0
 10
-1032.5895389167731
 20
-680.09337477852614
 30
0.0
 11
-1032.545730567834
 21
-680.04956642958666
 31
0.0
  0
ENDBLK
  5
8AA9
  8
0
  0
BLOCK
  8
0
  2
*U48
 70
     1
 10
0.0
 20
0.0
 30
0.0
  3
*U48
  1

  0
TEXT
  5
8AB0
  8
0
 62
     1
 10
-1025.5590240200499
 20
-690.4765519522166
 30
0.0
 40
0.125
  1
MATERIAL : FLAME RETARDANT OF ABS ( UL94-V0 )
  0
TEXT
  5
8AB1
  8
0
 62
     1
 10
-1025.554760718549
 20
-690.68710220233038
 30
0.0
 40
0.125
  1
COLOR: BLACK
  0
TEXT
  5
8AB2
  8
0
 62
     1
 10
-1025.5603882765299
 20
-690.89756718641411
 30
0.0
 40
0.125
  1
FINISH:
  0
TEXT
  5
8AB3
  8
0
 62
     1
 10
-1025.546063583487
 20
-691.10811743652778
 30
0.0
 40
0.125
  1
   SHELL EXTERIOR SURFACES ARE TEXTURED.
  0
TEXT
  5
8AB4
  8
0
 62
     1
 10
-1025.546063583487
 20
-691.31866768664145
 30
0.0
 40
0.125
  1
   RECESSED AREAS ON EXTERIOR ARE SMOOTH.
  0
TEXT
  5
8AB5
  8
0
 62
     1
 10
-1025.5603882765299
 20
-691.52921793675523
 30
0.0
 40
0.125
  1
FOUR (4) INTERNAL BOSSES ON EACH SHELL ARE
  0
TEXT
  5
8AB6
  8
0
 62
     1
 10
-1025.546063583487
 20
-691.73976818686879
 30
0.0
 40
0.125
  1
   DESIGNED TO TRAP PCB BETWEEN ASSEMBLED
  0
TEXT
  5
8AB7
  8
0
 62
     1
 10
-1025.546063583487
 20
-691.95023317095252
 30
0.0
 40
0.125
  1
   SHELL HALVES.
  0
TEXT
  5
8AB8
  8
0
 62
     1
 10
-1025.5603882765299
 20
-692.1607834210663
 30
0.0
 40
0.125
  1
FOUR (4) #4-24 x .375 LG. SCREWS (BLACK) ARE SUPPLIED
  0
TEXT
  5
8AB9
  8
0
 62
     1
 10
-1025.546063583487
 20
-692.37133367117997
 30
0.0
 40
0.125
  1
   FOR ASSEMBLING SHELL HALVES
  0
TEXT
  5
8ABA
  8
0
 62
     1
 10
-1025.545807785398
 20
-692.58188392129364
 30
0.0
 40
0.125
  1
ALL DIMENSIONAL TOLERANCES ARE  +/-.015
  0
ENDBLK
  5
8ABC
  8
0
  0
ENDSEC
  0
SECTION
  2
ENTITIES
  0
POLYLINE
  5
2025
  8
\M+2BBB2\M+2A755\M+2BD75
 66
     1
 10
0.0
 20
0.0
 30
0.0
 70
     1
  0
VERTEX
  5
880B
  8
\M+2BBB2\M+2A755\M+2BD75
 10
-1035.5633639134021
 20
-688.96069807353422
 30
0.0
 42
0.3386620694399563
  0
VERTEX
  5
880C
  8
\M+2BBB2\M+2A755\M+2BD75
 10
-1035.249024263094
 20
-689.32139952471425
 30
0.0
 42
0.1007856859982988
  0
VERTEX
  5
880D
  8
\M+2BBB2\M+2A755\M+2BD75
 10
-1033.949585054836
 20
-689.32139952471425
 30
0.0
 42
0.3386620694399578
  0
VERTEX
  5
880E
  8
\M+2BBB2\M+2A755\M+2BD75
 10
-1033.635245404527
 20
-688.96069807353422
 30
0.0
 42
0.0159384559834733
  0
VERTEX
  5
880F
  8
\M+2BBB2\M+2A755\M+2BD75
 10
-1033.6052121589651
 20
-688.01877446072308
 30
0.0
 42
0.0159384559834733
  0
VERTEX
  5
8810
  8
\M+2BBB2\M+2A755\M+2BD75
 10
-1033.635245404527
 20
-687.07685084791171
 30
0.0
 42
0.3386620694399576
  0
VERTEX
  5
8811
  8
\M+2BBB2\M+2A755\M+2BD75
 10
-1033.949585054836
 20
-686.71614939673168
 30
0.0
 42
0.1007856859982986
  0
VERTEX
  5
8812
  8
\M+2BBB2\M+2A755\M+2BD75
 10
-1035.249024263094
 20
-686.71614939673168
 30
0.0
 42
0.3386620694399562
  0
VERTEX
  5
8813
  8
\M+2BBB2\M+2A755\M+2BD75
 10
-1035.5633639134021
 20
-687.07685084791171
 30
0.0
 42
0.0159384559834733
  0
VERTEX
  5
8814
  8
\M+2BBB2\M+2A755\M+2BD75
 10
-1035.593397158965
 20
-688.01877446072308
 30
0.0
 42
0.0159384559834733
  0
SEQEND
  5
8815
  8
\M+2BBB2\M+2A755\M+2BD75
  0
CIRCLE
  5
2032
  8
\M+2BBB2\M+2A755\M+2BD75
 10
-1035.2489096589641
 20
-687.04436696072287
 30
0.0
 40
0.11811
  0
CIRCLE
  5
2033
  8
\M+2BBB2\M+2A755\M+2BD75
 10
-1033.9496996589639
 20
-687.04436696072287
 30
0.0
 40
0.11811
  0
CIRCLE
  5
2034
  8
\M+2BBB2\M+2A755\M+2BD75
 10
-1035.2489096589641
 20
-688.99318196072295
 30
0.0
 40
0.11811
  0
CIRCLE
  5
2036
  8
\M+2BBB2\M+2A755\M+2BD75
 10
-1033.9496996589639
 20
-688.99318196072295
 30
0.0
 40
0.11811
  0
CIRCLE
  5
2038
  8
\M+2BBB2\M+2A755\M+2BD75
 10
-1035.2489096589641
 20
-687.04436696072287
 30
0.0
 40
0.04429125
  0
CIRCLE
  5
2039
  8
\M+2BBB2\M+2A755\M+2BD75
 10
-1033.9496996589639
 20
-687.04436696072287
 30
0.0
 40
0.04429125
  0
CIRCLE
  5
203A
  8
\M+2BBB2\M+2A755\M+2BD75
 10
-1033.9496996589639
 20
-688.99318196072295
 30
0.0
 40
0.04429125
  0
CIRCLE
  5
203B
  8
\M+2BBB2\M+2A755\M+2BD75
 10
-1035.2489096589641
 20
-688.99318196072295
 30
0.0
 40
0.04429125
  0
CIRCLE
  5
203C
  8
\M+2BBB2\M+2A755\M+2BD75
 10
-1035.2489096589641
 20
-688.99318196072295
 30
0.0
 40
0.06397625
  0
CIRCLE
  5
203D
  8
\M+2BBB2\M+2A755\M+2BD75
 10
-1033.9496996589639
 20
-688.99318196072295
 30
0.0
 40
0.06397625
  0
CIRCLE
  5
203E
  8
\M+2BBB2\M+2A755\M+2BD75
 10
-1033.9496996589639
 20
-687.04436696072287
 30
0.0
 40
0.06397625
  0
CIRCLE
  5
203F
  8
\M+2BBB2\M+2A755\M+2BD75
 10
-1035.2489096589641
 20
-687.04436696072287
 30
0.0
 40
0.06397625
  0
POLYLINE
  5
2040
  8
\M+2BBB2\M+2A755\M+2BD75
 66
     1
 10
0.0
 20
0.0
 30
0.0
 70
     1
  0
VERTEX
  5
8816
  8
\M+2BBB2\M+2A755\M+2BD75
 10
-1028.606013238478
 20
-688.9230270249401
 30
0.0
 42
0.3386620694399563
  0
VERTEX
  5
8817
  8
\M+2BBB2\M+2A755\M+2BD75
 10
-1028.291673588169
 20
-689.28372847612013
 30
0.0
 42
0.1007856859982988
  0
VERTEX
  5
8818
  8
\M+2BBB2\M+2A755\M+2BD75
 10
-1026.9922343799101
 20
-689.28372847612013
 30
0.0
 42
0.3386620694399578
  0
VERTEX
  5
8819
  8
\M+2BBB2\M+2A755\M+2BD75
 10
-1026.677894729602
 20
-688.9230270249401
 30
0.0
 42
0.0159384559834733
  0
VERTEX
  5
881A
  8
\M+2BBB2\M+2A755\M+2BD75
 10
-1026.6478614840389
 20
-687.98110341212885
 30
0.0
 42
0.0159384559834733
  0
VERTEX
  5
881B
  8
\M+2BBB2\M+2A755\M+2BD75
 10
-1026.677894729602
 20
-687.03917979931782
 30
0.0
 42
0.3386620694399576
  0
VERTEX
  5
881C
  8
\M+2BBB2\M+2A755\M+2BD75
 10
-1026.9922343799101
 20
-686.67847834813745
 30
0.0
 42
0.1007856859982986
  0
VERTEX
  5
881D
  8
\M+2BBB2\M+2A755\M+2BD75
 10
-1028.291673588169
 20
-686.67847834813745
 30
0.0
 42
0.3386620694399562
  0
VERTEX
  5
881E
  8
\M+2BBB2\M+2A755\M+2BD75
 10
-1028.606013238478
 20
-687.03917979931782
 30
0.0
 42
0.0159384559834733
  0
VERTEX
  5
881F
  8
\M+2BBB2\M+2A755\M+2BD75
 10
-1028.63604648404
 20
-687.98110341212885
 30
0.0
 42
0.0159384559834733
  0
SEQEND
  5
8820
  8
\M+2BBB2\M+2A755\M+2BD75
  0
POLYLINE
  5
205B
  8
\M+2BBB2\M+2A755\M+2BD75
 66
     1
 10
0.0
 20
0.0
 30
0.0
 70
     1
  0
VERTEX
  5
8821
  8
\M+2BBB2\M+2A755\M+2BD75
 10
-1028.4292081036249
 20
-688.91174068299335
 30
0.0
 42
0.3386620694399546
  0
VERTEX
  5
8822
  8
\M+2BBB2\M+2A755\M+2BD75
 10
-1028.2563212959551
 20
-689.11012648114263
 30
0.0
 42
0.100785685998299
  0
VERTEX
  5
8823
  8
\M+2BBB2\M+2A755\M+2BD75
 10
-1027.0275866721249
 20
-689.11012648114263
 30
0.0
 42
0.3386620694399568
  0
VERTEX
  5
8824
  8
\M+2BBB2\M+2A755\M+2BD75
 10
-1026.854699864454
 20
-688.91174068299335
 30
0.0
 42
0.0159384559834733
  0
VERTEX
  5
8825
  8
\M+2BBB2\M+2A755\M+2BD75
 10
-1026.8250264840401
 20
-687.98110341212885
 30
0.0
 42
0.0159384559834733
  0
VERTEX
  5
8826
  8
\M+2BBB2\M+2A755\M+2BD75
 10
-1026.854699864454
 20
-687.05046614126422
 30
0.0
 42
0.3386620694399594
  0
VERTEX
  5
8827
  8
\M+2BBB2\M+2A755\M+2BD75
 10
-1027.0275866721249
 20
-686.85208034311518
 30
0.0
 42
0.1007856859982988
  0
VERTEX
  5
8828
  8
\M+2BBB2\M+2A755\M+2BD75
 10
-1028.2563212959551
 20
-686.85208034311518
 30
0.0
 42
0.33866206943996
  0
VERTEX
  5
8829
  8
\M+2BBB2\M+2A755\M+2BD75
 10
-1028.4292081036249
 20
-687.05046614126422
 30
0.0
 42
0.0159384559834733
  0
VERTEX
  5
882A
  8
\M+2BBB2\M+2A755\M+2BD75
 10
-1028.4588814840399
 20
-687.98110341212885
 30
0.0
 42
0.0159384559834733
  0
SEQEND
  5
882B
  8
\M+2BBB2\M+2A755\M+2BD75
  0
POLYLINE
  5
205D
  8
\M+2BBB2\M+2A755\M+2BD75
 66
     1
 10
0.0
 20
0.0
 30
0.0
 70
     1
  0
VERTEX
  5
882C
  8
\M+2BBB2\M+2A755\M+2BD75
 10
-1028.29155898404
 20
-688.96535341212893
 30
0.0
 42
-0.4142135623730824
  0
VERTEX
  5
882D
  8
\M+2BBB2\M+2A755\M+2BD75
 10
-1028.3506139840399
 20
-688.9062984121291
 30
0.0
  0
VERTEX
  5
882E
  8
\M+2BBB2\M+2A755\M+2BD75
 10
-1028.3506139840399
 20
-687.05590841212893
 30
0.0
 42
-0.4142135623731086
  0
VERTEX
  5
882F
  8
\M+2BBB2\M+2A755\M+2BD75
 10
-1028.29155898404
 20
-686.99685341212898
 30
0.0
  0
VERTEX
  5
8830
  8
\M+2BBB2\M+2A755\M+2BD75
 10
-1026.9923489840401
 20
-686.99685341212898
 30
0.0
 42
-0.4142135623730823
  0
VERTEX
  5
8831
  8
\M+2BBB2\M+2A755\M+2BD75
 10
-1026.9332939840399
 20
-687.05590841212893
 30
0.0
  0
VERTEX
  5
8832
  8
\M+2BBB2\M+2A755\M+2BD75
 10
-1026.9332939840399
 20
-688.9062984121291
 30
0.0
 42
-0.4142135623731085
  0
VERTEX
  5
8833
  8
\M+2BBB2\M+2A755\M+2BD75
 10
-1026.9923489840401
 20
-688.96535341212905
 30
0.0
  0
SEQEND
  5
8834
  8
\M+2BBB2\M+2A755\M+2BD75
  0
POLYLINE
  5
205E
  8
\M+2BBB2\M+2A755\M+2BD75
 66
     1
 10
0.0
 20
0.0
 30
0.0
  0
VERTEX
  5
8835
  8
\M+2BBB2\M+2A755\M+2BD75
 10
-1026.9150733383319
 20
-687.04079344668298
 30
0.0
 42
-0.0483274090697726
  0
VERTEX
  5
8836
  8
\M+2BBB2\M+2A755\M+2BD75
 10
-1026.9136089840399
 20
-687.05590841212893
 30
0.0
  0
VERTEX
  5
8837
  8
\M+2BBB2\M+2A755\M+2BD75
 10
-1026.9136089840399
 20
-688.9062984121291
 30
0.0
 42
-0.048327409131539
  0
VERTEX
  5
8838
  8
\M+2BBB2\M+2A755\M+2BD75
 10
-1026.915073338336
 20
-688.92141337759404
 30
0.0
 42
-0.048327409131539
  0
SEQEND
  5
8839
  8
\M+2BBB2\M+2A755\M+2BD75
  0
POLYLINE
  5
207C
  8
\M+2BBB2\M+2A755\M+2BD75
 66
     1
 10
0.0
 20
0.0
 30
0.0
  0
VERTEX
  5
883A
  8
\M+2BBB2\M+2A755\M+2BD75
 10
-1028.3702847535901
 20
-688.90779534519265
 30
0.0
 42
0.0000031547057142
  0
VERTEX
  5
883B
  8
\M+2BBB2\M+2A755\M+2BD75
 10
-1028.3702730586731
 20
-688.90797856901122
 30
0.0
 42
0.3386620694399599
  0
VERTEX
  5
883C
  8
\M+2BBB2\M+2A755\M+2BD75
 10
-1028.2445371985509
 20
-689.05225914948346
 30
0.0
 42
0.100785685998299
  0
VERTEX
  5
883D
  8
\M+2BBB2\M+2A755\M+2BD75
 10
-1027.03937076953
 20
-689.05225914948346
 30
0.0
 42
0.3386620694399569
  0
VERTEX
  5
883E
  8
\M+2BBB2\M+2A755\M+2BD75
 10
-1026.9136349094069
 20
-688.90797856901122
 30
0.0
 42
0.0000031547057266
  0
VERTEX
  5
883F
  8
\M+2BBB2\M+2A755\M+2BD75
 10
-1026.913623214489
 20
-688.90779534519174
 30
0.0
 42
0.0000031547057266
  0
SEQEND
  5
8840
  8
\M+2BBB2\M+2A755\M+2BD75
  0
POLYLINE
  5
207D
  8
\M+2BBB2\M+2A755\M+2BD75
 66
     1
 10
0.0
 20
0.0
 30
0.0
  0
VERTEX
  5
8841
  8
\M+2BBB2\M+2A755\M+2BD75
 10
-1028.3688346297449
 20
-688.92141337758335
 30
0.0
 42
-0.0483274090970385
  0
VERTEX
  5
8842
  8
\M+2BBB2\M+2A755\M+2BD75
 10
-1028.3702989840399
 20
-688.9062984121291
 30
0.0
  0
VERTEX
  5
8843
  8
\M+2BBB2\M+2A755\M+2BD75
 10
-1028.3702989840399
 20
-687.05590841212893
 30
0.0
 42
-0.0483274091015804
  0
VERTEX
  5
8844
  8
\M+2BBB2\M+2A755\M+2BD75
 10
-1028.3688346297449
 20
-687.04079344667286
 30
0.0
  0
SEQEND
  5
8845
  8
\M+2BBB2\M+2A755\M+2BD75
  0
POLYLINE
  5
207E
  8
\M+2BBB2\M+2A755\M+2BD75
 66
     1
 10
0.0
 20
0.0
 30
0.0
  0
VERTEX
  5
8846
  8
\M+2BBB2\M+2A755\M+2BD75
 10
-1026.913623214489
 20
-687.05441147906527
 30
0.0
 42
0.000003154705717
  0
VERTEX
  5
8847
  8
\M+2BBB2\M+2A755\M+2BD75
 10
-1026.9136349094069
 20
-687.05422825524624
 30
0.0
 42
0.3386620694399505
  0
VERTEX
  5
8848
  8
\M+2BBB2\M+2A755\M+2BD75
 10
-1027.03937076953
 20
-686.90994767477423
 30
0.0
 42
0.1007856859982987
  0
VERTEX
  5
8849
  8
\M+2BBB2\M+2A755\M+2BD75
 10
-1028.2445371985509
 20
-686.90994767477423
 30
0.0
 42
0.3386620694399551
  0
VERTEX
  5
884A
  8
\M+2BBB2\M+2A755\M+2BD75
 10
-1028.3702730586731
 20
-687.05422825524624
 30
0.0
 42
0.000003154705714
  0
VERTEX
  5
884B
  8
\M+2BBB2\M+2A755\M+2BD75
 10
-1028.3702847535901
 20
-687.05441147906504
 30
0.0
  0
SEQEND
  5
884C
  8
\M+2BBB2\M+2A755\M+2BD75
  0
LINE
  5
2080
  8
\M+2BBB2\M+2A755\M+2BD75
 10
-1031.418748153955
 20
-686.65066696072302
 30
0.0
 11
-1031.418748153955
 21
-686.9803907107231
 31
0.0
  0
LINE
  5
2083
  8
\M+2BBB2\M+2A755\M+2BD75
 10
-1030.9463081539559
 20
-686.82783196072296
 30
0.0
 11
-1030.9463081539559
 21
-686.88688696072302
 31
0.0
  0
LINE
  5
2084
  8
\M+2BBB2\M+2A755\M+2BD75
 10
-1031.418748153955
 20
-686.65066696072302
 30
0.0
 11
-1031.083765972149
 21
-686.66236479627776
 31
0.0
  0
LINE
  5
21F6
  8
\M+2BBB2\M+2A755\M+2BD75
 10
-1028.63604648404
 20
-690.40220082031919
 30
0.0
 11
-1028.6257268339809
 21
-690.69771693320013
 31
0.0
  0
LINE
  5
21FE
  8
\M+2BBB2\M+2A755\M+2BD75
 10
-1028.609189903568
 20
-690.72843254075167
 30
0.0
 11
-1028.4588814840399
 21
-690.83527082031924
 31
0.0
  0
ARC
  5
2200
  8
\M+2BBB2\M+2A755\M+2BD75
 10
-1028.58638081712
 20
-690.6963429400148
 30
0.0
 40
0.03937
 50
182.00000000000031
 51
234.5950245327416
  0
LINE
  5
2201
  8
\M+2BBB2\M+2A755\M+2BD75
 10
-1026.6478614840389
 20
-690.40220082031919
 30
0.0
 11
-1026.658181134098
 21
-690.69771693320013
 31
0.0
  0
LINE
  5
2202
  8
\M+2BBB2\M+2A755\M+2BD75
 10
-1026.674718064512
 20
-690.72843254075167
 30
0.0
 11
-1026.8250264840401
 21
-690.83527082031924
 31
0.0
  0
ARC
  5
2204
  8
\M+2BBB2\M+2A755\M+2BD75
 10
-1027.6419539840399
 20
-682.37933300781947
 30
0.0
 40
8.4953078124998278
 50
264.48178468275961
 51
275.51821531724039
  0
LINE
  5
2205
  8
\M+2BBB2\M+2A755\M+2BD75
 10
-1028.63604648404
 20
-690.40220082031919
 30
0.0
 11
-1026.6478614840389
 21
-690.40220082031919
 31
0.0
  0
ARC
  5
2207
  8
\M+2BBB2\M+2A755\M+2BD75
 10
-1027.6419539840399
 20
-682.37933300781947
 30
0.0
 40
8.3771978124998263
 50
264.48178468275961
 51
275.51821531724039
  0
LINE
  5
2209
  8
\M+2BBB2\M+2A755\M+2BD75
 10
-1026.8363842016361
 20
-690.71770818020354
 30
0.0
 11
-1026.6641215067591
 21
-690.71717704272089
 31
0.0
  0
LINE
  5
220A
  8
\M+2BBB2\M+2A755\M+2BD75
 10
-1028.447523766444
 20
-690.71770818020354
 30
0.0
 11
-1028.6197864613221
 21
-690.71717704272089
 31
0.0
  0
ARC
  5
220B
  8
\M+2BBB2\M+2A755\M+2BD75
 10
-1026.6975271509591
 20
-690.6963429400148
 30
0.0
 40
0.03937
 50
305.40497546725828
 51
358.00000000000119
  0
ARC
  5
220C
  8
\M+2BBB2\M+2A755\M+2BD75
 10
-1028.58638081712
 20
-690.6963429400148
 30
0.0
 40
0.03937
 50
181.99999999999849
 51
234.5950245327416
  0
LINE
  5
2211
  8
\M+2BBB2\M+2A755\M+2BD75
 10
-1030.9463081539559
 20
-686.88688696072302
 30
0.0
 11
-1030.9856781539561
 21
-686.98531196072315
 31
0.0
  0
LINE
  5
2213
  8
\M+2BBB2\M+2A755\M+2BD75
 10
-1030.9856781539561
 20
-686.98531196072315
 30
0.0
 11
-1030.9856781539561
 21
-688.01877446072285
 31
0.0
  0
LINE
  5
2218
  8
\M+2BBB2\M+2A755\M+2BD75
 10
-1030.9463081539559
 20
-686.82783196072296
 30
0.0
 11
-1031.053140220034
 21
-686.67877583546715
 31
0.0
  0
ARC
  5
221C
  8
\M+2BBB2\M+2A755\M+2BD75
 10
-1031.0851399653341
 20
-686.70171081313754
 30
0.0
 40
0.03937
 50
35.63006830848223
 51
87.999999999999616
  0
LINE
  5
2228
  8
\M+2BBB2\M+2A755\M+2BD75
 10
-1031.0053631539549
 20
-687.03452446072288
 30
0.0
 11
-1031.0053631539549
 21
-688.01877446072285
 31
0.0
  0
LINE
  5
222A
  8
\M+2B5EA\M+2BD75
  6
CONTINUOUS
 62
     4
 10
-1030.9856781539561
 20
-686.98531196072315
 30
0.0
 11
-1031.0053631539549
 21
-687.03452446072288
 31
0.0
  0
LINE
  5
222D
  8
\M+2BBB2\M+2A755\M+2BD75
 10
-1025.671210623364
 20
-686.61299591212878
 30
0.0
 11
-1025.671210623364
 21
-687.98110341212885
 31
0.0
  0
LINE
  5
222E
  8
\M+2BBB2\M+2A755\M+2BD75
 10
-1025.3562506233629
 20
-687.03917979931782
 30
0.0
 11
-1025.3562506233629
 21
-687.98110341212885
 31
0.0
  0
LINE
  5
222F
  8
\M+2BBB2\M+2A755\M+2BD75
 10
-1025.198770623364
 20
-686.79016091212895
 30
0.0
 11
-1025.198770623364
 21
-686.8492159121289
 31
0.0
  0
LINE
  5
2230
  8
\M+2BBB2\M+2A755\M+2BD75
 10
-1025.2381406233651
 20
-686.94764091212892
 30
0.0
 11
-1025.2381406233651
 21
-687.98110341212885
 31
0.0
  0
LINE
  5
2231
  8
\M+2BBB2\M+2A755\M+2BD75
 10
-1025.671210623364
 20
-686.61299591212878
 30
0.0
 11
-1025.3362284415571
 21
-686.62469374768364
 31
0.0
  0
LINE
  5
2232
  8
\M+2BBB2\M+2A755\M+2BD75
 10
-1025.198770623364
 20
-686.8492159121289
 30
0.0
 11
-1025.2381406233651
 21
-686.94764091212892
 31
0.0
  0
LINE
  5
2233
  8
\M+2BBB2\M+2A755\M+2BD75
 10
-1025.198770623364
 20
-686.79016091212895
 30
0.0
 11
-1025.305602689443
 21
-686.64110478687303
 31
0.0
  0
ARC
  5
2234
  8
\M+2BBB2\M+2A755\M+2BD75
 10
-1025.3376024347431
 20
-686.66403976454342
 30
0.0
 40
0.03937
 50
35.63006830848223
 51
87.999999999999616
  0
ARC
  5
2235
  8
\M+2BBB2\M+2A755\M+2BD75
 10
-1023.1618252601691
 20
-687.03917979931782
 30
0.0
 40
2.1944253631956601
 50
169.25433211190051
 51
180.0
  0
LINE
  5
2236
  8
\M+2BBB2\M+2A755\M+2BD75
 10
-1025.671210623364
 20
-689.3492109121288
 30
0.0
 11
-1025.671210623364
 21
-687.98110341212885
 31
0.0
  0
LINE
  5
2237
  8
\M+2BBB2\M+2A755\M+2BD75
 10
-1025.3562506233629
 20
-688.92302702493998
 30
0.0
 11
-1025.3562506233629
 21
-687.98110341212885
 31
0.0
  0
LINE
  5
2238
  8
\M+2BBB2\M+2A755\M+2BD75
 10
-1025.198770623364
 20
-689.17204591212874
 30
0.0
 11
-1025.198770623364
 21
-689.11299091212868
 31
0.0
  0
LINE
  5
2239
  8
\M+2BBB2\M+2A755\M+2BD75
 10
-1025.2381406233651
 20
-689.01456591212866
 30
0.0
 11
-1025.2381406233651
 21
-687.98110341212885
 31
0.0
  0
LINE
  5
223A
  8
\M+2BBB2\M+2A755\M+2BD75
 10
-1025.671210623364
 20
-689.3492109121288
 30
0.0
 11
-1025.3362284415571
 21
-689.33751307657394
 31
0.0
  0
LINE
  5
223B
  8
\M+2BBB2\M+2A755\M+2BD75
 10
-1025.198770623364
 20
-689.11299091212868
 30
0.0
 11
-1025.2381406233651
 21
-689.01456591212866
 31
0.0
  0
LINE
  5
223C
  8
\M+2BBB2\M+2A755\M+2BD75
 10
-1025.198770623364
 20
-689.17204591212874
 30
0.0
 11
-1025.305602689443
 21
-689.32110203738455
 31
0.0
  0
ARC
  5
223D
  8
\M+2BBB2\M+2A755\M+2BD75
 10
-1025.3376024347431
 20
-689.29816705971416
 30
0.0
 40
0.03937
 50
272.0000000000004
 51
324.36993169151759
  0
ARC
  5
223E
  8
\M+2BBB2\M+2A755\M+2BD75
 10
-1023.1618252601691
 20
-688.92302702493998
 30
0.0
 40
2.1944253631956601
 50
180.0
 51
190.7456678880994
  0
LINE
  5
223F
  8
\M+2B5EA\M+2BD75
 10
-1025.257825623363
 20
-686.99685341212898
 30
0.0
 11
-1025.257825623363
 21
-687.98110341212885
 31
0.0
  0
LINE
  5
2240
  8
\M+2B5EA\M+2BD75
 10
-1025.2381406233651
 20
-686.94764091212892
 30
0.0
 11
-1025.257825623363
 21
-686.99685341212898
 31
0.0
  0
LINE
  5
2241
  8
\M+2B5EA\M+2BD75
 10
-1025.257825623363
 20
-688.96535341212859
 30
0.0
 11
-1025.257825623363
 21
-687.98110341212885
 31
0.0
  0
LINE
  5
2242
  8
\M+2B5EA\M+2BD75
 10
-1025.2381406233651
 20
-689.01456591212866
 30
0.0
 11
-1025.257825623363
 21
-688.96535341212848
 31
0.0
  0
POLYLINE
  5
225F
  8
\M+2BBB2\M+2A755\M+2BD75
 66
     1
 10
0.0
 20
0.0
 30
0.0
 70
     1
  0
VERTEX
  5
884D
  8
\M+2BBB2\M+2A755\M+2BD75
 10
-1035.4749613459769
 20
-688.95505490256085
 30
0.0
 42
0.3386620694399563
  0
VERTEX
  5
884E
  8
\M+2BBB2\M+2A755\M+2BD75
 10
-1035.231348116987
 20
-689.23459852722544
 30
0.0
 42
0.1007856859982989
  0
VERTEX
  5
884F
  8
\M+2BBB2\M+2A755\M+2BD75
 10
-1033.9672612009431
 20
-689.23459852722544
 30
0.0
 42
0.3386620694399576
  0
VERTEX
  5
8850
  8
\M+2BBB2\M+2A755\M+2BD75
 10
-1033.7236479719541
 20
-688.95505490256085
 30
0.0
 42
0.0159384559834733
  0
VERTEX
  5
8851
  8
\M+2BBB2\M+2A755\M+2BD75
 10
-1033.6937946589651
 20
-688.01877446072308
 30
0.0
 42
0.0159384559834733
  0
VERTEX
  5
8852
  8
\M+2BBB2\M+2A755\M+2BD75
 10
-1033.7236479719541
 20
-687.08249401888509
 30
0.0
 42
0.3386620694399598
  0
VERTEX
  5
8853
  8
\M+2BBB2\M+2A755\M+2BD75
 10
-1033.9672612009431
 20
-686.8029503942206
 30
0.0
 42
0.1007856859982987
  0
VERTEX
  5
8854
  8
\M+2BBB2\M+2A755\M+2BD75
 10
-1035.231348116987
 20
-686.8029503942206
 30
0.0
 42
0.3386620694399598
  0
VERTEX
  5
8855
  8
\M+2BBB2\M+2A755\M+2BD75
 10
-1035.4749613459769
 20
-687.08249401888509
 30
0.0
 42
0.0159384559834733
  0
VERTEX
  5
8856
  8
\M+2BBB2\M+2A755\M+2BD75
 10
-1035.504814658965
 20
-688.01877446072308
 30
0.0
 42
0.0159384559834733
  0
SEQEND
  5
8857
  8
\M+2BBB2\M+2A755\M+2BD75
  0
POLYLINE
  5
2260
  8
\M+2BBB2\M+2A755\M+2BD75
 66
     1
 10
0.0
 20
0.0
 30
0.0
 70
     1
  0
VERTEX
  5
8858
  8
\M+2BBB2\M+2A755\M+2BD75
 10
-1035.522109381938
 20
-688.95806459374683
 30
0.0
 42
0.3386620694399578
  0
VERTEX
  5
8859
  8
\M+2BBB2\M+2A755\M+2BD75
 10
-1035.240775394911
 20
-689.28089239255291
 30
0.0
 42
0.1007856859982985
  0
VERTEX
  5
885A
  8
\M+2BBB2\M+2A755\M+2BD75
 10
-1033.9578339230191
 20
-689.28089239255291
 30
0.0
 42
0.3386620694399588
  0
VERTEX
  5
885B
  8
\M+2BBB2\M+2A755\M+2BD75
 10
-1033.676499935993
 20
-688.95806459374683
 30
0.0
 42
0.0159384559834733
  0
VERTEX
  5
885C
  8
\M+2BBB2\M+2A755\M+2BD75
 10
-1033.646550658965
 20
-688.01877446072308
 30
0.0
 42
0.0159384559834733
  0
VERTEX
  5
885D
  8
\M+2BBB2\M+2A755\M+2BD75
 10
-1033.676499935993
 20
-687.07948432769933
 30
0.0
 42
0.3386620694399608
  0
VERTEX
  5
885E
  8
\M+2BBB2\M+2A755\M+2BD75
 10
-1033.9578339230191
 20
-686.75665652889325
 30
0.0
 42
0.1007856859982983
  0
VERTEX
  5
885F
  8
\M+2BBB2\M+2A755\M+2BD75
 10
-1035.240775394911
 20
-686.75665652889325
 30
0.0
 42
0.3386620694399607
  0
VERTEX
  5
8860
  8
\M+2BBB2\M+2A755\M+2BD75
 10
-1035.522109381938
 20
-687.07948432769933
 30
0.0
 42
0.0159384559834733
  0
VERTEX
  5
8861
  8
\M+2BBB2\M+2A755\M+2BD75
 10
-1035.5520586589651
 20
-688.01877446072308
 30
0.0
 42
0.0159384559834733
  0
SEQEND
  5
8862
  8
\M+2BBB2\M+2A755\M+2BD75
  0
LINE
  5
2261
  8
\M+2BBB2\M+2A755\M+2BD75
 10
-1031.379378153955
 20
-686.74067828637567
 30
0.0
 11
-1031.098621920117
 21
-686.75048251010105
 31
0.0
  0
LINE
  5
2262
  8
\M+2BBB2\M+2A755\M+2BD75
 10
-1031.0202762704459
 20
-686.85979331348972
 30
0.0
 11
-1031.098621920117
 21
-686.75048251010105
 31
0.0
  0
LINE
  5
2264
  8
\M+2BBB2\M+2A755\M+2BD75
 10
-1031.0194164085949
 20
-686.85764365886689
 30
0.0
 11
-1031.0468617293391
 21
-686.92625696072298
 31
0.0
  0
LINE
  5
2265
  8
\M+2BBB2\M+2A755\M+2BD75
 10
-1031.379378153955
 20
-686.92625696072298
 30
0.0
 11
-1031.0468617293391
 21
-686.92625696072298
 31
0.0
  0
LINE
  5
2266
  8
\M+2BBB2\M+2A755\M+2BD75
 10
-1031.379378153955
 20
-687.1624769607231
 30
0.0
 11
-1031.064418153956
 21
-687.1624769607231
 31
0.0
  0
LINE
  5
2267
  8
\M+2BBB2\M+2A755\M+2BD75
 10
-1031.359693153956
 20
-687.088658210723
 30
0.0
 11
-1031.064418153956
 21
-687.088658210723
 31
0.0
  0
LINE
  5
2268
  8
\M+2BBB2\M+2A755\M+2BD75
 10
-1031.359693153956
 20
-687.00007571072308
 30
0.0
 11
-1031.064418153956
 21
-687.00007571072308
 31
0.0
  0
LINE
  5
2269
  8
\M+2BBB2\M+2A755\M+2BD75
 10
-1031.379378153955
 20
-686.9803907107231
 30
0.0
 11
-1031.359693153956
 21
-687.00007571072308
 31
0.0
  0
LINE
  5
226A
  8
\M+2BBB2\M+2A755\M+2BD75
 10
-1031.418748153955
 20
-686.9803907107231
 30
0.0
 11
-1031.418748153955
 21
-688.01877446072285
 31
0.0
  0
LINE
  5
226B
  8
\M+2BBB2\M+2A755\M+2BD75
 10
-1031.359693153956
 20
-687.088658210723
 30
0.0
 11
-1031.379378153955
 21
-687.10834321072309
 31
0.0
  0
LINE
  5
226C
  8
\M+2BBB2\M+2A755\M+2BD75
 10
-1031.418748153955
 20
-687.1624769607231
 30
0.0
 11
-1031.418748153955
 21
-688.01877446072285
 31
0.0
  0
LINE
  5
226D
  8
\M+2BBB2\M+2A755\M+2BD75
 10
-1031.359693153956
 20
-687.00007571072308
 30
0.0
 11
-1031.359693153956
 21
-687.088658210723
 31
0.0
  0
LINE
  5
226F
  8
\M+2BBB2\M+2A755\M+2BD75
 10
-1031.064418153956
 20
-687.1624769607231
 30
0.0
 11
-1031.064418153956
 21
-688.01877446072285
 31
0.0
  0
LINE
  5
2317
  8
\M+2BBB2\M+2A755\M+2BD75
 10
-1031.418748153955
 20
-686.69200546072307
 30
0.0
 11
-1031.379378153955
 21
-686.69200546072307
 31
0.0
  0
LINE
  5
2318
  8
\M+2BBB2\M+2A755\M+2BD75
 10
-1031.379378153955
 20
-686.69200546072307
 30
0.0
 11
-1031.379378153955
 21
-688.01877446072285
 31
0.0
  0
LINE
  5
231E
  8
\M+2BBB2\M+2A755\M+2BD75
 10
-1031.064418153956
 20
-687.088658210723
 30
0.0
 11
-1031.064418153956
 21
-687.00007571072308
 31
0.0
  0
LINE
  5
2320
  8
\M+2BBB2\M+2A755\M+2BD75
 10
-1031.418748153955
 20
-689.38688196072269
 30
0.0
 11
-1031.418748153955
 21
-689.05715821072283
 31
0.0
  0
LINE
  5
2321
  8
\M+2BBB2\M+2A755\M+2BD75
 10
-1030.9463081539559
 20
-689.20971696072297
 30
0.0
 11
-1030.9463081539559
 21
-689.15066196072291
 31
0.0
  0
LINE
  5
2322
  8
\M+2BBB2\M+2A755\M+2BD75
 10
-1030.9856781539561
 20
-689.05223696072278
 30
0.0
 11
-1030.9856781539561
 21
-688.01877446072308
 31
0.0
  0
LINE
  5
2323
  8
\M+2BBB2\M+2A755\M+2BD75
 10
-1031.064418153956
 20
-688.87507196072283
 30
0.0
 11
-1031.064418153956
 21
-688.01877446072308
 31
0.0
  0
LINE
  5
2324
  8
\M+2BBB2\M+2A755\M+2BD75
 10
-1031.418748153955
 20
-689.38688196072269
 30
0.0
 11
-1031.083765972149
 21
-689.37518412516829
 31
0.0
  0
LINE
  5
2325
  8
\M+2BBB2\M+2A755\M+2BD75
 10
-1031.379378153955
 20
-689.29687063507015
 30
0.0
 11
-1031.098621920117
 21
-689.28706641134477
 31
0.0
  0
LINE
  5
2326
  8
\M+2BBB2\M+2A755\M+2BD75
 10
-1030.9463081539559
 20
-689.15066196072291
 30
0.0
 11
-1030.9856781539561
 21
-689.05223696072278
 31
0.0
  0
LINE
  5
2327
  8
\M+2BBB2\M+2A755\M+2BD75
 10
-1031.0194164085949
 20
-689.17990526257915
 30
0.0
 11
-1031.0468617293391
 21
-689.11129196072295
 31
0.0
  0
LINE
  5
2328
  8
\M+2BBB2\M+2A755\M+2BD75
 10
-1030.9463081539559
 20
-689.20971696072297
 30
0.0
 11
-1031.0531402200349
 21
-689.35877308597867
 31
0.0
  0
LINE
  5
2329
  8
\M+2BBB2\M+2A755\M+2BD75
 10
-1031.0202762704459
 20
-689.17775560795621
 30
0.0
 11
-1031.098621920117
 21
-689.28706641134477
 31
0.0
  0
ARC
  5
232A
  8
\M+2BBB2\M+2A755\M+2BD75
 10
-1031.0851399653341
 20
-689.33583810830851
 30
0.0
 40
0.03937
 50
271.99999999999687
 51
324.3699316915131
  0
LINE
  5
232B
  8
\M+2BBB2\M+2A755\M+2BD75
 10
-1031.0053631539549
 20
-689.00302446072283
 30
0.0
 11
-1031.0053631539549
 21
-688.01877446072308
 31
0.0
  0
LINE
  5
232C
  8
\M+2B5EA\M+2BD75
  6
CONTINUOUS
 62
     4
 10
-1030.9856781539561
 20
-689.05223696072278
 30
0.0
 11
-1031.0053631539549
 21
-689.00302446072283
 31
0.0
  0
LINE
  5
232D
  8
\M+2BBB2\M+2A755\M+2BD75
 10
-1031.379378153955
 20
-689.11129196072295
 30
0.0
 11
-1031.0468617293391
 21
-689.11129196072295
 31
0.0
  0
LINE
  5
232E
  8
\M+2BBB2\M+2A755\M+2BD75
 10
-1031.379378153955
 20
-688.87507196072283
 30
0.0
 11
-1031.064418153956
 21
-688.87507196072283
 31
0.0
  0
LINE
  5
232F
  8
\M+2BBB2\M+2A755\M+2BD75
 10
-1031.359693153956
 20
-688.94889071072282
 30
0.0
 11
-1031.064418153956
 21
-688.94889071072282
 31
0.0
  0
LINE
  5
2330
  8
\M+2BBB2\M+2A755\M+2BD75
 10
-1031.359693153956
 20
-689.03747321072285
 30
0.0
 11
-1031.064418153956
 21
-689.03747321072285
 31
0.0
  0
LINE
  5
2331
  8
\M+2BBB2\M+2A755\M+2BD75
 10
-1031.379378153955
 20
-689.05715821072283
 30
0.0
 11
-1031.359693153956
 21
-689.03747321072285
 31
0.0
  0
LINE
  5
2332
  8
\M+2BBB2\M+2A755\M+2BD75
 10
-1031.418748153955
 20
-689.05715821072283
 30
0.0
 11
-1031.418748153955
 21
-688.01877446072285
 31
0.0
  0
LINE
  5
2333
  8
\M+2BBB2\M+2A755\M+2BD75
 10
-1031.359693153956
 20
-688.94889071072282
 30
0.0
 11
-1031.379378153955
 21
-688.92920571072284
 31
0.0
  0
LINE
  5
2334
  8
\M+2BBB2\M+2A755\M+2BD75
 10
-1031.418748153955
 20
-688.87507196072283
 30
0.0
 11
-1031.418748153955
 21
-688.01877446072285
 31
0.0
  0
LINE
  5
2335
  8
\M+2BBB2\M+2A755\M+2BD75
 10
-1031.359693153956
 20
-689.03747321072285
 30
0.0
 11
-1031.359693153956
 21
-688.94889071072282
 31
0.0
  0
LINE
  5
2336
  8
\M+2BBB2\M+2A755\M+2BD75
 10
-1031.418748153955
 20
-689.34554346072275
 30
0.0
 11
-1031.379378153955
 21
-689.34554346072275
 31
0.0
  0
LINE
  5
2337
  8
\M+2BBB2\M+2A755\M+2BD75
 10
-1031.379378153955
 20
-689.34554346072275
 30
0.0
 11
-1031.379378153955
 21
-688.01877446072285
 31
0.0
  0
LINE
  5
2338
  8
\M+2BBB2\M+2A755\M+2BD75
 10
-1031.064418153956
 20
-688.94889071072282
 30
0.0
 11
-1031.064418153956
 21
-689.03747321072285
 31
0.0
  0
INSERT
  5
2367
  8
\M+2BBB2\M+2A755\M+2BD75
  6
CONTINUOUS
  2
*X42
 10
0.0
 20
0.0
 30
0.0
1001
ACAD
1000
HATCH
1002
{
1070
    19
1000
ANSI31
1040
0.007874
1040
0.0
1000
R14_HATCH_DATA
1000
2367
1011
1.0
1021
0.0
1031
0.0
1021
0.0
1031
0.0
1011
0.0
1021
0.0
1031
0.0
1021
1.0
1031
0.0
1011
0.0
1021
0.0
1031
0.0
1021
0.0
1031
1.0
1040
0.0
1010
0.0
1020
0.0
1030
1.0
1000
ANSI31
1070
     0
1070
     0
1071
        1
1071
        7
1070
     1
1070
     1
1071
       46
1040
-1031.418748153955
1040
-686.65066696072302
1040
0.0
1040
-1031.418748153955
1040
-686.69200546072307
1040
0.0
1040
-1031.379378153955
1040
-686.69200546072307
1040
0.0
1040
-1031.379378153955
1040
-686.74067828637567
1040
0.0
1040
-1031.098621920117
1040
-686.75048251010105
1040
0.0
1040
-1031.0202762704459
1040
-686.85979331348972
1040
0.0
1040
-1031.0468617293391
1040
-686.92625696072298
1040
0.0
1040
-1031.379378153955
1040
-686.92625696072298
1040
0.0
1040
-1031.379378153955
1040
-686.9803907107231
1040
0.0
1040
-1031.359693153956
1040
-687.00007571072308
1040
0.0
1040
-1031.064418153956
1040
-687.00007571072308
1040
0.0
1040
-1031.064418153956
1040
-687.088658210723
1040
0.0
1040
-1031.359693153956
1040
-687.088658210723
1040
0.0
1040
-1031.379378153955
1040
-687.10834321072309
1040
0.0
1040
-1031.379378153955
1040
-687.1624769607231
1040
0.0
1040
-1031.064418153956
1040
-687.1624769607231
1040
0.0
1040
-1031.064418153956
1040
-688.01877446072285
1040
0.0
1040
-1031.064418153956
1040
-688.87507196072283
1040
0.0
1040
-1031.379378153955
1040
-688.87507196072283
1040
0.0
1040
-1031.379378153955
1040
-688.92920571072284
1040
0.0
1040
-1031.359693153956
1040
-688.94889071072282
1040
0.0
1040
-1031.064418153956
1040
-688.94889071072294
1040
0.0
1040
-1031.064418153956
1040
-689.03747321072285
1040
0.0
1040
-1031.359693153956
1040
-689.03747321072285
1040
0.0
1040
-1031.379378153955
1040
-689.05715821072283
1040
0.0
1040
-1031.379378153955
1040
-689.11129196072295
1040
0.0
1040
-1031.0468617293391
1040
-689.11129196072295
1040
0.0
1040
-1031.0202762704459
1040
-689.17775560795621
1040
0.0
1040
-1031.098621920117
1040
-689.28706641134477
1040
0.0
1040
-1031.379378153955
1040
-689.29687063507015
1040
0.0
1040
-1031.379378153955
1040
-689.34554346072275
1040
0.0
1040
-1031.418748153955
1040
-689.34554346072275
1040
0.0
1040
-1031.418748153955
1040
-689.38688196072292
1040
0.0
1040
-1031.083765972149
1040
-689.37518412516829
1040
0.2325689913204559
1040
-1031.0531402200349
1040
-689.35877308597867
1040
0.0
1040
-1030.9463081539559
1040
-689.20971696072297
1040
0.0
1040
-1030.9463081539559
1040
-689.15066196072291
1040
0.0
1040
-1030.9856781539561
1040
-689.05223696072278
1040
0.0
1040
-1031.0053631539549
1040
-689.00302446072283
1040
0.0
1040
-1031.0053631539549
1040
-688.01877446072308
1040
0.0
1040
-1031.0053631539549
1040
-687.03452446072288
1040
0.0
1040
-1030.9856781539561
1040
-686.98531196072315
1040
0.0
1040
-1030.9463081539559
1040
-686.88688696072302
1040
0.0
1040
-1030.9463081539559
1040
-686.82783196072296
1040
0.0
1040
-1031.0531402200349
1040
-686.67877583546715
1040
0.232568991320401
1040
-1031.083765972149
1040
-686.66236479627776
1040
0.0
1071
        0
1070
     0
1070
     1
1040
0.0
1040
0.007874
1070
     0
1070
     1
1040
0.7853981633974483
1040
-1018.11786954046
1040
-698.90448124964962
1040
-0.0176776341743246
1040
0.0176776341743246
1070
     0
1040
0.1649302716378312
1071
        1
1040
-1031.195444419152
1040
-686.72246757650498
1040
0.0
1002
}
  0
POLYLINE
  5
2372
  8
\M+2BBB2\M+2A755\M+2BD75
 66
     1
 10
0.0
 20
0.0
 30
0.0
  0
VERTEX
  5
88E7
  8
\M+2BBB2\M+2A755\M+2BD75
 10
-1033.9631026087479
 20
-689.11052902305073
 30
0.0
 42
-0.0388004794749874
  0
VERTEX
  5
88E8
  8
\M+2BBB2\M+2A755\M+2BD75
 10
-1033.990907956402
 20
-689.11847808169591
 30
0.0
 42
-0.1007856859982983
  0
VERTEX
  5
88E9
  8
\M+2BBB2\M+2A755\M+2BD75
 10
-1035.2077013615281
 20
-689.11847808169614
 30
0.0
 42
-0.0388004794752228
  0
VERTEX
  5
88EA
  8
\M+2BBB2\M+2A755\M+2BD75
 10
-1035.235506709181
 20
-689.11052902305084
 30
0.0
 42
-0.0388004794752228
  0
SEQEND
  5
88EB
  8
\M+2BBB2\M+2A755\M+2BD75
  0
LINE
  5
2375
  8
\M+2BBB2\M+2A755\M+2BD75
 10
-1034.057831221425
 20
-686.99685341212898
 30
0.0
 11
-1035.1407780965051
 21
-686.99685341212898
 31
0.0
  0
LINE
  5
2376
  8
\M+2BBB2\M+2A755\M+2BD75
 10
-1034.057831221425
 20
-689.04069550931729
 30
0.0
 11
-1035.140778096506
 21
-689.04069550931695
 31
0.0
  0
POLYLINE
  5
2378
  8
\M+2BBB2\M+2A755\M+2BD75
 66
     1
 10
0.0
 20
0.0
 30
0.0
  0
VERTEX
  5
88EC
  8
\M+2BBB2\M+2A755\M+2BD75
 10
-1033.96310260875
 20
-686.9270198983952
 30
0.0
 42
0.0388004794749874
  0
VERTEX
  5
88ED
  8
\M+2BBB2\M+2A755\M+2BD75
 10
-1033.990907956402
 20
-686.91907083975002
 30
0.0
 42
0.1007856859982983
  0
VERTEX
  5
88EE
  8
\M+2BBB2\M+2A755\M+2BD75
 10
-1035.207701361529
 20
-686.91907083975002
 30
0.0
 42
0.0388004794752228
  0
VERTEX
  5
88EF
  8
\M+2BBB2\M+2A755\M+2BD75
 10
-1035.235506709181
 20
-686.9270198983952
 30
0.0
 42
0.0388004794752228
  0
SEQEND
  5
88F0
  8
\M+2BBB2\M+2A755\M+2BD75
  0
POLYLINE
  5
2379
  8
\M+2BBB2\M+2A755\M+2BD75
 66
     1
 10
0.0
 20
0.0
 30
0.0
  0
VERTEX
  5
88F1
  8
\M+2BBB2\M+2A755\M+2BD75
 10
-1035.3568439507981
 20
-687.09232695182425
 30
0.0
 42
0.0158992058768794
  0
VERTEX
  5
88F2
  8
\M+2BBB2\M+2A755\M+2BD75
 10
-1035.386310958964
 20
-688.01877446072308
 30
0.0
 42
0.0158992058769087
  0
VERTEX
  5
88F3
  8
\M+2BBB2\M+2A755\M+2BD75
 10
-1035.3568439507981
 20
-688.94522196962362
 30
0.0
 42
0.0158992058769087
  0
SEQEND
  5
88F4
  8
\M+2BBB2\M+2A755\M+2BD75
  0
POLYLINE
  5
237A
  8
\M+2BBB2\M+2A755\M+2BD75
 66
     1
 10
0.0
 20
0.0
 30
0.0
  0
VERTEX
  5
88F5
  8
\M+2BBB2\M+2A755\M+2BD75
 10
-1033.8417653671311
 20
-688.94522196962305
 30
0.0
 42
0.0158992058769013
  0
VERTEX
  5
88F6
  8
\M+2BBB2\M+2A755\M+2BD75
 10
-1033.8122983589651
 20
-688.01877446072308
 30
0.0
 42
0.0158992058768721
  0
VERTEX
  5
88F7
  8
\M+2BBB2\M+2A755\M+2BD75
 10
-1033.8417653671311
 20
-687.0923269518247
 30
0.0
  0
SEQEND
  5
88F8
  8
\M+2BBB2\M+2A755\M+2BD75
  0
POLYLINE
  5
237B
  8
\M+2BBB2\M+2A755\M+2BD75
 66
     1
 10
0.0
 20
0.0
 30
0.0
  0
VERTEX
  5
88F9
  8
\M+2BBB2\M+2A755\M+2BD75
 10
-1035.235506709181
 20
-689.11052902305084
 30
0.0
 42
0.0388004794754487
  0
VERTEX
  5
88FA
  8
\M+2BBB2\M+2A755\M+2BD75
 10
-1035.207701361529
 20
-689.11847808169614
 30
0.0
 42
0.1007856859982985
  0
VERTEX
  5
88FB
  8
\M+2BBB2\M+2A755\M+2BD75
 10
-1033.990907956402
 20
-689.11847808169614
 30
0.0
 42
0.0388004794751274
  0
VERTEX
  5
88FC
  8
\M+2BBB2\M+2A755\M+2BD75
 10
-1033.96310260875
 20
-689.11052902305084
 30
0.0
  0
SEQEND
  5
88FD
  8
\M+2BBB2\M+2A755\M+2BD75
  0
DIMENSION
  5
242B
  8
DIM
  2
*D1
 10
-1033.6052121589651
 20
-685.28397086578923
 30
0.0
 11
-1034.6919307496939
 21
-685.28397086578923
 31
0.0
 70
   128
 13
-1035.593397158965
 23
-688.01877446072285
 33
0.0
 14
-1033.6052121589651
 24
-688.01877446072331
 34
0.0
  0
DIMENSION
  5
2443
  8
DIM
  2
*D2
 10
-1033.9496996589639
 20
-685.68159567466
 30
0.0
 11
-1036.6382269990729
 21
-685.68159567466
 31
0.0
 70
   128
 13
-1035.2489096589641
 23
-687.04436696072287
 33
0.0
 14
-1033.9496996589639
 24
-687.04436696072287
 34
0.0
  0
DIMENSION
  5
245B
  8
DIM
  2
*D3
 10
-1037.3264198123891
 20
-689.38688196072292
 30
0.0
 11
-1037.3264198123891
 21
-688.60467710246724
 31
0.0
 70
   128
 13
-1034.599304658964
 23
-686.65066696072302
 33
0.0
 14
-1034.599304658964
 24
-689.38688196072292
 34
0.0
 50
90.0
  0
DIMENSION
  5
2473
  8
DIM
  2
*D4
 10
-1036.404814680538
 20
-688.99318196072295
 30
0.0
 11
-1036.404814680538
 21
-687.73932676836171
 31
0.0
 70
   128
 13
-1035.2489096589641
 23
-687.04436696072287
 33
0.0
 14
-1035.2489096589641
 24
-688.99318196072295
 34
0.0
 50
90.0
  0
DIMENSION
  5
24B7
  8
DIM
  2
*D5
 10
-1031.379378153955
 20
-686.17391451613014
 30
0.0
 11
-1032.455057677766
 21
-686.17391451613014
 31
0.0
 70
   128
 13
-1031.418748153955
 23
-686.65066696072302
 33
0.0
 14
-1031.379378153955
 24
-686.69200546072307
 34
0.0
  0
DIMENSION
  5
24EB
  8
DIM
  2
*D6
 10
-1030.9856781539561
 20
-685.4666640654516
 30
0.0
 11
-1029.9017495825281
 21
-685.4666640654516
 31
0.0
 70
   128
 13
-1031.418748153955
 23
-686.65066696072302
 33
0.0
 14
-1030.9856781539561
 24
-686.98531196072315
 34
0.0
  0
DIMENSION
  5
2503
  8
DIM
  2
*D7
 10
-1031.0851399653341
 20
-689.33583810830874
 30
0.0
 11
-1029.8489573511069
 21
-689.64330534994792
 31
0.0
 70
     4
 15
-1031.060014508816
 25
-689.36614831013469
 35
0.0
 40
0.0
  0
DIMENSION
  5
27E4
  8
DIM
  2
*D8
 10
-1030.9856781539561
 20
-690.41038408104782
 30
0.0
 11
-1032.5026767253851
 21
-690.41038408104782
 31
0.0
 70
   128
 13
-1031.418748153955
 23
-689.38688196072292
 33
0.0
 14
-1030.9856781539561
 24
-689.05223696072278
 34
0.0
  0
DIMENSION
  5
27FC
  8
DIM
  2
*D9
 10
-1030.9856781539561
 20
-688.50403828651565
 30
0.0
 11
-1032.481133749367
 21
-688.50403828651565
 31
0.0
 70
   128
 13
-1031.0053631539549
 23
-688.80392121822354
 33
0.0
 14
-1030.9856781539561
 24
-688.80392121822354
 34
0.0
  0
DIMENSION
  5
2DC6
  8
DIM
  2
*D10
 10
-1026.9332939840399
 20
-685.93832205690364
 30
0.0
 11
-1026.0293654126119
 21
-685.93832205690364
 31
0.0
 70
   128
 13
-1028.3506139840399
 23
-687.11954700184322
 33
0.0
 14
-1026.9332939840399
 24
-687.11954700184322
 34
0.0
  0
DIMENSION
  5
2DDE
  8
DIM
  2
*D11
 10
-1029.743491008019
 20
-688.96535341212893
 30
0.0
 11
-1029.743491008019
 21
-687.94794015006892
 31
0.0
 70
   128
 13
-1028.1750874667371
 23
-686.99685341212898
 33
0.0
 14
-1028.1750874667371
 24
-688.96535341212893
 34
0.0
 50
90.0
  0
LINE
  5
2DF6
  8
\M+2BBB2\M+2A755\M+2BD75
 10
-1026.9922343799101
 20
-686.67847834813745
 30
0.0
 11
-1027.0275866721249
 21
-686.85208034311518
 31
0.0
  0
LINE
  5
2DF7
  8
\M+2BBB2\M+2A755\M+2BD75
 10
-1026.677894729602
 20
-687.03917979931782
 30
0.0
 11
-1026.854699864454
 21
-687.05046614126422
 31
0.0
  0
LINE
  5
2DF8
  8
\M+2BBB2\M+2A755\M+2BD75
 10
-1028.291673588169
 20
-686.67847834813745
 30
0.0
 11
-1028.2563212959551
 21
-686.85208034311518
 31
0.0
  0
LINE
  5
2DF9
  8
\M+2BBB2\M+2A755\M+2BD75
 10
-1028.606013238478
 20
-687.03917979931782
 30
0.0
 11
-1028.4292081036249
 21
-687.05046614126422
 31
0.0
  0
LINE
  5
2DFA
  8
\M+2BBB2\M+2A755\M+2BD75
 10
-1026.9922343799101
 20
-689.28372847612025
 30
0.0
 11
-1027.0275866721249
 21
-689.11012648114274
 31
0.0
  0
LINE
  5
2DFB
  8
\M+2BBB2\M+2A755\M+2BD75
 10
-1026.677894729602
 20
-688.9230270249401
 30
0.0
 11
-1026.8546998644561
 21
-688.91174068299381
 31
0.0
  0
LINE
  5
2DFC
  8
\M+2BBB2\M+2A755\M+2BD75
 10
-1028.291673588169
 20
-689.28372847612025
 30
0.0
 11
-1028.2563212959551
 21
-689.11012648114263
 31
0.0
  0
LINE
  5
2DFD
  8
\M+2BBB2\M+2A755\M+2BD75
 10
-1028.606013238478
 20
-688.9230270249401
 30
0.0
 11
-1028.4292081036249
 21
-688.91174068299335
 31
0.0
  0
DIMENSION
  5
3B67
  8
DIM
  2
*D12
 10
-1027.070795029276
 20
-687.06426055919894
 30
0.0
 11
-1025.4348668144071
 21
-686.31524303934634
 31
0.0
 70
   132
 15
-1026.8258876394141
 25
-686.7560073185158
 35
0.0
 40
0.0
  0
DIMENSION
  5
3B77
  8
DIM
  2
*D13
 10
-1028.29155898404
 20
-687.05590841212859
 30
0.0
 11
-1029.814621282869
 21
-686.28406477083911
 31
0.0
 70
   132
 15
-1028.3254862330859
 25
-687.00757173043496
 35
0.0
 40
0.0
  0
INSERT
  5
4249
  8
\M+2ADE5\M+2ADB1\M+2BD75
  6
CONTINUOUS
  2
*X43
 10
0.0
 20
0.0
 30
0.0
1001
ACAD
1000
HATCH
1002
{
1070
    19
1000
ANSI31
1040
0.007874
1040
0.0
1000
R14_HATCH_DATA
1000
4249
1011
1.0
1021
0.0
1031
0.0
1021
0.0
1031
0.0
1011
0.0
1021
0.0
1031
0.0
1021
1.0
1031
0.0
1011
0.0
1021
0.0
1031
0.0
1021
0.0
1031
1.0
1040
0.0
1010
0.0
1020
0.0
1030
1.0
1000
ANSI31
1070
     0
1070
     0
1071
        3
1071
        7
1070
     1
1070
     1
1071
       19
1040
-1020.876984417951
1040
-686.07412744989392
1040
0.290883339462589
1040
-1020.89963833948
1040
-686.1097725003292
1040
0.0
1040
-1020.89963833948
1040
-686.28160121743883
1040
0.0
1040
-1020.64767033948
1040
-686.28160121743883
1040
0.0
1040
-1020.64767033948
1040
-686.3308137174389
1040
0.0
1040
-1020.5059383394801
1040
-686.3308137174389
1040
0.0
1040
-1020.5059383394801
1040
-686.29734921743875
1040
0.0
1040
-1020.5689303394799
1040
-686.29734921743875
1040
0.0
1040
-1020.5689303394799
1040
-686.23238871743888
1040
0.0
1040
-1020.82089833948
1040
-686.23238871743888
1040
0.0
1040
-1020.82089833948
1040
-686.13479378321972
1040
0.0
1040
-1020.7263164834779
1040
-686.09043874072177
1040
0.0
1040
-1020.56499333948
1040
-686.08480521239676
1040
0.0
1040
-1020.5059383394801
1040
-686.08480521239676
1040
0.0
1040
-1020.5059383394801
1040
-686.04144421743888
1040
0.0
1040
-1020.56499333948
1040
-686.04144421743888
1040
0.0
1040
-1020.56499333948
1040
-685.99616871743865
1040
0.0
1040
-1020.714423714797
1040
-686.00138694113036
1040
0.101244211285935
1040
-1020.729765800082
1040
-686.00508790755475
1040
0.0
1071
        0
1071
        7
1070
     0
1070
     1
1071
       18
1040
-1020.89963833948
1040
-686.49813621743897
1040
-1020.89963833948
1040
-687.36427621743883
1040
-1020.89963833948
1040
-688.23041621743891
1040
-1020.64767033948
1040
-688.23041621743891
1040
-1020.64767033948
1040
-688.27962871743887
1040
-1020.5059383394801
1040
-688.27962871743887
1040
-1020.5059383394801
1040
-688.24616421743917
1040
-1020.5689303394799
1040
-688.24616421743917
1040
-1020.5689303394799
1040
-688.18120371743885
1040
-1020.82089833948
1040
-688.18120371743885
1040
-1020.82089833948
1040
-687.36427621743883
1040
-1020.82089833948
1040
-686.54734871743892
1040
-1020.5689303394799
1040
-686.54734871743892
1040
-1020.5689303394799
1040
-686.48238821743894
1040
-1020.5059383394801
1040
-686.48238821743894
1040
-1020.5059383394801
1040
-686.4489237174389
1040
-1020.64767033948
1040
-686.4489237174389
1040
-1020.64767033948
1040
-686.49813621743897
1071
        0
1071
        7
1070
     1
1070
     1
1071
       19
1040
-1020.89963833948
1040
-688.44695121743905
1040
0.0
1040
-1020.89963833948
1040
-688.61877993454846
1040
0.2908833394625736
1040
-1020.876984417951
1040
-688.65442498498396
1040
0.0
1040
-1020.729765800082
1040
-688.72346452732313
1040
0.1012442112858855
1040
-1020.714423714797
1040
-688.72716549374752
1040
0.0
1040
-1020.56499333948
1040
-688.73238371743901
1040
0.0
1040
-1020.56499333948
1040
-688.687108217439
1040
0.0
1040
-1020.5059383394801
1040
-688.687108217439
1040
0.0
1040
-1020.5059383394801
1040
-688.64374722248112
1040
0.0
1040
-1020.56499333948
1040
-688.64374722248112
1040
0.0
1040
-1020.7263164834779
1040
-688.63811369415566
1040
0.0
1040
-1020.82089833948
1040
-688.59375865165828
1040
0.0
1040
-1020.82089833948
1040
-688.496163717439
1040
0.0
1040
-1020.5689303394799
1040
-688.496163717439
1040
0.0
1040
-1020.5689303394799
1040
-688.43120321743902
1040
0.0
1040
-1020.5059383394801
1040
-688.43120321743902
1040
0.0
1040
-1020.5059383394801
1040
-688.3977387174391
1040
0.0
1040
-1020.64767033948
1040
-688.3977387174391
1040
0.0
1040
-1020.64767033948
1040
-688.44695121743905
1040
0.0
1071
        0
1070
     0
1070
     1
1040
0.0
1040
0.007874
1070
     0
1070
     1
1040
0.7853981633974483
1040
-1018.409028117257
1040
-698.24998300636537
1040
-0.0176776341743246
1040
0.0176776341743246
1070
     0
1040
0.1321176200329051
1071
        3
1040
-1020.838212181988
1040
-686.12304059178632
1040
0.0
1040
-1020.853823051417
1040
-686.53915824165574
1040
0.0
1040
-1020.853823051417
1040
-688.5781347913844
1040
0.0
1002
}
  0
LINE
  5
424A
  8
\M+2ADE5\M+2ADB1\M+2BD75
 10
-1020.5059383394801
 20
-686.04144421743888
 30
0.0
 11
-1020.5059383394801
 21
-687.36427621743883
 31
0.0
  0
LINE
  5
424B
  8
\M+2ADE5\M+2ADB1\M+2BD75
 10
-1020.5689303394799
 20
-686.23238871743888
 30
0.0
 11
-1020.5689303394799
 21
-686.29734921743875
 31
0.0
  0
LINE
  5
424C
  8
\M+2ADE5\M+2ADB1\M+2BD75
 10
-1020.5689303394799
 20
-686.48238821743894
 30
0.0
 11
-1020.5689303394799
 21
-686.54734871743892
 31
0.0
  0
LINE
  5
424D
  8
\M+2ADE5\M+2ADB1\M+2BD75
 10
-1020.64767033948
 20
-686.28160121743883
 30
0.0
 11
-1020.64767033948
 21
-686.49813621743874
 31
0.0
  0
LINE
  5
424E
  8
\M+2ADE5\M+2ADB1\M+2BD75
 10
-1020.89963833948
 20
-686.1097725003292
 30
0.0
 11
-1020.89963833948
 21
-687.36427621743883
 31
0.0
  0
LINE
  5
424F
  8
\M+2ADE5\M+2ADB1\M+2BD75
 10
-1020.82089833948
 20
-686.13479378321972
 30
0.0
 11
-1020.82089833948
 21
-686.23238871743888
 31
0.0
  0
LINE
  5
4250
  8
\M+2ADE5\M+2ADB1\M+2BD75
 10
-1020.82089833948
 20
-686.54734871743892
 30
0.0
 11
-1020.82089833948
 21
-687.36427621743883
 31
0.0
  0
ARC
  5
4251
  8
\M+2ADE5\M+2ADB1\M+2BD75
 10
-1020.8602683394799
 20
-686.1097725003292
 30
0.0
 40
0.03937
 50
115.12466656432851
 51
180.0
  0
LINE
  5
4252
  8
\M+2ADE5\M+2ADB1\M+2BD75
 10
-1020.56499333948
 20
-685.99616871743865
 30
0.0
 11
-1020.714423714797
 21
-686.00138694113036
 31
0.0
  0
LINE
  5
4253
  8
\M+2ADE5\M+2ADB1\M+2BD75
 10
-1020.561901854813
 20
-686.08469725537327
 30
0.0
 11
-1020.7263164834779
 21
-686.09043874072177
 31
0.0
  0
LINE
  5
4254
  8
\M+2ADE5\M+2ADB1\M+2BD75
 10
-1020.729765800082
 20
-686.00508790755475
 30
0.0
 11
-1020.876984417951
 21
-686.07412744989392
 31
0.0
  0
LINE
  5
4255
  8
\M+2ADE5\M+2ADB1\M+2BD75
 10
-1020.7263164834779
 20
-686.09043874072177
 30
0.0
 11
-1020.82089833948
 21
-686.13479378321972
 31
0.0
  0
ARC
  5
4256
  8
\M+2ADE5\M+2ADB1\M+2BD75
 10
-1020.713049721612
 20
-686.04073295799014
 30
0.0
 40
0.03937
 50
91.999999999999574
 51
115.12466656432851
  0
LINE
  5
4257
  8
\M+2ADE5\M+2ADB1\M+2BD75
 10
-1020.5059383394801
 20
-686.04144421743888
 30
0.0
 11
-1020.56499333948
 21
-686.04144421743888
 31
0.0
  0
LINE
  5
4258
  8
\M+2ADE5\M+2ADB1\M+2BD75
 10
-1020.56499333948
 20
-686.08480521239676
 30
0.0
 11
-1020.5059383394801
 21
-686.08480521239676
 31
0.0
  0
LINE
  5
4259
  8
\M+2ADE5\M+2ADB1\M+2BD75
 10
-1020.56499333948
 20
-685.99616871743865
 30
0.0
 11
-1020.56499333948
 21
-686.04144421743888
 31
0.0
  0
LINE
  5
425A
  8
\M+2ADE5\M+2ADB1\M+2BD75
 10
-1020.82089833948
 20
-686.23238871743888
 30
0.0
 11
-1020.5689303394799
 21
-686.23238871743888
 31
0.0
  0
LINE
  5
425B
  8
\M+2ADE5\M+2ADB1\M+2BD75
 10
-1020.82089833948
 20
-686.54734871743892
 30
0.0
 11
-1020.5689303394799
 21
-686.54734871743892
 31
0.0
  0
LINE
  5
425C
  8
\M+2ADE5\M+2ADB1\M+2BD75
 10
-1020.5689303394799
 20
-686.48238821743894
 30
0.0
 11
-1020.5059383394801
 21
-686.48238821743894
 31
0.0
  0
LINE
  5
425D
  8
\M+2ADE5\M+2ADB1\M+2BD75
 10
-1020.5689303394799
 20
-686.29734921743875
 30
0.0
 11
-1020.5059383394801
 21
-686.29734921743875
 31
0.0
  0
LINE
  5
425E
  8
\M+2ADE5\M+2ADB1\M+2BD75
 10
-1020.64767033948
 20
-686.28160121743883
 30
0.0
 11
-1020.89963833948
 21
-686.28160121743883
 31
0.0
  0
LINE
  5
425F
  8
\M+2ADE5\M+2ADB1\M+2BD75
 10
-1020.64767033948
 20
-686.49813621743874
 30
0.0
 11
-1020.89963833948
 21
-686.49813621743874
 31
0.0
  0
LINE
  5
4260
  8
\M+2ADE5\M+2ADB1\M+2BD75
 10
-1020.64767033948
 20
-686.3308137174389
 30
0.0
 11
-1020.5059383394801
 21
-686.3308137174389
 31
0.0
  0
LINE
  5
4261
  8
\M+2ADE5\M+2ADB1\M+2BD75
 10
-1020.64767033948
 20
-686.4489237174389
 30
0.0
 11
-1020.5059383394801
 21
-686.4489237174389
 31
0.0
  0
LINE
  5
4262
  8
\M+2ADE5\M+2ADB1\M+2BD75
 10
-1020.5059383394801
 20
-688.687108217439
 30
0.0
 11
-1020.5059383394801
 21
-687.36427621743883
 31
0.0
  0
LINE
  5
4263
  8
\M+2ADE5\M+2ADB1\M+2BD75
 10
-1020.89963833948
 20
-688.61877993454846
 30
0.0
 11
-1020.89963833948
 21
-687.36427621743883
 31
0.0
  0
LINE
  5
4264
  8
\M+2ADE5\M+2ADB1\M+2BD75
 10
-1020.82089833948
 20
-688.59375865165828
 30
0.0
 11
-1020.82089833948
 21
-688.496163717439
 31
0.0
  0
LINE
  5
4265
  8
\M+2ADE5\M+2ADB1\M+2BD75
 10
-1020.82089833948
 20
-688.18120371743885
 30
0.0
 11
-1020.82089833948
 21
-687.36427621743883
 31
0.0
  0
ARC
  5
4266
  8
\M+2ADE5\M+2ADB1\M+2BD75
 10
-1020.8602683394799
 20
-688.61877993454846
 30
0.0
 40
0.03937
 50
180.0
 51
244.87533343567119
  0
LINE
  5
4267
  8
\M+2ADE5\M+2ADB1\M+2BD75
 10
-1020.56499333948
 20
-688.73238371743901
 30
0.0
 11
-1020.714423714797
 21
-688.72716549374752
 31
0.0
  0
LINE
  5
4268
  8
\M+2ADE5\M+2ADB1\M+2BD75
 10
-1020.561901854813
 20
-688.64385517950473
 30
0.0
 11
-1020.7263164834779
 21
-688.63811369415566
 31
0.0
  0
LINE
  5
4269
  8
\M+2ADE5\M+2ADB1\M+2BD75
 10
-1020.729765800082
 20
-688.72346452732313
 30
0.0
 11
-1020.876984417951
 21
-688.65442498498396
 31
0.0
  0
LINE
  5
426A
  8
\M+2ADE5\M+2ADB1\M+2BD75
 10
-1020.7263164834779
 20
-688.63811369415566
 30
0.0
 11
-1020.82089833948
 21
-688.59375865165828
 31
0.0
  0
ARC
  5
426B
  8
\M+2ADE5\M+2ADB1\M+2BD75
 10
-1020.713049721612
 20
-688.68781947688785
 30
0.0
 40
0.03937
 50
244.87533343567119
 51
268.0000000000004
  0
LINE
  5
426C
  8
\M+2ADE5\M+2ADB1\M+2BD75
 10
-1020.5059383394801
 20
-688.687108217439
 30
0.0
 11
-1020.56499333948
 21
-688.687108217439
 31
0.0
  0
LINE
  5
426D
  8
\M+2ADE5\M+2ADB1\M+2BD75
 10
-1020.56499333948
 20
-688.64374722248112
 30
0.0
 11
-1020.5059383394801
 21
-688.64374722248112
 31
0.0
  0
LINE
  5
426E
  8
\M+2ADE5\M+2ADB1\M+2BD75
 10
-1020.56499333948
 20
-688.73238371743901
 30
0.0
 11
-1020.56499333948
 21
-688.687108217439
 31
0.0
  0
LINE
  5
426F
  8
\M+2ADE5\M+2ADB1\M+2BD75
 10
-1020.5689303394799
 20
-688.496163717439
 30
0.0
 11
-1020.5689303394799
 21
-688.43120321743902
 31
0.0
  0
LINE
  5
4270
  8
\M+2ADE5\M+2ADB1\M+2BD75
 10
-1020.5689303394799
 20
-688.24616421743917
 30
0.0
 11
-1020.5689303394799
 21
-688.18120371743885
 31
0.0
  0
LINE
  5
4271
  8
\M+2ADE5\M+2ADB1\M+2BD75
 10
-1020.64767033948
 20
-688.44695121743905
 30
0.0
 11
-1020.64767033948
 21
-688.23041621743891
 31
0.0
  0
LINE
  5
4272
  8
\M+2ADE5\M+2ADB1\M+2BD75
 10
-1020.82089833948
 20
-688.496163717439
 30
0.0
 11
-1020.5689303394799
 21
-688.496163717439
 31
0.0
  0
LINE
  5
4273
  8
\M+2ADE5\M+2ADB1\M+2BD75
 10
-1020.82089833948
 20
-688.18120371743885
 30
0.0
 11
-1020.5689303394799
 21
-688.18120371743885
 31
0.0
  0
LINE
  5
4274
  8
\M+2ADE5\M+2ADB1\M+2BD75
 10
-1020.5689303394799
 20
-688.24616421743917
 30
0.0
 11
-1020.5059383394801
 21
-688.24616421743917
 31
0.0
  0
LINE
  5
4275
  8
\M+2ADE5\M+2ADB1\M+2BD75
 10
-1020.5689303394799
 20
-688.43120321743902
 30
0.0
 11
-1020.5059383394801
 21
-688.43120321743902
 31
0.0
  0
LINE
  5
4276
  8
\M+2ADE5\M+2ADB1\M+2BD75
 10
-1020.64767033948
 20
-688.44695121743905
 30
0.0
 11
-1020.89963833948
 21
-688.44695121743905
 31
0.0
  0
LINE
  5
4277
  8
\M+2ADE5\M+2ADB1\M+2BD75
 10
-1020.64767033948
 20
-688.23041621743891
 30
0.0
 11
-1020.89963833948
 21
-688.23041621743891
 31
0.0
  0
LINE
  5
4278
  8
\M+2ADE5\M+2ADB1\M+2BD75
 10
-1020.64767033948
 20
-688.3977387174391
 30
0.0
 11
-1020.5059383394801
 21
-688.3977387174391
 31
0.0
  0
LINE
  5
4279
  8
\M+2ADE5\M+2ADB1\M+2BD75
 10
-1020.64767033948
 20
-688.27962871743887
 30
0.0
 11
-1020.5059383394801
 21
-688.27962871743887
 31
0.0
  0
INSERT
  5
427A
  8
\M+2ADE5\M+2ADB1\M+2BD75
  6
CONTINUOUS
  2
*X44
 10
0.0
 20
0.0
 30
0.0
1001
ACAD
1000
HATCH
1002
{
1070
    19
1000
ANSI31
1040
0.007874
1040
0.0
1000
R14_HATCH_DATA
1000
427A
1011
1.0
1021
0.0
1031
0.0
1021
0.0
1031
0.0
1011
0.0
1021
0.0
1031
0.0
1021
1.0
1031
0.0
1011
0.0
1021
0.0
1031
0.0
1021
0.0
1031
1.0
1040
0.0
1010
0.0
1020
0.0
1030
1.0
1000
ANSI31
1070
     0
1070
     0
1071
        1
1071
        7
1070
     1
1070
     1
1071
       46
1040
-1020.225182105641
1040
-686.09598426681691
1040
0.0
1040
-1020.146836455969
1040
-686.20529507020558
1040
0.0
1040
-1020.173421914863
1040
-686.27175871743873
1040
0.0
1040
-1020.5059383394801
1040
-686.27175871743873
1040
0.0
1040
-1020.5059383394801
1040
-686.32589246743885
1040
0.0
1040
-1020.48625333948
1040
-686.34557746743894
1040
0.0
1040
-1020.19097833948
1040
-686.34557746743894
1040
0.0
1040
-1020.19097833948
1040
-686.43415996743875
1040
0.0
1040
-1020.48625333948
1040
-686.43415996743875
1040
0.0
1040
-1020.5059383394801
1040
-686.45384496743873
1040
0.0
1040
-1020.5059383394801
1040
-686.50797871743873
1040
0.0
1040
-1020.19097833948
1040
-686.50797871743873
1040
0.0
1040
-1020.19097833948
1040
-687.36427621743883
1040
0.0
1040
-1020.19097833948
1040
-688.22057371743881
1040
0.0
1040
-1020.5059383394801
1040
-688.22057371743881
1040
0.0
1040
-1020.5059383394801
1040
-688.27470746743882
1040
0.0
1040
-1020.48625333948
1040
-688.29439246743868
1040
0.0
1040
-1020.19097833948
1040
-688.29439246743868
1040
0.0
1040
-1020.19097833948
1040
-688.38297496743883
1040
0.0
1040
-1020.48625333948
1040
-688.38297496743883
1040
0.0
1040
-1020.5059383394801
1040
-688.40265996743869
1040
0.0
1040
-1020.5059383394801
1040
-688.45679371743881
1040
0.0
1040
-1020.173421914863
1040
-688.45679371743881
1040
0.0
1040
-1020.146836455969
1040
-688.52325736467185
1040
0.0
1040
-1020.225182105641
1040
-688.63256816806086
1040
0.0
1040
-1020.5059383394801
1040
-688.64237239178624
1040
0.0
1040
-1020.5059383394801
1040
-688.69104521743884
1040
0.0
1040
-1020.54530833948
1040
-688.69104521743884
1040
0.0
1040
-1020.54530833948
1040
-688.73238371743867
1040
0.0
1040
-1020.210326157673
1040
-688.72068588188415
1040
0.2325689913203869
1040
-1020.1797004055589
1040
-688.70427484269476
1040
0.0
1040
-1020.07286833948
1040
-688.55521871743883
1040
0.0
1040
-1020.07286833948
1040
-688.49616371743866
1040
0.0
1040
-1020.11223833948
1040
-688.39773871743876
1040
0.0
1040
-1020.13192333948
1040
-688.3485262174388
1040
0.0
1040
-1020.13192333948
1040
-687.36427621743883
1040
0.0
1040
-1020.13192333948
1040
-686.38002621743897
1040
0.0
1040
-1020.11223833948
1040
-686.3308137174389
1040
0.0
1040
-1020.07286833948
1040
-686.23238871743888
1040
0.0
1040
-1020.07286833948
1040
-686.17333371743894
1040
0.0
1040
-1020.1797004055589
1040
-686.02427759218301
1040
0.2325689913203988
1040
-1020.210326157673
1040
-686.00786655299362
1040
0.0
1040
-1020.54530833948
1040
-685.99616871743865
1040
0.0
1040
-1020.54530833948
1040
-686.03750721743893
1040
0.0
1040
-1020.5059383394801
1040
-686.03750721743893
1040
0.0
1040
-1020.5059383394801
1040
-686.08618004309164
1040
0.0
1071
        0
1070
     0
1070
     1
1040
0.0
1040
0.007874
1070
     0
1070
     1
1040
0.7853981633974483
1040
-1026.8349117645389
1040
-670.10784131876665
1040
-0.0176776341743246
1040
0.0176776341743246
1070
     0
1040
0.1649302716378312
1071
        1
1040
-1020.322004604676
1040
-686.06796933322073
1040
0.0
1002
}
  0
LINE
  5
427B
  8
\M+2ADE5\M+2ADB1\M+2BD75
 10
-1020.54530833948
 20
-685.99616871743865
 30
0.0
 11
-1020.54530833948
 21
-686.32589246743873
 31
0.0
  0
LINE
  5
427C
  8
\M+2ADE5\M+2ADB1\M+2BD75
 10
-1020.07286833948
 20
-686.17333371743894
 30
0.0
 11
-1020.07286833948
 21
-686.23238871743888
 31
0.0
  0
LINE
  5
427D
  8
\M+2ADE5\M+2ADB1\M+2BD75
 10
-1020.11223833948
 20
-686.3308137174389
 30
0.0
 11
-1020.11223833948
 21
-687.36427621743883
 31
0.0
  0
LINE
  5
427E
  8
\M+2ADE5\M+2ADB1\M+2BD75
 10
-1020.19097833948
 20
-686.50797871743873
 30
0.0
 11
-1020.19097833948
 21
-687.36427621743883
 31
0.0
  0
LINE
  5
427F
  8
\M+2ADE5\M+2ADB1\M+2BD75
 10
-1020.54530833948
 20
-685.99616871743865
 30
0.0
 11
-1020.210326157673
 21
-686.00786655299362
 31
0.0
  0
LINE
  5
4280
  8
\M+2ADE5\M+2ADB1\M+2BD75
 10
-1020.5059383394801
 20
-686.08618004309164
 30
0.0
 11
-1020.225182105641
 21
-686.09598426681691
 31
0.0
  0
LINE
  5
4281
  8
\M+2ADE5\M+2ADB1\M+2BD75
 10
-1020.07286833948
 20
-686.23238871743888
 30
0.0
 11
-1020.11223833948
 21
-686.3308137174389
 31
0.0
  0
LINE
  5
4282
  8
\M+2ADE5\M+2ADB1\M+2BD75
 10
-1020.14597659412
 20
-686.20314541558275
 30
0.0
 11
-1020.173421914863
 21
-686.27175871743873
 31
0.0
  0
LINE
  5
4283
  8
\M+2ADE5\M+2ADB1\M+2BD75
 10
-1020.07286833948
 20
-686.17333371743894
 30
0.0
 11
-1020.179700405557
 21
-686.02427759218301
 31
0.0
  0
LINE
  5
4284
  8
\M+2ADE5\M+2ADB1\M+2BD75
 10
-1020.146836455969
 20
-686.20529507020558
 30
0.0
 11
-1020.225182105641
 21
-686.09598426681691
 31
0.0
  0
ARC
  5
4285
  8
\M+2ADE5\M+2ADB1\M+2BD75
 10
-1020.211700150857
 20
-686.04721256985329
 30
0.0
 40
0.03937
 50
35.630068308484681
 51
88.000000000000455
  0
LINE
  5
4286
  8
\M+2ADE5\M+2ADB1\M+2BD75
 10
-1020.13192333948
 20
-686.38002621743897
 30
0.0
 11
-1020.13192333948
 21
-687.36427621743883
 31
0.0
  0
LINE
  5
4287
  8
\M+2ADE5\M+2ADB1\M+2BD75
 10
-1020.11223833948
 20
-686.3308137174389
 30
0.0
 11
-1020.13192333948
 21
-686.38002621743897
 31
0.0
  0
LINE
  5
4288
  8
\M+2ADE5\M+2ADB1\M+2BD75
 10
-1020.5059383394801
 20
-686.27175871743873
 30
0.0
 11
-1020.173421914863
 21
-686.27175871743873
 31
0.0
  0
LINE
  5
4289
  8
\M+2ADE5\M+2ADB1\M+2BD75
 10
-1020.5059383394801
 20
-686.50797871743873
 30
0.0
 11
-1020.19097833948
 21
-686.50797871743873
 31
0.0
  0
LINE
  5
428A
  8
\M+2ADE5\M+2ADB1\M+2BD75
 10
-1020.48625333948
 20
-686.43415996743875
 30
0.0
 11
-1020.19097833948
 21
-686.43415996743875
 31
0.0
  0
LINE
  5
428B
  8
\M+2ADE5\M+2ADB1\M+2BD75
 10
-1020.48625333948
 20
-686.34557746743894
 30
0.0
 11
-1020.19097833948
 21
-686.34557746743894
 31
0.0
  0
LINE
  5
428C
  8
\M+2ADE5\M+2ADB1\M+2BD75
 10
-1020.5059383394801
 20
-686.32589246743873
 30
0.0
 11
-1020.48625333948
 21
-686.34557746743894
 31
0.0
  0
LINE
  5
428D
  8
\M+2ADE5\M+2ADB1\M+2BD75
 10
-1020.54530833948
 20
-686.32589246743885
 30
0.0
 11
-1020.54530833948
 21
-687.36427621743883
 31
0.0
  0
LINE
  5
428E
  8
\M+2ADE5\M+2ADB1\M+2BD75
 10
-1020.48625333948
 20
-686.43415996743875
 30
0.0
 11
-1020.5059383394801
 21
-686.45384496743873
 31
0.0
  0
LINE
  5
428F
  8
\M+2ADE5\M+2ADB1\M+2BD75
 10
-1020.54530833948
 20
-686.50797871743873
 30
0.0
 11
-1020.54530833948
 21
-687.36427621743883
 31
0.0
  0
LINE
  5
4290
  8
\M+2ADE5\M+2ADB1\M+2BD75
 10
-1020.48625333948
 20
-686.34557746743894
 30
0.0
 11
-1020.48625333948
 21
-686.43415996743875
 31
0.0
  0
LINE
  5
4291
  8
\M+2ADE5\M+2ADB1\M+2BD75
 10
-1020.54530833948
 20
-686.03750721743893
 30
0.0
 11
-1020.5059383394801
 21
-686.03750721743893
 31
0.0
  0
LINE
  5
4292
  8
\M+2ADE5\M+2ADB1\M+2BD75
 10
-1020.5059383394801
 20
-686.03750721743893
 30
0.0
 11
-1020.5059383394801
 21
-687.36427621743883
 31
0.0
  0
LINE
  5
4293
  8
\M+2ADE5\M+2ADB1\M+2BD75
 10
-1020.19097833948
 20
-686.43415996743875
 30
0.0
 11
-1020.19097833948
 21
-686.34557746743894
 31
0.0
  0
LINE
  5
4294
  8
\M+2ADE5\M+2ADB1\M+2BD75
 10
-1020.54530833948
 20
-688.73238371743867
 30
0.0
 11
-1020.54530833948
 21
-688.40265996743869
 31
0.0
  0
LINE
  5
4295
  8
\M+2ADE5\M+2ADB1\M+2BD75
 10
-1020.07286833948
 20
-688.55521871743883
 30
0.0
 11
-1020.07286833948
 21
-688.49616371743866
 31
0.0
  0
LINE
  5
4296
  8
\M+2ADE5\M+2ADB1\M+2BD75
 10
-1020.11223833948
 20
-688.39773871743876
 30
0.0
 11
-1020.11223833948
 21
-687.36427621743883
 31
0.0
  0
LINE
  5
4297
  8
\M+2ADE5\M+2ADB1\M+2BD75
 10
-1020.19097833948
 20
-688.22057371743881
 30
0.0
 11
-1020.19097833948
 21
-687.36427621743883
 31
0.0
  0
LINE
  5
4298
  8
\M+2ADE5\M+2ADB1\M+2BD75
 10
-1020.54530833948
 20
-688.73238371743867
 30
0.0
 11
-1020.210326157673
 21
-688.72068588188415
 31
0.0
  0
LINE
  5
4299
  8
\M+2ADE5\M+2ADB1\M+2BD75
 10
-1020.5059383394801
 20
-688.64237239178624
 30
0.0
 11
-1020.225182105641
 21
-688.63256816806086
 31
0.0
  0
LINE
  5
429A
  8
\M+2ADE5\M+2ADB1\M+2BD75
 10
-1020.07286833948
 20
-688.49616371743866
 30
0.0
 11
-1020.11223833948
 21
-688.39773871743876
 31
0.0
  0
LINE
  5
429B
  8
\M+2ADE5\M+2ADB1\M+2BD75
 10
-1020.14597659412
 20
-688.52540701929479
 30
0.0
 11
-1020.173421914863
 21
-688.45679371743881
 31
0.0
  0
LINE
  5
429C
  8
\M+2ADE5\M+2ADB1\M+2BD75
 10
-1020.07286833948
 20
-688.55521871743883
 30
0.0
 11
-1020.1797004055589
 21
-688.70427484269476
 31
0.0
  0
LINE
  5
429D
  8
\M+2ADE5\M+2ADB1\M+2BD75
 10
-1020.146836455969
 20
-688.52325736467185
 30
0.0
 11
-1020.225182105641
 21
-688.63256816806086
 31
0.0
  0
ARC
  5
429E
  8
\M+2ADE5\M+2ADB1\M+2BD75
 10
-1020.211700150857
 20
-688.68133986502426
 30
0.0
 40
0.03937
 50
271.99999999999778
 51
324.36993169151458
  0
LINE
  5
429F
  8
\M+2ADE5\M+2ADB1\M+2BD75
 10
-1020.13192333948
 20
-688.3485262174388
 30
0.0
 11
-1020.13192333948
 21
-687.36427621743883
 31
0.0
  0
LINE
  5
42A0
  8
\M+2ADE5\M+2ADB1\M+2BD75
 10
-1020.11223833948
 20
-688.39773871743876
 30
0.0
 11
-1020.13192333948
 21
-688.3485262174388
 31
0.0
  0
LINE
  5
42A1
  8
\M+2ADE5\M+2ADB1\M+2BD75
 10
-1020.5059383394801
 20
-688.45679371743881
 30
0.0
 11
-1020.173421914863
 21
-688.45679371743881
 31
0.0
  0
LINE
  5
42A2
  8
\M+2ADE5\M+2ADB1\M+2BD75
 10
-1020.5059383394801
 20
-688.22057371743881
 30
0.0
 11
-1020.19097833948
 21
-688.22057371743881
 31
0.0
  0
LINE
  5
42A3
  8
\M+2ADE5\M+2ADB1\M+2BD75
 10
-1020.48625333948
 20
-688.29439246743868
 30
0.0
 11
-1020.19097833948
 21
-688.29439246743868
 31
0.0
  0
LINE
  5
42A4
  8
\M+2ADE5\M+2ADB1\M+2BD75
 10
-1020.48625333948
 20
-688.38297496743883
 30
0.0
 11
-1020.19097833948
 21
-688.38297496743883
 31
0.0
  0
LINE
  5
42A5
  8
\M+2ADE5\M+2ADB1\M+2BD75
 10
-1020.5059383394801
 20
-688.40265996743869
 30
0.0
 11
-1020.48625333948
 21
-688.38297496743883
 31
0.0
  0
LINE
  5
42A6
  8
\M+2ADE5\M+2ADB1\M+2BD75
 10
-1020.54530833948
 20
-688.40265996743869
 30
0.0
 11
-1020.54530833948
 21
-687.36427621743883
 31
0.0
  0
LINE
  5
42A7
  8
\M+2ADE5\M+2ADB1\M+2BD75
 10
-1020.48625333948
 20
-688.29439246743868
 30
0.0
 11
-1020.5059383394801
 21
-688.27470746743882
 31
0.0
  0
LINE
  5
42A8
  8
\M+2ADE5\M+2ADB1\M+2BD75
 10
-1020.54530833948
 20
-688.22057371743881
 30
0.0
 11
-1020.54530833948
 21
-687.36427621743883
 31
0.0
  0
LINE
  5
42A9
  8
\M+2ADE5\M+2ADB1\M+2BD75
 10
-1020.48625333948
 20
-688.38297496743883
 30
0.0
 11
-1020.48625333948
 21
-688.29439246743868
 31
0.0
  0
LINE
  5
42AA
  8
\M+2ADE5\M+2ADB1\M+2BD75
 10
-1020.54530833948
 20
-688.69104521743884
 30
0.0
 11
-1020.5059383394801
 21
-688.69104521743884
 31
0.0
  0
LINE
  5
42AB
  8
\M+2ADE5\M+2ADB1\M+2BD75
 10
-1020.5059383394801
 20
-688.69104521743884
 30
0.0
 11
-1020.5059383394801
 21
-687.36427621743883
 31
0.0
  0
LINE
  5
42AC
  8
\M+2ADE5\M+2ADB1\M+2BD75
 10
-1020.19097833948
 20
-688.29439246743868
 30
0.0
 11
-1020.19097833948
 21
-688.38297496743883
 31
0.0
  0
DIMENSION
  5
42AD
  8
DIM
  2
*D14
 10
-1020.07286833948
 20
-685.62024982614582
 30
0.0
 11
-1021.853867970807
 21
-685.62024982614582
 31
0.0
 70
   128
 13
-1020.89963833948
 23
-686.1097725003292
 33
0.0
 14
-1020.07286833948
 24
-686.20286121743868
 34
0.0
  0
DIMENSION
  5
437A
  8
DIM
  2
*D15
 10
-1021.8080625101589
 20
-685.99616871743865
 30
0.0
 11
-1021.8080625101589
 21
-687.43074381841768
 31
0.0
 70
   128
 13
-1020.54530833948
 23
-688.73238371743867
 33
0.0
 14
-1020.54530833948
 24
-685.99616871743865
 34
0.0
 50
90.0
  0
POLYLINE
  5
4C5B
  8
\M+2BBB2\M+2A755\M+2BD75
 66
     1
 10
0.0
 20
0.0
 30
0.0
 70
     1
  0
VERTEX
  5
8A02
  8
\M+2BBB2\M+2A755\M+2BD75
 10
-1036.897440660563
 20
-682.29157817229691
 30
0.0
 42
0.3386620694399563
  0
VERTEX
  5
8A03
  8
\M+2BBB2\M+2A755\M+2BD75
 10
-1036.5831010102549
 20
-682.65227962347706
 30
0.0
 42
0.1007856859982988
  0
VERTEX
  5
8A04
  8
\M+2BBB2\M+2A755\M+2BD75
 10
-1035.283661801996
 20
-682.65227962347706
 30
0.0
 42
0.3386620694399578
  0
VERTEX
  5
8A05
  8
\M+2BBB2\M+2A755\M+2BD75
 10
-1034.9693221516879
 20
-682.29157817229691
 30
0.0
 42
0.0159384559834733
  0
VERTEX
  5
8A06
  8
\M+2BBB2\M+2A755\M+2BD75
 10
-1034.9392889061251
 20
-681.34965455948566
 30
0.0
 42
0.0159384559834733
  0
VERTEX
  5
8A07
  8
\M+2BBB2\M+2A755\M+2BD75
 10
-1034.9693221516879
 20
-680.40773094667463
 30
0.0
 42
0.3386620694399576
  0
VERTEX
  5
8A08
  8
\M+2BBB2\M+2A755\M+2BD75
 10
-1035.283661801996
 20
-680.0470294954946
 30
0.0
 42
0.1007856859982986
  0
VERTEX
  5
8A09
  8
\M+2BBB2\M+2A755\M+2BD75
 10
-1036.5831010102549
 20
-680.0470294954946
 30
0.0
 42
0.3386620694399562
  0
VERTEX
  5
8A0A
  8
\M+2BBB2\M+2A755\M+2BD75
 10
-1036.897440660563
 20
-680.40773094667463
 30
0.0
 42
0.0159384559834733
  0
VERTEX
  5
8A0B
  8
\M+2BBB2\M+2A755\M+2BD75
 10
-1036.9274739061259
 20
-681.34965455948566
 30
0.0
 42
0.0159384559834733
  0
SEQEND
  5
8A0C
  8
\M+2BBB2\M+2A755\M+2BD75
  0
POLYLINE
  5
4C5C
  8
\M+2BBB2\M+2A755\M+2BD75
 66
     1
 10
0.0
 20
0.0
 30
0.0
 70
     1
  0
VERTEX
  5
8A0D
  8
\M+2BBB2\M+2A755\M+2BD75
 10
-1036.8090380931369
 20
-682.28593500132376
 30
0.0
 42
0.3386620694399569
  0
VERTEX
  5
8A0E
  8
\M+2BBB2\M+2A755\M+2BD75
 10
-1036.565424864147
 20
-682.56547862598825
 30
0.0
 42
0.1007856859982987
  0
VERTEX
  5
8A0F
  8
\M+2BBB2\M+2A755\M+2BD75
 10
-1035.3013379481031
 20
-682.56547862598825
 30
0.0
 42
0.3386620694399575
  0
VERTEX
  5
8A10
  8
\M+2BBB2\M+2A755\M+2BD75
 10
-1035.0577247191129
 20
-682.28593500132376
 30
0.0
 42
0.0159384559834733
  0
VERTEX
  5
8A11
  8
\M+2BBB2\M+2A755\M+2BD75
 10
-1035.027871406126
 20
-681.34965455948566
 30
0.0
 42
0.0159384559834733
  0
VERTEX
  5
8A12
  8
\M+2BBB2\M+2A755\M+2BD75
 10
-1035.0577247191129
 20
-680.41337411764766
 30
0.0
 42
0.3386620694399568
  0
VERTEX
  5
8A13
  8
\M+2BBB2\M+2A755\M+2BD75
 10
-1035.3013379481031
 20
-680.13383049298318
 30
0.0
 42
0.1007856859982986
  0
VERTEX
  5
8A14
  8
\M+2BBB2\M+2A755\M+2BD75
 10
-1036.565424864147
 20
-680.13383049298318
 30
0.0
 42
0.3386620694399554
  0
VERTEX
  5
8A15
  8
\M+2BBB2\M+2A755\M+2BD75
 10
-1036.8090380931369
 20
-680.41337411764766
 30
0.0
 42
0.0159384559834733
  0
VERTEX
  5
8A16
  8
\M+2BBB2\M+2A755\M+2BD75
 10
-1036.838891406125
 20
-681.34965455948566
 30
0.0
 42
0.0159384559834734
  0
SEQEND
  5
8A17
  8
\M+2BBB2\M+2A755\M+2BD75
  0
POLYLINE
  5
4C5D
  8
\M+2BBB2\M+2A755\M+2BD75
 66
     1
 10
0.0
 20
0.0
 30
0.0
 70
     1
  0
VERTEX
  5
8A18
  8
\M+2BBB2\M+2A755\M+2BD75
 10
-1036.852257126101
 20
-682.28869388491069
 30
0.0
 42
0.3386620694399577
  0
VERTEX
  5
8A19
  8
\M+2BBB2\M+2A755\M+2BD75
 10
-1036.5740665355779
 20
-682.607914669205
 30
0.0
 42
0.1007856859982986
  0
VERTEX
  5
8A1A
  8
\M+2BBB2\M+2A755\M+2BD75
 10
-1035.292696276673
 20
-682.607914669205
 30
0.0
 42
0.338662069439958
  0
VERTEX
  5
8A1B
  8
\M+2BBB2\M+2A755\M+2BD75
 10
-1035.0145056861491
 20
-682.28869388491069
 30
0.0
 42
0.0159384559834733
  0
VERTEX
  5
8A1C
  8
\M+2BBB2\M+2A755\M+2BD75
 10
-1034.9845644061249
 20
-681.34965455948566
 30
0.0
 42
0.0159384559834733
  0
VERTEX
  5
8A1D
  8
\M+2BBB2\M+2A755\M+2BD75
 10
-1035.0145056861491
 20
-680.41061523406086
 30
0.0
 42
0.3386620694399564
  0
VERTEX
  5
8A1E
  8
\M+2BBB2\M+2A755\M+2BD75
 10
-1035.292696276673
 20
-680.09139444976643
 30
0.0
 42
0.1007856859982986
  0
VERTEX
  5
8A1F
  8
\M+2BBB2\M+2A755\M+2BD75
 10
-1036.5740665355779
 20
-680.09139444976643
 30
0.0
 42
0.338662069439956
  0
VERTEX
  5
8A20
  8
\M+2BBB2\M+2A755\M+2BD75
 10
-1036.852257126101
 20
-680.41061523406086
 30
0.0
 42
0.0159384559834733
  0
VERTEX
  5
8A21
  8
\M+2BBB2\M+2A755\M+2BD75
 10
-1036.882198406126
 20
-681.34965455948566
 30
0.0
 42
0.0159384559834733
  0
SEQEND
  5
8A22
  8
\M+2BBB2\M+2A755\M+2BD75
  0
CIRCLE
  5
4C5E
  8
\M+2BBB2\M+2A755\M+2BD75
 10
-1036.5829864061261
 20
-680.37524705948579
 30
0.0
 40
0.15748
  0
CIRCLE
  5
4C5F
  8
\M+2BBB2\M+2A755\M+2BD75
 10
-1036.5829864061261
 20
-680.37524705948579
 30
0.0
 40
0.0925195
  0
CIRCLE
  5
4C60
  8
\M+2BBB2\M+2A755\M+2BD75
 10
-1036.5829864061261
 20
-680.37524705948579
 30
0.0
 40
0.059055
  0
CIRCLE
  5
4C61
  8
\M+2BBB2\M+2A755\M+2BD75
 10
-1035.283776406126
 20
-680.37524705948579
 30
0.0
 40
0.15748
  0
CIRCLE
  5
4C62
  8
\M+2BBB2\M+2A755\M+2BD75
 10
-1035.283776406126
 20
-680.37524705948579
 30
0.0
 40
0.0925195
  0
CIRCLE
  5
4C63
  8
\M+2BBB2\M+2A755\M+2BD75
 10
-1035.283776406126
 20
-680.37524705948579
 30
0.0
 40
0.059055
  0
CIRCLE
  5
4C64
  8
\M+2BBB2\M+2A755\M+2BD75
 10
-1036.5829864061261
 20
-682.32406205948587
 30
0.0
 40
0.15748
  0
CIRCLE
  5
4C65
  8
\M+2BBB2\M+2A755\M+2BD75
 10
-1036.5829864061261
 20
-682.32406205948587
 30
0.0
 40
0.0925195
  0
CIRCLE
  5
4C66
  8
\M+2BBB2\M+2A755\M+2BD75
 10
-1036.5829864061261
 20
-682.32406205948587
 30
0.0
 40
0.059055
  0
CIRCLE
  5
4C67
  8
\M+2BBB2\M+2A755\M+2BD75
 10
-1035.283776406126
 20
-682.32406205948587
 30
0.0
 40
0.15748
  0
CIRCLE
  5
4C68
  8
\M+2BBB2\M+2A755\M+2BD75
 10
-1035.283776406126
 20
-682.32406205948587
 30
0.0
 40
0.0925195
  0
CIRCLE
  5
4C69
  8
\M+2BBB2\M+2A755\M+2BD75
 10
-1035.283776406126
 20
-682.32406205948587
 30
0.0
 40
0.059055
  0
POLYLINE
  5
4C6A
  8
\M+2BBB2\M+2A755\M+2BD75
 66
     1
 10
0.0
 20
0.0
 30
0.0
 70
     1
  0
VERTEX
  5
8A23
  8
\M+2BBB2\M+2A755\M+2BD75
 10
-1028.907231056055
 20
-682.29157817229691
 30
0.0
 42
0.3386620694399563
  0
VERTEX
  5
8A24
  8
\M+2BBB2\M+2A755\M+2BD75
 10
-1028.5928914057461
 20
-682.65227962347717
 30
0.0
 42
0.1007856859982988
  0
VERTEX
  5
8A25
  8
\M+2BBB2\M+2A755\M+2BD75
 10
-1027.293452197488
 20
-682.65227962347717
 30
0.0
 42
0.3386620694399578
  0
VERTEX
  5
8A26
  8
\M+2BBB2\M+2A755\M+2BD75
 10
-1026.9791125471791
 20
-682.29157817229691
 30
0.0
 42
0.0159384559834733
  0
VERTEX
  5
8A27
  8
\M+2BBB2\M+2A755\M+2BD75
 10
-1026.9490793016171
 20
-681.34965455948566
 30
0.0
 42
0.0159384559834733
  0
VERTEX
  5
8A28
  8
\M+2BBB2\M+2A755\M+2BD75
 10
-1026.9791125471791
 20
-680.40773094667475
 30
0.0
 42
0.3386620694399576
  0
VERTEX
  5
8A29
  8
\M+2BBB2\M+2A755\M+2BD75
 10
-1027.293452197488
 20
-680.0470294954946
 30
0.0
 42
0.1007856859982986
  0
VERTEX
  5
8A2A
  8
\M+2BBB2\M+2A755\M+2BD75
 10
-1028.5928914057461
 20
-680.0470294954946
 30
0.0
 42
0.3386620694399562
  0
VERTEX
  5
8A2B
  8
\M+2BBB2\M+2A755\M+2BD75
 10
-1028.907231056055
 20
-680.40773094667475
 30
0.0
 42
0.0159384559834733
  0
VERTEX
  5
8A2C
  8
\M+2BBB2\M+2A755\M+2BD75
 10
-1028.937264301617
 20
-681.34965455948566
 30
0.0
 42
0.0159384559834733
  0
SEQEND
  5
8A2D
  8
\M+2BBB2\M+2A755\M+2BD75
  0
POLYLINE
  5
4C6B
  8
\M+2BBB2\M+2A755\M+2BD75
 66
     1
 10
0.0
 20
0.0
 30
0.0
 70
     1
  0
VERTEX
  5
8A2E
  8
\M+2BBB2\M+2A755\M+2BD75
 10
-1028.809005981137
 20
-682.28530798232669
 30
0.0
 42
0.3386620694399571
  0
VERTEX
  5
8A2F
  8
\M+2BBB2\M+2A755\M+2BD75
 10
-1028.5732512434049
 20
-682.55583407071174
 30
0.0
 42
0.1007856859982987
  0
VERTEX
  5
8A30
  8
\M+2BBB2\M+2A755\M+2BD75
 10
-1027.3130923598289
 20
-682.55583407071174
 30
0.0
 42
0.3386620694399576
  0
VERTEX
  5
8A31
  8
\M+2BBB2\M+2A755\M+2BD75
 10
-1027.077337622098
 20
-682.28530798232669
 30
0.0
 42
0.0159384559834733
  0
VERTEX
  5
8A32
  8
\M+2BBB2\M+2A755\M+2BD75
 10
-1027.0475043016161
 20
-681.34965455948566
 30
0.0
 42
0.0159384559834733
  0
VERTEX
  5
8A33
  8
\M+2BBB2\M+2A755\M+2BD75
 10
-1027.077337622098
 20
-680.41400113664486
 30
0.0
 42
0.3386620694399574
  0
VERTEX
  5
8A34
  8
\M+2BBB2\M+2A755\M+2BD75
 10
-1027.3130923598289
 20
-680.14347504825992
 30
0.0
 42
0.1007856859982986
  0
VERTEX
  5
8A35
  8
\M+2BBB2\M+2A755\M+2BD75
 10
-1028.5732512434049
 20
-680.14347504825992
 30
0.0
 42
0.3386620694399564
  0
VERTEX
  5
8A36
  8
\M+2BBB2\M+2A755\M+2BD75
 10
-1028.809005981137
 20
-680.41400113664486
 30
0.0
 42
0.0159384559834733
  0
VERTEX
  5
8A37
  8
\M+2BBB2\M+2A755\M+2BD75
 10
-1028.838839301616
 20
-681.34965455948566
 30
0.0
 42
0.0159384559834734
  0
SEQEND
  5
8A38
  8
\M+2BBB2\M+2A755\M+2BD75
  0
LINE
  5
4C6C
  8
\M+2BBB2\M+2A755\M+2BD75
 10
-1028.3604938016169
 20
-680.51107355948568
 30
0.0
 11
-1027.5258498016169
 21
-680.51107355948568
 31
0.0
  0
LINE
  5
4C6D
  8
\M+2BBB2\M+2A755\M+2BD75
 10
-1028.3604938016169
 20
-682.18823555948575
 30
0.0
 11
-1027.5258498016169
 21
-682.18823555948575
 31
0.0
  0
LINE
  5
4C6E
  8
\M+2BBB2\M+2A755\M+2BD75
 10
-1027.3289998016171
 20
-680.70792355948583
 30
0.0
 11
-1027.3289998016171
 21
-681.99138555948582
 31
0.0
  0
LINE
  5
4C6F
  8
\M+2BBB2\M+2A755\M+2BD75
 10
-1028.557343801617
 20
-680.70792355948583
 30
0.0
 11
-1028.557343801617
 21
-681.99138555948582
 31
0.0
  0
ARC
  5
4C70
  8
\M+2BBB2\M+2A755\M+2BD75
 10
-1028.3604938016169
 20
-680.70792355948583
 30
0.0
 40
0.19685
 50
90.0
 51
180.0
  0
ARC
  5
4C71
  8
\M+2BBB2\M+2A755\M+2BD75
 10
-1027.5258498016169
 20
-680.70792355948583
 30
0.0
 40
0.19685
 50
0.0
 51
90.0
  0
ARC
  5
4C72
  8
\M+2BBB2\M+2A755\M+2BD75
 10
-1027.5258498016169
 20
-681.99138555948582
 30
0.0
 40
0.19685
 50
270.0
 51
0.0
  0
ARC
  5
4C73
  8
\M+2BBB2\M+2A755\M+2BD75
 10
-1028.3604938016169
 20
-681.99138555948582
 30
0.0
 40
0.19685
 50
180.0
 51
270.0
  0
LINE
  5
4C74
  8
\M+2BBB2\M+2A755\M+2BD75
 10
-1028.3604938016169
 20
-680.47170355948583
 30
0.0
 11
-1027.5258498016169
 21
-680.47170355948583
 31
0.0
  0
ARC
  5
4C75
  8
\M+2BBB2\M+2A755\M+2BD75
 10
-1027.5258498016169
 20
-680.70792355948583
 30
0.0
 40
0.23622
 50
0.0
 51
90.0
  0
LINE
  5
4C76
  8
\M+2BBB2\M+2A755\M+2BD75
 10
-1027.289629801616
 20
-680.70792355948583
 30
0.0
 11
-1027.289629801616
 21
-681.99138555948582
 31
0.0
  0
ARC
  5
4C77
  8
\M+2BBB2\M+2A755\M+2BD75
 10
-1027.5258498016169
 20
-681.99138555948582
 30
0.0
 40
0.23622
 50
270.0
 51
0.0
  0
LINE
  5
4C78
  8
\M+2BBB2\M+2A755\M+2BD75
 10
-1028.3604938016169
 20
-682.22760555948582
 30
0.0
 11
-1027.5258498016169
 21
-682.22760555948582
 31
0.0
  0
ARC
  5
4C79
  8
\M+2BBB2\M+2A755\M+2BD75
 10
-1028.3604938016169
 20
-681.99138555948582
 30
0.0
 40
0.23622
 50
180.0
 51
270.0
  0
LINE
  5
4C7A
  8
\M+2BBB2\M+2A755\M+2BD75
 10
-1028.596713801616
 20
-680.70792355948583
 30
0.0
 11
-1028.596713801616
 21
-681.99138555948582
 31
0.0
  0
ARC
  5
4C7B
  8
\M+2BBB2\M+2A755\M+2BD75
 10
-1028.3604938016169
 20
-680.70792355948583
 30
0.0
 40
0.23622
 50
90.0
 51
180.0
  0
LINE
  5
4C7C
  8
\M+2BBB2\M+2A755\M+2BD75
 10
-1028.5928914057461
 20
-680.0470294954946
 30
0.0
 11
-1028.5732512434049
 21
-680.14347504825992
 31
0.0
  0
LINE
  5
4C7D
  8
\M+2BBB2\M+2A755\M+2BD75
 10
-1027.293452197488
 20
-680.0470294954946
 30
0.0
 11
-1027.3130923598289
 21
-680.14347504825992
 31
0.0
  0
LINE
  5
4C7E
  8
\M+2BBB2\M+2A755\M+2BD75
 10
-1026.9791125471791
 20
-680.40773094667475
 30
0.0
 11
-1027.077337622098
 21
-680.41400113664486
 31
0.0
  0
LINE
  5
4C7F
  8
\M+2BBB2\M+2A755\M+2BD75
 10
-1028.907231056055
 20
-680.40773094667475
 30
0.0
 11
-1028.809005981137
 21
-680.41400113664486
 31
0.0
  0
LINE
  5
4C80
  8
\M+2BBB2\M+2A755\M+2BD75
 10
-1028.5928914057461
 20
-682.65227962347717
 30
0.0
 11
-1028.5732512434049
 21
-682.55583407071174
 31
0.0
  0
LINE
  5
4C81
  8
\M+2BBB2\M+2A755\M+2BD75
 10
-1027.293452197488
 20
-682.65227962347717
 30
0.0
 11
-1027.3130923598289
 21
-682.55583407071174
 31
0.0
  0
LINE
  5
4C82
  8
\M+2BBB2\M+2A755\M+2BD75
 10
-1026.9791125471791
 20
-682.29157817229691
 30
0.0
 11
-1027.077337622098
 21
-682.28530798232669
 31
0.0
  0
LINE
  5
4C83
  8
\M+2BBB2\M+2A755\M+2BD75
 10
-1028.907231056055
 20
-682.29157817229691
 30
0.0
 11
-1028.809005981137
 21
-682.28530798232669
 31
0.0
  0
LINE
  5
4C84
  8
\M+2BBB2\M+2A755\M+2BD75
 10
-1025.004851991609
 20
-679.98154705948571
 30
0.0
 11
-1025.004851991609
 21
-681.34965455948566
 31
0.0
  0
LINE
  5
4C85
  8
\M+2BBB2\M+2A755\M+2BD75
 10
-1025.0639069916081
 20
-680.02682255948582
 30
0.0
 11
-1025.0639069916081
 21
-681.34965455948566
 31
0.0
  0
LINE
  5
4C86
  8
\M+2BBB2\M+2A755\M+2BD75
 10
-1024.8473719916101
 20
-679.98788575456979
 30
0.0
 11
-1024.8473719916101
 21
-681.34965455948566
 31
0.0
  0
LINE
  5
4C87
  8
\M+2BBB2\M+2A755\M+2BD75
 10
-1024.6702069916089
 20
-680.09515084237626
 30
0.0
 11
-1024.6702069916089
 21
-681.34965455948566
 31
0.0
  0
ARC
  5
4C88
  8
\M+2BBB2\M+2A755\M+2BD75
 10
-1024.70957699161
 20
-680.09515084237626
 30
0.0
 40
0.03937
 50
0.0
 51
64.875333435671692
  0
LINE
  5
4C89
  8
\M+2BBB2\M+2A755\M+2BD75
 10
-1025.004851991609
 20
-679.98154705948571
 30
0.0
 11
-1024.8554216162929
 21
-679.98676528317731
 31
0.0
  0
LINE
  5
4C8A
  8
\M+2BBB2\M+2A755\M+2BD75
 10
-1024.8400795310069
 20
-679.99046624960147
 30
0.0
 11
-1024.692860913138
 21
-680.05950579194086
 31
0.0
  0
ARC
  5
4C8B
  8
\M+2BBB2\M+2A755\M+2BD75
 10
-1024.856795609478
 20
-680.02611130003686
 30
0.0
 40
0.03937
 50
64.875333435671692
 51
88.000000000009521
  0
LINE
  5
4C8C
  8
\M+2BBB2\M+2A755\M+2BD75
 10
-1025.0639069916081
 20
-680.02682255948582
 30
0.0
 11
-1025.004851991609
 21
-680.02682255948582
 31
0.0
  0
LINE
  5
4C8D
  8
\M+2BBB2\M+2A755\M+2BD75
 10
-1025.004851991609
 20
-682.71776205948584
 30
0.0
 11
-1025.004851991609
 21
-681.34965455948566
 31
0.0
  0
LINE
  5
4C8E
  8
\M+2BBB2\M+2A755\M+2BD75
 10
-1025.0639069916081
 20
-682.67248655948583
 30
0.0
 11
-1025.0639069916081
 21
-681.34965455948566
 31
0.0
  0
LINE
  5
4C8F
  8
\M+2BBB2\M+2A755\M+2BD75
 10
-1024.8473719916101
 20
-682.71142336440175
 30
0.0
 11
-1024.8473719916101
 21
-681.34965455948566
 31
0.0
  0
LINE
  5
4C90
  8
\M+2BBB2\M+2A755\M+2BD75
 10
-1024.6702069916089
 20
-682.60415827659551
 30
0.0
 11
-1024.6702069916089
 21
-681.34965455948566
 31
0.0
  0
ARC
  5
4C91
  8
\M+2BBB2\M+2A755\M+2BD75
 10
-1024.70957699161
 20
-682.60415827659551
 30
0.0
 40
0.03937
 50
295.12466656432832
 51
0.0
  0
LINE
  5
4C92
  8
\M+2BBB2\M+2A755\M+2BD75
 10
-1025.004851991609
 20
-682.71776205948584
 30
0.0
 11
-1024.8554216162929
 21
-682.71254383579424
 31
0.0
  0
LINE
  5
4C93
  8
\M+2BBB2\M+2A755\M+2BD75
 10
-1024.8400795310069
 20
-682.70884286936996
 30
0.0
 11
-1024.692860913138
 21
-682.6398033270309
 31
0.0
  0
ARC
  5
4C94
  8
\M+2BBB2\M+2A755\M+2BD75
 10
-1024.856795609478
 20
-682.67319781893457
 30
0.0
 40
0.03937
 50
271.99999999999039
 51
295.12466656432832
  0
LINE
  5
4C95
  8
\M+2BBB2\M+2A755\M+2BD75
 10
-1025.0639069916081
 20
-682.67248655948583
 30
0.0
 11
-1025.004851991609
 21
-682.67248655948583
 31
0.0
  0
LINE
  5
4C96
  8
\M+2BBB2\M+2A755\M+2BD75
 10
-1032.195878998172
 20
-680.02682255948582
 30
0.0
 11
-1032.195878998172
 21
-681.34965455948566
 31
0.0
  0
LINE
  5
4C97
  8
\M+2BBB2\M+2A755\M+2BD75
 10
-1032.5895789981721
 20
-680.09515084237626
 30
0.0
 11
-1032.5895789981721
 21
-681.34965455948566
 31
0.0
  0
ARC
  5
4C98
  8
\M+2BBB2\M+2A755\M+2BD75
 10
-1032.550208998171
 20
-680.09515084237626
 30
0.0
 40
0.03937
 50
115.12466656432829
 51
180.0
  0
LINE
  5
4C99
  8
\M+2BBB2\M+2A755\M+2BD75
 10
-1032.2549339981711
 20
-679.98154705948571
 30
0.0
 11
-1032.4043643734881
 21
-679.98676528317731
 31
0.0
  0
LINE
  5
4C9A
  8
\M+2BBB2\M+2A755\M+2BD75
 10
-1032.419706458775
 20
-679.99046624960147
 30
0.0
 11
-1032.5669250766421
 21
-680.05950579194086
 31
0.0
  0
ARC
  5
4C9B
  8
\M+2BBB2\M+2A755\M+2BD75
 10
-1032.402990380303
 20
-680.02611130003686
 30
0.0
 40
0.03937
 50
92.000000000003496
 51
115.12466656432829
  0
LINE
  5
4C9C
  8
\M+2BBB2\M+2A755\M+2BD75
 10
-1032.195878998172
 20
-680.02682255948582
 30
0.0
 11
-1032.2549339981711
 21
-680.02682255948582
 31
0.0
  0
LINE
  5
4C9D
  8
\M+2BBB2\M+2A755\M+2BD75
 10
-1032.251842513504
 20
-680.07007559742033
 30
0.0
 11
-1032.4162571421689
 21
-680.07581708276882
 31
0.0
  0
LINE
  5
4C9E
  8
\M+2BBB2\M+2A755\M+2BD75
 10
-1032.4162571421689
 20
-680.07581708276882
 30
0.0
 11
-1032.5108389981719
 21
-680.12017212526678
 31
0.0
  0
LINE
  5
4C9F
  8
\M+2BBB2\M+2A755\M+2BD75
 10
-1032.5108389981719
 20
-680.12017212526678
 30
0.0
 11
-1032.5108389981719
 21
-680.21776705948582
 31
0.0
  0
LINE
  5
4CA0
  8
\M+2BBB2\M+2A755\M+2BD75
 10
-1032.2549339981711
 20
-680.0701835544437
 30
0.0
 11
-1032.195878998172
 21
-680.0701835544437
 31
0.0
  0
LINE
  5
4CA1
  8
\M+2BBB2\M+2A755\M+2BD75
 10
-1032.2549339981711
 20
-679.98154705948571
 30
0.0
 11
-1032.2549339981711
 21
-680.02682255948582
 31
0.0
  0
LINE
  5
4CA2
  8
\M+2BBB2\M+2A755\M+2BD75
 10
-1032.5108389981719
 20
-680.21776705948582
 30
0.0
 11
-1032.258870998171
 21
-680.21776705948582
 31
0.0
  0
LINE
  5
4CA3
  8
\M+2BBB2\M+2A755\M+2BD75
 10
-1032.5108389981719
 20
-680.53272705948575
 30
0.0
 11
-1032.258870998171
 21
-680.53272705948575
 31
0.0
  0
LINE
  5
4CA4
  8
\M+2BBB2\M+2A755\M+2BD75
 10
-1032.258870998171
 20
-680.21776705948582
 30
0.0
 11
-1032.258870998171
 21
-680.28272755948569
 31
0.0
  0
LINE
  5
4CA5
  8
\M+2BBB2\M+2A755\M+2BD75
 10
-1032.258870998171
 20
-680.46776655948588
 30
0.0
 11
-1032.195878998172
 21
-680.46776655948588
 31
0.0
  0
LINE
  5
4CA6
  8
\M+2BBB2\M+2A755\M+2BD75
 10
-1032.258870998171
 20
-680.28272755948569
 30
0.0
 11
-1032.195878998172
 21
-680.28272755948569
 31
0.0
  0
CIRCLE
  5
4CA7
  8
\M+2BBB2\M+2A755\M+2BD75
 10
-1028.592776801617
 20
-680.3752470594859
 30
0.0
 40
0.1082675
  0
CIRCLE
  5
4CA8
  8
\M+2BBB2\M+2A755\M+2BD75
 10
-1027.293566801616
 20
-680.3752470594859
 30
0.0
 40
0.098425
  0
CIRCLE
  5
4CA9
  8
\M+2BBB2\M+2A755\M+2BD75
 10
-1027.293566801616
 20
-682.32406205948587
 30
0.0
 40
0.098425
  0
CIRCLE
  5
4CAA
  8
\M+2BBB2\M+2A755\M+2BD75
 10
-1028.592776801617
 20
-682.32406205948587
 30
0.0
 40
0.098425
  0
LINE
  5
4CAB
  8
\M+2B5EA\M+2BD75
  6
HIDDEN2
 62
     1
 10
-1032.3376109981721
 20
-680.26697955948589
 30
0.0
 11
-1032.5895789981721
 21
-680.26697955948589
 31
0.0
  0
LINE
  5
4CAC
  8
\M+2B5EA\M+2BD75
  6
HIDDEN2
 62
     1
 10
-1032.3376109981721
 20
-680.48351455948591
 30
0.0
 11
-1032.5895789981721
 21
-680.48351455948591
 31
0.0
  0
CIRCLE
  5
4CAD
  8
\M+2BBB2\M+2A755\M+2BD75
 10
-1028.592776801617
 20
-680.3752470594859
 30
0.0
 40
0.059055
  0
CIRCLE
  5
4CAE
  8
\M+2BBB2\M+2A755\M+2BD75
 10
-1027.293566801616
 20
-680.3752470594859
 30
0.0
 40
0.059055
  0
CIRCLE
  5
4CAF
  8
\M+2BBB2\M+2A755\M+2BD75
 10
-1027.293566801616
 20
-682.32406205948587
 30
0.0
 40
0.059055
  0
CIRCLE
  5
4CB0
  8
\M+2BBB2\M+2A755\M+2BD75
 10
-1028.592776801617
 20
-682.32406205948587
 30
0.0
 40
0.059055
  0
LINE
  5
4CB1
  8
\M+2B5EA\M+2BD75
  6
HIDDEN2
 62
     1
 10
-1032.3376109981721
 20
-680.31619205948573
 30
0.0
 11
-1032.195878998172
 21
-680.31619205948573
 31
0.0
  0
LINE
  5
4CB2
  8
\M+2B5EA\M+2BD75
  6
HIDDEN2
 62
     1
 10
-1032.3376109981721
 20
-680.43430205948573
 30
0.0
 11
-1032.195878998172
 21
-680.43430205948573
 31
0.0
  0
LINE
  5
4CB3
  8
\M+2BBB2\M+2A755\M+2BD75
 10
-1032.5108389981719
 20
-680.53272705948575
 30
0.0
 11
-1032.5108389981719
 21
-681.34965455948566
 31
0.0
  0
LINE
  5
4CB4
  8
\M+2BBB2\M+2A755\M+2BD75
 10
-1032.195878998172
 20
-682.67248655948583
 30
0.0
 11
-1032.195878998172
 21
-681.34965455948577
 31
0.0
  0
LINE
  5
4CB5
  8
\M+2BBB2\M+2A755\M+2BD75
 10
-1032.5895789981721
 20
-682.60415827659551
 30
0.0
 11
-1032.5895789981721
 21
-681.34965455948577
 31
0.0
  0
LINE
  5
4CB6
  8
\M+2BBB2\M+2A755\M+2BD75
 10
-1032.5108389981719
 20
-682.57913699370511
 30
0.0
 11
-1032.5108389981719
 21
-682.48154205948583
 31
0.0
  0
LINE
  5
4CB7
  8
\M+2BBB2\M+2A755\M+2BD75
 10
-1032.5108389981719
 20
-682.1665820594859
 30
0.0
 11
-1032.5108389981719
 21
-681.34965455948577
 31
0.0
  0
ARC
  5
4CB8
  8
\M+2BBB2\M+2A755\M+2BD75
 10
-1032.550208998171
 20
-682.60415827659551
 30
0.0
 40
0.03937
 50
180.0
 51
244.87533343567151
  0
LINE
  5
4CB9
  8
\M+2BBB2\M+2A755\M+2BD75
 10
-1032.2549339981711
 20
-682.71776205948584
 30
0.0
 11
-1032.4043643734881
 21
-682.71254383579458
 31
0.0
  0
LINE
  5
4CBA
  8
\M+2BBB2\M+2A755\M+2BD75
 10
-1032.251842513504
 20
-682.62923352155155
 30
0.0
 11
-1032.4162571421689
 21
-682.62349203620261
 31
0.0
  0
LINE
  5
4CBB
  8
\M+2BBB2\M+2A755\M+2BD75
 10
-1032.419706458775
 20
-682.70884286936996
 30
0.0
 11
-1032.5669250766421
 21
-682.63980332703102
 31
0.0
  0
LINE
  5
4CBC
  8
\M+2BBB2\M+2A755\M+2BD75
 10
-1032.4162571421689
 20
-682.62349203620261
 30
0.0
 11
-1032.5108389981719
 21
-682.57913699370511
 31
0.0
  0
ARC
  5
4CBD
  8
\M+2BBB2\M+2A755\M+2BD75
 10
-1032.402990380303
 20
-682.67319781893457
 30
0.0
 40
0.03937
 50
244.87533343567151
 51
267.99999999999642
  0
LINE
  5
4CBE
  8
\M+2BBB2\M+2A755\M+2BD75
 10
-1032.195878998172
 20
-682.67248655948583
 30
0.0
 11
-1032.2549339981711
 21
-682.67248655948583
 31
0.0
  0
LINE
  5
4CBF
  8
\M+2BBB2\M+2A755\M+2BD75
 10
-1032.2549339981711
 20
-682.62912556452795
 30
0.0
 11
-1032.195878998172
 21
-682.62912556452795
 31
0.0
  0
LINE
  5
4CC0
  8
\M+2BBB2\M+2A755\M+2BD75
 10
-1032.2549339981711
 20
-682.71776205948584
 30
0.0
 11
-1032.2549339981711
 21
-682.67248655948583
 31
0.0
  0
LINE
  5
4CC1
  8
\M+2BBB2\M+2A755\M+2BD75
  6
HIDDEN2
 62
     1
 10
-1032.3376109981721
 20
-680.26697955948589
 30
0.0
 11
-1032.3376109981721
 21
-680.48351455948591
 31
0.0
  0
LINE
  5
4CC2
  8
\M+2BBB2\M+2A755\M+2BD75
 10
-1032.258870998171
 20
-680.46776655948588
 30
0.0
 11
-1032.258870998171
 21
-680.53272705948575
 31
0.0
  0
LINE
  5
4CC3
  8
\M+2BBB2\M+2A755\M+2BD75
 10
-1032.258870998171
 20
-682.48154205948595
 30
0.0
 11
-1032.258870998171
 21
-682.41658155948585
 31
0.0
  0
LINE
  5
4CC4
  8
\M+2BBB2\M+2A755\M+2BD75
 10
-1032.258870998171
 20
-682.231542559486
 30
0.0
 11
-1032.258870998171
 21
-682.1665820594859
 31
0.0
  0
LINE
  5
4CC5
  8
\M+2BBB2\M+2A755\M+2BD75
  6
HIDDEN2
 62
     1
 10
-1032.3376109981721
 20
-682.43232955948599
 30
0.0
 11
-1032.3376109981721
 21
-682.21579455948586
 31
0.0
  0
LINE
  5
4CC6
  8
\M+2BBB2\M+2A755\M+2BD75
 10
-1032.5108389981719
 20
-682.48154205948595
 30
0.0
 11
-1032.258870998171
 21
-682.48154205948595
 31
0.0
  0
LINE
  5
4CC7
  8
\M+2BBB2\M+2A755\M+2BD75
 10
-1032.5108389981719
 20
-682.1665820594859
 30
0.0
 11
-1032.258870998171
 21
-682.1665820594859
 31
0.0
  0
LINE
  5
4CC8
  8
\M+2BBB2\M+2A755\M+2BD75
 10
-1032.258870998171
 20
-682.231542559486
 30
0.0
 11
-1032.195878998172
 21
-682.231542559486
 31
0.0
  0
LINE
  5
4CC9
  8
\M+2BBB2\M+2A755\M+2BD75
 10
-1032.258870998171
 20
-682.41658155948585
 30
0.0
 11
-1032.195878998172
 21
-682.41658155948585
 31
0.0
  0
LINE
  5
4CCA
  8
\M+2B5EA\M+2BD75
  6
HIDDEN2
 62
     1
 10
-1032.3376109981721
 20
-682.43232955948599
 30
0.0
 11
-1032.5895789981721
 21
-682.43232955948599
 31
0.0
  0
LINE
  5
4CCB
  8
\M+2B5EA\M+2BD75
  6
HIDDEN2
 62
     1
 10
-1032.3376109981721
 20
-682.21579455948586
 30
0.0
 11
-1032.5895789981721
 21
-682.21579455948586
 31
0.0
  0
LINE
  5
4CCC
  8
\M+2B5EA\M+2BD75
  6
HIDDEN2
 62
     1
 10
-1032.3376109981721
 20
-682.38311705948604
 30
0.0
 11
-1032.195878998172
 21
-682.38311705948604
 31
0.0
  0
LINE
  5
4CCD
  8
\M+2B5EA\M+2BD75
  6
HIDDEN2
 62
     1
 10
-1032.3376109981721
 20
-682.26500705948604
 30
0.0
 11
-1032.195878998172
 21
-682.26500705948604
 31
0.0
  0
DIMENSION
  5
4CD4
  8
DIM
  2
*D16
 10
-1036.838891406125
 20
-681.31193819587679
 30
0.0
 11
-1037.9756881918399
 21
-681.31193819587679
 31
0.0
 70
   128
 13
-1036.9274739061259
 23
-681.34965455948566
 33
0.0
 14
-1036.838891406125
 24
-681.34965455948566
 34
0.0
  0
DIMENSION
  5
4CD8
  8
DIM
  2
*D17
 10
-1032.997446337678
 20
-680.48351455948591
 30
0.0
 11
-1033.853755861486
 21
-680.94808518313027
 31
0.0
 70
   128
 13
-1032.5895789981721
 23
-680.26697955948589
 33
0.0
 14
-1032.5895789981721
 24
-680.48351455948591
 34
0.0
 50
90.0
  0
LINE
  5
4CDA
  8
\M+2B5EA\M+2BD75
 10
-1024.68989199161
 20
-680.47170355948583
 30
0.0
 11
-1024.6702069916089
 21
-680.47170355948583
 31
0.0
  0
LINE
  5
4CDB
  8
\M+2B5EA\M+2BD75
 10
-1024.68989199161
 20
-682.22760555948582
 30
0.0
 11
-1024.6702069916089
 21
-682.22760555948582
 31
0.0
  0
LINE
  5
4CDC
  8
\M+2B5EA\M+2BD75
 10
-1024.68989199161
 20
-680.47170355948583
 30
0.0
 11
-1024.68989199161
 21
-682.22760555948582
 31
0.0
  0
LINE
  5
4CDD
  8
\M+2B5EA\M+2BD75
 10
-1024.68989199161
 20
-680.51107355948568
 30
0.0
 11
-1024.6702069916089
 21
-680.51107355948568
 31
0.0
  0
LINE
  5
4CDE
  8
\M+2B5EA\M+2BD75
 10
-1024.68989199161
 20
-682.18823555948575
 30
0.0
 11
-1024.6702069916089
 21
-682.18823555948575
 31
0.0
  0
LINE
  5
4CDF
  8
\M+2BBB2\M+2A755\M+2BD75
 10
-1032.5108389981719
 20
-680.21776705948582
 30
0.0
 11
-1032.5108389981719
 21
-680.53272705948575
 31
0.0
  0
LINE
  5
4CE0
  8
\M+2BBB2\M+2A755\M+2BD75
 10
-1032.5108389981719
 20
-682.48154205948595
 30
0.0
 11
-1032.5108389981719
 21
-682.1665820594859
 31
0.0
  0
LINE
  5
4CE1
  8
\M+2BBB2\M+2A755\M+2BD75
 10
-1032.569893998171
 20
-680.47170355948583
 30
0.0
 11
-1032.5895789981721
 21
-680.47170355948583
 31
0.0
  0
LINE
  5
4CE2
  8
\M+2BBB2\M+2A755\M+2BD75
 10
-1032.569893998171
 20
-682.22760555948582
 30
0.0
 11
-1032.5895789981721
 21
-682.22760555948582
 31
0.0
  0
LINE
  5
4CE3
  8
\M+2BBB2\M+2A755\M+2BD75
 10
-1032.569893998171
 20
-682.18823555948575
 30
0.0
 11
-1032.5895789981721
 21
-682.18823555948575
 31
0.0
  0
LINE
  5
4CE4
  8
\M+2BBB2\M+2A755\M+2BD75
 10
-1032.569893998171
 20
-680.51107355948568
 30
0.0
 11
-1032.5895789981721
 21
-680.51107355948568
 31
0.0
  0
LINE
  5
4CE5
  8
\M+2BBB2\M+2A755\M+2BD75
 10
-1032.569893998171
 20
-680.47170355948583
 30
0.0
 11
-1032.569893998171
 21
-680.51107355948568
 31
0.0
  0
LINE
  5
4CE6
  8
\M+2BBB2\M+2A755\M+2BD75
 10
-1032.569893998171
 20
-682.22760555948582
 30
0.0
 11
-1032.569893998171
 21
-682.18823555948575
 31
0.0
  0
INSERT
  5
4CE7
  8
\M+2ADE5\M+2ADB1\M+2BD75
  6
CONTINUOUS
  2
*X45
 10
0.0
 20
0.0
 30
0.0
1001
ACAD
1000
HATCH
1002
{
1070
    19
1000
ANSI31
1040
0.007874
1040
0.0
1000
R14_HATCH_DATA
1000
4CE7
1011
1.0
1021
0.0
1031
0.0
1021
0.0
1031
0.0
1011
0.0
1021
0.0
1031
0.0
1021
1.0
1031
0.0
1011
0.0
1021
0.0
1031
0.0
1021
0.0
1031
1.0
1040
0.0
1010
0.0
1020
0.0
1030
1.0
1000
ANSI31
1070
     0
1070
     0
1071
        2
1071
        7
1070
     1
1070
     1
1071
       14
1040
-1032.5108389981719
1040
-682.57913699370511
1040
0.0
1040
-1032.5108389981719
1040
-682.48154205948583
1040
0.0
1040
-1032.5108389981719
1040
-682.43232955948599
1040
0.0
1040
-1032.5895789981721
1040
-682.43232955948599
1040
0.0
1040
-1032.5895789981721
1040
-682.60415827659551
1040
0.2908833394625694
1040
-1032.5669250766421
1040
-682.63980332703102
1040
0.0
1040
-1032.419706458775
1040
-682.70884286936996
1040
0.1012442112859142
1040
-1032.4043643734881
1040
-682.71254383579458
1040
0.0
1040
-1032.2549339981711
1040
-682.71776205948584
1040
0.0
1040
-1032.2549339981711
1040
-682.67248655948583
1040
0.0
1040
-1032.195878998172
1040
-682.67248655948583
1040
0.0
1040
-1032.195878998172
1040
-682.62912556452795
1040
0.0
1040
-1032.2549339981711
1040
-682.62912556452795
1040
0.0
1040
-1032.4162571421689
1040
-682.62349203620283
1040
0.0
1071
        0
1071
        7
1070
     0
1070
     1
1071
        6
1040
-1032.5108389981719
1040
-682.21579455948586
1040
-1032.569893998171
1040
-682.21579455948586
1040
-1032.569893998171
1040
-682.22760555948582
1040
-1032.5895789981721
1040
-682.22760555948582
1040
-1032.5895789981721
1040
-682.43232955948599
1040
-1032.5108389981719
1040
-682.43232955948599
1071
        0
1070
     0
1070
     1
1040
0.0
1040
0.007874
1070
     0
1070
     1
1040
0.7853981633974483
1040
-1058.242570437945
1040
-681.59875801757005
1040
-0.0176776341743246
1040
0.0176776341743246
1070
     0
1040
0.0828726388274992
1071
        2
1040
-1032.518196470867
1040
-682.6050209958504
1040
0.0
1040
-1032.537780837087
1040
-682.32769180219816
1040
0.0
1002
}
  0
INSERT
  5
4CE8
  8
\M+2ADE5\M+2ADB1\M+2BD75
  6
CONTINUOUS
  2
*X46
 10
0.0
 20
0.0
 30
0.0
1001
ACAD
1000
HATCH
1002
{
1070
    19
1000
ANSI31
1040
0.007874
1040
0.0
1000
R14_HATCH_DATA
1000
4CE8
1011
1.0
1021
0.0
1031
0.0
1021
0.0
1031
0.0
1011
0.0
1021
0.0
1031
0.0
1021
1.0
1031
0.0
1011
0.0
1021
0.0
1031
0.0
1021
0.0
1031
1.0
1040
0.0
1010
0.0
1020
0.0
1030
1.0
1000
ANSI31
1070
     0
1070
     0
1071
        2
1071
        7
1070
     0
1070
     1
1071
       12
1040
-1032.5108389981719
1040
-680.53272705948575
1040
-1032.5108389981719
1040
-680.48351455948591
1040
-1032.569893998171
1040
-680.48351455948591
1040
-1032.569893998171
1040
-680.51107355948568
1040
-1032.5895789981721
1040
-680.51107355948568
1040
-1032.5895789981721
1040
-681.34965455948566
1040
-1032.5895789981721
1040
-682.18823555948575
1040
-1032.569893998171
1040
-682.18823555948575
1040
-1032.569893998171
1040
-682.21579455948586
1040
-1032.5108389981719
1040
-682.21579455948586
1040
-1032.5108389981719
1040
-682.1665820594859
1040
-1032.5108389981719
1040
-681.34965455948577
1071
        0
1071
        7
1070
     0
1070
     1
1071
        6
1040
-1032.5108389981719
1040
-680.26697955948589
1040
-1032.5895789981721
1040
-680.26697955948589
1040
-1032.5895789981721
1040
-680.47170355948583
1040
-1032.569893998171
1040
-680.47170355948583
1040
-1032.569893998171
1040
-680.48351455948591
1040
-1032.5108389981719
1040
-680.48351455948591
1071
        0
1070
     0
1070
     1
1040
0.0
1040
0.007874
1070
     0
1070
     1
1040
0.7853981633974483
1040
-1058.242570437945
1040
-681.59875801757005
1040
-0.0176776341743246
1040
0.0176776341743246
1070
     0
1040
0.0828726388274992
1071
        2
1040
-1032.544294704383
1040
-680.86522001530454
1040
0.0
1040
-1032.547558708854
1040
-680.39539184885825
1040
0.0
1002
}
  0
INSERT
  5
4CE9
  8
\M+2ADE5\M+2ADB1\M+2BD75
  6
CONTINUOUS
  2
*X47
 10
0.0
 20
0.0
 30
0.0
1001
ACAD
1000
HATCH
1002
{
1070
    19
1000
ANSI31
1040
0.007874
1040
0.0
1000
R14_HATCH_DATA
1000
4CE9
1011
1.0
1021
0.0
1031
0.0
1021
0.0
1031
0.0
1011
0.0
1021
0.0
1031
0.0
1021
1.0
1031
0.0
1011
0.0
1021
0.0
1031
0.0
1021
0.0
1031
1.0
1040
0.0
1010
0.0
1020
0.0
1030
1.0
1000
ANSI31
1070
     0
1070
     0
1071
        1
1071
        7
1070
     1
1070
     1
1071
       14
1040
-1032.5108389981719
1040
-680.12017212526678
1040
0.0
1040
-1032.4162571421689
1040
-680.07581708276882
1040
0.0
1040
-1032.2549339981711
1040
-680.0701835544437
1040
0.0
1040
-1032.195878998172
1040
-680.0701835544437
1040
0.0
1040
-1032.195878998172
1040
-680.02682255948582
1040
0.0
1040
-1032.2549339981711
1040
-680.02682255948582
1040
0.0
1040
-1032.2549339981711
1040
-679.98154705948571
1040
0.0
1040
-1032.4043643734881
1040
-679.98676528317731
1040
0.1012442112858837
1040
-1032.419706458775
1040
-679.99046624960147
1040
0.0
1040
-1032.5669250766421
1040
-680.05950579194086
1040
0.2908833394625598
1040
-1032.5895789981721
1040
-680.09515084237626
1040
0.0
1040
-1032.5895789981721
1040
-680.26697955948589
1040
0.0
1040
-1032.5108389981719
1040
-680.26697955948589
1040
0.0
1040
-1032.5108389981719
1040
-680.21776705948582
1040
0.0
1071
        0
1070
     0
1070
     1
1040
0.0
1040
0.007874
1070
     0
1070
     1
1040
0.7853981633974483
1040
-1058.242570437945
1040
-681.59875801757005
1040
-0.0176776341743246
1040
0.0176776341743246
1070
     0
1040
0.0828726388274992
1071
        1
1040
-1032.54426042504
1040
-680.14914694693789
1040
0.0
1002
}
  0
DIMENSION
  5
4CEA
  8
DIM
  2
*D18
 10
-1032.5895789981721
 20
-683.98717981365644
 30
0.0
 11
-1033.6377932838859
 21
-683.98717981365644
 31
0.0
 70
   128
 13
-1032.569893998171
 23
-682.22760555948582
 33
0.0
 14
-1032.5895789981721
 24
-682.60415827659551
 34
0.0
  0
DIMENSION
  5
4CEC
  8
DIM
  2
*D19
 10
-1025.004851991609
 20
-679.54218363223117
 30
0.0
 11
-1023.9685424678
 21
-679.54218363223117
 31
0.0
 70
   128
 13
-1025.0639069916081
 23
-680.02682255948582
 33
0.0
 14
-1025.004851991609
 24
-679.98154705948571
 34
0.0
  0
DIMENSION
  5
4CEE
  8
DIM
  2
*D20
 10
-1024.67020699161
 20
-683.13929036680247
 30
0.0
 11
-1023.621992705895
 21
-683.13929036680247
 31
0.0
 70
   128
 13
-1025.004851991609
 23
-682.71776205948584
 33
0.0
 14
-1024.67020699161
 24
-682.60415827659551
 34
0.0
  0
DIMENSION
  5
4CF0
  8
DIM
  2
*D21
 10
-1025.004851991609
 20
-683.74309044554775
 30
0.0
 11
-1023.9685424678
 21
-683.74309044554775
 31
0.0
 70
   128
 13
-1025.0639069916081
 23
-682.67248655948583
 33
0.0
 14
-1025.004851991609
 24
-682.71776205948584
 34
0.0
  0
DIMENSION
  5
4CF2
  8
DIM
  2
*D22
 10
-1026.9490793016171
 20
-684.10489574606186
 30
0.0
 11
-1028.092326968932
 21
-684.10489574606186
 31
0.0
 70
   128
 13
-1028.937264301617
 23
-681.34965455948566
 33
0.0
 14
-1026.9490793016171
 24
-681.34965455948566
 34
0.0
  0
DIMENSION
  5
4CF4
  8
DIM
  2
*D23
 10
-1031.073079481323
 20
-682.71776205948584
 30
0.0
 11
-1031.073079481323
 21
-681.91629050742017
 31
0.0
 70
   128
 13
-1027.943171801616
 23
-679.98154705948571
 33
0.0
 14
-1027.943171801616
 24
-682.71776205948584
 34
0.0
 50
90.0
  0
DIMENSION
  5
4CF6
  8
DIM
  2
*D24
 10
-1027.293566801616
 20
-678.81663699580065
 30
0.0
 11
-1029.5086101349509
 21
-678.81663699580065
 31
0.0
 70
   128
 13
-1028.592776801617
 23
-680.3752470594859
 33
0.0
 14
-1027.293566801616
 24
-680.3752470594859
 34
0.0
  0
DIMENSION
  5
4CF8
  8
DIM
  2
*D25
 10
-1030.292098693023
 20
-682.32406205948587
 30
0.0
 11
-1030.292098693021
 21
-680.94283775135261
 31
0.0
 70
   128
 13
-1028.592776801617
 23
-680.3752470594859
 33
0.0
 14
-1028.592776801617
 24
-682.32406205948587
 34
0.0
 50
90.0
  0
DIMENSION
  5
4CFA
  8
DIM
  2
*D26
 10
-1032.3376109981721
 20
-679.25955381661311
 30
0.0
 11
-1031.289396712458
 21
-679.25955381661311
 31
0.0
 70
   128
 13
-1032.5895789981721
 23
-680.09515084237626
 33
0.0
 14
-1032.3376109981721
 24
-680.26697955948589
 34
0.0
  0
DIMENSION
  5
4CFC
  8
DIM
  2
*D27
 10
-1032.258870998171
 20
-678.37312394880655
 30
0.0
 11
-1031.222561474362
 21
-678.37312394880655
 31
0.0
 70
   128
 13
-1032.5895789981721
 23
-680.09515084237626
 33
0.0
 14
-1032.258870998171
 24
-680.21776705948582
 34
0.0
  0
DIMENSION
  5
4CFE
  8
DIM
  2
*D28
 10
-1028.557343801617
 20
-681.3725606830991
 30
0.0
 11
-1029.6330233254259
 21
-681.3725606830991
 31
0.0
 70
   128
 13
-1028.596713801616
 23
-681.34965455948566
 33
0.0
 14
-1028.557343801617
 24
-681.34965455948566
 34
0.0
  0
DIMENSION
  5
4D00
  8
DIM
  2
*D29
 10
-1026.009868905162
 20
-682.18823555948575
 30
0.0
 11
-1026.009868905162
 21
-681.56549658546646
 31
0.0
 70
   128
 13
-1027.5258498016169
 23
-680.51107355948568
 33
0.0
 14
-1027.5258498016169
 24
-682.18823555948575
 34
0.0
 50
90.0
  0
DIMENSION
  5
4D02
  8
DIM
  2
*D30
 10
-1027.3289998016171
 20
-683.39839342924654
 30
0.0
 11
-1029.8270201875489
 21
-683.39839342924654
 31
0.0
 70
   128
 13
-1028.557343801617
 23
-681.99138555948582
 33
0.0
 14
-1027.3289998016171
 24
-681.99138555948582
 34
0.0
  0
LINE
  5
4D06
  8
\M+2BBB2\M+2A755\M+2BD75
 62
     1
 10
-1027.391991801617
 20
-680.3752470594859
 30
0.0
 11
-1027.195141801617
 21
-680.3752470594859
 31
0.0
  0
LINE
  5
4D07
  8
\M+2BBB2\M+2A755\M+2BD75
 62
     1
 10
-1027.293566801616
 20
-680.47367205948581
 30
0.0
 11
-1027.293566801616
 21
-680.27682205948588
 31
0.0
  0
LINE
  5
4D08
  8
\M+2BBB2\M+2A755\M+2BD75
 62
     1
 10
-1027.391991801617
 20
-682.32406205948587
 30
0.0
 11
-1027.195141801617
 21
-682.32406205948587
 31
0.0
  0
LINE
  5
4D09
  8
\M+2BBB2\M+2A755\M+2BD75
 62
     1
 10
-1027.293566801616
 20
-682.42248705948589
 30
0.0
 11
-1027.293566801616
 21
-682.22563705948573
 31
0.0
  0
LINE
  5
4D0A
  8
\M+2BBB2\M+2A755\M+2BD75
 62
     1
 10
-1028.691201801616
 20
-682.32406205948587
 30
0.0
 11
-1028.4943518016171
 21
-682.32406205948587
 31
0.0
  0
LINE
  5
4D0B
  8
\M+2BBB2\M+2A755\M+2BD75
 62
     1
 10
-1028.592776801617
 20
-682.42248705948589
 30
0.0
 11
-1028.592776801617
 21
-682.22563705948573
 31
0.0
  0
LINE
  5
4D0C
  8
\M+2BBB2\M+2A755\M+2BD75
 62
     1
 10
-1028.691201801616
 20
-680.3752470594859
 30
0.0
 11
-1028.4943518016171
 21
-680.3752470594859
 31
0.0
  0
LINE
  5
4D0D
  8
\M+2BBB2\M+2A755\M+2BD75
 62
     1
 10
-1028.592776801617
 20
-680.47367205948581
 30
0.0
 11
-1028.592776801617
 21
-680.27682205948588
 31
0.0
  0
DIMENSION
  5
6A0D
  8
DIM
  2
*D31
 10
-1031.064418153956
 20
-687.67699127851824
 30
0.0
 11
-1032.4156876777661
 21
-687.67699127851824
 31
0.0
 70
   128
 13
-1031.379378153955
 23
-687.05781826190139
 33
0.0
 14
-1031.064418153956
 24
-687.05781826190139
 34
0.0
  0
TEXT
  5
6F60
  8
0
 10
-1035.1340168227439
 20
-690.56219545629165
 30
0.0
 40
0.3019414868920075
  1
LID
1001
ACAD
1000
ACAD_MTEXT_DEFINED_HEIGHT_BEGIN
1070
    46
1040
0.0
1000
ACAD_MTEXT_DEFINED_HEIGHT_END
1000
MTEXTBEGIN
1070
    73
1070
     1
1070
    44
1040
1.0
1070
    74
1070
     0
1000
MTEXTEND
  0
TEXT
  5
6F61
  8
0
 10
-1031.220364382958
 20
-684.42898046034838
 30
0.0
 40
0.3019414868920075
  1
BASE
1001
ACAD
1000
ACAD_MTEXT_DEFINED_HEIGHT_BEGIN
1070
    46
1040
0.0
1000
ACAD_MTEXT_DEFINED_HEIGHT_END
1000
MTEXTBEGIN
1070
    73
1070
     1
1070
    44
1040
1.0
1070
    74
1070
     0
1000
MTEXTEND
  0
DIMENSION
  5
71A7
  8
DIM
  2
*D32
 10
-1029.4539787792639
 20
-690.40220082031919
 30
0.0
 11
-1029.4539787792639
 21
-690.63842082031931
 31
0.0
 70
   128
 13
-1027.6419539840399
 23
-690.87464082031909
 33
0.0
 14
-1027.6419539840399
 24
-690.40220082031919
 34
0.0
 50
90.0
  0
POLYLINE
  5
71BD
  8
\M+2A4A4\M+2A4DF\M+2BD75
 66
     1
 10
0.0
 20
0.0
 30
0.0
 70
     1
  0
VERTEX
  5
8AAA
  8
\M+2A4A4\M+2A4DF\M+2BD75
 10
-1023.030736361678
 20
-685.26314225400279
 30
0.0
  0
VERTEX
  5
8AAB
  8
\M+2A4A4\M+2A4DF\M+2BD75
 10
-1019.507909359735
 20
-685.26314225400279
 30
0.0
  0
VERTEX
  5
8AAC
  8
\M+2A4A4\M+2A4DF\M+2BD75
 10
-1019.507909359735
 20
-689.5172151258281
 30
0.0
  0
VERTEX
  5
8AAD
  8
\M+2A4A4\M+2A4DF\M+2BD75
 10
-1023.030736361678
 20
-689.5172151258281
 30
0.0
  0
SEQEND
  5
8AAE
  8
\M+2A4A4\M+2A4DF\M+2BD75
  0
DIMENSION
  5
7279
  8
DIM
  2
*D33
 10
-1034.9445657955359
 20
-681.71524994223239
 30
0.0
 11
-1033.9201610336311
 21
-681.71524994223239
 31
0.0
 70
   128
 13
-1034.9898251370439
 23
-681.74343445724821
 33
0.0
 14
-1034.9445657955359
 24
-681.74464396398685
 34
0.0
  0
DIMENSION
  5
7D41
  8
DIM
  2
*D34
 10
-1033.99643352165
 20
-687.15283777789705
 30
0.0
 11
-1032.4070784468381
 21
-685.74154425313156
 31
0.0
 70
   131
 15
-1033.902965796279
 25
-686.93589614354846
 35
0.0
 40
0.0
1001
ACAD
1000
DSTYLE
1002
{
1070
   288
1070
     1
1002
}
  0
DIMENSION
  5
7D4D
  8
DIM
  2
*D35
 10
-1035.216721349768
 20
-687.07479108893688
 30
0.0
 11
-1037.2155500589299
 21
-686.11304022573268
 31
0.0
 70
   131
 15
-1035.281097968161
 25
-687.01394283250875
 35
0.0
 40
0.0
1001
ACAD
1000
DSTYLE
1002
{
1070
   288
1070
     1
1002
}
  0
DIMENSION
  5
7D9C
  8
DIM
  2
*D36
 10
-1035.3767474746001
 20
-680.50235461562193
 30
0.0
 11
-1033.86397258191
 21
-679.75947351793332
 31
0.0
 70
   131
 15
-1035.190805337651
 25
-680.24813950334965
 35
0.0
 40
0.0
1001
ACAD
1000
DSTYLE
1002
{
1070
   288
1070
     1
1002
}
  0
DIMENSION
  5
7DA8
  8
DIM
  2
*D37
 10
-1035.309639606472
 20
-680.46407809431093
 30
0.0
 11
-1034.013015154324
 21
-679.34019306421328
 31
0.0
 70
   131
 15
-1035.257913205779
 25
-680.28641602466064
 35
0.0
 40
0.0
1001
ACAD
1000
DSTYLE
1002
{
1070
   288
1070
     1
1002
}
  0
DIMENSION
  5
7DB4
  8
DIM
  2
*D38
 10
-1035.263583873347
 20
-680.430742596649
 30
0.0
 11
-1036.718257207096
 21
-679.06435129131978
 31
0.0
 70
   131
 15
-1035.3039689389029
 25
-680.31975152232235
 35
0.0
 40
0.0
1001
ACAD
1000
DSTYLE
1002
{
1070
   288
1070
     1
1002
}
  0
DIMENSION
  5
7DD5
  8
DIM
  2
*D39
 10
-1028.675782734796
 20
-680.44475868882466
 30
0.0
 11
-1026.059561043955
 21
-679.06566536898981
 31
0.0
 70
   131
 15
-1028.509770868437
 25
-680.30573543014668
 35
0.0
 40
0.0
1001
ACAD
1000
DSTYLE
1002
{
1070
   288
1070
     1
1002
}
  0
INSERT
  5
7F0D
  8
0
  2
*U48
 10
0.0
 20
0.0
 30
0.0
  0
INSERT
  5
8218
  8
0
 66
     1
  2
C
 10
-1039.3200120911461
 20
-694.09693853339934
 30
0.0
  0
ATTRIB
  5
8219
  8
TEXT
 10
-1023.920286575368
 20
-693.55753348778171
 30
0.0
 40
0.125
  1
RD
 41
0.75
  7
TXT
 72
     1
 11
-1023.842161575369
 21
-693.55753348778171
 31
0.0
  2
NAME
 70
     4
  0
ATTRIB
  5
821A
  8
TEXT
 10
-1023.45927611483
 20
-693.55753348778171
 30
0.0
 40
0.125
  1
10-13-08
 41
0.75
  7
TXT
 72
     1
 11
-1023.14677611483
 21
-693.55753348778171
 31
0.0
  2
DATE
 70
     4
  0
ATTRIB
  5
821B
  8
TEXT
 10
-1020.855139291102
 20
-693.38633171606898
 30
0.0
 40
0.125
  1
HAND-HELD BOX STYLE P
 41
0.75
  7
TXT
 72
     1
 11
-1019.886389291101
 21
-693.38633171606898
 31
0.0
  2
TITLE1
 70
     4
  0
ATTRIB
  5
821C
  8
TEXT
 10
-1020.558264291101
 20
-693.59746118219516
 30
0.0
 40
0.125
  1
2.74 X 1.97 X .83
 41
0.75
  7
TXT
 72
     1
 11
-1019.886389291101
 21
-693.59746118219516
 31
0.0
  2
TITLE2
 70
     4
  0
ATTRIB
  5
821D
  8
TEXT
 10
-1020.060264502766
 20
-693.99071420023506
 30
0.0
 40
0.156
  1
HH-3641
 41
0.75
  7
TXT
 72
     1
 11
-1019.689764502767
 21
-693.99071420023506
 31
0.0
  2
PART
 70
     4
  0
ATTRIB
  5
821E
  8
TEXT
 10
-1020.060264502766
 20
-678.41929769736294
 30
0.0
 40
0.156
  1
HH-3641
 41
0.75
  7
TXT
 72
     1
 11
-1019.689764502767
 21
-678.41929769736294
 31
0.0
  2
PART
 70
     4
  0
ATTRIB
  5
821F
  8
TEXT
 10
-1028.2631144869961
 20
-692.91492619830183
 30
0.0
 40
0.125
  1

 41
4.9364164263857306
  7
TXT
 72
     5
 11
-1024.3551181494411
 21
-692.91492619830183
 31
0.0
  2
CUTSIZE
 70
     4
  0
ATTRIB
  5
8220
  8
TEXT
 10
-1028.125641402017
 20
-693.8101597064383
 30
0.0
 40
0.125
  1

 41
0.75
  7
TXT
 72
     1
 11
-1028.125641402017
 21
-693.8101597064383
 31
0.0
  2
QTY
 70
     4
  0
ATTRIB
  5
8221
  8
TEXT
 10
-1027.18095788862
 20
-693.8101597064383
 30
0.0
 40
0.125
  1

 41
0.75
  7
TXT
 72
     1
 11
-1027.18095788862
 21
-693.8101597064383
 31
0.0
  2
USED
 70
     4
  0
ATTRIB
  5
8222
  8
TEXT
 10
-1023.455405868233
 20
-693.1414061623293
 30
0.0
 40
0.125
  1
NOTED
 41
0.75
  7
TXT
 72
     1
 11
-1023.236655868233
 21
-693.1414061623293
 31
0.0
  2
MAT
 70
     4
  0
ATTRIB
  5
8223
  8
TEXT
 10
-1023.455405868233
 20
-693.35328432553865
 30
0.0
 40
0.125
  1
BLACK
 41
0.75
  7
TXT
 72
     1
 11
-1023.236655868233
 21
-693.35328432553865
 31
0.0
  2
FINISH
 70
     4
  0
SEQEND
  5
8224
  8
0
  0
INSERT
  5
8547
  8
0
 66
     1
  2
REVCHART
 10
-1021.257512091147
 20
-678.78443853339934
 30
0.0
  0
ATTRIB
  5
8548
  8
TEXT
 10
-1020.982512091147
 20
-679.08395160402461
 30
0.0
 40
0.15
  1
A
 41
0.75
  7
TXT
 72
     4
 11
-1020.9450120911461
 21
-679.00895160402456
 31
0.0
  2
REV
 70
     4
  0
ATTRIB
  5
8549
  8
TEXT
 62
     1
 10
-1020.540263266145
 20
-678.97769820365443
 30
0.0
 40
0.125
  1
SCREW DESCRIPTION
 41
0.75
  7
TXT
  2
REV1
 70
     4
  0
ATTRIB
  5
854A
  8
TEXT
 62
     1
 10
-1020.540263266145
 20
-679.18603153698757
 30
0.0
 40
0.125
  1
ADDED  7-9-15
 41
0.75
  7
TXT
  2
REV2
 70
     4
  0
SEQEND
  5
854B
  8
0
  0
ENDSEC
  0
EOF
