  0
SECTION
  2
HEADER
  9
$ACADVER
  1
AC1009
  9
$INSBASE
 10
0.0
 20
0.0
 30
0.0
  9
$EXTMIN
 10
-690.69006070354078
 20
-845.66516259554055
 30
-0.0000000000000058
  9
$EXTMAX
 10
-670.0991311095836
 20
-829.53764585847603
 30
0.0000000000000104
  9
$LIMMIN
 10
0.0
 20
0.0
  9
$LIMMAX
 10
420.0
 20
297.0
  9
$ORTHOMODE
 70
     1
  9
$REGENMODE
 70
     1
  9
$FILLMODE
 70
     1
  9
$QTEXTMODE
 70
     0
  9
$MIRRTEXT
 70
     0
  9
$DRAGMODE
 70
     2
  9
$LTSCALE
 40
0.04
  9
$OSMODE
 70
   229
  9
$ATTMODE
 70
     1
  9
$TEXTSIZE
 40
2.5
  9
$TRACEWID
 40
1.0
  9
$TEXTSTYLE
  7
STANDARD
  9
$CLAYER
  8
DIM
  9
$CELTYPE
  6
BYLAYER
  9
$CECOLOR
 62
   256
  9
$DIMSCALE
 40
1.0
  9
$DIMASZ
 40
0.18
  9
$DIMEXO
 40
0.0625
  9
$DIMDLI
 40
0.38
  9
$DIMRND
 40
0.0
  9
$DIMDLE
 40
0.0
  9
$DIMEXE
 40
0.18
  9
$DIMTP
 40
0.0
  9
$DIMTM
 40
0.0
  9
$DIMTXT
 40
0.125
  9
$DIMCEN
 40
0.09
  9
$DIMTSZ
 40
0.0
  9
$DIMTOL
 70
     0
  9
$DIMLIM
 70
     0
  9
$DIMTIH
 70
     1
  9
$DIMTOH
 70
     1
  9
$DIMSE1
 70
     0
  9
$DIMSE2
 70
     0
  9
$DIMTAD
 70
     0
  9
$DIMZIN
 70
     0
  9
$DIMBLK
  1

  9
$DIMASO
 70
     1
  9
$DIMSHO
 70
     1
  9
$DIMPOST
  1

  9
$DIMAPOST
  1

  9
$DIMALT
 70
     1
  9
$DIMALTD
 70
     2
  9
$DIMALTF
 40
25.399999999999999
  9
$DIMLFAC
 40
1.0
  9
$DIMTOFL
 70
     0
  9
$DIMTVP
 40
0.0
  9
$DIMTIX
 70
     0
  9
$DIMSOXD
 70
     0
  9
$DIMSAH
 70
     0
  9
$DIMBLK1
  1

  9
$DIMBLK2
  1

  9
$DIMSTYLE
  2
STANDARD
  9
$DIMCLRD
 70
     1
  9
$DIMCLRE
 70
     0
  9
$DIMCLRT
 70
     0
  9
$DIMTFAC
 40
1.0
  9
$DIMGAP
 40
0.09
  9
$LUNITS
 70
     2
  9
$LUPREC
 70
     3
  9
$SKETCHINC
 40
1.0
  9
$FILLETRAD
 40
1.5
  9
$AUNITS
 70
     0
  9
$AUPREC
 70
     0
  9
$MENU
  1
.
  9
$ELEVATION
 40
0.0
  9
$PELEVATION
 40
0.0
  9
$THICKNESS
 40
0.0
  9
$LIMCHECK
 70
     0
  9
$BLIPMODE
 70
     0
  9
$CHAMFERA
 40
0.5
  9
$CHAMFERB
 40
0.5
  9
$SKPOLY
 70
     0
  9
$TDCREATE
 40
2453229.9362548962
  9
$TDUPDATE
 40
2457213.345716319
  9
$TDINDWG
 40
1.2923839468
  9
$TDUSRTIMER
 40
1.2923839468
  9
$USRTIMER
 70
     1
  9
$ANGBASE
 50
0.0
  9
$ANGDIR
 70
     0
  9
$PDMODE
 70
     0
  9
$PDSIZE
 40
0.0
  9
$PLINEWID
 40
0.0
  9
$COORDS
 70
     2
  9
$SPLFRAME
 70
     0
  9
$SPLINETYPE
 70
     6
  9
$SPLINESEGS
 70
     8
  9
$ATTDIA
 70
     0
  9
$ATTREQ
 70
     1
  9
$HANDLING
 70
  4097
  9
$HANDSEED
  5
717A
  9
$SURFTAB1
 70
     6
  9
$SURFTAB2
 70
     6
  9
$SURFTYPE
 70
     6
  9
$SURFU
 70
     6
  9
$SURFV
 70
     6
  9
$UCSNAME
  2

  9
$UCSORG
 10
-969.08573821837876
 20
0.7538823923855489
 30
0.0
  9
$UCSXDIR
 10
1.0
 20
0.0
 30
0.0
  9
$UCSYDIR
 10
0.0
 20
1.0
 30
0.0
  9
$PUCSNAME
  2

  9
$PUCSORG
 10
0.0
 20
0.0
 30
0.0
  9
$PUCSXDIR
 10
1.0
 20
0.0
 30
0.0
  9
$PUCSYDIR
 10
0.0
 20
1.0
 30
0.0
  9
$USERI1
 70
     0
  9
$USERI2
 70
     0
  9
$USERI3
 70
     0
  9
$USERI4
 70
     0
  9
$USERI5
 70
     0
  9
$USERR1
 40
0.0
  9
$USERR2
 40
0.0
  9
$USERR3
 40
0.0
  9
$USERR4
 40
0.0
  9
$USERR5
 40
0.0
  9
$WORLDVIEW
 70
     1
  9
$SHADEDGE
 70
     3
  9
$SHADEDIF
 70
    70
  9
$TILEMODE
 70
     1
  9
$MAXACTVP
 70
    64
  9
$PLIMCHECK
 70
     0
  9
$PEXTMIN
 10
0.0
 20
0.0
 30
0.0
  9
$PEXTMAX
 10
0.0
 20
0.0
 30
0.0
  9
$PLIMMIN
 10
0.0
 20
0.0
  9
$PLIMMAX
 10
12.0
 20
9.0
  9
$UNITMODE
 70
     0
  9
$VISRETAIN
 70
     1
  9
$PLINEGEN
 70
     0
  9
$PSLTSCALE
 70
     1
  0
ENDSEC
  0
SECTION
  2
TABLES
  0
TABLE
  2
VPORT
 70
     4
  0
VPORT
  2
*ACTIVE
 70
     0
 10
0.0
 20
0.0
 11
1.0
 21
1.0
 12
-680.39459590656224
 22
-837.60140422700817
 13
0.0
 23
0.0
 14
10.0
 24
10.0
 15
10.0
 25
10.0
 16
0.0
 26
0.0
 36
1.0
 17
0.0
 27
0.0
 37
0.0
 40
16.289874288108869
 41
1.8369747899159661
 42
50.0
 43
0.0
 44
0.0
 50
0.0
 51
0.0
 71
     0
 72
  1000
 73
     1
 74
     3
 75
     0
 76
     0
 77
     0
 78
     0
  0
ENDTAB
  0
TABLE
  2
LTYPE
 70
     5
  0
LTYPE
  2
CONTINUOUS
 70
     0
  3
Solid line
 72
    65
 73
     0
 40
0.0
  0
LTYPE
  2
ACAD_ISO04W100
 70
     0
  3
ISO long-dash dot ____ . ____ . ____ . ____ . _
 72
    65
 73
     4
 40
30.0
 49
24.0
 49
-3.0
 49
0.0
 49
-3.0
  0
LTYPE
  2
DASHED2
 70
     0
  3
Dashed (.5x) _ _ _ _ _ _ _ _ _ _ _ _ _ _ _ _ _
 72
    65
 73
     2
 40
9.5249999999999968
 49
6.3499999999999979
 49
-3.174999999999998
  0
LTYPE
  2
HIDDEN2
 70
     0
  3
Hidden (.5x) _ _ _ _ _ _ _ _ _ _ _ _ _ _ _ _ _
 72
    65
 73
     2
 40
4.7624999999999984
 49
3.174999999999998
 49
-1.587499999999999
  0
LTYPE
  2
HIDDEN
 70
     0
  3
Hidden __ __ __ __ __ __ __ __ __ __ __ __ __ _
 72
    65
 73
     2
 40
0.375
 49
0.25
 49
-0.125
  0
ENDTAB
  0
TABLE
  2
LAYER
 70
    10
  0
LAYER
  2
0
 70
     0
 62
     7
  6
CONTINUOUS
  0
LAYER
  2
\M+2B5EA\M+2BD75
 70
     0
 62
     7
  6
HIDDEN2
  0
LAYER
  2
\M+2A4A4\M+2A4DF\M+2BD75
 70
     0
 62
     7
  6
ACAD_ISO04W100
  0
LAYER
  2
\M+2ADE5\M+2ADB1\M+2BD75
 70
     0
 62
     7
  6
CONTINUOUS
  0
LAYER
  2
\M+2BBB2\M+2A755\M+2BD75
 70
     0
 62
     7
  6
CONTINUOUS
  0
LAYER
  2
DEFPOINTS
 70
     0
 62
     7
  6
CONTINUOUS
  0
LAYER
  2
DIM
 70
     0
 62
     1
  6
CONTINUOUS
  0
LAYER
  2
OBJECT
 70
     0
 62
     7
  6
CONTINUOUS
  0
LAYER
  2
TEXT
 70
     0
 62
     1
  6
CONTINUOUS
  0
LAYER
  2
TITLE
 70
     0
 62
     8
  6
CONTINUOUS
  0
ENDTAB
  0
TABLE
  2
STYLE
 70
     2
  0
STYLE
  2
STANDARD
 70
     0
 40
0.0
 41
1.0
 50
0.0
 71
     0
 42
2.5
  3
txt
  4

  0
STYLE
  2
TXT
 70
     0
 40
0.0
 41
0.75
 50
0.0
 71
     0
 42
0.3125
  3
txt
  4

  0
ENDTAB
  0
TABLE
  2
VIEW
 70
     0
  0
ENDTAB
  0
TABLE
  2
UCS
 70
     0
  0
ENDTAB
  0
TABLE
  2
APPID
 70
     5
  0
APPID
  2
ACAD
 70
     0
  0
APPID
  2
DCO15
 70
     0
  0
APPID
  2
ADE
 70
     0
  0
APPID
  2
ACAD_DSTYLE_DIMTEXT_FILL
 70
     0
  0
APPID
  2
ACAD_EXEMPT_FROM_CAD_STAND
 70
     0
  0
ENDTAB
  0
TABLE
  2
DIMSTYLE
 70
     3
  0
DIMSTYLE
  2
STANDARD
 70
     0
  3

  4

  5

  6

  7

 40
1.0
 41
0.18
 42
0.0625
 43
0.38
 44
0.18
 45
0.0
 46
0.0
 47
0.0
 48
0.0
140
0.125
141
0.09
142
0.0
143
25.399999999999999
144
1.0
145
0.0
146
1.0
147
0.09
 71
     0
 72
     0
 73
     1
 74
     1
 75
     0
 76
     0
 77
     0
 78
     0
170
     1
171
     2
172
     0
173
     0
174
     0
175
     0
176
     1
177
     0
178
     0
  0
DIMSTYLE
  2
23NSTD
 70
     0
  3

  4

  5

  6

  7

 40
1.0
 41
0.18
 42
0.063
 43
0.281
 44
0.093
 45
0.0
 46
0.0
 47
0.0
 48
0.0
140
0.125
141
0.09
142
0.0
143
25.399999999999999
144
1.0
145
0.0
146
1.0
147
0.09
 71
     0
 72
     0
 73
     1
 74
     1
 75
     0
 76
     0
 77
     0
 78
     0
170
     0
171
     0
172
     0
173
     0
174
     0
175
     0
176
     0
177
     0
178
     0
  0
DIMSTYLE
  2
23NSTDI
 70
     0
  3

  4

  5

  6

  7

 40
1.0
 41
0.18
 42
0.063
 43
0.281
 44
0.093
 45
0.0
 46
0.0
 47
0.0
 48
0.0
140
0.125
141
0.09
142
0.0
143
25.399999999999999
144
1.0
145
0.0
146
1.0
147
0.09
 71
     0
 72
     0
 73
     1
 74
     1
 75
     0
 76
     0
 77
     0
 78
     0
170
     0
171
     0
172
     0
173
     0
174
     1
175
     0
176
     0
177
     0
178
     0
  0
ENDTAB
  0
ENDSEC
  0
SECTION
  2
BLOCKS
  0
BLOCK
  8
0
  2
$MODEL_SPACE
 70
     0
 10
0.0
 20
0.0
 30
0.0
  3
$MODEL_SPACE
  1

  0
ENDBLK
  5
21
  8
0
  0
BLOCK
 67
     1
  8
0
  2
$PAPER_SPACE
 70
     0
 10
0.0
 20
0.0
 30
0.0
  3
$PAPER_SPACE
  1

  0
ENDBLK
  5
53
 67
     1
  8
0
  0
BLOCK
  8
0
  2
*D1
 70
     1
 10
0.0
 20
0.0
 30
0.0
  3
*D1
  1

  0
LINE
  5
69BF
  8
DIM
 62
     0
 10
-687.44761973299057
 20
-841.39659622562306
 30
0.0
 11
-687.44761973299057
 21
-837.74903252101444
 31
0.0
  0
LINE
  5
69C0
  8
DIM
 62
     0
 10
-684.96730973299066
 20
-841.39659622562363
 30
0.0
 11
-684.96730973299066
 21
-837.74903252101444
 31
0.0
  0
LINE
  5
69C1
  8
DIM
 62
     1
 10
-687.26761973299074
 20
-837.92903252101439
 30
0.0
 11
-686.9550843394469
 21
-837.92903252101439
 31
0.0
  0
LINE
  5
69C2
  8
DIM
 62
     1
 10
-685.14730973299072
 20
-837.92903252101439
 30
0.0
 11
-685.45960814897069
 21
-837.92903252101439
 31
0.0
  0
SOLID
  5
69C3
  8
DIM
 62
     1
 10
-687.26761973299074
 20
-837.89903252101442
 30
0.0
 11
-687.26761973299074
 21
-837.95903252101425
 31
0.0
 12
-687.44761973299057
 22
-837.92903252101439
 32
0.0
 13
-687.44761973299057
 23
-837.92903252101439
 33
0.0
  0
SOLID
  5
69C4
  8
DIM
 62
     1
 10
-685.14730973299072
 20
-837.89903252101442
 30
0.0
 11
-685.14730973299072
 21
-837.95903252101425
 31
0.0
 12
-684.96730973299066
 22
-837.92903252101439
 32
0.0
 13
-684.96730973299066
 23
-837.92903252101439
 33
0.0
  0
TEXT
  5
69C5
  8
DIM
 62
     0
 10
-686.86508433944675
 20
-837.97069918768102
 30
0.0
 40
0.125
  1
2.480 [63.00]
  0
POINT
  5
69C6
  8
DEFPOINTS
 62
     0
 10
-687.44761973299057
 20
-841.45909622562294
 30
0.0
  0
POINT
  5
69C7
  8
DEFPOINTS
 62
     0
 10
-684.96730973299066
 20
-841.45909622562363
 30
0.0
  0
POINT
  5
69C8
  8
DEFPOINTS
 62
     0
 10
-684.96730973299066
 20
-837.92903252101439
 30
0.0
  0
ENDBLK
  5
1720
  8
0
  0
BLOCK
  8
0
  2
*D2
 70
     1
 10
0.0
 20
0.0
 30
0.0
  3
*D2
  1

  0
LINE
  5
69C9
  8
DIM
 62
     0
 10
-687.08344723299069
 20
-840.46155872562019
 30
0.0
 11
-687.08344723299069
 21
-838.3389102136822
 31
0.0
  0
LINE
  5
69CA
  8
DIM
 62
     0
 10
-685.33166882892863
 20
-840.46686033652668
 30
0.0
 11
-685.33166882892863
 21
-838.3389102136822
 31
0.0
  0
LINE
  5
69CB
  8
DIM
 62
     1
 10
-687.26344723299064
 20
-838.51891021368215
 30
0.0
 11
-687.44344723299071
 21
-838.51891021368215
 31
0.0
  0
LINE
  5
69CC
  8
DIM
 62
     1
 10
-685.15166882892868
 20
-838.51891021368215
 30
0.0
 11
-684.9716688289285
 21
-838.51891021368215
 31
0.0
  0
SOLID
  5
69CD
  8
DIM
 62
     1
 10
-687.26344723299064
 20
-838.48891021368217
 30
0.0
 11
-687.26344723299064
 21
-838.54891021368235
 31
0.0
 12
-687.08344723299069
 22
-838.51891021368215
 32
0.0
 13
-687.08344723299069
 23
-838.51891021368215
 33
0.0
  0
SOLID
  5
69CE
  8
DIM
 62
     1
 10
-685.15166882892868
 20
-838.48891021368217
 30
0.0
 11
-685.15166882892868
 21
-838.54891021368235
 31
0.0
 12
-685.33166882892863
 22
-838.51891021368215
 32
0.0
 13
-685.33166882892863
 23
-838.51891021368215
 33
0.0
  0
TEXT
  5
69CF
  8
DIM
 62
     0
 10
-686.95462515598285
 20
-838.56057688034878
 30
0.0
 40
0.125
  1
1.752 [44.50]
  0
POINT
  5
69D0
  8
DEFPOINTS
 62
     0
 10
-687.08344723299069
 20
-840.52405872562031
 30
0.0
  0
POINT
  5
69D1
  8
DEFPOINTS
 62
     0
 10
-685.33166882892863
 20
-840.52936033652668
 30
0.0
  0
POINT
  5
69D2
  8
DEFPOINTS
 62
     0
 10
-685.33166882892863
 20
-838.51891021368215
 30
0.0
  0
ENDBLK
  5
1738
  8
0
  0
BLOCK
  8
0
  2
*D3
 70
     1
 10
0.0
 20
0.0
 30
0.0
  3
*D3
  1

  0
LINE
  5
69D3
  8
DIM
 62
     0
 10
-687.02439223299075
 20
-840.08754372562032
 30
0.0
 11
-687.02439223299075
 21
-838.91957106740199
 31
0.0
  0
LINE
  5
69D4
  8
DIM
 62
     0
 10
-685.39053723299071
 20
-840.08754372562032
 30
0.0
 11
-685.39053723299071
 21
-838.91957106740199
 31
0.0
  0
LINE
  5
69D5
  8
DIM
 62
     1
 10
-687.2043922329907
 20
-839.09957106740194
 30
0.0
 11
-687.38439223299065
 21
-839.09957106740194
 31
0.0
  0
LINE
  5
69D6
  8
DIM
 62
     1
 10
-685.21053723299076
 20
-839.09957106740194
 30
0.0
 11
-685.03053723299058
 21
-839.09957106740194
 31
0.0
  0
SOLID
  5
69D7
  8
DIM
 62
     1
 10
-687.2043922329907
 20
-839.06957106740197
 30
0.0
 11
-687.2043922329907
 21
-839.1295710674018
 31
0.0
 12
-687.02439223299075
 22
-839.09957106740194
 32
0.0
 13
-687.02439223299075
 23
-839.09957106740194
 33
0.0
  0
SOLID
  5
69D8
  8
DIM
 62
     1
 10
-685.21053723299076
 20
-839.06957106740197
 30
0.0
 11
-685.21053723299076
 21
-839.1295710674018
 31
0.0
 12
-685.39053723299071
 22
-839.09957106740194
 32
0.0
 13
-685.39053723299071
 23
-839.09957106740194
 33
0.0
  0
TEXT
  5
69D9
  8
DIM
 62
     0
 10
-686.88738650814298
 20
-839.14123773406845
 30
0.0
 40
0.125
  1
1.634 [41.50]
  0
POINT
  5
69DA
  8
DEFPOINTS
 62
     0
 10
-687.02439223299075
 20
-840.15004372562032
 30
0.0
  0
POINT
  5
69DB
  8
DEFPOINTS
 62
     0
 10
-685.39053723299071
 20
-840.15004372562032
 30
0.0
  0
POINT
  5
69DC
  8
DEFPOINTS
 62
     0
 10
-685.39053723299071
 20
-839.09957106740194
 30
0.0
  0
ENDBLK
  5
1750
  8
0
  0
BLOCK
  8
0
  2
*D4
 70
     1
 10
0.0
 20
0.0
 30
0.0
  3
*D4
  1

  0
LINE
  5
6AAB
  8
DIM
 62
     0
 10
-686.26996473299073
 20
-839.71697372562039
 30
0.0
 11
-690.0737029544639
 21
-839.71697372562039
 31
0.0
  0
LINE
  5
6AAC
  8
DIM
 62
     0
 10
-686.26996473299096
 20
-843.20121872562117
 30
0.0
 11
-690.0737029544639
 21
-843.20121872562117
 31
0.0
  0
LINE
  5
6AAD
  8
DIM
 62
     1
 10
-689.89370295446395
 20
-839.89697372562034
 30
0.0
 11
-689.89370295446395
 21
-841.80469992452265
 31
0.0
  0
LINE
  5
6AAE
  8
DIM
 62
     1
 10
-689.89370295446395
 20
-843.02121872562134
 30
0.0
 11
-689.89370295446395
 21
-842.17517611499875
 31
0.0
  0
SOLID
  5
6AAF
  8
DIM
 62
     1
 10
-689.92370295446403
 20
-839.89697372562034
 30
0.0
 11
-689.86370295446409
 21
-839.89697372562034
 31
0.0
 12
-689.89370295446395
 22
-839.71697372562039
 32
0.0
 13
-689.89370295446395
 23
-839.71697372562039
 33
0.0
  0
SOLID
  5
6AB0
  8
DIM
 62
     1
 10
-689.92370295446403
 20
-843.02121872562134
 30
0.0
 11
-689.86370295446409
 21
-843.02121872562134
 31
0.0
 12
-689.89370295446395
 22
-843.20121872562117
 32
0.0
 13
-689.89370295446395
 23
-843.20121872562117
 33
0.0
  0
TEXT
  5
6AB1
  8
DIM
 62
     0
 10
-690.55144104970191
 20
-842.0316046864275
 30
0.0
 40
0.125
  1
3.484 [88.50]
  0
POINT
  5
6AB2
  8
DEFPOINTS
 62
     0
 10
-686.20746473299073
 20
-839.71697372562039
 30
0.0
  0
POINT
  5
6AB3
  8
DEFPOINTS
 62
     0
 10
-686.20746473299107
 20
-843.20121872562117
 30
0.0
  0
POINT
  5
6AB4
  8
DEFPOINTS
 62
     0
 10
-689.89370295446395
 20
-843.20121872562117
 30
0.0
  0
ENDBLK
  5
1779
  8
0
  0
BLOCK
  8
0
  2
*D5
 70
     1
 10
0.0
 20
0.0
 30
0.0
  3
*D5
  1

  0
LINE
  5
6AA1
  8
DIM
 62
     0
 10
-687.08689223299075
 20
-840.15004372562032
 30
0.0
 11
-689.31058102845566
 21
-840.15004372562032
 31
0.0
  0
LINE
  5
6AA2
  8
DIM
 62
     0
 10
-687.08689223299075
 20
-842.76814872562034
 30
0.0
 11
-689.31058102845566
 21
-842.76814872562034
 31
0.0
  0
LINE
  5
6AA3
  8
DIM
 62
     1
 10
-689.13058102845559
 20
-840.33004372562016
 30
0.0
 11
-689.13058102845559
 21
-840.89222229676989
 31
0.0
  0
LINE
  5
6AA4
  8
DIM
 62
     1
 10
-689.13058102845559
 20
-842.58814872562016
 30
0.0
 11
-689.13058102845559
 21
-841.26269848724598
 31
0.0
  0
SOLID
  5
6AA5
  8
DIM
 62
     1
 10
-689.16058102845557
 20
-840.33004372562016
 30
0.0
 11
-689.10058102845574
 21
-840.33004372562016
 31
0.0
 12
-689.13058102845559
 22
-840.15004372562032
 32
0.0
 13
-689.13058102845559
 23
-840.15004372562032
 33
0.0
  0
SOLID
  5
6AA6
  8
DIM
 62
     1
 10
-689.16058102845557
 20
-842.58814872562016
 30
0.0
 11
-689.10058102845574
 21
-842.58814872562016
 31
0.0
 12
-689.13058102845559
 22
-842.76814872562034
 32
0.0
 13
-689.13058102845559
 23
-842.76814872562034
 33
0.0
  0
TEXT
  5
6AA7
  8
DIM
 62
     0
 10
-689.77641436178885
 20
-841.11912705867485
 30
0.0
 40
0.125
  1
2.618 [66.50]
  0
POINT
  5
6AA8
  8
DEFPOINTS
 62
     0
 10
-687.02439223299075
 20
-840.15004372562032
 30
0.0
  0
POINT
  5
6AA9
  8
DEFPOINTS
 62
     0
 10
-687.02439223299075
 20
-842.76814872562034
 30
0.0
  0
POINT
  5
6AAA
  8
DEFPOINTS
 62
     0
 10
-689.13058102845559
 20
-842.76814872562034
 30
0.0
  0
ENDBLK
  5
1791
  8
0
  0
BLOCK
  8
0
  2
*D6
 70
     1
 10
0.0
 20
0.0
 30
0.0
  3
*D6
  1

  0
LINE
  5
6A97
  8
DIM
 62
     0
 10
-687.14594723299069
 20
-840.52405872562031
 30
0.0
 11
-688.46569611591804
 21
-840.52405872562031
 31
0.0
  0
LINE
  5
6A98
  8
DIM
 62
     0
 10
-687.14594723299069
 20
-842.39413372562035
 30
0.0
 11
-688.46569611591804
 21
-842.39413372562035
 31
0.0
  0
LINE
  5
6A99
  8
DIM
 62
     1
 10
-688.28569611591797
 20
-840.70405872562026
 30
0.0
 11
-688.28569611591797
 21
-841.64127108774869
 31
0.0
  0
LINE
  5
6A9A
  8
DIM
 62
     1
 10
-688.28569611591797
 20
-842.21413372562051
 30
0.0
 11
-688.28569611591797
 21
-842.01174727822479
 31
0.0
  0
SOLID
  5
6A9B
  8
DIM
 62
     1
 10
-688.31569611591794
 20
-840.70405872562026
 30
0.0
 11
-688.25569611591811
 21
-840.70405872562026
 31
0.0
 12
-688.28569611591797
 22
-840.52405872562031
 32
0.0
 13
-688.28569611591797
 23
-840.52405872562031
 33
0.0
  0
SOLID
  5
6A9C
  8
DIM
 62
     1
 10
-688.31569611591794
 20
-842.21413372562051
 30
0.0
 11
-688.25569611591811
 21
-842.21413372562051
 31
0.0
 12
-688.28569611591797
 22
-842.39413372562035
 32
0.0
 13
-688.28569611591797
 23
-842.39413372562035
 33
0.0
  0
TEXT
  5
6A9D
  8
DIM
 62
     0
 10
-688.93152944925123
 20
-841.86817584965365
 30
0.0
 40
0.125
  1
1.870 [47.50]
  0
POINT
  5
6A9E
  8
DEFPOINTS
 62
     0
 10
-687.08344723299069
 20
-840.52405872562031
 30
0.0
  0
POINT
  5
6A9F
  8
DEFPOINTS
 62
     0
 10
-687.08344723299069
 20
-842.39413372562035
 30
0.0
  0
POINT
  5
6AA0
  8
DEFPOINTS
 62
     0
 10
-688.28569611591797
 20
-842.39413372562035
 30
0.0
  0
ENDBLK
  5
17A9
  8
0
  0
BLOCK
  8
0
  2
*D7
 70
     1
 10
0.0
 20
0.0
 30
0.0
  3
*D7
  1

  0
LINE
  5
6AB5
  8
DIM
 62
     0
 10
-682.30942623837132
 20
-839.85095552676671
 30
0.0
 11
-682.30942623837132
 21
-837.58802651879273
 31
0.0
  0
LINE
  5
6AB6
  8
DIM
 62
     0
 10
-681.75824623837116
 20
-839.69778072562019
 30
0.0
 11
-681.75824623837116
 21
-837.58802651879273
 31
0.0
  0
LINE
  5
6AB7
  8
DIM
 62
     1
 10
-681.93824623837122
 20
-837.76802651879257
 30
0.0
 11
-682.12942623837125
 21
-837.76802651879257
 31
0.0
  0
LINE
  5
6AB8
  8
DIM
 62
     1
 10
-682.30942623837132
 20
-837.76802651879257
 30
0.0
 11
-682.60147514516825
 21
-837.76802651879257
 31
0.0
  0
SOLID
  5
6AB9
  8
DIM
 62
     1
 10
-681.93824623837122
 20
-837.73802651879271
 30
0.0
 11
-681.93824623837122
 21
-837.79802651879254
 31
0.0
 12
-681.75824623837116
 22
-837.76802651879257
 32
0.0
 13
-681.75824623837116
 23
-837.76802651879257
 33
0.0
  0
SOLID
  5
6ABA
  8
DIM
 62
     1
 10
-682.12942623837125
 20
-837.73802651879271
 30
0.0
 11
-682.12942623837125
 21
-837.79802651879254
 31
0.0
 12
-682.30942623837132
 22
-837.76802651879257
 32
0.0
 13
-682.30942623837132
 23
-837.76802651879257
 33
0.0
  0
TEXT
  5
6ABB
  8
DIM
 62
     0
 10
-683.95933228802539
 20
-837.8096931854592
 30
0.0
 40
0.125
  1
0.551 [14.00]
  0
POINT
  5
6ABC
  8
DEFPOINTS
 62
     0
 10
-682.30942623837132
 20
-839.9134555267666
 30
0.0
  0
POINT
  5
6ABD
  8
DEFPOINTS
 62
     0
 10
-681.75824623837116
 20
-839.76028072562019
 30
0.0
  0
POINT
  5
6ABE
  8
DEFPOINTS
 62
     0
 10
-681.75824623837116
 20
-837.76802651879257
 30
0.0
  0
ENDBLK
  5
17D9
  8
0
  0
BLOCK
  8
0
  2
*D8
 70
     1
 10
0.0
 20
0.0
 30
0.0
  3
*D8
  1

  0
LINE
  5
6AD3
  8
DIM
 62
     0
 10
-678.08946323576015
 20
-840.33311422562326
 30
0.0
 11
-679.97816749166975
 21
-840.33311422562326
 31
0.0
  0
LINE
  5
6AD4
  8
DIM
 62
     0
 10
-678.08946323576015
 20
-840.37248422562334
 30
0.0
 11
-679.97816749166975
 21
-840.37248422562334
 31
0.0
  0
LINE
  5
6AD5
  8
DIM
 62
     1
 10
-679.7981674916698
 20
-840.15311422562331
 30
0.0
 11
-679.7981674916698
 21
-839.97311422562336
 31
0.0
  0
LINE
  5
6AD6
  8
DIM
 62
     1
 10
-679.7981674916698
 20
-840.55248422562318
 30
0.0
 11
-679.7981674916698
 21
-841.43155619821277
 31
0.0
  0
LINE
  5
6AD7
  8
DIM
 62
     1
 10
-679.7981674916698
 20
-841.43155619821277
 30
0.0
 11
-679.97816749166975
 21
-841.43155619821277
 31
0.0
  0
SOLID
  5
6AD8
  8
DIM
 62
     1
 10
-679.82816749166966
 20
-840.15311422562331
 30
0.0
 11
-679.76816749166983
 21
-840.15311422562331
 31
0.0
 12
-679.7981674916698
 22
-840.33311422562326
 32
0.0
 13
-679.7981674916698
 23
-840.33311422562326
 33
0.0
  0
SOLID
  5
6AD9
  8
DIM
 62
     1
 10
-679.82816749166966
 20
-840.55248422562318
 30
0.0
 11
-679.76816749166983
 21
-840.55248422562318
 31
0.0
 12
-679.7981674916698
 22
-840.37248422562334
 32
0.0
 13
-679.7981674916698
 23
-840.37248422562334
 33
0.0
  0
TEXT
  5
6ADA
  8
DIM
 62
     0
 10
-681.24078653928848
 20
-841.47322286487963
 30
0.0
 40
0.125
  1
0.039 [1.00]
  0
POINT
  5
6ADB
  8
DEFPOINTS
 62
     0
 10
-678.02696323576015
 20
-840.33311422562326
 30
0.0
  0
POINT
  5
6ADC
  8
DEFPOINTS
 62
     0
 10
-678.02696323576015
 20
-840.37248422562334
 30
0.0
  0
POINT
  5
6ADD
  8
DEFPOINTS
 62
     0
 10
-679.7981674916698
 20
-840.37248422562334
 30
0.0
  0
ENDBLK
  5
17FB
  8
0
  0
BLOCK
  8
0
  2
*D9
 70
     1
 10
0.0
 20
0.0
 30
0.0
  3
*D9
  1

  0
LINE
  5
69E7
  8
DIM
 62
     0
 10
-682.23068623837128
 20
-842.20368122562672
 30
0.0
 11
-682.23068623837128
 21
-841.9331288638117
 31
0.0
  0
LINE
  5
69E8
  8
DIM
 62
     0
 10
-681.97478123837118
 20
-842.20368122562672
 30
0.0
 11
-681.97478123837118
 21
-841.9331288638117
 31
0.0
  0
LINE
  5
69E9
  8
DIM
 62
     1
 10
-681.79478123837134
 20
-842.11312886381165
 30
0.0
 11
-681.61478123837128
 21
-842.11312886381165
 31
0.0
  0
LINE
  5
69EA
  8
DIM
 62
     1
 10
-682.41068623837123
 20
-842.11312886381165
 30
0.0
 11
-682.59068623837118
 21
-842.11312886381165
 31
0.0
  0
SOLID
  5
69EB
  8
DIM
 62
     1
 10
-681.79478123837134
 20
-842.08312886381168
 30
0.0
 11
-681.79478123837134
 21
-842.14312886381163
 31
0.0
 12
-681.97478123837118
 22
-842.11312886381165
 32
0.0
 13
-681.97478123837118
 23
-842.11312886381165
 33
0.0
  0
SOLID
  5
69EC
  8
DIM
 62
     1
 10
-682.41068623837123
 20
-842.08312886381168
 30
0.0
 11
-682.41068623837123
 21
-842.14312886381163
 31
0.0
 12
-682.23068623837128
 22
-842.11312886381165
 32
0.0
 13
-682.23068623837128
 23
-842.11312886381165
 33
0.0
  0
INSERT
  5
69ED
  8
DIM
  2
*U54
 10
0.0
 20
0.0
 30
0.0
  0
POINT
  5
69EE
  8
DEFPOINTS
 62
     0
 10
-682.23068623837128
 20
-842.26618122562672
 30
0.0
  0
POINT
  5
69EF
  8
DEFPOINTS
 62
     0
 10
-681.97478123837118
 20
-842.26618122562672
 30
0.0
  0
POINT
  5
69F0
  8
DEFPOINTS
 62
     0
 10
-681.97478123837118
 20
-842.11312886381165
 30
0.0
  0
ENDBLK
  5
186D
  8
0
  0
BLOCK
  8
0
  2
*D10
 70
     1
 10
0.0
 20
0.0
 30
0.0
  3
*D10
  1

  0
LINE
  5
6ADE
  8
DIM
 62
     0
 10
-682.3094262383562
 20
-843.06723692448043
 30
0.0
 11
-682.3094262383562
 21
-843.95403609669722
 31
0.0
  0
LINE
  5
6ADF
  8
DIM
 62
     0
 10
-682.28974123834917
 20
-842.64757822562342
 30
0.0
 11
-682.28974123834917
 21
-843.95403609669722
 31
0.0
  0
LINE
  5
6AE0
  8
DIM
 62
     1
 10
-682.10974123834933
 20
-843.77403609669727
 30
0.0
 11
-681.92974123834915
 21
-843.77403609669727
 31
0.0
  0
LINE
  5
6AE1
  8
DIM
 62
     1
 10
-682.48942623835615
 20
-843.77403609669727
 30
0.0
 11
-682.6694262383561
 21
-843.77403609669727
 31
0.0
  0
SOLID
  5
6AE2
  8
DIM
 62
     1
 10
-682.10974123834933
 20
-843.74403609669719
 30
0.0
 11
-682.10974123834933
 21
-843.80403609669725
 31
0.0
 12
-682.28974123834917
 22
-843.77403609669727
 32
0.0
 13
-682.28974123834917
 23
-843.77403609669727
 33
0.0
  0
SOLID
  5
6AE3
  8
DIM
 62
     1
 10
-682.48942623835615
 20
-843.74403609669719
 30
0.0
 11
-682.48942623835615
 21
-843.80403609669725
 31
0.0
 12
-682.3094262383562
 22
-843.77403609669727
 32
0.0
 13
-682.3094262383562
 23
-843.77403609669727
 33
0.0
  0
TEXT
  5
6AE4
  8
DIM
 62
     0
 10
-683.9558548097848
 20
-843.8157027633639
 30
0.0
 40
0.125
  1
0.020 [0.50]
  0
POINT
  5
6AE5
  8
DEFPOINTS
 62
     0
 10
-682.3094262383562
 20
-843.00473692448031
 30
0.0
  0
POINT
  5
6AE6
  8
DEFPOINTS
 62
     0
 10
-682.28974123834917
 20
-842.58507822562331
 30
0.0
  0
POINT
  5
6AE7
  8
DEFPOINTS
 62
     0
 10
-682.28974123834917
 20
-843.77403609669727
 30
0.0
  0
ENDBLK
  5
1959
  8
0
  0
BLOCK
  8
0
  2
*D11
 70
     1
 10
0.0
 20
0.0
 30
0.0
  3
*D11
  1

  0
LINE
  5
69DD
  8
DIM
 62
     0
 10
-685.05786073299066
 20
-841.3965962256209
 30
0.0
 11
-685.05786073299066
 21
-841.26951650078843
 31
0.0
  0
LINE
  5
69DE
  8
DIM
 62
     0
 10
-684.96730973299066
 20
-841.39659622562363
 30
0.0
 11
-684.96730973299066
 21
-841.26951650078843
 31
0.0
  0
LINE
  5
69DF
  8
DIM
 62
     1
 10
-685.23786073299073
 20
-841.44951650078826
 30
0.0
 11
-685.41786073299079
 21
-841.44951650078826
 31
0.0
  0
LINE
  5
69E0
  8
DIM
 62
     1
 10
-684.78730973299082
 20
-841.44951650078826
 30
0.0
 11
-684.60730973299064
 21
-841.44951650078826
 31
0.0
  0
SOLID
  5
69E1
  8
DIM
 62
     1
 10
-685.23786073299073
 20
-841.41951650078818
 30
0.0
 11
-685.23786073299073
 21
-841.47951650078824
 31
0.0
 12
-685.05786073299066
 22
-841.44951650078826
 32
0.0
 13
-685.05786073299066
 23
-841.44951650078826
 33
0.0
  0
SOLID
  5
69E2
  8
DIM
 62
     1
 10
-684.78730973299082
 20
-841.41951650078818
 30
0.0
 11
-684.78730973299082
 21
-841.47951650078824
 31
0.0
 12
-684.96730973299066
 22
-841.44951650078826
 32
0.0
 13
-684.96730973299066
 23
-841.44951650078826
 33
0.0
  0
TEXT
  5
69E3
  8
DIM
 62
     0
 10
-684.51730973299073
 20
-841.49118316745489
 30
0.0
 40
0.125
  1
0.091 [2.30]
  0
POINT
  5
69E4
  8
DEFPOINTS
 62
     0
 10
-685.05786073299066
 20
-841.4590962256209
 30
0.0
  0
POINT
  5
69E5
  8
DEFPOINTS
 62
     0
 10
-684.96730973299066
 20
-841.45909622562363
 30
0.0
  0
POINT
  5
69E6
  8
DEFPOINTS
 62
     0
 10
-684.96730973299066
 20
-841.44951650078826
 30
0.0
  0
ENDBLK
  5
1980
  8
0
  0
BLOCK
  8
0
  2
*D12
 70
     1
 10
0.0
 20
0.0
 30
0.0
  3
*D12
  1

  0
LINE
  5
69F1
  8
DIM
 62
     0
 10
-682.23068623837128
 20
-840.99305372562185
 30
0.0
 11
-682.23068623837128
 21
-840.76259035865178
 31
0.0
  0
LINE
  5
69F2
  8
DIM
 62
     0
 10
-682.30942623837132
 20
-840.99305372562185
 30
0.0
 11
-682.30942623837132
 21
-840.76259035865178
 31
0.0
  0
LINE
  5
69F3
  8
DIM
 62
     1
 10
-682.05068623837133
 20
-840.94259035865184
 30
0.0
 11
-681.87068623837115
 21
-840.94259035865184
 31
0.0
  0
LINE
  5
69F4
  8
DIM
 62
     1
 10
-682.48942623837115
 20
-840.94259035865184
 30
0.0
 11
-682.66942623837133
 21
-840.94259035865184
 31
0.0
  0
SOLID
  5
69F5
  8
DIM
 62
     1
 10
-682.05068623837133
 20
-840.91259035865176
 30
0.0
 11
-682.05068623837133
 21
-840.9725903586517
 31
0.0
 12
-682.23068623837128
 22
-840.94259035865184
 32
0.0
 13
-682.23068623837128
 23
-840.94259035865184
 33
0.0
  0
SOLID
  5
69F6
  8
DIM
 62
     1
 10
-682.48942623837115
 20
-840.91259035865176
 30
0.0
 11
-682.48942623837115
 21
-840.9725903586517
 31
0.0
 12
-682.30942623837132
 22
-840.94259035865184
 32
0.0
 13
-682.30942623837132
 23
-840.94259035865184
 33
0.0
  0
TEXT
  5
69F7
  8
DIM
 62
     0
 10
-683.95585480979992
 20
-840.98425702531836
 30
0.0
 40
0.125
  1
0.079 [2.00]
  0
POINT
  5
69F8
  8
DEFPOINTS
 62
     0
 10
-682.23068623837128
 20
-841.05555372562196
 30
0.0
  0
POINT
  5
69F9
  8
DEFPOINTS
 62
     0
 10
-682.30942623837132
 20
-841.05555372562196
 30
0.0
  0
POINT
  5
69FA
  8
DEFPOINTS
 62
     0
 10
-682.30942623837132
 20
-840.94259035865184
 30
0.0
  0
ENDBLK
  5
199C
  8
0
  0
BLOCK
  8
0
  2
*D13
 70
     1
 10
0.0
 20
0.0
 30
0.0
  3
*D13
  1

  0
LINE
  5
6ABF
  8
DIM
 62
     0
 10
-682.30942623837132
 20
-839.85095552676671
 30
0.0
 11
-682.30942623837132
 21
-838.22812277914375
 31
0.0
  0
LINE
  5
6AC0
  8
DIM
 62
     0
 10
-681.81730123837133
 20
-839.65447372562028
 30
0.0
 11
-681.81730123837133
 21
-838.22812277914375
 31
0.0
  0
LINE
  5
6AC1
  8
DIM
 62
     1
 10
-681.63730123837138
 20
-838.4081227791437
 30
0.0
 11
-681.4573012383712
 21
-838.4081227791437
 31
0.0
  0
LINE
  5
6AC2
  8
DIM
 62
     1
 10
-682.48942623837115
 20
-838.4081227791437
 30
0.0
 11
-682.66942623837133
 21
-838.4081227791437
 31
0.0
  0
SOLID
  5
6AC3
  8
DIM
 62
     1
 10
-681.63730123837138
 20
-838.37812277914384
 30
0.0
 11
-681.63730123837138
 21
-838.43812277914355
 31
0.0
 12
-681.81730123837133
 22
-838.4081227791437
 32
0.0
 13
-681.81730123837133
 23
-838.4081227791437
 33
0.0
  0
SOLID
  5
6AC4
  8
DIM
 62
     1
 10
-682.48942623837115
 20
-838.37812277914384
 30
0.0
 11
-682.48942623837115
 21
-838.43812277914355
 31
0.0
 12
-682.30942623837132
 22
-838.4081227791437
 32
0.0
 13
-682.30942623837132
 23
-838.4081227791437
 33
0.0
  0
TEXT
  5
6AC5
  8
DIM
 62
     0
 10
-684.05109290503788
 20
-838.44978944581032
 30
0.0
 40
0.125
  1
0.492 [12.50]
  0
POINT
  5
6AC6
  8
DEFPOINTS
 62
     0
 10
-682.30942623837132
 20
-839.9134555267666
 30
0.0
  0
POINT
  5
6AC7
  8
DEFPOINTS
 62
     0
 10
-681.81730123837133
 20
-839.71697372562039
 30
0.0
  0
POINT
  5
6AC8
  8
DEFPOINTS
 62
     0
 10
-681.81730123837133
 20
-838.4081227791437
 30
0.0
  0
ENDBLK
  5
1AF7
  8
0
  0
BLOCK
  8
0
  2
*D14
 70
     1
 10
0.0
 20
0.0
 30
0.0
  3
*D14
  1

  0
LINE
  5
6AC9
  8
DIM
 62
     0
 10
-681.81730123837133
 20
-839.65447372562028
 30
0.0
 11
-681.81730123837133
 21
-838.75926650886709
 31
0.0
  0
LINE
  5
6ACA
  8
DIM
 62
     0
 10
-681.77793123837125
 20
-839.90053622562016
 30
0.0
 11
-681.77793123837125
 21
-838.75926650886709
 31
0.0
  0
LINE
  5
6ACB
  8
DIM
 62
     1
 10
-681.5979312383713
 20
-838.93926650886715
 30
0.0
 11
-681.41793123837124
 21
-838.93926650886715
 31
0.0
  0
LINE
  5
6ACC
  8
DIM
 62
     1
 10
-681.99730123837116
 20
-838.93926650886715
 30
0.0
 11
-682.45831373124076
 21
-838.93926650886715
 31
0.0
  0
SOLID
  5
6ACD
  8
DIM
 62
     1
 10
-681.5979312383713
 20
-838.90926650886706
 30
0.0
 11
-681.5979312383713
 21
-838.96926650886701
 31
0.0
 12
-681.77793123837125
 22
-838.93926650886715
 32
0.0
 13
-681.77793123837125
 23
-838.93926650886715
 33
0.0
  0
SOLID
  5
6ACE
  8
DIM
 62
     1
 10
-681.99730123837116
 20
-838.90926650886706
 30
0.0
 11
-681.99730123837116
 21
-838.96926650886701
 31
0.0
 12
-681.81730123837133
 22
-838.93926650886715
 32
0.0
 13
-681.81730123837133
 23
-838.93926650886715
 33
0.0
  0
TEXT
  5
6ACF
  8
DIM
 62
     0
 10
-683.72093277885983
 20
-838.98093317553366
 30
0.0
 40
0.125
  1
0.039 [1.00]
  0
POINT
  5
6AD0
  8
DEFPOINTS
 62
     0
 10
-681.81730123837133
 20
-839.71697372562039
 30
0.0
  0
POINT
  5
6AD1
  8
DEFPOINTS
 62
     0
 10
-681.77793123837125
 20
-839.96303622562016
 30
0.0
  0
POINT
  5
6AD2
  8
DEFPOINTS
 62
     0
 10
-681.77793123837125
 20
-838.93926650886715
 30
0.0
  0
ENDBLK
  5
1B13
  8
0
  0
BLOCK
  8
0
  2
*D15
 70
     1
 10
0.0
 20
0.0
 30
0.0
  3
*D15
  1

  0
LINE
  5
6A8D
  8
DIM
 62
     0
 10
-671.91898167915531
 20
-835.36425691657803
 30
0.0
 11
-671.91898167915531
 21
-834.33474391247853
 31
0.0
  0
LINE
  5
6A8E
  8
DIM
 62
     0
 10
-670.83630667915531
 20
-835.36425691657803
 30
0.0
 11
-670.83630667915531
 21
-834.33474391247853
 31
0.0
  0
LINE
  5
6A8F
  8
DIM
 62
     1
 10
-671.01630667915515
 20
-834.51474391247848
 30
0.0
 11
-671.73898167915524
 21
-834.51474391247848
 31
0.0
  0
LINE
  5
6A90
  8
DIM
 62
     1
 10
-671.91898167915531
 20
-834.51474391247848
 30
0.0
 11
-672.09946520604251
 21
-834.51474391247848
 31
0.0
  0
SOLID
  5
6A91
  8
DIM
 62
     1
 10
-671.01630667915515
 20
-834.48474391247851
 30
0.0
 11
-671.01630667915515
 21
-834.54474391247845
 31
0.0
 12
-670.83630667915531
 22
-834.51474391247848
 32
0.0
 13
-670.83630667915531
 23
-834.51474391247848
 33
0.0
  0
SOLID
  5
6A92
  8
DIM
 62
     1
 10
-671.73898167915524
 20
-834.48474391247851
 30
0.0
 11
-671.73898167915524
 21
-834.54474391247845
 31
0.0
 12
-671.91898167915531
 22
-834.51474391247848
 32
0.0
 13
-671.91898167915531
 23
-834.51474391247848
 33
0.0
  0
TEXT
  5
6A93
  8
DIM
 62
     0
 10
-673.48113187270906
 20
-834.55641057914511
 30
0.0
 40
0.125
  1
1.083 [27.50]
  0
POINT
  5
6A94
  8
DEFPOINTS
 62
     0
 10
-671.91898167915531
 20
-835.42675691657792
 30
0.0
  0
POINT
  5
6A95
  8
DEFPOINTS
 62
     0
 10
-670.83630667915531
 20
-835.42675691657792
 30
0.0
  0
POINT
  5
6A96
  8
DEFPOINTS
 62
     0
 10
-670.83630667915531
 20
-834.51474391247848
 30
0.0
  0
ENDBLK
  5
440F
  8
0
  0
BLOCK
  8
0
  2
*D16
 70
     1
 10
0.0
 20
0.0
 30
0.0
  3
*D16
  1

  0
LINE
  5
6A05
  8
DIM
 62
     0
 10
-671.39093167917201
 20
-838.68462441809675
 30
0.0
 11
-673.47311682972929
 21
-838.68462441809675
 31
0.0
  0
LINE
  5
6A06
  8
DIM
 62
     0
 10
-671.3909316791553
 20
-835.20037941809505
 30
0.0
 11
-673.47311682972929
 21
-835.20037941809505
 31
0.0
  0
LINE
  5
6A07
  8
DIM
 62
     1
 10
-673.29311682972934
 20
-838.50462441809668
 30
0.0
 11
-673.29311682972934
 21
-837.20758026456758
 31
0.0
  0
LINE
  5
6A08
  8
DIM
 62
     1
 10
-673.29311682972934
 20
-835.38037941809489
 30
0.0
 11
-673.29311682972934
 21
-836.83710407409137
 31
0.0
  0
SOLID
  5
6A09
  8
DIM
 62
     1
 10
-673.32311682972932
 20
-838.50462441809668
 30
0.0
 11
-673.26311682972926
 21
-838.50462441809668
 31
0.0
 12
-673.29311682972934
 22
-838.68462441809675
 32
0.0
 13
-673.29311682972934
 23
-838.68462441809675
 33
0.0
  0
SOLID
  5
6A0A
  8
DIM
 62
     1
 10
-673.32311682972932
 20
-835.38037941809489
 30
0.0
 11
-673.26311682972926
 21
-835.38037941809489
 31
0.0
 12
-673.29311682972934
 22
-835.20037941809505
 32
0.0
 13
-673.29311682972934
 23
-835.20037941809505
 33
0.0
  0
TEXT
  5
6A0B
  8
DIM
 62
     0
 10
-673.95085492496719
 20
-837.06400883599622
 30
0.0
 40
0.125
  1
3.484 [88.50]
  0
POINT
  5
6A0C
  8
DEFPOINTS
 62
     0
 10
-671.32843167917213
 20
-838.68462441809675
 30
0.0
  0
POINT
  5
6A0D
  8
DEFPOINTS
 62
     0
 10
-671.32843167915519
 20
-835.20037941809505
 30
0.0
  0
POINT
  5
6A0E
  8
DEFPOINTS
 62
     0
 10
-673.29311682972934
 20
-835.20037941809505
 30
0.0
  0
ENDBLK
  5
441B
  8
0
  0
BLOCK
  8
0
  2
*D17
 70
     1
 10
0.0
 20
0.0
 30
0.0
  3
*D17
  1

  0
LINE
  5
6A49
  8
DIM
 62
     0
 10
-685.1133452428968
 20
-831.61664877968019
 30
0.0
 11
-689.97935148456133
 21
-831.61664877968019
 31
0.0
  0
LINE
  5
6A4A
  8
DIM
 62
     0
 10
-685.11334524289668
 20
-835.10089377968166
 30
0.0
 11
-689.97935148456133
 21
-835.10089377968166
 31
0.0
  0
LINE
  5
6A4B
  8
DIM
 62
     1
 10
-689.79935148456127
 20
-831.79664877968025
 30
0.0
 11
-689.79935148456127
 21
-832.72935726920196
 31
0.0
  0
LINE
  5
6A4C
  8
DIM
 62
     1
 10
-689.79935148456127
 20
-834.92089377968148
 30
0.0
 11
-689.79935148456127
 21
-833.09983345967828
 31
0.0
  0
SOLID
  5
6A4D
  8
DIM
 62
     1
 10
-689.82935148456124
 20
-831.79664877968025
 30
0.0
 11
-689.76935148456141
 21
-831.79664877968025
 31
0.0
 12
-689.79935148456127
 22
-831.61664877968019
 32
0.0
 13
-689.79935148456127
 23
-831.61664877968019
 33
0.0
  0
SOLID
  5
6A4E
  8
DIM
 62
     1
 10
-689.82935148456124
 20
-834.92089377968148
 30
0.0
 11
-689.76935148456141
 21
-834.92089377968148
 31
0.0
 12
-689.79935148456127
 22
-835.10089377968166
 32
0.0
 13
-689.79935148456127
 23
-835.10089377968166
 33
0.0
  0
TEXT
  5
6A4F
  8
DIM
 62
     0
 10
-690.45708957979923
 20
-832.95626203110692
 30
0.0
 40
0.125
  1
3.484 [88.50]
  0
POINT
  5
6A50
  8
DEFPOINTS
 62
     0
 10
-685.05084524289691
 20
-831.61664877968019
 30
0.0
  0
POINT
  5
6A51
  8
DEFPOINTS
 62
     0
 10
-685.05084524289657
 20
-835.10089377968166
 30
0.0
  0
POINT
  5
6A52
  8
DEFPOINTS
 62
     0
 10
-689.79935148456127
 20
-835.10089377968166
 30
0.0
  0
ENDBLK
  5
44B8
  8
0
  0
BLOCK
  8
0
  2
*D18
 70
     1
 10
0.0
 20
0.0
 30
0.0
  3
*D18
  1

  0
LINE
  5
6A0F
  8
DIM
 62
     0
 10
-686.29100024289664
 20
-833.29627127968308
 30
0.0
 11
-686.29100024289664
 21
-829.91997600632294
 31
0.0
  0
LINE
  5
6A10
  8
DIM
 62
     0
 10
-683.81069024289673
 20
-833.29627127968365
 30
0.0
 11
-683.81069024289673
 21
-829.91997600632294
 31
0.0
  0
LINE
  5
6A11
  8
DIM
 62
     1
 10
-686.11100024289681
 20
-830.09997600632289
 30
0.0
 11
-685.98300785446531
 21
-830.09997600632289
 31
0.0
  0
LINE
  5
6A12
  8
DIM
 62
     1
 10
-683.99069024289668
 20
-830.09997600632289
 30
0.0
 11
-684.4875316639891
 21
-830.09997600632289
 31
0.0
  0
SOLID
  5
6A13
  8
DIM
 62
     1
 10
-686.11100024289681
 20
-830.06997600632292
 30
0.0
 11
-686.11100024289681
 21
-830.12997600632275
 31
0.0
 12
-686.29100024289664
 22
-830.09997600632289
 32
0.0
 13
-686.29100024289664
 23
-830.09997600632289
 33
0.0
  0
SOLID
  5
6A14
  8
DIM
 62
     1
 10
-683.99069024289668
 20
-830.06997600632292
 30
0.0
 11
-683.99069024289668
 21
-830.12997600632275
 31
0.0
 12
-683.81069024289673
 22
-830.09997600632289
 32
0.0
 13
-683.81069024289673
 23
-830.09997600632289
 33
0.0
  0
TEXT
  5
6A15
  8
DIM
 62
     0
 10
-685.89300785446517
 20
-830.14164267298952
 30
0.0
 40
0.125
  1
2.480 [63.00]
  0
POINT
  5
6A16
  8
DEFPOINTS
 62
     0
 10
-686.29100024289664
 20
-833.3587712796832
 30
0.0
  0
POINT
  5
6A17
  8
DEFPOINTS
 62
     0
 10
-683.81069024289673
 20
-833.35877127968365
 30
0.0
  0
POINT
  5
6A18
  8
DEFPOINTS
 62
     0
 10
-683.81069024289673
 20
-830.09997600632289
 30
0.0
  0
ENDBLK
  5
44C4
  8
0
  0
BLOCK
  8
0
  2
*D19
 70
     1
 10
0.0
 20
0.0
 30
0.0
  3
*D19
  1

  0
LINE
  5
6983
  8
DIM
 62
     0
 10
-685.86777274289659
 20
-831.98721877968228
 30
0.0
 11
-685.86777274289659
 21
-830.85732382753872
 31
0.0
  0
LINE
  5
6984
  8
DIM
 62
     0
 10
-684.23391774289655
 20
-831.98721877968228
 30
0.0
 11
-684.23391774289655
 21
-830.85732382753872
 31
0.0
  0
LINE
  5
6985
  8
DIM
 62
     1
 10
-686.04777274289665
 20
-831.03732382753867
 30
0.0
 11
-686.22777274289672
 21
-831.03732382753867
 31
0.0
  0
LINE
  5
6986
  8
DIM
 62
     1
 10
-684.05391774289672
 20
-831.03732382753867
 30
0.0
 11
-683.87391774289665
 21
-831.03732382753867
 31
0.0
  0
SOLID
  5
6987
  8
DIM
 62
     1
 10
-686.04777274289665
 20
-831.0073238275387
 30
0.0
 11
-686.04777274289665
 21
-831.06732382753876
 31
0.0
 12
-685.86777274289659
 22
-831.03732382753867
 32
0.0
 13
-685.86777274289659
 23
-831.03732382753867
 33
0.0
  0
SOLID
  5
6988
  8
DIM
 62
     1
 10
-684.05391774289672
 20
-831.0073238275387
 30
0.0
 11
-684.05391774289672
 21
-831.06732382753876
 31
0.0
 12
-684.23391774289655
 22
-831.03732382753867
 32
0.0
 13
-684.23391774289655
 23
-831.03732382753867
 33
0.0
  0
TEXT
  5
6989
  8
DIM
 62
     0
 10
-685.69989746820181
 20
-831.0789904942053
 30
0.0
 40
0.125
  1
1.634 [41.50]
  0
POINT
  5
698A
  8
DEFPOINTS
 62
     0
 10
-685.86777274289659
 20
-832.04971877968228
 30
0.0
  0
POINT
  5
698B
  8
DEFPOINTS
 62
     0
 10
-684.23391774289655
 20
-832.04971877968228
 30
0.0
  0
POINT
  5
698C
  8
DEFPOINTS
 62
     0
 10
-684.23391774289655
 20
-831.03732382753867
 30
0.0
  0
ENDBLK
  5
44D0
  8
0
  0
BLOCK
  8
0
  2
*D20
 70
     1
 10
0.0
 20
0.0
 30
0.0
  3
*D20
  1

  0
LINE
  5
6A19
  8
DIM
 62
     0
 10
-685.92682774289665
 20
-832.36123377968249
 30
0.0
 11
-685.92682774289665
 21
-830.30477759837788
 31
0.0
  0
LINE
  5
6A1A
  8
DIM
 62
     0
 10
-684.17486274289661
 20
-832.36123377968249
 30
0.0
 11
-684.17486274289661
 21
-830.30477759837788
 31
0.0
  0
LINE
  5
6A1B
  8
DIM
 62
     1
 10
-686.10682774289671
 20
-830.48477759837795
 30
0.0
 11
-686.28682774289666
 21
-830.48477759837795
 31
0.0
  0
LINE
  5
6A1C
  8
DIM
 62
     1
 10
-683.99486274289666
 20
-830.48477759837795
 30
0.0
 11
-683.81486274289659
 21
-830.48477759837795
 31
0.0
  0
SOLID
  5
6A1D
  8
DIM
 62
     1
 10
-686.10682774289671
 20
-830.45477759837775
 30
0.0
 11
-686.10682774289671
 21
-830.5147775983778
 31
0.0
 12
-685.92682774289665
 22
-830.48477759837795
 32
0.0
 13
-685.92682774289665
 23
-830.48477759837795
 33
0.0
  0
SOLID
  5
6A1E
  8
DIM
 62
     1
 10
-683.99486274289666
 20
-830.45477759837775
 30
0.0
 11
-683.99486274289666
 21
-830.5147775983778
 31
0.0
 12
-684.17486274289661
 22
-830.48477759837795
 32
0.0
 13
-684.17486274289661
 23
-830.48477759837795
 33
0.0
  0
TEXT
  5
6A1F
  8
DIM
 62
     0
 10
-685.77109475677264
 20
-830.52644426504446
 30
0.0
 40
0.125
  1
1.752 [44.50]
  0
POINT
  5
6A20
  8
DEFPOINTS
 62
     0
 10
-685.92682774289665
 20
-832.42373377968249
 30
0.0
  0
POINT
  5
6A21
  8
DEFPOINTS
 62
     0
 10
-684.17486274289661
 20
-832.42373377968249
 30
0.0
  0
POINT
  5
6A22
  8
DEFPOINTS
 62
     0
 10
-684.17486274289661
 20
-830.48477759837795
 30
0.0
  0
ENDBLK
  5
44DC
  8
0
  0
BLOCK
  8
0
  2
*D21
 70
     1
 10
0.0
 20
0.0
 30
0.0
  3
*D21
  1

  0
LINE
  5
6A3F
  8
DIM
 62
     0
 10
-685.9302727428967
 20
-832.04971877968228
 30
0.0
 11
-689.05559330435335
 21
-832.04971877968228
 31
0.0
  0
LINE
  5
6A40
  8
DIM
 62
     0
 10
-685.93027274289182
 20
-834.66782377968207
 30
0.0
 11
-689.05559330435335
 21
-834.66782377968207
 31
0.0
  0
LINE
  5
6A41
  8
DIM
 62
     1
 10
-688.87559330435329
 20
-832.22971877968223
 30
0.0
 11
-688.87559330435329
 21
-833.32141640967302
 31
0.0
  0
LINE
  5
6A42
  8
DIM
 62
     1
 10
-688.87559330435329
 20
-834.48782377968212
 30
0.0
 11
-688.87559330435329
 21
-833.69189260014934
 31
0.0
  0
SOLID
  5
6A43
  8
DIM
 62
     1
 10
-688.90559330435326
 20
-832.22971877968223
 30
0.0
 11
-688.84559330435343
 21
-832.22971877968223
 31
0.0
 12
-688.87559330435329
 22
-832.04971877968228
 32
0.0
 13
-688.87559330435329
 23
-832.04971877968228
 33
0.0
  0
SOLID
  5
6A44
  8
DIM
 62
     1
 10
-688.90559330435326
 20
-834.48782377968212
 30
0.0
 11
-688.84559330435343
 21
-834.48782377968212
 31
0.0
 12
-688.87559330435329
 22
-834.66782377968207
 32
0.0
 13
-688.87559330435329
 23
-834.66782377968207
 33
0.0
  0
TEXT
  5
6A45
  8
DIM
 62
     0
 10
-689.52142663768655
 20
-833.54832117157787
 30
0.0
 40
0.125
  1
2.618 [66.50]
  0
POINT
  5
6A46
  8
DEFPOINTS
 62
     0
 10
-685.86777274289659
 20
-832.04971877968228
 30
0.0
  0
POINT
  5
6A47
  8
DEFPOINTS
 62
     0
 10
-685.86777274289182
 20
-834.66782377968207
 30
0.0
  0
POINT
  5
6A48
  8
DEFPOINTS
 62
     0
 10
-688.87559330435329
 20
-834.66782377968207
 30
0.0
  0
ENDBLK
  5
44E8
  8
0
  0
BLOCK
  8
0
  2
*D22
 70
     1
 10
0.0
 20
0.0
 30
0.0
  3
*D22
  1

  0
LINE
  5
6A35
  8
DIM
 62
     0
 10
-685.98932774289301
 20
-834.29380877968219
 30
0.0
 11
-688.2924863407959
 21
-834.29380877968219
 31
0.0
  0
LINE
  5
6A36
  8
DIM
 62
     0
 10
-685.98932774289665
 20
-832.42373377968249
 30
0.0
 11
-688.2924863407959
 21
-832.42373377968249
 31
0.0
  0
LINE
  5
6A37
  8
DIM
 62
     1
 10
-688.11248634079595
 20
-834.11380877968224
 30
0.0
 11
-688.11248634079595
 21
-833.11990320409973
 31
0.0
  0
LINE
  5
6A38
  8
DIM
 62
     1
 10
-688.11248634079595
 20
-832.60373377968244
 30
0.0
 11
-688.11248634079595
 21
-832.7494270136234
 31
0.0
  0
SOLID
  5
6A39
  8
DIM
 62
     1
 10
-688.14248634079593
 20
-834.11380877968224
 30
0.0
 11
-688.08248634079587
 21
-834.11380877968224
 31
0.0
 12
-688.11248634079595
 22
-834.29380877968219
 32
0.0
 13
-688.11248634079595
 23
-834.29380877968219
 33
0.0
  0
SOLID
  5
6A3A
  8
DIM
 62
     1
 10
-688.14248634079593
 20
-832.60373377968244
 30
0.0
 11
-688.08248634079587
 21
-832.60373377968244
 31
0.0
 12
-688.11248634079595
 22
-832.42373377968249
 32
0.0
 13
-688.11248634079595
 23
-832.42373377968249
 33
0.0
  0
TEXT
  5
6A3B
  8
DIM
 62
     0
 10
-688.7583196741291
 20
-832.97633177552825
 30
0.0
 40
0.125
  1
1.870 [47.50]
  0
POINT
  5
6A3C
  8
DEFPOINTS
 62
     0
 10
-685.92682774289312
 20
-834.29380877968219
 30
0.0
  0
POINT
  5
6A3D
  8
DEFPOINTS
 62
     0
 10
-685.92682774289665
 20
-832.42373377968249
 30
0.0
  0
POINT
  5
6A3E
  8
DEFPOINTS
 62
     0
 10
-688.11248634079595
 20
-832.42373377968249
 30
0.0
  0
ENDBLK
  5
44F4
  8
0
  0
BLOCK
  8
0
  2
*D23
 70
     1
 10
0.0
 20
0.0
 30
0.0
  3
*D23
  1

  0
LINE
  5
6A63
  8
DIM
 62
     0
 10
-675.54139681468075
 20
-831.5541487796803
 30
0.0
 11
-675.54139681468075
 21
-830.22575298888626
 31
0.0
  0
LINE
  5
6A64
  8
DIM
 62
     0
 10
-674.97053181468084
 20
-831.75099877665195
 30
0.0
 11
-674.97053181468084
 21
-830.22575298888626
 31
0.0
  0
LINE
  5
6A65
  8
DIM
 62
     1
 10
-675.15053181468079
 20
-830.40575298888609
 30
0.0
 11
-675.36139681468092
 21
-830.40575298888609
 31
0.0
  0
LINE
  5
6A66
  8
DIM
 62
     1
 10
-675.54139681468075
 20
-830.40575298888609
 30
0.0
 11
-675.95720766061186
 21
-830.40575298888609
 31
0.0
  0
SOLID
  5
6A67
  8
DIM
 62
     1
 10
-675.15053181468079
 20
-830.37575298888623
 30
0.0
 11
-675.15053181468079
 21
-830.43575298888607
 31
0.0
 12
-674.97053181468084
 22
-830.40575298888609
 32
0.0
 13
-674.97053181468084
 23
-830.40575298888609
 33
0.0
  0
SOLID
  5
6A68
  8
DIM
 62
     1
 10
-675.36139681468092
 20
-830.37575298888623
 30
0.0
 11
-675.36139681468092
 21
-830.43575298888607
 31
0.0
 12
-675.54139681468075
 22
-830.40575298888609
 32
0.0
 13
-675.54139681468075
 23
-830.40575298888609
 33
0.0
  0
TEXT
  5
6A69
  8
DIM
 62
     0
 10
-677.315064803469
 20
-830.44741965555284
 30
0.0
 40
0.125
  1
0.571 [14.50]
  0
POINT
  5
6A6A
  8
DEFPOINTS
 62
     0
 10
-675.54139681468075
 20
-831.61664877968019
 30
0.0
  0
POINT
  5
6A6B
  8
DEFPOINTS
 62
     0
 10
-674.97053181468084
 20
-831.81349877665207
 30
0.0
  0
POINT
  5
6A6C
  8
DEFPOINTS
 62
     0
 10
-674.97053181468084
 20
-830.40575298888609
 30
0.0
  0
ENDBLK
  5
4516
  8
0
  0
BLOCK
  8
0
  2
*D24
 70
     1
 10
0.0
 20
0.0
 30
0.0
  3
*D24
  1

  0
LINE
  5
69B5
  8
DIM
 62
     0
 10
-675.54139681468075
 20
-831.5541487796803
 30
0.0
 11
-675.54139681468075
 21
-830.7374937072625
 31
0.0
  0
LINE
  5
69B6
  8
DIM
 62
     0
 10
-675.0295868146809
 20
-832.01700908554938
 30
0.0
 11
-675.0295868146809
 21
-830.7374937072625
 31
0.0
  0
LINE
  5
69B7
  8
DIM
 62
     1
 10
-674.84958681468095
 20
-830.91749370726245
 30
0.0
 11
-674.66958681468077
 21
-830.91749370726245
 31
0.0
  0
LINE
  5
69B8
  8
DIM
 62
     1
 10
-675.72139681468082
 20
-830.91749370726245
 30
0.0
 11
-675.90139681468088
 21
-830.91749370726245
 31
0.0
  0
SOLID
  5
69B9
  8
DIM
 62
     1
 10
-674.84958681468095
 20
-830.88749370726248
 30
0.0
 11
-674.84958681468095
 21
-830.94749370726231
 31
0.0
 12
-675.0295868146809
 22
-830.91749370726245
 32
0.0
 13
-675.0295868146809
 23
-830.91749370726245
 33
0.0
  0
SOLID
  5
69BA
  8
DIM
 62
     1
 10
-675.72139681468082
 20
-830.88749370726248
 30
0.0
 11
-675.72139681468082
 21
-830.94749370726231
 31
0.0
 12
-675.54139681468075
 22
-830.91749370726245
 32
0.0
 13
-675.54139681468075
 23
-830.91749370726245
 33
0.0
  0
TEXT
  5
69BB
  8
DIM
 62
     0
 10
-677.25925395753802
 20
-830.95916037392897
 30
0.0
 40
0.125
  1
0.512 [13.00]
  0
POINT
  5
69BC
  8
DEFPOINTS
 62
     0
 10
-675.54139681468075
 20
-831.61664877968019
 30
0.0
  0
POINT
  5
69BD
  8
DEFPOINTS
 62
     0
 10
-675.0295868146809
 20
-832.07950908554938
 30
0.0
  0
POINT
  5
69BE
  8
DEFPOINTS
 62
     0
 10
-675.0295868146809
 20
-830.91749370726245
 30
0.0
  0
ENDBLK
  5
4522
  8
0
  0
BLOCK
  8
0
  2
*D25
 70
     1
 10
0.0
 20
0.0
 30
0.0
  3
*D25
  1

  0
LINE
  5
69AB
  8
DIM
 62
     0
 10
-677.95004156372931
 20
-832.00050627968358
 30
0.0
 11
-676.30891361289753
 21
-832.00050627968358
 31
0.0
  0
LINE
  5
69AC
  8
DIM
 62
     0
 10
-677.95004156371874
 20
-834.7170362796752
 30
0.0
 11
-676.30891361289753
 21
-834.7170362796752
 31
0.0
  0
LINE
  5
69AD
  8
DIM
 62
     1
 10
-676.48891361289736
 20
-832.18050627968375
 30
0.0
 11
-676.48891361289736
 21
-833.27610307919804
 31
0.0
  0
LINE
  5
69AE
  8
DIM
 62
     1
 10
-676.48891361289736
 20
-834.53703627967525
 30
0.0
 11
-676.48891361289736
 21
-833.64657926967402
 31
0.0
  0
SOLID
  5
69AF
  8
DIM
 62
     1
 10
-676.51891361289745
 20
-832.18050627968375
 30
0.0
 11
-676.4589136128975
 21
-832.18050627968375
 31
0.0
 12
-676.48891361289736
 22
-832.00050627968358
 32
0.0
 13
-676.48891361289736
 23
-832.00050627968358
 33
0.0
  0
SOLID
  5
69B0
  8
DIM
 62
     1
 10
-676.51891361289745
 20
-834.53703627967525
 30
0.0
 11
-676.4589136128975
 21
-834.53703627967525
 31
0.0
 12
-676.48891361289736
 22
-834.7170362796752
 32
0.0
 13
-676.48891361289736
 23
-834.7170362796752
 33
0.0
  0
TEXT
  5
69B1
  8
DIM
 62
     0
 10
-677.13474694623051
 20
-833.50300784110277
 30
0.0
 40
0.125
  1
2.717 [69.00]
  0
POINT
  5
69B2
  8
DEFPOINTS
 62
     0
 10
-678.01254156372943
 20
-832.00050627968358
 30
0.0
  0
POINT
  5
69B3
  8
DEFPOINTS
 62
     0
 10
-678.01254156371874
 20
-834.7170362796752
 30
0.0
  0
POINT
  5
69B4
  8
DEFPOINTS
 62
     0
 10
-676.48891361289736
 20
-834.7170362796752
 30
0.0
  0
ENDBLK
  5
452E
  8
0
  0
BLOCK
  8
0
  2
*D26
 70
     1
 10
0.0
 20
0.0
 30
0.0
  3
*D26
  1

  0
LINE
  5
69A1
  8
DIM
 62
     0
 10
-679.6339290783211
 20
-834.7310186484666
 30
0.0
 11
-679.6339290783211
 21
-835.98241822598345
 31
0.0
  0
LINE
  5
69A2
  8
DIM
 62
     0
 10
-677.85848497280574
 20
-834.73101864845887
 30
0.0
 11
-677.85848497280574
 21
-835.98241822598345
 31
0.0
  0
LINE
  5
69A3
  8
DIM
 62
     1
 10
-679.45392907832115
 20
-835.80241822598362
 30
0.0
 11
-679.20968561252505
 21
-835.80241822598362
 31
0.0
  0
LINE
  5
69A4
  8
DIM
 62
     1
 10
-678.03848497280569
 20
-835.80241822598362
 30
0.0
 11
-678.30552590162915
 21
-835.80241822598362
 31
0.0
  0
SOLID
  5
69A5
  8
DIM
 62
     1
 10
-679.45392907832115
 20
-835.77241822598364
 30
0.0
 11
-679.45392907832115
 21
-835.83241822598347
 31
0.0
 12
-679.6339290783211
 22
-835.80241822598362
 32
0.0
 13
-679.6339290783211
 23
-835.80241822598362
 33
0.0
  0
SOLID
  5
69A6
  8
DIM
 62
     1
 10
-678.03848497280569
 20
-835.77241822598364
 30
0.0
 11
-678.03848497280569
 21
-835.83241822598347
 31
0.0
 12
-677.85848497280574
 22
-835.80241822598362
 32
0.0
 13
-677.85848497280574
 23
-835.80241822598362
 33
0.0
  0
INSERT
  5
69A7
  8
DIM
  2
*U53
 10
0.0
 20
0.0
 30
0.0
  0
POINT
  5
69A8
  8
DEFPOINTS
 62
     0
 10
-679.6339290783211
 20
-834.6685186484666
 30
0.0
  0
POINT
  5
69A9
  8
DEFPOINTS
 62
     0
 10
-677.85848497280574
 20
-834.66851864845898
 30
0.0
  0
POINT
  5
69AA
  8
DEFPOINTS
 62
     0
 10
-677.85848497280574
 20
-835.80241822598362
 30
0.0
  0
ENDBLK
  5
453A
  8
0
  0
BLOCK
  8
0
  2
*D27
 70
     1
 10
0.0
 20
0.0
 30
0.0
  3
*D27
  1

  0
LINE
  5
698D
  8
DIM
 62
     0
 10
-686.25163024289691
 20
-833.42127127968115
 30
0.0
 11
-686.25163024289691
 21
-833.80725548945247
 31
0.0
  0
LINE
  5
698E
  8
DIM
 62
     0
 10
-686.29100024289664
 20
-833.4212712796832
 30
0.0
 11
-686.29100024289664
 21
-833.80725548945247
 31
0.0
  0
LINE
  5
698F
  8
DIM
 62
     1
 10
-686.07163024289684
 20
-833.62725548945264
 30
0.0
 11
-685.89163024289678
 21
-833.62725548945264
 31
0.0
  0
LINE
  5
6990
  8
DIM
 62
     1
 10
-686.47100024289659
 20
-833.62725548945264
 30
0.0
 11
-686.65100024289677
 21
-833.62725548945264
 31
0.0
  0
SOLID
  5
6991
  8
DIM
 62
     1
 10
-686.07163024289684
 20
-833.59725548945255
 30
0.0
 11
-686.07163024289684
 21
-833.65725548945272
 31
0.0
 12
-686.25163024289691
 22
-833.62725548945264
 32
0.0
 13
-686.25163024289691
 23
-833.62725548945264
 33
0.0
  0
SOLID
  5
6992
  8
DIM
 62
     1
 10
-686.47100024289659
 20
-833.59725548945255
 30
0.0
 11
-686.47100024289659
 21
-833.65725548945272
 31
0.0
 12
-686.29100024289664
 22
-833.62725548945264
 32
0.0
 13
-686.29100024289664
 23
-833.62725548945264
 33
0.0
  0
TEXT
  5
6993
  8
DIM
 62
     0
 10
-687.91361929051595
 20
-833.66892215611915
 30
0.0
 40
0.125
  1
0.039 [1.00]
  0
POINT
  5
6994
  8
DEFPOINTS
 62
     0
 10
-686.25163024289691
 20
-833.35877127968126
 30
0.0
  0
POINT
  5
6995
  8
DEFPOINTS
 62
     0
 10
-686.29100024289664
 20
-833.3587712796832
 30
0.0
  0
POINT
  5
6996
  8
DEFPOINTS
 62
     0
 10
-686.29100024289664
 20
-833.62725548945264
 30
0.0
  0
ENDBLK
  5
4548
  8
0
  0
BLOCK
  8
0
  2
*D28
 70
     1
 10
0.0
 20
0.0
 30
0.0
  3
*D28
  1

  0
LINE
  5
6A2B
  8
DIM
 62
     0
 10
-681.83279968712361
 20
-831.55414877967576
 30
0.0
 11
-681.83279968712361
 21
-831.16864008764776
 31
0.0
  0
LINE
  5
6A2C
  8
DIM
 62
     0
 10
-681.87216968712369
 20
-831.59351877967549
 30
0.0
 11
-681.87216968712369
 21
-831.16864008764776
 31
0.0
  0
LINE
  5
6A2D
  8
DIM
 62
     1
 10
-681.65279968712355
 20
-831.34864008764771
 30
0.0
 11
-681.47279968712348
 21
-831.34864008764771
 31
0.0
  0
LINE
  5
6A2E
  8
DIM
 62
     1
 10
-682.05216968712364
 20
-831.34864008764771
 30
0.0
 11
-682.23216968712359
 21
-831.34864008764771
 31
0.0
  0
SOLID
  5
6A2F
  8
DIM
 62
     1
 10
-681.65279968712355
 20
-831.31864008764762
 30
0.0
 11
-681.65279968712355
 21
-831.37864008764768
 31
0.0
 12
-681.83279968712361
 22
-831.34864008764771
 32
0.0
 13
-681.83279968712361
 23
-831.34864008764771
 33
0.0
  0
SOLID
  5
6A30
  8
DIM
 62
     1
 10
-682.05216968712364
 20
-831.31864008764762
 30
0.0
 11
-682.05216968712364
 21
-831.37864008764768
 31
0.0
 12
-681.87216968712369
 22
-831.34864008764771
 32
0.0
 13
-681.87216968712369
 23
-831.34864008764771
 33
0.0
  0
TEXT
  5
6A31
  8
DIM
 62
     0
 10
-683.49478873474277
 20
-831.39030675431445
 30
0.0
 40
0.125
  1
0.039 [1.00]
  0
POINT
  5
6A32
  8
DEFPOINTS
 62
     0
 10
-681.83279968712361
 20
-831.61664877967564
 30
0.0
  0
POINT
  5
6A33
  8
DEFPOINTS
 62
     0
 10
-681.87216968712369
 20
-831.65601877967561
 30
0.0
  0
POINT
  5
6A34
  8
DEFPOINTS
 62
     0
 10
-681.87216968712369
 20
-831.34864008764771
 30
0.0
  0
ENDBLK
  5
4556
  8
0
  0
BLOCK
  8
0
  2
*D29
 70
     1
 10
0.0
 20
0.0
 30
0.0
  3
*D29
  1

  0
LINE
  5
6997
  8
DIM
 62
     0
 10
-682.00996468712356
 20
-832.6141862796776
 30
0.0
 11
-682.00996468712356
 21
-833.06069157589752
 31
0.0
  0
LINE
  5
6998
  8
DIM
 62
     0
 10
-682.26586968712365
 20
-832.6141862796776
 30
0.0
 11
-682.26586968712365
 21
-833.06069157589752
 31
0.0
  0
LINE
  5
6999
  8
DIM
 62
     1
 10
-681.82996468712372
 20
-832.88069157589757
 30
0.0
 11
-681.64996468712366
 21
-832.88069157589757
 31
0.0
  0
LINE
  5
699A
  8
DIM
 62
     1
 10
-682.4458696871236
 20
-832.88069157589757
 30
0.0
 11
-682.80556439379984
 21
-832.88069157589757
 31
0.0
  0
SOLID
  5
699B
  8
DIM
 62
     1
 10
-681.82996468712372
 20
-832.85069157589771
 30
0.0
 11
-681.82996468712372
 21
-832.91069157589766
 31
0.0
 12
-682.00996468712356
 22
-832.88069157589757
 32
0.0
 13
-682.00996468712356
 23
-832.88069157589757
 33
0.0
  0
SOLID
  5
699C
  8
DIM
 62
     1
 10
-682.4458696871236
 20
-832.85069157589771
 30
0.0
 11
-682.4458696871236
 21
-832.91069157589766
 31
0.0
 12
-682.26586968712365
 22
-832.88069157589757
 32
0.0
 13
-682.26586968712365
 23
-832.88069157589757
 33
0.0
  0
INSERT
  5
699D
  8
DIM
  2
*U52
 10
0.0
 20
0.0
 30
0.0
  0
POINT
  5
699E
  8
DEFPOINTS
 62
     0
 10
-682.00996468712356
 20
-832.5516862796776
 30
0.0
  0
POINT
  5
699F
  8
DEFPOINTS
 62
     0
 10
-682.26586968712365
 20
-832.5516862796776
 30
0.0
  0
POINT
  5
69A0
  8
DEFPOINTS
 62
     0
 10
-682.26586968712365
 20
-832.88069157589757
 30
0.0
  0
ENDBLK
  5
4562
  8
0
  0
BLOCK
  8
0
  2
*D30
 70
     1
 10
0.0
 20
0.0
 30
0.0
  3
*D30
  1

  0
LINE
  5
6A53
  8
DIM
 62
     1
 10
-680.7161611973346
 20
-830.93996279070166
 30
0.0
 11
-680.53616119733442
 21
-830.93996279070166
 31
0.0
  0
LINE
  5
6A54
  8
DIM
 62
     1
 10
-680.53616119733442
 20
-830.93996279070166
 30
0.0
 11
-679.73146057532426
 21
-831.8781119431676
 31
0.0
  0
TEXT
  5
6A55
  8
DIM
 62
     0
 10
-682.22878024495378
 20
-830.98162945736851
 30
0.0
 40
0.125
  1
R0.059 [R1.50]
  0
SOLID
  5
6A56
  8
DIM
 62
     1
 10
-679.70868974812765
 20
-831.85858018879708
 30
0.0
 11
-679.75423140252076
 21
-831.89764369753789
 31
0.0
 12
-679.61427004910195
 22
-832.0147369063468
 32
0.0
 13
-679.61427004910195
 23
-832.0147369063468
 33
0.0
  0
LINE
  5
6A57
  8
DIM
 62
     0
 10
-679.66582179062391
 20
-832.05956127968341
 30
0.0
 11
-679.48582179062373
 21
-832.05956127968341
 31
0.0
  0
LINE
  5
6A58
  8
DIM
 62
     0
 10
-679.57582179062388
 20
-832.14956127968344
 30
0.0
 11
-679.57582179062388
 21
-831.96956127968326
 31
0.0
  0
POINT
  5
6A59
  8
DEFPOINTS
 62
     0
 10
-679.61427004910195
 20
-832.0147369063468
 30
0.0
  0
POINT
  5
6A5A
  8
DEFPOINTS
 62
     0
 10
-679.57582179062376
 20
-832.05956127968318
 30
0.0
  0
ENDBLK
  5
456A
  8
0
  0
BLOCK
  8
0
  2
*D31
 70
     1
 10
0.0
 20
0.0
 30
0.0
  3
*D31
  1

  0
LINE
  5
69FB
  8
DIM
 62
     0
 10
-678.86357573576015
 20
-840.93850685284394
 30
0.0
 11
-678.86357573576015
 21
-838.50403777917074
 31
0.0
  0
LINE
  5
69FC
  8
DIM
 62
     0
 10
-677.19035073576026
 20
-840.93850685284394
 30
0.0
 11
-677.19035073576026
 21
-838.50403777917074
 31
0.0
  0
LINE
  5
69FD
  8
DIM
 62
     1
 10
-679.0435757357601
 20
-838.68403777917058
 30
0.0
 11
-679.22357573576016
 21
-838.68403777917058
 31
0.0
  0
LINE
  5
69FE
  8
DIM
 62
     1
 10
-677.01035073576031
 20
-838.68403777917058
 30
0.0
 11
-676.83035073576025
 21
-838.68403777917058
 31
0.0
  0
SOLID
  5
69FF
  8
DIM
 62
     1
 10
-679.0435757357601
 20
-838.65403777917072
 30
0.0
 11
-679.0435757357601
 21
-838.71403777917055
 31
0.0
 12
-678.86357573576015
 22
-838.68403777917058
 32
0.0
 13
-678.86357573576015
 23
-838.68403777917058
 33
0.0
  0
SOLID
  5
6A00
  8
DIM
 62
     1
 10
-677.01035073576031
 20
-838.65403777917072
 30
0.0
 11
-677.01035073576031
 21
-838.71403777917055
 31
0.0
 12
-677.19035073576026
 22
-838.68403777917058
 32
0.0
 13
-677.19035073576026
 23
-838.68403777917058
 33
0.0
  0
TEXT
  5
6A01
  8
DIM
 62
     0
 10
-678.68874236227111
 20
-838.72570444583721
 30
0.0
 40
0.125
  1
1.673 [42.50]
  0
POINT
  5
6A02
  8
DEFPOINTS
 62
     0
 10
-678.86357573576015
 20
-841.00100685284394
 30
0.0
  0
POINT
  5
6A03
  8
DEFPOINTS
 62
     0
 10
-677.19035073576026
 20
-841.00100685284406
 30
0.0
  0
POINT
  5
6A04
  8
DEFPOINTS
 62
     0
 10
-677.19035073576026
 20
-838.68403777917058
 30
0.0
  0
ENDBLK
  5
5B86
  8
0
  0
BLOCK
  8
0
  2
*D32
 70
     1
 10
0.0
 20
0.0
 30
0.0
  3
*D32
  1

  0
LINE
  5
6AF0
  8
DIM
 62
     0
 10
-677.06277690998479
 20
-840.37248422562334
 30
0.0
 11
-675.86640002868
 21
-840.37248422562334
 31
0.0
  0
LINE
  5
6AF1
  8
DIM
 62
     0
 10
-677.06277690998525
 20
-842.54570822562334
 30
0.0
 11
-675.86640002868
 21
-842.54570822562334
 31
0.0
  0
LINE
  5
6AF2
  8
DIM
 62
     1
 10
-676.04640002867995
 20
-840.55248422562318
 30
0.0
 11
-676.04640002867995
 21
-841.3553038711043
 31
0.0
  0
LINE
  5
6AF3
  8
DIM
 62
     1
 10
-676.04640002867995
 20
-842.36570822562339
 30
0.0
 11
-676.04640002867995
 21
-841.72578006158051
 31
0.0
  0
SOLID
  5
6AF4
  8
DIM
 62
     1
 10
-676.07640002867993
 20
-840.55248422562318
 30
0.0
 11
-676.01640002867987
 21
-840.55248422562318
 31
0.0
 12
-676.04640002867995
 22
-840.37248422562334
 32
0.0
 13
-676.04640002867995
 23
-840.37248422562334
 33
0.0
  0
SOLID
  5
6AF5
  8
DIM
 62
     1
 10
-676.07640002867993
 20
-842.36570822562339
 30
0.0
 11
-676.01640002867987
 21
-842.36570822562339
 31
0.0
 12
-676.04640002867995
 22
-842.54570822562334
 32
0.0
 13
-676.04640002867995
 23
-842.54570822562334
 33
0.0
  0
TEXT
  5
6AF6
  8
DIM
 62
     0
 10
-676.69223336201298
 20
-841.58220863300915
 30
0.0
 40
0.125
  1
2.173 [55.20]
  0
POINT
  5
6AF7
  8
DEFPOINTS
 62
     0
 10
-677.1252769099849
 20
-840.37248422562334
 30
0.0
  0
POINT
  5
6AF8
  8
DEFPOINTS
 62
     0
 10
-677.12527690998525
 20
-842.54570822562334
 30
0.0
  0
POINT
  5
6AF9
  8
DEFPOINTS
 62
     0
 10
-676.04640002867995
 20
-842.54570822562334
 30
0.0
  0
ENDBLK
  5
5B93
  8
0
  0
BLOCK
  8
0
  2
*D33
 70
     1
 10
0.0
 20
0.0
 30
0.0
  3
*D33
  1

  0
LINE
  5
6A5B
  8
DIM
 62
     1
 10
-682.65448686024456
 20
-830.40580002997501
 30
0.0
 11
-682.83448686024656
 21
-830.40580002997501
 31
0.0
  0
LINE
  5
6A5C
  8
DIM
 62
     1
 10
-682.83448686024656
 20
-830.40580002997501
 30
0.0
 11
-684.08533923470293
 21
-831.87518283192605
 31
0.0
  0
TEXT
  5
6A5D
  8
DIM
 62
     0
 10
-682.56448686024453
 20
-830.44746669664175
 30
0.0
 40
0.125
  1
\U+22050.098 [\U+22052.50]
  0
SOLID
  5
6A5E
  8
DIM
 62
     1
 10
-684.10818300819994
 20
-831.85573644376746
 30
0.0
 11
-684.06249546120591
 21
-831.89462922008465
 31
0.0
 12
-684.20201756365464
 22
-832.01224547290838
 32
0.0
 13
-684.20201756365464
 23
-832.01224547290838
 33
0.0
  0
LINE
  5
6A5F
  8
DIM
 62
     0
 10
-684.32391774289692
 20
-832.04971877968285
 30
0.0
 11
-684.14391774289663
 21
-832.04971877968285
 31
0.0
  0
LINE
  5
6A60
  8
DIM
 62
     0
 10
-684.23391774289689
 20
-832.13971877968288
 30
0.0
 11
-684.23391774289689
 21
-831.95971877968282
 31
0.0
  0
POINT
  5
6A61
  8
DEFPOINTS
 62
     0
 10
-684.20201756365464
 20
-832.01224547290838
 30
0.0
  0
POINT
  5
6A62
  8
DEFPOINTS
 62
     0
 10
-684.26581792213869
 20
-832.08719208645675
 30
0.0
  0
ENDBLK
  5
6237
  8
0
  0
BLOCK
  8
0
  2
*D34
 70
     1
 10
0.0
 20
0.0
 30
0.0
  3
*D34
  1

  0
LINE
  5
6A23
  8
DIM
 62
     1
 10
-686.66101590327378
 20
-831.04128593535722
 30
0.0
 11
-686.48101590327349
 21
-831.04128593535722
 31
0.0
  0
LINE
  5
6A24
  8
DIM
 62
     1
 10
-686.48101590327349
 20
-831.04128593535722
 30
0.0
 11
-686.02778021696213
 21
-831.78659836903455
 31
0.0
  0
TEXT
  5
6A25
  8
DIM
 62
     0
 10
-688.17363495089285
 20
-831.08295260202385
 30
0.0
 40
0.125
  1
\U+22050.256 [\U+22056.50]
  0
SOLID
  5
6A26
  8
DIM
 62
     1
 10
-686.00214765246142
 20
-831.77101082153285
 30
0.0
 11
-686.05341278146295
 21
-831.80218591653602
 31
0.0
 12
-685.93425493195275
 22
-831.94039375603927
 32
0.0
 13
-685.93425493195275
 23
-831.94039375603927
 33
0.0
  0
LINE
  5
6A27
  8
DIM
 62
     0
 10
-685.95777274289674
 20
-832.04971877968228
 30
0.0
 11
-685.77777274289667
 21
-832.04971877968228
 31
0.0
  0
LINE
  5
6A28
  8
DIM
 62
     0
 10
-685.86777274289659
 20
-832.13971877968243
 30
0.0
 11
-685.86777274289659
 21
-831.95971877968225
 31
0.0
  0
POINT
  5
6A29
  8
DEFPOINTS
 62
     0
 10
-685.93425493195275
 20
-831.94039375603927
 30
0.0
  0
POINT
  5
6A2A
  8
DEFPOINTS
 62
     0
 10
-685.80129055384009
 20
-832.15904380332506
 30
0.0
  0
ENDBLK
  5
6243
  8
0
  0
BLOCK
  8
0
  2
*D35
 70
     1
 10
0.0
 20
0.0
 30
0.0
  3
*D35
  1

  0
LINE
  5
6A6D
  8
DIM
 62
     1
 10
-685.90178853035718
 20
-843.75607072005209
 30
0.0
 11
-685.72178853035655
 21
-843.75607072005232
 31
0.0
  0
LINE
  5
6A6E
  8
DIM
 62
     1
 10
-685.72178853035655
 20
-843.75607072005232
 30
0.0
 11
-685.50721124996289
 21
-843.11611665348119
 31
0.0
  0
TEXT
  5
6A6F
  8
DIM
 62
     0
 10
-687.41440757797636
 20
-843.79773738671872
 30
0.0
 40
0.125
  1
\U+22050.374 [\U+22059.50]
  0
SOLID
  5
6A70
  8
DIM
 62
     1
 10
-685.53565491347319
 20
-843.10657946279935
 30
0.0
 11
-685.47876758645248
 21
-843.12565384416303
 31
0.0
 12
-685.44998810587185
 22
-842.94545467241824
 32
0.0
 13
-685.44998810587185
 23
-842.94545467241824
 33
0.0
  0
LINE
  5
6A71
  8
DIM
 62
     0
 10
-685.48053723299063
 20
-842.76814872562045
 30
0.0
 11
-685.30053723299056
 21
-842.76814872562045
 31
0.0
  0
LINE
  5
6A72
  8
DIM
 62
     0
 10
-685.39053723299071
 20
-842.85814872562037
 30
0.0
 11
-685.39053723299071
 21
-842.6781487256203
 31
0.0
  0
POINT
  5
6A73
  8
DEFPOINTS
 62
     0
 10
-685.44998810587185
 20
-842.94545467241824
 30
0.0
  0
POINT
  5
6A74
  8
DEFPOINTS
 62
     0
 10
-685.33108636010945
 20
-842.59084277882243
 30
0.0
  0
ENDBLK
  5
632A
  8
0
  0
BLOCK
  8
0
  2
*D36
 70
     1
 10
0.0
 20
0.0
 30
0.0
  3
*D36
  1

  0
LINE
  5
6A75
  8
DIM
 62
     1
 10
-684.75427943236662
 20
-843.29747946807925
 30
0.0
 11
-684.93427943236679
 21
-843.29747946807925
 31
0.0
  0
LINE
  5
6A76
  8
DIM
 62
     1
 10
-684.93427943236679
 20
-843.29747946807925
 30
0.0
 11
-685.23189045708557
 21
-842.95220391451471
 31
0.0
  0
TEXT
  5
6A77
  8
DIM
 62
     0
 10
-684.6642794323667
 20
-843.33914613474599
 30
0.0
 40
0.125
  1
\U+22050.126 [\U+22053.20]
  0
SOLID
  5
6A78
  8
DIM
 62
     1
 10
-685.20916684615679
 20
-842.93261724796946
 30
0.0
 11
-685.25461406801458
 21
-842.97179058105985
 31
0.0
 12
-685.34941045635662
 22
-842.81586224894102
 32
0.0
 13
-685.34941045635662
 23
-842.81586224894102
 33
0.0
  0
LINE
  5
6A79
  8
DIM
 62
     0
 10
-685.4805372329904
 20
-842.76814872561965
 30
0.0
 11
-685.30053723299034
 21
-842.76814872561965
 31
0.0
  0
LINE
  5
6A7A
  8
DIM
 62
     0
 10
-685.39053723299025
 20
-842.85814872561969
 30
0.0
 11
-685.39053723299037
 21
-842.67814872561985
 31
0.0
  0
POINT
  5
6A7B
  8
DEFPOINTS
 62
     0
 10
-685.34941045635662
 20
-842.81586224894102
 30
0.0
  0
POINT
  5
6A7C
  8
DEFPOINTS
 62
     0
 10
-685.43166400962434
 20
-842.72043520229863
 30
0.0
  0
ENDBLK
  5
6336
  8
0
  0
BLOCK
  8
0
  2
*D37
 70
     1
 10
0.0
 20
0.0
 30
0.0
  3
*D37
  1

  0
LINE
  5
6A7D
  8
DIM
 62
     1
 10
-684.58685385915123
 20
-841.88452085168626
 30
0.0
 11
-684.7668538591513
 21
-841.88452085168626
 31
0.0
  0
LINE
  5
6A7E
  8
DIM
 62
     1
 10
-684.7668538591513
 20
-841.88452085168626
 30
0.0
 11
-685.10287455280491
 21
-842.18780081303453
 31
0.0
  0
TEXT
  5
6A7F
  8
DIM
 62
     0
 10
-684.4968538591512
 20
-841.92618751835289
 30
0.0
 40
0.125
  1
\U+22050.256 [\U+22056.50]
  0
SOLID
  5
6A80
  8
DIM
 62
     1
 10
-685.12297501432931
 20
-842.16553039663711
 30
0.0
 11
-685.08277409128061
 21
-842.21007122943183
 31
0.0
 12
-685.23649705118851
 22
-842.30840358218074
 32
0.0
 13
-685.23649705118851
 23
-842.30840358218074
 33
0.0
  0
LINE
  5
6A81
  8
DIM
 62
     0
 10
-685.42148223299068
 20
-842.39413372562024
 30
0.0
 11
-685.24148223299073
 21
-842.39413372562024
 31
0.0
  0
LINE
  5
6A82
  8
DIM
 62
     0
 10
-685.33148223299088
 20
-842.48413372562015
 30
0.0
 11
-685.33148223299065
 21
-842.3041337256202
 31
0.0
  0
POINT
  5
6A83
  8
DEFPOINTS
 62
     0
 10
-685.23649705118851
 20
-842.30840358218074
 30
0.0
  0
POINT
  5
6A84
  8
DEFPOINTS
 62
     0
 10
-685.42646741479314
 20
-842.47986386905995
 30
0.0
  0
ENDBLK
  5
6342
  8
0
  0
BLOCK
  8
0
  2
*D38
 70
     1
 10
0.0
 20
0.0
 30
0.0
  3
*D38
  1

  0
LINE
  5
6A85
  8
DIM
 62
     1
 10
-684.72461370608869
 20
-842.68329085552398
 30
0.0
 11
-684.90461370609262
 21
-842.68329085552398
 31
0.0
  0
LINE
  5
6A86
  8
DIM
 62
     1
 10
-684.90461370609262
 20
-842.68329085552398
 30
0.0
 11
-685.14578491689258
 21
-842.51992351702063
 31
0.0
  0
TEXT
  5
6A87
  8
DIM
 62
     0
 10
-684.63461370608889
 20
-842.72495752219049
 30
0.0
 40
0.125
  1
\U+22050.089 [\U+22052.25]
  0
SOLID
  5
6A88
  8
DIM
 62
     1
 10
-685.12895994604776
 20
-842.49508563554764
 30
0.0
 11
-685.1626098877374
 21
-842.54476139849351
 31
0.0
 12
-685.29481220573086
 22
-842.41897369195135
 32
0.0
 13
-685.29481220573086
 23
-842.41897369195135
 33
0.0
  0
LINE
  5
6A89
  8
DIM
 62
     0
 10
-685.42148223299068
 20
-842.39413372562001
 30
0.0
 11
-685.24148223299085
 21
-842.39413372562035
 31
0.0
  0
LINE
  5
6A8A
  8
DIM
 62
     0
 10
-685.33148223299099
 20
-842.48413372562038
 30
0.0
 11
-685.33148223299088
 21
-842.3041337256202
 31
0.0
  0
POINT
  5
6A8B
  8
DEFPOINTS
 62
     0
 10
-685.29481220573086
 20
-842.41897369195135
 30
0.0
  0
POINT
  5
6A8C
  8
DEFPOINTS
 62
     0
 10
-685.36815226025067
 20
-842.36929375928935
 30
0.0
  0
ENDBLK
  5
634E
  8
0
  0
BLOCK
  8
0
  2
*D39
 70
     1
 10
0.0
 20
0.0
 30
0.0
  3
*D39
  1

  0
LINE
  5
6AE8
  8
DIM
 62
     1
 10
-679.80582565931365
 20
-843.91022680081414
 30
0.0
 11
-679.625825659312
 21
-843.91022680081414
 31
0.0
  0
LINE
  5
6AE9
  8
DIM
 62
     1
 10
-679.625825659312
 20
-843.91022680081414
 30
0.0
 11
-679.02008846120623
 21
-843.02549950133061
 31
0.0
  0
TEXT
  5
6AEA
  8
DIM
 62
     0
 10
-681.31844470693261
 20
-843.95189346748077
 30
0.0
 40
0.125
  1
\U+22050.264 [\U+22056.70]
  0
SOLID
  5
6AEB
  8
DIM
 62
     1
 10
-679.04484249515485
 20
-843.00855140989643
 30
0.0
 11
-678.99533442725726
 21
-843.04244759276469
 31
0.0
 12
-678.91839991260099
 22
-842.87697529763773
 32
0.0
 13
-678.91839991260099
 23
-842.87697529763773
 33
0.0
  0
LINE
  5
6AEC
  8
DIM
 62
     0
 10
-678.93389073576054
 20
-842.76814872562124
 30
0.0
 11
-678.75389073576036
 21
-842.76814872562124
 31
0.0
  0
LINE
  5
6AED
  8
DIM
 62
     0
 10
-678.84389073576051
 20
-842.85814872562105
 30
0.0
 11
-678.84389073576062
 21
-842.67814872562099
 31
0.0
  0
POINT
  5
6AEE
  8
DEFPOINTS
 62
     0
 10
-678.91839991260099
 20
-842.87697529763773
 30
0.0
  0
POINT
  5
6AEF
  8
DEFPOINTS
 62
     0
 10
-678.76938155891992
 20
-842.65932215360453
 30
0.0
  0
ENDBLK
  5
6364
  8
0
  0
BLOCK
  8
0
  2
C
 70
     2
 10
0.0
 20
0.0
 30
0.0
  3
C
  1

  0
ATTDEF
  5
6646
  8
TEXT
 10
15.47785051577857
 20
0.5394050456177202
 30
0.0
 40
0.125
  1

 41
0.75
  7
TXT
 72
     1
 11
15.47785051577857
 21
0.5394050456177202
 31
0.0
  3
ENTER INITIALS
  2
NAME
 70
     4
  0
ATTDEF
  5
6647
  8
TEXT
 10
16.173235976316949
 20
0.5394050456177202
 30
0.0
 40
0.125
  1

 41
0.75
  7
TXT
 72
     1
 11
16.173235976316949
 21
0.5394050456177202
 31
0.0
  3
ENTER DATE
  2
DATE
 70
     4
  0
ATTDEF
  5
6648
  8
TEXT
 10
19.43362280004439
 20
0.7106068173304485
 30
0.0
 40
0.125
  1

 41
0.75
  7
TXT
 72
     1
 11
19.43362280004439
 21
0.7106068173304485
 31
0.0
  3
ENTER TITLE LINE #1
  2
TITLE1
 70
     4
  0
ATTDEF
  5
6649
  8
TEXT
 10
19.38674780004439
 20
0.4994773512041509
 30
0.0
 40
0.125
  1
 
 41
0.75
  7
TXT
 72
     1
 11
19.43362280004439
 21
0.4994773512041509
 31
0.0
  3
ENTER TITLE LINE #2
  2
TITLE2
 70
     4
  0
ATTDEF
  5
664A
  8
TEXT
 10
19.571747588380521
 20
0.1062243331644149
 30
0.0
 40
0.156
  1
 
 41
0.75
  7
TXT
 72
     1
 11
19.63024758838052
 21
0.1062243331644149
 31
0.0
  3
ENTER PART #
  2
PART
 70
     4
  0
ATTDEF
  5
664B
  8
TEXT
 10
19.63024758838052
 20
15.677640836036471
 30
0.0
 40
0.156
  1

 41
0.75
  7
TXT
 72
     1
 11
19.63024758838052
 21
15.677640836036471
 31
0.0
  3
ENTER PART #
  2
PART
 70
     4
  0
ATTDEF
  5
664C
  8
TEXT
 10
11.056897604150739
 20
1.1820123350975611
 30
0.0
 40
0.125
  1

 41
4.9364164263857306
  7
TXT
 72
     5
 11
14.96489394170611
 21
1.1820123350975611
 31
0.0
  3
ENTER CUT SIZE
  2
CUTSIZE
 70
     4
  0
ATTDEF
  5
664D
  8
TEXT
 10
11.194370689128951
 20
0.2867788269611924
 30
0.0
 40
0.125
  1

 41
0.75
  7
TXT
 72
     1
 11
11.194370689128951
 21
0.2867788269611924
 31
0.0
  3
ENTER QUANTITY
  2
QTY
 70
     4
  0
ATTDEF
  5
664E
  8
TEXT
 10
12.139054202526991
 20
0.2867788269611924
 30
0.0
 40
0.125
  1

 41
0.75
  7
TXT
 72
     1
 11
12.139054202526991
 21
0.2867788269611924
 31
0.0
  3
ENTER "USED ON" PART #
  2
USED
 70
     4
  0
ATTDEF
  5
664F
  8
TEXT
 10
15.72398122291402
 20
0.9555323710702353
 30
0.0
 40
0.125
  1
AS NOTED
 41
0.75
  7
TXT
 72
     1
 11
16.08335622291402
 21
0.9555323710702353
 31
0.0
  3
ENTER MATERIAL
  2
MAT
 70
     4
  0
ATTDEF
  5
6650
  8
TEXT
 10
15.70835622291402
 20
0.7436542078606632
 30
0.0
 40
0.125
  1
SEE SPEC.
 41
0.75
  7
TXT
 72
     1
 11
16.08335622291402
 21
0.7436542078606632
 31
0.0
  3
ENTER FINISH
  2
FINISH
 70
     4
  0
LINE
  5
6651
  8
TITLE
 10
20.5
 20
0.0
 30
0.0
 11
20.5
 21
16.0
 31
0.0
  0
LINE
  5
6652
  8
TITLE
 10
0.0
 20
0.0
 30
0.0
 11
20.5
 21
0.0
 31
0.0
  0
LINE
  5
6653
  8
TITLE
 10
0.0
 20
16.0
 30
0.0
 11
0.0
 21
0.0
 31
0.0
  0
LINE
  5
6654
  8
TITLE
 10
0.0
 20
16.0
 30
0.0
 11
20.5
 21
16.0
 31
0.0
  0
LINE
  5
6655
  8
TITLE
 10
11.019999999999991
 20
1.3769999999999989
 30
0.0
 11
11.019999999999991
 21
-0.0000000000000004
 31
0.0
  0
LINE
  5
6656
  8
TITLE
 62
     8
 10
18.6875
 20
15.3125
 30
0.0
 11
18.6875
 21
15.5625
 31
0.0
  0
TEXT
  5
6657
  8
TITLE
 62
     8
 10
18.1875
 20
15.8125
 30
0.0
 40
0.09375
  1
DWG.
  7
TXT
  0
TEXT
  5
6658
  8
TITLE
 62
     8
 10
18.179284683397579
 20
15.39867246868617
 30
0.0
 40
0.09375
  1
ISSUE
  7
TXT
  0
LINE
  5
6659
  8
TITLE
 10
18.0625
 20
15.3125
 30
0.0
 11
18.0625
 21
16.0
 31
0.0
  0
TEXT
  5
665A
  8
TITLE
 62
     8
 10
18.1875
 20
15.65625
 30
0.0
 40
0.09375
  1
NO.
  7
TXT
  0
LINE
  5
665B
  8
TITLE
 62
     8
 10
18.0625
 20
15.3125
 30
0.0
 11
20.5
 21
15.3125
 31
0.0
  0
LINE
  5
665C
  8
TITLE
 62
     8
 10
18.0625
 20
15.5625
 30
0.0
 11
20.5
 21
15.5625
 31
0.0
  0
TEXT
  5
665D
  8
TITLE
 62
     8
 10
19.123240122678091
 20
15.40084779209924
 30
0.0
 40
0.09375
  1
REVISIONS
  7
TXT
  0
TEXT
  5
665E
  8
TITLE
 62
     8
 10
18.4375
 20
0.9903543852819179
 30
0.0
 40
0.09375
  1
NAME:
  7
TXT
  0
TEXT
  5
665F
  8
TITLE
 62
     8
 10
18.4375
 20
0.0631657164931343
 30
0.0
 40
0.0938
  1
NO.
  7
TXT
  0
TEXT
  5
6660
  8
TITLE
 62
     8
 10
18.4375
 20
0.2194990498264686
 30
0.0
 40
0.0938
  1
DWG.
  7
TXT
  0
LINE
  5
6661
  8
TITLE
 62
     8
 10
18.367245600088829
 20
-0.0000000000000004
 30
0.0
 11
18.367245600088829
 21
1.127
 31
0.0
  0
LINE
  5
6662
  8
TITLE
 62
     8
 10
17.436499999999992
 20
1.127
 30
0.0
 11
17.436499999999992
 21
1.3769999999999989
 31
0.0
  0
LINE
  5
6663
  8
TITLE
 10
17.63673299114847
 20
0.859007345151843
 30
0.0
 11
17.66976251320413
 21
0.859007345151843
 31
0.0
  0
ARC
  5
6664
  8
TITLE
 10
17.66976251320413
 20
0.7660701812170974
 30
0.0
 40
0.0929371639347451
 50
0.0
 51
90.0
  0
LINE
  5
6665
  8
TITLE
 10
17.713861299335559
 20
0.7328783369546899
 30
0.0
 11
17.672563709827259
 21
0.7328783369546899
 31
0.0
  0
LINE
  5
6666
  8
TITLE
 10
17.63673299114847
 20
0.5934725910525716
 30
0.0
 11
17.66976251320413
 21
0.5934725910525716
 31
0.0
  0
ARC
  5
6667
  8
TITLE
 10
17.66976251320413
 20
0.6864097549873174
 30
0.0
 40
0.0929371639347451
 50
270.0
 51
0.0
  0
LINE
  5
6668
  8
TITLE
 10
17.713861299335559
 20
0.7196015992497256
 30
0.0
 11
17.672563709827259
 21
0.7196015992497256
 31
0.0
  0
LINE
  5
6669
  8
TITLE
 10
17.63673299114847
 20
0.5934725910525716
 30
0.0
 11
17.63673299114847
 21
0.859007345151843
 31
0.0
  0
LINE
  5
666A
  8
TITLE
 10
17.672563709827259
 20
0.7196015992497256
 30
0.0
 11
17.672563709827259
 21
0.7328783369546899
 31
0.0
  0
LINE
  5
666B
  8
TITLE
 10
17.762699677138869
 20
0.6864097549873174
 30
0.0
 11
17.762699677138869
 21
0.7660701812170974
 31
0.0
  0
LINE
  5
666C
  8
TITLE
 10
17.713861299335559
 20
0.7196015992497256
 30
0.0
 11
17.713861299335559
 21
0.7328783369546899
 31
0.0
  0
LINE
  5
666D
  8
TITLE
 10
17.533884789470829
 20
0.859007345151843
 30
0.0
 11
17.58242241159558
 21
0.859007345151843
 31
0.0
  0
LINE
  5
666E
  8
TITLE
 10
17.462234013953349
 20
0.859007345151843
 30
0.0
 11
17.5107716360781
 21
0.859007345151843
 31
0.0
  0
ARC
  5
666F
  8
TITLE
 10
17.524048373783071
 20
0.6367964281680929
 30
0.0
 40
0.0132767377049636
 50
180.0
 51
262.55571590228629
  0
ARC
  5
6670
  8
TITLE
 10
17.520608051765869
 20
0.6367964281680929
 30
0.0
 40
0.0132767377049636
 50
277.44428409771359
 51
0.0
  0
ARC
  5
6671
  8
TITLE
 10
17.565826489464381
 20
0.6100685131837765
 30
0.0
 40
0.0165959221312045
 50
270.0
 51
0.0
  0
ARC
  5
6672
  8
TITLE
 10
17.478829936084558
 20
0.6100685131837765
 30
0.0
 40
0.0165959221312045
 50
180.0
 51
270.0
  0
LINE
  5
6673
  8
TITLE
 10
17.478829936084558
 20
0.5934725910525716
 30
0.0
 11
17.565826489464381
 21
0.5934725910525716
 31
0.0
  0
LINE
  5
6674
  8
TITLE
 10
17.5107716360781
 20
0.6367964281680929
 30
0.0
 11
17.5107716360781
 21
0.859007345151843
 31
0.0
  0
LINE
  5
6675
  8
TITLE
 10
17.533884789470829
 20
0.6367964281680929
 30
0.0
 11
17.533884789470829
 21
0.859007345151843
 31
0.0
  0
LINE
  5
6676
  8
TITLE
 10
17.462234013953349
 20
0.6100685131837765
 30
0.0
 11
17.462234013953349
 21
0.859007345151843
 31
0.0
  0
LINE
  5
6677
  8
TITLE
 10
17.58242241159558
 20
0.6100685131837765
 30
0.0
 11
17.58242241159558
 21
0.859007345151843
 31
0.0
  0
LINE
  5
6678
  8
TITLE
 10
17.362847454364591
 20
0.7328783369546899
 30
0.0
 11
17.290041021177458
 21
0.7328783369546899
 31
0.0
  0
LINE
  5
6679
  8
TITLE
 10
17.277328786811459
 20
0.859007345151843
 30
0.0
 11
17.362847454364591
 21
0.859007345151843
 31
0.0
  0
LINE
  5
667A
  8
TITLE
 10
17.290041021177458
 20
0.7196015992497256
 30
0.0
 11
17.290041021177458
 21
0.7262399681022083
 31
0.0
  0
LINE
  5
667B
  8
TITLE
 10
17.277328786811459
 20
0.5934725910525716
 30
0.0
 11
17.362847454364591
 21
0.5934725910525716
 31
0.0
  0
LINE
  5
667C
  8
TITLE
 10
17.362847454364591
 20
0.7196015992497256
 30
0.0
 11
17.290041021177458
 21
0.7196015992497256
 31
0.0
  0
LINE
  5
667D
  8
TITLE
 10
17.277328786811459
 20
0.5934725910525716
 30
0.0
 11
17.277328786811459
 21
0.859007345151843
 31
0.0
  0
LINE
  5
667E
  8
TITLE
 10
17.290041021177458
 20
0.7328783369546899
 30
0.0
 11
17.290041021177458
 21
0.7262399681022083
 31
0.0
  0
ARC
  5
667F
  8
TITLE
 10
17.362847454364591
 20
0.7959428410532669
 30
0.0
 40
0.063064504098577
 50
270.0
 51
90.0
  0
ARC
  5
6680
  8
TITLE
 10
17.362847454364591
 20
0.6565370951511496
 30
0.0
 40
0.063064504098577
 50
270.0
 51
90.000000000000057
  0
TEXT
  5
6681
  8
TITLE
 62
     8
 10
16.375499999999999
 20
1.1977407629924841
 30
0.0
 40
0.09375
  1
PART NO.
  7
TXT
  0
TEXT
  5
6682
  8
TITLE
 62
     8
 10
16.702379873900021
 20
0.9755983592151281
 30
0.0
 40
0.09375
  1
SCALE:
  7
TXT
  0
LINE
  5
6683
  8
TITLE
 62
     8
 10
16.66353790782162
 20
-0.0000000000000004
 30
0.0
 11
16.66353790782162
 21
1.127
 31
0.0
  0
TEXT
  5
6684
  8
TITLE
 62
     8
 10
16.763895435670332
 20
0.1249999999999996
 30
0.0
 40
0.09375
  1
WILLOUGHBY, OHIO
  7
TXT
  0
TEXT
  5
6685
  8
TITLE
 62
     8
 10
16.70461451425917
 20
0.3749999999999996
 30
0.0
 40
0.09375
  1
BUD INDUSTRIES, INC.
  7
TXT
  0
LINE
  5
6686
  8
TITLE
 62
     8
 10
18.367245600088829
 20
0.3819999999999992
 30
0.0
 11
20.499999999999979
 21
0.3819999999999992
 31
0.0
  0
TEXT
  5
6687
  8
TITLE
 62
     8
 10
18.502445902853641
 20
1.1977407629924841
 30
0.0
 40
0.09375
  1
DESCRIPTION
  7
TXT
  0
LINE
  5
6688
  8
TITLE
 62
     8
 10
15.937499999999989
 20
1.127
 30
0.0
 11
15.9375
 21
1.3769999999999989
 31
0.0
  0
LINE
  5
6689
  8
TITLE
 62
     8
 10
15.419296480071059
 20
1.127
 30
0.0
 11
15.419296480071059
 21
1.3769999999999989
 31
0.0
  0
TEXT
  5
668A
  8
TITLE
 62
     8
 10
15.470847360053289
 20
1.1977407629924841
 30
0.0
 40
0.09375
  1
REQ'D.
  7
TXT
  0
TEXT
  5
668B
  8
TITLE
 62
     8
 10
15.06299999999999
 20
0.9728772779084607
 30
0.0
 40
0.09375
  1
MAT:
  7
TXT
  0
TEXT
  5
668C
  8
TITLE
 62
     8
 10
15.05657245370309
 20
1.1994078189116251
 30
0.0
 40
0.09375
  1
ITEM
  7
TXT
  0
TEXT
  5
668D
  8
TITLE
 62
     8
 10
15.06299999999999
 20
0.3124999999999996
 30
0.0
 40
0.09375
  1
CH.
  7
TXT
  0
TEXT
  5
668E
  8
TITLE
 62
     8
 10
15.06299999999999
 20
0.56937408094989
 30
0.0
 40
0.09375
  1
DR.
  7
TXT
  0
TEXT
  5
668F
  8
TITLE
 62
     8
 10
15.06299999999999
 20
0.7741181638829385
 30
0.0
 40
0.09375
  1
FINISH:
  7
TXT
  0
TEXT
  5
6690
  8
TITLE
 62
     8
 10
15.06299999999999
 20
0.0624999999999996
 30
0.0
 40
0.09375
  1
APP.
  7
TXT
  0
LINE
  5
6691
  8
TITLE
 62
     8
 10
15.69775609804709
 20
-0.0000000000000004
 30
0.0
 11
15.697756098047099
 21
0.7090000000000011
 31
0.0
  0
LINE
  5
6692
  8
TITLE
 62
     8
 10
15.000499999999979
 20
-0.0000000000000004
 30
0.0
 11
15.000499999999979
 21
1.3769999999999989
 31
0.0
  0
TEXT
  5
6693
  8
TITLE
 10
13.045905996309919
 20
0.9520717565666275
 30
0.0
 40
0.1117888355610499
  1
%%uTOLERANCES:
  7
TXT
  0
TEXT
  5
6694
  8
TITLE
 62
     8
 10
13.091485367583919
 20
0.2344895723568654
 30
0.0
 40
0.0772424143690822
  1
    SURFACES
  7
TXT
  0
TEXT
  5
6695
  8
TITLE
 62
     8
 10
12.99371994674777
 20
0.7494390014840791
 30
0.0
 40
0.0772424143690822
  1
%%p.005 BETWEEN HOLE CENTERS
  7
TXT
  0
TEXT
  5
6696
  8
TITLE
 62
     8
 10
12.99371994674777
 20
0.6207016442022755
 30
0.0
 40
0.0772424143690822
  1
%%p.015 FROM SHEARED EDGE
  7
TXT
  0
TEXT
  5
6697
  8
TITLE
 62
     8
 10
12.99371994674777
 20
0.4919642869204705
 30
0.0
 40
0.0772424143690822
  1
%%p.032 FROM A BENT SURFACE
  7
TXT
  0
TEXT
  5
6698
  8
TITLE
 62
     8
 10
12.99864980528381
 20
0.0564750904941671
 30
0.0
 40
0.0772424143690822
  1
UNLESS OTHERWISE SPECIFIED
  7
TXT
  0
TEXT
  5
6699
  8
TITLE
 62
     8
 10
12.99371994674777
 20
0.363226929638667
 30
0.0
 40
0.0772424143690822
  1
%%p.063 BETWEEN ASSEMBLED
  7
TXT
  0
LINE
  5
669A
  8
TITLE
 62
     8
 10
11.394999999999991
 20
0.0000000000000013
 30
0.0
 11
11.394999999999991
 21
0.2499999999999996
 31
0.0
  0
TEXT
  5
669B
  8
TITLE
 62
     8
 10
11.817259741149361
 20
0.0776282744477839
 30
0.0
 40
0.09375
  1
USED ON
  7
TXT
  0
LINE
  5
669C
  8
TITLE
 62
     8
 10
12.922499999999999
 20
0.0000000000000013
 30
0.0
 11
12.922499999999999
 21
1.127
 31
0.0
  0
LINE
  5
669D
  8
TITLE
 10
11.019999999999991
 20
0.2499999999999996
 30
0.0
 11
12.922499999999999
 21
0.2499999999999996
 31
0.0
  0
LINE
  5
669E
  8
TITLE
 10
12.922499999999999
 20
1.127
 30
0.0
 11
11.019999999999991
 21
1.127
 31
0.0
  0
TEXT
  5
669F
  8
TITLE
 62
     8
 10
11.07174918381226
 20
0.0776282744477839
 30
0.0
 40
0.09375
  1
QTY.
  7
TXT
  0
LINE
  5
66A0
  8
TITLE
 10
15.000499999999979
 20
1.3769999999999989
 30
0.0
 11
11.019999999999991
 21
1.3769999999999989
 31
0.0
  0
LINE
  5
66A1
  8
TITLE
 10
15.000499999999979
 20
1.3769999999999989
 30
0.0
 11
20.499999999999979
 21
1.3769999999999989
 31
0.0
  0
LINE
  5
66A2
  8
TITLE
 10
12.922499999999999
 20
1.127
 30
0.0
 11
20.499999999999979
 21
1.127
 31
0.0
  0
LINE
  5
66A3
  8
TITLE
 10
15.000499999999979
 20
0.9180000000000006
 30
0.0
 11
18.367245600088829
 21
0.9180000000000006
 31
0.0
  0
LINE
  5
66A4
  8
TITLE
 10
15.000499999999979
 20
0.2499999999999996
 30
0.0
 11
16.66353790782162
 21
0.2499999999999996
 31
0.0
  0
LINE
  5
66A5
  8
TITLE
 10
15.000499999999979
 20
0.7090000000000011
 30
0.0
 11
16.66353790782162
 21
0.7090000000000011
 31
0.0
  0
LINE
  5
66A6
  8
TITLE
 10
15.000499999999979
 20
0.4999999999999997
 30
0.0
 11
16.66353790782162
 21
0.4999999999999997
 31
0.0
  0
ENDBLK
  5
66A8
  8
0
  0
BLOCK
  8
0
  2
REVCHART
 70
     2
 10
0.0
 20
0.0
 30
0.0
  3
REVCHART
  1

  0
LINE
  5
6AFD
  8
TITLE
 10
0.0
 20
-0.4490261412504335
 30
0.0
 11
2.437499999999996
 21
-0.4490261412504335
 31
0.0
  0
CIRCLE
  5
6AFE
  8
TEXT
 10
0.3124999999999982
 20
-0.2245130706252176
 30
0.0
 40
0.116518833587197
  0
ATTDEF
  5
6AFF
  8
TEXT
 10
0.3124999999999982
 20
-0.2245130706252176
 30
0.0
 40
0.15
  1

 41
0.75
  7
TXT
 72
     4
 11
0.3124999999999982
 21
-0.2245130706252176
 31
0.0
  3
ENTER REV. LEVEL
  2
REV
 70
     4
  0
LINE
  5
6B00
  8
TITLE
 10
0.6249999999999983
 20
-0.4490261412504335
 30
0.0
 11
0.625
 21
0.0
 31
0.0
  0
LINE
  5
6B01
  8
TITLE
 10
-0.0000000000000018
 20
-0.4490261412504335
 30
0.0
 11
0.0
 21
0.0
 31
0.0
  0
ATTDEF
  5
6B02
  8
TEXT
 62
     1
 10
0.717248825001601
 20
-0.1932596702550384
 30
0.0
 40
0.125
  1

 41
0.75
  7
TXT
  3
ENTER LINE #1
  2
REV1
 70
     4
  0
ATTDEF
  5
6B03
  8
TEXT
 62
     1
 10
0.717248825001601
 20
-0.4015930035883724
 30
0.0
 40
0.125
  1

 41
0.75
  7
TXT
  3
ENTER LINE #2
  2
REV2
 70
     4
  0
ENDBLK
  5
6B05
  8
0
  0
BLOCK
  8
0
  2
*X42
 70
     1
 10
0.0
 20
0.0
 30
0.0
  3
*X42
  1

  0
LINE
  5
6EB0
  8
0
 62
     0
 10
-681.76835245964674
 20
-839.80757992046608
 30
0.0
 11
-681.75824623837138
 21
-839.79747369919085
 31
0.0
  0
LINE
  5
6EB1
  8
0
 62
     0
 10
-681.8037077279954
 20
-839.80757992046608
 30
0.0
 11
-681.75824623837116
 21
-839.76211843084207
 31
0.0
  0
LINE
  5
6EB2
  8
0
 62
     0
 10
-681.83985043152018
 20
-839.80836735564219
 30
0.0
 11
-681.79176380149795
 21
-839.76028072562019
 31
0.0
  0
LINE
  5
6EB3
  8
0
 62
     0
 10
-681.87648500745036
 20
-839.8096466632237
 30
0.0
 11
-681.81730123837133
 21
-839.7504628941449
 31
0.0
  0
LINE
  5
6EB4
  8
0
 62
     0
 10
-681.91311958338042
 20
-839.81092597080533
 30
0.0
 11
-681.81923486181404
 21
-839.71704124923872
 31
0.0
  0
LINE
  5
6EB5
  8
0
 62
     0
 10
-681.94975415931037
 20
-839.81220527838661
 30
0.0
 11
-681.8558694377441
 21
-839.71832055682034
 31
0.0
  0
LINE
  5
6EB6
  8
0
 62
     0
 10
-681.98638873524078
 20
-839.81348458596835
 30
0.0
 11
-681.89250401367428
 21
-839.71959986440174
 31
0.0
  0
LINE
  5
6EB7
  8
0
 62
     0
 10
-682.02302331117085
 20
-839.81476389354964
 30
0.0
 11
-681.92913858960435
 21
-839.72087917198314
 31
0.0
  0
LINE
  5
6EB8
  8
0
 62
     0
 10
-682.05965788710091
 20
-839.81604320113115
 30
0.0
 11
-681.96577316553464
 21
-839.72215847956477
 31
0.0
  0
LINE
  5
6EB9
  8
0
 62
     0
 10
-682.26258650222564
 20
-840.01897181625588
 30
0.0
 11
-682.23068623837128
 21
-839.98707155240129
 31
0.0
  0
LINE
  5
6EBA
  8
0
 62
     0
 10
-682.21296213285495
 20
-839.9339921785363
 30
0.0
 11
-682.00240774146471
 21
-839.72343778714605
 31
0.0
  0
LINE
  5
6EBB
  8
0
 62
     0
 10
-682.29733522928734
 20
-840.01836527496869
 30
0.0
 11
-682.23068623837128
 21
-839.95171628405285
 31
0.0
  0
LINE
  5
6EBC
  8
0
 62
     0
 10
-682.30942623837132
 20
-839.99510101570422
 30
0.0
 11
-682.03904231739477
 21
-839.72471709472768
 31
0.0
  0
LINE
  5
6EBD
  8
0
 62
     0
 10
-682.30942623837132
 20
-839.95974574735556
 30
0.0
 11
-682.07567689332495
 21
-839.72599640230919
 31
0.0
  0
LINE
  5
6EBE
  8
0
 62
     0
 10
-682.30942623837143
 20
-839.924390479007
 30
0.0
 11
-682.1757243938074
 21
-839.79068863444309
 31
0.0
  0
ENDBLK
  5
6EC0
  8
0
  0
BLOCK
  8
0
  2
*X43
 70
     1
 10
0.0
 20
0.0
 30
0.0
  3
*X43
  1

  0
LINE
  5
6EC2
  8
0
 62
     0
 10
-681.75993377168038
 20
-843.15791172562137
 30
0.0
 11
-681.75824623835479
 21
-843.15622419229567
 31
0.0
  0
LINE
  5
6EC3
  8
0
 62
     0
 10
-681.79528904002927
 20
-843.1579117256216
 30
0.0
 11
-681.75824623835524
 21
-843.12086892394746
 31
0.0
  0
LINE
  5
6EC4
  8
0
 62
     0
 10
-681.83787750110127
 20
-843.20050018669372
 30
0.0
 11
-681.8173012383545
 21
-843.17992392394683
 31
0.0
  0
LINE
  5
6EC5
  8
0
 62
     0
 10
-681.87203979583069
 20
-843.19930721307435
 30
0.0
 11
-681.78334511353205
 21
-843.1106125307756
 31
0.0
  0
LINE
  5
6EC6
  8
0
 62
     0
 10
-681.90620209056033
 20
-843.19811423945532
 30
0.0
 11
-681.81865317134088
 21
-843.11056532023599
 31
0.0
  0
LINE
  5
6EC7
  8
0
 62
     0
 10
-681.94036438528963
 20
-843.19692126583618
 30
0.0
 11
-681.85281546607041
 21
-843.10937234661685
 31
0.0
  0
LINE
  5
6EC8
  8
0
 62
     0
 10
-681.97452668001904
 20
-843.19572829221693
 30
0.0
 11
-681.8869777607996
 21
-843.1081793729976
 31
0.0
  0
LINE
  5
6EC9
  8
0
 62
     0
 10
-682.00868897474845
 20
-843.19453531859767
 30
0.0
 11
-681.92114005552912
 21
-843.10698639937834
 31
0.0
  0
LINE
  5
6ECA
  8
0
 62
     0
 10
-682.04285126947775
 20
-843.19334234497842
 30
0.0
 11
-681.95530235025853
 21
-843.10579342575909
 31
0.0
  0
LINE
  5
6ECB
  8
0
 62
     0
 10
-682.07701356420728
 20
-843.19214937135905
 30
0.0
 11
-681.98946464498795
 21
-843.10460045213995
 31
0.0
  0
LINE
  5
6ECC
  8
0
 62
     0
 10
-682.10355974864808
 20
-843.1833402874513
 30
0.0
 11
-682.02362693971725
 21
-843.10340747852069
 31
0.0
  0
LINE
  5
6ECD
  8
0
 62
     0
 10
-682.12349239047342
 20
-843.16791766092786
 30
0.0
 11
-682.05778923444666
 21
-843.10221450490155
 31
0.0
  0
LINE
  5
6ECE
  8
0
 62
     0
 10
-682.14342503229875
 20
-843.15249503440475
 30
0.0
 11
-682.07887695838019
 21
-843.08794696048619
 31
0.0
  0
LINE
  5
6ECF
  8
0
 62
     0
 10
-682.16335767412397
 20
-843.13707240788142
 30
0.0
 11
-682.09880960020553
 21
-843.07252433396275
 31
0.0
  0
LINE
  5
6ED0
  8
0
 62
     0
 10
-682.18329031594942
 20
-843.12164978135786
 30
0.0
 11
-682.11874224203075
 21
-843.0571017074393
 31
0.0
  0
LINE
  5
6ED1
  8
0
 62
     0
 10
-682.20322295777476
 20
-843.10622715483476
 30
0.0
 11
-682.13867488385608
 21
-843.04167908091608
 31
0.0
  0
LINE
  5
6ED2
  8
0
 62
     0
 10
-682.22315559959986
 20
-843.0908045283112
 30
0.0
 11
-682.15860752568142
 21
-843.02625645439275
 31
0.0
  0
LINE
  5
6ED3
  8
0
 62
     0
 10
-682.24308824142531
 20
-843.07538190178798
 30
0.0
 11
-682.17854016750675
 21
-843.01083382786919
 31
0.0
  0
LINE
  5
6ED4
  8
0
 62
     0
 10
-682.26302088325053
 20
-843.05995927526465
 30
0.0
 11
-682.19847280933186
 21
-842.99541120134597
 31
0.0
  0
LINE
  5
6ED5
  8
0
 62
     0
 10
-682.28295352507575
 20
-843.04453664874131
 30
0.0
 11
-682.21840545115731
 21
-842.97998857482276
 31
0.0
  0
LINE
  5
6ED6
  8
0
 62
     0
 10
-682.30179875564284
 20
-843.02802661095961
 30
0.0
 11
-682.23068623835672
 21
-842.9569140936735
 31
0.0
  0
LINE
  5
6ED7
  8
0
 62
     0
 10
-682.3094262383562
 20
-843.00029882532419
 30
0.0
 11
-682.23068623835695
 21
-842.92155882532506
 31
0.0
  0
LINE
  5
6ED8
  8
0
 62
     0
 10
-682.30942623835654
 20
-842.9649435569761
 30
0.0
 11
-682.24336785361186
 21
-842.89888517223142
 31
0.0
  0
LINE
  5
6ED9
  8
0
 62
     0
 10
-682.30942623835699
 20
-842.92958828862766
 30
0.0
 11
-682.27935121385008
 21
-842.89951326412097
 31
0.0
  0
ENDBLK
  5
6EDB
  8
0
  0
BLOCK
  8
0
  2
*X44
 70
     1
 10
0.0
 20
0.0
 30
0.0
  3
*X44
  1

  0
LINE
  5
6EDD
  8
0
 62
     0
 10
-682.26437050455479
 20
-842.63704567638501
 30
0.0
 11
-682.23068623836014
 21
-842.60336141019025
 31
0.0
  0
LINE
  5
6EDE
  8
0
 62
     0
 10
-682.29911923161683
 20
-842.63643913509827
 30
0.0
 11
-682.23068623836036
 21
-842.56800614184203
 31
0.0
  0
LINE
  5
6EDF
  8
0
 62
     0
 10
-682.30942623835995
 20
-842.61139087349295
 30
0.0
 11
-682.23068623836093
 21
-842.53265087349382
 31
0.0
  0
LINE
  5
6EE0
  8
0
 62
     0
 10
-682.28974123834996
 20
-842.5563506051343
 30
0.0
 11
-682.23068623836105
 21
-842.4972956051455
 31
0.0
  0
LINE
  5
6EE1
  8
0
 62
     0
 10
-682.30942623836074
 20
-842.54068033679641
 30
0.0
 11
-682.2306862383615
 21
-842.46194033679706
 31
0.0
  0
LINE
  5
6EE2
  8
0
 62
     0
 10
-682.30942623836108
 20
-842.50532506844809
 30
0.0
 11
-682.23068623836184
 21
-842.42658506844896
 31
0.0
  0
LINE
  5
6EE3
  8
0
 62
     0
 10
-682.30942623836143
 20
-842.46996980009965
 30
0.0
 11
-682.23068623836207
 21
-842.3912298001004
 31
0.0
  0
LINE
  5
6EE4
  8
0
 62
     0
 10
-682.30942623836188
 20
-842.43461453175155
 30
0.0
 11
-682.23068623836252
 21
-842.35587453175231
 31
0.0
  0
LINE
  5
6EE5
  8
0
 62
     0
 10
-682.30942623836222
 20
-842.39925926340322
 30
0.0
 11
-682.23068623836275
 21
-842.32051926340387
 31
0.0
  0
LINE
  5
6EE6
  8
0
 62
     0
 10
-682.30942623836256
 20
-842.3639039950549
 30
0.0
 11
-682.23068623836309
 21
-842.28516399505543
 31
0.0
  0
LINE
  5
6EE7
  8
0
 62
     0
 10
-682.30942623836279
 20
-842.32854872670646
 30
0.0
 11
-682.23068623836343
 21
-842.24980872670722
 31
0.0
  0
LINE
  5
6EE8
  8
0
 62
     0
 10
-682.30942623836324
 20
-842.29319345835825
 30
0.0
 11
-682.23068623836389
 21
-842.21445345835889
 31
0.0
  0
LINE
  5
6EE9
  8
0
 62
     0
 10
-682.30942623836347
 20
-842.25783819001003
 30
0.0
 11
-682.23068623836423
 21
-842.17909819001068
 31
0.0
  0
LINE
  5
6EEA
  8
0
 62
     0
 10
-682.30942623836404
 20
-842.22248292166171
 30
0.0
 11
-682.23068623836446
 21
-842.14374292166235
 31
0.0
  0
LINE
  5
6EEB
  8
0
 62
     0
 10
-682.30942623836427
 20
-842.1871276533135
 30
0.0
 11
-682.2306862383648
 21
-842.10838765331425
 31
0.0
  0
LINE
  5
6EEC
  8
0
 62
     0
 10
-682.30942623836461
 20
-842.15177238496506
 30
0.0
 11
-682.23068623836525
 21
-842.07303238496581
 31
0.0
  0
LINE
  5
6EED
  8
0
 62
     0
 10
-682.30942623836495
 20
-842.11641711661684
 30
0.0
 11
-682.23068623836559
 21
-842.03767711661749
 31
0.0
  0
LINE
  5
6EEE
  8
0
 62
     0
 10
-682.30942623836518
 20
-842.0810618482684
 30
0.0
 11
-682.23068623836593
 21
-842.00232184826905
 31
0.0
  0
LINE
  5
6EEF
  8
0
 62
     0
 10
-682.30942623836563
 20
-842.04570657992031
 30
0.0
 11
-682.23068623836616
 21
-841.96696657992084
 31
0.0
  0
LINE
  5
6EF0
  8
0
 62
     0
 10
-682.30942623836597
 20
-842.01035131157187
 30
0.0
 11
-682.23068623836662
 21
-841.93161131157262
 31
0.0
  0
LINE
  5
6EF1
  8
0
 62
     0
 10
-682.30942623836631
 20
-841.97499604322365
 30
0.0
 11
-682.23068623836696
 21
-841.89625604322407
 31
0.0
  0
LINE
  5
6EF2
  8
0
 62
     0
 10
-682.30942623836665
 20
-841.93964077487522
 30
0.0
 11
-682.2306862383673
 21
-841.86090077487586
 31
0.0
  0
LINE
  5
6EF3
  8
0
 62
     0
 10
-682.30942623836688
 20
-841.90428550652689
 30
0.0
 11
-682.23068623836764
 21
-841.82554550652742
 31
0.0
  0
LINE
  5
6EF4
  8
0
 62
     0
 10
-682.30942623836734
 20
-841.86893023817845
 30
0.0
 11
-682.23068623836809
 21
-841.79019023817921
 31
0.0
  0
LINE
  5
6EF5
  8
0
 62
     0
 10
-682.30942623836768
 20
-841.83357496983035
 30
0.0
 11
-682.23068623836843
 21
-841.75483496983088
 31
0.0
  0
LINE
  5
6EF6
  8
0
 62
     0
 10
-682.30942623836813
 20
-841.79821970148203
 30
0.0
 11
-682.23068623836878
 21
-841.71947970148256
 31
0.0
  0
LINE
  5
6EF7
  8
0
 62
     0
 10
-682.30942623836836
 20
-841.76286443313393
 30
0.0
 11
-682.230686238369
 21
-841.68412443313434
 31
0.0
  0
LINE
  5
6EF8
  8
0
 62
     0
 10
-682.3094262383687
 20
-841.72750916478549
 30
0.0
 11
-682.23068623836934
 21
-841.64876916478624
 31
0.0
  0
LINE
  5
6EF9
  8
0
 62
     0
 10
-682.30942623836904
 20
-841.69215389643716
 30
0.0
 11
-682.23068623836969
 21
-841.61341389643792
 31
0.0
  0
LINE
  5
6EFA
  8
0
 62
     0
 10
-682.30942623836927
 20
-841.65679862808884
 30
0.0
 11
-682.23068623837014
 21
-841.57805862808948
 31
0.0
  0
LINE
  5
6EFB
  8
0
 62
     0
 10
-682.30942623836972
 20
-841.62144335974062
 30
0.0
 11
-682.23068623837048
 21
-841.54270335974115
 31
0.0
  0
LINE
  5
6EFC
  8
0
 62
     0
 10
-682.30942623836995
 20
-841.58608809139207
 30
0.0
 11
-682.23068623837082
 21
-841.50734809139283
 31
0.0
  0
LINE
  5
6EFD
  8
0
 62
     0
 10
-682.30942623837041
 20
-841.55073282304375
 30
0.0
 11
-682.23068623837116
 21
-841.47199282304473
 31
0.0
  0
LINE
  5
6EFE
  8
0
 62
     0
 10
-682.30942623837075
 20
-841.51537755469542
 30
0.0
 11
-682.23068623837128
 21
-841.43663755469595
 31
0.0
  0
LINE
  5
6EFF
  8
0
 62
     0
 10
-682.30942623837109
 20
-841.48002228634732
 30
0.0
 11
-682.23068623837128
 21
-841.4012822863474
 31
0.0
  0
LINE
  5
6F00
  8
0
 62
     0
 10
-682.30942623837132
 20
-841.44466701799888
 30
0.0
 11
-682.23068623837128
 21
-841.36592701799873
 31
0.0
  0
LINE
  5
6F01
  8
0
 62
     0
 10
-682.30942623837143
 20
-841.40931174965021
 30
0.0
 11
-682.23068623837128
 21
-841.33057174965018
 31
0.0
  0
LINE
  5
6F02
  8
0
 62
     0
 10
-682.30942623837143
 20
-841.37395648130155
 30
0.0
 11
-682.23068623837128
 21
-841.29521648130151
 31
0.0
  0
LINE
  5
6F03
  8
0
 62
     0
 10
-682.30942623837143
 20
-841.33860121295277
 30
0.0
 11
-682.23068623837128
 21
-841.25986121295284
 31
0.0
  0
LINE
  5
6F04
  8
0
 62
     0
 10
-682.30942623837143
 20
-841.3032459446041
 30
0.0
 11
-682.23068623837128
 21
-841.22450594460406
 31
0.0
  0
LINE
  5
6F05
  8
0
 62
     0
 10
-682.30942623837132
 20
-841.26789067625555
 30
0.0
 11
-682.23068623837128
 21
-841.18915067625562
 31
0.0
  0
LINE
  5
6F06
  8
0
 62
     0
 10
-682.30942623837132
 20
-841.23253540790688
 30
0.0
 11
-682.23068623837128
 21
-841.15379540790696
 31
0.0
  0
LINE
  5
6F07
  8
0
 62
     0
 10
-682.30942623837132
 20
-841.19718013955833
 30
0.0
 11
-682.23068623837128
 21
-841.11844013955829
 31
0.0
  0
LINE
  5
6F08
  8
0
 62
     0
 10
-682.30942623837132
 20
-841.16182487120955
 30
0.0
 11
-682.23068623837128
 21
-841.08308487120962
 31
0.0
  0
LINE
  5
6F09
  8
0
 62
     0
 10
-682.30942623837132
 20
-841.12646960286111
 30
0.0
 11
-682.23068623837128
 21
-841.04772960286095
 31
0.0
  0
LINE
  5
6F0A
  8
0
 62
     0
 10
-682.30942623837132
 20
-841.09111433451244
 30
0.0
 11
-682.23068623837128
 21
-841.01237433451217
 31
0.0
  0
LINE
  5
6F0B
  8
0
 62
     0
 10
-682.30942623837132
 20
-841.05575906616366
 30
0.0
 11
-682.23068623837128
 21
-840.97701906616351
 31
0.0
  0
LINE
  5
6F0C
  8
0
 62
     0
 10
-682.30942623837132
 20
-841.02040379781499
 30
0.0
 11
-682.23068623837128
 21
-840.94166379781495
 31
0.0
  0
LINE
  5
6F0D
  8
0
 62
     0
 10
-682.30942623837132
 20
-840.98504852946655
 30
0.0
 11
-682.23068623837128
 21
-840.90630852946629
 31
0.0
  0
LINE
  5
6F0E
  8
0
 62
     0
 10
-682.30942623837132
 20
-840.94969326111777
 30
0.0
 11
-682.23068623837128
 21
-840.87095326111785
 31
0.0
  0
LINE
  5
6F0F
  8
0
 62
     0
 10
-682.30942623837132
 20
-840.91433799276911
 30
0.0
 11
-682.23068623837128
 21
-840.83559799276907
 31
0.0
  0
LINE
  5
6F10
  8
0
 62
     0
 10
-682.30942623837143
 20
-840.87898272442044
 30
0.0
 11
-682.23068623837128
 21
-840.8002427244204
 31
0.0
  0
LINE
  5
6F11
  8
0
 62
     0
 10
-682.30942623837143
 20
-840.84362745607189
 30
0.0
 11
-682.23068623837128
 21
-840.76488745607185
 31
0.0
  0
LINE
  5
6F12
  8
0
 62
     0
 10
-682.30942623837132
 20
-840.80827218772322
 30
0.0
 11
-682.23068623837128
 21
-840.72953218772307
 31
0.0
  0
LINE
  5
6F13
  8
0
 62
     0
 10
-682.30942623837132
 20
-840.77291691937455
 30
0.0
 11
-682.23068623837128
 21
-840.6941769193744
 31
0.0
  0
LINE
  5
6F14
  8
0
 62
     0
 10
-682.30942623837132
 20
-840.73756165102589
 30
0.0
 11
-682.23068623837128
 21
-840.65882165102573
 31
0.0
  0
LINE
  5
6F15
  8
0
 62
     0
 10
-682.30942623837132
 20
-840.70220638267722
 30
0.0
 11
-682.23068623837128
 21
-840.62346638267718
 31
0.0
  0
LINE
  5
6F16
  8
0
 62
     0
 10
-682.30942623837132
 20
-840.66685111432855
 30
0.0
 11
-682.23068623837128
 21
-840.58811111432851
 31
0.0
  0
LINE
  5
6F17
  8
0
 62
     0
 10
-682.30942623837132
 20
-840.63149584597977
 30
0.0
 11
-682.23068623837128
 21
-840.55275584597985
 31
0.0
  0
LINE
  5
6F18
  8
0
 62
     0
 10
-682.30942623837132
 20
-840.59614057763133
 30
0.0
 11
-682.23068623837128
 21
-840.51740057763107
 31
0.0
  0
LINE
  5
6F19
  8
0
 62
     0
 10
-682.30942623837132
 20
-840.56078530928255
 30
0.0
 11
-682.23068623837128
 21
-840.4820453092824
 31
0.0
  0
LINE
  5
6F1A
  8
0
 62
     0
 10
-682.30942623837132
 20
-840.52543004093388
 30
0.0
 11
-682.23068623837128
 21
-840.44669004093385
 31
0.0
  0
LINE
  5
6F1B
  8
0
 62
     0
 10
-682.30942623837132
 20
-840.49007477258544
 30
0.0
 11
-682.23068623837128
 21
-840.41133477258518
 31
0.0
  0
LINE
  5
6F1C
  8
0
 62
     0
 10
-682.30942623837132
 20
-840.45471950423666
 30
0.0
 11
-682.23068623837128
 21
-840.37597950423651
 31
0.0
  0
LINE
  5
6F1D
  8
0
 62
     0
 10
-682.30942623837132
 20
-840.419364235888
 30
0.0
 11
-682.23068623837128
 21
-840.34062423588796
 31
0.0
  0
LINE
  5
6F1E
  8
0
 62
     0
 10
-682.28974123837122
 20
-840.36432396753935
 30
0.0
 11
-682.26246849645224
 21
-840.33705122562037
 31
0.0
  0
LINE
  5
6F1F
  8
0
 62
     0
 10
-682.30942623837132
 20
-840.38400896753944
 30
0.0
 11
-682.2979014964551
 21
-840.37248422562334
 31
0.0
  0
ENDBLK
  5
6F21
  8
0
  0
BLOCK
  8
0
  2
*X45
 70
     1
 10
0.0
 20
0.0
 30
0.0
  3
*X45
  1

  0
LINE
  5
6F23
  8
0
 62
     0
 10
-682.24336785361186
 20
-842.89888517223142
 30
0.0
 11
-682.23068623835741
 21
-842.88620355697685
 31
0.0
  0
LINE
  5
6F24
  8
0
 62
     0
 10
-682.27935121385008
 20
-842.89951326412097
 30
0.0
 11
-682.23068623835775
 21
-842.85084828862841
 31
0.0
  0
LINE
  5
6F25
  8
0
 62
     0
 10
-682.30942623835733
 20
-842.89423302027944
 30
0.0
 11
-682.23068623835798
 21
-842.8154930202802
 31
0.0
  0
LINE
  5
6F26
  8
0
 62
     0
 10
-682.30942623835767
 20
-842.858877751931
 30
0.0
 11
-682.23068623835843
 21
-842.78013775193187
 31
0.0
  0
LINE
  5
6F27
  8
0
 62
     0
 10
-682.3094262383579
 20
-842.82352248358268
 30
0.0
 11
-682.23068623835877
 21
-842.74478248358355
 31
0.0
  0
LINE
  5
6F28
  8
0
 62
     0
 10
-682.30942623835836
 20
-842.78816721523447
 30
0.0
 11
-682.23068623835911
 21
-842.70942721523545
 31
0.0
  0
LINE
  5
6F29
  8
0
 62
     0
 10
-682.3094262383587
 20
-842.75281194688625
 30
0.0
 11
-682.23068623835945
 21
-842.67407194688701
 31
0.0
  0
LINE
  5
6F2A
  8
0
 62
     0
 10
-682.30942623835904
 20
-842.71745667853781
 30
0.0
 11
-682.23068623835991
 21
-842.63871667853869
 31
0.0
  0
LINE
  5
6F2B
  8
0
 62
     0
 10
-682.30942623835938
 20
-842.68210141018949
 30
0.0
 11
-682.26437050455479
 21
-842.63704567638501
 31
0.0
  0
LINE
  5
6F2C
  8
0
 62
     0
 10
-682.30942623835972
 20
-842.64674614184128
 30
0.0
 11
-682.29911923161683
 21
-842.63643913509827
 31
0.0
  0
ENDBLK
  5
6F2E
  8
0
  0
BLOCK
  8
0
  2
*X46
 70
     1
 10
0.0
 20
0.0
 30
0.0
  3
*X46
  1

  0
LINE
  5
6F30
  8
0
 62
     0
 10
-682.26246849645224
 20
-840.33705122562037
 30
0.0
 11
-682.23068623837128
 21
-840.3052689675394
 31
0.0
  0
LINE
  5
6F31
  8
0
 62
     0
 10
-682.24152046511972
 20
-840.28074792593918
 30
0.0
 11
-682.23068623837128
 21
-840.26991369919074
 31
0.0
  0
LINE
  5
6F32
  8
0
 62
     0
 10
-682.29388676480346
 20
-840.33311422562315
 30
0.0
 11
-682.24152046511972
 21
-840.28074792593918
 31
0.0
  0
LINE
  5
6F33
  8
0
 62
     0
 10
-682.27750382535771
 20
-840.28137601782839
 30
0.0
 11
-682.23068623837128
 21
-840.23455843084196
 31
0.0
  0
LINE
  5
6F34
  8
0
 62
     0
 10
-682.30942623837132
 20
-840.313298430842
 30
0.0
 11
-682.27750382535771
 21
-840.28137601782839
 31
0.0
  0
LINE
  5
6F35
  8
0
 62
     0
 10
-682.30942623837132
 20
-840.27794316249333
 30
0.0
 11
-682.23068623837128
 21
-840.19920316249329
 31
0.0
  0
LINE
  5
6F36
  8
0
 62
     0
 10
-682.30942623837132
 20
-840.24258789414478
 30
0.0
 11
-682.23068623837128
 21
-840.16384789414462
 31
0.0
  0
LINE
  5
6F37
  8
0
 62
     0
 10
-682.30942623837132
 20
-840.20723262579611
 30
0.0
 11
-682.23068623837128
 21
-840.12849262579607
 31
0.0
  0
LINE
  5
6F38
  8
0
 62
     0
 10
-682.30942623837132
 20
-840.17187735744744
 30
0.0
 11
-682.23068623837128
 21
-840.0931373574474
 31
0.0
  0
LINE
  5
6F39
  8
0
 62
     0
 10
-682.30942623837132
 20
-840.13652208909889
 30
0.0
 11
-682.23068623837128
 21
-840.05778208909874
 31
0.0
  0
LINE
  5
6F3A
  8
0
 62
     0
 10
-682.30942623837132
 20
-840.10116682075022
 30
0.0
 11
-682.23068623837128
 21
-840.02242682074996
 31
0.0
  0
LINE
  5
6F3B
  8
0
 62
     0
 10
-682.30942623837132
 20
-840.06581155240156
 30
0.0
 11
-682.26258650222564
 21
-840.01897181625588
 31
0.0
  0
LINE
  5
6F3C
  8
0
 62
     0
 10
-682.30942623837132
 20
-840.03045628405278
 30
0.0
 11
-682.29733522928734
 21
-840.01836527496869
 31
0.0
  0
ENDBLK
  5
6F3E
  8
0
  0
BLOCK
  8
0
  2
*X47
 70
     1
 10
0.0
 20
0.0
 30
0.0
  3
*X47
  1

  0
LINE
  5
6F40
  8
0
 62
     0
 10
-671.35460043452144
 20
-838.68439800037095
 30
0.0
 11
-671.34811667915517
 21
-838.67791424500467
 31
0.0
  0
LINE
  5
6F41
  8
0
 62
     0
 10
-671.38876272925052
 20
-838.68320502675124
 30
0.0
 11
-671.35081212059572
 21
-838.64525441809656
 31
0.0
  0
LINE
  5
6F42
  8
0
 62
     0
 10
-671.4229250239797
 20
-838.68201205313176
 30
0.0
 11
-671.38616738894439
 21
-838.64525441809656
 31
0.0
  0
LINE
  5
6F43
  8
0
 62
     0
 10
-671.45708731870877
 20
-838.68081907951216
 30
0.0
 11
-671.38748667915127
 21
-838.61121843995465
 31
0.0
  0
LINE
  5
6F44
  8
0
 62
     0
 10
-671.49124961343784
 20
-838.67962610589245
 30
0.0
 11
-671.40370069421692
 21
-838.59207718667176
 31
0.0
  0
LINE
  5
6F45
  8
0
 62
     0
 10
-671.52541190816703
 20
-838.67843313227308
 30
0.0
 11
-671.43786298894622
 21
-838.59088421305216
 31
0.0
  0
LINE
  5
6F46
  8
0
 62
     0
 10
-671.55957420289587
 20
-838.67724015865372
 30
0.0
 11
-671.47202528367529
 21
-838.58969123943291
 31
0.0
  0
LINE
  5
6F47
  8
0
 62
     0
 10
-671.59373649762495
 20
-838.67604718503401
 30
0.0
 11
-671.50618757840471
 21
-838.58849826581354
 31
0.0
  0
LINE
  5
6F48
  8
0
 62
     0
 10
-671.62789879235413
 20
-838.67485421141441
 30
0.0
 11
-671.54034987313389
 21
-838.58730529219417
 31
0.0
  0
LINE
  5
6F49
  8
0
 62
     0
 10
-671.66206108708343
 20
-838.67366123779505
 30
0.0
 11
-671.57451216786308
 21
-838.58611231857481
 31
0.0
  0
LINE
  5
6F4A
  8
0
 62
     0
 10
-671.69622338181227
 20
-838.67246826417534
 30
0.0
 11
-671.60867446259249
 21
-838.58491934495555
 31
0.0
  0
LINE
  5
6F4B
  8
0
 62
     0
 10
-671.73038567654157
 20
-838.67127529055585
 30
0.0
 11
-671.64283675732156
 21
-838.58372637133596
 31
0.0
  0
LINE
  5
6F4C
  8
0
 62
     0
 10
-671.76454797127064
 20
-838.67008231693626
 30
0.0
 11
-671.67699905205097
 21
-838.58253339771659
 31
0.0
  0
LINE
  5
6F4D
  8
0
 62
     0
 10
-671.79871026599983
 20
-838.66888934331678
 30
0.0
 11
-671.71116134678005
 21
-838.58134042409711
 31
0.0
  0
LINE
  5
6F4E
  8
0
 62
     0
 10
-671.82458888061433
 20
-838.6594126895825
 30
0.0
 11
-671.74532364150934
 21
-838.58014745047774
 31
0.0
  0
LINE
  5
6F4F
  8
0
 62
     0
 10
-671.83888495046165
 20
-838.63835349108115
 30
0.0
 11
-671.77948593623864
 21
-838.57895447685826
 31
0.0
  0
LINE
  5
6F50
  8
0
 62
     0
 10
-671.85116123325065
 20
-838.6152745055216
 30
0.0
 11
-671.7929426247174
 21
-838.55705589698835
 31
0.0
  0
LINE
  5
6F51
  8
0
 62
     0
 10
-671.86343751603965
 20
-838.59219551996216
 30
0.0
 11
-671.80521890750651
 21
-838.53397691142879
 31
0.0
  0
LINE
  5
6F52
  8
0
 62
     0
 10
-671.87571379882888
 20
-838.56911653440238
 30
0.0
 11
-671.81749519029563
 21
-838.51089792586936
 31
0.0
  0
LINE
  5
6F53
  8
0
 62
     0
 10
-671.88799008161789
 20
-838.54603754884306
 30
0.0
 11
-671.82977147308475
 21
-838.48781894030992
 31
0.0
  0
LINE
  5
6F54
  8
0
 62
     0
 10
-671.90026636440689
 20
-838.52295856328351
 30
0.0
 11
-671.84204775587375
 21
-838.46473995475048
 31
0.0
  0
LINE
  5
6F55
  8
0
 62
     0
 10
-671.91254264719589
 20
-838.49987957772385
 30
0.0
 11
-671.80275759838366
 21
-838.39009452891162
 31
0.0
  0
LINE
  5
6F56
  8
0
 62
     0
 10
-671.91898167915508
 20
-838.47096334133425
 30
0.0
 11
-671.78118667915169
 21
-838.33316834133097
 31
0.0
  0
LINE
  5
6F57
  8
0
 62
     0
 10
-671.91898167915508
 20
-838.43560807298559
 30
0.0
 11
-671.78118667915169
 21
-838.29781307298231
 31
0.0
  0
LINE
  5
6F58
  8
0
 62
     0
 10
-671.87343509762354
 20
-838.3547062231055
 30
0.0
 11
-671.78118667915192
 21
-838.26245780463387
 31
0.0
  0
LINE
  5
6F59
  8
0
 62
     0
 10
-671.85992667915525
 20
-838.30584253628842
 30
0.0
 11
-671.78118667915214
 21
-838.2271025362852
 31
0.0
  0
LINE
  5
6F5A
  8
0
 62
     0
 10
-671.85992667915525
 20
-838.27048726793976
 30
0.0
 11
-671.78118667915214
 21
-838.19174726793665
 31
0.0
  0
LINE
  5
6F5B
  8
0
 62
     0
 10
-671.85992667915525
 20
-838.23513199959098
 30
0.0
 11
-671.78118667915226
 21
-838.15639199958798
 31
0.0
  0
LINE
  5
6F5C
  8
0
 62
     0
 10
-671.85992667915525
 20
-838.19977673124231
 30
0.0
 11
-671.78118667915237
 21
-838.12103673123943
 31
0.0
  0
LINE
  5
6F5D
  8
0
 62
     0
 10
-671.85992667915525
 20
-838.16442146289376
 30
0.0
 11
-671.78118667915237
 21
-838.08568146289088
 31
0.0
  0
LINE
  5
6F5E
  8
0
 62
     0
 10
-671.85992667915525
 20
-838.12906619454509
 30
0.0
 11
-671.78118667915248
 21
-838.05032619454244
 31
0.0
  0
LINE
  5
6F5F
  8
0
 62
     0
 10
-671.85992667915525
 20
-838.09371092619642
 30
0.0
 11
-671.78118667915248
 21
-838.01497092619388
 31
0.0
  0
LINE
  5
6F60
  8
0
 62
     0
 10
-671.85992667915514
 20
-838.05835565784776
 30
0.0
 11
-671.78118667915248
 21
-837.97961565784544
 31
0.0
  0
LINE
  5
6F61
  8
0
 62
     0
 10
-671.85992667915525
 20
-838.02300038949932
 30
0.0
 11
-671.78118667915271
 21
-837.94426038949678
 31
0.0
  0
LINE
  5
6F62
  8
0
 62
     0
 10
-671.85992667915525
 20
-837.98764512115065
 30
0.0
 11
-671.78118667915282
 21
-837.90890512114834
 31
0.0
  0
LINE
  5
6F63
  8
0
 62
     0
 10
-671.85992667915525
 20
-837.95228985280187
 30
0.0
 11
-671.78118667915305
 21
-837.87354985279978
 31
0.0
  0
LINE
  5
6F64
  8
0
 62
     0
 10
-671.85992667915525
 20
-837.9169345844532
 30
0.0
 11
-671.78118667915305
 21
-837.83819458445089
 31
0.0
  0
LINE
  5
6F65
  8
0
 62
     0
 10
-671.85992667915525
 20
-837.88157931610465
 30
0.0
 11
-671.78118667915305
 21
-837.80283931610245
 31
0.0
  0
LINE
  5
6F66
  8
0
 62
     0
 10
-671.85992667915514
 20
-837.84622404775575
 30
0.0
 11
-671.78118667915317
 21
-837.76748404775401
 31
0.0
  0
LINE
  5
6F67
  8
0
 62
     0
 10
-671.85992667915525
 20
-837.81086877940731
 30
0.0
 11
-671.78118667915317
 21
-837.73212877940546
 31
0.0
  0
LINE
  5
6F68
  8
0
 62
     0
 10
-671.85992667915525
 20
-837.77551351105865
 30
0.0
 11
-671.78118667915328
 21
-837.69677351105679
 31
0.0
  0
LINE
  5
6F69
  8
0
 62
     0
 10
-671.85992667915525
 20
-837.74015824270987
 30
0.0
 11
-671.78118667915351
 21
-837.66141824270835
 31
0.0
  0
LINE
  5
6F6A
  8
0
 62
     0
 10
-671.85992667915525
 20
-837.70480297436143
 30
0.0
 11
-671.78118667915362
 21
-837.62606297435957
 31
0.0
  0
LINE
  5
6F6B
  8
0
 62
     0
 10
-671.85992667915525
 20
-837.66944770601265
 30
0.0
 11
-671.78118667915373
 21
-837.59070770601102
 31
0.0
  0
LINE
  5
6F6C
  8
0
 62
     0
 10
-671.85992667915525
 20
-837.63409243766398
 30
0.0
 11
-671.78118667915385
 21
-837.55535243766246
 31
0.0
  0
LINE
  5
6F6D
  8
0
 62
     0
 10
-671.85992667915525
 20
-837.59873716931543
 30
0.0
 11
-671.78118667915373
 21
-837.51999716931425
 31
0.0
  0
LINE
  5
6F6E
  8
0
 62
     0
 10
-671.85992667915525
 20
-837.56338190096687
 30
0.0
 11
-671.78118667915385
 21
-837.48464190096547
 31
0.0
  0
LINE
  5
6F6F
  8
0
 62
     0
 10
-671.85992667915525
 20
-837.52802663261821
 30
0.0
 11
-671.78118667915396
 21
-837.44928663261692
 31
0.0
  0
LINE
  5
6F70
  8
0
 62
     0
 10
-671.85992667915525
 20
-837.49267136426954
 30
0.0
 11
-671.78118667915396
 21
-837.41393136426825
 31
0.0
  0
LINE
  5
6F71
  8
0
 62
     0
 10
-671.85992667915525
 20
-837.45731609592076
 30
0.0
 11
-671.78118667915396
 21
-837.3785760959197
 31
0.0
  0
LINE
  5
6F72
  8
0
 62
     0
 10
-671.85992667915525
 20
-837.42196082757209
 30
0.0
 11
-671.78118667915408
 21
-837.34322082757114
 31
0.0
  0
LINE
  5
6F73
  8
0
 62
     0
 10
-671.85992667915525
 20
-837.38660555922365
 30
0.0
 11
-671.78118667915442
 21
-837.30786555922271
 31
0.0
  0
LINE
  5
6F74
  8
0
 62
     0
 10
-671.85992667915525
 20
-837.35125029087487
 30
0.0
 11
-671.78118667915442
 21
-837.27251029087415
 31
0.0
  0
LINE
  5
6F75
  8
0
 62
     0
 10
-671.85992667915525
 20
-837.31589502252621
 30
0.0
 11
-671.78118667915453
 21
-837.23715502252537
 31
0.0
  0
LINE
  5
6F76
  8
0
 62
     0
 10
-671.85992667915525
 20
-837.28053975417754
 30
0.0
 11
-671.78118667915464
 21
-837.20179975417693
 31
0.0
  0
LINE
  5
6F77
  8
0
 62
     0
 10
-671.85992667915525
 20
-837.24518448582876
 30
0.0
 11
-671.78118667915476
 21
-837.16644448582838
 31
0.0
  0
LINE
  5
6F78
  8
0
 62
     0
 10
-671.85992667915525
 20
-837.20982921748021
 30
0.0
 11
-671.78118667915476
 21
-837.13108921747994
 31
0.0
  0
LINE
  5
6F79
  8
0
 62
     0
 10
-671.85992667915525
 20
-837.17447394913154
 30
0.0
 11
-671.78118667915487
 21
-837.09573394913116
 31
0.0
  0
LINE
  5
6F7A
  8
0
 62
     0
 10
-671.85992667915525
 20
-837.13911868078299
 30
0.0
 11
-671.78118667915476
 21
-837.06037868078283
 31
0.0
  0
LINE
  5
6F7B
  8
0
 62
     0
 10
-671.85992667915525
 20
-837.10376341243455
 30
0.0
 11
-671.78118667915498
 21
-837.02502341243428
 31
0.0
  0
LINE
  5
6F7C
  8
0
 62
     0
 10
-671.85992667915514
 20
-837.06840814408565
 30
0.0
 11
-671.78118667915498
 21
-836.98966814408584
 31
0.0
  0
LINE
  5
6F7D
  8
0
 62
     0
 10
-671.85992667915514
 20
-837.03305287573687
 30
0.0
 11
-671.78118667915521
 21
-836.95431287573706
 31
0.0
  0
LINE
  5
6F7E
  8
0
 62
     0
 10
-671.85992667915525
 20
-836.99769760738843
 30
0.0
 11
-671.78118667915521
 21
-836.91895760738839
 31
0.0
  0
LINE
  5
6F7F
  8
0
 62
     0
 10
-671.85992667915525
 20
-836.96234233903965
 30
0.0
 11
-671.78118667915521
 21
-836.88360233903973
 31
0.0
  0
LINE
  5
6F80
  8
0
 62
     0
 10
-671.85992667915525
 20
-836.9269870706911
 30
0.0
 11
-671.78118667915521
 21
-836.84824707069095
 31
0.0
  0
LINE
  5
6F81
  8
0
 62
     0
 10
-671.85992667915525
 20
-836.89163180234243
 30
0.0
 11
-671.78118667915521
 21
-836.81289180234239
 31
0.0
  0
LINE
  5
6F82
  8
0
 62
     0
 10
-671.85992667915525
 20
-836.85627653399365
 30
0.0
 11
-671.78118667915533
 21
-836.77753653399373
 31
0.0
  0
LINE
  5
6F83
  8
0
 62
     0
 10
-671.85992667915525
 20
-836.82092126564498
 30
0.0
 11
-671.78118667915533
 21
-836.74218126564517
 31
0.0
  0
LINE
  5
6F84
  8
0
 62
     0
 10
-671.85992667915525
 20
-836.78556599729632
 30
0.0
 11
-671.78118667915533
 21
-836.70682599729651
 31
0.0
  0
LINE
  5
6F85
  8
0
 62
     0
 10
-671.85992667915525
 20
-836.75021072894776
 30
0.0
 11
-671.78118667915533
 21
-836.67147072894784
 31
0.0
  0
LINE
  5
6F86
  8
0
 62
     0
 10
-671.85992667915525
 20
-836.71485546059932
 30
0.0
 11
-671.78118667915521
 21
-836.63611546059929
 31
0.0
  0
LINE
  5
6F87
  8
0
 62
     0
 10
-671.85992667915525
 20
-836.67950019225054
 30
0.0
 11
-671.78118667915521
 21
-836.60076019225062
 31
0.0
  0
LINE
  5
6F88
  8
0
 62
     0
 10
-671.85992667915525
 20
-836.64414492390188
 30
0.0
 11
-671.78118667915533
 21
-836.56540492390207
 31
0.0
  0
LINE
  5
6F89
  8
0
 62
     0
 10
-671.85992667915525
 20
-836.60878965555344
 30
0.0
 11
-671.78118667915533
 21
-836.53004965555328
 31
0.0
  0
LINE
  5
6F8A
  8
0
 62
     0
 10
-671.85992667915525
 20
-836.57343438720466
 30
0.0
 11
-671.78118667915533
 21
-836.49469438720462
 31
0.0
  0
LINE
  5
6F8B
  8
0
 62
     0
 10
-671.85992667915525
 20
-836.53807911885599
 30
0.0
 11
-671.78118667915533
 21
-836.45933911885595
 31
0.0
  0
LINE
  5
6F8C
  8
0
 62
     0
 10
-671.85992667915525
 20
-836.50272385050732
 30
0.0
 11
-671.78118667915533
 21
-836.4239838505074
 31
0.0
  0
LINE
  5
6F8D
  8
0
 62
     0
 10
-671.85992667915525
 20
-836.46736858215854
 30
0.0
 11
-671.78118667915533
 21
-836.38862858215873
 31
0.0
  0
LINE
  5
6F8E
  8
0
 62
     0
 10
-671.85992667915525
 20
-836.43201331380999
 30
0.0
 11
-671.78118667915533
 21
-836.35327331380995
 31
0.0
  0
LINE
  5
6F8F
  8
0
 62
     0
 10
-671.85992667915525
 20
-836.39665804546132
 30
0.0
 11
-671.78118667915533
 21
-836.31791804546128
 31
0.0
  0
LINE
  5
6F90
  8
0
 62
     0
 10
-671.85992667915525
 20
-836.36130277711266
 30
0.0
 11
-671.78118667915533
 21
-836.28256277711262
 31
0.0
  0
LINE
  5
6F91
  8
0
 62
     0
 10
-671.85992667915525
 20
-836.32594750876387
 30
0.0
 11
-671.78118667915533
 21
-836.24720750876406
 31
0.0
  0
LINE
  5
6F92
  8
0
 62
     0
 10
-671.85992667915525
 20
-836.29059224041521
 30
0.0
 11
-671.78118667915533
 21
-836.2118522404154
 31
0.0
  0
LINE
  5
6F93
  8
0
 62
     0
 10
-671.85992667915514
 20
-836.25523697206665
 30
0.0
 11
-671.78118667915533
 21
-836.17649697206684
 31
0.0
  0
LINE
  5
6F94
  8
0
 62
     0
 10
-671.85992667915525
 20
-836.21988170371822
 30
0.0
 11
-671.78118667915521
 21
-836.14114170371818
 31
0.0
  0
LINE
  5
6F95
  8
0
 62
     0
 10
-671.85992667915525
 20
-836.18452643536955
 30
0.0
 11
-671.78118667915521
 21
-836.10578643536951
 31
0.0
  0
LINE
  5
6F96
  8
0
 62
     0
 10
-671.85992667915525
 20
-836.14917116702077
 30
0.0
 11
-671.78118667915521
 21
-836.07043116702073
 31
0.0
  0
LINE
  5
6F97
  8
0
 62
     0
 10
-671.85992667915525
 20
-836.11381589867221
 30
0.0
 11
-671.78118667915521
 21
-836.03507589867218
 31
0.0
  0
LINE
  5
6F98
  8
0
 62
     0
 10
-671.85992667915525
 20
-836.07846063032355
 30
0.0
 11
-671.78118667915533
 21
-835.99972063032351
 31
0.0
  0
LINE
  5
6F99
  8
0
 62
     0
 10
-671.85992667915525
 20
-836.04310536197477
 30
0.0
 11
-671.78118667915533
 21
-835.96436536197496
 31
0.0
  0
LINE
  5
6F9A
  8
0
 62
     0
 10
-671.85992667915525
 20
-836.0077500936261
 30
0.0
 11
-671.78118667915533
 21
-835.92901009362629
 31
0.0
  0
LINE
  5
6F9B
  8
0
 62
     0
 10
-671.85992667915525
 20
-835.97239482527743
 30
0.0
 11
-671.78118667915533
 21
-835.89365482527762
 31
0.0
  0
LINE
  5
6F9C
  8
0
 62
     0
 10
-671.85992667915525
 20
-835.93703955692888
 30
0.0
 11
-671.78118667915533
 21
-835.85829955692896
 31
0.0
  0
LINE
  5
6F9D
  8
0
 62
     0
 10
-671.85992667915525
 20
-835.90168428858021
 30
0.0
 11
-671.78118667915533
 21
-835.82294428858017
 31
0.0
  0
LINE
  5
6F9E
  8
0
 62
     0
 10
-671.85992667915525
 20
-835.86632902023155
 30
0.0
 11
-671.78118667915533
 21
-835.78758902023174
 31
0.0
  0
LINE
  5
6F9F
  8
0
 62
     0
 10
-671.85992667915525
 20
-835.83097375188277
 30
0.0
 11
-671.78118667915533
 21
-835.75223375188295
 31
0.0
  0
LINE
  5
6FA0
  8
0
 62
     0
 10
-671.85992667915514
 20
-835.79561848353433
 30
0.0
 11
-671.78118667915533
 21
-835.7168784835344
 31
0.0
  0
LINE
  5
6FA1
  8
0
 62
     0
 10
-671.39218808428575
 20
-835.29252462031627
 30
0.0
 11
-671.38748667915513
 21
-835.28782321518565
 31
0.0
  0
LINE
  5
6FA2
  8
0
 62
     0
 10
-671.85992667915514
 20
-835.76026321518555
 30
0.0
 11
-671.78118667915533
 21
-835.68152321518573
 31
0.0
  0
LINE
  5
6FA3
  8
0
 62
     0
 10
-671.42882266021593
 20
-835.29380392789778
 30
0.0
 11
-671.38748667915513
 21
-835.25246794683699
 31
0.0
  0
LINE
  5
6FA4
  8
0
 62
     0
 10
-671.37476815040873
 20
-835.23974941809047
 30
0.0
 11
-671.34811667915517
 21
-835.21309794683725
 31
0.0
  0
LINE
  5
6FA5
  8
0
 62
     0
 10
-671.85992667915525
 20
-835.72490794683699
 30
0.0
 11
-671.78118667915533
 21
-835.64616794683718
 31
0.0
  0
LINE
  5
6FA6
  8
0
 62
     0
 10
-671.46545723614588
 20
-835.29508323547907
 30
0.0
 11
-671.3715725145795
 21
-835.20119851391257
 31
0.0
  0
LINE
  5
6FA7
  8
0
 62
     0
 10
-671.85992667915525
 20
-835.68955267848833
 30
0.0
 11
-671.78118667915533
 21
-835.61081267848851
 31
0.0
  0
LINE
  5
6FA8
  8
0
 62
     0
 10
-671.50209181207606
 20
-835.2963625430607
 30
0.0
 11
-671.40820709050968
 21
-835.20247782149409
 31
0.0
  0
LINE
  5
6FA9
  8
0
 62
     0
 10
-671.85992667915514
 20
-835.65419741013955
 30
0.0
 11
-671.78118667915533
 21
-835.57545741013985
 31
0.0
  0
LINE
  5
6FAA
  8
0
 62
     0
 10
-671.53872638800635
 20
-835.29764185064221
 30
0.0
 11
-671.44484166643974
 21
-835.2037571290756
 31
0.0
  0
LINE
  5
6FAB
  8
0
 62
     0
 10
-671.85992667915514
 20
-835.61884214179088
 30
0.0
 11
-671.78118667915533
 21
-835.54010214179107
 31
0.0
  0
LINE
  5
6FAC
  8
0
 62
     0
 10
-671.57536096393642
 20
-835.29892115822372
 30
0.0
 11
-671.48147624236992
 21
-835.205036436657
 31
0.0
  0
LINE
  5
6FAD
  8
0
 62
     0
 10
-671.85992667915525
 20
-835.58348687344244
 30
0.0
 11
-671.79079246109291
 21
-835.51435265538009
 31
0.0
  0
LINE
  5
6FAE
  8
0
 62
     0
 10
-671.61199553986648
 20
-835.30020046580512
 30
0.0
 11
-671.51811081829987
 21
-835.20631574423851
 31
0.0
  0
LINE
  5
6FAF
  8
0
 62
     0
 10
-671.86149513172654
 20
-835.54970005766506
 30
0.0
 11
-671.80426113474937
 21
-835.49246606068789
 31
0.0
  0
LINE
  5
6FB0
  8
0
 62
     0
 10
-671.64863011579655
 20
-835.3014797733864
 30
0.0
 11
-671.55474539423005
 21
-835.20759505182025
 31
0.0
  0
LINE
  5
6FB1
  8
0
 62
     0
 10
-671.87496380538323
 20
-835.52781346297309
 30
0.0
 11
-671.81772980840606
 21
-835.47057946599602
 31
0.0
  0
LINE
  5
6FB2
  8
0
 62
     0
 10
-671.68526469172684
 20
-835.30275908096814
 30
0.0
 11
-671.59137997016035
 21
-835.20887435940142
 31
0.0
  0
LINE
  5
6FB3
  8
0
 62
     0
 10
-671.88843247903992
 20
-835.50592686828111
 30
0.0
 11
-671.83119848206263
 21
-835.44869287130382
 31
0.0
  0
LINE
  5
6FB4
  8
0
 62
     0
 10
-671.72189926765691
 20
-835.30403838854943
 30
0.0
 11
-671.62801454609053
 21
-835.21015366698305
 31
0.0
  0
LINE
  5
6FB5
  8
0
 62
     0
 10
-671.9019011526965
 20
-835.48404027358902
 30
0.0
 11
-671.84466715571921
 21
-835.42680627661184
 31
0.0
  0
LINE
  5
6FB6
  8
0
 62
     0
 10
-671.75853384358709
 20
-835.30531769613083
 30
0.0
 11
-671.66464912202048
 21
-835.21143297456445
 31
0.0
  0
LINE
  5
6FB7
  8
0
 62
     0
 10
-671.91536982635307
 20
-835.46215367889704
 30
0.0
 11
-671.8063278550012
 21
-835.35311170754505
 31
0.0
  0
LINE
  5
6FB8
  8
0
 62
     0
 10
-671.91898167915531
 20
-835.43041026335038
 30
0.0
 11
-671.70128369795066
 21
-835.21271228214584
 31
0.0
  0
LINE
  5
6FB9
  8
0
 62
     0
 10
-671.91651064980886
 20
-835.3925839656556
 30
0.0
 11
-671.73791827388084
 21
-835.21399158972747
 31
0.0
  0
LINE
  5
6FBA
  8
0
 62
     0
 10
-671.87633262385077
 20
-835.31705067134885
 30
0.0
 11
-671.77455284981102
 21
-835.21527089730898
 31
0.0
  0
LINE
  5
6FBB
  8
0
 62
     0
 10
-671.83615459789246
 20
-835.24151737704199
 30
0.0
 11
-671.81358292270204
 21
-835.21894570185145
 31
0.0
  0
ENDBLK
  5
6FBD
  8
0
  0
BLOCK
  8
0
  2
*X48
 70
     1
 10
0.0
 20
0.0
 30
0.0
  3
*X48
  1

  0
LINE
  5
6FEB
  8
0
 62
     0
 10
-681.83928344248955
 20
-835.10066736195574
 30
0.0
 11
-681.83279968712361
 21
-835.09418360658981
 31
0.0
  0
LINE
  5
6FEC
  8
0
 62
     0
 10
-681.87344573721884
 20
-835.09947438833626
 30
0.0
 11
-681.83549512856371
 21
-835.06152377968124
 31
0.0
  0
LINE
  5
6FED
  8
0
 62
     0
 10
-681.9076080319478
 20
-835.09828141471667
 30
0.0
 11
-681.87085039691249
 21
-835.06152377968158
 31
0.0
  0
LINE
  5
6FEE
  8
0
 62
     0
 10
-681.94177032667687
 20
-835.09708844109707
 30
0.0
 11
-681.87216968711971
 21
-835.02748780153991
 31
0.0
  0
LINE
  5
6FEF
  8
0
 62
     0
 10
-681.97593262140595
 20
-835.09589546747759
 30
0.0
 11
-681.88838370218491
 21
-835.00834654825644
 31
0.0
  0
LINE
  5
6FF0
  8
0
 62
     0
 10
-682.01009491613513
 20
-835.09470249385799
 30
0.0
 11
-681.92254599691421
 21
-835.00715357463707
 31
0.0
  0
LINE
  5
6FF1
  8
0
 62
     0
 10
-682.0442572108642
 20
-835.09350952023863
 30
0.0
 11
-681.95670829164328
 21
-835.00596060101782
 31
0.0
  0
LINE
  5
6FF2
  8
0
 62
     0
 10
-682.07841950559316
 20
-835.09231654661892
 30
0.0
 11
-681.99087058637269
 21
-835.00476762739845
 31
0.0
  0
LINE
  5
6FF3
  8
0
 62
     0
 10
-682.11258180032235
 20
-835.09112357299955
 30
0.0
 11
-682.02503288110188
 21
-835.00357465377908
 31
0.0
  0
LINE
  5
6FF4
  8
0
 62
     0
 10
-682.14674409505153
 20
-835.08993059937995
 30
0.0
 11
-682.05919517583129
 21
-835.00238168015971
 31
0.0
  0
LINE
  5
6FF5
  8
0
 62
     0
 10
-682.1809063897806
 20
-835.08873762576025
 30
0.0
 11
-682.09335747056048
 21
-835.00118870654023
 31
0.0
  0
LINE
  5
6FF6
  8
0
 62
     0
 10
-682.21506868450956
 20
-835.08754465214076
 30
0.0
 11
-682.12751976528989
 21
-834.99999573292098
 31
0.0
  0
LINE
  5
6FF7
  8
0
 62
     0
 10
-682.24923097923875
 20
-835.08635167852117
 30
0.0
 11
-682.16168206001907
 21
-834.9988027593015
 31
0.0
  0
LINE
  5
6FF8
  8
0
 62
     0
 10
-682.28339327396793
 20
-835.08515870490169
 30
0.0
 11
-682.19584435474826
 21
-834.99760978568213
 31
0.0
  0
LINE
  5
6FF9
  8
0
 62
     0
 10
-682.30927188858254
 20
-835.07568205116763
 30
0.0
 11
-682.23000664947767
 21
-834.99641681206276
 31
0.0
  0
LINE
  5
6FFA
  8
0
 62
     0
 10
-682.32356795842998
 20
-835.05462285266651
 30
0.0
 11
-682.26416894420674
 21
-834.99522383844339
 31
0.0
  0
LINE
  5
6FFB
  8
0
 62
     0
 10
-682.33584424121909
 20
-835.03154386710685
 30
0.0
 11
-682.27762563268584
 21
-834.97332525857348
 31
0.0
  0
LINE
  5
6FFC
  8
0
 62
     0
 10
-682.3481205240081
 20
-835.0084648815473
 30
0.0
 11
-682.28990191547496
 21
-834.95024627301393
 31
0.0
  0
LINE
  5
6FFD
  8
0
 62
     0
 10
-682.3603968067971
 20
-834.98538589598763
 30
0.0
 11
-682.30217819826407
 21
-834.92716728745472
 31
0.0
  0
LINE
  5
6FFE
  8
0
 62
     0
 10
-682.37267308958621
 20
-834.9623069104282
 30
0.0
 11
-682.31445448105308
 21
-834.90408830189517
 31
0.0
  0
LINE
  5
6FFF
  8
0
 62
     0
 10
-682.38494937237522
 20
-834.93922792486865
 30
0.0
 11
-682.32673076384231
 21
-834.88100931633562
 31
0.0
  0
LINE
  5
7000
  8
0
 62
     0
 10
-682.39722565516433
 20
-834.91614893930898
 30
0.0
 11
-682.28744060635313
 21
-834.80636389049778
 31
0.0
  0
LINE
  5
7001
  8
0
 62
     0
 10
-682.40366468712364
 20
-834.88723270291962
 30
0.0
 11
-682.26586968712024
 21
-834.74943770291623
 31
0.0
  0
LINE
  5
7002
  8
0
 62
     0
 10
-682.40366468712364
 20
-834.85187743457107
 30
0.0
 11
-682.26586968712024
 21
-834.71408243456767
 31
0.0
  0
LINE
  5
7003
  8
0
 62
     0
 10
-682.35811810559255
 20
-834.77097558469131
 30
0.0
 11
-682.26586968712047
 21
-834.67872716621923
 31
0.0
  0
LINE
  5
7004
  8
0
 62
     0
 10
-682.34460968712358
 20
-834.72211189787367
 30
0.0
 11
-682.26586968712047
 21
-834.64337189787045
 31
0.0
  0
LINE
  5
7005
  8
0
 62
     0
 10
-682.34460968712358
 20
-834.68675662952501
 30
0.0
 11
-682.2658696871207
 21
-834.6080166295219
 31
0.0
  0
LINE
  5
7006
  8
0
 62
     0
 10
-682.34460968712358
 20
-834.65140136117634
 30
0.0
 11
-682.2658696871207
 21
-834.57266136117335
 31
0.0
  0
LINE
  5
7007
  8
0
 62
     0
 10
-682.34460968712358
 20
-834.61604609282756
 30
0.0
 11
-682.26586968712081
 21
-834.53730609282491
 31
0.0
  0
LINE
  5
7008
  8
0
 62
     0
 10
-682.34460968712358
 20
-834.58069082447901
 30
0.0
 11
-682.26586968712104
 21
-834.50195082447635
 31
0.0
  0
LINE
  5
7009
  8
0
 62
     0
 10
-682.34460968712358
 20
-834.54533555613034
 30
0.0
 11
-682.26586968712104
 21
-834.46659555612769
 31
0.0
  0
LINE
  5
700A
  8
0
 62
     0
 10
-682.34460968712358
 20
-834.50998028778179
 30
0.0
 11
-682.26586968712115
 21
-834.43124028777913
 31
0.0
  0
LINE
  5
700B
  8
0
 62
     0
 10
-682.34460968712358
 20
-834.47462501943312
 30
0.0
 11
-682.26586968712115
 21
-834.39588501943058
 31
0.0
  0
LINE
  5
700C
  8
0
 62
     0
 10
-682.34460968712358
 20
-834.43926975108457
 30
0.0
 11
-682.26586968712115
 21
-834.36052975108214
 31
0.0
  0
LINE
  5
700D
  8
0
 62
     0
 10
-682.34460968712358
 20
-834.4039144827359
 30
0.0
 11
-682.26586968712115
 21
-834.32517448273359
 31
0.0
  0
LINE
  5
700E
  8
0
 62
     0
 10
-682.34460968712358
 20
-834.36855921438723
 30
0.0
 11
-682.26586968712149
 21
-834.28981921438503
 31
0.0
  0
LINE
  5
700F
  8
0
 62
     0
 10
-682.34460968712358
 20
-834.33320394603845
 30
0.0
 11
-682.26586968712149
 21
-834.25446394603625
 31
0.0
  0
LINE
  5
7010
  8
0
 62
     0
 10
-682.34460968712358
 20
-834.29784867768979
 30
0.0
 11
-682.26586968712161
 21
-834.21910867768781
 31
0.0
  0
LINE
  5
7011
  8
0
 62
     0
 10
-682.34460968712358
 20
-834.26249340934135
 30
0.0
 11
-682.26586968712161
 21
-834.18375340933926
 31
0.0
  0
LINE
  5
7012
  8
0
 62
     0
 10
-682.34460968712358
 20
-834.22713814099257
 30
0.0
 11
-682.26586968712172
 21
-834.14839814099059
 31
0.0
  0
LINE
  5
7013
  8
0
 62
     0
 10
-682.34460968712358
 20
-834.1917828726439
 30
0.0
 11
-682.26586968712195
 21
-834.11304287264215
 31
0.0
  0
LINE
  5
7014
  8
0
 62
     0
 10
-682.34460968712358
 20
-834.15642760429535
 30
0.0
 11
-682.26586968712195
 21
-834.07768760429349
 31
0.0
  0
LINE
  5
7015
  8
0
 62
     0
 10
-682.34460968712358
 20
-834.12107233594656
 30
0.0
 11
-682.26586968712195
 21
-834.04233233594482
 31
0.0
  0
LINE
  5
7016
  8
0
 62
     0
 10
-682.34460968712358
 20
-834.0857170675979
 30
0.0
 11
-682.26586968712206
 21
-834.00697706759627
 31
0.0
  0
LINE
  5
7017
  8
0
 62
     0
 10
-682.34460968712358
 20
-834.05036179924923
 30
0.0
 11
-682.26586968712218
 21
-833.97162179924783
 31
0.0
  0
LINE
  5
7018
  8
0
 62
     0
 10
-682.34460968712358
 20
-834.01500653090068
 30
0.0
 11
-682.26586968712206
 21
-833.93626653089927
 31
0.0
  0
LINE
  5
7019
  8
0
 62
     0
 10
-682.34460968712358
 20
-833.97965126255224
 30
0.0
 11
-682.26586968712218
 21
-833.90091126255072
 31
0.0
  0
LINE
  5
701A
  8
0
 62
     0
 10
-682.34460968712358
 20
-833.94429599420346
 30
0.0
 11
-682.2658696871224
 21
-833.86555599420217
 31
0.0
  0
LINE
  5
701B
  8
0
 62
     0
 10
-682.34460968712358
 20
-833.90894072585479
 30
0.0
 11
-682.26586968712252
 21
-833.8302007258535
 31
0.0
  0
LINE
  5
701C
  8
0
 62
     0
 10
-682.34460968712358
 20
-833.87358545750612
 30
0.0
 11
-682.26586968712263
 21
-833.79484545750495
 31
0.0
  0
LINE
  5
701D
  8
0
 62
     0
 10
-682.34460968712358
 20
-833.83823018915734
 30
0.0
 11
-682.26586968712263
 21
-833.75949018915651
 31
0.0
  0
LINE
  5
701E
  8
0
 62
     0
 10
-682.34460968712358
 20
-833.80287492080879
 30
0.0
 11
-682.26586968712274
 21
-833.72413492080796
 31
0.0
  0
LINE
  5
701F
  8
0
 62
     0
 10
-682.34460968712358
 20
-833.76751965246012
 30
0.0
 11
-682.26586968712274
 21
-833.68877965245917
 31
0.0
  0
LINE
  5
7020
  8
0
 62
     0
 10
-682.34460968712358
 20
-833.73216438411146
 30
0.0
 11
-682.26586968712286
 21
-833.65342438411074
 31
0.0
  0
LINE
  5
7021
  8
0
 62
     0
 10
-682.34460968712358
 20
-833.6968091157629
 30
0.0
 11
-682.26586968712286
 21
-833.61806911576218
 31
0.0
  0
LINE
  5
7022
  8
0
 62
     0
 10
-682.34460968712358
 20
-833.66145384741424
 30
0.0
 11
-682.26586968712297
 21
-833.58271384741374
 31
0.0
  0
LINE
  5
7023
  8
0
 62
     0
 10
-682.34460968712358
 20
-833.62609857906546
 30
0.0
 11
-682.26586968712331
 21
-833.54735857906496
 31
0.0
  0
LINE
  5
7024
  8
0
 62
     0
 10
-682.34460968712358
 20
-833.59074331071679
 30
0.0
 11
-682.26586968712331
 21
-833.51200331071641
 31
0.0
  0
LINE
  5
7025
  8
0
 62
     0
 10
-682.34460968712358
 20
-833.55538804236835
 30
0.0
 11
-682.26586968712331
 21
-833.47664804236786
 31
0.0
  0
LINE
  5
7026
  8
0
 62
     0
 10
-682.34460968712358
 20
-833.52003277401957
 30
0.0
 11
-682.26586968712343
 21
-833.44129277401942
 31
0.0
  0
LINE
  5
7027
  8
0
 62
     0
 10
-682.34460968712358
 20
-833.48467750567113
 30
0.0
 11
-682.26586968712354
 21
-833.40593750567086
 31
0.0
  0
LINE
  5
7028
  8
0
 62
     0
 10
-682.34460968712358
 20
-833.44932223732235
 30
0.0
 11
-682.26586968712365
 21
-833.37058223732231
 31
0.0
  0
LINE
  5
7029
  8
0
 62
     0
 10
-682.34460968712358
 20
-833.41396696897357
 30
0.0
 11
-682.26586968712365
 21
-833.33522696897364
 31
0.0
  0
LINE
  5
702A
  8
0
 62
     0
 10
-682.34460968712358
 20
-833.3786117006249
 30
0.0
 11
-682.26586968712365
 21
-833.29987170062486
 31
0.0
  0
LINE
  5
702B
  8
0
 62
     0
 10
-682.34460968712358
 20
-833.34325643227623
 30
0.0
 11
-682.26586968712365
 21
-833.2645164322762
 31
0.0
  0
LINE
  5
702C
  8
0
 62
     0
 10
-682.34460968712358
 20
-833.30790116392768
 30
0.0
 11
-682.26586968712365
 21
-833.22916116392753
 31
0.0
  0
LINE
  5
702D
  8
0
 62
     0
 10
-682.34460968712358
 20
-833.27254589557901
 30
0.0
 11
-682.26586968712365
 21
-833.19380589557898
 31
0.0
  0
LINE
  5
702E
  8
0
 62
     0
 10
-682.34460968712358
 20
-833.23719062723035
 30
0.0
 11
-682.26586968712365
 21
-833.15845062723031
 31
0.0
  0
LINE
  5
702F
  8
0
 62
     0
 10
-682.34460968712358
 20
-833.20183535888157
 30
0.0
 11
-682.26586968712365
 21
-833.12309535888176
 31
0.0
  0
LINE
  5
7030
  8
0
 62
     0
 10
-682.34460968712358
 20
-833.1664800905329
 30
0.0
 11
-682.26586968712365
 21
-833.08774009053309
 31
0.0
  0
LINE
  5
7031
  8
0
 62
     0
 10
-682.34460968712358
 20
-833.13112482218457
 30
0.0
 11
-682.26586968712354
 21
-833.05238482218454
 31
0.0
  0
LINE
  5
7032
  8
0
 62
     0
 10
-682.34460968712358
 20
-833.09576955383591
 30
0.0
 11
-682.26586968712354
 21
-833.01702955383575
 31
0.0
  0
LINE
  5
7033
  8
0
 62
     0
 10
-682.34460968712358
 20
-833.06041428548724
 30
0.0
 11
-682.26586968712365
 21
-832.98167428548709
 31
0.0
  0
LINE
  5
7034
  8
0
 62
     0
 10
-682.34460968712358
 20
-833.02505901713846
 30
0.0
 11
-682.26586968712365
 21
-832.94631901713842
 31
0.0
  0
LINE
  5
7035
  8
0
 62
     0
 10
-682.34460968712358
 20
-832.98970374878991
 30
0.0
 11
-682.26586968712365
 21
-832.91096374878987
 31
0.0
  0
LINE
  5
7036
  8
0
 62
     0
 10
-682.34460968712358
 20
-832.95434848044124
 30
0.0
 11
-682.26586968712365
 21
-832.8756084804412
 31
0.0
  0
LINE
  5
7037
  8
0
 62
     0
 10
-682.34460968712358
 20
-832.91899321209246
 30
0.0
 11
-682.26586968712365
 21
-832.84025321209253
 31
0.0
  0
LINE
  5
7038
  8
0
 62
     0
 10
-682.34460968712358
 20
-832.88363794374379
 30
0.0
 11
-682.26586968712365
 21
-832.80489794374375
 31
0.0
  0
LINE
  5
7039
  8
0
 62
     0
 10
-682.34460968712358
 20
-832.84828267539513
 30
0.0
 11
-682.26586968712365
 21
-832.76954267539509
 31
0.0
  0
LINE
  5
703A
  8
0
 62
     0
 10
-682.34460968712358
 20
-832.81292740704657
 30
0.0
 11
-682.26586968712365
 21
-832.73418740704665
 31
0.0
  0
LINE
  5
703B
  8
0
 62
     0
 10
-682.34460968712358
 20
-832.77757213869813
 30
0.0
 11
-682.26586968712365
 21
-832.69883213869787
 31
0.0
  0
LINE
  5
703C
  8
0
 62
     0
 10
-682.34460968712358
 20
-832.74221687034935
 30
0.0
 11
-682.26586968712365
 21
-832.66347687034943
 31
0.0
  0
LINE
  5
703D
  8
0
 62
     0
 10
-682.34460968712358
 20
-832.70686160200069
 30
0.0
 11
-682.26586968712365
 21
-832.62812160200065
 31
0.0
  0
LINE
  5
703E
  8
0
 62
     0
 10
-682.34460968712358
 20
-832.67150633365213
 30
0.0
 11
-682.26586968712354
 21
-832.59276633365209
 31
0.0
  0
LINE
  5
703F
  8
0
 62
     0
 10
-682.34460968712358
 20
-832.63615106530335
 30
0.0
 11
-682.26586968712354
 21
-832.5574110653032
 31
0.0
  0
LINE
  5
7040
  8
0
 62
     0
 10
-682.34460968712358
 20
-832.60079579695469
 30
0.0
 11
-682.26586968712354
 21
-832.52205579695453
 31
0.0
  0
LINE
  5
7041
  8
0
 62
     0
 10
-682.34460968712358
 20
-832.56544052860602
 30
0.0
 11
-682.26586968712365
 21
-832.48670052860598
 31
0.0
  0
LINE
  5
7042
  8
0
 62
     0
 10
-682.34460968712358
 20
-832.53008526025747
 30
0.0
 11
-682.26586968712365
 21
-832.45134526025731
 31
0.0
  0
LINE
  5
7043
  8
0
 62
     0
 10
-682.34460968712358
 20
-832.4947299919088
 30
0.0
 11
-682.26586968712365
 21
-832.41598999190876
 31
0.0
  0
LINE
  5
7044
  8
0
 62
     0
 10
-682.34460968712358
 20
-832.45937472356013
 30
0.0
 11
-682.26586968712365
 21
-832.38063472356009
 31
0.0
  0
LINE
  5
7045
  8
0
 62
     0
 10
-682.34460968712358
 20
-832.42401945521135
 30
0.0
 11
-682.26586968712365
 21
-832.34527945521143
 31
0.0
  0
LINE
  5
7046
  8
0
 62
     0
 10
-682.34460968712358
 20
-832.38866418686291
 30
0.0
 11
-682.26586968712365
 21
-832.30992418686265
 31
0.0
  0
LINE
  5
7047
  8
0
 62
     0
 10
-682.34460968712358
 20
-832.35330891851424
 30
0.0
 11
-682.26586968712365
 21
-832.27456891851421
 31
0.0
  0
LINE
  5
7048
  8
0
 62
     0
 10
-682.34460968712358
 20
-832.31795365016546
 30
0.0
 11
-682.26586968712365
 21
-832.23921365016554
 31
0.0
  0
LINE
  5
7049
  8
0
 62
     0
 10
-682.34460968712358
 20
-832.28259838181691
 30
0.0
 11
-682.26586968712365
 21
-832.20385838181676
 31
0.0
  0
LINE
  5
704A
  8
0
 62
     0
 10
-682.34460968712358
 20
-832.24724311346824
 30
0.0
 11
-682.26586968712365
 21
-832.1685031134682
 31
0.0
  0
LINE
  5
704B
  8
0
 62
     0
 10
-682.34460968712358
 20
-832.21188784511969
 30
0.0
 11
-682.26586968712354
 21
-832.13314784511954
 31
0.0
  0
LINE
  5
704C
  8
0
 62
     0
 10
-681.87687109225385
 20
-831.70879398190118
 30
0.0
 11
-681.87216968712369
 21
-831.70409257677102
 31
0.0
  0
LINE
  5
704D
  8
0
 62
     0
 10
-682.34460968712358
 20
-832.17653257677102
 30
0.0
 11
-682.26586968712354
 21
-832.09779257677098
 31
0.0
  0
LINE
  5
704E
  8
0
 62
     0
 10
-681.9135056681838
 20
-831.71007328948247
 30
0.0
 11
-681.87216968712369
 21
-831.66873730842235
 31
0.0
  0
LINE
  5
704F
  8
0
 62
     0
 10
-681.85945115837694
 20
-831.65601877967561
 30
0.0
 11
-681.83279968712361
 21
-831.62936730842216
 31
0.0
  0
LINE
  5
7050
  8
0
 62
     0
 10
-682.34460968712358
 20
-832.14117730842224
 30
0.0
 11
-682.26586968712354
 21
-832.06243730842232
 31
0.0
  0
LINE
  5
7051
  8
0
 62
     0
 10
-681.95014024411421
 20
-831.71135259706421
 30
0.0
 11
-681.85625552254771
 21
-831.61746787549771
 31
0.0
  0
LINE
  5
7052
  8
0
 62
     0
 10
-682.34460968712358
 20
-832.10582204007358
 30
0.0
 11
-682.26586968712365
 21
-832.02708204007365
 31
0.0
  0
LINE
  5
7053
  8
0
 62
     0
 10
-681.98677482004427
 20
-831.7126319046456
 30
0.0
 11
-681.89289009847778
 21
-831.61874718307922
 31
0.0
  0
LINE
  5
7054
  8
0
 62
     0
 10
-682.34460968712358
 20
-832.07046677172491
 30
0.0
 11
-682.26586968712365
 21
-831.99172677172487
 31
0.0
  0
LINE
  5
7055
  8
0
 62
     0
 10
-682.02340939597434
 20
-831.71391121222689
 30
0.0
 11
-681.92952467440796
 21
-831.62002649066073
 31
0.0
  0
LINE
  5
7056
  8
0
 62
     0
 10
-682.34460968712358
 20
-832.03511150337636
 30
0.0
 11
-682.26586968712365
 21
-831.9563715033762
 31
0.0
  0
LINE
  5
7057
  8
0
 62
     0
 10
-682.06004397190463
 20
-831.71519051980863
 30
0.0
 11
-681.96615925033814
 21
-831.62130579824213
 31
0.0
  0
LINE
  5
7058
  8
0
 62
     0
 10
-682.34460968712358
 20
-831.99975623502769
 30
0.0
 11
-682.27547546906112
 21
-831.930622016965
 31
0.0
  0
LINE
  5
7059
  8
0
 62
     0
 10
-682.0966785478347
 20
-831.71646982739003
 30
0.0
 11
-682.00279382626832
 21
-831.62258510582365
 31
0.0
  0
LINE
  5
705A
  8
0
 62
     0
 10
-682.34617813969487
 20
-831.96596941925043
 30
0.0
 11
-682.28894414271781
 21
-831.90873542227303
 31
0.0
  0
LINE
  5
705B
  8
0
 62
     0
 10
-682.13331312376499
 20
-831.71774913497165
 30
0.0
 11
-682.03942840219838
 21
-831.62386441340504
 31
0.0
  0
LINE
  5
705C
  8
0
 62
     0
 10
-682.35964681335167
 20
-831.94408282455845
 30
0.0
 11
-682.30241281637427
 21
-831.88684882758105
 31
0.0
  0
LINE
  5
705D
  8
0
 62
     0
 10
-682.16994769969506
 20
-831.71902844255305
 30
0.0
 11
-682.07606297812856
 21
-831.62514372098667
 31
0.0
  0
LINE
  5
705E
  8
0
 62
     0
 10
-682.37311548700825
 20
-831.92219622986624
 30
0.0
 11
-682.31588149003096
 21
-831.86496223288907
 31
0.0
  0
LINE
  5
705F
  8
0
 62
     0
 10
-682.20658227562501
 20
-831.72030775013445
 30
0.0
 11
-682.11269755405874
 21
-831.62642302856796
 31
0.0
  0
LINE
  5
7060
  8
0
 62
     0
 10
-682.38658416066471
 20
-831.90030963517415
 30
0.0
 11
-682.32935016368765
 21
-831.84307563819686
 31
0.0
  0
LINE
  5
7061
  8
0
 62
     0
 10
-682.2432168515553
 20
-831.72158705771608
 30
0.0
 11
-682.14933212998881
 21
-831.62770233614947
 31
0.0
  0
LINE
  5
7062
  8
0
 62
     0
 10
-682.4000528343214
 20
-831.87842304048206
 30
0.0
 11
-682.2910108629693
 21
-831.76938106913019
 31
0.0
  0
LINE
  5
7063
  8
0
 62
     0
 10
-682.40366468712364
 20
-831.84667962493575
 30
0.0
 11
-682.18596670591899
 21
-831.62898164373109
 31
0.0
  0
LINE
  5
7064
  8
0
 62
     0
 10
-682.40119365777798
 20
-831.80885332724154
 30
0.0
 11
-682.22260128184905
 21
-831.63026095131261
 31
0.0
  0
LINE
  5
7065
  8
0
 62
     0
 10
-682.36101563181967
 20
-831.73332003293467
 30
0.0
 11
-682.25923585777923
 21
-831.63154025889412
 31
0.0
  0
LINE
  5
7066
  8
0
 62
     0
 10
-682.3208376058617
 20
-831.65778673862781
 30
0.0
 11
-682.29826593067025
 21
-831.63521506343648
 31
0.0
  0
ENDBLK
  5
7068
  8
0
  0
BLOCK
  8
0
  2
*X49
 70
     1
 10
0.0
 20
0.0
 30
0.0
  3
*X49
  1

  0
LINE
  5
706F
  8
0
 62
     0
 10
-670.9221561477018
 20
-838.57388434571453
 30
0.0
 11
-670.83630667917021
 21
-838.48803487718294
 31
0.0
  0
LINE
  5
7070
  8
0
 62
     0
 10
-671.05809864366859
 20
-838.67447157333277
 30
0.0
 11
-670.83630667916975
 21
-838.45267960883405
 31
0.0
  0
LINE
  5
7071
  8
0
 62
     0
 10
-671.09547161197588
 20
-838.67648927329139
 30
0.0
 11
-670.83630667916941
 21
-838.41732434048504
 31
0.0
  0
LINE
  5
7072
  8
0
 62
     0
 10
-671.13210618790561
 20
-838.67776858087245
 30
0.0
 11
-670.83775622324822
 21
-838.38341861621518
 31
0.0
  0
LINE
  5
7073
  8
0
 62
     0
 10
-670.9282547934821
 20
-838.4385619181005
 30
0.0
 11
-670.91504667916968
 21
-838.42535380378797
 31
0.0
  0
LINE
  5
7074
  8
0
 62
     0
 10
-670.91504667916968
 20
-838.42535380378797
 30
0.0
 11
-670.87250495030958
 21
-838.38281207492776
 31
0.0
  0
LINE
  5
7075
  8
0
 62
     0
 10
-671.16874076383544
 20
-838.67904788845362
 30
0.0
 11
-671.04117594958825
 21
-838.55148307420654
 31
0.0
  0
LINE
  5
7076
  8
0
 62
     0
 10
-670.96361006183054
 20
-838.43856191810005
 30
0.0
 11
-670.91504667916934
 21
-838.38999853543885
 31
0.0
  0
LINE
  5
7077
  8
0
 62
     0
 10
-670.91504667916934
 20
-838.38999853543885
 30
0.0
 11
-670.90725367737093
 21
-838.38220553364056
 31
0.0
  0
LINE
  5
7078
  8
0
 62
     0
 10
-671.20537533976517
 20
-838.68032719603491
 30
0.0
 11
-671.11149061819981
 21
-838.58644247446944
 31
0.0
  0
LINE
  5
7079
  8
0
 62
     0
 10
-670.99896533017875
 20
-838.43856191809982
 30
0.0
 11
-670.94200240443206
 21
-838.38159899235313
 31
0.0
  0
LINE
  5
707A
  8
0
 62
     0
 10
-671.24200991569501
 20
-838.68160650361585
 30
0.0
 11
-671.14812519412953
 21
-838.58772178205049
 31
0.0
  0
LINE
  5
707B
  8
0
 62
     0
 10
-671.03432059852696
 20
-838.43856191809937
 30
0.0
 11
-670.97675113149353
 21
-838.38099245106571
 31
0.0
  0
LINE
  5
707C
  8
0
 62
     0
 10
-671.27864449162485
 20
-838.68288581119725
 30
0.0
 11
-671.18475977005926
 21
-838.58900108963155
 31
0.0
  0
LINE
  5
707D
  8
0
 62
     0
 10
-671.0696758668754
 20
-838.43856191809903
 30
0.0
 11
-671.01149985855466
 21
-838.38038590977828
 31
0.0
  0
LINE
  5
707E
  8
0
 62
     0
 10
-671.31527906755468
 20
-838.68416511877831
 30
0.0
 11
-671.22139434598898
 21
-838.59028039721272
 31
0.0
  0
LINE
  5
707F
  8
0
 62
     0
 10
-671.10503113522373
 20
-838.43856191809869
 30
0.0
 11
-671.04624858561613
 21
-838.37977936849109
 31
0.0
  0
LINE
  5
7080
  8
0
 62
     0
 10
-671.32843167917179
 20
-838.66196246204674
 30
0.0
 11
-671.25802892191882
 21
-838.59155970479367
 31
0.0
  0
LINE
  5
7081
  8
0
 62
     0
 10
-671.14038640357194
 20
-838.43856191809823
 30
0.0
 11
-671.08099731267737
 21
-838.37917282720355
 31
0.0
  0
LINE
  5
7082
  8
0
 62
     0
 10
-671.34314190356997
 20
-838.64131741809615
 30
0.0
 11
-671.29466349784855
 21
-838.59283901237484
 31
0.0
  0
LINE
  5
7083
  8
0
 62
     0
 10
-671.17574167192015
 20
-838.43856191809778
 30
0.0
 11
-671.11574603973861
 21
-838.37856628591624
 31
0.0
  0
LINE
  5
7084
  8
0
 62
     0
 10
-670.85720953258692
 20
-838.12002977876443
 30
0.0
 11
-670.83630667916646
 21
-838.09912692534419
 31
0.0
  0
LINE
  5
7085
  8
0
 62
     0
 10
-671.34811667915517
 20
-838.61093692533291
 30
0.0
 11
-671.33119797707286
 21
-838.5940182232506
 31
0.0
  0
LINE
  5
7086
  8
0
 62
     0
 10
-670.89319289282457
 20
-838.12065787065353
 30
0.0
 11
-670.84101894026935
 21
-838.0684839180982
 31
0.0
  0
LINE
  5
7087
  8
0
 62
     0
 10
-671.21109694026859
 20
-838.43856191809743
 30
0.0
 11
-671.15049476679985
 21
-838.37795974462881
 31
0.0
  0
LINE
  5
7088
  8
0
 62
     0
 10
-670.91504667916649
 20
-838.10715638864701
 30
0.0
 11
-670.85599167917667
 21
-838.04810138865707
 31
0.0
  0
LINE
  5
7089
  8
0
 62
     0
 10
-670.92917625306245
 20
-838.12128596254286
 30
0.0
 11
-670.91504667916649
 21
-838.10715638864701
 31
0.0
  0
LINE
  5
708A
  8
0
 62
     0
 10
-670.83700420861817
 20
-838.02911391809857
 30
0.0
 11
-670.83630667916566
 21
-838.02841638864606
 31
0.0
  0
LINE
  5
708B
  8
0
 62
     0
 10
-671.24645220861692
 20
-838.43856191809732
 30
0.0
 11
-671.18524349386121
 21
-838.37735320334161
 31
0.0
  0
LINE
  5
708C
  8
0
 62
     0
 10
-670.96515961329976
 20
-838.12191405443173
 30
0.0
 11
-670.91504667916615
 21
-838.07180112029812
 31
0.0
  0
LINE
  5
708D
  8
0
 62
     0
 10
-670.91504667916615
 20
-838.07180112029812
 30
0.0
 11
-670.83630667916532
 21
-837.99306112029717
 31
0.0
  0
LINE
  5
708E
  8
0
 62
     0
 10
-671.28180747696513
 20
-838.43856191809687
 30
0.0
 11
-671.21999222092245
 21
-838.3767466620543
 31
0.0
  0
LINE
  5
708F
  8
0
 62
     0
 10
-671.00114297353741
 20
-838.1225421463206
 30
0.0
 11
-670.94314774531711
 21
-838.06454691810018
 31
0.0
  0
LINE
  5
7090
  8
0
 62
     0
 10
-670.91504667916092
 20
-838.03644585194411
 30
0.0
 11
-670.83630667916486
 21
-837.95770585194805
 31
0.0
  0
LINE
  5
7091
  8
0
 62
     0
 10
-671.31716274531345
 20
-838.43856191809664
 30
0.0
 11
-671.25474094798369
 21
-838.37614012076688
 31
0.0
  0
LINE
  5
7092
  8
0
 62
     0
 10
-671.03712633377495
 20
-838.12317023820947
 30
0.0
 11
-670.97850301366543
 21
-838.06454691809995
 31
0.0
  0
LINE
  5
7093
  8
0
 62
     0
 10
-670.91504667915535
 20
-838.00109058358987
 30
0.0
 11
-670.83630667916475
 21
-837.92235058359927
 31
0.0
  0
LINE
  5
7094
  8
0
 62
     0
 10
-671.34811667915517
 20
-838.43416058358969
 30
0.0
 11
-671.28906167916909
 21
-838.37510558360361
 31
0.0
  0
LINE
  5
7095
  8
0
 62
     0
 10
-671.0731096940126
 20
-838.12379833009845
 30
0.0
 11
-671.01385828201364
 21
-838.0645469180995
 31
0.0
  0
LINE
  5
7096
  8
0
 62
     0
 10
-670.91504667915638
 20
-837.96573531524223
 30
0.0
 11
-670.83630667916441
 21
-837.88699531525015
 31
0.0
  0
LINE
  5
7097
  8
0
 62
     0
 10
-671.34811667915517
 20
-838.39880531524102
 30
0.0
 11
-671.28906167916875
 21
-838.33975031525449
 31
0.0
  0
LINE
  5
7098
  8
0
 62
     0
 10
-671.10909305425014
 20
-838.12442642198732
 30
0.0
 11
-671.04921355036208
 21
-838.06454691809915
 31
0.0
  0
LINE
  5
7099
  8
0
 62
     0
 10
-670.91504667915751
 20
-837.93038004689458
 30
0.0
 11
-670.83630667916395
 21
-837.85164004690125
 31
0.0
  0
LINE
  5
709A
  8
0
 62
     0
 10
-671.34811667915517
 20
-838.36345004689247
 30
0.0
 11
-671.28906167916853
 21
-838.30439504690571
 31
0.0
  0
LINE
  5
709B
  8
0
 62
     0
 10
-671.14507641448768
 20
-838.12505451387619
 30
0.0
 11
-671.08456881871041
 21
-838.06454691809881
 31
0.0
  0
LINE
  5
709C
  8
0
 62
     0
 10
-671.34811667915517
 20
-838.3280947785438
 30
0.0
 11
-671.31586756870786
 21
-838.29584566809649
 31
0.0
  0
LINE
  5
709D
  8
0
 62
     0
 10
-670.91504667915865
 20
-837.89502477854705
 30
0.0
 11
-670.83630667916373
 21
-837.81628477855224
 31
0.0
  0
LINE
  5
709E
  8
0
 62
     0
 10
-671.39952881870568
 20
-838.37950691809419
 30
0.0
 11
-671.38748667916911
 21
-838.36746477855775
 31
0.0
  0
LINE
  5
709F
  8
0
 62
     0
 10
-671.18105977472521
 20
-838.12568260576506
 30
0.0
 11
-671.11992408705862
 21
-838.06454691809847
 31
0.0
  0
LINE
  5
70A0
  8
0
 62
     0
 10
-670.91504667915956
 20
-837.85966951019952
 30
0.0
 11
-670.83630667916327
 21
-837.78092951020324
 31
0.0
  0
LINE
  5
70A1
  8
0
 62
     0
 10
-671.43488408705446
 20
-838.37950691809442
 30
0.0
 11
-671.38748667916866
 21
-838.33210951020862
 31
0.0
  0
LINE
  5
70A2
  8
0
 62
     0
 10
-671.21704313496275
 20
-838.12631069765405
 30
0.0
 11
-671.15527935540695
 21
-838.06454691809813
 31
0.0
  0
LINE
  5
70A3
  8
0
 62
     0
 10
-671.29799560540562
 20
-838.20726316809669
 30
0.0
 11
-671.28906167916739
 21
-838.19832924185846
 31
0.0
  0
LINE
  5
70A4
  8
0
 62
     0
 10
-670.91504667916081
 20
-837.82431424185199
 30
0.0
 11
-670.83630667916304
 21
-837.74557424185423
 31
0.0
  0
LINE
  5
70A5
  8
0
 62
     0
 10
-671.47023935540335
 20
-838.37950691809442
 30
0.0
 11
-671.39149935540297
 21
-838.30076691809415
 31
0.0
  0
LINE
  5
70A6
  8
0
 62
     0
 10
-671.25302649520017
 20
-838.12693878954269
 30
0.0
 11
-671.19063462375527
 21
-838.06454691809768
 31
0.0
  0
LINE
  5
70A7
  8
0
 62
     0
 10
-671.33335087375394
 20
-838.20726316809635
 30
0.0
 11
-671.28906167916705
 21
-838.16297397350957
 31
0.0
  0
LINE
  5
70A8
  8
0
 62
     0
 10
-670.91504667916195
 20
-837.78895897350435
 30
0.0
 11
-670.83630667916259
 21
-837.71021897350511
 31
0.0
  0
LINE
  5
70A9
  8
0
 62
     0
 10
-671.5055946237519
 20
-838.37950691809442
 30
0.0
 11
-671.42685462375175
 21
-838.30076691809438
 31
0.0
  0
LINE
  5
70AA
  8
0
 62
     0
 10
-671.28900985543794
 20
-838.12756688143179
 30
0.0
 11
-671.22598989210348
 21
-838.06454691809745
 31
0.0
  0
LINE
  5
70AB
  8
0
 62
     0
 10
-671.34811667915517
 20
-838.18667370514925
 30
0.0
 11
-671.28906167916671
 21
-838.12761870516044
 31
0.0
  0
LINE
  5
70AC
  8
0
 62
     0
 10
-670.91504667916286
 20
-837.75360370515682
 30
0.0
 11
-670.83630667916236
 21
-837.67486370515621
 31
0.0
  0
LINE
  5
70AD
  8
0
 62
     0
 10
-671.54094989210068
 20
-838.37950691809465
 30
0.0
 11
-671.46220989210053
 21
-838.30076691809438
 31
0.0
  0
LINE
  5
70AE
  8
0
 62
     0
 10
-671.34811667915517
 20
-838.15131843680047
 30
0.0
 11
-671.26134516045192
 21
-838.06454691809699
 31
0.0
  0
LINE
  5
70AF
  8
0
 62
     0
 10
-671.39914016044906
 20
-838.20234191809425
 30
0.0
 11
-671.38748667916718
 21
-838.19068843681237
 31
0.0
  0
LINE
  5
70B0
  8
0
 62
     0
 10
-670.91504667916286
 20
-837.71824843680815
 30
0.0
 11
-670.83630667916202
 21
-837.6395084368072
 31
0.0
  0
LINE
  5
70B1
  8
0
 62
     0
 10
-671.57630516044946
 20
-838.37950691809476
 30
0.0
 11
-671.4975651604492
 21
-838.30076691809438
 31
0.0
  0
LINE
  5
70B2
  8
0
 62
     0
 10
-671.34811667915517
 20
-838.1159631684518
 30
0.0
 11
-671.29670042880025
 21
-838.06454691809665
 31
0.0
  0
LINE
  5
70B3
  8
0
 62
     0
 10
-671.43449542879785
 20
-838.20234191809436
 30
0.0
 11
-671.38748667916707
 21
-838.15533316846347
 31
0.0
  0
LINE
  5
70B4
  8
0
 62
     0
 10
-670.91504667916251
 20
-837.68289316845903
 30
0.0
 11
-670.83630667916168
 21
-837.60415316845831
 31
0.0
  0
LINE
  5
70B5
  8
0
 62
     0
 10
-671.61166042879825
 20
-838.37950691809476
 30
0.0
 11
-671.53292042879798
 21
-838.30076691809461
 31
0.0
  0
LINE
  5
70B6
  8
0
 62
     0
 10
-671.34811667915505
 20
-838.08060790010325
 30
0.0
 11
-671.33205569714835
 21
-838.06454691809631
 31
0.0
  0
LINE
  5
70B7
  8
0
 62
     0
 10
-671.46985069714651
 20
-838.20234191809459
 30
0.0
 11
-671.39111069714625
 21
-838.12360191809421
 31
0.0
  0
LINE
  5
70B8
  8
0
 62
     0
 10
-670.91504667916195
 20
-837.64753790011014
 30
0.0
 11
-670.83630667916123
 21
-837.56879790010919
 31
0.0
  0
LINE
  5
70B9
  8
0
 62
     0
 10
-671.64701569714703
 20
-838.3795069180951
 30
0.0
 11
-671.56827569714665
 21
-838.30076691809484
 31
0.0
  0
LINE
  5
70BA
  8
0
 62
     0
 10
-671.50520596549518
 20
-838.20234191809459
 30
0.0
 11
-671.42646596549503
 21
-838.12360191809444
 31
0.0
  0
LINE
  5
70BB
  8
0
 62
     0
 10
-670.91504667916172
 20
-837.61218263176113
 30
0.0
 11
-670.83630667916077
 21
-837.53344263176029
 31
0.0
  0
LINE
  5
70BC
  8
0
 62
     0
 10
-671.68237096549581
 20
-838.3795069180951
 30
0.0
 11
-671.60363096549543
 21
-838.30076691809484
 31
0.0
  0
LINE
  5
70BD
  8
0
 62
     0
 10
-671.54056123384396
 20
-838.2023419180947
 30
0.0
 11
-671.46182123384369
 21
-838.12360191809444
 31
0.0
  0
LINE
  5
70BE
  8
0
 62
     0
 10
-670.91504667916126
 20
-837.57682736341201
 30
0.0
 11
-670.83630667916054
 21
-837.49808736341129
 31
0.0
  0
LINE
  5
70BF
  8
0
 62
     0
 10
-671.71772623384436
 20
-838.3795069180951
 30
0.0
 11
-671.63898623384409
 21
-838.30076691809495
 31
0.0
  0
LINE
  5
70C0
  8
0
 62
     0
 10
-671.57591650219274
 20
-838.2023419180947
 30
0.0
 11
-671.49717650219247
 21
-838.12360191809455
 31
0.0
  0
LINE
  5
70C1
  8
0
 62
     0
 10
-670.91504667916104
 20
-837.54147209506311
 30
0.0
 11
-670.83630667916032
 21
-837.46273209506239
 31
0.0
  0
LINE
  5
70C2
  8
0
 62
     0
 10
-671.75308150219325
 20
-838.37950691809533
 30
0.0
 11
-671.67434150219276
 21
-838.30076691809495
 31
0.0
  0
LINE
  5
70C3
  8
0
 62
     0
 10
-671.61127177054141
 20
-838.2023419180947
 30
0.0
 11
-671.53253177054125
 21
-838.12360191809455
 31
0.0
  0
LINE
  5
70C4
  8
0
 62
     0
 10
-670.9150466791607
 20
-837.50611682671411
 30
0.0
 11
-670.83630667915997
 21
-837.42737682671327
 31
0.0
  0
LINE
  5
70C5
  8
0
 62
     0
 10
-671.78843677054203
 20
-838.37950691809544
 30
0.0
 11
-671.70969677054165
 21
-838.30076691809506
 31
0.0
  0
LINE
  5
70C6
  8
0
 62
     0
 10
-671.64662703889007
 20
-838.20234191809493
 30
0.0
 11
-671.56788703888992
 21
-838.12360191809455
 31
0.0
  0
LINE
  5
70C7
  8
0
 62
     0
 10
-670.91504667916035
 20
-837.47076155836498
 30
0.0
 11
-670.83630667915963
 21
-837.39202155836426
 31
0.0
  0
LINE
  5
70C8
  8
0
 62
     0
 10
-671.78118667915192
 20
-838.33690155835654
 30
0.0
 11
-671.74505203889044
 21
-838.30076691809506
 31
0.0
  0
LINE
  5
70C9
  8
0
 62
     0
 10
-671.68198230723885
 20
-838.20234191809493
 30
0.0
 11
-671.6032423072387
 21
-838.12360191809466
 31
0.0
  0
LINE
  5
70CA
  8
0
 62
     0
 10
-670.91504667916001
 20
-837.43540629001609
 30
0.0
 11
-670.83630667915918
 21
-837.35666629001537
 31
0.0
  0
LINE
  5
70CB
  8
0
 62
     0
 10
-671.78118667915203
 20
-838.3015462900081
 30
0.0
 11
-671.78040730723899
 21
-838.30076691809506
 31
0.0
  0
LINE
  5
70CC
  8
0
 62
     0
 10
-670.91504667915956
 20
-837.40005102166708
 30
0.0
 11
-670.83630667915895
 21
-837.32131102166636
 31
0.0
  0
LINE
  5
70CD
  8
0
 62
     0
 10
-671.71733757558764
 20
-838.20234191809493
 30
0.0
 11
-671.63859757558737
 21
-838.12360191809466
 31
0.0
  0
LINE
  5
70CE
  8
0
 62
     0
 10
-670.91504667915933
 20
-837.36469575331796
 30
0.0
 11
-670.8363066791585
 21
-837.28595575331735
 31
0.0
  0
LINE
  5
70CF
  8
0
 62
     0
 10
-671.7526928439363
 20
-838.20234191809493
 30
0.0
 11
-671.67395284393615
 21
-838.12360191809489
 31
0.0
  0
LINE
  5
70D0
  8
0
 62
     0
 10
-670.91504667915899
 20
-837.32934048496895
 30
0.0
 11
-670.83630667915827
 21
-837.25060048496823
 31
0.0
  0
LINE
  5
70D1
  8
0
 62
     0
 10
-671.78118667915226
 20
-838.19548048496233
 30
0.0
 11
-671.70930811228493
 21
-838.12360191809489
 31
0.0
  0
LINE
  5
70D2
  8
0
 62
     0
 10
-670.91504667915865
 20
-837.29398521662006
 30
0.0
 11
-670.83630667915793
 21
-837.21524521661945
 31
0.0
  0
LINE
  5
70D3
  8
0
 62
     0
 10
-671.78118667915237
 20
-838.16012521661378
 30
0.0
 11
-671.7446633806336
 21
-838.12360191809489
 31
0.0
  0
LINE
  5
70D4
  8
0
 62
     0
 10
-670.91504667915842
 20
-837.25862994827116
 30
0.0
 11
-670.83630667915759
 21
-837.17988994827033
 31
0.0
  0
LINE
  5
70D5
  8
0
 62
     0
 10
-671.78118667915237
 20
-838.12476994826534
 30
0.0
 11
-671.78001864898238
 21
-838.12360191809512
 31
0.0
  0
LINE
  5
70D6
  8
0
 62
     0
 10
-670.91504667915797
 20
-837.22327467992216
 30
0.0
 11
-670.83630667915725
 21
-837.14453467992121
 31
0.0
  0
LINE
  5
70D7
  8
0
 62
     0
 10
-670.91504667915774
 20
-837.18791941157326
 30
0.0
 11
-670.83630667915691
 21
-837.10917941157243
 31
0.0
  0
LINE
  5
70D8
  8
0
 62
     0
 10
-670.91504667915717
 20
-837.15256414322425
 30
0.0
 11
-670.83630667915645
 21
-837.07382414322331
 31
0.0
  0
LINE
  5
70D9
  8
0
 62
     0
 10
-670.91504667915694
 20
-837.11720887487513
 30
0.0
 11
-670.83630667915611
 21
-837.03846887487441
 31
0.0
  0
LINE
  5
70DA
  8
0
 62
     0
 10
-670.9150466791566
 20
-837.08185360652635
 30
0.0
 11
-670.83630667915588
 21
-837.00311360652552
 31
0.0
  0
LINE
  5
70DB
  8
0
 62
     0
 10
-670.91504667915615
 20
-837.04649833817723
 30
0.0
 11
-670.83630667915554
 21
-836.96775833817651
 31
0.0
  0
LINE
  5
70DC
  8
0
 62
     0
 10
-670.91504667915592
 20
-837.01114306982822
 30
0.0
 11
-670.83630667915531
 21
-836.93240306982761
 31
0.0
  0
LINE
  5
70DD
  8
0
 62
     0
 10
-670.91504667915547
 20
-836.9757878014791
 30
0.0
 11
-670.83630667915531
 21
-836.89704780147895
 31
0.0
  0
LINE
  5
70DE
  8
0
 62
     0
 10
-670.91504667915524
 20
-836.94043253313021
 30
0.0
 11
-670.83630667915531
 21
-836.86169253313017
 31
0.0
  0
LINE
  5
70DF
  8
0
 62
     0
 10
-670.91504667915524
 20
-836.90507726478154
 30
0.0
 11
-670.83630667915531
 21
-836.8263372647815
 31
0.0
  0
LINE
  5
70E0
  8
0
 62
     0
 10
-670.91504667915524
 20
-836.86972199643276
 30
0.0
 11
-670.83630667915531
 21
-836.79098199643295
 31
0.0
  0
LINE
  5
70E1
  8
0
 62
     0
 10
-670.91504667915524
 20
-836.83436672808409
 30
0.0
 11
-670.83630667915531
 21
-836.75562672808428
 31
0.0
  0
LINE
  5
70E2
  8
0
 62
     0
 10
-670.91504667915524
 20
-836.79901145973565
 30
0.0
 11
-670.83630667915531
 21
-836.72027145973561
 31
0.0
  0
LINE
  5
70E3
  8
0
 62
     0
 10
-670.91504667915524
 20
-836.76365619138687
 30
0.0
 11
-670.83630667915531
 21
-836.68491619138695
 31
0.0
  0
LINE
  5
70E4
  8
0
 62
     0
 10
-670.91504667915524
 20
-836.72830092303843
 30
0.0
 11
-670.8363066791552
 21
-836.64956092303828
 31
0.0
  0
LINE
  5
70E5
  8
0
 62
     0
 10
-670.91504667915524
 20
-836.69294565468965
 30
0.0
 11
-670.8363066791552
 21
-836.61420565468961
 31
0.0
  0
LINE
  5
70E6
  8
0
 62
     0
 10
-670.91504667915524
 20
-836.6575903863411
 30
0.0
 11
-670.8363066791552
 21
-836.57885038634095
 31
0.0
  0
LINE
  5
70E7
  8
0
 62
     0
 10
-670.91504667915524
 20
-836.62223511799243
 30
0.0
 11
-670.8363066791552
 21
-836.54349511799239
 31
0.0
  0
LINE
  5
70E8
  8
0
 62
     0
 10
-670.91504667915524
 20
-836.58687984964365
 30
0.0
 11
-670.8363066791552
 21
-836.50813984964373
 31
0.0
  0
LINE
  5
70E9
  8
0
 62
     0
 10
-670.91504667915524
 20
-836.55152458129498
 30
0.0
 11
-670.83630667915531
 21
-836.47278458129517
 31
0.0
  0
LINE
  5
70EA
  8
0
 62
     0
 10
-670.91504667915524
 20
-836.51616931294632
 30
0.0
 11
-670.83630667915531
 21
-836.43742931294651
 31
0.0
  0
LINE
  5
70EB
  8
0
 62
     0
 10
-670.91504667915524
 20
-836.48081404459776
 30
0.0
 11
-670.83630667915531
 21
-836.40207404459784
 31
0.0
  0
LINE
  5
70EC
  8
0
 62
     0
 10
-670.91504667915524
 20
-836.4454587762491
 30
0.0
 11
-670.83630667915531
 21
-836.36671877624906
 31
0.0
  0
LINE
  5
70ED
  8
0
 62
     0
 10
-670.91504667915524
 20
-836.41010350790043
 30
0.0
 11
-670.83630667915531
 21
-836.33136350790062
 31
0.0
  0
LINE
  5
70EE
  8
0
 62
     0
 10
-670.91504667915524
 20
-836.37474823955165
 30
0.0
 11
-670.83630667915531
 21
-836.29600823955195
 31
0.0
  0
LINE
  5
70EF
  8
0
 62
     0
 10
-670.91504667915524
 20
-836.33939297120298
 30
0.0
 11
-670.83630667915531
 21
-836.26065297120306
 31
0.0
  0
LINE
  5
70F0
  8
0
 62
     0
 10
-670.91504667915524
 20
-836.30403770285454
 30
0.0
 11
-670.83630667915531
 21
-836.22529770285439
 31
0.0
  0
LINE
  5
70F1
  8
0
 62
     0
 10
-670.91504667915513
 20
-836.26868243450576
 30
0.0
 11
-670.8363066791552
 21
-836.18994243450595
 31
0.0
  0
LINE
  5
70F2
  8
0
 62
     0
 10
-670.91504667915524
 20
-836.23332716615721
 30
0.0
 11
-670.8363066791552
 21
-836.15458716615717
 31
0.0
  0
LINE
  5
70F3
  8
0
 62
     0
 10
-670.91504667915524
 20
-836.19797189780866
 30
0.0
 11
-670.8363066791552
 21
-836.1192318978085
 31
0.0
  0
LINE
  5
70F4
  8
0
 62
     0
 10
-670.91504667915524
 20
-836.16261662945999
 30
0.0
 11
-670.8363066791552
 21
-836.08387662945995
 31
0.0
  0
LINE
  5
70F5
  8
0
 62
     0
 10
-670.91504667915524
 20
-836.12726136111132
 30
0.0
 11
-670.8363066791552
 21
-836.04852136111128
 31
0.0
  0
LINE
  5
70F6
  8
0
 62
     0
 10
-670.91504667915524
 20
-836.09190609276266
 30
0.0
 11
-670.8363066791552
 21
-836.01316609276262
 31
0.0
  0
LINE
  5
70F7
  8
0
 62
     0
 10
-670.91504667915524
 20
-836.05655082441388
 30
0.0
 11
-670.83630667915531
 21
-835.97781082441406
 31
0.0
  0
LINE
  5
70F8
  8
0
 62
     0
 10
-670.91504667915524
 20
-836.02119555606544
 30
0.0
 11
-670.83630667915531
 21
-835.9424555560654
 31
0.0
  0
LINE
  5
70F9
  8
0
 62
     0
 10
-670.91504667915524
 20
-835.98584028771666
 30
0.0
 11
-670.83630667915531
 21
-835.90710028771673
 31
0.0
  0
LINE
  5
70FA
  8
0
 62
     0
 10
-670.91504667915524
 20
-835.95048501936799
 30
0.0
 11
-670.83630667915531
 21
-835.87174501936795
 31
0.0
  0
LINE
  5
70FB
  8
0
 62
     0
 10
-670.91504667915524
 20
-835.91512975101932
 30
0.0
 11
-670.85580684623358
 21
-835.85588991809766
 31
0.0
  0
LINE
  5
70FC
  8
0
 62
     0
 10
-670.91504667915524
 20
-835.87977448267065
 30
0.0
 11
-670.8559916791553
 21
-835.82071948267071
 31
0.0
  0
LINE
  5
70FD
  8
0
 62
     0
 10
-670.91504667915524
 20
-835.84441921432199
 30
0.0
 11
-670.89108438292806
 21
-835.82045691809503
 31
0.0
  0
LINE
  5
70FE
  8
0
 62
     0
 10
-670.9264396512765
 20
-835.82045691809503
 30
0.0
 11
-670.91504667915524
 21
-835.80906394597355
 31
0.0
  0
LINE
  5
70FF
  8
0
 62
     0
 10
-670.96179491962516
 20
-835.82045691809503
 30
0.0
 11
-670.91504667915524
 21
-835.77370867762477
 31
0.0
  0
LINE
  5
7100
  8
0
 62
     0
 10
-670.99715018797394
 20
-835.82045691809503
 30
0.0
 11
-670.94021840210303
 21
-835.76352513222389
 31
0.0
  0
LINE
  5
7101
  8
0
 62
     0
 10
-671.03250545632261
 20
-835.82045691809503
 30
0.0
 11
-670.97496712916472
 21
-835.76291859093703
 31
0.0
  0
LINE
  5
7102
  8
0
 62
     0
 10
-671.06786072467128
 20
-835.82045691809503
 30
0.0
 11
-671.00971585622631
 21
-835.76231204964995
 31
0.0
  0
LINE
  5
7103
  8
0
 62
     0
 10
-671.10321599301994
 20
-835.82045691809503
 30
0.0
 11
-671.044464583288
 21
-835.76170550836287
 31
0.0
  0
LINE
  5
7104
  8
0
 62
     0
 10
-671.13857126136861
 20
-835.82045691809503
 30
0.0
 11
-671.07921331034947
 21
-835.76109896707578
 31
0.0
  0
LINE
  5
7105
  8
0
 62
     0
 10
-670.85536214409501
 20
-835.50189253247265
 30
0.0
 11
-670.83630667915531
 21
-835.48283706753296
 31
0.0
  0
LINE
  5
7106
  8
0
 62
     0
 10
-671.17392652971705
 20
-835.82045691809481
 30
0.0
 11
-671.11396203741128
 21
-835.76049242578904
 31
0.0
  0
LINE
  5
7107
  8
0
 62
     0
 10
-670.891345504333
 20
-835.50252062436198
 30
0.0
 11
-670.83630667915531
 21
-835.44748179918417
 31
0.0
  0
LINE
  5
7108
  8
0
 62
     0
 10
-671.20928179806583
 20
-835.82045691809481
 30
0.0
 11
-671.14871076447275
 21
-835.75988588450195
 31
0.0
  0
LINE
  5
7109
  8
0
 62
     0
 10
-670.92732886457077
 20
-835.50314871625108
 30
0.0
 11
-670.91504667915524
 21
-835.49086653083555
 31
0.0
  0
LINE
  5
710A
  8
0
 62
     0
 10
-670.91504667915524
 20
-835.49086653083555
 30
0.0
 11
-670.83630667915531
 21
-835.41212653083551
 31
0.0
  0
LINE
  5
710B
  8
0
 62
     0
 10
-671.2446370664145
 20
-835.82045691809481
 30
0.0
 11
-671.18345949153445
 21
-835.75927934321464
 31
0.0
  0
LINE
  5
710C
  8
0
 62
     0
 10
-670.96331222480865
 20
-835.5037768081404
 30
0.0
 11
-670.91504667915524
 21
-835.45551126248677
 31
0.0
  0
LINE
  5
710D
  8
0
 62
     0
 10
-670.91504667915524
 20
-835.45551126248677
 30
0.0
 11
-670.83992021763129
 21
-835.38038480096293
 31
0.0
  0
LINE
  5
710E
  8
0
 62
     0
 10
-671.27999233476305
 20
-835.82045691809481
 30
0.0
 11
-671.21820821859615
 21
-835.75867280192779
 31
0.0
  0
LINE
  5
710F
  8
0
 62
     0
 10
-670.99929558504675
 20
-835.50440490002961
 30
0.0
 11
-670.94133260311185
 21
-835.44644191809493
 31
0.0
  0
LINE
  5
7110
  8
0
 62
     0
 10
-670.92122328563107
 20
-835.42633260061405
 30
0.0
 11
-670.85667521171263
 21
-835.3617845266956
 31
0.0
  0
LINE
  5
7111
  8
0
 62
     0
 10
-671.31534760311183
 20
-835.82045691809481
 30
0.0
 11
-671.25295694565773
 21
-835.7580662606407
 31
0.0
  0
LINE
  5
7112
  8
0
 62
     0
 10
-671.03527894528463
 20
-835.50503299191894
 30
0.0
 11
-670.97668787146063
 21
-835.44644191809493
 31
0.0
  0
LINE
  5
7113
  8
0
 62
     0
 10
-670.94115592745618
 20
-835.4109099740906
 30
0.0
 11
-670.87660785353773
 21
-835.34636190017204
 31
0.0
  0
LINE
  5
7114
  8
0
 62
     0
 10
-671.34811667915517
 20
-835.81787072578948
 30
0.0
 11
-671.28770567271943
 21
-835.75745971935362
 31
0.0
  0
LINE
  5
7115
  8
0
 62
     0
 10
-671.07126230552251
 20
-835.50566108380826
 30
0.0
 11
-671.01204313980918
 21
-835.44644191809505
 31
0.0
  0
LINE
  5
7116
  8
0
 62
     0
 10
-670.96108856928117
 20
-835.39548734756715
 30
0.0
 11
-670.89654049536284
 21
-835.33093927364882
 31
0.0
  0
LINE
  5
7117
  8
0
 62
     0
 10
-671.34811667915517
 20
-835.78251545744115
 30
0.0
 11
-671.289061679155
 21
-835.72346045744098
 31
0.0
  0
LINE
  5
7118
  8
0
 62
     0
 10
-671.10724566576027
 20
-835.50628917569759
 30
0.0
 11
-671.04739840815785
 21
-835.44644191809505
 31
0.0
  0
LINE
  5
7119
  8
0
 62
     0
 10
-670.98102121110628
 20
-835.3800647210436
 30
0.0
 11
-670.91647313718795
 21
-835.31551664712515
 31
0.0
  0
LINE
  5
711A
  8
0
 62
     0
 10
-671.34811667915517
 20
-835.74716018909237
 30
0.0
 11
-671.29739790815779
 21
-835.69644141809499
 31
0.0
  0
LINE
  5
711B
  8
0
 62
     0
 10
-671.14322902599838
 20
-835.5069172675868
 30
0.0
 11
-671.08275367650651
 21
-835.44644191809505
 31
0.0
  0
LINE
  5
711C
  8
0
 62
     0
 10
-671.34811667915517
 20
-835.7118049207437
 30
0.0
 11
-671.33275317650634
 21
-835.69644141809499
 31
0.0
  0
LINE
  5
711D
  8
0
 62
     0
 10
-671.00095385293162
 20
-835.36464209452015
 30
0.0
 11
-670.93640577901306
 21
-835.3000940206017
 31
0.0
  0
LINE
  5
711E
  8
0
 62
     0
 10
-671.39771367650394
 20
-835.76140191809247
 30
0.0
 11
-671.38748667915513
 21
-835.75117492074355
 31
0.0
  0
LINE
  5
711F
  8
0
 62
     0
 10
-671.17921238623626
 20
-835.50754535947613
 30
0.0
 11
-671.11810894485507
 21
-835.44644191809505
 31
0.0
  0
LINE
  5
7120
  8
0
 62
     0
 10
-671.02088649475672
 20
-835.34921946799648
 30
0.0
 11
-670.95633842083816
 21
-835.28467139407815
 31
0.0
  0
LINE
  5
7121
  8
0
 62
     0
 10
-671.43306894485261
 20
-835.76140191809247
 30
0.0
 11
-671.38748667915524
 21
-835.715819652395
 31
0.0
  0
LINE
  5
7122
  8
0
 62
     0
 10
-671.21519574647425
 20
-835.50817345136545
 30
0.0
 11
-671.15346421320385
 21
-835.44644191809505
 31
0.0
  0
LINE
  5
7123
  8
0
 62
     0
 10
-671.04081913658183
 20
-835.33379684147314
 30
0.0
 11
-670.9762710626635
 21
-835.2692487675547
 31
0.0
  0
LINE
  5
7124
  8
0
 62
     0
 10
-671.46842421320127
 20
-835.76140191809247
 30
0.0
 11
-671.39055394617833
 21
-835.68353165106953
 31
0.0
  0
LINE
  5
7125
  8
0
 62
     0
 10
-671.25117910671213
 20
-835.50880154325455
 30
0.0
 11
-671.18881948155229
 21
-835.44644191809493
 31
0.0
  0
LINE
  5
7126
  8
0
 62
     0
 10
-671.31283498155244
 20
-835.57045741809486
 30
0.0
 11
-671.28906167915522
 21
-835.54668411569776
 31
0.0
  0
LINE
  5
7127
  8
0
 62
     0
 10
-671.06075177840705
 20
-835.31837421494947
 30
0.0
 11
-670.99620370448861
 21
-835.25382614103114
 31
0.0
  0
LINE
  5
7128
  8
0
 62
     0
 10
-671.50377948154994
 20
-835.76140191809247
 30
0.0
 11
-671.42503948155013
 21
-835.68266191809255
 31
0.0
  0
LINE
  5
7129
  8
0
 62
     0
 10
-671.28716246695012
 20
-835.50942963514399
 30
0.0
 11
-671.22417474990095
 21
-835.44644191809493
 31
0.0
  0
LINE
  5
712A
  8
0
 62
     0
 10
-671.34811667915517
 20
-835.57038384734915
 30
0.0
 11
-671.28906167915522
 21
-835.51132884734909
 31
0.0
  0
LINE
  5
712B
  8
0
 62
     0
 10
-671.08068442023216
 20
-835.30295158842603
 30
0.0
 11
-671.01613634631371
 21
-835.23840351450747
 31
0.0
  0
LINE
  5
712C
  8
0
 62
     0
 10
-671.53913474989861
 20
-835.76140191809247
 30
0.0
 11
-671.46039474989868
 21
-835.68266191809255
 31
0.0
  0
LINE
  5
712D
  8
0
 62
     0
 10
-671.34811667915517
 20
-835.53502857900037
 30
0.0
 11
-671.25953001824973
 21
-835.44644191809493
 31
0.0
  0
LINE
  5
712E
  8
0
 62
     0
 10
-671.39732501824733
 20
-835.58423691809242
 30
0.0
 11
-671.38748667915524
 21
-835.57439857900044
 31
0.0
  0
LINE
  5
712F
  8
0
 62
     0
 10
-671.11164410210245
 20
-835.29855600194765
 30
0.0
 11
-671.03606898813894
 21
-835.22298088798402
 31
0.0
  0
LINE
  5
7130
  8
0
 62
     0
 10
-671.57449001824716
 20
-835.76140191809247
 30
0.0
 11
-671.49575001824735
 21
-835.68266191809255
 31
0.0
  0
LINE
  5
7131
  8
0
 62
     0
 10
-671.34811667915517
 20
-835.4996733106517
 30
0.0
 11
-671.29488528659829
 21
-835.44644191809493
 31
0.0
  0
LINE
  5
7132
  8
0
 62
     0
 10
-671.432680286596
 20
-835.58423691809242
 30
0.0
 11
-671.38748667915524
 21
-835.53904331065166
 31
0.0
  0
LINE
  5
7133
  8
0
 62
     0
 10
-671.14580639683163
 20
-835.29736302832805
 30
0.0
 11
-671.05881779513857
 21
-835.21037442663533
 31
0.0
  0
LINE
  5
7134
  8
0
 62
     0
 10
-671.60984528659594
 20
-835.76140191809247
 30
0.0
 11
-671.53110528659602
 21
-835.68266191809255
 31
0.0
  0
LINE
  5
7135
  8
0
 62
     0
 10
-671.34811667915517
 20
-835.46431804230315
 30
0.0
 11
-671.33024055494695
 21
-835.44644191809493
 31
0.0
  0
LINE
  5
7136
  8
0
 62
     0
 10
-671.46803555494466
 20
-835.58423691809242
 30
0.0
 11
-671.38929555494474
 21
-835.5054969180926
 31
0.0
  0
LINE
  5
7137
  8
0
 62
     0
 10
-671.1799686915607
 20
-835.29617005470845
 30
0.0
 11
-671.09241977234217
 21
-835.20862113549015
 31
0.0
  0
LINE
  5
7138
  8
0
 62
     0
 10
-671.64520055494438
 20
-835.76140191809225
 30
0.0
 11
-671.56646055494468
 21
-835.68266191809255
 31
0.0
  0
LINE
  5
7139
  8
0
 62
     0
 10
-671.50339082329333
 20
-835.58423691809242
 30
0.0
 11
-671.42465082329329
 21
-835.50549691809238
 31
0.0
  0
LINE
  5
713A
  8
0
 62
     0
 10
-671.21413098628966
 20
-835.29497708108886
 30
0.0
 11
-671.12658206707135
 21
-835.20742816187055
 31
0.0
  0
LINE
  5
713B
  8
0
 62
     0
 10
-671.68055582329305
 20
-835.76140191809225
 30
0.0
 11
-671.60181582329335
 21
-835.68266191809255
 31
0.0
  0
LINE
  5
713C
  8
0
 62
     0
 10
-671.538746091642
 20
-835.58423691809242
 30
0.0
 11
-671.46000609164184
 21
-835.50549691809238
 31
0.0
  0
LINE
  5
713D
  8
0
 62
     0
 10
-671.24829328101885
 20
-835.29378410746949
 30
0.0
 11
-671.16074436180043
 21
-835.20623518825084
 31
0.0
  0
LINE
  5
713E
  8
0
 62
     0
 10
-671.71591109164183
 20
-835.76140191809225
 30
0.0
 11
-671.63717109164202
 21
-835.68266191809255
 31
0.0
  0
LINE
  5
713F
  8
0
 62
     0
 10
-671.57410135999055
 20
-835.58423691809264
 30
0.0
 11
-671.49536135999062
 21
-835.5054969180926
 31
0.0
  0
LINE
  5
7140
  8
0
 62
     0
 10
-671.28245557574803
 20
-835.29259113385001
 30
0.0
 11
-671.1949066565295
 21
-835.20504221463136
 31
0.0
  0
LINE
  5
7141
  8
0
 62
     0
 10
-671.75126635999038
 20
-835.76140191809247
 30
0.0
 11
-671.67252635999057
 21
-835.68266191809255
 31
0.0
  0
LINE
  5
7142
  8
0
 62
     0
 10
-671.60945662833922
 20
-835.58423691809264
 30
0.0
 11
-671.53071662833906
 21
-835.5054969180926
 31
0.0
  0
LINE
  5
7143
  8
0
 62
     0
 10
-671.3166178704771
 20
-835.29139816023064
 30
0.0
 11
-671.22906895125857
 21
-835.20384924101199
 31
0.0
  0
LINE
  5
7144
  8
0
 62
     0
 10
-671.78118667915533
 20
-835.75596696890875
 30
0.0
 11
-671.70788162833924
 21
-835.68266191809255
 31
0.0
  0
LINE
  5
7145
  8
0
 62
     0
 10
-671.64481189668777
 20
-835.58423691809264
 30
0.0
 11
-671.56607189668784
 21
-835.5054969180926
 31
0.0
  0
LINE
  5
7146
  8
0
 62
     0
 10
-671.34811667915517
 20
-835.28754170056004
 30
0.0
 11
-671.26323124598764
 21
-835.20265626739229
 31
0.0
  0
LINE
  5
7147
  8
0
 62
     0
 10
-671.78118667915533
 20
-835.72061170056008
 30
0.0
 11
-671.74323689668779
 21
-835.68266191809255
 31
0.0
  0
LINE
  5
7148
  8
0
 62
     0
 10
-671.34811667915517
 20
-835.25218643221126
 30
0.0
 11
-671.33961666503876
 21
-835.24368641809485
 31
0.0
  0
LINE
  5
7149
  8
0
 62
     0
 10
-671.68016716503655
 20
-835.58423691809264
 30
0.0
 11
-671.60142716503651
 21
-835.5054969180926
 31
0.0
  0
LINE
  5
714A
  8
0
 62
     0
 10
-671.32843167915519
 20
-835.23250143221128
 30
0.0
 11
-671.29739354071671
 21
-835.20146329377269
 31
0.0
  0
LINE
  5
714B
  8
0
 62
     0
 10
-671.78118667915533
 20
-835.68525643221142
 30
0.0
 11
-671.77859216503646
 21
-835.68266191809255
 31
0.0
  0
LINE
  5
714C
  8
0
 62
     0
 10
-671.7155224333851
 20
-835.58423691809242
 30
0.0
 11
-671.63678243338506
 21
-835.5054969180926
 31
0.0
  0
LINE
  5
714D
  8
0
 62
     0
 10
-671.75087770173377
 20
-835.58423691809242
 30
0.0
 11
-671.67213770173385
 21
-835.5054969180926
 31
0.0
  0
LINE
  5
714E
  8
0
 62
     0
 10
-671.78118667915533
 20
-835.57919062716553
 30
0.0
 11
-671.7074929700824
 21
-835.5054969180926
 31
0.0
  0
LINE
  5
714F
  8
0
 62
     0
 10
-671.78118667915533
 20
-835.54383535881675
 30
0.0
 11
-671.74284823843118
 21
-835.5054969180926
 31
0.0
  0
LINE
  5
7150
  8
0
 62
     0
 10
-671.7893702831783
 20
-835.51666369449106
 30
0.0
 11
-671.77820350677973
 21
-835.50549691809238
 31
0.0
  0
ENDBLK
  5
7152
  8
0
  0
BLOCK
  8
0
  2
*X50
 70
     1
 10
0.0
 20
0.0
 30
0.0
  3
*X50
  1

  0
LINE
  5
7154
  8
0
 62
     0
 10
-670.85179211458205
 20
-835.81651991809747
 30
0.0
 11
-670.83630667915531
 21
-835.80103448267073
 31
0.0
  0
LINE
  5
7155
  8
0
 62
     0
 10
-670.89108438292806
 20
-835.82045691809503
 30
0.0
 11
-670.83630667915531
 21
-835.76567921432218
 31
0.0
  0
LINE
  5
7156
  8
0
 62
     0
 10
-670.91504667915524
 20
-835.80906394597355
 30
0.0
 11
-670.87072094797975
 21
-835.76473821479817
 31
0.0
  0
LINE
  5
7157
  8
0
 62
     0
 10
-670.91504667915524
 20
-835.77370867762477
 30
0.0
 11
-670.90546967504145
 21
-835.76413167351097
 31
0.0
  0
ENDBLK
  5
7159
  8
0
  0
BLOCK
  8
0
  2
*U51
 70
     1
 10
0.0
 20
0.0
 30
0.0
  3
*U51
  1

  0
TEXT
  5
715B
  8
DIM
 10
-675.07820374884375
 20
-841.74947328109351
 30
0.0
 40
0.125
  1
MATERIAL : FLAME RETARDANT OF ABS ( UL94-V0 )
  0
TEXT
  5
715C
  8
DIM
 10
-675.07394044734315
 20
-841.96002353120718
 30
0.0
 40
0.125
  1
COLOR: BLACK
  0
TEXT
  5
715D
  8
DIM
 10
-675.07956800532395
 20
-842.17048851529091
 30
0.0
 40
0.125
  1
FINISH:
  0
TEXT
  5
715E
  8
DIM
 10
-675.06524331228172
 20
-842.38103876540447
 30
0.0
 40
0.125
  1
   SHELL EXTERIOR SURFACES ARE TEXTURED.
  0
TEXT
  5
715F
  8
DIM
 10
-675.06524331228172
 20
-842.59158901551825
 30
0.0
 40
0.125
  1
   RECESSED AREAS ON EXTERIOR ARE SMOOTH.
  0
TEXT
  5
7160
  8
DIM
 10
-675.07956800532395
 20
-842.80213926563204
 30
0.0
 40
0.125
  1
FOUR (4) INTERNAL BOSSES ON EACH SHELL ARE
  0
TEXT
  5
7161
  8
DIM
 10
-675.06524331228172
 20
-843.01268951574571
 30
0.0
 40
0.125
  1
   DESIGNED TO TRAP PCB BETWEEN ASSEMBLED
  0
TEXT
  5
7162
  8
DIM
 10
-675.06524331228172
 20
-843.22315449982932
 30
0.0
 40
0.125
  1
   SHELL HALVES.
  0
TEXT
  5
7163
  8
DIM
 10
-675.07956800532395
 20
-843.4337047499431
 30
0.0
 40
0.125
  1
FOUR (4) #4-24 x .375 LG. SCREWS (BLACK) ARE 
  0
TEXT
  5
7164
  8
DIM
 10
-675.07308778704294
 20
-843.64425500005666
 30
0.0
 40
0.125
  1
SUPPLIED FOR ASSEMBLING SHELL HALVES
  0
TEXT
  5
7165
  8
DIM
 10
-675.06498751419167
 20
-843.85480525017044
 30
0.0
 40
0.125
  1
ALL DIMENSIONAL TOLERANCES ARE  +/-.015
  0
ENDBLK
  5
7167
  8
0
  0
BLOCK
  8
0
  2
*U52
 70
     1
 10
0.0
 20
0.0
 30
0.0
  3
*U52
  1

  0
TEXT
  5
7169
  8
DIM
 62
     0
 10
-683.69822037896085
 20
-832.92673757992725
 30
0.0
 40
0.125
  1
.177 [
  0
TEXT
  5
716A
  8
DIM
 62
     0
 10
-683.24506389810131
 20
-832.92673757992725
 30
0.0
 40
0.125
  1
4.5
  0
TEXT
  5
716B
  8
DIM
 62
     0
 10
-682.94744485048216
 20
-832.92673757992725
 30
0.0
 40
0.125
  1
]
  0
ENDBLK
  5
716D
  8
0
  0
BLOCK
  8
0
  2
*U53
 70
     1
 10
0.0
 20
0.0
 30
0.0
  3
*U53
  1

  0
TEXT
  5
716F
  8
DIM
 62
     0
 10
-679.13865807726643
 20
-835.84846423001306
 30
0.0
 40
0.125
  1
1.77 [
  0
TEXT
  5
7170
  8
DIM
 62
     0
 10
-678.68550159640665
 20
-835.84846423001306
 30
0.0
 40
0.125
  1
45
  0
TEXT
  5
7171
  8
DIM
 62
     0
 10
-678.44740635831147
 20
-835.84846423001306
 30
0.0
 40
0.125
  1
]
  0
ENDBLK
  5
7173
  8
0
  0
BLOCK
  8
0
  2
*U54
 70
     1
 10
0.0
 20
0.0
 30
0.0
  3
*U54
  1

  0
TEXT
  5
7175
  8
DIM
 62
     0
 10
-683.48334222353219
 20
-842.15917486784122
 30
0.0
 40
0.125
  1
.236 [
  0
TEXT
  5
7176
  8
DIM
 62
     0
 10
-683.03018574267276
 20
-842.15917486784122
 30
0.0
 40
0.125
  1
6.0
  0
TEXT
  5
7177
  8
DIM
 62
     0
 10
-682.73256669505372
 20
-842.15917486784122
 30
0.0
 40
0.125
  1
]
  0
ENDBLK
  5
7179
  8
0
  0
ENDSEC
  0
SECTION
  2
ENTITIES
  0
CIRCLE
  5
14C1
  8
\M+2BBB2\M+2A755\M+2BD75
 10
-687.02439223299075
 20
-840.15004372562032
 30
0.0
 40
0.1870075
  0
CIRCLE
  5
14C2
  8
\M+2BBB2\M+2A755\M+2BD75
 10
-687.02439223299075
 20
-840.15004372562032
 30
0.0
 40
0.062992
  0
CIRCLE
  5
14C3
  8
\M+2BBB2\M+2A755\M+2BD75
 10
-687.08344723299092
 20
-840.52405872562031
 30
0.0
 40
0.1279525
  0
CIRCLE
  5
14C7
  8
\M+2BBB2\M+2A755\M+2BD75
 10
-685.39053723299071
 20
-840.15004372562032
 30
0.0
 40
0.1870075
  0
CIRCLE
  5
14C8
  8
\M+2BBB2\M+2A755\M+2BD75
 10
-685.39053723299071
 20
-840.15004372562032
 30
0.0
 40
0.062992
  0
CIRCLE
  5
14C9
  8
\M+2BBB2\M+2A755\M+2BD75
 10
-685.33148223299088
 20
-840.52405872562031
 30
0.0
 40
0.1279525
  0
CIRCLE
  5
14CA
  8
\M+2BBB2\M+2A755\M+2BD75
 10
-685.33148223299088
 20
-840.52405872562031
 30
0.0
 40
0.04429125
  0
CIRCLE
  5
14CC
  8
\M+2BBB2\M+2A755\M+2BD75
 10
-687.02439223299075
 20
-842.76814872562034
 30
0.0
 40
0.1870075
  0
CIRCLE
  5
14CD
  8
\M+2BBB2\M+2A755\M+2BD75
 10
-687.02439223299075
 20
-842.76814872562034
 30
0.0
 40
0.062992
  0
CIRCLE
  5
14CE
  8
\M+2BBB2\M+2A755\M+2BD75
 10
-687.08344723299092
 20
-842.39413372562035
 30
0.0
 40
0.1279525
  0
CIRCLE
  5
14CF
  8
\M+2BBB2\M+2A755\M+2BD75
 10
-687.08344723299092
 20
-842.39413372562035
 30
0.0
 40
0.04429125
  0
CIRCLE
  5
14D2
  8
\M+2BBB2\M+2A755\M+2BD75
 10
-685.39053723299082
 20
-842.76814872562045
 30
0.0
 40
0.1870075
  0
CIRCLE
  5
14D3
  8
\M+2BBB2\M+2A755\M+2BD75
 10
-685.39053723299082
 20
-842.76814872562045
 30
0.0
 40
0.062992
  0
CIRCLE
  5
14D4
  8
\M+2BBB2\M+2A755\M+2BD75
 10
-685.33148223299088
 20
-842.39413372562035
 30
0.0
 40
0.1279525
  0
CIRCLE
  5
14D5
  8
\M+2BBB2\M+2A755\M+2BD75
 10
-685.33148223299088
 20
-842.39413372562035
 30
0.0
 40
0.04429125
  0
POLYLINE
  5
1506
  8
\M+2BBB2\M+2A755\M+2BD75
 66
     1
 10
0.0
 20
0.0
 30
0.0
 70
     1
  0
VERTEX
  5
6E4C
  8
\M+2BBB2\M+2A755\M+2BD75
 10
-687.4099794445433
 20
-840.14060304676877
 30
0.0
 42
0.0142710721216973
  0
VERTEX
  5
6E4D
  8
\M+2BBB2\M+2A755\M+2BD75
 10
-687.44761973299057
 20
-841.45909622562124
 30
0.0
 42
0.0142710721216973
  0
VERTEX
  5
6E4E
  8
\M+2BBB2\M+2A755\M+2BD75
 10
-687.4099794445433
 20
-842.77758940447279
 30
0.0
 42
0.3606297941766457
  0
VERTEX
  5
6E4F
  8
\M+2BBB2\M+2A755\M+2BD75
 10
-687.06767022866313
 20
-843.1455444275316
 30
0.0
 42
0.0647220906745848
  0
VERTEX
  5
6E50
  8
\M+2BBB2\M+2A755\M+2BD75
 10
-685.34725923731867
 20
-843.1455444275316
 30
0.0
 42
0.3606297941766303
  0
VERTEX
  5
6E51
  8
\M+2BBB2\M+2A755\M+2BD75
 10
-685.00495002143862
 20
-842.77758940447279
 30
0.0
 42
0.014271072121698
  0
VERTEX
  5
6E52
  8
\M+2BBB2\M+2A755\M+2BD75
 10
-684.96730973299066
 20
-841.45909622562044
 30
0.0
 42
0.0142710721216979
  0
VERTEX
  5
6E53
  8
\M+2BBB2\M+2A755\M+2BD75
 10
-685.00495002143816
 20
-840.14060304676877
 30
0.0
 42
0.3606297941766303
  0
VERTEX
  5
6E54
  8
\M+2BBB2\M+2A755\M+2BD75
 10
-685.34725923731855
 20
-839.77264802370996
 30
0.0
 42
0.064722090674585
  0
VERTEX
  5
6E55
  8
\M+2BBB2\M+2A755\M+2BD75
 10
-687.06767022866302
 20
-839.77264802370996
 30
0.0
 42
0.3606297941766457
  0
SEQEND
  5
6E56
  8
\M+2BBB2\M+2A755\M+2BD75
  0
POLYLINE
  5
1507
  8
\M+2BBB2\M+2A755\M+2BD75
 66
     1
 10
0.0
 20
0.0
 30
0.0
 70
     1
  0
VERTEX
  5
6E57
  8
\M+2BBB2\M+2A755\M+2BD75
 10
-687.31957591993455
 20
-840.14576892901334
 30
0.0
 42
0.0142710721216975
  0
VERTEX
  5
6E58
  8
\M+2BBB2\M+2A755\M+2BD75
 10
-687.35706873299057
 20
-841.45909622562124
 30
0.0
 42
0.0142710721216973
  0
VERTEX
  5
6E59
  8
\M+2BBB2\M+2A755\M+2BD75
 10
-687.31957591993455
 20
-842.77242352222822
 30
0.0
 42
0.3606297941766459
  0
VERTEX
  5
6E5A
  8
\M+2BBB2\M+2A755\M+2BD75
 10
-687.055997823707
 20
-843.05574888998365
 30
0.0
 42
0.0647220906745849
  0
VERTEX
  5
6E5B
  8
\M+2BBB2\M+2A755\M+2BD75
 10
-685.35893164227468
 20
-843.05574888998376
 30
0.0
 42
0.3606297941766305
  0
VERTEX
  5
6E5C
  8
\M+2BBB2\M+2A755\M+2BD75
 10
-685.09535354604702
 20
-842.77242352222822
 30
0.0
 42
0.014271072121698
  0
VERTEX
  5
6E5D
  8
\M+2BBB2\M+2A755\M+2BD75
 10
-685.05786073299066
 20
-841.45909622562044
 30
0.0
 42
0.0142710721216979
  0
VERTEX
  5
6E5E
  8
\M+2BBB2\M+2A755\M+2BD75
 10
-685.09535354604691
 20
-840.14576892901334
 30
0.0
 42
0.3606297941766293
  0
VERTEX
  5
6E5F
  8
\M+2BBB2\M+2A755\M+2BD75
 10
-685.35893164227468
 20
-839.86244356125815
 30
0.0
 42
0.0647220906745851
  0
VERTEX
  5
6E60
  8
\M+2BBB2\M+2A755\M+2BD75
 10
-687.055997823707
 20
-839.86244356125781
 30
0.0
 42
0.3606297941766447
  0
SEQEND
  5
6E61
  8
\M+2BBB2\M+2A755\M+2BD75
  0
POLYLINE
  5
1508
  8
\M+2BBB2\M+2A755\M+2BD75
 66
     1
 10
0.0
 20
0.0
 30
0.0
 70
     1
  0
VERTEX
  5
6E62
  8
\M+2BBB2\M+2A755\M+2BD75
 10
-687.36674297625234
 20
-840.14307368610298
 30
0.0
 42
0.0142710721216975
  0
VERTEX
  5
6E63
  8
\M+2BBB2\M+2A755\M+2BD75
 10
-687.40431273299066
 20
-841.45909622562124
 30
0.0
 42
0.0142710721216974
  0
VERTEX
  5
6E64
  8
\M+2BBB2\M+2A755\M+2BD75
 10
-687.36674297625234
 20
-842.77511876513825
 30
0.0
 42
0.3606297941766448
  0
VERTEX
  5
6E65
  8
\M+2BBB2\M+2A755\M+2BD75
 10
-687.06208777411905
 20
-843.10259873566065
 30
0.0
 42
0.0647220906745848
  0
VERTEX
  5
6E66
  8
\M+2BBB2\M+2A755\M+2BD75
 10
-685.35284169186298
 20
-843.10259873566099
 30
0.0
 42
0.3606297941766319
  0
VERTEX
  5
6E67
  8
\M+2BBB2\M+2A755\M+2BD75
 10
-685.04818648972957
 20
-842.77511876513859
 30
0.0
 42
0.014271072121698
  0
VERTEX
  5
6E68
  8
\M+2BBB2\M+2A755\M+2BD75
 10
-685.01061673299057
 20
-841.45909622562044
 30
0.0
 42
0.0142710721216979
  0
VERTEX
  5
6E69
  8
\M+2BBB2\M+2A755\M+2BD75
 10
-685.04818648972935
 20
-840.14307368610321
 30
0.0
 42
0.3606297941766293
  0
VERTEX
  5
6E6A
  8
\M+2BBB2\M+2A755\M+2BD75
 10
-685.35284169186275
 20
-839.8155937155808
 30
0.0
 42
0.064722090674585
  0
VERTEX
  5
6E6B
  8
\M+2BBB2\M+2A755\M+2BD75
 10
-687.06208777411871
 20
-839.8155937155808
 30
0.0
 42
0.3606297941766458
  0
SEQEND
  5
6E6C
  8
\M+2BBB2\M+2A755\M+2BD75
  0
POLYLINE
  5
1509
  8
\M+2BBB2\M+2A755\M+2BD75
 66
     1
 10
0.0
 20
0.0
 30
0.0
 70
     1
  0
VERTEX
  5
6E6D
  8
\M+2BBB2\M+2A755\M+2BD75
 10
-679.22947794731249
 20
-840.14060304676877
 30
0.0
 42
0.0142710721216973
  0
VERTEX
  5
6E6E
  8
\M+2BBB2\M+2A755\M+2BD75
 10
-679.26711823576011
 20
-841.45909622562124
 30
0.0
 42
0.0142710721216973
  0
VERTEX
  5
6E6F
  8
\M+2BBB2\M+2A755\M+2BD75
 10
-679.2294779473126
 20
-842.77758940447279
 30
0.0
 42
0.3606297941766457
  0
VERTEX
  5
6E70
  8
\M+2BBB2\M+2A755\M+2BD75
 10
-678.88716873143233
 20
-843.1455444275316
 30
0.0
 42
0.0647220906745848
  0
VERTEX
  5
6E71
  8
\M+2BBB2\M+2A755\M+2BD75
 10
-677.16675774008786
 20
-843.1455444275316
 30
0.0
 42
0.3606297941766303
  0
VERTEX
  5
6E72
  8
\M+2BBB2\M+2A755\M+2BD75
 10
-676.82444852420781
 20
-842.77758940447279
 30
0.0
 42
0.014271072121698
  0
VERTEX
  5
6E73
  8
\M+2BBB2\M+2A755\M+2BD75
 10
-676.78680823575985
 20
-841.45909622562044
 30
0.0
 42
0.0142710721216979
  0
VERTEX
  5
6E74
  8
\M+2BBB2\M+2A755\M+2BD75
 10
-676.82444852420758
 20
-840.14060304676877
 30
0.0
 42
0.3606297941766303
  0
VERTEX
  5
6E75
  8
\M+2BBB2\M+2A755\M+2BD75
 10
-677.16675774008775
 20
-839.77264802370996
 30
0.0
 42
0.064722090674585
  0
VERTEX
  5
6E76
  8
\M+2BBB2\M+2A755\M+2BD75
 10
-678.88716873143221
 20
-839.77264802370996
 30
0.0
 42
0.3606297941766457
  0
SEQEND
  5
6E77
  8
\M+2BBB2\M+2A755\M+2BD75
  0
POLYLINE
  5
150E
  8
\M+2BBB2\M+2A755\M+2BD75
 66
     1
 10
0.0
 20
0.0
 30
0.0
 70
     1
  0
VERTEX
  5
6E78
  8
\M+2BBB2\M+2A755\M+2BD75
 10
-679.05260148612194
 20
-840.15071020768198
 30
0.0
 42
0.0142710721216975
  0
VERTEX
  5
6E79
  8
\M+2BBB2\M+2A755\M+2BD75
 10
-679.08995323576016
 20
-841.45909622562124
 30
0.0
 42
0.0142710721216974
  0
VERTEX
  5
6E7A
  8
\M+2BBB2\M+2A755\M+2BD75
 10
-679.05260148612206
 20
-842.76748224355958
 30
0.0
 42
0.360629794176644
  0
VERTEX
  5
6E7B
  8
\M+2BBB2\M+2A755\M+2BD75
 10
-678.86433141738803
 20
-842.96985750624185
 30
0.0
 42
0.0647220906745849
  0
VERTEX
  5
6E7C
  8
\M+2BBB2\M+2A755\M+2BD75
 10
-677.1895950541325
 20
-842.96985750624196
 30
0.0
 42
0.3606297941766307
  0
VERTEX
  5
6E7D
  8
\M+2BBB2\M+2A755\M+2BD75
 10
-677.00132498539824
 20
-842.76748224355958
 30
0.0
 42
0.014271072121698
  0
VERTEX
  5
6E7E
  8
\M+2BBB2\M+2A755\M+2BD75
 10
-676.96397323576014
 20
-841.45909622562044
 30
0.0
 42
0.0142710721216979
  0
VERTEX
  5
6E7F
  8
\M+2BBB2\M+2A755\M+2BD75
 10
-677.00132498539824
 20
-840.15071020768198
 30
0.0
 42
0.3606297941766289
  0
VERTEX
  5
6E80
  8
\M+2BBB2\M+2A755\M+2BD75
 10
-677.18959505413216
 20
-839.94833494499971
 30
0.0
 42
0.064722090674585
  0
VERTEX
  5
6E81
  8
\M+2BBB2\M+2A755\M+2BD75
 10
-678.8643314173878
 20
-839.94833494499971
 30
0.0
 42
0.3606297941766449
  0
SEQEND
  5
6E82
  8
\M+2BBB2\M+2A755\M+2BD75
  0
LINE
  5
150F
  8
\M+2BBB2\M+2A755\M+2BD75
 10
-678.88592536655642
 20
-839.78221320053569
 30
0.0
 11
-678.8643314173878
 21
-839.94833494499971
 31
0.0
  0
LINE
  5
1510
  8
\M+2BBB2\M+2A755\M+2BD75
 10
-677.16675774008775
 20
-839.77264802370996
 30
0.0
 11
-677.18959505413216
 21
-839.94833494499971
 31
0.0
  0
LINE
  5
1511
  8
\M+2BBB2\M+2A755\M+2BD75
 10
-679.22947794731249
 20
-840.14060304676877
 30
0.0
 11
-679.05260148612194
 21
-840.15071020768198
 31
0.0
  0
LINE
  5
1512
  8
\M+2BBB2\M+2A755\M+2BD75
 10
-676.82444852420758
 20
-840.14060304676877
 30
0.0
 11
-677.00132498539824
 21
-840.15071020768198
 31
0.0
  0
LINE
  5
1513
  8
\M+2BBB2\M+2A755\M+2BD75
 10
-678.88592536655722
 20
-843.13597925071031
 30
0.0
 11
-678.8643314173886
 21
-842.96985750624651
 31
0.0
  0
LINE
  5
1514
  8
\M+2BBB2\M+2A755\M+2BD75
 10
-677.16675774008866
 20
-843.14554442753695
 30
0.0
 11
-677.18959505413295
 21
-842.96985750624719
 31
0.0
  0
LINE
  5
1515
  8
\M+2BBB2\M+2A755\M+2BD75
 10
-679.22947794731306
 20
-842.77758940447723
 30
0.0
 11
-679.05260148612263
 21
-842.76748224356413
 31
0.0
  0
LINE
  5
1516
  8
\M+2BBB2\M+2A755\M+2BD75
 10
-676.82444852420826
 20
-842.77758940447814
 30
0.0
 11
-677.00132498539858
 21
-842.76748224356493
 31
0.0
  0
POLYLINE
  5
151F
  8
\M+2BBB2\M+2A755\M+2BD75
 66
     1
 10
0.0
 20
0.0
 30
0.0
 70
     1
  0
VERTEX
  5
6E83
  8
\M+2BBB2\M+2A755\M+2BD75
 10
-678.66672573576022
 20
-842.58507822562308
 30
0.0
 42
-0.4142135623730507
  0
VERTEX
  5
6E84
  8
\M+2BBB2\M+2A755\M+2BD75
 10
-678.90294573576023
 20
-842.34885822562308
 30
0.0
  0
VERTEX
  5
6E85
  8
\M+2BBB2\M+2A755\M+2BD75
 10
-678.90294573576023
 20
-840.56933422562315
 30
0.0
 42
-0.4142135623731395
  0
VERTEX
  5
6E86
  8
\M+2BBB2\M+2A755\M+2BD75
 10
-678.66672573576011
 20
-840.33311422562315
 30
0.0
  0
VERTEX
  5
6E87
  8
\M+2BBB2\M+2A755\M+2BD75
 10
-677.38720073575985
 20
-840.33311422562326
 30
0.0
 42
-0.4142135623730506
  0
VERTEX
  5
6E88
  8
\M+2BBB2\M+2A755\M+2BD75
 10
-677.15098073576019
 20
-840.56933422562349
 30
0.0
  0
VERTEX
  5
6E89
  8
\M+2BBB2\M+2A755\M+2BD75
 10
-677.15098073576019
 20
-842.34885822562353
 30
0.0
 42
-0.4142135623731393
  0
VERTEX
  5
6E8A
  8
\M+2BBB2\M+2A755\M+2BD75
 10
-677.3872007357603
 20
-842.58507822562331
 30
0.0
  0
SEQEND
  5
6E8B
  8
\M+2BBB2\M+2A755\M+2BD75
  0
POLYLINE
  5
1520
  8
\M+2BBB2\M+2A755\M+2BD75
 66
     1
 10
0.0
 20
0.0
 30
0.0
 70
     1
  0
VERTEX
  5
6E8C
  8
\M+2BBB2\M+2A755\M+2BD75
 10
-678.66672573576022
 20
-842.54570822562312
 30
0.0
 42
-0.4142135623730511
  0
VERTEX
  5
6E8D
  8
\M+2BBB2\M+2A755\M+2BD75
 10
-678.86357573576015
 20
-842.34885822562308
 30
0.0
  0
VERTEX
  5
6E8E
  8
\M+2BBB2\M+2A755\M+2BD75
 10
-678.86357573576015
 20
-840.56933422562315
 30
0.0
 42
-0.4142135623731395
  0
VERTEX
  5
6E8F
  8
\M+2BBB2\M+2A755\M+2BD75
 10
-678.66672573576011
 20
-840.37248422562334
 30
0.0
  0
VERTEX
  5
6E90
  8
\M+2BBB2\M+2A755\M+2BD75
 10
-677.38720073575985
 20
-840.37248422562334
 30
0.0
 42
-0.4142135623730506
  0
VERTEX
  5
6E91
  8
\M+2BBB2\M+2A755\M+2BD75
 10
-677.19035073576015
 20
-840.56933422562349
 30
0.0
  0
VERTEX
  5
6E92
  8
\M+2BBB2\M+2A755\M+2BD75
 10
-677.19035073576026
 20
-842.34885822562353
 30
0.0
 42
-0.4142135623731393
  0
VERTEX
  5
6E93
  8
\M+2BBB2\M+2A755\M+2BD75
 10
-677.3872007357603
 20
-842.54570822562346
 30
0.0
  0
SEQEND
  5
6E94
  8
\M+2BBB2\M+2A755\M+2BD75
  0
CIRCLE
  5
153B
  8
\M+2BBB2\M+2A755\M+2BD75
 10
-678.84389073576017
 20
-840.15004372562043
 30
0.0
 40
0.1318895
  0
CIRCLE
  5
153C
  8
\M+2BBB2\M+2A755\M+2BD75
 10
-677.21003573576024
 20
-840.15004372562043
 30
0.0
 40
0.1318895
  0
CIRCLE
  5
153D
  8
\M+2BBB2\M+2A755\M+2BD75
 10
-677.21003573576024
 20
-842.76814872562045
 30
0.0
 40
0.1318895
  0
CIRCLE
  5
153E
  8
\M+2BBB2\M+2A755\M+2BD75
 10
-678.84389073576017
 20
-842.76814872562045
 30
0.0
 40
0.1318895
  0
CIRCLE
  5
153F
  8
\M+2BBB2\M+2A755\M+2BD75
 10
-678.84389073576017
 20
-840.15004372562328
 30
0.0
 40
0.062992
  0
CIRCLE
  5
1540
  8
\M+2BBB2\M+2A755\M+2BD75
 10
-677.21003573576024
 20
-840.15004372562328
 30
0.0
 40
0.062992
  0
CIRCLE
  5
1541
  8
\M+2BBB2\M+2A755\M+2BD75
 10
-678.84389073576017
 20
-842.76814872562329
 30
0.0
 40
0.062992
  0
CIRCLE
  5
1542
  8
\M+2BBB2\M+2A755\M+2BD75
 10
-677.21003573576024
 20
-842.76814872562329
 30
0.0
 40
0.062992
  0
LINE
  5
158C
  8
\M+2BBB2\M+2A755\M+2BD75
 10
-681.81730123837133
 20
-839.71697372562016
 30
0.0
 11
-681.81730123837133
 21
-839.76028072562019
 31
0.0
  0
LINE
  5
158D
  8
\M+2BBB2\M+2A755\M+2BD75
 10
-682.30942623837132
 20
-839.91345552676626
 30
0.0
 11
-682.30942623837132
 21
-841.45909622562363
 31
0.0
  0
ARC
  5
158E
  8
\M+2BBB2\M+2A755\M+2BD75
 10
-682.27005623837124
 20
-839.91345552676626
 30
0.0
 40
0.03937
 50
127.7304537117538
 51
180.0
  0
LINE
  5
158F
  8
\M+2BBB2\M+2A755\M+2BD75
 10
-681.81730123837133
 20
-839.71697372562016
 30
0.0
 11
-682.08020918652983
 21
-839.72615467347555
 31
0.0
  0
LINE
  5
1590
  8
\M+2BBB2\M+2A755\M+2BD75
 10
-682.10292756653666
 20
-839.73436302096218
 30
0.0
 11
-682.29414861156295
 21
-839.88231785739356
 31
0.0
  0
ARC
  5
1591
  8
\M+2BBB2\M+2A755\M+2BD75
 10
-682.07883519334473
 20
-839.76550069033522
 30
0.0
 40
0.03937
 50
91.999999999997158
 51
127.7304537117538
  0
LINE
  5
1598
  8
\M+2BBB2\M+2A755\M+2BD75
 10
-681.81730123837133
 20
-839.76028072562019
 30
0.0
 11
-681.75824623837116
 21
-839.76028072562019
 31
0.0
  0
LINE
  5
1599
  8
\M+2BBB2\M+2A755\M+2BD75
 10
-681.75824623837116
 20
-839.76028072562019
 30
0.0
 11
-681.75824623837116
 21
-841.4590962256209
 31
0.0
  0
LINE
  5
159B
  8
\M+2BBB2\M+2A755\M+2BD75
 10
-682.06056233481024
 20
-839.81607478514115
 30
0.0
 11
-682.23068623837128
 21
-839.94770597835475
 31
0.0
  0
LINE
  5
159C
  8
\M+2BBB2\M+2A755\M+2BD75
 10
-681.81414105404519
 20
-839.80746956439771
 30
0.0
 11
-682.06056233481024
 21
-839.81607478514115
 31
0.0
  0
LINE
  5
15B9
  8
\M+2BBB2\M+2A755\M+2BD75
 10
-682.23068623837128
 20
-839.94770597835475
 30
0.0
 11
-682.23068623837128
 21
-839.96303622562016
 31
0.0
  0
LINE
  5
15BB
  8
\M+2BBB2\M+2A755\M+2BD75
 10
-681.81730123837133
 20
-839.80757992046597
 30
0.0
 11
-681.75824623837116
 21
-839.80757992046597
 31
0.0
  0
LINE
  5
15C1
  8
\M+2BBB2\M+2A755\M+2BD75
 10
-682.23068623837128
 20
-839.96303622562016
 30
0.0
 11
-681.77793123837125
 21
-839.96303622562016
 31
0.0
  0
LINE
  5
15C2
  8
\M+2BBB2\M+2A755\M+2BD75
 10
-682.28974123837122
 20
-840.33705122562037
 30
0.0
 11
-681.77793123837125
 21
-840.33705122562037
 31
0.0
  0
LINE
  5
15C5
  8
\M+2BBB2\M+2A755\M+2BD75
 10
-681.77793123837125
 20
-839.96303622562016
 30
0.0
 11
-681.77793123837125
 21
-840.33705122562037
 31
0.0
  0
LINE
  5
15C6
  8
\M+2BBB2\M+2A755\M+2BD75
  6
HIDDEN2
 62
     1
 10
-681.85667123837129
 20
-840.02605709354191
 30
0.0
 11
-681.85667123837129
 21
-840.27403035769885
 31
0.0
  0
LINE
  5
15C7
  8
\M+2BBB2\M+2A755\M+2BD75
 10
-682.23068623837128
 20
-840.33705122562037
 30
0.0
 11
-682.23068623837128
 21
-840.47976747562029
 31
0.0
  0
LINE
  5
15CA
  8
\M+2BBB2\M+2A755\M+2BD75
  6
HIDDEN2
 62
     1
 10
-682.30942623837132
 20
-840.01815422562015
 30
0.0
 11
-681.85667123837129
 21
-840.02605709354191
 31
0.0
  0
LINE
  5
15CB
  8
\M+2BBB2\M+2A755\M+2BD75
  6
HIDDEN2
 62
     1
 10
-682.30942623837132
 20
-840.28193322562015
 30
0.0
 11
-681.85667123837129
 21
-840.27403035769885
 31
0.0
  0
LINE
  5
15D7
  8
\M+2BBB2\M+2A755\M+2BD75
 10
-681.81730123835416
 20
-843.20121872562186
 30
0.0
 11
-681.81730123835473
 21
-843.15791172562194
 31
0.0
  0
LINE
  5
15D8
  8
\M+2BBB2\M+2A755\M+2BD75
 10
-682.3094262383562
 20
-843.00473692448031
 30
0.0
 11
-682.30942623837132
 21
-841.45909622562363
 31
0.0
  0
LINE
  5
15D9
  8
\M+2BBB2\M+2A755\M+2BD75
 10
-682.23068623835661
 20
-842.97048647289125
 30
0.0
 11
-682.23068623835672
 21
-842.95515622562596
 31
0.0
  0
LINE
  5
15DA
  8
\M+2BBB2\M+2A755\M+2BD75
 10
-682.23068623836025
 20
-842.58114122562597
 30
0.0
 11
-682.23068623836093
 21
-842.52208622562671
 31
0.0
  0
ARC
  5
15DB
  8
\M+2BBB2\M+2A755\M+2BD75
 10
-682.27005623835623
 20
-843.00473692447997
 30
0.0
 40
0.03937
 50
180.00000000055681
 51
232.26954628879841
  0
LINE
  5
15DC
  8
\M+2BBB2\M+2A755\M+2BD75
 10
-681.81730123835416
 20
-843.20121872562186
 30
0.0
 11
-682.08020918651312
 21
-843.19203777776931
 31
0.0
  0
LINE
  5
15DD
  8
\M+2BBB2\M+2A755\M+2BD75
 10
-681.81414105402928
 20
-843.11072288684431
 30
0.0
 11
-682.06056233479421
 21
-843.10211766610314
 31
0.0
  0
LINE
  5
15DE
  8
\M+2BBB2\M+2A755\M+2BD75
 10
-682.10292756651984
 20
-843.18382943028257
 30
0.0
 11
-682.29414861154783
 21
-843.03587459385335
 31
0.0
  0
LINE
  5
15DF
  8
\M+2BBB2\M+2A755\M+2BD75
 10
-682.06056233479421
 20
-843.10211766610314
 30
0.0
 11
-682.23068623835661
 21
-842.97048647289125
 31
0.0
  0
ARC
  5
15E0
  8
\M+2BBB2\M+2A755\M+2BD75
 10
-682.07883519332825
 20
-843.15269176090965
 30
0.0
 40
0.03937
 50
232.26954628879841
 51
268.00000000055689
  0
LINE
  5
15E1
  8
\M+2BBB2\M+2A755\M+2BD75
 10
-681.81730123835473
 20
-843.15791172562194
 30
0.0
 11
-681.75824623835467
 21
-843.15791172562137
 31
0.0
  0
LINE
  5
15E2
  8
\M+2BBB2\M+2A755\M+2BD75
 10
-681.75824623835467
 20
-843.15791172562137
 30
0.0
 11
-681.75824623837116
 21
-841.4590962256209
 31
0.0
  0
LINE
  5
15E3
  8
\M+2BBB2\M+2A755\M+2BD75
 10
-681.8173012383553
 20
-843.11061253077617
 30
0.0
 11
-681.75824623835524
 21
-843.1106125307756
 31
0.0
  0
LINE
  5
15E4
  8
\M+2B5EA\M+2BD75
  6
HIDDEN2
 62
     1
 10
-681.85667123835901
 20
-842.72385747562225
 30
0.0
 11
-681.77793123835886
 21
-842.72385747562146
 31
0.0
  0
LINE
  5
15E5
  8
\M+2B5EA\M+2BD75
  6
HIDDEN2
 62
     1
 10
-681.8566712383581
 20
-842.81243997562228
 30
0.0
 11
-681.77793123835806
 21
-842.8124399756216
 31
0.0
  0
LINE
  5
15E6
  8
\M+2BBB2\M+2A755\M+2BD75
 10
-682.23068623836025
 20
-842.58114122562597
 30
0.0
 11
-681.77793123836022
 21
-842.58114122562165
 31
0.0
  0
LINE
  5
15E7
  8
\M+2BBB2\M+2A755\M+2BD75
 10
-682.23068623835672
 20
-842.95515622562596
 30
0.0
 11
-681.77793123835681
 21
-842.95515622562129
 31
0.0
  0
LINE
  5
15E8
  8
\M+2BBB2\M+2A755\M+2BD75
 10
-681.77793123835681
 20
-842.95515622562129
 30
0.0
 11
-681.77793123836022
 21
-842.58114122562165
 31
0.0
  0
LINE
  5
15E9
  8
\M+2B5EA\M+2BD75
  6
HIDDEN2
 62
     1
 10
-681.85667123835742
 20
-842.89213535770079
 30
0.0
 11
-681.85667123835981
 21
-842.64416209354363
 31
0.0
  0
LINE
  5
15EA
  8
\M+2B5EA\M+2BD75
  6
HIDDEN2
 62
     1
 10
-682.3094262383571
 20
-842.90003822562664
 30
0.0
 11
-681.85667123835719
 21
-842.89213535770079
 31
0.0
  0
LINE
  5
15EB
  8
\M+2B5EA\M+2BD75
  6
HIDDEN2
 62
     1
 10
-682.30942623835972
 20
-842.63625922562665
 30
0.0
 11
-681.85667123835981
 21
-842.64416209354363
 31
0.0
  0
LINE
  5
15F8
  8
\M+2BBB2\M+2A755\M+2BD75
 10
-682.23068623837128
 20
-840.3961062256202
 30
0.0
 11
-681.97478123837118
 21
-840.3961062256202
 31
0.0
  0
LINE
  5
15F9
  8
\M+2BBB2\M+2A755\M+2BD75
 10
-682.23068623837128
 20
-840.65201122562019
 30
0.0
 11
-681.97478123837118
 21
-840.65201122562019
 31
0.0
  0
LINE
  5
15FA
  8
\M+2BBB2\M+2A755\M+2BD75
  6
HIDDEN2
 62
     1
 10
-682.23068623837128
 20
-840.47976747562029
 30
0.0
 11
-681.99446623837116
 21
-840.47976747562029
 31
0.0
  0
LINE
  5
15FB
  8
\M+2BBB2\M+2A755\M+2BD75
  6
HIDDEN2
 62
     1
 10
-682.23068623837128
 20
-840.56834997562044
 30
0.0
 11
-681.99446623837116
 21
-840.56834997562044
 31
0.0
  0
LINE
  5
15FC
  8
\M+2BBB2\M+2A755\M+2BD75
 10
-681.97478123837118
 20
-840.3961062256202
 30
0.0
 11
-681.97478123837118
 21
-840.46008247562031
 31
0.0
  0
LINE
  5
15FD
  8
\M+2BBB2\M+2A755\M+2BD75
 10
-681.97478123837118
 20
-840.58803497562019
 30
0.0
 11
-681.97478123837118
 21
-840.65201122562019
 31
0.0
  0
LINE
  5
15FE
  8
\M+2BBB2\M+2A755\M+2BD75
  6
HIDDEN2
 62
     1
 10
-681.97478123837118
 20
-840.46008247562031
 30
0.0
 11
-681.99446623837116
 21
-840.47976747562029
 31
0.0
  0
LINE
  5
15FF
  8
\M+2BBB2\M+2A755\M+2BD75
  6
HIDDEN2
 62
     1
 10
-681.99446623837116
 20
-840.56834997562044
 30
0.0
 11
-681.97478123837118
 21
-840.58803497562019
 31
0.0
  0
LINE
  5
1600
  8
\M+2BBB2\M+2A755\M+2BD75
  6
HIDDEN2
 62
     1
 10
-681.97478123837118
 20
-840.46008247562031
 30
0.0
 11
-681.97478123837118
 21
-840.58803497562019
 31
0.0
  0
LINE
  5
1601
  8
\M+2BBB2\M+2A755\M+2BD75
  6
HIDDEN2
 62
     1
 10
-681.99446623837116
 20
-840.47976747562029
 30
0.0
 11
-681.99446623837116
 21
-840.56834997562044
 31
0.0
  0
LINE
  5
1602
  8
\M+2BBB2\M+2A755\M+2BD75
  6
HIDDEN2
 62
     1
 10
-681.85667123837129
 20
-840.21303572562022
 30
0.0
 11
-681.77793123837125
 21
-840.21303572562022
 31
0.0
  0
LINE
  5
1603
  8
\M+2BBB2\M+2A755\M+2BD75
  6
HIDDEN2
 62
     1
 10
-681.85667123837129
 20
-840.08705172562031
 30
0.0
 11
-681.77793123837125
 21
-840.08705172562031
 31
0.0
  0
LINE
  5
1604
  8
\M+2BBB2\M+2A755\M+2BD75
 10
-682.23068623837128
 20
-840.65201122562019
 30
0.0
 11
-682.23068623837128
 21
-841.45909622562363
 31
0.0
  0
LINE
  5
1605
  8
\M+2BBB2\M+2A755\M+2BD75
  6
HIDDEN2
 62
     1
 10
-682.23068623837128
 20
-840.47976747562029
 30
0.0
 11
-682.23068623837128
 21
-840.56834997562044
 31
0.0
  0
LINE
  5
1607
  8
\M+2B5EA\M+2BD75
  6
HIDDEN2
 62
     1
 10
-682.23068623837128
 20
-842.43842497562673
 30
0.0
 11
-682.23068623837128
 21
-842.3498424756267
 31
0.0
  0
LINE
  5
1608
  8
\M+2B5EA\M+2BD75
  6
HIDDEN2
 62
     1
 10
-682.23068623837128
 20
-842.3498424756267
 30
0.0
 11
-681.99446623837116
 21
-842.3498424756267
 31
0.0
  0
LINE
  5
1609
  8
\M+2B5EA\M+2BD75
  6
HIDDEN2
 62
     1
 10
-682.23068623837128
 20
-842.43842497562673
 30
0.0
 11
-681.99446623837116
 21
-842.43842497562673
 31
0.0
  0
LINE
  5
160A
  8
\M+2B5EA\M+2BD75
  6
HIDDEN2
 62
     1
 10
-681.97478123837118
 20
-842.45810997562671
 30
0.0
 11
-681.99446623837116
 21
-842.43842497562673
 31
0.0
  0
LINE
  5
160B
  8
\M+2BBB2\M+2A755\M+2BD75
 10
-682.23068623837128
 20
-842.26618122562672
 30
0.0
 11
-681.97478123837118
 21
-842.26618122562672
 31
0.0
  0
LINE
  5
160C
  8
\M+2BBB2\M+2A755\M+2BD75
 10
-682.23068623837128
 20
-842.52208622562671
 30
0.0
 11
-681.97478123837118
 21
-842.52208622562671
 31
0.0
  0
LINE
  5
160D
  8
\M+2BBB2\M+2A755\M+2BD75
 10
-681.97478123837118
 20
-842.52208622562671
 30
0.0
 11
-681.97478123837118
 21
-842.45810997562671
 31
0.0
  0
LINE
  5
160E
  8
\M+2BBB2\M+2A755\M+2BD75
 10
-681.97478123837118
 20
-842.33015747562672
 30
0.0
 11
-681.97478123837118
 21
-842.26618122562672
 31
0.0
  0
LINE
  5
160F
  8
\M+2B5EA\M+2BD75
  6
HIDDEN2
 62
     1
 10
-681.99446623837116
 20
-842.3498424756267
 30
0.0
 11
-681.97478123837118
 21
-842.33015747562672
 31
0.0
  0
LINE
  5
1610
  8
\M+2B5EA\M+2BD75
  6
HIDDEN2
 62
     1
 10
-681.97478123837118
 20
-842.45810997562671
 30
0.0
 11
-681.97478123837118
 21
-842.33015747562672
 31
0.0
  0
LINE
  5
1611
  8
\M+2B5EA\M+2BD75
  6
HIDDEN2
 62
     1
 10
-681.99446623837116
 20
-842.43842497562673
 30
0.0
 11
-681.99446623837116
 21
-842.3498424756267
 31
0.0
  0
LINE
  5
1612
  8
\M+2B5EA\M+2BD75
  6
HIDDEN2
 62
     1
 10
-682.23068623836173
 20
-842.43842497562673
 30
0.0
 11
-682.23068623836264
 21
-842.3498424756267
 31
0.0
  0
LINE
  5
1613
  8
\M+2BBB2\M+2A755\M+2BD75
 10
-682.23068623836332
 20
-842.26618122562672
 30
0.0
 11
-682.23068623837128
 21
-841.45909622562272
 31
0.0
  0
CIRCLE
  5
16A9
  8
\M+2BBB2\M+2A755\M+2BD75
 10
-685.33148223299088
 20
-840.52405872562031
 30
0.0
 40
0.06397625
  0
CIRCLE
  5
16AB
  8
\M+2BBB2\M+2A755\M+2BD75
 10
-687.08344723299092
 20
-840.52405872562031
 30
0.0
 40
0.04429125
  0
CIRCLE
  5
16AD
  8
\M+2BBB2\M+2A755\M+2BD75
 10
-687.08344723299092
 20
-840.52405872562031
 30
0.0
 40
0.06397625
  0
CIRCLE
  5
16AF
  8
\M+2BBB2\M+2A755\M+2BD75
 10
-685.33148223299088
 20
-842.39413372562035
 30
0.0
 40
0.06397625
  0
CIRCLE
  5
16B0
  8
\M+2BBB2\M+2A755\M+2BD75
 10
-687.08344723299092
 20
-842.39413372562035
 30
0.0
 40
0.06397625
  0
DIMENSION
  5
1714
  8
DIM
  2
*D1
 10
-684.96730973299066
 20
-837.92903252101439
 30
0.0
 11
-686.20734624420868
 21
-837.92903252101439
 31
0.0
 70
   128
 13
-687.44761973299057
 23
-841.45909622562294
 33
0.0
 14
-684.96730973299066
 24
-841.45909622562363
 34
0.0
  0
DIMENSION
  5
172C
  8
DIM
  2
*D2
 10
-685.33166882892863
 20
-838.51891021368215
 30
0.0
 11
-686.30879182264937
 21
-838.51891021368215
 31
0.0
 70
   128
 13
-687.08344723299069
 23
-840.52405872562031
 33
0.0
 14
-685.33166882892863
 24
-840.52936033652668
 34
0.0
  0
DIMENSION
  5
1744
  8
DIM
  2
*D3
 10
-685.39053723299071
 20
-839.09957106740194
 30
0.0
 11
-686.25345793671443
 21
-839.09957106740194
 31
0.0
 70
   128
 13
-687.02439223299075
 23
-840.15004372562032
 33
0.0
 14
-685.39053723299071
 24
-840.15004372562032
 34
0.0
  0
LINE
  5
175D
  8
\M+2BBB2\M+2A755\M+2BD75
 62
     1
 10
-687.12281723299077
 20
-840.15004372562032
 30
0.0
 11
-686.92596723299073
 21
-840.15004372562032
 31
0.0
  0
LINE
  5
175E
  8
\M+2BBB2\M+2A755\M+2BD75
 62
     1
 10
-687.02439223299075
 20
-840.24846872562011
 30
0.0
 11
-687.02439223299075
 21
-840.0516187256203
 31
0.0
  0
LINE
  5
175F
  8
\M+2BBB2\M+2A755\M+2BD75
 62
     1
 10
-687.18187223299071
 20
-840.52405872562031
 30
0.0
 11
-686.98502223299056
 21
-840.52405872562031
 31
0.0
  0
LINE
  5
1760
  8
\M+2BBB2\M+2A755\M+2BD75
 62
     1
 10
-687.08344723299092
 20
-840.62248372562021
 30
0.0
 11
-687.08344723299092
 21
-840.42563372562029
 31
0.0
  0
LINE
  5
1761
  8
\M+2BBB2\M+2A755\M+2BD75
 62
     1
 10
-685.4299072329909
 20
-840.52405872562031
 30
0.0
 11
-685.23305723299086
 21
-840.52405872562031
 31
0.0
  0
LINE
  5
1762
  8
\M+2BBB2\M+2A755\M+2BD75
 62
     1
 10
-685.33148223299088
 20
-840.62248372562021
 30
0.0
 11
-685.33148223299088
 21
-840.42563372562029
 31
0.0
  0
LINE
  5
1763
  8
\M+2BBB2\M+2A755\M+2BD75
 62
     1
 10
-685.48896223299073
 20
-840.15004372562032
 30
0.0
 11
-685.29211223299092
 21
-840.15004372562032
 31
0.0
  0
LINE
  5
1764
  8
\M+2BBB2\M+2A755\M+2BD75
 62
     1
 10
-685.39053723299071
 20
-840.24846872562011
 30
0.0
 11
-685.39053723299071
 21
-840.0516187256203
 31
0.0
  0
LINE
  5
1765
  8
\M+2BBB2\M+2A755\M+2BD75
 62
     1
 10
-685.4299072329909
 20
-842.39413372562035
 30
0.0
 11
-685.23305723299086
 21
-842.39413372562035
 31
0.0
  0
LINE
  5
1766
  8
\M+2BBB2\M+2A755\M+2BD75
 62
     1
 10
-685.33148223299088
 20
-842.49255872562037
 30
0.0
 11
-685.33148223299088
 21
-842.29570872562044
 31
0.0
  0
LINE
  5
1767
  8
\M+2BBB2\M+2A755\M+2BD75
 62
     1
 10
-685.48896223299084
 20
-842.76814872562045
 30
0.0
 11
-685.29211223299092
 21
-842.76814872562045
 31
0.0
  0
LINE
  5
1768
  8
\M+2BBB2\M+2A755\M+2BD75
 62
     1
 10
-685.39053723299082
 20
-842.86657372562036
 30
0.0
 11
-685.39053723299082
 21
-842.66972372562043
 31
0.0
  0
LINE
  5
1769
  8
\M+2BBB2\M+2A755\M+2BD75
 62
     1
 10
-687.12281723299077
 20
-842.76814872562034
 30
0.0
 11
-686.92596723299084
 21
-842.76814872562034
 31
0.0
  0
LINE
  5
176A
  8
\M+2BBB2\M+2A755\M+2BD75
 62
     1
 10
-687.02439223299075
 20
-842.86657372562036
 30
0.0
 11
-687.02439223299075
 21
-842.66972372562032
 31
0.0
  0
LINE
  5
176B
  8
\M+2BBB2\M+2A755\M+2BD75
 62
     1
 10
-687.18187223299083
 20
-842.39413372562035
 30
0.0
 11
-686.98502223299056
 21
-842.39413372562035
 31
0.0
  0
LINE
  5
176C
  8
\M+2BBB2\M+2A755\M+2BD75
 62
     1
 10
-687.08344723299092
 20
-842.49255872562037
 30
0.0
 11
-687.08344723299092
 21
-842.29570872562044
 31
0.0
  0
DIMENSION
  5
176D
  8
DIM
  2
*D4
 10
-689.89370295446395
 20
-843.20121872562117
 30
0.0
 11
-689.89370295446383
 21
-841.98993801976087
 31
0.0
 70
   128
 13
-686.20746473299073
 23
-839.71697372562039
 33
0.0
 14
-686.20746473299107
 24
-843.20121872562117
 34
0.0
 50
90.0
  0
DIMENSION
  5
1785
  8
DIM
  2
*D5
 10
-689.13058102845559
 20
-842.76814872562034
 30
0.0
 11
-689.13058102845548
 21
-841.07746039200811
 31
0.0
 70
   128
 13
-687.02439223299075
 23
-840.15004372562032
 33
0.0
 14
-687.02439223299075
 24
-842.76814872562034
 34
0.0
 50
90.0
  0
DIMENSION
  5
179D
  8
DIM
  2
*D6
 10
-688.28569611591797
 20
-842.39413372562035
 30
0.0
 11
-688.28569611591774
 21
-841.82650918298691
 31
0.0
 70
   128
 13
-687.08344723299069
 23
-840.52405872562031
 33
0.0
 14
-687.08344723299069
 24
-842.39413372562035
 34
0.0
 50
90.0
  0
DIMENSION
  5
17CD
  8
DIM
  2
*D7
 10
-681.75824623837116
 20
-837.76802651879257
 30
0.0
 11
-683.32540371659695
 21
-837.76802651879257
 31
0.0
 70
   128
 13
-682.30942623837132
 23
-839.9134555267666
 33
0.0
 14
-681.75824623837116
 24
-839.76028072562019
 34
0.0
  0
POLYLINE
  5
17E5
  8
\M+2BBB2\M+2A755\M+2BD75
 66
     1
 10
0.0
 20
0.0
 30
0.0
  0
VERTEX
  5
6E95
  8
\M+2BBB2\M+2A755\M+2BD75
 10
-685.23747656418777
 20
-842.66070461586105
 30
0.0
 42
0.0020901088735525
  0
VERTEX
  5
6E96
  8
\M+2BBB2\M+2A755\M+2BD75
 10
-685.22822898563118
 20
-842.46970229822716
 30
0.0
 42
0.0020901088735525
  0
SEQEND
  5
6E97
  8
\M+2BBB2\M+2A755\M+2BD75
  0
POLYLINE
  5
17E6
  8
\M+2BBB2\M+2A755\M+2BD75
 66
     1
 10
0.0
 20
0.0
 30
0.0
  0
VERTEX
  5
6E98
  8
\M+2BBB2\M+2A755\M+2BD75
 10
-686.919690487411
 20
-842.92309823200458
 30
0.0
 42
0.0555137094820647
  0
VERTEX
  5
6E99
  8
\M+2BBB2\M+2A755\M+2BD75
 10
-685.49523897857057
 20
-842.92309823200469
 30
0.0
  0
SEQEND
  5
6E9A
  8
\M+2BBB2\M+2A755\M+2BD75
  0
POLYLINE
  5
17E7
  8
\M+2BBB2\M+2A755\M+2BD75
 66
     1
 10
0.0
 20
0.0
 30
0.0
  0
VERTEX
  5
6E9B
  8
\M+2BBB2\M+2A755\M+2BD75
 10
-687.1774529017938
 20
-840.25748783537983
 30
0.0
 42
0.0020901088735348
  0
VERTEX
  5
6E9C
  8
\M+2BBB2\M+2A755\M+2BD75
 10
-687.18670048035028
 20
-840.4484901530119
 30
0.0
 42
0.0020901088735348
  0
SEQEND
  5
6E9D
  8
\M+2BBB2\M+2A755\M+2BD75
  0
POLYLINE
  5
17E8
  8
\M+2BBB2\M+2A755\M+2BD75
 66
     1
 10
0.0
 20
0.0
 30
0.0
  0
VERTEX
  5
6E9E
  8
\M+2BBB2\M+2A755\M+2BD75
 10
-685.49523897857182
 20
-839.99509421923665
 30
0.0
 42
0.0555137094819696
  0
VERTEX
  5
6E9F
  8
\M+2BBB2\M+2A755\M+2BD75
 10
-686.91969048740975
 20
-839.99509421923665
 30
0.0
  0
SEQEND
  5
6EA0
  8
\M+2BBB2\M+2A755\M+2BD75
  0
POLYLINE
  5
17E9
  8
\M+2BBB2\M+2A755\M+2BD75
 66
     1
 10
0.0
 20
0.0
 30
0.0
  0
VERTEX
  5
6EA1
  8
\M+2BBB2\M+2A755\M+2BD75
 10
-685.22237523181047
 20
-842.32729433192492
 30
0.0
 42
0.0094919659450098
  0
VERTEX
  5
6EA2
  8
\M+2BBB2\M+2A755\M+2BD75
 10
-685.20589193299065
 20
-841.45909622562044
 30
0.0
 42
0.009491965945018
  0
VERTEX
  5
6EA3
  8
\M+2BBB2\M+2A755\M+2BD75
 10
-685.22237523181047
 20
-840.59089811931585
 30
0.0
 42
0.009491965945018
  0
SEQEND
  5
6EA4
  8
\M+2BBB2\M+2A755\M+2BD75
  0
POLYLINE
  5
17EA
  8
\M+2BBB2\M+2A755\M+2BD75
 66
     1
 10
0.0
 20
0.0
 30
0.0
  0
VERTEX
  5
6EA5
  8
\M+2BBB2\M+2A755\M+2BD75
 10
-685.22822898563118
 20
-840.44849015301349
 30
0.0
 42
0.0020901088735557
  0
VERTEX
  5
6EA6
  8
\M+2BBB2\M+2A755\M+2BD75
 10
-685.23747656418777
 20
-840.25748783537983
 30
0.0
  0
SEQEND
  5
6EA7
  8
\M+2BBB2\M+2A755\M+2BD75
  0
POLYLINE
  5
17EB
  8
\M+2BBB2\M+2A755\M+2BD75
 66
     1
 10
0.0
 20
0.0
 30
0.0
  0
VERTEX
  5
6EA8
  8
\M+2BBB2\M+2A755\M+2BD75
 10
-687.1925542341711
 20
-840.59089811931733
 30
0.0
 42
0.0094919659450019
  0
VERTEX
  5
6EA9
  8
\M+2BBB2\M+2A755\M+2BD75
 10
-687.20903753299058
 20
-841.45909622562124
 30
0.0
 42
0.0094919659449977
  0
VERTEX
  5
6EAA
  8
\M+2BBB2\M+2A755\M+2BD75
 10
-687.19255423417121
 20
-842.32729433192424
 30
0.0
 42
0.0094919659449977
  0
SEQEND
  5
6EAB
  8
\M+2BBB2\M+2A755\M+2BD75
  0
POLYLINE
  5
17EC
  8
\M+2BBB2\M+2A755\M+2BD75
 66
     1
 10
0.0
 20
0.0
 30
0.0
  0
VERTEX
  5
6EAC
  8
\M+2BBB2\M+2A755\M+2BD75
 10
-687.18670048035051
 20
-842.46970229822784
 30
0.0
 42
0.0020901088735466
  0
VERTEX
  5
6EAD
  8
\M+2BBB2\M+2A755\M+2BD75
 10
-687.17745290179403
 20
-842.66070461586105
 30
0.0
  0
SEQEND
  5
6EAE
  8
\M+2BBB2\M+2A755\M+2BD75
  0
DIMENSION
  5
17ED
  8
DIM
  2
*D8
 10
-679.7981674916698
 20
-840.37248422562334
 30
0.0
 11
-680.65447701547907
 21
-841.431556198213
 31
0.0
 70
   128
 13
-678.02696323576015
 23
-840.33311422562326
 33
0.0
 14
-678.02696323576015
 24
-840.37248422562334
 34
0.0
 50
90.0
  0
DIMENSION
  5
1861
  8
DIM
  2
*D9
 10
-681.97478123837118
 20
-842.11312886381165
 30
0.0
 11
-683.07403907984371
 21
-842.11312886381165
 31
0.0
 70
   128
  1
{\fTahoma|b0|i0|c0|p32;.236 [}6.0{\fTahoma|b0|i0|c0|p32;]}
 13
-682.23068623837128
 23
-842.26618122562672
 33
0.0
 14
-681.97478123837118
 24
-842.26618122562672
 34
0.0
  0
LINE
  5
1882
  8
\M+2BBB2\M+2A755\M+2BD75
 10
-682.28974123837122
 20
-840.33311422562315
 30
0.0
 11
-682.30942623837132
 21
-840.33311422562315
 31
0.0
  0
LINE
  5
1883
  8
\M+2BBB2\M+2A755\M+2BD75
 10
-682.28974123837122
 20
-840.37248422562334
 30
0.0
 11
-682.30942623837132
 21
-840.37248422562334
 31
0.0
  0
LINE
  5
1885
  8
\M+2BBB2\M+2A755\M+2BD75
 10
-682.28974123837122
 20
-840.33311422562315
 30
0.0
 11
-682.28974123837122
 21
-840.37248422562334
 31
0.0
  0
LINE
  5
1886
  8
\M+2BBB2\M+2A755\M+2BD75
 10
-682.28974123834917
 20
-842.58507822562331
 30
0.0
 11
-682.28974123835008
 21
-842.54570822562346
 31
0.0
  0
LINE
  5
1887
  8
\M+2BBB2\M+2A755\M+2BD75
 10
-682.28974123834917
 20
-842.58507822562331
 30
0.0
 11
-682.30942623834915
 21
-842.58507822562365
 31
0.0
  0
LINE
  5
1888
  8
\M+2BBB2\M+2A755\M+2BD75
 10
-682.28974123835008
 20
-842.54570822562346
 30
0.0
 11
-682.30942623835006
 21
-842.5457082256238
 31
0.0
  0
DIMENSION
  5
194B
  8
DIM
  2
*D10
 10
-682.28974123834917
 20
-843.77403609669727
 30
0.0
 11
-683.35764052407035
 21
-843.77403609669727
 31
0.0
 70
   128
 13
-682.3094262383562
 23
-843.00473692448031
 33
0.0
 14
-682.28974123834917
 24
-842.58507822562331
 34
0.0
  0
DIMENSION
  5
1972
  8
DIM
  2
*D11
 10
-684.96730973299066
 20
-841.44951650078826
 30
0.0
 11
-683.93100020918121
 21
-841.44951650078826
 31
0.0
 70
   128
 13
-685.05786073299066
 23
-841.4590962256209
 33
0.0
 14
-684.96730973299066
 24
-841.45909622562363
 34
0.0
  0
DIMENSION
  5
198E
  8
DIM
  2
*D12
 10
-682.30942623837132
 20
-840.94259035865184
 30
0.0
 11
-683.35764052408547
 21
-840.94259035865184
 31
0.0
 70
   128
 13
-682.23068623837128
 23
-841.05555372562196
 33
0.0
 14
-682.30942623837132
 24
-841.05555372562196
 34
0.0
  0
DIMENSION
  5
1AEB
  8
DIM
  2
*D13
 10
-681.81730123837133
 20
-838.4081227791437
 30
0.0
 11
-683.40525957170462
 21
-838.4081227791437
 31
0.0
 70
   128
 13
-682.30942623837132
 23
-839.9134555267666
 33
0.0
 14
-681.81730123837133
 24
-839.71697372562039
 34
0.0
  0
DIMENSION
  5
1B05
  8
DIM
  2
*D14
 10
-681.77793123837125
 20
-838.93926650886715
 30
0.0
 11
-683.13462325505031
 21
-838.93926650886715
 31
0.0
 70
   128
 13
-681.81730123837133
 23
-839.71697372562039
 33
0.0
 14
-681.77793123837125
 24
-839.96303622562016
 34
0.0
  0
LINE
  5
28B6
  8
\M+2BBB2\M+2A755\M+2BD75
 10
-682.23068623837128
 20
-840.3961062256202
 30
0.0
 11
-682.23068623837128
 21
-840.65201122562019
 31
0.0
  0
LINE
  5
28B7
  8
\M+2BBB2\M+2A755\M+2BD75
 10
-682.23068623836332
 20
-842.26618122562672
 30
0.0
 11
-682.23068623837128
 21
-842.52208622562671
 31
0.0
  0
LINE
  5
29A2
  8
\M+2BBB2\M+2A755\M+2BD75
 10
-682.23068623837128
 20
-840.33705122562037
 30
0.0
 11
-682.23068623837128
 21
-839.96303622562016
 31
0.0
  0
LINE
  5
29A3
  8
\M+2BBB2\M+2A755\M+2BD75
 10
-682.23068623836025
 20
-842.58114122562597
 30
0.0
 11
-682.23068623835672
 21
-842.95515622562596
 31
0.0
  0
INSERT
  5
29BD
  8
\M+2ADE5\M+2ADB1\M+2BD75
  6
CONTINUOUS
  2
*X42
 10
0.0
 20
0.0
 30
0.0
1001
ACAD
1000
HATCH
1002
{
1070
    19
1000
ANSI31
1040
0.007874
1040
0.0
1000
R14_HATCH_DATA
1000
29BD
1011
1.0
1021
0.0
1031
0.0
1021
0.0
1031
0.0
1011
0.0
1021
0.0
1031
0.0
1021
1.0
1031
0.0
1011
0.0
1021
0.0
1031
0.0
1021
0.0
1031
1.0
1040
0.0
1010
0.0
1020
0.0
1030
1.0
1000
ANSI31
1070
     0
1070
     0
1071
        1
1071
        7
1070
     1
1070
     1
1071
       14
1040
-682.30942623837132
1040
-839.9134555267666
1040
0.0
1040
-682.30942623837132
1040
-840.01815422562038
1040
0.0
1040
-682.23068623837128
1040
-840.01952863743259
1040
0.0
1040
-682.23068623837128
1040
-839.96303622562016
1040
0.0
1040
-682.23068623837128
1040
-839.94770597835486
1040
0.0
1040
-682.06056233481024
1040
-839.81607478514115
1040
0.0
1040
-681.81730123837087
1040
-839.80757992046608
1040
0.0
1040
-681.75824623837116
1040
-839.80757992046608
1040
0.0
1040
-681.75824623837116
1040
-839.76028072562019
1040
0.0
1040
-681.81730123837133
1040
-839.76028072562019
1040
0.0
1040
-681.81730123837133
1040
-839.71697372562039
1040
0.0
1040
-682.08020918652983
1040
-839.72615467347555
1040
0.1571790431036441
1040
-682.10292756653666
1040
-839.73436302096218
1040
0.0
1040
-682.29414861156295
1040
-839.88231785739356
1040
0.2321073329216414
1071
        0
1070
     0
1070
     1
1040
0.0
1040
0.007874
1070
     0
1070
     1
1040
0.7853981633974483
1040
-735.53140959267148
1040
-840.60844506721435
1040
-0.0176776341743246
1040
0.0176776341743246
1070
     0
1040
0.1534776972199465
1071
        1
1040
-682.2169187854405
1040
-839.89689317856755
1040
0.0
1002
}
  0
INSERT
  5
29D1
  8
\M+2ADE5\M+2ADB1\M+2BD75
  6
CONTINUOUS
  2
*X43
 10
0.0
 20
0.0
 30
0.0
1001
ACAD
1000
HATCH
1002
{
1070
    19
1000
ANSI31
1040
0.007874
1040
0.0
1000
R14_HATCH_DATA
1000
29D1
1011
1.0
1021
0.0
1031
0.0
1021
0.0
1031
0.0
1011
0.0
1021
0.0
1031
0.0
1021
1.0
1031
0.0
1011
0.0
1021
0.0
1031
0.0
1021
0.0
1031
1.0
1040
0.0
1010
0.0
1020
0.0
1030
1.0
1000
ANSI31
1070
     0
1070
     0
1071
        1
1071
        7
1070
     1
1070
     1
1071
       14
1040
-682.23068623835672
1040
-842.95515622562596
1040
0.0
1040
-682.23068623835718
1040
-842.89866381381364
1040
0.0
1040
-682.3094262383571
1040
-842.90003822562664
1040
0.0
1040
-682.3094262383562
1040
-843.00473692448031
1040
0.232107332921621
1040
-682.29414861154783
1040
-843.03587459385335
1040
0.0
1040
-682.10292756651984
1040
-843.1838294302828
1040
0.1571790431036065
1040
-682.08020918651312
1040
-843.19203777776931
1040
0.0
1040
-681.81730123835416
1040
-843.20121872562186
1040
0.0
1040
-681.81730123835473
1040
-843.15791172562194
1040
0.0
1040
-681.75824623835467
1040
-843.15791172562137
1040
0.0
1040
-681.75824623835524
1040
-843.1106125307756
1040
0.0
1040
-681.8173012383553
1040
-843.11061253077617
1040
0.0
1040
-682.06056233479421
1040
-843.10211766610348
1040
0.0
1040
-682.23068623835661
1040
-842.97048647289125
1040
0.0
1071
        0
1070
     0
1070
     1
1040
0.0
1040
0.007874
1070
     0
1070
     1
1040
0.7853981633974483
1040
-735.53140959267148
1040
-840.60844506721435
1040
-0.0176776341743246
1040
0.0176776341743246
1070
     0
1040
0.0753170040743264
1071
        1
1040
-682.24067550218081
1040
-843.0263503870699
1040
0.0
1002
}
  0
INSERT
  5
29F7
  8
\M+2ADE5\M+2ADB1\M+2BD75
  6
CONTINUOUS
  2
*X44
 10
0.0
 20
0.0
 30
0.0
1001
ACAD
1000
HATCH
1002
{
1070
    19
1000
ANSI31
1040
0.007874
1040
0.0
1000
R14_HATCH_DATA
1000
29F7
1011
1.0
1021
0.0
1031
0.0
1021
0.0
1031
0.0
1011
0.0
1021
0.0
1031
0.0
1021
1.0
1031
0.0
1011
0.0
1021
0.0
1031
0.0
1021
0.0
1031
1.0
1040
0.0
1010
0.0
1020
0.0
1030
1.0
1000
ANSI31
1070
     0
1070
     0
1071
        1
1071
        7
1070
     0
1070
     1
1071
       17
1040
-682.23068623837128
1040
-840.3961062256202
1040
-682.23068623837128
1040
-840.33705122562037
1040
-682.28974123837122
1040
-840.33705122562037
1040
-682.28974123837122
1040
-840.37248422562334
1040
-682.30942623837132
1040
-840.37248422562334
1040
-682.30942623837132
1040
-841.45909622562363
1040
-682.30942623836074
1040
-842.5457082256238
1040
-682.28974123835008
1040
-842.54570822562346
1040
-682.28974123834917
1040
-842.58507822562331
1040
-682.30942623836017
1040
-842.58507822562365
1040
-682.30942623835972
1040
-842.63625922562665
1040
-682.23068623835979
1040
-842.63763363743806
1040
-682.23068623836025
1040
-842.58114122562597
1040
-682.23068623836093
1040
-842.52208622562671
1040
-682.23068623836332
1040
-842.26618122562672
1040
-682.23068623837128
1040
-841.45909622562272
1040
-682.23068623837128
1040
-840.65201122562019
1071
        0
1070
     0
1070
     1
1040
0.0
1040
0.007874
1070
     0
1070
     1
1040
0.7853981633974483
1040
-735.53140959267148
1040
-840.60844506721435
1040
-0.0176776341743246
1040
0.0176776341743246
1070
     0
1040
0.1349821331898282
1071
        1
1040
-682.24483337165782
1040
-840.64775625814059
1040
0.0
1002
}
  0
INSERT
  5
29FD
  8
\M+2ADE5\M+2ADB1\M+2BD75
  6
CONTINUOUS
  2
*X45
 10
0.0
 20
0.0
 30
0.0
1001
ACAD
1000
HATCH
1002
{
1070
    19
1000
ANSI31
1040
0.007874
1040
0.0
1000
R14_HATCH_DATA
1000
29FD
1011
1.0
1021
0.0
1031
0.0
1021
0.0
1031
0.0
1011
0.0
1021
0.0
1031
0.0
1021
1.0
1031
0.0
1011
0.0
1021
0.0
1031
0.0
1021
0.0
1031
1.0
1040
0.0
1010
0.0
1020
0.0
1030
1.0
1000
ANSI31
1070
     0
1070
     0
1071
        1
1071
        7
1070
     0
1070
     1
1071
        4
1040
-682.30942623835972
1040
-842.63625922562665
1040
-682.3094262383571
1040
-842.90003822562664
1040
-682.23068623835718
1040
-842.89866381381364
1040
-682.23068623835979
1040
-842.63763363743806
1071
        0
1070
     0
1070
     1
1040
0.0
1040
0.007874
1070
     0
1070
     1
1040
0.7853981633974483
1040
-735.53140959267148
1040
-840.60844506721435
1040
-0.0176776341743246
1040
0.0176776341743246
1070
     0
1040
0.0831631978292758
1071
        1
1040
-682.25856988542705
1040
-842.7498208571476
1040
0.0
1002
}
  0
INSERT
  5
2A0D
  8
\M+2ADE5\M+2ADB1\M+2BD75
  6
CONTINUOUS
  2
*X46
 10
0.0
 20
0.0
 30
0.0
1001
ACAD
1000
HATCH
1002
{
1070
    19
1000
ANSI31
1040
0.007874
1040
0.0
1000
R14_HATCH_DATA
1000
2A0D
1011
1.0
1021
0.0
1031
0.0
1021
0.0
1031
0.0
1011
0.0
1021
0.0
1031
0.0
1021
1.0
1031
0.0
1011
0.0
1021
0.0
1031
0.0
1021
0.0
1031
1.0
1040
0.0
1010
0.0
1020
0.0
1030
1.0
1000
ANSI31
1070
     0
1070
     0
1071
        2
1071
        7
1070
     0
1070
     1
1071
        4
1040
-682.30942623837132
1040
-840.01815422562038
1040
-682.30942623837132
1040
-840.28193322562015
1040
-682.23068623837128
1040
-840.28055881380772
1040
-682.23068623837128
1040
-840.01952863743259
1071
        0
1071
        7
1070
     0
1070
     1
1071
        6
1040
-682.30942623837132
1040
-840.28193322562015
1040
-682.30942623837132
1040
-840.33311422562315
1040
-682.28974123837122
1040
-840.33311422562315
1040
-682.28974123837122
1040
-840.33705122562037
1040
-682.23068623837128
1040
-840.33705122562037
1040
-682.23068623837128
1040
-840.28055881380772
1071
        0
1070
     0
1070
     1
1040
0.0
1040
0.007874
1070
     0
1070
     1
1040
0.7853981633974483
1040
-735.53140959267148
1040
-840.60844506721435
1040
-0.0176776341743246
1040
0.0176776341743246
1070
     0
1040
0.0217921136104469
1071
        2
1040
-682.28244414750873
1040
-840.14353511364493
1040
0.0
1040
-682.26527788920669
1040
-840.30740460670415
1040
0.0
1002
}
  0
LINE
  5
4360
  8
\M+2BBB2\M+2A755\M+2BD75
 10
-671.34811667915517
 20
-835.20037941809051
 30
0.0
 11
-671.34811667915517
 21
-836.94250191809385
 31
0.0
  0
INSERT
  5
4361
  8
\M+2BBB2\M+2A755\M+2BD75
  6
CONTINUOUS
  2
*X47
 10
0.0
 20
0.0
 30
0.0
1001
ACAD
1000
HATCH
1002
{
1070
    19
1000
ANSI31
1040
0.007874
1040
0.0
1000
R14_HATCH_DATA
1000
4361
1011
1.0
1021
0.0
1031
0.0
1021
0.0
1031
0.0
1011
0.0
1021
0.0
1031
0.0
1021
1.0
1031
0.0
1011
0.0
1021
0.0
1031
0.0
1021
0.0
1031
1.0
1040
0.0
1010
0.0
1020
0.0
1030
1.0
1000
ANSI31
1070
     0
1070
     0
1071
        1
1071
        7
1070
     1
1070
     1
1071
       26
1040
-671.38748667915524
1040
-835.23974941809035
1040
0.0
1040
-671.34811667915517
1040
-835.23974941809035
1040
0.0
1040
-671.34811667915517
1040
-835.20037941809051
1040
0.0
1040
-671.80038309857264
1040
-835.21617290947188
1040
0.2679042261771816
1040
-671.83376764982836
1040
-835.23702999752697
1040
0.0
1040
-671.91898167915531
1040
-835.39722941506216
1040
0.0
1040
-671.91898167915531
1040
-835.45628441809356
1040
0.0
1040
-671.85992667915525
1040
-835.55224879309367
1040
0.0
1040
-671.85992667915525
1040
-836.94250191809397
1040
0.0
1040
-671.85992667915525
1040
-838.33275504309415
1040
0.0
1040
-671.91898167915531
1040
-838.42871941809449
1040
0.0
1040
-671.91898167915531
1040
-838.48777442112566
1040
0.0
1040
-671.83376764982836
1040
-838.64797383866096
1040
0.2679042261771767
1040
-671.80038309857264
1040
-838.66883092671605
1040
0.0
1040
-671.34811667915517
1040
-838.68462441809743
1040
0.0
1040
-671.34811667915517
1040
-838.64525441809656
1040
0.0
1040
-671.38748667915115
1040
-838.64525441809656
1040
0.0
1040
-671.38748667915115
1040
-838.59264339255435
1040
0.0
1040
-671.78132845406117
1040
-838.57889013471811
1040
0.0
1040
-671.84512879063959
1040
-838.4589477163272
1040
0.0
1040
-671.78118667915169
1040
-838.35504178515919
1040
0.0
1040
-671.78118667915533
1040
-836.94250191809385
1040
0.0
1040
-671.78118667915533
1040
-835.52996205102875
1040
0.0
1040
-671.84512879064505
1040
-835.42605611985721
1040
0.0
1040
-671.78132845406913
1040
-835.30611370146926
1040
0.0
1040
-671.38748667915524
1040
-835.29236044363131
1040
0.0
1071
        0
1070
     0
1070
     1
1040
0.0
1040
0.007874
1070
     0
1070
     1
1040
0.7853981633974483
1040
-683.46451238477698
1040
-846.72845409053184
1040
-0.0176776341743246
1040
0.0176776341743246
1070
     0
1040
0.1361374281129417
1071
        1
1040
-671.70337476075122
1040
-835.29066052500764
1040
0.0
1002
}
  0
LINE
  5
4362
  8
\M+2BBB2\M+2A755\M+2BD75
 10
-671.38748667915524
 20
-835.23974941809035
 30
0.0
 11
-671.38748667915524
 21
-835.5054969180926
 31
0.0
  0
LINE
  5
4363
  8
\M+2BBB2\M+2A755\M+2BD75
 10
-671.38748667915524
 20
-835.76140191809247
 30
0.0
 11
-671.38748667915524
 21
-836.94250191809385
 31
0.0
  0
LINE
  5
4364
  8
\M+2BBB2\M+2A755\M+2BD75
 10
-671.37173867915533
 20
-835.5054969180926
 30
0.0
 11
-671.37173867915533
 21
-835.56455191809255
 31
0.0
  0
LINE
  5
4365
  8
\M+2BBB2\M+2A755\M+2BD75
 10
-671.78118667915533
 20
-835.52996205102875
 30
0.0
 11
-671.78118667915533
 21
-836.94250191809397
 31
0.0
  0
LINE
  5
4366
  8
\M+2BBB2\M+2A755\M+2BD75
 10
-671.38748667915524
 20
-835.29236044363108
 30
0.0
 11
-671.78132845406913
 21
-835.30611370146926
 31
0.0
  0
LINE
  5
4367
  8
\M+2BBB2\M+2A755\M+2BD75
 10
-671.78118667915533
 20
-835.52996205102875
 30
0.0
 11
-671.84512879064505
 21
-835.42605611985721
 31
0.0
  0
LINE
  5
4368
  8
\M+2BBB2\M+2A755\M+2BD75
  6
HIDDEN2
 62
     1
 10
-671.39142367915531
 20
-835.68266191809255
 30
0.0
 11
-671.78118667915533
 21
-835.68266191809255
 31
0.0
  0
LINE
  5
4369
  8
\M+2BBB2\M+2A755\M+2BD75
  6
HIDDEN2
 62
     1
 10
-671.39142367915531
 20
-835.58423691809264
 30
0.0
 11
-671.78118667915533
 21
-835.58423691809264
 31
0.0
  0
LINE
  5
436A
  8
\M+2BBB2\M+2A755\M+2BD75
  6
HIDDEN2
 62
     1
 10
-671.37173867915533
 20
-835.56455191809255
 30
0.0
 11
-671.39142367915531
 21
-835.58423691809264
 31
0.0
  0
LINE
  5
436B
  8
\M+2BBB2\M+2A755\M+2BD75
 10
-671.37173867915533
 20
-835.5054969180926
 30
0.0
 11
-671.79624214557748
 21
-835.5054969180926
 31
0.0
  0
LINE
  5
436C
  8
\M+2BBB2\M+2A755\M+2BD75
 10
-671.37173867915533
 20
-835.76140191809247
 30
0.0
 11
-671.78118667915533
 21
-835.76140191809247
 31
0.0
  0
LINE
  5
436D
  8
\M+2BBB2\M+2A755\M+2BD75
 10
-671.34811667915517
 20
-835.23974941809035
 30
0.0
 11
-671.38748667915524
 21
-835.23974941809035
 31
0.0
  0
LINE
  5
436E
  8
\M+2BBB2\M+2A755\M+2BD75
 10
-671.37173867915533
 20
-835.70234691809264
 30
0.0
 11
-671.37173867915533
 21
-835.76140191809247
 31
0.0
  0
LINE
  5
436F
  8
\M+2BBB2\M+2A755\M+2BD75
  6
HIDDEN2
 62
     1
 10
-671.39142367915531
 20
-835.68266191809255
 30
0.0
 11
-671.37173867915533
 21
-835.70234691809264
 31
0.0
  0
LINE
  5
4370
  8
\M+2BBB2\M+2A755\M+2BD75
  6
HIDDEN2
 62
     1
 10
-671.37173867915533
 20
-835.56455191809255
 30
0.0
 11
-671.37173867915533
 21
-835.70234691809264
 31
0.0
  0
LINE
  5
4371
  8
\M+2BBB2\M+2A755\M+2BD75
  6
HIDDEN2
 62
     1
 10
-671.78118667915533
 20
-835.96317316809245
 30
0.0
 11
-671.78118667915533
 21
-836.0517556680926
 31
0.0
  0
LINE
  5
4372
  8
\M+2BBB2\M+2A755\M+2BD75
  6
HIDDEN2
 62
     1
 10
-671.78118667915533
 20
-836.0517556680926
 30
0.0
 11
-671.54496667915532
 21
-836.0517556680926
 31
0.0
  0
LINE
  5
4373
  8
\M+2BBB2\M+2A755\M+2BD75
  6
HIDDEN2
 62
     1
 10
-671.78118667915533
 20
-835.96317316809245
 30
0.0
 11
-671.54496667915532
 21
-835.96317316809245
 31
0.0
  0
LINE
  5
4374
  8
\M+2BBB2\M+2A755\M+2BD75
  6
HIDDEN2
 62
     1
 10
-671.52528167915523
 20
-835.94348816809236
 30
0.0
 11
-671.54496667915532
 21
-835.96317316809245
 31
0.0
  0
LINE
  5
4375
  8
\M+2BBB2\M+2A755\M+2BD75
 10
-671.78118667915533
 20
-836.13541691809235
 30
0.0
 11
-671.52528167915523
 21
-836.13541691809235
 31
0.0
  0
LINE
  5
4376
  8
\M+2BBB2\M+2A755\M+2BD75
 10
-671.78118667915533
 20
-835.87951191809248
 30
0.0
 11
-671.52528167915523
 21
-835.87951191809248
 31
0.0
  0
LINE
  5
4377
  8
\M+2BBB2\M+2A755\M+2BD75
 10
-671.52528167915523
 20
-835.87951191809248
 30
0.0
 11
-671.52528167915523
 21
-835.94348816809236
 31
0.0
  0
LINE
  5
4378
  8
\M+2BBB2\M+2A755\M+2BD75
 10
-671.52528167915523
 20
-836.07144066809246
 30
0.0
 11
-671.52528167915523
 21
-836.13541691809235
 31
0.0
  0
LINE
  5
4379
  8
\M+2BBB2\M+2A755\M+2BD75
  6
HIDDEN2
 62
     1
 10
-671.54496667915532
 20
-836.0517556680926
 30
0.0
 11
-671.52528167915523
 21
-836.07144066809246
 31
0.0
  0
LINE
  5
437A
  8
\M+2BBB2\M+2A755\M+2BD75
  6
HIDDEN2
 62
     1
 10
-671.52528167915523
 20
-835.94348816809236
 30
0.0
 11
-671.52528167915523
 21
-836.07144066809246
 31
0.0
  0
LINE
  5
437B
  8
\M+2BBB2\M+2A755\M+2BD75
  6
HIDDEN2
 62
     1
 10
-671.54496667915532
 20
-835.96317316809245
 30
0.0
 11
-671.54496667915532
 21
-836.0517556680926
 31
0.0
  0
LINE
  5
437C
  8
\M+2B5EA\M+2BD75
 10
-671.39142367915531
 20
-835.58423691809264
 30
0.0
 11
-671.39142367915531
 21
-835.68266191809255
 31
0.0
  0
LINE
  5
437D
  8
\M+2B5EA\M+2BD75
 10
-671.78118667915533
 20
-835.58423691809264
 30
0.0
 11
-671.78118667915533
 21
-835.68266191809255
 31
0.0
  0
LINE
  5
437E
  8
\M+2BBB2\M+2A755\M+2BD75
 10
-671.34811667915108
 20
-838.68462441809629
 30
0.0
 11
-671.34811667915517
 21
-836.94250191809294
 31
0.0
  0
LINE
  5
437F
  8
\M+2BBB2\M+2A755\M+2BD75
 10
-671.38748667915115
 20
-838.64525441809656
 30
0.0
 11
-671.38748667915195
 21
-838.37950691809419
 31
0.0
  0
LINE
  5
4380
  8
\M+2BBB2\M+2A755\M+2BD75
 10
-671.38748667915252
 20
-838.12360191809421
 30
0.0
 11
-671.38748667915524
 21
-836.94250191809294
 31
0.0
  0
LINE
  5
4381
  8
\M+2BBB2\M+2A755\M+2BD75
 10
-671.37173867915169
 20
-838.37950691809419
 30
0.0
 11
-671.37173867915203
 21
-838.32045191809436
 31
0.0
  0
LINE
  5
4382
  8
\M+2BBB2\M+2A755\M+2BD75
 10
-671.78118667915169
 20
-838.35504178515907
 30
0.0
 11
-671.78118667915533
 21
-836.94250191809385
 31
0.0
  0
LINE
  5
4383
  8
\M+2BBB2\M+2A755\M+2BD75
 10
-671.78118667915169
 20
-838.35504178515907
 30
0.0
 11
-671.84512879063959
 21
-838.4589477163272
 31
0.0
  0
LINE
  5
4384
  8
\M+2BBB2\M+2A755\M+2BD75
  6
HIDDEN2
 62
     1
 10
-671.39142367915235
 20
-838.20234191809436
 30
0.0
 11
-671.78118667915237
 21
-838.20234191809527
 31
0.0
  0
LINE
  5
4385
  8
\M+2BBB2\M+2A755\M+2BD75
  6
HIDDEN2
 62
     1
 10
-671.39142367915213
 20
-838.30076691809438
 30
0.0
 11
-671.78118667915203
 21
-838.30076691809529
 31
0.0
  0
LINE
  5
4386
  8
\M+2BBB2\M+2A755\M+2BD75
  6
HIDDEN2
 62
     1
 10
-671.37173867915203
 20
-838.32045191809436
 30
0.0
 11
-671.39142367915213
 21
-838.30076691809438
 31
0.0
  0
LINE
  5
4387
  8
\M+2BBB2\M+2A755\M+2BD75
 10
-671.37173867915169
 20
-838.37950691809419
 30
0.0
 11
-671.79624214557396
 21
-838.3795069180951
 31
0.0
  0
LINE
  5
4388
  8
\M+2BBB2\M+2A755\M+2BD75
 10
-671.37173867915237
 20
-838.12360191809421
 30
0.0
 11
-671.78118667915237
 21
-838.12360191809535
 31
0.0
  0
LINE
  5
4389
  8
\M+2BBB2\M+2A755\M+2BD75
 10
-671.34811667915108
 20
-838.64525441809633
 30
0.0
 11
-671.38748667915115
 21
-838.64525441809656
 31
0.0
  0
LINE
  5
438A
  8
\M+2BBB2\M+2A755\M+2BD75
 10
-671.37173867915237
 20
-838.18265691809438
 30
0.0
 11
-671.37173867915237
 21
-838.12360191809421
 31
0.0
  0
LINE
  5
438B
  8
\M+2BBB2\M+2A755\M+2BD75
  6
HIDDEN2
 62
     1
 10
-671.39142367915235
 20
-838.20234191809436
 30
0.0
 11
-671.37173867915237
 21
-838.18265691809438
 31
0.0
  0
LINE
  5
438C
  8
\M+2BBB2\M+2A755\M+2BD75
  6
HIDDEN2
 62
     1
 10
-671.37173867915203
 20
-838.32045191809436
 30
0.0
 11
-671.37173867915237
 21
-838.18265691809438
 31
0.0
  0
LINE
  5
438D
  8
\M+2BBB2\M+2A755\M+2BD75
  6
HIDDEN2
 62
     1
 10
-671.78118667915294
 20
-837.92183066809537
 30
0.0
 11
-671.78118667915317
 21
-837.83324816809534
 31
0.0
  0
LINE
  5
438E
  8
\M+2BBB2\M+2A755\M+2BD75
  6
HIDDEN2
 62
     1
 10
-671.78118667915317
 20
-837.83324816809534
 30
0.0
 11
-671.54496667915305
 21
-837.83324816809466
 31
0.0
  0
LINE
  5
438F
  8
\M+2BBB2\M+2A755\M+2BD75
  6
HIDDEN2
 62
     1
 10
-671.78118667915294
 20
-837.92183066809537
 30
0.0
 11
-671.54496667915294
 21
-837.9218306680948
 31
0.0
  0
LINE
  5
4390
  8
\M+2BBB2\M+2A755\M+2BD75
  6
HIDDEN2
 62
     1
 10
-671.52528167915295
 20
-837.94151566809467
 30
0.0
 11
-671.54496667915294
 21
-837.9218306680948
 31
0.0
  0
LINE
  5
4391
  8
\M+2BBB2\M+2A755\M+2BD75
 10
-671.78118667915317
 20
-837.74958691809536
 30
0.0
 11
-671.52528167915341
 21
-837.74958691809468
 31
0.0
  0
LINE
  5
4392
  8
\M+2BBB2\M+2A755\M+2BD75
 10
-671.78118667915271
 20
-838.00549191809534
 30
0.0
 11
-671.52528167915273
 21
-838.00549191809466
 31
0.0
  0
LINE
  5
4393
  8
\M+2BBB2\M+2A755\M+2BD75
 10
-671.52528167915273
 20
-838.00549191809466
 30
0.0
 11
-671.52528167915295
 21
-837.94151566809467
 31
0.0
  0
LINE
  5
4394
  8
\M+2BBB2\M+2A755\M+2BD75
 10
-671.52528167915307
 20
-837.81356316809467
 30
0.0
 11
-671.52528167915341
 21
-837.74958691809468
 31
0.0
  0
LINE
  5
4395
  8
\M+2BBB2\M+2A755\M+2BD75
  6
HIDDEN2
 62
     1
 10
-671.54496667915305
 20
-837.83324816809466
 30
0.0
 11
-671.52528167915307
 21
-837.81356316809467
 31
0.0
  0
LINE
  5
4396
  8
\M+2BBB2\M+2A755\M+2BD75
  6
HIDDEN2
 62
     1
 10
-671.52528167915295
 20
-837.94151566809467
 30
0.0
 11
-671.52528167915307
 21
-837.81356316809467
 31
0.0
  0
LINE
  5
4397
  8
\M+2BBB2\M+2A755\M+2BD75
  6
HIDDEN2
 62
     1
 10
-671.54496667915294
 20
-837.9218306680948
 30
0.0
 11
-671.54496667915305
 21
-837.83324816809466
 31
0.0
  0
LINE
  5
4398
  8
\M+2B5EA\M+2BD75
 10
-671.39142367915213
 20
-838.30076691809438
 30
0.0
 11
-671.39142367915235
 21
-838.20234191809436
 31
0.0
  0
LINE
  5
4399
  8
\M+2B5EA\M+2BD75
 10
-671.78118667915203
 20
-838.30076691809529
 30
0.0
 11
-671.78118667915237
 21
-838.20234191809527
 31
0.0
  0
LINE
  5
439A
  8
\M+2BBB2\M+2A755\M+2BD75
 10
-671.34811667915517
 20
-835.20037941809051
 30
0.0
 11
-671.34811667915517
 21
-836.94250191809385
 31
0.0
  0
LINE
  5
439B
  8
\M+2BBB2\M+2A755\M+2BD75
 10
-671.85992667915525
 20
-835.55224879309367
 30
0.0
 11
-671.85992667915525
 21
-836.94250191809397
 31
0.0
  0
LINE
  5
439C
  8
\M+2BBB2\M+2A755\M+2BD75
 10
-671.91898167915531
 20
-835.39722941506216
 30
0.0
 11
-671.91898167915531
 21
-835.45628441809345
 31
0.0
  0
LINE
  5
439D
  8
\M+2BBB2\M+2A755\M+2BD75
 10
-671.34811667915517
 20
-835.20037941809051
 30
0.0
 11
-671.80038309857264
 21
-835.21617290947188
 31
0.0
  0
LINE
  5
439E
  8
\M+2BBB2\M+2A755\M+2BD75
 10
-671.85992667915525
 20
-835.55224879309367
 30
0.0
 11
-671.91898167915531
 21
-835.45628441809345
 31
0.0
  0
LINE
  5
439F
  8
\M+2BBB2\M+2A755\M+2BD75
 10
-671.83376764982836
 20
-835.23702999752697
 30
0.0
 11
-671.91898167915531
 21
-835.39722941506216
 31
0.0
  0
LINE
  5
43A0
  8
\M+2BBB2\M+2A755\M+2BD75
 10
-671.78132845406913
 20
-835.30611370146926
 30
0.0
 11
-671.84512879064505
 21
-835.42605611985721
 31
0.0
  0
ARC
  5
43A1
  8
\M+2BBB2\M+2A755\M+2BD75
 10
-671.79900910538731
 20
-835.25551892633155
 30
0.0
 40
0.03937
 50
91.999999999997158
 51
151.9903847236516
  0
LINE
  5
43A2
  8
\M+2BBB2\M+2A755\M+2BD75
 10
-671.34811667915517
 20
-838.6846244180972
 30
0.0
 11
-671.34811667915517
 21
-836.94250191809385
 31
0.0
  0
LINE
  5
43A3
  8
\M+2BBB2\M+2A755\M+2BD75
 10
-671.85992667915525
 20
-838.33275504309415
 30
0.0
 11
-671.85992667915525
 21
-836.94250191809385
 31
0.0
  0
LINE
  5
43A4
  8
\M+2BBB2\M+2A755\M+2BD75
 10
-671.91898167915531
 20
-838.48777442112566
 30
0.0
 11
-671.91898167915531
 21
-838.42871941809415
 31
0.0
  0
LINE
  5
43A5
  8
\M+2BBB2\M+2A755\M+2BD75
 10
-671.34811667915517
 20
-838.6846244180972
 30
0.0
 11
-671.80038309857264
 21
-838.66883092671605
 31
0.0
  0
LINE
  5
43A6
  8
\M+2BBB2\M+2A755\M+2BD75
 10
-671.85992667915525
 20
-838.33275504309415
 30
0.0
 11
-671.91898167915531
 21
-838.42871941809415
 31
0.0
  0
LINE
  5
43A7
  8
\M+2BBB2\M+2A755\M+2BD75
 10
-671.83376764982836
 20
-838.64797383866096
 30
0.0
 11
-671.91898167915531
 21
-838.48777442112566
 31
0.0
  0
ARC
  5
43A8
  8
\M+2BBB2\M+2A755\M+2BD75
 10
-671.79900910538731
 20
-838.62948490985627
 30
0.0
 40
0.03937
 50
208.00961527634831
 51
268.0000000000029
  0
LINE
  5
43A9
  8
\M+2BBB2\M+2A755\M+2BD75
 10
-671.38748667914751
 20
-838.59264339255435
 30
0.0
 11
-671.78132845406117
 21
-838.57889013471811
 31
0.0
  0
LINE
  5
43AA
  8
\M+2BBB2\M+2A755\M+2BD75
 10
-671.78132845406117
 20
-838.57889013471811
 30
0.0
 11
-671.84512879063959
 21
-838.4589477163272
 31
0.0
  0
LINE
  5
43AC
  8
\M+2BBB2\M+2A755\M+2BD75
 10
-671.32843167915519
 20
-835.20037941809505
 30
0.0
 11
-671.32843167915519
 21
-835.24368641809485
 31
0.0
  0
LINE
  5
43AF
  8
\M+2BBB2\M+2A755\M+2BD75
 10
-670.83630667915531
 20
-835.39686121924115
 30
0.0
 11
-670.83630667915531
 21
-836.94250191809806
 31
0.0
  0
LINE
  5
43B0
  8
\M+2BBB2\M+2A755\M+2BD75
 10
-670.8559916791553
 20
-835.8165199180977
 30
0.0
 11
-670.8559916791553
 21
-835.85588991809766
 31
0.0
  0
LINE
  5
43B1
  8
\M+2BBB2\M+2A755\M+2BD75
 62
     2
 10
-670.91504667915524
 20
-835.43111167082952
 30
0.0
 11
-670.91504667915524
 21
-835.44644191809493
 31
0.0
  0
LINE
  5
43B2
  8
\M+2BBB2\M+2A755\M+2BD75
 10
-670.91504667915535
 20
-835.82045691809503
 30
0.0
 11
-670.91504667915524
 21
-835.96317316809484
 31
0.0
  0
LINE
  5
43B3
  8
\M+2BBB2\M+2A755\M+2BD75
 10
-670.91504667915524
 20
-835.96317316809484
 30
0.0
 11
-670.91504667915535
 21
-836.05175566809487
 31
0.0
  0
LINE
  5
43B4
  8
\M+2BBB2\M+2A755\M+2BD75
 10
-670.91504667915535
 20
-836.13541691809496
 30
0.0
 11
-670.91504667915535
 21
-836.94250191809806
 31
0.0
  0
ARC
  5
43B5
  8
\M+2BBB2\M+2A755\M+2BD75
 62
     2
 10
-670.87567667915528
 20
-835.39686121924115
 30
0.0
 40
0.03937
 50
0.0
 51
52.2695462882456
  0
LINE
  5
43B6
  8
\M+2BBB2\M+2A755\M+2BD75
 10
-671.32843167915519
 20
-835.20037941809505
 30
0.0
 11
-671.06552373099635
 21
-835.20956036595032
 31
0.0
  0
LINE
  5
43B7
  8
\M+2BBB2\M+2A755\M+2BD75
 10
-671.33159186348121
 20
-835.29087525687225
 30
0.0
 11
-671.08517058271616
 21
-835.2994804776157
 31
0.0
  0
LINE
  5
43B8
  8
\M+2BBB2\M+2A755\M+2BD75
 10
-671.04280535098985
 20
-835.21776871343695
 30
0.0
 11
-670.85158430596334
 21
-835.36572354986811
 31
0.0
  0
LINE
  5
43B9
  8
\M+2BBB2\M+2A755\M+2BD75
 10
-671.08517058271616
 20
-835.2994804776157
 30
0.0
 11
-670.91504667915524
 21
-835.43111167082952
 31
0.0
  0
ARC
  5
43BA
  8
\M+2BBB2\M+2A755\M+2BD75
 10
-671.06689772418179
 20
-835.24890638280976
 30
0.0
 40
0.03937
 50
52.2695462882456
 51
88.000000000002856
  0
LINE
  5
43BB
  8
\M+2BBB2\M+2A755\M+2BD75
 10
-671.32843167915519
 20
-835.24368641809485
 30
0.0
 11
-671.38748667915524
 21
-835.24368641809485
 31
0.0
  0
LINE
  5
43BC
  8
\M+2BBB2\M+2A755\M+2BD75
 10
-671.38748667915524
 20
-835.24368641809485
 30
0.0
 11
-671.38748667915524
 21
-836.94250191809545
 31
0.0
  0
LINE
  5
43BD
  8
\M+2BBB2\M+2A755\M+2BD75
 10
-671.32843167915519
 20
-835.29098561294052
 30
0.0
 11
-671.38748667915524
 21
-835.29098561294052
 31
0.0
  0
LINE
  5
43BE
  8
\M+2BBB2\M+2A755\M+2BD75
 10
-670.8559916791553
 20
-835.82045691809503
 30
0.0
 11
-671.36780167915515
 21
-835.82045691809503
 31
0.0
  0
LINE
  5
43BF
  8
\M+2BBB2\M+2A755\M+2BD75
 10
-670.91504667915535
 20
-835.44644191809493
 30
0.0
 11
-671.36780167915515
 21
-835.44644191809493
 31
0.0
  0
LINE
  5
43C0
  8
\M+2BBB2\M+2A755\M+2BD75
 10
-671.36780167915515
 20
-835.44644191809493
 30
0.0
 11
-671.36780167915515
 21
-835.82045691809503
 31
0.0
  0
LINE
  5
43C1
  8
\M+2BBB2\M+2A755\M+2BD75
 10
-671.28906167915522
 20
-835.50946278601634
 30
0.0
 11
-671.28906167915522
 21
-835.7574360501734
 31
0.0
  0
LINE
  5
43C2
  8
\M+2BBB2\M+2A755\M+2BD75
 10
-670.83630667915531
 20
-835.50155991809504
 30
0.0
 11
-671.28906167915522
 21
-835.50946278601634
 31
0.0
  0
LINE
  5
43C3
  8
\M+2BBB2\M+2A755\M+2BD75
 10
-670.83630667915531
 20
-835.76533891809493
 30
0.0
 11
-671.28906167915522
 21
-835.7574360501734
 31
0.0
  0
LINE
  5
43C5
  8
\M+2BBB2\M+2A755\M+2BD75
 10
-671.32843167917213
 20
-838.68462441809675
 30
0.0
 11
-671.32843167917167
 21
-838.64131741809649
 31
0.0
  0
LINE
  5
43C7
  8
\M+2BBB2\M+2A755\M+2BD75
 10
-670.83630667917021
 20
-838.48814261695532
 30
0.0
 11
-670.83630667915531
 21
-836.94250191809806
 31
0.0
  0
LINE
  5
43C8
  8
\M+2BBB2\M+2A755\M+2BD75
 10
-670.91504667916968
 20
-838.45389216536603
 30
0.0
 11
-670.91504667916968
 21
-838.43856191810062
 31
0.0
  0
LINE
  5
43C9
  8
\M+2BBB2\M+2A755\M+2BD75
 10
-670.91504667916615
 20
-838.06454691810063
 30
0.0
 11
-670.9150466791657
 21
-838.00549191810114
 31
0.0
  0
LINE
  5
43CA
  8
\M+2BBB2\M+2A755\M+2BD75
 10
-670.91504667916479
 20
-837.92183066810139
 30
0.0
 11
-670.91504667916388
 21
-837.83324816810114
 31
0.0
  0
LINE
  5
43CB
  8
\M+2BBB2\M+2A755\M+2BD75
 10
-670.91504667916308
 20
-837.74958691810139
 30
0.0
 11
-670.91504667915535
 21
-836.94250191809738
 31
0.0
  0
ARC
  5
43CC
  8
\M+2BBB2\M+2A755\M+2BD75
 10
-670.87567667917028
 20
-838.48814261695475
 30
0.0
 40
0.03937
 50
307.73045371120259
 51
359.99999999944288
  0
LINE
  5
43CD
  8
\M+2BBB2\M+2A755\M+2BD75
 10
-671.32843167917213
 20
-838.68462441809675
 30
0.0
 11
-671.0655237310134
 21
-838.67544347024386
 31
0.0
  0
LINE
  5
43CE
  8
\M+2BBB2\M+2A755\M+2BD75
 10
-671.33159186349724
 20
-838.59412857931898
 30
0.0
 11
-671.08517058273208
 21
-838.58552335857814
 31
0.0
  0
LINE
  5
43CF
  8
\M+2BBB2\M+2A755\M+2BD75
 10
-671.04280535100645
 20
-838.66723512275735
 30
0.0
 11
-670.85158430597846
 21
-838.51928028632778
 31
0.0
  0
LINE
  5
43D0
  8
\M+2BBB2\M+2A755\M+2BD75
 10
-671.08517058273208
 20
-838.58552335857814
 30
0.0
 11
-670.91504667916968
 21
-838.45389216536603
 31
0.0
  0
ARC
  5
43D1
  8
\M+2BBB2\M+2A755\M+2BD75
 10
-671.06689772419816
 20
-838.63609745338397
 30
0.0
 40
0.03937
 50
271.99999999944311
 51
307.73045371120259
  0
LINE
  5
43D2
  8
\M+2BBB2\M+2A755\M+2BD75
 10
-671.32843167917167
 20
-838.64131741809649
 30
0.0
 11
-671.38748667917173
 21
-838.64131741809604
 31
0.0
  0
LINE
  5
43D3
  8
\M+2BBB2\M+2A755\M+2BD75
 10
-671.38748667917173
 20
-838.64131741809604
 30
0.0
 11
-671.38748667915524
 21
-836.94250191809545
 31
0.0
  0
LINE
  5
43D4
  8
\M+2BBB2\M+2A755\M+2BD75
 10
-671.32843167917122
 20
-838.59401822325071
 30
0.0
 11
-671.38748667917116
 21
-838.59401822325015
 31
0.0
  0
LINE
  5
43D5
  8
\M+2BBB2\M+2A755\M+2BD75
 10
-671.2890616791675
 20
-838.20726316809692
 30
0.0
 11
-671.36780167916743
 21
-838.20726316809635
 31
0.0
  0
LINE
  5
43D6
  8
\M+2BBB2\M+2A755\M+2BD75
 10
-671.28906167916841
 20
-838.29584566809672
 30
0.0
 11
-671.36780167916845
 21
-838.29584566809626
 31
0.0
  0
LINE
  5
43D7
  8
\M+2BBB2\M+2A755\M+2BD75
 10
-670.91504667916615
 20
-838.06454691810063
 30
0.0
 11
-671.36780167916618
 21
-838.06454691809608
 31
0.0
  0
LINE
  5
43D8
  8
\M+2BBB2\M+2A755\M+2BD75
 10
-670.91504667916968
 20
-838.43856191810062
 30
0.0
 11
-671.36780167916982
 21
-838.43856191809618
 31
0.0
  0
LINE
  5
43D9
  8
\M+2BBB2\M+2A755\M+2BD75
 10
-671.36780167916982
 20
-838.43856191809618
 30
0.0
 11
-671.36780167916618
 21
-838.06454691809608
 31
0.0
  0
LINE
  5
43DA
  8
\M+2BBB2\M+2A755\M+2BD75
 10
-671.28906167916921
 20
-838.37554105017546
 30
0.0
 11
-671.28906167916671
 21
-838.1275677860184
 31
0.0
  0
LINE
  5
43DB
  8
\M+2BBB2\M+2A755\M+2BD75
 10
-670.83630667916907
 20
-838.38344391810108
 30
0.0
 11
-671.28906167916921
 21
-838.37554105017546
 31
0.0
  0
LINE
  5
43DC
  8
\M+2BBB2\M+2A755\M+2BD75
 10
-670.83630667916657
 20
-838.11966491810119
 30
0.0
 11
-671.28906167916671
 21
-838.1275677860184
 31
0.0
  0
LINE
  5
43DD
  8
\M+2BBB2\M+2A755\M+2BD75
 10
-670.91504667915524
 20
-836.05175566809487
 30
0.0
 11
-671.15126667915524
 21
-836.05175566809487
 31
0.0
  0
LINE
  5
43DE
  8
\M+2BBB2\M+2A755\M+2BD75
 10
-670.91504667915524
 20
-835.96317316809484
 30
0.0
 11
-671.15126667915524
 21
-835.96317316809484
 31
0.0
  0
LINE
  5
43DF
  8
\M+2BBB2\M+2A755\M+2BD75
 10
-671.17095167915522
 20
-835.94348816809497
 30
0.0
 11
-671.15126667915524
 21
-835.96317316809484
 31
0.0
  0
LINE
  5
43E0
  8
\M+2BBB2\M+2A755\M+2BD75
 10
-670.91504667915524
 20
-836.13541691809496
 30
0.0
 11
-671.17095167915522
 21
-836.13541691809496
 31
0.0
  0
LINE
  5
43E1
  8
\M+2BBB2\M+2A755\M+2BD75
 10
-670.91504667915524
 20
-835.87951191809498
 30
0.0
 11
-671.17095167915522
 21
-835.87951191809498
 31
0.0
  0
LINE
  5
43E2
  8
\M+2BBB2\M+2A755\M+2BD75
 10
-671.17095167915522
 20
-835.87951191809498
 30
0.0
 11
-671.17095167915522
 21
-835.94348816809497
 31
0.0
  0
LINE
  5
43E3
  8
\M+2BBB2\M+2A755\M+2BD75
 10
-671.17095167915522
 20
-836.07144066809497
 30
0.0
 11
-671.17095167915522
 21
-836.13541691809496
 31
0.0
  0
LINE
  5
43E4
  8
\M+2BBB2\M+2A755\M+2BD75
 10
-671.15126667915524
 20
-836.05175566809487
 30
0.0
 11
-671.17095167915522
 21
-836.07144066809497
 31
0.0
  0
LINE
  5
43E5
  8
\M+2BBB2\M+2A755\M+2BD75
 10
-671.17095167915522
 20
-835.94348816809497
 30
0.0
 11
-671.17095167915522
 21
-836.07144066809497
 31
0.0
  0
LINE
  5
43E6
  8
\M+2BBB2\M+2A755\M+2BD75
 10
-671.15126667915524
 20
-835.96317316809484
 30
0.0
 11
-671.15126667915524
 21
-836.05175566809487
 31
0.0
  0
LINE
  5
43E7
  8
\M+2BBB2\M+2A755\M+2BD75
 10
-671.28906167915522
 20
-835.69644141809499
 30
0.0
 11
-671.36780167915515
 21
-835.69644141809499
 31
0.0
  0
LINE
  5
43E8
  8
\M+2BBB2\M+2A755\M+2BD75
 10
-671.28906167915522
 20
-835.57045741809486
 30
0.0
 11
-671.36780167915515
 21
-835.57045741809486
 31
0.0
  0
LINE
  5
43E9
  8
\M+2BBB2\M+2A755\M+2BD75
 10
-670.91504667915524
 20
-837.92183066810139
 30
0.0
 11
-670.91504667915535
 21
-837.83324816810114
 31
0.0
  0
LINE
  5
43EA
  8
\M+2BBB2\M+2A755\M+2BD75
 10
-670.91504667915524
 20
-837.83324816810114
 30
0.0
 11
-671.15126667915524
 21
-837.83324816810114
 31
0.0
  0
LINE
  5
43EB
  8
\M+2BBB2\M+2A755\M+2BD75
 10
-670.91504667915524
 20
-837.92183066810139
 30
0.0
 11
-671.15126667915524
 21
-837.92183066810139
 31
0.0
  0
LINE
  5
43EC
  8
\M+2BBB2\M+2A755\M+2BD75
 10
-671.17095167915522
 20
-837.94151566810137
 30
0.0
 11
-671.15126667915524
 21
-837.92183066810139
 31
0.0
  0
LINE
  5
43ED
  8
\M+2BBB2\M+2A755\M+2BD75
 10
-670.91504667915524
 20
-837.74958691810139
 30
0.0
 11
-671.17095167915522
 21
-837.74958691810139
 31
0.0
  0
LINE
  5
43EE
  8
\M+2BBB2\M+2A755\M+2BD75
 10
-670.91504667915524
 20
-838.00549191810114
 30
0.0
 11
-671.17095167915522
 21
-838.00549191810114
 31
0.0
  0
LINE
  5
43EF
  8
\M+2BBB2\M+2A755\M+2BD75
 10
-671.17095167915522
 20
-838.00549191810114
 30
0.0
 11
-671.17095167915522
 21
-837.94151566810137
 31
0.0
  0
LINE
  5
43F0
  8
\M+2BBB2\M+2A755\M+2BD75
 10
-671.17095167915522
 20
-837.81356316810115
 30
0.0
 11
-671.17095167915522
 21
-837.74958691810139
 31
0.0
  0
LINE
  5
43F1
  8
\M+2BBB2\M+2A755\M+2BD75
 10
-671.15126667915524
 20
-837.83324816810114
 30
0.0
 11
-671.17095167915522
 21
-837.81356316810115
 31
0.0
  0
LINE
  5
43F2
  8
\M+2BBB2\M+2A755\M+2BD75
 10
-671.17095167915522
 20
-837.94151566810137
 30
0.0
 11
-671.17095167915522
 21
-837.81356316810115
 31
0.0
  0
LINE
  5
43F3
  8
\M+2BBB2\M+2A755\M+2BD75
 10
-671.15126667915524
 20
-837.92183066810139
 30
0.0
 11
-671.15126667915524
 21
-837.83324816810114
 31
0.0
  0
LINE
  5
43F4
  8
\M+2BBB2\M+2A755\M+2BD75
 10
-670.8559916791553
 20
-835.8165199180977
 30
0.0
 11
-670.83630667915531
 21
-835.8165199180977
 31
0.0
  0
LINE
  5
43F5
  8
\M+2BBB2\M+2A755\M+2BD75
 10
-670.8559916791553
 20
-835.85588991809766
 30
0.0
 11
-670.83630667915531
 21
-835.85588991809766
 31
0.0
  0
LINE
  5
43F6
  8
\M+2BBB2\M+2A755\M+2BD75
 10
-670.85599167917712
 20
-838.0684839180982
 30
0.0
 11
-670.85599167917621
 21
-838.02911391809812
 31
0.0
  0
LINE
  5
43F7
  8
\M+2BBB2\M+2A755\M+2BD75
 10
-670.85599167917712
 20
-838.0684839180982
 30
0.0
 11
-670.83630667917714
 21
-838.06848391809842
 31
0.0
  0
LINE
  5
43F8
  8
\M+2BBB2\M+2A755\M+2BD75
 10
-670.85599167917621
 20
-838.02911391809812
 30
0.0
 11
-670.83630667917623
 21
-838.02911391809857
 31
0.0
  0
LINE
  5
43F9
  8
\M+2BBB2\M+2A755\M+2BD75
 10
-670.91504667915524
 20
-835.87951191809498
 30
0.0
 11
-670.91504667915524
 21
-836.13541691809496
 31
0.0
  0
LINE
  5
43FA
  8
\M+2BBB2\M+2A755\M+2BD75
 10
-670.91504667916308
 20
-837.74958691810139
 30
0.0
 11
-670.91504667915524
 21
-838.00549191810114
 31
0.0
  0
LINE
  5
43FB
  8
\M+2BBB2\M+2A755\M+2BD75
 10
-670.91504667915524
 20
-835.82045691809503
 30
0.0
 11
-670.91504667915524
 21
-835.44644191809493
 31
0.0
  0
LINE
  5
43FC
  8
\M+2BBB2\M+2A755\M+2BD75
 10
-670.91504667916615
 20
-838.06454691810063
 30
0.0
 11
-670.91504667916968
 21
-838.43856191810062
 31
0.0
  0
DIMENSION
  5
43FD
  8
DIM
  2
*D15
 10
-670.83630667915531
 20
-834.51474391247848
 30
0.0
 11
-672.83529853937569
 21
-834.51474391247848
 31
0.0
 70
   128
 13
-671.91898167915531
 23
-835.42675691657792
 33
0.0
 14
-670.83630667915531
 24
-835.42675691657792
 34
0.0
  0
DIMENSION
  5
4401
  8
DIM
  2
*D16
 10
-673.29311682972934
 20
-835.20037941809505
 30
0.0
 11
-673.29311682972912
 21
-837.02234216932959
 31
0.0
 70
   128
 13
-671.32843167917213
 23
-838.68462441809675
 33
0.0
 14
-671.32843167915519
 24
-835.20037941809505
 34
0.0
 50
90.0
  0
POLYLINE
  5
4584
  8
\M+2BBB2\M+2A755\M+2BD75
 66
     1
 10
0.0
 20
0.0
 30
0.0
 70
     1
  0
VERTEX
  5
6FBE
  8
\M+2BBB2\M+2A755\M+2BD75
 10
-686.25335995444925
 20
-832.04027810082869
 30
0.0
 42
0.0142710721216973
  0
VERTEX
  5
6FBF
  8
\M+2BBB2\M+2A755\M+2BD75
 10
-686.29100024289664
 20
-833.35877127968126
 30
0.0
 42
0.0142710721216973
  0
VERTEX
  5
6FC0
  8
\M+2BBB2\M+2A755\M+2BD75
 10
-686.25335995444937
 20
-834.67726445853305
 30
0.0
 42
0.3606297941766457
  0
VERTEX
  5
6FC1
  8
\M+2BBB2\M+2A755\M+2BD75
 10
-685.91105073856909
 20
-835.04521948159163
 30
0.0
 42
0.0647220906745848
  0
VERTEX
  5
6FC2
  8
\M+2BBB2\M+2A755\M+2BD75
 10
-684.19063974722474
 20
-835.04521948159163
 30
0.0
 42
0.3606297941766303
  0
VERTEX
  5
6FC3
  8
\M+2BBB2\M+2A755\M+2BD75
 10
-683.84833053134446
 20
-834.67726445853316
 30
0.0
 42
0.014271072121698
  0
VERTEX
  5
6FC4
  8
\M+2BBB2\M+2A755\M+2BD75
 10
-683.81069024289673
 20
-833.35877127968058
 30
0.0
 42
0.0142710721216979
  0
VERTEX
  5
6FC5
  8
\M+2BBB2\M+2A755\M+2BD75
 10
-683.84833053134435
 20
-832.04027810082869
 30
0.0
 42
0.3606297941766303
  0
VERTEX
  5
6FC6
  8
\M+2BBB2\M+2A755\M+2BD75
 10
-684.19063974722462
 20
-831.67232307777022
 30
0.0
 42
0.064722090674585
  0
VERTEX
  5
6FC7
  8
\M+2BBB2\M+2A755\M+2BD75
 10
-685.91105073856909
 20
-831.67232307776999
 30
0.0
 42
0.3606297941766457
  0
SEQEND
  5
6FC8
  8
\M+2BBB2\M+2A755\M+2BD75
  0
POLYLINE
  5
4585
  8
\M+2BBB2\M+2A755\M+2BD75
 66
     1
 10
0.0
 20
0.0
 30
0.0
 70
     1
  0
VERTEX
  5
6FC9
  8
\M+2BBB2\M+2A755\M+2BD75
 10
-686.21405407418456
 20
-832.04252413658753
 30
0.0
 42
0.0142710721216975
  0
VERTEX
  5
6FCA
  8
\M+2BBB2\M+2A755\M+2BD75
 10
-686.25163024289691
 20
-833.35877127968126
 30
0.0
 42
0.0142710721216973
  0
VERTEX
  5
6FCB
  8
\M+2BBB2\M+2A755\M+2BD75
 10
-686.21405407418456
 20
-834.67501842277466
 30
0.0
 42
0.3606297941766459
  0
VERTEX
  5
6FCC
  8
\M+2BBB2\M+2A755\M+2BD75
 10
-685.90597577989274
 20
-835.00617794352718
 30
0.0
 42
0.0647220906745848
  0
VERTEX
  5
6FCD
  8
\M+2BBB2\M+2A755\M+2BD75
 10
-684.1957147059012
 20
-835.00617794352752
 30
0.0
 42
0.3606297941766305
  0
VERTEX
  5
6FCE
  8
\M+2BBB2\M+2A755\M+2BD75
 10
-683.88763641160915
 20
-834.67501842277466
 30
0.0
 42
0.014271072121698
  0
VERTEX
  5
6FCF
  8
\M+2BBB2\M+2A755\M+2BD75
 10
-683.85006024289692
 20
-833.35877127968058
 30
0.0
 42
0.0142710721216979
  0
VERTEX
  5
6FD0
  8
\M+2BBB2\M+2A755\M+2BD75
 10
-683.88763641160892
 20
-832.04252413658753
 30
0.0
 42
0.3606297941766302
  0
VERTEX
  5
6FD1
  8
\M+2BBB2\M+2A755\M+2BD75
 10
-684.19571470590108
 20
-831.71136461583455
 30
0.0
 42
0.064722090674585
  0
VERTEX
  5
6FD2
  8
\M+2BBB2\M+2A755\M+2BD75
 10
-685.90597577989251
 20
-831.7113646158341
 30
0.0
 42
0.3606297941766455
  0
SEQEND
  5
6FD3
  8
\M+2BBB2\M+2A755\M+2BD75
  0
POLYLINE
  5
4586
  8
\M+2BBB2\M+2A755\M+2BD75
 66
     1
 10
0.0
 20
0.0
 30
0.0
 70
     1
  0
VERTEX
  5
6FD4
  8
\M+2BBB2\M+2A755\M+2BD75
 10
-686.16295642984073
 20
-832.04544398307326
 30
0.0
 42
0.0142710721216975
  0
VERTEX
  5
6FD5
  8
\M+2BBB2\M+2A755\M+2BD75
 10
-686.20044924289675
 20
-833.35877127968126
 30
0.0
 42
0.0142710721216973
  0
VERTEX
  5
6FD6
  8
\M+2BBB2\M+2A755\M+2BD75
 10
-686.16295642984085
 20
-834.67209857628825
 30
0.0
 42
0.3606297941766457
  0
VERTEX
  5
6FD7
  8
\M+2BBB2\M+2A755\M+2BD75
 10
-685.89937833361296
 20
-834.95542394404379
 30
0.0
 42
0.0647220906745849
  0
VERTEX
  5
6FD8
  8
\M+2BBB2\M+2A755\M+2BD75
 10
-684.20231215218075
 20
-834.95542394404379
 30
0.0
 42
0.3606297941766303
  0
VERTEX
  5
6FD9
  8
\M+2BBB2\M+2A755\M+2BD75
 10
-683.93873405595309
 20
-834.67209857628836
 30
0.0
 42
0.014271072121698
  0
VERTEX
  5
6FDA
  8
\M+2BBB2\M+2A755\M+2BD75
 10
-683.90124124289673
 20
-833.35877127968058
 30
0.0
 42
0.0142710721216979
  0
VERTEX
  5
6FDB
  8
\M+2BBB2\M+2A755\M+2BD75
 10
-683.93873405595298
 20
-832.04544398307326
 30
0.0
 42
0.3606297941766303
  0
VERTEX
  5
6FDC
  8
\M+2BBB2\M+2A755\M+2BD75
 10
-684.20231215218075
 20
-831.76211861531817
 30
0.0
 42
0.064722090674585
  0
VERTEX
  5
6FDD
  8
\M+2BBB2\M+2A755\M+2BD75
 10
-685.89937833361296
 20
-831.76211861531817
 30
0.0
 42
0.3606297941766456
  0
SEQEND
  5
6FDE
  8
\M+2BBB2\M+2A755\M+2BD75
  0
CIRCLE
  5
4587
  8
\M+2BBB2\M+2A755\M+2BD75
 10
-685.92682774289665
 20
-832.42373377968249
 30
0.0
 40
0.1279525
  0
CIRCLE
  5
4588
  8
\M+2BBB2\M+2A755\M+2BD75
 10
-684.17486274289661
 20
-832.42373377968249
 30
0.0
 40
0.1279525
  0
CIRCLE
  5
4589
  8
\M+2BBB2\M+2A755\M+2BD75
 10
-685.86777274289659
 20
-832.04971877968228
 30
0.0
 40
0.1279525
  0
CIRCLE
  5
458A
  8
\M+2BBB2\M+2A755\M+2BD75
 10
-684.23391774289655
 20
-832.04971877968228
 30
0.0
 40
0.1279525
  0
CIRCLE
  5
458B
  8
\M+2BBB2\M+2A755\M+2BD75
 10
-685.92682774289665
 20
-832.42373377968249
 30
0.0
 40
0.04429125
  0
CIRCLE
  5
458C
  8
\M+2BBB2\M+2A755\M+2BD75
 10
-684.17486274289661
 20
-832.42373377968249
 30
0.0
 40
0.04429125
  0
CIRCLE
  5
458D
  8
\M+2BBB2\M+2A755\M+2BD75
 10
-684.17486274289661
 20
-832.42373377968249
 30
0.0
 40
0.06397625
  0
CIRCLE
  5
458E
  8
\M+2BBB2\M+2A755\M+2BD75
 10
-685.92682774289665
 20
-832.42373377968249
 30
0.0
 40
0.06397625
  0
CIRCLE
  5
458F
  8
\M+2BBB2\M+2A755\M+2BD75
 10
-685.86777274289659
 20
-832.04971877968228
 30
0.0
 40
0.0492125
  0
CIRCLE
  5
4590
  8
\M+2BBB2\M+2A755\M+2BD75
 10
-684.23391774289655
 20
-832.04971877968228
 30
0.0
 40
0.0492125
  0
CIRCLE
  5
4591
  8
\M+2BBB2\M+2A755\M+2BD75
 10
-684.23391774289655
 20
-832.04971877968228
 30
0.0
 40
0.0688975
  0
CIRCLE
  5
4592
  8
\M+2BBB2\M+2A755\M+2BD75
 10
-685.86777274289659
 20
-832.04971877968228
 30
0.0
 40
0.0688975
  0
CIRCLE
  5
4593
  8
\M+2BBB2\M+2A755\M+2BD75
 10
-685.86777274289182
 20
-834.66782377968207
 30
0.0
 40
0.1279525
  0
CIRCLE
  5
4594
  8
\M+2BBB2\M+2A755\M+2BD75
 10
-685.92682774289312
 20
-834.29380877968219
 30
0.0
 40
0.1279525
  0
CIRCLE
  5
4595
  8
\M+2BBB2\M+2A755\M+2BD75
 10
-684.23391774289166
 20
-834.6678237796757
 30
0.0
 40
0.1279525
  0
CIRCLE
  5
4596
  8
\M+2BBB2\M+2A755\M+2BD75
 10
-684.17486274289297
 20
-834.2938087796756
 30
0.0
 40
0.1279525
  0
CIRCLE
  5
4597
  8
\M+2BBB2\M+2A755\M+2BD75
 10
-685.92682774289312
 20
-834.29380877968219
 30
0.0
 40
0.04429125
  0
CIRCLE
  5
4598
  8
\M+2BBB2\M+2A755\M+2BD75
 10
-685.92682774289312
 20
-834.29380877968219
 30
0.0
 40
0.06397625
  0
CIRCLE
  5
4599
  8
\M+2BBB2\M+2A755\M+2BD75
 10
-684.17486274289297
 20
-834.2938087796756
 30
0.0
 40
0.04429125
  0
CIRCLE
  5
459A
  8
\M+2BBB2\M+2A755\M+2BD75
 10
-684.17486274289297
 20
-834.2938087796756
 30
0.0
 40
0.06397625
  0
CIRCLE
  5
459B
  8
\M+2BBB2\M+2A755\M+2BD75
 10
-685.86777274289182
 20
-834.66782377968207
 30
0.0
 40
0.0492125
  0
CIRCLE
  5
459C
  8
\M+2BBB2\M+2A755\M+2BD75
 10
-685.86777274289182
 20
-834.66782377968207
 30
0.0
 40
0.0688975
  0
CIRCLE
  5
459D
  8
\M+2BBB2\M+2A755\M+2BD75
 10
-684.23391774289166
 20
-834.6678237796757
 30
0.0
 40
0.0492125
  0
CIRCLE
  5
459E
  8
\M+2BBB2\M+2A755\M+2BD75
 10
-684.23391774289166
 20
-834.6678237796757
 30
0.0
 40
0.0688975
  0
LINE
  5
459F
  8
\M+2BBB2\M+2A755\M+2BD75
 10
-686.29100024289664
 20
-835.72872288421183
 30
0.0
 11
-683.81069024289673
 21
-835.72872288421183
 31
0.0
  0
LINE
  5
45A0
  8
\M+2BBB2\M+2A755\M+2BD75
 10
-686.29100024289664
 20
-835.72872288421183
 30
0.0
 11
-686.27810585934969
 21
-836.09796971739502
 31
0.0
  0
LINE
  5
45A1
  8
\M+2BBB2\M+2A755\M+2BD75
 10
-683.81069024289673
 20
-835.72872288421183
 30
0.0
 11
-683.8235846264439
 21
-836.09796971739536
 31
0.0
  0
ARC
  5
45A2
  8
\M+2BBB2\M+2A755\M+2BD75
 10
-686.23875984249003
 20
-836.09659572420969
 30
0.0
 40
0.03937
 50
181.99999999999699
 51
245.7210984790064
  0
ARC
  5
45A3
  8
\M+2BBB2\M+2A755\M+2BD75
 10
-685.05084524289657
 20
-828.39277955087834
 30
0.0
 40
7.7886983333333264
 50
260.93054862529232
 51
279.06945137470427
  0
LINE
  5
45A4
  8
\M+2BBB2\M+2A755\M+2BD75
 10
-684.19063974722474
 20
-835.72872288421183
 30
0.0
 11
-684.19063974722474
 21
-836.13383039897906
 31
0.0
  0
LINE
  5
45A5
  8
\M+2BBB2\M+2A755\M+2BD75
 10
-685.91105073856829
 20
-835.7287228842107
 30
0.0
 11
-685.91105073856875
 21
-836.13383039897838
 31
0.0
  0
LINE
  5
45A6
  8
\M+2BBB2\M+2A755\M+2BD75
 10
-683.84846241908224
 20
-835.72740385075383
 30
0.0
 11
-683.86112725545638
 21
-836.0900773129523
 31
0.0
  0
LINE
  5
45A7
  8
\M+2BBB2\M+2A755\M+2BD75
 10
-686.25322806671159
 20
-835.72740385075383
 30
0.0
 11
-686.24056323033722
 21
-836.0900773129523
 31
0.0
  0
POLYLINE
  5
45A8
  8
\M+2BBB2\M+2A755\M+2BD75
 66
     1
 10
0.0
 20
0.0
 30
0.0
 70
     1
  0
VERTEX
  5
6FDF
  8
\M+2BBB2\M+2A755\M+2BD75
 10
-679.94919559326934
 20
-832.04027810082869
 30
0.0
 42
0.0142710721216973
  0
VERTEX
  5
6FE0
  8
\M+2BBB2\M+2A755\M+2BD75
 10
-679.98683588171696
 20
-833.35877127968126
 30
0.0
 42
0.0142710721216973
  0
VERTEX
  5
6FE1
  8
\M+2BBB2\M+2A755\M+2BD75
 10
-679.94919559326968
 20
-834.67726445853305
 30
0.0
 42
0.3606297941766457
  0
VERTEX
  5
6FE2
  8
\M+2BBB2\M+2A755\M+2BD75
 10
-679.6068863773894
 20
-835.04521948159163
 30
0.0
 42
0.0647220906745848
  0
VERTEX
  5
6FE3
  8
\M+2BBB2\M+2A755\M+2BD75
 10
-677.88647538604505
 20
-835.04521948159163
 30
0.0
 42
0.3606297941766303
  0
VERTEX
  5
6FE4
  8
\M+2BBB2\M+2A755\M+2BD75
 10
-677.54416617016466
 20
-834.67726445853316
 30
0.0
 42
0.014271072121698
  0
VERTEX
  5
6FE5
  8
\M+2BBB2\M+2A755\M+2BD75
 10
-677.50652588171704
 20
-833.35877127968058
 30
0.0
 42
0.0142710721216979
  0
VERTEX
  5
6FE6
  8
\M+2BBB2\M+2A755\M+2BD75
 10
-677.54416617016466
 20
-832.04027810082869
 30
0.0
 42
0.3606297941766303
  0
VERTEX
  5
6FE7
  8
\M+2BBB2\M+2A755\M+2BD75
 10
-677.88647538604482
 20
-831.67232307777022
 30
0.0
 42
0.064722090674585
  0
VERTEX
  5
6FE8
  8
\M+2BBB2\M+2A755\M+2BD75
 10
-679.60688637738906
 20
-831.67232307776999
 30
0.0
 42
0.3606297941766457
  0
SEQEND
  5
6FE9
  8
\M+2BBB2\M+2A755\M+2BD75
  0
LINE
  5
45A9
  8
\M+2BBB2\M+2A755\M+2BD75
 10
-679.57582179062388
 20
-832.00050627968324
 30
0.0
 11
-678.74668088171711
 21
-832.00050627968335
 31
0.0
  0
LINE
  5
45AA
  8
\M+2BBB2\M+2A755\M+2BD75
 10
-679.71361679062397
 20
-832.05956127968318
 30
0.0
 11
-679.71361679062397
 21
-833.3587712796832
 31
0.0
  0
LINE
  5
45AB
  8
\M+2BBB2\M+2A755\M+2BD75
 10
-679.63487679062382
 20
-832.05956127968318
 30
0.0
 11
-679.63487679062382
 21
-833.3587712796832
 31
0.0
  0
ARC
  5
45AC
  8
\M+2BBB2\M+2A755\M+2BD75
 10
-679.57582179062388
 20
-832.05956127968318
 30
0.0
 40
0.059055
 50
89.999999999986969
 51
180.0
  0
ARC
  5
45AD
  8
\M+2BBB2\M+2A755\M+2BD75
 10
-679.57582179062388
 20
-832.05956127968318
 30
0.0
 40
0.137795
 50
97.223513784794051
 51
180.0
  0
LINE
  5
45AE
  8
\M+2BBB2\M+2A755\M+2BD75
 10
-677.91753997281069
 20
-832.00050627968358
 30
0.0
 11
-678.74668088171757
 21
-832.00050627968335
 31
0.0
  0
LINE
  5
45AF
  8
\M+2BBB2\M+2A755\M+2BD75
 10
-677.77974497281059
 20
-832.05956127968363
 30
0.0
 11
-677.77974497281127
 21
-833.35877127968365
 31
0.0
  0
ARC
  5
45B0
  8
\M+2BBB2\M+2A755\M+2BD75
 10
-677.91753997281069
 20
-832.05956127968363
 30
0.0
 40
0.137795
 50
359.9999999999738
 51
80.801373859868505
  0
LINE
  5
45B1
  8
\M+2BBB2\M+2A755\M+2BD75
 10
-677.85848497281074
 20
-832.05956127968363
 30
0.0
 11
-677.85848497281131
 21
-833.35877127968365
 31
0.0
  0
ARC
  5
45B2
  8
\M+2BBB2\M+2A755\M+2BD75
 10
-677.91753997281069
 20
-832.05956127968363
 30
0.0
 40
0.059055
 50
359.9999999999738
 51
89.999999999986969
  0
LINE
  5
45B3
  8
\M+2BBB2\M+2A755\M+2BD75
 10
-679.6545617906238
 20
-832.05956127968318
 30
0.0
 11
-679.6545617906238
 21
-833.3587712796832
 31
0.0
  0
ARC
  5
45B4
  8
\M+2BBB2\M+2A755\M+2BD75
 10
-679.57582179062388
 20
-832.05956127968318
 30
0.0
 40
0.07874
 50
94.790194973187695
 51
180.0
  0
ARC
  5
45B5
  8
\M+2BBB2\M+2A755\M+2BD75
 10
-677.91753997281069
 20
-832.05956127968363
 30
0.0
 40
0.07874
 50
359.9999999999738
 51
82.605399295676065
  0
LINE
  5
45B6
  8
\M+2BBB2\M+2A755\M+2BD75
 10
-677.83879997281065
 20
-832.05956127968363
 30
0.0
 11
-677.83879997281133
 21
-833.35877127968365
 31
0.0
  0
LINE
  5
45B7
  8
\M+2BBB2\M+2A755\M+2BD75
 10
-684.08391804289658
 20
-836.24053288421146
 30
0.0
 11
-683.84660894305375
 21
-836.13242307411133
 31
0.0
  0
LINE
  5
45B8
  8
\M+2BBB2\M+2A755\M+2BD75
 10
-686.01777244289656
 20
-836.24053288421146
 30
0.0
 11
-686.2550815427395
 21
-836.13242307411133
 31
0.0
  0
ARC
  5
45B9
  8
\M+2BBB2\M+2A755\M+2BD75
 10
-685.05084524289657
 20
-828.35414970687816
 30
0.0
 40
7.945438177333294
 50
263.01001245961811
 51
276.98998754038172
  0
DIMENSION
  5
45BA
  8
DIM
  2
*D17
 10
-689.79935148456127
 20
-835.10089377968166
 30
0.0
 11
-689.79935148456104
 21
-832.91459536444029
 31
0.0
 70
   128
 13
-685.05084524289691
 23
-831.61664877968019
 33
0.0
 14
-685.05084524289657
 24
-835.10089377968166
 34
0.0
 50
90.0
  0
DIMENSION
  5
45BC
  8
DIM
  2
*D18
 10
-683.81069024289673
 20
-830.09997600632289
 30
0.0
 11
-685.23526975922721
 21
-830.09997600632289
 31
0.0
 70
   128
 13
-686.29100024289664
 23
-833.3587712796832
 33
0.0
 14
-683.81069024289673
 24
-833.35877127968365
 34
0.0
  0
LINE
  5
45BE
  8
\M+2BBB2\M+2A755\M+2BD75
 10
-675.54139681468075
 20
-831.61664877968019
 30
0.0
 11
-675.54139681468075
 21
-833.35877127968365
 31
0.0
  0
LINE
  5
45BF
  8
\M+2BBB2\M+2A755\M+2BD75
 10
-675.54139681468075
 20
-831.61664877968019
 30
0.0
 11
-675.08913039526362
 21
-831.63244227106156
 31
0.0
  0
ARC
  5
45C0
  8
\M+2BBB2\M+2A755\M+2BD75
 10
-683.8629306433038
 20
-836.09659572420992
 30
0.0
 40
0.03937
 50
294.49236715431078
 51
357.99999999999631
  0
ARC
  5
45C1
  8
\M+2BBB2\M+2A755\M+2BD75
 10
-678.74562063109431
 20
-835.15226052765104
 30
0.0
 40
3.2797069193445809
 50
75.192276239051367
 51
104.78173826312791
  0
ARC
  5
45C2
  8
\M+2BBB2\M+2A755\M+2BD75
 10
-678.74562063109431
 20
-835.15226052765104
 30
0.0
 40
3.3387619193445821
 50
75.192276239051367
 51
104.78173826312791
  0
LINE
  5
45C3
  8
\M+2BBB2\M+2A755\M+2BD75
 10
-679.57582179061887
 20
-834.71703627968145
 30
0.0
 11
-678.746680881712
 21
-834.71703627967815
 31
0.0
  0
LINE
  5
45C4
  8
\M+2BBB2\M+2A755\M+2BD75
 10
-679.71361679061908
 20
-834.65798127968196
 30
0.0
 11
-679.71361679062397
 21
-833.35877127968195
 31
0.0
  0
LINE
  5
45C5
  8
\M+2BBB2\M+2A755\M+2BD75
 10
-679.65456179061903
 20
-834.65798127968139
 30
0.0
 11
-679.6545617906238
 21
-833.3587712796816
 31
0.0
  0
ARC
  5
45C6
  8
\M+2BBB2\M+2A755\M+2BD75
 10
-679.5758217906191
 20
-834.65798127968139
 30
0.0
 40
0.137795
 50
180.0000000002149
 51
262.77648621542312
  0
ARC
  5
45C7
  8
\M+2BBB2\M+2A755\M+2BD75
 10
-679.5758217906191
 20
-834.65798127968139
 30
0.0
 40
0.07874
 50
180.0000000002149
 51
265.20980502702758
  0
LINE
  5
45C8
  8
\M+2BBB2\M+2A755\M+2BD75
 10
-679.63487679061893
 20
-834.65798127968139
 30
0.0
 11
-679.63487679062382
 21
-833.3587712796816
 31
0.0
  0
ARC
  5
45C9
  8
\M+2BBB2\M+2A755\M+2BD75
 10
-679.5758217906191
 20
-834.65798127968139
 30
0.0
 40
0.059055
 50
180.0000000002149
 51
270.000000000228
  0
LINE
  5
45CA
  8
\M+2BBB2\M+2A755\M+2BD75
 10
-677.9175399728058
 20
-834.71703627967486
 30
0.0
 11
-678.74668088171234
 21
-834.71703627967815
 31
0.0
  0
LINE
  5
45CB
  8
\M+2BBB2\M+2A755\M+2BD75
 10
-677.7797449728057
 20
-834.65798127967423
 30
0.0
 11
-677.77974497281127
 21
-833.35877127967422
 31
0.0
  0
LINE
  5
45CC
  8
\M+2BBB2\M+2A755\M+2BD75
 10
-677.83879997280576
 20
-834.65798127967446
 30
0.0
 11
-677.83879997281133
 21
-833.35877127967456
 31
0.0
  0
ARC
  5
45CD
  8
\M+2BBB2\M+2A755\M+2BD75
 10
-677.91753997280591
 20
-834.65798127967469
 30
0.0
 40
0.137795
 50
279.19862614034992
 51
0.0000000002410097
  0
ARC
  5
45CE
  8
\M+2BBB2\M+2A755\M+2BD75
 10
-677.91753997280591
 20
-834.65798127967469
 30
0.0
 40
0.07874
 50
277.39460070454038
 51
0.0000000002410097
  0
LINE
  5
45CF
  8
\M+2BBB2\M+2A755\M+2BD75
 10
-677.85848497280574
 20
-834.65798127967446
 30
0.0
 11
-677.85848497281131
 21
-833.35877127967467
 31
0.0
  0
ARC
  5
45D0
  8
\M+2BBB2\M+2A755\M+2BD75
 10
-677.91753997280591
 20
-834.65798127967469
 30
0.0
 40
0.059055
 50
270.000000000228
 51
0.0000000002410097
  0
ARC
  5
45D1
  8
\M+2BBB2\M+2A755\M+2BD75
 10
-678.74562063110068
 20
-831.56528203171035
 30
0.0
 40
3.2797069193445809
 50
255.21826173708661
 51
284.80772376116329
  0
ARC
  5
45D2
  8
\M+2BBB2\M+2A755\M+2BD75
 10
-678.74562063110068
 20
-831.56528203171035
 30
0.0
 40
3.3387619193445821
 50
255.21826173708661
 51
284.80772376116329
  0
LINE
  5
45D3
  8
\M+2BBB2\M+2A755\M+2BD75
 10
-677.88647538604482
 20
-831.67232307777022
 30
0.0
 11
-677.89551240615663
 21
-831.92353830981347
 31
0.0
  0
LINE
  5
45D4
  8
\M+2BBB2\M+2A755\M+2BD75
 10
-677.54416617016466
 20
-832.04027810082869
 30
0.0
 11
-677.77992837533384
 21
-832.05245422228461
 31
0.0
  0
LINE
  5
45D5
  8
\M+2BBB2\M+2A755\M+2BD75
 10
-679.6068863773894
 20
-831.67232307776806
 30
0.0
 11
-679.59784935727805
 21
-831.92353830981142
 31
0.0
  0
LINE
  5
45D6
  8
\M+2BBB2\M+2A755\M+2BD75
 10
-679.94919559327047
 20
-832.04027810082596
 30
0.0
 11
-679.71343338810129
 21
-832.05245422228222
 31
0.0
  0
LINE
  5
45D7
  8
\M+2BBB2\M+2A755\M+2BD75
 10
-677.88647538604573
 20
-835.04521948159697
 30
0.0
 11
-677.8955124061572
 21
-834.79400424955372
 31
0.0
  0
LINE
  5
45D8
  8
\M+2BBB2\M+2A755\M+2BD75
 10
-677.54416617016523
 20
-834.67726445853816
 30
0.0
 11
-677.77992837533452
 21
-834.66508833708224
 31
0.0
  0
LINE
  5
45D9
  8
\M+2BBB2\M+2A755\M+2BD75
 10
-679.6068863773902
 20
-835.04521948159822
 30
0.0
 11
-679.59784935727885
 21
-834.79400424955509
 31
0.0
  0
LINE
  5
45DA
  8
\M+2BBB2\M+2A755\M+2BD75
 10
-679.94919559327116
 20
-834.67726445854009
 30
0.0
 11
-679.71343338810175
 21
-834.66508833708394
 31
0.0
  0
LINE
  5
45DB
  8
\M+2BBB2\M+2A755\M+2BD75
 10
-674.97053181468084
 20
-831.81349877665207
 30
0.0
 11
-674.97053181468084
 21
-831.87255377968324
 31
0.0
  0
LINE
  5
45DC
  8
\M+2BBB2\M+2A755\M+2BD75
 10
-675.0295868146809
 20
-831.96851815468369
 30
0.0
 11
-675.0295868146809
 21
-833.35877127968376
 31
0.0
  0
LINE
  5
45DD
  8
\M+2BBB2\M+2A755\M+2BD75
 10
-675.0295868146809
 20
-831.96851815468369
 30
0.0
 11
-674.97053181468084
 21
-831.87255377968324
 31
0.0
  0
LINE
  5
45DE
  8
\M+2BBB2\M+2A755\M+2BD75
 10
-675.14769681468101
 20
-832.04027810082869
 30
0.0
 11
-675.14769681468101
 21
-833.35877127968376
 31
0.0
  0
ARC
  5
45DF
  8
\M+2BBB2\M+2A755\M+2BD75
 10
-685.04978499227354
 20
-835.1522605276532
 30
0.0
 40
3.304903719344582
 50
76.73741190475711
 51
103.28839127454169
  0
LINE
  5
45E0
  8
\M+2BBB2\M+2A755\M+2BD75
 10
-685.98392295180327
 20
-832.10339345925445
 30
0.0
 11
-685.98392295180327
 21
-832.30922622807066
 31
0.0
  0
LINE
  5
45E1
  8
\M+2BBB2\M+2A755\M+2BD75
 10
-685.98392295179883
 20
-834.61414910011069
 30
0.0
 11
-685.98392295179929
 21
-834.40831633129426
 31
0.0
  0
ARC
  5
45E2
  8
\M+2BBB2\M+2A755\M+2BD75
 10
-685.04978499228025
 20
-831.56528203171217
 30
0.0
 40
3.304903719344582
 50
256.71160872557817
 51
283.26258809555731
  0
LINE
  5
45E3
  8
\M+2BBB2\M+2A755\M+2BD75
 10
-684.11776753398556
 20
-834.61414910010251
 30
0.0
 11
-684.11776753398635
 21
-834.40831633128766
 31
0.0
  0
LINE
  5
45E4
  8
\M+2BBB2\M+2A755\M+2BD75
 10
-684.11776753399022
 20
-832.1033934592557
 30
0.0
 11
-684.11776753399045
 21
-832.30922622807043
 31
0.0
  0
LINE
  5
45E5
  8
\M+2BBB2\M+2A755\M+2BD75
 10
-684.11776753399045
 20
-832.53824133129467
 30
0.0
 11
-684.1177675339909
 21
-833.3587712796857
 31
0.0
  0
LINE
  5
45E6
  8
\M+2BBB2\M+2A755\M+2BD75
 10
-685.98392295180327
 20
-832.53824133129444
 30
0.0
 11
-685.98392295180327
 21
-833.35877127968524
 31
0.0
  0
LINE
  5
45E7
  8
\M+2BBB2\M+2A755\M+2BD75
 10
-684.11776753398715
 20
-834.1793012280632
 30
0.0
 11
-684.1177675339909
 21
-833.35877127967649
 31
0.0
  0
LINE
  5
45E8
  8
\M+2BBB2\M+2A755\M+2BD75
 10
-685.98392295180042
 20
-834.1793012280707
 30
0.0
 11
-685.98392295180327
 21
-833.35877127968376
 31
0.0
  0
LINE
  5
45E9
  8
\M+2BBB2\M+2A755\M+2BD75
 10
-685.74966274289534
 20
-832.00050627968517
 30
0.0
 11
-685.05084524289657
 21
-832.00050627968551
 31
0.0
  0
LINE
  5
45EA
  8
\M+2BBB2\M+2A755\M+2BD75
 10
-685.93904115180351
 20
-832.15598568962218
 30
0.0
 11
-685.93904115180351
 21
-832.29636551480007
 31
0.0
  0
LINE
  5
45EB
  8
\M+2BBB2\M+2A755\M+2BD75
 10
-684.35202774289792
 20
-832.00050627968551
 30
0.0
 11
-685.05084524289714
 21
-832.00050627968551
 31
0.0
  0
LINE
  5
45EC
  8
\M+2BBB2\M+2A755\M+2BD75
 10
-684.1626493339902
 20
-832.15598568962253
 30
0.0
 11
-684.16264933399043
 21
-832.29636551480007
 31
0.0
  0
LINE
  5
45ED
  8
\M+2BBB2\M+2A755\M+2BD75
 10
-685.74966274289216
 20
-834.71703627968304
 30
0.0
 11
-685.05084524289157
 21
-834.7170362796802
 31
0.0
  0
LINE
  5
45EE
  8
\M+2BBB2\M+2A755\M+2BD75
 10
-685.93904115179885
 20
-834.56155686974228
 30
0.0
 11
-685.93904115179942
 21
-834.42117704456484
 31
0.0
  0
LINE
  5
45EF
  8
\M+2BBB2\M+2A755\M+2BD75
 10
-684.35202774289087
 20
-834.71703627967736
 30
0.0
 11
-685.05084524289202
 21
-834.7170362796802
 31
0.0
  0
LINE
  5
45F0
  8
\M+2BBB2\M+2A755\M+2BD75
 10
-684.16264933398566
 20
-834.56155686973557
 30
0.0
 11
-684.16264933398634
 21
-834.42117704455779
 31
0.0
  0
LINE
  5
45F1
  8
\M+2BBB2\M+2A755\M+2BD75
 10
-684.16264933398725
 20
-834.16644051479318
 30
0.0
 11
-684.16264933399088
 21
-833.35877127967683
 31
0.0
  0
LINE
  5
45F2
  8
\M+2BBB2\M+2A755\M+2BD75
 10
-685.93904115180044
 20
-834.16644051480023
 30
0.0
 11
-685.93904115180351
 21
-833.35877127968365
 31
0.0
  0
LINE
  5
45F3
  8
\M+2BBB2\M+2A755\M+2BD75
 10
-685.93904115180351
 20
-832.55110204456469
 30
0.0
 11
-685.93904115180351
 21
-833.35877127968524
 31
0.0
  0
LINE
  5
45F4
  8
\M+2BBB2\M+2A755\M+2BD75
 10
-684.16264933399043
 20
-832.55110204456469
 30
0.0
 11
-684.16264933399088
 21
-833.3587712796857
 31
0.0
  0
DIMENSION
  5
45F5
  8
DIM
  2
*D19
 10
-684.23391774289655
 20
-831.03732382753867
 30
0.0
 11
-685.06596889677326
 21
-831.03732382753867
 31
0.0
 70
   128
 13
-685.86777274289659
 23
-832.04971877968228
 33
0.0
 14
-684.23391774289655
 24
-832.04971877968228
 34
0.0
  0
DIMENSION
  5
45F7
  8
DIM
  2
*D20
 10
-684.17486274289661
 20
-830.48477759837795
 30
0.0
 11
-685.12526142343916
 21
-830.48477759837795
 31
0.0
 70
   128
 13
-685.92682774289665
 23
-832.42373377968249
 33
0.0
 14
-684.17486274289661
 24
-832.42373377968249
 34
0.0
  0
DIMENSION
  5
45F9
  8
DIM
  2
*D21
 10
-688.87559330435329
 20
-834.66782377968207
 30
0.0
 11
-688.87559330435306
 21
-833.50665450491124
 31
0.0
 70
   128
 13
-685.86777274289659
 23
-832.04971877968228
 33
0.0
 14
-685.86777274289182
 24
-834.66782377968207
 34
0.0
 50
90.0
  0
DIMENSION
  5
45FB
  8
DIM
  2
*D22
 10
-688.11248634079595
 20
-832.42373377968249
 30
0.0
 11
-688.11248634079573
 21
-832.93466510886162
 31
0.0
 70
   128
 13
-685.92682774289312
 23
-834.29380877968219
 33
0.0
 14
-685.92682774289665
 24
-832.42373377968249
 34
0.0
 50
90.0
  0
DIMENSION
  5
460E
  8
DIM
  2
*D23
 10
-674.97053181468084
 20
-830.40575298888609
 30
0.0
 11
-676.68113623204044
 21
-830.40575298888609
 31
0.0
 70
   128
 13
-675.54139681468075
 23
-831.61664877968019
 33
0.0
 14
-674.97053181468084
 24
-831.81349877665207
 34
0.0
  0
DIMENSION
  5
4610
  8
DIM
  2
*D24
 10
-675.0295868146809
 20
-830.91749370726245
 30
0.0
 11
-676.62532538610935
 21
-830.91749370726245
 31
0.0
 70
   128
 13
-675.54139681468075
 23
-831.61664877968019
 33
0.0
 14
-675.0295868146809
 24
-832.07950908554938
 34
0.0
  0
DIMENSION
  5
4612
  8
DIM
  2
*D25
 10
-676.48891361289736
 20
-834.7170362796752
 30
0.0
 11
-676.48891361289725
 21
-833.46134117443626
 31
0.0
 70
   128
 13
-678.01254156372943
 23
-832.00050627968358
 33
0.0
 14
-678.01254156371874
 24
-834.7170362796752
 34
0.0
 50
90.0
  0
DIMENSION
  5
4614
  8
DIM
  2
*D26
 10
-677.85848497280574
 20
-835.80241822598362
 30
0.0
 11
-678.75760575707704
 21
-835.80241822598362
 31
0.0
 70
   128
  1
{\fTahoma|b0|i0|c0|p32;1.77 [}45{\fTahoma|b0|i0|c0|p32;]}
 13
-679.6339290783211
 23
-834.6685186484666
 33
0.0
 14
-677.85848497280574
 24
-834.66851864845898
 34
0.0
  0
DIMENSION
  5
461E
  8
DIM
  2
*D27
 10
-686.29100024289664
 20
-833.62725548945264
 30
0.0
 11
-687.32730976670643
 21
-833.62725548945264
 31
0.0
 70
   128
 13
-686.25163024289691
 23
-833.35877127968126
 33
0.0
 14
-686.29100024289664
 24
-833.3587712796832
 34
0.0
  0
LINE
  5
4620
  8
\M+2BBB2\M+2A755\M+2BD75
 10
-681.83279968712372
 20
-831.61664877967564
 30
0.0
 11
-681.83279968712372
 21
-833.3587712796791
 31
0.0
  0
LINE
  5
4621
  8
\M+2BBB2\M+2A755\M+2BD75
 10
-681.87216968712369
 20
-831.65601877967561
 30
0.0
 11
-681.87216968712369
 21
-831.92176627967774
 31
0.0
  0
LINE
  5
4622
  8
\M+2BBB2\M+2A755\M+2BD75
 10
-681.87216968712369
 20
-832.17767127967772
 30
0.0
 11
-681.87216968712369
 21
-833.3587712796791
 31
0.0
  0
LINE
  5
4623
  8
\M+2BBB2\M+2A755\M+2BD75
 10
-681.85642168712366
 20
-831.92176627967774
 30
0.0
 11
-681.85642168712366
 21
-831.98082127967768
 31
0.0
  0
LINE
  5
4624
  8
\M+2BBB2\M+2A755\M+2BD75
 10
-682.26586968712365
 20
-831.94623141261366
 30
0.0
 11
-682.26586968712365
 21
-833.3587712796791
 31
0.0
  0
LINE
  5
4625
  8
\M+2BBB2\M+2A755\M+2BD75
 10
-681.87216968712369
 20
-831.70862980521645
 30
0.0
 11
-682.26601146203734
 21
-831.72238306305439
 31
0.0
  0
LINE
  5
4626
  8
\M+2BBB2\M+2A755\M+2BD75
 10
-682.26586968712365
 20
-831.94623141261366
 30
0.0
 11
-682.32981179861372
 21
-831.84232548144234
 31
0.0
  0
LINE
  5
4627
  8
\M+2BBB2\M+2A755\M+2BD75
  6
HIDDEN2
 62
     1
 10
-681.87610668712364
 20
-832.09893127967769
 30
0.0
 11
-682.26586968712365
 21
-832.09893127967769
 31
0.0
  0
LINE
  5
4628
  8
\M+2BBB2\M+2A755\M+2BD75
  6
HIDDEN2
 62
     1
 10
-681.87610668712364
 20
-832.00050627967767
 30
0.0
 11
-682.26586968712365
 21
-832.00050627967767
 31
0.0
  0
LINE
  5
4629
  8
\M+2BBB2\M+2A755\M+2BD75
  6
HIDDEN2
 62
     1
 10
-681.85642168712366
 20
-831.98082127967768
 30
0.0
 11
-681.87610668712364
 21
-832.00050627967767
 31
0.0
  0
LINE
  5
462A
  8
\M+2BBB2\M+2A755\M+2BD75
 10
-681.85642168712366
 20
-831.92176627967774
 30
0.0
 11
-682.28092515354581
 21
-831.92176627967774
 31
0.0
  0
LINE
  5
462B
  8
\M+2BBB2\M+2A755\M+2BD75
 10
-681.85642168712366
 20
-832.17767127967772
 30
0.0
 11
-682.26586968712365
 21
-832.17767127967772
 31
0.0
  0
LINE
  5
462C
  8
\M+2BBB2\M+2A755\M+2BD75
 10
-681.83279968712372
 20
-831.65601877967561
 30
0.0
 11
-681.87216968712369
 21
-831.65601877967561
 31
0.0
  0
LINE
  5
462D
  8
\M+2BBB2\M+2A755\M+2BD75
 10
-681.85642168712366
 20
-832.11861627967767
 30
0.0
 11
-681.85642168712366
 21
-832.17767127967772
 31
0.0
  0
LINE
  5
462E
  8
\M+2BBB2\M+2A755\M+2BD75
  6
HIDDEN2
 62
     1
 10
-681.87610668712364
 20
-832.09893127967769
 30
0.0
 11
-681.85642168712366
 21
-832.11861627967767
 31
0.0
  0
LINE
  5
462F
  8
\M+2BBB2\M+2A755\M+2BD75
  6
HIDDEN2
 62
     1
 10
-681.85642168712366
 20
-831.98082127967768
 30
0.0
 11
-681.85642168712366
 21
-832.11861627967767
 31
0.0
  0
LINE
  5
4630
  8
\M+2BBB2\M+2A755\M+2BD75
  6
HIDDEN2
 62
     1
 10
-682.26586968712365
 20
-832.37944252967759
 30
0.0
 11
-682.26586968712365
 21
-832.46802502967773
 31
0.0
  0
LINE
  5
4631
  8
\M+2BBB2\M+2A755\M+2BD75
  6
HIDDEN2
 62
     1
 10
-682.26586968712365
 20
-832.46802502967773
 30
0.0
 11
-682.02964968712365
 21
-832.46802502967773
 31
0.0
  0
LINE
  5
4632
  8
\M+2BBB2\M+2A755\M+2BD75
  6
HIDDEN2
 62
     1
 10
-682.26586968712365
 20
-832.37944252967759
 30
0.0
 11
-682.02964968712365
 21
-832.37944252967759
 31
0.0
  0
LINE
  5
4633
  8
\M+2BBB2\M+2A755\M+2BD75
  6
HIDDEN2
 62
     1
 10
-682.00996468712356
 20
-832.35975752967761
 30
0.0
 11
-682.02964968712365
 21
-832.37944252967759
 31
0.0
  0
LINE
  5
4634
  8
\M+2BBB2\M+2A755\M+2BD75
 10
-682.26586968712365
 20
-832.5516862796776
 30
0.0
 11
-682.00996468712356
 21
-832.5516862796776
 31
0.0
  0
LINE
  5
4635
  8
\M+2BBB2\M+2A755\M+2BD75
 10
-682.26586968712365
 20
-832.29578127967784
 30
0.0
 11
-682.00996468712356
 21
-832.29578127967784
 31
0.0
  0
LINE
  5
4636
  8
\M+2BBB2\M+2A755\M+2BD75
 10
-682.00996468712356
 20
-832.29578127967784
 30
0.0
 11
-682.00996468712356
 21
-832.35975752967761
 31
0.0
  0
LINE
  5
4637
  8
\M+2BBB2\M+2A755\M+2BD75
 10
-682.00996468712356
 20
-832.48771002967771
 30
0.0
 11
-682.00996468712356
 21
-832.5516862796776
 31
0.0
  0
LINE
  5
4638
  8
\M+2BBB2\M+2A755\M+2BD75
  6
HIDDEN2
 62
     1
 10
-682.02964968712365
 20
-832.46802502967773
 30
0.0
 11
-682.00996468712356
 21
-832.48771002967771
 31
0.0
  0
LINE
  5
4639
  8
\M+2BBB2\M+2A755\M+2BD75
  6
HIDDEN2
 62
     1
 10
-682.00996468712356
 20
-832.35975752967761
 30
0.0
 11
-682.00996468712356
 21
-832.48771002967771
 31
0.0
  0
LINE
  5
463A
  8
\M+2BBB2\M+2A755\M+2BD75
  6
HIDDEN2
 62
     1
 10
-682.02964968712365
 20
-832.37944252967759
 30
0.0
 11
-682.02964968712365
 21
-832.46802502967773
 31
0.0
  0
LINE
  5
463B
  8
\M+2B5EA\M+2BD75
 10
-681.87610668712364
 20
-832.00050627967767
 30
0.0
 11
-681.87610668712364
 21
-832.09893127967769
 31
0.0
  0
LINE
  5
463C
  8
\M+2B5EA\M+2BD75
 10
-682.26586968712365
 20
-832.00050627967767
 30
0.0
 11
-682.26586968712365
 21
-832.09893127967769
 31
0.0
  0
LINE
  5
463D
  8
\M+2BBB2\M+2A755\M+2BD75
 10
-681.83279968711952
 20
-835.10089377968166
 30
0.0
 11
-681.83279968712372
 21
-833.35877127967808
 31
0.0
  0
LINE
  5
463E
  8
\M+2BBB2\M+2A755\M+2BD75
 10
-681.87216968711971
 20
-835.06152377968158
 30
0.0
 11
-681.87216968712016
 21
-834.79577627967944
 31
0.0
  0
LINE
  5
463F
  8
\M+2BBB2\M+2A755\M+2BD75
 10
-681.87216968712073
 20
-834.53987127967946
 30
0.0
 11
-681.87216968712369
 21
-833.35877127967808
 31
0.0
  0
LINE
  5
4640
  8
\M+2BBB2\M+2A755\M+2BD75
 10
-681.85642168712025
 20
-834.79577627967922
 30
0.0
 11
-681.85642168712025
 21
-834.7367212796795
 31
0.0
  0
LINE
  5
4641
  8
\M+2BBB2\M+2A755\M+2BD75
 10
-682.26586968712024
 20
-834.77131114674421
 30
0.0
 11
-682.26586968712365
 21
-833.35877127967899
 31
0.0
  0
LINE
  5
4642
  8
\M+2BBB2\M+2A755\M+2BD75
 10
-682.26586968712024
 20
-834.77131114674421
 30
0.0
 11
-682.32981179860803
 21
-834.87521707791245
 31
0.0
  0
LINE
  5
4643
  8
\M+2BBB2\M+2A755\M+2BD75
  6
HIDDEN2
 62
     1
 10
-681.87610668712045
 20
-834.61861127967973
 30
0.0
 11
-682.2658696871207
 21
-834.61861127968018
 31
0.0
  0
LINE
  5
4644
  8
\M+2BBB2\M+2A755\M+2BD75
  6
HIDDEN2
 62
     1
 10
-681.87610668712034
 20
-834.71703627967952
 30
0.0
 11
-682.26586968712024
 21
-834.7170362796802
 31
0.0
  0
LINE
  5
4645
  8
\M+2BBB2\M+2A755\M+2BD75
  6
HIDDEN2
 62
     1
 10
-681.85642168712025
 20
-834.7367212796795
 30
0.0
 11
-681.87610668712034
 21
-834.71703627967952
 31
0.0
  0
LINE
  5
4646
  8
\M+2BBB2\M+2A755\M+2BD75
 10
-681.85642168712025
 20
-834.79577627967922
 30
0.0
 11
-682.28092515354228
 21
-834.79577627968035
 31
0.0
  0
LINE
  5
4647
  8
\M+2BBB2\M+2A755\M+2BD75
 10
-681.85642168712093
 20
-834.53987127967946
 30
0.0
 11
-682.26586968712093
 21
-834.53987127968037
 31
0.0
  0
LINE
  5
4648
  8
\M+2BBB2\M+2A755\M+2BD75
 10
-681.83279968711963
 20
-835.06152377968124
 30
0.0
 11
-681.87216968711971
 21
-835.06152377968158
 31
0.0
  0
LINE
  5
4649
  8
\M+2BBB2\M+2A755\M+2BD75
 10
-681.8564216871207
 20
-834.59892627967952
 30
0.0
 11
-681.85642168712093
 21
-834.53987127967946
 31
0.0
  0
LINE
  5
464A
  8
\M+2BBB2\M+2A755\M+2BD75
  6
HIDDEN2
 62
     1
 10
-681.87610668712045
 20
-834.61861127967973
 30
0.0
 11
-681.8564216871207
 21
-834.59892627967952
 31
0.0
  0
LINE
  5
464B
  8
\M+2BBB2\M+2A755\M+2BD75
  6
HIDDEN2
 62
     1
 10
-681.85642168712025
 20
-834.7367212796795
 30
0.0
 11
-681.8564216871207
 21
-834.59892627967952
 31
0.0
  0
LINE
  5
464C
  8
\M+2BBB2\M+2A755\M+2BD75
  6
HIDDEN2
 62
     1
 10
-682.26586968712115
 20
-834.3381000296805
 30
0.0
 11
-682.26586968712161
 21
-834.24951752968036
 31
0.0
  0
LINE
  5
464D
  8
\M+2BBB2\M+2A755\M+2BD75
  6
HIDDEN2
 62
     1
 10
-682.26586968712161
 20
-834.24951752968036
 30
0.0
 11
-682.0296496871216
 21
-834.24951752967968
 31
0.0
  0
LINE
  5
464E
  8
\M+2BBB2\M+2A755\M+2BD75
  6
HIDDEN2
 62
     1
 10
-682.26586968712115
 20
-834.3381000296805
 30
0.0
 11
-682.02964968712138
 21
-834.33810002967982
 31
0.0
  0
LINE
  5
464F
  8
\M+2BBB2\M+2A755\M+2BD75
  6
HIDDEN2
 62
     1
 10
-682.00996468712128
 20
-834.35778502967958
 30
0.0
 11
-682.02964968712138
 21
-834.33810002967982
 31
0.0
  0
LINE
  5
4650
  8
\M+2BBB2\M+2A755\M+2BD75
 10
-682.26586968712172
 20
-834.1658562796805
 30
0.0
 11
-682.00996468712174
 21
-834.16585627967959
 31
0.0
  0
LINE
  5
4651
  8
\M+2BBB2\M+2A755\M+2BD75
 10
-682.26586968712115
 20
-834.42176127968048
 30
0.0
 11
-682.00996468712106
 21
-834.42176127967957
 31
0.0
  0
LINE
  5
4652
  8
\M+2BBB2\M+2A755\M+2BD75
 10
-682.00996468712106
 20
-834.42176127967957
 30
0.0
 11
-682.00996468712128
 21
-834.35778502967958
 31
0.0
  0
LINE
  5
4653
  8
\M+2BBB2\M+2A755\M+2BD75
 10
-682.00996468712162
 20
-834.2298325296797
 30
0.0
 11
-682.00996468712174
 21
-834.16585627967959
 31
0.0
  0
LINE
  5
4654
  8
\M+2BBB2\M+2A755\M+2BD75
  6
HIDDEN2
 62
     1
 10
-682.0296496871216
 20
-834.24951752967968
 30
0.0
 11
-682.00996468712162
 21
-834.2298325296797
 31
0.0
  0
LINE
  5
4655
  8
\M+2BBB2\M+2A755\M+2BD75
  6
HIDDEN2
 62
     1
 10
-682.00996468712128
 20
-834.35778502967958
 30
0.0
 11
-682.00996468712162
 21
-834.2298325296797
 31
0.0
  0
LINE
  5
4656
  8
\M+2BBB2\M+2A755\M+2BD75
  6
HIDDEN2
 62
     1
 10
-682.02964968712138
 20
-834.33810002967982
 30
0.0
 11
-682.0296496871216
 21
-834.24951752967968
 31
0.0
  0
LINE
  5
4657
  8
\M+2B5EA\M+2BD75
 10
-681.87610668712034
 20
-834.71703627967952
 30
0.0
 11
-681.87610668712045
 21
-834.61861127967973
 31
0.0
  0
LINE
  5
4658
  8
\M+2B5EA\M+2BD75
 10
-682.26586968712024
 20
-834.7170362796802
 30
0.0
 11
-682.2658696871207
 21
-834.61861127968018
 31
0.0
  0
DIMENSION
  5
4659
  8
DIM
  2
*D28
 10
-681.87216968712369
 20
-831.34864008764771
 30
0.0
 11
-682.90847921093325
 21
-831.34864008764771
 31
0.0
 70
   128
 13
-681.83279968712361
 23
-831.61664877967564
 33
0.0
 14
-681.87216968712369
 24
-831.65601877967561
 34
0.0
 50
180.0
  0
DIMENSION
  5
465B
  8
DIM
  2
*D29
 10
-682.26586968712365
 20
-832.88069157589757
 30
0.0
 11
-683.28891723527215
 21
-832.88069157589757
 31
0.0
 70
   128
  1
{\fTahoma|b0|i0|c0|p32;.177 [}4.5{\fTahoma|b0|i0|c0|p32;]}
 13
-682.00996468712356
 23
-832.5516862796776
 33
0.0
 14
-682.26586968712365
 24
-832.5516862796776
 34
0.0
 50
180.0
  0
DIMENSION
  5
465D
  8
DIM
  2
*D30
 10
-679.57582179062376
 20
-832.05956127968318
 30
0.0
 11
-681.51747072114426
 21
-830.93996279070188
 31
0.0
 70
   132
 15
-679.61427004910195
 25
-832.0147369063468
 35
0.0
 40
0.0
  0
ARC
  5
465F
  8
\M+2BBB2\M+2A755\M+2BD75
 10
-674.08782208408479
 20
-832.04027810082869
 30
0.0
 40
1.0598747305961811
 50
157.74987408165379
 51
180.0
  0
LINE
  5
4660
  8
\M+2BBB2\M+2A755\M+2BD75
 10
-675.05574584400756
 20
-831.65329935911666
 30
0.0
 11
-674.97053181468084
 21
-831.81349877665207
 31
0.0
  0
ARC
  5
4661
  8
\M+2BBB2\M+2A755\M+2BD75
 10
-675.09050438844872
 20
-831.67178828792134
 30
0.0
 40
0.03937
 50
28.0096152763455
 51
87.999999999999517
  0
LINE
  5
4662
  8
\M+2BBB2\M+2A755\M+2BD75
 10
-675.54139681468075
 20
-835.10089377968734
 30
0.0
 11
-675.54139681468075
 21
-833.35877127968365
 31
0.0
  0
LINE
  5
4663
  8
\M+2BBB2\M+2A755\M+2BD75
 10
-675.14769681468101
 20
-834.67726445853884
 30
0.0
 11
-675.14769681468101
 21
-833.35877127968365
 31
0.0
  0
LINE
  5
4664
  8
\M+2BBB2\M+2A755\M+2BD75
 10
-675.0295868146809
 20
-834.74902440468406
 30
0.0
 11
-675.0295868146809
 21
-833.35877127968365
 31
0.0
  0
LINE
  5
4665
  8
\M+2BBB2\M+2A755\M+2BD75
 10
-674.97053181468084
 20
-834.90404378271558
 30
0.0
 11
-674.97053181468084
 21
-834.84498877968417
 31
0.0
  0
LINE
  5
4666
  8
\M+2BBB2\M+2A755\M+2BD75
 10
-675.54139681468075
 20
-835.10089377968734
 30
0.0
 11
-675.08913039526362
 21
-835.08510028830574
 31
0.0
  0
LINE
  5
4667
  8
\M+2BBB2\M+2A755\M+2BD75
 10
-675.0295868146809
 20
-834.74902440468406
 30
0.0
 11
-674.97053181468084
 21
-834.84498877968417
 31
0.0
  0
ARC
  5
4668
  8
\M+2BBB2\M+2A755\M+2BD75
 10
-674.08782208408479
 20
-834.67726445853884
 30
0.0
 40
1.0598747305961811
 50
180.0
 51
202.2501259183461
  0
LINE
  5
4669
  8
\M+2BBB2\M+2A755\M+2BD75
 10
-675.05574584400756
 20
-835.06424320025064
 30
0.0
 11
-674.97053181468084
 21
-834.90404378271558
 31
0.0
  0
ARC
  5
466A
  8
\M+2BBB2\M+2A755\M+2BD75
 10
-675.09050438844872
 20
-835.04575427144619
 30
0.0
 40
0.03937
 50
272.00000000000051
 51
331.99038472365447
  0
LINE
  5
466B
  8
\M+2BBB2\M+2A755\M+2BD75
 10
-681.83279968712372
 20
-831.61664877967564
 30
0.0
 11
-681.83279968712372
 21
-833.3587712796791
 31
0.0
  0
LINE
  5
466C
  8
\M+2BBB2\M+2A755\M+2BD75
 10
-682.34460968712358
 20
-831.9685181546788
 30
0.0
 11
-682.34460968712358
 21
-833.3587712796791
 31
0.0
  0
LINE
  5
466D
  8
\M+2BBB2\M+2A755\M+2BD75
 10
-682.40366468712364
 20
-831.81349877664707
 30
0.0
 11
-682.40366468712364
 21
-831.87255377967847
 31
0.0
  0
LINE
  5
466E
  8
\M+2BBB2\M+2A755\M+2BD75
 10
-681.83279968712372
 20
-831.61664877967564
 30
0.0
 11
-682.28506610654085
 21
-831.63244227105702
 31
0.0
  0
LINE
  5
466F
  8
\M+2BBB2\M+2A755\M+2BD75
 10
-682.34460968712358
 20
-831.9685181546788
 30
0.0
 11
-682.40366468712364
 21
-831.87255377967847
 31
0.0
  0
LINE
  5
4670
  8
\M+2BBB2\M+2A755\M+2BD75
 10
-682.3184506577968
 20
-831.65329935911188
 30
0.0
 11
-682.40366468712364
 21
-831.81349877664707
 31
0.0
  0
ARC
  5
4671
  8
\M+2BBB2\M+2A755\M+2BD75
 10
-682.28369211335576
 20
-831.67178828791668
 30
0.0
 40
0.03937
 50
92.000000000000483
 51
151.99038472365439
  0
LINE
  5
4672
  8
\M+2BBB2\M+2A755\M+2BD75
 10
-681.83279968712372
 20
-835.10089377968245
 30
0.0
 11
-681.83279968712372
 21
-833.3587712796791
 31
0.0
  0
LINE
  5
4673
  8
\M+2BBB2\M+2A755\M+2BD75
 10
-682.34460968712358
 20
-834.74902440467918
 30
0.0
 11
-682.34460968712358
 21
-833.35877127967899
 31
0.0
  0
LINE
  5
4674
  8
\M+2BBB2\M+2A755\M+2BD75
 10
-682.40366468712364
 20
-834.90404378271057
 30
0.0
 11
-682.40366468712364
 21
-834.8449887796794
 31
0.0
  0
LINE
  5
4675
  8
\M+2BBB2\M+2A755\M+2BD75
 10
-681.83279968712372
 20
-835.10089377968245
 30
0.0
 11
-682.28506610654085
 21
-835.08510028830108
 31
0.0
  0
LINE
  5
4676
  8
\M+2BBB2\M+2A755\M+2BD75
 10
-682.34460968712358
 20
-834.74902440467918
 30
0.0
 11
-682.40366468712364
 21
-834.8449887796794
 31
0.0
  0
LINE
  5
4677
  8
\M+2BBB2\M+2A755\M+2BD75
 10
-682.3184506577968
 20
-835.06424320024587
 30
0.0
 11
-682.40366468712364
 21
-834.90404378271057
 31
0.0
  0
ARC
  5
4678
  8
\M+2BBB2\M+2A755\M+2BD75
 10
-682.28369211335576
 20
-835.04575427144118
 30
0.0
 40
0.03937
 50
208.00961527634539
 51
267.99999999999932
  0
LINE
  5
4679
  8
\M+2BBB2\M+2A755\M+2BD75
 10
-682.26601146203734
 20
-831.72238306305439
 30
0.0
 11
-682.32981179861372
 21
-831.84232548144234
 31
0.0
  0
LINE
  5
467A
  8
\M+2BBB2\M+2A755\M+2BD75
 10
-681.87216968711573
 20
-835.00891275413926
 30
0.0
 11
-682.26601146202972
 21
-834.99515949630279
 31
0.0
  0
LINE
  5
467B
  8
\M+2BBB2\M+2A755\M+2BD75
 10
-682.26601146202972
 20
-834.99515949630279
 30
0.0
 11
-682.32981179860803
 21
-834.87521707791245
 31
0.0
  0
INSERT
  5
467C
  8
\M+2ADE5\M+2ADB1\M+2BD75
  6
CONTINUOUS
  2
*X48
 10
0.0
 20
0.0
 30
0.0
1001
ACAD
1000
HATCH
1002
{
1070
    19
1000
ANSI31
1040
0.007874
1040
0.0
1000
R14_HATCH_DATA
1000
467C
1011
1.0
1021
0.0
1031
0.0
1021
0.0
1031
0.0
1011
0.0
1021
0.0
1031
0.0
1021
1.0
1031
0.0
1011
0.0
1021
0.0
1031
0.0
1021
0.0
1031
1.0
1040
0.0
1010
0.0
1020
0.0
1030
1.0
1000
ANSI31
1070
     0
1070
     0
1071
        1
1071
        7
1070
     1
1070
     1
1071
       26
1040
-681.87216968712369
1040
-831.65601877967561
1040
0.0
1040
-681.83279968712361
1040
-831.65601877967561
1040
0.0
1040
-681.83279968712361
1040
-831.61664877967564
1040
0.0
1040
-682.28506610654085
1040
-831.63244227105702
1040
0.2679042261771816
1040
-682.3184506577968
1040
-831.65329935911188
1040
0.0
1040
-682.40366468712364
1040
-831.81349877664707
1040
0.0
1040
-682.40366468712364
1040
-831.87255377967847
1040
0.0
1040
-682.34460968712358
1040
-831.9685181546788
1040
0.0
1040
-682.34460968712358
1040
-833.3587712796791
1040
0.0
1040
-682.34460968712358
1040
-834.74902440467918
1040
0.0
1040
-682.40366468712364
1040
-834.8449887796794
1040
0.0
1040
-682.40366468712364
1040
-834.90404378271057
1040
0.0
1040
-682.3184506577968
1040
-835.0642432002461
1040
0.2679042261771767
1040
-682.28506610654085
1040
-835.08510028830108
1040
0.0
1040
-681.83279968712361
1040
-835.10089377968245
1040
0.0
1040
-681.83279968712361
1040
-835.06152377968124
1040
0.0
1040
-681.87216968711959
1040
-835.06152377968158
1040
0.0
1040
-681.87216968711971
1040
-835.00891275413915
1040
0.0
1040
-682.26601146202972
1040
-834.99515949630324
1040
0.0
1040
-682.32981179860803
1040
-834.87521707791245
1040
0.0
1040
-682.26586968712024
1040
-834.77131114674421
1040
0.0
1040
-682.26586968712365
1040
-833.35877127967899
1040
0.0
1040
-682.26586968712365
1040
-831.94623141261366
1040
0.0
1040
-682.32981179861338
1040
-831.84232548144234
1040
0.0
1040
-682.26601146203734
1040
-831.72238306305439
1040
0.0
1040
-681.87216968712369
1040
-831.70862980521645
1040
0.0
1071
        0
1070
     0
1070
     1
1040
0.0
1040
0.007874
1070
     0
1070
     1
1040
0.7853981633974483
1040
-693.9491953927452
1040
-843.14472345211686
1040
-0.0176776341743246
1040
0.0176776341743246
1070
     0
1040
0.1361374281129417
1071
        1
1040
-682.18805776871955
1040
-831.70692988659266
1040
0.0
1002
}
  0
TEXT
  5
4D1A
  8
0
 10
-681.83754235702861
 20
-836.60288271506568
 30
0.0
 40
0.3913161670120417
  1
LID
1001
ACAD
1000
ACAD_MTEXT_DEFINED_HEIGHT_BEGIN
1070
    46
1040
0.0
1000
ACAD_MTEXT_DEFINED_HEIGHT_END
1000
MTEXTBEGIN
1070
    73
1070
     1
1070
    44
1040
1.0
1070
    74
1070
     0
1000
MTEXTEND
  0
TEXT
  5
4D1B
  8
0
 10
-685.47501087934825
 20
-844.66641490803067
 30
0.0
 40
0.3913161670120417
  1
BASE
1001
ACAD
1000
ACAD_MTEXT_DEFINED_HEIGHT_BEGIN
1070
    46
1040
0.0
1000
ACAD_MTEXT_DEFINED_HEIGHT_END
1000
MTEXTBEGIN
1070
    73
1070
     1
1070
    44
1040
1.0
1070
    74
1070
     0
1000
MTEXTEND
  0
POLYLINE
  5
5A07
  8
\M+2A4A4\M+2A4DF\M+2BD75
 66
     1
 10
0.0
 20
0.0
 30
0.0
 70
     1
  0
VERTEX
  5
7069
  8
\M+2A4A4\M+2A4DF\M+2BD75
 10
-674.28871519184133
 20
-833.63696449686711
 30
0.0
  0
VERTEX
  5
706A
  8
\M+2A4A4\M+2A4DF\M+2BD75
 10
-670.205321711946
 20
-833.63696449686711
 30
0.0
  0
VERTEX
  5
706B
  8
\M+2A4A4\M+2A4DF\M+2BD75
 10
-670.205321711946
 20
-839.45264301587451
 30
0.0
  0
VERTEX
  5
706C
  8
\M+2A4A4\M+2A4DF\M+2BD75
 10
-674.28871519184133
 20
-839.45264301587451
 30
0.0
  0
SEQEND
  5
706D
  8
\M+2A4A4\M+2A4DF\M+2BD75
  0
DIMENSION
  5
5B7A
  8
DIM
  2
*D31
 10
-677.19035073576026
 20
-838.68403777917058
 30
0.0
 11
-678.04290902893774
 21
-838.68403777917058
 31
0.0
 70
   128
 13
-678.86357573576015
 23
-841.00100685284394
 33
0.0
 14
-677.19035073576026
 24
-841.00100685284406
 34
0.0
  0
DIMENSION
  5
5B87
  8
DIM
  2
*D32
 10
-676.04640002867995
 20
-842.54570822562334
 30
0.0
 11
-676.04640002867973
 21
-841.54054196634252
 31
0.0
 70
   128
 13
-677.1252769099849
 23
-840.37248422562334
 33
0.0
 14
-677.12527690998525
 24
-842.54570822562334
 34
0.0
 50
90.0
  0
INSERT
  5
5C55
  8
\M+2BBB2\M+2A755\M+2BD75
  6
CONTINUOUS
  2
*X49
 10
0.0
 20
0.0
 30
0.0
1001
ACAD
1000
HATCH
1002
{
1070
    19
1000
ANSI31
1040
0.007874
1040
0.0
1000
R14_HATCH_DATA
1000
5C55
1011
1.0
1021
0.0
1031
0.0
1021
0.0
1031
0.0
1011
0.0
1021
0.0
1031
0.0
1021
1.0
1031
0.0
1011
0.0
1021
0.0
1031
0.0
1021
0.0
1031
1.0
1040
0.0
1010
0.0
1020
0.0
1030
1.0
1000
ANSI31
1070
     0
1070
     0
1071
       11
1071
        7
1070
     1
1070
     1
1071
       14
1040
-671.32843167915519
1040
-835.24368641809485
1040
0.0
1040
-671.34811667915517
1040
-835.24368641809485
1040
0.0
1040
-671.34811667915517
1040
-835.29098561294086
1040
0.0
1040
-671.32843167915507
1040
-835.29098561294086
1040
0.0
1040
-671.08517058271616
1040
-835.2994804776157
1040
0.0
1040
-670.91504667915524
1040
-835.43111167082952
1040
0.0
1040
-670.91504667915524
1040
-835.44644191809505
1040
0.0
1040
-670.91504667915524
1040
-835.50293432990736
1040
0.0
1040
-670.83630667915531
1040
-835.50155991809504
1040
0.0
1040
-670.83630667915531
1040
-835.39686121924115
1040
0.2321073329216093
1040
-670.85158430596334
1040
-835.36572354986811
1040
0.0
1040
-671.04280535098985
1040
-835.21776871343695
1040
0.1571790431036566
1040
-671.06552373099635
1040
-835.20956036595032
1040
0.0
1040
-671.32843167915519
1040
-835.20037941809505
1040
0.0
1071
        0
1071
        7
1070
     0
1070
     1
1071
        6
1040
-671.28906167915522
1040
-835.69644141809499
1040
-671.34811667915517
1040
-835.69644141809499
1040
-671.34811667915517
1040
-835.82045691809503
1040
-670.91504667915524
1040
-835.82045691809503
1040
-670.91504667915524
1040
-835.76396450628249
1040
-671.28906167915522
1040
-835.7574360501734
1071
        0
1071
        7
1070
     0
1070
     1
1071
        6
1040
-670.91504667915524
1040
-835.44644191809505
1040
-671.34811667915517
1040
-835.44644191809505
1040
-671.34811667915517
1040
-835.57045741809486
1040
-671.28906167915522
1040
-835.57045741809486
1040
-671.28906167915522
1040
-835.50946278601634
1040
-670.91504667915524
1040
-835.50293432990736
1071
        0
1071
        7
1070
     0
1070
     1
1071
       17
1040
-670.8559916791553
1040
-835.82045691809503
1040
-670.91504667915524
1040
-835.82045691809503
1040
-670.91504667915524
1040
-835.96317316809484
1040
-670.91504667915524
1040
-836.13541691809496
1040
-670.91504667915524
1040
-836.94250191809806
1040
-670.91504667916308
1040
-837.74958691810139
1040
-670.91504667915524
1040
-838.00549191810114
1040
-670.91504667916615
1040
-838.06454691810063
1040
-670.91504667916672
1040
-838.12103932991306
1040
-670.83630667916657
1040
-838.11966491810119
1040
-670.83630667916623
1040
-838.06848391809842
1040
-670.85599167917712
1040
-838.0684839180982
1040
-670.85599167917621
1040
-838.02911391809823
1040
-670.83630667916566
1040
-838.02911391809857
1040
-670.83630667915531
1040
-836.94250191809806
1040
-670.83630667915531
1040
-835.85588991809766
1040
-670.8559916791553
1040
-835.85588991809766
1071
        0
1071
        7
1070
     1
1070
     1
1071
       14
1040
-671.32843167917099
1040
-838.59401822325071
1040
0.0
1040
-671.34811667915517
1040
-838.5940182232506
1040
0.0
1040
-671.34811667915517
1040
-838.64131741809615
1040
0.0
1040
-671.32843167917167
1040
-838.64131741809649
1040
0.0
1040
-671.32843167917213
1040
-838.68462441809675
1040
0.0
1040
-671.0655237310134
1040
-838.67544347024386
1040
0.1571790431035882
1040
-671.04280535100645
1040
-838.66723512275735
1040
0.0
1040
-670.85158430597835
1040
-838.51928028632778
1040
0.2321073329216155
1040
-670.83630667917021
1040
-838.48814261695532
1040
0.0
1040
-670.83630667916907
1040
-838.38344391810108
1040
0.0
1040
-670.91504667916922
1040
-838.38206950628808
1040
0.0
1040
-670.91504667916968
1040
-838.43856191810062
1040
0.0
1040
-670.91504667916968
1040
-838.45389216536603
1040
0.0
1040
-671.08517058273208
1040
-838.58552335857814
1040
0.0
1071
        0
1071
        7
1070
     0
1070
     1
1071
        6
1040
-670.91504667916615
1040
-838.06454691810063
1040
-671.34811667915517
1040
-838.06454691809631
1040
-671.34811667915517
1040
-838.20726316809635
1040
-671.2890616791675
1040
-838.20726316809692
1040
-671.28906167916671
1040
-838.1275677860184
1040
-670.91504667916672
1040
-838.12103932991306
1071
        0
1071
        7
1070
     0
1070
     1
1071
        6
1040
-671.28906167916841
1040
-838.29584566809672
1040
-671.34811667915517
1040
-838.29584566809626
1040
-671.34811667915517
1040
-838.43856191809618
1040
-670.91504667916968
1040
-838.43856191810062
1040
-670.91504667916922
1040
-838.38206950628808
1040
-671.28906167916921
1040
-838.37554105017546
1071
        0
1071
        7
1070
     0
1070
     1
1071
        6
1040
-671.78118667915169
1040
-838.35504178515919
1040
-671.79624214557396
1040
-838.37950691809544
1040
-671.38748667916923
1040
-838.37950691809419
1040
-671.38748667916843
1040
-838.30470391807773
1040
-671.39142367915201
1040
-838.30076691809438
1040
-671.78118667915203
1040
-838.30076691809529
1071
        0
1071
        7
1070
     0
1070
     1
1071
        5
1040
-671.78118667915237
1040
-838.12360191809535
1040
-671.78118667915226
1040
-838.20234191809527
1040
-671.39142367915235
1040
-838.20234191809436
1040
-671.38748667916741
1040
-838.1984049181093
1040
-671.38748667916673
1040
-838.12360191809421
1071
        0
1071
        7
1070
     0
1070
     1
1071
        5
1040
-671.78118667915533
1040
-835.68266191809255
1040
-671.78118667915533
1040
-835.76140191809247
1040
-671.38748667915524
1040
-835.76140191809247
1040
-671.38748667915524
1040
-835.68659891809261
1040
-671.39142367915531
1040
-835.68266191809255
1071
        0
1071
        7
1070
     0
1070
     1
1071
        6
1040
-671.79624214557748
1040
-835.5054969180926
1040
-671.78118667915533
1040
-835.52996205102875
1040
-671.78118667915533
1040
-835.58423691809264
1040
-671.39142367915531
1040
-835.58423691809264
1040
-671.38748667915524
1040
-835.58029991809246
1040
-671.38748667915524
1040
-835.5054969180926
1071
        0
1070
     0
1070
     1
1040
0.0
1040
0.007874
1070
     0
1070
     1
1040
0.7853981633974483
1040
-693.67787356873032
1040
-811.054410174964
1040
-0.0176776341743246
1040
0.0176776341743246
1070
     0
1040
0.1794862346086315
1071
       11
1040
-671.01218159859275
1040
-835.28960250795126
1040
0.0
1040
-671.25259760568895
1040
-835.78424862527208
1040
0.0
1040
-671.28088184181797
1040
-835.48746096187961
1040
0.0
1040
-670.86368933102744
1040
-836.43435496889435
1040
0.0
1040
-670.91318677214144
1040
-838.49066953382828
1040
0.0
1040
-671.16774489730221
1040
-838.10201902057645
1040
0.0
1040
-671.28795292873815
1040
-838.38467396476005
1040
0.0
1040
-671.53544002275476
1040
-838.32814294792286
1040
0.0
1040
-671.5495821408191
1040
-838.16561639701786
1040
0.0
1040
-671.4930136685615
1040
-835.74891675724916
1040
0.0
1040
-671.4930136685615
1040
-835.55812469792568
1040
0.0
1002
}
  0
INSERT
  5
5C5C
  8
\M+2BBB2\M+2A755\M+2BD75
  6
CONTINUOUS
  2
*X50
 10
0.0
 20
0.0
 30
0.0
1001
ACAD
1000
HATCH
1002
{
1070
    19
1000
ANSI31
1040
0.007874
1040
0.0
1000
R14_HATCH_DATA
1000
5C5C
1011
1.0
1021
0.0
1031
0.0
1021
0.0
1031
0.0
1011
0.0
1021
0.0
1031
0.0
1021
1.0
1031
0.0
1011
0.0
1021
0.0
1031
0.0
1021
0.0
1031
1.0
1040
0.0
1010
0.0
1020
0.0
1030
1.0
1000
ANSI31
1070
     0
1070
     0
1071
        1
1071
        7
1070
     0
1070
     1
1071
        6
1040
-670.91504667915524
1040
-835.82045691809503
1040
-670.8559916791553
1040
-835.82045691809503
1040
-670.8559916791553
1040
-835.8165199180977
1040
-670.83630667915531
1040
-835.8165199180977
1040
-670.83630667915531
1040
-835.76533891809493
1040
-670.91504667915524
1040
-835.76396450628249
1071
        0
1070
     0
1070
     1
1040
0.0
1040
0.007874
1070
     0
1070
     1
1040
0.7853981633974483
1040
-693.67787356873032
1040
-811.054410174964
1040
-0.0176776341743246
1040
0.0176776341743246
1070
     0
1040
0.0312983119022043
1071
        1
1040
-670.87527734411765
1040
-835.79459670345625
1040
0.0
1002
}
  0
DIMENSION
  5
622C
  8
DIM
  2
*D33
 10
-684.26581792213869
 20
-832.08719208645675
 30
0.0
 11
-681.85317733643501
 21
-830.40580002997501
 31
0.0
 70
   131
 15
-684.20201756365464
 25
-832.01224547290838
 35
0.0
 40
0.0
1001
ACAD
1000
DSTYLE
1002
{
1070
   288
1070
     1
1002
}
  0
DIMENSION
  5
6238
  8
DIM
  2
*D34
 10
-685.80129055384009
 20
-832.15904380332506
 30
0.0
 11
-687.46232542708344
 21
-831.04128593535722
 31
0.0
 70
   131
 15
-685.93425493195275
 25
-831.94039375603927
 35
0.0
 40
0.0
1001
ACAD
1000
DSTYLE
1002
{
1070
   288
1070
     1
1002
}
  0
DIMENSION
  5
631F
  8
DIM
  2
*D35
 10
-685.33108636010945
 20
-842.59084277882243
 30
0.0
 11
-686.70309805416684
 21
-843.75607072005209
 31
0.0
 70
   131
 15
-685.44998810587185
 25
-842.94545467241824
 35
0.0
 40
0.0
1001
ACAD
1000
DSTYLE
1002
{
1070
   288
1070
     1
1002
}
  0
DIMENSION
  5
632B
  8
DIM
  2
*D36
 10
-685.43166400962434
 20
-842.72043520229863
 30
0.0
 11
-683.96487467046177
 21
-843.29747946807925
 31
0.0
 70
   131
 15
-685.34941045635662
 25
-842.81586224894102
 35
0.0
 40
0.0
1001
ACAD
1000
DSTYLE
1002
{
1070
   288
1070
     1
1002
}
  0
DIMENSION
  5
6337
  8
DIM
  2
*D37
 10
-685.42646741479314
 20
-842.47986386905995
 30
0.0
 11
-683.78554433534168
 21
-841.88452085168626
 31
0.0
 70
   131
 15
-685.23649705118851
 25
-842.30840358218074
 35
0.0
 40
0.0
1001
ACAD
1000
DSTYLE
1002
{
1070
   288
1070
     1
1002
}
  0
DIMENSION
  5
6343
  8
DIM
  2
*D38
 10
-685.36815226025067
 20
-842.36929375928935
 30
0.0
 11
-683.92330418227937
 21
-842.68329085552386
 31
0.0
 70
   131
 15
-685.29481220573086
 25
-842.41897369195135
 35
0.0
 40
0.0
1001
ACAD
1000
DSTYLE
1002
{
1070
   288
1070
     1
1002
}
  0
DIMENSION
  5
6359
  8
DIM
  2
*D39
 10
-678.76938155891992
 20
-842.65932215360453
 30
0.0
 11
-680.60713518312309
 21
-843.91022680081414
 31
0.0
 70
   131
 15
-678.91839991260099
 25
-842.87697529763773
 35
0.0
 40
0.0
1001
ACAD
1000
DSTYLE
1002
{
1070
   288
1070
     1
1002
}
  0
INSERT
  5
66A9
  8
DIM
 66
     1
  2
C
 10
-690.63923156984799
 20
-845.6128701672842
 30
0.0
  0
ATTRIB
  5
66AA
  8
TEXT
 10
-675.23950605406947
 20
-845.07346512166646
 30
0.0
 40
0.125
  1
RD
 41
0.75
  7
TXT
 72
     1
 11
-675.16138105406935
 21
-845.07346512166646
 31
0.0
  2
NAME
 70
     4
  0
ATTRIB
  5
66AB
  8
TEXT
 10
-674.77849559353115
 20
-845.07346512166646
 30
0.0
 40
0.125
  1
10-13-08
 41
0.75
  7
TXT
 72
     1
 11
-674.46599559353115
 21
-845.07346512166646
 31
0.0
  2
DATE
 70
     4
  0
ATTRIB
  5
66AC
  8
TEXT
 10
-672.17435876980358
 20
-844.90226334995361
 30
0.0
 40
0.125
  1
HAND-HELD BOX STYLE P
 41
0.75
  7
TXT
 72
     1
 11
-671.20560876980346
 21
-844.90226334995361
 31
0.0
  2
TITLE1
 70
     4
  0
ATTRIB
  5
66AD
  8
TEXT
 10
-672.01029626980346
 20
-845.11339281608002
 30
0.0
 40
0.125
  1
 3.47 X 2.48 X 1.08
 41
0.75
  7
TXT
 72
     1
 11
-671.20560876980346
 21
-845.11339281608002
 31
0.0
  2
TITLE2
 70
     4
  0
ATTRIB
  5
66AE
  8
TEXT
 10
-671.39898398146761
 20
-845.50664583411958
 30
0.0
 40
0.156
  1
HH-3642
 41
0.75
  7
TXT
 72
     1
 11
-671.00898398146762
 21
-845.50664583411958
 31
0.0
  2
PART
 70
     4
  0
ATTRIB
  5
66AF
  8
TEXT
 10
-671.39898398146761
 20
-829.93522933124768
 30
0.0
 40
0.156
  1
HH-3642
 41
0.75
  7
TXT
 72
     1
 11
-671.00898398146762
 21
-829.93522933124768
 31
0.0
  2
PART
 70
     4
  0
ATTRIB
  5
66B0
  8
TEXT
 10
-679.58233396569722
 20
-844.43085783218658
 30
0.0
 40
0.125
  1

 41
4.9364164263857306
  7
TXT
 72
     5
 11
-675.67433762814198
 21
-844.43085783218658
 31
0.0
  2
CUTSIZE
 70
     4
  0
ATTRIB
  5
66B1
  8
TEXT
 10
-679.44486088071915
 20
-845.32609134032305
 30
0.0
 40
0.125
  1

 41
0.75
  7
TXT
 72
     1
 11
-679.44486088071915
 21
-845.32609134032305
 31
0.0
  2
QTY
 70
     4
  0
ATTRIB
  5
66B2
  8
TEXT
 10
-678.50017736732104
 20
-845.32609134032305
 30
0.0
 40
0.125
  1

 41
0.75
  7
TXT
 72
     1
 11
-678.50017736732104
 21
-845.32609134032305
 31
0.0
  2
USED
 70
     4
  0
ATTRIB
  5
66B3
  8
TEXT
 10
-674.77462534693393
 20
-844.65733779621371
 30
0.0
 40
0.125
  1
NOTED
 41
0.75
  7
TXT
 72
     1
 11
-674.55587534693393
 21
-844.65733779621371
 31
0.0
  2
MAT
 70
     4
  0
ATTRIB
  5
66B4
  8
TEXT
 10
-674.77462534693393
 20
-844.86921595942351
 30
0.0
 40
0.125
  1
BLACK
 41
0.75
  7
TXT
 72
     1
 11
-674.55587534693393
 21
-844.86921595942351
 31
0.0
  2
FINISH
 70
     4
  0
SEQEND
  5
66B5
  8
DIM
  0
LINE
  5
68D1
  8
DIM
 62
     1
 10
-680.11365147011895
 20
-838.16297954439915
 30
0.0
 11
-679.93365147011923
 21
-838.16297954439915
 31
0.0
  0
LINE
  5
68D2
  8
DIM
 62
     1
 10
-679.93365147011923
 20
-838.16297954439915
 30
0.0
 11
-678.95904032079466
 21
-840.33149372050275
 31
0.0
  0
TEXT
  5
68D3
  8
DIM
 10
-681.62627051773813
 20
-838.20464621106578
 30
0.0
 40
0.125
  1
R0.197 [R5.00]
  0
SOLID
  5
68D4
  8
DIM
 62
     1
 10
-678.94010648729693
 20
-840.30822335417395
 30
0.0
 11
-678.97797415429238
 21
-840.35476408683155
 31
0.0
 12
-678.81941812282116
 22
-840.44509672148911
 32
0.0
 13
-678.81941812282116
 23
-840.44509672148911
 33
0.0
  0
LINE
  5
68D5
  8
DIM
 10
-678.75672573576014
 20
-840.56933422562281
 30
0.0
 11
-678.57672573575996
 21
-840.56933422562315
 31
0.0
  0
LINE
  5
68D6
  8
DIM
 10
-678.66672573576011
 20
-840.65933422562307
 30
0.0
 11
-678.66672573576011
 21
-840.47933422562312
 31
0.0
  0
INSERT
  5
691B
  8
DIM
  2
*U51
 10
0.0
 20
0.0
 30
0.0
  0
INSERT
  5
6B06
  8
DIM
 66
     1
  2
REVCHART
 10
-672.57673156984799
 20
-830.3003701672842
 30
0.0
  0
ATTRIB
  5
6B07
  8
TEXT
 10
-672.30173156984802
 20
-830.59988323790935
 30
0.0
 40
0.15
  1
A
 41
0.75
  7
TXT
 72
     4
 11
-672.26423156984799
 21
-830.52488323790942
 31
0.0
  2
REV
 70
     4
  0
ATTRIB
  5
6B08
  8
TEXT
 62
     1
 10
-671.85948274484645
 20
-830.49362983753929
 30
0.0
 40
0.125
  1
SCREW DESCRIPTION
 41
0.75
  7
TXT
  2
REV1
 70
     4
  0
ATTRIB
  5
6B09
  8
TEXT
 62
     1
 10
-671.85948274484645
 20
-830.70196317087243
 30
0.0
 40
0.125
  1
ADDED  7-9-15
 41
0.75
  7
TXT
  2
REV2
 70
     4
  0
SEQEND
  5
6B0A
  8
DIM
  0
ENDSEC
  0
EOF
