  0
SECTION
  2
HEADER
  9
$ACADVER
  1
AC1009
  9
$INSBASE
 10
0.0
 20
0.0
 30
0.0
  9
$EXTMIN
 10
-586.90072590100567
 20
-134.21825827809391
 30
0.0
  9
$EXTMAX
 10
-554.40072590100567
 20
-113.2182582780939
 30
0.0
  9
$LIMMIN
 10
0.0
 20
0.0
  9
$LIMMAX
 10
420.0
 20
297.0
  9
$ORTHOMODE
 70
     0
  9
$REGENMODE
 70
     1
  9
$FILLMODE
 70
     1
  9
$QTEXTMODE
 70
     0
  9
$MIRRTEXT
 70
     0
  9
$DRAGMODE
 70
     2
  9
$LTSCALE
 40
0.04
  9
$OSMODE
 70
   229
  9
$ATTMODE
 70
     1
  9
$TEXTSIZE
 40
2.5
  9
$TRACEWID
 40
1.0
  9
$TEXTSTYLE
  7
STANDARD
  9
$CLAYER
  8
\M+2BBB2\M+2A755\M+2BD75
  9
$CELTYPE
  6
BYLAYER
  9
$CECOLOR
 62
   256
  9
$DIMSCALE
 40
1.0
  9
$DIMASZ
 40
0.18
  9
$DIMEXO
 40
0.0625
  9
$DIMDLI
 40
0.38
  9
$DIMRND
 40
0.0
  9
$DIMDLE
 40
0.0
  9
$DIMEXE
 40
0.18
  9
$DIMTP
 40
0.0
  9
$DIMTM
 40
0.0
  9
$DIMTXT
 40
0.125
  9
$DIMCEN
 40
0.09
  9
$DIMTSZ
 40
0.0
  9
$DIMTOL
 70
     0
  9
$DIMLIM
 70
     0
  9
$DIMTIH
 70
     1
  9
$DIMTOH
 70
     1
  9
$DIMSE1
 70
     0
  9
$DIMSE2
 70
     0
  9
$DIMTAD
 70
     0
  9
$DIMZIN
 70
     0
  9
$DIMBLK
  1

  9
$DIMASO
 70
     1
  9
$DIMSHO
 70
     1
  9
$DIMPOST
  1

  9
$DIMAPOST
  1

  9
$DIMALT
 70
     1
  9
$DIMALTD
 70
     2
  9
$DIMALTF
 40
25.399999999999999
  9
$DIMLFAC
 40
1.0
  9
$DIMTOFL
 70
     0
  9
$DIMTVP
 40
0.0
  9
$DIMTIX
 70
     0
  9
$DIMSOXD
 70
     0
  9
$DIMSAH
 70
     0
  9
$DIMBLK1
  1

  9
$DIMBLK2
  1

  9
$DIMSTYLE
  2
STANDARD
  9
$DIMCLRD
 70
     1
  9
$DIMCLRE
 70
     1
  9
$DIMCLRT
 70
     1
  9
$DIMTFAC
 40
1.0
  9
$DIMGAP
 40
0.09
  9
$LUNITS
 70
     2
  9
$LUPREC
 70
     3
  9
$SKETCHINC
 40
1.0
  9
$FILLETRAD
 40
2.5
  9
$AUNITS
 70
     0
  9
$AUPREC
 70
     0
  9
$MENU
  1
.
  9
$ELEVATION
 40
0.0
  9
$PELEVATION
 40
0.0
  9
$THICKNESS
 40
0.0
  9
$LIMCHECK
 70
     0
  9
$BLIPMODE
 70
     0
  9
$CHAMFERA
 40
0.5
  9
$CHAMFERB
 40
0.5
  9
$SKPOLY
 70
     0
  9
$TDCREATE
 40
2453229.9362548962
  9
$TDUPDATE
 40
2457213.35021846
  9
$TDINDWG
 40
1.9554341318999999
  9
$TDUSRTIMER
 40
1.9554341318999999
  9
$USRTIMER
 70
     1
  9
$ANGBASE
 50
0.0
  9
$ANGDIR
 70
     0
  9
$PDMODE
 70
     0
  9
$PDSIZE
 40
0.0
  9
$PLINEWID
 40
0.0
  9
$COORDS
 70
     2
  9
$SPLFRAME
 70
     0
  9
$SPLINETYPE
 70
     6
  9
$SPLINESEGS
 70
     8
  9
$ATTDIA
 70
     0
  9
$ATTREQ
 70
     1
  9
$HANDLING
 70
  4097
  9
$HANDSEED
  5
6DE5
  9
$SURFTAB1
 70
     6
  9
$SURFTAB2
 70
     6
  9
$SURFTYPE
 70
     6
  9
$SURFU
 70
     6
  9
$SURFV
 70
     6
  9
$UCSNAME
  2

  9
$UCSORG
 10
-1420.8175548175709
 20
-7.6231474901701386
 30
0.0
  9
$UCSXDIR
 10
1.0
 20
0.0
 30
0.0
  9
$UCSYDIR
 10
0.0
 20
1.0
 30
0.0
  9
$PUCSNAME
  2

  9
$PUCSORG
 10
0.0
 20
0.0
 30
0.0
  9
$PUCSXDIR
 10
1.0
 20
0.0
 30
0.0
  9
$PUCSYDIR
 10
0.0
 20
1.0
 30
0.0
  9
$USERI1
 70
     0
  9
$USERI2
 70
     0
  9
$USERI3
 70
     0
  9
$USERI4
 70
     0
  9
$USERI5
 70
     0
  9
$USERR1
 40
0.0
  9
$USERR2
 40
0.0
  9
$USERR3
 40
0.0
  9
$USERR4
 40
0.0
  9
$USERR5
 40
0.0
  9
$WORLDVIEW
 70
     1
  9
$SHADEDGE
 70
     3
  9
$SHADEDIF
 70
    70
  9
$TILEMODE
 70
     1
  9
$MAXACTVP
 70
    64
  9
$PLIMCHECK
 70
     0
  9
$PEXTMIN
 10
0.0
 20
0.0
 30
0.0
  9
$PEXTMAX
 10
0.0
 20
0.0
 30
0.0
  9
$PLIMMIN
 10
0.0
 20
0.0
  9
$PLIMMAX
 10
12.0
 20
9.0
  9
$UNITMODE
 70
     0
  9
$VISRETAIN
 70
     1
  9
$PLINEGEN
 70
     0
  9
$PSLTSCALE
 70
     1
  0
ENDSEC
  0
SECTION
  2
TABLES
  0
TABLE
  2
VPORT
 70
     2
  0
VPORT
  2
*ACTIVE
 70
     0
 10
0.0
 20
0.0
 11
1.0
 21
1.0
 12
-570.62915676116916
 22
-123.71285321029811
 13
0.0
 23
0.0
 14
10.0
 24
10.0
 15
10.0
 25
10.0
 16
0.0
 26
0.0
 36
1.0
 17
0.0
 27
0.0
 37
0.0
 40
21.2356128685289
 41
1.8369747899159661
 42
50.0
 43
0.0
 44
0.0
 50
0.0
 51
0.0
 71
     0
 72
  1000
 73
     1
 74
     3
 75
     0
 76
     0
 77
     0
 78
     0
  0
ENDTAB
  0
TABLE
  2
LTYPE
 70
     7
  0
LTYPE
  2
CONTINUOUS
 70
     0
  3
Solid line
 72
    65
 73
     0
 40
0.0
  0
LTYPE
  2
ACAD_ISO04W100
 70
     0
  3
ISO long-dash dot ____ . ____ . ____ . ____ . _
 72
    65
 73
     4
 40
30.0
 49
24.0
 49
-3.0
 49
0.0
 49
-3.0
  0
LTYPE
  2
DASHED2
 70
     0
  3
Dashed (.5x) _ _ _ _ _ _ _ _ _ _ _ _ _ _ _ _ _
 72
    65
 73
     2
 40
9.5249999999999968
 49
6.3499999999999979
 49
-3.174999999999998
  0
LTYPE
  2
HIDDEN2
 70
     0
  3
Hidden (.5x) _ _ _ _ _ _ _ _ _ _ _ _ _ _ _ _ _
 72
    65
 73
     2
 40
4.7624999999999984
 49
3.174999999999998
 49
-1.587499999999999
  0
LTYPE
  2
HIDDEN
 70
     0
  3
Hidden __ __ __ __ __ __ __ __ __ __ __ __ __ _
 72
    65
 73
     2
 40
0.375
 49
0.25
 49
-0.125
  0
LTYPE
  2
CENTER
 70
     0
  3
Center ____ _ ____ _ ____ _ ____ _ ____ _ ____
 72
    65
 73
     4
 40
2.0
 49
1.25
 49
-0.25
 49
0.25
 49
-0.25
  0
LTYPE
  2
HIDDENX2
 70
     0
  3
Hidden (2x) ____ ____ ____ ____ ____ ____ ____
 72
    65
 73
     2
 40
0.75
 49
0.5
 49
-0.25
  0
ENDTAB
  0
TABLE
  2
LAYER
 70
    11
  0
LAYER
  2
0
 70
     0
 62
     7
  6
CONTINUOUS
  0
LAYER
  2
\M+2B5EA\M+2BD75
 70
     0
 62
     7
  6
HIDDEN2
  0
LAYER
  2
\M+2A4A4\M+2A4DF\M+2BD75
 70
     0
 62
     7
  6
ACAD_ISO04W100
  0
LAYER
  2
\M+2ADE5\M+2ADB1\M+2BD75
 70
     0
 62
     7
  6
CONTINUOUS
  0
LAYER
  2
\M+2A4E5\M+2A672
 70
     0
 62
     7
  6
CONTINUOUS
  0
LAYER
  2
\M+2BBB2\M+2A755\M+2BD75
 70
     0
 62
     7
  6
CONTINUOUS
  0
LAYER
  2
DEFPOINTS
 70
     0
 62
     7
  6
CONTINUOUS
  0
LAYER
  2
DIM
 70
     0
 62
     7
  6
CONTINUOUS
  0
LAYER
  2
OBJECT
 70
     0
 62
     7
  6
CONTINUOUS
  0
LAYER
  2
TEXT
 70
     0
 62
     7
  6
CONTINUOUS
  0
LAYER
  2
TITLE
 70
     0
 62
     8
  6
CONTINUOUS
  0
ENDTAB
  0
TABLE
  2
STYLE
 70
     2
  0
STYLE
  2
STANDARD
 70
     0
 40
0.0
 41
1.0
 50
0.0
 71
     0
 42
2.5
  3
txt
  4

  0
STYLE
  2
TXT
 70
     0
 40
0.0
 41
0.75
 50
0.0
 71
     0
 42
0.3125
  3
txt
  4

  0
ENDTAB
  0
TABLE
  2
VIEW
 70
     0
  0
ENDTAB
  0
TABLE
  2
UCS
 70
     0
  0
ENDTAB
  0
TABLE
  2
APPID
 70
     6
  0
APPID
  2
ACAD
 70
     0
  0
APPID
  2
DCO15
 70
     0
  0
APPID
  2
ADE
 70
     0
  0
APPID
  2
ACAD_DSTYLE_DIMTEXT_FILL
 70
     0
  0
APPID
  2
ACAD_EXEMPT_FROM_CAD_STAND
 70
     0
  0
APPID
  2
ACAD_PSEXT
 70
     0
  0
ENDTAB
  0
TABLE
  2
DIMSTYLE
 70
     5
  0
DIMSTYLE
  2
STANDARD
 70
     0
  3

  4

  5

  6

  7

 40
1.0
 41
0.18
 42
0.0625
 43
0.38
 44
0.18
 45
0.0
 46
0.0
 47
0.0
 48
0.0
140
0.125
141
0.09
142
0.0
143
25.399999999999999
144
1.0
145
0.0
146
1.0
147
0.09
 71
     0
 72
     0
 73
     1
 74
     1
 75
     0
 76
     0
 77
     0
 78
     0
170
     1
171
     2
172
     0
173
     0
174
     0
175
     0
176
     1
177
     1
178
     1
  0
DIMSTYLE
  2
23NSTD
 70
     0
  3

  4

  5

  6

  7

 40
2.5
 41
0.18
 42
0.063
 43
0.281
 44
0.093
 45
0.0
 46
0.0
 47
0.0
 48
0.0
140
0.125
141
0.09
142
0.0
143
25.399999999999999
144
1.0
145
0.0
146
1.0
147
0.09
 71
     0
 72
     0
 73
     1
 74
     1
 75
     0
 76
     0
 77
     0
 78
     0
170
     0
171
     2
172
     0
173
     0
174
     0
175
     0
176
     0
177
     0
178
     0
  0
DIMSTYLE
  2
23NSTDI
 70
     0
  3

  4

  5

  6

  7

 40
2.5
 41
0.18
 42
0.063
 43
0.281
 44
0.093
 45
0.0
 46
0.0
 47
0.0
 48
0.0
140
0.125
141
0.09
142
0.0
143
25.399999999999999
144
1.0
145
0.0
146
1.0
147
0.09
 71
     0
 72
     0
 73
     1
 74
     1
 75
     0
 76
     0
 77
     0
 78
     0
170
     0
171
     2
172
     0
173
     0
174
     1
175
     0
176
     0
177
     0
178
     0
  0
DIMSTYLE
  2
23NSTD1
 70
     0
  3

  4
ction
  5

  6

  7

 40
2.5
 41
0.18
 42
0.063
 43
0.281
 44
0.093
 45
0.0
 46
0.0
 47
0.0
 48
0.0
140
0.125
141
0.09
142
0.0
143
25.399999999999999
144
0.33333
145
0.0
146
1.0
147
0.09
 71
     0
 72
     0
 73
     1
 74
     1
 75
     0
 76
     0
 77
     0
 78
     0
170
     0
171
     2
172
     0
173
     0
174
     0
175
     0
176
     0
177
     0
178
     0
  0
DIMSTYLE
  2
23NSTD1I
 70
     0
  3

  4
ction
  5

  6

  7

 40
2.5
 41
0.18
 42
0.063
 43
0.281
 44
0.093
 45
0.0
 46
0.0
 47
0.0
 48
0.0
140
0.125
141
0.09
142
0.0
143
25.399999999999999
144
0.33333
145
0.0
146
1.0
147
0.09
 71
     0
 72
     0
 73
     1
 74
     1
 75
     0
 76
     0
 77
     0
 78
     0
170
     0
171
     2
172
     0
173
     0
174
     1
175
     0
176
     0
177
     0
178
     0
  0
ENDTAB
  0
ENDSEC
  0
SECTION
  2
BLOCKS
  0
BLOCK
  8
0
  2
$MODEL_SPACE
 70
     0
 10
0.0
 20
0.0
 30
0.0
  3
$MODEL_SPACE
  1

  0
ENDBLK
  5
21
  8
0
  0
BLOCK
 67
     1
  8
0
  2
$PAPER_SPACE
 70
     0
 10
0.0
 20
0.0
 30
0.0
  3
$PAPER_SPACE
  1

  0
ENDBLK
  5
53
 67
     1
  8
0
  0
BLOCK
  8
0
  2
*D1
 70
     1
 10
0.0
 20
0.0
 30
0.0
  3
*D1
  1

  0
LINE
  5
69AB
  8
\M+2BBB2\M+2A755\M+2BD75
 62
     1
 10
-574.94829795116175
 20
-119.36065930535651
 30
0.0
 11
-574.94829795116175
 21
-119.6088382318292
 31
0.0
  0
LINE
  5
69AC
  8
\M+2BBB2\M+2A755\M+2BD75
 62
     1
 10
-574.36168495116158
 20
-119.36065930535651
 30
0.0
 11
-574.36168495116158
 21
-119.6088382318292
 31
0.0
  0
LINE
  5
69AD
  8
\M+2BBB2\M+2A755\M+2BD75
 62
     1
 10
-574.54168495116164
 20
-119.4288382318292
 30
0.0
 11
-574.76829795116157
 21
-119.4288382318292
 31
0.0
  0
LINE
  5
69AE
  8
\M+2BBB2\M+2A755\M+2BD75
 62
     1
 10
-574.94829795116175
 20
-119.4288382318292
 30
0.0
 11
-575.1282979511617
 21
-119.4288382318292
 31
0.0
  0
SOLID
  5
69AF
  8
\M+2BBB2\M+2A755\M+2BD75
 62
     1
 10
-574.54168495116164
 20
-119.3988382318291
 30
0.0
 11
-574.54168495116164
 21
-119.4588382318292
 31
0.0
 12
-574.36168495116158
 22
-119.4288382318292
 32
0.0
 13
-574.36168495116158
 23
-119.4288382318292
 33
0.0
  0
SOLID
  5
69B0
  8
\M+2BBB2\M+2A755\M+2BD75
 62
     1
 10
-574.76829795116157
 20
-119.3988382318291
 30
0.0
 11
-574.76829795116157
 21
-119.4588382318292
 31
0.0
 12
-574.94829795116175
 22
-119.4288382318292
 32
0.0
 13
-574.94829795116175
 23
-119.4288382318292
 33
0.0
  0
TEXT
  5
69B1
  8
\M+2BBB2\M+2A755\M+2BD75
 62
     1
 10
-576.50996461782825
 20
-119.4705048984958
 30
0.0
 40
0.125
  1
0.587 [14.90]
  0
POINT
  5
69B2
  8
DEFPOINTS
 62
     0
 10
-574.94829795116175
 20
-119.29815930535641
 30
0.0
  0
POINT
  5
69B3
  8
DEFPOINTS
 62
     0
 10
-574.36168495116158
 20
-119.29815930535641
 30
0.0
  0
POINT
  5
69B4
  8
DEFPOINTS
 62
     0
 10
-574.36168495116158
 20
-119.4288382318292
 30
0.0
  0
ENDBLK
  5
18DE
  8
0
  0
BLOCK
  8
0
  2
*D2
 70
     1
 10
0.0
 20
0.0
 30
0.0
  3
*D2
  1

  0
LINE
  5
6A3C
  8
\M+2BBB2\M+2A755\M+2BD75
 62
     1
 10
-568.13676314039321
 20
-116.92649028304071
 30
0.0
 11
-568.13676314039321
 21
-114.9281134812107
 31
0.0
  0
LINE
  5
6A3D
  8
\M+2BBB2\M+2A755\M+2BD75
 62
     1
 10
-567.36904814039315
 20
-116.61153028303249
 30
0.0
 11
-567.36904814039315
 21
-114.9281134812107
 31
0.0
  0
LINE
  5
6A3E
  8
\M+2BBB2\M+2A755\M+2BD75
 62
     1
 10
-567.54904814039321
 20
-115.10811348121069
 30
0.0
 11
-567.95676314039326
 21
-115.10811348121069
 31
0.0
  0
LINE
  5
6A3F
  8
\M+2BBB2\M+2A755\M+2BD75
 62
     1
 10
-568.13676314039321
 20
-115.10811348121069
 30
0.0
 11
-568.31676314039305
 21
-115.10811348121069
 31
0.0
  0
SOLID
  5
6A40
  8
\M+2BBB2\M+2A755\M+2BD75
 62
     1
 10
-567.54904814039321
 20
-115.07811348121071
 30
0.0
 11
-567.54904814039321
 21
-115.13811348121069
 31
0.0
 12
-567.36904814039315
 22
-115.10811348121069
 32
0.0
 13
-567.36904814039315
 23
-115.10811348121069
 33
0.0
  0
SOLID
  5
6A41
  8
\M+2BBB2\M+2A755\M+2BD75
 62
     1
 10
-567.95676314039326
 20
-115.07811348121071
 30
0.0
 11
-567.95676314039326
 21
-115.13811348121069
 31
0.0
 12
-568.13676314039321
 22
-115.10811348121069
 32
0.0
 13
-568.13676314039321
 23
-115.10811348121069
 33
0.0
  0
TEXT
  5
6A42
  8
\M+2BBB2\M+2A755\M+2BD75
 62
     1
 10
-569.69842980706005
 20
-115.14978014787729
 30
0.0
 40
0.125
  1
0.768 [19.50]
  0
POINT
  5
6A43
  8
DEFPOINTS
 62
     0
 10
-568.13676314039321
 20
-116.98899028304071
 30
0.0
  0
POINT
  5
6A44
  8
DEFPOINTS
 62
     0
 10
-567.36904814039315
 20
-116.67403028303239
 30
0.0
  0
POINT
  5
6A45
  8
DEFPOINTS
 62
     0
 10
-567.36904814039315
 20
-115.10811348121069
 30
0.0
  0
ENDBLK
  5
18F7
  8
0
  0
BLOCK
  8
0
  2
*D3
 70
     1
 10
0.0
 20
0.0
 30
0.0
  3
*D3
  1

  0
LINE
  5
6A32
  8
\M+2BBB2\M+2A755\M+2BD75
 62
     1
 10
-568.06589714039308
 20
-117.17212484824989
 30
0.0
 11
-568.06589714039308
 21
-115.6008566624804
 31
0.0
  0
LINE
  5
6A33
  8
\M+2BBB2\M+2A755\M+2BD75
 62
     1
 10
-567.36904814039315
 20
-116.61153028303249
 30
0.0
 11
-567.36904814039315
 21
-115.6008566624804
 31
0.0
  0
LINE
  5
6A34
  8
\M+2BBB2\M+2A755\M+2BD75
 62
     1
 10
-567.54904814039321
 20
-115.7808566624804
 30
0.0
 11
-567.88589714039324
 21
-115.7808566624804
 31
0.0
  0
LINE
  5
6A35
  8
\M+2BBB2\M+2A755\M+2BD75
 62
     1
 10
-568.06589714039308
 20
-115.7808566624804
 30
0.0
 11
-568.24589714039325
 21
-115.7808566624804
 31
0.0
  0
SOLID
  5
6A36
  8
\M+2BBB2\M+2A755\M+2BD75
 62
     1
 10
-567.54904814039321
 20
-115.7508566624804
 30
0.0
 11
-567.54904814039321
 21
-115.8108566624804
 31
0.0
 12
-567.36904814039315
 22
-115.7808566624804
 32
0.0
 13
-567.36904814039315
 23
-115.7808566624804
 33
0.0
  0
SOLID
  5
6A37
  8
\M+2BBB2\M+2A755\M+2BD75
 62
     1
 10
-567.88589714039324
 20
-115.7508566624804
 30
0.0
 11
-567.88589714039324
 21
-115.8108566624804
 31
0.0
 12
-568.06589714039308
 22
-115.7808566624804
 32
0.0
 13
-568.06589714039308
 23
-115.7808566624804
 33
0.0
  0
TEXT
  5
6A38
  8
\M+2BBB2\M+2A755\M+2BD75
 62
     1
 10
-569.62756380706014
 20
-115.822523329147
 30
0.0
 40
0.125
  1
0.697 [17.70]
  0
POINT
  5
6A39
  8
DEFPOINTS
 62
     0
 10
-568.06589714039308
 20
-117.23462484824989
 30
0.0
  0
POINT
  5
6A3A
  8
DEFPOINTS
 62
     0
 10
-567.36904814039315
 20
-116.67403028303239
 30
0.0
  0
POINT
  5
6A3B
  8
DEFPOINTS
 62
     0
 10
-567.36904814039315
 20
-115.7808566624804
 30
0.0
  0
ENDBLK
  5
190F
  8
0
  0
BLOCK
  8
0
  2
*D4
 70
     1
 10
0.0
 20
0.0
 30
0.0
  3
*D4
  1

  0
LINE
  5
69DE
  8
\M+2BBB2\M+2A755\M+2BD75
 62
     1
 10
-573.05291497146595
 20
-120.5554202830324
 30
0.0
 11
-573.05291497146595
 21
-122.0065744733552
 31
0.0
  0
LINE
  5
69DF
  8
\M+2BBB2\M+2A755\M+2BD75
 62
     1
 10
-570.65134497146585
 20
-120.5554202830324
 30
0.0
 11
-570.65134497146585
 21
-122.0065744733552
 31
0.0
  0
LINE
  5
69E0
  8
\M+2BBB2\M+2A755\M+2BD75
 62
     1
 10
-572.87291497146578
 20
-121.82657447335509
 30
0.0
 11
-572.58796330479925
 21
-121.82657447335509
 31
0.0
  0
LINE
  5
69E1
  8
\M+2BBB2\M+2A755\M+2BD75
 62
     1
 10
-570.83134497146568
 20
-121.82657447335509
 30
0.0
 11
-571.11629663813255
 21
-121.82657447335509
 31
0.0
  0
SOLID
  5
69E2
  8
\M+2BBB2\M+2A755\M+2BD75
 62
     1
 10
-572.87291497146578
 20
-121.79657447335509
 30
0.0
 11
-572.87291497146578
 21
-121.8565744733552
 31
0.0
 12
-573.05291497146595
 22
-121.82657447335509
 32
0.0
 13
-573.05291497146595
 23
-121.82657447335509
 33
0.0
  0
SOLID
  5
69E3
  8
\M+2BBB2\M+2A755\M+2BD75
 62
     1
 10
-570.83134497146568
 20
-121.79657447335509
 30
0.0
 11
-570.83134497146568
 21
-121.8565744733552
 31
0.0
 12
-570.65134497146585
 22
-121.82657447335509
 32
0.0
 13
-570.65134497146585
 23
-121.82657447335509
 33
0.0
  0
TEXT
  5
69E4
  8
\M+2BBB2\M+2A755\M+2BD75
 62
     1
 10
-572.49796330479921
 20
-121.86824114002179
 30
0.0
 40
0.125
  1
2.402 [61.00]
  0
POINT
  5
69E5
  8
DEFPOINTS
 62
     0
 10
-573.05291497146595
 20
-120.4929202830324
 30
0.0
  0
POINT
  5
69E6
  8
DEFPOINTS
 62
     0
 10
-570.65134497146585
 20
-120.4929202830324
 30
0.0
  0
POINT
  5
69E7
  8
DEFPOINTS
 62
     0
 10
-570.65134497146585
 20
-121.82657447335509
 30
0.0
  0
ENDBLK
  5
192F
  8
0
  0
BLOCK
  8
0
  2
*D5
 70
     1
 10
0.0
 20
0.0
 30
0.0
  3
*D5
  1

  0
LINE
  5
69B5
  8
\M+2BBB2\M+2A755\M+2BD75
 62
     1
 10
-581.01879815544544
 20
-120.3793417468363
 30
0.0
 11
-581.01879815544544
 21
-122.30688817287719
 31
0.0
  0
LINE
  5
69B6
  8
\M+2BBB2\M+2A755\M+2BD75
 62
     1
 10
-578.51884484732295
 20
-120.3809025854893
 30
0.0
 11
-578.51884484732295
 21
-122.30688817287719
 31
0.0
  0
LINE
  5
69B7
  8
\M+2BBB2\M+2A755\M+2BD75
 62
     1
 10
-580.8387981554456
 20
-122.1268881728772
 30
0.0
 11
-580.66761061010823
 21
-122.1268881728772
 31
0.0
  0
LINE
  5
69B8
  8
\M+2BBB2\M+2A755\M+2BD75
 62
     1
 10
-578.69884484732302
 20
-122.1268881728772
 30
0.0
 11
-579.17213441963213
 21
-122.1268881728772
 31
0.0
  0
SOLID
  5
69B9
  8
\M+2BBB2\M+2A755\M+2BD75
 62
     1
 10
-580.8387981554456
 20
-122.0968881728772
 30
0.0
 11
-580.8387981554456
 21
-122.1568881728771
 31
0.0
 12
-581.01879815544544
 22
-122.1268881728772
 32
0.0
 13
-581.01879815544544
 23
-122.1268881728772
 33
0.0
  0
SOLID
  5
69BA
  8
\M+2BBB2\M+2A755\M+2BD75
 62
     1
 10
-578.69884484732302
 20
-122.0968881728772
 30
0.0
 11
-578.69884484732302
 21
-122.1568881728771
 31
0.0
 12
-578.51884484732295
 22
-122.1268881728772
 32
0.0
 13
-578.51884484732295
 23
-122.1268881728772
 33
0.0
  0
TEXT
  5
69BB
  8
\M+2BBB2\M+2A755\M+2BD75
 62
     1
 10
-580.57761061010831
 20
-122.1685548395438
 30
0.0
 40
0.125
  1
2.500 [63.50]
  0
POINT
  5
69BC
  8
DEFPOINTS
 62
     0
 10
-581.01879815544544
 20
-120.3168417468363
 30
0.0
  0
POINT
  5
69BD
  8
DEFPOINTS
 62
     0
 10
-578.51884484732295
 20
-120.3184025854892
 30
0.0
  0
POINT
  5
69BE
  8
DEFPOINTS
 62
     0
 10
-578.51884484732295
 20
-122.1268881728772
 30
0.0
  0
ENDBLK
  5
196D
  8
0
  0
BLOCK
  8
0
  2
*D6
 70
     1
 10
0.0
 20
0.0
 30
0.0
  3
*D6
  1

  0
LINE
  5
69D4
  8
\M+2BBB2\M+2A755\M+2BD75
 62
     1
 10
-580.96981124583874
 20
-120.7336879638549
 30
0.0
 11
-580.96981124583874
 21
-121.85997193168269
 31
0.0
  0
LINE
  5
69D5
  8
\M+2BBB2\M+2A755\M+2BD75
 62
     1
 10
-578.56827418864782
 20
-120.7351873566048
 30
0.0
 11
-578.56827418864782
 21
-121.85997193168269
 31
0.0
  0
LINE
  5
69D6
  8
\M+2BBB2\M+2A755\M+2BD75
 62
     1
 10
-580.78981124583891
 20
-121.6799719316828
 30
0.0
 11
-580.5397697477332
 21
-121.6799719316828
 31
0.0
  0
LINE
  5
69D7
  8
\M+2BBB2\M+2A755\M+2BD75
 62
     1
 10
-578.74827418864766
 20
-121.6799719316828
 30
0.0
 11
-579.06810308106651
 21
-121.6799719316828
 31
0.0
  0
SOLID
  5
69D8
  8
\M+2BBB2\M+2A755\M+2BD75
 62
     1
 10
-580.78981124583891
 20
-121.6499719316828
 30
0.0
 11
-580.78981124583891
 21
-121.7099719316828
 31
0.0
 12
-580.96981124583874
 22
-121.6799719316828
 32
0.0
 13
-580.96981124583874
 23
-121.6799719316828
 33
0.0
  0
SOLID
  5
69D9
  8
\M+2BBB2\M+2A755\M+2BD75
 62
     1
 10
-578.74827418864766
 20
-121.6499719316828
 30
0.0
 11
-578.74827418864766
 21
-121.7099719316828
 31
0.0
 12
-578.56827418864782
 22
-121.6799719316828
 32
0.0
 13
-578.56827418864782
 23
-121.6799719316828
 33
0.0
  0
TEXT
  5
69DA
  8
\M+2BBB2\M+2A755\M+2BD75
 62
     1
 10
-580.44976974773294
 20
-121.7216385983494
 30
0.0
 40
0.125
  1
2.402 [61.00]
  0
POINT
  5
69DB
  8
DEFPOINTS
 62
     0
 10
-580.96981124583874
 20
-120.67118796385481
 30
0.0
  0
POINT
  5
69DC
  8
DEFPOINTS
 62
     0
 10
-578.56827418864782
 20
-120.6726873566049
 30
0.0
  0
POINT
  5
69DD
  8
DEFPOINTS
 62
     0
 10
-578.56827418864782
 20
-121.6799719316828
 30
0.0
  0
ENDBLK
  5
1985
  8
0
  0
BLOCK
  8
0
  2
*D7
 70
     1
 10
0.0
 20
0.0
 30
0.0
  3
*D7
  1

  0
LINE
  5
6A28
  8
\M+2BBB2\M+2A755\M+2BD75
 62
     1
 10
-574.73176295116173
 20
-117.6244252197325
 30
0.0
 11
-574.73176295116173
 21
-115.60729842616649
 31
0.0
  0
LINE
  5
6A29
  8
\M+2BBB2\M+2A755\M+2BD75
 62
     1
 10
-574.36168495116158
 20
-117.6244252197325
 30
0.0
 11
-574.36168495116158
 21
-115.60729842616649
 31
0.0
  0
LINE
  5
6A2A
  8
\M+2BBB2\M+2A755\M+2BD75
 62
     1
 10
-574.91176295116168
 20
-115.7872984261665
 30
0.0
 11
-575.09176295116174
 21
-115.7872984261665
 31
0.0
  0
LINE
  5
6A2B
  8
\M+2BBB2\M+2A755\M+2BD75
 62
     1
 10
-574.18168495116174
 20
-115.7872984261665
 30
0.0
 11
-574.00168495116168
 21
-115.7872984261665
 31
0.0
  0
SOLID
  5
6A2C
  8
\M+2BBB2\M+2A755\M+2BD75
 62
     1
 10
-574.91176295116168
 20
-115.7572984261665
 30
0.0
 11
-574.91176295116168
 21
-115.8172984261665
 31
0.0
 12
-574.73176295116173
 22
-115.7872984261665
 32
0.0
 13
-574.73176295116173
 23
-115.7872984261665
 33
0.0
  0
SOLID
  5
6A2D
  8
\M+2BBB2\M+2A755\M+2BD75
 62
     1
 10
-574.18168495116174
 20
-115.7572984261665
 30
0.0
 11
-574.18168495116174
 21
-115.8172984261665
 31
0.0
 12
-574.36168495116158
 22
-115.7872984261665
 32
0.0
 13
-574.36168495116158
 23
-115.7872984261665
 33
0.0
  0
TEXT
  5
6A2E
  8
\M+2BBB2\M+2A755\M+2BD75
 62
     1
 10
-573.91168495116165
 20
-115.8289650928331
 30
0.0
 40
0.125
  1
0.370 [9.40]
  0
POINT
  5
6A2F
  8
DEFPOINTS
 62
     0
 10
-574.73176295116173
 20
-117.6869252197325
 30
0.0
  0
POINT
  5
6A30
  8
DEFPOINTS
 62
     0
 10
-574.36168495116158
 20
-117.6869252197325
 30
0.0
  0
POINT
  5
6A31
  8
DEFPOINTS
 62
     0
 10
-574.36168495116158
 20
-115.7872984261665
 30
0.0
  0
ENDBLK
  5
19A4
  8
0
  0
BLOCK
  8
0
  2
*D8
 70
     1
 10
0.0
 20
0.0
 30
0.0
  3
*D8
  1

  0
LINE
  5
6A0C
  8
\M+2BBB2\M+2A755\M+2BD75
 62
     1
 10
-581.40185292359013
 20
-118.8753052830324
 30
0.0
 11
-581.40185292359013
 21
-115.1107248027464
 31
0.0
  0
LINE
  5
6A0D
  8
\M+2BBB2\M+2A755\M+2BD75
 62
     1
 10
-578.13414290918922
 20
-118.8743053185389
 30
0.0
 11
-578.13414290918922
 21
-115.1107248027464
 31
0.0
  0
LINE
  5
6A0E
  8
\M+2BBB2\M+2A755\M+2BD75
 62
     1
 10
-581.22185292358995
 20
-115.2907248027464
 30
0.0
 11
-580.51854988173875
 21
-115.2907248027464
 31
0.0
  0
LINE
  5
6A0F
  8
\M+2BBB2\M+2A755\M+2BD75
 62
     1
 10
-578.31414290918906
 20
-115.2907248027464
 30
0.0
 11
-579.02307369126277
 21
-115.2907248027464
 31
0.0
  0
SOLID
  5
6A10
  8
\M+2BBB2\M+2A755\M+2BD75
 62
     1
 10
-581.22185292358995
 20
-115.2607248027464
 30
0.0
 11
-581.22185292358995
 21
-115.3207248027464
 31
0.0
 12
-581.40185292359013
 22
-115.2907248027464
 32
0.0
 13
-581.40185292359013
 23
-115.2907248027464
 33
0.0
  0
SOLID
  5
6A11
  8
\M+2BBB2\M+2A755\M+2BD75
 62
     1
 10
-578.31414290918906
 20
-115.2607248027464
 30
0.0
 11
-578.31414290918906
 21
-115.3207248027464
 31
0.0
 12
-578.13414290918922
 22
-115.2907248027464
 32
0.0
 13
-578.13414290918922
 23
-115.2907248027464
 33
0.0
  0
TEXT
  5
6A12
  8
\M+2BBB2\M+2A755\M+2BD75
 62
     1
 10
-580.42854988173883
 20
-115.332391469413
 30
0.0
 40
0.125
  1
3.268 [83.00]
  0
POINT
  5
6A13
  8
DEFPOINTS
 62
     0
 10
-581.40185292359013
 20
-118.9378052830324
 30
0.0
  0
POINT
  5
6A14
  8
DEFPOINTS
 62
     0
 10
-578.13414290918922
 20
-118.9368053185388
 30
0.0
  0
POINT
  5
6A15
  8
DEFPOINTS
 62
     0
 10
-578.13414290918922
 20
-115.2907248027464
 30
0.0
  0
ENDBLK
  5
1A45
  8
0
  0
BLOCK
  8
0
  2
*D9
 70
     1
 10
0.0
 20
0.0
 30
0.0
  3
*D9
  1

  0
LINE
  5
698D
  8
\M+2BBB2\M+2A755\M+2BD75
 62
     1
 10
-579.8304979235902
 20
-116.67403028303239
 30
0.0
 11
-584.18969186363188
 21
-116.67403028303239
 31
0.0
  0
LINE
  5
698E
  8
\M+2BBB2\M+2A755\M+2BD75
 62
     1
 10
-579.83048822331216
 20
-121.2015802830235
 30
0.0
 11
-584.18969186363188
 21
-121.2015802830235
 31
0.0
  0
LINE
  5
698F
  8
\M+2BBB2\M+2A755\M+2BD75
 62
     1
 10
-584.0096918636317
 20
-116.8540302830324
 30
0.0
 11
-584.0096918636317
 21
-119.1342241986171
 31
0.0
  0
LINE
  5
6990
  8
\M+2BBB2\M+2A755\M+2BD75
 62
     1
 10
-584.0096918636317
 20
-121.0215802830235
 30
0.0
 11
-584.0096918636317
 21
-119.5047003890933
 31
0.0
  0
SOLID
  5
6991
  8
\M+2BBB2\M+2A755\M+2BD75
 62
     1
 10
-584.0396918636319
 20
-116.8540302830324
 30
0.0
 11
-583.97969186363184
 21
-116.8540302830324
 31
0.0
 12
-584.0096918636317
 22
-116.67403028303239
 32
0.0
 13
-584.0096918636317
 23
-116.67403028303239
 33
0.0
  0
SOLID
  5
6992
  8
\M+2BBB2\M+2A755\M+2BD75
 62
     1
 10
-584.0396918636319
 20
-121.0215802830235
 30
0.0
 11
-583.97969186363184
 21
-121.0215802830235
 31
0.0
 12
-584.0096918636317
 22
-121.2015802830235
 32
0.0
 13
-584.0096918636317
 23
-121.2015802830235
 33
0.0
  0
TEXT
  5
6993
  8
\M+2BBB2\M+2A755\M+2BD75
 62
     1
 10
-584.70314424458411
 20
-119.3611289605219
 30
0.0
 40
0.125
  1
4.528 [115.00]
  0
POINT
  5
6994
  8
DEFPOINTS
 62
     0
 10
-579.76799792358997
 20
-116.67403028303239
 30
0.0
  0
POINT
  5
6995
  8
DEFPOINTS
 62
     0
 10
-579.76798822331239
 20
-121.2015802830235
 30
0.0
  0
POINT
  5
6996
  8
DEFPOINTS
 62
     0
 10
-584.0096918636317
 20
-121.2015802830235
 30
0.0
  0
ENDBLK
  5
1A5D
  8
0
  0
BLOCK
  8
0
  2
*D10
 70
     1
 10
0.0
 20
0.0
 30
0.0
  3
*D10
  1

  0
LINE
  5
69BF
  8
\M+2BBB2\M+2A755\M+2BD75
 62
     1
 10
-581.4018432233122
 20
-122.61812184448161
 30
0.0
 11
-581.4018432233122
 21
-122.22827987293149
 31
0.0
  0
LINE
  5
69C0
  8
\M+2BBB2\M+2A755\M+2BD75
 62
     1
 10
-581.36247322331224
 20
-122.61812184448161
 30
0.0
 11
-581.36247322331224
 21
-122.22827987293149
 31
0.0
  0
LINE
  5
69C1
  8
\M+2BBB2\M+2A755\M+2BD75
 62
     1
 10
-581.1824732233124
 20
-122.4082798729316
 30
0.0
 11
-581.00247322331222
 21
-122.4082798729316
 31
0.0
  0
LINE
  5
69C2
  8
\M+2BBB2\M+2A755\M+2BD75
 62
     1
 10
-581.58184322331215
 20
-122.4082798729316
 30
0.0
 11
-582.15852927440585
 21
-122.4082798729316
 31
0.0
  0
SOLID
  5
69C3
  8
\M+2BBB2\M+2A755\M+2BD75
 62
     1
 10
-581.1824732233124
 20
-122.3782798729315
 30
0.0
 11
-581.1824732233124
 21
-122.4382798729315
 31
0.0
 12
-581.36247322331224
 22
-122.4082798729316
 32
0.0
 13
-581.36247322331224
 23
-122.4082798729316
 33
0.0
  0
SOLID
  5
69C4
  8
\M+2BBB2\M+2A755\M+2BD75
 62
     1
 10
-581.58184322331215
 20
-122.3782798729315
 30
0.0
 11
-581.58184322331215
 21
-122.4382798729315
 31
0.0
 12
-581.4018432233122
 22
-122.4082798729316
 32
0.0
 13
-581.4018432233122
 23
-122.4082798729316
 33
0.0
  0
TEXT
  5
69C5
  8
\M+2BBB2\M+2A755\M+2BD75
 62
     1
 10
-583.42114832202515
 20
-122.4499465395982
 30
0.0
 40
0.125
  1
0.039 [1.00]
  0
POINT
  5
69C6
  8
DEFPOINTS
 62
     0
 10
-581.4018432233122
 20
-122.68062184448161
 30
0.0
  0
POINT
  5
69C7
  8
DEFPOINTS
 62
     0
 10
-581.36247322331224
 20
-122.68062184448161
 30
0.0
  0
POINT
  5
69C8
  8
DEFPOINTS
 62
     0
 10
-581.36247322331224
 20
-122.4082798729316
 30
0.0
  0
ENDBLK
  5
1A77
  8
0
  0
BLOCK
  8
0
  2
*D11
 70
     1
 10
0.0
 20
0.0
 30
0.0
  3
*D11
  1

  0
LINE
  5
6A16
  8
\M+2BBB2\M+2A755\M+2BD75
 62
     1
 10
-580.96875044866965
 20
-117.14218734829539
 30
0.0
 11
-580.96875044866965
 21
-115.8721376323395
 31
0.0
  0
LINE
  5
6A17
  8
\M+2BBB2\M+2A755\M+2BD75
 62
     1
 10
-578.56721292359009
 20
-117.1421577628483
 30
0.0
 11
-578.56721292359009
 21
-115.8721376323395
 31
0.0
  0
LINE
  5
6A18
  8
\M+2BBB2\M+2A755\M+2BD75
 62
     1
 10
-580.78875044866959
 20
-116.05213763233949
 30
0.0
 11
-580.52320753095921
 21
-116.05213763233949
 31
0.0
  0
LINE
  5
6A19
  8
\M+2BBB2\M+2A755\M+2BD75
 62
     1
 10
-578.74721292359004
 20
-116.05213763233949
 30
0.0
 11
-579.05154086429263
 21
-116.05213763233949
 31
0.0
  0
SOLID
  5
6A1A
  8
\M+2BBB2\M+2A755\M+2BD75
 62
     1
 10
-580.78875044866959
 20
-116.02213763233949
 30
0.0
 11
-580.78875044866959
 21
-116.0821376323394
 31
0.0
 12
-580.96875044866965
 22
-116.05213763233949
 32
0.0
 13
-580.96875044866965
 23
-116.05213763233949
 33
0.0
  0
SOLID
  5
6A1B
  8
\M+2BBB2\M+2A755\M+2BD75
 62
     1
 10
-578.74721292359004
 20
-116.02213763233949
 30
0.0
 11
-578.74721292359004
 21
-116.0821376323394
 31
0.0
 12
-578.56721292359009
 22
-116.05213763233949
 32
0.0
 13
-578.56721292359009
 23
-116.05213763233949
 33
0.0
  0
TEXT
  5
6A1C
  8
\M+2BBB2\M+2A755\M+2BD75
 62
     1
 10
-580.43320753095918
 20
-116.09380429900609
 30
0.0
 40
0.125
  1
2.402 [61.00]
  0
POINT
  5
6A1D
  8
DEFPOINTS
 62
     0
 10
-580.96875044866965
 20
-117.20468734829539
 30
0.0
  0
POINT
  5
6A1E
  8
DEFPOINTS
 62
     0
 10
-578.56721292359009
 20
-117.2046577628482
 30
0.0
  0
POINT
  5
6A1F
  8
DEFPOINTS
 62
     0
 10
-578.56721292359009
 20
-116.05213763233949
 30
0.0
  0
ENDBLK
  5
1AAB
  8
0
  0
BLOCK
  8
0
  2
*D12
 70
     1
 10
0.0
 20
0.0
 30
0.0
  3
*D12
  1

  0
LINE
  5
6A02
  8
\M+2BBB2\M+2A755\M+2BD75
 62
     1
 10
-581.01795421877523
 20
-117.496503517607
 30
0.0
 11
-581.01795421877523
 21
-115.5410885500594
 31
0.0
  0
LINE
  5
6A03
  8
\M+2BBB2\M+2A755\M+2BD75
 62
     1
 10
-578.51800042359014
 20
-117.49647271973259
 30
0.0
 11
-578.51800042359014
 21
-115.5410885500594
 31
0.0
  0
LINE
  5
6A04
  8
\M+2BBB2\M+2A755\M+2BD75
 62
     1
 10
-580.83795421877517
 20
-115.72108855005941
 30
0.0
 11
-580.31980230869692
 21
-115.72108855005941
 31
0.0
  0
LINE
  5
6A05
  8
\M+2BBB2\M+2A755\M+2BD75
 62
     1
 10
-578.69800042359009
 20
-115.72108855005941
 30
0.0
 11
-578.82432611822071
 21
-115.72108855005941
 31
0.0
  0
SOLID
  5
6A06
  8
\M+2BBB2\M+2A755\M+2BD75
 62
     1
 10
-580.83795421877517
 20
-115.6910885500594
 30
0.0
 11
-580.83795421877517
 21
-115.75108855005939
 31
0.0
 12
-581.01795421877523
 22
-115.72108855005941
 32
0.0
 13
-581.01795421877523
 23
-115.72108855005941
 33
0.0
  0
SOLID
  5
6A07
  8
\M+2BBB2\M+2A755\M+2BD75
 62
     1
 10
-578.69800042359009
 20
-115.6910885500594
 30
0.0
 11
-578.69800042359009
 21
-115.75108855005939
 31
0.0
 12
-578.51800042359014
 22
-115.72108855005941
 32
0.0
 13
-578.51800042359014
 23
-115.72108855005941
 33
0.0
  0
TEXT
  5
6A08
  8
\M+2BBB2\M+2A755\M+2BD75
 62
     1
 10
-580.22980230869689
 20
-115.76275521672601
 30
0.0
 40
0.125
  1
2.500 [63.50]
  0
POINT
  5
6A09
  8
DEFPOINTS
 62
     0
 10
-581.01795421877523
 20
-117.5590035176069
 30
0.0
  0
POINT
  5
6A0A
  8
DEFPOINTS
 62
     0
 10
-578.51800042359014
 20
-117.55897271973249
 30
0.0
  0
POINT
  5
6A0B
  8
DEFPOINTS
 62
     0
 10
-578.51800042359014
 20
-115.72108855005941
 30
0.0
  0
ENDBLK
  5
1AC3
  8
0
  0
BLOCK
  8
0
  2
*D13
 70
     1
 10
0.0
 20
0.0
 30
0.0
  3
*D13
  1

  0
LINE
  5
6997
  8
\M+2BBB2\M+2A755\M+2BD75
 62
     1
 10
-581.12967544866956
 20
-117.20468734829539
 30
0.0
 11
-583.30324390267924
 21
-117.20468734829539
 31
0.0
  0
LINE
  5
6998
  8
\M+2BBB2\M+2A755\M+2BD75
 62
     1
 10
-581.12967544866956
 20
-120.67118796385481
 30
0.0
 11
-583.30324390267924
 21
-120.67118796385481
 31
0.0
  0
LINE
  5
6999
  8
\M+2BBB2\M+2A755\M+2BD75
 62
     1
 10
-583.12324390267941
 20
-117.3846873482955
 30
0.0
 11
-583.12324390267941
 21
-118.5148955705527
 31
0.0
  0
LINE
  5
699A
  8
\M+2BBB2\M+2A755\M+2BD75
 62
     1
 10
-583.12324390267941
 20
-120.4911879638548
 30
0.0
 11
-583.12324390267941
 21
-118.85842814274871
 31
0.0
  0
SOLID
  5
699B
  8
\M+2BBB2\M+2A755\M+2BD75
 62
     1
 10
-583.15324390267915
 20
-117.3846873482955
 30
0.0
 11
-583.09324390267932
 21
-117.3846873482955
 31
0.0
 12
-583.12324390267941
 22
-117.20468734829539
 32
0.0
 13
-583.12324390267941
 23
-117.20468734829539
 33
0.0
  0
SOLID
  5
699C
  8
\M+2BBB2\M+2A755\M+2BD75
 62
     1
 10
-583.15324390267915
 20
-120.4911879638548
 30
0.0
 11
-583.09324390267932
 21
-120.4911879638548
 31
0.0
 12
-583.12324390267941
 22
-120.67118796385481
 32
0.0
 13
-583.12324390267941
 23
-120.67118796385481
 33
0.0
  0
INSERT
  5
699D
  8
\M+2BBB2\M+2A755\M+2BD75
  2
*U53
 10
0.0
 20
0.0
 30
0.0
  0
POINT
  5
699E
  8
DEFPOINTS
 62
     0
 10
-581.06717544866979
 20
-117.20468734829539
 30
0.0
  0
POINT
  5
699F
  8
DEFPOINTS
 62
     0
 10
-581.06717544866979
 20
-120.67118796385481
 30
0.0
  0
POINT
  5
69A0
  8
DEFPOINTS
 62
     0
 10
-583.12324390267941
 20
-120.67118796385481
 30
0.0
  0
ENDBLK
  5
1B13
  8
0
  0
BLOCK
  8
0
  2
*D14
 70
     1
 10
0.0
 20
0.0
 30
0.0
  3
*D14
  1

  0
LINE
  5
69A1
  8
\M+2BBB2\M+2A755\M+2BD75
 62
     1
 10
-581.17972315544546
 20
-120.3168417468363
 30
0.0
 11
-582.59971370006178
 21
-120.3168417468363
 31
0.0
  0
LINE
  5
69A2
  8
\M+2BBB2\M+2A755\M+2BD75
 62
     1
 10
-581.17972315544546
 20
-117.5590035176069
 30
0.0
 11
-582.59971370006178
 21
-117.5590035176069
 31
0.0
  0
LINE
  5
69A3
  8
\M+2BBB2\M+2A755\M+2BD75
 62
     1
 10
-582.41971370006195
 20
-120.1368417468362
 30
0.0
 11
-582.41971370006195
 21
-118.2256277055443
 31
0.0
  0
LINE
  5
69A4
  8
\M+2BBB2\M+2A755\M+2BD75
 62
     1
 10
-582.41971370006195
 20
-117.7390035176069
 30
0.0
 11
-582.41971370006195
 21
-117.8820951333481
 31
0.0
  0
SOLID
  5
69A5
  8
\M+2BBB2\M+2A755\M+2BD75
 62
     1
 10
-582.44971370006203
 20
-120.1368417468362
 30
0.0
 11
-582.38971370006209
 21
-120.1368417468362
 31
0.0
 12
-582.41971370006195
 22
-120.3168417468363
 32
0.0
 13
-582.41971370006195
 23
-120.3168417468363
 33
0.0
  0
SOLID
  5
69A6
  8
\M+2BBB2\M+2A755\M+2BD75
 62
     1
 10
-582.44971370006203
 20
-117.7390035176069
 30
0.0
 11
-582.38971370006209
 21
-117.7390035176069
 31
0.0
 12
-582.41971370006195
 22
-117.5590035176069
 32
0.0
 13
-582.41971370006195
 23
-117.5590035176069
 33
0.0
  0
INSERT
  5
69A7
  8
\M+2BBB2\M+2A755\M+2BD75
  2
*U54
 10
0.0
 20
0.0
 30
0.0
  0
POINT
  5
69A8
  8
DEFPOINTS
 62
     0
 10
-581.11722315544534
 20
-120.3168417468363
 30
0.0
  0
POINT
  5
69A9
  8
DEFPOINTS
 62
     0
 10
-581.11722315544534
 20
-117.5590035176069
 30
0.0
  0
POINT
  5
69AA
  8
DEFPOINTS
 62
     0
 10
-582.41971370006195
 20
-117.5590035176069
 30
0.0
  0
ENDBLK
  5
1B2B
  8
0
  0
BLOCK
  8
0
  2
*D15
 70
     1
 10
0.0
 20
0.0
 30
0.0
  3
*D15
  1

  0
LINE
  5
6879
  8
\M+2BBB2\M+2A755\M+2BD75
 62
     1
 10
-580.7009672526151
 20
-128.16002749135939
 30
0.0
 11
-582.51909506633035
 21
-128.16002749135939
 31
0.0
  0
LINE
  5
687A
  8
\M+2BBB2\M+2A755\M+2BD75
 62
     1
 10
-580.70012390910938
 20
-130.91592736232201
 30
0.0
 11
-582.51909506633035
 21
-130.91592736232201
 31
0.0
  0
LINE
  5
687B
  8
\M+2BBB2\M+2A755\M+2BD75
 62
     1
 10
-582.33909506633051
 20
-128.34002749135931
 30
0.0
 11
-582.33909506633051
 21
-128.56801276237161
 31
0.0
  0
LINE
  5
687C
  8
\M+2BBB2\M+2A755\M+2BD75
 62
     1
 10
-582.33909506633051
 20
-130.735927362322
 30
0.0
 11
-582.33909506633051
 21
-128.93848895284771
 31
0.0
  0
SOLID
  5
687D
  8
\M+2BBB2\M+2A755\M+2BD75
 62
     1
 10
-582.36909506633026
 20
-128.34002749135931
 30
0.0
 11
-582.30909506633054
 21
-128.34002749135931
 31
0.0
 12
-582.33909506633051
 22
-128.16002749135939
 32
0.0
 13
-582.33909506633051
 23
-128.16002749135939
 33
0.0
  0
SOLID
  5
687E
  8
\M+2BBB2\M+2A755\M+2BD75
 62
     1
 10
-582.36909506633026
 20
-130.735927362322
 30
0.0
 11
-582.30909506633054
 21
-130.735927362322
 31
0.0
 12
-582.33909506633051
 22
-130.91592736232201
 32
0.0
 13
-582.33909506633051
 23
-130.91592736232201
 33
0.0
  0
TEXT
  5
687F
  8
\M+2BBB2\M+2A755\M+2BD75
 62
     1
 10
-582.99683316156859
 20
-128.7949175242764
 30
0.0
 40
0.125
  1
2.756 [70.00]
  0
POINT
  5
6880
  8
DEFPOINTS
 62
     0
 10
-580.63846725261487
 20
-128.16002749135939
 30
0.0
  0
POINT
  5
6881
  8
DEFPOINTS
 62
     0
 10
-580.63762390910915
 20
-130.91592736232201
 30
0.0
  0
POINT
  5
6882
  8
DEFPOINTS
 62
     0
 10
-582.33909506633051
 20
-130.91592736232201
 30
0.0
  0
ENDBLK
  5
1BEB
  8
0
  0
BLOCK
  8
0
  2
*D16
 70
     1
 10
0.0
 20
0.0
 30
0.0
  3
*D16
  1

  0
LINE
  5
686F
  8
\M+2BBB2\M+2A755\M+2BD75
 62
     1
 10
-580.90787737149651
 20
-127.805682481657
 30
0.0
 11
-583.37224697888598
 21
-127.805682481657
 31
0.0
  0
LINE
  5
6870
  8
\M+2BBB2\M+2A755\M+2BD75
 62
     1
 10
-580.90787737149651
 20
-131.27024231943849
 30
0.0
 11
-583.37224697888598
 21
-131.27024231943849
 31
0.0
  0
LINE
  5
6871
  8
\M+2BBB2\M+2A755\M+2BD75
 62
     1
 10
-583.19224697888603
 20
-127.98568248165699
 30
0.0
 11
-583.19224697888603
 21
-129.43158838771481
 31
0.0
  0
LINE
  5
6872
  8
\M+2BBB2\M+2A755\M+2BD75
 62
     1
 10
-583.19224697888603
 20
-131.09024231943849
 30
0.0
 11
-583.19224697888603
 21
-129.80206457819091
 31
0.0
  0
SOLID
  5
6873
  8
\M+2BBB2\M+2A755\M+2BD75
 62
     1
 10
-583.22224697888601
 20
-127.98568248165699
 30
0.0
 11
-583.16224697888595
 21
-127.98568248165699
 31
0.0
 12
-583.19224697888603
 22
-127.805682481657
 32
0.0
 13
-583.19224697888603
 23
-127.805682481657
 33
0.0
  0
SOLID
  5
6874
  8
\M+2BBB2\M+2A755\M+2BD75
 62
     1
 10
-583.22224697888601
 20
-131.09024231943849
 30
0.0
 11
-583.16224697888595
 21
-131.09024231943849
 31
0.0
 12
-583.19224697888603
 22
-131.27024231943849
 32
0.0
 13
-583.19224697888603
 23
-131.27024231943849
 33
0.0
  0
TEXT
  5
6875
  8
\M+2BBB2\M+2A755\M+2BD75
 62
     1
 10
-583.84998507412411
 20
-129.65849314961969
 30
0.0
 40
0.125
  1
3.465 [88.00]
  0
POINT
  5
6876
  8
DEFPOINTS
 62
     0
 10
-580.84537737149651
 20
-127.805682481657
 30
0.0
  0
POINT
  5
6877
  8
DEFPOINTS
 62
     0
 10
-580.84537737149651
 20
-131.27024231943849
 30
0.0
  0
POINT
  5
6878
  8
DEFPOINTS
 62
     0
 10
-583.19224697888603
 20
-131.27024231943849
 30
0.0
  0
ENDBLK
  5
1C03
  8
0
  0
BLOCK
  8
0
  2
*D17
 70
     1
 10
0.0
 20
0.0
 30
0.0
  3
*D17
  1

  0
LINE
  5
69C9
  8
\M+2BBB2\M+2A755\M+2BD75
 62
     1
 10
-578.11100322331242
 20
-122.7278658444816
 30
0.0
 11
-577.74746520548319
 21
-122.7278658444816
 31
0.0
  0
LINE
  5
69CA
  8
\M+2BBB2\M+2A755\M+2BD75
 62
     1
 10
-578.07163322331223
 20
-122.68062184448161
 30
0.0
 11
-577.74746520548319
 21
-122.68062184448161
 31
0.0
  0
LINE
  5
69CB
  8
\M+2BBB2\M+2A755\M+2BD75
 62
     1
 10
-577.92746520548337
 20
-122.90786584448161
 30
0.0
 11
-577.92746520548337
 21
-123.0878658444815
 31
0.0
  0
LINE
  5
69CC
  8
\M+2BBB2\M+2A755\M+2BD75
 62
     1
 10
-577.92746520548337
 20
-122.5006218444816
 30
0.0
 11
-577.92746520548337
 21
-122.23044464210049
 31
0.0
  0
LINE
  5
69CD
  8
\M+2BBB2\M+2A755\M+2BD75
 62
     1
 10
-577.92746520548337
 20
-122.23044464210049
 30
0.0
 11
-577.74746520548319
 21
-122.23044464210049
 31
0.0
  0
SOLID
  5
69CE
  8
\M+2BBB2\M+2A755\M+2BD75
 62
     1
 10
-577.95746520548323
 20
-122.90786584448161
 30
0.0
 11
-577.89746520548329
 21
-122.90786584448161
 31
0.0
 12
-577.92746520548337
 22
-122.7278658444816
 32
0.0
 13
-577.92746520548337
 23
-122.7278658444816
 33
0.0
  0
SOLID
  5
69CF
  8
\M+2BBB2\M+2A755\M+2BD75
 62
     1
 10
-577.95746520548323
 20
-122.5006218444816
 30
0.0
 11
-577.89746520548329
 21
-122.5006218444816
 31
0.0
 12
-577.92746520548337
 22
-122.68062184448161
 32
0.0
 13
-577.92746520548337
 23
-122.68062184448161
 33
0.0
  0
TEXT
  5
69D0
  8
\M+2BBB2\M+2A755\M+2BD75
 62
     1
 10
-577.65746520548316
 20
-122.27211130876719
 30
0.0
 40
0.125
  1
0.047 [1.20]
  0
POINT
  5
69D1
  8
DEFPOINTS
 62
     0
 10
-578.17350322331242
 20
-122.7278658444816
 30
0.0
  0
POINT
  5
69D2
  8
DEFPOINTS
 62
     0
 10
-578.13413322331223
 20
-122.68062184448161
 30
0.0
  0
POINT
  5
69D3
  8
DEFPOINTS
 62
     0
 10
-577.92746520548337
 20
-122.68062184448161
 30
0.0
  0
ENDBLK
  5
1CE2
  8
0
  0
BLOCK
  8
0
  2
*D18
 70
     1
 10
0.0
 20
0.0
 30
0.0
  3
*D18
  1

  0
LINE
  5
68B9
  8
\M+2BBB2\M+2A755\M+2BD75
 62
     1
 10
-571.17935145850026
 20
-129.2913817280336
 30
0.0
 11
-571.17935145850026
 21
-129.52764784717539
 31
0.0
  0
LINE
  5
68BA
  8
\M+2BBB2\M+2A755\M+2BD75
 62
     1
 10
-571.13998145850019
 20
-129.2913817280336
 30
0.0
 11
-571.13998145850019
 21
-129.52764784717539
 31
0.0
  0
LINE
  5
68BB
  8
\M+2BBB2\M+2A755\M+2BD75
 62
     1
 10
-571.35935145850021
 20
-129.34764784717541
 30
0.0
 11
-571.53935145850005
 21
-129.34764784717541
 31
0.0
  0
LINE
  5
68BC
  8
\M+2BBB2\M+2A755\M+2BD75
 62
     1
 10
-570.95998145850024
 20
-129.34764784717541
 30
0.0
 11
-570.34342200520564
 21
-129.34764784717541
 31
0.0
  0
SOLID
  5
68BD
  8
\M+2BBB2\M+2A755\M+2BD75
 62
     1
 10
-571.35935145850021
 20
-129.31764784717541
 30
0.0
 11
-571.35935145850021
 21
-129.37764784717541
 31
0.0
 12
-571.17935145850026
 22
-129.34764784717541
 32
0.0
 13
-571.17935145850026
 23
-129.34764784717541
 33
0.0
  0
SOLID
  5
68BE
  8
\M+2BBB2\M+2A755\M+2BD75
 62
     1
 10
-570.95998145850024
 20
-129.31764784717541
 30
0.0
 11
-570.95998145850024
 21
-129.37764784717541
 31
0.0
 12
-571.13998145850019
 22
-129.34764784717541
 32
0.0
 13
-571.13998145850019
 23
-129.34764784717541
 33
0.0
  0
TEXT
  5
68BF
  8
\M+2BBB2\M+2A755\M+2BD75
 62
     1
 10
-570.25342200520561
 20
-129.38931451384209
 30
0.0
 40
0.125
  1
0.039 [1.00]
  0
POINT
  5
68C0
  8
DEFPOINTS
 62
     0
 10
-571.17935145850026
 20
-129.22888172803351
 30
0.0
  0
POINT
  5
68C1
  8
DEFPOINTS
 62
     0
 10
-571.13998145850019
 20
-129.22888172803351
 30
0.0
  0
POINT
  5
68C2
  8
DEFPOINTS
 62
     0
 10
-571.13998145850019
 20
-129.34764784717541
 30
0.0
  0
ENDBLK
  5
1E2C
  8
0
  0
BLOCK
  8
0
  2
*D19
 70
     1
 10
0.0
 20
0.0
 30
0.0
  3
*D19
  1

  0
LINE
  5
6851
  8
\M+2BBB2\M+2A755\M+2BD75
 62
     1
 10
-580.76647999143415
 20
-127.9991025097933
 30
0.0
 11
-580.76647999143415
 21
-125.97589385393221
 31
0.0
  0
LINE
  5
6852
  8
\M+2BBB2\M+2A755\M+2BD75
 62
     1
 10
-578.26648588799753
 20
-127.99756173157149
 30
0.0
 11
-578.26648588799753
 21
-125.97589385393221
 31
0.0
  0
LINE
  5
6853
  8
\M+2BBB2\M+2A755\M+2BD75
 62
     1
 10
-580.5864799914342
 20
-126.1558938539322
 30
0.0
 11
-580.32841861286784
 21
-126.1558938539322
 31
0.0
  0
LINE
  5
6854
  8
\M+2BBB2\M+2A755\M+2BD75
 62
     1
 10
-578.44648588799737
 20
-126.1558938539322
 30
0.0
 11
-578.83294242239174
 21
-126.1558938539322
 31
0.0
  0
SOLID
  5
6855
  8
\M+2BBB2\M+2A755\M+2BD75
 62
     1
 10
-580.5864799914342
 20
-126.1258938539322
 30
0.0
 11
-580.5864799914342
 21
-126.1858938539322
 31
0.0
 12
-580.76647999143415
 22
-126.1558938539322
 32
0.0
 13
-580.76647999143415
 23
-126.1558938539322
 33
0.0
  0
SOLID
  5
6856
  8
\M+2BBB2\M+2A755\M+2BD75
 62
     1
 10
-578.44648588799737
 20
-126.1258938539322
 30
0.0
 11
-578.44648588799737
 21
-126.1858938539322
 31
0.0
 12
-578.26648588799753
 22
-126.1558938539322
 32
0.0
 13
-578.26648588799753
 23
-126.1558938539322
 33
0.0
  0
TEXT
  5
6857
  8
\M+2BBB2\M+2A755\M+2BD75
 62
     1
 10
-580.23841861286769
 20
-126.1975605205988
 30
0.0
 40
0.125
  1
2.500 [63.50]
  0
POINT
  5
6858
  8
DEFPOINTS
 62
     0
 10
-580.76647999143415
 20
-128.0616025097932
 30
0.0
  0
POINT
  5
6859
  8
DEFPOINTS
 62
     0
 10
-578.26648588799753
 20
-128.06006173157161
 30
0.0
  0
POINT
  5
685A
  8
DEFPOINTS
 62
     0
 10
-578.26648588799753
 20
-126.1558938539322
 30
0.0
  0
ENDBLK
  5
1ED5
  8
0
  0
BLOCK
  8
0
  2
*D20
 70
     1
 10
0.0
 20
0.0
 30
0.0
  3
*D20
  1

  0
LINE
  5
6847
  8
\M+2BBB2\M+2A755\M+2BD75
 62
     1
 10
-580.71748511031535
 20
-127.644757500091
 30
0.0
 11
-580.71748511031535
 21
-126.62143962402951
 31
0.0
  0
LINE
  5
6848
  8
\M+2BBB2\M+2A755\M+2BD75
 62
     1
 10
-578.31591598817965
 20
-127.64327738243951
 30
0.0
 11
-578.31591598817965
 21
-126.62143962402951
 31
0.0
  0
LINE
  5
6849
  8
\M+2BBB2\M+2A755\M+2BD75
 62
     1
 10
-580.53748511031552
 20
-126.8014396240296
 30
0.0
 11
-580.33307606773678
 21
-126.8014396240296
 31
0.0
  0
LINE
  5
684A
  8
\M+2BBB2\M+2A755\M+2BD75
 62
     1
 10
-578.49591598817983
 20
-126.8014396240296
 30
0.0
 11
-578.86140940107043
 21
-126.8014396240296
 31
0.0
  0
SOLID
  5
684B
  8
\M+2BBB2\M+2A755\M+2BD75
 62
     1
 10
-580.53748511031552
 20
-126.7714396240295
 30
0.0
 11
-580.53748511031552
 21
-126.8314396240296
 31
0.0
 12
-580.71748511031535
 22
-126.8014396240296
 32
0.0
 13
-580.71748511031535
 23
-126.8014396240296
 33
0.0
  0
SOLID
  5
684C
  8
\M+2BBB2\M+2A755\M+2BD75
 62
     1
 10
-578.49591598817983
 20
-126.7714396240295
 30
0.0
 11
-578.49591598817983
 21
-126.8314396240296
 31
0.0
 12
-578.31591598817965
 22
-126.8014396240296
 32
0.0
 13
-578.31591598817965
 23
-126.8014396240296
 33
0.0
  0
TEXT
  5
684D
  8
\M+2BBB2\M+2A755\M+2BD75
 62
     1
 10
-580.24307606773709
 20
-126.8431062906962
 30
0.0
 40
0.125
  1
2.402 [61.00]
  0
POINT
  5
684E
  8
DEFPOINTS
 62
     0
 10
-580.71748511031535
 20
-127.7072575000909
 30
0.0
  0
POINT
  5
684F
  8
DEFPOINTS
 62
     0
 10
-578.31591598817965
 20
-127.70577738243939
 30
0.0
  0
POINT
  5
6850
  8
DEFPOINTS
 62
     0
 10
-578.31591598817965
 20
-126.8014396240296
 30
0.0
  0
ENDBLK
  5
1EED
  8
0
  0
BLOCK
  8
0
  2
*D21
 70
     1
 10
0.0
 20
0.0
 30
0.0
  3
*D21
  1

  0
LINE
  5
685B
  8
\M+2BBB2\M+2A755\M+2BD75
 62
     1
 10
-581.14943551288491
 20
-129.47923285362771
 30
0.0
 11
-581.14943551288491
 21
-125.3137956893719
 31
0.0
  0
LINE
  5
685C
  8
\M+2BBB2\M+2A755\M+2BD75
 62
     1
 10
-577.8817259149838
 20
-129.47950695860069
 30
0.0
 11
-577.8817259149838
 21
-125.3137956893719
 31
0.0
  0
LINE
  5
685D
  8
\M+2BBB2\M+2A755\M+2BD75
 62
     1
 10
-580.96943551288496
 20
-125.49379568937201
 30
0.0
 11
-580.22904472917105
 21
-125.49379568937201
 31
0.0
  0
LINE
  5
685E
  8
\M+2BBB2\M+2A755\M+2BD75
 62
     1
 10
-578.06172591498375
 20
-125.49379568937201
 30
0.0
 11
-578.73356853869495
 21
-125.49379568937201
 31
0.0
  0
SOLID
  5
685F
  8
\M+2BBB2\M+2A755\M+2BD75
 62
     1
 10
-580.96943551288496
 20
-125.46379568937201
 30
0.0
 11
-580.96943551288496
 21
-125.52379568937199
 31
0.0
 12
-581.14943551288491
 22
-125.49379568937201
 32
0.0
 13
-581.14943551288491
 23
-125.49379568937201
 33
0.0
  0
SOLID
  5
6860
  8
\M+2BBB2\M+2A755\M+2BD75
 62
     1
 10
-578.06172591498375
 20
-125.46379568937201
 30
0.0
 11
-578.06172591498375
 21
-125.52379568937199
 31
0.0
 12
-577.8817259149838
 22
-125.49379568937201
 32
0.0
 13
-577.8817259149838
 23
-125.49379568937201
 33
0.0
  0
TEXT
  5
6861
  8
\M+2BBB2\M+2A755\M+2BD75
 62
     1
 10
-580.13904472917113
 20
-125.53546235603859
 30
0.0
 40
0.125
  1
3.268 [83.00]
  0
POINT
  5
6862
  8
DEFPOINTS
 62
     0
 10
-581.14943551288491
 20
-129.54173285362771
 30
0.0
  0
POINT
  5
6863
  8
DEFPOINTS
 62
     0
 10
-577.8817259149838
 20
-129.54200695860069
 30
0.0
  0
POINT
  5
6864
  8
DEFPOINTS
 62
     0
 10
-577.8817259149838
 20
-125.49379568937201
 30
0.0
  0
ENDBLK
  5
1F05
  8
0
  0
BLOCK
  8
0
  2
*D22
 70
     1
 10
0.0
 20
0.0
 30
0.0
  3
*D22
  1

  0
LINE
  5
6865
  8
\M+2BBB2\M+2A755\M+2BD75
 62
     1
 10
-579.57808080724135
 20
-127.2743197640922
 30
0.0
 11
-584.26915021659261
 21
-127.2743197640922
 31
0.0
  0
LINE
  5
6866
  8
\M+2BBB2\M+2A755\M+2BD75
 62
     1
 10
-579.57807110696365
 20
-131.80186976408331
 30
0.0
 11
-584.26915021659261
 21
-131.80186976408331
 31
0.0
  0
LINE
  5
6867
  8
\M+2BBB2\M+2A755\M+2BD75
 62
     1
 10
-584.08915021659288
 20
-127.45431976409211
 30
0.0
 11
-584.08915021659288
 21
-130.26237008180331
 31
0.0
  0
LINE
  5
6868
  8
\M+2BBB2\M+2A755\M+2BD75
 62
     1
 10
-584.08915021659288
 20
-131.62186976408341
 30
0.0
 11
-584.08915021659288
 21
-130.63284627227941
 31
0.0
  0
SOLID
  5
6869
  8
\M+2BBB2\M+2A755\M+2BD75
 62
     1
 10
-584.11915021659274
 20
-127.45431976409211
 30
0.0
 11
-584.05915021659291
 21
-127.45431976409211
 31
0.0
 12
-584.08915021659288
 22
-127.2743197640922
 32
0.0
 13
-584.08915021659288
 23
-127.2743197640922
 33
0.0
  0
SOLID
  5
686A
  8
\M+2BBB2\M+2A755\M+2BD75
 62
     1
 10
-584.11915021659274
 20
-131.62186976408341
 30
0.0
 11
-584.05915021659291
 21
-131.62186976408341
 31
0.0
 12
-584.08915021659288
 22
-131.80186976408331
 32
0.0
 13
-584.08915021659288
 23
-131.80186976408331
 33
0.0
  0
TEXT
  5
686B
  8
\M+2BBB2\M+2A755\M+2BD75
 62
     1
 10
-584.78260259754529
 20
-130.4892748437081
 30
0.0
 40
0.125
  1
4.528 [115.00]
  0
POINT
  5
686C
  8
DEFPOINTS
 62
     0
 10
-579.51558080724135
 20
-127.2743197640922
 30
0.0
  0
POINT
  5
686D
  8
DEFPOINTS
 62
     0
 10
-579.51557110696365
 20
-131.80186976408331
 30
0.0
  0
POINT
  5
686E
  8
DEFPOINTS
 62
     0
 10
-584.08915021659288
 20
-131.80186976408331
 30
0.0
  0
ENDBLK
  5
1F1D
  8
0
  0
BLOCK
  8
0
  2
*D23
 70
     1
 10
0.0
 20
0.0
 30
0.0
  3
*D23
  1

  0
LINE
  5
69F2
  8
\M+2BBB2\M+2A755\M+2BD75
 62
     1
 10
-576.29823095692791
 20
-115.7276930225884
 30
0.0
 11
-576.11823095692569
 21
-115.7276930225884
 31
0.0
  0
LINE
  5
69F3
  8
\M+2BBB2\M+2A755\M+2BD75
 62
     1
 10
-576.11823095692569
 20
-115.7276930225884
 30
0.0
 11
-575.13334415708141
 21
-116.605223738497
 31
0.0
  0
TEXT
  5
69F4
  8
\M+2BBB2\M+2A755\M+2BD75
 62
     1
 10
-577.81085000454675
 20
-115.769359689255
 30
0.0
 40
0.125
  1
R0.059 [R1.50]
  0
SOLID
  5
69F5
  8
\M+2BBB2\M+2A755\M+2BD75
 62
     1
 10
-575.11338688402259
 20
-116.58282491593739
 30
0.0
 11
-575.15330143014012
 21
-116.6276225610568
 31
0.0
 12
-574.99895122172302
 22
-116.72496737684899
 32
0.0
 13
-574.99895122172302
 23
-116.72496737684899
 33
0.0
  0
LINE
  5
69F6
  8
\M+2BBB2\M+2A755\M+2BD75
 62
     1
 10
-575.04485913951419
 20
-116.76425326886491
 30
0.0
 11
-574.86485913951424
 21
-116.76425326886491
 31
0.0
  0
LINE
  5
69F7
  8
\M+2BBB2\M+2A755\M+2BD75
 62
     1
 10
-574.95485913951416
 20
-116.85425326886499
 30
0.0
 11
-574.95485913951416
 21
-116.6742532688649
 31
0.0
  0
POINT
  5
69F8
  8
DEFPOINTS
 62
     0
 10
-574.99895122172302
 20
-116.72496737684899
 30
0.0
  0
POINT
  5
69F9
  8
DEFPOINTS
 62
     0
 10
-574.95485913951416
 20
-116.76425326886491
 30
0.0
  0
ENDBLK
  5
1F6D
  8
0
  0
BLOCK
  8
0
  2
*D24
 70
     1
 10
0.0
 20
0.0
 30
0.0
  3
*D24
  1

  0
LINE
  5
68A5
  8
\M+2BBB2\M+2A755\M+2BD75
 62
     1
 10
-567.9357899475616
 20
-127.21181976410099
 30
0.0
 11
-567.9357899475616
 21
-126.6876494007182
 31
0.0
  0
LINE
  5
68A6
  8
\M+2BBB2\M+2A755\M+2BD75
 62
     1
 10
-567.94760094756157
 20
-127.63344000910941
 30
0.0
 11
-567.94760094756157
 21
-126.6876494007182
 31
0.0
  0
LINE
  5
68A7
  8
\M+2BBB2\M+2A755\M+2BD75
 62
     1
 10
-567.75578994756165
 20
-126.86764940071819
 30
0.0
 11
-567.57578994756136
 21
-126.86764940071819
 31
0.0
  0
LINE
  5
68A8
  8
\M+2BBB2\M+2A755\M+2BD75
 62
     1
 10
-568.12760094756152
 20
-126.86764940071819
 30
0.0
 11
-568.51860578360379
 21
-126.86764940071819
 31
0.0
  0
SOLID
  5
68A9
  8
\M+2BBB2\M+2A755\M+2BD75
 62
     1
 10
-567.75578994756165
 20
-126.83764940071811
 30
0.0
 11
-567.75578994756165
 21
-126.89764940071819
 31
0.0
 12
-567.9357899475616
 22
-126.86764940071819
 32
0.0
 13
-567.9357899475616
 23
-126.86764940071819
 33
0.0
  0
SOLID
  5
68AA
  8
\M+2BBB2\M+2A755\M+2BD75
 62
     1
 10
-568.12760094756152
 20
-126.83764940071811
 30
0.0
 11
-568.12760094756152
 21
-126.89764940071819
 31
0.0
 12
-567.94760094756157
 22
-126.86764940071819
 32
0.0
 13
-567.94760094756157
 23
-126.86764940071819
 33
0.0
  0
TEXT
  5
68AB
  8
\M+2BBB2\M+2A755\M+2BD75
 62
     1
 10
-569.78122483122274
 20
-126.90931606738479
 30
0.0
 40
0.125
  1
0.012 [0.30]
  0
POINT
  5
68AC
  8
DEFPOINTS
 62
     0
 10
-567.9357899475616
 20
-127.27431976410099
 30
0.0
  0
POINT
  5
68AD
  8
DEFPOINTS
 62
     0
 10
-567.94760094756157
 20
-127.69594000910929
 30
0.0
  0
POINT
  5
68AE
  8
DEFPOINTS
 62
     0
 10
-567.94760094756157
 20
-126.86764940071819
 30
0.0
  0
ENDBLK
  5
2322
  8
0
  0
BLOCK
  8
0
  2
*D25
 70
     1
 10
0.0
 20
0.0
 30
0.0
  3
*D25
  1

  0
LINE
  5
68AF
  8
\M+2BBB2\M+2A755\M+2BD75
 62
     1
 10
-567.9357899475616
 20
-127.187213514101
 30
0.0
 11
-567.9357899475616
 21
-126.0421037300394
 31
0.0
  0
LINE
  5
68B0
  8
\M+2BBB2\M+2A755\M+2BD75
 62
     1
 10
-567.86886094756153
 20
-127.257095264101
 30
0.0
 11
-567.86886094756153
 21
-126.0421037300394
 31
0.0
  0
LINE
  5
68B1
  8
\M+2BBB2\M+2A755\M+2BD75
 62
     1
 10
-567.68886094756135
 20
-126.22210373003939
 30
0.0
 11
-567.50886094756152
 21
-126.22210373003939
 31
0.0
  0
LINE
  5
68B2
  8
\M+2BBB2\M+2A755\M+2BD75
 62
     1
 10
-568.11578994756144
 20
-126.22210373003939
 30
0.0
 11
-568.51860578360379
 21
-126.22210373003939
 31
0.0
  0
SOLID
  5
68B3
  8
\M+2BBB2\M+2A755\M+2BD75
 62
     1
 10
-567.68886094756135
 20
-126.19210373003941
 30
0.0
 11
-567.68886094756135
 21
-126.25210373003939
 31
0.0
 12
-567.86886094756153
 22
-126.22210373003939
 32
0.0
 13
-567.86886094756153
 23
-126.22210373003939
 33
0.0
  0
SOLID
  5
68B4
  8
\M+2BBB2\M+2A755\M+2BD75
 62
     1
 10
-568.11578994756144
 20
-126.19210373003941
 30
0.0
 11
-568.11578994756144
 21
-126.25210373003939
 31
0.0
 12
-567.9357899475616
 22
-126.22210373003939
 32
0.0
 13
-567.9357899475616
 23
-126.22210373003939
 33
0.0
  0
TEXT
  5
68B5
  8
\M+2BBB2\M+2A755\M+2BD75
 62
     1
 10
-569.78122483122274
 20
-126.26377039670599
 30
0.0
 40
0.125
  1
0.067 [1.70]
  0
POINT
  5
68B6
  8
DEFPOINTS
 62
     0
 10
-567.9357899475616
 20
-127.249713514101
 30
0.0
  0
POINT
  5
68B7
  8
DEFPOINTS
 62
     0
 10
-567.86886094756153
 20
-127.319595264101
 30
0.0
  0
POINT
  5
68B8
  8
DEFPOINTS
 62
     0
 10
-567.86886094756153
 20
-126.22210373003939
 30
0.0
  0
ENDBLK
  5
233E
  8
0
  0
BLOCK
  8
0
  2
*D26
 70
     1
 10
0.0
 20
0.0
 30
0.0
  3
*D26
  1

  0
LINE
  5
6A5F
  8
\M+2BBB2\M+2A755\M+2BD75
 62
     1
 10
-560.26696217884341
 20
-117.1541747580234
 30
0.0
 11
-562.43673038472491
 21
-117.1541747580234
 31
0.0
  0
LINE
  5
6A60
  8
\M+2BBB2\M+2A755\M+2BD75
 62
     1
 10
-560.26696217884341
 20
-121.6816027110324
 30
0.0
 11
-562.43673038472491
 21
-121.6816027110324
 31
0.0
  0
LINE
  5
6A61
  8
\M+2BBB2\M+2A755\M+2BD75
 62
     1
 10
-562.25673038472496
 20
-117.33417475802349
 30
0.0
 11
-562.25673038472496
 21
-119.2647283126071
 31
0.0
  0
LINE
  5
6A62
  8
\M+2BBB2\M+2A755\M+2BD75
 62
     1
 10
-562.25673038472496
 20
-121.50160271103221
 30
0.0
 11
-562.25673038472496
 21
-119.6352045030833
 31
0.0
  0
SOLID
  5
6A63
  8
\M+2BBB2\M+2A755\M+2BD75
 62
     1
 10
-562.28673038472505
 20
-117.33417475802349
 30
0.0
 11
-562.2267303847251
 21
-117.33417475802349
 31
0.0
 12
-562.25673038472496
 22
-117.1541747580234
 32
0.0
 13
-562.25673038472496
 23
-117.1541747580234
 33
0.0
  0
SOLID
  5
6A64
  8
\M+2BBB2\M+2A755\M+2BD75
 62
     1
 10
-562.28673038472505
 20
-121.50160271103221
 30
0.0
 11
-562.2267303847251
 21
-121.50160271103221
 31
0.0
 12
-562.25673038472496
 22
-121.6816027110324
 32
0.0
 13
-562.25673038472496
 23
-121.6816027110324
 33
0.0
  0
TEXT
  5
6A65
  8
\M+2BBB2\M+2A755\M+2BD75
 62
     1
 10
-562.95018276567737
 20
-119.4916330745119
 30
0.0
 40
0.125
  1
4.527 [115.00]
  0
POINT
  5
6A66
  8
DEFPOINTS
 62
     0
 10
-560.20446217884341
 20
-117.1541747580234
 30
0.0
  0
POINT
  5
6A67
  8
DEFPOINTS
 62
     0
 10
-560.20446217884341
 20
-121.6816027110324
 30
0.0
  0
POINT
  5
6A68
  8
DEFPOINTS
 62
     0
 10
-562.25673038472496
 20
-121.6816027110324
 30
0.0
  0
ENDBLK
  5
49AA
  8
0
  0
BLOCK
  8
0
  2
*D27
 70
     1
 10
0.0
 20
0.0
 30
0.0
  3
*D27
  1

  0
LINE
  5
6A55
  8
\M+2BBB2\M+2A755\M+2BD75
 62
     1
 10
-560.94624415984333
 20
-117.3474616440884
 30
0.0
 11
-560.94624415984333
 21
-116.56467859697941
 31
0.0
  0
LINE
  5
6A56
  8
\M+2BBB2\M+2A755\M+2BD75
 62
     1
 10
-559.71625055684331
 20
-117.3474616440884
 30
0.0
 11
-559.71625055684331
 21
-116.56467859697941
 31
0.0
  0
LINE
  5
6A57
  8
\M+2BBB2\M+2A755\M+2BD75
 62
     1
 10
-559.89625055684326
 20
-116.7446785969795
 30
0.0
 11
-560.76624415984327
 21
-116.7446785969795
 31
0.0
  0
LINE
  5
6A58
  8
\M+2BBB2\M+2A755\M+2BD75
 62
     1
 10
-560.94624415984333
 20
-116.7446785969795
 30
0.0
 11
-561.1262441598434
 21
-116.7446785969795
 31
0.0
  0
SOLID
  5
6A59
  8
\M+2BBB2\M+2A755\M+2BD75
 62
     1
 10
-559.89625055684326
 20
-116.7146785969795
 30
0.0
 11
-559.89625055684326
 21
-116.7746785969794
 31
0.0
 12
-559.71625055684331
 22
-116.7446785969795
 32
0.0
 13
-559.71625055684331
 23
-116.7446785969795
 33
0.0
  0
SOLID
  5
6A5A
  8
\M+2BBB2\M+2A755\M+2BD75
 62
     1
 10
-560.76624415984327
 20
-116.7146785969795
 30
0.0
 11
-560.76624415984327
 21
-116.7746785969794
 31
0.0
 12
-560.94624415984333
 22
-116.7446785969795
 32
0.0
 13
-560.94624415984333
 23
-116.7446785969795
 33
0.0
  0
INSERT
  5
6A5B
  8
\M+2BBB2\M+2A755\M+2BD75
  2
*U55
 10
0.0
 20
0.0
 30
0.0
  0
POINT
  5
6A5C
  8
DEFPOINTS
 62
     0
 10
-560.94624415984333
 20
-117.4099616440885
 30
0.0
  0
POINT
  5
6A5D
  8
DEFPOINTS
 62
     0
 10
-559.71625055684331
 20
-117.4099616440885
 30
0.0
  0
POINT
  5
6A5E
  8
DEFPOINTS
 62
     0
 10
-559.71625055684331
 20
-116.7446785969795
 30
0.0
  0
ENDBLK
  5
49C0
  8
0
  0
BLOCK
  8
0
  2
*D28
 70
     1
 10
0.0
 20
0.0
 30
0.0
  3
*D28
  1

  0
LINE
  5
69E8
  8
\M+2BBB2\M+2A755\M+2BD75
 62
     1
 10
-574.94829795116163
 20
-117.7154810130929
 30
0.0
 11
-574.94829795116163
 21
-118.0032502026544
 31
0.0
  0
LINE
  5
69E9
  8
\M+2BBB2\M+2A755\M+2BD75
 62
     1
 10
-574.73176295116173
 20
-117.7154810130929
 30
0.0
 11
-574.73176295116173
 21
-118.0032502026544
 31
0.0
  0
LINE
  5
69EA
  8
\M+2BBB2\M+2A755\M+2BD75
 62
     1
 10
-574.55176295116166
 20
-117.82325020265441
 30
0.0
 11
-574.37176295116171
 21
-117.82325020265441
 31
0.0
  0
LINE
  5
69EB
  8
\M+2BBB2\M+2A755\M+2BD75
 62
     1
 10
-575.12829795116136
 20
-117.82325020265441
 30
0.0
 11
-575.4946934940574
 21
-117.82325020265441
 31
0.0
  0
SOLID
  5
69EC
  8
\M+2BBB2\M+2A755\M+2BD75
 62
     1
 10
-574.55176295116166
 20
-117.79325020265441
 30
0.0
 11
-574.55176295116166
 21
-117.85325020265439
 31
0.0
 12
-574.73176295116173
 22
-117.82325020265441
 32
0.0
 13
-574.73176295116173
 23
-117.82325020265441
 33
0.0
  0
SOLID
  5
69ED
  8
\M+2BBB2\M+2A755\M+2BD75
 62
     1
 10
-575.12829795116136
 20
-117.79325020265441
 30
0.0
 11
-575.12829795116136
 21
-117.85325020265439
 31
0.0
 12
-574.94829795116163
 22
-117.82325020265441
 32
0.0
 13
-574.94829795116163
 23
-117.82325020265441
 33
0.0
  0
TEXT
  5
69EE
  8
\M+2BBB2\M+2A755\M+2BD75
 62
     1
 10
-576.75731254167636
 20
-117.86491686932099
 30
0.0
 40
0.125
  1
0.217 [5.50]
  0
POINT
  5
69EF
  8
DEFPOINTS
 62
     0
 10
-574.94829795116163
 20
-117.652981013093
 30
0.0
  0
POINT
  5
69F0
  8
DEFPOINTS
 62
     0
 10
-574.73176295116173
 20
-117.652981013093
 30
0.0
  0
POINT
  5
69F1
  8
DEFPOINTS
 62
     0
 10
-574.73176295116173
 20
-117.82325020265441
 30
0.0
  0
ENDBLK
  5
4D02
  8
0
  0
BLOCK
  8
0
  2
*D29
 70
     1
 10
0.0
 20
0.0
 30
0.0
  3
*D29
  1

  0
LINE
  5
6983
  8
\M+2BBB2\M+2A755\M+2BD75
 62
     1
 10
-571.4512880008823
 20
-120.5913452830325
 30
0.0
 11
-568.97953315996097
 21
-120.5913452830325
 31
0.0
  0
LINE
  5
6984
  8
\M+2BBB2\M+2A755\M+2BD75
 62
     1
 10
-571.4512880008823
 20
-117.2842652830325
 30
0.0
 11
-568.97953315996097
 21
-117.2842652830325
 31
0.0
  0
LINE
  5
6985
  8
\M+2BBB2\M+2A755\M+2BD75
 62
     1
 10
-569.15953315996092
 20
-120.4113452830325
 30
0.0
 11
-569.15953315996092
 21
-119.20026497421691
 31
0.0
  0
LINE
  5
6986
  8
\M+2BBB2\M+2A755\M+2BD75
 62
     1
 10
-569.15953315996092
 20
-117.4642652830324
 30
0.0
 11
-569.15953315996092
 21
-118.8297887837409
 31
0.0
  0
SOLID
  5
6987
  8
\M+2BBB2\M+2A755\M+2BD75
 62
     1
 10
-569.18953315996066
 20
-120.4113452830325
 30
0.0
 11
-569.12953315996083
 21
-120.4113452830325
 31
0.0
 12
-569.15953315996092
 22
-120.5913452830325
 32
0.0
 13
-569.15953315996092
 23
-120.5913452830325
 33
0.0
  0
SOLID
  5
6988
  8
\M+2BBB2\M+2A755\M+2BD75
 62
     1
 10
-569.18953315996066
 20
-117.4642652830324
 30
0.0
 11
-569.12953315996083
 21
-117.4642652830324
 31
0.0
 12
-569.15953315996092
 22
-117.2842652830325
 32
0.0
 13
-569.15953315996092
 23
-117.2842652830325
 33
0.0
  0
TEXT
  5
6989
  8
\M+2BBB2\M+2A755\M+2BD75
 62
     1
 10
-569.81727125519899
 20
-119.0566935456457
 30
0.0
 40
0.125
  1
3.307 [84.00]
  0
POINT
  5
698A
  8
DEFPOINTS
 62
     0
 10
-571.51378800088253
 20
-120.5913452830325
 30
0.0
  0
POINT
  5
698B
  8
DEFPOINTS
 62
     0
 10
-571.51378800088253
 20
-117.2842652830325
 30
0.0
  0
POINT
  5
698C
  8
DEFPOINTS
 62
     0
 10
-569.15953315996092
 20
-117.2842652830325
 30
0.0
  0
ENDBLK
  5
4D54
  8
0
  0
BLOCK
  8
0
  2
*D30
 70
     1
 10
0.0
 20
0.0
 30
0.0
  3
*D30
  1

  0
LINE
  5
68C3
  8
\M+2BBB2\M+2A755\M+2BD75
 62
     1
 10
-568.10114394756135
 20
-128.3491576906313
 30
0.0
 11
-568.10114394756135
 21
-128.55392266544149
 31
0.0
  0
LINE
  5
68C4
  8
\M+2BBB2\M+2A755\M+2BD75
 62
     1
 10
-568.31767894756149
 20
-128.3491576906313
 30
0.0
 11
-568.31767894756149
 21
-128.55392266544149
 31
0.0
  0
LINE
  5
68C5
  8
\M+2BBB2\M+2A755\M+2BD75
 62
     1
 10
-567.92114394756163
 20
-128.3739226654414
 30
0.0
 11
-567.74114394756157
 21
-128.3739226654414
 31
0.0
  0
LINE
  5
68C6
  8
\M+2BBB2\M+2A755\M+2BD75
 62
     1
 10
-568.49767894756144
 20
-128.3739226654414
 30
0.0
 11
-568.78360280679465
 21
-128.3739226654414
 31
0.0
  0
SOLID
  5
68C7
  8
\M+2BBB2\M+2A755\M+2BD75
 62
     1
 10
-567.92114394756163
 20
-128.3439226654414
 30
0.0
 11
-567.92114394756163
 21
-128.4039226654414
 31
0.0
 12
-568.10114394756135
 22
-128.3739226654414
 32
0.0
 13
-568.10114394756135
 23
-128.3739226654414
 33
0.0
  0
SOLID
  5
68C8
  8
\M+2BBB2\M+2A755\M+2BD75
 62
     1
 10
-568.49767894756144
 20
-128.3439226654414
 30
0.0
 11
-568.49767894756144
 21
-128.4039226654414
 31
0.0
 12
-568.31767894756149
 22
-128.3739226654414
 32
0.0
 13
-568.31767894756149
 23
-128.3739226654414
 33
0.0
  0
TEXT
  5
68C9
  8
\M+2BBB2\M+2A755\M+2BD75
 62
     1
 10
-570.04622185441372
 20
-128.41558933210811
 30
0.0
 40
0.125
  1
0.217 [5.50]
  0
POINT
  5
68CA
  8
DEFPOINTS
 62
     0
 10
-568.10114394756135
 20
-128.2866576906313
 30
0.0
  0
POINT
  5
68CB
  8
DEFPOINTS
 62
     0
 10
-568.31767894756149
 20
-128.2866576906313
 30
0.0
  0
POINT
  5
68CC
  8
DEFPOINTS
 62
     0
 10
-568.31767894756149
 20
-128.3739226654414
 30
0.0
  0
ENDBLK
  5
4E14
  8
0
  0
BLOCK
  8
0
  2
*D31
 70
     1
 10
0.0
 20
0.0
 30
0.0
  3
*D31
  1

  0
LINE
  5
6895
  8
\M+2BBB2\M+2A755\M+2BD75
 62
     1
 10
-574.36871711289439
 20
-131.807465776546
 30
0.0
 11
-574.18871711289432
 21
-131.807465776546
 31
0.0
  0
LINE
  5
6896
  8
\M+2BBB2\M+2A755\M+2BD75
 62
     1
 10
-574.18871711289432
 20
-131.807465776546
 30
0.0
 11
-573.70802524945702
 21
-131.4202148952651
 31
0.0
  0
TEXT
  5
6897
  8
\M+2BBB2\M+2A755\M+2BD75
 62
     1
 10
-575.88133616051357
 20
-131.8491324432126
 30
0.0
 40
0.125
  1
R0.059 [R1.50]
  0
SOLID
  5
6898
  8
\M+2BBB2\M+2A755\M+2BD75
 62
     1
 10
-573.72684592785652
 20
-131.396852916227
 30
0.0
 11
-573.6892045710573
 21
-131.4435768743034
 31
0.0
 12
-573.56785337522774
 22
-131.3072908248682
 32
0.0
 13
-573.56785337522774
 23
-131.3072908248682
 33
0.0
  0
LINE
  5
6899
  8
\M+2BBB2\M+2A755\M+2BD75
 62
     1
 10
-573.6118653194909
 20
-131.27024231943849
 30
0.0
 11
-573.43186531949084
 21
-131.27024231943861
 31
0.0
  0
LINE
  5
689A
  8
\M+2BBB2\M+2A755\M+2BD75
 62
     1
 10
-573.52186531949098
 20
-131.3602423194387
 30
0.0
 11
-573.52186531949098
 21
-131.18024231943869
 31
0.0
  0
POINT
  5
689B
  8
DEFPOINTS
 62
     0
 10
-573.56785337522774
 20
-131.3072908248682
 30
0.0
  0
POINT
  5
689C
  8
DEFPOINTS
 62
     0
 10
-573.52186531949098
 20
-131.27024231943861
 30
0.0
  0
ENDBLK
  5
4E4A
  8
0
  0
BLOCK
  8
0
  2
*D32
 70
     1
 10
0.0
 20
0.0
 30
0.0
  3
*D32
  1

  0
LINE
  5
689D
  8
\M+2BBB2\M+2A755\M+2BD75
 62
     1
 10
-573.91608789958207
 20
-132.2487625608702
 30
0.0
 11
-573.73608789958212
 21
-132.2487625608702
 31
0.0
  0
LINE
  5
689E
  8
\M+2BBB2\M+2A755\M+2BD75
 62
     1
 10
-573.73608789958212
 20
-132.2487625608702
 30
0.0
 11
-573.58561914045094
 21
-131.56145533840061
 31
0.0
  0
TEXT
  5
689F
  8
\M+2BBB2\M+2A755\M+2BD75
 62
     1
 10
-575.40489742339173
 20
-132.29042922753681
 30
0.0
 40
0.125
  1
R0.118 [R3.00]
  0
SOLID
  5
68A0
  8
\M+2BBB2\M+2A755\M+2BD75
 62
     1
 10
-573.61492506970148
 20
-131.55503953675421
 30
0.0
 11
-573.55631321120029
 21
-131.56787114004689
 31
0.0
 12
-573.54712433057273
 22
-131.3856197628977
 32
0.0
 13
-573.54712433057273
 23
-131.3856197628977
 33
0.0
  0
LINE
  5
68A1
  8
\M+2BBB2\M+2A755\M+2BD75
 62
     1
 10
-573.61186531949079
 20
-131.27024231943849
 30
0.0
 11
-573.43186531949073
 21
-131.27024231943849
 31
0.0
  0
LINE
  5
68A2
  8
\M+2BBB2\M+2A755\M+2BD75
 62
     1
 10
-573.52186531949064
 20
-131.3602423194385
 30
0.0
 11
-573.52186531949064
 21
-131.18024231943861
 31
0.0
  0
POINT
  5
68A3
  8
DEFPOINTS
 62
     0
 10
-573.54712433057273
 20
-131.3856197628977
 30
0.0
  0
POINT
  5
68A4
  8
DEFPOINTS
 62
     0
 10
-573.52186531949064
 20
-131.27024231943849
 30
0.0
  0
ENDBLK
  5
4E54
  8
0
  0
BLOCK
  8
0
  2
*D33
 70
     1
 10
0.0
 20
0.0
 30
0.0
  3
*D33
  1

  0
LINE
  5
688B
  8
\M+2BBB2\M+2A755\M+2BD75
 62
     1
 10
-572.38347302862098
 20
-131.1714498251672
 30
0.0
 11
-575.41294334345855
 21
-131.1714498251672
 31
0.0
  0
LINE
  5
688C
  8
\M+2BBB2\M+2A755\M+2BD75
 62
     1
 10
-572.38368988837954
 20
-127.9037397385279
 30
0.0
 11
-575.41294334345855
 21
-127.9037397385279
 31
0.0
  0
LINE
  5
688D
  8
\M+2BBB2\M+2A755\M+2BD75
 62
     1
 10
-575.23294334345883
 20
-130.99144982516719
 30
0.0
 11
-575.23294334345883
 21
-129.9862098420767
 31
0.0
  0
LINE
  5
688E
  8
\M+2BBB2\M+2A755\M+2BD75
 62
     1
 10
-575.23294334345883
 20
-128.08373973852781
 30
0.0
 11
-575.23294334345883
 21
-129.61573365160049
 31
0.0
  0
SOLID
  5
688F
  8
\M+2BBB2\M+2A755\M+2BD75
 62
     1
 10
-575.26294334345857
 20
-130.99144982516719
 30
0.0
 11
-575.20294334345874
 21
-130.99144982516719
 31
0.0
 12
-575.23294334345883
 22
-131.1714498251672
 32
0.0
 13
-575.23294334345883
 23
-131.1714498251672
 33
0.0
  0
SOLID
  5
6890
  8
\M+2BBB2\M+2A755\M+2BD75
 62
     1
 10
-575.26294334345857
 20
-128.08373973852781
 30
0.0
 11
-575.20294334345874
 21
-128.08373973852781
 31
0.0
 12
-575.23294334345883
 22
-127.9037397385279
 32
0.0
 13
-575.23294334345883
 23
-127.9037397385279
 33
0.0
  0
TEXT
  5
6891
  8
\M+2BBB2\M+2A755\M+2BD75
 62
     1
 10
-575.8906814386969
 20
-129.8426384135052
 30
0.0
 40
0.125
  1
3.268 [83.00]
  0
POINT
  5
6892
  8
DEFPOINTS
 62
     0
 10
-572.32097302862087
 20
-131.1714498251672
 30
0.0
  0
POINT
  5
6893
  8
DEFPOINTS
 62
     0
 10
-572.32118988837954
 20
-127.9037397385279
 30
0.0
  0
POINT
  5
6894
  8
DEFPOINTS
 62
     0
 10
-575.23294334345883
 20
-127.9037397385279
 30
0.0
  0
ENDBLK
  5
4E8E
  8
0
  0
BLOCK
  8
0
  2
*D34
 70
     1
 10
0.0
 20
0.0
 30
0.0
  3
*D34
  1

  0
LINE
  5
68CD
  8
\M+2BBB2\M+2A755\M+2BD75
 62
     1
 10
-574.29594751818775
 20
-127.16421039731421
 30
0.0
 11
-574.11594751818745
 21
-127.16421039731421
 31
0.0
  0
LINE
  5
68CE
  8
\M+2BBB2\M+2A755\M+2BD75
 62
     1
 10
-574.11594751818745
 20
-127.16421039731421
 30
0.0
 11
-573.47042695075481
 21
-127.865240696779
 31
0.0
  0
TEXT
  5
68CF
  8
\M+2BBB2\M+2A755\M+2BD75
 62
     1
 10
-575.83237608961645
 20
-127.20587706398079
 30
0.0
 40
0.125
  1
R0.354 [R9.00]
  0
SOLID
  5
68D0
  8
\M+2BBB2\M+2A755\M+2BD75
 62
     1
 10
-573.44835800569524
 20
-127.8449192385646
 30
0.0
 11
-573.49249589581439
 21
-127.88556215499329
 31
0.0
 12
-573.34849820146894
 22
-127.9976543671367
 32
0.0
 13
-573.34849820146894
 23
-127.9976543671367
 33
0.0
  0
LINE
  5
68D1
  8
\M+2BBB2\M+2A755\M+2BD75
 62
     1
 10
-573.19848145849994
 20
-128.25831067723581
 30
0.0
 11
-573.01848145849976
 21
-128.25831067723581
 31
0.0
  0
LINE
  5
68D2
  8
\M+2BBB2\M+2A755\M+2BD75
 62
     1
 10
-573.10848145849991
 20
-128.34831067723599
 30
0.0
 11
-573.10848145849991
 21
-128.16831067723589
 31
0.0
  0
POINT
  5
68D3
  8
DEFPOINTS
 62
     0
 10
-573.34849820146894
 20
-127.9976543671367
 30
0.0
  0
POINT
  5
68D4
  8
DEFPOINTS
 62
     0
 10
-573.10848145850002
 20
-128.25831067723581
 30
0.0
  0
ENDBLK
  5
4E97
  8
0
  0
BLOCK
  8
0
  2
*D35
 70
     1
 10
0.0
 20
0.0
 30
0.0
  3
*D35
  1

  0
LINE
  5
68D5
  8
\M+2BBB2\M+2A755\M+2BD75
 62
     1
 10
-573.46281145850025
 20
-128.44367038498311
 30
0.0
 11
-573.46281145850025
 21
-126.5717822418038
 31
0.0
  0
LINE
  5
68D6
  8
\M+2BBB2\M+2A755\M+2BD75
 62
     1
 10
-571.17935145850026
 20
-128.44367038498311
 30
0.0
 11
-571.17935145850026
 21
-126.5717822418038
 31
0.0
  0
LINE
  5
68D7
  8
\M+2BBB2\M+2A755\M+2BD75
 62
     1
 10
-573.28281145850019
 20
-126.75178224180389
 30
0.0
 11
-573.16118420325336
 21
-126.75178224180389
 31
0.0
  0
LINE
  5
68D8
  8
\M+2BBB2\M+2A755\M+2BD75
 62
     1
 10
-571.35935145850021
 20
-126.75178224180389
 30
0.0
 11
-571.66570801277715
 21
-126.75178224180389
 31
0.0
  0
SOLID
  5
68D9
  8
\M+2BBB2\M+2A755\M+2BD75
 62
     1
 10
-573.28281145850019
 20
-126.72178224180389
 30
0.0
 11
-573.28281145850019
 21
-126.7817822418038
 31
0.0
 12
-573.46281145850025
 22
-126.75178224180389
 32
0.0
 13
-573.46281145850025
 23
-126.75178224180389
 33
0.0
  0
SOLID
  5
68DA
  8
\M+2BBB2\M+2A755\M+2BD75
 62
     1
 10
-571.35935145850021
 20
-126.72178224180389
 30
0.0
 11
-571.35935145850021
 21
-126.7817822418038
 31
0.0
 12
-571.17935145850026
 22
-126.75178224180389
 32
0.0
 13
-571.17935145850026
 23
-126.75178224180389
 33
0.0
  0
TEXT
  5
68DB
  8
\M+2BBB2\M+2A755\M+2BD75
 62
     1
 10
-573.07118420325321
 20
-126.79344890847049
 30
0.0
 40
0.125
  1
2.283 [58.00]
  0
POINT
  5
68DC
  8
DEFPOINTS
 62
     0
 10
-573.46281145850025
 20
-128.50617038498311
 30
0.0
  0
POINT
  5
68DD
  8
DEFPOINTS
 62
     0
 10
-571.17935145850026
 20
-128.50617038498319
 30
0.0
  0
POINT
  5
68DE
  8
DEFPOINTS
 62
     0
 10
-571.17935145850026
 20
-126.75178224180389
 30
0.0
  0
ENDBLK
  5
4EA4
  8
0
  0
BLOCK
  8
0
  2
*D36
 70
     1
 10
0.0
 20
0.0
 30
0.0
  3
*D36
  1

  0
LINE
  5
68DF
  8
\M+2BBB2\M+2A755\M+2BD75
 62
     1
 10
-576.83166163716021
 20
-127.673099904631
 30
0.0
 11
-576.83166163716021
 21
-125.7291856038228
 31
0.0
  0
LINE
  5
68E0
  8
\M+2BBB2\M+2A755\M+2BD75
 62
     1
 10
-576.29229263716024
 20
-127.673099904631
 30
0.0
 11
-576.29229263716024
 21
-125.7291856038228
 31
0.0
  0
LINE
  5
68E1
  8
\M+2BBB2\M+2A755\M+2BD75
 62
     1
 10
-577.01166163716016
 20
-125.90918560382281
 30
0.0
 11
-577.19166163716022
 21
-125.90918560382281
 31
0.0
  0
LINE
  5
68E2
  8
\M+2BBB2\M+2A755\M+2BD75
 62
     1
 10
-576.11229263716018
 20
-125.90918560382281
 30
0.0
 11
-575.93229263716023
 21
-125.90918560382281
 31
0.0
  0
SOLID
  5
68E3
  8
\M+2BBB2\M+2A755\M+2BD75
 62
     1
 10
-577.01166163716016
 20
-125.8791856038228
 30
0.0
 11
-577.01166163716016
 21
-125.93918560382281
 31
0.0
 12
-576.83166163716021
 22
-125.90918560382281
 32
0.0
 13
-576.83166163716021
 23
-125.90918560382281
 33
0.0
  0
SOLID
  5
68E4
  8
\M+2BBB2\M+2A755\M+2BD75
 62
     1
 10
-576.11229263716018
 20
-125.8791856038228
 30
0.0
 11
-576.11229263716018
 21
-125.93918560382281
 31
0.0
 12
-576.29229263716024
 22
-125.90918560382281
 32
0.0
 13
-576.29229263716024
 23
-125.90918560382281
 33
0.0
  0
TEXT
  5
68E5
  8
\M+2BBB2\M+2A755\M+2BD75
 62
     1
 10
-575.84229263716054
 20
-125.95085227048941
 30
0.0
 40
0.125
  1
0.539 [13.70]
  0
POINT
  5
68E6
  8
DEFPOINTS
 62
     0
 10
-576.83166163716021
 20
-127.7355999046311
 30
0.0
  0
POINT
  5
68E7
  8
DEFPOINTS
 62
     0
 10
-576.29229263716024
 20
-127.7355999046311
 30
0.0
  0
POINT
  5
68E8
  8
DEFPOINTS
 62
     0
 10
-576.29229263716024
 20
-125.90918560382281
 30
0.0
  0
ENDBLK
  5
5D50
  8
0
  0
BLOCK
  8
0
  2
*D37
 70
     1
 10
0.0
 20
0.0
 30
0.0
  3
*D37
  1

  0
LINE
  5
69FA
  8
\M+2BBB2\M+2A755\M+2BD75
 62
     1
 10
-577.32002466558458
 20
-116.61129901540789
 30
0.0
 11
-577.50002466558476
 21
-116.61129901540799
 31
0.0
  0
LINE
  5
69FB
  8
\M+2BBB2\M+2A755\M+2BD75
 62
     1
 10
-577.50002466558476
 20
-116.61129901540799
 30
0.0
 11
-578.29260115213958
 21
-117.3491396654112
 31
0.0
  0
TEXT
  5
69FC
  8
\M+2BBB2\M+2A755\M+2BD75
 62
     1
 10
-577.23002466558478
 20
-116.65296568207449
 30
0.0
 40
0.125
  1
\U+22050.256 [\U+22056.50]
  0
SOLID
  5
69FD
  8
\M+2BBB2\M+2A755\M+2BD75
 62
     1
 10
-578.31304258914565
 20
-117.32718180456069
 30
0.0
 11
-578.27215971513351
 21
-117.37109752626149
 31
0.0
 12
-578.42434831724165
 22
-117.47178828744821
 32
0.0
 13
-578.42434831724165
 23
-117.47178828744821
 33
0.0
  0
LINE
  5
69FE
  8
\M+2BBB2\M+2A755\M+2BD75
 62
     1
 10
-578.60800042359006
 20
-117.55897271973249
 30
0.0
 11
-578.42800042359011
 21
-117.55897271973249
 31
0.0
  0
LINE
  5
69FF
  8
\M+2BBB2\M+2A755\M+2BD75
 62
     1
 10
-578.51800042359014
 20
-117.6489727197325
 30
0.0
 11
-578.51800042359002
 21
-117.46897271973261
 31
0.0
  0
POINT
  5
6A00
  8
DEFPOINTS
 62
     0
 10
-578.42434831724165
 20
-117.47178828744821
 30
0.0
  0
POINT
  5
6A01
  8
DEFPOINTS
 62
     0
 10
-578.61165252993851
 20
-117.646157152017
 30
0.0
  0
ENDBLK
  5
665C
  8
0
  0
BLOCK
  8
0
  2
*D38
 70
     1
 10
0.0
 20
0.0
 30
0.0
  3
*D38
  1

  0
LINE
  5
6A20
  8
\M+2BBB2\M+2A755\M+2BD75
 62
     1
 10
-577.46473013009165
 20
-116.16137180672099
 30
0.0
 11
-577.64473013009263
 21
-116.16137180672099
 31
0.0
  0
LINE
  5
6A21
  8
\M+2BBB2\M+2A755\M+2BD75
 62
     1
 10
-577.64473013009263
 20
-116.16137180672099
 30
0.0
 11
-578.41864171354382
 21
-117.0366305020485
 31
0.0
  0
TEXT
  5
6A22
  8
\M+2BBB2\M+2A755\M+2BD75
 62
     1
 10
-577.37473013009151
 20
-116.20303847338771
 30
0.0
 40
0.125
  1
\U+22050.089 [\U+22052.25]
  0
SOLID
  5
6A23
  8
\M+2BBB2\M+2A755\M+2BD75
 62
     1
 10
-578.44111614276903
 20
-117.0167584102867
 30
0.0
 11
-578.39616728431815
 21
-117.05650259381051
 31
0.0
 12
-578.53787426411498
 22
-117.1714770774007
 32
0.0
 13
-578.53787426411498
 23
-117.1714770774007
 33
0.0
  0
LINE
  5
6A24
  8
\M+2BBB2\M+2A755\M+2BD75
 62
     1
 10
-578.65721292359024
 20
-117.2046577628484
 30
0.0
 11
-578.47721292358995
 21
-117.2046577628484
 31
0.0
  0
LINE
  5
6A25
  8
\M+2BBB2\M+2A755\M+2BD75
 62
     1
 10
-578.56721292359009
 20
-117.2946577628483
 30
0.0
 11
-578.56721292359009
 21
-117.1146577628483
 31
0.0
  0
POINT
  5
6A26
  8
DEFPOINTS
 62
     0
 10
-578.53787426411498
 20
-117.1714770774007
 30
0.0
  0
POINT
  5
6A27
  8
DEFPOINTS
 62
     0
 10
-578.59655158306509
 20
-117.2378384482959
 30
0.0
  0
ENDBLK
  5
6668
  8
0
  0
BLOCK
  8
0
  2
*D39
 70
     1
 10
0.0
 20
0.0
 30
0.0
  3
*D39
  1

  0
LINE
  5
683F
  8
\M+2BBB2\M+2A755\M+2BD75
 62
     1
 10
-580.25976641673935
 20
-132.7390565945669
 30
0.0
 11
-580.43976641673919
 21
-132.7390565945669
 31
0.0
  0
LINE
  5
6840
  8
\M+2BBB2\M+2A755\M+2BD75
 62
     1
 10
-580.43976641673919
 20
-132.7390565945669
 30
0.0
 11
-580.65391020625475
 21
-131.60189302512021
 31
0.0
  0
TEXT
  5
6841
  8
\M+2BBB2\M+2A755\M+2BD75
 62
     1
 10
-580.16976641673955
 20
-132.7807232612335
 30
0.0
 40
0.125
  1
\U+22050.315 [\U+22058.00]
  0
SOLID
  5
6842
  8
\M+2BBB2\M+2A755\M+2BD75
 62
     1
 10
-580.62442839645723
 20
-131.59634118839119
 30
0.0
 11
-580.68339201605227
 21
-131.60744486184919
 31
0.0
 12
-580.68722122662916
 22
-131.4250021663355
 32
0.0
 13
-580.68722122662916
 23
-131.4250021663355
 33
0.0
  0
LINE
  5
6843
  8
\M+2BBB2\M+2A755\M+2BD75
 62
     1
 10
-580.80636466823205
 20
-131.27024231943849
 30
0.0
 11
-580.62636466823221
 21
-131.27024231943849
 31
0.0
  0
LINE
  5
6844
  8
\M+2BBB2\M+2A755\M+2BD75
 62
     1
 10
-580.71636466823225
 20
-131.3602423194387
 30
0.0
 11
-580.71636466823225
 21
-131.18024231943869
 31
0.0
  0
POINT
  5
6845
  8
DEFPOINTS
 62
     0
 10
-580.68722122662916
 20
-131.4250021663355
 30
0.0
  0
POINT
  5
6846
  8
DEFPOINTS
 62
     0
 10
-580.74550810983521
 20
-131.1154824725418
 30
0.0
  0
ENDBLK
  5
677E
  8
0
  0
BLOCK
  8
0
  2
*D40
 70
     1
 10
0.0
 20
0.0
 30
0.0
  3
*D40
  1

  0
LINE
  5
6837
  8
\M+2BBB2\M+2A755\M+2BD75
 62
     1
 10
-579.90893451202578
 20
-132.14365354807819
 30
0.0
 11
-580.08893451202596
 21
-132.14365354807819
 31
0.0
  0
LINE
  5
6838
  8
\M+2BBB2\M+2A755\M+2BD75
 62
     1
 10
-580.08893451202596
 20
-132.14365354807819
 30
0.0
 11
-580.57459556786046
 21
-131.46759133576199
 31
0.0
  0
TEXT
  5
6839
  8
\M+2BBB2\M+2A755\M+2BD75
 62
     1
 10
-579.81893451202563
 20
-132.18532021474491
 30
0.0
 40
0.125
  1
\U+22050.126 [\U+22053.20]
  0
SOLID
  5
683A
  8
\M+2BBB2\M+2A755\M+2BD75
 62
     1
 10
-580.55023068963521
 20
-131.4500884014632
 30
0.0
 11
-580.59896044608536
 21
-131.48509427006081
 31
0.0
 12
-580.67961317365371
 22
-131.3214020664108
 32
0.0
 13
-580.67961317365371
 23
-131.3214020664108
 33
0.0
  0
LINE
  5
683B
  8
\M+2BBB2\M+2A755\M+2BD75
 62
     1
 10
-580.80636466823216
 20
-131.27024231943861
 30
0.0
 11
-580.62636466823221
 21
-131.27024231943861
 31
0.0
  0
LINE
  5
683C
  8
\M+2BBB2\M+2A755\M+2BD75
 62
     1
 10
-580.71636466823225
 20
-131.3602423194385
 30
0.0
 11
-580.71636466823225
 21
-131.18024231943869
 31
0.0
  0
POINT
  5
683D
  8
DEFPOINTS
 62
     0
 10
-580.67961317365371
 20
-131.3214020664108
 30
0.0
  0
POINT
  5
683E
  8
DEFPOINTS
 62
     0
 10
-580.7531161628109
 20
-131.2190825724665
 30
0.0
  0
ENDBLK
  5
678A
  8
0
  0
BLOCK
  8
0
  2
*D41
 70
     1
 10
0.0
 20
0.0
 30
0.0
  3
*D41
  1

  0
LINE
  5
682F
  8
\M+2BBB2\M+2A755\M+2BD75
 62
     1
 10
-578.88220365726932
 20
-128.86909616483021
 30
0.0
 11
-578.70220365726925
 21
-128.86909616483021
 31
0.0
  0
LINE
  5
6830
  8
\M+2BBB2\M+2A755\M+2BD75
 62
     1
 10
-578.70220365726925
 20
-128.86909616483021
 30
0.0
 11
-578.42741581384712
 21
-128.42101211078551
 31
0.0
  0
TEXT
  5
6831
  8
\M+2BBB2\M+2A755\M+2BD75
 62
     1
 10
-580.39482270488816
 20
-128.91076283149681
 30
0.0
 40
0.125
  1
\U+22050.256 [\U+22056.50]
  0
SOLID
  5
6832
  8
\M+2BBB2\M+2A755\M+2BD75
 62
     1
 10
-578.45298989183004
 20
-128.4053287904955
 30
0.0
 11
-578.40184173586431
 21
-128.43669543107541
 31
0.0
 12
-578.33331589210673
 22
-128.2675676428876
 32
0.0
 13
-578.33331589210673
 23
-128.2675676428876
 33
0.0
  0
LINE
  5
6833
  8
\M+2BBB2\M+2A755\M+2BD75
 62
     1
 10
-578.35642522412616
 20
-128.1584920691169
 30
0.0
 11
-578.17642522412632
 21
-128.1584920691169
 31
0.0
  0
LINE
  5
6834
  8
\M+2BBB2\M+2A755\M+2BD75
 62
     1
 10
-578.26642522412624
 20
-128.24849206911691
 30
0.0
 11
-578.26642522412624
 21
-128.0684920691169
 31
0.0
  0
POINT
  5
6835
  8
DEFPOINTS
 62
     0
 10
-578.33331589210673
 20
-128.2675676428876
 30
0.0
  0
POINT
  5
6836
  8
DEFPOINTS
 62
     0
 10
-578.19953455614564
 20
-128.04941649534649
 30
0.0
  0
ENDBLK
  5
6796
  8
0
  0
BLOCK
  8
0
  2
*D42
 70
     1
 10
0.0
 20
0.0
 30
0.0
  3
*D42
  1

  0
LINE
  5
6883
  8
\M+2BBB2\M+2A755\M+2BD75
 62
     1
 10
-582.37987174163322
 20
-126.36676970430661
 30
0.0
 11
-582.19987174163271
 21
-126.36676970430661
 31
0.0
  0
LINE
  5
6884
  8
\M+2BBB2\M+2A755\M+2BD75
 62
     1
 10
-582.19987174163271
 20
-126.36676970430661
 30
0.0
 11
-580.90646461479594
 21
-127.9848304554163
 31
0.0
  0
TEXT
  5
6885
  8
\M+2BBB2\M+2A755\M+2BD75
 62
     1
 10
-583.89249078925207
 20
-126.40843637097321
 30
0.0
 40
0.125
  1
\U+22050.089 [\U+22052.25]
  0
SOLID
  5
6886
  8
\M+2BBB2\M+2A755\M+2BD75
 62
     1
 10
-580.88303119473028
 20
-127.9660988024184
 30
0.0
 11
-580.92989803486171
 21
-128.003562108414
 31
0.0
 12
-580.79407469680962
 22
-128.12543097580999
 32
0.0
 13
-580.79407469680962
 23
-128.12543097580999
 33
0.0
  0
LINE
  5
6887
  8
\M+2BBB2\M+2A755\M+2BD75
 62
     1
 10
-580.85641975261524
 20
-128.1600274913595
 30
0.0
 11
-580.67641975261495
 21
-128.16002749135939
 31
0.0
  0
LINE
  5
6888
  8
\M+2BBB2\M+2A755\M+2BD75
 62
     1
 10
-580.76641975261498
 20
-128.25002749135939
 30
0.0
 11
-580.76641975261498
 21
-128.07002749135941
 31
0.0
  0
POINT
  5
6889
  8
DEFPOINTS
 62
     0
 10
-580.79407469680962
 20
-128.12543097580999
 30
0.0
  0
POINT
  5
688A
  8
DEFPOINTS
 62
     0
 10
-580.73876480842068
 20
-128.19462400690881
 30
0.0
  0
ENDBLK
  5
67A2
  8
0
  0
BLOCK
  8
0
  2
D
 70
     2
 10
0.0
 20
0.0
 30
0.0
  3
D
  1

  0
ATTDEF
  5
68FF
  8
TEXT
 10
27.477850515778581
 20
0.5394050456177202
 30
0.0
 40
0.125
  1

 41
0.75
  7
TXT
 72
     1
 11
27.477850515778581
 21
0.5394050456177202
 31
0.0
  3
ENTER INITIALS
  2
NAME
 70
     4
  0
ATTDEF
  5
6900
  8
TEXT
 10
28.173235976316949
 20
0.5394050456177202
 30
0.0
 40
0.125
  1

 41
0.75
  7
TXT
 72
     1
 11
28.173235976316949
 21
0.5394050456177202
 31
0.0
  3
ENTER DATE
  2
DATE
 70
     4
  0
ATTDEF
  5
6901
  8
TEXT
 10
31.43362280004439
 20
0.7106068173304485
 30
0.0
 40
0.125
  1

 41
0.75
  7
TXT
 72
     1
 11
31.43362280004439
 21
0.7106068173304485
 31
0.0
  3
ENTER TITLE LINE #1
  2
TITLE1
 70
     4
  0
ATTDEF
  5
6902
  8
TEXT
 10
31.38674780004439
 20
0.4994773512041509
 30
0.0
 40
0.125
  1
 
 41
0.75
  7
TXT
 72
     1
 11
31.43362280004439
 21
0.4994773512041509
 31
0.0
  3
ENTER TITLE LINE #2
  2
TITLE2
 70
     4
  0
ATTDEF
  5
6903
  8
TEXT
 10
31.571747588380511
 20
0.1062243331644149
 30
0.0
 40
0.156
  1
 
 41
0.75
  7
TXT
 72
     1
 11
31.63024758838052
 21
0.1062243331644149
 31
0.0
  3
ENTER PART #
  2
PART
 70
     4
  0
ATTDEF
  5
6904
  8
TEXT
 10
31.63024758838052
 20
20.677640836036471
 30
0.0
 40
0.156
  1

 41
0.75
  7
TXT
 72
     1
 11
31.63024758838052
 21
20.677640836036471
 31
0.0
  3
ENTER PART #
  2
PART
 70
     4
  0
ATTDEF
  5
6905
  8
TEXT
 10
23.056897604150731
 20
1.1820123350975611
 30
0.0
 40
0.125
  1

 41
4.9364164263857306
  7
TXT
 72
     5
 11
26.964893941706102
 21
1.1820123350975611
 31
0.0
  3
ENTER CUT SIZE
  2
CUTSIZE
 70
     4
  0
ATTDEF
  5
6906
  8
TEXT
 10
23.194370689128949
 20
0.2867788269611924
 30
0.0
 40
0.125
  1

 41
0.75
  7
TXT
 72
     1
 11
23.194370689128949
 21
0.2867788269611924
 31
0.0
  3
ENTER QUANTITY
  2
QTY
 70
     4
  0
ATTDEF
  5
6907
  8
TEXT
 10
24.139054202526989
 20
0.2867788269611924
 30
0.0
 40
0.125
  1

 41
0.75
  7
TXT
 72
     1
 11
24.139054202526989
 21
0.2867788269611924
 31
0.0
  3
ENTER "USED ON" PART #
  2
USED
 70
     4
  0
ATTDEF
  5
6908
  8
TEXT
 10
27.723981222914031
 20
0.9555323710702353
 30
0.0
 40
0.125
  1
AS NOTED
 41
0.75
  7
TXT
 72
     1
 11
28.083356222914031
 21
0.9555323710702353
 31
0.0
  3
ENTER MATERIAL
  2
MAT
 70
     4
  0
ATTDEF
  5
6909
  8
TEXT
 10
27.708356222914031
 20
0.7436542078606632
 30
0.0
 40
0.125
  1
SEE SPEC.
 41
0.75
  7
TXT
 72
     1
 11
28.083356222914031
 21
0.7436542078606632
 31
0.0
  3
ENTER FINISH
  2
FINISH
 70
     4
  0
LINE
  5
690A
  8
TITLE
 10
32.5
 20
0.0
 30
0.0
 11
32.5
 21
21.0
 31
0.0
  0
LINE
  5
690B
  8
TITLE
 10
0.0
 20
0.0
 30
0.0
 11
32.5
 21
0.0
 31
0.0
  0
LINE
  5
690C
  8
TITLE
 10
0.0
 20
21.0
 30
0.0
 11
0.0
 21
0.0
 31
0.0
  0
LINE
  5
690D
  8
TITLE
 10
0.0
 20
21.0
 30
0.0
 11
32.5
 21
21.0
 31
0.0
  0
LINE
  5
690E
  8
TITLE
 10
23.019999999999989
 20
1.3769999999999989
 30
0.0
 11
23.019999999999989
 21
-0.0000000000000004
 31
0.0
  0
LINE
  5
690F
  8
TITLE
 62
     8
 10
30.6875
 20
20.3125
 30
0.0
 11
30.6875
 21
20.562499999999989
 31
0.0
  0
TEXT
  5
6910
  8
TITLE
 62
     8
 10
30.1875
 20
20.8125
 30
0.0
 40
0.09375
  1
DWG.
  7
TXT
  0
TEXT
  5
6911
  8
TITLE
 62
     8
 10
30.179284683397579
 20
20.398672468686168
 30
0.0
 40
0.09375
  1
ISSUE
  7
TXT
  0
LINE
  5
6912
  8
TITLE
 10
30.0625
 20
20.3125
 30
0.0
 11
30.0625
 21
21.0
 31
0.0
  0
TEXT
  5
6913
  8
TITLE
 62
     8
 10
30.1875
 20
20.65625
 30
0.0
 40
0.09375
  1
NO.
  7
TXT
  0
LINE
  5
6914
  8
TITLE
 62
     8
 10
30.0625
 20
20.3125
 30
0.0
 11
32.5
 21
20.3125
 31
0.0
  0
LINE
  5
6915
  8
TITLE
 62
     8
 10
30.0625
 20
20.562499999999989
 30
0.0
 11
32.5
 21
20.562499999999989
 31
0.0
  0
TEXT
  5
6916
  8
TITLE
 62
     8
 10
31.123240122678091
 20
20.400847792099231
 30
0.0
 40
0.09375
  1
REVISIONS
  7
TXT
  0
TEXT
  5
6917
  8
TITLE
 62
     8
 10
30.4375
 20
0.9903543852819179
 30
0.0
 40
0.09375
  1
NAME:
  7
TXT
  0
TEXT
  5
6918
  8
TITLE
 62
     8
 10
30.4375
 20
0.0631657164931343
 30
0.0
 40
0.0938
  1
NO.
  7
TXT
  0
TEXT
  5
6919
  8
TITLE
 62
     8
 10
30.4375
 20
0.2194990498264686
 30
0.0
 40
0.0938
  1
DWG.
  7
TXT
  0
LINE
  5
691A
  8
TITLE
 62
     8
 10
30.367245600088829
 20
-0.0000000000000004
 30
0.0
 11
30.367245600088829
 21
1.127
 31
0.0
  0
LINE
  5
691B
  8
TITLE
 62
     8
 10
29.436499999999992
 20
1.127
 30
0.0
 11
29.436499999999992
 21
1.3769999999999989
 31
0.0
  0
LINE
  5
691C
  8
TITLE
 10
29.63673299114846
 20
0.859007345151843
 30
0.0
 11
29.66976251320413
 21
0.859007345151843
 31
0.0
  0
ARC
  5
691D
  8
TITLE
 10
29.66976251320413
 20
0.7660701812170974
 30
0.0
 40
0.0929371639347451
 50
0.0
 51
90.0
  0
LINE
  5
691E
  8
TITLE
 10
29.713861299335559
 20
0.7328783369546899
 30
0.0
 11
29.672563709827269
 21
0.7328783369546899
 31
0.0
  0
LINE
  5
691F
  8
TITLE
 10
29.63673299114846
 20
0.5934725910525716
 30
0.0
 11
29.66976251320413
 21
0.5934725910525716
 31
0.0
  0
ARC
  5
6920
  8
TITLE
 10
29.66976251320413
 20
0.6864097549873174
 30
0.0
 40
0.0929371639347451
 50
270.0
 51
0.0
  0
LINE
  5
6921
  8
TITLE
 10
29.713861299335559
 20
0.7196015992497256
 30
0.0
 11
29.672563709827269
 21
0.7196015992497256
 31
0.0
  0
LINE
  5
6922
  8
TITLE
 10
29.63673299114846
 20
0.5934725910525716
 30
0.0
 11
29.63673299114846
 21
0.859007345151843
 31
0.0
  0
LINE
  5
6923
  8
TITLE
 10
29.672563709827269
 20
0.7196015992497256
 30
0.0
 11
29.672563709827269
 21
0.7328783369546899
 31
0.0
  0
LINE
  5
6924
  8
TITLE
 10
29.762699677138869
 20
0.6864097549873174
 30
0.0
 11
29.762699677138869
 21
0.7660701812170974
 31
0.0
  0
LINE
  5
6925
  8
TITLE
 10
29.713861299335559
 20
0.7196015992497256
 30
0.0
 11
29.713861299335559
 21
0.7328783369546899
 31
0.0
  0
LINE
  5
6926
  8
TITLE
 10
29.533884789470839
 20
0.859007345151843
 30
0.0
 11
29.58242241159558
 21
0.859007345151843
 31
0.0
  0
LINE
  5
6927
  8
TITLE
 10
29.462234013953349
 20
0.859007345151843
 30
0.0
 11
29.510771636078111
 21
0.859007345151843
 31
0.0
  0
ARC
  5
6928
  8
TITLE
 10
29.524048373783081
 20
0.6367964281680929
 30
0.0
 40
0.0132767377049636
 50
180.0
 51
262.55571590228629
  0
ARC
  5
6929
  8
TITLE
 10
29.520608051765869
 20
0.6367964281680929
 30
0.0
 40
0.0132767377049636
 50
277.44428409771359
 51
0.0
  0
ARC
  5
692A
  8
TITLE
 10
29.565826489464371
 20
0.6100685131837765
 30
0.0
 40
0.0165959221312045
 50
270.0
 51
0.0
  0
ARC
  5
692B
  8
TITLE
 10
29.478829936084551
 20
0.6100685131837765
 30
0.0
 40
0.0165959221312045
 50
180.0
 51
270.0
  0
LINE
  5
692C
  8
TITLE
 10
29.478829936084551
 20
0.5934725910525716
 30
0.0
 11
29.565826489464371
 21
0.5934725910525716
 31
0.0
  0
LINE
  5
692D
  8
TITLE
 10
29.510771636078111
 20
0.6367964281680929
 30
0.0
 11
29.510771636078111
 21
0.859007345151843
 31
0.0
  0
LINE
  5
692E
  8
TITLE
 10
29.533884789470839
 20
0.6367964281680929
 30
0.0
 11
29.533884789470839
 21
0.859007345151843
 31
0.0
  0
LINE
  5
692F
  8
TITLE
 10
29.462234013953349
 20
0.6100685131837765
 30
0.0
 11
29.462234013953349
 21
0.859007345151843
 31
0.0
  0
LINE
  5
6930
  8
TITLE
 10
29.58242241159558
 20
0.6100685131837765
 30
0.0
 11
29.58242241159558
 21
0.859007345151843
 31
0.0
  0
LINE
  5
6931
  8
TITLE
 10
29.362847454364591
 20
0.7328783369546899
 30
0.0
 11
29.290041021177469
 21
0.7328783369546899
 31
0.0
  0
LINE
  5
6932
  8
TITLE
 10
29.277328786811459
 20
0.859007345151843
 30
0.0
 11
29.362847454364591
 21
0.859007345151843
 31
0.0
  0
LINE
  5
6933
  8
TITLE
 10
29.290041021177469
 20
0.7196015992497256
 30
0.0
 11
29.290041021177469
 21
0.7262399681022083
 31
0.0
  0
LINE
  5
6934
  8
TITLE
 10
29.277328786811459
 20
0.5934725910525716
 30
0.0
 11
29.362847454364591
 21
0.5934725910525716
 31
0.0
  0
LINE
  5
6935
  8
TITLE
 10
29.362847454364591
 20
0.7196015992497256
 30
0.0
 11
29.290041021177469
 21
0.7196015992497256
 31
0.0
  0
LINE
  5
6936
  8
TITLE
 10
29.277328786811459
 20
0.5934725910525716
 30
0.0
 11
29.277328786811459
 21
0.859007345151843
 31
0.0
  0
LINE
  5
6937
  8
TITLE
 10
29.290041021177469
 20
0.7328783369546899
 30
0.0
 11
29.290041021177469
 21
0.7262399681022083
 31
0.0
  0
ARC
  5
6938
  8
TITLE
 10
29.362847454364591
 20
0.7959428410532669
 30
0.0
 40
0.063064504098577
 50
270.0
 51
90.0
  0
ARC
  5
6939
  8
TITLE
 10
29.362847454364591
 20
0.6565370951511496
 30
0.0
 40
0.063064504098577
 50
270.0
 51
90.000000000000057
  0
TEXT
  5
693A
  8
TITLE
 62
     8
 10
28.375499999999999
 20
1.1977407629924841
 30
0.0
 40
0.09375
  1
PART NO.
  7
TXT
  0
TEXT
  5
693B
  8
TITLE
 62
     8
 10
28.702379873900021
 20
0.9755983592151281
 30
0.0
 40
0.09375
  1
SCALE:
  7
TXT
  0
LINE
  5
693C
  8
TITLE
 62
     8
 10
28.663537907821631
 20
-0.0000000000000004
 30
0.0
 11
28.663537907821631
 21
1.127
 31
0.0
  0
TEXT
  5
693D
  8
TITLE
 62
     8
 10
28.763895435670321
 20
0.1249999999999996
 30
0.0
 40
0.09375
  1
WILLOUGHBY, OHIO
  7
TXT
  0
TEXT
  5
693E
  8
TITLE
 62
     8
 10
28.70461451425917
 20
0.3749999999999996
 30
0.0
 40
0.09375
  1
BUD INDUSTRIES, INC.
  7
TXT
  0
LINE
  5
693F
  8
TITLE
 62
     8
 10
30.367245600088829
 20
0.3819999999999992
 30
0.0
 11
32.5
 21
0.3819999999999992
 31
0.0
  0
TEXT
  5
6940
  8
TITLE
 62
     8
 10
30.502445902853641
 20
1.1977407629924841
 30
0.0
 40
0.09375
  1
DESCRIPTION
  7
TXT
  0
LINE
  5
6941
  8
TITLE
 62
     8
 10
27.937499999999989
 20
1.127
 30
0.0
 11
27.9375
 21
1.3769999999999989
 31
0.0
  0
LINE
  5
6942
  8
TITLE
 62
     8
 10
27.419296480071061
 20
1.127
 30
0.0
 11
27.419296480071061
 21
1.3769999999999989
 31
0.0
  0
TEXT
  5
6943
  8
TITLE
 62
     8
 10
27.470847360053298
 20
1.1977407629924841
 30
0.0
 40
0.09375
  1
REQ'D.
  7
TXT
  0
TEXT
  5
6944
  8
TITLE
 62
     8
 10
27.062999999999999
 20
0.9728772779084607
 30
0.0
 40
0.09375
  1
MAT:
  7
TXT
  0
TEXT
  5
6945
  8
TITLE
 62
     8
 10
27.05657245370309
 20
1.1994078189116251
 30
0.0
 40
0.09375
  1
ITEM
  7
TXT
  0
TEXT
  5
6946
  8
TITLE
 62
     8
 10
27.062999999999999
 20
0.3124999999999996
 30
0.0
 40
0.09375
  1
CH.
  7
TXT
  0
TEXT
  5
6947
  8
TITLE
 62
     8
 10
27.062999999999999
 20
0.56937408094989
 30
0.0
 40
0.09375
  1
DR.
  7
TXT
  0
TEXT
  5
6948
  8
TITLE
 62
     8
 10
27.062999999999999
 20
0.7741181638829385
 30
0.0
 40
0.09375
  1
FINISH:
  7
TXT
  0
TEXT
  5
6949
  8
TITLE
 62
     8
 10
27.062999999999999
 20
0.0624999999999996
 30
0.0
 40
0.09375
  1
APP.
  7
TXT
  0
LINE
  5
694A
  8
TITLE
 62
     8
 10
27.697756098047101
 20
-0.0000000000000004
 30
0.0
 11
27.697756098047101
 21
0.7090000000000011
 31
0.0
  0
LINE
  5
694B
  8
TITLE
 62
     8
 10
27.000499999999999
 20
-0.0000000000000004
 30
0.0
 11
27.000499999999999
 21
1.3769999999999989
 31
0.0
  0
TEXT
  5
694C
  8
TITLE
 10
25.04590599630993
 20
0.9520717565666275
 30
0.0
 40
0.1117888355610499
  1
%%uTOLERANCES:
  7
TXT
  0
TEXT
  5
694D
  8
TITLE
 62
     8
 10
25.091485367583921
 20
0.2344895723568654
 30
0.0
 40
0.0772424143690822
  1
    SURFACES
  7
TXT
  0
TEXT
  5
694E
  8
TITLE
 62
     8
 10
24.993719946747781
 20
0.7494390014840791
 30
0.0
 40
0.0772424143690822
  1
%%p.005 BETWEEN HOLE CENTERS
  7
TXT
  0
TEXT
  5
694F
  8
TITLE
 62
     8
 10
24.993719946747781
 20
0.6207016442022755
 30
0.0
 40
0.0772424143690822
  1
%%p.015 FROM SHEARED EDGE
  7
TXT
  0
TEXT
  5
6950
  8
TITLE
 62
     8
 10
24.993719946747781
 20
0.4919642869204705
 30
0.0
 40
0.0772424143690822
  1
%%p.032 FROM A BENT SURFACE
  7
TXT
  0
TEXT
  5
6951
  8
TITLE
 62
     8
 10
24.998649805283801
 20
0.0564750904941671
 30
0.0
 40
0.0772424143690822
  1
UNLESS OTHERWISE SPECIFIED
  7
TXT
  0
TEXT
  5
6952
  8
TITLE
 62
     8
 10
24.993719946747781
 20
0.363226929638667
 30
0.0
 40
0.0772424143690822
  1
%%p.063 BETWEEN ASSEMBLED
  7
TXT
  0
LINE
  5
6953
  8
TITLE
 62
     8
 10
23.394999999999978
 20
0.0000000000000013
 30
0.0
 11
23.394999999999978
 21
0.2499999999999996
 31
0.0
  0
TEXT
  5
6954
  8
TITLE
 62
     8
 10
23.817259741149371
 20
0.0776282744477839
 30
0.0
 40
0.09375
  1
USED ON
  7
TXT
  0
LINE
  5
6955
  8
TITLE
 62
     8
 10
24.922499999999999
 20
0.0000000000000013
 30
0.0
 11
24.922499999999999
 21
1.127
 31
0.0
  0
LINE
  5
6956
  8
TITLE
 10
23.019999999999989
 20
0.2499999999999996
 30
0.0
 11
24.922499999999999
 21
0.2499999999999996
 31
0.0
  0
LINE
  5
6957
  8
TITLE
 10
24.922499999999999
 20
1.127
 30
0.0
 11
23.019999999999989
 21
1.127
 31
0.0
  0
TEXT
  5
6958
  8
TITLE
 62
     8
 10
23.071749183812258
 20
0.0776282744477839
 30
0.0
 40
0.09375
  1
QTY.
  7
TXT
  0
LINE
  5
6959
  8
TITLE
 10
27.000499999999999
 20
1.3769999999999989
 30
0.0
 11
23.019999999999989
 21
1.3769999999999989
 31
0.0
  0
LINE
  5
695A
  8
TITLE
 10
27.000499999999999
 20
1.3769999999999989
 30
0.0
 11
32.5
 21
1.3769999999999989
 31
0.0
  0
LINE
  5
695B
  8
TITLE
 10
24.922499999999999
 20
1.127
 30
0.0
 11
32.5
 21
1.127
 31
0.0
  0
LINE
  5
695C
  8
TITLE
 10
27.000499999999999
 20
0.9180000000000006
 30
0.0
 11
30.367245600088829
 21
0.9180000000000006
 31
0.0
  0
LINE
  5
695D
  8
TITLE
 10
27.000499999999999
 20
0.2499999999999996
 30
0.0
 11
28.66353790782162
 21
0.2499999999999996
 31
0.0
  0
LINE
  5
695E
  8
TITLE
 10
27.000499999999999
 20
0.7090000000000011
 30
0.0
 11
28.66353790782162
 21
0.7090000000000011
 31
0.0
  0
LINE
  5
695F
  8
TITLE
 10
27.000499999999999
 20
0.4999999999999997
 30
0.0
 11
28.66353790782162
 21
0.4999999999999997
 31
0.0
  0
ENDBLK
  5
6961
  8
0
  0
BLOCK
  8
0
  2
REVCHART
 70
     2
 10
0.0
 20
0.0
 30
0.0
  3
REVCHART
  1

  0
LINE
  5
6AA3
  8
TITLE
 10
0.0
 20
-0.4490261412504335
 30
0.0
 11
2.437499999999996
 21
-0.4490261412504335
 31
0.0
  0
CIRCLE
  5
6AA4
  8
TEXT
 10
0.3124999999999982
 20
-0.2245130706252176
 30
0.0
 40
0.116518833587197
  0
ATTDEF
  5
6AA5
  8
TEXT
 10
0.3124999999999982
 20
-0.2245130706252176
 30
0.0
 40
0.15
  1

 41
0.75
  7
TXT
 72
     4
 11
0.3124999999999982
 21
-0.2245130706252176
 31
0.0
  3
ENTER REV. LEVEL
  2
REV
 70
     4
  0
LINE
  5
6AA6
  8
TITLE
 10
0.6249999999999983
 20
-0.4490261412504335
 30
0.0
 11
0.625
 21
0.0
 31
0.0
  0
LINE
  5
6AA7
  8
TITLE
 10
-0.0000000000000018
 20
-0.4490261412504335
 30
0.0
 11
0.0
 21
0.0
 31
0.0
  0
ATTDEF
  5
6AA8
  8
TEXT
 62
     1
 10
0.717248825001601
 20
-0.1932596702550384
 30
0.0
 40
0.125
  1

 41
0.75
  7
TXT
  3
ENTER LINE #1
  2
REV1
 70
     4
  0
ATTDEF
  5
6AA9
  8
TEXT
 62
     1
 10
0.717248825001601
 20
-0.4015930035883724
 30
0.0
 40
0.125
  1

 41
0.75
  7
TXT
  3
ENTER LINE #2
  2
REV2
 70
     4
  0
ENDBLK
  5
6AAB
  8
0
  0
BLOCK
  8
0
  2
*X45
 70
     1
 10
0.0
 20
0.0
 30
0.0
  3
*X45
  1

  0
LINE
  5
6AEA
  8
0
 62
     0
 10
-574.39266163462275
 20
-121.1999568638427
 30
0.0
 11
-574.36168495116158
 21
-121.16898018038169
 31
0.0
  0
LINE
  5
6AEB
  8
0
 62
     0
 10
-574.47664825331901
 20
-121.19555531166731
 30
0.0
 11
-574.44042495116162
 21
-121.15933200951009
 31
0.0
  0
LINE
  5
6AEC
  8
0
 62
     0
 10
-574.56063487201504
 20
-121.191153759492
 30
0.0
 11
-574.47447504966544
 21
-121.1049939371423
 31
0.0
  0
LINE
  5
6AED
  8
0
 62
     0
 10
-574.64462149071153
 20
-121.1867522073166
 30
0.0
 11
-574.5584616683617
 21
-121.1005923849669
 31
0.0
  0
LINE
  5
6AEE
  8
0
 62
     0
 10
-574.72860810940779
 20
-121.18235065514131
 30
0.0
 11
-574.64244828705807
 21
-121.09619083279161
 31
0.0
  0
LINE
  5
6AEF
  8
0
 62
     0
 10
-574.81259472810405
 20
-121.1779491029659
 30
0.0
 11
-574.72643490575433
 21
-121.0917892806162
 31
0.0
  0
LINE
  5
6AF0
  8
0
 62
     0
 10
-574.8965813468003
 20
-121.1735475507905
 30
0.0
 11
-574.8104215244507
 21
-121.0873877284409
 31
0.0
  0
LINE
  5
6AF1
  8
0
 62
     0
 10
-574.9752195128857
 20
-121.1637975460044
 30
0.0
 11
-574.89440814314685
 21
-121.08298617626551
 31
0.0
  0
LINE
  5
6AF2
  8
0
 62
     0
 10
-575.01744270091513
 20
-121.1176325631622
 30
0.0
 11
-574.94966543556416
 21
-121.04985529781121
 31
0.0
  0
LINE
  5
6AF3
  8
0
 62
     0
 10
-575.04629569130748
 20
-121.058097382683
 30
0.0
 11
-574.97851842595674
 21
-120.9903201173321
 31
0.0
  0
LINE
  5
6AF4
  8
0
 62
     0
 10
-575.07514868170006
 20
-120.9985622022039
 30
0.0
 11
-575.0073714163492
 21
-120.930784936853
 31
0.0
  0
LINE
  5
6AF5
  8
0
 62
     0
 10
-575.10400167209264
 20
-120.9390270217248
 30
0.0
 11
-575.03622440674167
 21
-120.8712497563738
 31
0.0
  0
LINE
  5
6AF6
  8
0
 62
     0
 10
-575.12939995116164
 20
-120.8760371299222
 30
0.0
 11
-575.00500348081152
 21
-120.7516406595721
 31
0.0
  0
LINE
  5
6AF7
  8
0
 62
     0
 10
-575.10834356683074
 20
-120.7665925747196
 30
0.0
 11
-574.94829795116175
 21
-120.6065469590507
 31
0.0
  0
LINE
  5
6AF8
  8
0
 62
     0
 10
-575.05025991168645
 20
-120.6201207487038
 30
0.0
 11
-574.94829795116175
 21
-120.51815878817909
 31
0.0
  0
LINE
  5
6AF9
  8
0
 62
     0
 10
-575.03884895116164
 20
-120.5203216173073
 30
0.0
 11
-574.94829795116175
 21
-120.4297706173074
 31
0.0
  0
LINE
  5
6AFA
  8
0
 62
     0
 10
-575.03884895116164
 20
-120.43193344643571
 30
0.0
 11
-574.94829795116175
 21
-120.3413824464358
 31
0.0
  0
LINE
  5
6AFB
  8
0
 62
     0
 10
-575.03884895116164
 20
-120.3435452755641
 30
0.0
 11
-574.94829795116175
 21
-120.25299427556421
 31
0.0
  0
LINE
  5
6AFC
  8
0
 62
     0
 10
-575.03884895116164
 20
-120.2551571046925
 30
0.0
 11
-574.94829795116175
 21
-120.1646061046926
 31
0.0
  0
LINE
  5
6AFD
  8
0
 62
     0
 10
-575.03884895116164
 20
-120.1667689338208
 30
0.0
 11
-574.94829795116175
 21
-120.0762179338209
 31
0.0
  0
LINE
  5
6AFE
  8
0
 62
     0
 10
-575.03884895116164
 20
-120.07838076294919
 30
0.0
 11
-574.94829795116175
 21
-119.9878297629493
 31
0.0
  0
LINE
  5
6AFF
  8
0
 62
     0
 10
-575.03884895116175
 20
-119.9899925920776
 30
0.0
 11
-574.94829795116175
 21
-119.89944159207769
 31
0.0
  0
LINE
  5
6B00
  8
0
 62
     0
 10
-575.03884895116164
 20
-119.901604421206
 30
0.0
 11
-574.94829795116175
 21
-119.8110534212061
 31
0.0
  0
LINE
  5
6B01
  8
0
 62
     0
 10
-575.03884895116164
 20
-119.81321625033441
 30
0.0
 11
-574.94829795116175
 21
-119.7226652503345
 31
0.0
  0
LINE
  5
6B02
  8
0
 62
     0
 10
-575.03884895116175
 20
-119.7248280794628
 30
0.0
 11
-574.94829795116175
 21
-119.63427707946281
 31
0.0
  0
LINE
  5
6B03
  8
0
 62
     0
 10
-575.03884895116175
 20
-119.6364399085912
 30
0.0
 11
-574.94829795116175
 21
-119.54588890859119
 31
0.0
  0
LINE
  5
6B04
  8
0
 62
     0
 10
-575.03884895116175
 20
-119.5480517377195
 30
0.0
 11
-574.94829795116175
 21
-119.4575007377196
 31
0.0
  0
LINE
  5
6B05
  8
0
 62
     0
 10
-575.03884895116175
 20
-119.45966356684789
 30
0.0
 11
-574.94829795116175
 21
-119.369112566848
 31
0.0
  0
LINE
  5
6B06
  8
0
 62
     0
 10
-575.03884895116175
 20
-119.3712753959763
 30
0.0
 11
-574.94829795116175
 21
-119.28072439597631
 31
0.0
  0
LINE
  5
6B07
  8
0
 62
     0
 10
-575.03884895116175
 20
-119.2828872251047
 30
0.0
 11
-574.94829795116175
 21
-119.1923362251047
 31
0.0
  0
LINE
  5
6B08
  8
0
 62
     0
 10
-575.03884895116175
 20
-119.19449905423311
 30
0.0
 11
-574.94829795116175
 21
-119.1039480542331
 31
0.0
  0
LINE
  5
6B09
  8
0
 62
     0
 10
-575.03884895116175
 20
-119.1061108833614
 30
0.0
 11
-574.94829795116175
 21
-119.01555988336141
 31
0.0
  0
LINE
  5
6B0A
  8
0
 62
     0
 10
-575.03884895116175
 20
-119.0177227124898
 30
0.0
 11
-574.94829795116175
 21
-118.92717171248979
 31
0.0
  0
LINE
  5
6B0B
  8
0
 62
     0
 10
-575.03884895116175
 20
-118.9293345416182
 30
0.0
 11
-574.94829795116175
 21
-118.8387835416182
 31
0.0
  0
LINE
  5
6B0C
  8
0
 62
     0
 10
-575.03884895116175
 20
-118.84094637074659
 30
0.0
 11
-574.94829795116175
 21
-118.7503953707466
 31
0.0
  0
LINE
  5
6B0D
  8
0
 62
     0
 10
-575.03884895116175
 20
-118.752558199875
 30
0.0
 11
-574.94829795116175
 21
-118.66200719987501
 31
0.0
  0
LINE
  5
6B0E
  8
0
 62
     0
 10
-575.03884895116175
 20
-118.6641700290033
 30
0.0
 11
-574.94829795116175
 21
-118.5736190290033
 31
0.0
  0
LINE
  5
6B0F
  8
0
 62
     0
 10
-575.03884895116175
 20
-118.57578185813171
 30
0.0
 11
-574.94829795116175
 21
-118.4852308581317
 31
0.0
  0
LINE
  5
6B10
  8
0
 62
     0
 10
-575.03884895116175
 20
-118.4873936872601
 30
0.0
 11
-574.94829795116175
 21
-118.3968426872601
 31
0.0
  0
LINE
  5
6B11
  8
0
 62
     0
 10
-575.03884895116175
 20
-118.3990055163885
 30
0.0
 11
-574.94829795116175
 21
-118.30845451638839
 31
0.0
  0
LINE
  5
6B12
  8
0
 62
     0
 10
-575.03884895116175
 20
-118.3106173455168
 30
0.0
 11
-574.94829795116175
 21
-118.2200663455168
 31
0.0
  0
LINE
  5
6B13
  8
0
 62
     0
 10
-575.03884895116175
 20
-118.22222917464519
 30
0.0
 11
-574.94829795116175
 21
-118.1316781746452
 31
0.0
  0
LINE
  5
6B14
  8
0
 62
     0
 10
-575.03884895116175
 20
-118.1338410037736
 30
0.0
 11
-574.94829795116175
 21
-118.04329000377351
 31
0.0
  0
LINE
  5
6B15
  8
0
 62
     0
 10
-575.03884895116164
 20
-118.0454528329019
 30
0.0
 11
-574.94829795116163
 21
-117.9549018329019
 31
0.0
  0
LINE
  5
6B16
  8
0
 62
     0
 10
-575.03884895116164
 20
-117.95706466203031
 30
0.0
 11
-574.94829795116163
 21
-117.8665136620302
 31
0.0
  0
LINE
  5
6B17
  8
0
 62
     0
 10
-575.03884895116164
 20
-117.86867649115869
 30
0.0
 11
-574.94829795116163
 21
-117.7781254911586
 31
0.0
  0
LINE
  5
6B18
  8
0
 62
     0
 10
-575.03884895116164
 20
-117.780288320287
 30
0.0
 11
-574.94829795116163
 21
-117.68973732028699
 31
0.0
  0
LINE
  5
6B19
  8
0
 62
     0
 10
-575.03884895116175
 20
-117.6919001494154
 30
0.0
 11
-574.94829795116163
 21
-117.6013491494154
 31
0.0
  0
LINE
  5
6B1A
  8
0
 62
     0
 10
-575.03884895116164
 20
-117.60351197854381
 30
0.0
 11
-574.94829795116163
 21
-117.5129609785438
 31
0.0
  0
LINE
  5
6B1B
  8
0
 62
     0
 10
-575.03884895116164
 20
-117.5151238076721
 30
0.0
 11
-574.94829795116163
 21
-117.42457280767211
 31
0.0
  0
LINE
  5
6B1C
  8
0
 62
     0
 10
-575.03884895116164
 20
-117.4267356368005
 30
0.0
 11
-574.94829795116163
 21
-117.3361846368005
 31
0.0
  0
LINE
  5
6B1D
  8
0
 62
     0
 10
-574.47093245461588
 20
-116.7704309693831
 30
0.0
 11
-574.44042495116162
 21
-116.7399234659289
 31
0.0
  0
LINE
  5
6B1E
  8
0
 62
     0
 10
-574.41390176827394
 20
-116.7134002830413
 30
0.0
 11
-574.37524227763879
 21
-116.6747407924061
 31
0.0
  0
LINE
  5
6B1F
  8
0
 62
     0
 10
-575.03884895116164
 20
-117.3383474659289
 30
0.0
 11
-574.95374128267599
 21
-117.2532397974432
 31
0.0
  0
LINE
  5
6B20
  8
0
 62
     0
 10
-574.56420904441825
 20
-116.7753193883138
 30
0.0
 11
-574.46851886744105
 21
-116.6796292113368
 31
0.0
  0
LINE
  5
6B21
  8
0
 62
     0
 10
-575.04859015762372
 20
-117.2597005015194
 30
0.0
 11
-574.97883915835564
 21
-117.1899495022512
 31
0.0
  0
LINE
  5
6B22
  8
0
 62
     0
 10
-574.65748563422039
 20
-116.78020780724439
 30
0.0
 11
-574.56179545724342
 21
-116.68451763026739
 31
0.0
  0
LINE
  5
6B23
  8
0
 62
     0
 10
-575.07368803330326
 20
-117.1964102063273
 30
0.0
 11
-575.00393703403518
 21
-117.12665920705921
 31
0.0
  0
LINE
  5
6B24
  8
0
 62
     0
 10
-574.75076222402265
 20
-116.785096226175
 30
0.0
 11
-574.65507204704556
 21
-116.689406049198
 31
0.0
  0
LINE
  5
6B25
  8
0
 62
     0
 10
-575.09878590898279
 20
-117.1331199111353
 30
0.0
 11
-575.02903490971471
 21
-117.0633689118671
 31
0.0
  0
LINE
  5
6B26
  8
0
 62
     0
 10
-574.84403881382491
 20
-116.7899846451057
 30
0.0
 11
-574.74834863684794
 21
-116.6942944681287
 31
0.0
  0
LINE
  5
6B27
  8
0
 62
     0
 10
-575.12388378466255
 20
-117.06982961594331
 30
0.0
 11
-575.01535678453627
 21
-116.9613026158171
 31
0.0
  0
LINE
  5
6B28
  8
0
 62
     0
 10
-575.12748846276304
 20
-116.9850461231721
 30
0.0
 11
-574.84162522665008
 21
-116.69918288705929
 31
0.0
  0
LINE
  5
6B29
  8
0
 62
     0
 10
-575.04436978584408
 20
-116.8135392753816
 30
0.0
 11
-574.93490181645245
 21
-116.7040713059899
 31
0.0
  0
ENDBLK
  5
6B2B
  8
0
  0
BLOCK
  8
0
  2
*X46
 70
     1
 10
0.0
 20
0.0
 30
0.0
  3
*X46
  1

  0
LINE
  5
6B2D
  8
0
 62
     0
 10
-578.20635512659624
 20
-123.2215867078293
 30
0.0
 11
-578.16617730694145
 21
-123.1814088881747
 31
0.0
  0
LINE
  5
6B2E
  8
0
 62
     0
 10
-578.35457065758533
 20
-123.31676933629539
 30
0.0
 11
-578.15712459076462
 21
-123.11932326947461
 31
0.0
  0
LINE
  5
6B2F
  8
0
 62
     0
 10
-578.46830506829451
 20
-123.37747084448161
 30
0.0
 11
-578.15419153940616
 21
-123.06335731559319
 31
0.0
  0
LINE
  5
6B30
  8
0
 62
     0
 10
-578.24694866502466
 20
-123.1030815386888
 30
0.0
 11
-578.1512584880478
 21
-123.0073913617119
 31
0.0
  0
LINE
  5
6B31
  8
0
 62
     0
 10
-578.52133797081729
 20
-123.37747084448149
 30
0.0
 11
-578.35024053919835
 21
-123.2063734128624
 31
0.0
  0
LINE
  5
6B32
  8
0
 62
     0
 10
-578.24401561366642
 20
-123.0471155848075
 30
0.0
 11
-578.14832543668933
 21
-122.9514254078305
 31
0.0
  0
LINE
  5
6B33
  8
0
 62
     0
 10
-578.56094454832635
 20
-123.3640445194675
 30
0.0
 11
-578.48381987334051
 21
-123.2869198444816
 31
0.0
  0
LINE
  5
6B34
  8
0
 62
     0
 10
-578.24108256230795
 20
-122.9911496309262
 30
0.0
 11
-578.14539238533098
 21
-122.8954594539491
 31
0.0
  0
LINE
  5
6B35
  8
0
 62
     0
 10
-578.60771877586342
 20
-123.3577858444816
 30
0.0
 11
-578.53685277586339
 21
-123.2869198444815
 31
0.0
  0
LINE
  5
6B36
  8
0
 62
     0
 10
-578.23814951094971
 20
-122.9351836770449
 30
0.0
 11
-578.14245933397262
 21
-122.8394935000677
 31
0.0
  0
LINE
  5
6B37
  8
0
 62
     0
 10
-578.66075167838642
 20
-123.3577858444815
 30
0.0
 11
-578.57020067838653
 21
-123.26723484448161
 31
0.0
  0
LINE
  5
6B38
  8
0
 62
     0
 10
-578.23521645959136
 20
-122.87921772316351
 30
0.0
 11
-578.13952628261416
 21
-122.78352754618631
 31
0.0
  0
LINE
  5
6B39
  8
0
 62
     0
 10
-578.71378458090942
 20
-123.3577858444815
 30
0.0
 11
-578.62323358090941
 21
-123.26723484448161
 31
0.0
  0
LINE
  5
6B3A
  8
0
 62
     0
 10
-578.232283408233
 20
-122.82325176928219
 30
0.0
 11
-578.13659323125569
 21
-122.72756159230499
 31
0.0
  0
LINE
  5
6B3B
  8
0
 62
     0
 10
-578.76681748343231
 20
-123.3577858444815
 30
0.0
 11
-578.6762664834323
 21
-123.26723484448161
 31
0.0
  0
LINE
  5
6B3C
  8
0
 62
     0
 10
-578.22935035687465
 20
-122.7672858154009
 30
0.0
 11
-578.22142638595517
 21
-122.7593618444815
 31
0.0
  0
LINE
  5
6B3D
  8
0
 62
     0
 10
-578.17350322331242
 20
-122.7114386818387
 30
0.0
 11
-578.14268638595524
 21
-122.68062184448161
 31
0.0
  0
LINE
  5
6B3E
  8
0
 62
     0
 10
-578.81985038595531
 20
-123.3577858444816
 30
0.0
 11
-578.72929938595519
 21
-123.26723484448161
 31
0.0
  0
LINE
  5
6B3F
  8
0
 62
     0
 10
-578.87288328847831
 20
-123.3577858444816
 30
0.0
 11
-578.7823322884783
 21
-123.26723484448161
 31
0.0
  0
LINE
  5
6B40
  8
0
 62
     0
 10
-578.92591619100108
 20
-123.3577858444815
 30
0.0
 11
-578.83536519100119
 21
-123.26723484448161
 31
0.0
  0
LINE
  5
6B41
  8
0
 62
     0
 10
-578.97894909352408
 20
-123.3577858444815
 30
0.0
 11
-578.8883980935243
 21
-123.26723484448161
 31
0.0
  0
LINE
  5
6B42
  8
0
 62
     0
 10
-579.03198199604719
 20
-123.3577858444815
 30
0.0
 11
-578.9414309960473
 21
-123.26723484448161
 31
0.0
  0
LINE
  5
6B43
  8
0
 62
     0
 10
-579.08501489857008
 20
-123.3577858444816
 30
0.0
 11
-578.99446389857019
 21
-123.26723484448161
 31
0.0
  0
LINE
  5
6B44
  8
0
 62
     0
 10
-579.13804780109319
 20
-123.3577858444816
 30
0.0
 11
-579.04749680109319
 21
-123.26723484448161
 31
0.0
  0
LINE
  5
6B45
  8
0
 62
     0
 10
-579.19108070361608
 20
-123.3577858444815
 30
0.0
 11
-579.10052970361608
 21
-123.26723484448161
 31
0.0
  0
LINE
  5
6B46
  8
0
 62
     0
 10
-579.24411360613897
 20
-123.3577858444815
 30
0.0
 11
-579.15356260613896
 21
-123.26723484448161
 31
0.0
  0
LINE
  5
6B47
  8
0
 62
     0
 10
-579.29714650866208
 20
-123.3577858444816
 30
0.0
 11
-579.20659550866196
 21
-123.26723484448161
 31
0.0
  0
LINE
  5
6B48
  8
0
 62
     0
 10
-579.35017941118497
 20
-123.3577858444816
 30
0.0
 11
-579.25962841118508
 21
-123.26723484448161
 31
0.0
  0
LINE
  5
6B49
  8
0
 62
     0
 10
-579.40321231370797
 20
-123.3577858444816
 30
0.0
 11
-579.31266131370796
 21
-123.26723484448161
 31
0.0
  0
LINE
  5
6B4A
  8
0
 62
     0
 10
-579.45624521623085
 20
-123.3577858444815
 30
0.0
 11
-579.36569421623108
 21
-123.26723484448161
 31
0.0
  0
LINE
  5
6B4B
  8
0
 62
     0
 10
-579.50927811875385
 20
-123.3577858444816
 30
0.0
 11
-579.41872711875385
 21
-123.26723484448161
 31
0.0
  0
LINE
  5
6B4C
  8
0
 62
     0
 10
-579.56231102127686
 20
-123.3577858444816
 30
0.0
 11
-579.47176002127685
 21
-123.26723484448161
 31
0.0
  0
LINE
  5
6B4D
  8
0
 62
     0
 10
-579.61534392379997
 20
-123.3577858444816
 30
0.0
 11
-579.52479292379996
 21
-123.26723484448161
 31
0.0
  0
LINE
  5
6B4E
  8
0
 62
     0
 10
-579.66837682632286
 20
-123.3577858444816
 30
0.0
 11
-579.57782582632285
 21
-123.26723484448161
 31
0.0
  0
LINE
  5
6B4F
  8
0
 62
     0
 10
-579.72140972884586
 20
-123.3577858444815
 30
0.0
 11
-579.63085872884585
 21
-123.26723484448149
 31
0.0
  0
LINE
  5
6B50
  8
0
 62
     0
 10
-579.77444263136886
 20
-123.3577858444816
 30
0.0
 11
-579.68389163136885
 21
-123.26723484448161
 31
0.0
  0
LINE
  5
6B51
  8
0
 62
     0
 10
-579.82747553389186
 20
-123.3577858444816
 30
0.0
 11
-579.73692453389185
 21
-123.26723484448161
 31
0.0
  0
LINE
  5
6B52
  8
0
 62
     0
 10
-579.88050843641474
 20
-123.3577858444816
 30
0.0
 11
-579.78995743641485
 21
-123.26723484448161
 31
0.0
  0
LINE
  5
6B53
  8
0
 62
     0
 10
-579.93354133893774
 20
-123.3577858444816
 30
0.0
 11
-579.84299033893774
 21
-123.26723484448149
 31
0.0
  0
LINE
  5
6B54
  8
0
 62
     0
 10
-579.98657424146074
 20
-123.3577858444816
 30
0.0
 11
-579.89602324146074
 21
-123.26723484448161
 31
0.0
  0
LINE
  5
6B55
  8
0
 62
     0
 10
-580.03960714398386
 20
-123.3577858444816
 30
0.0
 11
-579.94905614398374
 21
-123.26723484448161
 31
0.0
  0
LINE
  5
6B56
  8
0
 62
     0
 10
-580.09264004650674
 20
-123.3577858444816
 30
0.0
 11
-580.00208904650674
 21
-123.26723484448161
 31
0.0
  0
LINE
  5
6B57
  8
0
 62
     0
 10
-580.14567294902963
 20
-123.3577858444816
 30
0.0
 11
-580.05512194902963
 21
-123.26723484448161
 31
0.0
  0
LINE
  5
6B58
  8
0
 62
     0
 10
-580.19870585155263
 20
-123.3577858444816
 30
0.0
 11
-580.10815485155263
 21
-123.26723484448161
 31
0.0
  0
LINE
  5
6B59
  8
0
 62
     0
 10
-580.25173875407563
 20
-123.3577858444816
 30
0.0
 11
-580.16118775407563
 21
-123.26723484448161
 31
0.0
  0
LINE
  5
6B5A
  8
0
 62
     0
 10
-580.30477165659863
 20
-123.3577858444816
 30
0.0
 11
-580.21422065659863
 21
-123.26723484448161
 31
0.0
  0
LINE
  5
6B5B
  8
0
 62
     0
 10
-580.35780455912163
 20
-123.3577858444816
 30
0.0
 11
-580.26725355912163
 21
-123.26723484448161
 31
0.0
  0
LINE
  5
6B5C
  8
0
 62
     0
 10
-580.41083746164463
 20
-123.3577858444816
 30
0.0
 11
-580.32028646164463
 21
-123.26723484448161
 31
0.0
  0
LINE
  5
6B5D
  8
0
 62
     0
 10
-580.46387036416763
 20
-123.3577858444816
 30
0.0
 11
-580.37331936416751
 21
-123.26723484448161
 31
0.0
  0
LINE
  5
6B5E
  8
0
 62
     0
 10
-580.51690326669041
 20
-123.3577858444816
 30
0.0
 11
-580.42635226669051
 21
-123.26723484448161
 31
0.0
  0
LINE
  5
6B5F
  8
0
 62
     0
 10
-580.56993616921329
 20
-123.3577858444816
 30
0.0
 11
-580.47938516921329
 21
-123.26723484448161
 31
0.0
  0
LINE
  5
6B60
  8
0
 62
     0
 10
-580.62296907173641
 20
-123.3577858444816
 30
0.0
 11
-580.5324180717364
 21
-123.26723484448161
 31
0.0
  0
LINE
  5
6B61
  8
0
 62
     0
 10
-580.67600197425929
 20
-123.3577858444816
 30
0.0
 11
-580.58545097425929
 21
-123.26723484448161
 31
0.0
  0
LINE
  5
6B62
  8
0
 62
     0
 10
-580.72903487678241
 20
-123.3577858444816
 30
0.0
 11
-580.6384838767824
 21
-123.26723484448161
 31
0.0
  0
LINE
  5
6B63
  8
0
 62
     0
 10
-580.78206777930541
 20
-123.3577858444816
 30
0.0
 11
-580.6915167793054
 21
-123.26723484448161
 31
0.0
  0
LINE
  5
6B64
  8
0
 62
     0
 10
-580.83510068182829
 20
-123.3577858444816
 30
0.0
 11
-580.74454968182829
 21
-123.26723484448161
 31
0.0
  0
LINE
  5
6B65
  8
0
 62
     0
 10
-580.88813358435141
 20
-123.3577858444816
 30
0.0
 11
-580.7975825843514
 21
-123.26723484448161
 31
0.0
  0
LINE
  5
6B66
  8
0
 62
     0
 10
-580.94116648687429
 20
-123.3577858444816
 30
0.0
 11
-580.85061548687429
 21
-123.26723484448161
 31
0.0
  0
LINE
  5
6B67
  8
0
 62
     0
 10
-581.01388438939716
 20
-123.37747084448149
 30
0.0
 11
-580.90364838939718
 21
-123.26723484448161
 31
0.0
  0
LINE
  5
6B68
  8
0
 62
     0
 10
-581.06691729192005
 20
-123.37747084448149
 30
0.0
 11
-580.95668129192006
 21
-123.26723484448161
 31
0.0
  0
LINE
  5
6B69
  8
0
 62
     0
 10
-581.1070191137519
 20
-123.36453976379021
 30
0.0
 11
-581.02939919444316
 21
-123.2869198444815
 31
0.0
  0
LINE
  5
6B6A
  8
0
 62
     0
 10
-581.13931311229703
 20
-123.3438008598124
 30
0.0
 11
-581.0737816456799
 21
-123.2782693931953
 31
0.0
  0
LINE
  5
6B6B
  8
0
 62
     0
 10
-581.17160711084205
 20
-123.3230619558346
 30
0.0
 11
-581.10607564422503
 21
-123.2575304892174
 31
0.0
  0
LINE
  5
6B6C
  8
0
 62
     0
 10
-581.20390110938717
 20
-123.3023230518567
 30
0.0
 11
-581.13836964277004
 21
-123.2367915852396
 31
0.0
  0
LINE
  5
6B6D
  8
0
 62
     0
 10
-581.2361951079323
 20
-123.2815841478789
 30
0.0
 11
-581.17066364131529
 21
-123.2160526812617
 31
0.0
  0
LINE
  5
6B6E
  8
0
 62
     0
 10
-581.26848910647755
 20
-123.260845243901
 30
0.0
 11
-581.20295763986041
 21
-123.1953137772839
 31
0.0
  0
LINE
  5
6B6F
  8
0
 62
     0
 10
-581.30078310502256
 20
-123.2401063399232
 30
0.0
 11
-581.23525163840554
 21
-123.174574873306
 31
0.0
  0
LINE
  5
6B70
  8
0
 62
     0
 10
-581.3330771035678
 20
-123.2193674359453
 30
0.0
 11
-581.26754563695067
 21
-123.1538359693283
 31
0.0
  0
LINE
  5
6B71
  8
0
 62
     0
 10
-581.36170126766217
 20
-123.1949586975168
 30
0.0
 11
-581.28807147752877
 21
-123.1213289073834
 31
0.0
  0
LINE
  5
6B72
  8
0
 62
     0
 10
-581.37672970826668
 20
-123.15695423559831
 30
0.0
 11
-581.29071240883411
 21
-123.07093693616569
 31
0.0
  0
LINE
  5
6B73
  8
0
 62
     0
 10
-581.37951316248893
 20
-123.1067047872976
 30
0.0
 11
-581.29335334013933
 21
-123.020544964948
 31
0.0
  0
LINE
  5
6B74
  8
0
 62
     0
 10
-581.38215409379416
 20
-123.0563128160798
 30
0.0
 11
-581.29599427144456
 21
-122.9701529937302
 31
0.0
  0
LINE
  5
6B75
  8
0
 62
     0
 10
-581.38479502509938
 20
-123.005920844862
 30
0.0
 11
-581.29863520274989
 21
-122.9197610225125
 31
0.0
  0
LINE
  5
6B76
  8
0
 62
     0
 10
-581.3874359564046
 20
-122.9555288736443
 30
0.0
 11
-581.30127613405512
 21
-122.8693690512947
 31
0.0
  0
LINE
  5
6B77
  8
0
 62
     0
 10
-581.39007688770982
 20
-122.90513690242651
 30
0.0
 11
-581.30391706536034
 21
-122.818977080077
 31
0.0
  0
LINE
  5
6B78
  8
0
 62
     0
 10
-581.39271781901505
 20
-122.8547449312087
 30
0.0
 11
-581.30655799666545
 21
-122.7685851088593
 31
0.0
  0
LINE
  5
6B79
  8
0
 62
     0
 10
-581.39535875032016
 20
-122.80435295999089
 30
0.0
 11
-581.35036763481071
 21
-122.7593618444815
 31
0.0
  0
LINE
  5
6B7A
  8
0
 62
     0
 10
-581.39799968162538
 20
-122.7539609887732
 30
0.0
 11
-581.36247322331224
 21
-122.71843453046
 31
0.0
  0
LINE
  5
6B7B
  8
0
 62
     0
 10
-581.4006406129306
 20
-122.7035690175554
 30
0.0
 11
-581.37769343985678
 21
-122.68062184448161
 31
0.0
  0
ENDBLK
  5
6B7D
  8
0
  0
BLOCK
  8
0
  2
*X47
 70
     1
 10
0.0
 20
0.0
 30
0.0
  3
*X47
  1

  0
LINE
  5
6BE2
  8
0
 62
     0
 10
-567.87283140924285
 20
-131.75371511716159
 30
0.0
 11
-567.86886094756153
 21
-131.74974465548021
 31
0.0
  0
LINE
  5
6BE3
  8
0
 62
     0
 10
-567.92586431176585
 20
-131.75371511716159
 30
0.0
 11
-567.88046454446328
 21
-131.70831534985911
 31
0.0
  0
LINE
  5
6BE4
  8
0
 62
     0
 10
-567.96937946001106
 20
-131.7972302654068
 30
0.0
 11
-567.9357899475616
 21
-131.76364075295729
 31
0.0
  0
LINE
  5
6BE5
  8
0
 62
     0
 10
-568.01977143122895
 20
-131.7945893341016
 30
0.0
 11
-567.93349744698617
 21
-131.70831534985899
 31
0.0
  0
LINE
  5
6BE6
  8
0
 62
     0
 10
-568.07016340244672
 20
-131.79194840279641
 30
0.0
 11
-567.98400358009678
 21
-131.70578858044669
 31
0.0
  0
LINE
  5
6BE7
  8
0
 62
     0
 10
-568.1205553736645
 20
-131.78930747149121
 30
0.0
 11
-568.03439555131456
 21
-131.7031476491415
 31
0.0
  0
LINE
  5
6BE8
  8
0
 62
     0
 10
-568.16946008249022
 20
-131.78517927779399
 30
0.0
 11
-568.08478752253245
 21
-131.70050671783619
 31
0.0
  0
LINE
  5
6BE9
  8
0
 62
     0
 10
-568.20336075984278
 20
-131.76604705262369
 30
0.0
 11
-568.13517949375
 21
-131.69786578653091
 31
0.0
  0
LINE
  5
6BEA
  8
0
 62
     0
 10
-568.23538689917814
 20
-131.7450402894361
 30
0.0
 11
-568.16999007636525
 21
-131.67964346662311
 31
0.0
  0
LINE
  5
6BEB
  8
0
 62
     0
 10
-568.2674130385135
 20
-131.72403352624849
 30
0.0
 11
-568.20201621570061
 21
-131.65863670343549
 31
0.0
  0
LINE
  5
6BEC
  8
0
 62
     0
 10
-568.29943917784885
 20
-131.7030267630609
 30
0.0
 11
-568.23404235503597
 21
-131.6376299402479
 31
0.0
  0
LINE
  5
6BED
  8
0
 62
     0
 10
-568.33146531718432
 20
-131.68201999987329
 30
0.0
 11
-568.26606849437132
 21
-131.61662317706029
 31
0.0
  0
LINE
  5
6BEE
  8
0
 62
     0
 10
-568.3634914565198
 20
-131.6610132366857
 30
0.0
 11
-568.29809463370668
 21
-131.5956164138727
 31
0.0
  0
LINE
  5
6BEF
  8
0
 62
     0
 10
-568.39387836065976
 20
-131.63836723830281
 30
0.0
 11
-568.31767894756149
 21
-131.56216782520451
 31
0.0
  0
LINE
  5
6BF0
  8
0
 62
     0
 10
-568.40822994756149
 20
-131.59968592268149
 30
0.0
 11
-568.31767894756149
 21
-131.50913492268151
 31
0.0
  0
LINE
  5
6BF1
  8
0
 62
     0
 10
-568.40822994756149
 20
-131.54665302015849
 30
0.0
 11
-568.31767894756149
 21
-131.45610202015851
 31
0.0
  0
LINE
  5
6BF2
  8
0
 62
     0
 10
-568.40822994756138
 20
-131.49362011763549
 30
0.0
 11
-568.31767894756138
 21
-131.40306911763551
 31
0.0
  0
LINE
  5
6BF3
  8
0
 62
     0
 10
-568.35369022593466
 20
-131.38604749348599
 30
0.0
 11
-568.31767894756138
 21
-131.3500362151126
 31
0.0
  0
LINE
  5
6BF4
  8
0
 62
     0
 10
-568.40822994756138
 20
-131.4405872151126
 30
0.0
 11
-568.35369022593466
 21
-131.38604749348599
 31
0.0
  0
LINE
  5
6BF5
  8
0
 62
     0
 10
-568.40788105209356
 20
-131.38720541712189
 30
0.0
 11
-568.31767894756138
 21
-131.29700331258951
 31
0.0
  0
LINE
  5
6BF6
  8
0
 62
     0
 10
-568.40822994756149
 20
-131.3875543125896
 30
0.0
 11
-568.40788105209356
 21
-131.38720541712189
 31
0.0
  0
LINE
  5
6BF7
  8
0
 62
     0
 10
-568.40822994756149
 20
-131.3345214100666
 30
0.0
 11
-568.31767894756138
 21
-131.24397041006659
 31
0.0
  0
LINE
  5
6BF8
  8
0
 62
     0
 10
-568.40822994756149
 20
-131.2814885075436
 30
0.0
 11
-568.31767894756149
 21
-131.19093750754359
 31
0.0
  0
LINE
  5
6BF9
  8
0
 62
     0
 10
-568.38854494756151
 20
-131.2087706050207
 30
0.0
 11
-568.332387773959
 21
-131.15261343141819
 31
0.0
  0
LINE
  5
6BFA
  8
0
 62
     0
 10
-568.332387773959
 20
-131.15261343141819
 30
0.0
 11
-568.31767894756149
 21
-131.13790460502071
 31
0.0
  0
LINE
  5
6BFB
  8
0
 62
     0
 10
-568.40822994756149
 20
-131.22845560502071
 30
0.0
 11
-568.38871498343212
 21
-131.20894064089131
 31
0.0
  0
LINE
  5
6BFC
  8
0
 62
     0
 10
-568.38431120153371
 20
-131.15150395647009
 30
0.0
 11
-568.31767894756149
 21
-131.08487170249771
 31
0.0
  0
LINE
  5
6BFD
  8
0
 62
     0
 10
-568.40237788779848
 20
-131.1695706427347
 30
0.0
 11
-568.38431120153371
 21
-131.15150395647009
 31
0.0
  0
LINE
  5
6BFE
  8
0
 62
     0
 10
-568.40822994756149
 20
-131.12238979997471
 30
0.0
 11
-568.31767894756149
 21
-131.03183879997471
 31
0.0
  0
LINE
  5
6BFF
  8
0
 62
     0
 10
-568.40822994756149
 20
-131.06935689745171
 30
0.0
 11
-568.31767894756149
 21
-130.97880589745171
 31
0.0
  0
LINE
  5
6C00
  8
0
 62
     0
 10
-568.40822994756138
 20
-131.01632399492871
 30
0.0
 11
-568.31767894756138
 21
-130.92577299492879
 31
0.0
  0
LINE
  5
6C01
  8
0
 62
     0
 10
-568.40822994756138
 20
-130.9632910924058
 30
0.0
 11
-568.31767894756149
 21
-130.87274009240579
 31
0.0
  0
LINE
  5
6C02
  8
0
 62
     0
 10
-568.40822994756138
 20
-130.9102581898828
 30
0.0
 11
-568.31767894756149
 21
-130.81970718988279
 31
0.0
  0
LINE
  5
6C03
  8
0
 62
     0
 10
-568.40822994756138
 20
-130.8572252873598
 30
0.0
 11
-568.31767894756149
 21
-130.7666742873599
 31
0.0
  0
LINE
  5
6C04
  8
0
 62
     0
 10
-568.40822994756138
 20
-130.8041923848368
 30
0.0
 11
-568.31767894756149
 21
-130.71364138483679
 31
0.0
  0
LINE
  5
6C05
  8
0
 62
     0
 10
-568.40822994756149
 20
-130.75115948231391
 30
0.0
 11
-568.31767894756149
 21
-130.6606084823139
 31
0.0
  0
LINE
  5
6C06
  8
0
 62
     0
 10
-568.40822994756149
 20
-130.69812657979091
 30
0.0
 11
-568.31767894756149
 21
-130.6075755797909
 31
0.0
  0
LINE
  5
6C07
  8
0
 62
     0
 10
-568.40822994756149
 20
-130.64509367726791
 30
0.0
 11
-568.31767894756149
 21
-130.55454267726799
 31
0.0
  0
LINE
  5
6C08
  8
0
 62
     0
 10
-568.40822994756138
 20
-130.59206077474491
 30
0.0
 11
-568.31767894756138
 21
-130.5015097747449
 31
0.0
  0
LINE
  5
6C09
  8
0
 62
     0
 10
-568.40822994756138
 20
-130.53902787222199
 30
0.0
 11
-568.31767894756138
 21
-130.44847687222199
 31
0.0
  0
LINE
  5
6C0A
  8
0
 62
     0
 10
-568.40822994756138
 20
-130.48599496969899
 30
0.0
 11
-568.31767894756138
 21
-130.39544396969899
 31
0.0
  0
LINE
  5
6C0B
  8
0
 62
     0
 10
-568.40822994756138
 20
-130.43296206717611
 30
0.0
 11
-568.31767894756138
 21
-130.3424110671761
 31
0.0
  0
LINE
  5
6C0C
  8
0
 62
     0
 10
-568.40822994756149
 20
-130.37992916465311
 30
0.0
 11
-568.31767894756149
 21
-130.2893781646531
 31
0.0
  0
LINE
  5
6C0D
  8
0
 62
     0
 10
-568.40822994756149
 20
-130.32689626213011
 30
0.0
 11
-568.31767894756149
 21
-130.2363452621301
 31
0.0
  0
LINE
  5
6C0E
  8
0
 62
     0
 10
-568.40822994756149
 20
-130.27386335960711
 30
0.0
 11
-568.31767894756149
 21
-130.1833123596071
 31
0.0
  0
LINE
  5
6C0F
  8
0
 62
     0
 10
-568.40822994756149
 20
-130.22083045708411
 30
0.0
 11
-568.31767894756149
 21
-130.1302794570841
 31
0.0
  0
LINE
  5
6C10
  8
0
 62
     0
 10
-568.40822994756149
 20
-130.16779755456119
 30
0.0
 11
-568.31767894756149
 21
-130.07724655456121
 31
0.0
  0
LINE
  5
6C11
  8
0
 62
     0
 10
-568.40822994756138
 20
-130.11476465203819
 30
0.0
 11
-568.31767894756138
 21
-130.02421365203821
 31
0.0
  0
LINE
  5
6C12
  8
0
 62
     0
 10
-568.40822994756138
 20
-130.06173174951519
 30
0.0
 11
-568.31767894756138
 21
-129.97118074951521
 31
0.0
  0
LINE
  5
6C13
  8
0
 62
     0
 10
-568.40822994756138
 20
-130.00869884699219
 30
0.0
 11
-568.31767894756138
 21
-129.91814784699221
 31
0.0
  0
LINE
  5
6C14
  8
0
 62
     0
 10
-568.40822994756138
 20
-129.9556659444693
 30
0.0
 11
-568.31767894756149
 21
-129.8651149444693
 31
0.0
  0
LINE
  5
6C15
  8
0
 62
     0
 10
-568.40822994756149
 20
-129.9026330419463
 30
0.0
 11
-568.31767894756149
 21
-129.8120820419463
 31
0.0
  0
LINE
  5
6C16
  8
0
 62
     0
 10
-568.40822994756149
 20
-129.8496001394233
 30
0.0
 11
-568.31767894756149
 21
-129.7590491394233
 31
0.0
  0
LINE
  5
6C17
  8
0
 62
     0
 10
-568.40822994756149
 20
-129.7965672369003
 30
0.0
 11
-568.31767894756149
 21
-129.7060162369003
 31
0.0
  0
LINE
  5
6C18
  8
0
 62
     0
 10
-568.40822994756149
 20
-129.74353433437739
 30
0.0
 11
-568.31767894756149
 21
-129.65298333437741
 31
0.0
  0
LINE
  5
6C19
  8
0
 62
     0
 10
-568.40822994756149
 20
-129.69050143185439
 30
0.0
 11
-568.31767894756149
 21
-129.59995043185441
 31
0.0
  0
LINE
  5
6C1A
  8
0
 62
     0
 10
-568.40822994756138
 20
-129.63746852933139
 30
0.0
 11
-568.31767894756138
 21
-129.54691752933141
 31
0.0
  0
LINE
  5
6C1B
  8
0
 62
     0
 10
-568.40822994756138
 20
-129.5844356268085
 30
0.0
 11
-568.31767894756138
 21
-129.49388462680849
 31
0.0
  0
LINE
  5
6C1C
  8
0
 62
     0
 10
-568.40822994756138
 20
-129.53140272428541
 30
0.0
 11
-568.31767894756149
 21
-129.44085172428549
 31
0.0
  0
LINE
  5
6C1D
  8
0
 62
     0
 10
-568.40822994756138
 20
-129.4783698217625
 30
0.0
 11
-568.31767894756149
 21
-129.38781882176249
 31
0.0
  0
LINE
  5
6C1E
  8
0
 62
     0
 10
-568.40822994756138
 20
-129.4253369192395
 30
0.0
 11
-568.31767894756149
 21
-129.33478591923949
 31
0.0
  0
LINE
  5
6C1F
  8
0
 62
     0
 10
-568.40822994756149
 20
-129.37230401671661
 30
0.0
 11
-568.31767894756149
 21
-129.28175301671661
 31
0.0
  0
LINE
  5
6C20
  8
0
 62
     0
 10
-568.40822994756149
 20
-129.31927111419361
 30
0.0
 11
-568.31767894756149
 21
-129.22872011419361
 31
0.0
  0
LINE
  5
6C21
  8
0
 62
     0
 10
-568.40822994756149
 20
-129.26623821167061
 30
0.0
 11
-568.31767894756149
 21
-129.17568721167061
 31
0.0
  0
LINE
  5
6C22
  8
0
 62
     0
 10
-568.40822994756138
 20
-129.21320530914761
 30
0.0
 11
-568.31767894756138
 21
-129.12265430914761
 31
0.0
  0
LINE
  5
6C23
  8
0
 62
     0
 10
-568.40822994756138
 20
-129.16017240662461
 30
0.0
 11
-568.31767894756138
 21
-129.06962140662469
 31
0.0
  0
LINE
  5
6C24
  8
0
 62
     0
 10
-568.40822994756138
 20
-129.1071395041017
 30
0.0
 11
-568.31767894756149
 21
-129.01658850410169
 31
0.0
  0
LINE
  5
6C25
  8
0
 62
     0
 10
-568.40822994756138
 20
-129.0541066015787
 30
0.0
 11
-568.31767894756149
 21
-128.96355560157869
 31
0.0
  0
LINE
  5
6C26
  8
0
 62
     0
 10
-568.40822994756138
 20
-129.00107369905569
 30
0.0
 11
-568.31767894756149
 21
-128.9105226990558
 31
0.0
  0
LINE
  5
6C27
  8
0
 62
     0
 10
-568.40822994756138
 20
-128.94804079653269
 30
0.0
 11
-568.31767894756149
 21
-128.8574897965328
 31
0.0
  0
LINE
  5
6C28
  8
0
 62
     0
 10
-568.40822994756149
 20
-128.89500789400981
 30
0.0
 11
-568.31767894756149
 21
-128.8044568940098
 31
0.0
  0
LINE
  5
6C29
  8
0
 62
     0
 10
-568.40822994756149
 20
-128.84197499148681
 30
0.0
 11
-568.31767894756149
 21
-128.7514239914868
 31
0.0
  0
LINE
  5
6C2A
  8
0
 62
     0
 10
-568.40822994756149
 20
-128.78894208896381
 30
0.0
 11
-568.31767894756149
 21
-128.69839108896389
 31
0.0
  0
LINE
  5
6C2B
  8
0
 62
     0
 10
-568.40822994756138
 20
-128.73590918644081
 30
0.0
 11
-568.31767894756138
 21
-128.64535818644089
 31
0.0
  0
LINE
  5
6C2C
  8
0
 62
     0
 10
-568.40822994756138
 20
-128.68287628391789
 30
0.0
 11
-568.31767894756138
 21
-128.59232528391789
 31
0.0
  0
LINE
  5
6C2D
  8
0
 62
     0
 10
-568.40822994756138
 20
-128.62984338139489
 30
0.0
 11
-568.31767894756149
 21
-128.539292381395
 31
0.0
  0
LINE
  5
6C2E
  8
0
 62
     0
 10
-568.40822994756138
 20
-128.57681047887201
 30
0.0
 11
-568.31767894756149
 21
-128.486259478872
 31
0.0
  0
LINE
  5
6C2F
  8
0
 62
     0
 10
-568.40822994756149
 20
-128.523777576349
 30
0.0
 11
-568.31767894756149
 21
-128.433226576349
 31
0.0
  0
LINE
  5
6C30
  8
0
 62
     0
 10
-568.40822994756149
 20
-128.470744673826
 30
0.0
 11
-568.31767894756149
 21
-128.380193673826
 31
0.0
  0
LINE
  5
6C31
  8
0
 62
     0
 10
-568.40822994756149
 20
-128.417711771303
 30
0.0
 11
-568.31767894756149
 21
-128.32716077130311
 31
0.0
  0
LINE
  5
6C32
  8
0
 62
     0
 10
-568.40822994756149
 20
-128.36467886878
 30
0.0
 11
-568.31767894756149
 21
-128.27412786878011
 31
0.0
  0
LINE
  5
6C33
  8
0
 62
     0
 10
-568.40822994756149
 20
-128.31164596625709
 30
0.0
 11
-568.31767894756149
 21
-128.22109496625711
 31
0.0
  0
LINE
  5
6C34
  8
0
 62
     0
 10
-568.40822994756138
 20
-128.25861306373409
 30
0.0
 11
-568.31767894756149
 21
-128.16806206373411
 31
0.0
  0
LINE
  5
6C35
  8
0
 62
     0
 10
-568.40822994756138
 20
-128.20558016121109
 30
0.0
 11
-568.31767894756149
 21
-128.1150291612112
 31
0.0
  0
LINE
  5
6C36
  8
0
 62
     0
 10
-568.40822994756138
 20
-128.15254725868809
 30
0.0
 11
-568.31767894756149
 21
-128.0619962586882
 31
0.0
  0
LINE
  5
6C37
  8
0
 62
     0
 10
-568.40822994756138
 20
-128.0995143561652
 30
0.0
 11
-568.31767894756149
 21
-128.0089633561652
 31
0.0
  0
LINE
  5
6C38
  8
0
 62
     0
 10
-568.40822994756138
 20
-128.0464814536422
 30
0.0
 11
-568.31767894756149
 21
-127.9559304536422
 31
0.0
  0
LINE
  5
6C39
  8
0
 62
     0
 10
-568.33554582603165
 20
-127.9207644295895
 30
0.0
 11
-568.31767894756149
 21
-127.9028975511193
 31
0.0
  0
LINE
  5
6C3A
  8
0
 62
     0
 10
-568.40822994756149
 20
-127.9934485511192
 30
0.0
 11
-568.33554582603165
 21
-127.9207644295895
 31
0.0
  0
LINE
  5
6C3B
  8
0
 62
     0
 10
-568.38973665219066
 20
-127.9219223532254
 30
0.0
 11
-568.31767894756149
 21
-127.8498646485963
 31
0.0
  0
LINE
  5
6C3C
  8
0
 62
     0
 10
-568.40822994756149
 20
-127.9404156485962
 30
0.0
 11
-568.38973665219066
 21
-127.9219223532254
 31
0.0
  0
LINE
  5
6C3D
  8
0
 62
     0
 10
-567.88584223289172
 20
-127.3649950314035
 30
0.0
 11
-567.86886094756153
 21
-127.34801374607341
 31
0.0
  0
LINE
  5
6C3E
  8
0
 62
     0
 10
-568.38854494756151
 20
-127.8676977460733
 30
0.0
 11
-568.31767894756149
 21
-127.79683174607329
 31
0.0
  0
LINE
  5
6C3F
  8
0
 62
     0
 10
-567.93904576560806
 20
-127.365165661597
 30
0.0
 11
-567.89347536811204
 21
-127.319595264101
 31
0.0
  0
LINE
  5
6C40
  8
0
 62
     0
 10
-568.40822994756138
 20
-127.8343498435503
 30
0.0
 11
-568.31767894756138
 21
-127.74379884355029
 31
0.0
  0
LINE
  5
6C41
  8
0
 62
     0
 10
-567.99501171948953
 20
-127.3680987129554
 30
0.0
 11
-567.93578994756149
 21
-127.30887694102751
 31
0.0
  0
LINE
  5
6C42
  8
0
 62
     0
 10
-568.40822994756138
 20
-127.7813169410273
 30
0.0
 11
-568.31767894756138
 21
-127.69076594102729
 31
0.0
  0
LINE
  5
6C43
  8
0
 62
     0
 10
-568.36692598154275
 20
-127.6869800724858
 30
0.0
 11
-568.31767894756149
 21
-127.63773303850439
 31
0.0
  0
LINE
  5
6C44
  8
0
 62
     0
 10
-568.05097767337088
 20
-127.3710317643138
 30
0.0
 11
-567.95528749639379
 21
-127.2753415873368
 31
0.0
  0
LINE
  5
6C45
  8
0
 62
     0
 10
-568.40822994756138
 20
-127.7282840385044
 30
0.0
 11
-568.36692598154275
 21
-127.6869800724858
 31
0.0
  0
LINE
  5
6C46
  8
0
 62
     0
 10
-568.10694362725235
 20
-127.3739648156723
 30
0.0
 11
-568.01125345027515
 21
-127.27827463869519
 31
0.0
  0
LINE
  5
6C47
  8
0
 62
     0
 10
-568.40822994756138
 20
-127.6752511359814
 30
0.0
 11
-568.31767894756149
 21
-127.58470013598139
 31
0.0
  0
LINE
  5
6C48
  8
0
 62
     0
 10
-568.19814837899753
 20
-127.4121366648945
 30
0.0
 11
-568.06721940415662
 21
-127.28120769005351
 31
0.0
  0
LINE
  5
6C49
  8
0
 62
     0
 10
-568.40822994756149
 20
-127.6222182334584
 30
0.0
 11
-568.31767894756149
 21
-127.53166723345851
 31
0.0
  0
LINE
  5
6C4A
  8
0
 62
     0
 10
-568.40822994756149
 20
-127.5691853309354
 30
0.0
 11
-568.12318535803797
 21
-127.2841407414119
 31
0.0
  0
LINE
  5
6C4B
  8
0
 62
     0
 10
-568.40822994756149
 20
-127.5161524284125
 30
0.0
 11
-568.19167749739097
 21
-127.299599978242
 31
0.0
  0
LINE
  5
6C4C
  8
0
 62
     0
 10
-568.40708872609378
 20
-127.46197830442181
 30
0.0
 11
-568.34580955557499
 21
-127.4006991339031
 31
0.0
  0
ENDBLK
  5
6C4E
  8
0
  0
BLOCK
  8
0
  2
*X48
 70
     1
 10
0.0
 20
0.0
 30
0.0
  3
*X48
  1

  0
LINE
  5
6C66
  8
0
 62
     0
 10
-560.21288717056632
 20
-121.68130850383839
 30
0.0
 11
-560.20446217884341
 21
-121.6728835121156
 31
0.0
  0
LINE
  5
6C67
  8
0
 62
     0
 10
-560.25727765633735
 20
-121.67975835391729
 30
0.0
 11
-560.20796463545105
 21
-121.6304453330311
 31
0.0
  0
LINE
  5
6C68
  8
0
 62
     0
 10
-560.30166814210816
 20
-121.67820820399599
 30
0.0
 11
-560.25390527114337
 21
-121.6304453330312
 31
0.0
  0
LINE
  5
6C69
  8
0
 62
     0
 10
-560.34605862787919
 20
-121.67665805407481
 30
0.0
 11
-560.25561955683816
 21
-121.5862189830337
 31
0.0
  0
LINE
  5
6C6A
  8
0
 62
     0
 10
-560.39044911365022
 20
-121.67510790415351
 30
0.0
 11
-560.27668804801419
 21
-121.56134683851759
 31
0.0
  0
LINE
  5
6C6B
  8
0
 62
     0
 10
-560.43483959942125
 20
-121.67355775423231
 30
0.0
 11
-560.32107853378545
 21
-121.55979668859661
 31
0.0
  0
LINE
  5
6C6C
  8
0
 62
     0
 10
-560.47923008519206
 20
-121.67200760431101
 30
0.0
 11
-560.36546901955671
 21
-121.5582465386755
 31
0.0
  0
LINE
  5
6C6D
  8
0
 62
     0
 10
-560.5236205709632
 20
-121.6704574543898
 30
0.0
 11
-560.40985950532797
 21
-121.5566963887546
 31
0.0
  0
LINE
  5
6C6E
  8
0
 62
     0
 10
-560.56801105673435
 20
-121.6689073044686
 30
0.0
 11
-560.45424999109923
 21
-121.5551462388335
 31
0.0
  0
LINE
  5
6C6F
  8
0
 62
     0
 10
-560.61240154250515
 20
-121.6673571545473
 30
0.0
 11
-560.49864047687038
 21
-121.5535960889124
 31
0.0
  0
LINE
  5
6C70
  8
0
 62
     0
 10
-560.65679202827619
 20
-121.6658070046261
 30
0.0
 11
-560.54303096264152
 21
-121.5520459389914
 31
0.0
  0
LINE
  5
6C71
  8
0
 62
     0
 10
-560.70118251404733
 20
-121.6642568547049
 30
0.0
 11
-560.58742144841278
 21
-121.5504957890704
 31
0.0
  0
LINE
  5
6C72
  8
0
 62
     0
 10
-560.74557299981825
 20
-121.6627067047837
 30
0.0
 11
-560.63181193418393
 21
-121.5489456391493
 31
0.0
  0
LINE
  5
6C73
  8
0
 62
     0
 10
-560.78996348558917
 20
-121.6611565548624
 30
0.0
 11
-560.67620241995496
 21
-121.54739548922829
 31
0.0
  0
LINE
  5
6C74
  8
0
 62
     0
 10
-560.82359015741918
 20
-121.6488425910002
 30
0.0
 11
-560.72059290572645
 21
-121.54584533930731
 31
0.0
  0
LINE
  5
6C75
  8
0
 62
     0
 10
-560.84216647057883
 20
-121.6214782684675
 30
0.0
 11
-560.76498339149748
 21
-121.5442951893862
 31
0.0
  0
LINE
  5
6C76
  8
0
 62
     0
 10
-560.85811827243504
 20
-121.5914894346314
 30
0.0
 11
-560.78246901250679
 21
-121.5158401747032
 31
0.0
  0
LINE
  5
6C77
  8
0
 62
     0
 10
-560.87407007429113
 20
-121.5615006007953
 30
0.0
 11
-560.798420814363
 21
-121.4858513408672
 31
0.0
  0
LINE
  5
6C78
  8
0
 62
     0
 10
-560.89002187614722
 20
-121.5315117669592
 30
0.0
 11
-560.81437261621909
 21
-121.4558625070312
 31
0.0
  0
LINE
  5
6C79
  8
0
 62
     0
 10
-560.90597367800319
 20
-121.501522933123
 30
0.0
 11
-560.83032441807541
 21
-121.4258736731952
 31
0.0
  0
LINE
  5
6C7A
  8
0
 62
     0
 10
-560.9219254798594
 20
-121.4715340992869
 30
0.0
 11
-560.84627621993161
 21
-121.3958848393592
 31
0.0
  0
LINE
  5
6C7B
  8
0
 62
     0
 10
-560.93787728171537
 20
-121.4415452654508
 30
0.0
 11
-560.7952225892891
 21
-121.29889057302439
 31
0.0
  0
LINE
  5
6C7C
  8
0
 62
     0
 10
-560.94624415984333
 20
-121.4039715078863
 30
0.0
 11
-560.76719333683923
 21
-121.22492068488221
 31
0.0
  0
LINE
  5
6C7D
  8
0
 62
     0
 10
-560.94624415984333
 20
-121.35803087219411
 30
0.0
 11
-560.76719333683923
 21
-121.17898004919
 31
0.0
  0
LINE
  5
6C7E
  8
0
 62
     0
 10
-560.88706093180099
 20
-121.2529070084596
 30
0.0
 11
-560.76719333683934
 21
-121.1330394134978
 31
0.0
  0
LINE
  5
6C7F
  8
0
 62
     0
 10
-560.86950809284326
 20
-121.1894135338097
 30
0.0
 11
-560.76719333683945
 21
-121.08709877780571
 31
0.0
  0
LINE
  5
6C80
  8
0
 62
     0
 10
-560.86950809284326
 20
-121.14347289811739
 30
0.0
 11
-560.76719333683945
 21
-121.0411581421136
 31
0.0
  0
LINE
  5
6C81
  8
0
 62
     0
 10
-560.86950809284326
 20
-121.0975322624252
 30
0.0
 11
-560.76719333683957
 21
-120.9952175064215
 31
0.0
  0
LINE
  5
6C82
  8
0
 62
     0
 10
-560.86950809284326
 20
-121.051591626733
 30
0.0
 11
-560.76719333683957
 21
-120.94927687072941
 31
0.0
  0
LINE
  5
6C83
  8
0
 62
     0
 10
-560.86950809284326
 20
-121.0056509910407
 30
0.0
 11
-560.76719333683991
 21
-120.9033362350373
 31
0.0
  0
LINE
  5
6C84
  8
0
 62
     0
 10
-560.86950809284326
 20
-120.95971035534851
 30
0.0
 11
-560.76719333684002
 21
-120.8573955993451
 31
0.0
  0
LINE
  5
6C85
  8
0
 62
     0
 10
-560.86950809284326
 20
-120.9137697196563
 30
0.0
 11
-560.76719333684014
 21
-120.81145496365301
 31
0.0
  0
LINE
  5
6C86
  8
0
 62
     0
 10
-560.86950809284326
 20
-120.867829083964
 30
0.0
 11
-560.76719333684025
 21
-120.7655143279609
 31
0.0
  0
LINE
  5
6C87
  8
0
 62
     0
 10
-560.86950809284326
 20
-120.82188844827181
 30
0.0
 11
-560.76719333684025
 21
-120.7195736922688
 31
0.0
  0
LINE
  5
6C88
  8
0
 62
     0
 10
-560.86950809284326
 20
-120.7759478125796
 30
0.0
 11
-560.76719333684025
 21
-120.67363305657661
 31
0.0
  0
LINE
  5
6C89
  8
0
 62
     0
 10
-560.86950809284326
 20
-120.7300071768873
 30
0.0
 11
-560.76719333684036
 21
-120.6276924208845
 31
0.0
  0
LINE
  5
6C8A
  8
0
 62
     0
 10
-560.86950809284315
 20
-120.68406654119509
 30
0.0
 11
-560.76719333684059
 21
-120.5817517851924
 31
0.0
  0
LINE
  5
6C8B
  8
0
 62
     0
 10
-560.86950809284326
 20
-120.6381259055029
 30
0.0
 11
-560.76719333684071
 21
-120.5358111495002
 31
0.0
  0
LINE
  5
6C8C
  8
0
 62
     0
 10
-560.86950809284326
 20
-120.5921852698106
 30
0.0
 11
-560.76719333684082
 21
-120.4898705138081
 31
0.0
  0
LINE
  5
6C8D
  8
0
 62
     0
 10
-560.86950809284326
 20
-120.54624463411839
 30
0.0
 11
-560.76719333684093
 21
-120.4439298781159
 31
0.0
  0
LINE
  5
6C8E
  8
0
 62
     0
 10
-560.86950809284326
 20
-120.5003039984262
 30
0.0
 11
-560.76719333684105
 21
-120.3979892424238
 31
0.0
  0
LINE
  5
6C8F
  8
0
 62
     0
 10
-560.86950809284326
 20
-120.4543633627339
 30
0.0
 11
-560.76719333684105
 21
-120.3520486067317
 31
0.0
  0
LINE
  5
6C90
  8
0
 62
     0
 10
-560.86950809284326
 20
-120.4084227270417
 30
0.0
 11
-560.76719333684116
 21
-120.30610797103959
 31
0.0
  0
LINE
  5
6C91
  8
0
 62
     0
 10
-560.86950809284326
 20
-120.36248209134941
 30
0.0
 11
-560.76719333684116
 21
-120.2601673353474
 31
0.0
  0
LINE
  5
6C92
  8
0
 62
     0
 10
-560.86950809284326
 20
-120.3165414556572
 30
0.0
 11
-560.7671933368415
 21
-120.2142266996553
 31
0.0
  0
LINE
  5
6C93
  8
0
 62
     0
 10
-560.86950809284326
 20
-120.270600819965
 30
0.0
 11
-560.76719333684161
 21
-120.16828606396319
 31
0.0
  0
LINE
  5
6C94
  8
0
 62
     0
 10
-560.86950809284326
 20
-120.22466018427281
 30
0.0
 11
-560.76719333684173
 21
-120.1223454282711
 31
0.0
  0
LINE
  5
6C95
  8
0
 62
     0
 10
-560.86950809284326
 20
-120.1787195485805
 30
0.0
 11
-560.76719333684184
 21
-120.0764047925789
 31
0.0
  0
LINE
  5
6C96
  8
0
 62
     0
 10
-560.86950809284326
 20
-120.1327789128883
 30
0.0
 11
-560.76719333684196
 21
-120.03046415688679
 31
0.0
  0
LINE
  5
6C97
  8
0
 62
     0
 10
-560.86950809284326
 20
-120.08683827719599
 30
0.0
 11
-560.76719333684196
 21
-119.9845235211947
 31
0.0
  0
LINE
  5
6C98
  8
0
 62
     0
 10
-560.86950809284326
 20
-120.0408976415038
 30
0.0
 11
-560.76719333684196
 21
-119.9385828855026
 31
0.0
  0
LINE
  5
6C99
  8
0
 62
     0
 10
-560.86950809284315
 20
-119.9949570058116
 30
0.0
 11
-560.76719333684196
 21
-119.89264224981039
 31
0.0
  0
LINE
  5
6C9A
  8
0
 62
     0
 10
-560.86950809284326
 20
-119.9490163701193
 30
0.0
 11
-560.7671933368423
 21
-119.8467016141183
 31
0.0
  0
LINE
  5
6C9B
  8
0
 62
     0
 10
-560.86950809284326
 20
-119.90307573442711
 30
0.0
 11
-560.76719333684241
 21
-119.8007609784261
 31
0.0
  0
LINE
  5
6C9C
  8
0
 62
     0
 10
-560.86950809284326
 20
-119.8571350987348
 30
0.0
 11
-560.76719333684252
 21
-119.75482034273401
 31
0.0
  0
LINE
  5
6C9D
  8
0
 62
     0
 10
-560.86950809284326
 20
-119.8111944630426
 30
0.0
 11
-560.76719333684264
 21
-119.7088797070419
 31
0.0
  0
LINE
  5
6C9E
  8
0
 62
     0
 10
-560.86950809284326
 20
-119.76525382735041
 30
0.0
 11
-560.76719333684275
 21
-119.6629390713497
 31
0.0
  0
LINE
  5
6C9F
  8
0
 62
     0
 10
-560.86950809284326
 20
-119.7193131916582
 30
0.0
 11
-560.76719333684275
 21
-119.61699843565761
 31
0.0
  0
LINE
  5
6CA0
  8
0
 62
     0
 10
-560.86950809284315
 20
-119.6733725559659
 30
0.0
 11
-560.76719333684275
 21
-119.5710577999655
 31
0.0
  0
LINE
  5
6CA1
  8
0
 62
     0
 10
-560.86950809284326
 20
-119.62743192027369
 30
0.0
 11
-560.76719333684309
 21
-119.5251171642734
 31
0.0
  0
LINE
  5
6CA2
  8
0
 62
     0
 10
-560.86950809284326
 20
-119.5814912845814
 30
0.0
 11
-560.76719333684321
 21
-119.47917652858121
 31
0.0
  0
LINE
  5
6CA3
  8
0
 62
     0
 10
-560.86950809284326
 20
-119.5355506488892
 30
0.0
 11
-560.76719333684332
 21
-119.4332358928891
 31
0.0
  0
LINE
  5
6CA4
  8
0
 62
     0
 10
-560.86950809284326
 20
-119.48961001319699
 30
0.0
 11
-560.76719333684332
 21
-119.3872952571969
 31
0.0
  0
LINE
  5
6CA5
  8
0
 62
     0
 10
-560.86950809284326
 20
-119.4436693775047
 30
0.0
 11
-560.76719333684332
 21
-119.34135462150471
 31
0.0
  0
LINE
  5
6CA6
  8
0
 62
     0
 10
-560.86950809284326
 20
-119.3977287418125
 30
0.0
 11
-560.76719333684332
 21
-119.2954139858124
 31
0.0
  0
LINE
  5
6CA7
  8
0
 62
     0
 10
-560.86950809284315
 20
-119.3517881061203
 30
0.0
 11
-560.76719333684321
 21
-119.2494733501202
 31
0.0
  0
LINE
  5
6CA8
  8
0
 62
     0
 10
-560.86950809284315
 20
-119.30584747042801
 30
0.0
 11
-560.76719333684321
 21
-119.20353271442799
 31
0.0
  0
LINE
  5
6CA9
  8
0
 62
     0
 10
-560.86950809284326
 20
-119.2599068347358
 30
0.0
 11
-560.76719333684332
 21
-119.1575920787357
 31
0.0
  0
LINE
  5
6CAA
  8
0
 62
     0
 10
-560.86950809284326
 20
-119.2139661990436
 30
0.0
 11
-560.76719333684332
 21
-119.1116514430435
 31
0.0
  0
LINE
  5
6CAB
  8
0
 62
     0
 10
-560.86950809284326
 20
-119.16802556335131
 30
0.0
 11
-560.76719333684332
 21
-119.06571080735129
 31
0.0
  0
LINE
  5
6CAC
  8
0
 62
     0
 10
-560.86950809284326
 20
-119.1220849276591
 30
0.0
 11
-560.76719333684332
 21
-119.019770171659
 31
0.0
  0
LINE
  5
6CAD
  8
0
 62
     0
 10
-560.86950809284326
 20
-119.0761442919668
 30
0.0
 11
-560.76719333684332
 21
-118.9738295359668
 31
0.0
  0
LINE
  5
6CAE
  8
0
 62
     0
 10
-560.86950809284326
 20
-119.03020365627459
 30
0.0
 11
-560.76719333684321
 21
-118.9278889002746
 31
0.0
  0
LINE
  5
6CAF
  8
0
 62
     0
 10
-560.86950809284315
 20
-118.9842630205824
 30
0.0
 11
-560.76719333684321
 21
-118.88194826458231
 31
0.0
  0
LINE
  5
6CB0
  8
0
 62
     0
 10
-560.86950809284326
 20
-118.9383223848902
 30
0.0
 11
-560.76719333684332
 21
-118.8360076288901
 31
0.0
  0
LINE
  5
6CB1
  8
0
 62
     0
 10
-560.86950809284326
 20
-118.8923817491979
 30
0.0
 11
-560.76719333684332
 21
-118.7900669931978
 31
0.0
  0
LINE
  5
6CB2
  8
0
 62
     0
 10
-560.86950809284326
 20
-118.8464411135057
 30
0.0
 11
-560.76719333684332
 21
-118.74412635750561
 31
0.0
  0
LINE
  5
6CB3
  8
0
 62
     0
 10
-560.86950809284326
 20
-118.8005004778134
 30
0.0
 11
-560.76719333684332
 21
-118.6981857218134
 31
0.0
  0
LINE
  5
6CB4
  8
0
 62
     0
 10
-560.86950809284326
 20
-118.7545598421212
 30
0.0
 11
-560.76719333684332
 21
-118.6522450861211
 31
0.0
  0
LINE
  5
6CB5
  8
0
 62
     0
 10
-560.86950809284326
 20
-118.70861920642901
 30
0.0
 11
-560.76719333684332
 21
-118.60630445042889
 31
0.0
  0
LINE
  5
6CB6
  8
0
 62
     0
 10
-560.86950809284326
 20
-118.6626785707368
 30
0.0
 11
-560.76719333684321
 21
-118.5603638147367
 31
0.0
  0
LINE
  5
6CB7
  8
0
 62
     0
 10
-560.86950809284315
 20
-118.6167379350445
 30
0.0
 11
-560.76719333684321
 21
-118.5144231790444
 31
0.0
  0
LINE
  5
6CB8
  8
0
 62
     0
 10
-560.86950809284326
 20
-118.57079729935229
 30
0.0
 11
-560.76719333684332
 21
-118.4684825433522
 31
0.0
  0
LINE
  5
6CB9
  8
0
 62
     0
 10
-560.86950809284326
 20
-118.5248566636601
 30
0.0
 11
-560.76719333684332
 21
-118.42254190766
 31
0.0
  0
LINE
  5
6CBA
  8
0
 62
     0
 10
-560.86950809284326
 20
-118.4789160279678
 30
0.0
 11
-560.76719333684332
 21
-118.3766012719678
 31
0.0
  0
LINE
  5
6CBB
  8
0
 62
     0
 10
-560.86950809284326
 20
-118.43297539227559
 30
0.0
 11
-560.76719333684332
 21
-118.3306606362755
 31
0.0
  0
LINE
  5
6CBC
  8
0
 62
     0
 10
-560.86950809284326
 20
-118.3870347565833
 30
0.0
 11
-560.76719333684332
 21
-118.28472000058321
 31
0.0
  0
LINE
  5
6CBD
  8
0
 62
     0
 10
-560.86950809284326
 20
-118.3410941208911
 30
0.0
 11
-560.76719333684321
 21
-118.238779364891
 31
0.0
  0
LINE
  5
6CBE
  8
0
 62
     0
 10
-560.86950809284326
 20
-118.2951534851989
 30
0.0
 11
-560.76719333684321
 21
-118.1928387291988
 31
0.0
  0
LINE
  5
6CBF
  8
0
 62
     0
 10
-560.86950809284326
 20
-118.2492128495067
 30
0.0
 11
-560.76719333684332
 21
-118.14689809350661
 31
0.0
  0
LINE
  5
6CC0
  8
0
 62
     0
 10
-560.86950809284326
 20
-118.2032722138144
 30
0.0
 11
-560.76719333684332
 21
-118.1009574578143
 31
0.0
  0
LINE
  5
6CC1
  8
0
 62
     0
 10
-560.86950809284326
 20
-118.1573315781222
 30
0.0
 11
-560.76719333684332
 21
-118.0550168221221
 31
0.0
  0
LINE
  5
6CC2
  8
0
 62
     0
 10
-560.86950809284326
 20
-118.11139094242991
 30
0.0
 11
-560.76719333684332
 21
-118.00907618642989
 31
0.0
  0
LINE
  5
6CC3
  8
0
 62
     0
 10
-560.86950809284326
 20
-118.0654503067377
 30
0.0
 11
-560.76719333684332
 21
-117.9631355507376
 31
0.0
  0
LINE
  5
6CC4
  8
0
 62
     0
 10
-560.86950809284326
 20
-118.0195096710455
 30
0.0
 11
-560.76719333684321
 21
-117.9171949150454
 31
0.0
  0
LINE
  5
6CC5
  8
0
 62
     0
 10
-560.86950809284326
 20
-117.97356903535319
 30
0.0
 11
-560.76719333684321
 21
-117.8712542793531
 31
0.0
  0
LINE
  5
6CC6
  8
0
 62
     0
 10
-560.86950809284315
 20
-117.927628399661
 30
0.0
 11
-560.76719333684321
 21
-117.82531364366091
 31
0.0
  0
LINE
  5
6CC7
  8
0
 62
     0
 10
-560.26172856266987
 20
-117.2739082337954
 30
0.0
 11
-560.2556195568435
 21
-117.26779922796889
 31
0.0
  0
LINE
  5
6CC8
  8
0
 62
     0
 10
-560.86950809284326
 20
-117.8816877639688
 30
0.0
 11
-560.76719333684332
 21
-117.7793730079687
 31
0.0
  0
LINE
  5
6CC9
  8
0
 62
     0
 10
-560.30933153063359
 20
-117.2755705660667
 30
0.0
 11
-560.2556195568435
 21
-117.2218585922766
 31
0.0
  0
LINE
  5
6CCA
  8
0
 62
     0
 10
-560.23909310059037
 20
-117.2053321360235
 30
0.0
 11
-560.20446217884341
 21
-117.17070121427651
 31
0.0
  0
LINE
  5
6CCB
  8
0
 62
     0
 10
-560.86950809284326
 20
-117.83574712827649
 30
0.0
 11
-560.76719333684332
 21
-117.7334323722764
 31
0.0
  0
LINE
  5
6CCC
  8
0
 62
     0
 10
-560.3569344985973
 20
-117.2772328983382
 30
0.0
 11
-560.23494069139383
 21
-117.1552390911347
 31
0.0
  0
LINE
  5
6CCD
  8
0
 62
     0
 10
-560.86950809284326
 20
-117.7898064925843
 30
0.0
 11
-560.76719333684332
 21
-117.68749173658421
 31
0.0
  0
LINE
  5
6CCE
  8
0
 62
     0
 10
-560.40453746656078
 20
-117.27889523060951
 30
0.0
 11
-560.28254365935743
 21
-117.1569014234061
 31
0.0
  0
LINE
  5
6CCF
  8
0
 62
     0
 10
-560.86950809284326
 20
-117.7438658568921
 30
0.0
 11
-560.76719333684332
 21
-117.641551100892
 31
0.0
  0
LINE
  5
6CD0
  8
0
 62
     0
 10
-560.45214043452427
 20
-117.2805575628809
 30
0.0
 11
-560.33014662732103
 21
-117.15856375567751
 31
0.0
  0
LINE
  5
6CD1
  8
0
 62
     0
 10
-560.86950809284326
 20
-117.6979252211998
 30
0.0
 11
-560.76719333684321
 21
-117.5956104651997
 31
0.0
  0
LINE
  5
6CD2
  8
0
 62
     0
 10
-560.49974340248798
 20
-117.28221989515229
 30
0.0
 11
-560.37774959528463
 21
-117.1602260879488
 31
0.0
  0
LINE
  5
6CD3
  8
0
 62
     0
 10
-560.86950809284326
 20
-117.65198458550761
 30
0.0
 11
-560.77967508989309
 21
-117.56215158255741
 31
0.0
  0
LINE
  5
6CD4
  8
0
 62
     0
 10
-560.54734637045146
 20
-117.2838822274236
 30
0.0
 11
-560.42535256324823
 21
-117.16188842022029
 31
0.0
  0
LINE
  5
6CD5
  8
0
 62
     0
 10
-560.87154614011445
 20
-117.6080819970866
 30
0.0
 11
-560.79717628444246
 21
-117.5337121414145
 31
0.0
  0
LINE
  5
6CD6
  8
0
 62
     0
 10
-560.59494933841529
 20
-117.2855445596951
 30
0.0
 11
-560.47295553121194
 21
-117.1635507524916
 31
0.0
  0
LINE
  5
6CD7
  8
0
 62
     0
 10
-560.88904733466404
 20
-117.57964255594381
 30
0.0
 11
-560.81467747899205
 21
-117.5052727002718
 31
0.0
  0
LINE
  5
6CD8
  8
0
 62
     0
 10
-560.642552306379
 20
-117.28720689196651
 30
0.0
 11
-560.52055849917554
 21
-117.165213084763
 31
0.0
  0
LINE
  5
6CD9
  8
0
 62
     0
 10
-560.9065485292133
 20
-117.5512031148009
 30
0.0
 11
-560.83217867354142
 21
-117.4768332591289
 31
0.0
  0
LINE
  5
6CDA
  8
0
 62
     0
 10
-560.69015527434249
 20
-117.2888692242378
 30
0.0
 11
-560.56816146713913
 21
-117.1668754170344
 31
0.0
  0
LINE
  5
6CDB
  8
0
 62
     0
 10
-560.92404972376278
 20
-117.5227636736581
 30
0.0
 11
-560.8496798680909
 21
-117.4483938179862
 31
0.0
  0
LINE
  5
6CDC
  8
0
 62
     0
 10
-560.7377582423062
 20
-117.29053155650919
 30
0.0
 11
-560.61576443510273
 21
-117.1685377493058
 31
0.0
  0
LINE
  5
6CDD
  8
0
 62
     0
 10
-560.94155091831215
 20
-117.4943242325153
 30
0.0
 11
-560.7998617807375
 21
-117.3526350949405
 31
0.0
  0
LINE
  5
6CDE
  8
0
 62
     0
 10
-560.94624415984333
 20
-117.45307683835409
 30
0.0
 11
-560.66336740306633
 21
-117.17020008157721
 31
0.0
  0
LINE
  5
6CDF
  8
0
 62
     0
 10
-560.94303330431057
 20
-117.4039253471294
 30
0.0
 11
-560.71097037102993
 21
-117.1718624138486
 31
0.0
  0
LINE
  5
6CE0
  8
0
 62
     0
 10
-560.89082597738081
 20
-117.30577738450719
 30
0.0
 11
-560.75857333899353
 21
-117.1735247461199
 31
0.0
  0
LINE
  5
6CE1
  8
0
 62
     0
 10
-560.83861865045083
 20
-117.207629421885
 30
0.0
 11
-560.80928901570815
 21
-117.17829978714239
 31
0.0
  0
ENDBLK
  5
6CE3
  8
0
  0
BLOCK
  8
0
  2
*X49
 70
     1
 10
0.0
 20
0.0
 30
0.0
  3
*X49
  1

  0
LINE
  5
6CEA
  8
0
 62
     0
 10
-560.27029393681516
 20
-117.8429210530079
 30
0.0
 11
-560.2556195568435
 21
-117.8282466730362
 31
0.0
  0
LINE
  5
6CEB
  8
0
 62
     0
 10
-560.31623457250737
 20
-117.8429210530079
 30
0.0
 11
-560.25634050967551
 21
-117.783026990176
 31
0.0
  0
LINE
  5
6CEC
  8
0
 62
     0
 10
-560.36217520819969
 20
-117.8429210530079
 30
0.0
 11
-560.27931082752139
 21
-117.7600566723298
 31
0.0
  0
LINE
  5
6CED
  8
0
 62
     0
 10
-560.40811584389178
 20
-117.8429210530079
 30
0.0
 11
-560.32336404489195
 21
-117.7581692540079
 31
0.0
  0
LINE
  5
6CEE
  8
0
 62
     0
 10
-560.45405647958421
 20
-117.8429210530079
 30
0.0
 11
-560.36930468058415
 21
-117.7581692540079
 31
0.0
  0
LINE
  5
6CEF
  8
0
 62
     0
 10
-560.28735187127654
 20
-117.630275809008
 30
0.0
 11
-560.2556195568435
 21
-117.5985434945751
 31
0.0
  0
LINE
  5
6CF0
  8
0
 62
     0
 10
-560.49999711527653
 20
-117.8429210530079
 30
0.0
 11
-560.41524531627647
 21
-117.758169254008
 31
0.0
  0
LINE
  5
6CF1
  8
0
 62
     0
 10
-560.33329250696875
 20
-117.6302758090079
 30
0.0
 11
-560.2556195568435
 21
-117.55260285888281
 31
0.0
  0
LINE
  5
6CF2
  8
0
 62
     0
 10
-560.54593775096873
 20
-117.8429210530079
 30
0.0
 11
-560.46118595196856
 21
-117.7581692540079
 31
0.0
  0
LINE
  5
6CF3
  8
0
 62
     0
 10
-560.37923314266095
 20
-117.6302758090079
 30
0.0
 11
-560.2769183866609
 21
-117.527961053008
 31
0.0
  0
LINE
  5
6CF4
  8
0
 62
     0
 10
-560.59187838666094
 20
-117.8429210530079
 30
0.0
 11
-560.50712658766088
 21
-117.7581692540079
 31
0.0
  0
LINE
  5
6CF5
  8
0
 62
     0
 10
-560.42517377835316
 20
-117.630275809008
 30
0.0
 11
-560.3228590223531
 21
-117.5279610530079
 31
0.0
  0
LINE
  5
6CF6
  8
0
 62
     0
 10
-560.63781902235314
 20
-117.8429210530079
 30
0.0
 11
-560.55306722335297
 21
-117.7581692540079
 31
0.0
  0
LINE
  5
6CF7
  8
0
 62
     0
 10
-560.47111441404525
 20
-117.6302758090079
 30
0.0
 11
-560.3687996580453
 21
-117.5279610530079
 31
0.0
  0
LINE
  5
6CF8
  8
0
 62
     0
 10
-560.68375965804535
 20
-117.8429210530079
 30
0.0
 11
-560.5990078590454
 21
-117.7581692540079
 31
0.0
  0
LINE
  5
6CF9
  8
0
 62
     0
 10
-560.51705504973745
 20
-117.6302758090079
 30
0.0
 11
-560.41474029373751
 21
-117.5279610530079
 31
0.0
  0
LINE
  5
6CFA
  8
0
 62
     0
 10
-560.72970029373755
 20
-117.8429210530079
 30
0.0
 11
-560.6449484947376
 21
-117.7581692540079
 31
0.0
  0
LINE
  5
6CFB
  8
0
 62
     0
 10
-560.56299568542966
 20
-117.6302758090079
 30
0.0
 11
-560.46068092942983
 21
-117.5279610530079
 31
0.0
  0
LINE
  5
6CFC
  8
0
 62
     0
 10
-560.76719333684332
 20
-117.83447346042141
 30
0.0
 11
-560.69088913042981
 21
-117.7581692540079
 31
0.0
  0
LINE
  5
6CFD
  8
0
 62
     0
 10
-560.60893632112209
 20
-117.630275809008
 30
0.0
 11
-560.50662156512215
 21
-117.5279610530079
 31
0.0
  0
LINE
  5
6CFE
  8
0
 62
     0
 10
-560.76719333684343
 20
-117.7885328247292
 30
0.0
 11
-560.73682976612213
 21
-117.7581692540079
 31
0.0
  0
LINE
  5
6CFF
  8
0
 62
     0
 10
-560.65487695681441
 20
-117.6302758090079
 30
0.0
 11
-560.55256220081435
 21
-117.5279610530079
 31
0.0
  0
LINE
  5
6D00
  8
0
 62
     0
 10
-560.70081759250661
 20
-117.6302758090079
 30
0.0
 11
-560.59850283650655
 21
-117.5279610530079
 31
0.0
  0
LINE
  5
6D01
  8
0
 62
     0
 10
-560.74675822819881
 20
-117.6302758090079
 30
0.0
 11
-560.64444347219865
 21
-117.5279610530079
 31
0.0
  0
LINE
  5
6D02
  8
0
 62
     0
 10
-560.76719333684332
 20
-117.6047702819603
 30
0.0
 11
-560.69038410789085
 21
-117.5279610530079
 31
0.0
  0
LINE
  5
6D03
  8
0
 62
     0
 10
-560.77618563588919
 20
-117.5678219453139
 30
0.0
 11
-560.73632474358317
 21
-117.5279610530079
 31
0.0
  0
LINE
  5
6D04
  8
0
 62
     0
 10
-560.79368683043845
 20
-117.539382504171
 30
0.0
 11
-560.78226537927537
 21
-117.527961053008
 31
0.0
  0
ENDBLK
  5
6D06
  8
0
  0
BLOCK
  8
0
  2
*X50
 70
     1
 10
0.0
 20
0.0
 30
0.0
  3
*X50
  1

  0
LINE
  5
6D08
  8
0
 62
     0
 10
-559.84246202224574
 20
-121.5956869864318
 30
0.0
 11
-559.71625055684331
 21
-121.46947552102939
 31
0.0
  0
LINE
  5
6D09
  8
0
 62
     0
 10
-559.96042802042757
 20
-121.6677123489214
 30
0.0
 11
-559.71625055684331
 21
-121.42353488533711
 31
0.0
  0
LINE
  5
6D0A
  8
0
 62
     0
 10
-560.00948890778761
 20
-121.67083260058919
 30
0.0
 11
-559.71625055684331
 21
-121.3775942496449
 31
0.0
  0
LINE
  5
6D0B
  8
0
 62
     0
 10
-559.80680155684331
 20
-121.4222046139527
 30
0.0
 11
-559.71625055684331
 21
-121.3316536139527
 31
0.0
  0
LINE
  5
6D0C
  8
0
 62
     0
 10
-560.05797034810325
 20
-121.6733734052126
 30
0.0
 11
-559.92828541707945
 21
-121.5436884741889
 31
0.0
  0
LINE
  5
6D0D
  8
0
 62
     0
 10
-559.80680155684331
 20
-121.3762639782605
 30
0.0
 11
-559.71625055684331
 21
-121.28571297826041
 31
0.0
  0
LINE
  5
6D0E
  8
0
 62
     0
 10
-560.10645178841878
 20
-121.6759142098359
 30
0.0
 11
-560.01076161144181
 21
-121.58022403285899
 31
0.0
  0
LINE
  5
6D0F
  8
0
 62
     0
 10
-559.80680155684342
 20
-121.33032334256821
 30
0.0
 11
-559.74432475431274
 21
-121.2678465400375
 31
0.0
  0
LINE
  5
6D10
  8
0
 62
     0
 10
-560.15493322873454
 20
-121.6784550144593
 30
0.0
 11
-560.05924305175756
 21
-121.5827648374824
 31
0.0
  0
LINE
  5
6D11
  8
0
 62
     0
 10
-559.80680155684342
 20
-121.284382706876
 30
0.0
 11
-559.78930428883984
 21
-121.26688543887239
 31
0.0
  0
LINE
  5
6D12
  8
0
 62
     0
 10
-560.18869055684331
 20
-121.666271706876
 30
0.0
 11
-560.10772449207309
 21
-121.58530564210579
 31
0.0
  0
LINE
  5
6D13
  8
0
 62
     0
 10
-560.20330814671968
 20
-121.63494866106009
 30
0.0
 11
-560.15620593238873
 21
-121.5878464467291
 31
0.0
  0
LINE
  5
6D14
  8
0
 62
     0
 10
-560.24474545438295
 20
-121.6304453330312
 30
0.0
 11
-560.20384901510943
 21
-121.58954889375769
 31
0.0
  0
LINE
  5
6D15
  8
0
 62
     0
 10
-560.2556195568435
 20
-121.59537879979951
 30
0.0
 11
-560.24978965080163
 21
-121.58954889375759
 31
0.0
  0
LINE
  5
6D16
  8
0
 62
     0
 10
-559.73889159158148
 20
-121.03271019884529
 30
0.0
 11
-559.71625055684331
 21
-121.01006916410699
 31
0.0
  0
LINE
  5
6D17
  8
0
 62
     0
 10
-559.78583529792195
 20
-121.0337132694936
 30
0.0
 11
-559.71625055684331
 21
-120.9641285284148
 31
0.0
  0
LINE
  5
6D18
  8
0
 62
     0
 10
-559.80680155684331
 20
-121.0087388927226
 30
0.0
 11
-559.71625055684331
 21
-120.9181878927225
 31
0.0
  0
LINE
  5
6D19
  8
0
 62
     0
 10
-559.80680155684342
 20
-120.9627982570304
 30
0.0
 11
-559.71625055684342
 21
-120.8722472570303
 31
0.0
  0
LINE
  5
6D1A
  8
0
 62
     0
 10
-559.80680155684342
 20
-120.9168576213381
 30
0.0
 11
-559.71625055684342
 21
-120.82630662133811
 31
0.0
  0
LINE
  5
6D1B
  8
0
 62
     0
 10
-559.80680155684342
 20
-120.87091698564591
 30
0.0
 11
-559.71625055684331
 21
-120.7803659856459
 31
0.0
  0
LINE
  5
6D1C
  8
0
 62
     0
 10
-559.80680155684331
 20
-120.8249763499536
 30
0.0
 11
-559.71625055684331
 21
-120.7344253499536
 31
0.0
  0
LINE
  5
6D1D
  8
0
 62
     0
 10
-559.80680155684331
 20
-120.7790357142614
 30
0.0
 11
-559.71625055684331
 21
-120.68848471426141
 31
0.0
  0
LINE
  5
6D1E
  8
0
 62
     0
 10
-559.80680155684331
 20
-120.73309507856921
 30
0.0
 11
-559.71625055684331
 21
-120.6425440785691
 31
0.0
  0
LINE
  5
6D1F
  8
0
 62
     0
 10
-559.80680155684331
 20
-120.687154442877
 30
0.0
 11
-559.71625055684331
 21
-120.5966034428769
 31
0.0
  0
LINE
  5
6D20
  8
0
 62
     0
 10
-559.80680155684342
 20
-120.6412138071847
 30
0.0
 11
-559.71625055684342
 21
-120.55066280718469
 31
0.0
  0
LINE
  5
6D21
  8
0
 62
     0
 10
-559.80680155684342
 20
-120.59527317149249
 30
0.0
 11
-559.71625055684342
 21
-120.5047221714925
 31
0.0
  0
LINE
  5
6D22
  8
0
 62
     0
 10
-559.80680155684342
 20
-120.5493325358002
 30
0.0
 11
-559.71625055684342
 21
-120.4587815358002
 31
0.0
  0
LINE
  5
6D23
  8
0
 62
     0
 10
-559.80680155684342
 20
-120.503391900108
 30
0.0
 11
-559.71625055684331
 21
-120.41284090010799
 31
0.0
  0
LINE
  5
6D24
  8
0
 62
     0
 10
-559.80680155684331
 20
-120.45745126441579
 30
0.0
 11
-559.71625055684331
 21
-120.3669002644157
 31
0.0
  0
LINE
  5
6D25
  8
0
 62
     0
 10
-559.80680155684331
 20
-120.41151062872351
 30
0.0
 11
-559.71625055684331
 21
-120.3209596287235
 31
0.0
  0
LINE
  5
6D26
  8
0
 62
     0
 10
-559.80680155684331
 20
-120.3655699930313
 30
0.0
 11
-559.71625055684331
 21
-120.2750189930313
 31
0.0
  0
LINE
  5
6D27
  8
0
 62
     0
 10
-559.80680155684331
 20
-120.3196293573391
 30
0.0
 11
-559.71625055684331
 21
-120.22907835733901
 31
0.0
  0
LINE
  5
6D28
  8
0
 62
     0
 10
-559.80680155684342
 20
-120.27368872164681
 30
0.0
 11
-559.71625055684342
 21
-120.1831377216468
 31
0.0
  0
LINE
  5
6D29
  8
0
 62
     0
 10
-559.80680155684342
 20
-120.2277480859546
 30
0.0
 11
-559.71625055684342
 21
-120.1371970859546
 31
0.0
  0
LINE
  5
6D2A
  8
0
 62
     0
 10
-559.80680155684342
 20
-120.1818074502623
 30
0.0
 11
-559.71625055684331
 21
-120.09125645026231
 31
0.0
  0
LINE
  5
6D2B
  8
0
 62
     0
 10
-559.80680155684331
 20
-120.13586681457009
 30
0.0
 11
-559.71625055684331
 21
-120.0453158145701
 31
0.0
  0
LINE
  5
6D2C
  8
0
 62
     0
 10
-559.80680155684331
 20
-120.0899261788779
 30
0.0
 11
-559.71625055684331
 21
-119.9993751788779
 31
0.0
  0
LINE
  5
6D2D
  8
0
 62
     0
 10
-559.80680155684331
 20
-120.0439855431856
 30
0.0
 11
-559.71625055684331
 21
-119.95343454318559
 31
0.0
  0
LINE
  5
6D2E
  8
0
 62
     0
 10
-559.80680155684331
 20
-119.99804490749339
 30
0.0
 11
-559.71625055684331
 21
-119.9074939074934
 31
0.0
  0
LINE
  5
6D2F
  8
0
 62
     0
 10
-559.80680155684342
 20
-119.9521042718012
 30
0.0
 11
-559.71625055684342
 21
-119.8615532718011
 31
0.0
  0
LINE
  5
6D30
  8
0
 62
     0
 10
-559.80680155684342
 20
-119.9061636361089
 30
0.0
 11
-559.71625055684342
 21
-119.8156126361089
 31
0.0
  0
LINE
  5
6D31
  8
0
 62
     0
 10
-559.80680155684342
 20
-119.8602230004167
 30
0.0
 11
-559.71625055684331
 21
-119.7696720004167
 31
0.0
  0
LINE
  5
6D32
  8
0
 62
     0
 10
-559.80680155684331
 20
-119.81428236472451
 30
0.0
 11
-559.71625055684331
 21
-119.7237313647245
 31
0.0
  0
LINE
  5
6D33
  8
0
 62
     0
 10
-559.80680155684331
 20
-119.7683417290322
 30
0.0
 11
-559.71625055684331
 21
-119.6777907290322
 31
0.0
  0
LINE
  5
6D34
  8
0
 62
     0
 10
-559.80680155684331
 20
-119.72240109334
 30
0.0
 11
-559.71625055684331
 21
-119.63185009334001
 31
0.0
  0
LINE
  5
6D35
  8
0
 62
     0
 10
-559.80680155684331
 20
-119.67646045764781
 30
0.0
 11
-559.71625055684331
 21
-119.5859094576477
 31
0.0
  0
LINE
  5
6D36
  8
0
 62
     0
 10
-559.80680155684331
 20
-119.6305198219555
 30
0.0
 11
-559.71625055684331
 21
-119.5399688219555
 31
0.0
  0
LINE
  5
6D37
  8
0
 62
     0
 10
-559.80680155684342
 20
-119.5845791862633
 30
0.0
 11
-559.71625055684342
 21
-119.49402818626329
 31
0.0
  0
LINE
  5
6D38
  8
0
 62
     0
 10
-559.80680155684342
 20
-119.53863855057099
 30
0.0
 11
-559.71625055684342
 21
-119.448087550571
 31
0.0
  0
LINE
  5
6D39
  8
0
 62
     0
 10
-559.80680155684331
 20
-119.4926979148788
 30
0.0
 11
-559.71625055684342
 21
-119.4021469148788
 31
0.0
  0
LINE
  5
6D3A
  8
0
 62
     0
 10
-559.80680155684331
 20
-119.4467572791866
 30
0.0
 11
-559.71625055684331
 21
-119.35620627918659
 31
0.0
  0
LINE
  5
6D3B
  8
0
 62
     0
 10
-559.80680155684342
 20
-119.40081664349439
 30
0.0
 11
-559.71625055684331
 21
-119.3102656434944
 31
0.0
  0
LINE
  5
6D3C
  8
0
 62
     0
 10
-559.80680155684331
 20
-119.3548760078022
 30
0.0
 11
-559.71625055684331
 21
-119.2643250078021
 31
0.0
  0
LINE
  5
6D3D
  8
0
 62
     0
 10
-559.80680155684331
 20
-119.3089353721099
 30
0.0
 11
-559.71625055684331
 21
-119.2183843721099
 31
0.0
  0
LINE
  5
6D3E
  8
0
 62
     0
 10
-559.80680155684342
 20
-119.2629947364177
 30
0.0
 11
-559.71625055684342
 21
-119.1724437364177
 31
0.0
  0
LINE
  5
6D3F
  8
0
 62
     0
 10
-559.80680155684342
 20
-119.21705410072551
 30
0.0
 11
-559.71625055684342
 21
-119.1265031007254
 31
0.0
  0
LINE
  5
6D40
  8
0
 62
     0
 10
-559.80680155684342
 20
-119.1711134650332
 30
0.0
 11
-559.71625055684342
 21
-119.0805624650332
 31
0.0
  0
LINE
  5
6D41
  8
0
 62
     0
 10
-559.80680155684342
 20
-119.125172829341
 30
0.0
 11
-559.71625055684331
 21
-119.03462182934101
 31
0.0
  0
LINE
  5
6D42
  8
0
 62
     0
 10
-559.80680155684342
 20
-119.07923219364871
 30
0.0
 11
-559.71625055684331
 21
-118.9886811936487
 31
0.0
  0
LINE
  5
6D43
  8
0
 62
     0
 10
-559.80680155684331
 20
-119.0332915579565
 30
0.0
 11
-559.71625055684331
 21
-118.9427405579565
 31
0.0
  0
LINE
  5
6D44
  8
0
 62
     0
 10
-559.80680155684331
 20
-118.9873509222643
 30
0.0
 11
-559.71625055684331
 21
-118.89679992226419
 31
0.0
  0
LINE
  5
6D45
  8
0
 62
     0
 10
-559.80680155684331
 20
-118.94141028657199
 30
0.0
 11
-559.71625055684331
 21
-118.850859286572
 31
0.0
  0
LINE
  5
6D46
  8
0
 62
     0
 10
-559.80680155684342
 20
-118.8954696508798
 30
0.0
 11
-559.71625055684342
 21
-118.8049186508798
 31
0.0
  0
LINE
  5
6D47
  8
0
 62
     0
 10
-559.80680155684342
 20
-118.8495290151875
 30
0.0
 11
-559.71625055684342
 21
-118.75897801518749
 31
0.0
  0
LINE
  5
6D48
  8
0
 62
     0
 10
-559.80680155684342
 20
-118.8035883794953
 30
0.0
 11
-559.71625055684342
 21
-118.7130373794953
 31
0.0
  0
LINE
  5
6D49
  8
0
 62
     0
 10
-559.80680155684342
 20
-118.7576477438031
 30
0.0
 11
-559.71625055684331
 21
-118.6670967438031
 31
0.0
  0
LINE
  5
6D4A
  8
0
 62
     0
 10
-559.80680155684331
 20
-118.7117071081109
 30
0.0
 11
-559.71625055684331
 21
-118.6211561081108
 31
0.0
  0
LINE
  5
6D4B
  8
0
 62
     0
 10
-559.80680155684331
 20
-118.6657664724186
 30
0.0
 11
-559.71625055684331
 21
-118.57521547241861
 31
0.0
  0
LINE
  5
6D4C
  8
0
 62
     0
 10
-559.80680155684331
 20
-118.61982583672641
 30
0.0
 11
-559.71625055684331
 21
-118.5292748367264
 31
0.0
  0
LINE
  5
6D4D
  8
0
 62
     0
 10
-559.80680155684342
 20
-118.5738852010341
 30
0.0
 11
-559.71625055684342
 21
-118.4833342010341
 31
0.0
  0
LINE
  5
6D4E
  8
0
 62
     0
 10
-559.80680155684342
 20
-118.5279445653419
 30
0.0
 11
-559.71625055684342
 21
-118.43739356534191
 31
0.0
  0
LINE
  5
6D4F
  8
0
 62
     0
 10
-559.80680155684342
 20
-118.48200392964969
 30
0.0
 11
-559.71625055684342
 21
-118.3914529296496
 31
0.0
  0
LINE
  5
6D50
  8
0
 62
     0
 10
-559.80680155684342
 20
-118.4360632939574
 30
0.0
 11
-559.71625055684331
 21
-118.3455122939574
 31
0.0
  0
LINE
  5
6D51
  8
0
 62
     0
 10
-559.80680155684331
 20
-118.3901226582652
 30
0.0
 11
-559.71625055684331
 21
-118.29957165826519
 31
0.0
  0
LINE
  5
6D52
  8
0
 62
     0
 10
-559.80680155684331
 20
-118.34418202257289
 30
0.0
 11
-559.71625055684331
 21
-118.253631022573
 31
0.0
  0
LINE
  5
6D53
  8
0
 62
     0
 10
-559.80680155684331
 20
-118.2982413868807
 30
0.0
 11
-559.71625055684331
 21
-118.2076903868807
 31
0.0
  0
LINE
  5
6D54
  8
0
 62
     0
 10
-559.80680155684331
 20
-118.2523007511885
 30
0.0
 11
-559.71625055684331
 21
-118.16174975118849
 31
0.0
  0
LINE
  5
6D55
  8
0
 62
     0
 10
-559.80680155684342
 20
-118.2063601154963
 30
0.0
 11
-559.71625055684342
 21
-118.11580911549621
 31
0.0
  0
LINE
  5
6D56
  8
0
 62
     0
 10
-559.80680155684342
 20
-118.16041947980401
 30
0.0
 11
-559.71625055684342
 21
-118.069868479804
 31
0.0
  0
LINE
  5
6D57
  8
0
 62
     0
 10
-559.80680155684342
 20
-118.1144788441118
 30
0.0
 11
-559.71625055684342
 21
-118.0239278441118
 31
0.0
  0
LINE
  5
6D58
  8
0
 62
     0
 10
-559.80680155684331
 20
-118.0685382084196
 30
0.0
 11
-559.71625055684331
 21
-117.97798720841951
 31
0.0
  0
LINE
  5
6D59
  8
0
 62
     0
 10
-559.80680155684331
 20
-118.02259757272731
 30
0.0
 11
-559.71625055684331
 21
-117.9320465727273
 31
0.0
  0
LINE
  5
6D5A
  8
0
 62
     0
 10
-559.80680155684331
 20
-117.9766569370351
 30
0.0
 11
-559.71625055684331
 21
-117.8861059370351
 31
0.0
  0
LINE
  5
6D5B
  8
0
 62
     0
 10
-559.80680155684331
 20
-117.9307163013429
 30
0.0
 11
-559.71625055684331
 21
-117.84016530134279
 31
0.0
  0
LINE
  5
6D5C
  8
0
 62
     0
 10
-559.80680155684342
 20
-117.88477566565059
 30
0.0
 11
-559.72538183149436
 21
-117.8033559403017
 31
0.0
  0
LINE
  5
6D5D
  8
0
 62
     0
 10
-559.80680155684342
 20
-117.8388350299584
 30
0.0
 11
-559.77036136602158
 21
-117.8023948391367
 31
0.0
  0
LINE
  5
6D5E
  8
0
 62
     0
 10
-559.71912146689363
 20
-117.5673923972398
 30
0.0
 11
-559.71625055684331
 21
-117.5645214871894
 31
0.0
  0
LINE
  5
6D5F
  8
0
 62
     0
 10
-559.76606517323421
 20
-117.5683954678881
 30
0.0
 11
-559.71625055684331
 21
-117.51858085149721
 31
0.0
  0
LINE
  5
6D60
  8
0
 62
     0
 10
-559.80680155684331
 20
-117.56319121580501
 30
0.0
 11
-559.71625055684331
 21
-117.472640215805
 31
0.0
  0
LINE
  5
6D61
  8
0
 62
     0
 10
-559.80680155684342
 20
-117.5172505801127
 30
0.0
 11
-559.71625055684342
 21
-117.4266995801127
 31
0.0
  0
LINE
  5
6D62
  8
0
 62
     0
 10
-559.80680155684342
 20
-117.4713099444205
 30
0.0
 11
-559.71625055684342
 21
-117.38075894442051
 31
0.0
  0
LINE
  5
6D63
  8
0
 62
     0
 10
-559.80680155684342
 20
-117.42536930872831
 30
0.0
 11
-559.71885461972715
 21
-117.33742237161211
 31
0.0
  0
LINE
  5
6D64
  8
0
 62
     0
 10
-559.80680155684331
 20
-117.379428673036
 30
0.0
 11
-559.73710377929558
 21
-117.3097308954882
 31
0.0
  0
LINE
  5
6D65
  8
0
 62
     0
 10
-559.82992175434663
 20
-117.3566082348471
 30
0.0
 11
-559.76452493153374
 21
-117.2912114120342
 31
0.0
  0
LINE
  5
6D66
  8
0
 62
     0
 10
-559.85766493131484
 20
-117.3384107761231
 30
0.0
 11
-559.79226810850196
 21
-117.2730139533103
 31
0.0
  0
LINE
  5
6D67
  8
0
 62
     0
 10
-559.88540810828317
 20
-117.32021331739919
 30
0.0
 11
-559.82001128547017
 21
-117.25481649458629
 31
0.0
  0
LINE
  5
6D68
  8
0
 62
     0
 10
-559.91315128525139
 20
-117.3020158586752
 30
0.0
 11
-559.84775446243862
 21
-117.2366190358623
 31
0.0
  0
LINE
  5
6D69
  8
0
 62
     0
 10
-559.9408944622196
 20
-117.2838183999512
 30
0.0
 11
-559.87549763940683
 21
-117.2184215771383
 31
0.0
  0
LINE
  5
6D6A
  8
0
 62
     0
 10
-559.96863763918805
 20
-117.2656209412272
 30
0.0
 11
-559.90324081637505
 21
-117.2002241184143
 31
0.0
  0
LINE
  5
6D6B
  8
0
 62
     0
 10
-560.00482204912464
 20
-117.2558647154717
 30
0.0
 11
-559.93098399334315
 21
-117.18202665969029
 31
0.0
  0
LINE
  5
6D6C
  8
0
 62
     0
 10
-560.04847493405805
 20
-117.25357696471301
 30
0.0
 11
-559.96259139431777
 21
-117.1676934249727
 31
0.0
  0
LINE
  5
6D6D
  8
0
 62
     0
 10
-560.09212781899168
 20
-117.25128921395439
 30
0.0
 11
-560.00596799664197
 21
-117.16512939160469
 31
0.0
  0
LINE
  5
6D6E
  8
0
 62
     0
 10
-560.13578070392532
 20
-117.2490014631957
 30
0.0
 11
-560.04962088157572
 21
-117.1628416408461
 31
0.0
  0
LINE
  5
6D6F
  8
0
 62
     0
 10
-560.17943358885896
 20
-117.2467137124371
 30
0.0
 11
-560.09327376650924
 21
-117.1605538900874
 31
0.0
  0
LINE
  5
6D70
  8
0
 62
     0
 10
-560.22488908741639
 20
-117.2462285753021
 30
0.0
 11
-560.13692665144299
 21
-117.1582661393288
 31
0.0
  0
LINE
  5
6D71
  8
0
 62
     0
 10
-560.18869055684331
 20
-117.164089409037
 30
0.0
 11
-560.18057953637651
 21
-117.15597838857011
 31
0.0
  0
LINE
  5
6D72
  8
0
 62
     0
 10
-560.2556195568435
 20
-117.23101840903711
 30
0.0
 11
-560.22993328382984
 21
-117.2053321360234
 31
0.0
  0
ENDBLK
  5
6D74
  8
0
  0
BLOCK
  8
0
  2
*X51
 70
     1
 10
0.0
 20
0.0
 30
0.0
  3
*X51
  1

  0
LINE
  5
6D76
  8
0
 62
     0
 10
-559.81088757989289
 20
-117.8429210530079
 30
0.0
 11
-559.80680155684342
 21
-117.8388350299584
 31
0.0
  0
LINE
  5
6D77
  8
0
 62
     0
 10
-559.8568282155851
 20
-117.8429210530079
 30
0.0
 11
-559.81534090054879
 21
-117.80143373797149
 31
0.0
  0
LINE
  5
6D78
  8
0
 62
     0
 10
-559.90276885127741
 20
-117.8429210530079
 30
0.0
 11
-559.86032043507589
 21
-117.8004726368064
 31
0.0
  0
LINE
  5
6D79
  8
0
 62
     0
 10
-559.94870948696951
 20
-117.8429210530079
 30
0.0
 11
-559.90529996960299
 21
-117.7995115356413
 31
0.0
  0
LINE
  5
6D7A
  8
0
 62
     0
 10
-559.99465012266182
 20
-117.8429210530079
 30
0.0
 11
-559.95027950413009
 21
-117.7985504344762
 31
0.0
  0
LINE
  5
6D7B
  8
0
 62
     0
 10
-560.04059075835403
 20
-117.8429210530079
 30
0.0
 11
-559.99525903865708
 21
-117.79758933331109
 31
0.0
  0
LINE
  5
6D7C
  8
0
 62
     0
 10
-559.81300887957468
 20
-117.5693985385364
 30
0.0
 11
-559.80680155684331
 21
-117.56319121580501
 31
0.0
  0
LINE
  5
6D7D
  8
0
 62
     0
 10
-560.08653139404623
 20
-117.8429210530079
 30
0.0
 11
-560.04023857318418
 21
-117.79662823214591
 31
0.0
  0
LINE
  5
6D7E
  8
0
 62
     0
 10
-559.85995258591527
 20
-117.5704016091847
 30
0.0
 11
-559.81751202973862
 21
-117.5279610530079
 31
0.0
  0
LINE
  5
6D7F
  8
0
 62
     0
 10
-560.13247202973855
 20
-117.8429210530079
 30
0.0
 11
-560.0852181077114
 21
-117.7956671309808
 31
0.0
  0
LINE
  5
6D80
  8
0
 62
     0
 10
-559.90689629225585
 20
-117.57140467983299
 30
0.0
 11
-559.86345266543083
 21
-117.5279610530079
 31
0.0
  0
LINE
  5
6D81
  8
0
 62
     0
 10
-560.17841266543076
 20
-117.8429210530079
 30
0.0
 11
-560.1301976422385
 21
-117.7947060298157
 31
0.0
  0
LINE
  5
6D82
  8
0
 62
     0
 10
-559.95383999859644
 20
-117.5724077504813
 30
0.0
 11
-559.90939330112303
 21
-117.5279610530079
 31
0.0
  0
LINE
  5
6D83
  8
0
 62
     0
 10
-560.22435330112307
 20
-117.8429210530079
 30
0.0
 11
-560.17517717676571
 21
-117.7937449286506
 31
0.0
  0
LINE
  5
6D84
  8
0
 62
     0
 10
-560.00078370493691
 20
-117.5734108211296
 30
0.0
 11
-559.95533393681524
 21
-117.5279610530079
 31
0.0
  0
LINE
  5
6D85
  8
0
 62
     0
 10
-560.2556195568435
 20
-117.8282466730362
 30
0.0
 11
-560.17687955684335
 21
-117.749506673036
 31
0.0
  0
LINE
  5
6D86
  8
0
 62
     0
 10
-560.04772741127738
 20
-117.57441389177799
 30
0.0
 11
-560.00127457250744
 21
-117.5279610530079
 31
0.0
  0
LINE
  5
6D87
  8
0
 62
     0
 10
-560.2556195568435
 20
-117.782306037344
 30
0.0
 11
-560.21780957250735
 21
-117.74449605300789
 31
0.0
  0
LINE
  5
6D88
  8
0
 62
     0
 10
-560.09467111761785
 20
-117.5754169624262
 30
0.0
 11
-560.04721520819965
 21
-117.5279610530079
 31
0.0
  0
LINE
  5
6D89
  8
0
 62
     0
 10
-560.14161482395855
 20
-117.5764200330745
 30
0.0
 11
-560.09315584389185
 21
-117.5279610530079
 31
0.0
  0
LINE
  5
6D8A
  8
0
 62
     0
 10
-560.19158084389198
 20
-117.62638605300801
 30
0.0
 11
-560.17687955684335
 21
-117.6116847659594
 31
0.0
  0
LINE
  5
6D8B
  8
0
 62
     0
 10
-560.23752147958419
 20
-117.62638605300791
 30
0.0
 11
-560.13909647958417
 21
-117.5279610530079
 31
0.0
  0
LINE
  5
6D8C
  8
0
 62
     0
 10
-560.2556195568435
 20
-117.5985434945751
 30
0.0
 11
-560.18503711527649
 21
-117.5279610530079
 31
0.0
  0
LINE
  5
6D8D
  8
0
 62
     0
 10
-560.2556195568435
 20
-117.55260285888281
 30
0.0
 11
-560.23097775096858
 21
-117.5279610530079
 31
0.0
  0
ENDBLK
  5
6D8F
  8
0
  0
BLOCK
  8
0
  2
*X52
 70
     1
 10
0.0
 20
0.0
 30
0.0
  3
*X52
  1

  0
LINE
  5
6D91
  8
0
 62
     0
 10
-559.83023526601914
 20
-121.30781641605181
 30
0.0
 11
-559.80680155684342
 21
-121.284382706876
 31
0.0
  0
LINE
  5
6D92
  8
0
 62
     0
 10
-559.87617590171135
 20
-121.30781641605181
 30
0.0
 11
-559.83428382336683
 21
-121.2659243377073
 31
0.0
  0
LINE
  5
6D93
  8
0
 62
     0
 10
-559.92211653740367
 20
-121.30781641605191
 30
0.0
 11
-559.87926335789393
 21
-121.2649632365422
 31
0.0
  0
LINE
  5
6D94
  8
0
 62
     0
 10
-559.96805717309576
 20
-121.30781641605181
 30
0.0
 11
-559.92424289242103
 21
-121.264002135377
 31
0.0
  0
LINE
  5
6D95
  8
0
 62
     0
 10
-560.01399780878796
 20
-121.30781641605181
 30
0.0
 11
-559.96922242694825
 21
-121.26304103421189
 31
0.0
  0
LINE
  5
6D96
  8
0
 62
     0
 10
-560.05993844448028
 20
-121.30781641605191
 30
0.0
 11
-560.01420196147535
 21
-121.26207993304681
 31
0.0
  0
LINE
  5
6D97
  8
0
 62
     0
 10
-559.83277900426265
 20
-121.0347163401419
 30
0.0
 11
-559.80680155684331
 21
-121.0087388927226
 31
0.0
  0
LINE
  5
6D98
  8
0
 62
     0
 10
-560.1058790801726
 20
-121.30781641605181
 30
0.0
 11
-560.05918149600245
 21
-121.2611188318817
 31
0.0
  0
LINE
  5
6D99
  8
0
 62
     0
 10
-559.87972271060335
 20
-121.03571941079019
 30
0.0
 11
-559.83685971586476
 21
-120.99285641605179
 31
0.0
  0
LINE
  5
6D9A
  8
0
 62
     0
 10
-560.1518197158648
 20
-121.30781641605181
 30
0.0
 11
-560.10416103052955
 21
-121.2601577307167
 31
0.0
  0
LINE
  5
6D9B
  8
0
 62
     0
 10
-559.92666641694382
 20
-121.0367224814385
 30
0.0
 11
-559.88280035155708
 21
-120.99285641605179
 31
0.0
  0
LINE
  5
6D9C
  8
0
 62
     0
 10
-560.19776035155712
 20
-121.30781641605191
 30
0.0
 11
-560.14914056505665
 21
-121.2591966295515
 31
0.0
  0
LINE
  5
6D9D
  8
0
 62
     0
 10
-559.9736101232844
 20
-121.0377255520868
 30
0.0
 11
-559.92874098724917
 21
-120.99285641605179
 31
0.0
  0
LINE
  5
6D9E
  8
0
 62
     0
 10
-560.24370098724933
 20
-121.30781641605191
 30
0.0
 11
-560.17687955684335
 21
-121.2409949856459
 31
0.0
  0
LINE
  5
6D9F
  8
0
 62
     0
 10
-560.25561955684338
 20
-121.2737943499537
 30
0.0
 11
-560.19121662294151
 21
-121.2093914160518
 31
0.0
  0
LINE
  5
6DA0
  8
0
 62
     0
 10
-560.02055382962487
 20
-121.03872862273521
 30
0.0
 11
-559.97468162294149
 21
-120.99285641605179
 31
0.0
  0
LINE
  5
6DA1
  8
0
 62
     0
 10
-560.28964162294153
 20
-121.30781641605181
 30
0.0
 11
-560.2556195568435
 21
-121.2737943499538
 31
0.0
  0
LINE
  5
6DA2
  8
0
 62
     0
 10
-560.2556195568435
 20
-121.2278537142616
 30
0.0
 11
-560.23715725863372
 21
-121.2093914160518
 31
0.0
  0
LINE
  5
6DA3
  8
0
 62
     0
 10
-560.06749753596534
 20
-121.0397316933835
 30
0.0
 11
-560.02062225863358
 21
-120.99285641605179
 31
0.0
  0
LINE
  5
6DA4
  8
0
 62
     0
 10
-560.33558225863374
 20
-121.30781641605181
 30
0.0
 11
-560.26601435273835
 21
-121.2382485101564
 31
0.0
  0
LINE
  5
6DA5
  8
0
 62
     0
 10
-560.11444124230593
 20
-121.0407347640318
 30
0.0
 11
-560.06656289432601
 21
-120.99285641605179
 31
0.0
  0
LINE
  5
6DA6
  8
0
 62
     0
 10
-560.38152289432594
 20
-121.30781641605181
 30
0.0
 11
-560.29677109532599
 21
-121.2230646170519
 31
0.0
  0
LINE
  5
6DA7
  8
0
 62
     0
 10
-560.21092853001824
 20
-121.0912814160518
 30
0.0
 11
-560.17687955684335
 21
-121.05723244287699
 31
0.0
  0
LINE
  5
6DA8
  8
0
 62
     0
 10
-560.16138494864651
 20
-121.04173783468011
 30
0.0
 11
-560.11250353001822
 21
-120.99285641605179
 31
0.0
  0
LINE
  5
6DA9
  8
0
 62
     0
 10
-560.42746353001814
 20
-121.30781641605191
 30
0.0
 11
-560.3427117310182
 21
-121.223064617052
 31
0.0
  0
LINE
  5
6DAA
  8
0
 62
     0
 10
-560.2556195568435
 20
-121.0900318071849
 30
0.0
 11
-560.15844416571053
 21
-120.99285641605179
 31
0.0
  0
LINE
  5
6DAB
  8
0
 62
     0
 10
-560.47340416571046
 20
-121.30781641605181
 30
0.0
 11
-560.38865236671074
 21
-121.2230646170521
 31
0.0
  0
LINE
  5
6DAC
  8
0
 62
     0
 10
-560.30669955740268
 20
-121.09517117205191
 30
0.0
 11
-560.2556195568435
 21
-121.0440911714927
 31
0.0
  0
LINE
  5
6DAD
  8
0
 62
     0
 10
-560.2556195568435
 20
-121.0440911714927
 30
0.0
 11
-560.20438480140274
 21
-120.99285641605189
 31
0.0
  0
LINE
  5
6DAE
  8
0
 62
     0
 10
-560.51934480140267
 20
-121.30781641605181
 30
0.0
 11
-560.43459300240306
 21
-121.2230646170522
 31
0.0
  0
LINE
  5
6DAF
  8
0
 62
     0
 10
-560.35264019309511
 20
-121.09517117205201
 30
0.0
 11
-560.2556195568435
 21
-120.99815053580041
 31
0.0
  0
LINE
  5
6DB0
  8
0
 62
     0
 10
-560.2556195568435
 20
-120.99815053580041
 30
0.0
 11
-560.25032543709494
 21
-120.99285641605179
 31
0.0
  0
LINE
  5
6DB1
  8
0
 62
     0
 10
-560.56528543709499
 20
-121.30781641605181
 30
0.0
 11
-560.48053363809538
 21
-121.2230646170523
 31
0.0
  0
LINE
  5
6DB2
  8
0
 62
     0
 10
-560.39858082878743
 20
-121.0951711720521
 30
0.0
 11
-560.29626607278726
 21
-120.99285641605189
 31
0.0
  0
LINE
  5
6DB3
  8
0
 62
     0
 10
-560.61122607278708
 20
-121.30781641605191
 30
0.0
 11
-560.52647427378781
 21
-121.2230646170524
 31
0.0
  0
LINE
  5
6DB4
  8
0
 62
     0
 10
-560.44452146447975
 20
-121.0951711720523
 30
0.0
 11
-560.34220670847947
 21
-120.99285641605201
 31
0.0
  0
LINE
  5
6DB5
  8
0
 62
     0
 10
-560.65716670847939
 20
-121.30781641605181
 30
0.0
 11
-560.57241490948013
 21
-121.2230646170525
 31
0.0
  0
LINE
  5
6DB6
  8
0
 62
     0
 10
-560.49046210017207
 20
-121.0951711720523
 30
0.0
 11
-560.3881473441719
 21
-120.99285641605211
 31
0.0
  0
LINE
  5
6DB7
  8
0
 62
     0
 10
-560.70310734417149
 20
-121.30781641605181
 30
0.0
 11
-560.61835554517245
 21
-121.2230646170526
 31
0.0
  0
LINE
  5
6DB8
  8
0
 62
     0
 10
-560.53640273586439
 20
-121.0951711720525
 30
0.0
 11
-560.43408797986433
 21
-120.99285641605231
 31
0.0
  0
LINE
  5
6DB9
  8
0
 62
     0
 10
-560.7490479798638
 20
-121.30781641605181
 30
0.0
 11
-560.66429618086465
 21
-121.2230646170527
 31
0.0
  0
LINE
  5
6DBA
  8
0
 62
     0
 10
-560.58234337155682
 20
-121.0951711720525
 30
0.0
 11
-560.48002861555665
 21
-120.99285641605231
 31
0.0
  0
LINE
  5
6DBB
  8
0
 62
     0
 10
-560.79498861555612
 20
-121.30781641605181
 30
0.0
 11
-560.71023681655709
 21
-121.2230646170528
 31
0.0
  0
LINE
  5
6DBC
  8
0
 62
     0
 10
-560.62828400724925
 20
-121.0951711720527
 30
0.0
 11
-560.52596925124908
 21
-120.9928564160525
 31
0.0
  0
LINE
  5
6DBD
  8
0
 62
     0
 10
-560.76719333683934
 20
-121.23408050164269
 30
0.0
 11
-560.75617745224952
 21
-121.2230646170529
 31
0.0
  0
LINE
  5
6DBE
  8
0
 62
     0
 10
-560.67422464294157
 20
-121.0951711720528
 30
0.0
 11
-560.57190988694128
 21
-120.9928564160525
 31
0.0
  0
LINE
  5
6DBF
  8
0
 62
     0
 10
-560.72016527863377
 20
-121.0951711720529
 30
0.0
 11
-560.61785052263372
 21
-120.9928564160527
 31
0.0
  0
LINE
  5
6DC0
  8
0
 62
     0
 10
-560.7661059143262
 20
-121.0951711720531
 30
0.0
 11
-560.66379115832603
 21
-120.9928564160528
 31
0.0
  0
LINE
  5
6DC1
  8
0
 62
     0
 10
-560.76719333683945
 20
-121.050317958874
 30
0.0
 11
-560.70973179401835
 21
-120.9928564160529
 31
0.0
  0
LINE
  5
6DC2
  8
0
 62
     0
 10
-560.76719333683945
 20
-121.0043773231819
 30
0.0
 11
-560.75567242971056
 21
-120.992856416053
 31
0.0
  0
ENDBLK
  5
6DC4
  8
0
  0
BLOCK
  8
0
  2
*U53
 70
     1
 10
0.0
 20
0.0
 30
0.0
  3
*U53
  1

  0
TEXT
  5
6DC6
  8
\M+2BBB2\M+2A755\M+2BD75
 62
     1
 10
-583.54580898311053
 20
-118.73270786068031
 30
0.0
 40
0.125
  1
3.465 [
  0
TEXT
  5
6DC7
  8
\M+2BBB2\M+2A755\M+2BD75
 62
     1
 10
-582.99879756605208
 20
-118.73270786068031
 30
0.0
 40
0.125
  1
88
  0
TEXT
  5
6DC8
  8
\M+2BBB2\M+2A755\M+2BD75
 62
     1
 10
-582.76070232795678
 20
-118.73270786068031
 30
0.0
 40
0.125
  1
]
  0
ENDBLK
  5
6DCA
  8
0
  0
BLOCK
  8
0
  2
*U54
 70
     1
 10
0.0
 20
0.0
 30
0.0
  3
*U54
  1

  0
TEXT
  5
6DCC
  8
\M+2BBB2\M+2A755\M+2BD75
 62
     1
 10
-582.84278247424731
 20
-118.0999074234758
 30
0.0
 40
0.125
  1
2.756 [
  0
TEXT
  5
6DCD
  8
\M+2BBB2\M+2A755\M+2BD75
 62
     1
 10
-582.29577105718886
 20
-118.0999074234758
 30
0.0
 40
0.125
  1
70
  0
TEXT
  5
6DCE
  8
\M+2BBB2\M+2A755\M+2BD75
 62
     1
 10
-582.05767581909356
 20
-118.0999074234758
 30
0.0
 40
0.125
  1
]
  0
ENDBLK
  5
6DD0
  8
0
  0
BLOCK
  8
0
  2
*U55
 70
     1
 10
0.0
 20
0.0
 30
0.0
  3
*U55
  1

  0
TEXT
  5
6DD2
  8
\M+2BBB2\M+2A755\M+2BD75
 62
     1
 10
-562.05323127167935
 20
-116.790724601009
 30
0.0
 40
0.125
  1
1.260 [
  0
TEXT
  5
6DD3
  8
\M+2BBB2\M+2A755\M+2BD75
 62
     1
 10
-561.50621985462078
 20
-116.790724601009
 30
0.0
 40
0.125
  1
32
  0
TEXT
  5
6DD4
  8
\M+2BBB2\M+2A755\M+2BD75
 62
     1
 10
-561.26812461652571
 20
-116.790724601009
 30
0.0
 40
0.125
  1
]
  0
ENDBLK
  5
6DD6
  8
0
  0
BLOCK
  8
0
  2
*U56
 70
     1
 10
0.0
 20
0.0
 30
0.0
  3
*U56
  1

  0
TEXT
  5
6DD8
  8
\M+2BBB2\M+2A755\M+2BD75
 62
     1
 10
-563.38830973530446
 20
-130.44993152228761
 30
0.0
 40
0.125
  1
MATERIAL : FLAME RETARDANT OF ABS ( UL94-V0 )
  0
TEXT
  5
6DD9
  8
\M+2BBB2\M+2A755\M+2BD75
 62
     1
 10
-563.38404643380397
 20
-130.66048177240131
 30
0.0
 40
0.125
  1
COLOR: BLACK
  0
TEXT
  5
6DDA
  8
\M+2BBB2\M+2A755\M+2BD75
 62
     1
 10
-563.38967399178478
 20
-130.87094675648501
 30
0.0
 40
0.125
  1
FINISH:
  0
TEXT
  5
6DDB
  8
\M+2BBB2\M+2A755\M+2BD75
 62
     1
 10
-563.37534929874255
 20
-131.0814970065986
 30
0.0
 40
0.125
  1
   SHELL EXTERIOR SURFACES ARE TEXTURED.
  0
TEXT
  5
6DDC
  8
\M+2BBB2\M+2A755\M+2BD75
 62
     1
 10
-563.37534929874255
 20
-131.29204725671229
 30
0.0
 40
0.125
  1
   RECESSED AREAS ON EXTERIOR ARE SMOOTH.
  0
TEXT
  5
6DDD
  8
\M+2BBB2\M+2A755\M+2BD75
 62
     1
 10
-563.38967399178478
 20
-131.50259750682599
 30
0.0
 40
0.125
  1
FOUR (4) INTERNAL BOSSES ON EACH SHELL ARE
  0
TEXT
  5
6DDE
  8
\M+2BBB2\M+2A755\M+2BD75
 62
     1
 10
-563.37534929874255
 20
-131.71314775693969
 30
0.0
 40
0.125
  1
   DESIGNED TO TRAP PCB BETWEEN ASSEMBLED
  0
TEXT
  5
6DDF
  8
\M+2BBB2\M+2A755\M+2BD75
 62
     1
 10
-563.37534929874255
 20
-131.92361274102339
 30
0.0
 40
0.125
  1
   SHELL HALVES.
  0
TEXT
  5
6DE0
  8
\M+2BBB2\M+2A755\M+2BD75
 62
     1
 10
-563.38967399178478
 20
-132.13416299113709
 30
0.0
 40
0.125
  1
FOUR (4) #4-24 x .375 LG. SCREWS (BLACK) ARE
  0
TEXT
  5
6DE1
  8
\M+2BBB2\M+2A755\M+2BD75
 62
     1
 10
-563.37534929874255
 20
-132.34471324125079
 30
0.0
 40
0.125
  1
   SUPPLIED FOR ASSEMBLING SHELL HALVES
  0
TEXT
  5
6DE2
  8
\M+2BBB2\M+2A755\M+2BD75
 62
     1
 10
-563.37509350065238
 20
-132.5552634913644
 30
0.0
 40
0.125
  1
ALL DIMENSIONAL TOLERANCES ARE  +/-.015
  0
ENDBLK
  5
6DE4
  8
0
  0
ENDSEC
  0
SECTION
  2
ENTITIES
  0
LINE
  5
175C
  8
\M+2BBB2\M+2A755\M+2BD75
 10
-570.65134497146585
 20
-117.3826902830324
 30
0.0
 11
-570.65134497146585
 21
-118.9378052830324
 31
0.0
  0
LINE
  5
175D
  8
\M+2BBB2\M+2A755\M+2BD75
 10
-573.05291497146595
 20
-117.3826902830324
 30
0.0
 11
-573.05291497146595
 21
-118.9378052830324
 31
0.0
  0
LINE
  5
175E
  8
\M+2BBB2\M+2A755\M+2BD75
 10
-572.95448997146593
 20
-117.2842652830325
 30
0.0
 11
-570.74976997146575
 21
-117.2842652830325
 31
0.0
  0
ARC
  5
1760
  8
\M+2BBB2\M+2A755\M+2BD75
 10
-570.74976997146575
 20
-117.3826902830324
 30
0.0
 40
0.098425
 50
0.0000000000000127
 51
90.0
  0
ARC
  5
1763
  8
\M+2BBB2\M+2A755\M+2BD75
 10
-572.95448997146593
 20
-117.3826902830324
 30
0.0
 40
0.098425
 50
90.000000000000057
 51
180.0
  0
LINE
  5
1764
  8
\M+2BBB2\M+2A755\M+2BD75
 10
-570.63165997146575
 20
-117.3826902830324
 30
0.0
 11
-570.63165997146575
 21
-118.9378052830324
 31
0.0
  0
LINE
  5
1768
  8
\M+2BBB2\M+2A755\M+2BD75
 10
-573.07259997146593
 20
-117.3826902830324
 30
0.0
 11
-573.07259997146593
 21
-118.9378052830324
 31
0.0
  0
ARC
  5
176F
  8
\M+2BBB2\M+2A755\M+2BD75
 10
-604.93607631586099
 20
-118.9368053185389
 30
0.0
 40
34.402841358795932
 50
359.99833462170881
 51
2.7515301642358132
  0
ARC
  5
1770
  8
\M+2BBB2\M+2A755\M+2BD75
 10
-570.74985857486877
 20
-117.2938084279381
 30
0.0
 40
0.177165
 50
2.751530164235779
 51
76.788100880837376
  0
ARC
  5
1771
  8
\M+2BBB2\M+2A755\M+2BD75
 10
-571.85212997146596
 20
-121.9889802830324
 30
0.0
 40
4.9999900000000004
 50
76.788100880837291
 51
103.2116899789157
  0
ARC
  5
1772
  8
\M+2BBB2\M+2A755\M+2BD75
 10
-572.95438422980521
 20
-117.2938044044739
 30
0.0
 40
0.177165
 50
103.2116899789158
 51
177.25061985926891
  0
ARC
  5
1773
  8
\M+2BBB2\M+2A755\M+2BD75
 10
-538.69975529973965
 20
-118.9388007800983
 30
0.0
 40
34.471269685970562
 50
177.25061985926939
 51
179.99834535307451
  0
LINE
  5
1776
  8
\M+2BBB2\M+2A755\M+2BD75
 10
-570.63165997146575
 20
-117.3826902830324
 30
0.0
 11
-570.63165997146575
 21
-117.2988002753637
 31
0.0
  0
ARC
  5
177B
  8
\M+2BBB2\M+2A755\M+2BD75
 10
-571.85212997146596
 20
-121.9889802830324
 30
0.0
 40
4.9330610000000004
 50
76.727938860959412
 51
90.000000000000057
  0
ARC
  5
177C
  8
\M+2BBB2\M+2A755\M+2BD75
 10
-570.74583297146592
 20
-117.2988002753637
 30
0.0
 40
0.114173
 50
359.99999999999881
 51
76.727938860959483
  0
ARC
  5
177D
  8
\M+2BBB2\M+2A755\M+2BD75
 10
-571.85211172057291
 20
-121.9889802830324
 30
0.0
 40
4.9330610000000004
 50
89.999999999999986
 51
103.2720611390405
  0
ARC
  5
177E
  8
\M+2BBB2\M+2A755\M+2BD75
 10
-572.95840872057272
 20
-117.2988002753637
 30
0.0
 40
0.114173
 50
103.2720611390405
 51
180.00000000000111
  0
LINE
  5
177F
  8
\M+2BBB2\M+2A755\M+2BD75
 10
-573.07258172057288
 20
-117.3826902830324
 30
0.0
 11
-573.07258172057288
 21
-117.2988002753637
 31
0.0
  0
LINE
  5
1781
  8
\M+2BBB2\M+2A755\M+2BD75
 10
-573.05291497146595
 20
-120.4929202830324
 30
0.0
 11
-573.05291497146595
 21
-118.9378052830324
 31
0.0
  0
LINE
  5
1782
  8
\M+2BBB2\M+2A755\M+2BD75
 10
-573.07259997146593
 20
-120.4929202830324
 30
0.0
 11
-573.07259997146593
 21
-118.9378052830324
 31
0.0
  0
ARC
  5
1783
  8
\M+2BBB2\M+2A755\M+2BD75
 10
-572.95448997146593
 20
-120.4929202830324
 30
0.0
 40
0.098425
 50
179.9999999999998
 51
269.99999999999977
  0
LINE
  5
1785
  8
\M+2BBB2\M+2A755\M+2BD75
 10
-570.65134497146585
 20
-120.4929202830324
 30
0.0
 11
-570.65134497146585
 21
-118.9378052830324
 31
0.0
  0
LINE
  5
1786
  8
\M+2BBB2\M+2A755\M+2BD75
 10
-570.63165997146575
 20
-120.4929202830324
 30
0.0
 11
-570.63165997146575
 21
-118.9378052830324
 31
0.0
  0
ARC
  5
1787
  8
\M+2BBB2\M+2A755\M+2BD75
 10
-570.74976997146575
 20
-120.4929202830324
 30
0.0
 40
0.098425
 50
269.99999999999977
 51
359.99999999999977
  0
ARC
  5
178A
  8
\M+2BBB2\M+2A755\M+2BD75
 10
-571.85212997146573
 20
-115.8866302830324
 30
0.0
 40
4.9999900000000004
 50
256.7883100210841
 51
283.21189911916258
  0
ARC
  5
178B
  8
\M+2BBB2\M+2A755\M+2BD75
 10
-571.85212997146573
 20
-115.8866302830324
 30
0.0
 40
4.9330610000000004
 50
269.99999999999977
 51
283.27206113904032
  0
ARC
  5
178C
  8
\M+2BBB2\M+2A755\M+2BD75
 10
-570.74583297146592
 20
-120.5768102907011
 30
0.0
 40
0.114173
 50
283.27206113904032
 51
0.0000000000009962
  0
ARC
  5
178D
  8
\M+2BBB2\M+2A755\M+2BD75
 10
-572.95438422980521
 20
-120.5818061615909
 30
0.0
 40
0.177165
 50
182.74938014073069
 51
256.78831002108387
  0
ARC
  5
178E
  8
\M+2BBB2\M+2A755\M+2BD75
 10
-570.74985857486877
 20
-120.5818021381267
 30
0.0
 40
0.177165
 50
283.21189911916241
 51
357.24846983576401
  0
LINE
  5
178F
  8
\M+2BBB2\M+2A755\M+2BD75
 10
-572.95448997146593
 20
-120.5913452830325
 30
0.0
 11
-570.74976997146575
 21
-120.5913452830325
 31
0.0
  0
ARC
  5
1791
  8
\M+2BBB2\M+2A755\M+2BD75
 10
-604.93607631586099
 20
-118.93880524752601
 30
0.0
 40
34.402841358795932
 50
357.24846983576401
 51
0.0016653782910745
  0
ARC
  5
1792
  8
\M+2BBB2\M+2A755\M+2BD75
 10
-538.69975529973965
 20
-118.9368097859667
 30
0.0
 40
34.471269685970562
 50
180.0016546469252
 51
182.74938014073049
  0
LINE
  5
1793
  8
\M+2BBB2\M+2A755\M+2BD75
 10
-570.63165997146575
 20
-120.4929202830324
 30
0.0
 11
-570.63165997146575
 21
-120.5768102907011
 31
0.0
  0
ARC
  5
1794
  8
\M+2BBB2\M+2A755\M+2BD75
 10
-571.85211172057291
 20
-115.8866302830324
 30
0.0
 40
4.9330610000000004
 50
256.72793886095928
 51
269.99999999999977
  0
ARC
  5
1795
  8
\M+2BBB2\M+2A755\M+2BD75
 10
-572.95840872057272
 20
-120.5768102907011
 30
0.0
 40
0.114173
 50
179.99999999999861
 51
256.72793886095928
  0
LINE
  5
1796
  8
\M+2BBB2\M+2A755\M+2BD75
 10
-573.07258172057288
 20
-120.4929202830324
 30
0.0
 11
-573.07258172057288
 21
-120.5768102907011
 31
0.0
  0
POLYLINE
  5
17A3
  8
\M+2BBB2\M+2A755\M+2BD75
 66
     1
 10
0.0
 20
0.0
 30
0.0
 70
     1
  0
VERTEX
  5
6ABD
  8
\M+2BBB2\M+2A755\M+2BD75
 10
-570.25830094341654
 20
-120.60542650237041
 30
0.0
 42
0.012013593779292
  0
VERTEX
  5
6ABE
  8
\M+2BBB2\M+2A755\M+2BD75
 10
-570.21827497146569
 20
-118.9378052830324
 30
0.0
 42
0.012013593779292
  0
VERTEX
  5
6ABF
  8
\M+2BBB2\M+2A755\M+2BD75
 10
-570.25830094341654
 20
-117.2701840636944
 30
0.0
 42
0.3347727633190029
  0
VERTEX
  5
6AC0
  8
\M+2BBB2\M+2A755\M+2BD75
 10
-570.63738190174672
 20
-116.8147092590511
 30
0.0
 42
0.1158082536982532
  0
VERTEX
  5
6AC1
  8
\M+2BBB2\M+2A755\M+2BD75
 10
-573.06685915412572
 20
-116.8147048250292
 30
0.0
 42
0.3347842108065381
  0
VERTEX
  5
6AC2
  8
\M+2BBB2\M+2A755\M+2BD75
 10
-573.44594274741564
 20
-117.27019848594161
 30
0.0
 42
0.0119898540614773
  0
VERTEX
  5
6AC3
  8
\M+2BBB2\M+2A755\M+2BD75
 10
-573.48598497146565
 20
-118.9378052830324
 30
0.0
 42
0.0119898540614773
  0
VERTEX
  5
6AC4
  8
\M+2BBB2\M+2A755\M+2BD75
 10
-573.44594274741564
 20
-120.6054120801232
 30
0.0
 42
0.3347842108065375
  0
VERTEX
  5
6AC5
  8
\M+2BBB2\M+2A755\M+2BD75
 10
-573.06685915412572
 20
-121.0609057410357
 30
0.0
 42
0.1158082536982532
  0
VERTEX
  5
6AC6
  8
\M+2BBB2\M+2A755\M+2BD75
 10
-570.63738190174672
 20
-121.06090130701391
 30
0.0
 42
0.3347727633190019
  0
SEQEND
  5
6AC7
  8
\M+2BBB2\M+2A755\M+2BD75
  0
POLYLINE
  5
17A6
  8
\M+2BBB2\M+2A755\M+2BD75
 66
     1
 10
0.0
 20
0.0
 30
0.0
 70
     1
  0
VERTEX
  5
6AC8
  8
\M+2BBB2\M+2A755\M+2BD75
 10
-578.1741688955409
 20
-120.60542650237041
 30
0.0
 42
0.012013593779292
  0
VERTEX
  5
6AC9
  8
\M+2BBB2\M+2A755\M+2BD75
 10
-578.13414292359005
 20
-118.9378052830324
 30
0.0
 42
0.012013593779292
  0
VERTEX
  5
6ACA
  8
\M+2BBB2\M+2A755\M+2BD75
 10
-578.1741688955409
 20
-117.2701840636944
 30
0.0
 42
0.3347727633190029
  0
VERTEX
  5
6ACB
  8
\M+2BBB2\M+2A755\M+2BD75
 10
-578.55324985387085
 20
-116.8147092590511
 30
0.0
 42
0.1158082536982532
  0
VERTEX
  5
6ACC
  8
\M+2BBB2\M+2A755\M+2BD75
 10
-580.98272710624985
 20
-116.8147048250292
 30
0.0
 42
0.3347842108065381
  0
VERTEX
  5
6ACD
  8
\M+2BBB2\M+2A755\M+2BD75
 10
-581.36181069953989
 20
-117.27019848594161
 30
0.0
 42
0.0119898540614773
  0
VERTEX
  5
6ACE
  8
\M+2BBB2\M+2A755\M+2BD75
 10
-581.40185292359013
 20
-118.9378052830324
 30
0.0
 42
0.0119898540614773
  0
VERTEX
  5
6ACF
  8
\M+2BBB2\M+2A755\M+2BD75
 10
-581.36181069953989
 20
-120.6054120801232
 30
0.0
 42
0.3347842108065375
  0
VERTEX
  5
6AD0
  8
\M+2BBB2\M+2A755\M+2BD75
 10
-580.98272710624985
 20
-121.0609057410357
 30
0.0
 42
0.1158082536982532
  0
VERTEX
  5
6AD1
  8
\M+2BBB2\M+2A755\M+2BD75
 10
-578.55324985387085
 20
-121.06090130701391
 30
0.0
 42
0.3347727633190019
  0
SEQEND
  5
6AD2
  8
\M+2BBB2\M+2A755\M+2BD75
  0
POLYLINE
  5
17A7
  8
\M+2BBB2\M+2A755\M+2BD75
 66
     1
 10
0.0
 20
0.0
 30
0.0
 70
     1
  0
VERTEX
  5
6AD3
  8
\M+2BBB2\M+2A755\M+2BD75
 10
-578.26461549972805
 20
-120.60107961934951
 30
0.0
 42
0.012013593779292
  0
VERTEX
  5
6AD4
  8
\M+2BBB2\M+2A755\M+2BD75
 10
-578.22469392355265
 20
-118.93780789114081
 30
0.0
 42
0.012013593779292
  0
VERTEX
  5
6AD5
  8
\M+2BBB2\M+2A755\M+2BD75
 10
-578.26461549972805
 20
-117.2745309467154
 30
0.0
 42
0.3347727633190018
  0
VERTEX
  5
6AD6
  8
\M+2BBB2\M+2A755\M+2BD75
 10
-578.57394556172562
 20
-116.9028635061262
 30
0.0
 42
0.1158082536982532
  0
VERTEX
  5
6AD7
  8
\M+2BBB2\M+2A755\M+2BD75
 10
-580.96203172017488
 20
-116.90285914764701
 30
0.0
 42
0.3347842108065389
  0
VERTEX
  5
6AD8
  8
\M+2BBB2\M+2A755\M+2BD75
 10
-581.27136393229955
 20
-117.2745419749517
 30
0.0
 42
0.0119898540614773
  0
VERTEX
  5
6AD9
  8
\M+2BBB2\M+2A755\M+2BD75
 10
-581.3113019236273
 20
-118.93780787438121
 30
0.0
 42
0.0119898540614774
  0
VERTEX
  5
6ADA
  8
\M+2BBB2\M+2A755\M+2BD75
 10
-581.27136393229955
 20
-120.6010685911133
 30
0.0
 42
0.3347842108065376
  0
VERTEX
  5
6ADB
  8
\M+2BBB2\M+2A755\M+2BD75
 10
-580.96203172017488
 20
-120.9727514184179
 30
0.0
 42
0.1158082536982529
  0
VERTEX
  5
6ADC
  8
\M+2BBB2\M+2A755\M+2BD75
 10
-578.57394556172562
 20
-120.9727470599387
 30
0.0
 42
0.3347727633190006
  0
SEQEND
  5
6ADD
  8
\M+2BBB2\M+2A755\M+2BD75
  0
POLYLINE
  5
17A8
  8
\M+2BBB2\M+2A755\M+2BD75
 66
     1
 10
0.0
 20
0.0
 30
0.0
 70
     1
  0
VERTEX
  5
6ADE
  8
\M+2BBB2\M+2A755\M+2BD75
 10
-578.21349350605692
 20
-120.6035365532309
 30
0.0
 42
0.012013593779292
  0
VERTEX
  5
6ADF
  8
\M+2BBB2\M+2A755\M+2BD75
 10
-578.17351292357375
 20
-118.9378064169925
 30
0.0
 42
0.012013593779292
  0
VERTEX
  5
6AE0
  8
\M+2BBB2\M+2A755\M+2BD75
 10
-578.21349350605692
 20
-117.2720740128341
 30
0.0
 42
0.3347727633190032
  0
VERTEX
  5
6AE1
  8
\M+2BBB2\M+2A755\M+2BD75
 10
-578.56224798772087
 20
-116.853037192562
 30
0.0
 42
0.1158082536982533
  0
VERTEX
  5
6AE2
  8
\M+2BBB2\M+2A755\M+2BD75
 10
-580.97372911230423
 20
-116.85303279138471
 30
0.0
 42
0.3347842108065375
  0
VERTEX
  5
6AE3
  8
\M+2BBB2\M+2A755\M+2BD75
 10
-581.32248601813114
 20
-117.2720869594243
 30
0.0
 42
0.0119898540614773
  0
VERTEX
  5
6AE4
  8
\M+2BBB2\M+2A755\M+2BD75
 10
-581.36248292360619
 20
-118.9378064097059
 30
0.0
 42
0.0119898540614774
  0
VERTEX
  5
6AE5
  8
\M+2BBB2\M+2A755\M+2BD75
 10
-581.32248601813114
 20
-120.60352360664071
 30
0.0
 42
0.3347842108065369
  0
VERTEX
  5
6AE6
  8
\M+2BBB2\M+2A755\M+2BD75
 10
-580.97372911230423
 20
-121.0225777746801
 30
0.0
 42
0.115808253698253
  0
VERTEX
  5
6AE7
  8
\M+2BBB2\M+2A755\M+2BD75
 10
-578.56224798772087
 20
-121.02257337350289
 30
0.0
 42
0.3347727633190017
  0
SEQEND
  5
6AE8
  8
\M+2BBB2\M+2A755\M+2BD75
  0
LINE
  5
17B0
  8
\M+2BBB2\M+2A755\M+2BD75
 10
-567.36904814039315
 20
-118.9378052830324
 30
0.0
 11
-567.36904814039315
 21
-116.67403028303239
 31
0.0
  0
LINE
  5
17B2
  8
\M+2BBB2\M+2A755\M+2BD75
 10
-567.36904814039315
 20
-116.67403028303239
 30
0.0
 11
-567.95370040275725
 21
-116.70467060975579
 31
0.0
  0
LINE
  5
17B4
  8
\M+2BBB2\M+2A755\M+2BD75
 10
-568.13676314039321
 20
-117.0559192830324
 30
0.0
 11
-568.13676314039321
 21
-116.98899028304071
 31
0.0
  0
LINE
  5
17BC
  8
\M+2BBB2\M+2A755\M+2BD75
 10
-568.13676314039321
 20
-117.0559192830324
 30
0.0
 11
-568.06589714039308
 21
-117.23462484824989
 31
0.0
  0
LINE
  5
17BF
  8
\M+2BBB2\M+2A755\M+2BD75
 10
-568.06589714039308
 20
-117.23462484824989
 30
0.0
 11
-568.06589714039308
 21
-118.9378052830324
 31
0.0
  0
LINE
  5
17C0
  8
\M+2BBB2\M+2A755\M+2BD75
 10
-567.88085814039323
 20
-118.9378052830324
 30
0.0
 11
-567.88085814039323
 21
-117.2199345946072
 31
0.0
  0
LINE
  5
17C4
  8
\M+2BBB2\M+2A755\M+2BD75
 10
-567.89331356228945
 20
-117.12168867017979
 30
0.0
 11
-567.99676006179982
 21
-116.7202631933268
 31
0.0
  0
LINE
  5
17C6
  8
\M+2BBB2\M+2A755\M+2BD75
 10
-568.02043669572595
 20
-116.74896261923401
 30
0.0
 11
-568.13676314039321
 21
-116.98899028304071
 31
0.0
  0
ARC
  5
17C7
  8
\M+2BBB2\M+2A755\M+2BD75
 10
-567.94957946956299
 20
-116.78330269932241
 30
0.0
 40
0.07874
 50
93.000000000000284
 51
154.1434243935403
  0
ARC
  5
17C8
  8
\M+2BBB2\M+2A755\M+2BD75
 10
-568.27455814039308
 20
-117.2199345946072
 30
0.0
 40
0.3937
 50
0.0
 51
14.450597977723611
  0
LINE
  5
17CA
  8
\M+2BBB2\M+2A755\M+2BD75
 10
-567.36904814039315
 20
-118.9378052830324
 30
0.0
 11
-567.36904814039315
 21
-121.2015802830324
 31
0.0
  0
LINE
  5
17CB
  8
\M+2BBB2\M+2A755\M+2BD75
 10
-567.88085814039323
 20
-118.9378052830324
 30
0.0
 11
-567.88085814039323
 21
-120.6556759714578
 31
0.0
  0
ARC
  5
17CC
  8
\M+2BBB2\M+2A755\M+2BD75
 10
-568.27455814039308
 20
-120.6556759714578
 30
0.0
 40
0.3937
 50
345.54940202227641
 51
0.0
  0
LINE
  5
17CD
  8
\M+2BBB2\M+2A755\M+2BD75
 10
-568.13676314039321
 20
-120.8196912830324
 30
0.0
 11
-568.13676314039321
 21
-120.8866202830241
 31
0.0
  0
LINE
  5
17CE
  8
\M+2BBB2\M+2A755\M+2BD75
 10
-567.36904814039315
 20
-121.2015802830324
 30
0.0
 11
-567.95370040275725
 21
-121.1709399563092
 31
0.0
  0
LINE
  5
17CF
  8
\M+2BBB2\M+2A755\M+2BD75
 10
-568.13676314039321
 20
-120.8196912830324
 30
0.0
 11
-568.06589714039308
 21
-120.640985717815
 31
0.0
  0
LINE
  5
17D0
  8
\M+2BBB2\M+2A755\M+2BD75
 10
-568.06589714039308
 20
-120.640985717815
 30
0.0
 11
-568.06589714039308
 21
-118.9378052830324
 31
0.0
  0
LINE
  5
17D1
  8
\M+2BBB2\M+2A755\M+2BD75
 10
-567.89331356228945
 20
-120.7539218958852
 30
0.0
 11
-567.99676006179982
 21
-121.15534737273821
 31
0.0
  0
LINE
  5
17D2
  8
\M+2BBB2\M+2A755\M+2BD75
 10
-568.02043669572595
 20
-121.1266479468309
 30
0.0
 11
-568.13676314039321
 21
-120.8866202830241
 31
0.0
  0
ARC
  5
17D3
  8
\M+2BBB2\M+2A755\M+2BD75
 10
-567.94957946956299
 20
-121.0923078667425
 30
0.0
 40
0.07874
 50
205.85657560645959
 51
266.99999999999972
  0
CIRCLE
  5
182C
  8
\M+2BBB2\M+2A755\M+2BD75
 10
-578.56721292359009
 20
-117.2046577628482
 30
0.0
 40
0.1279525
  0
CIRCLE
  5
182E
  8
\M+2BBB2\M+2A755\M+2BD75
 10
-578.56721292359009
 20
-117.2046577628482
 30
0.0
 40
0.0688975
  0
CIRCLE
  5
1830
  8
\M+2BBB2\M+2A755\M+2BD75
 10
-578.56721292359009
 20
-117.2046577628482
 30
0.0
 40
0.04429125
  0
CIRCLE
  5
1833
  8
\M+2BBB2\M+2A755\M+2BD75
 10
-578.51800042359014
 20
-117.55897271973269
 30
0.0
 40
0.1279525
  0
CIRCLE
  5
1834
  8
\M+2BBB2\M+2A755\M+2BD75
 10
-578.51800042359014
 20
-117.55897271973269
 30
0.0
 40
0.0688975
  0
CIRCLE
  5
1835
  8
\M+2BBB2\M+2A755\M+2BD75
 10
-578.51800042359014
 20
-117.55897271973269
 30
0.0
 40
0.04429125
  0
CIRCLE
  5
1836
  8
\M+2BBB2\M+2A755\M+2BD75
 10
-580.96875044866965
 20
-117.20468734829539
 30
0.0
 40
0.1279525
  0
CIRCLE
  5
1837
  8
\M+2BBB2\M+2A755\M+2BD75
 10
-580.96875044866965
 20
-117.20468734829539
 30
0.0
 40
0.0688975
  0
CIRCLE
  5
1838
  8
\M+2BBB2\M+2A755\M+2BD75
 10
-580.96875044866965
 20
-117.20468734829539
 30
0.0
 40
0.04429125
  0
CIRCLE
  5
1839
  8
\M+2BBB2\M+2A755\M+2BD75
 10
-581.01795421877523
 20
-117.5590035176069
 30
0.0
 40
0.1279525
  0
CIRCLE
  5
183A
  8
\M+2BBB2\M+2A755\M+2BD75
 10
-581.01795421877523
 20
-117.5590035176069
 30
0.0
 40
0.0688975
  0
CIRCLE
  5
183B
  8
\M+2BBB2\M+2A755\M+2BD75
 10
-581.01795421877523
 20
-117.5590035176069
 30
0.0
 40
0.04429125
  0
CIRCLE
  5
183C
  8
\M+2BBB2\M+2A755\M+2BD75
 10
-578.56827418864782
 20
-120.6726873566049
 30
0.0
 40
0.1279525
  0
CIRCLE
  5
183D
  8
\M+2BBB2\M+2A755\M+2BD75
 10
-578.56827418864782
 20
-120.6726873566049
 30
0.0
 40
0.0688975
  0
CIRCLE
  5
183E
  8
\M+2BBB2\M+2A755\M+2BD75
 10
-578.56827418864782
 20
-120.6726873566049
 30
0.0
 40
0.04429125
  0
CIRCLE
  5
183F
  8
\M+2BBB2\M+2A755\M+2BD75
 10
-578.51884484732295
 20
-120.3184025854892
 30
0.0
 40
0.1279525
  0
CIRCLE
  5
1840
  8
\M+2BBB2\M+2A755\M+2BD75
 10
-578.51884484732295
 20
-120.3184025854892
 30
0.0
 40
0.0688975
  0
CIRCLE
  5
1841
  8
\M+2BBB2\M+2A755\M+2BD75
 10
-578.51884484732295
 20
-120.3184025854892
 30
0.0
 40
0.04429125
  0
CIRCLE
  5
1842
  8
\M+2BBB2\M+2A755\M+2BD75
 10
-580.96981124583874
 20
-120.67118796385481
 30
0.0
 40
0.1279525
  0
CIRCLE
  5
1843
  8
\M+2BBB2\M+2A755\M+2BD75
 10
-580.96981124583874
 20
-120.67118796385481
 30
0.0
 40
0.0688975
  0
CIRCLE
  5
1844
  8
\M+2BBB2\M+2A755\M+2BD75
 10
-580.96981124583874
 20
-120.67118796385481
 30
0.0
 40
0.04429125
  0
CIRCLE
  5
1845
  8
\M+2BBB2\M+2A755\M+2BD75
 10
-581.01879815544544
 20
-120.3168417468363
 30
0.0
 40
0.1279525
  0
CIRCLE
  5
1846
  8
\M+2BBB2\M+2A755\M+2BD75
 10
-581.01879815544544
 20
-120.3168417468363
 30
0.0
 40
0.0688975
  0
CIRCLE
  5
1847
  8
\M+2BBB2\M+2A755\M+2BD75
 10
-581.01879815544544
 20
-120.3168417468363
 30
0.0
 40
0.04429125
  0
LINE
  5
184E
  8
\M+2BBB2\M+2A755\M+2BD75
 10
-574.36168495116158
 20
-118.9378052830324
 30
0.0
 11
-574.36168495116158
 21
-116.67403028303239
 31
0.0
  0
LINE
  5
1851
  8
\M+2BBB2\M+2A755\M+2BD75
 10
-575.12939995116164
 20
-117.0559192830324
 30
0.0
 11
-575.12939995116164
 21
-116.98899028304071
 31
0.0
  0
LINE
  5
1852
  8
\M+2BBB2\M+2A755\M+2BD75
 10
-574.36168495116158
 20
-116.67403028303239
 30
0.0
 11
-574.95794983940982
 21
-116.7052792016899
 31
0.0
  0
LINE
  5
1853
  8
\M+2BBB2\M+2A755\M+2BD75
 10
-575.12939995116164
 20
-117.0559192830324
 30
0.0
 11
-575.03884895116164
 21
-117.2842652830325
 31
0.0
  0
LINE
  5
1854
  8
\M+2BBB2\M+2A755\M+2BD75
 10
-575.05853395116173
 20
-117.23462484824989
 30
0.0
 11
-575.05853395116173
 21
-118.9378052830324
 31
0.0
  0
LINE
  5
1856
  8
\M+2BBB2\M+2A755\M+2BD75
 10
-575.00800205913617
 20
-116.7384982087986
 30
0.0
 11
-575.12939995116164
 21
-116.98899028304071
 31
0.0
  0
LINE
  5
1864
  8
\M+2BBB2\M+2A755\M+2BD75
 10
-574.40892895116178
 20
-116.7134002830413
 30
0.0
 11
-574.36168495116158
 21
-116.7134002830413
 31
0.0
  0
LINE
  5
1865
  8
\M+2BBB2\M+2A755\M+2BD75
 10
-574.40892895116178
 20
-116.7671815034594
 30
0.0
 11
-574.93463056482165
 21
-116.7947323575968
 31
0.0
  0
LINE
  5
1866
  8
\M+2BBB2\M+2A755\M+2BD75
 10
-574.93463056482165
 20
-116.7947323575968
 30
0.0
 11
-575.04513975035934
 21
-117.02275670502431
 31
0.0
  0
LINE
  5
1868
  8
\M+2BBB2\M+2A755\M+2BD75
 10
-575.04522574243765
 20
-117.022539855435
 30
0.0
 11
-574.94829795116163
 21
-117.26696645952291
 31
0.0
  0
LINE
  5
186A
  8
\M+2BBB2\M+2A755\M+2BD75
 10
-574.94829795116163
 20
-117.33261026284831
 30
0.0
 11
-574.40892895116178
 21
-117.33261026284831
 31
0.0
  0
LINE
  5
186B
  8
\M+2BBB2\M+2A755\M+2BD75
 10
-575.02374635673971
 20
-117.07670526284829
 30
0.0
 11
-574.40892895116178
 21
-117.07670526284829
 31
0.0
  0
LINE
  5
186C
  8
\M+2BBB2\M+2A755\M+2BD75
  6
HIDDEN2
 62
     1
 10
-574.95544280070499
 20
-117.2489490128483
 30
0.0
 11
-574.42861395116165
 21
-117.2489490128483
 31
0.0
  0
LINE
  5
186D
  8
\M+2BBB2\M+2A755\M+2BD75
  6
HIDDEN2
 62
     1
 10
-574.9905703438086
 20
-117.1603665128482
 30
0.0
 11
-574.42861395116165
 21
-117.1603665128482
 31
0.0
  0
LINE
  5
186E
  8
\M+2BBB2\M+2A755\M+2BD75
  6
HIDDEN2
 62
     1
 10
-574.40892895116178
 20
-117.1406815128483
 30
0.0
 11
-574.42861395116165
 21
-117.1603665128482
 31
0.0
  0
LINE
  5
1870
  8
\M+2BBB2\M+2A755\M+2BD75
  6
HIDDEN2
 62
     1
 10
-574.42861395116165
 20
-117.2489490128483
 30
0.0
 11
-574.40892895116178
 21
-117.2686340128483
 31
0.0
  0
LINE
  5
1877
  8
\M+2BBB2\M+2A755\M+2BD75
 10
-574.94829795116175
 20
-117.6869252197325
 30
0.0
 11
-574.73176295116173
 21
-117.6869252197325
 31
0.0
  0
LINE
  5
1878
  8
\M+2BBB2\M+2A755\M+2BD75
 10
-574.94829795116163
 20
-117.4310202197325
 30
0.0
 11
-574.73176295116173
 21
-117.4310202197325
 31
0.0
  0
LINE
  5
1879
  8
\M+2BBB2\M+2A755\M+2BD75
  6
HIDDEN2
 62
     1
 10
-574.94829795116175
 20
-117.60326396973269
 30
0.0
 11
-574.75144795116159
 21
-117.6032639697325
 31
0.0
  0
LINE
  5
187A
  8
\M+2BBB2\M+2A755\M+2BD75
  6
HIDDEN2
 62
     1
 10
-574.94829795116163
 20
-117.51468146973259
 30
0.0
 11
-574.75144795116159
 21
-117.51468146973259
 31
0.0
  0
LINE
  5
187B
  8
\M+2BBB2\M+2A755\M+2BD75
  6
HIDDEN2
 62
     1
 10
-574.73176295116173
 20
-117.4949964697325
 30
0.0
 11
-574.75144795116159
 21
-117.51468146973259
 31
0.0
  0
LINE
  5
187C
  8
\M+2BBB2\M+2A755\M+2BD75
 10
-574.73176295116173
 20
-117.4310202197325
 30
0.0
 11
-574.73176295116173
 21
-117.6869252197325
 31
0.0
  0
LINE
  5
187D
  8
\M+2BBB2\M+2A755\M+2BD75
  6
HIDDEN2
 62
     1
 10
-574.75144795116159
 20
-117.6032639697325
 30
0.0
 11
-574.73176295116173
 21
-117.62294896973251
 31
0.0
  0
LINE
  5
1882
  8
\M+2BBB2\M+2A755\M+2BD75
 10
-575.03884895116164
 20
-117.2842652830325
 30
0.0
 11
-575.03884895116164
 21
-118.9378052830324
 31
0.0
  0
LINE
  5
1884
  8
\M+2BBB2\M+2A755\M+2BD75
 10
-574.94829795116163
 20
-117.26696645952291
 30
0.0
 11
-574.94829795116175
 21
-118.9378052830324
 31
0.0
  0
LINE
  5
1886
  8
\M+2BBB2\M+2A755\M+2BD75
 10
-574.36168495116158
 20
-118.9378052830324
 30
0.0
 11
-574.36168495116158
 21
-121.2015802830324
 31
0.0
  0
LINE
  5
1888
  8
\M+2BBB2\M+2A755\M+2BD75
 10
-575.12939995116164
 20
-120.8196912830324
 30
0.0
 11
-575.12939995116164
 21
-120.8866202830241
 31
0.0
  0
LINE
  5
1889
  8
\M+2BBB2\M+2A755\M+2BD75
 10
-574.36168495116158
 20
-121.2015802830324
 30
0.0
 11
-574.95794983940993
 21
-121.1703313643748
 31
0.0
  0
LINE
  5
188A
  8
\M+2BBB2\M+2A755\M+2BD75
 10
-574.40892895116178
 20
-121.1084290626055
 30
0.0
 11
-574.93463056482165
 21
-121.08087820846821
 31
0.0
  0
LINE
  5
188B
  8
\M+2BBB2\M+2A755\M+2BD75
 10
-575.12939995116164
 20
-120.8196912830324
 30
0.0
 11
-575.03884895116164
 21
-120.5913452830325
 31
0.0
  0
LINE
  5
188C
  8
\M+2BBB2\M+2A755\M+2BD75
 10
-575.04522574243765
 20
-120.85307071062989
 30
0.0
 11
-574.94829795116163
 21
-120.6086441065419
 31
0.0
  0
LINE
  5
188D
  8
\M+2BBB2\M+2A755\M+2BD75
 10
-575.05853395116173
 20
-120.640985717815
 30
0.0
 11
-575.05853395116173
 21
-118.9378052830324
 31
0.0
  0
LINE
  5
188E
  8
\M+2BBB2\M+2A755\M+2BD75
 10
-575.03884895116164
 20
-120.5913452830325
 30
0.0
 11
-575.03884895116164
 21
-118.9378052830324
 31
0.0
  0
LINE
  5
188F
  8
\M+2BBB2\M+2A755\M+2BD75
 10
-574.94829795116163
 20
-120.6086441065419
 30
0.0
 11
-574.94829795116175
 21
-118.9378052830324
 31
0.0
  0
LINE
  5
1890
  8
\M+2BBB2\M+2A755\M+2BD75
 10
-575.00800205913617
 20
-121.1371123572662
 30
0.0
 11
-575.12939995116164
 21
-120.8866202830241
 31
0.0
  0
LINE
  5
1891
  8
\M+2BBB2\M+2A755\M+2BD75
 10
-574.93463056482165
 20
-121.08087820846821
 30
0.0
 11
-575.04513975035934
 21
-120.8528538610406
 31
0.0
  0
LINE
  5
1893
  8
\M+2BBB2\M+2A755\M+2BD75
 10
-574.40892895116178
 20
-121.1622102830236
 30
0.0
 11
-574.36168495116158
 21
-121.1622102830236
 31
0.0
  0
LINE
  5
1894
  8
\M+2BBB2\M+2A755\M+2BD75
 10
-574.94829795116163
 20
-120.5430003032166
 30
0.0
 11
-574.40892895116178
 21
-120.5430003032166
 31
0.0
  0
LINE
  5
1895
  8
\M+2BBB2\M+2A755\M+2BD75
 10
-575.02374635673971
 20
-120.7989053032167
 30
0.0
 11
-574.40892895116178
 21
-120.7989053032167
 31
0.0
  0
LINE
  5
1896
  8
\M+2BBB2\M+2A755\M+2BD75
  6
HIDDEN2
 62
     1
 10
-574.95544280070499
 20
-120.62666155321671
 30
0.0
 11
-574.42861395116165
 21
-120.62666155321671
 31
0.0
  0
LINE
  5
1897
  8
\M+2BBB2\M+2A755\M+2BD75
  6
HIDDEN2
 62
     1
 10
-574.9905703438086
 20
-120.71524405321669
 30
0.0
 11
-574.42861395116165
 21
-120.71524405321669
 31
0.0
  0
LINE
  5
1898
  8
\M+2BBB2\M+2A755\M+2BD75
  6
HIDDEN2
 62
     1
 10
-574.40892895116178
 20
-120.7349290532166
 30
0.0
 11
-574.42861395116165
 21
-120.71524405321669
 31
0.0
  0
LINE
  5
189A
  8
\M+2BBB2\M+2A755\M+2BD75
  6
HIDDEN2
 62
     1
 10
-574.42861395116165
 20
-120.62666155321671
 30
0.0
 11
-574.40892895116178
 21
-120.6069765532167
 31
0.0
  0
LINE
  5
189C
  8
\M+2BBB2\M+2A755\M+2BD75
 10
-574.94829795116175
 20
-120.18868534633241
 30
0.0
 11
-574.73176295116173
 21
-120.18868534633241
 31
0.0
  0
LINE
  5
189D
  8
\M+2BBB2\M+2A755\M+2BD75
 10
-574.94829795116163
 20
-120.4445903463323
 30
0.0
 11
-574.73176295116173
 21
-120.4445903463323
 31
0.0
  0
LINE
  5
189E
  8
\M+2BBB2\M+2A755\M+2BD75
  6
HIDDEN2
 62
     1
 10
-574.94829795116175
 20
-120.2723465963323
 30
0.0
 11
-574.75144795116159
 21
-120.2723465963323
 31
0.0
  0
LINE
  5
189F
  8
\M+2BBB2\M+2A755\M+2BD75
  6
HIDDEN2
 62
     1
 10
-574.94829795116163
 20
-120.3609290963324
 30
0.0
 11
-574.75144795116159
 21
-120.3609290963324
 31
0.0
  0
LINE
  5
18A0
  8
\M+2BBB2\M+2A755\M+2BD75
  6
HIDDEN2
 62
     1
 10
-574.73176295116173
 20
-120.38061409633239
 30
0.0
 11
-574.75144795116159
 21
-120.3609290963324
 31
0.0
  0
LINE
  5
18A1
  8
\M+2BBB2\M+2A755\M+2BD75
 10
-574.73176295116173
 20
-120.4445903463323
 30
0.0
 11
-574.73176295116173
 21
-120.18868534633241
 31
0.0
  0
LINE
  5
18A2
  8
\M+2BBB2\M+2A755\M+2BD75
  6
HIDDEN2
 62
     1
 10
-574.75144795116159
 20
-120.2723465963323
 30
0.0
 11
-574.73176295116173
 21
-120.2526615963322
 31
0.0
  0
INSERT
  5
18BF
  8
\M+2ADE5\M+2ADB1\M+2BD75
  6
CONTINUOUS
  2
*X45
 10
0.0
 20
0.0
 30
0.0
1001
ACAD
1000
HATCH
1002
{
1070
    19
1000
ANSI31
1040
0.019685
1040
0.0
1000
R14_HATCH_DATA
1000
18BF
1011
1.0
1021
0.0
1031
0.0
1021
0.0
1031
0.0
1011
0.0
1021
0.0
1031
0.0
1021
1.0
1031
0.0
1011
0.0
1021
0.0
1031
0.0
1021
0.0
1031
1.0
1040
0.0
1010
0.0
1020
0.0
1030
1.0
1000
ANSI31
1070
     0
1070
     0
1071
        1
1071
        7
1070
     1
1070
     1
1071
       26
1040
-575.03884895116175
1040
-118.9378052830324
1040
0.0
1040
-575.03884895116164
1040
-120.5913452830325
1040
0.0
1040
-575.12939995116164
1040
-120.8196912830324
1040
0.0
1040
-575.12939995116164
1040
-120.8866202830241
1040
0.0
1040
-575.01307350649449
1040
-121.1266479468309
1040
0.2733037285099985
1040
-574.94633721352579
1040
-121.1709399563092
1040
0.0
1040
-574.36168495116158
1040
-121.2015802830324
1040
0.0
1040
-574.36168495116158
1040
-121.1622102830236
1040
0.0
1040
-574.44042495116162
1040
-121.1622102830236
1040
0.0
1040
-574.44042495116162
1040
-121.1067784271893
1040
0.0
1040
-574.93463056482165
1040
-121.08087820846821
1040
0.0
1040
-575.04513975035934
1040
-120.8528538610406
1040
0.0
1040
-574.94829795116175
1040
-120.6086441065419
1040
0.0
1040
-574.94829795116175
1040
-118.9378052830324
1040
0.0
1040
-574.94829795116163
1040
-117.26696645952291
1040
0.0
1040
-575.04513975035934
1040
-117.02275670502431
1040
0.0
1040
-574.93463056482165
1040
-116.7947323575968
1040
0.0
1040
-574.44042495116162
1040
-116.76883213887569
1040
0.0
1040
-574.44042495116162
1040
-116.7134002830413
1040
0.0
1040
-574.36168495116158
1040
-116.7134002830413
1040
0.0
1040
-574.36168495116158
1040
-116.67403028303239
1040
0.0
1040
-574.94633721352579
1040
-116.70467060975579
1040
0.2733037285100006
1040
-575.01307350649449
1040
-116.74896261923401
1040
0.0
1040
-575.12939995116164
1040
-116.98899028304071
1040
0.0
1040
-575.12939995116164
1040
-117.0559192830324
1040
0.0
1040
-575.03884895116164
1040
-117.2842652830325
1040
0.0
1071
        0
1070
     0
1070
     1
1040
0.0
1040
0.019685
1070
     0
1070
     1
1040
0.7853981633974483
1040
-561.91316151203705
1040
-123.9232221311764
1040
-0.0441940854358116
1040
0.0441940854358116
1070
     0
1040
0.2352985528041625
1071
        1
1040
-575.01237117391463
1040
-117.95124466295491
1040
0.0
1002
}
  0
LINE
  5
18C0
  8
\M+2BBB2\M+2A755\M+2BD75
 10
-581.4018432233122
 20
-122.68062184448161
 30
0.0
 11
-579.76798822331239
 21
-122.68062184448161
 31
0.0
  0
LINE
  5
18C2
  8
\M+2BBB2\M+2A755\M+2BD75
 10
-581.4018432233122
 20
-122.68062184448161
 30
0.0
 11
-581.37660511455044
 21
-123.1621936475084
 31
0.0
  0
LINE
  5
18C3
  8
\M+2BBB2\M+2A755\M+2BD75
 10
-581.34954204934445
 20
-123.2087938016837
 30
0.0
 11
-581.08688322318221
 21
-123.37747084448161
 31
0.0
  0
ARC
  5
18C5
  8
\M+2BBB2\M+2A755\M+2BD75
 10
-579.71877572337735
 20
-112.05575245671341
 30
0.0
 40
11.39269067878913
 50
263.6012579134823
 51
269.75250119624661
  0
LINE
  5
18C7
  8
\M+2BBB2\M+2A755\M+2BD75
 10
-581.08688322318221
 20
-123.37747084448161
 30
0.0
 11
-580.98845822331225
 21
-123.37747084448161
 31
0.0
  0
DIMENSION
  5
18D2
  8
\M+2BBB2\M+2A755\M+2BD75
  2
*D1
 10
-574.36168495116158
 20
-119.4288382318292
 30
0.0
 11
-575.86413128449487
 21
-119.4288382318292
 31
0.0
 70
   128
 13
-574.94829795116175
 23
-119.29815930535641
 33
0.0
 14
-574.36168495116158
 24
-119.29815930535641
 34
0.0
  0
DIMENSION
  5
18EB
  8
\M+2BBB2\M+2A755\M+2BD75
  2
*D2
 10
-567.36904814039315
 20
-115.10811348121069
 30
0.0
 11
-569.05259647372668
 21
-115.10811348121069
 31
0.0
 70
   128
 13
-568.13676314039321
 23
-116.98899028304071
 33
0.0
 14
-567.36904814039315
 24
-116.67403028303239
 34
0.0
  0
DIMENSION
  5
1903
  8
\M+2BBB2\M+2A755\M+2BD75
  2
*D3
 10
-567.36904814039315
 20
-115.7808566624804
 30
0.0
 11
-568.98173047372666
 21
-115.7808566624804
 31
0.0
 70
   128
 13
-568.06589714039308
 23
-117.23462484824989
 33
0.0
 14
-567.36904814039315
 24
-116.67403028303239
 34
0.0
  0
LINE
  5
191C
  8
\M+2BBB2\M+2A755\M+2BD75
 10
-580.96877305804844
 20
-123.26723484448161
 30
0.0
 11
-579.76798822331239
 21
-123.26723484448161
 31
0.0
  0
LINE
  5
191E
  8
\M+2BBB2\M+2A755\M+2BD75
 10
-581.30869200288532
 20
-122.7278658444816
 30
0.0
 11
-581.28702339381709
 21
-123.1413275359489
 31
0.0
  0
LINE
  5
1920
  8
\M+2BBB2\M+2A755\M+2BD75
 10
-581.28702339381709
 20
-123.1413275359489
 30
0.0
 11
-581.06031142268466
 21
-123.2869198444816
 31
0.0
  0
LINE
  5
1922
  8
\M+2BBB2\M+2A755\M+2BD75
 10
-581.06031142268466
 20
-123.2869198444816
 30
0.0
 11
-580.98845805804842
 21
-123.2869198444816
 31
0.0
  0
DIMENSION
  5
1923
  8
\M+2BBB2\M+2A755\M+2BD75
  2
*D4
 10
-570.65134497146585
 20
-121.82657447335509
 30
0.0
 11
-571.85212997146596
 21
-121.82657447335509
 31
0.0
 70
     0
 13
-573.05291497146595
 23
-120.4929202830324
 33
0.0
 14
-570.65134497146585
 24
-120.4929202830324
 34
0.0
  0
LINE
  5
193E
  8
\M+2BBB2\M+2A755\M+2BD75
 10
-580.96877305804844
 20
-123.26723484448161
 30
0.0
 11
-580.98845805804842
 21
-123.2869198444816
 31
0.0
  0
ARC
  5
1940
  8
\M+2BBB2\M+2A755\M+2BD75
  6
HIDDEN2
 62
     1
 10
-579.71877572337735
 20
-112.05575245671341
 30
0.0
 40
11.30213967878913
 50
263.6012579134823
 51
269.75250119624661
  0
LINE
  5
1947
  8
\M+2BBB2\M+2A755\M+2BD75
 10
-580.98845822331225
 20
-123.37747084448161
 30
0.0
 11
-580.96877322331238
 21
-123.3577858444816
 31
0.0
  0
LINE
  5
1948
  8
\M+2BBB2\M+2A755\M+2BD75
 10
-580.96877322331238
 20
-123.3577858444816
 30
0.0
 11
-579.76798822331239
 21
-123.3577858444816
 31
0.0
  0
LINE
  5
194A
  8
\M+2BBB2\M+2A755\M+2BD75
 10
-578.13413322331223
 20
-122.68062184448161
 30
0.0
 11
-579.76798822331239
 21
-122.68062184448161
 31
0.0
  0
LINE
  5
194B
  8
\M+2BBB2\M+2A755\M+2BD75
 10
-578.56720338857633
 20
-123.26723484448161
 30
0.0
 11
-579.76798822331239
 21
-123.26723484448161
 31
0.0
  0
LINE
  5
194C
  8
\M+2BBB2\M+2A755\M+2BD75
 10
-578.56720322331216
 20
-123.3577858444816
 30
0.0
 11
-579.76798822331239
 21
-123.3577858444816
 31
0.0
  0
LINE
  5
194D
  8
\M+2BBB2\M+2A755\M+2BD75
 10
-578.47566502393988
 20
-123.2869198444816
 30
0.0
 11
-578.54751838857624
 21
-123.2869198444816
 31
0.0
  0
LINE
  5
194E
  8
\M+2BBB2\M+2A755\M+2BD75
 10
-578.13413322331223
 20
-122.68062184448161
 30
0.0
 11
-578.15937133207433
 21
-123.1621936475084
 31
0.0
  0
LINE
  5
194F
  8
\M+2BBB2\M+2A755\M+2BD75
 10
-578.22728444373922
 20
-122.7278658444816
 30
0.0
 11
-578.24895305280745
 21
-123.1413275359489
 31
0.0
  0
LINE
  5
1950
  8
\M+2BBB2\M+2A755\M+2BD75
 10
-578.1864343972801
 20
-123.2087938016837
 30
0.0
 11
-578.44909322344245
 21
-123.37747084448161
 31
0.0
  0
LINE
  5
1951
  8
\M+2BBB2\M+2A755\M+2BD75
 10
-578.24895305280745
 20
-123.1413275359489
 30
0.0
 11
-578.47566502393988
 21
-123.2869198444816
 31
0.0
  0
ARC
  5
1953
  8
\M+2BBB2\M+2A755\M+2BD75
 10
-579.8172007232472
 20
-112.05575245671341
 30
0.0
 40
11.39269067878913
 50
270.24749880375327
 51
276.39874208651747
  0
ARC
  5
1954
  8
\M+2BBB2\M+2A755\M+2BD75
  6
HIDDEN2
 62
     1
 10
-579.8172007232472
 20
-112.05575245671341
 30
0.0
 40
11.30213967878913
 50
270.24749880375327
 51
276.39874208651747
  0
LINE
  5
1955
  8
\M+2BBB2\M+2A755\M+2BD75
 10
-578.44909322344245
 20
-123.37747084448161
 30
0.0
 11
-578.54751822331241
 21
-123.37747084448161
 31
0.0
  0
LINE
  5
1956
  8
\M+2BBB2\M+2A755\M+2BD75
 10
-578.56720338857633
 20
-123.26723484448161
 30
0.0
 11
-578.54751838857624
 21
-123.2869198444816
 31
0.0
  0
LINE
  5
1957
  8
\M+2BBB2\M+2A755\M+2BD75
 10
-578.54751822331241
 20
-123.37747084448161
 30
0.0
 11
-578.56720322331216
 21
-123.3577858444816
 31
0.0
  0
LINE
  5
195C
  8
\M+2BBB2\M+2A755\M+2BD75
 10
-581.36247322331224
 20
-122.7278658444816
 30
0.0
 11
-581.36247322331224
 21
-122.68062184448161
 31
0.0
  0
LINE
  5
195E
  8
\M+2BBB2\M+2A755\M+2BD75
 10
-578.17350322331242
 20
-122.7278658444816
 30
0.0
 11
-578.17350322331242
 21
-122.68062184448161
 31
0.0
  0
DIMENSION
  5
1961
  8
\M+2BBB2\M+2A755\M+2BD75
  2
*D5
 10
-578.51884484732295
 20
-122.1268881728772
 30
0.0
 11
-579.91987251487024
 21
-122.1268881728772
 31
0.0
 70
   128
 13
-581.01879815544544
 23
-120.3168417468363
 33
0.0
 14
-578.51884484732295
 24
-120.3184025854892
 34
0.0
  0
DIMENSION
  5
1979
  8
\M+2BBB2\M+2A755\M+2BD75
  2
*D6
 10
-578.56827418864782
 20
-121.6799719316828
 30
0.0
 11
-579.80393641439957
 21
-121.6799719316828
 31
0.0
 70
   128
 13
-580.96981124583874
 23
-120.67118796385481
 33
0.0
 14
-578.56827418864782
 24
-120.6726873566049
 34
0.0
  0
LINE
  5
1993
  8
\M+2BBB2\M+2A755\M+2BD75
 10
-580.84082159780075
 20
-122.7278658444816
 30
0.0
 11
-580.8408207233108
 21
-123.2672365838809
 31
0.0
  0
LINE
  5
1994
  8
\M+2BBB2\M+2A755\M+2BD75
 10
-581.09672659780097
 20
-122.7278658444816
 30
0.0
 11
-581.09672607438517
 21
-123.0507000120384
 31
0.0
  0
LINE
  5
1995
  8
\M+2BBB2\M+2A755\M+2BD75
 10
-578.43924989988875
 20
-122.7593620519329
 30
0.0
 11
-578.43925037223926
 21
-123.0507000120384
 31
0.0
  0
LINE
  5
1996
  8
\M+2BBB2\M+2A755\M+2BD75
 10
-578.69515489988828
 20
-122.7593616370302
 30
0.0
 11
-578.69515572331375
 21
-123.2672365838809
 31
0.0
  0
DIMENSION
  5
1998
  8
\M+2BBB2\M+2A755\M+2BD75
  2
*D7
 10
-574.36168495116158
 20
-115.7872984261665
 30
0.0
 11
-573.31347066544743
 21
-115.7872984261665
 31
0.0
 70
   128
 13
-574.73176295116173
 23
-117.6869252197325
 33
0.0
 14
-574.36168495116158
 24
-117.6869252197325
 34
0.0
  0
LINE
  5
19B1
  8
\M+2BBB2\M+2A755\M+2BD75
 10
-580.8900335743856
 20
-123.05069963703031
 30
0.0
 11
-580.89003322331371
 21
-123.26723484448161
 31
0.0
  0
LINE
  5
19B2
  8
\M+2BBB2\M+2A755\M+2BD75
 10
-581.14593857438524
 20
-123.05070005193291
 30
0.0
 11
-581.14593828055274
 21
-123.231931076808
 31
0.0
  0
LINE
  5
19B3
  8
\M+2BBB2\M+2A755\M+2BD75
 10
-581.14593857438524
 20
-123.05070005193291
 30
0.0
 11
-580.89003357438526
 21
-123.0506998444816
 31
0.0
  0
LINE
  5
19B4
  8
\M+2BBB2\M+2A755\M+2BD75
 10
-578.39003787223919
 20
-123.05070005193291
 30
0.0
 11
-578.39003816607203
 21
-123.231931076808
 31
0.0
  0
LINE
  5
19B5
  8
\M+2BBB2\M+2A755\M+2BD75
 10
-578.64594287223906
 20
-123.05069963703031
 30
0.0
 11
-578.64594322331084
 21
-123.26723484448161
 31
0.0
  0
LINE
  5
19B6
  8
\M+2BBB2\M+2A755\M+2BD75
 10
-578.43924984882358
 20
-122.7278658444816
 30
0.0
 11
-578.43925037223926
 21
-123.0507000120384
 31
0.0
  0
LINE
  5
19B7
  8
\M+2BBB2\M+2A755\M+2BD75
 10
-578.6951548488239
 20
-122.7278658444816
 30
0.0
 11
-578.69515572331375
 21
-123.2672365838809
 31
0.0
  0
LINE
  5
19B8
  8
\M+2BBB2\M+2A755\M+2BD75
 10
-578.39003787223919
 20
-123.05070005193291
 30
0.0
 11
-578.64594287223952
 21
-123.0506998444816
 31
0.0
  0
INSERT
  5
19D8
  8
\M+2ADE5\M+2ADB1\M+2BD75
  6
CONTINUOUS
  2
*X46
 10
0.0
 20
0.0
 30
0.0
1001
ACAD
1000
HATCH
1002
{
1070
    19
1000
ANSI31
1040
0.011811
1040
0.0
1000
R14_HATCH_DATA
1000
19D8
1011
1.0
1021
0.0
1031
0.0
1021
0.0
1031
0.0
1011
0.0
1021
0.0
1031
0.0
1021
1.0
1031
0.0
1011
0.0
1021
0.0
1031
0.0
1021
0.0
1031
1.0
1040
0.0
1010
0.0
1020
0.0
1030
1.0
1000
ANSI31
1070
     0
1070
     0
1071
        1
1071
        7
1070
     1
1070
     1
1071
       30
1040
-581.28702339381709
1040
-123.1413275359489
1040
0.0
1040
-581.30704136746931
1040
-122.7593618444815
1040
0.0
1040
-581.36247322331224
1040
-122.7593618444815
1040
0.0
1040
-581.36247322331224
1040
-122.68062184448161
1040
0.0
1040
-581.4018432233122
1040
-122.68062184448161
1040
0.0
1040
-581.37713335346803
1040
-123.15211424851729
1040
0.2414257858470175
1040
-581.34104926652674
1040
-123.2142477874177
1040
0.0
1040
-581.08688322318221
1040
-123.37747084448161
1040
0.0
1040
-580.98845822331225
1040
-123.37747084448161
1040
0.0
1040
-580.96877322331238
1040
-123.3577858444816
1040
0.0
1040
-579.76818418896187
1040
-123.3577858444816
1040
0.0000043347433663
1040
-579.76798822331205
1040
-123.3577849928862
1040
0.0000043347433477
1040
-579.76779225766325
1040
-123.3577858444816
1040
0.0
1040
-578.56720322331216
1040
-123.3577858444816
1040
0.0
1040
-578.54751822331241
1040
-123.37747084448161
1040
0.0
1040
-578.44909322344245
1040
-123.37747084448161
1040
0.0
1040
-578.19492718009792
1040
-123.2142477874177
1040
0.2414257858470171
1040
-578.15884309315675
1040
-123.15211424851729
1040
0.0
1040
-578.13413322331223
1040
-122.68062184448161
1040
0.0
1040
-578.17350322331242
1040
-122.68062184448161
1040
0.0
1040
-578.17350322331242
1040
-122.7593618444815
1040
0.0
1040
-578.22893507915569
1040
-122.7593618444815
1040
0.0
1040
-578.24895305280745
1040
-123.1413275359489
1040
0.0
1040
-578.47566502393988
1040
-123.2869198444816
1040
0.0
1040
-578.54751838857624
1040
-123.2869198444816
1040
0.0
1040
-578.56720338857633
1040
-123.26723484448161
1040
0.0
1040
-579.76798822331239
1040
-123.26723484448161
1040
0.0
1040
-580.96877305804844
1040
-123.26723484448161
1040
0.0
1040
-580.98845805804842
1040
-123.2869198444816
1040
0.0
1040
-581.06031142268466
1040
-123.2869198444816
1040
0.0
1071
        0
1070
     0
1070
     1
1040
0.0
1040
0.011811
1070
     0
1070
     1
1040
0.7853981633974483
1040
-562.09656045016061
1040
-123.9232221311764
1040
-0.026516451261487
1040
0.026516451261487
1070
     0
1040
0.0992220037676867
1071
        1
1040
-581.17716023697915
1040
-123.25228261459949
1040
0.0
1002
}
  0
LINE
  5
19D9
  8
\M+2BBB2\M+2A755\M+2BD75
 10
-578.56721292359009
 20
-117.4244464595229
 30
0.0
 11
-578.56721292359009
 21
-117.44086271973249
 31
0.0
  0
LINE
  5
19DA
  8
\M+2BBB2\M+2A755\M+2BD75
 10
-580.9687829235902
 20
-117.4244464595229
 30
0.0
 11
-580.9687829235902
 21
-117.4408763573683
 31
0.0
  0
LINE
  5
19DB
  8
\M+2BBB2\M+2A755\M+2BD75
 10
-578.72469292359028
 20
-117.26696645952291
 30
0.0
 11
-580.81130292359012
 21
-117.26696645952291
 31
0.0
  0
ARC
  5
19DC
  8
\M+2BBB2\M+2A755\M+2BD75
 10
-578.72469292359028
 20
-117.4244464595229
 30
0.0
 40
0.15748
 50
359.99999999999972
 51
37.601300295706508
  0
ARC
  5
19DD
  8
\M+2BBB2\M+2A755\M+2BD75
 10
-580.81130292359012
 20
-117.4244464595229
 30
0.0
 40
0.15748
 50
90.000000000000057
 51
108.8190965426774
  0
ARC
  5
19DE
  8
\M+2BBB2\M+2A755\M+2BD75
 10
-578.72469292359028
 20
-117.4244464595229
 30
0.0
 40
0.15748
 50
71.155022106905903
 51
90.0
  0
ARC
  5
19DF
  8
\M+2BBB2\M+2A755\M+2BD75
 10
-580.81130292359012
 20
-117.4244464595229
 30
0.0
 40
0.15748
 50
142.42069550727501
 51
179.99999999999949
  0
LINE
  5
19E0
  8
\M+2BBB2\M+2A755\M+2BD75
 10
-580.96785678729259
 20
-120.45089877230301
 30
0.0
 11
-580.96786699462996
 21
-120.43422087238351
 31
0.0
  0
ARC
  5
19E1
  8
\M+2BBB2\M+2A755\M+2BD75
 10
-580.81037681678674
 20
-120.45080239019249
 30
0.0
 40
0.15748
 50
251.21597005938139
 51
270.03506660205892
  0
ARC
  5
19E2
  8
\M+2BBB2\M+2A755\M+2BD75
 10
-580.81037681678674
 20
-120.45080239019249
 30
0.0
 40
0.15748
 50
180.03506660205929
 51
217.61437109478391
  0
LINE
  5
19E3
  8
\M+2BBB2\M+2A755\M+2BD75
 10
-578.56628723707991
 20
-120.449428945119
 30
0.0
 11
-578.566294702145
 21
-120.4372316792906
 31
0.0
  0
ARC
  5
19E4
  8
\M+2BBB2\M+2A755\M+2BD75
 10
-578.72376720758575
 20
-120.44952532722949
 30
0.0
 40
0.15748
 50
322.43376630635231
 51
0.0350666020593304
  0
ARC
  5
19E5
  8
\M+2BBB2\M+2A755\M+2BD75
 10
-578.72376720758575
 20
-120.44952532722949
 30
0.0
 40
0.15748
 50
270.03506660205892
 51
288.88004449515307
  0
LINE
  5
19E6
  8
\M+2BBB2\M+2A755\M+2BD75
 10
-578.7236708254751
 20
-120.6070052977352
 30
0.0
 11
-580.81028043467632
 21
-120.6082823606982
 31
0.0
  0
LINE
  5
19E7
  8
\M+2BBB2\M+2A755\M+2BD75
 10
-580.9687829235902
 20
-117.6771306778457
 30
0.0
 11
-580.9687829235902
 21
-118.9376727576182
 31
0.0
  0
LINE
  5
19E8
  8
\M+2BBB2\M+2A755\M+2BD75
 10
-578.56721292359009
 20
-117.6770827197326
 30
0.0
 11
-578.56721292359009
 21
-118.93693784395739
 31
0.0
  0
LINE
  5
19E9
  8
\M+2BBB2\M+2A755\M+2BD75
 10
-580.96801071129323
 20
-120.1994003666811
 30
0.0
 11
-580.9687829235902
 21
-118.9376727576182
 31
0.0
  0
LINE
  5
19EA
  8
\M+2BBB2\M+2A755\M+2BD75
 10
-578.56644011994661
 20
-120.1996316619425
 30
0.0
 11
-578.56721292359009
 21
-118.93693784395739
 31
0.0
  0
POLYLINE
  5
19ED
  8
\M+2BBB2\M+2A755\M+2BD75
 66
     1
 10
0.0
 20
0.0
 30
0.0
  0
VERTEX
  5
6B7E
  8
\M+2BBB2\M+2A755\M+2BD75
 10
-578.51358882190823
 20
-120.55700955873201
 30
0.0
 42
0.0008085877689797
  0
VERTEX
  5
6B7F
  8
\M+2BBB2\M+2A755\M+2BD75
 10
-578.50853459831399
 20
-120.4459390156635
 30
0.0
 42
0.0008085877689797
  0
SEQEND
  5
6B80
  8
\M+2BBB2\M+2A755\M+2BD75
  0
POLYLINE
  5
19EE
  8
\M+2BBB2\M+2A755\M+2BD75
 66
     1
 10
0.0
 20
0.0
 30
0.0
  0
VERTEX
  5
6B81
  8
\M+2BBB2\M+2A755\M+2BD75
 10
-578.49833484081637
 20
-120.19210459702821
 30
0.0
 42
0.0091239905187613
  0
VERTEX
  5
6B82
  8
\M+2BBB2\M+2A755\M+2BD75
 10
-578.47548082344849
 20
-118.9378151144667
 30
0.0
 42
0.009110282607814
  0
VERTEX
  5
6B83
  8
\M+2BBB2\M+2A755\M+2BD75
 10
-578.49826609112074
 20
-117.6853942304725
 30
0.0
 42
0.009110282607814
  0
SEQEND
  5
6B84
  8
\M+2BBB2\M+2A755\M+2BD75
  0
POLYLINE
  5
19EF
  8
\M+2BBB2\M+2A755\M+2BD75
 66
     1
 10
0.0
 20
0.0
 30
0.0
  0
VERTEX
  5
6B85
  8
\M+2BBB2\M+2A755\M+2BD75
 10
-580.8610811623679
 20
-120.73863876966649
 30
0.0
 42
0.1111102876091297
  0
VERTEX
  5
6B86
  8
\M+2BBB2\M+2A755\M+2BD75
 10
-578.67756001258874
 20
-120.73923396389461
 30
0.0
  0
SEQEND
  5
6B87
  8
\M+2BBB2\M+2A755\M+2BD75
  0
POLYLINE
  5
19F0
  8
\M+2BBB2\M+2A755\M+2BD75
 66
     1
 10
0.0
 20
0.0
 30
0.0
  0
VERTEX
  5
6B88
  8
\M+2BBB2\M+2A755\M+2BD75
 10
-581.02750273449715
 20
-120.444497818214
 30
0.0
 42
0.0007998683905598
  0
VERTEX
  5
6B89
  8
\M+2BBB2\M+2A755\M+2BD75
 10
-581.02250283846251
 20
-120.5545884856283
 30
0.0
  0
SEQEND
  5
6B8A
  8
\M+2BBB2\M+2A755\M+2BD75
  0
POLYLINE
  5
19F1
  8
\M+2BBB2\M+2A755\M+2BD75
 66
     1
 10
0.0
 20
0.0
 30
0.0
  0
VERTEX
  5
6B8B
  8
\M+2BBB2\M+2A755\M+2BD75
 10
-581.03770357093549
 20
-117.6854226828694
 30
0.0
 42
0.0090920858003601
  0
VERTEX
  5
6B8C
  8
\M+2BBB2\M+2A755\M+2BD75
 10
-581.06051502372975
 20
-118.9378150512907
 30
0.0
 42
0.0090928154882657
  0
VERTEX
  5
6B8D
  8
\M+2BBB2\M+2A755\M+2BD75
 10
-581.03769982695155
 20
-120.1902930642261
 30
0.0
  0
SEQEND
  5
6B8E
  8
\M+2BBB2\M+2A755\M+2BD75
  0
POLYLINE
  5
19F2
  8
\M+2BBB2\M+2A755\M+2BD75
 66
     1
 10
0.0
 20
0.0
 30
0.0
  0
VERTEX
  5
6B8F
  8
\M+2BBB2\M+2A755\M+2BD75
 10
-581.02249268311323
 20
-117.3208063152788
 30
0.0
 42
0.0008035772143616
  0
VERTEX
  5
6B90
  8
\M+2BBB2\M+2A755\M+2BD75
 10
-581.02751566508005
 20
-117.4314087645764
 30
0.0
  0
SEQEND
  5
6B91
  8
\M+2BBB2\M+2A755\M+2BD75
  0
POLYLINE
  5
19F3
  8
\M+2BBB2\M+2A755\M+2BD75
 66
     1
 10
0.0
 20
0.0
 30
0.0
  0
VERTEX
  5
6B92
  8
\M+2BBB2\M+2A755\M+2BD75
 10
-578.50845986237266
 20
-117.4313764033775
 30
0.0
 42
0.0008050964998983
  0
VERTEX
  5
6B93
  8
\M+2BBB2\M+2A755\M+2BD75
 10
-578.51348603487941
 20
-117.3207838309182
 30
0.0
 42
0.0008050964998983
  0
SEQEND
  5
6B94
  8
\M+2BBB2\M+2A755\M+2BD75
  0
POLYLINE
  5
19F4
  8
\M+2BBB2\M+2A755\M+2BD75
 66
     1
 10
0.0
 20
0.0
 30
0.0
  0
VERTEX
  5
6B95
  8
\M+2BBB2\M+2A755\M+2BD75
 10
-578.67568801806033
 20
-117.13679764100949
 30
0.0
 42
0.111166950124738
  0
VERTEX
  5
6B96
  8
\M+2BBB2\M+2A755\M+2BD75
 10
-580.86029559233532
 20
-117.1367948863147
 30
0.0
  0
SEQEND
  5
6B97
  8
\M+2BBB2\M+2A755\M+2BD75
  0
DIMENSION
  5
1A39
  8
\M+2BBB2\M+2A755\M+2BD75
  2
*D8
 10
-578.13414290918922
 20
-115.2907248027464
 30
0.0
 11
-579.77081178650064
 21
-115.2907248027464
 31
0.0
 70
   128
 13
-581.40185292359013
 23
-118.9378052830324
 33
0.0
 14
-578.13414290918922
 24
-118.9368053185388
 34
0.0
  0
DIMENSION
  5
1A51
  8
\M+2BBB2\M+2A755\M+2BD75
  2
*D9
 10
-584.0096918636317
 20
-121.2015802830235
 30
0.0
 11
-584.0096918636317
 21
-119.3194622938553
 31
0.0
 70
   128
 13
-579.76799792358997
 23
-116.67403028303239
 33
0.0
 14
-579.76798822331239
 24
-121.2015802830235
 34
0.0
 50
90.0
  0
DIMENSION
  5
1A69
  8
\M+2BBB2\M+2A755\M+2BD75
  2
*D10
 10
-581.36247322331224
 20
-122.4082798729316
 30
0.0
 11
-582.83483879821563
 21
-122.4082798729316
 31
0.0
 70
   128
 13
-581.4018432233122
 23
-122.68062184448161
 33
0.0
 14
-581.36247322331224
 24
-122.68062184448161
 34
0.0
  0
POLYLINE
  5
1A9C
  8
\M+2BBB2\M+2A755\M+2BD75
 66
     1
 10
0.0
 20
0.0
 30
0.0
 70
     1
  0
VERTEX
  5
6B98
  8
\M+2BBB2\M+2A755\M+2BD75
 10
-577.92175177919205
 20
-131.2057159834302
 30
0.0
 42
0.012013593779292
  0
VERTEX
  5
6B99
  8
\M+2BBB2\M+2A755\M+2BD75
 10
-577.88172580724131
 20
-129.53809476409211
 30
0.0
 42
0.012013593779292
  0
VERTEX
  5
6B9A
  8
\M+2BBB2\M+2A755\M+2BD75
 10
-577.92175177919205
 20
-127.8704735447542
 30
0.0
 42
0.3347727633190029
  0
VERTEX
  5
6B9B
  8
\M+2BBB2\M+2A755\M+2BD75
 10
-578.30083273752234
 20
-127.4149987401107
 30
0.0
 42
0.1158082536982532
  0
VERTEX
  5
6B9C
  8
\M+2BBB2\M+2A755\M+2BD75
 10
-580.73030998990123
 20
-127.414994306089
 30
0.0
 42
0.3347842108065381
  0
VERTEX
  5
6B9D
  8
\M+2BBB2\M+2A755\M+2BD75
 10
-581.10939358319115
 20
-127.8704879670014
 30
0.0
 42
0.0119898540614773
  0
VERTEX
  5
6B9E
  8
\M+2BBB2\M+2A755\M+2BD75
 10
-581.14943580724139
 20
-129.53809476409211
 30
0.0
 42
0.0119898540614773
  0
VERTEX
  5
6B9F
  8
\M+2BBB2\M+2A755\M+2BD75
 10
-581.10939358319115
 20
-131.20570156118291
 30
0.0
 42
0.3347842108065375
  0
VERTEX
  5
6BA0
  8
\M+2BBB2\M+2A755\M+2BD75
 10
-580.73030998990123
 20
-131.66119522209539
 30
0.0
 42
0.1158082536982532
  0
VERTEX
  5
6BA1
  8
\M+2BBB2\M+2A755\M+2BD75
 10
-578.30083273752234
 20
-131.6611907880737
 30
0.0
 42
0.3347727633190019
  0
SEQEND
  5
6BA2
  8
\M+2BBB2\M+2A755\M+2BD75
  0
POLYLINE
  5
1A9D
  8
\M+2BBB2\M+2A755\M+2BD75
 66
     1
 10
0.0
 20
0.0
 30
0.0
 70
     1
  0
VERTEX
  5
6BA3
  8
\M+2BBB2\M+2A755\M+2BD75
 10
-578.01219838337931
 20
-131.20136910040921
 30
0.0
 42
0.012013593779292
  0
VERTEX
  5
6BA4
  8
\M+2BBB2\M+2A755\M+2BD75
 10
-577.97227680720391
 20
-129.5380973722005
 30
0.0
 42
0.012013593779292
  0
VERTEX
  5
6BA5
  8
\M+2BBB2\M+2A755\M+2BD75
 10
-578.01219838337931
 20
-127.87482042777501
 30
0.0
 42
0.3347727633190025
  0
VERTEX
  5
6BA6
  8
\M+2BBB2\M+2A755\M+2BD75
 10
-578.32152844537688
 20
-127.5031529871859
 30
0.0
 42
0.1158082536982532
  0
VERTEX
  5
6BA7
  8
\M+2BBB2\M+2A755\M+2BD75
 10
-580.70961460382625
 20
-127.5031486287067
 30
0.0
 42
0.3347842108065381
  0
VERTEX
  5
6BA8
  8
\M+2BBB2\M+2A755\M+2BD75
 10
-581.0189468159507
 20
-127.87483145601141
 30
0.0
 42
0.0119898540614773
  0
VERTEX
  5
6BA9
  8
\M+2BBB2\M+2A755\M+2BD75
 10
-581.05888480727845
 20
-129.53809735544101
 30
0.0
 42
0.0119898540614774
  0
VERTEX
  5
6BAA
  8
\M+2BBB2\M+2A755\M+2BD75
 10
-581.0189468159507
 20
-131.20135807217309
 30
0.0
 42
0.3347842108065375
  0
VERTEX
  5
6BAB
  8
\M+2BBB2\M+2A755\M+2BD75
 10
-580.70961460382625
 20
-131.57304089947769
 30
0.0
 42
0.1158082536982532
  0
VERTEX
  5
6BAC
  8
\M+2BBB2\M+2A755\M+2BD75
 10
-578.32152844537688
 20
-131.5730365409984
 30
0.0
 42
0.3347727633190018
  0
SEQEND
  5
6BAD
  8
\M+2BBB2\M+2A755\M+2BD75
  0
POLYLINE
  5
1A9E
  8
\M+2BBB2\M+2A755\M+2BD75
 66
     1
 10
0.0
 20
0.0
 30
0.0
 70
     1
  0
VERTEX
  5
6BAE
  8
\M+2BBB2\M+2A755\M+2BD75
 10
-577.9669750812858
 20
-131.2035425419198
 30
0.0
 42
0.012013593779292
  0
VERTEX
  5
6BAF
  8
\M+2BBB2\M+2A755\M+2BD75
 10
-577.92700130722278
 20
-129.5380960681463
 30
0.0
 42
0.012013593779292
  0
VERTEX
  5
6BB0
  8
\M+2BBB2\M+2A755\M+2BD75
 10
-577.9669750812858
 20
-127.8726469862647
 30
0.0
 42
0.3347727633190031
  0
VERTEX
  5
6BB1
  8
\M+2BBB2\M+2A755\M+2BD75
 10
-578.31118059144956
 20
-127.45907586364839
 30
0.0
 42
0.1158082536982532
  0
VERTEX
  5
6BB2
  8
\M+2BBB2\M+2A755\M+2BD75
 10
-580.71996229686374
 20
-127.45907146739781
 30
0.0
 42
0.3347842108065384
  0
VERTEX
  5
6BB3
  8
\M+2BBB2\M+2A755\M+2BD75
 10
-581.06417019957087
 20
-127.8726597115064
 30
0.0
 42
0.0119898540614773
  0
VERTEX
  5
6BB4
  8
\M+2BBB2\M+2A755\M+2BD75
 10
-581.10416030726003
 20
-129.5380960597665
 30
0.0
 42
0.0119898540614774
  0
VERTEX
  5
6BB5
  8
\M+2BBB2\M+2A755\M+2BD75
 10
-581.06417019957087
 20
-131.20352981667801
 30
0.0
 42
0.3347842108065377
  0
VERTEX
  5
6BB6
  8
\M+2BBB2\M+2A755\M+2BD75
 10
-580.71996229686374
 20
-131.6171180607864
 30
0.0
 42
0.1158082536982532
  0
VERTEX
  5
6BB7
  8
\M+2BBB2\M+2A755\M+2BD75
 10
-578.31118059144956
 20
-131.61711366453591
 30
0.0
 42
0.3347727633190018
  0
SEQEND
  5
6BB8
  8
\M+2BBB2\M+2A755\M+2BD75
  0
DIMENSION
  5
1A9F
  8
\M+2BBB2\M+2A755\M+2BD75
  2
*D11
 10
-578.56721292359009
 20
-116.05213763233949
 30
0.0
 11
-579.78737419762592
 21
-116.05213763233949
 31
0.0
 70
   128
 13
-580.96875044866965
 23
-117.20468734829539
 33
0.0
 14
-578.56721292359009
 24
-117.2046577628482
 34
0.0
  0
DIMENSION
  5
1AB7
  8
\M+2BBB2\M+2A755\M+2BD75
  2
*D12
 10
-578.51800042359014
 20
-115.72108855005941
 30
0.0
 11
-579.57206421345882
 21
-115.72108855005941
 31
0.0
 70
   128
 13
-581.01795421877523
 23
-117.5590035176069
 33
0.0
 14
-578.51800042359014
 24
-117.55897271973249
 34
0.0
  0
LINE
  5
1AFF
  8
\M+2A4E5\M+2A672
 62
     1
 10
-581.06717544866979
 20
-117.20468734829539
 30
0.0
 11
-580.87032544866963
 21
-117.20468734829539
 31
0.0
  0
LINE
  5
1B00
  8
\M+2A4E5\M+2A672
 62
     1
 10
-580.96875044866965
 20
-117.3031123482955
 30
0.0
 11
-580.96875044866965
 21
-117.1062623482955
 31
0.0
  0
LINE
  5
1B01
  8
\M+2A4E5\M+2A672
 62
     1
 10
-581.11637921877536
 20
-117.5590035176069
 30
0.0
 11
-580.91952921877544
 21
-117.5590035176069
 31
0.0
  0
LINE
  5
1B02
  8
\M+2A4E5\M+2A672
 62
     1
 10
-581.01795421877523
 20
-117.657428517607
 30
0.0
 11
-581.01795421877523
 21
-117.460578517607
 31
0.0
  0
LINE
  5
1B03
  8
\M+2A4E5\M+2A672
 62
     1
 10
-581.11722315544534
 20
-120.3168417468363
 30
0.0
 11
-580.92037315544553
 21
-120.3168417468363
 31
0.0
  0
LINE
  5
1B04
  8
\M+2A4E5\M+2A672
 62
     1
 10
-581.01879815544544
 20
-120.4152667468362
 30
0.0
 11
-581.01879815544544
 21
-120.2184167468363
 31
0.0
  0
LINE
  5
1B05
  8
\M+2A4E5\M+2A672
 62
     1
 10
-581.06823624583865
 20
-120.67118796385481
 30
0.0
 11
-580.87138624583872
 21
-120.67118796385481
 31
0.0
  0
LINE
  5
1B06
  8
\M+2A4E5\M+2A672
 62
     1
 10
-580.96981124583874
 20
-120.7696129638549
 30
0.0
 11
-580.96981124583874
 21
-120.5727629638549
 31
0.0
  0
DIMENSION
  5
1B07
  8
\M+2BBB2\M+2A755\M+2BD75
  2
*D13
 10
-583.12324390267941
 20
-120.67118796385481
 30
0.0
 11
-583.12324390267941
 21
-118.6866618566507
 31
0.0
 70
   128
  1
{\fTahoma|b0|i0|c0|p32;3.465 [}88{\fTahoma|b0|i0|c0|p32;]}
 13
-581.06717544866979
 23
-117.20468734829539
 33
0.0
 14
-581.06717544866979
 24
-120.67118796385481
 34
0.0
 50
90.0
  0
DIMENSION
  5
1B1F
  8
\M+2BBB2\M+2A755\M+2BD75
  2
*D14
 10
-582.41971370006195
 20
-117.5590035176069
 30
0.0
 11
-582.41971370006195
 21
-118.05386141944621
 31
0.0
 70
   128
  1
{\fTahoma|b0|i0|c0|p32;2.756 [}70{\fTahoma|b0|i0|c0|p32;]}
 13
-581.11722315544534
 23
-120.3168417468363
 33
0.0
 14
-581.11722315544534
 24
-117.5590035176069
 34
0.0
 50
90.0
  0
LINE
  5
1B45
  8
\M+2A4E5\M+2A672
 62
     1
 10
-580.81478966823215
 20
-131.27024231943849
 30
0.0
 11
-580.61793966823222
 21
-131.27024231943849
 31
0.0
  0
LINE
  5
1B46
  8
\M+2A4E5\M+2A672
 62
     1
 10
-580.71636466823225
 20
-131.36866731943871
 30
0.0
 11
-580.71636466823225
 21
-131.1718173194385
 31
0.0
  0
CIRCLE
  5
1B50
  8
\M+2BBB2\M+2A755\M+2BD75
 10
-580.76557640910926
 20
-130.91592736232201
 30
0.0
 40
0.1279525
  0
CIRCLE
  5
1B51
  8
\M+2BBB2\M+2A755\M+2BD75
 10
-580.76557640910926
 20
-130.91592736232201
 30
0.0
 40
0.0688975
  0
CIRCLE
  5
1B52
  8
\M+2BBB2\M+2A755\M+2BD75
 10
-580.76557640910926
 20
-130.91592736232201
 30
0.0
 40
0.04429125
  0
LINE
  5
1B54
  8
\M+2A4E5\M+2A672
 62
     1
 10
-580.76557640910926
 20
-131.01435236232189
 30
0.0
 11
-580.76557640910926
 21
-130.81750236232199
 31
0.0
  0
LINE
  5
1B58
  8
\M+2A4E5\M+2A672
 62
     1
 10
-578.2163696682386
 20
-131.2702478865545
 30
0.0
 11
-578.41321966823682
 21
-131.27024704305211
 31
0.0
  0
LINE
  5
1B59
  8
\M+2A4E5\M+2A672
 62
     1
 10
-578.31479508998882
 20
-131.3686724648025
 30
0.0
 11
-578.31479424648626
 21
-131.17182246480419
 31
0.0
  0
CIRCLE
  5
1B5A
  8
\M+2BBB2\M+2A755\M+2BD75
 10
-578.26558140912095
 20
-130.91593271856229
 30
0.0
 40
0.1279525
  0
CIRCLE
  5
1B5B
  8
\M+2BBB2\M+2A755\M+2BD75
 10
-578.26558140912095
 20
-130.91593271856229
 30
0.0
 40
0.0688975
  0
CIRCLE
  5
1B5C
  8
\M+2BBB2\M+2A755\M+2BD75
 10
-578.26558140912095
 20
-130.91593271856229
 30
0.0
 40
0.04429125
  0
LINE
  5
1B5D
  8
\M+2A4E5\M+2A672
 62
     1
 10
-578.26558183087229
 20
-131.0143577185614
 30
0.0
 11
-578.26558098736973
 21
-130.81750771856321
 31
0.0
  0
CIRCLE
  5
1B63
  8
\M+2BBB2\M+2A755\M+2BD75
 10
-580.76641975261498
 20
-128.16002749135939
 30
0.0
 40
0.1279525
  0
CIRCLE
  5
1B64
  8
\M+2BBB2\M+2A755\M+2BD75
 10
-580.76641975261498
 20
-128.16002749135939
 30
0.0
 40
0.0688975
  0
CIRCLE
  5
1B65
  8
\M+2BBB2\M+2A755\M+2BD75
 10
-580.76641975261498
 20
-128.16002749135939
 30
0.0
 40
0.04429125
  0
LINE
  5
1B66
  8
\M+2A4E5\M+2A672
 62
     1
 10
-580.76647999143415
 20
-128.0616025097932
 30
0.0
 11
-580.76635951379603
 21
-128.2584524729254
 31
0.0
  0
LINE
  5
1B6A
  8
\M+2A4E5\M+2A672
 62
     1
 10
-578.21743034313147
 20
-127.8041468485392
 30
0.0
 11
-578.41428030574559
 21
-127.8042681696795
 31
0.0
  0
CIRCLE
  5
1B6C
  8
\M+2BBB2\M+2A755\M+2BD75
 10
-578.26642522412624
 20
-128.1584920691171
 30
0.0
 40
0.1279525
  0
CIRCLE
  5
1B6D
  8
\M+2BBB2\M+2A755\M+2BD75
 10
-578.26642522412624
 20
-128.1584920691171
 30
0.0
 40
0.0688975
  0
CIRCLE
  5
1B6E
  8
\M+2BBB2\M+2A755\M+2BD75
 10
-578.26642522412624
 20
-128.1584920691171
 30
0.0
 40
0.04429125
  0
LINE
  5
1B6F
  8
\M+2A4E5\M+2A672
 62
     1
 10
-578.26648588469618
 20
-128.06006708781001
 30
0.0
 11
-578.26636456355618
 21
-128.25691705042411
 31
0.0
  0
POLYLINE
  5
1B70
  8
\M+2BBB2\M+2A755\M+2BD75
 66
     1
 10
0.0
 20
0.0
 30
0.0
 70
     1
  0
VERTEX
  5
6BB9
  8
\M+2BBB2\M+2A755\M+2BD75
 10
-570.72725243045068
 20
-131.2057159834302
 30
0.0
 42
0.012013593779292
  0
VERTEX
  5
6BBA
  8
\M+2BBB2\M+2A755\M+2BD75
 10
-570.68722645850005
 20
-129.53809476409211
 30
0.0
 42
0.012013593779292
  0
VERTEX
  5
6BBB
  8
\M+2BBB2\M+2A755\M+2BD75
 10
-570.72725243045068
 20
-127.8704735447542
 30
0.0
 42
0.3347727633190029
  0
VERTEX
  5
6BBC
  8
\M+2BBB2\M+2A755\M+2BD75
 10
-571.10633338878097
 20
-127.4149987401107
 30
0.0
 42
0.1158082536982532
  0
VERTEX
  5
6BBD
  8
\M+2BBB2\M+2A755\M+2BD75
 10
-573.53581064115997
 20
-127.414994306089
 30
0.0
 42
0.3347842108065381
  0
VERTEX
  5
6BBE
  8
\M+2BBB2\M+2A755\M+2BD75
 10
-573.91489423445
 20
-127.8704879670014
 30
0.0
 42
0.0119898540614773
  0
VERTEX
  5
6BBF
  8
\M+2BBB2\M+2A755\M+2BD75
 10
-573.95493645850024
 20
-129.53809476409211
 30
0.0
 42
0.0119898540614773
  0
VERTEX
  5
6BC0
  8
\M+2BBB2\M+2A755\M+2BD75
 10
-573.91489423445
 20
-131.20570156118291
 30
0.0
 42
0.3347842108065375
  0
VERTEX
  5
6BC1
  8
\M+2BBB2\M+2A755\M+2BD75
 10
-573.53581064115997
 20
-131.66119522209539
 30
0.0
 42
0.1158082536982532
  0
VERTEX
  5
6BC2
  8
\M+2BBB2\M+2A755\M+2BD75
 10
-571.10633338878097
 20
-131.6611907880737
 30
0.0
 42
0.3347727633190019
  0
SEQEND
  5
6BC3
  8
\M+2BBB2\M+2A755\M+2BD75
  0
CIRCLE
  5
1B79
  8
\M+2BBB2\M+2A755\M+2BD75
 10
-573.52292552275514
 20
-127.805682481657
 30
0.0
 40
0.11811
  0
CIRCLE
  5
1B7A
  8
\M+2BBB2\M+2A755\M+2BD75
 10
-571.12135597569727
 20
-127.8042075091094
 30
0.0
 40
0.11811
  0
CIRCLE
  5
1B7B
  8
\M+2BBB2\M+2A755\M+2BD75
 10
-571.12029531949634
 20
-131.27024746480339
 30
0.0
 40
0.11811
  0
CIRCLE
  5
1B7C
  8
\M+2BBB2\M+2A755\M+2BD75
 10
-573.52186531949098
 20
-131.27024231943849
 30
0.0
 40
0.11811
  0
POLYLINE
  5
1B87
  8
\M+2BBB2\M+2A755\M+2BD75
 66
     1
 10
0.0
 20
0.0
 30
0.0
 70
     1
  0
VERTEX
  5
6BC4
  8
\M+2BBB2\M+2A755\M+2BD75
 10
-573.50218145850022
 20
-130.81736079705641
 30
0.0
  0
VERTEX
  5
6BC5
  8
\M+2BBB2\M+2A755\M+2BD75
 10
-573.50218145850022
 20
-128.25831067723601
 30
0.0
 42
-0.4141239358368983
  0
VERTEX
  5
6BC6
  8
\M+2BBB2\M+2A755\M+2BD75
 10
-573.10860193614383
 20
-127.8646106956699
 30
0.0
  0
VERTEX
  5
6BC7
  8
\M+2BBB2\M+2A755\M+2BD75
 10
-571.53380193614373
 20
-127.86412878507269
 30
0.0
 42
-0.4143031945897812
  0
VERTEX
  5
6BC8
  8
\M+2BBB2\M+2A755\M+2BD75
 10
-571.13998145850019
 20
-128.2578287666388
 30
0.0
  0
VERTEX
  5
6BC9
  8
\M+2BBB2\M+2A755\M+2BD75
 10
-571.13998145850019
 20
-130.81687888645911
 30
0.0
 42
-0.4141239358368984
  0
VERTEX
  5
6BCA
  8
\M+2BBB2\M+2A755\M+2BD75
 10
-571.53356098085646
 20
-131.21057886802521
 30
0.0
  0
VERTEX
  5
6BCB
  8
\M+2BBB2\M+2A755\M+2BD75
 10
-573.10836098085645
 20
-131.2110607786224
 30
0.0
 42
-0.4143031945897813
  0
SEQEND
  5
6BCC
  8
\M+2BBB2\M+2A755\M+2BD75
  0
POLYLINE
  5
1B88
  8
\M+2BBB2\M+2A755\M+2BD75
 66
     1
 10
0.0
 20
0.0
 30
0.0
 70
     1
  0
VERTEX
  5
6BCD
  8
\M+2BBB2\M+2A755\M+2BD75
 10
-573.46281145850025
 20
-130.81736079705641
 30
0.0
  0
VERTEX
  5
6BCE
  8
\M+2BBB2\M+2A755\M+2BD75
 10
-573.46281145850025
 20
-128.25831067723601
 30
0.0
 42
-0.4141239358368984
  0
VERTEX
  5
6BCF
  8
\M+2BBB2\M+2A755\M+2BD75
 10
-573.10858988837958
 20
-127.9039806938264
 30
0.0
  0
VERTEX
  5
6BD0
  8
\M+2BBB2\M+2A755\M+2BD75
 10
-571.53378988837926
 20
-127.9034987832293
 30
0.0
 42
-0.4143031945897814
  0
VERTEX
  5
6BD1
  8
\M+2BBB2\M+2A755\M+2BD75
 10
-571.17935145850026
 20
-128.2578287666388
 30
0.0
  0
VERTEX
  5
6BD2
  8
\M+2BBB2\M+2A755\M+2BD75
 10
-571.17935145850026
 20
-130.81687888645911
 30
0.0
 42
-0.4141239358368989
  0
VERTEX
  5
6BD3
  8
\M+2BBB2\M+2A755\M+2BD75
 10
-571.53357302862094
 20
-131.17120886986871
 30
0.0
  0
VERTEX
  5
6BD4
  8
\M+2BBB2\M+2A755\M+2BD75
 10
-573.10837302862092
 20
-131.17169078046581
 30
0.0
 42
-0.4143031945897809
  0
SEQEND
  5
6BD5
  8
\M+2BBB2\M+2A755\M+2BD75
  0
LINE
  5
1B8A
  8
\M+2BBB2\M+2A755\M+2BD75
 10
-576.83166163716021
 20
-127.47353197401689
 30
0.0
 11
-576.83166163716021
 21
-129.53665519063131
 31
0.0
  0
LINE
  5
1B8B
  8
\M+2BBB2\M+2A755\M+2BD75
 10
-576.35922163716032
 20
-127.27431976410099
 30
0.0
 11
-576.35922163716032
 21
-129.536510617452
 31
0.0
  0
LINE
  5
1B8C
  8
\M+2BBB2\M+2A755\M+2BD75
 10
-576.35922163716032
 20
-127.27431976410099
 30
0.0
 11
-576.57949503592272
 21
-127.2858638037652
 31
0.0
  0
POLYLINE
  5
1B8E
  8
\M+2BBB2\M+2A755\M+2BD75
 66
     1
 10
0.0
 20
0.0
 30
0.0
 70
     1
  0
VERTEX
  5
6BD6
  8
\M+2BBB2\M+2A755\M+2BD75
 10
-570.89438202514475
 20
-131.1976836995872
 30
0.0
 42
0.012013593779292
  0
VERTEX
  5
6BD7
  8
\M+2BBB2\M+2A755\M+2BD75
 10
-570.85454895843077
 20
-129.53809958342271
 30
0.0
 42
0.012013593779292
  0
VERTEX
  5
6BD8
  8
\M+2BBB2\M+2A755\M+2BD75
 10
-570.89438202514475
 20
-127.878505828597
 30
0.0
 42
0.3347727633190022
  0
VERTEX
  5
6BD9
  8
\M+2BBB2\M+2A755\M+2BD75
 10
-571.14457545764265
 20
-127.5778924575323
 30
0.0
 42
0.1158082536982532
  0
VERTEX
  5
6BDA
  8
\M+2BBB2\M+2A755\M+2BD75
 10
-573.49756916689114
 20
-127.5778881631002
 30
0.0
 42
0.3347842108065379
  0
VERTEX
  5
6BDB
  8
\M+2BBB2\M+2A755\M+2BD75
 10
-573.74776433846228
 20
-127.8785139793024
 30
0.0
 42
0.0119898540614773
  0
VERTEX
  5
6BDC
  8
\M+2BBB2\M+2A755\M+2BD75
 10
-573.78761395856861
 20
-129.53809955245401
 30
0.0
 42
0.0119898540614774
  0
VERTEX
  5
6BDD
  8
\M+2BBB2\M+2A755\M+2BD75
 10
-573.74776433846228
 20
-131.19767554888199
 30
0.0
 42
0.3347842108065379
  0
VERTEX
  5
6BDE
  8
\M+2BBB2\M+2A755\M+2BD75
 10
-573.49756916689114
 20
-131.4983013650843
 30
0.0
 42
0.1158082536982532
  0
VERTEX
  5
6BDF
  8
\M+2BBB2\M+2A755\M+2BD75
 10
-571.14457545764265
 20
-131.49829707065189
 30
0.0
 42
0.3347727633190018
  0
SEQEND
  5
6BE0
  8
\M+2BBB2\M+2A755\M+2BD75
  0
LINE
  5
1B91
  8
\M+2BBB2\M+2A755\M+2BD75
 10
-576.8049963440485
 20
-127.4241518169425
 30
0.0
 11
-576.60879404291484
 21
-127.2954577138658
 31
0.0
  0
ARC
  5
1B92
  8
\M+2BBB2\M+2A755\M+2BD75
 10
-576.77260663716027
 20
-127.47353197401689
 30
0.0
 40
0.059055
 50
123.26189251594801
 51
180.0
  0
ARC
  5
1B93
  8
\M+2BBB2\M+2A755\M+2BD75
 10
-576.57640433602671
 20
-127.3448378709403
 30
0.0
 40
0.059055
 50
92.999999999999943
 51
123.26189251594811
  0
LINE
  5
1B9A
  8
\M+2BBB2\M+2A755\M+2BD75
 10
-576.83166163716021
 20
-131.5994892608872
 30
0.0
 11
-576.83166163716021
 21
-129.53636604427291
 31
0.0
  0
ARC
  5
1B9B
  8
\M+2BBB2\M+2A755\M+2BD75
 10
-576.77260663716027
 20
-131.5994892608872
 30
0.0
 40
0.059055
 50
180.0
 51
236.73810748405191
  0
LINE
  5
1B9C
  8
\M+2BBB2\M+2A755\M+2BD75
 10
-576.35922163716032
 20
-131.798701470803
 30
0.0
 11
-576.35922163716032
 21
-129.536510617452
 31
0.0
  0
LINE
  5
1B9D
  8
\M+2BBB2\M+2A755\M+2BD75
 10
-576.35922163716032
 20
-131.798701470803
 30
0.0
 11
-576.57949503592272
 21
-131.78715743113881
 31
0.0
  0
LINE
  5
1B9E
  8
\M+2BBB2\M+2A755\M+2BD75
 10
-576.8049963440485
 20
-131.64886941796169
 30
0.0
 11
-576.60879404291484
 21
-131.7775635210383
 31
0.0
  0
ARC
  5
1B9F
  8
\M+2BBB2\M+2A755\M+2BD75
 10
-576.57640433602671
 20
-131.72818336396401
 30
0.0
 40
0.059055
 50
236.7381074840518
 51
267.0
  0
LINE
  5
1BA1
  8
\M+2BBB2\M+2A755\M+2BD75
 10
-576.35922163716032
 20
-127.319595264101
 30
0.0
 11
-576.29229263716024
 21
-127.319595264101
 31
0.0
  0
LINE
  5
1BA3
  8
\M+2BBB2\M+2A755\M+2BD75
 10
-576.35922163716032
 20
-131.7565942640922
 30
0.0
 11
-576.29229263716024
 21
-131.7565942640922
 31
0.0
  0
LINE
  5
1BA4
  8
\M+2BBB2\M+2A755\M+2BD75
 10
-568.40822994756149
 20
-127.47353197401689
 30
0.0
 11
-568.40822994756149
 21
-129.53665519063131
 31
0.0
  0
ARC
  5
1BA5
  8
\M+2BBB2\M+2A755\M+2BD75
 10
-568.34917494756144
 20
-127.47353197401689
 30
0.0
 40
0.059055
 50
123.26189251594801
 51
180.0
  0
LINE
  5
1BA6
  8
\M+2BBB2\M+2A755\M+2BD75
 10
-567.93578994756149
 20
-127.27431976410099
 30
0.0
 11
-567.93578994756149
 21
-127.319595264101
 31
0.0
  0
LINE
  5
1BA7
  8
\M+2BBB2\M+2A755\M+2BD75
 10
-567.93578994756149
 20
-127.27431976410099
 30
0.0
 11
-568.15606334632389
 21
-127.2858638037652
 31
0.0
  0
LINE
  5
1BA8
  8
\M+2BBB2\M+2A755\M+2BD75
 10
-568.38156465444979
 20
-127.4241518169425
 30
0.0
 11
-568.18536235331612
 21
-127.2954577138658
 31
0.0
  0
ARC
  5
1BA9
  8
\M+2BBB2\M+2A755\M+2BD75
 10
-568.152972646428
 20
-127.3448378709403
 30
0.0
 40
0.059055
 50
92.999999999999943
 51
123.26189251594811
  0
LINE
  5
1BAA
  8
\M+2BBB2\M+2A755\M+2BD75
 10
-568.40822994756149
 20
-129.53665519063131
 30
0.0
 11
-568.40822994756149
 21
-129.53636604427291
 31
0.0
  0
LINE
  5
1BB0
  8
\M+2BBB2\M+2A755\M+2BD75
 10
-567.93578994756149
 20
-127.319595264101
 30
0.0
 11
-567.86886094756153
 21
-127.319595264101
 31
0.0
  0
LINE
  5
1BB3
  8
\M+2BBB2\M+2A755\M+2BD75
 10
-568.31767894756149
 20
-127.4905398193056
 30
0.0
 11
-568.31767894756149
 21
-127.6467275091093
 31
0.0
  0
LINE
  5
1BB4
  8
\M+2BBB2\M+2A755\M+2BD75
 10
-568.31767894756149
 20
-129.53665519063131
 30
0.0
 11
-568.31767894756149
 21
-129.53636604427291
 31
0.0
  0
LINE
  5
1BB5
  8
\M+2BBB2\M+2A755\M+2BD75
 10
-567.93578994756149
 20
-127.3649950314035
 30
0.0
 11
-568.14281941915669
 21
-127.375844986256
 31
0.0
  0
LINE
  5
1BB6
  8
\M+2BBB2\M+2A755\M+2BD75
 10
-568.31767894756149
 20
-127.4905398193056
 30
0.0
 11
-568.14281941915669
 21
-127.375844986256
 31
0.0
  0
LINE
  5
1BBA
  8
\M+2BBB2\M+2A755\M+2BD75
 10
-567.93578994756149
 20
-127.3649950314035
 30
0.0
 11
-567.86886094756153
 21
-127.3649950314035
 31
0.0
  0
LINE
  5
1BBE
  8
\M+2BBB2\M+2A755\M+2BD75
 10
-568.40822994756149
 20
-127.8643697403712
 30
0.0
 11
-568.38854494756151
 21
-127.8643697403712
 31
0.0
  0
LINE
  5
1BC0
  8
\M+2BBB2\M+2A755\M+2BD75
 10
-568.40822994756149
 20
-127.9037397385279
 30
0.0
 11
-568.38854494756151
 21
-127.9037397385279
 31
0.0
  0
LINE
  5
1BC1
  8
\M+2BBB2\M+2A755\M+2BD75
 10
-568.38854494756151
 20
-127.9037397385279
 30
0.0
 11
-568.38854494756151
 21
-127.8643697403712
 31
0.0
  0
DIMENSION
  5
1BDF
  8
\M+2BBB2\M+2A755\M+2BD75
  2
*D15
 10
-582.33909506633051
 20
-130.91592736232201
 30
0.0
 11
-582.33909506633051
 21
-128.7532508576098
 31
0.0
 70
   128
 13
-580.63846725261487
 23
-128.16002749135939
 33
0.0
 14
-580.63762390910915
 24
-130.91592736232201
 34
0.0
 50
90.0
  0
DIMENSION
  5
1BF7
  8
\M+2BBB2\M+2A755\M+2BD75
  2
*D16
 10
-583.19224697888603
 20
-131.27024231943849
 30
0.0
 11
-583.19224697888603
 21
-129.616826482953
 31
0.0
 70
   128
 13
-580.84537737149651
 23
-127.805682481657
 33
0.0
 14
-580.84537737149651
 24
-131.27024231943849
 34
0.0
 50
90.0
  0
LINE
  5
1C16
  8
\M+2BBB2\M+2A755\M+2BD75
 10
-567.86886094756153
 20
-127.9323276906312
 30
0.0
 11
-567.86886094756153
 21
-127.6764226906313
 31
0.0
  0
LINE
  5
1C1C
  8
\M+2BBB2\M+2A755\M+2BD75
 10
-568.31767894756149
 20
-128.0307526906312
 30
0.0
 11
-568.10114394756135
 21
-128.0307526906312
 31
0.0
  0
LINE
  5
1C1D
  8
\M+2BBB2\M+2A755\M+2BD75
 10
-568.31767894756149
 20
-128.2866576906313
 30
0.0
 11
-568.10114394756135
 21
-128.2866576906313
 31
0.0
  0
LINE
  5
1C1E
  8
\M+2BBB2\M+2A755\M+2BD75
  6
HIDDEN2
 62
     1
 10
-568.31767894756149
 20
-128.11441394063121
 30
0.0
 11
-568.12082894756145
 21
-128.11441394063121
 31
0.0
  0
LINE
  5
1C1F
  8
\M+2BBB2\M+2A755\M+2BD75
  6
HIDDEN2
 62
     1
 10
-568.31767894756149
 20
-128.20299644063121
 30
0.0
 11
-568.12082894756145
 21
-128.20299644063121
 31
0.0
  0
LINE
  5
1C20
  8
\M+2BBB2\M+2A755\M+2BD75
  6
HIDDEN2
 62
     1
 10
-568.10114394756135
 20
-128.22268144063131
 30
0.0
 11
-568.12082894756145
 21
-128.20299644063121
 31
0.0
  0
LINE
  5
1C21
  8
\M+2BBB2\M+2A755\M+2BD75
 10
-568.10114394756135
 20
-128.2866576906313
 30
0.0
 11
-568.10114394756135
 21
-128.0307526906312
 31
0.0
  0
LINE
  5
1C22
  8
\M+2BBB2\M+2A755\M+2BD75
  6
HIDDEN2
 62
     1
 10
-568.12082894756145
 20
-128.11441394063121
 30
0.0
 11
-568.10114394756135
 21
-128.0947289406312
 31
0.0
  0
LINE
  5
1C26
  8
\M+2BBB2\M+2A755\M+2BD75
 62
     1
 10
-571.21978097569729
 20
-127.8042075091094
 30
0.0
 11
-571.02293097569725
 21
-127.8042075091094
 31
0.0
  0
LINE
  5
1C27
  8
\M+2BBB2\M+2A755\M+2BD75
 62
     1
 10
-571.12135597569727
 20
-127.9026325091094
 30
0.0
 11
-571.12135597569727
 21
-127.7057825091094
 31
0.0
  0
CIRCLE
  5
1C28
  8
\M+2BBB2\M+2A755\M+2BD75
 10
-571.12135597569727
 20
-127.8042075091094
 30
0.0
 40
0.059055
  0
LINE
  5
1C29
  8
\M+2BBB2\M+2A755\M+2BD75
 62
     1
 10
-573.62135052275517
 20
-127.805682481657
 30
0.0
 11
-573.42450052275524
 21
-127.805682481657
 31
0.0
  0
LINE
  5
1C2A
  8
\M+2BBB2\M+2A755\M+2BD75
 62
     1
 10
-573.52292552275514
 20
-127.90410748165699
 30
0.0
 11
-573.52292552275514
 21
-127.707257481657
 31
0.0
  0
LINE
  5
1C2B
  8
\M+2BBB2\M+2A755\M+2BD75
 62
     1
 10
-573.62029031949066
 20
-131.27024231943849
 30
0.0
 11
-573.42344031949096
 21
-131.27024231943849
 31
0.0
  0
LINE
  5
1C2C
  8
\M+2BBB2\M+2A755\M+2BD75
 62
     1
 10
-573.52186531949098
 20
-131.36866731943871
 30
0.0
 11
-573.52186531949098
 21
-131.1718173194385
 31
0.0
  0
LINE
  5
1C2D
  8
\M+2BBB2\M+2A755\M+2BD75
 62
     1
 10
-571.21872031949636
 20
-131.27024746480339
 30
0.0
 11
-571.02187031949643
 21
-131.27024746480339
 31
0.0
  0
LINE
  5
1C2E
  8
\M+2BBB2\M+2A755\M+2BD75
 62
     1
 10
-571.12029531949634
 20
-131.36867246480341
 30
0.0
 11
-571.12029531949634
 21
-131.1718224648034
 31
0.0
  0
CIRCLE
  5
1C2F
  8
\M+2BBB2\M+2A755\M+2BD75
 10
-573.52186531949098
 20
-131.27024231943849
 30
0.0
 40
0.059055
  0
CIRCLE
  5
1C30
  8
\M+2BBB2\M+2A755\M+2BD75
 10
-571.12029531949634
 20
-131.27024746480339
 30
0.0
 40
0.059055
  0
CIRCLE
  5
1C31
  8
\M+2BBB2\M+2A755\M+2BD75
 10
-573.52292552275514
 20
-127.805682481657
 30
0.0
 40
0.059055
  0
LINE
  5
1CD2
  8
\M+2BBB2\M+2A755\M+2BD75
 10
-581.36247322331224
 20
-122.7278658444816
 30
0.0
 11
-578.17350322331242
 21
-122.7278658444816
 31
0.0
  0
DIMENSION
  5
1CD4
  8
\M+2BBB2\M+2A755\M+2BD75
  2
*D17
 10
-577.92746520548337
 20
-122.68062184448161
 30
0.0
 11
-577.07115568167364
 21
-122.23044464210049
 31
0.0
 70
   128
 13
-578.17350322331242
 23
-122.7278658444816
 33
0.0
 14
-578.13413322331223
 24
-122.68062184448161
 34
0.0
 50
90.0
  0
LINE
  5
1CF0
  8
\M+2BBB2\M+2A755\M+2BD75
 10
-574.40892895116178
 20
-118.9378052830324
 30
0.0
 11
-574.40892895116178
 21
-121.1622102830236
 31
0.0
  0
LINE
  5
1CF1
  8
\M+2BBB2\M+2A755\M+2BD75
 10
-574.40892895116178
 20
-118.9378052830324
 30
0.0
 11
-574.40892895116178
 21
-116.7134002830413
 31
0.0
  0
LINE
  5
1D76
  8
\M+2BBB2\M+2A755\M+2BD75
 10
-576.29229263716024
 20
-127.319595264101
 30
0.0
 11
-576.29229263716024
 21
-131.7565942640922
 31
0.0
  0
LINE
  5
1D77
  8
\M+2BBB2\M+2A755\M+2BD75
 10
-567.86886094756153
 20
-127.319595264101
 30
0.0
 11
-567.86886094756153
 21
-129.53665519063131
 31
0.0
  0
LINE
  5
1D78
  8
\M+2BBB2\M+2A755\M+2BD75
  6
HIDDEN2
 62
     1
 10
-567.94760094756157
 20
-127.9124750091094
 30
0.0
 11
-567.94760094756157
 21
-127.69594000910929
 31
0.0
  0
LINE
  5
1D7E
  8
\M+2BBB2\M+2A755\M+2BD75
 10
-568.31767894756149
 20
-127.6467275091093
 30
0.0
 11
-567.86886094756153
 21
-127.6467275091093
 31
0.0
  0
LINE
  5
1D7F
  8
\M+2BBB2\M+2A755\M+2BD75
 10
-568.31767894756149
 20
-127.9616875091093
 30
0.0
 11
-567.86886094756153
 21
-127.9616875091093
 31
0.0
  0
LINE
  5
1D96
  8
\M+2BBB2\M+2A755\M+2BD75
  6
HIDDEN2
 62
     1
 10
-567.94760094756157
 20
-127.7451525091094
 30
0.0
 11
-567.86886094756153
 21
-127.7451525091094
 31
0.0
  0
LINE
  5
1D97
  8
\M+2BBB2\M+2A755\M+2BD75
  6
HIDDEN2
 62
     1
 10
-567.94760094756157
 20
-127.8632625091093
 30
0.0
 11
-567.86886094756153
 21
-127.8632625091093
 31
0.0
  0
LINE
  5
1D98
  8
\M+2BBB2\M+2A755\M+2BD75
 10
-568.31767894756149
 20
-127.6467275091093
 30
0.0
 11
-568.31767894756149
 21
-129.53665519063131
 31
0.0
  0
LINE
  5
1D9B
  8
\M+2BBB2\M+2A755\M+2BD75
  6
HIDDEN2
 62
     1
 10
-567.94760094756157
 20
-127.69594000910929
 30
0.0
 11
-568.40822994756149
 21
-127.6860975091093
 31
0.0
  0
LINE
  5
1D9C
  8
\M+2BBB2\M+2A755\M+2BD75
  6
HIDDEN2
 62
     1
 10
-567.94760094756157
 20
-127.9124750091094
 30
0.0
 11
-568.40822994756149
 21
-127.9223175091094
 31
0.0
  0
LINE
  5
1D9D
  8
\M+2BBB2\M+2A755\M+2BD75
 10
-568.40822994756149
 20
-131.59977840724551
 30
0.0
 11
-568.40822994756149
 21
-129.53665519063131
 31
0.0
  0
LINE
  5
1D9E
  8
\M+2BBB2\M+2A755\M+2BD75
 10
-568.31767894756149
 20
-131.58277056195681
 30
0.0
 11
-568.31767894756149
 21
-131.4265828721532
 31
0.0
  0
LINE
  5
1D9F
  8
\M+2BBB2\M+2A755\M+2BD75
 10
-568.31767894756149
 20
-131.4265828721532
 30
0.0
 11
-568.31767894756149
 21
-129.53665519063131
 31
0.0
  0
ARC
  5
1DA0
  8
\M+2BBB2\M+2A755\M+2BD75
 10
-568.34917494756144
 20
-131.59977840724551
 30
0.0
 40
0.059055
 50
180.0
 51
236.73810748405191
  0
LINE
  5
1DA1
  8
\M+2BBB2\M+2A755\M+2BD75
 10
-567.93578994756149
 20
-131.79899061716151
 30
0.0
 11
-567.93578994756149
 21
-131.75371511716151
 31
0.0
  0
LINE
  5
1DA2
  8
\M+2BBB2\M+2A755\M+2BD75
 10
-567.93578994756149
 20
-131.79899061716151
 30
0.0
 11
-568.15606334632389
 21
-131.78744657749729
 31
0.0
  0
LINE
  5
1DA3
  8
\M+2BBB2\M+2A755\M+2BD75
 10
-567.93578994756149
 20
-131.70831534985899
 30
0.0
 11
-568.14281941915669
 21
-131.6974653950065
 31
0.0
  0
LINE
  5
1DA4
  8
\M+2BBB2\M+2A755\M+2BD75
 10
-568.38156465444979
 20
-131.64915856432
 30
0.0
 11
-568.18536235331612
 21
-131.7778526673967
 31
0.0
  0
LINE
  5
1DA5
  8
\M+2BBB2\M+2A755\M+2BD75
 10
-568.31767894756149
 20
-131.58277056195681
 30
0.0
 11
-568.14281941915669
 21
-131.6974653950065
 31
0.0
  0
ARC
  5
1DA6
  8
\M+2BBB2\M+2A755\M+2BD75
 10
-568.152972646428
 20
-131.72847251032221
 30
0.0
 40
0.059055
 50
236.7381074840518
 51
267.0
  0
LINE
  5
1DA7
  8
\M+2BBB2\M+2A755\M+2BD75
 10
-568.40822994756149
 20
-129.53665519063131
 30
0.0
 11
-568.40822994756149
 21
-129.53694433698951
 31
0.0
  0
LINE
  5
1DA8
  8
\M+2BBB2\M+2A755\M+2BD75
 10
-568.31767894756149
 20
-129.53665519063131
 30
0.0
 11
-568.31767894756149
 21
-129.53694433698951
 31
0.0
  0
LINE
  5
1DA9
  8
\M+2BBB2\M+2A755\M+2BD75
 10
-567.93578994756149
 20
-131.75371511716151
 30
0.0
 11
-567.86886094756153
 21
-131.75371511716151
 31
0.0
  0
LINE
  5
1DAA
  8
\M+2BBB2\M+2A755\M+2BD75
 10
-567.86886094756153
 20
-131.75371511716151
 30
0.0
 11
-567.86886094756153
 21
-129.53665519063131
 31
0.0
  0
LINE
  5
1DAB
  8
\M+2BBB2\M+2A755\M+2BD75
 10
-567.93578994756149
 20
-131.70831534985899
 30
0.0
 11
-567.86886094756153
 21
-131.70831534985899
 31
0.0
  0
LINE
  5
1DAC
  8
\M+2BBB2\M+2A755\M+2BD75
 10
-568.40822994756149
 20
-131.20894064089131
 30
0.0
 11
-568.38854494756151
 21
-131.20894064089131
 31
0.0
  0
LINE
  5
1DAD
  8
\M+2BBB2\M+2A755\M+2BD75
 10
-568.40822994756149
 20
-131.16957064273461
 30
0.0
 11
-568.38854494756151
 21
-131.16957064273461
 31
0.0
  0
LINE
  5
1DAE
  8
\M+2BBB2\M+2A755\M+2BD75
 10
-568.38854494756151
 20
-131.16957064273461
 30
0.0
 11
-568.38854494756151
 21
-131.20894064089131
 31
0.0
  0
LINE
  5
1DAF
  8
\M+2BBB2\M+2A755\M+2BD75
 10
-567.86886094756153
 20
-131.14098269063129
 30
0.0
 11
-567.86886094756153
 21
-131.3968876906313
 31
0.0
  0
LINE
  5
1DB0
  8
\M+2BBB2\M+2A755\M+2BD75
  6
HIDDEN2
 62
     1
 10
-567.94760094756157
 20
-131.16083537215309
 30
0.0
 11
-567.94760094756157
 21
-131.37737037215319
 31
0.0
  0
LINE
  5
1DB1
  8
\M+2BBB2\M+2A755\M+2BD75
 10
-568.31767894756149
 20
-131.0425576906313
 30
0.0
 11
-568.10114394756135
 21
-131.0425576906313
 31
0.0
  0
LINE
  5
1DB2
  8
\M+2BBB2\M+2A755\M+2BD75
 10
-568.31767894756149
 20
-130.7866526906312
 30
0.0
 11
-568.10114394756135
 21
-130.7866526906312
 31
0.0
  0
LINE
  5
1DB3
  8
\M+2BBB2\M+2A755\M+2BD75
  6
HIDDEN2
 62
     1
 10
-568.31767894756149
 20
-130.95889644063129
 30
0.0
 11
-568.12082894756145
 21
-130.95889644063129
 31
0.0
  0
LINE
  5
1DB4
  8
\M+2BBB2\M+2A755\M+2BD75
  6
HIDDEN2
 62
     1
 10
-568.31767894756149
 20
-130.87031394063121
 30
0.0
 11
-568.12082894756145
 21
-130.87031394063121
 31
0.0
  0
LINE
  5
1DB5
  8
\M+2BBB2\M+2A755\M+2BD75
  6
HIDDEN2
 62
     1
 10
-568.10114394756135
 20
-130.8506289406312
 30
0.0
 11
-568.12082894756145
 21
-130.87031394063121
 31
0.0
  0
LINE
  5
1DB6
  8
\M+2BBB2\M+2A755\M+2BD75
 10
-568.10114394756135
 20
-130.7866526906312
 30
0.0
 11
-568.10114394756135
 21
-131.0425576906313
 31
0.0
  0
LINE
  5
1DB7
  8
\M+2BBB2\M+2A755\M+2BD75
  6
HIDDEN2
 62
     1
 10
-568.12082894756145
 20
-130.95889644063129
 30
0.0
 11
-568.10114394756135
 21
-130.9785814406313
 31
0.0
  0
LINE
  5
1DB8
  8
\M+2BBB2\M+2A755\M+2BD75
  6
HIDDEN2
 62
     1
 10
-567.94760094756157
 20
-131.21004787215321
 30
0.0
 11
-567.86886094756153
 21
-131.21004787215321
 31
0.0
  0
LINE
  5
1DB9
  8
\M+2BBB2\M+2A755\M+2BD75
  6
HIDDEN2
 62
     1
 10
-567.94760094756157
 20
-131.32815787215321
 30
0.0
 11
-567.86886094756153
 21
-131.32815787215321
 31
0.0
  0
LINE
  5
1DBA
  8
\M+2BBB2\M+2A755\M+2BD75
 10
-568.31767894756149
 20
-131.11162287215319
 30
0.0
 11
-567.86886094756153
 21
-131.11162287215319
 31
0.0
  0
LINE
  5
1DBB
  8
\M+2BBB2\M+2A755\M+2BD75
 10
-568.31767894756149
 20
-131.4265828721532
 30
0.0
 11
-567.86886094756153
 21
-131.4265828721532
 31
0.0
  0
LINE
  5
1DBC
  8
\M+2BBB2\M+2A755\M+2BD75
  6
HIDDEN2
 62
     1
 10
-567.94760094756157
 20
-131.37737037215319
 30
0.0
 11
-568.40822994756149
 21
-131.38721287215321
 31
0.0
  0
LINE
  5
1DBD
  8
\M+2BBB2\M+2A755\M+2BD75
  6
HIDDEN2
 62
     1
 10
-567.94760094756157
 20
-131.16083537215309
 30
0.0
 11
-568.40822994756149
 21
-131.15099287215321
 31
0.0
  0
INSERT
  5
1E1D
  8
\M+2ADE5\M+2ADB1\M+2BD75
  6
CONTINUOUS
  2
*X47
 10
0.0
 20
0.0
 30
0.0
1001
ACAD
1000
HATCH
1002
{
1070
    19
1000
ANSI31
1040
0.011811
1040
0.0
1000
R14_HATCH_DATA
1000
1E1D
1011
1.0
1021
0.0
1031
0.0
1021
0.0
1031
0.0
1011
0.0
1021
0.0
1031
0.0
1021
1.0
1031
0.0
1011
0.0
1021
0.0
1031
0.0
1021
0.0
1031
1.0
1040
0.0
1010
0.0
1020
0.0
1030
1.0
1000
ANSI31
1070
     0
1070
     0
1071
        5
1071
        7
1070
     0
1070
     1
1071
        8
1040
-568.31767894756149
1040
-127.9203826586819
1040
-568.40822994756149
1040
-127.9223175091094
1040
-568.40822994756149
1040
-129.53665519063131
1040
-568.40822994756149
1040
-129.53694433698951
1040
-568.40822994756149
1040
-131.15099287215321
1040
-568.31767894756149
1040
-131.1529277225805
1040
-568.31767894756149
1040
-129.53665519063131
1040
-568.31767894756149
1040
-129.53636604427291
1071
        0
1071
        7
1070
     0
1070
     1
1071
        8
1040
-568.31767894756149
1040
-131.15292772258039
1040
-568.40822994756149
1040
-131.15099287215321
1040
-568.40822994756149
1040
-131.16957064273461
1040
-568.38854494756151
1040
-131.16957064273461
1040
-568.38854494756151
1040
-131.20894064089131
1040
-568.40822994756149
1040
-131.20894064089131
1040
-568.40822994756149
1040
-131.38721287215321
1040
-568.31767894756149
1040
-131.3852780217259
1071
        0
1071
        7
1070
     1
1070
     1
1071
       14
1040
-568.31767894756149
1040
-131.4265828721532
1040
0.0
1040
-568.31767894756149
1040
-131.3852780217259
1040
0.0
1040
-568.40822994756149
1040
-131.38721287215321
1040
0.0
1040
-568.40822994756149
1040
-131.59977840724551
1040
0.252751572144115
1040
-568.38156465444979
1040
-131.64915856432
1040
0.0
1040
-568.18536235331612
1040
-131.7778526673967
1040
0.1328152007718735
1040
-568.15606334632389
1040
-131.78744657749729
1040
0.0
1040
-567.9357899475616
1040
-131.79899061716151
1040
0.0
1040
-567.9357899475616
1040
-131.75371511716151
1040
0.0
1040
-567.86886094756153
1040
-131.75371511716151
1040
0.0
1040
-567.86886094756153
1040
-131.70831534985899
1040
0.0
1040
-567.93578994756149
1040
-131.70831534985899
1040
0.0
1040
-568.14281941915669
1040
-131.6974653950065
1040
0.0
1040
-568.31767894756149
1040
-131.58277056195681
1040
0.0
1071
        0
1071
        7
1070
     1
1070
     1
1071
       14
1040
-568.14281941915669
1040
-127.375844986256
1040
0.0
1040
-567.9357899475616
1040
-127.3649950314035
1040
0.0
1040
-567.86886094756153
1040
-127.3649950314035
1040
0.0
1040
-567.86886094756153
1040
-127.319595264101
1040
0.0
1040
-567.9357899475616
1040
-127.319595264101
1040
0.0
1040
-567.9357899475616
1040
-127.27431976410099
1040
0.0
1040
-568.15606334632389
1040
-127.2858638037652
1040
0.1328152007718736
1040
-568.18536235331612
1040
-127.2954577138658
1040
0.0
1040
-568.38156465444979
1040
-127.4241518169425
1040
0.2527515721441099
1040
-568.40822994756149
1040
-127.47353197401689
1040
0.0
1040
-568.40822994756149
1040
-127.6860975091093
1040
0.0
1040
-568.31767894756149
1040
-127.68803235953671
1040
0.0
1040
-568.31767894756149
1040
-127.6467275091093
1040
0.0
1040
-568.31767894756149
1040
-127.4905398193056
1040
0.0
1071
        0
1071
        7
1070
     0
1070
     1
1071
        8
1040
-568.31767894756149
1040
-127.68803235953671
1040
-568.40822994756149
1040
-127.6860975091093
1040
-568.40822994756149
1040
-127.8643697403712
1040
-568.38854494756151
1040
-127.8643697403712
1040
-568.38854494756151
1040
-127.9037397385279
1040
-568.40822994756149
1040
-127.9037397385279
1040
-568.40822994756149
1040
-127.9223175091094
1040
-568.31767894756149
1040
-127.9203826586819
1071
        0
1070
     0
1070
     1
1040
0.0
1040
0.011811
1070
     0
1070
     1
1040
0.7853981633974483
1040
-597.26686749563964
1040
-140.8891824397823
1040
-0.026516451261487
1040
0.026516451261487
1070
     0
1040
0.2480111567814499
1071
        5
1040
-568.36412858363065
1040
-129.52178885488351
1040
0.0
1040
-568.35147181149716
1040
-131.2786322981068
1040
0.0
1040
-568.34758647283638
1040
-131.5349546243182
1040
0.0
1040
-568.30002932749414
1040
-127.46541346955971
1040
0.0
1040
-568.3781767313551
1040
-127.7876320741529
1040
0.0
1002
}
  0
DIMENSION
  5
1E1E
  8
\M+2BBB2\M+2A755\M+2BD75
  2
*D18
 10
-571.13998145850019
 20
-129.34764784717541
 30
0.0
 11
-569.66711248139609
 21
-129.34764784717541
 31
0.0
 70
   128
 13
-571.17935145850026
 23
-129.22888172803351
 33
0.0
 14
-571.13998145850019
 24
-129.22888172803351
 34
0.0
  0
DIMENSION
  5
1EC9
  8
\M+2BBB2\M+2A755\M+2BD75
  2
*D19
 10
-578.26648588799753
 20
-126.1558938539322
 30
0.0
 11
-579.58068051762962
 21
-126.1558938539322
 31
0.0
 70
   128
 13
-580.76647999143415
 23
-128.0616025097932
 33
0.0
 14
-578.26648588799753
 24
-128.06006173157161
 34
0.0
  0
DIMENSION
  5
1EE1
  8
\M+2BBB2\M+2A755\M+2BD75
  2
*D20
 10
-578.31591598817965
 20
-126.8014396240296
 30
0.0
 11
-579.59724273440372
 21
-126.8014396240296
 31
0.0
 70
   128
 13
-580.71748511031535
 23
-127.7072575000909
 33
0.0
 14
-578.31591598817965
 24
-127.70577738243939
 34
0.0
  0
DIMENSION
  5
1EF9
  8
\M+2BBB2\M+2A755\M+2BD75
  2
*D21
 10
-577.8817259149838
 20
-125.49379568937201
 30
0.0
 11
-579.48130663393295
 21
-125.49379568937201
 31
0.0
 70
   128
 13
-581.14943551288491
 23
-129.54173285362771
 33
0.0
 14
-577.8817259149838
 24
-129.54200695860069
 34
0.0
  0
DIMENSION
  5
1F11
  8
\M+2BBB2\M+2A755\M+2BD75
  2
*D22
 10
-584.08915021659288
 20
-131.80186976408331
 30
0.0
 11
-584.08915021659288
 21
-130.4476081770415
 31
0.0
 70
   128
 13
-579.51558080724135
 23
-127.2743197640922
 33
0.0
 14
-579.51557110696365
 24
-131.80186976408331
 34
0.0
 50
90.0
  0
ARC
  5
1F42
  8
\M+2BBB2\M+2A755\M+2BD75
 10
-578.2183453992493
 20
-123.1591029476124
 30
0.0
 40
0.059055
 50
302.70819759096918
 51
356.99999999999977
  0
ARC
  5
1F4E
  8
\M+2BBB2\M+2A755\M+2BD75
 10
-581.31763104737524
 20
-123.1591029476124
 30
0.0
 40
0.059055
 50
183.0000000000002
 51
237.2918024090298
  0
ARC
  5
1F62
  8
\M+2BBB2\M+2A755\M+2BD75
 10
-574.95485913951404
 20
-121.1113572971999
 30
0.0
 40
0.059055
 50
205.85657560645919
 51
266.99999999999949
  0
ARC
  5
1F63
  8
\M+2BBB2\M+2A755\M+2BD75
 10
-574.95485913951404
 20
-116.76425326886491
 30
0.0
 40
0.059055
 50
92.999999999999105
 51
154.1434243935395
  0
DIMENSION
  5
1F64
  8
\M+2BBB2\M+2A755\M+2BD75
  2
*D23
 10
-574.95485913951416
 20
-116.76425326886491
 30
0.0
 11
-577.09954048073735
 21
-115.7276930225884
 31
0.0
 70
   132
 15
-574.99895122172302
 25
-116.72496737684899
 35
0.0
 40
0.0
  0
LINE
  5
1F82
  8
\M+2BBB2\M+2A755\M+2BD75
 10
-567.92000068275672
 20
-117.1285658848896
 30
0.0
 11
-568.01869529708608
 21
-116.7455801598294
 31
0.0
  0
LINE
  5
1F87
  8
\M+2BBB2\M+2A755\M+2BD75
 10
-567.84947043580769
 20
-117.1103903888706
 30
0.0
 11
-567.95370040275725
 21
-116.705924656504
 31
0.0
  0
LINE
  5
1F88
  8
\M+2BBB2\M+2A755\M+2BD75
 10
-567.83558264039323
 20
-118.9378052830324
 30
0.0
 11
-567.83558264039323
 21
-117.2199345946072
 31
0.0
  0
ARC
  5
1F89
  8
\M+2BBB2\M+2A755\M+2BD75
 10
-568.27455814039308
 20
-117.2199345946072
 30
0.0
 40
0.4389755
 50
0.0
 51
14.450597977723611
  0
LINE
  5
1F8A
  8
\M+2BBB2\M+2A755\M+2BD75
 10
-567.83558264039323
 20
-118.9378052830324
 30
0.0
 11
-567.83558264039323
 21
-120.6556759714578
 31
0.0
  0
LINE
  5
1F8B
  8
\M+2BBB2\M+2A755\M+2BD75
 10
-567.84947043580769
 20
-120.76522017719419
 30
0.0
 11
-567.95291693531794
 21
-121.1666456540473
 31
0.0
  0
ARC
  5
1F8C
  8
\M+2BBB2\M+2A755\M+2BD75
 10
-568.27455814039308
 20
-120.6556759714578
 30
0.0
 40
0.4389755
 50
345.54940202227641
 51
0.0
  0
LINE
  5
1F8D
  8
\M+2BBB2\M+2A755\M+2BD75
 10
-567.90841714039323
 20
-118.9378052830324
 30
0.0
 11
-567.90841714039323
 21
-117.2199345946072
 31
0.0
  0
ARC
  5
1F8E
  8
\M+2BBB2\M+2A755\M+2BD75
 10
-568.27455814039308
 20
-117.2199345946072
 30
0.0
 40
0.366141
 50
0.0
 51
14.450597977723611
  0
LINE
  5
1F8F
  8
\M+2BBB2\M+2A755\M+2BD75
 10
-567.90841714039323
 20
-118.9378052830324
 30
0.0
 11
-567.90841714039323
 21
-120.6556759714578
 31
0.0
  0
LINE
  5
1F90
  8
\M+2BBB2\M+2A755\M+2BD75
 10
-567.92000068275672
 20
-120.7470446811752
 30
0.0
 11
-568.01869529708608
 21
-121.1300304062356
 31
0.0
  0
ARC
  5
1F91
  8
\M+2BBB2\M+2A755\M+2BD75
 10
-568.27455814039308
 20
-120.6556759714578
 30
0.0
 40
0.366141
 50
345.54940202227641
 51
0.0
  0
DIMENSION
  5
2314
  8
\M+2BBB2\M+2A755\M+2BD75
  2
*D24
 10
-567.94760094756157
 20
-126.86764940071819
 30
0.0
 11
-569.19491530741323
 21
-126.86764940071819
 31
0.0
 70
   128
 13
-567.9357899475616
 23
-127.27431976410099
 33
0.0
 14
-567.94760094756157
 24
-127.69594000910929
 34
0.0
  0
DIMENSION
  5
2330
  8
\M+2BBB2\M+2A755\M+2BD75
  2
*D25
 10
-567.86886094756153
 20
-126.22210373003939
 30
0.0
 11
-569.19491530741323
 21
-126.22210373003939
 31
0.0
 70
   128
 13
-567.9357899475616
 23
-127.249713514101
 33
0.0
 14
-567.86886094756153
 24
-127.319595264101
 34
0.0
  0
POLYLINE
  5
2901
  8
\M+2BBB2\M+2A755\M+2BD75
 66
     1
 10
0.0
 20
0.0
 30
0.0
  0
VERTEX
  5
6C4F
  8
\M+2BBB2\M+2A755\M+2BD75
 10
-578.15826768887553
 20
-131.28754645702139
 30
0.0
 42
0.0862252782545243
  0
VERTEX
  5
6C50
  8
\M+2BBB2\M+2A755\M+2BD75
 10
-578.13764389092603
 20
-131.1953401626543
 30
0.0
 42
0.012013593779292
  0
VERTEX
  5
6C51
  8
\M+2BBB2\M+2A755\M+2BD75
 10
-578.09786710715173
 20
-129.53810098953321
 30
0.0
 42
0.012013593779292
  0
VERTEX
  5
6C52
  8
\M+2BBB2\M+2A755\M+2BD75
 10
-578.13764389092603
 20
-127.8808493655301
 30
0.0
 42
0.0925206230291552
  0
VERTEX
  5
6C53
  8
\M+2BBB2\M+2A755\M+2BD75
 10
-578.16098144209923
 20
-127.7823052484359
 30
0.0
 42
0.0925206230291552
  0
SEQEND
  5
6C54
  8
\M+2BBB2\M+2A755\M+2BD75
  0
CIRCLE
  5
293D
  8
\M+2BBB2\M+2A755\M+2BD75
 10
-578.31479466823771
 20
-131.27024746480339
 30
0.0
 40
0.15748
  0
CIRCLE
  5
293E
  8
\M+2BBB2\M+2A755\M+2BD75
 10
-578.31479466823771
 20
-131.27024746480339
 30
0.0
 40
0.062992
  0
CIRCLE
  5
293F
  8
\M+2BBB2\M+2A755\M+2BD75
 10
-580.71636466823225
 20
-131.27024231943849
 30
0.0
 40
0.15748
  0
CIRCLE
  5
2940
  8
\M+2BBB2\M+2A755\M+2BD75
 10
-580.71636466823225
 20
-131.27024231943849
 30
0.0
 40
0.062992
  0
POLYLINE
  5
2941
  8
\M+2BBB2\M+2A755\M+2BD75
 66
     1
 10
0.0
 20
0.0
 30
0.0
  0
VERTEX
  5
6C55
  8
\M+2BBB2\M+2A755\M+2BD75
 10
-580.75087944089296
 20
-131.42389348561761
 30
0.0
 42
0.0682135374821702
  0
VERTEX
  5
6C56
  8
\M+2BBB2\M+2A755\M+2BD75
 10
-580.68091100313973
 20
-131.4507746868033
 30
0.0
 42
0.1158082536982532
  0
VERTEX
  5
6C57
  8
\M+2BBB2\M+2A755\M+2BD75
 10
-578.3502324923578
 20
-131.4507704330984
 30
0.0
 42
0.068194017030207
  0
VERTEX
  5
6C58
  8
\M+2BBB2\M+2A755\M+2BD75
 10
-578.28028294568423
 20
-131.42389931609841
 30
0.0
  0
SEQEND
  5
6C59
  8
\M+2BBB2\M+2A755\M+2BD75
  0
LINE
  5
2975
  8
\M+2A4E5\M+2A672
 62
     1
 10
-580.71850083241384
 20
-127.9026280265939
 30
0.0
 11
-580.71850083241384
 21
-127.7057780265939
 31
0.0
  0
LINE
  5
2976
  8
\M+2A4E5\M+2A672
 62
     1
 10
-578.21850583241996
 20
-127.8042085937098
 30
0.0
 11
-578.41535583241841
 21
-127.8042077502074
 31
0.0
  0
LINE
  5
2977
  8
\M+2A4E5\M+2A672
 62
     1
 10
-578.31693125417053
 20
-127.9026331719577
 30
0.0
 11
-578.31693041066808
 21
-127.7057831719595
 31
0.0
  0
CIRCLE
  5
2978
  8
\M+2BBB2\M+2A755\M+2BD75
 10
-578.31693083241919
 20
-127.80420817195851
 30
0.0
 40
0.15748
  0
CIRCLE
  5
2979
  8
\M+2BBB2\M+2A755\M+2BD75
 10
-578.31693083241919
 20
-127.80420817195851
 30
0.0
 40
0.062992
  0
CIRCLE
  5
297A
  8
\M+2BBB2\M+2A755\M+2BD75
 10
-580.71850083241384
 20
-127.8042030265939
 30
0.0
 40
0.15748
  0
CIRCLE
  5
297B
  8
\M+2BBB2\M+2A755\M+2BD75
 10
-580.71850083241384
 20
-127.8042030265939
 30
0.0
 40
0.062992
  0
POLYLINE
  5
297C
  8
\M+2BBB2\M+2A755\M+2BD75
 66
     1
 10
0.0
 20
0.0
 30
0.0
  0
VERTEX
  5
6C5A
  8
\M+2BBB2\M+2A755\M+2BD75
 10
-578.28422887161321
 20
-127.6501609968484
 30
0.0
 42
0.0641145965105096
  0
VERTEX
  5
6C5B
  8
\M+2BBB2\M+2A755\M+2BD75
 10
-578.3502324923578
 20
-127.625419095086
 30
0.0
 42
0.1158082536982533
  0
VERTEX
  5
6C5C
  8
\M+2BBB2\M+2A755\M+2BD75
 10
-580.68091100313973
 20
-127.625414841381
 30
0.0
 42
0.0616073490366351
  0
VERTEX
  5
6C5D
  8
\M+2BBB2\M+2A755\M+2BD75
 10
-580.74447149911146
 20
-127.6488792522666
 30
0.0
 42
0.0616073490366351
  0
SEQEND
  5
6C5E
  8
\M+2BBB2\M+2A755\M+2BD75
  0
POLYLINE
  5
297D
  8
\M+2BBB2\M+2A755\M+2BD75
 66
     1
 10
0.0
 20
0.0
 30
0.0
  0
VERTEX
  5
6C5F
  8
\M+2BBB2\M+2A755\M+2BD75
 10
-580.87576217931201
 20
-127.795907294453
 30
0.0
 42
0.0791022697867428
  0
VERTEX
  5
6C60
  8
\M+2BBB2\M+2A755\M+2BD75
 10
-580.89350108225665
 20
-127.8808556864208
 30
0.0
 42
0.0119898540614773
  0
VERTEX
  5
6C61
  8
\M+2BBB2\M+2A755\M+2BD75
 10
-580.93329450732995
 20
-129.53810094952919
 30
0.0
 42
0.0119898540614774
  0
VERTEX
  5
6C62
  8
\M+2BBB2\M+2A755\M+2BD75
 10
-580.89350108225665
 20
-131.1953338417635
 30
0.0
 42
0.086189594889085
  0
VERTEX
  5
6C63
  8
\M+2BBB2\M+2A755\M+2BD75
 10
-580.87289568134349
 20
-131.28750477390801
 30
0.0
  0
SEQEND
  5
6C64
  8
\M+2BBB2\M+2A755\M+2BD75
  0
TEXT
  5
3B04
  8
0
 10
-571.50876780749024
 20
-123.2463980993072
 30
0.0
 40
0.4695794004144501
  1
LID
1001
ACAD
1000
ACAD_MTEXT_DEFINED_HEIGHT_BEGIN
1070
    46
1040
0.0
1000
ACAD_MTEXT_DEFINED_HEIGHT_END
1000
MTEXTBEGIN
1070
    73
1070
     1
1070
    44
1040
1.0
1070
    74
1070
     0
1000
MTEXTEND
  0
TEXT
  5
3B05
  8
0
 10
-571.62229500088915
 20
-133.0301750744355
 30
0.0
 40
0.4695794004144501
  1
BASE
1001
ACAD
1000
ACAD_MTEXT_DEFINED_HEIGHT_BEGIN
1070
    46
1040
0.0
1000
ACAD_MTEXT_DEFINED_HEIGHT_END
1000
MTEXTBEGIN
1070
    73
1070
     1
1070
    44
1040
1.0
1070
    74
1070
     0
1000
MTEXTEND
  0
LINE
  5
4425
  8
\M+2BBB2\M+2A755\M+2BD75
 10
-560.20446217884341
 20
-117.1541747580234
 30
0.0
 11
-560.20446217884341
 21
-117.2053321360235
 31
0.0
  0
INSERT
  5
4426
  8
\M+2BBB2\M+2A755\M+2BD75
  6
CONTINUOUS
  2
*X48
 10
0.0
 20
0.0
 30
0.0
1001
ACAD
1000
HATCH
1002
{
1070
    19
1000
ANSI31
1040
0.0102314756
1040
0.0
1000
R14_HATCH_DATA
1000
4426
1011
1.0
1021
0.0
1031
0.0
1021
0.0
1031
0.0
1011
0.0
1021
0.0
1031
0.0
1021
1.0
1031
0.0
1011
0.0
1021
0.0
1031
0.0
1021
0.0
1031
1.0
1040
0.0
1010
0.0
1020
0.0
1030
1.0
1000
ANSI31
1070
     0
1070
     0
1071
        1
1071
        7
1070
     1
1070
     1
1071
       26
1040
-560.2556195568435
1040
-117.2053321360235
1040
0.0
1040
-560.20446217884341
1040
-117.2053321360235
1040
0.0
1040
-560.20446217884341
1040
-117.1541747580234
1040
0.0
1040
-560.79213716423408
1040
-117.17469682072441
1040
0.2679042261771816
1040
-560.8355170501361
1040
-117.2017985209432
1040
0.0
1040
-560.94624415984333
1040
-117.4099616440885
1040
0.0
1040
-560.94624415984333
1040
-117.4866977150272
1040
0.0
1040
-560.86950809284326
1040
-117.6113938239024
1040
0.0
1040
-560.86950809284326
1040
-119.41788873452801
1040
0.0
1040
-560.86950809284326
1040
-121.2243836451532
1040
0.0
1040
-560.94624415984333
1040
-121.34907975402839
1040
0.0
1040
-560.94624415984333
1040
-121.4258158249672
1040
0.0
1040
-560.8355170501361
1040
-121.6339789481126
1040
0.2679042261771767
1040
-560.79213716423408
1040
-121.66108064833141
1040
0.0
1040
-560.20446217884341
1040
-121.6816027110324
1040
0.0
1040
-560.20446217884341
1040
-121.6304453330311
1040
0.0
1040
-560.25561955683816
1040
-121.6304453330312
1040
0.0
1040
-560.25561955683816
1040
-121.5620825664414
1040
0.0
1040
-560.76737755915633
1040
-121.5442115832093
1040
0.0
1040
-560.85027971650595
1040
-121.38835840475249
1040
0.0
1040
-560.76719333683911
1040
-121.2533430377925
1040
0.0
1040
-560.76719333684332
1040
-119.41788873452769
1040
0.0
1040
-560.76719333684332
1040
-117.58243443126339
1040
0.0
1040
-560.85027971651357
1040
-117.4474190642992
1040
0.0
1040
-560.76737755916645
1040
-117.2915658858457
1040
0.0
1040
-560.2556195568435
1040
-117.2736949026111
1040
0.0
1071
        0
1070
     0
1070
     1
1040
0.0
1040
0.0102314756
1070
     0
1070
     1
1040
0.7853981633974483
1040
-575.94850675872829
1040
-132.1337549873935
1040
-0.0229703178461174
1040
0.0229703178461174
1070
     0
1040
0.1361374281129417
1071
        1
1040
-560.66608453006938
1040
-117.2714860283516
1040
0.0
1002
}
  0
LINE
  5
4427
  8
\M+2BBB2\M+2A755\M+2BD75
 10
-560.2556195568435
 20
-117.2053321360235
 30
0.0
 11
-560.2556195568435
 21
-117.5506444375262
 31
0.0
  0
LINE
  5
4428
  8
\M+2BBB2\M+2A755\M+2BD75
 10
-560.2556195568435
 20
-117.8831673945262
 30
0.0
 11
-560.2556195568435
 21
-119.41788873452781
 31
0.0
  0
LINE
  5
4429
  8
\M+2BBB2\M+2A755\M+2BD75
 10
-560.25561955684338
 20
-117.527961053008
 30
0.0
 11
-560.25561955684338
 21
-117.604697120008
 31
0.0
  0
LINE
  5
442A
  8
\M+2BBB2\M+2A755\M+2BD75
 10
-560.76719333684332
 20
-117.58243443126339
 30
0.0
 11
-560.76719333684332
 21
-119.41788873452801
 31
0.0
  0
LINE
  5
442B
  8
\M+2BBB2\M+2A755\M+2BD75
 10
-560.2556195568435
 20
-117.2736949026111
 30
0.0
 11
-560.76737755916645
 21
-117.2915658858457
 31
0.0
  0
LINE
  5
442C
  8
\M+2BBB2\M+2A755\M+2BD75
 10
-560.76719333684332
 20
-117.58243443126339
 30
0.0
 11
-560.85027971651357
 21
-117.4474190642992
 31
0.0
  0
LINE
  5
442D
  8
\M+2BBB2\M+2A755\M+2BD75
  6
HIDDEN2
 62
     1
 10
-560.26073529464327
 20
-117.758169254008
 30
0.0
 11
-560.76719333684332
 21
-117.758169254008
 31
0.0
  0
LINE
  5
442E
  8
\M+2BBB2\M+2A755\M+2BD75
  6
HIDDEN2
 62
     1
 10
-560.26073529464327
 20
-117.630275809008
 30
0.0
 11
-560.76719333684332
 21
-117.630275809008
 31
0.0
  0
LINE
  5
442F
  8
\M+2BBB2\M+2A755\M+2BD75
  6
HIDDEN2
 62
     1
 10
-560.25561955684338
 20
-117.604697120008
 30
0.0
 11
-560.28119824584326
 21
-117.630275809008
 31
0.0
  0
LINE
  5
4430
  8
\M+2BBB2\M+2A755\M+2BD75
 10
-560.2351566056434
 20
-117.527961053008
 30
0.0
 11
-560.78675640991219
 21
-117.527961053008
 31
0.0
  0
LINE
  5
4432
  8
\M+2BBB2\M+2A755\M+2BD75
 10
-560.20446217884341
 20
-117.2053321360235
 30
0.0
 11
-560.2556195568435
 21
-117.2053321360235
 31
0.0
  0
LINE
  5
4433
  8
\M+2BBB2\M+2A755\M+2BD75
 10
-560.25561955684338
 20
-117.783747943008
 30
0.0
 11
-560.25561955684338
 21
-117.86048401000789
 31
0.0
  0
LINE
  5
4434
  8
\M+2BBB2\M+2A755\M+2BD75
  6
HIDDEN2
 62
     1
 10
-560.28119824584326
 20
-117.758169254008
 30
0.0
 11
-560.25561955684338
 21
-117.783747943008
 31
0.0
  0
LINE
  5
4435
  8
\M+2BBB2\M+2A755\M+2BD75
  6
HIDDEN2
 62
     1
 10
-560.25561955684338
 20
-117.604697120008
 30
0.0
 11
-560.25561955684338
 21
-117.783747943008
 31
0.0
  0
LINE
  5
4436
  8
\M+2BBB2\M+2A755\M+2BD75
  6
HIDDEN2
 62
     1
 10
-560.76719333684332
 20
-118.1453489567761
 30
0.0
 11
-560.76719333684332
 21
-118.26045305727619
 31
0.0
  0
LINE
  5
4441
  8
\M+2B5EA\M+2BD75
 10
-560.28119824584326
 20
-117.630275809008
 30
0.0
 11
-560.28119824584326
 21
-117.758169254008
 31
0.0
  0
LINE
  5
4442
  8
\M+2B5EA\M+2BD75
 10
-560.76719333684332
 20
-117.6529591935262
 30
0.0
 11
-560.76719333684332
 21
-117.7808526385262
 31
0.0
  0
LINE
  5
4444
  8
\M+2BBB2\M+2A755\M+2BD75
 10
-560.25561955683816
 20
-121.6304453330312
 30
0.0
 11
-560.25561955683895
 21
-121.2851330315284
 31
0.0
  0
LINE
  5
4445
  8
\M+2BBB2\M+2A755\M+2BD75
 10
-560.25561955683975
 20
-120.95261007452849
 30
0.0
 11
-560.2556195568435
 21
-119.4178887345268
 31
0.0
  0
LINE
  5
4446
  8
\M+2BBB2\M+2A755\M+2BD75
 10
-560.2556195568427
 20
-121.3253793730519
 30
0.0
 11
-560.2556195568427
 21
-121.2486433060517
 31
0.0
  0
LINE
  5
4447
  8
\M+2BBB2\M+2A755\M+2BD75
 10
-560.76719333683911
 20
-121.2533430377925
 30
0.0
 11
-560.76719333684332
 21
-119.41788873452769
 31
0.0
  0
LINE
  5
4448
  8
\M+2BBB2\M+2A755\M+2BD75
 10
-560.76719333683911
 20
-121.2533430377925
 30
0.0
 11
-560.85027971650595
 21
-121.38835840475249
 31
0.0
  0
LINE
  5
4449
  8
\M+2BBB2\M+2A755\M+2BD75
  6
HIDDEN2
 62
     1
 10
-560.28119824584314
 20
-121.09517117205191
 30
0.0
 11
-560.76719333683934
 21
-121.095171172053
 31
0.0
  0
LINE
  5
444A
  8
\M+2BBB2\M+2A755\M+2BD75
  6
HIDDEN2
 62
     1
 10
-560.28119824584292
 20
-121.2230646170519
 30
0.0
 11
-560.76719333683923
 21
-121.223064617053
 31
0.0
  0
LINE
  5
444B
  8
\M+2BBB2\M+2A755\M+2BD75
  6
HIDDEN2
 62
     1
 10
-560.2556195568427
 20
-121.2486433060517
 30
0.0
 11
-560.28119824584292
 21
-121.2230646170519
 31
0.0
  0
LINE
  5
444D
  8
\M+2BBB2\M+2A755\M+2BD75
 10
-560.2556195568435
 20
-120.99285641605189
 30
0.0
 11
-560.76719333683945
 21
-120.992856416053
 31
0.0
  0
LINE
  5
444E
  8
\M+2BBB2\M+2A755\M+2BD75
 10
-560.20446217883807
 20
-121.6304453330311
 30
0.0
 11
-560.25561955683816
 21
-121.6304453330312
 31
0.0
  0
LINE
  5
444F
  8
\M+2BBB2\M+2A755\M+2BD75
 10
-560.25561955684304
 20
-121.06959248305191
 30
0.0
 11
-560.2556195568435
 21
-120.99285641605189
 31
0.0
  0
LINE
  5
4450
  8
\M+2BBB2\M+2A755\M+2BD75
  6
HIDDEN2
 62
     1
 10
-560.28119824584314
 20
-121.09517117205191
 30
0.0
 11
-560.25561955684304
 21
-121.06959248305191
 31
0.0
  0
LINE
  5
4451
  8
\M+2BBB2\M+2A755\M+2BD75
  6
HIDDEN2
 62
     1
 10
-560.2556195568427
 20
-121.2486433060517
 30
0.0
 11
-560.25561955684304
 21
-121.06959248305191
 31
0.0
  0
LINE
  5
4452
  8
\M+2BBB2\M+2A755\M+2BD75
  6
HIDDEN2
 62
     1
 10
-560.76719333684025
 20
-120.6904285122796
 30
0.0
 11
-560.76719333684071
 21
-120.5753244117797
 31
0.0
  0
LINE
  5
445D
  8
\M+2B5EA\M+2BD75
 10
-560.28119824584292
 20
-121.2230646170519
 30
0.0
 11
-560.28119824584314
 21
-121.09517117205191
 31
0.0
  0
LINE
  5
445E
  8
\M+2B5EA\M+2BD75
 10
-560.76719333683923
 20
-121.1828182755297
 30
0.0
 11
-560.76719333683945
 21
-121.0549248305297
 31
0.0
  0
LINE
  5
445F
  8
\M+2BBB2\M+2A755\M+2BD75
 10
-560.20446217884341
 20
-117.1541747580234
 30
0.0
 11
-560.20446217884341
 21
-117.2053321360235
 31
0.0
  0
LINE
  5
4460
  8
\M+2BBB2\M+2A755\M+2BD75
 10
-560.86950809284326
 20
-117.6113938239024
 30
0.0
 11
-560.86950809284326
 21
-119.41788873452801
 31
0.0
  0
LINE
  5
4461
  8
\M+2BBB2\M+2A755\M+2BD75
 10
-560.94624415984333
 20
-117.4099616440885
 30
0.0
 11
-560.94624415984333
 21
-117.4866977150272
 31
0.0
  0
LINE
  5
4462
  8
\M+2BBB2\M+2A755\M+2BD75
 10
-560.20446217884341
 20
-117.1541747580234
 30
0.0
 11
-560.79213716423408
 21
-117.17469682072441
 31
0.0
  0
LINE
  5
4463
  8
\M+2BBB2\M+2A755\M+2BD75
 10
-560.86950809284326
 20
-117.6113938239024
 30
0.0
 11
-560.94624415984333
 21
-117.4866977150272
 31
0.0
  0
LINE
  5
4464
  8
\M+2BBB2\M+2A755\M+2BD75
 10
-560.8355170501361
 20
-117.2017985209432
 30
0.0
 11
-560.94624415984333
 21
-117.4099616440885
 31
0.0
  0
LINE
  5
4465
  8
\M+2BBB2\M+2A755\M+2BD75
 10
-560.76737755916645
 20
-117.2915658858457
 30
0.0
 11
-560.85027971651357
 21
-117.4474190642992
 31
0.0
  0
ARC
  5
4466
  8
\M+2BBB2\M+2A755\M+2BD75
 10
-560.79035179748951
 20
-117.22582303503199
 30
0.0
 40
0.051157378
 50
91.999999999997087
 51
151.9903847236516
  0
LINE
  5
4468
  8
\M+2BBB2\M+2A755\M+2BD75
 10
-560.86950809284326
 20
-121.2243836451532
 30
0.0
 11
-560.86950809284326
 21
-119.41788873452769
 31
0.0
  0
LINE
  5
4469
  8
\M+2BBB2\M+2A755\M+2BD75
 10
-560.94624415984333
 20
-121.4258158249672
 30
0.0
 11
-560.94624415984333
 21
-121.34907975402839
 31
0.0
  0
LINE
  5
446A
  8
\M+2BBB2\M+2A755\M+2BD75
 10
-560.20446217884341
 20
-121.6816027110324
 30
0.0
 11
-560.79213716423408
 21
-121.66108064833141
 31
0.0
  0
LINE
  5
446B
  8
\M+2BBB2\M+2A755\M+2BD75
 10
-560.86950809284326
 20
-121.2243836451532
 30
0.0
 11
-560.94624415984333
 21
-121.34907975402839
 31
0.0
  0
LINE
  5
446C
  8
\M+2BBB2\M+2A755\M+2BD75
 10
-560.8355170501361
 20
-121.6339789481126
 30
0.0
 11
-560.94624415984333
 21
-121.4258158249672
 31
0.0
  0
ARC
  5
446D
  8
\M+2BBB2\M+2A755\M+2BD75
 10
-560.79035179748951
 20
-121.6099544340239
 30
0.0
 40
0.051157378
 50
208.00961527634831
 51
268.0000000000029
  0
LINE
  5
446E
  8
\M+2BBB2\M+2A755\M+2BD75
 10
-560.25561955683315
 20
-121.5620825664415
 30
0.0
 11
-560.76737755915633
 21
-121.5442115832093
 31
0.0
  0
LINE
  5
446F
  8
\M+2BBB2\M+2A755\M+2BD75
 10
-560.76737755915633
 20
-121.5442115832093
 30
0.0
 11
-560.85027971650595
 21
-121.38835840475249
 31
0.0
  0
LINE
  5
4481
  8
\M+2BBB2\M+2A755\M+2BD75
 10
-560.2556195568435
 20
-117.2104478738293
 30
0.0
 11
-560.2556195568435
 21
-119.41788873453
 31
0.0
  0
LINE
  5
4498
  8
\M+2BBB2\M+2A755\M+2BD75
 10
-560.25561955686487
 20
-121.6253295952306
 30
0.0
 11
-560.2556195568435
 21
-119.41788873453
 31
0.0
  0
LINE
  5
48FE
  8
\M+2BBB2\M+2A755\M+2BD75
 10
-560.2556195568435
 20
-119.41788873453
 30
0.0
 11
-560.2556195568435
 21
-117.2008288079995
 31
0.0
  0
LINE
  5
490E
  8
\M+2BBB2\M+2A755\M+2BD75
 10
-560.2556195568435
 20
-119.41788873453
 30
0.0
 11
-560.2556195568435
 21
-121.63494866106031
 31
0.0
  0
LINE
  5
491F
  8
\M+2BBB2\M+2A755\M+2BD75
 10
-559.71625055684331
 20
-117.35476551791569
 30
0.0
 11
-559.71625055684331
 21
-119.41788873453
 31
0.0
  0
LINE
  5
4920
  8
\M+2BBB2\M+2A755\M+2BD75
 10
-559.80680155684331
 20
-117.3717733632042
 30
0.0
 11
-559.80680155684331
 21
-117.527961053008
 31
0.0
  0
LINE
  5
4921
  8
\M+2BBB2\M+2A755\M+2BD75
 10
-559.80680155684331
 20
-117.527961053008
 30
0.0
 11
-559.80680155684331
 21
-119.41788873453
 31
0.0
  0
ARC
  5
4922
  8
\M+2BBB2\M+2A755\M+2BD75
 10
-559.77530555684348
 20
-117.35476551791569
 30
0.0
 40
0.059055
 50
0.000000000000007
 51
56.73810748405198
  0
LINE
  5
4923
  8
\M+2BBB2\M+2A755\M+2BD75
 10
-560.18869055684331
 20
-117.1555533079998
 30
0.0
 11
-560.18869055684331
 21
-117.2008288079995
 31
0.0
  0
LINE
  5
4924
  8
\M+2BBB2\M+2A755\M+2BD75
 10
-560.18869055684331
 20
-117.1555533079998
 30
0.0
 11
-559.96841715808102
 21
-117.1670973476639
 31
0.0
  0
LINE
  5
4925
  8
\M+2BBB2\M+2A755\M+2BD75
 10
-560.18869055684331
 20
-117.2462285753022
 30
0.0
 11
-559.98166108524822
 21
-117.2570785301545
 31
0.0
  0
LINE
  5
4926
  8
\M+2BBB2\M+2A755\M+2BD75
 10
-559.74291584995524
 20
-117.3053853608412
 30
0.0
 11
-559.93911815108868
 21
-117.1766912577644
 31
0.0
  0
LINE
  5
4927
  8
\M+2BBB2\M+2A755\M+2BD75
 10
-559.80680155684331
 20
-117.3717733632042
 30
0.0
 11
-559.98166108524822
 21
-117.2570785301545
 31
0.0
  0
ARC
  5
4928
  8
\M+2BBB2\M+2A755\M+2BD75
 10
-559.97150785797703
 20
-117.2260714148388
 30
0.0
 40
0.059055
 50
56.73810748405181
 51
87.000000000000043
  0
LINE
  5
4929
  8
\M+2BBB2\M+2A755\M+2BD75
 10
-559.71625055684331
 20
-119.41788873453
 30
0.0
 11
-559.71625055684331
 21
-119.4175995881715
 31
0.0
  0
LINE
  5
492A
  8
\M+2BBB2\M+2A755\M+2BD75
 10
-559.80680155684331
 20
-119.41788873453
 30
0.0
 11
-559.80680155684331
 21
-119.4175995881715
 31
0.0
  0
LINE
  5
492B
  8
\M+2BBB2\M+2A755\M+2BD75
 10
-560.18869055684331
 20
-117.2008288079995
 30
0.0
 11
-560.2556195568435
 21
-117.2008288079995
 31
0.0
  0
LINE
  5
492C
  8
\M+2BBB2\M+2A755\M+2BD75
 10
-560.25561955684338
 20
-117.2008288079995
 30
0.0
 11
-560.25561955684338
 21
-119.41788873453
 31
0.0
  0
LINE
  5
492D
  8
\M+2BBB2\M+2A755\M+2BD75
 10
-560.18869055684331
 20
-117.2462285753022
 30
0.0
 11
-560.2556195568435
 21
-117.2462285753022
 31
0.0
  0
LINE
  5
492E
  8
\M+2BBB2\M+2A755\M+2BD75
 10
-559.71625055684331
 20
-117.7456032842699
 30
0.0
 11
-559.73593555684329
 21
-117.7456032842699
 31
0.0
  0
LINE
  5
492F
  8
\M+2BBB2\M+2A755\M+2BD75
 10
-559.71625055684331
 20
-117.78497328242651
 30
0.0
 11
-559.73593555684329
 21
-117.78497328242651
 31
0.0
  0
LINE
  5
4930
  8
\M+2BBB2\M+2A755\M+2BD75
 10
-559.73593555684329
 20
-117.78497328242651
 30
0.0
 11
-559.73593555684329
 21
-117.7456032842699
 31
0.0
  0
LINE
  5
4932
  8
\M+2BBB2\M+2A755\M+2BD75
  6
HIDDEN2
 62
     1
 10
-560.17687955684335
 20
-117.793708553008
 30
0.0
 11
-560.17687955684335
 21
-117.577173553008
 31
0.0
  0
LINE
  5
4933
  8
\M+2BBB2\M+2A755\M+2BD75
 10
-559.80680155684331
 20
-117.91198623453
 30
0.0
 11
-560.02333655684333
 21
-117.91198623453
 31
0.0
  0
LINE
  5
4934
  8
\M+2BBB2\M+2A755\M+2BD75
 10
-559.80680155684331
 20
-118.1678912345299
 30
0.0
 11
-560.02333655684333
 21
-118.1678912345299
 31
0.0
  0
LINE
  5
4935
  8
\M+2BBB2\M+2A755\M+2BD75
  6
HIDDEN2
 62
     1
 10
-559.80680155684331
 20
-117.9956474845299
 30
0.0
 11
-560.00365155684335
 21
-117.9956474845299
 31
0.0
  0
LINE
  5
4936
  8
\M+2BBB2\M+2A755\M+2BD75
  6
HIDDEN2
 62
     1
 10
-559.80680155684331
 20
-118.0842299845299
 30
0.0
 11
-560.00365155684335
 21
-118.0842299845299
 31
0.0
  0
LINE
  5
4937
  8
\M+2BBB2\M+2A755\M+2BD75
  6
HIDDEN2
 62
     1
 10
-560.02333655684333
 20
-118.10391498452989
 30
0.0
 11
-560.00365155684335
 21
-118.0842299845299
 31
0.0
  0
LINE
  5
4938
  8
\M+2BBB2\M+2A755\M+2BD75
 10
-560.02333655684333
 20
-118.1678912345299
 30
0.0
 11
-560.02333655684333
 21
-117.91198623453
 31
0.0
  0
LINE
  5
4939
  8
\M+2BBB2\M+2A755\M+2BD75
  6
HIDDEN2
 62
     1
 10
-560.00365155684335
 20
-117.9956474845299
 30
0.0
 11
-560.02333655684333
 21
-117.9759624845299
 31
0.0
  0
LINE
  5
493A
  8
\M+2BBB2\M+2A755\M+2BD75
  6
HIDDEN2
 62
     1
 10
-560.17687955684335
 20
-117.74449605300801
 30
0.0
 11
-560.25561955684338
 21
-117.74449605300801
 31
0.0
  0
LINE
  5
493B
  8
\M+2BBB2\M+2A755\M+2BD75
  6
HIDDEN2
 62
     1
 10
-560.17687955684335
 20
-117.62638605300801
 30
0.0
 11
-560.25561955684338
 21
-117.62638605300801
 31
0.0
  0
LINE
  5
493C
  8
\M+2BBB2\M+2A755\M+2BD75
 10
-559.80680155684331
 20
-117.8429210530079
 30
0.0
 11
-560.25561955684338
 21
-117.8429210530079
 31
0.0
  0
LINE
  5
493D
  8
\M+2BBB2\M+2A755\M+2BD75
 10
-559.80680155684331
 20
-117.527961053008
 30
0.0
 11
-560.25561955684338
 21
-117.527961053008
 31
0.0
  0
LINE
  5
493E
  8
\M+2BBB2\M+2A755\M+2BD75
  6
HIDDEN2
 62
     1
 10
-560.17687955684335
 20
-117.577173553008
 30
0.0
 11
-559.71625055684331
 21
-117.567331053008
 31
0.0
  0
LINE
  5
493F
  8
\M+2BBB2\M+2A755\M+2BD75
  6
HIDDEN2
 62
     1
 10
-560.17687955684335
 20
-117.793708553008
 30
0.0
 11
-559.71625055684331
 21
-117.80355105300799
 31
0.0
  0
LINE
  5
4940
  8
\M+2BBB2\M+2A755\M+2BD75
 10
-559.71625055684331
 20
-121.4810119511442
 30
0.0
 11
-559.71625055684331
 21
-119.41788873453
 31
0.0
  0
LINE
  5
4941
  8
\M+2BBB2\M+2A755\M+2BD75
 10
-559.80680155684331
 20
-121.46400410585559
 30
0.0
 11
-559.80680155684331
 21
-121.30781641605191
 31
0.0
  0
LINE
  5
4942
  8
\M+2BBB2\M+2A755\M+2BD75
 10
-559.80680155684331
 20
-121.30781641605191
 30
0.0
 11
-559.80680155684331
 21
-119.41788873453
 31
0.0
  0
ARC
  5
4943
  8
\M+2BBB2\M+2A755\M+2BD75
 10
-559.77530555684348
 20
-121.4810119511442
 30
0.0
 40
0.059055
 50
303.26189251594792
 51
0.000000000000007
  0
LINE
  5
4944
  8
\M+2BBB2\M+2A755\M+2BD75
 10
-560.18869055684331
 20
-121.68022416106
 30
0.0
 11
-560.18869055684331
 21
-121.63494866106031
 31
0.0
  0
LINE
  5
4945
  8
\M+2BBB2\M+2A755\M+2BD75
 10
-560.18869055684331
 20
-121.68022416106
 30
0.0
 11
-559.96841715808102
 21
-121.66868012139589
 31
0.0
  0
LINE
  5
4946
  8
\M+2BBB2\M+2A755\M+2BD75
 10
-560.18869055684331
 20
-121.58954889375769
 30
0.0
 11
-559.98166108524822
 21
-121.57869893890521
 31
0.0
  0
LINE
  5
4947
  8
\M+2BBB2\M+2A755\M+2BD75
 10
-559.74291584995524
 20
-121.53039210821861
 30
0.0
 11
-559.93911815108868
 21
-121.6590862112955
 31
0.0
  0
LINE
  5
4948
  8
\M+2BBB2\M+2A755\M+2BD75
 10
-559.80680155684331
 20
-121.46400410585559
 30
0.0
 11
-559.98166108524822
 21
-121.57869893890521
 31
0.0
  0
ARC
  5
4949
  8
\M+2BBB2\M+2A755\M+2BD75
 10
-559.97150785797703
 20
-121.60970605422099
 30
0.0
 40
0.059055
 50
272.99999999999989
 51
303.26189251594809
  0
LINE
  5
494A
  8
\M+2BBB2\M+2A755\M+2BD75
 10
-559.71625055684331
 20
-119.41788873453
 30
0.0
 11
-559.71625055684331
 21
-119.41817788088819
 31
0.0
  0
LINE
  5
494B
  8
\M+2BBB2\M+2A755\M+2BD75
 10
-559.80680155684331
 20
-119.41788873453
 30
0.0
 11
-559.80680155684331
 21
-119.41817788088819
 31
0.0
  0
LINE
  5
494C
  8
\M+2BBB2\M+2A755\M+2BD75
 10
-560.18869055684331
 20
-121.63494866106009
 30
0.0
 11
-560.2556195568435
 21
-121.63494866106031
 31
0.0
  0
LINE
  5
494D
  8
\M+2BBB2\M+2A755\M+2BD75
 10
-560.25561955684338
 20
-121.63494866106009
 30
0.0
 11
-560.25561955684338
 21
-119.41788873453
 31
0.0
  0
LINE
  5
494E
  8
\M+2BBB2\M+2A755\M+2BD75
 10
-560.18869055684331
 20
-121.58954889375769
 30
0.0
 11
-560.2556195568435
 21
-121.58954889375769
 31
0.0
  0
LINE
  5
494F
  8
\M+2BBB2\M+2A755\M+2BD75
 10
-559.71625055684331
 20
-121.09017418479
 30
0.0
 11
-559.73593555684329
 21
-121.09017418479
 31
0.0
  0
LINE
  5
4950
  8
\M+2BBB2\M+2A755\M+2BD75
 10
-559.71625055684331
 20
-121.0508041866332
 30
0.0
 11
-559.73593555684329
 21
-121.0508041866332
 31
0.0
  0
LINE
  5
4951
  8
\M+2BBB2\M+2A755\M+2BD75
 10
-559.73593555684329
 20
-121.0508041866332
 30
0.0
 11
-559.73593555684329
 21
-121.09017418479
 31
0.0
  0
LINE
  5
4953
  8
\M+2BBB2\M+2A755\M+2BD75
  6
HIDDEN2
 62
     1
 10
-560.17687955684335
 20
-121.0420689160519
 30
0.0
 11
-560.17687955684335
 21
-121.2586039160518
 31
0.0
  0
LINE
  5
4954
  8
\M+2BBB2\M+2A755\M+2BD75
 10
-559.80680155684331
 20
-120.9237912345299
 30
0.0
 11
-560.02333655684333
 21
-120.9237912345299
 31
0.0
  0
LINE
  5
4955
  8
\M+2BBB2\M+2A755\M+2BD75
 10
-559.80680155684331
 20
-120.6678862345299
 30
0.0
 11
-560.02333655684333
 21
-120.6678862345299
 31
0.0
  0
LINE
  5
4956
  8
\M+2BBB2\M+2A755\M+2BD75
  6
HIDDEN2
 62
     1
 10
-559.80680155684331
 20
-120.84012998452999
 30
0.0
 11
-560.00365155684335
 21
-120.84012998452999
 31
0.0
  0
LINE
  5
4957
  8
\M+2BBB2\M+2A755\M+2BD75
  6
HIDDEN2
 62
     1
 10
-559.80680155684331
 20
-120.75154748452999
 30
0.0
 11
-560.00365155684335
 21
-120.75154748452999
 31
0.0
  0
LINE
  5
4958
  8
\M+2BBB2\M+2A755\M+2BD75
  6
HIDDEN2
 62
     1
 10
-560.02333655684333
 20
-120.73186248453
 30
0.0
 11
-560.00365155684335
 21
-120.75154748452999
 31
0.0
  0
LINE
  5
4959
  8
\M+2BBB2\M+2A755\M+2BD75
 10
-560.02333655684333
 20
-120.6678862345299
 30
0.0
 11
-560.02333655684333
 21
-120.9237912345299
 31
0.0
  0
LINE
  5
495A
  8
\M+2BBB2\M+2A755\M+2BD75
  6
HIDDEN2
 62
     1
 10
-560.00365155684335
 20
-120.84012998452999
 30
0.0
 11
-560.02333655684333
 21
-120.85981498453
 31
0.0
  0
LINE
  5
495B
  8
\M+2BBB2\M+2A755\M+2BD75
  6
HIDDEN2
 62
     1
 10
-560.17687955684335
 20
-121.0912814160518
 30
0.0
 11
-560.25561955684338
 21
-121.0912814160518
 31
0.0
  0
LINE
  5
495C
  8
\M+2BBB2\M+2A755\M+2BD75
  6
HIDDEN2
 62
     1
 10
-560.17687955684335
 20
-121.2093914160518
 30
0.0
 11
-560.25561955684338
 21
-121.2093914160518
 31
0.0
  0
LINE
  5
495D
  8
\M+2BBB2\M+2A755\M+2BD75
 10
-559.80680155684331
 20
-120.99285641605189
 30
0.0
 11
-560.25561955684338
 21
-120.99285641605189
 31
0.0
  0
LINE
  5
495E
  8
\M+2BBB2\M+2A755\M+2BD75
 10
-559.80680155684331
 20
-121.30781641605191
 30
0.0
 11
-560.25561955684338
 21
-121.30781641605191
 31
0.0
  0
LINE
  5
495F
  8
\M+2BBB2\M+2A755\M+2BD75
  6
HIDDEN2
 62
     1
 10
-560.17687955684335
 20
-121.2586039160518
 30
0.0
 11
-559.71625055684331
 21
-121.2684464160519
 31
0.0
  0
LINE
  5
4960
  8
\M+2BBB2\M+2A755\M+2BD75
  6
HIDDEN2
 62
     1
 10
-560.17687955684335
 20
-121.0420689160519
 30
0.0
 11
-559.71625055684331
 21
-121.0322264160518
 31
0.0
  0
LINE
  5
497B
  8
\M+2A4A4\M+2A4DF\M+2BD75
 10
-560.2556195568435
 20
-119.41788873453
 30
0.0
 11
-560.34846115293715
 21
-119.41788873453
 31
0.0
  0
LINE
  5
497E
  8
\M+2A4A4\M+2A4DF\M+2BD75
 10
-560.20446217883807
 20
-121.6304453330311
 30
0.0
 11
-560.20446217884341
 21
-121.6816027110324
 31
0.0
  0
LINE
  5
497F
  8
\M+2A4A4\M+2A4DF\M+2BD75
 10
-560.78675640991219
 20
-117.527961053008
 30
0.0
 11
-560.80071541576967
 21
-117.527961053008
 31
0.0
  0
LINE
  5
4981
  8
\M+2A4A4\M+2A4DF\M+2BD75
 10
-560.2556195568435
 20
-117.8429210530079
 30
0.0
 11
-560.76719333684332
 21
-117.8429210530079
 31
0.0
  0
LINE
  5
4982
  8
\M+2BBB2\M+2A755\M+2BD75
 10
-560.76719333684332
 20
-117.91198623453
 30
0.0
 11
-560.55065833684318
 21
-117.91198623453
 31
0.0
  0
LINE
  5
4983
  8
\M+2BBB2\M+2A755\M+2BD75
 10
-560.76719333684332
 20
-118.1678912345299
 30
0.0
 11
-560.55065833684318
 21
-118.1678912345299
 31
0.0
  0
LINE
  5
4984
  8
\M+2BBB2\M+2A755\M+2BD75
  6
HIDDEN2
 62
     1
 10
-560.76719333684332
 20
-117.9956474845299
 30
0.0
 11
-560.57034333684328
 21
-117.9956474845299
 31
0.0
  0
LINE
  5
4985
  8
\M+2BBB2\M+2A755\M+2BD75
  6
HIDDEN2
 62
     1
 10
-560.76719333684332
 20
-118.0842299845299
 30
0.0
 11
-560.57034333684328
 21
-118.0842299845299
 31
0.0
  0
LINE
  5
4986
  8
\M+2BBB2\M+2A755\M+2BD75
  6
HIDDEN2
 62
     1
 10
-560.55065833684318
 20
-118.10391498452989
 30
0.0
 11
-560.57034333684328
 21
-118.0842299845299
 31
0.0
  0
LINE
  5
4987
  8
\M+2BBB2\M+2A755\M+2BD75
 10
-560.55065833684318
 20
-118.1678912345299
 30
0.0
 11
-560.55065833684318
 21
-117.91198623453
 31
0.0
  0
LINE
  5
4988
  8
\M+2BBB2\M+2A755\M+2BD75
  6
HIDDEN2
 62
     1
 10
-560.57034333684328
 20
-117.9956474845299
 30
0.0
 11
-560.55065833684318
 21
-117.9759624845299
 31
0.0
  0
LINE
  5
4990
  8
\M+2A4A4\M+2A4DF\M+2BD75
 10
-560.2556195568618
 20
-121.30781641605191
 30
0.0
 11
-560.80071541576763
 21
-121.30781641605191
 31
0.0
  0
LINE
  5
4995
  8
\M+2BBB2\M+2A755\M+2BD75
 10
-560.76719333684548
 20
-120.9295380565768
 30
0.0
 11
-560.55065833684534
 21
-120.9295380565809
 31
0.0
  0
LINE
  5
4996
  8
\M+2BBB2\M+2A755\M+2BD75
 10
-560.76719333684025
 20
-120.6736330565767
 30
0.0
 11
-560.55065833684034
 21
-120.6736330565809
 31
0.0
  0
LINE
  5
4997
  8
\M+2BBB2\M+2A755\M+2BD75
  6
HIDDEN2
 62
     1
 10
-560.76719333684366
 20
-120.8458768065767
 30
0.0
 11
-560.57034333684385
 21
-120.84587680658041
 31
0.0
  0
LINE
  5
4998
  8
\M+2BBB2\M+2A755\M+2BD75
  6
HIDDEN2
 62
     1
 10
-560.76719333684196
 20
-120.7572943065767
 30
0.0
 11
-560.57034333684214
 21
-120.7572943065805
 31
0.0
  0
LINE
  5
4999
  8
\M+2BBB2\M+2A755\M+2BD75
  6
HIDDEN2
 62
     1
 10
-560.55065833684159
 20
-120.73760930658089
 30
0.0
 11
-560.57034333684214
 21
-120.7572943065805
 31
0.0
  0
LINE
  5
499A
  8
\M+2BBB2\M+2A755\M+2BD75
 10
-560.55065833684034
 20
-120.6736330565809
 30
0.0
 11
-560.55065833684534
 21
-120.9295380565809
 31
0.0
  0
LINE
  5
499B
  8
\M+2BBB2\M+2A755\M+2BD75
  6
HIDDEN2
 62
     1
 10
-560.57034333684385
 20
-120.84587680658041
 30
0.0
 11
-560.55065833684421
 21
-120.8655618065809
 31
0.0
  0
POLYLINE
  5
499D
  8
\M+2A4A4\M+2A4DF\M+2BD75
 66
     1
 10
0.0
 20
0.0
 30
0.0
 70
     1
  0
VERTEX
  5
6CE4
  8
\M+2A4A4\M+2A4DF\M+2BD75
 10
-563.65573709677085
 20
-116.4272187171331
 30
0.0
  0
VERTEX
  5
6CE5
  8
\M+2A4A4\M+2A4DF\M+2BD75
 10
-558.95039512015444
 20
-116.4272187171331
 30
0.0
  0
VERTEX
  5
6CE6
  8
\M+2A4A4\M+2A4DF\M+2BD75
 10
-558.95039512015444
 20
-122.067060763462
 30
0.0
  0
VERTEX
  5
6CE7
  8
\M+2A4A4\M+2A4DF\M+2BD75
 10
-563.65573709677085
 20
-122.067060763462
 30
0.0
  0
SEQEND
  5
6CE8
  8
\M+2A4A4\M+2A4DF\M+2BD75
  0
DIMENSION
  5
499E
  8
\M+2BBB2\M+2A755\M+2BD75
  2
*D26
 10
-562.25673038472496
 20
-121.6816027110324
 30
0.0
 11
-562.25673038472496
 21
-119.4499664078453
 31
0.0
 70
   128
 13
-560.20446217884341
 23
-117.1541747580234
 33
0.0
 14
-560.20446217884341
 24
-121.6816027110324
 34
0.0
 50
90.0
  0
DIMENSION
  5
49B4
  8
\M+2BBB2\M+2A755\M+2BD75
  2
*D27
 10
-559.71625055684331
 20
-116.7446785969795
 30
0.0
 11
-561.62525148339068
 21
-116.7446785969795
 31
0.0
 70
   128
  1
{\fTahoma|b0|i0|c0|p32;1.260 [}32{\fTahoma|b0|i0|c0|p32;]}
 13
-560.94624415984333
 23
-117.4099616440885
 33
0.0
 14
-559.71625055684331
 24
-117.4099616440885
 34
0.0
  0
DIMENSION
  5
4CF4
  8
\M+2BBB2\M+2A755\M+2BD75
  2
*D28
 10
-574.73176295116173
 20
-117.82325020265441
 30
0.0
 11
-576.17100301786695
 21
-117.82325020265441
 31
0.0
 70
   128
 13
-574.94829795116163
 23
-117.652981013093
 33
0.0
 14
-574.73176295116173
 24
-117.652981013093
 34
0.0
  0
DIMENSION
  5
4D48
  8
\M+2BBB2\M+2A755\M+2BD75
  2
*D29
 10
-569.15953315996092
 20
-117.2842652830325
 30
0.0
 11
-569.15953315996092
 21
-119.015026878979
 31
0.0
 70
   128
 13
-571.51378800088253
 23
-120.5913452830325
 33
0.0
 14
-571.51378800088253
 24
-117.2842652830325
 34
0.0
 50
90.0
  0
DIMENSION
  5
4E06
  8
\M+2BBB2\M+2A755\M+2BD75
  2
*D30
 10
-568.31767894756149
 20
-128.3739226654414
 30
0.0
 11
-569.4599123306042
 21
-128.3739226654414
 31
0.0
 70
   128
 13
-568.10114394756135
 23
-128.2866576906313
 33
0.0
 14
-568.31767894756149
 24
-128.2866576906313
 34
0.0
  0
DIMENSION
  5
4E41
  8
\M+2BBB2\M+2A755\M+2BD75
  2
*D31
 10
-573.52186531949098
 20
-131.27024231943861
 30
0.0
 11
-575.17002663670405
 21
-131.807465776546
 31
0.0
 70
   132
 15
-573.56785337522774
 25
-131.3072908248682
 35
0.0
 40
0.0
  0
DIMENSION
  5
4E4B
  8
\M+2BBB2\M+2A755\M+2BD75
  2
*D32
 10
-573.52186531949064
 20
-131.27024231943849
 30
0.0
 11
-574.70549266148691
 21
-132.2487625608702
 31
0.0
 70
   132
 15
-573.54712433057273
 25
-131.3856197628977
 35
0.0
 40
0.0
  0
DIMENSION
  5
4E82
  8
\M+2BBB2\M+2A755\M+2BD75
  2
*D33
 10
-575.23294334345883
 20
-127.9037397385279
 30
0.0
 11
-575.23294334345883
 21
-129.8009717468386
 31
0.0
 70
   128
 13
-572.32097302862087
 23
-131.1714498251672
 33
0.0
 14
-572.32118988837954
 24
-127.9037397385279
 34
0.0
 50
90.0
  0
DIMENSION
  5
4E8F
  8
\M+2BBB2\M+2A755\M+2BD75
  2
*D34
 10
-573.10848145850002
 20
-128.25831067723581
 30
0.0
 11
-575.10916180390211
 21
-127.16421039731421
 31
0.0
 70
   132
 15
-573.34849820146894
 25
-127.9976543671367
 35
0.0
 40
0.0
  0
DIMENSION
  5
4E98
  8
\M+2BBB2\M+2A755\M+2BD75
  2
*D35
 10
-571.17935145850026
 20
-126.75178224180389
 30
0.0
 11
-572.41344610801525
 21
-126.75178224180389
 31
0.0
 70
   128
 13
-573.46281145850025
 23
-128.50617038498311
 33
0.0
 14
-571.17935145850026
 24
-128.50617038498319
 34
0.0
  0
DIMENSION
  5
5D44
  8
\M+2BBB2\M+2A755\M+2BD75
  2
*D36
 10
-576.29229263716024
 20
-125.90918560382281
 30
0.0
 11
-575.19645930382706
 21
-125.90918560382281
 31
0.0
 70
   128
 13
-576.83166163716021
 23
-127.7355999046311
 33
0.0
 14
-576.29229263716024
 24
-127.7355999046311
 34
0.0
  0
INSERT
  5
5F4E
  8
\M+2BBB2\M+2A755\M+2BD75
  6
CONTINUOUS
  2
*X49
 10
0.0
 20
0.0
 30
0.0
1001
ACAD
1000
HATCH
1002
{
1070
    19
1000
ANSI31
1040
0.0102314756
1040
0.0
1000
R14_HATCH_DATA
1000
5F4E
1011
1.0
1021
0.0
1031
0.0
1021
0.0
1031
0.0
1011
0.0
1021
0.0
1031
0.0
1021
1.0
1031
0.0
1011
0.0
1021
0.0
1031
0.0
1021
0.0
1031
1.0
1040
0.0
1010
0.0
1020
0.0
1030
1.0
1000
ANSI31
1070
     0
1070
     0
1071
        2
1071
        7
1070
     0
1070
     1
1071
        7
1040
-560.2556195568435
1040
-117.527961053008
1040
-560.78675640991219
1040
-117.527961053008
1040
-560.80071541576967
1040
-117.527961053008
1040
-560.76719333684332
1040
-117.58243443126339
1040
-560.76719333684332
1040
-117.630275809008
1040
-560.28119824584326
1040
-117.630275809008
1040
-560.2556195568435
1040
-117.604697120008
1071
        0
1071
        7
1070
     0
1070
     1
1071
        6
1040
-560.2556195568435
1040
-117.783747943008
1040
-560.28119824584326
1040
-117.758169254008
1040
-560.76719333684332
1040
-117.758169254008
1040
-560.76719333684332
1040
-117.7808526385262
1040
-560.76719333684332
1040
-117.8429210530079
1040
-560.2556195568435
1040
-117.8429210530079
1071
        0
1070
     0
1070
     1
1040
0.0
1040
0.0102314756
1070
     0
1070
     1
1040
0.7853981633974483
1040
-602.8818023418446
1040
-122.1399392907134
1040
-0.0229703178461174
1040
0.0229703178461174
1070
     0
1040
0.0972254601903012
1071
        2
1040
-560.44984635656033
1040
-117.5502716483182
1040
0.0
1040
-560.46133726330925
1040
-117.8105596754007
1040
0.0
1002
}
  0
INSERT
  5
5F97
  8
\M+2BBB2\M+2A755\M+2BD75
  6
CONTINUOUS
  2
*X50
 10
0.0
 20
0.0
 30
0.0
1001
ACAD
1000
HATCH
1002
{
1070
    19
1000
ANSI31
1040
0.0102314756
1040
0.0
1000
R14_HATCH_DATA
1000
5F97
1011
1.0
1021
0.0
1031
0.0
1021
0.0
1031
0.0
1011
0.0
1021
0.0
1031
0.0
1021
1.0
1031
0.0
1011
0.0
1021
0.0
1031
0.0
1021
0.0
1031
1.0
1040
0.0
1010
0.0
1020
0.0
1030
1.0
1000
ANSI31
1070
     0
1070
     0
1071
        3
1071
        7
1070
     1
1070
     1
1071
       16
1040
-559.71625055684331
1040
-117.35476551791569
1040
0.2527515721440999
1040
-559.74291584995524
1040
-117.3053853608412
1040
0.0
1040
-559.93911815108868
1040
-117.1766912577644
1040
0.1328152007718752
1040
-559.96841715808102
1040
-117.1670973476639
1040
0.0
1040
-560.18869055684331
1040
-117.1555533079998
1040
0.0
1040
-560.18869055684331
1040
-117.2008288079995
1040
0.0
1040
-560.20446217884341
1040
-117.2008288079995
1040
0.0
1040
-560.20446217884341
1040
-117.2053321360235
1040
0.0
1040
-560.2556195568435
1040
-117.2053321360235
1040
0.0
1040
-560.2556195568435
1040
-117.2462285753022
1040
0.0
1040
-560.18869055684331
1040
-117.2462285753022
1040
0.0
1040
-559.98166108524822
1040
-117.2570785301545
1040
0.0
1040
-559.80680155684331
1040
-117.3717733632042
1040
0.0
1040
-559.80680155684331
1040
-117.527961053008
1040
0.0
1040
-559.80680155684331
1040
-117.56926590343539
1040
0.0
1040
-559.71625055684331
1040
-117.567331053008
1040
0.0
1071
        0
1071
        7
1070
     0
1070
     1
1071
        8
1040
-559.71625055684331
1040
-117.80355105300799
1040
-559.80680155684331
1040
-117.8016162025807
1040
-559.80680155684331
1040
-119.41788873453
1040
-559.80680155684331
1040
-119.41817788088819
1040
-559.80680155684331
1040
-121.0341612664792
1040
-559.71625055684331
1040
-121.0322264160518
1040
-559.71625055684331
1040
-119.41788873453
1040
-559.71625055684331
1040
-119.4175995881715
1071
        0
1071
        7
1070
     1
1070
     1
1071
       16
1040
-559.74291584995524
1040
-121.53039210821861
1040
0.2527515721441055
1040
-559.71625055684331
1040
-121.4810119511442
1040
0.0
1040
-559.71625055684331
1040
-121.2684464160519
1040
0.0
1040
-559.80680155684331
1040
-121.2665115656244
1040
0.0
1040
-559.80680155684331
1040
-121.30781641605191
1040
0.0
1040
-559.80680155684331
1040
-121.46400410585559
1040
0.0
1040
-559.98166108524822
1040
-121.57869893890521
1040
0.0
1040
-560.18869055684331
1040
-121.58954889375769
1040
0.0
1040
-560.2556195568435
1040
-121.58954889375769
1040
0.0
1040
-560.25561955684338
1040
-121.6304453330312
1040
0.0
1040
-560.20446217883807
1040
-121.6304453330311
1040
0.0
1040
-560.20446217883864
1040
-121.63494866106009
1040
0.0
1040
-560.18869055684331
1040
-121.63494866106009
1040
0.0
1040
-560.18869055684331
1040
-121.68022416106
1040
0.0
1040
-559.96841715808102
1040
-121.66868012139589
1040
0.1328152007719185
1040
-559.93911815108868
1040
-121.6590862112955
1040
0.0
1071
        0
1070
     0
1070
     1
1040
0.0
1040
0.0102314756
1070
     0
1070
     1
1040
0.7853981633974483
1040
-602.8818023418446
1040
-122.1399392907134
1040
-0.0229703178461174
1040
0.0229703178461174
1070
     0
1040
0.2895536293574148
1071
        3
1040
-559.77635074646082
1040
-117.4119071456162
1040
0.0
1040
-559.76494352728582
1040
-118.5062808978508
1040
0.0
1040
-559.81057258128988
1040
-121.5614076228385
1040
0.0
1002
}
  0
INSERT
  5
5FA6
  8
\M+2BBB2\M+2A755\M+2BD75
  6
CONTINUOUS
  2
*X51
 10
0.0
 20
0.0
 30
0.0
1001
ACAD
1000
HATCH
1002
{
1070
    19
1000
ANSI31
1040
0.0102314756
1040
0.0
1000
R14_HATCH_DATA
1000
5FA6
1011
1.0
1021
0.0
1031
0.0
1021
0.0
1031
0.0
1011
0.0
1021
0.0
1031
0.0
1021
1.0
1031
0.0
1011
0.0
1021
0.0
1031
0.0
1021
0.0
1031
1.0
1040
0.0
1010
0.0
1020
0.0
1030
1.0
1000
ANSI31
1070
     0
1070
     0
1071
        2
1071
        7
1070
     0
1070
     1
1071
        6
1040
-560.2556195568435
1040
-117.527961053008
1040
-560.2556195568435
1040
-117.62638605300801
1040
-560.17687955684335
1040
-117.62638605300801
1040
-560.17687955684335
1040
-117.577173553008
1040
-559.80680155684331
1040
-117.56926590343539
1040
-559.80680155684331
1040
-117.527961053008
1071
        0
1071
        7
1070
     0
1070
     1
1071
        6
1040
-560.2556195568435
1040
-117.74449605300801
1040
-560.2556195568435
1040
-117.8429210530079
1040
-559.80680155684331
1040
-117.8429210530079
1040
-559.80680155684331
1040
-117.8016162025807
1040
-560.17687955684335
1040
-117.793708553008
1040
-560.17687955684335
1040
-117.74449605300801
1071
        0
1070
     0
1070
     1
1040
0.0
1040
0.0102314756
1070
     0
1070
     1
1040
0.7853981633974483
1040
-602.8818023418446
1040
-122.1399392907134
1040
-0.0229703178461174
1040
0.0229703178461174
1070
     0
1040
0.0669785987013798
1071
        2
1040
-560.21366388795855
1040
-117.5565944082751
1040
0.0
1040
-560.21630270610331
1040
-117.788645751308
1040
0.0
1002
}
  0
INSERT
  5
5FBE
  8
\M+2BBB2\M+2A755\M+2BD75
  6
CONTINUOUS
  2
*X52
 10
0.0
 20
0.0
 30
0.0
1001
ACAD
1000
HATCH
1002
{
1070
    19
1000
ANSI31
1040
0.0102314756
1040
0.0
1000
R14_HATCH_DATA
1000
5FBE
1011
1.0
1021
0.0
1031
0.0
1021
0.0
1031
0.0
1011
0.0
1021
0.0
1031
0.0
1021
1.0
1031
0.0
1011
0.0
1021
0.0
1031
0.0
1021
0.0
1031
1.0
1040
0.0
1010
0.0
1020
0.0
1030
1.0
1000
ANSI31
1070
     0
1070
     0
1071
        4
1071
        7
1070
     0
1070
     1
1071
        5
1040
-560.76719333683945
1040
-120.992856416053
1040
-560.76719333683934
1040
-121.095171172053
1040
-560.28119824584326
1040
-121.09517117205191
1040
-560.2556195568435
1040
-121.06959248305201
1040
-560.2556195568435
1040
-120.99285641605189
1071
        0
1071
        7
1070
     0
1070
     1
1071
        6
1040
-560.76719333683911
1040
-121.2533430377925
1040
-560.80071541576763
1040
-121.30781641605191
1040
-560.2556195568435
1040
-121.30781641605191
1040
-560.2556195568435
1040
-121.24864330605121
1040
-560.28119824584292
1040
-121.2230646170519
1040
-560.76719333683923
1040
-121.223064617053
1071
        0
1071
        7
1070
     0
1070
     1
1071
        6
1040
-560.2556195568435
1040
-120.99285641605189
1040
-560.2556195568435
1040
-121.0912814160518
1040
-560.17687955684335
1040
-121.0912814160518
1040
-560.17687955684335
1040
-121.0420689160519
1040
-559.80680155684331
1040
-121.0341612664792
1040
-559.80680155684331
1040
-120.99285641605189
1071
        0
1071
        7
1070
     0
1070
     1
1071
        6
1040
-560.2556195568435
1040
-121.2093914160518
1040
-560.25561955684338
1040
-121.30781641605191
1040
-559.80680155684331
1040
-121.30781641605191
1040
-559.80680155684331
1040
-121.2665115656244
1040
-560.17687955684335
1040
-121.2586039160518
1040
-560.17687955684335
1040
-121.2093914160518
1071
        0
1070
     0
1070
     1
1040
0.0
1040
0.0102314756
1070
     0
1070
     1
1040
0.7853981633974483
1040
-602.8818023418446
1040
-122.1399392907134
1040
-0.0229703178461174
1040
0.0229703178461174
1070
     0
1040
0.0494155151400501
1071
        4
1040
-560.40875628962283
1040
-121.0405516351189
1040
0.0
1040
-560.40096908993723
1040
-121.2565009019001
1040
0.0
1040
-560.18098318108184
1040
-121.0308241666129
1040
0.0
1040
-560.21018482529394
1040
-121.2642828544529
1040
0.0
1002
}
  0
DIMENSION
  5
6651
  8
\M+2BBB2\M+2A755\M+2BD75
  2
*D37
 10
-578.61165252993851
 20
-117.646157152017
 30
0.0
 11
-576.51871514177526
 21
-116.61129901540789
 31
0.0
 70
   131
 15
-578.42434831724165
 25
-117.47178828744821
 35
0.0
 40
0.0
1001
ACAD
1000
DSTYLE
1002
{
1070
   288
1070
     1
1002
}
  0
DIMENSION
  5
665D
  8
\M+2BBB2\M+2A755\M+2BD75
  2
*D38
 10
-578.59655158306509
 20
-117.2378384482959
 30
0.0
 11
-576.66342060628187
 21
-116.16137180672111
 31
0.0
 70
   131
 15
-578.53787426411498
 25
-117.1714770774007
 35
0.0
 40
0.0
1001
ACAD
1000
DSTYLE
1002
{
1070
   288
1070
     1
1002
}
  0
DIMENSION
  5
6773
  8
\M+2BBB2\M+2A755\M+2BD75
  2
*D39
 10
-580.74550810983521
 20
-131.1154824725418
 30
0.0
 11
-579.47036165483473
 21
-132.7390565945669
 31
0.0
 70
   131
 15
-580.68722122662916
 25
-131.4250021663355
 35
0.0
 40
0.0
1001
ACAD
1000
DSTYLE
1002
{
1070
   288
1070
     1
1002
}
  0
DIMENSION
  5
677F
  8
\M+2BBB2\M+2A755\M+2BD75
  2
*D40
 10
-580.7531161628109
 20
-131.2190825724665
 30
0.0
 11
-579.11952975012082
 21
-132.14365354807819
 31
0.0
 70
   131
 15
-580.67961317365371
 25
-131.3214020664108
 35
0.0
 40
0.0
1001
ACAD
1000
DSTYLE
1002
{
1070
   288
1070
     1
1002
}
  0
DIMENSION
  5
678B
  8
\M+2BBB2\M+2A755\M+2BD75
  2
*D41
 10
-578.19953455614564
 20
-128.04941649534649
 30
0.0
 11
-579.68351318107875
 21
-128.86909616483021
 31
0.0
 70
   131
 15
-578.33331589210673
 25
-128.2675676428876
 35
0.0
 40
0.0
1001
ACAD
1000
DSTYLE
1002
{
1070
   288
1070
     1
1002
}
  0
DIMENSION
  5
6797
  8
\M+2BBB2\M+2A755\M+2BD75
  2
*D42
 10
-580.73876480842068
 20
-128.19462400690881
 30
0.0
 11
-583.18118126544255
 21
-126.36676970430661
 31
0.0
 70
   131
 15
-580.79407469680962
 25
-128.12543097580999
 35
0.0
 40
0.0
1001
ACAD
1000
DSTYLE
1002
{
1070
   288
1070
     1
1002
}
  0
INSERT
  5
6962
  8
\M+2BBB2\M+2A755\M+2BD75
 66
     1
  2
D
 10
-586.90072590100567
 20
-134.21825827809391
 30
0.0
  0
ATTRIB
  5
6963
  8
TEXT
 10
-559.50100038522714
 20
-133.6788532324762
 30
0.0
 40
0.125
  1
RD
 41
0.75
  7
TXT
 72
     1
 11
-559.42287538522714
 21
-133.6788532324762
 31
0.0
  2
NAME
 70
     4
  0
ATTRIB
  5
6964
  8
TEXT
 10
-559.03998992468883
 20
-133.6788532324762
 30
0.0
 40
0.125
  1
10-13-08
 41
0.75
  7
TXT
 72
     1
 11
-558.72748992468883
 21
-133.6788532324762
 31
0.0
  2
DATE
 70
     4
  0
ATTRIB
  5
6965
  8
TEXT
 10
-556.43585310096125
 20
-133.5076514607635
 30
0.0
 40
0.125
  1
HAND-HELD BOX STYLE P
 41
0.75
  7
TXT
 72
     1
 11
-555.46710310096125
 21
-133.5076514607635
 31
0.0
  2
TITLE1
 70
     4
  0
ATTRIB
  5
6966
  8
TEXT
 10
-556.27960310096125
 20
-133.71878092688991
 30
0.0
 40
0.125
  1
 4.53 X 3.27 X 1.26
 41
0.75
  7
TXT
 72
     1
 11
-555.46710310096125
 21
-133.71878092688991
 31
0.0
  2
TITLE2
 70
     4
  0
ATTRIB
  5
6967
  8
TEXT
 10
-555.66047831262517
 20
-134.11203394492961
 30
0.0
 40
0.156
  1
HH-3643
 41
0.75
  7
TXT
 72
     1
 11
-555.2704783126253
 21
-134.11203394492961
 31
0.0
  2
PART
 70
     4
  0
ATTRIB
  5
6968
  8
TEXT
 10
-555.66047831262517
 20
-113.5406174420575
 30
0.0
 40
0.156
  1
HH-3643
 41
0.75
  7
TXT
 72
     1
 11
-555.2704783126253
 21
-113.5406174420575
 31
0.0
  2
PART
 70
     4
  0
ATTRIB
  5
6969
  8
TEXT
 10
-563.84382829685478
 20
-133.03624594299649
 30
0.0
 40
0.125
  1

 41
4.9364164263857306
  7
TXT
 72
     5
 11
-559.93583195929966
 21
-133.03624594299649
 31
0.0
  2
CUTSIZE
 70
     4
  0
ATTRIB
  5
696A
  8
TEXT
 10
-563.70635521187671
 20
-133.9314794511329
 30
0.0
 40
0.125
  1

 41
0.75
  7
TXT
 72
     1
 11
-563.70635521187671
 21
-133.9314794511329
 31
0.0
  2
QTY
 70
     4
  0
ATTRIB
  5
696B
  8
TEXT
 10
-562.76167169847872
 20
-133.9314794511329
 30
0.0
 40
0.125
  1

 41
0.75
  7
TXT
 72
     1
 11
-562.76167169847872
 21
-133.9314794511329
 31
0.0
  2
USED
 70
     4
  0
ATTRIB
  5
696C
  8
TEXT
 10
-559.03611967809161
 20
-133.26272590702371
 30
0.0
 40
0.125
  1
NOTED
 41
0.75
  7
TXT
 72
     1
 11
-558.8173696780915
 21
-133.26272590702371
 31
0.0
  2
MAT
 70
     4
  0
ATTRIB
  5
696D
  8
TEXT
 10
-559.03611967809161
 20
-133.47460407023331
 30
0.0
 40
0.125
  1
BLACK
 41
0.75
  7
TXT
 72
     1
 11
-558.8173696780915
 21
-133.47460407023331
 31
0.0
  2
FINISH
 70
     4
  0
SEQEND
  5
696E
  8
\M+2BBB2\M+2A755\M+2BD75
  0
INSERT
  5
6A69
  8
\M+2BBB2\M+2A755\M+2BD75
  2
*U56
 10
0.0
 20
0.0
 30
0.0
  0
INSERT
  5
6AAC
  8
\M+2BBB2\M+2A755\M+2BD75
 66
     1
  2
REVCHART
 10
-556.83822590100567
 20
-113.9057582780939
 30
0.0
  0
ATTRIB
  5
6AAD
  8
TEXT
 10
-556.56322590100569
 20
-114.20527134871919
 30
0.0
 40
0.15
  1
A
 41
0.75
  7
TXT
 72
     4
 11
-556.52572590100567
 21
-114.13027134871921
 31
0.0
  2
REV
 70
     4
  0
ATTRIB
  5
6AAE
  8
TEXT
 62
     1
 10
-556.12097707600424
 20
-114.099017948349
 30
0.0
 40
0.125
  1
SCREW DESCRIPTION
 41
0.75
  7
TXT
  2
REV1
 70
     4
  0
ATTRIB
  5
6AAF
  8
TEXT
 62
     1
 10
-556.12097707600424
 20
-114.3073512816823
 30
0.0
 40
0.125
  1
ADDED  7-9-15
 41
0.75
  7
TXT
  2
REV2
 70
     4
  0
SEQEND
  5
6AB0
  8
\M+2BBB2\M+2A755\M+2BD75
  0
ENDSEC
  0
EOF
