  0
SECTION
  2
HEADER
  9
$ACADVER
  1
AC1015
  9
$ACADMAINTVER
 70
     6
  9
$DWGCODEPAGE
  3
ANSI_1252
  9
$INSBASE
 10
0.0
 20
0.0
 30
0.0
  9
$EXTMIN
 10
0.0
 20
0.0
 30
0.0
  9
$EXTMAX
 10
25.5
 20
16.5
 30
0.0
  9
$LIMMIN
 10
0.0
 20
0.0
  9
$LIMMAX
 10
25.5
 20
16.5
  9
$ORTHOMODE
 70
     0
  9
$REGENMODE
 70
     1
  9
$FILLMODE
 70
     1
  9
$QTEXTMODE
 70
     0
  9
$MIRRTEXT
 70
     1
  9
$LTSCALE
 40
1.5
  9
$ATTMODE
 70
     1
  9
$TEXTSIZE
 40
0.1875
  9
$TRACEWID
 40
0.05
  9
$TEXTSTYLE
  7
Standard
  9
$CLAYER
  8
0
  9
$CELTYPE
  6
ByLayer
  9
$CECOLOR
 62
   256
  9
$CELTSCALE
 40
1.0
  9
$DISPSILH
 70
     0
  9
$DIMSCALE
 40
1.0
  9
$DIMASZ
 40
0.195
  9
$DIMEXO
 40
0.075
  9
$DIMDLI
 40
0.38
  9
$DIMRND
 40
0.0
  9
$DIMDLE
 40
0.0
  9
$DIMEXE
 40
0.1875
  9
$DIMTP
 40
0.0
  9
$DIMTM
 40
0.0
  9
$DIMTXT
 40
0.1875
  9
$DIMCEN
 40
0.09
  9
$DIMTSZ
 40
0.0
  9
$DIMTOL
 70
     0
  9
$DIMLIM
 70
     0
  9
$DIMTIH
 70
     1
  9
$DIMTOH
 70
     1
  9
$DIMSE1
 70
     0
  9
$DIMSE2
 70
     0
  9
$DIMTAD
 70
     1
  9
$DIMZIN
 70
     0
  9
$DIMBLK
  1

  9
$DIMASO
 70
     1
  9
$DIMSHO
 70
     1
  9
$DIMPOST
  1

  9
$DIMAPOST
  1

  9
$DIMALT
 70
     0
  9
$DIMALTD
 70
     2
  9
$DIMALTF
 40
25.4
  9
$DIMLFAC
 40
1.0
  9
$DIMTOFL
 70
     0
  9
$DIMTVP
 40
0.0
  9
$DIMTIX
 70
     0
  9
$DIMSOXD
 70
     0
  9
$DIMSAH
 70
     0
  9
$DIMBLK1
  1

  9
$DIMBLK2
  1

  9
$DIMSTYLE
  2
Standard
  9
$DIMCLRD
 70
     0
  9
$DIMCLRE
 70
     0
  9
$DIMCLRT
 70
     0
  9
$DIMTFAC
 40
1.0
  9
$DIMGAP
 40
0.09
  9
$DIMJUST
 70
     0
  9
$DIMSD1
 70
     0
  9
$DIMSD2
 70
     0
  9
$DIMTOLJ
 70
     1
  9
$DIMTZIN
 70
     0
  9
$DIMALTZ
 70
     0
  9
$DIMALTTZ
 70
     0
  9
$DIMUPT
 70
     0
  9
$DIMDEC
 70
     2
  9
$DIMTDEC
 70
     2
  9
$DIMALTU
 70
     2
  9
$DIMALTTD
 70
     2
  9
$DIMTXSTY
  7
Standard
  9
$DIMAUNIT
 70
     0
  9
$DIMADEC
 70
     2
  9
$DIMALTRND
 40
0.0
  9
$DIMAZIN
 70
     0
  9
$DIMDSEP
 70
    46
  9
$DIMATFIT
 70
     3
  9
$DIMFRAC
 70
     0
  9
$DIMLDRBLK
  1

  9
$DIMLUNIT
 70
     2
  9
$DIMLWD
 70
    -2
  9
$DIMLWE
 70
    -2
  9
$DIMTMOVE
 70
     0
  9
$LUNITS
 70
     2
  9
$LUPREC
 70
     2
  9
$SKETCHINC
 40
0.1
  9
$FILLETRAD
 40
0.5
  9
$AUNITS
 70
     0
  9
$AUPREC
 70
     2
  9
$MENU
  1
.
  9
$ELEVATION
 40
0.0
  9
$PELEVATION
 40
0.0
  9
$THICKNESS
 40
0.0
  9
$LIMCHECK
 70
     0
  9
$CHAMFERA
 40
0.5
  9
$CHAMFERB
 40
0.5
  9
$CHAMFERC
 40
1.0
  9
$CHAMFERD
 40
0.0
  9
$SKPOLY
 70
     0
  9
$TDCREATE
 40
2455705.410329086
  9
$TDUCREATE
 40
2455705.576995752
  9
$TDUPDATE
 40
2455705.410329097
  9
$TDUUPDATE
 40
2455705.576995764
  9
$TDINDWG
 40
0.0000000116
  9
$TDUSRTIMER
 40
0.0000000116
  9
$USRTIMER
 70
     1
  9
$ANGBASE
 50
0.0
  9
$ANGDIR
 70
     0
  9
$PDMODE
 70
     0
  9
$PDSIZE
 40
-1.0
  9
$PLINEWID
 40
0.0
  9
$SPLFRAME
 70
     0
  9
$SPLINETYPE
 70
     6
  9
$SPLINESEGS
 70
     8
  9
$HANDSEED
  5
4F4
  9
$SURFTAB1
 70
     6
  9
$SURFTAB2
 70
     6
  9
$SURFTYPE
 70
     6
  9
$SURFU
 70
     6
  9
$SURFV
 70
     6
  9
$UCSBASE
  2

  9
$UCSNAME
  2

  9
$UCSORG
 10
0.0
 20
0.0
 30
0.0
  9
$UCSXDIR
 10
1.0
 20
0.0
 30
0.0
  9
$UCSYDIR
 10
0.0
 20
1.0
 30
0.0
  9
$UCSORTHOREF
  2

  9
$UCSORTHOVIEW
 70
     0
  9
$UCSORGTOP
 10
0.0
 20
0.0
 30
0.0
  9
$UCSORGBOTTOM
 10
0.0
 20
0.0
 30
0.0
  9
$UCSORGLEFT
 10
0.0
 20
0.0
 30
0.0
  9
$UCSORGRIGHT
 10
0.0
 20
0.0
 30
0.0
  9
$UCSORGFRONT
 10
0.0
 20
0.0
 30
0.0
  9
$UCSORGBACK
 10
0.0
 20
0.0
 30
0.0
  9
$PUCSBASE
  2

  9
$PUCSNAME
  2

  9
$PUCSORG
 10
0.0
 20
0.0
 30
0.0
  9
$PUCSXDIR
 10
1.0
 20
0.0
 30
0.0
  9
$PUCSYDIR
 10
0.0
 20
1.0
 30
0.0
  9
$PUCSORTHOREF
  2

  9
$PUCSORTHOVIEW
 70
     0
  9
$PUCSORGTOP
 10
0.0
 20
0.0
 30
0.0
  9
$PUCSORGBOTTOM
 10
0.0
 20
0.0
 30
0.0
  9
$PUCSORGLEFT
 10
0.0
 20
0.0
 30
0.0
  9
$PUCSORGRIGHT
 10
0.0
 20
0.0
 30
0.0
  9
$PUCSORGFRONT
 10
0.0
 20
0.0
 30
0.0
  9
$PUCSORGBACK
 10
0.0
 20
0.0
 30
0.0
  9
$USERI1
 70
     0
  9
$USERI2
 70
     0
  9
$USERI3
 70
     0
  9
$USERI4
 70
     0
  9
$USERI5
 70
     0
  9
$USERR1
 40
0.0
  9
$USERR2
 40
0.0
  9
$USERR3
 40
0.0
  9
$USERR4
 40
0.0
  9
$USERR5
 40
0.0
  9
$WORLDVIEW
 70
     1
  9
$SHADEDGE
 70
     3
  9
$SHADEDIF
 70
    70
  9
$TILEMODE
 70
     1
  9
$MAXACTVP
 70
    64
  9
$PINSBASE
 10
0.0
 20
0.0
 30
0.0
  9
$PLIMCHECK
 70
     0
  9
$PEXTMIN
 10
1.0000000000E+20
 20
1.0000000000E+20
 30
1.0000000000E+20
  9
$PEXTMAX
 10
-1.0000000000E+20
 20
-1.0000000000E+20
 30
-1.0000000000E+20
  9
$PLIMMIN
 10
0.0
 20
0.0
  9
$PLIMMAX
 10
12.0
 20
9.0
  9
$UNITMODE
 70
     0
  9
$VISRETAIN
 70
     1
  9
$PLINEGEN
 70
     0
  9
$PSLTSCALE
 70
     1
  9
$TREEDEPTH
 70
  3020
  9
$CMLSTYLE
  2
Standard
  9
$CMLJUST
 70
     0
  9
$CMLSCALE
 40
1.0
  9
$PROXYGRAPHICS
 70
     1
  9
$MEASUREMENT
 70
     0
  9
$CELWEIGHT
370
    -1
  9
$ENDCAPS
280
     0
  9
$JOINSTYLE
280
     0
  9
$LWDISPLAY
290
     1
  9
$INSUNITS
 70
     1
  9
$HYPERLINKBASE
  1

  9
$STYLESHEET
  1

  9
$XEDIT
290
     1
  9
$CEPSNTYPE
380
     0
  9
$PSTYLEMODE
290
     1
  9
$FINGERPRINTGUID
  2
{B63BD48C-3E1A-4C79-9242-CCB2878DF2EE}
  9
$VERSIONGUID
  2
{FAEB1C32-E019-11D5-929B-00C0DF256EC4}
  9
$EXTNAMES
290
     1
  9
$PSVPSCALE
 40
0.0
  9
$OLESTARTUP
290
     0
  0
ENDSEC
  0
SECTION
  2
CLASSES
  0
CLASS
  1
ACDBDICTIONARYWDFLT
  2
AcDbDictionaryWithDefault
  3
ObjectDBX Classes
 90
        0
280
     0
281
     0
  0
CLASS
  1
VISUALSTYLE
  2
AcDbVisualStyle
  3
ObjectDBX Classes
 90
     4095
280
     0
281
     0
  0
CLASS
  1
MATERIAL
  2
AcDbMaterial
  3
ObjectDBX Classes
 90
     1153
280
     0
281
     0
  0
CLASS
  1
SCALE
  2
AcDbScale
  3
ObjectDBX Classes
 90
     1153
280
     0
281
     0
  0
CLASS
  1
DICTIONARYVAR
  2
AcDbDictionaryVar
  3
ObjectDBX Classes
 90
        0
280
     0
281
     0
  0
CLASS
  1
ACDBPLACEHOLDER
  2
AcDbPlaceHolder
  3
ObjectDBX Classes
 90
        0
280
     0
281
     0
  0
CLASS
  1
LAYOUT
  2
AcDbLayout
  3
ObjectDBX Classes
 90
        0
280
     0
281
     0
  0
ENDSEC
  0
SECTION
  2
TABLES
  0
TABLE
  2
VPORT
  5
8
330
0
100
AcDbSymbolTable
 70
     1
  0
VPORT
  5
29
330
8
100
AcDbSymbolTableRecord
100
AcDbViewportTableRecord
  2
*Active
 70
     0
 10
0.0
 20
0.0
 11
1.0
 21
1.0
 12
12.75
 22
8.25
 13
0.0
 23
0.0
 14
0.5
 24
0.5
 15
0.5
 25
0.5
 16
0.0
 26
0.0
 36
1.0
 17
0.0
 27
0.0
 37
0.0
 40
16.5
 41
1.5454545455
 42
50.0
 43
0.0
 44
0.0
 50
0.0
 51
0.0
 71
     0
 72
  2000
 73
     1
 74
     3
 75
     0
 76
     0
 77
     0
 78
     0
281
     0
 65
     1
110
0.0
120
0.0
130
0.0
111
1.0
121
0.0
131
0.0
112
0.0
122
1.0
132
0.0
 79
     0
146
0.0
  0
ENDTAB
  0
TABLE
  2
LTYPE
  5
5
330
0
100
AcDbSymbolTable
 70
     6
  0
LTYPE
  5
14
330
5
100
AcDbSymbolTableRecord
100
AcDbLinetypeTableRecord
  2
ByBlock
 70
     0
  3

 72
    65
 73
     0
 40
0.0
  0
LTYPE
  5
15
330
5
100
AcDbSymbolTableRecord
100
AcDbLinetypeTableRecord
  2
ByLayer
 70
     0
  3

 72
    65
 73
     0
 40
0.0
  0
LTYPE
  5
16
330
5
100
AcDbSymbolTableRecord
100
AcDbLinetypeTableRecord
  2
Continuous
 70
     0
  3
Solid line
 72
    65
 73
     0
 40
0.0
  0
LTYPE
  5
3F
330
5
100
AcDbSymbolTableRecord
100
AcDbLinetypeTableRecord
  2
HIDDEN
 70
     0
  3
Hidden __ __ __ __ __ __ __ __ __ __ __ __ __ __
 72
    65
 73
     2
 40
0.075
 49
0.05
 74
     0
 49
-0.025
 74
     0
  0
LTYPE
  5
40
330
5
100
AcDbSymbolTableRecord
100
AcDbLinetypeTableRecord
  2
PHANTOM
 70
     0
  3
Phantom ______  __  __  ______  __  __  ______
 72
    65
 73
     6
 40
0.5
 49
0.25
 74
     0
 49
-0.05
 74
     0
 49
0.05
 74
     0
 49
-0.05
 74
     0
 49
0.05
 74
     0
 49
-0.05
 74
     0
  0
LTYPE
  5
41
330
5
100
AcDbSymbolTableRecord
100
AcDbLinetypeTableRecord
  2
CENTER
 70
     0
  3
Center ____ _ ____ _ ____ _ ____ _ ____ _ ____
 72
    65
 73
     4
 40
0.4
 49
0.25
 74
     0
 49
-0.05
 74
     0
 49
0.05
 74
     0
 49
-0.05
 74
     0
  0
LTYPE
  5
42
330
5
100
AcDbSymbolTableRecord
100
AcDbLinetypeTableRecord
  2
CENTERX2
 70
     0
  3
Center (2x) ________  __  ________  __  _____
 72
    65
 73
     4
 40
0.8
 49
0.5
 74
     0
 49
-0.1
 74
     0
 49
0.1
 74
     0
 49
-0.1
 74
     0
  0
LTYPE
  5
43
330
5
100
AcDbSymbolTableRecord
100
AcDbLinetypeTableRecord
  2
DOT2
 70
     0
  3
Dot (.5x) ........................................
 72
    65
 73
     2
 40
0.025
 49
0.0
 74
     0
 49
-0.025
 74
     0
  0
ENDTAB
  0
TABLE
  2
LAYER
  5
2
330
0
100
AcDbSymbolTable
 70
     1
  0
LAYER
  5
10
330
2
100
AcDbSymbolTableRecord
100
AcDbLayerTableRecord
  2
0
 70
     0
 62
     7
  6
Continuous
370
    -3
390
F
  0
ENDTAB
  0
TABLE
  2
STYLE
  5
3
330
0
100
AcDbSymbolTable
 70
     2
  0
STYLE
  5
11
330
3
100
AcDbSymbolTableRecord
100
AcDbTextStyleTableRecord
  2
Standard
 70
     0
 40
0.0
 41
1.0
 50
0.0
 71
     0
 42
0.2
  3
txt
  4

  0
STYLE
  5
77
330
3
100
AcDbSymbolTableRecord
100
AcDbTextStyleTableRecord
  2
SLDTEXTSTYLE0
 70
     0
 40
0.0
 41
0.75
 50
0.0
 71
     0
 42
0.2
  3
TXT
  4

  0
ENDTAB
  0
TABLE
  2
VIEW
  5
6
330
0
100
AcDbSymbolTable
 70
     0
  0
ENDTAB
  0
TABLE
  2
UCS
  5
7
330
0
100
AcDbSymbolTable
 70
     0
  0
ENDTAB
  0
TABLE
  2
APPID
  5
9
330
0
100
AcDbSymbolTable
 70
     1
  0
APPID
  5
12
330
9
100
AcDbSymbolTableRecord
100
AcDbRegAppTableRecord
  2
ACAD
 70
     0
  0
ENDTAB
  0
TABLE
  2
DIMSTYLE
  5
A
330
0
100
AcDbSymbolTable
 70
     7
100
AcDbDimStyleTable
  0
DIMSTYLE
105
27
330
A
100
AcDbSymbolTableRecord
100
AcDbDimStyleTableRecord
  2
Standard
 70
     0
340
11
  0
DIMSTYLE
105
78
102
{ACAD_REACTORS
330
54
330
2CE
330
2E0
330
476
102
}
330
A
100
AcDbSymbolTableRecord
100
AcDbDimStyleTableRecord
  2
SLDDIMSTYLE0
 70
     0
 41
0.195
 44
0.0
 45
0.000000001
 78
     4
140
0.1875
147
0.046875
148
0.000000001
170
     1
173
     1
271
     2
272
     2
284
    12
340
77
  0
DIMSTYLE
105
11D
102
{ACAD_REACTORS
330
11C
102
}
330
A
100
AcDbSymbolTableRecord
100
AcDbDimStyleTableRecord
  2
SLDDIMSTYLE1
 70
     0
 41
0.195
 44
0.0
 45
0.000000001
 78
    12
140
0.1875
147
0.046875
148
0.000000001
170
     1
172
     1
173
     1
271
     2
272
     2
284
    12
340
77
  0
DIMSTYLE
105
12E
102
{ACAD_REACTORS
330
12D
102
}
330
A
100
AcDbSymbolTableRecord
100
AcDbDimStyleTableRecord
  2
SLDDIMSTYLE2
 70
     0
 41
0.195
 44
0.0
 45
0.000000001
 78
    12
140
0.1875
147
0.046875
148
0.000000001
170
     1
173
     1
271
     2
272
     2
284
    12
340
77
  0
DIMSTYLE
105
141
102
{ACAD_REACTORS
330
140
102
}
330
A
100
AcDbSymbolTableRecord
100
AcDbDimStyleTableRecord
  2
SLDDIMSTYLE3
 70
     0
 41
0.195
 44
0.0
 45
0.000000001
 78
     4
140
0.1875
147
0.046875
148
0.000000001
170
     1
173
     1
271
     2
272
     2
284
    12
340
77
  0
DIMSTYLE
105
15C
330
A
100
AcDbSymbolTableRecord
100
AcDbDimStyleTableRecord
  2
SLDDIMSTYLE4
 70
     0
 41
0.195
 44
0.0
 45
0.000000001
140
0.0
146
0.195
147
0.0
173
     1
271
     0
272
     0
340
11
  0
DIMSTYLE
105
256
102
{ACAD_REACTORS
330
255
330
2BC
330
464
102
}
330
A
100
AcDbSymbolTableRecord
100
AcDbDimStyleTableRecord
  2
SLDDIMSTYLE5
 70
     0
 41
0.195
 44
0.0
 45
0.000000001
 78
    12
140
0.1875
147
0.046875
148
0.000000001
170
     1
173
     1
271
     2
272
     2
284
    12
340
77
  0
ENDTAB
  0
TABLE
  2
BLOCK_RECORD
  5
1
330
0
100
AcDbSymbolTable
 70
    19
  0
BLOCK_RECORD
  5
1F
330
1
100
AcDbSymbolTableRecord
100
AcDbBlockTableRecord
  2
*Model_Space
340
22
  0
BLOCK_RECORD
  5
1B
330
1
100
AcDbSymbolTableRecord
100
AcDbBlockTableRecord
  2
*Paper_Space
340
1E
  0
BLOCK_RECORD
  5
23
330
1
100
AcDbSymbolTableRecord
100
AcDbBlockTableRecord
  2
*Paper_Space0
340
26
  0
BLOCK_RECORD
  5
79
330
1
100
AcDbSymbolTableRecord
100
AcDbBlockTableRecord
  2
*D1
340
0
  0
BLOCK_RECORD
  5
8A
330
1
100
AcDbSymbolTableRecord
100
AcDbBlockTableRecord
  2
SW_NOTE_0
340
0
102
{BLKREFS
331
90
102
}
  0
BLOCK_RECORD
  5
94
330
1
100
AcDbSymbolTableRecord
100
AcDbBlockTableRecord
  2
SW_NOTE_1
340
0
102
{BLKREFS
331
99
102
}
  0
BLOCK_RECORD
  5
9A
330
1
100
AcDbSymbolTableRecord
100
AcDbBlockTableRecord
  2
SW_NOTE_2
340
0
102
{BLKREFS
331
9F
102
}
  0
BLOCK_RECORD
  5
A0
330
1
100
AcDbSymbolTableRecord
100
AcDbBlockTableRecord
  2
SW_NOTE_3
340
0
102
{BLKREFS
331
A5
102
}
  0
BLOCK_RECORD
  5
11E
330
1
100
AcDbSymbolTableRecord
100
AcDbBlockTableRecord
  2
*D6
340
0
  0
BLOCK_RECORD
  5
12F
330
1
100
AcDbSymbolTableRecord
100
AcDbBlockTableRecord
  2
*D7
340
0
  0
BLOCK_RECORD
  5
142
330
1
100
AcDbSymbolTableRecord
100
AcDbBlockTableRecord
  2
*D8
340
0
  0
BLOCK_RECORD
  5
153
330
1
100
AcDbSymbolTableRecord
100
AcDbBlockTableRecord
  2
SW_NOTE_4
340
0
102
{BLKREFS
331
15B
102
}
  0
BLOCK_RECORD
  5
15E
330
1
100
AcDbSymbolTableRecord
100
AcDbBlockTableRecord
  2
SW_CENTERMARKSYMBOL_0
340
0
102
{BLKREFS
331
165
102
}
  0
BLOCK_RECORD
  5
257
330
1
100
AcDbSymbolTableRecord
100
AcDbBlockTableRecord
  2
*D11
340
0
  0
BLOCK_RECORD
  5
268
330
1
100
AcDbSymbolTableRecord
100
AcDbBlockTableRecord
  2
SW_NOTE_5
340
0
102
{BLKREFS
331
26E
102
}
  0
BLOCK_RECORD
  5
2BD
330
1
100
AcDbSymbolTableRecord
100
AcDbBlockTableRecord
  2
*D13
340
0
  0
BLOCK_RECORD
  5
2CF
330
1
100
AcDbSymbolTableRecord
100
AcDbBlockTableRecord
  2
*D14
340
0
  0
BLOCK_RECORD
  5
2E1
330
1
100
AcDbSymbolTableRecord
100
AcDbBlockTableRecord
  2
*D15
340
0
  0
BLOCK_RECORD
  5
465
330
1
100
AcDbSymbolTableRecord
100
AcDbBlockTableRecord
  2
*D16
340
0
  0
BLOCK_RECORD
  5
477
330
1
100
AcDbSymbolTableRecord
100
AcDbBlockTableRecord
  2
*D17
340
0
  0
BLOCK_RECORD
  5
488
330
1
100
AcDbSymbolTableRecord
100
AcDbBlockTableRecord
  2
SW_NOTE_6
340
0
102
{BLKREFS
331
491
102
}
  0
ENDTAB
  0
ENDSEC
  0
SECTION
  2
BLOCKS
  0
BLOCK
  5
20
330
1F
100
AcDbEntity
  8
0
100
AcDbBlockBegin
  2
*Model_Space
 70
     0
 10
0.0
 20
0.0
 30
0.0
  3
*Model_Space
  1

  0
ENDBLK
  5
21
330
1F
100
AcDbEntity
  8
0
100
AcDbBlockEnd
  0
BLOCK
  5
1C
330
1B
100
AcDbEntity
 67
     1
  8
0
100
AcDbBlockBegin
  2
*Paper_Space
 70
     0
 10
0.0
 20
0.0
 30
0.0
  3
*Paper_Space
  1

  0
ENDBLK
  5
1D
330
1B
100
AcDbEntity
 67
     1
  8
0
100
AcDbBlockEnd
  0
BLOCK
  5
24
330
23
100
AcDbEntity
  8
0
100
AcDbBlockBegin
  2
*Paper_Space0
 70
     0
 10
0.0
 20
0.0
 30
0.0
  3
*Paper_Space0
  1

  0
ENDBLK
  5
25
330
23
100
AcDbEntity
  8
0
100
AcDbBlockEnd
  0
BLOCK
  5
7A
330
79
100
AcDbEntity
  8
0
100
AcDbBlockBegin
  2
*D1
 70
     1
 10
0.0
 20
0.0
 30
0.0
  3
*D1
  1

  0
SOLID
  5
7C
330
79
100
AcDbEntity
  8
0
  6
Continuous
 62
     7
 48
1.5
370
     0
100
AcDbTrace
 10
20.4886593921
 20
9.313833372
 30
0.0
 11
20.4586593921
 21
9.118833372
 31
0.0
 12
20.5186593921
 22
9.118833372
 32
0.0
 13
20.5186593921
 23
9.118833372
 33
0.0
  0
SOLID
  5
7D
330
79
100
AcDbEntity
  8
0
  6
Continuous
 62
     7
 48
1.5
370
     0
100
AcDbTrace
 10
20.4886593921
 20
5.313833372
 30
0.0
 11
20.5186593921
 21
5.508833372
 31
0.0
 12
20.4586593921
 22
5.508833372
 32
0.0
 13
20.4586593921
 23
5.508833372
 33
0.0
  0
LINE
  5
7E
330
79
100
AcDbEntity
  8
0
  6
Continuous
 62
     7
 48
1.5
370
     0
100
AcDbLine
 10
20.1008757303
 20
7.2915158455
 30
0.0
 11
20.1008757303
 21
7.0385838781
 31
0.0
  0
LINE
  5
7F
330
79
100
AcDbEntity
  8
0
  6
Continuous
 62
     7
 48
1.5
370
     0
100
AcDbLine
 10
20.1008757303
 20
7.0385838781
 30
0.0
 11
20.1389343353
 21
7.0385838781
 31
0.0
  0
LINE
  5
80
330
79
100
AcDbEntity
  8
0
  6
Continuous
 62
     7
 48
1.5
370
     0
100
AcDbLine
 10
20.1008757303
 20
7.2915158455
 30
0.0
 11
20.1389343353
 21
7.2915158455
 31
0.0
  0
LINE
  5
81
330
79
100
AcDbEntity
  8
0
  6
Continuous
 62
     7
 48
1.5
370
     0
100
AcDbLine
 10
20.876443054
 20
7.2915158455
 30
0.0
 11
20.876443054
 21
7.0385838781
 31
0.0
  0
LINE
  5
82
330
79
100
AcDbEntity
  8
0
  6
Continuous
 62
     7
 48
1.5
370
     0
100
AcDbLine
 10
20.876443054
 20
7.0385838781
 30
0.0
 11
20.838384449
 21
7.0385838781
 31
0.0
  0
LINE
  5
83
330
79
100
AcDbEntity
  8
0
  6
Continuous
 62
     7
 48
1.5
370
     0
100
AcDbLine
 10
20.876443054
 20
7.2915158455
 30
0.0
 11
20.838384449
 21
7.2915158455
 31
0.0
  0
LINE
  5
84
330
79
100
AcDbEntity
  8
0
  6
Continuous
 62
     7
 48
1.5
370
     0
100
AcDbLine
 10
19.4365492661
 20
9.313833372
 30
0.0
 11
20.6761593921
 21
9.313833372
 31
0.0
  0
LINE
  5
85
330
79
100
AcDbEntity
  8
0
  6
Continuous
 62
     7
 48
1.5
370
     0
100
AcDbLine
 10
19.4365492661
 20
5.313833372
 30
0.0
 11
20.6761593921
 21
5.313833372
 31
0.0
  0
LINE
  5
86
330
79
100
AcDbEntity
  8
0
  6
Continuous
 62
     7
 48
1.5
370
     0
100
AcDbLine
 10
20.4886593921
 20
9.313833372
 30
0.0
 11
20.4886593921
 21
7.6114003925
 31
0.0
  0
LINE
  5
87
330
79
100
AcDbEntity
  8
0
  6
Continuous
 62
     7
 48
1.5
370
     0
100
AcDbLine
 10
20.4886593921
 20
5.313833372
 30
0.0
 11
20.4886593921
 21
7.0162663515
 31
0.0
  0
MTEXT
  5
88
330
79
100
AcDbEntity
  8
0
  6
Continuous
 62
     7
 48
1.5
370
     0
100
AcDbMText
 10
20.2463069282
 20
7.5555335629
 30
0.0
 40
0.1875
 41
0.0
 71
     1
 72
     1
  1
4.00
  7
SLDTEXTSTYLE0
 73
     1
 44
1.0
  0
MTEXT
  5
89
330
79
100
AcDbEntity
  8
0
  6
Continuous
 62
     7
 48
1.5
370
     0
100
AcDbMText
 10
20.1769929403
 20
7.2579665424
 30
0.0
 40
0.1875
 41
0.0
 71
     1
 72
     1
  1
101.6
  7
SLDTEXTSTYLE0
 73
     1
 44
1.0
  0
ENDBLK
  5
7B
330
79
100
AcDbEntity
  8
0
100
AcDbBlockEnd
  0
BLOCK
  5
8B
330
8A
100
AcDbEntity
  8
0
100
AcDbBlockBegin
  2
SW_NOTE_0
 70
     0
 10
0.0
 20
0.0
 30
0.0
  3
SW_NOTE_0
  1

  0
MTEXT
  5
8D
330
8A
100
AcDbEntity
  8
0
  6
Continuous
 62
     0
 48
1.5
370
     0
100
AcDbMText
 10
0.0
 20
0.2417002012
 30
0.0
 40
0.1875
 41
0.0
 71
     1
 72
     1
  1
MATERIAL - 14 GA. [2.0mm] STEEL
  7
SLDTEXTSTYLE0
 73
     1
 44
1.0
  0
MTEXT
  5
8E
330
8A
100
AcDbEntity
  8
0
  6
Continuous
 62
     0
 48
1.5
370
     0
100
AcDbMText
 10
0.0
 20
-0.2514100223
 30
0.0
 40
0.1875
 41
0.0
 71
     1
 72
     1
  1
FINISH - SMOOTH GRAY POWDERCOAT
  7
SLDTEXTSTYLE0
 73
     1
 44
1.0
  0
MTEXT
  5
8F
330
8A
100
AcDbEntity
  8
0
  6
Continuous
 62
     0
 48
1.5
370
     0
100
AcDbMText
 10
0.0
 20
-0.4979651341
 30
0.0
 40
0.1875
 41
0.0
 71
     1
 72
     1
  1
              UL LISTED TYPE DTOV2
  7
SLDTEXTSTYLE0
 73
     1
 44
1.0
  0
ENDBLK
  5
8C
330
8A
100
AcDbEntity
  8
0
100
AcDbBlockEnd
  0
BLOCK
  5
95
330
94
100
AcDbEntity
  8
0
100
AcDbBlockBegin
  2
SW_NOTE_1
 70
     0
 10
0.0
 20
0.0
 30
0.0
  3
SW_NOTE_1
  1

  0
MTEXT
  5
97
330
94
100
AcDbEntity
  8
0
  6
Continuous
 62
     0
 48
1.5
370
     0
100
AcDbMText
 10
0.0
 20
0.2417002012
 30
0.0
 40
0.1875
 41
0.0
 71
     1
 72
     1
  1
PART
  7
SLDTEXTSTYLE0
 73
     1
 44
1.0
  0
MTEXT
  5
98
330
94
100
AcDbEntity
  8
0
  6
Continuous
 62
     0
 48
1.5
370
     0
100
AcDbMText
 10
-0.0699055949
 20
-0.0048549106
 30
0.0
 40
0.1875
 41
0.0
 71
     1
 72
     1
  1
NAME
  7
SLDTEXTSTYLE0
 73
     1
 44
1.0
  0
ENDBLK
  5
96
330
94
100
AcDbEntity
  8
0
100
AcDbBlockEnd
  0
BLOCK
  5
9B
330
9A
100
AcDbEntity
  8
0
100
AcDbBlockBegin
  2
SW_NOTE_2
 70
     0
 10
0.0
 20
0.0
 30
0.0
  3
SW_NOTE_2
  1

  0
MTEXT
  5
9D
330
9A
100
AcDbEntity
  8
0
  6
Continuous
 62
     0
 48
1.5
370
     0
100
AcDbMText
 10
0.0
 20
0.2417002012
 30
0.0
 40
0.1875
 41
0.0
 71
     1
 72
     1
  1
PART
  7
SLDTEXTSTYLE0
 73
     1
 44
1.0
  0
MTEXT
  5
9E
330
9A
100
AcDbEntity
  8
0
  6
Continuous
 62
     0
 48
1.5
370
     0
100
AcDbMText
 10
0.0875651072
 20
-0.0048549106
 30
0.0
 40
0.1875
 41
0.0
 71
     1
 72
     1
  1
No.
  7
SLDTEXTSTYLE0
 73
     1
 44
1.0
  0
ENDBLK
  5
9C
330
9A
100
AcDbEntity
  8
0
100
AcDbBlockEnd
  0
BLOCK
  5
A1
330
A0
100
AcDbEntity
  8
0
100
AcDbBlockBegin
  2
SW_NOTE_3
 70
     0
 10
0.0
 20
0.0
 30
0.0
  3
SW_NOTE_3
  1

  0
MTEXT
  5
A3
330
A0
100
AcDbEntity
  8
0
  6
Continuous
 62
     0
 48
1.5
370
     0
100
AcDbMText
 10
0.0
 20
0.2417002012
 30
0.0
 40
0.1875
 41
0.0
 71
     1
 72
     1
  1
REVISION
  7
SLDTEXTSTYLE0
 73
     1
 44
1.0
  0
MTEXT
  5
A4
330
A0
100
AcDbEntity
  8
0
  6
Continuous
 62
     0
 48
1.5
370
     0
100
AcDbMText
 10
0.2343424479
 20
-0.0048549106
 30
0.0
 40
0.1875
 41
0.0
 71
     1
 72
     1
  1
DATE
  7
SLDTEXTSTYLE0
 73
     1
 44
1.0
  0
ENDBLK
  5
A2
330
A0
100
AcDbEntity
  8
0
100
AcDbBlockEnd
  0
BLOCK
  5
11F
330
11E
100
AcDbEntity
  8
0
100
AcDbBlockBegin
  2
*D6
 70
     1
 10
0.0
 20
0.0
 30
0.0
  3
*D6
  1

  0
SOLID
  5
121
330
11E
100
AcDbEntity
  8
0
  6
Continuous
 62
     7
 48
1.5
370
     0
100
AcDbTrace
 10
3.2474755454
 20
7.7154324261
 30
0.0
 11
3.1923602187
 21
7.9048718643
 31
0.0
 12
3.1379675703
 22
7.8795452025
 32
0.0
 13
3.1379675703
 23
7.8795452025
 33
0.0
  0
LINE
  5
122
330
11E
100
AcDbEntity
  8
0
  6
Continuous
 62
     7
 48
1.5
370
     0
100
AcDbLine
 10
1.2425965539
 20
9.895227349
 30
0.0
 11
1.2425965539
 21
9.6422953816
 31
0.0
  0
LINE
  5
123
330
11E
100
AcDbEntity
  8
0
  6
Continuous
 62
     7
 48
1.5
370
     0
100
AcDbLine
 10
1.2425965539
 20
9.6422953816
 30
0.0
 11
1.280655159
 21
9.6422953816
 31
0.0
  0
LINE
  5
124
330
11E
100
AcDbEntity
  8
0
  6
Continuous
 62
     7
 48
1.5
370
     0
100
AcDbLine
 10
1.2425965539
 20
9.895227349
 30
0.0
 11
1.280655159
 21
9.895227349
 31
0.0
  0
LINE
  5
125
330
11E
100
AcDbEntity
  8
0
  6
Continuous
 62
     7
 48
1.5
370
     0
100
AcDbLine
 10
1.8795359019
 20
9.895227349
 30
0.0
 11
1.8795359019
 21
9.6422953816
 31
0.0
  0
LINE
  5
126
330
11E
100
AcDbEntity
  8
0
  6
Continuous
 62
     7
 48
1.5
370
     0
100
AcDbLine
 10
1.8795359019
 20
9.6422953816
 30
0.0
 11
1.8414772969
 21
9.6422953816
 31
0.0
  0
LINE
  5
127
330
11E
100
AcDbEntity
  8
0
  6
Continuous
 62
     7
 48
1.5
370
     0
100
AcDbLine
 10
1.8795359019
 20
9.895227349
 30
0.0
 11
1.8414772969
 21
9.895227349
 31
0.0
  0
LINE
  5
128
330
11E
100
AcDbEntity
  8
0
  6
Continuous
 62
     7
 48
1.5
370
     0
100
AcDbLine
 10
3.2474755454
 20
7.7154324261
 30
0.0
 11
2.2221134986
 21
9.9175448756
 31
0.0
  0
LINE
  5
129
330
11E
100
AcDbEntity
  8
0
  6
Continuous
 62
     7
 48
1.5
370
     0
100
AcDbLine
 10
2.2221134986
 20
9.9175448756
 30
0.0
 11
2.0346134986
 21
9.9175448756
 31
0.0
  0
MTEXT
  5
12A
330
11E
100
AcDbEntity
  8
0
  6
Continuous
 62
     7
 48
1.5
370
     0
100
AcDbMText
 10
1.2540239952
 20
10.1592450699
 30
0.0
 40
0.1875
 41
0.0
 71
     1
 72
     1
  1
%%c
  7
SLDTEXTSTYLE0
 73
     1
 44
1.0
  0
MTEXT
  5
12B
330
11E
100
AcDbEntity
  8
0
  6
Continuous
 62
     7
 48
1.5
370
     0
100
AcDbMText
 10
1.5218343136
 20
10.1592450664
 30
0.0
 40
0.1875
 41
0.0
 71
     1
 72
     1
  1
.89
  7
SLDTEXTSTYLE0
 73
     1
 44
1.0
  0
MTEXT
  5
12C
330
11E
100
AcDbEntity
  8
0
  6
Continuous
 62
     7
 48
1.5
370
     0
100
AcDbMText
 10
1.318713764
 20
9.861678046
 30
0.0
 40
0.1875
 41
0.0
 71
     1
 72
     1
  1
22.5
  7
SLDTEXTSTYLE0
 73
     1
 44
1.0
  0
ENDBLK
  5
120
330
11E
100
AcDbEntity
  8
0
100
AcDbBlockEnd
  0
BLOCK
  5
130
330
12F
100
AcDbEntity
  8
0
100
AcDbBlockBegin
  2
*D7
 70
     1
 10
0.0
 20
0.0
 30
0.0
  3
*D7
  1

  0
SOLID
  5
132
330
12F
100
AcDbEntity
  8
0
  6
Continuous
 62
     7
 48
1.5
370
     0
100
AcDbTrace
 10
3.3719707319
 20
10.0072290882
 30
0.0
 11
3.1769707319
 21
10.0372290882
 31
0.0
 12
3.1769707319
 22
9.9772290882
 32
0.0
 13
3.1769707319
 23
9.9772290882
 33
0.0
  0
SOLID
  5
133
330
12F
100
AcDbEntity
  8
0
  6
Continuous
 62
     7
 48
1.5
370
     0
100
AcDbTrace
 10
3.4969707319
 20
10.0072290882
 30
0.0
 11
3.6919707319
 21
9.9772290882
 31
0.0
 12
3.6919707319
 22
10.0372290882
 32
0.0
 13
3.6919707319
 23
10.0372290882
 33
0.0
  0
LINE
  5
134
330
12F
100
AcDbEntity
  8
0
  6
Continuous
 62
     7
 48
1.5
370
     0
100
AcDbLine
 10
4.14825971
 20
9.9849115616
 30
0.0
 11
4.14825971
 21
9.7319795942
 31
0.0
  0
LINE
  5
135
330
12F
100
AcDbEntity
  8
0
  6
Continuous
 62
     7
 48
1.5
370
     0
100
AcDbLine
 10
4.14825971
 20
9.7319795942
 30
0.0
 11
4.186318315
 21
9.7319795942
 31
0.0
  0
LINE
  5
136
330
12F
100
AcDbEntity
  8
0
  6
Continuous
 62
     7
 48
1.5
370
     0
100
AcDbLine
 10
4.14825971
 20
9.9849115616
 30
0.0
 11
4.186318315
 21
9.9849115616
 31
0.0
  0
LINE
  5
137
330
12F
100
AcDbEntity
  8
0
  6
Continuous
 62
     7
 48
1.5
370
     0
100
AcDbLine
 10
4.6467682771
 20
9.9849115616
 30
0.0
 11
4.6467682771
 21
9.7319795942
 31
0.0
  0
LINE
  5
138
330
12F
100
AcDbEntity
  8
0
  6
Continuous
 62
     7
 48
1.5
370
     0
100
AcDbLine
 10
4.6467682771
 20
9.7319795942
 30
0.0
 11
4.6087096721
 21
9.7319795942
 31
0.0
  0
LINE
  5
139
330
12F
100
AcDbEntity
  8
0
  6
Continuous
 62
     7
 48
1.5
370
     0
100
AcDbLine
 10
4.6467682771
 20
9.9849115616
 30
0.0
 11
4.6087096721
 21
9.9849115616
 31
0.0
  0
LINE
  5
13A
330
12F
100
AcDbEntity
  8
0
  6
Continuous
 62
     7
 48
1.5
370
     0
100
AcDbLine
 10
3.3719707319
 20
7.888833372
 30
0.0
 11
3.3719707319
 21
10.1947290882
 31
0.0
  0
LINE
  5
13B
330
12F
100
AcDbEntity
  8
0
  6
Continuous
 62
     7
 48
1.5
370
     0
100
AcDbLine
 10
3.4969707319
 20
7.888833372
 30
0.0
 11
3.4969707319
 21
10.1947290882
 31
0.0
  0
LINE
  5
13C
330
12F
100
AcDbEntity
  8
0
  6
Continuous
 62
     7
 48
1.5
370
     0
100
AcDbLine
 10
3.3719707319
 20
10.0072290882
 30
0.0
 11
2.9969707319
 21
10.0072290882
 31
0.0
  0
LINE
  5
13D
330
12F
100
AcDbEntity
  8
0
  6
Continuous
 62
     7
 48
1.5
370
     0
100
AcDbLine
 10
3.4969707319
 20
10.0072290882
 30
0.0
 11
3.9403831937
 21
10.0072290882
 31
0.0
  0
MTEXT
  5
13E
330
12F
100
AcDbEntity
  8
0
  6
Continuous
 62
     7
 48
1.5
370
     0
100
AcDbMText
 10
4.2243769201
 20
10.2489292791
 30
0.0
 40
0.1875
 41
0.0
 71
     1
 72
     1
  1
.13
  7
SLDTEXTSTYLE0
 73
     1
 44
1.0
  0
MTEXT
  5
13F
330
12F
100
AcDbEntity
  8
0
  6
Continuous
 62
     7
 48
1.5
370
     0
100
AcDbMText
 10
4.2243769201
 20
9.9513622586
 30
0.0
 40
0.1875
 41
0.0
 71
     1
 72
     1
  1
3.2
  7
SLDTEXTSTYLE0
 73
     1
 44
1.0
  0
ENDBLK
  5
131
330
12F
100
AcDbEntity
  8
0
100
AcDbBlockEnd
  0
BLOCK
  5
143
330
142
100
AcDbEntity
  8
0
100
AcDbBlockBegin
  2
*D8
 70
     1
 10
0.0
 20
0.0
 30
0.0
  3
*D8
  1

  0
SOLID
  5
145
330
142
100
AcDbEntity
  8
0
  6
Continuous
 62
     7
 48
1.5
370
     0
100
AcDbTrace
 10
5.742521913
 20
7.813833372
 30
0.0
 11
5.772521913
 21
8.008833372
 31
0.0
 12
5.712521913
 22
8.008833372
 32
0.0
 13
5.712521913
 23
8.008833372
 33
0.0
  0
SOLID
  5
146
330
142
100
AcDbEntity
  8
0
  6
Continuous
 62
     7
 48
1.5
370
     0
100
AcDbTrace
 10
5.742521913
 20
6.813833372
 30
0.0
 11
5.712521913
 21
6.618833372
 31
0.0
 12
5.772521913
 22
6.618833372
 32
0.0
 13
5.772521913
 23
6.618833372
 33
0.0
  0
LINE
  5
147
330
142
100
AcDbEntity
  8
0
  6
Continuous
 62
     7
 48
1.5
370
     0
100
AcDbLine
 10
5.424052239
 20
7.2915158455
 30
0.0
 11
5.424052239
 21
7.0385838781
 31
0.0
  0
LINE
  5
148
330
142
100
AcDbEntity
  8
0
  6
Continuous
 62
     7
 48
1.5
370
     0
100
AcDbLine
 10
5.424052239
 20
7.0385838781
 30
0.0
 11
5.462110844
 21
7.0385838781
 31
0.0
  0
LINE
  5
149
330
142
100
AcDbEntity
  8
0
  6
Continuous
 62
     7
 48
1.5
370
     0
100
AcDbLine
 10
5.424052239
 20
7.2915158455
 30
0.0
 11
5.462110844
 21
7.2915158455
 31
0.0
  0
LINE
  5
14A
330
142
100
AcDbEntity
  8
0
  6
Continuous
 62
     7
 48
1.5
370
     0
100
AcDbLine
 10
6.060991587
 20
7.2915158455
 30
0.0
 11
6.060991587
 21
7.0385838781
 31
0.0
  0
LINE
  5
14B
330
142
100
AcDbEntity
  8
0
  6
Continuous
 62
     7
 48
1.5
370
     0
100
AcDbLine
 10
6.060991587
 20
7.0385838781
 30
0.0
 11
6.022932982
 21
7.0385838781
 31
0.0
  0
LINE
  5
14C
330
142
100
AcDbEntity
  8
0
  6
Continuous
 62
     7
 48
1.5
370
     0
100
AcDbLine
 10
6.060991587
 20
7.2915158455
 30
0.0
 11
6.022932982
 21
7.2915158455
 31
0.0
  0
LINE
  5
14D
330
142
100
AcDbEntity
  8
0
  6
Continuous
 62
     7
 48
1.5
370
     0
100
AcDbLine
 10
3.5719707319
 20
7.813833372
 30
0.0
 11
5.930021913
 21
7.813833372
 31
0.0
  0
LINE
  5
14E
330
142
100
AcDbEntity
  8
0
  6
Continuous
 62
     7
 48
1.5
370
     0
100
AcDbLine
 10
3.5719707319
 20
6.813833372
 30
0.0
 11
5.930021913
 21
6.813833372
 31
0.0
  0
LINE
  5
14F
330
142
100
AcDbEntity
  8
0
  6
Continuous
 62
     7
 48
1.5
370
     0
100
AcDbLine
 10
5.742521913
 20
7.813833372
 30
0.0
 11
5.742521913
 21
8.188833372
 31
0.0
  0
LINE
  5
150
330
142
100
AcDbEntity
  8
0
  6
Continuous
 62
     7
 48
1.5
370
     0
100
AcDbLine
 10
5.742521913
 20
6.813833372
 30
0.0
 11
5.742521913
 21
6.438833372
 31
0.0
  0
MTEXT
  5
151
330
142
100
AcDbEntity
  8
0
  6
Continuous
 62
     7
 48
1.5
370
     0
100
AcDbMText
 10
5.500169449
 20
7.5555335629
 30
0.0
 40
0.1875
 41
0.0
 71
     1
 72
     1
  1
1.00
  7
SLDTEXTSTYLE0
 73
     1
 44
1.0
  0
MTEXT
  5
152
330
142
100
AcDbEntity
  8
0
  6
Continuous
 62
     7
 48
1.5
370
     0
100
AcDbMText
 10
5.500169449
 20
7.2579665424
 30
0.0
 40
0.1875
 41
0.0
 71
     1
 72
     1
  1
25.4
  7
SLDTEXTSTYLE0
 73
     1
 44
1.0
  0
ENDBLK
  5
144
330
142
100
AcDbEntity
  8
0
100
AcDbBlockEnd
  0
BLOCK
  5
154
330
153
100
AcDbEntity
  8
0
100
AcDbBlockBegin
  2
SW_NOTE_4
 70
     0
 10
0.0
 20
0.0
 30
0.0
  3
SW_NOTE_4
  1

  0
MTEXT
  5
156
330
153
100
AcDbEntity
  8
0
  6
Continuous
 62
     0
 48
1.5
370
     0
100
AcDbMText
 10
0.0295317448
 20
0.0909128679
 30
0.0
 40
0.1875
 41
0.0
 71
     1
 72
     1
  1
CAPTIVE SCREW M5x0.8 x 16mm LG.,
  7
SLDTEXTSTYLE0
 73
     1
 44
1.0
  0
MTEXT
  5
157
330
153
100
AcDbEntity
  8
0
  6
Continuous
 62
     0
 48
1.5
370
     0
100
AcDbMText
 10
0.0295317448
 20
-0.1556422438
 30
0.0
 40
0.1875
 41
0.0
 71
     1
 72
     1
  1
WASHER HEAD, PHILLIPS DRIVE, STEEL,
  7
SLDTEXTSTYLE0
 73
     1
 44
1.0
  0
MTEXT
  5
158
330
153
100
AcDbEntity
  8
0
  6
Continuous
 62
     0
 48
1.5
370
     0
100
AcDbMText
 10
0.0295317448
 20
-0.4021973556
 30
0.0
 40
0.1875
 41
0.0
 71
     1
 72
     1
  1
ZINC PLATED, WITH SEALING WASHER,
  7
SLDTEXTSTYLE0
 73
     1
 44
1.0
  0
MTEXT
  5
159
330
153
100
AcDbEntity
  8
0
  6
Continuous
 62
     0
 48
1.5
370
     0
100
AcDbMText
 10
0.0295317448
 20
-0.6487524674
 30
0.0
 40
0.1875
 41
0.0
 71
     1
 72
     1
  1
NEOPRENE, BLACK AND O-RING,
  7
SLDTEXTSTYLE0
 73
     1
 44
1.0
  0
MTEXT
  5
15A
330
153
100
AcDbEntity
  8
0
  6
Continuous
 62
     0
 48
1.5
370
     0
100
AcDbMText
 10
0.0295317448
 20
-0.8953075792
 30
0.0
 40
0.1875
 41
0.0
 71
     1
 72
     1
  1
BUNA-N, BLACK
  7
SLDTEXTSTYLE0
 73
     1
 44
1.0
  0
ENDBLK
  5
155
330
153
100
AcDbEntity
  8
0
100
AcDbBlockEnd
  0
BLOCK
  5
15F
330
15E
100
AcDbEntity
  8
0
100
AcDbBlockBegin
  2
SW_CENTERMARKSYMBOL_0
 70
     0
 10
0.0
 20
0.0
 30
0.0
  3
SW_CENTERMARKSYMBOL_0
  1

  0
LINE
  5
161
330
15E
100
AcDbEntity
  8
0
  6
Continuous
 62
     0
 48
1.5
370
     0
100
AcDbLine
 10
0.0
 20
0.0
 30
0.0
 11
0.0
 21
0.05
 31
0.0
  0
LINE
  5
162
330
15E
100
AcDbEntity
  8
0
  6
Continuous
 62
     0
 48
1.5
370
     0
100
AcDbLine
 10
0.0
 20
0.0
 30
0.0
 11
-0.05
 21
0.0
 31
0.0
  0
LINE
  5
163
330
15E
100
AcDbEntity
  8
0
  6
Continuous
 62
     0
 48
1.5
370
     0
100
AcDbLine
 10
0.0
 20
0.0
 30
0.0
 11
0.0
 21
-0.05
 31
0.0
  0
LINE
  5
164
330
15E
100
AcDbEntity
  8
0
  6
Continuous
 62
     0
 48
1.5
370
     0
100
AcDbLine
 10
0.0
 20
0.0
 30
0.0
 11
0.05
 21
0.0
 31
0.0
  0
ENDBLK
  5
160
330
15E
100
AcDbEntity
  8
0
100
AcDbBlockEnd
  0
BLOCK
  5
258
330
257
100
AcDbEntity
  8
0
100
AcDbBlockBegin
  2
*D11
 70
     1
 10
0.0
 20
0.0
 30
0.0
  3
*D11
  1

  0
SOLID
  5
25A
330
257
100
AcDbEntity
  8
0
  6
Continuous
 62
     7
 48
1.5
370
     0
100
AcDbTrace
 10
14.6674026738
 20
10.1543845531
 30
0.0
 11
14.4724026738
 21
10.1843845531
 31
0.0
 12
14.4724026738
 22
10.1243845531
 32
0.0
 13
14.4724026738
 23
10.1243845531
 33
0.0
  0
SOLID
  5
25B
330
257
100
AcDbEntity
  8
0
  6
Continuous
 62
     7
 48
1.5
370
     0
100
AcDbTrace
 10
11.9174026738
 20
10.1543845531
 30
0.0
 11
12.1124026738
 21
10.1243845531
 31
0.0
 12
12.1124026738
 22
10.1843845531
 32
0.0
 13
12.1124026738
 23
10.1843845531
 33
0.0
  0
LINE
  5
25C
330
257
100
AcDbEntity
  8
0
  6
Continuous
 62
     7
 48
1.5
370
     0
100
AcDbLine
 10
12.9739329998
 20
10.1320670266
 30
0.0
 11
12.9739329998
 21
9.8791350592
 31
0.0
  0
LINE
  5
25D
330
257
100
AcDbEntity
  8
0
  6
Continuous
 62
     7
 48
1.5
370
     0
100
AcDbLine
 10
12.9739329998
 20
9.8791350592
 30
0.0
 11
13.0119916048
 21
9.8791350592
 31
0.0
  0
LINE
  5
25E
330
257
100
AcDbEntity
  8
0
  6
Continuous
 62
     7
 48
1.5
370
     0
100
AcDbLine
 10
12.9739329998
 20
10.1320670266
 30
0.0
 11
13.0119916048
 21
10.1320670266
 31
0.0
  0
LINE
  5
25F
330
257
100
AcDbEntity
  8
0
  6
Continuous
 62
     7
 48
1.5
370
     0
100
AcDbLine
 10
13.6108723478
 20
10.1320670266
 30
0.0
 11
13.6108723478
 21
9.8791350592
 31
0.0
  0
LINE
  5
260
330
257
100
AcDbEntity
  8
0
  6
Continuous
 62
     7
 48
1.5
370
     0
100
AcDbLine
 10
13.6108723478
 20
9.8791350592
 30
0.0
 11
13.5728137428
 21
9.8791350592
 31
0.0
  0
LINE
  5
261
330
257
100
AcDbEntity
  8
0
  6
Continuous
 62
     7
 48
1.5
370
     0
100
AcDbLine
 10
13.6108723478
 20
10.1320670266
 30
0.0
 11
13.5728137428
 21
10.1320670266
 31
0.0
  0
LINE
  5
262
330
257
100
AcDbEntity
  8
0
  6
Continuous
 62
     7
 48
1.5
370
     0
100
AcDbLine
 10
14.6674026738
 20
9.638833372
 30
0.0
 11
14.6674026738
 21
10.3418845531
 31
0.0
  0
LINE
  5
263
330
257
100
AcDbEntity
  8
0
  6
Continuous
 62
     7
 48
1.5
370
     0
100
AcDbLine
 10
11.9174026738
 20
9.169833372
 30
0.0
 11
11.9174026738
 21
10.3418845531
 31
0.0
  0
LINE
  5
264
330
257
100
AcDbEntity
  8
0
  6
Continuous
 62
     7
 48
1.5
370
     0
100
AcDbLine
 10
14.6674026738
 20
10.1543845531
 30
0.0
 11
13.8187488641
 21
10.1543845531
 31
0.0
  0
LINE
  5
265
330
257
100
AcDbEntity
  8
0
  6
Continuous
 62
     7
 48
1.5
370
     0
100
AcDbLine
 10
11.9174026738
 20
10.1543845531
 30
0.0
 11
12.7660564835
 21
10.1543845531
 31
0.0
  0
MTEXT
  5
266
330
257
100
AcDbEntity
  8
0
  6
Continuous
 62
     7
 48
1.5
370
     0
100
AcDbMText
 10
13.0500502098
 20
10.396084744
 30
0.0
 40
0.1875
 41
0.0
 71
     1
 72
     1
  1
2.75
  7
SLDTEXTSTYLE0
 73
     1
 44
1.0
  0
MTEXT
  5
267
330
257
100
AcDbEntity
  8
0
  6
Continuous
 62
     7
 48
1.5
370
     0
100
AcDbMText
 10
13.0500502098
 20
10.0985177235
 30
0.0
 40
0.1875
 41
0.0
 71
     1
 72
     1
  1
69.9
  7
SLDTEXTSTYLE0
 73
     1
 44
1.0
  0
ENDBLK
  5
259
330
257
100
AcDbEntity
  8
0
100
AcDbBlockEnd
  0
BLOCK
  5
269
330
268
100
AcDbEntity
  8
0
100
AcDbBlockBegin
  2
SW_NOTE_5
 70
     0
 10
0.0
 20
0.0
 30
0.0
  3
SW_NOTE_5
  1

  0
MTEXT
  5
26B
330
268
100
AcDbEntity
  8
0
  6
Continuous
 62
     0
 48
1.5
370
     0
100
AcDbMText
 10
0.0296372607
 20
0.0909253361
 30
0.0
 40
0.1875
 41
0.0
 71
     1
 72
     1
  1
ONE-PIECE DIE-CUT GASKET
  7
SLDTEXTSTYLE0
 73
     1
 44
1.0
  0
MTEXT
  5
26C
330
268
100
AcDbEntity
  8
0
  6
Continuous
 62
     0
 48
1.5
370
     0
100
AcDbMText
 10
0.0296372607
 20
-0.1556297757
 30
0.0
 40
0.1875
 41
0.0
 71
     1
 72
     1
  1
(.25[6.3] THK. PORON #4701-41-15250-04
  7
SLDTEXTSTYLE0
 73
     1
 44
1.0
  0
MTEXT
  5
26D
330
268
100
AcDbEntity
  8
0
  6
Continuous
 62
     0
 48
1.5
370
     0
100
AcDbMText
 10
0.0296372607
 20
-0.4021848875
 30
0.0
 40
0.1875
 41
0.0
 71
     1
 72
     1
  1
- BLACK) INSIDE COVER.
  7
SLDTEXTSTYLE0
 73
     1
 44
1.0
  0
ENDBLK
  5
26A
330
268
100
AcDbEntity
  8
0
100
AcDbBlockEnd
  0
BLOCK
  5
2BE
330
2BD
100
AcDbEntity
  8
0
100
AcDbBlockBegin
  2
*D13
 70
     1
 10
0.0
 20
0.0
 30
0.0
  3
*D13
  1

  0
SOLID
  5
2C0
330
2BD
100
AcDbEntity
  8
0
  6
Continuous
 62
     7
 48
1.5
370
     0
100
AcDbTrace
 10
16.8770492661
 20
4.4732821909
 30
0.0
 11
17.0720492661
 21
4.4432821909
 31
0.0
 12
17.0720492661
 22
4.5032821909
 32
0.0
 13
17.0720492661
 23
4.5032821909
 33
0.0
  0
SOLID
  5
2C1
330
2BD
100
AcDbEntity
  8
0
  6
Continuous
 62
     7
 48
1.5
370
     0
100
AcDbTrace
 10
19.2520492661
 20
4.4732821909
 30
0.0
 11
19.0570492661
 21
4.5032821909
 31
0.0
 12
19.0570492661
 22
4.4432821909
 32
0.0
 13
19.0570492661
 23
4.4432821909
 33
0.0
  0
LINE
  5
2C2
330
2BD
100
AcDbEntity
  8
0
  6
Continuous
 62
     7
 48
1.5
370
     0
100
AcDbLine
 10
17.784927396
 20
4.4509646644
 30
0.0
 11
17.784927396
 21
4.198032697
 31
0.0
  0
LINE
  5
2C3
330
2BD
100
AcDbEntity
  8
0
  6
Continuous
 62
     7
 48
1.5
370
     0
100
AcDbLine
 10
17.784927396
 20
4.198032697
 30
0.0
 11
17.822986001
 21
4.198032697
 31
0.0
  0
LINE
  5
2C4
330
2BD
100
AcDbEntity
  8
0
  6
Continuous
 62
     7
 48
1.5
370
     0
100
AcDbLine
 10
17.784927396
 20
4.4509646644
 30
0.0
 11
17.822986001
 21
4.4509646644
 31
0.0
  0
LINE
  5
2C5
330
2BD
100
AcDbEntity
  8
0
  6
Continuous
 62
     7
 48
1.5
370
     0
100
AcDbLine
 10
18.4218667439
 20
4.4509646644
 30
0.0
 11
18.4218667439
 21
4.198032697
 31
0.0
  0
LINE
  5
2C6
330
2BD
100
AcDbEntity
  8
0
  6
Continuous
 62
     7
 48
1.5
370
     0
100
AcDbLine
 10
18.4218667439
 20
4.198032697
 30
0.0
 11
18.3838081389
 21
4.198032697
 31
0.0
  0
LINE
  5
2C7
330
2BD
100
AcDbEntity
  8
0
  6
Continuous
 62
     7
 48
1.5
370
     0
100
AcDbLine
 10
18.4218667439
 20
4.4509646644
 30
0.0
 11
18.3838081389
 21
4.4509646644
 31
0.0
  0
LINE
  5
2C8
330
2BD
100
AcDbEntity
  8
0
  6
Continuous
 62
     7
 48
1.5
370
     0
100
AcDbLine
 10
16.8770492661
 20
5.207833372
 30
0.0
 11
16.8770492661
 21
4.2857821909
 31
0.0
  0
LINE
  5
2C9
330
2BD
100
AcDbEntity
  8
0
  6
Continuous
 62
     7
 48
1.5
370
     0
100
AcDbLine
 10
19.2520492661
 20
5.207833372
 30
0.0
 11
19.2520492661
 21
4.2857821909
 31
0.0
  0
LINE
  5
2CA
330
2BD
100
AcDbEntity
  8
0
  6
Continuous
 62
     7
 48
1.5
370
     0
100
AcDbLine
 10
16.8770492661
 20
4.4732821909
 30
0.0
 11
17.5770508797
 21
4.4732821909
 31
0.0
  0
LINE
  5
2CB
330
2BD
100
AcDbEntity
  8
0
  6
Continuous
 62
     7
 48
1.5
370
     0
100
AcDbLine
 10
19.2520492661
 20
4.4732821909
 30
0.0
 11
18.6297432602
 21
4.4732821909
 31
0.0
  0
MTEXT
  5
2CC
330
2BD
100
AcDbEntity
  8
0
  6
Continuous
 62
     7
 48
1.5
370
     0
100
AcDbMText
 10
17.861044606
 20
4.7149823818
 30
0.0
 40
0.1875
 41
0.0
 71
     1
 72
     1
  1
2.38
  7
SLDTEXTSTYLE0
 73
     1
 44
1.0
  0
MTEXT
  5
2CD
330
2BD
100
AcDbEntity
  8
0
  6
Continuous
 62
     7
 48
1.5
370
     0
100
AcDbMText
 10
17.861044606
 20
4.4174153613
 30
0.0
 40
0.1875
 41
0.0
 71
     1
 72
     1
  1
60.3
  7
SLDTEXTSTYLE0
 73
     1
 44
1.0
  0
ENDBLK
  5
2BF
330
2BD
100
AcDbEntity
  8
0
100
AcDbBlockEnd
  0
BLOCK
  5
2D0
330
2CF
100
AcDbEntity
  8
0
100
AcDbBlockBegin
  2
*D14
 70
     1
 10
0.0
 20
0.0
 30
0.0
  3
*D14
  1

  0
SOLID
  5
2D2
330
2CF
100
AcDbEntity
  8
0
  6
Continuous
 62
     7
 48
1.5
370
     0
100
AcDbTrace
 10
15.723998085
 20
9.563833372
 30
0.0
 11
15.693998085
 21
9.368833372
 31
0.0
 12
15.753998085
 22
9.368833372
 32
0.0
 13
15.753998085
 23
9.368833372
 33
0.0
  0
SOLID
  5
2D3
330
2CF
100
AcDbEntity
  8
0
  6
Continuous
 62
     7
 48
1.5
370
     0
100
AcDbTrace
 10
15.723998085
 20
5.063833372
 30
0.0
 11
15.753998085
 21
5.258833372
 31
0.0
 12
15.693998085
 22
5.258833372
 32
0.0
 13
15.693998085
 23
5.258833372
 33
0.0
  0
LINE
  5
2D4
330
2CF
100
AcDbEntity
  8
0
  6
Continuous
 62
     7
 48
1.5
370
     0
100
AcDbLine
 10
15.3362144231
 20
7.2915158455
 30
0.0
 11
15.3362144231
 21
7.0385838781
 31
0.0
  0
LINE
  5
2D5
330
2CF
100
AcDbEntity
  8
0
  6
Continuous
 62
     7
 48
1.5
370
     0
100
AcDbLine
 10
15.3362144231
 20
7.0385838781
 30
0.0
 11
15.3742730281
 21
7.0385838781
 31
0.0
  0
LINE
  5
2D6
330
2CF
100
AcDbEntity
  8
0
  6
Continuous
 62
     7
 48
1.5
370
     0
100
AcDbLine
 10
15.3362144231
 20
7.2915158455
 30
0.0
 11
15.3742730281
 21
7.2915158455
 31
0.0
  0
LINE
  5
2D7
330
2CF
100
AcDbEntity
  8
0
  6
Continuous
 62
     7
 48
1.5
370
     0
100
AcDbLine
 10
16.1117817468
 20
7.2915158455
 30
0.0
 11
16.1117817468
 21
7.0385838781
 31
0.0
  0
LINE
  5
2D8
330
2CF
100
AcDbEntity
  8
0
  6
Continuous
 62
     7
 48
1.5
370
     0
100
AcDbLine
 10
16.1117817468
 20
7.0385838781
 30
0.0
 11
16.0737231418
 21
7.0385838781
 31
0.0
  0
LINE
  5
2D9
330
2CF
100
AcDbEntity
  8
0
  6
Continuous
 62
     7
 48
1.5
370
     0
100
AcDbLine
 10
16.1117817468
 20
7.2915158455
 30
0.0
 11
16.0737231418
 21
7.2915158455
 31
0.0
  0
LINE
  5
2DA
330
2CF
100
AcDbEntity
  8
0
  6
Continuous
 62
     7
 48
1.5
370
     0
100
AcDbLine
 10
16.7395492661
 20
9.563833372
 30
0.0
 11
15.536498085
 21
9.563833372
 31
0.0
  0
LINE
  5
2DB
330
2CF
100
AcDbEntity
  8
0
  6
Continuous
 62
     7
 48
1.5
370
     0
100
AcDbLine
 10
16.7395492661
 20
5.063833372
 30
0.0
 11
15.536498085
 21
5.063833372
 31
0.0
  0
LINE
  5
2DC
330
2CF
100
AcDbEntity
  8
0
  6
Continuous
 62
     7
 48
1.5
370
     0
100
AcDbLine
 10
15.723998085
 20
9.563833372
 30
0.0
 11
15.723998085
 21
7.6114003925
 31
0.0
  0
LINE
  5
2DD
330
2CF
100
AcDbEntity
  8
0
  6
Continuous
 62
     7
 48
1.5
370
     0
100
AcDbLine
 10
15.723998085
 20
5.063833372
 30
0.0
 11
15.723998085
 21
7.0162663515
 31
0.0
  0
MTEXT
  5
2DE
330
2CF
100
AcDbEntity
  8
0
  6
Continuous
 62
     7
 48
1.5
370
     0
100
AcDbMText
 10
15.481645621
 20
7.5555335629
 30
0.0
 40
0.1875
 41
0.0
 71
     1
 72
     1
  1
4.50
  7
SLDTEXTSTYLE0
 73
     1
 44
1.0
  0
MTEXT
  5
2DF
330
2CF
100
AcDbEntity
  8
0
  6
Continuous
 62
     7
 48
1.5
370
     0
100
AcDbMText
 10
15.4123316331
 20
7.2579665424
 30
0.0
 40
0.1875
 41
0.0
 71
     1
 72
     1
  1
114.3
  7
SLDTEXTSTYLE0
 73
     1
 44
1.0
  0
ENDBLK
  5
2D1
330
2CF
100
AcDbEntity
  8
0
100
AcDbBlockEnd
  0
BLOCK
  5
2E2
330
2E1
100
AcDbEntity
  8
0
100
AcDbBlockBegin
  2
*D15
 70
     1
 10
0.0
 20
0.0
 30
0.0
  3
*D15
  1

  0
SOLID
  5
2E4
330
2E1
100
AcDbEntity
  8
0
  6
Continuous
 62
     7
 48
1.5
370
     0
100
AcDbTrace
 10
16.5645492661
 20
10.1543845531
 30
0.0
 11
16.7595492661
 21
10.1243845531
 31
0.0
 12
16.7595492661
 22
10.1843845531
 32
0.0
 13
16.7595492661
 23
10.1843845531
 33
0.0
  0
SOLID
  5
2E5
330
2E1
100
AcDbEntity
  8
0
  6
Continuous
 62
     7
 48
1.5
370
     0
100
AcDbTrace
 10
19.5645492661
 20
10.1543845531
 30
0.0
 11
19.3695492661
 21
10.1843845531
 31
0.0
 12
19.3695492661
 22
10.1243845531
 32
0.0
 13
19.3695492661
 23
10.1243845531
 33
0.0
  0
LINE
  5
2E6
330
2E1
100
AcDbEntity
  8
0
  6
Continuous
 62
     7
 48
1.5
370
     0
100
AcDbLine
 10
17.7460795921
 20
10.1320670266
 30
0.0
 11
17.7460795921
 21
9.8791350592
 31
0.0
  0
LINE
  5
2E7
330
2E1
100
AcDbEntity
  8
0
  6
Continuous
 62
     7
 48
1.5
370
     0
100
AcDbLine
 10
17.7460795921
 20
9.8791350592
 30
0.0
 11
17.7841381971
 21
9.8791350592
 31
0.0
  0
LINE
  5
2E8
330
2E1
100
AcDbEntity
  8
0
  6
Continuous
 62
     7
 48
1.5
370
     0
100
AcDbLine
 10
17.7460795921
 20
10.1320670266
 30
0.0
 11
17.7841381971
 21
10.1320670266
 31
0.0
  0
LINE
  5
2E9
330
2E1
100
AcDbEntity
  8
0
  6
Continuous
 62
     7
 48
1.5
370
     0
100
AcDbLine
 10
18.3830189401
 20
10.1320670266
 30
0.0
 11
18.3830189401
 21
9.8791350592
 31
0.0
  0
LINE
  5
2EA
330
2E1
100
AcDbEntity
  8
0
  6
Continuous
 62
     7
 48
1.5
370
     0
100
AcDbLine
 10
18.3830189401
 20
9.8791350592
 30
0.0
 11
18.3449603351
 21
9.8791350592
 31
0.0
  0
LINE
  5
2EB
330
2E1
100
AcDbEntity
  8
0
  6
Continuous
 62
     7
 48
1.5
370
     0
100
AcDbLine
 10
18.3830189401
 20
10.1320670266
 30
0.0
 11
18.3449603351
 21
10.1320670266
 31
0.0
  0
LINE
  5
2EC
330
2E1
100
AcDbEntity
  8
0
  6
Continuous
 62
     7
 48
1.5
370
     0
100
AcDbLine
 10
16.5645492661
 20
9.388833372
 30
0.0
 11
16.5645492661
 21
10.3418845531
 31
0.0
  0
LINE
  5
2ED
330
2E1
100
AcDbEntity
  8
0
  6
Continuous
 62
     7
 48
1.5
370
     0
100
AcDbLine
 10
19.5645492661
 20
9.388833372
 30
0.0
 11
19.5645492661
 21
10.3418845531
 31
0.0
  0
LINE
  5
2EE
330
2E1
100
AcDbEntity
  8
0
  6
Continuous
 62
     7
 48
1.5
370
     0
100
AcDbLine
 10
16.5645492661
 20
10.1543845531
 30
0.0
 11
17.5382030758
 21
10.1543845531
 31
0.0
  0
LINE
  5
2EF
330
2E1
100
AcDbEntity
  8
0
  6
Continuous
 62
     7
 48
1.5
370
     0
100
AcDbLine
 10
19.5645492661
 20
10.1543845531
 30
0.0
 11
18.5908954564
 21
10.1543845531
 31
0.0
  0
MTEXT
  5
2F0
330
2E1
100
AcDbEntity
  8
0
  6
Continuous
 62
     7
 48
1.5
370
     0
100
AcDbMText
 10
17.8221968021
 20
10.396084744
 30
0.0
 40
0.1875
 41
0.0
 71
     1
 72
     1
  1
3.00
  7
SLDTEXTSTYLE0
 73
     1
 44
1.0
  0
MTEXT
  5
2F1
330
2E1
100
AcDbEntity
  8
0
  6
Continuous
 62
     7
 48
1.5
370
     0
100
AcDbMText
 10
17.8221968021
 20
10.0985177235
 30
0.0
 40
0.1875
 41
0.0
 71
     1
 72
     1
  1
76.2
  7
SLDTEXTSTYLE0
 73
     1
 44
1.0
  0
ENDBLK
  5
2E3
330
2E1
100
AcDbEntity
  8
0
100
AcDbBlockEnd
  0
BLOCK
  5
466
330
465
100
AcDbEntity
  8
0
100
AcDbBlockBegin
  2
*D16
 70
     1
 10
0.0
 20
0.0
 30
0.0
  3
*D16
  1

  0
SOLID
  5
468
330
465
100
AcDbEntity
  8
0
  6
Continuous
 62
     7
 48
1.5
370
     0
100
AcDbTrace
 10
6.4547512656
 20
10.1543845531
 30
0.0
 11
6.6497512656
 21
10.1243845531
 31
0.0
 12
6.6497512656
 22
10.1843845531
 32
0.0
 13
6.6497512656
 23
10.1843845531
 33
0.0
  0
SOLID
  5
469
330
465
100
AcDbEntity
  8
0
  6
Continuous
 62
     7
 48
1.5
370
     0
100
AcDbTrace
 10
9.7047512656
 20
10.1543845531
 30
0.0
 11
9.5097512656
 21
10.1843845531
 31
0.0
 12
9.5097512656
 22
10.1243845531
 32
0.0
 13
9.5097512656
 23
10.1243845531
 33
0.0
  0
LINE
  5
46A
330
465
100
AcDbEntity
  8
0
  6
Continuous
 62
     7
 48
1.5
370
     0
100
AcDbLine
 10
7.7612815916
 20
10.1320670266
 30
0.0
 11
7.7612815916
 21
9.8791350592
 31
0.0
  0
LINE
  5
46B
330
465
100
AcDbEntity
  8
0
  6
Continuous
 62
     7
 48
1.5
370
     0
100
AcDbLine
 10
7.7612815916
 20
9.8791350592
 30
0.0
 11
7.7993401966
 21
9.8791350592
 31
0.0
  0
LINE
  5
46C
330
465
100
AcDbEntity
  8
0
  6
Continuous
 62
     7
 48
1.5
370
     0
100
AcDbLine
 10
7.7612815916
 20
10.1320670266
 30
0.0
 11
7.7993401966
 21
10.1320670266
 31
0.0
  0
LINE
  5
46D
330
465
100
AcDbEntity
  8
0
  6
Continuous
 62
     7
 48
1.5
370
     0
100
AcDbLine
 10
8.3982209396
 20
10.1320670266
 30
0.0
 11
8.3982209396
 21
9.8791350592
 31
0.0
  0
LINE
  5
46E
330
465
100
AcDbEntity
  8
0
  6
Continuous
 62
     7
 48
1.5
370
     0
100
AcDbLine
 10
8.3982209396
 20
9.8791350592
 30
0.0
 11
8.3601623346
 21
9.8791350592
 31
0.0
  0
LINE
  5
46F
330
465
100
AcDbEntity
  8
0
  6
Continuous
 62
     7
 48
1.5
370
     0
100
AcDbLine
 10
8.3982209396
 20
10.1320670266
 30
0.0
 11
8.3601623346
 21
10.1320670266
 31
0.0
  0
LINE
  5
470
330
465
100
AcDbEntity
  8
0
  6
Continuous
 62
     7
 48
1.5
370
     0
100
AcDbLine
 10
6.4547512656
 20
9.045833372
 30
0.0
 11
6.4547512656
 21
10.3418845531
 31
0.0
  0
LINE
  5
471
330
465
100
AcDbEntity
  8
0
  6
Continuous
 62
     7
 48
1.5
370
     0
100
AcDbLine
 10
9.7047512656
 20
9.045833372
 30
0.0
 11
9.7047512656
 21
10.3418845531
 31
0.0
  0
LINE
  5
472
330
465
100
AcDbEntity
  8
0
  6
Continuous
 62
     7
 48
1.5
370
     0
100
AcDbLine
 10
6.4547512656
 20
10.1543845531
 30
0.0
 11
7.5534050753
 21
10.1543845531
 31
0.0
  0
LINE
  5
473
330
465
100
AcDbEntity
  8
0
  6
Continuous
 62
     7
 48
1.5
370
     0
100
AcDbLine
 10
9.7047512656
 20
10.1543845531
 30
0.0
 11
8.6060974559
 21
10.1543845531
 31
0.0
  0
MTEXT
  5
474
330
465
100
AcDbEntity
  8
0
  6
Continuous
 62
     7
 48
1.5
370
     0
100
AcDbMText
 10
7.8373988016
 20
10.396084744
 30
0.0
 40
0.1875
 41
0.0
 71
     1
 72
     1
  1
3.25
  7
SLDTEXTSTYLE0
 73
     1
 44
1.0
  0
MTEXT
  5
475
330
465
100
AcDbEntity
  8
0
  6
Continuous
 62
     7
 48
1.5
370
     0
100
AcDbMText
 10
7.8373988016
 20
10.0985177235
 30
0.0
 40
0.1875
 41
0.0
 71
     1
 72
     1
  1
82.6
  7
SLDTEXTSTYLE0
 73
     1
 44
1.0
  0
ENDBLK
  5
467
330
465
100
AcDbEntity
  8
0
100
AcDbBlockEnd
  0
BLOCK
  5
478
330
477
100
AcDbEntity
  8
0
100
AcDbBlockBegin
  2
*D17
 70
     1
 10
0.0
 20
0.0
 30
0.0
  3
*D17
  1

  0
SOLID
  5
47A
330
477
100
AcDbEntity
  8
0
  6
Continuous
 62
     7
 48
1.5
370
     0
100
AcDbTrace
 10
10.3339845885
 20
9.063833372
 30
0.0
 11
10.3039845885
 21
8.868833372
 31
0.0
 12
10.3639845885
 22
8.868833372
 32
0.0
 13
10.3639845885
 23
8.868833372
 33
0.0
  0
SOLID
  5
47B
330
477
100
AcDbEntity
  8
0
  6
Continuous
 62
     7
 48
1.5
370
     0
100
AcDbTrace
 10
10.3339845885
 20
5.563833372
 30
0.0
 11
10.3639845885
 21
5.758833372
 31
0.0
 12
10.3039845885
 22
5.758833372
 32
0.0
 13
10.3039845885
 23
5.758833372
 33
0.0
  0
LINE
  5
47C
330
477
100
AcDbEntity
  8
0
  6
Continuous
 62
     7
 48
1.5
370
     0
100
AcDbLine
 10
10.0155149145
 20
7.2915158455
 30
0.0
 11
10.0155149145
 21
7.0385838781
 31
0.0
  0
LINE
  5
47D
330
477
100
AcDbEntity
  8
0
  6
Continuous
 62
     7
 48
1.5
370
     0
100
AcDbLine
 10
10.0155149145
 20
7.0385838781
 30
0.0
 11
10.0535735195
 21
7.0385838781
 31
0.0
  0
LINE
  5
47E
330
477
100
AcDbEntity
  8
0
  6
Continuous
 62
     7
 48
1.5
370
     0
100
AcDbLine
 10
10.0155149145
 20
7.2915158455
 30
0.0
 11
10.0535735195
 21
7.2915158455
 31
0.0
  0
LINE
  5
47F
330
477
100
AcDbEntity
  8
0
  6
Continuous
 62
     7
 48
1.5
370
     0
100
AcDbLine
 10
10.6524542625
 20
7.2915158455
 30
0.0
 11
10.6524542625
 21
7.0385838781
 31
0.0
  0
LINE
  5
480
330
477
100
AcDbEntity
  8
0
  6
Continuous
 62
     7
 48
1.5
370
     0
100
AcDbLine
 10
10.6524542625
 20
7.0385838781
 30
0.0
 11
10.6143956575
 21
7.0385838781
 31
0.0
  0
LINE
  5
481
330
477
100
AcDbEntity
  8
0
  6
Continuous
 62
     7
 48
1.5
370
     0
100
AcDbLine
 10
10.6524542625
 20
7.2915158455
 30
0.0
 11
10.6143956575
 21
7.2915158455
 31
0.0
  0
LINE
  5
482
330
477
100
AcDbEntity
  8
0
  6
Continuous
 62
     7
 48
1.5
370
     0
100
AcDbLine
 10
9.6867512656
 20
9.063833372
 30
0.0
 11
10.5214845885
 21
9.063833372
 31
0.0
  0
LINE
  5
483
330
477
100
AcDbEntity
  8
0
  6
Continuous
 62
     7
 48
1.5
370
     0
100
AcDbLine
 10
9.6867512656
 20
5.563833372
 30
0.0
 11
10.5214845885
 21
5.563833372
 31
0.0
  0
LINE
  5
484
330
477
100
AcDbEntity
  8
0
  6
Continuous
 62
     7
 48
1.5
370
     0
100
AcDbLine
 10
10.3339845885
 20
9.063833372
 30
0.0
 11
10.3339845885
 21
7.6114003925
 31
0.0
  0
LINE
  5
485
330
477
100
AcDbEntity
  8
0
  6
Continuous
 62
     7
 48
1.5
370
     0
100
AcDbLine
 10
10.3339845885
 20
5.563833372
 30
0.0
 11
10.3339845885
 21
7.0162663515
 31
0.0
  0
MTEXT
  5
486
330
477
100
AcDbEntity
  8
0
  6
Continuous
 62
     7
 48
1.5
370
     0
100
AcDbMText
 10
10.0916321245
 20
7.5555335629
 30
0.0
 40
0.1875
 41
0.0
 71
     1
 72
     1
  1
3.50
  7
SLDTEXTSTYLE0
 73
     1
 44
1.0
  0
MTEXT
  5
487
330
477
100
AcDbEntity
  8
0
  6
Continuous
 62
     7
 48
1.5
370
     0
100
AcDbMText
 10
10.0916321245
 20
7.2579665424
 30
0.0
 40
0.1875
 41
0.0
 71
     1
 72
     1
  1
88.9
  7
SLDTEXTSTYLE0
 73
     1
 44
1.0
  0
ENDBLK
  5
479
330
477
100
AcDbEntity
  8
0
100
AcDbBlockEnd
  0
BLOCK
  5
489
330
488
100
AcDbEntity
  8
0
100
AcDbBlockBegin
  2
SW_NOTE_6
 70
     0
 10
0.0
 20
0.0
 30
0.0
  3
SW_NOTE_6
  1

  0
MTEXT
  5
48B
330
488
100
AcDbEntity
  8
0
  6
Continuous
 62
     0
 48
1.5
370
     0
100
AcDbMText
 10
0.0295987794
 20
0.090798737
 30
0.0
 40
0.1875
 41
0.0
 71
     1
 72
     1
  1
WELD STANDOFF M5x0.8 x 12mm LG.
  7
SLDTEXTSTYLE0
 73
     1
 44
1.0
  0
MTEXT
  5
48C
330
488
100
AcDbEntity
  8
0
  6
Continuous
 62
     0
 48
1.5
370
     0
100
AcDbMText
 10
0.0295987794
 20
-0.1557563748
 30
0.0
 40
0.1875
 41
0.0
 71
     1
 72
     1
  1
FOR GROUNDING [SUPPLIED WITH
  7
SLDTEXTSTYLE0
 73
     1
 44
1.0
  0
MTEXT
  5
48D
330
488
100
AcDbEntity
  8
0
  6
Continuous
 62
     0
 48
1.5
370
     0
100
AcDbMText
 10
0.0295987794
 20
-0.4023114866
 30
0.0
 40
0.1875
 41
0.0
 71
     1
 72
     1
  1
(1) SCREW M5x0.8 x 10mm LG., PAN HEAD,
  7
SLDTEXTSTYLE0
 73
     1
 44
1.0
  0
MTEXT
  5
48E
330
488
100
AcDbEntity
  8
0
  6
Continuous
 62
     0
 48
1.5
370
     0
100
AcDbMText
 10
0.0295987794
 20
-0.6488665984
 30
0.0
 40
0.1875
 41
0.0
 71
     1
 72
     1
  1
PHILLIPS DRIVE, STEEL, ZINC PLATED
  7
SLDTEXTSTYLE0
 73
     1
 44
1.0
  0
MTEXT
  5
48F
330
488
100
AcDbEntity
  8
0
  6
Continuous
 62
     0
 48
1.5
370
     0
100
AcDbMText
 10
0.0295987794
 20
-0.8954217101
 30
0.0
 40
0.1875
 41
0.0
 71
     1
 72
     1
  1
AND (1) LOCKWASHER, INTERNAL TOOTH,
  7
SLDTEXTSTYLE0
 73
     1
 44
1.0
  0
MTEXT
  5
490
330
488
100
AcDbEntity
  8
0
  6
Continuous
 62
     0
 48
1.5
370
     0
100
AcDbMText
 10
0.0295987794
 20
-1.1419768219
 30
0.0
 40
0.1875
 41
0.0
 71
     1
 72
     1
  1
STEEL, ZINC PLATED]
  7
SLDTEXTSTYLE0
 73
     1
 44
1.0
  0
ENDBLK
  5
48A
330
488
100
AcDbEntity
  8
0
100
AcDbBlockEnd
  0
ENDSEC
  0
SECTION
  2
ENTITIES
  0
LINE
  5
44
330
1F
100
AcDbEntity
  8
0
  6
Continuous
 62
     7
 48
1.5
370
     0
100
AcDbLine
 10
0.4698774069
 20
16.0576097561
 30
0.0
 11
25.0338774069
 21
16.0576097561
 31
0.0
  0
LINE
  5
45
330
1F
100
AcDbEntity
  8
0
  6
Continuous
 62
     7
 48
1.5
370
     0
100
AcDbLine
 10
25.0338774069
 20
0.4936097561
 30
0.0
 11
25.0338774069
 21
16.0576097561
 31
0.0
  0
LINE
  5
46
330
1F
100
AcDbEntity
  8
0
  6
Continuous
 62
     7
 48
1.5
370
     0
100
AcDbLine
 10
25.0338774069
 20
0.4936097561
 30
0.0
 11
0.4698774069
 21
0.4936097561
 31
0.0
  0
LINE
  5
47
330
1F
100
AcDbEntity
  8
0
  6
Continuous
 62
     7
 48
1.5
370
     0
100
AcDbLine
 10
0.4698774069
 20
16.0576097561
 30
0.0
 11
0.4698774069
 21
0.4936097561
 31
0.0
  0
LINE
  5
48
330
1F
100
AcDbEntity
  8
0
  6
Continuous
 62
     7
 48
1.5
370
     0
100
AcDbLine
 10
0.3768774069
 20
16.1506097561
 30
0.0
 11
25.1268774069
 21
16.1506097561
 31
0.0
  0
LINE
  5
49
330
1F
100
AcDbEntity
  8
0
  6
Continuous
 62
     7
 48
1.5
370
     0
100
AcDbLine
 10
25.1268774069
 20
0.4006097561
 30
0.0
 11
0.3768774069
 21
0.4006097561
 31
0.0
  0
LINE
  5
4A
330
1F
100
AcDbEntity
  8
0
  6
Continuous
 62
     7
 48
1.5
370
     0
100
AcDbLine
 10
0.3768774069
 20
16.1506097561
 30
0.0
 11
0.3768774069
 21
0.4006097561
 31
0.0
  0
LINE
  5
4B
330
1F
100
AcDbEntity
  8
0
  6
Continuous
 62
     7
 48
1.5
370
     0
100
AcDbLine
 10
25.1268774069
 20
0.4006097561
 30
0.0
 11
25.1268774069
 21
16.1506097561
 31
0.0
  0
LINE
  5
4C
330
1F
100
AcDbEntity
  8
0
  6
Continuous
 62
     7
 48
1.5
370
     0
100
AcDbLine
 10
0.4698774069
 20
15.4486097561
 30
0.0
 11
25.0338774069
 21
15.4486097561
 31
0.0
  0
LINE
  5
4D
330
1F
100
AcDbEntity
  8
0
  6
Continuous
 62
     7
 48
1.5
370
     0
100
AcDbLine
 10
1.5948774069
 20
16.0576097561
 30
0.0
 11
1.5948774069
 21
15.4486097561
 31
0.0
  0
LINE
  5
4E
330
1F
100
AcDbEntity
  8
0
  6
Continuous
 62
     7
 48
1.5
370
     0
100
AcDbLine
 10
11.1588774069
 20
15.4486097561
 30
0.0
 11
11.1588774069
 21
16.0576097561
 31
0.0
  0
LINE
  5
4F
330
1F
100
AcDbEntity
  8
0
  6
Continuous
 62
     7
 48
1.5
370
     0
100
AcDbLine
 10
11.2518774069
 20
15.4486097561
 30
0.0
 11
11.2518774069
 21
16.0576097561
 31
0.0
  0
LINE
  5
50
330
1F
100
AcDbEntity
  8
0
  6
Continuous
 62
     7
 48
1.5
370
     0
100
AcDbLine
 10
23.1588774069
 20
15.4486097561
 30
0.0
 11
23.1588774069
 21
16.0576097561
 31
0.0
  0
LINE
  5
51
330
1F
100
AcDbEntity
  8
0
  6
Continuous
 62
     7
 48
1.5
370
     0
100
AcDbLine
 10
12.3768774069
 20
15.4486097561
 30
0.0
 11
12.3768774069
 21
16.0576097561
 31
0.0
  0
LINE
  5
52
330
1F
100
AcDbEntity
  8
0
  6
Continuous
 62
     7
 48
1.5
370
     0
100
AcDbLine
 10
22.0338774069
 20
15.4486097561
 30
0.0
 11
22.0338774069
 21
16.0576097561
 31
0.0
  0
LINE
  5
53
330
1F
100
AcDbEntity
  8
0
  6
Continuous
 62
     7
 48
1.5
370
     0
100
AcDbLine
 10
21.9408774069
 20
15.4486097561
 30
0.0
 11
21.9408774069
 21
16.0576097561
 31
0.0
  0
DIMENSION
  5
54
330
1F
100
AcDbEntity
  8
0
  6
Continuous
 62
     7
 48
1.5
370
     0
100
AcDbDimension
  2
*D1
 10
20.4886593921
 20
5.313833372
 30
0.0
 11
20.4886593921
 21
7.313833372
 31
0.0
 70
   160
 71
     2
 42
-1.0
  3
SLDDIMSTYLE0
100
AcDbAlignedDimension
 13
19.3615492661
 23
9.313833372
 33
0.0
 14
19.3615492661
 24
5.313833372
 34
0.0
 50
90.0
100
AcDbRotatedDimension
  0
INSERT
  5
90
330
1F
100
AcDbEntity
  8
0
  6
Continuous
 62
     7
 48
1.5
370
     0
100
AcDbBlockReference
  2
SW_NOTE_0
 10
7.968025019
 20
13.672796663
 30
0.0
  0
MTEXT
  5
91
330
1F
100
AcDbEntity
  8
0
  6
Continuous
 62
     7
 48
1.5
370
     0
100
AcDbMText
 10
23.4949870082
 20
15.9139745161
 30
0.0
 40
0.28125
 41
0.0
 71
     1
 72
     1
  1
1-31-11
  7
SLDTEXTSTYLE0
 73
     1
 44
1.0
  0
MTEXT
  5
92
330
1F
100
AcDbEntity
  8
0
  6
Continuous
 62
     7
 48
1.5
370
     0
100
AcDbMText
 10
3.3712344251
 20
15.8911328105
 30
0.0
 40
0.28125
 41
0.0
 71
     1
 72
     1
  1
22.5mm PUSHBUTTON ENCLOSURE
  7
SLDTEXTSTYLE0
 73
     1
 44
1.0
  0
MTEXT
  5
93
330
1F
100
AcDbEntity
  8
0
  6
Continuous
 62
     7
 48
1.5
370
     0
100
AcDbMText
 10
16.4066936067
 20
15.8899172663
 30
0.0
 40
0.28125
 41
0.0
 71
     1
 72
     1
  1
SPB-3901
  7
SLDTEXTSTYLE0
 73
     1
 44
1.0
  0
INSERT
  5
99
330
1F
100
AcDbEntity
  8
0
  6
Continuous
 62
     7
 48
1.5
370
     0
100
AcDbBlockReference
  2
SW_NOTE_1
 10
0.7314587803
 20
15.7571400398
 30
0.0
  0
INSERT
  5
9F
330
1F
100
AcDbEntity
  8
0
  6
Continuous
 62
     7
 48
1.5
370
     0
100
AcDbBlockReference
  2
SW_NOTE_2
 10
11.5276723347
 20
15.7502973596
 30
0.0
  0
INSERT
  5
A5
330
1F
100
AcDbEntity
  8
0
  6
Continuous
 62
     7
 48
1.5
370
     0
100
AcDbBlockReference
  2
SW_NOTE_3
 10
22.0629579411
 20
15.7550752909
 30
0.0
  0
CIRCLE
  5
A6
330
1F
100
AcDbEntity
  8
0
  6
Continuous
 62
     7
 48
2.25
370
    15
100
AcDbCircle
 10
4.6844707319
 20
8.688833372
 30
0.0
 40
0.25
  0
CIRCLE
  5
A7
330
1F
100
AcDbEntity
  8
0
  6
Continuous
 62
     7
 48
2.25
370
    15
100
AcDbCircle
 10
2.1844707319
 20
5.938833372
 30
0.0
 40
0.25
  0
CIRCLE
  5
A8
330
1F
100
AcDbEntity
  8
0
  6
Continuous
 62
     7
 48
2.25
370
    15
100
AcDbCircle
 10
2.1844707319
 20
8.688833372
 30
0.0
 40
0.2499999999999982
  0
CIRCLE
  5
A9
330
1F
100
AcDbEntity
  8
0
  6
Continuous
 62
     7
 48
2.25
370
    15
100
AcDbCircle
 10
4.6844707319
 20
5.938833372
 30
0.0
 40
0.2499999999999991
  0
LINE
  5
AA
330
1F
100
AcDbEntity
  8
0
  6
Continuous
 62
     7
 48
1.5
370
    15
100
AcDbLine
 10
4.7329187587
 20
5.862151982
 30
0.0
 11
4.7071080702
 21
5.9288307183
 31
0.0
  0
LINE
  5
AB
330
1F
100
AcDbEntity
  8
0
  6
Continuous
 62
     7
 48
1.5
370
    15
100
AcDbLine
 10
4.7071080702
 20
5.9288307183
 30
0.0
 11
4.7737868066
 21
5.9546414068
 31
0.0
  0
LINE
  5
AC
330
1F
100
AcDbEntity
  8
0
  6
Continuous
 62
     7
 48
1.5
370
    15
100
AcDbLine
 10
4.7737868066
 20
5.9546414068
 30
0.0
 11
4.7611522059
 21
5.9872814031
 31
0.0
  0
LINE
  5
AD
330
1F
100
AcDbEntity
  8
0
  6
Continuous
 62
     7
 48
1.5
370
    15
100
AcDbLine
 10
4.7611522059
 20
5.9872814031
 30
0.0
 11
4.6944733229
 21
5.9614707146
 31
0.0
  0
LINE
  5
AE
330
1F
100
AcDbEntity
  8
0
  6
Continuous
 62
     7
 48
1.5
370
    15
100
AcDbLine
 10
4.6944733229
 20
5.9614707146
 30
0.0
 11
4.6686626344
 21
6.028149451
 31
0.0
  0
LINE
  5
AF
330
1F
100
AcDbEntity
  8
0
  6
Continuous
 62
     7
 48
1.5
370
    15
100
AcDbLine
 10
4.6686626344
 20
6.028149451
 30
0.0
 11
4.6360227114
 21
6.0155148503
 31
0.0
  0
LINE
  5
B0
330
1F
100
AcDbEntity
  8
0
  6
Continuous
 62
     7
 48
1.5
370
    15
100
AcDbLine
 10
4.6360227114
 20
6.0155148503
 30
0.0
 11
4.6618334733
 21
5.9488359672
 31
0.0
  0
LINE
  5
B1
330
1F
100
AcDbEntity
  8
0
  6
Continuous
 62
     7
 48
1.5
370
    15
100
AcDbLine
 10
4.6618334733
 20
5.9488359672
 30
0.0
 11
4.5951546635
 21
5.9230252787
 31
0.0
  0
LINE
  5
B2
330
1F
100
AcDbEntity
  8
0
  6
Continuous
 62
     7
 48
1.5
370
    15
100
AcDbLine
 10
4.5951546635
 20
5.9230252787
 30
0.0
 11
4.6077893376
 21
5.8903852825
 31
0.0
  0
LINE
  5
B3
330
1F
100
AcDbEntity
  8
0
  6
Continuous
 62
     7
 48
1.5
370
    15
100
AcDbLine
 10
4.6077893376
 20
5.8903852825
 30
0.0
 11
4.674468074
 21
5.9161961176
 31
0.0
  0
LINE
  5
B4
330
1F
100
AcDbEntity
  8
0
  6
Continuous
 62
     7
 48
1.5
370
    15
100
AcDbLine
 10
4.674468074
 20
5.9161961176
 30
0.0
 11
4.7002787625
 21
5.8495173812
 31
0.0
  0
LINE
  5
B5
330
1F
100
AcDbEntity
  8
0
  6
Continuous
 62
     7
 48
1.5
370
    15
100
AcDbLine
 10
4.7002787625
 20
5.8495173812
 30
0.0
 11
4.7329187587
 21
5.862151982
 31
0.0
  0
CIRCLE
  5
B6
330
1F
100
AcDbEntity
  8
0
  6
Continuous
 62
     7
 48
2.25
370
    15
100
AcDbCircle
 10
4.6844707319
 20
5.938833372
 30
0.0
 40
0.1792913385826767
  0
CIRCLE
  5
B7
330
1F
100
AcDbEntity
  8
0
  6
Continuous
 62
     7
 48
2.25
370
    15
100
AcDbCircle
 10
4.6844707319
 20
5.938833372
 30
0.0
 40
0.2099999999999997
  0
CIRCLE
  5
B8
330
1F
100
AcDbEntity
  8
0
  6
Continuous
 62
     7
 48
2.25
370
    15
100
AcDbCircle
 10
4.6844707319
 20
5.938833372
 30
0.0
 40
0.2071135629907588
  0
LINE
  5
B9
330
1F
100
AcDbEntity
  8
0
  6
Continuous
 62
     7
 48
1.5
370
    15
100
AcDbLine
 10
2.1954868447
 20
5.9609950801
 30
0.0
 11
2.1727179877
 21
6.0287729238
 31
0.0
  0
LINE
  5
BA
330
1F
100
AcDbEntity
  8
0
  6
Continuous
 62
     7
 48
1.5
370
    15
100
AcDbLine
 10
2.1727179877
 20
6.0287729238
 30
0.0
 11
2.1395400243
 21
6.0176272659
 31
0.0
  0
LINE
  5
BB
330
1F
100
AcDbEntity
  8
0
  6
Continuous
 62
     7
 48
1.5
370
    15
100
AcDbLine
 10
2.2066325026
 20
5.9278172634
 30
0.0
 11
2.274410273
 21
5.9505861204
 31
0.0
  0
LINE
  5
BC
330
1F
100
AcDbEntity
  8
0
  6
Continuous
 62
     7
 48
1.5
370
    15
100
AcDbLine
 10
2.1395400243
 20
6.0176272659
 30
0.0
 11
2.162309028
 21
5.9498495689
 31
0.0
  0
LINE
  5
BD
330
1F
100
AcDbEntity
  8
0
  6
Continuous
 62
     7
 48
1.5
370
    15
100
AcDbLine
 10
2.162309028
 20
5.9498495689
 30
0.0
 11
2.0945311843
 21
5.9270807119
 31
0.0
  0
LINE
  5
BE
330
1F
100
AcDbEntity
  8
0
  6
Continuous
 62
     7
 48
1.5
370
    15
100
AcDbLine
 10
2.0945311843
 20
5.9270807119
 30
0.0
 11
2.1056768422
 21
5.8939027485
 31
0.0
  0
LINE
  5
BF
330
1F
100
AcDbEntity
  8
0
  6
Continuous
 62
     7
 48
1.5
370
    15
100
AcDbLine
 10
2.1056768422
 20
5.8939027485
 30
0.0
 11
2.1734545392
 21
5.9166716055
 31
0.0
  0
LINE
  5
C0
330
1F
100
AcDbEntity
  8
0
  6
Continuous
 62
     7
 48
1.5
370
    15
100
AcDbLine
 10
2.1734545392
 20
5.9166716055
 30
0.0
 11
2.1962233962
 21
5.8488937618
 31
0.0
  0
LINE
  5
C1
330
1F
100
AcDbEntity
  8
0
  6
Continuous
 62
     7
 48
1.5
370
    15
100
AcDbLine
 10
2.1962233962
 20
5.8488937618
 30
0.0
 11
2.2294013596
 21
5.8600394197
 31
0.0
  0
LINE
  5
C2
330
1F
100
AcDbEntity
  8
0
  6
Continuous
 62
     7
 48
1.5
370
    15
100
AcDbLine
 10
2.2294013596
 20
5.8600394197
 30
0.0
 11
2.2066325026
 21
5.9278172634
 31
0.0
  0
LINE
  5
C3
330
1F
100
AcDbEntity
  8
0
  6
Continuous
 62
     7
 48
1.5
370
    15
100
AcDbLine
 10
2.274410273
 20
5.9505861204
 30
0.0
 11
2.2632646884
 21
5.9837639371
 31
0.0
  0
LINE
  5
C4
330
1F
100
AcDbEntity
  8
0
  6
Continuous
 62
     7
 48
1.5
370
    15
100
AcDbLine
 10
2.2632646884
 20
5.9837639371
 30
0.0
 11
2.1954868447
 21
5.9609950801
 31
0.0
  0
CIRCLE
  5
C5
330
1F
100
AcDbEntity
  8
0
  6
Continuous
 62
     7
 48
2.25
370
    15
100
AcDbCircle
 10
2.1844707319
 20
5.938833372
 30
0.0
 40
0.1792913385826767
  0
CIRCLE
  5
C6
330
1F
100
AcDbEntity
  8
0
  6
Continuous
 62
     7
 48
2.25
370
    15
100
AcDbCircle
 10
2.1844707319
 20
5.938833372
 30
0.0
 40
0.2100000000000002
  0
CIRCLE
  5
C7
330
1F
100
AcDbEntity
  8
0
  6
Continuous
 62
     7
 48
2.25
370
    15
100
AcDbCircle
 10
2.1844707319
 20
5.938833372
 30
0.0
 40
0.2071135629907591
  0
CIRCLE
  5
C8
330
1F
100
AcDbEntity
  8
0
  6
Continuous
 62
     7
 48
2.25
370
    15
100
AcDbCircle
 10
2.1844707319
 20
8.688833372
 30
0.0
 40
0.1792913385826767
  0
LINE
  5
C9
330
1F
100
AcDbEntity
  8
0
  6
Continuous
 62
     7
 48
1.5
370
    15
100
AcDbLine
 10
2.1954868447
 20
8.7109951385
 30
0.0
 11
2.1727179877
 21
8.7787729822
 31
0.0
  0
LINE
  5
CA
330
1F
100
AcDbEntity
  8
0
  6
Continuous
 62
     7
 48
1.5
370
    15
100
AcDbLine
 10
2.1727179877
 20
8.7787729822
 30
0.0
 11
2.1395400243
 21
8.7676273243
 31
0.0
  0
LINE
  5
CB
330
1F
100
AcDbEntity
  8
0
  6
Continuous
 62
     7
 48
1.5
370
    15
100
AcDbLine
 10
2.2066325026
 20
8.6778171752
 30
0.0
 11
2.274410273
 21
8.7005860321
 31
0.0
  0
LINE
  5
CC
330
1F
100
AcDbEntity
  8
0
  6
Continuous
 62
     7
 48
1.5
370
    15
100
AcDbLine
 10
2.274410273
 20
8.7005860321
 30
0.0
 11
2.2632646884
 21
8.7337639955
 31
0.0
  0
LINE
  5
CD
330
1F
100
AcDbEntity
  8
0
  6
Continuous
 62
     7
 48
1.5
370
    15
100
AcDbLine
 10
2.2632646884
 20
8.7337639955
 30
0.0
 11
2.1954868447
 21
8.7109951385
 31
0.0
  0
LINE
  5
CE
330
1F
100
AcDbEntity
  8
0
  6
Continuous
 62
     7
 48
1.5
370
    15
100
AcDbLine
 10
2.1395400243
 20
8.7676273243
 30
0.0
 11
2.162309028
 21
8.6998494806
 31
0.0
  0
LINE
  5
CF
330
1F
100
AcDbEntity
  8
0
  6
Continuous
 62
     7
 48
1.5
370
    15
100
AcDbLine
 10
2.1056768422
 20
8.6439028069
 30
0.0
 11
2.1734545392
 21
8.6666716639
 31
0.0
  0
LINE
  5
D0
330
1F
100
AcDbEntity
  8
0
  6
Continuous
 62
     7
 48
1.5
370
    15
100
AcDbLine
 10
2.2294013596
 20
8.6100394781
 30
0.0
 11
2.2066325026
 21
8.6778171752
 31
0.0
  0
LINE
  5
D1
330
1F
100
AcDbEntity
  8
0
  6
Continuous
 62
     7
 48
1.5
370
    15
100
AcDbLine
 10
2.0945311843
 20
8.6770806237
 30
0.0
 11
2.1056768422
 21
8.6439028069
 31
0.0
  0
LINE
  5
D2
330
1F
100
AcDbEntity
  8
0
  6
Continuous
 62
     7
 48
1.5
370
    15
100
AcDbLine
 10
2.1962233962
 20
8.5988938202
 30
0.0
 11
2.2294013596
 21
8.6100394781
 31
0.0
  0
LINE
  5
D3
330
1F
100
AcDbEntity
  8
0
  6
Continuous
 62
     7
 48
1.5
370
    15
100
AcDbLine
 10
2.1734545392
 20
8.6666716639
 30
0.0
 11
2.1962233962
 21
8.5988938202
 31
0.0
  0
LINE
  5
D4
330
1F
100
AcDbEntity
  8
0
  6
Continuous
 62
     7
 48
1.5
370
    15
100
AcDbLine
 10
2.162309028
 20
8.6998494806
 30
0.0
 11
2.0945311843
 21
8.6770806237
 31
0.0
  0
CIRCLE
  5
D5
330
1F
100
AcDbEntity
  8
0
  6
Continuous
 62
     7
 48
2.25
370
    15
100
AcDbCircle
 10
2.1844707319
 20
8.688833372
 30
0.0
 40
0.2071135629907573
  0
CIRCLE
  5
D6
330
1F
100
AcDbEntity
  8
0
  6
Continuous
 62
     7
 48
2.25
370
    15
100
AcDbCircle
 10
2.1844707319
 20
8.688833372
 30
0.0
 40
0.2099999999999986
  0
CIRCLE
  5
D7
330
1F
100
AcDbEntity
  8
0
  6
Continuous
 62
     7
 48
2.25
370
    15
100
AcDbCircle
 10
4.6844707319
 20
8.688833372
 30
0.0
 40
0.1792913385826768
  0
LINE
  5
D8
330
1F
100
AcDbEntity
  8
0
  6
Continuous
 62
     7
 48
1.5
370
    15
100
AcDbLine
 10
4.6395401041
 20
8.7676273243
 30
0.0
 11
4.6623089611
 21
8.6998494806
 31
0.0
  0
LINE
  5
D9
330
1F
100
AcDbEntity
  8
0
  6
Continuous
 62
     7
 48
1.5
370
    15
100
AcDbLine
 10
4.6623089611
 20
8.6998494806
 30
0.0
 11
4.5945311907
 21
8.6770806237
 31
0.0
  0
LINE
  5
DA
330
1F
100
AcDbEntity
  8
0
  6
Continuous
 62
     7
 48
1.5
370
    15
100
AcDbLine
 10
4.6727180675
 20
8.7787729822
 30
0.0
 11
4.6395401041
 21
8.7676273243
 31
0.0
  0
LINE
  5
DB
330
1F
100
AcDbEntity
  8
0
  6
Continuous
 62
     7
 48
1.5
370
    15
100
AcDbLine
 10
4.5945311907
 20
8.6770806237
 30
0.0
 11
4.6056767753
 21
8.6439028069
 31
0.0
  0
LINE
  5
DC
330
1F
100
AcDbEntity
  8
0
  6
Continuous
 62
     7
 48
1.5
370
    15
100
AcDbLine
 10
4.7294014394
 20
8.6100394781
 30
0.0
 11
4.7066324357
 21
8.6778171752
 31
0.0
  0
LINE
  5
DD
330
1F
100
AcDbEntity
  8
0
  6
Continuous
 62
     7
 48
1.5
370
    15
100
AcDbLine
 10
4.6056767753
 20
8.6439028069
 30
0.0
 11
4.673454619
 21
8.6666716639
 31
0.0
  0
LINE
  5
DE
330
1F
100
AcDbEntity
  8
0
  6
Continuous
 62
     7
 48
1.5
370
    15
100
AcDbLine
 10
4.673454619
 20
8.6666716639
 30
0.0
 11
4.696223476
 21
8.5988938202
 31
0.0
  0
LINE
  5
DF
330
1F
100
AcDbEntity
  8
0
  6
Continuous
 62
     7
 48
1.5
370
    15
100
AcDbLine
 10
4.696223476
 20
8.5988938202
 30
0.0
 11
4.7294014394
 21
8.6100394781
 31
0.0
  0
LINE
  5
E0
330
1F
100
AcDbEntity
  8
0
  6
Continuous
 62
     7
 48
1.5
370
    15
100
AcDbLine
 10
4.7066324357
 20
8.6778171752
 30
0.0
 11
4.7744102794
 21
8.7005860321
 31
0.0
  0
LINE
  5
E1
330
1F
100
AcDbEntity
  8
0
  6
Continuous
 62
     7
 48
1.5
370
    15
100
AcDbLine
 10
4.6954869245
 20
8.7109951385
 30
0.0
 11
4.6727180675
 21
8.7787729822
 31
0.0
  0
LINE
  5
E2
330
1F
100
AcDbEntity
  8
0
  6
Continuous
 62
     7
 48
1.5
370
    15
100
AcDbLine
 10
4.7632646215
 20
8.7337639955
 30
0.0
 11
4.6954869245
 21
8.7109951385
 31
0.0
  0
LINE
  5
E3
330
1F
100
AcDbEntity
  8
0
  6
Continuous
 62
     7
 48
1.5
370
    15
100
AcDbLine
 10
4.7744102794
 20
8.7005860321
 30
0.0
 11
4.7632646215
 21
8.7337639955
 31
0.0
  0
CIRCLE
  5
E4
330
1F
100
AcDbEntity
  8
0
  6
Continuous
 62
     7
 48
2.25
370
    15
100
AcDbCircle
 10
4.6844707319
 20
8.688833372
 30
0.0
 40
0.2100000000000002
  0
CIRCLE
  5
E5
330
1F
100
AcDbEntity
  8
0
  6
Continuous
 62
     7
 48
2.25
370
    15
100
AcDbCircle
 10
4.6844707319
 20
8.688833372
 30
0.0
 40
0.2071135629907591
  0
ARC
  5
E6
330
1F
100
AcDbEntity
  8
0
  6
Continuous
 62
     7
 48
2.25
370
    15
100
AcDbCircle
 10
1.7774707319
 20
5.531833372
 30
0.0
 40
0.093
100
AcDbArc
 50
180.0
 51
270.0
  0
ARC
  5
E7
330
1F
100
AcDbEntity
  8
0
  6
Continuous
 62
     7
 48
2.25
370
    15
100
AcDbCircle
 10
5.0914707319
 20
5.531833372
 30
0.0
 40
0.0930000000000009
100
AcDbArc
 50
270.0
 51
0.0
  0
LINE
  5
E8
330
1F
100
AcDbEntity
  8
0
  6
Continuous
 62
     7
 48
1.5
370
    15
100
AcDbLine
 10
5.184470729
 20
5.5318334245
 30
0.0
 11
5.184470729
 21
9.0958333195
 31
0.0
  0
ARC
  5
E9
330
1F
100
AcDbEntity
  8
0
  6
Continuous
 62
     7
 48
2.25
370
    15
100
AcDbCircle
 10
3.4344707319
 20
7.313833372
 30
0.0
 40
0.4430000000000002
100
AcDbArc
 50
188.1105498048
 51
261.8894501952
  0
LINE
  5
EA
330
1F
100
AcDbEntity
  8
0
  6
Continuous
 62
     7
 48
1.5
370
    15
100
AcDbLine
 10
3.3719707326
 20
6.8752644051
 30
0.0
 11
3.3719707326
 21
6.8138333781
 31
0.0
  0
LINE
  5
EB
330
1F
100
AcDbEntity
  8
0
  6
Continuous
 62
     7
 48
1.5
370
    15
100
AcDbLine
 10
3.3719707326
 20
6.8138333781
 30
0.0
 11
3.4969707311
 21
6.8138333781
 31
0.0
  0
LINE
  5
EC
330
1F
100
AcDbEntity
  8
0
  6
Continuous
 62
     7
 48
1.5
370
    15
100
AcDbLine
 10
3.4969707311
 20
6.8138333781
 30
0.0
 11
3.4969707311
 21
6.8752644051
 31
0.0
  0
ARC
  5
ED
330
1F
100
AcDbEntity
  8
0
  6
Continuous
 62
     7
 48
2.25
370
    15
100
AcDbCircle
 10
3.4344707319
 20
7.313833372
 30
0.0
 40
0.4430000000000001
100
AcDbArc
 50
278.1105498048
 51
351.8894501952
  0
LINE
  5
EE
330
1F
100
AcDbEntity
  8
0
  6
Continuous
 62
     7
 48
1.5
370
    15
100
AcDbLine
 10
3.8730396988
 20
7.2513333728
 30
0.0
 11
3.9344707258
 21
7.2513333728
 31
0.0
  0
LINE
  5
EF
330
1F
100
AcDbEntity
  8
0
  6
Continuous
 62
     7
 48
1.5
370
    15
100
AcDbLine
 10
3.9344707258
 20
7.2513333728
 30
0.0
 11
3.9344707258
 21
7.3763333713
 31
0.0
  0
LINE
  5
F0
330
1F
100
AcDbEntity
  8
0
  6
Continuous
 62
     7
 48
1.5
370
    15
100
AcDbLine
 10
3.9344707258
 20
7.3763333713
 30
0.0
 11
3.8730396988
 21
7.3763333713
 31
0.0
  0
ARC
  5
F1
330
1F
100
AcDbEntity
  8
0
  6
Continuous
 62
     7
 48
2.25
370
    15
100
AcDbCircle
 10
3.4344707319
 20
7.313833372
 30
0.0
 40
0.4430000000000001
100
AcDbArc
 50
8.1105498048
 51
81.8894501952
  0
LINE
  5
F2
330
1F
100
AcDbEntity
  8
0
  6
Continuous
 62
     7
 48
1.5
370
    15
100
AcDbLine
 10
3.4969707311
 20
7.752402339
 30
0.0
 11
3.4969707311
 21
7.813833366
 31
0.0
  0
LINE
  5
F3
330
1F
100
AcDbEntity
  8
0
  6
Continuous
 62
     7
 48
1.5
370
    15
100
AcDbLine
 10
3.4969707311
 20
7.813833366
 30
0.0
 11
3.3719707326
 21
7.813833366
 31
0.0
  0
LINE
  5
F4
330
1F
100
AcDbEntity
  8
0
  6
Continuous
 62
     7
 48
1.5
370
    15
100
AcDbLine
 10
3.3719707326
 20
7.813833366
 30
0.0
 11
3.3719707326
 21
7.752402339
 31
0.0
  0
ARC
  5
F5
330
1F
100
AcDbEntity
  8
0
  6
Continuous
 62
     7
 48
2.25
370
    15
100
AcDbCircle
 10
3.4344707319
 20
7.313833372
 30
0.0
 40
0.4430000000000001
100
AcDbArc
 50
98.1105498048
 51
171.8894501952
  0
LINE
  5
F6
330
1F
100
AcDbEntity
  8
0
  6
Continuous
 62
     7
 48
1.5
370
    15
100
AcDbLine
 10
2.9959017649
 20
7.3763333713
 30
0.0
 11
2.9344707379
 21
7.3763333713
 31
0.0
  0
LINE
  5
F7
330
1F
100
AcDbEntity
  8
0
  6
Continuous
 62
     7
 48
1.5
370
    15
100
AcDbLine
 10
2.9344707379
 20
7.3763333713
 30
0.0
 11
2.9344707379
 21
7.2513333728
 31
0.0
  0
LINE
  5
F8
330
1F
100
AcDbEntity
  8
0
  6
Continuous
 62
     7
 48
1.5
370
    15
100
AcDbLine
 10
2.9344707379
 20
7.2513333728
 30
0.0
 11
2.9959017649
 21
7.2513333728
 31
0.0
  0
LINE
  5
F9
330
1F
100
AcDbEntity
  8
0
  6
Continuous
 62
     7
 48
1.5
370
    15
100
AcDbLine
 10
1.7774707003
 20
5.4388333122
 30
0.0
 11
5.0914707634
 21
5.4388333122
 31
0.0
  0
LINE
  5
FA
330
1F
100
AcDbEntity
  8
0
  6
Continuous
 62
     7
 48
1.5
370
    15
100
AcDbLine
 10
1.6844707347
 20
9.0958333195
 30
0.0
 11
1.6844707347
 21
5.5318334245
 31
0.0
  0
ARC
  5
FB
330
1F
100
AcDbEntity
  8
0
  6
Continuous
 62
     7
 48
2.25
370
    15
100
AcDbCircle
 10
5.0914707319
 20
9.095833372
 30
0.0
 40
0.093
100
AcDbArc
 50
0.0
 51
90.0
  0
LINE
  5
FC
330
1F
100
AcDbEntity
  8
0
  6
Continuous
 62
     7
 48
1.5
370
    15
100
AcDbLine
 10
5.0914707634
 20
9.1888334318
 30
0.0
 11
1.7774707003
 21
9.1888334318
 31
0.0
  0
ARC
  5
FD
330
1F
100
AcDbEntity
  8
0
  6
Continuous
 62
     7
 48
2.25
370
    15
100
AcDbCircle
 10
1.7774707319
 20
9.095833372
 30
0.0
 40
0.0930000000000002
100
AcDbArc
 50
90.0
 51
180.0
  0
ARC
  5
FE
330
1F
100
AcDbEntity
  8
0
  6
Continuous
 62
     7
 48
2.25
370
    15
100
AcDbCircle
 10
4.6219707319
 20
5.282833372
 30
0.0
 40
0.1095000000000006
100
AcDbArc
 50
180.0
 51
0.0
  0
ARC
  5
FF
330
1F
100
AcDbEntity
  8
0
  6
Continuous
 62
     7
 48
2.25
370
    15
100
AcDbCircle
 10
4.6219707319
 20
5.344833372
 30
0.0
 40
0.1095000000000006
100
AcDbArc
 50
0.0
 51
59.1427113602
  0
ARC
  5
100
330
1F
100
AcDbEntity
  8
0
  6
Continuous
 62
     7
 48
2.25
370
    15
100
AcDbCircle
 10
4.6219707319
 20
5.344833372
 30
0.0
 40
0.1095000000000005
100
AcDbArc
 50
120.8572886398
 51
180.0
  0
LINE
  5
101
330
1F
100
AcDbEntity
  8
0
  6
Continuous
 62
     7
 48
1.5
370
    15
100
AcDbLine
 10
2.184470692
 20
5.0638334175
 30
0.0
 11
4.6844707718
 21
5.0638334175
 31
0.0
  0
ARC
  5
102
330
1F
100
AcDbEntity
  8
0
  6
Continuous
 62
     7
 48
2.25
370
    15
100
AcDbCircle
 10
4.6844707319
 20
5.313833372
 30
0.0
 40
0.2499999999999991
100
AcDbArc
 50
270.0
 51
0.0
  0
LINE
  5
103
330
1F
100
AcDbEntity
  8
0
  6
Continuous
 62
     7
 48
1.5
370
    15
100
AcDbLine
 10
4.9344707504
 20
5.3138333962
 30
0.0
 11
4.9344707504
 21
5.4388333122
 31
0.0
  0
LINE
  5
104
330
1F
100
AcDbEntity
  8
0
  6
Continuous
 62
     7
 48
1.5
370
    15
100
AcDbLine
 10
4.7314707355
 20
5.2828334076
 30
0.0
 11
4.7314707355
 21
5.3448333847
 31
0.0
  0
LINE
  5
105
330
1F
100
AcDbEntity
  8
0
  6
Continuous
 62
     7
 48
1.5
370
    15
100
AcDbLine
 10
2.3564707183
 20
5.3448333847
 30
0.0
 11
2.3564707183
 21
5.2828334076
 31
0.0
  0
ARC
  5
106
330
1F
100
AcDbEntity
  8
0
  6
Continuous
 62
     7
 48
2.25
370
    15
100
AcDbCircle
 10
2.2469707319
 20
5.282833372
 30
0.0
 40
0.1095000000000006
100
AcDbArc
 50
180.0
 51
0.0
  0
LINE
  5
107
330
1F
100
AcDbEntity
  8
0
  6
Continuous
 62
     7
 48
1.5
370
    15
100
AcDbLine
 10
2.1374707283
 20
5.2828334076
 30
0.0
 11
2.1374707283
 21
5.3448333847
 31
0.0
  0
ARC
  5
108
330
1F
100
AcDbEntity
  8
0
  6
Continuous
 62
     7
 48
2.25
370
    15
100
AcDbCircle
 10
2.2469707319
 20
5.344833372
 30
0.0
 40
0.1095000000000007
100
AcDbArc
 50
120.8572886398
 51
180.0
  0
ARC
  5
109
330
1F
100
AcDbEntity
  8
0
  6
Continuous
 62
     7
 48
2.25
370
    15
100
AcDbCircle
 10
2.2469707319
 20
5.344833372
 30
0.0
 40
0.1095000000000007
100
AcDbArc
 50
0.0
 51
59.1427113602
  0
ARC
  5
10A
330
1F
100
AcDbEntity
  8
0
  6
Continuous
 62
     7
 48
2.25
370
    15
100
AcDbCircle
 10
2.1844707319
 20
5.313833372
 30
0.0
 40
0.2499999999999993
100
AcDbArc
 50
180.0
 51
270.0
  0
LINE
  5
10B
330
1F
100
AcDbEntity
  8
0
  6
Continuous
 62
     7
 48
1.5
370
    15
100
AcDbLine
 10
1.9344707133
 20
5.3138333962
 30
0.0
 11
1.9344707133
 21
5.4388333122
 31
0.0
  0
LINE
  5
10C
330
1F
100
AcDbEntity
  8
0
  6
Continuous
 62
     7
 48
1.5
370
    15
100
AcDbLine
 10
4.5124707454
 20
5.3448333847
 30
0.0
 11
4.5124707454
 21
5.2828334076
 31
0.0
  0
LINE
  5
10D
330
1F
100
AcDbEntity
  8
0
  6
Continuous
 62
     7
 48
1.5
370
    15
100
AcDbLine
 10
2.1374707283
 20
9.3448333364
 30
0.0
 11
2.1374707283
 21
9.2828333593
 31
0.0
  0
ARC
  5
10E
330
1F
100
AcDbEntity
  8
0
  6
Continuous
 62
     7
 48
2.25
370
    15
100
AcDbCircle
 10
2.2469707319
 20
9.282833372
 30
0.0
 40
0.1095000000000003
100
AcDbArc
 50
180.0
 51
239.1427113602
  0
ARC
  5
10F
330
1F
100
AcDbEntity
  8
0
  6
Continuous
 62
     7
 48
2.25
370
    15
100
AcDbCircle
 10
2.2469707319
 20
9.282833372
 30
0.0
 40
0.1095000000000006
100
AcDbArc
 50
300.8572886398
 51
0.0
  0
LINE
  5
110
330
1F
100
AcDbEntity
  8
0
  6
Continuous
 62
     7
 48
1.5
370
    15
100
AcDbLine
 10
4.6844707718
 20
9.5638333265
 30
0.0
 11
2.184470692
 21
9.5638333265
 31
0.0
  0
ARC
  5
111
330
1F
100
AcDbEntity
  8
0
  6
Continuous
 62
     7
 48
2.25
370
    15
100
AcDbCircle
 10
2.1844707319
 20
9.313833372
 30
0.0
 40
0.2499999999999998
100
AcDbArc
 50
90.0
 51
180.0
  0
LINE
  5
112
330
1F
100
AcDbEntity
  8
0
  6
Continuous
 62
     7
 48
1.5
370
    15
100
AcDbLine
 10
1.9344707133
 20
9.3138333478
 30
0.0
 11
1.9344707133
 21
9.1888334318
 31
0.0
  0
LINE
  5
113
330
1F
100
AcDbEntity
  8
0
  6
Continuous
 62
     7
 48
1.5
370
    15
100
AcDbLine
 10
4.5124707454
 20
9.2828333593
 30
0.0
 11
4.5124707454
 21
9.3448333364
 31
0.0
  0
ARC
  5
114
330
1F
100
AcDbEntity
  8
0
  6
Continuous
 62
     7
 48
2.25
370
    15
100
AcDbCircle
 10
4.6219707319
 20
9.344833372
 30
0.0
 40
0.1094999999999997
100
AcDbArc
 50
0.0
 51
180.0
  0
LINE
  5
115
330
1F
100
AcDbEntity
  8
0
  6
Continuous
 62
     7
 48
1.5
370
    15
100
AcDbLine
 10
4.7314707355
 20
9.3448333364
 30
0.0
 11
4.7314707355
 21
9.2828333593
 31
0.0
  0
ARC
  5
116
330
1F
100
AcDbEntity
  8
0
  6
Continuous
 62
     7
 48
2.25
370
    15
100
AcDbCircle
 10
4.6219707319
 20
9.282833372
 30
0.0
 40
0.109500000000002
100
AcDbArc
 50
300.8572886398
 51
0.0
  0
ARC
  5
117
330
1F
100
AcDbEntity
  8
0
  6
Continuous
 62
     7
 48
2.25
370
    15
100
AcDbCircle
 10
4.6219707319
 20
9.282833372
 30
0.0
 40
0.1095
100
AcDbArc
 50
180.0
 51
239.1427113602
  0
ARC
  5
118
330
1F
100
AcDbEntity
  8
0
  6
Continuous
 62
     7
 48
2.25
370
    15
100
AcDbCircle
 10
4.6844707319
 20
9.313833372
 30
0.0
 40
0.25
100
AcDbArc
 50
0.0
 51
90.0
  0
LINE
  5
119
330
1F
100
AcDbEntity
  8
0
  6
Continuous
 62
     7
 48
1.5
370
    15
100
AcDbLine
 10
4.9344707504
 20
9.3138333478
 30
0.0
 11
4.9344707504
 21
9.1888334318
 31
0.0
  0
LINE
  5
11A
330
1F
100
AcDbEntity
  8
0
  6
Continuous
 62
     7
 48
1.5
370
    15
100
AcDbLine
 10
2.3564707183
 20
9.2828333593
 30
0.0
 11
2.3564707183
 21
9.3448333364
 31
0.0
  0
ARC
  5
11B
330
1F
100
AcDbEntity
  8
0
  6
Continuous
 62
     7
 48
2.25
370
    15
100
AcDbCircle
 10
2.2469707319
 20
9.344833372
 30
0.0
 40
0.1095000000000006
100
AcDbArc
 50
0.0
 51
180.0
  0
DIMENSION
  5
11C
330
1F
100
AcDbEntity
  8
0
  6
Continuous
 62
     7
 48
1.5
370
     0
100
AcDbDimension
  2
*D6
 10
3.6214659183
 20
6.9122343179
 30
0.0
 11
1.5462766146
 21
9.9175448756
 31
0.0
 70
   163
  1
<>
 71
     1
 42
-1.0
  3
SLDDIMSTYLE1
100
AcDbDiametricDimension
 15
3.2474755454
 25
7.7154324261
 35
0.0
 40
0.0
  0
DIMENSION
  5
12D
330
1F
100
AcDbEntity
  8
0
  6
Continuous
 62
     7
 48
1.5
370
     0
100
AcDbDimension
  2
*D7
 10
3.4969707319
 20
10.0072290882
 30
0.0
 11
4.3975139936
 21
10.0072290882
 31
0.0
 70
   160
 71
     2
 42
-1.0
  3
SLDDIMSTYLE2
100
AcDbAlignedDimension
 13
3.3719707319
 23
7.813833372
 33
0.0
 14
3.4969707319
 24
7.813833372
 34
0.0
 50
0.0
100
AcDbRotatedDimension
  0
DIMENSION
  5
140
330
1F
100
AcDbEntity
  8
0
  6
Continuous
 62
     7
 48
1.5
370
     0
100
AcDbDimension
  2
*D8
 10
5.742521913
 20
6.813833372
 30
0.0
 11
5.742521913
 21
7.313833372
 31
0.0
 70
   160
 71
     2
 42
-1.0
  3
SLDDIMSTYLE3
100
AcDbAlignedDimension
 13
3.4969707319
 23
7.813833372
 33
0.0
 14
3.4969707319
 24
6.813833372
 34
0.0
 50
90.0
100
AcDbRotatedDimension
  0
INSERT
  5
15B
102
{ACAD_REACTORS
330
15D
102
}
330
1F
100
AcDbEntity
  8
0
  6
Continuous
 62
     7
 48
1.5
370
     0
100
AcDbBlockReference
  2
SW_NOTE_4
 10
1.5507648594
 20
3.8463085292
 30
0.0
  0
LEADER
  5
15D
330
1F
100
AcDbEntity
  8
0
  6
Continuous
 62
     7
 48
1.5
370
     0
100
AcDbLeader
  3
SLDDIMSTYLE4
 73
     2
 76
     3
 10
2.0800740209
 20
5.7599553277
 30
0.0
 10
1.1757648594
 20
3.8463085292
 30
0.0
 10
1.5507648594
 20
3.8463085292
 30
0.0
340
15B
  0
INSERT
  5
165
330
1F
100
AcDbEntity
  8
0
  6
Continuous
 62
     7
 48
1.5
370
     0
100
AcDbBlockReference
  2
SW_CENTERMARKSYMBOL_0
 10
3.4344707319
 20
7.313833372
 30
0.0
  0
ARC
  5
166
330
1F
100
AcDbEntity
  8
0
  6
Continuous
 62
     7
 48
2.25
370
    15
100
AcDbCircle
 10
11.7244026738
 20
8.453833372
 30
0.0
 40
0.0150000000000006
100
AcDbArc
 50
270.0
 51
0.0
  0
ARC
  5
167
330
1F
100
AcDbEntity
  8
0
  6
Continuous
 62
     7
 48
2.25
370
    15
100
AcDbCircle
 10
11.7244026738
 20
8.923833372
 30
0.0
 40
0.0150000000000006
100
AcDbArc
 50
0.0
 51
90.0
  0
ARC
  5
168
330
1F
100
AcDbEntity
  8
0
  6
Continuous
 62
     7
 48
2.25
370
    15
100
AcDbCircle
 10
11.6844026738
 20
8.453833372
 30
0.0
 40
0.0150000000000006
100
AcDbArc
 50
180.0
 51
270.0
  0
ARC
  5
169
330
1F
100
AcDbEntity
  8
0
  6
Continuous
 62
     7
 48
2.25
370
    15
100
AcDbCircle
 10
11.6844026738
 20
8.923833372
 30
0.0
 40
0.0150000000000006
100
AcDbArc
 50
90.0
 51
180.0
  0
LINE
  5
16A
330
1F
100
AcDbEntity
  8
0
  6
Continuous
 62
     7
 48
1.5
370
    15
100
AcDbLine
 10
11.7244028049
 20
8.9388333065
 30
0.0
 11
11.6844025737
 21
8.9388333065
 31
0.0
  0
LINE
  5
16B
330
1F
100
AcDbEntity
  8
0
  6
Continuous
 62
     7
 48
1.5
370
    15
100
AcDbLine
 10
11.6844025737
 20
8.4388333492
 30
0.0
 11
11.7244028049
 21
8.4388333492
 31
0.0
  0
ARC
  5
16C
330
1F
100
AcDbEntity
  8
0
  6
Continuous
 62
     7
 48
2.25
370
    15
100
AcDbCircle
 10
11.7244026738
 20
5.703833372
 30
0.0
 40
0.0150000000000006
100
AcDbArc
 50
270.0
 51
0.0
  0
ARC
  5
16D
330
1F
100
AcDbEntity
  8
0
  6
Continuous
 62
     7
 48
2.25
370
    15
100
AcDbCircle
 10
11.7244026738
 20
6.173833372
 30
0.0
 40
0.0150000000000006
100
AcDbArc
 50
0.0
 51
90.0
  0
LINE
  5
16E
330
1F
100
AcDbEntity
  8
0
  6
Continuous
 62
     7
 48
1.5
370
    15
100
AcDbLine
 10
11.7244028049
 20
6.1888333948
 30
0.0
 11
11.6844025737
 21
6.1888333948
 31
0.0
  0
LINE
  5
16F
330
1F
100
AcDbEntity
  8
0
  6
Continuous
 62
     7
 48
1.5
370
    15
100
AcDbLine
 10
11.6844025737
 20
5.6888334375
 30
0.0
 11
11.7244028049
 21
5.6888334375
 31
0.0
  0
ARC
  5
170
330
1F
100
AcDbEntity
  8
0
  6
Continuous
 62
     7
 48
2.25
370
    15
100
AcDbCircle
 10
11.6844026738
 20
5.703833372
 30
0.0
 40
0.0150000000000006
100
AcDbArc
 50
180.0
 51
270.0
  0
ARC
  5
171
330
1F
100
AcDbEntity
  8
0
  6
Continuous
 62
     7
 48
2.25
370
    15
100
AcDbCircle
 10
11.6844026738
 20
6.173833372
 30
0.0
 40
0.0150000000000006
100
AcDbArc
 50
90.0
 51
180.0
  0
LINE
  5
172
330
1F
100
AcDbEntity
  8
0
  6
Continuous
 62
     7
 48
1.5
370
    15
100
AcDbLine
 10
11.6694025603
 20
6.1488333835
 30
0.0
 11
11.6364105681
 21
6.1459469435
 31
0.0
  0
LINE
  5
173
330
1F
100
AcDbEntity
  8
0
  6
Continuous
 62
     7
 48
1.5
370
    15
100
AcDbLine
 10
11.6364105681
 20
5.7317197421
 30
0.0
 11
11.6694025603
 21
5.7288333754
 31
0.0
  0
ARC
  5
174
330
1F
100
AcDbEntity
  8
0
  6
Continuous
 62
     7
 48
2.25
370
    15
100
AcDbCircle
 10
11.6321585793
 20
5.8382821909
 30
0.0
 40
0.0787401574803166
100
AcDbArc
 50
180.0
 51
270.0
  0
ARC
  5
175
330
1F
100
AcDbEntity
  8
0
  6
Continuous
 62
     7
 48
2.25
370
    15
100
AcDbCircle
 10
11.6321585793
 20
6.0393845531
 30
0.0
 40
0.0787401574803166
100
AcDbArc
 50
90.0
 51
180.0
  0
LINE
  5
176
330
1F
100
AcDbEntity
  8
0
  6
Continuous
 62
     7
 48
1.5
370
    15
100
AcDbLine
 10
11.6364105681
 20
6.1181247449
 30
0.0
 11
11.6321584572
 21
6.1181247449
 31
0.0
  0
LINE
  5
177
330
1F
100
AcDbEntity
  8
0
  6
Continuous
 62
     7
 48
1.5
370
    15
100
AcDbLine
 10
11.6321584572
 20
5.7595420873
 30
0.0
 11
11.6364105681
 21
5.7595420873
 31
0.0
  0
LINE
  5
178
330
1F
100
AcDbEntity
  8
0
  6
Continuous
 62
     7
 48
1.5
370
    15
100
AcDbLine
 10
11.6694025603
 20
8.8988333686
 30
0.0
 11
11.6364105681
 21
8.895947002
 31
0.0
  0
LINE
  5
179
330
1F
100
AcDbEntity
  8
0
  6
Continuous
 62
     7
 48
1.5
370
    15
100
AcDbLine
 10
11.6364105681
 20
8.4817198005
 30
0.0
 11
11.6694025603
 21
8.4788333605
 31
0.0
  0
ARC
  5
17A
330
1F
100
AcDbEntity
  8
0
  6
Continuous
 62
     7
 48
2.25
370
    15
100
AcDbCircle
 10
11.6321585793
 20
8.5882821909
 30
0.0
 40
0.0787401574803166
100
AcDbArc
 50
180.0
 51
270.0
  0
ARC
  5
17B
330
1F
100
AcDbEntity
  8
0
  6
Continuous
 62
     7
 48
2.25
370
    15
100
AcDbCircle
 10
11.6321585793
 20
8.7893845531
 30
0.0
 40
0.0787401574803148
100
AcDbArc
 50
90.0
 51
180.0
  0
LINE
  5
17C
330
1F
100
AcDbEntity
  8
0
  6
Continuous
 62
     7
 48
1.5
370
    15
100
AcDbLine
 10
11.6364105681
 20
8.8681246567
 30
0.0
 11
11.6321584572
 21
8.8681246567
 31
0.0
  0
LINE
  5
17D
330
1F
100
AcDbEntity
  8
0
  6
Continuous
 62
     7
 48
1.5
370
    15
100
AcDbLine
 10
11.6321584572
 20
8.5095419991
 30
0.0
 11
11.6364105681
 21
8.5095419991
 31
0.0
  0
LINE
  5
17E
330
1F
100
AcDbEntity
  8
0
  6
Continuous
 62
     7
 48
1.5
370
    15
100
AcDbLine
 10
11.6694025603
 20
8.4538333626
 30
0.0
 11
11.6694025603
 21
8.9238334398
 31
0.0
  0
LINE
  5
17F
330
1F
100
AcDbEntity
  8
0
  6
Continuous
 62
     7
 48
1.5
370
    15
100
AcDbLine
 10
11.6694025603
 20
5.7038333042
 30
0.0
 11
11.6694025603
 21
6.1738333814
 31
0.0
  0
LINE
  5
180
330
1F
100
AcDbEntity
  8
0
  6
Continuous
 62
     7
 48
1.5
370
    15
100
AcDbLine
 10
11.6364105681
 20
5.7456854741
 30
0.0
 11
11.6364105681
 21
6.1459469435
 31
0.0
  0
LINE
  5
181
330
1F
100
AcDbEntity
  8
0
  6
Continuous
 62
     7
 48
1.5
370
    15
100
AcDbLine
 10
11.6364105681
 20
5.7317197421
 30
0.0
 11
11.6364105681
 21
5.7456854741
 31
0.0
  0
LINE
  5
182
330
1F
100
AcDbEntity
  8
0
  6
Continuous
 62
     7
 48
1.5
370
    15
100
AcDbLine
 10
11.5534184335
 20
5.8450624327
 30
0.0
 11
11.5534184335
 21
6.0393845746
 31
0.0
  0
LINE
  5
183
330
1F
100
AcDbEntity
  8
0
  6
Continuous
 62
     7
 48
1.5
370
    15
100
AcDbLine
 10
11.5534184335
 20
5.8382822577
 30
0.0
 11
11.5534184335
 21
5.8450624327
 31
0.0
  0
LINE
  5
184
330
1F
100
AcDbEntity
  8
0
  6
Continuous
 62
     7
 48
1.5
370
    15
100
AcDbLine
 10
11.6364105681
 20
8.4925018759
 30
0.0
 11
11.6364105681
 21
8.895947002
 31
0.0
  0
LINE
  5
185
330
1F
100
AcDbEntity
  8
0
  6
Continuous
 62
     7
 48
1.5
370
    15
100
AcDbLine
 10
11.6364105681
 20
8.4817198005
 30
0.0
 11
11.6364105681
 21
8.4925018759
 31
0.0
  0
LINE
  5
186
330
1F
100
AcDbEntity
  8
0
  6
Continuous
 62
     7
 48
1.5
370
    15
100
AcDbLine
 10
11.5534184335
 20
8.593516789
 30
0.0
 11
11.5534184335
 21
8.7893844863
 31
0.0
  0
LINE
  5
187
330
1F
100
AcDbEntity
  8
0
  6
Continuous
 62
     7
 48
1.5
370
    15
100
AcDbLine
 10
11.5534184335
 20
8.5882821695
 30
0.0
 11
11.5534184335
 21
8.593516789
 31
0.0
  0
LINE
  5
188
330
1F
100
AcDbEntity
  8
0
  6
Continuous
 62
     7
 48
1.5
370
    15
100
AcDbLine
 10
12.239402629
 20
5.5318334245
 30
0.0
 11
12.239402629
 21
9.0958333195
 31
0.0
  0
LINE
  5
189
330
1F
100
AcDbEntity
  8
0
  6
Continuous
 62
     7
 48
1.5
370
    15
100
AcDbLine
 10
11.832402784
 20
9.1888334318
 30
0.0
 11
12.239402629
 21
9.1888334318
 31
0.0
  0
LINE
  5
18A
330
1F
100
AcDbEntity
  8
0
  6
Continuous
 62
     7
 48
1.5
370
    15
100
AcDbLine
 10
12.239402629
 20
9.1888334318
 30
0.0
 11
12.239402629
 21
9.0958333195
 31
0.0
  0
ARC
  5
18B
330
1F
100
AcDbEntity
  8
0
  6
Continuous
 62
     7
 48
2.25
370
    15
100
AcDbCircle
 10
11.8324026738
 20
9.095833372
 30
0.0
 40
0.093
100
AcDbArc
 50
90.0
 51
180.0
  0
LINE
  5
18C
330
1F
100
AcDbEntity
  8
0
  6
Continuous
 62
     7
 48
1.5
370
    15
100
AcDbLine
 10
12.239402629
 20
5.4388333122
 30
0.0
 11
11.832402784
 21
5.4388333122
 31
0.0
  0
LINE
  5
18D
330
1F
100
AcDbEntity
  8
0
  6
Continuous
 62
     7
 48
1.5
370
    15
100
AcDbLine
 10
12.239402629
 20
5.5318334245
 30
0.0
 11
12.239402629
 21
5.4388333122
 31
0.0
  0
LINE
  5
18E
330
1F
100
AcDbEntity
  8
0
  6
Continuous
 62
     7
 48
1.5
370
    15
100
AcDbLine
 10
11.7394028183
 20
9.0958333195
 30
0.0
 11
11.7394028183
 21
5.5318334245
 31
0.0
  0
ARC
  5
18F
330
1F
100
AcDbEntity
  8
0
  6
Continuous
 62
     7
 48
2.25
370
    15
100
AcDbCircle
 10
11.8324026738
 20
5.531833372
 30
0.0
 40
0.0930000000000009
100
AcDbArc
 50
180.0
 51
270.0
  0
LINE
  5
190
330
1F
100
AcDbEntity
  8
0
  6
Continuous
 62
     7
 48
1.5
370
    15
100
AcDbLine
 10
14.7454026719
 20
5.0638334175
 30
0.0
 11
14.7454026719
 21
5.3138333962
 31
0.0
  0
LINE
  5
191
330
1F
100
AcDbEntity
  8
0
  6
Continuous
 62
     7
 48
1.5
370
    15
100
AcDbLine
 10
14.7454026719
 20
5.0638334175
 30
0.0
 11
14.6674026738
 21
5.0638334175
 31
0.0
  0
LINE
  5
192
330
1F
100
AcDbEntity
  8
0
  6
Continuous
 62
     7
 48
1.5
370
    15
100
AcDbLine
 10
14.6674026738
 20
5.0638334175
 30
0.0
 11
14.6674026738
 21
5.3138333962
 31
0.0
  0
LINE
  5
193
330
1F
100
AcDbEntity
  8
0
  6
Continuous
 62
     7
 48
1.5
370
    15
100
AcDbLine
 10
14.6674026738
 20
5.3138333962
 30
0.0
 11
14.6674026738
 21
5.6568333405
 31
0.0
  0
LINE
  5
194
330
1F
100
AcDbEntity
  8
0
  6
Continuous
 62
     7
 48
1.5
370
    15
100
AcDbLine
 10
14.7454026719
 20
5.3138333962
 30
0.0
 11
14.7454026719
 21
6.5638333627
 31
0.0
  0
LINE
  5
195
330
1F
100
AcDbEntity
  8
0
  6
Continuous
 62
     7
 48
1.5
370
    15
100
AcDbLine
 10
14.7454026719
 20
6.5638333627
 30
0.0
 11
14.6674026738
 21
6.5638333627
 31
0.0
  0
LINE
  5
196
330
1F
100
AcDbEntity
  8
0
  6
Continuous
 62
     7
 48
1.5
370
    15
100
AcDbLine
 10
14.7454026719
 20
9.3138333478
 30
0.0
 11
14.7454026719
 21
8.0638333813
 31
0.0
  0
LINE
  5
197
330
1F
100
AcDbEntity
  8
0
  6
Continuous
 62
     7
 48
1.5
370
    15
100
AcDbLine
 10
14.7454026719
 20
8.0638333813
 30
0.0
 11
14.6674026738
 21
8.0638333813
 31
0.0
  0
LINE
  5
198
330
1F
100
AcDbEntity
  8
0
  6
Continuous
 62
     7
 48
1.5
370
    15
100
AcDbLine
 10
14.6674026738
 20
9.3138333478
 30
0.0
 11
14.6674026738
 21
8.9708334035
 31
0.0
  0
LINE
  5
199
330
1F
100
AcDbEntity
  8
0
  6
Continuous
 62
     7
 48
1.5
370
    15
100
AcDbLine
 10
14.7454026719
 20
9.5638333265
 30
0.0
 11
14.6674026738
 21
9.5638333265
 31
0.0
  0
LINE
  5
19A
330
1F
100
AcDbEntity
  8
0
  6
Continuous
 62
     7
 48
1.5
370
    15
100
AcDbLine
 10
14.7454026719
 20
9.5638333265
 30
0.0
 11
14.7454026719
 21
9.3138333478
 31
0.0
  0
LINE
  5
19B
330
1F
100
AcDbEntity
  8
0
  6
Continuous
 62
     7
 48
1.5
370
    15
100
AcDbLine
 10
14.6674026738
 20
9.5638333265
 30
0.0
 11
14.6674026738
 21
9.3138333478
 31
0.0
  0
LINE
  5
19C
330
1F
100
AcDbEntity
  8
0
  6
Continuous
 62
     7
 48
1.5
370
    15
100
AcDbLine
 10
14.5744026715
 20
5.5638333748
 30
0.0
 11
12.239402629
 21
5.5638333748
 31
0.0
  0
LINE
  5
19D
330
1F
100
AcDbEntity
  8
0
  6
Continuous
 62
     7
 48
1.5
370
    15
100
AcDbLine
 10
12.239402629
 20
9.0638333692
 30
0.0
 11
14.5744026715
 21
9.0638333692
 31
0.0
  0
ARC
  5
19E
330
1F
100
AcDbEntity
  8
0
  6
Continuous
 62
     7
 48
2.25
370
    15
100
AcDbCircle
 10
14.5744026738
 20
5.656833372
 30
0.0
 40
0.0930000000000017
100
AcDbArc
 50
270.0
 51
0.0
  0
LINE
  5
19F
330
1F
100
AcDbEntity
  8
0
  6
Continuous
 62
     7
 48
1.5
370
    15
100
AcDbLine
 10
14.6674026738
 20
5.6568333405
 30
0.0
 11
14.6674026738
 21
8.9708334035
 31
0.0
  0
ARC
  5
1A0
330
1F
100
AcDbEntity
  8
0
  6
Continuous
 62
     7
 48
2.25
370
    15
100
AcDbCircle
 10
14.5744026738
 20
8.970833372
 30
0.0
 40
0.0930000000000017
100
AcDbArc
 50
0.0
 51
90.0
  0
LINE
  5
1A1
330
1F
100
AcDbEntity
  8
0
  6
HIDDEN
 62
     7
 48
1.5
370
     0
100
AcDbLine
 10
12.217582841
 20
5.8474414852
 30
0.0
 11
12.217582841
 21
6.0368333374
 31
0.0
  0
LINE
  5
1A2
330
1F
100
AcDbEntity
  8
0
  6
HIDDEN
 62
     7
 48
1.5
370
     0
100
AcDbLine
 10
12.217582841
 20
5.8408333482
 30
0.0
 11
12.217582841
 21
5.8474414852
 31
0.0
  0
LINE
  5
1A3
330
1F
100
AcDbEntity
  8
0
  6
HIDDEN
 62
     7
 48
1.5
370
     0
100
AcDbLine
 10
12.2993239234
 20
5.8790166938
 30
0.0
 11
12.2993239234
 21
6.0029751418
 31
0.0
  0
LINE
  5
1A4
330
1F
100
AcDbEntity
  8
0
  6
HIDDEN
 62
     7
 48
1.5
370
     0
100
AcDbLine
 10
12.2993239234
 20
5.8746916904
 30
0.0
 11
12.2993239234
 21
5.8790166938
 31
0.0
  0
LINE
  5
1A5
330
1F
100
AcDbEntity
  8
0
  6
HIDDEN
 62
     7
 48
1.5
370
     0
100
AcDbLine
 10
11.9449930833
 20
6.0368333374
 30
0.0
 11
11.9449930833
 21
5.8408333482
 31
0.0
  0
LINE
  5
1A6
330
1F
100
AcDbEntity
  8
0
  6
HIDDEN
 62
     7
 48
1.5
370
     0
100
AcDbLine
 10
11.5764025947
 20
5.9546414068
 30
0.0
 11
11.5764025947
 21
5.9872814031
 31
0.0
  0
LINE
  5
1A7
330
1F
100
AcDbEntity
  8
0
  6
HIDDEN
 62
     7
 48
1.5
370
     0
100
AcDbLine
 10
11.5764025947
 20
5.9546414068
 30
0.0
 11
11.5534184335
 21
5.9546414068
 31
0.0
  0
LINE
  5
1A8
330
1F
100
AcDbEntity
  8
0
  6
HIDDEN
 62
     7
 48
1.5
370
     0
100
AcDbLine
 10
11.5764025947
 20
5.9288307183
 30
0.0
 11
11.5764025947
 21
5.9546414068
 31
0.0
  0
LINE
  5
1A9
330
1F
100
AcDbEntity
  8
0
  6
HIDDEN
 62
     7
 48
1.5
370
     0
100
AcDbLine
 10
11.5764025947
 20
5.9614707146
 30
0.0
 11
11.5534184335
 21
5.9614707146
 31
0.0
  0
LINE
  5
1AA
330
1F
100
AcDbEntity
  8
0
  6
HIDDEN
 62
     7
 48
1.5
370
     0
100
AcDbLine
 10
11.5764025947
 20
5.9872814031
 30
0.0
 11
11.5534184335
 21
5.9872814031
 31
0.0
  0
LINE
  5
1AB
330
1F
100
AcDbEntity
  8
0
  6
HIDDEN
 62
     7
 48
1.5
370
     0
100
AcDbLine
 10
11.5764025947
 20
5.9288307183
 30
0.0
 11
11.5534184335
 21
5.9288307183
 31
0.0
  0
LINE
  5
1AC
330
1F
100
AcDbEntity
  8
0
  6
HIDDEN
 62
     7
 48
1.5
370
     0
100
AcDbLine
 10
11.5764025947
 20
5.862151982
 30
0.0
 11
11.5764025947
 21
5.9288307183
 31
0.0
  0
LINE
  5
1AD
330
1F
100
AcDbEntity
  8
0
  6
HIDDEN
 62
     7
 48
1.5
370
     0
100
AcDbLine
 10
11.5764025947
 20
5.862151982
 30
0.0
 11
11.5534184335
 21
5.862151982
 31
0.0
  0
LINE
  5
1AE
330
1F
100
AcDbEntity
  8
0
  6
HIDDEN
 62
     7
 48
1.5
370
     0
100
AcDbLine
 10
11.5764025947
 20
5.8495173812
 30
0.0
 11
11.5764025947
 21
5.862151982
 31
0.0
  0
LINE
  5
1AF
330
1F
100
AcDbEntity
  8
0
  6
HIDDEN
 62
     7
 48
1.5
370
     0
100
AcDbLine
 10
11.5764025947
 20
5.9161961176
 30
0.0
 11
11.5534184335
 21
5.9161961176
 31
0.0
  0
LINE
  5
1B0
330
1F
100
AcDbEntity
  8
0
  6
HIDDEN
 62
     7
 48
1.5
370
     0
100
AcDbLine
 10
11.5764025947
 20
5.8495173812
 30
0.0
 11
11.5534184335
 21
5.8495173812
 31
0.0
  0
LINE
  5
1B1
330
1F
100
AcDbEntity
  8
0
  6
HIDDEN
 62
     7
 48
1.5
370
     0
100
AcDbLine
 10
11.5764025947
 20
5.9872814031
 30
0.0
 11
11.5764025947
 21
6.028149451
 31
0.0
  0
LINE
  5
1B2
330
1F
100
AcDbEntity
  8
0
  6
HIDDEN
 62
     7
 48
1.5
370
     0
100
AcDbLine
 10
11.5764025947
 20
6.0155148503
 30
0.0
 11
11.5534184335
 21
6.0155148503
 31
0.0
  0
LINE
  5
1B3
330
1F
100
AcDbEntity
  8
0
  6
HIDDEN
 62
     7
 48
1.5
370
     0
100
AcDbLine
 10
11.5764025947
 20
6.028149451
 30
0.0
 11
11.5534184335
 21
6.028149451
 31
0.0
  0
LINE
  5
1B4
330
1F
100
AcDbEntity
  8
0
  6
HIDDEN
 62
     7
 48
1.5
370
     0
100
AcDbLine
 10
11.5764025947
 20
5.9488359672
 30
0.0
 11
11.5534184335
 21
5.9488359672
 31
0.0
  0
LINE
  5
1B5
330
1F
100
AcDbEntity
  8
0
  6
HIDDEN
 62
     7
 48
1.5
370
     0
100
AcDbLine
 10
11.5764025947
 20
5.9230252787
 30
0.0
 11
11.5534184335
 21
5.9230252787
 31
0.0
  0
LINE
  5
1B6
330
1F
100
AcDbEntity
  8
0
  6
HIDDEN
 62
     7
 48
1.5
370
     0
100
AcDbLine
 10
11.5764025947
 20
5.8903852825
 30
0.0
 11
11.5534184335
 21
5.8903852825
 31
0.0
  0
LINE
  5
1B7
330
1F
100
AcDbEntity
  8
0
  6
HIDDEN
 62
     7
 48
1.5
370
     0
100
AcDbLine
 10
11.5764025947
 20
5.9505861204
 30
0.0
 11
11.5534184335
 21
5.9505861204
 31
0.0
  0
LINE
  5
1B8
330
1F
100
AcDbEntity
  8
0
  6
HIDDEN
 62
     7
 48
1.5
370
     0
100
AcDbLine
 10
11.5764025947
 20
5.9609950801
 30
0.0
 11
11.5534184335
 21
5.9609950801
 31
0.0
  0
LINE
  5
1B9
330
1F
100
AcDbEntity
  8
0
  6
HIDDEN
 62
     7
 48
1.5
370
     0
100
AcDbLine
 10
11.5764025947
 20
5.9837639371
 30
0.0
 11
11.5534184335
 21
5.9837639371
 31
0.0
  0
LINE
  5
1BA
330
1F
100
AcDbEntity
  8
0
  6
HIDDEN
 62
     7
 48
1.5
370
     0
100
AcDbLine
 10
11.5764025947
 20
5.8488937618
 30
0.0
 11
11.5764025947
 21
5.8495173812
 31
0.0
  0
LINE
  5
1BB
330
1F
100
AcDbEntity
  8
0
  6
HIDDEN
 62
     7
 48
1.5
370
     0
100
AcDbLine
 10
11.5764025947
 20
5.8600394197
 30
0.0
 11
11.5534184335
 21
5.8600394197
 31
0.0
  0
LINE
  5
1BC
330
1F
100
AcDbEntity
  8
0
  6
HIDDEN
 62
     7
 48
1.5
370
     0
100
AcDbLine
 10
11.5764025947
 20
5.9278172634
 30
0.0
 11
11.5534184335
 21
5.9278172634
 31
0.0
  0
LINE
  5
1BD
330
1F
100
AcDbEntity
  8
0
  6
HIDDEN
 62
     7
 48
1.5
370
     0
100
AcDbLine
 10
11.5764025947
 20
5.9166716055
 30
0.0
 11
11.5534184335
 21
5.9166716055
 31
0.0
  0
LINE
  5
1BE
330
1F
100
AcDbEntity
  8
0
  6
HIDDEN
 62
     7
 48
1.5
370
     0
100
AcDbLine
 10
11.5764025947
 20
5.8488937618
 30
0.0
 11
11.5534184335
 21
5.8488937618
 31
0.0
  0
LINE
  5
1BF
330
1F
100
AcDbEntity
  8
0
  6
HIDDEN
 62
     7
 48
1.5
370
     0
100
AcDbLine
 10
11.5764025947
 20
6.028149451
 30
0.0
 11
11.5764025947
 21
6.0287729238
 31
0.0
  0
LINE
  5
1C0
330
1F
100
AcDbEntity
  8
0
  6
HIDDEN
 62
     7
 48
1.5
370
     0
100
AcDbLine
 10
11.5764025947
 20
6.0176272659
 30
0.0
 11
11.5534184335
 21
6.0176272659
 31
0.0
  0
LINE
  5
1C1
330
1F
100
AcDbEntity
  8
0
  6
HIDDEN
 62
     7
 48
1.5
370
     0
100
AcDbLine
 10
11.5764025947
 20
6.0287729238
 30
0.0
 11
11.5534184335
 21
6.0287729238
 31
0.0
  0
LINE
  5
1C2
330
1F
100
AcDbEntity
  8
0
  6
HIDDEN
 62
     7
 48
1.5
370
     0
100
AcDbLine
 10
11.5764025947
 20
5.9498495689
 30
0.0
 11
11.5534184335
 21
5.9498495689
 31
0.0
  0
LINE
  5
1C3
330
1F
100
AcDbEntity
  8
0
  6
HIDDEN
 62
     7
 48
1.5
370
     0
100
AcDbLine
 10
11.5764025947
 20
5.9270807119
 30
0.0
 11
11.5534184335
 21
5.9270807119
 31
0.0
  0
LINE
  5
1C4
330
1F
100
AcDbEntity
  8
0
  6
HIDDEN
 62
     7
 48
1.5
370
     0
100
AcDbLine
 10
11.5764025947
 20
5.8939027485
 30
0.0
 11
11.5534184335
 21
5.8939027485
 31
0.0
  0
LINE
  5
1C5
330
1F
100
AcDbEntity
  8
0
  6
HIDDEN
 62
     7
 48
1.5
370
     0
100
AcDbLine
 10
12.217582841
 20
8.5959351477
 30
0.0
 11
12.217582841
 21
8.7868333958
 31
0.0
  0
LINE
  5
1C6
330
1F
100
AcDbEntity
  8
0
  6
HIDDEN
 62
     7
 48
1.5
370
     0
100
AcDbLine
 10
12.217582841
 20
8.5908334067
 30
0.0
 11
12.217582841
 21
8.5959351477
 31
0.0
  0
LINE
  5
1C7
330
1F
100
AcDbEntity
  8
0
  6
HIDDEN
 62
     7
 48
1.5
370
     0
100
AcDbLine
 10
12.2993239234
 20
8.6280307236
 30
0.0
 11
12.2993239234
 21
8.7529750536
 31
0.0
  0
LINE
  5
1C8
330
1F
100
AcDbEntity
  8
0
  6
HIDDEN
 62
     7
 48
1.5
370
     0
100
AcDbLine
 10
12.2993239234
 20
8.6246916022
 30
0.0
 11
12.2993239234
 21
8.6280307236
 31
0.0
  0
LINE
  5
1C9
330
1F
100
AcDbEntity
  8
0
  6
HIDDEN
 62
     7
 48
1.5
370
     0
100
AcDbLine
 10
11.9449930833
 20
8.7868333958
 30
0.0
 11
11.9449930833
 21
8.5908334067
 31
0.0
  0
LINE
  5
1CA
330
1F
100
AcDbEntity
  8
0
  6
HIDDEN
 62
     7
 48
1.5
370
     0
100
AcDbLine
 10
11.5764025947
 20
8.7005860321
 30
0.0
 11
11.5764025947
 21
8.7337639955
 31
0.0
  0
LINE
  5
1CB
330
1F
100
AcDbEntity
  8
0
  6
HIDDEN
 62
     7
 48
1.5
370
     0
100
AcDbLine
 10
11.5764025947
 20
8.7005860321
 30
0.0
 11
11.5534184335
 21
8.7005860321
 31
0.0
  0
LINE
  5
1CC
330
1F
100
AcDbEntity
  8
0
  6
HIDDEN
 62
     7
 48
1.5
370
     0
100
AcDbLine
 10
11.5764025947
 20
8.6778171752
 30
0.0
 11
11.5764025947
 21
8.7005860321
 31
0.0
  0
LINE
  5
1CD
330
1F
100
AcDbEntity
  8
0
  6
HIDDEN
 62
     7
 48
1.5
370
     0
100
AcDbLine
 10
11.5764025947
 20
8.7109951385
 30
0.0
 11
11.5534184335
 21
8.7109951385
 31
0.0
  0
LINE
  5
1CE
330
1F
100
AcDbEntity
  8
0
  6
HIDDEN
 62
     7
 48
1.5
370
     0
100
AcDbLine
 10
11.5764025947
 20
8.7337639955
 30
0.0
 11
11.5534184335
 21
8.7337639955
 31
0.0
  0
LINE
  5
1CF
330
1F
100
AcDbEntity
  8
0
  6
HIDDEN
 62
     7
 48
1.5
370
     0
100
AcDbLine
 10
11.5764025947
 20
8.5988938202
 30
0.0
 11
11.5764025947
 21
8.6100394781
 31
0.0
  0
LINE
  5
1D0
330
1F
100
AcDbEntity
  8
0
  6
HIDDEN
 62
     7
 48
1.5
370
     0
100
AcDbLine
 10
11.5764025947
 20
8.6100394781
 30
0.0
 11
11.5534184335
 21
8.6100394781
 31
0.0
  0
LINE
  5
1D1
330
1F
100
AcDbEntity
  8
0
  6
HIDDEN
 62
     7
 48
1.5
370
     0
100
AcDbLine
 10
11.5764025947
 20
8.6778171752
 30
0.0
 11
11.5534184335
 21
8.6778171752
 31
0.0
  0
LINE
  5
1D2
330
1F
100
AcDbEntity
  8
0
  6
HIDDEN
 62
     7
 48
1.5
370
     0
100
AcDbLine
 10
11.5764025947
 20
8.6100394781
 30
0.0
 11
11.5764025947
 21
8.6778171752
 31
0.0
  0
LINE
  5
1D3
330
1F
100
AcDbEntity
  8
0
  6
HIDDEN
 62
     7
 48
1.5
370
     0
100
AcDbLine
 10
11.5764025947
 20
8.6666716639
 30
0.0
 11
11.5534184335
 21
8.6666716639
 31
0.0
  0
LINE
  5
1D4
330
1F
100
AcDbEntity
  8
0
  6
HIDDEN
 62
     7
 48
1.5
370
     0
100
AcDbLine
 10
11.5764025947
 20
8.5988938202
 30
0.0
 11
11.5534184335
 21
8.5988938202
 31
0.0
  0
LINE
  5
1D5
330
1F
100
AcDbEntity
  8
0
  6
HIDDEN
 62
     7
 48
1.5
370
     0
100
AcDbLine
 10
11.5764025947
 20
8.7337639955
 30
0.0
 11
11.5764025947
 21
8.7787729822
 31
0.0
  0
LINE
  5
1D6
330
1F
100
AcDbEntity
  8
0
  6
HIDDEN
 62
     7
 48
1.5
370
     0
100
AcDbLine
 10
11.5764025947
 20
8.7676273243
 30
0.0
 11
11.5534184335
 21
8.7676273243
 31
0.0
  0
LINE
  5
1D7
330
1F
100
AcDbEntity
  8
0
  6
HIDDEN
 62
     7
 48
1.5
370
     0
100
AcDbLine
 10
11.5764025947
 20
8.7787729822
 30
0.0
 11
11.5534184335
 21
8.7787729822
 31
0.0
  0
LINE
  5
1D8
330
1F
100
AcDbEntity
  8
0
  6
HIDDEN
 62
     7
 48
1.5
370
     0
100
AcDbLine
 10
11.5764025947
 20
8.6998494806
 30
0.0
 11
11.5534184335
 21
8.6998494806
 31
0.0
  0
LINE
  5
1D9
330
1F
100
AcDbEntity
  8
0
  6
HIDDEN
 62
     7
 48
1.5
370
     0
100
AcDbLine
 10
11.5764025947
 20
8.6770806237
 30
0.0
 11
11.5534184335
 21
8.6770806237
 31
0.0
  0
LINE
  5
1DA
330
1F
100
AcDbEntity
  8
0
  6
HIDDEN
 62
     7
 48
1.5
370
     0
100
AcDbLine
 10
11.5764025947
 20
8.6439028069
 30
0.0
 11
11.5534184335
 21
8.6439028069
 31
0.0
  0
LINE
  5
1DB
330
1F
100
AcDbEntity
  8
0
  6
HIDDEN
 62
     7
 48
1.5
370
     0
100
AcDbLine
 10
11.8174027706
 20
5.5328333863
 30
0.0
 11
11.9174027621
 21
5.5328333863
 31
0.0
  0
LINE
  5
1DC
330
1F
100
AcDbEntity
  8
0
  6
HIDDEN
 62
     7
 48
1.5
370
     0
100
AcDbLine
 10
11.8174027706
 20
9.0948333577
 30
0.0
 11
11.9174027621
 21
9.0948333577
 31
0.0
  0
LINE
  5
1DD
330
1F
100
AcDbEntity
  8
0
  6
HIDDEN
 62
     7
 48
1.5
370
     0
100
AcDbLine
 10
11.9174027621
 20
9.0948333577
 30
0.0
 11
11.9174027621
 21
5.5328333863
 31
0.0
  0
LINE
  5
1DE
330
1F
100
AcDbEntity
  8
0
  6
HIDDEN
 62
     7
 48
1.5
370
     0
100
AcDbLine
 10
11.8174027706
 20
8.2828333714
 30
0.0
 11
11.9174027621
 21
8.2828333714
 31
0.0
  0
LINE
  5
1DF
330
1F
100
AcDbEntity
  8
0
  6
HIDDEN
 62
     7
 48
1.5
370
     0
100
AcDbLine
 10
11.8174027706
 20
6.3448333726
 30
0.0
 11
11.9174027621
 21
6.3448333726
 31
0.0
  0
LINE
  5
1E0
330
1F
100
AcDbEntity
  8
0
  6
HIDDEN
 62
     7
 48
1.5
370
     0
100
AcDbLine
 10
11.8174027706
 20
8.7198333164
 30
0.0
 11
11.9174027621
 21
8.7198333164
 31
0.0
  0
LINE
  5
1E1
330
1F
100
AcDbEntity
  8
0
  6
HIDDEN
 62
     7
 48
1.5
370
     0
100
AcDbLine
 10
11.8174027706
 20
5.9078334276
 30
0.0
 11
11.9174027621
 21
5.9078334276
 31
0.0
  0
LINE
  5
1E2
330
1F
100
AcDbEntity
  8
0
  6
HIDDEN
 62
     7
 48
1.5
370
     0
100
AcDbLine
 10
11.832402784
 20
9.1108333329
 30
0.0
 11
12.239402629
 21
9.1108333329
 31
0.0
  0
ARC
  5
1E3
330
1F
100
AcDbEntity
  8
0
  6
HIDDEN
 62
     7
 48
2.25
370
     0
100
AcDbCircle
 10
11.8324026738
 20
9.095833372
 30
0.0
 40
0.0150000000000006
100
AcDbArc
 50
90.0
 51
180.0
  0
LINE
  5
1E4
330
1F
100
AcDbEntity
  8
0
  6
HIDDEN
 62
     7
 48
1.5
370
     0
100
AcDbLine
 10
11.8174027706
 20
9.0958333195
 30
0.0
 11
11.8174027706
 21
5.5318334245
 31
0.0
  0
LINE
  5
1E5
330
1F
100
AcDbEntity
  8
0
  6
HIDDEN
 62
     7
 48
1.5
370
     0
100
AcDbLine
 10
12.239402629
 20
5.5168334111
 30
0.0
 11
11.832402784
 21
5.5168334111
 31
0.0
  0
ARC
  5
1E6
330
1F
100
AcDbEntity
  8
0
  6
HIDDEN
 62
     7
 48
2.25
370
     0
100
AcDbCircle
 10
11.8324026738
 20
5.531833372
 30
0.0
 40
0.0150000000000015
100
AcDbArc
 50
180.0
 51
270.0
  0
LINE
  5
1E7
330
1F
100
AcDbEntity
  8
0
  6
HIDDEN
 62
     7
 48
1.5
370
     0
100
AcDbLine
 10
11.8174027706
 20
7.3763333713
 30
0.0
 11
11.7394028183
 21
7.3763333713
 31
0.0
  0
LINE
  5
1E8
330
1F
100
AcDbEntity
  8
0
  6
HIDDEN
 62
     7
 48
1.5
370
     0
100
AcDbLine
 10
11.8174027706
 20
7.2513333728
 30
0.0
 11
11.7394028183
 21
7.2513333728
 31
0.0
  0
LINE
  5
1E9
330
1F
100
AcDbEntity
  8
0
  6
HIDDEN
 62
     7
 48
1.5
370
     0
100
AcDbLine
 10
11.8174027706
 20
7.752402339
 30
0.0
 11
11.7394028183
 21
7.752402339
 31
0.0
  0
LINE
  5
1EA
330
1F
100
AcDbEntity
  8
0
  6
HIDDEN
 62
     7
 48
1.5
370
     0
100
AcDbLine
 10
11.8174027706
 20
7.813833366
 30
0.0
 11
11.7394028183
 21
7.813833366
 31
0.0
  0
LINE
  5
1EB
330
1F
100
AcDbEntity
  8
0
  6
HIDDEN
 62
     7
 48
1.5
370
     0
100
AcDbLine
 10
11.8174027706
 20
6.8752644051
 30
0.0
 11
11.7394028183
 21
6.8752644051
 31
0.0
  0
LINE
  5
1EC
330
1F
100
AcDbEntity
  8
0
  6
HIDDEN
 62
     7
 48
1.5
370
     0
100
AcDbLine
 10
11.8174027706
 20
6.8138333781
 30
0.0
 11
11.7394028183
 21
6.8138333781
 31
0.0
  0
LINE
  5
1ED
330
1F
100
AcDbEntity
  8
0
  6
HIDDEN
 62
     7
 48
1.5
370
     0
100
AcDbLine
 10
14.4909774719
 20
7.0165892691
 30
0.0
 11
14.4909774719
 21
6.6110774503
 31
0.0
  0
LINE
  5
1EE
330
1F
100
AcDbEntity
  8
0
  6
HIDDEN
 62
     7
 48
1.5
370
     0
100
AcDbLine
 10
14.1169617359
 20
6.9909987248
 30
0.0
 11
14.1169617359
 21
6.6366679947
 31
0.0
  0
LINE
  5
1EF
330
1F
100
AcDbEntity
  8
0
  6
HIDDEN
 62
     7
 48
1.5
370
     0
100
AcDbLine
 10
11.8780326035
 20
8.8856838272
 30
0.0
 11
11.8780326035
 21
8.4919829753
 31
0.0
  0
LINE
  5
1F0
330
1F
100
AcDbEntity
  8
0
  6
HIDDEN
 62
     7
 48
1.5
370
     0
100
AcDbLine
 10
12.50795382
 20
8.8266285894
 30
0.0
 11
12.50795382
 21
8.5510380664
 31
0.0
  0
LINE
  5
1F1
330
1F
100
AcDbEntity
  8
0
  6
HIDDEN
 62
     7
 48
1.5
370
     0
100
AcDbLine
 10
12.0355129443
 20
8.8068333647
 30
0.0
 11
12.0355129443
 21
8.5708334377
 31
0.0
  0
LINE
  5
1F2
330
1F
100
AcDbEntity
  8
0
  6
HIDDEN
 62
     7
 48
1.5
370
     0
100
AcDbLine
 10
12.372387866
 20
8.7872585775
 30
0.0
 11
12.372387866
 21
8.5904082249
 31
0.0
  0
LINE
  5
1F3
330
1F
100
AcDbEntity
  8
0
  6
HIDDEN
 62
     7
 48
1.5
370
     0
100
AcDbLine
 10
11.8780326035
 20
6.1356837688
 30
0.0
 11
11.8780326035
 21
5.7419829168
 31
0.0
  0
LINE
  5
1F4
330
1F
100
AcDbEntity
  8
0
  6
HIDDEN
 62
     7
 48
1.5
370
     0
100
AcDbLine
 10
12.50795382
 20
6.0766286776
 30
0.0
 11
12.50795382
 21
5.8010381546
 31
0.0
  0
LINE
  5
1F5
330
1F
100
AcDbEntity
  8
0
  6
HIDDEN
 62
     7
 48
1.5
370
     0
100
AcDbLine
 10
12.0355129443
 20
6.0568333063
 30
0.0
 11
12.0355129443
 21
5.8208333793
 31
0.0
  0
LINE
  5
1F6
330
1F
100
AcDbEntity
  8
0
  6
HIDDEN
 62
     7
 48
1.5
370
     0
100
AcDbLine
 10
12.372387866
 20
6.0372585191
 30
0.0
 11
12.372387866
 21
5.8404081665
 31
0.0
  0
LINE
  5
1F7
330
1F
100
AcDbEntity
  8
0
  6
HIDDEN
 62
     7
 48
1.5
370
     0
100
AcDbLine
 10
12.239402629
 20
5.5638333748
 30
0.0
 11
12.0104027277
 21
5.5638333748
 31
0.0
  0
LINE
  5
1F8
330
1F
100
AcDbEntity
  8
0
  6
HIDDEN
 62
     7
 48
1.5
370
     0
100
AcDbLine
 10
12.0104027277
 20
9.0638333692
 30
0.0
 11
12.239402629
 21
9.0638333692
 31
0.0
  0
ARC
  5
1F9
330
1F
100
AcDbEntity
  8
0
  6
HIDDEN
 62
     7
 48
2.25
370
     0
100
AcDbCircle
 10
12.0104026738
 20
5.656833372
 30
0.0
 40
0.0930000000000017
100
AcDbArc
 50
180.0
 51
270.0
  0
ARC
  5
1FA
330
1F
100
AcDbEntity
  8
0
  6
HIDDEN
 62
     7
 48
2.25
370
     0
100
AcDbCircle
 10
12.0104026738
 20
8.970833372
 30
0.0
 40
0.093
100
AcDbArc
 50
90.0
 51
180.0
  0
LINE
  5
1FB
330
1F
100
AcDbEntity
  8
0
  6
HIDDEN
 62
     7
 48
1.5
370
     0
100
AcDbLine
 10
14.5744026715
 20
5.6418333271
 30
0.0
 11
12.0104027277
 21
5.6418333271
 31
0.0
  0
LINE
  5
1FC
330
1F
100
AcDbEntity
  8
0
  6
HIDDEN
 62
     7
 48
1.5
370
     0
100
AcDbLine
 10
12.0104027277
 20
8.9858334169
 30
0.0
 11
14.5744026715
 21
8.9858334169
 31
0.0
  0
ARC
  5
1FD
330
1F
100
AcDbEntity
  8
0
  6
HIDDEN
 62
     7
 48
2.25
370
     0
100
AcDbCircle
 10
14.5744026738
 20
5.656833372
 30
0.0
 40
0.0150000000000006
100
AcDbArc
 50
270.0
 51
0.0
  0
LINE
  5
1FE
330
1F
100
AcDbEntity
  8
0
  6
HIDDEN
 62
     7
 48
1.5
370
     0
100
AcDbLine
 10
11.9954027143
 20
5.6418333271
 30
0.0
 11
11.9954027143
 21
5.6568333405
 31
0.0
  0
LINE
  5
1FF
330
1F
100
AcDbEntity
  8
0
  6
HIDDEN
 62
     7
 48
1.5
370
     0
100
AcDbLine
 10
11.9954027143
 20
8.9858334169
 30
0.0
 11
11.9954027143
 21
8.9708334035
 31
0.0
  0
LINE
  5
200
330
1F
100
AcDbEntity
  8
0
  6
HIDDEN
 62
     7
 48
1.5
370
     0
100
AcDbLine
 10
11.9954027143
 20
8.9708334035
 30
0.0
 11
11.9954027143
 21
5.6568333405
 31
0.0
  0
LINE
  5
201
330
1F
100
AcDbEntity
  8
0
  6
HIDDEN
 62
     7
 48
1.5
370
     0
100
AcDbLine
 10
11.9954027143
 20
5.6418333271
 30
0.0
 11
12.0104027277
 21
5.6418333271
 31
0.0
  0
LINE
  5
202
330
1F
100
AcDbEntity
  8
0
  6
HIDDEN
 62
     7
 48
1.5
370
     0
100
AcDbLine
 10
11.9954027143
 20
8.9858334169
 30
0.0
 11
12.0104027277
 21
8.9858334169
 31
0.0
  0
ARC
  5
203
330
1F
100
AcDbEntity
  8
0
  6
HIDDEN
 62
     7
 48
2.25
370
     0
100
AcDbCircle
 10
14.5744026738
 20
8.970833372
 30
0.0
 40
0.0150000000000041
100
AcDbArc
 50
0.0
 51
90.0
  0
LINE
  5
204
330
1F
100
AcDbEntity
  8
0
  6
HIDDEN
 62
     7
 48
1.5
370
     0
100
AcDbLine
 10
14.5894026757
 20
5.6568333405
 30
0.0
 11
14.5894026757
 21
8.9708334035
 31
0.0
  0
ARC
  5
205
330
1F
100
AcDbEntity
  8
0
  6
HIDDEN
 62
     7
 48
2.25
370
     0
100
AcDbCircle
 10
12.0104026738
 20
5.656833372
 30
0.0
 40
0.0150000000000006
100
AcDbArc
 50
180.0
 51
270.0
  0
ARC
  5
206
330
1F
100
AcDbEntity
  8
0
  6
HIDDEN
 62
     7
 48
2.25
370
     0
100
AcDbCircle
 10
12.0104026738
 20
8.970833372
 30
0.0
 40
0.0150000000000023
100
AcDbArc
 50
90.0
 51
180.0
  0
LINE
  5
207
330
1F
100
AcDbEntity
  8
0
  6
HIDDEN
 62
     7
 48
1.5
370
     0
100
AcDbLine
 10
11.9954027143
 20
6.251833407
 30
0.0
 11
11.9174027621
 21
6.251833407
 31
0.0
  0
LINE
  5
208
330
1F
100
AcDbEntity
  8
0
  6
HIDDEN
 62
     7
 48
1.5
370
     0
100
AcDbLine
 10
11.9954027143
 20
8.375833337
 30
0.0
 11
11.9174027621
 21
8.375833337
 31
0.0
  0
ARC
  5
209
330
1F
100
AcDbEntity
  8
0
  6
HIDDEN
 62
     7
 48
2.25
370
     0
100
AcDbCircle
 10
11.8484026738
 20
8.813833372
 30
0.0
 40
0.0310000000000006
100
AcDbArc
 50
0.0
 51
180.0
  0
ARC
  5
20A
330
1F
100
AcDbEntity
  8
0
  6
HIDDEN
 62
     7
 48
2.25
370
     0
100
AcDbCircle
 10
11.8484026738
 20
8.813833372
 30
0.0
 40
0.0310000000000006
100
AcDbArc
 50
180.0
 51
0.0
  0
ARC
  5
20B
330
1F
100
AcDbEntity
  8
0
  6
HIDDEN
 62
     7
 48
2.25
370
     0
100
AcDbCircle
 10
11.8484026738
 20
8.563833372
 30
0.0
 40
0.0310000000000006
100
AcDbArc
 50
180.0
 51
0.0
  0
ARC
  5
20C
330
1F
100
AcDbEntity
  8
0
  6
HIDDEN
 62
     7
 48
2.25
370
     0
100
AcDbCircle
 10
11.8484026738
 20
8.563833372
 30
0.0
 40
0.0310000000000006
100
AcDbArc
 50
0.0
 51
180.0
  0
LINE
  5
20D
330
1F
100
AcDbEntity
  8
0
  6
HIDDEN
 62
     7
 48
1.5
370
     0
100
AcDbLine
 10
11.8794027477
 20
8.5638334119
 30
0.0
 11
11.8794027477
 21
8.8138333905
 31
0.0
  0
ARC
  5
20E
330
1F
100
AcDbEntity
  8
0
  6
HIDDEN
 62
     7
 48
2.25
370
     0
100
AcDbCircle
 10
11.8484026738
 20
6.063833372
 30
0.0
 40
0.0310000000000006
100
AcDbArc
 50
0.0
 51
180.0
  0
ARC
  5
20F
330
1F
100
AcDbEntity
  8
0
  6
HIDDEN
 62
     7
 48
2.25
370
     0
100
AcDbCircle
 10
11.8484026738
 20
6.063833372
 30
0.0
 40
0.0310000000000006
100
AcDbArc
 50
180.0
 51
0.0
  0
ARC
  5
210
330
1F
100
AcDbEntity
  8
0
  6
HIDDEN
 62
     7
 48
2.25
370
     0
100
AcDbCircle
 10
11.8484026738
 20
5.813833372
 30
0.0
 40
0.0310000000000006
100
AcDbArc
 50
180.0
 51
0.0
  0
ARC
  5
211
330
1F
100
AcDbEntity
  8
0
  6
HIDDEN
 62
     7
 48
2.25
370
     0
100
AcDbCircle
 10
11.8484026738
 20
5.813833372
 30
0.0
 40
0.0310000000000006
100
AcDbArc
 50
0.0
 51
180.0
  0
LINE
  5
212
330
1F
100
AcDbEntity
  8
0
  6
HIDDEN
 62
     7
 48
1.5
370
     0
100
AcDbLine
 10
11.8794027477
 20
5.8138333535
 30
0.0
 11
11.8794027477
 21
6.0638333321
 31
0.0
  0
ARC
  5
213
330
1F
100
AcDbEntity
  8
0
  6
HIDDEN
 62
     7
 48
2.25
370
     0
100
AcDbCircle
 10
11.7244026738
 20
8.588833372
 30
0.0
 40
0.0150000000000006
100
AcDbArc
 50
0.0
 51
90.0
  0
ARC
  5
214
330
1F
100
AcDbEntity
  8
0
  6
HIDDEN
 62
     7
 48
2.25
370
     0
100
AcDbCircle
 10
11.7244026738
 20
8.788833372
 30
0.0
 40
0.0150000000000006
100
AcDbArc
 50
270.0
 51
0.0
  0
ARC
  5
215
330
1F
100
AcDbEntity
  8
0
  6
HIDDEN
 62
     7
 48
2.25
370
     0
100
AcDbCircle
 10
11.6844026738
 20
8.588833372
 30
0.0
 40
0.0150000000000006
100
AcDbArc
 50
90.0
 51
180.0
  0
ARC
  5
216
330
1F
100
AcDbEntity
  8
0
  6
HIDDEN
 62
     7
 48
2.25
370
     0
100
AcDbCircle
 10
11.6844026738
 20
8.788833372
 30
0.0
 40
0.0150000000000006
100
AcDbArc
 50
180.0
 51
270.0
  0
LINE
  5
217
330
1F
100
AcDbEntity
  8
0
  6
HIDDEN
 62
     7
 48
1.5
370
     0
100
AcDbLine
 10
11.7244028049
 20
8.773833306
 30
0.0
 11
11.6844025737
 21
8.773833306
 31
0.0
  0
LINE
  5
218
330
1F
100
AcDbEntity
  8
0
  6
HIDDEN
 62
     7
 48
1.5
370
     0
100
AcDbLine
 10
11.6844025737
 20
8.6038333498
 30
0.0
 11
11.7244028049
 21
8.6038333498
 31
0.0
  0
ARC
  5
219
330
1F
100
AcDbEntity
  8
0
  6
HIDDEN
 62
     7
 48
2.25
370
     0
100
AcDbCircle
 10
11.7244026738
 20
5.838833372
 30
0.0
 40
0.0150000000000006
100
AcDbArc
 50
0.0
 51
90.0
  0
ARC
  5
21A
330
1F
100
AcDbEntity
  8
0
  6
HIDDEN
 62
     7
 48
2.25
370
     0
100
AcDbCircle
 10
11.7244026738
 20
6.038833372
 30
0.0
 40
0.0150000000000006
100
AcDbArc
 50
270.0
 51
0.0
  0
ARC
  5
21B
330
1F
100
AcDbEntity
  8
0
  6
HIDDEN
 62
     7
 48
2.25
370
     0
100
AcDbCircle
 10
11.6844026738
 20
5.838833372
 30
0.0
 40
0.0150000000000006
100
AcDbArc
 50
90.0
 51
180.0
  0
ARC
  5
21C
330
1F
100
AcDbEntity
  8
0
  6
HIDDEN
 62
     7
 48
2.25
370
     0
100
AcDbCircle
 10
11.6844026738
 20
6.038833372
 30
0.0
 40
0.0150000000000006
100
AcDbArc
 50
180.0
 51
270.0
  0
LINE
  5
21D
330
1F
100
AcDbEntity
  8
0
  6
HIDDEN
 62
     7
 48
1.5
370
     0
100
AcDbLine
 10
11.7244028049
 20
6.0238333942
 30
0.0
 11
11.6844025737
 21
6.0238333942
 31
0.0
  0
LINE
  5
21E
330
1F
100
AcDbEntity
  8
0
  6
HIDDEN
 62
     7
 48
1.5
370
     0
100
AcDbLine
 10
11.6844025737
 20
5.8538334381
 30
0.0
 11
11.7244028049
 21
5.8538334381
 31
0.0
  0
LINE
  5
21F
330
1F
100
AcDbEntity
  8
0
  6
HIDDEN
 62
     7
 48
1.5
370
     0
100
AcDbLine
 10
12.217582841
 20
5.8408333482
 30
0.0
 11
12.2993239234
 21
5.8746916904
 31
0.0
  0
LINE
  5
220
330
1F
100
AcDbEntity
  8
0
  6
HIDDEN
 62
     7
 48
1.5
370
     0
100
AcDbLine
 10
12.2993239234
 20
6.0029751418
 30
0.0
 11
12.217582841
 21
6.0368333374
 31
0.0
  0
LINE
  5
221
330
1F
100
AcDbEntity
  8
0
  6
HIDDEN
 62
     7
 48
1.5
370
     0
100
AcDbLine
 10
11.9449930833
 20
5.8408333482
 30
0.0
 11
12.217582841
 21
5.8408333482
 31
0.0
  0
LINE
  5
222
330
1F
100
AcDbEntity
  8
0
  6
HIDDEN
 62
     7
 48
1.5
370
     0
100
AcDbLine
 10
12.217582841
 20
6.0368333374
 30
0.0
 11
11.9449930833
 21
6.0368333374
 31
0.0
  0
LINE
  5
223
330
1F
100
AcDbEntity
  8
0
  6
HIDDEN
 62
     7
 48
1.5
370
     0
100
AcDbLine
 10
11.9449930833
 20
6.0128490678
 30
0.0
 11
11.6694025603
 21
6.0128490678
 31
0.0
  0
LINE
  5
224
330
1F
100
AcDbEntity
  8
0
  6
HIDDEN
 62
     7
 48
1.5
370
     0
100
AcDbLine
 10
11.6694025603
 20
5.8648176178
 30
0.0
 11
11.9449930833
 21
5.8648176178
 31
0.0
  0
LINE
  5
225
330
1F
100
AcDbEntity
  8
0
  6
HIDDEN
 62
     7
 48
1.5
370
     0
100
AcDbLine
 10
12.217582841
 20
8.5908334067
 30
0.0
 11
12.2993239234
 21
8.6246916022
 31
0.0
  0
LINE
  5
226
330
1F
100
AcDbEntity
  8
0
  6
HIDDEN
 62
     7
 48
1.5
370
     0
100
AcDbLine
 10
12.2993239234
 20
8.7529750536
 30
0.0
 11
12.217582841
 21
8.7868333958
 31
0.0
  0
LINE
  5
227
330
1F
100
AcDbEntity
  8
0
  6
HIDDEN
 62
     7
 48
1.5
370
     0
100
AcDbLine
 10
11.9449930833
 20
8.5908334067
 30
0.0
 11
12.217582841
 21
8.5908334067
 31
0.0
  0
LINE
  5
228
330
1F
100
AcDbEntity
  8
0
  6
HIDDEN
 62
     7
 48
1.5
370
     0
100
AcDbLine
 10
12.217582841
 20
8.7868333958
 30
0.0
 11
11.9449930833
 21
8.7868333958
 31
0.0
  0
LINE
  5
229
330
1F
100
AcDbEntity
  8
0
  6
HIDDEN
 62
     7
 48
1.5
370
     0
100
AcDbLine
 10
11.9449930833
 20
8.7628491262
 30
0.0
 11
11.6694025603
 21
8.7628491262
 31
0.0
  0
LINE
  5
22A
330
1F
100
AcDbEntity
  8
0
  6
HIDDEN
 62
     7
 48
1.5
370
     0
100
AcDbLine
 10
11.6694025603
 20
8.6148176763
 30
0.0
 11
11.9449930833
 21
8.6148176763
 31
0.0
  0
LINE
  5
22B
330
1F
100
AcDbEntity
  8
0
  6
HIDDEN
 62
     7
 48
1.5
370
     0
100
AcDbLine
 10
11.9174027621
 20
8.9248334016
 30
0.0
 11
11.8174027706
 21
8.9248334016
 31
0.0
  0
LINE
  5
22C
330
1F
100
AcDbEntity
  8
0
  6
HIDDEN
 62
     7
 48
1.5
370
     0
100
AcDbLine
 10
11.8174027706
 20
8.4528334009
 30
0.0
 11
11.9174027621
 21
8.4528334009
 31
0.0
  0
LINE
  5
22D
330
1F
100
AcDbEntity
  8
0
  6
HIDDEN
 62
     7
 48
1.5
370
     0
100
AcDbLine
 10
11.9174027621
 20
6.1748333432
 30
0.0
 11
11.8174027706
 21
6.1748333432
 31
0.0
  0
LINE
  5
22E
330
1F
100
AcDbEntity
  8
0
  6
HIDDEN
 62
     7
 48
1.5
370
     0
100
AcDbLine
 10
11.8174027706
 20
5.7028333424
 30
0.0
 11
11.9174027621
 21
5.7028333424
 31
0.0
  0
LINE
  5
22F
330
1F
100
AcDbEntity
  8
0
  6
HIDDEN
 62
     7
 48
1.5
370
     0
100
AcDbLine
 10
11.8174027706
 20
8.8038333327
 30
0.0
 11
11.7394028183
 21
8.8038333327
 31
0.0
  0
LINE
  5
230
330
1F
100
AcDbEntity
  8
0
  6
HIDDEN
 62
     7
 48
1.5
370
     0
100
AcDbLine
 10
11.7394028183
 20
8.573833323
 30
0.0
 11
11.8174027706
 21
8.573833323
 31
0.0
  0
LINE
  5
231
330
1F
100
AcDbEntity
  8
0
  6
HIDDEN
 62
     7
 48
1.5
370
     0
100
AcDbLine
 10
11.8174027706
 20
6.053833421
 30
0.0
 11
11.7394028183
 21
6.053833421
 31
0.0
  0
LINE
  5
232
330
1F
100
AcDbEntity
  8
0
  6
HIDDEN
 62
     7
 48
1.5
370
     0
100
AcDbLine
 10
11.7394028183
 20
5.8238334113
 30
0.0
 11
11.8174027706
 21
5.8238334113
 31
0.0
  0
LINE
  5
233
330
1F
100
AcDbEntity
  8
0
  6
HIDDEN
 62
     7
 48
1.5
370
     0
100
AcDbLine
 10
14.5894026757
 20
7.0165892691
 30
0.0
 11
14.4909774719
 21
7.0165892691
 31
0.0
  0
LINE
  5
234
330
1F
100
AcDbEntity
  8
0
  6
HIDDEN
 62
     7
 48
1.5
370
     0
100
AcDbLine
 10
14.4909774719
 20
6.6110774503
 30
0.0
 11
14.5894026757
 21
6.6110774503
 31
0.0
  0
LINE
  5
235
330
1F
100
AcDbEntity
  8
0
  6
HIDDEN
 62
     7
 48
1.5
370
     0
100
AcDbLine
 10
14.4909774719
 20
6.9909987248
 30
0.0
 11
14.1169617359
 21
6.9909987248
 31
0.0
  0
LINE
  5
236
330
1F
100
AcDbEntity
  8
0
  6
HIDDEN
 62
     7
 48
1.5
370
     0
100
AcDbLine
 10
14.1169617359
 20
6.6366679947
 30
0.0
 11
14.4909774719
 21
6.6366679947
 31
0.0
  0
LINE
  5
237
330
1F
100
AcDbEntity
  8
0
  6
HIDDEN
 62
     7
 48
1.5
370
     0
100
AcDbLine
 10
14.5894026757
 20
6.9122585544
 30
0.0
 11
14.1169617359
 21
6.9122585544
 31
0.0
  0
LINE
  5
238
330
1F
100
AcDbEntity
  8
0
  6
HIDDEN
 62
     7
 48
1.5
370
     0
100
AcDbLine
 10
14.1169617359
 20
6.7154081651
 30
0.0
 11
14.5894026757
 21
6.7154081651
 31
0.0
  0
LINE
  5
239
330
1F
100
AcDbEntity
  8
0
  6
HIDDEN
 62
     7
 48
1.5
370
     0
100
AcDbLine
 10
11.9174027621
 20
8.8856838272
 30
0.0
 11
11.8780326035
 21
8.8856838272
 31
0.0
  0
LINE
  5
23A
330
1F
100
AcDbEntity
  8
0
  6
HIDDEN
 62
     7
 48
1.5
370
     0
100
AcDbLine
 10
11.8780326035
 20
8.4919829753
 30
0.0
 11
11.9174027621
 21
8.4919829753
 31
0.0
  0
LINE
  5
23B
330
1F
100
AcDbEntity
  8
0
  6
HIDDEN
 62
     7
 48
1.5
370
     0
100
AcDbLine
 10
12.50795382
 20
8.8266285894
 30
0.0
 11
11.9174027621
 21
8.8266285894
 31
0.0
  0
LINE
  5
23C
330
1F
100
AcDbEntity
  8
0
  6
HIDDEN
 62
     7
 48
1.5
370
     0
100
AcDbLine
 10
11.9174027621
 20
8.5510380664
 30
0.0
 11
12.50795382
 21
8.5510380664
 31
0.0
  0
LINE
  5
23D
330
1F
100
AcDbEntity
  8
0
  6
HIDDEN
 62
     7
 48
1.5
370
     0
100
AcDbLine
 10
12.0355129443
 20
8.8068333647
 30
0.0
 11
11.8780326035
 21
8.8068333647
 31
0.0
  0
LINE
  5
23E
330
1F
100
AcDbEntity
  8
0
  6
HIDDEN
 62
     7
 48
1.5
370
     0
100
AcDbLine
 10
11.8780326035
 20
8.5708334377
 30
0.0
 11
12.0355129443
 21
8.5708334377
 31
0.0
  0
LINE
  5
23F
330
1F
100
AcDbEntity
  8
0
  6
HIDDEN
 62
     7
 48
1.5
370
     0
100
AcDbLine
 10
12.372387866
 20
8.5904082249
 30
0.0
 11
12.4292136496
 21
8.6888333279
 31
0.0
  0
LINE
  5
240
330
1F
100
AcDbEntity
  8
0
  6
HIDDEN
 62
     7
 48
1.5
370
     0
100
AcDbLine
 10
12.4292136496
 20
8.6888333279
 30
0.0
 11
12.372387866
 21
8.7872585775
 31
0.0
  0
LINE
  5
241
330
1F
100
AcDbEntity
  8
0
  6
HIDDEN
 62
     7
 48
1.5
370
     0
100
AcDbLine
 10
12.372387866
 20
8.7872585775
 30
0.0
 11
12.0355129443
 21
8.7872585775
 31
0.0
  0
LINE
  5
242
330
1F
100
AcDbEntity
  8
0
  6
HIDDEN
 62
     7
 48
1.5
370
     0
100
AcDbLine
 10
12.0355129443
 20
8.5904082249
 30
0.0
 11
12.372387866
 21
8.5904082249
 31
0.0
  0
LINE
  5
243
330
1F
100
AcDbEntity
  8
0
  6
HIDDEN
 62
     7
 48
1.5
370
     0
100
AcDbLine
 10
11.9174027621
 20
6.1356837688
 30
0.0
 11
11.8780326035
 21
6.1356837688
 31
0.0
  0
LINE
  5
244
330
1F
100
AcDbEntity
  8
0
  6
HIDDEN
 62
     7
 48
1.5
370
     0
100
AcDbLine
 10
11.8780326035
 20
5.7419829168
 30
0.0
 11
11.9174027621
 21
5.7419829168
 31
0.0
  0
LINE
  5
245
330
1F
100
AcDbEntity
  8
0
  6
HIDDEN
 62
     7
 48
1.5
370
     0
100
AcDbLine
 10
12.50795382
 20
6.0766286776
 30
0.0
 11
11.9174027621
 21
6.0766286776
 31
0.0
  0
LINE
  5
246
330
1F
100
AcDbEntity
  8
0
  6
HIDDEN
 62
     7
 48
1.5
370
     0
100
AcDbLine
 10
11.9174027621
 20
5.8010381546
 30
0.0
 11
12.50795382
 21
5.8010381546
 31
0.0
  0
LINE
  5
247
330
1F
100
AcDbEntity
  8
0
  6
HIDDEN
 62
     7
 48
1.5
370
     0
100
AcDbLine
 10
12.0355129443
 20
6.0568333063
 30
0.0
 11
11.8780326035
 21
6.0568333063
 31
0.0
  0
LINE
  5
248
330
1F
100
AcDbEntity
  8
0
  6
HIDDEN
 62
     7
 48
1.5
370
     0
100
AcDbLine
 10
11.8780326035
 20
5.8208333793
 30
0.0
 11
12.0355129443
 21
5.8208333793
 31
0.0
  0
LINE
  5
249
330
1F
100
AcDbEntity
  8
0
  6
HIDDEN
 62
     7
 48
1.5
370
     0
100
AcDbLine
 10
12.372387866
 20
6.0372585191
 30
0.0
 11
12.0355129443
 21
6.0372585191
 31
0.0
  0
LINE
  5
24A
330
1F
100
AcDbEntity
  8
0
  6
HIDDEN
 62
     7
 48
1.5
370
     0
100
AcDbLine
 10
12.0355129443
 20
5.8404081665
 30
0.0
 11
12.372387866
 21
5.8404081665
 31
0.0
  0
LINE
  5
24B
330
1F
100
AcDbEntity
  8
0
  6
HIDDEN
 62
     7
 48
1.5
370
     0
100
AcDbLine
 10
12.372387866
 20
5.8404081665
 30
0.0
 11
12.4292136496
 21
5.9388334161
 31
0.0
  0
LINE
  5
24C
330
1F
100
AcDbEntity
  8
0
  6
HIDDEN
 62
     7
 48
1.5
370
     0
100
AcDbLine
 10
12.4292136496
 20
5.9388334161
 30
0.0
 11
12.372387866
 21
6.0372585191
 31
0.0
  0
LINE
  5
24D
330
1F
100
AcDbEntity
  8
0
  6
HIDDEN
 62
     7
 48
1.5
370
     0
100
AcDbLine
 10
14.6674026738
 20
5.1733333392
 30
0.0
 11
14.7454026719
 21
5.1733333392
 31
0.0
  0
LINE
  5
24E
330
1F
100
AcDbEntity
  8
0
  6
HIDDEN
 62
     7
 48
1.5
370
     0
100
AcDbLine
 10
14.7454026719
 20
5.4543333064
 30
0.0
 11
14.6674026738
 21
5.4543333064
 31
0.0
  0
LINE
  5
24F
330
1F
100
AcDbEntity
  8
0
  6
HIDDEN
 62
     7
 48
1.5
370
     0
100
AcDbLine
 10
14.6674026738
 20
9.1733334376
 30
0.0
 11
14.7454026719
 21
9.1733334376
 31
0.0
  0
LINE
  5
250
330
1F
100
AcDbEntity
  8
0
  6
HIDDEN
 62
     7
 48
1.5
370
     0
100
AcDbLine
 10
14.7454026719
 20
9.4543334048
 30
0.0
 11
14.6674026738
 21
9.4543334048
 31
0.0
  0
LINE
  5
251
330
1F
100
AcDbEntity
  8
0
  6
HIDDEN
 62
     7
 48
1.5
370
     0
100
AcDbLine
 10
11.9954027143
 20
8.8263333528
 30
0.0
 11
11.9174027621
 21
8.8263333528
 31
0.0
  0
LINE
  5
252
330
1F
100
AcDbEntity
  8
0
  6
HIDDEN
 62
     7
 48
1.5
370
     0
100
AcDbLine
 10
11.9174027621
 20
8.551333303
 30
0.0
 11
11.9954027143
 21
8.551333303
 31
0.0
  0
LINE
  5
253
330
1F
100
AcDbEntity
  8
0
  6
HIDDEN
 62
     7
 48
1.5
370
     0
100
AcDbLine
 10
11.9954027143
 20
6.076333441
 30
0.0
 11
11.9174027621
 21
6.076333441
 31
0.0
  0
LINE
  5
254
330
1F
100
AcDbEntity
  8
0
  6
HIDDEN
 62
     7
 48
1.5
370
     0
100
AcDbLine
 10
11.9174027621
 20
5.8013333912
 30
0.0
 11
11.9954027143
 21
5.8013333912
 31
0.0
  0
DIMENSION
  5
255
330
1F
100
AcDbEntity
  8
0
  6
Continuous
 62
     7
 48
1.5
370
     0
100
AcDbDimension
  2
*D11
 10
11.9174026738
 20
10.1543845531
 30
0.0
 11
13.2924026738
 21
10.1543845531
 31
0.0
 70
   160
 71
     2
 42
-1.0
  3
SLDDIMSTYLE5
100
AcDbAlignedDimension
 13
14.6674026738
 23
9.563833372
 33
0.0
 14
11.9174026738
 24
9.094833372
 34
0.0
 50
0.0
100
AcDbRotatedDimension
  0
INSERT
  5
26E
102
{ACAD_REACTORS
330
26F
102
}
330
1F
100
AcDbEntity
  8
0
  6
Continuous
 62
     7
 48
1.5
370
     0
100
AcDbBlockReference
  2
SW_NOTE_5
 10
12.8928207351
 20
4.0823507582
 30
0.0
  0
LEADER
  5
26F
330
1F
100
AcDbEntity
  8
0
  6
Continuous
 62
     7
 48
1.5
370
     0
100
AcDbLeader
  3
SLDDIMSTYLE4
 73
     2
 76
     3
 10
11.8747377781
 20
5.531833372
 30
0.0
 10
12.5178207351
 20
4.0823507582
 30
0.0
 10
12.8928207351
 20
4.0823507582
 30
0.0
340
26E
  0
LINE
  5
270
330
1F
100
AcDbEntity
  8
0
  6
Continuous
 62
     7
 48
1.5
370
    15
100
AcDbLine
 10
19.7205493358
 20
9.0948333577
 30
0.0
 11
19.5645492846
 21
9.0948333577
 31
0.0
  0
LINE
  5
271
330
1F
100
AcDbEntity
  8
0
  6
Continuous
 62
     7
 48
1.5
370
    15
100
AcDbLine
 10
16.5645492475
 20
9.0948333577
 30
0.0
 11
16.4085491963
 21
9.0948333577
 31
0.0
  0
LINE
  5
272
330
1F
100
AcDbEntity
  8
0
  6
Continuous
 62
     7
 48
1.5
370
    15
100
AcDbLine
 10
19.7205493358
 20
9.0948333577
 30
0.0
 11
19.7205493358
 21
5.5328333863
 31
0.0
  0
LINE
  5
273
330
1F
100
AcDbEntity
  8
0
  6
Continuous
 62
     7
 48
1.5
370
    15
100
AcDbLine
 10
19.7205493358
 20
5.5328333863
 30
0.0
 11
19.5645492846
 21
5.5328333863
 31
0.0
  0
LINE
  5
274
330
1F
100
AcDbEntity
  8
0
  6
Continuous
 62
     7
 48
1.5
370
    15
100
AcDbLine
 10
16.5645492475
 20
5.5328333863
 30
0.0
 11
16.4085491963
 21
5.5328333863
 31
0.0
  0
LINE
  5
275
330
1F
100
AcDbEntity
  8
0
  6
Continuous
 62
     7
 48
1.5
370
    15
100
AcDbLine
 10
16.4085491963
 20
9.0948333577
 30
0.0
 11
16.4085491963
 21
5.5328333863
 31
0.0
  0
LINE
  5
276
330
1F
100
AcDbEntity
  8
0
  6
Continuous
 62
     7
 48
1.5
370
    15
100
AcDbLine
 10
19.736549311
 20
9.0958333195
 30
0.0
 11
19.736549311
 21
9.1108333329
 31
0.0
  0
LINE
  5
277
330
1F
100
AcDbEntity
  8
0
  6
Continuous
 62
     7
 48
1.5
370
    15
100
AcDbLine
 10
19.7215492976
 20
9.1108333329
 30
0.0
 11
19.736549311
 21
9.1108333329
 31
0.0
  0
ARC
  5
278
330
1F
100
AcDbEntity
  8
0
  6
Continuous
 62
     7
 48
2.25
370
    15
100
AcDbCircle
 10
19.7215492661
 20
9.095833372
 30
0.0
 40
0.093
100
AcDbArc
 50
0.0
 51
90.0
  0
LINE
  5
279
330
1F
100
AcDbEntity
  8
0
  6
Continuous
 62
     7
 48
1.5
370
    15
100
AcDbLine
 10
19.8145492633
 20
9.0958333195
 30
0.0
 11
19.8145492633
 21
5.5318334245
 31
0.0
  0
LINE
  5
27A
330
1F
100
AcDbEntity
  8
0
  6
Continuous
 62
     7
 48
1.5
370
    15
100
AcDbLine
 10
19.736549311
 20
9.0958333195
 30
0.0
 11
19.736549311
 21
5.5318334245
 31
0.0
  0
LINE
  5
27B
330
1F
100
AcDbEntity
  8
0
  6
Continuous
 62
     7
 48
1.5
370
    15
100
AcDbLine
 10
16.4075492346
 20
9.1108333329
 30
0.0
 11
16.5645492475
 21
9.1108333329
 31
0.0
  0
LINE
  5
27C
330
1F
100
AcDbEntity
  8
0
  6
Continuous
 62
     7
 48
1.5
370
    15
100
AcDbLine
 10
19.5645492846
 20
9.1108333329
 30
0.0
 11
19.7215492976
 21
9.1108333329
 31
0.0
  0
LINE
  5
27D
330
1F
100
AcDbEntity
  8
0
  6
Continuous
 62
     7
 48
1.5
370
    15
100
AcDbLine
 10
16.4075492346
 20
9.1888334318
 30
0.0
 11
16.5645492475
 21
9.1888334318
 31
0.0
  0
LINE
  5
27E
330
1F
100
AcDbEntity
  8
0
  6
Continuous
 62
     7
 48
1.5
370
    15
100
AcDbLine
 10
16.8208866196
 20
9.1888334318
 30
0.0
 11
16.9332119687
 21
9.1888334318
 31
0.0
  0
LINE
  5
27F
330
1F
100
AcDbEntity
  8
0
  6
Continuous
 62
     7
 48
1.5
370
    15
100
AcDbLine
 10
19.1958865634
 20
9.1888334318
 30
0.0
 11
19.3082119125
 21
9.1888334318
 31
0.0
  0
LINE
  5
280
330
1F
100
AcDbEntity
  8
0
  6
Continuous
 62
     7
 48
1.5
370
    15
100
AcDbLine
 10
19.5645492846
 20
9.1888334318
 30
0.0
 11
19.7215492976
 21
9.1888334318
 31
0.0
  0
LINE
  5
281
330
1F
100
AcDbEntity
  8
0
  6
Continuous
 62
     7
 48
1.5
370
    15
100
AcDbLine
 10
19.7215492976
 20
5.5168334111
 30
0.0
 11
19.736549311
 21
5.5168334111
 31
0.0
  0
LINE
  5
282
330
1F
100
AcDbEntity
  8
0
  6
Continuous
 62
     7
 48
1.5
370
    15
100
AcDbLine
 10
19.736549311
 20
5.5318334245
 30
0.0
 11
19.736549311
 21
5.5168334111
 31
0.0
  0
ARC
  5
283
330
1F
100
AcDbEntity
  8
0
  6
Continuous
 62
     7
 48
2.25
370
    15
100
AcDbCircle
 10
19.7215492661
 20
5.531833372
 30
0.0
 40
0.093
100
AcDbArc
 50
270.0
 51
0.0
  0
LINE
  5
284
330
1F
100
AcDbEntity
  8
0
  6
Continuous
 62
     7
 48
1.5
370
    15
100
AcDbLine
 10
19.7215492976
 20
5.4388333122
 30
0.0
 11
19.5645492846
 21
5.4388333122
 31
0.0
  0
LINE
  5
285
330
1F
100
AcDbEntity
  8
0
  6
Continuous
 62
     7
 48
1.5
370
    15
100
AcDbLine
 10
19.3082119125
 20
5.4388333122
 30
0.0
 11
19.1958865634
 21
5.4388333122
 31
0.0
  0
LINE
  5
286
330
1F
100
AcDbEntity
  8
0
  6
Continuous
 62
     7
 48
1.5
370
    15
100
AcDbLine
 10
16.9332119687
 20
5.4388333122
 30
0.0
 11
16.8208866196
 21
5.4388333122
 31
0.0
  0
LINE
  5
287
330
1F
100
AcDbEntity
  8
0
  6
Continuous
 62
     7
 48
1.5
370
    15
100
AcDbLine
 10
16.5645492475
 20
5.4388333122
 30
0.0
 11
16.4075492346
 21
5.4388333122
 31
0.0
  0
LINE
  5
288
330
1F
100
AcDbEntity
  8
0
  6
Continuous
 62
     7
 48
1.5
370
    15
100
AcDbLine
 10
19.7215492976
 20
5.5168334111
 30
0.0
 11
19.5645492846
 21
5.5168334111
 31
0.0
  0
LINE
  5
289
330
1F
100
AcDbEntity
  8
0
  6
Continuous
 62
     7
 48
1.5
370
    15
100
AcDbLine
 10
16.5645492475
 20
5.5168334111
 30
0.0
 11
16.4075492346
 21
5.5168334111
 31
0.0
  0
LINE
  5
28A
330
1F
100
AcDbEntity
  8
0
  6
Continuous
 62
     7
 48
1.5
370
    15
100
AcDbLine
 10
16.4075492346
 20
9.1108333329
 30
0.0
 11
16.3925492212
 21
9.1108333329
 31
0.0
  0
LINE
  5
28B
330
1F
100
AcDbEntity
  8
0
  6
Continuous
 62
     7
 48
1.5
370
    15
100
AcDbLine
 10
16.3925492212
 20
9.0958333195
 30
0.0
 11
16.3925492212
 21
9.1108333329
 31
0.0
  0
ARC
  5
28C
330
1F
100
AcDbEntity
  8
0
  6
Continuous
 62
     7
 48
2.25
370
    15
100
AcDbCircle
 10
16.4075492661
 20
9.095833372
 30
0.0
 40
0.093
100
AcDbArc
 50
90.0
 51
180.0
  0
LINE
  5
28D
330
1F
100
AcDbEntity
  8
0
  6
Continuous
 62
     7
 48
1.5
370
    15
100
AcDbLine
 10
16.3145492689
 20
5.5318334245
 30
0.0
 11
16.3145492689
 21
9.0958333195
 31
0.0
  0
LINE
  5
28E
330
1F
100
AcDbEntity
  8
0
  6
Continuous
 62
     7
 48
1.5
370
    15
100
AcDbLine
 10
16.3925492212
 20
5.5318334245
 30
0.0
 11
16.3925492212
 21
9.0958333195
 31
0.0
  0
LINE
  5
28F
330
1F
100
AcDbEntity
  8
0
  6
Continuous
 62
     7
 48
1.5
370
    15
100
AcDbLine
 10
16.3925492212
 20
5.5318334245
 30
0.0
 11
16.3925492212
 21
5.5168334111
 31
0.0
  0
LINE
  5
290
330
1F
100
AcDbEntity
  8
0
  6
Continuous
 62
     7
 48
1.5
370
    15
100
AcDbLine
 10
16.4075492346
 20
5.5168334111
 30
0.0
 11
16.3925492212
 21
5.5168334111
 31
0.0
  0
ARC
  5
291
330
1F
100
AcDbEntity
  8
0
  6
Continuous
 62
     7
 48
2.25
370
    15
100
AcDbCircle
 10
16.4075492661
 20
5.531833372
 30
0.0
 40
0.093
100
AcDbArc
 50
180.0
 51
270.0
  0
LWPOLYLINE
  5
292
330
1F
100
AcDbEntity
  8
0
  6
Continuous
 62
     7
 48
1.5
370
    15
100
AcDbPolyline
 90
       10
 70
   128
 43
0.0
 10
19.736549311
 20
9.1108333329
 10
19.7363213936
 20
9.1106054155
 10
19.7356446814
 20
9.1099287034
 10
19.7345397075
 20
9.1088237295
 10
19.7330399115
 20
9.1073240801
 10
19.7311910529
 20
9.1054752215
 10
19.7290493043
 20
9.1033333262
 10
19.7266796383
 20
9.1009636603
 10
19.7241539209
 20
9.0984380894
 10
19.7215492976
 20
9.0958333195
  0
LWPOLYLINE
  5
293
330
1F
100
AcDbEntity
  8
0
  6
Continuous
 62
     7
 48
1.5
370
    15
100
AcDbPolyline
 90
       10
 70
   128
 43
0.0
 10
19.7215492976
 20
5.5318334245
 10
19.7241539209
 20
5.5292286546
 10
19.7266796383
 20
5.5267030838
 10
19.7290493043
 20
5.5243334178
 10
19.7311910529
 20
5.5221915225
 10
19.7330399115
 20
5.5203426639
 10
19.7345397075
 20
5.5188430146
 10
19.7356446814
 20
5.5177380407
 10
19.7363213936
 20
5.5170613285
 10
19.736549311
 20
5.5168334111
  0
LWPOLYLINE
  5
294
330
1F
100
AcDbEntity
  8
0
  6
Continuous
 62
     7
 48
1.5
370
    15
100
AcDbPolyline
 90
        9
 70
   128
 43
0.0
 10
16.4075492346
 20
9.0958333195
 10
16.404622975
 20
9.0987597257
 10
16.4018090609
 20
9.1015736399
 10
16.3992157308
 20
9.1041669699
 10
16.3969427171
 20
9.1064399837
 10
16.3950772853
 20
9.1083054154
 10
16.393691008
 20
9.1096915461
 10
16.3928374178
 20
9.1105451362
 10
16.3925492212
 20
9.1108333329
  0
LWPOLYLINE
  5
295
330
1F
100
AcDbEntity
  8
0
  6
Continuous
 62
     7
 48
1.5
370
    15
100
AcDbPolyline
 90
        9
 70
   128
 43
0.0
 10
16.3925492212
 20
5.5168334111
 10
16.3928374178
 20
5.5171216078
 10
16.393691008
 20
5.5179751979
 10
16.3950772853
 20
5.5193613286
 10
16.3969427171
 20
5.5212267604
 10
16.3992157308
 20
5.5234997741
 10
16.4018090609
 20
5.5260931041
 10
16.404622975
 20
5.5289070183
 10
16.4075492346
 20
5.5318334245
  0
LINE
  5
296
330
1F
100
AcDbEntity
  8
0
  6
Continuous
 62
     7
 48
1.5
370
    15
100
AcDbLine
 10
19.1425492796
 20
5.3448333847
 30
0.0
 11
19.1425492796
 21
5.2828334076
 31
0.0
  0
ARC
  5
297
330
1F
100
AcDbEntity
  8
0
  6
Continuous
 62
     7
 48
2.25
370
    15
100
AcDbCircle
 10
19.2520492661
 20
5.282833372
 30
0.0
 40
0.1095000000000006
100
AcDbArc
 50
180.0
 51
0.0
  0
LINE
  5
298
330
1F
100
AcDbEntity
  8
0
  6
Continuous
 62
     7
 48
1.5
370
    15
100
AcDbLine
 10
19.3615492697
 20
5.2828334076
 30
0.0
 11
19.3615492697
 21
5.3448333847
 31
0.0
  0
ARC
  5
299
330
1F
100
AcDbEntity
  8
0
  6
Continuous
 62
     7
 48
2.25
370
    15
100
AcDbCircle
 10
19.2520492661
 20
5.344833372
 30
0.0
 40
0.1095000000000006
100
AcDbArc
 50
0.0
 51
180.0
  0
ARC
  5
29A
330
1F
100
AcDbEntity
  8
0
  6
Continuous
 62
     7
 48
2.25
370
    15
100
AcDbCircle
 10
16.8145492661
 20
5.313833372
 30
0.0
 40
0.25
100
AcDbArc
 50
180.0
 51
270.0
  0
LINE
  5
29B
330
1F
100
AcDbEntity
  8
0
  6
Continuous
 62
     7
 48
1.5
370
    15
100
AcDbLine
 10
16.5645492475
 20
5.3138333962
 30
0.0
 11
16.5645492475
 21
6.5638333627
 31
0.0
  0
LINE
  5
29C
330
1F
100
AcDbEntity
  8
0
  6
Continuous
 62
     7
 48
1.5
370
    15
100
AcDbLine
 10
19.314549306
 20
5.0638334175
 30
0.0
 11
16.8145492262
 21
5.0638334175
 31
0.0
  0
LINE
  5
29D
330
1F
100
AcDbEntity
  8
0
  6
Continuous
 62
     7
 48
1.5
370
    15
100
AcDbLine
 10
16.7675492625
 20
5.2828334076
 30
0.0
 11
16.7675492625
 21
5.3448333847
 31
0.0
  0
ARC
  5
29E
330
1F
100
AcDbEntity
  8
0
  6
Continuous
 62
     7
 48
2.25
370
    15
100
AcDbCircle
 10
16.8770492661
 20
5.282833372
 30
0.0
 40
0.1095000000000006
100
AcDbArc
 50
180.0
 51
0.0
  0
LINE
  5
29F
330
1F
100
AcDbEntity
  8
0
  6
Continuous
 62
     7
 48
1.5
370
    15
100
AcDbLine
 10
16.9865492526
 20
5.3448333847
 30
0.0
 11
16.9865492526
 21
5.2828334076
 31
0.0
  0
ARC
  5
2A0
330
1F
100
AcDbEntity
  8
0
  6
Continuous
 62
     7
 48
2.25
370
    15
100
AcDbCircle
 10
16.8770492661
 20
5.344833372
 30
0.0
 40
0.1095000000000006
100
AcDbArc
 50
0.0
 51
180.0
  0
ARC
  5
2A1
330
1F
100
AcDbEntity
  8
0
  6
Continuous
 62
     7
 48
2.25
370
    15
100
AcDbCircle
 10
19.3145492661
 20
5.313833372
 30
0.0
 40
0.2499999999999991
100
AcDbArc
 50
270.0
 51
0.0
  0
LINE
  5
2A2
330
1F
100
AcDbEntity
  8
0
  6
Continuous
 62
     7
 48
1.5
370
    15
100
AcDbLine
 10
19.5645492846
 20
5.3138333962
 30
0.0
 11
19.5645492846
 21
6.5638333627
 31
0.0
  0
LINE
  5
2A3
330
1F
100
AcDbEntity
  8
0
  6
Continuous
 62
     7
 48
1.5
370
    15
100
AcDbLine
 10
16.5645492475
 20
6.5638333627
 30
0.0
 11
19.5645492846
 21
6.5638333627
 31
0.0
  0
LINE
  5
2A4
330
1F
100
AcDbEntity
  8
0
  6
Continuous
 62
     7
 48
1.5
370
    15
100
AcDbLine
 10
16.9865492526
 20
9.2828333593
 30
0.0
 11
16.9865492526
 21
9.3448333364
 31
0.0
  0
ARC
  5
2A5
330
1F
100
AcDbEntity
  8
0
  6
Continuous
 62
     7
 48
2.25
370
    15
100
AcDbCircle
 10
16.8770492661
 20
9.344833372
 30
0.0
 40
0.1095000000000006
100
AcDbArc
 50
0.0
 51
180.0
  0
LINE
  5
2A6
330
1F
100
AcDbEntity
  8
0
  6
Continuous
 62
     7
 48
1.5
370
    15
100
AcDbLine
 10
16.7675492625
 20
9.3448333364
 30
0.0
 11
16.7675492625
 21
9.2828333593
 31
0.0
  0
ARC
  5
2A7
330
1F
100
AcDbEntity
  8
0
  6
Continuous
 62
     7
 48
2.25
370
    15
100
AcDbCircle
 10
16.8770492661
 20
9.282833372
 30
0.0
 40
0.1095000000000006
100
AcDbArc
 50
180.0
 51
0.0
  0
ARC
  5
2A8
330
1F
100
AcDbEntity
  8
0
  6
Continuous
 62
     7
 48
2.25
370
    15
100
AcDbCircle
 10
19.3145492661
 20
9.313833372
 30
0.0
 40
0.2499999999999982
100
AcDbArc
 50
0.0
 51
90.0
  0
LINE
  5
2A9
330
1F
100
AcDbEntity
  8
0
  6
Continuous
 62
     7
 48
1.5
370
    15
100
AcDbLine
 10
19.5645492846
 20
9.3138333478
 30
0.0
 11
19.5645492846
 21
8.0638333813
 31
0.0
  0
LINE
  5
2AA
330
1F
100
AcDbEntity
  8
0
  6
Continuous
 62
     7
 48
1.5
370
    15
100
AcDbLine
 10
19.5645492846
 20
8.0638333813
 30
0.0
 11
16.5645492475
 21
8.0638333813
 31
0.0
  0
LINE
  5
2AB
330
1F
100
AcDbEntity
  8
0
  6
Continuous
 62
     7
 48
1.5
370
    15
100
AcDbLine
 10
16.5645492475
 20
9.3138333478
 30
0.0
 11
16.5645492475
 21
8.0638333813
 31
0.0
  0
ARC
  5
2AC
330
1F
100
AcDbEntity
  8
0
  6
Continuous
 62
     7
 48
2.25
370
    15
100
AcDbCircle
 10
16.8145492661
 20
9.313833372
 30
0.0
 40
0.25
100
AcDbArc
 50
90.0
 51
180.0
  0
LINE
  5
2AD
330
1F
100
AcDbEntity
  8
0
  6
Continuous
 62
     7
 48
1.5
370
    15
100
AcDbLine
 10
16.8145492262
 20
9.5638333265
 30
0.0
 11
19.314549306
 21
9.5638333265
 31
0.0
  0
LINE
  5
2AE
330
1F
100
AcDbEntity
  8
0
  6
Continuous
 62
     7
 48
1.5
370
    15
100
AcDbLine
 10
19.3615492697
 20
9.3448333364
 30
0.0
 11
19.3615492697
 21
9.2828333593
 31
0.0
  0
ARC
  5
2AF
330
1F
100
AcDbEntity
  8
0
  6
Continuous
 62
     7
 48
2.25
370
    15
100
AcDbCircle
 10
19.2520492661
 20
9.344833372
 30
0.0
 40
0.1095000000000006
100
AcDbArc
 50
0.0
 51
180.0
  0
LINE
  5
2B0
330
1F
100
AcDbEntity
  8
0
  6
Continuous
 62
     7
 48
1.5
370
    15
100
AcDbLine
 10
19.1425492796
 20
9.2828333593
 30
0.0
 11
19.1425492796
 21
9.3448333364
 31
0.0
  0
ARC
  5
2B1
330
1F
100
AcDbEntity
  8
0
  6
Continuous
 62
     7
 48
2.25
370
    15
100
AcDbCircle
 10
19.2520492661
 20
9.282833372
 30
0.0
 40
0.1095000000000006
100
AcDbArc
 50
180.0
 51
0.0
  0
ARC
  5
2B2
330
1F
100
AcDbEntity
  8
0
  6
Continuous
 62
     7
 48
2.25
370
    15
100
AcDbCircle
 10
19.5965492661
 20
8.970833372
 30
0.0
 40
0.093
100
AcDbArc
 50
0.0
 51
90.0
  0
LINE
  5
2B3
330
1F
100
AcDbEntity
  8
0
  6
Continuous
 62
     7
 48
1.5
370
    15
100
AcDbLine
 10
19.6895492006
 20
5.6568333405
 30
0.0
 11
19.6895492006
 21
8.9708334035
 31
0.0
  0
ARC
  5
2B4
330
1F
100
AcDbEntity
  8
0
  6
Continuous
 62
     7
 48
2.25
370
    15
100
AcDbCircle
 10
19.5965492661
 20
5.656833372
 30
0.0
 40
0.093
100
AcDbArc
 50
270.0
 51
0.0
  0
LINE
  5
2B5
330
1F
100
AcDbEntity
  8
0
  6
Continuous
 62
     7
 48
1.5
370
    15
100
AcDbLine
 10
19.596549235
 20
9.0638333692
 30
0.0
 11
19.5645492846
 21
9.0638333692
 31
0.0
  0
LINE
  5
2B6
330
1F
100
AcDbEntity
  8
0
  6
Continuous
 62
     7
 48
1.5
370
    15
100
AcDbLine
 10
16.5645492475
 20
9.0638333692
 30
0.0
 11
16.5325492972
 21
9.0638333692
 31
0.0
  0
LINE
  5
2B7
330
1F
100
AcDbEntity
  8
0
  6
Continuous
 62
     7
 48
1.5
370
    15
100
AcDbLine
 10
16.5325492972
 20
5.5638333748
 30
0.0
 11
16.5645492475
 21
5.5638333748
 31
0.0
  0
LINE
  5
2B8
330
1F
100
AcDbEntity
  8
0
  6
Continuous
 62
     7
 48
1.5
370
    15
100
AcDbLine
 10
19.5645492846
 20
5.5638333748
 30
0.0
 11
19.596549235
 21
5.5638333748
 31
0.0
  0
ARC
  5
2B9
330
1F
100
AcDbEntity
  8
0
  6
Continuous
 62
     7
 48
2.25
370
    15
100
AcDbCircle
 10
16.5325492661
 20
8.970833372
 30
0.0
 40
0.093
100
AcDbArc
 50
90.0
 51
180.0
  0
LINE
  5
2BA
330
1F
100
AcDbEntity
  8
0
  6
Continuous
 62
     7
 48
1.5
370
    15
100
AcDbLine
 10
16.4395493316
 20
8.9708334035
 30
0.0
 11
16.4395493316
 21
5.6568333405
 31
0.0
  0
ARC
  5
2BB
330
1F
100
AcDbEntity
  8
0
  6
Continuous
 62
     7
 48
2.25
370
    15
100
AcDbCircle
 10
16.5325492661
 20
5.656833372
 30
0.0
 40
0.093
100
AcDbArc
 50
180.0
 51
270.0
  0
DIMENSION
  5
2BC
330
1F
100
AcDbEntity
  8
0
  6
Continuous
 62
     7
 48
1.5
370
     0
100
AcDbDimension
  2
*D13
 10
19.2520492661
 20
4.4732821909
 30
0.0
 11
18.1033970699
 21
4.4732821909
 31
0.0
 70
   160
 71
     2
 42
-1.0
  3
SLDDIMSTYLE5
100
AcDbAlignedDimension
 13
16.8770492661
 23
5.282833372
 33
0.0
 14
19.2520492661
 24
5.282833372
 34
0.0
100
AcDbRotatedDimension
  0
DIMENSION
  5
2CE
330
1F
100
AcDbEntity
  8
0
  6
Continuous
 62
     7
 48
1.5
370
     0
100
AcDbDimension
  2
*D14
 10
15.723998085
 20
5.063833372
 30
0.0
 11
15.723998085
 21
7.313833372
 31
0.0
 70
   160
 71
     2
 42
-1.0
  3
SLDDIMSTYLE0
100
AcDbAlignedDimension
 13
16.8145492661
 23
9.563833372
 33
0.0
 14
16.8145492661
 24
5.063833372
 34
0.0
 50
90.0
100
AcDbRotatedDimension
  0
DIMENSION
  5
2E0
330
1F
100
AcDbEntity
  8
0
  6
Continuous
 62
     7
 48
1.5
370
     0
100
AcDbDimension
  2
*D15
 10
19.5645492661
 20
10.1543845531
 30
0.0
 11
18.0645492661
 21
10.1543845531
 31
0.0
 70
   160
 71
     2
 42
-1.0
  3
SLDDIMSTYLE0
100
AcDbAlignedDimension
 13
16.5645492661
 23
9.313833372
 33
0.0
 14
19.5645492661
 24
9.313833372
 34
0.0
100
AcDbRotatedDimension
  0
MTEXT
  5
2F2
330
1F
100
AcDbEntity
  8
0
  6
Continuous
 62
     7
 48
1.5
370
     0
100
AcDbMText
 10
20.1612788221
 20
4.5867255611
 30
0.0
 40
0.1875
 41
0.0
 71
     1
 72
     1
  1
.22 [5.6] x .28 [7.1] OBLONG
  7
SLDTEXTSTYLE0
 73
     1
 44
1.0
  0
LEADER
  5
2F3
330
1F
100
AcDbEntity
  8
0
  6
Continuous
 62
     7
 48
1.5
370
     0
100
AcDbLeader
  3
SLDDIMSTYLE4
 76
     3
 10
19.3346997285
 20
5.2110061414
 30
0.0
 10
19.7566462848
 20
4.4958683472
 30
0.0
 10
20.1316462848
 20
4.4958683472
 30
0.0
  0
SPLINE
  5
2F4
330
1F
100
AcDbEntity
  8
0
  6
Continuous
 62
     7
 48
1.5
370
    15
100
AcDbSpline
210
0.0
220
0.0
230
1.0
 70
     8
 71
     3
 72
    13
 73
     9
 74
     0
 42
0.00000001
 43
0.00000001
 40
0.0
 40
0.0
 40
0.0
 40
0.0
 40
0.1560224480031213
 40
0.3219948906624147
 40
0.4901451998014471
 40
0.6618005034456629
 40
0.8361811315619079
 40
1.0
 40
1.0
 40
1.0
 40
1.0
 10
21.90616726127606
 20
12.41327580185473
 30
0.0
 10
21.89985027003658
 20
12.40898484521219
 30
0.0
 10
21.88681343508427
 20
12.4001292854345
 30
0.0
 10
21.87161571774751
 20
12.38039778414631
 30
0.0
 10
21.85988686949218
 20
12.35634289562291
 30
0.0
 10
21.85260414937734
 20
12.32812664268137
 30
0.0
 10
21.84948402578273
 20
12.29734472627818
 30
0.0
 10
21.8511901172997
 20
12.27510103237271
 30
0.0
 10
21.85201652297034
 20
12.26432651377466
 30
0.0
  0
SPLINE
  5
2F5
330
1F
100
AcDbEntity
  8
0
  6
Continuous
 62
     7
 48
1.5
370
    15
100
AcDbSpline
210
0.0
220
0.0
230
1.0
 70
     8
 71
     3
 72
     9
 73
     5
 74
     0
 42
0.00000001
 43
0.00000001
 40
0.0
 40
0.0
 40
0.0
 40
0.0
 40
0.0206116973337474
 40
0.9999999999999999
 40
0.9999999999999999
 40
0.9999999999999999
 40
0.9999999999999999
 10
22.00094071421598
 20
12.00509227787807
 30
0.0
 10
22.00108500242279
 20
12.00497368939966
 30
0.0
 10
22.00808530931009
 20
11.99922023414149
 30
0.0
 10
22.0153695825578
 20
11.99505964770472
 30
0.0
 10
22.02250371457002
 20
11.99098481801632
 30
0.0
  0
SPLINE
  5
2F6
330
1F
100
AcDbEntity
  8
0
  6
Continuous
 62
     7
 48
1.5
370
    15
100
AcDbSpline
210
0.0
220
0.0
230
1.0
 70
     8
 71
     3
 72
    13
 73
     9
 74
     0
 42
0.00000001
 43
0.00000001
 40
0.0
 40
0.0
 40
0.0
 40
0.0
 40
0.10225033494679
 40
0.2962669488638666
 40
0.490181567141186
 40
0.6818757237744979
 40
0.8694073328669727
 40
1.0
 40
1.0
 40
1.0
 40
1.0
 10
22.02250371457002
 20
11.99098481801632
 30
0.0
 10
22.02757919052781
 20
11.98819234576185
 30
0.0
 10
22.04228521351376
 20
11.9801012501674
 30
0.0
 10
22.06670973447135
 20
11.9709152777782
 30
0.0
 10
22.09504268449314
 20
11.96565268420637
 30
0.0
 10
22.12175301628608
 20
11.96690588953828
 30
0.0
 10
22.14414961824102
 20
11.97295888277519
 30
0.0
 10
22.15586484315414
 20
11.98096883535062
 30
0.0
 10
22.16067404063388
 20
11.98425698765023
 30
0.0
  0
LINE
  5
2F7
330
1F
100
AcDbEntity
  8
0
  6
Continuous
 62
     7
 48
1.5
370
    15
100
AcDbLine
 10
21.9363238723
 20
12.4305163659
 30
0.0
 11
21.9078883853
 21
12.4144856044
 31
0.0
  0
LINE
  5
2F8
330
1F
100
AcDbEntity
  8
0
  6
Continuous
 62
     7
 48
1.5
370
    15
100
AcDbLine
 10
22.153435488
 20
11.9789322817
 30
0.0
 11
22.181870975
 21
11.9949630432
 31
0.0
  0
LWPOLYLINE
  5
2F9
330
1F
100
AcDbEntity
  8
0
  6
Continuous
 62
     7
 48
1.5
370
    15
100
AcDbPolyline
 90
       22
 70
   128
 43
0.0
 10
22.1791772816
 20
11.9941499428
 10
22.1951019737
 20
12.0039907502
 10
22.212153918
 20
12.0218499438
 10
22.2252481728
 20
12.0442331
 10
22.2342235266
 20
12.0708677464
 10
22.238802314
 20
12.1012627098
 10
22.2387914858
 20
12.1346094655
 10
22.2341924502
 20
12.1699425856
 10
22.2251739161
 20
12.2063000386
 10
22.2120064343
 20
12.2427781969
 10
22.195043792
 20
12.2784878569
 10
22.174713542
 20
12.3125603085
 10
22.1515104446
 20
12.3441600356
 10
22.1259863923
 20
12.372501778
 10
22.098724434
 20
12.3968768484
 10
22.0703251812
 20
12.4166508591
 10
22.0414001431
 20
12.4312600643
 10
22.0126027709
 20
12.440195771
 10
21.9847482184
 20
12.4430349315
 10
21.9588223373
 20
12.439617556
 10
21.9401822476
 20
12.4320103565
 10
21.9401822476
 20
12.4320103565
  0
SPLINE
  5
2FA
330
1F
100
AcDbEntity
  8
0
  6
Continuous
 62
     7
 48
1.5
370
    15
100
AcDbSpline
210
0.0
220
0.0
230
1.0
 70
     8
 71
     3
 72
    13
 73
     9
 74
     0
 42
0.00000001
 43
0.00000001
 40
0.0
 40
0.0
 40
0.0
 40
0.0
 40
0.1568360333520662
 40
0.3236734240065327
 40
0.4927007353111193
 40
0.6652501251074836
 40
0.840540447661916
 40
1.0
 40
1.0
 40
1.0
 40
1.0
 10
20.14054932358514
 20
11.17819001019669
 30
0.0
 10
20.13423234765931
 20
11.1738989869663
 30
0.0
 10
20.12119556533588
 20
11.16504330404836
 30
0.0
 10
20.10599793328256
 20
11.14531193866081
 30
0.0
 10
20.09426782775728
 20
11.12125756707337
 30
0.0
 10
20.08699071782598
 20
11.09303857937812
 30
0.0
 10
20.08388153639504
 20
11.06257984190626
 30
0.0
 10
20.08555231123597
 20
11.04068166943157
 30
0.0
 10
20.08634819206574
 20
11.03025038015639
 30
0.0
  0
SPLINE
  5
2FB
330
1F
100
AcDbEntity
  8
0
  6
Continuous
 62
     7
 48
1.5
370
    15
100
AcDbSpline
210
0.0
220
0.0
230
1.0
 70
     8
 71
     3
 72
     9
 73
     5
 74
     0
 42
0.00000001
 43
0.00000001
 40
0.0
 40
0.0
 40
0.0
 40
0.0
 40
0.1323521475127077
 40
1.0
 40
1.0
 40
1.0
 40
1.0
 10
20.23261693570737
 20
10.77222487339127
 30
0.0
 10
20.23366133148228
 20
10.77135654487856
 30
0.0
 10
20.24155236910076
 20
10.76479580121836
 30
0.0
 10
20.24976235140045
 20
10.76003212737553
 30
0.0
 10
20.25688572491172
 20
10.75589893599584
 30
0.0
  0
SPLINE
  5
2FC
330
1F
100
AcDbEntity
  8
0
  6
Continuous
 62
     7
 48
1.5
370
    15
100
AcDbSpline
210
0.0
220
0.0
230
1.0
 70
     8
 71
     3
 72
    13
 73
     9
 74
     0
 42
0.00000001
 43
0.00000001
 40
0.0
 40
0.0
 40
0.0
 40
0.0
 40
0.1022502791416381
 40
0.2962671247933873
 40
0.4901816239239671
 40
0.6818755043399678
 40
0.8694069220815883
 40
1.0
 40
1.0
 40
1.0
 40
1.0
 10
20.25688572491172
 20
10.75589893599584
 30
0.0
 10
20.26196120079148
 20
10.75310648845502
 30
0.0
 10
20.27666724031016
 20
10.7450154552471
 30
0.0
 10
20.30109178313548
 20
10.73582940568451
 30
0.0
 10
20.32942472469702
 20
10.73056687240691
 30
0.0
 10
20.35613511207787
 20
10.73181990783993
 30
0.0
 10
20.37853162247226
 20
10.73787313292046
 30
0.0
 10
20.39024691661324
 20
10.74588298626833
 30
0.0
 10
20.39505615432194
 20
10.74917110590904
 30
0.0
  0
LINE
  5
2FD
330
1F
100
AcDbEntity
  8
0
  6
Continuous
 62
     7
 48
1.5
370
    15
100
AcDbLine
 10
20.1707059342
 20
11.195430454
 30
0.0
 11
20.1422704472
 21
11.1793996924
 31
0.0
  0
LINE
  5
2FE
330
1F
100
AcDbEntity
  8
0
  6
Continuous
 62
     7
 48
1.5
370
    15
100
AcDbLine
 10
20.38781755
 20
10.7438463697
 30
0.0
 11
20.4162530369
 21
10.7598771313
 31
0.0
  0
LWPOLYLINE
  5
2FF
330
1F
100
AcDbEntity
  8
0
  6
Continuous
 62
     7
 48
1.5
370
    15
100
AcDbPolyline
 90
       22
 70
   128
 43
0.0
 10
20.4135593437
 20
10.759064091
 10
20.4294839841
 20
10.7689048682
 10
20.4465359284
 20
10.7867640618
 10
20.4596302863
 20
10.8091471581
 10
20.4686055885
 20
10.8357818345
 10
20.4731844279
 20
10.8661768882
 10
20.4731735993
 20
10.8995235236
 10
20.4685745121
 20
10.9348566737
 10
20.4595559264
 20
10.9712141566
 10
20.4463884962
 20
11.0076922849
 10
20.4294258539
 20
11.043401945
 10
20.4090956041
 20
11.0774744567
 10
20.3858925067
 20
11.1090741838
 10
20.3603684544
 20
11.1374159262
 10
20.3331065475
 20
11.1617909065
 10
20.3047072947
 20
11.1815649172
 10
20.2757822566
 20
11.1961741224
 10
20.2469848844
 20
11.2051098292
 10
20.2191302807
 20
11.2079491398
 10
20.1932043476
 20
11.204531674
 10
20.1745643611
 20
11.1969244147
 10
20.1745643611
 20
11.1969244147
  0
SPLINE
  5
300
330
1F
100
AcDbEntity
  8
0
  6
Continuous
 62
     7
 48
1.5
370
    15
100
AcDbSpline
210
0.0
220
0.0
230
1.0
 70
     8
 71
     3
 72
    13
 73
     9
 74
     0
 42
0.00000001
 43
0.00000001
 40
0.0
 40
0.0
 40
0.0
 40
0.0
 40
0.1568355258158165
 40
0.3236734564875689
 40
0.4927001502221745
 40
0.6652501566004272
 40
0.840539814814469
 40
0.9999999999999999
 40
0.9999999999999999
 40
0.9999999999999999
 40
0.9999999999999999
 10
20.14790441475719
 20
13.43378594426737
 30
0.0
 10
20.14158742912705
 20
13.42949497233942
 30
0.0
 10
20.12855058327944
 20
13.42063936575164
 30
0.0
 10
20.11335309640448
 20
13.40090788234535
 30
0.0
 10
20.1016228642534
 20
13.376853585619
 30
0.0
 10
20.09434584100114
 20
13.34863457361495
 30
0.0
 10
20.09123662212749
 20
13.31817581760565
 30
0.0
 10
20.09290739846271
 20
13.29627764563988
 30
0.0
 10
20.09370328323779
 20
13.28584631422707
 30
0.0
  0
SPLINE
  5
301
330
1F
100
AcDbEntity
  8
0
  6
Continuous
 62
     7
 48
1.5
370
    15
100
AcDbSpline
210
0.0
220
0.0
230
1.0
 70
     8
 71
     3
 72
     9
 73
     5
 74
     0
 42
0.00000001
 43
0.00000001
 40
0.0
 40
0.0
 40
0.0
 40
0.0
 40
0.1859870490084542
 40
0.9999999999999999
 40
0.9999999999999999
 40
0.9999999999999999
 40
0.9999999999999999
 10
20.23840965178361
 20
13.02910216118934
 30
0.0
 10
20.23997277509747
 20
13.02779513782228
 30
0.0
 10
20.24837724907669
 20
13.02076764115499
 30
0.0
 10
20.25712226238581
 20
13.01565596277015
 30
0.0
 10
20.26424081647604
 20
13.01149499036358
 30
0.0
  0
SPLINE
  5
302
330
1F
100
AcDbEntity
  8
0
  6
Continuous
 62
     7
 48
1.5
370
    15
100
AcDbSpline
210
0.0
220
0.0
230
1.0
 70
     8
 71
     3
 72
    13
 73
     9
 74
     0
 42
0.00000001
 43
0.00000001
 40
0.0
 40
0.0
 40
0.0
 40
0.0
 40
0.1022502780093312
 40
0.2962671348335726
 40
0.4901816451307509
 40
0.6818756950203718
 40
0.8694069145613642
 40
1.0
 40
1.0
 40
1.0
 40
1.0
 10
20.26424081647604
 20
13.01149499036358
 30
0.0
 10
20.26931629243403
 20
13.00870251873385
 30
0.0
 10
20.28402233284062
 20
13.00061141536523
 30
0.0
 10
20.30844687138781
 20
12.99142541833707
 30
0.0
 10
20.33677983466594
 20
12.98616283541031
 30
0.0
 10
20.36349016884853
 20
12.98741600181385
 30
0.0
 10
20.38588672914135
 20
12.99346911645424
 30
0.0
 10
20.39760201019454
 20
13.00147897584618
 30
0.0
 10
20.40241124569012
 20
13.00476710012826
 30
0.0
  0
LINE
  5
303
330
1F
100
AcDbEntity
  8
0
  6
Continuous
 62
     7
 48
1.5
370
    15
100
AcDbLine
 10
20.1780610258
 20
13.4510265083
 30
0.0
 11
20.1496255388
 21
13.4349957468
 31
0.0
  0
LINE
  5
304
330
1F
100
AcDbEntity
  8
0
  6
Continuous
 62
     7
 48
1.5
370
    15
100
AcDbLine
 10
20.3951726415
 20
12.9994424241
 30
0.0
 11
20.4236081285
 21
13.0154731856
 31
0.0
  0
LWPOLYLINE
  5
305
330
1F
100
AcDbEntity
  8
0
  6
Continuous
 62
     7
 48
1.5
370
    15
100
AcDbPolyline
 90
       22
 70
   128
 43
0.0
 10
20.4209144351
 20
13.0146600852
 10
20.4368390756
 20
13.0245009226
 10
20.4538910199
 20
13.0423601162
 10
20.4669853779
 20
13.0647432124
 10
20.4759606801
 20
13.0913778889
 10
20.4805395191
 20
13.1217728223
 10
20.4805286908
 20
13.1551195779
 10
20.4759296037
 20
13.1904527281
 10
20.466911018
 20
13.2268102109
 10
20.4537435877
 20
13.2632883393
 10
20.4367809454
 20
13.2989979993
 10
20.4164506955
 20
13.3330704509
 10
20.3932475981
 20
13.3646701781
 10
20.3677235458
 20
13.3930119204
 10
20.3404616391
 20
13.4173869609
 10
20.3120623863
 20
13.4371609716
 10
20.2831373481
 20
13.4517701767
 10
20.2543399759
 20
13.4607058835
 10
20.2264853719
 20
13.4635450739
 10
20.2005594392
 20
13.4601277284
 10
20.1819194527
 20
13.452520469
 10
20.1819194527
 20
13.452520469
  0
SPLINE
  5
306
330
1F
100
AcDbEntity
  8
0
  6
Continuous
 62
     7
 48
1.5
370
    15
100
AcDbSpline
210
0.0
220
0.0
230
1.0
 70
     8
 71
     3
 72
    13
 73
     9
 74
     0
 42
0.00000001
 43
0.00000001
 40
0.0
 40
0.0
 40
0.0
 40
0.0
 40
0.1560337891969769
 40
0.3220172219146712
 40
0.4901798240370346
 40
0.6618464362609695
 40
0.8362398366077047
 40
1.0
 40
1.0
 40
1.0
 40
1.0
 10
21.89881217010401
 20
10.15767986778405
 30
0.0
 10
21.89249518827042
 20
10.15338885998121
 30
0.0
 10
21.87945841622632
 20
10.14453322416669
 30
0.0
 10
21.86426055857974
 20
10.12480183857901
 30
0.0
 10
21.85253181785538
 20
10.10074688428568
 30
0.0
 10
21.84524908441892
 20
10.07253062072702
 30
0.0
 10
21.84212915022665
 20
10.04175304571936
 30
0.0
 10
21.84383476370578
 20
10.01951398476988
 30
0.0
 10
21.8446607539421
 20
10.00874410786984
 30
0.0
  0
LINE
  5
307
330
1F
100
AcDbEntity
  8
0
  6
Continuous
 62
     7
 48
1.5
370
    15
100
AcDbLine
 10
21.9985148997
 20
9.7462147279
 30
0.0
 11
22.015148623
 21
9.7353887636
 31
0.0
  0
SPLINE
  5
308
330
1F
100
AcDbEntity
  8
0
  6
Continuous
 62
     7
 48
1.5
370
    15
100
AcDbSpline
210
0.0
220
0.0
230
1.0
 70
     8
 71
     3
 72
    13
 73
     9
 74
     0
 42
0.00000001
 43
0.00000001
 40
0.0
 40
0.0
 40
0.0
 40
0.0
 40
0.1022503360791267
 40
0.2962669388237805
 40
0.4901815459345507
 40
0.6818755330942027
 40
0.8694073403871353
 40
1.0
 40
1.0
 40
1.0
 40
1.0
 10
22.0151486230057
 20
9.735388763648583
 30
0.0
 10
22.02022409888526
 20
9.732596315483027
 30
0.0
 10
22.0349301209833
 20
9.724505290049208
 30
0.0
 10
22.05935464621901
 20
9.715319265125666
 30
0.0
 10
22.08768757452423
 20
9.710056721202978
 30
0.0
 10
22.11439795951541
 20
9.711309795564292
 30
0.0
 10
22.13679451157202
 20
9.7173628992413
 30
0.0
 10
22.14850974957286
 20
9.725372845772743
 30
0.0
 10
22.1533189492657
 20
9.728660993431022
 30
0.0
  0
LINE
  5
309
330
1F
100
AcDbEntity
  8
0
  6
Continuous
 62
     7
 48
1.5
370
    15
100
AcDbLine
 10
21.9289687807
 20
10.1749203116
 30
0.0
 11
21.9005332938
 21
10.15888955
 31
0.0
  0
LINE
  5
30A
330
1F
100
AcDbEntity
  8
0
  6
Continuous
 62
     7
 48
1.5
370
    15
100
AcDbLine
 10
22.1460803965
 20
9.7233362273
 30
0.0
 11
22.1745158834
 21
9.7393669889
 31
0.0
  0
LWPOLYLINE
  5
30B
330
1F
100
AcDbEntity
  8
0
  6
Continuous
 62
     7
 48
1.5
370
    15
100
AcDbPolyline
 90
       22
 70
   128
 43
0.0
 10
22.1718221902
 20
9.7385539486
 10
22.1877468822
 20
9.7483946958
 10
22.2047988265
 20
9.7662538895
 10
22.2178930813
 20
9.7886370456
 10
22.226868435
 20
9.8152716921
 10
22.2314472228
 20
9.8456667758
 10
22.2314363942
 20
9.8790134111
 10
22.2268373587
 20
9.9143465313
 10
22.2178188245
 20
9.9507039842
 10
22.2046513427
 20
9.9871821425
 10
22.1876887004
 20
10.0228918025
 10
22.1673584506
 20
10.0569643143
 10
22.1441553532
 20
10.0885640414
 10
22.118631301
 20
10.1169057838
 10
22.0913693425
 20
10.141280794
 10
22.0629700897
 20
10.1610548048
 10
22.0340450515
 20
10.1756640099
 10
22.0052476793
 20
10.1845997167
 10
21.9773931272
 20
10.1874389974
 10
21.9514672457
 20
10.1840215017
 10
21.9328271561
 20
10.1764143022
 10
21.9328271561
 20
10.1764143022
  0
SPLINE
  5
30C
330
1F
100
AcDbEntity
  8
0
  6
Continuous
 62
     7
 48
1.5
370
    15
100
AcDbSpline
210
0.0
220
0.0
230
1.0
 70
     8
 71
     3
 72
    22
 73
    18
 74
     0
 42
0.00000001
 43
0.00000001
 40
0.0
 40
0.0
 40
0.0
 40
0.0
 40
0.0570479152326467
 40
0.1196241457222438
 40
0.1815082546887425
 40
0.2446582408549841
 40
0.3108383011664301
 40
0.3810894095964944
 40
0.4548067747857022
 40
0.5297801225846825
 40
0.6048765827498956
 40
0.6805102657108749
 40
0.7574447094436183
 40
0.8367081272358261
 40
0.9080246260770288
 40
0.9748397403852481
 40
1.0
 40
1.0
 40
1.0
 40
1.0
 10
21.89840422440628
 20
10.07613088965674
 30
0.0
 10
21.89169958162557
 20
10.07196622388781
 30
0.0
 10
21.87764057242698
 20
10.06323330906007
 30
0.0
 10
21.86100753858289
 20
10.04419786926499
 30
0.0
 10
21.84811887866503
 20
10.02185661354046
 30
0.0
 10
21.83986526365909
 20
9.996869961901087
 30
0.0
 10
21.8361146637575
 20
9.969524660688016
 30
0.0
 10
21.83711165157543
 20
9.939950332298594
 30
0.0
 10
21.84309501187471
 20
9.908868178806397
 30
0.0
 10
21.85399126764146
 20
9.877527157693164
 30
0.0
 10
21.86936912475764
 20
9.847290284361486
 30
0.0
 10
21.88875880647253
 20
9.819220402766065
 30
0.0
 10
21.91187981200899
 20
9.79417941329463
 30
0.0
 10
21.93742513205886
 20
9.774035492766847
 30
0.0
 10
21.96411835795369
 20
9.759756407937484
 30
0.0
 10
21.98554751797477
 20
9.752787880430217
 30
0.0
 10
21.99798553140753
 20
9.750874014901147
 30
0.0
 10
22.00138800354449
 20
9.750350468743896
 30
0.0
  0
SPLINE
  5
30D
330
1F
100
AcDbEntity
  8
0
  6
Continuous
 62
     7
 48
1.5
370
    15
100
AcDbSpline
210
0.0
220
0.0
230
1.0
 70
     8
 71
     3
 72
    10
 73
     6
 74
     0
 42
0.00000001
 43
0.00000001
 40
0.0
 40
0.0
 40
0.0
 40
0.0
 40
0.3100648100481934
 40
0.6534452293274458
 40
1.0
 40
1.0
 40
1.0
 40
1.0
 10
22.00138800354449
 20
9.750350468743896
 30
0.0
 10
22.0090137574289
 20
9.749787174898742
 30
0.0
 10
22.0250846314343
 20
9.748600062837335
 30
0.0
 10
22.04990400703477
 20
9.75252929324433
 30
0.0
 10
22.06538723923868
 20
9.759967680739068
 30
0.0
 10
22.07316447406282
 20
9.763703986279003
 30
0.0
  0
LINE
  5
30E
330
1F
100
AcDbEntity
  8
0
  6
Continuous
 62
     7
 48
1.5
370
    15
100
AcDbLine
 10
21.9031610336
 20
10.1139891535
 30
0.0
 11
21.8812124414
 21
10.0983082476
 31
0.0
  0
LINE
  5
30F
330
1F
100
AcDbEntity
  8
0
  6
Continuous
 62
     7
 48
1.5
370
    15
100
AcDbLine
 10
22.0842461091
 20
9.7381655619
 30
0.0
 11
22.1090242622
 21
9.7488274259
 31
0.0
  0
LINE
  5
310
330
1F
100
AcDbEntity
  8
0
  6
Continuous
 62
     7
 48
1.5
370
    15
100
AcDbLine
 10
21.901141232
 20
10.0780611022
 30
0.0
 11
21.8981184784
 21
10.0763569977
 31
0.0
  0
LINE
  5
311
330
1F
100
AcDbEntity
  8
0
  6
Continuous
 62
     7
 48
1.5
370
    15
100
AcDbLine
 10
22.0742162967
 20
9.7639933731
 30
0.0
 11
22.0772390503
 21
9.7656974776
 31
0.0
  0
SPLINE
  5
312
330
1F
100
AcDbEntity
  8
0
  6
Continuous
 62
     7
 48
1.5
370
    15
100
AcDbSpline
210
0.0
220
0.0
230
1.0
 70
     8
 71
     3
 72
    22
 73
    18
 74
     0
 42
0.00000001
 43
0.00000001
 40
0.0
 40
0.0
 40
0.0
 40
0.0
 40
0.0334037108297464
 40
0.0979326440634262
 40
0.1609608143167909
 40
0.2245107428532447
 40
0.2904845842741036
 40
0.3603368572427744
 40
0.4341936494348821
 40
0.5103293497032588
 40
0.5867278773154359
 40
0.6634071373521832
 40
0.7411106615912102
 40
0.820743080461525
 40
0.8945364940950488
 40
0.9634885057302403
 40
1.0
 40
1.0
 40
1.0
 40
1.0
 10
20.14068857864094
 20
11.09637931852822
 30
0.0
 10
20.13665213594073
 20
11.09431465020255
 30
0.0
 10
20.12481813617175
 20
11.08826147756918
 30
0.0
 10
20.1091099598234
 20
11.07264382348379
 30
0.0
 10
20.09431516799393
 20
11.05149816788954
 30
0.0
 10
20.08431132597442
 20
11.02743914995355
 30
0.0
 10
20.07876938551687
 20
11.00103388675016
 30
0.0
 10
20.07787463117423
 20
10.97228098232126
 30
0.0
 10
20.0818890401432
 20
10.94165960807678
 30
0.0
 10
20.09090005442077
 20
10.9102457438687
 30
0.0
 10
20.10458870259096
 20
10.87942427423931
 30
0.0
 10
20.12245400335897
 20
10.85039910398825
 30
0.0
 10
20.14413544281636
 20
10.82407557703149
 30
0.0
 10
20.16855538234133
 20
10.80211498841047
 30
0.0
 10
20.19447294472812
 20
10.78568125382919
 30
0.0
 10
20.21695326443872
 20
10.77621430864136
 30
0.0
 10
20.23079884238657
 20
10.77312494724467
 30
0.0
 10
20.23559218521703
 20
10.77205540949353
 30
0.0
  0
SPLINE
  5
313
330
1F
100
AcDbEntity
  8
0
  6
Continuous
 62
     7
 48
1.5
370
    15
100
AcDbSpline
210
0.0
220
0.0
230
1.0
 70
     8
 71
     3
 72
    11
 73
     7
 74
     0
 42
0.00000001
 43
0.00000001
 40
0.0
 40
0.0
 40
0.0
 40
0.0
 40
0.272775517038126
 40
0.5831431036890612
 40
0.8884485030321928
 40
1.0
 40
1.0
 40
1.0
 40
1.0
 10
20.23559218521703
 20
10.77205540949353
 30
0.0
 10
20.24303243084987
 20
10.7710150487877
 30
0.0
 10
20.25893828624939
 20
10.76879095192759
 30
0.0
 10
20.28335039652502
 20
10.77162825388376
 30
0.0
 10
20.30307339130839
 20
10.77702017557199
 30
0.0
 10
20.31275102740151
 20
10.78331767122426
 30
0.0
 10
20.31534077655248
 20
10.78500288999688
 30
0.0
  0
LINE
  5
314
330
1F
100
AcDbEntity
  8
0
  6
Continuous
 62
     7
 48
1.5
370
    15
100
AcDbLine
 10
20.1448982387
 20
11.1344992659
 30
0.0
 11
20.1229495433
 21
11.1188184199
 31
0.0
  0
LINE
  5
315
330
1F
100
AcDbEntity
  8
0
  6
Continuous
 62
     7
 48
1.5
370
    15
100
AcDbLine
 10
20.325983211
 20
10.7586757342
 30
0.0
 11
20.3507614157
 21
10.7693375683
 31
0.0
  0
LINE
  5
316
330
1F
100
AcDbEntity
  8
0
  6
Continuous
 62
     7
 48
1.5
370
    15
100
AcDbLine
 10
20.1428783855
 20
11.0985712446
 30
0.0
 11
20.1398556319
 21
11.0968671401
 31
0.0
  0
LINE
  5
317
330
1F
100
AcDbEntity
  8
0
  6
Continuous
 62
     7
 48
1.5
370
    15
100
AcDbLine
 10
20.3159534501
 20
10.7845035155
 30
0.0
 11
20.3189762037
 21
10.78620762
 31
0.0
  0
SPLINE
  5
318
330
1F
100
AcDbEntity
  8
0
  6
Continuous
 62
     7
 48
1.5
370
    15
100
AcDbSpline
210
0.0
220
0.0
230
1.0
 70
     8
 71
     3
 72
    22
 73
    18
 74
     0
 42
0.00000001
 43
0.00000001
 40
0.0
 40
0.0
 40
0.0
 40
0.0
 40
0.0334035183008643
 40
0.0979324606062257
 40
0.160960922177026
 40
0.2245108596475298
 40
0.2904847103432002
 40
0.3603369931319246
 40
0.4341937957070539
 40
0.510329210442571
 40
0.5867277487950948
 40
0.6634070196116552
 40
0.7411105547744895
 40
0.8207430462466023
 40
0.8945364702542375
 40
0.9634884915829212
 40
1.0
 40
1.0
 40
1.0
 40
1.0
 10
20.14804366981299
 20
13.3519752525989
 30
0.0
 10
20.14400722442236
 20
13.34991062790467
 30
0.0
 10
20.13217317072638
 20
13.3438575596406
 30
0.0
 10
20.11646501447577
 20
13.32823984355403
 30
0.0
 10
20.10167029622329
 20
13.30709413042427
 30
0.0
 10
20.09166641109116
 20
13.28303508592269
 30
0.0
 10
20.08612447761823
 20
13.25662982031859
 30
0.0
 10
20.08522972542946
 20
13.22787691634568
 30
0.0
 10
20.08924411155012
 20
13.19725558419684
 30
0.0
 10
20.09825517468724
 20
13.16584175686764
 30
0.0
 10
20.11194379165709
 20
13.13502033009748
 30
0.0
 10
20.12980909384398
 20
13.10599515389406
 30
0.0
 10
20.15149054709992
 20
13.07967164124815
 30
0.0
 10
20.17591046035764
 20
13.0577109694578
 30
0.0
 10
20.20182803700261
 20
13.04127726334244
 30
0.0
 10
20.22430835858285
 20
13.03181026904004
 30
0.0
 10
20.23815393403958
 20
13.02872097757477
 30
0.0
 10
20.24294727678135
 20
13.02765146386128
 30
0.0
  0
SPLINE
  5
319
330
1F
100
AcDbEntity
  8
0
  6
Continuous
 62
     7
 48
1.5
370
    15
100
AcDbSpline
210
0.0
220
0.0
230
1.0
 70
     8
 71
     3
 72
    11
 73
     7
 74
     0
 42
0.00000001
 43
0.00000001
 40
0.0
 40
0.0
 40
0.0
 40
0.0
 40
0.2727753200388354
 40
0.5831428302287117
 40
0.8884485305136243
 40
1.0
 40
1.0
 40
1.0
 40
1.0
 10
20.24294727678135
 20
13.02765146386128
 30
0.0
 10
20.2503875224043
 20
13.0266110795643
 30
0.0
 10
20.26629338181102
 20
13.02438693170745
 30
0.0
 10
20.29070550932615
 20
13.02722423452045
 30
0.0
 10
20.31042847086599
 20
13.03261622964362
 30
0.0
 10
20.32010611827466
 20
13.03891372672914
 30
0.0
 10
20.3226958681168
 20
13.04059894436463
 30
0.0
  0
LINE
  5
31A
330
1F
100
AcDbEntity
  8
0
  6
Continuous
 62
     7
 48
1.5
370
    15
100
AcDbLine
 10
20.1522533302
 20
13.3900953203
 30
0.0
 11
20.1303046349
 21
13.3744144743
 31
0.0
  0
LINE
  5
31B
330
1F
100
AcDbEntity
  8
0
  6
Continuous
 62
     7
 48
1.5
370
    15
100
AcDbLine
 10
20.3333383026
 20
13.0142717886
 30
0.0
 11
20.358116507
 21
13.0249335625
 31
0.0
  0
LINE
  5
31C
330
1F
100
AcDbEntity
  8
0
  6
Continuous
 62
     7
 48
1.5
370
    15
100
AcDbLine
 10
20.150233477
 20
13.354167299
 30
0.0
 11
20.1472107234
 21
13.3524631945
 31
0.0
  0
LINE
  5
31D
330
1F
100
AcDbEntity
  8
0
  6
Continuous
 62
     7
 48
1.5
370
    15
100
AcDbLine
 10
20.3233085417
 20
13.0400995699
 30
0.0
 11
20.3263312953
 21
13.0418036744
 31
0.0
  0
SPLINE
  5
31E
330
1F
100
AcDbEntity
  8
0
  6
Continuous
 62
     7
 48
1.5
370
    15
100
AcDbSpline
210
0.0
220
0.0
230
1.0
 70
     8
 71
     3
 72
    22
 73
    18
 74
     0
 42
0.00000001
 43
0.00000001
 40
0.0
 40
0.0
 40
0.0
 40
0.0
 40
0.033403418768994
 40
0.0979324396680188
 40
0.1609609049218328
 40
0.2245108461058223
 40
0.2904847006566176
 40
0.3603369634581022
 40
0.4341938684491814
 40
0.5103292876336055
 40
0.586727830450412
 40
0.6634069830431113
 40
0.7411103818381903
 40
0.8207430317735235
 40
0.8945362996064842
 40
0.9634886472738786
 40
1.0
 40
1.0
 40
1.0
 40
1.0
 10
21.90630651633186
 20
12.33146511018626
 30
0.0
 10
21.90227009083383
 20
12.32940046955188
 30
0.0
 10
21.89043606272749
 20
12.32334733781225
 30
0.0
 10
21.87472785309149
 20
12.30772973705534
 30
0.0
 10
21.85993314796456
 20
12.28658398011284
 30
0.0
 10
21.8499292501693
 20
12.26252494767533
 30
0.0
 10
21.8443873508124
 20
12.23611967208757
 30
0.0
 10
21.84349246669775
 20
12.20736680153864
 30
0.0
 10
21.84750705004391
 20
12.17674541619008
 30
0.0
 10
21.85651805901942
 20
12.14533158611705
 30
0.0
 10
21.87020669246983
 20
12.11451017729619
 30
0.0
 10
21.88807193431625
 20
12.08548501567023
 30
0.0
 10
21.90975336963489
 20
12.05916148900193
 30
0.0
 10
21.93417326867337
 20
12.0372008587033
 30
0.0
 10
21.96009090065813
 20
12.02076712395531
 30
0.0
 10
21.98257118603723
 20
12.01130010522587
 30
0.0
 10
21.99641679660024
 20
12.00821082498511
 30
0.0
 10
22.00121012330022
 20
12.00714132144864
 30
0.0
  0
SPLINE
  5
31F
330
1F
100
AcDbEntity
  8
0
  6
Continuous
 62
     7
 48
1.5
370
    15
100
AcDbSpline
210
0.0
220
0.0
230
1.0
 70
     8
 71
     3
 72
    11
 73
     7
 74
     0
 42
0.00000001
 43
0.00000001
 40
0.0
 40
0.0
 40
0.0
 40
0.0
 40
0.2727753448836107
 40
0.5831422006718702
 40
0.8884485203533532
 40
1.0
 40
1.0
 40
1.0
 40
1.0
 10
22.00121012330022
 20
12.00714132144864
 30
0.0
 10
22.00865036864869
 20
12.00610093208843
 30
0.0
 10
22.02455620884807
 20
12.00387677601112
 30
0.0
 10
22.04896833849078
 20
12.0067141605192
 30
0.0
 10
22.06869130380851
 20
12.01210607302784
 30
0.0
 10
22.07836896482684
 20
12.01840358320482
 30
0.0
 10
22.08095871463567
 20
12.02008880195199
 30
0.0
  0
LINE
  5
320
330
1F
100
AcDbEntity
  8
0
  6
Continuous
 62
     7
 48
1.5
370
    15
100
AcDbLine
 10
21.9105161252
 20
12.3695852078
 30
0.0
 11
21.888567533
 21
12.3539043019
 31
0.0
  0
LINE
  5
321
330
1F
100
AcDbEntity
  8
0
  6
Continuous
 62
     7
 48
1.5
370
    15
100
AcDbLine
 10
22.0916012007
 20
11.9937616162
 30
0.0
 11
22.1163793536
 21
12.0044234201
 31
0.0
  0
LINE
  5
322
330
1F
100
AcDbEntity
  8
0
  6
Continuous
 62
     7
 48
1.5
370
    15
100
AcDbLine
 10
21.9084963235
 20
12.3336571566
 30
0.0
 11
21.9054735699
 21
12.3319530521
 31
0.0
  0
LINE
  5
323
330
1F
100
AcDbEntity
  8
0
  6
Continuous
 62
     7
 48
1.5
370
    15
100
AcDbLine
 10
22.0815713882
 20
12.0195894274
 30
0.0
 11
22.0845941418
 21
12.021293532
 31
0.0
  0
ARC
  5
324
330
1F
100
AcDbEntity
  8
0
  6
Continuous
 62
     7
 48
2.25
370
    15
100
AcDbCircle
 10
20.0924532199
 20
13.7764998348
 30
0.0
 40
0.0929999999999996
100
AcDbArc
 50
119.4125210371
 51
179.8131694679
  0
LINE
  5
325
330
1F
100
AcDbEntity
  8
0
  6
Continuous
 62
     7
 48
1.5
370
    15
100
AcDbLine
 10
19.9994536504
 20
13.7768030115
 30
0.0
 11
19.9899214522
 21
10.8535506733
 31
0.0
  0
LINE
  5
326
330
1F
100
AcDbEntity
  8
0
  6
Continuous
 62
     7
 48
1.5
370
    15
100
AcDbLine
 10
20.3361108251
 20
14.0206247601
 30
0.0
 11
20.0467815281
 21
13.8575127665
 31
0.0
  0
ARC
  5
327
330
1F
100
AcDbEntity
  8
0
  6
Continuous
 62
     7
 48
2.25
370
    15
100
AcDbCircle
 10
22.4136742448
 20
9.5004591692
 30
0.0
 40
0.0929999999999996
100
AcDbArc
 50
239.8687698654
 51
299.4125210371
  0
LINE
  5
328
330
1F
100
AcDbEntity
  8
0
  6
Continuous
 62
     7
 48
1.5
370
    15
100
AcDbLine
 10
22.4593460932
 20
9.4194463257
 30
0.0
 11
22.7486753902
 21
9.5825583193
 31
0.0
  0
LINE
  5
329
330
1F
100
AcDbEntity
  8
0
  6
Continuous
 62
     7
 48
1.5
370
    15
100
AcDbLine
 10
20.0362367186
 20
10.7728138081
 30
0.0
 11
22.3669899863
 21
9.4200255411
 31
0.0
  0
ARC
  5
32A
330
1F
100
AcDbEntity
  8
0
  6
Continuous
 62
     7
 48
2.25
370
    15
100
AcDbCircle
 10
20.0829210215
 20
10.8532474105
 30
0.0
 40
0.0929999999999994
100
AcDbArc
 50
179.8131694679
 51
239.8687698654
  0
LINE
  5
32B
330
1F
100
AcDbEntity
  8
0
  6
Continuous
 62
     7
 48
1.5
370
    15
100
AcDbLine
 10
24.2649730373
 20
10.4061880461
 30
0.0
 11
24.320421915
 21
10.4374478496
 31
0.0
  0
LINE
  5
32C
330
1F
100
AcDbEntity
  8
0
  6
Continuous
 62
     7
 48
1.5
370
    15
100
AcDbLine
 10
22.32731028
 20
15.1743780733
 30
0.0
 11
22.2718614023
 21
15.1431182697
 31
0.0
  0
ARC
  5
32D
330
1F
100
AcDbEntity
  8
0
  6
Continuous
 62
     7
 48
2.25
370
    15
100
AcDbCircle
 10
24.2842003413
 20
13.4711123601
 30
0.0
 40
0.0930000000000011
100
AcDbArc
 50
359.8131694679
 51
59.8687698654
  0
LINE
  5
32E
330
1F
100
AcDbEntity
  8
0
  6
Continuous
 62
     7
 48
1.5
370
    15
100
AcDbLine
 10
24.3683362493
 20
10.7526108624
 30
0.0
 11
24.3771998032
 21
13.470809156
 31
0.0
  0
LINE
  5
32F
330
1F
100
AcDbEntity
  8
0
  6
Continuous
 62
     7
 48
1.5
370
    15
100
AcDbLine
 10
24.3308846667
 20
13.5515459744
 30
0.0
 11
22.1759577714
 21
14.8022831763
 31
0.0
  0
LINE
  5
330
330
1F
100
AcDbEntity
  8
0
  6
Continuous
 62
     7
 48
1.5
370
    15
100
AcDbLine
 10
22.0836016747
 20
14.8028625174
 30
0.0
 11
20.5326256965
 21
13.9284858592
 31
0.0
  0
LINE
  5
331
330
1F
100
AcDbEntity
  8
0
  6
Continuous
 62
     7
 48
1.5
370
    15
100
AcDbLine
 10
22.768969586
 20
9.796925282
 30
0.0
 11
24.3210085116
 21
10.6719011863
 31
0.0
  0
ARC
  5
332
330
1F
100
AcDbEntity
  8
0
  6
Continuous
 62
     7
 48
2.25
370
    15
100
AcDbCircle
 10
22.1292734021
 20
14.7218495874
 30
0.0
 40
0.0930000000000029
100
AcDbArc
 50
59.8687698654
 51
119.4125210371
  0
ARC
  5
333
330
1F
100
AcDbEntity
  8
0
  6
Continuous
 62
     7
 48
2.25
370
    15
100
AcDbCircle
 10
24.2753367875
 20
10.7529141182
 30
0.0
 40
0.0930000000000029
100
AcDbArc
 50
299.4125210371
 51
359.8131694679
  0
LINE
  5
334
330
1F
100
AcDbEntity
  8
0
  6
Continuous
 62
     7
 48
1.5
370
    15
100
AcDbLine
 10
22.1602233895
 20
11.9832002629
 30
0.0
 11
22.153435488
 21
11.9789322817
 31
0.0
  0
LWPOLYLINE
  5
335
330
1F
100
AcDbEntity
  8
0
  6
Continuous
 62
     7
 48
1.5
370
    15
100
AcDbPolyline
 90
        3
 70
   128
 43
0.0
 10
21.9395515579
 20
12.4322437879
 10
21.9379191286
 20
12.4313927931
 10
21.9363238723
 20
12.4305163659
  0
LINE
  5
336
330
1F
100
AcDbEntity
  8
0
  6
Continuous
 62
     7
 48
1.5
370
    15
100
AcDbLine
 10
20.3946054514
 20
10.7481143509
 30
0.0
 11
20.38781755
 21
10.7438463697
 31
0.0
  0
LWPOLYLINE
  5
337
330
1F
100
AcDbEntity
  8
0
  6
Continuous
 62
     7
 48
1.5
370
    15
100
AcDbPolyline
 90
        3
 70
   128
 43
0.0
 10
20.1739335686
 20
11.1971580262
 10
20.1723011393
 20
11.1963070314
 10
20.1707059342
 20
11.195430454
  0
LINE
  5
338
330
1F
100
AcDbEntity
  8
0
  6
Continuous
 62
     7
 48
1.5
370
    15
100
AcDbLine
 10
20.4019605429
 20
13.0037104053
 30
0.0
 11
20.3951726415
 21
12.9994424241
 31
0.0
  0
LWPOLYLINE
  5
339
330
1F
100
AcDbEntity
  8
0
  6
Continuous
 62
     7
 48
1.5
370
    15
100
AcDbPolyline
 90
        3
 70
   128
 43
0.0
 10
20.1812886598
 20
13.4527539602
 10
20.1796562305
 20
13.4519029654
 10
20.1780610258
 20
13.4510265083
  0
LINE
  5
33A
330
1F
100
AcDbEntity
  8
0
  6
Continuous
 62
     7
 48
1.5
370
    15
100
AcDbLine
 10
22.1528682979
 20
9.7276042085
 30
0.0
 11
22.1460803965
 21
9.7233362273
 31
0.0
  0
LWPOLYLINE
  5
33B
330
1F
100
AcDbEntity
  8
0
  6
Continuous
 62
     7
 48
1.5
370
    15
100
AcDbPolyline
 90
        3
 70
   128
 43
0.0
 10
21.9321964667
 20
10.1766478538
 10
21.9305640374
 20
10.175796859
 10
21.9289687807
 20
10.1749203116
  0
LWPOLYLINE
  5
33C
330
1F
100
AcDbEntity
  8
0
  6
Continuous
 62
     7
 48
1.5
370
    15
100
AcDbPolyline
 90
       24
 70
   128
 43
0.0
 10
21.95547011
 20
9.7968894024
 10
21.9723519945
 20
9.7979960969
 10
21.9861069631
 20
9.8058240001
 10
21.9957151692
 20
9.8197923334
 10
22.0004637689
 20
9.8388652865
 10
22.0000005984
 20
9.8616282491
 10
21.9943601477
 20
9.8863930201
 10
21.9839606602
 20
9.9113227873
 10
21.9695734716
 20
9.9345686408
 10
21.9522654796
 20
9.9544067349
 10
21.9333205004
 20
9.9693655298
 10
21.9141435156
 20
9.9783358438
 10
21.8961568169
 20
9.9806521035
 10
21.8806943449
 20
9.9761428231
 10
21.868902929
 20
9.9651422466
 10
21.861657103
 20
9.9484661491
 10
21.8594942151
 20
9.9273516333
 10
21.862574699
 20
9.9033643641
 10
21.8706700722
 20
9.8782835636
 10
21.883179917
 20
9.8539692199
 10
21.8991764911
 20
9.8322247093
 10
21.9174733767
 20
9.8146627017
 10
21.9367136064
 20
9.8025856738
 10
21.95547011
 20
9.7968894024
  0
LWPOLYLINE
  5
33D
330
1F
100
AcDbEntity
  8
0
  6
Continuous
 62
     7
 48
1.5
370
    15
100
AcDbPolyline
 90
       20
 70
   128
 43
0.0
 10
22.1090242622
 20
9.7488274259
 10
22.1116997126
 20
9.7500450747
 10
22.1301433227
 20
9.7628687305
 10
22.14458561
 20
9.7815576115
 10
22.1545347454
 20
9.8054752855
 10
22.159651993
 20
9.8338071552
 10
22.1597629638
 20
9.8655885165
 10
22.154864025
 20
9.8997369964
 10
22.1451219053
 20
9.9350899033
 10
22.1308684474
 20
9.9704430689
 10
22.1125889636
 20
10.0045927395
 10
22.0909059349
 20
10.0363759516
 10
22.0665577495
 20
10.0647104729
 10
22.0403736048
 20
10.088631244
 10
22.0132451962
 20
10.1073237447
 10
21.9860962683
 20
10.120151429
 10
21.9598513719
 20
10.1266774142
 10
21.9354042374
 20
10.1266795833
 10
21.9135874151
 20
10.1201577202
 10
21.9031610336
 20
10.1139891535
  0
LWPOLYLINE
  5
33E
330
1F
100
AcDbEntity
  8
0
  6
Continuous
 62
     7
 48
1.5
370
    15
100
AcDbPolyline
 90
       25
 70
   128
 43
0.0
 10
22.041256676
 20
9.7329365013
 10
22.065367783
 20
9.7329344165
 10
22.0868848177
 20
9.7393665707
 10
22.1050748635
 20
9.7520140294
 10
22.1193186132
 20
9.7704459628
 10
22.129130984
 20
9.7940349194
 10
22.1341779269
 20
9.8219773212
 10
22.1342873699
 20
9.8533218234
 10
22.1294557291
 20
9.8870010901
 10
22.1198476135
 20
9.9218678822
 10
22.1057899613
 20
9.9567352202
 10
22.0877617298
 20
9.9904155132
 10
22.0663767719
 20
10.021761894
 10
22.0423632924
 20
10.0497068991
 10
22.0165390611
 20
10.0732988514
 10
21.9897835119
 20
10.0917344452
 10
21.9630077063
 20
10.1043858215
 10
21.9371235549
 20
10.1108221687
 10
21.9130124478
 20
10.1108242534
 10
21.8914955163
 20
10.1043920393
 10
21.8733054191
 20
10.0917446707
 10
21.8590616691
 20
10.073312617
 10
21.8492492466
 20
10.0497236904
 10
21.8442024069
 20
10.0217812288
 10
21.8436842465
 20
10.0136403001
  0
ARC
  5
33F
330
1F
100
AcDbEntity
  8
0
  6
Continuous
 62
     7
 48
2.25
370
    15
100
AcDbCircle
 10
22.0655976434
 20
9.8824626432
 30
0.0
 40
0.1514943887899108
100
AcDbArc
 50
238.4493544909
 51
260.7540729778
  0
LWPOLYLINE
  5
340
330
1F
100
AcDbEntity
  8
0
  6
Continuous
 62
     7
 48
1.5
370
    15
100
AcDbPolyline
 90
       17
 70
   128
 43
0.0
 10
22.0772390503
 20
9.7656974776
 10
22.0934603368
 20
9.778970087
 10
22.1056000903
 20
9.7981985884
 10
22.1129740439
 20
9.8224905211
 10
22.1152801834
 20
9.8508514839
 10
22.1124241921
 20
9.8821203657
 10
22.1045230162
 20
9.9150169314
 10
22.0919000761
 20
9.9481944993
 10
22.0750722167
 20
9.9802946402
 10
22.0547282914
 20
10.0100033578
 10
22.0317013279
 20
10.0361041245
 10
22.0069338669
 20
10.0575286124
 10
21.9814399673
 20
10.0733995968
 10
21.9562633663
 20
10.0830673528
 10
21.9324347807
 20
10.0861360049
 10
21.9109297955
 20
10.0824799541
 10
21.901141232
 20
10.0780611022
  0
LINE
  5
341
330
1F
100
AcDbEntity
  8
0
  6
Continuous
 62
     7
 48
1.5
370
    15
100
AcDbLine
 10
21.99305117
 20
9.8651256601
 30
0.0
 11
21.9842524886
 21
9.8970550264
 31
0.0
  0
LINE
  5
342
330
1F
100
AcDbEntity
  8
0
  6
Continuous
 62
     7
 48
1.5
370
    15
100
AcDbLine
 10
21.9842524886
 20
9.8970550264
 30
0.0
 11
21.937287855
 21
9.9031032584
 31
0.0
  0
LINE
  5
343
330
1F
100
AcDbEntity
  8
0
  6
Continuous
 62
     7
 48
1.5
370
    15
100
AcDbLine
 10
21.937287855
 20
9.9031032584
 30
0.0
 11
21.9193134027
 21
9.9683303012
 31
0.0
  0
LINE
  5
344
330
1F
100
AcDbEntity
  8
0
  6
Continuous
 62
     7
 48
1.5
370
    15
100
AcDbLine
 10
21.9193134027
 20
9.9683303012
 30
0.0
 11
21.896323785
 21
9.9712909393
 31
0.0
  0
LINE
  5
345
330
1F
100
AcDbEntity
  8
0
  6
Continuous
 62
     7
 48
1.5
370
    15
100
AcDbLine
 10
21.896323785
 20
9.9712909393
 30
0.0
 11
21.9142982884
 21
9.9060637462
 31
0.0
  0
LINE
  5
346
330
1F
100
AcDbEntity
  8
0
  6
Continuous
 62
     7
 48
1.5
370
    15
100
AcDbLine
 10
21.9142982884
 20
9.9060637462
 30
0.0
 11
21.8673337063
 21
9.9121119483
 31
0.0
  0
LINE
  5
347
330
1F
100
AcDbEntity
  8
0
  6
Continuous
 62
     7
 48
1.5
370
    15
100
AcDbLine
 10
21.8673337063
 20
9.9121119483
 30
0.0
 11
21.8761324392
 21
9.8801825521
 31
0.0
  0
LINE
  5
348
330
1F
100
AcDbEntity
  8
0
  6
Continuous
 62
     7
 48
1.5
370
    15
100
AcDbLine
 10
21.8761324392
 20
9.8801825521
 30
0.0
 11
21.9230969702
 21
9.8741345003
 31
0.0
  0
LINE
  5
349
330
1F
100
AcDbEntity
  8
0
  6
Continuous
 62
     7
 48
1.5
370
    15
100
AcDbLine
 10
21.9230969702
 20
9.8741345003
 30
0.0
 11
21.9410714225
 21
9.8089074574
 31
0.0
  0
LINE
  5
34A
330
1F
100
AcDbEntity
  8
0
  6
Continuous
 62
     7
 48
1.5
370
    15
100
AcDbLine
 10
21.9410714225
 20
9.8089074574
 30
0.0
 11
21.9640610917
 21
9.8059467894
 31
0.0
  0
LINE
  5
34B
330
1F
100
AcDbEntity
  8
0
  6
Continuous
 62
     7
 48
1.5
370
    15
100
AcDbLine
 10
21.9640610917
 20
9.8059467894
 30
0.0
 11
21.9460866395
 21
9.8711738323
 31
0.0
  0
LINE
  5
34C
330
1F
100
AcDbEntity
  8
0
  6
Continuous
 62
     7
 48
1.5
370
    15
100
AcDbLine
 10
21.9460866395
 20
9.8711738323
 30
0.0
 11
21.99305117
 21
9.8651256601
 31
0.0
  0
LINE
  5
34D
330
1F
100
AcDbEntity
  8
0
  6
Continuous
 62
     7
 48
1.5
370
    15
100
AcDbLine
 10
21.9574104734
 20
9.8181187444
 30
0.0
 11
21.9608281189
 21
9.8176785547
 31
0.0
  0
LINE
  5
34E
330
1F
100
AcDbEntity
  8
0
  6
Continuous
 62
     7
 48
1.5
370
    15
100
AcDbLine
 10
21.9394360211
 20
9.8833457872
 30
0.0
 11
21.9574104734
 21
9.8181187444
 31
0.0
  0
LINE
  5
34F
330
1F
100
AcDbEntity
  8
0
  6
Continuous
 62
     7
 48
1.5
370
    15
100
AcDbLine
 10
21.8924714902
 20
9.889393839
 30
0.0
 11
21.9394360211
 21
9.8833457872
 31
0.0
  0
LINE
  5
350
330
1F
100
AcDbEntity
  8
0
  6
Continuous
 62
     7
 48
1.5
370
    15
100
AcDbLine
 10
21.8869056954
 20
9.909591383
 30
0.0
 11
21.8924714902
 21
9.889393839
 31
0.0
  0
LINE
  5
351
330
1F
100
AcDbEntity
  8
0
  6
Continuous
 62
     7
 48
1.5
370
    15
100
AcDbLine
 10
21.9158957224
 20
9.968770404
 30
0.0
 11
21.9306373394
 21
9.9152750331
 31
0.0
  0
LINE
  5
352
330
1F
100
AcDbEntity
  8
0
  6
Continuous
 62
     7
 48
1.5
370
    15
100
AcDbLine
 10
21.9624256904
 20
9.8803851192
 30
0.0
 11
21.9898181975
 21
9.8768575457
 31
0.0
  0
LINE
  5
353
330
1F
100
AcDbEntity
  8
0
  6
Continuous
 62
     7
 48
1.5
370
    15
100
AcDbLine
 10
21.9624256904
 20
9.8803851192
 30
0.0
 11
21.9460866395
 21
9.8711738323
 31
0.0
  0
LINE
  5
354
330
1F
100
AcDbEntity
  8
0
  6
Continuous
 62
     7
 48
1.5
370
    15
100
AcDbLine
 10
21.9306373394
 20
9.9152750331
 30
0.0
 11
21.9142982884
 21
9.9060637462
 31
0.0
  0
LINE
  5
355
330
1F
100
AcDbEntity
  8
0
  6
Continuous
 62
     7
 48
1.5
370
    15
100
AcDbLine
 10
21.9574104734
 20
9.8181187444
 30
0.0
 11
21.9410714225
 21
9.8089074574
 31
0.0
  0
LINE
  5
356
330
1F
100
AcDbEntity
  8
0
  6
Continuous
 62
     7
 48
1.5
370
    15
100
AcDbLine
 10
21.8924714902
 20
9.889393839
 30
0.0
 11
21.8761324392
 21
9.8801825521
 31
0.0
  0
LINE
  5
357
330
1F
100
AcDbEntity
  8
0
  6
Continuous
 62
     7
 48
1.5
370
    15
100
AcDbLine
 10
21.9394360211
 20
9.8833457872
 30
0.0
 11
21.9230969702
 21
9.8741345003
 31
0.0
  0
LWPOLYLINE
  5
358
330
1F
100
AcDbEntity
  8
0
  6
Continuous
 62
     7
 48
1.5
370
    15
100
AcDbPolyline
 90
       24
 70
   128
 43
0.0
 10
20.1941945467
 20
10.8178779401
 10
20.2114783109
 20
10.8178500963
 10
20.2258288836
 20
10.824592043
 10
20.2361819847
 20
10.8376037506
 10
20.2417698143
 20
10.8559201144
 10
20.2421779195
 20
10.8781826846
 10
20.2373760103
 20
10.9027403766
 10
20.2277202186
 20
10.9277719393
 10
20.2139267202
 20
10.951420825
 10
20.1970184967
 20
10.9719331158
 10
20.1782495417
 20
10.9877875691
 10
20.1590118043
 20
10.9978082038
 10
20.1407322321
 20
11.0012518981
 10
20.1247662985
 20
10.997863318
 10
20.1122983342
 20
10.9878935942
 10
20.1042529025
 20
10.9720823392
 10
20.1012268233
 20
10.951602127
 10
20.1034443485
 20
10.9279719401
 10
20.1107411891
 20
10.9029441072
 10
20.1225760809
 20
10.878375017
 10
20.1380712587
 20
10.8560868872
 10
20.1560775371
 20
10.8377326066
 10
20.1752594813
 20
10.824673505
 10
20.1941945467
 20
10.8178779401
  0
LWPOLYLINE
  5
359
330
1F
100
AcDbEntity
  8
0
  6
Continuous
 62
     7
 48
1.5
370
    15
100
AcDbPolyline
 90
       19
 70
   128
 43
0.0
 10
20.3507614157
 20
10.7693375683
 10
20.3677134019
 20
10.7796772307
 10
20.38318618
 20
10.7969818235
 10
20.394272713
 20
10.8196883035
 10
20.4005953357
 20
10.8470234702
 10
20.4019387931
 20
10.878056583
 10
20.3982573703
 20
10.9117306578
 10
20.3896764068
 20
10.946899071
 10
20.3764880821
 20
10.9823641635
 10
20.3591415759
 20
11.0169181442
 10
20.3382275465
 20
11.0493845204
 10
20.3144582104
 20
11.0786575014
 10
20.2886429745
 20
11.1037403665
 10
20.2616610033
 20
11.123778864
 10
20.2344311895
 20
11.1380905718
 10
20.2078806581
 20
11.1461881803
 10
20.1829136094
 20
11.1477960087
 10
20.1603802945
 20
11.1428592142
 10
20.1448982387
 20
11.1344992659
  0
LWPOLYLINE
  5
35A
330
1F
100
AcDbEntity
  8
0
  6
Continuous
 62
     7
 48
1.5
370
    15
100
AcDbPolyline
 90
       25
 70
   128
 43
0.0
 10
20.2767882555
 20
10.7544322996
 10
20.3014121144
 20
10.7528466105
 10
20.3236356883
 20
10.7577155028
 10
20.3427022066
 20
10.7688732989
 10
20.3579623512
 20
10.7859400933
 10
20.3688964137
 20
10.8083344442
 10
20.3751321897
 20
10.8352939625
 10
20.3764572037
 20
10.8659003956
 10
20.372826358
 20
10.8991117081
 10
20.3643633373
 20
10.9337966998
 10
20.3513562926
 20
10.9687742714
 10
20.3342482062
 20
11.0028534264
 10
20.3136216238
 20
11.0348735294
 10
20.2901789942
 20
11.0637441611
 10
20.2647186074
 20
11.0884822245
 10
20.2381075234
 20
11.1082453141
 10
20.2112519022
 20
11.1223603267
 10
20.1850663341
 20
11.1303466854
 10
20.1604424236
 20
11.1319324044
 10
20.1382189524
 20
11.1270633319
 10
20.1191524341
 20
11.1159055359
 10
20.10389229
 20
11.0988388618
 10
20.0929581756
 20
11.0764444204
 10
20.0867224515
 20
11.0494849926
 10
20.0852976127
 20
11.0300207972
  0
LWPOLYLINE
  5
35B
330
1F
100
AcDbEntity
  8
0
  6
Continuous
 62
     7
 48
1.5
370
    15
100
AcDbPolyline
 90
        3
 70
   128
 43
0.0
 10
20.2352093155
 20
10.7697984486
 10
20.250602687
 20
10.7624185379
 10
20.2767882555
 20
10.7544322996
  0
LWPOLYLINE
  5
35C
330
1F
100
AcDbEntity
  8
0
  6
Continuous
 62
     7
 48
1.5
370
    15
100
AcDbPolyline
 90
       17
 70
   128
 43
0.0
 10
20.3189762037
 20
10.78620762
 10
20.3318839816
 20
10.795963774
 10
20.3450261545
 20
10.8139466126
 10
20.3534971559
 20
10.8371878073
 10
20.3569501049
 20
10.8647359919
 10
20.3552436163
 20
10.8954634002
 10
20.3484476864
 20
10.9281119853
 10
20.3368403995
 20
10.9613449877
 10
20.3208970493
 20
10.9938020614
 10
20.3012703207
 20
11.0241541656
 10
20.2787637039
 20
11.0511588893
 10
20.2542986902
 20
11.0737105862
 10
20.2288768386
 20
11.0908859545
 10
20.2035389219
 20
11.1019819098
 10
20.1793223901
 20
11.1065440109
 10
20.1572184413
 20
11.1043857108
 10
20.1428783855
 20
11.0985712446
  0
LINE
  5
35D
330
1F
100
AcDbEntity
  8
0
  6
Continuous
 62
     7
 48
1.5
370
    15
100
AcDbLine
 10
20.2352159689
 20
10.8820550846
 30
0.0
 11
20.2274659587
 21
10.9138177578
 31
0.0
  0
LINE
  5
35E
330
1F
100
AcDbEntity
  8
0
  6
Continuous
 62
     7
 48
1.5
370
    15
100
AcDbLine
 10
20.2274659587
 20
10.9138177578
 30
0.0
 11
20.179736556
 21
10.9228095511
 31
0.0
  0
LINE
  5
35F
330
1F
100
AcDbEntity
  8
0
  6
Continuous
 62
     7
 48
1.5
370
    15
100
AcDbLine
 10
20.179736556
 20
10.9228095511
 30
0.0
 11
20.1639043791
 21
10.9876964121
 31
0.0
  0
LINE
  5
360
330
1F
100
AcDbEntity
  8
0
  6
Continuous
 62
     7
 48
1.5
370
    15
100
AcDbLine
 10
20.1639043791
 20
10.9876964121
 30
0.0
 11
20.1405403371
 21
10.9920979363
 31
0.0
  0
LINE
  5
361
330
1F
100
AcDbEntity
  8
0
  6
Continuous
 62
     7
 48
1.5
370
    15
100
AcDbLine
 10
20.1405403371
 20
10.9920979363
 30
0.0
 11
20.1563726175
 21
10.9272111356
 31
0.0
  0
LINE
  5
362
330
1F
100
AcDbEntity
  8
0
  6
Continuous
 62
     7
 48
1.5
370
    15
100
AcDbLine
 10
20.1563726175
 20
10.9272111356
 30
0.0
 11
20.1086432148
 21
10.9362029289
 31
0.0
  0
LINE
  5
363
330
1F
100
AcDbEntity
  8
0
  6
Continuous
 62
     7
 48
1.5
370
    15
100
AcDbLine
 10
20.1086432148
 20
10.9362029289
 30
0.0
 11
20.1163932762
 21
10.9044401055
 31
0.0
  0
LINE
  5
364
330
1F
100
AcDbEntity
  8
0
  6
Continuous
 62
     7
 48
1.5
370
    15
100
AcDbLine
 10
20.1163932762
 20
10.9044401055
 30
0.0
 11
20.1641225757
 21
10.8954483721
 31
0.0
  0
LINE
  5
365
330
1F
100
AcDbEntity
  8
0
  6
Continuous
 62
     7
 48
1.5
370
    15
100
AcDbLine
 10
20.1641225757
 20
10.8954483721
 30
0.0
 11
20.1799547526
 21
10.8305615111
 31
0.0
  0
LINE
  5
366
330
1F
100
AcDbEntity
  8
0
  6
Continuous
 62
     7
 48
1.5
370
    15
100
AcDbLine
 10
20.1799547526
 20
10.8305615111
 30
0.0
 11
20.2033187946
 21
10.8261599869
 31
0.0
  0
LINE
  5
367
330
1F
100
AcDbEntity
  8
0
  6
Continuous
 62
     7
 48
1.5
370
    15
100
AcDbLine
 10
20.2033187946
 20
10.8261599869
 30
0.0
 11
20.1874866178
 21
10.891046848
 31
0.0
  0
LINE
  5
368
330
1F
100
AcDbEntity
  8
0
  6
Continuous
 62
     7
 48
1.5
370
    15
100
AcDbLine
 10
20.1874866178
 20
10.891046848
 30
0.0
 11
20.2352159689
 21
10.8820550846
 31
0.0
  0
LINE
  5
369
330
1F
100
AcDbEntity
  8
0
  6
Continuous
 62
     7
 48
1.5
370
    15
100
AcDbLine
 10
20.1962938035
 20
10.839772798
 30
0.0
 11
20.2001756576
 21
10.8390414834
 31
0.0
  0
LINE
  5
36A
330
1F
100
AcDbEntity
  8
0
  6
Continuous
 62
     7
 48
1.5
370
    15
100
AcDbLine
 10
20.1804616266
 20
10.904659659
 30
0.0
 11
20.1962938035
 21
10.839772798
 31
0.0
  0
LINE
  5
36B
330
1F
100
AcDbEntity
  8
0
  6
Continuous
 62
     7
 48
1.5
370
    15
100
AcDbLine
 10
20.1327323271
 20
10.9136513925
 30
0.0
 11
20.1804616266
 21
10.904659659
 31
0.0
  0
LINE
  5
36C
330
1F
100
AcDbEntity
  8
0
  6
Continuous
 62
     7
 48
1.5
370
    15
100
AcDbLine
 10
20.128125368
 20
10.9325326324
 30
0.0
 11
20.1327323271
 21
10.9136513925
 31
0.0
  0
LINE
  5
36D
330
1F
100
AcDbEntity
  8
0
  6
Continuous
 62
     7
 48
1.5
370
    15
100
AcDbLine
 10
20.1600224903
 20
10.9884276398
 30
0.0
 11
20.1727116684
 21
10.9364224226
 31
0.0
  0
LINE
  5
36E
330
1F
100
AcDbEntity
  8
0
  6
Continuous
 62
     7
 48
1.5
370
    15
100
AcDbLine
 10
20.2038256687
 20
10.9002581349
 30
0.0
 11
20.2320728319
 21
10.8949365811
 31
0.0
  0
LINE
  5
36F
330
1F
100
AcDbEntity
  8
0
  6
Continuous
 62
     7
 48
1.5
370
    15
100
AcDbLine
 10
20.2038256687
 20
10.9002581349
 30
0.0
 11
20.1874866178
 21
10.891046848
 31
0.0
  0
LINE
  5
370
330
1F
100
AcDbEntity
  8
0
  6
Continuous
 62
     7
 48
1.5
370
    15
100
AcDbLine
 10
20.1727116684
 20
10.9364224226
 30
0.0
 11
20.1563726175
 21
10.9272111356
 31
0.0
  0
LINE
  5
371
330
1F
100
AcDbEntity
  8
0
  6
Continuous
 62
     7
 48
1.5
370
    15
100
AcDbLine
 10
20.1962938035
 20
10.839772798
 30
0.0
 11
20.1799547526
 21
10.8305615111
 31
0.0
  0
LINE
  5
372
330
1F
100
AcDbEntity
  8
0
  6
Continuous
 62
     7
 48
1.5
370
    15
100
AcDbLine
 10
20.1327323271
 20
10.9136513925
 30
0.0
 11
20.1163932762
 21
10.9044401055
 31
0.0
  0
LINE
  5
373
330
1F
100
AcDbEntity
  8
0
  6
Continuous
 62
     7
 48
1.5
370
    15
100
AcDbLine
 10
20.1804616266
 20
10.904659659
 30
0.0
 11
20.1641225757
 21
10.8954483721
 31
0.0
  0
LWPOLYLINE
  5
374
330
1F
100
AcDbEntity
  8
0
  6
Continuous
 62
     7
 48
1.5
370
    15
100
AcDbPolyline
 90
       24
 70
   128
 43
0.0
 10
20.2015496382
 20
13.0734739945
 10
20.2188334024
 20
13.0734461507
 10
20.2331839751
 20
13.0801880974
 10
20.2435370763
 20
13.093199805
 10
20.2491249055
 20
13.1115160485
 10
20.2495330111
 20
13.1337787389
 10
20.2447311018
 20
13.158336431
 10
20.2350753101
 20
13.1833679937
 10
20.2212818118
 20
13.2070168794
 10
20.2043735882
 20
13.2275291702
 10
20.1856046329
 20
13.2433835032
 10
20.1663668958
 20
13.2534042581
 10
20.1480873233
 20
13.2568478322
 10
20.1321213896
 20
13.2534592521
 10
20.1196534257
 20
13.2434896486
 10
20.1116079941
 20
13.2276783935
 10
20.1085819148
 20
13.2071981814
 10
20.1107994397
 20
13.1835678741
 10
20.1180962807
 20
13.1585401615
 10
20.1299311724
 20
13.1339710714
 10
20.1454263499
 20
13.1116828212
 10
20.1634326287
 20
13.093328661
 10
20.1826145724
 20
13.0802694391
 10
20.2015496382
 20
13.0734739945
  0
LWPOLYLINE
  5
375
330
1F
100
AcDbEntity
  8
0
  6
Continuous
 62
     7
 48
1.5
370
    15
100
AcDbPolyline
 90
       19
 70
   128
 43
0.0
 10
20.358116507
 20
13.0249335625
 10
20.3750684934
 20
13.0352732851
 10
20.3905412716
 20
13.0525778778
 10
20.4016278046
 20
13.0752843579
 10
20.4079504272
 20
13.1026195246
 10
20.4092938842
 20
13.133652517
 10
20.4056124614
 20
13.1673265918
 10
20.397031498
 20
13.2024950051
 10
20.3838431733
 20
13.2379600976
 10
20.3664966674
 20
13.2725141985
 10
20.3455826376
 20
13.3049804545
 10
20.321813302
 20
13.3342535557
 10
20.2959980661
 20
13.3593364209
 10
20.2690160949
 20
13.3793749184
 10
20.2417862807
 20
13.3936865059
 10
20.2152357494
 20
13.4017841745
 10
20.1902687008
 20
13.4033920029
 10
20.1677353858
 20
13.3984552085
 10
20.1522533302
 20
13.3900953203
  0
LWPOLYLINE
  5
376
330
1F
100
AcDbEntity
  8
0
  6
Continuous
 62
     7
 48
1.5
370
    15
100
AcDbPolyline
 90
       25
 70
   128
 43
0.0
 10
20.2841433467
 20
13.0100282337
 10
20.3087672056
 20
13.0084425445
 10
20.3309907799
 20
13.0133115572
 10
20.3500572982
 20
13.0244693532
 10
20.3653174424
 20
13.0415360273
 10
20.3762515052
 20
13.0639304986
 10
20.3824872808
 20
13.0908898965
 10
20.3838122953
 20
13.12149645
 10
20.3801814492
 20
13.1547076421
 10
20.3717184284
 20
13.1893926339
 10
20.3587113842
 20
13.2243703257
 10
20.3416032975
 20
13.2584494206
 10
20.320976715
 20
13.2904694635
 10
20.2975340858
 20
13.3193402155
 10
20.2720736989
 20
13.3440782789
 10
20.2454626145
 20
13.3638412482
 10
20.2186069937
 20
13.3779563811
 10
20.1924214253
 20
13.3859426194
 10
20.1677975148
 20
13.3875283385
 10
20.145574044
 20
13.3826593863
 10
20.1265075257
 20
13.3715015902
 10
20.1112473812
 20
13.3544347958
 10
20.1003132671
 20
13.3320404748
 10
20.0940775427
 20
13.3050809266
 10
20.0926527038
 20
13.2856167313
  0
LWPOLYLINE
  5
377
330
1F
100
AcDbEntity
  8
0
  6
Continuous
 62
     7
 48
1.5
370
    15
100
AcDbPolyline
 90
        3
 70
   128
 43
0.0
 10
20.2425644068
 20
13.0253944429
 10
20.2579577786
 20
13.0180145923
 10
20.2841433467
 20
13.0100282337
  0
LWPOLYLINE
  5
378
330
1F
100
AcDbEntity
  8
0
  6
Continuous
 62
     7
 48
1.5
370
    15
100
AcDbPolyline
 90
       17
 70
   128
 43
0.0
 10
20.3263312953
 20
13.0418036744
 10
20.3392390728
 20
13.051559708
 10
20.3523812457
 20
13.0695425467
 10
20.3608522475
 20
13.0927838617
 10
20.3643051965
 20
13.1203320462
 10
20.3625987078
 20
13.1510594545
 10
20.3558027776
 20
13.1837079194
 10
20.344195491
 20
13.2169410421
 10
20.3282521404
 20
13.2493979954
 10
20.3086254123
 20
13.2797502199
 10
20.2861187954
 20
13.3067549437
 10
20.2616537818
 20
13.3293066406
 10
20.23623193
 20
13.3464819487
 10
20.2108940134
 20
13.3575779642
 10
20.1866774817
 20
13.3621400653
 10
20.1645735329
 20
13.3599817652
 10
20.150233477
 20
13.354167299
  0
LINE
  5
379
330
1F
100
AcDbEntity
  8
0
  6
Continuous
 62
     7
 48
1.5
370
    15
100
AcDbLine
 10
20.2425710601
 20
13.1376510187
 30
0.0
 11
20.2348210503
 21
13.1694138121
 31
0.0
  0
LINE
  5
37A
330
1F
100
AcDbEntity
  8
0
  6
Continuous
 62
     7
 48
1.5
370
    15
100
AcDbLine
 10
20.2348210503
 20
13.1694138121
 30
0.0
 11
20.1870916475
 21
13.1784056054
 31
0.0
  0
LINE
  5
37B
330
1F
100
AcDbEntity
  8
0
  6
Continuous
 62
     7
 48
1.5
370
    15
100
AcDbLine
 10
20.1870916475
 20
13.1784056054
 30
0.0
 11
20.1712594706
 21
13.2432924665
 31
0.0
  0
LINE
  5
37C
330
1F
100
AcDbEntity
  8
0
  6
Continuous
 62
     7
 48
1.5
370
    15
100
AcDbLine
 10
20.1712594706
 20
13.2432924665
 30
0.0
 11
20.1478954286
 21
13.2476939906
 31
0.0
  0
LINE
  5
37D
330
1F
100
AcDbEntity
  8
0
  6
Continuous
 62
     7
 48
1.5
370
    15
100
AcDbLine
 10
20.1478954286
 20
13.2476939906
 30
0.0
 11
20.1637277087
 21
13.1828070697
 31
0.0
  0
LINE
  5
37E
330
1F
100
AcDbEntity
  8
0
  6
Continuous
 62
     7
 48
1.5
370
    15
100
AcDbLine
 10
20.1637277087
 20
13.1828070697
 30
0.0
 11
20.1159983059
 21
13.191798863
 31
0.0
  0
LINE
  5
37F
330
1F
100
AcDbEntity
  8
0
  6
Continuous
 62
     7
 48
1.5
370
    15
100
AcDbLine
 10
20.1159983059
 20
13.191798863
 30
0.0
 11
20.1237483677
 21
13.1600361599
 31
0.0
  0
LINE
  5
380
330
1F
100
AcDbEntity
  8
0
  6
Continuous
 62
     7
 48
1.5
370
    15
100
AcDbLine
 10
20.1237483677
 20
13.1600361599
 30
0.0
 11
20.1714776673
 21
13.1510444265
 31
0.0
  0
LINE
  5
381
330
1F
100
AcDbEntity
  8
0
  6
Continuous
 62
     7
 48
1.5
370
    15
100
AcDbLine
 10
20.1714776673
 20
13.1510444265
 30
0.0
 11
20.1873098442
 21
13.0861575654
 31
0.0
  0
LINE
  5
382
330
1F
100
AcDbEntity
  8
0
  6
Continuous
 62
     7
 48
1.5
370
    15
100
AcDbLine
 10
20.1873098442
 20
13.0861575654
 30
0.0
 11
20.2106738862
 21
13.0817560413
 31
0.0
  0
LINE
  5
383
330
1F
100
AcDbEntity
  8
0
  6
Continuous
 62
     7
 48
1.5
370
    15
100
AcDbLine
 10
20.2106738862
 20
13.0817560413
 30
0.0
 11
20.1948417089
 21
13.146642782
 31
0.0
  0
LINE
  5
384
330
1F
100
AcDbEntity
  8
0
  6
Continuous
 62
     7
 48
1.5
370
    15
100
AcDbLine
 10
20.1948417089
 20
13.146642782
 30
0.0
 11
20.2425710601
 21
13.1376510187
 31
0.0
  0
LINE
  5
385
330
1F
100
AcDbEntity
  8
0
  6
Continuous
 62
     7
 48
1.5
370
    15
100
AcDbLine
 10
20.2036488951
 20
13.0953688523
 30
0.0
 11
20.2075307492
 21
13.0946375378
 31
0.0
  0
LINE
  5
386
330
1F
100
AcDbEntity
  8
0
  6
Continuous
 62
     7
 48
1.5
370
    15
100
AcDbLine
 10
20.1878167182
 20
13.1602557134
 30
0.0
 11
20.2036488951
 21
13.0953688523
 31
0.0
  0
LINE
  5
387
330
1F
100
AcDbEntity
  8
0
  6
Continuous
 62
     7
 48
1.5
370
    15
100
AcDbLine
 10
20.1400874186
 20
13.1692474468
 30
0.0
 11
20.1878167182
 21
13.1602557134
 31
0.0
  0
LINE
  5
388
330
1F
100
AcDbEntity
  8
0
  6
Continuous
 62
     7
 48
1.5
370
    15
100
AcDbLine
 10
20.1354804591
 20
13.1881285665
 30
0.0
 11
20.1400874186
 21
13.1692474468
 31
0.0
  0
LINE
  5
389
330
1F
100
AcDbEntity
  8
0
  6
Continuous
 62
     7
 48
1.5
370
    15
100
AcDbLine
 10
20.1673775818
 20
13.2440236941
 30
0.0
 11
20.1800667596
 21
13.1920183566
 31
0.0
  0
LINE
  5
38A
330
1F
100
AcDbEntity
  8
0
  6
Continuous
 62
     7
 48
1.5
370
    15
100
AcDbLine
 10
20.2111807598
 20
13.155854069
 30
0.0
 11
20.2394279235
 21
13.1505326355
 31
0.0
  0
LINE
  5
38B
330
1F
100
AcDbEntity
  8
0
  6
Continuous
 62
     7
 48
1.5
370
    15
100
AcDbLine
 10
20.2111807598
 20
13.155854069
 30
0.0
 11
20.1948417089
 21
13.146642782
 31
0.0
  0
LINE
  5
38C
330
1F
100
AcDbEntity
  8
0
  6
Continuous
 62
     7
 48
1.5
370
    15
100
AcDbLine
 10
20.1800667596
 20
13.1920183566
 30
0.0
 11
20.1637277087
 21
13.1828070697
 31
0.0
  0
LINE
  5
38D
330
1F
100
AcDbEntity
  8
0
  6
Continuous
 62
     7
 48
1.5
370
    15
100
AcDbLine
 10
20.2036488951
 20
13.0953688523
 30
0.0
 11
20.1873098442
 21
13.0861575654
 31
0.0
  0
LINE
  5
38E
330
1F
100
AcDbEntity
  8
0
  6
Continuous
 62
     7
 48
1.5
370
    15
100
AcDbLine
 10
20.1400874186
 20
13.1692474468
 30
0.0
 11
20.1237483677
 21
13.1600361599
 31
0.0
  0
LINE
  5
38F
330
1F
100
AcDbEntity
  8
0
  6
Continuous
 62
     7
 48
1.5
370
    15
100
AcDbLine
 10
20.1878167182
 20
13.1602557134
 30
0.0
 11
20.1714776673
 21
13.1510444265
 31
0.0
  0
LWPOLYLINE
  5
390
330
1F
100
AcDbEntity
  8
0
  6
Continuous
 62
     7
 48
1.5
370
    15
100
AcDbPolyline
 90
       24
 70
   128
 43
0.0
 10
21.9598124848
 20
12.0529638521
 10
21.9770961974
 20
12.0529360382
 10
21.9914468217
 20
12.059677955
 10
22.0017999228
 20
12.0726896626
 10
22.0073877004
 20
12.091005936
 10
22.0077958576
 20
12.1132685965
 10
22.0029938968
 20
12.1378263185
 10
21.9933382082
 20
12.1628578213
 10
21.9795446068
 20
12.1865067669
 10
21.9626363832
 20
12.2070190577
 10
21.9438674278
 20
12.2228733907
 10
21.9246297939
 20
12.2328940858
 10
21.9063501183
 20
12.2363377197
 10
21.8903842361
 20
12.2329491097
 10
21.8779162723
 20
12.2229795062
 10
21.8698708922
 20
12.2071682212
 10
21.8668447098
 20
12.1866880689
 10
21.8690622862
 20
12.1630577317
 10
21.8763590756
 20
12.1380300491
 10
21.8881939674
 20
12.1134609589
 10
21.9036891449
 20
12.0911727088
 10
21.9216954752
 20
12.0728185186
 10
21.9408774705
 20
12.0597592668
 10
21.9598124848
 20
12.0529638521
  0
LWPOLYLINE
  5
391
330
1F
100
AcDbEntity
  8
0
  6
Continuous
 62
     7
 48
1.5
370
    15
100
AcDbPolyline
 90
       19
 70
   128
 43
0.0
 10
22.1163793536
 20
12.0044234201
 10
22.13333134
 20
12.0147631427
 10
22.1488041181
 20
12.0320677354
 10
22.1598906511
 20
12.0547742155
 10
22.1662132738
 20
12.0821093822
 10
22.1675567823
 20
12.1131423447
 10
22.1638753595
 20
12.1468164195
 10
22.1552943445
 20
12.1819848627
 10
22.1421060198
 20
12.2174499552
 10
22.1247595139
 20
12.2520040561
 10
22.1038454326
 20
12.284470342
 10
22.0800761485
 20
12.3137434133
 10
22.0542609126
 20
12.3388262785
 10
22.027278993
 20
12.358864746
 10
22.0000490757
 20
12.3731763934
 10
21.9734985444
 20
12.3812740621
 10
21.9485315473
 20
12.3828818605
 10
21.9259982324
 20
12.3779450661
 10
21.9105161252
 20
12.3695852078
  0
LWPOLYLINE
  5
392
330
1F
100
AcDbEntity
  8
0
  6
Continuous
 62
     7
 48
1.5
370
    15
100
AcDbPolyline
 90
       25
 70
   128
 43
0.0
 10
22.0424061932
 20
11.9895180912
 10
22.0670301037
 20
11.9879323722
 10
22.0892535748
 20
11.9928014447
 10
22.1083200931
 20
12.0039592408
 10
22.1235802373
 20
12.0210259148
 10
22.1345143517
 20
12.0434203562
 10
22.1407500758
 20
12.0703797841
 10
22.1420751418
 20
12.1009863076
 10
22.1384442957
 20
12.1341974997
 10
22.1299812749
 20
12.1688824914
 10
22.1169741791
 20
12.2038602132
 10
22.0998660925
 20
12.2379393081
 10
22.0792395099
 20
12.269959351
 10
22.0557969323
 20
12.2988300731
 10
22.0303364939
 20
12.3235681664
 10
22.0037254095
 20
12.3433311357
 10
21.9768698402
 20
12.3574462387
 10
21.9506842718
 20
12.365432477
 10
21.9260604129
 20
12.3670181662
 10
21.9038368389
 20
12.3621492738
 10
21.8847703207
 20
12.3509914778
 10
21.8695101761
 20
12.3339246834
 10
21.8585761136
 20
12.3115303324
 10
21.8523403376
 20
12.2845708142
 10
21.850961219
 20
12.2670051035
  0
LWPOLYLINE
  5
393
330
1F
100
AcDbEntity
  8
0
  6
Continuous
 62
     7
 48
1.5
370
    15
100
AcDbPolyline
 90
        3
 70
   128
 43
0.0
 10
22.0008273049
 20
12.0048842705
 10
22.0162206251
 20
11.9975044499
 10
22.0424061932
 20
11.9895180912
  0
LWPOLYLINE
  5
394
330
1F
100
AcDbEntity
  8
0
  6
Continuous
 62
     7
 48
1.5
370
    15
100
AcDbPolyline
 90
       17
 70
   128
 43
0.0
 10
22.0845941418
 20
12.021293532
 10
22.0975018677
 20
12.0310495956
 10
22.1106441438
 20
12.0490323744
 10
22.119115094
 20
12.0722737193
 10
22.1225679914
 20
12.0998219338
 10
22.1208616059
 20
12.1305492822
 10
22.1140656241
 20
12.163197777
 10
22.1024583376
 20
12.1964308997
 10
22.0865149354
 20
12.228887883
 10
22.0668882588
 20
12.2592400775
 10
22.0443816935
 20
12.2862447713
 10
22.0199166799
 20
12.3087964683
 10
21.994494828
 20
12.3259717764
 10
21.9691569115
 20
12.3370677919
 10
21.9449402766
 20
12.3416299528
 10
21.9228363794
 20
12.3394716227
 10
21.9084963235
 20
12.3336571566
  0
LINE
  5
395
330
1F
100
AcDbEntity
  8
0
  6
Continuous
 62
     7
 48
1.5
370
    15
100
AcDbLine
 10
22.0008339066
 20
12.1171408763
 30
0.0
 11
21.9930838452
 21
12.1489036997
 31
0.0
  0
LINE
  5
396
330
1F
100
AcDbEntity
  8
0
  6
Continuous
 62
     7
 48
1.5
370
    15
100
AcDbLine
 10
21.9930838452
 20
12.1489036997
 30
0.0
 11
21.9453545456
 21
12.1578954331
 31
0.0
  0
LINE
  5
397
330
1F
100
AcDbEntity
  8
0
  6
Continuous
 62
     7
 48
1.5
370
    15
100
AcDbLine
 10
21.9453545456
 20
12.1578954331
 30
0.0
 11
21.9295223687
 21
12.2227822941
 31
0.0
  0
LINE
  5
398
330
1F
100
AcDbEntity
  8
0
  6
Continuous
 62
     7
 48
1.5
370
    15
100
AcDbLine
 10
21.9295223687
 20
12.2227822941
 30
0.0
 11
21.9061583267
 21
12.2271838183
 31
0.0
  0
LINE
  5
399
330
1F
100
AcDbEntity
  8
0
  6
Continuous
 62
     7
 48
1.5
370
    15
100
AcDbLine
 10
21.9061583267
 20
12.2271838183
 30
0.0
 11
21.9219905036
 21
12.1622969572
 31
0.0
  0
LINE
  5
39A
330
1F
100
AcDbEntity
  8
0
  6
Continuous
 62
     7
 48
1.5
370
    15
100
AcDbLine
 10
21.9219905036
 20
12.1622969572
 30
0.0
 11
21.8742611525
 21
12.1712887206
 31
0.0
  0
LINE
  5
39B
330
1F
100
AcDbEntity
  8
0
  6
Continuous
 62
     7
 48
1.5
370
    15
100
AcDbLine
 10
21.8742611525
 20
12.1712887206
 30
0.0
 11
21.8820111627
 21
12.1395260474
 31
0.0
  0
LINE
  5
39C
330
1F
100
AcDbEntity
  8
0
  6
Continuous
 62
     7
 48
1.5
370
    15
100
AcDbLine
 10
21.8820111627
 20
12.1395260474
 30
0.0
 11
21.9297405654
 21
12.1305342541
 31
0.0
  0
LINE
  5
39D
330
1F
100
AcDbEntity
  8
0
  6
Continuous
 62
     7
 48
1.5
370
    15
100
AcDbLine
 10
21.9297405654
 20
12.1305342541
 30
0.0
 11
21.9455727423
 21
12.0656473931
 31
0.0
  0
LINE
  5
39E
330
1F
100
AcDbEntity
  8
0
  6
Continuous
 62
     7
 48
1.5
370
    15
100
AcDbLine
 10
21.9455727423
 20
12.0656473931
 30
0.0
 11
21.9689367843
 21
12.0612458689
 31
0.0
  0
LINE
  5
39F
330
1F
100
AcDbEntity
  8
0
  6
Continuous
 62
     7
 48
1.5
370
    15
100
AcDbLine
 10
21.9689367843
 20
12.0612458689
 30
0.0
 11
21.9531045039
 21
12.1261326696
 31
0.0
  0
LINE
  5
3A0
330
1F
100
AcDbEntity
  8
0
  6
Continuous
 62
     7
 48
1.5
370
    15
100
AcDbLine
 10
21.9531045039
 20
12.1261326696
 30
0.0
 11
22.0008339066
 21
12.1171408763
 31
0.0
  0
LINE
  5
3A1
330
1F
100
AcDbEntity
  8
0
  6
Continuous
 62
     7
 48
1.5
370
    15
100
AcDbLine
 10
21.9619117932
 20
12.07485868
 30
0.0
 11
21.9657936473
 21
12.0741273655
 31
0.0
  0
LINE
  5
3A2
330
1F
100
AcDbEntity
  8
0
  6
Continuous
 62
     7
 48
1.5
370
    15
100
AcDbLine
 10
21.9460796163
 20
12.1397455411
 30
0.0
 11
21.9619117932
 21
12.07485868
 31
0.0
  0
LINE
  5
3A3
330
1F
100
AcDbEntity
  8
0
  6
Continuous
 62
     7
 48
1.5
370
    15
100
AcDbLine
 10
21.8983502136
 20
12.1487373343
 30
0.0
 11
21.9460796163
 21
12.1397455411
 31
0.0
  0
LINE
  5
3A4
330
1F
100
AcDbEntity
  8
0
  6
Continuous
 62
     7
 48
1.5
370
    15
100
AcDbLine
 10
21.8937432541
 20
12.167618454
 30
0.0
 11
21.8983502136
 21
12.1487373343
 31
0.0
  0
LINE
  5
3A5
330
1F
100
AcDbEntity
  8
0
  6
Continuous
 62
     7
 48
1.5
370
    15
100
AcDbLine
 10
21.9256404283
 20
12.2235135517
 30
0.0
 11
21.9383295545
 21
12.1715082441
 31
0.0
  0
LINE
  5
3A6
330
1F
100
AcDbEntity
  8
0
  6
Continuous
 62
     7
 48
1.5
370
    15
100
AcDbLine
 10
21.9694435548
 20
12.1353439565
 30
0.0
 11
21.99769077
 21
12.1300224931
 31
0.0
  0
LINE
  5
3A7
330
1F
100
AcDbEntity
  8
0
  6
Continuous
 62
     7
 48
1.5
370
    15
100
AcDbLine
 10
21.9694435548
 20
12.1353439565
 30
0.0
 11
21.9531045039
 21
12.1261326696
 31
0.0
  0
LINE
  5
3A8
330
1F
100
AcDbEntity
  8
0
  6
Continuous
 62
     7
 48
1.5
370
    15
100
AcDbLine
 10
21.9383295545
 20
12.1715082441
 30
0.0
 11
21.9219905036
 21
12.1622969572
 31
0.0
  0
LINE
  5
3A9
330
1F
100
AcDbEntity
  8
0
  6
Continuous
 62
     7
 48
1.5
370
    15
100
AcDbLine
 10
21.9619117932
 20
12.07485868
 30
0.0
 11
21.9455727423
 21
12.0656473931
 31
0.0
  0
LINE
  5
3AA
330
1F
100
AcDbEntity
  8
0
  6
Continuous
 62
     7
 48
1.5
370
    15
100
AcDbLine
 10
21.9460796163
 20
12.1397455411
 30
0.0
 11
21.9297405654
 21
12.1305342541
 31
0.0
  0
LINE
  5
3AB
330
1F
100
AcDbEntity
  8
0
  6
Continuous
 62
     7
 48
1.5
370
    15
100
AcDbLine
 10
21.8983502136
 20
12.1487373343
 30
0.0
 11
21.8820111627
 21
12.1395260474
 31
0.0
  0
ARC
  5
3AC
330
1F
100
AcDbEntity
  8
0
  6
Continuous
 62
     7
 48
2.25
370
    15
100
AcDbCircle
 10
22.345937056
 20
12.3800760946
 30
0.0
 40
0.1427895603453855
100
AcDbArc
 50
2.2767577017
 51
57.1197913364
  0
ARC
  5
3AD
330
1F
100
AcDbEntity
  8
0
  6
Continuous
 62
     7
 48
2.25
370
    15
100
AcDbCircle
 10
22.4235283581
 20
12.5142894121
 30
0.0
 40
0.1440793635343895
100
AcDbArc
 50
242.5423724541
 51
296.8549864915
  0
ARC
  5
3AE
330
1F
100
AcDbEntity
  8
0
  6
Continuous
 62
     7
 48
2.25
370
    15
100
AcDbCircle
 10
22.4988688223
 20
12.3797524897
 30
0.0
 40
0.141932030607096
100
AcDbArc
 50
122.0957413793
 51
177.2992375914
  0
LINE
  5
3AF
330
1F
100
AcDbEntity
  8
0
  6
Continuous
 62
     7
 48
1.5
370
    15
100
AcDbLine
 10
22.479081699
 20
9.4624962803
 30
0.0
 11
22.4886138972
 21
12.3857486186
 31
0.0
  0
ARC
  5
3B0
330
1F
100
AcDbEntity
  8
0
  6
Continuous
 62
     7
 48
2.25
370
    15
100
AcDbCircle
 10
22.4139961599
 20
9.5910370739
 30
0.0
 40
0.1440793635344117
100
AcDbArc
 50
242.5423724541
 51
296.8549864915
  0
LINE
  5
3B1
330
1F
100
AcDbEntity
  8
0
  6
Continuous
 62
     7
 48
1.5
370
    15
100
AcDbLine
 10
22.357094443
 20
12.3864402904
 30
0.0
 11
22.3475622448
 21
9.4631879522
 31
0.0
  0
LINE
  5
3B2
330
1F
100
AcDbEntity
  8
0
  6
Continuous
 62
     7
 48
1.5
370
    15
100
AcDbLine
 10
22.7779431941
 20
12.5488606122
 30
0.0
 11
22.4886138972
 21
12.3857486186
 31
0.0
  0
LINE
  5
3B3
330
1F
100
AcDbEntity
  8
0
  6
Continuous
 62
     7
 48
1.5
370
    15
100
AcDbLine
 10
22.4234552797
 20
12.4999918297
 30
0.0
 11
22.7127845767
 21
12.6631038233
 31
0.0
  0
ARC
  5
3B4
330
1F
100
AcDbEntity
  8
0
  6
Continuous
 62
     7
 48
2.25
370
    15
100
AcDbCircle
 10
22.6352663529
 20
12.5431880882
 30
0.0
 40
0.1427895603453824
100
AcDbArc
 50
2.2767577017
 51
57.1197913364
  0
ARC
  5
3B5
330
1F
100
AcDbEntity
  8
0
  6
Continuous
 62
     7
 48
2.25
370
    15
100
AcDbCircle
 10
20.1681155547
 20
13.7325407567
 30
0.0
 40
0.1419320306071265
100
AcDbArc
 50
122.0957413793
 51
177.2992375914
  0
LINE
  5
3B6
330
1F
100
AcDbEntity
  8
0
  6
Continuous
 62
     7
 48
1.5
370
    15
100
AcDbLine
 10
22.4234552797
 20
12.4999918297
 30
0.0
 11
20.092702012
 21
13.8527800968
 31
0.0
  0
LINE
  5
3B7
330
1F
100
AcDbEntity
  8
0
  6
Continuous
 62
     7
 48
1.5
370
    15
100
AcDbLine
 10
20.0263411753
 20
13.7392285574
 30
0.0
 11
22.357094443
 21
12.3864402904
 31
0.0
  0
LINE
  5
3B8
330
1F
100
AcDbEntity
  8
0
  6
Continuous
 62
     7
 48
1.5
370
    15
100
AcDbLine
 10
22.768410996
 20
9.6256082739
 30
0.0
 11
22.7779431941
 21
12.5488606122
 31
0.0
  0
LINE
  5
3B9
330
1F
100
AcDbEntity
  8
0
  6
Continuous
 62
     7
 48
1.5
370
    15
100
AcDbLine
 10
22.479081699
 20
9.4624962803
 30
0.0
 11
22.768410996
 21
9.6256082739
 31
0.0
  0
LINE
  5
3BA
330
1F
100
AcDbEntity
  8
0
  6
Continuous
 62
     7
 48
1.5
370
    15
100
AcDbLine
 10
22.3475622448
 20
9.4631879522
 30
0.0
 11
20.0168089772
 21
10.8159762192
 31
0.0
  0
LINE
  5
3BB
330
1F
100
AcDbEntity
  8
0
  6
Continuous
 62
     7
 48
1.5
370
    15
100
AcDbLine
 10
20.0168089772
 20
10.8159762192
 30
0.0
 11
20.0263411753
 21
13.7392285574
 31
0.0
  0
ARC
  5
3BC
330
1F
100
AcDbEntity
  8
0
  6
Continuous
 62
     7
 48
2.25
370
    15
100
AcDbCircle
 10
21.5760434124
 20
11.8207827718
 30
0.0
 40
0.7037216217779959
100
AcDbArc
 50
187.496577812
 51
231.9000234514
  0
LINE
  5
3BD
330
1F
100
AcDbEntity
  8
0
  6
Continuous
 62
     7
 48
1.5
370
    15
100
AcDbLine
 10
21.1418221524
 20
11.2669994042
 30
0.0
 11
21.1416578502
 21
11.2166126481
 31
0.0
  0
LINE
  5
3BE
330
1F
100
AcDbEntity
  8
0
  6
Continuous
 62
     7
 48
1.5
370
    15
100
AcDbLine
 10
21.1416578502
 20
11.2166126481
 30
0.0
 11
21.2295709913
 21
11.1655871418
 31
0.0
  0
LINE
  5
3BF
330
1F
100
AcDbEntity
  8
0
  6
Continuous
 62
     7
 48
1.5
370
    15
100
AcDbLine
 10
21.2295709913
 20
11.1655871418
 30
0.0
 11
21.2297352934
 21
11.2159738978
 31
0.0
  0
ARC
  5
3C0
330
1F
100
AcDbEntity
  8
0
  6
Continuous
 62
     7
 48
2.25
370
    15
100
AcDbCircle
 10
21.3140486831
 20
11.3764396333
 30
0.0
 40
0.1812677575743486
100
AcDbArc
 50
242.2812508488
 51
358.2547729435
  0
LINE
  5
3C1
330
1F
100
AcDbEntity
  8
0
  6
Continuous
 62
     7
 48
1.5
370
    15
100
AcDbLine
 10
21.4952323562
 20
11.3709190787
 30
0.0
 11
21.5384371131
 21
11.3458426843
 31
0.0
  0
LINE
  5
3C2
330
1F
100
AcDbEntity
  8
0
  6
Continuous
 62
     7
 48
1.5
370
    15
100
AcDbLine
 10
21.5384371131
 20
11.3458426843
 30
0.0
 11
21.5387714354
 21
11.4483697743
 31
0.0
  0
LINE
  5
3C3
330
1F
100
AcDbEntity
  8
0
  6
Continuous
 62
     7
 48
1.5
370
    15
100
AcDbLine
 10
21.5387714354
 20
11.4483697743
 30
0.0
 11
21.4955666785
 21
11.4734461687
 31
0.0
  0
ARC
  5
3C4
330
1F
100
AcDbEntity
  8
0
  6
Continuous
 62
     7
 48
2.25
370
    15
100
AcDbCircle
 10
20.7978600077
 20
11.3816337378
 30
0.0
 40
0.703721621777996
100
AcDbArc
 50
7.496577812
 51
51.9000234514
  0
LINE
  5
3C5
330
1F
100
AcDbEntity
  8
0
  6
Continuous
 62
     7
 48
1.5
370
    15
100
AcDbLine
 10
21.2320812678
 20
11.9354171054
 30
0.0
 11
21.2322455699
 21
11.9858038615
 31
0.0
  0
LINE
  5
3C6
330
1F
100
AcDbEntity
  8
0
  6
Continuous
 62
     7
 48
1.5
370
    15
100
AcDbLine
 10
21.2322455699
 20
11.9858038615
 30
0.0
 11
21.1443324289
 21
12.0368293678
 31
0.0
  0
LINE
  5
3C7
330
1F
100
AcDbEntity
  8
0
  6
Continuous
 62
     7
 48
1.5
370
    15
100
AcDbLine
 10
21.1443324289
 20
12.0368293678
 30
0.0
 11
21.1441681268
 21
11.9864426118
 31
0.0
  0
ARC
  5
3C8
330
1F
100
AcDbEntity
  8
0
  6
Continuous
 62
     7
 48
2.25
370
    15
100
AcDbCircle
 10
21.0598547371
 20
11.8259768763
 30
0.0
 40
0.1812677575743455
100
AcDbArc
 50
62.2812508488
 51
178.2547729435
  0
LINE
  5
3C9
330
1F
100
AcDbEntity
  8
0
  6
Continuous
 62
     7
 48
1.5
370
    15
100
AcDbLine
 10
20.878671064
 20
11.8314974309
 30
0.0
 11
20.8354663071
 21
11.8565738253
 31
0.0
  0
LINE
  5
3CA
330
1F
100
AcDbEntity
  8
0
  6
Continuous
 62
     7
 48
1.5
370
    15
100
AcDbLine
 10
20.8354663071
 20
11.8565738253
 30
0.0
 11
20.8351319848
 21
11.7540467353
 31
0.0
  0
LINE
  5
3CB
330
1F
100
AcDbEntity
  8
0
  6
Continuous
 62
     7
 48
1.5
370
    15
100
AcDbLine
 10
20.8351319848
 20
11.7540467353
 30
0.0
 11
20.8783367416
 21
11.7289703409
 31
0.0
  0
LINE
  5
3CC
330
1F
100
AcDbEntity
  8
0
  6
Continuous
 62
     7
 48
1.5
370
    15
100
AcDbLine
 10
20.382031309
 20
14.0158920904
 30
0.0
 11
20.092702012
 21
13.8527800968
 31
0.0
  0
LINE
  5
3CD
330
1F
100
AcDbEntity
  8
0
  6
Continuous
 62
     7
 48
1.5
370
    15
100
AcDbLine
 10
22.7127845767
 20
12.6631038233
 30
0.0
 11
20.382031309
 21
14.0158920904
 31
0.0
  0
LINE
  5
3CE
330
1F
100
AcDbEntity
  8
0
  6
Continuous
 62
     7
 48
1.5
370
    15
100
AcDbLine
 10
21.5385985278
 20
11.395367148
 30
0.0
 11
21.4952323562
 21
11.3709190787
 31
0.0
  0
LINE
  5
3CF
330
1F
100
AcDbEntity
  8
0
  6
Continuous
 62
     7
 48
1.5
370
    15
100
AcDbLine
 10
21.1882893612
 20
12.0113163545
 30
0.0
 11
21.1441681268
 21
11.9864426118
 31
0.0
  0
LINE
  5
3D0
330
1F
100
AcDbEntity
  8
0
  6
Continuous
 62
     7
 48
1.5
370
    15
100
AcDbLine
 10
21.2851841385
 20
11.247233683
 30
0.0
 11
21.2297352934
 21
11.2159738978
 31
0.0
  0
ARC
  5
3D1
330
1F
100
AcDbEntity
  8
0
  6
Continuous
 62
     7
 48
2.25
370
    15
100
AcDbCircle
 10
21.3763126408
 20
11.4421750616
 30
0.0
 40
0.2151895560347546
100
AcDbArc
 50
244.9455012124
 51
284.5967242798
  0
LINE
  5
3D2
330
1F
100
AcDbEntity
  8
0
  6
Continuous
 62
     7
 48
1.5
370
    15
100
AcDbLine
 10
20.9341199091
 20
11.862757216
 30
0.0
 11
20.878671064
 21
11.8314974309
 31
0.0
  0
ARC
  5
3D3
330
1F
100
AcDbEntity
  8
0
  6
Continuous
 62
     7
 48
2.25
370
    15
100
AcDbCircle
 10
21.1488021618
 20
11.8451471118
 30
0.0
 40
0.2154033087138148
100
AcDbArc
 50
134.133881547
 51
175.3106012524
  0
ARC
  5
3D4
330
1F
100
AcDbEntity
  8
0
  6
Continuous
 62
     7
 48
2.25
370
    15
100
AcDbCircle
 10
20.3549419969
 20
13.9781945907
 30
0.0
 40
0.0464212485103534
100
AcDbArc
 50
54.2990873131
 51
113.9323957009
  0
ARC
  5
3D5
330
1F
100
AcDbEntity
  8
0
  6
Continuous
 62
     7
 48
2.25
370
    15
100
AcDbCircle
 10
22.7237555512
 20
9.6200311691
 30
0.0
 40
0.045002364843964
100
AcDbArc
 50
303.6243236773
 51
7.118919748
  0
LINE
  5
3D6
330
1F
100
AcDbEntity
  8
0
  6
Continuous
 62
     7
 48
1.5
370
    15
100
AcDbLine
 10
20.9337855867
 20
11.7602301261
 30
0.0
 11
20.8783367416
 21
11.7289703409
 31
0.0
  0
LINE
  5
3D7
330
1F
100
AcDbEntity
  8
0
  6
Continuous
 62
     7
 48
1.5
370
    15
100
AcDbLine
 10
21.1972709974
 20
11.2982591894
 30
0.0
 11
21.1418221524
 21
11.2669994042
 31
0.0
  0
ARC
  5
3D8
330
1F
100
AcDbEntity
  8
0
  6
Continuous
 62
     7
 48
2.25
370
    15
100
AcDbCircle
 10
21.6314922575
 20
11.852042557
 30
0.0
 40
0.703721621777996
100
AcDbArc
 50
187.496577812
 51
231.9000234514
  0
LINE
  5
3D9
330
1F
100
AcDbEntity
  8
0
  6
Continuous
 62
     7
 48
1.5
370
    15
100
AcDbLine
 10
21.1971066953
 20
11.2478724333
 30
0.0
 11
21.1416578502
 21
11.2166126481
 31
0.0
  0
LINE
  5
3DA
330
1F
100
AcDbEntity
  8
0
  6
Continuous
 62
     7
 48
1.5
370
    15
100
AcDbLine
 10
21.1971066953
 20
11.2478724333
 30
0.0
 11
21.2410628656
 21
11.2223599124
 31
0.0
  0
LINE
  5
3DB
330
1F
100
AcDbEntity
  8
0
  6
Continuous
 62
     7
 48
1.5
370
    15
100
AcDbLine
 10
20.8905808299
 20
11.7853065205
 30
0.0
 11
20.8351319848
 21
11.7540467353
 31
0.0
  0
LINE
  5
3DC
330
1F
100
AcDbEntity
  8
0
  6
Continuous
 62
     7
 48
1.5
370
    15
100
AcDbLine
 10
20.8907536617
 20
11.8383091101
 30
0.0
 11
20.8905808299
 21
11.7853065205
 31
0.0
  0
LINE
  5
3DD
330
1F
100
AcDbEntity
  8
0
  6
Continuous
 62
     7
 48
1.5
370
    15
100
AcDbLine
 10
21.1972709974
 20
11.2982591894
 30
0.0
 11
21.1971066953
 21
11.2478724333
 31
0.0
  0
LINE
  5
3DE
330
1F
100
AcDbEntity
  8
0
  6
Continuous
 62
     7
 48
1.5
370
    15
100
AcDbLine
 10
20.8905808299
 20
11.7853065205
 30
0.0
 11
20.9337855867
 21
11.7602301261
 31
0.0
  0
LINE
  5
3DF
330
1F
100
AcDbEntity
  8
0
  6
Continuous
 62
     7
 48
1.5
370
    15
100
AcDbLine
 10
24.3180257807
 20
10.5219136271
 30
0.0
 11
24.3185102705
 21
10.6704927714
 31
0.0
  0
LWPOLYLINE
  5
3E0
330
1F
100
AcDbEntity
  8
0
  6
Continuous
 62
     7
 48
1.5
370
    15
100
AcDbPolyline
 90
       10
 70
   128
 43
0.0
 10
24.1415308669
 20
10.4189104675
 10
24.1720728738
 20
10.4043047454
 10
24.2017072586
 20
10.3963732995
 10
24.2295335312
 20
10.3953569947
 10
24.2547062201
 20
10.4012868681
 10
24.2764603949
 20
10.4139826943
 10
24.2941351437
 20
10.4330587622
 10
24.3071934534
 20
10.4579353577
 10
24.3152384933
 20
10.4878566714
 10
24.3180257807
 20
10.5219136271
  0
LINE
  5
3E1
330
1F
100
AcDbEntity
  8
0
  6
Continuous
 62
     7
 48
1.5
370
    15
100
AcDbLine
 10
24.00885043
 20
10.4959192786
 30
0.0
 11
24.1415308669
 21
10.4189104675
 31
0.0
  0
LWPOLYLINE
  5
3E2
330
1F
100
AcDbEntity
  8
0
  6
Continuous
 62
     7
 48
1.5
370
    15
100
AcDbPolyline
 90
        8
 70
   128
 43
0.0
 10
24.0881277789
 20
10.5406126137
 10
24.09786714
 20
10.5342369014
 10
24.1178092505
 20
10.5257284867
 10
24.1364123056
 20
10.5239205795
 10
24.1524085545
 20
10.5289362449
 10
24.1647078807
 20
10.5404338737
 10
24.1724719744
 20
10.5576299378
 10
24.1751719155
 20
10.5793523473
  0
LINE
  5
3E3
330
1F
100
AcDbEntity
  8
0
  6
Continuous
 62
     7
 48
1.5
370
    15
100
AcDbLine
 10
24.1751719155
 20
10.5793523473
 30
0.0
 11
24.1752056689
 21
10.5897035488
 31
0.0
  0
LINE
  5
3E4
330
1F
100
AcDbEntity
  8
0
  6
Continuous
 62
     7
 48
1.5
370
    15
100
AcDbLine
 10
24.3768178817
 20
11.5784443152
 30
0.0
 11
24.3710185394
 21
11.5751748839
 31
0.0
  0
LINE
  5
3E5
330
1F
100
AcDbEntity
  8
0
  6
Continuous
 62
     7
 48
1.5
370
    15
100
AcDbLine
 10
24.3734746584
 20
10.5531734306
 30
0.0
 11
24.3768178817
 21
11.5784443152
 31
0.0
  0
LINE
  5
3E6
330
1F
100
AcDbEntity
  8
0
  6
Continuous
 62
     7
 48
1.5
370
    15
100
AcDbLine
 10
24.3734746584
 20
10.5531734306
 30
0.0
 11
24.3180257807
 21
10.5219136271
 31
0.0
  0
LINE
  5
3E7
330
1F
100
AcDbEntity
  8
0
  6
Continuous
 62
     7
 48
1.5
370
    15
100
AcDbLine
 10
24.3768178817
 20
11.5784443152
 30
0.0
 11
24.3710401279
 21
11.5817977708
 31
0.0
  0
ARC
  5
3E8
330
1F
100
AcDbEntity
  8
0
  6
Continuous
 62
     7
 48
2.25
370
    15
100
AcDbCircle
 10
24.2472606326
 20
10.5410110245
 30
0.0
 40
0.1267986767337261
100
AcDbArc
 50
305.2389542517
 51
5.5042179399
  0
LWPOLYLINE
  5
3E9
330
1F
100
AcDbEntity
  8
0
  6
Continuous
 62
     7
 48
1.5
370
    15
100
AcDbPolyline
 90
        3
 70
   128
 43
0.0
 10
24.1435766566
 20
10.5718724172
 10
24.1533160177
 20
10.565496705
 10
24.1723643201
 20
10.5572341957
  0
LINE
  5
3EA
330
1F
100
AcDbEntity
  8
0
  6
Continuous
 62
     7
 48
1.5
370
    15
100
AcDbLine
 10
24.2090153485
 20
14.1411454796
 30
0.0
 11
24.1535664708
 21
14.109885676
 31
0.0
  0
ARC
  5
3EB
330
1F
100
AcDbEntity
  8
0
  6
Continuous
 62
     7
 48
2.25
370
    15
100
AcDbCircle
 10
24.0021946022
 20
13.8196819234
 30
0.0
 40
0.3822481379960649
100
AcDbArc
 50
2.1527076845
 51
57.2438935789
  0
LINE
  5
3EC
330
1F
100
AcDbEntity
  8
0
  6
Continuous
 62
     7
 48
1.5
370
    15
100
AcDbLine
 10
24.384172973
 20
13.8340403094
 30
0.0
 11
24.3287240954
 21
13.8027805059
 31
0.0
  0
ARC
  5
3ED
330
1F
100
AcDbEntity
  8
0
  6
Continuous
 62
     7
 48
2.25
370
    15
100
AcDbCircle
 10
23.9467457246
 20
13.7884221199
 30
0.0
 40
0.3822481379960354
100
AcDbArc
 50
2.1527076845
 51
57.2438935789
  0
LWPOLYLINE
  5
3EE
330
1F
100
AcDbEntity
  8
0
  6
Continuous
 62
     7
 48
1.5
370
    15
100
AcDbPolyline
 90
       13
 70
   128
 43
0.0
 10
24.1858702302
 20
13.8602192261
 10
24.183170289
 20
13.8384968166
 10
24.1754061953
 20
13.8213007525
 10
24.1631068692
 20
13.8098031237
 10
24.1471106202
 20
13.8047874583
 10
24.1285075652
 20
13.8065953655
 10
24.108565455
 20
13.8151039005
 10
24.0886433027
 20
13.8297329096
 10
24.0700987112
 20
13.8494858004
 10
24.0541955973
 20
13.8730161171
 10
24.0420176321
 20
13.898720566
 10
24.0343947031
 20
13.924847384
 10
24.0318464122
 20
13.9496159103
  0
LINE
  5
3EF
330
1F
100
AcDbEntity
  8
0
  6
Continuous
 62
     7
 48
1.5
370
    15
100
AcDbLine
 10
24.186036054
 20
13.9110726446
 30
0.0
 11
24.1858702302
 21
13.8602192261
 31
0.0
  0
LWPOLYLINE
  5
3F0
330
1F
100
AcDbEntity
  8
0
  6
Continuous
 62
     7
 48
1.5
370
    15
100
AcDbPolyline
 90
       13
 70
   128
 43
0.0
 10
24.032012236
 20
14.0004693288
 10
24.0347121256
 20
14.0221917682
 10
24.0424763225
 20
14.0393877724
 10
24.054775597
 20
14.0508854311
 10
24.0707717944
 20
14.0559011265
 10
24.089374901
 20
14.0540931894
 10
24.1093170116
 20
14.0455847746
 10
24.1292391635
 20
14.0309556453
 10
24.1477837034
 20
14.0112027844
 10
24.1636868689
 20
13.9876724378
 10
24.1758648857
 20
13.9619679589
 10
24.1834877115
 20
13.9358412008
 10
24.186036054
 20
13.9110726446
  0
LINE
  5
3F1
330
1F
100
AcDbEntity
  8
0
  6
Continuous
 62
     7
 48
1.5
370
    15
100
AcDbLine
 10
24.0318464122
 20
13.9496159103
 30
0.0
 11
24.032012236
 21
14.0004693288
 31
0.0
  0
LINE
  5
3F2
330
1F
100
AcDbEntity
  8
0
  6
Continuous
 62
     7
 48
1.5
370
    15
100
AcDbLine
 10
22.2188086589
 20
15.0273926888
 30
0.0
 11
22.2179950575
 21
14.777884428
 31
0.0
  0
LWPOLYLINE
  5
3F3
330
1F
100
AcDbEntity
  8
0
  6
Continuous
 62
     7
 48
1.5
370
    15
100
AcDbPolyline
 90
       10
 70
   128
 43
0.0
 10
22.3953035727
 20
15.1303958484
 10
22.3647615658
 20
15.1450015704
 10
22.335127181
 20
15.1529330164
 10
22.3073009084
 20
15.1539493212
 10
22.2821282195
 20
15.1480194477
 10
22.2603740447
 20
15.1353236216
 10
22.2426992959
 20
15.1162475537
 10
22.2296409862
 20
15.0913709581
 10
22.2215959463
 20
15.0614496445
 10
22.2188086589
 20
15.0273926888
  0
LINE
  5
3F4
330
1F
100
AcDbEntity
  8
0
  6
Continuous
 62
     7
 48
1.5
370
    15
100
AcDbLine
 10
24.1535664708
 20
14.109885676
 30
0.0
 11
22.3953035727
 21
15.1303958484
 31
0.0
  0
LINE
  5
3F5
330
1F
100
AcDbEntity
  8
0
  6
Continuous
 62
     7
 48
1.5
370
    15
100
AcDbLine
 10
24.3287240954
 20
13.8027805059
 30
0.0
 11
24.327910494
 21
13.5532722452
 31
0.0
  0
LWPOLYLINE
  5
3F6
330
1F
100
AcDbEntity
  8
0
  6
Continuous
 62
     7
 48
1.5
370
    15
100
AcDbPolyline
 90
       13
 70
   128
 43
0.0
 10
22.5156863421
 20
14.8805572844
 10
22.5131380512
 20
14.9053258107
 10
22.5055151222
 20
14.9314526287
 10
22.493337157
 20
14.9571570776
 10
22.477434043
 20
14.9806873943
 10
22.4588894516
 20
15.0004402851
 10
22.4389672996
 20
15.0150694144
 10
22.4190251891
 20
15.0235778292
 10
22.400422134
 20
15.0253857364
 10
22.3844258851
 20
15.0203700709
 10
22.372126559
 20
15.0088724422
 10
22.3643624652
 20
14.991676378
 10
22.3616625241
 20
14.9699539686
  0
LINE
  5
3F7
330
1F
100
AcDbEntity
  8
0
  6
Continuous
 62
     7
 48
1.5
370
    15
100
AcDbLine
 10
22.3616625241
 20
14.9699539686
 30
0.0
 11
22.3614967003
 21
14.9191005501
 31
0.0
  0
LWPOLYLINE
  5
3F8
330
1F
100
AcDbEntity
  8
0
  6
Continuous
 62
     7
 48
1.5
370
    15
100
AcDbPolyline
 90
       13
 70
   128
 43
0.0
 10
22.3614967003
 20
14.9191005501
 10
22.3640450427
 20
14.8943319939
 10
22.3716678686
 20
14.8682052357
 10
22.3838458854
 20
14.8425007568
 10
22.3997490509
 20
14.8189704102
 10
22.4182935907
 20
14.7992175494
 10
22.4382157431
 20
14.7845885403
 10
22.4581578532
 20
14.7760800053
 10
22.4767609599
 20
14.7742720681
 10
22.4927571572
 20
14.7792877635
 10
22.5050564318
 20
14.7907854222
 10
22.5128206287
 20
14.8079814265
 10
22.5155205182
 20
14.8297038659
  0
LINE
  5
3F9
330
1F
100
AcDbEntity
  8
0
  6
Continuous
 62
     7
 48
1.5
370
    15
100
AcDbLine
 10
22.5155205182
 20
14.8297038659
 30
0.0
 11
22.5156863421
 21
14.8805572844
 31
0.0
  0
LINE
  5
3FA
330
1F
100
AcDbEntity
  8
0
  6
Continuous
 62
     7
 48
1.5
370
    15
100
AcDbLine
 10
24.3808297497
 20
12.8087694248
 30
0.0
 11
24.3750304075
 21
12.8054999935
 31
0.0
  0
LINE
  5
3FB
330
1F
100
AcDbEntity
  8
0
  6
Continuous
 62
     7
 48
1.5
370
    15
100
AcDbLine
 10
24.384172973
 20
13.8340403094
 30
0.0
 11
24.3808297497
 21
12.8087694248
 31
0.0
  0
LINE
  5
3FC
330
1F
100
AcDbEntity
  8
0
  6
Continuous
 62
     7
 48
1.5
370
    15
100
AcDbLine
 10
22.4507524504
 20
15.1616556519
 30
0.0
 11
22.3953035727
 21
15.1303958484
 31
0.0
  0
LINE
  5
3FD
330
1F
100
AcDbEntity
  8
0
  6
Continuous
 62
     7
 48
1.5
370
    15
100
AcDbLine
 10
24.2090153485
 20
14.1411454796
 30
0.0
 11
22.4507524504
 21
15.1616556519
 31
0.0
  0
LINE
  5
3FE
330
1F
100
AcDbEntity
  8
0
  6
Continuous
 62
     7
 48
1.5
370
    15
100
AcDbLine
 10
24.0874611137
 20
14.0317291323
 30
0.0
 11
24.032012236
 21
14.0004693288
 31
0.0
  0
LWPOLYLINE
  5
3FF
330
1F
100
AcDbEntity
  8
0
  6
Continuous
 62
     7
 48
1.5
370
    15
100
AcDbPolyline
 90
        3
 70
   128
 43
0.0
 10
24.0874611137
 20
14.0317291323
 10
24.0901610032
 20
14.0534515717
 10
24.0902686878
 20
14.0538473058
  0
LINE
  5
400
330
1F
100
AcDbEntity
  8
0
  6
Continuous
 62
     7
 48
1.5
370
    15
100
AcDbLine
 10
24.0872952899
 20
13.9808757138
 30
0.0
 11
24.0318464122
 21
13.9496159103
 31
0.0
  0
ARC
  5
401
330
1F
100
AcDbEntity
  8
0
  6
Continuous
 62
     7
 48
2.25
370
    15
100
AcDbCircle
 10
24.2461377626
 20
13.9839149853
 30
0.0
 40
0.1588715465998936
100
AcDbArc
 50
181.096156308
 51
246.6080050845
  0
LINE
  5
402
330
1F
100
AcDbEntity
  8
0
  6
Continuous
 62
     7
 48
1.5
370
    15
100
AcDbLine
 10
24.0872952899
 20
13.9808757138
 30
0.0
 11
24.0874611137
 21
14.0317291323
 31
0.0
  0
LINE
  5
403
330
1F
100
AcDbEntity
  8
0
  6
Continuous
 62
     7
 48
1.5
370
    15
100
AcDbLine
 10
22.4171114017
 20
15.0012137721
 30
0.0
 11
22.3616625241
 21
14.9699539686
 31
0.0
  0
LWPOLYLINE
  5
404
330
1F
100
AcDbEntity
  8
0
  6
Continuous
 62
     7
 48
1.5
370
    15
100
AcDbPolyline
 90
        3
 70
   128
 43
0.0
 10
22.4199189759
 20
15.0233319456
 10
22.4198113429
 20
15.0229361816
 10
22.4171114017
 20
15.0012137721
  0
ARC
  5
405
330
1F
100
AcDbEntity
  8
0
  6
Continuous
 62
     7
 48
2.25
370
    15
100
AcDbCircle
 10
22.3783224227
 20
15.0641109265
 30
0.0
 40
0.1214951948497067
100
AcDbArc
 50
53.4049515971
 51
114.8263570771
  0
LINE
  5
406
330
1F
100
AcDbEntity
  8
0
  6
Continuous
 62
     7
 48
1.5
370
    15
100
AcDbLine
 10
22.4169455779
 20
14.9503603536
 30
0.0
 11
22.3614967003
 21
14.9191005501
 31
0.0
  0
ARC
  5
407
330
1F
100
AcDbEntity
  8
0
  6
Continuous
 62
     7
 48
2.25
370
    15
100
AcDbCircle
 10
22.5724491658
 20
14.9511600386
 30
0.0
 40
0.1555056440278464
100
AcDbArc
 50
180.2946438196
 51
247.4095175729
  0
LINE
  5
408
330
1F
100
AcDbEntity
  8
0
  6
Continuous
 62
     7
 48
1.5
370
    15
100
AcDbLine
 10
22.4171114017
 20
15.0012137721
 30
0.0
 11
22.4169455779
 21
14.9503603536
 31
0.0
  0
ARC
  5
409
330
1F
100
AcDbEntity
  8
0
  6
Continuous
 62
     7
 48
2.25
370
    15
100
AcDbCircle
 10
24.206931216
 20
13.4274770041
 30
0.0
 40
0.1427891711508088
100
AcDbArc
 50
2.2767263646
 51
57.1198748988
  0
LINE
  5
40A
330
1F
100
AcDbEntity
  8
0
  6
Continuous
 62
     7
 48
1.5
370
    15
100
AcDbLine
 10
24.3496076714
 20
13.4331494346
 30
0.0
 11
24.3407441174
 21
10.7149511409
 31
0.0
  0
LINE
  5
40B
330
1F
100
AcDbEntity
  8
0
  6
Continuous
 62
     7
 48
1.5
370
    15
100
AcDbLine
 10
22.1295221582
 20
14.7981297273
 30
0.0
 11
24.2844490535
 21
13.5473925254
 31
0.0
  0
LINE
  5
40C
330
1F
100
AcDbEntity
  8
0
  6
Continuous
 62
     7
 48
1.5
370
    15
100
AcDbLine
 10
21.0791527495
 20
11.4164230853
 30
0.0
 11
21.4563032982
 21
11.6290450995
 31
0.0
  0
LWPOLYLINE
  5
40D
330
1F
100
AcDbEntity
  8
0
  6
Continuous
 62
     8
 48
1.5
370
    15
100
AcDbPolyline
 90
       28
 70
   128
 43
0.0
 10
22.0281258358
 20
11.9931357254
 10
22.0480797335
 20
11.984217073
 10
22.0759360613
 20
11.9767614645
 10
22.1020926773
 20
11.9758062689
 10
22.1257550523
 20
11.9813803152
 10
22.1462039706
 20
11.9933144483
 10
22.1628182798
 20
12.011245921
 10
22.1750930143
 20
12.0346298713
 10
22.1826553642
 20
12.0627559061
 10
22.1852753895
 20
12.0947694228
 10
22.1828736491
 20
12.1296976133
 10
22.1755229515
 20
12.1664793029
 10
22.1634468057
 20
12.2039968239
 10
22.1470119879
 20
12.2411102202
 10
22.1267180102
 20
12.2766919237
 10
22.1031813161
 20
12.3096606356
 10
22.0771173039
 20
12.3390147801
 10
22.049317688
 20
12.3638622765
 10
22.0206272331
 20
12.383448385
 10
21.9919176803
 20
12.3971777106
 10
21.9640613527
 20
12.4046333793
 10
21.9379046334
 20
12.4055885746
 10
21.9142423617
 20
12.4000145285
 10
21.8937933916
 20
12.3880803653
 10
21.8771791342
 20
12.3701489228
 10
21.8649043477
 20
12.3467648821
 10
21.8573420494
 20
12.3186388173
 10
21.8551737948
 20
12.2999193503
  0
LWPOLYLINE
  5
40E
330
1F
100
AcDbEntity
  8
0
  6
Continuous
 62
     8
 48
1.5
370
    15
100
AcDbPolyline
 90
       21
 70
   128
 43
0.0
 10
21.9062734593
 20
12.4135511715
 10
21.9094836416
 20
12.4153620316
 10
21.9327576038
 20
12.4237443007
 10
21.9588481343
 20
12.4255951316
 10
21.9870046162
 20
12.4208612193
 10
22.0164170592
 20
12.409678956
 10
22.046239286
 20
12.3923698916
 10
22.0756133959
 20
12.3694319586
 10
22.1036942638
 20
12.3415252528
 10
22.129674175
 20
12.3094523116
 10
22.152805747
 20
12.2741358907
 10
22.1724233384
 20
12.236592196
 10
22.187962794
 20
12.1979011039
 10
22.1989769504
 20
12.1591757077
 10
22.2051490691
 20
12.1215299347
 10
22.2063014149
 20
12.0860471713
 10
22.2024009375
 20
12.0537477994
 10
22.1935599032
 20
12.0255611081
 10
22.1800326026
 20
12.0022980385
 10
22.1622081435
 20
11.9846278864
 10
22.1602233895
 20
11.9832002629
  0
LWPOLYLINE
  5
40F
330
1F
100
AcDbEntity
  8
0
  6
Continuous
 62
     8
 48
1.5
370
    15
100
AcDbPolyline
 90
       20
 70
   128
 43
0.0
 10
22.181870975
 20
11.9949630432
 10
22.1906436305
 20
12.0006586479
 10
22.2084680896
 20
12.0183288
 10
22.2219953902
 20
12.0415918696
 10
22.2308364245
 20
12.0697785609
 10
22.2347369019
 20
12.1020779329
 10
22.2335845561
 20
12.1375606962
 10
22.2274124374
 20
12.1752064693
 10
22.216398281
 20
12.2139318654
 10
22.2008588254
 20
12.2526229575
 10
22.181241234
 20
12.2901666522
 10
22.158109662
 20
12.3254830732
 10
22.1321297508
 20
12.3575560144
 10
22.1040488829
 20
12.3854627201
 10
22.0746747729
 20
12.4084006531
 10
22.0448525462
 20
12.4257097175
 10
22.0154401031
 20
12.4368919809
 10
21.9872836212
 20
12.4416258931
 10
21.9611930908
 20
12.4397750623
 10
21.9395515579
 20
12.4322437879
  0
LWPOLYLINE
  5
410
330
1F
100
AcDbEntity
  8
0
  6
Continuous
 62
     8
 48
1.5
370
    15
100
AcDbPolyline
 90
       28
 70
   128
 43
0.0
 10
20.2625079495
 20
10.7580498437
 10
20.282461744
 20
10.7491312511
 10
20.3103180716
 20
10.7416755825
 10
20.336474791
 20
10.7407203872
 10
20.3601370627
 20
10.7462944332
 10
20.3805860327
 20
10.7582285965
 10
20.3972002902
 20
10.776160039
 10
20.4094750766
 20
10.7995440796
 10
20.417037375
 20
10.8276701444
 10
20.4196574518
 20
10.8596836311
 10
20.4172556598
 20
10.8946118516
 10
20.4099050138
 20
10.9313935113
 10
20.3978288161
 20
10.9689109419
 10
20.38139405
 20
11.0060243684
 10
20.3611000205
 20
11.0416060416
 10
20.3375634298
 20
11.0745747539
 10
20.3114993143
 20
11.1039288981
 10
20.2836996985
 20
11.1287764547
 10
20.2550092434
 20
11.148362503
 10
20.2262996909
 20
11.1620918887
 10
20.1984433631
 20
11.1695474972
 10
20.1722867471
 20
11.1705026928
 10
20.148624372
 20
11.1649286465
 10
20.1281754538
 20
11.1529945135
 10
20.1115611445
 20
11.1350630408
 10
20.09928641
 20
11.1116790905
 10
20.0917240601
 20
11.0835530556
 10
20.0895559087
 20
11.0648335287
  0
LWPOLYLINE
  5
411
330
1F
100
AcDbEntity
  8
0
  6
Continuous
 62
     8
 48
1.5
370
    15
100
AcDbPolyline
 90
       21
 70
   128
 43
0.0
 10
20.1406555214
 20
11.1784653197
 10
20.1438656523
 20
11.1802762698
 10
20.1671397175
 20
11.188658419
 10
20.1932302478
 20
11.1905091897
 10
20.2213866783
 20
11.1857753675
 10
20.2507991211
 20
11.1745930441
 10
20.2806213479
 20
11.1572839796
 10
20.309995458
 20
11.1343461068
 10
20.3380763773
 20
11.1064393109
 10
20.3640562887
 20
11.0743664299
 10
20.3871877577
 20
11.039050129
 10
20.4068054521
 20
11.0015063143
 10
20.4223448559
 20
10.9628151919
 10
20.4333590639
 20
10.9240897659
 10
20.4395310799
 20
10.8864441729
 10
20.4406834769
 20
10.8509612594
 10
20.436783051
 20
10.8186618575
 10
20.4279419655
 20
10.7904753164
 10
20.4144146134
 20
10.7672122767
 10
20.3965901543
 20
10.7495421247
 10
20.3946054514
 20
10.7481143509
  0
LWPOLYLINE
  5
412
330
1F
100
AcDbEntity
  8
0
  6
Continuous
 62
     8
 48
1.5
370
    15
100
AcDbPolyline
 90
       20
 70
   128
 43
0.0
 10
20.4162530369
 20
10.7598771313
 10
20.4250256412
 20
10.7655728862
 10
20.4428501003
 20
10.7832430383
 10
20.4563774525
 20
10.806506078
 10
20.465218538
 20
10.834692619
 10
20.4691189638
 20
10.8669920209
 10
20.4679665668
 20
10.9024749345
 10
20.4617945509
 20
10.9401205274
 10
20.4507803429
 20
10.9788459535
 10
20.4352409391
 20
11.0175370758
 10
20.4156232447
 20
11.0550808905
 10
20.3924917756
 20
11.0903971914
 10
20.3665118643
 20
11.1224700725
 10
20.338430945
 20
11.1503768683
 10
20.3090568348
 20
11.1733147412
 10
20.2792346081
 20
11.1906238056
 10
20.2498221652
 20
11.2018061291
 10
20.2216657347
 20
11.2065399512
 10
20.1955752045
 20
11.2046891805
 10
20.1739335686
 20
11.1971580262
  0
LWPOLYLINE
  5
413
330
1F
100
AcDbEntity
  8
0
  6
Continuous
 62
     8
 48
1.5
370
    15
100
AcDbPolyline
 90
       28
 70
   128
 43
0.0
 10
20.2698630408
 20
13.0136458379
 10
20.2898168354
 20
13.0047272454
 10
20.3176731632
 20
12.9972716369
 10
20.3438298823
 20
12.9963163814
 10
20.3674921542
 20
13.0018904876
 10
20.3879411241
 20
13.0138245907
 10
20.4045553817
 20
13.0317560933
 10
20.4168301678
 20
13.0551400137
 10
20.4243924661
 20
13.0832660785
 10
20.427012543
 20
13.1152795652
 10
20.424610751
 20
13.1502077857
 10
20.417260105
 20
13.1869894453
 10
20.4051839076
 20
13.2245069963
 10
20.3887491413
 20
13.2616203626
 10
20.3684551121
 20
13.297202096
 10
20.3449185211
 20
13.3301707481
 10
20.3188544058
 20
13.3595249525
 10
20.2910547899
 20
13.3843724489
 10
20.262364335
 20
13.4039585573
 10
20.2336547822
 20
13.417687883
 10
20.2057984546
 20
13.4251435516
 10
20.1796418384
 20
13.4260986871
 10
20.1559794636
 20
13.4205247009
 10
20.1355305451
 20
13.4085905077
 10
20.1189162361
 20
13.3906590951
 10
20.1066415012
 20
13.3672750245
 10
20.0990791513
 20
13.3391489897
 10
20.0969109999
 20
13.3204294628
  0
LWPOLYLINE
  5
414
330
1F
100
AcDbEntity
  8
0
  6
Continuous
 62
     8
 48
1.5
370
    15
100
AcDbPolyline
 90
       21
 70
   128
 43
0.0
 10
20.1480106128
 20
13.4340613139
 10
20.1512207435
 20
13.4358722039
 10
20.1744948089
 20
13.4442544132
 10
20.2005853393
 20
13.4461052441
 10
20.2287417696
 20
13.4413713618
 10
20.2581542127
 20
13.4301890984
 10
20.2879764394
 20
13.412880034
 10
20.3173505494
 20
13.389942101
 10
20.3454314689
 20
13.3620353653
 10
20.37141138
 20
13.3299624241
 10
20.3945428489
 20
13.294646063
 10
20.4141605435
 20
13.2571023085
 10
20.4296999475
 20
13.2184112463
 10
20.4407141555
 20
13.1796858202
 10
20.446886171
 20
13.142040107
 10
20.4480385684
 20
13.1065573137
 10
20.4441381426
 20
13.0742579118
 10
20.4352970567
 20
13.0460712505
 10
20.4217697045
 20
13.0228082108
 10
20.4039452454
 20
13.0051380587
 10
20.4019605429
 20
13.0037104053
  0
LWPOLYLINE
  5
415
330
1F
100
AcDbEntity
  8
0
  6
Continuous
 62
     8
 48
1.5
370
    15
100
AcDbPolyline
 90
       20
 70
   128
 43
0.0
 10
20.4236081285
 20
13.0154731856
 10
20.4323807324
 20
13.0211688203
 10
20.4502051915
 20
13.0388389724
 10
20.4637325437
 20
13.062102012
 10
20.4725736295
 20
13.0902886734
 10
20.4764740554
 20
13.1225880753
 10
20.475321658
 20
13.1580708686
 10
20.4691496424
 20
13.1957165818
 10
20.4581354344
 20
13.2344420078
 10
20.4425960305
 20
13.27313307
 10
20.4229783359
 20
13.3106768246
 10
20.399846867
 20
13.3459931857
 10
20.3738669558
 20
13.3780661269
 10
20.3457860363
 20
13.4059728625
 10
20.3164119264
 20
13.4289107956
 10
20.2865896997
 20
13.44621986
 10
20.2571772566
 20
13.4574021233
 10
20.2290208263
 20
13.4621360056
 10
20.2029302958
 20
13.4602851748
 10
20.1812886598
 20
13.4527539602
  0
LWPOLYLINE
  5
416
330
1F
100
AcDbEntity
  8
0
  6
Continuous
 62
     8
 48
1.5
370
    15
100
AcDbPolyline
 90
       28
 70
   128
 43
0.0
 10
22.0207707444
 20
9.7375397312
 10
22.0407246421
 20
9.7286210788
 10
22.0685809697
 20
9.7211654101
 10
22.0947375859
 20
9.7202102747
 10
22.1183999608
 20
9.7257842608
 10
22.1388488792
 20
9.7377184541
 10
22.1554631882
 20
9.7556498666
 10
22.1677379232
 20
9.7790339372
 10
22.1753002731
 20
9.8071599721
 10
22.1779202983
 20
9.8391734887
 10
22.1755185579
 20
9.8741016793
 10
22.1681678604
 20
9.9108833689
 10
22.1560917141
 20
9.9484007696
 10
22.1396568965
 20
9.9855142259
 10
22.1193629186
 20
10.0210958693
 10
22.0958262247
 20
10.0540646414
 10
22.0697622124
 20
10.0834187258
 10
22.0419625966
 20
10.1082662823
 10
22.0132721415
 20
10.1278523306
 10
21.9845625889
 20
10.1415817164
 10
21.9567062612
 20
10.1490373249
 10
21.930549542
 20
10.1499925804
 10
21.9068872701
 20
10.1444184742
 10
21.8864383003
 20
10.132484371
 10
21.8698240426
 20
10.1145528684
 10
21.8575492565
 20
10.091168948
 10
21.8499869582
 20
10.0630428833
 10
21.8478187036
 20
10.0443234163
  0
LWPOLYLINE
  5
417
330
1F
100
AcDbEntity
  8
0
  6
Continuous
 62
     8
 48
1.5
370
    15
100
AcDbPolyline
 90
       21
 70
   128
 43
0.0
 10
21.8989183679
 20
10.1579551772
 10
21.9021285504
 20
10.1597660975
 10
21.9254025124
 20
10.1681483065
 10
21.9514930427
 20
10.1699990772
 10
21.9796495248
 20
10.1652652251
 10
22.0090619677
 20
10.1540829016
 10
22.0388841944
 20
10.1367738372
 10
22.0682583045
 20
10.1138359644
 10
22.0963391723
 20
10.0859291985
 10
22.1223190836
 20
10.0538563174
 10
22.1454506558
 20
10.0185399566
 10
22.1650682471
 20
9.9809962018
 10
22.1806077024
 20
9.9423050495
 10
22.1916218589
 20
9.9035796534
 10
22.197793978
 20
9.8659340006
 10
22.1989463234
 20
9.8304511169
 10
22.1950458459
 20
9.798151745
 10
22.1862048121
 20
9.769965174
 10
22.1726775115
 20
9.7467021044
 10
22.1548530523
 20
9.7290319523
 10
22.1528682979
 20
9.7276042085
  0
LWPOLYLINE
  5
418
330
1F
100
AcDbEntity
  8
0
  6
Continuous
 62
     8
 48
1.5
370
    15
100
AcDbPolyline
 90
       20
 70
   128
 43
0.0
 10
22.1745158834
 20
9.7393669889
 10
22.1832885393
 20
9.7450627139
 10
22.2011129984
 20
9.7627328659
 10
22.214640299
 20
9.7859959356
 10
22.2234813329
 20
9.8141825065
 10
22.2273818103
 20
9.8464818785
 10
22.2262294649
 20
9.8819647621
 10
22.2200573458
 20
9.9196104149
 10
22.2090431894
 20
9.9583358111
 10
22.193503734
 20
9.9970269633
 10
22.1738861428
 20
10.0345707181
 10
22.1507545706
 20
10.069887079
 10
22.1247746592
 20
10.10195996
 10
22.0966937915
 20
10.1298667259
 10
22.0673196814
 20
10.1528045988
 10
22.0374974546
 20
10.1701136632
 10
22.0080850118
 20
10.1812959867
 10
21.9799285297
 20
10.1860298388
 10
21.9538379994
 20
10.1841790681
 10
21.9321964667
 20
10.1766478538
  0
LWPOLYLINE
  5
419
330
1F
100
AcDbEntity
  8
0
  6
Continuous
 62
     8
 48
1.5
370
    15
100
AcDbPolyline
 90
       18
 70
   128
 43
0.0
 10
21.8981814799
 20
10.0763925049
 10
21.9079070419
 20
10.0807758495
 10
21.9294120271
 20
10.0844319003
 10
21.9532406127
 20
10.0813632482
 10
21.9784172137
 20
10.0716954923
 10
22.0039111133
 20
10.0558245078
 10
22.0286785743
 20
10.0344000199
 10
22.0517055378
 20
10.0082992533
 10
22.0720494631
 20
9.9785905357
 10
22.0888773225
 20
9.9464903948
 10
22.1015002626
 20
9.9133128269
 10
22.1094014385
 20
9.8804162612
 10
22.1122574298
 20
9.8491473794
 10
22.1099512903
 20
9.8207864165
 10
22.1025773367
 20
9.7964944839
 10
22.0904375832
 20
9.7772659825
 10
22.074029002
 20
9.7638882695
 10
22.0736959368
 20
9.7637033767
  0
LWPOLYLINE
  5
41A
330
1F
100
AcDbEntity
  8
0
  6
Continuous
 62
     8
 48
1.5
370
    15
100
AcDbPolyline
 90
       17
 70
   128
 43
0.0
 10
20.1400784388
 20
11.0969921283
 10
20.1541956877
 20
11.1026816063
 10
20.1762996365
 20
11.1048399064
 10
20.2005161683
 20
11.1002778053
 10
20.225854085
 20
11.08918185
 10
20.2512759366
 20
11.0720064817
 10
20.2757409503
 20
11.0494547848
 10
20.2982475671
 20
11.022450061
 10
20.3178742957
 20
10.9920979568
 10
20.3338176459
 20
10.9596408832
 10
20.3454249328
 20
10.9264078808
 10
20.3522208626
 20
10.8937592956
 10
20.3539273513
 20
10.8630318873
 10
20.3504744023
 20
10.8354837028
 10
20.3420034009
 20
10.8122425081
 10
20.328861228
 20
10.7942596694
 10
20.315814713
 20
10.7844255496
  0
LWPOLYLINE
  5
41B
330
1F
100
AcDbEntity
  8
0
  6
Continuous
 62
     8
 48
1.5
370
    15
100
AcDbPolyline
 90
       17
 70
   128
 43
0.0
 10
20.1474335304
 20
13.3525881827
 10
20.1615507792
 20
13.3582776606
 10
20.1836547281
 20
13.3604359607
 10
20.2078712598
 20
13.3558738597
 10
20.2332091763
 20
13.3447778442
 10
20.2586310282
 20
13.3276025361
 10
20.2830960418
 20
13.3050508391
 10
20.3056026587
 20
13.2780461154
 10
20.3252293868
 20
13.2476938909
 10
20.3411727374
 20
13.2152369375
 10
20.3527800239
 20
13.1820038148
 10
20.3595759542
 20
13.14935535
 10
20.3612824429
 20
13.1186279417
 10
20.3578294939
 20
13.0910797571
 10
20.3493584921
 20
13.0678384422
 10
20.3362163191
 20
13.0498556035
 10
20.3231698042
 20
13.0400214837
  0
LWPOLYLINE
  5
41C
330
1F
100
AcDbEntity
  8
0
  6
Continuous
 62
     8
 48
1.5
370
    15
100
AcDbPolyline
 90
       17
 70
   128
 43
0.0
 10
21.9056963769
 20
12.3320780403
 10
21.9198136258
 20
12.3377675182
 10
21.941917523
 20
12.3399258483
 10
21.9661341579
 20
12.3353636873
 10
21.9914720744
 20
12.3242676718
 10
22.0168939263
 20
12.3070923637
 10
22.0413589399
 20
12.2845406668
 10
22.0638655052
 20
12.257535973
 10
22.0834921818
 20
12.2271837784
 10
22.0994355839
 20
12.1947267951
 10
22.1110428705
 20
12.1614936724
 10
22.1178388523
 20
12.1288451777
 10
22.1195452378
 20
12.0981178292
 10
22.1160923404
 20
12.0705696147
 10
22.1076213902
 20
12.0473282698
 10
22.0944791141
 20
12.029345491
 10
22.0814326507
 20
12.0195113413
  0
ARC
  5
41D
330
1F
100
AcDbEntity
  8
0
  6
Continuous
 62
     8
 48
2.25
370
    15
100
AcDbCircle
 10
20.0454326976
 20
13.781297381
 30
0.0
 40
0.046198183277189
100
AcDbArc
 50
185.5828240889
 51
245.5906735816
  0
ARC
  5
41E
330
1F
100
AcDbEntity
  8
0
  6
Continuous
 62
     8
 48
2.25
370
    15
100
AcDbCircle
 10
20.0656126999
 20
13.8150825971
 30
0.0
 40
0.0464212485103476
100
AcDbArc
 50
54.2990873131
 51
113.9323957009
  0
ARC
  5
41F
330
1F
100
AcDbEntity
  8
0
  6
Continuous
 62
     8
 48
2.25
370
    15
100
AcDbCircle
 10
20.0359004994
 20
10.8580450428
 30
0.0
 40
0.0461981832771704
100
AcDbArc
 50
185.5828240889
 51
245.5906735816
  0
ARC
  5
420
330
1F
100
AcDbEntity
  8
0
  6
Continuous
 62
     8
 48
2.25
370
    15
100
AcDbCircle
 10
22.3923751038
 20
9.4574050779
 30
0.0
 40
0.0451844438498128
100
AcDbArc
 50
172.646904012
 51
235.8188668905
  0
ARC
  5
421
330
1F
100
AcDbEntity
  8
0
  6
Continuous
 62
     8
 48
2.25
370
    15
100
AcDbCircle
 10
22.4330759235
 20
9.4575382144
 30
0.0
 40
0.0462721708553423
100
AcDbArc
 50
304.5921884484
 51
6.1510549769
  0
ARC
  5
422
330
1F
100
AcDbEntity
  8
0
  6
Continuous
 62
     8
 48
2.25
370
    15
100
AcDbCircle
 10
20.0629537437
 20
10.8107928471
 30
0.0
 40
0.0464349742055493
100
AcDbArc
 50
173.5909172374
 51
234.8748536652
  0
LINE
  5
423
330
1F
100
AcDbEntity
  8
0
  6
Continuous
 62
     8
 48
1.5
370
    15
100
AcDbLine
 10
24.3496076714
 20
13.4331494346
 30
0.0
 11
22.7779374249
 21
12.5471061965
 31
0.0
  0
LINE
  5
424
330
1F
100
AcDbEntity
  8
0
  6
Continuous
 62
     8
 48
1.5
370
    15
100
AcDbLine
 10
22.7142972736
 20
12.6622053366
 30
0.0
 11
24.2844490535
 21
13.5473925254
 31
0.0
  0
LINE
  5
425
330
1F
100
AcDbEntity
  8
0
  6
Continuous
 62
     8
 48
1.5
370
    15
100
AcDbLine
 10
22.7690738709
 20
9.8289079028
 30
0.0
 11
24.3407441174
 21
10.7149511409
 31
0.0
  0
LINE
  5
426
330
1F
100
AcDbEntity
  8
0
  6
Continuous
 62
     8
 48
1.5
370
    15
100
AcDbLine
 10
22.1295221582
 20
14.7981297273
 30
0.0
 11
20.5593883113
 21
13.9129526483
 31
0.0
  0
ARC
  5
427
330
1F
100
AcDbEntity
  8
0
  6
Continuous
 62
     8
 48
2.25
370
    15
100
AcDbCircle
 10
24.3112931387
 20
13.5089274082
 30
0.0
 40
0.0469059714366342
100
AcDbArc
 50
65.3120099685
 51
124.9104666596
  0
ARC
  5
428
330
1F
100
AcDbEntity
  8
0
  6
Continuous
 62
     8
 48
2.25
370
    15
100
AcDbCircle
 10
24.333032616
 20
13.4742312917
 30
0.0
 40
0.0442995648516992
100
AcDbArc
 50
291.9723079462
 51
355.5694944189
  0
ARC
  5
429
330
1F
100
AcDbEntity
  8
0
  6
Continuous
 62
     8
 48
2.25
370
    15
100
AcDbCircle
 10
24.3229670229
 20
10.7569136955
 30
0.0
 40
0.0455728107471338
100
AcDbArc
 50
292.959549073
 51
354.5822532921
  0
ARC
  5
42A
330
1F
100
AcDbEntity
  8
0
  6
Continuous
 62
     8
 48
2.25
370
    15
100
AcDbCircle
 10
22.1563662434
 20
14.7596646101
 30
0.0
 40
0.0469059714366516
100
AcDbArc
 50
65.3120099685
 51
124.9104666596
  0
ARC
  5
42B
330
1F
100
AcDbEntity
  8
0
  6
Continuous
 62
     8
 48
2.25
370
    15
100
AcDbCircle
 10
22.1024326906
 20
14.7604317956
 30
0.0
 40
0.046421690084758
100
AcDbArc
 50
54.2992425903
 51
113.9319432856
  0
LINE
  5
42C
330
1F
100
AcDbEntity
  8
0
  6
Continuous
 62
     8
 48
1.5
370
    15
100
AcDbLine
 10
21.452333097
 20
11.6390875075
 30
0.0
 11
21.0726157309
 21
11.4250184269
 31
0.0
  0
ARC
  5
42D
330
1F
100
AcDbEntity
  8
0
  6
Continuous
 62
     8
 48
2.25
370
    15
100
AcDbCircle
 10
24.2947338028
 20
10.7099951559
 30
0.0
 40
0.0462764609429912
100
AcDbArc
 50
304.5953521859
 51
6.1478912394
  0
LINE
  5
42E
330
1F
100
AcDbEntity
  8
0
  6
Continuous
 62
     8
 48
1.5
370
    15
100
AcDbLine
 10
21.0857168303
 20
11.4080531544
 30
0.0
 11
21.4600665985
 21
11.6190962033
 31
0.0
  0
CIRCLE
  5
42F
330
1F
100
AcDbEntity
  8
0
  6
Continuous
 62
     7
 48
2.25
370
    15
100
AcDbCircle
 10
9.3297512656
 20
5.938833372
 30
0.0
 40
0.0940000000000016
  0
CIRCLE
  5
430
330
1F
100
AcDbEntity
  8
0
  6
Continuous
 62
     7
 48
2.25
370
    15
100
AcDbCircle
 10
9.3297512656
 20
5.938833372
 30
0.0
 40
0.1559999999999994
  0
CIRCLE
  5
431
330
1F
100
AcDbEntity
  8
0
  6
Continuous
 62
     7
 48
2.25
370
    15
100
AcDbCircle
 10
9.3297512656
 20
8.688833372
 30
0.0
 40
0.0940000000000015
  0
CIRCLE
  5
432
330
1F
100
AcDbEntity
  8
0
  6
Continuous
 62
     7
 48
2.25
370
    15
100
AcDbCircle
 10
9.3297512656
 20
8.688833372
 30
0.0
 40
0.1559999999999976
  0
CIRCLE
  5
433
330
1F
100
AcDbEntity
  8
0
  6
Continuous
 62
     7
 48
2.25
370
    15
100
AcDbCircle
 10
6.8297512656
 20
8.688833372
 30
0.0
 40
0.0939999999999997
  0
CIRCLE
  5
434
330
1F
100
AcDbEntity
  8
0
  6
Continuous
 62
     7
 48
2.25
370
    15
100
AcDbCircle
 10
6.8297512656
 20
8.688833372
 30
0.0
 40
0.1559999999999999
  0
CIRCLE
  5
435
330
1F
100
AcDbEntity
  8
0
  6
Continuous
 62
     7
 48
2.25
370
    15
100
AcDbCircle
 10
6.8297512656
 20
5.938833372
 30
0.0
 40
0.0940000000000006
  0
CIRCLE
  5
436
330
1F
100
AcDbEntity
  8
0
  6
Continuous
 62
     7
 48
2.25
370
    15
100
AcDbCircle
 10
6.8297512656
 20
5.938833372
 30
0.0
 40
0.1559999999999994
  0
CIRCLE
  5
437
330
1F
100
AcDbEntity
  8
0
  6
Continuous
 62
     7
 48
2.25
370
    15
100
AcDbCircle
 10
8.9547512656
 20
6.813833372
 30
0.0
 40
0.1771653543307083
  0
CIRCLE
  5
438
330
1F
100
AcDbEntity
  8
0
  6
Continuous
 62
     7
 48
2.25
370
    15
100
AcDbCircle
 10
8.9547512656
 20
6.813833372
 30
0.0
 40
0.0984251968503944
  0
CIRCLE
  5
439
330
1F
100
AcDbEntity
  8
0
  6
Continuous
 62
     7
 48
2.25
370
    15
100
AcDbCircle
 10
8.9547512656
 20
6.813833372
 30
0.0
 40
0.2027559055118111
  0
CIRCLE
  5
43A
330
1F
100
AcDbEntity
  8
0
  6
Continuous
 62
     7
 48
2.25
370
    15
100
AcDbCircle
 10
9.3297512656
 20
8.688833372
 30
0.0
 40
0.1968503937007858
  0
CIRCLE
  5
43B
330
1F
100
AcDbEntity
  8
0
  6
Continuous
 62
     7
 48
2.25
370
    15
100
AcDbCircle
 10
6.8297512656
 20
8.688833372
 30
0.0
 40
0.1968503937007875
  0
CIRCLE
  5
43C
330
1F
100
AcDbEntity
  8
0
  6
Continuous
 62
     7
 48
2.25
370
    15
100
AcDbCircle
 10
9.3297512656
 20
5.938833372
 30
0.0
 40
0.1968503937007858
  0
CIRCLE
  5
43D
330
1F
100
AcDbEntity
  8
0
  6
Continuous
 62
     7
 48
2.25
370
    15
100
AcDbCircle
 10
6.8297512656
 20
5.938833372
 30
0.0
 40
0.1968503937007875
  0
ARC
  5
43E
330
1F
100
AcDbEntity
  8
0
  6
Continuous
 62
     7
 48
2.25
370
    15
100
AcDbCircle
 10
6.8922512656
 20
5.344833372
 30
0.0
 40
0.1095000000000015
100
AcDbArc
 50
0.0
 51
180.0
  0
LINE
  5
43F
330
1F
100
AcDbEntity
  8
0
  6
Continuous
 62
     7
 48
1.5
370
    15
100
AcDbLine
 10
6.782751262
 20
5.2828334076
 30
0.0
 11
6.782751262
 21
5.3448333847
 31
0.0
  0
ARC
  5
440
330
1F
100
AcDbEntity
  8
0
  6
Continuous
 62
     7
 48
2.25
370
    15
100
AcDbCircle
 10
6.8922512656
 20
5.282833372
 30
0.0
 40
0.1095000000000015
100
AcDbArc
 50
180.0
 51
0.0
  0
LINE
  5
441
330
1F
100
AcDbEntity
  8
0
  6
Continuous
 62
     7
 48
1.5
370
    15
100
AcDbLine
 10
7.0017512521
 20
5.3448333847
 30
0.0
 11
7.0017512521
 21
5.2828334076
 31
0.0
  0
ARC
  5
442
330
1F
100
AcDbEntity
  8
0
  6
Continuous
 62
     7
 48
2.25
370
    15
100
AcDbCircle
 10
6.8297512656
 20
5.313833372
 30
0.0
 40
0.2499999999999991
100
AcDbArc
 50
180.0
 51
270.0
  0
LINE
  5
443
330
1F
100
AcDbEntity
  8
0
  6
Continuous
 62
     7
 48
1.5
370
    15
100
AcDbLine
 10
6.579751247
 20
5.3138333962
 30
0.0
 11
6.579751247
 21
5.5638333748
 31
0.0
  0
ARC
  5
444
330
1F
100
AcDbEntity
  8
0
  6
Continuous
 62
     7
 48
2.25
370
    15
100
AcDbCircle
 10
9.2672512656
 20
5.282833372
 30
0.0
 40
0.1095000000000006
100
AcDbArc
 50
180.0
 51
0.0
  0
LINE
  5
445
330
1F
100
AcDbEntity
  8
0
  6
Continuous
 62
     7
 48
1.5
370
    15
100
AcDbLine
 10
9.3767512692
 20
5.2828334076
 30
0.0
 11
9.3767512692
 21
5.3448333847
 31
0.0
  0
ARC
  5
446
330
1F
100
AcDbEntity
  8
0
  6
Continuous
 62
     7
 48
2.25
370
    15
100
AcDbCircle
 10
9.2672512656
 20
5.344833372
 30
0.0
 40
0.1095000000000006
100
AcDbArc
 50
0.0
 51
180.0
  0
LINE
  5
447
330
1F
100
AcDbEntity
  8
0
  6
Continuous
 62
     7
 48
1.5
370
    15
100
AcDbLine
 10
9.1577512791
 20
5.3448333847
 30
0.0
 11
9.1577512791
 21
5.2828334076
 31
0.0
  0
LINE
  5
448
330
1F
100
AcDbEntity
  8
0
  6
Continuous
 62
     7
 48
1.5
370
    15
100
AcDbLine
 10
6.8297512257
 20
5.0638334175
 30
0.0
 11
9.3297513055
 21
5.0638334175
 31
0.0
  0
ARC
  5
449
330
1F
100
AcDbEntity
  8
0
  6
Continuous
 62
     7
 48
2.25
370
    15
100
AcDbCircle
 10
9.3297512656
 20
5.313833372
 30
0.0
 40
0.25
100
AcDbArc
 50
270.0
 51
0.0
  0
LINE
  5
44A
330
1F
100
AcDbEntity
  8
0
  6
Continuous
 62
     7
 48
1.5
370
    15
100
AcDbLine
 10
9.5797512841
 20
5.3138333962
 30
0.0
 11
9.5797512841
 21
5.5638333748
 31
0.0
  0
LINE
  5
44B
330
1F
100
AcDbEntity
  8
0
  6
Continuous
 62
     7
 48
1.5
370
    15
100
AcDbLine
 10
9.5797512841
 20
9.3138333478
 30
0.0
 11
9.5797512841
 21
9.0638333692
 31
0.0
  0
LINE
  5
44C
330
1F
100
AcDbEntity
  8
0
  6
Continuous
 62
     7
 48
1.5
370
    15
100
AcDbLine
 10
6.782751262
 20
9.3448333364
 30
0.0
 11
6.782751262
 21
9.2828333593
 31
0.0
  0
LINE
  5
44D
330
1F
100
AcDbEntity
  8
0
  6
Continuous
 62
     7
 48
1.5
370
    15
100
AcDbLine
 10
7.0017512521
 20
9.2828333593
 30
0.0
 11
7.0017512521
 21
9.3448333364
 31
0.0
  0
ARC
  5
44E
330
1F
100
AcDbEntity
  8
0
  6
Continuous
 62
     7
 48
2.25
370
    15
100
AcDbCircle
 10
6.8922512656
 20
9.344833372
 30
0.0
 40
0.1095000000000015
100
AcDbArc
 50
0.0
 51
180.0
  0
LINE
  5
44F
330
1F
100
AcDbEntity
  8
0
  6
Continuous
 62
     7
 48
1.5
370
    15
100
AcDbLine
 10
9.3297513055
 20
9.5638333265
 30
0.0
 11
6.8297512257
 21
9.5638333265
 31
0.0
  0
ARC
  5
450
330
1F
100
AcDbEntity
  8
0
  6
Continuous
 62
     7
 48
2.25
370
    15
100
AcDbCircle
 10
6.8297512656
 20
9.313833372
 30
0.0
 40
0.2499999999999991
100
AcDbArc
 50
90.0
 51
180.0
  0
LINE
  5
451
330
1F
100
AcDbEntity
  8
0
  6
Continuous
 62
     7
 48
1.5
370
    15
100
AcDbLine
 10
6.579751247
 20
9.3138333478
 30
0.0
 11
6.579751247
 21
9.0638333692
 31
0.0
  0
ARC
  5
452
330
1F
100
AcDbEntity
  8
0
  6
Continuous
 62
     7
 48
2.25
370
    15
100
AcDbCircle
 10
6.8922512656
 20
9.282833372
 30
0.0
 40
0.1095000000000015
100
AcDbArc
 50
180.0
 51
0.0
  0
ARC
  5
453
330
1F
100
AcDbEntity
  8
0
  6
Continuous
 62
     7
 48
2.25
370
    15
100
AcDbCircle
 10
9.3297512656
 20
9.313833372
 30
0.0
 40
0.2499999999999982
100
AcDbArc
 50
0.0
 51
90.0
  0
LINE
  5
454
330
1F
100
AcDbEntity
  8
0
  6
Continuous
 62
     7
 48
1.5
370
    15
100
AcDbLine
 10
9.1577512791
 20
9.2828333593
 30
0.0
 11
9.1577512791
 21
9.3448333364
 31
0.0
  0
ARC
  5
455
330
1F
100
AcDbEntity
  8
0
  6
Continuous
 62
     7
 48
2.25
370
    15
100
AcDbCircle
 10
9.2672512656
 20
9.344833372
 30
0.0
 40
0.1095000000000006
100
AcDbArc
 50
0.0
 51
180.0
  0
LINE
  5
456
330
1F
100
AcDbEntity
  8
0
  6
Continuous
 62
     7
 48
1.5
370
    15
100
AcDbLine
 10
9.3767512692
 20
9.3448333364
 30
0.0
 11
9.3767512692
 21
9.2828333593
 31
0.0
  0
ARC
  5
457
330
1F
100
AcDbEntity
  8
0
  6
Continuous
 62
     7
 48
2.25
370
    15
100
AcDbCircle
 10
9.2672512656
 20
9.282833372
 30
0.0
 40
0.1095000000000006
100
AcDbArc
 50
180.0
 51
0.0
  0
LINE
  5
458
330
1F
100
AcDbEntity
  8
0
  6
Continuous
 62
     7
 48
1.5
370
    15
100
AcDbLine
 10
9.4547512215
 20
6.251833407
 30
0.0
 11
9.4547512215
 21
8.375833337
 31
0.0
  0
LINE
  5
459
330
1F
100
AcDbEntity
  8
0
  6
Continuous
 62
     7
 48
1.5
370
    15
100
AcDbLine
 10
9.4547512215
 20
8.375833337
 30
0.0
 11
6.7047513097
 21
8.375833337
 31
0.0
  0
LINE
  5
45A
330
1F
100
AcDbEntity
  8
0
  6
Continuous
 62
     7
 48
1.5
370
    15
100
AcDbLine
 10
6.7047513097
 20
8.375833337
 30
0.0
 11
6.7047513097
 21
6.251833407
 31
0.0
  0
LINE
  5
45B
330
1F
100
AcDbEntity
  8
0
  6
Continuous
 62
     7
 48
1.5
370
    15
100
AcDbLine
 10
6.7047513097
 20
6.251833407
 30
0.0
 11
9.4547512215
 21
6.251833407
 31
0.0
  0
ARC
  5
45C
330
1F
100
AcDbEntity
  8
0
  6
Continuous
 62
     7
 48
2.25
370
    15
100
AcDbCircle
 10
6.5477512656
 20
5.656833372
 30
0.0
 40
0.0930000000000009
100
AcDbArc
 50
180.0
 51
270.0
  0
LINE
  5
45D
330
1F
100
AcDbEntity
  8
0
  6
Continuous
 62
     7
 48
1.5
370
    15
100
AcDbLine
 10
9.7047512001
 20
8.9708334035
 30
0.0
 11
9.7047512001
 21
5.6568333405
 31
0.0
  0
LINE
  5
45E
330
1F
100
AcDbEntity
  8
0
  6
Continuous
 62
     7
 48
1.5
370
    15
100
AcDbLine
 10
6.4547513311
 20
5.6568333405
 30
0.0
 11
6.4547513311
 21
8.9708334035
 31
0.0
  0
LINE
  5
45F
330
1F
100
AcDbEntity
  8
0
  6
Continuous
 62
     7
 48
1.5
370
    15
100
AcDbLine
 10
9.6117512345
 20
5.5638333748
 30
0.0
 11
6.5477512967
 21
5.5638333748
 31
0.0
  0
ARC
  5
460
330
1F
100
AcDbEntity
  8
0
  6
Continuous
 62
     7
 48
2.25
370
    15
100
AcDbCircle
 10
9.6117512656
 20
5.656833372
 30
0.0
 40
0.093
100
AcDbArc
 50
270.0
 51
0.0
  0
ARC
  5
461
330
1F
100
AcDbEntity
  8
0
  6
Continuous
 62
     7
 48
2.25
370
    15
100
AcDbCircle
 10
9.6117512656
 20
8.970833372
 30
0.0
 40
0.093
100
AcDbArc
 50
360.0
 51
90.0
  0
ARC
  5
462
330
1F
100
AcDbEntity
  8
0
  6
Continuous
 62
     7
 48
2.25
370
    15
100
AcDbCircle
 10
6.5477512656
 20
8.970833372
 30
0.0
 40
0.0930000000000009
100
AcDbArc
 50
90.0
 51
180.0
  0
LINE
  5
463
330
1F
100
AcDbEntity
  8
0
  6
Continuous
 62
     7
 48
1.5
370
    15
100
AcDbLine
 10
6.5477512967
 20
9.0638333692
 30
0.0
 11
9.6117512345
 21
9.0638333692
 31
0.0
  0
DIMENSION
  5
464
330
1F
100
AcDbEntity
  8
0
  6
Continuous
 62
     7
 48
1.5
370
     0
100
AcDbDimension
  2
*D16
 10
9.7047512656
 20
10.1543845531
 30
0.0
 11
8.0797512656
 21
10.1543845531
 31
0.0
 70
   160
 71
     2
 42
-1.0
  3
SLDDIMSTYLE5
100
AcDbAlignedDimension
 13
6.4547512656
 23
8.970833372
 33
0.0
 14
9.7047512656
 24
8.970833372
 34
0.0
100
AcDbRotatedDimension
  0
DIMENSION
  5
476
330
1F
100
AcDbEntity
  8
0
  6
Continuous
 62
     7
 48
1.5
370
     0
100
AcDbDimension
  2
*D17
 10
10.3339845885
 20
5.563833372
 30
0.0
 11
10.3339845885
 21
7.313833372
 31
0.0
 70
   160
 71
     2
 42
-1.0
  3
SLDDIMSTYLE0
100
AcDbAlignedDimension
 13
9.6117512656
 23
9.063833372
 33
0.0
 14
9.6117512656
 24
5.563833372
 34
0.0
 50
90.0
100
AcDbRotatedDimension
  0
INSERT
  5
491
102
{ACAD_REACTORS
330
492
102
}
330
1F
100
AcDbEntity
  8
0
  6
Continuous
 62
     7
 48
1.5
370
     0
100
AcDbBlockReference
  2
SW_NOTE_6
 10
9.7276462848
 20
2.9094358226
 30
0.0
  0
LEADER
  5
492
330
1F
100
AcDbEntity
  8
0
  6
Continuous
 62
     7
 48
1.5
370
     0
100
AcDbLeader
  3
SLDDIMSTYLE4
 73
     2
 76
     3
 10
8.9791549667
 20
6.6383568148
 30
0.0
 10
9.3526462848
 20
2.9094358226
 30
0.0
 10
9.7276462848
 20
2.9094358226
 30
0.0
340
491
  0
MTEXT
  5
493
330
1F
100
AcDbEntity
  8
0
  6
Continuous
 62
     7
 48
1.5
370
     0
100
AcDbMText
 10
7.022329411
 20
4.4861015386
 30
0.0
 40
0.1875
 41
0.0
 71
     1
 72
     1
  1
\LCOVER REMOVED
  7
SLDTEXTSTYLE0
 73
     1
 44
1.0
  0
ARC
  5
494
330
1F
100
AcDbEntity
  8
0
  6
Continuous
 62
     7
 48
2.25
370
    15
100
AcDbCircle
 10
4.9194707319
 20
11.1120103748
 30
0.0
 40
0.0150000000000006
100
AcDbArc
 50
0.0
 51
90.0
  0
ARC
  5
495
330
1F
100
AcDbEntity
  8
0
  6
Continuous
 62
     7
 48
2.25
370
    15
100
AcDbCircle
 10
4.4494707319
 20
11.1120103748
 30
0.0
 40
0.0150000000000006
100
AcDbArc
 50
90.0
 51
180.0
  0
ARC
  5
496
330
1F
100
AcDbEntity
  8
0
  6
Continuous
 62
     7
 48
2.25
370
    15
100
AcDbCircle
 10
4.9194707319
 20
11.0720103748
 30
0.0
 40
0.0149999999999997
100
AcDbArc
 50
270.0
 51
0.0
  0
ARC
  5
497
330
1F
100
AcDbEntity
  8
0
  6
Continuous
 62
     7
 48
2.25
370
    15
100
AcDbCircle
 10
4.4494707319
 20
11.0720103748
 30
0.0
 40
0.0150000000000006
100
AcDbArc
 50
180.0
 51
270.0
  0
LINE
  5
498
330
1F
100
AcDbEntity
  8
0
  6
Continuous
 62
     7
 48
1.5
370
    15
100
AcDbLine
 10
4.4344707198
 20
11.1120105059
 30
0.0
 11
4.4344707198
 21
11.0720102746
 31
0.0
  0
LINE
  5
499
330
1F
100
AcDbEntity
  8
0
  6
Continuous
 62
     7
 48
1.5
370
    15
100
AcDbLine
 10
4.9344707504
 20
11.0720102746
 30
0.0
 11
4.9344707504
 21
11.1120105059
 31
0.0
  0
ARC
  5
49A
330
1F
100
AcDbEntity
  8
0
  6
Continuous
 62
     7
 48
2.25
370
    15
100
AcDbCircle
 10
2.4194707319
 20
11.1120103748
 30
0.0
 40
0.0150000000000006
100
AcDbArc
 50
0.0
 51
90.0
  0
ARC
  5
49B
330
1F
100
AcDbEntity
  8
0
  6
Continuous
 62
     7
 48
2.25
370
    15
100
AcDbCircle
 10
1.9494707319
 20
11.1120103748
 30
0.0
 40
0.0150000000000006
100
AcDbArc
 50
90.0
 51
180.0
  0
ARC
  5
49C
330
1F
100
AcDbEntity
  8
0
  6
Continuous
 62
     7
 48
2.25
370
    15
100
AcDbCircle
 10
2.4194707319
 20
11.0720103748
 30
0.0
 40
0.0150000000000001
100
AcDbArc
 50
270.0
 51
0.0
  0
ARC
  5
49D
330
1F
100
AcDbEntity
  8
0
  6
Continuous
 62
     7
 48
2.25
370
    15
100
AcDbCircle
 10
1.9494707319
 20
11.0720103748
 30
0.0
 40
0.0149999999999999
100
AcDbArc
 50
180.0
 51
270.0
  0
LINE
  5
49E
330
1F
100
AcDbEntity
  8
0
  6
Continuous
 62
     7
 48
1.5
370
    15
100
AcDbLine
 10
1.9344707133
 20
11.1120105059
 30
0.0
 11
1.9344707133
 21
11.0720102746
 31
0.0
  0
LINE
  5
49F
330
1F
100
AcDbEntity
  8
0
  6
Continuous
 62
     7
 48
1.5
370
    15
100
AcDbLine
 10
2.4344707439
 20
11.0720102746
 30
0.0
 11
2.4344707439
 21
11.1120105059
 31
0.0
  0
LINE
  5
4A0
330
1F
100
AcDbEntity
  8
0
  6
Continuous
 62
     7
 48
1.5
370
    15
100
AcDbLine
 10
1.9744707979
 20
11.0570102613
 30
0.0
 11
1.9773571646
 21
11.024018269
 31
0.0
  0
LINE
  5
4A1
330
1F
100
AcDbEntity
  8
0
  6
Continuous
 62
     7
 48
1.5
370
    15
100
AcDbLine
 10
2.3915842927
 20
11.024018269
 30
0.0
 11
2.3944707327
 21
11.0570102613
 31
0.0
  0
LINE
  5
4A2
330
1F
100
AcDbEntity
  8
0
  6
Continuous
 62
     7
 48
1.5
370
    15
100
AcDbLine
 10
2.0051793632
 20
11.024018269
 30
0.0
 11
2.0051793632
 21
11.0197661582
 31
0.0
  0
LINE
  5
4A3
330
1F
100
AcDbEntity
  8
0
  6
Continuous
 62
     7
 48
1.5
370
    15
100
AcDbLine
 10
2.3637620941
 20
11.0197661582
 30
0.0
 11
2.3637620941
 21
11.024018269
 31
0.0
  0
ARC
  5
4A4
330
1F
100
AcDbEntity
  8
0
  6
Continuous
 62
     7
 48
2.25
370
    15
100
AcDbCircle
 10
2.285021913
 20
11.0197662803
 30
0.0
 40
0.0787401574803166
100
AcDbArc
 50
270.0
 51
0.0
  0
ARC
  5
4A5
330
1F
100
AcDbEntity
  8
0
  6
Continuous
 62
     7
 48
2.25
370
    15
100
AcDbCircle
 10
2.0839195508
 20
11.0197662803
 30
0.0
 40
0.0787401574803166
100
AcDbArc
 50
180.0
 51
270.0
  0
LINE
  5
4A6
330
1F
100
AcDbEntity
  8
0
  6
Continuous
 62
     7
 48
1.5
370
    15
100
AcDbLine
 10
4.474470731
 20
11.0570102613
 30
0.0
 11
4.477357171
 21
11.024018269
 31
0.0
  0
LINE
  5
4A7
330
1F
100
AcDbEntity
  8
0
  6
Continuous
 62
     7
 48
1.5
370
    15
100
AcDbLine
 10
4.8915842992
 20
11.024018269
 30
0.0
 11
4.8944706658
 21
11.0570102613
 31
0.0
  0
LINE
  5
4A8
330
1F
100
AcDbEntity
  8
0
  6
Continuous
 62
     7
 48
1.5
370
    15
100
AcDbLine
 10
4.5051793696
 20
11.024018269
 30
0.0
 11
4.5051793696
 21
11.0197661582
 31
0.0
  0
LINE
  5
4A9
330
1F
100
AcDbEntity
  8
0
  6
Continuous
 62
     7
 48
1.5
370
    15
100
AcDbLine
 10
4.8637621006
 20
11.0197661582
 30
0.0
 11
4.8637621006
 21
11.024018269
 31
0.0
  0
ARC
  5
4AA
330
1F
100
AcDbEntity
  8
0
  6
Continuous
 62
     7
 48
2.25
370
    15
100
AcDbCircle
 10
4.785021913
 20
11.0197662803
 30
0.0
 40
0.0787401574803166
100
AcDbArc
 50
270.0
 51
0.0
  0
ARC
  5
4AB
330
1F
100
AcDbEntity
  8
0
  6
Continuous
 62
     7
 48
2.25
370
    15
100
AcDbCircle
 10
4.5839195508
 20
11.0197662803
 30
0.0
 40
0.0787401574803166
100
AcDbArc
 50
180.0
 51
270.0
  0
LINE
  5
4AC
330
1F
100
AcDbEntity
  8
0
  6
Continuous
 62
     7
 48
1.5
370
    15
100
AcDbLine
 10
4.919470737
 20
11.0570102613
 30
0.0
 11
4.4494707332
 21
11.0570102613
 31
0.0
  0
LINE
  5
4AD
330
1F
100
AcDbEntity
  8
0
  6
Continuous
 62
     7
 48
1.5
370
    15
100
AcDbLine
 10
2.4194707306
 20
11.0570102613
 30
0.0
 11
1.9494707267
 21
11.0570102613
 31
0.0
  0
LINE
  5
4AE
330
1F
100
AcDbEntity
  8
0
  6
Continuous
 62
     7
 48
1.5
370
    15
100
AcDbLine
 10
2.3915842927
 20
11.024018269
 30
0.0
 11
1.9773571646
 21
11.024018269
 31
0.0
  0
LINE
  5
4AF
330
1F
100
AcDbEntity
  8
0
  6
Continuous
 62
     7
 48
1.5
370
    15
100
AcDbLine
 10
2.2850219237
 20
10.9410261344
 30
0.0
 11
2.0839195335
 21
10.9410261344
 31
0.0
  0
LINE
  5
4B0
330
1F
100
AcDbEntity
  8
0
  6
Continuous
 62
     7
 48
1.5
370
    15
100
AcDbLine
 10
4.8915842992
 20
11.024018269
 30
0.0
 11
4.477357171
 21
11.024018269
 31
0.0
  0
LINE
  5
4B1
330
1F
100
AcDbEntity
  8
0
  6
Continuous
 62
     7
 48
1.5
370
    15
100
AcDbLine
 10
4.7850219302
 20
10.9410261344
 30
0.0
 11
4.58391954
 21
10.9410261344
 31
0.0
  0
LINE
  5
4B2
330
1F
100
AcDbEntity
  8
0
  6
Continuous
 62
     7
 48
1.5
370
    15
100
AcDbLine
 10
1.6844707347
 20
11.2200104849
 30
0.0
 11
1.6844707347
 21
11.6270103299
 31
0.0
  0
LINE
  5
4B3
330
1F
100
AcDbEntity
  8
0
  6
Continuous
 62
     7
 48
1.5
370
    15
100
AcDbLine
 10
1.6844707347
 20
11.6270103299
 30
0.0
 11
1.7774707003
 21
11.6270103299
 31
0.0
  0
LINE
  5
4B4
330
1F
100
AcDbEntity
  8
0
  6
Continuous
 62
     7
 48
1.5
370
    15
100
AcDbLine
 10
5.0914707634
 20
11.6270103299
 30
0.0
 11
1.7774707003
 21
11.6270103299
 31
0.0
  0
LINE
  5
4B5
330
1F
100
AcDbEntity
  8
0
  6
Continuous
 62
     7
 48
1.5
370
    15
100
AcDbLine
 10
1.7774707003
 20
11.1270105193
 30
0.0
 11
5.0914707634
 21
11.1270105193
 31
0.0
  0
ARC
  5
4B6
330
1F
100
AcDbEntity
  8
0
  6
Continuous
 62
     7
 48
2.25
370
    15
100
AcDbCircle
 10
1.7774707319
 20
11.2200103748
 30
0.0
 40
0.0930000000000017
100
AcDbArc
 50
180.0
 51
270.0
  0
LINE
  5
4B7
330
1F
100
AcDbEntity
  8
0
  6
Continuous
 62
     7
 48
1.5
370
    15
100
AcDbLine
 10
5.184470729
 20
11.6270103299
 30
0.0
 11
5.184470729
 21
11.2200104849
 31
0.0
  0
LINE
  5
4B8
330
1F
100
AcDbEntity
  8
0
  6
Continuous
 62
     7
 48
1.5
370
    15
100
AcDbLine
 10
5.0914707634
 20
11.6270103299
 30
0.0
 11
5.184470729
 21
11.6270103299
 31
0.0
  0
ARC
  5
4B9
330
1F
100
AcDbEntity
  8
0
  6
Continuous
 62
     7
 48
2.25
370
    15
100
AcDbCircle
 10
5.0914707319
 20
11.2200103748
 30
0.0
 40
0.0930000000000017
100
AcDbArc
 50
270.0
 51
0.0
  0
LINE
  5
4BA
330
1F
100
AcDbEntity
  8
0
  6
Continuous
 62
     7
 48
1.5
370
    15
100
AcDbLine
 10
4.9344707504
 20
14.1330103729
 30
0.0
 11
4.9344707504
 21
14.0550103748
 31
0.0
  0
LINE
  5
4BB
330
1F
100
AcDbEntity
  8
0
  6
Continuous
 62
     7
 48
1.5
370
    15
100
AcDbLine
 10
4.6844707718
 20
14.0550103748
 30
0.0
 11
4.9344707504
 21
14.0550103748
 31
0.0
  0
LINE
  5
4BC
330
1F
100
AcDbEntity
  8
0
  6
Continuous
 62
     7
 48
1.5
370
    15
100
AcDbLine
 10
4.6844707718
 20
14.1330103729
 30
0.0
 11
4.9344707504
 21
14.1330103729
 31
0.0
  0
LINE
  5
4BD
330
1F
100
AcDbEntity
  8
0
  6
Continuous
 62
     7
 48
1.5
370
    15
100
AcDbLine
 10
4.6844707718
 20
14.0550103748
 30
0.0
 11
2.184470692
 21
14.0550103748
 31
0.0
  0
LINE
  5
4BE
330
1F
100
AcDbEntity
  8
0
  6
Continuous
 62
     7
 48
1.5
370
    15
100
AcDbLine
 10
4.6844707718
 20
14.1330103729
 30
0.0
 11
2.184470692
 21
14.1330103729
 31
0.0
  0
LINE
  5
4BF
330
1F
100
AcDbEntity
  8
0
  6
Continuous
 62
     7
 48
1.5
370
    15
100
AcDbLine
 10
1.9344707133
 20
14.1330103729
 30
0.0
 11
1.9344707133
 21
14.0550103748
 31
0.0
  0
LINE
  5
4C0
330
1F
100
AcDbEntity
  8
0
  6
Continuous
 62
     7
 48
1.5
370
    15
100
AcDbLine
 10
2.184470692
 20
14.0550103748
 30
0.0
 11
1.9344707133
 21
14.0550103748
 31
0.0
  0
LINE
  5
4C1
330
1F
100
AcDbEntity
  8
0
  6
Continuous
 62
     7
 48
1.5
370
    15
100
AcDbLine
 10
2.184470692
 20
14.1330103729
 30
0.0
 11
1.9344707133
 21
14.1330103729
 31
0.0
  0
LINE
  5
4C2
330
1F
100
AcDbEntity
  8
0
  6
Continuous
 62
     7
 48
1.5
370
    15
100
AcDbLine
 10
5.0594706664
 20
13.9620103724
 30
0.0
 11
5.0594706664
 21
11.6270103299
 31
0.0
  0
LINE
  5
4C3
330
1F
100
AcDbEntity
  8
0
  6
Continuous
 62
     7
 48
1.5
370
    15
100
AcDbLine
 10
1.8094707973
 20
11.6270103299
 30
0.0
 11
1.8094707973
 21
13.9620103724
 31
0.0
  0
ARC
  5
4C4
330
1F
100
AcDbEntity
  8
0
  6
Continuous
 62
     7
 48
2.25
370
    15
100
AcDbCircle
 10
1.9024707319
 20
13.9620103748
 30
0.0
 40
0.093
100
AcDbArc
 50
90.0
 51
180.0
  0
LINE
  5
4C5
330
1F
100
AcDbEntity
  8
0
  6
Continuous
 62
     7
 48
1.5
370
    15
100
AcDbLine
 10
4.9664707007
 20
14.0550103748
 30
0.0
 11
4.9344707504
 21
14.0550103748
 31
0.0
  0
LINE
  5
4C6
330
1F
100
AcDbEntity
  8
0
  6
Continuous
 62
     7
 48
1.5
370
    15
100
AcDbLine
 10
1.9344707133
 20
14.0550103748
 30
0.0
 11
1.902470763
 21
14.0550103748
 31
0.0
  0
ARC
  5
4C7
330
1F
100
AcDbEntity
  8
0
  6
Continuous
 62
     7
 48
2.25
370
    15
100
AcDbCircle
 10
4.9664707319
 20
13.9620103748
 30
0.0
 40
0.0929999999999991
100
AcDbArc
 50
0.0
 51
90.0
  0
ENDSEC
  0
SECTION
  2
OBJECTS
  0
DICTIONARY
  5
C
330
0
100
AcDbDictionary
281
     1
  3
ACAD_GROUP
350
D
  3
ACAD_LAYOUT
350
1A
  3
ACAD_MATERIAL
350
3B
  3
ACAD_MLEADERSTYLE
350
4CA
  3
ACAD_MLINESTYLE
350
17
  3
ACAD_PLOTSETTINGS
350
19
  3
ACAD_PLOTSTYLENAME
350
E
  3
ACAD_SCALELIST
350
55
  3
ACAD_VISUALSTYLE
350
2A
  3
AcDbVariableDictionary
350
4C8
  0
DICTIONARY
  5
D
102
{ACAD_REACTORS
330
C
102
}
330
C
100
AcDbDictionary
281
     1
  0
DICTIONARY
  5
1A
102
{ACAD_REACTORS
330
C
102
}
330
C
100
AcDbDictionary
281
     1
  3
Layout1
350
1E
  3
Layout2
350
26
  3
Model
350
22
  0
DICTIONARY
  5
3B
102
{ACAD_REACTORS
330
C
102
}
330
C
100
AcDbDictionary
281
     1
  3
ByBlock
350
3D
  3
ByLayer
350
3C
  3
Global
350
3E
  0
DICTIONARY
  5
4CA
102
{ACAD_REACTORS
330
C
102
}
330
C
100
AcDbDictionary
281
     1
  0
DICTIONARY
  5
17
102
{ACAD_REACTORS
330
C
102
}
330
C
100
AcDbDictionary
281
     1
  3
Standard
350
18
  0
DICTIONARY
  5
19
102
{ACAD_REACTORS
330
C
102
}
330
C
100
AcDbDictionary
281
     1
  0
ACDBDICTIONARYWDFLT
  5
E
102
{ACAD_REACTORS
330
C
102
}
330
C
100
AcDbDictionary
281
     1
  3
Normal
350
F
100
AcDbDictionaryWithDefault
340
F
  0
DICTIONARY
  5
55
102
{ACAD_REACTORS
330
C
102
}
330
C
100
AcDbDictionary
281
     1
  3
A0
350
56
  3
A1
350
57
  3
A2
350
58
  3
A3
350
59
  3
A4
350
5A
  3
A5
350
5B
  3
A6
350
5C
  3
A7
350
5D
  3
A8
350
5E
  3
A9
350
5F
  3
B0
350
60
  3
B1
350
61
  3
B2
350
62
  3
B3
350
63
  3
B4
350
64
  3
B5
350
65
  3
B6
350
66
  3
B7
350
67
  3
B8
350
68
  3
B9
350
69
  3
C0
350
6A
  3
C1
350
6B
  3
C2
350
6C
  3
C3
350
6D
  3
C4
350
6E
  3
C5
350
6F
  3
C6
350
70
  3
C7
350
71
  3
C8
350
72
  3
C9
350
73
  3
D0
350
74
  3
D1
350
75
  3
D2
350
76
  0
DICTIONARY
  5
2A
102
{ACAD_REACTORS
330
C
102
}
330
C
100
AcDbDictionary
281
     1
  3
2dWireframe
350
2F
  3
3D Hidden
350
31
  3
3dWireframe
350
30
  3
Basic
350
32
  3
Brighten
350
36
  3
ColorChange
350
3A
  3
Conceptual
350
34
  3
Dim
350
35
  3
Facepattern
350
39
  3
Flat
350
2B
  3
FlatWithEdges
350
2C
  3
Gouraud
350
2D
  3
GouraudWithEdges
350
2E
  3
Linepattern
350
38
  3
Realistic
350
33
  3
Thicken
350
37
  0
DICTIONARY
  5
4C8
102
{ACAD_REACTORS
330
C
102
}
330
C
100
AcDbDictionary
281
     1
  3
CANNOSCALE
350
4CB
  3
DIMASSOC
350
4CC
  3
HIDETEXT
350
4CD
  0
LAYOUT
  5
1E
102
{ACAD_REACTORS
330
1A
102
}
330
1A
100
AcDbPlotSettings
  1

  2
none_device
  4

  6

 40
0.0
 41
0.0
 42
0.0
 43
0.0
 44
0.0
 45
0.0
 46
0.0
 47
0.0
 48
0.0
 49
0.0
140
0.0
141
0.0
142
1.0
143
1.0
 70
   688
 72
     0
 73
     0
 74
     5
  7

 75
    16
147
1.0
148
0.0
149
0.0
100
AcDbLayout
  1
Layout1
 70
     1
 71
     1
 10
0.0
 20
0.0
 11
12.0
 21
9.0
 12
0.0
 22
0.0
 32
0.0
 14
1.0000000000E+20
 24
1.0000000000E+20
 34
1.0000000000E+20
 15
-1.0000000000E+20
 25
-1.0000000000E+20
 35
-1.0000000000E+20
146
0.0
 13
0.0
 23
0.0
 33
0.0
 16
1.0
 26
0.0
 36
0.0
 17
0.0
 27
1.0
 37
0.0
 76
     0
330
1B
  0
LAYOUT
  5
26
102
{ACAD_REACTORS
330
1A
102
}
330
1A
100
AcDbPlotSettings
  1

  2
none_device
  4

  6

 40
0.0
 41
0.0
 42
0.0
 43
0.0
 44
0.0
 45
0.0
 46
0.0
 47
0.0
 48
0.0
 49
0.0
140
0.0
141
0.0
142
1.0
143
1.0
 70
   688
 72
     0
 73
     0
 74
     5
  7

 75
    16
147
1.0
148
0.0
149
0.0
100
AcDbLayout
  1
Layout2
 70
     1
 71
     2
 10
0.0
 20
0.0
 11
0.0
 21
0.0
 12
0.0
 22
0.0
 32
0.0
 14
0.0
 24
0.0
 34
0.0
 15
0.0
 25
0.0
 35
0.0
146
0.0
 13
0.0
 23
0.0
 33
0.0
 16
1.0
 26
0.0
 36
0.0
 17
0.0
 27
1.0
 37
0.0
 76
     0
330
23
  0
LAYOUT
  5
22
102
{ACAD_REACTORS
330
1A
102
}
330
1A
100
AcDbPlotSettings
  1

  2
none_device
  4

  6

 40
0.0
 41
0.0
 42
0.0
 43
0.0
 44
0.0
 45
0.0
 46
0.0
 47
0.0
 48
0.0
 49
0.0
140
0.0
141
0.0
142
1.0
143
1.0
 70
  1712
 72
     0
 73
     0
 74
     0
  7

 75
     0
147
1.0
148
0.0
149
0.0
100
AcDbLayout
  1
Model
 70
     1
 71
     0
 10
0.0
 20
0.0
 11
25.5
 21
16.5
 12
0.0
 22
0.0
 32
0.0
 14
0.0
 24
0.0
 34
0.0
 15
25.5
 25
16.5
 35
0.0
146
0.0
 13
0.0
 23
0.0
 33
0.0
 16
1.0
 26
0.0
 36
0.0
 17
0.0
 27
1.0
 37
0.0
 76
     0
330
1F
331
29
  0
MATERIAL
  5
3D
102
{ACAD_REACTORS
330
3B
102
}
102
{ACAD_XDICTIONARY
360
4F0
102
}
330
3B
100
AcDbMaterial
  1
ByBlock
  0
MATERIAL
  5
3C
102
{ACAD_REACTORS
330
3B
102
}
102
{ACAD_XDICTIONARY
360
4EE
102
}
330
3B
100
AcDbMaterial
  1
ByLayer
  0
MATERIAL
  5
3E
102
{ACAD_REACTORS
330
3B
102
}
102
{ACAD_XDICTIONARY
360
4F2
102
}
330
3B
100
AcDbMaterial
  1
Global
  0
MLINESTYLE
  5
18
102
{ACAD_REACTORS
330
17
102
}
330
17
100
AcDbMlineStyle
  2
Standard
 70
     0
  3

 62
   256
 51
90.0
 52
90.0
 71
     2
 49
0.5
 62
   256
  6
BYLAYER
 49
-0.5
 62
   256
  6
BYLAYER
  0
ACDBPLACEHOLDER
  5
F
102
{ACAD_REACTORS
330
E
102
}
330
E
  0
SCALE
  5
56
102
{ACAD_REACTORS
330
55
102
}
330
55
100
AcDbScale
 70
     0
300
1:1
140
1.0
141
1.0
290
     1
  0
SCALE
  5
57
102
{ACAD_REACTORS
330
55
102
}
330
55
100
AcDbScale
 70
     0
300
1:2
140
1.0
141
2.0
290
     0
  0
SCALE
  5
58
102
{ACAD_REACTORS
330
55
102
}
330
55
100
AcDbScale
 70
     0
300
1:4
140
1.0
141
4.0
290
     0
  0
SCALE
  5
59
102
{ACAD_REACTORS
330
55
102
}
330
55
100
AcDbScale
 70
     0
300
1:5
140
1.0
141
5.0
290
     0
  0
SCALE
  5
5A
102
{ACAD_REACTORS
330
55
102
}
330
55
100
AcDbScale
 70
     0
300
1:8
140
1.0
141
8.0
290
     0
  0
SCALE
  5
5B
102
{ACAD_REACTORS
330
55
102
}
330
55
100
AcDbScale
 70
     0
300
1:10
140
1.0
141
10.0
290
     0
  0
SCALE
  5
5C
102
{ACAD_REACTORS
330
55
102
}
330
55
100
AcDbScale
 70
     0
300
1:16
140
1.0
141
16.0
290
     0
  0
SCALE
  5
5D
102
{ACAD_REACTORS
330
55
102
}
330
55
100
AcDbScale
 70
     0
300
1:20
140
1.0
141
20.0
290
     0
  0
SCALE
  5
5E
102
{ACAD_REACTORS
330
55
102
}
330
55
100
AcDbScale
 70
     0
300
1:30
140
1.0
141
30.0
290
     0
  0
SCALE
  5
5F
102
{ACAD_REACTORS
330
55
102
}
330
55
100
AcDbScale
 70
     0
300
1:40
140
1.0
141
40.0
290
     0
  0
SCALE
  5
60
102
{ACAD_REACTORS
330
55
102
}
330
55
100
AcDbScale
 70
     0
300
1:50
140
1.0
141
50.0
290
     0
  0
SCALE
  5
61
102
{ACAD_REACTORS
330
55
102
}
330
55
100
AcDbScale
 70
     0
300
1:100
140
1.0
141
100.0
290
     0
  0
SCALE
  5
62
102
{ACAD_REACTORS
330
55
102
}
330
55
100
AcDbScale
 70
     0
300
2:1
140
2.0
141
1.0
290
     0
  0
SCALE
  5
63
102
{ACAD_REACTORS
330
55
102
}
330
55
100
AcDbScale
 70
     0
300
4:1
140
4.0
141
1.0
290
     0
  0
SCALE
  5
64
102
{ACAD_REACTORS
330
55
102
}
330
55
100
AcDbScale
 70
     0
300
8:1
140
8.0
141
1.0
290
     0
  0
SCALE
  5
65
102
{ACAD_REACTORS
330
55
102
}
330
55
100
AcDbScale
 70
     0
300
10:1
140
10.0
141
1.0
290
     0
  0
SCALE
  5
66
102
{ACAD_REACTORS
330
55
102
}
330
55
100
AcDbScale
 70
     0
300
100:1
140
100.0
141
1.0
290
     0
  0
SCALE
  5
67
102
{ACAD_REACTORS
330
55
102
}
330
55
100
AcDbScale
 70
     0
300
1/128" = 1'-0"
140
0.0078125
141
12.0
290
     0
  0
SCALE
  5
68
102
{ACAD_REACTORS
330
55
102
}
330
55
100
AcDbScale
 70
     0
300
1/64" = 1'-0"
140
0.015625
141
12.0
290
     0
  0
SCALE
  5
69
102
{ACAD_REACTORS
330
55
102
}
330
55
100
AcDbScale
 70
     0
300
1/32" = 1'-0"
140
0.03125
141
12.0
290
     0
  0
SCALE
  5
6A
102
{ACAD_REACTORS
330
55
102
}
330
55
100
AcDbScale
 70
     0
300
1/16" = 1'-0"
140
0.0625
141
12.0
290
     0
  0
SCALE
  5
6B
102
{ACAD_REACTORS
330
55
102
}
330
55
100
AcDbScale
 70
     0
300
3/32" = 1'-0"
140
0.09375
141
12.0
290
     0
  0
SCALE
  5
6C
102
{ACAD_REACTORS
330
55
102
}
330
55
100
AcDbScale
 70
     0
300
1/8" = 1'-0"
140
0.125
141
12.0
290
     0
  0
SCALE
  5
6D
102
{ACAD_REACTORS
330
55
102
}
330
55
100
AcDbScale
 70
     0
300
3/16" = 1'-0"
140
0.1875
141
12.0
290
     0
  0
SCALE
  5
6E
102
{ACAD_REACTORS
330
55
102
}
330
55
100
AcDbScale
 70
     0
300
1/4" = 1'-0"
140
0.25
141
12.0
290
     0
  0
SCALE
  5
6F
102
{ACAD_REACTORS
330
55
102
}
330
55
100
AcDbScale
 70
     0
300
3/8" = 1'-0"
140
0.375
141
12.0
290
     0
  0
SCALE
  5
70
102
{ACAD_REACTORS
330
55
102
}
330
55
100
AcDbScale
 70
     0
300
1/2" = 1'-0"
140
0.5
141
12.0
290
     0
  0
SCALE
  5
71
102
{ACAD_REACTORS
330
55
102
}
330
55
100
AcDbScale
 70
     0
300
3/4" = 1'-0"
140
0.75
141
12.0
290
     0
  0
SCALE
  5
72
102
{ACAD_REACTORS
330
55
102
}
330
55
100
AcDbScale
 70
     0
300
1" = 1'-0"
140
1.0
141
12.0
290
     0
  0
SCALE
  5
73
102
{ACAD_REACTORS
330
55
102
}
330
55
100
AcDbScale
 70
     0
300
1-1/2" = 1'-0"
140
1.5
141
12.0
290
     0
  0
SCALE
  5
74
102
{ACAD_REACTORS
330
55
102
}
330
55
100
AcDbScale
 70
     0
300
3" = 1'-0"
140
3.0
141
12.0
290
     0
  0
SCALE
  5
75
102
{ACAD_REACTORS
330
55
102
}
330
55
100
AcDbScale
 70
     0
300
6" = 1'-0"
140
6.0
141
12.0
290
     0
  0
SCALE
  5
76
102
{ACAD_REACTORS
330
55
102
}
330
55
100
AcDbScale
 70
     0
300
1'-0" = 1'-0"
140
12.0
141
12.0
290
     0
  0
VISUALSTYLE
  5
2F
102
{ACAD_REACTORS
330
2A
102
}
102
{ACAD_XDICTIONARY
360
4D6
102
}
330
2A
100
AcDbVisualStyle
  2
2dWireframe
 70
     4
 71
     0
 72
     2
 73
     0
 90
        0
 40
-0.6
 41
-30.0
 62
     5
 63
     7
 74
     1
 91
        4
 64
     7
 65
   257
 75
     1
175
     1
 42
1.0
 92
        0
 66
   257
 43
1.0
 76
     1
 77
     6
 78
     2
 67
     7
 79
     5
170
     0
171
     0
290
     0
174
     0
 93
        1
 44
0.0
173
     0
291
     0
 45
0.0
1001
ACAD
1000
AcDbSavedByObjectVersion
1070
     0
  0
VISUALSTYLE
  5
31
102
{ACAD_REACTORS
330
2A
102
}
102
{ACAD_XDICTIONARY
360
4DA
102
}
330
2A
100
AcDbVisualStyle
  2
3D Hidden
 70
     6
 71
     1
 72
     2
 73
     2
 90
        0
 40
-0.6
 41
-30.0
 62
     5
 63
     7
 74
     2
 91
        2
 64
     7
 65
   257
 75
     2
175
     1
 42
40.0
 92
        0
 66
   257
 43
1.0
 76
     1
 77
     6
 78
     2
 67
     7
 79
     3
170
     0
171
     0
290
     0
174
     0
 93
        1
 44
0.0
173
     0
291
     0
 45
0.0
1001
ACAD
1000
AcDbSavedByObjectVersion
1070
     0
  0
VISUALSTYLE
  5
30
102
{ACAD_REACTORS
330
2A
102
}
102
{ACAD_XDICTIONARY
360
4D8
102
}
330
2A
100
AcDbVisualStyle
  2
3dWireframe
 70
     5
 71
     0
 72
     2
 73
     0
 90
        0
 40
-0.6
 41
-30.0
 62
     5
 63
     7
 74
     1
 91
        4
 64
     7
 65
   257
 75
     1
175
     1
 42
1.0
 92
        0
 66
   257
 43
1.0
 76
     1
 77
     6
 78
     2
 67
     7
 79
     5
170
     0
171
     0
290
     0
174
     0
 93
        1
 44
0.0
173
     0
291
     0
 45
0.0
1001
ACAD
1000
AcDbSavedByObjectVersion
1070
     0
  0
VISUALSTYLE
  5
32
102
{ACAD_REACTORS
330
2A
102
}
102
{ACAD_XDICTIONARY
360
4DC
102
}
330
2A
100
AcDbVisualStyle
  2
Basic
 70
     7
 71
     1
 72
     0
 73
     1
 90
        0
 40
-0.6
 41
-30.0
 62
     5
 63
     7
 74
     0
 91
        4
 64
     7
 65
   257
 75
     1
175
     1
 42
1.0
 92
        8
 66
     7
 43
1.0
 76
     1
 77
     6
 78
     2
 67
     7
 79
     5
170
     0
171
     0
290
     0
174
     0
 93
        1
 44
0.0
173
     0
291
     1
 45
0.0
1001
ACAD
1000
AcDbSavedByObjectVersion
1070
     0
  0
VISUALSTYLE
  5
36
102
{ACAD_REACTORS
330
2A
102
}
102
{ACAD_XDICTIONARY
360
4E4
102
}
330
2A
100
AcDbVisualStyle
  2
Brighten
 70
    12
 71
     2
 72
     2
 73
     0
 90
        0
 40
-0.6
 41
-30.0
 62
     5
 63
     7
 74
     1
 91
        4
 64
     7
 65
   257
 75
     1
175
     1
 42
1.0
 92
        8
 66
     7
 43
1.0
 76
     1
 77
     6
 78
     2
 67
     7
 79
     5
170
     0
171
     0
290
     0
174
     0
 93
        1
 44
50.0
173
     0
291
     1
 45
0.0
1001
ACAD
1000
AcDbSavedByObjectVersion
1070
     0
  0
VISUALSTYLE
  5
3A
102
{ACAD_REACTORS
330
2A
102
}
102
{ACAD_XDICTIONARY
360
4EC
102
}
330
2A
100
AcDbVisualStyle
  2
ColorChange
 70
    16
 71
     2
 72
     2
 73
     3
 90
        0
 40
-0.6
 41
-30.0
 62
     5
 63
     8
 74
     1
 91
        4
 64
     7
 65
   257
 75
     1
175
     1
 42
1.0
 92
        8
 66
     8
 43
1.0
 76
     1
 77
     6
 78
     2
 67
     7
 79
     5
170
     0
171
     0
290
     0
174
     0
 93
        1
 44
0.0
173
     0
291
     1
 45
0.0
1001
ACAD
1000
AcDbSavedByObjectVersion
1070
     0
  0
VISUALSTYLE
  5
34
102
{ACAD_REACTORS
330
2A
102
}
102
{ACAD_XDICTIONARY
360
4E0
102
}
330
2A
100
AcDbVisualStyle
  2
Conceptual
 70
     9
 71
     3
 72
     2
 73
     0
 90
        0
 40
-0.6
 41
-30.0
 62
     5
 63
     7
 74
     2
 91
        2
 64
     7
 65
   257
 75
     1
175
     1
 42
40.0
 92
        8
 66
     7
 43
1.0
 76
     1
 77
     6
 78
     2
 67
     7
 79
     3
170
     0
171
     0
290
     0
174
     0
 93
        1
 44
0.0
173
     0
291
     0
 45
0.0
1001
ACAD
1000
AcDbSavedByObjectVersion
1070
     0
  0
VISUALSTYLE
  5
35
102
{ACAD_REACTORS
330
2A
102
}
102
{ACAD_XDICTIONARY
360
4E2
102
}
330
2A
100
AcDbVisualStyle
  2
Dim
 70
    11
 71
     2
 72
     2
 73
     0
 90
        0
 40
-0.6
 41
-30.0
 62
     5
 63
     7
 74
     1
 91
        4
 64
     7
 65
   257
 75
     1
175
     1
 42
1.0
 92
        8
 66
     7
 43
1.0
 76
     1
 77
     6
 78
     2
 67
     7
 79
     5
170
     0
171
     0
290
     0
174
     0
 93
        1
 44
-50.0
173
     0
291
     1
 45
0.0
1001
ACAD
1000
AcDbSavedByObjectVersion
1070
     0
  0
VISUALSTYLE
  5
39
102
{ACAD_REACTORS
330
2A
102
}
102
{ACAD_XDICTIONARY
360
4EA
102
}
330
2A
100
AcDbVisualStyle
  2
Facepattern
 70
    15
 71
     2
 72
     2
 73
     0
 90
        0
 40
-0.6
 41
-30.0
 62
     5
 63
     7
 74
     1
 91
        4
 64
     7
 65
   257
 75
     1
175
     1
 42
1.0
 92
        8
 66
     7
 43
1.0
 76
     1
 77
     6
 78
     2
 67
     7
 79
     5
170
     0
171
     0
290
     0
174
     0
 93
        1
 44
0.0
173
     0
291
     1
 45
0.0
1001
ACAD
1000
AcDbSavedByObjectVersion
1070
     0
  0
VISUALSTYLE
  5
2B
102
{ACAD_REACTORS
330
2A
102
}
102
{ACAD_XDICTIONARY
360
4CE
102
}
330
2A
100
AcDbVisualStyle
  2
Flat
 70
     0
 71
     2
 72
     1
 73
     1
 90
        2
 40
-0.6
 41
30.0
 62
     5
 63
     7
 74
     0
 91
        4
 64
     7
 65
   257
 75
     1
175
     1
 42
1.0
 92
        8
 66
     7
 43
1.0
 76
     1
 77
     6
 78
     2
 67
     7
 79
     5
170
     0
171
     0
290
     0
174
     0
 93
       13
 44
0.0
173
     0
291
     1
 45
0.0
1001
ACAD
1000
AcDbSavedByObjectVersion
1070
     0
  0
VISUALSTYLE
  5
2C
102
{ACAD_REACTORS
330
2A
102
}
102
{ACAD_XDICTIONARY
360
4D0
102
}
330
2A
100
AcDbVisualStyle
  2
FlatWithEdges
 70
     1
 71
     2
 72
     1
 73
     1
 90
        2
 40
-0.6
 41
30.0
 62
     5
 63
     7
 74
     1
 91
        4
 64
     7
 65
   257
 75
     1
175
     1
 42
1.0
 92
        0
 66
   257
 43
1.0
 76
     1
 77
     6
 78
     2
 67
     7
 79
     5
170
     0
171
     0
290
     0
174
     0
 93
       13
 44
0.0
173
     0
291
     1
 45
0.0
1001
ACAD
1000
AcDbSavedByObjectVersion
1070
     0
  0
VISUALSTYLE
  5
2D
102
{ACAD_REACTORS
330
2A
102
}
102
{ACAD_XDICTIONARY
360
4D2
102
}
330
2A
100
AcDbVisualStyle
  2
Gouraud
 70
     2
 71
     2
 72
     2
 73
     1
 90
        2
 40
-0.6
 41
30.0
 62
     5
 63
     7
 74
     0
 91
        4
 64
     7
 65
   257
 75
     1
175
     1
 42
1.0
 92
        0
 66
     7
 43
1.0
 76
     1
 77
     6
 78
     2
 67
     7
 79
     5
170
     0
171
     0
290
     0
174
     0
 93
       13
 44
0.0
173
     0
291
     1
 45
0.0
1001
ACAD
1000
AcDbSavedByObjectVersion
1070
     0
  0
VISUALSTYLE
  5
2E
102
{ACAD_REACTORS
330
2A
102
}
102
{ACAD_XDICTIONARY
360
4D4
102
}
330
2A
100
AcDbVisualStyle
  2
GouraudWithEdges
 70
     3
 71
     2
 72
     2
 73
     1
 90
        2
 40
-0.6
 41
30.0
 62
     5
 63
     7
 74
     1
 91
        4
 64
     7
 65
   257
 75
     1
175
     1
 42
1.0
 92
        0
 66
   257
 43
1.0
 76
     1
 77
     6
 78
     2
 67
     7
 79
     5
170
     0
171
     0
290
     0
174
     0
 93
       13
 44
0.0
173
     0
291
     1
 45
0.0
1001
ACAD
1000
AcDbSavedByObjectVersion
1070
     0
  0
VISUALSTYLE
  5
38
102
{ACAD_REACTORS
330
2A
102
}
102
{ACAD_XDICTIONARY
360
4E8
102
}
330
2A
100
AcDbVisualStyle
  2
Linepattern
 70
    14
 71
     2
 72
     2
 73
     0
 90
        0
 40
-0.6
 41
-30.0
 62
     5
 63
     7
 74
     1
 91
        4
 64
     7
 65
   257
 75
     7
175
     7
 42
1.0
 92
        8
 66
     7
 43
1.0
 76
     1
 77
     6
 78
     2
 67
     7
 79
     5
170
     0
171
     0
290
     0
174
     0
 93
        1
 44
0.0
173
     0
291
     1
 45
0.0
1001
ACAD
1000
AcDbSavedByObjectVersion
1070
     0
  0
VISUALSTYLE
  5
33
102
{ACAD_REACTORS
330
2A
102
}
102
{ACAD_XDICTIONARY
360
4DE
102
}
330
2A
100
AcDbVisualStyle
  2
Realistic
 70
     8
 71
     2
 72
     2
 73
     0
 90
        0
 40
-0.6
 41
-30.0
 62
     5
 63
     7
 74
     1
 91
        0
 64
     7
 65
   257
 75
     1
175
     1
 42
1.0
 92
        8
 66
     8
 43
1.0
 76
     1
 77
     6
 78
     2
 67
     7
 79
     5
170
     0
171
     0
290
     0
174
     0
 93
       13
 44
0.0
173
     0
291
     0
 45
0.0
1001
ACAD
1000
AcDbSavedByObjectVersion
1070
     0
  0
VISUALSTYLE
  5
37
102
{ACAD_REACTORS
330
2A
102
}
102
{ACAD_XDICTIONARY
360
4E6
102
}
330
2A
100
AcDbVisualStyle
  2
Thicken
 70
    13
 71
     2
 72
     2
 73
     0
 90
        0
 40
-0.6
 41
-30.0
 62
     5
 63
     7
 74
     1
 91
        4
 64
     7
 65
   257
 75
     1
175
     1
 42
1.0
 92
       12
 66
     7
 43
1.0
 76
     1
 77
     6
 78
     2
 67
     7
 79
     5
170
     0
171
     0
290
     0
174
     0
 93
        1
 44
0.0
173
     0
291
     1
 45
0.0
1001
ACAD
1000
AcDbSavedByObjectVersion
1070
     0
  0
DICTIONARYVAR
  5
4CB
102
{ACAD_REACTORS
330
4C8
102
}
330
4C8
100
DictionaryVariables
280
     0
  1
1:1
  0
DICTIONARYVAR
  5
4CC
102
{ACAD_REACTORS
330
4C8
102
}
330
4C8
100
DictionaryVariables
280
     0
  1
2
  0
DICTIONARYVAR
  5
4CD
102
{ACAD_REACTORS
330
4C8
102
}
330
4C8
100
DictionaryVariables
280
     0
  1
1
  0
DICTIONARY
  5
4F0
330
3D
100
AcDbDictionary
280
     1
281
     1
  3
ACAD_XREC_ROUNDTRIP
360
4F1
  0
DICTIONARY
  5
4EE
330
3C
100
AcDbDictionary
280
     1
281
     1
  3
ACAD_XREC_ROUNDTRIP
360
4EF
  0
DICTIONARY
  5
4F2
330
3E
100
AcDbDictionary
280
     1
281
     1
  3
ACAD_XREC_ROUNDTRIP
360
4F3
  0
DICTIONARY
  5
4D6
330
2F
100
AcDbDictionary
280
     1
281
     1
  3
ACAD_XREC_ROUNDTRIP
360
4D7
  0
DICTIONARY
  5
4DA
330
31
100
AcDbDictionary
280
     1
281
     1
  3
ACAD_XREC_ROUNDTRIP
360
4DB
  0
DICTIONARY
  5
4D8
330
30
100
AcDbDictionary
280
     1
281
     1
  3
ACAD_XREC_ROUNDTRIP
360
4D9
  0
DICTIONARY
  5
4DC
330
32
100
AcDbDictionary
280
     1
281
     1
  3
ACAD_XREC_ROUNDTRIP
360
4DD
  0
DICTIONARY
  5
4E4
330
36
100
AcDbDictionary
280
     1
281
     1
  3
ACAD_XREC_ROUNDTRIP
360
4E5
  0
DICTIONARY
  5
4EC
330
3A
100
AcDbDictionary
280
     1
281
     1
  3
ACAD_XREC_ROUNDTRIP
360
4ED
  0
DICTIONARY
  5
4E0
330
34
100
AcDbDictionary
280
     1
281
     1
  3
ACAD_XREC_ROUNDTRIP
360
4E1
  0
DICTIONARY
  5
4E2
330
35
100
AcDbDictionary
280
     1
281
     1
  3
ACAD_XREC_ROUNDTRIP
360
4E3
  0
DICTIONARY
  5
4EA
330
39
100
AcDbDictionary
280
     1
281
     1
  3
ACAD_XREC_ROUNDTRIP
360
4EB
  0
DICTIONARY
  5
4CE
330
2B
100
AcDbDictionary
280
     1
281
     1
  3
ACAD_XREC_ROUNDTRIP
360
4CF
  0
DICTIONARY
  5
4D0
330
2C
100
AcDbDictionary
280
     1
281
     1
  3
ACAD_XREC_ROUNDTRIP
360
4D1
  0
DICTIONARY
  5
4D2
330
2D
100
AcDbDictionary
280
     1
281
     1
  3
ACAD_XREC_ROUNDTRIP
360
4D3
  0
DICTIONARY
  5
4D4
330
2E
100
AcDbDictionary
280
     1
281
     1
  3
ACAD_XREC_ROUNDTRIP
360
4D5
  0
DICTIONARY
  5
4E8
330
38
100
AcDbDictionary
280
     1
281
     1
  3
ACAD_XREC_ROUNDTRIP
360
4E9
  0
DICTIONARY
  5
4DE
330
33
100
AcDbDictionary
280
     1
281
     1
  3
ACAD_XREC_ROUNDTRIP
360
4DF
  0
DICTIONARY
  5
4E6
330
37
100
AcDbDictionary
280
     1
281
     1
  3
ACAD_XREC_ROUNDTRIP
360
4E7
  0
XRECORD
  5
4F1
102
{ACAD_REACTORS
330
4F0
102
}
330
4F0
100
AcDbXrecord
280
     1
102
MATERIAL
148
0.0
149
0.0
149
0.0
 93
        0
 94
      127
282
     0
 72
     1
 77
     1
171
     1
175
     1
179
     1
273
     0
  0
XRECORD
  5
4EF
102
{ACAD_REACTORS
330
4EE
102
}
330
4EE
100
AcDbXrecord
280
     1
102
MATERIAL
148
0.0
149
0.0
149
0.0
 93
        0
 94
      127
282
     0
 72
     1
 77
     1
171
     1
175
     1
179
     1
273
     0
  0
XRECORD
  5
4F3
102
{ACAD_REACTORS
330
4F2
102
}
330
4F2
100
AcDbXrecord
280
     1
102
MATERIAL
148
0.0
149
0.0
149
0.0
 93
        0
 94
      127
282
     0
 72
     1
 77
     1
171
     1
175
     1
179
     1
273
     0
  0
XRECORD
  5
4D7
102
{ACAD_REACTORS
330
4D6
102
}
330
4D6
100
AcDbXrecord
280
     1
102
RTVSPropertyOp0
 70
     1
102
RTVSPropertyOp1
 70
     1
102
RTVSPropertyOp2
 70
     1
102
RTVSPropertyOp3
 70
     1
102
RTVSPropertyOp4
 70
     1
102
RTVSPropertyOp5
 70
     1
102
RTVSPropertyOp6
 70
     1
102
RTVSPropertyOp7
 70
     1
102
RTVSPropertyOp8
 70
     1
102
RTVSPropertyOp9
 70
     1
102
RTVSPropertyOp10
 70
     1
102
RTVSPropertyOp11
 70
     1
102
RTVSPropertyOp12
 70
     1
102
RTVSPropertyOp13
 70
     1
102
RTVSPropertyOp14
 70
     1
102
RTVSPropertyOp15
 70
     1
102
RTVSPropertyOp16
 70
     1
102
RTVSPropertyOp17
 70
     1
102
RTVSPropertyOp18
 70
     1
102
RTVSPropertyOp19
 70
     1
102
RTVSPropertyOp20
 70
     1
102
RTVSPropertyOp21
 70
     1
102
RTVSPropertyOp22
 70
     1
102
RTVSPropertyOp23
 70
     1
102
RTVSPropertyOp24
 70
     1
102
RTVSPropertyOp25
 70
     1
102
RTVSPropertyOp26
 70
     1
102
RTVSPropertyOp27
 70
     1
  0
XRECORD
  5
4DB
102
{ACAD_REACTORS
330
4DA
102
}
330
4DA
100
AcDbXrecord
280
     1
102
RTVSPropertyOp0
 70
     1
102
RTVSPropertyOp1
 70
     1
102
RTVSPropertyOp2
 70
     1
102
RTVSPropertyOp3
 70
     1
102
RTVSPropertyOp4
 70
     1
102
RTVSPropertyOp5
 70
     1
102
RTVSPropertyOp6
 70
     1
102
RTVSPropertyOp7
 70
     1
102
RTVSPropertyOp8
 70
     1
102
RTVSPropertyOp9
 70
     1
102
RTVSPropertyOp10
 70
     1
102
RTVSPropertyOp11
 70
     1
102
RTVSPropertyOp12
 70
     1
102
RTVSPropertyOp13
 70
     1
102
RTVSPropertyOp14
 70
     1
102
RTVSPropertyOp15
 70
     1
102
RTVSPropertyOp16
 70
     1
102
RTVSPropertyOp17
 70
     1
102
RTVSPropertyOp18
 70
     1
102
RTVSPropertyOp19
 70
     1
102
RTVSPropertyOp20
 70
     1
102
RTVSPropertyOp21
 70
     1
102
RTVSPropertyOp22
 70
     1
102
RTVSPropertyOp23
 70
     1
102
RTVSPropertyOp24
 70
     1
102
RTVSPropertyOp25
 70
     1
102
RTVSPropertyOp26
 70
     1
102
RTVSPropertyOp27
 70
     1
  0
XRECORD
  5
4D9
102
{ACAD_REACTORS
330
4D8
102
}
330
4D8
100
AcDbXrecord
280
     1
102
RTVSPropertyOp0
 70
     1
102
RTVSPropertyOp1
 70
     1
102
RTVSPropertyOp2
 70
     1
102
RTVSPropertyOp3
 70
     1
102
RTVSPropertyOp4
 70
     1
102
RTVSPropertyOp5
 70
     1
102
RTVSPropertyOp6
 70
     1
102
RTVSPropertyOp7
 70
     1
102
RTVSPropertyOp8
 70
     1
102
RTVSPropertyOp9
 70
     1
102
RTVSPropertyOp10
 70
     1
102
RTVSPropertyOp11
 70
     1
102
RTVSPropertyOp12
 70
     1
102
RTVSPropertyOp13
 70
     1
102
RTVSPropertyOp14
 70
     1
102
RTVSPropertyOp15
 70
     1
102
RTVSPropertyOp16
 70
     1
102
RTVSPropertyOp17
 70
     1
102
RTVSPropertyOp18
 70
     1
102
RTVSPropertyOp19
 70
     1
102
RTVSPropertyOp20
 70
     1
102
RTVSPropertyOp21
 70
     1
102
RTVSPropertyOp22
 70
     1
102
RTVSPropertyOp23
 70
     1
102
RTVSPropertyOp24
 70
     1
102
RTVSPropertyOp25
 70
     1
102
RTVSPropertyOp26
 70
     1
102
RTVSPropertyOp27
 70
     1
  0
XRECORD
  5
4DD
102
{ACAD_REACTORS
330
4DC
102
}
330
4DC
100
AcDbXrecord
280
     1
102
RTVSPropertyOp0
 70
     1
102
RTVSPropertyOp1
 70
     1
102
RTVSPropertyOp2
 70
     1
102
RTVSPropertyOp3
 70
     1
102
RTVSPropertyOp4
 70
     1
102
RTVSPropertyOp5
 70
     1
102
RTVSPropertyOp6
 70
     1
102
RTVSPropertyOp7
 70
     1
102
RTVSPropertyOp8
 70
     1
102
RTVSPropertyOp9
 70
     1
102
RTVSPropertyOp10
 70
     1
102
RTVSPropertyOp11
 70
     1
102
RTVSPropertyOp12
 70
     1
102
RTVSPropertyOp13
 70
     1
102
RTVSPropertyOp14
 70
     1
102
RTVSPropertyOp15
 70
     1
102
RTVSPropertyOp16
 70
     1
102
RTVSPropertyOp17
 70
     1
102
RTVSPropertyOp18
 70
     1
102
RTVSPropertyOp19
 70
     1
102
RTVSPropertyOp20
 70
     1
102
RTVSPropertyOp21
 70
     1
102
RTVSPropertyOp22
 70
     1
102
RTVSPropertyOp23
 70
     1
102
RTVSPropertyOp24
 70
     1
102
RTVSPropertyOp25
 70
     1
102
RTVSPropertyOp26
 70
     1
102
RTVSPropertyOp27
 70
     1
  0
XRECORD
  5
4E5
102
{ACAD_REACTORS
330
4E4
102
}
330
4E4
100
AcDbXrecord
280
     1
102
RTVSPropertyOp0
 70
     1
102
RTVSPropertyOp1
 70
     1
102
RTVSPropertyOp2
 70
     1
102
RTVSPropertyOp3
 70
     1
102
RTVSPropertyOp4
 70
     1
102
RTVSPropertyOp5
 70
     1
102
RTVSPropertyOp6
 70
     1
102
RTVSPropertyOp7
 70
     1
102
RTVSPropertyOp8
 70
     1
102
RTVSPropertyOp9
 70
     1
102
RTVSPropertyOp10
 70
     1
102
RTVSPropertyOp11
 70
     1
102
RTVSPropertyOp12
 70
     1
102
RTVSPropertyOp13
 70
     1
102
RTVSPropertyOp14
 70
     1
102
RTVSPropertyOp15
 70
     1
102
RTVSPropertyOp16
 70
     1
102
RTVSPropertyOp17
 70
     1
102
RTVSPropertyOp18
 70
     1
102
RTVSPropertyOp19
 70
     1
102
RTVSPropertyOp20
 70
     1
102
RTVSPropertyOp21
 70
     1
102
RTVSPropertyOp22
 70
     1
102
RTVSPropertyOp23
 70
     1
102
RTVSPropertyOp24
 70
     1
102
RTVSPropertyOp25
 70
     1
102
RTVSPropertyOp26
 70
     1
102
RTVSPropertyOp27
 70
     1
  0
XRECORD
  5
4ED
102
{ACAD_REACTORS
330
4EC
102
}
330
4EC
100
AcDbXrecord
280
     1
102
RTVSPropertyOp0
 70
     1
102
RTVSPropertyOp1
 70
     1
102
RTVSPropertyOp2
 70
     1
102
RTVSPropertyOp3
 70
     1
102
RTVSPropertyOp4
 70
     1
102
RTVSPropertyOp5
 70
     1
102
RTVSPropertyOp6
 70
     1
102
RTVSPropertyOp7
 70
     1
102
RTVSPropertyOp8
 70
     1
102
RTVSPropertyOp9
 70
     1
102
RTVSPropertyOp10
 70
     1
102
RTVSPropertyOp11
 70
     1
102
RTVSPropertyOp12
 70
     1
102
RTVSPropertyOp13
 70
     1
102
RTVSPropertyOp14
 70
     1
102
RTVSPropertyOp15
 70
     1
102
RTVSPropertyOp16
 70
     1
102
RTVSPropertyOp17
 70
     1
102
RTVSPropertyOp18
 70
     1
102
RTVSPropertyOp19
 70
     1
102
RTVSPropertyOp20
 70
     1
102
RTVSPropertyOp21
 70
     1
102
RTVSPropertyOp22
 70
     1
102
RTVSPropertyOp23
 70
     1
102
RTVSPropertyOp24
 70
     1
102
RTVSPropertyOp25
 70
     1
102
RTVSPropertyOp26
 70
     1
102
RTVSPropertyOp27
 70
     1
  0
XRECORD
  5
4E1
102
{ACAD_REACTORS
330
4E0
102
}
330
4E0
100
AcDbXrecord
280
     1
102
RTVSPropertyOp0
 70
     1
102
RTVSPropertyOp1
 70
     1
102
RTVSPropertyOp2
 70
     1
102
RTVSPropertyOp3
 70
     1
102
RTVSPropertyOp4
 70
     1
102
RTVSPropertyOp5
 70
     1
102
RTVSPropertyOp6
 70
     1
102
RTVSPropertyOp7
 70
     1
102
RTVSPropertyOp8
 70
     1
102
RTVSPropertyOp9
 70
     1
102
RTVSPropertyOp10
 70
     1
102
RTVSPropertyOp11
 70
     1
102
RTVSPropertyOp12
 70
     1
102
RTVSPropertyOp13
 70
     1
102
RTVSPropertyOp14
 70
     1
102
RTVSPropertyOp15
 70
     1
102
RTVSPropertyOp16
 70
     1
102
RTVSPropertyOp17
 70
     1
102
RTVSPropertyOp18
 70
     1
102
RTVSPropertyOp19
 70
     1
102
RTVSPropertyOp20
 70
     1
102
RTVSPropertyOp21
 70
     1
102
RTVSPropertyOp22
 70
     1
102
RTVSPropertyOp23
 70
     1
102
RTVSPropertyOp24
 70
     1
102
RTVSPropertyOp25
 70
     1
102
RTVSPropertyOp26
 70
     1
102
RTVSPropertyOp27
 70
     1
  0
XRECORD
  5
4E3
102
{ACAD_REACTORS
330
4E2
102
}
330
4E2
100
AcDbXrecord
280
     1
102
RTVSPropertyOp0
 70
     1
102
RTVSPropertyOp1
 70
     1
102
RTVSPropertyOp2
 70
     1
102
RTVSPropertyOp3
 70
     1
102
RTVSPropertyOp4
 70
     1
102
RTVSPropertyOp5
 70
     1
102
RTVSPropertyOp6
 70
     1
102
RTVSPropertyOp7
 70
     1
102
RTVSPropertyOp8
 70
     1
102
RTVSPropertyOp9
 70
     1
102
RTVSPropertyOp10
 70
     1
102
RTVSPropertyOp11
 70
     1
102
RTVSPropertyOp12
 70
     1
102
RTVSPropertyOp13
 70
     1
102
RTVSPropertyOp14
 70
     1
102
RTVSPropertyOp15
 70
     1
102
RTVSPropertyOp16
 70
     1
102
RTVSPropertyOp17
 70
     1
102
RTVSPropertyOp18
 70
     1
102
RTVSPropertyOp19
 70
     1
102
RTVSPropertyOp20
 70
     1
102
RTVSPropertyOp21
 70
     1
102
RTVSPropertyOp22
 70
     1
102
RTVSPropertyOp23
 70
     1
102
RTVSPropertyOp24
 70
     1
102
RTVSPropertyOp25
 70
     1
102
RTVSPropertyOp26
 70
     1
102
RTVSPropertyOp27
 70
     1
  0
XRECORD
  5
4EB
102
{ACAD_REACTORS
330
4EA
102
}
330
4EA
100
AcDbXrecord
280
     1
102
RTVSPropertyOp0
 70
     1
102
RTVSPropertyOp1
 70
     1
102
RTVSPropertyOp2
 70
     1
102
RTVSPropertyOp3
 70
     1
102
RTVSPropertyOp4
 70
     1
102
RTVSPropertyOp5
 70
     1
102
RTVSPropertyOp6
 70
     1
102
RTVSPropertyOp7
 70
     1
102
RTVSPropertyOp8
 70
     1
102
RTVSPropertyOp9
 70
     1
102
RTVSPropertyOp10
 70
     1
102
RTVSPropertyOp11
 70
     1
102
RTVSPropertyOp12
 70
     1
102
RTVSPropertyOp13
 70
     1
102
RTVSPropertyOp14
 70
     1
102
RTVSPropertyOp15
 70
     1
102
RTVSPropertyOp16
 70
     1
102
RTVSPropertyOp17
 70
     1
102
RTVSPropertyOp18
 70
     1
102
RTVSPropertyOp19
 70
     1
102
RTVSPropertyOp20
 70
     1
102
RTVSPropertyOp21
 70
     1
102
RTVSPropertyOp22
 70
     1
102
RTVSPropertyOp23
 70
     1
102
RTVSPropertyOp24
 70
     1
102
RTVSPropertyOp25
 70
     1
102
RTVSPropertyOp26
 70
     1
102
RTVSPropertyOp27
 70
     1
  0
XRECORD
  5
4CF
102
{ACAD_REACTORS
330
4CE
102
}
330
4CE
100
AcDbXrecord
280
     1
102
RTVSPropertyOp0
 70
     1
102
RTVSPropertyOp1
 70
     1
102
RTVSPropertyOp2
 70
     1
102
RTVSPropertyOp3
 70
     1
102
RTVSPropertyOp4
 70
     1
102
RTVSPropertyOp5
 70
     1
102
RTVSPropertyOp6
 70
     1
102
RTVSPropertyOp7
 70
     1
102
RTVSPropertyOp8
 70
     1
102
RTVSPropertyOp9
 70
     1
102
RTVSPropertyOp10
 70
     1
102
RTVSPropertyOp11
 70
     1
102
RTVSPropertyOp12
 70
     1
102
RTVSPropertyOp13
 70
     1
102
RTVSPropertyOp14
 70
     1
102
RTVSPropertyOp15
 70
     1
102
RTVSPropertyOp16
 70
     1
102
RTVSPropertyOp17
 70
     1
102
RTVSPropertyOp18
 70
     1
102
RTVSPropertyOp19
 70
     1
102
RTVSPropertyOp20
 70
     1
102
RTVSPropertyOp21
 70
     1
102
RTVSPropertyOp22
 70
     1
102
RTVSPropertyOp23
 70
     1
102
RTVSPropertyOp24
 70
     1
102
RTVSPropertyOp25
 70
     1
102
RTVSPropertyOp26
 70
     1
102
RTVSPropertyOp27
 70
     1
  0
XRECORD
  5
4D1
102
{ACAD_REACTORS
330
4D0
102
}
330
4D0
100
AcDbXrecord
280
     1
102
RTVSPropertyOp0
 70
     1
102
RTVSPropertyOp1
 70
     1
102
RTVSPropertyOp2
 70
     1
102
RTVSPropertyOp3
 70
     1
102
RTVSPropertyOp4
 70
     1
102
RTVSPropertyOp5
 70
     1
102
RTVSPropertyOp6
 70
     1
102
RTVSPropertyOp7
 70
     1
102
RTVSPropertyOp8
 70
     1
102
RTVSPropertyOp9
 70
     1
102
RTVSPropertyOp10
 70
     1
102
RTVSPropertyOp11
 70
     1
102
RTVSPropertyOp12
 70
     1
102
RTVSPropertyOp13
 70
     1
102
RTVSPropertyOp14
 70
     1
102
RTVSPropertyOp15
 70
     1
102
RTVSPropertyOp16
 70
     1
102
RTVSPropertyOp17
 70
     1
102
RTVSPropertyOp18
 70
     1
102
RTVSPropertyOp19
 70
     1
102
RTVSPropertyOp20
 70
     1
102
RTVSPropertyOp21
 70
     1
102
RTVSPropertyOp22
 70
     1
102
RTVSPropertyOp23
 70
     1
102
RTVSPropertyOp24
 70
     1
102
RTVSPropertyOp25
 70
     1
102
RTVSPropertyOp26
 70
     1
102
RTVSPropertyOp27
 70
     1
  0
XRECORD
  5
4D3
102
{ACAD_REACTORS
330
4D2
102
}
330
4D2
100
AcDbXrecord
280
     1
102
RTVSPropertyOp0
 70
     1
102
RTVSPropertyOp1
 70
     1
102
RTVSPropertyOp2
 70
     1
102
RTVSPropertyOp3
 70
     1
102
RTVSPropertyOp4
 70
     1
102
RTVSPropertyOp5
 70
     1
102
RTVSPropertyOp6
 70
     1
102
RTVSPropertyOp7
 70
     1
102
RTVSPropertyOp8
 70
     1
102
RTVSPropertyOp9
 70
     1
102
RTVSPropertyOp10
 70
     1
102
RTVSPropertyOp11
 70
     1
102
RTVSPropertyOp12
 70
     1
102
RTVSPropertyOp13
 70
     1
102
RTVSPropertyOp14
 70
     1
102
RTVSPropertyOp15
 70
     1
102
RTVSPropertyOp16
 70
     1
102
RTVSPropertyOp17
 70
     1
102
RTVSPropertyOp18
 70
     1
102
RTVSPropertyOp19
 70
     1
102
RTVSPropertyOp20
 70
     1
102
RTVSPropertyOp21
 70
     1
102
RTVSPropertyOp22
 70
     1
102
RTVSPropertyOp23
 70
     1
102
RTVSPropertyOp24
 70
     1
102
RTVSPropertyOp25
 70
     1
102
RTVSPropertyOp26
 70
     1
102
RTVSPropertyOp27
 70
     1
  0
XRECORD
  5
4D5
102
{ACAD_REACTORS
330
4D4
102
}
330
4D4
100
AcDbXrecord
280
     1
102
RTVSPropertyOp0
 70
     1
102
RTVSPropertyOp1
 70
     1
102
RTVSPropertyOp2
 70
     1
102
RTVSPropertyOp3
 70
     1
102
RTVSPropertyOp4
 70
     1
102
RTVSPropertyOp5
 70
     1
102
RTVSPropertyOp6
 70
     1
102
RTVSPropertyOp7
 70
     1
102
RTVSPropertyOp8
 70
     1
102
RTVSPropertyOp9
 70
     1
102
RTVSPropertyOp10
 70
     1
102
RTVSPropertyOp11
 70
     1
102
RTVSPropertyOp12
 70
     1
102
RTVSPropertyOp13
 70
     1
102
RTVSPropertyOp14
 70
     1
102
RTVSPropertyOp15
 70
     1
102
RTVSPropertyOp16
 70
     1
102
RTVSPropertyOp17
 70
     1
102
RTVSPropertyOp18
 70
     1
102
RTVSPropertyOp19
 70
     1
102
RTVSPropertyOp20
 70
     1
102
RTVSPropertyOp21
 70
     1
102
RTVSPropertyOp22
 70
     1
102
RTVSPropertyOp23
 70
     1
102
RTVSPropertyOp24
 70
     1
102
RTVSPropertyOp25
 70
     1
102
RTVSPropertyOp26
 70
     1
102
RTVSPropertyOp27
 70
     1
  0
XRECORD
  5
4E9
102
{ACAD_REACTORS
330
4E8
102
}
330
4E8
100
AcDbXrecord
280
     1
102
RTVSPropertyOp0
 70
     1
102
RTVSPropertyOp1
 70
     1
102
RTVSPropertyOp2
 70
     1
102
RTVSPropertyOp3
 70
     1
102
RTVSPropertyOp4
 70
     1
102
RTVSPropertyOp5
 70
     1
102
RTVSPropertyOp6
 70
     1
102
RTVSPropertyOp7
 70
     1
102
RTVSPropertyOp8
 70
     1
102
RTVSPropertyOp9
 70
     1
102
RTVSPropertyOp10
 70
     1
102
RTVSPropertyOp11
 70
     1
102
RTVSPropertyOp12
 70
     1
102
RTVSPropertyOp13
 70
     1
102
RTVSPropertyOp14
 70
     1
102
RTVSPropertyOp15
 70
     1
102
RTVSPropertyOp16
 70
     1
102
RTVSPropertyOp17
 70
     1
102
RTVSPropertyOp18
 70
     1
102
RTVSPropertyOp19
 70
     1
102
RTVSPropertyOp20
 70
     1
102
RTVSPropertyOp21
 70
     1
102
RTVSPropertyOp22
 70
     1
102
RTVSPropertyOp23
 70
     1
102
RTVSPropertyOp24
 70
     1
102
RTVSPropertyOp25
 70
     1
102
RTVSPropertyOp26
 70
     1
102
RTVSPropertyOp27
 70
     1
  0
XRECORD
  5
4DF
102
{ACAD_REACTORS
330
4DE
102
}
330
4DE
100
AcDbXrecord
280
     1
102
RTVSPropertyOp0
 70
     1
102
RTVSPropertyOp1
 70
     1
102
RTVSPropertyOp2
 70
     1
102
RTVSPropertyOp3
 70
     1
102
RTVSPropertyOp4
 70
     1
102
RTVSPropertyOp5
 70
     1
102
RTVSPropertyOp6
 70
     1
102
RTVSPropertyOp7
 70
     1
102
RTVSPropertyOp8
 70
     1
102
RTVSPropertyOp9
 70
     1
102
RTVSPropertyOp10
 70
     1
102
RTVSPropertyOp11
 70
     1
102
RTVSPropertyOp12
 70
     1
102
RTVSPropertyOp13
 70
     1
102
RTVSPropertyOp14
 70
     1
102
RTVSPropertyOp15
 70
     1
102
RTVSPropertyOp16
 70
     1
102
RTVSPropertyOp17
 70
     1
102
RTVSPropertyOp18
 70
     1
102
RTVSPropertyOp19
 70
     1
102
RTVSPropertyOp20
 70
     1
102
RTVSPropertyOp21
 70
     1
102
RTVSPropertyOp22
 70
     1
102
RTVSPropertyOp23
 70
     1
102
RTVSPropertyOp24
 70
     1
102
RTVSPropertyOp25
 70
     1
102
RTVSPropertyOp26
 70
     1
102
RTVSPropertyOp27
 70
     1
  0
XRECORD
  5
4E7
102
{ACAD_REACTORS
330
4E6
102
}
330
4E6
100
AcDbXrecord
280
     1
102
RTVSPropertyOp0
 70
     1
102
RTVSPropertyOp1
 70
     1
102
RTVSPropertyOp2
 70
     1
102
RTVSPropertyOp3
 70
     1
102
RTVSPropertyOp4
 70
     1
102
RTVSPropertyOp5
 70
     1
102
RTVSPropertyOp6
 70
     1
102
RTVSPropertyOp7
 70
     1
102
RTVSPropertyOp8
 70
     1
102
RTVSPropertyOp9
 70
     1
102
RTVSPropertyOp10
 70
     1
102
RTVSPropertyOp11
 70
     1
102
RTVSPropertyOp12
 70
     1
102
RTVSPropertyOp13
 70
     1
102
RTVSPropertyOp14
 70
     1
102
RTVSPropertyOp15
 70
     1
102
RTVSPropertyOp16
 70
     1
102
RTVSPropertyOp17
 70
     1
102
RTVSPropertyOp18
 70
     1
102
RTVSPropertyOp19
 70
     1
102
RTVSPropertyOp20
 70
     1
102
RTVSPropertyOp21
 70
     1
102
RTVSPropertyOp22
 70
     1
102
RTVSPropertyOp23
 70
     1
102
RTVSPropertyOp24
 70
     1
102
RTVSPropertyOp25
 70
     1
102
RTVSPropertyOp26
 70
     1
102
RTVSPropertyOp27
 70
     1
  0
ENDSEC
  0
EOF
